  0
SECTION
  2
HEADER
  9
$ACADVER
  1
AC1015
  9
$ACADMAINTVER
 70
    20
  9
$DWGCODEPAGE
  3
ANSI_932
  9
$INSBASE
 10
0.0
 20
0.0
 30
0.0
  9
$EXTMIN
 10
301.5936564558701
 20
-555.3296207752125
 30
0.0
  9
$EXTMAX
 10
1185.64224445587
 20
201.7918962247875
 30
0.0
  9
$LIMMIN
 10
0.0
 20
0.0
  9
$LIMMAX
 10
420.0
 20
297.0
  9
$ORTHOMODE
 70
     0
  9
$REGENMODE
 70
     1
  9
$FILLMODE
 70
     1
  9
$QTEXTMODE
 70
     0
  9
$MIRRTEXT
 70
     1
  9
$LTSCALE
 40
1.0
  9
$ATTMODE
 70
     1
  9
$TEXTSIZE
 40
5.0
  9
$TRACEWID
 40
0.05
  9
$TEXTSTYLE
  7
ACAD
  9
$CLAYER
  8
0
  9
$CELTYPE
  6
CONTINUOUS
  9
$CECOLOR
 62
   256
  9
$CELTSCALE
 40
1.0
  9
$DISPSILH
 70
     0
  9
$DIMSCALE
 40
1.0
  9
$DIMASZ
 40
1.0
  9
$DIMEXO
 40
0.0
  9
$DIMDLI
 40
0.38
  9
$DIMRND
 40
0.0
  9
$DIMDLE
 40
0.0
  9
$DIMEXE
 40
0.0
  9
$DIMTP
 40
0.0
  9
$DIMTM
 40
0.0
  9
$DIMTXT
 40
5.0
  9
$DIMCEN
 40
0.09
  9
$DIMTSZ
 40
0.0
  9
$DIMTOL
 70
     0
  9
$DIMLIM
 70
     0
  9
$DIMTIH
 70
     0
  9
$DIMTOH
 70
     1
  9
$DIMSE1
 70
     0
  9
$DIMSE2
 70
     0
  9
$DIMTAD
 70
     1
  9
$DIMZIN
 70
     0
  9
$DIMBLK
  1
Dot
  9
$DIMASO
 70
     1
  9
$DIMSHO
 70
     1
  9
$DIMPOST
  1

  9
$DIMAPOST
  1

  9
$DIMALT
 70
     0
  9
$DIMALTD
 70
     2
  9
$DIMALTF
 40
25.4
  9
$DIMLFAC
 40
1.0
  9
$DIMTOFL
 70
     0
  9
$DIMTVP
 40
0.0
  9
$DIMTIX
 70
     1
  9
$DIMSOXD
 70
     0
  9
$DIMSAH
 70
     0
  9
$DIMBLK1
  1

  9
$DIMBLK2
  1

  9
$DIMSTYLE
  2
AutoCAD
  9
$DIMCLRD
 70
     4
  9
$DIMCLRE
 70
     4
  9
$DIMCLRT
 70
     3
  9
$DIMTFAC
 40
1.0
  9
$DIMGAP
 40
1.0
  9
$DIMJUST
 70
     0
  9
$DIMSD1
 70
     0
  9
$DIMSD2
 70
     0
  9
$DIMTOLJ
 70
     1
  9
$DIMTZIN
 70
     0
  9
$DIMALTZ
 70
     0
  9
$DIMALTTZ
 70
     0
  9
$DIMUPT
 70
     0
  9
$DIMDEC
 70
     0
  9
$DIMTDEC
 70
     0
  9
$DIMALTU
 70
     2
  9
$DIMALTTD
 70
     2
  9
$DIMTXSTY
  7
ACAD
  9
$DIMAUNIT
 70
     0
  9
$DIMADEC
 70
     0
  9
$DIMALTRND
 40
0.0
  9
$DIMAZIN
 70
     0
  9
$DIMDSEP
 70
    46
  9
$DIMATFIT
 70
     0
  9
$DIMFRAC
 70
     0
  9
$DIMLDRBLK
  1
None
  9
$DIMLUNIT
 70
     2
  9
$DIMLWD
 70
    -2
  9
$DIMLWE
 70
    -2
  9
$DIMTMOVE
 70
     0
  9
$LUNITS
 70
     2
  9
$LUPREC
 70
     4
  9
$SKETCHINC
 40
0.1
  9
$FILLETRAD
 40
0.0
  9
$AUNITS
 70
     0
  9
$AUPREC
 70
     0
  9
$MENU
  1
.
  9
$ELEVATION
 40
0.0
  9
$PELEVATION
 40
0.0
  9
$THICKNESS
 40
0.0
  9
$LIMCHECK
 70
     0
  9
$CHAMFERA
 40
0.0
  9
$CHAMFERB
 40
0.0
  9
$CHAMFERC
 40
0.0
  9
$CHAMFERD
 40
0.0
  9
$SKPOLY
 70
     0
  9
$TDCREATE
 40
2454316.693457674
  9
$TDUCREATE
 40
2454316.318457674
  9
$TDUPDATE
 40
2454495.419794375
  9
$TDUUPDATE
 40
2454495.044794375
  9
$TDINDWG
 40
0.3101704167
  9
$TDUSRTIMER
 40
0.3101704167
  9
$USRTIMER
 70
     1
  9
$ANGBASE
 50
0.0
  9
$ANGDIR
 70
     0
  9
$PDMODE
 70
     0
  9
$PDSIZE
 40
0.0
  9
$PLINEWID
 40
0.0
  9
$SPLFRAME
 70
     0
  9
$SPLINETYPE
 70
     6
  9
$SPLINESEGS
 70
     8
  9
$HANDSEED
  5
637F
  9
$SURFTAB1
 70
     6
  9
$SURFTAB2
 70
     6
  9
$SURFTYPE
 70
     6
  9
$SURFU
 70
     6
  9
$SURFV
 70
     6
  9
$UCSBASE
  2

  9
$UCSNAME
  2

  9
$UCSORG
 10
0.0
 20
0.0
 30
0.0
  9
$UCSXDIR
 10
1.0
 20
0.0
 30
0.0
  9
$UCSYDIR
 10
0.0
 20
1.0
 30
0.0
  9
$UCSORTHOREF
  2

  9
$UCSORTHOVIEW
 70
     0
  9
$UCSORGTOP
 10
0.0
 20
0.0
 30
0.0
  9
$UCSORGBOTTOM
 10
0.0
 20
0.0
 30
0.0
  9
$UCSORGLEFT
 10
0.0
 20
0.0
 30
0.0
  9
$UCSORGRIGHT
 10
0.0
 20
0.0
 30
0.0
  9
$UCSORGFRONT
 10
0.0
 20
0.0
 30
0.0
  9
$UCSORGBACK
 10
0.0
 20
0.0
 30
0.0
  9
$PUCSBASE
  2

  9
$PUCSNAME
  2

  9
$PUCSORG
 10
0.0
 20
0.0
 30
0.0
  9
$PUCSXDIR
 10
1.0
 20
0.0
 30
0.0
  9
$PUCSYDIR
 10
0.0
 20
1.0
 30
0.0
  9
$PUCSORTHOREF
  2

  9
$PUCSORTHOVIEW
 70
     0
  9
$PUCSORGTOP
 10
0.0
 20
0.0
 30
0.0
  9
$PUCSORGBOTTOM
 10
0.0
 20
0.0
 30
0.0
  9
$PUCSORGLEFT
 10
0.0
 20
0.0
 30
0.0
  9
$PUCSORGRIGHT
 10
0.0
 20
0.0
 30
0.0
  9
$PUCSORGFRONT
 10
0.0
 20
0.0
 30
0.0
  9
$PUCSORGBACK
 10
0.0
 20
0.0
 30
0.0
  9
$USERI1
 70
     0
  9
$USERI2
 70
     0
  9
$USERI3
 70
     0
  9
$USERI4
 70
     0
  9
$USERI5
 70
     0
  9
$USERR1
 40
0.0
  9
$USERR2
 40
0.0
  9
$USERR3
 40
0.0
  9
$USERR4
 40
0.0
  9
$USERR5
 40
0.0
  9
$WORLDVIEW
 70
     1
  9
$SHADEDGE
 70
     3
  9
$SHADEDIF
 70
    70
  9
$TILEMODE
 70
     1
  9
$MAXACTVP
 70
    48
  9
$PINSBASE
 10
0.0
 20
0.0
 30
0.0
  9
$PLIMCHECK
 70
     0
  9
$PEXTMIN
 10
1.000000000000000E+20
 20
1.000000000000000E+20
 30
1.000000000000000E+20
  9
$PEXTMAX
 10
-1.000000000000000E+20
 20
-1.000000000000000E+20
 30
-1.000000000000000E+20
  9
$PLIMMIN
 10
0.0
 20
0.0
  9
$PLIMMAX
 10
12.0
 20
9.0
  9
$UNITMODE
 70
     0
  9
$VISRETAIN
 70
     0
  9
$PLINEGEN
 70
     0
  9
$PSLTSCALE
 70
     1
  9
$TREEDEPTH
 70
  3020
  9
$CMLSTYLE
  2
Standard
  9
$CMLJUST
 70
     0
  9
$CMLSCALE
 40
1.0
  9
$PROXYGRAPHICS
 70
     1
  9
$MEASUREMENT
 70
     0
  9
$CELWEIGHT
370
    -1
  9
$ENDCAPS
280
     0
  9
$JOINSTYLE
280
     0
  9
$LWDISPLAY
290
     0
  9
$INSUNITS
 70
     0
  9
$HYPERLINKBASE
  1

  9
$STYLESHEET
  1

  9
$XEDIT
290
     1
  9
$CEPSNTYPE
380
     0
  9
$PSTYLEMODE
290
     1
  9
$FINGERPRINTGUID
  2
{CC7D6DEE-A9F1-4F3E-AC95-C84B62CCA3FD}
  9
$VERSIONGUID
  2
{581C87A8-D112-4817-BC83-D5CCE82A7B7D}
  9
$EXTNAMES
290
     1
  9
$PSVPSCALE
 40
0.0
  9
$OLESTARTUP
290
     0
  0
ENDSEC
  0
SECTION
  2
CLASSES
  0
CLASS
  1
ACDBDICTIONARYWDFLT
  2
AcDbDictionaryWithDefault
  3
ObjectDBX Classes
 90
        0
280
     0
281
     0
  0
CLASS
  1
ACDBPLACEHOLDER
  2
AcDbPlaceHolder
  3
ObjectDBX Classes
 90
        0
280
     0
281
     0
  0
CLASS
  1
LAYOUT
  2
AcDbLayout
  3
ObjectDBX Classes
 90
        0
280
     0
281
     0
  0
CLASS
  1
DICTIONARYVAR
  2
AcDbDictionaryVar
  3
ObjectDBX Classes
 90
        0
280
     0
281
     0
  0
CLASS
  1
TABLESTYLE
  2
AcDbTableStyle
  3
ObjectDBX Classes
 90
     4095
280
     0
281
     0
  0
CLASS
  1
MATERIAL
  2
AcDbMaterial
  3
ObjectDBX Classes
 90
     1153
280
     0
281
     0
  0
CLASS
  1
VISUALSTYLE
  2
AcDbVisualStyle
  3
ObjectDBX Classes
 90
     4095
280
     0
281
     0
  0
ENDSEC
  0
SECTION
  2
TABLES
  0
TABLE
  2
VPORT
  5
8
102
{ACAD_XDICTIONARY
360
6305
102
}
330
0
100
AcDbSymbolTable
 70
     1
  0
VPORT
  5
6292
330
8
100
AcDbSymbolTableRecord
100
AcDbViewportTableRecord
  2
*Active
 70
     0
 10
0.0
 20
0.0
 11
1.0
 21
1.0
 12
798.4724224021086
 22
-190.6539561127092
 13
0.0
 23
0.0
 14
1.0
 24
1.0
 15
0.0
 25
0.0
 16
0.0
 26
0.0
 36
1.0
 17
0.0
 27
0.0
 37
0.0
 40
834.484313807774
 41
1.520356234096692
 42
50.0
 43
0.0
 44
0.0
 50
0.0
 51
0.0
 71
     0
 72
   100
 73
     1
 74
     1
 75
     0
 76
     0
 77
     0
 78
     2
281
     0
 65
     1
110
0.0
120
0.0
130
0.0
111
1.0
121
0.0
131
0.0
112
0.0
122
1.0
132
0.0
 79
     0
146
0.0
  0
ENDTAB
  0
TABLE
  2
LTYPE
  5
5
330
0
100
AcDbSymbolTable
 70
    50
  0
LTYPE
  5
13
330
5
100
AcDbSymbolTableRecord
100
AcDbLinetypeTableRecord
  2
ByBlock
 70
     0
  3

 72
    65
 73
     0
 40
0.0
  0
LTYPE
  5
14
330
5
100
AcDbSymbolTableRecord
100
AcDbLinetypeTableRecord
  2
ByLayer
 70
     0
  3

 72
    65
 73
     0
 40
0.0
  0
LTYPE
  5
15
330
5
100
AcDbSymbolTableRecord
100
AcDbLinetypeTableRecord
  2
CONTINUOUS
 70
     0
  3
実線
 72
    65
 73
     0
 40
0.0
  0
LTYPE
  5
22
330
5
100
AcDbSymbolTableRecord
100
AcDbLinetypeTableRecord
  2
DASHED1
 70
     0
  3
--  --  --  --  --  --  --  --  
 72
    65
 73
     2
 40
2.5
 49
1.25
 74
     0
 49
-1.25
 74
     0
  0
LTYPE
  5
23
330
5
100
AcDbSymbolTableRecord
100
AcDbLinetypeTableRecord
  2
DASHED2
 70
     0
  3
----    ----    ----    ----    
 72
    65
 73
     2
 40
5.0
 49
2.5
 74
     0
 49
-2.5
 74
     0
  0
LTYPE
  5
24
330
5
100
AcDbSymbolTableRecord
100
AcDbLinetypeTableRecord
  2
DASHED3
 70
     0
  3
------  ------  ------  ------  
 72
    65
 73
     2
 40
5.0
 49
3.75
 74
     0
 49
-1.25
 74
     0
  0
LTYPE
  5
25
330
5
100
AcDbSymbolTableRecord
100
AcDbLinetypeTableRecord
  2
CENTER1
 70
     0
  3
----- - ----- - ----- - ----- - 
 72
    65
 73
     4
 40
10.0
 49
6.25
 74
     0
 49
-1.25
 74
     0
 49
1.25
 74
     0
 49
-1.25
 74
     0
  0
LTYPE
  5
26
330
5
100
AcDbSymbolTableRecord
100
AcDbLinetypeTableRecord
  2
CENTER2
 70
     0
  3
----------  --  ----------  --  
 72
    65
 73
     4
 40
20.0
 49
12.5
 74
     0
 49
-2.5
 74
     0
 49
2.5
 74
     0
 49
-2.5
 74
     0
  0
LTYPE
  5
27
330
5
100
AcDbSymbolTableRecord
100
AcDbLinetypeTableRecord
  2
PHANTOM1
 70
     0
  3
--- - - --- - - --- - - --- - - 
 72
    65
 73
     6
 40
10.0
 49
3.25
 74
     0
 49
-1.25
 74
     0
 49
1.25
 74
     0
 49
-1.25
 74
     0
 49
1.25
 74
     0
 49
-1.25
 74
     0
  0
LTYPE
  5
28
330
5
100
AcDbSymbolTableRecord
100
AcDbLinetypeTableRecord
  2
PHANTOM2
 70
     0
  3
--------  -  -  --------  -  -  
 72
    65
 73
     6
 40
20.0
 49
10.0
 74
     0
 49
-2.5
 74
     0
 49
1.25
 74
     0
 49
-2.5
 74
     0
 49
1.25
 74
     0
 49
-2.5
 74
     0
  0
LTYPE
  5
29
330
5
100
AcDbSymbolTableRecord
100
AcDbLinetypeTableRecord
  2
DOT
 70
     0
  3
-   -   -   -   -   -   -   -   
 72
    65
 73
     2
 40
2.5
 49
0.625
 74
     0
 49
-1.875
 74
     0
  0
LTYPE
  5
2A
330
5
100
AcDbSymbolTableRecord
100
AcDbLinetypeTableRecord
  2
DUMMY
 70
     0
  3
ダミー
 72
    65
 73
     0
 40
0.0
  0
LTYPE
  5
2B
330
5
100
AcDbSymbolTableRecord
100
AcDbLinetypeTableRecord
  2
RAND1
 70
     0
  3
ランダム線1
 72
    65
 73
     4
 40
10.0
 49
1.0
 74
     0
 49
-2.0
 74
     0
 49
3.0
 74
     0
 49
-4.0
 74
     0
  0
LTYPE
  5
2C
330
5
100
AcDbSymbolTableRecord
100
AcDbLinetypeTableRecord
  2
RAND2
 70
     0
  3
ランダム線2
 72
    65
 73
     4
 40
14.0
 49
2.0
 74
     0
 49
-3.0
 74
     0
 49
4.0
 74
     0
 49
-5.0
 74
     0
  0
LTYPE
  5
2D
330
5
100
AcDbSymbolTableRecord
100
AcDbLinetypeTableRecord
  2
RAND3
 70
     0
  3
ランダム線3
 72
    65
 73
     4
 40
18.0
 49
3.0
 74
     0
 49
-4.0
 74
     0
 49
5.0
 74
     0
 49
-6.0
 74
     0
  0
LTYPE
  5
2E
330
5
100
AcDbSymbolTableRecord
100
AcDbLinetypeTableRecord
  2
RAND4
 70
     0
  3
ランダム線4
 72
    65
 73
     4
 40
22.0
 49
4.0
 74
     0
 49
-5.0
 74
     0
 49
6.0
 74
     0
 49
-7.0
 74
     0
  0
LTYPE
  5
2F
330
5
100
AcDbSymbolTableRecord
100
AcDbLinetypeTableRecord
  2
RAND5
 70
     0
  3
ランダム線5
 72
    65
 73
     4
 40
26.0
 49
5.0
 74
     0
 49
-6.0
 74
     0
 49
7.0
 74
     0
 49
-8.0
 74
     0
  0
LTYPE
  5
30
330
5
100
AcDbSymbolTableRecord
100
AcDbLinetypeTableRecord
  2
LONG1
 70
     0
  3
----------  --  ----------  --  
 72
    65
 73
     4
 40
40.0
 49
32.5
 74
     0
 49
-2.5
 74
     0
 49
2.5
 74
     0
 49
-2.5
 74
     0
  0
LTYPE
  5
31
330
5
100
AcDbSymbolTableRecord
100
AcDbLinetypeTableRecord
  2
LONG2
 70
     0
  3
--------  -  -  --------  -  -  
 72
    65
 73
     6
 40
40.0
 49
30.0
 74
     0
 49
-2.5
 74
     0
 49
1.25
 74
     0
 49
-2.5
 74
     0
 49
1.25
 74
     0
 49
-2.5
 74
     0
  0
LTYPE
  5
32
330
5
100
AcDbSymbolTableRecord
100
AcDbLinetypeTableRecord
  2
LONG3
 70
     0
  3
+++++++++++++++..+++++++++++++++
 72
    65
 73
     2
 40
40.0
 49
37.5
 74
     0
 49
-2.5
 74
     0
  0
LTYPE
  5
33
330
5
100
AcDbSymbolTableRecord
100
AcDbLinetypeTableRecord
  2
LONG4
 70
     0
  3
+++++++++++++++..+++++++++++++++
 72
    65
 73
     2
 40
80.0
 49
75.0
 74
     0
 49
-5.0
 74
     0
  0
LTYPE
  5
34
330
5
100
AcDbSymbolTableRecord
100
AcDbLinetypeTableRecord
  2
LONG5
 70
     0
  3
----------  --  ----------  --  
 72
    65
 73
     4
 40
60.0
 49
37.5
 74
     0
 49
-7.5
 74
     0
 49
7.5
 74
     0
 49
-7.5
 74
     0
  0
LTYPE
  5
35
330
5
100
AcDbSymbolTableRecord
100
AcDbLinetypeTableRecord
  2
DASHED
 70
     0
  3
-------   -------------   ------
 72
    65
 73
     2
 40
7.5
 49
6.0
 74
     0
 49
-1.5
 74
     0
  0
LTYPE
  5
36
330
5
100
AcDbSymbolTableRecord
100
AcDbLinetypeTableRecord
  2
DASHED_SPACED
 70
     0
  3
----        --------        ----
 72
    65
 73
     2
 40
12.0
 49
6.0
 74
     0
 49
-6.0
 74
     0
  0
LTYPE
  5
37
330
5
100
AcDbSymbolTableRecord
100
AcDbLinetypeTableRecord
  2
LONG_DASHED_DOTTED
 70
     0
  3
------------- --- --------------
 72
    65
 73
     4
 40
15.25
 49
12.0
 74
     0
 49
-1.5
 74
     0
 49
0.25
 74
     0
 49
-1.5
 74
     0
  0
LTYPE
  5
38
330
5
100
AcDbSymbolTableRecord
100
AcDbLinetypeTableRecord
  2
LONG_DASHED_DOUBLE-DOTTED
 70
     0
  3
----------- --- --- ------------
 72
    65
 73
     6
 40
17.0
 49
12.0
 74
     0
 49
-1.5
 74
     0
 49
0.25
 74
     0
 49
-1.5
 74
     0
 49
0.25
 74
     0
 49
-1.5
 74
     0
  0
LTYPE
  5
39
330
5
100
AcDbSymbolTableRecord
100
AcDbLinetypeTableRecord
  2
LONG_DASHED_TRIPLICATE-DOTTED
 70
     0
  3
--------- --- --- --- ----------
 72
    65
 73
     8
 40
18.75
 49
12.0
 74
     0
 49
-1.5
 74
     0
 49
0.25
 74
     0
 49
-1.5
 74
     0
 49
0.25
 74
     0
 49
-1.5
 74
     0
 49
0.25
 74
     0
 49
-1.5
 74
     0
  0
LTYPE
  5
3A
330
5
100
AcDbSymbolTableRecord
100
AcDbLinetypeTableRecord
  2
DOTTED
 70
     0
  3
   -       -       -       -    
 72
    65
 73
     2
 40
1.75
 49
0.25
 74
     0
 49
-1.5
 74
     0
  0
LTYPE
  5
3B
330
5
100
AcDbSymbolTableRecord
100
AcDbLinetypeTableRecord
  2
CHAIN
 70
     0
  3
-------------- -- --------------
 72
    65
 73
     4
 40
18.5
 49
12.0
 74
     0
 49
-1.5
 74
     0
 49
3.5
 74
     0
 49
-1.5
 74
     0
  0
LTYPE
  5
3C
330
5
100
AcDbSymbolTableRecord
100
AcDbLinetypeTableRecord
  2
CHAIN_DOUBLE_DASH
 70
     0
  3
------------ -- -- -------------
 72
    65
 73
     6
 40
23.5
 49
12.0
 74
     0
 49
-1.5
 74
     0
 49
3.5
 74
     0
 49
-1.5
 74
     0
 49
3.5
 74
     0
 49
-1.5
 74
     0
  0
LTYPE
  5
3D
330
5
100
AcDbSymbolTableRecord
100
AcDbLinetypeTableRecord
  2
DASHED_DOTTED
 70
     0
  3
-----------     -     ----------
 72
    65
 73
     4
 40
9.25
 49
6.0
 74
     0
 49
-1.5
 74
     0
 49
0.25
 74
     0
 49
-1.5
 74
     0
  0
LTYPE
  5
3E
330
5
100
AcDbSymbolTableRecord
100
AcDbLinetypeTableRecord
  2
DOUBLE-DASHED_DOTTED
 70
     0
  3
------   -----------   -   -----
 72
    65
 73
     6
 40
16.75
 49
6.0
 74
     0
 49
-1.5
 74
     0
 49
6.0
 74
     0
 49
-1.5
 74
     0
 49
0.25
 74
     0
 49
-1.5
 74
     0
  0
LTYPE
  5
3F
330
5
100
AcDbSymbolTableRecord
100
AcDbLinetypeTableRecord
  2
DASHED_DOUBLE-DOTTED
 70
     0
  3
---------    -    -    ---------
 72
    65
 73
     6
 40
11.0
 49
6.0
 74
     0
 49
-1.5
 74
     0
 49
0.25
 74
     0
 49
-1.5
 74
     0
 49
0.25
 74
     0
 49
-1.5
 74
     0
  0
LTYPE
  5
40
330
5
100
AcDbSymbolTableRecord
100
AcDbLinetypeTableRecord
  2
DOUBLE-DASHED_DOUBLE-DOTTED
 70
     0
  3
-----   ---------   -   -   ----
 72
    65
 73
     8
 40
18.5
 49
6.0
 74
     0
 49
-1.5
 74
     0
 49
6.0
 74
     0
 49
-1.5
 74
     0
 49
0.25
 74
     0
 49
-1.5
 74
     0
 49
0.25
 74
     0
 49
-1.5
 74
     0
  0
LTYPE
  5
41
330
5
100
AcDbSymbolTableRecord
100
AcDbLinetypeTableRecord
  2
DASHED_TRIPLICATE-DOTTED
 70
     0
  3
-------    -    -    -    ------
 72
    65
 73
     8
 40
12.75
 49
6.0
 74
     0
 49
-1.5
 74
     0
 49
0.25
 74
     0
 49
-1.5
 74
     0
 49
0.25
 74
     0
 49
-1.5
 74
     0
 49
0.25
 74
     0
 49
-1.5
 74
     0
  0
LTYPE
  5
42
330
5
100
AcDbSymbolTableRecord
100
AcDbLinetypeTableRecord
  2
DOUBLE-DASHED_TRIPLICATE-DOTTED
 70
     0
  3
-----  ---------  -  -  -  -----
 72
    65
 73
    10
 40
20.25
 49
6.0
 74
     0
 49
-1.5
 74
     0
 49
6.0
 74
     0
 49
-1.5
 74
     0
 49
0.25
 74
     0
 49
-1.5
 74
     0
 49
0.25
 74
     0
 49
-1.5
 74
     0
 49
0.25
 74
     0
 49
-1.5
 74
     0
  0
LTYPE
  5
43
330
5
100
AcDbSymbolTableRecord
100
AcDbLinetypeTableRecord
  2
UNDEFINED
 70
     0
  3
--------------------------------
 72
    65
 73
     0
 40
0.0
  0
LTYPE
  5
44
330
5
100
AcDbSymbolTableRecord
100
AcDbLinetypeTableRecord
  2
PLINE2
 70
     0
  3
------     -----------     -----
 72
    65
 73
     2
 40
3.0
 49
2.1
 74
     0
 49
-0.9
 74
     0
  0
LTYPE
  5
45
330
5
100
AcDbSymbolTableRecord
100
AcDbLinetypeTableRecord
  2
PLINE3
 70
     0
  3
------------   ---   -----------
 72
    65
 73
     4
 40
10.0
 49
7.0
 74
     0
 49
-1.0
 74
     0
 49
1.0
 74
     0
 49
-1.0
 74
     0
  0
LTYPE
  5
46
330
5
100
AcDbSymbolTableRecord
100
AcDbLinetypeTableRecord
  2
PLINE4
 70
     0
  3
---------   ---   ---   --------
 72
    65
 73
     6
 40
10.0
 49
5.0
 74
     0
 49
-1.0
 74
     0
 49
1.0
 74
     0
 49
-1.0
 74
     0
 49
1.0
 74
     0
 49
-1.0
 74
     0
  0
LTYPE
  5
47
330
5
100
AcDbSymbolTableRecord
100
AcDbLinetypeTableRecord
  2
PLINE5
 70
     0
  3
------     -----------     -----
 72
    65
 73
     2
 40
5.0
 49
3.5
 74
     0
 49
-1.5
 74
     0
  0
LTYPE
  5
48
330
5
100
AcDbSymbolTableRecord
100
AcDbLinetypeTableRecord
  2
PLINE6
 70
     0
  3
------------   ---   -----------
 72
    65
 73
     4
 40
15.0
 49
10.5
 74
     0
 49
-1.5
 74
     0
 49
1.5
 74
     0
 49
-1.5
 74
     0
  0
LTYPE
  5
49
330
5
100
AcDbSymbolTableRecord
100
AcDbLinetypeTableRecord
  2
PLINE7
 70
     0
  3
---------   ---   ---   --------
 72
    65
 73
     6
 40
15.0
 49
7.5
 74
     0
 49
-1.5
 74
     0
 49
1.5
 74
     0
 49
-1.5
 74
     0
 49
1.5
 74
     0
 49
-1.5
 74
     0
  0
LTYPE
  5
4A
330
5
100
AcDbSymbolTableRecord
100
AcDbLinetypeTableRecord
  2
PLINE8
 70
     0
  3
------     -----------     -----
 72
    65
 73
     2
 40
7.0
 49
4.9
 74
     0
 49
-2.1
 74
     0
  0
LTYPE
  5
4B
330
5
100
AcDbSymbolTableRecord
100
AcDbLinetypeTableRecord
  2
PLINE9
 70
     0
  3
------------   ---   -----------
 72
    65
 73
     4
 40
20.0
 49
14.0
 74
     0
 49
-2.0
 74
     0
 49
2.0
 74
     0
 49
-2.0
 74
     0
  0
LTYPE
  5
4C
330
5
100
AcDbSymbolTableRecord
100
AcDbLinetypeTableRecord
  2
PLINE10
 70
     0
  3
---------   ---   ---   --------
 72
    65
 73
     6
 40
20.0
 49
10.0
 74
     0
 49
-2.0
 74
     0
 49
2.0
 74
     0
 49
-2.0
 74
     0
 49
2.0
 74
     0
 49
-2.0
 74
     0
  0
LTYPE
  5
4D
330
5
100
AcDbSymbolTableRecord
100
AcDbLinetypeTableRecord
  2
PLINE11
 70
     0
  3
------     -----------     -----
 72
    65
 73
     2
 40
9.0
 49
6.299999999999999
 74
     0
 49
-2.7
 74
     0
  0
LTYPE
  5
4E
330
5
100
AcDbSymbolTableRecord
100
AcDbLinetypeTableRecord
  2
PLINE12
 70
     0
  3
------------   ---   -----------
 72
    65
 73
     4
 40
25.0
 49
17.5
 74
     0
 49
-2.5
 74
     0
 49
2.5
 74
     0
 49
-2.5
 74
     0
  0
LTYPE
  5
4F
330
5
100
AcDbSymbolTableRecord
100
AcDbLinetypeTableRecord
  2
PLINE13
 70
     0
  3
---------   ---   ---   --------
 72
    65
 73
     6
 40
25.0
 49
12.5
 74
     0
 49
-2.5
 74
     0
 49
2.5
 74
     0
 49
-2.5
 74
     0
 49
2.5
 74
     0
 49
-2.5
 74
     0
  0
LTYPE
  5
50
330
5
100
AcDbSymbolTableRecord
100
AcDbLinetypeTableRecord
  2
PLINE14
 70
     0
  3
------     -----------     -----
 72
    65
 73
     2
 40
11.0
 49
7.7
 74
     0
 49
-3.299999999999999
 74
     0
  0
LTYPE
  5
51
330
5
100
AcDbSymbolTableRecord
100
AcDbLinetypeTableRecord
  2
PLINE15
 70
     0
  3
------------   ---   -----------
 72
    65
 73
     4
 40
30.0
 49
21.0
 74
     0
 49
-3.0
 74
     0
 49
3.0
 74
     0
 49
-3.0
 74
     0
  0
LTYPE
  5
52
330
5
100
AcDbSymbolTableRecord
100
AcDbLinetypeTableRecord
  2
PLINE16
 70
     0
  3
---------   ---   ---   --------
 72
    65
 73
     6
 40
30.0
 49
15.0
 74
     0
 49
-3.0
 74
     0
 49
3.0
 74
     0
 49
-3.0
 74
     0
 49
3.0
 74
     0
 49
-3.0
 74
     0
  0
ENDTAB
  0
TABLE
  2
LAYER
  5
2
102
{ACAD_XDICTIONARY
360
175
102
}
330
0
100
AcDbSymbolTable
 70
     5
  0
LAYER
  5
10
330
2
100
AcDbSymbolTableRecord
100
AcDbLayerTableRecord
  2
0
 70
     0
 62
     7
  6
CONTINUOUS
370
    -3
390
F
  0
LAYER
  5
128
330
2
100
AcDbSymbolTableRecord
100
AcDbLayerTableRecord
  2
Defpoints
 70
     0
 62
     7
  6
CONTINUOUS
290
     0
370
    -3
390
F
  0
LAYER
  5
178
330
2
100
AcDbSymbolTableRecord
100
AcDbLayerTableRecord
  2
寸法
 70
     0
 62
     7
  6
CONTINUOUS
370
    -3
390
F
  0
LAYER
  5
17A
330
2
100
AcDbSymbolTableRecord
100
AcDbLayerTableRecord
  2
躯体と製品
 70
     0
 62
     7
  6
CONTINUOUS
370
    -3
390
F
  0
LAYER
  5
3E8B
330
2
100
AcDbSymbolTableRecord
100
AcDbLayerTableRecord
  2
文字-記号
 70
     0
 62
     7
  6
CONTINUOUS
370
    -3
390
F
  0
ENDTAB
  0
TABLE
  2
STYLE
  5
3
330
0
100
AcDbSymbolTable
 70
     4
  0
STYLE
  5
11
330
3
100
AcDbSymbolTableRecord
100
AcDbTextStyleTableRecord
  2
STANDARD
 70
     0
 40
0.0
 41
1.0
 50
0.0
 71
     0
 42
0.2
  3
txt
  4
bigfont.shx
  0
STYLE
  5
53
330
3
100
AcDbSymbolTableRecord
100
AcDbTextStyleTableRecord
  2
TATEGAKI
 70
     4
 40
0.0
 41
1.0
 50
0.0
 71
     0
 42
1.0
  3
txt
  4
bigfont.shx
  0
STYLE
  5
123
330
3
100
AcDbSymbolTableRecord
100
AcDbTextStyleTableRecord
  2
ACAD
 70
     0
 40
5.0
 41
0.8
 50
0.0
 71
     0
 42
5.0
  3
romans.shx
  4
extfont.shx
  0
STYLE
  5
3A5F
330
3
100
AcDbSymbolTableRecord
100
AcDbTextStyleTableRecord
  2
VERTXT
 70
     4
 40
0.0
 41
0.8582679999999999
 50
0.0
 71
     0
 42
3.5
  3
txt.shx
  4
BIGFONT
  0
ENDTAB
  0
TABLE
  2
VIEW
  5
6
330
0
100
AcDbSymbolTable
 70
     0
  0
ENDTAB
  0
TABLE
  2
UCS
  5
7
330
0
100
AcDbSymbolTable
 70
     0
  0
ENDTAB
  0
TABLE
  2
APPID
  5
9
330
0
100
AcDbSymbolTable
 70
     1
  0
APPID
  5
12
330
9
100
AcDbSymbolTableRecord
100
AcDbRegAppTableRecord
  2
ACAD
 70
     0
  0
ENDTAB
  0
TABLE
  2
DIMSTYLE
  5
A
330
0
100
AcDbSymbolTable
 70
     3
100
AcDbDimStyleTable
 71
     1
340
126
  0
DIMSTYLE
105
11C
330
A
100
AcDbSymbolTableRecord
100
AcDbDimStyleTableRecord
  2
Standard
 70
     0
340
11
  0
DIMSTYLE
105
126
102
{ACAD_REACTORS
330
5830
330
5885
330
589D
330
58CD
330
58F9
330
5911
330
5927
330
5934
330
5941
330
594E
330
5980
330
5992
330
599F
330
59AC
330
59B9
330
59C6
330
59D3
330
59E0
330
59ED
330
59FA
330
5A07
330
5A14
330
5A21
330
5A2E
330
5A3B
330
5A48
330
5A61
330
5A6E
330
5A79
330
62F7
102
}
330
A
100
AcDbSymbolTableRecord
100
AcDbDimStyleTableRecord
  2
AutoCAD
 70
     0
 41
1.0
 42
0.0
 44
0.0
 73
     0
 77
     1
140
5.0
147
1.0
174
     1
176
     4
177
     4
178
     3
271
     0
272
     0
289
     0
340
123
341
15B0
342
11E
  0
DIMSTYLE
105
2CBB
330
A
100
AcDbSymbolTableRecord
100
AcDbDimStyleTableRecord
  2
111
 70
     0
 41
1.0
 42
0.0
 44
0.0
 73
     0
 77
     1
140
5.0
147
1.0
174
     1
176
     4
177
     4
178
     3
271
     0
272
     0
289
     0
340
123
341
15B0
342
2CB5
  0
ENDTAB
  0
TABLE
  2
BLOCK_RECORD
  5
1
330
0
100
AcDbSymbolTable
 70
    35
  0
BLOCK_RECORD
  5
1E
102
{ACAD_XDICTIONARY
360
28B
102
}
330
1
100
AcDbSymbolTableRecord
100
AcDbBlockTableRecord
  2
*Model_Space
340
21
  0
BLOCK_RECORD
  5
1A
102
{ACAD_XDICTIONARY
360
28D
102
}
330
1
100
AcDbSymbolTableRecord
100
AcDbBlockTableRecord
  2
*Paper_Space
340
1D
  0
BLOCK_RECORD
  5
11E
330
1
100
AcDbSymbolTableRecord
100
AcDbBlockTableRecord
  2
_Dot
340
0
102
{BLKREFS
331
5FEE
331
5FEF
331
5F9E
331
5F9F
331
5F94
331
5F95
331
5F56
331
5F57
331
5F4D
331
5F4E
331
5F22
331
5F23
331
5F19
331
5F1A
331
5F29
331
5F2A
331
5F32
331
5F33
331
5F44
331
5F45
331
5FB0
331
5FB1
331
5FA7
331
5FA8
331
5F8B
331
5F8C
331
6271
331
6272
331
5FDB
331
5FDC
331
5F3B
331
5F3C
331
5F10
331
5F11
331
627A
331
627B
331
5EE3
331
5EE4
331
5F79
331
5F7A
331
6282
331
6283
331
5FE4
331
5FE5
331
5FB7
331
5FB8
331
5FC0
331
5FC1
331
62B2
331
62B3
331
62CD
331
62CE
331
62D6
331
62D7
331
62FC
331
62FD
331
6328
331
6329
331
6331
331
6332
331
635F
331
6360
102
}
  0
BLOCK_RECORD
  5
15B0
330
1
100
AcDbSymbolTableRecord
100
AcDbBlockTableRecord
  2
_None
340
0
  0
BLOCK_RECORD
  5
2CB5
330
1
100
AcDbSymbolTableRecord
100
AcDbBlockTableRecord
  2
_Open30
340
0
  0
BLOCK_RECORD
  5
35E3
330
1
100
AcDbSymbolTableRecord
100
AcDbBlockTableRecord
  2
_DotBlank
340
0
  0
BLOCK_RECORD
  5
5831
330
1
100
AcDbSymbolTableRecord
100
AcDbBlockTableRecord
  2
*D4
340
0
  0
BLOCK_RECORD
  5
5886
330
1
100
AcDbSymbolTableRecord
100
AcDbBlockTableRecord
  2
*D5
340
0
  0
BLOCK_RECORD
  5
589E
330
1
100
AcDbSymbolTableRecord
100
AcDbBlockTableRecord
  2
*D6
340
0
  0
BLOCK_RECORD
  5
58CE
330
1
100
AcDbSymbolTableRecord
100
AcDbBlockTableRecord
  2
*D7
340
0
  0
BLOCK_RECORD
  5
58FA
330
1
100
AcDbSymbolTableRecord
100
AcDbBlockTableRecord
  2
*D8
340
0
  0
BLOCK_RECORD
  5
5912
330
1
100
AcDbSymbolTableRecord
100
AcDbBlockTableRecord
  2
*D9
340
0
  0
BLOCK_RECORD
  5
5928
330
1
100
AcDbSymbolTableRecord
100
AcDbBlockTableRecord
  2
*D10
340
0
  0
BLOCK_RECORD
  5
5935
330
1
100
AcDbSymbolTableRecord
100
AcDbBlockTableRecord
  2
*D11
340
0
  0
BLOCK_RECORD
  5
5942
330
1
100
AcDbSymbolTableRecord
100
AcDbBlockTableRecord
  2
*D12
340
0
  0
BLOCK_RECORD
  5
594F
330
1
100
AcDbSymbolTableRecord
100
AcDbBlockTableRecord
  2
*D13
340
0
  0
BLOCK_RECORD
  5
5981
330
1
100
AcDbSymbolTableRecord
100
AcDbBlockTableRecord
  2
*D14
340
0
  0
BLOCK_RECORD
  5
5993
330
1
100
AcDbSymbolTableRecord
100
AcDbBlockTableRecord
  2
*D15
340
0
  0
BLOCK_RECORD
  5
59A0
330
1
100
AcDbSymbolTableRecord
100
AcDbBlockTableRecord
  2
*D16
340
0
  0
BLOCK_RECORD
  5
59AD
330
1
100
AcDbSymbolTableRecord
100
AcDbBlockTableRecord
  2
*D17
340
0
  0
BLOCK_RECORD
  5
59BA
330
1
100
AcDbSymbolTableRecord
100
AcDbBlockTableRecord
  2
*D18
340
0
  0
BLOCK_RECORD
  5
59C7
330
1
100
AcDbSymbolTableRecord
100
AcDbBlockTableRecord
  2
*D19
340
0
  0
BLOCK_RECORD
  5
59D4
330
1
100
AcDbSymbolTableRecord
100
AcDbBlockTableRecord
  2
*D20
340
0
  0
BLOCK_RECORD
  5
59E1
330
1
100
AcDbSymbolTableRecord
100
AcDbBlockTableRecord
  2
*D21
340
0
  0
BLOCK_RECORD
  5
59EE
330
1
100
AcDbSymbolTableRecord
100
AcDbBlockTableRecord
  2
*D22
340
0
  0
BLOCK_RECORD
  5
59FB
330
1
100
AcDbSymbolTableRecord
100
AcDbBlockTableRecord
  2
*D23
340
0
  0
BLOCK_RECORD
  5
5A08
330
1
100
AcDbSymbolTableRecord
100
AcDbBlockTableRecord
  2
*D24
340
0
  0
BLOCK_RECORD
  5
5A15
330
1
100
AcDbSymbolTableRecord
100
AcDbBlockTableRecord
  2
*D25
340
0
  0
BLOCK_RECORD
  5
5A22
330
1
100
AcDbSymbolTableRecord
100
AcDbBlockTableRecord
  2
*D26
340
0
  0
BLOCK_RECORD
  5
5A2F
330
1
100
AcDbSymbolTableRecord
100
AcDbBlockTableRecord
  2
*D27
340
0
  0
BLOCK_RECORD
  5
5A3C
330
1
100
AcDbSymbolTableRecord
100
AcDbBlockTableRecord
  2
*D28
340
0
  0
BLOCK_RECORD
  5
5A49
330
1
100
AcDbSymbolTableRecord
100
AcDbBlockTableRecord
  2
*D29
340
0
  0
BLOCK_RECORD
  5
5A62
330
1
100
AcDbSymbolTableRecord
100
AcDbBlockTableRecord
  2
*D31
340
0
  0
BLOCK_RECORD
  5
5A6F
330
1
100
AcDbSymbolTableRecord
100
AcDbBlockTableRecord
  2
*D32
340
0
  0
BLOCK_RECORD
  5
5A7A
330
1
100
AcDbSymbolTableRecord
100
AcDbBlockTableRecord
  2
*D33
340
0
  0
BLOCK_RECORD
  5
62F8
330
1
100
AcDbSymbolTableRecord
100
AcDbBlockTableRecord
  2
*D34
340
0
  0
ENDTAB
  0
ENDSEC
  0
SECTION
  2
BLOCKS
  0
BLOCK
  5
1F
330
1E
100
AcDbEntity
  8
0
100
AcDbBlockBegin
  2
*Model_Space
 70
     0
 10
0.0
 20
0.0
 30
0.0
  3
*Model_Space
  1

  0
ENDBLK
  5
20
330
1E
100
AcDbEntity
  8
0
100
AcDbBlockEnd
  0
BLOCK
  5
1B
330
1A
100
AcDbEntity
 67
     1
  8
0
100
AcDbBlockBegin
  2
*Paper_Space
 70
     0
 10
0.0
 20
0.0
 30
0.0
  3
*Paper_Space
  1

  0
ENDBLK
  5
1C
330
1A
100
AcDbEntity
 67
     1
  8
0
100
AcDbBlockEnd
  0
BLOCK
  5
121
330
11E
100
AcDbEntity
  8
0
100
AcDbBlockBegin
  2
_Dot
 70
     0
 10
0.0
 20
0.0
 30
0.0
  3
_Dot
  1

  0
LWPOLYLINE
  5
11F
330
11E
100
AcDbEntity
  8
0
  6
ByBlock
 62
     0
100
AcDbPolyline
 90
        2
 70
     1
 43
0.5
 10
-0.25
 20
0.0
 42
1.0
 10
0.25
 20
0.0
 42
1.0
  0
LINE
  5
120
330
11E
100
AcDbEntity
  8
0
  6
ByBlock
 62
     0
370
    -2
100
AcDbLine
 10
-0.5
 20
0.0
 30
0.0
 11
-1.0
 21
0.0
 31
0.0
  0
ENDBLK
  5
122
330
11E
100
AcDbEntity
  8
0
100
AcDbBlockEnd
  0
BLOCK
  5
15B1
330
15B0
100
AcDbEntity
  8
0
100
AcDbBlockBegin
  2
_None
 70
     0
 10
0.0
 20
0.0
 30
0.0
  3
_None
  1

  0
ENDBLK
  5
15B2
330
15B0
100
AcDbEntity
  8
0
100
AcDbBlockEnd
  0
BLOCK
  5
2CB9
330
2CB5
100
AcDbEntity
  8
0
100
AcDbBlockBegin
  2
_Open30
 70
     0
 10
0.0
 20
0.0
 30
0.0
  3
_Open30
  1

  0
LINE
  5
2CB6
330
2CB5
100
AcDbEntity
  8
0
  6
ByBlock
 62
     0
370
    -2
100
AcDbLine
 10
-1.0
 20
0.26794919
 30
0.0
 11
0.0
 21
0.0
 31
0.0
  0
LINE
  5
2CB7
330
2CB5
100
AcDbEntity
  8
0
  6
ByBlock
 62
     0
370
    -2
100
AcDbLine
 10
0.0
 20
0.0
 30
0.0
 11
-1.0
 21
-0.26794919
 31
0.0
  0
LINE
  5
2CB8
330
2CB5
100
AcDbEntity
  8
0
  6
ByBlock
 62
     0
370
    -2
100
AcDbLine
 10
0.0
 20
0.0
 30
0.0
 11
-1.0
 21
0.0
 31
0.0
  0
ENDBLK
  5
2CBA
330
2CB5
100
AcDbEntity
  8
0
100
AcDbBlockEnd
  0
BLOCK
  5
35E6
330
35E3
100
AcDbEntity
  8
0
100
AcDbBlockBegin
  2
_DotBlank
 70
     0
 10
0.0
 20
0.0
 30
0.0
  3
_DotBlank
  1

  0
CIRCLE
  5
35E4
330
35E3
100
AcDbEntity
  8
0
  6
ByBlock
 62
     0
370
    -2
100
AcDbCircle
 10
0.0
 20
0.0
 30
0.0
 40
0.5
  0
LINE
  5
35E5
330
35E3
100
AcDbEntity
  8
0
  6
ByBlock
 62
     0
370
    -2
100
AcDbLine
 10
-0.5
 20
0.0
 30
0.0
 11
-1.0
 21
0.0
 31
0.0
  0
ENDBLK
  5
35E7
330
35E3
100
AcDbEntity
  8
0
100
AcDbBlockEnd
  0
BLOCK
  5
583B
330
5831
100
AcDbEntity
  8
0
100
AcDbBlockBegin
  2
*D4
 70
     1
 10
0.0
 20
0.0
 30
0.0
  3
*D4
  1

  0
LINE
  5
635C
330
5831
100
AcDbEntity
  8
寸法
  6
Continuous
 62
     4
370
    -2
100
AcDbLine
 10
740.1422454558701
 20
54.67037522478768
 30
0.0
 11
740.1422454558701
 21
87.58067215405025
 31
0.0
  0
LINE
  5
635D
330
5831
100
AcDbEntity
  8
寸法
  6
Continuous
 62
     4
370
    -2
100
AcDbLine
 10
965.1422454558701
 20
54.67037522478768
 30
0.0
 11
965.1422454558701
 21
87.58067215405025
 31
0.0
  0
LINE
  5
635E
330
5831
100
AcDbEntity
  8
寸法
  6
Continuous
 62
     4
370
    -2
100
AcDbLine
 10
741.1422454558701
 20
87.58067215405025
 30
0.0
 11
964.1422454558702
 21
87.58067215405025
 31
0.0
  0
INSERT
  5
635F
330
5831
100
AcDbEntity
  8
寸法
  6
Continuous
 62
     4
370
    -2
100
AcDbBlockReference
  2
_Dot
 10
740.1422454558701
 20
87.58067215405025
 30
0.0
 50
180.0
  0
INSERT
  5
6360
330
5831
100
AcDbEntity
  8
寸法
  6
Continuous
 62
     4
370
    -2
100
AcDbBlockReference
  2
_Dot
 10
965.1422454558701
 20
87.58067215405025
 30
0.0
  0
MTEXT
  5
6361
330
5831
100
AcDbEntity
  8
寸法
  6
Continuous
 62
     3
100
AcDbMText
 10
852.4039783957077
 20
90.88067215405025
 30
0.0
 40
5.0
 41
0.0
 71
     5
 72
     1
  1
\A1;1500以下
  7
ACAD
 73
     1
 44
1.0
1001
ACAD
1000
MTEXTBEGIN
1070
    73
1070
     1
1070
    44
1040
1.0
1070
    74
1070
     0
1000
MTEXTEND
  0
POINT
  5
6362
330
5831
100
AcDbEntity
  8
Defpoints
  6
Continuous
 62
     0
100
AcDbPoint
 10
740.1422454558701
 20
54.67037522478768
 30
0.0
  0
POINT
  5
6363
330
5831
100
AcDbEntity
  8
Defpoints
  6
Continuous
 62
     0
100
AcDbPoint
 10
965.1422454558701
 20
54.67037522478768
 30
0.0
  0
POINT
  5
6364
330
5831
100
AcDbEntity
  8
Defpoints
  6
Continuous
 62
     0
100
AcDbPoint
 10
965.1422454558701
 20
87.58067215405025
 30
0.0
  0
ENDBLK
  5
583C
330
5831
100
AcDbEntity
  8
0
100
AcDbBlockEnd
  0
BLOCK
  5
5891
330
5886
100
AcDbEntity
  8
0
100
AcDbBlockBegin
  2
*D5
 70
     1
 10
0.0
 20
0.0
 30
0.0
  3
*D5
  1

  0
LINE
  5
5FEA
330
5886
100
AcDbEntity
  8
寸法
  6
Continuous
 62
     4
370
    -2
100
AcDbLine
 10
977.1422454558701
 20
54.67037522478768
 30
0.0
 11
1007.14224545587
 21
54.67037522478768
 31
0.0
  0
LINE
  5
5FEB
330
5886
100
AcDbEntity
  8
寸法
  6
Continuous
 62
     4
370
    -2
100
AcDbLine
 10
977.1422454558701
 20
47.92037522478767
 30
0.0
 11
1007.14224545587
 21
47.92037522478767
 31
0.0
  0
LINE
  5
5FEC
330
5886
100
AcDbEntity
  8
寸法
  6
Continuous
 62
     4
370
    -2
100
AcDbLine
 10
1007.14224545587
 20
55.67037522478767
 30
0.0
 11
1007.14224545587
 21
56.67037522478768
 31
0.0
  0
LINE
  5
5FED
330
5886
100
AcDbEntity
  8
寸法
  6
Continuous
 62
     4
370
    -2
100
AcDbLine
 10
1007.14224545587
 20
46.92037522478767
 30
0.0
 11
1007.14224545587
 21
45.92037522478768
 31
0.0
  0
INSERT
  5
5FEE
330
5886
100
AcDbEntity
  8
寸法
  6
Continuous
 62
     4
370
    -2
100
AcDbBlockReference
  2
_Dot
 10
1007.14224545587
 20
54.67037522478768
 30
0.0
 50
270.0
  0
INSERT
  5
5FEF
330
5886
100
AcDbEntity
  8
寸法
  6
Continuous
 62
     4
370
    -2
100
AcDbBlockReference
  2
_Dot
 10
1007.14224545587
 20
47.92037522478767
 30
0.0
 50
90.0
  0
MTEXT
  5
5FF0
330
5886
100
AcDbEntity
  8
寸法
  6
Continuous
 62
     3
100
AcDbMText
 10
1003.84224545587
 20
51.29537522478783
 30
0.0
 40
5.0
 41
0.0
 71
     5
 72
     5
  1
\A1;45
  7
ACAD
 11
0.0000000000000001
 21
1.0
 31
0.0
 73
     1
 44
1.0
1001
ACAD
1000
MTEXTBEGIN
1070
    73
1070
     1
1070
    44
1040
1.0
1070
    74
1070
     0
1000
MTEXTEND
  0
POINT
  5
5FF1
330
5886
100
AcDbEntity
  8
Defpoints
  6
Continuous
 62
     0
100
AcDbPoint
 10
977.1422454558701
 20
54.67037522478768
 30
0.0
  0
POINT
  5
5FF2
330
5886
100
AcDbEntity
  8
Defpoints
  6
Continuous
 62
     0
100
AcDbPoint
 10
977.1422454558701
 20
47.92037522478767
 30
0.0
  0
POINT
  5
5FF3
330
5886
100
AcDbEntity
  8
Defpoints
  6
Continuous
 62
     0
100
AcDbPoint
 10
1007.14224545587
 20
47.92037522478767
 30
0.0
  0
ENDBLK
  5
5892
330
5886
100
AcDbEntity
  8
0
100
AcDbBlockEnd
  0
BLOCK
  5
58A9
330
589E
100
AcDbEntity
  8
0
100
AcDbBlockBegin
  2
*D6
 70
     1
 10
0.0
 20
0.0
 30
0.0
  3
*D6
  1

  0
LINE
  5
5F9A
330
589E
100
AcDbEntity
  8
寸法
  6
Continuous
 62
     4
370
    -2
100
AcDbLine
 10
968.8922454558701
 20
-108.0796247752123
 30
0.0
 11
1007.14224545587
 21
-108.0796247752123
 31
0.0
  0
LINE
  5
5F9B
330
589E
100
AcDbEntity
  8
寸法
  6
Continuous
 62
     4
370
    -2
100
AcDbLine
 10
968.8922454558701
 20
-111.8296247752123
 30
0.0
 11
1007.14224545587
 21
-111.8296247752123
 31
0.0
  0
LINE
  5
5F9C
330
589E
100
AcDbEntity
  8
寸法
  6
Continuous
 62
     4
370
    -2
100
AcDbLine
 10
1007.14224545587
 20
-107.0796247752123
 30
0.0
 11
1007.14224545587
 21
-106.0796247752123
 31
0.0
  0
LINE
  5
5F9D
330
589E
100
AcDbEntity
  8
寸法
  6
Continuous
 62
     4
370
    -2
100
AcDbLine
 10
1007.14224545587
 20
-112.8296247752123
 30
0.0
 11
1007.14224545587
 21
-113.8296247752123
 31
0.0
  0
INSERT
  5
5F9E
330
589E
100
AcDbEntity
  8
寸法
  6
Continuous
 62
     4
370
    -2
100
AcDbBlockReference
  2
_Dot
 10
1007.14224545587
 20
-108.0796247752123
 30
0.0
 50
270.0
  0
INSERT
  5
5F9F
330
589E
100
AcDbEntity
  8
寸法
  6
Continuous
 62
     4
370
    -2
100
AcDbBlockReference
  2
_Dot
 10
1007.14224545587
 20
-111.8296247752123
 30
0.0
 50
90.0
  0
MTEXT
  5
5FA0
330
589E
100
AcDbEntity
  8
寸法
  6
Continuous
 62
     3
100
AcDbMText
 10
1003.84224545587
 20
-109.9546247752121
 30
0.0
 40
5.0
 41
0.0
 71
     5
 72
     5
  1
\A1;25
  7
ACAD
 11
0.0000000000000001
 21
1.0
 31
0.0
 73
     1
 44
1.0
1001
ACAD
1000
MTEXTBEGIN
1070
    73
1070
     1
1070
    44
1040
1.0
1070
    74
1070
     0
1000
MTEXTEND
  0
POINT
  5
5FA1
330
589E
100
AcDbEntity
  8
Defpoints
  6
Continuous
 62
     0
100
AcDbPoint
 10
968.8922454558701
 20
-108.0796247752123
 30
0.0
  0
POINT
  5
5FA2
330
589E
100
AcDbEntity
  8
Defpoints
  6
Continuous
 62
     0
100
AcDbPoint
 10
968.8922454558701
 20
-111.8296247752123
 30
0.0
  0
POINT
  5
5FA3
330
589E
100
AcDbEntity
  8
Defpoints
  6
Continuous
 62
     0
100
AcDbPoint
 10
1007.14224545587
 20
-111.8296247752123
 30
0.0
  0
ENDBLK
  5
58AA
330
589E
100
AcDbEntity
  8
0
100
AcDbBlockEnd
  0
BLOCK
  5
58D8
330
58CE
100
AcDbEntity
  8
0
100
AcDbBlockBegin
  2
*D7
 70
     1
 10
0.0
 20
0.0
 30
0.0
  3
*D7
  1

  0
LINE
  5
632E
330
58CE
100
AcDbEntity
  8
寸法
  6
Continuous
 62
     4
370
    -2
100
AcDbLine
 10
1016.14224545587
 20
54.67037522478768
 30
0.0
 11
1037.14224545587
 21
54.67037522478768
 31
0.0
  0
LINE
  5
632F
330
58CE
100
AcDbEntity
  8
寸法
  6
Continuous
 62
     4
370
    -2
100
AcDbLine
 10
1016.14224545587
 20
-125.3296247752123
 30
0.0
 11
1037.14224545587
 21
-125.3296247752123
 31
0.0
  0
LINE
  5
6330
330
58CE
100
AcDbEntity
  8
寸法
  6
Continuous
 62
     4
370
    -2
100
AcDbLine
 10
1037.14224545587
 20
53.67037522478767
 30
0.0
 11
1037.14224545587
 21
-124.3296247752123
 31
0.0
  0
INSERT
  5
6331
330
58CE
100
AcDbEntity
  8
寸法
  6
Continuous
 62
     4
370
    -2
100
AcDbBlockReference
  2
_Dot
 10
1037.14224545587
 20
54.67037522478768
 30
0.0
 50
90.0
  0
INSERT
  5
6332
330
58CE
100
AcDbEntity
  8
寸法
  6
Continuous
 62
     4
370
    -2
100
AcDbBlockReference
  2
_Dot
 10
1037.14224545587
 20
-125.3296247752123
 30
0.0
 50
270.0
  0
MTEXT
  5
6333
330
58CE
100
AcDbEntity
  8
寸法
  6
Continuous
 62
     3
100
AcDbMText
 10
1033.84224545587
 20
-35.32962477521216
 30
0.0
 40
5.0
 41
0.0
 71
     5
 72
     1
  1
\A1;1100以上、1200以下
  7
ACAD
 11
0.0000000000000001
 21
1.0
 31
0.0
 73
     1
 44
1.0
1001
ACAD
1000
MTEXTBEGIN
1070
    73
1070
     1
1070
    44
1040
1.0
1070
    74
1070
     0
1000
MTEXTEND
  0
POINT
  5
6334
330
58CE
100
AcDbEntity
  8
Defpoints
  6
Continuous
 62
     0
100
AcDbPoint
 10
1016.14224545587
 20
54.67037522478768
 30
0.0
  0
POINT
  5
6335
330
58CE
100
AcDbEntity
  8
Defpoints
  6
Continuous
 62
     0
100
AcDbPoint
 10
1016.14224545587
 20
-125.3296247752123
 30
0.0
  0
POINT
  5
6336
330
58CE
100
AcDbEntity
  8
Defpoints
  6
Continuous
 62
     0
100
AcDbPoint
 10
1037.14224545587
 20
-125.3296247752123
 30
0.0
  0
ENDBLK
  5
58D9
330
58CE
100
AcDbEntity
  8
0
100
AcDbBlockEnd
  0
BLOCK
  5
5905
330
58FA
100
AcDbEntity
  8
0
100
AcDbBlockBegin
  2
*D8
 70
     1
 10
0.0
 20
0.0
 30
0.0
  3
*D8
  1

  0
LINE
  5
5F91
330
58FA
100
AcDbEntity
  8
寸法
  6
Continuous
 62
     4
370
    -2
100
AcDbLine
 10
968.8922454558701
 20
-111.8296247752123
 30
0.0
 11
1007.094918296367
 21
-111.8296247752123
 31
0.0
  0
LINE
  5
5F92
330
58FA
100
AcDbEntity
  8
寸法
  6
Continuous
 62
     4
370
    -2
100
AcDbLine
 10
968.8922454558701
 20
-125.3296247752123
 30
0.0
 11
1007.094918296367
 21
-125.3296247752123
 31
0.0
  0
LINE
  5
5F93
330
58FA
100
AcDbEntity
  8
寸法
  6
Continuous
 62
     4
370
    -2
100
AcDbLine
 10
1007.094918296367
 20
-112.8296247752123
 30
0.0
 11
1007.094918296367
 21
-124.3296247752123
 31
0.0
  0
INSERT
  5
5F94
330
58FA
100
AcDbEntity
  8
寸法
  6
Continuous
 62
     4
370
    -2
100
AcDbBlockReference
  2
_Dot
 10
1007.094918296367
 20
-111.8296247752123
 30
0.0
 50
90.0
  0
INSERT
  5
5F95
330
58FA
100
AcDbEntity
  8
寸法
  6
Continuous
 62
     4
370
    -2
100
AcDbBlockReference
  2
_Dot
 10
1007.094918296367
 20
-125.3296247752123
 30
0.0
 50
270.0
  0
MTEXT
  5
5F96
330
58FA
100
AcDbEntity
  8
寸法
  6
Continuous
 62
     3
100
AcDbMText
 10
1003.794918296367
 20
-118.5796247752121
 30
0.0
 40
5.0
 41
0.0
 71
     5
 72
     5
  1
\A1;90
  7
ACAD
 11
0.0000000000000001
 21
1.0
 31
0.0
 73
     1
 44
1.0
1001
ACAD
1000
MTEXTBEGIN
1070
    73
1070
     1
1070
    44
1040
1.0
1070
    74
1070
     0
1000
MTEXTEND
  0
POINT
  5
5F97
330
58FA
100
AcDbEntity
  8
Defpoints
  6
Continuous
 62
     0
100
AcDbPoint
 10
968.8922454558701
 20
-111.8296247752123
 30
0.0
  0
POINT
  5
5F98
330
58FA
100
AcDbEntity
  8
Defpoints
  6
Continuous
 62
     0
100
AcDbPoint
 10
968.8922454558701
 20
-125.3296247752123
 30
0.0
  0
POINT
  5
5F99
330
58FA
100
AcDbEntity
  8
Defpoints
  6
Continuous
 62
     0
100
AcDbPoint
 10
1007.094918296367
 20
-125.3296247752123
 30
0.0
  0
ENDBLK
  5
5906
330
58FA
100
AcDbEntity
  8
0
100
AcDbBlockEnd
  0
BLOCK
  5
591C
330
5912
100
AcDbEntity
  8
0
100
AcDbBlockBegin
  2
*D9
 70
     1
 10
0.0
 20
0.0
 30
0.0
  3
*D9
  1

  0
LINE
  5
5F53
330
5912
100
AcDbEntity
  8
寸法
  6
Continuous
 62
     4
370
    -2
100
AcDbLine
 10
410.1422454558701
 20
44.63852222478727
 30
0.0
 11
410.1422454558701
 21
79.68608822478746
 31
0.0
  0
LINE
  5
5F54
330
5912
100
AcDbEntity
  8
寸法
  6
Continuous
 62
     4
370
    -2
100
AcDbLine
 10
470.1422454558706
 20
44.63852222478727
 30
0.0
 11
470.1422454558706
 21
79.68608822478746
 31
0.0
  0
LINE
  5
5F55
330
5912
100
AcDbEntity
  8
寸法
  6
Continuous
 62
     4
370
    -2
100
AcDbLine
 10
411.1422454558701
 20
79.68608822478746
 30
0.0
 11
469.1422454558705
 21
79.68608822478746
 31
0.0
  0
INSERT
  5
5F56
330
5912
100
AcDbEntity
  8
寸法
  6
Continuous
 62
     4
370
    -2
100
AcDbBlockReference
  2
_Dot
 10
410.1422454558701
 20
79.68608822478746
 30
0.0
 50
180.0
  0
INSERT
  5
5F57
330
5912
100
AcDbEntity
  8
寸法
  6
Continuous
 62
     4
370
    -2
100
AcDbBlockReference
  2
_Dot
 10
470.1422454558706
 20
79.68608822478746
 30
0.0
  0
MTEXT
  5
5F58
330
5912
100
AcDbEntity
  8
寸法
  6
Continuous
 62
     3
100
AcDbMText
 10
440.1422454558703
 20
82.98608822478746
 30
0.0
 40
5.0
 41
0.0
 71
     5
 72
     5
  1
\A1;60
  7
ACAD
 73
     1
 44
1.0
1001
ACAD
1000
MTEXTBEGIN
1070
    73
1070
     1
1070
    44
1040
1.0
1070
    74
1070
     0
1000
MTEXTEND
  0
POINT
  5
5F59
330
5912
100
AcDbEntity
  8
Defpoints
  6
Continuous
 62
     0
100
AcDbPoint
 10
410.1422454558701
 20
44.63852222478727
 30
0.0
  0
POINT
  5
5F5A
330
5912
100
AcDbEntity
  8
Defpoints
  6
Continuous
 62
     0
100
AcDbPoint
 10
470.1422454558706
 20
44.63852222478727
 30
0.0
  0
POINT
  5
5F5B
330
5912
100
AcDbEntity
  8
Defpoints
  6
Continuous
 62
     0
100
AcDbPoint
 10
470.1422454558706
 20
79.68608822478746
 30
0.0
  0
ENDBLK
  5
591D
330
5912
100
AcDbEntity
  8
0
100
AcDbBlockEnd
  0
BLOCK
  5
5932
330
5928
100
AcDbEntity
  8
0
100
AcDbBlockBegin
  2
*D10
 70
     1
 10
0.0
 20
0.0
 30
0.0
  3
*D10
  1

  0
LINE
  5
5F4A
330
5928
100
AcDbEntity
  8
寸法
  6
Continuous
 62
     4
370
    -2
100
AcDbLine
 10
437.1422454558701
 20
49.67037422478757
 30
0.0
 11
380.1422454558701
 21
49.67037422478758
 31
0.0
  0
LINE
  5
5F4B
330
5928
100
AcDbEntity
  8
寸法
  6
Continuous
 62
     4
370
    -2
100
AcDbLine
 10
410.3864191621537
 20
4.740778441989277
 30
0.0
 11
380.1422454558701
 21
4.740778441989286
 31
0.0
  0
LINE
  5
5F4C
330
5928
100
AcDbEntity
  8
寸法
  6
Continuous
 62
     4
370
    -2
100
AcDbLine
 10
380.1422454558701
 20
48.67037422478758
 30
0.0
 11
380.1422454558701
 21
5.740778441989286
 31
0.0
  0
INSERT
  5
5F4D
330
5928
100
AcDbEntity
  8
寸法
  6
Continuous
 62
     4
370
    -2
100
AcDbBlockReference
  2
_Dot
 10
380.1422454558701
 20
49.67037422478758
 30
0.0
 50
90.0
  0
INSERT
  5
5F4E
330
5928
100
AcDbEntity
  8
寸法
  6
Continuous
 62
     4
370
    -2
100
AcDbBlockReference
  2
_Dot
 10
380.1422454558701
 20
4.740778441989286
 30
0.0
 50
270.0
  0
MTEXT
  5
5F4F
330
5928
100
AcDbEntity
  8
寸法
  6
Continuous
 62
     3
100
AcDbMText
 10
376.8422454558701
 20
27.2055763333885
 30
0.0
 40
5.0
 41
0.0
 71
     5
 72
     5
  1
\A1;45
  7
ACAD
 11
0.0000000000000001
 21
1.0
 31
0.0
 73
     1
 44
1.0
1001
ACAD
1000
MTEXTBEGIN
1070
    73
1070
     1
1070
    44
1040
1.0
1070
    74
1070
     0
1000
MTEXTEND
  0
POINT
  5
5F50
330
5928
100
AcDbEntity
  8
Defpoints
  6
Continuous
 62
     0
100
AcDbPoint
 10
437.1422454558701
 20
49.67037422478757
 30
0.0
  0
POINT
  5
5F51
330
5928
100
AcDbEntity
  8
Defpoints
  6
Continuous
 62
     0
100
AcDbPoint
 10
410.3864191621537
 20
4.740778441989277
 30
0.0
  0
POINT
  5
5F52
330
5928
100
AcDbEntity
  8
Defpoints
  6
Continuous
 62
     0
100
AcDbPoint
 10
380.1422454558701
 20
4.740778441989286
 30
0.0
  0
ENDBLK
  5
5933
330
5928
100
AcDbEntity
  8
0
100
AcDbBlockEnd
  0
BLOCK
  5
593F
330
5935
100
AcDbEntity
  8
0
100
AcDbBlockBegin
  2
*D11
 70
     1
 10
0.0
 20
0.0
 30
0.0
  3
*D11
  1

  0
LINE
  5
6325
330
5935
100
AcDbEntity
  8
寸法
  6
Continuous
 62
     4
370
    -2
100
AcDbLine
 10
380.8656449010828
 20
49.47240139163523
 30
0.0
 11
350.1422454558702
 21
49.47240139163524
 31
0.0
  0
LINE
  5
6326
330
5935
100
AcDbEntity
  8
寸法
  6
Continuous
 62
     4
370
    -2
100
AcDbLine
 10
371.1422454558701
 20
-400.3296257752126
 30
0.0
 11
350.1422454558701
 21
-400.3296257752126
 31
0.0
  0
LINE
  5
6327
330
5935
100
AcDbEntity
  8
寸法
  6
Continuous
 62
     4
370
    -2
100
AcDbLine
 10
350.1422454558702
 20
48.47240139163524
 30
0.0
 11
350.1422454558701
 21
-399.3296257752127
 31
0.0
  0
INSERT
  5
6328
330
5935
100
AcDbEntity
  8
寸法
  6
Continuous
 62
     4
370
    -2
100
AcDbBlockReference
  2
_Dot
 10
350.1422454558702
 20
49.47240139163524
 30
0.0
 50
90.0
  0
INSERT
  5
6329
330
5935
100
AcDbEntity
  8
寸法
  6
Continuous
 62
     4
370
    -2
100
AcDbBlockReference
  2
_Dot
 10
350.1422454558701
 20
-400.3296257752126
 30
0.0
 50
270.0
  0
MTEXT
  5
632A
330
5935
100
AcDbEntity
  8
寸法
  6
Continuous
 62
     3
100
AcDbMText
 10
346.8422454558702
 20
-175.4286121917887
 30
0.0
 40
5.0
 41
0.0
 71
     5
 72
     1
  1
\A1;1100以上、1200以下
  7
ACAD
 11
0.0000000000000001
 21
1.0
 31
0.0
 73
     1
 44
1.0
1001
ACAD
1000
MTEXTBEGIN
1070
    73
1070
     1
1070
    44
1040
1.0
1070
    74
1070
     0
1000
MTEXTEND
  0
POINT
  5
632B
330
5935
100
AcDbEntity
  8
Defpoints
  6
Continuous
 62
     0
100
AcDbPoint
 10
380.8656449010828
 20
49.47240139163523
 30
0.0
  0
POINT
  5
632C
330
5935
100
AcDbEntity
  8
Defpoints
  6
Continuous
 62
     0
100
AcDbPoint
 10
371.1422454558701
 20
-400.3296257752126
 30
0.0
  0
POINT
  5
632D
330
5935
100
AcDbEntity
  8
Defpoints
  6
Continuous
 62
     0
100
AcDbPoint
 10
350.1422454558701
 20
-400.3296257752126
 30
0.0
  0
ENDBLK
  5
5940
330
5935
100
AcDbEntity
  8
0
100
AcDbBlockEnd
  0
BLOCK
  5
594C
330
5942
100
AcDbEntity
  8
0
100
AcDbBlockBegin
  2
*D12
 70
     1
 10
0.0
 20
0.0
 30
0.0
  3
*D12
  1

  0
LINE
  5
5F1F
330
5942
100
AcDbEntity
  8
寸法
  6
Continuous
 62
     4
370
    -2
100
AcDbLine
 10
385.9380534558704
 20
-400.3296257752126
 30
0.0
 11
380.14224545587
 21
-400.3296257752126
 31
0.0
  0
LINE
  5
5F20
330
5942
100
AcDbEntity
  8
寸法
  6
Continuous
 62
     4
370
    -2
100
AcDbLine
 10
417.6441924558703
 20
-320.3296247752123
 30
0.0
 11
380.1422454558701
 21
-320.3296247752123
 31
0.0
  0
LINE
  5
5F21
330
5942
100
AcDbEntity
  8
寸法
  6
Continuous
 62
     4
370
    -2
100
AcDbLine
 10
380.14224545587
 20
-399.3296257752126
 30
0.0
 11
380.1422454558701
 21
-321.3296247752122
 31
0.0
  0
INSERT
  5
5F22
330
5942
100
AcDbEntity
  8
寸法
  6
Continuous
 62
     4
370
    -2
100
AcDbBlockReference
  2
_Dot
 10
380.14224545587
 20
-400.3296257752126
 30
0.0
 50
270.0
  0
INSERT
  5
5F23
330
5942
100
AcDbEntity
  8
寸法
  6
Continuous
 62
     4
370
    -2
100
AcDbBlockReference
  2
_Dot
 10
380.1422454558701
 20
-320.3296247752123
 30
0.0
 50
90.0
  0
MTEXT
  5
5F24
330
5942
100
AcDbEntity
  8
寸法
  6
Continuous
 62
     3
100
AcDbMText
 10
376.8422454558702
 20
-360.3296252752124
 30
0.0
 40
5.0
 41
0.0
 71
     5
 72
     5
  1
\A1;90
  7
ACAD
 11
0.0000000000000001
 21
1.0
 31
0.0
 73
     1
 44
1.0
1001
ACAD
1000
MTEXTBEGIN
1070
    73
1070
     1
1070
    44
1040
1.0
1070
    74
1070
     0
1000
MTEXTEND
  0
POINT
  5
5F25
330
5942
100
AcDbEntity
  8
Defpoints
  6
Continuous
 62
     0
100
AcDbPoint
 10
385.9380534558704
 20
-400.3296257752126
 30
0.0
  0
POINT
  5
5F26
330
5942
100
AcDbEntity
  8
Defpoints
  6
Continuous
 62
     0
100
AcDbPoint
 10
417.6441924558703
 20
-320.3296247752123
 30
0.0
  0
POINT
  5
5F27
330
5942
100
AcDbEntity
  8
Defpoints
  6
Continuous
 62
     0
100
AcDbPoint
 10
380.1422454558701
 20
-320.3296247752123
 30
0.0
  0
ENDBLK
  5
594D
330
5942
100
AcDbEntity
  8
0
100
AcDbBlockEnd
  0
BLOCK
  5
5959
330
594F
100
AcDbEntity
  8
0
100
AcDbBlockBegin
  2
*D13
 70
     1
 10
0.0
 20
0.0
 30
0.0
  3
*D13
  1

  0
LINE
  5
5F16
330
594F
100
AcDbEntity
  8
寸法
  6
Continuous
 62
     4
370
    -2
100
AcDbLine
 10
380.8685370216713
 20
-320.1425404053525
 30
0.0
 11
380.1422454558701
 21
-320.1425404053525
 31
0.0
  0
LINE
  5
5F17
330
594F
100
AcDbEntity
  8
寸法
  6
Continuous
 62
     4
370
    -2
100
AcDbLine
 10
419.1497724558703
 20
-295.3296257752127
 30
0.0
 11
380.1422454558701
 21
-295.3296257752126
 31
0.0
  0
LINE
  5
5F18
330
594F
100
AcDbEntity
  8
寸法
  6
Continuous
 62
     4
370
    -2
100
AcDbLine
 10
380.1422454558701
 20
-319.1425404053525
 30
0.0
 11
380.1422454558701
 21
-296.3296257752126
 31
0.0
  0
INSERT
  5
5F19
330
594F
100
AcDbEntity
  8
寸法
  6
Continuous
 62
     4
370
    -2
100
AcDbBlockReference
  2
_Dot
 10
380.1422454558701
 20
-320.1425404053525
 30
0.0
 50
270.0
  0
INSERT
  5
5F1A
330
594F
100
AcDbEntity
  8
寸法
  6
Continuous
 62
     4
370
    -2
100
AcDbBlockReference
  2
_Dot
 10
380.1422454558701
 20
-295.3296257752126
 30
0.0
 50
90.0
  0
MTEXT
  5
5F1B
330
594F
100
AcDbEntity
  8
寸法
  6
Continuous
 62
     3
100
AcDbMText
 10
376.8422454558702
 20
-307.7360830902825
 30
0.0
 40
5.0
 41
0.0
 71
     5
 72
     5
  1
\A1;25
  7
ACAD
 11
0.0000000000000001
 21
1.0
 31
0.0
 73
     1
 44
1.0
1001
ACAD
1000
MTEXTBEGIN
1070
    73
1070
     1
1070
    44
1040
1.0
1070
    74
1070
     0
1000
MTEXTEND
  0
POINT
  5
5F1C
330
594F
100
AcDbEntity
  8
Defpoints
  6
Continuous
 62
     0
100
AcDbPoint
 10
380.8685370216713
 20
-320.1425404053525
 30
0.0
  0
POINT
  5
5F1D
330
594F
100
AcDbEntity
  8
Defpoints
  6
Continuous
 62
     0
100
AcDbPoint
 10
419.1497724558703
 20
-295.3296257752127
 30
0.0
  0
POINT
  5
5F1E
330
594F
100
AcDbEntity
  8
Defpoints
  6
Continuous
 62
     0
100
AcDbPoint
 10
380.1422454558701
 20
-295.3296257752126
 30
0.0
  0
ENDBLK
  5
595A
330
594F
100
AcDbEntity
  8
0
100
AcDbBlockEnd
  0
BLOCK
  5
5989
330
5981
100
AcDbEntity
  8
0
100
AcDbBlockBegin
  2
*D14
 70
     1
 10
0.0
 20
0.0
 30
0.0
  3
*D14
  1

  0
LINE
  5
5F28
330
5981
100
AcDbEntity
  8
寸法
  6
Continuous
 62
     4
370
    -2
100
AcDbLine
 10
416.1422464558704
 20
-25.32962577521266
 30
0.0
 11
464.1422444558702
 21
-25.32962577521266
 31
0.0
  0
INSERT
  5
5F29
330
5981
100
AcDbEntity
  8
寸法
  6
Continuous
 62
     4
370
    -2
100
AcDbBlockReference
  2
_Dot
 10
415.1422464558704
 20
-25.32962577521266
 30
0.0
 50
180.0
  0
INSERT
  5
5F2A
330
5981
100
AcDbEntity
  8
寸法
  6
Continuous
 62
     4
370
    -2
100
AcDbBlockReference
  2
_Dot
 10
465.1422444558702
 20
-25.32962577521266
 30
0.0
  0
MTEXT
  5
5F2B
330
5981
100
AcDbEntity
  8
寸法
  6
Continuous
 62
     3
100
AcDbMText
 10
440.1422454558703
 20
-22.02962577521266
 30
0.0
 40
5.0
 41
0.0
 71
     5
 72
     5
  1
\A1;50
  7
ACAD
 73
     1
 44
1.0
1001
ACAD
1000
MTEXTBEGIN
1070
    73
1070
     1
1070
    44
1040
1.0
1070
    74
1070
     0
1000
MTEXTEND
  0
POINT
  5
5F2C
330
5981
100
AcDbEntity
  8
Defpoints
  6
Continuous
 62
     0
100
AcDbPoint
 10
415.1422464558704
 20
-25.32962577521266
 30
0.0
  0
POINT
  5
5F2D
330
5981
100
AcDbEntity
  8
Defpoints
  6
Continuous
 62
     0
100
AcDbPoint
 10
465.1422444558702
 20
-25.32962577521266
 30
0.0
  0
POINT
  5
5F2E
330
5981
100
AcDbEntity
  8
Defpoints
  6
Continuous
 62
     0
100
AcDbPoint
 10
465.1422444558702
 20
-25.32962577521266
 30
0.0
  0
ENDBLK
  5
598A
330
5981
100
AcDbEntity
  8
0
100
AcDbBlockEnd
  0
BLOCK
  5
599D
330
5993
100
AcDbEntity
  8
0
100
AcDbBlockBegin
  2
*D15
 70
     1
 10
0.0
 20
0.0
 30
0.0
  3
*D15
  1

  0
LINE
  5
5F2F
330
5993
100
AcDbEntity
  8
寸法
  6
Continuous
 62
     4
370
    -2
100
AcDbLine
 10
635.1422454558701
 20
-384.3296237752125
 30
0.0
 11
635.1422454558701
 21
-325.3296257752126
 31
0.0
  0
LINE
  5
5F30
330
5993
100
AcDbEntity
  8
寸法
  6
Continuous
 62
     4
370
    -2
100
AcDbLine
 10
685.1422464558704
 20
-384.3296237752125
 30
0.0
 11
685.1422464558704
 21
-325.3296257752126
 31
0.0
  0
LINE
  5
5F31
330
5993
100
AcDbEntity
  8
寸法
  6
Continuous
 62
     4
370
    -2
100
AcDbLine
 10
636.1422454558701
 20
-325.3296257752126
 30
0.0
 11
684.1422464558704
 21
-325.3296257752126
 31
0.0
  0
INSERT
  5
5F32
330
5993
100
AcDbEntity
  8
寸法
  6
Continuous
 62
     4
370
    -2
100
AcDbBlockReference
  2
_Dot
 10
635.1422454558701
 20
-325.3296257752126
 30
0.0
 50
180.0
  0
INSERT
  5
5F33
330
5993
100
AcDbEntity
  8
寸法
  6
Continuous
 62
     4
370
    -2
100
AcDbBlockReference
  2
_Dot
 10
685.1422464558704
 20
-325.3296257752126
 30
0.0
  0
MTEXT
  5
5F34
330
5993
100
AcDbEntity
  8
寸法
  6
Continuous
 62
     3
100
AcDbMText
 10
660.1422459558703
 20
-322.0296257752127
 30
0.0
 40
5.0
 41
0.0
 71
     5
 72
     5
  1
\A1;50
  7
ACAD
 73
     1
 44
1.0
1001
ACAD
1000
MTEXTBEGIN
1070
    73
1070
     1
1070
    44
1040
1.0
1070
    74
1070
     0
1000
MTEXTEND
  0
POINT
  5
5F35
330
5993
100
AcDbEntity
  8
Defpoints
  6
Continuous
 62
     0
100
AcDbPoint
 10
635.1422454558701
 20
-384.3296237752125
 30
0.0
  0
POINT
  5
5F36
330
5993
100
AcDbEntity
  8
Defpoints
  6
Continuous
 62
     0
100
AcDbPoint
 10
685.1422464558704
 20
-384.3296237752125
 30
0.0
  0
POINT
  5
5F37
330
5993
100
AcDbEntity
  8
Defpoints
  6
Continuous
 62
     0
100
AcDbPoint
 10
685.1422464558704
 20
-325.3296257752126
 30
0.0
  0
ENDBLK
  5
599E
330
5993
100
AcDbEntity
  8
0
100
AcDbBlockEnd
  0
BLOCK
  5
59AA
330
59A0
100
AcDbEntity
  8
0
100
AcDbBlockBegin
  2
*D16
 70
     1
 10
0.0
 20
0.0
 30
0.0
  3
*D16
  1

  0
LINE
  5
5F41
330
59A0
100
AcDbEntity
  8
寸法
  6
Continuous
 62
     4
370
    -2
100
AcDbLine
 10
685.1422464558704
 20
-384.3296237752125
 30
0.0
 11
685.1422464558704
 21
-355.3296257752127
 31
0.0
  0
LINE
  5
5F42
330
59A0
100
AcDbEntity
  8
寸法
  6
Continuous
 62
     4
370
    -2
100
AcDbLine
 10
705.1422444558702
 20
-397.3296257752127
 30
0.0
 11
705.1422444558702
 21
-355.3296257752127
 31
0.0
  0
LINE
  5
5F43
330
59A0
100
AcDbEntity
  8
寸法
  6
Continuous
 62
     4
370
    -2
100
AcDbLine
 10
686.1422464558704
 20
-355.3296257752127
 30
0.0
 11
704.1422444558702
 21
-355.3296257752127
 31
0.0
  0
INSERT
  5
5F44
330
59A0
100
AcDbEntity
  8
寸法
  6
Continuous
 62
     4
370
    -2
100
AcDbBlockReference
  2
_Dot
 10
685.1422464558704
 20
-355.3296257752127
 30
0.0
 50
180.0
  0
INSERT
  5
5F45
330
59A0
100
AcDbEntity
  8
寸法
  6
Continuous
 62
     4
370
    -2
100
AcDbBlockReference
  2
_Dot
 10
705.1422444558702
 20
-355.3296257752127
 30
0.0
  0
MTEXT
  5
5F46
330
59A0
100
AcDbEntity
  8
寸法
  6
Continuous
 62
     3
100
AcDbMText
 10
695.1422454558703
 20
-352.0296257752126
 30
0.0
 40
5.0
 41
0.0
 71
     5
 72
     5
  1
\A1;20
  7
ACAD
 73
     1
 44
1.0
1001
ACAD
1000
MTEXTBEGIN
1070
    73
1070
     1
1070
    44
1040
1.0
1070
    74
1070
     0
1000
MTEXTEND
  0
POINT
  5
5F47
330
59A0
100
AcDbEntity
  8
Defpoints
  6
Continuous
 62
     0
100
AcDbPoint
 10
685.1422464558704
 20
-384.3296237752125
 30
0.0
  0
POINT
  5
5F48
330
59A0
100
AcDbEntity
  8
Defpoints
  6
Continuous
 62
     0
100
AcDbPoint
 10
705.1422444558702
 20
-397.3296257752127
 30
0.0
  0
POINT
  5
5F49
330
59A0
100
AcDbEntity
  8
Defpoints
  6
Continuous
 62
     0
100
AcDbPoint
 10
705.1422444558702
 20
-355.3296257752127
 30
0.0
  0
ENDBLK
  5
59AB
330
59A0
100
AcDbEntity
  8
0
100
AcDbBlockEnd
  0
BLOCK
  5
59B7
330
59AD
100
AcDbEntity
  8
0
100
AcDbBlockBegin
  2
*D17
 70
     1
 10
0.0
 20
0.0
 30
0.0
  3
*D17
  1

  0
LINE
  5
62AF
330
59AD
100
AcDbEntity
  8
寸法
  6
Continuous
 62
     4
370
    -2
100
AcDbLine
 10
685.1422464558704
 20
-384.3296237752125
 30
0.0
 11
685.1422464558704
 21
-325.3296257752126
 31
0.0
  0
LINE
  5
62B0
330
59AD
100
AcDbEntity
  8
寸法
  6
Continuous
 62
     4
370
    -2
100
AcDbLine
 10
774.1422444558702
 20
-399.3296237752124
 30
0.0
 11
774.1422444558702
 21
-325.3296257752126
 31
0.0
  0
LINE
  5
62B1
330
59AD
100
AcDbEntity
  8
寸法
  6
Continuous
 62
     4
370
    -2
100
AcDbLine
 10
686.1422464558704
 20
-325.3296257752126
 30
0.0
 11
773.1422444558702
 21
-325.3296257752126
 31
0.0
  0
INSERT
  5
62B2
330
59AD
100
AcDbEntity
  8
寸法
  6
Continuous
 62
     4
370
    -2
100
AcDbBlockReference
  2
_Dot
 10
685.1422464558704
 20
-325.3296257752126
 30
0.0
 50
180.0
  0
INSERT
  5
62B3
330
59AD
100
AcDbEntity
  8
寸法
  6
Continuous
 62
     4
370
    -2
100
AcDbBlockReference
  2
_Dot
 10
774.1422444558702
 20
-325.3296257752126
 30
0.0
  0
MTEXT
  5
62B4
330
59AD
100
AcDbEntity
  8
寸法
  6
Continuous
 62
     3
100
AcDbMText
 10
729.6422454558703
 20
-322.0296257752127
 30
0.0
 40
5.0
 41
0.0
 71
     5
 72
     1
  1
\A1;89以下
  7
ACAD
 73
     1
 44
1.0
1001
ACAD
1000
MTEXTBEGIN
1070
    73
1070
     1
1070
    44
1040
1.0
1070
    74
1070
     0
1000
MTEXTEND
  0
POINT
  5
62B5
330
59AD
100
AcDbEntity
  8
Defpoints
  6
Continuous
 62
     0
100
AcDbPoint
 10
685.1422464558704
 20
-384.3296237752125
 30
0.0
  0
POINT
  5
62B6
330
59AD
100
AcDbEntity
  8
Defpoints
  6
Continuous
 62
     0
100
AcDbPoint
 10
774.1422444558702
 20
-399.3296237752124
 30
0.0
  0
POINT
  5
62B7
330
59AD
100
AcDbEntity
  8
Defpoints
  6
Continuous
 62
     0
100
AcDbPoint
 10
774.1422444558702
 20
-325.3296257752126
 30
0.0
  0
ENDBLK
  5
59B8
330
59AD
100
AcDbEntity
  8
0
100
AcDbBlockEnd
  0
BLOCK
  5
59C4
330
59BA
100
AcDbEntity
  8
0
100
AcDbBlockBegin
  2
*D18
 70
     1
 10
0.0
 20
0.0
 30
0.0
  3
*D18
  1

  0
LINE
  5
5FAD
330
59BA
100
AcDbEntity
  8
寸法
  6
Continuous
 62
     4
370
    -2
100
AcDbLine
 10
774.1422444558702
 20
-399.3296237752124
 30
0.0
 11
774.1422444558702
 21
-325.3296257752126
 31
0.0
  0
LINE
  5
5FAE
330
59BA
100
AcDbEntity
  8
寸法
  6
Continuous
 62
     4
370
    -2
100
AcDbLine
 10
794.1422454558701
 20
-399.3296237752124
 30
0.0
 11
794.1422454558701
 21
-325.3296257752126
 31
0.0
  0
LINE
  5
5FAF
330
59BA
100
AcDbEntity
  8
寸法
  6
Continuous
 62
     4
370
    -2
100
AcDbLine
 10
775.1422444558702
 20
-325.3296257752126
 30
0.0
 11
793.1422454558701
 21
-325.3296257752126
 31
0.0
  0
INSERT
  5
5FB0
330
59BA
100
AcDbEntity
  8
寸法
  6
Continuous
 62
     4
370
    -2
100
AcDbBlockReference
  2
_Dot
 10
774.1422444558702
 20
-325.3296257752126
 30
0.0
 50
180.0
  0
INSERT
  5
5FB1
330
59BA
100
AcDbEntity
  8
寸法
  6
Continuous
 62
     4
370
    -2
100
AcDbBlockReference
  2
_Dot
 10
794.1422454558701
 20
-325.3296257752126
 30
0.0
  0
MTEXT
  5
5FB2
330
59BA
100
AcDbEntity
  8
寸法
  6
Continuous
 62
     3
100
AcDbMText
 10
784.1422449558701
 20
-322.0296257752127
 30
0.0
 40
5.0
 41
0.0
 71
     5
 72
     5
  1
\A1;20
  7
ACAD
 73
     1
 44
1.0
1001
ACAD
1000
MTEXTBEGIN
1070
    73
1070
     1
1070
    44
1040
1.0
1070
    74
1070
     0
1000
MTEXTEND
  0
POINT
  5
5FB3
330
59BA
100
AcDbEntity
  8
Defpoints
  6
Continuous
 62
     0
100
AcDbPoint
 10
774.1422444558702
 20
-399.3296237752124
 30
0.0
  0
POINT
  5
5FB4
330
59BA
100
AcDbEntity
  8
Defpoints
  6
Continuous
 62
     0
100
AcDbPoint
 10
794.1422454558701
 20
-399.3296237752124
 30
0.0
  0
POINT
  5
5FB5
330
59BA
100
AcDbEntity
  8
Defpoints
  6
Continuous
 62
     0
100
AcDbPoint
 10
794.1422454558701
 20
-325.3296257752126
 30
0.0
  0
ENDBLK
  5
59C5
330
59BA
100
AcDbEntity
  8
0
100
AcDbBlockEnd
  0
BLOCK
  5
59D1
330
59C7
100
AcDbEntity
  8
0
100
AcDbBlockBegin
  2
*D19
 70
     1
 10
0.0
 20
0.0
 30
0.0
  3
*D19
  1

  0
LINE
  5
5FA4
330
59C7
100
AcDbEntity
  8
寸法
  6
Continuous
 62
     4
370
    -2
100
AcDbLine
 10
857.1422454558701
 20
-399.3296237752124
 30
0.0
 11
857.1422454558701
 21
-325.3296257752126
 31
0.0
  0
LINE
  5
5FA5
330
59C7
100
AcDbEntity
  8
寸法
  6
Continuous
 62
     4
370
    -2
100
AcDbLine
 10
877.1422464558709
 20
-399.3296237752124
 30
0.0
 11
877.1422464558709
 21
-325.3296257752126
 31
0.0
  0
LINE
  5
5FA6
330
59C7
100
AcDbEntity
  8
寸法
  6
Continuous
 62
     4
370
    -2
100
AcDbLine
 10
858.1422454558701
 20
-325.3296257752126
 30
0.0
 11
876.1422464558709
 21
-325.3296257752126
 31
0.0
  0
INSERT
  5
5FA7
330
59C7
100
AcDbEntity
  8
寸法
  6
Continuous
 62
     4
370
    -2
100
AcDbBlockReference
  2
_Dot
 10
857.1422454558701
 20
-325.3296257752126
 30
0.0
 50
180.0
  0
INSERT
  5
5FA8
330
59C7
100
AcDbEntity
  8
寸法
  6
Continuous
 62
     4
370
    -2
100
AcDbBlockReference
  2
_Dot
 10
877.1422464558709
 20
-325.3296257752126
 30
0.0
  0
MTEXT
  5
5FA9
330
59C7
100
AcDbEntity
  8
寸法
  6
Continuous
 62
     3
100
AcDbMText
 10
867.1422459558705
 20
-322.0296257752127
 30
0.0
 40
5.0
 41
0.0
 71
     5
 72
     5
  1
\A1;20
  7
ACAD
 73
     1
 44
1.0
1001
ACAD
1000
MTEXTBEGIN
1070
    73
1070
     1
1070
    44
1040
1.0
1070
    74
1070
     0
1000
MTEXTEND
  0
POINT
  5
5FAA
330
59C7
100
AcDbEntity
  8
Defpoints
  6
Continuous
 62
     0
100
AcDbPoint
 10
857.1422454558701
 20
-399.3296237752124
 30
0.0
  0
POINT
  5
5FAB
330
59C7
100
AcDbEntity
  8
Defpoints
  6
Continuous
 62
     0
100
AcDbPoint
 10
877.1422464558709
 20
-399.3296237752124
 30
0.0
  0
POINT
  5
5FAC
330
59C7
100
AcDbEntity
  8
Defpoints
  6
Continuous
 62
     0
100
AcDbPoint
 10
877.1422464558709
 20
-325.3296257752126
 30
0.0
  0
ENDBLK
  5
59D2
330
59C7
100
AcDbEntity
  8
0
100
AcDbBlockEnd
  0
BLOCK
  5
59DE
330
59D4
100
AcDbEntity
  8
0
100
AcDbBlockBegin
  2
*D20
 70
     1
 10
0.0
 20
0.0
 30
0.0
  3
*D20
  1

  0
LINE
  5
62CA
330
59D4
100
AcDbEntity
  8
寸法
  6
Continuous
 62
     4
370
    -2
100
AcDbLine
 10
877.1422464558705
 20
-399.3296237752124
 30
0.0
 11
877.1422464558705
 21
-325.3296257752126
 31
0.0
  0
LINE
  5
62CB
330
59D4
100
AcDbEntity
  8
寸法
  6
Continuous
 62
     4
370
    -2
100
AcDbLine
 10
966.1422444558702
 20
-399.3296237752124
 30
0.0
 11
966.1422444558702
 21
-325.3296257752126
 31
0.0
  0
LINE
  5
62CC
330
59D4
100
AcDbEntity
  8
寸法
  6
Continuous
 62
     4
370
    -2
100
AcDbLine
 10
878.1422464558705
 20
-325.3296257752126
 30
0.0
 11
965.1422444558702
 21
-325.3296257752126
 31
0.0
  0
INSERT
  5
62CD
330
59D4
100
AcDbEntity
  8
寸法
  6
Continuous
 62
     4
370
    -2
100
AcDbBlockReference
  2
_Dot
 10
877.1422464558705
 20
-325.3296257752126
 30
0.0
 50
180.0
  0
INSERT
  5
62CE
330
59D4
100
AcDbEntity
  8
寸法
  6
Continuous
 62
     4
370
    -2
100
AcDbBlockReference
  2
_Dot
 10
966.1422444558702
 20
-325.3296257752126
 30
0.0
  0
MTEXT
  5
62CF
330
59D4
100
AcDbEntity
  8
寸法
  6
Continuous
 62
     3
100
AcDbMText
 10
921.6422454558703
 20
-322.0296257752127
 30
0.0
 40
5.0
 41
0.0
 71
     5
 72
     1
  1
\A1;89以下
  7
ACAD
 73
     1
 44
1.0
1001
ACAD
1000
MTEXTBEGIN
1070
    73
1070
     1
1070
    44
1040
1.0
1070
    74
1070
     0
1000
MTEXTEND
  0
POINT
  5
62D0
330
59D4
100
AcDbEntity
  8
Defpoints
  6
Continuous
 62
     0
100
AcDbPoint
 10
877.1422464558705
 20
-399.3296237752124
 30
0.0
  0
POINT
  5
62D1
330
59D4
100
AcDbEntity
  8
Defpoints
  6
Continuous
 62
     0
100
AcDbPoint
 10
966.1422444558702
 20
-399.3296237752124
 30
0.0
  0
POINT
  5
62D2
330
59D4
100
AcDbEntity
  8
Defpoints
  6
Continuous
 62
     0
100
AcDbPoint
 10
966.1422444558702
 20
-325.3296257752126
 30
0.0
  0
ENDBLK
  5
59DF
330
59D4
100
AcDbEntity
  8
0
100
AcDbBlockEnd
  0
BLOCK
  5
59EB
330
59E1
100
AcDbEntity
  8
0
100
AcDbBlockBegin
  2
*D21
 70
     1
 10
0.0
 20
0.0
 30
0.0
  3
*D21
  1

  0
LINE
  5
5F88
330
59E1
100
AcDbEntity
  8
寸法
  6
Continuous
 62
     4
370
    -2
100
AcDbLine
 10
966.1422444558702
 20
-399.3296237752124
 30
0.0
 11
966.1422444558702
 21
-325.3296257752126
 31
0.0
  0
LINE
  5
5F89
330
59E1
100
AcDbEntity
  8
寸法
  6
Continuous
 62
     4
370
    -2
100
AcDbLine
 10
986.1422454558701
 20
-399.3296237752124
 30
0.0
 11
986.1422454558701
 21
-325.3296257752126
 31
0.0
  0
LINE
  5
5F8A
330
59E1
100
AcDbEntity
  8
寸法
  6
Continuous
 62
     4
370
    -2
100
AcDbLine
 10
967.1422444558702
 20
-325.3296257752126
 30
0.0
 11
985.1422454558701
 21
-325.3296257752126
 31
0.0
  0
INSERT
  5
5F8B
330
59E1
100
AcDbEntity
  8
寸法
  6
Continuous
 62
     4
370
    -2
100
AcDbBlockReference
  2
_Dot
 10
966.1422444558702
 20
-325.3296257752126
 30
0.0
 50
180.0
  0
INSERT
  5
5F8C
330
59E1
100
AcDbEntity
  8
寸法
  6
Continuous
 62
     4
370
    -2
100
AcDbBlockReference
  2
_Dot
 10
986.1422454558701
 20
-325.3296257752126
 30
0.0
  0
MTEXT
  5
5F8D
330
59E1
100
AcDbEntity
  8
寸法
  6
Continuous
 62
     3
100
AcDbMText
 10
976.1422449558702
 20
-322.0296257752127
 30
0.0
 40
5.0
 41
0.0
 71
     5
 72
     5
  1
\A1;20
  7
ACAD
 73
     1
 44
1.0
1001
ACAD
1000
MTEXTBEGIN
1070
    73
1070
     1
1070
    44
1040
1.0
1070
    74
1070
     0
1000
MTEXTEND
  0
POINT
  5
5F8E
330
59E1
100
AcDbEntity
  8
Defpoints
  6
Continuous
 62
     0
100
AcDbPoint
 10
966.1422444558702
 20
-399.3296237752124
 30
0.0
  0
POINT
  5
5F8F
330
59E1
100
AcDbEntity
  8
Defpoints
  6
Continuous
 62
     0
100
AcDbPoint
 10
986.1422454558701
 20
-399.3296237752124
 30
0.0
  0
POINT
  5
5F90
330
59E1
100
AcDbEntity
  8
Defpoints
  6
Continuous
 62
     0
100
AcDbPoint
 10
986.1422454558701
 20
-325.3296257752126
 30
0.0
  0
ENDBLK
  5
59EC
330
59E1
100
AcDbEntity
  8
0
100
AcDbBlockEnd
  0
BLOCK
  5
59F8
330
59EE
100
AcDbEntity
  8
0
100
AcDbBlockBegin
  2
*D22
 70
     1
 10
0.0
 20
0.0
 30
0.0
  3
*D22
  1

  0
LINE
  5
62D3
330
59EE
100
AcDbEntity
  8
寸法
  6
Continuous
 62
     4
370
    -2
100
AcDbLine
 10
986.1422454558701
 20
-399.3296237752124
 30
0.0
 11
986.1422454558701
 21
-325.3296257752126
 31
0.0
  0
LINE
  5
62D4
330
59EE
100
AcDbEntity
  8
寸法
  6
Continuous
 62
     4
370
    -2
100
AcDbLine
 10
1075.14224645587
 20
-384.3296237752125
 30
0.0
 11
1075.14224645587
 21
-325.3296257752126
 31
0.0
  0
LINE
  5
62D5
330
59EE
100
AcDbEntity
  8
寸法
  6
Continuous
 62
     4
370
    -2
100
AcDbLine
 10
987.14224545587
 20
-325.3296257752126
 30
0.0
 11
1074.14224645587
 21
-325.3296257752126
 31
0.0
  0
INSERT
  5
62D6
330
59EE
100
AcDbEntity
  8
寸法
  6
Continuous
 62
     4
370
    -2
100
AcDbBlockReference
  2
_Dot
 10
986.1422454558701
 20
-325.3296257752126
 30
0.0
 50
180.0
  0
INSERT
  5
62D7
330
59EE
100
AcDbEntity
  8
寸法
  6
Continuous
 62
     4
370
    -2
100
AcDbBlockReference
  2
_Dot
 10
1075.14224645587
 20
-325.3296257752126
 30
0.0
  0
MTEXT
  5
62D8
330
59EE
100
AcDbEntity
  8
寸法
  6
Continuous
 62
     3
100
AcDbMText
 10
1030.64224595587
 20
-322.0296257752127
 30
0.0
 40
5.0
 41
0.0
 71
     5
 72
     1
  1
\A1;89以下
  7
ACAD
 73
     1
 44
1.0
1001
ACAD
1000
MTEXTBEGIN
1070
    73
1070
     1
1070
    44
1040
1.0
1070
    74
1070
     0
1000
MTEXTEND
  0
POINT
  5
62D9
330
59EE
100
AcDbEntity
  8
Defpoints
  6
Continuous
 62
     0
100
AcDbPoint
 10
986.1422454558701
 20
-399.3296237752124
 30
0.0
  0
POINT
  5
62DA
330
59EE
100
AcDbEntity
  8
Defpoints
  6
Continuous
 62
     0
100
AcDbPoint
 10
1075.14224645587
 20
-384.3296237752125
 30
0.0
  0
POINT
  5
62DB
330
59EE
100
AcDbEntity
  8
Defpoints
  6
Continuous
 62
     0
100
AcDbPoint
 10
1075.14224645587
 20
-325.3296257752126
 30
0.0
  0
ENDBLK
  5
59F9
330
59EE
100
AcDbEntity
  8
0
100
AcDbBlockEnd
  0
BLOCK
  5
5A05
330
59FB
100
AcDbEntity
  8
0
100
AcDbBlockBegin
  2
*D23
 70
     1
 10
0.0
 20
0.0
 30
0.0
  3
*D23
  1

  0
LINE
  5
626E
330
59FB
100
AcDbEntity
  8
寸法
  6
Continuous
 62
     4
100
AcDbLine
 10
1075.14224645587
 20
-384.3296237752125
 30
0.0
 11
1075.14224645587
 21
-325.3296257752126
 31
0.0
  0
LINE
  5
626F
330
59FB
100
AcDbEntity
  8
寸法
  6
Continuous
 62
     4
100
AcDbLine
 10
1125.14224445587
 20
-387.3261596743064
 30
0.0
 11
1125.14224445587
 21
-325.3296257752126
 31
0.0
  0
LINE
  5
6270
330
59FB
100
AcDbEntity
  8
寸法
  6
Continuous
 62
     4
100
AcDbLine
 10
1076.14224645587
 20
-325.3296257752126
 30
0.0
 11
1124.14224445587
 21
-325.3296257752126
 31
0.0
  0
INSERT
  5
6271
330
59FB
100
AcDbEntity
  8
寸法
  6
Continuous
 62
     4
100
AcDbBlockReference
  2
_Dot
 10
1075.14224645587
 20
-325.3296257752126
 30
0.0
 50
180.0
  0
INSERT
  5
6272
330
59FB
100
AcDbEntity
  8
寸法
  6
Continuous
 62
     4
100
AcDbBlockReference
  2
_Dot
 10
1125.14224445587
 20
-325.3296257752126
 30
0.0
  0
MTEXT
  5
6273
330
59FB
100
AcDbEntity
  8
寸法
  6
Continuous
 62
     3
100
AcDbMText
 10
1100.14224545587
 20
-322.0296257752127
 30
0.0
 40
5.0
 41
0.0
 71
     5
 72
     5
  1
\A1;50
  7
ACAD
 73
     1
 44
1.0
1001
ACAD
1000
MTEXTBEGIN
1070
    73
1070
     1
1070
    44
1040
1.0
1070
    74
1070
     0
1000
MTEXTEND
  0
POINT
  5
6274
330
59FB
100
AcDbEntity
  8
Defpoints
  6
Continuous
 62
     0
100
AcDbPoint
 10
1075.14224645587
 20
-384.3296237752125
 30
0.0
  0
POINT
  5
6275
330
59FB
100
AcDbEntity
  8
Defpoints
  6
Continuous
 62
     0
100
AcDbPoint
 10
1125.14224445587
 20
-387.3261596743064
 30
0.0
  0
POINT
  5
6276
330
59FB
100
AcDbEntity
  8
Defpoints
  6
Continuous
 62
     0
100
AcDbPoint
 10
1125.14224445587
 20
-325.3296257752126
 30
0.0
  0
ENDBLK
  5
5A06
330
59FB
100
AcDbEntity
  8
0
100
AcDbBlockEnd
  0
BLOCK
  5
5A12
330
5A08
100
AcDbEntity
  8
0
100
AcDbBlockBegin
  2
*D24
 70
     1
 10
0.0
 20
0.0
 30
0.0
  3
*D24
  1

  0
LINE
  5
5FD8
330
5A08
100
AcDbEntity
  8
寸法
  6
Continuous
 62
     4
370
    -2
100
AcDbLine
 10
1055.14224545587
 20
-408.2797277752126
 30
0.0
 11
1055.14224545587
 21
-355.3296257752127
 31
0.0
  0
LINE
  5
5FD9
330
5A08
100
AcDbEntity
  8
寸法
  6
Continuous
 62
     4
370
    -2
100
AcDbLine
 10
1075.14224645587
 20
-384.3296237752125
 30
0.0
 11
1075.14224645587
 21
-355.3296257752127
 31
0.0
  0
LINE
  5
5FDA
330
5A08
100
AcDbEntity
  8
寸法
  6
Continuous
 62
     4
370
    -2
100
AcDbLine
 10
1056.14224545587
 20
-355.3296257752127
 30
0.0
 11
1074.14224645587
 21
-355.3296257752127
 31
0.0
  0
INSERT
  5
5FDB
330
5A08
100
AcDbEntity
  8
寸法
  6
Continuous
 62
     4
370
    -2
100
AcDbBlockReference
  2
_Dot
 10
1055.14224545587
 20
-355.3296257752127
 30
0.0
 50
180.0
  0
INSERT
  5
5FDC
330
5A08
100
AcDbEntity
  8
寸法
  6
Continuous
 62
     4
370
    -2
100
AcDbBlockReference
  2
_Dot
 10
1075.14224645587
 20
-355.3296257752127
 30
0.0
  0
MTEXT
  5
5FDD
330
5A08
100
AcDbEntity
  8
寸法
  6
Continuous
 62
     3
100
AcDbMText
 10
1065.14224595587
 20
-352.0296257752126
 30
0.0
 40
5.0
 41
0.0
 71
     5
 72
     5
  1
\A1;20
  7
ACAD
 73
     1
 44
1.0
1001
ACAD
1000
MTEXTBEGIN
1070
    73
1070
     1
1070
    44
1040
1.0
1070
    74
1070
     0
1000
MTEXTEND
  0
POINT
  5
5FDE
330
5A08
100
AcDbEntity
  8
Defpoints
  6
Continuous
 62
     0
100
AcDbPoint
 10
1055.14224545587
 20
-408.2797277752126
 30
0.0
  0
POINT
  5
5FDF
330
5A08
100
AcDbEntity
  8
Defpoints
  6
Continuous
 62
     0
100
AcDbPoint
 10
1075.14224645587
 20
-384.3296237752125
 30
0.0
  0
POINT
  5
5FE0
330
5A08
100
AcDbEntity
  8
Defpoints
  6
Continuous
 62
     0
100
AcDbPoint
 10
1075.14224645587
 20
-355.3296257752127
 30
0.0
  0
ENDBLK
  5
5A13
330
5A08
100
AcDbEntity
  8
0
100
AcDbBlockEnd
  0
BLOCK
  5
5A1F
330
5A15
100
AcDbEntity
  8
0
100
AcDbBlockBegin
  2
*D25
 70
     1
 10
0.0
 20
0.0
 30
0.0
  3
*D25
  1

  0
LINE
  5
5F38
330
5A15
100
AcDbEntity
  8
寸法
  6
Continuous
 62
     4
370
    -2
100
AcDbLine
 10
602.1422454558701
 20
-395.3296247752123
 30
0.0
 11
585.1422444558702
 21
-395.3296247752123
 31
0.0
  0
LINE
  5
5F39
330
5A15
100
AcDbEntity
  8
寸法
  6
Continuous
 62
     4
370
    -2
100
AcDbLine
 10
602.1422454558701
 20
-425.3296247752123
 30
0.0
 11
585.1422444558702
 21
-425.3296247752123
 31
0.0
  0
LINE
  5
5F3A
330
5A15
100
AcDbEntity
  8
寸法
  6
Continuous
 62
     4
370
    -2
100
AcDbLine
 10
585.1422444558702
 20
-396.3296247752123
 30
0.0
 11
585.1422444558702
 21
-424.3296247752123
 31
0.0
  0
INSERT
  5
5F3B
330
5A15
100
AcDbEntity
  8
寸法
  6
Continuous
 62
     4
370
    -2
100
AcDbBlockReference
  2
_Dot
 10
585.1422444558702
 20
-395.3296247752123
 30
0.0
 50
90.0
  0
INSERT
  5
5F3C
330
5A15
100
AcDbEntity
  8
寸法
  6
Continuous
 62
     4
370
    -2
100
AcDbBlockReference
  2
_Dot
 10
585.1422444558702
 20
-425.3296247752123
 30
0.0
 50
270.0
  0
MTEXT
  5
5F3D
330
5A15
100
AcDbEntity
  8
寸法
  6
Continuous
 62
     3
100
AcDbMText
 10
581.8422444558704
 20
-410.3296247752123
 30
0.0
 40
5.0
 41
0.0
 71
     5
 72
     5
  1
\A1;30
  7
ACAD
 11
0.0000000000000001
 21
1.0
 31
0.0
 73
     1
 44
1.0
1001
ACAD
1000
MTEXTBEGIN
1070
    73
1070
     1
1070
    44
1040
1.0
1070
    74
1070
     0
1000
MTEXTEND
  0
POINT
  5
5F3E
330
5A15
100
AcDbEntity
  8
Defpoints
  6
Continuous
 62
     0
100
AcDbPoint
 10
602.1422454558701
 20
-395.3296247752123
 30
0.0
  0
POINT
  5
5F3F
330
5A15
100
AcDbEntity
  8
Defpoints
  6
Continuous
 62
     0
100
AcDbPoint
 10
602.1422454558701
 20
-425.3296247752123
 30
0.0
  0
POINT
  5
5F40
330
5A15
100
AcDbEntity
  8
Defpoints
  6
Continuous
 62
     0
100
AcDbPoint
 10
585.1422444558702
 20
-425.3296247752123
 30
0.0
  0
ENDBLK
  5
5A20
330
5A15
100
AcDbEntity
  8
0
100
AcDbBlockEnd
  0
BLOCK
  5
5A2C
330
5A22
100
AcDbEntity
  8
0
100
AcDbBlockBegin
  2
*D26
 70
     1
 10
0.0
 20
0.0
 30
0.0
  3
*D26
  1

  0
LINE
  5
5F0D
330
5A22
100
AcDbEntity
  8
寸法
  6
Continuous
 62
     4
370
    -2
100
AcDbLine
 10
635.1422454558701
 20
-436.3296257752126
 30
0.0
 11
635.1422454558701
 21
-465.3296237752124
 31
0.0
  0
LINE
  5
5F0E
330
5A22
100
AcDbEntity
  8
寸法
  6
Continuous
 62
     4
370
    -2
100
AcDbLine
 10
685.1422464558704
 20
-436.3296257752126
 30
0.0
 11
685.1422464558704
 21
-465.3296237752124
 31
0.0
  0
LINE
  5
5F0F
330
5A22
100
AcDbEntity
  8
寸法
  6
Continuous
 62
     4
370
    -2
100
AcDbLine
 10
636.1422454558701
 20
-465.3296237752124
 30
0.0
 11
684.1422464558704
 21
-465.3296237752124
 31
0.0
  0
INSERT
  5
5F10
330
5A22
100
AcDbEntity
  8
寸法
  6
Continuous
 62
     4
370
    -2
100
AcDbBlockReference
  2
_Dot
 10
635.1422454558701
 20
-465.3296237752124
 30
0.0
 50
180.0
  0
INSERT
  5
5F11
330
5A22
100
AcDbEntity
  8
寸法
  6
Continuous
 62
     4
370
    -2
100
AcDbBlockReference
  2
_Dot
 10
685.1422464558704
 20
-465.3296237752124
 30
0.0
  0
MTEXT
  5
5F12
330
5A22
100
AcDbEntity
  8
寸法
  6
Continuous
 62
     3
100
AcDbMText
 10
660.1422459558703
 20
-462.0296237752124
 30
0.0
 40
5.0
 41
0.0
 71
     5
 72
     5
  1
\A1;50
  7
ACAD
 73
     1
 44
1.0
1001
ACAD
1000
MTEXTBEGIN
1070
    73
1070
     1
1070
    44
1040
1.0
1070
    74
1070
     0
1000
MTEXTEND
  0
POINT
  5
5F13
330
5A22
100
AcDbEntity
  8
Defpoints
  6
Continuous
 62
     0
100
AcDbPoint
 10
635.1422454558701
 20
-436.3296257752126
 30
0.0
  0
POINT
  5
5F14
330
5A22
100
AcDbEntity
  8
Defpoints
  6
Continuous
 62
     0
100
AcDbPoint
 10
685.1422464558704
 20
-436.3296257752126
 30
0.0
  0
POINT
  5
5F15
330
5A22
100
AcDbEntity
  8
Defpoints
  6
Continuous
 62
     0
100
AcDbPoint
 10
685.1422464558704
 20
-465.3296237752124
 30
0.0
  0
ENDBLK
  5
5A2D
330
5A22
100
AcDbEntity
  8
0
100
AcDbBlockEnd
  0
BLOCK
  5
5A39
330
5A2F
100
AcDbEntity
  8
0
100
AcDbBlockBegin
  2
*D27
 70
     1
 10
0.0
 20
0.0
 30
0.0
  3
*D27
  1

  0
LINE
  5
6277
330
5A2F
100
AcDbEntity
  8
寸法
  6
Continuous
 62
     4
100
AcDbLine
 10
685.1422464558704
 20
-436.3296257752126
 30
0.0
 11
685.1422464558704
 21
-465.3296237752124
 31
0.0
  0
LINE
  5
6278
330
5A2F
100
AcDbEntity
  8
寸法
  6
Continuous
 62
     4
100
AcDbLine
 10
715.1422464558704
 20
-428.3296247752123
 30
0.0
 11
715.1422464558704
 21
-465.3296237752124
 31
0.0
  0
LINE
  5
6279
330
5A2F
100
AcDbEntity
  8
寸法
  6
Continuous
 62
     4
100
AcDbLine
 10
686.1422464558704
 20
-465.3296237752124
 30
0.0
 11
714.1422464558704
 21
-465.3296237752124
 31
0.0
  0
INSERT
  5
627A
330
5A2F
100
AcDbEntity
  8
寸法
  6
Continuous
 62
     4
100
AcDbBlockReference
  2
_Dot
 10
685.1422464558704
 20
-465.3296237752124
 30
0.0
 50
180.0
  0
INSERT
  5
627B
330
5A2F
100
AcDbEntity
  8
寸法
  6
Continuous
 62
     4
100
AcDbBlockReference
  2
_Dot
 10
715.1422464558704
 20
-465.3296237752124
 30
0.0
  0
MTEXT
  5
627C
330
5A2F
100
AcDbEntity
  8
寸法
  6
Continuous
 62
     3
100
AcDbMText
 10
700.1422464558705
 20
-462.0296237752124
 30
0.0
 40
5.0
 41
0.0
 71
     5
 72
     5
  1
\A1;30
  7
ACAD
 73
     1
 44
1.0
1001
ACAD
1000
MTEXTBEGIN
1070
    73
1070
     1
1070
    44
1040
1.0
1070
    74
1070
     0
1000
MTEXTEND
  0
POINT
  5
627D
330
5A2F
100
AcDbEntity
  8
Defpoints
  6
Continuous
 62
     0
100
AcDbPoint
 10
685.1422464558704
 20
-436.3296257752126
 30
0.0
  0
POINT
  5
627E
330
5A2F
100
AcDbEntity
  8
Defpoints
  6
Continuous
 62
     0
100
AcDbPoint
 10
715.1422464558704
 20
-428.3296247752123
 30
0.0
  0
POINT
  5
627F
330
5A2F
100
AcDbEntity
  8
Defpoints
  6
Continuous
 62
     0
100
AcDbPoint
 10
715.1422464558704
 20
-465.3296237752124
 30
0.0
  0
ENDBLK
  5
5A3A
330
5A2F
100
AcDbEntity
  8
0
100
AcDbBlockEnd
  0
BLOCK
  5
5A46
330
5A3C
100
AcDbEntity
  8
0
100
AcDbBlockBegin
  2
*D28
 70
     1
 10
0.0
 20
0.0
 30
0.0
  3
*D28
  1

  0
LINE
  5
5EE0
330
5A3C
100
AcDbEntity
  8
寸法
  6
Continuous
 62
     4
370
    -2
100
AcDbLine
 10
660.1422444558702
 20
-447.6133187752124
 30
0.0
 11
660.1422444558702
 21
-495.3296237752124
 31
0.0
  0
LINE
  5
5EE1
330
5A3C
100
AcDbEntity
  8
寸法
  6
Continuous
 62
     4
370
    -2
100
AcDbLine
 10
1100.14224545587
 20
-447.6133187752124
 30
0.0
 11
1100.14224545587
 21
-495.3296237752124
 31
0.0
  0
LINE
  5
5EE2
330
5A3C
100
AcDbEntity
  8
寸法
  6
Continuous
 62
     4
370
    -2
100
AcDbLine
 10
661.1422444558702
 20
-495.3296237752124
 30
0.0
 11
1099.14224545587
 21
-495.3296237752124
 31
0.0
  0
INSERT
  5
5EE3
330
5A3C
100
AcDbEntity
  8
寸法
  6
Continuous
 62
     4
370
    -2
100
AcDbBlockReference
  2
_Dot
 10
660.1422444558702
 20
-495.3296237752124
 30
0.0
 50
180.0
  0
INSERT
  5
5EE4
330
5A3C
100
AcDbEntity
  8
寸法
  6
Continuous
 62
     4
370
    -2
100
AcDbBlockReference
  2
_Dot
 10
1100.14224545587
 20
-495.3296237752124
 30
0.0
  0
MTEXT
  5
5EE5
330
5A3C
100
AcDbEntity
  8
寸法
  6
Continuous
 62
     3
100
AcDbMText
 10
880.1422449558703
 20
-492.0296237752124
 30
0.0
 40
5.0
 41
0.0
 71
     5
 72
     5
  1
\A1;1500
  7
ACAD
 73
     1
 44
1.0
1001
ACAD
1000
MTEXTBEGIN
1070
    73
1070
     1
1070
    44
1040
1.0
1070
    74
1070
     0
1000
MTEXTEND
  0
POINT
  5
5EE6
330
5A3C
100
AcDbEntity
  8
Defpoints
  6
Continuous
 62
     0
100
AcDbPoint
 10
660.1422444558702
 20
-447.6133187752124
 30
0.0
  0
POINT
  5
5EE7
330
5A3C
100
AcDbEntity
  8
Defpoints
  6
Continuous
 62
     0
100
AcDbPoint
 10
1100.14224545587
 20
-447.6133187752124
 30
0.0
  0
POINT
  5
5EE8
330
5A3C
100
AcDbEntity
  8
Defpoints
  6
Continuous
 62
     0
100
AcDbPoint
 10
1100.14224545587
 20
-495.3296237752124
 30
0.0
  0
ENDBLK
  5
5A47
330
5A3C
100
AcDbEntity
  8
0
100
AcDbBlockEnd
  0
BLOCK
  5
5A53
330
5A49
100
AcDbEntity
  8
0
100
AcDbBlockBegin
  2
*D29
 70
     1
 10
0.0
 20
0.0
 30
0.0
  3
*D29
  1

  0
LINE
  5
5F76
330
5A49
100
AcDbEntity
  8
寸法
  6
Continuous
 62
     4
370
    -2
100
AcDbLine
 10
1045.14224645587
 20
-428.3296247752123
 30
0.0
 11
1045.14224645587
 21
-465.3296237752124
 31
0.0
  0
LINE
  5
5F77
330
5A49
100
AcDbEntity
  8
寸法
  6
Continuous
 62
     4
370
    -2
100
AcDbLine
 10
1075.14224645587
 20
-436.3296257752126
 30
0.0
 11
1075.14224645587
 21
-465.3296237752124
 31
0.0
  0
LINE
  5
5F78
330
5A49
100
AcDbEntity
  8
寸法
  6
Continuous
 62
     4
370
    -2
100
AcDbLine
 10
1046.14224645587
 20
-465.3296237752124
 30
0.0
 11
1074.14224645587
 21
-465.3296237752124
 31
0.0
  0
INSERT
  5
5F79
330
5A49
100
AcDbEntity
  8
寸法
  6
Continuous
 62
     4
370
    -2
100
AcDbBlockReference
  2
_Dot
 10
1045.14224645587
 20
-465.3296237752124
 30
0.0
 50
180.0
  0
INSERT
  5
5F7A
330
5A49
100
AcDbEntity
  8
寸法
  6
Continuous
 62
     4
370
    -2
100
AcDbBlockReference
  2
_Dot
 10
1075.14224645587
 20
-465.3296237752124
 30
0.0
  0
MTEXT
  5
5F7B
330
5A49
100
AcDbEntity
  8
寸法
  6
Continuous
 62
     3
100
AcDbMText
 10
1060.14224645587
 20
-462.0296237752124
 30
0.0
 40
5.0
 41
0.0
 71
     5
 72
     5
  1
\A1;30
  7
ACAD
 73
     1
 44
1.0
1001
ACAD
1000
MTEXTBEGIN
1070
    73
1070
     1
1070
    44
1040
1.0
1070
    74
1070
     0
1000
MTEXTEND
  0
POINT
  5
5F7C
330
5A49
100
AcDbEntity
  8
Defpoints
  6
Continuous
 62
     0
100
AcDbPoint
 10
1045.14224645587
 20
-428.3296247752123
 30
0.0
  0
POINT
  5
5F7D
330
5A49
100
AcDbEntity
  8
Defpoints
  6
Continuous
 62
     0
100
AcDbPoint
 10
1075.14224645587
 20
-436.3296257752126
 30
0.0
  0
POINT
  5
5F7E
330
5A49
100
AcDbEntity
  8
Defpoints
  6
Continuous
 62
     0
100
AcDbPoint
 10
1075.14224645587
 20
-465.3296237752124
 30
0.0
  0
ENDBLK
  5
5A54
330
5A49
100
AcDbEntity
  8
0
100
AcDbBlockEnd
  0
BLOCK
  5
5A6C
330
5A62
100
AcDbEntity
  8
0
100
AcDbBlockBegin
  2
*D31
 70
     1
 10
0.0
 20
0.0
 30
0.0
  3
*D31
  1

  0
LINE
  5
5FE1
330
5A62
100
AcDbEntity
  8
寸法
  6
Continuous
 62
     4
370
    -2
100
AcDbLine
 10
1126.14224645587
 20
-385.3296257752127
 30
0.0
 11
1185.14224445587
 21
-385.3296257752127
 31
0.0
  0
LINE
  5
5FE2
330
5A62
100
AcDbEntity
  8
寸法
  6
Continuous
 62
     4
370
    -2
100
AcDbLine
 10
1126.14224645587
 20
-435.3296237752124
 30
0.0
 11
1185.14224445587
 21
-435.3296237752124
 31
0.0
  0
LINE
  5
5FE3
330
5A62
100
AcDbEntity
  8
寸法
  6
Continuous
 62
     4
370
    -2
100
AcDbLine
 10
1185.14224445587
 20
-386.3296257752127
 30
0.0
 11
1185.14224445587
 21
-434.3296237752125
 31
0.0
  0
INSERT
  5
5FE4
330
5A62
100
AcDbEntity
  8
寸法
  6
Continuous
 62
     4
370
    -2
100
AcDbBlockReference
  2
_Dot
 10
1185.14224445587
 20
-385.3296257752127
 30
0.0
 50
90.0
  0
INSERT
  5
5FE5
330
5A62
100
AcDbEntity
  8
寸法
  6
Continuous
 62
     4
370
    -2
100
AcDbBlockReference
  2
_Dot
 10
1185.14224445587
 20
-435.3296237752124
 30
0.0
 50
270.0
  0
MTEXT
  5
5FE6
330
5A62
100
AcDbEntity
  8
寸法
  6
Continuous
 62
     3
100
AcDbMText
 10
1181.84224445587
 20
-410.3296247752123
 30
0.0
 40
5.0
 41
0.0
 71
     5
 72
     5
  1
\A1;50
  7
ACAD
 11
0.0000000000000001
 21
1.0
 31
0.0
 73
     1
 44
1.0
1001
ACAD
1000
MTEXTBEGIN
1070
    73
1070
     1
1070
    44
1040
1.0
1070
    74
1070
     0
1000
MTEXTEND
  0
POINT
  5
5FE7
330
5A62
100
AcDbEntity
  8
Defpoints
  6
Continuous
 62
     0
100
AcDbPoint
 10
1126.14224645587
 20
-385.3296257752127
 30
0.0
  0
POINT
  5
5FE8
330
5A62
100
AcDbEntity
  8
Defpoints
  6
Continuous
 62
     0
100
AcDbPoint
 10
1126.14224645587
 20
-435.3296237752124
 30
0.0
  0
POINT
  5
5FE9
330
5A62
100
AcDbEntity
  8
Defpoints
  6
Continuous
 62
     0
100
AcDbPoint
 10
1185.14224445587
 20
-435.3296237752124
 30
0.0
  0
ENDBLK
  5
5A6D
330
5A62
100
AcDbEntity
  8
0
100
AcDbBlockEnd
  0
BLOCK
  5
5A77
330
5A6F
100
AcDbEntity
  8
0
100
AcDbBlockBegin
  2
*D32
 70
     1
 10
0.0
 20
0.0
 30
0.0
  3
*D32
  1

  0
LINE
  5
5FB6
330
5A6F
100
AcDbEntity
  8
寸法
  6
Continuous
 62
     4
370
    -2
100
AcDbLine
 10
825.64224545587
 20
-391.3296237752124
 30
0.0
 11
825.64224545587
 21
-429.3296257752126
 31
0.0
  0
INSERT
  5
5FB7
330
5A6F
100
AcDbEntity
  8
寸法
  6
Continuous
 62
     4
370
    -2
100
AcDbBlockReference
  2
_Dot
 10
825.64224545587
 20
-390.3296237752124
 30
0.0
 50
90.0
  0
INSERT
  5
5FB8
330
5A6F
100
AcDbEntity
  8
寸法
  6
Continuous
 62
     4
370
    -2
100
AcDbBlockReference
  2
_Dot
 10
825.64224545587
 20
-430.3296257752126
 30
0.0
 50
270.0
  0
MTEXT
  5
5FB9
330
5A6F
100
AcDbEntity
  8
寸法
  6
Continuous
 62
     3
100
AcDbMText
 10
822.3422454558702
 20
-410.3296247752124
 30
0.0
 40
5.0
 41
0.0
 71
     5
 72
     5
  1
\A1;40
  7
ACAD
 11
0.0000000000000001
 21
1.0
 31
0.0
 73
     1
 44
1.0
1001
ACAD
1000
MTEXTBEGIN
1070
    73
1070
     1
1070
    44
1040
1.0
1070
    74
1070
     0
1000
MTEXTEND
  0
POINT
  5
5FBA
330
5A6F
100
AcDbEntity
  8
Defpoints
  6
Continuous
 62
     0
100
AcDbPoint
 10
825.64224545587
 20
-390.3296237752124
 30
0.0
  0
POINT
  5
5FBB
330
5A6F
100
AcDbEntity
  8
Defpoints
  6
Continuous
 62
     0
100
AcDbPoint
 10
825.64224545587
 20
-430.3296257752126
 30
0.0
  0
POINT
  5
5FBC
330
5A6F
100
AcDbEntity
  8
Defpoints
  6
Continuous
 62
     0
100
AcDbPoint
 10
825.64224545587
 20
-430.3296257752126
 30
0.0
  0
ENDBLK
  5
5A78
330
5A6F
100
AcDbEntity
  8
0
100
AcDbBlockEnd
  0
BLOCK
  5
5A84
330
5A7A
100
AcDbEntity
  8
0
100
AcDbBlockBegin
  2
*D33
 70
     1
 10
0.0
 20
0.0
 30
0.0
  3
*D33
  1

  0
LINE
  5
5FBD
330
5A7A
100
AcDbEntity
  8
寸法
  6
Continuous
 62
     4
370
    -2
100
AcDbLine
 10
856.1422464558704
 20
-400.3296257752126
 30
0.0
 11
842.1422454558705
 21
-400.3296257752126
 31
0.0
  0
LINE
  5
5FBE
330
5A7A
100
AcDbEntity
  8
寸法
  6
Continuous
 62
     4
370
    -2
100
AcDbLine
 10
856.1422464558704
 20
-420.3296237752124
 30
0.0
 11
842.1422454558705
 21
-420.3296237752124
 31
0.0
  0
LINE
  5
5FBF
330
5A7A
100
AcDbEntity
  8
寸法
  6
Continuous
 62
     4
370
    -2
100
AcDbLine
 10
842.1422454558705
 20
-401.3296257752126
 30
0.0
 11
842.1422454558705
 21
-419.3296237752124
 31
0.0
  0
INSERT
  5
5FC0
330
5A7A
100
AcDbEntity
  8
寸法
  6
Continuous
 62
     4
370
    -2
100
AcDbBlockReference
  2
_Dot
 10
842.1422454558705
 20
-400.3296257752126
 30
0.0
 50
90.0
  0
INSERT
  5
5FC1
330
5A7A
100
AcDbEntity
  8
寸法
  6
Continuous
 62
     4
370
    -2
100
AcDbBlockReference
  2
_Dot
 10
842.1422454558705
 20
-420.3296237752124
 30
0.0
 50
270.0
  0
MTEXT
  5
5FC2
330
5A7A
100
AcDbEntity
  8
寸法
  6
Continuous
 62
     3
100
AcDbMText
 10
838.8422454558707
 20
-410.3296247752124
 30
0.0
 40
5.0
 41
0.0
 71
     5
 72
     5
  1
\A1;20
  7
ACAD
 11
0.0000000000000001
 21
1.0
 31
0.0
 73
     1
 44
1.0
1001
ACAD
1000
MTEXTBEGIN
1070
    73
1070
     1
1070
    44
1040
1.0
1070
    74
1070
     0
1000
MTEXTEND
  0
POINT
  5
5FC3
330
5A7A
100
AcDbEntity
  8
Defpoints
  6
Continuous
 62
     0
100
AcDbPoint
 10
856.1422464558704
 20
-400.3296257752126
 30
0.0
  0
POINT
  5
5FC4
330
5A7A
100
AcDbEntity
  8
Defpoints
  6
Continuous
 62
     0
100
AcDbPoint
 10
856.1422464558704
 20
-420.3296237752124
 30
0.0
  0
POINT
  5
5FC5
330
5A7A
100
AcDbEntity
  8
Defpoints
  6
Continuous
 62
     0
100
AcDbPoint
 10
842.1422454558705
 20
-420.3296237752124
 30
0.0
  0
ENDBLK
  5
5A85
330
5A7A
100
AcDbEntity
  8
0
100
AcDbBlockEnd
  0
BLOCK
  5
6302
330
62F8
100
AcDbEntity
  8
0
100
AcDbBlockBegin
  2
*D34
 70
     1
 10
0.0
 20
0.0
 30
0.0
  3
*D34
  1

  0
LINE
  5
62F9
330
62F8
100
AcDbEntity
  8
0
  6
Continuous
 62
     4
370
    -2
100
AcDbLine
 10
1075.14224645587
 20
-436.3296257752126
 30
0.0
 11
1075.14224645587
 21
-465.3296237752124
 31
0.0
  0
LINE
  5
62FA
330
62F8
100
AcDbEntity
  8
0
  6
Continuous
 62
     4
370
    -2
100
AcDbLine
 10
1125.14224445587
 20
-433.3296257752127
 30
0.0
 11
1125.14224445587
 21
-465.3296237752124
 31
0.0
  0
LINE
  5
62FB
330
62F8
100
AcDbEntity
  8
0
  6
Continuous
 62
     4
370
    -2
100
AcDbLine
 10
1076.14224645587
 20
-465.3296237752124
 30
0.0
 11
1124.14224445587
 21
-465.3296237752124
 31
0.0
  0
INSERT
  5
62FC
330
62F8
100
AcDbEntity
  8
0
  6
Continuous
 62
     4
370
    -2
100
AcDbBlockReference
  2
_Dot
 10
1075.14224645587
 20
-465.3296237752124
 30
0.0
 50
180.0
  0
INSERT
  5
62FD
330
62F8
100
AcDbEntity
  8
0
  6
Continuous
 62
     4
370
    -2
100
AcDbBlockReference
  2
_Dot
 10
1125.14224445587
 20
-465.3296237752124
 30
0.0
  0
MTEXT
  5
62FE
330
62F8
100
AcDbEntity
  8
0
  6
Continuous
 62
     3
100
AcDbMText
 10
1100.14224545587
 20
-461.8296237752124
 30
0.0
 40
5.0
 41
0.0
 71
     5
 72
     1
  1
\A1;50
  7
ACAD
 73
     1
 44
1.0
1001
ACAD
1000
MTEXTBEGIN
1070
    73
1070
     1
1070
    44
1040
1.0
1070
    74
1070
     0
1000
MTEXTEND
  0
POINT
  5
62FF
330
62F8
100
AcDbEntity
  8
Defpoints
  6
Continuous
 62
     0
100
AcDbPoint
 10
1075.14224645587
 20
-436.3296257752126
 30
0.0
  0
POINT
  5
6300
330
62F8
100
AcDbEntity
  8
Defpoints
  6
Continuous
 62
     0
100
AcDbPoint
 10
1125.14224445587
 20
-433.3296257752127
 30
0.0
  0
POINT
  5
6301
330
62F8
100
AcDbEntity
  8
Defpoints
  6
Continuous
 62
     0
100
AcDbPoint
 10
1125.14224445587
 20
-465.3296237752124
 30
0.0
  0
ENDBLK
  5
6303
330
62F8
100
AcDbEntity
  8
0
100
AcDbBlockEnd
  0
ENDSEC
  0
SECTION
  2
ENTITIES
  0
LINE
  5
53B1
330
1E
100
AcDbEntity
  8
躯体と製品
  6
PLINE3
 62
     3
100
AcDbLine
 10
1165.14224645587
 20
-410.3296247752124
 30
0.0
 11
595.1422464558703
 21
-410.3296247752124
 31
0.0
  0
LINE
  5
53B2
330
1E
100
AcDbEntity
  8
躯体と製品
  6
Continuous
 62
     4
100
AcDbLine
 10
810.6422454558702
 20
-430.3296257752126
 30
0.0
 11
685.1422464558703
 21
-430.3296257752126
 31
0.0
  0
LINE
  5
53B3
330
1E
100
AcDbEntity
  8
躯体と製品
  6
Continuous
 62
     4
100
AcDbLine
 10
810.6422454558702
 20
-390.3296237752126
 30
0.0
 11
685.1422464558703
 21
-390.3296237752126
 31
0.0
  0
LINE
  5
53B4
330
1E
100
AcDbEntity
  8
躯体と製品
  6
Continuous
 62
     4
100
AcDbLine
 10
961.3922454558702
 20
-108.0796247752124
 30
0.0
 11
743.8922454558701
 21
-108.0796247752124
 31
0.0
  0
LINE
  5
53B5
330
1E
100
AcDbEntity
  8
躯体と製品
  6
Continuous
 62
     4
100
AcDbLine
 10
961.3922454558702
 20
-111.8296247752124
 30
0.0
 11
743.8922454558701
 21
-111.8296247752124
 31
0.0
  0
LINE
  5
53B6
330
1E
100
AcDbEntity
  8
躯体と製品
  6
Continuous
 62
     4
100
AcDbLine
 10
728.14224545587
 20
-125.3296247752124
 30
0.0
 11
977.1422454558701
 21
-125.3296247752124
 31
0.0
  0
LINE
  5
53B7
330
1E
100
AcDbEntity
  8
躯体と製品
  6
Continuous
 62
     4
100
AcDbLine
 10
728.14224545587
 20
47.92037522478756
 30
0.0
 11
977.1422454558701
 21
47.92037522478756
 31
0.0
  0
LINE
  5
53B8
330
1E
100
AcDbEntity
  8
躯体と製品
  6
Continuous
 62
     4
100
AcDbLine
 10
728.14224545587
 20
54.67037522478756
 30
0.0
 11
977.1422454558701
 21
54.67037522478756
 31
0.0
  0
TEXT
  5
53BA
330
1E
100
AcDbEntity
  8
文字-記号
  6
Continuous
 62
     4
100
AcDbText
 10
705.2061294558702
 20
-200.3295947752125
 30
0.0
 40
15.0
  1
手すりユニット１スパン正面図（Ｓ：１／２０）
 41
0.8
  7
ACAD
100
AcDbText
  0
TEXT
  5
53BC
330
1E
100
AcDbEntity
  8
文字-記号
  6
Continuous
 62
     4
100
AcDbText
 10
761.1028734558702
 20
-555.3296207752125
 30
0.0
 40
15.0
  1
手すりユニット横断面図（Ｓ：１／３）
 41
0.8
  7
ACAD
100
AcDbText
  0
LINE
  5
53C0
330
1E
100
AcDbEntity
  8
躯体と製品
  6
PLINE3
 62
     3
100
AcDbLine
 10
440.1422454558701
 20
-500.3296247752124
 30
0.0
 11
440.1422454558701
 21
61.18607822478736
 31
0.0
  0
LINE
  5
53C3
330
1E
100
AcDbEntity
  8
躯体と製品
  6
Continuous
 62
     3
100
AcDbLine
 10
406.57934945587
 20
-401.8730387752125
 30
0.0
 11
375.1454964558702
 21
-433.3068887752124
 31
0.0
  0
LINE
  5
53C4
330
1E
100
AcDbEntity
  8
躯体と製品
  6
Continuous
 62
     3
100
AcDbLine
 10
375.1454964558702
 20
-436.1351747752125
 30
0.0
 11
409.1800974558703
 21
-402.1005737752127
 31
0.0
  0
TEXT
  5
53C5
330
1E
100
AcDbEntity
  8
文字-記号
  6
Continuous
 62
     4
100
AcDbText
 10
339.7249254558701
 20
-547.6459697752127
 30
0.0
 40
15.0
  1
手すり断面図（Ｓ：１／３）
 41
0.8
  7
ACAD
100
AcDbText
  0
LINE
  5
53C6
330
1E
100
AcDbEntity
  8
躯体と製品
  6
Continuous
 62
     4
100
AcDbLine
 10
488.7016644558704
 20
-409.0578107752127
 30
0.0
 11
388.9380534558703
 21
-400.3296257752126
 31
0.0
  0
LINE
  5
53C9
330
1E
100
AcDbEntity
  8
躯体と製品
  6
Continuous
 62
     4
100
AcDbLine
 10
375.1454964558702
 20
-500.3296247752124
 30
0.0
 11
375.1454964558702
 21
-414.1221827752124
 31
0.0
  0
LINE
  5
53D1
330
1E
100
AcDbEntity
  8
躯体と製品
  6
Continuous
 62
     3
100
AcDbLine
 10
375.1454964558702
 20
-430.4786027752127
 30
0.0
 11
403.9785984558703
 21
-401.6455007752126
 31
0.0
  0
LINE
  5
53D2
330
1E
100
AcDbEntity
  8
躯体と製品
  6
Continuous
 62
     4
100
AcDbLine
 10
388.9380534558703
 20
-400.3296257752126
 30
0.0
 11
375.1454964558702
 21
-414.1221827752124
 31
0.0
  0
LINE
  5
53DC
330
1E
100
AcDbEntity
  8
躯体と製品
  6
Continuous
 62
     4
100
AcDbLine
 10
505.13899445587
 20
-500.3296247752124
 30
0.0
 11
505.13899445587
 21
-425.4951377752126
 31
0.0
  0
LINE
  5
53DD
330
1E
100
AcDbEntity
  8
躯体と製品
  6
Continuous
 62
     3
100
AcDbLine
 10
446.0710494558701
 20
-500.3296247752124
 30
0.0
 11
505.13899445587
 21
-441.8993867752126
 31
0.0
  0
LINE
  5
53DE
330
1E
100
AcDbEntity
  8
躯体と製品
  6
Continuous
 62
     3
100
AcDbLine
 10
449.5370424558703
 20
-500.3296247752124
 30
0.0
 11
505.13899445587
 21
-444.7276727752126
 31
0.0
  0
LINE
  5
53E2
330
1E
100
AcDbEntity
  8
躯体と製品
  6
Continuous
 62
     3
100
AcDbLine
 10
452.3653284558703
 20
-500.3296247752124
 30
0.0
 11
505.13899445587
 21
-447.5559587752127
 31
0.0
  0
LINE
  5
53F4
330
1E
100
AcDbEntity
  8
躯体と製品
  6
Continuous
 62
     4
100
AcDbLine
 10
421.4282664558702
 20
-319.6936067752125
 30
0.0
 11
421.4282664558702
 21
-318.3436037752127
 31
0.0
  0
LINE
  5
53F5
330
1E
100
AcDbEntity
  8
躯体と製品
  6
Continuous
 62
     4
100
AcDbLine
 10
420.1282674558703
 20
-319.6936067752125
 30
0.0
 11
420.1282674558703
 21
-297.3296237752125
 31
0.0
  0
LINE
  5
53F6
330
1E
100
AcDbEntity
  8
躯体と製品
  6
Continuous
 62
     4
100
AcDbLine
 10
458.8562244558703
 20
-319.6936067752125
 30
0.0
 11
458.8562244558703
 21
-318.3436037752127
 31
0.0
  0
LINE
  5
53F7
330
1E
100
AcDbEntity
  8
躯体と製品
  6
Continuous
 62
     4
100
AcDbLine
 10
460.1562234558701
 20
-319.6936067752125
 30
0.0
 11
460.1562234558701
 21
-297.3296237752125
 31
0.0
  0
LINE
  5
53F8
330
1E
100
AcDbEntity
  8
躯体と製品
  6
Continuous
 62
     4
100
AcDbLine
 10
415.1422464558703
 20
-195.3296237752125
 30
0.0
 11
415.1422464558703
 21
-402.6221957752126
 31
0.0
  0
LINE
  5
53F9
330
1E
100
AcDbEntity
  8
躯体と製品
  6
Continuous
 62
     4
100
AcDbLine
 10
465.1422444558702
 20
-195.3296237752125
 30
0.0
 11
465.1422444558702
 21
-406.9966277752124
 31
0.0
  0
LINE
  5
53FA
330
1E
100
AcDbEntity
  8
躯体と製品
  6
Continuous
 62
     4
100
AcDbLine
 10
505.13899445587
 20
-425.4951377752126
 30
0.0
 11
488.7016644558704
 21
-409.0578107752127
 31
0.0
  0
ARC
  5
53FB
330
1E
100
AcDbEntity
  8
躯体と製品
  6
Continuous
 62
     4
100
AcDbCircle
 10
420.7782684558701
 20
-319.6936037752125
 30
0.0
 40
0.6500010000000001
100
AcDbArc
 50
180.0
 51
0.0
  0
ARC
  5
53FC
330
1E
100
AcDbEntity
  8
躯体と製品
  6
Continuous
 62
     4
100
AcDbCircle
 10
459.50622245587
 20
-319.6936037752125
 30
0.0
 40
0.6500010000000001
100
AcDbArc
 50
180.0
 51
0.0
  0
LINE
  5
5403
330
1E
100
AcDbEntity
  8
躯体と製品
  6
Continuous
 62
     4
100
AcDbLine
 10
450.1422444558702
 20
-195.3296237752125
 30
0.0
 11
450.1422444558702
 21
-295.3296257752127
 31
0.0
  0
LINE
  5
5404
330
1E
100
AcDbEntity
  8
躯体と製品
  6
Continuous
 62
     4
100
AcDbLine
 10
430.1422464558704
 20
-195.3296237752125
 30
0.0
 11
430.1422464558704
 21
-295.3296257752127
 31
0.0
  0
CIRCLE
  5
5405
330
1E
100
AcDbEntity
  8
躯体と製品
  6
Continuous
 62
     3
100
AcDbCircle
 10
451.1422464558703
 20
-306.3296237752126
 30
0.0
 40
3.999999
  0
LINE
  5
5406
330
1E
100
AcDbEntity
  8
躯体と製品
  6
Continuous
 62
     3
100
AcDbLine
 10
451.6571484558701
 20
-305.1334397752125
 30
0.0
 11
451.6422444558702
 21
-304.2796247752127
 31
0.0
  0
LINE
  5
5407
330
1E
100
AcDbEntity
  8
躯体と製品
  6
Continuous
 62
     3
100
AcDbLine
 10
451.6571484558701
 20
-307.5258107752126
 30
0.0
 11
451.6422444558702
 21
-308.3796257752127
 31
0.0
  0
LINE
  5
5408
330
1E
100
AcDbEntity
  8
躯体と製品
  6
Continuous
 62
     4
100
AcDbLine
 10
422.1497724558702
 20
-295.3296257752127
 30
0.0
 11
458.1562224558703
 21
-295.3296257752127
 31
0.0
  0
LINE
  5
5409
330
1E
100
AcDbEntity
  8
躯体と製品
  6
Continuous
 62
     4
100
AcDbLine
 10
449.4422454558701
 20
-296.6296247752125
 30
0.0
 11
457.8562224558702
 21
-296.6296247752125
 31
0.0
  0
LINE
  5
540A
330
1E
100
AcDbEntity
  8
躯体と製品
  6
Continuous
 62
     3
100
AcDbLine
 10
425.1422454558701
 20
-296.6296247752125
 30
0.0
 11
455.1422454558701
 21
-296.6296307752125
 31
0.0
  0
LINE
  5
540B
330
1E
100
AcDbEntity
  8
躯体と製品
  6
Continuous
 62
     3
100
AcDbLine
 10
425.1422454558701
 20
-299.1296237752126
 30
0.0
 11
455.1422454558701
 21
-299.1296237752126
 31
0.0
  0
LINE
  5
540C
330
1E
100
AcDbEntity
  8
躯体と製品
  6
Continuous
 62
     3
100
AcDbLine
 10
425.1422454558701
 20
-311.6296247752125
 30
0.0
 11
455.1422454558701
 21
-311.6296247752125
 31
0.0
  0
CIRCLE
  5
540D
330
1E
100
AcDbEntity
  8
躯体と製品
  6
Continuous
 62
     3
100
AcDbCircle
 10
429.1422444558702
 20
-306.3296237752126
 30
0.0
 40
3.999999
  0
LINE
  5
540E
330
1E
100
AcDbEntity
  8
躯体と製品
  6
Continuous
 62
     3
100
AcDbLine
 10
428.6422464558703
 20
-304.2796247752127
 30
0.0
 11
429.6422454558701
 21
-304.2796247752127
 31
0.0
  0
LINE
  5
540F
330
1E
100
AcDbEntity
  8
躯体と製品
  6
Continuous
 62
     3
100
AcDbLine
 10
428.6422464558703
 20
-308.3796257752127
 30
0.0
 11
429.6422454558701
 21
-308.3796257752127
 31
0.0
  0
LINE
  5
5410
330
1E
100
AcDbEntity
  8
躯体と製品
  6
Continuous
 62
     4
100
AcDbLine
 10
422.4529974558703
 20
-296.6296247752125
 30
0.0
 11
430.8422454558703
 21
-296.6296247752125
 31
0.0
  0
LINE
  5
5411
330
1E
100
AcDbEntity
  8
躯体と製品
  6
Continuous
 62
     4
100
AcDbLine
 10
421.4282664558702
 20
-315.3436037752127
 30
0.0
 11
421.4282664558702
 21
-297.6296237752126
 31
0.0
  0
LINE
  5
5412
330
1E
100
AcDbEntity
  8
躯体と製品
  6
Continuous
 62
     3
100
AcDbLine
 10
425.1422454558701
 20
-311.6296247752125
 30
0.0
 11
425.1422454558701
 21
-296.6296247752125
 31
0.0
  0
LINE
  5
5413
330
1E
100
AcDbEntity
  8
躯体と製品
  6
Continuous
 62
     3
100
AcDbLine
 10
427.0922454558704
 20
-305.8296257752127
 30
0.0
 11
427.0922454558704
 21
-306.8296247752124
 31
0.0
  0
LINE
  5
5414
330
1E
100
AcDbEntity
  8
躯体と製品
  6
Continuous
 62
     3
100
AcDbLine
 10
428.4174624558703
 20
-307.0544087752128
 30
0.0
 11
427.9460604558702
 21
-306.8445287752127
 31
0.0
  0
LINE
  5
5415
330
1E
100
AcDbEntity
  8
躯体と製品
  6
Continuous
 62
     3
100
AcDbLine
 10
427.0922454558704
 20
-306.8296247752124
 30
0.0
 11
427.9460604558702
 21
-306.8445287752127
 31
0.0
  0
LINE
  5
5416
330
1E
100
AcDbEntity
  8
躯体と製品
  6
Continuous
 62
     3
100
AcDbLine
 10
428.4174624558703
 20
-307.0544087752128
 30
0.0
 11
428.6273424558701
 21
-307.5258107752126
 31
0.0
  0
LINE
  5
5417
330
1E
100
AcDbEntity
  8
躯体と製品
  6
Continuous
 62
     3
100
AcDbLine
 10
427.0922454558704
 20
-305.8296257752127
 30
0.0
 11
427.9460604558702
 21
-305.8147217752128
 31
0.0
  0
LINE
  5
5418
330
1E
100
AcDbEntity
  8
躯体と製品
  6
Continuous
 62
     3
100
AcDbLine
 10
427.9460604558702
 20
-305.8147217752128
 30
0.0
 11
428.4174624558703
 21
-305.6048417752127
 31
0.0
  0
LINE
  5
5419
330
1E
100
AcDbEntity
  8
躯体と製品
  6
Continuous
 62
     3
100
AcDbLine
 10
428.4174624558703
 20
-305.6048417752127
 30
0.0
 11
428.6273424558701
 21
-305.1334397752125
 31
0.0
  0
LINE
  5
541A
330
1E
100
AcDbEntity
  8
躯体と製品
  6
Continuous
 62
     3
100
AcDbLine
 10
428.6273424558701
 20
-305.1334397752125
 30
0.0
 11
428.6422464558703
 21
-304.2796247752127
 31
0.0
  0
LINE
  5
541B
330
1E
100
AcDbEntity
  8
躯体と製品
  6
Continuous
 62
     3
100
AcDbLine
 10
428.6273424558701
 20
-307.5258107752126
 30
0.0
 11
428.6422464558703
 21
-308.3796257752127
 31
0.0
  0
LINE
  5
541C
330
1E
100
AcDbEntity
  8
躯体と製品
  6
Continuous
 62
     4
100
AcDbLine
 10
421.4282664558702
 20
-315.3446717752124
 30
0.0
 11
422.9282664558702
 21
-315.3607157752125
 31
0.0
  0
LINE
  5
541D
330
1E
100
AcDbEntity
  8
躯体と製品
  6
Continuous
 62
     4
100
AcDbLine
 10
422.9282664558702
 20
-315.3607157752125
 30
0.0
 11
422.4282684558703
 21
-318.3555377752126
 31
0.0
  0
LINE
  5
541E
330
1E
100
AcDbEntity
  8
躯体と製品
  6
Continuous
 62
     4
100
AcDbLine
 10
422.4282684558703
 20
-318.3555377752126
 30
0.0
 11
421.4282664558702
 21
-318.3448427752127
 31
0.0
  0
ARC
  5
541F
330
1E
100
AcDbEntity
  8
躯体と製品
  6
Continuous
 62
     4
100
AcDbCircle
 10
422.1282684558702
 20
-297.3296237752125
 30
0.0
 40
2.000001
100
AcDbArc
 50
90.0
 51
180.0
  0
ARC
  5
5420
330
1E
100
AcDbEntity
  8
躯体と製品
  6
Continuous
 62
     4
100
AcDbCircle
 10
422.4282684558703
 20
-297.6296237752126
 30
0.0
 40
0.999999
100
AcDbArc
 50
90.0
 51
180.0
  0
LINE
  5
5421
330
1E
100
AcDbEntity
  8
躯体と製品
  6
Continuous
 62
     3
100
AcDbLine
 10
429.6422454558701
 20
-304.2796247752127
 30
0.0
 11
429.6571494558703
 21
-305.1334397752125
 31
0.0
  0
LINE
  5
5422
330
1E
100
AcDbEntity
  8
躯体と製品
  6
Continuous
 62
     3
100
AcDbLine
 10
429.6422454558701
 20
-308.3796257752127
 30
0.0
 11
429.6571494558703
 21
-307.5258107752126
 31
0.0
  0
LINE
  5
5423
330
1E
100
AcDbEntity
  8
躯体と製品
  6
Continuous
 62
     3
100
AcDbLine
 10
431.1922464558704
 20
-305.8296257752127
 30
0.0
 11
431.1922464558704
 21
-306.8296247752124
 31
0.0
  0
LINE
  5
5424
330
1E
100
AcDbEntity
  8
躯体と製品
  6
Continuous
 62
     3
100
AcDbLine
 10
429.8670294558701
 20
-307.0544087752128
 30
0.0
 11
430.3384314558702
 21
-306.8445287752127
 31
0.0
  0
LINE
  5
5425
330
1E
100
AcDbEntity
  8
躯体と製品
  6
Continuous
 62
     3
100
AcDbLine
 10
431.1922464558704
 20
-306.8296247752124
 30
0.0
 11
430.3384314558702
 21
-306.8445287752127
 31
0.0
  0
LINE
  5
5426
330
1E
100
AcDbEntity
  8
躯体と製品
  6
Continuous
 62
     3
100
AcDbLine
 10
429.8670294558701
 20
-307.0544087752128
 30
0.0
 11
429.6571494558703
 21
-307.5258107752126
 31
0.0
  0
LINE
  5
5427
330
1E
100
AcDbEntity
  8
躯体と製品
  6
Continuous
 62
     3
100
AcDbLine
 10
431.1922464558704
 20
-305.8296257752127
 30
0.0
 11
430.3384314558702
 21
-305.8147217752128
 31
0.0
  0
LINE
  5
5428
330
1E
100
AcDbEntity
  8
躯体と製品
  6
Continuous
 62
     3
100
AcDbLine
 10
430.3384314558702
 20
-305.8147217752128
 30
0.0
 11
429.8670294558701
 21
-305.6048417752127
 31
0.0
  0
LINE
  5
5429
330
1E
100
AcDbEntity
  8
躯体と製品
  6
Continuous
 62
     3
100
AcDbLine
 10
429.8670294558701
 20
-305.6048417752127
 30
0.0
 11
429.6571494558703
 21
-305.1334397752125
 31
0.0
  0
LINE
  5
542A
330
1E
100
AcDbEntity
  8
躯体と製品
  6
Continuous
 62
     3
100
AcDbLine
 10
451.6422444558702
 20
-304.2796247752127
 30
0.0
 11
450.6422454558701
 21
-304.2796247752127
 31
0.0
  0
LINE
  5
542B
330
1E
100
AcDbEntity
  8
躯体と製品
  6
Continuous
 62
     3
100
AcDbLine
 10
450.6422454558701
 20
-304.2796247752127
 30
0.0
 11
450.6273414558702
 21
-305.1334397752125
 31
0.0
  0
LINE
  5
542C
330
1E
100
AcDbEntity
  8
躯体と製品
  6
Continuous
 62
     3
100
AcDbLine
 10
451.6422444558702
 20
-308.3796257752127
 30
0.0
 11
450.6422454558701
 21
-308.3796257752127
 31
0.0
  0
LINE
  5
542D
330
1E
100
AcDbEntity
  8
躯体と製品
  6
Continuous
 62
     3
100
AcDbLine
 10
450.6422454558701
 20
-308.3796257752127
 30
0.0
 11
450.6273414558702
 21
-307.5258107752126
 31
0.0
  0
LINE
  5
542E
330
1E
100
AcDbEntity
  8
躯体と製品
  6
Continuous
 62
     3
100
AcDbLine
 10
449.0922444558702
 20
-305.8296257752127
 30
0.0
 11
449.0922444558702
 21
-306.8296247752124
 31
0.0
  0
LINE
  5
542F
330
1E
100
AcDbEntity
  8
躯体と製品
  6
Continuous
 62
     3
100
AcDbLine
 10
450.4174614558701
 20
-307.0544087752128
 30
0.0
 11
449.9460594558703
 21
-306.8445287752127
 31
0.0
  0
LINE
  5
5430
330
1E
100
AcDbEntity
  8
躯体と製品
  6
Continuous
 62
     3
100
AcDbLine
 10
449.0922444558702
 20
-306.8296247752124
 30
0.0
 11
449.9460594558703
 21
-306.8445287752127
 31
0.0
  0
LINE
  5
5431
330
1E
100
AcDbEntity
  8
躯体と製品
  6
Continuous
 62
     3
100
AcDbLine
 10
450.4174614558701
 20
-307.0544087752128
 30
0.0
 11
450.6273414558702
 21
-307.5258107752126
 31
0.0
  0
LINE
  5
5432
330
1E
100
AcDbEntity
  8
躯体と製品
  6
Continuous
 62
     3
100
AcDbLine
 10
449.0922444558702
 20
-305.8296257752127
 30
0.0
 11
449.9460594558703
 21
-305.8147217752128
 31
0.0
  0
LINE
  5
5433
330
1E
100
AcDbEntity
  8
躯体と製品
  6
Continuous
 62
     3
100
AcDbLine
 10
449.9460594558703
 20
-305.8147217752128
 30
0.0
 11
450.4174614558701
 21
-305.6048417752127
 31
0.0
  0
LINE
  5
5434
330
1E
100
AcDbEntity
  8
躯体と製品
  6
Continuous
 62
     3
100
AcDbLine
 10
450.4174614558701
 20
-305.6048417752127
 30
0.0
 11
450.6273414558702
 21
-305.1334397752125
 31
0.0
  0
LINE
  5
5435
330
1E
100
AcDbEntity
  8
躯体と製品
  6
Continuous
 62
     4
100
AcDbLine
 10
440.1422454558701
 20
-296.3296247752124
 30
0.0
 11
440.4422454558702
 21
-296.6296247752125
 31
0.0
  0
ARC
  5
5436
330
1E
100
AcDbEntity
  8
躯体と製品
  6
Continuous
 62
     3
100
AcDbCircle
 10
440.1422454558701
 20
-296.9295437752125
 30
0.0
 40
4.19979
100
AcDbArc
 50
50.69062900000056
 51
129.3031310000012
  0
LINE
  5
5437
330
1E
100
AcDbEntity
  8
躯体と製品
  6
Continuous
 62
     3
100
AcDbLine
 10
439.6422714558702
 20
-293.2640087752127
 30
0.0
 11
440.6422194558704
 21
-293.2640087752127
 31
0.0
  0
LINE
  5
5438
330
1E
100
AcDbEntity
  8
躯体と製品
  6
Continuous
 62
     3
100
AcDbLine
 10
436.6424214558701
 20
-295.3296257752127
 30
0.0
 11
443.6420694558701
 21
-295.3296257752127
 31
0.0
  0
LINE
  5
5439
330
1E
100
AcDbEntity
  8
躯体と製品
  6
Continuous
 62
     3
100
AcDbLine
 10
442.1421444558702
 20
-303.3292247752125
 30
0.0
 11
438.1423464558703
 21
-303.3292247752125
 31
0.0
  0
ARC
  5
543A
330
1E
100
AcDbEntity
  8
躯体と製品
  6
Continuous
 62
     3
100
AcDbCircle
 10
433.6422444558702
 20
-295.0297067752124
 30
0.0
 40
4.19979
100
AcDbArc
 50
230.6968689999988
 51
309.3093709999994
  0
ARC
  5
543B
330
1E
100
AcDbEntity
  8
躯体と製品
  6
Continuous
 62
     3
100
AcDbCircle
 10
432.4349574558702
 20
-296.4967247752124
 30
0.0
 40
2.299884
100
AcDbArc
 50
183.312743
 51
230.8204890000031
  0
ARC
  5
543C
330
1E
100
AcDbEntity
  8
躯体と製品
  6
Continuous
 62
     3
100
AcDbCircle
 10
434.8458564558702
 20
-296.4997247752127
 30
0.0
 40
2.299884
100
AcDbArc
 50
309.3091240000001
 51
356.7621629999973
  0
LINE
  5
543D
330
1E
100
AcDbEntity
  8
躯体と製品
  6
Continuous
 62
     3
100
AcDbLine
 10
433.1422704558702
 20
-298.6952417752125
 30
0.0
 11
434.1422214558702
 21
-298.6952417752125
 31
0.0
  0
ARC
  5
543E
330
1E
100
AcDbEntity
  8
躯体と製品
  6
Continuous
 62
     3
100
AcDbCircle
 10
432.7422894558702
 20
-298.7214047752126
 30
0.0
 40
0.399981
100
AcDbArc
 50
256.2997670000015
 51
0.0
  0
ARC
  5
543F
330
1E
100
AcDbEntity
  8
躯体と製品
  6
Continuous
 62
     3
100
AcDbCircle
 10
434.5421994558702
 20
-298.7214047752126
 30
0.0
 40
0.399981
100
AcDbArc
 50
180.0
 51
283.7002329999985
  0
LINE
  5
5440
330
1E
100
AcDbEntity
  8
躯体と製品
  6
Continuous
 62
     3
100
AcDbLine
 10
430.1424204558702
 20
-296.6296247752125
 30
0.0
 11
437.1420714558702
 21
-296.6296247752125
 31
0.0
  0
LINE
  5
5441
330
1E
100
AcDbEntity
  8
躯体と製品
  6
Continuous
 62
     3
100
AcDbLine
 10
431.4422454558702
 20
-296.6296247752125
 30
0.0
 11
433.3422444558701
 21
-296.6296247752125
 31
0.0
  0
LINE
  5
5442
330
1E
100
AcDbEntity
  8
躯体と製品
  6
Continuous
 62
     4
100
AcDbLine
 10
433.9422444558703
 20
-296.6296247752125
 30
0.0
 11
439.8422454558704
 21
-296.6296247752125
 31
0.0
  0
LINE
  5
5443
330
1E
100
AcDbEntity
  8
躯体と製品
  6
Continuous
 62
     4
100
AcDbLine
 10
430.8422454558703
 20
-296.6296247752125
 30
0.0
 11
431.1422454558701
 21
-296.3296247752124
 31
0.0
  0
LINE
  5
5444
330
1E
100
AcDbEntity
  8
躯体と製品
  6
Continuous
 62
     4
100
AcDbLine
 10
431.1422454558701
 20
-296.3296247752124
 30
0.0
 11
431.4422454558702
 21
-296.6296247752125
 31
0.0
  0
LINE
  5
5445
330
1E
100
AcDbEntity
  8
躯体と製品
  6
Continuous
 62
     4
100
AcDbLine
 10
433.3422444558701
 20
-296.6296247752125
 30
0.0
 11
433.6422444558702
 21
-296.3296247752124
 31
0.0
  0
LINE
  5
5446
330
1E
100
AcDbEntity
  8
躯体と製品
  6
Continuous
 62
     4
100
AcDbLine
 10
433.6422444558702
 20
-296.3296247752124
 30
0.0
 11
433.9422444558703
 21
-296.6296247752125
 31
0.0
  0
LINE
  5
5447
330
1E
100
AcDbEntity
  8
躯体と製品
  6
Continuous
 62
     4
100
AcDbLine
 10
439.8422454558704
 20
-296.6296247752125
 30
0.0
 11
440.1422454558701
 21
-296.3296247752124
 31
0.0
  0
ARC
  5
5448
330
1E
100
AcDbEntity
  8
躯体と製品
  6
Continuous
 62
     3
100
AcDbCircle
 10
438.9349584558702
 20
-295.4625257752127
 30
0.0
 40
2.299884
100
AcDbArc
 50
129.1795109999968
 51
176.6872569999999
  0
ARC
  5
5449
330
1E
100
AcDbEntity
  8
躯体と製品
  6
Continuous
 62
     3
100
AcDbCircle
 10
439.2422904558701
 20
-293.2378457752126
 30
0.0
 40
0.399981
100
AcDbArc
 50
0.0
 51
103.7002329999984
  0
LINE
  5
544A
330
1E
100
AcDbEntity
  8
躯体と製品
  6
Continuous
 62
     3
100
AcDbLine
 10
438.1423464558703
 20
-295.3296257752127
 30
0.0
 11
438.1423464558703
 21
-303.3292247752125
 31
0.0
  0
ARC
  5
544B
330
1E
100
AcDbEntity
  8
躯体と製品
  6
Continuous
 62
     3
100
AcDbCircle
 10
446.6422464558703
 20
-295.0297067752124
 30
0.0
 40
4.19979
100
AcDbArc
 50
230.6906290000006
 51
309.3031310000012
  0
ARC
  5
544C
330
1E
100
AcDbEntity
  8
躯体と製品
  6
Continuous
 62
     3
100
AcDbCircle
 10
447.8495334558703
 20
-296.4967247752124
 30
0.0
 40
2.299884
100
AcDbArc
 50
309.1795109999968
 51
356.6872569999999
  0
ARC
  5
544D
330
1E
100
AcDbEntity
  8
躯体と製品
  6
Continuous
 62
     3
100
AcDbCircle
 10
445.4386344558703
 20
-296.4997247752127
 30
0.0
 40
2.299884
100
AcDbArc
 50
183.2378370000027
 51
230.6908759999998
  0
LINE
  5
544E
330
1E
100
AcDbEntity
  8
躯体と製品
  6
Continuous
 62
     3
100
AcDbLine
 10
447.1422204558702
 20
-298.6952417752125
 30
0.0
 11
446.1422694558704
 21
-298.6952417752125
 31
0.0
  0
ARC
  5
544F
330
1E
100
AcDbEntity
  8
躯体と製品
  6
Continuous
 62
     3
100
AcDbCircle
 10
447.5422014558703
 20
-298.7214047752126
 30
0.0
 40
0.399981
100
AcDbArc
 50
180.0
 51
283.7002329999985
  0
ARC
  5
5450
330
1E
100
AcDbEntity
  8
躯体と製品
  6
Continuous
 62
     3
100
AcDbCircle
 10
445.7422914558703
 20
-298.7214047752126
 30
0.0
 40
0.399981
100
AcDbArc
 50
256.2997670000015
 51
0.0
  0
LINE
  5
5451
330
1E
100
AcDbEntity
  8
躯体と製品
  6
Continuous
 62
     4
100
AcDbLine
 10
450.1420704558703
 20
-296.6296247752125
 30
0.0
 11
443.1424194558704
 21
-296.6296247752125
 31
0.0
  0
LINE
  5
5452
330
1E
100
AcDbEntity
  8
躯体と製品
  6
Continuous
 62
     4
100
AcDbLine
 10
448.8422454558704
 20
-296.6296247752125
 30
0.0
 11
446.9422464558704
 21
-296.6296247752125
 31
0.0
  0
LINE
  5
5453
330
1E
100
AcDbEntity
  8
躯体と製品
  6
Continuous
 62
     4
100
AcDbLine
 10
446.9422464558704
 20
-296.6296247752125
 30
0.0
 11
448.8422454558704
 21
-296.6296247752125
 31
0.0
  0
LINE
  5
5454
330
1E
100
AcDbEntity
  8
躯体と製品
  6
Continuous
 62
     4
100
AcDbLine
 10
440.4422454558702
 20
-296.6296247752125
 30
0.0
 11
446.3422464558703
 21
-296.6296247752125
 31
0.0
  0
LINE
  5
5455
330
1E
100
AcDbEntity
  8
躯体と製品
  6
Continuous
 62
     4
100
AcDbLine
 10
446.3422464558703
 20
-296.6296247752125
 30
0.0
 11
446.6422464558703
 21
-296.3296247752124
 31
0.0
  0
LINE
  5
5456
330
1E
100
AcDbEntity
  8
躯体と製品
  6
Continuous
 62
     4
100
AcDbLine
 10
446.6422464558703
 20
-296.3296247752124
 30
0.0
 11
446.9422464558704
 21
-296.6296247752125
 31
0.0
  0
LINE
  5
5457
330
1E
100
AcDbEntity
  8
躯体と製品
  6
Continuous
 62
     4
100
AcDbLine
 10
448.8422454558704
 20
-296.6296247752125
 30
0.0
 11
449.14224545587
 21
-296.3296247752124
 31
0.0
  0
LINE
  5
5458
330
1E
100
AcDbEntity
  8
躯体と製品
  6
Continuous
 62
     4
100
AcDbLine
 10
449.14224545587
 20
-296.3296247752124
 30
0.0
 11
449.4422454558701
 21
-296.6296247752125
 31
0.0
  0
ARC
  5
5459
330
1E
100
AcDbEntity
  8
躯体と製品
  6
Continuous
 62
     3
100
AcDbCircle
 10
441.3458574558701
 20
-295.4595227752125
 30
0.0
 40
2.299884
100
AcDbArc
 50
3.237837000002725
 51
50.69087599999989
  0
ARC
  5
545A
330
1E
100
AcDbEntity
  8
躯体と製品
  6
Continuous
 62
     3
100
AcDbCircle
 10
441.0422004558704
 20
-293.2378457752126
 30
0.0
 40
0.399981
100
AcDbArc
 50
76.29976700000153
 51
180.0
  0
LINE
  5
545B
330
1E
100
AcDbEntity
  8
躯体と製品
  6
Continuous
 62
     3
100
AcDbLine
 10
442.1421444558702
 20
-295.3296257752127
 30
0.0
 11
442.1421444558702
 21
-303.3292247752125
 31
0.0
  0
LINE
  5
545C
330
1E
100
AcDbEntity
  8
躯体と製品
  6
Continuous
 62
     4
100
AcDbLine
 10
458.8562244558703
 20
-315.3436037752127
 30
0.0
 11
458.8562244558703
 21
-297.6296237752126
 31
0.0
  0
LINE
  5
545D
330
1E
100
AcDbEntity
  8
躯体と製品
  6
Continuous
 62
     3
100
AcDbLine
 10
455.1422454558701
 20
-296.6296247752125
 30
0.0
 11
455.1422454558701
 21
-311.6296247752125
 31
0.0
  0
LINE
  5
545E
330
1E
100
AcDbEntity
  8
躯体と製品
  6
Continuous
 62
     3
100
AcDbLine
 10
453.1922454558702
 20
-305.8296257752127
 30
0.0
 11
453.1922454558702
 21
-306.8296247752124
 31
0.0
  0
LINE
  5
545F
330
1E
100
AcDbEntity
  8
躯体と製品
  6
Continuous
 62
     3
100
AcDbLine
 10
451.8670314558702
 20
-307.0544087752128
 30
0.0
 11
452.3384304558703
 21
-306.8445287752127
 31
0.0
  0
LINE
  5
5460
330
1E
100
AcDbEntity
  8
躯体と製品
  6
Continuous
 62
     3
100
AcDbLine
 10
453.1922454558702
 20
-306.8296247752124
 30
0.0
 11
452.3384304558703
 21
-306.8445287752127
 31
0.0
  0
LINE
  5
5461
330
1E
100
AcDbEntity
  8
躯体と製品
  6
Continuous
 62
     3
100
AcDbLine
 10
451.8670314558702
 20
-307.0544087752128
 30
0.0
 11
451.6571484558701
 21
-307.5258107752126
 31
0.0
  0
LINE
  5
5462
330
1E
100
AcDbEntity
  8
躯体と製品
  6
Continuous
 62
     3
100
AcDbLine
 10
453.1922454558702
 20
-305.8296257752127
 30
0.0
 11
452.3384304558703
 21
-305.8147217752128
 31
0.0
  0
LINE
  5
5463
330
1E
100
AcDbEntity
  8
躯体と製品
  6
Continuous
 62
     3
100
AcDbLine
 10
452.3384304558703
 20
-305.8147217752128
 30
0.0
 11
451.8670314558702
 21
-305.6048417752127
 31
0.0
  0
LINE
  5
5464
330
1E
100
AcDbEntity
  8
躯体と製品
  6
Continuous
 62
     3
100
AcDbLine
 10
451.8670314558702
 20
-305.6048417752127
 30
0.0
 11
451.6571484558701
 21
-305.1334397752125
 31
0.0
  0
LINE
  5
5465
330
1E
100
AcDbEntity
  8
躯体と製品
  6
Continuous
 62
     4
100
AcDbLine
 10
458.8562244558703
 20
-315.3446717752124
 30
0.0
 11
457.3562244558703
 21
-315.3607157752125
 31
0.0
  0
LINE
  5
5466
330
1E
100
AcDbEntity
  8
躯体と製品
  6
Continuous
 62
     4
100
AcDbLine
 10
457.3562244558703
 20
-315.3607157752125
 30
0.0
 11
457.8562224558702
 21
-318.3555377752126
 31
0.0
  0
LINE
  5
5467
330
1E
100
AcDbEntity
  8
躯体と製品
  6
Continuous
 62
     4
100
AcDbLine
 10
457.8562224558702
 20
-318.3555377752126
 30
0.0
 11
458.8562244558703
 21
-318.3448427752127
 31
0.0
  0
ARC
  5
5468
330
1E
100
AcDbEntity
  8
躯体と製品
  6
Continuous
 62
     4
100
AcDbCircle
 10
458.1562224558703
 20
-297.3296237752125
 30
0.0
 40
2.000001
100
AcDbArc
 50
0.0
 51
90.0
  0
ARC
  5
5469
330
1E
100
AcDbEntity
  8
躯体と製品
  6
Continuous
 62
     4
100
AcDbCircle
 10
457.8562224558702
 20
-297.6296237752126
 30
0.0
 40
0.999999
100
AcDbArc
 50
0.0
 51
90.0
  0
ARC
  5
546E
330
1E
100
AcDbEntity
  8
躯体と製品
  6
Continuous
 62
     4
100
AcDbCircle
 10
681.1422444558702
 20
-421.3296257752126
 30
0.0
 40
3.249999
100
AcDbArc
 50
245.9972989999988
 51
302.2309559999961
  0
ARC
  5
546F
330
1E
100
AcDbEntity
  8
躯体と製品
  6
Continuous
 62
     4
100
AcDbCircle
 10
681.1422444558702
 20
-421.3296257752126
 30
0.0
 40
3.249999
100
AcDbArc
 50
57.76904700000256
 51
114.0027020000019
  0
ARC
  5
5470
330
1E
100
AcDbEntity
  8
躯体と製品
  6
Continuous
 62
     4
100
AcDbCircle
 10
681.1422444558702
 20
-399.3296237752126
 30
0.0
 40
3.249999
100
AcDbArc
 50
245.9973010000008
 51
302.2309529999974
  0
ARC
  5
5471
330
1E
100
AcDbEntity
  8
躯体と製品
  6
Continuous
 62
     4
100
AcDbCircle
 10
681.1422444558702
 20
-399.3296237752126
 30
0.0
 40
3.249999
100
AcDbArc
 50
57.76905400000067
 51
114.0027010000012
  0
LINE
  5
5472
330
1E
100
AcDbEntity
  8
躯体と製品
  6
Continuous
 62
     4
100
AcDbLine
 10
682.6422444558702
 20
-433.5296237752125
 30
0.0
 11
674.4847734558702
 21
-433.5296237752125
 31
0.0
  0
LINE
  5
5473
330
1E
100
AcDbEntity
  8
躯体と製品
  6
Continuous
 62
     4
100
AcDbLine
 10
682.6422444558702
 20
-387.1296257752127
 30
0.0
 11
671.6422464558704
 21
-387.1296257752127
 31
0.0
  0
LINE
  5
5474
330
1E
100
AcDbEntity
  8
躯体と製品
  6
Continuous
 62
     4
100
AcDbLine
 10
680.0922444558701
 20
-422.7441317752126
 30
0.0
 11
681.1422444558702
 21
-423.3503507752127
 31
0.0
  0
LINE
  5
5475
330
1E
100
AcDbEntity
  8
躯体と製品
  6
Continuous
 62
     4
100
AcDbLine
 10
680.0922444558701
 20
-419.9151167752127
 30
0.0
 11
681.1422444558702
 21
-419.3088977752125
 31
0.0
  0
LINE
  5
5476
330
1E
100
AcDbEntity
  8
躯体と製品
  6
Continuous
 62
     4
100
AcDbLine
 10
680.0922444558701
 20
-400.7441327752125
 30
0.0
 11
681.1422444558702
 21
-401.3503517752126
 31
0.0
  0
LINE
  5
5477
330
1E
100
AcDbEntity
  8
躯体と製品
  6
Continuous
 62
     4
100
AcDbLine
 10
680.0922444558701
 20
-397.9151177752126
 30
0.0
 11
681.1422444558702
 21
-397.3088987752125
 31
0.0
  0
LINE
  5
5478
330
1E
100
AcDbEntity
  8
躯体と製品
  6
Continuous
 62
     4
100
AcDbLine
 10
683.1422454558701
 20
-385.3296257752127
 30
0.0
 11
637.1422464558703
 21
-385.3296257752127
 31
0.0
  0
LINE
  5
5479
330
1E
100
AcDbEntity
  8
躯体と製品
  6
Continuous
 62
     4
100
AcDbLine
 10
683.1422454558701
 20
-435.3296237752125
 30
0.0
 11
637.1422464558703
 21
-435.3296237752125
 31
0.0
  0
LINE
  5
547D
330
1E
100
AcDbEntity
  8
躯体と製品
  6
PLINE3
 62
     3
100
AcDbLine
 10
660.1422444558702
 20
-376.4704727752128
 30
0.0
 11
660.1422444558702
 21
-445.6134197752127
 31
0.0
  0
LINE
  5
547E
330
1E
100
AcDbEntity
  8
躯体と製品
  6
Continuous
 62
     4
100
AcDbLine
 10
595.1422464558703
 20
-430.3296257752126
 30
0.0
 11
635.1422454558701
 21
-430.3296257752126
 31
0.0
  0
LINE
  5
547F
330
1E
100
AcDbEntity
  8
躯体と製品
  6
Continuous
 62
     4
100
AcDbLine
 10
595.1422464558703
 20
-390.3296237752126
 30
0.0
 11
635.1422454558701
 21
-390.3296237752126
 31
0.0
  0
LINE
  5
5480
330
1E
100
AcDbEntity
  8
躯体と製品
  6
PLINE2
 62
     4
100
AcDbLine
 10
605.1422454558701
 20
-425.3296247752124
 30
0.0
 11
635.1422454558701
 21
-425.3296247752124
 31
0.0
  0
LINE
  5
5481
330
1E
100
AcDbEntity
  8
躯体と製品
  6
PLINE2
 62
     4
100
AcDbLine
 10
605.1422454558701
 20
-395.3296247752124
 30
0.0
 11
635.1422454558701
 21
-395.3296247752124
 31
0.0
  0
LINE
  5
5482
330
1E
100
AcDbEntity
  8
躯体と製品
  6
PLINE3
 62
     3
100
AcDbLine
 10
615.1422444558702
 20
-420.3296237752125
 30
0.0
 11
615.1422444558702
 21
-400.3296257752126
 31
0.0
  0
LINE
  5
5483
330
1E
100
AcDbEntity
  8
躯体と製品
  6
PLINE2
 62
     4
100
AcDbLine
 10
605.1422454558701
 20
-395.3296247752124
 30
0.0
 11
605.1422454558701
 21
-425.3296247752124
 31
0.0
  0
LINE
  5
5484
330
1E
100
AcDbEntity
  8
躯体と製品
  6
Continuous
 62
     3
100
AcDbLine
 10
615.6422214558702
 20
-412.3795217752125
 30
0.0
 11
614.6422704558703
 21
-412.3795217752125
 31
0.0
  0
LINE
  5
5485
330
1E
100
AcDbEntity
  8
躯体と製品
  6
Continuous
 62
     3
100
AcDbLine
 10
613.0923474558701
 20
-410.8295987752127
 30
0.0
 11
613.0923474558701
 21
-409.8296507752125
 31
0.0
  0
LINE
  5
5486
330
1E
100
AcDbEntity
  8
躯体と製品
  6
Continuous
 62
     3
100
AcDbLine
 10
614.6422704558703
 20
-408.2797277752126
 30
0.0
 11
615.6422214558702
 21
-408.2797277752126
 31
0.0
  0
LINE
  5
5487
330
1E
100
AcDbEntity
  8
躯体と製品
  6
Continuous
 62
     3
100
AcDbLine
 10
617.1921444558703
 20
-409.8296507752125
 30
0.0
 11
617.1921444558703
 21
-410.8295987752127
 31
0.0
  0
CIRCLE
  5
5488
330
1E
100
AcDbEntity
  8
躯体と製品
  6
Continuous
 62
     3
100
AcDbCircle
 10
615.1422444558702
 20
-410.3296247752124
 30
0.0
 40
3.499824
  0
LINE
  5
5489
330
1E
100
AcDbEntity
  8
躯体と製品
  6
Continuous
 62
     3
100
AcDbLine
 10
614.4174984558702
 20
-409.6048757752124
 30
0.0
 11
613.9461204558704
 21
-409.8147467752125
 31
0.0
  0
LINE
  5
548A
330
1E
100
AcDbEntity
  8
躯体と製品
  6
Continuous
 62
     3
100
AcDbLine
 10
613.0923474558701
 20
-409.8296507752125
 30
0.0
 11
613.9461204558704
 21
-409.8147467752125
 31
0.0
  0
LINE
  5
548B
330
1E
100
AcDbEntity
  8
躯体と製品
  6
Continuous
 62
     3
100
AcDbLine
 10
614.4174984558702
 20
-409.6048757752124
 30
0.0
 11
614.62736645587
 21
-409.1335007752125
 31
0.0
  0
LINE
  5
548C
330
1E
100
AcDbEntity
  8
躯体と製品
  6
Continuous
 62
     3
100
AcDbLine
 10
613.0923474558701
 20
-410.8295987752127
 30
0.0
 11
613.9461204558704
 21
-410.8445027752126
 31
0.0
  0
LINE
  5
548D
330
1E
100
AcDbEntity
  8
躯体と製品
  6
Continuous
 62
     3
100
AcDbLine
 10
613.9461204558704
 20
-410.8445027752126
 30
0.0
 11
614.4174984558702
 21
-411.0543737752127
 31
0.0
  0
LINE
  5
548E
330
1E
100
AcDbEntity
  8
躯体と製品
  6
Continuous
 62
     3
100
AcDbLine
 10
614.4174984558702
 20
-411.0543737752127
 30
0.0
 11
614.62736645587
 21
-411.5257487752126
 31
0.0
  0
LINE
  5
548F
330
1E
100
AcDbEntity
  8
躯体と製品
  6
Continuous
 62
     3
100
AcDbLine
 10
614.62736645587
 20
-411.5257487752126
 30
0.0
 11
614.6422704558703
 21
-412.3795217752125
 31
0.0
  0
LINE
  5
5490
330
1E
100
AcDbEntity
  8
躯体と製品
  6
Continuous
 62
     3
100
AcDbLine
 10
615.6422214558702
 20
-412.3795217752125
 30
0.0
 11
615.6571224558704
 21
-411.5257487752126
 31
0.0
  0
LINE
  5
5491
330
1E
100
AcDbEntity
  8
躯体と製品
  6
Continuous
 62
     3
100
AcDbLine
 10
615.6571224558704
 20
-411.5257487752126
 30
0.0
 11
615.8669934558702
 21
-411.0543737752127
 31
0.0
  0
LINE
  5
5492
330
1E
100
AcDbEntity
  8
躯体と製品
  6
Continuous
 62
     3
100
AcDbLine
 10
615.8669934558702
 20
-411.0543737752127
 30
0.0
 11
616.3383714558704
 21
-410.8445027752126
 31
0.0
  0
LINE
  5
5493
330
1E
100
AcDbEntity
  8
躯体と製品
  6
Continuous
 62
     3
100
AcDbLine
 10
616.3383714558704
 20
-410.8445027752126
 30
0.0
 11
617.1921444558703
 21
-410.8295987752127
 31
0.0
  0
LINE
  5
5494
330
1E
100
AcDbEntity
  8
躯体と製品
  6
Continuous
 62
     3
100
AcDbLine
 10
617.1921444558703
 20
-409.8296507752125
 30
0.0
 11
616.3383714558704
 21
-409.8147467752125
 31
0.0
  0
LINE
  5
5495
330
1E
100
AcDbEntity
  8
躯体と製品
  6
Continuous
 62
     3
100
AcDbLine
 10
616.3383714558704
 20
-409.8147467752125
 30
0.0
 11
615.8669934558702
 21
-409.6048757752124
 31
0.0
  0
LINE
  5
5496
330
1E
100
AcDbEntity
  8
躯体と製品
  6
Continuous
 62
     3
100
AcDbLine
 10
615.8669934558702
 20
-409.6048757752124
 30
0.0
 11
615.6571224558704
 21
-409.1335007752125
 31
0.0
  0
LINE
  5
5497
330
1E
100
AcDbEntity
  8
躯体と製品
  6
Continuous
 62
     3
100
AcDbLine
 10
615.6571224558704
 20
-409.1335007752125
 30
0.0
 11
615.6422214558702
 21
-408.2797277752126
 31
0.0
  0
LINE
  5
5498
330
1E
100
AcDbEntity
  8
躯体と製品
  6
Continuous
 62
     3
100
AcDbLine
 10
614.62736645587
 20
-409.1335007752125
 30
0.0
 11
614.6422704558703
 21
-408.2797277752126
 31
0.0
  0
LINE
  5
5499
330
1E
100
AcDbEntity
  8
躯体と製品
  6
Continuous
 62
     4
100
AcDbLine
 10
635.1422454558701
 20
-433.3296257752127
 30
0.0
 11
635.1422454558701
 21
-387.3296237752126
 31
0.0
  0
LINE
  5
549A
330
1E
100
AcDbEntity
  8
躯体と製品
  6
Continuous
 62
     4
100
AcDbLine
 10
636.6422454558701
 20
-418.1574797752124
 30
0.0
 11
636.6422454558701
 21
-403.3061177752126
 31
0.0
  0
LINE
  5
549B
330
1E
100
AcDbEntity
  8
躯体と製品
  6
Continuous
 62
     4
100
AcDbLine
 10
652.4847744558701
 20
-433.5296237752125
 30
0.0
 11
667.7997174558703
 21
-433.5296237752125
 31
0.0
  0
LINE
  5
549C
330
1E
100
AcDbEntity
  8
躯体と製品
  6
Continuous
 62
     4
100
AcDbLine
 10
636.6422454558701
 20
-432.5296247752127
 30
0.0
 11
636.6422454558701
 21
-424.5017687752125
 31
0.0
  0
ARC
  5
549D
330
1E
100
AcDbEntity
  8
躯体と製品
  6
Continuous
 62
     4
100
AcDbCircle
 10
649.1422464558703
 20
-431.3296247752124
 30
0.0
 40
3.249999
100
AcDbArc
 50
155.9973000000027
 51
206.9577489999983
  0
ARC
  5
549E
330
1E
100
AcDbEntity
  8
躯体と製品
  6
Continuous
 62
     4
100
AcDbCircle
 10
649.1422464558703
 20
-431.3296247752124
 30
0.0
 40
3.249999
100
AcDbArc
 50
333.0422490000008
 51
24.00269400000324
  0
LINE
  5
549F
330
1E
100
AcDbEntity
  8
躯体と製品
  6
Continuous
 62
     4
100
AcDbLine
 10
647.72773745587
 20
-430.2796247752127
 30
0.0
 11
647.1215184558702
 21
-431.3296247752124
 31
0.0
  0
LINE
  5
54A0
330
1E
100
AcDbEntity
  8
躯体と製品
  6
Continuous
 62
     4
100
AcDbLine
 10
650.5567524558703
 20
-430.2796247752127
 30
0.0
 11
651.1629714558701
 21
-431.3296247752124
 31
0.0
  0
ARC
  5
54A1
330
1E
100
AcDbEntity
  8
躯体と製品
  6
Continuous
 62
     4
100
AcDbCircle
 10
645.7997154558702
 20
-433.0296257752126
 30
0.0
 40
0.5000010000000001
100
AcDbArc
 50
270.0
 51
26.95774899999833
  0
ARC
  5
54A2
330
1E
100
AcDbEntity
  8
躯体と製品
  6
Continuous
 62
     4
100
AcDbCircle
 10
637.1422464558703
 20
-433.3296257752127
 30
0.0
 40
2.000001
100
AcDbArc
 50
180.0
 51
270.0
  0
ARC
  5
54A3
330
1E
100
AcDbEntity
  8
躯体と製品
  6
Continuous
 62
     4
100
AcDbCircle
 10
637.6422444558702
 20
-432.5296247752127
 30
0.0
 40
0.999999
100
AcDbArc
 50
180.0
 51
270.0
  0
LINE
  5
54A4
330
1E
100
AcDbEntity
  8
躯体と製品
  6
Continuous
 62
     4
100
AcDbLine
 10
637.6422444558702
 20
-433.5296237752125
 30
0.0
 11
645.7997154558702
 21
-433.5296237752125
 31
0.0
  0
ARC
  5
54A5
330
1E
100
AcDbEntity
  8
躯体と製品
  6
Continuous
 62
     4
100
AcDbCircle
 10
652.4847744558701
 20
-433.0296257752126
 30
0.0
 40
0.5000010000000001
100
AcDbArc
 50
153.0422510000017
 51
270.0
  0
LINE
  5
54A6
330
1E
100
AcDbEntity
  8
躯体と製品
  6
Continuous
 62
     4
100
AcDbLine
 10
651.1629714558701
 20
-431.3296247752124
 30
0.0
 11
650.1526074558702
 21
-433.0796237752125
 31
0.0
  0
LINE
  5
54A7
330
1E
100
AcDbEntity
  8
躯体と製品
  6
Continuous
 62
     4
100
AcDbLine
 10
648.1318824558704
 20
-433.0796237752125
 30
0.0
 11
647.1215184558702
 21
-431.3296247752124
 31
0.0
  0
LINE
  5
54A8
330
1E
100
AcDbEntity
  8
躯体と製品
  6
Continuous
 62
     4
100
AcDbLine
 10
650.1526074558702
 20
-433.0796237752125
 30
0.0
 11
648.1318824558704
 21
-433.0796237752125
 31
0.0
  0
LINE
  5
54A9
330
1E
100
AcDbEntity
  8
躯体と製品
  6
Continuous
 62
     4
100
AcDbLine
 10
639.1422444558702
 20
-419.3088977752125
 30
0.0
 11
637.3922454558701
 21
-420.3192617752124
 31
0.0
  0
LINE
  5
54AA
330
1E
100
AcDbEntity
  8
躯体と製品
  6
Continuous
 62
     4
100
AcDbLine
 10
637.3922454558701
 20
-422.3399867752125
 30
0.0
 11
639.1422444558702
 21
-423.3503507752127
 31
0.0
  0
LINE
  5
54AB
330
1E
100
AcDbEntity
  8
躯体と製品
  6
Continuous
 62
     4
100
AcDbLine
 10
637.3922454558701
 20
-420.3192617752124
 30
0.0
 11
637.3922454558701
 21
-422.3399867752125
 31
0.0
  0
ARC
  5
54AC
330
1E
100
AcDbEntity
  8
躯体と製品
  6
Continuous
 62
     4
100
AcDbCircle
 10
639.1422444558702
 20
-421.3296257752126
 30
0.0
 40
3.249999
100
AcDbArc
 50
237.7690500000012
 51
294.0026980000013
  0
ARC
  5
54AD
330
1E
100
AcDbEntity
  8
躯体と製品
  6
Continuous
 62
     4
100
AcDbCircle
 10
639.1422444558702
 20
-421.3296257752126
 30
0.0
 40
3.249999
100
AcDbArc
 50
65.99729899999878
 51
122.230960000001
  0
ARC
  5
54AE
330
1E
100
AcDbEntity
  8
躯体と製品
  6
Continuous
 62
     4
100
AcDbCircle
 10
637.1422464558703
 20
-424.5017687752125
 30
0.0
 40
0.5000010000000001
100
AcDbArc
 50
57.76904700000256
 51
180.0
  0
ARC
  5
54AF
330
1E
100
AcDbEntity
  8
躯体と製品
  6
Continuous
 62
     4
100
AcDbCircle
 10
637.1422464558703
 20
-418.1574797752124
 30
0.0
 40
0.5000010000000001
100
AcDbArc
 50
180.0
 51
302.2309529999974
  0
ARC
  5
54B0
330
1E
100
AcDbEntity
  8
躯体と製品
  6
Continuous
 62
     4
100
AcDbCircle
 10
640.3422444558701
 20
-418.6347227752125
 30
0.0
 40
0.3
100
AcDbArc
 50
0.0
 51
65.99730199999877
  0
ARC
  5
54B1
330
1E
100
AcDbEntity
  8
躯体と製品
  6
Continuous
 62
     4
100
AcDbCircle
 10
640.3422444558701
 20
-424.0245287752125
 30
0.0
 40
0.3
100
AcDbArc
 50
294.0026980000013
 51
0.0
  0
LINE
  5
54B2
330
1E
100
AcDbEntity
  8
躯体と製品
  6
Continuous
 62
     4
100
AcDbLine
 10
640.1922444558703
 20
-419.9151167752127
 30
0.0
 11
639.1422444558702
 21
-419.3088977752125
 31
0.0
  0
ARC
  5
54B3
330
1E
100
AcDbEntity
  8
躯体と製品
  6
Continuous
 62
     4
100
AcDbCircle
 10
640.3422444558701
 20
-419.6553077752124
 30
0.0
 40
0.3
100
AcDbArc
 50
239.9999999999995
 51
0.0
  0
LINE
  5
54B4
330
1E
100
AcDbEntity
  8
躯体と製品
  6
Continuous
 62
     4
100
AcDbLine
 10
640.6422444558702
 20
-419.6553077752124
 30
0.0
 11
640.6422444558702
 21
-418.6347227752125
 31
0.0
  0
LINE
  5
54B5
330
1E
100
AcDbEntity
  8
躯体と製品
  6
Continuous
 62
     4
100
AcDbLine
 10
640.6422444558702
 20
-423.0039407752125
 30
0.0
 11
640.6422444558702
 21
-424.0245287752125
 31
0.0
  0
ARC
  5
54B6
330
1E
100
AcDbEntity
  8
躯体と製品
  6
Continuous
 62
     4
100
AcDbCircle
 10
640.3422444558701
 20
-423.0039407752125
 30
0.0
 40
0.3
100
AcDbArc
 50
0.0
 51
120.0000000000005
  0
LINE
  5
54B7
330
1E
100
AcDbEntity
  8
躯体と製品
  6
Continuous
 62
     4
100
AcDbLine
 10
640.1922444558703
 20
-422.7441317752126
 30
0.0
 11
639.1422444558702
 21
-423.3503507752127
 31
0.0
  0
ARC
  5
54B8
330
1E
100
AcDbEntity
  8
躯体と製品
  6
Continuous
 62
     4
100
AcDbCircle
 10
651.8371494558701
 20
-430.1296247752125
 30
0.0
 40
0.3
100
AcDbArc
 50
24.00269800000124
 51
90.0
  0
ARC
  5
54B9
330
1E
100
AcDbEntity
  8
躯体と製品
  6
Continuous
 62
     4
100
AcDbCircle
 10
646.4473434558701
 20
-430.1296247752125
 30
0.0
 40
0.3
100
AcDbArc
 50
90.0
 51
155.9973019999987
  0
ARC
  5
54BA
330
1E
100
AcDbEntity
  8
躯体と製品
  6
Continuous
 62
     4
100
AcDbCircle
 10
647.4679284558702
 20
-430.1296247752125
 30
0.0
 40
0.3
100
AcDbArc
 50
329.9999999999995
 51
90.0
  0
LINE
  5
54BB
330
1E
100
AcDbEntity
  8
躯体と製品
  6
Continuous
 62
     4
100
AcDbLine
 10
647.4679284558702
 20
-429.8296247752124
 30
0.0
 11
646.4473434558701
 21
-429.8296247752124
 31
0.0
  0
LINE
  5
54BC
330
1E
100
AcDbEntity
  8
躯体と製品
  6
Continuous
 62
     4
100
AcDbLine
 10
650.8165614558702
 20
-429.8296247752124
 30
0.0
 11
651.8371494558701
 21
-429.8296247752124
 31
0.0
  0
ARC
  5
54BD
330
1E
100
AcDbEntity
  8
躯体と製品
  6
Continuous
 62
     4
100
AcDbCircle
 10
650.8165614558702
 20
-430.1296247752125
 30
0.0
 40
0.3
100
AcDbArc
 50
90.0
 51
210.0000000000005
  0
ARC
  5
54BE
330
1E
100
AcDbEntity
  8
躯体と製品
  6
Continuous
 62
     4
100
AcDbCircle
 10
671.1422454558701
 20
-431.3296247752124
 30
0.0
 40
3.249999
100
AcDbArc
 50
155.9973000000027
 51
206.9577540000006
  0
ARC
  5
54BF
330
1E
100
AcDbEntity
  8
躯体と製品
  6
Continuous
 62
     4
100
AcDbCircle
 10
671.1422454558701
 20
-431.3296247752124
 30
0.0
 40
3.249999
100
AcDbArc
 50
333.0422530000025
 51
24.00269299999662
  0
LINE
  5
54C0
330
1E
100
AcDbEntity
  8
躯体と製品
  6
Continuous
 62
     4
100
AcDbLine
 10
672.5567544558701
 20
-430.2796247752127
 30
0.0
 11
673.1629704558701
 21
-431.3296247752124
 31
0.0
  0
LINE
  5
54C1
330
1E
100
AcDbEntity
  8
躯体と製品
  6
Continuous
 62
     4
100
AcDbLine
 10
669.7277364558702
 20
-430.2796247752127
 30
0.0
 11
669.1215204558703
 21
-431.3296247752124
 31
0.0
  0
ARC
  5
54C2
330
1E
100
AcDbEntity
  8
躯体と製品
  6
Continuous
 62
     4
100
AcDbCircle
 10
667.7997174558703
 20
-433.0296257752126
 30
0.0
 40
0.5000010000000001
100
AcDbArc
 50
270.0
 51
26.95774899999833
  0
ARC
  5
54C3
330
1E
100
AcDbEntity
  8
躯体と製品
  6
Continuous
 62
     4
100
AcDbCircle
 10
674.4847734558702
 20
-433.0296257752126
 30
0.0
 40
0.5000010000000001
100
AcDbArc
 50
153.0422510000017
 51
270.0
  0
LINE
  5
54C4
330
1E
100
AcDbEntity
  8
躯体と製品
  6
Continuous
 62
     4
100
AcDbLine
 10
673.1629704558701
 20
-431.3296247752124
 30
0.0
 11
672.1526094558703
 21
-433.0796237752125
 31
0.0
  0
LINE
  5
54C5
330
1E
100
AcDbEntity
  8
躯体と製品
  6
Continuous
 62
     4
100
AcDbLine
 10
670.1318814558702
 20
-433.0796237752125
 30
0.0
 11
669.1215204558703
 21
-431.3296247752124
 31
0.0
  0
LINE
  5
54C6
330
1E
100
AcDbEntity
  8
躯体と製品
  6
Continuous
 62
     4
100
AcDbLine
 10
672.1526094558703
 20
-433.0796237752125
 30
0.0
 11
670.1318814558702
 21
-433.0796237752125
 31
0.0
  0
LINE
  5
54C7
330
1E
100
AcDbEntity
  8
躯体と製品
  6
Continuous
 62
     4
100
AcDbLine
 10
669.4679304558702
 20
-429.8296247752124
 30
0.0
 11
668.4473424558703
 21
-429.8296247752124
 31
0.0
  0
ARC
  5
54C8
330
1E
100
AcDbEntity
  8
躯体と製品
  6
Continuous
 62
     4
100
AcDbCircle
 10
668.4473424558703
 20
-430.1296247752125
 30
0.0
 40
0.3
100
AcDbArc
 50
90.0
 51
155.9973019999987
  0
ARC
  5
54C9
330
1E
100
AcDbEntity
  8
躯体と製品
  6
Continuous
 62
     4
100
AcDbCircle
 10
673.8371484558703
 20
-430.1296247752125
 30
0.0
 40
0.3
100
AcDbArc
 50
24.00269800000124
 51
90.0
  0
ARC
  5
54CA
330
1E
100
AcDbEntity
  8
躯体と製品
  6
Continuous
 62
     4
100
AcDbCircle
 10
679.9422444558703
 20
-424.0245287752125
 30
0.0
 40
0.3
100
AcDbArc
 50
180.0
 51
245.9973019999988
  0
ARC
  5
54CB
330
1E
100
AcDbEntity
  8
躯体と製品
  6
Continuous
 62
     4
100
AcDbCircle
 10
679.9422444558703
 20
-418.6347227752125
 30
0.0
 40
0.3
100
AcDbArc
 50
114.0026980000012
 51
180.0
  0
LINE
  5
54CC
330
1E
100
AcDbEntity
  8
躯体と製品
  6
Continuous
 62
     4
100
AcDbLine
 10
672.8165604558703
 20
-429.8296247752124
 30
0.0
 11
673.8371484558703
 21
-429.8296247752124
 31
0.0
  0
ARC
  5
54CD
330
1E
100
AcDbEntity
  8
躯体と製品
  6
Continuous
 62
     4
100
AcDbCircle
 10
672.8165604558703
 20
-430.1296247752125
 30
0.0
 40
0.3
100
AcDbArc
 50
90.0
 51
210.0000000000005
  0
ARC
  5
54CE
330
1E
100
AcDbEntity
  8
躯体と製品
  6
Continuous
 62
     4
100
AcDbCircle
 10
669.4679304558702
 20
-430.1296247752125
 30
0.0
 40
0.3
100
AcDbArc
 50
329.9999999999995
 51
90.0
  0
ARC
  5
54CF
330
1E
100
AcDbEntity
  8
躯体と製品
  6
Continuous
 62
     4
100
AcDbCircle
 10
679.9422444558703
 20
-423.0039407752125
 30
0.0
 40
0.3
100
AcDbArc
 50
59.99999999999946
 51
180.0
  0
LINE
  5
54D0
330
1E
100
AcDbEntity
  8
躯体と製品
  6
Continuous
 62
     4
100
AcDbLine
 10
679.6422444558702
 20
-423.0039407752125
 30
0.0
 11
679.6422444558702
 21
-424.0245287752125
 31
0.0
  0
ARC
  5
54D1
330
1E
100
AcDbEntity
  8
躯体と製品
  6
Continuous
 62
     4
100
AcDbCircle
 10
679.9422444558703
 20
-419.6553077752124
 30
0.0
 40
0.3
100
AcDbArc
 50
180.0
 51
300.0000000000005
  0
LINE
  5
54D2
330
1E
100
AcDbEntity
  8
躯体と製品
  6
Continuous
 62
     4
100
AcDbLine
 10
679.6422444558702
 20
-419.6553077752124
 30
0.0
 11
679.6422444558702
 21
-418.6347227752125
 31
0.0
  0
LINE
  5
54D3
330
1E
100
AcDbEntity
  8
躯体と製品
  6
Continuous
 62
     4
100
AcDbLine
 10
651.8422464558702
 20
-387.1296257752127
 30
0.0
 11
668.4422454558702
 21
-387.1296257752127
 31
0.0
  0
LINE
  5
54D4
330
1E
100
AcDbEntity
  8
躯体と製品
  6
Continuous
 62
     4
100
AcDbLine
 10
637.3922454558701
 20
-398.3192627752127
 30
0.0
 11
637.3922454558701
 21
-400.3399877752124
 31
0.0
  0
ARC
  5
54D5
330
1E
100
AcDbEntity
  8
躯体と製品
  6
Continuous
 62
     4
100
AcDbCircle
 10
639.1422444558702
 20
-399.3296237752126
 30
0.0
 40
3.249999
100
AcDbArc
 50
237.7690540000007
 51
294.0026989999992
  0
LINE
  5
54D6
330
1E
100
AcDbEntity
  8
躯体と製品
  6
Continuous
 62
     4
100
AcDbLine
 10
636.6422454558701
 20
-402.5017697752128
 30
0.0
 11
636.6422454558701
 21
-403.3061177752126
 31
0.0
  0
ARC
  5
54D7
330
1E
100
AcDbEntity
  8
躯体と製品
  6
Continuous
 62
     4
100
AcDbCircle
 10
637.1422464558703
 20
-402.5017697752128
 30
0.0
 40
0.5000010000000001
100
AcDbArc
 50
57.76904700000256
 51
180.0
  0
ARC
  5
54D8
330
1E
100
AcDbEntity
  8
躯体と製品
  6
Continuous
 62
     4
100
AcDbCircle
 10
637.1422464558703
 20
-402.5017697752128
 30
0.0
 40
0.5000010000000001
100
AcDbArc
 50
57.76904700000256
 51
180.0
  0
ARC
  5
54D9
330
1E
100
AcDbEntity
  8
躯体と製品
  6
Continuous
 62
     4
100
AcDbCircle
 10
640.3422444558701
 20
-402.0245267752127
 30
0.0
 40
0.3
100
AcDbArc
 50
294.0026980000013
 51
0.0
  0
LINE
  5
54DA
330
1E
100
AcDbEntity
  8
躯体と製品
  6
Continuous
 62
     4
100
AcDbLine
 10
640.6422444558702
 20
-401.0039417752127
 30
0.0
 11
640.6422444558702
 21
-402.0245267752127
 31
0.0
  0
ARC
  5
54DB
330
1E
100
AcDbEntity
  8
躯体と製品
  6
Continuous
 62
     4
100
AcDbCircle
 10
640.3422444558701
 20
-401.0039417752127
 30
0.0
 40
0.3
100
AcDbArc
 50
0.0
 51
120.0000000000005
  0
LINE
  5
54DC
330
1E
100
AcDbEntity
  8
躯体と製品
  6
Continuous
 62
     4
100
AcDbLine
 10
640.1922444558703
 20
-400.7441327752125
 30
0.0
 11
639.1422444558702
 21
-401.3503517752126
 31
0.0
  0
LINE
  5
54DD
330
1E
100
AcDbEntity
  8
躯体と製品
  6
Continuous
 62
     4
100
AcDbLine
 10
637.3922454558701
 20
-400.3399877752124
 30
0.0
 11
639.1422444558702
 21
-401.3503517752126
 31
0.0
  0
LINE
  5
54DE
330
1E
100
AcDbEntity
  8
躯体と製品
  6
Continuous
 62
     4
100
AcDbLine
 10
637.6422444558702
 20
-387.1296257752127
 30
0.0
 11
648.6422454558701
 21
-387.1296257752127
 31
0.0
  0
ARC
  5
54DF
330
1E
100
AcDbEntity
  8
躯体と製品
  6
Continuous
 62
     4
100
AcDbCircle
 10
639.1422444558702
 20
-399.3296237752126
 30
0.0
 40
3.249999
100
AcDbArc
 50
65.99730199999877
 51
122.2309610000017
  0
LINE
  5
54E0
330
1E
100
AcDbEntity
  8
躯体と製品
  6
Continuous
 62
     4
100
AcDbLine
 10
636.6422454558701
 20
-396.3296237752126
 30
0.0
 11
636.6422454558701
 21
-395.3531327752128
 31
0.0
  0
ARC
  5
54E1
330
1E
100
AcDbEntity
  8
躯体と製品
  6
Continuous
 62
     4
100
AcDbCircle
 10
637.1422464558703
 20
-396.1574807752127
 30
0.0
 40
0.5000010000000001
100
AcDbArc
 50
180.0
 51
302.2309529999974
  0
ARC
  5
54E2
330
1E
100
AcDbEntity
  8
躯体と製品
  6
Continuous
 62
     4
100
AcDbCircle
 10
640.3422444558701
 20
-396.6347207752127
 30
0.0
 40
0.3
100
AcDbArc
 50
0.0
 51
65.99730199999877
  0
ARC
  5
54E3
330
1E
100
AcDbEntity
  8
躯体と製品
  6
Continuous
 62
     4
100
AcDbCircle
 10
637.1422464558703
 20
-387.3296237752126
 30
0.0
 40
2.000001
100
AcDbArc
 50
90.0
 51
180.0
  0
LINE
  5
54E4
330
1E
100
AcDbEntity
  8
躯体と製品
  6
Continuous
 62
     4
100
AcDbLine
 10
636.6422454558701
 20
-388.1296247752125
 30
0.0
 11
636.6422454558701
 21
-395.3531327752128
 31
0.0
  0
ARC
  5
54E5
330
1E
100
AcDbEntity
  8
躯体と製品
  6
Continuous
 62
     4
100
AcDbCircle
 10
637.6422444558702
 20
-388.1296247752125
 30
0.0
 40
0.999999
100
AcDbArc
 50
90.0
 51
180.0
  0
LINE
  5
54E6
330
1E
100
AcDbEntity
  8
躯体と製品
  6
Continuous
 62
     4
100
AcDbLine
 10
640.1922444558703
 20
-397.9151177752126
 30
0.0
 11
639.1422444558702
 21
-397.3088987752125
 31
0.0
  0
ARC
  5
54E7
330
1E
100
AcDbEntity
  8
躯体と製品
  6
Continuous
 62
     4
100
AcDbCircle
 10
640.3422444558701
 20
-397.6553087752127
 30
0.0
 40
0.3
100
AcDbArc
 50
239.9999999999995
 51
0.0
  0
LINE
  5
54E8
330
1E
100
AcDbEntity
  8
躯体と製品
  6
Continuous
 62
     4
100
AcDbLine
 10
640.6422444558702
 20
-397.6553087752127
 30
0.0
 11
640.6422444558702
 21
-396.6347207752127
 31
0.0
  0
LINE
  5
54E9
330
1E
100
AcDbEntity
  8
躯体と製品
  6
Continuous
 62
     4
100
AcDbLine
 10
639.1422444558702
 20
-397.3088987752125
 30
0.0
 11
637.3922454558701
 21
-398.3192627752127
 31
0.0
  0
LINE
  5
54EA
330
1E
100
AcDbEntity
  8
躯体と製品
  6
Continuous
 62
     4
100
AcDbLine
 10
650.3422464558703
 20
-389.2296257752125
 30
0.0
 11
650.3422464558703
 21
-390.2296247752127
 31
0.0
  0
ARC
  5
54EB
330
1E
100
AcDbEntity
  8
躯体と製品
  6
Continuous
 62
     4
100
AcDbCircle
 10
649.7422464558701
 20
-390.2296247752127
 30
0.0
 40
0.6000000000000001
100
AcDbArc
 50
180.0
 51
0.0
  0
LINE
  5
54EC
330
1E
100
AcDbEntity
  8
躯体と製品
  6
Continuous
 62
     4
100
AcDbLine
 10
649.1422464558703
 20
-387.6296237752126
 30
0.0
 11
649.1422464558703
 21
-390.2296247752127
 31
0.0
  0
ARC
  5
54ED
330
1E
100
AcDbEntity
  8
躯体と製品
  6
Continuous
 62
     4
100
AcDbCircle
 10
648.6422454558701
 20
-387.6296237752126
 30
0.0
 40
0.5000010000000001
100
AcDbArc
 50
0.0
 51
90.0
  0
LINE
  5
54EE
330
1E
100
AcDbEntity
  8
躯体と製品
  6
Continuous
 62
     4
100
AcDbLine
 10
650.3422464558703
 20
-388.6296257752127
 30
0.0
 11
650.3422464558703
 21
-389.2296257752125
 31
0.0
  0
ARC
  5
54EF
330
1E
100
AcDbEntity
  8
躯体と製品
  6
Continuous
 62
     4
100
AcDbCircle
 10
651.8422464558702
 20
-388.6296257752127
 30
0.0
 40
1.5
100
AcDbArc
 50
90.0
 51
180.0
  0
ARC
  5
54F0
330
1E
100
AcDbEntity
  8
躯体と製品
  6
Continuous
 62
     4
100
AcDbCircle
 10
679.9422444558703
 20
-402.0245267752127
 30
0.0
 40
0.3
100
AcDbArc
 50
180.0
 51
245.9973019999988
  0
ARC
  5
54F1
330
1E
100
AcDbEntity
  8
躯体と製品
  6
Continuous
 62
     4
100
AcDbCircle
 10
679.9422444558703
 20
-401.0039417752127
 30
0.0
 40
0.3
100
AcDbArc
 50
59.99999999999946
 51
180.0
  0
LINE
  5
54F2
330
1E
100
AcDbEntity
  8
躯体と製品
  6
Continuous
 62
     4
100
AcDbLine
 10
679.6422444558702
 20
-401.0039417752127
 30
0.0
 11
679.6422444558702
 21
-402.0245267752127
 31
0.0
  0
ARC
  5
54F3
330
1E
100
AcDbEntity
  8
躯体と製品
  6
Continuous
 62
     4
100
AcDbCircle
 10
668.4422454558702
 20
-388.6296257752127
 30
0.0
 40
1.5
100
AcDbArc
 50
0.0
 51
90.0
  0
LINE
  5
54F4
330
1E
100
AcDbEntity
  8
躯体と製品
  6
Continuous
 62
     4
100
AcDbLine
 10
669.9422454558702
 20
-390.2296247752127
 30
0.0
 11
669.9422454558702
 21
-389.2296257752125
 31
0.0
  0
ARC
  5
54F5
330
1E
100
AcDbEntity
  8
躯体と製品
  6
Continuous
 62
     4
100
AcDbCircle
 10
670.5422454558703
 20
-390.2296247752127
 30
0.0
 40
0.6000000000000001
100
AcDbArc
 50
180.0
 51
0.0
  0
ARC
  5
54F6
330
1E
100
AcDbEntity
  8
躯体と製品
  6
Continuous
 62
     4
100
AcDbCircle
 10
679.9422444558703
 20
-396.6347207752127
 30
0.0
 40
0.3
100
AcDbArc
 50
114.0026980000012
 51
180.0
  0
ARC
  5
54F7
330
1E
100
AcDbEntity
  8
躯体と製品
  6
Continuous
 62
     4
100
AcDbCircle
 10
671.6422464558704
 20
-387.6296237752126
 30
0.0
 40
0.5000010000000001
100
AcDbArc
 50
90.0
 51
180.0
  0
LINE
  5
54F8
330
1E
100
AcDbEntity
  8
躯体と製品
  6
Continuous
 62
     4
100
AcDbLine
 10
671.1422454558701
 20
-387.6296237752126
 30
0.0
 11
671.1422454558701
 21
-390.2296247752127
 31
0.0
  0
LINE
  5
54F9
330
1E
100
AcDbEntity
  8
躯体と製品
  6
Continuous
 62
     4
100
AcDbLine
 10
669.9422454558702
 20
-388.6296257752127
 30
0.0
 11
669.9422454558702
 21
-389.2296257752125
 31
0.0
  0
LINE
  5
54FA
330
1E
100
AcDbEntity
  8
躯体と製品
  6
Continuous
 62
     4
100
AcDbLine
 10
679.6422444558702
 20
-397.6553087752127
 30
0.0
 11
679.6422444558702
 21
-396.6347207752127
 31
0.0
  0
ARC
  5
54FB
330
1E
100
AcDbEntity
  8
躯体と製品
  6
Continuous
 62
     4
100
AcDbCircle
 10
679.9422444558703
 20
-397.6553087752127
 30
0.0
 40
0.3
100
AcDbArc
 50
180.0
 51
300.0000000000005
  0
LINE
  5
5500
330
1E
100
AcDbEntity
  8
躯体と製品
  6
Continuous
 62
     4
100
AcDbLine
 10
683.6422464558703
 20
-418.1574797752124
 30
0.0
 11
683.6422464558703
 21
-402.5017697752128
 31
0.0
  0
LINE
  5
5501
330
1E
100
AcDbEntity
  8
躯体と製品
  6
Continuous
 62
     4
100
AcDbLine
 10
685.1422464558703
 20
-433.3296257752127
 30
0.0
 11
685.1422464558703
 21
-387.3296237752126
 31
0.0
  0
LINE
  5
5502
330
1E
100
AcDbEntity
  8
躯体と製品
  6
PLINE3
 62
     3
100
AcDbLine
 10
705.1422444558702
 20
-420.3296237752125
 30
0.0
 11
705.1422444558702
 21
-400.3296257752126
 31
0.0
  0
LINE
  5
5503
330
1E
100
AcDbEntity
  8
躯体と製品
  6
PLINE2
 62
     4
100
AcDbLine
 10
715.1422464558703
 20
-425.3296247752124
 30
0.0
 11
715.1422464558703
 21
-395.3296247752124
 31
0.0
  0
LINE
  5
5504
330
1E
100
AcDbEntity
  8
躯体と製品
  6
PLINE2
 62
     4
100
AcDbLine
 10
685.1422464558703
 20
-425.3296247752124
 30
0.0
 11
715.1422464558703
 21
-425.3296247752124
 31
0.0
  0
LINE
  5
5505
330
1E
100
AcDbEntity
  8
躯体と製品
  6
Continuous
 62
     4
100
AcDbLine
 10
683.6422464558703
 20
-432.5296247752127
 30
0.0
 11
683.6422464558703
 21
-425.3061167752124
 31
0.0
  0
ARC
  5
5506
330
1E
100
AcDbEntity
  8
躯体と製品
  6
Continuous
 62
     4
100
AcDbCircle
 10
682.6422444558702
 20
-432.5296247752127
 30
0.0
 40
0.999999
100
AcDbArc
 50
270.0
 51
0.0
  0
ARC
  5
5507
330
1E
100
AcDbEntity
  8
躯体と製品
  6
Continuous
 62
     4
100
AcDbCircle
 10
683.1422454558701
 20
-433.3296257752127
 30
0.0
 40
2.000001
100
AcDbArc
 50
270.0
 51
0.0
  0
LINE
  5
5508
330
1E
100
AcDbEntity
  8
躯体と製品
  6
Continuous
 62
     4
100
AcDbLine
 10
683.6422464558703
 20
-425.3061167752124
 30
0.0
 11
683.6422464558703
 21
-424.5017687752125
 31
0.0
  0
ARC
  5
5509
330
1E
100
AcDbEntity
  8
躯体と製品
  6
Continuous
 62
     4
100
AcDbCircle
 10
683.1422454558701
 20
-418.1574797752124
 30
0.0
 40
0.5000010000000001
100
AcDbArc
 50
237.7690470000026
 51
0.0
  0
ARC
  5
550A
330
1E
100
AcDbEntity
  8
躯体と製品
  6
Continuous
 62
     4
100
AcDbCircle
 10
683.1422454558701
 20
-424.5017687752125
 30
0.0
 40
0.5000010000000001
100
AcDbArc
 50
0.0
 51
122.2309529999974
  0
LINE
  5
550B
330
1E
100
AcDbEntity
  8
躯体と製品
  6
Continuous
 62
     4
100
AcDbLine
 10
681.1422444558702
 20
-419.3088977752125
 30
0.0
 11
682.8922464558703
 21
-420.3192617752124
 31
0.0
  0
LINE
  5
550C
330
1E
100
AcDbEntity
  8
躯体と製品
  6
Continuous
 62
     4
100
AcDbLine
 10
682.8922464558703
 20
-422.3399867752125
 30
0.0
 11
681.1422444558702
 21
-423.3503507752127
 31
0.0
  0
LINE
  5
550D
330
1E
100
AcDbEntity
  8
躯体と製品
  6
Continuous
 62
     4
100
AcDbLine
 10
682.8922464558703
 20
-420.3192617752124
 30
0.0
 11
682.8922464558703
 21
-422.3399867752125
 31
0.0
  0
CIRCLE
  5
550E
330
1E
100
AcDbEntity
  8
躯体と製品
  6
Continuous
 62
     3
100
AcDbCircle
 10
705.1422444558702
 20
-410.3296247752124
 30
0.0
 40
3.499824
  0
LINE
  5
550F
330
1E
100
AcDbEntity
  8
躯体と製品
  6
PLINE2
 62
     4
100
AcDbLine
 10
715.1422464558703
 20
-395.3296247752124
 30
0.0
 11
685.1422464558703
 21
-395.3296247752124
 31
0.0
  0
LINE
  5
5510
330
1E
100
AcDbEntity
  8
躯体と製品
  6
Continuous
 62
     4
100
AcDbLine
 10
682.8922464558703
 20
-398.3192627752127
 30
0.0
 11
682.8922464558703
 21
-400.3399877752124
 31
0.0
  0
ARC
  5
5511
330
1E
100
AcDbEntity
  8
躯体と製品
  6
Continuous
 62
     4
100
AcDbCircle
 10
683.1422454558701
 20
-402.5017697752128
 30
0.0
 40
0.5000010000000001
100
AcDbArc
 50
0.0
 51
122.2309529999974
  0
LINE
  5
5512
330
1E
100
AcDbEntity
  8
躯体と製品
  6
Continuous
 62
     4
100
AcDbLine
 10
682.8922464558703
 20
-400.3399877752124
 30
0.0
 11
681.1422444558702
 21
-401.3503517752126
 31
0.0
  0
ARC
  5
5513
330
1E
100
AcDbEntity
  8
躯体と製品
  6
Continuous
 62
     4
100
AcDbCircle
 10
683.1422454558701
 20
-396.1574807752127
 30
0.0
 40
0.5000010000000001
100
AcDbArc
 50
237.7690470000026
 51
0.0
  0
ARC
  5
5514
330
1E
100
AcDbEntity
  8
躯体と製品
  6
Continuous
 62
     4
100
AcDbCircle
 10
683.1422454558701
 20
-387.3296237752126
 30
0.0
 40
2.000001
100
AcDbArc
 50
0.0
 51
90.0
  0
LINE
  5
5515
330
1E
100
AcDbEntity
  8
躯体と製品
  6
Continuous
 62
     4
100
AcDbLine
 10
683.6422464558703
 20
-388.1296247752125
 30
0.0
 11
683.6422464558703
 21
-396.1574807752127
 31
0.0
  0
ARC
  5
5516
330
1E
100
AcDbEntity
  8
躯体と製品
  6
Continuous
 62
     4
100
AcDbCircle
 10
682.6422444558702
 20
-388.1296247752125
 30
0.0
 40
0.999999
100
AcDbArc
 50
0.0
 51
90.0
  0
LINE
  5
5517
330
1E
100
AcDbEntity
  8
躯体と製品
  6
Continuous
 62
     4
100
AcDbLine
 10
681.1422444558702
 20
-397.3088987752125
 30
0.0
 11
682.8922464558703
 21
-398.3192627752127
 31
0.0
  0
LINE
  5
5518
330
1E
100
AcDbEntity
  8
躯体と製品
  6
Continuous
 62
     3
100
AcDbLine
 10
704.6422704558702
 20
-412.3795217752125
 30
0.0
 11
705.6422214558701
 21
-412.3795217752125
 31
0.0
  0
LINE
  5
5519
330
1E
100
AcDbEntity
  8
躯体と製品
  6
Continuous
 62
     3
100
AcDbLine
 10
707.1921444558703
 20
-410.8295987752127
 30
0.0
 11
707.1921444558703
 21
-409.8296507752125
 31
0.0
  0
LINE
  5
551A
330
1E
100
AcDbEntity
  8
躯体と製品
  6
Continuous
 62
     3
100
AcDbLine
 10
705.6422214558701
 20
-408.2797277752126
 30
0.0
 11
704.6422704558702
 21
-408.2797277752126
 31
0.0
  0
LINE
  5
551B
330
1E
100
AcDbEntity
  8
躯体と製品
  6
Continuous
 62
     3
100
AcDbLine
 10
703.0923474558701
 20
-409.8296507752125
 30
0.0
 11
703.0923474558701
 21
-410.8295987752127
 31
0.0
  0
LINE
  5
551C
330
1E
100
AcDbEntity
  8
躯体と製品
  6
Continuous
 62
     3
100
AcDbLine
 10
705.8669934558702
 20
-409.6048757752124
 30
0.0
 11
706.3383714558703
 21
-409.8147467752125
 31
0.0
  0
LINE
  5
551D
330
1E
100
AcDbEntity
  8
躯体と製品
  6
Continuous
 62
     3
100
AcDbLine
 10
707.1921444558703
 20
-409.8296507752125
 30
0.0
 11
706.3383714558703
 21
-409.8147467752125
 31
0.0
  0
LINE
  5
551E
330
1E
100
AcDbEntity
  8
躯体と製品
  6
Continuous
 62
     3
100
AcDbLine
 10
705.8669934558702
 20
-409.6048757752124
 30
0.0
 11
705.6571224558704
 21
-409.1335007752125
 31
0.0
  0
LINE
  5
551F
330
1E
100
AcDbEntity
  8
躯体と製品
  6
Continuous
 62
     3
100
AcDbLine
 10
707.1921444558703
 20
-410.8295987752127
 30
0.0
 11
706.3383714558703
 21
-410.8445027752126
 31
0.0
  0
LINE
  5
5520
330
1E
100
AcDbEntity
  8
躯体と製品
  6
Continuous
 62
     3
100
AcDbLine
 10
706.3383714558703
 20
-410.8445027752126
 30
0.0
 11
705.8669934558702
 21
-411.0543737752127
 31
0.0
  0
LINE
  5
5521
330
1E
100
AcDbEntity
  8
躯体と製品
  6
Continuous
 62
     3
100
AcDbLine
 10
705.8669934558702
 20
-411.0543737752127
 30
0.0
 11
705.6571224558704
 21
-411.5257487752126
 31
0.0
  0
LINE
  5
5522
330
1E
100
AcDbEntity
  8
躯体と製品
  6
Continuous
 62
     3
100
AcDbLine
 10
705.6571224558704
 20
-411.5257487752126
 30
0.0
 11
705.6422214558701
 21
-412.3795217752125
 31
0.0
  0
LINE
  5
5523
330
1E
100
AcDbEntity
  8
躯体と製品
  6
Continuous
 62
     3
100
AcDbLine
 10
704.6422704558702
 20
-412.3795217752125
 30
0.0
 11
704.62736645587
 21
-411.5257487752126
 31
0.0
  0
LINE
  5
5524
330
1E
100
AcDbEntity
  8
躯体と製品
  6
Continuous
 62
     3
100
AcDbLine
 10
704.62736645587
 20
-411.5257487752126
 30
0.0
 11
704.4174984558702
 21
-411.0543737752127
 31
0.0
  0
LINE
  5
5525
330
1E
100
AcDbEntity
  8
躯体と製品
  6
Continuous
 62
     3
100
AcDbLine
 10
704.4174984558702
 20
-411.0543737752127
 30
0.0
 11
703.9461204558704
 21
-410.8445027752126
 31
0.0
  0
LINE
  5
5526
330
1E
100
AcDbEntity
  8
躯体と製品
  6
Continuous
 62
     3
100
AcDbLine
 10
703.9461204558704
 20
-410.8445027752126
 30
0.0
 11
703.0923474558701
 21
-410.8295987752127
 31
0.0
  0
LINE
  5
5527
330
1E
100
AcDbEntity
  8
躯体と製品
  6
Continuous
 62
     3
100
AcDbLine
 10
703.0923474558701
 20
-409.8296507752125
 30
0.0
 11
703.9461204558704
 21
-409.8147467752125
 31
0.0
  0
LINE
  5
5528
330
1E
100
AcDbEntity
  8
躯体と製品
  6
Continuous
 62
     3
100
AcDbLine
 10
703.9461204558704
 20
-409.8147467752125
 30
0.0
 11
704.4174984558702
 21
-409.6048757752124
 31
0.0
  0
LINE
  5
5529
330
1E
100
AcDbEntity
  8
躯体と製品
  6
Continuous
 62
     3
100
AcDbLine
 10
704.4174984558702
 20
-409.6048757752124
 30
0.0
 11
704.62736645587
 21
-409.1335007752125
 31
0.0
  0
LINE
  5
552A
330
1E
100
AcDbEntity
  8
躯体と製品
  6
Continuous
 62
     3
100
AcDbLine
 10
704.62736645587
 20
-409.1335007752125
 30
0.0
 11
704.6422704558702
 21
-408.2797277752126
 31
0.0
  0
LINE
  5
552B
330
1E
100
AcDbEntity
  8
躯体と製品
  6
Continuous
 62
     3
100
AcDbLine
 10
705.6571224558704
 20
-409.1335007752125
 30
0.0
 11
705.6422214558701
 21
-408.2797277752126
 31
0.0
  0
TEXT
  5
5534
330
1E
100
AcDbEntity
  8
文字-記号
  6
Continuous
 62
     4
100
AcDbText
 10
403.0315674558701
 20
186.1285062247875
 30
0.0
 40
15.0
  1
格子タイプ
 41
0.8
  7
ACAD
100
AcDbText
  0
LINE
  5
5537
330
1E
100
AcDbEntity
  8
躯体と製品
  6
PLINE3
 62
     3
100
AcDbLine
 10
475.1422464558703
 20
14.17037522478756
 30
0.0
 11
403.0536354558703
 21
14.17037522478756
 31
0.0
  0
TEXT
  5
5541
330
1E
100
AcDbEntity
  8
文字-記号
  6
Continuous
 62
     4
100
AcDbText
 10
301.5936564558701
 20
186.7918962247873
 30
0.0
 40
15.0
  1
床支持一段笠木
 41
0.8
  7
ACAD
100
AcDbText
  0
LINE
  5
5544
330
1E
100
AcDbEntity
  8
躯体と製品
  6
Continuous
 62
     4
100
AcDbLine
 10
430.1422464558704
 20
11.67037622478744
 30
0.0
 11
430.1422464558704
 21
-185.3296247752124
 31
0.0
  0
LINE
  5
5545
330
1E
100
AcDbEntity
  8
躯体と製品
  6
Continuous
 62
     4
100
AcDbLine
 10
450.1422444558702
 20
11.67037622478744
 30
0.0
 11
450.1422444558702
 21
-185.3296247752124
 31
0.0
  0
LINE
  5
5546
330
1E
100
AcDbEntity
  8
躯体と製品
  6
Continuous
 62
     4
100
AcDbLine
 10
465.1422444558702
 20
-185.3296247752124
 30
0.0
 11
465.1422444558702
 21
10.67037422478734
 31
0.0
  0
LINE
  5
5547
330
1E
100
AcDbEntity
  8
躯体と製品
  6
Continuous
 62
     4
100
AcDbLine
 10
415.1422464558703
 20
-185.3296247752124
 30
0.0
 11
415.1422464558703
 21
10.67037422478734
 31
0.0
  0
ARC
  5
554E
330
1E
100
AcDbEntity
  8
躯体と製品
  6
Continuous
 62
     3
100
AcDbCircle
 10
451.1422464558703
 20
4.926850224787472
 30
0.0
 40
11.000001
100
AcDbArc
 50
78.70902599999768
 51
101.2909740000023
  0
LINE
  5
554F
330
1E
100
AcDbEntity
  8
躯体と製品
  6
Continuous
 62
     3
100
AcDbLine
 10
454.4922444558704
 20
13.47037622478751
 30
0.0
 11
443.2922454558703
 21
13.47037622478751
 31
0.0
  0
LINE
  5
5550
330
1E
100
AcDbEntity
  8
躯体と製品
  6
Continuous
 62
     4
100
AcDbLine
 10
454.1422464558703
 20
13.47037622478751
 30
0.0
 11
451.6422444558702
 21
13.47037622478751
 31
0.0
  0
LINE
  5
5551
330
1E
100
AcDbEntity
  8
躯体と製品
  6
Continuous
 62
     4
100
AcDbLine
 10
450.3922464558703
 20
10.67037422478734
 30
0.0
 11
457.6422444558702
 21
10.67037422478734
 31
0.0
  0
ARC
  5
5552
330
1E
100
AcDbEntity
  8
躯体と製品
  6
Continuous
 62
     4
100
AcDbCircle
 10
440.1413304558704
 20
-20.32962477521244
 30
0.0
 40
68.69999999999999
100
AcDbArc
 50
66.4022180000024
 51
113.5960669999982
  0
ARC
  5
5553
330
1E
100
AcDbEntity
  8
躯体と製品
  6
Continuous
 62
     4
100
AcDbCircle
 10
440.1413304558704
 20
-20.32962477521244
 30
0.0
 40
69.999999
100
AcDbArc
 50
65.68341500000156
 51
114.3148929999993
  0
LINE
  5
5554
330
1E
100
AcDbEntity
  8
躯体と製品
  6
Continuous
 62
     4
100
AcDbLine
 10
450.1422444558702
 20
10.67037422478734
 30
0.0
 11
465.1422444558702
 21
10.67037422478734
 31
0.0
  0
LINE
  5
5555
330
1E
100
AcDbEntity
  8
躯体と製品
  6
Continuous
 62
     4
100
AcDbLine
 10
411.4422444558702
 20
40.79360222478749
 30
0.0
 11
411.4422444558702
 21
27.97037522478741
 31
0.0
  0
LINE
  5
5556
330
1E
100
AcDbEntity
  8
躯体と製品
  6
Continuous
 62
     4
100
AcDbLine
 10
410.1422454558701
 20
5.170375224787562
 30
0.0
 11
410.1422454558701
 21
41.63852222478737
 31
0.0
  0
ARC
  5
5557
330
1E
100
AcDbEntity
  8
躯体と製品
  6
Continuous
 62
     3
100
AcDbCircle
 10
429.1422444558702
 20
4.926850224787472
 30
0.0
 40
11.000001
100
AcDbArc
 50
78.70902599999768
 51
101.2909740000023
  0
LINE
  5
5558
330
1E
100
AcDbEntity
  8
躯体と製品
  6
Continuous
 62
     3
100
AcDbLine
 10
436.9922454558702
 20
13.47037622478751
 30
0.0
 11
425.7922464558702
 21
13.47037622478751
 31
0.0
  0
LINE
  5
5559
330
1E
100
AcDbEntity
  8
躯体と製品
  6
Continuous
 62
     4
100
AcDbLine
 10
428.6422464558703
 20
13.47037622478751
 30
0.0
 11
429.1422444558702
 21
12.9703752247874
 31
0.0
  0
LINE
  5
555A
330
1E
100
AcDbEntity
  8
躯体と製品
  6
Continuous
 62
     4
100
AcDbLine
 10
429.8922444558702
 20
10.67037422478734
 30
0.0
 11
422.6422464558703
 21
10.67037422478734
 31
0.0
  0
LINE
  5
555B
330
1E
100
AcDbEntity
  8
躯体と製品
  6
Continuous
 62
     4
100
AcDbLine
 10
415.1422464558703
 20
10.67037422478734
 30
0.0
 11
430.1422464558704
 21
10.67037422478734
 31
0.0
  0
LINE
  5
555C
330
1E
100
AcDbEntity
  8
躯体と製品
  6
Continuous
 62
     4
100
AcDbLine
 10
426.1422444558702
 20
12.17037422478734
 30
0.0
 11
426.1422444558702
 21
13.47037622478751
 31
0.0
  0
LINE
  5
555D
330
1E
100
AcDbEntity
  8
躯体と製品
  6
Continuous
 62
     4
100
AcDbLine
 10
414.6422454558701
 20
12.17037422478734
 30
0.0
 11
414.6422454558701
 21
16.17037622478745
 31
0.0
  0
LINE
  5
555E
330
1E
100
AcDbEntity
  8
躯体と製品
  6
Continuous
 62
     4
100
AcDbLine
 10
413.3422464558702
 20
5.320375224787426
 30
0.0
 11
413.3422464558702
 21
17.67037622478745
 31
0.0
  0
LINE
  5
555F
330
1E
100
AcDbEntity
  8
躯体と製品
  6
Continuous
 62
     4
100
AcDbLine
 10
424.6422444558702
 20
13.47037622478751
 30
0.0
 11
424.6422444558702
 21
12.17037422478734
 31
0.0
  0
LINE
  5
5560
330
1E
100
AcDbEntity
  8
躯体と製品
  6
Continuous
 62
     4
100
AcDbLine
 10
419.6422464558703
 20
12.17037422478734
 30
0.0
 11
419.6422464558703
 21
13.47037622478751
 31
0.0
  0
LINE
  5
5561
330
1E
100
AcDbEntity
  8
躯体と製品
  6
Continuous
 62
     4
100
AcDbLine
 10
411.4422444558702
 20
14.67037622478744
 30
0.0
 11
411.4422444558702
 21
5.970376224787514
 31
0.0
  0
LINE
  5
5562
330
1E
100
AcDbEntity
  8
躯体と製品
  6
Continuous
 62
     4
100
AcDbLine
 10
414.6422454558701
 20
12.17037422478734
 30
0.0
 11
419.6422464558703
 21
12.17037422478734
 31
0.0
  0
LINE
  5
5563
330
1E
100
AcDbEntity
  8
躯体と製品
  6
Continuous
 62
     4
100
AcDbLine
 10
421.6422444558702
 20
10.67037422478734
 30
0.0
 11
414.6422454558701
 21
10.67037422478734
 31
0.0
  0
ARC
  5
5564
330
1E
100
AcDbEntity
  8
躯体と製品
  6
Continuous
 62
     4
100
AcDbCircle
 10
413.9922444558703
 20
5.320375224787426
 30
0.0
 40
0.6500010000000001
100
AcDbArc
 50
180.0
 51
0.0
  0
LINE
  5
5565
330
1E
100
AcDbEntity
  8
躯体と製品
  6
Continuous
 62
     4
100
AcDbLine
 10
414.6422454558701
 20
10.67037422478734
 30
0.0
 11
414.6422454558701
 21
5.320375224787426
 31
0.0
  0
LINE
  5
5566
330
1E
100
AcDbEntity
  8
躯体と製品
  6
Continuous
 62
     4
100
AcDbLine
 10
412.6422444558702
 20
5.970376224787514
 30
0.0
 11
411.4422444558702
 21
5.970376224787514
 31
0.0
  0
LINE
  5
5567
330
1E
100
AcDbEntity
  8
躯体と製品
  6
Continuous
 62
     4
100
AcDbLine
 10
412.6422444558702
 20
4.670374224787337
 30
0.0
 11
412.6422444558702
 21
5.970376224787514
 31
0.0
  0
LINE
  5
5568
330
1E
100
AcDbEntity
  8
躯体と製品
  6
Continuous
 62
     4
100
AcDbLine
 10
410.6422464558703
 20
4.670374224787337
 30
0.0
 11
412.6422444558702
 21
4.670374224787337
 31
0.0
  0
ARC
  5
5569
330
1E
100
AcDbEntity
  8
躯体と製品
  6
Continuous
 62
     4
100
AcDbCircle
 10
410.6422464558703
 20
5.170375224787562
 30
0.0
 40
0.5000010000000001
100
AcDbArc
 50
180.0
 51
270.0
  0
LINE
  5
556A
330
1E
100
AcDbEntity
  8
躯体と製品
  6
Continuous
 62
     4
100
AcDbLine
 10
424.6422444558702
 20
12.17037422478734
 30
0.0
 11
426.1422444558702
 21
12.17037422478734
 31
0.0
  0
LINE
  5
556B
330
1E
100
AcDbEntity
  8
躯体と製品
  6
Continuous
 62
     4
100
AcDbLine
 10
422.1422454558701
 20
11.17037522478756
 30
0.0
 11
421.6422444558702
 21
10.67037422478734
 31
0.0
  0
LINE
  5
556C
330
1E
100
AcDbEntity
  8
躯体と製品
  6
Continuous
 62
     4
100
AcDbLine
 10
422.6422464558703
 20
10.67037422478734
 30
0.0
 11
422.1422454558701
 21
11.17037522478756
 31
0.0
  0
LINE
  5
556D
330
1E
100
AcDbEntity
  8
躯体と製品
  6
Continuous
 62
     4
100
AcDbLine
 10
412.4422464558704
 20
25.17037622478745
 30
0.0
 11
417.7922454558703
 21
25.17037622478745
 31
0.0
  0
LINE
  5
556E
330
1E
100
AcDbEntity
  8
躯体と製品
  6
Continuous
 62
     4
100
AcDbLine
 10
412.9422444558703
 20
26.4703752247874
 30
0.0
 11
417.7922454558703
 21
26.4703752247874
 31
0.0
  0
LINE
  5
556F
330
1E
100
AcDbEntity
  8
躯体と製品
  6
Continuous
 62
     4
100
AcDbLine
 10
412.3048524558701
 20
17.67037622478745
 30
0.0
 11
413.3422464558702
 21
17.67037622478745
 31
0.0
  0
ARC
  5
5570
330
1E
100
AcDbEntity
  8
躯体と製品
  6
Continuous
 62
     4
100
AcDbCircle
 10
412.3048524558701
 20
18.17037422478733
 30
0.0
 40
0.5000010000000001
100
AcDbArc
 50
156.5014340000012
 51
270.0
  0
LINE
  5
5571
330
1E
100
AcDbEntity
  8
躯体と製品
  6
Continuous
 62
     4
100
AcDbLine
 10
414.5422464558702
 20
24.57037622478731
 30
0.0
 11
411.8463174558702
 21
18.36973922478739
 31
0.0
  0
LINE
  5
5572
330
1E
100
AcDbEntity
  8
躯体と製品
  6
Continuous
 62
     4
100
AcDbLine
 10
414.6422454558701
 20
17.4703752247874
 30
0.0
 11
415.9922454558702
 21
17.4703752247874
 31
0.0
  0
LINE
  5
5573
330
1E
100
AcDbEntity
  8
躯体と製品
  6
Continuous
 62
     4
100
AcDbLine
 10
414.6422454558701
 20
18.9703752247874
 30
0.0
 11
414.6422454558701
 21
17.4703752247874
 31
0.0
  0
LINE
  5
5574
330
1E
100
AcDbEntity
  8
躯体と製品
  6
Continuous
 62
     4
100
AcDbLine
 10
414.2876274558701
 20
18.9703752247874
 30
0.0
 11
414.6422454558701
 21
18.9703752247874
 31
0.0
  0
ARC
  5
5575
330
1E
100
AcDbEntity
  8
躯体と製品
  6
Continuous
 62
     4
100
AcDbCircle
 10
414.2876274558701
 20
19.47037622478751
 30
0.0
 40
0.5000010000000001
100
AcDbArc
 50
156.5014340000012
 51
270.0
  0
LINE
  5
5576
330
1E
100
AcDbEntity
  8
躯体と製品
  6
Continuous
 62
     4
100
AcDbLine
 10
415.9598034558703
 20
24.57037622478731
 30
0.0
 11
413.8290924558702
 21
19.66973822478735
 31
0.0
  0
ARC
  5
5577
330
1E
100
AcDbEntity
  8
躯体と製品
  6
Continuous
 62
     4
100
AcDbCircle
 10
415.9922454558702
 20
16.82037422478743
 30
0.0
 40
0.6500010000000001
100
AcDbArc
 50
270.0
 51
90.0
  0
LINE
  5
5578
330
1E
100
AcDbEntity
  8
躯体と製品
  6
Continuous
 62
     4
100
AcDbLine
 10
414.6422454558701
 20
16.17037622478745
 30
0.0
 11
415.9922454558702
 21
16.17037622478745
 31
0.0
  0
LINE
  5
5579
330
1E
100
AcDbEntity
  8
躯体と製品
  6
Continuous
 62
     4
100
AcDbLine
 10
414.5422464558702
 20
24.57037622478731
 30
0.0
 11
414.5422464558702
 21
25.07037422478743
 31
0.0
  0
LINE
  5
557A
330
1E
100
AcDbEntity
  8
躯体と製品
  6
Continuous
 62
     4
100
AcDbLine
 10
414.5422464558702
 20
25.07037422478743
 30
0.0
 11
415.9598034558703
 21
25.07037422478743
 31
0.0
  0
LINE
  5
557B
330
1E
100
AcDbEntity
  8
躯体と製品
  6
Continuous
 62
     4
100
AcDbLine
 10
415.9598034558703
 20
25.07037422478743
 30
0.0
 11
415.9598034558703
 21
24.57037622478731
 31
0.0
  0
LINE
  5
557C
330
1E
100
AcDbEntity
  8
躯体と製品
  6
Continuous
 62
     4
100
AcDbLine
 10
411.4422444558702
 20
23.87037422478738
 30
0.0
 11
411.4422444558702
 21
17.67037622478745
 31
0.0
  0
LINE
  5
557D
330
1E
100
AcDbEntity
  8
躯体と製品
  6
Continuous
 62
     4
100
AcDbLine
 10
412.6422444558702
 20
17.67037622478745
 30
0.0
 11
411.4422444558702
 21
14.67037622478744
 31
0.0
  0
LINE
  5
557E
330
1E
100
AcDbEntity
  8
躯体と製品
  6
Continuous
 62
     4
100
AcDbLine
 10
411.4422444558702
 20
17.67037622478745
 30
0.0
 11
412.6422444558702
 21
17.67037622478745
 31
0.0
  0
LINE
  5
557F
330
1E
100
AcDbEntity
  8
躯体と製品
  6
Continuous
 62
     7
100
AcDbLine
 10
411.4422444558702
 20
24.17037422478734
 30
0.0
 11
411.4422444558702
 21
23.87037422478738
 31
0.0
  0
ARC
  5
5580
330
1E
100
AcDbEntity
  8
躯体と製品
  6
Continuous
 62
     4
100
AcDbCircle
 10
412.4422464558704
 20
24.17037422478734
 30
0.0
 40
0.999999
100
AcDbArc
 50
90.0
 51
180.0
  0
ARC
  5
5581
330
1E
100
AcDbEntity
  8
躯体と製品
  6
Continuous
 62
     4
100
AcDbCircle
 10
412.9422444558703
 20
27.97037522478741
 30
0.0
 40
1.5
100
AcDbArc
 50
180.0
 51
270.0
  0
ARC
  5
5582
330
1E
100
AcDbEntity
  8
躯体と製品
  6
Continuous
 62
     3
100
AcDbCircle
 10
427.36728245587
 20
14.26255322478744
 30
0.0
 40
1.5
100
AcDbArc
 50
104.6252930000011
 51
175.0
  0
LINE
  5
5583
330
1E
100
AcDbEntity
  8
躯体と製品
  6
Continuous
 62
     3
100
AcDbLine
 10
425.8729884558703
 20
14.39328722478751
 30
0.0
 11
425.7922464558702
 21
13.47037622478751
 31
0.0
  0
LINE
  5
5584
330
1E
100
AcDbEntity
  8
躯体と製品
  6
Continuous
 62
     4
100
AcDbLine
 10
426.1422444558702
 20
13.47037622478751
 30
0.0
 11
428.6422464558703
 21
13.47037622478751
 31
0.0
  0
LINE
  5
5585
330
1E
100
AcDbEntity
  8
躯体と製品
  6
Continuous
 62
     4
100
AcDbLine
 10
422.6422464558703
 20
13.47037622478751
 30
0.0
 11
424.6422444558702
 21
13.47037622478751
 31
0.0
  0
LINE
  5
5586
330
1E
100
AcDbEntity
  8
躯体と製品
  6
Continuous
 62
     4
100
AcDbLine
 10
422.1422454558701
 20
12.9703752247874
 30
0.0
 11
422.6422464558703
 21
13.47037622478751
 31
0.0
  0
LINE
  5
5587
330
1E
100
AcDbEntity
  8
躯体と製品
  6
Continuous
 62
     4
100
AcDbLine
 10
421.6422444558702
 20
13.47037622478751
 30
0.0
 11
422.1422454558701
 21
12.9703752247874
 31
0.0
  0
LINE
  5
5588
330
1E
100
AcDbEntity
  8
躯体と製品
  6
Continuous
 62
     4
100
AcDbLine
 10
419.6422464558703
 20
13.47037622478751
 30
0.0
 11
421.6422444558702
 21
13.47037622478751
 31
0.0
  0
ARC
  5
5589
330
1E
100
AcDbEntity
  8
躯体と製品
  6
Continuous
 62
     4
100
AcDbCircle
 10
417.7922454558703
 20
25.82037422478743
 30
0.0
 40
0.6500010000000001
100
AcDbArc
 50
270.0
 51
90.0
  0
LINE
  5
558A
330
1E
100
AcDbEntity
  8
躯体と製品
  6
Continuous
 62
     4
100
AcDbLine
 10
429.8922444558702
 20
11.67037622478744
 30
0.0
 11
450.3922464558703
 21
11.67037622478744
 31
0.0
  0
LINE
  5
558B
330
1E
100
AcDbEntity
  8
躯体と製品
  6
Continuous
 62
     4
100
AcDbLine
 10
429.8922444558702
 20
10.67037422478734
 30
0.0
 11
429.8922444558702
 21
11.67037622478744
 31
0.0
  0
LINE
  5
558C
330
1E
100
AcDbEntity
  8
躯体と製品
  6
Continuous
 62
     4
100
AcDbLine
 10
450.3922464558703
 20
10.67037422478734
 30
0.0
 11
450.3922464558703
 21
11.67037622478744
 31
0.0
  0
LINE
  5
558D
330
1E
100
AcDbEntity
  8
躯体と製品
  6
Continuous
 62
     4
100
AcDbLine
 10
440.6422464558703
 20
13.47037622478751
 30
0.0
 11
440.1422454558701
 21
12.9703752247874
 31
0.0
  0
LINE
  5
558E
330
1E
100
AcDbEntity
  8
躯体と製品
  6
Continuous
 62
     4
100
AcDbLine
 10
440.6422464558703
 20
13.47037622478751
 30
0.0
 11
440.1422454558701
 21
12.9703752247874
 31
0.0
  0
ARC
  5
558F
330
1E
100
AcDbEntity
  8
躯体と製品
  6
Continuous
 62
     3
100
AcDbCircle
 10
430.91720945587
 20
14.26255322478744
 30
0.0
 40
1.5
100
AcDbArc
 50
5.000000000000026
 51
75.37470699999882
  0
LINE
  5
5590
330
1E
100
AcDbEntity
  8
躯体と製品
  6
Continuous
 62
     3
100
AcDbLine
 10
432.4115004558701
 20
14.39328722478751
 30
0.0
 11
432.4922454558702
 21
13.47037622478751
 31
0.0
  0
ARC
  5
5591
330
1E
100
AcDbEntity
  8
躯体と製品
  6
Continuous
 62
     3
100
AcDbCircle
 10
435.41720945587
 20
14.26255322478744
 30
0.0
 40
1.5
100
AcDbArc
 50
5.000000000000026
 51
75.37470699999882
  0
LINE
  5
5592
330
1E
100
AcDbEntity
  8
躯体と製品
  6
Continuous
 62
     3
100
AcDbLine
 10
436.9115004558701
 20
14.39328722478751
 30
0.0
 11
436.9922454558702
 21
13.47037622478751
 31
0.0
  0
ARC
  5
5593
330
1E
100
AcDbEntity
  8
躯体と製品
  6
Continuous
 62
     3
100
AcDbCircle
 10
431.86728245587
 20
14.26255322478744
 30
0.0
 40
1.5
100
AcDbArc
 50
104.6252930000011
 51
108.4628749999992
  0
ARC
  5
5594
330
1E
100
AcDbEntity
  8
躯体と製品
  6
Continuous
 62
     3
100
AcDbCircle
 10
433.6422444558702
 20
4.926850224787472
 30
0.0
 40
11.000001
100
AcDbArc
 50
78.70902599999768
 51
101.2909740000023
  0
LINE
  5
5595
330
1E
100
AcDbEntity
  8
躯体と製品
  6
Continuous
 62
     4
100
AcDbLine
 10
439.6422444558702
 20
13.47037622478751
 30
0.0
 11
440.1422454558701
 21
12.9703752247874
 31
0.0
  0
LINE
  5
5596
330
1E
100
AcDbEntity
  8
躯体と製品
  6
Continuous
 62
     4
100
AcDbLine
 10
434.1422454558701
 20
13.47037622478751
 30
0.0
 11
439.6422444558702
 21
13.47037622478751
 31
0.0
  0
LINE
  5
5597
330
1E
100
AcDbEntity
  8
躯体と製品
  6
Continuous
 62
     4
100
AcDbLine
 10
433.6422444558702
 20
12.9703752247874
 30
0.0
 11
434.1422454558701
 21
13.47037622478751
 31
0.0
  0
LINE
  5
5598
330
1E
100
AcDbEntity
  8
躯体と製品
  6
Continuous
 62
     4
100
AcDbLine
 10
433.1422464558703
 20
13.47037622478751
 30
0.0
 11
433.6422444558702
 21
12.9703752247874
 31
0.0
  0
LINE
  5
5599
330
1E
100
AcDbEntity
  8
躯体と製品
  6
Continuous
 62
     4
100
AcDbLine
 10
431.6422464558703
 20
13.47037622478751
 30
0.0
 11
433.1422464558703
 21
13.47037622478751
 31
0.0
  0
LINE
  5
559A
330
1E
100
AcDbEntity
  8
躯体と製品
  6
Continuous
 62
     4
100
AcDbLine
 10
431.1422454558701
 20
12.9703752247874
 30
0.0
 11
431.6422464558703
 21
13.47037622478751
 31
0.0
  0
LINE
  5
559B
330
1E
100
AcDbEntity
  8
躯体と製品
  6
Continuous
 62
     4
100
AcDbLine
 10
430.6422444558702
 20
13.47037622478751
 30
0.0
 11
431.1422454558701
 21
12.9703752247874
 31
0.0
  0
LINE
  5
559C
330
1E
100
AcDbEntity
  8
躯体と製品
  6
Continuous
 62
     4
100
AcDbLine
 10
429.6422454558701
 20
13.47037622478751
 30
0.0
 11
430.6422444558702
 21
13.47037622478751
 31
0.0
  0
LINE
  5
559D
330
1E
100
AcDbEntity
  8
躯体と製品
  6
Continuous
 62
     4
100
AcDbLine
 10
429.1422444558702
 20
12.9703752247874
 30
0.0
 11
429.6422454558701
 21
13.47037622478751
 31
0.0
  0
LINE
  5
559E
330
1E
100
AcDbEntity
  8
躯体と製品
  6
Continuous
 62
     4
100
AcDbLine
 10
439.6422444558702
 20
13.47037622478751
 30
0.0
 11
440.1422454558701
 21
12.9703752247874
 31
0.0
  0
ARC
  5
559F
330
1E
100
AcDbEntity
  8
躯体と製品
  6
Continuous
 62
     3
100
AcDbCircle
 10
444.8672814558701
 20
14.26255322478744
 30
0.0
 40
1.5
100
AcDbArc
 50
104.6252930000011
 51
175.0
  0
LINE
  5
55A0
330
1E
100
AcDbEntity
  8
躯体と製品
  6
Continuous
 62
     3
100
AcDbLine
 10
443.3729904558703
 20
14.39328722478751
 30
0.0
 11
443.2922454558703
 21
13.47037622478751
 31
0.0
  0
ARC
  5
55A1
330
1E
100
AcDbEntity
  8
躯体と製品
  6
Continuous
 62
     3
100
AcDbCircle
 10
448.4172084558702
 20
14.26255322478744
 30
0.0
 40
1.5
100
AcDbArc
 50
71.53712500000072
 51
75.37470699999882
  0
ARC
  5
55A2
330
1E
100
AcDbEntity
  8
躯体と製品
  6
Continuous
 62
     3
100
AcDbCircle
 10
446.6422464558703
 20
4.926850224787472
 30
0.0
 40
11.000001
100
AcDbArc
 50
78.70902599999768
 51
101.2909740000023
  0
ARC
  5
55A3
330
1E
100
AcDbEntity
  8
躯体と製品
  6
Continuous
 62
     3
100
AcDbCircle
 10
449.3672814558701
 20
14.26255322478744
 30
0.0
 40
1.5
100
AcDbArc
 50
104.6252930000011
 51
175.0
  0
LINE
  5
55A4
330
1E
100
AcDbEntity
  8
躯体と製品
  6
Continuous
 62
     3
100
AcDbLine
 10
447.8729904558703
 20
14.39328722478751
 30
0.0
 11
447.7922454558703
 21
13.47037622478751
 31
0.0
  0
LINE
  5
55A5
330
1E
100
AcDbEntity
  8
躯体と製品
  6
Continuous
 62
     4
100
AcDbLine
 10
446.1422454558701
 20
13.47037622478751
 30
0.0
 11
440.6422464558703
 21
13.47037622478751
 31
0.0
  0
LINE
  5
55A6
330
1E
100
AcDbEntity
  8
躯体と製品
  6
Continuous
 62
     4
100
AcDbLine
 10
446.6422464558703
 20
12.9703752247874
 30
0.0
 11
446.1422454558701
 21
13.47037622478751
 31
0.0
  0
LINE
  5
55A7
330
1E
100
AcDbEntity
  8
躯体と製品
  6
Continuous
 62
     4
100
AcDbLine
 10
447.1422444558702
 20
13.47037622478751
 30
0.0
 11
446.6422464558703
 21
12.9703752247874
 31
0.0
  0
LINE
  5
55A8
330
1E
100
AcDbEntity
  8
躯体と製品
  6
Continuous
 62
     4
100
AcDbLine
 10
448.6422444558702
 20
13.47037622478751
 30
0.0
 11
447.1422444558702
 21
13.47037622478751
 31
0.0
  0
LINE
  5
55A9
330
1E
100
AcDbEntity
  8
躯体と製品
  6
Continuous
 62
     4
100
AcDbLine
 10
449.14224545587
 20
12.9703752247874
 30
0.0
 11
448.6422444558702
 21
13.47037622478751
 31
0.0
  0
LINE
  5
55AA
330
1E
100
AcDbEntity
  8
躯体と製品
  6
Continuous
 62
     4
100
AcDbLine
 10
449.6422464558703
 20
13.47037622478751
 30
0.0
 11
449.14224545587
 21
12.9703752247874
 31
0.0
  0
LINE
  5
55AB
330
1E
100
AcDbEntity
  8
躯体と製品
  6
Continuous
 62
     4
100
AcDbLine
 10
450.6422454558701
 20
13.47037622478751
 30
0.0
 11
449.6422464558703
 21
13.47037622478751
 31
0.0
  0
LINE
  5
55AC
330
1E
100
AcDbEntity
  8
躯体と製品
  6
Continuous
 62
     4
100
AcDbLine
 10
451.1422464558703
 20
12.9703752247874
 30
0.0
 11
450.6422454558701
 21
13.47037622478751
 31
0.0
  0
LINE
  5
55AD
330
1E
100
AcDbEntity
  8
躯体と製品
  6
Continuous
 62
     4
100
AcDbLine
 10
451.6422444558702
 20
13.47037622478751
 30
0.0
 11
451.1422464558703
 21
12.9703752247874
 31
0.0
  0
ARC
  5
55AE
330
1E
100
AcDbEntity
  8
躯体と製品
  6
Continuous
 62
     4
100
AcDbCircle
 10
413.4422454558701
 20
40.79360222478749
 30
0.0
 40
2.000001
100
AcDbArc
 50
113.5960669999982
 51
180.0
  0
ARC
  5
55AF
330
1E
100
AcDbEntity
  8
躯体と製品
  6
Continuous
 62
     4
100
AcDbCircle
 10
412.1422464558703
 20
41.63852222478737
 30
0.0
 40
2.000001
100
AcDbArc
 50
114.3148929999993
 51
180.0
  0
LINE
  5
55B0
330
1E
100
AcDbEntity
  8
躯体と製品
  6
Continuous
 62
     4
100
AcDbLine
 10
468.8422464558702
 20
40.79280422478723
 30
0.0
 11
468.8422464558702
 21
27.97037522478741
 31
0.0
  0
LINE
  5
55B1
330
1E
100
AcDbEntity
  8
躯体と製品
  6
Continuous
 62
     4
100
AcDbLine
 10
470.1422454558701
 20
5.170375224787562
 30
0.0
 11
470.1422454558701
 21
41.63769422478742
 31
0.0
  0
LINE
  5
55B2
330
1E
100
AcDbEntity
  8
躯体と製品
  6
Continuous
 62
     4
100
AcDbLine
 10
468.8422464558702
 20
14.67037622478744
 30
0.0
 11
468.8422464558702
 21
5.970376224787514
 31
0.0
  0
LINE
  5
55B3
330
1E
100
AcDbEntity
  8
躯体と製品
  6
Continuous
 62
     4
100
AcDbLine
 10
454.1422464558703
 20
12.17037422478734
 30
0.0
 11
454.1422464558703
 21
13.47037622478751
 31
0.0
  0
LINE
  5
55B4
330
1E
100
AcDbEntity
  8
躯体と製品
  6
Continuous
 62
     4
100
AcDbLine
 10
465.64224545587
 20
12.17037422478734
 30
0.0
 11
465.64224545587
 21
16.17037622478745
 31
0.0
  0
LINE
  5
55B5
330
1E
100
AcDbEntity
  8
躯体と製品
  6
Continuous
 62
     4
100
AcDbLine
 10
466.9422444558703
 20
5.320375224787426
 30
0.0
 11
466.9422444558703
 21
17.67037622478745
 31
0.0
  0
LINE
  5
55B6
330
1E
100
AcDbEntity
  8
躯体と製品
  6
Continuous
 62
     4
100
AcDbLine
 10
455.6422464558703
 20
13.47037622478751
 30
0.0
 11
455.6422464558703
 21
12.17037422478734
 31
0.0
  0
LINE
  5
55B7
330
1E
100
AcDbEntity
  8
躯体と製品
  6
Continuous
 62
     4
100
AcDbLine
 10
460.6422444558702
 20
12.17037422478734
 30
0.0
 11
460.6422444558702
 21
13.47037622478751
 31
0.0
  0
LINE
  5
55B8
330
1E
100
AcDbEntity
  8
躯体と製品
  6
Continuous
 62
     4
100
AcDbLine
 10
465.64224545587
 20
12.17037422478734
 30
0.0
 11
460.6422444558702
 21
12.17037422478734
 31
0.0
  0
LINE
  5
55B9
330
1E
100
AcDbEntity
  8
躯体と製品
  6
Continuous
 62
     4
100
AcDbLine
 10
458.6422464558703
 20
10.67037422478734
 30
0.0
 11
465.64224545587
 21
10.67037422478734
 31
0.0
  0
LINE
  5
55BA
330
1E
100
AcDbEntity
  8
躯体と製品
  6
Continuous
 62
     4
100
AcDbLine
 10
455.6422464558703
 20
12.17037422478734
 30
0.0
 11
454.1422464558703
 21
12.17037422478734
 31
0.0
  0
LINE
  5
55BB
330
1E
100
AcDbEntity
  8
躯体と製品
  6
Continuous
 62
     4
100
AcDbLine
 10
458.1422454558701
 20
11.17037522478756
 30
0.0
 11
458.6422464558703
 21
10.67037422478734
 31
0.0
  0
LINE
  5
55BC
330
1E
100
AcDbEntity
  8
躯体と製品
  6
Continuous
 62
     4
100
AcDbLine
 10
457.6422444558702
 20
10.67037422478734
 30
0.0
 11
458.1422454558701
 21
11.17037522478756
 31
0.0
  0
LINE
  5
55BD
330
1E
100
AcDbEntity
  8
躯体と製品
  6
Continuous
 62
     4
100
AcDbLine
 10
467.6422464558704
 20
4.670374224787337
 30
0.0
 11
467.6422464558704
 21
5.970376224787514
 31
0.0
  0
LINE
  5
55BE
330
1E
100
AcDbEntity
  8
躯体と製品
  6
Continuous
 62
     4
100
AcDbLine
 10
467.6422464558704
 20
5.970376224787514
 30
0.0
 11
468.8422464558702
 21
5.970376224787514
 31
0.0
  0
LINE
  5
55BF
330
1E
100
AcDbEntity
  8
躯体と製品
  6
Continuous
 62
     4
100
AcDbLine
 10
469.6422444558702
 20
4.670374224787337
 30
0.0
 11
467.6422464558704
 21
4.670374224787337
 31
0.0
  0
ARC
  5
55C0
330
1E
100
AcDbEntity
  8
躯体と製品
  6
Continuous
 62
     4
100
AcDbCircle
 10
469.6422444558702
 20
5.170375224787562
 30
0.0
 40
0.5000010000000001
100
AcDbArc
 50
270.0
 51
0.0
  0
ARC
  5
55C1
330
1E
100
AcDbEntity
  8
躯体と製品
  6
Continuous
 62
     4
100
AcDbCircle
 10
466.2922464558702
 20
5.320375224787426
 30
0.0
 40
0.6500010000000001
100
AcDbArc
 50
180.0
 51
0.0
  0
LINE
  5
55C2
330
1E
100
AcDbEntity
  8
躯体と製品
  6
Continuous
 62
     4
100
AcDbLine
 10
465.64224545587
 20
10.67037422478734
 30
0.0
 11
465.64224545587
 21
5.320375224787426
 31
0.0
  0
LINE
  5
55C3
330
1E
100
AcDbEntity
  8
躯体と製品
  6
Continuous
 62
     4
100
AcDbLine
 10
467.8422444558702
 20
25.17037622478745
 30
0.0
 11
462.4922454558702
 21
25.17037622478745
 31
0.0
  0
LINE
  5
55C4
330
1E
100
AcDbEntity
  8
躯体と製品
  6
Continuous
 62
     4
100
AcDbLine
 10
467.3422464558703
 20
26.4703752247874
 30
0.0
 11
462.4922454558702
 21
26.4703752247874
 31
0.0
  0
ARC
  5
55C5
330
1E
100
AcDbEntity
  8
躯体と製品
  6
Continuous
 62
     3
100
AcDbCircle
 10
452.9172084558702
 20
14.26255322478744
 30
0.0
 40
1.5
100
AcDbArc
 50
5.000000000000026
 51
75.37470699999882
  0
LINE
  5
55C6
330
1E
100
AcDbEntity
  8
躯体と製品
  6
Continuous
 62
     3
100
AcDbLine
 10
454.4115024558703
 20
14.39328722478751
 30
0.0
 11
454.4922444558704
 21
13.47037622478751
 31
0.0
  0
ARC
  5
55C7
330
1E
100
AcDbEntity
  8
躯体と製品
  6
Continuous
 62
     4
100
AcDbCircle
 10
462.4922454558702
 20
25.82037422478743
 30
0.0
 40
0.6500010000000001
100
AcDbArc
 50
90.0
 51
270.0
  0
LINE
  5
55C8
330
1E
100
AcDbEntity
  8
躯体と製品
  6
Continuous
 62
     4
100
AcDbLine
 10
457.6422444558702
 20
13.47037622478751
 30
0.0
 11
455.6422464558703
 21
13.47037622478751
 31
0.0
  0
LINE
  5
55C9
330
1E
100
AcDbEntity
  8
躯体と製品
  6
Continuous
 62
     4
100
AcDbLine
 10
458.1422454558701
 20
12.9703752247874
 30
0.0
 11
457.6422444558702
 21
13.47037622478751
 31
0.0
  0
LINE
  5
55CA
330
1E
100
AcDbEntity
  8
躯体と製品
  6
Continuous
 62
     4
100
AcDbLine
 10
458.6422464558703
 20
13.47037622478751
 30
0.0
 11
458.1422454558701
 21
12.9703752247874
 31
0.0
  0
LINE
  5
55CB
330
1E
100
AcDbEntity
  8
躯体と製品
  6
Continuous
 62
     4
100
AcDbLine
 10
460.6422444558702
 20
13.47037622478751
 30
0.0
 11
458.6422464558703
 21
13.47037622478751
 31
0.0
  0
LINE
  5
55CC
330
1E
100
AcDbEntity
  8
躯体と製品
  6
Continuous
 62
     4
100
AcDbLine
 10
468.8422464558702
 20
23.87037422478738
 30
0.0
 11
468.8422464558702
 21
17.67037622478745
 31
0.0
  0
LINE
  5
55CD
330
1E
100
AcDbEntity
  8
躯体と製品
  6
Continuous
 62
     4
100
AcDbLine
 10
467.6422464558704
 20
17.67037622478745
 30
0.0
 11
468.8422464558702
 21
14.67037622478744
 31
0.0
  0
LINE
  5
55CE
330
1E
100
AcDbEntity
  8
躯体と製品
  6
Continuous
 62
     4
100
AcDbLine
 10
468.8422464558702
 20
17.67037622478745
 30
0.0
 11
467.6422464558704
 21
17.67037622478745
 31
0.0
  0
LINE
  5
55CF
330
1E
100
AcDbEntity
  8
躯体と製品
  6
Continuous
 62
     7
100
AcDbLine
 10
468.8422464558702
 20
24.17037422478734
 30
0.0
 11
468.8422464558702
 21
23.87037422478738
 31
0.0
  0
ARC
  5
55D0
330
1E
100
AcDbEntity
  8
躯体と製品
  6
Continuous
 62
     4
100
AcDbCircle
 10
467.8422444558702
 20
24.17037422478734
 30
0.0
 40
0.999999
100
AcDbArc
 50
0.0
 51
90.0
  0
ARC
  5
55D1
330
1E
100
AcDbEntity
  8
躯体と製品
  6
Continuous
 62
     4
100
AcDbCircle
 10
467.3422464558703
 20
27.97037522478741
 30
0.0
 40
1.5
100
AcDbArc
 50
270.0
 51
0.0
  0
LINE
  5
55D2
330
1E
100
AcDbEntity
  8
躯体と製品
  6
Continuous
 62
     4
100
AcDbLine
 10
467.9796384558701
 20
17.67037622478745
 30
0.0
 11
466.9422444558703
 21
17.67037622478745
 31
0.0
  0
ARC
  5
55D3
330
1E
100
AcDbEntity
  8
躯体と製品
  6
Continuous
 62
     4
100
AcDbCircle
 10
467.9796384558701
 20
18.17037422478733
 30
0.0
 40
0.5000010000000001
100
AcDbArc
 50
270.0
 51
23.49856599999878
  0
LINE
  5
55D4
330
1E
100
AcDbEntity
  8
躯体と製品
  6
Continuous
 62
     4
100
AcDbLine
 10
465.7422444558704
 20
24.57037622478731
 30
0.0
 11
468.4381734558703
 21
18.36973922478739
 31
0.0
  0
LINE
  5
55D5
330
1E
100
AcDbEntity
  8
躯体と製品
  6
Continuous
 62
     4
100
AcDbLine
 10
465.64224545587
 20
17.4703752247874
 30
0.0
 11
464.2922454558703
 21
17.4703752247874
 31
0.0
  0
LINE
  5
55D6
330
1E
100
AcDbEntity
  8
躯体と製品
  6
Continuous
 62
     4
100
AcDbLine
 10
465.64224545587
 20
18.9703752247874
 30
0.0
 11
465.64224545587
 21
17.4703752247874
 31
0.0
  0
LINE
  5
55D7
330
1E
100
AcDbEntity
  8
躯体と製品
  6
Continuous
 62
     4
100
AcDbLine
 10
465.9968634558704
 20
18.9703752247874
 30
0.0
 11
465.64224545587
 21
18.9703752247874
 31
0.0
  0
ARC
  5
55D8
330
1E
100
AcDbEntity
  8
躯体と製品
  6
Continuous
 62
     4
100
AcDbCircle
 10
465.9968634558704
 20
19.47037622478751
 30
0.0
 40
0.5000010000000001
100
AcDbArc
 50
270.0
 51
23.49856599999878
  0
LINE
  5
55D9
330
1E
100
AcDbEntity
  8
躯体と製品
  6
Continuous
 62
     4
100
AcDbLine
 10
464.3246874558703
 20
24.57037622478731
 30
0.0
 11
466.4553984558702
 21
19.66973822478735
 31
0.0
  0
ARC
  5
55DA
330
1E
100
AcDbEntity
  8
躯体と製品
  6
Continuous
 62
     4
100
AcDbCircle
 10
464.2922454558703
 20
16.82037422478743
 30
0.0
 40
0.6500010000000001
100
AcDbArc
 50
90.0
 51
270.0
  0
LINE
  5
55DB
330
1E
100
AcDbEntity
  8
躯体と製品
  6
Continuous
 62
     4
100
AcDbLine
 10
465.64224545587
 20
16.17037622478745
 30
0.0
 11
464.2922454558703
 21
16.17037622478745
 31
0.0
  0
LINE
  5
55DC
330
1E
100
AcDbEntity
  8
躯体と製品
  6
Continuous
 62
     4
100
AcDbLine
 10
464.3246874558703
 20
24.57037622478731
 30
0.0
 11
464.3246874558703
 21
25.07037422478743
 31
0.0
  0
LINE
  5
55DD
330
1E
100
AcDbEntity
  8
躯体と製品
  6
Continuous
 62
     4
100
AcDbLine
 10
464.3246874558703
 20
25.07037422478743
 30
0.0
 11
465.7422444558704
 21
25.07037422478743
 31
0.0
  0
LINE
  5
55DE
330
1E
100
AcDbEntity
  8
躯体と製品
  6
Continuous
 62
     4
100
AcDbLine
 10
465.7422444558704
 20
25.07037422478743
 30
0.0
 11
465.7422444558704
 21
24.57037622478731
 31
0.0
  0
ARC
  5
55DF
330
1E
100
AcDbEntity
  8
躯体と製品
  6
Continuous
 62
     4
100
AcDbCircle
 10
466.8422454558704
 20
40.79280422478723
 30
0.0
 40
2.000001
100
AcDbArc
 50
0.0
 51
66.4022180000024
  0
ARC
  5
55E0
330
1E
100
AcDbEntity
  8
躯体と製品
  6
Continuous
 62
     4
100
AcDbCircle
 10
468.1422444558702
 20
41.63769422478742
 30
0.0
 40
2.000001
100
AcDbArc
 50
0.0
 51
65.68341500000156
  0
LINE
  5
55E1
330
1E
100
AcDbEntity
  8
躯体と製品
  6
Continuous
 62
     4
100
AcDbLine
 10
756.6422454558701
 20
47.92037522478756
 30
0.0
 11
756.6422454558701
 21
-108.0796247752124
 31
0.0
  0
LINE
  5
55E2
330
1E
100
AcDbEntity
  8
躯体と製品
  6
Continuous
 62
     4
100
AcDbLine
 10
759.6422454558701
 20
47.92037522478756
 30
0.0
 11
759.6422454558701
 21
-108.0796247752124
 31
0.0
  0
LINE
  5
55E3
330
1E
100
AcDbEntity
  8
躯体と製品
  6
Continuous
 62
     4
100
AcDbLine
 10
770.1422454558701
 20
47.92037522478756
 30
0.0
 11
770.1422454558701
 21
-108.0796247752124
 31
0.0
  0
LINE
  5
55E4
330
1E
100
AcDbEntity
  8
躯体と製品
  6
PLINE3
 62
     3
100
AcDbLine
 10
740.1422454558701
 20
-129.8296247752124
 30
0.0
 11
740.1422454558701
 21
59.17037522478756
 31
0.0
  0
LINE
  5
55E5
330
1E
100
AcDbEntity
  8
躯体と製品
  6
Continuous
 62
     4
100
AcDbLine
 10
736.3922454558701
 20
-125.3296247752124
 30
0.0
 11
736.3922454558701
 21
47.92037522478756
 31
0.0
  0
LINE
  5
55E6
330
1E
100
AcDbEntity
  8
躯体と製品
  6
Continuous
 62
     4
100
AcDbLine
 10
743.8922454558701
 20
47.92037522478756
 30
0.0
 11
743.8922454558701
 21
-125.3296247752124
 31
0.0
  0
LINE
  5
55E7
330
1E
100
AcDbEntity
  8
躯体と製品
  6
Continuous
 62
     4
100
AcDbLine
 10
728.14224545587
 20
54.67037522478756
 30
0.0
 11
728.14224545587
 21
47.92037522478756
 31
0.0
  0
LINE
  5
55F1
330
1E
100
AcDbEntity
  8
躯体と製品
  6
PLINE2
 62
     4
100
AcDbLine
 10
1155.14224445587
 20
-395.3296247752124
 30
0.0
 11
1125.14224445587
 21
-395.3296247752124
 31
0.0
  0
LINE
  5
55F2
330
1E
100
AcDbEntity
  8
躯体と製品
  6
PLINE2
 62
     4
100
AcDbLine
 10
1125.14224445587
 20
-425.3296247752124
 30
0.0
 11
1155.14224445587
 21
-425.3296247752124
 31
0.0
  0
LINE
  5
55F3
330
1E
100
AcDbEntity
  8
躯体と製品
  6
Continuous
 62
     4
100
AcDbLine
 10
1165.14224645587
 20
-430.3296257752126
 30
0.0
 11
1125.14224445587
 21
-430.3296257752126
 31
0.0
  0
LINE
  5
55F4
330
1E
100
AcDbEntity
  8
躯体と製品
  6
Continuous
 62
     4
100
AcDbLine
 10
1165.14224645587
 20
-390.3296237752126
 30
0.0
 11
1125.14224445587
 21
-390.3296237752126
 31
0.0
  0
LINE
  5
560A
330
1E
100
AcDbEntity
  8
躯体と製品
  6
Continuous
 62
     4
100
AcDbLine
 10
842.1422454558701
 20
-430.3296257752126
 30
0.0
 11
1075.14224645587
 21
-430.3296257752126
 31
0.0
  0
LINE
  5
560B
330
1E
100
AcDbEntity
  8
躯体と製品
  6
Continuous
 62
     4
100
AcDbLine
 10
842.1422454558701
 20
-390.3296237752126
 30
0.0
 11
1075.14224645587
 21
-390.3296237752126
 31
0.0
  0
LINE
  5
5614
330
1E
100
AcDbEntity
  8
躯体と製品
  6
Continuous
 62
     4
100
AcDbLine
 10
863.6781444558701
 20
-401.3296247752124
 30
0.0
 11
859.1422464558704
 21
-401.3296247752124
 31
0.0
  0
LINE
  5
5615
330
1E
100
AcDbEntity
  8
躯体と製品
  6
Continuous
 62
     4
100
AcDbLine
 10
859.1422464558704
 20
-400.3296257752126
 30
0.0
 11
875.1422454558701
 21
-400.3296257752126
 31
0.0
  0
LINE
  5
5616
330
1E
100
AcDbEntity
  8
躯体と製品
  6
Continuous
 62
     4
100
AcDbLine
 10
875.1422454558701
 20
-420.3296237752125
 30
0.0
 11
859.1422464558704
 21
-420.3296237752125
 31
0.0
  0
LINE
  5
5617
330
1E
100
AcDbEntity
  8
躯体と製品
  6
Continuous
 62
     4
100
AcDbLine
 10
863.6781444558701
 20
-419.3296247752124
 30
0.0
 11
859.1422464558704
 21
-419.3296247752124
 31
0.0
  0
LINE
  5
561C
330
1E
100
AcDbEntity
  8
躯体と製品
  6
Continuous
 62
     4
100
AcDbLine
 10
793.1422464558703
 20
-418.3296257752126
 30
0.0
 11
793.1422464558703
 21
-402.3296237752125
 31
0.0
  0
LINE
  5
561D
330
1E
100
AcDbEntity
  8
躯体と製品
  6
Continuous
 62
     4
100
AcDbLine
 10
774.1422444558702
 20
-418.3296257752126
 30
0.0
 11
774.1422444558702
 21
-402.3296237752125
 31
0.0
  0
LINE
  5
561E
330
1E
100
AcDbEntity
  8
躯体と製品
  6
Continuous
 62
     4
100
AcDbLine
 10
794.1422454558701
 20
-418.3296257752126
 30
0.0
 11
794.1422454558701
 21
-402.3296237752125
 31
0.0
  0
LINE
  5
561F
330
1E
100
AcDbEntity
  8
躯体と製品
  6
Continuous
 62
     4
100
AcDbLine
 10
775.1422464558703
 20
-410.3296247752124
 30
0.0
 11
775.1422464558703
 21
-418.3296257752126
 31
0.0
  0
LINE
  5
5620
330
1E
100
AcDbEntity
  8
躯体と製品
  6
PLINE3
 62
     3
100
AcDbLine
 10
784.1422464558704
 20
-397.3296257752127
 30
0.0
 11
784.1422464558704
 21
-423.3296237752125
 31
0.0
  0
ARC
  5
5621
330
1E
100
AcDbEntity
  8
躯体と製品
  6
Continuous
 62
     4
100
AcDbCircle
 10
786.2359044558704
 20
-415.0466237752126
 30
0.0
 40
0.75
100
AcDbArc
 50
40.41833399999847
 51
135.0
  0
ARC
  5
5622
330
1E
100
AcDbEntity
  8
躯体と製品
  6
Continuous
 62
     4
100
AcDbCircle
 10
782.0485854558702
 20
-415.0466237752126
 30
0.0
 40
0.75
100
AcDbArc
 50
45.0
 51
139.5816660000015
  0
LINE
  5
5623
330
1E
100
AcDbEntity
  8
躯体と製品
  6
Continuous
 62
     4
100
AcDbLine
 10
793.1422464558703
 20
-415.3296257752126
 30
0.0
 11
793.1422464558703
 21
-404.3296247752124
 31
0.0
  0
ARC
  5
5624
330
1E
100
AcDbEntity
  8
躯体と製品
  6
Continuous
 62
     4
100
AcDbCircle
 10
792.1422444558702
 20
-418.3296257752126
 30
0.0
 40
2.000001
100
AcDbArc
 50
270.0
 51
0.0
  0
LINE
  5
5625
330
1E
100
AcDbEntity
  8
躯体と製品
  6
Continuous
 62
     4
100
AcDbLine
 10
792.1422444558702
 20
-420.3296237752125
 30
0.0
 11
776.1422454558701
 21
-420.3296237752125
 31
0.0
  0
LINE
  5
5626
330
1E
100
AcDbEntity
  8
躯体と製品
  6
Continuous
 62
     4
100
AcDbLine
 10
783.1318824558705
 20
-418.5796247752124
 30
0.0
 11
782.1215184558703
 21
-416.8296257752126
 31
0.0
  0
ARC
  5
5627
330
1E
100
AcDbEntity
  8
躯体と製品
  6
Continuous
 62
     4
100
AcDbCircle
 10
776.1422454558701
 20
-418.3296257752126
 30
0.0
 40
2.000001
100
AcDbArc
 50
180.0
 51
270.0
  0
LINE
  5
5628
330
1E
100
AcDbEntity
  8
躯体と製品
  6
Continuous
 62
     4
100
AcDbLine
 10
780.6781434558701
 20
-419.3296247752124
 30
0.0
 11
776.1422454558701
 21
-419.3296247752124
 31
0.0
  0
ARC
  5
5629
330
1E
100
AcDbEntity
  8
躯体と製品
  6
Continuous
 62
     4
100
AcDbCircle
 10
776.1422454558701
 20
-418.3296257752126
 30
0.0
 40
0.999999
100
AcDbArc
 50
180.0
 51
270.0
  0
ARC
  5
562A
330
1E
100
AcDbEntity
  8
躯体と製品
  6
Continuous
 62
     4
100
AcDbCircle
 10
780.6781434558701
 20
-418.8296237752125
 30
0.0
 40
0.5000010000000001
100
AcDbArc
 50
270.0
 51
30.00000000000055
  0
ARC
  5
562B
330
1E
100
AcDbEntity
  8
躯体と製品
  6
Continuous
 62
     4
100
AcDbCircle
 10
784.1422464558704
 20
-416.8296257752126
 30
0.0
 40
3.500000999999999
100
AcDbArc
 50
139.5816519999992
 51
210.0000020000023
  0
LINE
  5
562C
330
1E
100
AcDbEntity
  8
躯体と製品
  6
Continuous
 62
     4
100
AcDbLine
 10
782.7287394558703
 20
-414.6661187752125
 30
0.0
 11
782.5789164558702
 21
-414.5162957752125
 31
0.0
  0
ARC
  5
562D
330
1E
100
AcDbEntity
  8
躯体と製品
  6
Continuous
 62
     4
100
AcDbCircle
 10
782.1984084558701
 20
-415.1964497752126
 30
0.0
 40
0.75
100
AcDbArc
 50
329.9999999999995
 51
45.0
  0
LINE
  5
562E
330
1E
100
AcDbEntity
  8
躯体と製品
  6
Continuous
 62
     4
100
AcDbLine
 10
782.1215184558703
 20
-416.8296257752126
 30
0.0
 11
782.8479294558701
 21
-415.5714497752126
 31
0.0
  0
LINE
  5
562F
330
1E
100
AcDbEntity
  8
躯体と製品
  6
Continuous
 62
     4
100
AcDbLine
 10
787.6063464558701
 20
-419.3296247752124
 30
0.0
 11
792.1422444558702
 21
-419.3296247752124
 31
0.0
  0
ARC
  5
5630
330
1E
100
AcDbEntity
  8
躯体と製品
  6
Continuous
 62
     4
100
AcDbCircle
 10
792.1422444558702
 20
-418.3296257752126
 30
0.0
 40
0.999999
100
AcDbArc
 50
270.0
 51
0.0
  0
ARC
  5
5631
330
1E
100
AcDbEntity
  8
躯体と製品
  6
Continuous
 62
     4
100
AcDbCircle
 10
787.6063464558701
 20
-418.8296237752125
 30
0.0
 40
0.5000010000000001
100
AcDbArc
 50
149.9999999999994
 51
270.0
  0
LINE
  5
5632
330
1E
100
AcDbEntity
  8
躯体と製品
  6
Continuous
 62
     4
100
AcDbLine
 10
784.6111554558703
 20
-418.5796247752124
 30
0.0
 11
783.1318824558705
 21
-418.5796247752124
 31
0.0
  0
LINE
  5
5633
330
1E
100
AcDbEntity
  8
躯体と製品
  6
Continuous
 62
     4
100
AcDbLine
 10
785.1526074558702
 20
-418.5796247752124
 30
0.0
 11
786.16297145587
 21
-416.8296257752126
 31
0.0
  0
LINE
  5
5634
330
1E
100
AcDbEntity
  8
躯体と製品
  6
Continuous
 62
     4
100
AcDbLine
 10
784.6111554558703
 20
-418.5796247752124
 30
0.0
 11
785.1526074558702
 21
-418.5796247752124
 31
0.0
  0
ARC
  5
5635
330
1E
100
AcDbEntity
  8
躯体と製品
  6
Continuous
 62
     4
100
AcDbCircle
 10
784.1422464558704
 20
-416.8296257752126
 30
0.0
 40
3.500000999999999
100
AcDbArc
 50
329.9999999999995
 51
40.41833700000241
  0
LINE
  5
5636
330
1E
100
AcDbEntity
  8
躯体と製品
  6
Continuous
 62
     4
100
AcDbLine
 10
785.4365634558702
 20
-415.5714497752126
 30
0.0
 11
786.16297145587
 21
-416.8296257752126
 31
0.0
  0
ARC
  5
5637
330
1E
100
AcDbEntity
  8
躯体と製品
  6
Continuous
 62
     4
100
AcDbCircle
 10
786.0860814558702
 20
-415.1964497752126
 30
0.0
 40
0.75
100
AcDbArc
 50
135.0
 51
210.0000000000005
  0
LINE
  5
5638
330
1E
100
AcDbEntity
  8
躯体と製品
  6
Continuous
 62
     4
100
AcDbLine
 10
785.5557534558701
 20
-414.6661187752125
 30
0.0
 11
785.7055764558704
 21
-414.5162957752125
 31
0.0
  0
ARC
  5
5639
330
1E
100
AcDbEntity
  8
躯体と製品
  6
Continuous
 62
     4
100
AcDbCircle
 10
792.1422444558702
 20
-402.3296237752125
 30
0.0
 40
2.000001
100
AcDbArc
 50
0.0
 51
90.0
  0
LINE
  5
563A
330
1E
100
AcDbEntity
  8
躯体と製品
  6
Continuous
 62
     4
100
AcDbLine
 10
776.1422454558701
 20
-400.3296257752126
 30
0.0
 11
792.1422444558702
 21
-400.3296257752126
 31
0.0
  0
LINE
  5
563B
330
1E
100
AcDbEntity
  8
躯体と製品
  6
Continuous
 62
     4
100
AcDbLine
 10
783.1318824558705
 20
-402.0796247752124
 30
0.0
 11
782.1215184558703
 21
-403.8296237752125
 31
0.0
  0
LINE
  5
563C
330
1E
100
AcDbEntity
  8
躯体と製品
  6
Continuous
 62
     4
100
AcDbLine
 10
780.6781434558701
 20
-401.3296247752124
 30
0.0
 11
776.1422454558701
 21
-401.3296247752124
 31
0.0
  0
ARC
  5
563D
330
1E
100
AcDbEntity
  8
躯体と製品
  6
Continuous
 62
     4
100
AcDbCircle
 10
776.1422454558701
 20
-402.3296237752125
 30
0.0
 40
0.999999
100
AcDbArc
 50
90.0
 51
180.0
  0
LINE
  5
563E
330
1E
100
AcDbEntity
  8
躯体と製品
  6
Continuous
 62
     4
100
AcDbLine
 10
775.1422464558703
 20
-410.3296247752124
 30
0.0
 11
775.1422464558703
 21
-402.3296237752125
 31
0.0
  0
ARC
  5
563F
330
1E
100
AcDbEntity
  8
躯体と製品
  6
Continuous
 62
     4
100
AcDbCircle
 10
776.1422454558701
 20
-402.3296237752125
 30
0.0
 40
2.000001
100
AcDbArc
 50
90.0
 51
180.0
  0
ARC
  5
5640
330
1E
100
AcDbEntity
  8
躯体と製品
  6
Continuous
 62
     4
100
AcDbCircle
 10
780.6781434558701
 20
-401.8296257752126
 30
0.0
 40
0.5000010000000001
100
AcDbArc
 50
329.9999999999995
 51
90.0
  0
ARC
  5
5641
330
1E
100
AcDbEntity
  8
躯体と製品
  6
Continuous
 62
     4
100
AcDbCircle
 10
784.1422464558704
 20
-403.8296237752125
 30
0.0
 40
3.500000999999999
100
AcDbArc
 50
149.9999999999994
 51
220.4183370000024
  0
ARC
  5
5642
330
1E
100
AcDbEntity
  8
躯体と製品
  6
Continuous
 62
     4
100
AcDbCircle
 10
782.0485854558702
 20
-405.6126257752125
 30
0.0
 40
0.75
100
AcDbArc
 50
220.4183339999985
 51
315.0
  0
LINE
  5
5643
330
1E
100
AcDbEntity
  8
躯体と製品
  6
Continuous
 62
     4
100
AcDbLine
 10
782.8479294558701
 20
-405.0877997752126
 30
0.0
 11
782.1215184558703
 21
-403.8296237752125
 31
0.0
  0
ARC
  5
5644
330
1E
100
AcDbEntity
  8
躯体と製品
  6
Continuous
 62
     4
100
AcDbCircle
 10
782.1984084558701
 20
-405.4627997752126
 30
0.0
 40
0.75
100
AcDbArc
 50
315.0
 51
30.00000000000055
  0
LINE
  5
5645
330
1E
100
AcDbEntity
  8
躯体と製品
  6
Continuous
 62
     4
100
AcDbLine
 10
782.7287394558703
 20
-405.9931307752126
 30
0.0
 11
782.5789164558702
 21
-406.1429537752125
 31
0.0
  0
LINE
  5
5646
330
1E
100
AcDbEntity
  8
躯体と製品
  6
Continuous
 62
     4
100
AcDbLine
 10
787.6063464558701
 20
-401.3296247752124
 30
0.0
 11
792.1422444558702
 21
-401.3296247752124
 31
0.0
  0
ARC
  5
5647
330
1E
100
AcDbEntity
  8
躯体と製品
  6
Continuous
 62
     4
100
AcDbCircle
 10
792.1422444558702
 20
-402.3296237752125
 30
0.0
 40
0.999999
100
AcDbArc
 50
0.0
 51
90.0
  0
ARC
  5
5648
330
1E
100
AcDbEntity
  8
躯体と製品
  6
Continuous
 62
     4
100
AcDbCircle
 10
787.6063464558701
 20
-401.8296257752126
 30
0.0
 40
0.5000010000000001
100
AcDbArc
 50
90.0
 51
210.0000000000005
  0
LINE
  5
5649
330
1E
100
AcDbEntity
  8
躯体と製品
  6
Continuous
 62
     4
100
AcDbLine
 10
785.1526074558702
 20
-402.0796247752124
 30
0.0
 11
786.16297145587
 21
-403.8296237752125
 31
0.0
  0
LINE
  5
564A
330
1E
100
AcDbEntity
  8
躯体と製品
  6
Continuous
 62
     4
100
AcDbLine
 10
783.6733344558703
 20
-402.0796247752124
 30
0.0
 11
785.1526074558702
 21
-402.0796247752124
 31
0.0
  0
LINE
  5
564B
330
1E
100
AcDbEntity
  8
躯体と製品
  6
Continuous
 62
     4
100
AcDbLine
 10
783.6733344558703
 20
-402.0796247752124
 30
0.0
 11
783.1318824558705
 21
-402.0796247752124
 31
0.0
  0
ARC
  5
564C
330
1E
100
AcDbEntity
  8
躯体と製品
  6
Continuous
 62
     4
100
AcDbCircle
 10
784.1422464558704
 20
-403.8296237752125
 30
0.0
 40
3.500000999999999
100
AcDbArc
 50
319.5816519999992
 51
30.00000000000055
  0
LINE
  5
564D
330
1E
100
AcDbEntity
  8
躯体と製品
  6
Continuous
 62
     4
100
AcDbLine
 10
785.5557534558701
 20
-405.9931307752126
 30
0.0
 11
785.7055764558704
 21
-406.1429537752125
 31
0.0
  0
ARC
  5
564E
330
1E
100
AcDbEntity
  8
躯体と製品
  6
Continuous
 62
     4
100
AcDbCircle
 10
786.0860814558702
 20
-405.4627997752126
 30
0.0
 40
0.75
100
AcDbArc
 50
149.9999999999994
 51
225.0
  0
LINE
  5
564F
330
1E
100
AcDbEntity
  8
躯体と製品
  6
Continuous
 62
     4
100
AcDbLine
 10
786.16297145587
 20
-403.8296237752125
 30
0.0
 11
785.4365634558702
 21
-405.0877997752126
 31
0.0
  0
ARC
  5
5650
330
1E
100
AcDbEntity
  8
躯体と製品
  6
Continuous
 62
     4
100
AcDbCircle
 10
786.2359044558704
 20
-405.6126257752125
 30
0.0
 40
0.75
100
AcDbArc
 50
225.0
 51
319.5816660000015
  0
LINE
  5
5651
330
1E
100
AcDbEntity
  8
躯体と製品
  6
Continuous
 62
     4
100
AcDbLine
 10
857.1422454558701
 20
-418.3296257752126
 30
0.0
 11
857.1422454558701
 21
-402.3296237752125
 31
0.0
  0
LINE
  5
5652
330
1E
100
AcDbEntity
  8
躯体と製品
  6
Continuous
 62
     4
100
AcDbLine
 10
858.1422444558702
 20
-410.3296247752124
 30
0.0
 11
858.1422444558702
 21
-418.3296257752126
 31
0.0
  0
ARC
  5
565C
330
1E
100
AcDbEntity
  8
躯体と製品
  6
Continuous
 62
     4
100
AcDbCircle
 10
859.1422464558704
 20
-418.3296257752126
 30
0.0
 40
2.000001
100
AcDbArc
 50
180.0
 51
270.0
  0
ARC
  5
565D
330
1E
100
AcDbEntity
  8
躯体と製品
  6
Continuous
 62
     4
100
AcDbCircle
 10
859.1422464558704
 20
-418.3296257752126
 30
0.0
 40
0.999999
100
AcDbArc
 50
180.0
 51
270.0
  0
ARC
  5
5664
330
1E
100
AcDbEntity
  8
躯体と製品
  6
Continuous
 62
     4
100
AcDbCircle
 10
859.1422464558704
 20
-402.3296237752125
 30
0.0
 40
0.999999
100
AcDbArc
 50
90.0
 51
180.0
  0
LINE
  5
5665
330
1E
100
AcDbEntity
  8
躯体と製品
  6
Continuous
 62
     4
100
AcDbLine
 10
858.1422444558702
 20
-410.3296247752124
 30
0.0
 11
858.1422444558702
 21
-402.3296237752125
 31
0.0
  0
ARC
  5
5666
330
1E
100
AcDbEntity
  8
躯体と製品
  6
Continuous
 62
     4
100
AcDbCircle
 10
859.1422464558704
 20
-402.3296237752125
 30
0.0
 40
2.000001
100
AcDbArc
 50
90.0
 51
180.0
  0
LINE
  5
566C
330
1E
100
AcDbEntity
  8
躯体と製品
  6
Continuous
 62
     4
100
AcDbLine
 10
876.1422444558702
 20
-418.3296257752126
 30
0.0
 11
876.1422444558702
 21
-402.3296237752125
 31
0.0
  0
LINE
  5
566D
330
1E
100
AcDbEntity
  8
躯体と製品
  6
Continuous
 62
     4
100
AcDbLine
 10
877.1422464558703
 20
-418.3296257752126
 30
0.0
 11
877.1422464558703
 21
-402.3296237752125
 31
0.0
  0
LINE
  5
566E
330
1E
100
AcDbEntity
  8
躯体と製品
  6
PLINE3
 62
     3
100
AcDbLine
 10
867.1422444558702
 20
-397.3296257752127
 30
0.0
 11
867.1422444558702
 21
-423.3296237752125
 31
0.0
  0
ARC
  5
566F
330
1E
100
AcDbEntity
  8
躯体と製品
  6
Continuous
 62
     4
100
AcDbCircle
 10
869.2359054558703
 20
-415.0466237752126
 30
0.0
 40
0.75
100
AcDbArc
 50
40.41833399999847
 51
135.0
  0
ARC
  5
5670
330
1E
100
AcDbEntity
  8
躯体と製品
  6
Continuous
 62
     4
100
AcDbCircle
 10
865.0485864558701
 20
-415.0466237752126
 30
0.0
 40
0.75
100
AcDbArc
 50
45.0
 51
139.5816660000015
  0
LINE
  5
5671
330
1E
100
AcDbEntity
  8
躯体と製品
  6
Continuous
 62
     4
100
AcDbLine
 10
876.1422444558702
 20
-415.3296257752126
 30
0.0
 11
876.1422444558702
 21
-404.3296247752124
 31
0.0
  0
LINE
  5
5672
330
1E
100
AcDbEntity
  8
躯体と製品
  6
Continuous
 62
     4
100
AcDbLine
 10
870.60634745587
 20
-419.3296247752124
 30
0.0
 11
875.1422454558701
 21
-419.3296247752124
 31
0.0
  0
ARC
  5
5673
330
1E
100
AcDbEntity
  8
躯体と製品
  6
Continuous
 62
     4
100
AcDbCircle
 10
870.60634745587
 20
-418.8296237752125
 30
0.0
 40
0.5000010000000001
100
AcDbArc
 50
149.9999999999994
 51
270.0
  0
ARC
  5
5674
330
1E
100
AcDbEntity
  8
躯体と製品
  6
Continuous
 62
     4
100
AcDbCircle
 10
863.6781444558701
 20
-418.8296237752125
 30
0.0
 40
0.5000010000000001
100
AcDbArc
 50
270.0
 51
30.00000000000055
  0
LINE
  5
5675
330
1E
100
AcDbEntity
  8
躯体と製品
  6
Continuous
 62
     4
100
AcDbLine
 10
866.1318834558704
 20
-418.5796247752124
 30
0.0
 11
865.1215194558702
 21
-416.8296257752126
 31
0.0
  0
LINE
  5
5676
330
1E
100
AcDbEntity
  8
躯体と製品
  6
Continuous
 62
     4
100
AcDbLine
 10
867.6111564558706
 20
-418.5796247752124
 30
0.0
 11
866.1318834558704
 21
-418.5796247752124
 31
0.0
  0
LINE
  5
5677
330
1E
100
AcDbEntity
  8
躯体と製品
  6
Continuous
 62
     4
100
AcDbLine
 10
868.1526084558704
 20
-418.5796247752124
 30
0.0
 11
869.1629724558703
 21
-416.8296257752126
 31
0.0
  0
LINE
  5
5678
330
1E
100
AcDbEntity
  8
躯体と製品
  6
Continuous
 62
     4
100
AcDbLine
 10
867.6111564558706
 20
-418.5796247752124
 30
0.0
 11
868.1526084558704
 21
-418.5796247752124
 31
0.0
  0
ARC
  5
5679
330
1E
100
AcDbEntity
  8
躯体と製品
  6
Continuous
 62
     4
100
AcDbCircle
 10
867.1422444558702
 20
-416.8296257752126
 30
0.0
 40
3.500000999999999
100
AcDbArc
 50
139.5816519999992
 51
210.0000020000023
  0
ARC
  5
567A
330
1E
100
AcDbEntity
  8
躯体と製品
  6
Continuous
 62
     4
100
AcDbCircle
 10
867.1422444558702
 20
-416.8296257752126
 30
0.0
 40
3.500000999999999
100
AcDbArc
 50
329.9999999999995
 51
40.41833700000241
  0
LINE
  5
567B
330
1E
100
AcDbEntity
  8
躯体と製品
  6
Continuous
 62
     4
100
AcDbLine
 10
865.7287404558701
 20
-414.6661187752125
 30
0.0
 11
865.5789144558701
 21
-414.5162957752125
 31
0.0
  0
ARC
  5
567C
330
1E
100
AcDbEntity
  8
躯体と製品
  6
Continuous
 62
     4
100
AcDbCircle
 10
865.1984094558704
 20
-415.1964497752126
 30
0.0
 40
0.75
100
AcDbArc
 50
329.9999999999995
 51
45.0
  0
LINE
  5
567D
330
1E
100
AcDbEntity
  8
躯体と製品
  6
Continuous
 62
     4
100
AcDbLine
 10
865.1215194558702
 20
-416.8296257752126
 30
0.0
 11
865.8479274558704
 21
-415.5714497752126
 31
0.0
  0
LINE
  5
567E
330
1E
100
AcDbEntity
  8
躯体と製品
  6
Continuous
 62
     4
100
AcDbLine
 10
868.4365644558704
 20
-415.5714497752126
 30
0.0
 11
869.1629724558703
 21
-416.8296257752126
 31
0.0
  0
ARC
  5
567F
330
1E
100
AcDbEntity
  8
躯体と製品
  6
Continuous
 62
     4
100
AcDbCircle
 10
869.0860824558704
 20
-415.1964497752126
 30
0.0
 40
0.75
100
AcDbArc
 50
135.0
 51
210.0000000000005
  0
LINE
  5
5680
330
1E
100
AcDbEntity
  8
躯体と製品
  6
Continuous
 62
     4
100
AcDbLine
 10
868.5557514558704
 20
-414.6661187752125
 30
0.0
 11
868.7055744558703
 21
-414.5162957752125
 31
0.0
  0
ARC
  5
5681
330
1E
100
AcDbEntity
  8
躯体と製品
  6
Continuous
 62
     4
100
AcDbCircle
 10
875.1422454558701
 20
-418.3296257752126
 30
0.0
 40
2.000001
100
AcDbArc
 50
270.0
 51
0.0
  0
ARC
  5
5682
330
1E
100
AcDbEntity
  8
躯体と製品
  6
Continuous
 62
     4
100
AcDbCircle
 10
875.1422454558701
 20
-418.3296257752126
 30
0.0
 40
0.999999
100
AcDbArc
 50
270.0
 51
0.0
  0
LINE
  5
5683
330
1E
100
AcDbEntity
  8
躯体と製品
  6
Continuous
 62
     4
100
AcDbLine
 10
870.60634745587
 20
-401.3296247752124
 30
0.0
 11
875.1422454558701
 21
-401.3296247752124
 31
0.0
  0
ARC
  5
5684
330
1E
100
AcDbEntity
  8
躯体と製品
  6
Continuous
 62
     4
100
AcDbCircle
 10
863.6781444558701
 20
-401.8296257752126
 30
0.0
 40
0.5000010000000001
100
AcDbArc
 50
329.9999999999995
 51
90.0
  0
ARC
  5
5685
330
1E
100
AcDbEntity
  8
躯体と製品
  6
Continuous
 62
     4
100
AcDbCircle
 10
870.60634745587
 20
-401.8296257752126
 30
0.0
 40
0.5000010000000001
100
AcDbArc
 50
90.0
 51
210.0000000000005
  0
LINE
  5
5686
330
1E
100
AcDbEntity
  8
躯体と製品
  6
Continuous
 62
     4
100
AcDbLine
 10
868.1526084558704
 20
-402.0796247752124
 30
0.0
 11
869.1629724558703
 21
-403.8296237752125
 31
0.0
  0
LINE
  5
5687
330
1E
100
AcDbEntity
  8
躯体と製品
  6
Continuous
 62
     4
100
AcDbLine
 10
866.6733354558703
 20
-402.0796247752124
 30
0.0
 11
868.1526084558704
 21
-402.0796247752124
 31
0.0
  0
LINE
  5
5688
330
1E
100
AcDbEntity
  8
躯体と製品
  6
Continuous
 62
     4
100
AcDbLine
 10
866.1318834558704
 20
-402.0796247752124
 30
0.0
 11
865.1215194558702
 21
-403.8296237752125
 31
0.0
  0
LINE
  5
5689
330
1E
100
AcDbEntity
  8
躯体と製品
  6
Continuous
 62
     4
100
AcDbLine
 10
866.6733354558703
 20
-402.0796247752124
 30
0.0
 11
866.1318834558704
 21
-402.0796247752124
 31
0.0
  0
ARC
  5
568A
330
1E
100
AcDbEntity
  8
躯体と製品
  6
Continuous
 62
     4
100
AcDbCircle
 10
867.1422444558702
 20
-403.8296237752125
 30
0.0
 40
3.500000999999999
100
AcDbArc
 50
319.5816519999992
 51
30.00000000000055
  0
ARC
  5
568B
330
1E
100
AcDbEntity
  8
躯体と製品
  6
Continuous
 62
     4
100
AcDbCircle
 10
867.1422444558702
 20
-403.8296237752125
 30
0.0
 40
3.500000999999999
100
AcDbArc
 50
149.9999999999994
 51
220.4183370000024
  0
LINE
  5
568C
330
1E
100
AcDbEntity
  8
躯体と製品
  6
Continuous
 62
     4
100
AcDbLine
 10
868.5557514558704
 20
-405.9931307752126
 30
0.0
 11
868.7055744558703
 21
-406.1429537752125
 31
0.0
  0
ARC
  5
568D
330
1E
100
AcDbEntity
  8
躯体と製品
  6
Continuous
 62
     4
100
AcDbCircle
 10
869.0860824558704
 20
-405.4627997752126
 30
0.0
 40
0.75
100
AcDbArc
 50
149.9999999999994
 51
225.0
  0
LINE
  5
568E
330
1E
100
AcDbEntity
  8
躯体と製品
  6
Continuous
 62
     4
100
AcDbLine
 10
869.1629724558703
 20
-403.8296237752125
 30
0.0
 11
868.4365644558704
 21
-405.0877997752126
 31
0.0
  0
ARC
  5
568F
330
1E
100
AcDbEntity
  8
躯体と製品
  6
Continuous
 62
     4
100
AcDbCircle
 10
865.0485864558701
 20
-405.6126257752125
 30
0.0
 40
0.75
100
AcDbArc
 50
220.4183339999985
 51
315.0
  0
ARC
  5
5690
330
1E
100
AcDbEntity
  8
躯体と製品
  6
Continuous
 62
     4
100
AcDbCircle
 10
869.2359054558703
 20
-405.6126257752125
 30
0.0
 40
0.75
100
AcDbArc
 50
225.0
 51
319.5816660000015
  0
LINE
  5
5691
330
1E
100
AcDbEntity
  8
躯体と製品
  6
Continuous
 62
     4
100
AcDbLine
 10
865.8479274558704
 20
-405.0877997752126
 30
0.0
 11
865.1215194558702
 21
-403.8296237752125
 31
0.0
  0
ARC
  5
5692
330
1E
100
AcDbEntity
  8
躯体と製品
  6
Continuous
 62
     4
100
AcDbCircle
 10
865.1984094558704
 20
-405.4627997752126
 30
0.0
 40
0.75
100
AcDbArc
 50
315.0
 51
30.00000000000055
  0
LINE
  5
5693
330
1E
100
AcDbEntity
  8
躯体と製品
  6
Continuous
 62
     4
100
AcDbLine
 10
865.7287404558701
 20
-405.9931307752126
 30
0.0
 11
865.5789144558701
 21
-406.1429537752125
 31
0.0
  0
ARC
  5
5694
330
1E
100
AcDbEntity
  8
躯体と製品
  6
Continuous
 62
     4
100
AcDbCircle
 10
875.1422454558701
 20
-402.3296237752125
 30
0.0
 40
0.999999
100
AcDbArc
 50
0.0
 51
90.0
  0
ARC
  5
5695
330
1E
100
AcDbEntity
  8
躯体と製品
  6
Continuous
 62
     4
100
AcDbCircle
 10
875.1422454558701
 20
-402.3296237752125
 30
0.0
 40
2.000001
100
AcDbArc
 50
0.0
 51
90.0
  0
LINE
  5
56A1
330
1E
100
AcDbEntity
  8
躯体と製品
  6
PLINE2
 62
     4
100
AcDbLine
 10
1045.14224645587
 20
-425.3296247752124
 30
0.0
 11
1075.14224645587
 21
-425.3296247752124
 31
0.0
  0
LINE
  5
56A2
330
1E
100
AcDbEntity
  8
躯体と製品
  6
PLINE2
 62
     4
100
AcDbLine
 10
1045.14224645587
 20
-395.3296247752124
 30
0.0
 11
1075.14224645587
 21
-395.3296247752124
 31
0.0
  0
LINE
  5
56A4
330
1E
100
AcDbEntity
  8
躯体と製品
  6
Continuous
 62
     4
100
AcDbLine
 10
985.14224645587
 20
-418.3296257752126
 30
0.0
 11
985.14224645587
 21
-402.3296237752125
 31
0.0
  0
LINE
  5
56A5
330
1E
100
AcDbEntity
  8
躯体と製品
  6
Continuous
 62
     4
100
AcDbLine
 10
966.1422444558702
 20
-418.3296257752126
 30
0.0
 11
966.1422444558702
 21
-402.3296237752125
 31
0.0
  0
LINE
  5
56A6
330
1E
100
AcDbEntity
  8
躯体と製品
  6
Continuous
 62
     4
100
AcDbLine
 10
986.1422454558701
 20
-418.3296257752126
 30
0.0
 11
986.1422454558701
 21
-402.3296237752125
 31
0.0
  0
LINE
  5
56A7
330
1E
100
AcDbEntity
  8
躯体と製品
  6
Continuous
 62
     4
100
AcDbLine
 10
967.14224645587
 20
-410.3296247752124
 30
0.0
 11
967.14224645587
 21
-418.3296257752126
 31
0.0
  0
LINE
  5
56A8
330
1E
100
AcDbEntity
  8
躯体と製品
  6
PLINE3
 62
     3
100
AcDbLine
 10
976.14224645587
 20
-397.3296257752127
 30
0.0
 11
976.14224645587
 21
-423.3296237752125
 31
0.0
  0
ARC
  5
56A9
330
1E
100
AcDbEntity
  8
躯体と製品
  6
Continuous
 62
     4
100
AcDbCircle
 10
978.2359044558701
 20
-415.0466237752126
 30
0.0
 40
0.75
100
AcDbArc
 50
40.41833399999847
 51
135.0
  0
ARC
  5
56AA
330
1E
100
AcDbEntity
  8
躯体と製品
  6
Continuous
 62
     4
100
AcDbCircle
 10
974.0485854558702
 20
-415.0466237752126
 30
0.0
 40
0.75
100
AcDbArc
 50
45.0
 51
139.5816660000015
  0
LINE
  5
56AB
330
1E
100
AcDbEntity
  8
躯体と製品
  6
Continuous
 62
     4
100
AcDbLine
 10
985.14224645587
 20
-415.3296257752126
 30
0.0
 11
985.14224645587
 21
-404.3296247752124
 31
0.0
  0
LINE
  5
56AC
330
1E
100
AcDbEntity
  8
躯体と製品
  6
Continuous
 62
     4
100
AcDbLine
 10
984.1422444558702
 20
-420.3296237752125
 30
0.0
 11
968.1422454558701
 21
-420.3296237752125
 31
0.0
  0
LINE
  5
56AD
330
1E
100
AcDbEntity
  8
躯体と製品
  6
Continuous
 62
     4
100
AcDbLine
 10
977.1526074558702
 20
-418.5796247752124
 30
0.0
 11
978.16297145587
 21
-416.8296257752126
 31
0.0
  0
ARC
  5
56AE
330
1E
100
AcDbEntity
  8
躯体と製品
  6
Continuous
 62
     4
100
AcDbCircle
 10
968.1422454558701
 20
-418.3296257752126
 30
0.0
 40
2.000001
100
AcDbArc
 50
180.0
 51
270.0
  0
LINE
  5
56AF
330
1E
100
AcDbEntity
  8
躯体と製品
  6
Continuous
 62
     4
100
AcDbLine
 10
972.6781434558702
 20
-419.3296247752124
 30
0.0
 11
968.1422454558701
 21
-419.3296247752124
 31
0.0
  0
ARC
  5
56B0
330
1E
100
AcDbEntity
  8
躯体と製品
  6
Continuous
 62
     4
100
AcDbCircle
 10
968.1422454558701
 20
-418.3296257752126
 30
0.0
 40
0.999999
100
AcDbArc
 50
180.0
 51
270.0
  0
ARC
  5
56B1
330
1E
100
AcDbEntity
  8
躯体と製品
  6
Continuous
 62
     4
100
AcDbCircle
 10
972.6781434558702
 20
-418.8296237752125
 30
0.0
 40
0.5000010000000001
100
AcDbArc
 50
270.0
 51
30.00000000000055
  0
LINE
  5
56B2
330
1E
100
AcDbEntity
  8
躯体と製品
  6
Continuous
 62
     4
100
AcDbLine
 10
975.1318824558705
 20
-418.5796247752124
 30
0.0
 11
974.1215184558702
 21
-416.8296257752126
 31
0.0
  0
LINE
  5
56B3
330
1E
100
AcDbEntity
  8
躯体と製品
  6
Continuous
 62
     4
100
AcDbLine
 10
976.6111554558699
 20
-418.5796247752124
 30
0.0
 11
975.1318824558705
 21
-418.5796247752124
 31
0.0
  0
LINE
  5
56B4
330
1E
100
AcDbEntity
  8
躯体と製品
  6
Continuous
 62
     4
100
AcDbLine
 10
976.6111554558699
 20
-418.5796247752124
 30
0.0
 11
977.1526074558702
 21
-418.5796247752124
 31
0.0
  0
ARC
  5
56B5
330
1E
100
AcDbEntity
  8
躯体と製品
  6
Continuous
 62
     4
100
AcDbCircle
 10
976.14224645587
 20
-416.8296257752126
 30
0.0
 40
3.500000999999999
100
AcDbArc
 50
139.5816519999992
 51
210.0000020000023
  0
LINE
  5
56B6
330
1E
100
AcDbEntity
  8
躯体と製品
  6
Continuous
 62
     4
100
AcDbLine
 10
974.7287394558702
 20
-414.6661187752125
 30
0.0
 11
974.5789164558702
 21
-414.5162957752125
 31
0.0
  0
ARC
  5
56B7
330
1E
100
AcDbEntity
  8
躯体と製品
  6
Continuous
 62
     4
100
AcDbCircle
 10
974.1984084558701
 20
-415.1964497752126
 30
0.0
 40
0.75
100
AcDbArc
 50
329.9999999999995
 51
45.0
  0
LINE
  5
56B8
330
1E
100
AcDbEntity
  8
躯体と製品
  6
Continuous
 62
     4
100
AcDbLine
 10
974.1215184558702
 20
-416.8296257752126
 30
0.0
 11
974.8479294558702
 21
-415.5714497752126
 31
0.0
  0
ARC
  5
56B9
330
1E
100
AcDbEntity
  8
躯体と製品
  6
Continuous
 62
     4
100
AcDbCircle
 10
984.1422444558702
 20
-418.3296257752126
 30
0.0
 40
2.000001
100
AcDbArc
 50
270.0
 51
0.0
  0
LINE
  5
56BA
330
1E
100
AcDbEntity
  8
躯体と製品
  6
Continuous
 62
     4
100
AcDbLine
 10
979.6063464558701
 20
-419.3296247752124
 30
0.0
 11
984.1422444558702
 21
-419.3296247752124
 31
0.0
  0
ARC
  5
56BB
330
1E
100
AcDbEntity
  8
躯体と製品
  6
Continuous
 62
     4
100
AcDbCircle
 10
984.1422444558702
 20
-418.3296257752126
 30
0.0
 40
0.999999
100
AcDbArc
 50
270.0
 51
0.0
  0
ARC
  5
56BC
330
1E
100
AcDbEntity
  8
躯体と製品
  6
Continuous
 62
     4
100
AcDbCircle
 10
979.6063464558701
 20
-418.8296237752125
 30
0.0
 40
0.5000010000000001
100
AcDbArc
 50
149.9999999999994
 51
270.0
  0
ARC
  5
56BD
330
1E
100
AcDbEntity
  8
躯体と製品
  6
Continuous
 62
     4
100
AcDbCircle
 10
976.14224645587
 20
-416.8296257752126
 30
0.0
 40
3.500000999999999
100
AcDbArc
 50
329.9999999999995
 51
40.41833700000241
  0
LINE
  5
56BE
330
1E
100
AcDbEntity
  8
躯体と製品
  6
Continuous
 62
     4
100
AcDbLine
 10
977.4365634558701
 20
-415.5714497752126
 30
0.0
 11
978.16297145587
 21
-416.8296257752126
 31
0.0
  0
ARC
  5
56BF
330
1E
100
AcDbEntity
  8
躯体と製品
  6
Continuous
 62
     4
100
AcDbCircle
 10
978.0860814558705
 20
-415.1964497752126
 30
0.0
 40
0.75
100
AcDbArc
 50
135.0
 51
210.0000000000005
  0
LINE
  5
56C0
330
1E
100
AcDbEntity
  8
躯体と製品
  6
Continuous
 62
     4
100
AcDbLine
 10
977.5557534558704
 20
-414.6661187752125
 30
0.0
 11
977.7055764558705
 21
-414.5162957752125
 31
0.0
  0
LINE
  5
56C1
330
1E
100
AcDbEntity
  8
躯体と製品
  6
Continuous
 62
     4
100
AcDbLine
 10
968.1422454558701
 20
-400.3296257752126
 30
0.0
 11
984.1422444558702
 21
-400.3296257752126
 31
0.0
  0
LINE
  5
56C2
330
1E
100
AcDbEntity
  8
躯体と製品
  6
Continuous
 62
     4
100
AcDbLine
 10
977.1526074558702
 20
-402.0796247752124
 30
0.0
 11
978.16297145587
 21
-403.8296237752125
 31
0.0
  0
ARC
  5
56C3
330
1E
100
AcDbEntity
  8
躯体と製品
  6
Continuous
 62
     4
100
AcDbCircle
 10
968.1422454558701
 20
-402.3296237752125
 30
0.0
 40
2.000001
100
AcDbArc
 50
90.0
 51
180.0
  0
LINE
  5
56C4
330
1E
100
AcDbEntity
  8
躯体と製品
  6
Continuous
 62
     4
100
AcDbLine
 10
972.6781434558702
 20
-401.3296247752124
 30
0.0
 11
968.1422454558701
 21
-401.3296247752124
 31
0.0
  0
ARC
  5
56C5
330
1E
100
AcDbEntity
  8
躯体と製品
  6
Continuous
 62
     4
100
AcDbCircle
 10
968.1422454558701
 20
-402.3296237752125
 30
0.0
 40
0.999999
100
AcDbArc
 50
90.0
 51
180.0
  0
LINE
  5
56C6
330
1E
100
AcDbEntity
  8
躯体と製品
  6
Continuous
 62
     4
100
AcDbLine
 10
967.14224645587
 20
-410.3296247752124
 30
0.0
 11
967.14224645587
 21
-402.3296237752125
 31
0.0
  0
ARC
  5
56C7
330
1E
100
AcDbEntity
  8
躯体と製品
  6
Continuous
 62
     4
100
AcDbCircle
 10
972.6781434558702
 20
-401.8296257752126
 30
0.0
 40
0.5000010000000001
100
AcDbArc
 50
329.9999999999995
 51
90.0
  0
LINE
  5
56C8
330
1E
100
AcDbEntity
  8
躯体と製品
  6
Continuous
 62
     4
100
AcDbLine
 10
975.6733344558703
 20
-402.0796247752124
 30
0.0
 11
977.1526074558702
 21
-402.0796247752124
 31
0.0
  0
LINE
  5
56C9
330
1E
100
AcDbEntity
  8
躯体と製品
  6
Continuous
 62
     4
100
AcDbLine
 10
975.1318824558705
 20
-402.0796247752124
 30
0.0
 11
974.1215184558702
 21
-403.8296237752125
 31
0.0
  0
LINE
  5
56CA
330
1E
100
AcDbEntity
  8
躯体と製品
  6
Continuous
 62
     4
100
AcDbLine
 10
975.6733344558703
 20
-402.0796247752124
 30
0.0
 11
975.1318824558705
 21
-402.0796247752124
 31
0.0
  0
ARC
  5
56CB
330
1E
100
AcDbEntity
  8
躯体と製品
  6
Continuous
 62
     4
100
AcDbCircle
 10
976.14224645587
 20
-403.8296237752125
 30
0.0
 40
3.500000999999999
100
AcDbArc
 50
149.9999999999994
 51
220.4183370000024
  0
ARC
  5
56CC
330
1E
100
AcDbEntity
  8
躯体と製品
  6
Continuous
 62
     4
100
AcDbCircle
 10
974.0485854558702
 20
-405.6126257752125
 30
0.0
 40
0.75
100
AcDbArc
 50
220.4183339999985
 51
315.0
  0
LINE
  5
56CD
330
1E
100
AcDbEntity
  8
躯体と製品
  6
Continuous
 62
     4
100
AcDbLine
 10
974.8479294558702
 20
-405.0877997752126
 30
0.0
 11
974.1215184558702
 21
-403.8296237752125
 31
0.0
  0
ARC
  5
56CE
330
1E
100
AcDbEntity
  8
躯体と製品
  6
Continuous
 62
     4
100
AcDbCircle
 10
974.1984084558701
 20
-405.4627997752126
 30
0.0
 40
0.75
100
AcDbArc
 50
315.0
 51
30.00000000000055
  0
LINE
  5
56CF
330
1E
100
AcDbEntity
  8
躯体と製品
  6
Continuous
 62
     4
100
AcDbLine
 10
974.7287394558702
 20
-405.9931307752126
 30
0.0
 11
974.5789164558702
 21
-406.1429537752125
 31
0.0
  0
LINE
  5
56D0
330
1E
100
AcDbEntity
  8
躯体と製品
  6
Continuous
 62
     4
100
AcDbLine
 10
979.6063464558701
 20
-401.3296247752124
 30
0.0
 11
984.1422444558702
 21
-401.3296247752124
 31
0.0
  0
ARC
  5
56D1
330
1E
100
AcDbEntity
  8
躯体と製品
  6
Continuous
 62
     4
100
AcDbCircle
 10
984.1422444558702
 20
-402.3296237752125
 30
0.0
 40
0.999999
100
AcDbArc
 50
0.0
 51
90.0
  0
ARC
  5
56D2
330
1E
100
AcDbEntity
  8
躯体と製品
  6
Continuous
 62
     4
100
AcDbCircle
 10
984.1422444558702
 20
-402.3296237752125
 30
0.0
 40
2.000001
100
AcDbArc
 50
0.0
 51
90.0
  0
ARC
  5
56D3
330
1E
100
AcDbEntity
  8
躯体と製品
  6
Continuous
 62
     4
100
AcDbCircle
 10
979.6063464558701
 20
-401.8296257752126
 30
0.0
 40
0.5000010000000001
100
AcDbArc
 50
90.0
 51
210.0000000000005
  0
ARC
  5
56D4
330
1E
100
AcDbEntity
  8
躯体と製品
  6
Continuous
 62
     4
100
AcDbCircle
 10
976.14224645587
 20
-403.8296237752125
 30
0.0
 40
3.500000999999999
100
AcDbArc
 50
319.5816519999992
 51
30.00000000000055
  0
LINE
  5
56D5
330
1E
100
AcDbEntity
  8
躯体と製品
  6
Continuous
 62
     4
100
AcDbLine
 10
977.5557534558704
 20
-405.9931307752126
 30
0.0
 11
977.7055764558705
 21
-406.1429537752125
 31
0.0
  0
ARC
  5
56D6
330
1E
100
AcDbEntity
  8
躯体と製品
  6
Continuous
 62
     4
100
AcDbCircle
 10
978.0860814558705
 20
-405.4627997752126
 30
0.0
 40
0.75
100
AcDbArc
 50
149.9999999999994
 51
225.0
  0
LINE
  5
56D7
330
1E
100
AcDbEntity
  8
躯体と製品
  6
Continuous
 62
     4
100
AcDbLine
 10
978.16297145587
 20
-403.8296237752125
 30
0.0
 11
977.4365634558701
 21
-405.0877997752126
 31
0.0
  0
ARC
  5
56D8
330
1E
100
AcDbEntity
  8
躯体と製品
  6
Continuous
 62
     4
100
AcDbCircle
 10
978.2359044558701
 20
-405.6126257752125
 30
0.0
 40
0.75
100
AcDbArc
 50
225.0
 51
319.5816660000015
  0
LINE
  5
56D9
330
1E
100
AcDbEntity
  8
躯体と製品
  6
PLINE2
 62
     4
100
AcDbLine
 10
1045.14224645587
 20
-395.3296247752124
 30
0.0
 11
1045.14224645587
 21
-425.3296247752124
 31
0.0
  0
LINE
  5
56E3
330
1E
100
AcDbEntity
  8
躯体と製品
  6
PLINE3
 62
     3
100
AcDbLine
 10
1100.14224545587
 20
-376.4704727752128
 30
0.0
 11
1100.14224545587
 21
-445.6134197752127
 31
0.0
  0
ARC
  5
56E6
330
1E
100
AcDbEntity
  8
躯体と製品
  6
Continuous
 62
     4
100
AcDbCircle
 10
1091.84224445587
 20
-388.6296257752127
 30
0.0
 40
1.5
100
AcDbArc
 50
90.0
 51
180.0
  0
LINE
  5
56E7
330
1E
100
AcDbEntity
  8
躯体と製品
  6
Continuous
 62
     4
100
AcDbLine
 10
1077.14224445587
 20
-385.3296257752127
 30
0.0
 11
1123.14224645587
 21
-385.3296257752127
 31
0.0
  0
LINE
  5
56E8
330
1E
100
AcDbEntity
  8
躯体と製品
  6
Continuous
 62
     4
100
AcDbLine
 10
1090.81656245587
 20
-429.8296247752124
 30
0.0
 11
1091.83714745587
 21
-429.8296247752124
 31
0.0
  0
LINE
  5
56E9
330
1E
100
AcDbEntity
  8
躯体と製品
  6
Continuous
 62
     4
100
AcDbLine
 10
1123.14224645587
 20
-435.3296237752125
 30
0.0
 11
1077.14224445587
 21
-435.3296237752125
 31
0.0
  0
LINE
  5
56EA
330
1E
100
AcDbEntity
  8
躯体と製品
  6
PLINE3
 62
     3
100
AcDbLine
 10
1055.14224545587
 20
-420.3296237752125
 30
0.0
 11
1055.14224545587
 21
-400.3296257752126
 31
0.0
  0
LINE
  5
56EB
330
1E
100
AcDbEntity
  8
躯体と製品
  6
Continuous
 62
     4
100
AcDbLine
 10
1075.14224645587
 20
-387.3296237752126
 30
0.0
 11
1075.14224645587
 21
-433.3296257752127
 31
0.0
  0
LINE
  5
56EC
330
1E
100
AcDbEntity
  8
躯体と製品
  6
Continuous
 62
     4
100
AcDbLine
 10
1076.64224645587
 20
-418.1574797752124
 30
0.0
 11
1076.64224645587
 21
-403.3061177752126
 31
0.0
  0
LINE
  5
56ED
330
1E
100
AcDbEntity
  8
躯体と製品
  6
Continuous
 62
     4
100
AcDbLine
 10
1076.64224645587
 20
-432.5296247752127
 30
0.0
 11
1076.64224645587
 21
-424.5017687752125
 31
0.0
  0
ARC
  5
56EE
330
1E
100
AcDbEntity
  8
躯体と製品
  6
Continuous
 62
     4
100
AcDbCircle
 10
1089.14224445587
 20
-431.3296247752124
 30
0.0
 40
3.249999
100
AcDbArc
 50
155.9973000000027
 51
206.9577489999983
  0
LINE
  5
56EF
330
1E
100
AcDbEntity
  8
躯体と製品
  6
Continuous
 62
     4
100
AcDbLine
 10
1087.72773845587
 20
-430.2796247752127
 30
0.0
 11
1087.12151945587
 21
-431.3296247752124
 31
0.0
  0
LINE
  5
56F0
330
1E
100
AcDbEntity
  8
躯体と製品
  6
Continuous
 62
     4
100
AcDbLine
 10
1090.55675345587
 20
-430.2796247752127
 30
0.0
 11
1091.16297245587
 21
-431.3296247752124
 31
0.0
  0
LINE
  5
56F1
330
1E
100
AcDbEntity
  8
躯体と製品
  6
Continuous
 62
     4
100
AcDbLine
 10
1077.64224545587
 20
-433.5296237752125
 30
0.0
 11
1085.79971645587
 21
-433.5296237752125
 31
0.0
  0
ARC
  5
56F2
330
1E
100
AcDbEntity
  8
躯体と製品
  6
Continuous
 62
     4
100
AcDbCircle
 10
1077.14224445587
 20
-433.3296257752127
 30
0.0
 40
2.000001
100
AcDbArc
 50
180.0
 51
270.0
  0
ARC
  5
56F3
330
1E
100
AcDbEntity
  8
躯体と製品
  6
Continuous
 62
     4
100
AcDbCircle
 10
1077.64224545587
 20
-432.5296247752127
 30
0.0
 40
0.999999
100
AcDbArc
 50
180.0
 51
270.0
  0
ARC
  5
56F4
330
1E
100
AcDbEntity
  8
躯体と製品
  6
Continuous
 62
     4
100
AcDbCircle
 10
1085.79971645587
 20
-433.0296257752126
 30
0.0
 40
0.5000010000000001
100
AcDbArc
 50
270.0
 51
26.95774899999833
  0
LINE
  5
56F5
330
1E
100
AcDbEntity
  8
躯体と製品
  6
Continuous
 62
     4
100
AcDbLine
 10
1091.16297245587
 20
-431.3296247752124
 30
0.0
 11
1090.15260845587
 21
-433.0796237752125
 31
0.0
  0
LINE
  5
56F6
330
1E
100
AcDbEntity
  8
躯体と製品
  6
Continuous
 62
     4
100
AcDbLine
 10
1088.13188345587
 20
-433.0796237752125
 30
0.0
 11
1087.12151945587
 21
-431.3296247752124
 31
0.0
  0
LINE
  5
56F7
330
1E
100
AcDbEntity
  8
躯体と製品
  6
Continuous
 62
     4
100
AcDbLine
 10
1090.15260845587
 20
-433.0796237752125
 30
0.0
 11
1088.13188345587
 21
-433.0796237752125
 31
0.0
  0
ARC
  5
56F8
330
1E
100
AcDbEntity
  8
躯体と製品
  6
Continuous
 62
     4
100
AcDbCircle
 10
1079.14224545587
 20
-421.3296257752126
 30
0.0
 40
3.249999
100
AcDbArc
 50
237.7690500000012
 51
294.0026980000013
  0
ARC
  5
56F9
330
1E
100
AcDbEntity
  8
躯体と製品
  6
Continuous
 62
     4
100
AcDbCircle
 10
1079.14224545587
 20
-421.3296257752126
 30
0.0
 40
3.249999
100
AcDbArc
 50
65.99729899999878
 51
122.230960000001
  0
LINE
  5
56FA
330
1E
100
AcDbEntity
  8
躯体と製品
  6
Continuous
 62
     4
100
AcDbLine
 10
1080.19224545587
 20
-419.9151167752127
 30
0.0
 11
1079.14224545587
 21
-419.3088977752125
 31
0.0
  0
LINE
  5
56FB
330
1E
100
AcDbEntity
  8
躯体と製品
  6
Continuous
 62
     4
100
AcDbLine
 10
1080.19224545587
 20
-422.7441317752126
 30
0.0
 11
1079.14224545587
 21
-423.3503507752127
 31
0.0
  0
LINE
  5
56FC
330
1E
100
AcDbEntity
  8
躯体と製品
  6
Continuous
 62
     4
100
AcDbLine
 10
1079.14224545587
 20
-419.3088977752125
 30
0.0
 11
1077.39224645587
 21
-420.3192617752124
 31
0.0
  0
LINE
  5
56FD
330
1E
100
AcDbEntity
  8
躯体と製品
  6
Continuous
 62
     4
100
AcDbLine
 10
1077.39224645587
 20
-422.3399867752125
 30
0.0
 11
1079.14224545587
 21
-423.3503507752127
 31
0.0
  0
LINE
  5
56FE
330
1E
100
AcDbEntity
  8
躯体と製品
  6
Continuous
 62
     4
100
AcDbLine
 10
1077.39224645587
 20
-420.3192617752124
 30
0.0
 11
1077.39224645587
 21
-422.3399867752125
 31
0.0
  0
ARC
  5
56FF
330
1E
100
AcDbEntity
  8
躯体と製品
  6
Continuous
 62
     4
100
AcDbCircle
 10
1077.14224445587
 20
-424.5017687752125
 30
0.0
 40
0.5000010000000001
100
AcDbArc
 50
57.76904700000256
 51
180.0
  0
ARC
  5
5700
330
1E
100
AcDbEntity
  8
躯体と製品
  6
Continuous
 62
     4
100
AcDbCircle
 10
1077.14224445587
 20
-418.1574797752124
 30
0.0
 40
0.5000010000000001
100
AcDbArc
 50
180.0
 51
302.2309529999974
  0
ARC
  5
5701
330
1E
100
AcDbEntity
  8
躯体と製品
  6
Continuous
 62
     4
100
AcDbCircle
 10
1080.34224545587
 20
-418.6347227752125
 30
0.0
 40
0.3
100
AcDbArc
 50
0.0
 51
65.99730199999877
  0
ARC
  5
5702
330
1E
100
AcDbEntity
  8
躯体と製品
  6
Continuous
 62
     4
100
AcDbCircle
 10
1080.34224545587
 20
-424.0245287752125
 30
0.0
 40
0.3
100
AcDbArc
 50
294.0026980000013
 51
0.0
  0
ARC
  5
5703
330
1E
100
AcDbEntity
  8
躯体と製品
  6
Continuous
 62
     4
100
AcDbCircle
 10
1080.34224545587
 20
-419.6553077752124
 30
0.0
 40
0.3
100
AcDbArc
 50
239.9999999999995
 51
0.0
  0
LINE
  5
5704
330
1E
100
AcDbEntity
  8
躯体と製品
  6
Continuous
 62
     4
100
AcDbLine
 10
1080.64224545587
 20
-419.6553077752124
 30
0.0
 11
1080.64224545587
 21
-418.6347227752125
 31
0.0
  0
LINE
  5
5705
330
1E
100
AcDbEntity
  8
躯体と製品
  6
Continuous
 62
     4
100
AcDbLine
 10
1080.64224545587
 20
-423.0039407752125
 30
0.0
 11
1080.64224545587
 21
-424.0245287752125
 31
0.0
  0
ARC
  5
5706
330
1E
100
AcDbEntity
  8
躯体と製品
  6
Continuous
 62
     4
100
AcDbCircle
 10
1080.34224545587
 20
-423.0039407752125
 30
0.0
 40
0.3
100
AcDbArc
 50
0.0
 51
120.0000000000005
  0
ARC
  5
5707
330
1E
100
AcDbEntity
  8
躯体と製品
  6
Continuous
 62
     4
100
AcDbCircle
 10
1086.44734445587
 20
-430.1296247752125
 30
0.0
 40
0.3
100
AcDbArc
 50
90.0
 51
155.9973019999987
  0
ARC
  5
5708
330
1E
100
AcDbEntity
  8
躯体と製品
  6
Continuous
 62
     4
100
AcDbCircle
 10
1087.46792945587
 20
-430.1296247752125
 30
0.0
 40
0.3
100
AcDbArc
 50
329.9999999999995
 51
90.0
  0
LINE
  5
5709
330
1E
100
AcDbEntity
  8
躯体と製品
  6
Continuous
 62
     4
100
AcDbLine
 10
1087.46792945587
 20
-429.8296247752124
 30
0.0
 11
1086.44734445587
 21
-429.8296247752124
 31
0.0
  0
ARC
  5
570A
330
1E
100
AcDbEntity
  8
躯体と製品
  6
Continuous
 62
     4
100
AcDbCircle
 10
1090.81656245587
 20
-430.1296247752125
 30
0.0
 40
0.3
100
AcDbArc
 50
90.0
 51
210.0000000000005
  0
CIRCLE
  5
570B
330
1E
100
AcDbEntity
  8
躯体と製品
  6
Continuous
 62
     3
100
AcDbCircle
 10
1055.14224545587
 20
-410.3296247752124
 30
0.0
 40
3.499824
  0
LINE
  5
570C
330
1E
100
AcDbEntity
  8
躯体と製品
  6
Continuous
 62
     3
100
AcDbLine
 10
1054.64227145587
 20
-412.3795217752125
 30
0.0
 11
1055.64221945587
 21
-412.3795217752125
 31
0.0
  0
LINE
  5
570D
330
1E
100
AcDbEntity
  8
躯体と製品
  6
Continuous
 62
     3
100
AcDbLine
 10
1057.19214245587
 20
-410.8295987752127
 30
0.0
 11
1057.19214245587
 21
-409.8296507752125
 31
0.0
  0
LINE
  5
570E
330
1E
100
AcDbEntity
  8
躯体と製品
  6
Continuous
 62
     3
100
AcDbLine
 10
1055.64221945587
 20
-408.2797277752126
 30
0.0
 11
1054.64227145587
 21
-408.2797277752126
 31
0.0
  0
LINE
  5
570F
330
1E
100
AcDbEntity
  8
躯体と製品
  6
Continuous
 62
     3
100
AcDbLine
 10
1053.09234845587
 20
-409.8296507752125
 30
0.0
 11
1053.09234845587
 21
-410.8295987752127
 31
0.0
  0
LINE
  5
5710
330
1E
100
AcDbEntity
  8
躯体と製品
  6
Continuous
 62
     3
100
AcDbLine
 10
1055.86699445587
 20
-409.6048757752124
 30
0.0
 11
1056.33836945587
 21
-409.8147467752125
 31
0.0
  0
LINE
  5
5711
330
1E
100
AcDbEntity
  8
躯体と製品
  6
Continuous
 62
     3
100
AcDbLine
 10
1057.19214245587
 20
-409.8296507752125
 30
0.0
 11
1056.33836945587
 21
-409.8147467752125
 31
0.0
  0
LINE
  5
5712
330
1E
100
AcDbEntity
  8
躯体と製品
  6
Continuous
 62
     3
100
AcDbLine
 10
1055.86699445587
 20
-409.6048757752124
 30
0.0
 11
1055.65712345587
 21
-409.1335007752125
 31
0.0
  0
LINE
  5
5713
330
1E
100
AcDbEntity
  8
躯体と製品
  6
Continuous
 62
     3
100
AcDbLine
 10
1057.19214245587
 20
-410.8295987752127
 30
0.0
 11
1056.33836945587
 21
-410.8445027752126
 31
0.0
  0
LINE
  5
5714
330
1E
100
AcDbEntity
  8
躯体と製品
  6
Continuous
 62
     3
100
AcDbLine
 10
1056.33836945587
 20
-410.8445027752126
 30
0.0
 11
1055.86699445587
 21
-411.0543737752127
 31
0.0
  0
LINE
  5
5715
330
1E
100
AcDbEntity
  8
躯体と製品
  6
Continuous
 62
     3
100
AcDbLine
 10
1055.86699445587
 20
-411.0543737752127
 30
0.0
 11
1055.65712345587
 21
-411.5257487752126
 31
0.0
  0
LINE
  5
5716
330
1E
100
AcDbEntity
  8
躯体と製品
  6
Continuous
 62
     3
100
AcDbLine
 10
1055.65712345587
 20
-411.5257487752126
 30
0.0
 11
1055.64221945587
 21
-412.3795217752125
 31
0.0
  0
LINE
  5
5717
330
1E
100
AcDbEntity
  8
躯体と製品
  6
Continuous
 62
     3
100
AcDbLine
 10
1054.64227145587
 20
-412.3795217752125
 30
0.0
 11
1054.62736745587
 21
-411.5257487752126
 31
0.0
  0
LINE
  5
5718
330
1E
100
AcDbEntity
  8
躯体と製品
  6
Continuous
 62
     3
100
AcDbLine
 10
1054.62736745587
 20
-411.5257487752126
 30
0.0
 11
1054.41749645587
 21
-411.0543737752127
 31
0.0
  0
LINE
  5
5719
330
1E
100
AcDbEntity
  8
躯体と製品
  6
Continuous
 62
     3
100
AcDbLine
 10
1054.41749645587
 20
-411.0543737752127
 30
0.0
 11
1053.94612145587
 21
-410.8445027752126
 31
0.0
  0
LINE
  5
571A
330
1E
100
AcDbEntity
  8
躯体と製品
  6
Continuous
 62
     3
100
AcDbLine
 10
1053.94612145587
 20
-410.8445027752126
 30
0.0
 11
1053.09234845587
 21
-410.8295987752127
 31
0.0
  0
LINE
  5
571B
330
1E
100
AcDbEntity
  8
躯体と製品
  6
Continuous
 62
     3
100
AcDbLine
 10
1053.09234845587
 20
-409.8296507752125
 30
0.0
 11
1053.94612145587
 21
-409.8147467752125
 31
0.0
  0
LINE
  5
571C
330
1E
100
AcDbEntity
  8
躯体と製品
  6
Continuous
 62
     3
100
AcDbLine
 10
1053.94612145587
 20
-409.8147467752125
 30
0.0
 11
1054.41749645587
 21
-409.6048757752124
 31
0.0
  0
LINE
  5
571D
330
1E
100
AcDbEntity
  8
躯体と製品
  6
Continuous
 62
     3
100
AcDbLine
 10
1054.41749645587
 20
-409.6048757752124
 30
0.0
 11
1054.62736745587
 21
-409.1335007752125
 31
0.0
  0
LINE
  5
571E
330
1E
100
AcDbEntity
  8
躯体と製品
  6
Continuous
 62
     3
100
AcDbLine
 10
1054.62736745587
 20
-409.1335007752125
 30
0.0
 11
1054.64227145587
 21
-408.2797277752126
 31
0.0
  0
LINE
  5
571F
330
1E
100
AcDbEntity
  8
躯体と製品
  6
Continuous
 62
     3
100
AcDbLine
 10
1055.65712345587
 20
-409.1335007752125
 30
0.0
 11
1055.64221945587
 21
-408.2797277752126
 31
0.0
  0
LINE
  5
5720
330
1E
100
AcDbEntity
  8
躯体と製品
  6
Continuous
 62
     4
100
AcDbLine
 10
1077.39224645587
 20
-398.3192627752127
 30
0.0
 11
1077.39224645587
 21
-400.3399877752124
 31
0.0
  0
ARC
  5
5721
330
1E
100
AcDbEntity
  8
躯体と製品
  6
Continuous
 62
     4
100
AcDbCircle
 10
1079.14224545587
 20
-399.3296237752126
 30
0.0
 40
3.249999
100
AcDbArc
 50
237.7690540000007
 51
294.0026989999992
  0
LINE
  5
5722
330
1E
100
AcDbEntity
  8
躯体と製品
  6
Continuous
 62
     4
100
AcDbLine
 10
1080.19224545587
 20
-400.7441327752125
 30
0.0
 11
1079.14224545587
 21
-401.3503517752126
 31
0.0
  0
LINE
  5
5723
330
1E
100
AcDbEntity
  8
躯体と製品
  6
Continuous
 62
     4
100
AcDbLine
 10
1076.64224645587
 20
-402.5017697752128
 30
0.0
 11
1076.64224645587
 21
-403.3061177752126
 31
0.0
  0
ARC
  5
5724
330
1E
100
AcDbEntity
  8
躯体と製品
  6
Continuous
 62
     4
100
AcDbCircle
 10
1077.14224445587
 20
-402.5017697752128
 30
0.0
 40
0.5000010000000001
100
AcDbArc
 50
57.76904700000256
 51
180.0
  0
ARC
  5
5725
330
1E
100
AcDbEntity
  8
躯体と製品
  6
Continuous
 62
     4
100
AcDbCircle
 10
1077.14224445587
 20
-402.5017697752128
 30
0.0
 40
0.5000010000000001
100
AcDbArc
 50
57.76904700000256
 51
180.0
  0
LINE
  5
5726
330
1E
100
AcDbEntity
  8
躯体と製品
  6
Continuous
 62
     4
100
AcDbLine
 10
1077.39224645587
 20
-400.3399877752124
 30
0.0
 11
1079.14224545587
 21
-401.3503517752126
 31
0.0
  0
ARC
  5
5727
330
1E
100
AcDbEntity
  8
躯体と製品
  6
Continuous
 62
     4
100
AcDbCircle
 10
1080.34224545587
 20
-402.0245267752127
 30
0.0
 40
0.3
100
AcDbArc
 50
294.0026980000013
 51
0.0
  0
LINE
  5
5728
330
1E
100
AcDbEntity
  8
躯体と製品
  6
Continuous
 62
     4
100
AcDbLine
 10
1080.64224545587
 20
-401.0039417752127
 30
0.0
 11
1080.64224545587
 21
-402.0245267752127
 31
0.0
  0
ARC
  5
5729
330
1E
100
AcDbEntity
  8
躯体と製品
  6
Continuous
 62
     4
100
AcDbCircle
 10
1080.34224545587
 20
-401.0039417752127
 30
0.0
 40
0.3
100
AcDbArc
 50
0.0
 51
120.0000000000005
  0
ARC
  5
572A
330
1E
100
AcDbEntity
  8
躯体と製品
  6
Continuous
 62
     4
100
AcDbCircle
 10
1079.14224545587
 20
-399.3296237752126
 30
0.0
 40
3.249999
100
AcDbArc
 50
65.99730199999877
 51
122.2309610000017
  0
LINE
  5
572B
330
1E
100
AcDbEntity
  8
躯体と製品
  6
Continuous
 62
     4
100
AcDbLine
 10
1080.19224545587
 20
-397.9151177752126
 30
0.0
 11
1079.14224545587
 21
-397.3088987752125
 31
0.0
  0
LINE
  5
572C
330
1E
100
AcDbEntity
  8
躯体と製品
  6
Continuous
 62
     4
100
AcDbLine
 10
1077.64224545587
 20
-387.1296257752127
 30
0.0
 11
1088.64224645587
 21
-387.1296257752127
 31
0.0
  0
LINE
  5
572D
330
1E
100
AcDbEntity
  8
躯体と製品
  6
Continuous
 62
     4
100
AcDbLine
 10
1076.64224645587
 20
-396.3296237752126
 30
0.0
 11
1076.64224645587
 21
-395.3531327752128
 31
0.0
  0
ARC
  5
572E
330
1E
100
AcDbEntity
  8
躯体と製品
  6
Continuous
 62
     4
100
AcDbCircle
 10
1077.14224445587
 20
-396.1574807752127
 30
0.0
 40
0.5000010000000001
100
AcDbArc
 50
180.0
 51
302.2309529999974
  0
ARC
  5
572F
330
1E
100
AcDbEntity
  8
躯体と製品
  6
Continuous
 62
     4
100
AcDbCircle
 10
1077.14224445587
 20
-387.3296237752126
 30
0.0
 40
2.000001
100
AcDbArc
 50
90.0
 51
180.0
  0
LINE
  5
5730
330
1E
100
AcDbEntity
  8
躯体と製品
  6
Continuous
 62
     4
100
AcDbLine
 10
1076.64224645587
 20
-388.1296247752125
 30
0.0
 11
1076.64224645587
 21
-395.3531327752128
 31
0.0
  0
ARC
  5
5731
330
1E
100
AcDbEntity
  8
躯体と製品
  6
Continuous
 62
     4
100
AcDbCircle
 10
1077.64224545587
 20
-388.1296247752125
 30
0.0
 40
0.999999
100
AcDbArc
 50
90.0
 51
180.0
  0
LINE
  5
5732
330
1E
100
AcDbEntity
  8
躯体と製品
  6
Continuous
 62
     4
100
AcDbLine
 10
1079.14224545587
 20
-397.3088987752125
 30
0.0
 11
1077.39224645587
 21
-398.3192627752127
 31
0.0
  0
ARC
  5
5733
330
1E
100
AcDbEntity
  8
躯体と製品
  6
Continuous
 62
     4
100
AcDbCircle
 10
1080.34224545587
 20
-396.6347207752127
 30
0.0
 40
0.3
100
AcDbArc
 50
0.0
 51
65.99730199999877
  0
ARC
  5
5734
330
1E
100
AcDbEntity
  8
躯体と製品
  6
Continuous
 62
     4
100
AcDbCircle
 10
1080.34224545587
 20
-397.6553087752127
 30
0.0
 40
0.3
100
AcDbArc
 50
239.9999999999995
 51
0.0
  0
LINE
  5
5735
330
1E
100
AcDbEntity
  8
躯体と製品
  6
Continuous
 62
     4
100
AcDbLine
 10
1080.64224545587
 20
-397.6553087752127
 30
0.0
 11
1080.64224545587
 21
-396.6347207752127
 31
0.0
  0
LINE
  5
5736
330
1E
100
AcDbEntity
  8
躯体と製品
  6
Continuous
 62
     4
100
AcDbLine
 10
1090.34224445587
 20
-389.2296257752125
 30
0.0
 11
1090.34224445587
 21
-390.2296247752127
 31
0.0
  0
ARC
  5
5737
330
1E
100
AcDbEntity
  8
躯体と製品
  6
Continuous
 62
     4
100
AcDbCircle
 10
1089.74224445587
 20
-390.2296247752127
 30
0.0
 40
0.6000000000000001
100
AcDbArc
 50
180.0
 51
0.0
  0
LINE
  5
5738
330
1E
100
AcDbEntity
  8
躯体と製品
  6
Continuous
 62
     4
100
AcDbLine
 10
1089.14224445587
 20
-387.6296237752126
 30
0.0
 11
1089.14224445587
 21
-390.2296247752127
 31
0.0
  0
ARC
  5
5739
330
1E
100
AcDbEntity
  8
躯体と製品
  6
Continuous
 62
     4
100
AcDbCircle
 10
1088.64224645587
 20
-387.6296237752126
 30
0.0
 40
0.5000010000000001
100
AcDbArc
 50
0.0
 51
90.0
  0
LINE
  5
573A
330
1E
100
AcDbEntity
  8
躯体と製品
  6
Continuous
 62
     4
100
AcDbLine
 10
1090.34224445587
 20
-388.6296257752127
 30
0.0
 11
1090.34224445587
 21
-389.2296257752125
 31
0.0
  0
LINE
  5
573B
330
1E
100
AcDbEntity
  8
躯体と製品
  6
Continuous
 62
     4
100
AcDbLine
 10
1123.64224445587
 20
-418.1574797752124
 30
0.0
 11
1123.64224445587
 21
-402.5017697752128
 31
0.0
  0
LINE
  5
573C
330
1E
100
AcDbEntity
  8
躯体と製品
  6
Continuous
 62
     4
100
AcDbLine
 10
1125.14224445587
 20
-433.3296257752127
 30
0.0
 11
1125.14224445587
 21
-387.3296237752126
 31
0.0
  0
ARC
  5
573D
330
1E
100
AcDbEntity
  8
躯体と製品
  6
Continuous
 62
     4
100
AcDbCircle
 10
1111.14224645587
 20
-431.3296247752124
 30
0.0
 40
3.249999
100
AcDbArc
 50
333.0422530000025
 51
24.00269299999662
  0
ARC
  5
573E
330
1E
100
AcDbEntity
  8
躯体と製品
  6
Continuous
 62
     4
100
AcDbCircle
 10
1114.48477445587
 20
-433.0296257752126
 30
0.0
 40
0.5000010000000001
100
AcDbArc
 50
153.0422510000017
 51
270.0
  0
ARC
  5
573F
330
1E
100
AcDbEntity
  8
躯体と製品
  6
Continuous
 62
     4
100
AcDbCircle
 10
1089.14224445587
 20
-431.3296247752124
 30
0.0
 40
3.249999
100
AcDbArc
 50
333.0422490000008
 51
24.00269400000324
  0
ARC
  5
5740
330
1E
100
AcDbEntity
  8
躯体と製品
  6
Continuous
 62
     4
100
AcDbCircle
 10
1111.14224645587
 20
-431.3296247752124
 30
0.0
 40
3.249999
100
AcDbArc
 50
155.9973000000027
 51
206.9577540000006
  0
LINE
  5
5741
330
1E
100
AcDbEntity
  8
躯体と製品
  6
Continuous
 62
     4
100
AcDbLine
 10
1112.55675245587
 20
-430.2796247752127
 30
0.0
 11
1113.16297145587
 21
-431.3296247752124
 31
0.0
  0
LINE
  5
5742
330
1E
100
AcDbEntity
  8
躯体と製品
  6
Continuous
 62
     4
100
AcDbLine
 10
1109.72773745587
 20
-430.2796247752127
 30
0.0
 11
1109.12151845587
 21
-431.3296247752124
 31
0.0
  0
LINE
  5
5743
330
1E
100
AcDbEntity
  8
躯体と製品
  6
Continuous
 62
     4
100
AcDbLine
 10
1092.48477545587
 20
-433.5296237752125
 30
0.0
 11
1107.79971545587
 21
-433.5296237752125
 31
0.0
  0
ARC
  5
5744
330
1E
100
AcDbEntity
  8
躯体と製品
  6
Continuous
 62
     4
100
AcDbCircle
 10
1092.48477545587
 20
-433.0296257752126
 30
0.0
 40
0.5000010000000001
100
AcDbArc
 50
153.0422510000017
 51
270.0
  0
ARC
  5
5745
330
1E
100
AcDbEntity
  8
躯体と製品
  6
Continuous
 62
     4
100
AcDbCircle
 10
1107.79971545587
 20
-433.0296257752126
 30
0.0
 40
0.5000010000000001
100
AcDbArc
 50
270.0
 51
26.95774899999833
  0
LINE
  5
5746
330
1E
100
AcDbEntity
  8
躯体と製品
  6
Continuous
 62
     4
100
AcDbLine
 10
1113.16297145587
 20
-431.3296247752124
 30
0.0
 11
1112.15260745587
 21
-433.0796237752125
 31
0.0
  0
LINE
  5
5747
330
1E
100
AcDbEntity
  8
躯体と製品
  6
Continuous
 62
     4
100
AcDbLine
 10
1110.13188245587
 20
-433.0796237752125
 30
0.0
 11
1109.12151845587
 21
-431.3296247752124
 31
0.0
  0
LINE
  5
5748
330
1E
100
AcDbEntity
  8
躯体と製品
  6
Continuous
 62
     4
100
AcDbLine
 10
1112.15260745587
 20
-433.0796237752125
 30
0.0
 11
1110.13188245587
 21
-433.0796237752125
 31
0.0
  0
ARC
  5
5749
330
1E
100
AcDbEntity
  8
躯体と製品
  6
Continuous
 62
     4
100
AcDbCircle
 10
1091.83714745587
 20
-430.1296247752125
 30
0.0
 40
0.3
100
AcDbArc
 50
24.00269800000124
 51
90.0
  0
ARC
  5
574A
330
1E
100
AcDbEntity
  8
躯体と製品
  6
Continuous
 62
     4
100
AcDbCircle
 10
1113.83714945587
 20
-430.1296247752125
 30
0.0
 40
0.3
100
AcDbArc
 50
24.00269800000124
 51
90.0
  0
ARC
  5
574B
330
1E
100
AcDbEntity
  8
躯体と製品
  6
Continuous
 62
     4
100
AcDbCircle
 10
1108.44734345587
 20
-430.1296247752125
 30
0.0
 40
0.3
100
AcDbArc
 50
90.0
 51
155.9973019999987
  0
LINE
  5
574C
330
1E
100
AcDbEntity
  8
躯体と製品
  6
Continuous
 62
     4
100
AcDbLine
 10
1112.81656145587
 20
-429.8296247752124
 30
0.0
 11
1113.83714945587
 21
-429.8296247752124
 31
0.0
  0
ARC
  5
574D
330
1E
100
AcDbEntity
  8
躯体と製品
  6
Continuous
 62
     4
100
AcDbCircle
 10
1112.81656145587
 20
-430.1296247752125
 30
0.0
 40
0.3
100
AcDbArc
 50
90.0
 51
210.0000000000005
  0
ARC
  5
574E
330
1E
100
AcDbEntity
  8
躯体と製品
  6
Continuous
 62
     4
100
AcDbCircle
 10
1109.46792845587
 20
-430.1296247752125
 30
0.0
 40
0.3
100
AcDbArc
 50
329.9999999999995
 51
90.0
  0
LINE
  5
574F
330
1E
100
AcDbEntity
  8
躯体と製品
  6
Continuous
 62
     4
100
AcDbLine
 10
1109.46792845587
 20
-429.8296247752124
 30
0.0
 11
1108.44734345587
 21
-429.8296247752124
 31
0.0
  0
LINE
  5
5750
330
1E
100
AcDbEntity
  8
躯体と製品
  6
Continuous
 62
     4
100
AcDbLine
 10
1123.64224445587
 20
-432.5296247752127
 30
0.0
 11
1123.64224445587
 21
-425.3061167752124
 31
0.0
  0
LINE
  5
5751
330
1E
100
AcDbEntity
  8
躯体と製品
  6
Continuous
 62
     4
100
AcDbLine
 10
1122.64224545587
 20
-433.5296237752125
 30
0.0
 11
1114.48477445587
 21
-433.5296237752125
 31
0.0
  0
ARC
  5
5752
330
1E
100
AcDbEntity
  8
躯体と製品
  6
Continuous
 62
     4
100
AcDbCircle
 10
1122.64224545587
 20
-432.5296247752127
 30
0.0
 40
0.999999
100
AcDbArc
 50
270.0
 51
0.0
  0
ARC
  5
5753
330
1E
100
AcDbEntity
  8
躯体と製品
  6
Continuous
 62
     4
100
AcDbCircle
 10
1123.14224645587
 20
-433.3296257752127
 30
0.0
 40
2.000001
100
AcDbArc
 50
270.0
 51
0.0
  0
ARC
  5
5754
330
1E
100
AcDbEntity
  8
躯体と製品
  6
Continuous
 62
     4
100
AcDbCircle
 10
1121.14224545587
 20
-421.3296257752126
 30
0.0
 40
3.249999
100
AcDbArc
 50
245.9972989999988
 51
302.2309559999961
  0
ARC
  5
5755
330
1E
100
AcDbEntity
  8
躯体と製品
  6
Continuous
 62
     4
100
AcDbCircle
 10
1121.14224545587
 20
-421.3296257752126
 30
0.0
 40
3.249999
100
AcDbArc
 50
57.76904700000256
 51
114.0027020000019
  0
LINE
  5
5756
330
1E
100
AcDbEntity
  8
躯体と製品
  6
Continuous
 62
     4
100
AcDbLine
 10
1123.64224445587
 20
-425.3061167752124
 30
0.0
 11
1123.64224445587
 21
-424.5017687752125
 31
0.0
  0
ARC
  5
5757
330
1E
100
AcDbEntity
  8
躯体と製品
  6
Continuous
 62
     4
100
AcDbCircle
 10
1123.14224645587
 20
-418.1574797752124
 30
0.0
 40
0.5000010000000001
100
AcDbArc
 50
237.7690470000026
 51
0.0
  0
ARC
  5
5758
330
1E
100
AcDbEntity
  8
躯体と製品
  6
Continuous
 62
     4
100
AcDbCircle
 10
1123.14224645587
 20
-424.5017687752125
 30
0.0
 40
0.5000010000000001
100
AcDbArc
 50
0.0
 51
122.2309529999974
  0
ARC
  5
5759
330
1E
100
AcDbEntity
  8
躯体と製品
  6
Continuous
 62
     4
100
AcDbCircle
 10
1119.94224545587
 20
-424.0245287752125
 30
0.0
 40
0.3
100
AcDbArc
 50
180.0
 51
245.9973019999988
  0
ARC
  5
575A
330
1E
100
AcDbEntity
  8
躯体と製品
  6
Continuous
 62
     4
100
AcDbCircle
 10
1119.94224545587
 20
-418.6347227752125
 30
0.0
 40
0.3
100
AcDbArc
 50
114.0026980000012
 51
180.0
  0
LINE
  5
575B
330
1E
100
AcDbEntity
  8
躯体と製品
  6
Continuous
 62
     4
100
AcDbLine
 10
1120.09224545587
 20
-422.7441317752126
 30
0.0
 11
1121.14224545587
 21
-423.3503507752127
 31
0.0
  0
ARC
  5
575C
330
1E
100
AcDbEntity
  8
躯体と製品
  6
Continuous
 62
     4
100
AcDbCircle
 10
1119.94224545587
 20
-423.0039407752125
 30
0.0
 40
0.3
100
AcDbArc
 50
59.99999999999946
 51
180.0
  0
LINE
  5
575D
330
1E
100
AcDbEntity
  8
躯体と製品
  6
Continuous
 62
     4
100
AcDbLine
 10
1119.64224545587
 20
-423.0039407752125
 30
0.0
 11
1119.64224545587
 21
-424.0245287752125
 31
0.0
  0
LINE
  5
575E
330
1E
100
AcDbEntity
  8
躯体と製品
  6
Continuous
 62
     4
100
AcDbLine
 10
1120.09224545587
 20
-419.9151167752127
 30
0.0
 11
1121.14224545587
 21
-419.3088977752125
 31
0.0
  0
ARC
  5
575F
330
1E
100
AcDbEntity
  8
躯体と製品
  6
Continuous
 62
     4
100
AcDbCircle
 10
1119.94224545587
 20
-419.6553077752124
 30
0.0
 40
0.3
100
AcDbArc
 50
180.0
 51
300.0000000000005
  0
LINE
  5
5760
330
1E
100
AcDbEntity
  8
躯体と製品
  6
Continuous
 62
     4
100
AcDbLine
 10
1119.64224545587
 20
-419.6553077752124
 30
0.0
 11
1119.64224545587
 21
-418.6347227752125
 31
0.0
  0
LINE
  5
5761
330
1E
100
AcDbEntity
  8
躯体と製品
  6
Continuous
 62
     4
100
AcDbLine
 10
1121.14224545587
 20
-419.3088977752125
 30
0.0
 11
1122.89224445587
 21
-420.3192617752124
 31
0.0
  0
LINE
  5
5762
330
1E
100
AcDbEntity
  8
躯体と製品
  6
Continuous
 62
     4
100
AcDbLine
 10
1122.89224445587
 20
-422.3399867752125
 30
0.0
 11
1121.14224545587
 21
-423.3503507752127
 31
0.0
  0
LINE
  5
5763
330
1E
100
AcDbEntity
  8
躯体と製品
  6
Continuous
 62
     4
100
AcDbLine
 10
1122.89224445587
 20
-420.3192617752124
 30
0.0
 11
1122.89224445587
 21
-422.3399867752125
 31
0.0
  0
LINE
  5
5764
330
1E
100
AcDbEntity
  8
躯体と製品
  6
Continuous
 62
     4
100
AcDbLine
 10
1122.64224545587
 20
-387.1296257752127
 30
0.0
 11
1111.64224445587
 21
-387.1296257752127
 31
0.0
  0
LINE
  5
5765
330
1E
100
AcDbEntity
  8
躯体と製品
  6
Continuous
 62
     4
100
AcDbLine
 10
1091.84224445587
 20
-387.1296257752127
 30
0.0
 11
1108.44224645587
 21
-387.1296257752127
 31
0.0
  0
LINE
  5
5766
330
1E
100
AcDbEntity
  8
躯体と製品
  6
Continuous
 62
     4
100
AcDbLine
 10
1109.94224645587
 20
-390.2296247752127
 30
0.0
 11
1109.94224645587
 21
-389.2296257752125
 31
0.0
  0
ARC
  5
5767
330
1E
100
AcDbEntity
  8
躯体と製品
  6
Continuous
 62
     4
100
AcDbCircle
 10
1110.54224645587
 20
-390.2296247752127
 30
0.0
 40
0.6000000000000001
100
AcDbArc
 50
180.0
 51
0.0
  0
ARC
  5
5768
330
1E
100
AcDbEntity
  8
躯体と製品
  6
Continuous
 62
     4
100
AcDbCircle
 10
1111.64224445587
 20
-387.6296237752126
 30
0.0
 40
0.5000010000000001
100
AcDbArc
 50
90.0
 51
180.0
  0
LINE
  5
5769
330
1E
100
AcDbEntity
  8
躯体と製品
  6
Continuous
 62
     4
100
AcDbLine
 10
1111.14224645587
 20
-387.6296237752126
 30
0.0
 11
1111.14224645587
 21
-390.2296247752127
 31
0.0
  0
LINE
  5
576A
330
1E
100
AcDbEntity
  8
躯体と製品
  6
Continuous
 62
     4
100
AcDbLine
 10
1109.94224645587
 20
-388.6296257752127
 30
0.0
 11
1109.94224645587
 21
-389.2296257752125
 31
0.0
  0
ARC
  5
576B
330
1E
100
AcDbEntity
  8
躯体と製品
  6
Continuous
 62
     4
100
AcDbCircle
 10
1108.44224645587
 20
-388.6296257752127
 30
0.0
 40
1.5
100
AcDbArc
 50
0.0
 51
90.0
  0
LINE
  5
576C
330
1E
100
AcDbEntity
  8
躯体と製品
  6
Continuous
 62
     4
100
AcDbLine
 10
1122.89224445587
 20
-398.3192627752127
 30
0.0
 11
1122.89224445587
 21
-400.3399877752124
 31
0.0
  0
ARC
  5
576D
330
1E
100
AcDbEntity
  8
躯体と製品
  6
Continuous
 62
     4
100
AcDbCircle
 10
1121.14224545587
 20
-399.3296237752126
 30
0.0
 40
3.249999
100
AcDbArc
 50
245.9973010000008
 51
302.2309529999974
  0
ARC
  5
576E
330
1E
100
AcDbEntity
  8
躯体と製品
  6
Continuous
 62
     4
100
AcDbCircle
 10
1123.14224645587
 20
-402.5017697752128
 30
0.0
 40
0.5000010000000001
100
AcDbArc
 50
0.0
 51
122.2309529999974
  0
ARC
  5
576F
330
1E
100
AcDbEntity
  8
躯体と製品
  6
Continuous
 62
     4
100
AcDbCircle
 10
1119.94224545587
 20
-402.0245267752127
 30
0.0
 40
0.3
100
AcDbArc
 50
180.0
 51
245.9973019999988
  0
LINE
  5
5770
330
1E
100
AcDbEntity
  8
躯体と製品
  6
Continuous
 62
     4
100
AcDbLine
 10
1120.09224545587
 20
-400.7441327752125
 30
0.0
 11
1121.14224545587
 21
-401.3503517752126
 31
0.0
  0
ARC
  5
5771
330
1E
100
AcDbEntity
  8
躯体と製品
  6
Continuous
 62
     4
100
AcDbCircle
 10
1119.94224545587
 20
-401.0039417752127
 30
0.0
 40
0.3
100
AcDbArc
 50
59.99999999999946
 51
180.0
  0
LINE
  5
5772
330
1E
100
AcDbEntity
  8
躯体と製品
  6
Continuous
 62
     4
100
AcDbLine
 10
1119.64224545587
 20
-401.0039417752127
 30
0.0
 11
1119.64224545587
 21
-402.0245267752127
 31
0.0
  0
LINE
  5
5773
330
1E
100
AcDbEntity
  8
躯体と製品
  6
Continuous
 62
     4
100
AcDbLine
 10
1122.89224445587
 20
-400.3399877752124
 30
0.0
 11
1121.14224545587
 21
-401.3503517752126
 31
0.0
  0
ARC
  5
5774
330
1E
100
AcDbEntity
  8
躯体と製品
  6
Continuous
 62
     4
100
AcDbCircle
 10
1121.14224545587
 20
-399.3296237752126
 30
0.0
 40
3.249999
100
AcDbArc
 50
57.76905400000067
 51
114.0027010000012
  0
ARC
  5
5775
330
1E
100
AcDbEntity
  8
躯体と製品
  6
Continuous
 62
     4
100
AcDbCircle
 10
1123.14224645587
 20
-396.1574807752127
 30
0.0
 40
0.5000010000000001
100
AcDbArc
 50
237.7690470000026
 51
0.0
  0
ARC
  5
5776
330
1E
100
AcDbEntity
  8
躯体と製品
  6
Continuous
 62
     4
100
AcDbCircle
 10
1119.94224545587
 20
-396.6347207752127
 30
0.0
 40
0.3
100
AcDbArc
 50
114.0026980000012
 51
180.0
  0
ARC
  5
5777
330
1E
100
AcDbEntity
  8
躯体と製品
  6
Continuous
 62
     4
100
AcDbCircle
 10
1123.14224645587
 20
-387.3296237752126
 30
0.0
 40
2.000001
100
AcDbArc
 50
0.0
 51
90.0
  0
LINE
  5
5778
330
1E
100
AcDbEntity
  8
躯体と製品
  6
Continuous
 62
     4
100
AcDbLine
 10
1123.64224445587
 20
-388.1296247752125
 30
0.0
 11
1123.64224445587
 21
-396.1574807752127
 31
0.0
  0
ARC
  5
5779
330
1E
100
AcDbEntity
  8
躯体と製品
  6
Continuous
 62
     4
100
AcDbCircle
 10
1122.64224545587
 20
-388.1296247752125
 30
0.0
 40
0.999999
100
AcDbArc
 50
0.0
 51
90.0
  0
LINE
  5
577A
330
1E
100
AcDbEntity
  8
躯体と製品
  6
Continuous
 62
     4
100
AcDbLine
 10
1119.64224545587
 20
-397.6553087752127
 30
0.0
 11
1119.64224545587
 21
-396.6347207752127
 31
0.0
  0
ARC
  5
577B
330
1E
100
AcDbEntity
  8
躯体と製品
  6
Continuous
 62
     4
100
AcDbCircle
 10
1119.94224545587
 20
-397.6553087752127
 30
0.0
 40
0.3
100
AcDbArc
 50
180.0
 51
300.0000000000005
  0
LINE
  5
577C
330
1E
100
AcDbEntity
  8
躯体と製品
  6
Continuous
 62
     4
100
AcDbLine
 10
1120.09224545587
 20
-397.9151177752126
 30
0.0
 11
1121.14224545587
 21
-397.3088987752125
 31
0.0
  0
LINE
  5
577D
330
1E
100
AcDbEntity
  8
躯体と製品
  6
Continuous
 62
     4
100
AcDbLine
 10
1121.14224545587
 20
-397.3088987752125
 30
0.0
 11
1122.89224445587
 21
-398.3192627752127
 31
0.0
  0
LINE
  5
578B
330
1E
100
AcDbEntity
  8
躯体と製品
  6
PLINE3
 62
     3
100
AcDbLine
 10
1145.14224545587
 20
-420.3296237752125
 30
0.0
 11
1145.14224545587
 21
-400.3296257752126
 31
0.0
  0
LINE
  5
578C
330
1E
100
AcDbEntity
  8
躯体と製品
  6
PLINE2
 62
     4
100
AcDbLine
 10
1155.14224445587
 20
-425.3296247752124
 30
0.0
 11
1155.14224445587
 21
-395.3296247752124
 31
0.0
  0
CIRCLE
  5
578E
330
1E
100
AcDbEntity
  8
躯体と製品
  6
Continuous
 62
     3
100
AcDbCircle
 10
1145.14224545587
 20
-410.3296247752124
 30
0.0
 40
3.499824
  0
LINE
  5
578F
330
1E
100
AcDbEntity
  8
躯体と製品
  6
Continuous
 62
     3
100
AcDbLine
 10
1144.64227145587
 20
-412.3795217752125
 30
0.0
 11
1145.64221945587
 21
-412.3795217752125
 31
0.0
  0
LINE
  5
5790
330
1E
100
AcDbEntity
  8
躯体と製品
  6
Continuous
 62
     3
100
AcDbLine
 10
1147.19214245587
 20
-410.8295987752127
 30
0.0
 11
1147.19214245587
 21
-409.8296507752125
 31
0.0
  0
LINE
  5
5791
330
1E
100
AcDbEntity
  8
躯体と製品
  6
Continuous
 62
     3
100
AcDbLine
 10
1145.64221945587
 20
-408.2797277752126
 30
0.0
 11
1144.64227145587
 21
-408.2797277752126
 31
0.0
  0
LINE
  5
5792
330
1E
100
AcDbEntity
  8
躯体と製品
  6
Continuous
 62
     3
100
AcDbLine
 10
1143.09234845587
 20
-409.8296507752125
 30
0.0
 11
1143.09234845587
 21
-410.8295987752127
 31
0.0
  0
LINE
  5
5793
330
1E
100
AcDbEntity
  8
躯体と製品
  6
Continuous
 62
     3
100
AcDbLine
 10
1145.86699445587
 20
-409.6048757752124
 30
0.0
 11
1146.33836945587
 21
-409.8147467752125
 31
0.0
  0
LINE
  5
5794
330
1E
100
AcDbEntity
  8
躯体と製品
  6
Continuous
 62
     3
100
AcDbLine
 10
1147.19214245587
 20
-409.8296507752125
 30
0.0
 11
1146.33836945587
 21
-409.8147467752125
 31
0.0
  0
LINE
  5
5795
330
1E
100
AcDbEntity
  8
躯体と製品
  6
Continuous
 62
     3
100
AcDbLine
 10
1145.86699445587
 20
-409.6048757752124
 30
0.0
 11
1145.65712345587
 21
-409.1335007752125
 31
0.0
  0
LINE
  5
5796
330
1E
100
AcDbEntity
  8
躯体と製品
  6
Continuous
 62
     3
100
AcDbLine
 10
1147.19214245587
 20
-410.8295987752127
 30
0.0
 11
1146.33836945587
 21
-410.8445027752126
 31
0.0
  0
LINE
  5
5797
330
1E
100
AcDbEntity
  8
躯体と製品
  6
Continuous
 62
     3
100
AcDbLine
 10
1146.33836945587
 20
-410.8445027752126
 30
0.0
 11
1145.86699445587
 21
-411.0543737752127
 31
0.0
  0
LINE
  5
5798
330
1E
100
AcDbEntity
  8
躯体と製品
  6
Continuous
 62
     3
100
AcDbLine
 10
1145.86699445587
 20
-411.0543737752127
 30
0.0
 11
1145.65712345587
 21
-411.5257487752126
 31
0.0
  0
LINE
  5
5799
330
1E
100
AcDbEntity
  8
躯体と製品
  6
Continuous
 62
     3
100
AcDbLine
 10
1145.65712345587
 20
-411.5257487752126
 30
0.0
 11
1145.64221945587
 21
-412.3795217752125
 31
0.0
  0
LINE
  5
579A
330
1E
100
AcDbEntity
  8
躯体と製品
  6
Continuous
 62
     3
100
AcDbLine
 10
1144.64227145587
 20
-412.3795217752125
 30
0.0
 11
1144.62736745587
 21
-411.5257487752126
 31
0.0
  0
LINE
  5
579B
330
1E
100
AcDbEntity
  8
躯体と製品
  6
Continuous
 62
     3
100
AcDbLine
 10
1144.62736745587
 20
-411.5257487752126
 30
0.0
 11
1144.41749645587
 21
-411.0543737752127
 31
0.0
  0
LINE
  5
579C
330
1E
100
AcDbEntity
  8
躯体と製品
  6
Continuous
 62
     3
100
AcDbLine
 10
1144.41749645587
 20
-411.0543737752127
 30
0.0
 11
1143.94612145587
 21
-410.8445027752126
 31
0.0
  0
LINE
  5
579D
330
1E
100
AcDbEntity
  8
躯体と製品
  6
Continuous
 62
     3
100
AcDbLine
 10
1143.94612145587
 20
-410.8445027752126
 30
0.0
 11
1143.09234845587
 21
-410.8295987752127
 31
0.0
  0
LINE
  5
579E
330
1E
100
AcDbEntity
  8
躯体と製品
  6
Continuous
 62
     3
100
AcDbLine
 10
1143.09234845587
 20
-409.8296507752125
 30
0.0
 11
1143.94612145587
 21
-409.8147467752125
 31
0.0
  0
LINE
  5
579F
330
1E
100
AcDbEntity
  8
躯体と製品
  6
Continuous
 62
     3
100
AcDbLine
 10
1143.94612145587
 20
-409.8147467752125
 30
0.0
 11
1144.41749645587
 21
-409.6048757752124
 31
0.0
  0
LINE
  5
57A0
330
1E
100
AcDbEntity
  8
躯体と製品
  6
Continuous
 62
     3
100
AcDbLine
 10
1144.41749645587
 20
-409.6048757752124
 30
0.0
 11
1144.62736745587
 21
-409.1335007752125
 31
0.0
  0
LINE
  5
57A1
330
1E
100
AcDbEntity
  8
躯体と製品
  6
Continuous
 62
     3
100
AcDbLine
 10
1144.62736745587
 20
-409.1335007752125
 30
0.0
 11
1144.64227145587
 21
-408.2797277752126
 31
0.0
  0
LINE
  5
57A2
330
1E
100
AcDbEntity
  8
躯体と製品
  6
Continuous
 62
     3
100
AcDbLine
 10
1145.65712345587
 20
-409.1335007752125
 30
0.0
 11
1145.64221945587
 21
-408.2797277752126
 31
0.0
  0
LINE
  5
57AC
330
1E
100
AcDbEntity
  8
躯体と製品
  6
Continuous
 62
     4
100
AcDbLine
 10
773.1422454558701
 20
47.92037522478756
 30
0.0
 11
773.1422454558701
 21
-108.0796247752124
 31
0.0
  0
LINE
  5
57AD
330
1E
100
AcDbEntity
  8
躯体と製品
  6
Continuous
 62
     4
100
AcDbLine
 10
783.6422454558701
 20
47.92037522478756
 30
0.0
 11
783.6422454558701
 21
-108.0796247752124
 31
0.0
  0
LINE
  5
57AE
330
1E
100
AcDbEntity
  8
躯体と製品
  6
Continuous
 62
     4
100
AcDbLine
 10
786.6422454558701
 20
47.92037522478756
 30
0.0
 11
786.6422454558701
 21
-108.0796247752124
 31
0.0
  0
LINE
  5
57AF
330
1E
100
AcDbEntity
  8
躯体と製品
  6
Continuous
 62
     4
100
AcDbLine
 10
797.1422454558701
 20
47.92037522478756
 30
0.0
 11
797.1422454558701
 21
-108.0796247752124
 31
0.0
  0
LINE
  5
57B0
330
1E
100
AcDbEntity
  8
躯体と製品
  6
Continuous
 62
     4
100
AcDbLine
 10
800.1422454558701
 20
47.92037522478756
 30
0.0
 11
800.1422454558701
 21
-108.0796247752124
 31
0.0
  0
LINE
  5
57B1
330
1E
100
AcDbEntity
  8
躯体と製品
  6
Continuous
 62
     4
100
AcDbLine
 10
810.6422454558702
 20
47.92037522478756
 30
0.0
 11
810.6422454558702
 21
-108.0796247752124
 31
0.0
  0
LINE
  5
57B2
330
1E
100
AcDbEntity
  8
躯体と製品
  6
Continuous
 62
     4
100
AcDbLine
 10
813.6422454558701
 20
47.92037522478756
 30
0.0
 11
813.6422454558701
 21
-108.0796247752124
 31
0.0
  0
LINE
  5
57B3
330
1E
100
AcDbEntity
  8
躯体と製品
  6
Continuous
 62
     4
100
AcDbLine
 10
824.1422454558701
 20
47.92037522478756
 30
0.0
 11
824.1422454558701
 21
-108.0796247752124
 31
0.0
  0
LINE
  5
57B4
330
1E
100
AcDbEntity
  8
躯体と製品
  6
Continuous
 62
     4
100
AcDbLine
 10
827.1422454558701
 20
47.92037522478756
 30
0.0
 11
827.1422454558701
 21
-108.0796247752124
 31
0.0
  0
LINE
  5
57B5
330
1E
100
AcDbEntity
  8
躯体と製品
  6
Continuous
 62
     4
100
AcDbLine
 10
837.6422454558701
 20
47.92037522478756
 30
0.0
 11
837.6422454558701
 21
-108.0796247752124
 31
0.0
  0
LINE
  5
57B6
330
1E
100
AcDbEntity
  8
躯体と製品
  6
Continuous
 62
     4
100
AcDbLine
 10
840.64224545587
 20
47.92037522478756
 30
0.0
 11
840.64224545587
 21
-108.0796247752124
 31
0.0
  0
LINE
  5
57B7
330
1E
100
AcDbEntity
  8
躯体と製品
  6
Continuous
 62
     4
100
AcDbLine
 10
851.1422454558701
 20
47.92037522478756
 30
0.0
 11
851.1422454558701
 21
-109.1188547752124
 31
0.0
  0
LINE
  5
57B8
330
1E
100
AcDbEntity
  8
躯体と製品
  6
Continuous
 62
     4
100
AcDbLine
 10
854.14224545587
 20
47.92037522478756
 30
0.0
 11
854.14224545587
 21
-109.1188547752124
 31
0.0
  0
LINE
  5
57B9
330
1E
100
AcDbEntity
  8
躯体と製品
  6
Continuous
 62
     4
100
AcDbLine
 10
864.6422454558701
 20
47.92037522478756
 30
0.0
 11
864.6422454558701
 21
-108.0796247752124
 31
0.0
  0
LINE
  5
57BA
330
1E
100
AcDbEntity
  8
躯体と製品
  6
Continuous
 62
     4
100
AcDbLine
 10
867.6422454558702
 20
47.92037522478756
 30
0.0
 11
867.6422454558702
 21
-108.0796247752124
 31
0.0
  0
LINE
  5
57BB
330
1E
100
AcDbEntity
  8
躯体と製品
  6
Continuous
 62
     4
100
AcDbLine
 10
878.14224545587
 20
47.92037522478756
 30
0.0
 11
878.14224545587
 21
-108.0796247752124
 31
0.0
  0
LINE
  5
57BC
330
1E
100
AcDbEntity
  8
躯体と製品
  6
Continuous
 62
     4
100
AcDbLine
 10
881.1422454558702
 20
47.92037522478756
 30
0.0
 11
881.1422454558702
 21
-108.0796247752124
 31
0.0
  0
LINE
  5
57BD
330
1E
100
AcDbEntity
  8
躯体と製品
  6
Continuous
 62
     4
100
AcDbLine
 10
891.64224545587
 20
47.92037522478756
 30
0.0
 11
891.64224545587
 21
-108.0796247752124
 31
0.0
  0
LINE
  5
57BE
330
1E
100
AcDbEntity
  8
躯体と製品
  6
Continuous
 62
     4
100
AcDbLine
 10
894.6422454558701
 20
47.92037522478756
 30
0.0
 11
894.6422454558701
 21
-108.0796247752124
 31
0.0
  0
LINE
  5
57BF
330
1E
100
AcDbEntity
  8
躯体と製品
  6
Continuous
 62
     4
100
AcDbLine
 10
905.1422454558702
 20
47.92037522478756
 30
0.0
 11
905.1422454558702
 21
-108.0796247752124
 31
0.0
  0
LINE
  5
57C0
330
1E
100
AcDbEntity
  8
躯体と製品
  6
Continuous
 62
     4
100
AcDbLine
 10
908.1422454558701
 20
47.92037522478756
 30
0.0
 11
908.1422454558701
 21
-108.0796247752124
 31
0.0
  0
LINE
  5
57C1
330
1E
100
AcDbEntity
  8
躯体と製品
  6
Continuous
 62
     4
100
AcDbLine
 10
918.6422454558702
 20
47.92037522478756
 30
0.0
 11
918.6422454558702
 21
-108.0796247752124
 31
0.0
  0
LINE
  5
57C2
330
1E
100
AcDbEntity
  8
躯体と製品
  6
Continuous
 62
     4
100
AcDbLine
 10
921.6422454558701
 20
47.92037522478756
 30
0.0
 11
921.6422454558701
 21
-108.0796247752124
 31
0.0
  0
LINE
  5
57C3
330
1E
100
AcDbEntity
  8
躯体と製品
  6
Continuous
 62
     4
100
AcDbLine
 10
932.1422454558701
 20
47.92037522478756
 30
0.0
 11
932.1422454558701
 21
-108.0796247752124
 31
0.0
  0
LINE
  5
57C4
330
1E
100
AcDbEntity
  8
躯体と製品
  6
Continuous
 62
     4
100
AcDbLine
 10
935.1422454558701
 20
47.92037522478756
 30
0.0
 11
935.1422454558701
 21
-108.0796247752124
 31
0.0
  0
LINE
  5
57C5
330
1E
100
AcDbEntity
  8
躯体と製品
  6
Continuous
 62
     4
100
AcDbLine
 10
945.6422454558701
 20
47.92037522478756
 30
0.0
 11
945.6422454558701
 21
-108.0796247752124
 31
0.0
  0
LINE
  5
57C6
330
1E
100
AcDbEntity
  8
躯体と製品
  6
Continuous
 62
     4
100
AcDbLine
 10
948.6422454558701
 20
47.92037522478756
 30
0.0
 11
948.6422454558701
 21
-108.0796247752124
 31
0.0
  0
LINE
  5
57C7
330
1E
100
AcDbEntity
  8
躯体と製品
  6
Continuous
 62
     4
100
AcDbLine
 10
961.3922454558702
 20
-125.3296247752124
 30
0.0
 11
961.3922454558702
 21
47.92037522478756
 31
0.0
  0
LINE
  5
57C8
330
1E
100
AcDbEntity
  8
躯体と製品
  6
PLINE3
 62
     3
100
AcDbLine
 10
965.1422454558701
 20
-129.8296247752124
 30
0.0
 11
965.1422454558701
 21
59.17037522478756
 31
0.0
  0
LINE
  5
57C9
330
1E
100
AcDbEntity
  8
躯体と製品
  6
Continuous
 62
     4
100
AcDbLine
 10
968.8922454558701
 20
-125.3296247752124
 30
0.0
 11
968.8922454558701
 21
47.92037522478756
 31
0.0
  0
LINE
  5
57DF
330
1E
100
AcDbEntity
  8
躯体と製品
  6
Continuous
 62
     4
100
AcDbLine
 10
977.1422454558701
 20
54.67037522478756
 30
0.0
 11
977.1422454558701
 21
47.92037522478756
 31
0.0
  0
DIMENSION
  5
5830
330
1E
100
AcDbEntity
  8
寸法
  6
Continuous
100
AcDbDimension
  2
*D4
 10
965.1422454558701
 20
87.58067215405025
 30
0.0
 11
852.4039783957077
 21
87.58067215405025
 31
0.0
 70
   160
  1
1500以下
 71
     5
 42
225.0
  3
AutoCAD
100
AcDbAlignedDimension
 13
740.1422454558701
 23
54.67037522478768
 33
0.0
 14
965.1422454558701
 24
54.67037522478768
 34
0.0
100
AcDbRotatedDimension
1001
ACAD
1000
DSTYLE
1002
{
1070
   147
1040
0.8
1070
   340
1005
123
1070
   140
1040
10.0
1002
}
  0
DIMENSION
  5
5885
330
1E
100
AcDbEntity
  8
寸法
  6
Continuous
100
AcDbDimension
  2
*D5
 10
1007.14224545587
 20
47.92037522478767
 30
0.0
 11
1003.84224545587
 21
51.29537522478783
 31
0.0
 70
    32
  1
45
 71
     5
 42
-1.0
  3
AutoCAD
100
AcDbAlignedDimension
 13
977.1422454558701
 23
54.67037522478768
 33
0.0
 14
977.1422454558701
 24
47.92037522478767
 34
0.0
 50
90.0
100
AcDbRotatedDimension
1001
ACAD
1000
DSTYLE
1002
{
1070
   147
1040
0.8
1070
   140
1040
10.0
1002
}
  0
DIMENSION
  5
589D
330
1E
100
AcDbEntity
  8
寸法
  6
Continuous
100
AcDbDimension
  2
*D6
 10
1007.14224545587
 20
-111.8296247752123
 30
0.0
 11
1003.84224545587
 21
-109.9546247752121
 31
0.0
 70
    32
  1
25
 71
     5
 42
-1.0
  3
AutoCAD
100
AcDbAlignedDimension
 13
968.8922454558701
 23
-108.0796247752123
 33
0.0
 14
968.8922454558701
 24
-111.8296247752123
 34
0.0
 50
90.0
100
AcDbRotatedDimension
1001
ACAD
1000
DSTYLE
1002
{
1070
   147
1040
0.8
1070
   140
1040
10.0
1002
}
  0
DIMENSION
  5
58CD
330
1E
100
AcDbEntity
  8
寸法
  6
Continuous
100
AcDbDimension
  2
*D7
 10
1037.14224545587
 20
-125.3296247752123
 30
0.0
 11
1033.84224545587
 21
-35.32962477521216
 31
0.0
 70
    32
  1
1100以上、1200以下
 71
     5
 42
180.0
  3
AutoCAD
100
AcDbAlignedDimension
 13
1016.14224545587
 23
54.67037522478768
 33
0.0
 14
1016.14224545587
 24
-125.3296247752123
 34
0.0
 50
90.0
100
AcDbRotatedDimension
1001
ACAD
1000
DSTYLE
1002
{
1070
   147
1040
0.8
1070
   140
1040
10.0
1002
}
  0
DIMENSION
  5
58F9
330
1E
100
AcDbEntity
  8
寸法
  6
Continuous
100
AcDbDimension
  2
*D8
 10
1007.094918296367
 20
-125.3296247752123
 30
0.0
 11
1003.794918296367
 21
-118.5796247752121
 31
0.0
 70
    32
  1
90
 71
     5
 42
-1.0
  3
AutoCAD
100
AcDbAlignedDimension
 13
968.8922454558701
 23
-111.8296247752123
 33
0.0
 14
968.8922454558701
 24
-125.3296247752123
 34
0.0
 50
90.0
100
AcDbRotatedDimension
1001
ACAD
1000
DSTYLE
1002
{
1070
   147
1040
0.8
1070
   140
1040
10.0
1002
}
  0
DIMENSION
  5
5911
330
1E
100
AcDbEntity
  8
寸法
  6
Continuous
100
AcDbDimension
  2
*D9
 10
470.1422454558706
 20
79.68608822478746
 30
0.0
 11
440.1422454558703
 21
82.98608822478746
 31
0.0
 70
    32
  1
60
 71
     5
 42
-1.0
  3
AutoCAD
100
AcDbAlignedDimension
 13
410.1422454558701
 23
44.63852222478727
 33
0.0
 14
470.1422454558706
 24
44.63852222478727
 34
0.0
100
AcDbRotatedDimension
1001
ACAD
1000
DSTYLE
1002
{
1070
   147
1040
0.8
1070
   140
1040
10.0
1002
}
  0
DIMENSION
  5
5927
330
1E
100
AcDbEntity
  8
寸法
  6
Continuous
100
AcDbDimension
  2
*D10
 10
380.1422454558701
 20
4.740778441989286
 30
0.0
 11
376.8422454558701
 21
27.2055763333885
 31
0.0
 70
    32
  1
45
 71
     5
 42
-1.0
  3
AutoCAD
100
AcDbAlignedDimension
 13
437.1422454558701
 23
49.67037422478757
 33
0.0
 14
410.3864191621537
 24
4.740778441989277
 34
0.0
 50
90.0
100
AcDbRotatedDimension
1001
ACAD
1000
DSTYLE
1002
{
1070
   147
1040
0.8
1070
   140
1040
10.0
1002
}
  0
DIMENSION
  5
5934
330
1E
100
AcDbEntity
  8
寸法
  6
Continuous
100
AcDbDimension
  2
*D11
 10
350.1422454558701
 20
-400.3296257752126
 30
0.0
 11
346.8422454558702
 21
-175.4286121917887
 31
0.0
 70
    32
  1
1100以上、1200以下
 71
     5
 42
449.8020271668479
  3
AutoCAD
100
AcDbAlignedDimension
 13
380.8656449010828
 23
49.47240139163523
 33
0.0
 14
371.1422454558701
 24
-400.3296257752126
 34
0.0
 50
90.0
100
AcDbRotatedDimension
1001
ACAD
1000
DSTYLE
1002
{
1070
   147
1040
0.8
1070
   140
1040
10.0
1002
}
  0
DIMENSION
  5
5941
330
1E
100
AcDbEntity
  8
寸法
  6
Continuous
100
AcDbDimension
  2
*D12
 10
380.1422454558701
 20
-320.3296247752123
 30
0.0
 11
376.8422454558702
 21
-360.3296252752124
 31
0.0
 70
    32
  1
90
 71
     5
 42
-1.0
  3
AutoCAD
100
AcDbAlignedDimension
 13
385.9380534558704
 23
-400.3296257752126
 33
0.0
 14
417.6441924558703
 24
-320.3296247752123
 34
0.0
 50
90.0
100
AcDbRotatedDimension
1001
ACAD
1000
DSTYLE
1002
{
1070
   147
1040
0.8
1070
   140
1040
10.0
1002
}
  0
DIMENSION
  5
594E
330
1E
100
AcDbEntity
  8
寸法
  6
Continuous
100
AcDbDimension
  2
*D13
 10
380.1422454558701
 20
-295.3296257752126
 30
0.0
 11
376.8422454558702
 21
-307.7360830902825
 31
0.0
 70
    32
  1
25
 71
     5
 42
-1.0
  3
AutoCAD
100
AcDbAlignedDimension
 13
380.8685370216713
 23
-320.1425404053525
 33
0.0
 14
419.1497724558703
 24
-295.3296257752127
 34
0.0
 50
90.0
100
AcDbRotatedDimension
1001
ACAD
1000
DSTYLE
1002
{
1070
   147
1040
0.8
1070
   140
1040
10.0
1002
}
  0
DIMENSION
  5
5980
330
1E
100
AcDbEntity
  8
寸法
  6
Continuous
100
AcDbDimension
  2
*D14
 10
465.1422444558702
 20
-25.32962577521266
 30
0.0
 11
440.1422454558703
 21
-22.02962577521266
 31
0.0
 70
    32
  1
50
 71
     5
 42
-1.0
  3
AutoCAD
100
AcDbAlignedDimension
 13
415.1422464558704
 23
-25.32962577521266
 33
0.0
 14
465.1422444558702
 24
-25.32962577521266
 34
0.0
100
AcDbRotatedDimension
1001
ACAD
1000
DSTYLE
1002
{
1070
   147
1040
0.8
1070
   140
1040
10.0
1002
}
  0
DIMENSION
  5
5992
330
1E
100
AcDbEntity
  8
寸法
  6
Continuous
100
AcDbDimension
  2
*D15
 10
685.1422464558704
 20
-325.3296257752126
 30
0.0
 11
660.1422459558703
 21
-322.0296257752127
 31
0.0
 70
    32
  1
50
 71
     5
 42
-1.0
  3
AutoCAD
100
AcDbAlignedDimension
 13
635.1422454558701
 23
-384.3296237752125
 33
0.0
 14
685.1422464558704
 24
-384.3296237752125
 34
0.0
100
AcDbRotatedDimension
1001
ACAD
1000
DSTYLE
1002
{
1070
   147
1040
0.8
1070
   140
1040
10.0
1002
}
  0
DIMENSION
  5
599F
330
1E
100
AcDbEntity
  8
寸法
  6
Continuous
100
AcDbDimension
  2
*D16
 10
705.1422444558702
 20
-355.3296257752127
 30
0.0
 11
695.1422454558703
 21
-352.0296257752126
 31
0.0
 70
    32
 71
     5
 42
-1.0
  3
AutoCAD
100
AcDbAlignedDimension
 13
685.1422464558704
 23
-384.3296237752125
 33
0.0
 14
705.1422444558702
 24
-397.3296257752127
 34
0.0
100
AcDbRotatedDimension
1001
ACAD
1000
DSTYLE
1002
{
1070
   147
1040
0.8
1070
   140
1040
10.0
1002
}
  0
DIMENSION
  5
59AC
330
1E
100
AcDbEntity
  8
寸法
  6
Continuous
100
AcDbDimension
  2
*D17
 10
774.1422444558702
 20
-325.3296257752126
 30
0.0
 11
729.6422454558703
 21
-322.0296257752127
 31
0.0
 70
    32
  1
89以下
 71
     5
 42
88.99999799999978
  3
AutoCAD
100
AcDbAlignedDimension
 13
685.1422464558704
 23
-384.3296237752125
 33
0.0
 14
774.1422444558702
 24
-399.3296237752124
 34
0.0
100
AcDbRotatedDimension
1001
ACAD
1000
DSTYLE
1002
{
1070
   147
1040
0.8
1070
   140
1040
10.0
1002
}
  0
DIMENSION
  5
59B9
330
1E
100
AcDbEntity
  8
寸法
  6
Continuous
100
AcDbDimension
  2
*D18
 10
794.1422454558701
 20
-325.3296257752126
 30
0.0
 11
784.1422449558701
 21
-322.0296257752127
 31
0.0
 70
    32
  1
20
 71
     5
 42
-1.0
  3
AutoCAD
100
AcDbAlignedDimension
 13
774.1422444558702
 23
-399.3296237752124
 33
0.0
 14
794.1422454558701
 24
-399.3296237752124
 34
0.0
100
AcDbRotatedDimension
1001
ACAD
1000
DSTYLE
1002
{
1070
   147
1040
0.8
1070
   140
1040
10.0
1002
}
  0
DIMENSION
  5
59C6
330
1E
100
AcDbEntity
  8
寸法
  6
Continuous
100
AcDbDimension
  2
*D19
 10
877.1422464558709
 20
-325.3296257752126
 30
0.0
 11
867.1422459558705
 21
-322.0296257752127
 31
0.0
 70
    32
  1
20
 71
     5
 42
-1.0
  3
AutoCAD
100
AcDbAlignedDimension
 13
857.1422454558701
 23
-399.3296237752124
 33
0.0
 14
877.1422464558709
 24
-399.3296237752124
 34
0.0
100
AcDbRotatedDimension
1001
ACAD
1000
DSTYLE
1002
{
1070
   147
1040
0.8
1070
   140
1040
10.0
1002
}
  0
DIMENSION
  5
59D3
330
1E
100
AcDbEntity
  8
寸法
  6
Continuous
100
AcDbDimension
  2
*D20
 10
966.1422444558702
 20
-325.3296257752126
 30
0.0
 11
921.6422454558703
 21
-322.0296257752127
 31
0.0
 70
    32
  1
89以下
 71
     5
 42
88.99999799999978
  3
AutoCAD
100
AcDbAlignedDimension
 13
877.1422464558705
 23
-399.3296237752124
 33
0.0
 14
966.1422444558702
 24
-399.3296237752124
 34
0.0
100
AcDbRotatedDimension
1001
ACAD
1000
DSTYLE
1002
{
1070
   147
1040
0.8
1070
   140
1040
10.0
1002
}
  0
DIMENSION
  5
59E0
330
1E
100
AcDbEntity
  8
寸法
  6
Continuous
100
AcDbDimension
  2
*D21
 10
986.1422454558701
 20
-325.3296257752126
 30
0.0
 11
976.1422449558702
 21
-322.0296257752127
 31
0.0
 70
    32
  1
20
 71
     5
 42
-1.0
  3
AutoCAD
100
AcDbAlignedDimension
 13
966.1422444558702
 23
-399.3296237752124
 33
0.0
 14
986.1422454558701
 24
-399.3296237752124
 34
0.0
100
AcDbRotatedDimension
1001
ACAD
1000
DSTYLE
1002
{
1070
   147
1040
0.8
1070
   140
1040
10.0
1002
}
  0
DIMENSION
  5
59ED
330
1E
100
AcDbEntity
  8
寸法
  6
Continuous
100
AcDbDimension
  2
*D22
 10
1075.14224645587
 20
-325.3296257752126
 30
0.0
 11
1030.64224595587
 21
-322.0296257752127
 31
0.0
 70
    32
  1
89以下
 71
     5
 42
89.00000099999989
  3
AutoCAD
100
AcDbAlignedDimension
 13
986.1422454558701
 23
-399.3296237752124
 33
0.0
 14
1075.14224645587
 24
-384.3296237752125
 34
0.0
100
AcDbRotatedDimension
1001
ACAD
1000
DSTYLE
1002
{
1070
   140
1040
10.0
1070
   147
1040
0.8
1070
   279
1070
     1
1070
   289
1070
     3
1002
}
  0
DIMENSION
  5
59FA
330
1E
100
AcDbEntity
  8
寸法
  6
Continuous
100
AcDbDimension
  2
*D23
 10
1125.14224445587
 20
-325.3296257752126
 30
0.0
 11
1100.14224545587
 21
-322.0296257752127
 31
0.0
 70
    32
  1
50
 71
     5
 42
-1.0
  3
AutoCAD
100
AcDbAlignedDimension
 13
1075.14224645587
 23
-384.3296237752125
 33
0.0
 14
1125.14224445587
 24
-387.3261596743064
 34
0.0
100
AcDbRotatedDimension
1001
ACAD
1000
DSTYLE
1002
{
1070
   140
1040
10.0
1070
   147
1040
0.8
1070
   279
1070
     1
1070
   289
1070
     3
1002
}
  0
DIMENSION
  5
5A07
330
1E
100
AcDbEntity
  8
寸法
  6
Continuous
100
AcDbDimension
  2
*D24
 10
1075.14224645587
 20
-355.3296257752127
 30
0.0
 11
1065.14224595587
 21
-352.0296257752126
 31
0.0
 70
    32
  1
20
 71
     5
 42
-1.0
  3
AutoCAD
100
AcDbAlignedDimension
 13
1055.14224545587
 23
-408.2797277752126
 33
0.0
 14
1075.14224645587
 24
-384.3296237752125
 34
0.0
100
AcDbRotatedDimension
1001
ACAD
1000
DSTYLE
1002
{
1070
   147
1040
0.8
1070
   140
1040
10.0
1002
}
  0
DIMENSION
  5
5A14
330
1E
100
AcDbEntity
  8
寸法
  6
Continuous
100
AcDbDimension
  2
*D25
 10
585.1422444558702
 20
-425.3296247752123
 30
0.0
 11
581.8422444558704
 21
-410.3296247752123
 31
0.0
 70
    32
  1
30
 71
     5
 42
-1.0
  3
AutoCAD
100
AcDbAlignedDimension
 13
602.1422454558701
 23
-395.3296247752123
 33
0.0
 14
602.1422454558701
 24
-425.3296247752123
 34
0.0
 50
90.0
100
AcDbRotatedDimension
1001
ACAD
1000
DSTYLE
1002
{
1070
   147
1040
0.8
1070
   140
1040
10.0
1002
}
  0
DIMENSION
  5
5A21
330
1E
100
AcDbEntity
  8
寸法
  6
Continuous
100
AcDbDimension
  2
*D26
 10
685.1422464558704
 20
-465.3296237752124
 30
0.0
 11
660.1422459558703
 21
-462.0296237752124
 31
0.0
 70
    32
  1
50
 71
     5
 42
-1.0
  3
AutoCAD
100
AcDbAlignedDimension
 13
635.1422454558701
 23
-436.3296257752126
 33
0.0
 14
685.1422464558704
 24
-436.3296257752126
 34
0.0
100
AcDbRotatedDimension
1001
ACAD
1000
DSTYLE
1002
{
1070
   147
1040
0.8
1070
   140
1040
10.0
1002
}
  0
DIMENSION
  5
5A2E
330
1E
100
AcDbEntity
  8
寸法
  6
Continuous
100
AcDbDimension
  2
*D27
 10
715.1422464558704
 20
-465.3296237752124
 30
0.0
 11
700.1422464558705
 21
-462.0296237752124
 31
0.0
 70
    32
  1
30
 71
     5
 42
-1.0
  3
AutoCAD
100
AcDbAlignedDimension
 13
685.1422464558704
 23
-436.3296257752126
 33
0.0
 14
715.1422464558704
 24
-428.3296247752123
 34
0.0
100
AcDbRotatedDimension
1001
ACAD
1000
DSTYLE
1002
{
1070
   140
1040
10.0
1070
   147
1040
0.8
1070
   279
1070
     1
1070
   289
1070
     3
1002
}
  0
DIMENSION
  5
5A3B
330
1E
100
AcDbEntity
  8
寸法
  6
Continuous
100
AcDbDimension
  2
*D28
 10
1100.14224545587
 20
-495.3296237752124
 30
0.0
 11
880.1422449558703
 21
-492.0296237752124
 31
0.0
 70
    32
  1
1500以下
 71
     5
 42
-1.0
  3
AutoCAD
100
AcDbAlignedDimension
 13
660.1422444558702
 23
-447.6133187752124
 33
0.0
 14
1100.14224545587
 24
-447.6133187752124
 34
0.0
100
AcDbRotatedDimension
1001
ACAD
1000
DSTYLE
1002
{
1070
   147
1040
0.8
1070
   140
1040
10.0
1002
}
  0
DIMENSION
  5
5A48
330
1E
100
AcDbEntity
  8
寸法
  6
Continuous
100
AcDbDimension
  2
*D29
 10
1075.14224645587
 20
-465.3296237752124
 30
0.0
 11
1060.14224645587
 21
-462.0296237752124
 31
0.0
 70
    32
  1
30
 71
     5
 42
-1.0
  3
AutoCAD
100
AcDbAlignedDimension
 13
1045.14224645587
 23
-428.3296247752123
 33
0.0
 14
1075.14224645587
 24
-436.3296257752126
 34
0.0
100
AcDbRotatedDimension
1001
ACAD
1000
DSTYLE
1002
{
1070
   147
1040
0.8
1070
   140
1040
10.0
1002
}
  0
DIMENSION
  5
5A61
330
1E
100
AcDbEntity
  8
寸法
  6
Continuous
100
AcDbDimension
  2
*D31
 10
1185.14224445587
 20
-435.3296237752124
 30
0.0
 11
1181.84224445587
 21
-410.3296247752123
 31
0.0
 70
    32
  1
50
 71
     5
 42
-1.0
  3
AutoCAD
100
AcDbAlignedDimension
 13
1126.14224645587
 23
-385.3296257752127
 33
0.0
 14
1126.14224645587
 24
-435.3296237752124
 34
0.0
 50
90.0
100
AcDbRotatedDimension
1001
ACAD
1000
DSTYLE
1002
{
1070
   147
1040
0.8
1070
   140
1040
10.0
1002
}
  0
DIMENSION
  5
5A6E
330
1E
100
AcDbEntity
  8
寸法
  6
Continuous
100
AcDbDimension
  2
*D32
 10
825.64224545587
 20
-430.3296257752126
 30
0.0
 11
822.3422454558702
 21
-410.3296247752124
 31
0.0
 70
    32
 71
     5
 42
-1.0
  3
AutoCAD
100
AcDbAlignedDimension
 13
825.64224545587
 23
-390.3296237752124
 33
0.0
 14
825.64224545587
 24
-430.3296257752126
 34
0.0
 50
90.0
100
AcDbRotatedDimension
1001
ACAD
1000
DSTYLE
1002
{
1070
   147
1040
0.8
1070
   140
1040
10.0
1002
}
  0
DIMENSION
  5
5A79
330
1E
100
AcDbEntity
  8
寸法
  6
Continuous
100
AcDbDimension
  2
*D33
 10
842.1422454558705
 20
-420.3296237752124
 30
0.0
 11
838.8422454558707
 21
-410.3296247752124
 31
0.0
 70
    32
 71
     5
 42
-1.0
  3
AutoCAD
100
AcDbAlignedDimension
 13
856.1422464558704
 23
-400.3296257752126
 33
0.0
 14
856.1422464558704
 24
-420.3296237752124
 34
0.0
 50
90.0
100
AcDbRotatedDimension
1001
ACAD
1000
DSTYLE
1002
{
1070
   147
1040
0.8
1070
   140
1040
10.0
1002
}
  0
DIMENSION
  5
62F7
330
1E
100
AcDbEntity
  8
0
  6
Continuous
100
AcDbDimension
  2
*D34
 10
1125.14224445587
 20
-465.3296237752124
 30
0.0
 11
1100.14224545587
 21
-461.8296237752124
 31
0.0
 70
    32
 71
     5
 42
49.99999800000023
  3
AutoCAD
100
AcDbAlignedDimension
 13
1075.14224645587
 23
-436.3296257752126
 33
0.0
 14
1125.14224445587
 24
-433.3296257752127
 34
0.0
100
AcDbRotatedDimension
  0
ENDSEC
  0
SECTION
  2
OBJECTS
  0
DICTIONARY
  5
C
330
0
100
AcDbDictionary
281
     1
  3
ACAD_COLOR
350
628A
  3
ACAD_GROUP
350
D
  3
ACAD_LAYOUT
350
19
  3
ACAD_MATERIAL
350
6289
  3
ACAD_MLINESTYLE
350
16
  3
ACAD_PLOTSETTINGS
350
18
  3
ACAD_PLOTSTYLENAME
350
E
  3
ACAD_TABLESTYLE
350
628B
  3
ACAD_VISUALSTYLE
350
6298
  3
AcDbVariableDictionary
350
169
  3
DWGPROPS
350
6372
  0
DICTIONARY
  5
6305
330
8
100
AcDbDictionary
280
     1
281
     1
  0
DICTIONARY
  5
175
330
2
100
AcDbDictionary
280
     1
281
     1
  3
ACAD_LAYERFILTERS
360
185
  3
ACAD_LAYERSTATES
360
176
  0
DICTIONARY
  5
28B
330
1E
100
AcDbDictionary
280
     1
281
     1
  3
ACAD_LAYOUTSELFREF
360
625F
  0
DICTIONARY
  5
28D
330
1A
100
AcDbDictionary
280
     1
281
     1
  3
ACAD_LAYOUTSELFREF
360
625E
  0
DICTIONARY
  5
628A
102
{ACAD_REACTORS
330
C
102
}
330
C
100
AcDbDictionary
281
     1
  0
DICTIONARY
  5
D
102
{ACAD_REACTORS
330
C
102
}
330
C
100
AcDbDictionary
281
     1
  0
DICTIONARY
  5
19
102
{ACAD_REACTORS
330
C
102
}
330
C
100
AcDbDictionary
281
     1
  3
Model
350
21
  3
ﾚｲｱｳﾄ1
350
1D
  0
DICTIONARY
  5
6289
102
{ACAD_REACTORS
330
C
102
}
330
C
100
AcDbDictionary
281
     1
  3
ByBlock
350
6296
  3
ByLayer
350
6295
  3
Global
350
6297
  0
DICTIONARY
  5
16
102
{ACAD_REACTORS
330
C
102
}
330
C
100
AcDbDictionary
281
     1
  3
Standard
350
17
  0
DICTIONARY
  5
18
102
{ACAD_REACTORS
330
C
102
}
330
C
100
AcDbDictionary
281
     1
  0
ACDBDICTIONARYWDFLT
  5
E
102
{ACAD_REACTORS
330
C
102
}
330
C
100
AcDbDictionary
281
     1
  3
Normal
350
F
100
AcDbDictionaryWithDefault
340
F
1001
ACAD
1000
TREAT_AS_HARD
1070
     0
1000
TREAT_AS_HARD
1070
     0
1000
TREAT_AS_HARD
1070
     0
1000
TREAT_AS_HARD
1070
     0
1000
TREAT_AS_HARD
1070
     0
1000
TREAT_AS_HARD
1070
     0
1000
TREAT_AS_HARD
1070
     0
1000
TREAT_AS_HARD
1070
     0
1000
TREAT_AS_HARD
1070
     0
1000
TREAT_AS_HARD
1070
     0
1000
TREAT_AS_HARD
1070
     0
1000
TREAT_AS_HARD
1070
     0
1000
TREAT_AS_HARD
1070
     0
1000
TREAT_AS_HARD
1070
     0
1000
TREAT_AS_HARD
1070
     0
1000
TREAT_AS_HARD
1070
     0
1000
TREAT_AS_HARD
1070
     0
1000
TREAT_AS_HARD
1070
     0
1000
TREAT_AS_HARD
1070
     0
1000
TREAT_AS_HARD
1070
     0
1000
TREAT_AS_HARD
1070
     0
1000
TREAT_AS_HARD
1070
     0
  0
DICTIONARY
  5
628B
102
{ACAD_REACTORS
330
C
102
}
330
C
100
AcDbDictionary
281
     1
  3
Standard
350
628C
  0
DICTIONARY
  5
6298
102
{ACAD_REACTORS
330
C
102
}
330
C
100
AcDbDictionary
281
     1
  3
2dWireframe
350
629E
  3
3D Hidden
350
62A0
  3
3dWireframe
350
629F
  3
Basic
350
629D
  3
Brighten
350
62A4
  3
ColorChange
350
62A8
  3
Conceptual
350
62A1
  3
Dim
350
62A3
  3
Facepattern
350
62A7
  3
Flat
350
6299
  3
FlatWithEdges
350
629A
  3
Gouraud
350
629B
  3
GouraudWithEdges
350
629C
  3
Linepattern
350
62A6
  3
Realistic
350
62A2
  3
Thicken
350
62A5
  0
DICTIONARY
  5
169
102
{ACAD_REACTORS
330
C
102
}
330
C
100
AcDbDictionary
281
     1
  3
CTABLESTYLE
350
6293
  3
DIMASSOC
350
16A
  3
INDEXCTL
350
631E
  3
SORTENTS
350
631D
  0
XRECORD
  5
6372
102
{ACAD_REACTORS
330
C
102
}
330
C
100
AcDbXrecord
280
     1
  1
DWGPROPS COOKIE
  2

  3

  4

  6

  7

  8
TOK2100AV
  9

300
=
301
=
302
=
303
=
304
=
305
=
306
=
307
=
308
=
309
=
 40
0.3101700578703704
 41
2454316.693457674
 42
2454495.419794375
  1

 90
        0
  0
DICTIONARY
  5
185
102
{ACAD_REACTORS
330
175
102
}
330
175
100
AcDbDictionary
280
     1
281
     1
  0
DICTIONARY
  5
176
102
{ACAD_REACTORS
330
175
102
}
330
175
100
AcDbDictionary
281
     1
  3
ACAD
350
177
  0
XRECORD
  5
625F
102
{ACAD_REACTORS
330
28B
102
}
330
28B
100
AcDbXrecord
280
     1
340
1E
  0
XRECORD
  5
625E
102
{ACAD_REACTORS
330
28D
102
}
330
28D
100
AcDbXrecord
280
     1
340
1A
  0
LAYOUT
  5
21
102
{ACAD_XDICTIONARY
360
6375
102
}
102
{ACAD_REACTORS
330
19
102
}
330
19
100
AcDbPlotSettings
  1

  2
\\MEISEI-1\EPSON Stylus Photo EX3
  4

  6

 40
0.0
 41
0.0
 42
0.0
 43
0.0
 44
0.0
 45
0.0
 46
0.0
 47
0.0
 48
0.0
 49
0.0
140
0.0
141
0.0
142
1.0
143
1.0
 70
  1712
 72
     0
 73
     0
 74
     0
  7

 75
     0
147
1.0
148
0.0
149
0.0
100
AcDbLayout
  1
Model
 70
     1
 71
     0
 10
0.0
 20
0.0
 11
12.0
 21
9.0
 12
0.0
 22
0.0
 32
0.0
 14
0.0
 24
0.0
 34
0.0
 15
0.0
 25
0.0
 35
0.0
146
0.0
 13
0.0
 23
0.0
 33
0.0
 16
1.0
 26
0.0
 36
0.0
 17
0.0
 27
1.0
 37
0.0
 76
     0
330
1E
331
6292
  0
LAYOUT
  5
1D
102
{ACAD_XDICTIONARY
360
6373
102
}
102
{ACAD_REACTORS
330
19
102
}
330
19
100
AcDbPlotSettings
  1

  2
\\MEISEI-1\EPSON Stylus Photo EX3
  4

  6

 40
0.0
 41
0.0
 42
0.0
 43
0.0
 44
0.0
 45
0.0
 46
0.0
 47
0.0
 48
0.0
 49
0.0
140
0.0
141
0.0
142
1.0
143
1.0
 70
   688
 72
     0
 73
     0
 74
     5
  7

 75
    16
147
1.0
148
0.0
149
0.0
100
AcDbLayout
  1
ﾚｲｱｳﾄ1
 70
     1
 71
     1
 10
0.0
 20
0.0
 11
12.0
 21
9.0
 12
0.0
 22
0.0
 32
0.0
 14
1.000000000000000E+20
 24
1.000000000000000E+20
 34
1.000000000000000E+20
 15
-1.000000000000000E+20
 25
-1.000000000000000E+20
 35
-1.000000000000000E+20
146
0.0
 13
0.0
 23
0.0
 33
0.0
 16
1.0
 26
0.0
 36
0.0
 17
0.0
 27
1.0
 37
0.0
 76
     0
330
1A
  0
MATERIAL
  5
6296
102
{ACAD_XDICTIONARY
360
637B
102
}
102
{ACAD_REACTORS
330
6289
102
}
330
6289
100
AcDbMaterial
  1
ByBlock
  0
MATERIAL
  5
6295
102
{ACAD_XDICTIONARY
360
6379
102
}
102
{ACAD_REACTORS
330
6289
102
}
330
6289
100
AcDbMaterial
  1
ByLayer
  0
MATERIAL
  5
6297
102
{ACAD_XDICTIONARY
360
637D
102
}
102
{ACAD_REACTORS
330
6289
102
}
330
6289
100
AcDbMaterial
  1
Global
  0
MLINESTYLE
  5
17
102
{ACAD_REACTORS
330
16
102
}
330
16
100
AcDbMlineStyle
  2
STANDARD
 70
     0
  3

 62
   256
 51
90.0
 52
90.0
 71
     2
 49
0.5
 62
   256
  6
BYLAYER
 49
-0.5
 62
   256
  6
BYLAYER
  0
ACDBPLACEHOLDER
  5
F
102
{ACAD_REACTORS
330
E
102
}
330
E
  0
TABLESTYLE
  5
628C
102
{ACAD_XDICTIONARY
360
6377
102
}
102
{ACAD_REACTORS
330
628B
102
}
330
628B
100
AcDbTableStyle
  3
Standard
 70
     0
 71
     0
 40
0.06
 41
0.06
280
     0
281
     0
  7
STANDARD
140
0.18
170
     2
 62
     0
 63
     7
283
     0
274
    -2
284
     1
 64
     0
275
    -2
285
     1
 65
     0
276
    -2
286
     1
 66
     0
277
    -2
287
     1
 67
     0
278
    -2
288
     1
 68
     0
279
    -2
289
     1
 69
     0
  7
STANDARD
140
0.25
170
     5
 62
     0
 63
     7
283
     0
274
    -2
284
     1
 64
     0
275
    -2
285
     1
 65
     0
276
    -2
286
     1
 66
     0
277
    -2
287
     1
 67
     0
278
    -2
288
     1
 68
     0
279
    -2
289
     1
 69
     0
  7
STANDARD
140
0.18
170
     5
 62
     0
 63
     7
283
     0
274
    -2
284
     1
 64
     0
275
    -2
285
     1
 65
     0
276
    -2
286
     1
 66
     0
277
    -2
287
     1
 67
     0
278
    -2
288
     1
 68
     0
279
    -2
289
     1
 69
     0
  0
VISUALSTYLE
  5
629E
102
{ACAD_REACTORS
330
6298
102
}
330
6298
100
AcDbVisualStyle
  2
2dWireframe
 70
     4
 71
     0
 72
     2
 73
     0
 90
        0
 40
-0.6
 41
-30.0
 62
     5
 63
     7
 74
     1
 91
        4
 64
     7
 65
   257
 75
     1
175
     1
 42
1.0
 92
        0
 66
   257
 43
1.0
 76
     1
 77
     6
 78
     2
 67
     7
 79
     5
170
     0
171
     0
290
     0
174
     0
 93
        1
 44
0.0
173
     0
291
     0
 45
0.0
1001
ACAD
1000
AcDbSavedByObjectVersion
1070
     0
  0
VISUALSTYLE
  5
62A0
102
{ACAD_REACTORS
330
6298
102
}
330
6298
100
AcDbVisualStyle
  2
3D Hidden
 70
     6
 71
     1
 72
     2
 73
     2
 90
        0
 40
-0.6
 41
-30.0
 62
     5
 63
     7
 74
     2
 91
        2
 64
     7
 65
   257
 75
     2
175
     1
 42
40.0
 92
        0
 66
   257
 43
1.0
 76
     1
 77
     6
 78
     2
 67
     7
 79
     3
170
     0
171
     0
290
     0
174
     0
 93
        1
 44
0.0
173
     0
291
     0
 45
0.0
1001
ACAD
1000
AcDbSavedByObjectVersion
1070
     0
  0
VISUALSTYLE
  5
629F
102
{ACAD_REACTORS
330
6298
102
}
330
6298
100
AcDbVisualStyle
  2
3dWireframe
 70
     5
 71
     0
 72
     2
 73
     0
 90
        0
 40
-0.6
 41
-30.0
 62
     5
 63
     7
 74
     1
 91
        4
 64
     7
 65
   257
 75
     1
175
     1
 42
1.0
 92
        0
 66
   257
 43
1.0
 76
     1
 77
     6
 78
     2
 67
     7
 79
     5
170
     0
171
     0
290
     0
174
     0
 93
        1
 44
0.0
173
     0
291
     0
 45
0.0
1001
ACAD
1000
AcDbSavedByObjectVersion
1070
     0
  0
VISUALSTYLE
  5
629D
102
{ACAD_REACTORS
330
6298
102
}
330
6298
100
AcDbVisualStyle
  2
Basic
 70
     7
 71
     1
 72
     0
 73
     1
 90
        0
 40
-0.6
 41
-30.0
 62
     5
 63
     7
 74
     0
 91
        4
 64
     7
 65
   257
 75
     1
175
     1
 42
1.0
 92
        8
 66
     7
 43
1.0
 76
     1
 77
     6
 78
     2
 67
     7
 79
     5
170
     0
171
     0
290
     0
174
     0
 93
        1
 44
0.0
173
     0
291
     1
 45
0.0
1001
ACAD
1000
AcDbSavedByObjectVersion
1070
     0
  0
VISUALSTYLE
  5
62A4
102
{ACAD_REACTORS
330
6298
102
}
330
6298
100
AcDbVisualStyle
  2
Brighten
 70
    12
 71
     2
 72
     2
 73
     0
 90
        0
 40
-0.6
 41
-30.0
 62
     5
 63
     7
 74
     1
 91
        4
 64
     7
 65
   257
 75
     1
175
     1
 42
1.0
 92
        8
 66
     7
 43
1.0
 76
     1
 77
     6
 78
     2
 67
     7
 79
     5
170
     0
171
     0
290
     0
174
     0
 93
        1
 44
50.0
173
     0
291
     1
 45
0.0
1001
ACAD
1000
AcDbSavedByObjectVersion
1070
     0
  0
VISUALSTYLE
  5
62A8
102
{ACAD_REACTORS
330
6298
102
}
330
6298
100
AcDbVisualStyle
  2
ColorChange
 70
    16
 71
     2
 72
     2
 73
     3
 90
        0
 40
-0.6
 41
-30.0
 62
     5
 63
     8
 74
     1
 91
        4
 64
     7
 65
   257
 75
     1
175
     1
 42
1.0
 92
        8
 66
     8
 43
1.0
 76
     1
 77
     6
 78
     2
 67
     7
 79
     5
170
     0
171
     0
290
     0
174
     0
 93
        1
 44
0.0
173
     0
291
     1
 45
0.0
1001
ACAD
1000
AcDbSavedByObjectVersion
1070
     0
  0
VISUALSTYLE
  5
62A1
102
{ACAD_REACTORS
330
6298
102
}
330
6298
100
AcDbVisualStyle
  2
Conceptual
 70
     9
 71
     3
 72
     2
 73
     0
 90
        0
 40
-0.6
 41
-30.0
 62
     5
 63
     7
 74
     2
 91
        2
 64
     7
 65
   257
 75
     1
175
     1
 42
40.0
 92
        8
 66
     7
 43
1.0
 76
     1
 77
     6
 78
     2
 67
     7
 79
     3
170
     0
171
     0
290
     0
174
     0
 93
        1
 44
0.0
173
     0
291
     0
 45
0.0
1001
ACAD
1000
AcDbSavedByObjectVersion
1070
     0
  0
VISUALSTYLE
  5
62A3
102
{ACAD_REACTORS
330
6298
102
}
330
6298
100
AcDbVisualStyle
  2
Dim
 70
    11
 71
     2
 72
     2
 73
     0
 90
        0
 40
-0.6
 41
-30.0
 62
     5
 63
     7
 74
     1
 91
        4
 64
     7
 65
   257
 75
     1
175
     1
 42
1.0
 92
        8
 66
     7
 43
1.0
 76
     1
 77
     6
 78
     2
 67
     7
 79
     5
170
     0
171
     0
290
     0
174
     0
 93
        1
 44
-50.0
173
     0
291
     1
 45
0.0
1001
ACAD
1000
AcDbSavedByObjectVersion
1070
     0
  0
VISUALSTYLE
  5
62A7
102
{ACAD_REACTORS
330
6298
102
}
330
6298
100
AcDbVisualStyle
  2
Facepattern
 70
    15
 71
     2
 72
     2
 73
     0
 90
        0
 40
-0.6
 41
-30.0
 62
     5
 63
     7
 74
     1
 91
        4
 64
     7
 65
   257
 75
     1
175
     1
 42
1.0
 92
        8
 66
     7
 43
1.0
 76
     1
 77
     6
 78
     2
 67
     7
 79
     5
170
     0
171
     0
290
     0
174
     0
 93
        1
 44
0.0
173
     0
291
     1
 45
0.0
1001
ACAD
1000
AcDbSavedByObjectVersion
1070
     0
  0
VISUALSTYLE
  5
6299
102
{ACAD_REACTORS
330
6298
102
}
330
6298
100
AcDbVisualStyle
  2
Flat
 70
     0
 71
     2
 72
     1
 73
     1
 90
        2
 40
-0.6
 41
30.0
 62
     5
 63
     7
 74
     0
 91
        4
 64
     7
 65
   257
 75
     1
175
     1
 42
1.0
 92
        8
 66
     7
 43
1.0
 76
     1
 77
     6
 78
     2
 67
     7
 79
     5
170
     0
171
     0
290
     0
174
     0
 93
       13
 44
0.0
173
     0
291
     1
 45
0.0
1001
ACAD
1000
AcDbSavedByObjectVersion
1070
     0
  0
VISUALSTYLE
  5
629A
102
{ACAD_REACTORS
330
6298
102
}
330
6298
100
AcDbVisualStyle
  2
FlatWithEdges
 70
     1
 71
     2
 72
     1
 73
     1
 90
        2
 40
-0.6
 41
30.0
 62
     5
 63
     7
 74
     1
 91
        4
 64
     7
 65
   257
 75
     1
175
     1
 42
1.0
 92
        0
 66
   257
 43
1.0
 76
     1
 77
     6
 78
     2
 67
     7
 79
     5
170
     0
171
     0
290
     0
174
     0
 93
       13
 44
0.0
173
     0
291
     1
 45
0.0
1001
ACAD
1000
AcDbSavedByObjectVersion
1070
     0
  0
VISUALSTYLE
  5
629B
102
{ACAD_REACTORS
330
6298
102
}
330
6298
100
AcDbVisualStyle
  2
Gouraud
 70
     2
 71
     2
 72
     2
 73
     1
 90
        2
 40
-0.6
 41
30.0
 62
     5
 63
     7
 74
     0
 91
        4
 64
     7
 65
   257
 75
     1
175
     1
 42
1.0
 92
        0
 66
     7
 43
1.0
 76
     1
 77
     6
 78
     2
 67
     7
 79
     5
170
     0
171
     0
290
     0
174
     0
 93
       13
 44
0.0
173
     0
291
     1
 45
0.0
1001
ACAD
1000
AcDbSavedByObjectVersion
1070
     0
  0
VISUALSTYLE
  5
629C
102
{ACAD_REACTORS
330
6298
102
}
330
6298
100
AcDbVisualStyle
  2
GouraudWithEdges
 70
     3
 71
     2
 72
     2
 73
     1
 90
        2
 40
-0.6
 41
30.0
 62
     5
 63
     7
 74
     1
 91
        4
 64
     7
 65
   257
 75
     1
175
     1
 42
1.0
 92
        0
 66
   257
 43
1.0
 76
     1
 77
     6
 78
     2
 67
     7
 79
     5
170
     0
171
     0
290
     0
174
     0
 93
       13
 44
0.0
173
     0
291
     1
 45
0.0
1001
ACAD
1000
AcDbSavedByObjectVersion
1070
     0
  0
VISUALSTYLE
  5
62A6
102
{ACAD_REACTORS
330
6298
102
}
330
6298
100
AcDbVisualStyle
  2
Linepattern
 70
    14
 71
     2
 72
     2
 73
     0
 90
        0
 40
-0.6
 41
-30.0
 62
     5
 63
     7
 74
     1
 91
        4
 64
     7
 65
   257
 75
     7
175
     7
 42
1.0
 92
        8
 66
     7
 43
1.0
 76
     1
 77
     6
 78
     2
 67
     7
 79
     5
170
     0
171
     0
290
     0
174
     0
 93
        1
 44
0.0
173
     0
291
     1
 45
0.0
1001
ACAD
1000
AcDbSavedByObjectVersion
1070
     0
  0
VISUALSTYLE
  5
62A2
102
{ACAD_REACTORS
330
6298
102
}
330
6298
100
AcDbVisualStyle
  2
Realistic
 70
     8
 71
     2
 72
     2
 73
     0
 90
        0
 40
-0.6
 41
-30.0
 62
     5
 63
     7
 74
     1
 91
        0
 64
     7
 65
   257
 75
     1
175
     1
 42
1.0
 92
        8
 66
     8
 43
1.0
 76
     1
 77
     6
 78
     2
 67
     7
 79
     5
170
     0
171
     0
290
     0
174
     0
 93
       13
 44
0.0
173
     0
291
     0
 45
0.0
1001
ACAD
1000
AcDbSavedByObjectVersion
1070
     0
  0
VISUALSTYLE
  5
62A5
102
{ACAD_REACTORS
330
6298
102
}
330
6298
100
AcDbVisualStyle
  2
Thicken
 70
    13
 71
     2
 72
     2
 73
     0
 90
        0
 40
-0.6
 41
-30.0
 62
     5
 63
     7
 74
     1
 91
        4
 64
     7
 65
   257
 75
     1
175
     1
 42
1.0
 92
       12
 66
     7
 43
1.0
 76
     1
 77
     6
 78
     2
 67
     7
 79
     5
170
     0
171
     0
290
     0
174
     0
 93
        1
 44
0.0
173
     0
291
     1
 45
0.0
1001
ACAD
1000
AcDbSavedByObjectVersion
1070
     0
  0
DICTIONARYVAR
  5
6293
102
{ACAD_REACTORS
330
169
102
}
330
169
100
DictionaryVariables
280
     0
  1
STANDARD
  0
DICTIONARYVAR
  5
16A
102
{ACAD_REACTORS
330
169
102
}
330
169
100
DictionaryVariables
280
     0
  1
1
  0
DICTIONARYVAR
  5
631E
102
{ACAD_REACTORS
330
169
102
}
330
169
100
DictionaryVariables
280
     0
  1
0
  0
DICTIONARYVAR
  5
631D
102
{ACAD_REACTORS
330
169
102
}
330
169
100
DictionaryVariables
280
     0
  1
127
  0
XRECORD
  5
177
102
{ACAD_REACTORS
330
176
102
}
330
176
100
AcDbXrecord
280
     1
 91
      476
330
17A
 90
        8
 62
     7
370
    -3
331
15
  1
Color_7
330
178
 90
        8
 62
     7
370
    -3
331
15
  1
Color_7
330
128
 90
        0
 62
     7
370
    -3
331
15
  1
Color_7
330
10
 90
        8
 62
     7
370
    -3
331
15
  1
Color_7
  0
DICTIONARY
  5
6375
330
21
100
AcDbDictionary
280
     1
281
     1
  3
ACAD_XREC_ROUNDTRIP
360
6376
  0
DICTIONARY
  5
6373
330
1D
100
AcDbDictionary
280
     1
281
     1
  3
ACAD_XREC_ROUNDTRIP
360
6374
  0
DICTIONARY
  5
637B
330
6296
100
AcDbDictionary
280
     1
281
     1
  3
ACAD_XREC_ROUNDTRIP
360
637C
  0
DICTIONARY
  5
6379
330
6295
100
AcDbDictionary
280
     1
281
     1
  3
ACAD_XREC_ROUNDTRIP
360
637A
  0
DICTIONARY
  5
637D
330
6297
100
AcDbDictionary
280
     1
281
     1
  3
ACAD_XREC_ROUNDTRIP
360
637E
  0
DICTIONARY
  5
6377
330
628C
100
AcDbDictionary
280
     1
281
     1
  3
ACAD_XREC_ROUNDTRIP
360
6378
  0
XRECORD
  5
6376
102
{ACAD_REACTORS
330
6375
102
}
330
6375
100
AcDbXrecord
280
     1
102
SHADEPLOT
 70
     0
102
SHADEPLOTRESLEVEL
 70
     2
102
SHADEPLOTCUSTOMDPI
 70
   300
  0
XRECORD
  5
6374
102
{ACAD_REACTORS
330
6373
102
}
330
6373
100
AcDbXrecord
280
     1
102
SHADEPLOT
 70
     0
102
SHADEPLOTRESLEVEL
 70
     2
102
SHADEPLOTCUSTOMDPI
 70
   300
  0
XRECORD
  5
637C
102
{ACAD_REACTORS
330
637B
102
}
330
637B
100
AcDbXrecord
280
     1
102
MATERIAL
148
0.0
149
0.0
149
0.0
 93
        0
 94
       63
282
     0
 72
     1
 77
     1
171
     1
175
     1
179
     1
273
     0
  0
XRECORD
  5
637A
102
{ACAD_REACTORS
330
6379
102
}
330
6379
100
AcDbXrecord
280
     1
102
MATERIAL
148
0.0
149
0.0
149
0.0
 93
        0
 94
       63
282
     0
 72
     1
 77
     1
171
     1
175
     1
179
     1
273
     0
  0
XRECORD
  5
637E
102
{ACAD_REACTORS
330
637D
102
}
330
637D
100
AcDbXrecord
280
     1
102
MATERIAL
148
0.0
149
0.0
149
0.0
 93
        0
 94
       63
282
     0
 72
     1
 77
     1
171
     1
175
     1
179
     1
273
     0
  0
XRECORD
  5
6378
102
{ACAD_REACTORS
330
6377
102
}
330
6377
100
AcDbXrecord
280
     1
102
ACAD_ROUNDTRIP_PRE2007_TABLESTYLE
 90
        4
 91
        0
  1

 92
        4
 93
        0
  2

 94
        4
 95
        0
  3

  0
ENDSEC
  0
EOF
