  0
SECTION
  2
HEADER
  9
$ACADVER
  1
AC1015
  9
$ACADMAINTVER
 70
    20
  9
$DWGCODEPAGE
  3
ANSI_932
  9
$INSBASE
 10
0.0
 20
0.0
 30
0.0
  9
$EXTMIN
 10
-19116.73858295318
 20
-9893.363578263556
 30
0.0
  9
$EXTMAX
 10
-18843.6422036294
 20
-9390.960866263556
 30
0.0
  9
$LIMMIN
 10
0.0
 20
0.0
  9
$LIMMAX
 10
420.0
 20
297.0
  9
$ORTHOMODE
 70
     0
  9
$REGENMODE
 70
     1
  9
$FILLMODE
 70
     1
  9
$QTEXTMODE
 70
     0
  9
$MIRRTEXT
 70
     1
  9
$LTSCALE
 40
1.0
  9
$ATTMODE
 70
     1
  9
$TEXTSIZE
 40
5.0
  9
$TRACEWID
 40
0.05
  9
$TEXTSTYLE
  7
ACAD
  9
$CLAYER
  8
寸法
  9
$CELTYPE
  6
CONTINUOUS
  9
$CECOLOR
 62
   256
  9
$CELTSCALE
 40
1.0
  9
$DISPSILH
 70
     0
  9
$DIMSCALE
 40
1.0
  9
$DIMASZ
 40
1.0
  9
$DIMEXO
 40
0.0
  9
$DIMDLI
 40
0.38
  9
$DIMRND
 40
0.0
  9
$DIMDLE
 40
0.0
  9
$DIMEXE
 40
0.0
  9
$DIMTP
 40
0.0
  9
$DIMTM
 40
0.0
  9
$DIMTXT
 40
5.0
  9
$DIMCEN
 40
0.09
  9
$DIMTSZ
 40
0.0
  9
$DIMTOL
 70
     0
  9
$DIMLIM
 70
     0
  9
$DIMTIH
 70
     0
  9
$DIMTOH
 70
     1
  9
$DIMSE1
 70
     0
  9
$DIMSE2
 70
     0
  9
$DIMTAD
 70
     1
  9
$DIMZIN
 70
     0
  9
$DIMBLK
  1
DotSmall
  9
$DIMASO
 70
     1
  9
$DIMSHO
 70
     1
  9
$DIMPOST
  1

  9
$DIMAPOST
  1

  9
$DIMALT
 70
     0
  9
$DIMALTD
 70
     2
  9
$DIMALTF
 40
25.4
  9
$DIMLFAC
 40
1.0
  9
$DIMTOFL
 70
     0
  9
$DIMTVP
 40
0.0
  9
$DIMTIX
 70
     1
  9
$DIMSOXD
 70
     0
  9
$DIMSAH
 70
     0
  9
$DIMBLK1
  1

  9
$DIMBLK2
  1

  9
$DIMSTYLE
  2
111
  9
$DIMCLRD
 70
     4
  9
$DIMCLRE
 70
     4
  9
$DIMCLRT
 70
     3
  9
$DIMTFAC
 40
1.0
  9
$DIMGAP
 40
1.0
  9
$DIMJUST
 70
     0
  9
$DIMSD1
 70
     0
  9
$DIMSD2
 70
     0
  9
$DIMTOLJ
 70
     1
  9
$DIMTZIN
 70
     0
  9
$DIMALTZ
 70
     0
  9
$DIMALTTZ
 70
     0
  9
$DIMUPT
 70
     0
  9
$DIMDEC
 70
     0
  9
$DIMTDEC
 70
     0
  9
$DIMALTU
 70
     2
  9
$DIMALTTD
 70
     2
  9
$DIMTXSTY
  7
ACAD
  9
$DIMAUNIT
 70
     0
  9
$DIMADEC
 70
     0
  9
$DIMALTRND
 40
0.0
  9
$DIMAZIN
 70
     0
  9
$DIMDSEP
 70
    46
  9
$DIMATFIT
 70
     0
  9
$DIMFRAC
 70
     0
  9
$DIMLDRBLK
  1
None
  9
$DIMLUNIT
 70
     2
  9
$DIMLWD
 70
    -2
  9
$DIMLWE
 70
    -2
  9
$DIMTMOVE
 70
     0
  9
$LUNITS
 70
     2
  9
$LUPREC
 70
     4
  9
$SKETCHINC
 40
0.1
  9
$FILLETRAD
 40
0.0
  9
$AUNITS
 70
     0
  9
$AUPREC
 70
     0
  9
$MENU
  1
.
  9
$ELEVATION
 40
0.0
  9
$PELEVATION
 40
0.0
  9
$THICKNESS
 40
0.0
  9
$LIMCHECK
 70
     0
  9
$CHAMFERA
 40
0.0
  9
$CHAMFERB
 40
0.0
  9
$CHAMFERC
 40
0.0
  9
$CHAMFERD
 40
0.0
  9
$SKPOLY
 70
     0
  9
$TDCREATE
 40
2454316.693457674
  9
$TDUCREATE
 40
2454316.318457674
  9
$TDUPDATE
 40
2454494.694695810
  9
$TDUUPDATE
 40
2454494.319695811
  9
$TDINDWG
 40
0.4940826273
  9
$TDUSRTIMER
 40
0.4940822685
  9
$USRTIMER
 70
     1
  9
$ANGBASE
 50
0.0
  9
$ANGDIR
 70
     0
  9
$PDMODE
 70
     0
  9
$PDSIZE
 40
0.0
  9
$PLINEWID
 40
0.0
  9
$SPLFRAME
 70
     0
  9
$SPLINETYPE
 70
     6
  9
$SPLINESEGS
 70
     8
  9
$HANDSEED
  5
19C49
  9
$SURFTAB1
 70
     6
  9
$SURFTAB2
 70
     6
  9
$SURFTYPE
 70
     6
  9
$SURFU
 70
     6
  9
$SURFV
 70
     6
  9
$UCSBASE
  2

  9
$UCSNAME
  2

  9
$UCSORG
 10
0.0
 20
0.0
 30
0.0
  9
$UCSXDIR
 10
1.0
 20
0.0
 30
0.0
  9
$UCSYDIR
 10
0.0
 20
1.0
 30
0.0
  9
$UCSORTHOREF
  2

  9
$UCSORTHOVIEW
 70
     0
  9
$UCSORGTOP
 10
0.0
 20
0.0
 30
0.0
  9
$UCSORGBOTTOM
 10
0.0
 20
0.0
 30
0.0
  9
$UCSORGLEFT
 10
0.0
 20
0.0
 30
0.0
  9
$UCSORGRIGHT
 10
0.0
 20
0.0
 30
0.0
  9
$UCSORGFRONT
 10
0.0
 20
0.0
 30
0.0
  9
$UCSORGBACK
 10
0.0
 20
0.0
 30
0.0
  9
$PUCSBASE
  2

  9
$PUCSNAME
  2

  9
$PUCSORG
 10
0.0
 20
0.0
 30
0.0
  9
$PUCSXDIR
 10
1.0
 20
0.0
 30
0.0
  9
$PUCSYDIR
 10
0.0
 20
1.0
 30
0.0
  9
$PUCSORTHOREF
  2

  9
$PUCSORTHOVIEW
 70
     0
  9
$PUCSORGTOP
 10
0.0
 20
0.0
 30
0.0
  9
$PUCSORGBOTTOM
 10
0.0
 20
0.0
 30
0.0
  9
$PUCSORGLEFT
 10
0.0
 20
0.0
 30
0.0
  9
$PUCSORGRIGHT
 10
0.0
 20
0.0
 30
0.0
  9
$PUCSORGFRONT
 10
0.0
 20
0.0
 30
0.0
  9
$PUCSORGBACK
 10
0.0
 20
0.0
 30
0.0
  9
$USERI1
 70
     0
  9
$USERI2
 70
     0
  9
$USERI3
 70
     0
  9
$USERI4
 70
     0
  9
$USERI5
 70
     0
  9
$USERR1
 40
0.0
  9
$USERR2
 40
0.0
  9
$USERR3
 40
0.0
  9
$USERR4
 40
0.0
  9
$USERR5
 40
0.0
  9
$WORLDVIEW
 70
     1
  9
$SHADEDGE
 70
     3
  9
$SHADEDIF
 70
    70
  9
$TILEMODE
 70
     1
  9
$MAXACTVP
 70
    48
  9
$PINSBASE
 10
0.0
 20
0.0
 30
0.0
  9
$PLIMCHECK
 70
     0
  9
$PEXTMIN
 10
1.000000000000000E+20
 20
1.000000000000000E+20
 30
1.000000000000000E+20
  9
$PEXTMAX
 10
-1.000000000000000E+20
 20
-1.000000000000000E+20
 30
-1.000000000000000E+20
  9
$PLIMMIN
 10
0.0
 20
0.0
  9
$PLIMMAX
 10
12.0
 20
9.0
  9
$UNITMODE
 70
     0
  9
$VISRETAIN
 70
     0
  9
$PLINEGEN
 70
     0
  9
$PSLTSCALE
 70
     1
  9
$TREEDEPTH
 70
  3020
  9
$CMLSTYLE
  2
Standard
  9
$CMLJUST
 70
     0
  9
$CMLSCALE
 40
1.0
  9
$PROXYGRAPHICS
 70
     1
  9
$MEASUREMENT
 70
     0
  9
$CELWEIGHT
370
    -1
  9
$ENDCAPS
280
     0
  9
$JOINSTYLE
280
     0
  9
$LWDISPLAY
290
     0
  9
$INSUNITS
 70
     0
  9
$HYPERLINKBASE
  1

  9
$STYLESHEET
  1

  9
$XEDIT
290
     1
  9
$CEPSNTYPE
380
     0
  9
$PSTYLEMODE
290
     1
  9
$FINGERPRINTGUID
  2
{CC7D6DEE-A9F1-4F3E-AC95-C84B62CCA3FD}
  9
$VERSIONGUID
  2
{09EE3A20-6612-4115-B82D-88B153033711}
  9
$EXTNAMES
290
     1
  9
$PSVPSCALE
 40
0.0
  9
$OLESTARTUP
290
     0
  0
ENDSEC
  0
SECTION
  2
CLASSES
  0
CLASS
  1
ACDBDICTIONARYWDFLT
  2
AcDbDictionaryWithDefault
  3
ObjectDBX Classes
 90
        0
280
     0
281
     0
  0
CLASS
  1
ACDBPLACEHOLDER
  2
AcDbPlaceHolder
  3
ObjectDBX Classes
 90
        0
280
     0
281
     0
  0
CLASS
  1
LAYOUT
  2
AcDbLayout
  3
ObjectDBX Classes
 90
        0
280
     0
281
     0
  0
CLASS
  1
DICTIONARYVAR
  2
AcDbDictionaryVar
  3
ObjectDBX Classes
 90
        0
280
     0
281
     0
  0
CLASS
  1
TABLESTYLE
  2
AcDbTableStyle
  3
ObjectDBX Classes
 90
     4095
280
     0
281
     0
  0
CLASS
  1
MATERIAL
  2
AcDbMaterial
  3
ObjectDBX Classes
 90
     1153
280
     0
281
     0
  0
CLASS
  1
VISUALSTYLE
  2
AcDbVisualStyle
  3
ObjectDBX Classes
 90
     4095
280
     0
281
     0
  0
ENDSEC
  0
SECTION
  2
TABLES
  0
TABLE
  2
VPORT
  5
8
330
0
100
AcDbSymbolTable
 70
     1
  0
VPORT
  5
19BF2
330
8
100
AcDbSymbolTableRecord
100
AcDbViewportTableRecord
  2
*Active
 70
     0
 10
0.0
 20
0.0
 11
1.0
 21
1.0
 12
-18995.08203667737
 22
-9644.773614473386
 13
0.0
 23
0.0
 14
1.0
 24
1.0
 15
0.0
 25
0.0
 16
0.0
 26
0.0
 36
1.0
 17
0.0
 27
0.0
 37
0.0
 40
604.0090497309819
 41
1.516331658291457
 42
50.0
 43
0.0
 44
0.0
 50
0.0
 51
0.0
 71
     0
 72
   100
 73
     1
 74
     1
 75
     0
 76
     0
 77
     0
 78
     0
281
     0
 65
     1
110
0.0
120
0.0
130
0.0
111
1.0
121
0.0
131
0.0
112
0.0
122
1.0
132
0.0
 79
     0
146
0.0
  0
ENDTAB
  0
TABLE
  2
LTYPE
  5
5
330
0
100
AcDbSymbolTable
 70
    50
  0
LTYPE
  5
13
330
5
100
AcDbSymbolTableRecord
100
AcDbLinetypeTableRecord
  2
ByBlock
 70
     0
  3

 72
    65
 73
     0
 40
0.0
  0
LTYPE
  5
14
330
5
100
AcDbSymbolTableRecord
100
AcDbLinetypeTableRecord
  2
ByLayer
 70
     0
  3

 72
    65
 73
     0
 40
0.0
  0
LTYPE
  5
15
330
5
100
AcDbSymbolTableRecord
100
AcDbLinetypeTableRecord
  2
CONTINUOUS
 70
     0
  3
実線
 72
    65
 73
     0
 40
0.0
  0
LTYPE
  5
22
330
5
100
AcDbSymbolTableRecord
100
AcDbLinetypeTableRecord
  2
DASHED1
 70
     0
  3
--  --  --  --  --  --  --  --  
 72
    65
 73
     2
 40
2.5
 49
1.25
 74
     0
 49
-1.25
 74
     0
  0
LTYPE
  5
23
330
5
100
AcDbSymbolTableRecord
100
AcDbLinetypeTableRecord
  2
DASHED2
 70
     0
  3
----    ----    ----    ----    
 72
    65
 73
     2
 40
5.0
 49
2.5
 74
     0
 49
-2.5
 74
     0
  0
LTYPE
  5
24
330
5
100
AcDbSymbolTableRecord
100
AcDbLinetypeTableRecord
  2
DASHED3
 70
     0
  3
------  ------  ------  ------  
 72
    65
 73
     2
 40
5.0
 49
3.75
 74
     0
 49
-1.25
 74
     0
  0
LTYPE
  5
25
330
5
100
AcDbSymbolTableRecord
100
AcDbLinetypeTableRecord
  2
CENTER1
 70
     0
  3
----- - ----- - ----- - ----- - 
 72
    65
 73
     4
 40
10.0
 49
6.25
 74
     0
 49
-1.25
 74
     0
 49
1.25
 74
     0
 49
-1.25
 74
     0
  0
LTYPE
  5
26
330
5
100
AcDbSymbolTableRecord
100
AcDbLinetypeTableRecord
  2
CENTER2
 70
     0
  3
----------  --  ----------  --  
 72
    65
 73
     4
 40
20.0
 49
12.5
 74
     0
 49
-2.5
 74
     0
 49
2.5
 74
     0
 49
-2.5
 74
     0
  0
LTYPE
  5
27
330
5
100
AcDbSymbolTableRecord
100
AcDbLinetypeTableRecord
  2
PHANTOM1
 70
     0
  3
--- - - --- - - --- - - --- - - 
 72
    65
 73
     6
 40
10.0
 49
3.25
 74
     0
 49
-1.25
 74
     0
 49
1.25
 74
     0
 49
-1.25
 74
     0
 49
1.25
 74
     0
 49
-1.25
 74
     0
  0
LTYPE
  5
28
330
5
100
AcDbSymbolTableRecord
100
AcDbLinetypeTableRecord
  2
PHANTOM2
 70
     0
  3
--------  -  -  --------  -  -  
 72
    65
 73
     6
 40
20.0
 49
10.0
 74
     0
 49
-2.5
 74
     0
 49
1.25
 74
     0
 49
-2.5
 74
     0
 49
1.25
 74
     0
 49
-2.5
 74
     0
  0
LTYPE
  5
29
330
5
100
AcDbSymbolTableRecord
100
AcDbLinetypeTableRecord
  2
DOT
 70
     0
  3
-   -   -   -   -   -   -   -   
 72
    65
 73
     2
 40
2.5
 49
0.625
 74
     0
 49
-1.875
 74
     0
  0
LTYPE
  5
2A
330
5
100
AcDbSymbolTableRecord
100
AcDbLinetypeTableRecord
  2
DUMMY
 70
     0
  3
ダミー
 72
    65
 73
     0
 40
0.0
  0
LTYPE
  5
2B
330
5
100
AcDbSymbolTableRecord
100
AcDbLinetypeTableRecord
  2
RAND1
 70
     0
  3
ランダム線1
 72
    65
 73
     4
 40
10.0
 49
1.0
 74
     0
 49
-2.0
 74
     0
 49
3.0
 74
     0
 49
-4.0
 74
     0
  0
LTYPE
  5
2C
330
5
100
AcDbSymbolTableRecord
100
AcDbLinetypeTableRecord
  2
RAND2
 70
     0
  3
ランダム線2
 72
    65
 73
     4
 40
14.0
 49
2.0
 74
     0
 49
-3.0
 74
     0
 49
4.0
 74
     0
 49
-5.0
 74
     0
  0
LTYPE
  5
2D
330
5
100
AcDbSymbolTableRecord
100
AcDbLinetypeTableRecord
  2
RAND3
 70
     0
  3
ランダム線3
 72
    65
 73
     4
 40
18.0
 49
3.0
 74
     0
 49
-4.0
 74
     0
 49
5.0
 74
     0
 49
-6.0
 74
     0
  0
LTYPE
  5
2E
330
5
100
AcDbSymbolTableRecord
100
AcDbLinetypeTableRecord
  2
RAND4
 70
     0
  3
ランダム線4
 72
    65
 73
     4
 40
22.0
 49
4.0
 74
     0
 49
-5.0
 74
     0
 49
6.0
 74
     0
 49
-7.0
 74
     0
  0
LTYPE
  5
2F
330
5
100
AcDbSymbolTableRecord
100
AcDbLinetypeTableRecord
  2
RAND5
 70
     0
  3
ランダム線5
 72
    65
 73
     4
 40
26.0
 49
5.0
 74
     0
 49
-6.0
 74
     0
 49
7.0
 74
     0
 49
-8.0
 74
     0
  0
LTYPE
  5
30
330
5
100
AcDbSymbolTableRecord
100
AcDbLinetypeTableRecord
  2
LONG1
 70
     0
  3
----------  --  ----------  --  
 72
    65
 73
     4
 40
40.0
 49
32.5
 74
     0
 49
-2.5
 74
     0
 49
2.5
 74
     0
 49
-2.5
 74
     0
  0
LTYPE
  5
31
330
5
100
AcDbSymbolTableRecord
100
AcDbLinetypeTableRecord
  2
LONG2
 70
     0
  3
--------  -  -  --------  -  -  
 72
    65
 73
     6
 40
40.0
 49
30.0
 74
     0
 49
-2.5
 74
     0
 49
1.25
 74
     0
 49
-2.5
 74
     0
 49
1.25
 74
     0
 49
-2.5
 74
     0
  0
LTYPE
  5
32
330
5
100
AcDbSymbolTableRecord
100
AcDbLinetypeTableRecord
  2
LONG3
 70
     0
  3
+++++++++++++++..+++++++++++++++
 72
    65
 73
     2
 40
40.0
 49
37.5
 74
     0
 49
-2.5
 74
     0
  0
LTYPE
  5
33
330
5
100
AcDbSymbolTableRecord
100
AcDbLinetypeTableRecord
  2
LONG4
 70
     0
  3
+++++++++++++++..+++++++++++++++
 72
    65
 73
     2
 40
80.0
 49
75.0
 74
     0
 49
-5.0
 74
     0
  0
LTYPE
  5
34
330
5
100
AcDbSymbolTableRecord
100
AcDbLinetypeTableRecord
  2
LONG5
 70
     0
  3
----------  --  ----------  --  
 72
    65
 73
     4
 40
60.0
 49
37.5
 74
     0
 49
-7.5
 74
     0
 49
7.5
 74
     0
 49
-7.5
 74
     0
  0
LTYPE
  5
35
330
5
100
AcDbSymbolTableRecord
100
AcDbLinetypeTableRecord
  2
DASHED
 70
     0
  3
-------   -------------   ------
 72
    65
 73
     2
 40
7.5
 49
6.0
 74
     0
 49
-1.5
 74
     0
  0
LTYPE
  5
36
330
5
100
AcDbSymbolTableRecord
100
AcDbLinetypeTableRecord
  2
DASHED_SPACED
 70
     0
  3
----        --------        ----
 72
    65
 73
     2
 40
12.0
 49
6.0
 74
     0
 49
-6.0
 74
     0
  0
LTYPE
  5
37
330
5
100
AcDbSymbolTableRecord
100
AcDbLinetypeTableRecord
  2
LONG_DASHED_DOTTED
 70
     0
  3
------------- --- --------------
 72
    65
 73
     4
 40
15.25
 49
12.0
 74
     0
 49
-1.5
 74
     0
 49
0.25
 74
     0
 49
-1.5
 74
     0
  0
LTYPE
  5
38
330
5
100
AcDbSymbolTableRecord
100
AcDbLinetypeTableRecord
  2
LONG_DASHED_DOUBLE-DOTTED
 70
     0
  3
----------- --- --- ------------
 72
    65
 73
     6
 40
17.0
 49
12.0
 74
     0
 49
-1.5
 74
     0
 49
0.25
 74
     0
 49
-1.5
 74
     0
 49
0.25
 74
     0
 49
-1.5
 74
     0
  0
LTYPE
  5
39
330
5
100
AcDbSymbolTableRecord
100
AcDbLinetypeTableRecord
  2
LONG_DASHED_TRIPLICATE-DOTTED
 70
     0
  3
--------- --- --- --- ----------
 72
    65
 73
     8
 40
18.75
 49
12.0
 74
     0
 49
-1.5
 74
     0
 49
0.25
 74
     0
 49
-1.5
 74
     0
 49
0.25
 74
     0
 49
-1.5
 74
     0
 49
0.25
 74
     0
 49
-1.5
 74
     0
  0
LTYPE
  5
3A
330
5
100
AcDbSymbolTableRecord
100
AcDbLinetypeTableRecord
  2
DOTTED
 70
     0
  3
   -       -       -       -    
 72
    65
 73
     2
 40
1.75
 49
0.25
 74
     0
 49
-1.5
 74
     0
  0
LTYPE
  5
3B
330
5
100
AcDbSymbolTableRecord
100
AcDbLinetypeTableRecord
  2
CHAIN
 70
     0
  3
-------------- -- --------------
 72
    65
 73
     4
 40
18.5
 49
12.0
 74
     0
 49
-1.5
 74
     0
 49
3.5
 74
     0
 49
-1.5
 74
     0
  0
LTYPE
  5
3C
330
5
100
AcDbSymbolTableRecord
100
AcDbLinetypeTableRecord
  2
CHAIN_DOUBLE_DASH
 70
     0
  3
------------ -- -- -------------
 72
    65
 73
     6
 40
23.5
 49
12.0
 74
     0
 49
-1.5
 74
     0
 49
3.5
 74
     0
 49
-1.5
 74
     0
 49
3.5
 74
     0
 49
-1.5
 74
     0
  0
LTYPE
  5
3D
330
5
100
AcDbSymbolTableRecord
100
AcDbLinetypeTableRecord
  2
DASHED_DOTTED
 70
     0
  3
-----------     -     ----------
 72
    65
 73
     4
 40
9.25
 49
6.0
 74
     0
 49
-1.5
 74
     0
 49
0.25
 74
     0
 49
-1.5
 74
     0
  0
LTYPE
  5
3E
330
5
100
AcDbSymbolTableRecord
100
AcDbLinetypeTableRecord
  2
DOUBLE-DASHED_DOTTED
 70
     0
  3
------   -----------   -   -----
 72
    65
 73
     6
 40
16.75
 49
6.0
 74
     0
 49
-1.5
 74
     0
 49
6.0
 74
     0
 49
-1.5
 74
     0
 49
0.25
 74
     0
 49
-1.5
 74
     0
  0
LTYPE
  5
3F
330
5
100
AcDbSymbolTableRecord
100
AcDbLinetypeTableRecord
  2
DASHED_DOUBLE-DOTTED
 70
     0
  3
---------    -    -    ---------
 72
    65
 73
     6
 40
11.0
 49
6.0
 74
     0
 49
-1.5
 74
     0
 49
0.25
 74
     0
 49
-1.5
 74
     0
 49
0.25
 74
     0
 49
-1.5
 74
     0
  0
LTYPE
  5
40
330
5
100
AcDbSymbolTableRecord
100
AcDbLinetypeTableRecord
  2
DOUBLE-DASHED_DOUBLE-DOTTED
 70
     0
  3
-----   ---------   -   -   ----
 72
    65
 73
     8
 40
18.5
 49
6.0
 74
     0
 49
-1.5
 74
     0
 49
6.0
 74
     0
 49
-1.5
 74
     0
 49
0.25
 74
     0
 49
-1.5
 74
     0
 49
0.25
 74
     0
 49
-1.5
 74
     0
  0
LTYPE
  5
41
330
5
100
AcDbSymbolTableRecord
100
AcDbLinetypeTableRecord
  2
DASHED_TRIPLICATE-DOTTED
 70
     0
  3
-------    -    -    -    ------
 72
    65
 73
     8
 40
12.75
 49
6.0
 74
     0
 49
-1.5
 74
     0
 49
0.25
 74
     0
 49
-1.5
 74
     0
 49
0.25
 74
     0
 49
-1.5
 74
     0
 49
0.25
 74
     0
 49
-1.5
 74
     0
  0
LTYPE
  5
42
330
5
100
AcDbSymbolTableRecord
100
AcDbLinetypeTableRecord
  2
DOUBLE-DASHED_TRIPLICATE-DOTTED
 70
     0
  3
-----  ---------  -  -  -  -----
 72
    65
 73
    10
 40
20.24999999999999
 49
6.0
 74
     0
 49
-1.5
 74
     0
 49
6.0
 74
     0
 49
-1.5
 74
     0
 49
0.25
 74
     0
 49
-1.5
 74
     0
 49
0.25
 74
     0
 49
-1.5
 74
     0
 49
0.25
 74
     0
 49
-1.5
 74
     0
  0
LTYPE
  5
43
330
5
100
AcDbSymbolTableRecord
100
AcDbLinetypeTableRecord
  2
UNDEFINED
 70
     0
  3
--------------------------------
 72
    65
 73
     0
 40
0.0
  0
LTYPE
  5
44
330
5
100
AcDbSymbolTableRecord
100
AcDbLinetypeTableRecord
  2
PLINE2
 70
     0
  3
------     -----------     -----
 72
    65
 73
     2
 40
3.0
 49
2.1
 74
     0
 49
-0.9
 74
     0
  0
LTYPE
  5
45
330
5
100
AcDbSymbolTableRecord
100
AcDbLinetypeTableRecord
  2
PLINE3
 70
     0
  3
------------   ---   -----------
 72
    65
 73
     4
 40
10.0
 49
7.0
 74
     0
 49
-1.0
 74
     0
 49
1.0
 74
     0
 49
-1.0
 74
     0
  0
LTYPE
  5
46
330
5
100
AcDbSymbolTableRecord
100
AcDbLinetypeTableRecord
  2
PLINE4
 70
     0
  3
---------   ---   ---   --------
 72
    65
 73
     6
 40
10.0
 49
5.0
 74
     0
 49
-1.0
 74
     0
 49
1.0
 74
     0
 49
-1.0
 74
     0
 49
1.0
 74
     0
 49
-1.0
 74
     0
  0
LTYPE
  5
47
330
5
100
AcDbSymbolTableRecord
100
AcDbLinetypeTableRecord
  2
PLINE5
 70
     0
  3
------     -----------     -----
 72
    65
 73
     2
 40
5.0
 49
3.5
 74
     0
 49
-1.5
 74
     0
  0
LTYPE
  5
48
330
5
100
AcDbSymbolTableRecord
100
AcDbLinetypeTableRecord
  2
PLINE6
 70
     0
  3
------------   ---   -----------
 72
    65
 73
     4
 40
15.0
 49
10.5
 74
     0
 49
-1.5
 74
     0
 49
1.5
 74
     0
 49
-1.5
 74
     0
  0
LTYPE
  5
49
330
5
100
AcDbSymbolTableRecord
100
AcDbLinetypeTableRecord
  2
PLINE7
 70
     0
  3
---------   ---   ---   --------
 72
    65
 73
     6
 40
15.0
 49
7.5
 74
     0
 49
-1.5
 74
     0
 49
1.5
 74
     0
 49
-1.5
 74
     0
 49
1.5
 74
     0
 49
-1.5
 74
     0
  0
LTYPE
  5
4A
330
5
100
AcDbSymbolTableRecord
100
AcDbLinetypeTableRecord
  2
PLINE8
 70
     0
  3
------     -----------     -----
 72
    65
 73
     2
 40
7.0
 49
4.9
 74
     0
 49
-2.1
 74
     0
  0
LTYPE
  5
4B
330
5
100
AcDbSymbolTableRecord
100
AcDbLinetypeTableRecord
  2
PLINE9
 70
     0
  3
------------   ---   -----------
 72
    65
 73
     4
 40
20.0
 49
14.0
 74
     0
 49
-2.0
 74
     0
 49
2.0
 74
     0
 49
-2.0
 74
     0
  0
LTYPE
  5
4C
330
5
100
AcDbSymbolTableRecord
100
AcDbLinetypeTableRecord
  2
PLINE10
 70
     0
  3
---------   ---   ---   --------
 72
    65
 73
     6
 40
20.0
 49
10.0
 74
     0
 49
-2.0
 74
     0
 49
2.0
 74
     0
 49
-2.0
 74
     0
 49
2.0
 74
     0
 49
-2.0
 74
     0
  0
LTYPE
  5
4D
330
5
100
AcDbSymbolTableRecord
100
AcDbLinetypeTableRecord
  2
PLINE11
 70
     0
  3
------     -----------     -----
 72
    65
 73
     2
 40
9.0
 49
6.299999999999998
 74
     0
 49
-2.7
 74
     0
  0
LTYPE
  5
4E
330
5
100
AcDbSymbolTableRecord
100
AcDbLinetypeTableRecord
  2
PLINE12
 70
     0
  3
------------   ---   -----------
 72
    65
 73
     4
 40
25.0
 49
17.5
 74
     0
 49
-2.5
 74
     0
 49
2.5
 74
     0
 49
-2.5
 74
     0
  0
LTYPE
  5
4F
330
5
100
AcDbSymbolTableRecord
100
AcDbLinetypeTableRecord
  2
PLINE13
 70
     0
  3
---------   ---   ---   --------
 72
    65
 73
     6
 40
25.0
 49
12.5
 74
     0
 49
-2.5
 74
     0
 49
2.5
 74
     0
 49
-2.5
 74
     0
 49
2.5
 74
     0
 49
-2.5
 74
     0
  0
LTYPE
  5
50
330
5
100
AcDbSymbolTableRecord
100
AcDbLinetypeTableRecord
  2
PLINE14
 70
     0
  3
------     -----------     -----
 72
    65
 73
     2
 40
11.0
 49
7.7
 74
     0
 49
-3.299999999999998
 74
     0
  0
LTYPE
  5
51
330
5
100
AcDbSymbolTableRecord
100
AcDbLinetypeTableRecord
  2
PLINE15
 70
     0
  3
------------   ---   -----------
 72
    65
 73
     4
 40
30.0
 49
21.0
 74
     0
 49
-3.0
 74
     0
 49
3.0
 74
     0
 49
-3.0
 74
     0
  0
LTYPE
  5
52
330
5
100
AcDbSymbolTableRecord
100
AcDbLinetypeTableRecord
  2
PLINE16
 70
     0
  3
---------   ---   ---   --------
 72
    65
 73
     6
 40
30.0
 49
15.0
 74
     0
 49
-3.0
 74
     0
 49
3.0
 74
     0
 49
-3.0
 74
     0
 49
3.0
 74
     0
 49
-3.0
 74
     0
  0
ENDTAB
  0
TABLE
  2
LAYER
  5
2
102
{ACAD_XDICTIONARY
360
175
102
}
330
0
100
AcDbSymbolTable
 70
     6
  0
LAYER
  5
10
330
2
100
AcDbSymbolTableRecord
100
AcDbLayerTableRecord
  2
0
 70
     0
 62
     7
  6
CONTINUOUS
370
    -3
390
F
  0
LAYER
  5
128
330
2
100
AcDbSymbolTableRecord
100
AcDbLayerTableRecord
  2
Defpoints
 70
     0
 62
     7
  6
CONTINUOUS
290
     0
370
    -3
390
F
  0
LAYER
  5
178
330
2
100
AcDbSymbolTableRecord
100
AcDbLayerTableRecord
  2
寸法
 70
     0
 62
     7
  6
CONTINUOUS
370
    -3
390
F
  0
LAYER
  5
179
330
2
100
AcDbSymbolTableRecord
100
AcDbLayerTableRecord
  2
躯体
 70
     0
 62
     7
  6
CONTINUOUS
370
    -3
390
F
  0
LAYER
  5
17A
330
2
100
AcDbSymbolTableRecord
100
AcDbLayerTableRecord
  2
笠木
 70
     0
 62
     7
  6
CONTINUOUS
370
    -3
390
F
  0
LAYER
  5
3E8B
330
2
100
AcDbSymbolTableRecord
100
AcDbLayerTableRecord
  2
本体
 70
     0
 62
     7
  6
CONTINUOUS
370
    -3
390
F
  0
ENDTAB
  0
TABLE
  2
STYLE
  5
3
330
0
100
AcDbSymbolTable
 70
     4
  0
STYLE
  5
11
330
3
100
AcDbSymbolTableRecord
100
AcDbTextStyleTableRecord
  2
STANDARD
 70
     0
 40
0.0
 41
1.0
 50
0.0
 71
     0
 42
0.2
  3
txt
  4
bigfont.shx
  0
STYLE
  5
53
330
3
100
AcDbSymbolTableRecord
100
AcDbTextStyleTableRecord
  2
TATEGAKI
 70
     4
 40
0.0
 41
1.0
 50
0.0
 71
     0
 42
1.0
  3
txt
  4
bigfont.shx
  0
STYLE
  5
123
330
3
100
AcDbSymbolTableRecord
100
AcDbTextStyleTableRecord
  2
ACAD
 70
     0
 40
5.0
 41
0.8
 50
0.0
 71
     0
 42
5.0
  3
romans.shx
  4
extfont.shx
  0
STYLE
  5
3A5F
330
3
100
AcDbSymbolTableRecord
100
AcDbTextStyleTableRecord
  2
VERTXT
 70
     4
 40
0.0
 41
0.8582679999999999
 50
0.0
 71
     0
 42
3.5
  3
txt.shx
  4
BIGFONT
  0
ENDTAB
  0
TABLE
  2
VIEW
  5
6
330
0
100
AcDbSymbolTable
 70
     0
  0
ENDTAB
  0
TABLE
  2
UCS
  5
7
330
0
100
AcDbSymbolTable
 70
     0
  0
ENDTAB
  0
TABLE
  2
APPID
  5
9
330
0
100
AcDbSymbolTable
 70
    10
  0
APPID
  5
12
330
9
100
AcDbSymbolTableRecord
100
AcDbRegAppTableRecord
  2
ACAD
 70
     0
  0
APPID
  5
924D
330
9
100
AcDbSymbolTableRecord
100
AcDbRegAppTableRecord
  2
CONTENTBLOCKICON
 70
     0
  0
APPID
  5
199BC
330
9
100
AcDbSymbolTableRecord
100
AcDbRegAppTableRecord
  2
ACAD_DSTYLE_DIMTEXT_FILL
 70
     0
  0
APPID
  5
199BD
330
9
100
AcDbSymbolTableRecord
100
AcDbRegAppTableRecord
  2
ACAD_DSTYLE_DIMEXT_LENGTH
 70
     0
  0
APPID
  5
199BE
330
9
100
AcDbSymbolTableRecord
100
AcDbRegAppTableRecord
  2
ACAD_DSTYLE_DIMEXT_ENABLED
 70
     0
  0
APPID
  5
199BF
330
9
100
AcDbSymbolTableRecord
100
AcDbRegAppTableRecord
  2
ACAD_DSTYLE_DIM_LINETYPE
 70
     0
  0
APPID
  5
199C0
330
9
100
AcDbSymbolTableRecord
100
AcDbRegAppTableRecord
  2
ACAD_DSTYLE_DIM_EXT1_LINETYPE
 70
     0
  0
APPID
  5
199C1
330
9
100
AcDbSymbolTableRecord
100
AcDbRegAppTableRecord
  2
ACAD_DSTYLE_DIM_EXT2_LINETYPE
 70
     0
  0
APPID
  5
19AAD
330
9
100
AcDbSymbolTableRecord
100
AcDbRegAppTableRecord
  2
ACAD_DSTYLE_DIMJOGGED_JOGANGLE_SYMBOL
 70
     0
  0
APPID
  5
19B15
330
9
100
AcDbSymbolTableRecord
100
AcDbRegAppTableRecord
  2
ACAD_DSTYLE_DIMARC_LENGTH_SYMBOL
 70
     0
  0
ENDTAB
  0
TABLE
  2
DIMSTYLE
  5
A
330
0
100
AcDbSymbolTable
 70
     3
100
AcDbDimStyleTable
 71
     1
340
2CBB
  0
DIMSTYLE
105
11C
330
A
100
AcDbSymbolTableRecord
100
AcDbDimStyleTableRecord
  2
Standard
 70
     0
340
11
  0
DIMSTYLE
105
126
330
A
100
AcDbSymbolTableRecord
100
AcDbDimStyleTableRecord
  2
AutoCAD
 70
     0
 41
1.0
 42
0.0
 44
0.0
 73
     0
 77
     1
140
5.0
147
1.0
174
     1
176
     4
177
     4
178
     3
271
     0
272
     0
289
     0
340
123
341
11E
342
11E
  0
DIMSTYLE
105
2CBB
102
{ACAD_REACTORS
330
197F7
330
197F5
330
197F6
330
197F4
330
197FB
330
197FA
330
197F9
330
197FD
330
198E3
330
198F9
330
19906
330
197FE
330
1994F
330
19965
102
}
330
A
100
AcDbSymbolTableRecord
100
AcDbDimStyleTableRecord
  2
111
 70
     0
 41
1.0
 42
0.0
 44
0.0
 73
     0
 77
     1
140
5.0
147
1.0
174
     1
176
     4
177
     4
178
     3
271
     0
272
     0
289
     0
340
123
341
2CB5
342
19ADE
1001
ACAD_DSTYLE_DIMJOGGED_JOGANGLE_SYMBOL
1070
   384
1040
0.7853981633974483
1001
ACAD_DSTYLE_DIMEXT_LENGTH
1070
   378
1040
0.0
  0
ENDTAB
  0
TABLE
  2
BLOCK_RECORD
  5
1
330
0
100
AcDbSymbolTable
 70
    26
  0
BLOCK_RECORD
  5
1E
102
{ACAD_XDICTIONARY
360
28B
102
}
330
1
100
AcDbSymbolTableRecord
100
AcDbBlockTableRecord
  2
*Model_Space
340
21
  0
BLOCK_RECORD
  5
1A
102
{ACAD_XDICTIONARY
360
28D
102
}
330
1
100
AcDbSymbolTableRecord
100
AcDbBlockTableRecord
  2
*Paper_Space
340
1D
  0
BLOCK_RECORD
  5
11E
330
1
100
AcDbSymbolTableRecord
100
AcDbBlockTableRecord
  2
_Dot
340
0
310
2800000020000000200000000100080000000000000400000000000000000000000000000000000000000000000080000080000000808000800000008000800080800000C0C0C000C0DCC000F0CAA6000020400000206000002080000020A0000020C0000020E00000400000004020000040400000406000004080000040A0
310
000040C0000040E00000600000006020000060400000606000006080000060A0000060C0000060E00000800000008020000080400000806000008080000080A0000080C0000080E00000A0000000A0200000A0400000A0600000A0800000A0A00000A0C00000A0E00000C0000000C0200000C0400000C0600000C0800000C0
310
A00000C0C00000C0E00000E0000000E0200000E0400000E0600000E0800000E0A00000E0C00000E0E00040000000400020004000400040006000400080004000A0004000C0004000E00040200000402020004020400040206000402080004020A0004020C0004020E000404000004040200040404000404060004040800040
310
40A0004040C0004040E00040600000406020004060400040606000406080004060A0004060C0004060E00040800000408020004080400040806000408080004080A0004080C0004080E00040A0000040A0200040A0400040A0600040A0800040A0A00040A0C00040A0E00040C0000040C0200040C0400040C0600040C08000
310
40C0A00040C0C00040C0E00040E0000040E0200040E0400040E0600040E0800040E0A00040E0C00040E0E00080000000800020008000400080006000800080008000A0008000C0008000E00080200000802020008020400080206000802080008020A0008020C0008020E00080400000804020008040400080406000804080
310
008040A0008040C0008040E00080600000806020008060400080606000806080008060A0008060C0008060E00080800000808020008080400080806000808080008080A0008080C0008080E00080A0000080A0200080A0400080A0600080A0800080A0A00080A0C00080A0E00080C0000080C0200080C0400080C0600080C0
310
800080C0A00080C0C00080C0E00080E0000080E0200080E0400080E0600080E0800080E0A00080E0C00080E0E000C0000000C0002000C0004000C0006000C0008000C000A000C000C000C000E000C0200000C0202000C0204000C0206000C0208000C020A000C020C000C020E000C0400000C0402000C0404000C0406000C0
310
408000C040A000C040C000C040E000C0600000C0602000C0604000C0606000C0608000C060A000C060C000C060E000C0800000C0802000C0804000C0806000C0808000C080A000C080C000C080E000C0A00000C0A02000C0A04000C0A06000C0A08000C0A0A000C0A0C000C0A0E000C0C00000C0C02000C0C04000C0C06000
310
C0C08000C0C0A000F0FBFF00A4A0A000808080000000FF0000FF000000FFFF00FF000000FF00FF00FFFF0000FFFFFF0000000000000000000000000000000000000000000000000000000000000000000000000000000000000000000000000000000000000000000000000000000000000000000000000000000000000000
310
000000000000000000FF000000000000000000000000000000000000000000000000000000000000FFFFFF00000000000000000000000000000000000000000000000000000000FF00FF00FF0000000000000000000000000000000000000000000000000000FF0000FF0000FF000000000000000000000000000000000000
310
000000000000FF000000FF000000FF00000000000000000000000000000000000000000000FF00000000FF00000000FF0000000000000000000000000000000000000000FF0000000000FF0000000000FF000000000000000000000000000000000000FF000000000000FF000000000000FF00000000000000000000000000
310
000000FF00000000000000FF00000000000000000000000000000000000000000000FF0000000000000000FF000000000000000000000000000000000000000000FF000000000000000000FF0000000000000000000000000000000000000000FF00000000000000000000FF00000000000000000000000000000000000000
310
FF00000000000000000000FFFFFF0000000000000000000000000000000000FF00000000000000000000FFFFFFFFFFFFFFFFFFFF00FFFFFFFFFFFFFFFFFFFFFFFFFFFFFFFFFFFFFFFFFFFFFFFFFFFF00000000000000000000000000000000FF0000000000000000000000FFFFFF0000000000000000000000000000000000
310
00FF0000000000000000000000FF0000000000000000000000000000000000000000FF00000000000000000000FF000000000000000000000000000000000000000000FF000000000000000000FF00000000000000000000000000000000000000000000FF0000000000000000FF0000000000000000000000000000000000
310
000000000000FFFF000000000000FF000000000000FF000000000000000000000000000000000000FF0000000000FF0000000000FF0000000000000000000000000000000000000000FF00000000FF00000000FF00000000000000000000000000000000000000000000FF000000FF000000FF000000000000000000000000
310
000000000000000000000000FF0000FF0000FF0000000000000000000000000000000000000000000000000000FF00FF00FF00000000000000000000000000000000000000000000000000000000FFFFFF000000000000000000000000000000000000000000000000000000000000FF000000000000000000000000000000
310
0000000000000000000000000000000000000000000000000000000000000000000000000000000000000000000000000000000000000000
  0
BLOCK_RECORD
  5
15B0
330
1
100
AcDbSymbolTableRecord
100
AcDbBlockTableRecord
  2
_None
340
0
  0
BLOCK_RECORD
  5
2CB5
330
1
100
AcDbSymbolTableRecord
100
AcDbBlockTableRecord
  2
_Open30
340
0
  0
BLOCK_RECORD
  5
35E3
330
1
100
AcDbSymbolTableRecord
100
AcDbBlockTableRecord
  2
_DotBlank
340
0
  0
BLOCK_RECORD
  5
62D9
330
1
100
AcDbSymbolTableRecord
100
AcDbBlockTableRecord
  2
1
340
0
310
2800000020000000200000000100080000000000000400000000000000000000000000000000000000000000000080000080000000808000800000008000800080800000C0C0C000C0DCC000F0CAA6000020400000206000002080000020A0000020C0000020E00000400000004020000040400000406000004080000040A0
310
000040C0000040E00000600000006020000060400000606000006080000060A0000060C0000060E00000800000008020000080400000806000008080000080A0000080C0000080E00000A0000000A0200000A0400000A0600000A0800000A0A00000A0C00000A0E00000C0000000C0200000C0400000C0600000C0800000C0
310
A00000C0C00000C0E00000E0000000E0200000E0400000E0600000E0800000E0A00000E0C00000E0E00040000000400020004000400040006000400080004000A0004000C0004000E00040200000402020004020400040206000402080004020A0004020C0004020E000404000004040200040404000404060004040800040
310
40A0004040C0004040E00040600000406020004060400040606000406080004060A0004060C0004060E00040800000408020004080400040806000408080004080A0004080C0004080E00040A0000040A0200040A0400040A0600040A0800040A0A00040A0C00040A0E00040C0000040C0200040C0400040C0600040C08000
310
40C0A00040C0C00040C0E00040E0000040E0200040E0400040E0600040E0800040E0A00040E0C00040E0E00080000000800020008000400080006000800080008000A0008000C0008000E00080200000802020008020400080206000802080008020A0008020C0008020E00080400000804020008040400080406000804080
310
008040A0008040C0008040E00080600000806020008060400080606000806080008060A0008060C0008060E00080800000808020008080400080806000808080008080A0008080C0008080E00080A0000080A0200080A0400080A0600080A0800080A0A00080A0C00080A0E00080C0000080C0200080C0400080C0600080C0
310
800080C0A00080C0C00080C0E00080E0000080E0200080E0400080E0600080E0800080E0A00080E0C00080E0E000C0000000C0002000C0004000C0006000C0008000C000A000C000C000C000E000C0200000C0202000C0204000C0206000C0208000C020A000C020C000C020E000C0400000C0402000C0404000C0406000C0
310
408000C040A000C040C000C040E000C0600000C0602000C0604000C0606000C0608000C060A000C060C000C060E000C0800000C0802000C0804000C0806000C0808000C080A000C080C000C080E000C0A00000C0A02000C0A04000C0A06000C0A08000C0A0A000C0A0C000C0A0E000C0C00000C0C02000C0C04000C0C06000
310
C0C08000C0C0A000F0FBFF00A4A0A000808080000000FF0000FF000000FFFF00FF000000FF00FF00FFFF0000FFFFFF0000000000000000000000000000000000000000000000000000000000000000000000000000000000000000000000000000000000000000000000000000000000000000000000000000000000000000
310
00000000000000000000000000000000000000000000000000000000000000000000000000000000000000000000000000000000000000000000000000000000000000000000000000000000000000000000000000000000000000000000000000000000000000000000000000000000000000000000000000000000000000
310
00000000000000000000000000000000000000000000000000000000000000000000000000000000000000000000000000000000000000000000000000000000000000000000000000000000000000000000000000000000000000000000000000000000000000000000000000000000000000000000000000000000000000
310
00000000000000000000000000000000000000000000000000000000000000000000000000000000000000000000000000000000000000000000000000000000000000000000000000000000000000000000000000000000000000000000000000000000000000000000000000000000000000000000000000000000000000
310
00000000000000000000000000000000000000000000000000000000000000000000000000000000000000000000000000FE000000FEFEFEFEFEFEFEFEFEFEFEFEFEFEFEFEFEFEFEFEFEFEFEFEFEFEFEFEFEFE0000000000000000000000000000000000000000000000000000000000000000000000000000000000000000
310
00000000000000000000000000000000000000000000000000000000000000000000000000000000000000000000000000000000000000000000000000000000000000000000000000000000000000000000000000000000000000000000000000000000000000000000000000000000000000000000000000000000000000
310
00000000000000000000000000000000000000000000000000000000000000000000000000000000000000000000000000000000000000000000000000000000000000000000000000000000000000000000000000000000000000000000000000000000000000000000000000000000000000000000000000000000000000
310
00000000000000000000000000000000000000000000000000000000000000000000000000000000000000000000000000000000000000000000000000000000000000000000000000000000000000000000000000000000000000000000000000000000000000000000000000000000000000000000000000000000000000
310
0000000000000000000000000000000000000000000000000000000000000000000000000000000000000000000000000000000000000000
  0
BLOCK_RECORD
  5
63FC
330
1
100
AcDbSymbolTableRecord
100
AcDbBlockTableRecord
  2
2
340
0
310
2800000020000000200000000100080000000000000400000000000000000000000000000000000000000000000080000080000000808000800000008000800080800000C0C0C000C0DCC000F0CAA6000020400000206000002080000020A0000020C0000020E00000400000004020000040400000406000004080000040A0
310
000040C0000040E00000600000006020000060400000606000006080000060A0000060C0000060E00000800000008020000080400000806000008080000080A0000080C0000080E00000A0000000A0200000A0400000A0600000A0800000A0A00000A0C00000A0E00000C0000000C0200000C0400000C0600000C0800000C0
310
A00000C0C00000C0E00000E0000000E0200000E0400000E0600000E0800000E0A00000E0C00000E0E00040000000400020004000400040006000400080004000A0004000C0004000E00040200000402020004020400040206000402080004020A0004020C0004020E000404000004040200040404000404060004040800040
310
40A0004040C0004040E00040600000406020004060400040606000406080004060A0004060C0004060E00040800000408020004080400040806000408080004080A0004080C0004080E00040A0000040A0200040A0400040A0600040A0800040A0A00040A0C00040A0E00040C0000040C0200040C0400040C0600040C08000
310
40C0A00040C0C00040C0E00040E0000040E0200040E0400040E0600040E0800040E0A00040E0C00040E0E00080000000800020008000400080006000800080008000A0008000C0008000E00080200000802020008020400080206000802080008020A0008020C0008020E00080400000804020008040400080406000804080
310
008040A0008040C0008040E00080600000806020008060400080606000806080008060A0008060C0008060E00080800000808020008080400080806000808080008080A0008080C0008080E00080A0000080A0200080A0400080A0600080A0800080A0A00080A0C00080A0E00080C0000080C0200080C0400080C0600080C0
310
800080C0A00080C0C00080C0E00080E0000080E0200080E0400080E0600080E0800080E0A00080E0C00080E0E000C0000000C0002000C0004000C0006000C0008000C000A000C000C000C000E000C0200000C0202000C0204000C0206000C0208000C020A000C020C000C020E000C0400000C0402000C0404000C0406000C0
310
408000C040A000C040C000C040E000C0600000C0602000C0604000C0606000C0608000C060A000C060C000C060E000C0800000C0802000C0804000C0806000C0808000C080A000C080C000C080E000C0A00000C0A02000C0A04000C0A06000C0A08000C0A0A000C0A0C000C0A0E000C0C00000C0C02000C0C04000C0C06000
310
C0C08000C0C0A000F0FBFF00A4A0A000808080000000FF0000FF000000FFFF00FF000000FF00FF00FFFF0000FFFFFF0000000000000000000000000000000000000000000000000000000000000000000000000000000000000000000000000000000000000000000000000000000000000000000000000000000000000000
310
00000000000000000000000000000000000000000000000000000000000000000000000000000000000000000000000000000000000000000000000000000000000000000000000000000000000000000000000000000000000000000000000000000000000000000000000000000000000000000000000000000000000000
310
00000000000000000000000000000000000000000000000000000000000000000000000000000000000000000000000000000000000000000000000000000000000000000000000000000000000000000000000000000000000000000000000000000000000000000000000000000000000000000000000000000000000000
310
00000000000000000000000000000000000000000000000000000000000000000000000000000000000000000000000000000000000000000000000000000000000000000000000000000000000000000000000000000000000000000000000000000000000000000000000000000000000000000000000000000000000000
310
0000000000000000000000000000000000000000000000000000000000000000000000000000000000000000000000FBFB00000000FBFBFBFBFBFBFBFBFBFBFBFBFBFBFBFBFBFBFBFBFBFBFBFBFBFBFBFBFBFB0000000000000000000000000000000000000000000000000000000000000000000000000000000000000000
310
00000000000000000000000000000000000000000000000000000000000000000000000000000000000000000000000000000000000000000000000000000000000000000000000000000000000000000000000000000000000000000000000000000000000000000000000000000000000000000000000000000000000000
310
00000000000000000000000000000000000000000000000000000000000000000000000000000000000000000000000000000000000000000000000000000000000000000000000000000000000000000000000000000000000000000000000000000000000000000000000000000000000000000000000000000000000000
310
00000000000000000000000000000000000000000000000000000000000000000000000000000000000000000000000000000000000000000000000000000000000000000000000000000000000000000000000000000000000000000000000000000000000000000000000000000000000000000000000000000000000000
310
0000000000000000000000000000000000000000000000000000000000000000000000000000000000000000000000000000000000000000
  0
BLOCK_RECORD
  5
6403
330
1
100
AcDbSymbolTableRecord
100
AcDbBlockTableRecord
  2
3
340
0
310
2800000020000000200000000100080000000000000400000000000000000000000000000000000000000000000080000080000000808000800000008000800080800000C0C0C000C0DCC000F0CAA6000020400000206000002080000020A0000020C0000020E00000400000004020000040400000406000004080000040A0
310
000040C0000040E00000600000006020000060400000606000006080000060A0000060C0000060E00000800000008020000080400000806000008080000080A0000080C0000080E00000A0000000A0200000A0400000A0600000A0800000A0A00000A0C00000A0E00000C0000000C0200000C0400000C0600000C0800000C0
310
A00000C0C00000C0E00000E0000000E0200000E0400000E0600000E0800000E0A00000E0C00000E0E00040000000400020004000400040006000400080004000A0004000C0004000E00040200000402020004020400040206000402080004020A0004020C0004020E000404000004040200040404000404060004040800040
310
40A0004040C0004040E00040600000406020004060400040606000406080004060A0004060C0004060E00040800000408020004080400040806000408080004080A0004080C0004080E00040A0000040A0200040A0400040A0600040A0800040A0A00040A0C00040A0E00040C0000040C0200040C0400040C0600040C08000
310
40C0A00040C0C00040C0E00040E0000040E0200040E0400040E0600040E0800040E0A00040E0C00040E0E00080000000800020008000400080006000800080008000A0008000C0008000E00080200000802020008020400080206000802080008020A0008020C0008020E00080400000804020008040400080406000804080
310
008040A0008040C0008040E00080600000806020008060400080606000806080008060A0008060C0008060E00080800000808020008080400080806000808080008080A0008080C0008080E00080A0000080A0200080A0400080A0600080A0800080A0A00080A0C00080A0E00080C0000080C0200080C0400080C0600080C0
310
800080C0A00080C0C00080C0E00080E0000080E0200080E0400080E0600080E0800080E0A00080E0C00080E0E000C0000000C0002000C0004000C0006000C0008000C000A000C000C000C000E000C0200000C0202000C0204000C0206000C0208000C020A000C020C000C020E000C0400000C0402000C0404000C0406000C0
310
408000C040A000C040C000C040E000C0600000C0602000C0604000C0606000C0608000C060A000C060C000C060E000C0800000C0802000C0804000C0806000C0808000C080A000C080C000C080E000C0A00000C0A02000C0A04000C0A06000C0A08000C0A0A000C0A0C000C0A0E000C0C00000C0C02000C0C04000C0C06000
310
C0C08000C0C0A000F0FBFF00A4A0A000808080000000FF0000FF000000FFFF00FF000000FF00FF00FFFF0000FFFFFF0000000000000000000000000000000000000000000000000000000000000000000000000000000000000000000000000000000000000000000000000000000000000000000000000000000000000000
310
00000000000000000000000000000000000000000000000000000000000000000000000000000000000000000000000000000000000000000000000000000000000000000000000000000000000000000000000000000000000000000000000000000000000000000000000000000000000000000000000000000000000000
310
00000000000000000000000000000000000000000000000000000000000000000000000000000000000000000000000000000000000000000000000000000000000000000000000000000000000000000000000000000000000000000000000000000000000000000000000000000000000000000000000000000000000000
310
00000000000000000000000000000000000000000000000000000000000000000000000000000000000000000000000000000000000000000000000000000000000000000000000000000000000000000000000000000000000000000000000000000000000000000000000000000000000000000000000000000000000000
310
000000000000000000000000000000000000000000000000FEFE000000000000000000000000000000000000000000000000000000FEFEFEFEFEFEFEFEFEFEFEFEFEFEFEFEFEFEFEFEFEFEFEFEFEFEFEFEFEFE0000000000000000000000000000000000000000000000000000000000000000000000000000000000000000
310
00000000000000000000000000000000000000000000000000000000000000000000000000000000000000000000000000000000000000000000000000000000000000000000000000000000000000000000000000000000000000000000000000000000000000000000000000000000000000000000000000000000000000
310
00000000000000000000000000000000000000000000000000000000000000000000000000000000000000000000000000000000000000000000000000000000000000000000000000000000000000000000000000000000000000000000000000000000000000000000000000000000000000000000000000000000000000
310
00000000000000000000000000000000000000000000000000000000000000000000000000000000000000000000000000000000000000000000000000000000000000000000000000000000000000000000000000000000000000000000000000000000000000000000000000000000000000000000000000000000000000
310
0000000000000000000000000000000000000000000000000000000000000000000000000000000000000000000000000000000000000000
  0
BLOCK_RECORD
  5
75F6
330
1
100
AcDbSymbolTableRecord
100
AcDbBlockTableRecord
  2
5
340
0
310
2800000020000000200000000100080000000000000400000000000000000000000000000000000000000000000080000080000000808000800000008000800080800000C0C0C000C0DCC000F0CAA6000020400000206000002080000020A0000020C0000020E00000400000004020000040400000406000004080000040A0
310
000040C0000040E00000600000006020000060400000606000006080000060A0000060C0000060E00000800000008020000080400000806000008080000080A0000080C0000080E00000A0000000A0200000A0400000A0600000A0800000A0A00000A0C00000A0E00000C0000000C0200000C0400000C0600000C0800000C0
310
A00000C0C00000C0E00000E0000000E0200000E0400000E0600000E0800000E0A00000E0C00000E0E00040000000400020004000400040006000400080004000A0004000C0004000E00040200000402020004020400040206000402080004020A0004020C0004020E000404000004040200040404000404060004040800040
310
40A0004040C0004040E00040600000406020004060400040606000406080004060A0004060C0004060E00040800000408020004080400040806000408080004080A0004080C0004080E00040A0000040A0200040A0400040A0600040A0800040A0A00040A0C00040A0E00040C0000040C0200040C0400040C0600040C08000
310
40C0A00040C0C00040C0E00040E0000040E0200040E0400040E0600040E0800040E0A00040E0C00040E0E00080000000800020008000400080006000800080008000A0008000C0008000E00080200000802020008020400080206000802080008020A0008020C0008020E00080400000804020008040400080406000804080
310
008040A0008040C0008040E00080600000806020008060400080606000806080008060A0008060C0008060E00080800000808020008080400080806000808080008080A0008080C0008080E00080A0000080A0200080A0400080A0600080A0800080A0A00080A0C00080A0E00080C0000080C0200080C0400080C0600080C0
310
800080C0A00080C0C00080C0E00080E0000080E0200080E0400080E0600080E0800080E0A00080E0C00080E0E000C0000000C0002000C0004000C0006000C0008000C000A000C000C000C000E000C0200000C0202000C0204000C0206000C0208000C020A000C020C000C020E000C0400000C0402000C0404000C0406000C0
310
408000C040A000C040C000C040E000C0600000C0602000C0604000C0606000C0608000C060A000C060C000C060E000C0800000C0802000C0804000C0806000C0808000C080A000C080C000C080E000C0A00000C0A02000C0A04000C0A06000C0A08000C0A0A000C0A0C000C0A0E000C0C00000C0C02000C0C04000C0C06000
310
C0C08000C0C0A000F0FBFF00A4A0A000808080000000FF0000FF000000FFFF00FF000000FF00FF00FFFF0000FFFFFF0000000000000000000000000000000000000000000000000000000000000000000000000000000000000000000000000000000000000000000000000000000000000000000000000000000000000000
310
00000000000000000000000000000000000000000000000000000000000000000000000000000000000000000000000000000000000000000000000000000000000000000000000000000000000000000000000000000000000000000000000000000000000000000000000000000000000000000000000000000000000000
310
00000000000000000000000000000000000000000000000000000000000000000000000000000000000000000000000000000000000000000000000000000000000000000000000000000000000000000000000000000000000000000000000000000000000000000000000000000000000000000000000000000000000000
310
00000000000000000000000000000000000000000000000000000000000000000000000000000000000000000000000000000000000000000000000000000000000000000000000000000000000000000000000000000000000000000000000000000000000000000000000000000000000000000000000000000000000000
310
00000000000000000000000000000000000000000000FE000000000000000000000000000000000000000000000000000000000000FEFEFEFEFEFEFEFEFEFEFEFEFEFEFEFEFEFEFEFEFEFEFEFEFEFEFEFEFEFE0000000000000000000000000000000000000000000000000000000000000000000000000000000000000000
310
00000000000000000000000000000000000000000000000000000000000000000000000000000000000000000000000000000000000000000000000000000000000000000000000000000000000000000000000000000000000000000000000000000000000000000000000000000000000000000000000000000000000000
310
00000000000000000000000000000000000000000000000000000000000000000000000000000000000000000000000000000000000000000000000000000000000000000000000000000000000000000000000000000000000000000000000000000000000000000000000000000000000000000000000000000000000000
310
00000000000000000000000000000000000000000000000000000000000000000000000000000000000000000000000000000000000000000000000000000000000000000000000000000000000000000000000000000000000000000000000000000000000000000000000000000000000000000000000000000000000000
310
0000000000000000000000000000000000000000000000000000000000000000000000000000000000000000000000000000000000000000
  0
BLOCK_RECORD
  5
A65D
330
1
100
AcDbSymbolTableRecord
100
AcDbBlockTableRecord
  2
456
340
0
310
2800000020000000200000000100080000000000000400000000000000000000000000000000000000000000000080000080000000808000800000008000800080800000C0C0C000C0DCC000F0CAA6000020400000206000002080000020A0000020C0000020E00000400000004020000040400000406000004080000040A0
310
000040C0000040E00000600000006020000060400000606000006080000060A0000060C0000060E00000800000008020000080400000806000008080000080A0000080C0000080E00000A0000000A0200000A0400000A0600000A0800000A0A00000A0C00000A0E00000C0000000C0200000C0400000C0600000C0800000C0
310
A00000C0C00000C0E00000E0000000E0200000E0400000E0600000E0800000E0A00000E0C00000E0E00040000000400020004000400040006000400080004000A0004000C0004000E00040200000402020004020400040206000402080004020A0004020C0004020E000404000004040200040404000404060004040800040
310
40A0004040C0004040E00040600000406020004060400040606000406080004060A0004060C0004060E00040800000408020004080400040806000408080004080A0004080C0004080E00040A0000040A0200040A0400040A0600040A0800040A0A00040A0C00040A0E00040C0000040C0200040C0400040C0600040C08000
310
40C0A00040C0C00040C0E00040E0000040E0200040E0400040E0600040E0800040E0A00040E0C00040E0E00080000000800020008000400080006000800080008000A0008000C0008000E00080200000802020008020400080206000802080008020A0008020C0008020E00080400000804020008040400080406000804080
310
008040A0008040C0008040E00080600000806020008060400080606000806080008060A0008060C0008060E00080800000808020008080400080806000808080008080A0008080C0008080E00080A0000080A0200080A0400080A0600080A0800080A0A00080A0C00080A0E00080C0000080C0200080C0400080C0600080C0
310
800080C0A00080C0C00080C0E00080E0000080E0200080E0400080E0600080E0800080E0A00080E0C00080E0E000C0000000C0002000C0004000C0006000C0008000C000A000C000C000C000E000C0200000C0202000C0204000C0206000C0208000C020A000C020C000C020E000C0400000C0402000C0404000C0406000C0
310
408000C040A000C040C000C040E000C0600000C0602000C0604000C0606000C0608000C060A000C060C000C060E000C0800000C0802000C0804000C0806000C0808000C080A000C080C000C080E000C0A00000C0A02000C0A04000C0A06000C0A08000C0A0A000C0A0C000C0A0E000C0C00000C0C02000C0C04000C0C06000
310
C0C08000C0C0A000F0FBFF00A4A0A000808080000000FF0000FF000000FFFF00FF000000FF00FF00FFFF0000FFFFFF0000000000000000000000000000000000000000000000000000000000000000000000000000000000000000000000000000000000000000000000000000000000000000000000000000000000000000
310
00000000000000000000000000000000000000000000000000000000000000000000000000000000000000000000000000000000000000000000000000000000000000000000000000000000000000000000000000000000000000000000000000000000000000000000000000000000000000000000000000000000000000
310
00000000000000000000000000000000000000000000000000000000000000000000000000000000000000000000000000000000000000000000000000000000000000000000000000000000000000000000000000000000000000000000000000000000000000000000000000000000000000000000000000000000000000
310
00000000000000000000000000000000000000000000000000000000000000000000000000000000000000000000000000000000000000000000000000000000000000000000000000000000000000000000000000000000000000000000000000000000000000000000000000000000000000000000000000000000000000
310
00000000000000000000000000000000000000000000000000000000000000000000000000000000000000000000000000FE000000FEFEFEFEFEFEFEFEFEFEFEFEFEFEFEFEFEFEFEFEFEFEFEFEFEFEFEFEFEFE0000000000000000000000000000000000000000000000000000000000000000000000000000000000000000
310
00000000000000000000000000000000000000000000000000000000000000000000000000000000000000000000000000000000000000000000000000000000000000000000000000000000000000000000000000000000000000000000000000000000000000000000000000000000000000000000000000000000000000
310
00000000000000000000000000000000000000000000000000000000000000000000000000000000000000000000000000000000000000000000000000000000000000000000000000000000000000000000000000000000000000000000000000000000000000000000000000000000000000000000000000000000000000
310
00000000000000000000000000000000000000000000000000000000000000000000000000000000000000000000000000000000000000000000000000000000000000000000000000000000000000000000000000000000000000000000000000000000000000000000000000000000000000000000000000000000000000
310
0000000000000000000000000000000000000000000000000000000000000000000000000000000000000000000000000000000000000000
  0
BLOCK_RECORD
  5
A6E7
330
1
100
AcDbSymbolTableRecord
100
AcDbBlockTableRecord
  2
52
340
0
310
2800000020000000200000000100080000000000000400000000000000000000000000000000000000000000000080000080000000808000800000008000800080800000C0C0C000C0DCC000F0CAA6000020400000206000002080000020A0000020C0000020E00000400000004020000040400000406000004080000040A0
310
000040C0000040E00000600000006020000060400000606000006080000060A0000060C0000060E00000800000008020000080400000806000008080000080A0000080C0000080E00000A0000000A0200000A0400000A0600000A0800000A0A00000A0C00000A0E00000C0000000C0200000C0400000C0600000C0800000C0
310
A00000C0C00000C0E00000E0000000E0200000E0400000E0600000E0800000E0A00000E0C00000E0E00040000000400020004000400040006000400080004000A0004000C0004000E00040200000402020004020400040206000402080004020A0004020C0004020E000404000004040200040404000404060004040800040
310
40A0004040C0004040E00040600000406020004060400040606000406080004060A0004060C0004060E00040800000408020004080400040806000408080004080A0004080C0004080E00040A0000040A0200040A0400040A0600040A0800040A0A00040A0C00040A0E00040C0000040C0200040C0400040C0600040C08000
310
40C0A00040C0C00040C0E00040E0000040E0200040E0400040E0600040E0800040E0A00040E0C00040E0E00080000000800020008000400080006000800080008000A0008000C0008000E00080200000802020008020400080206000802080008020A0008020C0008020E00080400000804020008040400080406000804080
310
008040A0008040C0008040E00080600000806020008060400080606000806080008060A0008060C0008060E00080800000808020008080400080806000808080008080A0008080C0008080E00080A0000080A0200080A0400080A0600080A0800080A0A00080A0C00080A0E00080C0000080C0200080C0400080C0600080C0
310
800080C0A00080C0C00080C0E00080E0000080E0200080E0400080E0600080E0800080E0A00080E0C00080E0E000C0000000C0002000C0004000C0006000C0008000C000A000C000C000C000E000C0200000C0202000C0204000C0206000C0208000C020A000C020C000C020E000C0400000C0402000C0404000C0406000C0
310
408000C040A000C040C000C040E000C0600000C0602000C0604000C0606000C0608000C060A000C060C000C060E000C0800000C0802000C0804000C0806000C0808000C080A000C080C000C080E000C0A00000C0A02000C0A04000C0A06000C0A08000C0A0A000C0A0C000C0A0E000C0C00000C0C02000C0C04000C0C06000
310
C0C08000C0C0A000F0FBFF00A4A0A000808080000000FF0000FF000000FFFF00FF000000FF00FF00FFFF0000FFFFFF0000000000000000000000000000000000000000000000000000000000000000000000000000000000000000000000000000000000000000000000000000000000000000000000000000000000000000
310
00000000000000000000000000000000000000000000000000000000000000000000000000000000000000000000000000000000000000000000000000000000000000000000000000000000000000000000000000000000000000000000000000000000000000000000000000000000000000000000000000000000000000
310
00000000000000000000000000000000000000000000000000000000000000000000000000000000000000000000000000000000000000000000000000000000000000000000000000000000000000000000000000000000000000000000000000000000000000000000000000000000000000000000000000000000000000
310
00000000000000000000000000000000000000000000000000000000000000000000000000000000000000000000000000000000000000000000000000000000000000000000000000000000000000000000000000000000000000000000000000000000000000000000000000000000000000000000000000000000000000
310
00000000000000000000000000000000000000000000000000000000000000000000000000000000000000000000FEFE0000000000FEFEFEFEFEFEFEFEFEFEFEFEFEFEFEFEFEFEFEFEFEFEFEFEFEFEFEFEFEFE0000000000000000000000000000000000000000000000000000000000000000000000000000000000000000
310
00000000000000000000000000000000000000000000000000000000000000000000000000000000000000000000000000000000000000000000000000000000000000000000000000000000000000000000000000000000000000000000000000000000000000000000000000000000000000000000000000000000000000
310
00000000000000000000000000000000000000000000000000000000000000000000000000000000000000000000000000000000000000000000000000000000000000000000000000000000000000000000000000000000000000000000000000000000000000000000000000000000000000000000000000000000000000
310
00000000000000000000000000000000000000000000000000000000000000000000000000000000000000000000000000000000000000000000000000000000000000000000000000000000000000000000000000000000000000000000000000000000000000000000000000000000000000000000000000000000000000
310
0000000000000000000000000000000000000000000000000000000000000000000000000000000000000000000000000000000000000000
  0
BLOCK_RECORD
  5
17107
330
1
100
AcDbSymbolTableRecord
100
AcDbBlockTableRecord
  2
566
340
0
310
2800000020000000200000000100080000000000000400000000000000000000000000000000000000000000000080000080000000808000800000008000800080800000C0C0C000C0DCC000F0CAA6000020400000206000002080000020A0000020C0000020E00000400000004020000040400000406000004080000040A0
310
000040C0000040E00000600000006020000060400000606000006080000060A0000060C0000060E00000800000008020000080400000806000008080000080A0000080C0000080E00000A0000000A0200000A0400000A0600000A0800000A0A00000A0C00000A0E00000C0000000C0200000C0400000C0600000C0800000C0
310
A00000C0C00000C0E00000E0000000E0200000E0400000E0600000E0800000E0A00000E0C00000E0E00040000000400020004000400040006000400080004000A0004000C0004000E00040200000402020004020400040206000402080004020A0004020C0004020E000404000004040200040404000404060004040800040
310
40A0004040C0004040E00040600000406020004060400040606000406080004060A0004060C0004060E00040800000408020004080400040806000408080004080A0004080C0004080E00040A0000040A0200040A0400040A0600040A0800040A0A00040A0C00040A0E00040C0000040C0200040C0400040C0600040C08000
310
40C0A00040C0C00040C0E00040E0000040E0200040E0400040E0600040E0800040E0A00040E0C00040E0E00080000000800020008000400080006000800080008000A0008000C0008000E00080200000802020008020400080206000802080008020A0008020C0008020E00080400000804020008040400080406000804080
310
008040A0008040C0008040E00080600000806020008060400080606000806080008060A0008060C0008060E00080800000808020008080400080806000808080008080A0008080C0008080E00080A0000080A0200080A0400080A0600080A0800080A0A00080A0C00080A0E00080C0000080C0200080C0400080C0600080C0
310
800080C0A00080C0C00080C0E00080E0000080E0200080E0400080E0600080E0800080E0A00080E0C00080E0E000C0000000C0002000C0004000C0006000C0008000C000A000C000C000C000E000C0200000C0202000C0204000C0206000C0208000C020A000C020C000C020E000C0400000C0402000C0404000C0406000C0
310
408000C040A000C040C000C040E000C0600000C0602000C0604000C0606000C0608000C060A000C060C000C060E000C0800000C0802000C0804000C0806000C0808000C080A000C080C000C080E000C0A00000C0A02000C0A04000C0A06000C0A08000C0A0A000C0A0C000C0A0E000C0C00000C0C02000C0C04000C0C06000
310
C0C08000C0C0A000F0FBFF00A4A0A000808080000000FF0000FF000000FFFF00FF000000FF00FF00FFFF0000FFFFFF0000000000000000000000000000000000000000000000000000000000000000000000000000000000000000000000000000000000000000000000000000000000000000000000000000000000000000
310
00000000000000000000000000000000000000000000000000000000000000000000000000000000000000000000000000000000000000000000000000000000000000000000000000000000000000000000000000000000000000000000000000000000000000000000000000000000000000000000000000000000000000
310
00000000000000000000000000000000000000000000000000000000000000000000000000000000000000000000000000000000000000000000000000000000000000000000000000000000000000000000000000000000000000000000000000000000000000000000000000000000000000000000000000000000000000
310
00000000000000000000000000000000000000000000000000000000000000000000000000000000000000000000000000000000000000000000000000000000000000000000000000000000000000000000000000000000000000000000000000000000000000000000000000000000000000000000000000000000000000
310
00000000000000000000000000000000000000000000FE0000000000000000000000000000000000000000000000000000FE000000FEFEFEFEFEFEFEFEFEFEFEFE0000FEFEFEFEFEFEFEFEFEFEFEFEFEFEFEFE0000000000000000000000000000000000000000000000000000000000000000000000000000000000000000
310
00000000000000000000000000000000000000000000000000000000000000000000000000000000000000000000000000000000000000000000000000000000000000000000000000000000000000000000000000000000000000000000000000000000000000000000000000000000000000000000000000000000000000
310
00000000000000000000000000000000000000000000000000000000000000000000000000000000000000000000000000000000000000000000000000000000000000000000000000000000000000000000000000000000000000000000000000000000000000000000000000000000000000000000000000000000000000
310
00000000000000000000000000000000000000000000000000000000000000000000000000000000000000000000000000000000000000000000000000000000000000000000000000000000000000000000000000000000000000000000000000000000000000000000000000000000000000000000000000000000000000
310
0000000000000000000000000000000000000000000000000000000000000000000000000000000000000000000000000000000000000000
  0
BLOCK_RECORD
  5
197FF
330
1
100
AcDbSymbolTableRecord
100
AcDbBlockTableRecord
  2
*D11
340
0
  0
BLOCK_RECORD
  5
1980B
330
1
100
AcDbSymbolTableRecord
100
AcDbBlockTableRecord
  2
*D12
340
0
  0
BLOCK_RECORD
  5
19817
330
1
100
AcDbSymbolTableRecord
100
AcDbBlockTableRecord
  2
*D13
340
0
  0
BLOCK_RECORD
  5
19823
330
1
100
AcDbSymbolTableRecord
100
AcDbBlockTableRecord
  2
*D14
340
0
  0
BLOCK_RECORD
  5
1982F
330
1
100
AcDbSymbolTableRecord
100
AcDbBlockTableRecord
  2
*D15
340
0
  0
BLOCK_RECORD
  5
1983B
330
1
100
AcDbSymbolTableRecord
100
AcDbBlockTableRecord
  2
*D16
340
0
  0
BLOCK_RECORD
  5
19851
330
1
100
AcDbSymbolTableRecord
100
AcDbBlockTableRecord
  2
*D17
340
0
  0
BLOCK_RECORD
  5
1985B
330
1
100
AcDbSymbolTableRecord
100
AcDbBlockTableRecord
  2
*D18
340
0
  0
BLOCK_RECORD
  5
19865
330
1
100
AcDbSymbolTableRecord
100
AcDbBlockTableRecord
  2
*D19
340
0
  0
BLOCK_RECORD
  5
198E4
330
1
100
AcDbSymbolTableRecord
100
AcDbBlockTableRecord
  2
*D20
340
0
  0
BLOCK_RECORD
  5
198FA
330
1
100
AcDbSymbolTableRecord
100
AcDbBlockTableRecord
  2
*D21
340
0
  0
BLOCK_RECORD
  5
19907
330
1
100
AcDbSymbolTableRecord
100
AcDbBlockTableRecord
  2
*D22
340
0
  0
BLOCK_RECORD
  5
19950
330
1
100
AcDbSymbolTableRecord
100
AcDbBlockTableRecord
  2
*D23
340
0
  0
BLOCK_RECORD
  5
19966
330
1
100
AcDbSymbolTableRecord
100
AcDbBlockTableRecord
  2
*D24
340
0
  0
BLOCK_RECORD
  5
19ADE
330
1
100
AcDbSymbolTableRecord
100
AcDbBlockTableRecord
  2
_DotSmall
340
0
102
{BLKREFS
331
19B1D
331
19B1E
331
19B26
331
19B27
331
19B2F
331
19B30
331
19B38
331
19B39
331
19B41
331
19B42
331
19B48
331
19B49
331
19B4F
331
19B50
331
19B58
331
19B59
331
19B61
331
19B62
331
19B6A
331
19B6B
331
19B73
331
19B74
331
19B85
331
19B86
331
19B8C
331
19B8D
331
19C13
331
19C14
102
}
  0
ENDTAB
  0
ENDSEC
  0
SECTION
  2
BLOCKS
  0
BLOCK
  5
1F
330
1E
100
AcDbEntity
  8
0
100
AcDbBlockBegin
  2
*Model_Space
 70
     0
 10
0.0
 20
0.0
 30
0.0
  3
*Model_Space
  1

  0
ENDBLK
  5
20
330
1E
100
AcDbEntity
  8
0
100
AcDbBlockEnd
  0
BLOCK
  5
1B
330
1A
100
AcDbEntity
 67
     1
  8
0
100
AcDbBlockBegin
  2
*Paper_Space
 70
     0
 10
0.0
 20
0.0
 30
0.0
  3
*Paper_Space
  1

  0
ENDBLK
  5
1C
330
1A
100
AcDbEntity
 67
     1
  8
0
100
AcDbBlockEnd
  0
BLOCK
  5
121
330
11E
100
AcDbEntity
  8
0
100
AcDbBlockBegin
  2
_Dot
 70
     0
 10
0.0
 20
0.0
 30
0.0
  3
_Dot
  1

  0
LWPOLYLINE
  5
11F
330
11E
100
AcDbEntity
  8
0
  6
ByBlock
 62
     0
100
AcDbPolyline
 90
        2
 70
     1
 43
0.5
 10
2280.353695966474
 20
3908.150452993803
 42
1.0
 10
2280.853695966473
 20
3908.150452993803
 42
1.0
  0
LINE
  5
120
330
11E
100
AcDbEntity
  8
0
  6
ByBlock
 62
     0
370
    -2
100
AcDbLine
 10
2280.103695966473
 20
3908.150452993803
 30
0.0
 11
2279.603695966474
 21
3908.150452993803
 31
0.0
  0
ENDBLK
  5
122
330
11E
100
AcDbEntity
  8
0
100
AcDbBlockEnd
  0
BLOCK
  5
15B1
330
15B0
100
AcDbEntity
  8
0
100
AcDbBlockBegin
  2
_None
 70
     0
 10
0.0
 20
0.0
 30
0.0
  3
_None
  1

  0
ENDBLK
  5
15B2
330
15B0
100
AcDbEntity
  8
0
100
AcDbBlockEnd
  0
BLOCK
  5
2CB9
330
2CB5
100
AcDbEntity
  8
0
100
AcDbBlockBegin
  2
_Open30
 70
     0
 10
0.0
 20
0.0
 30
0.0
  3
_Open30
  1

  0
LINE
  5
2CB6
330
2CB5
100
AcDbEntity
  8
0
  6
ByBlock
 62
     0
370
    -2
100
AcDbLine
 10
-1.0
 20
0.26794919
 30
0.0
 11
0.0
 21
0.0
 31
0.0
  0
LINE
  5
2CB7
330
2CB5
100
AcDbEntity
  8
0
  6
ByBlock
 62
     0
370
    -2
100
AcDbLine
 10
0.0
 20
0.0
 30
0.0
 11
-1.0
 21
-0.26794919
 31
0.0
  0
LINE
  5
2CB8
330
2CB5
100
AcDbEntity
  8
0
  6
ByBlock
 62
     0
370
    -2
100
AcDbLine
 10
0.0
 20
0.0
 30
0.0
 11
-1.0
 21
0.0
 31
0.0
  0
ENDBLK
  5
2CBA
330
2CB5
100
AcDbEntity
  8
0
100
AcDbBlockEnd
  0
BLOCK
  5
35E6
330
35E3
100
AcDbEntity
  8
0
100
AcDbBlockBegin
  2
_DotBlank
 70
     0
 10
0.0
 20
0.0
 30
0.0
  3
_DotBlank
  1

  0
CIRCLE
  5
35E4
330
35E3
100
AcDbEntity
  8
0
  6
ByBlock
 62
     0
370
    -2
100
AcDbCircle
 10
0.0
 20
0.0
 30
0.0
 40
0.5
  0
LINE
  5
35E5
330
35E3
100
AcDbEntity
  8
0
  6
ByBlock
 62
     0
370
    -2
100
AcDbLine
 10
-0.5
 20
0.0
 30
0.0
 11
-1.0
 21
0.0
 31
0.0
  0
ENDBLK
  5
35E7
330
35E3
100
AcDbEntity
  8
0
100
AcDbBlockEnd
  0
BLOCK
  5
62DA
330
62D9
100
AcDbEntity
  8
0
100
AcDbBlockBegin
  2
1
 70
     0
 10
0.0
 20
0.0
 30
0.0
  3
1
  1

  0
LINE
  5
91FC
330
62D9
100
AcDbEntity
  8
寸法
  6
Continuous
 62
     4
100
AcDbLine
 10
0.0
 20
0.0
 30
0.0
 11
-0.9999993097521835
 21
0.2679491899998538
 31
0.0
  0
LINE
  5
91FD
330
62D9
100
AcDbEntity
  8
寸法
  6
Continuous
 62
     4
100
AcDbLine
 10
0.0
 20
0.0
 30
0.0
 11
-0.9999993097512739
 21
-0.2679491899998538
 31
0.0
  0
LINE
  5
91FE
330
62D9
100
AcDbEntity
  8
寸法
  6
Continuous
 62
     4
100
AcDbLine
 10
0.0
 20
0.0
 30
0.0
 11
-50.0
 21
0.0
 31
0.0
  0
ENDBLK
  5
62DB
330
62D9
100
AcDbEntity
  8
0
100
AcDbBlockEnd
  0
BLOCK
  5
63FD
330
63FC
100
AcDbEntity
  8
0
100
AcDbBlockBegin
  2
2
 70
     0
 10
0.0
 20
0.0
 30
0.0
  3
2
  1

  0
LINE
  5
91EC
330
63FC
100
AcDbEntity
  8
寸法
  6
Continuous
 62
     2
100
AcDbLine
 10
0.0
 20
0.0
 30
0.0
 11
-3.863699999999878
 21
-1.035276000000521
 31
0.0
  0
LINE
  5
91ED
330
63FC
100
AcDbEntity
  8
寸法
  6
Continuous
 62
     2
100
AcDbLine
 10
0.0
 20
0.0
 30
0.0
 11
-3.863699999999878
 21
1.035275999999612
 31
0.0
  0
LINE
  5
91EE
330
63FC
100
AcDbEntity
  8
寸法
  6
Continuous
 62
     2
100
AcDbLine
 10
0.0
 20
0.0
 30
0.0
 11
-50.0
 21
0.0
 31
0.0
  0
ENDBLK
  5
63FE
330
63FC
100
AcDbEntity
  8
0
100
AcDbBlockEnd
  0
BLOCK
  5
6404
330
6403
100
AcDbEntity
  8
0
100
AcDbBlockBegin
  2
3
 70
     0
 10
0.0
 20
0.0
 30
0.0
  3
3
  1

  0
LINE
  5
A6E2
330
6403
100
AcDbEntity
  8
寸法
  6
Continuous
 62
     4
100
AcDbLine
 10
0.0
 20
0.0
 30
0.0
 11
0.9999993097517291
 21
-0.2679491899998538
 31
0.0
  0
LINE
  5
A6E3
330
6403
100
AcDbEntity
  8
寸法
  6
Continuous
 62
     4
100
AcDbLine
 10
0.0
 20
0.0
 30
0.0
 11
0.9999993097521835
 21
0.2679491899998538
 31
0.0
  0
LINE
  5
A6E4
330
6403
100
AcDbEntity
  8
寸法
  6
Continuous
 62
     4
100
AcDbLine
 10
0.0
 20
0.0
 30
0.0
 11
8.0
 21
0.0
 31
0.0
  0
ENDBLK
  5
6405
330
6403
100
AcDbEntity
  8
0
100
AcDbBlockEnd
  0
BLOCK
  5
75F7
330
75F6
100
AcDbEntity
  8
0
100
AcDbBlockBegin
  2
5
 70
     0
 10
0.0
 20
0.0
 30
0.0
  3
5
  1

  0
LINE
  5
A656
330
75F6
100
AcDbEntity
  8
寸法
  6
Continuous
 62
     4
100
AcDbLine
 10
0.0
 20
0.0
 30
0.0
 11
70.0
 21
0.0
 31
0.0
  0
LINE
  5
A657
330
75F6
100
AcDbEntity
  8
寸法
  6
Continuous
 62
     4
100
AcDbLine
 10
0.0
 20
0.0
 30
0.0
 11
0.9999993097510467
 21
-0.2679491899998538
 31
0.0
  0
LINE
  5
A658
330
75F6
100
AcDbEntity
  8
寸法
  6
Continuous
 62
     4
100
AcDbLine
 10
0.0
 20
0.0
 30
0.0
 11
0.9999993097519563
 21
0.2679491899998538
 31
0.0
  0
ENDBLK
  5
75F8
330
75F6
100
AcDbEntity
  8
0
100
AcDbBlockEnd
  0
BLOCK
  5
A65E
330
A65D
100
AcDbEntity
  8
0
100
AcDbBlockBegin
  2
456
 70
     0
 10
0.0
 20
0.0
 30
0.0
  3
456
  1

  0
LINE
  5
A660
330
A65D
100
AcDbEntity
  8
寸法
  6
Continuous
 62
     4
100
AcDbLine
 10
0.0
 20
0.0
 30
0.0
 11
-70.0
 21
0.0
 31
0.0
  0
LINE
  5
A661
330
A65D
100
AcDbEntity
  8
寸法
  6
Continuous
 62
     4
100
AcDbLine
 10
0.0
 20
0.0
 30
0.0
 11
-0.9999993097521835
 21
0.2679491899998538
 31
0.0
  0
LINE
  5
A662
330
A65D
100
AcDbEntity
  8
寸法
  6
Continuous
 62
     4
100
AcDbLine
 10
0.0
 20
0.0
 30
0.0
 11
-0.9999993097512739
 21
-0.2679491899998538
 31
0.0
  0
ENDBLK
  5
A65F
330
A65D
100
AcDbEntity
  8
0
100
AcDbBlockEnd
  0
BLOCK
  5
A6E8
330
A6E7
100
AcDbEntity
  8
0
100
AcDbBlockBegin
  2
52
 70
     0
 10
0.0
 20
0.0
 30
0.0
  3
52
  1

  0
LINE
  5
A6EA
330
A6E7
100
AcDbEntity
  8
寸法
  6
Continuous
 62
     4
100
AcDbLine
 10
0.0
 20
0.0
 30
0.0
 11
-8.0
 21
0.0
 31
0.0
  0
LINE
  5
A6EB
330
A6E7
100
AcDbEntity
  8
寸法
  6
Continuous
 62
     4
100
AcDbLine
 10
0.0
 20
0.0
 30
0.0
 11
-0.9999993097521835
 21
0.2679491899998538
 31
0.0
  0
LINE
  5
A6EC
330
A6E7
100
AcDbEntity
  8
寸法
  6
Continuous
 62
     4
100
AcDbLine
 10
0.0
 20
0.0
 30
0.0
 11
-0.9999993097517291
 21
-0.2679491899998538
 31
0.0
  0
ENDBLK
  5
A6E9
330
A6E7
100
AcDbEntity
  8
0
100
AcDbBlockEnd
  0
BLOCK
  5
17108
330
17107
100
AcDbEntity
  8
0
100
AcDbBlockBegin
  2
566
 70
     0
 10
0.0
 20
0.0
 30
0.0
  3
566
  1

  0
LINE
  5
1710A
330
17107
100
AcDbEntity
  8
寸法
  6
Continuous
 62
     4
100
AcDbLine
 10
0.0
 20
0.0
 30
0.0
 11
71.99100000000362
 21
0.0
 31
0.0
  0
LINE
  5
1710B
330
17107
100
AcDbEntity
  8
寸法
  6
Continuous
 62
     4
100
AcDbLine
 10
0.0
 20
0.0
 30
0.0
 11
1.071796759999414
 21
0.2679491899998538
 31
0.0
  0
LINE
  5
1710C
330
17107
100
AcDbEntity
  8
寸法
  6
Continuous
 62
     4
100
AcDbLine
 10
0.0
 20
0.0
 30
0.0
 11
1.071796759999414
 21
-0.2679491899998538
 31
0.0
  0
LINE
  5
1710D
330
17107
100
AcDbEntity
  8
寸法
  6
Continuous
 62
     4
100
AcDbLine
 10
185.9739990000016
 20
0.0
 30
0.0
 11
91.98999900000126
 21
0.0
 31
0.0
  0
LINE
  5
1710E
330
17107
100
AcDbEntity
  8
寸法
  6
Continuous
 62
     4
100
AcDbLine
 10
185.9739990000016
 20
0.0
 30
0.0
 11
184.9022022400021
 21
0.2679491899998538
 31
0.0
  0
LINE
  5
1710F
330
17107
100
AcDbEntity
  8
寸法
  6
Continuous
 62
     4
100
AcDbLine
 10
185.9739990000016
 20
0.0
 30
0.0
 11
184.9022022400021
 21
-0.2679491899998538
 31
0.0
  0
ENDBLK
  5
17109
330
17107
100
AcDbEntity
  8
0
100
AcDbBlockEnd
  0
BLOCK
  5
19809
330
197FF
100
AcDbEntity
  8
0
100
AcDbBlockBegin
  2
*D11
 70
     1
 10
0.0
 20
0.0
 30
0.0
  3
*D11
  1

  0
LINE
  5
19B1A
330
197FF
100
AcDbEntity
  8
寸法
  6
Continuous
 62
     4
370
    -2
100
AcDbLine
 10
-19061.61157095318
 20
-9417.170517282407
 30
0.0
 11
-19061.61157095318
 21
-9396.960866263556
 31
0.0
  0
LINE
  5
19B1B
330
197FF
100
AcDbEntity
  8
寸法
  6
Continuous
 62
     4
370
    -2
100
AcDbLine
 10
-19001.61157095318
 20
-9417.170517282407
 30
0.0
 11
-19001.61157095318
 21
-9396.960866263556
 31
0.0
  0
LINE
  5
19B1C
330
197FF
100
AcDbEntity
  8
寸法
  6
Continuous
 62
     4
370
    -2
100
AcDbLine
 10
-19061.61157095318
 20
-9396.960866263556
 30
0.0
 11
-19001.61157095318
 21
-9396.960866263556
 31
0.0
  0
INSERT
  5
19B1D
330
197FF
100
AcDbEntity
  8
寸法
  6
Continuous
 62
     4
370
    -2
100
AcDbBlockReference
  2
_DotSmall
 10
-19061.61157095318
 20
-9396.960866263556
 30
0.0
 50
180.0
  0
INSERT
  5
19B1E
330
197FF
100
AcDbEntity
  8
寸法
  6
Continuous
 62
     4
370
    -2
100
AcDbBlockReference
  2
_DotSmall
 10
-19001.61157095318
 20
-9396.960866263556
 30
0.0
  0
MTEXT
  5
19B1F
330
197FF
100
AcDbEntity
  8
寸法
  6
Continuous
 62
     3
100
AcDbMText
 10
-19031.61157095318
 20
-9393.460866263557
 30
0.0
 40
5.0
 41
0.0
 71
     5
 72
     1
  1
\A1;60
  7
ACAD
 73
     1
 44
1.0
1001
ACAD
1000
MTEXTBEGIN
1070
    73
1070
     1
1070
    44
1040
1.0
1070
    74
1070
     0
1000
MTEXTEND
  0
POINT
  5
19B20
330
197FF
100
AcDbEntity
  8
Defpoints
  6
Continuous
 62
     0
100
AcDbPoint
 10
-19061.61157095318
 20
-9417.170517282407
 30
0.0
  0
POINT
  5
19B21
330
197FF
100
AcDbEntity
  8
Defpoints
  6
Continuous
 62
     0
100
AcDbPoint
 10
-19001.61157095318
 20
-9417.170517282407
 30
0.0
  0
POINT
  5
19B22
330
197FF
100
AcDbEntity
  8
Defpoints
  6
Continuous
 62
     0
100
AcDbPoint
 10
-19001.61157095318
 20
-9396.960866263556
 30
0.0
  0
ENDBLK
  5
1980A
330
197FF
100
AcDbEntity
  8
0
100
AcDbBlockEnd
  0
BLOCK
  5
19815
330
1980B
100
AcDbEntity
  8
0
100
AcDbBlockBegin
  2
*D12
 70
     1
 10
0.0
 20
0.0
 30
0.0
  3
*D12
  1

  0
LINE
  5
19B23
330
1980B
100
AcDbEntity
  8
寸法
  6
Continuous
 62
     4
370
    -2
100
AcDbLine
 10
-19067.18792341852
 20
-9423.413580263556
 30
0.0
 11
-19096.47216895318
 21
-9423.413580263556
 31
0.0
  0
LINE
  5
19B24
330
1980B
100
AcDbEntity
  8
寸法
  6
Continuous
 62
     4
370
    -2
100
AcDbLine
 10
-19067.18792341852
 20
-9468.413580263556
 30
0.0
 11
-19096.47216895318
 21
-9468.413580263556
 31
0.0
  0
LINE
  5
19B25
330
1980B
100
AcDbEntity
  8
寸法
  6
Continuous
 62
     4
370
    -2
100
AcDbLine
 10
-19096.47216895318
 20
-9423.413580263556
 30
0.0
 11
-19096.47216895318
 21
-9468.413580263556
 31
0.0
  0
INSERT
  5
19B26
330
1980B
100
AcDbEntity
  8
寸法
  6
Continuous
 62
     4
370
    -2
100
AcDbBlockReference
  2
_DotSmall
 10
-19096.47216895318
 20
-9423.413580263556
 30
0.0
 50
90.0
  0
INSERT
  5
19B27
330
1980B
100
AcDbEntity
  8
寸法
  6
Continuous
 62
     4
370
    -2
100
AcDbBlockReference
  2
_DotSmall
 10
-19096.47216895318
 20
-9468.413580263556
 30
0.0
 50
270.0
  0
MTEXT
  5
19B28
330
1980B
100
AcDbEntity
  8
寸法
  6
Continuous
 62
     3
100
AcDbMText
 10
-19099.97216895318
 20
-9445.913580263557
 30
0.0
 40
5.0
 41
0.0
 71
     5
 72
     1
  1
\A1;45
  7
ACAD
 11
0.0000000000000001
 21
1.0
 31
0.0
 73
     1
 44
1.0
1001
ACAD
1000
MTEXTBEGIN
1070
    73
1070
     1
1070
    44
1040
1.0
1070
    74
1070
     0
1000
MTEXTEND
  0
POINT
  5
19B29
330
1980B
100
AcDbEntity
  8
Defpoints
  6
Continuous
 62
     0
100
AcDbPoint
 10
-19067.18792341852
 20
-9423.413580263556
 30
0.0
  0
POINT
  5
19B2A
330
1980B
100
AcDbEntity
  8
Defpoints
  6
Continuous
 62
     0
100
AcDbPoint
 10
-19067.18792341852
 20
-9468.413580263556
 30
0.0
  0
POINT
  5
19B2B
330
1980B
100
AcDbEntity
  8
Defpoints
  6
Continuous
 62
     0
100
AcDbPoint
 10
-19096.47216895318
 20
-9468.413580263556
 30
0.0
  0
ENDBLK
  5
19816
330
1980B
100
AcDbEntity
  8
0
100
AcDbBlockEnd
  0
BLOCK
  5
19821
330
19817
100
AcDbEntity
  8
0
100
AcDbBlockBegin
  2
*D13
 70
     1
 10
0.0
 20
0.0
 30
0.0
  3
*D13
  1

  0
LINE
  5
19B2C
330
19817
100
AcDbEntity
  8
寸法
  6
Continuous
 62
     4
370
    -2
100
AcDbLine
 10
-19067.18792341852
 20
-9462.413580263556
 30
0.0
 11
-19076.02829895318
 21
-9462.413580263556
 31
0.0
  0
LINE
  5
19B2D
330
19817
100
AcDbEntity
  8
寸法
  6
Continuous
 62
     4
370
    -2
100
AcDbLine
 10
-19067.18792341852
 20
-9468.413580263556
 30
0.0
 11
-19076.02829895318
 21
-9468.413580263556
 31
0.0
  0
LINE
  5
19B2E
330
19817
100
AcDbEntity
  8
寸法
  6
Continuous
 62
     4
370
    -2
100
AcDbLine
 10
-19076.02829895318
 20
-9462.413580263556
 30
0.0
 11
-19076.02829895318
 21
-9468.413580263556
 31
0.0
  0
INSERT
  5
19B2F
330
19817
100
AcDbEntity
  8
寸法
  6
Continuous
 62
     4
370
    -2
100
AcDbBlockReference
  2
_DotSmall
 10
-19076.02829895318
 20
-9462.413580263556
 30
0.0
 50
90.0
  0
INSERT
  5
19B30
330
19817
100
AcDbEntity
  8
寸法
  6
Continuous
 62
     4
370
    -2
100
AcDbBlockReference
  2
_DotSmall
 10
-19076.02829895318
 20
-9468.413580263556
 30
0.0
 50
270.0
  0
MTEXT
  5
19B31
330
19817
100
AcDbEntity
  8
寸法
  6
Continuous
 62
     3
100
AcDbMText
 10
-19079.52829895318
 20
-9465.413580263557
 30
0.0
 40
5.0
 41
0.0
 71
     5
 72
     1
  1
\A1;6
  7
ACAD
 11
0.0000000000000001
 21
1.0
 31
0.0
 73
     1
 44
1.0
1001
ACAD
1000
MTEXTBEGIN
1070
    73
1070
     1
1070
    44
1040
1.0
1070
    74
1070
     0
1000
MTEXTEND
  0
POINT
  5
19B32
330
19817
100
AcDbEntity
  8
Defpoints
  6
Continuous
 62
     0
100
AcDbPoint
 10
-19067.18792341852
 20
-9462.413580263556
 30
0.0
  0
POINT
  5
19B33
330
19817
100
AcDbEntity
  8
Defpoints
  6
Continuous
 62
     0
100
AcDbPoint
 10
-19067.18792341852
 20
-9468.413580263556
 30
0.0
  0
POINT
  5
19B34
330
19817
100
AcDbEntity
  8
Defpoints
  6
Continuous
 62
     0
100
AcDbPoint
 10
-19076.02829895318
 20
-9468.413580263556
 30
0.0
  0
ENDBLK
  5
19822
330
19817
100
AcDbEntity
  8
0
100
AcDbBlockEnd
  0
BLOCK
  5
1982D
330
19823
100
AcDbEntity
  8
0
100
AcDbBlockBegin
  2
*D14
 70
     1
 10
0.0
 20
0.0
 30
0.0
  3
*D14
  1

  0
LINE
  5
19B35
330
19823
100
AcDbEntity
  8
寸法
  6
Continuous
 62
     4
370
    -2
100
AcDbLine
 10
-19067.18792341852
 20
-9423.413580263556
 30
0.0
 11
-19076.02829895318
 21
-9423.413580263556
 31
0.0
  0
LINE
  5
19B36
330
19823
100
AcDbEntity
  8
寸法
  6
Continuous
 62
     4
370
    -2
100
AcDbLine
 10
-19067.18792341852
 20
-9462.413580263556
 30
0.0
 11
-19076.02829895318
 21
-9462.413580263556
 31
0.0
  0
LINE
  5
19B37
330
19823
100
AcDbEntity
  8
寸法
  6
Continuous
 62
     4
370
    -2
100
AcDbLine
 10
-19076.02829895318
 20
-9423.413580263556
 30
0.0
 11
-19076.02829895318
 21
-9462.413580263556
 31
0.0
  0
INSERT
  5
19B38
330
19823
100
AcDbEntity
  8
寸法
  6
Continuous
 62
     4
370
    -2
100
AcDbBlockReference
  2
_DotSmall
 10
-19076.02829895318
 20
-9423.413580263556
 30
0.0
 50
90.0
  0
INSERT
  5
19B39
330
19823
100
AcDbEntity
  8
寸法
  6
Continuous
 62
     4
370
    -2
100
AcDbBlockReference
  2
_DotSmall
 10
-19076.02829895318
 20
-9462.413580263556
 30
0.0
 50
270.0
  0
MTEXT
  5
19B3A
330
19823
100
AcDbEntity
  8
寸法
  6
Continuous
 62
     3
100
AcDbMText
 10
-19079.52829895318
 20
-9442.913580263557
 30
0.0
 40
5.0
 41
0.0
 71
     5
 72
     1
  1
\A1;39
  7
ACAD
 11
0.0000000000000001
 21
1.0
 31
0.0
 73
     1
 44
1.0
1001
ACAD
1000
MTEXTBEGIN
1070
    73
1070
     1
1070
    44
1040
1.0
1070
    74
1070
     0
1000
MTEXTEND
  0
POINT
  5
19B3B
330
19823
100
AcDbEntity
  8
Defpoints
  6
Continuous
 62
     0
100
AcDbPoint
 10
-19067.18792341852
 20
-9423.413580263556
 30
0.0
  0
POINT
  5
19B3C
330
19823
100
AcDbEntity
  8
Defpoints
  6
Continuous
 62
     0
100
AcDbPoint
 10
-19067.18792341852
 20
-9462.413580263556
 30
0.0
  0
POINT
  5
19B3D
330
19823
100
AcDbEntity
  8
Defpoints
  6
Continuous
 62
     0
100
AcDbPoint
 10
-19076.02829895318
 20
-9462.413580263556
 30
0.0
  0
ENDBLK
  5
1982E
330
19823
100
AcDbEntity
  8
0
100
AcDbBlockEnd
  0
BLOCK
  5
19839
330
1982F
100
AcDbEntity
  8
0
100
AcDbBlockBegin
  2
*D15
 70
     1
 10
0.0
 20
0.0
 30
0.0
  3
*D15
  1

  0
LINE
  5
19B3E
330
1982F
100
AcDbEntity
  8
寸法
  6
Continuous
 62
     4
370
    -2
100
AcDbLine
 10
-18928.18549689062
 20
-9722.351568263555
 30
0.0
 11
-18911.61157095318
 21
-9722.351568263555
 31
0.0
  0
LINE
  5
19B3F
330
1982F
100
AcDbEntity
  8
寸法
  6
Continuous
 62
     4
370
    -2
100
AcDbLine
 10
-18928.18549689062
 20
-9423.413580263556
 30
0.0
 11
-18911.61157095318
 21
-9423.413580263556
 31
0.0
  0
LINE
  5
19B40
330
1982F
100
AcDbEntity
  8
寸法
  6
Continuous
 62
     4
370
    -2
100
AcDbLine
 10
-18911.61157095318
 20
-9722.351568263555
 30
0.0
 11
-18911.61157095318
 21
-9423.413580263556
 31
0.0
  0
INSERT
  5
19B41
330
1982F
100
AcDbEntity
  8
寸法
  6
Continuous
 62
     4
370
    -2
100
AcDbBlockReference
  2
_DotSmall
 10
-18911.61157095318
 20
-9722.351568263555
 30
0.0
 50
270.0
  0
INSERT
  5
19B42
330
1982F
100
AcDbEntity
  8
寸法
  6
Continuous
 62
     4
370
    -2
100
AcDbBlockReference
  2
_DotSmall
 10
-18911.61157095318
 20
-9423.413580263556
 30
0.0
 50
90.0
  0
MTEXT
  5
19B43
330
1982F
100
AcDbEntity
  8
寸法
  6
Continuous
 62
     3
100
AcDbMText
 10
-18915.11157095318
 20
-9572.882574263557
 30
0.0
 40
5.0
 41
0.0
 71
     5
 72
     1
  1
\A1;H
  7
ACAD
 11
0.0000000000000001
 21
1.0
 31
0.0
 73
     1
 44
1.0
1001
ACAD
1000
MTEXTBEGIN
1070
    73
1070
     1
1070
    44
1040
1.0
1070
    74
1070
     0
1000
MTEXTEND
  0
POINT
  5
19B44
330
1982F
100
AcDbEntity
  8
Defpoints
  6
Continuous
 62
     0
100
AcDbPoint
 10
-18928.18549689062
 20
-9722.351568263555
 30
0.0
  0
POINT
  5
19B45
330
1982F
100
AcDbEntity
  8
Defpoints
  6
Continuous
 62
     0
100
AcDbPoint
 10
-18928.18549689062
 20
-9423.413580263556
 30
0.0
  0
POINT
  5
19B46
330
1982F
100
AcDbEntity
  8
Defpoints
  6
Continuous
 62
     0
100
AcDbPoint
 10
-18911.61157095318
 20
-9423.413580263556
 30
0.0
  0
ENDBLK
  5
1983A
330
1982F
100
AcDbEntity
  8
0
100
AcDbBlockEnd
  0
BLOCK
  5
19845
330
1983B
100
AcDbEntity
  8
0
100
AcDbBlockBegin
  2
*D16
 70
     1
 10
0.0
 20
0.0
 30
0.0
  3
*D16
  1

  0
LINE
  5
19C10
330
1983B
100
AcDbEntity
  8
寸法
  6
Continuous
 62
     4
370
    -2
100
AcDbLine
 10
-19067.18792341852
 20
-9673.350710263555
 30
0.0
 11
-19096.47216895318
 21
-9673.350710263555
 31
0.0
  0
LINE
  5
19C11
330
1983B
100
AcDbEntity
  8
寸法
  6
Continuous
 62
     4
370
    -2
100
AcDbLine
 10
-19067.18792341852
 20
-9722.351568263555
 30
0.0
 11
-19096.47216895318
 21
-9722.351568263555
 31
0.0
  0
LINE
  5
19C12
330
1983B
100
AcDbEntity
  8
寸法
  6
Continuous
 62
     4
370
    -2
100
AcDbLine
 10
-19096.47216895318
 20
-9673.350710263555
 30
0.0
 11
-19096.47216895318
 21
-9722.351568263555
 31
0.0
  0
INSERT
  5
19C13
330
1983B
100
AcDbEntity
  8
寸法
  6
Continuous
 62
     4
370
    -2
100
AcDbBlockReference
  2
_DotSmall
 10
-19096.47216895318
 20
-9673.350710263555
 30
0.0
 50
90.0
  0
INSERT
  5
19C14
330
1983B
100
AcDbEntity
  8
寸法
  6
Continuous
 62
     4
370
    -2
100
AcDbBlockReference
  2
_DotSmall
 10
-19096.47216895318
 20
-9722.351568263555
 30
0.0
 50
270.0
  0
MTEXT
  5
19C15
330
1983B
100
AcDbEntity
  8
寸法
  6
Continuous
 62
     3
100
AcDbMText
 10
-19099.97216895318
 20
-9697.851139263558
 30
0.0
 40
5.0
 41
0.0
 71
     5
 72
     1
  1
\A1;90未満
  7
ACAD
 11
0.0000000000000001
 21
1.0
 31
0.0
 73
     1
 44
1.0
1001
ACAD
1000
MTEXTBEGIN
1070
    73
1070
     1
1070
    44
1040
1.0
1070
    74
1070
     0
1000
MTEXTEND
  0
POINT
  5
19C16
330
1983B
100
AcDbEntity
  8
Defpoints
  6
Continuous
 62
     0
100
AcDbPoint
 10
-19067.18792341852
 20
-9673.350710263555
 30
0.0
  0
POINT
  5
19C17
330
1983B
100
AcDbEntity
  8
Defpoints
  6
Continuous
 62
     0
100
AcDbPoint
 10
-19067.18792341852
 20
-9722.351568263555
 30
0.0
  0
POINT
  5
19C18
330
1983B
100
AcDbEntity
  8
Defpoints
  6
Continuous
 62
     0
100
AcDbPoint
 10
-19096.47216895318
 20
-9722.351568263555
 30
0.0
  0
ENDBLK
  5
19846
330
1983B
100
AcDbEntity
  8
0
100
AcDbBlockEnd
  0
BLOCK
  5
19859
330
19851
100
AcDbEntity
  8
0
100
AcDbBlockBegin
  2
*D17
 70
     1
 10
0.0
 20
0.0
 30
0.0
  3
*D17
  1

  0
LINE
  5
19B47
330
19851
100
AcDbEntity
  8
寸法
  6
Continuous
 62
     4
370
    -2
100
AcDbLine
 10
-19056.61253295317
 20
-9584.029312263556
 30
0.0
 11
-19006.61253295318
 21
-9584.029312263556
 31
0.0
  0
INSERT
  5
19B48
330
19851
100
AcDbEntity
  8
寸法
  6
Continuous
 62
     4
370
    -2
100
AcDbBlockReference
  2
_DotSmall
 10
-19056.61253295317
 20
-9584.029312263556
 30
0.0
 50
180.0
  0
INSERT
  5
19B49
330
19851
100
AcDbEntity
  8
寸法
  6
Continuous
 62
     4
370
    -2
100
AcDbBlockReference
  2
_DotSmall
 10
-19006.61253295318
 20
-9584.029312263556
 30
0.0
  0
MTEXT
  5
19B4A
330
19851
100
AcDbEntity
  8
寸法
  6
Continuous
 62
     3
100
AcDbMText
 10
-19031.61253295318
 20
-9580.529312263555
 30
0.0
 40
5.0
 41
0.0
 71
     5
 72
     1
  1
\A1;50
  7
ACAD
 73
     1
 44
1.0
1001
ACAD
1000
MTEXTBEGIN
1070
    73
1070
     1
1070
    44
1040
1.0
1070
    74
1070
     0
1000
MTEXTEND
  0
POINT
  5
19B4B
330
19851
100
AcDbEntity
  8
Defpoints
  6
Continuous
 62
     0
100
AcDbPoint
 10
-19056.61253295317
 20
-9584.029312263556
 30
0.0
  0
POINT
  5
19B4C
330
19851
100
AcDbEntity
  8
Defpoints
  6
Continuous
 62
     0
100
AcDbPoint
 10
-19006.61253295318
 20
-9584.029312263556
 30
0.0
  0
POINT
  5
19B4D
330
19851
100
AcDbEntity
  8
Defpoints
  6
Continuous
 62
     0
100
AcDbPoint
 10
-19006.61253295318
 20
-9584.029312263556
 30
0.0
  0
ENDBLK
  5
1985A
330
19851
100
AcDbEntity
  8
0
100
AcDbBlockEnd
  0
BLOCK
  5
19863
330
1985B
100
AcDbEntity
  8
0
100
AcDbBlockBegin
  2
*D18
 70
     1
 10
0.0
 20
0.0
 30
0.0
  3
*D18
  1

  0
LINE
  5
19B4E
330
1985B
100
AcDbEntity
  8
寸法
  6
Continuous
 62
     4
370
    -2
100
AcDbLine
 10
-19041.61227095318
 20
-9522.777900263555
 30
0.0
 11
-19021.61227095318
 21
-9522.777900263555
 31
0.0
  0
INSERT
  5
19B4F
330
1985B
100
AcDbEntity
  8
寸法
  6
Continuous
 62
     4
370
    -2
100
AcDbBlockReference
  2
_DotSmall
 10
-19041.61227095318
 20
-9522.777900263555
 30
0.0
 50
180.0
  0
INSERT
  5
19B50
330
1985B
100
AcDbEntity
  8
寸法
  6
Continuous
 62
     4
370
    -2
100
AcDbBlockReference
  2
_DotSmall
 10
-19021.61227095318
 20
-9522.777900263555
 30
0.0
  0
MTEXT
  5
19B51
330
1985B
100
AcDbEntity
  8
寸法
  6
Continuous
 62
     3
100
AcDbMText
 10
-19031.61227095317
 20
-9519.277900263556
 30
0.0
 40
5.0
 41
0.0
 71
     5
 72
     1
  1
\A1;20
  7
ACAD
 73
     1
 44
1.0
1001
ACAD
1000
MTEXTBEGIN
1070
    73
1070
     1
1070
    44
1040
1.0
1070
    74
1070
     0
1000
MTEXTEND
  0
POINT
  5
19B52
330
1985B
100
AcDbEntity
  8
Defpoints
  6
Continuous
 62
     0
100
AcDbPoint
 10
-19041.61227095318
 20
-9522.777900263555
 30
0.0
  0
POINT
  5
19B53
330
1985B
100
AcDbEntity
  8
Defpoints
  6
Continuous
 62
     0
100
AcDbPoint
 10
-19021.61227095318
 20
-9522.777900263555
 30
0.0
  0
POINT
  5
19B54
330
1985B
100
AcDbEntity
  8
Defpoints
  6
Continuous
 62
     0
100
AcDbPoint
 10
-19021.61227095318
 20
-9522.777900263555
 30
0.0
  0
ENDBLK
  5
19864
330
1985B
100
AcDbEntity
  8
0
100
AcDbBlockEnd
  0
BLOCK
  5
1986F
330
19865
100
AcDbEntity
  8
0
100
AcDbBlockBegin
  2
*D19
 70
     1
 10
0.0
 20
0.0
 30
0.0
  3
*D19
  1

  0
LINE
  5
19B55
330
19865
100
AcDbEntity
  8
寸法
  6
Continuous
 62
     4
370
    -2
100
AcDbLine
 10
-19067.18792341852
 20
-9648.350274263556
 30
0.0
 11
-19096.47216895318
 21
-9648.350274263556
 31
0.0
  0
LINE
  5
19B56
330
19865
100
AcDbEntity
  8
寸法
  6
Continuous
 62
     4
370
    -2
100
AcDbLine
 10
-19067.18792341852
 20
-9673.350274263555
 30
0.0
 11
-19096.47216895318
 21
-9673.350274263555
 31
0.0
  0
LINE
  5
19B57
330
19865
100
AcDbEntity
  8
寸法
  6
Continuous
 62
     4
370
    -2
100
AcDbLine
 10
-19096.47216895318
 20
-9648.350274263556
 30
0.0
 11
-19096.47216895318
 21
-9673.350274263555
 31
0.0
  0
INSERT
  5
19B58
330
19865
100
AcDbEntity
  8
寸法
  6
Continuous
 62
     4
370
    -2
100
AcDbBlockReference
  2
_DotSmall
 10
-19096.47216895318
 20
-9648.350274263556
 30
0.0
 50
90.0
  0
INSERT
  5
19B59
330
19865
100
AcDbEntity
  8
寸法
  6
Continuous
 62
     4
370
    -2
100
AcDbBlockReference
  2
_DotSmall
 10
-19096.47216895318
 20
-9673.350274263555
 30
0.0
 50
270.0
  0
MTEXT
  5
19B5A
330
19865
100
AcDbEntity
  8
寸法
  6
Continuous
 62
     3
100
AcDbMText
 10
-19099.97216895318
 20
-9660.850274263559
 30
0.0
 40
5.0
 41
0.0
 71
     5
 72
     1
  1
\A1;25
  7
ACAD
 11
0.0000000000000001
 21
1.0
 31
0.0
 73
     1
 44
1.0
1001
ACAD
1000
MTEXTBEGIN
1070
    73
1070
     1
1070
    44
1040
1.0
1070
    74
1070
     0
1000
MTEXTEND
  0
POINT
  5
19B5B
330
19865
100
AcDbEntity
  8
Defpoints
  6
Continuous
 62
     0
100
AcDbPoint
 10
-19067.18792341852
 20
-9648.350274263556
 30
0.0
  0
POINT
  5
19B5C
330
19865
100
AcDbEntity
  8
Defpoints
  6
Continuous
 62
     0
100
AcDbPoint
 10
-19067.18792341852
 20
-9673.350274263555
 30
0.0
  0
POINT
  5
19B5D
330
19865
100
AcDbEntity
  8
Defpoints
  6
Continuous
 62
     0
100
AcDbPoint
 10
-19096.47216895318
 20
-9673.350274263555
 30
0.0
  0
ENDBLK
  5
19870
330
19865
100
AcDbEntity
  8
0
100
AcDbBlockEnd
  0
BLOCK
  5
198EE
330
198E4
100
AcDbEntity
  8
0
100
AcDbBlockBegin
  2
*D20
 70
     1
 10
0.0
 20
0.0
 30
0.0
  3
*D20
  1

  0
LINE
  5
19B5E
330
198E4
100
AcDbEntity
  8
寸法
  6
Continuous
 62
     4
370
    -2
100
AcDbLine
 10
-18928.18549689062
 20
-9722.351568263555
 30
0.0
 11
-18911.60999495317
 21
-9722.351568263555
 31
0.0
  0
LINE
  5
19B5F
330
198E4
100
AcDbEntity
  8
寸法
  6
Continuous
 62
     4
370
    -2
100
AcDbLine
 10
-18928.18549689062
 20
-9788.102562263555
 30
0.0
 11
-18911.60999495317
 21
-9788.102562263555
 31
0.0
  0
LINE
  5
19B60
330
198E4
100
AcDbEntity
  8
寸法
  6
Continuous
 62
     4
370
    -2
100
AcDbLine
 10
-18911.60999495317
 20
-9722.351568263555
 30
0.0
 11
-18911.60999495317
 21
-9788.102562263555
 31
0.0
  0
INSERT
  5
19B61
330
198E4
100
AcDbEntity
  8
寸法
  6
Continuous
 62
     4
370
    -2
100
AcDbBlockReference
  2
_DotSmall
 10
-18911.60999495317
 20
-9722.351568263555
 30
0.0
 50
90.0
  0
INSERT
  5
19B62
330
198E4
100
AcDbEntity
  8
寸法
  6
Continuous
 62
     4
370
    -2
100
AcDbBlockReference
  2
_DotSmall
 10
-18911.60999495317
 20
-9788.102562263555
 30
0.0
 50
270.0
  0
MTEXT
  5
19B63
330
198E4
100
AcDbEntity
  8
寸法
  6
Continuous
 62
     3
100
AcDbMText
 10
-18915.10999495317
 20
-9755.227065263559
 30
0.0
 40
5.0
 41
0.0
 71
     5
 72
     1
  1
\A1;８０以上
  7
ACAD
 11
0.0000000000000001
 21
1.0
 31
0.0
 73
     1
 44
1.0
1001
ACAD
1000
MTEXTBEGIN
1070
    73
1070
     1
1070
    44
1040
1.0
1070
    74
1070
     0
1000
MTEXTEND
  0
POINT
  5
19B64
330
198E4
100
AcDbEntity
  8
Defpoints
  6
Continuous
 62
     0
100
AcDbPoint
 10
-18928.18549689062
 20
-9722.351568263555
 30
0.0
  0
POINT
  5
19B65
330
198E4
100
AcDbEntity
  8
Defpoints
  6
Continuous
 62
     0
100
AcDbPoint
 10
-18928.18549689062
 20
-9788.102562263555
 30
0.0
  0
POINT
  5
19B66
330
198E4
100
AcDbEntity
  8
Defpoints
  6
Continuous
 62
     0
100
AcDbPoint
 10
-18911.60999495317
 20
-9788.102562263555
 30
0.0
  0
ENDBLK
  5
198EF
330
198E4
100
AcDbEntity
  8
0
100
AcDbBlockEnd
  0
BLOCK
  5
19904
330
198FA
100
AcDbEntity
  8
0
100
AcDbBlockBegin
  2
*D21
 70
     1
 10
0.0
 20
0.0
 30
0.0
  3
*D21
  1

  0
LINE
  5
19B67
330
198FA
100
AcDbEntity
  8
寸法
  6
Continuous
 62
     4
370
    -2
100
AcDbLine
 10
-18928.18549689062
 20
-9788.102562263555
 30
0.0
 11
-18911.60999495317
 21
-9788.102562263555
 31
0.0
  0
LINE
  5
19B68
330
198FA
100
AcDbEntity
  8
寸法
  6
Continuous
 62
     4
370
    -2
100
AcDbLine
 10
-18928.18549689062
 20
-9793.142650263554
 30
0.0
 11
-18911.60999495317
 21
-9793.142650263554
 31
0.0
  0
LINE
  5
19B69
330
198FA
100
AcDbEntity
  8
寸法
  6
Continuous
 62
     4
370
    -2
100
AcDbLine
 10
-18911.60999495317
 20
-9788.102562263555
 30
0.0
 11
-18911.60999495317
 21
-9793.142650263554
 31
0.0
  0
INSERT
  5
19B6A
330
198FA
100
AcDbEntity
  8
寸法
  6
Continuous
 62
     4
370
    -2
100
AcDbBlockReference
  2
_DotSmall
 10
-18911.60999495317
 20
-9788.102562263555
 30
0.0
 50
90.0
  0
INSERT
  5
19B6B
330
198FA
100
AcDbEntity
  8
寸法
  6
Continuous
 62
     4
370
    -2
100
AcDbBlockReference
  2
_DotSmall
 10
-18911.60999495317
 20
-9793.142650263554
 30
0.0
 50
270.0
  0
MTEXT
  5
19B6C
330
198FA
100
AcDbEntity
  8
寸法
  6
Continuous
 62
     3
100
AcDbMText
 10
-18915.10999495317
 20
-9790.622606263557
 30
0.0
 40
5.0
 41
0.0
 71
     5
 72
     1
  1
\A1;5
  7
ACAD
 11
0.0000000000000001
 21
1.0
 31
0.0
 73
     1
 44
1.0
1001
ACAD
1000
MTEXTBEGIN
1070
    73
1070
     1
1070
    44
1040
1.0
1070
    74
1070
     0
1000
MTEXTEND
  0
POINT
  5
19B6D
330
198FA
100
AcDbEntity
  8
Defpoints
  6
Continuous
 62
     0
100
AcDbPoint
 10
-18928.18549689062
 20
-9788.102562263555
 30
0.0
  0
POINT
  5
19B6E
330
198FA
100
AcDbEntity
  8
Defpoints
  6
Continuous
 62
     0
100
AcDbPoint
 10
-18928.18549689062
 20
-9793.142650263554
 30
0.0
  0
POINT
  5
19B6F
330
198FA
100
AcDbEntity
  8
Defpoints
  6
Continuous
 62
     0
100
AcDbPoint
 10
-18911.60999495317
 20
-9793.142650263554
 30
0.0
  0
ENDBLK
  5
19905
330
198FA
100
AcDbEntity
  8
0
100
AcDbBlockEnd
  0
BLOCK
  5
19911
330
19907
100
AcDbEntity
  8
0
100
AcDbBlockBegin
  2
*D22
 70
     1
 10
0.0
 20
0.0
 30
0.0
  3
*D22
  1

  0
LINE
  5
19B70
330
19907
100
AcDbEntity
  8
寸法
  6
Continuous
 62
     4
370
    -2
100
AcDbLine
 10
-18928.18549689062
 20
-9793.142650263554
 30
0.0
 11
-18911.60999495317
 21
-9793.142650263554
 31
0.0
  0
LINE
  5
19B71
330
19907
100
AcDbEntity
  8
寸法
  6
Continuous
 62
     4
370
    -2
100
AcDbLine
 10
-18928.18549689062
 20
-9861.925672263557
 30
0.0
 11
-18911.60999495317
 21
-9861.925672263557
 31
0.0
  0
LINE
  5
19B72
330
19907
100
AcDbEntity
  8
寸法
  6
Continuous
 62
     4
370
    -2
100
AcDbLine
 10
-18911.60999495317
 20
-9793.142650263554
 30
0.0
 11
-18911.60999495317
 21
-9861.925672263557
 31
0.0
  0
INSERT
  5
19B73
330
19907
100
AcDbEntity
  8
寸法
  6
Continuous
 62
     4
370
    -2
100
AcDbBlockReference
  2
_DotSmall
 10
-18911.60999495317
 20
-9793.142650263554
 30
0.0
 50
90.0
  0
INSERT
  5
19B74
330
19907
100
AcDbEntity
  8
寸法
  6
Continuous
 62
     4
370
    -2
100
AcDbBlockReference
  2
_DotSmall
 10
-18911.60999495317
 20
-9861.925672263557
 30
0.0
 50
270.0
  0
MTEXT
  5
19B75
330
19907
100
AcDbEntity
  8
寸法
  6
Continuous
 62
     3
100
AcDbMText
 10
-18915.10999495317
 20
-9827.534161263558
 30
0.0
 40
5.0
 41
0.0
 71
     5
 72
     1
  1
\A1;75
  7
ACAD
 11
0.0000000000000001
 21
1.0
 31
0.0
 73
     1
 44
1.0
1001
ACAD
1000
MTEXTBEGIN
1070
    73
1070
     1
1070
    44
1040
1.0
1070
    74
1070
     0
1000
MTEXTEND
  0
POINT
  5
19B76
330
19907
100
AcDbEntity
  8
Defpoints
  6
Continuous
 62
     0
100
AcDbPoint
 10
-18928.18549689062
 20
-9793.142650263554
 30
0.0
  0
POINT
  5
19B77
330
19907
100
AcDbEntity
  8
Defpoints
  6
Continuous
 62
     0
100
AcDbPoint
 10
-18928.18549689062
 20
-9861.925672263557
 30
0.0
  0
POINT
  5
19B78
330
19907
100
AcDbEntity
  8
Defpoints
  6
Continuous
 62
     0
100
AcDbPoint
 10
-18911.60999495317
 20
-9861.925672263557
 30
0.0
  0
ENDBLK
  5
19912
330
19907
100
AcDbEntity
  8
0
100
AcDbBlockEnd
  0
BLOCK
  5
1995A
330
19950
100
AcDbEntity
  8
0
100
AcDbBlockBegin
  2
*D23
 70
     1
 10
0.0
 20
0.0
 30
0.0
  3
*D23
  1

  0
LINE
  5
19B82
330
19950
100
AcDbEntity
  8
寸法
  6
Continuous
 62
     4
370
    -2
100
AcDbLine
 10
-19081.49270095317
 20
-9816.925953263556
 30
0.0
 11
-19081.49270095317
 21
-9832.288056263557
 31
0.0
  0
LINE
  5
19B83
330
19950
100
AcDbEntity
  8
寸法
  6
Continuous
 62
     4
370
    -2
100
AcDbLine
 10
-18980.69093695317
 20
-9816.925953263556
 30
0.0
 11
-18980.69093695317
 21
-9832.288056263557
 31
0.0
  0
LINE
  5
19B84
330
19950
100
AcDbEntity
  8
寸法
  6
Continuous
 62
     4
370
    -2
100
AcDbLine
 10
-19081.49270095317
 20
-9832.288056263557
 30
0.0
 11
-18980.69093695317
 21
-9832.288056263557
 31
0.0
  0
INSERT
  5
19B85
330
19950
100
AcDbEntity
  8
寸法
  6
Continuous
 62
     4
370
    -2
100
AcDbBlockReference
  2
_DotSmall
 10
-19081.49270095317
 20
-9832.288056263557
 30
0.0
 50
180.0
  0
INSERT
  5
19B86
330
19950
100
AcDbEntity
  8
寸法
  6
Continuous
 62
     4
370
    -2
100
AcDbBlockReference
  2
_DotSmall
 10
-18980.69093695317
 20
-9832.288056263557
 30
0.0
  0
MTEXT
  5
19B87
330
19950
100
AcDbEntity
  8
寸法
  6
Continuous
 62
     3
100
AcDbMText
 10
-19031.09181895317
 20
-9828.788056263556
 30
0.0
 40
5.0
 41
0.0
 71
     5
 72
     1
  1
\A1;100
  7
ACAD
 73
     1
 44
1.0
1001
ACAD
1000
MTEXTBEGIN
1070
    73
1070
     1
1070
    44
1040
1.0
1070
    74
1070
     0
1000
MTEXTEND
  0
POINT
  5
19B88
330
19950
100
AcDbEntity
  8
Defpoints
  6
Continuous
 62
     0
100
AcDbPoint
 10
-19081.49270095317
 20
-9816.925953263556
 30
0.0
  0
POINT
  5
19B89
330
19950
100
AcDbEntity
  8
Defpoints
  6
Continuous
 62
     0
100
AcDbPoint
 10
-18980.69093695317
 20
-9816.925953263556
 30
0.0
  0
POINT
  5
19B8A
330
19950
100
AcDbEntity
  8
Defpoints
  6
Continuous
 62
     0
100
AcDbPoint
 10
-18980.69093695317
 20
-9832.288056263557
 30
0.0
  0
ENDBLK
  5
1995B
330
19950
100
AcDbEntity
  8
0
100
AcDbBlockEnd
  0
BLOCK
  5
1996E
330
19966
100
AcDbEntity
  8
0
100
AcDbBlockBegin
  2
*D24
 70
     1
 10
0.0
 20
0.0
 30
0.0
  3
*D24
  1

  0
LINE
  5
19B8B
330
19966
100
AcDbEntity
  8
寸法
  6
Continuous
 62
     4
370
    -2
100
AcDbLine
 10
-19116.61358295318
 20
-9886.155904263556
 30
0.0
 11
-18946.61060895317
 21
-9886.155904263556
 31
0.0
  0
INSERT
  5
19B8C
330
19966
100
AcDbEntity
  8
寸法
  6
Continuous
 62
     4
370
    -2
100
AcDbBlockReference
  2
_DotSmall
 10
-19116.61358295318
 20
-9886.155904263556
 30
0.0
 50
180.0
  0
INSERT
  5
19B8D
330
19966
100
AcDbEntity
  8
寸法
  6
Continuous
 62
     4
370
    -2
100
AcDbBlockReference
  2
_DotSmall
 10
-18946.61060895317
 20
-9886.155904263556
 30
0.0
  0
MTEXT
  5
19B8E
330
19966
100
AcDbEntity
  8
寸法
  6
Continuous
 62
     3
100
AcDbMText
 10
-19031.61209595317
 20
-9882.655904263557
 30
0.0
 40
5.0
 41
0.0
 71
     5
 72
     1
  1
\A1;170以上
  7
ACAD
 73
     1
 44
1.0
1001
ACAD
1000
MTEXTBEGIN
1070
    73
1070
     1
1070
    44
1040
1.0
1070
    74
1070
     0
1000
MTEXTEND
  0
POINT
  5
19B8F
330
19966
100
AcDbEntity
  8
Defpoints
  6
Continuous
 62
     0
100
AcDbPoint
 10
-19116.61358295318
 20
-9886.155904263556
 30
0.0
  0
POINT
  5
19B90
330
19966
100
AcDbEntity
  8
Defpoints
  6
Continuous
 62
     0
100
AcDbPoint
 10
-18946.61060895317
 20
-9886.155904263556
 30
0.0
  0
POINT
  5
19B91
330
19966
100
AcDbEntity
  8
Defpoints
  6
Continuous
 62
     0
100
AcDbPoint
 10
-18946.61060895317
 20
-9886.155904263556
 30
0.0
  0
ENDBLK
  5
1996F
330
19966
100
AcDbEntity
  8
0
100
AcDbBlockEnd
  0
BLOCK
  5
19AE0
330
19ADE
100
AcDbEntity
  8
0
100
AcDbBlockBegin
  2
_DotSmall
 70
     0
 10
0.0
 20
0.0
 30
0.0
  3
_DotSmall
  1

  0
LWPOLYLINE
  5
19ADF
330
19ADE
100
AcDbEntity
  8
0
  6
ByBlock
 62
     0
100
AcDbPolyline
 90
        2
 70
     1
 43
0.5
 10
-0.0625
 20
0.0
 42
1.0
 10
0.0625
 20
0.0
 42
1.0
  0
ENDBLK
  5
19AE1
330
19ADE
100
AcDbEntity
  8
0
100
AcDbBlockEnd
  0
ENDSEC
  0
SECTION
  2
ENTITIES
  0
LINE
  5
1956B
330
1E
100
AcDbEntity
  8
本体
  6
Continuous
 62
     3
100
AcDbLine
 10
-19032.11210495317
 20
-9459.614676263557
 30
0.0
 11
-19031.61209495317
 21
-9460.114686263557
 31
0.0
  0
LINE
  5
1956C
330
1E
100
AcDbEntity
  8
本体
  6
Continuous
 62
     3
100
AcDbLine
 10
-19041.61227095318
 20
-9461.414708263555
 30
0.0
 11
-19031.61209495317
 21
-9461.414708263555
 31
0.0
  0
ARC
  5
1956D
330
1E
100
AcDbEntity
  8
笠木
  6
Continuous
 62
     3
100
AcDbCircle
 10
-19031.61209495317
 20
-9493.415268263555
 30
0.0
 40
70.001226
100
AcDbArc
 50
90.0
 51
114.3157389999983
  0
ARC
  5
1956E
330
1E
100
AcDbEntity
  8
笠木
  6
Continuous
 62
     3
100
AcDbCircle
 10
-19031.61209495317
 20
-9493.415268263555
 30
0.0
 40
68.70120199999999
100
AcDbArc
 50
90.0
 51
113.5969249999286
  0
LINE
  5
19572
330
1E
100
AcDbEntity
  8
本体
  6
Continuous
 62
     3
100
AcDbLine
 10
-19037.81220495318
 20
-9649.650296263555
 30
0.0
 11
-19031.91210095318
 21
-9649.650296263555
 31
0.0
  0
LINE
  5
19573
330
1E
100
AcDbEntity
  8
本体
  6
Continuous
 62
     3
100
AcDbLine
 10
-19049.61241095318
 20
-9648.350274263556
 30
0.0
 11
-19013.61178095317
 21
-9648.350274263556
 31
0.0
  0
LINE
  5
19574
330
1E
100
AcDbEntity
  8
本体
  6
Continuous
 62
     3
100
AcDbLine
 10
-19046.61235895317
 20
-9664.650558263558
 30
0.0
 11
-19016.61183295317
 21
-9664.650558263558
 31
0.0
  0
LINE
  5
19575
330
1E
100
AcDbEntity
  8
本体
  6
Continuous
 62
     3
100
AcDbLine
 10
-19046.61235895317
 20
-9652.150340263556
 30
0.0
 11
-19016.61183295317
 21
-9652.150340263556
 31
0.0
  0
POLYLINE
  5
19577
330
1E
100
AcDbEntity
  8
本体
  6
Continuous
 62
     2
100
AcDb2dPolyline
 66
     1
 10
0.0
 20
0.0
 30
0.0
 70
     4
 75
     6
  0
VERTEX
  5
19578
330
19577
100
AcDbEntity
  8
本体
  6
Continuous
 62
     2
100
AcDbVertex
100
AcDb2dVertex
 10
-19033.99062495318
 20
-9788.102562263555
 30
0.0
 70
    16
  0
VERTEX
  5
19579
330
19577
100
AcDbEntity
  8
本体
  6
Continuous
 62
     2
100
AcDbVertex
100
AcDb2dVertex
 10
-19033.99062495318
 20
-9788.102562263555
 30
0.0
 70
     8
  0
VERTEX
  5
1957A
330
19577
100
AcDbEntity
  8
本体
  6
Continuous
 62
     2
100
AcDbVertex
100
AcDb2dVertex
 10
-19033.09448495317
 20
-9786.735890263557
 30
0.0
 70
     8
  0
VERTEX
  5
1957B
330
19577
100
AcDbEntity
  8
本体
  6
Continuous
 62
     2
100
AcDbVertex
100
AcDb2dVertex
 10
-19031.69183095317
 20
-9786.235862263557
 30
0.0
 70
     8
  0
VERTEX
  5
1957C
330
19577
100
AcDbEntity
  8
本体
  6
Continuous
 62
     2
100
AcDbVertex
100
AcDb2dVertex
 10
-19030.60087695317
 20
-9787.164480263557
 30
0.0
 70
     8
  0
VERTEX
  5
1957D
330
19577
100
AcDbEntity
  8
本体
  6
Continuous
 62
     2
100
AcDbVertex
100
AcDb2dVertex
 10
-19033.09448495317
 20
-9786.735890263557
 30
0.0
 70
    16
  0
VERTEX
  5
1957E
330
19577
100
AcDbEntity
  8
本体
  6
Continuous
 62
     2
100
AcDbVertex
100
AcDb2dVertex
 10
-19031.69183095317
 20
-9786.235862263557
 30
0.0
 70
    16
  0
VERTEX
  5
1957F
330
19577
100
AcDbEntity
  8
本体
  6
Continuous
 62
     2
100
AcDbVertex
100
AcDb2dVertex
 10
-19030.60087695317
 20
-9787.164480263557
 30
0.0
 70
    16
  0
SEQEND
  5
19580
330
19577
100
AcDbEntity
  8
本体
 62
     2
  0
LINE
  5
19581
330
1E
100
AcDbEntity
  8
躯体
  6
Continuous
 62
     2
100
AcDbLine
 10
-19043.34679495318
 20
-9871.445386263557
 30
0.0
 11
-19031.49610895317
 21
-9859.594700263556
 31
0.0
  0
ARC
  5
19583
330
1E
100
AcDbEntity
  8
本体
  6
Continuous
 62
     3
100
AcDbCircle
 10
-19024.03569695317
 20
-9848.821442263556
 30
0.0
 40
13.10423
100
AcDbArc
 50
180.0
 51
270.0
  0
LINE
  5
19588
330
1E
100
AcDbEntity
  8
躯体
  6
Continuous
 62
     3
100
AcDbLine
 10
-18946.61060895317
 20
-9788.102562263555
 30
0.0
 11
-19081.49270095317
 21
-9788.102562263555
 31
0.0
  0
LINE
  5
19589
330
1E
100
AcDbEntity
  8
本体
  6
Continuous
 62
     3
100
AcDbLine
 10
-18980.69093695317
 20
-9793.142650263554
 30
0.0
 11
-19081.49270095317
 21
-9793.142650263554
 31
0.0
  0
LINE
  5
1958A
330
1E
100
AcDbEntity
  8
本体
  6
Continuous
 62
     3
100
AcDbLine
 10
-19006.61165895318
 20
-9783.221168263557
 30
0.0
 11
-19056.61253295317
 21
-9783.221168263557
 31
0.0
  0
LINE
  5
1958D
330
1E
100
AcDbEntity
  8
本体
  6
Continuous
 62
     3
100
AcDbLine
 10
-19041.61227095318
 20
-9546.231284263557
 30
0.0
 11
-19041.61227095318
 21
-9648.350274263556
 31
0.0
  0
LINE
  5
1958E
330
1E
100
AcDbEntity
  8
本体
  6
Continuous
 62
     3
100
AcDbLine
 10
-19056.61253295317
 20
-9546.231284263557
 30
0.0
 11
-19056.61253295317
 21
-9692.351044263556
 31
0.0
  0
LINE
  5
1958F
330
1E
100
AcDbEntity
  8
本体
  6
Continuous
 62
     3
100
AcDbLine
 10
-19056.61253295317
 20
-9783.221168263557
 30
0.0
 11
-19056.61253295317
 21
-9698.351148263556
 31
0.0
  0
CIRCLE
  5
19590
330
1E
100
AcDbEntity
  8
躯体
  6
Continuous
 62
     2
100
AcDbCircle
 10
-19078.13700095317
 20
-9749.379212263555
 30
0.0
 40
0.420008
  0
LINE
  5
19591
330
1E
100
AcDbEntity
  8
躯体
  6
Continuous
 62
     3
100
AcDbLine
 10
-19089.08124495317
 20
-9722.931484263556
 30
0.0
 11
-19081.49270095317
 21
-9793.142650263554
 31
0.0
  0
LINE
  5
19592
330
1E
100
AcDbEntity
  8
躯体
  6
Continuous
 62
     2
100
AcDbLine
 10
-19113.61353095317
 20
-9893.363578263556
 30
0.0
 11
-19113.61353095317
 21
-9731.238364263557
 31
0.0
  0
LINE
  5
19593
330
1E
100
AcDbEntity
  8
躯体
  6
Continuous
 62
     3
100
AcDbLine
 10
-19116.61358295318
 20
-9893.363578263556
 30
0.0
 11
-19116.61358295318
 21
-9729.995702263556
 31
0.0
  0
LINE
  5
19594
330
1E
100
AcDbEntity
  8
躯体
  6
Continuous
 62
     2
100
AcDbLine
 10
-19085.72071295317
 20
-9754.023992263556
 30
0.0
 11
-19113.61353095317
 21
-9781.916810263556
 31
0.0
  0
LINE
  5
19595
330
1E
100
AcDbEntity
  8
躯体
  6
Continuous
 62
     2
100
AcDbLine
 10
-19085.30688095317
 20
-9757.852874263555
 30
0.0
 11
-19113.61353095317
 21
-9786.159524263556
 31
0.0
  0
LINE
  5
19596
330
1E
100
AcDbEntity
  8
躯体
  6
Continuous
 62
     2
100
AcDbLine
 10
-19086.13454495317
 20
-9750.195110263556
 30
0.0
 11
-19113.61353095317
 21
-9777.674094263556
 31
0.0
  0
LINE
  5
19599
330
1E
100
AcDbEntity
  8
本体
  6
Continuous
 62
     3
100
AcDbLine
 10
-19037.13992495317
 20
-9848.821442263556
 30
0.0
 11
-19037.13992495317
 21
-9793.142650263554
 31
0.0
  0
LINE
  5
1959A
330
1E
100
AcDbEntity
  8
躯体
  6
Continuous
 62
     2
100
AcDbLine
 10
-19051.83222495318
 20
-9871.445386263557
 30
0.0
 11
-19035.51982495317
 21
-9855.132986263555
 31
0.0
  0
LINE
  5
1959B
330
1E
100
AcDbEntity
  8
躯体
  6
Continuous
 62
     2
100
AcDbLine
 10
-19047.58950895318
 20
-9871.445386263557
 30
0.0
 11
-19033.75504895317
 21
-9857.610924263555
 31
0.0
  0
LINE
  5
195A1
330
1E
100
AcDbEntity
  8
本体
  6
Continuous
 62
     3
100
AcDbLine
 10
-19081.49270095317
 20
-9788.102562263555
 30
0.0
 11
-19081.49270095317
 21
-9793.142650263554
 31
0.0
  0
CIRCLE
  5
195A2
330
1E
100
AcDbEntity
  8
躯体
  6
Continuous
 62
     2
100
AcDbCircle
 10
-19075.97049095317
 20
-9772.482970263556
 30
0.0
 40
0.420008
  0
CIRCLE
  5
195A3
330
1E
100
AcDbEntity
  8
躯体
  6
Continuous
 62
     2
100
AcDbCircle
 10
-19070.63664695317
 20
-9781.425004263557
 30
0.0
 40
0.420008
  0
CIRCLE
  5
195A4
330
1E
100
AcDbEntity
  8
躯体
  6
Continuous
 62
     2
100
AcDbCircle
 10
-19070.41376695318
 20
-9757.101264263557
 30
0.0
 40
0.420008
  0
ARC
  5
195A5
330
1E
100
AcDbEntity
  8
本体
  6
Continuous
 62
     2
100
AcDbCircle
 10
-19036.98010095317
 20
-9793.490334263555
 30
0.0
 40
4.890827999999999
100
AcDbArc
 50
175.9234640000427
 51
268.1273339999442
  0
POLYLINE
  5
195A7
330
1E
100
AcDbEntity
  8
本体
  6
Continuous
 62
     2
100
AcDb2dPolyline
 66
     1
 10
0.0
 20
0.0
 30
0.0
 70
     4
 75
     6
  0
VERTEX
  5
195A8
330
195A7
100
AcDbEntity
  8
本体
  6
Continuous
 62
     2
100
AcDbVertex
100
AcDb2dVertex
 10
-19049.92633895318
 20
-9788.102562263555
 30
0.0
 70
    16
  0
VERTEX
  5
195A9
330
195A7
100
AcDbEntity
  8
本体
  6
Continuous
 62
     2
100
AcDbVertex
100
AcDb2dVertex
 10
-19049.92633895318
 20
-9788.102562263555
 30
0.0
 70
     8
  0
VERTEX
  5
195AA
330
195A7
100
AcDbEntity
  8
本体
  6
Continuous
 62
     2
100
AcDbVertex
100
AcDb2dVertex
 10
-19048.87434695318
 20
-9786.657966263556
 30
0.0
 70
     8
  0
VERTEX
  5
195AB
330
195A7
100
AcDbEntity
  8
本体
  6
Continuous
 62
     2
100
AcDbVertex
100
AcDb2dVertex
 10
-19047.15999095317
 20
-9786.235862263557
 30
0.0
 70
     8
  0
VERTEX
  5
195AC
330
195A7
100
AcDbEntity
  8
本体
  6
Continuous
 62
     2
100
AcDbVertex
100
AcDb2dVertex
 10
-19046.03007495318
 20
-9787.047592263556
 30
0.0
 70
     8
  0
VERTEX
  5
195AD
330
195A7
100
AcDbEntity
  8
本体
  6
Continuous
 62
     2
100
AcDbVertex
100
AcDb2dVertex
 10
-19048.87434695318
 20
-9786.657966263556
 30
0.0
 70
    16
  0
VERTEX
  5
195AE
330
195A7
100
AcDbEntity
  8
本体
  6
Continuous
 62
     2
100
AcDbVertex
100
AcDb2dVertex
 10
-19047.15999095317
 20
-9786.235862263557
 30
0.0
 70
    16
  0
VERTEX
  5
195AF
330
195A7
100
AcDbEntity
  8
本体
  6
Continuous
 62
     2
100
AcDbVertex
100
AcDb2dVertex
 10
-19046.03007495318
 20
-9787.047592263556
 30
0.0
 70
    16
  0
SEQEND
  5
195B0
330
195A7
100
AcDbEntity
  8
本体
 62
     2
  0
LINE
  5
195B1
330
1E
100
AcDbEntity
  8
本体
  6
Continuous
 62
     3
100
AcDbLine
 10
-19060.03496695317
 20
-9771.338454263556
 30
0.0
 11
-19060.03496695317
 21
-9783.221168263557
 31
0.0
  0
POLYLINE
  5
195B2
330
1E
100
AcDbEntity
  8
本体
  6
Continuous
 62
     2
100
AcDb2dPolyline
 66
     1
 10
0.0
 20
0.0
 30
0.0
 70
     4
 75
     6
  0
VERTEX
  5
195B3
330
195B2
100
AcDbEntity
  8
本体
  6
Continuous
 62
     2
100
AcDbVertex
100
AcDb2dVertex
 10
-19058.30330295317
 20
-9788.102562263555
 30
0.0
 70
    16
  0
VERTEX
  5
195B4
330
195B2
100
AcDbEntity
  8
本体
  6
Continuous
 62
     2
100
AcDbVertex
100
AcDb2dVertex
 10
-19058.30330295317
 20
-9788.102562263555
 30
0.0
 70
     8
  0
VERTEX
  5
195B5
330
195B2
100
AcDbEntity
  8
本体
  6
Continuous
 62
     2
100
AcDbVertex
100
AcDb2dVertex
 10
-19057.62788895317
 20
-9787.295182263555
 30
0.0
 70
     8
  0
VERTEX
  5
195B6
330
195B2
100
AcDbEntity
  8
本体
  6
Continuous
 62
     2
100
AcDbVertex
100
AcDb2dVertex
 10
-19056.82272295317
 20
-9786.619002263556
 30
0.0
 70
     8
  0
VERTEX
  5
195B7
330
195B2
100
AcDbEntity
  8
本体
  6
Continuous
 62
     2
100
AcDbVertex
100
AcDb2dVertex
 10
-19055.38740295317
 20
-9786.224966263555
 30
0.0
 70
     8
  0
VERTEX
  5
195B8
330
195B2
100
AcDbEntity
  8
本体
  6
Continuous
 62
     2
100
AcDbVertex
100
AcDb2dVertex
 10
-19054.32911495317
 20
-9786.619002263556
 30
0.0
 70
     8
  0
VERTEX
  5
195B9
330
195B2
100
AcDbEntity
  8
本体
  6
Continuous
 62
     2
100
AcDbVertex
100
AcDb2dVertex
 10
-19056.82272295317
 20
-9786.619002263556
 30
0.0
 70
    16
  0
VERTEX
  5
195BA
330
195B2
100
AcDbEntity
  8
本体
  6
Continuous
 62
     2
100
AcDbVertex
100
AcDb2dVertex
 10
-19055.38740295317
 20
-9786.224966263555
 30
0.0
 70
    16
  0
VERTEX
  5
195BB
330
195B2
100
AcDbEntity
  8
本体
  6
Continuous
 62
     2
100
AcDbVertex
100
AcDb2dVertex
 10
-19054.32911495317
 20
-9786.619002263556
 30
0.0
 70
    16
  0
SEQEND
  5
195BC
330
195B2
100
AcDbEntity
  8
本体
 62
     2
  0
ARC
  5
195BD
330
1E
100
AcDbEntity
  8
本体
  6
Continuous
 62
     3
100
AcDbCircle
 10
-19056.81253695318
 20
-9783.221168263557
 30
0.0
 40
3.22243
100
AcDbArc
 50
180.0
 51
270.0
  0
ARC
  5
195BE
330
1E
100
AcDbEntity
  8
本体
  6
Continuous
 62
     2
100
AcDbCircle
 10
-19056.44190895317
 20
-9788.519554263556
 30
0.0
 40
4.200923999999999
100
AcDbArc
 50
133.0632579999439
 51
174.6136089999792
  0
POLYLINE
  5
195C0
330
1E
100
AcDbEntity
  8
本体
  6
Continuous
 62
     2
100
AcDb2dPolyline
 66
     1
 10
0.0
 20
0.0
 30
0.0
 70
     4
 75
     6
  0
VERTEX
  5
195C1
330
195C0
100
AcDbEntity
  8
本体
  6
Continuous
 62
     2
100
AcDbVertex
100
AcDb2dVertex
 10
-19055.30318095317
 20
-9788.102562263555
 30
0.0
 70
    16
  0
VERTEX
  5
195C2
330
195C0
100
AcDbEntity
  8
本体
  6
Continuous
 62
     2
100
AcDbVertex
100
AcDb2dVertex
 10
-19055.30318095317
 20
-9788.102562263555
 30
0.0
 70
     8
  0
VERTEX
  5
195C3
330
195C0
100
AcDbEntity
  8
本体
  6
Continuous
 62
     2
100
AcDbVertex
100
AcDb2dVertex
 10
-19054.29015295317
 20
-9786.696928263557
 30
0.0
 70
     8
  0
VERTEX
  5
195C4
330
195C0
100
AcDbEntity
  8
本体
  6
Continuous
 62
     2
100
AcDbVertex
100
AcDb2dVertex
 10
-19052.92646095317
 20
-9786.235862263557
 30
0.0
 70
     8
  0
VERTEX
  5
195C5
330
195C0
100
AcDbEntity
  8
本体
  6
Continuous
 62
     2
100
AcDbVertex
100
AcDb2dVertex
 10
-19051.67965695317
 20
-9786.774854263557
 30
0.0
 70
     8
  0
VERTEX
  5
195C6
330
195C0
100
AcDbEntity
  8
本体
  6
Continuous
 62
     2
100
AcDbVertex
100
AcDb2dVertex
 10
-19054.29015295317
 20
-9786.696928263557
 30
0.0
 70
    16
  0
VERTEX
  5
195C7
330
195C0
100
AcDbEntity
  8
本体
  6
Continuous
 62
     2
100
AcDbVertex
100
AcDb2dVertex
 10
-19052.92646095317
 20
-9786.235862263557
 30
0.0
 70
    16
  0
VERTEX
  5
195C8
330
195C0
100
AcDbEntity
  8
本体
  6
Continuous
 62
     2
100
AcDbVertex
100
AcDb2dVertex
 10
-19051.67965695317
 20
-9786.774854263557
 30
0.0
 70
    16
  0
SEQEND
  5
195C9
330
195C0
100
AcDbEntity
  8
本体
 62
     2
  0
POLYLINE
  5
195CA
330
1E
100
AcDbEntity
  8
本体
  6
Continuous
 62
     2
100
AcDb2dPolyline
 66
     1
 10
0.0
 20
0.0
 30
0.0
 70
     4
 75
     6
  0
VERTEX
  5
195CB
330
195CA
100
AcDbEntity
  8
本体
  6
Continuous
 62
     2
100
AcDbVertex
100
AcDb2dVertex
 10
-19053.12127295317
 20
-9788.102562263555
 30
0.0
 70
    16
  0
VERTEX
  5
195CC
330
195CA
100
AcDbEntity
  8
本体
  6
Continuous
 62
     2
100
AcDbVertex
100
AcDb2dVertex
 10
-19053.12127295317
 20
-9788.102562263555
 30
0.0
 70
     8
  0
VERTEX
  5
195CD
330
195CA
100
AcDbEntity
  8
本体
  6
Continuous
 62
     2
100
AcDbVertex
100
AcDb2dVertex
 10
-19052.47123095317
 20
-9787.298748263557
 30
0.0
 70
     8
  0
VERTEX
  5
195CE
330
195CA
100
AcDbEntity
  8
本体
  6
Continuous
 62
     2
100
AcDbVertex
100
AcDb2dVertex
 10
-19051.67965695317
 20
-9786.619002263556
 30
0.0
 70
     8
  0
VERTEX
  5
195CF
330
195CA
100
AcDbEntity
  8
本体
  6
Continuous
 62
     2
100
AcDbVertex
100
AcDb2dVertex
 10
-19049.84841295317
 20
-9786.235862263557
 30
0.0
 70
     8
  0
VERTEX
  5
195D0
330
195CA
100
AcDbEntity
  8
本体
  6
Continuous
 62
     2
100
AcDbVertex
100
AcDb2dVertex
 10
-19048.95227295317
 20
-9786.774854263557
 30
0.0
 70
     8
  0
VERTEX
  5
195D1
330
195CA
100
AcDbEntity
  8
本体
  6
Continuous
 62
     2
100
AcDbVertex
100
AcDb2dVertex
 10
-19051.67965695317
 20
-9786.619002263556
 30
0.0
 70
    16
  0
VERTEX
  5
195D2
330
195CA
100
AcDbEntity
  8
本体
  6
Continuous
 62
     2
100
AcDbVertex
100
AcDb2dVertex
 10
-19049.84841295317
 20
-9786.235862263557
 30
0.0
 70
    16
  0
VERTEX
  5
195D3
330
195CA
100
AcDbEntity
  8
本体
  6
Continuous
 62
     2
100
AcDbVertex
100
AcDb2dVertex
 10
-19048.95227295317
 20
-9786.774854263557
 30
0.0
 70
    16
  0
SEQEND
  5
195D4
330
195CA
100
AcDbEntity
  8
本体
 62
     2
  0
CIRCLE
  5
195D6
330
1E
100
AcDbEntity
  8
躯体
  6
Continuous
 62
     2
100
AcDbCircle
 10
-19063.63333695317
 20
-9767.528824263557
 30
0.0
 40
0.420008
  0
LINE
  5
195D7
330
1E
100
AcDbEntity
  8
本体
  6
Continuous
 62
     3
100
AcDbLine
 10
-19056.81253695318
 20
-9771.338454263556
 30
0.0
 11
-19060.03496695317
 21
-9771.338454263556
 31
0.0
  0
CIRCLE
  5
195D8
330
1E
100
AcDbEntity
  8
躯体
  6
Continuous
 62
     2
100
AcDbCircle
 10
-19062.03123295318
 20
-9754.088500263556
 30
0.0
 40
0.420008
  0
POLYLINE
  5
195D9
330
1E
100
AcDbEntity
  8
本体
  6
Continuous
 62
     2
100
AcDb2dPolyline
 66
     1
 10
0.0
 20
0.0
 30
0.0
 70
     4
 75
     6
  0
VERTEX
  5
195DA
330
195D9
100
AcDbEntity
  8
本体
  6
Continuous
 62
     2
100
AcDbVertex
100
AcDb2dVertex
 10
-19041.82211295318
 20
-9788.102562263555
 30
0.0
 70
    16
  0
VERTEX
  5
195DB
330
195D9
100
AcDbEntity
  8
本体
  6
Continuous
 62
     2
100
AcDbVertex
100
AcDb2dVertex
 10
-19041.82211295318
 20
-9788.102562263555
 30
0.0
 70
     8
  0
VERTEX
  5
195DC
330
195D9
100
AcDbEntity
  8
本体
  6
Continuous
 62
     2
100
AcDbVertex
100
AcDb2dVertex
 10
-19041.08182295317
 20
-9786.891742263556
 30
0.0
 70
     8
  0
VERTEX
  5
195DD
330
195D9
100
AcDbEntity
  8
本体
  6
Continuous
 62
     2
100
AcDbVertex
100
AcDb2dVertex
 10
-19039.56228095318
 20
-9786.235862263557
 30
0.0
 70
     8
  0
VERTEX
  5
195DE
330
195D9
100
AcDbEntity
  8
本体
  6
Continuous
 62
     2
100
AcDbVertex
100
AcDb2dVertex
 10
-19038.66613895317
 20
-9786.774854263557
 30
0.0
 70
     8
  0
VERTEX
  5
195DF
330
195D9
100
AcDbEntity
  8
本体
  6
Continuous
 62
     2
100
AcDbVertex
100
AcDb2dVertex
 10
-19041.08182295317
 20
-9786.891742263556
 30
0.0
 70
    16
  0
VERTEX
  5
195E0
330
195D9
100
AcDbEntity
  8
本体
  6
Continuous
 62
     2
100
AcDbVertex
100
AcDb2dVertex
 10
-19039.56228095318
 20
-9786.235862263557
 30
0.0
 70
    16
  0
VERTEX
  5
195E1
330
195D9
100
AcDbEntity
  8
本体
  6
Continuous
 62
     2
100
AcDbVertex
100
AcDb2dVertex
 10
-19038.66613895317
 20
-9786.774854263557
 30
0.0
 70
    16
  0
SEQEND
  5
195E2
330
195D9
100
AcDbEntity
  8
本体
 62
     2
  0
POLYLINE
  5
195E3
330
1E
100
AcDbEntity
  8
本体
  6
Continuous
 62
     2
100
AcDb2dPolyline
 66
     1
 10
0.0
 20
0.0
 30
0.0
 70
     4
 75
     6
  0
VERTEX
  5
195E4
330
195E3
100
AcDbEntity
  8
本体
  6
Continuous
 62
     2
100
AcDbVertex
100
AcDb2dVertex
 10
-19047.39376695317
 20
-9788.102562263555
 30
0.0
 70
    16
  0
VERTEX
  5
195E5
330
195E3
100
AcDbEntity
  8
本体
  6
Continuous
 62
     2
100
AcDbVertex
100
AcDb2dVertex
 10
-19047.39376695317
 20
-9788.102562263555
 30
0.0
 70
     8
  0
VERTEX
  5
195E6
330
195E3
100
AcDbEntity
  8
本体
  6
Continuous
 62
     2
100
AcDbVertex
100
AcDb2dVertex
 10
-19045.95215095318
 20
-9786.891742263556
 30
0.0
 70
     8
  0
VERTEX
  5
195E7
330
195E3
100
AcDbEntity
  8
本体
  6
Continuous
 62
     2
100
AcDbVertex
100
AcDb2dVertex
 10
-19044.66638495317
 20
-9786.235862263557
 30
0.0
 70
     8
  0
VERTEX
  5
195E8
330
195E3
100
AcDbEntity
  8
本体
  6
Continuous
 62
     2
100
AcDbVertex
100
AcDb2dVertex
 10
-19043.84816895317
 20
-9786.891742263556
 30
0.0
 70
     8
  0
VERTEX
  5
195E9
330
195E3
100
AcDbEntity
  8
本体
  6
Continuous
 62
     2
100
AcDbVertex
100
AcDb2dVertex
 10
-19045.95215095318
 20
-9786.891742263556
 30
0.0
 70
    16
  0
VERTEX
  5
195EA
330
195E3
100
AcDbEntity
  8
本体
  6
Continuous
 62
     2
100
AcDbVertex
100
AcDb2dVertex
 10
-19044.66638495317
 20
-9786.235862263557
 30
0.0
 70
    16
  0
VERTEX
  5
195EB
330
195E3
100
AcDbEntity
  8
本体
  6
Continuous
 62
     2
100
AcDbVertex
100
AcDb2dVertex
 10
-19043.84816895317
 20
-9786.891742263556
 30
0.0
 70
    16
  0
SEQEND
  5
195EC
330
195E3
100
AcDbEntity
  8
本体
 62
     2
  0
POLYLINE
  5
195ED
330
1E
100
AcDbEntity
  8
本体
  6
Continuous
 62
     2
100
AcDb2dPolyline
 66
     1
 10
0.0
 20
0.0
 30
0.0
 70
     4
 75
     6
  0
VERTEX
  5
195EE
330
195ED
100
AcDbEntity
  8
本体
  6
Continuous
 62
     2
100
AcDbVertex
100
AcDb2dVertex
 10
-19044.70534695317
 20
-9788.102562263555
 30
0.0
 70
    16
  0
VERTEX
  5
195EF
330
195ED
100
AcDbEntity
  8
本体
  6
Continuous
 62
     2
100
AcDbVertex
100
AcDb2dVertex
 10
-19044.70534695317
 20
-9788.102562263555
 30
0.0
 70
     8
  0
VERTEX
  5
195F0
330
195ED
100
AcDbEntity
  8
本体
  6
Continuous
 62
     2
100
AcDbVertex
100
AcDb2dVertex
 10
-19043.80920695318
 20
-9786.930704263555
 30
0.0
 70
     8
  0
VERTEX
  5
195F1
330
195ED
100
AcDbEntity
  8
本体
  6
Continuous
 62
     2
100
AcDbVertex
100
AcDb2dVertex
 10
-19042.28966295317
 20
-9786.235862263557
 30
0.0
 70
     8
  0
VERTEX
  5
195F2
330
195ED
100
AcDbEntity
  8
本体
  6
Continuous
 62
     2
100
AcDbVertex
100
AcDb2dVertex
 10
-19041.08182295317
 20
-9786.852778263556
 30
0.0
 70
     8
  0
VERTEX
  5
195F3
330
195ED
100
AcDbEntity
  8
本体
  6
Continuous
 62
     2
100
AcDbVertex
100
AcDb2dVertex
 10
-19043.80920695318
 20
-9786.930704263555
 30
0.0
 70
    16
  0
VERTEX
  5
195F4
330
195ED
100
AcDbEntity
  8
本体
  6
Continuous
 62
     2
100
AcDbVertex
100
AcDb2dVertex
 10
-19042.28966295317
 20
-9786.235862263557
 30
0.0
 70
    16
  0
VERTEX
  5
195F5
330
195ED
100
AcDbEntity
  8
本体
  6
Continuous
 62
     2
100
AcDbVertex
100
AcDb2dVertex
 10
-19041.08182295317
 20
-9786.852778263556
 30
0.0
 70
    16
  0
SEQEND
  5
195F6
330
195ED
100
AcDbEntity
  8
本体
 62
     2
  0
POLYLINE
  5
195F7
330
1E
100
AcDbEntity
  8
本体
  6
Continuous
 62
     2
100
AcDb2dPolyline
 66
     1
 10
0.0
 20
0.0
 30
0.0
 70
     4
 75
     6
  0
VERTEX
  5
195F8
330
195F7
100
AcDbEntity
  8
本体
  6
Continuous
 62
     2
100
AcDbVertex
100
AcDb2dVertex
 10
-19039.21161695317
 20
-9788.102562263555
 30
0.0
 70
    16
  0
VERTEX
  5
195F9
330
195F7
100
AcDbEntity
  8
本体
  6
Continuous
 62
     2
100
AcDbVertex
100
AcDb2dVertex
 10
-19039.21161695317
 20
-9788.102562263555
 30
0.0
 70
     8
  0
VERTEX
  5
195FA
330
195F7
100
AcDbEntity
  8
本体
  6
Continuous
 62
     2
100
AcDbVertex
100
AcDb2dVertex
 10
-19038.51028895318
 20
-9786.774854263557
 30
0.0
 70
     8
  0
VERTEX
  5
195FB
330
195F7
100
AcDbEntity
  8
本体
  6
Continuous
 62
     2
100
AcDbVertex
100
AcDb2dVertex
 10
-19037.45829895317
 20
-9786.235862263557
 30
0.0
 70
     8
  0
VERTEX
  5
195FC
330
195F7
100
AcDbEntity
  8
本体
  6
Continuous
 62
     2
100
AcDbVertex
100
AcDb2dVertex
 10
-19035.93875695317
 20
-9786.852778263556
 30
0.0
 70
     8
  0
VERTEX
  5
195FD
330
195F7
100
AcDbEntity
  8
本体
  6
Continuous
 62
     2
100
AcDbVertex
100
AcDb2dVertex
 10
-19038.51028895318
 20
-9786.774854263557
 30
0.0
 70
    16
  0
VERTEX
  5
195FE
330
195F7
100
AcDbEntity
  8
本体
  6
Continuous
 62
     2
100
AcDbVertex
100
AcDb2dVertex
 10
-19037.45829895317
 20
-9786.235862263557
 30
0.0
 70
    16
  0
VERTEX
  5
195FF
330
195F7
100
AcDbEntity
  8
本体
  6
Continuous
 62
     2
100
AcDbVertex
100
AcDb2dVertex
 10
-19035.93875695317
 20
-9786.852778263556
 30
0.0
 70
    16
  0
SEQEND
  5
19600
330
195F7
100
AcDbEntity
  8
本体
 62
     2
  0
POLYLINE
  5
19601
330
1E
100
AcDbEntity
  8
本体
  6
Continuous
 62
     2
100
AcDb2dPolyline
 66
     1
 10
0.0
 20
0.0
 30
0.0
 70
     4
 75
     6
  0
VERTEX
  5
19602
330
19601
100
AcDbEntity
  8
本体
  6
Continuous
 62
     2
100
AcDbVertex
100
AcDb2dVertex
 10
-19036.64008295318
 20
-9788.102562263555
 30
0.0
 70
    16
  0
VERTEX
  5
19603
330
19601
100
AcDbEntity
  8
本体
  6
Continuous
 62
     2
100
AcDbVertex
100
AcDb2dVertex
 10
-19036.64008295318
 20
-9788.102562263555
 30
0.0
 70
     8
  0
VERTEX
  5
19604
330
19601
100
AcDbEntity
  8
本体
  6
Continuous
 62
     2
100
AcDbVertex
100
AcDb2dVertex
 10
-19035.89979295317
 20
-9786.735890263557
 30
0.0
 70
     8
  0
VERTEX
  5
19605
330
19601
100
AcDbEntity
  8
本体
  6
Continuous
 62
     2
100
AcDbVertex
100
AcDb2dVertex
 10
-19034.69195295317
 20
-9786.235862263557
 30
0.0
 70
     8
  0
VERTEX
  5
19606
330
19601
100
AcDbEntity
  8
本体
  6
Continuous
 62
     2
100
AcDbVertex
100
AcDb2dVertex
 10
-19033.13344695317
 20
-9786.774854263557
 30
0.0
 70
     8
  0
VERTEX
  5
19607
330
19601
100
AcDbEntity
  8
本体
  6
Continuous
 62
     2
100
AcDbVertex
100
AcDb2dVertex
 10
-19035.89979295317
 20
-9786.735890263557
 30
0.0
 70
    16
  0
VERTEX
  5
19608
330
19601
100
AcDbEntity
  8
本体
  6
Continuous
 62
     2
100
AcDbVertex
100
AcDb2dVertex
 10
-19034.69195295317
 20
-9786.235862263557
 30
0.0
 70
    16
  0
VERTEX
  5
19609
330
19601
100
AcDbEntity
  8
本体
  6
Continuous
 62
     2
100
AcDbVertex
100
AcDb2dVertex
 10
-19033.13344695317
 20
-9786.774854263557
 30
0.0
 70
    16
  0
SEQEND
  5
1960A
330
19601
100
AcDbEntity
  8
本体
 62
     2
  0
LINE
  5
1960C
330
1E
100
AcDbEntity
  8
躯体
  6
Continuous
 62
     2
100
AcDbLine
 10
-19088.75405495318
 20
-9725.958730263556
 30
0.0
 11
-19107.15231295318
 21
-9724.777146263555
 31
0.0
  0
LINE
  5
1960D
330
1E
100
AcDbEntity
  8
躯体
  6
Continuous
 62
     3
100
AcDbLine
 10
-19108.31417695317
 20
-9721.696296263555
 30
0.0
 11
-19056.61253295317
 21
-9725.016710263556
 31
0.0
  0
LINE
  5
1960F
330
1E
100
AcDbEntity
  8
躯体
  6
Continuous
 62
     3
100
AcDbLine
 10
-19116.61358295318
 20
-9729.995702263556
 30
0.0
 11
-19108.96944895317
 21
-9722.351568263555
 31
0.0
  0
LINE
  5
19610
330
1E
100
AcDbEntity
  8
躯体
  6
Continuous
 62
     2
100
AcDbLine
 10
-19113.61353095317
 20
-9731.238364263557
 30
0.0
 11
-19106.84809295317
 21
-9724.472926263556
 31
0.0
  0
LINE
  5
19613
330
1E
100
AcDbEntity
  8
本体
  6
Continuous
 62
     3
100
AcDbLine
 10
-19046.61235895317
 20
-9649.650296263555
 30
0.0
 11
-19046.61235895317
 21
-9664.650558263558
 31
0.0
  0
LINE
  5
19614
330
1E
100
AcDbEntity
  8
本体
  6
Continuous
 62
     3
100
AcDbLine
 10
-19050.31242295317
 20
-9668.350624263556
 30
0.0
 11
-19050.31242295317
 21
-9650.650314263556
 31
0.0
  0
CIRCLE
  5
19615
330
1E
100
AcDbEntity
  8
本体
  6
Continuous
 62
     2
100
AcDbCircle
 10
-19042.61228895317
 20
-9659.350466263555
 30
0.0
 40
3.500062
  0
LINE
  5
19616
330
1E
100
AcDbEntity
  8
本体
  6
Continuous
 62
     3
100
AcDbLine
 10
-19051.61244495317
 20
-9672.700700263556
 30
0.0
 11
-19051.61244495317
 21
-9650.350308263556
 31
0.0
  0
CIRCLE
  5
19619
330
1E
100
AcDbEntity
  8
躯体
  6
Continuous
 62
     2
100
AcDbCircle
 10
-19083.04293895317
 20
-9729.612710263557
 30
0.0
 40
0.420008
  0
CIRCLE
  5
1961C
330
1E
100
AcDbEntity
  8
躯体
  6
Continuous
 62
     2
100
AcDbCircle
 10
-19070.81284695317
 20
-9739.955902263558
 30
0.0
 40
0.420008
  0
CIRCLE
  5
19621
330
1E
100
AcDbEntity
  8
躯体
  6
Continuous
 62
     2
100
AcDbCircle
 10
-19063.53839295317
 20
-9732.127120263555
 30
0.0
 40
0.420008
  0
ARC
  5
19622
330
1E
100
AcDbEntity
  8
本体
  6
Continuous
 62
     3
100
AcDbCircle
 10
-19050.96243495318
 20
-9672.700700263556
 30
0.0
 40
0.6500120000000001
100
AcDbArc
 50
180.0
 51
0.0
  0
LINE
  5
19623
330
1E
100
AcDbEntity
  8
本体
  6
Continuous
 62
     3
100
AcDbLine
 10
-19048.51239095317
 20
-9668.350624263556
 30
0.0
 11
-19050.31242295317
 21
-9668.350624263556
 31
0.0
  0
LINE
  5
19624
330
1E
100
AcDbEntity
  8
本体
  6
Continuous
 62
     3
100
AcDbLine
 10
-19050.31242295317
 20
-9672.700700263556
 30
0.0
 11
-19050.31242295317
 21
-9671.350676263557
 31
0.0
  0
LINE
  5
19625
330
1E
100
AcDbEntity
  8
本体
  6
Continuous
 62
     3
100
AcDbLine
 10
-19050.31242295317
 20
-9671.350676263557
 30
0.0
 11
-19048.51239095317
 21
-9668.350624263556
 31
0.0
  0
LINE
  5
19626
330
1E
100
AcDbEntity
  8
本体
  6
Continuous
 62
     2
100
AcDbLine
 10
-19044.66232495317
 20
-9659.850474263556
 30
0.0
 11
-19043.80849495318
 21
-9659.865378263555
 31
0.0
  0
LINE
  5
19627
330
1E
100
AcDbEntity
  8
本体
  6
Continuous
 62
     2
100
AcDbLine
 10
-19044.66232495317
 20
-9658.850458263557
 30
0.0
 11
-19043.80849495318
 21
-9658.835554263557
 31
0.0
  0
LINE
  5
19628
330
1E
100
AcDbEntity
  8
本体
  6
Continuous
 62
     2
100
AcDbLine
 10
-19044.66232495317
 20
-9658.850458263557
 30
0.0
 11
-19044.66232495317
 21
-9659.850474263556
 31
0.0
  0
LINE
  5
19629
330
1E
100
AcDbEntity
  8
本体
  6
Continuous
 62
     2
100
AcDbLine
 10
-19042.11227895318
 20
-9657.300430263557
 30
0.0
 11
-19043.11229695317
 21
-9657.300430263557
 31
0.0
  0
LINE
  5
1962A
330
1E
100
AcDbEntity
  8
本体
  6
Continuous
 62
     2
100
AcDbLine
 10
-19043.11229695317
 20
-9661.400502263555
 30
0.0
 11
-19042.11227895318
 21
-9661.400502263555
 31
0.0
  0
LINE
  5
1962B
330
1E
100
AcDbEntity
  8
本体
  6
Continuous
 62
     2
100
AcDbLine
 10
-19043.33708495317
 20
-9658.625668263557
 30
0.0
 11
-19043.12720095317
 21
-9658.154260263557
 31
0.0
  0
LINE
  5
1962C
330
1E
100
AcDbEntity
  8
本体
  6
Continuous
 62
     2
100
AcDbLine
 10
-19043.12720095317
 20
-9658.154260263557
 30
0.0
 11
-19043.11229695317
 21
-9657.300430263557
 31
0.0
  0
LINE
  5
1962D
330
1E
100
AcDbEntity
  8
本体
  6
Continuous
 62
     2
100
AcDbLine
 10
-19043.33708495317
 20
-9660.075262263555
 30
0.0
 11
-19043.80849495318
 21
-9659.865378263555
 31
0.0
  0
LINE
  5
1962E
330
1E
100
AcDbEntity
  8
本体
  6
Continuous
 62
     2
100
AcDbLine
 10
-19043.33708495317
 20
-9660.075262263555
 30
0.0
 11
-19043.12720095317
 21
-9660.546672263556
 31
0.0
  0
LINE
  5
1962F
330
1E
100
AcDbEntity
  8
本体
  6
Continuous
 62
     2
100
AcDbLine
 10
-19043.12720095317
 20
-9660.546672263556
 30
0.0
 11
-19043.11229695317
 21
-9661.400502263555
 31
0.0
  0
LINE
  5
19630
330
1E
100
AcDbEntity
  8
本体
  6
Continuous
 62
     2
100
AcDbLine
 10
-19043.80849495318
 20
-9658.835554263557
 30
0.0
 11
-19043.33708495317
 21
-9658.625668263557
 31
0.0
  0
LINE
  5
19631
330
1E
100
AcDbEntity
  8
本体
  6
Continuous
 62
     2
100
AcDbLine
 10
-19040.56225295317
 20
-9659.850474263556
 30
0.0
 11
-19040.56225295317
 21
-9658.850458263557
 31
0.0
  0
LINE
  5
19632
330
1E
100
AcDbEntity
  8
本体
  6
Continuous
 62
     2
100
AcDbLine
 10
-19042.11227895318
 20
-9657.300430263557
 30
0.0
 11
-19042.09737695317
 21
-9658.154260263557
 31
0.0
  0
LINE
  5
19633
330
1E
100
AcDbEntity
  8
本体
  6
Continuous
 62
     2
100
AcDbLine
 10
-19042.09737695317
 20
-9658.154260263557
 30
0.0
 11
-19041.88749095317
 21
-9658.625668263557
 31
0.0
  0
LINE
  5
19634
330
1E
100
AcDbEntity
  8
本体
  6
Continuous
 62
     2
100
AcDbLine
 10
-19041.41608295318
 20
-9659.865378263555
 30
0.0
 11
-19041.88749095317
 21
-9660.075262263555
 31
0.0
  0
LINE
  5
19635
330
1E
100
AcDbEntity
  8
本体
  6
Continuous
 62
     2
100
AcDbLine
 10
-19041.88749095317
 20
-9660.075262263555
 30
0.0
 11
-19042.09737695317
 21
-9660.546672263556
 31
0.0
  0
LINE
  5
19636
330
1E
100
AcDbEntity
  8
本体
  6
Continuous
 62
     2
100
AcDbLine
 10
-19042.09737695317
 20
-9660.546672263556
 30
0.0
 11
-19042.11227895318
 21
-9661.400502263555
 31
0.0
  0
LINE
  5
19637
330
1E
100
AcDbEntity
  8
本体
  6
Continuous
 62
     2
100
AcDbLine
 10
-19041.88749095317
 20
-9658.625668263557
 30
0.0
 11
-19041.41608295318
 21
-9658.835554263557
 31
0.0
  0
LINE
  5
19638
330
1E
100
AcDbEntity
  8
本体
  6
Continuous
 62
     2
100
AcDbLine
 10
-19041.41608295318
 20
-9658.835554263557
 30
0.0
 11
-19040.56225295317
 21
-9658.850458263557
 31
0.0
  0
LINE
  5
19639
330
1E
100
AcDbEntity
  8
本体
  6
Continuous
 62
     2
100
AcDbLine
 10
-19040.56225295317
 20
-9659.850474263556
 30
0.0
 11
-19041.41608295318
 21
-9659.865378263555
 31
0.0
  0
LINE
  5
1963C
330
1E
100
AcDbEntity
  8
本体
  6
Continuous
 62
     3
100
AcDbLine
 10
-19049.31240495318
 20
-9649.650296263555
 30
0.0
 11
-19040.91225895317
 21
-9649.650296263555
 31
0.0
  0
ARC
  5
1963D
330
1E
100
AcDbEntity
  8
本体
  6
Continuous
 62
     3
100
AcDbCircle
 10
-19049.61241095318
 20
-9650.350308263556
 30
0.0
 40
2.000036
100
AcDbArc
 50
90.0
 51
180.0
  0
ARC
  5
1963E
330
1E
100
AcDbEntity
  8
本体
  6
Continuous
 62
     3
100
AcDbCircle
 10
-19049.31240495318
 20
-9650.650314263556
 30
0.0
 40
1.000018
100
AcDbArc
 50
90.0
 51
180.0
  0
LINE
  5
1963F
330
1E
100
AcDbEntity
  8
本体
  6
Continuous
 62
     2
100
AcDbLine
 10
-19040.31224895318
 20
-9649.650296263555
 30
0.0
 11
-19038.41221495317
 21
-9649.650296263555
 31
0.0
  0
ARC
  5
19640
330
1E
100
AcDbEntity
  8
本体
  6
Continuous
 62
     2
100
AcDbCircle
 10
-19038.11220895317
 20
-9648.050268263556
 30
0.0
 40
4.200073999999999
100
AcDbArc
 50
230.6968690000497
 51
309.3093710000306
  0
ARC
  5
19641
330
1E
100
AcDbEntity
  8
本体
  6
Continuous
 62
     2
100
AcDbCircle
 10
-19039.31957895317
 20
-9649.517386263557
 30
0.0
 40
2.30004
100
AcDbArc
 50
183.3127429999607
 51
230.8204889999756
  0
LINE
  5
19642
330
1E
100
AcDbEntity
  8
本体
  6
Continuous
 62
     2
100
AcDbLine
 10
-19040.91225895317
 20
-9649.650296263555
 30
0.0
 11
-19040.31224895318
 21
-9649.650296263555
 31
0.0
  0
LINE
  5
19643
330
1E
100
AcDbEntity
  8
本体
  6
Continuous
 62
     2
100
AcDbLine
 10
-19040.91225895317
 20
-9649.650296263555
 30
0.0
 11
-19040.61225295317
 21
-9649.350290263555
 31
0.0
  0
LINE
  5
19644
330
1E
100
AcDbEntity
  8
本体
  6
Continuous
 62
     2
100
AcDbLine
 10
-19040.61225295317
 20
-9649.350290263555
 30
0.0
 11
-19040.31224895318
 21
-9649.650296263555
 31
0.0
  0
LINE
  5
19645
330
1E
100
AcDbEntity
  8
本体
  6
Continuous
 62
     2
100
AcDbLine
 10
-19038.61221895318
 20
-9651.716052263555
 30
0.0
 11
-19037.61220095317
 21
-9651.716052263555
 31
0.0
  0
ARC
  5
19646
330
1E
100
AcDbEntity
  8
本体
  6
Continuous
 62
     2
100
AcDbCircle
 10
-19039.01222495317
 20
-9651.742216263556
 30
0.0
 40
0.400006
100
AcDbArc
 50
256.2997669999333
 51
0.0
  0
ARC
  5
19647
330
1E
100
AcDbEntity
  8
本体
  6
Continuous
 62
     2
100
AcDbCircle
 10
-19037.21219295317
 20
-9651.742216263556
 30
0.0
 40
0.400006
100
AcDbArc
 50
180.0
 51
283.7002330000667
  0
LINE
  5
19648
330
1E
100
AcDbEntity
  8
本体
  6
Continuous
 62
     2
100
AcDbLine
 10
-19038.41221495317
 20
-9649.650296263555
 30
0.0
 11
-19037.81220495318
 21
-9649.650296263555
 31
0.0
  0
LINE
  5
19649
330
1E
100
AcDbEntity
  8
本体
  6
Continuous
 62
     2
100
AcDbLine
 10
-19038.41221495317
 20
-9649.650296263555
 30
0.0
 11
-19038.11220895317
 21
-9649.350290263555
 31
0.0
  0
LINE
  5
1964A
330
1E
100
AcDbEntity
  8
本体
  6
Continuous
 62
     2
100
AcDbLine
 10
-19038.11220895317
 20
-9649.350290263555
 30
0.0
 11
-19037.81220495318
 21
-9649.650296263555
 31
0.0
  0
ARC
  5
1964B
330
1E
100
AcDbEntity
  8
本体
  6
Continuous
 62
     2
100
AcDbCircle
 10
-19036.90851695317
 20
-9649.520388263557
 30
0.0
 40
2.30004
100
AcDbArc
 50
309.3091239999832
 51
356.7621630000051
  0
LINE
  5
19651
330
1E
100
AcDbEntity
  8
本体
  6
Continuous
 62
     3
100
AcDbLine
 10
-19041.61227095318
 20
-9462.414726263556
 30
0.0
 11
-19041.61227095318
 21
-9540.231180263557
 31
0.0
  0
LINE
  5
19652
330
1E
100
AcDbEntity
  8
本体
  6
Continuous
 62
     3
100
AcDbLine
 10
-19056.61253295317
 20
-9462.414726263556
 30
0.0
 11
-19056.61253295317
 21
-9540.231180263557
 31
0.0
  0
LINE
  5
19669
330
1E
100
AcDbEntity
  8
本体
  6
Continuous
 62
     3
100
AcDbLine
 10
-19049.11240295317
 20
-9459.614676263557
 30
0.0
 11
-19047.11236695318
 21
-9459.614676263557
 31
0.0
  0
LINE
  5
1966A
330
1E
100
AcDbEntity
  8
本体
  6
Continuous
 62
     2
100
AcDbLine
 10
-19049.11240295317
 20
-9462.414726263556
 30
0.0
 11
-19045.61234095318
 21
-9462.414726263556
 31
0.0
  0
LINE
  5
1966B
330
1E
100
AcDbEntity
  8
本体
  6
Continuous
 62
     2
100
AcDbLine
 10
-19056.61253295317
 20
-9463.414744263557
 30
0.0
 11
-19041.61227095318
 21
-9463.414744263557
 31
0.0
  0
ARC
  5
1966D
330
1E
100
AcDbEntity
  8
笠木
  6
Continuous
 62
     3
100
AcDbCircle
 10
-19053.96248695318
 20
-9447.764470263555
 30
0.0
 40
0.6500120000000001
100
AcDbArc
 50
270.0
 51
90.0
  0
LINE
  5
1966E
330
1E
100
AcDbEntity
  8
笠木
  6
Continuous
 62
     3
100
AcDbLine
 10
-19061.61262095317
 20
-9431.446450263557
 30
0.0
 11
-19061.61262095317
 21
-9467.914822263557
 31
0.0
  0
LINE
  5
1966F
330
1E
100
AcDbEntity
  8
本体
  6
Continuous
 62
     3
100
AcDbLine
 10
-19057.21254295317
 20
-9448.414480263556
 30
0.0
 11
-19055.79816095317
 21
-9448.414480263556
 31
0.0
  0
LINE
  5
19670
330
1E
100
AcDbEntity
  8
本体
  6
Continuous
 62
     3
100
AcDbLine
 10
-19057.11254295317
 20
-9455.614606263557
 30
0.0
 11
-19055.76251895317
 21
-9455.614606263557
 31
0.0
  0
LINE
  5
19671
330
1E
100
AcDbEntity
  8
本体
  6
Continuous
 62
     3
100
AcDbLine
 10
-19055.76251895317
 20
-9456.914630263556
 30
0.0
 11
-19057.11254295317
 21
-9456.914630263556
 31
0.0
  0
LINE
  5
19672
330
1E
100
AcDbEntity
  8
本体
  6
Continuous
 62
     3
100
AcDbLine
 10
-19057.11254295317
 20
-9460.914700263556
 30
0.0
 11
-19052.11245495318
 21
-9460.914700263556
 31
0.0
  0
LINE
  5
19673
330
1E
100
AcDbEntity
  8
本体
  6
Continuous
 62
     3
100
AcDbLine
 10
-19057.11254295317
 20
-9462.414726263556
 30
0.0
 11
-19050.11241895318
 21
-9462.414726263556
 31
0.0
  0
LINE
  5
19674
330
1E
100
AcDbEntity
  8
本体
  6
Continuous
 62
     3
100
AcDbLine
 10
-19055.79816095317
 20
-9448.414480263556
 30
0.0
 11
-19057.94235895317
 21
-9453.417608263556
 31
0.0
  0
LINE
  5
19675
330
1E
100
AcDbEntity
  8
笠木
  6
Continuous
 62
     3
100
AcDbLine
 10
-19059.81258895318
 20
-9448.414480263556
 30
0.0
 11
-19053.96248695318
 21
-9448.414480263556
 31
0.0
  0
LINE
  5
19676
330
1E
100
AcDbEntity
  8
本体
  6
Continuous
 62
     3
100
AcDbLine
 10
-19057.11254295317
 20
-9456.914630263556
 30
0.0
 11
-19057.11254295317
 21
-9460.914700263556
 31
0.0
  0
LINE
  5
19677
330
1E
100
AcDbEntity
  8
本体
  6
Continuous
 62
     3
100
AcDbLine
 10
-19058.41256495318
 20
-9467.764820263555
 30
0.0
 11
-19058.41256495318
 21
-9455.414604263557
 31
0.0
  0
LINE
  5
19678
330
1E
100
AcDbEntity
  8
笠木
  6
Continuous
 62
     3
100
AcDbLine
 10
-19060.31259895318
 20
-9467.114808263556
 30
0.0
 11
-19060.31259895318
 21
-9458.414656263556
 31
0.0
  0
LINE
  5
19679
330
1E
100
AcDbEntity
  8
笠木
  6
Continuous
 62
     3
100
AcDbLine
 10
-19061.11261295317
 20
-9468.414830263554
 30
0.0
 11
-19059.11257695317
 21
-9468.414830263554
 31
0.0
  0
ARC
  5
1967A
330
1E
100
AcDbEntity
  8
笠木
  6
Continuous
 62
     3
100
AcDbCircle
 10
-19061.11261295317
 20
-9467.914822263557
 30
0.0
 40
0.5000080000000001
100
AcDbArc
 50
180.0
 51
270.0
  0
LINE
  5
1967B
330
1E
100
AcDbEntity
  8
本体
  6
Continuous
 62
     3
100
AcDbLine
 10
-19057.11254295317
 20
-9467.764820263555
 30
0.0
 11
-19057.11254295317
 21
-9462.414726263556
 31
0.0
  0
LINE
  5
1967C
330
1E
100
AcDbEntity
  8
笠木
  6
Continuous
 62
     3
100
AcDbLine
 10
-19059.11257695317
 20
-9468.414830263554
 30
0.0
 11
-19059.11257695317
 21
-9467.114808263556
 31
0.0
  0
LINE
  5
1967D
330
1E
100
AcDbEntity
  8
笠木
  6
Continuous
 62
     3
100
AcDbLine
 10
-19059.11257695317
 20
-9467.114808263556
 30
0.0
 11
-19060.31259895318
 21
-9467.114808263556
 31
0.0
  0
ARC
  5
1967E
330
1E
100
AcDbEntity
  8
本体
  6
Continuous
 62
     3
100
AcDbCircle
 10
-19057.76255295317
 20
-9467.764820263555
 30
0.0
 40
0.6500120000000001
100
AcDbArc
 50
180.0
 51
0.0
  0
LINE
  5
1967F
330
1E
100
AcDbEntity
  8
笠木
  6
Continuous
 62
     3
100
AcDbLine
 10
-19060.31259895318
 20
-9455.414604263557
 30
0.0
 11
-19060.31259895318
 21
-9448.914490263556
 31
0.0
  0
LINE
  5
19680
330
1E
100
AcDbEntity
  8
本体
  6
Continuous
 62
     3
100
AcDbLine
 10
-19059.91389495317
 20
-9454.717632263555
 30
0.0
 11
-19057.21254295317
 21
-9448.414480263556
 31
0.0
  0
ARC
  5
19681
330
1E
100
AcDbEntity
  8
本体
  6
Continuous
 62
     3
100
AcDbCircle
 10
-19057.48277895318
 20
-9453.614572263555
 30
0.0
 40
0.5000080000000001
100
AcDbArc
 50
156.8014089999662
 51
270.0
  0
LINE
  5
19682
330
1E
100
AcDbEntity
  8
本体
  6
Continuous
 62
     3
100
AcDbLine
 10
-19058.41256495318
 20
-9455.414604263557
 30
0.0
 11
-19059.45431295318
 21
-9455.414604263557
 31
0.0
  0
LINE
  5
19683
330
1E
100
AcDbEntity
  8
笠木
  6
Continuous
 62
     3
100
AcDbLine
 10
-19060.31259895318
 20
-9458.414656263556
 30
0.0
 11
-19058.51256695317
 21
-9455.414604263557
 31
0.0
  0
LINE
  5
19684
330
1E
100
AcDbEntity
  8
笠木
  6
Continuous
 62
     3
100
AcDbLine
 10
-19058.51256695317
 20
-9455.414604263557
 30
0.0
 11
-19060.31259895318
 21
-9455.414604263557
 31
0.0
  0
ARC
  5
19685
330
1E
100
AcDbEntity
  8
本体
  6
Continuous
 62
     3
100
AcDbCircle
 10
-19059.45431295318
 20
-9454.914594263554
 30
0.0
 40
0.5000080000000001
100
AcDbArc
 50
156.8014089999662
 51
270.0
  0
LINE
  5
19686
330
1E
100
AcDbEntity
  8
本体
  6
Continuous
 62
     3
100
AcDbLine
 10
-19057.48277895318
 20
-9454.114580263556
 30
0.0
 11
-19057.11254295317
 21
-9454.114580263556
 31
0.0
  0
LINE
  5
19687
330
1E
100
AcDbEntity
  8
本体
  6
Continuous
 62
     3
100
AcDbLine
 10
-19057.11254295317
 20
-9454.114580263556
 30
0.0
 11
-19057.11254295317
 21
-9455.614606263557
 31
0.0
  0
ARC
  5
19688
330
1E
100
AcDbEntity
  8
笠木
  6
Continuous
 62
     3
100
AcDbCircle
 10
-19059.81258895318
 20
-9448.914490263556
 30
0.0
 40
0.5000080000000001
100
AcDbArc
 50
90.0
 51
180.0
  0
LINE
  5
19689
330
1E
100
AcDbEntity
  8
本体
  6
Continuous
 62
     3
100
AcDbLine
 10
-19052.11245495318
 20
-9459.614676263557
 30
0.0
 11
-19050.11241895318
 21
-9459.614676263557
 31
0.0
  0
LINE
  5
1968A
330
1E
100
AcDbEntity
  8
本体
  6
Continuous
 62
     3
100
AcDbLine
 10
-19052.11245495318
 20
-9460.914700263556
 30
0.0
 11
-19052.11245495318
 21
-9459.614676263557
 31
0.0
  0
LINE
  5
1968B
330
1E
100
AcDbEntity
  8
本体
  6
Continuous
 62
     3
100
AcDbLine
 10
-19050.11241895318
 20
-9459.614676263557
 30
0.0
 11
-19049.61241095318
 21
-9460.114686263557
 31
0.0
  0
LINE
  5
1968C
330
1E
100
AcDbEntity
  8
本体
  6
Continuous
 62
     3
100
AcDbLine
 10
-19049.61241095318
 20
-9460.114686263557
 30
0.0
 11
-19049.11240295317
 21
-9459.614676263557
 31
0.0
  0
LINE
  5
1968D
330
1E
100
AcDbEntity
  8
本体
  6
Continuous
 62
     3
100
AcDbLine
 10
-19050.11241895318
 20
-9462.414726263556
 30
0.0
 11
-19049.61241095318
 21
-9461.914718263555
 31
0.0
  0
LINE
  5
1968E
330
1E
100
AcDbEntity
  8
本体
  6
Continuous
 62
     2
100
AcDbLine
 10
-19050.11241895318
 20
-9462.414726263556
 30
0.0
 11
-19049.11240295317
 21
-9462.414726263556
 31
0.0
  0
LINE
  5
1968F
330
1E
100
AcDbEntity
  8
本体
  6
Continuous
 62
     3
100
AcDbLine
 10
-19049.61241095318
 20
-9461.914718263555
 30
0.0
 11
-19049.11240295317
 21
-9462.414726263556
 31
0.0
  0
ARC
  5
19690
330
1E
100
AcDbEntity
  8
本体
  6
Continuous
 62
     3
100
AcDbCircle
 10
-19055.76251895317
 20
-9456.264618263556
 30
0.0
 40
0.6500120000000001
100
AcDbArc
 50
270.0
 51
90.0
  0
LINE
  5
19691
330
1E
100
AcDbEntity
  8
笠木
  6
Continuous
 62
     3
100
AcDbLine
 10
-19059.81258895318
 20
-9447.114458263556
 30
0.0
 11
-19053.96248695318
 21
-9447.114458263556
 31
0.0
  0
LINE
  5
19692
330
1E
100
AcDbEntity
  8
笠木
  6
Continuous
 62
     3
100
AcDbLine
 10
-19060.31259895318
 20
-9432.291372263556
 30
0.0
 11
-19060.31259895318
 21
-9446.614450263556
 31
0.0
  0
ARC
  5
19693
330
1E
100
AcDbEntity
  8
笠木
  6
Continuous
 62
     3
100
AcDbCircle
 10
-19059.81258895318
 20
-9446.614450263556
 30
0.0
 40
0.5000080000000001
100
AcDbArc
 50
180.0
 51
270.0
  0
ARC
  5
19694
330
1E
100
AcDbEntity
  8
笠木
  6
Continuous
 62
     3
100
AcDbCircle
 10
-19059.61258495317
 20
-9431.446450263557
 30
0.0
 40
2.000036
100
AcDbArc
 50
114.3157389999983
 51
180.0
  0
ARC
  5
19695
330
1E
100
AcDbEntity
  8
笠木
  6
Continuous
 62
     3
100
AcDbCircle
 10
-19058.31256295317
 20
-9432.291372263556
 30
0.0
 40
2.000036
100
AcDbArc
 50
113.5969249999286
 51
180.0
  0
LINE
  5
19696
330
1E
100
AcDbEntity
  8
本体
  6
Continuous
 62
     2
100
AcDbLine
 10
-19040.61225295317
 20
-9460.114686263557
 30
0.0
 11
-19040.11224495317
 21
-9459.614676263557
 31
0.0
  0
ARC
  5
19697
330
1E
100
AcDbEntity
  8
本体
  6
Continuous
 62
     2
100
AcDbCircle
 10
-19042.61228895317
 20
-9461.214704263555
 30
0.0
 40
4.200073999999999
100
AcDbArc
 50
50.69062899996942
 51
129.3031309999503
  0
ARC
  5
19698
330
1E
100
AcDbEntity
  8
本体
  6
Continuous
 62
     2
100
AcDbCircle
 10
-19043.81965695317
 20
-9459.747588263555
 30
0.0
 40
2.30004
100
AcDbArc
 50
129.1795110000243
 51
176.6872570000393
  0
LINE
  5
19699
330
1E
100
AcDbEntity
  8
本体
  6
Continuous
 62
     2
100
AcDbLine
 10
-19045.61234095318
 20
-9459.614676263557
 30
0.0
 11
-19043.11229695317
 21
-9459.614676263557
 31
0.0
  0
LINE
  5
1969A
330
1E
100
AcDbEntity
  8
本体
  6
Continuous
 62
     2
100
AcDbLine
 10
-19045.61234095318
 20
-9462.414726263556
 30
0.0
 11
-19041.61227095318
 21
-9462.414726263556
 31
0.0
  0
LINE
  5
1969B
330
1E
100
AcDbEntity
  8
本体
  6
Continuous
 62
     3
100
AcDbLine
 10
-19047.11236695318
 20
-9460.914700263556
 30
0.0
 11
-19045.61234095318
 21
-9460.914700263556
 31
0.0
  0
LINE
  5
1969C
330
1E
100
AcDbEntity
  8
本体
  6
Continuous
 62
     3
100
AcDbLine
 10
-19047.11236695318
 20
-9459.614676263557
 30
0.0
 11
-19047.11236695318
 21
-9460.914700263556
 31
0.0
  0
LINE
  5
1969D
330
1E
100
AcDbEntity
  8
本体
  6
Continuous
 62
     2
100
AcDbLine
 10
-19046.11585295317
 20
-9459.614676263557
 30
0.0
 11
-19045.61234095318
 21
-9459.614676263557
 31
0.0
  0
LINE
  5
1969E
330
1E
100
AcDbEntity
  8
本体
  6
Continuous
 62
     3
100
AcDbLine
 10
-19045.61234095318
 20
-9460.914700263556
 30
0.0
 11
-19045.61234095318
 21
-9459.614676263557
 31
0.0
  0
LINE
  5
1969F
330
1E
100
AcDbEntity
  8
本体
  6
Continuous
 62
     2
100
AcDbLine
 10
-19043.11229695317
 20
-9459.614676263557
 30
0.0
 11
-19042.11227895318
 21
-9459.614676263557
 31
0.0
  0
LINE
  5
196A0
330
1E
100
AcDbEntity
  8
本体
  6
Continuous
 62
     2
100
AcDbLine
 10
-19042.61228895317
 20
-9460.114686263557
 30
0.0
 11
-19042.11227895318
 21
-9459.614676263557
 31
0.0
  0
LINE
  5
196A1
330
1E
100
AcDbEntity
  8
本体
  6
Continuous
 62
     2
100
AcDbLine
 10
-19043.11229695317
 20
-9459.614676263557
 30
0.0
 11
-19042.61228895317
 21
-9460.114686263557
 31
0.0
  0
LINE
  5
196A2
330
1E
100
AcDbEntity
  8
本体
  6
Continuous
 62
     2
100
AcDbLine
 10
-19041.11226295317
 20
-9459.614676263557
 30
0.0
 11
-19040.61225295317
 21
-9460.114686263557
 31
0.0
  0
LINE
  5
196A3
330
1E
100
AcDbEntity
  8
本体
  6
Continuous
 62
     3
100
AcDbLine
 10
-19041.61227095318
 20
-9462.414726263556
 30
0.0
 11
-19041.61227095318
 21
-9461.414708263555
 31
0.0
  0
LINE
  5
196A4
330
1E
100
AcDbEntity
  8
本体
  6
Continuous
 62
     3
100
AcDbLine
 10
-19041.61227095318
 20
-9462.414726263556
 30
0.0
 11
-19041.61227095318
 21
-9461.414708263555
 31
0.0
  0
LINE
  5
196A5
330
1E
100
AcDbEntity
  8
本体
  6
Continuous
 62
     2
100
AcDbLine
 10
-19042.11227895318
 20
-9459.614676263557
 30
0.0
 11
-19041.11226295317
 21
-9459.614676263557
 31
0.0
  0
LINE
  5
196A6
330
1E
100
AcDbEntity
  8
本体
  6
Continuous
 62
     2
100
AcDbLine
 10
-19043.11229695317
 20
-9457.548920263556
 30
0.0
 11
-19042.11227895318
 21
-9457.548920263556
 31
0.0
  0
ARC
  5
196A7
330
1E
100
AcDbEntity
  8
本体
  6
Continuous
 62
     2
100
AcDbCircle
 10
-19043.51230495317
 20
-9457.522756263555
 30
0.0
 40
0.400006
100
AcDbArc
 50
0.0
 51
103.7002330000667
  0
ARC
  5
196A8
330
1E
100
AcDbEntity
  8
本体
  6
Continuous
 62
     2
100
AcDbCircle
 10
-19041.71227295318
 20
-9457.522756263555
 30
0.0
 40
0.400006
100
AcDbArc
 50
76.29976699993331
 51
180.0
  0
ARC
  5
196A9
330
1E
100
AcDbEntity
  8
本体
  6
Continuous
 62
     2
100
AcDbCircle
 10
-19041.40859495317
 20
-9459.744586263557
 30
0.0
 40
2.30004
100
AcDbArc
 50
3.237836999994869
 51
50.69087600001684
  0
LINE
  5
196AA
330
1E
100
AcDbEntity
  8
本体
  6
Continuous
 62
     3
100
AcDbLine
 10
-19037.61220095317
 20
-9459.614676263557
 30
0.0
 11
-19032.11210495317
 21
-9459.614676263557
 31
0.0
  0
LINE
  5
196AB
330
1E
100
AcDbEntity
  8
本体
  6
Continuous
 62
     2
100
AcDbLine
 10
-19038.61221895318
 20
-9459.614676263557
 30
0.0
 11
-19038.11220895317
 21
-9460.114686263557
 31
0.0
  0
LINE
  5
196AC
330
1E
100
AcDbEntity
  8
本体
  6
Continuous
 62
     2
100
AcDbLine
 10
-19040.11224495317
 20
-9459.614676263557
 30
0.0
 11
-19038.61221895318
 21
-9459.614676263557
 31
0.0
  0
LINE
  5
196AD
330
1E
100
AcDbEntity
  8
本体
  6
Continuous
 62
     3
100
AcDbLine
 10
-19038.11220895317
 20
-9460.114686263557
 30
0.0
 11
-19037.61220095317
 21
-9459.614676263557
 31
0.0
  0
LINE
  5
196B0
330
1E
100
AcDbEntity
  8
本体
  6
Continuous
 62
     3
100
AcDbLine
 10
-19006.61165895318
 20
-9692.351044263556
 30
0.0
 11
-19006.61165895318
 21
-9546.231284263557
 31
0.0
  0
LINE
  5
196B2
330
1E
100
AcDbEntity
  8
本体
  6
Continuous
 62
     3
100
AcDbLine
 10
-19021.61192095317
 20
-9648.350274263556
 30
0.0
 11
-19021.61192095317
 21
-9546.231284263557
 31
0.0
  0
LINE
  5
196B3
330
1E
100
AcDbEntity
  8
本体
  6
PLINE3
 62
     2
100
AcDbLine
 10
-19031.61209495317
 20
-9798.724694263556
 30
0.0
 11
-19031.61209495317
 21
-9407.493362263556
 31
0.0
  0
CIRCLE
  5
196B6
330
1E
100
AcDbEntity
  8
躯体
  6
Continuous
 62
     2
100
AcDbCircle
 10
-18972.62655895317
 20
-9749.505780263557
 30
0.0
 40
0.420008
  0
LINE
  5
196B7
330
1E
100
AcDbEntity
  8
本体
  6
Continuous
 62
     3
100
AcDbLine
 10
-19006.61165895318
 20
-9783.221168263557
 30
0.0
 11
-19006.61165895318
 21
-9698.351148263556
 31
0.0
  0
LINE
  5
196B8
330
1E
100
AcDbEntity
  8
躯体
  6
Continuous
 62
     3
100
AcDbLine
 10
-18946.61060895317
 20
-9893.363578263556
 30
0.0
 11
-18946.61060895317
 21
-9740.684296263557
 31
0.0
  0
LINE
  5
196BA
330
1E
100
AcDbEntity
  8
躯体
  6
Continuous
 62
     2
100
AcDbLine
 10
-18964.24668495318
 20
-9788.102562263555
 30
0.0
 11
-19025.04371295317
 21
-9848.899590263556
 31
0.0
  0
LINE
  5
196BB
330
1E
100
AcDbEntity
  8
躯体
  6
Continuous
 62
     2
100
AcDbLine
 10
-18960.00397095318
 20
-9788.102562263555
 30
0.0
 11
-19021.73086895317
 21
-9849.829460263556
 31
0.0
  0
ARC
  5
196BC
330
1E
100
AcDbEntity
  8
本体
  6
Continuous
 62
     2
100
AcDbCircle
 10
-18989.64334295317
 20
-9837.391142263555
 30
0.0
 40
5.096642
100
AcDbArc
 50
243.5736670001025
 51
323.5736439999988
  0
ARC
  5
196BD
330
1E
100
AcDbEntity
  8
本体
  6
Continuous
 62
     2
100
AcDbCircle
 10
-18994.17983095317
 20
-9846.519302263557
 30
0.0
 40
5.096642
100
AcDbArc
 50
63.5736670001025
 51
143.5736439999987
  0
LINE
  5
196BE
330
1E
100
AcDbEntity
  8
本体
  6
Continuous
 62
     3
100
AcDbLine
 10
-18976.64707295317
 20
-9877.260788263557
 30
0.0
 11
-18985.54247895317
 21
-9840.417472263556
 31
0.0
  0
LINE
  5
196BF
330
1E
100
AcDbEntity
  8
本体
  6
Continuous
 62
     3
100
AcDbLine
 10
-19025.04371295317
 20
-9848.821442263556
 30
0.0
 11
-19025.04371295317
 21
-9793.142650263554
 31
0.0
  0
LINE
  5
196C0
330
1E
100
AcDbEntity
  8
躯体
  6
Continuous
 62
     2
100
AcDbLine
 10
-18968.48940095317
 20
-9788.102562263555
 30
0.0
 11
-19025.04371295317
 21
-9844.656874263556
 31
0.0
  0
ARC
  5
196C1
330
1E
100
AcDbEntity
  8
本体
  6
Continuous
 62
     2
100
AcDbCircle
 10
-18997.99457095317
 20
-9849.033048263557
 30
0.0
 40
3.581031999999999
100
AcDbArc
 50
81.71810000007123
 51
192.8498820000075
  0
LINE
  5
196C2
330
1E
100
AcDbEntity
  8
本体
  6
Continuous
 62
     3
100
AcDbLine
 10
-19024.03569695317
 20
-9849.829460263556
 30
0.0
 11
-18997.08375295317
 21
-9849.829460263556
 31
0.0
  0
LINE
  5
196C3
330
1E
100
AcDbEntity
  8
本体
  6
Continuous
 62
     3
100
AcDbLine
 10
-19024.03569695317
 20
-9861.925672263557
 30
0.0
 11
-18997.08375295317
 21
-9861.925672263557
 31
0.0
  0
ARC
  5
196C4
330
1E
100
AcDbEntity
  8
本体
  6
Continuous
 62
     3
100
AcDbCircle
 10
-19024.03569695317
 20
-9848.821442263556
 30
0.0
 40
1.008018
100
AcDbArc
 50
180.0
 51
270.0
  0
LINE
  5
196C5
330
1E
100
AcDbEntity
  8
本体
  6
Continuous
 62
     3
100
AcDbLine
 10
-18990.12783295318
 20
-9877.260788263557
 30
0.0
 11
-18998.28069495318
 21
-9843.492972263556
 31
0.0
  0
ARC
  5
196C6
330
1E
100
AcDbEntity
  8
本体
  6
Continuous
 62
     2
100
AcDbCircle
 10
-19000.10780695317
 20
-9852.853512263557
 30
0.0
 40
4.276656
100
AcDbArc
 50
314.9999999999263
 51
45.00000000007369
  0
ARC
  5
196C7
330
1E
100
AcDbEntity
  8
本体
  6
Continuous
 62
     2
100
AcDbCircle
 10
-18994.05970095317
 20
-9858.901618263555
 30
0.0
 40
4.276656
100
AcDbArc
 50
134.9999999999263
 51
225.0000000000737
  0
ARC
  5
196C8
330
1E
100
AcDbEntity
  8
本体
  6
Continuous
 62
     2
100
AcDbCircle
 10
-19000.10780695317
 20
-9858.901618263555
 30
0.0
 40
4.276656
100
AcDbArc
 50
314.9999999999263
 51
45.00000000007369
  0
ARC
  5
196C9
330
1E
100
AcDbEntity
  8
本体
  6
Continuous
 62
     2
100
AcDbCircle
 10
-19025.15313695317
 20
-9793.490334263555
 30
0.0
 40
4.890827999999999
100
AcDbArc
 50
271.8726660000558
 51
4.076535999957323
  0
POLYLINE
  5
196CA
330
1E
100
AcDbEntity
  8
本体
  6
Continuous
 62
     2
100
AcDb2dPolyline
 66
     1
 10
0.0
 20
0.0
 30
0.0
 70
     4
 75
     6
  0
VERTEX
  5
196CB
330
196CA
100
AcDbEntity
  8
本体
  6
Continuous
 62
     2
100
AcDbVertex
100
AcDb2dVertex
 10
-19017.34773295317
 20
-9788.102562263555
 30
0.0
 70
    16
  0
VERTEX
  5
196CC
330
196CA
100
AcDbEntity
  8
本体
  6
Continuous
 62
     2
100
AcDbVertex
100
AcDb2dVertex
 10
-19017.34773295317
 20
-9788.102562263555
 30
0.0
 70
     8
  0
VERTEX
  5
196CD
330
196CA
100
AcDbEntity
  8
本体
  6
Continuous
 62
     2
100
AcDbVertex
100
AcDb2dVertex
 10
-19016.54544895317
 20
-9786.803502263557
 30
0.0
 70
     8
  0
VERTEX
  5
196CE
330
196CA
100
AcDbEntity
  8
本体
  6
Continuous
 62
     2
100
AcDbVertex
100
AcDb2dVertex
 10
-19014.97173895317
 20
-9786.235862263557
 30
0.0
 70
     8
  0
VERTEX
  5
196CF
330
196CA
100
AcDbEntity
  8
本体
  6
Continuous
 62
     2
100
AcDbVertex
100
AcDb2dVertex
 10
-19013.70659695317
 20
-9786.896074263555
 30
0.0
 70
     8
  0
VERTEX
  5
196D0
330
196CA
100
AcDbEntity
  8
本体
  6
Continuous
 62
     2
100
AcDbVertex
100
AcDb2dVertex
 10
-19016.54544895317
 20
-9786.803502263557
 30
0.0
 70
    16
  0
VERTEX
  5
196D1
330
196CA
100
AcDbEntity
  8
本体
  6
Continuous
 62
     2
100
AcDbVertex
100
AcDb2dVertex
 10
-19014.97173895317
 20
-9786.235862263557
 30
0.0
 70
    16
  0
VERTEX
  5
196D2
330
196CA
100
AcDbEntity
  8
本体
  6
Continuous
 62
     2
100
AcDbVertex
100
AcDb2dVertex
 10
-19013.70659695317
 20
-9786.896074263555
 30
0.0
 70
    16
  0
SEQEND
  5
196D3
330
196CA
100
AcDbEntity
  8
本体
 62
     2
  0
POLYLINE
  5
196D4
330
1E
100
AcDbEntity
  8
本体
  6
Continuous
 62
     2
100
AcDb2dPolyline
 66
     1
 10
0.0
 20
0.0
 30
0.0
 70
     4
 75
     6
  0
VERTEX
  5
196D5
330
196D4
100
AcDbEntity
  8
本体
  6
Continuous
 62
     2
100
AcDbVertex
100
AcDb2dVertex
 10
-19026.14200295317
 20
-9788.102562263555
 30
0.0
 70
    16
  0
VERTEX
  5
196D6
330
196D4
100
AcDbEntity
  8
本体
  6
Continuous
 62
     2
100
AcDbVertex
100
AcDb2dVertex
 10
-19026.14200295317
 20
-9788.102562263555
 30
0.0
 70
     8
  0
VERTEX
  5
196D7
330
196D4
100
AcDbEntity
  8
本体
  6
Continuous
 62
     2
100
AcDbVertex
100
AcDb2dVertex
 10
-19025.30886095318
 20
-9786.988646263555
 30
0.0
 70
     8
  0
VERTEX
  5
196D8
330
196D4
100
AcDbEntity
  8
本体
  6
Continuous
 62
     2
100
AcDbVertex
100
AcDb2dVertex
 10
-19023.79686495318
 20
-9786.235862263557
 30
0.0
 70
     8
  0
VERTEX
  5
196D9
330
196D4
100
AcDbEntity
  8
本体
  6
Continuous
 62
     2
100
AcDbVertex
100
AcDb2dVertex
 10
-19022.43915295317
 20
-9787.050360263556
 30
0.0
 70
     8
  0
VERTEX
  5
196DA
330
196D4
100
AcDbEntity
  8
本体
  6
Continuous
 62
     2
100
AcDbVertex
100
AcDb2dVertex
 10
-19025.30886095318
 20
-9786.988646263555
 30
0.0
 70
    16
  0
VERTEX
  5
196DB
330
196D4
100
AcDbEntity
  8
本体
  6
Continuous
 62
     2
100
AcDbVertex
100
AcDb2dVertex
 10
-19023.79686495318
 20
-9786.235862263557
 30
0.0
 70
    16
  0
VERTEX
  5
196DC
330
196D4
100
AcDbEntity
  8
本体
  6
Continuous
 62
     2
100
AcDbVertex
100
AcDb2dVertex
 10
-19022.43915295317
 20
-9787.050360263556
 30
0.0
 70
    16
  0
SEQEND
  5
196DD
330
196D4
100
AcDbEntity
  8
本体
 62
     2
  0
POLYLINE
  5
196DE
330
1E
100
AcDbEntity
  8
本体
  6
Continuous
 62
     2
100
AcDb2dPolyline
 66
     1
 10
0.0
 20
0.0
 30
0.0
 70
     4
 75
     6
  0
VERTEX
  5
196DF
330
196DE
100
AcDbEntity
  8
本体
  6
Continuous
 62
     2
100
AcDbVertex
100
AcDb2dVertex
 10
-19031.14635295317
 20
-9788.102562263555
 30
0.0
 70
    16
  0
VERTEX
  5
196E0
330
196DE
100
AcDbEntity
  8
本体
  6
Continuous
 62
     2
100
AcDbVertex
100
AcDb2dVertex
 10
-19031.14635295317
 20
-9788.102562263555
 30
0.0
 70
     8
  0
VERTEX
  5
196E1
330
196DE
100
AcDbEntity
  8
本体
  6
Continuous
 62
     2
100
AcDbVertex
100
AcDb2dVertex
 10
-19030.67880095317
 20
-9786.891742263556
 30
0.0
 70
     8
  0
VERTEX
  5
196E2
330
196DE
100
AcDbEntity
  8
本体
  6
Continuous
 62
     2
100
AcDbVertex
100
AcDb2dVertex
 10
-19029.31511095317
 20
-9786.235862263557
 30
0.0
 70
     8
  0
VERTEX
  5
196E3
330
196DE
100
AcDbEntity
  8
本体
  6
Continuous
 62
     2
100
AcDbVertex
100
AcDb2dVertex
 10
-19027.79556695318
 20
-9786.852778263556
 30
0.0
 70
     8
  0
VERTEX
  5
196E4
330
196DE
100
AcDbEntity
  8
本体
  6
Continuous
 62
     2
100
AcDbVertex
100
AcDb2dVertex
 10
-19030.67880095317
 20
-9786.891742263556
 30
0.0
 70
    16
  0
VERTEX
  5
196E5
330
196DE
100
AcDbEntity
  8
本体
  6
Continuous
 62
     2
100
AcDbVertex
100
AcDb2dVertex
 10
-19029.31511095317
 20
-9786.235862263557
 30
0.0
 70
    16
  0
VERTEX
  5
196E6
330
196DE
100
AcDbEntity
  8
本体
  6
Continuous
 62
     2
100
AcDbVertex
100
AcDb2dVertex
 10
-19027.79556695318
 20
-9786.852778263556
 30
0.0
 70
    16
  0
SEQEND
  5
196E7
330
196DE
100
AcDbEntity
  8
本体
 62
     2
  0
POLYLINE
  5
196E8
330
1E
100
AcDbEntity
  8
本体
  6
Continuous
 62
     2
100
AcDb2dPolyline
 66
     1
 10
0.0
 20
0.0
 30
0.0
 70
     4
 75
     6
  0
VERTEX
  5
196E9
330
196E8
100
AcDbEntity
  8
本体
  6
Continuous
 62
     2
100
AcDbVertex
100
AcDb2dVertex
 10
-19028.69170895317
 20
-9788.102562263555
 30
0.0
 70
    16
  0
VERTEX
  5
196EA
330
196E8
100
AcDbEntity
  8
本体
  6
Continuous
 62
     2
100
AcDbVertex
100
AcDb2dVertex
 10
-19028.69170895317
 20
-9788.102562263555
 30
0.0
 70
     8
  0
VERTEX
  5
196EB
330
196E8
100
AcDbEntity
  8
本体
  6
Continuous
 62
     2
100
AcDbVertex
100
AcDb2dVertex
 10
-19027.75660495318
 20
-9786.774854263557
 30
0.0
 70
     8
  0
VERTEX
  5
196EC
330
196E8
100
AcDbEntity
  8
本体
  6
Continuous
 62
     2
100
AcDbVertex
100
AcDb2dVertex
 10
-19026.70461495318
 20
-9786.235862263557
 30
0.0
 70
     8
  0
VERTEX
  5
196ED
330
196E8
100
AcDbEntity
  8
本体
  6
Continuous
 62
     2
100
AcDbVertex
100
AcDb2dVertex
 10
-19025.34092295317
 20
-9787.086554263558
 30
0.0
 70
     8
  0
VERTEX
  5
196EE
330
196E8
100
AcDbEntity
  8
本体
  6
Continuous
 62
     2
100
AcDbVertex
100
AcDb2dVertex
 10
-19027.75660495318
 20
-9786.774854263557
 30
0.0
 70
    16
  0
VERTEX
  5
196EF
330
196E8
100
AcDbEntity
  8
本体
  6
Continuous
 62
     2
100
AcDbVertex
100
AcDb2dVertex
 10
-19026.70461495318
 20
-9786.235862263557
 30
0.0
 70
    16
  0
VERTEX
  5
196F0
330
196E8
100
AcDbEntity
  8
本体
  6
Continuous
 62
     2
100
AcDbVertex
100
AcDb2dVertex
 10
-19025.34092295317
 20
-9787.086554263558
 30
0.0
 70
    16
  0
SEQEND
  5
196F1
330
196E8
100
AcDbEntity
  8
本体
 62
     2
  0
POLYLINE
  5
196F2
330
1E
100
AcDbEntity
  8
本体
  6
Continuous
 62
     2
100
AcDb2dPolyline
 66
     1
 10
0.0
 20
0.0
 30
0.0
 70
     4
 75
     6
  0
VERTEX
  5
196F3
330
196F2
100
AcDbEntity
  8
本体
  6
Continuous
 62
     2
100
AcDbVertex
100
AcDb2dVertex
 10
-19023.45743695317
 20
-9788.102562263555
 30
0.0
 70
    16
  0
VERTEX
  5
196F4
330
196F2
100
AcDbEntity
  8
本体
  6
Continuous
 62
     2
100
AcDbVertex
100
AcDb2dVertex
 10
-19023.45743695317
 20
-9788.102562263555
 30
0.0
 70
     8
  0
VERTEX
  5
196F5
330
196F2
100
AcDbEntity
  8
本体
  6
Continuous
 62
     2
100
AcDbVertex
100
AcDb2dVertex
 10
-19022.31572495317
 20
-9786.834360263556
 30
0.0
 70
     8
  0
VERTEX
  5
196F6
330
196F2
100
AcDbEntity
  8
本体
  6
Continuous
 62
     2
100
AcDbVertex
100
AcDb2dVertex
 10
-19021.17401295317
 20
-9786.235862263557
 30
0.0
 70
     8
  0
VERTEX
  5
196F7
330
196F2
100
AcDbEntity
  8
本体
  6
Continuous
 62
     2
100
AcDbVertex
100
AcDb2dVertex
 10
-19019.75458695318
 20
-9786.896074263555
 30
0.0
 70
     8
  0
VERTEX
  5
196F8
330
196F2
100
AcDbEntity
  8
本体
  6
Continuous
 62
     2
100
AcDbVertex
100
AcDb2dVertex
 10
-19022.31572495317
 20
-9786.834360263556
 30
0.0
 70
    16
  0
VERTEX
  5
196F9
330
196F2
100
AcDbEntity
  8
本体
  6
Continuous
 62
     2
100
AcDbVertex
100
AcDb2dVertex
 10
-19021.17401295317
 20
-9786.235862263557
 30
0.0
 70
    16
  0
VERTEX
  5
196FA
330
196F2
100
AcDbEntity
  8
本体
  6
Continuous
 62
     2
100
AcDbVertex
100
AcDb2dVertex
 10
-19019.75458695318
 20
-9786.896074263555
 30
0.0
 70
    16
  0
SEQEND
  5
196FB
330
196F2
100
AcDbEntity
  8
本体
 62
     2
  0
POLYLINE
  5
196FC
330
1E
100
AcDbEntity
  8
本体
  6
Continuous
 62
     2
100
AcDb2dPolyline
 66
     1
 10
0.0
 20
0.0
 30
0.0
 70
     4
 75
     6
  0
VERTEX
  5
196FD
330
196FC
100
AcDbEntity
  8
本体
  6
Continuous
 62
     2
100
AcDbVertex
100
AcDb2dVertex
 10
-19020.46429895317
 20
-9788.102562263555
 30
0.0
 70
    16
  0
VERTEX
  5
196FE
330
196FC
100
AcDbEntity
  8
本体
  6
Continuous
 62
     2
100
AcDbVertex
100
AcDb2dVertex
 10
-19020.46429895317
 20
-9788.102562263555
 30
0.0
 70
     8
  0
VERTEX
  5
196FF
330
196FC
100
AcDbEntity
  8
本体
  6
Continuous
 62
     2
100
AcDbVertex
100
AcDb2dVertex
 10
-19019.78544295317
 20
-9786.834360263556
 30
0.0
 70
     8
  0
VERTEX
  5
19700
330
196FC
100
AcDbEntity
  8
本体
  6
Continuous
 62
     2
100
AcDbVertex
100
AcDb2dVertex
 10
-19017.99573295317
 20
-9786.235862263557
 30
0.0
 70
     8
  0
VERTEX
  5
19701
330
196FC
100
AcDbEntity
  8
本体
  6
Continuous
 62
     2
100
AcDbVertex
100
AcDb2dVertex
 10
-19016.69973495318
 20
-9786.988646263555
 30
0.0
 70
     8
  0
VERTEX
  5
19702
330
196FC
100
AcDbEntity
  8
本体
  6
Continuous
 62
     2
100
AcDbVertex
100
AcDb2dVertex
 10
-19019.78544295317
 20
-9786.834360263556
 30
0.0
 70
    16
  0
VERTEX
  5
19703
330
196FC
100
AcDbEntity
  8
本体
  6
Continuous
 62
     2
100
AcDbVertex
100
AcDb2dVertex
 10
-19017.99573295317
 20
-9786.235862263557
 30
0.0
 70
    16
  0
VERTEX
  5
19704
330
196FC
100
AcDbEntity
  8
本体
  6
Continuous
 62
     2
100
AcDbVertex
100
AcDb2dVertex
 10
-19016.69973495318
 20
-9786.988646263555
 30
0.0
 70
    16
  0
SEQEND
  5
19705
330
196FC
100
AcDbEntity
  8
本体
 62
     2
  0
LINE
  5
19706
330
1E
100
AcDbEntity
  8
本体
  6
Continuous
 62
     3
100
AcDbLine
 10
-19003.23962495318
 20
-9783.221168263557
 30
0.0
 11
-19003.23962495318
 21
-9771.338454263556
 31
0.0
  0
POLYLINE
  5
19707
330
1E
100
AcDbEntity
  8
本体
  6
Continuous
 62
     2
100
AcDb2dPolyline
 66
     1
 10
0.0
 20
0.0
 30
0.0
 70
     4
 75
     6
  0
VERTEX
  5
19708
330
19707
100
AcDbEntity
  8
本体
  6
Continuous
 62
     2
100
AcDbVertex
100
AcDb2dVertex
 10
-19009.23232095317
 20
-9788.102562263555
 30
0.0
 70
    16
  0
VERTEX
  5
19709
330
19707
100
AcDbEntity
  8
本体
  6
Continuous
 62
     2
100
AcDbVertex
100
AcDb2dVertex
 10
-19009.23232095317
 20
-9788.102562263555
 30
0.0
 70
     8
  0
VERTEX
  5
1970A
330
19707
100
AcDbEntity
  8
本体
  6
Continuous
 62
     2
100
AcDbVertex
100
AcDb2dVertex
 10
-19008.64603495318
 20
-9786.834360263556
 30
0.0
 70
     8
  0
VERTEX
  5
1970B
330
19707
100
AcDbEntity
  8
本体
  6
Continuous
 62
     2
100
AcDbVertex
100
AcDb2dVertex
 10
-19007.47027695318
 20
-9786.170502263557
 30
0.0
 70
     8
  0
VERTEX
  5
1970C
330
19707
100
AcDbEntity
  8
本体
  6
Continuous
 62
     2
100
AcDbVertex
100
AcDb2dVertex
 10
-19006.36261095318
 20
-9786.803502263557
 30
0.0
 70
     8
  0
VERTEX
  5
1970D
330
19707
100
AcDbEntity
  8
本体
  6
Continuous
 62
     2
100
AcDbVertex
100
AcDb2dVertex
 10
-19008.64603495318
 20
-9786.834360263556
 30
0.0
 70
    16
  0
VERTEX
  5
1970E
330
19707
100
AcDbEntity
  8
本体
  6
Continuous
 62
     2
100
AcDbVertex
100
AcDb2dVertex
 10
-19007.47027695318
 20
-9786.170502263557
 30
0.0
 70
    16
  0
VERTEX
  5
1970F
330
19707
100
AcDbEntity
  8
本体
  6
Continuous
 62
     2
100
AcDbVertex
100
AcDb2dVertex
 10
-19006.36261095318
 20
-9786.803502263557
 30
0.0
 70
    16
  0
SEQEND
  5
19710
330
19707
100
AcDbEntity
  8
本体
 62
     2
  0
POLYLINE
  5
19711
330
1E
100
AcDbEntity
  8
本体
  6
Continuous
 62
     2
100
AcDb2dPolyline
 66
     1
 10
0.0
 20
0.0
 30
0.0
 70
     4
 75
     6
  0
VERTEX
  5
19712
330
19711
100
AcDbEntity
  8
本体
  6
Continuous
 62
     2
100
AcDbVertex
100
AcDb2dVertex
 10
-19014.35459695317
 20
-9788.102562263555
 30
0.0
 70
    16
  0
VERTEX
  5
19713
330
19711
100
AcDbEntity
  8
本体
  6
Continuous
 62
     2
100
AcDbVertex
100
AcDb2dVertex
 10
-19014.35459695317
 20
-9788.102562263555
 30
0.0
 70
     8
  0
VERTEX
  5
19714
330
19711
100
AcDbEntity
  8
本体
  6
Continuous
 62
     2
100
AcDbVertex
100
AcDb2dVertex
 10
-19013.58316895318
 20
-9786.865216263556
 30
0.0
 70
     8
  0
VERTEX
  5
19715
330
19711
100
AcDbEntity
  8
本体
  6
Continuous
 62
     2
100
AcDbVertex
100
AcDb2dVertex
 10
-19012.00945695317
 20
-9786.235862263557
 30
0.0
 70
     8
  0
VERTEX
  5
19716
330
19711
100
AcDbEntity
  8
本体
  6
Continuous
 62
     2
100
AcDbVertex
100
AcDb2dVertex
 10
-19010.96031695318
 20
-9786.865216263556
 30
0.0
 70
     8
  0
VERTEX
  5
19717
330
19711
100
AcDbEntity
  8
本体
  6
Continuous
 62
     2
100
AcDbVertex
100
AcDb2dVertex
 10
-19013.58316895318
 20
-9786.865216263556
 30
0.0
 70
    16
  0
VERTEX
  5
19718
330
19711
100
AcDbEntity
  8
本体
  6
Continuous
 62
     2
100
AcDbVertex
100
AcDb2dVertex
 10
-19012.00945695317
 20
-9786.235862263557
 30
0.0
 70
    16
  0
VERTEX
  5
19719
330
19711
100
AcDbEntity
  8
本体
  6
Continuous
 62
     2
100
AcDbVertex
100
AcDb2dVertex
 10
-19010.96031695318
 20
-9786.865216263556
 30
0.0
 70
    16
  0
SEQEND
  5
1971A
330
19711
100
AcDbEntity
  8
本体
 62
     2
  0
POLYLINE
  5
1971B
330
1E
100
AcDbEntity
  8
本体
  6
Continuous
 62
     2
100
AcDb2dPolyline
 66
     1
 10
0.0
 20
0.0
 30
0.0
 70
     4
 75
     6
  0
VERTEX
  5
1971C
330
1971B
100
AcDbEntity
  8
本体
  6
Continuous
 62
     2
100
AcDbVertex
100
AcDb2dVertex
 10
-19012.04031495318
 20
-9788.102562263555
 30
0.0
 70
    16
  0
VERTEX
  5
1971D
330
1971B
100
AcDbEntity
  8
本体
  6
Continuous
 62
     2
100
AcDbVertex
100
AcDb2dVertex
 10
-19012.04031495318
 20
-9788.102562263555
 30
0.0
 70
     8
  0
VERTEX
  5
1971E
330
1971B
100
AcDbEntity
  8
本体
  6
Continuous
 62
     2
100
AcDbVertex
100
AcDb2dVertex
 10
-19010.96031695318
 20
-9786.865216263556
 30
0.0
 70
     8
  0
VERTEX
  5
1971F
330
1971B
100
AcDbEntity
  8
本体
  6
Continuous
 62
     2
100
AcDbVertex
100
AcDb2dVertex
 10
-19009.29403495317
 20
-9786.235862263557
 30
0.0
 70
     8
  0
VERTEX
  5
19720
330
1971B
100
AcDbEntity
  8
本体
  6
Continuous
 62
     2
100
AcDbVertex
100
AcDb2dVertex
 10
-19008.61517895317
 20
-9786.803502263557
 30
0.0
 70
     8
  0
VERTEX
  5
19721
330
1971B
100
AcDbEntity
  8
本体
  6
Continuous
 62
     2
100
AcDbVertex
100
AcDb2dVertex
 10
-19010.96031695318
 20
-9786.865216263556
 30
0.0
 70
    16
  0
VERTEX
  5
19722
330
1971B
100
AcDbEntity
  8
本体
  6
Continuous
 62
     2
100
AcDbVertex
100
AcDb2dVertex
 10
-19009.29403495317
 20
-9786.235862263557
 30
0.0
 70
    16
  0
VERTEX
  5
19723
330
1971B
100
AcDbEntity
  8
本体
  6
Continuous
 62
     2
100
AcDbVertex
100
AcDb2dVertex
 10
-19008.61517895317
 20
-9786.803502263557
 30
0.0
 70
    16
  0
SEQEND
  5
19724
330
1971B
100
AcDbEntity
  8
本体
 62
     2
  0
ARC
  5
19725
330
1E
100
AcDbEntity
  8
本体
  6
Continuous
 62
     3
100
AcDbCircle
 10
-19006.46205495317
 20
-9783.221168263557
 30
0.0
 40
3.22243
100
AcDbArc
 50
270.0
 51
0.0
  0
ARC
  5
19726
330
1E
100
AcDbEntity
  8
本体
  6
Continuous
 62
     2
100
AcDbCircle
 10
-19004.67298095317
 20
-9787.807802263557
 30
0.0
 40
2.653307999999999
100
AcDbArc
 50
354.3503440000534
 51
71.51411899996263
  0
POLYLINE
  5
19727
330
1E
100
AcDbEntity
  8
本体
  6
Continuous
 62
     2
100
AcDb2dPolyline
 66
     1
 10
0.0
 20
0.0
 30
0.0
 70
     4
 75
     6
  0
VERTEX
  5
19728
330
19727
100
AcDbEntity
  8
本体
  6
Continuous
 62
     2
100
AcDbVertex
100
AcDb2dVertex
 10
-19004.29500495317
 20
-9788.102562263555
 30
0.0
 70
    16
  0
VERTEX
  5
19729
330
19727
100
AcDbEntity
  8
本体
  6
Continuous
 62
     2
100
AcDbVertex
100
AcDb2dVertex
 10
-19004.29500495317
 20
-9788.102562263555
 30
0.0
 70
     8
  0
VERTEX
  5
1972A
330
19727
100
AcDbEntity
  8
本体
  6
Continuous
 62
     2
100
AcDbVertex
100
AcDb2dVertex
 10
-19004.33440495318
 20
-9786.572412263558
 30
0.0
 70
     8
  0
VERTEX
  5
1972B
330
19727
100
AcDbEntity
  8
本体
  6
Continuous
 62
     2
100
AcDbVertex
100
AcDb2dVertex
 10
-19004.99591495317
 20
-9785.551642263556
 30
0.0
 70
     8
  0
VERTEX
  5
1972C
330
19727
100
AcDbEntity
  8
本体
  6
Continuous
 62
     2
100
AcDbVertex
100
AcDb2dVertex
 10
-19006.09552695317
 20
-9785.470820263556
 30
0.0
 70
     8
  0
VERTEX
  5
1972D
330
19727
100
AcDbEntity
  8
本体
  6
Continuous
 62
     2
100
AcDbVertex
100
AcDb2dVertex
 10
-19006.54697695317
 20
-9786.299828263556
 30
0.0
 70
     8
  0
VERTEX
  5
1972E
330
19727
100
AcDbEntity
  8
本体
  6
Continuous
 62
     2
100
AcDbVertex
100
AcDb2dVertex
 10
-19006.57296495317
 20
-9787.479146263557
 30
0.0
 70
     8
  0
VERTEX
  5
1972F
330
19727
100
AcDbEntity
  8
本体
  6
Continuous
 62
     2
100
AcDbVertex
100
AcDb2dVertex
 10
-19006.57296495317
 20
-9788.102562263555
 30
0.0
 70
     8
  0
VERTEX
  5
19730
330
19727
100
AcDbEntity
  8
本体
  6
Continuous
 62
     2
100
AcDbVertex
100
AcDb2dVertex
 10
-19004.99591495317
 20
-9785.551642263556
 30
0.0
 70
    16
  0
VERTEX
  5
19731
330
19727
100
AcDbEntity
  8
本体
  6
Continuous
 62
     2
100
AcDbVertex
100
AcDb2dVertex
 10
-19006.09552695317
 20
-9785.470820263556
 30
0.0
 70
    16
  0
VERTEX
  5
19732
330
19727
100
AcDbEntity
  8
本体
  6
Continuous
 62
     2
100
AcDbVertex
100
AcDb2dVertex
 10
-19006.57296495317
 20
-9787.479146263557
 30
0.0
 70
    16
  0
VERTEX
  5
19733
330
19727
100
AcDbEntity
  8
本体
  6
Continuous
 62
     2
100
AcDbVertex
100
AcDb2dVertex
 10
-19006.57296495317
 20
-9788.102562263555
 30
0.0
 70
    16
  0
SEQEND
  5
19734
330
19727
100
AcDbEntity
  8
本体
 62
     2
  0
LINE
  5
19735
330
1E
100
AcDbEntity
  8
本体
  6
Continuous
 62
     3
100
AcDbLine
 10
-19003.23962495318
 20
-9771.338454263556
 30
0.0
 11
-19006.46205495317
 21
-9771.338454263556
 31
0.0
  0
CIRCLE
  5
19736
330
1E
100
AcDbEntity
  8
躯体
  6
Continuous
 62
     2
100
AcDbCircle
 10
-19001.18225695317
 20
-9749.847934263556
 30
0.0
 40
0.420008
  0
ARC
  5
19737
330
1E
100
AcDbEntity
  8
本体
  6
Continuous
 62
     2
100
AcDbCircle
 10
-18987.81072295317
 20
-9844.981552263556
 30
0.0
 40
5.096642
100
AcDbArc
 50
63.5736670001025
 51
143.5736439999987
  0
CIRCLE
  5
1973B
330
1E
100
AcDbEntity
  8
躯体
  6
Continuous
 62
     2
100
AcDbCircle
 10
-18990.60475295317
 20
-9782.669744263557
 30
0.0
 40
0.420008
  0
CIRCLE
  5
1973C
330
1E
100
AcDbEntity
  8
躯体
  6
Continuous
 62
     2
100
AcDbCircle
 10
-18991.13060895317
 20
-9759.210020263557
 30
0.0
 40
0.420008
  0
CIRCLE
  5
1973D
330
1E
100
AcDbEntity
  8
躯体
  6
Continuous
 62
     2
100
AcDbCircle
 10
-18996.56610895317
 20
-9770.213648263556
 30
0.0
 40
0.420008
  0
LINE
  5
1973E
330
1E
100
AcDbEntity
  8
躯体
  6
Continuous
 62
     3
100
AcDbLine
 10
-18980.66573695317
 20
-9788.102562263555
 30
0.0
 11
-18980.69093695317
 21
-9793.142650263554
 31
0.0
  0
CIRCLE
  5
1973F
330
1E
100
AcDbEntity
  8
躯体
  6
Continuous
 62
     2
100
AcDbCircle
 10
-18971.01974695318
 20
-9779.759858263558
 30
0.0
 40
0.420008
  0
CIRCLE
  5
19740
330
1E
100
AcDbEntity
  8
躯体
  6
Continuous
 62
     2
100
AcDbCircle
 10
-18979.37230295317
 20
-9768.927250263557
 30
0.0
 40
0.420008
  0
LINE
  5
19741
330
1E
100
AcDbEntity
  8
躯体
  6
Continuous
 62
     2
100
AcDbLine
 10
-18949.61066095317
 20
-9788.102562263555
 30
0.0
 11
-18949.61066095317
 21
-9893.363578263556
 31
0.0
  0
CIRCLE
  5
19749
330
1E
100
AcDbEntity
  8
躯体
  6
Continuous
 62
     2
100
AcDbCircle
 10
-18952.59636095317
 20
-9776.480714263556
 30
0.0
 40
0.420008
  0
CIRCLE
  5
1974A
330
1E
100
AcDbEntity
  8
躯体
  6
Continuous
 62
     2
100
AcDbCircle
 10
-18965.00229695317
 20
-9768.613494263556
 30
0.0
 40
0.420008
  0
CIRCLE
  5
1974B
330
1E
100
AcDbEntity
  8
躯体
  6
Continuous
 62
     2
100
AcDbCircle
 10
-18964.40616295317
 20
-9755.278882263556
 30
0.0
 40
0.420008
  0
CIRCLE
  5
1974C
330
1E
100
AcDbEntity
  8
躯体
  6
Continuous
 62
     2
100
AcDbCircle
 10
-18953.30977095317
 20
-9762.897090263557
 30
0.0
 40
0.420008
  0
LINE
  5
19754
330
1E
100
AcDbEntity
  8
躯体
  6
Continuous
 62
     3
100
AcDbLine
 10
-19006.61165895318
 20
-9728.227896263556
 30
0.0
 11
-18955.80400895317
 21
-9731.490896263558
 31
0.0
  0
LINE
  5
19755
330
1E
100
AcDbEntity
  8
本体
  6
Continuous
 62
     3
100
AcDbLine
 10
-19012.91176895318
 20
-9668.350624263556
 30
0.0
 11
-19012.91176895318
 21
-9650.650314263556
 31
0.0
  0
LINE
  5
19756
330
1E
100
AcDbEntity
  8
本体
  6
Continuous
 62
     3
100
AcDbLine
 10
-19016.61183295317
 20
-9664.650558263558
 30
0.0
 11
-19016.61183295317
 21
-9649.650296263555
 31
0.0
  0
CIRCLE
  5
19757
330
1E
100
AcDbEntity
  8
本体
  6
Continuous
 62
     2
100
AcDbCircle
 10
-19020.61190295317
 20
-9659.350466263555
 30
0.0
 40
3.500062
  0
LINE
  5
19758
330
1E
100
AcDbEntity
  8
本体
  6
Continuous
 62
     3
100
AcDbLine
 10
-19011.61174495318
 20
-9672.700700263556
 30
0.0
 11
-19011.61174495318
 21
-9650.350308263556
 31
0.0
  0
CIRCLE
  5
19759
330
1E
100
AcDbEntity
  8
躯体
  6
Continuous
 62
     2
100
AcDbCircle
 10
-18998.88280095317
 20
-9733.521788263557
 30
0.0
 40
0.420008
  0
LINE
  5
1975A
330
1E
100
AcDbEntity
  8
本体
  6
Continuous
 62
     2
100
AcDbLine
 10
-19019.41569695317
 20
-9659.865378263555
 30
0.0
 11
-19019.88710695318
 21
-9660.075262263555
 31
0.0
  0
LINE
  5
1975B
330
1E
100
AcDbEntity
  8
本体
  6
Continuous
 62
     2
100
AcDbLine
 10
-19019.88710695318
 20
-9658.625668263557
 30
0.0
 11
-19019.41569695317
 21
-9658.835554263557
 31
0.0
  0
LINE
  5
1975C
330
1E
100
AcDbEntity
  8
本体
  6
Continuous
 62
     2
100
AcDbLine
 10
-19022.66193895318
 20
-9659.850474263556
 30
0.0
 11
-19021.80810895318
 21
-9659.865378263555
 31
0.0
  0
LINE
  5
1975D
330
1E
100
AcDbEntity
  8
本体
  6
Continuous
 62
     2
100
AcDbLine
 10
-19022.66193895318
 20
-9658.850458263557
 30
0.0
 11
-19021.80810895318
 21
-9658.835554263557
 31
0.0
  0
LINE
  5
1975E
330
1E
100
AcDbEntity
  8
本体
  6
Continuous
 62
     2
100
AcDbLine
 10
-19022.66193895318
 20
-9658.850458263557
 30
0.0
 11
-19022.66193895318
 21
-9659.850474263556
 31
0.0
  0
LINE
  5
1975F
330
1E
100
AcDbEntity
  8
本体
  6
Continuous
 62
     2
100
AcDbLine
 10
-19020.11189495317
 20
-9657.300430263557
 30
0.0
 11
-19020.09699095318
 21
-9658.154260263557
 31
0.0
  0
LINE
  5
19760
330
1E
100
AcDbEntity
  8
本体
  6
Continuous
 62
     2
100
AcDbLine
 10
-19020.09699095318
 20
-9658.154260263557
 30
0.0
 11
-19019.88710695318
 21
-9658.625668263557
 31
0.0
  0
LINE
  5
19761
330
1E
100
AcDbEntity
  8
本体
  6
Continuous
 62
     2
100
AcDbLine
 10
-19021.33670095317
 20
-9658.625668263557
 30
0.0
 11
-19021.12681495317
 21
-9658.154260263557
 31
0.0
  0
LINE
  5
19762
330
1E
100
AcDbEntity
  8
本体
  6
Continuous
 62
     2
100
AcDbLine
 10
-19021.12681495317
 20
-9658.154260263557
 30
0.0
 11
-19021.11191295317
 21
-9657.300430263557
 31
0.0
  0
LINE
  5
19763
330
1E
100
AcDbEntity
  8
本体
  6
Continuous
 62
     2
100
AcDbLine
 10
-19020.11189495317
 20
-9657.300430263557
 30
0.0
 11
-19021.11191295317
 21
-9657.300430263557
 31
0.0
  0
LINE
  5
19764
330
1E
100
AcDbEntity
  8
本体
  6
Continuous
 62
     2
100
AcDbLine
 10
-19019.88710695318
 20
-9660.075262263555
 30
0.0
 11
-19020.09699095318
 21
-9660.546672263556
 31
0.0
  0
LINE
  5
19765
330
1E
100
AcDbEntity
  8
本体
  6
Continuous
 62
     2
100
AcDbLine
 10
-19020.09699095318
 20
-9660.546672263556
 30
0.0
 11
-19020.11189495317
 21
-9661.400502263555
 31
0.0
  0
LINE
  5
19766
330
1E
100
AcDbEntity
  8
本体
  6
Continuous
 62
     2
100
AcDbLine
 10
-19021.33670095317
 20
-9660.075262263555
 30
0.0
 11
-19021.80810895318
 21
-9659.865378263555
 31
0.0
  0
LINE
  5
19767
330
1E
100
AcDbEntity
  8
本体
  6
Continuous
 62
     2
100
AcDbLine
 10
-19021.33670095317
 20
-9660.075262263555
 30
0.0
 11
-19021.12681495317
 21
-9660.546672263556
 31
0.0
  0
LINE
  5
19768
330
1E
100
AcDbEntity
  8
本体
  6
Continuous
 62
     2
100
AcDbLine
 10
-19021.12681495317
 20
-9660.546672263556
 30
0.0
 11
-19021.11191295317
 21
-9661.400502263555
 31
0.0
  0
LINE
  5
19769
330
1E
100
AcDbEntity
  8
本体
  6
Continuous
 62
     2
100
AcDbLine
 10
-19021.11191295317
 20
-9661.400502263555
 30
0.0
 11
-19020.11189495317
 21
-9661.400502263555
 31
0.0
  0
LINE
  5
1976A
330
1E
100
AcDbEntity
  8
本体
  6
Continuous
 62
     2
100
AcDbLine
 10
-19021.80810895318
 20
-9658.835554263557
 30
0.0
 11
-19021.33670095317
 21
-9658.625668263557
 31
0.0
  0
LINE
  5
1976B
330
1E
100
AcDbEntity
  8
本体
  6
Continuous
 62
     2
100
AcDbLine
 10
-19018.56186695317
 20
-9659.850474263556
 30
0.0
 11
-19018.56186695317
 21
-9658.850458263557
 31
0.0
  0
LINE
  5
1976C
330
1E
100
AcDbEntity
  8
本体
  6
Continuous
 62
     2
100
AcDbLine
 10
-19019.41569695317
 20
-9658.835554263557
 30
0.0
 11
-19018.56186695317
 21
-9658.850458263557
 31
0.0
  0
LINE
  5
1976D
330
1E
100
AcDbEntity
  8
本体
  6
Continuous
 62
     2
100
AcDbLine
 10
-19018.56186695317
 20
-9659.850474263556
 30
0.0
 11
-19019.41569695317
 21
-9659.865378263555
 31
0.0
  0
LINE
  5
1976E
330
1E
100
AcDbEntity
  8
本体
  6
Continuous
 62
     3
100
AcDbLine
 10
-19014.71180095317
 20
-9668.350624263556
 30
0.0
 11
-19012.91176895318
 21
-9668.350624263556
 31
0.0
  0
LINE
  5
1976F
330
1E
100
AcDbEntity
  8
本体
  6
Continuous
 62
     3
100
AcDbLine
 10
-19012.91176895318
 20
-9671.350676263557
 30
0.0
 11
-19014.71180095317
 21
-9668.350624263556
 31
0.0
  0
LINE
  5
19770
330
1E
100
AcDbEntity
  8
本体
  6
Continuous
 62
     3
100
AcDbLine
 10
-19012.91176895318
 20
-9672.700700263556
 30
0.0
 11
-19012.91176895318
 21
-9671.350676263557
 31
0.0
  0
ARC
  5
19771
330
1E
100
AcDbEntity
  8
本体
  6
Continuous
 62
     3
100
AcDbCircle
 10
-19012.26175695317
 20
-9672.700700263556
 30
0.0
 40
0.6500120000000001
100
AcDbArc
 50
180.0
 51
0.0
  0
CIRCLE
  5
19772
330
1E
100
AcDbEntity
  8
躯体
  6
Continuous
 62
     2
100
AcDbCircle
 10
-18988.72222095317
 20
-9745.960340263557
 30
0.0
 40
0.420008
  0
CIRCLE
  5
19773
330
1E
100
AcDbEntity
  8
躯体
  6
Continuous
 62
     2
100
AcDbCircle
 10
-18981.90978295317
 20
-9740.211698263557
 30
0.0
 40
0.420008
  0
CIRCLE
  5
19774
330
1E
100
AcDbEntity
  8
躯体
  6
Continuous
 62
     2
100
AcDbCircle
 10
-18967.07260895317
 20
-9736.101258263557
 30
0.0
 40
0.420008
  0
LINE
  5
19775
330
1E
100
AcDbEntity
  8
本体
  6
Continuous
 62
     3
100
AcDbLine
 10
-19013.91178695318
 20
-9649.650296263555
 30
0.0
 11
-19022.31193295317
 21
-9649.650296263555
 31
0.0
  0
LINE
  5
19776
330
1E
100
AcDbEntity
  8
本体
  6
Continuous
 62
     3
100
AcDbLine
 10
-19022.91194295317
 20
-9649.650296263555
 30
0.0
 11
-19024.81197695317
 21
-9649.650296263555
 31
0.0
  0
LINE
  5
19777
330
1E
100
AcDbEntity
  8
本体
  6
Continuous
 62
     3
100
AcDbLine
 10
-19031.31209095317
 20
-9649.650296263555
 30
0.0
 11
-19025.41198695317
 21
-9649.650296263555
 31
0.0
  0
LINE
  5
19778
330
1E
100
AcDbEntity
  8
本体
  6
Continuous
 62
     3
100
AcDbLine
 10
-19031.91210095318
 20
-9649.650296263555
 30
0.0
 11
-19031.31209095317
 21
-9649.650296263555
 31
0.0
  0
LINE
  5
19779
330
1E
100
AcDbEntity
  8
本体
  6
Continuous
 62
     3
100
AcDbLine
 10
-19031.91210095318
 20
-9649.650296263555
 30
0.0
 11
-19031.61209495317
 21
-9649.350290263555
 31
0.0
  0
LINE
  5
1977A
330
1E
100
AcDbEntity
  8
本体
  6
Continuous
 62
     3
100
AcDbLine
 10
-19031.61209495317
 20
-9649.350290263555
 30
0.0
 11
-19031.31209095317
 21
-9649.650296263555
 31
0.0
  0
LINE
  5
1977B
330
1E
100
AcDbEntity
  8
本体
  6
Continuous
 62
     3
100
AcDbLine
 10
-19025.41198695317
 20
-9649.650296263555
 30
0.0
 11
-19024.81197695317
 21
-9649.650296263555
 31
0.0
  0
LINE
  5
1977C
330
1E
100
AcDbEntity
  8
本体
  6
Continuous
 62
     3
100
AcDbLine
 10
-19024.81197695317
 20
-9649.650296263555
 30
0.0
 11
-19025.11198295317
 21
-9649.350290263555
 31
0.0
  0
LINE
  5
1977D
330
1E
100
AcDbEntity
  8
本体
  6
Continuous
 62
     3
100
AcDbLine
 10
-19025.11198295317
 20
-9649.350290263555
 30
0.0
 11
-19025.41198695317
 21
-9649.650296263555
 31
0.0
  0
LINE
  5
1977E
330
1E
100
AcDbEntity
  8
本体
  6
Continuous
 62
     3
100
AcDbLine
 10
-19022.91194295317
 20
-9649.650296263555
 30
0.0
 11
-19022.31193295317
 21
-9649.650296263555
 31
0.0
  0
LINE
  5
1977F
330
1E
100
AcDbEntity
  8
本体
  6
Continuous
 62
     3
100
AcDbLine
 10
-19022.31193295317
 20
-9649.650296263555
 30
0.0
 11
-19022.61193895317
 21
-9649.350290263555
 31
0.0
  0
LINE
  5
19780
330
1E
100
AcDbEntity
  8
本体
  6
Continuous
 62
     3
100
AcDbLine
 10
-19022.61193895317
 20
-9649.350290263555
 30
0.0
 11
-19022.91194295317
 21
-9649.650296263555
 31
0.0
  0
ARC
  5
19781
330
1E
100
AcDbEntity
  8
本体
  6
Continuous
 62
     3
100
AcDbCircle
 10
-19013.61178095317
 20
-9650.350308263556
 30
0.0
 40
2.000036
100
AcDbArc
 50
0.0
 51
90.0
  0
ARC
  5
19782
330
1E
100
AcDbEntity
  8
本体
  6
Continuous
 62
     3
100
AcDbCircle
 10
-19013.91178695318
 20
-9650.650314263556
 30
0.0
 40
1.000018
100
AcDbArc
 50
0.0
 51
90.0
  0
LINE
  5
19785
330
1E
100
AcDbEntity
  8
躯体
  6
Continuous
 62
     3
100
AcDbLine
 10
-18955.80400895317
 20
-9731.490896263558
 30
0.0
 11
-18946.61060895317
 21
-9740.684296263557
 31
0.0
  0
CIRCLE
  5
19786
330
1E
100
AcDbEntity
  8
躯体
  6
Continuous
 62
     2
100
AcDbCircle
 10
-18953.46516495317
 20
-9743.653116263557
 30
0.0
 40
0.420008
  0
LINE
  5
1978C
330
1E
100
AcDbEntity
  8
本体
  6
Continuous
 62
     3
100
AcDbLine
 10
-19006.61165895318
 20
-9540.231180263557
 30
0.0
 11
-19006.61165895318
 21
-9462.414726263556
 31
0.0
  0
LINE
  5
1978D
330
1E
100
AcDbEntity
  8
本体
  6
Continuous
 62
     3
100
AcDbLine
 10
-19021.61192095317
 20
-9540.231180263557
 30
0.0
 11
-19021.61192095317
 21
-9462.414726263556
 31
0.0
  0
ARC
  5
19791
330
1E
100
AcDbEntity
  8
笠木
  6
Continuous
 62
     3
100
AcDbCircle
 10
-19031.61209495317
 20
-9493.415268263555
 30
0.0
 40
70.001226
100
AcDbArc
 50
65.68426100000168
 51
90.0
  0
ARC
  5
19792
330
1E
100
AcDbEntity
  8
笠木
  6
Continuous
 62
     3
100
AcDbCircle
 10
-19031.61209495317
 20
-9493.415268263555
 30
0.0
 40
68.70120199999999
100
AcDbArc
 50
66.40307500007134
 51
90.0
  0
LINE
  5
19793
330
1E
100
AcDbEntity
  8
本体
  6
Continuous
 62
     3
100
AcDbLine
 10
-19014.11178895317
 20
-9459.614676263557
 30
0.0
 11
-19016.11182495317
 21
-9459.614676263557
 31
0.0
  0
LINE
  5
19794
330
1E
100
AcDbEntity
  8
本体
  6
Continuous
 62
     2
100
AcDbLine
 10
-19014.11178895317
 20
-9462.414726263556
 30
0.0
 11
-19017.61185095318
 21
-9462.414726263556
 31
0.0
  0
LINE
  5
19795
330
1E
100
AcDbEntity
  8
本体
  6
Continuous
 62
     2
100
AcDbLine
 10
-19021.61192095317
 20
-9463.414744263557
 30
0.0
 11
-19006.61165895318
 21
-9463.414744263557
 31
0.0
  0
LINE
  5
19797
330
1E
100
AcDbEntity
  8
本体
  6
Continuous
 62
     2
100
AcDbLine
 10
-19023.11194695317
 20
-9459.614676263557
 30
0.0
 11
-19024.61197295317
 21
-9459.614676263557
 31
0.0
  0
LINE
  5
19798
330
1E
100
AcDbEntity
  8
本体
  6
Continuous
 62
     3
100
AcDbLine
 10
-19021.61192095317
 20
-9461.414708263555
 30
0.0
 11
-19031.61209495317
 21
-9461.414708263555
 31
0.0
  0
ARC
  5
19799
330
1E
100
AcDbEntity
  8
本体
  6
Continuous
 62
     2
100
AcDbCircle
 10
-19025.11198295317
 20
-9461.214704263555
 30
0.0
 40
4.200073999999999
100
AcDbArc
 50
50.69062899996942
 51
129.3031309999503
  0
ARC
  5
1979A
330
1E
100
AcDbEntity
  8
本体
  6
Continuous
 62
     2
100
AcDbCircle
 10
-19026.31935095318
 20
-9459.747588263555
 30
0.0
 40
2.30004
100
AcDbArc
 50
129.1795110000243
 51
176.6872570000393
  0
LINE
  5
1979B
330
1E
100
AcDbEntity
  8
本体
  6
Continuous
 62
     3
100
AcDbLine
 10
-19025.61199095318
 20
-9459.614676263557
 30
0.0
 11
-19031.11208695317
 21
-9459.614676263557
 31
0.0
  0
LINE
  5
1979C
330
1E
100
AcDbEntity
  8
本体
  6
Continuous
 62
     3
100
AcDbLine
 10
-19031.11208695317
 20
-9459.614676263557
 30
0.0
 11
-19031.61209495317
 21
-9460.114686263557
 31
0.0
  0
LINE
  5
1979D
330
1E
100
AcDbEntity
  8
本体
  6
Continuous
 62
     2
100
AcDbLine
 10
-19025.11198295317
 20
-9460.114686263557
 30
0.0
 11
-19025.61199095318
 21
-9459.614676263557
 31
0.0
  0
LINE
  5
1979E
330
1E
100
AcDbEntity
  8
本体
  6
Continuous
 62
     2
100
AcDbLine
 10
-19025.61199095318
 20
-9459.614676263557
 30
0.0
 11
-19024.61197295317
 21
-9459.614676263557
 31
0.0
  0
LINE
  5
1979F
330
1E
100
AcDbEntity
  8
本体
  6
Continuous
 62
     2
100
AcDbLine
 10
-19024.61197295317
 20
-9459.614676263557
 30
0.0
 11
-19025.11198295317
 21
-9460.114686263557
 31
0.0
  0
ARC
  5
197A0
330
1E
100
AcDbEntity
  8
本体
  6
Continuous
 62
     2
100
AcDbCircle
 10
-19026.01199695318
 20
-9457.522756263555
 30
0.0
 40
0.400006
100
AcDbArc
 50
0.0
 51
103.7002330000667
  0
ARC
  5
197A1
330
1E
100
AcDbEntity
  8
本体
  6
Continuous
 62
     2
100
AcDbCircle
 10
-19024.21196695317
 20
-9457.522756263555
 30
0.0
 40
0.400006
100
AcDbArc
 50
76.29976699993331
 51
180.0
  0
LINE
  5
197A2
330
1E
100
AcDbEntity
  8
本体
  6
Continuous
 62
     2
100
AcDbLine
 10
-19025.61199095318
 20
-9457.548920263556
 30
0.0
 11
-19024.61197295317
 21
-9457.548920263556
 31
0.0
  0
ARC
  5
197A3
330
1E
100
AcDbEntity
  8
本体
  6
Continuous
 62
     2
100
AcDbCircle
 10
-19019.40821095318
 20
-9459.744586263557
 30
0.0
 40
2.30004
100
AcDbArc
 50
3.237836999994869
 51
50.69087600001684
  0
ARC
  5
197A4
330
1E
100
AcDbEntity
  8
本体
  6
Continuous
 62
     2
100
AcDbCircle
 10
-19023.90828895317
 20
-9459.744586263557
 30
0.0
 40
2.30004
100
AcDbArc
 50
3.237836999994869
 51
50.69087600001684
  0
LINE
  5
197A5
330
1E
100
AcDbEntity
  8
本体
  6
Continuous
 62
     2
100
AcDbLine
 10
-19017.61185095318
 20
-9459.614676263557
 30
0.0
 11
-19020.11189495317
 21
-9459.614676263557
 31
0.0
  0
LINE
  5
197A6
330
1E
100
AcDbEntity
  8
本体
  6
Continuous
 62
     2
100
AcDbLine
 10
-19017.61185095318
 20
-9462.414726263556
 30
0.0
 11
-19021.61192095317
 21
-9462.414726263556
 31
0.0
  0
LINE
  5
197A7
330
1E
100
AcDbEntity
  8
本体
  6
Continuous
 62
     2
100
AcDbLine
 10
-19021.11191295317
 20
-9459.614676263557
 30
0.0
 11
-19022.11192895317
 21
-9459.614676263557
 31
0.0
  0
LINE
  5
197A8
330
1E
100
AcDbEntity
  8
本体
  6
Continuous
 62
     2
100
AcDbLine
 10
-19023.11194695317
 20
-9459.614676263557
 30
0.0
 11
-19022.11192895317
 21
-9459.614676263557
 31
0.0
  0
LINE
  5
197A9
330
1E
100
AcDbEntity
  8
本体
  6
Continuous
 62
     2
100
AcDbLine
 10
-19022.11192895317
 20
-9459.614676263557
 30
0.0
 11
-19022.61193895317
 21
-9460.114686263557
 31
0.0
  0
LINE
  5
197AA
330
1E
100
AcDbEntity
  8
本体
  6
Continuous
 62
     2
100
AcDbLine
 10
-19022.61193895317
 20
-9460.114686263557
 30
0.0
 11
-19023.11194695317
 21
-9459.614676263557
 31
0.0
  0
LINE
  5
197AB
330
1E
100
AcDbEntity
  8
本体
  6
Continuous
 62
     2
100
AcDbLine
 10
-19020.11189495317
 20
-9459.614676263557
 30
0.0
 11
-19020.61190295317
 21
-9460.114686263557
 31
0.0
  0
LINE
  5
197AC
330
1E
100
AcDbEntity
  8
本体
  6
Continuous
 62
     2
100
AcDbLine
 10
-19021.11191295317
 20
-9459.614676263557
 30
0.0
 11
-19020.11189495317
 21
-9459.614676263557
 31
0.0
  0
LINE
  5
197AD
330
1E
100
AcDbEntity
  8
本体
  6
Continuous
 62
     2
100
AcDbLine
 10
-19020.61190295317
 20
-9460.114686263557
 30
0.0
 11
-19021.11191295317
 21
-9459.614676263557
 31
0.0
  0
LINE
  5
197AE
330
1E
100
AcDbEntity
  8
本体
  6
Continuous
 62
     3
100
AcDbLine
 10
-19021.61192095317
 20
-9462.414726263556
 30
0.0
 11
-19021.61192095317
 21
-9461.414708263555
 31
0.0
  0
LINE
  5
197AF
330
1E
100
AcDbEntity
  8
本体
  6
Continuous
 62
     3
100
AcDbLine
 10
-19021.61192095317
 20
-9462.414726263556
 30
0.0
 11
-19021.61192095317
 21
-9461.414708263555
 31
0.0
  0
LINE
  5
197B0
330
1E
100
AcDbEntity
  8
本体
  6
Continuous
 62
     3
100
AcDbLine
 10
-19016.11182495317
 20
-9459.614676263557
 30
0.0
 11
-19016.11182495317
 21
-9460.914700263556
 31
0.0
  0
LINE
  5
197B1
330
1E
100
AcDbEntity
  8
本体
  6
Continuous
 62
     2
100
AcDbLine
 10
-19017.61185095318
 20
-9459.614676263557
 30
0.0
 11
-19017.11184295318
 21
-9459.614676263557
 31
0.0
  0
LINE
  5
197B2
330
1E
100
AcDbEntity
  8
本体
  6
Continuous
 62
     3
100
AcDbLine
 10
-19017.61185095318
 20
-9460.914700263556
 30
0.0
 11
-19017.61185095318
 21
-9459.614676263557
 31
0.0
  0
LINE
  5
197B3
330
1E
100
AcDbEntity
  8
本体
  6
Continuous
 62
     3
100
AcDbLine
 10
-19016.11182495317
 20
-9460.914700263556
 30
0.0
 11
-19017.61185095318
 21
-9460.914700263556
 31
0.0
  0
ARC
  5
197B4
330
1E
100
AcDbEntity
  8
本体
  6
Continuous
 62
     2
100
AcDbCircle
 10
-19019.71188695317
 20
-9457.522756263555
 30
0.0
 40
0.400006
100
AcDbArc
 50
76.29976699993331
 51
180.0
  0
ARC
  5
197B5
330
1E
100
AcDbEntity
  8
本体
  6
Continuous
 62
     2
100
AcDbCircle
 10
-19020.61190295317
 20
-9461.214704263555
 30
0.0
 40
4.200073999999999
100
AcDbArc
 50
50.69062899996942
 51
122.3923649999805
  0
ARC
  5
197B6
330
1E
100
AcDbEntity
  8
本体
  6
Continuous
 62
     2
100
AcDbCircle
 10
-19021.51191895318
 20
-9457.522756263555
 30
0.0
 40
0.400006
100
AcDbArc
 50
0.0
 51
103.7002330000667
  0
LINE
  5
197B7
330
1E
100
AcDbEntity
  8
本体
  6
Continuous
 62
     2
100
AcDbLine
 10
-19021.11191295317
 20
-9457.548920263556
 30
0.0
 11
-19020.11189495317
 21
-9457.548920263556
 31
0.0
  0
LINE
  5
197B8
330
1E
100
AcDbEntity
  8
笠木
  6
Continuous
 62
     3
100
AcDbLine
 10
-19001.61157095318
 20
-9431.446450263557
 30
0.0
 11
-19001.61157095318
 21
-9467.914822263557
 31
0.0
  0
ARC
  5
197B9
330
1E
100
AcDbEntity
  8
笠木
  6
Continuous
 62
     3
100
AcDbCircle
 10
-19009.26170495317
 20
-9447.764470263555
 30
0.0
 40
0.6500120000000001
100
AcDbArc
 50
90.0
 51
270.0
  0
ARC
  5
197BA
330
1E
100
AcDbEntity
  8
本体
  6
Continuous
 62
     3
100
AcDbCircle
 10
-19007.46167295318
 20
-9456.264618263556
 30
0.0
 40
0.6500120000000001
100
AcDbArc
 50
90.0
 51
270.0
  0
LINE
  5
197BB
330
1E
100
AcDbEntity
  8
本体
  6
Continuous
 62
     3
100
AcDbLine
 10
-19006.11164895318
 20
-9462.414726263556
 30
0.0
 11
-19013.11177295317
 21
-9462.414726263556
 31
0.0
  0
LINE
  5
197BC
330
1E
100
AcDbEntity
  8
本体
  6
Continuous
 62
     3
100
AcDbLine
 10
-19006.11164895318
 20
-9460.914700263556
 30
0.0
 11
-19011.11173695317
 21
-9460.914700263556
 31
0.0
  0
LINE
  5
197BD
330
1E
100
AcDbEntity
  8
笠木
  6
Continuous
 62
     3
100
AcDbLine
 10
-19003.41160295317
 20
-9448.414480263556
 30
0.0
 11
-19009.26170495317
 21
-9448.414480263556
 31
0.0
  0
LINE
  5
197BE
330
1E
100
AcDbEntity
  8
本体
  6
Continuous
 62
     3
100
AcDbLine
 10
-19011.11173695317
 20
-9459.614676263557
 30
0.0
 11
-19013.11177295317
 21
-9459.614676263557
 31
0.0
  0
LINE
  5
197BF
330
1E
100
AcDbEntity
  8
本体
  6
Continuous
 62
     3
100
AcDbLine
 10
-19013.61178095317
 20
-9460.114686263557
 30
0.0
 11
-19014.11178895317
 21
-9459.614676263557
 31
0.0
  0
LINE
  5
197C0
330
1E
100
AcDbEntity
  8
本体
  6
Continuous
 62
     2
100
AcDbLine
 10
-19014.11178895317
 20
-9462.414726263556
 30
0.0
 11
-19013.11177295317
 21
-9462.414726263556
 31
0.0
  0
LINE
  5
197C1
330
1E
100
AcDbEntity
  8
本体
  6
Continuous
 62
     3
100
AcDbLine
 10
-19013.61178095317
 20
-9461.914718263555
 30
0.0
 11
-19014.11178895317
 21
-9462.414726263556
 31
0.0
  0
LINE
  5
197C2
330
1E
100
AcDbEntity
  8
本体
  6
Continuous
 62
     3
100
AcDbLine
 10
-19013.11177295317
 20
-9459.614676263557
 30
0.0
 11
-19013.61178095317
 21
-9460.114686263557
 31
0.0
  0
LINE
  5
197C3
330
1E
100
AcDbEntity
  8
本体
  6
Continuous
 62
     3
100
AcDbLine
 10
-19013.11177295317
 20
-9462.414726263556
 30
0.0
 11
-19013.61178095317
 21
-9461.914718263555
 31
0.0
  0
LINE
  5
197C4
330
1E
100
AcDbEntity
  8
本体
  6
Continuous
 62
     3
100
AcDbLine
 10
-19011.11173695317
 20
-9460.914700263556
 30
0.0
 11
-19011.11173695317
 21
-9459.614676263557
 31
0.0
  0
LINE
  5
197C5
330
1E
100
AcDbEntity
  8
本体
  6
Continuous
 62
     3
100
AcDbLine
 10
-19006.11164895318
 20
-9456.914630263556
 30
0.0
 11
-19006.11164895318
 21
-9460.914700263556
 31
0.0
  0
LINE
  5
197C6
330
1E
100
AcDbEntity
  8
本体
  6
Continuous
 62
     3
100
AcDbLine
 10
-19004.81162695317
 20
-9467.764820263555
 30
0.0
 11
-19004.81162695317
 21
-9455.414604263557
 31
0.0
  0
LINE
  5
197C7
330
1E
100
AcDbEntity
  8
笠木
  6
Continuous
 62
     3
100
AcDbLine
 10
-19002.91159295317
 20
-9467.114808263556
 30
0.0
 11
-19002.91159295317
 21
-9458.414656263556
 31
0.0
  0
LINE
  5
197C8
330
1E
100
AcDbEntity
  8
笠木
  6
Continuous
 62
     3
100
AcDbLine
 10
-19002.11157895317
 20
-9468.414830263554
 30
0.0
 11
-19004.11161495318
 21
-9468.414830263554
 31
0.0
  0
LINE
  5
197C9
330
1E
100
AcDbEntity
  8
笠木
  6
Continuous
 62
     3
100
AcDbLine
 10
-19004.11161495318
 20
-9467.114808263556
 30
0.0
 11
-19002.91159295317
 21
-9467.114808263556
 31
0.0
  0
LINE
  5
197CA
330
1E
100
AcDbEntity
  8
本体
  6
Continuous
 62
     3
100
AcDbLine
 10
-19006.11164895318
 20
-9467.764820263555
 30
0.0
 11
-19006.11164895318
 21
-9462.414726263556
 31
0.0
  0
ARC
  5
197CB
330
1E
100
AcDbEntity
  8
本体
  6
Continuous
 62
     3
100
AcDbCircle
 10
-19005.46163895318
 20
-9467.764820263555
 30
0.0
 40
0.6500120000000001
100
AcDbArc
 50
180.0
 51
0.0
  0
LINE
  5
197CC
330
1E
100
AcDbEntity
  8
笠木
  6
Continuous
 62
     3
100
AcDbLine
 10
-19004.11161495318
 20
-9468.414830263554
 30
0.0
 11
-19004.11161495318
 21
-9467.114808263556
 31
0.0
  0
ARC
  5
197CD
330
1E
100
AcDbEntity
  8
笠木
  6
Continuous
 62
     3
100
AcDbCircle
 10
-19002.11157895317
 20
-9467.914822263557
 30
0.0
 40
0.5000080000000001
100
AcDbArc
 50
270.0
 51
0.0
  0
ARC
  5
197CE
330
1E
100
AcDbEntity
  8
笠木
  6
Continuous
 62
     3
100
AcDbCircle
 10
-19003.41160295317
 20
-9448.914490263556
 30
0.0
 40
0.5000080000000001
100
AcDbArc
 50
0.0
 51
90.0
  0
ARC
  5
197CF
330
1E
100
AcDbEntity
  8
本体
  6
Continuous
 62
     3
100
AcDbCircle
 10
-19003.76987895317
 20
-9454.914594263554
 30
0.0
 40
0.5000080000000001
100
AcDbArc
 50
270.0
 51
23.19859100003375
  0
LINE
  5
197D0
330
1E
100
AcDbEntity
  8
笠木
  6
Continuous
 62
     3
100
AcDbLine
 10
-19002.91159295317
 20
-9458.414656263556
 30
0.0
 11
-19004.71162495317
 21
-9455.414604263557
 31
0.0
  0
LINE
  5
197D1
330
1E
100
AcDbEntity
  8
笠木
  6
Continuous
 62
     3
100
AcDbLine
 10
-19004.71162495317
 20
-9455.414604263557
 30
0.0
 11
-19002.91159295317
 21
-9455.414604263557
 31
0.0
  0
LINE
  5
197D2
330
1E
100
AcDbEntity
  8
本体
  6
Continuous
 62
     3
100
AcDbLine
 10
-19003.31029695317
 20
-9454.717632263555
 30
0.0
 11
-19006.01164695317
 21
-9448.414480263556
 31
0.0
  0
ARC
  5
197D3
330
1E
100
AcDbEntity
  8
本体
  6
Continuous
 62
     3
100
AcDbCircle
 10
-19005.74141295317
 20
-9453.614572263555
 30
0.0
 40
0.5000080000000001
100
AcDbArc
 50
270.0
 51
23.19859100003375
  0
LINE
  5
197D4
330
1E
100
AcDbEntity
  8
本体
  6
Continuous
 62
     3
100
AcDbLine
 10
-19005.74141295317
 20
-9454.114580263556
 30
0.0
 11
-19006.11164895318
 21
-9454.114580263556
 31
0.0
  0
LINE
  5
197D5
330
1E
100
AcDbEntity
  8
本体
  6
Continuous
 62
     3
100
AcDbLine
 10
-19007.46167295318
 20
-9456.914630263556
 30
0.0
 11
-19006.11164895318
 21
-9456.914630263556
 31
0.0
  0
LINE
  5
197D6
330
1E
100
AcDbEntity
  8
本体
  6
Continuous
 62
     3
100
AcDbLine
 10
-19006.11164895318
 20
-9454.114580263556
 30
0.0
 11
-19006.11164895318
 21
-9455.614606263557
 31
0.0
  0
LINE
  5
197D7
330
1E
100
AcDbEntity
  8
本体
  6
Continuous
 62
     3
100
AcDbLine
 10
-19006.11164895318
 20
-9455.614606263557
 30
0.0
 11
-19007.46167295318
 21
-9455.614606263557
 31
0.0
  0
LINE
  5
197D8
330
1E
100
AcDbEntity
  8
本体
  6
Continuous
 62
     3
100
AcDbLine
 10
-19004.81162695317
 20
-9455.414604263557
 30
0.0
 11
-19003.76987895317
 21
-9455.414604263557
 31
0.0
  0
LINE
  5
197D9
330
1E
100
AcDbEntity
  8
本体
  6
Continuous
 62
     3
100
AcDbLine
 10
-19007.42603095317
 20
-9448.414480263556
 30
0.0
 11
-19005.28183295318
 21
-9453.417608263556
 31
0.0
  0
LINE
  5
197DA
330
1E
100
AcDbEntity
  8
本体
  6
Continuous
 62
     3
100
AcDbLine
 10
-19006.01164695317
 20
-9448.414480263556
 30
0.0
 11
-19007.42603095317
 21
-9448.414480263556
 31
0.0
  0
LINE
  5
197DB
330
1E
100
AcDbEntity
  8
笠木
  6
Continuous
 62
     3
100
AcDbLine
 10
-19002.91159295317
 20
-9455.414604263557
 30
0.0
 11
-19002.91159295317
 21
-9448.914490263556
 31
0.0
  0
LINE
  5
197DC
330
1E
100
AcDbEntity
  8
笠木
  6
Continuous
 62
     3
100
AcDbLine
 10
-19003.41160295317
 20
-9447.114458263556
 30
0.0
 11
-19009.26170495317
 21
-9447.114458263556
 31
0.0
  0
LINE
  5
197DD
330
1E
100
AcDbEntity
  8
笠木
  6
Continuous
 62
     3
100
AcDbLine
 10
-19002.91159295317
 20
-9432.291372263556
 30
0.0
 11
-19002.91159295317
 21
-9446.614450263556
 31
0.0
  0
ARC
  5
197DE
330
1E
100
AcDbEntity
  8
笠木
  6
Continuous
 62
     3
100
AcDbCircle
 10
-19003.41160295317
 20
-9446.614450263556
 30
0.0
 40
0.5000080000000001
100
AcDbArc
 50
270.0
 51
0.0
  0
ARC
  5
197DF
330
1E
100
AcDbEntity
  8
笠木
  6
Continuous
 62
     3
100
AcDbCircle
 10
-19004.91162895318
 20
-9432.291372263556
 30
0.0
 40
2.000036
100
AcDbArc
 50
0.0
 51
66.40307500007134
  0
ARC
  5
197E0
330
1E
100
AcDbEntity
  8
笠木
  6
Continuous
 62
     3
100
AcDbCircle
 10
-19003.61160495318
 20
-9431.446450263557
 30
0.0
 40
2.000036
100
AcDbArc
 50
0.0
 51
65.68426100000168
  0
LINE
  5
197E6
330
1E
100
AcDbEntity
  8
本体
  6
Continuous
 62
     3
100
AcDbLine
 10
-19081.49270095317
 20
-9788.102562263555
 30
0.0
 11
-18980.69093695317
 21
-9788.102562263555
 31
0.0
  0
LINE
  5
197E7
330
1E
100
AcDbEntity
  8
本体
  6
Continuous
 62
     3
100
AcDbLine
 10
-18980.69093695317
 20
-9793.142650263554
 30
0.0
 11
-18980.69093695317
 21
-9788.102562263555
 31
0.0
  0
LINE
  5
197E8
330
1E
100
AcDbEntity
  8
本体
  6
Continuous
 62
     2
100
AcDbLine
 10
-19020.61590295317
 20
-9462.414726263556
 30
0.0
 11
-19021.61192095317
 21
-9463.410744263557
 31
0.0
  0
LINE
  5
197E9
330
1E
100
AcDbEntity
  8
本体
  6
Continuous
 62
     2
100
AcDbLine
 10
-19017.78347695318
 20
-9462.414726263556
 30
0.0
 11
-19018.78349295317
 21
-9463.414744263555
 31
0.0
  0
LINE
  5
197EA
330
1E
100
AcDbEntity
  8
本体
  6
Continuous
 62
     2
100
AcDbLine
 10
-19014.95504895317
 20
-9462.414726263556
 30
0.0
 11
-19015.95506695317
 21
-9463.414744263555
 31
0.0
  0
LINE
  5
197EB
330
1E
100
AcDbEntity
  8
本体
  6
Continuous
 62
     2
100
AcDbLine
 10
-19012.12662295317
 20
-9462.414726263556
 30
0.0
 11
-19013.12663895317
 21
-9463.414744263555
 31
0.0
  0
LINE
  5
197EC
330
1E
100
AcDbEntity
  8
本体
  6
Continuous
 62
     2
100
AcDbLine
 10
-19009.29819495317
 20
-9462.414726263556
 30
0.0
 11
-19010.29821295317
 21
-9463.414744263555
 31
0.0
  0
LINE
  5
197ED
330
1E
100
AcDbEntity
  8
本体
  6
Continuous
 62
     2
100
AcDbLine
 10
-19006.61165895317
 20
-9462.556616263555
 30
0.0
 11
-19007.46978495318
 21
-9463.414744263555
 31
0.0
  0
LINE
  5
197EE
330
1E
100
AcDbEntity
  8
本体
  6
Continuous
 62
     2
100
AcDbLine
 10
-19055.61651495317
 20
-9462.414726263556
 30
0.0
 11
-19056.61253295317
 21
-9463.410744263557
 31
0.0
  0
LINE
  5
197EF
330
1E
100
AcDbEntity
  8
本体
  6
Continuous
 62
     2
100
AcDbLine
 10
-19052.78408895317
 20
-9462.414726263556
 30
0.0
 11
-19053.78410695317
 21
-9463.414744263555
 31
0.0
  0
LINE
  5
197F0
330
1E
100
AcDbEntity
  8
本体
  6
Continuous
 62
     2
100
AcDbLine
 10
-19049.95566095317
 20
-9462.414726263556
 30
0.0
 11
-19050.95567895317
 21
-9463.414744263555
 31
0.0
  0
LINE
  5
197F1
330
1E
100
AcDbEntity
  8
本体
  6
Continuous
 62
     2
100
AcDbLine
 10
-19047.12723495317
 20
-9462.414726263556
 30
0.0
 11
-19048.12725295317
 21
-9463.414744263555
 31
0.0
  0
LINE
  5
197F2
330
1E
100
AcDbEntity
  8
本体
  6
Continuous
 62
     2
100
AcDbLine
 10
-19044.29880695317
 20
-9462.414726263556
 30
0.0
 11
-19045.29882495317
 21
-9463.414744263555
 31
0.0
  0
LINE
  5
197F3
330
1E
100
AcDbEntity
  8
本体
  6
Continuous
 62
     2
100
AcDbLine
 10
-19041.61227095317
 20
-9462.556616263555
 30
0.0
 11
-19042.47039695317
 21
-9463.414744263555
 31
0.0
  0
DIMENSION
  5
197F4
330
1E
100
AcDbEntity
  8
寸法
  6
Continuous
100
AcDbDimension
  2
*D14
 10
-19076.02829895318
 20
-9462.413580263556
 30
0.0
 11
-19079.52829895318
 21
-9442.913580263557
 31
0.0
 70
    32
 71
     5
 42
39.0
  3
111
100
AcDbAlignedDimension
 13
-19067.18792341852
 23
-9423.413580263556
 33
0.0
 14
-19067.18792341852
 24
-9462.413580263556
 34
0.0
 50
90.0
100
AcDbRotatedDimension
1001
ACAD
1000
DSTYLE
1002
{
1070
   341
1005
15B0
1002
}
  0
DIMENSION
  5
197F5
330
1E
100
AcDbEntity
  8
寸法
  6
Continuous
100
AcDbDimension
  2
*D12
 10
-19096.47216895318
 20
-9468.413580263556
 30
0.0
 11
-19099.97216895318
 21
-9445.913580263557
 31
0.0
 70
    32
 71
     5
 42
45.0
  3
111
100
AcDbAlignedDimension
 13
-19067.18792341852
 23
-9423.413580263556
 33
0.0
 14
-19067.18792341852
 24
-9468.413580263556
 34
0.0
 50
90.0
100
AcDbRotatedDimension
1001
ACAD
1000
DSTYLE
1002
{
1070
   341
1005
15B0
1002
}
  0
DIMENSION
  5
197F6
330
1E
100
AcDbEntity
  8
寸法
  6
Continuous
100
AcDbDimension
  2
*D13
 10
-19076.02829895318
 20
-9468.413580263556
 30
0.0
 11
-19079.52829895318
 21
-9465.413580263557
 31
0.0
 70
    32
 71
     5
 42
6.0
  3
111
100
AcDbAlignedDimension
 13
-19067.18792341852
 23
-9462.413580263556
 33
0.0
 14
-19067.18792341852
 24
-9468.413580263556
 34
0.0
 50
90.0
100
AcDbRotatedDimension
1001
ACAD
1000
DSTYLE
1002
{
1070
   279
1070
     1
1070
   341
1005
15B0
1002
}
  0
DIMENSION
  5
197F7
330
1E
100
AcDbEntity
  8
寸法
  6
Continuous
100
AcDbDimension
  2
*D11
 10
-19001.61157095318
 20
-9396.960866263556
 30
0.0
 11
-19031.61157095318
 21
-9393.460866263557
 31
0.0
 70
    32
 71
     5
 42
60.00000000000728
  3
111
100
AcDbAlignedDimension
 13
-19061.61157095318
 23
-9417.170517282407
 33
0.0
 14
-19001.61157095318
 24
-9417.170517282407
 34
0.0
100
AcDbRotatedDimension
1001
ACAD
1000
DSTYLE
1002
{
1070
   341
1005
15B0
1002
}
  0
DIMENSION
  5
197F9
330
1E
100
AcDbEntity
  8
寸法
  6
Continuous
100
AcDbDimension
  2
*D18
 10
-19021.61227095318
 20
-9522.777900263555
 30
0.0
 11
-19031.61227095317
 21
-9519.277900263556
 31
0.0
 70
    32
 71
     5
 42
20.0
  3
111
100
AcDbAlignedDimension
 13
-19041.61227095318
 23
-9522.777900263555
 33
0.0
 14
-19021.61227095318
 24
-9522.777900263555
 34
0.0
100
AcDbRotatedDimension
1001
ACAD
1000
DSTYLE
1002
{
1070
   341
1005
15B0
1002
}
  0
DIMENSION
  5
197FA
330
1E
100
AcDbEntity
  8
寸法
  6
Continuous
100
AcDbDimension
  2
*D17
 10
-19006.61253295318
 20
-9584.029312263556
 30
0.0
 11
-19031.61253295318
 21
-9580.529312263555
 31
0.0
 70
    32
 71
     5
 42
49.99999999999272
  3
111
100
AcDbAlignedDimension
 13
-19056.61253295317
 23
-9584.029312263556
 33
0.0
 14
-19006.61253295318
 24
-9584.029312263556
 34
0.0
100
AcDbRotatedDimension
1001
ACAD
1000
DSTYLE
1002
{
1070
   341
1005
15B0
1002
}
  0
DIMENSION
  5
197FB
330
1E
100
AcDbEntity
  8
寸法
  6
Continuous
100
AcDbDimension
  2
*D15
 10
-18911.61157095318
 20
-9423.413580263556
 30
0.0
 11
-18915.11157095318
 21
-9572.882574263557
 31
0.0
 70
    32
  1
H
 71
     5
 42
298.9379879999997
  3
111
100
AcDbAlignedDimension
 13
-18928.18549689062
 23
-9722.351568263555
 33
0.0
 14
-18928.18549689062
 24
-9423.413580263556
 34
0.0
 50
90.0
100
AcDbRotatedDimension
1001
ACAD
1000
DSTYLE
1002
{
1070
   279
1070
     1
1070
   341
1005
15B0
1002
}
  0
DIMENSION
  5
197FD
330
1E
100
AcDbEntity
  8
寸法
  6
Continuous
100
AcDbDimension
  2
*D19
 10
-19096.47216895318
 20
-9673.350274263555
 30
0.0
 11
-19099.97216895318
 21
-9660.850274263559
 31
0.0
 70
    32
 71
     5
 42
25.0
  3
111
100
AcDbAlignedDimension
 13
-19067.18792341852
 23
-9648.350274263556
 33
0.0
 14
-19067.18792341852
 24
-9673.350274263555
 34
0.0
 50
90.0
100
AcDbRotatedDimension
1001
ACAD
1000
DSTYLE
1002
{
1070
   341
1005
15B0
1002
}
  0
DIMENSION
  5
197FE
330
1E
100
AcDbEntity
  8
寸法
  6
Continuous
100
AcDbDimension
  2
*D16
 10
-19096.47216895318
 20
-9722.351568263555
 30
0.0
 11
-19099.97216895318
 21
-9697.851139263558
 31
0.0
 70
    32
  1
90未満
 71
     5
 42
49.00085799999942
  3
111
100
AcDbAlignedDimension
 13
-19067.18792341852
 23
-9673.350710263555
 33
0.0
 14
-19067.18792341852
 24
-9722.351568263555
 34
0.0
 50
90.0
100
AcDbRotatedDimension
1001
ACAD
1000
DSTYLE
1002
{
1070
   279
1070
     1
1070
   341
1005
15B0
1002
}
  0
DIMENSION
  5
198E3
330
1E
100
AcDbEntity
  8
寸法
  6
Continuous
100
AcDbDimension
  2
*D20
 10
-18911.60999495317
 20
-9788.102562263555
 30
0.0
 11
-18915.10999495317
 21
-9755.227065263559
 31
0.0
 70
    32
  1
８０以上
 71
     5
 42
65.75099399999999
  3
111
100
AcDbAlignedDimension
 13
-18928.18549689062
 23
-9722.351568263555
 33
0.0
 14
-18928.18549689062
 24
-9788.102562263555
 34
0.0
 50
90.0
100
AcDbRotatedDimension
1001
ACAD
1000
DSTYLE
1002
{
1070
   341
1005
15B0
1002
}
  0
DIMENSION
  5
198F9
330
1E
100
AcDbEntity
  8
寸法
  6
Continuous
100
AcDbDimension
  2
*D21
 10
-18911.60999495317
 20
-9793.142650263554
 30
0.0
 11
-18915.10999495317
 21
-9790.622606263557
 31
0.0
 70
    32
 71
     5
 42
5.040087999999741
  3
111
100
AcDbAlignedDimension
 13
-18928.18549689062
 23
-9788.102562263555
 33
0.0
 14
-18928.18549689062
 24
-9793.142650263554
 34
0.0
 50
90.0
100
AcDbRotatedDimension
1001
ACAD
1000
DSTYLE
1002
{
1070
   341
1005
15B0
1002
}
  0
DIMENSION
  5
19906
330
1E
100
AcDbEntity
  8
寸法
  6
Continuous
100
AcDbDimension
  2
*D22
 10
-18911.60999495317
 20
-9861.925672263557
 30
0.0
 11
-18915.10999495317
 21
-9827.534161263558
 31
0.0
 70
    32
  1
75
 71
     5
 42
68.78302200000144
  3
111
100
AcDbAlignedDimension
 13
-18928.18549689062
 23
-9793.142650263554
 33
0.0
 14
-18928.18549689062
 24
-9861.925672263557
 34
0.0
 50
90.0
100
AcDbRotatedDimension
1001
ACAD
1000
DSTYLE
1002
{
1070
   341
1005
15B0
1002
}
  0
DIMENSION
  5
1994F
330
1E
100
AcDbEntity
  8
寸法
  6
Continuous
100
AcDbDimension
  2
*D23
 10
-18980.69093695317
 20
-9832.288056263557
 30
0.0
 11
-19031.09181895317
 21
-9828.788056263556
 31
0.0
 70
    32
  1
100
 71
     5
 42
100.8017639999998
  3
111
100
AcDbAlignedDimension
 13
-19081.49270095317
 23
-9816.925953263556
 33
0.0
 14
-18980.69093695317
 24
-9816.925953263556
 34
0.0
100
AcDbRotatedDimension
1001
ACAD
1000
DSTYLE
1002
{
1070
   341
1005
15B0
1002
}
  0
DIMENSION
  5
19965
330
1E
100
AcDbEntity
  8
寸法
  6
Continuous
100
AcDbDimension
  2
*D24
 10
-18946.61060895317
 20
-9886.155904263556
 30
0.0
 11
-19031.61209595317
 21
-9882.655904263557
 31
0.0
 70
    32
  1
170以上
 71
     5
 42
170.0029740000027
  3
111
100
AcDbAlignedDimension
 13
-19116.61358295318
 23
-9886.155904263556
 33
0.0
 14
-18946.61060895317
 24
-9886.155904263556
 34
0.0
100
AcDbRotatedDimension
1001
ACAD
1000
DSTYLE
1002
{
1070
   341
1005
15B0
1002
}
  0
ENDSEC
  0
SECTION
  2
OBJECTS
  0
DICTIONARY
  5
C
330
0
100
AcDbDictionary
281
     1
  3
ACAD_2007HEADERVARS_RT
350
19C3B
  3
ACAD_COLOR
350
199B4
  3
ACAD_GROUP
350
D
  3
ACAD_LAYOUT
350
19
  3
ACAD_MATERIAL
350
199B3
  3
ACAD_MLINESTYLE
350
16
  3
ACAD_PLOTSETTINGS
350
18
  3
ACAD_PLOTSTYLENAME
350
E
  3
ACAD_TABLESTYLE
350
199B5
  3
ACAD_VISUALSTYLE
350
19BF8
  3
AcDbVariableDictionary
350
169
  3
DWGPROPS
350
19C3A
  0
DICTIONARY
  5
175
330
2
100
AcDbDictionary
280
     1
281
     1
  3
ACAD_LAYERFILTERS
360
185
  3
ACAD_LAYERSTATES
360
176
  0
DICTIONARY
  5
28B
330
1E
100
AcDbDictionary
280
     1
281
     1
  3
ACAD_LAYOUTSELFREF
360
17476
  0
DICTIONARY
  5
28D
330
1A
100
AcDbDictionary
280
     1
281
     1
  3
ACAD_LAYOUTSELFREF
360
17475
  0
DICTIONARY
  5
19C3B
102
{ACAD_REACTORS
330
C
102
}
330
C
100
AcDbDictionary
281
     1
  3
DIMFXL
350
19C3C
  0
DICTIONARY
  5
199B4
102
{ACAD_REACTORS
330
C
102
}
330
C
100
AcDbDictionary
281
     1
  0
DICTIONARY
  5
D
102
{ACAD_REACTORS
330
C
102
}
330
C
100
AcDbDictionary
281
     1
  0
DICTIONARY
  5
19
102
{ACAD_REACTORS
330
C
102
}
330
C
100
AcDbDictionary
281
     1
  3
Model
350
21
  3
ﾚｲｱｳﾄ1
350
1D
  0
DICTIONARY
  5
199B3
102
{ACAD_REACTORS
330
C
102
}
330
C
100
AcDbDictionary
281
     1
  3
ByBlock
350
19BF6
  3
ByLayer
350
19BF5
  3
Global
350
19BF7
  0
DICTIONARY
  5
16
102
{ACAD_REACTORS
330
C
102
}
330
C
100
AcDbDictionary
281
     1
  3
Standard
350
17
  0
DICTIONARY
  5
18
102
{ACAD_REACTORS
330
C
102
}
330
C
100
AcDbDictionary
281
     1
  0
ACDBDICTIONARYWDFLT
  5
E
102
{ACAD_REACTORS
330
C
102
}
330
C
100
AcDbDictionary
281
     1
  3
Normal
350
F
100
AcDbDictionaryWithDefault
340
F
1001
ACAD
1000
TREAT_AS_HARD
1070
     0
1000
TREAT_AS_HARD
1070
     0
1000
TREAT_AS_HARD
1070
     0
1000
TREAT_AS_HARD
1070
     0
1000
TREAT_AS_HARD
1070
     0
1000
TREAT_AS_HARD
1070
     0
1000
TREAT_AS_HARD
1070
     0
1000
TREAT_AS_HARD
1070
     0
1000
TREAT_AS_HARD
1070
     0
1000
TREAT_AS_HARD
1070
     0
1000
TREAT_AS_HARD
1070
     0
1000
TREAT_AS_HARD
1070
     0
1000
TREAT_AS_HARD
1070
     0
1000
TREAT_AS_HARD
1070
     0
1000
TREAT_AS_HARD
1070
     0
1000
TREAT_AS_HARD
1070
     0
1000
TREAT_AS_HARD
1070
     0
1000
TREAT_AS_HARD
1070
     0
1000
TREAT_AS_HARD
1070
     0
1000
TREAT_AS_HARD
1070
     0
1000
TREAT_AS_HARD
1070
     0
1000
TREAT_AS_HARD
1070
     0
1000
TREAT_AS_HARD
1070
     0
1000
TREAT_AS_HARD
1070
     0
1000
TREAT_AS_HARD
1070
     0
1000
TREAT_AS_HARD
1070
     0
1000
TREAT_AS_HARD
1070
     0
  0
DICTIONARY
  5
199B5
102
{ACAD_REACTORS
330
C
102
}
330
C
100
AcDbDictionary
281
     1
  3
Standard
350
199B6
  0
DICTIONARY
  5
19BF8
102
{ACAD_REACTORS
330
C
102
}
330
C
100
AcDbDictionary
281
     1
  3
2dWireframe
350
19BFE
  3
3D Hidden
350
19C00
  3
3dWireframe
350
19BFF
  3
Basic
350
19BFD
  3
Brighten
350
19C04
  3
ColorChange
350
19C08
  3
Conceptual
350
19C01
  3
Dim
350
19C03
  3
Facepattern
350
19C07
  3
Flat
350
19BF9
  3
FlatWithEdges
350
19BFA
  3
Gouraud
350
19BFB
  3
GouraudWithEdges
350
19BFC
  3
Linepattern
350
19C06
  3
Realistic
350
19C02
  3
Thicken
350
19C05
  0
DICTIONARY
  5
169
102
{ACAD_REACTORS
330
C
102
}
330
C
100
AcDbDictionary
281
     1
  3
CTABLESTYLE
350
19BF3
  3
DIMASSOC
350
16A
  3
INDEXCTL
350
19C39
  3
SORTENTS
350
19C38
  0
XRECORD
  5
19C3A
102
{ACAD_REACTORS
330
C
102
}
330
C
100
AcDbXrecord
280
     1
  1
DWGPROPS COOKIE
  2

  3

  4

  6

  7

  8
TOK2100AV
  9

300
=
301
=
302
=
303
=
304
=
305
=
306
=
307
=
308
=
309
=
 40
0.4940824421296297
 41
2454316.693457674
 42
2454494.69469581
  1

 90
        0
  0
DICTIONARY
  5
185
102
{ACAD_REACTORS
330
175
102
}
330
175
100
AcDbDictionary
280
     1
281
     1
  0
DICTIONARY
  5
176
102
{ACAD_REACTORS
330
175
102
}
330
175
100
AcDbDictionary
281
     1
  3
ACAD
350
177
  0
XRECORD
  5
17476
102
{ACAD_REACTORS
330
28B
102
}
330
28B
100
AcDbXrecord
280
     1
340
1E
  0
XRECORD
  5
17475
102
{ACAD_REACTORS
330
28D
102
}
330
28D
100
AcDbXrecord
280
     1
340
1A
  0
XRECORD
  5
19C3C
102
{ACAD_REACTORS
330
19C3B
102
}
330
19C3B
100
AcDbXrecord
280
     1
 40
0.0
  0
LAYOUT
  5
21
102
{ACAD_XDICTIONARY
360
19C3F
102
}
102
{ACAD_REACTORS
330
19
102
}
330
19
100
AcDbPlotSettings
  1

  2
\\MEISEI-1\EPSON Stylus Photo EX3
  4

  6

 40
0.0
 41
0.0
 42
0.0
 43
0.0
 44
0.0
 45
0.0
 46
0.0
 47
0.0
 48
0.0
 49
0.0
140
0.0
141
0.0
142
1.0
143
1.0
 70
  1712
 72
     0
 73
     0
 74
     0
  7

 75
     0
147
1.0
148
0.0
149
0.0
100
AcDbLayout
  1
Model
 70
     1
 71
     0
 10
0.0
 20
0.0
 11
12.0
 21
9.0
 12
0.0
 22
0.0
 32
0.0
 14
0.0
 24
0.0
 34
0.0
 15
0.0
 25
0.0
 35
0.0
146
0.0
 13
0.0
 23
0.0
 33
0.0
 16
1.0
 26
0.0
 36
0.0
 17
0.0
 27
1.0
 37
0.0
 76
     0
330
1E
331
19BF2
  0
LAYOUT
  5
1D
102
{ACAD_XDICTIONARY
360
19C3D
102
}
102
{ACAD_REACTORS
330
19
102
}
330
19
100
AcDbPlotSettings
  1

  2
\\MEISEI-1\EPSON Stylus Photo EX3
  4

  6

 40
0.0
 41
0.0
 42
0.0
 43
0.0
 44
0.0
 45
0.0
 46
0.0
 47
0.0
 48
0.0
 49
0.0
140
0.0
141
0.0
142
1.0
143
1.0
 70
   688
 72
     0
 73
     0
 74
     5
  7

 75
    16
147
1.0
148
0.0
149
0.0
100
AcDbLayout
  1
ﾚｲｱｳﾄ1
 70
     1
 71
     1
 10
0.0
 20
0.0
 11
12.0
 21
9.0
 12
0.0
 22
0.0
 32
0.0
 14
1.000000000000000E+20
 24
1.000000000000000E+20
 34
1.000000000000000E+20
 15
-1.000000000000000E+20
 25
-1.000000000000000E+20
 35
-1.000000000000000E+20
146
0.0
 13
0.0
 23
0.0
 33
0.0
 16
1.0
 26
0.0
 36
0.0
 17
0.0
 27
1.0
 37
0.0
 76
     0
330
1A
  0
MATERIAL
  5
19BF6
102
{ACAD_XDICTIONARY
360
19C45
102
}
102
{ACAD_REACTORS
330
199B3
102
}
330
199B3
100
AcDbMaterial
  1
ByBlock
  0
MATERIAL
  5
19BF5
102
{ACAD_XDICTIONARY
360
19C43
102
}
102
{ACAD_REACTORS
330
199B3
102
}
330
199B3
100
AcDbMaterial
  1
ByLayer
  0
MATERIAL
  5
19BF7
102
{ACAD_XDICTIONARY
360
19C47
102
}
102
{ACAD_REACTORS
330
199B3
102
}
330
199B3
100
AcDbMaterial
  1
Global
  0
MLINESTYLE
  5
17
102
{ACAD_REACTORS
330
16
102
}
330
16
100
AcDbMlineStyle
  2
STANDARD
 70
     0
  3

 62
   256
 51
90.0
 52
90.0
 71
     2
 49
0.5
 62
   256
  6
BYLAYER
 49
-0.5
 62
   256
  6
BYLAYER
  0
ACDBPLACEHOLDER
  5
F
102
{ACAD_REACTORS
330
E
102
}
330
E
  0
TABLESTYLE
  5
199B6
102
{ACAD_XDICTIONARY
360
19C41
102
}
102
{ACAD_REACTORS
330
199B5
102
}
330
199B5
100
AcDbTableStyle
  3
Standard
 70
     0
 71
     0
 40
0.06
 41
0.06
280
     0
281
     0
  7
STANDARD
140
0.18
170
     2
 62
     0
 63
     7
283
     0
274
    -2
284
     1
 64
     0
275
    -2
285
     1
 65
     0
276
    -2
286
     1
 66
     0
277
    -2
287
     1
 67
     0
278
    -2
288
     1
 68
     0
279
    -2
289
     1
 69
     0
  7
STANDARD
140
0.25
170
     5
 62
     0
 63
     7
283
     0
274
    -2
284
     1
 64
     0
275
    -2
285
     1
 65
     0
276
    -2
286
     1
 66
     0
277
    -2
287
     1
 67
     0
278
    -2
288
     1
 68
     0
279
    -2
289
     1
 69
     0
  7
STANDARD
140
0.18
170
     5
 62
     0
 63
     7
283
     0
274
    -2
284
     1
 64
     0
275
    -2
285
     1
 65
     0
276
    -2
286
     1
 66
     0
277
    -2
287
     1
 67
     0
278
    -2
288
     1
 68
     0
279
    -2
289
     1
 69
     0
  0
VISUALSTYLE
  5
19BFE
102
{ACAD_REACTORS
330
19BF8
102
}
330
19BF8
100
AcDbVisualStyle
  2
2dWireframe
 70
     4
 71
     0
 72
     2
 73
     0
 90
        0
 40
-0.6
 41
-30.0
 62
     5
 63
     7
 74
     1
 91
        4
 64
     7
 65
   257
 75
     1
175
     1
 42
1.0
 92
        0
 66
   257
 43
1.0
 76
     1
 77
     6
 78
     2
 67
     7
 79
     5
170
     0
171
     0
290
     0
174
     0
 93
        1
 44
0.0
173
     0
291
     0
 45
0.0
1001
ACAD
1000
AcDbSavedByObjectVersion
1070
     0
  0
VISUALSTYLE
  5
19C00
102
{ACAD_REACTORS
330
19BF8
102
}
330
19BF8
100
AcDbVisualStyle
  2
3D Hidden
 70
     6
 71
     1
 72
     2
 73
     2
 90
        0
 40
-0.6
 41
-30.0
 62
     5
 63
     7
 74
     2
 91
        2
 64
     7
 65
   257
 75
     2
175
     1
 42
40.0
 92
        0
 66
   257
 43
1.0
 76
     1
 77
     6
 78
     2
 67
     7
 79
     3
170
     0
171
     0
290
     0
174
     0
 93
        1
 44
0.0
173
     0
291
     0
 45
0.0
1001
ACAD
1000
AcDbSavedByObjectVersion
1070
     0
  0
VISUALSTYLE
  5
19BFF
102
{ACAD_REACTORS
330
19BF8
102
}
330
19BF8
100
AcDbVisualStyle
  2
3dWireframe
 70
     5
 71
     0
 72
     2
 73
     0
 90
        0
 40
-0.6
 41
-30.0
 62
     5
 63
     7
 74
     1
 91
        4
 64
     7
 65
   257
 75
     1
175
     1
 42
1.0
 92
        0
 66
   257
 43
1.0
 76
     1
 77
     6
 78
     2
 67
     7
 79
     5
170
     0
171
     0
290
     0
174
     0
 93
        1
 44
0.0
173
     0
291
     0
 45
0.0
1001
ACAD
1000
AcDbSavedByObjectVersion
1070
     0
  0
VISUALSTYLE
  5
19BFD
102
{ACAD_REACTORS
330
19BF8
102
}
330
19BF8
100
AcDbVisualStyle
  2
Basic
 70
     7
 71
     1
 72
     0
 73
     1
 90
        0
 40
-0.6
 41
-30.0
 62
     5
 63
     7
 74
     0
 91
        4
 64
     7
 65
   257
 75
     1
175
     1
 42
1.0
 92
        8
 66
     7
 43
1.0
 76
     1
 77
     6
 78
     2
 67
     7
 79
     5
170
     0
171
     0
290
     0
174
     0
 93
        1
 44
0.0
173
     0
291
     1
 45
0.0
1001
ACAD
1000
AcDbSavedByObjectVersion
1070
     0
  0
VISUALSTYLE
  5
19C04
102
{ACAD_REACTORS
330
19BF8
102
}
330
19BF8
100
AcDbVisualStyle
  2
Brighten
 70
    12
 71
     2
 72
     2
 73
     0
 90
        0
 40
-0.6
 41
-30.0
 62
     5
 63
     7
 74
     1
 91
        4
 64
     7
 65
   257
 75
     1
175
     1
 42
1.0
 92
        8
 66
     7
 43
1.0
 76
     1
 77
     6
 78
     2
 67
     7
 79
     5
170
     0
171
     0
290
     0
174
     0
 93
        1
 44
50.0
173
     0
291
     1
 45
0.0
1001
ACAD
1000
AcDbSavedByObjectVersion
1070
     0
  0
VISUALSTYLE
  5
19C08
102
{ACAD_REACTORS
330
19BF8
102
}
330
19BF8
100
AcDbVisualStyle
  2
ColorChange
 70
    16
 71
     2
 72
     2
 73
     3
 90
        0
 40
-0.6
 41
-30.0
 62
     5
 63
     8
 74
     1
 91
        4
 64
     7
 65
   257
 75
     1
175
     1
 42
1.0
 92
        8
 66
     8
 43
1.0
 76
     1
 77
     6
 78
     2
 67
     7
 79
     5
170
     0
171
     0
290
     0
174
     0
 93
        1
 44
0.0
173
     0
291
     1
 45
0.0
1001
ACAD
1000
AcDbSavedByObjectVersion
1070
     0
  0
VISUALSTYLE
  5
19C01
102
{ACAD_REACTORS
330
19BF8
102
}
330
19BF8
100
AcDbVisualStyle
  2
Conceptual
 70
     9
 71
     3
 72
     2
 73
     0
 90
        0
 40
-0.6
 41
-30.0
 62
     5
 63
     7
 74
     2
 91
        2
 64
     7
 65
   257
 75
     1
175
     1
 42
40.0
 92
        8
 66
     7
 43
1.0
 76
     1
 77
     6
 78
     2
 67
     7
 79
     3
170
     0
171
     0
290
     0
174
     0
 93
        1
 44
0.0
173
     0
291
     0
 45
0.0
1001
ACAD
1000
AcDbSavedByObjectVersion
1070
     0
  0
VISUALSTYLE
  5
19C03
102
{ACAD_REACTORS
330
19BF8
102
}
330
19BF8
100
AcDbVisualStyle
  2
Dim
 70
    11
 71
     2
 72
     2
 73
     0
 90
        0
 40
-0.6
 41
-30.0
 62
     5
 63
     7
 74
     1
 91
        4
 64
     7
 65
   257
 75
     1
175
     1
 42
1.0
 92
        8
 66
     7
 43
1.0
 76
     1
 77
     6
 78
     2
 67
     7
 79
     5
170
     0
171
     0
290
     0
174
     0
 93
        1
 44
-50.0
173
     0
291
     1
 45
0.0
1001
ACAD
1000
AcDbSavedByObjectVersion
1070
     0
  0
VISUALSTYLE
  5
19C07
102
{ACAD_REACTORS
330
19BF8
102
}
330
19BF8
100
AcDbVisualStyle
  2
Facepattern
 70
    15
 71
     2
 72
     2
 73
     0
 90
        0
 40
-0.6
 41
-30.0
 62
     5
 63
     7
 74
     1
 91
        4
 64
     7
 65
   257
 75
     1
175
     1
 42
1.0
 92
        8
 66
     7
 43
1.0
 76
     1
 77
     6
 78
     2
 67
     7
 79
     5
170
     0
171
     0
290
     0
174
     0
 93
        1
 44
0.0
173
     0
291
     1
 45
0.0
1001
ACAD
1000
AcDbSavedByObjectVersion
1070
     0
  0
VISUALSTYLE
  5
19BF9
102
{ACAD_REACTORS
330
19BF8
102
}
330
19BF8
100
AcDbVisualStyle
  2
Flat
 70
     0
 71
     2
 72
     1
 73
     1
 90
        2
 40
-0.6
 41
30.0
 62
     5
 63
     7
 74
     0
 91
        4
 64
     7
 65
   257
 75
     1
175
     1
 42
1.0
 92
        8
 66
     7
 43
1.0
 76
     1
 77
     6
 78
     2
 67
     7
 79
     5
170
     0
171
     0
290
     0
174
     0
 93
       13
 44
0.0
173
     0
291
     1
 45
0.0
1001
ACAD
1000
AcDbSavedByObjectVersion
1070
     0
  0
VISUALSTYLE
  5
19BFA
102
{ACAD_REACTORS
330
19BF8
102
}
330
19BF8
100
AcDbVisualStyle
  2
FlatWithEdges
 70
     1
 71
     2
 72
     1
 73
     1
 90
        2
 40
-0.6
 41
30.0
 62
     5
 63
     7
 74
     1
 91
        4
 64
     7
 65
   257
 75
     1
175
     1
 42
1.0
 92
        0
 66
   257
 43
1.0
 76
     1
 77
     6
 78
     2
 67
     7
 79
     5
170
     0
171
     0
290
     0
174
     0
 93
       13
 44
0.0
173
     0
291
     1
 45
0.0
1001
ACAD
1000
AcDbSavedByObjectVersion
1070
     0
  0
VISUALSTYLE
  5
19BFB
102
{ACAD_REACTORS
330
19BF8
102
}
330
19BF8
100
AcDbVisualStyle
  2
Gouraud
 70
     2
 71
     2
 72
     2
 73
     1
 90
        2
 40
-0.6
 41
30.0
 62
     5
 63
     7
 74
     0
 91
        4
 64
     7
 65
   257
 75
     1
175
     1
 42
1.0
 92
        0
 66
     7
 43
1.0
 76
     1
 77
     6
 78
     2
 67
     7
 79
     5
170
     0
171
     0
290
     0
174
     0
 93
       13
 44
0.0
173
     0
291
     1
 45
0.0
1001
ACAD
1000
AcDbSavedByObjectVersion
1070
     0
  0
VISUALSTYLE
  5
19BFC
102
{ACAD_REACTORS
330
19BF8
102
}
330
19BF8
100
AcDbVisualStyle
  2
GouraudWithEdges
 70
     3
 71
     2
 72
     2
 73
     1
 90
        2
 40
-0.6
 41
30.0
 62
     5
 63
     7
 74
     1
 91
        4
 64
     7
 65
   257
 75
     1
175
     1
 42
1.0
 92
        0
 66
   257
 43
1.0
 76
     1
 77
     6
 78
     2
 67
     7
 79
     5
170
     0
171
     0
290
     0
174
     0
 93
       13
 44
0.0
173
     0
291
     1
 45
0.0
1001
ACAD
1000
AcDbSavedByObjectVersion
1070
     0
  0
VISUALSTYLE
  5
19C06
102
{ACAD_REACTORS
330
19BF8
102
}
330
19BF8
100
AcDbVisualStyle
  2
Linepattern
 70
    14
 71
     2
 72
     2
 73
     0
 90
        0
 40
-0.6
 41
-30.0
 62
     5
 63
     7
 74
     1
 91
        4
 64
     7
 65
   257
 75
     7
175
     7
 42
1.0
 92
        8
 66
     7
 43
1.0
 76
     1
 77
     6
 78
     2
 67
     7
 79
     5
170
     0
171
     0
290
     0
174
     0
 93
        1
 44
0.0
173
     0
291
     1
 45
0.0
1001
ACAD
1000
AcDbSavedByObjectVersion
1070
     0
  0
VISUALSTYLE
  5
19C02
102
{ACAD_REACTORS
330
19BF8
102
}
330
19BF8
100
AcDbVisualStyle
  2
Realistic
 70
     8
 71
     2
 72
     2
 73
     0
 90
        0
 40
-0.6
 41
-30.0
 62
     5
 63
     7
 74
     1
 91
        0
 64
     7
 65
   257
 75
     1
175
     1
 42
1.0
 92
        8
 66
     8
 43
1.0
 76
     1
 77
     6
 78
     2
 67
     7
 79
     5
170
     0
171
     0
290
     0
174
     0
 93
       13
 44
0.0
173
     0
291
     0
 45
0.0
1001
ACAD
1000
AcDbSavedByObjectVersion
1070
     0
  0
VISUALSTYLE
  5
19C05
102
{ACAD_REACTORS
330
19BF8
102
}
330
19BF8
100
AcDbVisualStyle
  2
Thicken
 70
    13
 71
     2
 72
     2
 73
     0
 90
        0
 40
-0.6
 41
-30.0
 62
     5
 63
     7
 74
     1
 91
        4
 64
     7
 65
   257
 75
     1
175
     1
 42
1.0
 92
       12
 66
     7
 43
1.0
 76
     1
 77
     6
 78
     2
 67
     7
 79
     5
170
     0
171
     0
290
     0
174
     0
 93
        1
 44
0.0
173
     0
291
     1
 45
0.0
1001
ACAD
1000
AcDbSavedByObjectVersion
1070
     0
  0
DICTIONARYVAR
  5
19BF3
102
{ACAD_REACTORS
330
169
102
}
330
169
100
DictionaryVariables
280
     0
  1
STANDARD
  0
DICTIONARYVAR
  5
16A
102
{ACAD_REACTORS
330
169
102
}
330
169
100
DictionaryVariables
280
     0
  1
1
  0
DICTIONARYVAR
  5
19C39
102
{ACAD_REACTORS
330
169
102
}
330
169
100
DictionaryVariables
280
     0
  1
0
  0
DICTIONARYVAR
  5
19C38
102
{ACAD_REACTORS
330
169
102
}
330
169
100
DictionaryVariables
280
     0
  1
127
  0
XRECORD
  5
177
102
{ACAD_REACTORS
330
176
102
}
330
176
100
AcDbXrecord
280
     1
 91
      476
330
17A
 90
        8
 62
     7
370
    -3
331
15
  1
Color_7
330
179
 90
        8
 62
     7
370
    -3
331
15
  1
Color_7
330
178
 90
        8
 62
     7
370
    -3
331
15
  1
Color_7
330
128
 90
        0
 62
     7
370
    -3
331
15
  1
Color_7
330
10
 90
        8
 62
     7
370
    -3
331
15
  1
Color_7
  0
DICTIONARY
  5
19C3F
330
21
100
AcDbDictionary
280
     1
281
     1
  3
ACAD_XREC_ROUNDTRIP
360
19C40
  0
DICTIONARY
  5
19C3D
330
1D
100
AcDbDictionary
280
     1
281
     1
  3
ACAD_XREC_ROUNDTRIP
360
19C3E
  0
DICTIONARY
  5
19C45
330
19BF6
100
AcDbDictionary
280
     1
281
     1
  3
ACAD_XREC_ROUNDTRIP
360
19C46
  0
DICTIONARY
  5
19C43
330
19BF5
100
AcDbDictionary
280
     1
281
     1
  3
ACAD_XREC_ROUNDTRIP
360
19C44
  0
DICTIONARY
  5
19C47
330
19BF7
100
AcDbDictionary
280
     1
281
     1
  3
ACAD_XREC_ROUNDTRIP
360
19C48
  0
DICTIONARY
  5
19C41
330
199B6
100
AcDbDictionary
280
     1
281
     1
  3
ACAD_XREC_ROUNDTRIP
360
19C42
  0
XRECORD
  5
19C40
102
{ACAD_REACTORS
330
19C3F
102
}
330
19C3F
100
AcDbXrecord
280
     1
102
SHADEPLOT
 70
     0
102
SHADEPLOTRESLEVEL
 70
     2
102
SHADEPLOTCUSTOMDPI
 70
   300
  0
XRECORD
  5
19C3E
102
{ACAD_REACTORS
330
19C3D
102
}
330
19C3D
100
AcDbXrecord
280
     1
102
SHADEPLOT
 70
     0
102
SHADEPLOTRESLEVEL
 70
     2
102
SHADEPLOTCUSTOMDPI
 70
   300
  0
XRECORD
  5
19C46
102
{ACAD_REACTORS
330
19C45
102
}
330
19C45
100
AcDbXrecord
280
     1
102
MATERIAL
148
0.0
149
0.0
149
0.0
 93
        0
 94
       63
282
     0
 72
     1
 77
     1
171
     1
175
     1
179
     1
273
     0
  0
XRECORD
  5
19C44
102
{ACAD_REACTORS
330
19C43
102
}
330
19C43
100
AcDbXrecord
280
     1
102
MATERIAL
148
0.0
149
0.0
149
0.0
 93
        0
 94
       63
282
     0
 72
     1
 77
     1
171
     1
175
     1
179
     1
273
     0
  0
XRECORD
  5
19C48
102
{ACAD_REACTORS
330
19C47
102
}
330
19C47
100
AcDbXrecord
280
     1
102
MATERIAL
148
0.0
149
0.0
149
0.0
 93
        0
 94
       63
282
     0
 72
     1
 77
     1
171
     1
175
     1
179
     1
273
     0
  0
XRECORD
  5
19C42
102
{ACAD_REACTORS
330
19C41
102
}
330
19C41
100
AcDbXrecord
280
     1
102
ACAD_ROUNDTRIP_PRE2007_TABLESTYLE
 90
        4
 91
        0
  1

 92
        4
 93
        0
  2

 94
        4
 95
        0
  3

  0
ENDSEC
  0
EOF
