  0
SECTION
  2
HEADER
  9
$ACADVER
  1
AC1018
  9
$ACADMAINTVER
 70
    76
  9
$DWGCODEPAGE
  3
ANSI_932
  9
$INSBASE
 10
0.0
 20
0.0
 30
0.0
  9
$EXTMIN
 10
1012.134496451829
 20
-635.9999413188345
 30
-0.0015258207003583
  9
$EXTMAX
 10
1336.103978996518
 20
-355.6216289311251
 30
0.0000000349246037
  9
$LIMMIN
 10
0.0
 20
0.0
  9
$LIMMAX
 10
420.0
 20
297.0
  9
$ORTHOMODE
 70
     0
  9
$REGENMODE
 70
     1
  9
$FILLMODE
 70
     1
  9
$QTEXTMODE
 70
     0
  9
$MIRRTEXT
 70
     1
  9
$LTSCALE
 40
1.0
  9
$ATTMODE
 70
     1
  9
$TEXTSIZE
 40
5.0
  9
$TRACEWID
 40
0.05
  9
$TEXTSTYLE
  7
ACAD
  9
$CLAYER
  8
躯体
  9
$CELTYPE
  6
CONTINUOUS
  9
$CECOLOR
 62
     4
  9
$CELTSCALE
 40
1.0
  9
$DISPSILH
 70
     0
  9
$DIMSCALE
 40
1.0
  9
$DIMASZ
 40
1.0
  9
$DIMEXO
 40
0.0
  9
$DIMDLI
 40
0.38
  9
$DIMRND
 40
0.0
  9
$DIMDLE
 40
0.0
  9
$DIMEXE
 40
0.0
  9
$DIMTP
 40
0.0
  9
$DIMTM
 40
0.0
  9
$DIMTXT
 40
5.0
  9
$DIMCEN
 40
0.09
  9
$DIMTSZ
 40
0.0
  9
$DIMTOL
 70
     0
  9
$DIMLIM
 70
     0
  9
$DIMTIH
 70
     0
  9
$DIMTOH
 70
     1
  9
$DIMSE1
 70
     0
  9
$DIMSE2
 70
     0
  9
$DIMTAD
 70
     1
  9
$DIMZIN
 70
     0
  9
$DIMBLK
  1
DotSmall
  9
$DIMASO
 70
     1
  9
$DIMSHO
 70
     1
  9
$DIMPOST
  1

  9
$DIMAPOST
  1

  9
$DIMALT
 70
     0
  9
$DIMALTD
 70
     2
  9
$DIMALTF
 40
25.4
  9
$DIMLFAC
 40
1.0
  9
$DIMTOFL
 70
     0
  9
$DIMTVP
 40
0.0
  9
$DIMTIX
 70
     1
  9
$DIMSOXD
 70
     0
  9
$DIMSAH
 70
     0
  9
$DIMBLK1
  1

  9
$DIMBLK2
  1

  9
$DIMSTYLE
  2
111
  9
$DIMCLRD
 70
     4
  9
$DIMCLRE
 70
     4
  9
$DIMCLRT
 70
     3
  9
$DIMTFAC
 40
1.0
  9
$DIMGAP
 40
1.0
  9
$DIMJUST
 70
     0
  9
$DIMSD1
 70
     0
  9
$DIMSD2
 70
     0
  9
$DIMTOLJ
 70
     1
  9
$DIMTZIN
 70
     0
  9
$DIMALTZ
 70
     0
  9
$DIMALTTZ
 70
     0
  9
$DIMUPT
 70
     0
  9
$DIMDEC
 70
     0
  9
$DIMTDEC
 70
     0
  9
$DIMALTU
 70
     2
  9
$DIMALTTD
 70
     2
  9
$DIMTXSTY
  7
ACAD
  9
$DIMAUNIT
 70
     0
  9
$DIMADEC
 70
     0
  9
$DIMALTRND
 40
0.0
  9
$DIMAZIN
 70
     0
  9
$DIMDSEP
 70
    46
  9
$DIMATFIT
 70
     0
  9
$DIMFRAC
 70
     0
  9
$DIMLDRBLK
  1
None
  9
$DIMLUNIT
 70
     2
  9
$DIMLWD
 70
    -2
  9
$DIMLWE
 70
    -2
  9
$DIMTMOVE
 70
     0
  9
$LUNITS
 70
     2
  9
$LUPREC
 70
     4
  9
$SKETCHINC
 40
0.1
  9
$FILLETRAD
 40
0.0
  9
$AUNITS
 70
     0
  9
$AUPREC
 70
     0
  9
$MENU
  1
.
  9
$ELEVATION
 40
0.0
  9
$PELEVATION
 40
0.0
  9
$THICKNESS
 40
0.0
  9
$LIMCHECK
 70
     0
  9
$CHAMFERA
 40
0.0
  9
$CHAMFERB
 40
0.0
  9
$CHAMFERC
 40
0.0
  9
$CHAMFERD
 40
0.0
  9
$SKPOLY
 70
     0
  9
$TDCREATE
 40
2454316.693457674
  9
$TDUCREATE
 40
2454316.318457674
  9
$TDUPDATE
 40
2454477.441863634
  9
$TDUUPDATE
 40
2454477.066863634
  9
$TDINDWG
 40
0.2238932639
  9
$TDUSRTIMER
 40
0.2238930787
  9
$USRTIMER
 70
     1
  9
$ANGBASE
 50
0.0
  9
$ANGDIR
 70
     0
  9
$PDMODE
 70
     0
  9
$PDSIZE
 40
0.0
  9
$PLINEWID
 40
0.0
  9
$SPLFRAME
 70
     0
  9
$SPLINETYPE
 70
     6
  9
$SPLINESEGS
 70
     8
  9
$HANDSEED
  5
538C
  9
$SURFTAB1
 70
     6
  9
$SURFTAB2
 70
     6
  9
$SURFTYPE
 70
     6
  9
$SURFU
 70
     6
  9
$SURFV
 70
     6
  9
$UCSBASE
  2

  9
$UCSNAME
  2

  9
$UCSORG
 10
0.0
 20
0.0
 30
0.0
  9
$UCSXDIR
 10
1.0
 20
0.0
 30
0.0
  9
$UCSYDIR
 10
0.0
 20
1.0
 30
0.0
  9
$UCSORTHOREF
  2

  9
$UCSORTHOVIEW
 70
     0
  9
$UCSORGTOP
 10
0.0
 20
0.0
 30
0.0
  9
$UCSORGBOTTOM
 10
0.0
 20
0.0
 30
0.0
  9
$UCSORGLEFT
 10
0.0
 20
0.0
 30
0.0
  9
$UCSORGRIGHT
 10
0.0
 20
0.0
 30
0.0
  9
$UCSORGFRONT
 10
0.0
 20
0.0
 30
0.0
  9
$UCSORGBACK
 10
0.0
 20
0.0
 30
0.0
  9
$PUCSBASE
  2

  9
$PUCSNAME
  2

  9
$PUCSORG
 10
0.0
 20
0.0
 30
0.0
  9
$PUCSXDIR
 10
1.0
 20
0.0
 30
0.0
  9
$PUCSYDIR
 10
0.0
 20
1.0
 30
0.0
  9
$PUCSORTHOREF
  2

  9
$PUCSORTHOVIEW
 70
     0
  9
$PUCSORGTOP
 10
0.0
 20
0.0
 30
0.0
  9
$PUCSORGBOTTOM
 10
0.0
 20
0.0
 30
0.0
  9
$PUCSORGLEFT
 10
0.0
 20
0.0
 30
0.0
  9
$PUCSORGRIGHT
 10
0.0
 20
0.0
 30
0.0
  9
$PUCSORGFRONT
 10
0.0
 20
0.0
 30
0.0
  9
$PUCSORGBACK
 10
0.0
 20
0.0
 30
0.0
  9
$USERI1
 70
     0
  9
$USERI2
 70
     0
  9
$USERI3
 70
     0
  9
$USERI4
 70
     0
  9
$USERI5
 70
     0
  9
$USERR1
 40
0.0
  9
$USERR2
 40
0.0
  9
$USERR3
 40
0.0
  9
$USERR4
 40
0.0
  9
$USERR5
 40
0.0
  9
$WORLDVIEW
 70
     1
  9
$SHADEDGE
 70
     3
  9
$SHADEDIF
 70
    70
  9
$TILEMODE
 70
     1
  9
$MAXACTVP
 70
    48
  9
$PINSBASE
 10
0.0
 20
0.0
 30
0.0
  9
$PLIMCHECK
 70
     0
  9
$PEXTMIN
 10
1.000000000000000E+20
 20
1.000000000000000E+20
 30
1.000000000000000E+20
  9
$PEXTMAX
 10
-1.000000000000000E+20
 20
-1.000000000000000E+20
 30
-1.000000000000000E+20
  9
$PLIMMIN
 10
0.0
 20
0.0
  9
$PLIMMAX
 10
12.0
 20
9.0
  9
$UNITMODE
 70
     0
  9
$VISRETAIN
 70
     0
  9
$PLINEGEN
 70
     0
  9
$PSLTSCALE
 70
     1
  9
$TREEDEPTH
 70
  3020
  9
$CMLSTYLE
  2
Standard
  9
$CMLJUST
 70
     0
  9
$CMLSCALE
 40
1.0
  9
$PROXYGRAPHICS
 70
     1
  9
$MEASUREMENT
 70
     0
  9
$CELWEIGHT
370
    -1
  9
$ENDCAPS
280
     0
  9
$JOINSTYLE
280
     0
  9
$LWDISPLAY
290
     0
  9
$INSUNITS
 70
     0
  9
$HYPERLINKBASE
  1

  9
$STYLESHEET
  1

  9
$XEDIT
290
     1
  9
$CEPSNTYPE
380
     0
  9
$PSTYLEMODE
290
     1
  9
$FINGERPRINTGUID
  2
{CC7D6DEE-A9F1-4F3E-AC95-C84B62CCA3FD}
  9
$VERSIONGUID
  2
{8753FFA6-9013-4A7F-8D6A-794FD51FEC6F}
  9
$EXTNAMES
290
     1
  9
$PSVPSCALE
 40
0.0
  9
$OLESTARTUP
290
     0
  9
$SORTENTS
280
   127
  9
$INDEXCTL
280
     0
  9
$HIDETEXT
280
     0
  9
$XCLIPFRAME
290
     0
  9
$HALOGAP
280
     0
  9
$OBSCOLOR
 70
   257
  9
$OBSLTYPE
280
     0
  9
$INTERSECTIONDISPLAY
280
     0
  9
$INTERSECTIONCOLOR
 70
   257
  9
$DIMASSOC
280
     1
  9
$PROJECTNAME
  1

  0
ENDSEC
  0
SECTION
  2
CLASSES
  0
CLASS
  1
ACDBDICTIONARYWDFLT
  2
AcDbDictionaryWithDefault
  3
ObjectDBX Classes
 90
        0
 91
        1
280
     0
281
     0
  0
CLASS
  1
DICTIONARYVAR
  2
AcDbDictionaryVar
  3
ObjectDBX Classes
 90
        0
 91
        2
280
     0
281
     0
  0
CLASS
  1
TABLESTYLE
  2
AcDbTableStyle
  3
ObjectDBX Classes
 90
     2047
 91
        1
280
     0
281
     0
  0
ENDSEC
  0
SECTION
  2
TABLES
  0
TABLE
  2
VPORT
  5
8
330
0
100
AcDbSymbolTable
 70
     3
  0
VPORT
  5
538B
330
8
100
AcDbSymbolTableRecord
100
AcDbViewportTableRecord
  2
*Active
 70
     0
 10
0.0
 20
0.0
 11
1.0
 21
1.0
 12
1174.119237724173
 22
-495.8107851249798
 13
0.0
 23
0.0
 14
1.0
 24
1.0
 15
0.0
 25
0.0
 16
0.0
 26
0.0
 36
1.0
 17
0.0
 27
0.0
 37
0.0
 40
282.7147983242737
 41
1.684283727399165
 42
50.0
 43
0.0
 44
0.0
 50
0.0
 51
0.0
 71
     0
 72
   100
 73
     1
 74
     1
 75
     0
 76
     0
 77
     0
 78
     0
281
     0
 65
     1
110
0.0
120
0.0
130
0.0
111
1.0
121
0.0
131
0.0
112
0.0
122
1.0
132
0.0
 79
     0
146
0.0
  0
ENDTAB
  0
TABLE
  2
LTYPE
  5
5
330
0
100
AcDbSymbolTable
 70
    50
  0
LTYPE
  5
13
330
5
100
AcDbSymbolTableRecord
100
AcDbLinetypeTableRecord
  2
ByBlock
 70
     0
  3

 72
    65
 73
     0
 40
0.0
  0
LTYPE
  5
14
330
5
100
AcDbSymbolTableRecord
100
AcDbLinetypeTableRecord
  2
ByLayer
 70
     0
  3

 72
    65
 73
     0
 40
0.0
  0
LTYPE
  5
15
330
5
100
AcDbSymbolTableRecord
100
AcDbLinetypeTableRecord
  2
CONTINUOUS
 70
     0
  3
実線
 72
    65
 73
     0
 40
0.0
  0
LTYPE
  5
22
330
5
100
AcDbSymbolTableRecord
100
AcDbLinetypeTableRecord
  2
DASHED1
 70
     0
  3
--  --  --  --  --  --  --  --  
 72
    65
 73
     2
 40
2.5
 49
1.25
 74
     0
 49
-1.25
 74
     0
  0
LTYPE
  5
23
330
5
100
AcDbSymbolTableRecord
100
AcDbLinetypeTableRecord
  2
DASHED2
 70
     0
  3
----    ----    ----    ----    
 72
    65
 73
     2
 40
5.0
 49
2.5
 74
     0
 49
-2.5
 74
     0
  0
LTYPE
  5
24
330
5
100
AcDbSymbolTableRecord
100
AcDbLinetypeTableRecord
  2
DASHED3
 70
     0
  3
------  ------  ------  ------  
 72
    65
 73
     2
 40
5.0
 49
3.75
 74
     0
 49
-1.25
 74
     0
  0
LTYPE
  5
25
330
5
100
AcDbSymbolTableRecord
100
AcDbLinetypeTableRecord
  2
CENTER1
 70
     0
  3
----- - ----- - ----- - ----- - 
 72
    65
 73
     4
 40
10.0
 49
6.25
 74
     0
 49
-1.25
 74
     0
 49
1.25
 74
     0
 49
-1.25
 74
     0
  0
LTYPE
  5
26
330
5
100
AcDbSymbolTableRecord
100
AcDbLinetypeTableRecord
  2
CENTER2
 70
     0
  3
----------  --  ----------  --  
 72
    65
 73
     4
 40
20.0
 49
12.5
 74
     0
 49
-2.5
 74
     0
 49
2.5
 74
     0
 49
-2.5
 74
     0
  0
LTYPE
  5
27
330
5
100
AcDbSymbolTableRecord
100
AcDbLinetypeTableRecord
  2
PHANTOM1
 70
     0
  3
--- - - --- - - --- - - --- - - 
 72
    65
 73
     6
 40
10.0
 49
3.25
 74
     0
 49
-1.25
 74
     0
 49
1.25
 74
     0
 49
-1.25
 74
     0
 49
1.25
 74
     0
 49
-1.25
 74
     0
  0
LTYPE
  5
28
330
5
100
AcDbSymbolTableRecord
100
AcDbLinetypeTableRecord
  2
PHANTOM2
 70
     0
  3
--------  -  -  --------  -  -  
 72
    65
 73
     6
 40
20.0
 49
10.0
 74
     0
 49
-2.5
 74
     0
 49
1.25
 74
     0
 49
-2.5
 74
     0
 49
1.25
 74
     0
 49
-2.5
 74
     0
  0
LTYPE
  5
29
330
5
100
AcDbSymbolTableRecord
100
AcDbLinetypeTableRecord
  2
DOT
 70
     0
  3
-   -   -   -   -   -   -   -   
 72
    65
 73
     2
 40
2.5
 49
0.625
 74
     0
 49
-1.875
 74
     0
  0
LTYPE
  5
2A
330
5
100
AcDbSymbolTableRecord
100
AcDbLinetypeTableRecord
  2
DUMMY
 70
     0
  3
ダミー
 72
    65
 73
     0
 40
0.0
  0
LTYPE
  5
2B
330
5
100
AcDbSymbolTableRecord
100
AcDbLinetypeTableRecord
  2
RAND1
 70
     0
  3
ランダム線1
 72
    65
 73
     4
 40
10.0
 49
1.0
 74
     0
 49
-2.0
 74
     0
 49
3.0
 74
     0
 49
-4.0
 74
     0
  0
LTYPE
  5
2C
330
5
100
AcDbSymbolTableRecord
100
AcDbLinetypeTableRecord
  2
RAND2
 70
     0
  3
ランダム線2
 72
    65
 73
     4
 40
14.0
 49
2.0
 74
     0
 49
-3.0
 74
     0
 49
4.0
 74
     0
 49
-5.0
 74
     0
  0
LTYPE
  5
2D
330
5
100
AcDbSymbolTableRecord
100
AcDbLinetypeTableRecord
  2
RAND3
 70
     0
  3
ランダム線3
 72
    65
 73
     4
 40
18.0
 49
3.0
 74
     0
 49
-4.0
 74
     0
 49
5.0
 74
     0
 49
-6.0
 74
     0
  0
LTYPE
  5
2E
330
5
100
AcDbSymbolTableRecord
100
AcDbLinetypeTableRecord
  2
RAND4
 70
     0
  3
ランダム線4
 72
    65
 73
     4
 40
22.0
 49
4.0
 74
     0
 49
-5.0
 74
     0
 49
6.0
 74
     0
 49
-7.0
 74
     0
  0
LTYPE
  5
2F
330
5
100
AcDbSymbolTableRecord
100
AcDbLinetypeTableRecord
  2
RAND5
 70
     0
  3
ランダム線5
 72
    65
 73
     4
 40
26.0
 49
5.0
 74
     0
 49
-6.0
 74
     0
 49
7.0
 74
     0
 49
-8.0
 74
     0
  0
LTYPE
  5
30
330
5
100
AcDbSymbolTableRecord
100
AcDbLinetypeTableRecord
  2
LONG1
 70
     0
  3
----------  --  ----------  --  
 72
    65
 73
     4
 40
40.0
 49
32.5
 74
     0
 49
-2.5
 74
     0
 49
2.5
 74
     0
 49
-2.5
 74
     0
  0
LTYPE
  5
31
330
5
100
AcDbSymbolTableRecord
100
AcDbLinetypeTableRecord
  2
LONG2
 70
     0
  3
--------  -  -  --------  -  -  
 72
    65
 73
     6
 40
40.0
 49
30.0
 74
     0
 49
-2.5
 74
     0
 49
1.25
 74
     0
 49
-2.5
 74
     0
 49
1.25
 74
     0
 49
-2.5
 74
     0
  0
LTYPE
  5
32
330
5
100
AcDbSymbolTableRecord
100
AcDbLinetypeTableRecord
  2
LONG3
 70
     0
  3
+++++++++++++++..+++++++++++++++
 72
    65
 73
     2
 40
40.0
 49
37.5
 74
     0
 49
-2.5
 74
     0
  0
LTYPE
  5
33
330
5
100
AcDbSymbolTableRecord
100
AcDbLinetypeTableRecord
  2
LONG4
 70
     0
  3
+++++++++++++++..+++++++++++++++
 72
    65
 73
     2
 40
80.0
 49
75.0
 74
     0
 49
-5.0
 74
     0
  0
LTYPE
  5
34
330
5
100
AcDbSymbolTableRecord
100
AcDbLinetypeTableRecord
  2
LONG5
 70
     0
  3
----------  --  ----------  --  
 72
    65
 73
     4
 40
60.0
 49
37.5
 74
     0
 49
-7.5
 74
     0
 49
7.5
 74
     0
 49
-7.5
 74
     0
  0
LTYPE
  5
35
330
5
100
AcDbSymbolTableRecord
100
AcDbLinetypeTableRecord
  2
DASHED
 70
     0
  3
-------   -------------   ------
 72
    65
 73
     2
 40
7.5
 49
6.0
 74
     0
 49
-1.5
 74
     0
  0
LTYPE
  5
36
330
5
100
AcDbSymbolTableRecord
100
AcDbLinetypeTableRecord
  2
DASHED_SPACED
 70
     0
  3
----        --------        ----
 72
    65
 73
     2
 40
12.0
 49
6.0
 74
     0
 49
-6.0
 74
     0
  0
LTYPE
  5
37
330
5
100
AcDbSymbolTableRecord
100
AcDbLinetypeTableRecord
  2
LONG_DASHED_DOTTED
 70
     0
  3
------------- --- --------------
 72
    65
 73
     4
 40
15.25
 49
12.0
 74
     0
 49
-1.5
 74
     0
 49
0.25
 74
     0
 49
-1.5
 74
     0
  0
LTYPE
  5
38
330
5
100
AcDbSymbolTableRecord
100
AcDbLinetypeTableRecord
  2
LONG_DASHED_DOUBLE-DOTTED
 70
     0
  3
----------- --- --- ------------
 72
    65
 73
     6
 40
17.0
 49
12.0
 74
     0
 49
-1.5
 74
     0
 49
0.25
 74
     0
 49
-1.5
 74
     0
 49
0.25
 74
     0
 49
-1.5
 74
     0
  0
LTYPE
  5
39
330
5
100
AcDbSymbolTableRecord
100
AcDbLinetypeTableRecord
  2
LONG_DASHED_TRIPLICATE-DOTTED
 70
     0
  3
--------- --- --- --- ----------
 72
    65
 73
     8
 40
18.75
 49
12.0
 74
     0
 49
-1.5
 74
     0
 49
0.25
 74
     0
 49
-1.5
 74
     0
 49
0.25
 74
     0
 49
-1.5
 74
     0
 49
0.25
 74
     0
 49
-1.5
 74
     0
  0
LTYPE
  5
3A
330
5
100
AcDbSymbolTableRecord
100
AcDbLinetypeTableRecord
  2
DOTTED
 70
     0
  3
   -       -       -       -    
 72
    65
 73
     2
 40
1.75
 49
0.25
 74
     0
 49
-1.5
 74
     0
  0
LTYPE
  5
3B
330
5
100
AcDbSymbolTableRecord
100
AcDbLinetypeTableRecord
  2
CHAIN
 70
     0
  3
-------------- -- --------------
 72
    65
 73
     4
 40
18.5
 49
12.0
 74
     0
 49
-1.5
 74
     0
 49
3.5
 74
     0
 49
-1.5
 74
     0
  0
LTYPE
  5
3C
330
5
100
AcDbSymbolTableRecord
100
AcDbLinetypeTableRecord
  2
CHAIN_DOUBLE_DASH
 70
     0
  3
------------ -- -- -------------
 72
    65
 73
     6
 40
23.5
 49
12.0
 74
     0
 49
-1.5
 74
     0
 49
3.5
 74
     0
 49
-1.5
 74
     0
 49
3.5
 74
     0
 49
-1.5
 74
     0
  0
LTYPE
  5
3D
330
5
100
AcDbSymbolTableRecord
100
AcDbLinetypeTableRecord
  2
DASHED_DOTTED
 70
     0
  3
-----------     -     ----------
 72
    65
 73
     4
 40
9.25
 49
6.0
 74
     0
 49
-1.5
 74
     0
 49
0.25
 74
     0
 49
-1.5
 74
     0
  0
LTYPE
  5
3E
330
5
100
AcDbSymbolTableRecord
100
AcDbLinetypeTableRecord
  2
DOUBLE-DASHED_DOTTED
 70
     0
  3
------   -----------   -   -----
 72
    65
 73
     6
 40
16.75
 49
6.0
 74
     0
 49
-1.5
 74
     0
 49
6.0
 74
     0
 49
-1.5
 74
     0
 49
0.25
 74
     0
 49
-1.5
 74
     0
  0
LTYPE
  5
3F
330
5
100
AcDbSymbolTableRecord
100
AcDbLinetypeTableRecord
  2
DASHED_DOUBLE-DOTTED
 70
     0
  3
---------    -    -    ---------
 72
    65
 73
     6
 40
11.0
 49
6.0
 74
     0
 49
-1.5
 74
     0
 49
0.25
 74
     0
 49
-1.5
 74
     0
 49
0.25
 74
     0
 49
-1.5
 74
     0
  0
LTYPE
  5
40
330
5
100
AcDbSymbolTableRecord
100
AcDbLinetypeTableRecord
  2
DOUBLE-DASHED_DOUBLE-DOTTED
 70
     0
  3
-----   ---------   -   -   ----
 72
    65
 73
     8
 40
18.5
 49
6.0
 74
     0
 49
-1.5
 74
     0
 49
6.0
 74
     0
 49
-1.5
 74
     0
 49
0.25
 74
     0
 49
-1.5
 74
     0
 49
0.25
 74
     0
 49
-1.5
 74
     0
  0
LTYPE
  5
41
330
5
100
AcDbSymbolTableRecord
100
AcDbLinetypeTableRecord
  2
DASHED_TRIPLICATE-DOTTED
 70
     0
  3
-------    -    -    -    ------
 72
    65
 73
     8
 40
12.75
 49
6.0
 74
     0
 49
-1.5
 74
     0
 49
0.25
 74
     0
 49
-1.5
 74
     0
 49
0.25
 74
     0
 49
-1.5
 74
     0
 49
0.25
 74
     0
 49
-1.5
 74
     0
  0
LTYPE
  5
42
330
5
100
AcDbSymbolTableRecord
100
AcDbLinetypeTableRecord
  2
DOUBLE-DASHED_TRIPLICATE-DOTTED
 70
     0
  3
-----  ---------  -  -  -  -----
 72
    65
 73
    10
 40
20.24999999999999
 49
6.0
 74
     0
 49
-1.5
 74
     0
 49
6.0
 74
     0
 49
-1.5
 74
     0
 49
0.25
 74
     0
 49
-1.5
 74
     0
 49
0.25
 74
     0
 49
-1.5
 74
     0
 49
0.25
 74
     0
 49
-1.5
 74
     0
  0
LTYPE
  5
43
330
5
100
AcDbSymbolTableRecord
100
AcDbLinetypeTableRecord
  2
UNDEFINED
 70
     0
  3
--------------------------------
 72
    65
 73
     0
 40
0.0
  0
LTYPE
  5
44
330
5
100
AcDbSymbolTableRecord
100
AcDbLinetypeTableRecord
  2
PLINE2
 70
     0
  3
------     -----------     -----
 72
    65
 73
     2
 40
3.0
 49
2.1
 74
     0
 49
-0.9
 74
     0
  0
LTYPE
  5
45
330
5
100
AcDbSymbolTableRecord
100
AcDbLinetypeTableRecord
  2
PLINE3
 70
     0
  3
------------   ---   -----------
 72
    65
 73
     4
 40
10.0
 49
7.0
 74
     0
 49
-1.0
 74
     0
 49
1.0
 74
     0
 49
-1.0
 74
     0
  0
LTYPE
  5
46
330
5
100
AcDbSymbolTableRecord
100
AcDbLinetypeTableRecord
  2
PLINE4
 70
     0
  3
---------   ---   ---   --------
 72
    65
 73
     6
 40
10.0
 49
5.0
 74
     0
 49
-1.0
 74
     0
 49
1.0
 74
     0
 49
-1.0
 74
     0
 49
1.0
 74
     0
 49
-1.0
 74
     0
  0
LTYPE
  5
47
330
5
100
AcDbSymbolTableRecord
100
AcDbLinetypeTableRecord
  2
PLINE5
 70
     0
  3
------     -----------     -----
 72
    65
 73
     2
 40
5.0
 49
3.5
 74
     0
 49
-1.5
 74
     0
  0
LTYPE
  5
48
330
5
100
AcDbSymbolTableRecord
100
AcDbLinetypeTableRecord
  2
PLINE6
 70
     0
  3
------------   ---   -----------
 72
    65
 73
     4
 40
15.0
 49
10.5
 74
     0
 49
-1.5
 74
     0
 49
1.5
 74
     0
 49
-1.5
 74
     0
  0
LTYPE
  5
49
330
5
100
AcDbSymbolTableRecord
100
AcDbLinetypeTableRecord
  2
PLINE7
 70
     0
  3
---------   ---   ---   --------
 72
    65
 73
     6
 40
15.0
 49
7.5
 74
     0
 49
-1.5
 74
     0
 49
1.5
 74
     0
 49
-1.5
 74
     0
 49
1.5
 74
     0
 49
-1.5
 74
     0
  0
LTYPE
  5
4A
330
5
100
AcDbSymbolTableRecord
100
AcDbLinetypeTableRecord
  2
PLINE8
 70
     0
  3
------     -----------     -----
 72
    65
 73
     2
 40
7.0
 49
4.9
 74
     0
 49
-2.1
 74
     0
  0
LTYPE
  5
4B
330
5
100
AcDbSymbolTableRecord
100
AcDbLinetypeTableRecord
  2
PLINE9
 70
     0
  3
------------   ---   -----------
 72
    65
 73
     4
 40
20.0
 49
14.0
 74
     0
 49
-2.0
 74
     0
 49
2.0
 74
     0
 49
-2.0
 74
     0
  0
LTYPE
  5
4C
330
5
100
AcDbSymbolTableRecord
100
AcDbLinetypeTableRecord
  2
PLINE10
 70
     0
  3
---------   ---   ---   --------
 72
    65
 73
     6
 40
20.0
 49
10.0
 74
     0
 49
-2.0
 74
     0
 49
2.0
 74
     0
 49
-2.0
 74
     0
 49
2.0
 74
     0
 49
-2.0
 74
     0
  0
LTYPE
  5
4D
330
5
100
AcDbSymbolTableRecord
100
AcDbLinetypeTableRecord
  2
PLINE11
 70
     0
  3
------     -----------     -----
 72
    65
 73
     2
 40
9.0
 49
6.299999999999998
 74
     0
 49
-2.7
 74
     0
  0
LTYPE
  5
4E
330
5
100
AcDbSymbolTableRecord
100
AcDbLinetypeTableRecord
  2
PLINE12
 70
     0
  3
------------   ---   -----------
 72
    65
 73
     4
 40
25.0
 49
17.5
 74
     0
 49
-2.5
 74
     0
 49
2.5
 74
     0
 49
-2.5
 74
     0
  0
LTYPE
  5
4F
330
5
100
AcDbSymbolTableRecord
100
AcDbLinetypeTableRecord
  2
PLINE13
 70
     0
  3
---------   ---   ---   --------
 72
    65
 73
     6
 40
25.0
 49
12.5
 74
     0
 49
-2.5
 74
     0
 49
2.5
 74
     0
 49
-2.5
 74
     0
 49
2.5
 74
     0
 49
-2.5
 74
     0
  0
LTYPE
  5
50
330
5
100
AcDbSymbolTableRecord
100
AcDbLinetypeTableRecord
  2
PLINE14
 70
     0
  3
------     -----------     -----
 72
    65
 73
     2
 40
11.0
 49
7.7
 74
     0
 49
-3.299999999999998
 74
     0
  0
LTYPE
  5
51
330
5
100
AcDbSymbolTableRecord
100
AcDbLinetypeTableRecord
  2
PLINE15
 70
     0
  3
------------   ---   -----------
 72
    65
 73
     4
 40
30.0
 49
21.0
 74
     0
 49
-3.0
 74
     0
 49
3.0
 74
     0
 49
-3.0
 74
     0
  0
LTYPE
  5
52
330
5
100
AcDbSymbolTableRecord
100
AcDbLinetypeTableRecord
  2
PLINE16
 70
     0
  3
---------   ---   ---   --------
 72
    65
 73
     6
 40
30.0
 49
15.0
 74
     0
 49
-3.0
 74
     0
 49
3.0
 74
     0
 49
-3.0
 74
     0
 49
3.0
 74
     0
 49
-3.0
 74
     0
  0
ENDTAB
  0
TABLE
  2
LAYER
  5
2
102
{ACAD_XDICTIONARY
360
175
102
}
330
0
100
AcDbSymbolTable
 70
     6
  0
LAYER
  5
10
330
2
100
AcDbSymbolTableRecord
100
AcDbLayerTableRecord
  2
0
 70
     0
 62
     7
  6
CONTINUOUS
370
    -3
390
F
  0
LAYER
  5
128
330
2
100
AcDbSymbolTableRecord
100
AcDbLayerTableRecord
  2
Defpoints
 70
     0
 62
     7
  6
CONTINUOUS
290
     0
370
    -3
390
F
  0
LAYER
  5
178
330
2
100
AcDbSymbolTableRecord
100
AcDbLayerTableRecord
  2
寸法
 70
     0
 62
     7
  6
CONTINUOUS
370
    -3
390
F
  0
LAYER
  5
179
330
2
100
AcDbSymbolTableRecord
100
AcDbLayerTableRecord
  2
躯体
 70
     0
 62
     7
  6
CONTINUOUS
370
    -3
390
F
  0
LAYER
  5
17A
330
2
100
AcDbSymbolTableRecord
100
AcDbLayerTableRecord
  2
笠木
 70
     0
 62
     7
  6
CONTINUOUS
370
    -3
390
F
  0
LAYER
  5
17B
330
2
100
AcDbSymbolTableRecord
100
AcDbLayerTableRecord
  2
受金具
 70
     0
 62
     7
  6
CONTINUOUS
370
    -3
390
F
  0
ENDTAB
  0
TABLE
  2
STYLE
  5
3
330
0
100
AcDbSymbolTable
 70
     4
  0
STYLE
  5
11
330
3
100
AcDbSymbolTableRecord
100
AcDbTextStyleTableRecord
  2
STANDARD
 70
     0
 40
0.0
 41
1.0
 50
0.0
 71
     0
 42
0.2
  3
txt
  4
bigfont.shx
  0
STYLE
  5
53
330
3
100
AcDbSymbolTableRecord
100
AcDbTextStyleTableRecord
  2
TATEGAKI
 70
     4
 40
0.0
 41
1.0
 50
0.0
 71
     0
 42
1.0
  3
txt
  4
bigfont.shx
  0
STYLE
  5
123
330
3
100
AcDbSymbolTableRecord
100
AcDbTextStyleTableRecord
  2
ACAD
 70
     0
 40
5.0
 41
0.8
 50
0.0
 71
     0
 42
5.0
  3
romans.shx
  4
extfont.shx
  0
STYLE
  5
3A5F
330
3
100
AcDbSymbolTableRecord
100
AcDbTextStyleTableRecord
  2
VERTXT
 70
     4
 40
0.0
 41
0.8582679999999999
 50
0.0
 71
     0
 42
3.5
  3
txt.shx
  4
BIGFONT
  0
ENDTAB
  0
TABLE
  2
VIEW
  5
6
330
0
100
AcDbSymbolTable
 70
     0
  0
ENDTAB
  0
TABLE
  2
UCS
  5
7
330
0
100
AcDbSymbolTable
 70
     0
  0
ENDTAB
  0
TABLE
  2
APPID
  5
9
330
0
100
AcDbSymbolTable
 70
     9
  0
APPID
  5
12
330
9
100
AcDbSymbolTableRecord
100
AcDbRegAppTableRecord
  2
ACAD
 70
     0
  0
APPID
  5
518C
330
9
100
AcDbSymbolTableRecord
100
AcDbRegAppTableRecord
  2
ACAD_DSTYLE_DIMTEXT_FILL
 70
     0
  0
APPID
  5
518D
330
9
100
AcDbSymbolTableRecord
100
AcDbRegAppTableRecord
  2
ACAD_DSTYLE_DIMEXT_LENGTH
 70
     0
  0
APPID
  5
518E
330
9
100
AcDbSymbolTableRecord
100
AcDbRegAppTableRecord
  2
ACAD_DSTYLE_DIMEXT_ENABLED
 70
     0
  0
APPID
  5
518F
330
9
100
AcDbSymbolTableRecord
100
AcDbRegAppTableRecord
  2
ACAD_DSTYLE_DIM_LINETYPE
 70
     0
  0
APPID
  5
5190
330
9
100
AcDbSymbolTableRecord
100
AcDbRegAppTableRecord
  2
ACAD_DSTYLE_DIM_EXT1_LINETYPE
 70
     0
  0
APPID
  5
5191
330
9
100
AcDbSymbolTableRecord
100
AcDbRegAppTableRecord
  2
ACAD_DSTYLE_DIM_EXT2_LINETYPE
 70
     0
  0
APPID
  5
527D
330
9
100
AcDbSymbolTableRecord
100
AcDbRegAppTableRecord
  2
ACAD_DSTYLE_DIMJOGGED_JOGANGLE_SYMBOL
 70
     0
  0
APPID
  5
52E5
330
9
100
AcDbSymbolTableRecord
100
AcDbRegAppTableRecord
  2
ACAD_DSTYLE_DIMARC_LENGTH_SYMBOL
 70
     0
  0
ENDTAB
  0
TABLE
  2
DIMSTYLE
  5
A
330
0
100
AcDbSymbolTable
 70
     3
100
AcDbDimStyleTable
 71
     1
340
2CBB
  0
DIMSTYLE
105
11C
330
A
100
AcDbSymbolTableRecord
100
AcDbDimStyleTableRecord
  2
Standard
 70
     0
340
11
  0
DIMSTYLE
105
126
330
A
100
AcDbSymbolTableRecord
100
AcDbDimStyleTableRecord
  2
AutoCAD
 70
     0
 41
1.0
 42
0.0
 44
0.0
 73
     0
 77
     1
140
5.0
147
1.0
174
     1
176
     4
177
     4
178
     3
271
     0
272
     0
289
     0
340
123
341
11E
342
11E
  0
DIMSTYLE
105
2CBB
102
{ACAD_REACTORS
330
4F85
330
4F92
330
4F9F
330
4FC2
330
4FCF
330
4FDC
330
4FE9
102
}
330
A
100
AcDbSymbolTableRecord
100
AcDbDimStyleTableRecord
  2
111
 70
     0
 41
1.0
 42
0.0
 44
0.0
 73
     0
 77
     1
140
5.0
147
1.0
174
     1
176
     4
177
     4
178
     3
271
     0
272
     0
289
     0
340
123
341
2CB5
342
52AE
1001
ACAD_DSTYLE_DIMEXT_LENGTH
1070
   378
1040
0.0
1001
ACAD_DSTYLE_DIMEXT_ENABLED
1070
   383
1070
     0
1001
ACAD_DSTYLE_DIMARC_LENGTH_SYMBOL
1070
   379
1070
     0
1001
ACAD_DSTYLE_DIMJOGGED_JOGANGLE_SYMBOL
1070
   384
1040
0.7853981633974483
  0
ENDTAB
  0
TABLE
  2
BLOCK_RECORD
  5
1
330
0
100
AcDbSymbolTable
 70
    12
  0
BLOCK_RECORD
  5
1E
102
{ACAD_XDICTIONARY
360
28B
102
}
330
1
100
AcDbSymbolTableRecord
100
AcDbBlockTableRecord
  2
*Model_Space
340
21
  0
BLOCK_RECORD
  5
1A
102
{ACAD_XDICTIONARY
360
28D
102
}
330
1
100
AcDbSymbolTableRecord
100
AcDbBlockTableRecord
  2
*Paper_Space
340
1D
  0
BLOCK_RECORD
  5
11E
330
1
100
AcDbSymbolTableRecord
100
AcDbBlockTableRecord
  2
_Dot
340
0
  0
BLOCK_RECORD
  5
15B0
330
1
100
AcDbSymbolTableRecord
100
AcDbBlockTableRecord
  2
_None
340
0
  0
BLOCK_RECORD
  5
2CB5
330
1
100
AcDbSymbolTableRecord
100
AcDbBlockTableRecord
  2
_Open30
340
0
  0
BLOCK_RECORD
  5
35E3
330
1
100
AcDbSymbolTableRecord
100
AcDbBlockTableRecord
  2
_DotBlank
340
0
  0
BLOCK_RECORD
  5
4F86
330
1
100
AcDbSymbolTableRecord
100
AcDbBlockTableRecord
  2
*D4
340
0
  0
BLOCK_RECORD
  5
4F93
330
1
100
AcDbSymbolTableRecord
100
AcDbBlockTableRecord
  2
*D5
340
0
  0
BLOCK_RECORD
  5
4FA0
330
1
100
AcDbSymbolTableRecord
100
AcDbBlockTableRecord
  2
*D6
340
0
  0
BLOCK_RECORD
  5
4FC3
330
1
100
AcDbSymbolTableRecord
100
AcDbBlockTableRecord
  2
*D7
340
0
  0
BLOCK_RECORD
  5
4FD0
330
1
100
AcDbSymbolTableRecord
100
AcDbBlockTableRecord
  2
*D8
340
0
  0
BLOCK_RECORD
  5
4FDD
330
1
100
AcDbSymbolTableRecord
100
AcDbBlockTableRecord
  2
*D9
340
0
  0
BLOCK_RECORD
  5
4FEA
330
1
100
AcDbSymbolTableRecord
100
AcDbBlockTableRecord
  2
*D10
340
0
  0
BLOCK_RECORD
  5
52AE
330
1
100
AcDbSymbolTableRecord
100
AcDbBlockTableRecord
  2
_DotSmall
340
0
102
{BLKREFS
331
52ED
331
52EE
331
52F6
331
52F7
331
52FF
331
5300
331
5308
331
5309
331
5311
331
5312
331
531A
331
531B
331
5323
331
5324
102
}
  0
ENDTAB
  0
ENDSEC
  0
SECTION
  2
BLOCKS
  0
BLOCK
  5
1F
330
1E
100
AcDbEntity
  8
0
100
AcDbBlockBegin
  2
*Model_Space
 70
     0
 10
0.0
 20
0.0
 30
0.0
  3
*Model_Space
  1

  0
ENDBLK
  5
20
330
1E
100
AcDbEntity
  8
0
100
AcDbBlockEnd
  0
BLOCK
  5
1B
330
1A
100
AcDbEntity
 67
     1
  8
0
100
AcDbBlockBegin
  2
*Paper_Space
 70
     0
 10
0.0
 20
0.0
 30
0.0
  3
*Paper_Space
  1

  0
ENDBLK
  5
1C
330
1A
100
AcDbEntity
 67
     1
  8
0
100
AcDbBlockEnd
  0
BLOCK
  5
121
330
11E
100
AcDbEntity
  8
0
100
AcDbBlockBegin
  2
_Dot
 70
     0
 10
0.0
 20
0.0
 30
0.0
  3
_Dot
  1

  0
LWPOLYLINE
  5
11F
330
11E
100
AcDbEntity
  8
0
  6
ByBlock
 62
     0
100
AcDbPolyline
 90
        2
 70
     1
 43
0.5
 10
-0.25
 20
0.0
 42
1.0
 10
0.25
 20
0.0
 42
1.0
  0
LINE
  5
120
330
11E
100
AcDbEntity
  8
0
  6
ByBlock
 62
     0
370
    -2
100
AcDbLine
 10
-0.5
 20
0.0
 30
0.0
 11
-1.0
 21
0.0
 31
0.0
  0
ENDBLK
  5
122
330
11E
100
AcDbEntity
  8
0
100
AcDbBlockEnd
  0
BLOCK
  5
15B1
330
15B0
100
AcDbEntity
  8
0
100
AcDbBlockBegin
  2
_None
 70
     0
 10
0.0
 20
0.0
 30
0.0
  3
_None
  1

  0
ENDBLK
  5
15B2
330
15B0
100
AcDbEntity
  8
0
100
AcDbBlockEnd
  0
BLOCK
  5
2CB9
330
2CB5
100
AcDbEntity
  8
0
100
AcDbBlockBegin
  2
_Open30
 70
     0
 10
0.0
 20
0.0
 30
0.0
  3
_Open30
  1

  0
LINE
  5
2CB6
330
2CB5
100
AcDbEntity
  8
0
  6
ByBlock
 62
     0
370
    -2
100
AcDbLine
 10
-1.0
 20
0.26794919
 30
0.0
 11
0.0
 21
0.0
 31
0.0
  0
LINE
  5
2CB7
330
2CB5
100
AcDbEntity
  8
0
  6
ByBlock
 62
     0
370
    -2
100
AcDbLine
 10
0.0
 20
0.0
 30
0.0
 11
-1.0
 21
-0.26794919
 31
0.0
  0
LINE
  5
2CB8
330
2CB5
100
AcDbEntity
  8
0
  6
ByBlock
 62
     0
370
    -2
100
AcDbLine
 10
0.0
 20
0.0
 30
0.0
 11
-1.0
 21
0.0
 31
0.0
  0
ENDBLK
  5
2CBA
330
2CB5
100
AcDbEntity
  8
0
100
AcDbBlockEnd
  0
BLOCK
  5
35E6
330
35E3
100
AcDbEntity
  8
0
100
AcDbBlockBegin
  2
_DotBlank
 70
     0
 10
0.0
 20
0.0
 30
0.0
  3
_DotBlank
  1

  0
CIRCLE
  5
35E4
330
35E3
100
AcDbEntity
  8
0
  6
ByBlock
 62
     0
370
    -2
100
AcDbCircle
 10
0.0
 20
0.0
 30
0.0
 40
0.5
  0
LINE
  5
35E5
330
35E3
100
AcDbEntity
  8
0
  6
ByBlock
 62
     0
370
    -2
100
AcDbLine
 10
-0.5
 20
0.0
 30
0.0
 11
-1.0
 21
0.0
 31
0.0
  0
ENDBLK
  5
35E7
330
35E3
100
AcDbEntity
  8
0
100
AcDbBlockEnd
  0
BLOCK
  5
4F90
330
4F86
100
AcDbEntity
  8
0
100
AcDbBlockBegin
  2
*D4
 70
     1
 10
0.0
 20
0.0
 30
0.0
  3
*D4
  1

  0
LINE
  5
52EA
330
4F86
100
AcDbEntity
  8
寸法
  6
Continuous
 62
     4
370
    -2
100
AcDbLine
 10
1061.061589281097
 20
-471.4065309900823
 30
0.0
 11
1061.061589281097
 21
-459.5555274612761
 31
0.0
  0
LINE
  5
52EB
330
4F86
100
AcDbEntity
  8
寸法
  6
Continuous
 62
     4
370
    -2
100
AcDbLine
 10
1081.061589281097
 20
-471.057145461276
 30
0.0
 11
1081.061589281097
 21
-459.5555274612761
 31
0.0
  0
LINE
  5
52EC
330
4F86
100
AcDbEntity
  8
寸法
  6
Continuous
 62
     4
370
    -2
100
AcDbLine
 10
1061.061589281097
 20
-459.5555274612761
 30
0.0
 11
1081.061589281097
 21
-459.5555274612761
 31
0.0
  0
INSERT
  5
52ED
330
4F86
100
AcDbEntity
  8
寸法
  6
Continuous
 62
     4
370
    -2
100
AcDbBlockReference
  2
_DotSmall
 10
1061.061589281097
 20
-459.5555274612761
 30
0.0
 50
180.0
  0
INSERT
  5
52EE
330
4F86
100
AcDbEntity
  8
寸法
  6
Continuous
 62
     4
370
    -2
100
AcDbBlockReference
  2
_DotSmall
 10
1081.061589281097
 20
-459.5555274612761
 30
0.0
  0
MTEXT
  5
52EF
330
4F86
100
AcDbEntity
  8
寸法
  6
Continuous
 62
     3
100
AcDbMText
 10
1071.061589281097
 20
-456.055527461276
 30
0.0
 40
5.0
 41
0.0
 71
     5
 72
     1
  1
\A1;20
  7
ACAD
 73
     1
 44
1.0
  0
POINT
  5
52F0
330
4F86
100
AcDbEntity
  8
Defpoints
  6
Continuous
 62
     0
100
AcDbPoint
 10
1061.061589281097
 20
-471.4065309900823
 30
0.0
  0
POINT
  5
52F1
330
4F86
100
AcDbEntity
  8
Defpoints
  6
Continuous
 62
     0
100
AcDbPoint
 10
1081.061589281097
 20
-471.057145461276
 30
0.0
  0
POINT
  5
52F2
330
4F86
100
AcDbEntity
  8
Defpoints
  6
Continuous
 62
     0
100
AcDbPoint
 10
1081.061589281097
 20
-459.5555274612761
 30
0.0
  0
ENDBLK
  5
4F91
330
4F86
100
AcDbEntity
  8
0
100
AcDbBlockEnd
  0
BLOCK
  5
4F9D
330
4F93
100
AcDbEntity
  8
0
100
AcDbBlockBegin
  2
*D5
 70
     1
 10
0.0
 20
0.0
 30
0.0
  3
*D5
  1

  0
LINE
  5
52F3
330
4F93
100
AcDbEntity
  8
寸法
  6
Continuous
 62
     4
370
    -2
100
AcDbLine
 10
1061.061589281097
 20
-471.4065309900823
 30
0.0
 11
1061.061589281097
 21
-437.306335461276
 31
0.0
  0
LINE
  5
52F4
330
4F93
100
AcDbEntity
  8
寸法
  6
Continuous
 62
     4
370
    -2
100
AcDbLine
 10
1136.061589281097
 20
-471.4065309900823
 30
0.0
 11
1136.061589281097
 21
-437.306335461276
 31
0.0
  0
LINE
  5
52F5
330
4F93
100
AcDbEntity
  8
寸法
  6
Continuous
 62
     4
370
    -2
100
AcDbLine
 10
1061.061589281097
 20
-437.306335461276
 30
0.0
 11
1136.061589281097
 21
-437.306335461276
 31
0.0
  0
INSERT
  5
52F6
330
4F93
100
AcDbEntity
  8
寸法
  6
Continuous
 62
     4
370
    -2
100
AcDbBlockReference
  2
_DotSmall
 10
1061.061589281097
 20
-437.306335461276
 30
0.0
 50
180.0
  0
INSERT
  5
52F7
330
4F93
100
AcDbEntity
  8
寸法
  6
Continuous
 62
     4
370
    -2
100
AcDbBlockReference
  2
_DotSmall
 10
1136.061589281097
 20
-437.306335461276
 30
0.0
  0
MTEXT
  5
52F8
330
4F93
100
AcDbEntity
  8
寸法
  6
Continuous
 62
     3
100
AcDbMText
 10
1098.561589281097
 20
-433.8063354612761
 30
0.0
 40
5.0
 41
0.0
 71
     5
 72
     1
  1
\A1;75
  7
ACAD
 73
     1
 44
1.0
  0
POINT
  5
52F9
330
4F93
100
AcDbEntity
  8
Defpoints
  6
Continuous
 62
     0
100
AcDbPoint
 10
1061.061589281097
 20
-471.4065309900823
 30
0.0
  0
POINT
  5
52FA
330
4F93
100
AcDbEntity
  8
Defpoints
  6
Continuous
 62
     0
100
AcDbPoint
 10
1136.061589281097
 20
-471.4065309900823
 30
0.0
  0
POINT
  5
52FB
330
4F93
100
AcDbEntity
  8
Defpoints
  6
Continuous
 62
     0
100
AcDbPoint
 10
1136.061589281097
 20
-437.306335461276
 30
0.0
  0
ENDBLK
  5
4F9E
330
4F93
100
AcDbEntity
  8
0
100
AcDbBlockEnd
  0
BLOCK
  5
4FAA
330
4FA0
100
AcDbEntity
  8
0
100
AcDbBlockBegin
  2
*D6
 70
     1
 10
0.0
 20
0.0
 30
0.0
  3
*D6
  1

  0
LINE
  5
52FC
330
4FA0
100
AcDbEntity
  8
寸法
  6
Continuous
 62
     4
370
    -2
100
AcDbLine
 10
1136.061589281097
 20
-471.4065309900823
 30
0.0
 11
1136.061589281097
 21
-437.306335461276
 31
0.0
  0
LINE
  5
52FD
330
4FA0
100
AcDbEntity
  8
寸法
  6
Continuous
 62
     4
370
    -2
100
AcDbLine
 10
1156.861589281097
 20
-471.4065309900823
 30
0.0
 11
1156.861589281097
 21
-437.306335461276
 31
0.0
  0
LINE
  5
52FE
330
4FA0
100
AcDbEntity
  8
寸法
  6
Continuous
 62
     4
370
    -2
100
AcDbLine
 10
1136.061589281097
 20
-437.306335461276
 30
0.0
 11
1156.861589281097
 21
-437.306335461276
 31
0.0
  0
INSERT
  5
52FF
330
4FA0
100
AcDbEntity
  8
寸法
  6
Continuous
 62
     4
370
    -2
100
AcDbBlockReference
  2
_DotSmall
 10
1136.061589281097
 20
-437.306335461276
 30
0.0
 50
180.0
  0
INSERT
  5
5300
330
4FA0
100
AcDbEntity
  8
寸法
  6
Continuous
 62
     4
370
    -2
100
AcDbBlockReference
  2
_DotSmall
 10
1156.861589281097
 20
-437.306335461276
 30
0.0
  0
MTEXT
  5
5301
330
4FA0
100
AcDbEntity
  8
寸法
  6
Continuous
 62
     3
100
AcDbMText
 10
1146.461589281097
 20
-433.8063354612761
 30
0.0
 40
5.0
 41
0.0
 71
     5
 72
     1
  1
\A1;20.8
  7
ACAD
 73
     1
 44
1.0
  0
POINT
  5
5302
330
4FA0
100
AcDbEntity
  8
Defpoints
  6
Continuous
 62
     0
100
AcDbPoint
 10
1136.061589281097
 20
-471.4065309900823
 30
0.0
  0
POINT
  5
5303
330
4FA0
100
AcDbEntity
  8
Defpoints
  6
Continuous
 62
     0
100
AcDbPoint
 10
1156.861589281097
 20
-471.4065309900823
 30
0.0
  0
POINT
  5
5304
330
4FA0
100
AcDbEntity
  8
Defpoints
  6
Continuous
 62
     0
100
AcDbPoint
 10
1156.861589281097
 20
-437.306335461276
 30
0.0
  0
ENDBLK
  5
4FAB
330
4FA0
100
AcDbEntity
  8
0
100
AcDbBlockEnd
  0
BLOCK
  5
4FCD
330
4FC3
100
AcDbEntity
  8
0
100
AcDbBlockBegin
  2
*D7
 70
     1
 10
0.0
 20
0.0
 30
0.0
  3
*D7
  1

  0
LINE
  5
5305
330
4FC3
100
AcDbEntity
  8
寸法
  6
Continuous
 62
     4
370
    -2
100
AcDbLine
 10
1054.822126495674
 20
-495.3096754612761
 30
0.0
 11
1041.061589281097
 21
-495.3096754612761
 31
0.0
  0
LINE
  5
5306
330
4FC3
100
AcDbEntity
  8
寸法
  6
Continuous
 62
     4
370
    -2
100
AcDbLine
 10
1054.822126495674
 20
-560.3096754612761
 30
0.0
 11
1041.061589281097
 21
-560.3096754612761
 31
0.0
  0
LINE
  5
5307
330
4FC3
100
AcDbEntity
  8
寸法
  6
Continuous
 62
     4
370
    -2
100
AcDbLine
 10
1041.061589281097
 20
-495.3096754612761
 30
0.0
 11
1041.061589281097
 21
-560.3096754612761
 31
0.0
  0
INSERT
  5
5308
330
4FC3
100
AcDbEntity
  8
寸法
  6
Continuous
 62
     4
370
    -2
100
AcDbBlockReference
  2
_DotSmall
 10
1041.061589281097
 20
-495.3096754612761
 30
0.0
 50
90.0
  0
INSERT
  5
5309
330
4FC3
100
AcDbEntity
  8
寸法
  6
Continuous
 62
     4
370
    -2
100
AcDbBlockReference
  2
_DotSmall
 10
1041.061589281097
 20
-560.3096754612761
 30
0.0
 50
270.0
  0
MTEXT
  5
530A
330
4FC3
100
AcDbEntity
  8
寸法
  6
Continuous
 62
     3
100
AcDbMText
 10
1037.561589281097
 20
-527.809675461276
 30
0.0
 40
5.0
 41
0.0
 71
     5
 72
     1
  1
\A1;65
  7
ACAD
 11
0.0000000000000001
 21
1.0
 31
0.0
 73
     1
 44
1.0
  0
POINT
  5
530B
330
4FC3
100
AcDbEntity
  8
Defpoints
  6
Continuous
 62
     0
100
AcDbPoint
 10
1054.822126495674
 20
-495.3096754612761
 30
0.0
  0
POINT
  5
530C
330
4FC3
100
AcDbEntity
  8
Defpoints
  6
Continuous
 62
     0
100
AcDbPoint
 10
1054.822126495674
 20
-560.3096754612761
 30
0.0
  0
POINT
  5
530D
330
4FC3
100
AcDbEntity
  8
Defpoints
  6
Continuous
 62
     0
100
AcDbPoint
 10
1041.061589281097
 20
-560.3096754612761
 30
0.0
  0
ENDBLK
  5
4FCE
330
4FC3
100
AcDbEntity
  8
0
100
AcDbBlockEnd
  0
BLOCK
  5
4FDA
330
4FD0
100
AcDbEntity
  8
0
100
AcDbBlockBegin
  2
*D8
 70
     1
 10
0.0
 20
0.0
 30
0.0
  3
*D8
  1

  0
LINE
  5
530E
330
4FD0
100
AcDbEntity
  8
寸法
  6
Continuous
 62
     4
370
    -2
100
AcDbLine
 10
1054.822126495674
 20
-560.3096754612761
 30
0.0
 11
1021.061589281097
 21
-560.3096754612761
 31
0.0
  0
LINE
  5
530F
330
4FD0
100
AcDbEntity
  8
寸法
  6
Continuous
 62
     4
370
    -2
100
AcDbLine
 10
1054.822126495674
 20
-480.309675461276
 30
0.0
 11
1021.061589281097
 21
-480.309675461276
 31
0.0
  0
LINE
  5
5310
330
4FD0
100
AcDbEntity
  8
寸法
  6
Continuous
 62
     4
370
    -2
100
AcDbLine
 10
1021.061589281097
 20
-560.3096754612761
 30
0.0
 11
1021.061589281097
 21
-480.309675461276
 31
0.0
  0
INSERT
  5
5311
330
4FD0
100
AcDbEntity
  8
寸法
  6
Continuous
 62
     4
370
    -2
100
AcDbBlockReference
  2
_DotSmall
 10
1021.061589281097
 20
-560.3096754612761
 30
0.0
 50
270.0
  0
INSERT
  5
5312
330
4FD0
100
AcDbEntity
  8
寸法
  6
Continuous
 62
     4
370
    -2
100
AcDbBlockReference
  2
_DotSmall
 10
1021.061589281097
 20
-480.309675461276
 30
0.0
 50
90.0
  0
MTEXT
  5
5313
330
4FD0
100
AcDbEntity
  8
寸法
  6
Continuous
 62
     3
100
AcDbMText
 10
1017.561589281097
 20
-520.309675461276
 30
0.0
 40
5.0
 41
0.0
 71
     5
 72
     1
  1
\A1;80
  7
ACAD
 11
0.0000000000000001
 21
1.0
 31
0.0
 73
     1
 44
1.0
  0
POINT
  5
5314
330
4FD0
100
AcDbEntity
  8
Defpoints
  6
Continuous
 62
     0
100
AcDbPoint
 10
1054.822126495674
 20
-560.3096754612761
 30
0.0
  0
POINT
  5
5315
330
4FD0
100
AcDbEntity
  8
Defpoints
  6
Continuous
 62
     0
100
AcDbPoint
 10
1054.822126495674
 20
-480.309675461276
 30
0.0
  0
POINT
  5
5316
330
4FD0
100
AcDbEntity
  8
Defpoints
  6
Continuous
 62
     0
100
AcDbPoint
 10
1021.061589281097
 20
-480.309675461276
 30
0.0
  0
ENDBLK
  5
4FDB
330
4FD0
100
AcDbEntity
  8
0
100
AcDbBlockEnd
  0
BLOCK
  5
4FE7
330
4FDD
100
AcDbEntity
  8
0
100
AcDbBlockBegin
  2
*D9
 70
     1
 10
0.0
 20
0.0
 30
0.0
  3
*D9
  1

  0
LINE
  5
5317
330
4FDD
100
AcDbEntity
  8
寸法
  6
Continuous
 62
     4
370
    -2
100
AcDbLine
 10
1061.061589281097
 20
-564.1221845545351
 30
0.0
 11
1061.061589281097
 21
-579.5555274612761
 31
0.0
  0
LINE
  5
5318
330
4FDD
100
AcDbEntity
  8
寸法
  6
Continuous
 62
     4
370
    -2
100
AcDbLine
 10
1121.061589281097
 20
-564.1221845545351
 30
0.0
 11
1121.061589281097
 21
-579.5555274612761
 31
0.0
  0
LINE
  5
5319
330
4FDD
100
AcDbEntity
  8
寸法
  6
Continuous
 62
     4
370
    -2
100
AcDbLine
 10
1061.061589281097
 20
-579.5555274612761
 30
0.0
 11
1121.061589281097
 21
-579.5555274612761
 31
0.0
  0
INSERT
  5
531A
330
4FDD
100
AcDbEntity
  8
寸法
  6
Continuous
 62
     4
370
    -2
100
AcDbBlockReference
  2
_DotSmall
 10
1061.061589281097
 20
-579.5555274612761
 30
0.0
 50
180.0
  0
INSERT
  5
531B
330
4FDD
100
AcDbEntity
  8
寸法
  6
Continuous
 62
     4
370
    -2
100
AcDbBlockReference
  2
_DotSmall
 10
1121.061589281097
 20
-579.5555274612761
 30
0.0
  0
MTEXT
  5
531C
330
4FDD
100
AcDbEntity
  8
寸法
  6
Continuous
 62
     3
100
AcDbMText
 10
1091.061589281097
 20
-576.0555274612761
 30
0.0
 40
5.0
 41
0.0
 71
     5
 72
     1
  1
\A1;60
  7
ACAD
 73
     1
 44
1.0
  0
POINT
  5
531D
330
4FDD
100
AcDbEntity
  8
Defpoints
  6
Continuous
 62
     0
100
AcDbPoint
 10
1061.061589281097
 20
-564.1221845545351
 30
0.0
  0
POINT
  5
531E
330
4FDD
100
AcDbEntity
  8
Defpoints
  6
Continuous
 62
     0
100
AcDbPoint
 10
1121.061589281097
 20
-564.1221845545351
 30
0.0
  0
POINT
  5
531F
330
4FDD
100
AcDbEntity
  8
Defpoints
  6
Continuous
 62
     0
100
AcDbPoint
 10
1121.061589281097
 20
-579.5555274612761
 30
0.0
  0
ENDBLK
  5
4FE8
330
4FDD
100
AcDbEntity
  8
0
100
AcDbBlockEnd
  0
BLOCK
  5
4FF4
330
4FEA
100
AcDbEntity
  8
0
100
AcDbBlockBegin
  2
*D10
 70
     1
 10
0.0
 20
0.0
 30
0.0
  3
*D10
  1

  0
LINE
  5
5320
330
4FEA
100
AcDbEntity
  8
寸法
  6
Continuous
 62
     4
370
    -2
100
AcDbLine
 10
1121.061589281097
 20
-564.1221845545351
 30
0.0
 11
1121.061589281097
 21
-579.5555274612761
 31
0.0
  0
LINE
  5
5321
330
4FEA
100
AcDbEntity
  8
寸法
  6
Continuous
 62
     4
370
    -2
100
AcDbLine
 10
1136.061589281097
 20
-564.1221845545351
 30
0.0
 11
1136.061589281097
 21
-579.5555274612761
 31
0.0
  0
LINE
  5
5322
330
4FEA
100
AcDbEntity
  8
寸法
  6
Continuous
 62
     4
370
    -2
100
AcDbLine
 10
1121.061589281097
 20
-579.5555274612761
 30
0.0
 11
1136.061589281097
 21
-579.5555274612761
 31
0.0
  0
INSERT
  5
5323
330
4FEA
100
AcDbEntity
  8
寸法
  6
Continuous
 62
     4
370
    -2
100
AcDbBlockReference
  2
_DotSmall
 10
1121.061589281097
 20
-579.5555274612761
 30
0.0
 50
180.0
  0
INSERT
  5
5324
330
4FEA
100
AcDbEntity
  8
寸法
  6
Continuous
 62
     4
370
    -2
100
AcDbBlockReference
  2
_DotSmall
 10
1136.061589281097
 20
-579.5555274612761
 30
0.0
  0
MTEXT
  5
5325
330
4FEA
100
AcDbEntity
  8
寸法
  6
Continuous
 62
     3
100
AcDbMText
 10
1128.561589281097
 20
-576.0555274612761
 30
0.0
 40
5.0
 41
0.0
 71
     5
 72
     1
  1
\A1;15
  7
ACAD
 73
     1
 44
1.0
  0
POINT
  5
5326
330
4FEA
100
AcDbEntity
  8
Defpoints
  6
Continuous
 62
     0
100
AcDbPoint
 10
1121.061589281097
 20
-564.1221845545351
 30
0.0
  0
POINT
  5
5327
330
4FEA
100
AcDbEntity
  8
Defpoints
  6
Continuous
 62
     0
100
AcDbPoint
 10
1136.061589281097
 20
-564.1221845545351
 30
0.0
  0
POINT
  5
5328
330
4FEA
100
AcDbEntity
  8
Defpoints
  6
Continuous
 62
     0
100
AcDbPoint
 10
1136.061589281097
 20
-579.5555274612761
 30
0.0
  0
ENDBLK
  5
4FF5
330
4FEA
100
AcDbEntity
  8
0
100
AcDbBlockEnd
  0
BLOCK
  5
52B0
330
52AE
100
AcDbEntity
  8
0
 62
     4
100
AcDbBlockBegin
  2
_DotSmall
 70
     0
 10
0.0
 20
0.0
 30
0.0
  3
_DotSmall
  1

  0
LWPOLYLINE
  5
52AF
330
52AE
100
AcDbEntity
  8
0
  6
ByBlock
 62
     0
100
AcDbPolyline
 90
        2
 70
     1
 43
0.5
 10
-0.0625
 20
0.0
 42
1.0
 10
0.0625
 20
0.0
 42
1.0
  0
ENDBLK
  5
52B1
330
52AE
100
AcDbEntity
  8
0
 62
     4
100
AcDbBlockEnd
  0
ENDSEC
  0
SECTION
  2
ENTITIES
  0
ARC
  5
4DAA
330
1E
100
AcDbEntity
  8
笠木
  6
Continuous
 62
     4
100
AcDbCircle
 10
1133.061589281097
 20
-488.1929034612761
 30
0.0
 40
1.0
100
AcDbArc
 50
0.0
 51
87.71000000000034
  0
LINE
  5
4DAC
330
1E
100
AcDbEntity
  8
笠木
  6
Continuous
 62
     4
100
AcDbLine
 10
1081.061589281097
 20
-483.1110594612761
 30
0.0
 11
1144.961589281097
 21
-485.6663774612761
 31
0.0
  0
LINE
  5
4DAD
330
1E
100
AcDbEntity
  8
受金具
  6
Continuous
 62
     3
100
AcDbLine
 10
1134.661589281097
 20
-526.5555274612761
 30
0.0
 11
1134.153689281097
 21
-526.0555274612761
 31
0.0
  0
LINE
  5
4DAE
330
1E
100
AcDbEntity
  8
受金具
  6
Continuous
 62
     3
100
AcDbLine
 10
1133.669489281097
 20
-523.0555274612761
 30
0.0
 11
1134.794489281097
 21
-526.0555274612761
 31
0.0
  0
LINE
  5
4DAF
330
1E
100
AcDbEntity
  8
受金具
  6
Continuous
 62
     3
100
AcDbLine
 10
1134.528689281097
 20
-523.0555274612761
 30
0.0
 11
1133.669489281097
 21
-523.0555274612761
 31
0.0
  0
LINE
  5
4DB0
330
1E
100
AcDbEntity
  8
受金具
  6
Continuous
 62
     3
100
AcDbLine
 10
1134.661589281097
 20
-526.5555274612761
 30
0.0
 11
1133.161589281097
 21
-522.5555274612761
 31
0.0
  0
LINE
  5
4DB1
330
1E
100
AcDbEntity
  8
寸法
  6
PLINE15
 62
     2
100
AcDbLine
 10
1140.894729281097
 20
-524.5555274612761
 30
0.0
 11
1133.830993281097
 21
-524.5555274612761
 31
0.0
  0
ARC
  5
4DB2
330
1E
100
AcDbEntity
  8
笠木
  6
Continuous
 62
     4
100
AcDbCircle
 10
1133.061589281097
 20
-557.3096754612761
 30
0.0
 40
1.0
100
AcDbArc
 50
270.0
 51
0.0
  0
LINE
  5
4DB3
330
1E
100
AcDbEntity
  8
笠木
  6
Continuous
 62
     4
100
AcDbLine
 10
1121.805993281097
 20
-560.3096754612761
 30
0.0
 11
1135.061589281097
 21
-560.3096754612761
 31
0.0
  0
LINE
  5
4DB7
330
1E
100
AcDbEntity
  8
笠木
  6
Continuous
 62
     4
100
AcDbLine
 10
1063.061589281097
 20
-493.2716334612761
 30
0.0
 11
1063.061589281097
 21
-483.1381014612762
 31
0.0
  0
LINE
  5
4DB9
330
1E
100
AcDbEntity
  8
笠木
  6
Continuous
 62
     4
100
AcDbLine
 10
1061.061589281097
 20
-494.625417461276
 30
0.0
 11
1061.061589281097
 21
-482.3096754612761
 31
0.0
  0
ARC
  5
4DBC
330
1E
100
AcDbEntity
  8
笠木
  6
Continuous
 62
     4
100
AcDbCircle
 10
1025.159305281097
 20
-588.6425514612763
 30
0.0
 40
100.0
100
AcDbArc
 50
16.88337400000248
 51
68.56969799999887
  0
ARC
  5
4DBD
330
1E
100
AcDbEntity
  8
笠木
  6
Continuous
 62
     4
100
AcDbCircle
 10
1025.159305281097
 20
-588.6425514612763
 30
0.0
 40
102.0
100
AcDbArc
 50
17.71020200000259
 51
67.809202000001
  0
LINE
  5
4DBE
330
1E
100
AcDbEntity
  8
笠木
  6
Continuous
 62
     4
100
AcDbLine
 10
1134.061589281097
 20
-488.1929034612761
 30
0.0
 11
1134.061589281097
 21
-557.3096754612761
 31
0.0
  0
LINE
  5
4DD8
330
1E
100
AcDbEntity
  8
笠木
  6
Continuous
 62
     4
100
AcDbLine
 10
1123.277859281097
 20
-558.3096754612761
 30
0.0
 11
1133.061589281097
 21
-558.3096754612761
 31
0.0
  0
ARC
  5
4DD9
330
1E
100
AcDbEntity
  8
笠木
  6
Continuous
 62
     4
100
AcDbCircle
 10
1121.805993281097
 20
-559.3096754612761
 30
0.0
 40
1.0
100
AcDbArc
 50
196.8833740000025
 51
270.0
  0
ARC
  5
4DDA
330
1E
100
AcDbEntity
  8
笠木
  6
Continuous
 62
     4
100
AcDbCircle
 10
1123.277859281097
 20
-557.3096754612761
 30
0.0
 40
1.0
100
AcDbArc
 50
197.7102020000025
 51
270.0
  0
LINE
  5
4DDB
330
1E
100
AcDbEntity
  8
寸法
  6
Continuous
 62
     3
100
AcDbLine
 10
1093.752371281097
 20
-515.8758614612761
 30
0.0
 11
1090.309175281097
 21
-518.1439894612759
 31
0.0
  0
LINE
  5
4DDC
330
1E
100
AcDbEntity
  8
寸法
  6
Continuous
 62
     3
100
AcDbLine
 10
1093.752371281097
 20
-515.8758614612761
 30
0.0
 11
1075.986241281097
 21
-535.2033194612761
 31
0.0
  0
TEXT
  5
4DDD
330
1E
100
AcDbEntity
  8
寸法
  6
Continuous
 62
     3
100
AcDbText
 10
1076.703376059747
 20
-531.4678036088633
 30
0.0
 40
6.0
  1
Ｒ１００
 50
47.41020099999881
 41
0.73811
 72
     1
 11
1083.396839281097
 21
-524.1861154612761
 31
0.0
100
AcDbText
  0
ARC
  5
4DDE
330
1E
100
AcDbEntity
  8
笠木
  6
Continuous
 62
     4
100
AcDbCircle
 10
1064.061589281097
 20
-493.2716334612761
 30
0.0
 40
1.0
100
AcDbArc
 50
180.0
 51
247.809202000001
  0
ARC
  5
4DDF
330
1E
100
AcDbEntity
  8
笠木
  6
Continuous
 62
     4
100
AcDbCircle
 10
1062.061589281097
 20
-494.625417461276
 30
0.0
 40
1.0
100
AcDbArc
 50
180.0
 51
248.5696979999988
  0
LINE
  5
4DE0
330
1E
100
AcDbEntity
  8
寸法
  6
Continuous
 62
     3
100
AcDbLine
 10
1093.752371281097
 20
-515.8758614612761
 30
0.0
 11
1091.781611281097
 21
-519.497477461276
 31
0.0
  0
LINE
  5
4DE1
330
1E
100
AcDbEntity
  8
受金具
  6
Continuous
 62
     3
100
AcDbLine
 10
1133.161589281097
 20
-526.5555274612761
 30
0.0
 11
1131.661589281097
 21
-522.5555274612761
 31
0.0
  0
LINE
  5
4DE2
330
1E
100
AcDbEntity
  8
受金具
  6
Continuous
 62
     3
100
AcDbLine
 10
1133.294489281097
 20
-526.0555274612761
 30
0.0
 11
1133.161589281097
 21
-526.5555274612761
 31
0.0
  0
LINE
  5
4DE3
330
1E
100
AcDbEntity
  8
受金具
  6
Continuous
 62
     3
100
AcDbLine
 10
1133.161589281097
 20
-526.5555274612761
 30
0.0
 11
1132.653689281097
 21
-526.0555274612761
 31
0.0
  0
LINE
  5
4DE4
330
1E
100
AcDbEntity
  8
受金具
  6
Continuous
 62
     3
100
AcDbLine
 10
1131.528689281097
 20
-526.0555274612761
 30
0.0
 11
1131.661589281097
 21
-526.5555274612761
 31
0.0
  0
LINE
  5
4DE5
330
1E
100
AcDbEntity
  8
受金具
  6
Continuous
 62
     3
100
AcDbLine
 10
1131.661589281097
 20
-526.5555274612761
 30
0.0
 11
1132.169489281097
 21
-526.0555274612761
 31
0.0
  0
LINE
  5
4DE6
330
1E
100
AcDbEntity
  8
受金具
  6
Continuous
 62
     3
100
AcDbLine
 10
1131.528689281097
 20
-523.0555274612761
 30
0.0
 11
1127.161589281097
 21
-523.0555274612761
 31
0.0
  0
LINE
  5
4DE7
330
1E
100
AcDbEntity
  8
受金具
  6
Continuous
 62
     3
100
AcDbLine
 10
1127.161589281097
 20
-526.0555274612761
 30
0.0
 11
1131.661589281097
 21
-526.0555274612761
 31
0.0
  0
LINE
  5
4DE8
330
1E
100
AcDbEntity
  8
受金具
  6
Continuous
 62
     3
100
AcDbLine
 10
1131.661589281097
 20
-526.0555274612761
 30
0.0
 11
1125.661589281097
 21
-524.5555274612761
 31
0.0
  0
LINE
  5
4DE9
330
1E
100
AcDbEntity
  8
受金具
  6
Continuous
 62
     3
100
AcDbLine
 10
1127.161589281097
 20
-523.0555274612761
 30
0.0
 11
1125.661589281097
 21
-524.5555274612761
 31
0.0
  0
LINE
  5
4DEA
330
1E
100
AcDbEntity
  8
受金具
  6
Continuous
 62
     3
100
AcDbLine
 10
1125.661589281097
 20
-524.5555274612761
 30
0.0
 11
1127.161589281097
 21
-526.0555274612761
 31
0.0
  0
LINE
  5
4DEB
330
1E
100
AcDbEntity
  8
受金具
  6
Continuous
 62
     3
100
AcDbLine
 10
1127.161589281097
 20
-523.0555274612761
 30
0.0
 11
1127.161589281097
 21
-524.9305274612761
 31
0.0
  0
LINE
  5
4DEC
330
1E
100
AcDbEntity
  8
受金具
  6
Continuous
 62
     3
100
AcDbLine
 10
1132.653689281097
 20
-526.0555274612761
 30
0.0
 11
1131.528689281097
 21
-523.0555274612761
 31
0.0
  0
LINE
  5
4DED
330
1E
100
AcDbEntity
  8
受金具
  6
Continuous
 62
     3
100
AcDbLine
 10
1131.528689281097
 20
-523.0555274612761
 30
0.0
 11
1131.661589281097
 21
-522.5555274612761
 31
0.0
  0
LINE
  5
4DEE
330
1E
100
AcDbEntity
  8
受金具
  6
Continuous
 62
     3
100
AcDbLine
 10
1132.169489281097
 20
-523.0555274612761
 30
0.0
 11
1133.294489281097
 21
-526.0555274612761
 31
0.0
  0
LINE
  5
4DEF
330
1E
100
AcDbEntity
  8
受金具
  6
Continuous
 62
     3
100
AcDbLine
 10
1131.661589281097
 20
-522.5555274612761
 30
0.0
 11
1132.169489281097
 21
-523.0555274612761
 31
0.0
  0
LINE
  5
4DF0
330
1E
100
AcDbEntity
  8
受金具
  6
Continuous
 62
     3
100
AcDbLine
 10
1133.161589281097
 20
-522.5555274612761
 30
0.0
 11
1133.669489281097
 21
-523.0555274612761
 31
0.0
  0
LINE
  5
4DF1
330
1E
100
AcDbEntity
  8
受金具
  6
Continuous
 62
     3
100
AcDbLine
 10
1133.028689281097
 20
-523.0555274612761
 30
0.0
 11
1133.161589281097
 21
-522.5555274612761
 31
0.0
  0
LINE
  5
4DF2
330
1E
100
AcDbEntity
  8
受金具
  6
Continuous
 62
     3
100
AcDbLine
 10
1134.153689281097
 20
-526.0555274612761
 30
0.0
 11
1133.028689281097
 21
-523.0555274612761
 31
0.0
  0
LINE
  5
4DF3
330
1E
100
AcDbEntity
  8
受金具
  6
Continuous
 62
     3
100
AcDbLine
 10
1134.153689281097
 20
-526.0555274612761
 30
0.0
 11
1133.294489281097
 21
-526.0555274612761
 31
0.0
  0
LINE
  5
4DF4
330
1E
100
AcDbEntity
  8
受金具
  6
Continuous
 62
     3
100
AcDbLine
 10
1132.653689281097
 20
-526.0555274612761
 30
0.0
 11
1131.661589281097
 21
-526.0555274612761
 31
0.0
  0
LINE
  5
4DF5
330
1E
100
AcDbEntity
  8
受金具
  6
Continuous
 62
     3
100
AcDbLine
 10
1132.974089281097
 20
-523.0555274612761
 30
0.0
 11
1132.169489281097
 21
-523.0555274612761
 31
0.0
  0
LINE
  5
4DF6
330
1E
100
AcDbEntity
  8
受金具
  6
Continuous
 62
     3
100
AcDbLine
 10
1131.661589281097
 20
-526.0555274612761
 30
0.0
 11
1131.661589281097
 21
-523.4099274612759
 31
0.0
  0
LINE
  5
4DFE
330
1E
100
AcDbEntity
  8
笠木
  6
Continuous
 62
     4
100
AcDbLine
 10
1080.200319281097
 20
-485.0782174612761
 30
0.0
 11
1133.101547281097
 21
-487.193701461276
 31
0.0
  0
LINE
  5
4E01
330
1E
100
AcDbEntity
  8
笠木
  6
Continuous
 62
     4
100
AcDbLine
 10
1078.976613281097
 20
-481.026085461276
 30
0.0
 11
1062.984685281097
 21
-480.386577461276
 31
0.0
  0
LINE
  5
4E02
330
1E
100
AcDbEntity
  8
笠木
  6
Continuous
 62
     4
100
AcDbLine
 10
1063.779721281097
 20
-482.4199694612761
 30
0.0
 11
1078.115343281097
 21
-482.9932414612762
 31
0.0
  0
LINE
  5
4E03
330
1E
100
AcDbEntity
  8
笠木
  6
Continuous
 62
     4
100
AcDbLine
 10
1063.061589281097
 20
-483.1381014612762
 30
0.0
 11
1063.779721281097
 21
-482.4199694612761
 31
0.0
  0
LINE
  5
4E04
330
1E
100
AcDbEntity
  8
笠木
  6
Continuous
 62
     4
100
AcDbLine
 10
1061.061589281097
 20
-482.3096754612761
 30
0.0
 11
1062.984685281097
 21
-480.386577461276
 31
0.0
  0
LINE
  5
4E05
330
1E
100
AcDbEntity
  8
笠木
  6
Continuous
 62
     4
100
AcDbLine
 10
1078.976613281097
 20
-481.026085461276
 30
0.0
 11
1081.061589281097
 21
-483.1110594612761
 31
0.0
  0
LINE
  5
4E06
330
1E
100
AcDbEntity
  8
笠木
  6
Continuous
 62
     4
100
AcDbLine
 10
1078.115343281097
 20
-482.9932414612762
 30
0.0
 11
1080.200319281097
 21
-485.0782174612761
 31
0.0
  0
LINE
  5
4E0F
330
1E
100
AcDbEntity
  8
寸法
  6
Continuous
 62
     3
100
AcDbLine
 10
1112.664735281097
 20
-477.095105461276
 30
0.0
 11
1092.664735281097
 21
-476.095105461276
 31
0.0
  0
LINE
  5
4E10
330
1E
100
AcDbEntity
  8
寸法
  6
Continuous
 62
     3
100
AcDbLine
 10
1092.664735281097
 20
-476.095105461276
 30
0.0
 11
1112.664735281097
 21
-476.095105461276
 31
0.0
  0
LINE
  5
4E11
330
1E
100
AcDbEntity
  8
寸法
  6
Continuous
 62
     3
100
AcDbLine
 10
1112.664735281097
 20
-476.095105461276
 30
0.0
 11
1112.664735281097
 21
-477.095105461276
 31
0.0
  0
TEXT
  5
4E12
330
1E
100
AcDbEntity
  8
寸法
  6
Continuous
 62
     3
100
AcDbText
 10
1098.230503281097
 20
-474.4423414612761
 30
0.0
 40
6.0
  1
２０
 41
0.73811
100
AcDbText
  0
TEXT
  5
4E13
330
1E
100
AcDbEntity
  8
寸法
  6
Continuous
 62
     3
100
AcDbText
 10
1114.616581281097
 20
-479.700581461276
 30
0.0
 40
6.0
  1
１
 41
0.73811
100
AcDbText
  0
TEXT
  5
4E14
330
1E
100
AcDbEntity
  8
寸法
  6
Continuous
 62
     4
100
AcDbText
 10
1010.217305281097
 20
-374.3047074612761
 30
0.0
 40
20.0
  1
ＴＡ－０５
 41
0.73811
  7
ACAD
100
AcDbText
  0
LINE
  5
4E15
330
1E
100
AcDbEntity
  8
笠木
  6
Continuous
 62
     4
100
AcDbLine
 10
1156.061589281097
 20
-490.3153094612759
 30
0.0
 11
1153.952579281097
 21
-488.2062994612761
 31
0.0
  0
LINE
  5
4E16
330
1E
100
AcDbEntity
  8
受金具
  6
Continuous
 62
     3
100
AcDbLine
 10
1146.616229281097
 20
-489.6435694612761
 30
0.0
 11
1143.573673281097
 21
-490.647799461276
 31
0.0
  0
LINE
  5
4E17
330
1E
100
AcDbEntity
  8
受金具
  6
Continuous
 62
     3
100
AcDbLine
 10
1143.599277281097
 20
-490.0075114612762
 30
0.0
 11
1146.641833281097
 21
-489.003281461276
 31
0.0
  0
LINE
  5
4E18
330
1E
100
AcDbEntity
  8
受金具
  6
Continuous
 62
     3
100
AcDbLine
 10
1143.633609281097
 20
-489.1489974612762
 30
0.0
 11
1143.599277281097
 21
-490.0075114612762
 31
0.0
  0
LINE
  5
4E19
330
1E
100
AcDbEntity
  8
受金具
  6
Continuous
 62
     3
100
AcDbLine
 10
1146.616229281097
 20
-489.6435694612761
 30
0.0
 11
1146.581897281097
 21
-490.502083461276
 31
0.0
  0
ARC
  5
4E1A
330
1E
100
AcDbEntity
  8
笠木
  6
Continuous
 62
     4
100
AcDbCircle
 10
1141.061589281097
 20
-492.5693234612761
 30
0.0
 40
3.0
100
AcDbArc
 50
87.13862300000105
 51
180.0
  0
LINE
  5
4E1B
330
1E
100
AcDbEntity
  8
笠木
  6
Continuous
 62
     4
100
AcDbLine
 10
1141.211349281097
 20
-489.573063461276
 30
0.0
 11
1153.084353281097
 21
-490.1665014612761
 31
0.0
  0
LINE
  5
4E1C
330
1E
100
AcDbEntity
  8
受金具
  6
Continuous
 62
     3
100
AcDbLine
 10
1147.136123281097
 20
-489.1560534612761
 30
0.0
 11
1143.079383281097
 21
-490.4950274612761
 31
0.0
  0
LINE
  5
4E1D
330
1E
100
AcDbEntity
  8
笠木
  6
Continuous
 62
     4
100
AcDbLine
 10
1136.061589281097
 20
-488.352859461276
 30
0.0
 11
1136.061589281097
 21
-559.3096754612761
 31
0.0
  0
ARC
  5
4E1E
330
1E
100
AcDbEntity
  8
受金具
  6
Continuous
 62
     4
100
AcDbCircle
 10
1304.061587281097
 20
-526.2120714612761
 30
0.0
 40
25.0
100
AcDbArc
 50
76.11345999999982
 51
103.8865400000002
  0
LINE
  5
4E1F
330
1E
100
AcDbEntity
  8
躯体
  6
Continuous
 62
     4
100
AcDbLine
 10
1308.561589281097
 20
-528.3120714612761
 30
0.0
 11
1303.561589281097
 21
-523.3120714612761
 31
0.0
  0
LINE
  5
4E20
330
1E
100
AcDbEntity
  8
躯体
  6
Continuous
 62
     3
100
AcDbLine
 10
1308.561589281097
 20
-536.5491574612759
 30
0.0
 11
1209.139275281097
 21
-635.9714714612761
 31
0.0
  0
LINE
  5
4E21
330
1E
100
AcDbEntity
  8
躯体
  6
Continuous
 62
     3
100
AcDbLine
 10
1308.561589281097
 20
-539.377583461276
 30
0.0
 11
1211.967703281097
 21
-635.9714714612761
 31
0.0
  0
LINE
  5
4E22
330
1E
100
AcDbEntity
  8
躯体
  6
Continuous
 62
     3
100
AcDbLine
 10
1308.561589281097
 20
-542.2060114612761
 30
0.0
 11
1214.796129281097
 21
-635.9714714612761
 31
0.0
  0
LINE
  5
4E23
330
1E
100
AcDbEntity
  8
受金具
  6
Continuous
 62
     4
100
AcDbLine
 10
1149.880413281097
 20
-513.3120714612759
 30
0.0
 11
1322.242765281097
 21
-513.3120714612759
 31
0.0
  0
LINE
  5
4E24
330
1E
100
AcDbEntity
  8
躯体
  6
Continuous
 62
     4
100
AcDbLine
 10
1306.875297281097
 20
-515.3120714612761
 30
0.0
 11
1163.180391281097
 21
-515.3120714612761
 31
0.0
  0
LINE
  5
4E25
330
1E
100
AcDbEntity
  8
躯体
  6
Continuous
 62
     4
100
AcDbLine
 10
1162.025691281097
 20
-517.312071461276
 30
0.0
 11
1306.046871281097
 21
-517.312071461276
 31
0.0
  0
LINE
  5
4E26
330
1E
100
AcDbEntity
  8
躯体
  6
Continuous
 62
     4
100
AcDbLine
 10
1305.218443281097
 20
-519.3120714612761
 30
0.0
 11
1160.870991281097
 21
-519.3120714612761
 31
0.0
  0
LINE
  5
4E27
330
1E
100
AcDbEntity
  8
躯体
  6
Continuous
 62
     4
100
AcDbLine
 10
1159.716289281097
 20
-521.312071461276
 30
0.0
 11
1304.390017281097
 21
-521.312071461276
 31
0.0
  0
LINE
  5
4E28
330
1E
100
AcDbEntity
  8
笠木
  6
Continuous
 62
     4
100
AcDbLine
 10
1334.064081281097
 20
-499.212231461276
 30
0.0
 11
1156.061589281097
 21
-490.3153094612759
 31
0.0
  0
LINE
  5
4E29
330
1E
100
AcDbEntity
  8
笠木
  6
Continuous
 62
     4
100
AcDbLine
 10
1331.211347281097
 20
-501.0721434612761
 30
0.0
 11
1155.192205281097
 21
-492.274351461276
 31
0.0
  0
LINE
  5
4E2A
330
1E
100
AcDbEntity
  8
躯体
  6
Continuous
 62
     4
100
AcDbLine
 10
1153.561589281097
 20
-528.3120714612761
 30
0.0
 11
1153.561589281097
 21
-635.9714714612761
 31
0.0
  0
LINE
  5
4E2B
330
1E
100
AcDbEntity
  8
受金具
  6
Continuous
 62
     4
100
AcDbLine
 10
1182.161589281097
 20
-508.3120714612761
 30
0.0
 11
1235.661589281097
 21
-508.3120714612761
 31
0.0
  0
LINE
  5
4E2C
330
1E
100
AcDbEntity
  8
躯体
  6
Continuous
 62
     4
100
AcDbLine
 10
1303.561589281097
 20
-523.3120714612761
 30
0.0
 11
1158.561589281097
 21
-523.3120714612761
 31
0.0
  0
LINE
  5
4E2D
330
1E
100
AcDbEntity
  8
受金具
  6
PLINE2
 62
     3
100
AcDbLine
 10
1210.630295281097
 20
-547.1642494612759
 30
0.0
 11
1210.682645281097
 21
-548.6633354612761
 31
0.0
  0
LINE
  5
4E2E
330
1E
100
AcDbEntity
  8
受金具
  6
PLINE2
 62
     3
100
AcDbLine
 10
1201.692883281097
 20
-547.1642494612759
 30
0.0
 11
1201.640533281097
 21
-548.6633354612761
 31
0.0
  0
LINE
  5
4E2F
330
1E
100
AcDbEntity
  8
受金具
  6
PLINE2
 62
     3
100
AcDbLine
 10
1206.661285281097
 20
-533.794621461276
 30
0.0
 11
1207.586121281097
 21
-560.2784794612761
 31
0.0
  0
LINE
  5
4E30
330
1E
100
AcDbEntity
  8
受金具
  6
PLINE2
 62
     3
100
AcDbLine
 10
1204.737057281097
 20
-560.2784794612761
 30
0.0
 11
1205.661893281097
 21
-533.794621461276
 31
0.0
  0
LINE
  5
4E31
330
1E
100
AcDbEntity
  8
笠木
  6
Continuous
 62
     4
100
AcDbLine
 10
1138.061589281097
 20
-544.3120714612761
 30
0.0
 11
1138.061589281097
 21
-549.3120714612761
 31
0.0
  0
LINE
  5
4E32
330
1E
100
AcDbEntity
  8
受金具
  6
Continuous
 62
     4
100
AcDbLine
 10
1138.161589281097
 20
-544.3120714612761
 30
0.0
 11
1138.161589281097
 21
-549.3050794612761
 31
0.0
  0
LINE
  5
4E33
330
1E
100
AcDbEntity
  8
笠木
  6
Continuous
 62
     4
100
AcDbLine
 10
1138.061589281097
 20
-492.5693234612761
 30
0.0
 11
1138.061589281097
 21
-549.3120714612761
 31
0.0
  0
LINE
  5
4E34
330
1E
100
AcDbEntity
  8
受金具
  6
Continuous
 62
     4
100
AcDbLine
 10
1147.428961281097
 20
-515.3217814612761
 30
0.0
 11
1140.667345281097
 21
-549.1298594612762
 31
0.0
  0
LINE
  5
4E35
330
1E
100
AcDbEntity
  8
躯体
  6
Continuous
 62
     3
100
AcDbLine
 10
1153.561589281097
 20
-561.441509461276
 30
0.0
 11
1191.691027281097
 21
-523.3120714612761
 31
0.0
  0
LINE
  5
4E36
330
1E
100
AcDbEntity
  8
躯体
  6
Continuous
 62
     3
100
AcDbLine
 10
1194.519453281097
 20
-523.3120714612761
 30
0.0
 11
1153.561589281097
 21
-564.269935461276
 31
0.0
  0
LINE
  5
4E37
330
1E
100
AcDbEntity
  8
躯体
  6
Continuous
 62
     3
100
AcDbLine
 10
1153.561589281097
 20
-567.0983634612761
 30
0.0
 11
1197.347881281097
 21
-523.3120714612761
 31
0.0
  0
LINE
  5
4E39
330
1E
100
AcDbEntity
  8
笠木
  6
Continuous
 62
     4
100
AcDbLine
 10
1138.361587281097
 20
-558.812071461276
 30
0.0
 11
1138.361587281097
 21
-552.3120714612761
 31
0.0
  0
LINE
  5
4E3A
330
1E
100
AcDbEntity
  8
笠木
  6
Continuous
 62
     4
100
AcDbLine
 10
1136.061589281097
 20
-558.812071461276
 30
0.0
 11
1136.061589281097
 21
-558.5555274612761
 31
0.0
  0
LINE
  5
4E3B
330
1E
100
AcDbEntity
  8
笠木
  6
Continuous
 62
     4
100
AcDbLine
 10
1137.861587281097
 20
-559.3120714612759
 30
0.0
 11
1136.561589281097
 21
-559.3120714612759
 31
0.0
  0
ARC
  5
4E3C
330
1E
100
AcDbEntity
  8
笠木
  6
Continuous
 62
     4
100
AcDbCircle
 10
1136.561589281097
 20
-558.812071461276
 30
0.0
 40
0.5
100
AcDbArc
 50
180.0
 51
270.0
  0
ARC
  5
4E3D
330
1E
100
AcDbEntity
  8
笠木
  6
Continuous
 62
     4
100
AcDbCircle
 10
1135.061589281097
 20
-559.3096754612761
 30
0.0
 40
1.0
100
AcDbArc
 50
270.0
 51
0.0
  0
ARC
  5
4E3E
330
1E
100
AcDbEntity
  8
笠木
  6
Continuous
 62
     4
100
AcDbCircle
 10
1137.861587281097
 20
-558.812071461276
 30
0.0
 40
0.5
100
AcDbArc
 50
270.0
 51
0.0
  0
LINE
  5
4E3F
330
1E
100
AcDbEntity
  8
笠木
  6
Continuous
 62
     4
100
AcDbLine
 10
1140.667345281097
 20
-549.1298594612762
 30
0.0
 11
1138.061589281097
 21
-549.3120714612761
 31
0.0
  0
LINE
  5
4E40
330
1E
100
AcDbEntity
  8
笠木
  6
Continuous
 62
     4
100
AcDbLine
 10
1138.161589281097
 20
-549.3050794612761
 30
0.0
 11
1141.526711281097
 21
-549.0697674612761
 31
0.0
  0
LINE
  5
4E41
330
1E
100
AcDbEntity
  8
笠木
  6
Continuous
 62
     4
100
AcDbLine
 10
1141.051891281097
 20
-551.3815854612761
 30
0.0
 11
1138.361587281097
 21
-552.3120714612761
 31
0.0
  0
ARC
  5
4E42
330
1E
100
AcDbEntity
  8
笠木
  6
Continuous
 62
     4
100
AcDbCircle
 10
1140.561589281097
 20
-549.9639814612761
 30
0.0
 40
1.5
100
AcDbArc
 50
289.0788000000018
 51
0.0
  0
ARC
  5
4E43
330
1E
100
AcDbEntity
  8
笠木
  6
Continuous
 62
     4
100
AcDbCircle
 10
1141.561589281097
 20
-549.5685494612761
 30
0.0
 40
0.5
100
AcDbArc
 50
0.0
 51
94.00000000000302
  0
LINE
  5
4E44
330
1E
100
AcDbEntity
  8
笠木
  6
Continuous
 62
     4
100
AcDbLine
 10
1142.061589281097
 20
-549.5685494612761
 30
0.0
 11
1142.061589281097
 21
-549.9639814612761
 31
0.0
  0
LINE
  5
4E45
330
1E
100
AcDbEntity
  8
受金具
  6
PLINE2
 62
     3
100
AcDbLine
 10
1207.586121281097
 20
-560.2784794612761
 30
0.0
 11
1209.085207281097
 21
-560.226129461276
 31
0.0
  0
LINE
  5
4E46
330
1E
100
AcDbEntity
  8
受金具
  6
PLINE2
 62
     3
100
AcDbLine
 10
1207.481423281097
 20
-557.280307461276
 30
0.0
 11
1210.979291281097
 21
-557.1581574612761
 31
0.0
  0
LINE
  5
4E47
330
1E
100
AcDbEntity
  8
受金具
  6
PLINE2
 62
     3
100
AcDbLine
 10
1206.161589281097
 20
-556.7011494612761
 30
0.0
 11
1207.387075281097
 21
-554.5785454612761
 31
0.0
  0
LINE
  5
4E48
330
1E
100
AcDbEntity
  8
受金具
  6
PLINE2
 62
     3
100
AcDbLine
 10
1203.482267281097
 20
-553.2303934612761
 30
0.0
 11
1203.412469281097
 21
-555.2291754612761
 31
0.0
  0
LINE
  5
4E49
330
1E
100
AcDbEntity
  8
受金具
  6
PLINE2
 62
     3
100
AcDbLine
 10
1204.936103281097
 20
-554.5785454612761
 30
0.0
 11
1206.161589281097
 21
-556.7011494612761
 31
0.0
  0
LINE
  5
4E4A
330
1E
100
AcDbEntity
  8
受金具
  6
PLINE2
 62
     3
100
AcDbLine
 10
1203.412469281097
 20
-555.2291754612761
 30
0.0
 11
1201.413687281097
 21
-555.1593774612761
 31
0.0
  0
LINE
  5
4E4B
330
1E
100
AcDbEntity
  8
受金具
  6
PLINE2
 62
     3
100
AcDbLine
 10
1203.237971281097
 20
-560.226129461276
 30
0.0
 11
1204.737057281097
 21
-560.2784794612761
 31
0.0
  0
LINE
  5
4E4C
330
1E
100
AcDbEntity
  8
受金具
  6
PLINE2
 62
     3
100
AcDbLine
 10
1201.343887281097
 20
-557.1581574612761
 30
0.0
 11
1204.841755281097
 21
-557.280307461276
 31
0.0
  0
LINE
  5
4E4D
330
1E
100
AcDbEntity
  8
受金具
  6
PLINE2
 62
     3
100
AcDbLine
 10
1201.343887281097
 20
-557.1581574612761
 30
0.0
 11
1203.237971281097
 21
-560.226129461276
 31
0.0
  0
LINE
  5
4E4E
330
1E
100
AcDbEntity
  8
受金具
  6
PLINE2
 62
     3
100
AcDbLine
 10
1201.413687281097
 20
-555.1593774612761
 30
0.0
 11
1201.343887281097
 21
-557.1581574612761
 31
0.0
  0
LINE
  5
4E4F
330
1E
100
AcDbEntity
  8
受金具
  6
PLINE2
 62
     3
100
AcDbLine
 10
1201.640533281097
 20
-548.6633354612761
 30
0.0
 11
1203.621865281097
 21
-549.2328314612762
 31
0.0
  0
LINE
  5
4E50
330
1E
100
AcDbEntity
  8
受金具
  6
PLINE2
 62
     3
100
AcDbLine
 10
1203.552067281097
 20
-551.2316114612761
 30
0.0
 11
1201.553285281097
 21
-551.1618134612761
 31
0.0
  0
LINE
  5
4E51
330
1E
100
AcDbEntity
  8
受金具
  6
PLINE2
 62
     3
100
AcDbLine
 10
1201.500935281097
 20
-552.6608994612761
 30
0.0
 11
1203.482267281097
 21
-553.2303934612761
 31
0.0
  0
LINE
  5
4E52
330
1E
100
AcDbEntity
  8
受金具
  6
PLINE2
 62
     3
100
AcDbLine
 10
1201.553285281097
 20
-551.1618134612761
 30
0.0
 11
1201.500935281097
 21
-552.6608994612761
 31
0.0
  0
LINE
  5
4E53
330
1E
100
AcDbEntity
  8
受金具
  6
PLINE2
 62
     3
100
AcDbLine
 10
1203.621865281097
 20
-549.2328314612762
 30
0.0
 11
1203.552067281097
 21
-551.2316114612761
 31
0.0
  0
LINE
  5
4E54
330
1E
100
AcDbEntity
  8
受金具
  6
PLINE2
 62
     3
100
AcDbLine
 10
1208.840911281097
 20
-553.2303934612761
 30
0.0
 11
1208.910709281097
 21
-555.2291754612761
 31
0.0
  0
LINE
  5
4E55
330
1E
100
AcDbEntity
  8
受金具
  6
PLINE2
 62
     3
100
AcDbLine
 10
1210.979291281097
 20
-557.1581574612761
 30
0.0
 11
1209.085207281097
 21
-560.226129461276
 31
0.0
  0
LINE
  5
4E56
330
1E
100
AcDbEntity
  8
受金具
  6
PLINE2
 62
     3
100
AcDbLine
 10
1210.909491281097
 20
-555.1593774612761
 30
0.0
 11
1210.979291281097
 21
-557.1581574612761
 31
0.0
  0
LINE
  5
4E57
330
1E
100
AcDbEntity
  8
受金具
  6
PLINE2
 62
     3
100
AcDbLine
 10
1208.910709281097
 20
-555.2291754612761
 30
0.0
 11
1210.909491281097
 21
-555.1593774612761
 31
0.0
  0
LINE
  5
4E58
330
1E
100
AcDbEntity
  8
受金具
  6
PLINE2
 62
     3
100
AcDbLine
 10
1210.769893281097
 20
-551.1618134612761
 30
0.0
 11
1210.822243281097
 21
-552.6608994612761
 31
0.0
  0
LINE
  5
4E59
330
1E
100
AcDbEntity
  8
受金具
  6
PLINE2
 62
     3
100
AcDbLine
 10
1210.822243281097
 20
-552.6608994612761
 30
0.0
 11
1208.840911281097
 21
-553.2303934612761
 31
0.0
  0
LINE
  5
4E5A
330
1E
100
AcDbEntity
  8
受金具
  6
PLINE2
 62
     3
100
AcDbLine
 10
1210.682645281097
 20
-548.6633354612761
 30
0.0
 11
1208.701313281097
 21
-549.2328314612762
 31
0.0
  0
LINE
  5
4E5B
330
1E
100
AcDbEntity
  8
受金具
  6
PLINE2
 62
     3
100
AcDbLine
 10
1208.771111281097
 20
-551.2316114612761
 30
0.0
 11
1210.769893281097
 21
-551.1618134612761
 31
0.0
  0
LINE
  5
4E5C
330
1E
100
AcDbEntity
  8
受金具
  6
PLINE2
 62
     3
100
AcDbLine
 10
1208.701313281097
 20
-549.2328314612762
 30
0.0
 11
1208.771111281097
 21
-551.2316114612761
 31
0.0
  0
LINE
  5
4E5D
330
1E
100
AcDbEntity
  8
受金具
  6
Continuous
 62
     4
100
AcDbLine
 10
1170.561589281097
 20
-509.3120714612759
 30
0.0
 11
1181.161589281097
 21
-509.3120714612759
 31
0.0
  0
LINE
  5
4E5E
330
1E
100
AcDbEntity
  8
受金具
  6
Continuous
 62
     4
100
AcDbLine
 10
1144.266531281097
 20
-513.3449714612761
 30
0.0
 11
1138.161589281097
 21
-544.3120714612761
 31
0.0
  0
LINE
  5
4E5F
330
1E
100
AcDbEntity
  8
躯体
  6
Continuous
 62
     4
100
AcDbLine
 10
1164.335091281097
 20
-513.3120714612759
 30
0.0
 11
1158.561589281097
 21
-523.3120714612761
 31
0.0
  0
LINE
  5
4E60
330
1E
100
AcDbEntity
  8
躯体
  6
Continuous
 62
     4
100
AcDbLine
 10
1158.561589281097
 20
-523.3120714612761
 30
0.0
 11
1153.561589281097
 21
-528.3120714612761
 31
0.0
  0
LINE
  5
4E61
330
1E
100
AcDbEntity
  8
受金具
  6
Continuous
 62
     3
100
AcDbLine
 10
1137.661589281097
 20
-526.5555274612761
 30
0.0
 11
1137.153689281097
 21
-526.0555274612761
 31
0.0
  0
LINE
  5
4E62
330
1E
100
AcDbEntity
  8
受金具
  6
Continuous
 62
     3
100
AcDbLine
 10
1137.661589281097
 20
-526.5555274612761
 30
0.0
 11
1137.153689281097
 21
-526.0555274612761
 31
0.0
  0
LINE
  5
4E63
330
1E
100
AcDbEntity
  8
受金具
  6
Continuous
 62
     3
100
AcDbLine
 10
1137.794489281097
 20
-526.0555274612761
 30
0.0
 11
1137.661589281097
 21
-526.5555274612761
 31
0.0
  0
LINE
  5
4E64
330
1E
100
AcDbEntity
  8
受金具
  6
Continuous
 62
     3
100
AcDbLine
 10
1136.161589281097
 20
-526.5555274612761
 30
0.0
 11
1135.653689281097
 21
-526.0555274612761
 31
0.0
  0
LINE
  5
4E65
330
1E
100
AcDbEntity
  8
受金具
  6
Continuous
 62
     3
100
AcDbLine
 10
1136.161589281097
 20
-526.5555274612761
 30
0.0
 11
1134.661589281097
 21
-522.5555274612761
 31
0.0
  0
LINE
  5
4E66
330
1E
100
AcDbEntity
  8
受金具
  6
Continuous
 62
     3
100
AcDbLine
 10
1134.794489281097
 20
-526.0555274612761
 30
0.0
 11
1134.661589281097
 21
-526.5555274612761
 31
0.0
  0
LINE
  5
4E67
330
1E
100
AcDbEntity
  8
受金具
  6
Continuous
 62
     3
100
AcDbLine
 10
1136.294489281097
 20
-526.0555274612761
 30
0.0
 11
1136.161589281097
 21
-526.5555274612761
 31
0.0
  0
LINE
  5
4E68
330
1E
100
AcDbEntity
  8
受金具
  6
Continuous
 62
     3
100
AcDbLine
 10
1137.661589281097
 20
-526.5555274612761
 30
0.0
 11
1136.161589281097
 21
-522.5555274612761
 31
0.0
  0
ARC
  5
4E69
330
1E
100
AcDbEntity
  8
受金具
  6
Continuous
 62
     3
100
AcDbCircle
 10
1128.750339281097
 20
-524.5555274612761
 30
0.0
 40
11.31124999999999
100
AcDbArc
 50
335.7263510000025
 51
24.27364899999741
  0
LINE
  5
4E6A
330
1E
100
AcDbEntity
  8
受金具
  6
Continuous
 62
     3
100
AcDbLine
 10
1139.061589281097
 20
-519.905527461276
 30
0.0
 11
1139.061589281097
 21
-529.2055274612761
 31
0.0
  0
LINE
  5
4E6B
330
1E
100
AcDbEntity
  8
受金具
  6
Continuous
 62
     3
100
AcDbLine
 10
1138.061589281097
 20
-519.905527461276
 30
0.0
 11
1138.061589281097
 21
-529.2055274612761
 31
0.0
  0
ARC
  5
4E6C
330
1E
100
AcDbEntity
  8
受金具
  6
Continuous
 62
     3
100
AcDbCircle
 10
1138.561589281097
 20
-529.2055274612761
 30
0.0
 40
0.5
100
AcDbArc
 50
180.0
 51
0.0
  0
LINE
  5
4E6D
330
1E
100
AcDbEntity
  8
受金具
  6
Continuous
 62
     3
100
AcDbLine
 10
1137.153689281097
 20
-526.0555274612761
 30
0.0
 11
1136.294489281097
 21
-526.0555274612761
 31
0.0
  0
LINE
  5
4E6E
330
1E
100
AcDbEntity
  8
受金具
  6
Continuous
 62
     3
100
AcDbLine
 10
1136.669489281097
 20
-523.0555274612761
 30
0.0
 11
1137.794489281097
 21
-526.0555274612761
 31
0.0
  0
LINE
  5
4E6F
330
1E
100
AcDbEntity
  8
受金具
  6
Continuous
 62
     3
100
AcDbLine
 10
1138.061589281097
 20
-523.0555274612761
 30
0.0
 11
1136.669489281097
 21
-523.0555274612761
 31
0.0
  0
LINE
  5
4E70
330
1E
100
AcDbEntity
  8
受金具
  6
Continuous
 62
     3
100
AcDbLine
 10
1137.153689281097
 20
-526.0555274612761
 30
0.0
 11
1136.028689281097
 21
-523.0555274612761
 31
0.0
  0
LINE
  5
4E71
330
1E
100
AcDbEntity
  8
受金具
  6
Continuous
 62
     3
100
AcDbLine
 10
1134.661589281097
 20
-522.5555274612761
 30
0.0
 11
1135.169489281097
 21
-523.0555274612761
 31
0.0
  0
LINE
  5
4E72
330
1E
100
AcDbEntity
  8
受金具
  6
Continuous
 62
     3
100
AcDbLine
 10
1134.528689281097
 20
-523.0555274612761
 30
0.0
 11
1134.661589281097
 21
-522.5555274612761
 31
0.0
  0
LINE
  5
4E73
330
1E
100
AcDbEntity
  8
受金具
  6
Continuous
 62
     3
100
AcDbLine
 10
1135.653689281097
 20
-526.0555274612761
 30
0.0
 11
1134.528689281097
 21
-523.0555274612761
 31
0.0
  0
LINE
  5
4E74
330
1E
100
AcDbEntity
  8
受金具
  6
Continuous
 62
     3
100
AcDbLine
 10
1136.028689281097
 20
-523.0555274612761
 30
0.0
 11
1136.161589281097
 21
-522.5555274612761
 31
0.0
  0
LINE
  5
4E75
330
1E
100
AcDbEntity
  8
受金具
  6
Continuous
 62
     3
100
AcDbLine
 10
1135.653689281097
 20
-526.0555274612761
 30
0.0
 11
1134.794489281097
 21
-526.0555274612761
 31
0.0
  0
LINE
  5
4E76
330
1E
100
AcDbEntity
  8
受金具
  6
Continuous
 62
     3
100
AcDbLine
 10
1136.028689281097
 20
-523.0555274612761
 30
0.0
 11
1135.169489281097
 21
-523.0555274612761
 31
0.0
  0
LINE
  5
4E77
330
1E
100
AcDbEntity
  8
受金具
  6
Continuous
 62
     3
100
AcDbLine
 10
1135.169489281097
 20
-523.0555274612761
 30
0.0
 11
1136.294489281097
 21
-526.0555274612761
 31
0.0
  0
LINE
  5
4E78
330
1E
100
AcDbEntity
  8
受金具
  6
Continuous
 62
     3
100
AcDbLine
 10
1136.161589281097
 20
-522.5555274612761
 30
0.0
 11
1136.669489281097
 21
-523.0555274612761
 31
0.0
  0
LINE
  5
4E79
330
1E
100
AcDbEntity
  8
受金具
  6
Continuous
 62
     3
100
AcDbLine
 10
1138.061589281097
 20
-526.0555274612761
 30
0.0
 11
1137.794489281097
 21
-526.0555274612761
 31
0.0
  0
ARC
  5
4E7A
330
1E
100
AcDbEntity
  8
受金具
  6
Continuous
 62
     3
100
AcDbCircle
 10
1138.561589281097
 20
-519.905527461276
 30
0.0
 40
0.5
100
AcDbArc
 50
0.0
 51
180.0
  0
LINE
  5
4E7B
330
1E
100
AcDbEntity
  8
受金具
  6
Continuous
 62
     4
100
AcDbLine
 10
1165.561589281097
 20
-509.3120714612759
 30
0.0
 11
1149.172111281097
 21
-509.3120714612759
 31
0.0
  0
ARC
  5
4E7C
330
1E
100
AcDbEntity
  8
受金具
  6
Continuous
 62
     4
100
AcDbCircle
 10
1149.172111281097
 20
-514.3120714612761
 30
0.0
 40
5.0
100
AcDbArc
 50
90.0
 51
168.8475599999974
  0
ARC
  5
4E7D
330
1E
100
AcDbEntity
  8
受金具
  6
Continuous
 62
     4
100
AcDbCircle
 10
1149.880413281097
 20
-515.8120714612761
 30
0.0
 40
2.5
100
AcDbArc
 50
90.0
 51
168.6900679999979
  0
LINE
  5
4E7E
330
1E
100
AcDbEntity
  8
受金具
  6
Continuous
 62
     3
100
AcDbLine
 10
1143.539341281097
 20
-491.506313461276
 30
0.0
 11
1146.581897281097
 21
-490.502083461276
 31
0.0
  0
LINE
  5
4E7F
330
1E
100
AcDbEntity
  8
受金具
  6
Continuous
 62
     3
100
AcDbLine
 10
1143.339239281097
 20
-496.510213461276
 30
0.0
 11
1145.212741281097
 21
-496.5851334612761
 31
0.0
  0
LINE
  5
4E80
330
1E
100
AcDbEntity
  8
受金具
  6
Continuous
 62
     3
100
AcDbLine
 10
1146.516651281097
 20
-492.133679461276
 30
0.0
 11
1143.873165281097
 21
-492.0279674612761
 31
0.0
  0
LINE
  5
4E81
330
1E
100
AcDbEntity
  8
受金具
  6
Continuous
 62
     3
100
AcDbLine
 10
1144.778105281097
 20
-498.0689514612761
 30
0.0
 11
1146.336843281097
 21
-496.6300854612761
 31
0.0
  0
LINE
  5
4E82
330
1E
100
AcDbEntity
  8
受金具
  6
Continuous
 62
     3
100
AcDbLine
 10
1146.516651281097
 20
-492.133679461276
 30
0.0
 11
1144.778105281097
 21
-498.0689514612761
 31
0.0
  0
LINE
  5
4E83
330
1E
100
AcDbEntity
  8
受金具
  6
Continuous
 62
     3
100
AcDbLine
 10
1146.556293281097
 20
-491.1423714612761
 30
0.0
 11
1143.513737281097
 21
-492.146601461276
 31
0.0
  0
LINE
  5
4E84
330
1E
100
AcDbEntity
  8
受金具
  6
Continuous
 62
     3
100
AcDbLine
 10
1147.076187281097
 20
-490.654855461276
 30
0.0
 11
1143.019447281097
 21
-491.993829461276
 31
0.0
  0
LINE
  5
4E85
330
1E
100
AcDbEntity
  8
受金具
  6
Continuous
 62
     3
100
AcDbLine
 10
1143.339239281097
 20
-496.510213461276
 30
0.0
 11
1144.778105281097
 21
-498.0689514612761
 31
0.0
  0
LINE
  5
4E86
330
1E
100
AcDbEntity
  8
受金具
  6
Continuous
 62
     3
100
AcDbLine
 10
1143.513737281097
 20
-492.146601461276
 30
0.0
 11
1143.339239281097
 21
-496.510213461276
 31
0.0
  0
LINE
  5
4E87
330
1E
100
AcDbEntity
  8
受金具
  6
Continuous
 62
     3
100
AcDbLine
 10
1143.079383281097
 20
-490.4950274612761
 30
0.0
 11
1143.599277281097
 21
-490.0075114612762
 31
0.0
  0
LINE
  5
4E88
330
1E
100
AcDbEntity
  8
受金具
  6
Continuous
 62
     3
100
AcDbLine
 10
1143.573673281097
 20
-490.647799461276
 30
0.0
 11
1143.079383281097
 21
-490.4950274612761
 31
0.0
  0
LINE
  5
4E89
330
1E
100
AcDbEntity
  8
受金具
  6
Continuous
 62
     3
100
AcDbLine
 10
1143.571491281097
 20
-490.7023554612761
 30
0.0
 11
1143.539341281097
 21
-491.506313461276
 31
0.0
  0
LINE
  5
4E8A
330
1E
100
AcDbEntity
  8
受金具
  6
Continuous
 62
     3
100
AcDbLine
 10
1143.513737281097
 20
-492.146601461276
 30
0.0
 11
1143.019447281097
 21
-491.993829461276
 31
0.0
  0
LINE
  5
4E8B
330
1E
100
AcDbEntity
  8
受金具
  6
Continuous
 62
     3
100
AcDbLine
 10
1143.019447281097
 20
-491.993829461276
 30
0.0
 11
1143.539341281097
 21
-491.506313461276
 31
0.0
  0
LINE
  5
4E8C
330
1E
100
AcDbEntity
  8
受金具
  6
Continuous
 62
     3
100
AcDbLine
 10
1146.336843281097
 20
-496.6300854612761
 30
0.0
 11
1146.516651281097
 21
-492.133679461276
 31
0.0
  0
LINE
  5
4E8D
330
1E
100
AcDbEntity
  8
受金具
  6
Continuous
 62
     3
100
AcDbLine
 10
1146.556293281097
 20
-491.1423714612761
 30
0.0
 11
1146.516651281097
 21
-492.133679461276
 31
0.0
  0
LINE
  5
4E8E
330
1E
100
AcDbEntity
  8
受金具
  6
Continuous
 62
     3
100
AcDbLine
 10
1146.581897281097
 20
-490.502083461276
 30
0.0
 11
1147.076187281097
 21
-490.654855461276
 31
0.0
  0
LINE
  5
4E8F
330
1E
100
AcDbEntity
  8
受金具
  6
Continuous
 62
     3
100
AcDbLine
 10
1147.076187281097
 20
-490.654855461276
 30
0.0
 11
1146.556293281097
 21
-491.1423714612761
 31
0.0
  0
LINE
  5
4E90
330
1E
100
AcDbEntity
  8
受金具
  6
Continuous
 62
     3
100
AcDbLine
 10
1146.511341281097
 20
-492.266473461276
 30
0.0
 11
1147.016251281097
 21
-492.1536574612761
 31
0.0
  0
LINE
  5
4E91
330
1E
100
AcDbEntity
  8
受金具
  6
Continuous
 62
     3
100
AcDbLine
 10
1147.016251281097
 20
-492.1536574612761
 30
0.0
 11
1146.536945281097
 21
-491.626185461276
 31
0.0
  0
LINE
  5
4E92
330
1E
100
AcDbEntity
  8
笠木
  6
Continuous
 62
     4
100
AcDbLine
 10
1153.084353281097
 20
-490.1665014612761
 30
0.0
 11
1155.192205281097
 21
-492.274351461276
 31
0.0
  0
LINE
  5
4E93
330
1E
100
AcDbEntity
  8
受金具
  6
Continuous
 62
     4
100
AcDbLine
 10
1169.561589281097
 20
-497.912071461276
 30
0.0
 11
1169.561589281097
 21
-508.3120714612761
 31
0.0
  0
LINE
  5
4E94
330
1E
100
AcDbEntity
  8
受金具
  6
Continuous
 62
     4
100
AcDbLine
 10
1166.561589281097
 20
-497.912071461276
 30
0.0
 11
1166.561589281097
 21
-508.3120714612761
 31
0.0
  0
ARC
  5
4E95
330
1E
100
AcDbEntity
  8
受金具
  6
Continuous
 62
     4
100
AcDbCircle
 10
1165.561589281097
 20
-508.3120714612761
 30
0.0
 40
1.0
100
AcDbArc
 50
270.0
 51
0.0
  0
ARC
  5
4E96
330
1E
100
AcDbEntity
  8
受金具
  6
Continuous
 62
     4
100
AcDbCircle
 10
1170.561589281097
 20
-508.3120714612761
 30
0.0
 40
1.0
100
AcDbArc
 50
180.0
 51
270.0
  0
ARC
  5
4E97
330
1E
100
AcDbEntity
  8
受金具
  6
Continuous
 62
     4
100
AcDbCircle
 10
1165.561589281097
 20
-497.912071461276
 30
0.0
 40
1.0
100
AcDbArc
 50
0.0
 51
90.0
  0
ARC
  5
4E98
330
1E
100
AcDbEntity
  8
受金具
  6
Continuous
 62
     4
100
AcDbCircle
 10
1168.061589281097
 20
-519.4120714612761
 30
0.0
 40
25.0
100
AcDbArc
 50
76.11345999999982
 51
103.8865400000002
  0
LINE
  5
4E99
330
1E
100
AcDbEntity
  8
受金具
  6
Continuous
 62
     4
100
AcDbLine
 10
1163.061589281097
 20
-494.917173461276
 30
0.0
 11
1163.061589281097
 21
-492.667679461276
 31
0.0
  0
LINE
  5
4E9A
330
1E
100
AcDbEntity
  8
受金具
  6
Continuous
 62
     3
100
AcDbLine
 10
1163.064237281097
 20
-494.9166334612761
 30
0.0
 11
1165.206029281097
 21
-492.774863461276
 31
0.0
  0
LINE
  5
4E9B
330
1E
100
AcDbEntity
  8
受金具
  6
Continuous
 62
     4
100
AcDbLine
 10
1165.561589281097
 20
-496.9120714612761
 30
0.0
 11
1162.061589281097
 21
-496.9120714612761
 31
0.0
  0
LINE
  5
4E9C
330
1E
100
AcDbEntity
  8
受金具
  6
Continuous
 62
     4
100
AcDbLine
 10
1162.061589281097
 20
-495.1427494612761
 30
0.0
 11
1162.061589281097
 21
-496.9120714612761
 31
0.0
  0
ARC
  5
4E9D
330
1E
100
AcDbEntity
  8
受金具
  6
Continuous
 62
     4
100
AcDbCircle
 10
1170.561589281097
 20
-497.912071461276
 30
0.0
 40
1.0
100
AcDbArc
 50
90.0
 51
180.0
  0
LINE
  5
4E9E
330
1E
100
AcDbEntity
  8
受金具
  6
Continuous
 62
     4
100
AcDbLine
 10
1170.561589281097
 20
-496.9120714612761
 30
0.0
 11
1174.061589281097
 21
-496.9120714612761
 31
0.0
  0
LINE
  5
4E9F
330
1E
100
AcDbEntity
  8
受金具
  6
Continuous
 62
     3
100
AcDbLine
 10
1169.197717281097
 20
-494.4379014612762
 30
0.0
 11
1170.591575281097
 21
-493.044043461276
 31
0.0
  0
LINE
  5
4EA0
330
1E
100
AcDbEntity
  8
受金具
  6
Continuous
 62
     3
100
AcDbLine
 10
1166.335457281097
 20
-494.471733461276
 30
0.0
 11
1167.897787281097
 21
-492.909403461276
 31
0.0
  0
LINE
  5
4EA1
330
1E
100
AcDbEntity
  8
受金具
  6
Continuous
 62
     4
100
AcDbLine
 10
1173.061589281097
 20
-494.917173461276
 30
0.0
 11
1173.061589281097
 21
-493.1674994612762
 31
0.0
  0
LINE
  5
4EA2
330
1E
100
AcDbEntity
  8
受金具
  6
Continuous
 62
     3
100
AcDbLine
 10
1171.774693281097
 20
-494.689351461276
 30
0.0
 11
1173.061589281097
 21
-493.4024554612761
 31
0.0
  0
LINE
  5
4EA3
330
1E
100
AcDbEntity
  8
受金具
  6
Continuous
 62
     4
100
AcDbLine
 10
1174.061589281097
 20
-495.1427494612761
 30
0.0
 11
1174.061589281097
 21
-496.9120714612761
 31
0.0
  0
LINE
  5
4EA4
330
1E
100
AcDbEntity
  8
受金具
  6
PLINE5
 62
     3
100
AcDbLine
 10
1208.661589281097
 20
-508.3120714612761
 30
0.0
 11
1208.661589281097
 21
-532.423183461276
 31
0.0
  0
LINE
  5
4EA5
330
1E
100
AcDbEntity
  8
受金具
  6
PLINE5
 62
     3
100
AcDbLine
 10
1203.661589281097
 20
-508.3120714612761
 30
0.0
 11
1203.661589281097
 21
-532.423183461276
 31
0.0
  0
LINE
  5
4EA6
330
1E
100
AcDbEntity
  8
受金具
  6
PLINE2
 62
     3
100
AcDbLine
 10
1212.175383281097
 20
-534.102369461276
 30
0.0
 11
1212.175383281097
 21
-531.3120714612761
 31
0.0
  0
LINE
  5
4EA7
330
1E
100
AcDbEntity
  8
受金具
  6
PLINE2
 62
     3
100
AcDbLine
 10
1211.683803281097
 20
-531.3120714612761
 30
0.0
 11
1211.683803281097
 21
-534.0110054612761
 31
0.0
  0
LINE
  5
4EA8
330
1E
100
AcDbEntity
  8
受金具
  6
PLINE2
 62
     3
100
AcDbLine
 10
1200.147795281097
 20
-534.102369461276
 30
0.0
 11
1200.147795281097
 21
-531.3120714612761
 31
0.0
  0
LINE
  5
4EA9
330
1E
100
AcDbEntity
  8
受金具
  6
PLINE2
 62
     3
100
AcDbLine
 10
1200.639375281097
 20
-531.3120714612761
 30
0.0
 11
1200.639375281097
 21
-534.0110054612761
 31
0.0
  0
LINE
  5
4EAA
330
1E
100
AcDbEntity
  8
受金具
  6
PLINE2
 62
     3
100
AcDbLine
 10
1210.161589281097
 20
-536.3120714612761
 30
0.0
 11
1210.161589281097
 21
-523.3120714612761
 31
0.0
  0
LINE
  5
4EAB
330
1E
100
AcDbEntity
  8
受金具
  6
PLINE2
 62
     3
100
AcDbLine
 10
1202.161589281097
 20
-523.3120714612761
 30
0.0
 11
1202.161589281097
 21
-536.3120714612761
 31
0.0
  0
LINE
  5
4EAC
330
1E
100
AcDbEntity
  8
受金具
  6
PLINE2
 62
     3
100
AcDbLine
 10
1210.403449281097
 20
-540.6682094612761
 30
0.0
 11
1208.422117281097
 21
-541.237703461276
 31
0.0
  0
LINE
  5
4EAD
330
1E
100
AcDbEntity
  8
受金具
  6
PLINE2
 62
     3
100
AcDbLine
 10
1208.352317281097
 20
-539.238921461276
 30
0.0
 11
1210.351099281097
 21
-539.1691234612761
 31
0.0
  0
LINE
  5
4EAE
330
1E
100
AcDbEntity
  8
受金具
  6
PLINE2
 62
     3
100
AcDbLine
 10
1208.265069281097
 20
-536.740445461276
 30
0.0
 11
1210.246401281097
 21
-536.1709514612761
 31
0.0
  0
LINE
  5
4EAF
330
1E
100
AcDbEntity
  8
受金具
  6
PLINE2
 62
     3
100
AcDbLine
 10
1210.543047281097
 20
-544.665773461276
 30
0.0
 11
1208.561715281097
 21
-545.235267461276
 31
0.0
  0
LINE
  5
4EB0
330
1E
100
AcDbEntity
  8
受金具
  6
PLINE2
 62
     3
100
AcDbLine
 10
1208.561715281097
 20
-545.235267461276
 30
0.0
 11
1208.631513281097
 21
-547.234049461276
 31
0.0
  0
LINE
  5
4EB1
330
1E
100
AcDbEntity
  8
受金具
  6
PLINE2
 62
     3
100
AcDbLine
 10
1208.491915281097
 20
-543.236485461276
 30
0.0
 11
1210.490697281097
 21
-543.166687461276
 31
0.0
  0
LINE
  5
4EB2
330
1E
100
AcDbEntity
  8
受金具
  6
PLINE2
 62
     3
100
AcDbLine
 10
1201.972079281097
 20
-539.1691234612761
 30
0.0
 11
1201.919729281097
 21
-540.6682094612761
 31
0.0
  0
LINE
  5
4EB3
330
1E
100
AcDbEntity
  8
受金具
  6
PLINE2
 62
     3
100
AcDbLine
 10
1202.344365281097
 20
-543.184561461276
 30
0.0
 11
1200.639375281097
 21
-534.0110054612761
 31
0.0
  0
LINE
  5
4EB4
330
1E
100
AcDbEntity
  8
受金具
  6
PLINE2
 62
     3
100
AcDbLine
 10
1200.147795281097
 20
-534.102369461276
 30
0.0
 11
1201.832481281097
 21
-543.166687461276
 31
0.0
  0
LINE
  5
4EB5
330
1E
100
AcDbEntity
  8
受金具
  6
PLINE2
 62
     3
100
AcDbLine
 10
1201.919729281097
 20
-540.6682094612761
 30
0.0
 11
1203.901061281097
 21
-541.237703461276
 31
0.0
  0
LINE
  5
4EB6
330
1E
100
AcDbEntity
  8
受金具
  6
PLINE2
 62
     3
100
AcDbLine
 10
1201.780131281097
 20
-544.665773461276
 30
0.0
 11
1203.761463281097
 21
-545.235267461276
 31
0.0
  0
LINE
  5
4EB7
330
1E
100
AcDbEntity
  8
受金具
  6
PLINE2
 62
     3
100
AcDbLine
 10
1203.691665281097
 20
-547.234049461276
 30
0.0
 11
1201.692883281097
 21
-547.1642494612759
 31
0.0
  0
LINE
  5
4EB8
330
1E
100
AcDbEntity
  8
受金具
  6
PLINE2
 62
     3
100
AcDbLine
 10
1201.832481281097
 20
-543.166687461276
 30
0.0
 11
1203.831263281097
 21
-543.236485461276
 31
0.0
  0
LINE
  5
4EB9
330
1E
100
AcDbEntity
  8
受金具
  6
PLINE2
 62
     3
100
AcDbLine
 10
1201.832481281097
 20
-543.166687461276
 30
0.0
 11
1201.780131281097
 21
-544.665773461276
 31
0.0
  0
LINE
  5
4EBA
330
1E
100
AcDbEntity
  8
受金具
  6
PLINE2
 62
     3
100
AcDbLine
 10
1203.761463281097
 20
-545.235267461276
 30
0.0
 11
1203.691665281097
 21
-547.234049461276
 31
0.0
  0
LINE
  5
4EBB
330
1E
100
AcDbEntity
  8
受金具
  6
PLINE2
 62
     3
100
AcDbLine
 10
1203.831263281097
 20
-543.236485461276
 30
0.0
 11
1203.901061281097
 21
-541.237703461276
 31
0.0
  0
LINE
  5
4EBC
330
1E
100
AcDbEntity
  8
受金具
  6
PLINE2
 62
     3
100
AcDbLine
 10
1208.422117281097
 20
-541.237703461276
 30
0.0
 11
1208.491915281097
 21
-543.236485461276
 31
0.0
  0
LINE
  5
4EBD
330
1E
100
AcDbEntity
  8
受金具
  6
PLINE2
 62
     3
100
AcDbLine
 10
1201.972079281097
 20
-539.1691234612761
 30
0.0
 11
1203.970861281097
 21
-539.238921461276
 31
0.0
  0
LINE
  5
4EBE
330
1E
100
AcDbEntity
  8
受金具
  6
PLINE2
 62
     3
100
AcDbLine
 10
1202.076777281097
 20
-536.1709514612761
 30
0.0
 11
1204.058109281097
 21
-536.740445461276
 31
0.0
  0
LINE
  5
4EBF
330
1E
100
AcDbEntity
  8
受金具
  6
PLINE2
 62
     3
100
AcDbLine
 10
1208.265069281097
 20
-536.740445461276
 30
0.0
 11
1208.352317281097
 21
-539.238921461276
 31
0.0
  0
LINE
  5
4EC0
330
1E
100
AcDbEntity
  8
受金具
  6
PLINE2
 62
     3
100
AcDbLine
 10
1204.058109281097
 20
-536.740445461276
 30
0.0
 11
1203.970861281097
 21
-539.238921461276
 31
0.0
  0
LINE
  5
4EC1
330
1E
100
AcDbEntity
  8
受金具
  6
PLINE2
 62
     3
100
AcDbLine
 10
1205.661893281097
 20
-533.829521461276
 30
0.0
 11
1206.661285281097
 21
-533.794621461276
 31
0.0
  0
LINE
  5
4EC2
330
1E
100
AcDbEntity
  8
受金具
  6
PLINE2
 62
     3
100
AcDbLine
 10
1210.351099281097
 20
-539.1691234612761
 30
0.0
 11
1210.403449281097
 21
-540.6682094612761
 31
0.0
  0
LINE
  5
4EC3
330
1E
100
AcDbEntity
  8
受金具
  6
PLINE2
 62
     3
100
AcDbLine
 10
1211.683803281097
 20
-534.0110054612761
 30
0.0
 11
1209.978813281097
 21
-543.184561461276
 31
0.0
  0
LINE
  5
4EC4
330
1E
100
AcDbEntity
  8
受金具
  6
PLINE2
 62
     3
100
AcDbLine
 10
1210.490697281097
 20
-543.166687461276
 30
0.0
 11
1212.175383281097
 21
-534.102369461276
 31
0.0
  0
LINE
  5
4EC5
330
1E
100
AcDbEntity
  8
受金具
  6
PLINE2
 62
     3
100
AcDbLine
 10
1210.490697281097
 20
-543.166687461276
 30
0.0
 11
1210.543047281097
 21
-544.665773461276
 31
0.0
  0
LINE
  5
4EC6
330
1E
100
AcDbEntity
  8
受金具
  6
PLINE2
 62
     3
100
AcDbLine
 10
1208.631513281097
 20
-547.234049461276
 30
0.0
 11
1210.630295281097
 21
-547.1642494612759
 31
0.0
  0
LINE
  5
4EC7
330
1E
100
AcDbEntity
  8
受金具
  6
PLINE2
 62
     3
100
AcDbLine
 10
1201.632609281097
 20
-523.3120714612761
 30
0.0
 11
1202.161589281097
 21
-526.3120714612759
 31
0.0
  0
LINE
  5
4EC8
330
1E
100
AcDbEntity
  8
受金具
  6
PLINE2
 62
     3
100
AcDbLine
 10
1200.147795281097
 20
-531.3120714612761
 30
0.0
 11
1200.639375281097
 21
-531.3120714612761
 31
0.0
  0
LINE
  5
4EC9
330
1E
100
AcDbEntity
  8
受金具
  6
PLINE2
 62
     3
100
AcDbLine
 10
1210.690569281097
 20
-523.3120714612761
 30
0.0
 11
1210.161589281097
 21
-526.3120714612759
 31
0.0
  0
LINE
  5
4ECA
330
1E
100
AcDbEntity
  8
受金具
  6
PLINE2
 62
     3
100
AcDbLine
 10
1212.175383281097
 20
-531.3120714612761
 30
0.0
 11
1211.683803281097
 21
-531.3120714612761
 31
0.0
  0
LINE
  5
4ECB
330
1E
100
AcDbEntity
  8
受金具
  6
Continuous
 62
     4
100
AcDbLine
 10
1193.661589281097
 20
-507.3120714612761
 30
0.0
 11
1218.661589281097
 21
-507.3120714612761
 31
0.0
  0
LINE
  5
4ECC
330
1E
100
AcDbEntity
  8
受金具
  6
Continuous
 62
     4
100
AcDbLine
 10
1181.161589281097
 20
-509.3120714612759
 30
0.0
 11
1182.161589281097
 21
-508.3120714612761
 31
0.0
  0
LINE
  5
4ECD
330
1E
100
AcDbEntity
  8
受金具
  6
Continuous
 62
     4
100
AcDbLine
 10
1193.661589281097
 20
-508.3120714612761
 30
0.0
 11
1193.661589281097
 21
-507.3120714612761
 31
0.0
  0
ARC
  5
4ECE
330
1E
100
AcDbEntity
  8
受金具
  6
Continuous
 62
     4
100
AcDbCircle
 10
1208.161589281097
 20
-506.3120714612761
 30
0.0
 40
2.0
100
AcDbArc
 50
0.0
 51
90.0
  0
ARC
  5
4ECF
330
1E
100
AcDbEntity
  8
受金具
  6
Continuous
 62
     4
100
AcDbCircle
 10
1204.161589281097
 20
-506.3120714612761
 30
0.0
 40
2.0
100
AcDbArc
 50
90.0
 51
180.0
  0
LINE
  5
4ED0
330
1E
100
AcDbEntity
  8
受金具
  6
Continuous
 62
     4
100
AcDbLine
 10
1202.161589281097
 20
-506.3120714612761
 30
0.0
 11
1202.161589281097
 21
-507.3120714612761
 31
0.0
  0
LINE
  5
4ED1
330
1E
100
AcDbEntity
  8
受金具
  6
Continuous
 62
     4
100
AcDbLine
 10
1210.161589281097
 20
-506.3120714612761
 30
0.0
 11
1210.161589281097
 21
-507.3120714612761
 31
0.0
  0
LINE
  5
4ED2
330
1E
100
AcDbEntity
  8
受金具
  6
Continuous
 62
     4
100
AcDbLine
 10
1218.661589281097
 20
-508.3120714612761
 30
0.0
 11
1218.661589281097
 21
-507.3120714612761
 31
0.0
  0
LINE
  5
4ED3
330
1E
100
AcDbEntity
  8
受金具
  6
Continuous
 62
     4
100
AcDbLine
 10
1208.161589281097
 20
-504.3120714612761
 30
0.0
 11
1204.161589281097
 21
-504.3120714612761
 31
0.0
  0
LINE
  5
4ED4
330
1E
100
AcDbEntity
  8
受金具
  6
PLINE2
 62
     3
100
AcDbLine
 10
1270.630295281097
 20
-547.1642494612759
 30
0.0
 11
1270.682645281097
 21
-548.6633354612761
 31
0.0
  0
LINE
  5
4ED5
330
1E
100
AcDbEntity
  8
受金具
  6
PLINE2
 62
     3
100
AcDbLine
 10
1261.692883281097
 20
-547.1642494612759
 30
0.0
 11
1261.640533281097
 21
-548.6633354612761
 31
0.0
  0
LINE
  5
4ED6
330
1E
100
AcDbEntity
  8
受金具
  6
PLINE2
 62
     3
100
AcDbLine
 10
1265.661893281097
 20
-533.794621461276
 30
0.0
 11
1264.737057281097
 21
-560.2784794612761
 31
0.0
  0
LINE
  5
4ED7
330
1E
100
AcDbEntity
  8
受金具
  6
PLINE2
 62
     3
100
AcDbLine
 10
1267.586121281097
 20
-560.2784794612761
 30
0.0
 11
1266.661285281097
 21
-533.794621461276
 31
0.0
  0
LINE
  5
4ED8
330
1E
100
AcDbEntity
  8
受金具
  6
PLINE2
 62
     3
100
AcDbLine
 10
1261.640533281097
 20
-548.6633354612761
 30
0.0
 11
1263.621865281097
 21
-549.2328314612762
 31
0.0
  0
LINE
  5
4ED9
330
1E
100
AcDbEntity
  8
受金具
  6
PLINE2
 62
     3
100
AcDbLine
 10
1263.412469281097
 20
-555.2291754612761
 30
0.0
 11
1261.413687281097
 21
-555.1593774612761
 31
0.0
  0
LINE
  5
4EDA
330
1E
100
AcDbEntity
  8
受金具
  6
PLINE2
 62
     3
100
AcDbLine
 10
1263.552067281097
 20
-551.2316114612761
 30
0.0
 11
1261.553285281097
 21
-551.1618134612761
 31
0.0
  0
LINE
  5
4EDB
330
1E
100
AcDbEntity
  8
受金具
  6
PLINE2
 62
     3
100
AcDbLine
 10
1261.500935281097
 20
-552.6608994612761
 30
0.0
 11
1263.482267281097
 21
-553.2303934612761
 31
0.0
  0
LINE
  5
4EDC
330
1E
100
AcDbEntity
  8
受金具
  6
PLINE2
 62
     3
100
AcDbLine
 10
1261.343887281097
 20
-557.1581574612761
 30
0.0
 11
1263.237971281097
 21
-560.226129461276
 31
0.0
  0
LINE
  5
4EDD
330
1E
100
AcDbEntity
  8
受金具
  6
PLINE2
 62
     3
100
AcDbLine
 10
1264.841755281097
 20
-557.280307461276
 30
0.0
 11
1261.343887281097
 21
-557.1581574612761
 31
0.0
  0
LINE
  5
4EDE
330
1E
100
AcDbEntity
  8
受金具
  6
PLINE2
 62
     3
100
AcDbLine
 10
1261.413687281097
 20
-555.1593774612761
 30
0.0
 11
1261.343887281097
 21
-557.1581574612761
 31
0.0
  0
LINE
  5
4EDF
330
1E
100
AcDbEntity
  8
受金具
  6
PLINE2
 62
     3
100
AcDbLine
 10
1261.553285281097
 20
-551.1618134612761
 30
0.0
 11
1261.500935281097
 21
-552.6608994612761
 31
0.0
  0
LINE
  5
4EE0
330
1E
100
AcDbEntity
  8
受金具
  6
PLINE2
 62
     3
100
AcDbLine
 10
1268.840911281097
 20
-553.2303934612761
 30
0.0
 11
1268.910709281097
 21
-555.2291754612761
 31
0.0
  0
LINE
  5
4EE1
330
1E
100
AcDbEntity
  8
受金具
  6
PLINE2
 62
     3
100
AcDbLine
 10
1266.161589281097
 20
-556.7011494612761
 30
0.0
 11
1264.936103281097
 21
-554.5785454612761
 31
0.0
  0
LINE
  5
4EE2
330
1E
100
AcDbEntity
  8
受金具
  6
PLINE2
 62
     3
100
AcDbLine
 10
1267.387075281097
 20
-554.5785454612761
 30
0.0
 11
1266.161589281097
 21
-556.7011494612761
 31
0.0
  0
LINE
  5
4EE3
330
1E
100
AcDbEntity
  8
受金具
  6
PLINE2
 62
     3
100
AcDbLine
 10
1263.482267281097
 20
-553.2303934612761
 30
0.0
 11
1263.412469281097
 21
-555.2291754612761
 31
0.0
  0
LINE
  5
4EE4
330
1E
100
AcDbEntity
  8
受金具
  6
PLINE2
 62
     3
100
AcDbLine
 10
1264.737057281097
 20
-560.2784794612761
 30
0.0
 11
1263.237971281097
 21
-560.226129461276
 31
0.0
  0
LINE
  5
4EE5
330
1E
100
AcDbEntity
  8
受金具
  6
PLINE2
 62
     3
100
AcDbLine
 10
1270.979291281097
 20
-557.1581574612761
 30
0.0
 11
1269.085207281097
 21
-560.226129461276
 31
0.0
  0
LINE
  5
4EE6
330
1E
100
AcDbEntity
  8
受金具
  6
PLINE2
 62
     3
100
AcDbLine
 10
1269.085207281097
 20
-560.226129461276
 30
0.0
 11
1267.586121281097
 21
-560.2784794612761
 31
0.0
  0
LINE
  5
4EE7
330
1E
100
AcDbEntity
  8
受金具
  6
PLINE2
 62
     3
100
AcDbLine
 10
1268.910709281097
 20
-555.2291754612761
 30
0.0
 11
1270.909491281097
 21
-555.1593774612761
 31
0.0
  0
LINE
  5
4EE8
330
1E
100
AcDbEntity
  8
受金具
  6
PLINE2
 62
     3
100
AcDbLine
 10
1270.979291281097
 20
-557.1581574612761
 30
0.0
 11
1267.481423281097
 21
-557.280307461276
 31
0.0
  0
LINE
  5
4EE9
330
1E
100
AcDbEntity
  8
受金具
  6
PLINE2
 62
     3
100
AcDbLine
 10
1270.909491281097
 20
-555.1593774612761
 30
0.0
 11
1270.979291281097
 21
-557.1581574612761
 31
0.0
  0
LINE
  5
4EEA
330
1E
100
AcDbEntity
  8
受金具
  6
PLINE2
 62
     3
100
AcDbLine
 10
1263.621865281097
 20
-549.2328314612762
 30
0.0
 11
1263.552067281097
 21
-551.2316114612761
 31
0.0
  0
LINE
  5
4EEB
330
1E
100
AcDbEntity
  8
受金具
  6
PLINE2
 62
     3
100
AcDbLine
 10
1270.769893281097
 20
-551.1618134612761
 30
0.0
 11
1270.822243281097
 21
-552.6608994612761
 31
0.0
  0
LINE
  5
4EEC
330
1E
100
AcDbEntity
  8
受金具
  6
PLINE2
 62
     3
100
AcDbLine
 10
1270.822243281097
 20
-552.6608994612761
 30
0.0
 11
1268.840911281097
 21
-553.2303934612761
 31
0.0
  0
LINE
  5
4EED
330
1E
100
AcDbEntity
  8
受金具
  6
PLINE2
 62
     3
100
AcDbLine
 10
1270.682645281097
 20
-548.6633354612761
 30
0.0
 11
1268.701313281097
 21
-549.2328314612762
 31
0.0
  0
LINE
  5
4EEE
330
1E
100
AcDbEntity
  8
受金具
  6
PLINE2
 62
     3
100
AcDbLine
 10
1268.771111281097
 20
-551.2316114612761
 30
0.0
 11
1270.769893281097
 21
-551.1618134612761
 31
0.0
  0
LINE
  5
4EEF
330
1E
100
AcDbEntity
  8
受金具
  6
PLINE2
 62
     3
100
AcDbLine
 10
1268.701313281097
 20
-549.2328314612762
 30
0.0
 11
1268.771111281097
 21
-551.2316114612761
 31
0.0
  0
LINE
  5
4EF0
330
1E
100
AcDbEntity
  8
受金具
  6
Continuous
 62
     4
100
AcDbLine
 10
1278.661589281097
 20
-507.3120714612761
 30
0.0
 11
1253.661589281097
 21
-507.3120714612761
 31
0.0
  0
LINE
  5
4EF1
330
1E
100
AcDbEntity
  8
受金具
  6
Continuous
 62
     4
100
AcDbLine
 10
1236.661589281097
 20
-508.3120714612761
 30
0.0
 11
1290.161589281097
 21
-508.3120714612761
 31
0.0
  0
LINE
  5
4EF2
330
1E
100
AcDbEntity
  8
受金具
  6
PLINE2
 62
     3
100
AcDbLine
 10
1261.632609281097
 20
-523.3120714612761
 30
0.0
 11
1262.161589281097
 21
-526.3120714612759
 31
0.0
  0
LINE
  5
4EF3
330
1E
100
AcDbEntity
  8
受金具
  6
PLINE2
 62
     3
100
AcDbLine
 10
1263.691665281097
 20
-547.234049461276
 30
0.0
 11
1261.692883281097
 21
-547.1642494612759
 31
0.0
  0
LINE
  5
4EF4
330
1E
100
AcDbEntity
  8
受金具
  6
PLINE2
 62
     3
100
AcDbLine
 10
1260.639375281097
 20
-534.0110054612761
 30
0.0
 11
1262.344365281097
 21
-543.184561461276
 31
0.0
  0
LINE
  5
4EF5
330
1E
100
AcDbEntity
  8
受金具
  6
PLINE2
 62
     3
100
AcDbLine
 10
1261.832481281097
 20
-543.166687461276
 30
0.0
 11
1260.147795281097
 21
-534.102369461276
 31
0.0
  0
LINE
  5
4EF6
330
1E
100
AcDbEntity
  8
受金具
  6
PLINE2
 62
     3
100
AcDbLine
 10
1260.147795281097
 20
-534.102369461276
 30
0.0
 11
1260.147795281097
 21
-531.3120714612761
 31
0.0
  0
LINE
  5
4EF7
330
1E
100
AcDbEntity
  8
受金具
  6
PLINE2
 62
     3
100
AcDbLine
 10
1260.639375281097
 20
-531.3120714612761
 30
0.0
 11
1260.639375281097
 21
-534.0110054612761
 31
0.0
  0
LINE
  5
4EF8
330
1E
100
AcDbEntity
  8
受金具
  6
PLINE2
 62
     3
100
AcDbLine
 10
1260.147795281097
 20
-531.3120714612761
 30
0.0
 11
1260.639375281097
 21
-531.3120714612761
 31
0.0
  0
LINE
  5
4EF9
330
1E
100
AcDbEntity
  8
受金具
  6
Continuous
 62
     4
100
AcDbLine
 10
1235.661589281097
 20
-508.3120714612761
 30
0.0
 11
1236.161589281097
 21
-508.812071461276
 31
0.0
  0
LINE
  5
4EFA
330
1E
100
AcDbEntity
  8
受金具
  6
Continuous
 62
     4
100
AcDbLine
 10
1236.161589281097
 20
-508.812071461276
 30
0.0
 11
1236.661589281097
 21
-508.3120714612761
 31
0.0
  0
LINE
  5
4EFB
330
1E
100
AcDbEntity
  8
受金具
  6
Continuous
 62
     4
100
AcDbLine
 10
1253.661589281097
 20
-508.3120714612761
 30
0.0
 11
1253.661589281097
 21
-507.3120714612761
 31
0.0
  0
LINE
  5
4EFC
330
1E
100
AcDbEntity
  8
受金具
  6
PLINE5
 62
     3
100
AcDbLine
 10
1263.661589281097
 20
-508.3120714612761
 30
0.0
 11
1263.661589281097
 21
-532.423183461276
 31
0.0
  0
LINE
  5
4EFD
330
1E
100
AcDbEntity
  8
受金具
  6
PLINE5
 62
     3
100
AcDbLine
 10
1268.661589281097
 20
-508.3120714612761
 30
0.0
 11
1268.661589281097
 21
-532.423183461276
 31
0.0
  0
LINE
  5
4EFE
330
1E
100
AcDbEntity
  8
受金具
  6
PLINE2
 62
     3
100
AcDbLine
 10
1272.175383281097
 20
-534.102369461276
 30
0.0
 11
1272.175383281097
 21
-531.3120714612761
 31
0.0
  0
LINE
  5
4EFF
330
1E
100
AcDbEntity
  8
受金具
  6
PLINE2
 62
     3
100
AcDbLine
 10
1271.683803281097
 20
-531.3120714612761
 30
0.0
 11
1271.683803281097
 21
-534.0110054612761
 31
0.0
  0
LINE
  5
4F00
330
1E
100
AcDbEntity
  8
受金具
  6
PLINE2
 62
     3
100
AcDbLine
 10
1270.161589281097
 20
-523.3120714612761
 30
0.0
 11
1270.161589281097
 21
-536.3120714612761
 31
0.0
  0
LINE
  5
4F01
330
1E
100
AcDbEntity
  8
受金具
  6
PLINE2
 62
     3
100
AcDbLine
 10
1262.161589281097
 20
-536.3120714612761
 30
0.0
 11
1262.161589281097
 21
-523.3120714612761
 31
0.0
  0
LINE
  5
4F02
330
1E
100
AcDbEntity
  8
受金具
  6
PLINE2
 62
     3
100
AcDbLine
 10
1270.351099281097
 20
-539.1691234612761
 30
0.0
 11
1270.403449281097
 21
-540.6682094612761
 31
0.0
  0
LINE
  5
4F03
330
1E
100
AcDbEntity
  8
受金具
  6
PLINE2
 62
     3
100
AcDbLine
 10
1261.972079281097
 20
-539.1691234612761
 30
0.0
 11
1261.919729281097
 21
-540.6682094612761
 31
0.0
  0
LINE
  5
4F04
330
1E
100
AcDbEntity
  8
受金具
  6
PLINE2
 62
     3
100
AcDbLine
 10
1269.978813281097
 20
-543.184561461276
 30
0.0
 11
1271.683803281097
 21
-534.0110054612761
 31
0.0
  0
LINE
  5
4F05
330
1E
100
AcDbEntity
  8
受金具
  6
PLINE2
 62
     3
100
AcDbLine
 10
1272.175383281097
 20
-534.102369461276
 30
0.0
 11
1270.490697281097
 21
-543.166687461276
 31
0.0
  0
LINE
  5
4F06
330
1E
100
AcDbEntity
  8
受金具
  6
PLINE2
 62
     3
100
AcDbLine
 10
1261.832481281097
 20
-543.166687461276
 30
0.0
 11
1261.780131281097
 21
-544.665773461276
 31
0.0
  0
LINE
  5
4F07
330
1E
100
AcDbEntity
  8
受金具
  6
PLINE2
 62
     3
100
AcDbLine
 10
1263.761463281097
 20
-545.235267461276
 30
0.0
 11
1263.691665281097
 21
-547.234049461276
 31
0.0
  0
LINE
  5
4F08
330
1E
100
AcDbEntity
  8
受金具
  6
PLINE2
 62
     3
100
AcDbLine
 10
1261.780131281097
 20
-544.665773461276
 30
0.0
 11
1263.761463281097
 21
-545.235267461276
 31
0.0
  0
LINE
  5
4F09
330
1E
100
AcDbEntity
  8
受金具
  6
PLINE2
 62
     3
100
AcDbLine
 10
1263.901061281097
 20
-541.237703461276
 30
0.0
 11
1263.831263281097
 21
-543.236485461276
 31
0.0
  0
LINE
  5
4F0A
330
1E
100
AcDbEntity
  8
受金具
  6
PLINE2
 62
     3
100
AcDbLine
 10
1261.919729281097
 20
-540.6682094612761
 30
0.0
 11
1263.901061281097
 21
-541.237703461276
 31
0.0
  0
LINE
  5
4F0B
330
1E
100
AcDbEntity
  8
受金具
  6
PLINE2
 62
     3
100
AcDbLine
 10
1263.831263281097
 20
-543.236485461276
 30
0.0
 11
1261.832481281097
 21
-543.166687461276
 31
0.0
  0
LINE
  5
4F0C
330
1E
100
AcDbEntity
  8
受金具
  6
PLINE2
 62
     3
100
AcDbLine
 10
1270.490697281097
 20
-543.166687461276
 30
0.0
 11
1270.543047281097
 21
-544.665773461276
 31
0.0
  0
LINE
  5
4F0D
330
1E
100
AcDbEntity
  8
受金具
  6
PLINE2
 62
     3
100
AcDbLine
 10
1270.543047281097
 20
-544.665773461276
 30
0.0
 11
1268.561715281097
 21
-545.235267461276
 31
0.0
  0
LINE
  5
4F0E
330
1E
100
AcDbEntity
  8
受金具
  6
PLINE2
 62
     3
100
AcDbLine
 10
1268.631513281097
 20
-547.234049461276
 30
0.0
 11
1270.630295281097
 21
-547.1642494612759
 31
0.0
  0
LINE
  5
4F0F
330
1E
100
AcDbEntity
  8
受金具
  6
PLINE2
 62
     3
100
AcDbLine
 10
1268.561715281097
 20
-545.235267461276
 30
0.0
 11
1268.631513281097
 21
-547.234049461276
 31
0.0
  0
LINE
  5
4F10
330
1E
100
AcDbEntity
  8
受金具
  6
PLINE2
 62
     3
100
AcDbLine
 10
1270.403449281097
 20
-540.6682094612761
 30
0.0
 11
1268.422117281097
 21
-541.237703461276
 31
0.0
  0
LINE
  5
4F11
330
1E
100
AcDbEntity
  8
受金具
  6
PLINE2
 62
     3
100
AcDbLine
 10
1270.490697281097
 20
-543.166687461276
 30
0.0
 11
1268.491915281097
 21
-543.236485461276
 31
0.0
  0
LINE
  5
4F12
330
1E
100
AcDbEntity
  8
受金具
  6
PLINE2
 62
     3
100
AcDbLine
 10
1268.491915281097
 20
-543.236485461276
 30
0.0
 11
1268.422117281097
 21
-541.237703461276
 31
0.0
  0
LINE
  5
4F13
330
1E
100
AcDbEntity
  8
受金具
  6
PLINE2
 62
     3
100
AcDbLine
 10
1264.058109281097
 20
-536.740445461276
 30
0.0
 11
1263.970861281097
 21
-539.238921461276
 31
0.0
  0
LINE
  5
4F14
330
1E
100
AcDbEntity
  8
受金具
  6
PLINE2
 62
     3
100
AcDbLine
 10
1263.970861281097
 20
-539.238921461276
 30
0.0
 11
1261.972079281097
 21
-539.1691234612761
 31
0.0
  0
LINE
  5
4F15
330
1E
100
AcDbEntity
  8
受金具
  6
PLINE2
 62
     3
100
AcDbLine
 10
1264.058109281097
 20
-536.740445461276
 30
0.0
 11
1262.076777281097
 21
-536.1709514612761
 31
0.0
  0
LINE
  5
4F16
330
1E
100
AcDbEntity
  8
受金具
  6
PLINE2
 62
     3
100
AcDbLine
 10
1266.661285281097
 20
-533.829521461276
 30
0.0
 11
1265.661893281097
 21
-533.794621461276
 31
0.0
  0
LINE
  5
4F17
330
1E
100
AcDbEntity
  8
受金具
  6
PLINE2
 62
     3
100
AcDbLine
 10
1268.265069281097
 20
-536.740445461276
 30
0.0
 11
1268.352317281097
 21
-539.238921461276
 31
0.0
  0
LINE
  5
4F18
330
1E
100
AcDbEntity
  8
受金具
  6
PLINE2
 62
     3
100
AcDbLine
 10
1270.351099281097
 20
-539.1691234612761
 30
0.0
 11
1268.352317281097
 21
-539.238921461276
 31
0.0
  0
LINE
  5
4F19
330
1E
100
AcDbEntity
  8
受金具
  6
PLINE2
 62
     3
100
AcDbLine
 10
1270.246401281097
 20
-536.1709514612761
 30
0.0
 11
1268.265069281097
 21
-536.740445461276
 31
0.0
  0
LINE
  5
4F1A
330
1E
100
AcDbEntity
  8
受金具
  6
PLINE2
 62
     3
100
AcDbLine
 10
1270.690569281097
 20
-523.3120714612761
 30
0.0
 11
1270.161589281097
 21
-526.3120714612759
 31
0.0
  0
LINE
  5
4F1B
330
1E
100
AcDbEntity
  8
受金具
  6
PLINE2
 62
     3
100
AcDbLine
 10
1272.175383281097
 20
-531.3120714612761
 30
0.0
 11
1271.683803281097
 21
-531.3120714612761
 31
0.0
  0
ARC
  5
4F1C
330
1E
100
AcDbEntity
  8
受金具
  6
Continuous
 62
     4
100
AcDbCircle
 10
1268.161589281097
 20
-506.3120714612761
 30
0.0
 40
2.0
100
AcDbArc
 50
0.0
 51
90.0
  0
ARC
  5
4F1D
330
1E
100
AcDbEntity
  8
受金具
  6
Continuous
 62
     4
100
AcDbCircle
 10
1264.161589281097
 20
-506.3120714612761
 30
0.0
 40
2.0
100
AcDbArc
 50
90.0
 51
180.0
  0
LINE
  5
4F1E
330
1E
100
AcDbEntity
  8
受金具
  6
Continuous
 62
     4
100
AcDbLine
 10
1262.161589281097
 20
-506.3120714612761
 30
0.0
 11
1262.161589281097
 21
-507.3120714612761
 31
0.0
  0
LINE
  5
4F1F
330
1E
100
AcDbEntity
  8
受金具
  6
Continuous
 62
     4
100
AcDbLine
 10
1270.161589281097
 20
-506.3120714612761
 30
0.0
 11
1270.161589281097
 21
-507.3120714612761
 31
0.0
  0
LINE
  5
4F20
330
1E
100
AcDbEntity
  8
受金具
  6
Continuous
 62
     4
100
AcDbLine
 10
1278.661589281097
 20
-508.3120714612761
 30
0.0
 11
1278.661589281097
 21
-507.3120714612761
 31
0.0
  0
LINE
  5
4F21
330
1E
100
AcDbEntity
  8
受金具
  6
Continuous
 62
     4
100
AcDbLine
 10
1264.161589281097
 20
-504.3120714612761
 30
0.0
 11
1268.161589281097
 21
-504.3120714612761
 31
0.0
  0
ARC
  5
4F22
330
1E
100
AcDbEntity
  8
受金具
  6
Continuous
 62
     4
100
AcDbCircle
 10
1301.561587281097
 20
-504.712071461276
 30
0.0
 40
1.0
100
AcDbArc
 50
0.0
 51
90.0
  0
LINE
  5
4F23
330
1E
100
AcDbEntity
  8
受金具
  6
Continuous
 62
     4
100
AcDbLine
 10
1291.161589281097
 20
-509.3120714612759
 30
0.0
 11
1298.561587281097
 21
-509.3120714612759
 31
0.0
  0
LINE
  5
4F24
330
1E
100
AcDbEntity
  8
受金具
  6
Continuous
 62
     4
100
AcDbLine
 10
1290.161589281097
 20
-508.3120714612761
 30
0.0
 11
1291.161589281097
 21
-509.3120714612759
 31
0.0
  0
LINE
  5
4F25
330
1E
100
AcDbEntity
  8
受金具
  6
Continuous
 62
     4
100
AcDbLine
 10
1301.561587281097
 20
-509.3120714612759
 30
0.0
 11
1298.561587281097
 21
-509.3120714612759
 31
0.0
  0
LINE
  5
4F26
330
1E
100
AcDbEntity
  8
受金具
  6
Continuous
 62
     4
100
AcDbLine
 10
1302.561587281097
 20
-504.712071461276
 30
0.0
 11
1302.561587281097
 21
-508.3120714612761
 31
0.0
  0
ARC
  5
4F27
330
1E
100
AcDbEntity
  8
受金具
  6
Continuous
 62
     4
100
AcDbCircle
 10
1301.561587281097
 20
-508.3120714612761
 30
0.0
 40
1.0
100
AcDbArc
 50
270.0
 51
0.0
  0
LINE
  5
4F28
330
1E
100
AcDbEntity
  8
受金具
  6
Continuous
 62
     4
100
AcDbLine
 10
1301.561587281097
 20
-503.712071461276
 30
0.0
 11
1298.061587281097
 21
-503.712071461276
 31
0.0
  0
LINE
  5
4F29
330
1E
100
AcDbEntity
  8
受金具
  6
Continuous
 62
     4
100
AcDbLine
 10
1298.061587281097
 20
-501.942749461276
 30
0.0
 11
1298.061587281097
 21
-503.712071461276
 31
0.0
  0
LINE
  5
4F2A
330
1E
100
AcDbEntity
  8
受金具
  6
Continuous
 62
     3
100
AcDbLine
 10
1302.335455281097
 20
-501.271733461276
 30
0.0
 11
1303.900117281097
 21
-499.707073461276
 31
0.0
  0
LINE
  5
4F2B
330
1E
100
AcDbEntity
  8
受金具
  6
Continuous
 62
     4
100
AcDbLine
 10
1299.061587281097
 20
-501.7171734612762
 30
0.0
 11
1299.061587281097
 21
-499.465233461276
 31
0.0
  0
LINE
  5
4F2C
330
1E
100
AcDbEntity
  8
受金具
  6
Continuous
 62
     3
100
AcDbLine
 10
1299.064151281097
 20
-501.7166514612759
 30
0.0
 11
1301.208293281097
 21
-499.572531461276
 31
0.0
  0
LINE
  5
4F2D
330
1E
100
AcDbEntity
  8
躯体
  6
Continuous
 62
     4
100
AcDbLine
 10
1316.561589281097
 20
-524.9983634612759
 30
0.0
 11
1316.561589281097
 21
-635.9714714612761
 31
0.0
  0
LINE
  5
4F2E
330
1E
100
AcDbEntity
  8
躯体
  6
Continuous
 62
     4
100
AcDbLine
 10
1314.561589281097
 20
-525.8267894612761
 30
0.0
 11
1314.561589281097
 21
-635.9714714612761
 31
0.0
  0
LINE
  5
4F2F
330
1E
100
AcDbEntity
  8
躯体
  6
Continuous
 62
     4
100
AcDbLine
 10
1312.561589281097
 20
-526.655217461276
 30
0.0
 11
1312.561589281097
 21
-635.9714714612761
 31
0.0
  0
LINE
  5
4F30
330
1E
100
AcDbEntity
  8
躯体
  6
Continuous
 62
     4
100
AcDbLine
 10
1310.561589281097
 20
-527.4836454612762
 30
0.0
 11
1310.561589281097
 21
-635.9714714612761
 31
0.0
  0
LINE
  5
4F31
330
1E
100
AcDbEntity
  8
躯体
  6
Continuous
 62
     4
100
AcDbLine
 10
1308.561589281097
 20
-528.3120714612761
 30
0.0
 11
1308.561589281097
 21
-635.9714714612761
 31
0.0
  0
LINE
  5
4F32
330
1E
100
AcDbEntity
  8
躯体
  6
Continuous
 62
     4
100
AcDbLine
 10
1318.561589281097
 20
-524.1699354612761
 30
0.0
 11
1318.561589281097
 21
-635.9714714612761
 31
0.0
  0
LINE
  5
4F33
330
1E
100
AcDbEntity
  8
笠木
  6
Continuous
 62
     4
100
AcDbLine
 10
1334.061587281097
 20
-544.3120714612761
 30
0.0
 11
1334.061587281097
 21
-549.3120714612761
 31
0.0
  0
LINE
  5
4F34
330
1E
100
AcDbEntity
  8
受金具
  6
Continuous
 62
     4
100
AcDbLine
 10
1333.961587281097
 20
-544.3120714612761
 30
0.0
 11
1333.961587281097
 21
-549.3120714612761
 31
0.0
  0
LINE
  5
4F35
330
1E
100
AcDbEntity
  8
笠木
  6
Continuous
 62
     4
100
AcDbLine
 10
1336.061587281097
 20
-558.812071461276
 30
0.0
 11
1336.061587281097
 21
-501.3120714612759
 31
0.0
  0
LINE
  5
4F36
330
1E
100
AcDbEntity
  8
笠木
  6
Continuous
 62
     4
100
AcDbLine
 10
1334.061587281097
 20
-549.3120714612761
 30
0.0
 11
1334.061587281097
 21
-504.0684034612761
 31
0.0
  0
LINE
  5
4F37
330
1E
100
AcDbEntity
  8
受金具
  6
Continuous
 62
     4
100
AcDbLine
 10
1324.694217281097
 20
-515.3217814612761
 30
0.0
 11
1331.455831281097
 21
-549.1298594612762
 31
0.0
  0
ARC
  5
4F38
330
1E
100
AcDbEntity
  8
笠木
  6
Continuous
 62
     4
100
AcDbCircle
 10
1335.561587281097
 20
-558.812071461276
 30
0.0
 40
0.5
100
AcDbArc
 50
270.0
 51
0.0
  0
LINE
  5
4F39
330
1E
100
AcDbEntity
  8
笠木
  6
Continuous
 62
     4
100
AcDbLine
 10
1333.761587281097
 20
-558.812071461276
 30
0.0
 11
1333.761587281097
 21
-552.3120714612761
 31
0.0
  0
ARC
  5
4F3A
330
1E
100
AcDbEntity
  8
笠木
  6
Continuous
 62
     4
100
AcDbCircle
 10
1334.261587281097
 20
-558.812071461276
 30
0.0
 40
0.5
100
AcDbArc
 50
180.0
 51
270.0
  0
LINE
  5
4F3B
330
1E
100
AcDbEntity
  8
笠木
  6
Continuous
 62
     4
100
AcDbLine
 10
1335.561587281097
 20
-559.3120714612759
 30
0.0
 11
1334.261587281097
 21
-559.3120714612759
 31
0.0
  0
LINE
  5
4F3C
330
1E
100
AcDbEntity
  8
笠木
  6
Continuous
 62
     4
100
AcDbLine
 10
1330.596467281097
 20
-549.0697674612761
 30
0.0
 11
1334.061587281097
 21
-549.3120714612761
 31
0.0
  0
ARC
  5
4F3D
330
1E
100
AcDbEntity
  8
笠木
  6
Continuous
 62
     4
100
AcDbCircle
 10
1331.561587281097
 20
-549.9639814612761
 30
0.0
 40
1.5
100
AcDbArc
 50
180.0
 51
250.9211950000011
  0
ARC
  5
4F3E
330
1E
100
AcDbEntity
  8
笠木
  6
Continuous
 62
     4
100
AcDbCircle
 10
1330.561587281097
 20
-549.5685494612761
 30
0.0
 40
0.5
100
AcDbArc
 50
85.99999999999699
 51
180.0
  0
LINE
  5
4F3F
330
1E
100
AcDbEntity
  8
笠木
  6
Continuous
 62
     4
100
AcDbLine
 10
1330.061587281097
 20
-549.5685494612761
 30
0.0
 11
1330.061587281097
 21
-549.9639814612761
 31
0.0
  0
LINE
  5
4F40
330
1E
100
AcDbEntity
  8
笠木
  6
Continuous
 62
     4
100
AcDbLine
 10
1331.071285281097
 20
-551.3815854612761
 30
0.0
 11
1333.761587281097
 21
-552.3120714612761
 31
0.0
  0
LINE
  5
4F41
330
1E
100
AcDbEntity
  8
笠木
  6
Continuous
 62
     4
100
AcDbLine
 10
1331.455831281097
 20
-549.1298594612762
 30
0.0
 11
1334.061587281097
 21
-549.3120714612761
 31
0.0
  0
LINE
  5
4F42
330
1E
100
AcDbEntity
  8
受金具
  6
Continuous
 62
     4
100
AcDbLine
 10
1333.961587281097
 20
-549.3120714612761
 30
0.0
 11
1331.455831281097
 21
-549.1298594612762
 31
0.0
  0
LINE
  5
4F43
330
1E
100
AcDbEntity
  8
受金具
  6
Continuous
 62
     4
100
AcDbLine
 10
1327.856645281097
 20
-513.3449714612761
 30
0.0
 11
1333.961587281097
 21
-544.3120714612761
 31
0.0
  0
LINE
  5
4F44
330
1E
100
AcDbEntity
  8
躯体
  6
Continuous
 62
     4
100
AcDbLine
 10
1307.703725281097
 20
-513.3120714612759
 30
0.0
 11
1318.561589281097
 21
-524.1699354612761
 31
0.0
  0
LINE
  5
4F45
330
1E
100
AcDbEntity
  8
躯体
  6
Continuous
 62
     4
100
AcDbLine
 10
1306.046871281097
 20
-517.312071461276
 30
0.0
 11
1314.561589281097
 21
-525.8267894612761
 31
0.0
  0
LINE
  5
4F46
330
1E
100
AcDbEntity
  8
躯体
  6
Continuous
 62
     4
100
AcDbLine
 10
1316.561589281097
 20
-524.9983634612759
 30
0.0
 11
1306.875297281097
 21
-515.3120714612761
 31
0.0
  0
LINE
  5
4F47
330
1E
100
AcDbEntity
  8
躯体
  6
Continuous
 62
     4
100
AcDbLine
 10
1304.390017281097
 20
-521.312071461276
 30
0.0
 11
1310.561589281097
 21
-527.4836454612762
 31
0.0
  0
LINE
  5
4F48
330
1E
100
AcDbEntity
  8
躯体
  6
Continuous
 62
     4
100
AcDbLine
 10
1312.561589281097
 20
-526.655217461276
 30
0.0
 11
1305.218443281097
 21
-519.3120714612761
 31
0.0
  0
ARC
  5
4F49
330
1E
100
AcDbEntity
  8
受金具
  6
Continuous
 62
     4
100
AcDbCircle
 10
1322.951065281097
 20
-514.3120714612761
 30
0.0
 40
5.0
100
AcDbArc
 50
11.15244000000255
 51
90.0
  0
ARC
  5
4F4A
330
1E
100
AcDbEntity
  8
受金具
  6
Continuous
 62
     4
100
AcDbCircle
 10
1306.561587281097
 20
-504.712071461276
 30
0.0
 40
1.0
100
AcDbArc
 50
90.0
 51
180.0
  0
LINE
  5
4F4B
330
1E
100
AcDbEntity
  8
受金具
  6
Continuous
 62
     4
100
AcDbLine
 10
1322.951065281097
 20
-509.3120714612759
 30
0.0
 11
1306.561587281097
 21
-509.3120714612759
 31
0.0
  0
LINE
  5
4F4C
330
1E
100
AcDbEntity
  8
受金具
  6
Continuous
 62
     4
100
AcDbLine
 10
1305.561587281097
 20
-504.712071461276
 30
0.0
 11
1305.561587281097
 21
-508.3120714612761
 31
0.0
  0
ARC
  5
4F4D
330
1E
100
AcDbEntity
  8
受金具
  6
Continuous
 62
     4
100
AcDbCircle
 10
1306.561587281097
 20
-508.3120714612761
 30
0.0
 40
1.0
100
AcDbArc
 50
180.0
 51
270.0
  0
ARC
  5
4F4E
330
1E
100
AcDbEntity
  8
受金具
  6
Continuous
 62
     4
100
AcDbCircle
 10
1322.242765281097
 20
-515.8120714612761
 30
0.0
 40
2.5
100
AcDbArc
 50
11.30993200000206
 51
90.0
  0
LINE
  5
4F4F
330
1E
100
AcDbEntity
  8
受金具
  6
Continuous
 62
     4
100
AcDbLine
 10
1306.561587281097
 20
-503.712071461276
 30
0.0
 11
1310.061587281097
 21
-503.712071461276
 31
0.0
  0
LINE
  5
4F50
330
1E
100
AcDbEntity
  8
受金具
  6
Continuous
 62
     4
100
AcDbLine
 10
1309.061587281097
 20
-499.9650534612761
 30
0.0
 11
1309.061587281097
 21
-501.7171734612762
 31
0.0
  0
LINE
  5
4F51
330
1E
100
AcDbEntity
  8
受金具
  6
Continuous
 62
     3
100
AcDbLine
 10
1307.774691281097
 20
-501.4893514612761
 30
0.0
 11
1309.061587281097
 21
-500.202455461276
 31
0.0
  0
LINE
  5
4F52
330
1E
100
AcDbEntity
  8
受金具
  6
Continuous
 62
     3
100
AcDbLine
 10
1305.197715281097
 20
-501.237901461276
 30
0.0
 11
1306.593903281097
 21
-499.841713461276
 31
0.0
  0
LINE
  5
4F53
330
1E
100
AcDbEntity
  8
受金具
  6
Continuous
 62
     4
100
AcDbLine
 10
1310.061587281097
 20
-501.942749461276
 30
0.0
 11
1310.061587281097
 21
-503.712071461276
 31
0.0
  0
LINE
  5
4F54
330
1E
100
AcDbEntity
  8
笠木
  6
Continuous
 62
     4
100
AcDbLine
 10
1336.061587281097
 20
-501.3120714612759
 30
0.0
 11
1334.064081281097
 21
-499.212231461276
 31
0.0
  0
ARC
  5
4F55
330
1E
100
AcDbEntity
  8
笠木
  6
Continuous
 62
     4
100
AcDbCircle
 10
1331.061587281097
 20
-504.0684034612761
 30
0.0
 40
3.0
100
AcDbArc
 50
0.0
 51
87.13862300000105
  0
ARC
  5
4F59
330
1E
100
AcDbEntity
  8
笠木
  6
Continuous
 62
     4
100
AcDbCircle
 10
1154.861589281097
 20
-488.0638714612761
 30
0.0
 40
2.0
100
AcDbArc
 50
315.9595130000013
 51
87.71000000000034
  0
LINE
  5
4F5A
330
1E
100
AcDbEntity
  8
笠木
  6
Continuous
 62
     4
100
AcDbLine
 10
1155.871499281097
 20
-489.457785461276
 30
0.0
 11
1154.461589281097
 21
-488.047875461276
 31
0.0
  0
LINE
  5
4F5B
330
1E
100
AcDbEntity
  8
受金具
  6
Continuous
 62
     3
100
AcDbLine
 10
1146.676165281097
 20
-488.1447674612759
 30
0.0
 11
1143.633609281097
 21
-489.1489974612762
 31
0.0
  0
LINE
  5
4F5C
330
1E
100
AcDbEntity
  8
受金具
  6
Continuous
 62
     3
100
AcDbLine
 10
1143.659213281097
 20
-488.5087094612761
 30
0.0
 11
1146.701769281097
 21
-487.5044794612761
 31
0.0
  0
LINE
  5
4F5D
330
1E
100
AcDbEntity
  8
受金具
  6
Continuous
 62
     3
100
AcDbLine
 10
1146.736101281097
 20
-486.6459654612761
 30
0.0
 11
1143.693545281097
 21
-487.6501954612761
 31
0.0
  0
LINE
  5
4F5E
330
1E
100
AcDbEntity
  8
受金具
  6
Continuous
 62
     3
100
AcDbLine
 10
1143.719149281097
 20
-487.0099074612761
 30
0.0
 11
1146.761705281097
 21
-486.005677461276
 31
0.0
  0
LINE
  5
4F5F
330
1E
100
AcDbEntity
  8
笠木
  6
Continuous
 62
     4
100
AcDbLine
 10
1137.966383281097
 20
-487.407277461276
 30
0.0
 11
1153.952579281097
 21
-488.2062994612761
 31
0.0
  0
LINE
  5
4F60
330
1E
100
AcDbEntity
  8
受金具
  6
Continuous
 62
     3
100
AcDbLine
 10
1147.196059281097
 20
-487.657251461276
 30
0.0
 11
1143.139319281097
 21
-488.996225461276
 31
0.0
  0
LINE
  5
4F61
330
1E
100
AcDbEntity
  8
受金具
  6
Continuous
 62
     3
100
AcDbLine
 10
1147.255995281097
 20
-486.1584494612761
 30
0.0
 11
1143.199255281097
 21
-487.4974214612761
 31
0.0
  0
ARC
  5
4F62
330
1E
100
AcDbEntity
  8
受金具
  6
Continuous
 62
     3
100
AcDbCircle
 10
1144.901523281097
 20
-494.982669461276
 30
0.0
 40
11.31124999999999
100
AcDbArc
 50
63.43635099999733
 51
111.9836489999977
  0
LINE
  5
4F63
330
1E
100
AcDbEntity
  8
受金具
  6
Continuous
 62
     3
100
AcDbLine
 10
1140.667247281097
 20
-484.4938514612761
 30
0.0
 11
1149.959821281097
 21
-484.865455461276
 31
0.0
  0
LINE
  5
4F64
330
1E
100
AcDbEntity
  8
受金具
  6
Continuous
 62
     3
100
AcDbLine
 10
1140.627289281097
 20
-485.493053461276
 30
0.0
 11
1149.919863281097
 21
-485.8646574612761
 31
0.0
  0
LINE
  5
4F65
330
1E
100
AcDbEntity
  8
笠木
  6
Continuous
 62
     4
100
AcDbLine
 10
1154.461589281097
 20
-488.047875461276
 30
0.0
 11
1137.101547281097
 21
-487.3536594612761
 31
0.0
  0
LINE
  5
4F66
330
1E
100
AcDbEntity
  8
笠木
  6
Continuous
 62
     4
100
AcDbLine
 10
1136.061589281097
 20
-489.3120714612761
 30
0.0
 11
1137.966383281097
 21
-487.407277461276
 31
0.0
  0
ARC
  5
4F67
330
1E
100
AcDbEntity
  8
笠木
  6
Continuous
 62
     4
100
AcDbCircle
 10
1137.061589281097
 20
-488.352859461276
 30
0.0
 40
1.0
100
AcDbArc
 50
87.71000000000034
 51
180.0
  0
LINE
  5
4F68
330
1E
100
AcDbEntity
  8
受金具
  6
Continuous
 62
     3
100
AcDbLine
 10
1143.774775281097
 20
-485.6189194612761
 30
0.0
 11
1143.719149281097
 21
-487.0099074612761
 31
0.0
  0
LINE
  5
4F69
330
1E
100
AcDbEntity
  8
受金具
  6
Continuous
 62
     3
100
AcDbLine
 10
1143.139319281097
 20
-488.996225461276
 30
0.0
 11
1143.659213281097
 21
-488.5087094612761
 31
0.0
  0
LINE
  5
4F6A
330
1E
100
AcDbEntity
  8
受金具
  6
Continuous
 62
     3
100
AcDbLine
 10
1143.633609281097
 20
-489.1489974612762
 30
0.0
 11
1143.139319281097
 21
-488.996225461276
 31
0.0
  0
LINE
  5
4F6B
330
1E
100
AcDbEntity
  8
受金具
  6
Continuous
 62
     3
100
AcDbLine
 10
1143.693545281097
 20
-487.6501954612761
 30
0.0
 11
1143.199255281097
 21
-487.4974214612761
 31
0.0
  0
LINE
  5
4F6C
330
1E
100
AcDbEntity
  8
受金具
  6
Continuous
 62
     3
100
AcDbLine
 10
1143.199255281097
 20
-487.4974214612761
 30
0.0
 11
1143.719149281097
 21
-487.0099074612761
 31
0.0
  0
LINE
  5
4F6D
330
1E
100
AcDbEntity
  8
受金具
  6
Continuous
 62
     3
100
AcDbLine
 10
1143.693545281097
 20
-487.6501954612761
 30
0.0
 11
1143.659213281097
 21
-488.5087094612761
 31
0.0
  0
ARC
  5
4F6E
330
1E
100
AcDbEntity
  8
受金具
  6
Continuous
 62
     3
100
AcDbCircle
 10
1140.647269281097
 20
-484.9934514612761
 30
0.0
 40
0.5
100
AcDbArc
 50
87.71000000000034
 51
267.7100000000003
  0
ARC
  5
4F6F
330
1E
100
AcDbEntity
  8
受金具
  6
Continuous
 62
     3
100
AcDbCircle
 10
1149.939841281097
 20
-485.3650554612761
 30
0.0
 40
0.5
100
AcDbArc
 50
267.7100000000003
 51
87.71000000000034
  0
LINE
  5
4F70
330
1E
100
AcDbEntity
  8
笠木
  6
Continuous
 62
     4
100
AcDbLine
 10
1145.561589281097
 20
-485.690371461276
 30
0.0
 11
1154.941503281097
 21
-486.0654694612761
 31
0.0
  0
LINE
  5
4F71
330
1E
100
AcDbEntity
  8
寸法
  6
PLINE15
 62
     2
100
AcDbLine
 10
1145.386781281097
 20
-482.8479774612761
 30
0.0
 11
1145.104533281097
 21
-489.9060714612761
 31
0.0
  0
LINE
  5
4F72
330
1E
100
AcDbEntity
  8
受金具
  6
Continuous
 62
     3
100
AcDbLine
 10
1147.255995281097
 20
-486.1584494612761
 30
0.0
 11
1146.736101281097
 21
-486.6459654612761
 31
0.0
  0
LINE
  5
4F73
330
1E
100
AcDbEntity
  8
受金具
  6
Continuous
 62
     3
100
AcDbLine
 10
1147.255995281097
 20
-486.1584494612761
 30
0.0
 11
1146.736101281097
 21
-486.6459654612761
 31
0.0
  0
LINE
  5
4F74
330
1E
100
AcDbEntity
  8
受金具
  6
Continuous
 62
     3
100
AcDbLine
 10
1146.676165281097
 20
-488.1447674612759
 30
0.0
 11
1146.641833281097
 21
-489.003281461276
 31
0.0
  0
LINE
  5
4F75
330
1E
100
AcDbEntity
  8
受金具
  6
Continuous
 62
     3
100
AcDbLine
 10
1146.736101281097
 20
-486.6459654612761
 30
0.0
 11
1146.701769281097
 21
-487.5044794612761
 31
0.0
  0
LINE
  5
4F76
330
1E
100
AcDbEntity
  8
受金具
  6
Continuous
 62
     3
100
AcDbLine
 10
1147.196059281097
 20
-487.657251461276
 30
0.0
 11
1146.676165281097
 21
-488.1447674612759
 31
0.0
  0
LINE
  5
4F77
330
1E
100
AcDbEntity
  8
受金具
  6
Continuous
 62
     3
100
AcDbLine
 10
1146.701769281097
 20
-487.5044794612761
 30
0.0
 11
1147.196059281097
 21
-487.657251461276
 31
0.0
  0
LINE
  5
4F78
330
1E
100
AcDbEntity
  8
受金具
  6
Continuous
 62
     3
100
AcDbLine
 10
1147.136123281097
 20
-489.1560534612761
 30
0.0
 11
1146.616229281097
 21
-489.6435694612761
 31
0.0
  0
LINE
  5
4F79
330
1E
100
AcDbEntity
  8
受金具
  6
Continuous
 62
     3
100
AcDbLine
 10
1146.641833281097
 20
-489.003281461276
 30
0.0
 11
1147.136123281097
 21
-489.1560534612761
 31
0.0
  0
LINE
  5
4F7A
330
1E
100
AcDbEntity
  8
受金具
  6
Continuous
 62
     3
100
AcDbLine
 10
1146.772379281097
 20
-485.738791461276
 30
0.0
 11
1146.761705281097
 21
-486.005677461276
 31
0.0
  0
LINE
  5
4F7B
330
1E
100
AcDbEntity
  8
受金具
  6
Continuous
 62
     4
100
AcDbLine
 10
1144.961589281097
 20
-485.6663774612761
 30
0.0
 11
1145.261589281097
 21
-485.9786154612761
 31
0.0
  0
LINE
  5
4F7C
330
1E
100
AcDbEntity
  8
受金具
  6
Continuous
 62
     4
100
AcDbLine
 10
1145.261589281097
 20
-485.9786154612761
 30
0.0
 11
1145.561589281097
 21
-485.690371461276
 31
0.0
  0
LINE
  5
4F7D
330
1E
100
AcDbEntity
  8
受金具
  6
Continuous
 62
     3
100
AcDbLine
 10
1146.761705281097
 20
-486.005677461276
 30
0.0
 11
1147.255995281097
 21
-486.1584494612761
 31
0.0
  0
ARC
  5
4F7E
330
1E
100
AcDbEntity
  8
笠木
  6
Continuous
 62
     4
100
AcDbCircle
 10
1156.083631281097
 20
-489.2456534612761
 30
0.0
 40
0.3
100
AcDbArc
 50
225.0
 51
315.9595130000013
  0
DIMENSION
  5
4F85
330
1E
100
AcDbEntity
  8
寸法
  6
Continuous
100
AcDbDimension
  2
*D4
 10
1081.061589281097
 20
-459.5555274612761
 30
0.0
 11
1071.061589281097
 21
-456.055527461276
 31
0.0
 70
    32
 71
     5
 42
20.0
  3
111
100
AcDbAlignedDimension
 13
1061.061589281097
 23
-471.4065309900823
 33
0.0
 14
1081.061589281097
 24
-471.057145461276
 34
0.0
100
AcDbRotatedDimension
  0
DIMENSION
  5
4F92
330
1E
100
AcDbEntity
  8
寸法
  6
Continuous
100
AcDbDimension
  2
*D5
 10
1136.061589281097
 20
-437.306335461276
 30
0.0
 11
1098.561589281097
 21
-433.8063354612761
 31
0.0
 70
    32
 71
     5
 42
75.0
  3
111
100
AcDbAlignedDimension
 13
1061.061589281097
 23
-471.4065309900823
 33
0.0
 14
1136.061589281097
 24
-471.4065309900823
 34
0.0
100
AcDbRotatedDimension
  0
DIMENSION
  5
4F9F
330
1E
100
AcDbEntity
  8
寸法
  6
Continuous
100
AcDbDimension
  2
*D6
 10
1156.861589281097
 20
-437.306335461276
 30
0.0
 11
1146.461589281097
 21
-433.8063354612761
 31
0.0
 70
    32
  1
20.8
 71
     5
 42
20.79999999999996
  3
111
100
AcDbAlignedDimension
 13
1136.061589281097
 23
-471.4065309900823
 33
0.0
 14
1156.861589281097
 24
-471.4065309900823
 34
0.0
100
AcDbRotatedDimension
1001
ACAD
1000
DSTYLE
1002
{
1070
   279
1070
     1
1070
   289
1070
     3
1002
}
  0
DIMENSION
  5
4FC2
330
1E
100
AcDbEntity
  8
寸法
  6
Continuous
100
AcDbDimension
  2
*D7
 10
1041.061589281097
 20
-560.3096754612761
 30
0.0
 11
1037.561589281097
 21
-527.809675461276
 31
0.0
 70
    32
 71
     5
 42
65.00000000000006
  3
111
100
AcDbAlignedDimension
 13
1054.822126495674
 23
-495.3096754612761
 33
0.0
 14
1054.822126495674
 24
-560.3096754612761
 34
0.0
 50
90.0
100
AcDbRotatedDimension
1001
ACAD
1000
DSTYLE
1002
{
1070
   279
1070
     1
1070
   289
1070
     3
1002
}
  0
DIMENSION
  5
4FCF
330
1E
100
AcDbEntity
  8
寸法
  6
Continuous
100
AcDbDimension
  2
*D8
 10
1021.061589281097
 20
-480.309675461276
 30
0.0
 11
1017.561589281097
 21
-520.309675461276
 31
0.0
 70
    32
 71
     5
 42
80.00000000000005
  3
111
100
AcDbAlignedDimension
 13
1054.822126495674
 23
-560.3096754612761
 33
0.0
 14
1054.822126495674
 24
-480.309675461276
 34
0.0
 50
90.0
100
AcDbRotatedDimension
  0
DIMENSION
  5
4FDC
330
1E
100
AcDbEntity
  8
寸法
  6
Continuous
100
AcDbDimension
  2
*D9
 10
1121.061589281097
 20
-579.5555274612761
 30
0.0
 11
1091.061589281097
 21
-576.0555274612761
 31
0.0
 70
    32
 71
     5
 42
60.0
  3
111
100
AcDbAlignedDimension
 13
1061.061589281097
 23
-564.1221845545351
 33
0.0
 14
1121.061589281097
 24
-564.1221845545351
 34
0.0
100
AcDbRotatedDimension
  0
DIMENSION
  5
4FE9
330
1E
100
AcDbEntity
  8
寸法
  6
Continuous
100
AcDbDimension
  2
*D10
 10
1136.061589281097
 20
-579.5555274612761
 30
0.0
 11
1128.561589281097
 21
-576.0555274612761
 31
0.0
 70
    32
 71
     5
 42
15.0
  3
111
100
AcDbAlignedDimension
 13
1121.061589281097
 23
-564.1221845545351
 33
0.0
 14
1136.061589281097
 24
-564.1221845545351
 34
0.0
100
AcDbRotatedDimension
1001
ACAD
1000
DSTYLE
1002
{
1070
   279
1070
     1
1070
   289
1070
     3
1002
}
  0
LINE
  5
503D
330
1E
100
AcDbEntity
  8
受金具
  6
Continuous
 62
     4
100
AcDbLine
 10
1138.161589281097
 20
-549.3050794612761
 30
0.0
 11
1140.667345281097
 21
-549.1298594612762
 31
0.0
  0
LINE
  5
504F
330
1E
100
AcDbEntity
  8
躯体
  6
Continuous
 62
     4
100
AcDbLine
 10
1307.703725281097
 20
-513.3120714612759
 30
0.0
 11
1164.335091281097
 21
-513.3120714612759
 31
0.0
  0
ENDSEC
  0
SECTION
  2
OBJECTS
  0
DICTIONARY
  5
C
330
0
100
AcDbDictionary
281
     1
  3
ACAD_COLOR
350
5184
  3
ACAD_GROUP
350
D
  3
ACAD_LAYOUT
350
19
  3
ACAD_MATERIAL
350
5183
  3
ACAD_MLINESTYLE
350
16
  3
ACAD_PLOTSETTINGS
350
18
  3
ACAD_PLOTSTYLENAME
350
E
  3
ACAD_TABLESTYLE
350
5185
  3
AcDbVariableDictionary
350
169
  0
DICTIONARY
  5
175
330
2
100
AcDbDictionary
280
     1
281
     1
  3
ACAD_LAYERFILTERS
360
185
  3
ACAD_LAYERSTATES
360
176
  0
DICTIONARY
  5
28B
330
1E
100
AcDbDictionary
280
     1
281
     1
  3
ACAD_LAYOUTSELFREF
360
5161
  0
DICTIONARY
  5
28D
330
1A
100
AcDbDictionary
280
     1
281
     1
  3
ACAD_LAYOUTSELFREF
360
5160
  0
DICTIONARY
  5
5184
102
{ACAD_REACTORS
330
C
102
}
330
C
100
AcDbDictionary
281
     1
  0
DICTIONARY
  5
D
102
{ACAD_REACTORS
330
C
102
}
330
C
100
AcDbDictionary
281
     1
  0
DICTIONARY
  5
19
102
{ACAD_REACTORS
330
C
102
}
330
C
100
AcDbDictionary
281
     1
  3
Model
350
21
  3
ﾚｲｱｳﾄ1
350
1D
  0
DICTIONARY
  5
5183
102
{ACAD_REACTORS
330
C
102
}
330
C
100
AcDbDictionary
281
     1
  0
DICTIONARY
  5
16
102
{ACAD_REACTORS
330
C
102
}
330
C
100
AcDbDictionary
281
     1
  3
Standard
350
17
  0
DICTIONARY
  5
18
102
{ACAD_REACTORS
330
C
102
}
330
C
100
AcDbDictionary
281
     1
  0
ACDBDICTIONARYWDFLT
  5
E
102
{ACAD_REACTORS
330
C
102
}
330
C
100
AcDbDictionary
281
     1
  3
Normal
350
F
100
AcDbDictionaryWithDefault
340
F
1001
ACAD
1000
TREAT_AS_HARD
1070
     0
1000
TREAT_AS_HARD
1070
     0
1000
TREAT_AS_HARD
1070
     0
1000
TREAT_AS_HARD
1070
     0
1000
TREAT_AS_HARD
1070
     0
1000
TREAT_AS_HARD
1070
     0
1000
TREAT_AS_HARD
1070
     0
1000
TREAT_AS_HARD
1070
     0
1000
TREAT_AS_HARD
1070
     0
1000
TREAT_AS_HARD
1070
     0
1000
TREAT_AS_HARD
1070
     0
1000
TREAT_AS_HARD
1070
     0
1000
TREAT_AS_HARD
1070
     0
1000
TREAT_AS_HARD
1070
     0
1000
TREAT_AS_HARD
1070
     0
1000
TREAT_AS_HARD
1070
     0
1000
TREAT_AS_HARD
1070
     0
1000
TREAT_AS_HARD
1070
     0
1000
TREAT_AS_HARD
1070
     0
1000
TREAT_AS_HARD
1070
     0
1000
TREAT_AS_HARD
1070
     0
1000
TREAT_AS_HARD
1070
     0
  0
DICTIONARY
  5
5185
102
{ACAD_REACTORS
330
C
102
}
330
C
100
AcDbDictionary
281
     1
  3
Standard
350
5186
  0
DICTIONARY
  5
169
102
{ACAD_REACTORS
330
C
102
}
330
C
100
AcDbDictionary
281
     1
  3
CTABLESTYLE
350
538A
  3
DIMASSOC
350
16A
  0
DICTIONARY
  5
185
102
{ACAD_REACTORS
330
175
102
}
330
175
100
AcDbDictionary
280
     1
281
     1
  0
DICTIONARY
  5
176
102
{ACAD_REACTORS
330
175
102
}
330
175
100
AcDbDictionary
281
     1
  3
ACAD
350
177
  0
XRECORD
  5
5161
102
{ACAD_REACTORS
330
28B
102
}
330
28B
100
AcDbXrecord
280
     1
340
1E
  0
XRECORD
  5
5160
102
{ACAD_REACTORS
330
28D
102
}
330
28D
100
AcDbXrecord
280
     1
340
1A
  0
LAYOUT
  5
21
102
{ACAD_REACTORS
330
19
102
}
330
19
100
AcDbPlotSettings
  1

  2
\\MEISEI-1\EPSON Stylus Photo EX3
  4

  6

 40
0.0
 41
0.0
 42
0.0
 43
0.0
 44
0.0
 45
0.0
 46
0.0
 47
0.0
 48
0.0
 49
0.0
140
0.0
141
0.0
142
1.0
143
1.0
 70
  1712
 72
     0
 73
     0
 74
     0
  7

 75
     0
147
1.0
 76
     0
 77
     2
 78
   300
148
0.0
149
0.0
100
AcDbLayout
  1
Model
 70
     1
 71
     0
 10
0.0
 20
0.0
 11
12.0
 21
9.0
 12
0.0
 22
0.0
 32
0.0
 14
0.0
 24
0.0
 34
0.0
 15
0.0
 25
0.0
 35
0.0
146
0.0
 13
0.0
 23
0.0
 33
0.0
 16
1.0
 26
0.0
 36
0.0
 17
0.0
 27
1.0
 37
0.0
 76
     0
330
1E
  0
LAYOUT
  5
1D
102
{ACAD_REACTORS
330
19
102
}
330
19
100
AcDbPlotSettings
  1

  2
\\MEISEI-1\EPSON Stylus Photo EX3
  4

  6

 40
0.0
 41
0.0
 42
0.0
 43
0.0
 44
0.0
 45
0.0
 46
0.0
 47
0.0
 48
0.0
 49
0.0
140
0.0
141
0.0
142
1.0
143
1.0
 70
   688
 72
     0
 73
     0
 74
     5
  7

 75
    16
147
1.0
 76
     0
 77
     2
 78
   300
148
0.0
149
0.0
100
AcDbLayout
  1
ﾚｲｱｳﾄ1
 70
     1
 71
     1
 10
0.0
 20
0.0
 11
12.0
 21
9.0
 12
0.0
 22
0.0
 32
0.0
 14
1.000000000000000E+20
 24
1.000000000000000E+20
 34
1.000000000000000E+20
 15
-1.000000000000000E+20
 25
-1.000000000000000E+20
 35
-1.000000000000000E+20
146
0.0
 13
0.0
 23
0.0
 33
0.0
 16
1.0
 26
0.0
 36
0.0
 17
0.0
 27
1.0
 37
0.0
 76
     0
330
1A
  0
MLINESTYLE
  5
17
102
{ACAD_REACTORS
330
16
102
}
330
16
100
AcDbMlineStyle
  2
STANDARD
 70
     0
  3

 62
   256
 51
90.0
 52
90.0
 71
     2
 49
0.5
 62
   256
  6
BYLAYER
 49
-0.5
 62
   256
  6
BYLAYER
  0
ACDBPLACEHOLDER
  5
F
102
{ACAD_REACTORS
330
E
102
}
330
E
  0
TABLESTYLE
  5
5186
102
{ACAD_REACTORS
330
5185
102
}
330
5185
100
AcDbTableStyle
  3
Standard
 70
     0
 71
     0
 40
0.06
 41
0.06
280
     0
281
     0
  7
STANDARD
140
0.18
170
     2
 62
     0
 63
     7
283
     0
274
    -2
284
     1
 64
     0
275
    -2
285
     1
 65
     0
276
    -2
286
     1
 66
     0
277
    -2
287
     1
 67
     0
278
    -2
288
     1
 68
     0
279
    -2
289
     1
 69
     0
  7
STANDARD
140
0.25
170
     5
 62
     0
 63
     7
283
     0
274
    -2
284
     1
 64
     0
275
    -2
285
     1
 65
     0
276
    -2
286
     1
 66
     0
277
    -2
287
     1
 67
     0
278
    -2
288
     1
 68
     0
279
    -2
289
     1
 69
     0
  7
STANDARD
140
0.18
170
     5
 62
     0
 63
     7
283
     0
274
    -2
284
     1
 64
     0
275
    -2
285
     1
 65
     0
276
    -2
286
     1
 66
     0
277
    -2
287
     1
 67
     0
278
    -2
288
     1
 68
     0
279
    -2
289
     1
 69
     0
  0
DICTIONARYVAR
  5
538A
102
{ACAD_REACTORS
330
169
102
}
330
169
100
DictionaryVariables
280
     0
  1
STANDARD
  0
DICTIONARYVAR
  5
16A
102
{ACAD_REACTORS
330
169
102
}
330
169
100
DictionaryVariables
280
     0
  1
1
  0
XRECORD
  5
177
102
{ACAD_REACTORS
330
176
102
}
330
176
100
AcDbXrecord
280
     1
 91
      476
330
17B
 90
        8
 62
     7
370
    -3
331
15
  1
Color_7
330
17A
 90
        8
 62
     7
370
    -3
331
15
  1
Color_7
330
179
 90
        8
 62
     7
370
    -3
331
15
  1
Color_7
330
178
 90
        8
 62
     7
370
    -3
331
15
  1
Color_7
330
128
 90
        0
 62
     7
370
    -3
331
15
  1
Color_7
330
10
 90
        8
 62
     7
370
    -3
331
15
  1
Color_7
  0
ENDSEC
  0
EOF
