  0
SECTION
  2
HEADER
  9
$ACADVER
  1
AC1018
  9
$ACADMAINTVER
 70
    76
  9
$DWGCODEPAGE
  3
ANSI_932
  9
$INSBASE
 10
0.0
 20
0.0
 30
0.0
  9
$EXTMIN
 10
423.2958831529199
 20
-230.7704577326795
 30
-0.0015258207003583
  9
$EXTMAX
 10
764.0617179558955
 20
42.24481456974422
 30
0.0000000349246037
  9
$LIMMIN
 10
0.0
 20
0.0
  9
$LIMMAX
 10
420.0
 20
297.0
  9
$ORTHOMODE
 70
     0
  9
$REGENMODE
 70
     1
  9
$FILLMODE
 70
     1
  9
$QTEXTMODE
 70
     0
  9
$MIRRTEXT
 70
     1
  9
$LTSCALE
 40
1.0
  9
$ATTMODE
 70
     1
  9
$TEXTSIZE
 40
5.0
  9
$TRACEWID
 40
0.05
  9
$TEXTSTYLE
  7
ACAD
  9
$CLAYER
  8
躯体
  9
$CELTYPE
  6
CONTINUOUS
  9
$CECOLOR
 62
     4
  9
$CELTSCALE
 40
1.0
  9
$DISPSILH
 70
     0
  9
$DIMSCALE
 40
1.0
  9
$DIMASZ
 40
1.0
  9
$DIMEXO
 40
0.0
  9
$DIMDLI
 40
0.38
  9
$DIMRND
 40
0.0
  9
$DIMDLE
 40
0.0
  9
$DIMEXE
 40
0.0
  9
$DIMTP
 40
0.0
  9
$DIMTM
 40
0.0
  9
$DIMTXT
 40
5.0
  9
$DIMCEN
 40
0.09
  9
$DIMTSZ
 40
0.0
  9
$DIMTOL
 70
     0
  9
$DIMLIM
 70
     0
  9
$DIMTIH
 70
     0
  9
$DIMTOH
 70
     1
  9
$DIMSE1
 70
     0
  9
$DIMSE2
 70
     0
  9
$DIMTAD
 70
     1
  9
$DIMZIN
 70
     0
  9
$DIMBLK
  1
DotSmall
  9
$DIMASO
 70
     1
  9
$DIMSHO
 70
     1
  9
$DIMPOST
  1

  9
$DIMAPOST
  1

  9
$DIMALT
 70
     0
  9
$DIMALTD
 70
     2
  9
$DIMALTF
 40
25.4
  9
$DIMLFAC
 40
1.0
  9
$DIMTOFL
 70
     0
  9
$DIMTVP
 40
0.0
  9
$DIMTIX
 70
     1
  9
$DIMSOXD
 70
     0
  9
$DIMSAH
 70
     0
  9
$DIMBLK1
  1

  9
$DIMBLK2
  1

  9
$DIMSTYLE
  2
111
  9
$DIMCLRD
 70
     4
  9
$DIMCLRE
 70
     4
  9
$DIMCLRT
 70
     3
  9
$DIMTFAC
 40
1.0
  9
$DIMGAP
 40
1.0
  9
$DIMJUST
 70
     0
  9
$DIMSD1
 70
     0
  9
$DIMSD2
 70
     0
  9
$DIMTOLJ
 70
     1
  9
$DIMTZIN
 70
     0
  9
$DIMALTZ
 70
     0
  9
$DIMALTTZ
 70
     0
  9
$DIMUPT
 70
     0
  9
$DIMDEC
 70
     0
  9
$DIMTDEC
 70
     0
  9
$DIMALTU
 70
     2
  9
$DIMALTTD
 70
     2
  9
$DIMTXSTY
  7
ACAD
  9
$DIMAUNIT
 70
     0
  9
$DIMADEC
 70
     0
  9
$DIMALTRND
 40
0.0
  9
$DIMAZIN
 70
     0
  9
$DIMDSEP
 70
    46
  9
$DIMATFIT
 70
     0
  9
$DIMFRAC
 70
     0
  9
$DIMLDRBLK
  1
None
  9
$DIMLUNIT
 70
     2
  9
$DIMLWD
 70
    -2
  9
$DIMLWE
 70
    -2
  9
$DIMTMOVE
 70
     0
  9
$LUNITS
 70
     2
  9
$LUPREC
 70
     4
  9
$SKETCHINC
 40
0.1
  9
$FILLETRAD
 40
0.0
  9
$AUNITS
 70
     0
  9
$AUPREC
 70
     0
  9
$MENU
  1
.
  9
$ELEVATION
 40
0.0
  9
$PELEVATION
 40
0.0
  9
$THICKNESS
 40
0.0
  9
$LIMCHECK
 70
     0
  9
$CHAMFERA
 40
0.0
  9
$CHAMFERB
 40
0.0
  9
$CHAMFERC
 40
0.0
  9
$CHAMFERD
 40
0.0
  9
$SKPOLY
 70
     0
  9
$TDCREATE
 40
2454316.693457674
  9
$TDUCREATE
 40
2454316.318457674
  9
$TDUPDATE
 40
2454477.433367269
  9
$TDUUPDATE
 40
2454477.058367269
  9
$TDINDWG
 40
0.2111456481
  9
$TDUSRTIMER
 40
0.2111453009
  9
$USRTIMER
 70
     1
  9
$ANGBASE
 50
0.0
  9
$ANGDIR
 70
     0
  9
$PDMODE
 70
     0
  9
$PDSIZE
 40
0.0
  9
$PLINEWID
 40
0.0
  9
$SPLFRAME
 70
     0
  9
$SPLINETYPE
 70
     6
  9
$SPLINESEGS
 70
     8
  9
$HANDSEED
  5
4597
  9
$SURFTAB1
 70
     6
  9
$SURFTAB2
 70
     6
  9
$SURFTYPE
 70
     6
  9
$SURFU
 70
     6
  9
$SURFV
 70
     6
  9
$UCSBASE
  2

  9
$UCSNAME
  2

  9
$UCSORG
 10
0.0
 20
0.0
 30
0.0
  9
$UCSXDIR
 10
1.0
 20
0.0
 30
0.0
  9
$UCSYDIR
 10
0.0
 20
1.0
 30
0.0
  9
$UCSORTHOREF
  2

  9
$UCSORTHOVIEW
 70
     0
  9
$UCSORGTOP
 10
0.0
 20
0.0
 30
0.0
  9
$UCSORGBOTTOM
 10
0.0
 20
0.0
 30
0.0
  9
$UCSORGLEFT
 10
0.0
 20
0.0
 30
0.0
  9
$UCSORGRIGHT
 10
0.0
 20
0.0
 30
0.0
  9
$UCSORGFRONT
 10
0.0
 20
0.0
 30
0.0
  9
$UCSORGBACK
 10
0.0
 20
0.0
 30
0.0
  9
$PUCSBASE
  2

  9
$PUCSNAME
  2

  9
$PUCSORG
 10
0.0
 20
0.0
 30
0.0
  9
$PUCSXDIR
 10
1.0
 20
0.0
 30
0.0
  9
$PUCSYDIR
 10
0.0
 20
1.0
 30
0.0
  9
$PUCSORTHOREF
  2

  9
$PUCSORTHOVIEW
 70
     0
  9
$PUCSORGTOP
 10
0.0
 20
0.0
 30
0.0
  9
$PUCSORGBOTTOM
 10
0.0
 20
0.0
 30
0.0
  9
$PUCSORGLEFT
 10
0.0
 20
0.0
 30
0.0
  9
$PUCSORGRIGHT
 10
0.0
 20
0.0
 30
0.0
  9
$PUCSORGFRONT
 10
0.0
 20
0.0
 30
0.0
  9
$PUCSORGBACK
 10
0.0
 20
0.0
 30
0.0
  9
$USERI1
 70
     0
  9
$USERI2
 70
     0
  9
$USERI3
 70
     0
  9
$USERI4
 70
     0
  9
$USERI5
 70
     0
  9
$USERR1
 40
0.0
  9
$USERR2
 40
0.0
  9
$USERR3
 40
0.0
  9
$USERR4
 40
0.0
  9
$USERR5
 40
0.0
  9
$WORLDVIEW
 70
     1
  9
$SHADEDGE
 70
     3
  9
$SHADEDIF
 70
    70
  9
$TILEMODE
 70
     1
  9
$MAXACTVP
 70
    48
  9
$PINSBASE
 10
0.0
 20
0.0
 30
0.0
  9
$PLIMCHECK
 70
     0
  9
$PEXTMIN
 10
1.000000000000000E+20
 20
1.000000000000000E+20
 30
1.000000000000000E+20
  9
$PEXTMAX
 10
-1.000000000000000E+20
 20
-1.000000000000000E+20
 30
-1.000000000000000E+20
  9
$PLIMMIN
 10
0.0
 20
0.0
  9
$PLIMMAX
 10
12.0
 20
9.0
  9
$UNITMODE
 70
     0
  9
$VISRETAIN
 70
     0
  9
$PLINEGEN
 70
     0
  9
$PSLTSCALE
 70
     1
  9
$TREEDEPTH
 70
  3020
  9
$CMLSTYLE
  2
Standard
  9
$CMLJUST
 70
     0
  9
$CMLSCALE
 40
1.0
  9
$PROXYGRAPHICS
 70
     1
  9
$MEASUREMENT
 70
     0
  9
$CELWEIGHT
370
    -1
  9
$ENDCAPS
280
     0
  9
$JOINSTYLE
280
     0
  9
$LWDISPLAY
290
     0
  9
$INSUNITS
 70
     0
  9
$HYPERLINKBASE
  1

  9
$STYLESHEET
  1

  9
$XEDIT
290
     1
  9
$CEPSNTYPE
380
     0
  9
$PSTYLEMODE
290
     1
  9
$FINGERPRINTGUID
  2
{CC7D6DEE-A9F1-4F3E-AC95-C84B62CCA3FD}
  9
$VERSIONGUID
  2
{49313C59-EA23-447A-8DA4-FA236F5898BF}
  9
$EXTNAMES
290
     1
  9
$PSVPSCALE
 40
0.0
  9
$OLESTARTUP
290
     0
  9
$SORTENTS
280
   127
  9
$INDEXCTL
280
     0
  9
$HIDETEXT
280
     0
  9
$XCLIPFRAME
290
     0
  9
$HALOGAP
280
     0
  9
$OBSCOLOR
 70
   257
  9
$OBSLTYPE
280
     0
  9
$INTERSECTIONDISPLAY
280
     0
  9
$INTERSECTIONCOLOR
 70
   257
  9
$DIMASSOC
280
     1
  9
$PROJECTNAME
  1

  0
ENDSEC
  0
SECTION
  2
CLASSES
  0
CLASS
  1
ACDBDICTIONARYWDFLT
  2
AcDbDictionaryWithDefault
  3
ObjectDBX Classes
 90
        0
 91
        1
280
     0
281
     0
  0
CLASS
  1
DICTIONARYVAR
  2
AcDbDictionaryVar
  3
ObjectDBX Classes
 90
        0
 91
        2
280
     0
281
     0
  0
CLASS
  1
TABLESTYLE
  2
AcDbTableStyle
  3
ObjectDBX Classes
 90
     2047
 91
        1
280
     0
281
     0
  0
ENDSEC
  0
SECTION
  2
TABLES
  0
TABLE
  2
VPORT
  5
8
330
0
100
AcDbSymbolTable
 70
     3
  0
VPORT
  5
4596
330
8
100
AcDbSymbolTableRecord
100
AcDbViewportTableRecord
  2
*Active
 70
     0
 10
0.0
 20
0.0
 11
1.0
 21
1.0
 12
593.6788005544078
 22
-94.26282158146761
 13
0.0
 23
0.0
 14
1.0
 24
1.0
 15
0.0
 25
0.0
 16
0.0
 26
0.0
 36
1.0
 17
0.0
 27
0.0
 37
0.0
 40
275.2903995716105
 41
1.684283727399165
 42
50.0
 43
0.0
 44
0.0
 50
0.0
 51
0.0
 71
     0
 72
   100
 73
     1
 74
     1
 75
     0
 76
     0
 77
     0
 78
     0
281
     0
 65
     1
110
0.0
120
0.0
130
0.0
111
1.0
121
0.0
131
0.0
112
0.0
122
1.0
132
0.0
 79
     0
146
0.0
  0
ENDTAB
  0
TABLE
  2
LTYPE
  5
5
330
0
100
AcDbSymbolTable
 70
    50
  0
LTYPE
  5
13
330
5
100
AcDbSymbolTableRecord
100
AcDbLinetypeTableRecord
  2
ByBlock
 70
     0
  3

 72
    65
 73
     0
 40
0.0
  0
LTYPE
  5
14
330
5
100
AcDbSymbolTableRecord
100
AcDbLinetypeTableRecord
  2
ByLayer
 70
     0
  3

 72
    65
 73
     0
 40
0.0
  0
LTYPE
  5
15
330
5
100
AcDbSymbolTableRecord
100
AcDbLinetypeTableRecord
  2
CONTINUOUS
 70
     0
  3
実線
 72
    65
 73
     0
 40
0.0
  0
LTYPE
  5
22
330
5
100
AcDbSymbolTableRecord
100
AcDbLinetypeTableRecord
  2
DASHED1
 70
     0
  3
--  --  --  --  --  --  --  --  
 72
    65
 73
     2
 40
2.5
 49
1.25
 74
     0
 49
-1.25
 74
     0
  0
LTYPE
  5
23
330
5
100
AcDbSymbolTableRecord
100
AcDbLinetypeTableRecord
  2
DASHED2
 70
     0
  3
----    ----    ----    ----    
 72
    65
 73
     2
 40
5.0
 49
2.5
 74
     0
 49
-2.5
 74
     0
  0
LTYPE
  5
24
330
5
100
AcDbSymbolTableRecord
100
AcDbLinetypeTableRecord
  2
DASHED3
 70
     0
  3
------  ------  ------  ------  
 72
    65
 73
     2
 40
5.0
 49
3.75
 74
     0
 49
-1.25
 74
     0
  0
LTYPE
  5
25
330
5
100
AcDbSymbolTableRecord
100
AcDbLinetypeTableRecord
  2
CENTER1
 70
     0
  3
----- - ----- - ----- - ----- - 
 72
    65
 73
     4
 40
10.0
 49
6.25
 74
     0
 49
-1.25
 74
     0
 49
1.25
 74
     0
 49
-1.25
 74
     0
  0
LTYPE
  5
26
330
5
100
AcDbSymbolTableRecord
100
AcDbLinetypeTableRecord
  2
CENTER2
 70
     0
  3
----------  --  ----------  --  
 72
    65
 73
     4
 40
20.0
 49
12.5
 74
     0
 49
-2.5
 74
     0
 49
2.5
 74
     0
 49
-2.5
 74
     0
  0
LTYPE
  5
27
330
5
100
AcDbSymbolTableRecord
100
AcDbLinetypeTableRecord
  2
PHANTOM1
 70
     0
  3
--- - - --- - - --- - - --- - - 
 72
    65
 73
     6
 40
10.0
 49
3.25
 74
     0
 49
-1.25
 74
     0
 49
1.25
 74
     0
 49
-1.25
 74
     0
 49
1.25
 74
     0
 49
-1.25
 74
     0
  0
LTYPE
  5
28
330
5
100
AcDbSymbolTableRecord
100
AcDbLinetypeTableRecord
  2
PHANTOM2
 70
     0
  3
--------  -  -  --------  -  -  
 72
    65
 73
     6
 40
20.0
 49
10.0
 74
     0
 49
-2.5
 74
     0
 49
1.25
 74
     0
 49
-2.5
 74
     0
 49
1.25
 74
     0
 49
-2.5
 74
     0
  0
LTYPE
  5
29
330
5
100
AcDbSymbolTableRecord
100
AcDbLinetypeTableRecord
  2
DOT
 70
     0
  3
-   -   -   -   -   -   -   -   
 72
    65
 73
     2
 40
2.5
 49
0.625
 74
     0
 49
-1.875
 74
     0
  0
LTYPE
  5
2A
330
5
100
AcDbSymbolTableRecord
100
AcDbLinetypeTableRecord
  2
DUMMY
 70
     0
  3
ダミー
 72
    65
 73
     0
 40
0.0
  0
LTYPE
  5
2B
330
5
100
AcDbSymbolTableRecord
100
AcDbLinetypeTableRecord
  2
RAND1
 70
     0
  3
ランダム線1
 72
    65
 73
     4
 40
10.0
 49
1.0
 74
     0
 49
-2.0
 74
     0
 49
3.0
 74
     0
 49
-4.0
 74
     0
  0
LTYPE
  5
2C
330
5
100
AcDbSymbolTableRecord
100
AcDbLinetypeTableRecord
  2
RAND2
 70
     0
  3
ランダム線2
 72
    65
 73
     4
 40
14.0
 49
2.0
 74
     0
 49
-3.0
 74
     0
 49
4.0
 74
     0
 49
-5.0
 74
     0
  0
LTYPE
  5
2D
330
5
100
AcDbSymbolTableRecord
100
AcDbLinetypeTableRecord
  2
RAND3
 70
     0
  3
ランダム線3
 72
    65
 73
     4
 40
18.0
 49
3.0
 74
     0
 49
-4.0
 74
     0
 49
5.0
 74
     0
 49
-6.0
 74
     0
  0
LTYPE
  5
2E
330
5
100
AcDbSymbolTableRecord
100
AcDbLinetypeTableRecord
  2
RAND4
 70
     0
  3
ランダム線4
 72
    65
 73
     4
 40
22.0
 49
4.0
 74
     0
 49
-5.0
 74
     0
 49
6.0
 74
     0
 49
-7.0
 74
     0
  0
LTYPE
  5
2F
330
5
100
AcDbSymbolTableRecord
100
AcDbLinetypeTableRecord
  2
RAND5
 70
     0
  3
ランダム線5
 72
    65
 73
     4
 40
26.0
 49
5.0
 74
     0
 49
-6.0
 74
     0
 49
7.0
 74
     0
 49
-8.0
 74
     0
  0
LTYPE
  5
30
330
5
100
AcDbSymbolTableRecord
100
AcDbLinetypeTableRecord
  2
LONG1
 70
     0
  3
----------  --  ----------  --  
 72
    65
 73
     4
 40
40.0
 49
32.5
 74
     0
 49
-2.5
 74
     0
 49
2.5
 74
     0
 49
-2.5
 74
     0
  0
LTYPE
  5
31
330
5
100
AcDbSymbolTableRecord
100
AcDbLinetypeTableRecord
  2
LONG2
 70
     0
  3
--------  -  -  --------  -  -  
 72
    65
 73
     6
 40
40.0
 49
30.0
 74
     0
 49
-2.5
 74
     0
 49
1.25
 74
     0
 49
-2.5
 74
     0
 49
1.25
 74
     0
 49
-2.5
 74
     0
  0
LTYPE
  5
32
330
5
100
AcDbSymbolTableRecord
100
AcDbLinetypeTableRecord
  2
LONG3
 70
     0
  3
+++++++++++++++..+++++++++++++++
 72
    65
 73
     2
 40
40.0
 49
37.5
 74
     0
 49
-2.5
 74
     0
  0
LTYPE
  5
33
330
5
100
AcDbSymbolTableRecord
100
AcDbLinetypeTableRecord
  2
LONG4
 70
     0
  3
+++++++++++++++..+++++++++++++++
 72
    65
 73
     2
 40
80.0
 49
75.0
 74
     0
 49
-5.0
 74
     0
  0
LTYPE
  5
34
330
5
100
AcDbSymbolTableRecord
100
AcDbLinetypeTableRecord
  2
LONG5
 70
     0
  3
----------  --  ----------  --  
 72
    65
 73
     4
 40
60.0
 49
37.5
 74
     0
 49
-7.5
 74
     0
 49
7.5
 74
     0
 49
-7.5
 74
     0
  0
LTYPE
  5
35
330
5
100
AcDbSymbolTableRecord
100
AcDbLinetypeTableRecord
  2
DASHED
 70
     0
  3
-------   -------------   ------
 72
    65
 73
     2
 40
7.5
 49
6.0
 74
     0
 49
-1.5
 74
     0
  0
LTYPE
  5
36
330
5
100
AcDbSymbolTableRecord
100
AcDbLinetypeTableRecord
  2
DASHED_SPACED
 70
     0
  3
----        --------        ----
 72
    65
 73
     2
 40
12.0
 49
6.0
 74
     0
 49
-6.0
 74
     0
  0
LTYPE
  5
37
330
5
100
AcDbSymbolTableRecord
100
AcDbLinetypeTableRecord
  2
LONG_DASHED_DOTTED
 70
     0
  3
------------- --- --------------
 72
    65
 73
     4
 40
15.25
 49
12.0
 74
     0
 49
-1.5
 74
     0
 49
0.25
 74
     0
 49
-1.5
 74
     0
  0
LTYPE
  5
38
330
5
100
AcDbSymbolTableRecord
100
AcDbLinetypeTableRecord
  2
LONG_DASHED_DOUBLE-DOTTED
 70
     0
  3
----------- --- --- ------------
 72
    65
 73
     6
 40
17.0
 49
12.0
 74
     0
 49
-1.5
 74
     0
 49
0.25
 74
     0
 49
-1.5
 74
     0
 49
0.25
 74
     0
 49
-1.5
 74
     0
  0
LTYPE
  5
39
330
5
100
AcDbSymbolTableRecord
100
AcDbLinetypeTableRecord
  2
LONG_DASHED_TRIPLICATE-DOTTED
 70
     0
  3
--------- --- --- --- ----------
 72
    65
 73
     8
 40
18.75
 49
12.0
 74
     0
 49
-1.5
 74
     0
 49
0.25
 74
     0
 49
-1.5
 74
     0
 49
0.25
 74
     0
 49
-1.5
 74
     0
 49
0.25
 74
     0
 49
-1.5
 74
     0
  0
LTYPE
  5
3A
330
5
100
AcDbSymbolTableRecord
100
AcDbLinetypeTableRecord
  2
DOTTED
 70
     0
  3
   -       -       -       -    
 72
    65
 73
     2
 40
1.75
 49
0.25
 74
     0
 49
-1.5
 74
     0
  0
LTYPE
  5
3B
330
5
100
AcDbSymbolTableRecord
100
AcDbLinetypeTableRecord
  2
CHAIN
 70
     0
  3
-------------- -- --------------
 72
    65
 73
     4
 40
18.5
 49
12.0
 74
     0
 49
-1.5
 74
     0
 49
3.5
 74
     0
 49
-1.5
 74
     0
  0
LTYPE
  5
3C
330
5
100
AcDbSymbolTableRecord
100
AcDbLinetypeTableRecord
  2
CHAIN_DOUBLE_DASH
 70
     0
  3
------------ -- -- -------------
 72
    65
 73
     6
 40
23.5
 49
12.0
 74
     0
 49
-1.5
 74
     0
 49
3.5
 74
     0
 49
-1.5
 74
     0
 49
3.5
 74
     0
 49
-1.5
 74
     0
  0
LTYPE
  5
3D
330
5
100
AcDbSymbolTableRecord
100
AcDbLinetypeTableRecord
  2
DASHED_DOTTED
 70
     0
  3
-----------     -     ----------
 72
    65
 73
     4
 40
9.25
 49
6.0
 74
     0
 49
-1.5
 74
     0
 49
0.25
 74
     0
 49
-1.5
 74
     0
  0
LTYPE
  5
3E
330
5
100
AcDbSymbolTableRecord
100
AcDbLinetypeTableRecord
  2
DOUBLE-DASHED_DOTTED
 70
     0
  3
------   -----------   -   -----
 72
    65
 73
     6
 40
16.75
 49
6.0
 74
     0
 49
-1.5
 74
     0
 49
6.0
 74
     0
 49
-1.5
 74
     0
 49
0.25
 74
     0
 49
-1.5
 74
     0
  0
LTYPE
  5
3F
330
5
100
AcDbSymbolTableRecord
100
AcDbLinetypeTableRecord
  2
DASHED_DOUBLE-DOTTED
 70
     0
  3
---------    -    -    ---------
 72
    65
 73
     6
 40
11.0
 49
6.0
 74
     0
 49
-1.5
 74
     0
 49
0.25
 74
     0
 49
-1.5
 74
     0
 49
0.25
 74
     0
 49
-1.5
 74
     0
  0
LTYPE
  5
40
330
5
100
AcDbSymbolTableRecord
100
AcDbLinetypeTableRecord
  2
DOUBLE-DASHED_DOUBLE-DOTTED
 70
     0
  3
-----   ---------   -   -   ----
 72
    65
 73
     8
 40
18.5
 49
6.0
 74
     0
 49
-1.5
 74
     0
 49
6.0
 74
     0
 49
-1.5
 74
     0
 49
0.25
 74
     0
 49
-1.5
 74
     0
 49
0.25
 74
     0
 49
-1.5
 74
     0
  0
LTYPE
  5
41
330
5
100
AcDbSymbolTableRecord
100
AcDbLinetypeTableRecord
  2
DASHED_TRIPLICATE-DOTTED
 70
     0
  3
-------    -    -    -    ------
 72
    65
 73
     8
 40
12.75
 49
6.0
 74
     0
 49
-1.5
 74
     0
 49
0.25
 74
     0
 49
-1.5
 74
     0
 49
0.25
 74
     0
 49
-1.5
 74
     0
 49
0.25
 74
     0
 49
-1.5
 74
     0
  0
LTYPE
  5
42
330
5
100
AcDbSymbolTableRecord
100
AcDbLinetypeTableRecord
  2
DOUBLE-DASHED_TRIPLICATE-DOTTED
 70
     0
  3
-----  ---------  -  -  -  -----
 72
    65
 73
    10
 40
20.24999999999999
 49
6.0
 74
     0
 49
-1.5
 74
     0
 49
6.0
 74
     0
 49
-1.5
 74
     0
 49
0.25
 74
     0
 49
-1.5
 74
     0
 49
0.25
 74
     0
 49
-1.5
 74
     0
 49
0.25
 74
     0
 49
-1.5
 74
     0
  0
LTYPE
  5
43
330
5
100
AcDbSymbolTableRecord
100
AcDbLinetypeTableRecord
  2
UNDEFINED
 70
     0
  3
--------------------------------
 72
    65
 73
     0
 40
0.0
  0
LTYPE
  5
44
330
5
100
AcDbSymbolTableRecord
100
AcDbLinetypeTableRecord
  2
PLINE2
 70
     0
  3
------     -----------     -----
 72
    65
 73
     2
 40
3.0
 49
2.1
 74
     0
 49
-0.9
 74
     0
  0
LTYPE
  5
45
330
5
100
AcDbSymbolTableRecord
100
AcDbLinetypeTableRecord
  2
PLINE3
 70
     0
  3
------------   ---   -----------
 72
    65
 73
     4
 40
10.0
 49
7.0
 74
     0
 49
-1.0
 74
     0
 49
1.0
 74
     0
 49
-1.0
 74
     0
  0
LTYPE
  5
46
330
5
100
AcDbSymbolTableRecord
100
AcDbLinetypeTableRecord
  2
PLINE4
 70
     0
  3
---------   ---   ---   --------
 72
    65
 73
     6
 40
10.0
 49
5.0
 74
     0
 49
-1.0
 74
     0
 49
1.0
 74
     0
 49
-1.0
 74
     0
 49
1.0
 74
     0
 49
-1.0
 74
     0
  0
LTYPE
  5
47
330
5
100
AcDbSymbolTableRecord
100
AcDbLinetypeTableRecord
  2
PLINE5
 70
     0
  3
------     -----------     -----
 72
    65
 73
     2
 40
5.0
 49
3.5
 74
     0
 49
-1.5
 74
     0
  0
LTYPE
  5
48
330
5
100
AcDbSymbolTableRecord
100
AcDbLinetypeTableRecord
  2
PLINE6
 70
     0
  3
------------   ---   -----------
 72
    65
 73
     4
 40
15.0
 49
10.5
 74
     0
 49
-1.5
 74
     0
 49
1.5
 74
     0
 49
-1.5
 74
     0
  0
LTYPE
  5
49
330
5
100
AcDbSymbolTableRecord
100
AcDbLinetypeTableRecord
  2
PLINE7
 70
     0
  3
---------   ---   ---   --------
 72
    65
 73
     6
 40
15.0
 49
7.5
 74
     0
 49
-1.5
 74
     0
 49
1.5
 74
     0
 49
-1.5
 74
     0
 49
1.5
 74
     0
 49
-1.5
 74
     0
  0
LTYPE
  5
4A
330
5
100
AcDbSymbolTableRecord
100
AcDbLinetypeTableRecord
  2
PLINE8
 70
     0
  3
------     -----------     -----
 72
    65
 73
     2
 40
7.0
 49
4.9
 74
     0
 49
-2.1
 74
     0
  0
LTYPE
  5
4B
330
5
100
AcDbSymbolTableRecord
100
AcDbLinetypeTableRecord
  2
PLINE9
 70
     0
  3
------------   ---   -----------
 72
    65
 73
     4
 40
20.0
 49
14.0
 74
     0
 49
-2.0
 74
     0
 49
2.0
 74
     0
 49
-2.0
 74
     0
  0
LTYPE
  5
4C
330
5
100
AcDbSymbolTableRecord
100
AcDbLinetypeTableRecord
  2
PLINE10
 70
     0
  3
---------   ---   ---   --------
 72
    65
 73
     6
 40
20.0
 49
10.0
 74
     0
 49
-2.0
 74
     0
 49
2.0
 74
     0
 49
-2.0
 74
     0
 49
2.0
 74
     0
 49
-2.0
 74
     0
  0
LTYPE
  5
4D
330
5
100
AcDbSymbolTableRecord
100
AcDbLinetypeTableRecord
  2
PLINE11
 70
     0
  3
------     -----------     -----
 72
    65
 73
     2
 40
9.0
 49
6.299999999999998
 74
     0
 49
-2.7
 74
     0
  0
LTYPE
  5
4E
330
5
100
AcDbSymbolTableRecord
100
AcDbLinetypeTableRecord
  2
PLINE12
 70
     0
  3
------------   ---   -----------
 72
    65
 73
     4
 40
25.0
 49
17.5
 74
     0
 49
-2.5
 74
     0
 49
2.5
 74
     0
 49
-2.5
 74
     0
  0
LTYPE
  5
4F
330
5
100
AcDbSymbolTableRecord
100
AcDbLinetypeTableRecord
  2
PLINE13
 70
     0
  3
---------   ---   ---   --------
 72
    65
 73
     6
 40
25.0
 49
12.5
 74
     0
 49
-2.5
 74
     0
 49
2.5
 74
     0
 49
-2.5
 74
     0
 49
2.5
 74
     0
 49
-2.5
 74
     0
  0
LTYPE
  5
50
330
5
100
AcDbSymbolTableRecord
100
AcDbLinetypeTableRecord
  2
PLINE14
 70
     0
  3
------     -----------     -----
 72
    65
 73
     2
 40
11.0
 49
7.7
 74
     0
 49
-3.299999999999998
 74
     0
  0
LTYPE
  5
51
330
5
100
AcDbSymbolTableRecord
100
AcDbLinetypeTableRecord
  2
PLINE15
 70
     0
  3
------------   ---   -----------
 72
    65
 73
     4
 40
30.0
 49
21.0
 74
     0
 49
-3.0
 74
     0
 49
3.0
 74
     0
 49
-3.0
 74
     0
  0
LTYPE
  5
52
330
5
100
AcDbSymbolTableRecord
100
AcDbLinetypeTableRecord
  2
PLINE16
 70
     0
  3
---------   ---   ---   --------
 72
    65
 73
     6
 40
30.0
 49
15.0
 74
     0
 49
-3.0
 74
     0
 49
3.0
 74
     0
 49
-3.0
 74
     0
 49
3.0
 74
     0
 49
-3.0
 74
     0
  0
ENDTAB
  0
TABLE
  2
LAYER
  5
2
102
{ACAD_XDICTIONARY
360
175
102
}
330
0
100
AcDbSymbolTable
 70
     6
  0
LAYER
  5
10
330
2
100
AcDbSymbolTableRecord
100
AcDbLayerTableRecord
  2
0
 70
     0
 62
     7
  6
CONTINUOUS
370
    -3
390
F
  0
LAYER
  5
128
330
2
100
AcDbSymbolTableRecord
100
AcDbLayerTableRecord
  2
Defpoints
 70
     0
 62
     7
  6
CONTINUOUS
290
     0
370
    -3
390
F
  0
LAYER
  5
178
330
2
100
AcDbSymbolTableRecord
100
AcDbLayerTableRecord
  2
寸法
 70
     0
 62
     7
  6
CONTINUOUS
370
    -3
390
F
  0
LAYER
  5
179
330
2
100
AcDbSymbolTableRecord
100
AcDbLayerTableRecord
  2
躯体
 70
     0
 62
     7
  6
CONTINUOUS
370
    -3
390
F
  0
LAYER
  5
17A
330
2
100
AcDbSymbolTableRecord
100
AcDbLayerTableRecord
  2
笠木
 70
     0
 62
     7
  6
CONTINUOUS
370
    -3
390
F
  0
LAYER
  5
17B
330
2
100
AcDbSymbolTableRecord
100
AcDbLayerTableRecord
  2
受金具
 70
     0
 62
     7
  6
CONTINUOUS
370
    -3
390
F
  0
ENDTAB
  0
TABLE
  2
STYLE
  5
3
330
0
100
AcDbSymbolTable
 70
     4
  0
STYLE
  5
11
330
3
100
AcDbSymbolTableRecord
100
AcDbTextStyleTableRecord
  2
STANDARD
 70
     0
 40
0.0
 41
1.0
 50
0.0
 71
     0
 42
0.2
  3
txt
  4
bigfont.shx
  0
STYLE
  5
53
330
3
100
AcDbSymbolTableRecord
100
AcDbTextStyleTableRecord
  2
TATEGAKI
 70
     4
 40
0.0
 41
1.0
 50
0.0
 71
     0
 42
1.0
  3
txt
  4
bigfont.shx
  0
STYLE
  5
123
330
3
100
AcDbSymbolTableRecord
100
AcDbTextStyleTableRecord
  2
ACAD
 70
     0
 40
5.0
 41
0.8
 50
0.0
 71
     0
 42
5.0
  3
romans.shx
  4
extfont.shx
  0
STYLE
  5
3A5F
330
3
100
AcDbSymbolTableRecord
100
AcDbTextStyleTableRecord
  2
VERTXT
 70
     4
 40
0.0
 41
0.8582679999999999
 50
0.0
 71
     0
 42
3.5
  3
txt.shx
  4
BIGFONT
  0
ENDTAB
  0
TABLE
  2
VIEW
  5
6
330
0
100
AcDbSymbolTable
 70
     0
  0
ENDTAB
  0
TABLE
  2
UCS
  5
7
330
0
100
AcDbSymbolTable
 70
     0
  0
ENDTAB
  0
TABLE
  2
APPID
  5
9
330
0
100
AcDbSymbolTable
 70
     9
  0
APPID
  5
12
330
9
100
AcDbSymbolTableRecord
100
AcDbRegAppTableRecord
  2
ACAD
 70
     0
  0
APPID
  5
43A7
330
9
100
AcDbSymbolTableRecord
100
AcDbRegAppTableRecord
  2
ACAD_DSTYLE_DIMTEXT_FILL
 70
     0
  0
APPID
  5
43A8
330
9
100
AcDbSymbolTableRecord
100
AcDbRegAppTableRecord
  2
ACAD_DSTYLE_DIMEXT_LENGTH
 70
     0
  0
APPID
  5
43A9
330
9
100
AcDbSymbolTableRecord
100
AcDbRegAppTableRecord
  2
ACAD_DSTYLE_DIMEXT_ENABLED
 70
     0
  0
APPID
  5
43AA
330
9
100
AcDbSymbolTableRecord
100
AcDbRegAppTableRecord
  2
ACAD_DSTYLE_DIM_LINETYPE
 70
     0
  0
APPID
  5
43AB
330
9
100
AcDbSymbolTableRecord
100
AcDbRegAppTableRecord
  2
ACAD_DSTYLE_DIM_EXT1_LINETYPE
 70
     0
  0
APPID
  5
43AC
330
9
100
AcDbSymbolTableRecord
100
AcDbRegAppTableRecord
  2
ACAD_DSTYLE_DIM_EXT2_LINETYPE
 70
     0
  0
APPID
  5
4498
330
9
100
AcDbSymbolTableRecord
100
AcDbRegAppTableRecord
  2
ACAD_DSTYLE_DIMJOGGED_JOGANGLE_SYMBOL
 70
     0
  0
APPID
  5
4500
330
9
100
AcDbSymbolTableRecord
100
AcDbRegAppTableRecord
  2
ACAD_DSTYLE_DIMARC_LENGTH_SYMBOL
 70
     0
  0
ENDTAB
  0
TABLE
  2
DIMSTYLE
  5
A
330
0
100
AcDbSymbolTable
 70
     3
100
AcDbDimStyleTable
 71
     1
340
2CBB
  0
DIMSTYLE
105
11C
330
A
100
AcDbSymbolTableRecord
100
AcDbDimStyleTableRecord
  2
Standard
 70
     0
340
11
  0
DIMSTYLE
105
126
330
A
100
AcDbSymbolTableRecord
100
AcDbDimStyleTableRecord
  2
AutoCAD
 70
     0
 41
1.0
 42
0.0
 44
0.0
 73
     0
 77
     1
140
5.0
147
1.0
174
     1
176
     4
177
     4
178
     3
271
     0
272
     0
289
     0
340
123
341
11E
342
11E
  0
DIMSTYLE
105
2CBB
102
{ACAD_REACTORS
330
41EC
330
41FA
330
4207
330
4214
330
4221
102
}
330
A
100
AcDbSymbolTableRecord
100
AcDbDimStyleTableRecord
  2
111
 70
     0
 41
1.0
 42
0.0
 44
0.0
 73
     0
 77
     1
140
5.0
147
1.0
174
     1
176
     4
177
     4
178
     3
271
     0
272
     0
289
     0
340
123
341
2CB5
342
44C9
1001
ACAD_DSTYLE_DIMEXT_LENGTH
1070
   378
1040
0.0
1001
ACAD_DSTYLE_DIMEXT_ENABLED
1070
   383
1070
     0
1001
ACAD_DSTYLE_DIMARC_LENGTH_SYMBOL
1070
   379
1070
     0
1001
ACAD_DSTYLE_DIMJOGGED_JOGANGLE_SYMBOL
1070
   384
1040
0.7853981633974483
  0
ENDTAB
  0
TABLE
  2
BLOCK_RECORD
  5
1
330
0
100
AcDbSymbolTable
 70
    10
  0
BLOCK_RECORD
  5
1E
102
{ACAD_XDICTIONARY
360
28B
102
}
330
1
100
AcDbSymbolTableRecord
100
AcDbBlockTableRecord
  2
*Model_Space
340
21
  0
BLOCK_RECORD
  5
1A
102
{ACAD_XDICTIONARY
360
28D
102
}
330
1
100
AcDbSymbolTableRecord
100
AcDbBlockTableRecord
  2
*Paper_Space
340
1D
  0
BLOCK_RECORD
  5
11E
330
1
100
AcDbSymbolTableRecord
100
AcDbBlockTableRecord
  2
_Dot
340
0
  0
BLOCK_RECORD
  5
15B0
330
1
100
AcDbSymbolTableRecord
100
AcDbBlockTableRecord
  2
_None
340
0
  0
BLOCK_RECORD
  5
2CB5
330
1
100
AcDbSymbolTableRecord
100
AcDbBlockTableRecord
  2
_Open30
340
0
  0
BLOCK_RECORD
  5
35E3
330
1
100
AcDbSymbolTableRecord
100
AcDbBlockTableRecord
  2
_DotBlank
340
0
  0
BLOCK_RECORD
  5
41ED
330
1
100
AcDbSymbolTableRecord
100
AcDbBlockTableRecord
  2
*D4
340
0
  0
BLOCK_RECORD
  5
41FB
330
1
100
AcDbSymbolTableRecord
100
AcDbBlockTableRecord
  2
*D5
340
0
  0
BLOCK_RECORD
  5
4208
330
1
100
AcDbSymbolTableRecord
100
AcDbBlockTableRecord
  2
*D6
340
0
  0
BLOCK_RECORD
  5
4215
330
1
100
AcDbSymbolTableRecord
100
AcDbBlockTableRecord
  2
*D7
340
0
  0
BLOCK_RECORD
  5
4222
330
1
100
AcDbSymbolTableRecord
100
AcDbBlockTableRecord
  2
*D8
340
0
  0
BLOCK_RECORD
  5
44C9
330
1
100
AcDbSymbolTableRecord
100
AcDbBlockTableRecord
  2
_DotSmall
340
0
102
{BLKREFS
331
4509
331
450A
331
4512
331
4513
331
451B
331
451C
331
4524
331
4525
331
452E
331
452F
102
}
  0
ENDTAB
  0
ENDSEC
  0
SECTION
  2
BLOCKS
  0
BLOCK
  5
1F
330
1E
100
AcDbEntity
  8
0
100
AcDbBlockBegin
  2
*Model_Space
 70
     0
 10
0.0
 20
0.0
 30
0.0
  3
*Model_Space
  1

  0
ENDBLK
  5
20
330
1E
100
AcDbEntity
  8
0
100
AcDbBlockEnd
  0
BLOCK
  5
1B
330
1A
100
AcDbEntity
 67
     1
  8
0
100
AcDbBlockBegin
  2
*Paper_Space
 70
     0
 10
0.0
 20
0.0
 30
0.0
  3
*Paper_Space
  1

  0
ENDBLK
  5
1C
330
1A
100
AcDbEntity
 67
     1
  8
0
100
AcDbBlockEnd
  0
BLOCK
  5
121
330
11E
100
AcDbEntity
  8
0
100
AcDbBlockBegin
  2
_Dot
 70
     0
 10
0.0
 20
0.0
 30
0.0
  3
_Dot
  1

  0
LWPOLYLINE
  5
11F
330
11E
100
AcDbEntity
  8
0
  6
ByBlock
 62
     0
100
AcDbPolyline
 90
        2
 70
     1
 43
0.5
 10
-0.25
 20
0.0
 42
1.0
 10
0.25
 20
0.0
 42
1.0
  0
LINE
  5
120
330
11E
100
AcDbEntity
  8
0
  6
ByBlock
 62
     0
370
    -2
100
AcDbLine
 10
-0.5
 20
0.0
 30
0.0
 11
-1.0
 21
0.0
 31
0.0
  0
ENDBLK
  5
122
330
11E
100
AcDbEntity
  8
0
100
AcDbBlockEnd
  0
BLOCK
  5
15B1
330
15B0
100
AcDbEntity
  8
0
100
AcDbBlockBegin
  2
_None
 70
     0
 10
0.0
 20
0.0
 30
0.0
  3
_None
  1

  0
ENDBLK
  5
15B2
330
15B0
100
AcDbEntity
  8
0
100
AcDbBlockEnd
  0
BLOCK
  5
2CB9
330
2CB5
100
AcDbEntity
  8
0
100
AcDbBlockBegin
  2
_Open30
 70
     0
 10
0.0
 20
0.0
 30
0.0
  3
_Open30
  1

  0
LINE
  5
2CB6
330
2CB5
100
AcDbEntity
  8
0
  6
ByBlock
 62
     0
370
    -2
100
AcDbLine
 10
-1.0
 20
0.26794919
 30
0.0
 11
0.0
 21
0.0
 31
0.0
  0
LINE
  5
2CB7
330
2CB5
100
AcDbEntity
  8
0
  6
ByBlock
 62
     0
370
    -2
100
AcDbLine
 10
0.0
 20
0.0
 30
0.0
 11
-1.0
 21
-0.26794919
 31
0.0
  0
LINE
  5
2CB8
330
2CB5
100
AcDbEntity
  8
0
  6
ByBlock
 62
     0
370
    -2
100
AcDbLine
 10
0.0
 20
0.0
 30
0.0
 11
-1.0
 21
0.0
 31
0.0
  0
ENDBLK
  5
2CBA
330
2CB5
100
AcDbEntity
  8
0
100
AcDbBlockEnd
  0
BLOCK
  5
35E6
330
35E3
100
AcDbEntity
  8
0
100
AcDbBlockBegin
  2
_DotBlank
 70
     0
 10
0.0
 20
0.0
 30
0.0
  3
_DotBlank
  1

  0
CIRCLE
  5
35E4
330
35E3
100
AcDbEntity
  8
0
  6
ByBlock
 62
     0
370
    -2
100
AcDbCircle
 10
0.0
 20
0.0
 30
0.0
 40
0.5
  0
LINE
  5
35E5
330
35E3
100
AcDbEntity
  8
0
  6
ByBlock
 62
     0
370
    -2
100
AcDbLine
 10
-0.5
 20
0.0
 30
0.0
 11
-1.0
 21
0.0
 31
0.0
  0
ENDBLK
  5
35E7
330
35E3
100
AcDbEntity
  8
0
100
AcDbBlockEnd
  0
BLOCK
  5
41F8
330
41ED
100
AcDbEntity
  8
0
100
AcDbBlockBegin
  2
*D4
 70
     1
 10
0.0
 20
0.0
 30
0.0
  3
*D4
  1

  0
LINE
  5
4505
330
41ED
100
AcDbEntity
  8
寸法
  6
Continuous
 62
     4
370
    -2
100
AcDbLine
 10
562.051445425483
 20
-51.95917924375862
 30
0.0
 11
562.051445425483
 21
-43.18767933827603
 31
0.0
  0
LINE
  5
4506
330
41ED
100
AcDbEntity
  8
寸法
  6
Continuous
 62
     4
370
    -2
100
AcDbLine
 10
564.0514454254833
 20
-51.95917924375862
 30
0.0
 11
564.0514454254833
 21
-43.18767933827603
 31
0.0
  0
LINE
  5
4507
330
41ED
100
AcDbEntity
  8
寸法
  6
Continuous
 62
     4
370
    -2
100
AcDbLine
 10
562.051445425483
 20
-43.18767933827603
 30
0.0
 11
561.051445425483
 21
-43.18767933827603
 31
0.0
  0
LINE
  5
4508
330
41ED
100
AcDbEntity
  8
寸法
  6
Continuous
 62
     4
370
    -2
100
AcDbLine
 10
564.0514454254833
 20
-43.18767933827603
 30
0.0
 11
565.0514454254833
 21
-43.18767933827603
 31
0.0
  0
INSERT
  5
4509
330
41ED
100
AcDbEntity
  8
寸法
  6
Continuous
 62
     4
370
    -2
100
AcDbBlockReference
  2
_DotSmall
 10
562.051445425483
 20
-43.18767933827603
 30
0.0
  0
INSERT
  5
450A
330
41ED
100
AcDbEntity
  8
寸法
  6
Continuous
 62
     4
370
    -2
100
AcDbBlockReference
  2
_DotSmall
 10
564.0514454254833
 20
-43.18767933827603
 30
0.0
 50
180.0
  0
MTEXT
  5
450B
330
41ED
100
AcDbEntity
  8
寸法
  6
Continuous
 62
     3
100
AcDbMText
 10
563.0514454254831
 20
-39.68767933827603
 30
0.0
 40
5.0
 41
0.0
 71
     5
 72
     1
  1
\A1;2
  7
ACAD
 73
     1
 44
1.0
  0
POINT
  5
450C
330
41ED
100
AcDbEntity
  8
Defpoints
  6
Continuous
 62
     0
100
AcDbPoint
 10
562.051445425483
 20
-51.95917924375862
 30
0.0
  0
POINT
  5
450D
330
41ED
100
AcDbEntity
  8
Defpoints
  6
Continuous
 62
     0
100
AcDbPoint
 10
564.0514454254833
 20
-51.95917924375862
 30
0.0
  0
POINT
  5
450E
330
41ED
100
AcDbEntity
  8
Defpoints
  6
Continuous
 62
     0
100
AcDbPoint
 10
564.0514454254833
 20
-43.18767933827603
 30
0.0
  0
ENDBLK
  5
41F9
330
41ED
100
AcDbEntity
  8
0
100
AcDbBlockEnd
  0
BLOCK
  5
4205
330
41FB
100
AcDbEntity
  8
0
100
AcDbBlockBegin
  2
*D5
 70
     1
 10
0.0
 20
0.0
 30
0.0
  3
*D5
  1

  0
LINE
  5
450F
330
41FB
100
AcDbEntity
  8
寸法
  6
Continuous
 62
     4
370
    -2
100
AcDbLine
 10
564.0514454254833
 20
-51.95917924375862
 30
0.0
 11
564.0514454254833
 21
-43.18767933827603
 31
0.0
  0
LINE
  5
4510
330
41FB
100
AcDbEntity
  8
寸法
  6
Continuous
 62
     4
370
    -2
100
AcDbLine
 10
584.0514454254832
 20
-51.95917924375862
 30
0.0
 11
584.0514454254832
 21
-43.18767933827603
 31
0.0
  0
LINE
  5
4511
330
41FB
100
AcDbEntity
  8
寸法
  6
Continuous
 62
     4
370
    -2
100
AcDbLine
 10
564.0514454254833
 20
-43.18767933827603
 30
0.0
 11
584.0514454254832
 21
-43.18767933827603
 31
0.0
  0
INSERT
  5
4512
330
41FB
100
AcDbEntity
  8
寸法
  6
Continuous
 62
     4
370
    -2
100
AcDbBlockReference
  2
_DotSmall
 10
564.0514454254833
 20
-43.18767933827603
 30
0.0
 50
180.0
  0
INSERT
  5
4513
330
41FB
100
AcDbEntity
  8
寸法
  6
Continuous
 62
     4
370
    -2
100
AcDbBlockReference
  2
_DotSmall
 10
584.0514454254832
 20
-43.18767933827603
 30
0.0
  0
MTEXT
  5
4514
330
41FB
100
AcDbEntity
  8
寸法
  6
Continuous
 62
     3
100
AcDbMText
 10
574.0514454254832
 20
-39.68767933827603
 30
0.0
 40
5.0
 41
0.0
 71
     5
 72
     1
  1
\A1;20
  7
ACAD
 73
     1
 44
1.0
  0
POINT
  5
4515
330
41FB
100
AcDbEntity
  8
Defpoints
  6
Continuous
 62
     0
100
AcDbPoint
 10
564.0514454254833
 20
-51.95917924375862
 30
0.0
  0
POINT
  5
4516
330
41FB
100
AcDbEntity
  8
Defpoints
  6
Continuous
 62
     0
100
AcDbPoint
 10
584.0514454254832
 20
-51.95917924375862
 30
0.0
  0
POINT
  5
4517
330
41FB
100
AcDbEntity
  8
Defpoints
  6
Continuous
 62
     0
100
AcDbPoint
 10
584.0514454254832
 20
-43.18767933827603
 30
0.0
  0
ENDBLK
  5
4206
330
41FB
100
AcDbEntity
  8
0
100
AcDbBlockEnd
  0
BLOCK
  5
4212
330
4208
100
AcDbEntity
  8
0
100
AcDbBlockBegin
  2
*D6
 70
     1
 10
0.0
 20
0.0
 30
0.0
  3
*D6
  1

  0
LINE
  5
4518
330
4208
100
AcDbEntity
  8
寸法
  6
Continuous
 62
     4
370
    -2
100
AcDbLine
 10
562.051445425483
 20
-51.95917924375862
 30
0.0
 11
562.051445425483
 21
-29.74539733827605
 31
0.0
  0
LINE
  5
4519
330
4208
100
AcDbEntity
  8
寸法
  6
Continuous
 62
     4
370
    -2
100
AcDbLine
 10
584.0514454254832
 20
-51.95917924375862
 30
0.0
 11
584.0514454254832
 21
-29.74539733827605
 31
0.0
  0
LINE
  5
451A
330
4208
100
AcDbEntity
  8
寸法
  6
Continuous
 62
     4
370
    -2
100
AcDbLine
 10
562.051445425483
 20
-29.74539733827605
 30
0.0
 11
584.0514454254832
 21
-29.74539733827605
 31
0.0
  0
INSERT
  5
451B
330
4208
100
AcDbEntity
  8
寸法
  6
Continuous
 62
     4
370
    -2
100
AcDbBlockReference
  2
_DotSmall
 10
562.051445425483
 20
-29.74539733827605
 30
0.0
 50
180.0
  0
INSERT
  5
451C
330
4208
100
AcDbEntity
  8
寸法
  6
Continuous
 62
     4
370
    -2
100
AcDbBlockReference
  2
_DotSmall
 10
584.0514454254832
 20
-29.74539733827605
 30
0.0
  0
MTEXT
  5
451D
330
4208
100
AcDbEntity
  8
寸法
  6
Continuous
 62
     3
100
AcDbMText
 10
573.0514454254831
 20
-26.24539733827605
 30
0.0
 40
5.0
 41
0.0
 71
     5
 72
     1
  1
\A1;22
  7
ACAD
 73
     1
 44
1.0
  0
POINT
  5
451E
330
4208
100
AcDbEntity
  8
Defpoints
  6
Continuous
 62
     0
100
AcDbPoint
 10
562.051445425483
 20
-51.95917924375862
 30
0.0
  0
POINT
  5
451F
330
4208
100
AcDbEntity
  8
Defpoints
  6
Continuous
 62
     0
100
AcDbPoint
 10
584.0514454254832
 20
-51.95917924375862
 30
0.0
  0
POINT
  5
4520
330
4208
100
AcDbEntity
  8
Defpoints
  6
Continuous
 62
     0
100
AcDbPoint
 10
584.0514454254832
 20
-29.74539733827605
 30
0.0
  0
ENDBLK
  5
4213
330
4208
100
AcDbEntity
  8
0
100
AcDbBlockEnd
  0
BLOCK
  5
421F
330
4215
100
AcDbEntity
  8
0
100
AcDbBlockBegin
  2
*D7
 70
     1
 10
0.0
 20
0.0
 30
0.0
  3
*D7
  1

  0
LINE
  5
4521
330
4215
100
AcDbEntity
  8
寸法
  6
Continuous
 62
     4
370
    -2
100
AcDbLine
 10
558.6660299841441
 20
-65.80740133827607
 30
0.0
 11
542.051445425483
 21
-65.80740133827605
 31
0.0
  0
LINE
  5
4522
330
4215
100
AcDbEntity
  8
寸法
  6
Continuous
 62
     4
370
    -2
100
AcDbLine
 10
558.6660299841441
 20
-215.8074013382759
 30
0.0
 11
542.051445425483
 21
-215.8074013382759
 31
0.0
  0
LINE
  5
4523
330
4215
100
AcDbEntity
  8
寸法
  6
Continuous
 62
     4
370
    -2
100
AcDbLine
 10
542.051445425483
 20
-65.80740133827605
 30
0.0
 11
542.051445425483
 21
-215.8074013382759
 31
0.0
  0
INSERT
  5
4524
330
4215
100
AcDbEntity
  8
寸法
  6
Continuous
 62
     4
370
    -2
100
AcDbBlockReference
  2
_DotSmall
 10
542.051445425483
 20
-65.80740133827605
 30
0.0
 50
90.0
  0
INSERT
  5
4525
330
4215
100
AcDbEntity
  8
寸法
  6
Continuous
 62
     4
370
    -2
100
AcDbBlockReference
  2
_DotSmall
 10
542.051445425483
 20
-215.8074013382759
 30
0.0
 50
270.0
  0
MTEXT
  5
4526
330
4215
100
AcDbEntity
  8
寸法
  6
Continuous
 62
     3
100
AcDbMText
 10
538.551445425483
 20
-140.8074013382759
 30
0.0
 40
5.0
 41
0.0
 71
     5
 72
     1
  1
\A1;150
  7
ACAD
 11
0.0000000000000001
 21
1.0
 31
0.0
 73
     1
 44
1.0
  0
POINT
  5
4527
330
4215
100
AcDbEntity
  8
Defpoints
  6
Continuous
 62
     0
100
AcDbPoint
 10
558.6660299841441
 20
-65.80740133827607
 30
0.0
  0
POINT
  5
4528
330
4215
100
AcDbEntity
  8
Defpoints
  6
Continuous
 62
     0
100
AcDbPoint
 10
558.6660299841441
 20
-215.8074013382759
 30
0.0
  0
POINT
  5
4529
330
4215
100
AcDbEntity
  8
Defpoints
  6
Continuous
 62
     0
100
AcDbPoint
 10
542.051445425483
 20
-215.8074013382759
 30
0.0
  0
ENDBLK
  5
4220
330
4215
100
AcDbEntity
  8
0
100
AcDbBlockEnd
  0
BLOCK
  5
422D
330
4222
100
AcDbEntity
  8
0
100
AcDbBlockBegin
  2
*D8
 70
     1
 10
0.0
 20
0.0
 30
0.0
  3
*D8
  1

  0
LINE
  5
452A
330
4222
100
AcDbEntity
  8
寸法
  6
Continuous
 62
     4
370
    -2
100
AcDbLine
 10
562.551445425483
 20
-219.8381328947807
 30
0.0
 11
562.551445425483
 21
-230.6072213382759
 31
0.0
  0
LINE
  5
452B
330
4222
100
AcDbEntity
  8
寸法
  6
Continuous
 62
     4
370
    -2
100
AcDbLine
 10
567.0514454254832
 20
-219.8381328947807
 30
0.0
 11
567.0514454254832
 21
-230.6072213382759
 31
0.0
  0
LINE
  5
452C
330
4222
100
AcDbEntity
  8
寸法
  6
Continuous
 62
     4
370
    -2
100
AcDbLine
 10
562.551445425483
 20
-230.6072213382759
 30
0.0
 11
561.551445425483
 21
-230.6072213382759
 31
0.0
  0
LINE
  5
452D
330
4222
100
AcDbEntity
  8
寸法
  6
Continuous
 62
     4
370
    -2
100
AcDbLine
 10
567.0514454254832
 20
-230.6072213382759
 30
0.0
 11
568.0514454254832
 21
-230.6072213382759
 31
0.0
  0
INSERT
  5
452E
330
4222
100
AcDbEntity
  8
寸法
  6
Continuous
 62
     4
370
    -2
100
AcDbBlockReference
  2
_DotSmall
 10
562.551445425483
 20
-230.6072213382759
 30
0.0
  0
INSERT
  5
452F
330
4222
100
AcDbEntity
  8
寸法
  6
Continuous
 62
     4
370
    -2
100
AcDbBlockReference
  2
_DotSmall
 10
567.0514454254832
 20
-230.6072213382759
 30
0.0
 50
180.0
  0
MTEXT
  5
4530
330
4222
100
AcDbEntity
  8
寸法
  6
Continuous
 62
     3
100
AcDbMText
 10
564.8014454254831
 20
-227.1072213382759
 30
0.0
 40
5.0
 41
0.0
 71
     5
 72
     1
  1
\A1;4.5
  7
ACAD
 73
     1
 44
1.0
  0
POINT
  5
4531
330
4222
100
AcDbEntity
  8
Defpoints
  6
Continuous
 62
     0
100
AcDbPoint
 10
562.551445425483
 20
-219.8381328947807
 30
0.0
  0
POINT
  5
4532
330
4222
100
AcDbEntity
  8
Defpoints
  6
Continuous
 62
     0
100
AcDbPoint
 10
567.0514454254832
 20
-219.8381328947807
 30
0.0
  0
POINT
  5
4533
330
4222
100
AcDbEntity
  8
Defpoints
  6
Continuous
 62
     0
100
AcDbPoint
 10
567.0514454254832
 20
-230.6072213382759
 30
0.0
  0
ENDBLK
  5
422E
330
4222
100
AcDbEntity
  8
0
100
AcDbBlockEnd
  0
BLOCK
  5
44CB
330
44C9
100
AcDbEntity
  8
0
 62
     4
100
AcDbBlockBegin
  2
_DotSmall
 70
     0
 10
0.0
 20
0.0
 30
0.0
  3
_DotSmall
  1

  0
LWPOLYLINE
  5
44CA
330
44C9
100
AcDbEntity
  8
0
  6
ByBlock
 62
     0
100
AcDbPolyline
 90
        2
 70
     1
 43
0.5
 10
-0.0625
 20
0.0
 42
1.0
 10
0.0625
 20
0.0
 42
1.0
  0
ENDBLK
  5
44CC
330
44C9
100
AcDbEntity
  8
0
 62
     4
100
AcDbBlockEnd
  0
ENDSEC
  0
SECTION
  2
ENTITIES
  0
ARC
  5
4036
330
1E
100
AcDbEntity
  8
受金具
  6
Continuous
 62
     4
100
AcDbCircle
 10
596.0514454254832
 20
-99.98490133827601
 30
0.0
 40
25.0
100
AcDbArc
 50
76.11345999999982
 51
103.8865400000002
  0
LINE
  5
4037
330
1E
100
AcDbEntity
  8
躯体
  6
Continuous
 62
     3
100
AcDbLine
 10
581.5514454254833
 20
-142.0143373382759
 30
0.0
 11
619.6808814254832
 21
-103.884901338276
 31
0.0
  0
LINE
  5
4038
330
1E
100
AcDbEntity
  8
躯体
  6
Continuous
 62
     3
100
AcDbLine
 10
622.5093094254832
 20
-103.884901338276
 30
0.0
 11
581.5514454254833
 21
-144.842765338276
 31
0.0
  0
LINE
  5
4039
330
1E
100
AcDbEntity
  8
躯体
  6
Continuous
 62
     3
100
AcDbLine
 10
581.5514454254833
 20
-147.6711913382759
 30
0.0
 11
625.3377374254832
 21
-103.884901338276
 31
0.0
  0
LINE
  5
403A
330
1E
100
AcDbEntity
  8
受金具
  6
Continuous
 62
     4
100
AcDbLine
 10
577.8702694254832
 20
-93.88490133827602
 30
0.0
 11
750.2326214254832
 21
-93.88490133827602
 31
0.0
  0
LINE
  5
403B
330
1E
100
AcDbEntity
  8
躯体
  6
Continuous
 62
     4
100
AcDbLine
 10
734.8651534254829
 20
-95.88490133827603
 30
0.0
 11
591.1702474254832
 21
-95.88490133827603
 31
0.0
  0
LINE
  5
403C
330
1E
100
AcDbEntity
  8
躯体
  6
Continuous
 62
     4
100
AcDbLine
 10
590.0155474254829
 20
-97.88490133827602
 30
0.0
 11
734.0367254254829
 21
-97.88490133827602
 31
0.0
  0
LINE
  5
403D
330
1E
100
AcDbEntity
  8
躯体
  6
Continuous
 62
     4
100
AcDbLine
 10
733.2082994254832
 20
-99.88490133827603
 30
0.0
 11
588.8608454254832
 21
-99.88490133827603
 31
0.0
  0
LINE
  5
403E
330
1E
100
AcDbEntity
  8
躯体
  6
Continuous
 62
     4
100
AcDbLine
 10
587.7061454254832
 20
-101.884901338276
 30
0.0
 11
732.3798714254832
 21
-101.884901338276
 31
0.0
  0
LINE
  5
403F
330
1E
100
AcDbEntity
  8
笠木
  6
Continuous
 62
     4
100
AcDbLine
 10
762.0539374254832
 20
-79.78506133827599
 30
0.0
 11
584.0514454254832
 21
-70.88813733827604
 31
0.0
  0
LINE
  5
4040
330
1E
100
AcDbEntity
  8
笠木
  6
Continuous
 62
     4
100
AcDbLine
 10
759.2012034254833
 20
-81.64497133827604
 30
0.0
 11
583.1820614254832
 21
-72.84718133827604
 31
0.0
  0
LINE
  5
4041
330
1E
100
AcDbEntity
  8
躯体
  6
Continuous
 62
     4
100
AcDbLine
 10
731.5514454254833
 20
-103.884901338276
 30
0.0
 11
586.5514454254832
 21
-103.884901338276
 31
0.0
  0
LINE
  5
4042
330
1E
100
AcDbEntity
  8
笠木
  6
Continuous
 62
     4
100
AcDbLine
 10
564.0514454254833
 20
-139.3849013382759
 30
0.0
 11
564.0514454254833
 21
-69.88490133827603
 31
0.0
  0
LINE
  5
4043
330
1E
100
AcDbEntity
  8
笠木
  6
Continuous
 62
     4
100
AcDbLine
 10
566.0514454254832
 20
-73.14215133827604
 30
0.0
 11
566.0514454254832
 21
-129.8849013382759
 31
0.0
  0
LINE
  5
4044
330
1E
100
AcDbEntity
  8
受金具
  6
Continuous
 62
     4
100
AcDbLine
 10
575.4188174254831
 20
-95.89460933827604
 30
0.0
 11
568.6572014254831
 21
-129.702687338276
 31
0.0
  0
LINE
  5
4045
330
1E
100
AcDbEntity
  8
躯体
  6
Continuous
 62
     4
100
AcDbLine
 10
581.5514454254833
 20
-108.884901338276
 30
0.0
 11
581.5514454254833
 21
-216.5442993382759
 31
0.0
  0
LINE
  5
4046
330
1E
100
AcDbEntity
  8
受金具
  6
Continuous
 62
     4
100
AcDbLine
 10
572.2563874254832
 20
-93.91780133827605
 30
0.0
 11
566.1514454254833
 21
-124.884901338276
 31
0.0
  0
LINE
  5
4047
330
1E
100
AcDbEntity
  8
笠木
  6
Continuous
 62
     4
100
AcDbLine
 10
564.0514454254833
 20
-139.3849013382759
 30
0.0
 11
564.0514454254833
 21
-69.88490133827603
 31
0.0
  0
LINE
  5
4049
330
1E
100
AcDbEntity
  8
笠木
  6
Continuous
 62
     4
100
AcDbLine
 10
564.0514454254833
 20
-139.3849013382759
 30
0.0
 11
564.0514454254833
 21
-69.88490133827603
 31
0.0
  0
LINE
  5
404A
330
1E
100
AcDbEntity
  8
笠木
  6
Continuous
 62
     4
100
AcDbLine
 10
564.0514454254833
 20
-139.3849013382759
 30
0.0
 11
564.0514454254833
 21
-69.88490133827603
 31
0.0
  0
LINE
  5
404B
330
1E
100
AcDbEntity
  8
笠木
  6
Continuous
 62
     4
100
AcDbLine
 10
564.0514454254833
 20
-139.3849013382759
 30
0.0
 11
564.0514454254833
 21
-69.88490133827603
 31
0.0
  0
LINE
  5
404C
330
1E
100
AcDbEntity
  8
笠木
  6
Continuous
 62
     4
100
AcDbLine
 10
564.0514454254833
 20
-139.3849013382759
 30
0.0
 11
564.0514454254833
 21
-69.88490133827603
 31
0.0
  0
LINE
  5
404D
330
1E
100
AcDbEntity
  8
笠木
  6
Continuous
 62
     4
100
AcDbLine
 10
564.0514454254833
 20
-140.3849013382759
 30
0.0
 11
564.0514454254833
 21
-69.46177333827603
 31
0.0
  0
LINE
  5
404E
330
1E
100
AcDbEntity
  8
笠木
  6
Continuous
 62
     4
100
AcDbLine
 10
562.551445425483
 20
-215.3074013382759
 30
0.0
 11
562.551445425483
 21
-67.80740133827606
 31
0.0
  0
LINE
  5
404F
330
1E
100
AcDbEntity
  8
笠木
  6
Continuous
 62
     4
100
AcDbLine
 10
564.0514454254833
 20
-142.3849013382759
 30
0.0
 11
564.0514454254833
 21
-193.5074013382759
 31
0.0
  0
LINE
  5
4053
330
1E
100
AcDbEntity
  8
笠木
  6
Continuous
 62
     4
100
AcDbLine
 10
564.0514454254833
 20
-195.1074013382759
 30
0.0
 11
564.0514454254833
 21
-214.5074013382759
 31
0.0
  0
LINE
  5
405E
330
1E
100
AcDbEntity
  8
笠木
  6
Continuous
 62
     4
100
AcDbLine
 10
566.5514454254832
 20
-214.807401338276
 30
0.0
 11
564.3514454254832
 21
-214.807401338276
 31
0.0
  0
LINE
  5
405F
330
1E
100
AcDbEntity
  8
笠木
  6
Continuous
 62
     4
100
AcDbLine
 10
563.0514454254832
 20
-215.8074013382759
 30
0.0
 11
566.5514454254832
 21
-215.8074013382759
 31
0.0
  0
ARC
  5
4060
330
1E
100
AcDbEntity
  8
笠木
  6
Continuous
 62
     4
100
AcDbCircle
 10
564.3514454254832
 20
-214.5074013382759
 30
0.0
 40
0.3
100
AcDbArc
 50
180.0
 51
270.0
  0
ARC
  5
4061
330
1E
100
AcDbEntity
  8
笠木
  6
Continuous
 62
     4
100
AcDbCircle
 10
563.0514454254832
 20
-215.3074013382759
 30
0.0
 40
0.5
100
AcDbArc
 50
180.0
 51
270.0
  0
ARC
  5
4062
330
1E
100
AcDbEntity
  8
笠木
  6
Continuous
 62
     4
100
AcDbCircle
 10
563.0514454254832
 20
-215.3074013382759
 30
0.0
 40
0.5
100
AcDbArc
 50
180.0
 51
270.0
  0
ARC
  5
4063
330
1E
100
AcDbEntity
  8
笠木
  6
Continuous
 62
     4
100
AcDbCircle
 10
566.5514454254832
 20
-215.3074013382759
 30
0.0
 40
0.5
100
AcDbArc
 50
270.0
 51
90.0
  0
ARC
  5
4064
330
1E
100
AcDbEntity
  8
笠木
  6
Continuous
 62
     4
100
AcDbCircle
 10
566.5514454254832
 20
-194.3074013382759
 30
0.0
 40
0.5
100
AcDbArc
 50
270.0
 51
90.0
  0
LINE
  5
4065
330
1E
100
AcDbEntity
  8
笠木
  6
Continuous
 62
     4
100
AcDbLine
 10
566.5514454254832
 20
-194.8074013382759
 30
0.0
 11
564.3514454254832
 21
-194.8074013382759
 31
0.0
  0
ARC
  5
4066
330
1E
100
AcDbEntity
  8
笠木
  6
Continuous
 62
     4
100
AcDbCircle
 10
564.3514454254832
 20
-195.1074013382759
 30
0.0
 40
0.3
100
AcDbArc
 50
90.0
 51
180.0
  0
LINE
  5
4067
330
1E
100
AcDbEntity
  8
笠木
  6
Continuous
 62
     4
100
AcDbLine
 10
566.5514454254832
 20
-193.8074013382759
 30
0.0
 11
564.3514454254832
 21
-193.8074013382759
 31
0.0
  0
ARC
  5
4068
330
1E
100
AcDbEntity
  8
笠木
  6
Continuous
 62
     4
100
AcDbCircle
 10
564.3514454254832
 20
-193.5074013382759
 30
0.0
 40
0.3
100
AcDbArc
 50
180.0
 51
270.0
  0
LINE
  5
406A
330
1E
100
AcDbEntity
  8
笠木
  6
Continuous
 62
     4
100
AcDbLine
 10
566.3514434254832
 20
-139.3849013382759
 30
0.0
 11
566.3514434254832
 21
-132.8849013382759
 31
0.0
  0
LINE
  5
406B
330
1E
100
AcDbEntity
  8
笠木
  6
Continuous
 62
     4
100
AcDbLine
 10
565.8514434254832
 20
-139.884901338276
 30
0.0
 11
564.5514454254833
 21
-139.884901338276
 31
0.0
  0
LINE
  5
406C
330
1E
100
AcDbEntity
  8
笠木
  6
Continuous
 62
     4
100
AcDbLine
 10
569.0514454254833
 20
-141.884901338276
 30
0.0
 11
564.5514454254833
 21
-141.884901338276
 31
0.0
  0
LINE
  5
406D
330
1E
100
AcDbEntity
  8
笠木
  6
Continuous
 62
     4
100
AcDbLine
 10
568.0514454254832
 20
-140.3849013382759
 30
0.0
 11
564.0514454254833
 21
-140.3849013382759
 31
0.0
  0
LINE
  5
406E
330
1E
100
AcDbEntity
  8
笠木
  6
Continuous
 62
     4
100
AcDbLine
 10
569.0514454254833
 20
-141.884901338276
 30
0.0
 11
564.5514454254833
 21
-141.884901338276
 31
0.0
  0
LINE
  5
406F
330
1E
100
AcDbEntity
  8
笠木
  6
Continuous
 62
     4
100
AcDbLine
 10
568.0514454254832
 20
-140.3849013382759
 30
0.0
 11
564.0514454254833
 21
-140.3849013382759
 31
0.0
  0
LINE
  5
4070
330
1E
100
AcDbEntity
  8
笠木
  6
Continuous
 62
     4
100
AcDbLine
 10
569.0514454254833
 20
-141.884901338276
 30
0.0
 11
564.5514454254833
 21
-141.884901338276
 31
0.0
  0
LINE
  5
4071
330
1E
100
AcDbEntity
  8
笠木
  6
Continuous
 62
     4
100
AcDbLine
 10
568.0514454254832
 20
-140.3849013382759
 30
0.0
 11
564.0514454254833
 21
-140.3849013382759
 31
0.0
  0
LINE
  5
4072
330
1E
100
AcDbEntity
  8
笠木
  6
Continuous
 62
     4
100
AcDbLine
 10
569.0514454254833
 20
-141.884901338276
 30
0.0
 11
564.5514454254833
 21
-141.884901338276
 31
0.0
  0
LINE
  5
4073
330
1E
100
AcDbEntity
  8
笠木
  6
Continuous
 62
     4
100
AcDbLine
 10
568.0514454254832
 20
-140.3849013382759
 30
0.0
 11
564.0514454254833
 21
-140.3849013382759
 31
0.0
  0
ARC
  5
4074
330
1E
100
AcDbEntity
  8
笠木
  6
Continuous
 62
     4
100
AcDbCircle
 10
564.5514454254833
 20
-142.3849013382759
 30
0.0
 40
0.5
100
AcDbArc
 50
90.0
 51
180.0
  0
ARC
  5
4075
330
1E
100
AcDbEntity
  8
笠木
  6
Continuous
 62
     4
100
AcDbCircle
 10
564.5514454254833
 20
-142.3849013382759
 30
0.0
 40
0.5
100
AcDbArc
 50
90.0
 51
180.0
  0
ARC
  5
4076
330
1E
100
AcDbEntity
  8
笠木
  6
Continuous
 62
     4
100
AcDbCircle
 10
564.5514454254833
 20
-142.3849013382759
 30
0.0
 40
0.5
100
AcDbArc
 50
90.0
 51
180.0
  0
ARC
  5
4077
330
1E
100
AcDbEntity
  8
笠木
  6
Continuous
 62
     4
100
AcDbCircle
 10
564.5514454254833
 20
-142.3849013382759
 30
0.0
 40
0.5
100
AcDbArc
 50
90.0
 51
180.0
  0
ARC
  5
4078
330
1E
100
AcDbEntity
  8
笠木
  6
Continuous
 62
     4
100
AcDbCircle
 10
564.5514454254833
 20
-139.3849013382759
 30
0.0
 40
0.5
100
AcDbArc
 50
180.0
 51
270.0
  0
LINE
  5
4079
330
1E
100
AcDbEntity
  8
笠木
  6
Continuous
 62
     4
100
AcDbLine
 10
568.0514454254832
 20
-140.3849013382759
 30
0.0
 11
568.0514454254832
 21
-136.8849013382759
 31
0.0
  0
LINE
  5
407A
330
1E
100
AcDbEntity
  8
笠木
  6
Continuous
 62
     4
100
AcDbLine
 10
569.5514454254833
 20
-136.8849013382759
 30
0.0
 11
569.5514454254833
 21
-141.3849013382759
 31
0.0
  0
LINE
  5
407B
330
1E
100
AcDbEntity
  8
笠木
  6
Continuous
 62
     4
100
AcDbLine
 10
568.0514454254832
 20
-140.3849013382759
 30
0.0
 11
568.0514454254832
 21
-136.8849013382759
 31
0.0
  0
LINE
  5
407C
330
1E
100
AcDbEntity
  8
笠木
  6
Continuous
 62
     4
100
AcDbLine
 10
569.5514454254833
 20
-136.8849013382759
 30
0.0
 11
569.5514454254833
 21
-141.3849013382759
 31
0.0
  0
LINE
  5
407D
330
1E
100
AcDbEntity
  8
笠木
  6
Continuous
 62
     4
100
AcDbLine
 10
568.0514454254832
 20
-140.3849013382759
 30
0.0
 11
568.0514454254832
 21
-136.8849013382759
 31
0.0
  0
LINE
  5
407E
330
1E
100
AcDbEntity
  8
笠木
  6
Continuous
 62
     4
100
AcDbLine
 10
569.5514454254833
 20
-136.8849013382759
 30
0.0
 11
569.5514454254833
 21
-141.3849013382759
 31
0.0
  0
LINE
  5
407F
330
1E
100
AcDbEntity
  8
笠木
  6
Continuous
 62
     4
100
AcDbLine
 10
568.0514454254832
 20
-140.3849013382759
 30
0.0
 11
568.0514454254832
 21
-136.8849013382759
 31
0.0
  0
LINE
  5
4080
330
1E
100
AcDbEntity
  8
笠木
  6
Continuous
 62
     4
100
AcDbLine
 10
569.5514454254833
 20
-136.8849013382759
 30
0.0
 11
569.5514454254833
 21
-141.3849013382759
 31
0.0
  0
ARC
  5
4081
330
1E
100
AcDbEntity
  8
笠木
  6
Continuous
 62
     4
100
AcDbCircle
 10
569.0514454254833
 20
-141.3849013382759
 30
0.0
 40
0.5
100
AcDbArc
 50
270.0
 51
0.0
  0
ARC
  5
4082
330
1E
100
AcDbEntity
  8
笠木
  6
Continuous
 62
     4
100
AcDbCircle
 10
569.0514454254833
 20
-141.3849013382759
 30
0.0
 40
0.5
100
AcDbArc
 50
270.0
 51
0.0
  0
ARC
  5
4083
330
1E
100
AcDbEntity
  8
笠木
  6
Continuous
 62
     4
100
AcDbCircle
 10
569.0514454254833
 20
-141.3849013382759
 30
0.0
 40
0.5
100
AcDbArc
 50
270.0
 51
0.0
  0
ARC
  5
4084
330
1E
100
AcDbEntity
  8
笠木
  6
Continuous
 62
     4
100
AcDbCircle
 10
569.0514454254833
 20
-141.3849013382759
 30
0.0
 40
0.5
100
AcDbArc
 50
270.0
 51
0.0
  0
ARC
  5
4085
330
1E
100
AcDbEntity
  8
笠木
  6
Continuous
 62
     4
100
AcDbCircle
 10
565.8514434254832
 20
-139.3849013382759
 30
0.0
 40
0.5
100
AcDbArc
 50
270.0
 51
0.0
  0
LINE
  5
4086
330
1E
100
AcDbEntity
  8
笠木
  6
Continuous
 62
     4
100
AcDbLine
 10
568.0514454254832
 20
-136.8849013382759
 30
0.0
 11
569.5514454254833
 21
-136.8849013382759
 31
0.0
  0
LINE
  5
4087
330
1E
100
AcDbEntity
  8
笠木
  6
Continuous
 62
     4
100
AcDbLine
 10
568.0514454254832
 20
-136.8849013382759
 30
0.0
 11
569.5514454254833
 21
-136.8849013382759
 31
0.0
  0
LINE
  5
4088
330
1E
100
AcDbEntity
  8
笠木
  6
Continuous
 62
     4
100
AcDbLine
 10
568.0514454254832
 20
-136.8849013382759
 30
0.0
 11
569.5514454254833
 21
-136.8849013382759
 31
0.0
  0
LINE
  5
4089
330
1E
100
AcDbEntity
  8
笠木
  6
Continuous
 62
     4
100
AcDbLine
 10
568.0514454254832
 20
-136.8849013382759
 30
0.0
 11
569.5514454254833
 21
-136.8849013382759
 31
0.0
  0
LINE
  5
408A
330
1E
100
AcDbEntity
  8
笠木
  6
Continuous
 62
     4
100
AcDbLine
 10
566.0514454254832
 20
-124.884901338276
 30
0.0
 11
566.0514454254832
 21
-129.8849013382759
 31
0.0
  0
LINE
  5
408B
330
1E
100
AcDbEntity
  8
受金具
  6
Continuous
 62
     4
100
AcDbLine
 10
566.1514454254833
 20
-124.884901338276
 30
0.0
 11
566.1514454254833
 21
-129.8779073382759
 31
0.0
  0
LINE
  5
408C
330
1E
100
AcDbEntity
  8
笠木
  6
Continuous
 62
     4
100
AcDbLine
 10
569.0417474254831
 20
-131.9544133382759
 30
0.0
 11
566.3514434254832
 21
-132.8849013382759
 31
0.0
  0
LINE
  5
408D
330
1E
100
AcDbEntity
  8
笠木
  6
Continuous
 62
     4
100
AcDbLine
 10
566.1514454254833
 20
-129.8779073382759
 30
0.0
 11
569.5165674254832
 21
-129.642595338276
 31
0.0
  0
LINE
  5
408E
330
1E
100
AcDbEntity
  8
笠木
  6
Continuous
 62
     4
100
AcDbLine
 10
568.6572014254831
 20
-129.702687338276
 30
0.0
 11
566.0514454254832
 21
-129.8849013382759
 31
0.0
  0
ARC
  5
408F
330
1E
100
AcDbEntity
  8
笠木
  6
Continuous
 62
     4
100
AcDbCircle
 10
568.5514454254833
 20
-130.536809338276
 30
0.0
 40
1.5
100
AcDbArc
 50
289.0788000000008
 51
0.0
  0
LINE
  5
4090
330
1E
100
AcDbEntity
  8
笠木
  6
Continuous
 62
     4
100
AcDbLine
 10
570.0514454254832
 20
-130.141377338276
 30
0.0
 11
570.0514454254832
 21
-130.536809338276
 31
0.0
  0
ARC
  5
4091
330
1E
100
AcDbEntity
  8
笠木
  6
Continuous
 62
     4
100
AcDbCircle
 10
569.5514454254833
 20
-130.141377338276
 30
0.0
 40
0.5
100
AcDbArc
 50
0.0
 51
93.99999999999977
  0
ARC
  5
4092
330
1E
100
AcDbEntity
  8
受金具
  6
Continuous
 62
     3
100
AcDbCircle
 10
573.6792934254832
 20
-75.68621133827601
 30
0.0
 40
11.31124999999999
100
AcDbArc
 50
63.4357410000008
 51
111.9830390000007
  0
LINE
  5
4093
330
1E
100
AcDbEntity
  8
寸法
  6
Continuous
 62
     3
100
AcDbLine
 10
584.0514454254832
 20
-51.95917924375862
 30
0.0
 11
584.0514454254832
 21
-29.74539733827605
 31
0.0
  0
ARC
  5
4098
330
1E
100
AcDbEntity
  8
受金具
  6
Continuous
 62
     4
100
AcDbCircle
 10
577.1619674254832
 20
-94.88490133827601
 30
0.0
 40
5.0
100
AcDbArc
 50
90.0
 51
168.8475599999995
  0
ARC
  5
4099
330
1E
100
AcDbEntity
  8
受金具
  6
Continuous
 62
     4
100
AcDbCircle
 10
577.8702694254832
 20
-96.38490133827602
 30
0.0
 40
2.5
100
AcDbArc
 50
90.0
 51
168.6900680000003
  0
LINE
  5
409A
330
1E
100
AcDbEntity
  8
躯体
  6
Continuous
 62
     4
100
AcDbLine
 10
586.5514454254832
 20
-103.884901338276
 30
0.0
 11
581.5514454254833
 21
-108.884901338276
 31
0.0
  0
LINE
  5
409B
330
1E
100
AcDbEntity
  8
躯体
  6
Continuous
 62
     4
100
AcDbLine
 10
592.3249474254832
 20
-93.88490133827602
 30
0.0
 11
586.5514454254832
 21
-103.884901338276
 31
0.0
  0
LINE
  5
409C
330
1E
100
AcDbEntity
  8
受金具
  6
Continuous
 62
     3
100
AcDbLine
 10
575.9139554254832
 20
-69.85962133827603
 30
0.0
 11
575.3940554254832
 21
-70.34713133827603
 31
0.0
  0
LINE
  5
409D
330
1E
100
AcDbEntity
  8
受金具
  6
Continuous
 62
     3
100
AcDbLine
 10
575.4196674254832
 20
-69.70684333827603
 30
0.0
 11
575.9139554254832
 21
-69.85962133827603
 31
0.0
  0
LINE
  5
409E
330
1E
100
AcDbEntity
  8
受金具
  6
Continuous
 62
     3
100
AcDbLine
 10
576.0338594254831
 20
-66.862019338276
 30
0.0
 11
575.5139594254832
 21
-67.34952933827603
 31
0.0
  0
LINE
  5
409F
330
1E
100
AcDbEntity
  8
受金具
  6
Continuous
 62
     3
100
AcDbLine
 10
575.9739074254833
 20
-68.36081933827603
 30
0.0
 11
575.4540074254832
 21
-68.84832933827604
 31
0.0
  0
LINE
  5
40A0
330
1E
100
AcDbEntity
  8
受金具
  6
Continuous
 62
     3
100
AcDbLine
 10
575.479619425483
 20
-68.20804133827604
 30
0.0
 11
575.9739074254833
 21
-68.36081933827603
 31
0.0
  0
LINE
  5
40A1
330
1E
100
AcDbEntity
  8
受金具
  6
Continuous
 62
     3
100
AcDbLine
 10
575.9739074254833
 20
-68.36081933827603
 30
0.0
 11
571.917151425483
 21
-69.69974933827606
 31
0.0
  0
LINE
  5
40A2
330
1E
100
AcDbEntity
  8
受金具
  6
Continuous
 62
     3
100
AcDbLine
 10
576.0338594254831
 20
-66.862019338276
 30
0.0
 11
571.977103425483
 21
-68.20094733827604
 31
0.0
  0
LINE
  5
40A3
330
1E
100
AcDbEntity
  8
受金具
  6
Continuous
 62
     3
100
AcDbLine
 10
576.0338594254831
 20
-66.862019338276
 30
0.0
 11
575.5139594254832
 21
-67.34952933827603
 31
0.0
  0
LINE
  5
40A4
330
1E
100
AcDbEntity
  8
受金具
  6
Continuous
 62
     3
100
AcDbLine
 10
575.5395714254832
 20
-66.70924133827603
 30
0.0
 11
576.0338594254831
 21
-66.862019338276
 31
0.0
  0
LINE
  5
40A5
330
1E
100
AcDbEntity
  8
笠木
  6
Continuous
 62
     4
100
AcDbLine
 10
571.4796574254831
 20
-67.75568733827603
 30
0.0
 11
576.4734194254831
 21
-68.00537533827602
 31
0.0
  0
LINE
  5
40A6
330
1E
100
AcDbEntity
  8
受金具
  6
Continuous
 62
     3
100
AcDbLine
 10
569.4451294254831
 20
-65.19734933827604
 30
0.0
 11
578.7376974254832
 21
-65.56905333827606
 31
0.0
  0
LINE
  5
40A7
330
1E
100
AcDbEntity
  8
受金具
  6
Continuous
 62
     3
100
AcDbLine
 10
575.8540034254832
 20
-71.35842333827604
 30
0.0
 11
571.7972474254832
 21
-72.69735133827606
 31
0.0
  0
LINE
  5
40A8
330
1E
100
AcDbEntity
  8
受金具
  6
Continuous
 62
     3
100
AcDbLine
 10
575.3597154254832
 20
-71.20564533827604
 30
0.0
 11
575.8540034254832
 21
-71.35842333827604
 31
0.0
  0
LINE
  5
40A9
330
1E
100
AcDbEntity
  8
受金具
  6
Continuous
 62
     3
100
AcDbLine
 10
575.8540034254832
 20
-71.35842333827604
 30
0.0
 11
575.3341034254832
 21
-71.84593333827604
 31
0.0
  0
LINE
  5
40AA
330
1E
100
AcDbEntity
  8
受金具
  6
Continuous
 62
     3
100
AcDbLine
 10
575.2891394254832
 20
-72.97003333827603
 30
0.0
 11
575.7940514254832
 21
-72.85722333827601
 31
0.0
  0
LINE
  5
40AB
330
1E
100
AcDbEntity
  8
受金具
  6
Continuous
 62
     3
100
AcDbLine
 10
575.7940514254832
 20
-72.85722333827601
 30
0.0
 11
575.3147514254832
 21
-72.32974533827604
 31
0.0
  0
LINE
  5
40AC
330
1E
100
AcDbEntity
  8
笠木
  6
Continuous
 62
     4
100
AcDbLine
 10
569.2012034254831
 20
-70.14589333827604
 30
0.0
 11
581.0742094254832
 21
-70.73932933827603
 31
0.0
  0
LINE
  5
40AD
330
1E
100
AcDbEntity
  8
受金具
  6
Continuous
 62
     3
100
AcDbLine
 10
575.9139554254832
 20
-69.85962133827603
 30
0.0
 11
571.8571994254832
 21
-71.19855133827605
 31
0.0
  0
LINE
  5
40AE
330
1E
100
AcDbEntity
  8
笠木
  6
Continuous
 62
     4
100
AcDbLine
 10
565.9562394254832
 20
-67.98010533827604
 30
0.0
 11
581.942435425483
 21
-68.77912733827603
 31
0.0
  0
LINE
  5
40AF
330
1E
100
AcDbEntity
  8
笠木
  6
Continuous
 62
     4
100
AcDbLine
 10
582.1513194254833
 20
-66.78739533827604
 30
0.0
 11
574.351071425483
 21
-66.39738333827603
 31
0.0
  0
LINE
  5
40B0
330
1E
100
AcDbEntity
  8
笠木
  6
Continuous
 62
     4
100
AcDbLine
 10
564.0514454254833
 20
-69.88490133827603
 30
0.0
 11
565.9562394254832
 21
-67.98010533827604
 31
0.0
  0
ARC
  5
40B1
330
1E
100
AcDbEntity
  8
笠木
  6
Continuous
 62
     4
100
AcDbCircle
 10
565.5514454254833
 20
-69.46177333827603
 30
0.0
 40
1.5
100
AcDbArc
 50
87.13759499999884
 51
180.0
  0
LINE
  5
40B2
330
1E
100
AcDbEntity
  8
笠木
  6
Continuous
 62
     4
100
AcDbLine
 10
564.4562074254833
 20
-65.90263933827603
 30
0.0
 11
573.751819425483
 21
-66.36742133827602
 31
0.0
  0
LINE
  5
40B3
330
1E
100
AcDbEntity
  8
笠木
  6
Continuous
 62
     4
100
AcDbLine
 10
564.4562074254833
 20
-65.90263933827603
 30
0.0
 11
562.551445425483
 21
-67.80740133827606
 31
0.0
  0
LINE
  5
40B4
330
1E
100
AcDbEntity
  8
受金具
  6
Continuous
 62
     3
100
AcDbLine
 10
572.3171474254832
 20
-72.20984133827605
 30
0.0
 11
575.3597154254832
 21
-71.20564533827604
 31
0.0
  0
LINE
  5
40B5
330
1E
100
AcDbEntity
  8
受金具
  6
Continuous
 62
     3
100
AcDbLine
 10
572.3493054254833
 20
-71.40588533827603
 30
0.0
 11
572.3171474254832
 21
-72.20984133827605
 31
0.0
  0
ARC
  5
40B6
330
1E
100
AcDbEntity
  8
笠木
  6
Continuous
 62
     4
100
AcDbCircle
 10
569.0514454254833
 20
-73.14215133827604
 30
0.0
 40
3.0
100
AcDbArc
 50
87.13862300000114
 51
180.0
  0
LINE
  5
40B7
330
1E
100
AcDbEntity
  8
受金具
  6
PLINE15
 62
     3
100
AcDbLine
 10
573.7903814254832
 20
-72.909011338276
 30
0.0
 11
574.1132294254832
 21
-64.83777733827603
 31
0.0
  0
LINE
  5
40B8
330
1E
100
AcDbEntity
  8
受金具
  6
Continuous
 62
     3
100
AcDbLine
 10
572.2915354254832
 20
-72.85012933827601
 30
0.0
 11
572.1169914254832
 21
-77.21374133827604
 31
0.0
  0
LINE
  5
40B9
330
1E
100
AcDbEntity
  8
受金具
  6
Continuous
 62
     3
100
AcDbLine
 10
575.1145954254832
 20
-77.33364533827606
 30
0.0
 11
575.294451425483
 21
-72.83723933827605
 31
0.0
  0
LINE
  5
40BA
330
1E
100
AcDbEntity
  8
受金具
  6
Continuous
 62
     3
100
AcDbLine
 10
575.294451425483
 20
-72.83723933827605
 30
0.0
 11
573.5558414254832
 21
-78.77249333827603
 31
0.0
  0
LINE
  5
40BB
330
1E
100
AcDbEntity
  8
受金具
  6
Continuous
 62
     3
100
AcDbLine
 10
572.1169914254832
 20
-77.21374133827604
 30
0.0
 11
573.9904934254832
 21
-77.28868133827603
 31
0.0
  0
LINE
  5
40BC
330
1E
100
AcDbEntity
  8
受金具
  6
Continuous
 62
     3
100
AcDbLine
 10
572.1169914254832
 20
-77.21374133827604
 30
0.0
 11
573.5558414254832
 21
-78.77249333827603
 31
0.0
  0
LINE
  5
40BD
330
1E
100
AcDbEntity
  8
受金具
  6
Continuous
 62
     3
100
AcDbLine
 10
573.5558414254832
 20
-78.77249333827603
 30
0.0
 11
575.1145954254832
 21
-77.33364533827606
 31
0.0
  0
LINE
  5
40BE
330
1E
100
AcDbEntity
  8
受金具
  6
Continuous
 62
     3
100
AcDbLine
 10
575.3341034254832
 20
-71.84593333827604
 30
0.0
 11
572.2915354254832
 21
-72.85012933827601
 31
0.0
  0
LINE
  5
40BF
330
1E
100
AcDbEntity
  8
受金具
  6
Continuous
 62
     3
100
AcDbLine
 10
575.294451425483
 20
-72.83723933827605
 30
0.0
 11
572.650965425483
 21
-72.73150133827605
 31
0.0
  0
LINE
  5
40C0
330
1E
100
AcDbEntity
  8
受金具
  6
Continuous
 62
     3
100
AcDbLine
 10
572.2915354254832
 20
-72.85012933827601
 30
0.0
 11
571.7972474254832
 21
-72.69735133827606
 31
0.0
  0
LINE
  5
40C1
330
1E
100
AcDbEntity
  8
受金具
  6
Continuous
 62
     3
100
AcDbLine
 10
571.7972474254832
 20
-72.69735133827606
 30
0.0
 11
572.3171474254832
 21
-72.20984133827605
 31
0.0
  0
LINE
  5
40C2
330
1E
100
AcDbEntity
  8
受金具
  6
Continuous
 62
     3
100
AcDbLine
 10
575.3341034254832
 20
-71.84593333827604
 30
0.0
 11
575.294451425483
 21
-72.83723933827605
 31
0.0
  0
LINE
  5
40C3
330
1E
100
AcDbEntity
  8
笠木
  6
Continuous
 62
     4
100
AcDbLine
 10
570.955313425483
 20
-68.23009333827605
 30
0.0
 11
565.6263514254832
 21
-67.96364533827603
 31
0.0
  0
ARC
  5
40C4
330
1E
100
AcDbEntity
  8
受金具
  6
Continuous
 62
     3
100
AcDbCircle
 10
569.425145425483
 20
-65.69694933827604
 30
0.0
 40
0.5
100
AcDbArc
 50
87.70939000000121
 51
267.7093900000012
  0
LINE
  5
40C5
330
1E
100
AcDbEntity
  8
受金具
  6
Continuous
 62
     3
100
AcDbLine
 10
575.5139594254832
 20
-67.34952933827603
 30
0.0
 11
572.4713934254832
 21
-68.35372533827603
 31
0.0
  0
LINE
  5
40C6
330
1E
100
AcDbEntity
  8
受金具
  6
Continuous
 62
     3
100
AcDbLine
 10
571.977103425483
 20
-68.20094733827604
 30
0.0
 11
572.497003425483
 21
-67.71343733827603
 31
0.0
  0
LINE
  5
40C7
330
1E
100
AcDbEntity
  8
受金具
  6
Continuous
 62
     3
100
AcDbLine
 10
575.5139594254832
 20
-67.34952933827603
 30
0.0
 11
575.479619425483
 21
-68.20804133827604
 31
0.0
  0
ARC
  5
40C8
330
1E
100
AcDbEntity
  8
笠木
  6
Continuous
 62
     4
100
AcDbCircle
 10
571.4546894254832
 20
-68.25506333827599
 30
0.0
 40
0.5
100
AcDbArc
 50
87.13759499999884
 51
177.1375950000004
  0
LINE
  5
40C9
330
1E
100
AcDbEntity
  8
受金具
  6
Continuous
 62
     3
100
AcDbLine
 10
575.4540074254832
 20
-68.84832933827604
 30
0.0
 11
572.4114414254832
 21
-69.85252733827602
 31
0.0
  0
LINE
  5
40CA
330
1E
100
AcDbEntity
  8
受金具
  6
Continuous
 62
     3
100
AcDbLine
 10
572.4370514254832
 20
-69.21223933827604
 30
0.0
 11
575.479619425483
 21
-68.20804133827604
 31
0.0
  0
LINE
  5
40CB
330
1E
100
AcDbEntity
  8
受金具
  6
Continuous
 62
     3
100
AcDbLine
 10
575.3940554254832
 20
-70.34713133827603
 30
0.0
 11
572.3514894254832
 21
-71.35132933827603
 31
0.0
  0
LINE
  5
40CC
330
1E
100
AcDbEntity
  8
受金具
  6
Continuous
 62
     3
100
AcDbLine
 10
572.3770994254833
 20
-70.71104133827603
 30
0.0
 11
575.4196674254832
 21
-69.70684333827603
 31
0.0
  0
LINE
  5
40CD
330
1E
100
AcDbEntity
  8
受金具
  6
Continuous
 62
     3
100
AcDbLine
 10
571.917151425483
 20
-69.69974933827606
 30
0.0
 11
572.4370514254832
 21
-69.21223933827604
 31
0.0
  0
LINE
  5
40CE
330
1E
100
AcDbEntity
  8
受金具
  6
Continuous
 62
     3
100
AcDbLine
 10
572.4114414254832
 20
-69.85252733827602
 30
0.0
 11
571.917151425483
 21
-69.69974933827606
 31
0.0
  0
LINE
  5
40CF
330
1E
100
AcDbEntity
  8
受金具
  6
Continuous
 62
     3
100
AcDbLine
 10
572.4713934254832
 20
-68.35372533827603
 30
0.0
 11
571.977103425483
 21
-68.20094733827604
 31
0.0
  0
LINE
  5
40D0
330
1E
100
AcDbEntity
  8
受金具
  6
Continuous
 62
     3
100
AcDbLine
 10
572.4713934254832
 20
-68.35372533827603
 30
0.0
 11
572.4370514254832
 21
-69.21223933827604
 31
0.0
  0
LINE
  5
40D1
330
1E
100
AcDbEntity
  8
受金具
  6
Continuous
 62
     3
100
AcDbLine
 10
571.8571994254832
 20
-71.19855133827605
 30
0.0
 11
572.3770994254833
 21
-70.71104133827603
 31
0.0
  0
LINE
  5
40D2
330
1E
100
AcDbEntity
  8
受金具
  6
Continuous
 62
     3
100
AcDbLine
 10
572.3514894254832
 20
-71.35132933827603
 30
0.0
 11
571.8571994254832
 21
-71.19855133827605
 31
0.0
  0
LINE
  5
40D3
330
1E
100
AcDbEntity
  8
受金具
  6
Continuous
 62
     3
100
AcDbLine
 10
572.4114414254832
 20
-69.85252733827602
 30
0.0
 11
572.3770994254833
 21
-70.71104133827603
 31
0.0
  0
LINE
  5
40D4
330
1E
100
AcDbEntity
  8
受金具
  6
Continuous
 62
     3
100
AcDbLine
 10
575.4540074254832
 20
-68.84832933827604
 30
0.0
 11
575.4196674254832
 21
-69.70684333827603
 31
0.0
  0
LINE
  5
40D5
330
1E
100
AcDbEntity
  8
受金具
  6
Continuous
 62
     3
100
AcDbLine
 10
575.3940554254832
 20
-70.34713133827603
 30
0.0
 11
575.3597154254832
 21
-71.20564533827604
 31
0.0
  0
LINE
  5
40D6
330
1E
100
AcDbEntity
  8
受金具
  6
Continuous
 62
     3
100
AcDbLine
 10
572.497003425483
 20
-67.71343733827603
 30
0.0
 11
575.5395714254832
 21
-66.70924133827603
 31
0.0
  0
LINE
  5
40D7
330
1E
100
AcDbEntity
  8
受金具
  6
Continuous
 62
     3
100
AcDbLine
 10
572.5526434254832
 20
-66.32244933827604
 30
0.0
 11
572.497003425483
 21
-67.71343733827603
 31
0.0
  0
LINE
  5
40D8
330
1E
100
AcDbEntity
  8
受金具
  6
Continuous
 62
     3
100
AcDbLine
 10
575.5502474254832
 20
-66.44235333827606
 30
0.0
 11
575.5395714254832
 21
-66.70924133827603
 31
0.0
  0
LINE
  5
40D9
330
1E
100
AcDbEntity
  8
笠木
  6
Continuous
 62
     4
100
AcDbLine
 10
573.751819425483
 20
-66.36742133827602
 30
0.0
 11
574.0364634254831
 21
-66.68202733827604
 31
0.0
  0
LINE
  5
40DA
330
1E
100
AcDbEntity
  8
笠木
  6
Continuous
 62
     4
100
AcDbLine
 10
574.0364634254831
 20
-66.68202733827604
 30
0.0
 11
574.351071425483
 21
-66.39738333827603
 31
0.0
  0
LINE
  5
40DB
330
1E
100
AcDbEntity
  8
受金具
  6
Continuous
 62
     4
100
AcDbLine
 10
594.5514454254833
 20
-78.48490133827604
 30
0.0
 11
594.5514454254833
 21
-88.88490133827604
 31
0.0
  0
LINE
  5
40DC
330
1E
100
AcDbEntity
  8
受金具
  6
Continuous
 62
     4
100
AcDbLine
 10
593.5514454254833
 20
-89.88490133827601
 30
0.0
 11
577.1619674254832
 21
-89.88490133827601
 31
0.0
  0
ARC
  5
40DD
330
1E
100
AcDbEntity
  8
受金具
  6
Continuous
 62
     4
100
AcDbCircle
 10
593.5514454254833
 20
-88.88490133827604
 30
0.0
 40
1.0
100
AcDbArc
 50
270.0
 51
0.0
  0
LINE
  5
40DE
330
1E
100
AcDbEntity
  8
笠木
  6
Continuous
 62
     4
100
AcDbLine
 10
581.0742094254832
 20
-70.73932933827603
 30
0.0
 11
583.1820614254832
 21
-72.84718133827604
 31
0.0
  0
LINE
  5
40DF
330
1E
100
AcDbEntity
  8
笠木
  6
Continuous
 62
     4
100
AcDbLine
 10
582.4514454254832
 20
-68.80490133827604
 30
0.0
 11
576.947827425483
 21
-68.52971933827601
 31
0.0
  0
ARC
  5
40E0
330
1E
100
AcDbEntity
  8
笠木
  6
Continuous
 62
     4
100
AcDbCircle
 10
576.4484514254831
 20
-68.50475133827607
 30
0.0
 40
0.5
100
AcDbArc
 50
357.1375950000005
 51
87.13759499999884
  0
ARC
  5
40E1
330
1E
100
AcDbEntity
  8
受金具
  6
Continuous
 62
     3
100
AcDbCircle
 10
578.7177134254831
 20
-66.06865333827603
 30
0.0
 40
0.5
100
AcDbArc
 50
267.7093900000012
 51
87.70939000000121
  0
ARC
  5
40E2
330
1E
100
AcDbEntity
  8
笠木
  6
Continuous
 62
     4
100
AcDbCircle
 10
582.0514454254833
 20
-68.78490133827606
 30
0.0
 40
2.0
100
AcDbArc
 50
334.5439449999993
 51
87.13759499999884
  0
ARC
  5
40E3
330
1E
100
AcDbEntity
  8
笠木
  6
Continuous
 62
     4
100
AcDbCircle
 10
583.5864014254832
 20
-69.51559133827604
 30
0.0
 40
0.3
100
AcDbArc
 50
225.0
 51
334.5439449999993
  0
LINE
  5
40E4
330
1E
100
AcDbEntity
  8
笠木
  6
Continuous
 62
     4
100
AcDbLine
 10
584.0514454254832
 20
-70.88813733827604
 30
0.0
 11
581.942435425483
 21
-68.77912733827603
 31
0.0
  0
LINE
  5
40E5
330
1E
100
AcDbEntity
  8
笠木
  6
Continuous
 62
     4
100
AcDbLine
 10
582.4514454254832
 20
-68.80490133827604
 30
0.0
 11
583.3742694254831
 21
-69.72772333827603
 31
0.0
  0
LINE
  5
40E6
330
1E
100
AcDbEntity
  8
受金具
  6
Continuous
 62
     4
100
AcDbLine
 10
593.5514454254833
 20
-77.48490133827605
 30
0.0
 11
590.0514454254833
 21
-77.48490133827605
 31
0.0
  0
LINE
  5
40E7
330
1E
100
AcDbEntity
  8
受金具
  6
Continuous
 62
     4
100
AcDbLine
 10
591.0514454254832
 20
-75.49000333827604
 30
0.0
 11
591.0514454254832
 21
-73.24050733827604
 31
0.0
  0
LINE
  5
40E8
330
1E
100
AcDbEntity
  8
受金具
  6
Continuous
 62
     4
100
AcDbLine
 10
590.0514454254833
 20
-75.71557733827603
 30
0.0
 11
590.0514454254833
 21
-77.48490133827605
 31
0.0
  0
ARC
  5
40E9
330
1E
100
AcDbEntity
  8
受金具
  6
Continuous
 62
     4
100
AcDbCircle
 10
593.5514454254833
 20
-78.48490133827604
 30
0.0
 40
1.0
100
AcDbArc
 50
0.0
 51
90.0
  0
LINE
  5
40EE
330
1E
100
AcDbEntity
  8
寸法
  6
Continuous
 62
     3
100
AcDbLine
 10
593.9946114254833
 20
-57.83547933827603
 30
0.0
 11
573.9946114254832
 21
-56.83547933827603
 31
0.0
  0
LINE
  5
40EF
330
1E
100
AcDbEntity
  8
寸法
  6
Continuous
 62
     3
100
AcDbLine
 10
573.9946114254832
 20
-56.83547933827603
 30
0.0
 11
593.9946114254833
 21
-56.83547933827603
 31
0.0
  0
TEXT
  5
40F8
330
1E
100
AcDbEntity
  8
寸法
  6
Continuous
 62
     3
100
AcDbText
 10
584.5918594254832
 20
-54.553765338276
 30
0.0
 40
6.0
  1
２０
 41
0.73811
100
AcDbText
  0
LINE
  5
40F9
330
1E
100
AcDbEntity
  8
寸法
  6
Continuous
 62
     3
100
AcDbLine
 10
593.9946114254833
 20
-56.83547933827603
 30
0.0
 11
593.9946114254833
 21
-57.83547933827603
 31
0.0
  0
LINE
  5
40FC
330
1E
100
AcDbEntity
  8
受金具
  6
PLINE2
 62
     3
100
AcDbLine
 10
700.1652394254829
 20
-114.675199338276
 30
0.0
 11
698.4805534254832
 21
-123.739515338276
 31
0.0
  0
LINE
  5
40FD
330
1E
100
AcDbEntity
  8
受金具
  6
PLINE2
 62
     3
100
AcDbLine
 10
696.4817714254832
 20
-123.809313338276
 30
0.0
 11
696.4119734254832
 21
-121.810533338276
 31
0.0
  0
LINE
  5
40FE
330
1E
100
AcDbEntity
  8
受金具
  6
PLINE2
 62
     3
100
AcDbLine
 10
691.8909174254832
 20
-121.810533338276
 30
0.0
 11
691.8211174254833
 21
-123.809313338276
 31
0.0
  0
LINE
  5
40FF
330
1E
100
AcDbEntity
  8
受金具
  6
PLINE2
 62
     3
100
AcDbLine
 10
688.6292314254832
 20
-114.583833338276
 30
0.0
 11
690.3342214254831
 21
-123.757391338276
 31
0.0
  0
LINE
  5
4100
330
1E
100
AcDbEntity
  8
受金具
  6
PLINE2
 62
     3
100
AcDbLine
 10
689.8223374254833
 20
-123.739515338276
 30
0.0
 11
688.1376494254832
 21
-114.675199338276
 31
0.0
  0
LINE
  5
4101
330
1E
100
AcDbEntity
  8
受金具
  6
PLINE2
 62
     3
100
AcDbLine
 10
697.9686694254832
 20
-123.757391338276
 30
0.0
 11
699.6736574254832
 21
-114.583833338276
 31
0.0
  0
LINE
  5
4102
330
1E
100
AcDbEntity
  8
受金具
  6
PLINE2
 62
     3
100
AcDbLine
 10
693.6517494254831
 20
-114.3674513382759
 30
0.0
 11
692.7269134254832
 21
-140.8513073382759
 31
0.0
  0
LINE
  5
4103
330
1E
100
AcDbEntity
  8
受金具
  6
PLINE2
 62
     3
100
AcDbLine
 10
695.5759774254833
 20
-140.8513073382759
 30
0.0
 11
694.6511414254833
 21
-114.3674513382759
 31
0.0
  0
LINE
  5
4104
330
1E
100
AcDbEntity
  8
受金具
  6
PLINE2
 62
     3
100
AcDbLine
 10
636.4119734254832
 20
-121.810533338276
 30
0.0
 11
636.4817714254832
 21
-123.809313338276
 31
0.0
  0
LINE
  5
4105
330
1E
100
AcDbEntity
  8
受金具
  6
PLINE2
 62
     3
100
AcDbLine
 10
639.6736574254832
 20
-114.583833338276
 30
0.0
 11
637.968669425483
 21
-123.757391338276
 31
0.0
  0
LINE
  5
4106
330
1E
100
AcDbEntity
  8
受金具
  6
PLINE2
 62
     3
100
AcDbLine
 10
638.4805534254832
 20
-123.739515338276
 30
0.0
 11
640.165239425483
 21
-114.675199338276
 31
0.0
  0
LINE
  5
4107
330
1E
100
AcDbEntity
  8
受金具
  6
PLINE2
 62
     3
100
AcDbLine
 10
631.821117425483
 20
-123.809313338276
 30
0.0
 11
631.890917425483
 21
-121.810533338276
 31
0.0
  0
LINE
  5
4108
330
1E
100
AcDbEntity
  8
受金具
  6
PLINE2
 62
     3
100
AcDbLine
 10
630.3342214254833
 20
-123.757391338276
 30
0.0
 11
628.6292314254832
 21
-114.583833338276
 31
0.0
  0
LINE
  5
4109
330
1E
100
AcDbEntity
  8
受金具
  6
PLINE2
 62
     3
100
AcDbLine
 10
628.1376494254832
 20
-114.675199338276
 30
0.0
 11
629.8223374254832
 21
-123.739515338276
 31
0.0
  0
LINE
  5
410A
330
1E
100
AcDbEntity
  8
受金具
  6
PLINE2
 62
     3
100
AcDbLine
 10
634.6511414254832
 20
-114.3674513382759
 30
0.0
 11
635.5759774254829
 21
-140.8513073382759
 31
0.0
  0
LINE
  5
410B
330
1E
100
AcDbEntity
  8
受金具
  6
PLINE2
 62
     3
100
AcDbLine
 10
632.7269134254832
 20
-140.8513073382759
 30
0.0
 11
633.6517494254832
 21
-114.3674513382759
 31
0.0
  0
LINE
  5
410C
330
1E
100
AcDbEntity
  8
躯体
  6
Continuous
 62
     3
100
AcDbLine
 10
736.5514454254832
 20
-117.121985338276
 30
0.0
 11
637.1291314254831
 21
-216.5442993382759
 31
0.0
  0
LINE
  5
410D
330
1E
100
AcDbEntity
  8
躯体
  6
Continuous
 62
     3
100
AcDbLine
 10
736.5514454254832
 20
-119.950413338276
 30
0.0
 11
639.957557425483
 21
-216.5442993382759
 31
0.0
  0
LINE
  5
410E
330
1E
100
AcDbEntity
  8
躯体
  6
Continuous
 62
     4
100
AcDbLine
 10
744.5514454254833
 20
-105.571191338276
 30
0.0
 11
744.5514454254833
 21
-216.5442993382759
 31
0.0
  0
LINE
  5
410F
330
1E
100
AcDbEntity
  8
躯体
  6
Continuous
 62
     4
100
AcDbLine
 10
742.5514454254832
 20
-106.399619338276
 30
0.0
 11
742.5514454254832
 21
-216.5442993382759
 31
0.0
  0
LINE
  5
4110
330
1E
100
AcDbEntity
  8
躯体
  6
Continuous
 62
     4
100
AcDbLine
 10
740.5514454254833
 20
-107.228045338276
 30
0.0
 11
740.5514454254833
 21
-216.5442993382759
 31
0.0
  0
LINE
  5
4111
330
1E
100
AcDbEntity
  8
躯体
  6
Continuous
 62
     4
100
AcDbLine
 10
738.5514454254832
 20
-108.056473338276
 30
0.0
 11
738.5514454254832
 21
-216.5442993382759
 31
0.0
  0
LINE
  5
4112
330
1E
100
AcDbEntity
  8
笠木
  6
Continuous
 62
     4
100
AcDbLine
 10
764.0514434254832
 20
-139.3849013382759
 30
0.0
 11
764.0514434254832
 21
-81.88490133827604
 31
0.0
  0
LINE
  5
4113
330
1E
100
AcDbEntity
  8
笠木
  6
Continuous
 62
     4
100
AcDbLine
 10
762.0514434254832
 20
-129.8849013382759
 30
0.0
 11
762.0514434254832
 21
-84.64123133827603
 31
0.0
  0
LINE
  5
4114
330
1E
100
AcDbEntity
  8
受金具
  6
Continuous
 62
     4
100
AcDbLine
 10
752.6840714254831
 20
-95.89460933827604
 30
0.0
 11
759.4456874254831
 21
-129.702687338276
 31
0.0
  0
LINE
  5
4115
330
1E
100
AcDbEntity
  8
躯体
  6
Continuous
 62
     4
100
AcDbLine
 10
736.5514454254832
 20
-108.884901338276
 30
0.0
 11
736.5514454254832
 21
-216.5442993382759
 31
0.0
  0
LINE
  5
4116
330
1E
100
AcDbEntity
  8
躯体
  6
Continuous
 62
     4
100
AcDbLine
 10
746.5514454254832
 20
-104.742765338276
 30
0.0
 11
746.5514454254832
 21
-216.5442993382759
 31
0.0
  0
LINE
  5
4117
330
1E
100
AcDbEntity
  8
受金具
  6
Continuous
 62
     4
100
AcDbLine
 10
755.8465014254831
 20
-93.91780133827605
 30
0.0
 11
761.9514434254831
 21
-124.884901338276
 31
0.0
  0
LINE
  5
4118
330
1E
100
AcDbEntity
  8
躯体
  6
Continuous
 62
     3
100
AcDbLine
 10
736.5514454254832
 20
-122.778839338276
 30
0.0
 11
642.7859854254831
 21
-216.5442993382759
 31
0.0
  0
LINE
  5
4119
330
1E
100
AcDbEntity
  8
受金具
  6
PLINE2
 62
     3
100
AcDbLine
 10
638.8993474254832
 20
-135.732205338276
 30
0.0
 11
638.9691474254832
 21
-137.730987338276
 31
0.0
  0
LINE
  5
411A
330
1E
100
AcDbEntity
  8
受金具
  6
PLINE2
 62
     3
100
AcDbLine
 10
629.4035434254832
 20
-135.732205338276
 30
0.0
 11
629.3337434254831
 21
-137.730987338276
 31
0.0
  0
LINE
  5
411B
330
1E
100
AcDbEntity
  8
受金具
  6
PLINE2
 62
     3
100
AcDbLine
 10
632.9259594254831
 20
-135.151375338276
 30
0.0
 11
634.1514454254832
 21
-137.273979338276
 31
0.0
  0
LINE
  5
411C
330
1E
100
AcDbEntity
  8
受金具
  6
PLINE2
 62
     3
100
AcDbLine
 10
634.1514454254832
 20
-137.273979338276
 30
0.0
 11
635.3769314254832
 21
-135.151375338276
 31
0.0
  0
LINE
  5
411D
330
1E
100
AcDbEntity
  8
受金具
  6
PLINE2
 62
     3
100
AcDbLine
 10
629.3337434254831
 20
-137.730987338276
 30
0.0
 11
631.227827425483
 21
-140.798959338276
 31
0.0
  0
LINE
  5
411E
330
1E
100
AcDbEntity
  8
受金具
  6
PLINE2
 62
     3
100
AcDbLine
 10
631.227827425483
 20
-140.798959338276
 30
0.0
 11
632.7269134254832
 21
-140.8513073382759
 31
0.0
  0
LINE
  5
411F
330
1E
100
AcDbEntity
  8
受金具
  6
PLINE2
 62
     3
100
AcDbLine
 10
629.3337434254831
 20
-137.730987338276
 30
0.0
 11
632.8316114254833
 21
-137.853135338276
 31
0.0
  0
LINE
  5
4120
330
1E
100
AcDbEntity
  8
受金具
  6
PLINE2
 62
     3
100
AcDbLine
 10
638.9691474254832
 20
-137.730987338276
 30
0.0
 11
637.0750634254832
 21
-140.798959338276
 31
0.0
  0
LINE
  5
4121
330
1E
100
AcDbEntity
  8
受金具
  6
PLINE2
 62
     3
100
AcDbLine
 10
635.5759774254829
 20
-140.8513073382759
 30
0.0
 11
637.0750634254832
 21
-140.798959338276
 31
0.0
  0
LINE
  5
4122
330
1E
100
AcDbEntity
  8
受金具
  6
PLINE2
 62
     3
100
AcDbLine
 10
635.471279425483
 20
-137.853135338276
 30
0.0
 11
638.9691474254832
 21
-137.730987338276
 31
0.0
  0
LINE
  5
4123
330
1E
100
AcDbEntity
  8
受金具
  6
PLINE2
 62
     3
100
AcDbLine
 10
638.6725014254832
 20
-129.236165338276
 30
0.0
 11
636.691169425483
 21
-129.805659338276
 31
0.0
  0
LINE
  5
4124
330
1E
100
AcDbEntity
  8
受金具
  6
PLINE2
 62
     3
100
AcDbLine
 10
629.6303894254831
 20
-129.236165338276
 30
0.0
 11
631.611721425483
 21
-129.805659338276
 31
0.0
  0
LINE
  5
4125
330
1E
100
AcDbEntity
  8
受金具
  6
PLINE2
 62
     3
100
AcDbLine
 10
629.5431414254831
 20
-131.7346413382759
 30
0.0
 11
629.4907914254832
 21
-133.233727338276
 31
0.0
  0
LINE
  5
4126
330
1E
100
AcDbEntity
  8
受金具
  6
PLINE2
 62
     3
100
AcDbLine
 10
629.4907914254832
 20
-133.233727338276
 30
0.0
 11
631.4721234254832
 21
-133.803223338276
 31
0.0
  0
LINE
  5
4127
330
1E
100
AcDbEntity
  8
受金具
  6
PLINE2
 62
     3
100
AcDbLine
 10
631.4721234254832
 20
-133.803223338276
 30
0.0
 11
631.4023234254833
 21
-135.8020033382759
 31
0.0
  0
LINE
  5
4128
330
1E
100
AcDbEntity
  8
受金具
  6
PLINE2
 62
     3
100
AcDbLine
 10
631.4023234254833
 20
-135.8020033382759
 30
0.0
 11
629.4035434254832
 21
-135.732205338276
 31
0.0
  0
LINE
  5
4129
330
1E
100
AcDbEntity
  8
受金具
  6
PLINE2
 62
     3
100
AcDbLine
 10
631.5419214254831
 20
-131.804441338276
 30
0.0
 11
629.5431414254831
 21
-131.7346413382759
 31
0.0
  0
LINE
  5
412A
330
1E
100
AcDbEntity
  8
受金具
  6
PLINE2
 62
     3
100
AcDbLine
 10
631.611721425483
 20
-129.805659338276
 30
0.0
 11
631.5419214254831
 21
-131.804441338276
 31
0.0
  0
LINE
  5
412B
330
1E
100
AcDbEntity
  8
受金具
  6
PLINE2
 62
     3
100
AcDbLine
 10
638.7597494254833
 20
-131.7346413382759
 30
0.0
 11
638.8120994254832
 21
-133.233727338276
 31
0.0
  0
LINE
  5
412C
330
1E
100
AcDbEntity
  8
受金具
  6
PLINE2
 62
     3
100
AcDbLine
 10
638.8120994254832
 20
-133.233727338276
 30
0.0
 11
636.8307674254831
 21
-133.803223338276
 31
0.0
  0
LINE
  5
412D
330
1E
100
AcDbEntity
  8
受金具
  6
PLINE2
 62
     3
100
AcDbLine
 10
636.9005654254831
 20
-135.8020033382759
 30
0.0
 11
638.8993474254832
 21
-135.732205338276
 31
0.0
  0
LINE
  5
412E
330
1E
100
AcDbEntity
  8
受金具
  6
PLINE2
 62
     3
100
AcDbLine
 10
636.8307674254831
 20
-133.803223338276
 30
0.0
 11
636.9005654254831
 21
-135.8020033382759
 31
0.0
  0
LINE
  5
412F
330
1E
100
AcDbEntity
  8
受金具
  6
PLINE2
 62
     3
100
AcDbLine
 10
636.691169425483
 20
-129.805659338276
 30
0.0
 11
636.760967425483
 21
-131.804441338276
 31
0.0
  0
LINE
  5
4130
330
1E
100
AcDbEntity
  8
受金具
  6
PLINE2
 62
     3
100
AcDbLine
 10
636.760967425483
 20
-131.804441338276
 30
0.0
 11
638.7597494254833
 21
-131.7346413382759
 31
0.0
  0
LINE
  5
4131
330
1E
100
AcDbEntity
  8
受金具
  6
PLINE2
 62
     3
100
AcDbLine
 10
629.7699874254832
 20
-125.238601338276
 30
0.0
 11
631.7513194254829
 21
-125.808095338276
 31
0.0
  0
LINE
  5
4132
330
1E
100
AcDbEntity
  8
受金具
  6
PLINE2
 62
     3
100
AcDbLine
 10
631.681519425483
 20
-127.806877338276
 30
0.0
 11
629.682739425483
 21
-127.737079338276
 31
0.0
  0
LINE
  5
4133
330
1E
100
AcDbEntity
  8
受金具
  6
PLINE2
 62
     3
100
AcDbLine
 10
629.682739425483
 20
-127.737079338276
 30
0.0
 11
629.6303894254831
 21
-129.236165338276
 31
0.0
  0
LINE
  5
4134
330
1E
100
AcDbEntity
  8
受金具
  6
PLINE2
 62
     3
100
AcDbLine
 10
631.7513194254829
 20
-125.808095338276
 30
0.0
 11
631.681519425483
 21
-127.806877338276
 31
0.0
  0
LINE
  5
4135
330
1E
100
AcDbEntity
  8
受金具
  6
PLINE2
 62
     3
100
AcDbLine
 10
629.8223374254832
 20
-123.739515338276
 30
0.0
 11
631.821117425483
 21
-123.809313338276
 31
0.0
  0
LINE
  5
4136
330
1E
100
AcDbEntity
  8
受金具
  6
PLINE2
 62
     3
100
AcDbLine
 10
629.8223374254832
 20
-123.739515338276
 30
0.0
 11
629.7699874254832
 21
-125.238601338276
 31
0.0
  0
LINE
  5
4137
330
1E
100
AcDbEntity
  8
受金具
  6
PLINE2
 62
     3
100
AcDbLine
 10
638.5329034254832
 20
-125.238601338276
 30
0.0
 11
636.5515714254832
 21
-125.808095338276
 31
0.0
  0
LINE
  5
4138
330
1E
100
AcDbEntity
  8
受金具
  6
PLINE2
 62
     3
100
AcDbLine
 10
636.621369425483
 20
-127.806877338276
 30
0.0
 11
638.6201514254833
 21
-127.737079338276
 31
0.0
  0
LINE
  5
4139
330
1E
100
AcDbEntity
  8
受金具
  6
PLINE2
 62
     3
100
AcDbLine
 10
636.5515714254832
 20
-125.808095338276
 30
0.0
 11
636.621369425483
 21
-127.806877338276
 31
0.0
  0
LINE
  5
413A
330
1E
100
AcDbEntity
  8
受金具
  6
PLINE2
 62
     3
100
AcDbLine
 10
638.6201514254833
 20
-127.737079338276
 30
0.0
 11
638.6725014254832
 21
-129.236165338276
 31
0.0
  0
LINE
  5
413B
330
1E
100
AcDbEntity
  8
受金具
  6
PLINE2
 62
     3
100
AcDbLine
 10
636.4817714254832
 20
-123.809313338276
 30
0.0
 11
638.4805534254832
 21
-123.739515338276
 31
0.0
  0
LINE
  5
413C
330
1E
100
AcDbEntity
  8
受金具
  6
PLINE2
 62
     3
100
AcDbLine
 10
638.4805534254832
 20
-123.739515338276
 30
0.0
 11
638.5329034254832
 21
-125.238601338276
 31
0.0
  0
LINE
  5
413D
330
1E
100
AcDbEntity
  8
受金具
  6
PLINE2
 62
     3
100
AcDbLine
 10
698.8993474254832
 20
-135.732205338276
 30
0.0
 11
698.9691474254832
 21
-137.730987338276
 31
0.0
  0
LINE
  5
413E
330
1E
100
AcDbEntity
  8
受金具
  6
PLINE2
 62
     3
100
AcDbLine
 10
689.4035434254832
 20
-135.732205338276
 30
0.0
 11
689.3337434254831
 21
-137.730987338276
 31
0.0
  0
LINE
  5
413F
330
1E
100
AcDbEntity
  8
受金具
  6
PLINE2
 62
     3
100
AcDbLine
 10
694.1514454254829
 20
-137.273979338276
 30
0.0
 11
692.9259594254831
 21
-135.151375338276
 31
0.0
  0
LINE
  5
4140
330
1E
100
AcDbEntity
  8
受金具
  6
PLINE2
 62
     3
100
AcDbLine
 10
695.3769314254832
 20
-135.151375338276
 30
0.0
 11
694.1514454254829
 21
-137.273979338276
 31
0.0
  0
LINE
  5
4141
330
1E
100
AcDbEntity
  8
受金具
  6
PLINE2
 62
     3
100
AcDbLine
 10
692.7269134254832
 20
-140.8513073382759
 30
0.0
 11
691.2278274254829
 21
-140.798959338276
 31
0.0
  0
LINE
  5
4142
330
1E
100
AcDbEntity
  8
受金具
  6
PLINE2
 62
     3
100
AcDbLine
 10
692.8316114254831
 20
-137.853135338276
 30
0.0
 11
689.3337434254831
 21
-137.730987338276
 31
0.0
  0
LINE
  5
4143
330
1E
100
AcDbEntity
  8
受金具
  6
PLINE2
 62
     3
100
AcDbLine
 10
689.3337434254831
 20
-137.730987338276
 30
0.0
 11
691.2278274254829
 21
-140.798959338276
 31
0.0
  0
LINE
  5
4144
330
1E
100
AcDbEntity
  8
受金具
  6
PLINE2
 62
     3
100
AcDbLine
 10
698.9691474254832
 20
-137.730987338276
 30
0.0
 11
697.0750634254832
 21
-140.798959338276
 31
0.0
  0
LINE
  5
4145
330
1E
100
AcDbEntity
  8
受金具
  6
PLINE2
 62
     3
100
AcDbLine
 10
698.9691474254832
 20
-137.730987338276
 30
0.0
 11
695.4712794254832
 21
-137.853135338276
 31
0.0
  0
LINE
  5
4146
330
1E
100
AcDbEntity
  8
受金具
  6
PLINE2
 62
     3
100
AcDbLine
 10
697.0750634254832
 20
-140.798959338276
 30
0.0
 11
695.5759774254833
 21
-140.8513073382759
 31
0.0
  0
LINE
  5
4147
330
1E
100
AcDbEntity
  8
受金具
  6
PLINE2
 62
     3
100
AcDbLine
 10
689.6303894254831
 20
-129.236165338276
 30
0.0
 11
691.6117214254832
 21
-129.805659338276
 31
0.0
  0
LINE
  5
4148
330
1E
100
AcDbEntity
  8
受金具
  6
PLINE2
 62
     3
100
AcDbLine
 10
689.5431414254832
 20
-131.7346413382759
 30
0.0
 11
689.4907914254829
 21
-133.233727338276
 31
0.0
  0
LINE
  5
4149
330
1E
100
AcDbEntity
  8
受金具
  6
PLINE2
 62
     3
100
AcDbLine
 10
689.4907914254829
 20
-133.233727338276
 30
0.0
 11
691.4721234254832
 21
-133.803223338276
 31
0.0
  0
LINE
  5
414A
330
1E
100
AcDbEntity
  8
受金具
  6
PLINE2
 62
     3
100
AcDbLine
 10
691.4023234254832
 20
-135.8020033382759
 30
0.0
 11
689.4035434254832
 21
-135.732205338276
 31
0.0
  0
LINE
  5
414B
330
1E
100
AcDbEntity
  8
受金具
  6
PLINE2
 62
     3
100
AcDbLine
 10
691.4721234254832
 20
-133.803223338276
 30
0.0
 11
691.4023234254832
 21
-135.8020033382759
 31
0.0
  0
LINE
  5
414C
330
1E
100
AcDbEntity
  8
受金具
  6
PLINE2
 62
     3
100
AcDbLine
 10
691.5419214254832
 20
-131.804441338276
 30
0.0
 11
689.5431414254832
 21
-131.7346413382759
 31
0.0
  0
LINE
  5
414D
330
1E
100
AcDbEntity
  8
受金具
  6
PLINE2
 62
     3
100
AcDbLine
 10
691.6117214254832
 20
-129.805659338276
 30
0.0
 11
691.5419214254832
 21
-131.804441338276
 31
0.0
  0
LINE
  5
414E
330
1E
100
AcDbEntity
  8
受金具
  6
PLINE2
 62
     3
100
AcDbLine
 10
689.7699874254832
 20
-125.238601338276
 30
0.0
 11
691.7513194254833
 21
-125.808095338276
 31
0.0
  0
LINE
  5
414F
330
1E
100
AcDbEntity
  8
受金具
  6
PLINE2
 62
     3
100
AcDbLine
 10
691.6815194254832
 20
-127.806877338276
 30
0.0
 11
689.6827394254832
 21
-127.737079338276
 31
0.0
  0
LINE
  5
4150
330
1E
100
AcDbEntity
  8
受金具
  6
PLINE2
 62
     3
100
AcDbLine
 10
689.6827394254832
 20
-127.737079338276
 30
0.0
 11
689.6303894254831
 21
-129.236165338276
 31
0.0
  0
LINE
  5
4151
330
1E
100
AcDbEntity
  8
受金具
  6
PLINE2
 62
     3
100
AcDbLine
 10
691.7513194254833
 20
-125.808095338276
 30
0.0
 11
691.6815194254832
 21
-127.806877338276
 31
0.0
  0
LINE
  5
4152
330
1E
100
AcDbEntity
  8
受金具
  6
PLINE2
 62
     3
100
AcDbLine
 10
691.8211174254833
 20
-123.809313338276
 30
0.0
 11
689.8223374254833
 21
-123.739515338276
 31
0.0
  0
LINE
  5
4153
330
1E
100
AcDbEntity
  8
受金具
  6
PLINE2
 62
     3
100
AcDbLine
 10
689.8223374254833
 20
-123.739515338276
 30
0.0
 11
689.7699874254832
 21
-125.238601338276
 31
0.0
  0
LINE
  5
4154
330
1E
100
AcDbEntity
  8
受金具
  6
PLINE2
 62
     3
100
AcDbLine
 10
698.6725014254832
 20
-129.236165338276
 30
0.0
 11
696.6911694254831
 21
-129.805659338276
 31
0.0
  0
LINE
  5
4155
330
1E
100
AcDbEntity
  8
受金具
  6
PLINE2
 62
     3
100
AcDbLine
 10
696.9005654254831
 20
-135.8020033382759
 30
0.0
 11
698.8993474254832
 21
-135.732205338276
 31
0.0
  0
LINE
  5
4156
330
1E
100
AcDbEntity
  8
受金具
  6
PLINE2
 62
     3
100
AcDbLine
 10
696.7609674254831
 20
-131.804441338276
 30
0.0
 11
698.7597494254832
 21
-131.7346413382759
 31
0.0
  0
LINE
  5
4157
330
1E
100
AcDbEntity
  8
受金具
  6
PLINE2
 62
     3
100
AcDbLine
 10
698.8120994254832
 20
-133.233727338276
 30
0.0
 11
696.8307674254831
 21
-133.803223338276
 31
0.0
  0
LINE
  5
4158
330
1E
100
AcDbEntity
  8
受金具
  6
PLINE2
 62
     3
100
AcDbLine
 10
696.8307674254831
 20
-133.803223338276
 30
0.0
 11
696.9005654254831
 21
-135.8020033382759
 31
0.0
  0
LINE
  5
4159
330
1E
100
AcDbEntity
  8
受金具
  6
PLINE2
 62
     3
100
AcDbLine
 10
696.6911694254831
 20
-129.805659338276
 30
0.0
 11
696.7609674254831
 21
-131.804441338276
 31
0.0
  0
LINE
  5
415A
330
1E
100
AcDbEntity
  8
受金具
  6
PLINE2
 62
     3
100
AcDbLine
 10
698.7597494254832
 20
-131.7346413382759
 30
0.0
 11
698.8120994254832
 21
-133.233727338276
 31
0.0
  0
LINE
  5
415B
330
1E
100
AcDbEntity
  8
受金具
  6
PLINE2
 62
     3
100
AcDbLine
 10
698.5329034254832
 20
-125.238601338276
 30
0.0
 11
696.5515714254832
 21
-125.808095338276
 31
0.0
  0
LINE
  5
415C
330
1E
100
AcDbEntity
  8
受金具
  6
PLINE2
 62
     3
100
AcDbLine
 10
696.6213694254832
 20
-127.806877338276
 30
0.0
 11
698.6201514254832
 21
-127.737079338276
 31
0.0
  0
LINE
  5
415D
330
1E
100
AcDbEntity
  8
受金具
  6
PLINE2
 62
     3
100
AcDbLine
 10
698.4805534254832
 20
-123.739515338276
 30
0.0
 11
696.4817714254832
 21
-123.809313338276
 31
0.0
  0
LINE
  5
415E
330
1E
100
AcDbEntity
  8
受金具
  6
PLINE2
 62
     3
100
AcDbLine
 10
696.5515714254832
 20
-125.808095338276
 30
0.0
 11
696.6213694254832
 21
-127.806877338276
 31
0.0
  0
LINE
  5
415F
330
1E
100
AcDbEntity
  8
受金具
  6
PLINE2
 62
     3
100
AcDbLine
 10
698.6201514254832
 20
-127.737079338276
 30
0.0
 11
698.6725014254832
 21
-129.236165338276
 31
0.0
  0
LINE
  5
4160
330
1E
100
AcDbEntity
  8
受金具
  6
PLINE2
 62
     3
100
AcDbLine
 10
698.4805534254832
 20
-123.739515338276
 30
0.0
 11
698.5329034254832
 21
-125.238601338276
 31
0.0
  0
LINE
  5
4161
330
1E
100
AcDbEntity
  8
笠木
  6
Continuous
 62
     4
100
AcDbLine
 10
761.7514434254831
 20
-139.3849013382759
 30
0.0
 11
761.7514434254831
 21
-132.8849013382759
 31
0.0
  0
LINE
  5
4162
330
1E
100
AcDbEntity
  8
笠木
  6
Continuous
 62
     4
100
AcDbLine
 10
763.5514434254832
 20
-139.884901338276
 30
0.0
 11
762.251443425483
 21
-139.884901338276
 31
0.0
  0
ARC
  5
4163
330
1E
100
AcDbEntity
  8
笠木
  6
Continuous
 62
     4
100
AcDbCircle
 10
763.5514434254832
 20
-139.3849013382759
 30
0.0
 40
0.5
100
AcDbArc
 50
270.0
 51
0.0
  0
ARC
  5
4164
330
1E
100
AcDbEntity
  8
笠木
  6
Continuous
 62
     4
100
AcDbCircle
 10
762.251443425483
 20
-139.3849013382759
 30
0.0
 40
0.5
100
AcDbArc
 50
180.0
 51
270.0
  0
LINE
  5
4165
330
1E
100
AcDbEntity
  8
笠木
  6
Continuous
 62
     4
100
AcDbLine
 10
762.0514434254832
 20
-124.884901338276
 30
0.0
 11
762.0514434254832
 21
-129.8849013382759
 31
0.0
  0
LINE
  5
4166
330
1E
100
AcDbEntity
  8
受金具
  6
Continuous
 62
     4
100
AcDbLine
 10
761.9514434254831
 20
-124.884901338276
 30
0.0
 11
761.9514434254831
 21
-129.8849013382759
 31
0.0
  0
LINE
  5
4167
330
1E
100
AcDbEntity
  8
笠木
  6
Continuous
 62
     4
100
AcDbLine
 10
759.0611414254832
 20
-131.9544133382759
 30
0.0
 11
761.7514434254831
 21
-132.8849013382759
 31
0.0
  0
LINE
  5
4168
330
1E
100
AcDbEntity
  8
笠木
  6
Continuous
 62
     4
100
AcDbLine
 10
759.4456874254831
 20
-129.702687338276
 30
0.0
 11
762.0514434254832
 21
-129.8849013382759
 31
0.0
  0
LINE
  5
4169
330
1E
100
AcDbEntity
  8
受金具
  6
Continuous
 62
     4
100
AcDbLine
 10
761.9514434254831
 20
-129.8849013382759
 30
0.0
 11
759.4456874254831
 21
-129.702687338276
 31
0.0
  0
LINE
  5
416A
330
1E
100
AcDbEntity
  8
笠木
  6
Continuous
 62
     4
100
AcDbLine
 10
758.5863214254832
 20
-129.642595338276
 30
0.0
 11
762.0514434254832
 21
-129.8849013382759
 31
0.0
  0
ARC
  5
416B
330
1E
100
AcDbEntity
  8
笠木
  6
Continuous
 62
     4
100
AcDbCircle
 10
759.5514434254832
 20
-130.536809338276
 30
0.0
 40
1.5
100
AcDbArc
 50
180.0
 51
250.9211950000011
  0
LINE
  5
416C
330
1E
100
AcDbEntity
  8
笠木
  6
Continuous
 62
     4
100
AcDbLine
 10
758.0514434254832
 20
-130.141377338276
 30
0.0
 11
758.0514434254832
 21
-130.536809338276
 31
0.0
  0
ARC
  5
416D
330
1E
100
AcDbEntity
  8
笠木
  6
Continuous
 62
     4
100
AcDbCircle
 10
758.5514434254832
 20
-130.141377338276
 30
0.0
 40
0.5
100
AcDbArc
 50
86.0000000000002
 51
180.0
  0
LINE
  5
416E
330
1E
100
AcDbEntity
  8
受金具
  6
Continuous
 62
     4
100
AcDbLine
 10
706.6514454254829
 20
-87.88490133827606
 30
0.0
 11
681.6514454254829
 21
-87.88490133827606
 31
0.0
  0
LINE
  5
416F
330
1E
100
AcDbEntity
  8
受金具
  6
Continuous
 62
     4
100
AcDbLine
 10
664.651445425483
 20
-88.88490133827604
 30
0.0
 11
718.1514454254831
 21
-88.88490133827604
 31
0.0
  0
LINE
  5
4170
330
1E
100
AcDbEntity
  8
受金具
  6
Continuous
 62
     4
100
AcDbLine
 10
621.6514454254832
 20
-87.88490133827606
 30
0.0
 11
646.6514454254832
 21
-87.88490133827606
 31
0.0
  0
LINE
  5
4171
330
1E
100
AcDbEntity
  8
受金具
  6
Continuous
 62
     4
100
AcDbLine
 10
610.151445425483
 20
-88.88490133827604
 30
0.0
 11
663.6514454254831
 21
-88.88490133827604
 31
0.0
  0
LINE
  5
4172
330
1E
100
AcDbEntity
  8
受金具
  6
PLINE5
 62
     3
100
AcDbLine
 10
636.6514454254833
 20
-88.88490133827604
 30
0.0
 11
636.6514454254833
 21
-112.996011338276
 31
0.0
  0
LINE
  5
4173
330
1E
100
AcDbEntity
  8
受金具
  6
PLINE5
 62
     3
100
AcDbLine
 10
631.6514454254829
 20
-88.88490133827604
 30
0.0
 11
631.6514454254829
 21
-112.996011338276
 31
0.0
  0
LINE
  5
4174
330
1E
100
AcDbEntity
  8
受金具
  6
PLINE2
 62
     3
100
AcDbLine
 10
638.1514454254832
 20
-116.884901338276
 30
0.0
 11
638.1514454254832
 21
-103.884901338276
 31
0.0
  0
LINE
  5
4175
330
1E
100
AcDbEntity
  8
受金具
  6
PLINE2
 62
     3
100
AcDbLine
 10
630.1514454254832
 20
-103.884901338276
 30
0.0
 11
630.1514454254832
 21
-116.884901338276
 31
0.0
  0
LINE
  5
4176
330
1E
100
AcDbEntity
  8
受金具
  6
PLINE2
 62
     3
100
AcDbLine
 10
628.1376494254832
 20
-111.884901338276
 30
0.0
 11
628.6292314254832
 21
-111.884901338276
 31
0.0
  0
LINE
  5
4177
330
1E
100
AcDbEntity
  8
受金具
  6
PLINE2
 62
     3
100
AcDbLine
 10
628.1376494254832
 20
-114.675199338276
 30
0.0
 11
628.1376494254832
 21
-111.884901338276
 31
0.0
  0
LINE
  5
4178
330
1E
100
AcDbEntity
  8
受金具
  6
PLINE2
 62
     3
100
AcDbLine
 10
628.6292314254832
 20
-111.884901338276
 30
0.0
 11
628.6292314254832
 21
-114.583833338276
 31
0.0
  0
LINE
  5
4179
330
1E
100
AcDbEntity
  8
受金具
  6
PLINE2
 62
     3
100
AcDbLine
 10
632.0479654254832
 20
-117.313273338276
 30
0.0
 11
631.960715425483
 21
-119.811751338276
 31
0.0
  0
LINE
  5
417A
330
1E
100
AcDbEntity
  8
受金具
  6
PLINE2
 62
     3
100
AcDbLine
 10
629.9619354254832
 20
-119.741951338276
 30
0.0
 11
631.960715425483
 21
-119.811751338276
 31
0.0
  0
LINE
  5
417B
330
1E
100
AcDbEntity
  8
受金具
  6
PLINE2
 62
     3
100
AcDbLine
 10
629.9095854254832
 20
-121.241037338276
 30
0.0
 11
631.890917425483
 21
-121.810533338276
 31
0.0
  0
LINE
  5
417C
330
1E
100
AcDbEntity
  8
受金具
  6
PLINE2
 62
     3
100
AcDbLine
 10
629.9619354254832
 20
-119.741951338276
 30
0.0
 11
629.9095854254832
 21
-121.241037338276
 31
0.0
  0
LINE
  5
417D
330
1E
100
AcDbEntity
  8
受金具
  6
PLINE2
 62
     3
100
AcDbLine
 10
630.0666334254831
 20
-116.7437793382759
 30
0.0
 11
632.0479654254832
 21
-117.313273338276
 31
0.0
  0
LINE
  5
417E
330
1E
100
AcDbEntity
  8
受金具
  6
PLINE2
 62
     3
100
AcDbLine
 10
636.254925425483
 20
-117.313273338276
 30
0.0
 11
636.3421734254832
 21
-119.811751338276
 31
0.0
  0
LINE
  5
417F
330
1E
100
AcDbEntity
  8
受金具
  6
PLINE2
 62
     3
100
AcDbLine
 10
636.3421734254832
 20
-119.811751338276
 30
0.0
 11
638.3409554254832
 21
-119.741951338276
 31
0.0
  0
LINE
  5
4180
330
1E
100
AcDbEntity
  8
受金具
  6
PLINE2
 62
     3
100
AcDbLine
 10
638.3933054254832
 20
-121.241037338276
 30
0.0
 11
636.4119734254832
 21
-121.810533338276
 31
0.0
  0
LINE
  5
4181
330
1E
100
AcDbEntity
  8
受金具
  6
PLINE2
 62
     3
100
AcDbLine
 10
638.3409554254832
 20
-119.741951338276
 30
0.0
 11
638.3933054254832
 21
-121.241037338276
 31
0.0
  0
LINE
  5
4182
330
1E
100
AcDbEntity
  8
受金具
  6
PLINE2
 62
     3
100
AcDbLine
 10
636.254925425483
 20
-117.313273338276
 30
0.0
 11
638.2362574254832
 21
-116.7437793382759
 31
0.0
  0
LINE
  5
4183
330
1E
100
AcDbEntity
  8
受金具
  6
PLINE2
 62
     3
100
AcDbLine
 10
633.6517494254832
 20
-114.402349338276
 30
0.0
 11
634.6511414254832
 21
-114.3674513382759
 31
0.0
  0
LINE
  5
4184
330
1E
100
AcDbEntity
  8
受金具
  6
PLINE2
 62
     3
100
AcDbLine
 10
629.6224634254831
 20
-103.884901338276
 30
0.0
 11
630.1514454254832
 21
-106.884901338276
 31
0.0
  0
LINE
  5
4185
330
1E
100
AcDbEntity
  8
受金具
  6
PLINE2
 62
     3
100
AcDbLine
 10
638.6804254254832
 20
-103.884901338276
 30
0.0
 11
638.1514454254832
 21
-106.884901338276
 31
0.0
  0
LINE
  5
4186
330
1E
100
AcDbEntity
  8
受金具
  6
Continuous
 62
     4
100
AcDbLine
 10
597.5514454254833
 20
-78.48490133827604
 30
0.0
 11
597.5514454254833
 21
-88.88490133827604
 31
0.0
  0
LINE
  5
4187
330
1E
100
AcDbEntity
  8
受金具
  6
Continuous
 62
     4
100
AcDbLine
 10
598.5514454254833
 20
-89.88490133827601
 30
0.0
 11
609.1514454254832
 21
-89.88490133827601
 31
0.0
  0
ARC
  5
4188
330
1E
100
AcDbEntity
  8
受金具
  6
Continuous
 62
     4
100
AcDbCircle
 10
598.5514454254833
 20
-88.88490133827604
 30
0.0
 40
1.0
100
AcDbArc
 50
180.0
 51
270.0
  0
LINE
  5
4189
330
1E
100
AcDbEntity
  8
受金具
  6
Continuous
 62
     4
100
AcDbLine
 10
609.1514454254832
 20
-89.88490133827601
 30
0.0
 11
610.151445425483
 21
-88.88490133827604
 31
0.0
  0
LINE
  5
418A
330
1E
100
AcDbEntity
  8
受金具
  6
Continuous
 62
     4
100
AcDbLine
 10
601.0514454254832
 20
-75.49000333827604
 30
0.0
 11
601.0514454254832
 21
-73.74032933827604
 31
0.0
  0
LINE
  5
418B
330
1E
100
AcDbEntity
  8
受金具
  6
Continuous
 62
     4
100
AcDbLine
 10
598.5514454254833
 20
-77.48490133827605
 30
0.0
 11
602.0514454254833
 21
-77.48490133827605
 31
0.0
  0
ARC
  5
418C
330
1E
100
AcDbEntity
  8
受金具
  6
Continuous
 62
     4
100
AcDbCircle
 10
598.5514454254833
 20
-78.48490133827604
 30
0.0
 40
1.0
100
AcDbArc
 50
90.0
 51
180.0
  0
LINE
  5
418D
330
1E
100
AcDbEntity
  8
受金具
  6
Continuous
 62
     4
100
AcDbLine
 10
602.0514454254833
 20
-75.71557733827603
 30
0.0
 11
602.0514454254833
 21
-77.48490133827605
 31
0.0
  0
LINE
  5
418E
330
1E
100
AcDbEntity
  8
受金具
  6
Continuous
 62
     4
100
AcDbLine
 10
621.6514454254832
 20
-88.88490133827604
 30
0.0
 11
621.6514454254832
 21
-87.88490133827606
 31
0.0
  0
ARC
  5
418F
330
1E
100
AcDbEntity
  8
受金具
  6
Continuous
 62
     4
100
AcDbCircle
 10
636.1514454254829
 20
-86.88490133827604
 30
0.0
 40
2.0
100
AcDbArc
 50
0.0
 51
90.0
  0
ARC
  5
4190
330
1E
100
AcDbEntity
  8
受金具
  6
Continuous
 62
     4
100
AcDbCircle
 10
632.1514454254829
 20
-86.88490133827604
 30
0.0
 40
2.0
100
AcDbArc
 50
90.0
 51
180.0
  0
LINE
  5
4191
330
1E
100
AcDbEntity
  8
受金具
  6
Continuous
 62
     4
100
AcDbLine
 10
630.1514454254832
 20
-86.88490133827604
 30
0.0
 11
630.1514454254832
 21
-87.88490133827606
 31
0.0
  0
LINE
  5
4192
330
1E
100
AcDbEntity
  8
受金具
  6
Continuous
 62
     4
100
AcDbLine
 10
638.1514454254832
 20
-86.88490133827604
 30
0.0
 11
638.1514454254832
 21
-87.88490133827606
 31
0.0
  0
LINE
  5
4193
330
1E
100
AcDbEntity
  8
受金具
  6
Continuous
 62
     4
100
AcDbLine
 10
636.1514454254829
 20
-84.88490133827603
 30
0.0
 11
632.1514454254829
 21
-84.88490133827603
 31
0.0
  0
LINE
  5
4194
330
1E
100
AcDbEntity
  8
受金具
  6
PLINE2
 62
     3
100
AcDbLine
 10
640.165239425483
 20
-111.884901338276
 30
0.0
 11
639.6736574254832
 21
-111.884901338276
 31
0.0
  0
LINE
  5
4195
330
1E
100
AcDbEntity
  8
受金具
  6
PLINE2
 62
     3
100
AcDbLine
 10
640.165239425483
 20
-114.675199338276
 30
0.0
 11
640.165239425483
 21
-111.884901338276
 31
0.0
  0
LINE
  5
4196
330
1E
100
AcDbEntity
  8
受金具
  6
PLINE2
 62
     3
100
AcDbLine
 10
639.6736574254832
 20
-111.884901338276
 30
0.0
 11
639.6736574254832
 21
-114.583833338276
 31
0.0
  0
LINE
  5
4197
330
1E
100
AcDbEntity
  8
受金具
  6
Continuous
 62
     4
100
AcDbLine
 10
646.6514454254832
 20
-88.88490133827604
 30
0.0
 11
646.6514454254832
 21
-87.88490133827606
 31
0.0
  0
LINE
  5
4198
330
1E
100
AcDbEntity
  8
受金具
  6
Continuous
 62
     4
100
AcDbLine
 10
663.6514454254831
 20
-88.88490133827604
 30
0.0
 11
664.1514454254831
 21
-89.38490133827603
 31
0.0
  0
LINE
  5
4199
330
1E
100
AcDbEntity
  8
受金具
  6
Continuous
 62
     4
100
AcDbLine
 10
664.1514454254831
 20
-89.38490133827603
 30
0.0
 11
664.651445425483
 21
-88.88490133827604
 31
0.0
  0
LINE
  5
419A
330
1E
100
AcDbEntity
  8
受金具
  6
Continuous
 62
     4
100
AcDbLine
 10
681.6514454254829
 20
-88.88490133827604
 30
0.0
 11
681.6514454254829
 21
-87.88490133827606
 31
0.0
  0
TEXT
  5
419B
330
1E
100
AcDbEntity
  8
寸法
  6
Continuous
 62
     3
100
AcDbText
 10
595.9464594254832
 20
-60.44094133827604
 30
0.0
 40
6.0
  1
１
 41
0.73811
100
AcDbText
  0
LINE
  5
419C
330
1E
100
AcDbEntity
  8
受金具
  6
Continuous
 62
     4
100
AcDbLine
 10
719.1514454254829
 20
-89.88490133827601
 30
0.0
 11
726.5514434254832
 21
-89.88490133827601
 31
0.0
  0
LINE
  5
419D
330
1E
100
AcDbEntity
  8
受金具
  6
PLINE5
 62
     3
100
AcDbLine
 10
691.6514454254833
 20
-88.88490133827604
 30
0.0
 11
691.6514454254833
 21
-112.996011338276
 31
0.0
  0
LINE
  5
419E
330
1E
100
AcDbEntity
  8
受金具
  6
PLINE5
 62
     3
100
AcDbLine
 10
696.6514454254832
 20
-88.88490133827604
 30
0.0
 11
696.6514454254832
 21
-112.996011338276
 31
0.0
  0
LINE
  5
419F
330
1E
100
AcDbEntity
  8
受金具
  6
PLINE2
 62
     3
100
AcDbLine
 10
698.1514454254829
 20
-103.884901338276
 30
0.0
 11
698.1514454254829
 21
-116.884901338276
 31
0.0
  0
LINE
  5
41A0
330
1E
100
AcDbEntity
  8
受金具
  6
PLINE2
 62
     3
100
AcDbLine
 10
690.1514454254829
 20
-116.884901338276
 30
0.0
 11
690.1514454254829
 21
-103.884901338276
 31
0.0
  0
LINE
  5
41A1
330
1E
100
AcDbEntity
  8
受金具
  6
PLINE2
 62
     3
100
AcDbLine
 10
692.0479654254831
 20
-117.313273338276
 30
0.0
 11
691.9607154254832
 21
-119.811751338276
 31
0.0
  0
LINE
  5
41A2
330
1E
100
AcDbEntity
  8
受金具
  6
PLINE2
 62
     3
100
AcDbLine
 10
691.9607154254832
 20
-119.811751338276
 30
0.0
 11
689.9619354254832
 21
-119.741951338276
 31
0.0
  0
LINE
  5
41A3
330
1E
100
AcDbEntity
  8
受金具
  6
PLINE2
 62
     3
100
AcDbLine
 10
689.9095854254832
 20
-121.241037338276
 30
0.0
 11
691.8909174254832
 21
-121.810533338276
 31
0.0
  0
LINE
  5
41A4
330
1E
100
AcDbEntity
  8
受金具
  6
PLINE2
 62
     3
100
AcDbLine
 10
689.9619354254832
 20
-119.741951338276
 30
0.0
 11
689.9095854254832
 21
-121.241037338276
 31
0.0
  0
LINE
  5
41A5
330
1E
100
AcDbEntity
  8
受金具
  6
PLINE2
 62
     3
100
AcDbLine
 10
692.0479654254831
 20
-117.313273338276
 30
0.0
 11
690.0666334254831
 21
-116.7437793382759
 31
0.0
  0
LINE
  5
41A6
330
1E
100
AcDbEntity
  8
受金具
  6
PLINE2
 62
     3
100
AcDbLine
 10
688.1376494254832
 20
-111.884901338276
 30
0.0
 11
688.6292314254832
 21
-111.884901338276
 31
0.0
  0
LINE
  5
41A7
330
1E
100
AcDbEntity
  8
受金具
  6
PLINE2
 62
     3
100
AcDbLine
 10
688.1376494254832
 20
-114.675199338276
 30
0.0
 11
688.1376494254832
 21
-111.884901338276
 31
0.0
  0
LINE
  5
41A8
330
1E
100
AcDbEntity
  8
受金具
  6
PLINE2
 62
     3
100
AcDbLine
 10
688.6292314254832
 20
-111.884901338276
 30
0.0
 11
688.6292314254832
 21
-114.583833338276
 31
0.0
  0
LINE
  5
41A9
330
1E
100
AcDbEntity
  8
受金具
  6
PLINE2
 62
     3
100
AcDbLine
 10
698.3933054254833
 20
-121.241037338276
 30
0.0
 11
696.4119734254832
 21
-121.810533338276
 31
0.0
  0
LINE
  5
41AA
330
1E
100
AcDbEntity
  8
受金具
  6
PLINE2
 62
     3
100
AcDbLine
 10
698.3409554254832
 20
-119.741951338276
 30
0.0
 11
696.3421734254832
 21
-119.811751338276
 31
0.0
  0
LINE
  5
41AB
330
1E
100
AcDbEntity
  8
受金具
  6
PLINE2
 62
     3
100
AcDbLine
 10
698.2362574254832
 20
-116.7437793382759
 30
0.0
 11
696.2549254254829
 21
-117.313273338276
 31
0.0
  0
LINE
  5
41AC
330
1E
100
AcDbEntity
  8
受金具
  6
PLINE2
 62
     3
100
AcDbLine
 10
696.2549254254829
 20
-117.313273338276
 30
0.0
 11
696.3421734254832
 21
-119.811751338276
 31
0.0
  0
LINE
  5
41AD
330
1E
100
AcDbEntity
  8
受金具
  6
PLINE2
 62
     3
100
AcDbLine
 10
698.3409554254832
 20
-119.741951338276
 30
0.0
 11
698.3933054254833
 21
-121.241037338276
 31
0.0
  0
LINE
  5
41AE
330
1E
100
AcDbEntity
  8
受金具
  6
PLINE2
 62
     3
100
AcDbLine
 10
694.6511414254833
 20
-114.402349338276
 30
0.0
 11
693.6517494254831
 21
-114.3674513382759
 31
0.0
  0
LINE
  5
41AF
330
1E
100
AcDbEntity
  8
受金具
  6
PLINE2
 62
     3
100
AcDbLine
 10
700.1652394254829
 20
-111.884901338276
 30
0.0
 11
699.6736574254832
 21
-111.884901338276
 31
0.0
  0
LINE
  5
41B0
330
1E
100
AcDbEntity
  8
受金具
  6
PLINE2
 62
     3
100
AcDbLine
 10
700.1652394254829
 20
-114.675199338276
 30
0.0
 11
700.1652394254829
 21
-111.884901338276
 31
0.0
  0
LINE
  5
41B1
330
1E
100
AcDbEntity
  8
受金具
  6
PLINE2
 62
     3
100
AcDbLine
 10
699.6736574254832
 20
-111.884901338276
 30
0.0
 11
699.6736574254832
 21
-114.583833338276
 31
0.0
  0
LINE
  5
41B2
330
1E
100
AcDbEntity
  8
受金具
  6
PLINE2
 62
     3
100
AcDbLine
 10
689.6224634254831
 20
-103.884901338276
 30
0.0
 11
690.1514454254829
 21
-106.884901338276
 31
0.0
  0
LINE
  5
41B3
330
1E
100
AcDbEntity
  8
受金具
  6
PLINE2
 62
     3
100
AcDbLine
 10
698.6804254254832
 20
-103.884901338276
 30
0.0
 11
698.1514454254829
 21
-106.884901338276
 31
0.0
  0
LINE
  5
41B4
330
1E
100
AcDbEntity
  8
受金具
  6
Continuous
 62
     4
100
AcDbLine
 10
692.1514454254833
 20
-84.88490133827603
 30
0.0
 11
696.1514454254833
 21
-84.88490133827603
 31
0.0
  0
ARC
  5
41B5
330
1E
100
AcDbEntity
  8
受金具
  6
Continuous
 62
     4
100
AcDbCircle
 10
692.1514454254833
 20
-86.88490133827604
 30
0.0
 40
2.0
100
AcDbArc
 50
90.0
 51
180.0
  0
LINE
  5
41B6
330
1E
100
AcDbEntity
  8
受金具
  6
Continuous
 62
     4
100
AcDbLine
 10
690.1514454254829
 20
-86.88490133827604
 30
0.0
 11
690.1514454254829
 21
-87.88490133827606
 31
0.0
  0
ARC
  5
41B7
330
1E
100
AcDbEntity
  8
受金具
  6
Continuous
 62
     4
100
AcDbCircle
 10
696.1514454254833
 20
-86.88490133827604
 30
0.0
 40
2.0
100
AcDbArc
 50
0.0
 51
90.0
  0
LINE
  5
41B8
330
1E
100
AcDbEntity
  8
受金具
  6
Continuous
 62
     4
100
AcDbLine
 10
698.1514454254829
 20
-86.88490133827604
 30
0.0
 11
698.1514454254829
 21
-87.88490133827606
 31
0.0
  0
LINE
  5
41B9
330
1E
100
AcDbEntity
  8
受金具
  6
Continuous
 62
     4
100
AcDbLine
 10
706.6514454254829
 20
-88.88490133827604
 30
0.0
 11
706.6514454254829
 21
-87.88490133827606
 31
0.0
  0
LINE
  5
41BA
330
1E
100
AcDbEntity
  8
受金具
  6
Continuous
 62
     4
100
AcDbLine
 10
718.1514454254831
 20
-88.88490133827604
 30
0.0
 11
719.1514454254829
 21
-89.88490133827601
 31
0.0
  0
ARC
  5
41BB
330
1E
100
AcDbEntity
  8
受金具
  6
Continuous
 62
     4
100
AcDbCircle
 10
750.9409214254832
 20
-94.88490133827601
 30
0.0
 40
5.0
100
AcDbArc
 50
11.15244000000032
 51
90.0
  0
LINE
  5
41BC
330
1E
100
AcDbEntity
  8
躯体
  6
Continuous
 62
     4
100
AcDbLine
 10
735.6935814254832
 20
-93.88490133827602
 30
0.0
 11
746.5514454254832
 21
-104.742765338276
 31
0.0
  0
LINE
  5
41BD
330
1E
100
AcDbEntity
  8
躯体
  6
Continuous
 62
     4
100
AcDbLine
 10
732.3798714254832
 20
-101.884901338276
 30
0.0
 11
738.5514454254832
 21
-108.056473338276
 31
0.0
  0
LINE
  5
41BE
330
1E
100
AcDbEntity
  8
躯体
  6
Continuous
 62
     4
100
AcDbLine
 10
736.5514454254832
 20
-108.884901338276
 30
0.0
 11
731.5514454254833
 21
-103.884901338276
 31
0.0
  0
LINE
  5
41BF
330
1E
100
AcDbEntity
  8
躯体
  6
Continuous
 62
     4
100
AcDbLine
 10
740.5514454254833
 20
-107.228045338276
 30
0.0
 11
733.2082994254832
 21
-99.88490133827603
 31
0.0
  0
LINE
  5
41C0
330
1E
100
AcDbEntity
  8
躯体
  6
Continuous
 62
     4
100
AcDbLine
 10
734.0367254254829
 20
-97.88490133827602
 30
0.0
 11
742.5514454254832
 21
-106.399619338276
 31
0.0
  0
LINE
  5
41C1
330
1E
100
AcDbEntity
  8
躯体
  6
Continuous
 62
     4
100
AcDbLine
 10
744.5514454254833
 20
-105.571191338276
 30
0.0
 11
734.8651534254829
 21
-95.88490133827603
 31
0.0
  0
ARC
  5
41C2
330
1E
100
AcDbEntity
  8
受金具
  6
Continuous
 62
     4
100
AcDbCircle
 10
750.2326214254832
 20
-96.38490133827602
 30
0.0
 40
2.5
100
AcDbArc
 50
11.3099319999995
 51
90.0
  0
LINE
  5
41C3
330
1E
100
AcDbEntity
  8
受金具
  6
Continuous
 62
     4
100
AcDbLine
 10
750.9409214254832
 20
-89.88490133827601
 30
0.0
 11
734.5514434254832
 21
-89.88490133827601
 31
0.0
  0
LINE
  5
41C4
330
1E
100
AcDbEntity
  8
受金具
  6
Continuous
 62
     4
100
AcDbLine
 10
734.5514434254832
 20
-84.28490133827606
 30
0.0
 11
738.0514434254832
 21
-84.28490133827606
 31
0.0
  0
ARC
  5
41C5
330
1E
100
AcDbEntity
  8
受金具
  6
Continuous
 62
     4
100
AcDbCircle
 10
732.0514434254833
 20
-106.784901338276
 30
0.0
 40
25.0
100
AcDbArc
 50
76.11345999999982
 51
103.8865400000002
  0
LINE
  5
41C6
330
1E
100
AcDbEntity
  8
受金具
  6
Continuous
 62
     4
100
AcDbLine
 10
733.5514434254832
 20
-85.28490133827606
 30
0.0
 11
733.5514434254832
 21
-88.88490133827604
 31
0.0
  0
LINE
  5
41C7
330
1E
100
AcDbEntity
  8
受金具
  6
Continuous
 62
     4
100
AcDbLine
 10
730.5514434254832
 20
-85.28490133827606
 30
0.0
 11
730.5514434254832
 21
-88.88490133827604
 31
0.0
  0
ARC
  5
41C8
330
1E
100
AcDbEntity
  8
受金具
  6
Continuous
 62
     4
100
AcDbCircle
 10
729.5514434254832
 20
-88.88490133827604
 30
0.0
 40
1.0
100
AcDbArc
 50
270.0
 51
0.0
  0
LINE
  5
41C9
330
1E
100
AcDbEntity
  8
受金具
  6
Continuous
 62
     4
100
AcDbLine
 10
729.5514434254832
 20
-89.88490133827601
 30
0.0
 11
726.5514434254832
 21
-89.88490133827601
 31
0.0
  0
ARC
  5
41CA
330
1E
100
AcDbEntity
  8
受金具
  6
Continuous
 62
     4
100
AcDbCircle
 10
734.5514434254832
 20
-88.88490133827604
 30
0.0
 40
1.0
100
AcDbArc
 50
180.0
 51
270.0
  0
ARC
  5
41CB
330
1E
100
AcDbEntity
  8
受金具
  6
Continuous
 62
     4
100
AcDbCircle
 10
729.5514434254832
 20
-85.28490133827606
 30
0.0
 40
1.0
100
AcDbArc
 50
0.0
 51
90.0
  0
LINE
  5
41CC
330
1E
100
AcDbEntity
  8
受金具
  6
Continuous
 62
     4
100
AcDbLine
 10
729.5514434254832
 20
-84.28490133827606
 30
0.0
 11
726.0514434254832
 21
-84.28490133827606
 31
0.0
  0
LINE
  5
41CD
330
1E
100
AcDbEntity
  8
受金具
  6
Continuous
 62
     4
100
AcDbLine
 10
726.0514434254832
 20
-82.51557733827601
 30
0.0
 11
726.0514434254832
 21
-84.28490133827606
 31
0.0
  0
LINE
  5
41CE
330
1E
100
AcDbEntity
  8
受金具
  6
Continuous
 62
     4
100
AcDbLine
 10
727.0514434254833
 20
-82.29000333827604
 30
0.0
 11
727.0514434254833
 21
-80.03806333827602
 31
0.0
  0
ARC
  5
41CF
330
1E
100
AcDbEntity
  8
受金具
  6
Continuous
 62
     4
100
AcDbCircle
 10
734.5514434254832
 20
-85.28490133827606
 30
0.0
 40
1.0
100
AcDbArc
 50
90.0
 51
180.0
  0
LINE
  5
41D0
330
1E
100
AcDbEntity
  8
受金具
  6
Continuous
 62
     4
100
AcDbLine
 10
738.0514434254832
 20
-82.51557733827601
 30
0.0
 11
738.0514434254832
 21
-84.28490133827606
 31
0.0
  0
LINE
  5
41D1
330
1E
100
AcDbEntity
  8
受金具
  6
Continuous
 62
     4
100
AcDbLine
 10
737.0514434254832
 20
-80.53788333827602
 30
0.0
 11
737.0514434254832
 21
-82.29000333827604
 31
0.0
  0
ARC
  5
41D2
330
1E
100
AcDbEntity
  8
笠木
  6
Continuous
 62
     4
100
AcDbCircle
 10
759.0514434254832
 20
-84.64123133827603
 30
0.0
 40
3.0
100
AcDbArc
 50
0.0
 51
87.13862300000114
  0
LINE
  5
41D3
330
1E
100
AcDbEntity
  8
笠木
  6
Continuous
 62
     4
100
AcDbLine
 10
764.0514434254832
 20
-81.88490133827604
 30
0.0
 11
762.0539374254832
 21
-79.78506133827599
 31
0.0
  0
TEXT
  5
41DC
330
1E
100
AcDbEntity
  8
寸法
  6
Continuous
 62
     4
100
AcDbText
 10
421.367555425483
 20
23.57297466172394
 30
0.0
 40
20.0
  1
ＴＡ－０２
 41
0.73811
  7
ACAD
100
AcDbText
  0
DIMENSION
  5
41EC
330
1E
100
AcDbEntity
  8
寸法
  6
Continuous
100
AcDbDimension
  2
*D4
 10
564.0514454254833
 20
-43.18767933827603
 30
0.0
 11
563.0514454254831
 21
-39.68767933827603
 31
0.0
 70
    33
 71
     5
 42
2.000000000000227
  3
111
100
AcDbAlignedDimension
 13
562.051445425483
 23
-51.95917924375862
 33
0.0
 14
564.0514454254833
 24
-51.95917924375862
 34
0.0
  0
DIMENSION
  5
41FA
330
1E
100
AcDbEntity
  8
寸法
  6
Continuous
100
AcDbDimension
  2
*D5
 10
584.0514454254832
 20
-43.18767933827603
 30
0.0
 11
574.0514454254832
 21
-39.68767933827603
 31
0.0
 70
    32
 71
     5
 42
20.0
  3
111
100
AcDbAlignedDimension
 13
564.0514454254833
 23
-51.95917924375862
 33
0.0
 14
584.0514454254832
 24
-51.95917924375862
 34
0.0
 50
180.0
100
AcDbRotatedDimension
1001
ACAD
1000
DSTYLE
1002
{
1070
   279
1070
     1
1070
   289
1070
     3
1002
}
  0
DIMENSION
  5
4207
330
1E
100
AcDbEntity
  8
寸法
  6
Continuous
100
AcDbDimension
  2
*D6
 10
584.0514454254832
 20
-29.74539733827605
 30
0.0
 11
573.0514454254831
 21
-26.24539733827605
 31
0.0
 70
    32
 71
     5
 42
22.00000000000023
  3
111
100
AcDbAlignedDimension
 13
562.051445425483
 23
-51.95917924375862
 33
0.0
 14
584.0514454254832
 24
-51.95917924375862
 34
0.0
100
AcDbRotatedDimension
  0
DIMENSION
  5
4214
330
1E
100
AcDbEntity
  8
寸法
  6
Continuous
100
AcDbDimension
  2
*D7
 10
542.051445425483
 20
-215.8074013382759
 30
0.0
 11
538.551445425483
 21
-140.8074013382759
 31
0.0
 70
    32
 71
     5
 42
149.9999999999999
  3
111
100
AcDbAlignedDimension
 13
558.6660299841441
 23
-65.80740133827607
 33
0.0
 14
558.6660299841441
 24
-215.8074013382759
 34
0.0
 50
90.0
100
AcDbRotatedDimension
  0
DIMENSION
  5
4221
330
1E
100
AcDbEntity
  8
寸法
  6
Continuous
100
AcDbDimension
  2
*D8
 10
567.0514454254832
 20
-230.6072213382759
 30
0.0
 11
564.8014454254831
 21
-227.1072213382759
 31
0.0
 70
    32
  1
4.5
 71
     5
 42
4.500000000000227
  3
111
100
AcDbAlignedDimension
 13
562.551445425483
 23
-219.8381328947807
 33
0.0
 14
567.0514454254832
 24
-219.8381328947807
 34
0.0
100
AcDbRotatedDimension
  0
LINE
  5
4293
330
1E
100
AcDbEntity
  8
受金具
  6
Continuous
 62
     4
100
AcDbLine
 10
566.1514454254833
 20
-129.8779073382759
 30
0.0
 11
568.6572014254831
 21
-129.702687338276
 31
0.0
  0
LINE
  5
42A0
330
1E
100
AcDbEntity
  8
躯体
  6
Continuous
 62
     4
100
AcDbLine
 10
592.3249474254832
 20
-93.88490133827602
 30
0.0
 11
735.6935814254832
 21
-93.88490133827602
 31
0.0
  0
ENDSEC
  0
SECTION
  2
OBJECTS
  0
DICTIONARY
  5
C
330
0
100
AcDbDictionary
281
     1
  3
ACAD_COLOR
350
439F
  3
ACAD_GROUP
350
D
  3
ACAD_LAYOUT
350
19
  3
ACAD_MATERIAL
350
439E
  3
ACAD_MLINESTYLE
350
16
  3
ACAD_PLOTSETTINGS
350
18
  3
ACAD_PLOTSTYLENAME
350
E
  3
ACAD_TABLESTYLE
350
43A0
  3
AcDbVariableDictionary
350
169
  0
DICTIONARY
  5
175
330
2
100
AcDbDictionary
280
     1
281
     1
  3
ACAD_LAYERFILTERS
360
185
  3
ACAD_LAYERSTATES
360
176
  0
DICTIONARY
  5
28B
330
1E
100
AcDbDictionary
280
     1
281
     1
  3
ACAD_LAYOUTSELFREF
360
438E
  0
DICTIONARY
  5
28D
330
1A
100
AcDbDictionary
280
     1
281
     1
  3
ACAD_LAYOUTSELFREF
360
438D
  0
DICTIONARY
  5
439F
102
{ACAD_REACTORS
330
C
102
}
330
C
100
AcDbDictionary
281
     1
  0
DICTIONARY
  5
D
102
{ACAD_REACTORS
330
C
102
}
330
C
100
AcDbDictionary
281
     1
  0
DICTIONARY
  5
19
102
{ACAD_REACTORS
330
C
102
}
330
C
100
AcDbDictionary
281
     1
  3
Model
350
21
  3
ﾚｲｱｳﾄ1
350
1D
  0
DICTIONARY
  5
439E
102
{ACAD_REACTORS
330
C
102
}
330
C
100
AcDbDictionary
281
     1
  0
DICTIONARY
  5
16
102
{ACAD_REACTORS
330
C
102
}
330
C
100
AcDbDictionary
281
     1
  3
Standard
350
17
  0
DICTIONARY
  5
18
102
{ACAD_REACTORS
330
C
102
}
330
C
100
AcDbDictionary
281
     1
  0
ACDBDICTIONARYWDFLT
  5
E
102
{ACAD_REACTORS
330
C
102
}
330
C
100
AcDbDictionary
281
     1
  3
Normal
350
F
100
AcDbDictionaryWithDefault
340
F
1001
ACAD
1000
TREAT_AS_HARD
1070
     0
1000
TREAT_AS_HARD
1070
     0
1000
TREAT_AS_HARD
1070
     0
1000
TREAT_AS_HARD
1070
     0
1000
TREAT_AS_HARD
1070
     0
1000
TREAT_AS_HARD
1070
     0
1000
TREAT_AS_HARD
1070
     0
1000
TREAT_AS_HARD
1070
     0
1000
TREAT_AS_HARD
1070
     0
1000
TREAT_AS_HARD
1070
     0
1000
TREAT_AS_HARD
1070
     0
1000
TREAT_AS_HARD
1070
     0
1000
TREAT_AS_HARD
1070
     0
1000
TREAT_AS_HARD
1070
     0
1000
TREAT_AS_HARD
1070
     0
1000
TREAT_AS_HARD
1070
     0
1000
TREAT_AS_HARD
1070
     0
1000
TREAT_AS_HARD
1070
     0
1000
TREAT_AS_HARD
1070
     0
1000
TREAT_AS_HARD
1070
     0
1000
TREAT_AS_HARD
1070
     0
1000
TREAT_AS_HARD
1070
     0
  0
DICTIONARY
  5
43A0
102
{ACAD_REACTORS
330
C
102
}
330
C
100
AcDbDictionary
281
     1
  3
Standard
350
43A1
  0
DICTIONARY
  5
169
102
{ACAD_REACTORS
330
C
102
}
330
C
100
AcDbDictionary
281
     1
  3
CTABLESTYLE
350
4595
  3
DIMASSOC
350
16A
  0
DICTIONARY
  5
185
102
{ACAD_REACTORS
330
175
102
}
330
175
100
AcDbDictionary
280
     1
281
     1
  0
DICTIONARY
  5
176
102
{ACAD_REACTORS
330
175
102
}
330
175
100
AcDbDictionary
281
     1
  3
ACAD
350
177
  0
XRECORD
  5
438E
102
{ACAD_REACTORS
330
28B
102
}
330
28B
100
AcDbXrecord
280
     1
340
1E
  0
XRECORD
  5
438D
102
{ACAD_REACTORS
330
28D
102
}
330
28D
100
AcDbXrecord
280
     1
340
1A
  0
LAYOUT
  5
21
102
{ACAD_REACTORS
330
19
102
}
330
19
100
AcDbPlotSettings
  1

  2
\\MEISEI-1\EPSON Stylus Photo EX3
  4

  6

 40
0.0
 41
0.0
 42
0.0
 43
0.0
 44
0.0
 45
0.0
 46
0.0
 47
0.0
 48
0.0
 49
0.0
140
0.0
141
0.0
142
1.0
143
1.0
 70
  1712
 72
     0
 73
     0
 74
     0
  7

 75
     0
147
1.0
 76
     0
 77
     2
 78
   300
148
0.0
149
0.0
100
AcDbLayout
  1
Model
 70
     1
 71
     0
 10
0.0
 20
0.0
 11
12.0
 21
9.0
 12
0.0
 22
0.0
 32
0.0
 14
0.0
 24
0.0
 34
0.0
 15
0.0
 25
0.0
 35
0.0
146
0.0
 13
0.0
 23
0.0
 33
0.0
 16
1.0
 26
0.0
 36
0.0
 17
0.0
 27
1.0
 37
0.0
 76
     0
330
1E
  0
LAYOUT
  5
1D
102
{ACAD_REACTORS
330
19
102
}
330
19
100
AcDbPlotSettings
  1

  2
\\MEISEI-1\EPSON Stylus Photo EX3
  4

  6

 40
0.0
 41
0.0
 42
0.0
 43
0.0
 44
0.0
 45
0.0
 46
0.0
 47
0.0
 48
0.0
 49
0.0
140
0.0
141
0.0
142
1.0
143
1.0
 70
   688
 72
     0
 73
     0
 74
     5
  7

 75
    16
147
1.0
 76
     0
 77
     2
 78
   300
148
0.0
149
0.0
100
AcDbLayout
  1
ﾚｲｱｳﾄ1
 70
     1
 71
     1
 10
0.0
 20
0.0
 11
12.0
 21
9.0
 12
0.0
 22
0.0
 32
0.0
 14
1.000000000000000E+20
 24
1.000000000000000E+20
 34
1.000000000000000E+20
 15
-1.000000000000000E+20
 25
-1.000000000000000E+20
 35
-1.000000000000000E+20
146
0.0
 13
0.0
 23
0.0
 33
0.0
 16
1.0
 26
0.0
 36
0.0
 17
0.0
 27
1.0
 37
0.0
 76
     0
330
1A
  0
MLINESTYLE
  5
17
102
{ACAD_REACTORS
330
16
102
}
330
16
100
AcDbMlineStyle
  2
STANDARD
 70
     0
  3

 62
   256
 51
90.0
 52
90.0
 71
     2
 49
0.5
 62
   256
  6
BYLAYER
 49
-0.5
 62
   256
  6
BYLAYER
  0
ACDBPLACEHOLDER
  5
F
102
{ACAD_REACTORS
330
E
102
}
330
E
  0
TABLESTYLE
  5
43A1
102
{ACAD_REACTORS
330
43A0
102
}
330
43A0
100
AcDbTableStyle
  3
Standard
 70
     0
 71
     0
 40
0.06
 41
0.06
280
     0
281
     0
  7
STANDARD
140
0.18
170
     2
 62
     0
 63
     7
283
     0
274
    -2
284
     1
 64
     0
275
    -2
285
     1
 65
     0
276
    -2
286
     1
 66
     0
277
    -2
287
     1
 67
     0
278
    -2
288
     1
 68
     0
279
    -2
289
     1
 69
     0
  7
STANDARD
140
0.25
170
     5
 62
     0
 63
     7
283
     0
274
    -2
284
     1
 64
     0
275
    -2
285
     1
 65
     0
276
    -2
286
     1
 66
     0
277
    -2
287
     1
 67
     0
278
    -2
288
     1
 68
     0
279
    -2
289
     1
 69
     0
  7
STANDARD
140
0.18
170
     5
 62
     0
 63
     7
283
     0
274
    -2
284
     1
 64
     0
275
    -2
285
     1
 65
     0
276
    -2
286
     1
 66
     0
277
    -2
287
     1
 67
     0
278
    -2
288
     1
 68
     0
279
    -2
289
     1
 69
     0
  0
DICTIONARYVAR
  5
4595
102
{ACAD_REACTORS
330
169
102
}
330
169
100
DictionaryVariables
280
     0
  1
STANDARD
  0
DICTIONARYVAR
  5
16A
102
{ACAD_REACTORS
330
169
102
}
330
169
100
DictionaryVariables
280
     0
  1
1
  0
XRECORD
  5
177
102
{ACAD_REACTORS
330
176
102
}
330
176
100
AcDbXrecord
280
     1
 91
      476
330
17B
 90
        8
 62
     7
370
    -3
331
15
  1
Color_7
330
17A
 90
        8
 62
     7
370
    -3
331
15
  1
Color_7
330
179
 90
        8
 62
     7
370
    -3
331
15
  1
Color_7
330
178
 90
        8
 62
     7
370
    -3
331
15
  1
Color_7
330
128
 90
        0
 62
     7
370
    -3
331
15
  1
Color_7
330
10
 90
        8
 62
     7
370
    -3
331
15
  1
Color_7
  0
ENDSEC
  0
EOF
