  0
SECTION
  2
HEADER
  9
$ACADVER
  1
AC1015
  9
$ACADMAINTVER
 70
    20
  9
$DWGCODEPAGE
  3
ANSI_932
  9
$INSBASE
 10
0.0
 20
0.0
 30
0.0
  9
$EXTMIN
 10
980.3719215374812
 20
-165.6659865649646
 30
-0.0015258207003583
  9
$EXTMAX
 10
1147.466476581262
 20
0.7449890229738685
 30
0.0000000349246037
  9
$LIMMIN
 10
0.0
 20
0.0
  9
$LIMMAX
 10
420.0
 20
297.0
  9
$ORTHOMODE
 70
     0
  9
$REGENMODE
 70
     1
  9
$FILLMODE
 70
     1
  9
$QTEXTMODE
 70
     0
  9
$MIRRTEXT
 70
     1
  9
$LTSCALE
 40
1.0
  9
$ATTMODE
 70
     1
  9
$TEXTSIZE
 40
5.0
  9
$TRACEWID
 40
0.05
  9
$TEXTSTYLE
  7
ACAD
  9
$CLAYER
  8
受金具
  9
$CELTYPE
  6
CONTINUOUS
  9
$CECOLOR
 62
   256
  9
$CELTSCALE
 40
1.0
  9
$DISPSILH
 70
     0
  9
$DIMSCALE
 40
1.0
  9
$DIMASZ
 40
1.0
  9
$DIMEXO
 40
0.0
  9
$DIMDLI
 40
0.38
  9
$DIMRND
 40
0.0
  9
$DIMDLE
 40
0.0
  9
$DIMEXE
 40
0.0
  9
$DIMTP
 40
0.0
  9
$DIMTM
 40
0.0
  9
$DIMTXT
 40
5.0
  9
$DIMCEN
 40
0.09
  9
$DIMTSZ
 40
0.0
  9
$DIMTOL
 70
     0
  9
$DIMLIM
 70
     0
  9
$DIMTIH
 70
     0
  9
$DIMTOH
 70
     1
  9
$DIMSE1
 70
     0
  9
$DIMSE2
 70
     0
  9
$DIMTAD
 70
     1
  9
$DIMZIN
 70
     0
  9
$DIMBLK
  1
DotSmall
  9
$DIMASO
 70
     1
  9
$DIMSHO
 70
     1
  9
$DIMPOST
  1

  9
$DIMAPOST
  1

  9
$DIMALT
 70
     0
  9
$DIMALTD
 70
     2
  9
$DIMALTF
 40
25.4
  9
$DIMLFAC
 40
1.0
  9
$DIMTOFL
 70
     0
  9
$DIMTVP
 40
0.0
  9
$DIMTIX
 70
     1
  9
$DIMSOXD
 70
     0
  9
$DIMSAH
 70
     0
  9
$DIMBLK1
  1

  9
$DIMBLK2
  1

  9
$DIMSTYLE
  2
111
  9
$DIMCLRD
 70
     4
  9
$DIMCLRE
 70
     4
  9
$DIMCLRT
 70
     3
  9
$DIMTFAC
 40
1.0
  9
$DIMGAP
 40
1.0
  9
$DIMJUST
 70
     0
  9
$DIMSD1
 70
     0
  9
$DIMSD2
 70
     0
  9
$DIMTOLJ
 70
     1
  9
$DIMTZIN
 70
     0
  9
$DIMALTZ
 70
     0
  9
$DIMALTTZ
 70
     0
  9
$DIMUPT
 70
     0
  9
$DIMDEC
 70
     0
  9
$DIMTDEC
 70
     0
  9
$DIMALTU
 70
     2
  9
$DIMALTTD
 70
     2
  9
$DIMTXSTY
  7
ACAD
  9
$DIMAUNIT
 70
     0
  9
$DIMADEC
 70
     0
  9
$DIMALTRND
 40
0.0
  9
$DIMAZIN
 70
     0
  9
$DIMDSEP
 70
    46
  9
$DIMATFIT
 70
     0
  9
$DIMFRAC
 70
     0
  9
$DIMLDRBLK
  1
None
  9
$DIMLUNIT
 70
     2
  9
$DIMLWD
 70
    -2
  9
$DIMLWE
 70
    -2
  9
$DIMTMOVE
 70
     0
  9
$LUNITS
 70
     2
  9
$LUPREC
 70
     4
  9
$SKETCHINC
 40
0.1
  9
$FILLETRAD
 40
0.0
  9
$AUNITS
 70
     0
  9
$AUPREC
 70
     0
  9
$MENU
  1
.
  9
$ELEVATION
 40
0.0
  9
$PELEVATION
 40
0.0
  9
$THICKNESS
 40
0.0
  9
$LIMCHECK
 70
     0
  9
$CHAMFERA
 40
0.0
  9
$CHAMFERB
 40
0.0
  9
$CHAMFERC
 40
0.0
  9
$CHAMFERD
 40
0.0
  9
$SKPOLY
 70
     0
  9
$TDCREATE
 40
2454316.693457674
  9
$TDUCREATE
 40
2454316.318457674
  9
$TDUPDATE
 40
2454490.371203878
  9
$TDUUPDATE
 40
2454489.996203878
  9
$TDINDWG
 40
0.2071662731
  9
$TDUSRTIMER
 40
0.2071662731
  9
$USRTIMER
 70
     1
  9
$ANGBASE
 50
0.0
  9
$ANGDIR
 70
     0
  9
$PDMODE
 70
     0
  9
$PDSIZE
 40
0.0
  9
$PLINEWID
 40
0.0
  9
$SPLFRAME
 70
     0
  9
$SPLINETYPE
 70
     6
  9
$SPLINESEGS
 70
     8
  9
$HANDSEED
  5
4143
  9
$SURFTAB1
 70
     6
  9
$SURFTAB2
 70
     6
  9
$SURFTYPE
 70
     6
  9
$SURFU
 70
     6
  9
$SURFV
 70
     6
  9
$UCSBASE
  2

  9
$UCSNAME
  2

  9
$UCSORG
 10
0.0
 20
0.0
 30
0.0
  9
$UCSXDIR
 10
1.0
 20
0.0
 30
0.0
  9
$UCSYDIR
 10
0.0
 20
1.0
 30
0.0
  9
$UCSORTHOREF
  2

  9
$UCSORTHOVIEW
 70
     0
  9
$UCSORGTOP
 10
0.0
 20
0.0
 30
0.0
  9
$UCSORGBOTTOM
 10
0.0
 20
0.0
 30
0.0
  9
$UCSORGLEFT
 10
0.0
 20
0.0
 30
0.0
  9
$UCSORGRIGHT
 10
0.0
 20
0.0
 30
0.0
  9
$UCSORGFRONT
 10
0.0
 20
0.0
 30
0.0
  9
$UCSORGBACK
 10
0.0
 20
0.0
 30
0.0
  9
$PUCSBASE
  2

  9
$PUCSNAME
  2

  9
$PUCSORG
 10
0.0
 20
0.0
 30
0.0
  9
$PUCSXDIR
 10
1.0
 20
0.0
 30
0.0
  9
$PUCSYDIR
 10
0.0
 20
1.0
 30
0.0
  9
$PUCSORTHOREF
  2

  9
$PUCSORTHOVIEW
 70
     0
  9
$PUCSORGTOP
 10
0.0
 20
0.0
 30
0.0
  9
$PUCSORGBOTTOM
 10
0.0
 20
0.0
 30
0.0
  9
$PUCSORGLEFT
 10
0.0
 20
0.0
 30
0.0
  9
$PUCSORGRIGHT
 10
0.0
 20
0.0
 30
0.0
  9
$PUCSORGFRONT
 10
0.0
 20
0.0
 30
0.0
  9
$PUCSORGBACK
 10
0.0
 20
0.0
 30
0.0
  9
$USERI1
 70
     0
  9
$USERI2
 70
     0
  9
$USERI3
 70
     0
  9
$USERI4
 70
     0
  9
$USERI5
 70
     0
  9
$USERR1
 40
0.0
  9
$USERR2
 40
0.0
  9
$USERR3
 40
0.0
  9
$USERR4
 40
0.0
  9
$USERR5
 40
0.0
  9
$WORLDVIEW
 70
     1
  9
$SHADEDGE
 70
     3
  9
$SHADEDIF
 70
    70
  9
$TILEMODE
 70
     1
  9
$MAXACTVP
 70
    48
  9
$PINSBASE
 10
0.0
 20
0.0
 30
0.0
  9
$PLIMCHECK
 70
     0
  9
$PEXTMIN
 10
1.000000000000000E+20
 20
1.000000000000000E+20
 30
1.000000000000000E+20
  9
$PEXTMAX
 10
-1.000000000000000E+20
 20
-1.000000000000000E+20
 30
-1.000000000000000E+20
  9
$PLIMMIN
 10
0.0
 20
0.0
  9
$PLIMMAX
 10
12.0
 20
9.0
  9
$UNITMODE
 70
     0
  9
$VISRETAIN
 70
     0
  9
$PLINEGEN
 70
     0
  9
$PSLTSCALE
 70
     1
  9
$TREEDEPTH
 70
  3020
  9
$CMLSTYLE
  2
Standard
  9
$CMLJUST
 70
     0
  9
$CMLSCALE
 40
1.0
  9
$PROXYGRAPHICS
 70
     1
  9
$MEASUREMENT
 70
     0
  9
$CELWEIGHT
370
    -1
  9
$ENDCAPS
280
     0
  9
$JOINSTYLE
280
     0
  9
$LWDISPLAY
290
     0
  9
$INSUNITS
 70
     0
  9
$HYPERLINKBASE
  1

  9
$STYLESHEET
  1

  9
$XEDIT
290
     1
  9
$CEPSNTYPE
380
     0
  9
$PSTYLEMODE
290
     1
  9
$FINGERPRINTGUID
  2
{CC7D6DEE-A9F1-4F3E-AC95-C84B62CCA3FD}
  9
$VERSIONGUID
  2
{F8C2AC9C-6481-4AE2-92D5-16DD2D844D19}
  9
$EXTNAMES
290
     1
  9
$PSVPSCALE
 40
0.0
  9
$OLESTARTUP
290
     0
  0
ENDSEC
  0
SECTION
  2
CLASSES
  0
CLASS
  1
ACDBDICTIONARYWDFLT
  2
AcDbDictionaryWithDefault
  3
ObjectDBX Classes
 90
        0
280
     0
281
     0
  0
CLASS
  1
ACDBPLACEHOLDER
  2
AcDbPlaceHolder
  3
ObjectDBX Classes
 90
        0
280
     0
281
     0
  0
CLASS
  1
LAYOUT
  2
AcDbLayout
  3
ObjectDBX Classes
 90
        0
280
     0
281
     0
  0
CLASS
  1
DICTIONARYVAR
  2
AcDbDictionaryVar
  3
ObjectDBX Classes
 90
        0
280
     0
281
     0
  0
CLASS
  1
TABLESTYLE
  2
AcDbTableStyle
  3
ObjectDBX Classes
 90
     4095
280
     0
281
     0
  0
CLASS
  1
MATERIAL
  2
AcDbMaterial
  3
ObjectDBX Classes
 90
     1153
280
     0
281
     0
  0
CLASS
  1
VISUALSTYLE
  2
AcDbVisualStyle
  3
ObjectDBX Classes
 90
     4095
280
     0
281
     0
  0
ENDSEC
  0
SECTION
  2
TABLES
  0
TABLE
  2
VPORT
  5
8
102
{ACAD_XDICTIONARY
360
4112
102
}
330
0
100
AcDbSymbolTable
 70
     1
  0
VPORT
  5
40D4
330
8
100
AcDbSymbolTableRecord
100
AcDbViewportTableRecord
  2
*Active
 70
     0
 10
0.0
 20
0.0
 11
1.0
 21
1.0
 12
1063.919199059372
 22
-82.4604987709954
 13
0.0
 23
0.0
 14
1.0
 24
1.0
 15
0.0
 25
0.0
 16
0.0
 26
0.0
 36
1.0
 17
0.0
 27
0.0
 37
0.0
 40
167.6637558307586
 41
1.516331658291457
 42
50.0
 43
0.0
 44
0.0
 50
0.0
 51
0.0
 71
     0
 72
   100
 73
     1
 74
     1
 75
     0
 76
     0
 77
     0
 78
     0
281
     0
 65
     1
110
0.0
120
0.0
130
0.0
111
1.0
121
0.0
131
0.0
112
0.0
122
1.0
132
0.0
 79
     0
146
0.0
  0
ENDTAB
  0
TABLE
  2
LTYPE
  5
5
330
0
100
AcDbSymbolTable
 70
    50
  0
LTYPE
  5
13
330
5
100
AcDbSymbolTableRecord
100
AcDbLinetypeTableRecord
  2
ByBlock
 70
     0
  3

 72
    65
 73
     0
 40
0.0
  0
LTYPE
  5
14
330
5
100
AcDbSymbolTableRecord
100
AcDbLinetypeTableRecord
  2
ByLayer
 70
     0
  3

 72
    65
 73
     0
 40
0.0
  0
LTYPE
  5
15
330
5
100
AcDbSymbolTableRecord
100
AcDbLinetypeTableRecord
  2
CONTINUOUS
 70
     0
  3
実線
 72
    65
 73
     0
 40
0.0
  0
LTYPE
  5
22
330
5
100
AcDbSymbolTableRecord
100
AcDbLinetypeTableRecord
  2
DASHED1
 70
     0
  3
--  --  --  --  --  --  --  --  
 72
    65
 73
     2
 40
2.5
 49
1.25
 74
     0
 49
-1.25
 74
     0
  0
LTYPE
  5
23
330
5
100
AcDbSymbolTableRecord
100
AcDbLinetypeTableRecord
  2
DASHED2
 70
     0
  3
----    ----    ----    ----    
 72
    65
 73
     2
 40
5.0
 49
2.5
 74
     0
 49
-2.5
 74
     0
  0
LTYPE
  5
24
330
5
100
AcDbSymbolTableRecord
100
AcDbLinetypeTableRecord
  2
DASHED3
 70
     0
  3
------  ------  ------  ------  
 72
    65
 73
     2
 40
5.0
 49
3.75
 74
     0
 49
-1.25
 74
     0
  0
LTYPE
  5
25
330
5
100
AcDbSymbolTableRecord
100
AcDbLinetypeTableRecord
  2
CENTER1
 70
     0
  3
----- - ----- - ----- - ----- - 
 72
    65
 73
     4
 40
10.0
 49
6.25
 74
     0
 49
-1.25
 74
     0
 49
1.25
 74
     0
 49
-1.25
 74
     0
  0
LTYPE
  5
26
330
5
100
AcDbSymbolTableRecord
100
AcDbLinetypeTableRecord
  2
CENTER2
 70
     0
  3
----------  --  ----------  --  
 72
    65
 73
     4
 40
20.0
 49
12.5
 74
     0
 49
-2.5
 74
     0
 49
2.5
 74
     0
 49
-2.5
 74
     0
  0
LTYPE
  5
27
330
5
100
AcDbSymbolTableRecord
100
AcDbLinetypeTableRecord
  2
PHANTOM1
 70
     0
  3
--- - - --- - - --- - - --- - - 
 72
    65
 73
     6
 40
10.0
 49
3.25
 74
     0
 49
-1.25
 74
     0
 49
1.25
 74
     0
 49
-1.25
 74
     0
 49
1.25
 74
     0
 49
-1.25
 74
     0
  0
LTYPE
  5
28
330
5
100
AcDbSymbolTableRecord
100
AcDbLinetypeTableRecord
  2
PHANTOM2
 70
     0
  3
--------  -  -  --------  -  -  
 72
    65
 73
     6
 40
20.0
 49
10.0
 74
     0
 49
-2.5
 74
     0
 49
1.25
 74
     0
 49
-2.5
 74
     0
 49
1.25
 74
     0
 49
-2.5
 74
     0
  0
LTYPE
  5
29
330
5
100
AcDbSymbolTableRecord
100
AcDbLinetypeTableRecord
  2
DOT
 70
     0
  3
-   -   -   -   -   -   -   -   
 72
    65
 73
     2
 40
2.5
 49
0.625
 74
     0
 49
-1.875
 74
     0
  0
LTYPE
  5
2A
330
5
100
AcDbSymbolTableRecord
100
AcDbLinetypeTableRecord
  2
DUMMY
 70
     0
  3
ダミー
 72
    65
 73
     0
 40
0.0
  0
LTYPE
  5
2B
330
5
100
AcDbSymbolTableRecord
100
AcDbLinetypeTableRecord
  2
RAND1
 70
     0
  3
ランダム線1
 72
    65
 73
     4
 40
10.0
 49
1.0
 74
     0
 49
-2.0
 74
     0
 49
3.0
 74
     0
 49
-4.0
 74
     0
  0
LTYPE
  5
2C
330
5
100
AcDbSymbolTableRecord
100
AcDbLinetypeTableRecord
  2
RAND2
 70
     0
  3
ランダム線2
 72
    65
 73
     4
 40
14.0
 49
2.0
 74
     0
 49
-3.0
 74
     0
 49
4.0
 74
     0
 49
-5.0
 74
     0
  0
LTYPE
  5
2D
330
5
100
AcDbSymbolTableRecord
100
AcDbLinetypeTableRecord
  2
RAND3
 70
     0
  3
ランダム線3
 72
    65
 73
     4
 40
18.0
 49
3.0
 74
     0
 49
-4.0
 74
     0
 49
5.0
 74
     0
 49
-6.0
 74
     0
  0
LTYPE
  5
2E
330
5
100
AcDbSymbolTableRecord
100
AcDbLinetypeTableRecord
  2
RAND4
 70
     0
  3
ランダム線4
 72
    65
 73
     4
 40
22.0
 49
4.0
 74
     0
 49
-5.0
 74
     0
 49
6.0
 74
     0
 49
-7.0
 74
     0
  0
LTYPE
  5
2F
330
5
100
AcDbSymbolTableRecord
100
AcDbLinetypeTableRecord
  2
RAND5
 70
     0
  3
ランダム線5
 72
    65
 73
     4
 40
26.0
 49
5.0
 74
     0
 49
-6.0
 74
     0
 49
7.0
 74
     0
 49
-8.0
 74
     0
  0
LTYPE
  5
30
330
5
100
AcDbSymbolTableRecord
100
AcDbLinetypeTableRecord
  2
LONG1
 70
     0
  3
----------  --  ----------  --  
 72
    65
 73
     4
 40
40.0
 49
32.5
 74
     0
 49
-2.5
 74
     0
 49
2.5
 74
     0
 49
-2.5
 74
     0
  0
LTYPE
  5
31
330
5
100
AcDbSymbolTableRecord
100
AcDbLinetypeTableRecord
  2
LONG2
 70
     0
  3
--------  -  -  --------  -  -  
 72
    65
 73
     6
 40
40.0
 49
30.0
 74
     0
 49
-2.5
 74
     0
 49
1.25
 74
     0
 49
-2.5
 74
     0
 49
1.25
 74
     0
 49
-2.5
 74
     0
  0
LTYPE
  5
32
330
5
100
AcDbSymbolTableRecord
100
AcDbLinetypeTableRecord
  2
LONG3
 70
     0
  3
+++++++++++++++..+++++++++++++++
 72
    65
 73
     2
 40
40.0
 49
37.5
 74
     0
 49
-2.5
 74
     0
  0
LTYPE
  5
33
330
5
100
AcDbSymbolTableRecord
100
AcDbLinetypeTableRecord
  2
LONG4
 70
     0
  3
+++++++++++++++..+++++++++++++++
 72
    65
 73
     2
 40
80.0
 49
75.0
 74
     0
 49
-5.0
 74
     0
  0
LTYPE
  5
34
330
5
100
AcDbSymbolTableRecord
100
AcDbLinetypeTableRecord
  2
LONG5
 70
     0
  3
----------  --  ----------  --  
 72
    65
 73
     4
 40
60.0
 49
37.5
 74
     0
 49
-7.5
 74
     0
 49
7.5
 74
     0
 49
-7.5
 74
     0
  0
LTYPE
  5
35
330
5
100
AcDbSymbolTableRecord
100
AcDbLinetypeTableRecord
  2
DASHED
 70
     0
  3
-------   -------------   ------
 72
    65
 73
     2
 40
7.5
 49
6.0
 74
     0
 49
-1.5
 74
     0
  0
LTYPE
  5
36
330
5
100
AcDbSymbolTableRecord
100
AcDbLinetypeTableRecord
  2
DASHED_SPACED
 70
     0
  3
----        --------        ----
 72
    65
 73
     2
 40
12.0
 49
6.0
 74
     0
 49
-6.0
 74
     0
  0
LTYPE
  5
37
330
5
100
AcDbSymbolTableRecord
100
AcDbLinetypeTableRecord
  2
LONG_DASHED_DOTTED
 70
     0
  3
------------- --- --------------
 72
    65
 73
     4
 40
15.25
 49
12.0
 74
     0
 49
-1.5
 74
     0
 49
0.25
 74
     0
 49
-1.5
 74
     0
  0
LTYPE
  5
38
330
5
100
AcDbSymbolTableRecord
100
AcDbLinetypeTableRecord
  2
LONG_DASHED_DOUBLE-DOTTED
 70
     0
  3
----------- --- --- ------------
 72
    65
 73
     6
 40
17.0
 49
12.0
 74
     0
 49
-1.5
 74
     0
 49
0.25
 74
     0
 49
-1.5
 74
     0
 49
0.25
 74
     0
 49
-1.5
 74
     0
  0
LTYPE
  5
39
330
5
100
AcDbSymbolTableRecord
100
AcDbLinetypeTableRecord
  2
LONG_DASHED_TRIPLICATE-DOTTED
 70
     0
  3
--------- --- --- --- ----------
 72
    65
 73
     8
 40
18.75
 49
12.0
 74
     0
 49
-1.5
 74
     0
 49
0.25
 74
     0
 49
-1.5
 74
     0
 49
0.25
 74
     0
 49
-1.5
 74
     0
 49
0.25
 74
     0
 49
-1.5
 74
     0
  0
LTYPE
  5
3A
330
5
100
AcDbSymbolTableRecord
100
AcDbLinetypeTableRecord
  2
DOTTED
 70
     0
  3
   -       -       -       -    
 72
    65
 73
     2
 40
1.75
 49
0.25
 74
     0
 49
-1.5
 74
     0
  0
LTYPE
  5
3B
330
5
100
AcDbSymbolTableRecord
100
AcDbLinetypeTableRecord
  2
CHAIN
 70
     0
  3
-------------- -- --------------
 72
    65
 73
     4
 40
18.5
 49
12.0
 74
     0
 49
-1.5
 74
     0
 49
3.5
 74
     0
 49
-1.5
 74
     0
  0
LTYPE
  5
3C
330
5
100
AcDbSymbolTableRecord
100
AcDbLinetypeTableRecord
  2
CHAIN_DOUBLE_DASH
 70
     0
  3
------------ -- -- -------------
 72
    65
 73
     6
 40
23.5
 49
12.0
 74
     0
 49
-1.5
 74
     0
 49
3.5
 74
     0
 49
-1.5
 74
     0
 49
3.5
 74
     0
 49
-1.5
 74
     0
  0
LTYPE
  5
3D
330
5
100
AcDbSymbolTableRecord
100
AcDbLinetypeTableRecord
  2
DASHED_DOTTED
 70
     0
  3
-----------     -     ----------
 72
    65
 73
     4
 40
9.25
 49
6.0
 74
     0
 49
-1.5
 74
     0
 49
0.25
 74
     0
 49
-1.5
 74
     0
  0
LTYPE
  5
3E
330
5
100
AcDbSymbolTableRecord
100
AcDbLinetypeTableRecord
  2
DOUBLE-DASHED_DOTTED
 70
     0
  3
------   -----------   -   -----
 72
    65
 73
     6
 40
16.75
 49
6.0
 74
     0
 49
-1.5
 74
     0
 49
6.0
 74
     0
 49
-1.5
 74
     0
 49
0.25
 74
     0
 49
-1.5
 74
     0
  0
LTYPE
  5
3F
330
5
100
AcDbSymbolTableRecord
100
AcDbLinetypeTableRecord
  2
DASHED_DOUBLE-DOTTED
 70
     0
  3
---------    -    -    ---------
 72
    65
 73
     6
 40
11.0
 49
6.0
 74
     0
 49
-1.5
 74
     0
 49
0.25
 74
     0
 49
-1.5
 74
     0
 49
0.25
 74
     0
 49
-1.5
 74
     0
  0
LTYPE
  5
40
330
5
100
AcDbSymbolTableRecord
100
AcDbLinetypeTableRecord
  2
DOUBLE-DASHED_DOUBLE-DOTTED
 70
     0
  3
-----   ---------   -   -   ----
 72
    65
 73
     8
 40
18.5
 49
6.0
 74
     0
 49
-1.5
 74
     0
 49
6.0
 74
     0
 49
-1.5
 74
     0
 49
0.25
 74
     0
 49
-1.5
 74
     0
 49
0.25
 74
     0
 49
-1.5
 74
     0
  0
LTYPE
  5
41
330
5
100
AcDbSymbolTableRecord
100
AcDbLinetypeTableRecord
  2
DASHED_TRIPLICATE-DOTTED
 70
     0
  3
-------    -    -    -    ------
 72
    65
 73
     8
 40
12.75
 49
6.0
 74
     0
 49
-1.5
 74
     0
 49
0.25
 74
     0
 49
-1.5
 74
     0
 49
0.25
 74
     0
 49
-1.5
 74
     0
 49
0.25
 74
     0
 49
-1.5
 74
     0
  0
LTYPE
  5
42
330
5
100
AcDbSymbolTableRecord
100
AcDbLinetypeTableRecord
  2
DOUBLE-DASHED_TRIPLICATE-DOTTED
 70
     0
  3
-----  ---------  -  -  -  -----
 72
    65
 73
    10
 40
20.25
 49
6.0
 74
     0
 49
-1.5
 74
     0
 49
6.0
 74
     0
 49
-1.5
 74
     0
 49
0.25
 74
     0
 49
-1.5
 74
     0
 49
0.25
 74
     0
 49
-1.5
 74
     0
 49
0.25
 74
     0
 49
-1.5
 74
     0
  0
LTYPE
  5
43
330
5
100
AcDbSymbolTableRecord
100
AcDbLinetypeTableRecord
  2
UNDEFINED
 70
     0
  3
--------------------------------
 72
    65
 73
     0
 40
0.0
  0
LTYPE
  5
44
330
5
100
AcDbSymbolTableRecord
100
AcDbLinetypeTableRecord
  2
PLINE2
 70
     0
  3
------     -----------     -----
 72
    65
 73
     2
 40
3.0
 49
2.1
 74
     0
 49
-0.9
 74
     0
  0
LTYPE
  5
45
330
5
100
AcDbSymbolTableRecord
100
AcDbLinetypeTableRecord
  2
PLINE3
 70
     0
  3
------------   ---   -----------
 72
    65
 73
     4
 40
10.0
 49
7.0
 74
     0
 49
-1.0
 74
     0
 49
1.0
 74
     0
 49
-1.0
 74
     0
  0
LTYPE
  5
46
330
5
100
AcDbSymbolTableRecord
100
AcDbLinetypeTableRecord
  2
PLINE4
 70
     0
  3
---------   ---   ---   --------
 72
    65
 73
     6
 40
10.0
 49
5.0
 74
     0
 49
-1.0
 74
     0
 49
1.0
 74
     0
 49
-1.0
 74
     0
 49
1.0
 74
     0
 49
-1.0
 74
     0
  0
LTYPE
  5
47
330
5
100
AcDbSymbolTableRecord
100
AcDbLinetypeTableRecord
  2
PLINE5
 70
     0
  3
------     -----------     -----
 72
    65
 73
     2
 40
5.0
 49
3.5
 74
     0
 49
-1.5
 74
     0
  0
LTYPE
  5
48
330
5
100
AcDbSymbolTableRecord
100
AcDbLinetypeTableRecord
  2
PLINE6
 70
     0
  3
------------   ---   -----------
 72
    65
 73
     4
 40
15.0
 49
10.5
 74
     0
 49
-1.5
 74
     0
 49
1.5
 74
     0
 49
-1.5
 74
     0
  0
LTYPE
  5
49
330
5
100
AcDbSymbolTableRecord
100
AcDbLinetypeTableRecord
  2
PLINE7
 70
     0
  3
---------   ---   ---   --------
 72
    65
 73
     6
 40
15.0
 49
7.5
 74
     0
 49
-1.5
 74
     0
 49
1.5
 74
     0
 49
-1.5
 74
     0
 49
1.5
 74
     0
 49
-1.5
 74
     0
  0
LTYPE
  5
4A
330
5
100
AcDbSymbolTableRecord
100
AcDbLinetypeTableRecord
  2
PLINE8
 70
     0
  3
------     -----------     -----
 72
    65
 73
     2
 40
7.0
 49
4.9
 74
     0
 49
-2.1
 74
     0
  0
LTYPE
  5
4B
330
5
100
AcDbSymbolTableRecord
100
AcDbLinetypeTableRecord
  2
PLINE9
 70
     0
  3
------------   ---   -----------
 72
    65
 73
     4
 40
20.0
 49
14.0
 74
     0
 49
-2.0
 74
     0
 49
2.0
 74
     0
 49
-2.0
 74
     0
  0
LTYPE
  5
4C
330
5
100
AcDbSymbolTableRecord
100
AcDbLinetypeTableRecord
  2
PLINE10
 70
     0
  3
---------   ---   ---   --------
 72
    65
 73
     6
 40
20.0
 49
10.0
 74
     0
 49
-2.0
 74
     0
 49
2.0
 74
     0
 49
-2.0
 74
     0
 49
2.0
 74
     0
 49
-2.0
 74
     0
  0
LTYPE
  5
4D
330
5
100
AcDbSymbolTableRecord
100
AcDbLinetypeTableRecord
  2
PLINE11
 70
     0
  3
------     -----------     -----
 72
    65
 73
     2
 40
9.0
 49
6.299999999999999
 74
     0
 49
-2.7
 74
     0
  0
LTYPE
  5
4E
330
5
100
AcDbSymbolTableRecord
100
AcDbLinetypeTableRecord
  2
PLINE12
 70
     0
  3
------------   ---   -----------
 72
    65
 73
     4
 40
25.0
 49
17.5
 74
     0
 49
-2.5
 74
     0
 49
2.5
 74
     0
 49
-2.5
 74
     0
  0
LTYPE
  5
4F
330
5
100
AcDbSymbolTableRecord
100
AcDbLinetypeTableRecord
  2
PLINE13
 70
     0
  3
---------   ---   ---   --------
 72
    65
 73
     6
 40
25.0
 49
12.5
 74
     0
 49
-2.5
 74
     0
 49
2.5
 74
     0
 49
-2.5
 74
     0
 49
2.5
 74
     0
 49
-2.5
 74
     0
  0
LTYPE
  5
50
330
5
100
AcDbSymbolTableRecord
100
AcDbLinetypeTableRecord
  2
PLINE14
 70
     0
  3
------     -----------     -----
 72
    65
 73
     2
 40
11.0
 49
7.7
 74
     0
 49
-3.299999999999999
 74
     0
  0
LTYPE
  5
51
330
5
100
AcDbSymbolTableRecord
100
AcDbLinetypeTableRecord
  2
PLINE15
 70
     0
  3
------------   ---   -----------
 72
    65
 73
     4
 40
30.0
 49
21.0
 74
     0
 49
-3.0
 74
     0
 49
3.0
 74
     0
 49
-3.0
 74
     0
  0
LTYPE
  5
52
330
5
100
AcDbSymbolTableRecord
100
AcDbLinetypeTableRecord
  2
PLINE16
 70
     0
  3
---------   ---   ---   --------
 72
    65
 73
     6
 40
30.0
 49
15.0
 74
     0
 49
-3.0
 74
     0
 49
3.0
 74
     0
 49
-3.0
 74
     0
 49
3.0
 74
     0
 49
-3.0
 74
     0
  0
ENDTAB
  0
TABLE
  2
LAYER
  5
2
102
{ACAD_XDICTIONARY
360
175
102
}
330
0
100
AcDbSymbolTable
 70
     6
  0
LAYER
  5
10
330
2
100
AcDbSymbolTableRecord
100
AcDbLayerTableRecord
  2
0
 70
     0
 62
     7
  6
CONTINUOUS
370
    -3
390
F
  0
LAYER
  5
128
330
2
100
AcDbSymbolTableRecord
100
AcDbLayerTableRecord
  2
Defpoints
 70
     0
 62
     7
  6
CONTINUOUS
290
     0
370
    -3
390
F
  0
LAYER
  5
178
330
2
100
AcDbSymbolTableRecord
100
AcDbLayerTableRecord
  2
寸法
 70
     0
 62
     7
  6
CONTINUOUS
370
    -3
390
F
  0
LAYER
  5
179
330
2
100
AcDbSymbolTableRecord
100
AcDbLayerTableRecord
  2
躯体
 70
     0
 62
     7
  6
CONTINUOUS
370
    -3
390
F
  0
LAYER
  5
17A
330
2
100
AcDbSymbolTableRecord
100
AcDbLayerTableRecord
  2
笠木
 70
     0
 62
     7
  6
CONTINUOUS
370
    -3
390
F
  0
LAYER
  5
17B
330
2
100
AcDbSymbolTableRecord
100
AcDbLayerTableRecord
  2
受金具
 70
     0
 62
     7
  6
CONTINUOUS
370
    -3
390
F
  0
ENDTAB
  0
TABLE
  2
STYLE
  5
3
330
0
100
AcDbSymbolTable
 70
     4
  0
STYLE
  5
11
330
3
100
AcDbSymbolTableRecord
100
AcDbTextStyleTableRecord
  2
STANDARD
 70
     0
 40
0.0
 41
1.0
 50
0.0
 71
     0
 42
0.2
  3
txt
  4
bigfont.shx
  0
STYLE
  5
53
330
3
100
AcDbSymbolTableRecord
100
AcDbTextStyleTableRecord
  2
TATEGAKI
 70
     4
 40
0.0
 41
1.0
 50
0.0
 71
     0
 42
1.0
  3
txt
  4
bigfont.shx
  0
STYLE
  5
123
330
3
100
AcDbSymbolTableRecord
100
AcDbTextStyleTableRecord
  2
ACAD
 70
     0
 40
5.0
 41
0.8
 50
0.0
 71
     0
 42
5.0
  3
romans.shx
  4
extfont.shx
  0
STYLE
  5
3A5F
330
3
100
AcDbSymbolTableRecord
100
AcDbTextStyleTableRecord
  2
VERTXT
 70
     4
 40
0.0
 41
0.8582679999999999
 50
0.0
 71
     0
 42
3.5
  3
txt.shx
  4
BIGFONT
  0
ENDTAB
  0
TABLE
  2
VIEW
  5
6
330
0
100
AcDbSymbolTable
 70
     0
  0
ENDTAB
  0
TABLE
  2
UCS
  5
7
330
0
100
AcDbSymbolTable
 70
     0
  0
ENDTAB
  0
TABLE
  2
APPID
  5
9
330
0
100
AcDbSymbolTable
 70
     9
  0
APPID
  5
12
330
9
100
AcDbSymbolTableRecord
100
AcDbRegAppTableRecord
  2
ACAD
 70
     0
  0
APPID
  5
3EEF
330
9
100
AcDbSymbolTableRecord
100
AcDbRegAppTableRecord
  2
ACAD_DSTYLE_DIMTEXT_FILL
 70
     0
  0
APPID
  5
3EF0
330
9
100
AcDbSymbolTableRecord
100
AcDbRegAppTableRecord
  2
ACAD_DSTYLE_DIMEXT_LENGTH
 70
     0
  0
APPID
  5
3EF1
330
9
100
AcDbSymbolTableRecord
100
AcDbRegAppTableRecord
  2
ACAD_DSTYLE_DIMEXT_ENABLED
 70
     0
  0
APPID
  5
3EF2
330
9
100
AcDbSymbolTableRecord
100
AcDbRegAppTableRecord
  2
ACAD_DSTYLE_DIM_LINETYPE
 70
     0
  0
APPID
  5
3EF3
330
9
100
AcDbSymbolTableRecord
100
AcDbRegAppTableRecord
  2
ACAD_DSTYLE_DIM_EXT1_LINETYPE
 70
     0
  0
APPID
  5
3EF4
330
9
100
AcDbSymbolTableRecord
100
AcDbRegAppTableRecord
  2
ACAD_DSTYLE_DIM_EXT2_LINETYPE
 70
     0
  0
APPID
  5
3FB0
330
9
100
AcDbSymbolTableRecord
100
AcDbRegAppTableRecord
  2
ACAD_DSTYLE_DIMJOGGED_JOGANGLE_SYMBOL
 70
     0
  0
APPID
  5
4018
330
9
100
AcDbSymbolTableRecord
100
AcDbRegAppTableRecord
  2
ACAD_DSTYLE_DIMARC_LENGTH_SYMBOL
 70
     0
  0
ENDTAB
  0
TABLE
  2
DIMSTYLE
  5
A
330
0
100
AcDbSymbolTable
 70
     3
100
AcDbDimStyleTable
 71
     2
340
2CBB
340
126
  0
DIMSTYLE
105
11C
330
A
100
AcDbSymbolTableRecord
100
AcDbDimStyleTableRecord
  2
Standard
 70
     0
340
11
  0
DIMSTYLE
105
126
330
A
100
AcDbSymbolTableRecord
100
AcDbDimStyleTableRecord
  2
AutoCAD
 70
     0
 41
1.0
 42
0.0
 44
0.0
 73
     0
 77
     1
140
5.0
147
1.0
174
     1
176
     4
177
     4
178
     3
271
     0
272
     0
289
     0
340
123
341
15B0
342
11E
  0
DIMSTYLE
105
2CBB
102
{ACAD_REACTORS
330
3D81
330
3D8E
330
3DA7
330
3DBA
330
3DC7
330
3DD3
330
3DE0
330
3DED
330
3E5E
102
}
330
A
100
AcDbSymbolTableRecord
100
AcDbDimStyleTableRecord
  2
111
 70
     0
 41
1.0
 42
0.0
 44
0.0
 73
     0
 77
     1
140
5.0
147
1.0
174
     1
176
     4
177
     4
178
     3
271
     0
272
     0
289
     0
340
123
341
15B0
342
3FE1
1001
ACAD_DSTYLE_DIMJOGGED_JOGANGLE_SYMBOL
1070
   384
1040
0.7853981633974483
1001
ACAD_DSTYLE_DIMEXT_LENGTH
1070
   378
1040
0.0
  0
ENDTAB
  0
TABLE
  2
BLOCK_RECORD
  5
1
330
0
100
AcDbSymbolTable
 70
    14
  0
BLOCK_RECORD
  5
1E
102
{ACAD_XDICTIONARY
360
28B
102
}
330
1
100
AcDbSymbolTableRecord
100
AcDbBlockTableRecord
  2
*Model_Space
340
21
  0
BLOCK_RECORD
  5
1A
102
{ACAD_XDICTIONARY
360
28D
102
}
330
1
100
AcDbSymbolTableRecord
100
AcDbBlockTableRecord
  2
*Paper_Space
340
1D
  0
BLOCK_RECORD
  5
11E
330
1
100
AcDbSymbolTableRecord
100
AcDbBlockTableRecord
  2
_Dot
340
0
  0
BLOCK_RECORD
  5
15B0
330
1
100
AcDbSymbolTableRecord
100
AcDbBlockTableRecord
  2
_None
340
0
  0
BLOCK_RECORD
  5
2CB5
330
1
100
AcDbSymbolTableRecord
100
AcDbBlockTableRecord
  2
_Open30
340
0
  0
BLOCK_RECORD
  5
35E3
330
1
100
AcDbSymbolTableRecord
100
AcDbBlockTableRecord
  2
_DotBlank
340
0
  0
BLOCK_RECORD
  5
3D82
330
1
100
AcDbSymbolTableRecord
100
AcDbBlockTableRecord
  2
*D4
340
0
  0
BLOCK_RECORD
  5
3D8F
330
1
100
AcDbSymbolTableRecord
100
AcDbBlockTableRecord
  2
*D5
340
0
  0
BLOCK_RECORD
  5
3DA8
330
1
100
AcDbSymbolTableRecord
100
AcDbBlockTableRecord
  2
*D6
340
0
  0
BLOCK_RECORD
  5
3DBB
330
1
100
AcDbSymbolTableRecord
100
AcDbBlockTableRecord
  2
*D7
340
0
  0
BLOCK_RECORD
  5
3DC8
330
1
100
AcDbSymbolTableRecord
100
AcDbBlockTableRecord
  2
*D8
340
0
  0
BLOCK_RECORD
  5
3DD4
330
1
100
AcDbSymbolTableRecord
100
AcDbBlockTableRecord
  2
*D9
340
0
  0
BLOCK_RECORD
  5
3DE1
330
1
100
AcDbSymbolTableRecord
100
AcDbBlockTableRecord
  2
*D10
340
0
  0
BLOCK_RECORD
  5
3DEE
330
1
100
AcDbSymbolTableRecord
100
AcDbBlockTableRecord
  2
*D11
340
0
  0
BLOCK_RECORD
  5
3E5F
330
1
100
AcDbSymbolTableRecord
100
AcDbBlockTableRecord
  2
*D12
340
0
  0
BLOCK_RECORD
  5
3FE1
330
1
100
AcDbSymbolTableRecord
100
AcDbBlockTableRecord
  2
_DotSmall
340
0
102
{BLKREFS
331
4020
331
4021
331
4029
331
402A
331
4031
331
4032
331
4039
331
403A
331
4041
331
4042
331
404A
331
404B
331
4053
331
4054
331
405C
331
405D
331
4065
331
4066
102
}
  0
ENDTAB
  0
ENDSEC
  0
SECTION
  2
BLOCKS
  0
BLOCK
  5
1F
330
1E
100
AcDbEntity
  8
0
100
AcDbBlockBegin
  2
*Model_Space
 70
     0
 10
0.0
 20
0.0
 30
0.0
  3
*Model_Space
  1

  0
ENDBLK
  5
20
330
1E
100
AcDbEntity
  8
0
100
AcDbBlockEnd
  0
BLOCK
  5
1B
330
1A
100
AcDbEntity
 67
     1
  8
0
100
AcDbBlockBegin
  2
*Paper_Space
 70
     0
 10
0.0
 20
0.0
 30
0.0
  3
*Paper_Space
  1

  0
ENDBLK
  5
1C
330
1A
100
AcDbEntity
 67
     1
  8
0
100
AcDbBlockEnd
  0
BLOCK
  5
121
330
11E
100
AcDbEntity
  8
0
100
AcDbBlockBegin
  2
_Dot
 70
     0
 10
0.0
 20
0.0
 30
0.0
  3
_Dot
  1

  0
LWPOLYLINE
  5
11F
330
11E
100
AcDbEntity
  8
0
  6
ByBlock
 62
     0
100
AcDbPolyline
 90
        2
 70
     1
 43
0.5
 10
-0.25
 20
0.0
 42
1.0
 10
0.25
 20
0.0
 42
1.0
  0
LINE
  5
120
330
11E
100
AcDbEntity
  8
0
  6
ByBlock
 62
     0
370
    -2
100
AcDbLine
 10
-0.5
 20
0.0
 30
0.0
 11
-1.0
 21
0.0
 31
0.0
  0
ENDBLK
  5
122
330
11E
100
AcDbEntity
  8
0
100
AcDbBlockEnd
  0
BLOCK
  5
15B1
330
15B0
100
AcDbEntity
  8
0
100
AcDbBlockBegin
  2
_None
 70
     0
 10
0.0
 20
0.0
 30
0.0
  3
_None
  1

  0
ENDBLK
  5
15B2
330
15B0
100
AcDbEntity
  8
0
100
AcDbBlockEnd
  0
BLOCK
  5
2CB9
330
2CB5
100
AcDbEntity
  8
0
100
AcDbBlockBegin
  2
_Open30
 70
     0
 10
0.0
 20
0.0
 30
0.0
  3
_Open30
  1

  0
LINE
  5
2CB6
330
2CB5
100
AcDbEntity
  8
0
  6
ByBlock
 62
     0
370
    -2
100
AcDbLine
 10
-1.0
 20
0.26794919
 30
0.0
 11
0.0
 21
0.0
 31
0.0
  0
LINE
  5
2CB7
330
2CB5
100
AcDbEntity
  8
0
  6
ByBlock
 62
     0
370
    -2
100
AcDbLine
 10
0.0
 20
0.0
 30
0.0
 11
-1.0
 21
-0.26794919
 31
0.0
  0
LINE
  5
2CB8
330
2CB5
100
AcDbEntity
  8
0
  6
ByBlock
 62
     0
370
    -2
100
AcDbLine
 10
0.0
 20
0.0
 30
0.0
 11
-1.0
 21
0.0
 31
0.0
  0
ENDBLK
  5
2CBA
330
2CB5
100
AcDbEntity
  8
0
100
AcDbBlockEnd
  0
BLOCK
  5
35E6
330
35E3
100
AcDbEntity
  8
0
100
AcDbBlockBegin
  2
_DotBlank
 70
     0
 10
0.0
 20
0.0
 30
0.0
  3
_DotBlank
  1

  0
CIRCLE
  5
35E4
330
35E3
100
AcDbEntity
  8
0
  6
ByBlock
 62
     0
370
    -2
100
AcDbCircle
 10
0.0
 20
0.0
 30
0.0
 40
0.5
  0
LINE
  5
35E5
330
35E3
100
AcDbEntity
  8
0
  6
ByBlock
 62
     0
370
    -2
100
AcDbLine
 10
-0.5
 20
0.0
 30
0.0
 11
-1.0
 21
0.0
 31
0.0
  0
ENDBLK
  5
35E7
330
35E3
100
AcDbEntity
  8
0
100
AcDbBlockEnd
  0
BLOCK
  5
3D8C
330
3D82
100
AcDbEntity
  8
0
100
AcDbBlockBegin
  2
*D4
 70
     1
 10
0.0
 20
0.0
 30
0.0
  3
*D4
  1

  0
LINE
  5
401D
330
3D82
100
AcDbEntity
  8
寸法
  6
Continuous
 62
     4
370
    -2
100
AcDbLine
 10
1012.42124392301
 20
-20.60386335125258
 30
0.0
 11
1012.42124392301
 21
-5.291811177030837
 31
0.0
  0
LINE
  5
401E
330
3D82
100
AcDbEntity
  8
寸法
  6
Continuous
 62
     4
370
    -2
100
AcDbLine
 10
1112.42124392301
 20
-20.60386335125258
 30
0.0
 11
1112.42124392301
 21
-5.291811177030837
 31
0.0
  0
LINE
  5
401F
330
3D82
100
AcDbEntity
  8
寸法
  6
Continuous
 62
     4
370
    -2
100
AcDbLine
 10
1012.42124392301
 20
-5.291811177030837
 30
0.0
 11
1112.42124392301
 21
-5.291811177030837
 31
0.0
  0
INSERT
  5
4020
330
3D82
100
AcDbEntity
  8
寸法
  6
Continuous
 62
     4
370
    -2
100
AcDbBlockReference
  2
_DotSmall
 10
1012.42124392301
 20
-5.291811177030837
 30
0.0
 50
180.0
  0
INSERT
  5
4021
330
3D82
100
AcDbEntity
  8
寸法
  6
Continuous
 62
     4
370
    -2
100
AcDbBlockReference
  2
_DotSmall
 10
1112.42124392301
 20
-5.291811177030837
 30
0.0
  0
MTEXT
  5
4022
330
3D82
100
AcDbEntity
  8
寸法
  6
Continuous
 62
     3
100
AcDbMText
 10
1062.42124392301
 20
-1.791811177030837
 30
0.0
 40
5.0
 41
0.0
 71
     5
 72
     1
  1
\A1;100
  7
ACAD
 73
     1
 44
1.0
1001
ACAD
1000
MTEXTBEGIN
1070
    73
1070
     1
1070
    44
1040
1.0
1070
    74
1070
     0
1000
MTEXTEND
  0
POINT
  5
4023
330
3D82
100
AcDbEntity
  8
Defpoints
  6
Continuous
 62
     0
100
AcDbPoint
 10
1012.42124392301
 20
-20.60386335125258
 30
0.0
  0
POINT
  5
4024
330
3D82
100
AcDbEntity
  8
Defpoints
  6
Continuous
 62
     0
100
AcDbPoint
 10
1112.42124392301
 20
-20.60386335125258
 30
0.0
  0
POINT
  5
4025
330
3D82
100
AcDbEntity
  8
Defpoints
  6
Continuous
 62
     0
100
AcDbPoint
 10
1112.42124392301
 20
-5.291811177030837
 30
0.0
  0
ENDBLK
  5
3D8D
330
3D82
100
AcDbEntity
  8
0
100
AcDbBlockEnd
  0
BLOCK
  5
3D99
330
3D8F
100
AcDbEntity
  8
0
100
AcDbBlockBegin
  2
*D5
 70
     1
 10
0.0
 20
0.0
 30
0.0
  3
*D5
  1

  0
LINE
  5
4026
330
3D8F
100
AcDbEntity
  8
寸法
  6
Continuous
 62
     4
370
    -2
100
AcDbLine
 10
1114.434315233513
 20
-27.91808417703084
 30
0.0
 11
1125.15327792301
 21
-27.91808417703084
 31
0.0
  0
LINE
  5
4027
330
3D8F
100
AcDbEntity
  8
寸法
  6
Continuous
 62
     4
370
    -2
100
AcDbLine
 10
1114.434315233513
 20
-39.91808417703081
 30
0.0
 11
1125.15327792301
 21
-39.91808417703081
 31
0.0
  0
LINE
  5
4028
330
3D8F
100
AcDbEntity
  8
寸法
  6
Continuous
 62
     4
370
    -2
100
AcDbLine
 10
1125.15327792301
 20
-27.91808417703084
 30
0.0
 11
1125.15327792301
 21
-39.91808417703081
 31
0.0
  0
INSERT
  5
4029
330
3D8F
100
AcDbEntity
  8
寸法
  6
Continuous
 62
     4
370
    -2
100
AcDbBlockReference
  2
_DotSmall
 10
1125.15327792301
 20
-27.91808417703084
 30
0.0
 50
90.0
  0
INSERT
  5
402A
330
3D8F
100
AcDbEntity
  8
寸法
  6
Continuous
 62
     4
370
    -2
100
AcDbBlockReference
  2
_DotSmall
 10
1125.15327792301
 20
-39.91808417703081
 30
0.0
 50
270.0
  0
MTEXT
  5
402B
330
3D8F
100
AcDbEntity
  8
寸法
  6
Continuous
 62
     3
100
AcDbMText
 10
1121.65327792301
 20
-33.91808417703064
 30
0.0
 40
5.0
 41
0.0
 71
     5
 72
     1
  1
\A1;12
  7
ACAD
 11
0.0000000000000001
 21
1.0
 31
0.0
 73
     1
 44
1.0
1001
ACAD
1000
MTEXTBEGIN
1070
    73
1070
     1
1070
    44
1040
1.0
1070
    74
1070
     0
1000
MTEXTEND
  0
POINT
  5
402C
330
3D8F
100
AcDbEntity
  8
Defpoints
  6
Continuous
 62
     0
100
AcDbPoint
 10
1114.434315233513
 20
-27.91808417703084
 30
0.0
  0
POINT
  5
402D
330
3D8F
100
AcDbEntity
  8
Defpoints
  6
Continuous
 62
     0
100
AcDbPoint
 10
1114.434315233513
 20
-39.91808417703081
 30
0.0
  0
POINT
  5
402E
330
3D8F
100
AcDbEntity
  8
Defpoints
  6
Continuous
 62
     0
100
AcDbPoint
 10
1125.15327792301
 20
-39.91808417703081
 30
0.0
  0
ENDBLK
  5
3D9A
330
3D8F
100
AcDbEntity
  8
0
100
AcDbBlockEnd
  0
BLOCK
  5
3DB0
330
3DA8
100
AcDbEntity
  8
0
100
AcDbBlockBegin
  2
*D6
 70
     1
 10
0.0
 20
0.0
 30
0.0
  3
*D6
  1

  0
LINE
  5
402F
330
3DA8
100
AcDbEntity
  8
寸法
  6
Continuous
 62
     4
370
    -2
100
AcDbLine
 10
1125.15327792301
 20
-49.9180841770308
 30
0.0
 11
1125.15327792301
 21
-56.3831211770308
 31
0.0
  0
MTEXT
  5
4030
330
3DA8
100
AcDbEntity
  8
寸法
  6
Continuous
 62
     3
100
AcDbMText
 10
1121.541721135663
 20
-55.96678557494488
 30
0.0
 40
5.0
 41
0.0
 71
     5
 72
     1
  1
\A1;3.5
  7
ACAD
 11
0.0000000000000001
 21
1.0
 31
0.0
 73
     1
 44
1.0
1001
ACAD
1000
MTEXTBEGIN
1070
    73
1070
     1
1070
    44
1040
1.0
1070
    74
1070
     0
1000
MTEXTEND
  0
INSERT
  5
4031
330
3DA8
100
AcDbEntity
  8
寸法
  6
Continuous
 62
     4
370
    -2
100
AcDbBlockReference
  2
_DotSmall
 10
1125.15327792301
 20
-49.9180841770308
 30
0.0
 50
90.0
  0
INSERT
  5
4032
330
3DA8
100
AcDbEntity
  8
寸法
  6
Continuous
 62
     4
370
    -2
100
AcDbBlockReference
  2
_DotSmall
 10
1125.15327792301
 20
-56.3831211770308
 30
0.0
 50
270.0
  0
POINT
  5
4033
330
3DA8
100
AcDbEntity
  8
Defpoints
  6
Continuous
 62
     0
100
AcDbPoint
 10
1125.15327792301
 20
-49.9180841770308
 30
0.0
  0
POINT
  5
4034
330
3DA8
100
AcDbEntity
  8
Defpoints
  6
Continuous
 62
     0
100
AcDbPoint
 10
1125.15327792301
 20
-56.3831211770308
 30
0.0
  0
POINT
  5
4035
330
3DA8
100
AcDbEntity
  8
Defpoints
  6
Continuous
 62
     0
100
AcDbPoint
 10
1125.15327792301
 20
-56.3831211770308
 30
0.0
  0
ENDBLK
  5
3DB1
330
3DA8
100
AcDbEntity
  8
0
100
AcDbBlockEnd
  0
BLOCK
  5
3DC5
330
3DBB
100
AcDbEntity
  8
0
100
AcDbBlockBegin
  2
*D7
 70
     1
 10
0.0
 20
0.0
 30
0.0
  3
*D7
  1

  0
LINE
  5
4036
330
3DBB
100
AcDbEntity
  8
寸法
  6
Continuous
 62
     4
370
    -2
100
AcDbLine
 10
1007.222871411814
 20
-27.91808417703084
 30
0.0
 11
996.4775889230105
 21
-27.91808417703083
 31
0.0
  0
LINE
  5
4037
330
3DBB
100
AcDbEntity
  8
寸法
  6
Continuous
 62
     4
370
    -2
100
AcDbLine
 10
1007.222871411814
 20
-53.38312117703079
 30
0.0
 11
996.4775889230105
 21
-53.38312117703079
 31
0.0
  0
LINE
  5
4038
330
3DBB
100
AcDbEntity
  8
寸法
  6
Continuous
 62
     4
370
    -2
100
AcDbLine
 10
996.4775889230105
 20
-27.91808417703083
 30
0.0
 11
996.4775889230105
 21
-53.38312117703079
 31
0.0
  0
INSERT
  5
4039
330
3DBB
100
AcDbEntity
  8
寸法
  6
Continuous
 62
     4
370
    -2
100
AcDbBlockReference
  2
_DotSmall
 10
996.4775889230105
 20
-27.91808417703083
 30
0.0
 50
90.0
  0
INSERT
  5
403A
330
3DBB
100
AcDbEntity
  8
寸法
  6
Continuous
 62
     4
370
    -2
100
AcDbBlockReference
  2
_DotSmall
 10
996.4775889230105
 20
-53.38312117703079
 30
0.0
 50
270.0
  0
MTEXT
  5
403B
330
3DBB
100
AcDbEntity
  8
寸法
  6
Continuous
 62
     3
100
AcDbMText
 10
992.9775889230105
 20
-40.65060267703065
 30
0.0
 40
5.0
 41
0.0
 71
     5
 72
     1
  1
\A1;25
  7
ACAD
 11
0.0000000000000001
 21
1.0
 31
0.0
 73
     1
 44
1.0
1001
ACAD
1000
MTEXTBEGIN
1070
    73
1070
     1
1070
    44
1040
1.0
1070
    74
1070
     0
1000
MTEXTEND
  0
POINT
  5
403C
330
3DBB
100
AcDbEntity
  8
Defpoints
  6
Continuous
 62
     0
100
AcDbPoint
 10
1007.222871411814
 20
-27.91808417703084
 30
0.0
  0
POINT
  5
403D
330
3DBB
100
AcDbEntity
  8
Defpoints
  6
Continuous
 62
     0
100
AcDbPoint
 10
1007.222871411814
 20
-53.38312117703079
 30
0.0
  0
POINT
  5
403E
330
3DBB
100
AcDbEntity
  8
Defpoints
  6
Continuous
 62
     0
100
AcDbPoint
 10
996.4775889230105
 20
-53.38312117703079
 30
0.0
  0
ENDBLK
  5
3DC6
330
3DBB
100
AcDbEntity
  8
0
100
AcDbBlockEnd
  0
BLOCK
  5
3DD1
330
3DC8
100
AcDbEntity
  8
0
100
AcDbBlockBegin
  2
*D8
 70
     1
 10
0.0
 20
0.0
 30
0.0
  3
*D8
  1

  0
LINE
  5
403F
330
3DC8
100
AcDbEntity
  8
寸法
  6
Continuous
 62
     4
370
    -2
100
AcDbLine
 10
1007.222871411814
 20
-53.38312117703079
 30
0.0
 11
996.4775889230105
 21
-53.38312117703079
 31
0.0
  0
LINE
  5
4040
330
3DC8
100
AcDbEntity
  8
寸法
  6
Continuous
 62
     4
370
    -2
100
AcDbLine
 10
996.4775889230105
 20
-53.38312117703079
 30
0.0
 11
996.4775889230105
 21
-99.91808417703081
 31
0.0
  0
INSERT
  5
4041
330
3DC8
100
AcDbEntity
  8
寸法
  6
Continuous
 62
     4
370
    -2
100
AcDbBlockReference
  2
_DotSmall
 10
996.4775889230105
 20
-53.38312117703079
 30
0.0
 50
90.0
  0
INSERT
  5
4042
330
3DC8
100
AcDbEntity
  8
寸法
  6
Continuous
 62
     4
370
    -2
100
AcDbBlockReference
  2
_DotSmall
 10
996.4775889230105
 20
-99.91808417703081
 30
0.0
 50
270.0
  0
MTEXT
  5
4043
330
3DC8
100
AcDbEntity
  8
寸法
  6
Continuous
 62
     3
100
AcDbMText
 10
992.9775889230105
 20
-76.65060267703063
 30
0.0
 40
5.0
 41
0.0
 71
     5
 72
     1
  1
\A1;47
  7
ACAD
 11
0.0000000000000001
 21
1.0
 31
0.0
 73
     1
 44
1.0
1001
ACAD
1000
MTEXTBEGIN
1070
    73
1070
     1
1070
    44
1040
1.0
1070
    74
1070
     0
1000
MTEXTEND
  0
POINT
  5
4044
330
3DC8
100
AcDbEntity
  8
Defpoints
  6
Continuous
 62
     0
100
AcDbPoint
 10
1007.222871411814
 20
-53.38312117703079
 30
0.0
  0
POINT
  5
4045
330
3DC8
100
AcDbEntity
  8
Defpoints
  6
Continuous
 62
     0
100
AcDbPoint
 10
996.4775889230105
 20
-99.91808417703081
 30
0.0
  0
POINT
  5
4046
330
3DC8
100
AcDbEntity
  8
Defpoints
  6
Continuous
 62
     0
100
AcDbPoint
 10
996.4775889230105
 20
-99.91808417703081
 30
0.0
  0
ENDBLK
  5
3DD2
330
3DC8
100
AcDbEntity
  8
0
100
AcDbBlockEnd
  0
BLOCK
  5
3DDE
330
3DD4
100
AcDbEntity
  8
0
100
AcDbBlockBegin
  2
*D9
 70
     1
 10
0.0
 20
0.0
 30
0.0
  3
*D9
  1

  0
LINE
  5
4047
330
3DD4
100
AcDbEntity
  8
寸法
  6
Continuous
 62
     4
370
    -2
100
AcDbLine
 10
1007.222871411814
 20
-27.91808417703084
 30
0.0
 11
986.3935409230107
 21
-27.91808417703083
 31
0.0
  0
LINE
  5
4048
330
3DD4
100
AcDbEntity
  8
寸法
  6
Continuous
 62
     4
370
    -2
100
AcDbLine
 10
1007.222871411814
 20
-99.91808417703081
 30
0.0
 11
986.3935409230107
 21
-99.91808417703079
 31
0.0
  0
LINE
  5
4049
330
3DD4
100
AcDbEntity
  8
寸法
  6
Continuous
 62
     4
370
    -2
100
AcDbLine
 10
986.3935409230107
 20
-27.91808417703083
 30
0.0
 11
986.3935409230107
 21
-99.91808417703079
 31
0.0
  0
INSERT
  5
404A
330
3DD4
100
AcDbEntity
  8
寸法
  6
Continuous
 62
     4
370
    -2
100
AcDbBlockReference
  2
_DotSmall
 10
986.3935409230107
 20
-27.91808417703083
 30
0.0
 50
90.0
  0
INSERT
  5
404B
330
3DD4
100
AcDbEntity
  8
寸法
  6
Continuous
 62
     4
370
    -2
100
AcDbBlockReference
  2
_DotSmall
 10
986.3935409230107
 20
-99.91808417703079
 30
0.0
 50
270.0
  0
MTEXT
  5
404C
330
3DD4
100
AcDbEntity
  8
寸法
  6
Continuous
 62
     3
100
AcDbMText
 10
982.8935409230107
 20
-63.91808417703065
 30
0.0
 40
5.0
 41
0.0
 71
     5
 72
     1
  1
\A1;72
  7
ACAD
 11
0.0000000000000001
 21
1.0
 31
0.0
 73
     1
 44
1.0
1001
ACAD
1000
MTEXTBEGIN
1070
    73
1070
     1
1070
    44
1040
1.0
1070
    74
1070
     0
1000
MTEXTEND
  0
POINT
  5
404D
330
3DD4
100
AcDbEntity
  8
Defpoints
  6
Continuous
 62
     0
100
AcDbPoint
 10
1007.222871411814
 20
-27.91808417703084
 30
0.0
  0
POINT
  5
404E
330
3DD4
100
AcDbEntity
  8
Defpoints
  6
Continuous
 62
     0
100
AcDbPoint
 10
1007.222871411814
 20
-99.91808417703081
 30
0.0
  0
POINT
  5
404F
330
3DD4
100
AcDbEntity
  8
Defpoints
  6
Continuous
 62
     0
100
AcDbPoint
 10
986.3935409230107
 20
-99.91808417703079
 30
0.0
  0
ENDBLK
  5
3DDF
330
3DD4
100
AcDbEntity
  8
0
100
AcDbBlockEnd
  0
BLOCK
  5
3DEB
330
3DE1
100
AcDbEntity
  8
0
100
AcDbBlockBegin
  2
*D10
 70
     1
 10
0.0
 20
0.0
 30
0.0
  3
*D10
  1

  0
LINE
  5
4050
330
3DE1
100
AcDbEntity
  8
寸法
  6
Continuous
 62
     4
370
    -2
100
AcDbLine
 10
1012.42124392301
 20
-106.2468943792119
 30
0.0
 11
1012.42124392301
 21
-121.2063221770308
 31
0.0
  0
LINE
  5
4051
330
3DE1
100
AcDbEntity
  8
寸法
  6
Continuous
 62
     4
370
    -2
100
AcDbLine
 10
1027.42124392301
 20
-106.2468943792119
 30
0.0
 11
1027.42124392301
 21
-121.2063221770308
 31
0.0
  0
LINE
  5
4052
330
3DE1
100
AcDbEntity
  8
寸法
  6
Continuous
 62
     4
370
    -2
100
AcDbLine
 10
1012.42124392301
 20
-121.2063221770308
 30
0.0
 11
1027.42124392301
 21
-121.2063221770308
 31
0.0
  0
INSERT
  5
4053
330
3DE1
100
AcDbEntity
  8
寸法
  6
Continuous
 62
     4
370
    -2
100
AcDbBlockReference
  2
_DotSmall
 10
1012.42124392301
 20
-121.2063221770308
 30
0.0
 50
180.0
  0
INSERT
  5
4054
330
3DE1
100
AcDbEntity
  8
寸法
  6
Continuous
 62
     4
370
    -2
100
AcDbBlockReference
  2
_DotSmall
 10
1027.42124392301
 20
-121.2063221770308
 30
0.0
  0
MTEXT
  5
4055
330
3DE1
100
AcDbEntity
  8
寸法
  6
Continuous
 62
     3
100
AcDbMText
 10
1019.92124392301
 20
-117.7063221770308
 30
0.0
 40
5.0
 41
0.0
 71
     5
 72
     1
  1
\A1;15
  7
ACAD
 73
     1
 44
1.0
1001
ACAD
1000
MTEXTBEGIN
1070
    73
1070
     1
1070
    44
1040
1.0
1070
    74
1070
     0
1000
MTEXTEND
  0
POINT
  5
4056
330
3DE1
100
AcDbEntity
  8
Defpoints
  6
Continuous
 62
     0
100
AcDbPoint
 10
1012.42124392301
 20
-106.2468943792119
 30
0.0
  0
POINT
  5
4057
330
3DE1
100
AcDbEntity
  8
Defpoints
  6
Continuous
 62
     0
100
AcDbPoint
 10
1027.42124392301
 20
-106.2468943792119
 30
0.0
  0
POINT
  5
4058
330
3DE1
100
AcDbEntity
  8
Defpoints
  6
Continuous
 62
     0
100
AcDbPoint
 10
1027.42124392301
 20
-121.2063221770308
 30
0.0
  0
ENDBLK
  5
3DEC
330
3DE1
100
AcDbEntity
  8
0
100
AcDbBlockEnd
  0
BLOCK
  5
3DF8
330
3DEE
100
AcDbEntity
  8
0
100
AcDbBlockBegin
  2
*D11
 70
     1
 10
0.0
 20
0.0
 30
0.0
  3
*D11
  1

  0
LINE
  5
4059
330
3DEE
100
AcDbEntity
  8
寸法
  6
Continuous
 62
     4
370
    -2
100
AcDbLine
 10
1027.42124392301
 20
-106.2468943792119
 30
0.0
 11
1027.42124392301
 21
-121.2063221770308
 31
0.0
  0
LINE
  5
405A
330
3DEE
100
AcDbEntity
  8
寸法
  6
Continuous
 62
     4
370
    -2
100
AcDbLine
 10
1072.42124392301
 20
-106.2468943792119
 30
0.0
 11
1072.42124392301
 21
-121.2063221770308
 31
0.0
  0
LINE
  5
405B
330
3DEE
100
AcDbEntity
  8
寸法
  6
Continuous
 62
     4
370
    -2
100
AcDbLine
 10
1027.42124392301
 20
-121.2063221770308
 30
0.0
 11
1072.42124392301
 21
-121.2063221770308
 31
0.0
  0
INSERT
  5
405C
330
3DEE
100
AcDbEntity
  8
寸法
  6
Continuous
 62
     4
370
    -2
100
AcDbBlockReference
  2
_DotSmall
 10
1027.42124392301
 20
-121.2063221770308
 30
0.0
 50
180.0
  0
INSERT
  5
405D
330
3DEE
100
AcDbEntity
  8
寸法
  6
Continuous
 62
     4
370
    -2
100
AcDbBlockReference
  2
_DotSmall
 10
1072.42124392301
 20
-121.2063221770308
 30
0.0
  0
MTEXT
  5
405E
330
3DEE
100
AcDbEntity
  8
寸法
  6
Continuous
 62
     3
100
AcDbMText
 10
1049.92124392301
 20
-117.7063221770308
 30
0.0
 40
5.0
 41
0.0
 71
     5
 72
     1
  1
\A1;45
  7
ACAD
 73
     1
 44
1.0
1001
ACAD
1000
MTEXTBEGIN
1070
    73
1070
     1
1070
    44
1040
1.0
1070
    74
1070
     0
1000
MTEXTEND
  0
POINT
  5
405F
330
3DEE
100
AcDbEntity
  8
Defpoints
  6
Continuous
 62
     0
100
AcDbPoint
 10
1027.42124392301
 20
-106.2468943792119
 30
0.0
  0
POINT
  5
4060
330
3DEE
100
AcDbEntity
  8
Defpoints
  6
Continuous
 62
     0
100
AcDbPoint
 10
1072.42124392301
 20
-106.2468943792119
 30
0.0
  0
POINT
  5
4061
330
3DEE
100
AcDbEntity
  8
Defpoints
  6
Continuous
 62
     0
100
AcDbPoint
 10
1072.42124392301
 20
-121.2063221770308
 30
0.0
  0
ENDBLK
  5
3DF9
330
3DEE
100
AcDbEntity
  8
0
100
AcDbBlockEnd
  0
BLOCK
  5
3E69
330
3E5F
100
AcDbEntity
  8
0
100
AcDbBlockBegin
  2
*D12
 70
     1
 10
0.0
 20
0.0
 30
0.0
  3
*D12
  1

  0
LINE
  5
4062
330
3E5F
100
AcDbEntity
  8
寸法
  6
Continuous
 62
     4
370
    -2
100
AcDbLine
 10
1114.434315233513
 20
-39.91808417703081
 30
0.0
 11
1125.15327792301
 21
-39.91808417703081
 31
0.0
  0
LINE
  5
4063
330
3E5F
100
AcDbEntity
  8
寸法
  6
Continuous
 62
     4
370
    -2
100
AcDbLine
 10
1114.434315233513
 20
-49.9180841770308
 30
0.0
 11
1125.15327792301
 21
-49.9180841770308
 31
0.0
  0
LINE
  5
4064
330
3E5F
100
AcDbEntity
  8
寸法
  6
Continuous
 62
     4
370
    -2
100
AcDbLine
 10
1125.15327792301
 20
-39.91808417703081
 30
0.0
 11
1125.15327792301
 21
-49.9180841770308
 31
0.0
  0
INSERT
  5
4065
330
3E5F
100
AcDbEntity
  8
寸法
  6
Continuous
 62
     4
370
    -2
100
AcDbBlockReference
  2
_DotSmall
 10
1125.15327792301
 20
-39.91808417703081
 30
0.0
 50
90.0
  0
INSERT
  5
4066
330
3E5F
100
AcDbEntity
  8
寸法
  6
Continuous
 62
     4
370
    -2
100
AcDbBlockReference
  2
_DotSmall
 10
1125.15327792301
 20
-49.9180841770308
 30
0.0
 50
270.0
  0
MTEXT
  5
4067
330
3E5F
100
AcDbEntity
  8
寸法
  6
Continuous
 62
     3
100
AcDbMText
 10
1121.65327792301
 20
-44.91808417703063
 30
0.0
 40
5.0
 41
0.0
 71
     5
 72
     1
  1
\A1;10
  7
ACAD
 11
0.0000000000000001
 21
1.0
 31
0.0
 73
     1
 44
1.0
1001
ACAD
1000
MTEXTBEGIN
1070
    73
1070
     1
1070
    44
1040
1.0
1070
    74
1070
     0
1000
MTEXTEND
  0
POINT
  5
4068
330
3E5F
100
AcDbEntity
  8
Defpoints
  6
Continuous
 62
     0
100
AcDbPoint
 10
1114.434315233513
 20
-39.91808417703081
 30
0.0
  0
POINT
  5
4069
330
3E5F
100
AcDbEntity
  8
Defpoints
  6
Continuous
 62
     0
100
AcDbPoint
 10
1114.434315233513
 20
-49.9180841770308
 30
0.0
  0
POINT
  5
406A
330
3E5F
100
AcDbEntity
  8
Defpoints
  6
Continuous
 62
     0
100
AcDbPoint
 10
1125.15327792301
 20
-49.9180841770308
 30
0.0
  0
ENDBLK
  5
3E6A
330
3E5F
100
AcDbEntity
  8
0
100
AcDbBlockEnd
  0
BLOCK
  5
3FE3
330
3FE1
100
AcDbEntity
  8
0
100
AcDbBlockBegin
  2
_DotSmall
 70
     0
 10
0.0
 20
0.0
 30
0.0
  3
_DotSmall
  1

  0
LWPOLYLINE
  5
3FE2
330
3FE1
100
AcDbEntity
  8
0
  6
ByBlock
 62
     0
100
AcDbPolyline
 90
        2
 70
     1
 43
0.5
 10
-0.0625
 20
0.0
 42
1.0
 10
0.0625
 20
0.0
 42
1.0
  0
ENDBLK
  5
3FE4
330
3FE1
100
AcDbEntity
  8
0
100
AcDbBlockEnd
  0
ENDSEC
  0
SECTION
  2
ENTITIES
  0
ARC
  5
3C23
330
1E
100
AcDbEntity
  8
笠木
  6
Continuous
 62
     2
100
AcDbCircle
 10
1108.12124392301
 20
-43.8095311770308
 30
0.0
 40
3.0
100
AcDbArc
 50
0.0
 51
84.2894070000004
  0
LINE
  5
3C24
330
1E
100
AcDbEntity
  8
笠木
  6
Continuous
 62
     2
100
AcDbLine
 10
1110.19902192301
 20
-39.69586217703079
 30
0.0
 11
1112.42124392301
 21
-41.9180841770308
 31
0.0
  0
LINE
  5
3C25
330
1E
100
AcDbEntity
  8
笠木
  6
Continuous
 62
     2
100
AcDbLine
 10
1103.01930192301
 20
-48.03769617703082
 30
0.0
 11
1111.82318592301
 21
-49.79847317703081
 31
0.0
  0
LINE
  5
3C26
330
1E
100
AcDbEntity
  8
笠木
  6
Continuous
 62
     2
100
AcDbLine
 10
1102.54996892301
 20
-46.61808417703079
 30
0.0
 11
1110.52318592301
 21
-48.21272817703081
 31
0.0
  0
LINE
  5
3C27
330
1E
100
AcDbEntity
  8
躯体
  6
Continuous
 62
     3
100
AcDbLine
 10
1089.63564492301
 20
-165.6582901770308
 30
0.0
 11
1137.42124392301
 21
-117.8726911770308
 31
0.0
  0
LINE
  5
3C28
330
1E
100
AcDbEntity
  8
躯体
  6
Continuous
 62
     3
100
AcDbLine
 10
1087.63564492301
 20
-165.6582901770308
 30
0.0
 11
1137.42124392301
 21
-115.8726911770308
 31
0.0
  0
LINE
  5
3C2B
330
1E
100
AcDbEntity
  8
躯体
  6
Continuous
 62
     3
100
AcDbLine
 10
1120.72418492301
 20
-55.33112117703081
 30
0.0
 11
1036.28816392301
 21
-55.33112117703081
 31
0.0
  0
LINE
  5
3C2C
330
1E
100
AcDbEntity
  8
躯体
  6
Continuous
 62
     2
100
AcDbLine
 10
1031.44424392301
 20
-63.36312117703082
 30
0.0
 11
1133.079243923011
 21
-63.36312117703082
 31
0.0
  0
LINE
  5
3C2D
330
1E
100
AcDbEntity
  8
躯体
  6
Continuous
 62
     3
100
AcDbLine
 10
1133.880243923011
 20
-61.33412117703082
 30
0.0
 11
1032.71631792301
 21
-61.33412117703082
 31
0.0
  0
LINE
  5
3C2E
330
1E
100
AcDbEntity
  8
躯体
  6
Continuous
 62
     3
100
AcDbLine
 10
1134.69724392301
 20
-59.3231211770308
 30
0.0
 11
1033.91288292301
 21
-59.3231211770308
 31
0.0
  0
LINE
  5
3C2F
330
1E
100
AcDbEntity
  8
躯体
  6
Continuous
 62
     2
100
AcDbLine
 10
1137.14197492301
 20
-53.3831211770308
 30
0.0
 11
1037.44724392301
 21
-53.3831211770308
 31
0.0
  0
LINE
  5
3C30
330
1E
100
AcDbEntity
  8
躯体
  6
Continuous
 62
     3
100
AcDbLine
 10
1120.72418492301
 20
-57.30412117703082
 30
0.0
 11
1035.11420892301
 21
-57.30412117703082
 31
0.0
  0
LINE
  5
3C36
330
1E
100
AcDbEntity
  8
躯体
  6
Continuous
 62
     2
100
AcDbLine
 10
1027.42124392301
 20
-165.6582901770308
 30
0.0
 11
1027.42124392301
 21
-67.38612117703081
 31
0.0
  0
LINE
  5
3C37
330
1E
100
AcDbEntity
  8
躯体
  6
PLINE2
 62
     2
100
AcDbLine
 10
1047.42124392301
 20
-63.36312117703082
 30
0.0
 11
1047.42124392301
 21
-165.6582901770308
 31
0.0
  0
LINE
  5
3C39
330
1E
100
AcDbEntity
  8
躯体
  6
Continuous
 62
     3
100
AcDbLine
 10
1027.42124392301
 20
-137.3121511770308
 30
0.0
 11
1047.42124392301
 21
-157.3121511770308
 31
0.0
  0
LINE
  5
3C3A
330
1E
100
AcDbEntity
  8
躯体
  6
Continuous
 62
     3
100
AcDbLine
 10
1027.42124392301
 20
-135.3121511770308
 30
0.0
 11
1047.42124392301
 21
-155.3121511770308
 31
0.0
  0
LINE
  5
3C3B
330
1E
100
AcDbEntity
  8
躯体
  6
Continuous
 62
     3
100
AcDbLine
 10
1027.42124392301
 20
-133.3121511770308
 30
0.0
 11
1047.42124392301
 21
-153.3121511770308
 31
0.0
  0
LINE
  5
3C4A
330
1E
100
AcDbEntity
  8
受金具
  6
Continuous
 62
     3
100
AcDbLine
 10
1042.42267492301
 20
-36.94790217703082
 30
0.0
 11
1044.89830192301
 21
-34.47227417703081
 31
0.0
  0
LINE
  5
3C4B
330
1E
100
AcDbEntity
  8
受金具
  6
Continuous
 62
     3
100
AcDbLine
 10
1043.17255792301
 20
-36.90512517703081
 30
0.0
 11
1045.54112692301
 21
-34.53655617703081
 31
0.0
  0
LINE
  5
3C4C
330
1E
100
AcDbEntity
  8
受金具
  6
Continuous
 62
     3
100
AcDbLine
 10
1043.89959992301
 20
-36.88519017703081
 30
0.0
 11
1046.18395092301
 21
-34.60083917703079
 31
0.0
  0
LINE
  5
3C4D
330
1E
100
AcDbEntity
  8
受金具
  6
Continuous
 62
     3
100
AcDbLine
 10
1044.60581792301
 20
-36.88607917703081
 30
0.0
 11
1046.82677492301
 21
-34.66512117703081
 31
0.0
  0
ARC
  5
3C4E
330
1E
100
AcDbEntity
  8
受金具
  6
Continuous
 62
     2
100
AcDbCircle
 10
1044.22124392301
 20
-61.8831211770308
 30
0.0
 40
25.0
100
AcDbArc
 50
76.11345999999979
 51
103.8865400000002
  0
LINE
  5
3C4F
330
1E
100
AcDbEntity
  8
躯体
  6
Continuous
 62
     3
100
AcDbLine
 10
1027.42124392301
 20
-84.87690517703081
 30
0.0
 11
1047.42124392301
 21
-104.8769051770308
 31
0.0
  0
LINE
  5
3C50
330
1E
100
AcDbEntity
  8
躯体
  6
Continuous
 62
     3
100
AcDbLine
 10
1027.42124392301
 20
-82.87690517703081
 30
0.0
 11
1047.42124392301
 21
-102.8769051770308
 31
0.0
  0
LINE
  5
3C51
330
1E
100
AcDbEntity
  8
躯体
  6
Continuous
 62
     3
100
AcDbLine
 10
1027.42124392301
 20
-80.8769051770308
 30
0.0
 11
1047.42124392301
 21
-100.8769051770308
 31
0.0
  0
LINE
  5
3C52
330
1E
100
AcDbEntity
  8
笠木
  6
Continuous
 62
     2
100
AcDbLine
 10
1110.19902192301
 20
-39.69586217703079
 30
0.0
 11
1032.42124392301
 21
-31.91808417703081
 31
0.0
  0
LINE
  5
3C53
330
1E
100
AcDbEntity
  8
笠木
  6
Continuous
 62
     2
100
AcDbLine
 10
1108.419754923011
 20
-40.82441917703081
 30
0.0
 11
1031.83013992301
 21
-33.16545817703082
 31
0.0
  0
LINE
  5
3C54
330
1E
100
AcDbEntity
  8
受金具
  6
Continuous
 62
     2
100
AcDbLine
 10
1014.22124392301
 20
-84.88312117703079
 30
0.0
 11
1020.41735992301
 21
-53.9025401770308
 31
0.0
  0
LINE
  5
3C55
330
1E
100
AcDbEntity
  8
受金具
  6
Continuous
 62
     2
100
AcDbLine
 10
1016.82699992301
 20
-89.7009091770308
 30
0.0
 11
1023.68861492301
 21
-55.39283117703078
 31
0.0
  0
LINE
  5
3C56
330
1E
100
AcDbEntity
  8
笠木
  6
Continuous
 62
     2
100
AcDbLine
 10
1013.72124392301
 20
-81.4180841770308
 30
0.0
 11
1013.72124392301
 21
-32.66953117703079
 31
0.0
  0
LINE
  5
3C58
330
1E
100
AcDbEntity
  8
笠木
  6
Continuous
 62
     2
100
AcDbLine
 10
1012.42124392301
 20
-29.91808417703081
 30
0.0
 11
1012.42124392301
 21
-99.4180841770308
 31
0.0
  0
LINE
  5
3C60
330
1E
100
AcDbEntity
  8
笠木
  6
Continuous
 62
     2
100
AcDbLine
 10
1013.72124392301
 20
-92.9180841770308
 30
0.0
 11
1013.72124392301
 21
-99.4180841770308
 31
0.0
  0
ARC
  5
3C61
330
1E
100
AcDbEntity
  8
笠木
  6
Continuous
 62
     2
100
AcDbCircle
 10
1012.92124392301
 20
-99.4180841770308
 30
0.0
 40
0.5
100
AcDbArc
 50
180.0
 51
270.0
  0
LINE
  5
3C62
330
1E
100
AcDbEntity
  8
笠木
  6
Continuous
 62
     2
100
AcDbLine
 10
1012.92124392301
 20
-99.91808417703081
 30
0.0
 11
1013.22124392301
 21
-99.91808417703081
 31
0.0
  0
ARC
  5
3C63
330
1E
100
AcDbEntity
  8
笠木
  6
Continuous
 62
     2
100
AcDbCircle
 10
1013.22124392301
 20
-99.4180841770308
 30
0.0
 40
0.5
100
AcDbArc
 50
270.0
 51
0.0
  0
LINE
  5
3C64
330
1E
100
AcDbEntity
  8
笠木
  6
Continuous
 62
     2
100
AcDbLine
 10
1013.72124392301
 20
-82.41808417703081
 30
0.0
 11
1013.72124392301
 21
-85.4180841770308
 31
0.0
  0
ARC
  5
3C65
330
1E
100
AcDbEntity
  8
受金具
  6
Continuous
 62
     2
100
AcDbCircle
 10
1014.72124392301
 20
-89.34693717703082
 30
0.0
 40
0.5
100
AcDbArc
 50
180.0
 51
274.000000000003
  0
ARC
  5
3C66
330
1E
100
AcDbEntity
  8
笠木
  6
Continuous
 62
     2
100
AcDbCircle
 10
1014.22124392301
 20
-89.38190017703082
 30
0.0
 40
0.5
100
AcDbArc
 50
180.0
 51
274.000000000003
  0
LINE
  5
3C67
330
1E
100
AcDbEntity
  8
受金具
  6
Continuous
 62
     2
100
AcDbLine
 10
1016.82699992301
 20
-89.7009091770308
 30
0.0
 11
1014.75612192301
 21
-89.84571917703082
 31
0.0
  0
LINE
  5
3C68
330
1E
100
AcDbEntity
  8
笠木
  6
Continuous
 62
     2
100
AcDbLine
 10
1014.25612192301
 20
-89.88068217703078
 30
0.0
 11
1017.68636592301
 21
-89.64081617703081
 31
0.0
  0
LINE
  5
3C69
330
1E
100
AcDbEntity
  8
笠木
  6
Continuous
 62
     2
100
AcDbLine
 10
1013.72124392301
 20
-92.9180841770308
 30
0.0
 11
1017.14188392301
 21
-91.9187481770308
 31
0.0
  0
ARC
  5
3C6A
330
1E
100
AcDbEntity
  8
笠木
  6
Continuous
 62
     2
100
AcDbCircle
 10
1017.72124392301
 20
-90.13959817703081
 30
0.0
 40
0.5
100
AcDbArc
 50
0.0
 51
94.00000000000302
  0
ARC
  5
3C6B
330
1E
100
AcDbEntity
  8
笠木
  6
Continuous
 62
     2
100
AcDbCircle
 10
1016.72124392301
 20
-90.47893417703079
 30
0.0
 40
1.5
100
AcDbArc
 50
286.2856719999988
 51
0.0
  0
LINE
  5
3C6C
330
1E
100
AcDbEntity
  8
笠木
  6
Continuous
 62
     2
100
AcDbLine
 10
1018.22124392301
 20
-90.13959817703081
 30
0.0
 11
1018.22124392301
 21
-90.47893417703079
 31
0.0
  0
LINE
  5
3C6D
330
1E
100
AcDbEntity
  8
笠木
  6
Continuous
 62
     2
100
AcDbLine
 10
1013.72124392301
 20
-86.4180841770308
 30
0.0
 11
1013.72124392301
 21
-89.38190017703082
 31
0.0
  0
LINE
  5
3C6E
330
1E
100
AcDbEntity
  8
受金具
  6
Continuous
 62
     2
100
AcDbLine
 10
1014.22124392301
 20
-84.88312117703079
 30
0.0
 11
1014.22124392301
 21
-89.34693717703082
 31
0.0
  0
ARC
  5
3C6F
330
1E
100
AcDbEntity
  8
笠木
  6
Continuous
 62
     2
100
AcDbCircle
 10
1013.72124392301
 20
-85.91808417703081
 30
0.0
 40
0.5
100
AcDbArc
 50
270.0
 51
90.0
  0
ARC
  5
3C70
330
1E
100
AcDbEntity
  8
笠木
  6
Continuous
 62
     2
100
AcDbCircle
 10
1013.72124392301
 20
-81.9180841770308
 30
0.0
 40
0.5
100
AcDbArc
 50
270.0
 51
90.0
  0
ARC
  5
3C7E
330
1E
100
AcDbEntity
  8
受金具
  6
Continuous
 62
     2
100
AcDbCircle
 10
1041.47124392301
 20
-48.8831211770308
 30
0.0
 40
1.0
100
AcDbArc
 50
270.0
 51
0.0
  0
LINE
  5
3C7F
330
1E
100
AcDbEntity
  8
躯体
  6
Continuous
 62
     2
100
AcDbLine
 10
1031.60424392301
 20
-63.20312117703082
 30
0.0
 11
1027.42124392301
 21
-67.38612117703081
 31
0.0
  0
LINE
  5
3C80
330
1E
100
AcDbEntity
  8
受金具
  6
Continuous
 62
     2
100
AcDbLine
 10
1025.32026292301
 20
-49.8831211770308
 30
0.0
 11
1041.47124392301
 21
-49.8831211770308
 31
0.0
  0
ARC
  5
3C81
330
1E
100
AcDbEntity
  8
受金具
  6
Continuous
 62
     2
100
AcDbCircle
 10
1025.32026292301
 20
-54.8831211770308
 30
0.0
 40
5.0
100
AcDbArc
 50
90.0
 51
168.6900680000011
  0
ARC
  5
3C82
330
1E
100
AcDbEntity
  8
受金具
  6
Continuous
 62
     2
100
AcDbCircle
 10
1026.14006692301
 20
-55.8831211770308
 30
0.0
 40
2.5
100
AcDbArc
 50
90.0
 51
168.6900680000011
  0
LINE
  5
3C83
330
1E
100
AcDbEntity
  8
躯体
  6
Continuous
 62
     2
100
AcDbLine
 10
1031.60424392301
 20
-63.20312117703082
 30
0.0
 11
1037.44724392301
 21
-53.3831211770308
 31
0.0
  0
LINE
  5
3C84
330
1E
100
AcDbEntity
  8
笠木
  6
Continuous
 62
     2
100
AcDbLine
 10
1017.01975492301
 20
-29.6844191770308
 30
0.0
 11
1029.60791692301
 21
-30.9432351770308
 31
0.0
  0
LINE
  5
3C85
330
1E
100
AcDbEntity
  8
笠木
  6
Continuous
 62
     2
100
AcDbLine
 10
1014.23942592301
 20
-28.0999021770308
 30
0.0
 11
1030.19902192301
 21
-29.69586217703079
 31
0.0
  0
ARC
  5
3C86
330
1E
100
AcDbEntity
  8
笠木
  6
Continuous
 62
     2
100
AcDbCircle
 10
1016.72124392301
 20
-32.66953117703079
 30
0.0
 40
3.0
100
AcDbArc
 50
84.2894070000004
 51
180.0
  0
LINE
  5
3C87
330
1E
100
AcDbEntity
  8
笠木
  6
Continuous
 62
     2
100
AcDbLine
 10
1012.42124392301
 20
-29.91808417703081
 30
0.0
 11
1014.23942592301
 21
-28.0999021770308
 31
0.0
  0
LINE
  5
3C88
330
1E
100
AcDbEntity
  8
受金具
  6
Continuous
 62
     3
100
AcDbLine
 10
1038.22124392301
 20
-33.8045681770308
 30
0.0
 11
1038.22124392301
 21
-37.61379917703081
 31
0.0
  0
LINE
  5
3C89
330
1E
100
AcDbEntity
  8
受金具
  6
Continuous
 62
     3
100
AcDbLine
 10
1038.22276692301
 20
-37.61342217703083
 30
0.0
 11
1041.68524092301
 21
-34.15096817703082
 31
0.0
  0
LINE
  5
3C8A
330
1E
100
AcDbEntity
  8
受金具
  6
Continuous
 62
     3
100
AcDbLine
 10
1039.13646792301
 20
-37.4056811770308
 30
0.0
 11
1042.32700492301
 21
-34.21514417703082
 31
0.0
  0
LINE
  5
3C8B
330
1E
100
AcDbEntity
  8
受金具
  6
Continuous
 62
     2
100
AcDbLine
 10
1042.47124392301
 20
-39.8831211770308
 30
0.0
 11
1042.47124392301
 21
-48.8831211770308
 31
0.0
  0
LINE
  5
3C8C
330
1E
100
AcDbEntity
  8
受金具
  6
Continuous
 62
     2
100
AcDbLine
 10
1038.22124392301
 20
-38.8831211770308
 30
0.0
 11
1041.47124392301
 21
-38.8831211770308
 31
0.0
  0
LINE
  5
3C8D
330
1E
100
AcDbEntity
  8
受金具
  6
Continuous
 62
     2
100
AcDbLine
 10
1038.22124392301
 20
-37.61379917703081
 30
0.0
 11
1038.22124392301
 21
-38.8831211770308
 31
0.0
  0
ARC
  5
3C8E
330
1E
100
AcDbEntity
  8
受金具
  6
Continuous
 62
     2
100
AcDbCircle
 10
1041.47124392301
 20
-39.8831211770308
 30
0.0
 40
1.0
100
AcDbArc
 50
0.0
 51
90.0
  0
LINE
  5
3C8F
330
1E
100
AcDbEntity
  8
笠木
  6
Continuous
 62
     2
100
AcDbLine
 10
1032.42124392301
 20
-31.91808417703081
 30
0.0
 11
1030.19902192301
 21
-29.69586217703079
 31
0.0
  0
LINE
  5
3C90
330
1E
100
AcDbEntity
  8
笠木
  6
Continuous
 62
     2
100
AcDbLine
 10
1031.83013992301
 20
-33.16545817703082
 30
0.0
 11
1029.60791692301
 21
-30.9432351770308
 31
0.0
  0
LINE
  5
3C91
330
1E
100
AcDbEntity
  8
受金具
  6
Continuous
 62
     3
100
AcDbLine
 10
1038.22124392301
 20
-36.90669217703081
 30
0.0
 11
1041.04135592301
 21
-34.08657917703079
 31
0.0
  0
LINE
  5
3C92
330
1E
100
AcDbEntity
  8
受金具
  6
Continuous
 62
     3
100
AcDbLine
 10
1040.00866292301
 20
-37.2405931770308
 30
0.0
 11
1042.96982892301
 21
-34.27942717703081
 31
0.0
  0
LINE
  5
3C93
330
1E
100
AcDbEntity
  8
受金具
  6
Continuous
 62
     3
100
AcDbLine
 10
1038.22124392301
 20
-36.1995851770308
 30
0.0
 11
1040.39853192301
 21
-34.02229717703082
 31
0.0
  0
LINE
  5
3C94
330
1E
100
AcDbEntity
  8
受金具
  6
Continuous
 62
     3
100
AcDbLine
 10
1038.22124392301
 20
-35.49247817703082
 30
0.0
 11
1039.75570792301
 21
-33.9580151770308
 31
0.0
  0
LINE
  5
3C95
330
1E
100
AcDbEntity
  8
受金具
  6
Continuous
 62
     3
100
AcDbLine
 10
1038.22124392301
 20
-34.78537217703081
 30
0.0
 11
1039.11288292301
 21
-33.89373217703081
 31
0.0
  0
LINE
  5
3C96
330
1E
100
AcDbEntity
  8
受金具
  6
Continuous
 62
     3
100
AcDbLine
 10
1038.22124392301
 20
-34.0782651770308
 30
0.0
 11
1038.47005892301
 21
-33.82945017703082
 31
0.0
  0
LINE
  5
3C97
330
1E
100
AcDbEntity
  8
受金具
  6
Continuous
 62
     3
100
AcDbLine
 10
1041.647513923011
 20
-37.01595517703081
 30
0.0
 11
1044.25547792301
 21
-34.40799217703082
 31
0.0
  0
LINE
  5
3C98
330
1E
100
AcDbEntity
  8
受金具
  6
Continuous
 62
     3
100
AcDbLine
 10
1040.84408792301
 20
-37.11227517703083
 30
0.0
 11
1043.61265392301
 21
-34.34370917703081
 31
0.0
  0
LINE
  5
3C99
330
1E
100
AcDbEntity
  8
受金具
  6
PLINE2
 62
     3
100
AcDbLine
 10
1076.42124392301
 20
-75.36312117703082
 30
0.0
 11
1076.42124392301
 21
-71.36312117703082
 31
0.0
  0
LINE
  5
3C9A
330
1E
100
AcDbEntity
  8
受金具
  6
PLINE2
 62
     3
100
AcDbLine
 10
1078.73984492301
 20
-78.5055201770308
 30
0.0
 11
1079.73219992301
 21
-71.70189717703081
 31
0.0
  0
LINE
  5
3C9B
330
1E
100
AcDbEntity
  8
受金具
  6
PLINE2
 62
     3
100
AcDbLine
 10
1078.74358292301
 20
-71.5594791770308
 30
0.0
 11
1077.80015192301
 21
-78.16349917703082
 31
0.0
  0
LINE
  5
3C9C
330
1E
100
AcDbEntity
  8
受金具
  6
PLINE2
 62
     3
100
AcDbLine
 10
1078.73984492301
 20
-78.5055201770308
 30
0.0
 11
1079.73219992301
 21
-71.70189717703081
 31
0.0
  0
LINE
  5
3C9D
330
1E
100
AcDbEntity
  8
受金具
  6
PLINE2
 62
     3
100
AcDbLine
 10
1078.74358292301
 20
-71.5594791770308
 30
0.0
 11
1077.80015192301
 21
-78.16349917703082
 31
0.0
  0
LINE
  5
3C9E
330
1E
100
AcDbEntity
  8
躯体
  6
Continuous
 62
     3
100
AcDbLine
 10
1077.43415592301
 20
-81.8617591770308
 30
0.0
 11
1095.932793923011
 21
-63.36312117703082
 31
0.0
  0
LINE
  5
3C9F
330
1E
100
AcDbEntity
  8
躯体
  6
Continuous
 62
     3
100
AcDbLine
 10
1078.28865292301
 20
-79.00726217703081
 30
0.0
 11
1093.932793923011
 21
-63.36312117703082
 31
0.0
  0
LINE
  5
3CA0
330
1E
100
AcDbEntity
  8
受金具
  6
PLINE2
 62
     3
100
AcDbLine
 10
1068.42124392301
 20
-75.36312117703082
 30
0.0
 11
1068.42124392301
 21
-71.36312117703082
 31
0.0
  0
LINE
  5
3CA1
330
1E
100
AcDbEntity
  8
受金具
  6
PLINE2
 62
     3
100
AcDbLine
 10
1066.10264292301
 20
-78.5055201770308
 30
0.0
 11
1065.11028792301
 21
-71.70189717703081
 31
0.0
  0
LINE
  5
3CA2
330
1E
100
AcDbEntity
  8
受金具
  6
PLINE2
 62
     3
100
AcDbLine
 10
1066.09890392301
 20
-71.5594791770308
 30
0.0
 11
1067.042335923011
 21
-78.16349917703082
 31
0.0
  0
LINE
  5
3CA3
330
1E
100
AcDbEntity
  8
寸法
  6
PLINE3
 62
     3
100
AcDbLine
 10
1072.42124392301
 20
-41.58871917703081
 30
0.0
 11
1072.42124392301
 21
-107.8747041770308
 31
0.0
  0
LINE
  5
3CA4
330
1E
100
AcDbEntity
  8
受金具
  6
PLINE2
 62
     3
100
AcDbLine
 10
1070.29882892301
 20
-102.3206361770308
 30
0.0
 11
1071.92124392301
 21
-71.36312117703082
 31
0.0
  0
LINE
  5
3CA5
330
1E
100
AcDbEntity
  8
受金具
  6
PLINE2
 62
     3
100
AcDbLine
 10
1074.54365792301
 20
-102.3206361770308
 30
0.0
 11
1072.92124392301
 21
-71.36312117703082
 31
0.0
  0
LINE
  5
3CA6
330
1E
100
AcDbEntity
  8
受金具
  6
PLINE2
 62
     3
100
AcDbLine
 10
1075.98030092301
 20
-83.16349917703082
 30
0.0
 11
1077.80015192301
 21
-78.16349917703082
 31
0.0
  0
LINE
  5
3CA7
330
1E
100
AcDbEntity
  8
受金具
  6
PLINE2
 62
     3
100
AcDbLine
 10
1077.04447892301
 20
-83.16349917703082
 30
0.0
 11
1078.73984492301
 21
-78.5055201770308
 31
0.0
  0
LINE
  5
3CA8
330
1E
100
AcDbEntity
  8
受金具
  6
PLINE2
 62
     3
100
AcDbLine
 10
1075.57057892301
 20
-93.25446717703082
 30
0.0
 11
1077.56783792301
 21
-93.14979517703083
 31
0.0
  0
LINE
  5
3CA9
330
1E
100
AcDbEntity
  8
受金具
  6
PLINE2
 62
     3
100
AcDbLine
 10
1077.672509923011
 20
-95.14705417703082
 30
0.0
 11
1075.72758692301
 21
-96.2503551770308
 31
0.0
  0
LINE
  5
3CAA
330
1E
100
AcDbEntity
  8
受金具
  6
PLINE2
 62
     3
100
AcDbLine
 10
1075.83225892301
 20
-98.24761417703081
 30
0.0
 11
1077.82951792301
 21
-98.14294217703082
 31
0.0
  0
LINE
  5
3CAB
330
1E
100
AcDbEntity
  8
受金具
  6
PLINE2
 62
     3
100
AcDbLine
 10
1077.93418992301
 20
-100.1402021770308
 30
0.0
 11
1076.04160292301
 21
-102.2421331770308
 31
0.0
  0
LINE
  5
3CAC
330
1E
100
AcDbEntity
  8
受金具
  6
PLINE2
 62
     3
100
AcDbLine
 10
1074.43898692301
 20
-100.3233771770308
 30
0.0
 11
1077.93418992301
 21
-100.1402021770308
 31
0.0
  0
LINE
  5
3CAD
330
1E
100
AcDbEntity
  8
受金具
  6
PLINE2
 62
     3
100
AcDbLine
 10
1067.16997692301
 20
-95.14705417703082
 30
0.0
 11
1069.11490092301
 21
-96.2503551770308
 31
0.0
  0
LINE
  5
3CAE
330
1E
100
AcDbEntity
  8
躯体
  6
Continuous
 62
     3
100
AcDbLine
 10
1047.42124392301
 20
-111.8746711770308
 30
0.0
 11
1068.52294892301
 21
-90.77296617703082
 31
0.0
  0
LINE
  5
3CAF
330
1E
100
AcDbEntity
  8
躯体
  6
Continuous
 62
     3
100
AcDbLine
 10
1047.42124392301
 20
-109.8746711770308
 30
0.0
 11
1067.44767692301
 21
-89.84823817703079
 31
0.0
  0
LINE
  5
3CB0
330
1E
100
AcDbEntity
  8
受金具
  6
PLINE2
 62
     3
100
AcDbLine
 10
1068.80088492301
 20
-102.2421331770308
 30
0.0
 11
1070.29882892301
 21
-102.3206361770308
 31
0.0
  0
LINE
  5
3CB1
330
1E
100
AcDbEntity
  8
受金具
  6
PLINE2
 62
     3
100
AcDbLine
 10
1070.40350092301
 20
-100.3233771770308
 30
0.0
 11
1066.90829792301
 21
-100.1402021770308
 31
0.0
  0
LINE
  5
3CB2
330
1E
100
AcDbEntity
  8
受金具
  6
PLINE2
 62
     3
100
AcDbLine
 10
1066.90829792301
 20
-100.1402021770308
 30
0.0
 11
1068.80088492301
 21
-102.2421331770308
 31
0.0
  0
LINE
  5
3CB3
330
1E
100
AcDbEntity
  8
受金具
  6
PLINE2
 62
     3
100
AcDbLine
 10
1069.01022892301
 20
-98.24761417703081
 30
0.0
 11
1067.01296992301
 21
-98.14294217703082
 31
0.0
  0
LINE
  5
3CB4
330
1E
100
AcDbEntity
  8
受金具
  6
PLINE2
 62
     3
100
AcDbLine
 10
1067.01296992301
 20
-98.14294217703082
 30
0.0
 11
1066.90829792301
 21
-100.1402021770308
 31
0.0
  0
LINE
  5
3CB5
330
1E
100
AcDbEntity
  8
受金具
  6
PLINE2
 62
     3
100
AcDbLine
 10
1069.11490092301
 20
-96.2503551770308
 30
0.0
 11
1069.01022892301
 21
-98.24761417703081
 31
0.0
  0
LINE
  5
3CB6
330
1E
100
AcDbEntity
  8
受金具
  6
PLINE2
 62
     3
100
AcDbLine
 10
1076.04160292301
 20
-102.2421331770308
 30
0.0
 11
1074.54365792301
 21
-102.3206361770308
 31
0.0
  0
LINE
  5
3CB7
330
1E
100
AcDbEntity
  8
受金具
  6
PLINE2
 62
     3
100
AcDbLine
 10
1074.29068792301
 20
-97.49367617703081
 30
0.0
 11
1072.42124392301
 21
-99.36312117703081
 31
0.0
  0
LINE
  5
3CB8
330
1E
100
AcDbEntity
  8
受金具
  6
PLINE2
 62
     3
100
AcDbLine
 10
1070.55179892301
 20
-97.49367617703081
 30
0.0
 11
1072.42124392301
 21
-99.36312117703081
 31
0.0
  0
LINE
  5
3CB9
330
1E
100
AcDbEntity
  8
受金具
  6
PLINE2
 62
     3
100
AcDbLine
 10
1075.72758692301
 20
-96.2503551770308
 30
0.0
 11
1075.83225892301
 21
-98.24761417703081
 31
0.0
  0
LINE
  5
3CBA
330
1E
100
AcDbEntity
  8
受金具
  6
PLINE2
 62
     3
100
AcDbLine
 10
1077.04447892301
 20
-83.16349917703082
 30
0.0
 11
1077.14915092301
 21
-85.1607591770308
 31
0.0
  0
LINE
  5
3CBB
330
1E
100
AcDbEntity
  8
受金具
  6
PLINE2
 62
     3
100
AcDbLine
 10
1067.79800892301
 20
-83.16349917703082
 30
0.0
 11
1067.69333692301
 21
-85.1607591770308
 31
0.0
  0
LINE
  5
3CBC
330
1E
100
AcDbEntity
  8
受金具
  6
PLINE2
 62
     3
100
AcDbLine
 10
1067.69333692301
 20
-85.1607591770308
 30
0.0
 11
1069.63825992301
 21
-86.26406017703081
 31
0.0
  0
LINE
  5
3CBD
330
1E
100
AcDbEntity
  8
受金具
  6
PLINE2
 62
     3
100
AcDbLine
 10
1069.53358792301
 20
-88.26131917703079
 30
0.0
 11
1067.53632892301
 21
-88.1566471770308
 31
0.0
  0
LINE
  5
3CBE
330
1E
100
AcDbEntity
  8
受金具
  6
PLINE2
 62
     3
100
AcDbLine
 10
1069.37657992301
 20
-91.25720817703081
 30
0.0
 11
1069.27190792301
 21
-93.25446717703082
 31
0.0
  0
LINE
  5
3CBF
330
1E
100
AcDbEntity
  8
受金具
  6
PLINE2
 62
     3
100
AcDbLine
 10
1067.43165692301
 20
-90.15390617703079
 30
0.0
 11
1069.37657992301
 21
-91.25720817703081
 31
0.0
  0
LINE
  5
3CC0
330
1E
100
AcDbEntity
  8
受金具
  6
PLINE2
 62
     3
100
AcDbLine
 10
1067.53632892301
 20
-88.1566471770308
 30
0.0
 11
1067.43165692301
 21
-90.15390617703079
 31
0.0
  0
LINE
  5
3CC1
330
1E
100
AcDbEntity
  8
受金具
  6
PLINE2
 62
     3
100
AcDbLine
 10
1067.27464892301
 20
-93.14979517703083
 30
0.0
 11
1067.16997692301
 21
-95.14705417703082
 31
0.0
  0
LINE
  5
3CC2
330
1E
100
AcDbEntity
  8
受金具
  6
PLINE2
 62
     3
100
AcDbLine
 10
1069.27190792301
 20
-93.25446717703082
 30
0.0
 11
1067.27464892301
 21
-93.14979517703083
 31
0.0
  0
LINE
  5
3CC3
330
1E
100
AcDbEntity
  8
受金具
  6
PLINE2
 62
     3
100
AcDbLine
 10
1077.30615792301
 20
-88.1566471770308
 30
0.0
 11
1077.41082992301
 21
-90.15390617703079
 31
0.0
  0
LINE
  5
3CC4
330
1E
100
AcDbEntity
  8
受金具
  6
PLINE2
 62
     3
100
AcDbLine
 10
1075.46590692301
 20
-91.25720817703081
 30
0.0
 11
1075.57057892301
 21
-93.25446717703082
 31
0.0
  0
LINE
  5
3CC5
330
1E
100
AcDbEntity
  8
受金具
  6
PLINE2
 62
     3
100
AcDbLine
 10
1077.41082992301
 20
-90.15390617703079
 30
0.0
 11
1075.46590692301
 21
-91.25720817703081
 31
0.0
  0
LINE
  5
3CC6
330
1E
100
AcDbEntity
  8
受金具
  6
PLINE2
 62
     3
100
AcDbLine
 10
1069.63825992301
 20
-86.26406017703081
 30
0.0
 11
1069.53358792301
 21
-88.26131917703079
 31
0.0
  0
LINE
  5
3CC7
330
1E
100
AcDbEntity
  8
受金具
  6
PLINE2
 62
     3
100
AcDbLine
 10
1075.20422692301
 20
-86.26406017703081
 30
0.0
 11
1075.30889892301
 21
-88.26131917703079
 31
0.0
  0
LINE
  5
3CC8
330
1E
100
AcDbEntity
  8
受金具
  6
PLINE2
 62
     3
100
AcDbLine
 10
1075.30889892301
 20
-88.26131917703079
 30
0.0
 11
1077.30615792301
 21
-88.1566471770308
 31
0.0
  0
LINE
  5
3CC9
330
1E
100
AcDbEntity
  8
受金具
  6
PLINE2
 62
     3
100
AcDbLine
 10
1077.14915092301
 20
-85.1607591770308
 30
0.0
 11
1075.20422692301
 21
-86.26406017703081
 31
0.0
  0
LINE
  5
3CCA
330
1E
100
AcDbEntity
  8
受金具
  6
PLINE2
 62
     3
100
AcDbLine
 10
1068.42124392301
 20
-75.36312117703082
 30
0.0
 11
1070.161619923011
 21
-76.2777651770308
 31
0.0
  0
LINE
  5
3CCB
330
1E
100
AcDbEntity
  8
受金具
  6
PLINE2
 62
     3
100
AcDbLine
 10
1070.056947923011
 20
-78.27502417703081
 30
0.0
 11
1068.05968892301
 21
-78.17035217703082
 31
0.0
  0
LINE
  5
3CCC
330
1E
100
AcDbEntity
  8
受金具
  6
PLINE2
 62
     3
100
AcDbLine
 10
1067.95501692301
 20
-80.16761117703081
 30
0.0
 11
1069.89993992301
 21
-81.2709121770308
 31
0.0
  0
LINE
  5
3CCD
330
1E
100
AcDbEntity
  8
受金具
  6
PLINE2
 62
     3
100
AcDbLine
 10
1069.79526792301
 20
-83.26817117703081
 30
0.0
 11
1067.79800892301
 21
-83.16349917703082
 31
0.0
  0
LINE
  5
3CCE
330
1E
100
AcDbEntity
  8
受金具
  6
PLINE2
 62
     3
100
AcDbLine
 10
1068.86218692301
 20
-83.16349917703082
 30
0.0
 11
1067.042335923011
 21
-78.16349917703082
 31
0.0
  0
LINE
  5
3CCF
330
1E
100
AcDbEntity
  8
受金具
  6
PLINE2
 62
     3
100
AcDbLine
 10
1067.79800892301
 20
-83.16349917703082
 30
0.0
 11
1066.10264292301
 21
-78.5055201770308
 31
0.0
  0
LINE
  5
3CD0
330
1E
100
AcDbEntity
  8
受金具
  6
PLINE2
 62
     3
100
AcDbLine
 10
1068.05968892301
 20
-78.17035217703082
 30
0.0
 11
1067.95501692301
 21
-80.16761117703081
 31
0.0
  0
LINE
  5
3CD1
330
1E
100
AcDbEntity
  8
受金具
  6
PLINE2
 62
     3
100
AcDbLine
 10
1074.680867923011
 20
-76.2777651770308
 30
0.0
 11
1074.78553992301
 21
-78.27502417703081
 31
0.0
  0
LINE
  5
3CD2
330
1E
100
AcDbEntity
  8
受金具
  6
PLINE2
 62
     3
100
AcDbLine
 10
1070.161619923011
 20
-76.2777651770308
 30
0.0
 11
1070.056947923011
 21
-78.27502417703081
 31
0.0
  0
LINE
  5
3CD3
330
1E
100
AcDbEntity
  8
受金具
  6
PLINE2
 62
     3
100
AcDbLine
 10
1069.89993992301
 20
-81.2709121770308
 30
0.0
 11
1069.79526792301
 21
-83.26817117703081
 31
0.0
  0
LINE
  5
3CD4
330
1E
100
AcDbEntity
  8
受金具
  6
PLINE2
 62
     3
100
AcDbLine
 10
1076.88747092301
 20
-80.16761117703081
 30
0.0
 11
1074.942547923011
 21
-81.2709121770308
 31
0.0
  0
LINE
  5
3CD5
330
1E
100
AcDbEntity
  8
受金具
  6
PLINE2
 62
     3
100
AcDbLine
 10
1075.04721992301
 20
-83.26817117703081
 30
0.0
 11
1077.04447892301
 21
-83.16349917703082
 31
0.0
  0
LINE
  5
3CD6
330
1E
100
AcDbEntity
  8
受金具
  6
PLINE2
 62
     3
100
AcDbLine
 10
1074.942547923011
 20
-81.2709121770308
 30
0.0
 11
1075.04721992301
 21
-83.26817117703081
 31
0.0
  0
LINE
  5
3CD7
330
1E
100
AcDbEntity
  8
受金具
  6
PLINE2
 62
     3
100
AcDbLine
 10
1074.78553992301
 20
-78.27502417703081
 30
0.0
 11
1076.78279892301
 21
-78.17035217703082
 31
0.0
  0
LINE
  5
3CD8
330
1E
100
AcDbEntity
  8
受金具
  6
PLINE2
 62
     3
100
AcDbLine
 10
1076.78279892301
 20
-78.17035217703082
 30
0.0
 11
1076.88747092301
 21
-80.16761117703081
 31
0.0
  0
LINE
  5
3CD9
330
1E
100
AcDbEntity
  8
受金具
  6
PLINE2
 62
     3
100
AcDbLine
 10
1076.42124392301
 20
-75.36312117703082
 30
0.0
 11
1074.680867923011
 21
-76.2777651770308
 31
0.0
  0
LINE
  5
3CDA
330
1E
100
AcDbEntity
  8
受金具
  6
PLINE2
 62
     3
100
AcDbLine
 10
1077.82951792301
 20
-98.14294217703082
 30
0.0
 11
1077.93418992301
 21
-100.1402021770308
 31
0.0
  0
LINE
  5
3CDB
330
1E
100
AcDbEntity
  8
受金具
  6
PLINE2
 62
     3
100
AcDbLine
 10
1077.56783792301
 20
-93.14979517703083
 30
0.0
 11
1077.672509923011
 21
-95.14705417703082
 31
0.0
  0
LINE
  5
3CDC
330
1E
100
AcDbEntity
  8
受金具
  6
Continuous
 62
     2
100
AcDbLine
 10
1063.42124392301
 20
-48.3831211770308
 30
0.0
 11
1081.42124392301
 21
-48.3831211770308
 31
0.0
  0
LINE
  5
3CDD
330
1E
100
AcDbEntity
  8
受金具
  6
Continuous
 62
     2
100
AcDbLine
 10
1095.221243923011
 20
-49.8831211770308
 30
0.0
 11
1072.72124392301
 21
-49.8831211770308
 31
0.0
  0
LINE
  5
3CDE
330
1E
100
AcDbEntity
  8
受金具
  6
Continuous
 62
     2
100
AcDbLine
 10
1063.42124392301
 20
-48.3831211770308
 30
0.0
 11
1063.42124392301
 21
-49.8831211770308
 31
0.0
  0
ARC
  5
3CDF
330
1E
100
AcDbEntity
  8
受金具
  6
Continuous
 62
     2
100
AcDbCircle
 10
1046.97124392301
 20
-48.8831211770308
 30
0.0
 40
1.0
100
AcDbArc
 50
180.0
 51
270.0
  0
LINE
  5
3CE0
330
1E
100
AcDbEntity
  8
受金具
  6
Continuous
 62
     2
100
AcDbLine
 10
1072.12124392301
 20
-49.8831211770308
 30
0.0
 11
1046.97124392301
 21
-49.8831211770308
 31
0.0
  0
LINE
  5
3CE1
330
1E
100
AcDbEntity
  8
受金具
  6
PLINE2
 62
     3
100
AcDbLine
 10
1067.42124392301
 20
-63.36312117703082
 30
0.0
 11
1077.42124392301
 21
-63.36312117703082
 31
0.0
  0
LINE
  5
3CE2
330
1E
100
AcDbEntity
  8
受金具
  6
PLINE2
 62
     3
100
AcDbLine
 10
1068.42124392301
 20
-63.36312117703082
 30
0.0
 11
1068.42124392301
 21
-71.36312117703082
 31
0.0
  0
LINE
  5
3CE3
330
1E
100
AcDbEntity
  8
受金具
  6
PLINE2
 62
     3
100
AcDbLine
 10
1067.42124392301
 20
-63.36312117703082
 30
0.0
 11
1068.42124392301
 21
-68.36312117703082
 31
0.0
  0
ARC
  5
3CE4
330
1E
100
AcDbEntity
  8
受金具
  6
PLINE2
 62
     3
100
AcDbCircle
 10
1065.50609992301
 20
-71.64416617703079
 30
0.0
 40
0.4
100
AcDbArc
 50
98.1301019999978
 51
188.2984659999999
  0
LINE
  5
3CE5
330
1E
100
AcDbEntity
  8
受金具
  6
PLINE2
 62
     3
100
AcDbLine
 10
1065.44953092301
 20
-71.24818617703079
 30
0.0
 11
1065.64635592301
 21
-71.22006817703081
 31
0.0
  0
ARC
  5
3CE6
330
1E
100
AcDbEntity
  8
受金具
  6
PLINE2
 62
     3
100
AcDbCircle
 10
1065.70292392301
 20
-71.61604817703082
 30
0.0
 40
0.4
100
AcDbArc
 50
8.130102000001478
 51
98.1301019999978
  0
LINE
  5
3CE7
330
1E
100
AcDbEntity
  8
受金具
  6
PLINE2
 62
     3
100
AcDbLine
 10
1076.42124392301
 20
-63.36312117703082
 30
0.0
 11
1076.42124392301
 21
-71.36312117703082
 31
0.0
  0
LINE
  5
3CE8
330
1E
100
AcDbEntity
  8
受金具
  6
PLINE2
 62
     3
100
AcDbLine
 10
1077.42124392301
 20
-63.36312117703082
 30
0.0
 11
1076.42124392301
 21
-68.36312117703082
 31
0.0
  0
LINE
  5
3CE9
330
1E
100
AcDbEntity
  8
受金具
  6
PLINE2
 62
     3
100
AcDbLine
 10
1071.42124392301
 20
-63.36312117703082
 30
0.0
 11
1072.42124392301
 21
-68.36312117703082
 31
0.0
  0
LINE
  5
3CEA
330
1E
100
AcDbEntity
  8
受金具
  6
PLINE2
 62
     3
100
AcDbLine
 10
1073.42124392301
 20
-63.36312117703082
 30
0.0
 11
1072.42124392301
 21
-68.36312117703082
 31
0.0
  0
LINE
  5
3CEB
330
1E
100
AcDbEntity
  8
受金具
  6
PLINE2
 62
     3
100
AcDbLine
 10
1072.42124392301
 20
-68.36312117703082
 30
0.0
 11
1072.42124392301
 21
-63.36312117703082
 31
0.0
  0
LINE
  5
3CEC
330
1E
100
AcDbEntity
  8
受金具
  6
PLINE2
 62
     3
100
AcDbLine
 10
1071.92124392301
 20
-71.36312117703082
 30
0.0
 11
1072.42124392301
 21
-71.36312117703082
 31
0.0
  0
LINE
  5
3CED
330
1E
100
AcDbEntity
  8
受金具
  6
PLINE2
 62
     3
100
AcDbLine
 10
1072.92124392301
 20
-71.36312117703082
 30
0.0
 11
1072.42124392301
 21
-71.36312117703082
 31
0.0
  0
LINE
  5
3CEE
330
1E
100
AcDbEntity
  8
受金具
  6
Continuous
 62
     2
100
AcDbLine
 10
1072.42124392301
 20
-50.18312117703081
 30
0.0
 11
1072.72124392301
 21
-49.8831211770308
 31
0.0
  0
LINE
  5
3CEF
330
1E
100
AcDbEntity
  8
受金具
  6
Continuous
 62
     2
100
AcDbLine
 10
1072.42124392301
 20
-50.18312117703081
 30
0.0
 11
1072.12124392301
 21
-49.8831211770308
 31
0.0
  0
LINE
  5
3CF0
330
1E
100
AcDbEntity
  8
受金具
  6
Continuous
 62
     3
100
AcDbLine
 10
1050.22124392301
 20
-35.00456817703082
 30
0.0
 11
1050.22124392301
 21
-37.61379917703081
 31
0.0
  0
LINE
  5
3CF1
330
1E
100
AcDbEntity
  8
受金具
  6
Continuous
 62
     3
100
AcDbLine
 10
1049.08152592301
 20
-37.36011817703082
 30
0.0
 11
1050.22124392301
 21
-36.22040017703083
 31
0.0
  0
LINE
  5
3CF2
330
1E
100
AcDbEntity
  8
受金具
  6
Continuous
 62
     3
100
AcDbLine
 10
1049.66560792301
 20
-37.4831431770308
 30
0.0
 11
1050.22124392301
 21
-36.92750717703081
 31
0.0
  0
LINE
  5
3CF3
330
1E
100
AcDbEntity
  8
受金具
  6
Continuous
 62
     2
100
AcDbLine
 10
1045.97124392301
 20
-39.8831211770308
 30
0.0
 11
1045.97124392301
 21
-48.8831211770308
 31
0.0
  0
LINE
  5
3CF4
330
1E
100
AcDbEntity
  8
受金具
  6
Continuous
 62
     2
100
AcDbLine
 10
1050.22124392301
 20
-38.8831211770308
 30
0.0
 11
1046.97124392301
 21
-38.8831211770308
 31
0.0
  0
ARC
  5
3CF5
330
1E
100
AcDbEntity
  8
受金具
  6
Continuous
 62
     2
100
AcDbCircle
 10
1046.97124392301
 20
-39.8831211770308
 30
0.0
 40
1.0
100
AcDbArc
 50
90.0
 51
180.0
  0
LINE
  5
3CF6
330
1E
100
AcDbEntity
  8
受金具
  6
Continuous
 62
     2
100
AcDbLine
 10
1050.22124392301
 20
-37.61379917703081
 30
0.0
 11
1050.22124392301
 21
-38.8831211770308
 31
0.0
  0
LINE
  5
3CF7
330
1E
100
AcDbEntity
  8
受金具
  6
Continuous
 62
     3
100
AcDbLine
 10
1047.25272492301
 20
-37.06759917703081
 30
0.0
 11
1049.39807292301
 21
-34.92225117703083
 31
0.0
  0
LINE
  5
3CF8
330
1E
100
AcDbEntity
  8
受金具
  6
Continuous
 62
     3
100
AcDbLine
 10
1047.87575792301
 20
-37.1516731770308
 30
0.0
 11
1050.04089692301
 21
-34.98653317703079
 31
0.0
  0
LINE
  5
3CF9
330
1E
100
AcDbEntity
  8
受金具
  6
Continuous
 62
     3
100
AcDbLine
 10
1048.48511992301
 20
-37.24941717703081
 30
0.0
 11
1050.22124392301
 21
-35.51329417703082
 31
0.0
  0
LINE
  5
3CFA
330
1E
100
AcDbEntity
  8
受金具
  6
Continuous
 62
     3
100
AcDbLine
 10
1046.61521092301
 20
-36.99800617703079
 30
0.0
 11
1048.75524792301
 21
-34.85796917703081
 31
0.0
  0
LINE
  5
3CFB
330
1E
100
AcDbEntity
  8
受金具
  6
Continuous
 62
     3
100
AcDbLine
 10
1045.29290292301
 20
-36.90610117703082
 30
0.0
 11
1047.469599923011
 21
-34.7294041770308
 31
0.0
  0
LINE
  5
3CFC
330
1E
100
AcDbEntity
  8
受金具
  6
Continuous
 62
     3
100
AcDbLine
 10
1045.96229092301
 20
-36.9438191770308
 30
0.0
 11
1048.112423923011
 21
-34.79368617703079
 31
0.0
  0
ARC
  5
3CFD
330
1E
100
AcDbEntity
  8
受金具
  6
Continuous
 62
     2
100
AcDbCircle
 10
1072.42124392301
 20
-57.08312117703082
 30
0.0
 40
12.0
100
AcDbArc
 50
74.50603200000134
 51
105.4939679999986
  0
ARC
  5
3CFE
330
1E
100
AcDbEntity
  8
受金具
  6
Continuous
 62
     2
100
AcDbCircle
 10
1069.64301992301
 20
-47.0610721770308
 30
0.0
 40
1.6
100
AcDbArc
 50
105.4939679999986
 51
175.0
  0
LINE
  5
3CFF
330
1E
100
AcDbEntity
  8
受金具
  6
Continuous
 62
     2
100
AcDbLine
 10
1068.04910792301
 20
-46.92162217703082
 30
0.0
 11
1067.92124392301
 21
-48.3831211770308
 31
0.0
  0
ARC
  5
3D00
330
1E
100
AcDbEntity
  8
受金具
  6
Continuous
 62
     2
100
AcDbCircle
 10
1075.199467923011
 20
-47.0610721770308
 30
0.0
 40
1.6
100
AcDbArc
 50
5.000000000000026
 51
74.50603200000134
  0
LINE
  5
3D01
330
1E
100
AcDbEntity
  8
受金具
  6
Continuous
 62
     2
100
AcDbLine
 10
1076.79337892301
 20
-46.92162217703082
 30
0.0
 11
1076.92124392301
 21
-48.3831211770308
 31
0.0
  0
LINE
  5
3D02
330
1E
100
AcDbEntity
  8
受金具
  6
Continuous
 62
     2
100
AcDbLine
 10
1101.22124392301
 20
-48.8831211770308
 30
0.0
 11
1101.22124392301
 21
-52.8831211770308
 31
0.0
  0
LINE
  5
3D03
330
1E
100
AcDbEntity
  8
笠木
  6
Continuous
 62
     2
100
AcDbLine
 10
1102.42124392301
 20
-48.52798617703081
 30
0.0
 11
1102.42124392301
 21
-52.4180841770308
 31
0.0
  0
LINE
  5
3D04
330
1E
100
AcDbEntity
  8
笠木
  6
Continuous
 62
     2
100
AcDbLine
 10
1101.12124392301
 20
-48.41808417703081
 30
0.0
 11
1101.12124392301
 21
-52.4180841770308
 31
0.0
  0
LINE
  5
3D05
330
1E
100
AcDbEntity
  8
受金具
  6
Continuous
 62
     2
100
AcDbLine
 10
1095.221243923011
 20
-44.8831211770308
 30
0.0
 11
1095.221243923011
 21
-49.8831211770308
 31
0.0
  0
LINE
  5
3D06
330
1E
100
AcDbEntity
  8
受金具
  6
Continuous
 62
     2
100
AcDbLine
 10
1081.42124392301
 20
-48.3831211770308
 30
0.0
 11
1081.42124392301
 21
-49.8831211770308
 31
0.0
  0
ARC
  5
3D07
330
1E
100
AcDbEntity
  8
受金具
  6
PLINE2
 62
     3
100
AcDbCircle
 10
1079.33638792301
 20
-71.64416617703079
 30
0.0
 40
0.4
100
AcDbArc
 50
351.7015340000001
 51
81.86989800000221
  0
ARC
  5
3D08
330
1E
100
AcDbEntity
  8
受金具
  6
PLINE2
 62
     3
100
AcDbCircle
 10
1079.33638792301
 20
-71.64416617703079
 30
0.0
 40
0.4
100
AcDbArc
 50
351.7015340000001
 51
81.86989800000221
  0
LINE
  5
3D09
330
1E
100
AcDbEntity
  8
受金具
  6
PLINE2
 62
     3
100
AcDbLine
 10
1079.39295592301
 20
-71.24818617703079
 30
0.0
 11
1079.19613192301
 21
-71.22006817703081
 31
0.0
  0
LINE
  5
3D0A
330
1E
100
AcDbEntity
  8
受金具
  6
PLINE2
 62
     3
100
AcDbLine
 10
1079.39295592301
 20
-71.24818617703079
 30
0.0
 11
1079.19613192301
 21
-71.22006817703081
 31
0.0
  0
ARC
  5
3D0B
330
1E
100
AcDbEntity
  8
受金具
  6
PLINE2
 62
     3
100
AcDbCircle
 10
1079.13956292301
 20
-71.61604817703082
 30
0.0
 40
0.4
100
AcDbArc
 50
81.86989800000221
 51
171.8698979999985
  0
ARC
  5
3D0C
330
1E
100
AcDbEntity
  8
受金具
  6
PLINE2
 62
     3
100
AcDbCircle
 10
1079.13956292301
 20
-71.61604817703082
 30
0.0
 40
0.4
100
AcDbArc
 50
81.86989800000221
 51
171.8698979999985
  0
ARC
  5
3D0D
330
1E
100
AcDbEntity
  8
笠木
  6
Continuous
 62
     2
100
AcDbCircle
 10
1101.92124392301
 20
-52.4180841770308
 30
0.0
 40
0.5
100
AcDbArc
 50
270.0
 51
0.0
  0
ARC
  5
3D0E
330
1E
100
AcDbEntity
  8
受金具
  6
Continuous
 62
     2
100
AcDbCircle
 10
1100.72124392301
 20
-52.8831211770308
 30
0.0
 40
0.5
100
AcDbArc
 50
270.0
 51
0.0
  0
ARC
  5
3D0F
330
1E
100
AcDbEntity
  8
笠木
  6
Continuous
 62
     2
100
AcDbCircle
 10
1101.62124392301
 20
-52.4180841770308
 30
0.0
 40
0.5
100
AcDbArc
 50
180.0
 51
270.0
  0
LINE
  5
3D10
330
1E
100
AcDbEntity
  8
笠木
  6
Continuous
 62
     2
100
AcDbLine
 10
1101.62124392301
 20
-52.9180841770308
 30
0.0
 11
1101.92124392301
 21
-52.9180841770308
 31
0.0
  0
ARC
  5
3D11
330
1E
100
AcDbEntity
  8
受金具
  6
Continuous
 62
     2
100
AcDbCircle
 10
1094.22124392301
 20
-42.3831211770308
 30
0.0
 40
1.0
100
AcDbArc
 50
90.0
 51
180.0
  0
ARC
  5
3D12
330
1E
100
AcDbEntity
  8
受金具
  6
Continuous
 62
     2
100
AcDbCircle
 10
1094.22124392301
 20
-43.8831211770308
 30
0.0
 40
1.0
100
AcDbArc
 50
180.0
 51
270.0
  0
LINE
  5
3D13
330
1E
100
AcDbEntity
  8
受金具
  6
Continuous
 62
     2
100
AcDbLine
 10
1093.22124392301
 20
-42.3831211770308
 30
0.0
 11
1093.22124392301
 21
-43.8831211770308
 31
0.0
  0
LINE
  5
3D14
330
1E
100
AcDbEntity
  8
受金具
  6
Continuous
 62
     3
100
AcDbLine
 10
1100.31815992301
 20
-42.35727217703081
 30
0.0
 11
1102.448171923011
 21
-40.22726117703081
 31
0.0
  0
LINE
  5
3D15
330
1E
100
AcDbEntity
  8
受金具
  6
Continuous
 62
     3
100
AcDbLine
 10
1100.78654692301
 20
-42.59599217703081
 30
0.0
 11
1103.090995923011
 21
-40.2915431770308
 31
0.0
  0
LINE
  5
3D16
330
1E
100
AcDbEntity
  8
受金具
  6
Continuous
 62
     3
100
AcDbLine
 10
1101.23486392301
 20
-42.85478217703081
 30
0.0
 11
1103.46659992301
 21
-40.62304617703079
 31
0.0
  0
LINE
  5
3D17
330
1E
100
AcDbEntity
  8
受金具
  6
Continuous
 62
     3
100
AcDbLine
 10
1101.66393092301
 20
-43.13282217703082
 30
0.0
 11
1103.46659992301
 21
-41.33015317703081
 31
0.0
  0
LINE
  5
3D18
330
1E
100
AcDbEntity
  8
受金具
  6
Continuous
 62
     3
100
AcDbLine
 10
1102.07437092301
 20
-43.4294891770308
 30
0.0
 11
1103.46659992301
 21
-42.03726017703078
 31
0.0
  0
LINE
  5
3D19
330
1E
100
AcDbEntity
  8
受金具
  6
Continuous
 62
     2
100
AcDbLine
 10
1102.72124392301
 20
-46.3831211770308
 30
0.0
 11
1098.72124392301
 21
-46.3831211770308
 31
0.0
  0
LINE
  5
3D1A
330
1E
100
AcDbEntity
  8
笠木
  6
Continuous
 62
     2
100
AcDbLine
 10
1102.54996892301
 20
-46.61808417703079
 30
0.0
 11
1098.82124392301
 21
-46.61808417703079
 31
0.0
  0
ARC
  5
3D1B
330
1E
100
AcDbEntity
  8
受金具
  6
Continuous
 62
     2
100
AcDbCircle
 10
1096.01303992301
 20
-51.3831211770308
 30
0.0
 40
10.0
100
AcDbArc
 50
41.81031499999837
 51
90.0
  0
LINE
  5
3D1C
330
1E
100
AcDbEntity
  8
受金具
  6
Continuous
 62
     2
100
AcDbLine
 10
1095.221243923011
 20
-44.8831211770308
 30
0.0
 11
1094.22124392301
 21
-44.8831211770308
 31
0.0
  0
LINE
  5
3D1D
330
1E
100
AcDbEntity
  8
受金具
  6
Continuous
 62
     2
100
AcDbLine
 10
1098.72124392301
 20
-48.3831211770308
 30
0.0
 11
1100.72124392301
 21
-48.3831211770308
 31
0.0
  0
LINE
  5
3D1E
330
1E
100
AcDbEntity
  8
笠木
  6
Continuous
 62
     2
100
AcDbLine
 10
1098.82124392301
 20
-47.9180841770308
 30
0.0
 11
1100.62124392301
 21
-47.9180841770308
 31
0.0
  0
LINE
  5
3D1F
330
1E
100
AcDbEntity
  8
受金具
  6
Continuous
 62
     2
100
AcDbLine
 10
1098.72124392301
 20
-46.3831211770308
 30
0.0
 11
1098.72124392301
 21
-48.3831211770308
 31
0.0
  0
ARC
  5
3D20
330
1E
100
AcDbEntity
  8
笠木
  6
Continuous
 62
     2
100
AcDbCircle
 10
1098.82124392301
 20
-47.71808417703079
 30
0.0
 40
0.2
100
AcDbArc
 50
180.0
 51
270.0
  0
LINE
  5
3D21
330
1E
100
AcDbEntity
  8
笠木
  6
Continuous
 62
     2
100
AcDbLine
 10
1098.62124392301
 20
-46.81808417703081
 30
0.0
 11
1098.62124392301
 21
-47.71808417703079
 31
0.0
  0
ARC
  5
3D22
330
1E
100
AcDbEntity
  8
笠木
  6
Continuous
 62
     2
100
AcDbCircle
 10
1098.82124392301
 20
-46.81808417703081
 30
0.0
 40
0.2
100
AcDbArc
 50
90.0
 51
180.0
  0
ARC
  5
3D23
330
1E
100
AcDbEntity
  8
受金具
  6
Continuous
 62
     2
100
AcDbCircle
 10
1100.72124392301
 20
-48.8831211770308
 30
0.0
 40
0.5
100
AcDbArc
 50
0.0
 51
90.0
  0
ARC
  5
3D24
330
1E
100
AcDbEntity
  8
笠木
  6
Continuous
 62
     2
100
AcDbCircle
 10
1100.62124392301
 20
-48.41808417703081
 30
0.0
 40
0.5
100
AcDbArc
 50
0.0
 51
90.0
  0
LINE
  5
3D25
330
1E
100
AcDbEntity
  8
受金具
  6
Continuous
 62
     3
100
AcDbLine
 10
1097.62586092301
 20
-41.51403717703082
 30
0.0
 11
1099.23404992301
 21
-39.9058491770308
 31
0.0
  0
LINE
  5
3D26
330
1E
100
AcDbEntity
  8
受金具
  6
Continuous
 62
     3
100
AcDbLine
 10
1097.00077092301
 20
-41.4320211770308
 30
0.0
 11
1098.59122492301
 21
-39.84156617703078
 31
0.0
  0
LINE
  5
3D27
330
1E
100
AcDbEntity
  8
受金具
  6
Continuous
 62
     3
100
AcDbLine
 10
1096.33730492301
 20
-41.38838017703079
 30
0.0
 11
1097.94840092301
 21
-39.7772841770308
 31
0.0
  0
LINE
  5
3D28
330
1E
100
AcDbEntity
  8
受金具
  6
Continuous
 62
     3
100
AcDbLine
 10
1095.635456923011
 20
-41.3831211770308
 30
0.0
 11
1097.30557692301
 21
-39.7130011770308
 31
0.0
  0
LINE
  5
3D29
330
1E
100
AcDbEntity
  8
受金具
  6
Continuous
 62
     3
100
AcDbLine
 10
1094.22124392301
 20
-39.4045681770308
 30
0.0
 11
1094.22124392301
 21
-41.3831211770308
 31
0.0
  0
LINE
  5
3D2A
330
1E
100
AcDbEntity
  8
受金具
  6
Continuous
 62
     3
100
AcDbLine
 10
1094.22124392301
 20
-40.67601417703079
 30
0.0
 11
1095.37710392301
 21
-39.5201541770308
 31
0.0
  0
LINE
  5
3D2B
330
1E
100
AcDbEntity
  8
受金具
  6
Continuous
 62
     3
100
AcDbLine
 10
1094.92835092301
 20
-41.3831211770308
 30
0.0
 11
1096.66275192301
 21
-39.64871917703082
 31
0.0
  0
LINE
  5
3D2C
330
1E
100
AcDbEntity
  8
受金具
  6
Continuous
 62
     3
100
AcDbLine
 10
1094.22236892301
 20
-41.3831211770308
 30
0.0
 11
1096.02095992301
 21
-39.58454017703082
 31
0.0
  0
LINE
  5
3D2D
330
1E
100
AcDbEntity
  8
受金具
  6
Continuous
 62
     2
100
AcDbLine
 10
1096.01303992301
 20
-41.3831211770308
 30
0.0
 11
1094.22124392301
 21
-41.3831211770308
 31
0.0
  0
LINE
  5
3D2E
330
1E
100
AcDbEntity
  8
受金具
  6
Continuous
 62
     3
100
AcDbLine
 10
1094.22124392301
 20
-39.96890717703079
 30
0.0
 11
1094.73427892301
 21
-39.45587217703081
 31
0.0
  0
LINE
  5
3D2F
330
1E
100
AcDbEntity
  8
受金具
  6
Continuous
 62
     3
100
AcDbLine
 10
1099.82864392301
 20
-42.1396821770308
 30
0.0
 11
1101.80534692301
 21
-40.16297817703082
 31
0.0
  0
LINE
  5
3D30
330
1E
100
AcDbEntity
  8
受金具
  6
Continuous
 62
     3
100
AcDbLine
 10
1098.78043992301
 20
-41.77367217703081
 30
0.0
 11
1100.519698923011
 21
-40.03441417703081
 31
0.0
  0
LINE
  5
3D31
330
1E
100
AcDbEntity
  8
受金具
  6
Continuous
 62
     3
100
AcDbLine
 10
1099.316645923011
 20
-41.9445731770308
 30
0.0
 11
1101.16252292301
 21
-40.0986961770308
 31
0.0
  0
LINE
  5
3D32
330
1E
100
AcDbEntity
  8
受金具
  6
Continuous
 62
     3
100
AcDbLine
 10
1098.21780692301
 20
-41.62919817703081
 30
0.0
 11
1099.87687392301
 21
-39.9701311770308
 31
0.0
  0
LINE
  5
3D33
330
1E
100
AcDbEntity
  8
受金具
  6
Continuous
 62
     3
100
AcDbLine
 10
1102.46663492301
 20
-43.74433117703079
 30
0.0
 11
1103.46659992301
 21
-42.74436717703079
 31
0.0
  0
LINE
  5
3D34
330
1E
100
AcDbEntity
  8
受金具
  6
Continuous
 62
     3
100
AcDbLine
 10
1103.46659992301
 20
-40.32910417703078
 30
0.0
 11
1103.46659992301
 21
-44.71645417703078
 31
0.0
  0
ARC
  5
3D35
330
1E
100
AcDbEntity
  8
受金具
  6
Continuous
 62
     2
100
AcDbCircle
 10
1102.72124392301
 20
-45.3831211770308
 30
0.0
 40
1.0
100
AcDbArc
 50
270.0
 51
41.81031499999837
  0
ARC
  5
3D36
330
1E
100
AcDbEntity
  8
笠木
  6
Continuous
 62
     2
100
AcDbCircle
 10
1102.92124392301
 20
-48.52798617703081
 30
0.0
 40
0.5
100
AcDbArc
 50
78.69006799999761
 51
180.0
  0
LINE
  5
3D37
330
1E
100
AcDbEntity
  8
受金具
  6
Continuous
 62
     3
100
AcDbLine
 10
1102.84102192301
 20
-44.07705117703082
 30
0.0
 11
1103.46659992301
 21
-43.4514731770308
 31
0.0
  0
LINE
  5
3D38
330
1E
100
AcDbEntity
  8
受金具
  6
Continuous
 62
     3
100
AcDbLine
 10
1103.19768992301
 20
-44.42749017703081
 30
0.0
 11
1103.46659992301
 21
-44.15858017703079
 31
0.0
  0
LINE
  5
3D39
330
1E
100
AcDbEntity
  8
躯体
  6
Continuous
 62
     2
100
AcDbLine
 10
1147.42124392301
 20
-165.6582901770308
 30
0.0
 11
1147.42124392301
 21
-63.36312117703082
 31
0.0
  0
LINE
  5
3D3A
330
1E
100
AcDbEntity
  8
躯体
  6
Continuous
 62
     3
100
AcDbLine
 10
1145.41224392301
 20
-165.6582901770308
 30
0.0
 11
1145.41224392301
 21
-64.2001211770308
 31
0.0
  0
LINE
  5
3D3B
330
1E
100
AcDbEntity
  8
躯体
  6
Continuous
 62
     3
100
AcDbLine
 10
1139.422243923011
 20
-165.6582901770308
 30
0.0
 11
1139.422243923011
 21
-66.67612117703081
 31
0.0
  0
LINE
  5
3D3C
330
1E
100
AcDbEntity
  8
躯体
  6
Continuous
 62
     3
100
AcDbLine
 10
1141.422243923011
 20
-165.6582901770308
 30
0.0
 11
1141.422243923011
 21
-65.8481211770308
 31
0.0
  0
LINE
  5
3D3D
330
1E
100
AcDbEntity
  8
躯体
  6
Continuous
 62
     3
100
AcDbLine
 10
1143.42224392301
 20
-165.6582901770308
 30
0.0
 11
1143.42224392301
 21
-65.0201211770308
 31
0.0
  0
LINE
  5
3D3E
330
1E
100
AcDbEntity
  8
躯体
  6
Continuous
 62
     2
100
AcDbLine
 10
1137.42124392301
 20
-165.6582901770308
 30
0.0
 11
1137.42124392301
 21
-67.50512117703081
 31
0.0
  0
LINE
  5
3D41
330
1E
100
AcDbEntity
  8
躯体
  6
Continuous
 62
     3
100
AcDbLine
 10
1143.42224392301
 20
-65.0201211770308
 30
0.0
 11
1135.706243923011
 21
-57.30412117703082
 31
0.0
  0
LINE
  5
3D42
330
1E
100
AcDbEntity
  8
躯体
  6
Continuous
 62
     3
100
AcDbLine
 10
1145.41224392301
 20
-64.2001211770308
 30
0.0
 11
1136.277243923011
 21
-55.33112117703081
 31
0.0
  0
LINE
  5
3D43
330
1E
100
AcDbEntity
  8
躯体
  6
Continuous
 62
     2
100
AcDbLine
 10
1147.42124392301
 20
-63.36307017703081
 30
0.0
 11
1137.14197492301
 21
-53.3831211770308
 31
0.0
  0
LINE
  5
3D46
330
1E
100
AcDbEntity
  8
笠木
  6
Continuous
 62
     2
100
AcDbLine
 10
1112.42124392301
 20
-49.3081821770308
 30
0.0
 11
1112.42124392301
 21
-41.9180841770308
 31
0.0
  0
LINE
  5
3D48
330
1E
100
AcDbEntity
  8
躯体
  6
Continuous
 62
     3
100
AcDbLine
 10
1136.277243923011
 20
-55.33112117703081
 30
0.0
 11
1126.26018692301
 21
-55.33112117703081
 31
0.0
  0
LINE
  5
3D49
330
1E
100
AcDbEntity
  8
躯体
  6
Continuous
 62
     3
100
AcDbLine
 10
1135.706243923011
 20
-57.30412117703082
 30
0.0
 11
1126.26018692301
 21
-57.30412117703082
 31
0.0
  0
ARC
  5
3D4B
330
1E
100
AcDbEntity
  8
笠木
  6
Continuous
 62
     2
100
AcDbCircle
 10
1111.92124392301
 20
-49.3081821770308
 30
0.0
 40
0.5
100
AcDbArc
 50
258.6900679999976
 51
0.0
  0
LINE
  5
3D51
330
1E
100
AcDbEntity
  8
躯体
  6
Continuous
 62
     3
100
AcDbLine
 10
1141.422243923011
 20
-65.8481211770308
 30
0.0
 11
1134.69724392301
 21
-59.3231211770308
 31
0.0
  0
LINE
  5
3D52
330
1E
100
AcDbEntity
  8
躯体
  6
Continuous
 62
     2
100
AcDbLine
 10
1137.42124392301
 20
-67.50512117703081
 30
0.0
 11
1133.079243923011
 21
-63.36312117703082
 31
0.0
  0
LINE
  5
3D53
330
1E
100
AcDbEntity
  8
躯体
  6
Continuous
 62
     3
100
AcDbLine
 10
1139.422243923011
 20
-66.67612117703081
 30
0.0
 11
1133.880243923011
 21
-61.33412117703082
 31
0.0
  0
LINE
  5
3D56
330
1E
100
AcDbEntity
  8
笠木
  6
Continuous
 62
     2
100
AcDbLine
 10
1111.12124392301
 20
-47.72243717703079
 30
0.0
 11
1111.12124392301
 21
-43.8095311770308
 31
0.0
  0
ARC
  5
3D57
330
1E
100
AcDbEntity
  8
笠木
  6
Continuous
 62
     2
100
AcDbCircle
 10
1110.62124392301
 20
-47.72243717703079
 30
0.0
 40
0.5
100
AcDbArc
 50
258.6900679999976
 51
0.0
  0
DIMENSION
  5
3D81
330
1E
100
AcDbEntity
  8
寸法
  6
Continuous
100
AcDbDimension
  2
*D4
 10
1112.42124392301
 20
-5.291811177030837
 30
0.0
 11
1062.42124392301
 21
-1.791811177030837
 31
0.0
 70
    32
 71
     5
 42
99.99999999999989
  3
111
100
AcDbAlignedDimension
 13
1012.42124392301
 23
-20.60386335125258
 33
0.0
 14
1112.42124392301
 24
-20.60386335125258
 34
0.0
100
AcDbRotatedDimension
  0
DIMENSION
  5
3D8E
330
1E
100
AcDbEntity
  8
寸法
  6
Continuous
100
AcDbDimension
  2
*D5
 10
1125.15327792301
 20
-39.91808417703081
 30
0.0
 11
1121.65327792301
 21
-33.91808417703064
 31
0.0
 70
    32
 71
     5
 42
11.99999999999997
  3
111
100
AcDbAlignedDimension
 13
1114.434315233513
 23
-27.91808417703084
 33
0.0
 14
1114.434315233513
 24
-39.91808417703081
 34
0.0
 50
90.0
100
AcDbRotatedDimension
  0
DIMENSION
  5
3DA7
330
1E
100
AcDbEntity
  8
寸法
  6
Continuous
100
AcDbDimension
  2
*D6
 10
1125.15327792301
 20
-56.3831211770308
 30
0.0
 11
1125.041721135663
 21
-55.96678557494488
 31
0.0
 70
   160
  1
3.5
 71
     5
 42
6.465036999999995
  3
111
100
AcDbAlignedDimension
 13
1125.15327792301
 23
-49.9180841770308
 33
0.0
 14
1125.15327792301
 24
-56.3831211770308
 34
0.0
 50
90.0
100
AcDbRotatedDimension
1001
ACAD
1000
DSTYLE
1002
{
1070
   279
1070
     1
1002
}
  0
DIMENSION
  5
3DBA
330
1E
100
AcDbEntity
  8
寸法
  6
Continuous
100
AcDbDimension
  2
*D7
 10
996.4775889230105
 20
-53.38312117703079
 30
0.0
 11
992.9775889230105
 21
-40.65060267703065
 31
0.0
 70
    32
 71
     5
 42
25.46503699999997
  3
111
100
AcDbAlignedDimension
 13
1007.222871411814
 23
-27.91808417703084
 33
0.0
 14
1007.222871411814
 24
-53.38312117703079
 34
0.0
 50
90.0
100
AcDbRotatedDimension
  0
DIMENSION
  5
3DC7
330
1E
100
AcDbEntity
  8
寸法
  6
Continuous
100
AcDbDimension
  2
*D8
 10
996.4775889230105
 20
-99.91808417703081
 30
0.0
 11
992.9775889230105
 21
-76.65060267703063
 31
0.0
 70
    32
 71
     5
 42
46.534963
  3
111
100
AcDbAlignedDimension
 13
1007.222871411814
 23
-53.38312117703079
 33
0.0
 14
996.4775889230105
 24
-99.91808417703081
 34
0.0
 50
90.0
100
AcDbRotatedDimension
1001
ACAD
1000
DSTYLE
1002
{
1070
   279
1070
     1
1002
}
  0
DIMENSION
  5
3DD3
330
1E
100
AcDbEntity
  8
寸法
  6
Continuous
100
AcDbDimension
  2
*D9
 10
986.3935409230107
 20
-99.91808417703079
 30
0.0
 11
982.8935409230107
 21
-63.91808417703065
 31
0.0
 70
    32
 71
     5
 42
71.99999999999997
  3
111
100
AcDbAlignedDimension
 13
1007.222871411814
 23
-27.91808417703084
 33
0.0
 14
1007.222871411814
 24
-99.91808417703081
 34
0.0
 50
90.0
100
AcDbRotatedDimension
  0
DIMENSION
  5
3DE0
330
1E
100
AcDbEntity
  8
寸法
  6
Continuous
100
AcDbDimension
  2
*D10
 10
1027.42124392301
 20
-121.2063221770308
 30
0.0
 11
1019.92124392301
 21
-117.7063221770308
 31
0.0
 70
    32
 71
     5
 42
14.99999999999988
  3
111
100
AcDbAlignedDimension
 13
1012.42124392301
 23
-106.2468943792119
 33
0.0
 14
1027.42124392301
 24
-106.2468943792119
 34
0.0
100
AcDbRotatedDimension
  0
DIMENSION
  5
3DED
330
1E
100
AcDbEntity
  8
寸法
  6
Continuous
100
AcDbDimension
  2
*D11
 10
1072.42124392301
 20
-121.2063221770308
 30
0.0
 11
1049.92124392301
 21
-117.7063221770308
 31
0.0
 70
    32
 71
     5
 42
45.0
  3
111
100
AcDbAlignedDimension
 13
1027.42124392301
 23
-106.2468943792119
 33
0.0
 14
1072.42124392301
 24
-106.2468943792119
 34
0.0
100
AcDbRotatedDimension
1001
ACAD
1000
DSTYLE
1002
{
1070
   279
1070
     1
1002
}
  0
LINE
  5
3DFA
330
1E
100
AcDbEntity
  8
受金具
  6
Continuous
 62
     2
100
AcDbLine
 10
1026.14006692301
 20
-53.3831211770308
 30
0.0
 11
1100.72124392301
 21
-53.3831211770308
 31
0.0
  0
DIMENSION
  5
3E5E
330
1E
100
AcDbEntity
  8
寸法
  6
Continuous
100
AcDbDimension
  2
*D12
 10
1125.15327792301
 20
-49.9180841770308
 30
0.0
 11
1121.65327792301
 21
-44.91808417703063
 31
0.0
 70
    32
 71
     5
 42
10.0
  3
111
100
AcDbAlignedDimension
 13
1114.434315233513
 23
-39.91808417703081
 33
0.0
 14
1114.434315233513
 24
-49.9180841770308
 34
0.0
 50
90.0
100
AcDbRotatedDimension
  0
ENDSEC
  0
SECTION
  2
OBJECTS
  0
DICTIONARY
  5
C
330
0
100
AcDbDictionary
281
     1
  3
ACAD_2007HEADERVARS_RT
350
4135
  3
ACAD_COLOR
350
3EE7
  3
ACAD_GROUP
350
D
  3
ACAD_LAYOUT
350
19
  3
ACAD_MATERIAL
350
3EE6
  3
ACAD_MLINESTYLE
350
16
  3
ACAD_PLOTSETTINGS
350
18
  3
ACAD_PLOTSTYLENAME
350
E
  3
ACAD_TABLESTYLE
350
3EE8
  3
ACAD_VISUALSTYLE
350
40D9
  3
AcDbVariableDictionary
350
169
  3
DWGPROPS
350
4134
  0
DICTIONARY
  5
4112
330
8
100
AcDbDictionary
280
     1
281
     1
  0
DICTIONARY
  5
175
330
2
100
AcDbDictionary
280
     1
281
     1
  3
ACAD_LAYERFILTERS
360
185
  3
ACAD_LAYERSTATES
360
176
  0
DICTIONARY
  5
28B
330
1E
100
AcDbDictionary
280
     1
281
     1
  3
ACAD_LAYOUTSELFREF
360
35D7
  0
DICTIONARY
  5
28D
330
1A
100
AcDbDictionary
280
     1
281
     1
  3
ACAD_LAYOUTSELFREF
360
35D6
  0
DICTIONARY
  5
4135
102
{ACAD_REACTORS
330
C
102
}
330
C
100
AcDbDictionary
281
     1
  3
DIMFXL
350
4136
  0
DICTIONARY
  5
3EE7
102
{ACAD_REACTORS
330
C
102
}
330
C
100
AcDbDictionary
281
     1
  0
DICTIONARY
  5
D
102
{ACAD_REACTORS
330
C
102
}
330
C
100
AcDbDictionary
281
     1
  0
DICTIONARY
  5
19
102
{ACAD_REACTORS
330
C
102
}
330
C
100
AcDbDictionary
281
     1
  3
Model
350
21
  3
ﾚｲｱｳﾄ1
350
1D
  0
DICTIONARY
  5
3EE6
102
{ACAD_REACTORS
330
C
102
}
330
C
100
AcDbDictionary
281
     1
  3
ByBlock
350
40D7
  3
ByLayer
350
40D6
  3
Global
350
40D8
  0
DICTIONARY
  5
16
102
{ACAD_REACTORS
330
C
102
}
330
C
100
AcDbDictionary
281
     1
  3
Standard
350
17
  0
DICTIONARY
  5
18
102
{ACAD_REACTORS
330
C
102
}
330
C
100
AcDbDictionary
281
     1
  0
ACDBDICTIONARYWDFLT
  5
E
102
{ACAD_REACTORS
330
C
102
}
330
C
100
AcDbDictionary
281
     1
  3
Normal
350
F
100
AcDbDictionaryWithDefault
340
F
1001
ACAD
1000
TREAT_AS_HARD
1070
     0
1000
TREAT_AS_HARD
1070
     0
1000
TREAT_AS_HARD
1070
     0
1000
TREAT_AS_HARD
1070
     0
1000
TREAT_AS_HARD
1070
     0
1000
TREAT_AS_HARD
1070
     0
1000
TREAT_AS_HARD
1070
     0
1000
TREAT_AS_HARD
1070
     0
1000
TREAT_AS_HARD
1070
     0
1000
TREAT_AS_HARD
1070
     0
1000
TREAT_AS_HARD
1070
     0
1000
TREAT_AS_HARD
1070
     0
1000
TREAT_AS_HARD
1070
     0
1000
TREAT_AS_HARD
1070
     0
1000
TREAT_AS_HARD
1070
     0
1000
TREAT_AS_HARD
1070
     0
1000
TREAT_AS_HARD
1070
     0
1000
TREAT_AS_HARD
1070
     0
1000
TREAT_AS_HARD
1070
     0
1000
TREAT_AS_HARD
1070
     0
1000
TREAT_AS_HARD
1070
     0
  0
DICTIONARY
  5
3EE8
102
{ACAD_REACTORS
330
C
102
}
330
C
100
AcDbDictionary
281
     1
  3
Standard
350
3EE9
  0
DICTIONARY
  5
40D9
102
{ACAD_REACTORS
330
C
102
}
330
C
100
AcDbDictionary
281
     1
  3
2dWireframe
350
40DF
  3
3D Hidden
350
40E1
  3
3dWireframe
350
40E0
  3
Basic
350
40DE
  3
Brighten
350
40E5
  3
ColorChange
350
40E9
  3
Conceptual
350
40E2
  3
Dim
350
40E4
  3
Facepattern
350
40E8
  3
Flat
350
40DA
  3
FlatWithEdges
350
40DB
  3
Gouraud
350
40DC
  3
GouraudWithEdges
350
40DD
  3
Linepattern
350
40E7
  3
Realistic
350
40E3
  3
Thicken
350
40E6
  0
DICTIONARY
  5
169
102
{ACAD_REACTORS
330
C
102
}
330
C
100
AcDbDictionary
281
     1
  3
CTABLESTYLE
350
40CC
  3
DIMASSOC
350
16A
  3
INDEXCTL
350
412D
  3
SORTENTS
350
412C
  0
XRECORD
  5
4134
102
{ACAD_REACTORS
330
C
102
}
330
C
100
AcDbXrecord
280
     1
  1
DWGPROPS COOKIE
  2

  3

  4

  6

  7

  8
TOK2100AV
  9

300
=
301
=
302
=
303
=
304
=
305
=
306
=
307
=
308
=
309
=
 40
0.2071659143518519
 41
2454316.693457674
 42
2454490.371203878
  1

 90
        0
  0
DICTIONARY
  5
185
102
{ACAD_REACTORS
330
175
102
}
330
175
100
AcDbDictionary
280
     1
281
     1
  0
DICTIONARY
  5
176
102
{ACAD_REACTORS
330
175
102
}
330
175
100
AcDbDictionary
281
     1
  3
ACAD
350
177
  0
XRECORD
  5
35D7
102
{ACAD_REACTORS
330
28B
102
}
330
28B
100
AcDbXrecord
280
     1
340
1E
  0
XRECORD
  5
35D6
102
{ACAD_REACTORS
330
28D
102
}
330
28D
100
AcDbXrecord
280
     1
340
1A
  0
XRECORD
  5
4136
102
{ACAD_REACTORS
330
4135
102
}
330
4135
100
AcDbXrecord
280
     1
 40
0.0
  0
LAYOUT
  5
21
102
{ACAD_XDICTIONARY
360
4139
102
}
102
{ACAD_REACTORS
330
19
102
}
330
19
100
AcDbPlotSettings
  1

  2
\\MEISEI-1\EPSON Stylus Photo EX3
  4

  6

 40
0.0
 41
0.0
 42
0.0
 43
0.0
 44
0.0
 45
0.0
 46
0.0
 47
0.0
 48
0.0
 49
0.0
140
0.0
141
0.0
142
1.0
143
1.0
 70
  1712
 72
     0
 73
     0
 74
     0
  7

 75
     0
147
1.0
148
0.0
149
0.0
100
AcDbLayout
  1
Model
 70
     1
 71
     0
 10
0.0
 20
0.0
 11
12.0
 21
9.0
 12
0.0
 22
0.0
 32
0.0
 14
0.0
 24
0.0
 34
0.0
 15
0.0
 25
0.0
 35
0.0
146
0.0
 13
0.0
 23
0.0
 33
0.0
 16
1.0
 26
0.0
 36
0.0
 17
0.0
 27
1.0
 37
0.0
 76
     0
330
1E
331
40D4
  0
LAYOUT
  5
1D
102
{ACAD_XDICTIONARY
360
4137
102
}
102
{ACAD_REACTORS
330
19
102
}
330
19
100
AcDbPlotSettings
  1

  2
\\MEISEI-1\EPSON Stylus Photo EX3
  4

  6

 40
0.0
 41
0.0
 42
0.0
 43
0.0
 44
0.0
 45
0.0
 46
0.0
 47
0.0
 48
0.0
 49
0.0
140
0.0
141
0.0
142
1.0
143
1.0
 70
   688
 72
     0
 73
     0
 74
     5
  7

 75
    16
147
1.0
148
0.0
149
0.0
100
AcDbLayout
  1
ﾚｲｱｳﾄ1
 70
     1
 71
     1
 10
0.0
 20
0.0
 11
12.0
 21
9.0
 12
0.0
 22
0.0
 32
0.0
 14
1.000000000000000E+20
 24
1.000000000000000E+20
 34
1.000000000000000E+20
 15
-1.000000000000000E+20
 25
-1.000000000000000E+20
 35
-1.000000000000000E+20
146
0.0
 13
0.0
 23
0.0
 33
0.0
 16
1.0
 26
0.0
 36
0.0
 17
0.0
 27
1.0
 37
0.0
 76
     0
330
1A
  0
MATERIAL
  5
40D7
102
{ACAD_XDICTIONARY
360
413F
102
}
102
{ACAD_REACTORS
330
3EE6
102
}
330
3EE6
100
AcDbMaterial
  1
ByBlock
  0
MATERIAL
  5
40D6
102
{ACAD_XDICTIONARY
360
413D
102
}
102
{ACAD_REACTORS
330
3EE6
102
}
330
3EE6
100
AcDbMaterial
  1
ByLayer
  0
MATERIAL
  5
40D8
102
{ACAD_XDICTIONARY
360
4141
102
}
102
{ACAD_REACTORS
330
3EE6
102
}
330
3EE6
100
AcDbMaterial
  1
Global
  0
MLINESTYLE
  5
17
102
{ACAD_REACTORS
330
16
102
}
330
16
100
AcDbMlineStyle
  2
STANDARD
 70
     0
  3

 62
   256
 51
90.0
 52
90.0
 71
     2
 49
0.5
 62
   256
  6
BYLAYER
 49
-0.5
 62
   256
  6
BYLAYER
  0
ACDBPLACEHOLDER
  5
F
102
{ACAD_REACTORS
330
E
102
}
330
E
  0
TABLESTYLE
  5
3EE9
102
{ACAD_XDICTIONARY
360
413B
102
}
102
{ACAD_REACTORS
330
3EE8
102
}
330
3EE8
100
AcDbTableStyle
  3
Standard
 70
     0
 71
     0
 40
0.06
 41
0.06
280
     0
281
     0
  7
STANDARD
140
0.18
170
     2
 62
     0
 63
     7
283
     0
274
    -2
284
     1
 64
     0
275
    -2
285
     1
 65
     0
276
    -2
286
     1
 66
     0
277
    -2
287
     1
 67
     0
278
    -2
288
     1
 68
     0
279
    -2
289
     1
 69
     0
  7
STANDARD
140
0.25
170
     5
 62
     0
 63
     7
283
     0
274
    -2
284
     1
 64
     0
275
    -2
285
     1
 65
     0
276
    -2
286
     1
 66
     0
277
    -2
287
     1
 67
     0
278
    -2
288
     1
 68
     0
279
    -2
289
     1
 69
     0
  7
STANDARD
140
0.18
170
     5
 62
     0
 63
     7
283
     0
274
    -2
284
     1
 64
     0
275
    -2
285
     1
 65
     0
276
    -2
286
     1
 66
     0
277
    -2
287
     1
 67
     0
278
    -2
288
     1
 68
     0
279
    -2
289
     1
 69
     0
  0
VISUALSTYLE
  5
40DF
102
{ACAD_REACTORS
330
40D9
102
}
330
40D9
100
AcDbVisualStyle
  2
2dWireframe
 70
     4
 71
     0
 72
     2
 73
     0
 90
        0
 40
-0.6
 41
-30.0
 62
     5
 63
     7
 74
     1
 91
        4
 64
     7
 65
   257
 75
     1
175
     1
 42
1.0
 92
        0
 66
   257
 43
1.0
 76
     1
 77
     6
 78
     2
 67
     7
 79
     5
170
     0
171
     0
290
     0
174
     0
 93
        1
 44
0.0
173
     0
291
     0
 45
0.0
1001
ACAD
1000
AcDbSavedByObjectVersion
1070
     0
  0
VISUALSTYLE
  5
40E1
102
{ACAD_REACTORS
330
40D9
102
}
330
40D9
100
AcDbVisualStyle
  2
3D Hidden
 70
     6
 71
     1
 72
     2
 73
     2
 90
        0
 40
-0.6
 41
-30.0
 62
     5
 63
     7
 74
     2
 91
        2
 64
     7
 65
   257
 75
     2
175
     1
 42
40.0
 92
        0
 66
   257
 43
1.0
 76
     1
 77
     6
 78
     2
 67
     7
 79
     3
170
     0
171
     0
290
     0
174
     0
 93
        1
 44
0.0
173
     0
291
     0
 45
0.0
1001
ACAD
1000
AcDbSavedByObjectVersion
1070
     0
  0
VISUALSTYLE
  5
40E0
102
{ACAD_REACTORS
330
40D9
102
}
330
40D9
100
AcDbVisualStyle
  2
3dWireframe
 70
     5
 71
     0
 72
     2
 73
     0
 90
        0
 40
-0.6
 41
-30.0
 62
     5
 63
     7
 74
     1
 91
        4
 64
     7
 65
   257
 75
     1
175
     1
 42
1.0
 92
        0
 66
   257
 43
1.0
 76
     1
 77
     6
 78
     2
 67
     7
 79
     5
170
     0
171
     0
290
     0
174
     0
 93
        1
 44
0.0
173
     0
291
     0
 45
0.0
1001
ACAD
1000
AcDbSavedByObjectVersion
1070
     0
  0
VISUALSTYLE
  5
40DE
102
{ACAD_REACTORS
330
40D9
102
}
330
40D9
100
AcDbVisualStyle
  2
Basic
 70
     7
 71
     1
 72
     0
 73
     1
 90
        0
 40
-0.6
 41
-30.0
 62
     5
 63
     7
 74
     0
 91
        4
 64
     7
 65
   257
 75
     1
175
     1
 42
1.0
 92
        8
 66
     7
 43
1.0
 76
     1
 77
     6
 78
     2
 67
     7
 79
     5
170
     0
171
     0
290
     0
174
     0
 93
        1
 44
0.0
173
     0
291
     1
 45
0.0
1001
ACAD
1000
AcDbSavedByObjectVersion
1070
     0
  0
VISUALSTYLE
  5
40E5
102
{ACAD_REACTORS
330
40D9
102
}
330
40D9
100
AcDbVisualStyle
  2
Brighten
 70
    12
 71
     2
 72
     2
 73
     0
 90
        0
 40
-0.6
 41
-30.0
 62
     5
 63
     7
 74
     1
 91
        4
 64
     7
 65
   257
 75
     1
175
     1
 42
1.0
 92
        8
 66
     7
 43
1.0
 76
     1
 77
     6
 78
     2
 67
     7
 79
     5
170
     0
171
     0
290
     0
174
     0
 93
        1
 44
50.0
173
     0
291
     1
 45
0.0
1001
ACAD
1000
AcDbSavedByObjectVersion
1070
     0
  0
VISUALSTYLE
  5
40E9
102
{ACAD_REACTORS
330
40D9
102
}
330
40D9
100
AcDbVisualStyle
  2
ColorChange
 70
    16
 71
     2
 72
     2
 73
     3
 90
        0
 40
-0.6
 41
-30.0
 62
     5
 63
     8
 74
     1
 91
        4
 64
     7
 65
   257
 75
     1
175
     1
 42
1.0
 92
        8
 66
     8
 43
1.0
 76
     1
 77
     6
 78
     2
 67
     7
 79
     5
170
     0
171
     0
290
     0
174
     0
 93
        1
 44
0.0
173
     0
291
     1
 45
0.0
1001
ACAD
1000
AcDbSavedByObjectVersion
1070
     0
  0
VISUALSTYLE
  5
40E2
102
{ACAD_REACTORS
330
40D9
102
}
330
40D9
100
AcDbVisualStyle
  2
Conceptual
 70
     9
 71
     3
 72
     2
 73
     0
 90
        0
 40
-0.6
 41
-30.0
 62
     5
 63
     7
 74
     2
 91
        2
 64
     7
 65
   257
 75
     1
175
     1
 42
40.0
 92
        8
 66
     7
 43
1.0
 76
     1
 77
     6
 78
     2
 67
     7
 79
     3
170
     0
171
     0
290
     0
174
     0
 93
        1
 44
0.0
173
     0
291
     0
 45
0.0
1001
ACAD
1000
AcDbSavedByObjectVersion
1070
     0
  0
VISUALSTYLE
  5
40E4
102
{ACAD_REACTORS
330
40D9
102
}
330
40D9
100
AcDbVisualStyle
  2
Dim
 70
    11
 71
     2
 72
     2
 73
     0
 90
        0
 40
-0.6
 41
-30.0
 62
     5
 63
     7
 74
     1
 91
        4
 64
     7
 65
   257
 75
     1
175
     1
 42
1.0
 92
        8
 66
     7
 43
1.0
 76
     1
 77
     6
 78
     2
 67
     7
 79
     5
170
     0
171
     0
290
     0
174
     0
 93
        1
 44
-50.0
173
     0
291
     1
 45
0.0
1001
ACAD
1000
AcDbSavedByObjectVersion
1070
     0
  0
VISUALSTYLE
  5
40E8
102
{ACAD_REACTORS
330
40D9
102
}
330
40D9
100
AcDbVisualStyle
  2
Facepattern
 70
    15
 71
     2
 72
     2
 73
     0
 90
        0
 40
-0.6
 41
-30.0
 62
     5
 63
     7
 74
     1
 91
        4
 64
     7
 65
   257
 75
     1
175
     1
 42
1.0
 92
        8
 66
     7
 43
1.0
 76
     1
 77
     6
 78
     2
 67
     7
 79
     5
170
     0
171
     0
290
     0
174
     0
 93
        1
 44
0.0
173
     0
291
     1
 45
0.0
1001
ACAD
1000
AcDbSavedByObjectVersion
1070
     0
  0
VISUALSTYLE
  5
40DA
102
{ACAD_REACTORS
330
40D9
102
}
330
40D9
100
AcDbVisualStyle
  2
Flat
 70
     0
 71
     2
 72
     1
 73
     1
 90
        2
 40
-0.6
 41
30.0
 62
     5
 63
     7
 74
     0
 91
        4
 64
     7
 65
   257
 75
     1
175
     1
 42
1.0
 92
        8
 66
     7
 43
1.0
 76
     1
 77
     6
 78
     2
 67
     7
 79
     5
170
     0
171
     0
290
     0
174
     0
 93
       13
 44
0.0
173
     0
291
     1
 45
0.0
1001
ACAD
1000
AcDbSavedByObjectVersion
1070
     0
  0
VISUALSTYLE
  5
40DB
102
{ACAD_REACTORS
330
40D9
102
}
330
40D9
100
AcDbVisualStyle
  2
FlatWithEdges
 70
     1
 71
     2
 72
     1
 73
     1
 90
        2
 40
-0.6
 41
30.0
 62
     5
 63
     7
 74
     1
 91
        4
 64
     7
 65
   257
 75
     1
175
     1
 42
1.0
 92
        0
 66
   257
 43
1.0
 76
     1
 77
     6
 78
     2
 67
     7
 79
     5
170
     0
171
     0
290
     0
174
     0
 93
       13
 44
0.0
173
     0
291
     1
 45
0.0
1001
ACAD
1000
AcDbSavedByObjectVersion
1070
     0
  0
VISUALSTYLE
  5
40DC
102
{ACAD_REACTORS
330
40D9
102
}
330
40D9
100
AcDbVisualStyle
  2
Gouraud
 70
     2
 71
     2
 72
     2
 73
     1
 90
        2
 40
-0.6
 41
30.0
 62
     5
 63
     7
 74
     0
 91
        4
 64
     7
 65
   257
 75
     1
175
     1
 42
1.0
 92
        0
 66
     7
 43
1.0
 76
     1
 77
     6
 78
     2
 67
     7
 79
     5
170
     0
171
     0
290
     0
174
     0
 93
       13
 44
0.0
173
     0
291
     1
 45
0.0
1001
ACAD
1000
AcDbSavedByObjectVersion
1070
     0
  0
VISUALSTYLE
  5
40DD
102
{ACAD_REACTORS
330
40D9
102
}
330
40D9
100
AcDbVisualStyle
  2
GouraudWithEdges
 70
     3
 71
     2
 72
     2
 73
     1
 90
        2
 40
-0.6
 41
30.0
 62
     5
 63
     7
 74
     1
 91
        4
 64
     7
 65
   257
 75
     1
175
     1
 42
1.0
 92
        0
 66
   257
 43
1.0
 76
     1
 77
     6
 78
     2
 67
     7
 79
     5
170
     0
171
     0
290
     0
174
     0
 93
       13
 44
0.0
173
     0
291
     1
 45
0.0
1001
ACAD
1000
AcDbSavedByObjectVersion
1070
     0
  0
VISUALSTYLE
  5
40E7
102
{ACAD_REACTORS
330
40D9
102
}
330
40D9
100
AcDbVisualStyle
  2
Linepattern
 70
    14
 71
     2
 72
     2
 73
     0
 90
        0
 40
-0.6
 41
-30.0
 62
     5
 63
     7
 74
     1
 91
        4
 64
     7
 65
   257
 75
     7
175
     7
 42
1.0
 92
        8
 66
     7
 43
1.0
 76
     1
 77
     6
 78
     2
 67
     7
 79
     5
170
     0
171
     0
290
     0
174
     0
 93
        1
 44
0.0
173
     0
291
     1
 45
0.0
1001
ACAD
1000
AcDbSavedByObjectVersion
1070
     0
  0
VISUALSTYLE
  5
40E3
102
{ACAD_REACTORS
330
40D9
102
}
330
40D9
100
AcDbVisualStyle
  2
Realistic
 70
     8
 71
     2
 72
     2
 73
     0
 90
        0
 40
-0.6
 41
-30.0
 62
     5
 63
     7
 74
     1
 91
        0
 64
     7
 65
   257
 75
     1
175
     1
 42
1.0
 92
        8
 66
     8
 43
1.0
 76
     1
 77
     6
 78
     2
 67
     7
 79
     5
170
     0
171
     0
290
     0
174
     0
 93
       13
 44
0.0
173
     0
291
     0
 45
0.0
1001
ACAD
1000
AcDbSavedByObjectVersion
1070
     0
  0
VISUALSTYLE
  5
40E6
102
{ACAD_REACTORS
330
40D9
102
}
330
40D9
100
AcDbVisualStyle
  2
Thicken
 70
    13
 71
     2
 72
     2
 73
     0
 90
        0
 40
-0.6
 41
-30.0
 62
     5
 63
     7
 74
     1
 91
        4
 64
     7
 65
   257
 75
     1
175
     1
 42
1.0
 92
       12
 66
     7
 43
1.0
 76
     1
 77
     6
 78
     2
 67
     7
 79
     5
170
     0
171
     0
290
     0
174
     0
 93
        1
 44
0.0
173
     0
291
     1
 45
0.0
1001
ACAD
1000
AcDbSavedByObjectVersion
1070
     0
  0
DICTIONARYVAR
  5
40CC
102
{ACAD_REACTORS
330
169
102
}
330
169
100
DictionaryVariables
280
     0
  1
STANDARD
  0
DICTIONARYVAR
  5
16A
102
{ACAD_REACTORS
330
169
102
}
330
169
100
DictionaryVariables
280
     0
  1
1
  0
DICTIONARYVAR
  5
412D
102
{ACAD_REACTORS
330
169
102
}
330
169
100
DictionaryVariables
280
     0
  1
0
  0
DICTIONARYVAR
  5
412C
102
{ACAD_REACTORS
330
169
102
}
330
169
100
DictionaryVariables
280
     0
  1
127
  0
XRECORD
  5
177
102
{ACAD_REACTORS
330
176
102
}
330
176
100
AcDbXrecord
280
     1
 91
      476
330
17B
 90
        8
 62
     7
370
    -3
331
15
  1
Color_7
330
17A
 90
        8
 62
     7
370
    -3
331
15
  1
Color_7
330
179
 90
        8
 62
     7
370
    -3
331
15
  1
Color_7
330
178
 90
        8
 62
     7
370
    -3
331
15
  1
Color_7
330
128
 90
        0
 62
     7
370
    -3
331
15
  1
Color_7
330
10
 90
        8
 62
     7
370
    -3
331
15
  1
Color_7
  0
DICTIONARY
  5
4139
330
21
100
AcDbDictionary
280
     1
281
     1
  3
ACAD_XREC_ROUNDTRIP
360
413A
  0
DICTIONARY
  5
4137
330
1D
100
AcDbDictionary
280
     1
281
     1
  3
ACAD_XREC_ROUNDTRIP
360
4138
  0
DICTIONARY
  5
413F
330
40D7
100
AcDbDictionary
280
     1
281
     1
  3
ACAD_XREC_ROUNDTRIP
360
4140
  0
DICTIONARY
  5
413D
330
40D6
100
AcDbDictionary
280
     1
281
     1
  3
ACAD_XREC_ROUNDTRIP
360
413E
  0
DICTIONARY
  5
4141
330
40D8
100
AcDbDictionary
280
     1
281
     1
  3
ACAD_XREC_ROUNDTRIP
360
4142
  0
DICTIONARY
  5
413B
330
3EE9
100
AcDbDictionary
280
     1
281
     1
  3
ACAD_XREC_ROUNDTRIP
360
413C
  0
XRECORD
  5
413A
102
{ACAD_REACTORS
330
4139
102
}
330
4139
100
AcDbXrecord
280
     1
102
SHADEPLOT
 70
     0
102
SHADEPLOTRESLEVEL
 70
     2
102
SHADEPLOTCUSTOMDPI
 70
   300
  0
XRECORD
  5
4138
102
{ACAD_REACTORS
330
4137
102
}
330
4137
100
AcDbXrecord
280
     1
102
SHADEPLOT
 70
     0
102
SHADEPLOTRESLEVEL
 70
     2
102
SHADEPLOTCUSTOMDPI
 70
   300
  0
XRECORD
  5
4140
102
{ACAD_REACTORS
330
413F
102
}
330
413F
100
AcDbXrecord
280
     1
102
MATERIAL
148
0.0
149
0.0
149
0.0
 93
        0
 94
       63
282
     0
 72
     1
 77
     1
171
     1
175
     1
179
     1
273
     0
  0
XRECORD
  5
413E
102
{ACAD_REACTORS
330
413D
102
}
330
413D
100
AcDbXrecord
280
     1
102
MATERIAL
148
0.0
149
0.0
149
0.0
 93
        0
 94
       63
282
     0
 72
     1
 77
     1
171
     1
175
     1
179
     1
273
     0
  0
XRECORD
  5
4142
102
{ACAD_REACTORS
330
4141
102
}
330
4141
100
AcDbXrecord
280
     1
102
MATERIAL
148
0.0
149
0.0
149
0.0
 93
        0
 94
       63
282
     0
 72
     1
 77
     1
171
     1
175
     1
179
     1
273
     0
  0
XRECORD
  5
413C
102
{ACAD_REACTORS
330
413B
102
}
330
413B
100
AcDbXrecord
280
     1
102
ACAD_ROUNDTRIP_PRE2007_TABLESTYLE
 90
        4
 91
        0
  1

 92
        4
 93
        0
  2

 94
        4
 95
        0
  3

  0
ENDSEC
  0
EOF
