  0
SECTION
  2
HEADER
  9
$ACADVER
  1
AC1015
  9
$ACADMAINTVER
 70
    20
  9
$DWGCODEPAGE
  3
ANSI_932
  9
$INSBASE
 10
0.0
 20
0.0
 30
0.0
  9
$EXTMIN
 10
933.8105825324255
 20
-112.6466024529246
 30
-0.0000000349181948
  9
$EXTMAX
 10
1115.405661935131
 20
148.3865626922446
 30
0.0000000814935746
  9
$LIMMIN
 10
0.0
 20
0.0
  9
$LIMMAX
 10
420.0
 20
297.0
  9
$ORTHOMODE
 70
     0
  9
$REGENMODE
 70
     1
  9
$FILLMODE
 70
     1
  9
$QTEXTMODE
 70
     0
  9
$MIRRTEXT
 70
     1
  9
$LTSCALE
 40
1.0
  9
$ATTMODE
 70
     1
  9
$TEXTSIZE
 40
5.0
  9
$TRACEWID
 40
0.05
  9
$TEXTSTYLE
  7
ACAD
  9
$CLAYER
  8
受金具
  9
$CELTYPE
  6
CONTINUOUS
  9
$CECOLOR
 62
     3
  9
$CELTSCALE
 40
1.0
  9
$DISPSILH
 70
     0
  9
$DIMSCALE
 40
1.0
  9
$DIMASZ
 40
1.0
  9
$DIMEXO
 40
0.0
  9
$DIMDLI
 40
0.38
  9
$DIMRND
 40
0.0
  9
$DIMDLE
 40
0.0
  9
$DIMEXE
 40
0.0
  9
$DIMTP
 40
0.0
  9
$DIMTM
 40
0.0
  9
$DIMTXT
 40
5.0
  9
$DIMCEN
 40
0.09
  9
$DIMTSZ
 40
0.0
  9
$DIMTOL
 70
     0
  9
$DIMLIM
 70
     0
  9
$DIMTIH
 70
     0
  9
$DIMTOH
 70
     1
  9
$DIMSE1
 70
     0
  9
$DIMSE2
 70
     0
  9
$DIMTAD
 70
     1
  9
$DIMZIN
 70
     0
  9
$DIMBLK
  1
Dot
  9
$DIMASO
 70
     1
  9
$DIMSHO
 70
     1
  9
$DIMPOST
  1

  9
$DIMAPOST
  1

  9
$DIMALT
 70
     0
  9
$DIMALTD
 70
     2
  9
$DIMALTF
 40
25.4
  9
$DIMLFAC
 40
1.0
  9
$DIMTOFL
 70
     0
  9
$DIMTVP
 40
0.0
  9
$DIMTIX
 70
     1
  9
$DIMSOXD
 70
     0
  9
$DIMSAH
 70
     0
  9
$DIMBLK1
  1

  9
$DIMBLK2
  1

  9
$DIMSTYLE
  2
AutoCAD
  9
$DIMCLRD
 70
     4
  9
$DIMCLRE
 70
     4
  9
$DIMCLRT
 70
     3
  9
$DIMTFAC
 40
1.0
  9
$DIMGAP
 40
1.0
  9
$DIMJUST
 70
     0
  9
$DIMSD1
 70
     0
  9
$DIMSD2
 70
     0
  9
$DIMTOLJ
 70
     1
  9
$DIMTZIN
 70
     0
  9
$DIMALTZ
 70
     0
  9
$DIMALTTZ
 70
     0
  9
$DIMUPT
 70
     0
  9
$DIMDEC
 70
     0
  9
$DIMTDEC
 70
     0
  9
$DIMALTU
 70
     2
  9
$DIMALTTD
 70
     2
  9
$DIMTXSTY
  7
ACAD
  9
$DIMAUNIT
 70
     0
  9
$DIMADEC
 70
     0
  9
$DIMALTRND
 40
0.0
  9
$DIMAZIN
 70
     0
  9
$DIMDSEP
 70
    46
  9
$DIMATFIT
 70
     0
  9
$DIMFRAC
 70
     0
  9
$DIMLDRBLK
  1
None
  9
$DIMLUNIT
 70
     2
  9
$DIMLWD
 70
    -2
  9
$DIMLWE
 70
    -2
  9
$DIMTMOVE
 70
     0
  9
$LUNITS
 70
     2
  9
$LUPREC
 70
     4
  9
$SKETCHINC
 40
0.1
  9
$FILLETRAD
 40
0.0
  9
$AUNITS
 70
     0
  9
$AUPREC
 70
     0
  9
$MENU
  1
.
  9
$ELEVATION
 40
0.0
  9
$PELEVATION
 40
0.0
  9
$THICKNESS
 40
0.0
  9
$LIMCHECK
 70
     0
  9
$CHAMFERA
 40
0.0
  9
$CHAMFERB
 40
0.0
  9
$CHAMFERC
 40
0.0
  9
$CHAMFERD
 40
0.0
  9
$SKPOLY
 70
     0
  9
$TDCREATE
 40
2454316.693457674
  9
$TDUCREATE
 40
2454316.318457674
  9
$TDUPDATE
 40
2454769.457127998
  9
$TDUUPDATE
 40
2454769.082127998
  9
$TDINDWG
 40
0.2139181481
  9
$TDUSRTIMER
 40
0.2139179745
  9
$USRTIMER
 70
     1
  9
$ANGBASE
 50
0.0
  9
$ANGDIR
 70
     0
  9
$PDMODE
 70
     0
  9
$PDSIZE
 40
0.0
  9
$PLINEWID
 40
0.0
  9
$SPLFRAME
 70
     0
  9
$SPLINETYPE
 70
     6
  9
$SPLINESEGS
 70
     8
  9
$HANDSEED
  5
40F7
  9
$SURFTAB1
 70
     6
  9
$SURFTAB2
 70
     6
  9
$SURFTYPE
 70
     6
  9
$SURFU
 70
     6
  9
$SURFV
 70
     6
  9
$UCSBASE
  2

  9
$UCSNAME
  2

  9
$UCSORG
 10
0.0
 20
0.0
 30
0.0
  9
$UCSXDIR
 10
1.0
 20
0.0
 30
0.0
  9
$UCSYDIR
 10
0.0
 20
1.0
 30
0.0
  9
$UCSORTHOREF
  2

  9
$UCSORTHOVIEW
 70
     0
  9
$UCSORGTOP
 10
0.0
 20
0.0
 30
0.0
  9
$UCSORGBOTTOM
 10
0.0
 20
0.0
 30
0.0
  9
$UCSORGLEFT
 10
0.0
 20
0.0
 30
0.0
  9
$UCSORGRIGHT
 10
0.0
 20
0.0
 30
0.0
  9
$UCSORGFRONT
 10
0.0
 20
0.0
 30
0.0
  9
$UCSORGBACK
 10
0.0
 20
0.0
 30
0.0
  9
$PUCSBASE
  2

  9
$PUCSNAME
  2

  9
$PUCSORG
 10
0.0
 20
0.0
 30
0.0
  9
$PUCSXDIR
 10
1.0
 20
0.0
 30
0.0
  9
$PUCSYDIR
 10
0.0
 20
1.0
 30
0.0
  9
$PUCSORTHOREF
  2

  9
$PUCSORTHOVIEW
 70
     0
  9
$PUCSORGTOP
 10
0.0
 20
0.0
 30
0.0
  9
$PUCSORGBOTTOM
 10
0.0
 20
0.0
 30
0.0
  9
$PUCSORGLEFT
 10
0.0
 20
0.0
 30
0.0
  9
$PUCSORGRIGHT
 10
0.0
 20
0.0
 30
0.0
  9
$PUCSORGFRONT
 10
0.0
 20
0.0
 30
0.0
  9
$PUCSORGBACK
 10
0.0
 20
0.0
 30
0.0
  9
$USERI1
 70
     0
  9
$USERI2
 70
     0
  9
$USERI3
 70
     0
  9
$USERI4
 70
     0
  9
$USERI5
 70
     0
  9
$USERR1
 40
0.0
  9
$USERR2
 40
0.0
  9
$USERR3
 40
0.0
  9
$USERR4
 40
0.0
  9
$USERR5
 40
0.0
  9
$WORLDVIEW
 70
     1
  9
$SHADEDGE
 70
     3
  9
$SHADEDIF
 70
    70
  9
$TILEMODE
 70
     1
  9
$MAXACTVP
 70
    48
  9
$PINSBASE
 10
0.0
 20
0.0
 30
0.0
  9
$PLIMCHECK
 70
     0
  9
$PEXTMIN
 10
1.000000000000000E+20
 20
1.000000000000000E+20
 30
1.000000000000000E+20
  9
$PEXTMAX
 10
-1.000000000000000E+20
 20
-1.000000000000000E+20
 30
-1.000000000000000E+20
  9
$PLIMMIN
 10
0.0
 20
0.0
  9
$PLIMMAX
 10
12.0
 20
9.0
  9
$UNITMODE
 70
     0
  9
$VISRETAIN
 70
     0
  9
$PLINEGEN
 70
     0
  9
$PSLTSCALE
 70
     1
  9
$TREEDEPTH
 70
  3020
  9
$CMLSTYLE
  2
Standard
  9
$CMLJUST
 70
     0
  9
$CMLSCALE
 40
1.0
  9
$PROXYGRAPHICS
 70
     1
  9
$MEASUREMENT
 70
     0
  9
$CELWEIGHT
370
    -1
  9
$ENDCAPS
280
     0
  9
$JOINSTYLE
280
     0
  9
$LWDISPLAY
290
     0
  9
$INSUNITS
 70
     0
  9
$HYPERLINKBASE
  1

  9
$STYLESHEET
  1

  9
$XEDIT
290
     1
  9
$CEPSNTYPE
380
     0
  9
$PSTYLEMODE
290
     1
  9
$FINGERPRINTGUID
  2
{CC7D6DEE-A9F1-4F3E-AC95-C84B62CCA3FD}
  9
$VERSIONGUID
  2
{1C834B58-6FB6-4C07-98C7-7546D812AD90}
  9
$EXTNAMES
290
     1
  9
$PSVPSCALE
 40
0.0
  9
$OLESTARTUP
290
     0
  0
ENDSEC
  0
SECTION
  2
CLASSES
  0
CLASS
  1
ACDBDICTIONARYWDFLT
  2
AcDbDictionaryWithDefault
  3
ObjectDBX Classes
 90
        0
280
     0
281
     0
  0
CLASS
  1
ACDBPLACEHOLDER
  2
AcDbPlaceHolder
  3
ObjectDBX Classes
 90
        0
280
     0
281
     0
  0
CLASS
  1
LAYOUT
  2
AcDbLayout
  3
ObjectDBX Classes
 90
        0
280
     0
281
     0
  0
CLASS
  1
DICTIONARYVAR
  2
AcDbDictionaryVar
  3
ObjectDBX Classes
 90
        0
280
     0
281
     0
  0
CLASS
  1
TABLESTYLE
  2
AcDbTableStyle
  3
ObjectDBX Classes
 90
     4095
280
     0
281
     0
  0
CLASS
  1
MATERIAL
  2
AcDbMaterial
  3
ObjectDBX Classes
 90
     1153
280
     0
281
     0
  0
CLASS
  1
VISUALSTYLE
  2
AcDbVisualStyle
  3
ObjectDBX Classes
 90
     4095
280
     0
281
     0
  0
ENDSEC
  0
SECTION
  2
TABLES
  0
TABLE
  2
VPORT
  5
8
330
0
100
AcDbSymbolTable
 70
     1
  0
VPORT
  5
40A7
330
8
100
AcDbSymbolTableRecord
100
AcDbViewportTableRecord
  2
*Active
 70
     0
 10
0.0
 20
0.0
 11
1.0
 21
1.0
 12
1047.5816668367
 22
4.406327841105877
 13
0.0
 23
0.0
 14
1.0
 24
1.0
 15
0.0
 25
0.0
 16
0.0
 26
0.0
 36
1.0
 17
0.0
 27
0.0
 37
0.0
 40
410.0693356897319
 41
1.571614583333333
 42
50.0
 43
0.0
 44
0.0
 50
0.0
 51
0.0
 71
     0
 72
   100
 73
     1
 74
     1
 75
     0
 76
     0
 77
     0
 78
     0
281
     0
 65
     1
110
0.0
120
0.0
130
0.0
111
1.0
121
0.0
131
0.0
112
0.0
122
1.0
132
0.0
 79
     0
146
0.0
  0
ENDTAB
  0
TABLE
  2
LTYPE
  5
5
330
0
100
AcDbSymbolTable
 70
    50
  0
LTYPE
  5
13
330
5
100
AcDbSymbolTableRecord
100
AcDbLinetypeTableRecord
  2
ByBlock
 70
     0
  3

 72
    65
 73
     0
 40
0.0
  0
LTYPE
  5
14
330
5
100
AcDbSymbolTableRecord
100
AcDbLinetypeTableRecord
  2
ByLayer
 70
     0
  3

 72
    65
 73
     0
 40
0.0
  0
LTYPE
  5
15
330
5
100
AcDbSymbolTableRecord
100
AcDbLinetypeTableRecord
  2
CONTINUOUS
 70
     0
  3
実線
 72
    65
 73
     0
 40
0.0
  0
LTYPE
  5
22
330
5
100
AcDbSymbolTableRecord
100
AcDbLinetypeTableRecord
  2
DASHED1
 70
     0
  3
--  --  --  --  --  --  --  --  
 72
    65
 73
     2
 40
2.5
 49
1.25
 74
     0
 49
-1.25
 74
     0
  0
LTYPE
  5
23
330
5
100
AcDbSymbolTableRecord
100
AcDbLinetypeTableRecord
  2
DASHED2
 70
     0
  3
----    ----    ----    ----    
 72
    65
 73
     2
 40
5.0
 49
2.5
 74
     0
 49
-2.5
 74
     0
  0
LTYPE
  5
24
330
5
100
AcDbSymbolTableRecord
100
AcDbLinetypeTableRecord
  2
DASHED3
 70
     0
  3
------  ------  ------  ------  
 72
    65
 73
     2
 40
5.0
 49
3.75
 74
     0
 49
-1.25
 74
     0
  0
LTYPE
  5
25
330
5
100
AcDbSymbolTableRecord
100
AcDbLinetypeTableRecord
  2
CENTER1
 70
     0
  3
----- - ----- - ----- - ----- - 
 72
    65
 73
     4
 40
10.0
 49
6.25
 74
     0
 49
-1.25
 74
     0
 49
1.25
 74
     0
 49
-1.25
 74
     0
  0
LTYPE
  5
26
330
5
100
AcDbSymbolTableRecord
100
AcDbLinetypeTableRecord
  2
CENTER2
 70
     0
  3
----------  --  ----------  --  
 72
    65
 73
     4
 40
20.0
 49
12.5
 74
     0
 49
-2.5
 74
     0
 49
2.5
 74
     0
 49
-2.5
 74
     0
  0
LTYPE
  5
27
330
5
100
AcDbSymbolTableRecord
100
AcDbLinetypeTableRecord
  2
PHANTOM1
 70
     0
  3
--- - - --- - - --- - - --- - - 
 72
    65
 73
     6
 40
10.0
 49
3.25
 74
     0
 49
-1.25
 74
     0
 49
1.25
 74
     0
 49
-1.25
 74
     0
 49
1.25
 74
     0
 49
-1.25
 74
     0
  0
LTYPE
  5
28
330
5
100
AcDbSymbolTableRecord
100
AcDbLinetypeTableRecord
  2
PHANTOM2
 70
     0
  3
--------  -  -  --------  -  -  
 72
    65
 73
     6
 40
20.0
 49
10.0
 74
     0
 49
-2.5
 74
     0
 49
1.25
 74
     0
 49
-2.5
 74
     0
 49
1.25
 74
     0
 49
-2.5
 74
     0
  0
LTYPE
  5
29
330
5
100
AcDbSymbolTableRecord
100
AcDbLinetypeTableRecord
  2
DOT
 70
     0
  3
-   -   -   -   -   -   -   -   
 72
    65
 73
     2
 40
2.5
 49
0.625
 74
     0
 49
-1.875
 74
     0
  0
LTYPE
  5
2A
330
5
100
AcDbSymbolTableRecord
100
AcDbLinetypeTableRecord
  2
DUMMY
 70
     0
  3
ダミー
 72
    65
 73
     0
 40
0.0
  0
LTYPE
  5
2B
330
5
100
AcDbSymbolTableRecord
100
AcDbLinetypeTableRecord
  2
RAND1
 70
     0
  3
ランダム線1
 72
    65
 73
     4
 40
10.0
 49
1.0
 74
     0
 49
-2.0
 74
     0
 49
3.0
 74
     0
 49
-4.0
 74
     0
  0
LTYPE
  5
2C
330
5
100
AcDbSymbolTableRecord
100
AcDbLinetypeTableRecord
  2
RAND2
 70
     0
  3
ランダム線2
 72
    65
 73
     4
 40
14.0
 49
2.0
 74
     0
 49
-3.0
 74
     0
 49
4.0
 74
     0
 49
-5.0
 74
     0
  0
LTYPE
  5
2D
330
5
100
AcDbSymbolTableRecord
100
AcDbLinetypeTableRecord
  2
RAND3
 70
     0
  3
ランダム線3
 72
    65
 73
     4
 40
18.0
 49
3.0
 74
     0
 49
-4.0
 74
     0
 49
5.0
 74
     0
 49
-6.0
 74
     0
  0
LTYPE
  5
2E
330
5
100
AcDbSymbolTableRecord
100
AcDbLinetypeTableRecord
  2
RAND4
 70
     0
  3
ランダム線4
 72
    65
 73
     4
 40
22.0
 49
4.0
 74
     0
 49
-5.0
 74
     0
 49
6.0
 74
     0
 49
-7.0
 74
     0
  0
LTYPE
  5
2F
330
5
100
AcDbSymbolTableRecord
100
AcDbLinetypeTableRecord
  2
RAND5
 70
     0
  3
ランダム線5
 72
    65
 73
     4
 40
26.0
 49
5.0
 74
     0
 49
-6.0
 74
     0
 49
7.0
 74
     0
 49
-8.0
 74
     0
  0
LTYPE
  5
30
330
5
100
AcDbSymbolTableRecord
100
AcDbLinetypeTableRecord
  2
LONG1
 70
     0
  3
----------  --  ----------  --  
 72
    65
 73
     4
 40
40.0
 49
32.5
 74
     0
 49
-2.5
 74
     0
 49
2.5
 74
     0
 49
-2.5
 74
     0
  0
LTYPE
  5
31
330
5
100
AcDbSymbolTableRecord
100
AcDbLinetypeTableRecord
  2
LONG2
 70
     0
  3
--------  -  -  --------  -  -  
 72
    65
 73
     6
 40
40.0
 49
30.0
 74
     0
 49
-2.5
 74
     0
 49
1.25
 74
     0
 49
-2.5
 74
     0
 49
1.25
 74
     0
 49
-2.5
 74
     0
  0
LTYPE
  5
32
330
5
100
AcDbSymbolTableRecord
100
AcDbLinetypeTableRecord
  2
LONG3
 70
     0
  3
+++++++++++++++..+++++++++++++++
 72
    65
 73
     2
 40
40.0
 49
37.5
 74
     0
 49
-2.5
 74
     0
  0
LTYPE
  5
33
330
5
100
AcDbSymbolTableRecord
100
AcDbLinetypeTableRecord
  2
LONG4
 70
     0
  3
+++++++++++++++..+++++++++++++++
 72
    65
 73
     2
 40
80.0
 49
75.0
 74
     0
 49
-5.0
 74
     0
  0
LTYPE
  5
34
330
5
100
AcDbSymbolTableRecord
100
AcDbLinetypeTableRecord
  2
LONG5
 70
     0
  3
----------  --  ----------  --  
 72
    65
 73
     4
 40
60.0
 49
37.5
 74
     0
 49
-7.5
 74
     0
 49
7.5
 74
     0
 49
-7.5
 74
     0
  0
LTYPE
  5
35
330
5
100
AcDbSymbolTableRecord
100
AcDbLinetypeTableRecord
  2
DASHED
 70
     0
  3
-------   -------------   ------
 72
    65
 73
     2
 40
7.5
 49
6.0
 74
     0
 49
-1.5
 74
     0
  0
LTYPE
  5
36
330
5
100
AcDbSymbolTableRecord
100
AcDbLinetypeTableRecord
  2
DASHED_SPACED
 70
     0
  3
----        --------        ----
 72
    65
 73
     2
 40
12.0
 49
6.0
 74
     0
 49
-6.0
 74
     0
  0
LTYPE
  5
37
330
5
100
AcDbSymbolTableRecord
100
AcDbLinetypeTableRecord
  2
LONG_DASHED_DOTTED
 70
     0
  3
------------- --- --------------
 72
    65
 73
     4
 40
15.25
 49
12.0
 74
     0
 49
-1.5
 74
     0
 49
0.25
 74
     0
 49
-1.5
 74
     0
  0
LTYPE
  5
38
330
5
100
AcDbSymbolTableRecord
100
AcDbLinetypeTableRecord
  2
LONG_DASHED_DOUBLE-DOTTED
 70
     0
  3
----------- --- --- ------------
 72
    65
 73
     6
 40
17.0
 49
12.0
 74
     0
 49
-1.5
 74
     0
 49
0.25
 74
     0
 49
-1.5
 74
     0
 49
0.25
 74
     0
 49
-1.5
 74
     0
  0
LTYPE
  5
39
330
5
100
AcDbSymbolTableRecord
100
AcDbLinetypeTableRecord
  2
LONG_DASHED_TRIPLICATE-DOTTED
 70
     0
  3
--------- --- --- --- ----------
 72
    65
 73
     8
 40
18.75
 49
12.0
 74
     0
 49
-1.5
 74
     0
 49
0.25
 74
     0
 49
-1.5
 74
     0
 49
0.25
 74
     0
 49
-1.5
 74
     0
 49
0.25
 74
     0
 49
-1.5
 74
     0
  0
LTYPE
  5
3A
330
5
100
AcDbSymbolTableRecord
100
AcDbLinetypeTableRecord
  2
DOTTED
 70
     0
  3
   -       -       -       -    
 72
    65
 73
     2
 40
1.75
 49
0.25
 74
     0
 49
-1.5
 74
     0
  0
LTYPE
  5
3B
330
5
100
AcDbSymbolTableRecord
100
AcDbLinetypeTableRecord
  2
CHAIN
 70
     0
  3
-------------- -- --------------
 72
    65
 73
     4
 40
18.5
 49
12.0
 74
     0
 49
-1.5
 74
     0
 49
3.5
 74
     0
 49
-1.5
 74
     0
  0
LTYPE
  5
3C
330
5
100
AcDbSymbolTableRecord
100
AcDbLinetypeTableRecord
  2
CHAIN_DOUBLE_DASH
 70
     0
  3
------------ -- -- -------------
 72
    65
 73
     6
 40
23.5
 49
12.0
 74
     0
 49
-1.5
 74
     0
 49
3.5
 74
     0
 49
-1.5
 74
     0
 49
3.5
 74
     0
 49
-1.5
 74
     0
  0
LTYPE
  5
3D
330
5
100
AcDbSymbolTableRecord
100
AcDbLinetypeTableRecord
  2
DASHED_DOTTED
 70
     0
  3
-----------     -     ----------
 72
    65
 73
     4
 40
9.25
 49
6.0
 74
     0
 49
-1.5
 74
     0
 49
0.25
 74
     0
 49
-1.5
 74
     0
  0
LTYPE
  5
3E
330
5
100
AcDbSymbolTableRecord
100
AcDbLinetypeTableRecord
  2
DOUBLE-DASHED_DOTTED
 70
     0
  3
------   -----------   -   -----
 72
    65
 73
     6
 40
16.75
 49
6.0
 74
     0
 49
-1.5
 74
     0
 49
6.0
 74
     0
 49
-1.5
 74
     0
 49
0.25
 74
     0
 49
-1.5
 74
     0
  0
LTYPE
  5
3F
330
5
100
AcDbSymbolTableRecord
100
AcDbLinetypeTableRecord
  2
DASHED_DOUBLE-DOTTED
 70
     0
  3
---------    -    -    ---------
 72
    65
 73
     6
 40
11.0
 49
6.0
 74
     0
 49
-1.5
 74
     0
 49
0.25
 74
     0
 49
-1.5
 74
     0
 49
0.25
 74
     0
 49
-1.5
 74
     0
  0
LTYPE
  5
40
330
5
100
AcDbSymbolTableRecord
100
AcDbLinetypeTableRecord
  2
DOUBLE-DASHED_DOUBLE-DOTTED
 70
     0
  3
-----   ---------   -   -   ----
 72
    65
 73
     8
 40
18.5
 49
6.0
 74
     0
 49
-1.5
 74
     0
 49
6.0
 74
     0
 49
-1.5
 74
     0
 49
0.25
 74
     0
 49
-1.5
 74
     0
 49
0.25
 74
     0
 49
-1.5
 74
     0
  0
LTYPE
  5
41
330
5
100
AcDbSymbolTableRecord
100
AcDbLinetypeTableRecord
  2
DASHED_TRIPLICATE-DOTTED
 70
     0
  3
-------    -    -    -    ------
 72
    65
 73
     8
 40
12.75
 49
6.0
 74
     0
 49
-1.5
 74
     0
 49
0.25
 74
     0
 49
-1.5
 74
     0
 49
0.25
 74
     0
 49
-1.5
 74
     0
 49
0.25
 74
     0
 49
-1.5
 74
     0
  0
LTYPE
  5
42
330
5
100
AcDbSymbolTableRecord
100
AcDbLinetypeTableRecord
  2
DOUBLE-DASHED_TRIPLICATE-DOTTED
 70
     0
  3
-----  ---------  -  -  -  -----
 72
    65
 73
    10
 40
20.24999999999999
 49
6.0
 74
     0
 49
-1.5
 74
     0
 49
6.0
 74
     0
 49
-1.5
 74
     0
 49
0.25
 74
     0
 49
-1.5
 74
     0
 49
0.25
 74
     0
 49
-1.5
 74
     0
 49
0.25
 74
     0
 49
-1.5
 74
     0
  0
LTYPE
  5
43
330
5
100
AcDbSymbolTableRecord
100
AcDbLinetypeTableRecord
  2
UNDEFINED
 70
     0
  3
--------------------------------
 72
    65
 73
     0
 40
0.0
  0
LTYPE
  5
44
330
5
100
AcDbSymbolTableRecord
100
AcDbLinetypeTableRecord
  2
PLINE2
 70
     0
  3
------     -----------     -----
 72
    65
 73
     2
 40
3.0
 49
2.1
 74
     0
 49
-0.9
 74
     0
  0
LTYPE
  5
45
330
5
100
AcDbSymbolTableRecord
100
AcDbLinetypeTableRecord
  2
PLINE3
 70
     0
  3
------------   ---   -----------
 72
    65
 73
     4
 40
10.0
 49
7.0
 74
     0
 49
-1.0
 74
     0
 49
1.0
 74
     0
 49
-1.0
 74
     0
  0
LTYPE
  5
46
330
5
100
AcDbSymbolTableRecord
100
AcDbLinetypeTableRecord
  2
PLINE4
 70
     0
  3
---------   ---   ---   --------
 72
    65
 73
     6
 40
10.0
 49
5.0
 74
     0
 49
-1.0
 74
     0
 49
1.0
 74
     0
 49
-1.0
 74
     0
 49
1.0
 74
     0
 49
-1.0
 74
     0
  0
LTYPE
  5
47
330
5
100
AcDbSymbolTableRecord
100
AcDbLinetypeTableRecord
  2
PLINE5
 70
     0
  3
------     -----------     -----
 72
    65
 73
     2
 40
5.0
 49
3.5
 74
     0
 49
-1.5
 74
     0
  0
LTYPE
  5
48
330
5
100
AcDbSymbolTableRecord
100
AcDbLinetypeTableRecord
  2
PLINE6
 70
     0
  3
------------   ---   -----------
 72
    65
 73
     4
 40
15.0
 49
10.5
 74
     0
 49
-1.5
 74
     0
 49
1.5
 74
     0
 49
-1.5
 74
     0
  0
LTYPE
  5
49
330
5
100
AcDbSymbolTableRecord
100
AcDbLinetypeTableRecord
  2
PLINE7
 70
     0
  3
---------   ---   ---   --------
 72
    65
 73
     6
 40
15.0
 49
7.5
 74
     0
 49
-1.5
 74
     0
 49
1.5
 74
     0
 49
-1.5
 74
     0
 49
1.5
 74
     0
 49
-1.5
 74
     0
  0
LTYPE
  5
4A
330
5
100
AcDbSymbolTableRecord
100
AcDbLinetypeTableRecord
  2
PLINE8
 70
     0
  3
------     -----------     -----
 72
    65
 73
     2
 40
7.0
 49
4.9
 74
     0
 49
-2.1
 74
     0
  0
LTYPE
  5
4B
330
5
100
AcDbSymbolTableRecord
100
AcDbLinetypeTableRecord
  2
PLINE9
 70
     0
  3
------------   ---   -----------
 72
    65
 73
     4
 40
20.0
 49
14.0
 74
     0
 49
-2.0
 74
     0
 49
2.0
 74
     0
 49
-2.0
 74
     0
  0
LTYPE
  5
4C
330
5
100
AcDbSymbolTableRecord
100
AcDbLinetypeTableRecord
  2
PLINE10
 70
     0
  3
---------   ---   ---   --------
 72
    65
 73
     6
 40
20.0
 49
10.0
 74
     0
 49
-2.0
 74
     0
 49
2.0
 74
     0
 49
-2.0
 74
     0
 49
2.0
 74
     0
 49
-2.0
 74
     0
  0
LTYPE
  5
4D
330
5
100
AcDbSymbolTableRecord
100
AcDbLinetypeTableRecord
  2
PLINE11
 70
     0
  3
------     -----------     -----
 72
    65
 73
     2
 40
9.0
 49
6.299999999999998
 74
     0
 49
-2.7
 74
     0
  0
LTYPE
  5
4E
330
5
100
AcDbSymbolTableRecord
100
AcDbLinetypeTableRecord
  2
PLINE12
 70
     0
  3
------------   ---   -----------
 72
    65
 73
     4
 40
25.0
 49
17.5
 74
     0
 49
-2.5
 74
     0
 49
2.5
 74
     0
 49
-2.5
 74
     0
  0
LTYPE
  5
4F
330
5
100
AcDbSymbolTableRecord
100
AcDbLinetypeTableRecord
  2
PLINE13
 70
     0
  3
---------   ---   ---   --------
 72
    65
 73
     6
 40
25.0
 49
12.5
 74
     0
 49
-2.5
 74
     0
 49
2.5
 74
     0
 49
-2.5
 74
     0
 49
2.5
 74
     0
 49
-2.5
 74
     0
  0
LTYPE
  5
50
330
5
100
AcDbSymbolTableRecord
100
AcDbLinetypeTableRecord
  2
PLINE14
 70
     0
  3
------     -----------     -----
 72
    65
 73
     2
 40
11.0
 49
7.7
 74
     0
 49
-3.299999999999998
 74
     0
  0
LTYPE
  5
51
330
5
100
AcDbSymbolTableRecord
100
AcDbLinetypeTableRecord
  2
PLINE15
 70
     0
  3
------------   ---   -----------
 72
    65
 73
     4
 40
30.0
 49
21.0
 74
     0
 49
-3.0
 74
     0
 49
3.0
 74
     0
 49
-3.0
 74
     0
  0
LTYPE
  5
52
330
5
100
AcDbSymbolTableRecord
100
AcDbLinetypeTableRecord
  2
PLINE16
 70
     0
  3
---------   ---   ---   --------
 72
    65
 73
     6
 40
30.0
 49
15.0
 74
     0
 49
-3.0
 74
     0
 49
3.0
 74
     0
 49
-3.0
 74
     0
 49
3.0
 74
     0
 49
-3.0
 74
     0
  0
ENDTAB
  0
TABLE
  2
LAYER
  5
2
102
{ACAD_XDICTIONARY
360
175
102
}
330
0
100
AcDbSymbolTable
 70
     6
  0
LAYER
  5
10
330
2
100
AcDbSymbolTableRecord
100
AcDbLayerTableRecord
  2
0
 70
     0
 62
     7
  6
CONTINUOUS
370
    -3
390
F
  0
LAYER
  5
128
330
2
100
AcDbSymbolTableRecord
100
AcDbLayerTableRecord
  2
Defpoints
 70
     0
 62
     7
  6
CONTINUOUS
290
     0
370
    -3
390
F
  0
LAYER
  5
178
330
2
100
AcDbSymbolTableRecord
100
AcDbLayerTableRecord
  2
寸法
 70
     0
 62
     7
  6
CONTINUOUS
370
    -3
390
F
  0
LAYER
  5
179
330
2
100
AcDbSymbolTableRecord
100
AcDbLayerTableRecord
  2
躯体
 70
     0
 62
     7
  6
CONTINUOUS
370
    -3
390
F
  0
LAYER
  5
17A
330
2
100
AcDbSymbolTableRecord
100
AcDbLayerTableRecord
  2
笠木
 70
     0
 62
     7
  6
CONTINUOUS
370
    -3
390
F
  0
LAYER
  5
17B
330
2
100
AcDbSymbolTableRecord
100
AcDbLayerTableRecord
  2
受金具
 70
     0
 62
     7
  6
CONTINUOUS
370
    -3
390
F
  0
ENDTAB
  0
TABLE
  2
STYLE
  5
3
330
0
100
AcDbSymbolTable
 70
     4
  0
STYLE
  5
11
330
3
100
AcDbSymbolTableRecord
100
AcDbTextStyleTableRecord
  2
STANDARD
 70
     0
 40
0.0
 41
1.0
 50
0.0
 71
     0
 42
0.2
  3
txt
  4
bigfont.shx
  0
STYLE
  5
53
330
3
100
AcDbSymbolTableRecord
100
AcDbTextStyleTableRecord
  2
TATEGAKI
 70
     4
 40
0.0
 41
1.0
 50
0.0
 71
     0
 42
1.0
  3
txt
  4
bigfont.shx
  0
STYLE
  5
123
330
3
100
AcDbSymbolTableRecord
100
AcDbTextStyleTableRecord
  2
ACAD
 70
     0
 40
5.0
 41
0.8
 50
0.0
 71
     0
 42
5.0
  3
romans.shx
  4
extfont.shx
  0
STYLE
  5
3A5F
330
3
100
AcDbSymbolTableRecord
100
AcDbTextStyleTableRecord
  2
VERTXT
 70
     4
 40
0.0
 41
0.8582679999999999
 50
0.0
 71
     0
 42
3.5
  3
txt.shx
  4
BIGFONT
  0
ENDTAB
  0
TABLE
  2
VIEW
  5
6
330
0
100
AcDbSymbolTable
 70
     0
  0
ENDTAB
  0
TABLE
  2
UCS
  5
7
330
0
100
AcDbSymbolTable
 70
     0
  0
ENDTAB
  0
TABLE
  2
APPID
  5
9
330
0
100
AcDbSymbolTable
 70
     1
  0
APPID
  5
12
330
9
100
AcDbSymbolTableRecord
100
AcDbRegAppTableRecord
  2
ACAD
 70
     0
  0
ENDTAB
  0
TABLE
  2
DIMSTYLE
  5
A
330
0
100
AcDbSymbolTable
 70
     3
100
AcDbDimStyleTable
 71
     2
340
126
340
2CBB
  0
DIMSTYLE
105
11C
330
A
100
AcDbSymbolTableRecord
100
AcDbDimStyleTableRecord
  2
Standard
 70
     0
340
11
  0
DIMSTYLE
105
126
102
{ACAD_REACTORS
330
3FF7
330
4002
330
4045
330
4052
330
405F
330
4010
330
401D
330
4038
330
4099
102
}
330
A
100
AcDbSymbolTableRecord
100
AcDbDimStyleTableRecord
  2
AutoCAD
 70
     0
 41
1.0
 42
0.0
 44
0.0
 73
     0
 77
     1
140
5.0
147
1.0
174
     1
176
     4
177
     4
178
     3
271
     0
272
     0
289
     0
340
123
341
11E
342
11E
  0
DIMSTYLE
105
2CBB
330
A
100
AcDbSymbolTableRecord
100
AcDbDimStyleTableRecord
  2
111
 70
     0
 41
1.0
 42
0.0
 44
0.0
 73
     0
 77
     1
140
5.0
147
1.0
174
     1
176
     4
177
     4
178
     3
271
     0
272
     0
289
     0
340
123
341
2CB5
342
2CB5
  0
ENDTAB
  0
TABLE
  2
BLOCK_RECORD
  5
1
330
0
100
AcDbSymbolTable
 70
    15
  0
BLOCK_RECORD
  5
1E
102
{ACAD_XDICTIONARY
360
28B
102
}
330
1
100
AcDbSymbolTableRecord
100
AcDbBlockTableRecord
  2
*Model_Space
340
21
  0
BLOCK_RECORD
  5
1A
102
{ACAD_XDICTIONARY
360
28D
102
}
330
1
100
AcDbSymbolTableRecord
100
AcDbBlockTableRecord
  2
*Paper_Space
340
1D
  0
BLOCK_RECORD
  5
11E
330
1
100
AcDbSymbolTableRecord
100
AcDbBlockTableRecord
  2
_Dot
340
0
102
{BLKREFS
331
3FFA
331
3FFB
331
4007
331
4008
331
4015
331
4016
331
4022
331
4023
331
4030
331
4031
331
403D
331
403E
331
404A
331
404B
331
4057
331
4058
331
4064
331
4065
331
409F
331
40A0
102
}
  0
BLOCK_RECORD
  5
15B0
330
1
100
AcDbSymbolTableRecord
100
AcDbBlockTableRecord
  2
_None
340
0
  0
BLOCK_RECORD
  5
2CB5
330
1
100
AcDbSymbolTableRecord
100
AcDbBlockTableRecord
  2
_Open30
340
0
  0
BLOCK_RECORD
  5
35E3
330
1
100
AcDbSymbolTableRecord
100
AcDbBlockTableRecord
  2
_DotBlank
340
0
  0
BLOCK_RECORD
  5
3FF8
330
1
100
AcDbSymbolTableRecord
100
AcDbBlockTableRecord
  2
*D4
340
0
  0
BLOCK_RECORD
  5
4003
330
1
100
AcDbSymbolTableRecord
100
AcDbBlockTableRecord
  2
*D5
340
0
  0
BLOCK_RECORD
  5
4011
330
1
100
AcDbSymbolTableRecord
100
AcDbBlockTableRecord
  2
*D6
340
0
  0
BLOCK_RECORD
  5
401E
330
1
100
AcDbSymbolTableRecord
100
AcDbBlockTableRecord
  2
*D7
340
0
  0
BLOCK_RECORD
  5
4039
330
1
100
AcDbSymbolTableRecord
100
AcDbBlockTableRecord
  2
*D9
340
0
  0
BLOCK_RECORD
  5
4046
330
1
100
AcDbSymbolTableRecord
100
AcDbBlockTableRecord
  2
*D10
340
0
  0
BLOCK_RECORD
  5
4053
330
1
100
AcDbSymbolTableRecord
100
AcDbBlockTableRecord
  2
*D11
340
0
  0
BLOCK_RECORD
  5
4060
330
1
100
AcDbSymbolTableRecord
100
AcDbBlockTableRecord
  2
*D12
340
0
  0
BLOCK_RECORD
  5
409A
330
1
100
AcDbSymbolTableRecord
100
AcDbBlockTableRecord
  2
*D13
340
0
  0
ENDTAB
  0
ENDSEC
  0
SECTION
  2
BLOCKS
  0
BLOCK
  5
1F
330
1E
100
AcDbEntity
  8
0
100
AcDbBlockBegin
  2
*Model_Space
 70
     0
 10
0.0
 20
0.0
 30
0.0
  3
*Model_Space
  1

  0
ENDBLK
  5
20
330
1E
100
AcDbEntity
  8
0
100
AcDbBlockEnd
  0
BLOCK
  5
1B
330
1A
100
AcDbEntity
 67
     1
  8
0
100
AcDbBlockBegin
  2
*Paper_Space
 70
     0
 10
0.0
 20
0.0
 30
0.0
  3
*Paper_Space
  1

  0
ENDBLK
  5
1C
330
1A
100
AcDbEntity
 67
     1
  8
0
100
AcDbBlockEnd
  0
BLOCK
  5
121
330
11E
100
AcDbEntity
  8
0
100
AcDbBlockBegin
  2
_Dot
 70
     0
 10
0.0
 20
0.0
 30
0.0
  3
_Dot
  1

  0
LWPOLYLINE
  5
11F
330
11E
100
AcDbEntity
  8
0
  6
ByBlock
 62
     0
100
AcDbPolyline
 90
        2
 70
     1
 43
0.5
 10
-0.25
 20
0.0
 42
1.0
 10
0.25
 20
0.0
 42
1.0
  0
LINE
  5
120
330
11E
100
AcDbEntity
  8
0
  6
ByBlock
 62
     0
370
    -2
100
AcDbLine
 10
-0.5
 20
0.0
 30
0.0
 11
-1.0
 21
0.0
 31
0.0
  0
ENDBLK
  5
122
330
11E
100
AcDbEntity
  8
0
100
AcDbBlockEnd
  0
BLOCK
  5
15B1
330
15B0
100
AcDbEntity
  8
0
100
AcDbBlockBegin
  2
_None
 70
     0
 10
0.0
 20
0.0
 30
0.0
  3
_None
  1

  0
ENDBLK
  5
15B2
330
15B0
100
AcDbEntity
  8
0
100
AcDbBlockEnd
  0
BLOCK
  5
2CB9
330
2CB5
100
AcDbEntity
  8
0
100
AcDbBlockBegin
  2
_Open30
 70
     0
 10
0.0
 20
0.0
 30
0.0
  3
_Open30
  1

  0
LINE
  5
2CB6
330
2CB5
100
AcDbEntity
  8
0
  6
ByBlock
 62
     0
370
    -2
100
AcDbLine
 10
-1.0
 20
0.26794919
 30
0.0
 11
0.0
 21
0.0
 31
0.0
  0
LINE
  5
2CB7
330
2CB5
100
AcDbEntity
  8
0
  6
ByBlock
 62
     0
370
    -2
100
AcDbLine
 10
0.0
 20
0.0
 30
0.0
 11
-1.0
 21
-0.26794919
 31
0.0
  0
LINE
  5
2CB8
330
2CB5
100
AcDbEntity
  8
0
  6
ByBlock
 62
     0
370
    -2
100
AcDbLine
 10
0.0
 20
0.0
 30
0.0
 11
-1.0
 21
0.0
 31
0.0
  0
ENDBLK
  5
2CBA
330
2CB5
100
AcDbEntity
  8
0
100
AcDbBlockEnd
  0
BLOCK
  5
35E6
330
35E3
100
AcDbEntity
  8
0
100
AcDbBlockBegin
  2
_DotBlank
 70
     0
 10
0.0
 20
0.0
 30
0.0
  3
_DotBlank
  1

  0
CIRCLE
  5
35E4
330
35E3
100
AcDbEntity
  8
0
  6
ByBlock
 62
     0
370
    -2
100
AcDbCircle
 10
0.0
 20
0.0
 30
0.0
 40
0.5
  0
LINE
  5
35E5
330
35E3
100
AcDbEntity
  8
0
  6
ByBlock
 62
     0
370
    -2
100
AcDbLine
 10
-0.5
 20
0.0
 30
0.0
 11
-1.0
 21
0.0
 31
0.0
  0
ENDBLK
  5
35E7
330
35E3
100
AcDbEntity
  8
0
100
AcDbBlockEnd
  0
BLOCK
  5
4000
330
3FF8
100
AcDbEntity
  8
0
100
AcDbBlockBegin
  2
*D4
 70
     1
 10
0.0
 20
0.0
 30
0.0
  3
*D4
  1

  0
LINE
  5
3FF9
330
3FF8
100
AcDbEntity
  8
寸法
  6
Continuous
 62
     4
370
    -2
100
AcDbLine
 10
976.8375808989379
 20
26.92286333960865
 30
0.0
 11
1074.837580898937
 21
26.92286333960865
 31
0.0
  0
INSERT
  5
3FFA
330
3FF8
100
AcDbEntity
  8
寸法
  6
Continuous
 62
     4
370
    -2
100
AcDbBlockReference
  2
_Dot
 10
975.8375808989379
 20
26.92286333960865
 30
0.0
 50
180.0
  0
INSERT
  5
3FFB
330
3FF8
100
AcDbEntity
  8
寸法
  6
Continuous
 62
     4
370
    -2
100
AcDbBlockReference
  2
_Dot
 10
1075.837580898937
 20
26.92286333960865
 30
0.0
  0
MTEXT
  5
3FFC
330
3FF8
100
AcDbEntity
  8
寸法
  6
Continuous
 62
     3
100
AcDbMText
 10
1025.837580898937
 20
30.42286333960865
 30
0.0
 40
5.0
 41
0.0
 71
     5
 72
     1
  1
\A1;100
  7
ACAD
 73
     1
 44
1.0
1001
ACAD
1000
MTEXTBEGIN
1070
    73
1070
     1
1070
    44
1040
1.0
1070
    74
1070
     0
1000
MTEXTEND
  0
POINT
  5
3FFD
330
3FF8
100
AcDbEntity
  8
Defpoints
  6
Continuous
 62
     0
100
AcDbPoint
 10
975.8375808989379
 20
26.92286333960865
 30
0.0
  0
POINT
  5
3FFE
330
3FF8
100
AcDbEntity
  8
Defpoints
  6
Continuous
 62
     0
100
AcDbPoint
 10
1075.837580898937
 20
26.92286333960865
 30
0.0
  0
POINT
  5
3FFF
330
3FF8
100
AcDbEntity
  8
Defpoints
  6
Continuous
 62
     0
100
AcDbPoint
 10
1075.837580898937
 20
26.92286333960865
 30
0.0
  0
ENDBLK
  5
4001
330
3FF8
100
AcDbEntity
  8
0
100
AcDbBlockEnd
  0
BLOCK
  5
400D
330
4003
100
AcDbEntity
  8
0
100
AcDbBlockBegin
  2
*D5
 70
     1
 10
0.0
 20
0.0
 30
0.0
  3
*D5
  1

  0
LINE
  5
4004
330
4003
100
AcDbEntity
  8
寸法
  6
Continuous
 62
     4
370
    -2
100
AcDbLine
 10
975.8375808989379
 20
-15.31070066039129
 30
0.0
 11
975.8375808989379
 21
-14.71070066039129
 31
0.0
  0
LINE
  5
4005
330
4003
100
AcDbEntity
  8
寸法
  6
Continuous
 62
     4
370
    -2
100
AcDbLine
 10
1015.837580898937
 20
-15.31070066039129
 30
0.0
 11
1015.837580898937
 21
-14.71070066039129
 31
0.0
  0
LINE
  5
4006
330
4003
100
AcDbEntity
  8
寸法
  6
Continuous
 62
     4
370
    -2
100
AcDbLine
 10
976.8375808989379
 20
-14.71070066039129
 30
0.0
 11
1014.837580898937
 21
-14.71070066039129
 31
0.0
  0
INSERT
  5
4007
330
4003
100
AcDbEntity
  8
寸法
  6
Continuous
 62
     4
370
    -2
100
AcDbBlockReference
  2
_Dot
 10
975.8375808989379
 20
-14.71070066039129
 30
0.0
 50
180.0
  0
INSERT
  5
4008
330
4003
100
AcDbEntity
  8
寸法
  6
Continuous
 62
     4
370
    -2
100
AcDbBlockReference
  2
_Dot
 10
1015.837580898937
 20
-14.71070066039129
 30
0.0
  0
MTEXT
  5
4009
330
4003
100
AcDbEntity
  8
寸法
  6
Continuous
 62
     3
100
AcDbMText
 10
995.8375808989377
 20
-11.21070066039129
 30
0.0
 40
5.0
 41
0.0
 71
     5
 72
     1
  1
\A1;40
  7
ACAD
 73
     1
 44
1.0
1001
ACAD
1000
MTEXTBEGIN
1070
    73
1070
     1
1070
    44
1040
1.0
1070
    74
1070
     0
1000
MTEXTEND
  0
POINT
  5
400A
330
4003
100
AcDbEntity
  8
Defpoints
  6
Continuous
 62
     0
100
AcDbPoint
 10
975.8375808989379
 20
-15.31070066039129
 30
0.0
  0
POINT
  5
400B
330
4003
100
AcDbEntity
  8
Defpoints
  6
Continuous
 62
     0
100
AcDbPoint
 10
1015.837580898937
 20
-15.31070066039129
 30
0.0
  0
POINT
  5
400C
330
4003
100
AcDbEntity
  8
Defpoints
  6
Continuous
 62
     0
100
AcDbPoint
 10
1015.837580898937
 20
-14.71070066039129
 30
0.0
  0
ENDBLK
  5
400E
330
4003
100
AcDbEntity
  8
0
100
AcDbBlockEnd
  0
BLOCK
  5
401B
330
4011
100
AcDbEntity
  8
0
100
AcDbBlockBegin
  2
*D6
 70
     1
 10
0.0
 20
0.0
 30
0.0
  3
*D6
  1

  0
LINE
  5
4012
330
4011
100
AcDbEntity
  8
寸法
  6
Continuous
 62
     4
370
    -2
100
AcDbLine
 10
961.2997403526607
 20
-48.43270066039131
 30
0.0
 11
949.8557338989376
 21
-48.43270066039131
 31
0.0
  0
LINE
  5
4013
330
4011
100
AcDbEntity
  8
寸法
  6
Continuous
 62
     4
370
    -2
100
AcDbLine
 10
961.2997403526607
 20
-58.43270066039131
 30
0.0
 11
949.8557338989376
 21
-58.43270066039131
 31
0.0
  0
LINE
  5
4014
330
4011
100
AcDbEntity
  8
寸法
  6
Continuous
 62
     4
370
    -2
100
AcDbLine
 10
949.8557338989376
 20
-49.43270066039129
 30
0.0
 11
949.8557338989376
 21
-57.43270066039129
 31
0.0
  0
INSERT
  5
4015
330
4011
100
AcDbEntity
  8
寸法
  6
Continuous
 62
     4
370
    -2
100
AcDbBlockReference
  2
_Dot
 10
949.8557338989376
 20
-48.43270066039131
 30
0.0
 50
90.0
  0
INSERT
  5
4016
330
4011
100
AcDbEntity
  8
寸法
  6
Continuous
 62
     4
370
    -2
100
AcDbBlockReference
  2
_Dot
 10
949.8557338989376
 20
-58.43270066039131
 30
0.0
 50
270.0
  0
MTEXT
  5
4017
330
4011
100
AcDbEntity
  8
寸法
  6
Continuous
 62
     3
100
AcDbMText
 10
946.3557338989376
 20
-53.43270066039115
 30
0.0
 40
5.0
 41
0.0
 71
     5
 72
     1
  1
\A1;10
  7
ACAD
 11
0.0000000000000001
 21
1.0
 31
0.0
 73
     1
 44
1.0
1001
ACAD
1000
MTEXTBEGIN
1070
    73
1070
     1
1070
    44
1040
1.0
1070
    74
1070
     0
1000
MTEXTEND
  0
POINT
  5
4018
330
4011
100
AcDbEntity
  8
Defpoints
  6
Continuous
 62
     0
100
AcDbPoint
 10
961.2997403526607
 20
-48.43270066039131
 30
0.0
  0
POINT
  5
4019
330
4011
100
AcDbEntity
  8
Defpoints
  6
Continuous
 62
     0
100
AcDbPoint
 10
961.2997403526607
 20
-58.43270066039131
 30
0.0
  0
POINT
  5
401A
330
4011
100
AcDbEntity
  8
Defpoints
  6
Continuous
 62
     0
100
AcDbPoint
 10
949.8557338989376
 20
-58.43270066039131
 30
0.0
  0
ENDBLK
  5
401C
330
4011
100
AcDbEntity
  8
0
100
AcDbBlockEnd
  0
BLOCK
  5
4028
330
401E
100
AcDbEntity
  8
0
100
AcDbBlockBegin
  2
*D7
 70
     1
 10
0.0
 20
0.0
 30
0.0
  3
*D7
  1

  0
LINE
  5
401F
330
401E
100
AcDbEntity
  8
寸法
  6
Continuous
 62
     4
370
    -2
100
AcDbLine
 10
961.2997403526607
 20
-58.43270066039131
 30
0.0
 11
949.8557338989376
 21
-58.43270066039131
 31
0.0
  0
LINE
  5
4020
330
401E
100
AcDbEntity
  8
寸法
  6
Continuous
 62
     4
370
    -2
100
AcDbLine
 10
961.2997403526607
 20
-91.43270066039129
 30
0.0
 11
949.8557338989376
 21
-91.43270066039129
 31
0.0
  0
LINE
  5
4021
330
401E
100
AcDbEntity
  8
寸法
  6
Continuous
 62
     4
370
    -2
100
AcDbLine
 10
949.8557338989376
 20
-59.43270066039129
 30
0.0
 11
949.8557338989376
 21
-90.43270066039131
 31
0.0
  0
INSERT
  5
4022
330
401E
100
AcDbEntity
  8
寸法
  6
Continuous
 62
     4
370
    -2
100
AcDbBlockReference
  2
_Dot
 10
949.8557338989376
 20
-58.43270066039131
 30
0.0
 50
90.0
  0
INSERT
  5
4023
330
401E
100
AcDbEntity
  8
寸法
  6
Continuous
 62
     4
370
    -2
100
AcDbBlockReference
  2
_Dot
 10
949.8557338989376
 20
-91.43270066039129
 30
0.0
 50
270.0
  0
MTEXT
  5
4024
330
401E
100
AcDbEntity
  8
寸法
  6
Continuous
 62
     3
100
AcDbMText
 10
946.3557338989376
 20
-74.93270066039116
 30
0.0
 40
5.0
 41
0.0
 71
     5
 72
     1
  1
\A1;33
  7
ACAD
 11
0.0000000000000001
 21
1.0
 31
0.0
 73
     1
 44
1.0
1001
ACAD
1000
MTEXTBEGIN
1070
    73
1070
     1
1070
    44
1040
1.0
1070
    74
1070
     0
1000
MTEXTEND
  0
POINT
  5
4025
330
401E
100
AcDbEntity
  8
Defpoints
  6
Continuous
 62
     0
100
AcDbPoint
 10
961.2997403526607
 20
-58.43270066039131
 30
0.0
  0
POINT
  5
4026
330
401E
100
AcDbEntity
  8
Defpoints
  6
Continuous
 62
     0
100
AcDbPoint
 10
961.2997403526607
 20
-91.43270066039129
 30
0.0
  0
POINT
  5
4027
330
401E
100
AcDbEntity
  8
Defpoints
  6
Continuous
 62
     0
100
AcDbPoint
 10
949.8557338989376
 20
-91.43270066039129
 30
0.0
  0
ENDBLK
  5
4029
330
401E
100
AcDbEntity
  8
0
100
AcDbBlockEnd
  0
BLOCK
  5
4043
330
4039
100
AcDbEntity
  8
0
100
AcDbBlockBegin
  2
*D9
 70
     1
 10
0.0
 20
0.0
 30
0.0
  3
*D9
  1

  0
LINE
  5
403A
330
4039
100
AcDbEntity
  8
寸法
  6
Continuous
 62
     4
370
    -2
100
AcDbLine
 10
961.2997403526607
 20
-48.43270066039131
 30
0.0
 11
939.8557338989379
 21
-48.43270066039129
 31
0.0
  0
LINE
  5
403B
330
4039
100
AcDbEntity
  8
寸法
  6
Continuous
 62
     4
370
    -2
100
AcDbLine
 10
961.2997403526607
 20
-93.4327006603913
 30
0.0
 11
939.8557338989379
 21
-93.4327006603913
 31
0.0
  0
LINE
  5
403C
330
4039
100
AcDbEntity
  8
寸法
  6
Continuous
 62
     4
370
    -2
100
AcDbLine
 10
939.8557338989379
 20
-49.43270066039129
 30
0.0
 11
939.8557338989379
 21
-92.43270066039128
 31
0.0
  0
INSERT
  5
403D
330
4039
100
AcDbEntity
  8
寸法
  6
Continuous
 62
     4
370
    -2
100
AcDbBlockReference
  2
_Dot
 10
939.8557338989379
 20
-48.43270066039129
 30
0.0
 50
90.0
  0
INSERT
  5
403E
330
4039
100
AcDbEntity
  8
寸法
  6
Continuous
 62
     4
370
    -2
100
AcDbBlockReference
  2
_Dot
 10
939.8557338989379
 20
-93.4327006603913
 30
0.0
 50
270.0
  0
MTEXT
  5
403F
330
4039
100
AcDbEntity
  8
寸法
  6
Continuous
 62
     3
100
AcDbMText
 10
936.3557338989377
 20
-70.93270066039116
 30
0.0
 40
5.0
 41
0.0
 71
     5
 72
     1
  1
\A1;45
  7
ACAD
 11
0.0000000000000001
 21
1.0
 31
0.0
 73
     1
 44
1.0
1001
ACAD
1000
MTEXTBEGIN
1070
    73
1070
     1
1070
    44
1040
1.0
1070
    74
1070
     0
1000
MTEXTEND
  0
POINT
  5
4040
330
4039
100
AcDbEntity
  8
Defpoints
  6
Continuous
 62
     0
100
AcDbPoint
 10
961.2997403526607
 20
-48.43270066039131
 30
0.0
  0
POINT
  5
4041
330
4039
100
AcDbEntity
  8
Defpoints
  6
Continuous
 62
     0
100
AcDbPoint
 10
961.2997403526607
 20
-93.4327006603913
 30
0.0
  0
POINT
  5
4042
330
4039
100
AcDbEntity
  8
Defpoints
  6
Continuous
 62
     0
100
AcDbPoint
 10
939.8557338989379
 20
-93.4327006603913
 30
0.0
  0
ENDBLK
  5
4044
330
4039
100
AcDbEntity
  8
0
100
AcDbBlockEnd
  0
BLOCK
  5
4050
330
4046
100
AcDbEntity
  8
0
100
AcDbBlockBegin
  2
*D10
 70
     1
 10
0.0
 20
0.0
 30
0.0
  3
*D10
  1

  0
LINE
  5
4047
330
4046
100
AcDbEntity
  8
寸法
  6
Continuous
 62
     4
370
    -2
100
AcDbLine
 10
975.8375808989379
 20
-100.5648152324849
 30
0.0
 11
975.8375808989379
 21
-112.1216026603913
 31
0.0
  0
LINE
  5
4048
330
4046
100
AcDbEntity
  8
寸法
  6
Continuous
 62
     4
370
    -2
100
AcDbLine
 10
1045.837580898937
 20
-100.5648152324849
 30
0.0
 11
1045.837580898937
 21
-112.1216026603913
 31
0.0
  0
LINE
  5
4049
330
4046
100
AcDbEntity
  8
寸法
  6
Continuous
 62
     4
370
    -2
100
AcDbLine
 10
976.8375808989379
 20
-112.1216026603913
 30
0.0
 11
1044.837580898937
 21
-112.1216026603913
 31
0.0
  0
INSERT
  5
404A
330
4046
100
AcDbEntity
  8
寸法
  6
Continuous
 62
     4
370
    -2
100
AcDbBlockReference
  2
_Dot
 10
975.8375808989379
 20
-112.1216026603913
 30
0.0
 50
180.0
  0
INSERT
  5
404B
330
4046
100
AcDbEntity
  8
寸法
  6
Continuous
 62
     4
370
    -2
100
AcDbBlockReference
  2
_Dot
 10
1045.837580898937
 20
-112.1216026603913
 30
0.0
  0
MTEXT
  5
404C
330
4046
100
AcDbEntity
  8
寸法
  6
Continuous
 62
     3
100
AcDbMText
 10
1010.837580898938
 20
-108.6216026603913
 30
0.0
 40
5.0
 41
0.0
 71
     5
 72
     1
  1
\A1;70
  7
ACAD
 73
     1
 44
1.0
1001
ACAD
1000
MTEXTBEGIN
1070
    73
1070
     1
1070
    44
1040
1.0
1070
    74
1070
     0
1000
MTEXTEND
  0
POINT
  5
404D
330
4046
100
AcDbEntity
  8
Defpoints
  6
Continuous
 62
     0
100
AcDbPoint
 10
975.8375808989379
 20
-100.5648152324849
 30
0.0
  0
POINT
  5
404E
330
4046
100
AcDbEntity
  8
Defpoints
  6
Continuous
 62
     0
100
AcDbPoint
 10
1045.837580898937
 20
-100.5648152324849
 30
0.0
  0
POINT
  5
404F
330
4046
100
AcDbEntity
  8
Defpoints
  6
Continuous
 62
     0
100
AcDbPoint
 10
1045.837580898937
 20
-112.1216026603913
 30
0.0
  0
ENDBLK
  5
4051
330
4046
100
AcDbEntity
  8
0
100
AcDbBlockEnd
  0
BLOCK
  5
405D
330
4053
100
AcDbEntity
  8
0
100
AcDbBlockBegin
  2
*D11
 70
     1
 10
0.0
 20
0.0
 30
0.0
  3
*D11
  1

  0
LINE
  5
4054
330
4053
100
AcDbEntity
  8
寸法
  6
Continuous
 62
     4
370
    -2
100
AcDbLine
 10
1048.583950898937
 20
-91.43270066039129
 30
0.0
 11
1070.837580898937
 21
-91.4327006603913
 31
0.0
  0
LINE
  5
4055
330
4053
100
AcDbEntity
  8
寸法
  6
Continuous
 62
     4
370
    -2
100
AcDbLine
 10
1048.583950898937
 20
-76.43270066039129
 30
0.0
 11
1070.837580898937
 21
-76.4327006603913
 31
0.0
  0
LINE
  5
4056
330
4053
100
AcDbEntity
  8
寸法
  6
Continuous
 62
     4
370
    -2
100
AcDbLine
 10
1070.837580898937
 20
-90.43270066039131
 30
0.0
 11
1070.837580898937
 21
-77.4327006603913
 31
0.0
  0
INSERT
  5
4057
330
4053
100
AcDbEntity
  8
寸法
  6
Continuous
 62
     4
370
    -2
100
AcDbBlockReference
  2
_Dot
 10
1070.837580898937
 20
-91.4327006603913
 30
0.0
 50
270.0
  0
INSERT
  5
4058
330
4053
100
AcDbEntity
  8
寸法
  6
Continuous
 62
     4
370
    -2
100
AcDbBlockReference
  2
_Dot
 10
1070.837580898937
 20
-76.4327006603913
 30
0.0
 50
90.0
  0
MTEXT
  5
4059
330
4053
100
AcDbEntity
  8
寸法
  6
Continuous
 62
     3
100
AcDbMText
 10
1067.337580898937
 20
-83.93270066039113
 30
0.0
 40
5.0
 41
0.0
 71
     5
 72
     1
  1
\A1;15
  7
ACAD
 11
0.0000000000000001
 21
1.0
 31
0.0
 73
     1
 44
1.0
1001
ACAD
1000
MTEXTBEGIN
1070
    73
1070
     1
1070
    44
1040
1.0
1070
    74
1070
     0
1000
MTEXTEND
  0
POINT
  5
405A
330
4053
100
AcDbEntity
  8
Defpoints
  6
Continuous
 62
     0
100
AcDbPoint
 10
1048.583950898937
 20
-91.43270066039129
 30
0.0
  0
POINT
  5
405B
330
4053
100
AcDbEntity
  8
Defpoints
  6
Continuous
 62
     0
100
AcDbPoint
 10
1048.583950898937
 20
-76.43270066039129
 30
0.0
  0
POINT
  5
405C
330
4053
100
AcDbEntity
  8
Defpoints
  6
Continuous
 62
     0
100
AcDbPoint
 10
1070.837580898937
 20
-76.4327006603913
 30
0.0
  0
ENDBLK
  5
405E
330
4053
100
AcDbEntity
  8
0
100
AcDbBlockEnd
  0
BLOCK
  5
406A
330
4060
100
AcDbEntity
  8
0
100
AcDbBlockBegin
  2
*D12
 70
     1
 10
0.0
 20
0.0
 30
0.0
  3
*D12
  1

  0
LINE
  5
4061
330
4060
100
AcDbEntity
  8
寸法
  6
Continuous
 62
     4
370
    -2
100
AcDbLine
 10
1102.287557343591
 20
-91.43270066039129
 30
0.0
 11
1114.837580898937
 21
-91.43270066039129
 31
0.0
  0
LINE
  5
4062
330
4060
100
AcDbEntity
  8
寸法
  6
Continuous
 62
     4
370
    -2
100
AcDbLine
 10
1102.287557343591
 20
-54.43270066039129
 30
0.0
 11
1114.837580898937
 21
-54.43270066039131
 31
0.0
  0
LINE
  5
4063
330
4060
100
AcDbEntity
  8
寸法
  6
Continuous
 62
     4
370
    -2
100
AcDbLine
 10
1114.837580898937
 20
-90.43270066039131
 30
0.0
 11
1114.837580898937
 21
-55.43270066039131
 31
0.0
  0
INSERT
  5
4064
330
4060
100
AcDbEntity
  8
寸法
  6
Continuous
 62
     4
370
    -2
100
AcDbBlockReference
  2
_Dot
 10
1114.837580898937
 20
-91.43270066039129
 30
0.0
 50
270.0
  0
INSERT
  5
4065
330
4060
100
AcDbEntity
  8
寸法
  6
Continuous
 62
     4
370
    -2
100
AcDbBlockReference
  2
_Dot
 10
1114.837580898937
 20
-54.43270066039131
 30
0.0
 50
90.0
  0
MTEXT
  5
4066
330
4060
100
AcDbEntity
  8
寸法
  6
Continuous
 62
     3
100
AcDbMText
 10
1111.337580898937
 20
-72.93270066039112
 30
0.0
 40
5.0
 41
0.0
 71
     5
 72
     1
  1
\A1;37
  7
ACAD
 11
0.0000000000000001
 21
1.0
 31
0.0
 73
     1
 44
1.0
1001
ACAD
1000
MTEXTBEGIN
1070
    73
1070
     1
1070
    44
1040
1.0
1070
    74
1070
     0
1000
MTEXTEND
  0
POINT
  5
4067
330
4060
100
AcDbEntity
  8
Defpoints
  6
Continuous
 62
     0
100
AcDbPoint
 10
1102.287557343591
 20
-91.43270066039129
 30
0.0
  0
POINT
  5
4068
330
4060
100
AcDbEntity
  8
Defpoints
  6
Continuous
 62
     0
100
AcDbPoint
 10
1102.287557343591
 20
-54.43270066039129
 30
0.0
  0
POINT
  5
4069
330
4060
100
AcDbEntity
  8
Defpoints
  6
Continuous
 62
     0
100
AcDbPoint
 10
1114.837580898937
 20
-54.43270066039131
 30
0.0
  0
ENDBLK
  5
406B
330
4060
100
AcDbEntity
  8
0
100
AcDbBlockEnd
  0
BLOCK
  5
40A5
330
409A
100
AcDbEntity
  8
0
 62
     3
100
AcDbBlockBegin
  2
*D13
 70
     1
 10
0.0
 20
0.0
 30
0.0
  3
*D13
  1

  0
LINE
  5
409B
330
409A
100
AcDbEntity
  8
受金具
  6
Continuous
 62
     4
370
    -2
100
AcDbLine
 10
961.2997403526607
 20
-91.43270066039129
 30
0.0
 11
949.8557338989376
 21
-91.43270066039129
 31
0.0
  0
LINE
  5
409C
330
409A
100
AcDbEntity
  8
受金具
  6
Continuous
 62
     4
370
    -2
100
AcDbLine
 10
961.2997403526607
 20
-93.4327006603913
 30
0.0
 11
949.8557338989376
 21
-93.4327006603913
 31
0.0
  0
LINE
  5
409D
330
409A
100
AcDbEntity
  8
受金具
  6
Continuous
 62
     4
370
    -2
100
AcDbLine
 10
949.8557338989376
 20
-90.43270066039129
 30
0.0
 11
949.8557338989376
 21
-89.43270066039129
 31
0.0
  0
LINE
  5
409E
330
409A
100
AcDbEntity
  8
受金具
  6
Continuous
 62
     4
370
    -2
100
AcDbLine
 10
949.8557338989376
 20
-94.43270066039129
 30
0.0
 11
949.8557338989376
 21
-95.43270066039129
 31
0.0
  0
INSERT
  5
409F
330
409A
100
AcDbEntity
  8
受金具
  6
Continuous
 62
     4
370
    -2
100
AcDbBlockReference
  2
_Dot
 10
949.8557338989376
 20
-91.43270066039129
 30
0.0
 50
270.0
  0
INSERT
  5
40A0
330
409A
100
AcDbEntity
  8
受金具
  6
Continuous
 62
     4
370
    -2
100
AcDbBlockReference
  2
_Dot
 10
949.8557338989376
 20
-93.4327006603913
 30
0.0
 50
90.0
  0
MTEXT
  5
40A1
330
409A
100
AcDbEntity
  8
受金具
  6
Continuous
 62
     3
100
AcDbMText
 10
946.3557338989376
 20
-92.43270066039114
 30
0.0
 40
5.0
 41
0.0
 71
     5
 72
     1
  1
\A1;2
  7
ACAD
 11
0.0000000000000001
 21
1.0
 31
0.0
 73
     1
 44
1.0
1001
ACAD
1000
MTEXTBEGIN
1070
    73
1070
     1
1070
    44
1040
1.0
1070
    74
1070
     0
1000
MTEXTEND
  0
POINT
  5
40A2
330
409A
100
AcDbEntity
  8
Defpoints
  6
Continuous
 62
     0
100
AcDbPoint
 10
961.2997403526607
 20
-91.43270066039129
 30
0.0
  0
POINT
  5
40A3
330
409A
100
AcDbEntity
  8
Defpoints
  6
Continuous
 62
     0
100
AcDbPoint
 10
961.2997403526607
 20
-93.4327006603913
 30
0.0
  0
POINT
  5
40A4
330
409A
100
AcDbEntity
  8
Defpoints
  6
Continuous
 62
     0
100
AcDbPoint
 10
949.8557338989376
 20
-93.4327006603913
 30
0.0
  0
ENDBLK
  5
40A6
330
409A
100
AcDbEntity
  8
0
 62
     3
100
AcDbBlockEnd
  0
ENDSEC
  0
SECTION
  2
ENTITIES
  0
LINE
  5
3F42
330
1E
100
AcDbEntity
  8
躯体
  6
Continuous
 62
     3
100
AcDbLine
 10
1099.837580898937
 20
-76.43270066039129
 30
0.0
 11
1035.837580898937
 21
-76.43270066039129
 31
0.0
  0
LINE
  5
3F43
330
1E
100
AcDbEntity
  8
躯体
  6
Continuous
 62
     3
100
AcDbLine
 10
1099.837580898937
 20
-73.43270066039131
 30
0.0
 11
1035.837580898937
 21
-73.43270066039131
 31
0.0
  0
LINE
  5
3F44
330
1E
100
AcDbEntity
  8
躯体
  6
Continuous
 62
     3
100
AcDbLine
 10
1099.837580898937
 20
-70.43270066039131
 30
0.0
 11
1035.837580898937
 21
-70.43270066039131
 31
0.0
  0
LINE
  5
3F45
330
1E
100
AcDbEntity
  8
躯体
  6
Continuous
 62
     3
100
AcDbLine
 10
1099.837580898937
 20
-67.43270066039129
 30
0.0
 11
1035.837580898937
 21
-67.43270066039129
 31
0.0
  0
LINE
  5
3F47
330
1E
100
AcDbEntity
  8
躯体
  6
Continuous
 62
     2
100
AcDbLine
 10
1007.680910898937
 20
-48.43270066039131
 30
0.0
 11
1075.837580898937
 21
19.72397033960868
 31
0.0
  0
LINE
  5
3F48
330
1E
100
AcDbEntity
  8
躯体
  6
Continuous
 62
     2
100
AcDbLine
 10
1004.680910898937
 20
-48.43270066039131
 30
0.0
 11
1075.837580898937
 21
22.72397033960868
 31
0.0
  0
LINE
  5
3F49
330
1E
100
AcDbEntity
  8
躯体
  6
Continuous
 62
     3
100
AcDbLine
 10
1075.837580898937
 20
-38.4327006603913
 30
0.0
 11
1075.837580898937
 21
46.18846033960871
 31
0.0
  0
LINE
  5
3F4A
330
1E
100
AcDbEntity
  8
笠木
  6
Continuous
 62
     3
100
AcDbLine
 10
1081.837580898937
 20
10.56729933960869
 30
0.0
 11
1081.837580898937
 21
-54.43270066039129
 31
0.0
  0
LINE
  5
3F4B
330
1E
100
AcDbEntity
  8
躯体
  6
Continuous
 62
     3
100
AcDbLine
 10
975.8375808989379
 20
-38.4327006603913
 30
0.0
 11
975.8375808989379
 21
46.18846033960871
 31
0.0
  0
LINE
  5
3F4C
330
1E
100
AcDbEntity
  8
笠木
  6
Continuous
 62
     3
100
AcDbLine
 10
1075.837580898937
 20
6.567299339608696
 30
0.0
 11
1075.837580898937
 21
-39.9327006603913
 31
0.0
  0
LINE
  5
3F4D
330
1E
100
AcDbEntity
  8
受金具
  6
Continuous
 62
     3
100
AcDbLine
 10
1062.137580898937
 20
-56.43270066039129
 30
0.0
 11
997.5375808989376
 21
-56.43270066039129
 31
0.0
  0
LINE
  5
3F4E
330
1E
100
AcDbEntity
  8
笠木
  6
Continuous
 62
     3
100
AcDbLine
 10
1045.337580898937
 20
-91.43270066039129
 30
0.0
 11
977.3375808989376
 21
-91.43270066039129
 31
0.0
  0
LINE
  5
3F4F
330
1E
100
AcDbEntity
  8
笠木
  6
Continuous
 62
     3
100
AcDbLine
 10
977.4375808989375
 20
-90.33270066039131
 30
0.0
 11
1044.237580898937
 21
-90.33270066039131
 31
0.0
  0
LINE
  5
3F50
330
1E
100
AcDbEntity
  8
躯体
  6
Continuous
 62
     3
100
AcDbLine
 10
1065.837580898937
 20
-48.43270066039131
 30
0.0
 11
985.8375808989379
 21
-48.43270066039131
 31
0.0
  0
LINE
  5
3F52
330
1E
100
AcDbEntity
  8
受金具
  6
Continuous
 62
     3
100
AcDbLine
 10
999.5375808989377
 20
-62.03270066039129
 30
0.0
 11
996.3266838989376
 21
-62.03270066039129
 31
0.0
  0
LINE
  5
3F53
330
1E
100
AcDbEntity
  8
受金具
  6
Continuous
 62
     3
100
AcDbLine
 10
1003.280115898937
 20
-88.0650566603913
 30
0.0
 11
996.3266838989376
 21
-62.03270066039129
 31
0.0
  0
LINE
  5
3F54
330
1E
100
AcDbEntity
  8
受金具
  6
Continuous
 62
     3
100
AcDbLine
 10
993.3897038989377
 20
-60.80034366039132
 30
0.0
 11
1000.834147898937
 21
-88.60034366039133
 31
0.0
  0
LINE
  5
3F56
330
1E
100
AcDbEntity
  8
笠木
  6
Continuous
 62
     3
100
AcDbLine
 10
976.9375808989376
 20
-62.25113366039129
 30
0.0
 11
976.9375808989376
 21
-89.8327006603913
 31
0.0
  0
LINE
  5
3F57
330
1E
100
AcDbEntity
  8
笠木
  6
Continuous
 62
     3
100
AcDbLine
 10
975.8375808989379
 20
-93.4327006603913
 30
0.0
 11
975.8375808989379
 21
-61.43270066039129
 31
0.0
  0
ARC
  5
3F65
330
1E
100
AcDbEntity
  8
笠木
  6
Continuous
 62
     3
100
AcDbCircle
 10
977.4375808989375
 20
-89.8327006603913
 30
0.0
 40
0.5
100
AcDbArc
 50
180.0
 51
270.0
  0
LINE
  5
3F66
330
1E
100
AcDbEntity
  8
笠木
  6
Continuous
 62
     3
100
AcDbLine
 10
975.8375808989379
 20
-93.4327006603913
 30
0.0
 11
977.3375808989376
 21
-93.4327006603913
 31
0.0
  0
LINE
  5
3F67
330
1E
100
AcDbEntity
  8
笠木
  6
Continuous
 62
     3
100
AcDbLine
 10
977.3375808989376
 20
-91.43270066039129
 30
0.0
 11
977.3375808989376
 21
-93.4327006603913
 31
0.0
  0
LINE
  5
3F71
330
1E
100
AcDbEntity
  8
躯体
  6
Continuous
 62
     3
100
AcDbLine
 10
985.8375808989379
 20
-48.43270066039131
 30
0.0
 11
975.8375808989379
 21
-38.4327006603913
 31
0.0
  0
LINE
  5
3F72
330
1E
100
AcDbEntity
  8
笠木
  6
Continuous
 62
     3
100
AcDbLine
 10
975.8375808989379
 20
-61.43270066039129
 30
0.0
 11
985.8375808989379
 21
-58.43270066039131
 31
0.0
  0
LINE
  5
3F75
330
1E
100
AcDbEntity
  8
笠木
  6
Continuous
 62
     3
100
AcDbLine
 10
976.9375808989376
 20
-62.25113366039129
 30
0.0
 11
985.999025898938
 21
-59.53270066039129
 31
0.0
  0
ARC
  5
3F76
330
1E
100
AcDbEntity
  8
受金具
  6
Continuous
 62
     3
100
AcDbCircle
 10
994.3532218989377
 20
-60.53270066039129
 30
0.0
 40
1.0
100
AcDbArc
 50
90.0
 51
195.5241109999998
  0
LINE
  5
3F77
330
1E
100
AcDbEntity
  8
笠木
  6
Continuous
 62
     3
100
AcDbLine
 10
995.8375808989377
 20
-58.43270066039131
 30
0.0
 11
985.8375808989379
 21
-58.43270066039131
 31
0.0
  0
LINE
  5
3F78
330
1E
100
AcDbEntity
  8
受金具
  6
Continuous
 62
     2
100
AcDbLine
 10
985.6103228989377
 20
-56.03386966039133
 30
0.0
 11
988.0091538989377
 21
-58.43270066039131
 31
0.0
  0
LINE
  5
3F79
330
1E
100
AcDbEntity
  8
受金具
  6
Continuous
 62
     2
100
AcDbLine
 10
986.4984348989379
 20
-48.43270066039131
 30
0.0
 11
990.8375808989376
 21
-52.77184566039132
 31
0.0
  0
LINE
  5
3F7A
330
1E
100
AcDbEntity
  8
受金具
  6
Continuous
 62
     2
100
AcDbLine
 10
985.4984558989377
 20
-50.26114766039132
 30
0.0
 11
990.8375808989376
 21
-55.60027266039134
 31
0.0
  0
LINE
  5
3F7B
330
1E
100
AcDbEntity
  8
受金具
  6
Continuous
 62
     2
100
AcDbLine
 10
985.8375798989376
 20
-53.42869966039131
 30
0.0
 11
990.8375808989376
 21
-58.42870066039131
 31
0.0
  0
LINE
  5
3F7C
330
1E
100
AcDbEntity
  8
受金具
  6
Continuous
 62
     2
100
AcDbLine
 10
989.5238718989379
 20
-48.43270066039131
 30
0.0
 11
985.7845128989376
 21
-52.17205966039131
 31
0.0
  0
LINE
  5
3F7D
330
1E
100
AcDbEntity
  8
受金具
  6
Continuous
 62
     2
100
AcDbLine
 10
985.7519678989376
 20
-55.03303166039131
 30
0.0
 11
990.8375808989376
 21
-49.94741866039132
 31
0.0
  0
LINE
  5
3F7E
330
1E
100
AcDbEntity
  8
受金具
  6
Continuous
 62
     2
100
AcDbLine
 10
984.8992178989377
 20
-58.71420866039129
 30
0.0
 11
990.8375808989376
 21
-52.77584566039132
 31
0.0
  0
LINE
  5
3F7F
330
1E
100
AcDbEntity
  8
笠木
  6
Continuous
 62
     3
100
AcDbLine
 10
985.999025898938
 20
-59.53270066039129
 30
0.0
 11
996.5375808989376
 21
-59.53270066039129
 31
0.0
  0
ARC
  5
3F80
330
1E
100
AcDbEntity
  8
受金具
  6
Continuous
 62
     3
100
AcDbCircle
 10
970.8375808989377
 20
-53.43270066039131
 30
0.0
 40
15.0
100
AcDbArc
 50
339.3534989999992
 51
25.52877899999912
  0
LINE
  5
3F81
330
1E
100
AcDbEntity
  8
受金具
  6
Continuous
 62
     2
100
AcDbLine
 10
985.0315698989376
 20
-58.28354366039133
 30
0.0
 11
985.3323078989376
 21
-58.58428166039132
 31
0.0
  0
LINE
  5
3F82
330
1E
100
AcDbEntity
  8
受金具
  6
Continuous
 62
     2
100
AcDbLine
 10
984.8522988989376
 20
-47.44741866039132
 30
0.0
 11
984.6697348989376
 21
-47.62998366039129
 31
0.0
  0
LINE
  5
3F83
330
1E
100
AcDbEntity
  8
受金具
  6
Continuous
 62
     2
100
AcDbLine
 10
986.6954448989377
 20
-48.43270066039131
 30
0.0
 11
985.3784108989376
 21
-49.74973366039131
 31
0.0
  0
LINE
  5
3F84
330
1E
100
AcDbEntity
  8
受金具
  6
Continuous
 62
     2
100
AcDbLine
 10
995.8375808989377
 20
-58.43270066039131
 30
0.0
 11
990.8375808989376
 21
-48.43270066039131
 31
0.0
  0
LINE
  5
3F85
330
1E
100
AcDbEntity
  8
受金具
  6
Continuous
 62
     3
100
AcDbLine
 10
995.8375808989377
 20
-58.43270066039131
 30
0.0
 11
995.8375808989377
 21
-48.43270066039131
 31
0.0
  0
LINE
  5
3F86
330
1E
100
AcDbEntity
  8
受金具
  6
Continuous
 62
     3
100
AcDbLine
 10
990.8375808989376
 20
-48.43270066039131
 30
0.0
 11
990.8375808989376
 21
-58.43270066039131
 31
0.0
  0
LINE
  5
3F87
330
1E
100
AcDbEntity
  8
受金具
  6
Continuous
 62
     2
100
AcDbLine
 10
988.0091538989377
 20
-58.43270066039131
 30
0.0
 11
990.8375808989376
 21
-55.60427266039133
 31
0.0
  0
LINE
  5
3F88
330
1E
100
AcDbEntity
  8
笠木
  6
Continuous
 62
     3
100
AcDbLine
 10
997.0375808989377
 20
-55.13270066039132
 30
0.0
 11
997.0375808989377
 21
-59.03270066039129
 31
0.0
  0
ARC
  5
3F89
330
1E
100
AcDbEntity
  8
笠木
  6
Continuous
 62
     3
100
AcDbCircle
 10
996.4375808989377
 20
-55.13270066039132
 30
0.0
 40
0.6
100
AcDbArc
 50
0.0
 51
180.0
  0
LINE
  5
3F8A
330
1E
100
AcDbEntity
  8
笠木
  6
Continuous
 62
     3
100
AcDbLine
 10
995.8375808989377
 20
-55.13270066039132
 30
0.0
 11
995.8375808989377
 21
-58.43270066039131
 31
0.0
  0
LINE
  5
3F8B
330
1E
100
AcDbEntity
  8
受金具
  6
Continuous
 62
     3
100
AcDbLine
 10
997.0375808989377
 20
-59.53270066039129
 30
0.0
 11
994.3532218989377
 21
-59.53270066039129
 31
0.0
  0
LINE
  5
3F8C
330
1E
100
AcDbEntity
  8
受金具
  6
Continuous
 62
     3
100
AcDbLine
 10
997.0375808989377
 20
-59.53270066039129
 30
0.0
 11
997.0375808989377
 21
-56.93270066039129
 31
0.0
  0
ARC
  5
3F8D
330
1E
100
AcDbEntity
  8
受金具
  6
Continuous
 62
     3
100
AcDbCircle
 10
997.5375808989376
 20
-56.93270066039129
 30
0.0
 40
0.5
100
AcDbArc
 50
90.0
 51
180.0
  0
LINE
  5
3F8E
330
1E
100
AcDbEntity
  8
受金具
  6
Continuous
 62
     3
100
AcDbLine
 10
997.0375808989377
 20
-56.93270066039129
 30
0.0
 11
997.0375808989377
 21
-59.53270066039129
 31
0.0
  0
LINE
  5
3F8F
330
1E
100
AcDbEntity
  8
受金具
  6
Continuous
 62
     3
100
AcDbLine
 10
997.0375808989377
 20
-56.93270066039129
 30
0.0
 11
997.0375808989377
 21
-59.5090506603913
 31
0.0
  0
ARC
  5
3F90
330
1E
100
AcDbEntity
  8
笠木
  6
Continuous
 62
     3
100
AcDbCircle
 10
996.5375808989376
 20
-59.03270066039129
 30
0.0
 40
0.5
100
AcDbArc
 50
270.0
 51
0.0
  0
LINE
  5
3F91
330
1E
100
AcDbEntity
  8
受金具
  6
Continuous
 62
     2
100
AcDbLine
 10
989.3268618989376
 20
-48.43270066039131
 30
0.0
 11
990.8375808989376
 21
-49.94341866039133
 31
0.0
  0
LINE
  5
3F93
330
1E
100
AcDbEntity
  8
受金具
  6
Continuous
 62
     2
100
AcDbLine
 10
1012.837580898937
 20
-81.43270066039129
 30
0.0
 11
1012.837580898937
 21
-66.5327006603913
 31
0.0
  0
LINE
  5
3F94
330
1E
100
AcDbEntity
  8
受金具
  6
Continuous
 62
     2
100
AcDbLine
 10
1018.837580898938
 20
-66.5327006603913
 30
0.0
 11
1018.837580898938
 21
-81.43270066039129
 31
0.0
  0
LINE
  5
3F95
330
1E
100
AcDbEntity
  8
受金具
  6
Continuous
 62
     3
100
AcDbLine
 10
1019.837580898937
 20
-80.43270066039131
 30
0.0
 11
1019.837580898937
 21
-66.5327006603913
 31
0.0
  0
LINE
  5
3F96
330
1E
100
AcDbEntity
  8
受金具
  6
Continuous
 62
     3
100
AcDbLine
 10
1011.837580898937
 20
-80.43270066039131
 30
0.0
 11
1011.837580898937
 21
-66.5327006603913
 31
0.0
  0
LINE
  5
3F97
330
1E
100
AcDbEntity
  8
寸法
  6
PLINE3
 62
     2
100
AcDbLine
 10
1015.837580898937
 20
-14.71070066039129
 30
0.0
 11
1015.837580898937
 21
-86.43270066039129
 31
0.0
  0
LINE
  5
3F98
330
1E
100
AcDbEntity
  8
躯体
  6
Continuous
 62
     3
100
AcDbLine
 10
1035.837580898937
 20
-67.43270066039129
 30
0.0
 11
1035.837580898937
 21
-76.43270066039129
 31
0.0
  0
LINE
  5
3F99
330
1E
100
AcDbEntity
  8
受金具
  6
Continuous
 62
     3
100
AcDbLine
 10
1028.337580898937
 20
-58.93270066039129
 30
0.0
 11
1028.337580898937
 21
-80.9327006603913
 31
0.0
  0
LINE
  5
3F9A
330
1E
100
AcDbEntity
  8
受金具
  6
Continuous
 62
     3
100
AcDbLine
 10
1030.837580898937
 20
-78.43270066039131
 30
0.0
 11
1030.837580898937
 21
-58.93270066039129
 31
0.0
  0
LINE
  5
3F9B
330
1E
100
AcDbEntity
  8
笠木
  6
Continuous
 62
     3
100
AcDbLine
 10
1030.837580898937
 20
-78.43270066039131
 30
0.0
 11
1044.237580898937
 21
-78.43270066039131
 31
0.0
  0
LINE
  5
3F9C
330
1E
100
AcDbEntity
  8
笠木
  6
Continuous
 62
     3
100
AcDbLine
 10
1030.837580898937
 20
-77.33270066039131
 30
0.0
 11
1044.737580898937
 21
-77.33270066039131
 31
0.0
  0
LINE
  5
3F9E
330
1E
100
AcDbEntity
  8
受金具
  6
Continuous
 62
     3
100
AcDbLine
 10
1001.797665898937
 20
-89.33270066039131
 30
0.0
 11
1002.316597898937
 21
-89.33270066039131
 31
0.0
  0
ARC
  5
3F9F
330
1E
100
AcDbEntity
  8
受金具
  6
Continuous
 62
     3
100
AcDbCircle
 10
1002.316597898937
 20
-88.33270066039132
 30
0.0
 40
1.0
100
AcDbArc
 50
270.0
 51
15.52411099999989
  0
ARC
  5
3FA0
330
1E
100
AcDbEntity
  8
受金具
  6
Continuous
 62
     3
100
AcDbCircle
 10
1001.797665898937
 20
-88.33270066039132
 30
0.0
 40
1.0
100
AcDbArc
 50
195.5241109999998
 51
270.0
  0
LINE
  5
3FA1
330
1E
100
AcDbEntity
  8
受金具
  6
Continuous
 62
     2
100
AcDbLine
 10
1011.837580898937
 20
-80.43270066039131
 30
0.0
 11
1019.837580898937
 21
-80.43270066039131
 31
0.0
  0
LINE
  5
3FA2
330
1E
100
AcDbEntity
  8
受金具
  6
Continuous
 62
     3
100
AcDbLine
 10
1012.837580898937
 20
-81.43270066039129
 30
0.0
 11
1018.837580898938
 21
-81.43270066039129
 31
0.0
  0
LINE
  5
3FA3
330
1E
100
AcDbEntity
  8
受金具
  6
Continuous
 62
     3
100
AcDbLine
 10
1011.837580898937
 20
-80.43270066039131
 30
0.0
 11
1012.837580898937
 21
-81.43270066039129
 31
0.0
  0
LINE
  5
3FA4
330
1E
100
AcDbEntity
  8
受金具
  6
Continuous
 62
     3
100
AcDbLine
 10
1019.837580898937
 20
-80.43270066039131
 30
0.0
 11
1018.837580898938
 21
-81.43270066039129
 31
0.0
  0
LINE
  5
3FA5
330
1E
100
AcDbEntity
  8
受金具
  6
Continuous
 62
     3
100
AcDbLine
 10
1034.187606898937
 20
-79.84964166039131
 30
0.0
 11
1030.105038898937
 21
-88.74964166039131
 31
0.0
  0
LINE
  5
3FA6
330
1E
100
AcDbEntity
  8
受金具
  6
Continuous
 62
     3
100
AcDbLine
 10
1030.837580898937
 20
-78.43270066039131
 30
0.0
 11
1033.278673898937
 21
-78.43270066039131
 31
0.0
  0
LINE
  5
3FA7
330
1E
100
AcDbEntity
  8
受金具
  6
Continuous
 62
     3
100
AcDbLine
 10
1030.940314898937
 20
-80.9327006603913
 30
0.0
 11
1027.737076898937
 21
-87.9157586603913
 31
0.0
  0
ARC
  5
3FA8
330
1E
100
AcDbEntity
  8
受金具
  6
Continuous
 62
     3
100
AcDbCircle
 10
1029.196104898937
 20
-88.33270066039132
 30
0.0
 40
1.0
100
AcDbArc
 50
270.0
 51
335.3583380000003
  0
LINE
  5
3FA9
330
1E
100
AcDbEntity
  8
受金具
  6
Continuous
 62
     3
100
AcDbLine
 10
1028.646009898937
 20
-89.33270066039131
 30
0.0
 11
1029.196104898937
 21
-89.33270066039131
 31
0.0
  0
ARC
  5
3FAA
330
1E
100
AcDbEntity
  8
受金具
  6
Continuous
 62
     3
100
AcDbCircle
 10
1028.646009898937
 20
-88.33270066039132
 30
0.0
 40
1.0
100
AcDbArc
 50
155.3583380000003
 51
270.0
  0
LINE
  5
3FAB
330
1E
100
AcDbEntity
  8
受金具
  6
Continuous
 62
     3
100
AcDbLine
 10
1030.837580898937
 20
-77.33270066039131
 30
0.0
 11
1030.837580898937
 21
-78.43270066039131
 31
0.0
  0
LINE
  5
3FAC
330
1E
100
AcDbEntity
  8
受金具
  6
Continuous
 62
     3
100
AcDbLine
 10
1028.337580898937
 20
-80.9327006603913
 30
0.0
 11
1030.940314898937
 21
-80.9327006603913
 31
0.0
  0
ARC
  5
3FAD
330
1E
100
AcDbEntity
  8
受金具
  6
Continuous
 62
     3
100
AcDbCircle
 10
1033.278673898937
 20
-79.43270066039129
 30
0.0
 40
1.0
100
AcDbArc
 50
335.3583380000003
 51
90.0
  0
LINE
  5
3FB1
330
1E
100
AcDbEntity
  8
笠木
  6
Continuous
 62
     3
100
AcDbLine
 10
1045.837580898937
 20
-76.43270066039129
 30
0.0
 11
1045.837580898937
 21
-90.9327006603913
 31
0.0
  0
ARC
  5
3FB2
330
1E
100
AcDbEntity
  8
笠木
  6
Continuous
 62
     3
100
AcDbCircle
 10
1045.337580898937
 20
-90.9327006603913
 30
0.0
 40
0.5
100
AcDbArc
 50
270.0
 51
0.0
  0
LINE
  5
3FB3
330
1E
100
AcDbEntity
  8
笠木
  6
Continuous
 62
     3
100
AcDbLine
 10
1044.737580898937
 20
-89.8327006603913
 30
0.0
 11
1044.737580898937
 21
-78.93270066039129
 31
0.0
  0
ARC
  5
3FB4
330
1E
100
AcDbEntity
  8
笠木
  6
Continuous
 62
     3
100
AcDbCircle
 10
1044.237580898937
 20
-89.8327006603913
 30
0.0
 40
0.5
100
AcDbArc
 50
270.0
 51
0.0
  0
LINE
  5
3FB5
330
1E
100
AcDbEntity
  8
笠木
  6
Continuous
 62
     3
100
AcDbLine
 10
1044.737580898937
 20
-77.33270066039131
 30
0.0
 11
1044.737580898937
 21
-76.43270066039129
 31
0.0
  0
LINE
  5
3FB6
330
1E
100
AcDbEntity
  8
笠木
  6
Continuous
 62
     3
100
AcDbLine
 10
1044.737580898937
 20
-76.43270066039129
 30
0.0
 11
1045.837580898937
 21
-76.43270066039129
 31
0.0
  0
ARC
  5
3FB7
330
1E
100
AcDbEntity
  8
笠木
  6
Continuous
 62
     3
100
AcDbCircle
 10
1044.237580898937
 20
-78.93270066039129
 30
0.0
 40
0.5
100
AcDbArc
 50
0.0
 51
90.0
  0
LINE
  5
3FBB
330
1E
100
AcDbEntity
  8
笠木
  6
Continuous
 62
     3
100
AcDbLine
 10
1016.837580898938
 20
-54.43270066039129
 30
0.0
 11
1081.837580898937
 21
-54.43270066039129
 31
0.0
  0
LINE
  5
3FBC
330
1E
100
AcDbEntity
  8
笠木
  6
Continuous
 62
     3
100
AcDbLine
 10
1067.337580898937
 20
-48.43270066039131
 30
0.0
 11
1020.837580898937
 21
-48.43270066039131
 31
0.0
  0
LINE
  5
3FBD
330
1E
100
AcDbEntity
  8
受金具
  6
Continuous
 62
     3
100
AcDbLine
 10
1045.537580898938
 20
-58.93270066039129
 30
0.0
 11
1030.837580898937
 21
-58.93270066039129
 31
0.0
  0
LINE
  5
3FBE
330
1E
100
AcDbEntity
  8
受金具
  6
Continuous
 62
     3
100
AcDbLine
 10
1003.337580898937
 20
-56.43270066039129
 30
0.0
 11
1043.337580898937
 21
-56.43270066039129
 31
0.0
  0
LINE
  5
3FBF
330
1E
100
AcDbEntity
  8
受金具
  6
Continuous
 62
     3
100
AcDbLine
 10
1003.337580898937
 20
-54.43270066039129
 30
0.0
 11
1043.337580898937
 21
-54.43270066039129
 31
0.0
  0
LINE
  5
3FC0
330
1E
100
AcDbEntity
  8
受金具
  6
Continuous
 62
     3
100
AcDbLine
 10
1006.237580898937
 20
-60.13270066039132
 30
0.0
 11
1025.437580898937
 21
-60.13270066039132
 31
0.0
  0
LINE
  5
3FC1
330
1E
100
AcDbEntity
  8
受金具
  6
Continuous
 62
     3
100
AcDbLine
 10
1007.997580898937
 20
-60.13270066039132
 30
0.0
 11
1023.677580898937
 21
-60.13270066039132
 31
0.0
  0
LINE
  5
3FC2
330
1E
100
AcDbEntity
  8
受金具
  6
Continuous
 62
     3
100
AcDbLine
 10
1021.840293898937
 20
-66.5327006603913
 30
0.0
 11
1009.834866898937
 21
-66.5327006603913
 31
0.0
  0
ARC
  5
3FC3
330
1E
100
AcDbEntity
  8
受金具
  6
Continuous
 62
     3
100
AcDbCircle
 10
1021.958697898937
 20
-62.53445266039131
 30
0.0
 40
4.0
100
AcDbArc
 50
236.6138220000016
 51
268.303743
  0
LINE
  5
3FC4
330
1E
100
AcDbEntity
  8
受金具
  6
Continuous
 62
     3
100
AcDbLine
 10
1006.237580898937
 20
-58.93270066039129
 30
0.0
 11
1025.437580898937
 21
-58.93270066039129
 31
0.0
  0
LINE
  5
3FC5
330
1E
100
AcDbEntity
  8
受金具
  6
Continuous
 62
     3
100
AcDbLine
 10
1016.137580898937
 20
-58.93270066039129
 30
0.0
 11
1028.337580898937
 21
-58.93270066039129
 31
0.0
  0
LINE
  5
3FC6
330
1E
100
AcDbEntity
  8
受金具
  6
Continuous
 62
     3
100
AcDbLine
 10
1006.237580898937
 20
-60.13270066039132
 30
0.0
 11
1006.237580898937
 21
-58.93270066039129
 31
0.0
  0
LINE
  5
3FC7
330
1E
100
AcDbEntity
  8
受金具
  6
Continuous
 62
     3
100
AcDbLine
 10
999.5375808989377
 20
-58.93270066039129
 30
0.0
 11
999.5375808989377
 21
-62.03270066039129
 31
0.0
  0
LINE
  5
3FC8
330
1E
100
AcDbEntity
  8
受金具
  6
Continuous
 62
     3
100
AcDbLine
 10
999.5375808989377
 20
-58.93270066039129
 30
0.0
 11
999.5375808989377
 21
-62.03270066039129
 31
0.0
  0
LINE
  5
3FC9
330
1E
100
AcDbEntity
  8
受金具
  6
Continuous
 62
     3
100
AcDbLine
 10
999.5375808989377
 20
-58.93270066039129
 30
0.0
 11
999.5375808989377
 21
-62.03270066039129
 31
0.0
  0
ARC
  5
3FCA
330
1E
100
AcDbEntity
  8
受金具
  6
Continuous
 62
     3
100
AcDbCircle
 10
1009.716462898937
 20
-62.53445266039131
 30
0.0
 40
4.0
100
AcDbArc
 50
271.6962539999968
 51
303.3861779999979
  0
LINE
  5
3FCB
330
1E
100
AcDbEntity
  8
受金具
  6
Continuous
 62
     3
100
AcDbLine
 10
1007.997580898937
 20
-65.87437566039131
 30
0.0
 11
1007.997580898937
 21
-60.13270066039132
 31
0.0
  0
LINE
  5
3FCC
330
1E
100
AcDbEntity
  8
受金具
  6
Continuous
 62
     3
100
AcDbLine
 10
1009.834866898937
 20
-66.5327006603913
 30
0.0
 11
1007.997580898937
 21
-65.87437566039131
 31
0.0
  0
ARC
  5
3FCD
330
1E
100
AcDbEntity
  8
受金具
  6
Continuous
 62
     3
100
AcDbCircle
 10
1015.837580898937
 20
-54.53270066039129
 30
0.0
 40
12.0
100
AcDbArc
 50
250.9334200000036
 51
289.0665799999963
  0
LINE
  5
3FCE
330
1E
100
AcDbEntity
  8
受金具
  6
Continuous
 62
     3
100
AcDbLine
 10
1011.917580898938
 20
-65.87437566039131
 30
0.0
 11
1011.917580898938
 21
-60.13270066039132
 31
0.0
  0
LINE
  5
3FCF
330
1E
100
AcDbEntity
  8
受金具
  6
Continuous
 62
     3
100
AcDbLine
 10
1019.757580898937
 20
-60.13270066039132
 30
0.0
 11
1019.757580898937
 21
-65.87437566039131
 31
0.0
  0
LINE
  5
3FD0
330
1E
100
AcDbEntity
  8
受金具
  6
Continuous
 62
     3
100
AcDbLine
 10
999.5375808989377
 20
-58.93270066039129
 30
0.0
 11
1015.537580898937
 21
-58.93270066039129
 31
0.0
  0
LINE
  5
3FD1
330
1E
100
AcDbEntity
  8
受金具
  6
Continuous
 62
     3
100
AcDbLine
 10
1003.337580898937
 20
-56.43270066039129
 30
0.0
 11
1003.337580898937
 21
-54.43270066039129
 31
0.0
  0
ARC
  5
3FD2
330
1E
100
AcDbEntity
  8
笠木
  6
Continuous
 62
     3
100
AcDbCircle
 10
1020.837580898937
 20
-52.43270066039129
 30
0.0
 40
4.0
100
AcDbArc
 50
90.0
 51
180.0
  0
LINE
  5
3FD3
330
1E
100
AcDbEntity
  8
受金具
  6
Continuous
 62
     2
100
AcDbLine
 10
1015.837580898937
 20
-58.63270066039132
 30
0.0
 11
1015.537580898937
 21
-58.93270066039129
 31
0.0
  0
LINE
  5
3FD4
330
1E
100
AcDbEntity
  8
受金具
  6
Continuous
 62
     2
100
AcDbLine
 10
1015.837580898937
 20
-58.63270066039132
 30
0.0
 11
1015.537580898937
 21
-58.93270066039129
 31
0.0
  0
LINE
  5
3FD5
330
1E
100
AcDbEntity
  8
受金具
  6
PLINE2
 62
     2
100
AcDbLine
 10
1010.637580898937
 20
-58.93270066039129
 30
0.0
 11
1010.637580898937
 21
-56.43270066039129
 31
0.0
  0
LINE
  5
3FD6
330
1E
100
AcDbEntity
  8
受金具
  6
PLINE2
 62
     2
100
AcDbLine
 10
1010.637580898937
 20
-58.93270066039129
 30
0.0
 11
1010.637580898937
 21
-56.43270066039129
 31
0.0
  0
LINE
  5
3FD7
330
1E
100
AcDbEntity
  8
笠木
  6
Continuous
 62
     3
100
AcDbLine
 10
1016.837580898938
 20
-54.43270066039129
 30
0.0
 11
1016.837580898938
 21
-52.43270066039129
 31
0.0
  0
LINE
  5
3FD8
330
1E
100
AcDbEntity
  8
受金具
  6
PLINE2
 62
     2
100
AcDbLine
 10
1020.637580898937
 20
-58.93270066039129
 30
0.0
 11
1020.637580898937
 21
-56.43270066039129
 31
0.0
  0
LINE
  5
3FD9
330
1E
100
AcDbEntity
  8
受金具
  6
Continuous
 62
     2
100
AcDbLine
 10
1015.837580898937
 20
-58.63270066039132
 30
0.0
 11
1016.137580898937
 21
-58.93270066039129
 31
0.0
  0
LINE
  5
3FDA
330
1E
100
AcDbEntity
  8
受金具
  6
PLINE2
 62
     2
100
AcDbLine
 10
1020.637580898937
 20
-58.93270066039129
 30
0.0
 11
1020.637580898937
 21
-56.43270066039129
 31
0.0
  0
LINE
  5
3FDB
330
1E
100
AcDbEntity
  8
受金具
  6
Continuous
 62
     2
100
AcDbLine
 10
1015.837580898937
 20
-58.63270066039132
 30
0.0
 11
1016.137580898937
 21
-58.93270066039129
 31
0.0
  0
LINE
  5
3FDC
330
1E
100
AcDbEntity
  8
受金具
  6
Continuous
 62
     3
100
AcDbLine
 10
1025.437580898937
 20
-60.13270066039132
 30
0.0
 11
1025.437580898937
 21
-58.93270066039129
 31
0.0
  0
LINE
  5
3FDD
330
1E
100
AcDbEntity
  8
受金具
  6
Continuous
 62
     3
100
AcDbLine
 10
1023.677580898937
 20
-60.13270066039132
 30
0.0
 11
1023.677580898937
 21
-65.87437566039131
 31
0.0
  0
LINE
  5
3FDE
330
1E
100
AcDbEntity
  8
受金具
  6
Continuous
 62
     3
100
AcDbLine
 10
1023.677580898937
 20
-65.87437566039131
 30
0.0
 11
1021.840293898937
 21
-66.5327006603913
 31
0.0
  0
LINE
  5
3FDF
330
1E
100
AcDbEntity
  8
受金具
  6
PLINE2
 62
     2
100
AcDbLine
 10
1035.637580898937
 20
-58.93270066039129
 30
0.0
 11
1035.637580898937
 21
-56.43270066039129
 31
0.0
  0
LINE
  5
3FE0
330
1E
100
AcDbEntity
  8
受金具
  6
Continuous
 62
     3
100
AcDbLine
 10
1043.337580898937
 20
-54.43270066039129
 30
0.0
 11
1043.337580898937
 21
-56.43270066039129
 31
0.0
  0
ARC
  5
3FE2
330
1E
100
AcDbEntity
  8
笠木
  6
Continuous
 62
     3
100
AcDbCircle
 10
1067.337580898937
 20
-39.9327006603913
 30
0.0
 40
8.5
100
AcDbArc
 50
270.0
 51
0.0
  0
LINE
  5
3FE3
330
1E
100
AcDbEntity
  8
躯体
  6
Continuous
 62
     3
100
AcDbLine
 10
1065.837580898937
 20
-48.43270066039131
 30
0.0
 11
1075.837580898937
 21
-38.4327006603913
 31
0.0
  0
LINE
  5
3FE4
330
1E
100
AcDbEntity
  8
受金具
  6
Continuous
 62
     3
100
AcDbLine
 10
1062.137580898937
 20
-58.93270066039129
 30
0.0
 11
1046.137580898937
 21
-58.93270066039129
 31
0.0
  0
LINE
  5
3FE5
330
1E
100
AcDbEntity
  8
受金具
  6
Continuous
 62
     2
100
AcDbLine
 10
1046.137580898937
 20
-58.93270066039129
 30
0.0
 11
1045.837580898937
 21
-58.63270066039132
 31
0.0
  0
LINE
  5
3FE6
330
1E
100
AcDbEntity
  8
受金具
  6
Continuous
 62
     2
100
AcDbLine
 10
1045.537580898938
 20
-58.93270066039129
 30
0.0
 11
1045.837580898937
 21
-58.63270066039132
 31
0.0
  0
LINE
  5
3FE7
330
1E
100
AcDbEntity
  8
受金具
  6
PLINE2
 62
     2
100
AcDbLine
 10
1055.637580898937
 20
-58.93270066039129
 30
0.0
 11
1055.637580898937
 21
-56.43270066039129
 31
0.0
  0
LINE
  5
3FE8
330
1E
100
AcDbEntity
  8
受金具
  6
Continuous
 62
     3
100
AcDbLine
 10
1062.137580898937
 20
-56.43270066039129
 30
0.0
 11
1062.137580898937
 21
-58.93270066039129
 31
0.0
  0
LINE
  5
3FE9
330
1E
100
AcDbEntity
  8
笠木
  6
Continuous
 62
     3
100
AcDbLine
 10
1065.837580898937
 20
-48.43270066039131
 30
0.0
 11
1067.337580898937
 21
-48.43270066039131
 31
0.0
  0
LINE
  5
3FEA
330
1E
100
AcDbEntity
  8
躯体
  6
Continuous
 62
     2
100
AcDbLine
 10
975.8375808989379
 20
14.26229933960868
 30
0.0
 11
1007.763740898937
 21
46.18846033960871
 31
0.0
  0
LINE
  5
3FEB
330
1E
100
AcDbEntity
  8
躯体
  6
Continuous
 62
     2
100
AcDbLine
 10
975.8375808989379
 20
17.26229933960867
 30
0.0
 11
1004.763740898938
 21
46.18846033960871
 31
0.0
  0
ARC
  5
3FF0
330
1E
100
AcDbEntity
  8
笠木
  6
Continuous
 62
     3
100
AcDbCircle
 10
1079.837580898937
 20
6.567299339608695
 30
0.0
 40
4.0
100
AcDbArc
 50
90.0
 51
180.0
  0
LINE
  5
3FF1
330
1E
100
AcDbEntity
  8
笠木
  6
Continuous
 62
     3
100
AcDbLine
 10
1081.837580898937
 20
10.56729933960869
 30
0.0
 11
1079.837580898937
 21
10.56729933960869
 31
0.0
  0
DIMENSION
  5
3FF7
330
1E
100
AcDbEntity
  8
寸法
  6
Continuous
100
AcDbDimension
  2
*D4
 10
1075.837580898937
 20
26.92286333960865
 30
0.0
 11
1025.837580898937
 21
30.42286333960865
 31
0.0
 70
    32
 71
     5
 42
100.0
  3
AutoCAD
100
AcDbAlignedDimension
 13
975.8375808989379
 23
26.92286333960865
 33
0.0
 14
1075.837580898937
 24
26.92286333960865
 34
0.0
100
AcDbRotatedDimension
  0
DIMENSION
  5
4002
330
1E
100
AcDbEntity
  8
寸法
  6
Continuous
100
AcDbDimension
  2
*D5
 10
1015.837580898937
 20
-14.71070066039129
 30
0.0
 11
995.8375808989377
 21
-11.21070066039129
 31
0.0
 70
    32
 71
     5
 42
40.0
  3
AutoCAD
100
AcDbAlignedDimension
 13
975.8375808989379
 23
-15.31070066039129
 33
0.0
 14
1015.837580898937
 24
-15.31070066039129
 34
0.0
100
AcDbRotatedDimension
  0
DIMENSION
  5
4010
330
1E
100
AcDbEntity
  8
寸法
  6
Continuous
100
AcDbDimension
  2
*D6
 10
949.8557338989376
 20
-58.43270066039131
 30
0.0
 11
946.3557338989376
 21
-53.43270066039115
 31
0.0
 70
    32
 71
     5
 42
10.0
  3
AutoCAD
100
AcDbAlignedDimension
 13
961.2997403526607
 23
-48.43270066039131
 33
0.0
 14
961.2997403526607
 24
-58.43270066039131
 34
0.0
 50
90.0
100
AcDbRotatedDimension
  0
DIMENSION
  5
401D
330
1E
100
AcDbEntity
  8
寸法
  6
Continuous
100
AcDbDimension
  2
*D7
 10
949.8557338989376
 20
-91.43270066039129
 30
0.0
 11
946.3557338989376
 21
-74.93270066039116
 31
0.0
 70
    32
 71
     5
 42
33.0
  3
AutoCAD
100
AcDbAlignedDimension
 13
961.2997403526607
 23
-58.43270066039131
 33
0.0
 14
961.2997403526607
 24
-91.43270066039129
 34
0.0
 50
90.0
100
AcDbRotatedDimension
1001
ACAD
1000
DSTYLE
1002
{
1070
   279
1070
     1
1002
}
  0
DIMENSION
  5
4038
330
1E
100
AcDbEntity
  8
寸法
  6
Continuous
100
AcDbDimension
  2
*D9
 10
939.8557338989379
 20
-93.4327006603913
 30
0.0
 11
936.3557338989377
 21
-70.93270066039116
 31
0.0
 70
    32
 71
     5
 42
45.0
  3
AutoCAD
100
AcDbAlignedDimension
 13
961.2997403526607
 23
-48.43270066039131
 33
0.0
 14
961.2997403526607
 24
-93.4327006603913
 34
0.0
 50
90.0
100
AcDbRotatedDimension
  0
DIMENSION
  5
4045
330
1E
100
AcDbEntity
  8
寸法
  6
Continuous
100
AcDbDimension
  2
*D10
 10
1045.837580898937
 20
-112.1216026603913
 30
0.0
 11
1010.837580898938
 21
-108.6216026603913
 31
0.0
 70
    32
 71
     5
 42
70.0
  3
AutoCAD
100
AcDbAlignedDimension
 13
975.8375808989379
 23
-100.5648152324849
 33
0.0
 14
1045.837580898937
 24
-100.5648152324849
 34
0.0
100
AcDbRotatedDimension
  0
DIMENSION
  5
4052
330
1E
100
AcDbEntity
  8
寸法
  6
Continuous
100
AcDbDimension
  2
*D11
 10
1070.837580898937
 20
-76.4327006603913
 30
0.0
 11
1067.337580898937
 21
-83.93270066039113
 31
0.0
 70
    32
 71
     5
 42
15.0
  3
AutoCAD
100
AcDbAlignedDimension
 13
1048.583950898937
 23
-91.43270066039129
 33
0.0
 14
1048.583950898937
 24
-76.43270066039129
 34
0.0
 50
90.0
100
AcDbRotatedDimension
  0
DIMENSION
  5
405F
330
1E
100
AcDbEntity
  8
寸法
  6
Continuous
100
AcDbDimension
  2
*D12
 10
1114.837580898937
 20
-54.43270066039131
 30
0.0
 11
1111.337580898937
 21
-72.93270066039112
 31
0.0
 70
    32
 71
     5
 42
37.0
  3
AutoCAD
100
AcDbAlignedDimension
 13
1102.287557343591
 23
-91.43270066039129
 33
0.0
 14
1102.287557343591
 24
-54.43270066039129
 34
0.0
 50
90.0
100
AcDbRotatedDimension
  0
LINE
  5
4075
330
1E
100
AcDbEntity
  8
笠木
  6
Continuous
 62
     3
100
AcDbLine
 10
1030.837580898937
 20
-78.43270066039131
 30
0.0
 11
1030.837580898937
 21
-77.33270066039131
 31
0.0
  0
LINE
  5
408A
330
1E
100
AcDbEntity
  8
受金具
  6
Continuous
 62
     3
100
AcDbLine
 10
995.8375808989377
 20
-48.43270066039131
 30
0.0
 11
985.8375808989379
 21
-48.43270066039131
 31
0.0
  0
LINE
  5
408B
330
1E
100
AcDbEntity
  8
受金具
  6
Continuous
 62
     3
100
AcDbLine
 10
985.8375808989379
 20
-48.43270066039131
 30
0.0
 11
984.3731148461095
 21
-46.96823465267204
 31
0.0
  0
LINE
  5
408C
330
1E
100
AcDbEntity
  8
受金具
  6
Continuous
 62
     3
100
AcDbLine
 10
995.8375808989377
 20
-58.43270066039131
 30
0.0
 11
985.8375808989379
 21
-58.43270066039131
 31
0.0
  0
LINE
  5
408D
330
1E
100
AcDbEntity
  8
受金具
  6
Continuous
 62
     3
100
AcDbLine
 10
985.8375808989379
 20
-58.43270066039131
 30
0.0
 11
984.8741860144421
 21
-58.72171917344171
 31
0.0
  0
DIMENSION
  5
4099
330
1E
100
AcDbEntity
  8
受金具
  6
Continuous
 62
     3
100
AcDbDimension
  2
*D13
 10
949.8557338989376
 20
-93.4327006603913
 30
0.0
 11
946.3557338989376
 21
-92.43270066039114
 31
0.0
 70
    32
 71
     5
 42
2.0
  3
AutoCAD
100
AcDbAlignedDimension
 13
961.2997403526607
 23
-91.43270066039129
 33
0.0
 14
961.2997403526607
 24
-93.4327006603913
 34
0.0
 50
90.0
100
AcDbRotatedDimension
1001
ACAD
1000
DSTYLE
1002
{
1070
   341
1005
15B0
1002
}
  0
TEXT
  5
40CA
330
1E
100
AcDbEntity
  8
寸法
  6
Continuous
 62
     4
100
AcDbText
 10
947.2648150692043
 20
128.3865626922446
 30
0.0
 40
20.0
  1
Ｋ－７０Ｎ
 41
0.73811
  7
ACAD
100
AcDbText
  0
ENDSEC
  0
SECTION
  2
OBJECTS
  0
DICTIONARY
  5
C
330
0
100
AcDbDictionary
281
     1
  3
ACAD_COLOR
350
4091
  3
ACAD_GROUP
350
D
  3
ACAD_LAYOUT
350
19
  3
ACAD_MATERIAL
350
4090
  3
ACAD_MLINESTYLE
350
16
  3
ACAD_PLOTSETTINGS
350
18
  3
ACAD_PLOTSTYLENAME
350
E
  3
ACAD_TABLESTYLE
350
4092
  3
ACAD_VISUALSTYLE
350
40AD
  3
AcDbVariableDictionary
350
169
  3
DWGPROPS
350
40EA
  0
DICTIONARY
  5
175
330
2
100
AcDbDictionary
280
     1
281
     1
  3
ACAD_LAYERFILTERS
360
185
  3
ACAD_LAYERSTATES
360
176
  0
DICTIONARY
  5
28B
330
1E
100
AcDbDictionary
280
     1
281
     1
  3
ACAD_LAYOUTSELFREF
360
35D7
  0
DICTIONARY
  5
28D
330
1A
100
AcDbDictionary
280
     1
281
     1
  3
ACAD_LAYOUTSELFREF
360
35D6
  0
DICTIONARY
  5
4091
102
{ACAD_REACTORS
330
C
102
}
330
C
100
AcDbDictionary
281
     1
  0
DICTIONARY
  5
D
102
{ACAD_REACTORS
330
C
102
}
330
C
100
AcDbDictionary
281
     1
  0
DICTIONARY
  5
19
102
{ACAD_REACTORS
330
C
102
}
330
C
100
AcDbDictionary
281
     1
  3
Model
350
21
  3
ﾚｲｱｳﾄ1
350
1D
  0
DICTIONARY
  5
4090
102
{ACAD_REACTORS
330
C
102
}
330
C
100
AcDbDictionary
281
     1
  3
ByBlock
350
40AB
  3
ByLayer
350
40AA
  3
Global
350
40AC
  0
DICTIONARY
  5
16
102
{ACAD_REACTORS
330
C
102
}
330
C
100
AcDbDictionary
281
     1
  3
Standard
350
17
  0
DICTIONARY
  5
18
102
{ACAD_REACTORS
330
C
102
}
330
C
100
AcDbDictionary
281
     1
  0
ACDBDICTIONARYWDFLT
  5
E
102
{ACAD_REACTORS
330
C
102
}
330
C
100
AcDbDictionary
281
     1
  3
Normal
350
F
100
AcDbDictionaryWithDefault
340
F
1001
ACAD
1000
TREAT_AS_HARD
1070
     0
1000
TREAT_AS_HARD
1070
     0
1000
TREAT_AS_HARD
1070
     0
1000
TREAT_AS_HARD
1070
     0
1000
TREAT_AS_HARD
1070
     0
1000
TREAT_AS_HARD
1070
     0
1000
TREAT_AS_HARD
1070
     0
1000
TREAT_AS_HARD
1070
     0
1000
TREAT_AS_HARD
1070
     0
1000
TREAT_AS_HARD
1070
     0
1000
TREAT_AS_HARD
1070
     0
1000
TREAT_AS_HARD
1070
     0
1000
TREAT_AS_HARD
1070
     0
1000
TREAT_AS_HARD
1070
     0
1000
TREAT_AS_HARD
1070
     0
1000
TREAT_AS_HARD
1070
     0
1000
TREAT_AS_HARD
1070
     0
1000
TREAT_AS_HARD
1070
     0
1000
TREAT_AS_HARD
1070
     0
1000
TREAT_AS_HARD
1070
     0
1000
TREAT_AS_HARD
1070
     0
  0
DICTIONARY
  5
4092
102
{ACAD_REACTORS
330
C
102
}
330
C
100
AcDbDictionary
281
     1
  3
Standard
350
4093
  0
DICTIONARY
  5
40AD
102
{ACAD_REACTORS
330
C
102
}
330
C
100
AcDbDictionary
281
     1
  3
2dWireframe
350
40B3
  3
3D Hidden
350
40B5
  3
3dWireframe
350
40B4
  3
Basic
350
40B2
  3
Brighten
350
40B9
  3
ColorChange
350
40BD
  3
Conceptual
350
40B6
  3
Dim
350
40B8
  3
Facepattern
350
40BC
  3
Flat
350
40AE
  3
FlatWithEdges
350
40AF
  3
Gouraud
350
40B0
  3
GouraudWithEdges
350
40B1
  3
Linepattern
350
40BB
  3
Realistic
350
40B7
  3
Thicken
350
40BA
  0
DICTIONARY
  5
169
102
{ACAD_REACTORS
330
C
102
}
330
C
100
AcDbDictionary
281
     1
  3
CTABLESTYLE
350
40A8
  3
DIMASSOC
350
16A
  3
INDEXCTL
350
40E9
  3
SORTENTS
350
40E8
  0
XRECORD
  5
40EA
102
{ACAD_REACTORS
330
C
102
}
330
C
100
AcDbXrecord
280
     1
  1
DWGPROPS COOKIE
  2

  3

  4

  6

  7

  8
HON1000AV
  9

300
=
301
=
302
=
303
=
304
=
305
=
306
=
307
=
308
=
309
=
 40
0.213917962962963
 41
2454316.693457674
 42
2454769.457127998
  1

 90
        0
  0
DICTIONARY
  5
185
102
{ACAD_REACTORS
330
175
102
}
330
175
100
AcDbDictionary
280
     1
281
     1
  0
DICTIONARY
  5
176
102
{ACAD_REACTORS
330
175
102
}
330
175
100
AcDbDictionary
281
     1
  3
ACAD
350
177
  0
XRECORD
  5
35D7
102
{ACAD_REACTORS
330
28B
102
}
330
28B
100
AcDbXrecord
280
     1
340
1E
  0
XRECORD
  5
35D6
102
{ACAD_REACTORS
330
28D
102
}
330
28D
100
AcDbXrecord
280
     1
340
1A
  0
LAYOUT
  5
21
102
{ACAD_XDICTIONARY
360
40ED
102
}
102
{ACAD_REACTORS
330
19
102
}
330
19
100
AcDbPlotSettings
  1

  2
\\MEISEI-1\EPSON Stylus Photo EX3
  4

  6

 40
0.0
 41
0.0
 42
0.0
 43
0.0
 44
0.0
 45
0.0
 46
0.0
 47
0.0
 48
0.0
 49
0.0
140
0.0
141
0.0
142
1.0
143
1.0
 70
  1712
 72
     0
 73
     0
 74
     0
  7

 75
     0
147
1.0
148
0.0
149
0.0
100
AcDbLayout
  1
Model
 70
     1
 71
     0
 10
0.0
 20
0.0
 11
12.0
 21
9.0
 12
0.0
 22
0.0
 32
0.0
 14
0.0
 24
0.0
 34
0.0
 15
0.0
 25
0.0
 35
0.0
146
0.0
 13
0.0
 23
0.0
 33
0.0
 16
1.0
 26
0.0
 36
0.0
 17
0.0
 27
1.0
 37
0.0
 76
     0
330
1E
331
40A7
  0
LAYOUT
  5
1D
102
{ACAD_XDICTIONARY
360
40EB
102
}
102
{ACAD_REACTORS
330
19
102
}
330
19
100
AcDbPlotSettings
  1

  2
\\MEISEI-1\EPSON Stylus Photo EX3
  4

  6

 40
0.0
 41
0.0
 42
0.0
 43
0.0
 44
0.0
 45
0.0
 46
0.0
 47
0.0
 48
0.0
 49
0.0
140
0.0
141
0.0
142
1.0
143
1.0
 70
   688
 72
     0
 73
     0
 74
     5
  7

 75
    16
147
1.0
148
0.0
149
0.0
100
AcDbLayout
  1
ﾚｲｱｳﾄ1
 70
     1
 71
     1
 10
0.0
 20
0.0
 11
12.0
 21
9.0
 12
0.0
 22
0.0
 32
0.0
 14
1.000000000000000E+20
 24
1.000000000000000E+20
 34
1.000000000000000E+20
 15
-1.000000000000000E+20
 25
-1.000000000000000E+20
 35
-1.000000000000000E+20
146
0.0
 13
0.0
 23
0.0
 33
0.0
 16
1.0
 26
0.0
 36
0.0
 17
0.0
 27
1.0
 37
0.0
 76
     0
330
1A
  0
MATERIAL
  5
40AB
102
{ACAD_XDICTIONARY
360
40F3
102
}
102
{ACAD_REACTORS
330
4090
102
}
330
4090
100
AcDbMaterial
  1
ByBlock
  0
MATERIAL
  5
40AA
102
{ACAD_XDICTIONARY
360
40F1
102
}
102
{ACAD_REACTORS
330
4090
102
}
330
4090
100
AcDbMaterial
  1
ByLayer
  0
MATERIAL
  5
40AC
102
{ACAD_XDICTIONARY
360
40F5
102
}
102
{ACAD_REACTORS
330
4090
102
}
330
4090
100
AcDbMaterial
  1
Global
  0
MLINESTYLE
  5
17
102
{ACAD_REACTORS
330
16
102
}
330
16
100
AcDbMlineStyle
  2
STANDARD
 70
     0
  3

 62
   256
 51
90.0
 52
90.0
 71
     2
 49
0.5
 62
   256
  6
BYLAYER
 49
-0.5
 62
   256
  6
BYLAYER
  0
ACDBPLACEHOLDER
  5
F
102
{ACAD_REACTORS
330
E
102
}
330
E
  0
TABLESTYLE
  5
4093
102
{ACAD_XDICTIONARY
360
40EF
102
}
102
{ACAD_REACTORS
330
4092
102
}
330
4092
100
AcDbTableStyle
  3
Standard
 70
     0
 71
     0
 40
0.06
 41
0.06
280
     0
281
     0
  7
STANDARD
140
0.18
170
     2
 62
     0
 63
     7
283
     0
274
    -2
284
     1
 64
     0
275
    -2
285
     1
 65
     0
276
    -2
286
     1
 66
     0
277
    -2
287
     1
 67
     0
278
    -2
288
     1
 68
     0
279
    -2
289
     1
 69
     0
  7
STANDARD
140
0.25
170
     5
 62
     0
 63
     7
283
     0
274
    -2
284
     1
 64
     0
275
    -2
285
     1
 65
     0
276
    -2
286
     1
 66
     0
277
    -2
287
     1
 67
     0
278
    -2
288
     1
 68
     0
279
    -2
289
     1
 69
     0
  7
STANDARD
140
0.18
170
     5
 62
     0
 63
     7
283
     0
274
    -2
284
     1
 64
     0
275
    -2
285
     1
 65
     0
276
    -2
286
     1
 66
     0
277
    -2
287
     1
 67
     0
278
    -2
288
     1
 68
     0
279
    -2
289
     1
 69
     0
  0
VISUALSTYLE
  5
40B3
102
{ACAD_REACTORS
330
40AD
102
}
330
40AD
100
AcDbVisualStyle
  2
2dWireframe
 70
     4
 71
     0
 72
     2
 73
     0
 90
        0
 40
-0.6
 41
-30.0
 62
     5
 63
     7
 74
     1
 91
        4
 64
     7
 65
   257
 75
     1
175
     1
 42
1.0
 92
        0
 66
   257
 43
1.0
 76
     1
 77
     6
 78
     2
 67
     7
 79
     5
170
     0
171
     0
290
     0
174
     0
 93
        1
 44
0.0
173
     0
291
     0
 45
0.0
1001
ACAD
1000
AcDbSavedByObjectVersion
1070
     0
  0
VISUALSTYLE
  5
40B5
102
{ACAD_REACTORS
330
40AD
102
}
330
40AD
100
AcDbVisualStyle
  2
3D Hidden
 70
     6
 71
     1
 72
     2
 73
     2
 90
        0
 40
-0.6
 41
-30.0
 62
     5
 63
     7
 74
     2
 91
        2
 64
     7
 65
   257
 75
     2
175
     1
 42
40.0
 92
        0
 66
   257
 43
1.0
 76
     1
 77
     6
 78
     2
 67
     7
 79
     3
170
     0
171
     0
290
     0
174
     0
 93
        1
 44
0.0
173
     0
291
     0
 45
0.0
1001
ACAD
1000
AcDbSavedByObjectVersion
1070
     0
  0
VISUALSTYLE
  5
40B4
102
{ACAD_REACTORS
330
40AD
102
}
330
40AD
100
AcDbVisualStyle
  2
3dWireframe
 70
     5
 71
     0
 72
     2
 73
     0
 90
        0
 40
-0.6
 41
-30.0
 62
     5
 63
     7
 74
     1
 91
        4
 64
     7
 65
   257
 75
     1
175
     1
 42
1.0
 92
        0
 66
   257
 43
1.0
 76
     1
 77
     6
 78
     2
 67
     7
 79
     5
170
     0
171
     0
290
     0
174
     0
 93
        1
 44
0.0
173
     0
291
     0
 45
0.0
1001
ACAD
1000
AcDbSavedByObjectVersion
1070
     0
  0
VISUALSTYLE
  5
40B2
102
{ACAD_REACTORS
330
40AD
102
}
330
40AD
100
AcDbVisualStyle
  2
Basic
 70
     7
 71
     1
 72
     0
 73
     1
 90
        0
 40
-0.6
 41
-30.0
 62
     5
 63
     7
 74
     0
 91
        4
 64
     7
 65
   257
 75
     1
175
     1
 42
1.0
 92
        8
 66
     7
 43
1.0
 76
     1
 77
     6
 78
     2
 67
     7
 79
     5
170
     0
171
     0
290
     0
174
     0
 93
        1
 44
0.0
173
     0
291
     1
 45
0.0
1001
ACAD
1000
AcDbSavedByObjectVersion
1070
     0
  0
VISUALSTYLE
  5
40B9
102
{ACAD_REACTORS
330
40AD
102
}
330
40AD
100
AcDbVisualStyle
  2
Brighten
 70
    12
 71
     2
 72
     2
 73
     0
 90
        0
 40
-0.6
 41
-30.0
 62
     5
 63
     7
 74
     1
 91
        4
 64
     7
 65
   257
 75
     1
175
     1
 42
1.0
 92
        8
 66
     7
 43
1.0
 76
     1
 77
     6
 78
     2
 67
     7
 79
     5
170
     0
171
     0
290
     0
174
     0
 93
        1
 44
50.0
173
     0
291
     1
 45
0.0
1001
ACAD
1000
AcDbSavedByObjectVersion
1070
     0
  0
VISUALSTYLE
  5
40BD
102
{ACAD_REACTORS
330
40AD
102
}
330
40AD
100
AcDbVisualStyle
  2
ColorChange
 70
    16
 71
     2
 72
     2
 73
     3
 90
        0
 40
-0.6
 41
-30.0
 62
     5
 63
     8
 74
     1
 91
        4
 64
     7
 65
   257
 75
     1
175
     1
 42
1.0
 92
        8
 66
     8
 43
1.0
 76
     1
 77
     6
 78
     2
 67
     7
 79
     5
170
     0
171
     0
290
     0
174
     0
 93
        1
 44
0.0
173
     0
291
     1
 45
0.0
1001
ACAD
1000
AcDbSavedByObjectVersion
1070
     0
  0
VISUALSTYLE
  5
40B6
102
{ACAD_REACTORS
330
40AD
102
}
330
40AD
100
AcDbVisualStyle
  2
Conceptual
 70
     9
 71
     3
 72
     2
 73
     0
 90
        0
 40
-0.6
 41
-30.0
 62
     5
 63
     7
 74
     2
 91
        2
 64
     7
 65
   257
 75
     1
175
     1
 42
40.0
 92
        8
 66
     7
 43
1.0
 76
     1
 77
     6
 78
     2
 67
     7
 79
     3
170
     0
171
     0
290
     0
174
     0
 93
        1
 44
0.0
173
     0
291
     0
 45
0.0
1001
ACAD
1000
AcDbSavedByObjectVersion
1070
     0
  0
VISUALSTYLE
  5
40B8
102
{ACAD_REACTORS
330
40AD
102
}
330
40AD
100
AcDbVisualStyle
  2
Dim
 70
    11
 71
     2
 72
     2
 73
     0
 90
        0
 40
-0.6
 41
-30.0
 62
     5
 63
     7
 74
     1
 91
        4
 64
     7
 65
   257
 75
     1
175
     1
 42
1.0
 92
        8
 66
     7
 43
1.0
 76
     1
 77
     6
 78
     2
 67
     7
 79
     5
170
     0
171
     0
290
     0
174
     0
 93
        1
 44
-50.0
173
     0
291
     1
 45
0.0
1001
ACAD
1000
AcDbSavedByObjectVersion
1070
     0
  0
VISUALSTYLE
  5
40BC
102
{ACAD_REACTORS
330
40AD
102
}
330
40AD
100
AcDbVisualStyle
  2
Facepattern
 70
    15
 71
     2
 72
     2
 73
     0
 90
        0
 40
-0.6
 41
-30.0
 62
     5
 63
     7
 74
     1
 91
        4
 64
     7
 65
   257
 75
     1
175
     1
 42
1.0
 92
        8
 66
     7
 43
1.0
 76
     1
 77
     6
 78
     2
 67
     7
 79
     5
170
     0
171
     0
290
     0
174
     0
 93
        1
 44
0.0
173
     0
291
     1
 45
0.0
1001
ACAD
1000
AcDbSavedByObjectVersion
1070
     0
  0
VISUALSTYLE
  5
40AE
102
{ACAD_REACTORS
330
40AD
102
}
330
40AD
100
AcDbVisualStyle
  2
Flat
 70
     0
 71
     2
 72
     1
 73
     1
 90
        2
 40
-0.6
 41
30.0
 62
     5
 63
     7
 74
     0
 91
        4
 64
     7
 65
   257
 75
     1
175
     1
 42
1.0
 92
        8
 66
     7
 43
1.0
 76
     1
 77
     6
 78
     2
 67
     7
 79
     5
170
     0
171
     0
290
     0
174
     0
 93
       13
 44
0.0
173
     0
291
     1
 45
0.0
1001
ACAD
1000
AcDbSavedByObjectVersion
1070
     0
  0
VISUALSTYLE
  5
40AF
102
{ACAD_REACTORS
330
40AD
102
}
330
40AD
100
AcDbVisualStyle
  2
FlatWithEdges
 70
     1
 71
     2
 72
     1
 73
     1
 90
        2
 40
-0.6
 41
30.0
 62
     5
 63
     7
 74
     1
 91
        4
 64
     7
 65
   257
 75
     1
175
     1
 42
1.0
 92
        0
 66
   257
 43
1.0
 76
     1
 77
     6
 78
     2
 67
     7
 79
     5
170
     0
171
     0
290
     0
174
     0
 93
       13
 44
0.0
173
     0
291
     1
 45
0.0
1001
ACAD
1000
AcDbSavedByObjectVersion
1070
     0
  0
VISUALSTYLE
  5
40B0
102
{ACAD_REACTORS
330
40AD
102
}
330
40AD
100
AcDbVisualStyle
  2
Gouraud
 70
     2
 71
     2
 72
     2
 73
     1
 90
        2
 40
-0.6
 41
30.0
 62
     5
 63
     7
 74
     0
 91
        4
 64
     7
 65
   257
 75
     1
175
     1
 42
1.0
 92
        0
 66
     7
 43
1.0
 76
     1
 77
     6
 78
     2
 67
     7
 79
     5
170
     0
171
     0
290
     0
174
     0
 93
       13
 44
0.0
173
     0
291
     1
 45
0.0
1001
ACAD
1000
AcDbSavedByObjectVersion
1070
     0
  0
VISUALSTYLE
  5
40B1
102
{ACAD_REACTORS
330
40AD
102
}
330
40AD
100
AcDbVisualStyle
  2
GouraudWithEdges
 70
     3
 71
     2
 72
     2
 73
     1
 90
        2
 40
-0.6
 41
30.0
 62
     5
 63
     7
 74
     1
 91
        4
 64
     7
 65
   257
 75
     1
175
     1
 42
1.0
 92
        0
 66
   257
 43
1.0
 76
     1
 77
     6
 78
     2
 67
     7
 79
     5
170
     0
171
     0
290
     0
174
     0
 93
       13
 44
0.0
173
     0
291
     1
 45
0.0
1001
ACAD
1000
AcDbSavedByObjectVersion
1070
     0
  0
VISUALSTYLE
  5
40BB
102
{ACAD_REACTORS
330
40AD
102
}
330
40AD
100
AcDbVisualStyle
  2
Linepattern
 70
    14
 71
     2
 72
     2
 73
     0
 90
        0
 40
-0.6
 41
-30.0
 62
     5
 63
     7
 74
     1
 91
        4
 64
     7
 65
   257
 75
     7
175
     7
 42
1.0
 92
        8
 66
     7
 43
1.0
 76
     1
 77
     6
 78
     2
 67
     7
 79
     5
170
     0
171
     0
290
     0
174
     0
 93
        1
 44
0.0
173
     0
291
     1
 45
0.0
1001
ACAD
1000
AcDbSavedByObjectVersion
1070
     0
  0
VISUALSTYLE
  5
40B7
102
{ACAD_REACTORS
330
40AD
102
}
330
40AD
100
AcDbVisualStyle
  2
Realistic
 70
     8
 71
     2
 72
     2
 73
     0
 90
        0
 40
-0.6
 41
-30.0
 62
     5
 63
     7
 74
     1
 91
        0
 64
     7
 65
   257
 75
     1
175
     1
 42
1.0
 92
        8
 66
     8
 43
1.0
 76
     1
 77
     6
 78
     2
 67
     7
 79
     5
170
     0
171
     0
290
     0
174
     0
 93
       13
 44
0.0
173
     0
291
     0
 45
0.0
1001
ACAD
1000
AcDbSavedByObjectVersion
1070
     0
  0
VISUALSTYLE
  5
40BA
102
{ACAD_REACTORS
330
40AD
102
}
330
40AD
100
AcDbVisualStyle
  2
Thicken
 70
    13
 71
     2
 72
     2
 73
     0
 90
        0
 40
-0.6
 41
-30.0
 62
     5
 63
     7
 74
     1
 91
        4
 64
     7
 65
   257
 75
     1
175
     1
 42
1.0
 92
       12
 66
     7
 43
1.0
 76
     1
 77
     6
 78
     2
 67
     7
 79
     5
170
     0
171
     0
290
     0
174
     0
 93
        1
 44
0.0
173
     0
291
     1
 45
0.0
1001
ACAD
1000
AcDbSavedByObjectVersion
1070
     0
  0
DICTIONARYVAR
  5
40A8
102
{ACAD_REACTORS
330
169
102
}
330
169
100
DictionaryVariables
280
     0
  1
STANDARD
  0
DICTIONARYVAR
  5
16A
102
{ACAD_REACTORS
330
169
102
}
330
169
100
DictionaryVariables
280
     0
  1
1
  0
DICTIONARYVAR
  5
40E9
102
{ACAD_REACTORS
330
169
102
}
330
169
100
DictionaryVariables
280
     0
  1
0
  0
DICTIONARYVAR
  5
40E8
102
{ACAD_REACTORS
330
169
102
}
330
169
100
DictionaryVariables
280
     0
  1
127
  0
XRECORD
  5
177
102
{ACAD_REACTORS
330
176
102
}
330
176
100
AcDbXrecord
280
     1
 91
      476
330
17B
 90
        8
 62
     7
370
    -3
331
15
  1
Color_7
330
17A
 90
        8
 62
     7
370
    -3
331
15
  1
Color_7
330
179
 90
        8
 62
     7
370
    -3
331
15
  1
Color_7
330
178
 90
        8
 62
     7
370
    -3
331
15
  1
Color_7
330
128
 90
        0
 62
     7
370
    -3
331
15
  1
Color_7
330
10
 90
        8
 62
     7
370
    -3
331
15
  1
Color_7
  0
DICTIONARY
  5
40ED
330
21
100
AcDbDictionary
280
     1
281
     1
  3
ACAD_XREC_ROUNDTRIP
360
40EE
  0
DICTIONARY
  5
40EB
330
1D
100
AcDbDictionary
280
     1
281
     1
  3
ACAD_XREC_ROUNDTRIP
360
40EC
  0
DICTIONARY
  5
40F3
330
40AB
100
AcDbDictionary
280
     1
281
     1
  3
ACAD_XREC_ROUNDTRIP
360
40F4
  0
DICTIONARY
  5
40F1
330
40AA
100
AcDbDictionary
280
     1
281
     1
  3
ACAD_XREC_ROUNDTRIP
360
40F2
  0
DICTIONARY
  5
40F5
330
40AC
100
AcDbDictionary
280
     1
281
     1
  3
ACAD_XREC_ROUNDTRIP
360
40F6
  0
DICTIONARY
  5
40EF
330
4093
100
AcDbDictionary
280
     1
281
     1
  3
ACAD_XREC_ROUNDTRIP
360
40F0
  0
XRECORD
  5
40EE
102
{ACAD_REACTORS
330
40ED
102
}
330
40ED
100
AcDbXrecord
280
     1
102
SHADEPLOT
 70
     0
102
SHADEPLOTRESLEVEL
 70
     2
102
SHADEPLOTCUSTOMDPI
 70
   300
  0
XRECORD
  5
40EC
102
{ACAD_REACTORS
330
40EB
102
}
330
40EB
100
AcDbXrecord
280
     1
102
SHADEPLOT
 70
     0
102
SHADEPLOTRESLEVEL
 70
     2
102
SHADEPLOTCUSTOMDPI
 70
   300
  0
XRECORD
  5
40F4
102
{ACAD_REACTORS
330
40F3
102
}
330
40F3
100
AcDbXrecord
280
     1
102
MATERIAL
148
0.0
149
0.0
149
0.0
 93
        0
 94
       63
282
     0
 72
     1
 77
     1
171
     1
175
     1
179
     1
273
     0
  0
XRECORD
  5
40F2
102
{ACAD_REACTORS
330
40F1
102
}
330
40F1
100
AcDbXrecord
280
     1
102
MATERIAL
148
0.0
149
0.0
149
0.0
 93
        0
 94
       63
282
     0
 72
     1
 77
     1
171
     1
175
     1
179
     1
273
     0
  0
XRECORD
  5
40F6
102
{ACAD_REACTORS
330
40F5
102
}
330
40F5
100
AcDbXrecord
280
     1
102
MATERIAL
148
0.0
149
0.0
149
0.0
 93
        0
 94
       63
282
     0
 72
     1
 77
     1
171
     1
175
     1
179
     1
273
     0
  0
XRECORD
  5
40F0
102
{ACAD_REACTORS
330
40EF
102
}
330
40EF
100
AcDbXrecord
280
     1
102
ACAD_ROUNDTRIP_PRE2007_TABLESTYLE
 90
        4
 91
        0
  1

 92
        4
 93
        0
  2

 94
        4
 95
        0
  3

  0
ENDSEC
  0
EOF
