  0
SECTION
  2
HEADER
  9
$ACADVER
  1
AC1015
  9
$ACADMAINTVER
 70
    20
  9
$DWGCODEPAGE
  3
ANSI_932
  9
$INSBASE
 10
0.0
 20
0.0
 30
0.0
  9
$EXTMIN
 10
1229.47795944809
 20
437.2507488871747
 30
0.0
  9
$EXTMAX
 10
1485.320863114757
 20
704.2507488871747
 30
0.0
  9
$LIMMIN
 10
0.0
 20
0.0
  9
$LIMMAX
 10
420.0
 20
297.0
  9
$ORTHOMODE
 70
     0
  9
$REGENMODE
 70
     1
  9
$FILLMODE
 70
     1
  9
$QTEXTMODE
 70
     0
  9
$MIRRTEXT
 70
     1
  9
$LTSCALE
 40
1.0
  9
$ATTMODE
 70
     1
  9
$TEXTSIZE
 40
5.0
  9
$TRACEWID
 40
0.05
  9
$TEXTSTYLE
  7
ACAD
  9
$CLAYER
  8
0
  9
$CELTYPE
  6
CONTINUOUS
  9
$CECOLOR
 62
   256
  9
$CELTSCALE
 40
1.0
  9
$DISPSILH
 70
     0
  9
$DIMSCALE
 40
1.0
  9
$DIMASZ
 40
1.0
  9
$DIMEXO
 40
0.0
  9
$DIMDLI
 40
0.38
  9
$DIMRND
 40
0.0
  9
$DIMDLE
 40
0.0
  9
$DIMEXE
 40
0.0
  9
$DIMTP
 40
0.0
  9
$DIMTM
 40
0.0
  9
$DIMTXT
 40
3.0
  9
$DIMCEN
 40
0.09
  9
$DIMTSZ
 40
0.0
  9
$DIMTOL
 70
     0
  9
$DIMLIM
 70
     0
  9
$DIMTIH
 70
     0
  9
$DIMTOH
 70
     1
  9
$DIMSE1
 70
     0
  9
$DIMSE2
 70
     0
  9
$DIMTAD
 70
     1
  9
$DIMZIN
 70
     0
  9
$DIMBLK
  1
Dot
  9
$DIMASO
 70
     1
  9
$DIMSHO
 70
     1
  9
$DIMPOST
  1

  9
$DIMAPOST
  1

  9
$DIMALT
 70
     0
  9
$DIMALTD
 70
     2
  9
$DIMALTF
 40
25.4
  9
$DIMLFAC
 40
1.0
  9
$DIMTOFL
 70
     0
  9
$DIMTVP
 40
0.0
  9
$DIMTIX
 70
     1
  9
$DIMSOXD
 70
     0
  9
$DIMSAH
 70
     0
  9
$DIMBLK1
  1

  9
$DIMBLK2
  1

  9
$DIMSTYLE
  2
AutoCAD
  9
$DIMCLRD
 70
     4
  9
$DIMCLRE
 70
     4
  9
$DIMCLRT
 70
     3
  9
$DIMTFAC
 40
1.0
  9
$DIMGAP
 40
1.0
  9
$DIMJUST
 70
     0
  9
$DIMSD1
 70
     0
  9
$DIMSD2
 70
     0
  9
$DIMTOLJ
 70
     1
  9
$DIMTZIN
 70
     0
  9
$DIMALTZ
 70
     0
  9
$DIMALTTZ
 70
     0
  9
$DIMUPT
 70
     0
  9
$DIMDEC
 70
     0
  9
$DIMTDEC
 70
     0
  9
$DIMALTU
 70
     2
  9
$DIMALTTD
 70
     2
  9
$DIMTXSTY
  7
ACAD
  9
$DIMAUNIT
 70
     0
  9
$DIMADEC
 70
     0
  9
$DIMALTRND
 40
0.0
  9
$DIMAZIN
 70
     0
  9
$DIMDSEP
 70
    46
  9
$DIMATFIT
 70
     0
  9
$DIMFRAC
 70
     0
  9
$DIMLDRBLK
  1
None
  9
$DIMLUNIT
 70
     2
  9
$DIMLWD
 70
    -2
  9
$DIMLWE
 70
    -2
  9
$DIMTMOVE
 70
     0
  9
$LUNITS
 70
     2
  9
$LUPREC
 70
     4
  9
$SKETCHINC
 40
0.1
  9
$FILLETRAD
 40
0.0
  9
$AUNITS
 70
     0
  9
$AUPREC
 70
     0
  9
$MENU
  1
.
  9
$ELEVATION
 40
0.0
  9
$PELEVATION
 40
0.0
  9
$THICKNESS
 40
0.0
  9
$LIMCHECK
 70
     0
  9
$CHAMFERA
 40
0.0
  9
$CHAMFERB
 40
0.0
  9
$CHAMFERC
 40
0.0
  9
$CHAMFERD
 40
0.0
  9
$SKPOLY
 70
     0
  9
$TDCREATE
 40
2454316.693457674
  9
$TDUCREATE
 40
2454316.318457674
  9
$TDUPDATE
 40
2454729.771699942
  9
$TDUUPDATE
 40
2454729.396699942
  9
$TDINDWG
 40
0.2353999769
  9
$TDUSRTIMER
 40
0.2353999769
  9
$USRTIMER
 70
     1
  9
$ANGBASE
 50
0.0
  9
$ANGDIR
 70
     0
  9
$PDMODE
 70
     0
  9
$PDSIZE
 40
0.0
  9
$PLINEWID
 40
0.0
  9
$SPLFRAME
 70
     0
  9
$SPLINETYPE
 70
     6
  9
$SPLINESEGS
 70
     8
  9
$HANDSEED
  5
67EB
  9
$SURFTAB1
 70
     6
  9
$SURFTAB2
 70
     6
  9
$SURFTYPE
 70
     6
  9
$SURFU
 70
     6
  9
$SURFV
 70
     6
  9
$UCSBASE
  2

  9
$UCSNAME
  2

  9
$UCSORG
 10
0.0
 20
0.0
 30
0.0
  9
$UCSXDIR
 10
1.0
 20
0.0
 30
0.0
  9
$UCSYDIR
 10
0.0
 20
1.0
 30
0.0
  9
$UCSORTHOREF
  2

  9
$UCSORTHOVIEW
 70
     0
  9
$UCSORGTOP
 10
0.0
 20
0.0
 30
0.0
  9
$UCSORGBOTTOM
 10
0.0
 20
0.0
 30
0.0
  9
$UCSORGLEFT
 10
0.0
 20
0.0
 30
0.0
  9
$UCSORGRIGHT
 10
0.0
 20
0.0
 30
0.0
  9
$UCSORGFRONT
 10
0.0
 20
0.0
 30
0.0
  9
$UCSORGBACK
 10
0.0
 20
0.0
 30
0.0
  9
$PUCSBASE
  2

  9
$PUCSNAME
  2

  9
$PUCSORG
 10
0.0
 20
0.0
 30
0.0
  9
$PUCSXDIR
 10
1.0
 20
0.0
 30
0.0
  9
$PUCSYDIR
 10
0.0
 20
1.0
 30
0.0
  9
$PUCSORTHOREF
  2

  9
$PUCSORTHOVIEW
 70
     0
  9
$PUCSORGTOP
 10
0.0
 20
0.0
 30
0.0
  9
$PUCSORGBOTTOM
 10
0.0
 20
0.0
 30
0.0
  9
$PUCSORGLEFT
 10
0.0
 20
0.0
 30
0.0
  9
$PUCSORGRIGHT
 10
0.0
 20
0.0
 30
0.0
  9
$PUCSORGFRONT
 10
0.0
 20
0.0
 30
0.0
  9
$PUCSORGBACK
 10
0.0
 20
0.0
 30
0.0
  9
$USERI1
 70
     0
  9
$USERI2
 70
     0
  9
$USERI3
 70
     0
  9
$USERI4
 70
     0
  9
$USERI5
 70
     0
  9
$USERR1
 40
0.0
  9
$USERR2
 40
0.0
  9
$USERR3
 40
0.0
  9
$USERR4
 40
0.0
  9
$USERR5
 40
0.0
  9
$WORLDVIEW
 70
     1
  9
$SHADEDGE
 70
     3
  9
$SHADEDIF
 70
    70
  9
$TILEMODE
 70
     1
  9
$MAXACTVP
 70
    48
  9
$PINSBASE
 10
0.0
 20
0.0
 30
0.0
  9
$PLIMCHECK
 70
     0
  9
$PEXTMIN
 10
1.000000000000000E+20
 20
1.000000000000000E+20
 30
1.000000000000000E+20
  9
$PEXTMAX
 10
-1.000000000000000E+20
 20
-1.000000000000000E+20
 30
-1.000000000000000E+20
  9
$PLIMMIN
 10
0.0
 20
0.0
  9
$PLIMMAX
 10
12.0
 20
9.0
  9
$UNITMODE
 70
     0
  9
$VISRETAIN
 70
     0
  9
$PLINEGEN
 70
     0
  9
$PSLTSCALE
 70
     1
  9
$TREEDEPTH
 70
  3020
  9
$CMLSTYLE
  2
Standard
  9
$CMLJUST
 70
     0
  9
$CMLSCALE
 40
1.0
  9
$PROXYGRAPHICS
 70
     1
  9
$MEASUREMENT
 70
     0
  9
$CELWEIGHT
370
    -1
  9
$ENDCAPS
280
     0
  9
$JOINSTYLE
280
     0
  9
$LWDISPLAY
290
     0
  9
$INSUNITS
 70
     0
  9
$HYPERLINKBASE
  1

  9
$STYLESHEET
  1

  9
$XEDIT
290
     1
  9
$CEPSNTYPE
380
     0
  9
$PSTYLEMODE
290
     1
  9
$FINGERPRINTGUID
  2
{CC7D6DEE-A9F1-4F3E-AC95-C84B62CCA3FD}
  9
$VERSIONGUID
  2
{D0C0E9B5-5A10-4CDF-BE54-06B38BE7A557}
  9
$EXTNAMES
290
     1
  9
$PSVPSCALE
 40
0.0
  9
$OLESTARTUP
290
     0
  0
ENDSEC
  0
SECTION
  2
CLASSES
  0
CLASS
  1
ACDBDICTIONARYWDFLT
  2
AcDbDictionaryWithDefault
  3
ObjectDBX Classes
 90
        0
280
     0
281
     0
  0
CLASS
  1
ACDBPLACEHOLDER
  2
AcDbPlaceHolder
  3
ObjectDBX Classes
 90
        0
280
     0
281
     0
  0
CLASS
  1
LAYOUT
  2
AcDbLayout
  3
ObjectDBX Classes
 90
        0
280
     0
281
     0
  0
CLASS
  1
DICTIONARYVAR
  2
AcDbDictionaryVar
  3
ObjectDBX Classes
 90
        0
280
     0
281
     0
  0
CLASS
  1
MATERIAL
  2
AcDbMaterial
  3
ObjectDBX Classes
 90
     1153
280
     0
281
     0
  0
CLASS
  1
VISUALSTYLE
  2
AcDbVisualStyle
  3
ObjectDBX Classes
 90
     4095
280
     0
281
     0
  0
CLASS
  1
TABLESTYLE
  2
AcDbTableStyle
  3
ObjectDBX Classes
 90
     4095
280
     0
281
     0
  0
ENDSEC
  0
SECTION
  2
TABLES
  0
TABLE
  2
VPORT
  5
8
102
{ACAD_XDICTIONARY
360
67BD
102
}
330
0
100
AcDbSymbolTable
 70
     1
  0
VPORT
  5
64DD
330
8
100
AcDbSymbolTableRecord
100
AcDbViewportTableRecord
  2
*Active
 70
     0
 10
0.0
 20
0.0
 11
1.0
 21
1.0
 12
1438.124262810692
 22
586.9789695377323
 13
0.0
 23
0.0
 14
1.0
 24
1.0
 15
0.0
 25
0.0
 16
0.0
 26
0.0
 36
1.0
 17
0.0
 27
0.0
 37
0.0
 40
508.7857953746691
 41
1.571614583333333
 42
50.0
 43
0.0
 44
0.0
 50
0.0
 51
0.0
 71
     0
 72
   100
 73
     1
 74
     1
 75
     0
 76
     0
 77
     0
 78
     0
281
     0
 65
     1
110
0.0
120
0.0
130
0.0
111
1.0
121
0.0
131
0.0
112
0.0
122
1.0
132
0.0
 79
     0
146
0.0
  0
ENDTAB
  0
TABLE
  2
LTYPE
  5
5
330
0
100
AcDbSymbolTable
 70
    50
  0
LTYPE
  5
13
330
5
100
AcDbSymbolTableRecord
100
AcDbLinetypeTableRecord
  2
ByBlock
 70
     0
  3

 72
    65
 73
     0
 40
0.0
  0
LTYPE
  5
14
330
5
100
AcDbSymbolTableRecord
100
AcDbLinetypeTableRecord
  2
ByLayer
 70
     0
  3

 72
    65
 73
     0
 40
0.0
  0
LTYPE
  5
15
330
5
100
AcDbSymbolTableRecord
100
AcDbLinetypeTableRecord
  2
CONTINUOUS
 70
     0
  3
実線
 72
    65
 73
     0
 40
0.0
  0
LTYPE
  5
22
330
5
100
AcDbSymbolTableRecord
100
AcDbLinetypeTableRecord
  2
DASHED1
 70
     0
  3
--  --  --  --  --  --  --  --  
 72
    65
 73
     2
 40
2.5
 49
1.25
 74
     0
 49
-1.25
 74
     0
  0
LTYPE
  5
23
330
5
100
AcDbSymbolTableRecord
100
AcDbLinetypeTableRecord
  2
DASHED2
 70
     0
  3
----    ----    ----    ----    
 72
    65
 73
     2
 40
5.0
 49
2.5
 74
     0
 49
-2.5
 74
     0
  0
LTYPE
  5
24
330
5
100
AcDbSymbolTableRecord
100
AcDbLinetypeTableRecord
  2
DASHED3
 70
     0
  3
------  ------  ------  ------  
 72
    65
 73
     2
 40
5.0
 49
3.75
 74
     0
 49
-1.25
 74
     0
  0
LTYPE
  5
25
330
5
100
AcDbSymbolTableRecord
100
AcDbLinetypeTableRecord
  2
CENTER1
 70
     0
  3
----- - ----- - ----- - ----- - 
 72
    65
 73
     4
 40
10.0
 49
6.25
 74
     0
 49
-1.25
 74
     0
 49
1.25
 74
     0
 49
-1.25
 74
     0
  0
LTYPE
  5
26
330
5
100
AcDbSymbolTableRecord
100
AcDbLinetypeTableRecord
  2
CENTER2
 70
     0
  3
----------  --  ----------  --  
 72
    65
 73
     4
 40
20.0
 49
12.5
 74
     0
 49
-2.5
 74
     0
 49
2.5
 74
     0
 49
-2.5
 74
     0
  0
LTYPE
  5
27
330
5
100
AcDbSymbolTableRecord
100
AcDbLinetypeTableRecord
  2
PHANTOM1
 70
     0
  3
--- - - --- - - --- - - --- - - 
 72
    65
 73
     6
 40
10.0
 49
3.25
 74
     0
 49
-1.25
 74
     0
 49
1.25
 74
     0
 49
-1.25
 74
     0
 49
1.25
 74
     0
 49
-1.25
 74
     0
  0
LTYPE
  5
28
330
5
100
AcDbSymbolTableRecord
100
AcDbLinetypeTableRecord
  2
PHANTOM2
 70
     0
  3
--------  -  -  --------  -  -  
 72
    65
 73
     6
 40
20.0
 49
10.0
 74
     0
 49
-2.5
 74
     0
 49
1.25
 74
     0
 49
-2.5
 74
     0
 49
1.25
 74
     0
 49
-2.5
 74
     0
  0
LTYPE
  5
29
330
5
100
AcDbSymbolTableRecord
100
AcDbLinetypeTableRecord
  2
DOT
 70
     0
  3
-   -   -   -   -   -   -   -   
 72
    65
 73
     2
 40
2.5
 49
0.625
 74
     0
 49
-1.875
 74
     0
  0
LTYPE
  5
2A
330
5
100
AcDbSymbolTableRecord
100
AcDbLinetypeTableRecord
  2
DUMMY
 70
     0
  3
ダミー
 72
    65
 73
     0
 40
0.0
  0
LTYPE
  5
2B
330
5
100
AcDbSymbolTableRecord
100
AcDbLinetypeTableRecord
  2
RAND1
 70
     0
  3
ランダム線1
 72
    65
 73
     4
 40
10.0
 49
1.0
 74
     0
 49
-2.0
 74
     0
 49
3.0
 74
     0
 49
-4.0
 74
     0
  0
LTYPE
  5
2C
330
5
100
AcDbSymbolTableRecord
100
AcDbLinetypeTableRecord
  2
RAND2
 70
     0
  3
ランダム線2
 72
    65
 73
     4
 40
14.0
 49
2.0
 74
     0
 49
-3.0
 74
     0
 49
4.0
 74
     0
 49
-5.0
 74
     0
  0
LTYPE
  5
2D
330
5
100
AcDbSymbolTableRecord
100
AcDbLinetypeTableRecord
  2
RAND3
 70
     0
  3
ランダム線3
 72
    65
 73
     4
 40
18.0
 49
3.0
 74
     0
 49
-4.0
 74
     0
 49
5.0
 74
     0
 49
-6.0
 74
     0
  0
LTYPE
  5
2E
330
5
100
AcDbSymbolTableRecord
100
AcDbLinetypeTableRecord
  2
RAND4
 70
     0
  3
ランダム線4
 72
    65
 73
     4
 40
22.0
 49
4.0
 74
     0
 49
-5.0
 74
     0
 49
6.0
 74
     0
 49
-7.0
 74
     0
  0
LTYPE
  5
2F
330
5
100
AcDbSymbolTableRecord
100
AcDbLinetypeTableRecord
  2
RAND5
 70
     0
  3
ランダム線5
 72
    65
 73
     4
 40
26.0
 49
5.0
 74
     0
 49
-6.0
 74
     0
 49
7.0
 74
     0
 49
-8.0
 74
     0
  0
LTYPE
  5
30
330
5
100
AcDbSymbolTableRecord
100
AcDbLinetypeTableRecord
  2
LONG1
 70
     0
  3
----------  --  ----------  --  
 72
    65
 73
     4
 40
40.0
 49
32.5
 74
     0
 49
-2.5
 74
     0
 49
2.5
 74
     0
 49
-2.5
 74
     0
  0
LTYPE
  5
31
330
5
100
AcDbSymbolTableRecord
100
AcDbLinetypeTableRecord
  2
LONG2
 70
     0
  3
--------  -  -  --------  -  -  
 72
    65
 73
     6
 40
40.0
 49
30.0
 74
     0
 49
-2.5
 74
     0
 49
1.25
 74
     0
 49
-2.5
 74
     0
 49
1.25
 74
     0
 49
-2.5
 74
     0
  0
LTYPE
  5
32
330
5
100
AcDbSymbolTableRecord
100
AcDbLinetypeTableRecord
  2
LONG3
 70
     0
  3
+++++++++++++++..+++++++++++++++
 72
    65
 73
     2
 40
40.0
 49
37.5
 74
     0
 49
-2.5
 74
     0
  0
LTYPE
  5
33
330
5
100
AcDbSymbolTableRecord
100
AcDbLinetypeTableRecord
  2
LONG4
 70
     0
  3
+++++++++++++++..+++++++++++++++
 72
    65
 73
     2
 40
80.0
 49
75.0
 74
     0
 49
-5.0
 74
     0
  0
LTYPE
  5
34
330
5
100
AcDbSymbolTableRecord
100
AcDbLinetypeTableRecord
  2
LONG5
 70
     0
  3
----------  --  ----------  --  
 72
    65
 73
     4
 40
60.0
 49
37.5
 74
     0
 49
-7.5
 74
     0
 49
7.5
 74
     0
 49
-7.5
 74
     0
  0
LTYPE
  5
35
330
5
100
AcDbSymbolTableRecord
100
AcDbLinetypeTableRecord
  2
DASHED
 70
     0
  3
-------   -------------   ------
 72
    65
 73
     2
 40
7.5
 49
6.0
 74
     0
 49
-1.5
 74
     0
  0
LTYPE
  5
36
330
5
100
AcDbSymbolTableRecord
100
AcDbLinetypeTableRecord
  2
DASHED_SPACED
 70
     0
  3
----        --------        ----
 72
    65
 73
     2
 40
12.0
 49
6.0
 74
     0
 49
-6.0
 74
     0
  0
LTYPE
  5
37
330
5
100
AcDbSymbolTableRecord
100
AcDbLinetypeTableRecord
  2
LONG_DASHED_DOTTED
 70
     0
  3
------------- --- --------------
 72
    65
 73
     4
 40
15.25
 49
12.0
 74
     0
 49
-1.5
 74
     0
 49
0.25
 74
     0
 49
-1.5
 74
     0
  0
LTYPE
  5
38
330
5
100
AcDbSymbolTableRecord
100
AcDbLinetypeTableRecord
  2
LONG_DASHED_DOUBLE-DOTTED
 70
     0
  3
----------- --- --- ------------
 72
    65
 73
     6
 40
17.0
 49
12.0
 74
     0
 49
-1.5
 74
     0
 49
0.25
 74
     0
 49
-1.5
 74
     0
 49
0.25
 74
     0
 49
-1.5
 74
     0
  0
LTYPE
  5
39
330
5
100
AcDbSymbolTableRecord
100
AcDbLinetypeTableRecord
  2
LONG_DASHED_TRIPLICATE-DOTTED
 70
     0
  3
--------- --- --- --- ----------
 72
    65
 73
     8
 40
18.75
 49
12.0
 74
     0
 49
-1.5
 74
     0
 49
0.25
 74
     0
 49
-1.5
 74
     0
 49
0.25
 74
     0
 49
-1.5
 74
     0
 49
0.25
 74
     0
 49
-1.5
 74
     0
  0
LTYPE
  5
3A
330
5
100
AcDbSymbolTableRecord
100
AcDbLinetypeTableRecord
  2
DOTTED
 70
     0
  3
   -       -       -       -    
 72
    65
 73
     2
 40
1.75
 49
0.25
 74
     0
 49
-1.5
 74
     0
  0
LTYPE
  5
3B
330
5
100
AcDbSymbolTableRecord
100
AcDbLinetypeTableRecord
  2
CHAIN
 70
     0
  3
-------------- -- --------------
 72
    65
 73
     4
 40
18.5
 49
12.0
 74
     0
 49
-1.5
 74
     0
 49
3.5
 74
     0
 49
-1.5
 74
     0
  0
LTYPE
  5
3C
330
5
100
AcDbSymbolTableRecord
100
AcDbLinetypeTableRecord
  2
CHAIN_DOUBLE_DASH
 70
     0
  3
------------ -- -- -------------
 72
    65
 73
     6
 40
23.5
 49
12.0
 74
     0
 49
-1.5
 74
     0
 49
3.5
 74
     0
 49
-1.5
 74
     0
 49
3.5
 74
     0
 49
-1.5
 74
     0
  0
LTYPE
  5
3D
330
5
100
AcDbSymbolTableRecord
100
AcDbLinetypeTableRecord
  2
DASHED_DOTTED
 70
     0
  3
-----------     -     ----------
 72
    65
 73
     4
 40
9.25
 49
6.0
 74
     0
 49
-1.5
 74
     0
 49
0.25
 74
     0
 49
-1.5
 74
     0
  0
LTYPE
  5
3E
330
5
100
AcDbSymbolTableRecord
100
AcDbLinetypeTableRecord
  2
DOUBLE-DASHED_DOTTED
 70
     0
  3
------   -----------   -   -----
 72
    65
 73
     6
 40
16.75
 49
6.0
 74
     0
 49
-1.5
 74
     0
 49
6.0
 74
     0
 49
-1.5
 74
     0
 49
0.25
 74
     0
 49
-1.5
 74
     0
  0
LTYPE
  5
3F
330
5
100
AcDbSymbolTableRecord
100
AcDbLinetypeTableRecord
  2
DASHED_DOUBLE-DOTTED
 70
     0
  3
---------    -    -    ---------
 72
    65
 73
     6
 40
11.0
 49
6.0
 74
     0
 49
-1.5
 74
     0
 49
0.25
 74
     0
 49
-1.5
 74
     0
 49
0.25
 74
     0
 49
-1.5
 74
     0
  0
LTYPE
  5
40
330
5
100
AcDbSymbolTableRecord
100
AcDbLinetypeTableRecord
  2
DOUBLE-DASHED_DOUBLE-DOTTED
 70
     0
  3
-----   ---------   -   -   ----
 72
    65
 73
     8
 40
18.5
 49
6.0
 74
     0
 49
-1.5
 74
     0
 49
6.0
 74
     0
 49
-1.5
 74
     0
 49
0.25
 74
     0
 49
-1.5
 74
     0
 49
0.25
 74
     0
 49
-1.5
 74
     0
  0
LTYPE
  5
41
330
5
100
AcDbSymbolTableRecord
100
AcDbLinetypeTableRecord
  2
DASHED_TRIPLICATE-DOTTED
 70
     0
  3
-------    -    -    -    ------
 72
    65
 73
     8
 40
12.75
 49
6.0
 74
     0
 49
-1.5
 74
     0
 49
0.25
 74
     0
 49
-1.5
 74
     0
 49
0.25
 74
     0
 49
-1.5
 74
     0
 49
0.25
 74
     0
 49
-1.5
 74
     0
  0
LTYPE
  5
42
330
5
100
AcDbSymbolTableRecord
100
AcDbLinetypeTableRecord
  2
DOUBLE-DASHED_TRIPLICATE-DOTTED
 70
     0
  3
-----  ---------  -  -  -  -----
 72
    65
 73
    10
 40
20.25
 49
6.0
 74
     0
 49
-1.5
 74
     0
 49
6.0
 74
     0
 49
-1.5
 74
     0
 49
0.25
 74
     0
 49
-1.5
 74
     0
 49
0.25
 74
     0
 49
-1.5
 74
     0
 49
0.25
 74
     0
 49
-1.5
 74
     0
  0
LTYPE
  5
43
330
5
100
AcDbSymbolTableRecord
100
AcDbLinetypeTableRecord
  2
UNDEFINED
 70
     0
  3
--------------------------------
 72
    65
 73
     0
 40
0.0
  0
LTYPE
  5
44
330
5
100
AcDbSymbolTableRecord
100
AcDbLinetypeTableRecord
  2
PLINE2
 70
     0
  3
------     -----------     -----
 72
    65
 73
     2
 40
3.0
 49
2.1
 74
     0
 49
-0.9
 74
     0
  0
LTYPE
  5
45
330
5
100
AcDbSymbolTableRecord
100
AcDbLinetypeTableRecord
  2
PLINE3
 70
     0
  3
------------   ---   -----------
 72
    65
 73
     4
 40
10.0
 49
7.0
 74
     0
 49
-1.0
 74
     0
 49
1.0
 74
     0
 49
-1.0
 74
     0
  0
LTYPE
  5
46
330
5
100
AcDbSymbolTableRecord
100
AcDbLinetypeTableRecord
  2
PLINE4
 70
     0
  3
---------   ---   ---   --------
 72
    65
 73
     6
 40
10.0
 49
5.0
 74
     0
 49
-1.0
 74
     0
 49
1.0
 74
     0
 49
-1.0
 74
     0
 49
1.0
 74
     0
 49
-1.0
 74
     0
  0
LTYPE
  5
47
330
5
100
AcDbSymbolTableRecord
100
AcDbLinetypeTableRecord
  2
PLINE5
 70
     0
  3
------     -----------     -----
 72
    65
 73
     2
 40
5.0
 49
3.5
 74
     0
 49
-1.5
 74
     0
  0
LTYPE
  5
48
330
5
100
AcDbSymbolTableRecord
100
AcDbLinetypeTableRecord
  2
PLINE6
 70
     0
  3
------------   ---   -----------
 72
    65
 73
     4
 40
15.0
 49
10.5
 74
     0
 49
-1.5
 74
     0
 49
1.5
 74
     0
 49
-1.5
 74
     0
  0
LTYPE
  5
49
330
5
100
AcDbSymbolTableRecord
100
AcDbLinetypeTableRecord
  2
PLINE7
 70
     0
  3
---------   ---   ---   --------
 72
    65
 73
     6
 40
15.0
 49
7.5
 74
     0
 49
-1.5
 74
     0
 49
1.5
 74
     0
 49
-1.5
 74
     0
 49
1.5
 74
     0
 49
-1.5
 74
     0
  0
LTYPE
  5
4A
330
5
100
AcDbSymbolTableRecord
100
AcDbLinetypeTableRecord
  2
PLINE8
 70
     0
  3
------     -----------     -----
 72
    65
 73
     2
 40
7.0
 49
4.9
 74
     0
 49
-2.1
 74
     0
  0
LTYPE
  5
4B
330
5
100
AcDbSymbolTableRecord
100
AcDbLinetypeTableRecord
  2
PLINE9
 70
     0
  3
------------   ---   -----------
 72
    65
 73
     4
 40
20.0
 49
14.0
 74
     0
 49
-2.0
 74
     0
 49
2.0
 74
     0
 49
-2.0
 74
     0
  0
LTYPE
  5
4C
330
5
100
AcDbSymbolTableRecord
100
AcDbLinetypeTableRecord
  2
PLINE10
 70
     0
  3
---------   ---   ---   --------
 72
    65
 73
     6
 40
20.0
 49
10.0
 74
     0
 49
-2.0
 74
     0
 49
2.0
 74
     0
 49
-2.0
 74
     0
 49
2.0
 74
     0
 49
-2.0
 74
     0
  0
LTYPE
  5
4D
330
5
100
AcDbSymbolTableRecord
100
AcDbLinetypeTableRecord
  2
PLINE11
 70
     0
  3
------     -----------     -----
 72
    65
 73
     2
 40
9.0
 49
6.299999999999999
 74
     0
 49
-2.7
 74
     0
  0
LTYPE
  5
4E
330
5
100
AcDbSymbolTableRecord
100
AcDbLinetypeTableRecord
  2
PLINE12
 70
     0
  3
------------   ---   -----------
 72
    65
 73
     4
 40
25.0
 49
17.5
 74
     0
 49
-2.5
 74
     0
 49
2.5
 74
     0
 49
-2.5
 74
     0
  0
LTYPE
  5
4F
330
5
100
AcDbSymbolTableRecord
100
AcDbLinetypeTableRecord
  2
PLINE13
 70
     0
  3
---------   ---   ---   --------
 72
    65
 73
     6
 40
25.0
 49
12.5
 74
     0
 49
-2.5
 74
     0
 49
2.5
 74
     0
 49
-2.5
 74
     0
 49
2.5
 74
     0
 49
-2.5
 74
     0
  0
LTYPE
  5
50
330
5
100
AcDbSymbolTableRecord
100
AcDbLinetypeTableRecord
  2
PLINE14
 70
     0
  3
------     -----------     -----
 72
    65
 73
     2
 40
11.0
 49
7.7
 74
     0
 49
-3.299999999999999
 74
     0
  0
LTYPE
  5
51
330
5
100
AcDbSymbolTableRecord
100
AcDbLinetypeTableRecord
  2
PLINE15
 70
     0
  3
------------   ---   -----------
 72
    65
 73
     4
 40
30.0
 49
21.0
 74
     0
 49
-3.0
 74
     0
 49
3.0
 74
     0
 49
-3.0
 74
     0
  0
LTYPE
  5
52
330
5
100
AcDbSymbolTableRecord
100
AcDbLinetypeTableRecord
  2
PLINE16
 70
     0
  3
---------   ---   ---   --------
 72
    65
 73
     6
 40
30.0
 49
15.0
 74
     0
 49
-3.0
 74
     0
 49
3.0
 74
     0
 49
-3.0
 74
     0
 49
3.0
 74
     0
 49
-3.0
 74
     0
  0
ENDTAB
  0
TABLE
  2
LAYER
  5
2
102
{ACAD_XDICTIONARY
360
175
102
}
330
0
100
AcDbSymbolTable
 70
     5
  0
LAYER
  5
10
330
2
100
AcDbSymbolTableRecord
100
AcDbLayerTableRecord
  2
0
 70
     0
 62
     7
  6
CONTINUOUS
370
    -3
390
F
  0
LAYER
  5
128
330
2
100
AcDbSymbolTableRecord
100
AcDbLayerTableRecord
  2
Defpoints
 70
     0
 62
     7
  6
CONTINUOUS
290
     0
370
    -3
390
F
  0
LAYER
  5
178
330
2
100
AcDbSymbolTableRecord
100
AcDbLayerTableRecord
  2
寸法
 70
     0
 62
     7
  6
CONTINUOUS
370
    -3
390
F
  0
LAYER
  5
179
330
2
100
AcDbSymbolTableRecord
100
AcDbLayerTableRecord
  2
躯体と製品
 70
     0
 62
     7
  6
CONTINUOUS
370
    -3
390
F
  0
LAYER
  5
4F62
330
2
100
AcDbSymbolTableRecord
100
AcDbLayerTableRecord
  2
図枠
 70
     0
 62
     7
  6
CONTINUOUS
370
    -3
390
F
  0
ENDTAB
  0
TABLE
  2
STYLE
  5
3
330
0
100
AcDbSymbolTable
 70
     5
  0
STYLE
  5
11
330
3
100
AcDbSymbolTableRecord
100
AcDbTextStyleTableRecord
  2
STANDARD
 70
     0
 40
0.0
 41
1.0
 50
0.0
 71
     0
 42
0.2
  3
txt
  4
bigfont.shx
  0
STYLE
  5
53
330
3
100
AcDbSymbolTableRecord
100
AcDbTextStyleTableRecord
  2
TATEGAKI
 70
     4
 40
0.0
 41
1.0
 50
0.0
 71
     0
 42
1.0
  3
txt
  4
bigfont.shx
  0
STYLE
  5
123
330
3
100
AcDbSymbolTableRecord
100
AcDbTextStyleTableRecord
  2
ACAD
 70
     0
 40
0.0
 41
0.8
 50
0.0
 71
     0
 42
5.0
  3
romans.shx
  4
extfont.shx
  0
STYLE
  5
3A5F
330
3
100
AcDbSymbolTableRecord
100
AcDbTextStyleTableRecord
  2
VERTXT
 70
     4
 40
0.0
 41
0.8582679999999999
 50
0.0
 71
     0
 42
3.5
  3
txt.shx
  4
BIGFONT
  0
STYLE
  5
50AD
330
3
100
AcDbSymbolTableRecord
100
AcDbTextStyleTableRecord
  2
STANDARD2
 70
     0
 40
0.0
 41
0.8582679999999999
 50
0.0
 71
     0
 42
3.5
  3
txt.shx
  4
EXTFONT
  0
ENDTAB
  0
TABLE
  2
VIEW
  5
6
330
0
100
AcDbSymbolTable
 70
     0
  0
ENDTAB
  0
TABLE
  2
UCS
  5
7
330
0
100
AcDbSymbolTable
 70
     0
  0
ENDTAB
  0
TABLE
  2
APPID
  5
9
330
0
100
AcDbSymbolTable
 70
     1
  0
APPID
  5
12
330
9
100
AcDbSymbolTableRecord
100
AcDbRegAppTableRecord
  2
ACAD
 70
     0
  0
ENDTAB
  0
TABLE
  2
DIMSTYLE
  5
A
330
0
100
AcDbSymbolTable
 70
     3
100
AcDbDimStyleTable
 71
     1
340
126
  0
DIMSTYLE
105
11C
330
A
100
AcDbSymbolTableRecord
100
AcDbDimStyleTableRecord
  2
Standard
 70
     0
340
11
  0
DIMSTYLE
105
126
102
{ACAD_REACTORS
330
6103
330
6110
330
611E
330
6136
330
6143
330
6151
330
615E
330
6174
330
6181
330
618E
330
619B
330
61A8
330
61B5
330
61C2
330
61CF
330
61DC
330
61E9
330
61FC
330
6209
330
6221
330
622F
330
623C
330
624A
330
6262
330
626F
330
627C
330
6289
330
629F
330
62AC
330
62B9
330
62C6
330
62D3
330
62E0
330
62EE
330
6306
330
6313
330
6329
330
633E
330
6354
330
636C
330
6379
330
6387
330
639C
330
63B2
330
63C8
330
63DF
330
63ED
330
6404
330
6411
330
6427
330
6434
330
644A
330
6457
330
6464
330
6471
330
647E
102
}
330
A
100
AcDbSymbolTableRecord
100
AcDbDimStyleTableRecord
  2
AutoCAD
 70
     0
 41
1.0
 42
0.0
 44
0.0
 73
     0
 77
     1
140
3.0
147
1.0
174
     1
176
     4
177
     4
178
     3
271
     0
272
     0
289
     0
340
123
341
15B0
342
11E
  0
DIMSTYLE
105
2CBB
330
A
100
AcDbSymbolTableRecord
100
AcDbDimStyleTableRecord
  2
111
 70
     0
 41
1.0
 42
0.0
 44
0.0
 73
     0
 77
     1
140
5.0
147
1.0
174
     1
176
     4
177
     4
178
     3
271
     0
272
     0
289
     0
340
123
341
15B0
342
2CB5
  0
ENDTAB
  0
TABLE
  2
BLOCK_RECORD
  5
1
330
0
100
AcDbSymbolTable
 70
    60
  0
BLOCK_RECORD
  5
1E
102
{ACAD_XDICTIONARY
360
28B
102
}
330
1
100
AcDbSymbolTableRecord
100
AcDbBlockTableRecord
  2
*Model_Space
340
21
  0
BLOCK_RECORD
  5
1A
102
{ACAD_XDICTIONARY
360
28D
102
}
330
1
100
AcDbSymbolTableRecord
100
AcDbBlockTableRecord
  2
*Paper_Space
340
1D
  0
BLOCK_RECORD
  5
11E
330
1
100
AcDbSymbolTableRecord
100
AcDbBlockTableRecord
  2
_Dot
340
0
102
{BLKREFS
331
6549
331
654A
331
655D
331
655E
331
6566
331
6567
331
6570
331
6571
331
6579
331
657A
331
6582
331
6583
331
658B
331
658C
331
6594
331
6595
331
659D
331
659E
331
65A6
331
65A7
331
65AF
331
65B0
331
65B8
331
65B9
331
65C1
331
65C2
331
65CA
331
65CB
331
65D3
331
65D4
331
65E4
331
65E5
331
65EE
331
65EF
331
65F8
331
65F9
331
6601
331
6602
331
6615
331
6616
331
661E
331
661F
331
6627
331
6628
331
6630
331
6631
331
6639
331
663A
331
6642
331
6643
331
664B
331
664C
331
6654
331
6655
331
665D
331
665E
331
6666
331
6667
331
6670
331
6671
331
667A
331
667B
331
6683
331
6684
331
668C
331
668D
331
669E
331
669F
331
66A8
331
66A9
331
66B1
331
66B2
331
66BB
331
66BC
331
66CD
331
66CE
331
66D6
331
66D7
331
66DF
331
66E0
331
66FC
331
66FD
331
6705
331
6706
331
670E
331
670F
331
6717
331
6718
331
6720
331
6721
331
6729
331
672A
331
6732
331
6733
331
673B
331
673C
331
6744
331
6745
331
6756
331
6757
331
6766
331
6767
331
6777
331
6778
331
6789
331
678A
331
679A
331
679B
331
67AC
331
67AD
331
67B6
331
67B7
102
}
  0
BLOCK_RECORD
  5
15B0
330
1
100
AcDbSymbolTableRecord
100
AcDbBlockTableRecord
  2
_None
340
0
  0
BLOCK_RECORD
  5
2CB5
330
1
100
AcDbSymbolTableRecord
100
AcDbBlockTableRecord
  2
_Open30
340
0
  0
BLOCK_RECORD
  5
35E3
330
1
100
AcDbSymbolTableRecord
100
AcDbBlockTableRecord
  2
_DotBlank
340
0
  0
BLOCK_RECORD
  5
6104
330
1
100
AcDbSymbolTableRecord
100
AcDbBlockTableRecord
  2
*D4
340
0
  0
BLOCK_RECORD
  5
6111
330
1
100
AcDbSymbolTableRecord
100
AcDbBlockTableRecord
  2
*D5
340
0
  0
BLOCK_RECORD
  5
611F
330
1
100
AcDbSymbolTableRecord
100
AcDbBlockTableRecord
  2
*D6
340
0
  0
BLOCK_RECORD
  5
6137
330
1
100
AcDbSymbolTableRecord
100
AcDbBlockTableRecord
  2
*D7
340
0
  0
BLOCK_RECORD
  5
6144
330
1
100
AcDbSymbolTableRecord
100
AcDbBlockTableRecord
  2
*D8
340
0
  0
BLOCK_RECORD
  5
6152
330
1
100
AcDbSymbolTableRecord
100
AcDbBlockTableRecord
  2
*D9
340
0
  0
BLOCK_RECORD
  5
615F
330
1
100
AcDbSymbolTableRecord
100
AcDbBlockTableRecord
  2
*D10
340
0
  0
BLOCK_RECORD
  5
6175
330
1
100
AcDbSymbolTableRecord
100
AcDbBlockTableRecord
  2
*D11
340
0
  0
BLOCK_RECORD
  5
6182
330
1
100
AcDbSymbolTableRecord
100
AcDbBlockTableRecord
  2
*D12
340
0
  0
BLOCK_RECORD
  5
618F
330
1
100
AcDbSymbolTableRecord
100
AcDbBlockTableRecord
  2
*D13
340
0
  0
BLOCK_RECORD
  5
619C
330
1
100
AcDbSymbolTableRecord
100
AcDbBlockTableRecord
  2
*D14
340
0
  0
BLOCK_RECORD
  5
61A9
330
1
100
AcDbSymbolTableRecord
100
AcDbBlockTableRecord
  2
*D15
340
0
  0
BLOCK_RECORD
  5
61B6
330
1
100
AcDbSymbolTableRecord
100
AcDbBlockTableRecord
  2
*D16
340
0
  0
BLOCK_RECORD
  5
61C3
330
1
100
AcDbSymbolTableRecord
100
AcDbBlockTableRecord
  2
*D17
340
0
  0
BLOCK_RECORD
  5
61D0
330
1
100
AcDbSymbolTableRecord
100
AcDbBlockTableRecord
  2
*D18
340
0
  0
BLOCK_RECORD
  5
61DD
330
1
100
AcDbSymbolTableRecord
100
AcDbBlockTableRecord
  2
*D19
340
0
  0
BLOCK_RECORD
  5
61EA
330
1
100
AcDbSymbolTableRecord
100
AcDbBlockTableRecord
  2
*D20
340
0
  0
BLOCK_RECORD
  5
61FD
330
1
100
AcDbSymbolTableRecord
100
AcDbBlockTableRecord
  2
*D21
340
0
  0
BLOCK_RECORD
  5
620A
330
1
100
AcDbSymbolTableRecord
100
AcDbBlockTableRecord
  2
*D22
340
0
  0
BLOCK_RECORD
  5
6222
330
1
100
AcDbSymbolTableRecord
100
AcDbBlockTableRecord
  2
*D23
340
0
  0
BLOCK_RECORD
  5
6230
330
1
100
AcDbSymbolTableRecord
100
AcDbBlockTableRecord
  2
*D24
340
0
  0
BLOCK_RECORD
  5
623D
330
1
100
AcDbSymbolTableRecord
100
AcDbBlockTableRecord
  2
*D25
340
0
  0
BLOCK_RECORD
  5
624B
330
1
100
AcDbSymbolTableRecord
100
AcDbBlockTableRecord
  2
*D26
340
0
  0
BLOCK_RECORD
  5
6263
330
1
100
AcDbSymbolTableRecord
100
AcDbBlockTableRecord
  2
*D27
340
0
  0
BLOCK_RECORD
  5
6270
330
1
100
AcDbSymbolTableRecord
100
AcDbBlockTableRecord
  2
*D28
340
0
  0
BLOCK_RECORD
  5
627D
330
1
100
AcDbSymbolTableRecord
100
AcDbBlockTableRecord
  2
*D29
340
0
  0
BLOCK_RECORD
  5
628A
330
1
100
AcDbSymbolTableRecord
100
AcDbBlockTableRecord
  2
*D30
340
0
  0
BLOCK_RECORD
  5
62A0
330
1
100
AcDbSymbolTableRecord
100
AcDbBlockTableRecord
  2
*D31
340
0
  0
BLOCK_RECORD
  5
62AD
330
1
100
AcDbSymbolTableRecord
100
AcDbBlockTableRecord
  2
*D32
340
0
  0
BLOCK_RECORD
  5
62BA
330
1
100
AcDbSymbolTableRecord
100
AcDbBlockTableRecord
  2
*D33
340
0
  0
BLOCK_RECORD
  5
62C7
330
1
100
AcDbSymbolTableRecord
100
AcDbBlockTableRecord
  2
*D34
340
0
  0
BLOCK_RECORD
  5
62D4
330
1
100
AcDbSymbolTableRecord
100
AcDbBlockTableRecord
  2
*D35
340
0
  0
BLOCK_RECORD
  5
62E1
330
1
100
AcDbSymbolTableRecord
100
AcDbBlockTableRecord
  2
*D36
340
0
  0
BLOCK_RECORD
  5
62EF
330
1
100
AcDbSymbolTableRecord
100
AcDbBlockTableRecord
  2
*D37
340
0
  0
BLOCK_RECORD
  5
6307
330
1
100
AcDbSymbolTableRecord
100
AcDbBlockTableRecord
  2
*D38
340
0
  0
BLOCK_RECORD
  5
6314
330
1
100
AcDbSymbolTableRecord
100
AcDbBlockTableRecord
  2
*D39
340
0
  0
BLOCK_RECORD
  5
632A
330
1
100
AcDbSymbolTableRecord
100
AcDbBlockTableRecord
  2
*D40
340
0
  0
BLOCK_RECORD
  5
633F
330
1
100
AcDbSymbolTableRecord
100
AcDbBlockTableRecord
  2
*D41
340
0
  0
BLOCK_RECORD
  5
6355
330
1
100
AcDbSymbolTableRecord
100
AcDbBlockTableRecord
  2
*D42
340
0
  0
BLOCK_RECORD
  5
636D
330
1
100
AcDbSymbolTableRecord
100
AcDbBlockTableRecord
  2
*D43
340
0
  0
BLOCK_RECORD
  5
637A
330
1
100
AcDbSymbolTableRecord
100
AcDbBlockTableRecord
  2
*D44
340
0
  0
BLOCK_RECORD
  5
6388
330
1
100
AcDbSymbolTableRecord
100
AcDbBlockTableRecord
  2
*D45
340
0
  0
BLOCK_RECORD
  5
639D
330
1
100
AcDbSymbolTableRecord
100
AcDbBlockTableRecord
  2
*D46
340
0
  0
BLOCK_RECORD
  5
63B3
330
1
100
AcDbSymbolTableRecord
100
AcDbBlockTableRecord
  2
*D47
340
0
  0
BLOCK_RECORD
  5
63C9
330
1
100
AcDbSymbolTableRecord
100
AcDbBlockTableRecord
  2
*D48
340
0
  0
BLOCK_RECORD
  5
63E0
330
1
100
AcDbSymbolTableRecord
100
AcDbBlockTableRecord
  2
*D49
340
0
  0
BLOCK_RECORD
  5
63EE
330
1
100
AcDbSymbolTableRecord
100
AcDbBlockTableRecord
  2
*D50
340
0
  0
BLOCK_RECORD
  5
6405
330
1
100
AcDbSymbolTableRecord
100
AcDbBlockTableRecord
  2
*D51
340
0
  0
BLOCK_RECORD
  5
6412
330
1
100
AcDbSymbolTableRecord
100
AcDbBlockTableRecord
  2
*D52
340
0
  0
BLOCK_RECORD
  5
6428
330
1
100
AcDbSymbolTableRecord
100
AcDbBlockTableRecord
  2
*D53
340
0
  0
BLOCK_RECORD
  5
6435
330
1
100
AcDbSymbolTableRecord
100
AcDbBlockTableRecord
  2
*D54
340
0
  0
BLOCK_RECORD
  5
644B
330
1
100
AcDbSymbolTableRecord
100
AcDbBlockTableRecord
  2
*D55
340
0
  0
BLOCK_RECORD
  5
6458
330
1
100
AcDbSymbolTableRecord
100
AcDbBlockTableRecord
  2
*D56
340
0
  0
BLOCK_RECORD
  5
6465
330
1
100
AcDbSymbolTableRecord
100
AcDbBlockTableRecord
  2
*D57
340
0
  0
BLOCK_RECORD
  5
6472
330
1
100
AcDbSymbolTableRecord
100
AcDbBlockTableRecord
  2
*D58
340
0
  0
BLOCK_RECORD
  5
647F
330
1
100
AcDbSymbolTableRecord
100
AcDbBlockTableRecord
  2
*D59
340
0
  0
ENDTAB
  0
ENDSEC
  0
SECTION
  2
BLOCKS
  0
BLOCK
  5
1F
330
1E
100
AcDbEntity
  8
0
100
AcDbBlockBegin
  2
*Model_Space
 70
     0
 10
0.0
 20
0.0
 30
0.0
  3
*Model_Space
  1

  0
ENDBLK
  5
20
330
1E
100
AcDbEntity
  8
0
100
AcDbBlockEnd
  0
BLOCK
  5
1B
330
1A
100
AcDbEntity
 67
     1
  8
0
100
AcDbBlockBegin
  2
*Paper_Space
 70
     0
 10
0.0
 20
0.0
 30
0.0
  3
*Paper_Space
  1

  0
ENDBLK
  5
1C
330
1A
100
AcDbEntity
 67
     1
  8
0
100
AcDbBlockEnd
  0
BLOCK
  5
121
330
11E
100
AcDbEntity
  8
0
100
AcDbBlockBegin
  2
_Dot
 70
     0
 10
0.0
 20
0.0
 30
0.0
  3
_Dot
  1

  0
LWPOLYLINE
  5
11F
330
11E
100
AcDbEntity
  8
0
  6
ByBlock
 62
     0
100
AcDbPolyline
 90
        2
 70
     1
 43
0.5
 10
-0.25
 20
0.0
 42
1.0
 10
0.25
 20
0.0
 42
1.0
  0
LINE
  5
120
330
11E
100
AcDbEntity
  8
0
  6
ByBlock
 62
     0
370
    -2
100
AcDbLine
 10
-0.5
 20
0.0
 30
0.0
 11
-1.0
 21
0.0
 31
0.0
  0
ENDBLK
  5
122
330
11E
100
AcDbEntity
  8
0
100
AcDbBlockEnd
  0
BLOCK
  5
15B1
330
15B0
100
AcDbEntity
  8
0
100
AcDbBlockBegin
  2
_None
 70
     0
 10
0.0
 20
0.0
 30
0.0
  3
_None
  1

  0
ENDBLK
  5
15B2
330
15B0
100
AcDbEntity
  8
0
100
AcDbBlockEnd
  0
BLOCK
  5
2CB9
330
2CB5
100
AcDbEntity
  8
0
100
AcDbBlockBegin
  2
_Open30
 70
     0
 10
0.0
 20
0.0
 30
0.0
  3
_Open30
  1

  0
LINE
  5
2CB6
330
2CB5
100
AcDbEntity
  8
0
  6
ByBlock
 62
     0
370
    -2
100
AcDbLine
 10
-1.0
 20
0.26794919
 30
0.0
 11
0.0
 21
0.0
 31
0.0
  0
LINE
  5
2CB7
330
2CB5
100
AcDbEntity
  8
0
  6
ByBlock
 62
     0
370
    -2
100
AcDbLine
 10
0.0
 20
0.0
 30
0.0
 11
-1.0
 21
-0.26794919
 31
0.0
  0
LINE
  5
2CB8
330
2CB5
100
AcDbEntity
  8
0
  6
ByBlock
 62
     0
370
    -2
100
AcDbLine
 10
0.0
 20
0.0
 30
0.0
 11
-1.0
 21
0.0
 31
0.0
  0
ENDBLK
  5
2CBA
330
2CB5
100
AcDbEntity
  8
0
100
AcDbBlockEnd
  0
BLOCK
  5
35E6
330
35E3
100
AcDbEntity
  8
0
100
AcDbBlockBegin
  2
_DotBlank
 70
     0
 10
0.0
 20
0.0
 30
0.0
  3
_DotBlank
  1

  0
CIRCLE
  5
35E4
330
35E3
100
AcDbEntity
  8
0
  6
ByBlock
 62
     0
370
    -2
100
AcDbCircle
 10
0.0
 20
0.0
 30
0.0
 40
0.5
  0
LINE
  5
35E5
330
35E3
100
AcDbEntity
  8
0
  6
ByBlock
 62
     0
370
    -2
100
AcDbLine
 10
-0.5
 20
0.0
 30
0.0
 11
-1.0
 21
0.0
 31
0.0
  0
ENDBLK
  5
35E7
330
35E3
100
AcDbEntity
  8
0
100
AcDbBlockEnd
  0
BLOCK
  5
610E
330
6104
100
AcDbEntity
  8
0
100
AcDbBlockBegin
  2
*D4
 70
     1
 10
0.0
 20
0.0
 30
0.0
  3
*D4
  1

  0
LINE
  5
6546
330
6104
100
AcDbEntity
  8
寸法
  6
Continuous
 62
     4
370
    -2
100
AcDbLine
 10
1335.740695114757
 20
648.1325608871748
 30
0.0
 11
1301.867046114757
 21
648.1325608871748
 31
0.0
  0
LINE
  5
6547
330
6104
100
AcDbEntity
  8
寸法
  6
Continuous
 62
     4
370
    -2
100
AcDbLine
 10
1320.015198114757
 20
656.1325608871747
 30
0.0
 11
1301.867046114757
 21
656.1325608871747
 31
0.0
  0
LINE
  5
6548
330
6104
100
AcDbEntity
  8
寸法
  6
Continuous
 62
     4
370
    -2
100
AcDbLine
 10
1301.867046114757
 20
649.1325608871748
 30
0.0
 11
1301.867046114757
 21
655.1325608871747
 31
0.0
  0
INSERT
  5
6549
330
6104
100
AcDbEntity
  8
寸法
  6
Continuous
 62
     4
370
    -2
100
AcDbBlockReference
  2
_Dot
 10
1301.867046114757
 20
648.1325608871748
 30
0.0
 50
270.0
  0
INSERT
  5
654A
330
6104
100
AcDbEntity
  8
寸法
  6
Continuous
 62
     4
370
    -2
100
AcDbBlockReference
  2
_Dot
 10
1301.867046114757
 20
656.1325608871747
 30
0.0
 50
90.0
  0
MTEXT
  5
654B
330
6104
100
AcDbEntity
  8
寸法
  6
Continuous
 62
     3
100
AcDbMText
 10
1299.367046114757
 20
652.132560887175
 30
0.0
 40
3.0
 41
0.0
 71
     5
 72
     1
  1
\A1;8
  7
ACAD
 11
0.0000000000000001
 21
1.0
 31
0.0
 73
     1
 44
1.0
1001
ACAD
1000
MTEXTBEGIN
1070
    73
1070
     1
1070
    44
1040
1.0
1070
    74
1070
     0
1000
MTEXTEND
  0
POINT
  5
654C
330
6104
100
AcDbEntity
  8
Defpoints
  6
Continuous
 62
     0
100
AcDbPoint
 10
1335.740695114757
 20
648.1325608871748
 30
0.0
  0
POINT
  5
654D
330
6104
100
AcDbEntity
  8
Defpoints
  6
Continuous
 62
     0
100
AcDbPoint
 10
1320.015198114757
 20
656.1325608871747
 30
0.0
  0
POINT
  5
654E
330
6104
100
AcDbEntity
  8
Defpoints
  6
Continuous
 62
     0
100
AcDbPoint
 10
1301.867046114757
 20
656.1325608871747
 30
0.0
  0
ENDBLK
  5
610F
330
6104
100
AcDbEntity
  8
0
100
AcDbBlockEnd
  0
BLOCK
  5
611C
330
6111
100
AcDbEntity
  8
0
100
AcDbBlockBegin
  2
*D5
 70
     1
 10
0.0
 20
0.0
 30
0.0
  3
*D5
  1

  0
LINE
  5
6753
330
6111
100
AcDbEntity
  8
寸法
  6
Continuous
 62
     4
370
    -2
100
AcDbLine
 10
1320.015198114757
 20
656.1325608871747
 30
0.0
 11
1301.867046114757
 21
656.1325608871747
 31
0.0
  0
LINE
  5
6754
330
6111
100
AcDbEntity
  8
寸法
  6
Continuous
 62
     4
370
    -2
100
AcDbLine
 10
1313.501015114757
 20
660.1325608871747
 30
0.0
 11
1301.867046114757
 21
660.1325608871747
 31
0.0
  0
LINE
  5
6755
330
6111
100
AcDbEntity
  8
寸法
  6
Continuous
 62
     4
370
    -2
100
AcDbLine
 10
1301.867046114757
 20
657.1325608871748
 30
0.0
 11
1301.867046114757
 21
659.1325608871748
 31
0.0
  0
INSERT
  5
6756
330
6111
100
AcDbEntity
  8
寸法
  6
Continuous
 62
     4
370
    -2
100
AcDbBlockReference
  2
_Dot
 10
1301.867046114757
 20
656.1325608871747
 30
0.0
 50
270.0
  0
INSERT
  5
6757
330
6111
100
AcDbEntity
  8
寸法
  6
Continuous
 62
     4
370
    -2
100
AcDbBlockReference
  2
_Dot
 10
1301.867046114757
 20
660.1325608871747
 30
0.0
 50
90.0
  0
MTEXT
  5
6758
330
6111
100
AcDbEntity
  8
寸法
  6
Continuous
 62
     3
100
AcDbMText
 10
1299.367046114757
 20
657.9927598758164
 30
0.0
 40
3.0
 41
0.0
 71
     5
 72
     1
  1
\A1;4
  7
ACAD
 11
0.0000000000000001
 21
1.0
 31
0.0
 73
     1
 44
1.0
1001
ACAD
1000
MTEXTBEGIN
1070
    73
1070
     1
1070
    44
1040
1.0
1070
    74
1070
     0
1000
MTEXTEND
  0
POINT
  5
6759
330
6111
100
AcDbEntity
  8
Defpoints
  6
Continuous
 62
     0
100
AcDbPoint
 10
1320.015198114757
 20
656.1325608871747
 30
0.0
  0
POINT
  5
675A
330
6111
100
AcDbEntity
  8
Defpoints
  6
Continuous
 62
     0
100
AcDbPoint
 10
1313.501015114757
 20
660.1325608871747
 30
0.0
  0
POINT
  5
675B
330
6111
100
AcDbEntity
  8
Defpoints
  6
Continuous
 62
     0
100
AcDbPoint
 10
1301.867046114757
 20
660.1325608871747
 30
0.0
  0
ENDBLK
  5
611D
330
6111
100
AcDbEntity
  8
0
100
AcDbBlockEnd
  0
BLOCK
  5
612A
330
611F
100
AcDbEntity
  8
0
100
AcDbBlockBegin
  2
*D6
 70
     1
 10
0.0
 20
0.0
 30
0.0
  3
*D6
  1

  0
LINE
  5
6559
330
611F
100
AcDbEntity
  8
寸法
  6
Continuous
 62
     4
370
    -2
100
AcDbLine
 10
1320.015198114757
 20
656.1325608871747
 30
0.0
 11
1308.756096114757
 21
656.1325608871747
 31
0.0
  0
LINE
  5
655A
330
611F
100
AcDbEntity
  8
寸法
  6
Continuous
 62
     4
370
    -2
100
AcDbLine
 10
1313.033608114757
 20
657.6325608871748
 30
0.0
 11
1308.756096114757
 21
657.6325608871748
 31
0.0
  0
LINE
  5
655B
330
611F
100
AcDbEntity
  8
寸法
  6
Continuous
 62
     4
370
    -2
100
AcDbLine
 10
1308.756096114757
 20
655.1325608871747
 30
0.0
 11
1308.756096114757
 21
654.1325608871748
 31
0.0
  0
LINE
  5
655C
330
611F
100
AcDbEntity
  8
寸法
  6
Continuous
 62
     4
370
    -2
100
AcDbLine
 10
1308.756096114757
 20
658.6325608871748
 30
0.0
 11
1308.756096114757
 21
659.6325608871747
 31
0.0
  0
INSERT
  5
655D
330
611F
100
AcDbEntity
  8
寸法
  6
Continuous
 62
     4
370
    -2
100
AcDbBlockReference
  2
_Dot
 10
1308.756096114757
 20
656.1325608871747
 30
0.0
 50
90.0
  0
INSERT
  5
655E
330
611F
100
AcDbEntity
  8
寸法
  6
Continuous
 62
     4
370
    -2
100
AcDbBlockReference
  2
_Dot
 10
1308.756096114757
 20
657.6325608871748
 30
0.0
 50
270.0
  0
MTEXT
  5
655F
330
611F
100
AcDbEntity
  8
寸法
  6
Continuous
 62
     3
100
AcDbMText
 10
1306.256096114757
 20
656.882560887175
 30
0.0
 40
3.0
 41
0.0
 71
     5
 72
     1
  1
\A1;1.5
  7
ACAD
 11
0.0000000000000001
 21
1.0
 31
0.0
 73
     1
 44
1.0
1001
ACAD
1000
MTEXTBEGIN
1070
    73
1070
     1
1070
    44
1040
1.0
1070
    74
1070
     0
1000
MTEXTEND
  0
POINT
  5
6560
330
611F
100
AcDbEntity
  8
Defpoints
  6
Continuous
 62
     0
100
AcDbPoint
 10
1320.015198114757
 20
656.1325608871747
 30
0.0
  0
POINT
  5
6561
330
611F
100
AcDbEntity
  8
Defpoints
  6
Continuous
 62
     0
100
AcDbPoint
 10
1313.033608114757
 20
657.6325608871748
 30
0.0
  0
POINT
  5
6562
330
611F
100
AcDbEntity
  8
Defpoints
  6
Continuous
 62
     0
100
AcDbPoint
 10
1308.756096114757
 20
657.6325608871748
 30
0.0
  0
ENDBLK
  5
612B
330
611F
100
AcDbEntity
  8
0
100
AcDbBlockEnd
  0
BLOCK
  5
6141
330
6137
100
AcDbEntity
  8
0
100
AcDbBlockBegin
  2
*D7
 70
     1
 10
0.0
 20
0.0
 30
0.0
  3
*D7
  1

  0
LINE
  5
6563
330
6137
100
AcDbEntity
  8
寸法
  6
Continuous
 62
     4
370
    -2
100
AcDbLine
 10
1315.310703114757
 20
653.1325608871748
 30
0.0
 11
1315.310703114757
 21
642.7849698871747
 31
0.0
  0
LINE
  5
6564
330
6137
100
AcDbEntity
  8
寸法
  6
Continuous
 62
     4
370
    -2
100
AcDbLine
 10
1322.310703114757
 20
653.7659448871748
 30
0.0
 11
1322.310703114757
 21
642.7849698871747
 31
0.0
  0
LINE
  5
6565
330
6137
100
AcDbEntity
  8
寸法
  6
Continuous
 62
     4
370
    -2
100
AcDbLine
 10
1316.310703114757
 20
642.7849698871747
 30
0.0
 11
1321.310703114757
 21
642.7849698871747
 31
0.0
  0
INSERT
  5
6566
330
6137
100
AcDbEntity
  8
寸法
  6
Continuous
 62
     4
370
    -2
100
AcDbBlockReference
  2
_Dot
 10
1315.310703114757
 20
642.7849698871747
 30
0.0
 50
180.0
  0
INSERT
  5
6567
330
6137
100
AcDbEntity
  8
寸法
  6
Continuous
 62
     4
370
    -2
100
AcDbBlockReference
  2
_Dot
 10
1322.310703114757
 20
642.7849698871747
 30
0.0
  0
MTEXT
  5
6568
330
6137
100
AcDbEntity
  8
寸法
  6
Continuous
 62
     3
100
AcDbMText
 10
1318.810703114757
 20
645.2849698871747
 30
0.0
 40
3.0
 41
0.0
 71
     5
 72
     1
  1
\A1;7
  7
ACAD
 73
     1
 44
1.0
1001
ACAD
1000
MTEXTBEGIN
1070
    73
1070
     1
1070
    44
1040
1.0
1070
    74
1070
     0
1000
MTEXTEND
  0
POINT
  5
6569
330
6137
100
AcDbEntity
  8
Defpoints
  6
Continuous
 62
     0
100
AcDbPoint
 10
1315.310703114757
 20
653.1325608871748
 30
0.0
  0
POINT
  5
656A
330
6137
100
AcDbEntity
  8
Defpoints
  6
Continuous
 62
     0
100
AcDbPoint
 10
1322.310703114757
 20
653.7659448871748
 30
0.0
  0
POINT
  5
656B
330
6137
100
AcDbEntity
  8
Defpoints
  6
Continuous
 62
     0
100
AcDbPoint
 10
1322.310703114757
 20
642.7849698871747
 30
0.0
  0
ENDBLK
  5
6142
330
6137
100
AcDbEntity
  8
0
100
AcDbBlockEnd
  0
BLOCK
  5
614F
330
6144
100
AcDbEntity
  8
0
100
AcDbBlockBegin
  2
*D8
 70
     1
 10
0.0
 20
0.0
 30
0.0
  3
*D8
  1

  0
LINE
  5
656C
330
6144
100
AcDbEntity
  8
寸法
  6
Continuous
 62
     4
370
    -2
100
AcDbLine
 10
1339.210703114757
 20
646.0800368871747
 30
0.0
 11
1339.210703114757
 21
643.0110258871747
 31
0.0
  0
LINE
  5
656D
330
6144
100
AcDbEntity
  8
寸法
  6
Continuous
 62
     4
370
    -2
100
AcDbLine
 10
1342.210703114757
 20
646.1930648871747
 30
0.0
 11
1342.210703114757
 21
643.0110258871747
 31
0.0
  0
LINE
  5
656E
330
6144
100
AcDbEntity
  8
寸法
  6
Continuous
 62
     4
370
    -2
100
AcDbLine
 10
1338.210703114757
 20
643.0110258871747
 30
0.0
 11
1337.210703114757
 21
643.0110258871747
 31
0.0
  0
LINE
  5
656F
330
6144
100
AcDbEntity
  8
寸法
  6
Continuous
 62
     4
370
    -2
100
AcDbLine
 10
1343.210703114757
 20
643.0110258871747
 30
0.0
 11
1344.210703114757
 21
643.0110258871747
 31
0.0
  0
INSERT
  5
6570
330
6144
100
AcDbEntity
  8
寸法
  6
Continuous
 62
     4
370
    -2
100
AcDbBlockReference
  2
_Dot
 10
1339.210703114757
 20
643.0110258871747
 30
0.0
  0
INSERT
  5
6571
330
6144
100
AcDbEntity
  8
寸法
  6
Continuous
 62
     4
370
    -2
100
AcDbBlockReference
  2
_Dot
 10
1342.210703114757
 20
643.0110258871747
 30
0.0
 50
180.0
  0
MTEXT
  5
6572
330
6144
100
AcDbEntity
  8
寸法
  6
Continuous
 62
     3
100
AcDbMText
 10
1340.710703114757
 20
645.5110258871747
 30
0.0
 40
3.0
 41
0.0
 71
     5
 72
     1
  1
\A1;3
  7
ACAD
 73
     1
 44
1.0
1001
ACAD
1000
MTEXTBEGIN
1070
    73
1070
     1
1070
    44
1040
1.0
1070
    74
1070
     0
1000
MTEXTEND
  0
POINT
  5
6573
330
6144
100
AcDbEntity
  8
Defpoints
  6
Continuous
 62
     0
100
AcDbPoint
 10
1339.210703114757
 20
646.0800368871747
 30
0.0
  0
POINT
  5
6574
330
6144
100
AcDbEntity
  8
Defpoints
  6
Continuous
 62
     0
100
AcDbPoint
 10
1342.210703114757
 20
646.1930648871747
 30
0.0
  0
POINT
  5
6575
330
6144
100
AcDbEntity
  8
Defpoints
  6
Continuous
 62
     0
100
AcDbPoint
 10
1342.210703114757
 20
643.0110258871747
 30
0.0
  0
ENDBLK
  5
6150
330
6144
100
AcDbEntity
  8
0
100
AcDbBlockEnd
  0
BLOCK
  5
615C
330
6152
100
AcDbEntity
  8
0
100
AcDbBlockBegin
  2
*D9
 70
     1
 10
0.0
 20
0.0
 30
0.0
  3
*D9
  1

  0
LINE
  5
6576
330
6152
100
AcDbEntity
  8
寸法
  6
Continuous
 62
     4
370
    -2
100
AcDbLine
 10
1343.974665114757
 20
648.1325608871748
 30
0.0
 11
1352.641497114757
 21
648.1325608871748
 31
0.0
  0
LINE
  5
6577
330
6152
100
AcDbEntity
  8
寸法
  6
Continuous
 62
     4
370
    -2
100
AcDbLine
 10
1342.775678114757
 20
662.1325608871748
 30
0.0
 11
1352.641497114757
 21
662.1325608871748
 31
0.0
  0
LINE
  5
6578
330
6152
100
AcDbEntity
  8
寸法
  6
Continuous
 62
     4
370
    -2
100
AcDbLine
 10
1352.641497114757
 20
649.1325608871748
 30
0.0
 11
1352.641497114757
 21
661.1325608871748
 31
0.0
  0
INSERT
  5
6579
330
6152
100
AcDbEntity
  8
寸法
  6
Continuous
 62
     4
370
    -2
100
AcDbBlockReference
  2
_Dot
 10
1352.641497114757
 20
648.1325608871748
 30
0.0
 50
270.0
  0
INSERT
  5
657A
330
6152
100
AcDbEntity
  8
寸法
  6
Continuous
 62
     4
370
    -2
100
AcDbBlockReference
  2
_Dot
 10
1352.641497114757
 20
662.1325608871748
 30
0.0
 50
90.0
  0
MTEXT
  5
657B
330
6152
100
AcDbEntity
  8
寸法
  6
Continuous
 62
     3
100
AcDbMText
 10
1350.141497114757
 20
655.132560887175
 30
0.0
 40
3.0
 41
0.0
 71
     5
 72
     1
  1
\A1;14
  7
ACAD
 11
0.0000000000000001
 21
1.0
 31
0.0
 73
     1
 44
1.0
1001
ACAD
1000
MTEXTBEGIN
1070
    73
1070
     1
1070
    44
1040
1.0
1070
    74
1070
     0
1000
MTEXTEND
  0
POINT
  5
657C
330
6152
100
AcDbEntity
  8
Defpoints
  6
Continuous
 62
     0
100
AcDbPoint
 10
1343.974665114757
 20
648.1325608871748
 30
0.0
  0
POINT
  5
657D
330
6152
100
AcDbEntity
  8
Defpoints
  6
Continuous
 62
     0
100
AcDbPoint
 10
1342.775678114757
 20
662.1325608871748
 30
0.0
  0
POINT
  5
657E
330
6152
100
AcDbEntity
  8
Defpoints
  6
Continuous
 62
     0
100
AcDbPoint
 10
1352.641497114757
 20
662.1325608871748
 30
0.0
  0
ENDBLK
  5
615D
330
6152
100
AcDbEntity
  8
0
100
AcDbBlockEnd
  0
BLOCK
  5
6169
330
615F
100
AcDbEntity
  8
0
100
AcDbBlockBegin
  2
*D10
 70
     1
 10
0.0
 20
0.0
 30
0.0
  3
*D10
  1

  0
LINE
  5
657F
330
615F
100
AcDbEntity
  8
寸法
  6
Continuous
 62
     4
370
    -2
100
AcDbLine
 10
1315.310703114757
 20
653.1325608871748
 30
0.0
 11
1315.310703114757
 21
628.2507488871747
 31
0.0
  0
LINE
  5
6580
330
615F
100
AcDbEntity
  8
寸法
  6
Continuous
 62
     4
370
    -2
100
AcDbLine
 10
1340.710703114757
 20
646.2513688871747
 30
0.0
 11
1340.710703114757
 21
628.2507488871747
 31
0.0
  0
LINE
  5
6581
330
615F
100
AcDbEntity
  8
寸法
  6
Continuous
 62
     4
370
    -2
100
AcDbLine
 10
1316.310703114757
 20
628.2507488871747
 30
0.0
 11
1339.710703114757
 21
628.2507488871747
 31
0.0
  0
INSERT
  5
6582
330
615F
100
AcDbEntity
  8
寸法
  6
Continuous
 62
     4
370
    -2
100
AcDbBlockReference
  2
_Dot
 10
1315.310703114757
 20
628.2507488871747
 30
0.0
 50
180.0
  0
INSERT
  5
6583
330
615F
100
AcDbEntity
  8
寸法
  6
Continuous
 62
     4
370
    -2
100
AcDbBlockReference
  2
_Dot
 10
1340.710703114757
 20
628.2507488871747
 30
0.0
  0
MTEXT
  5
6584
330
615F
100
AcDbEntity
  8
寸法
  6
Continuous
 62
     3
100
AcDbMText
 10
1328.010703114757
 20
630.7507488871747
 30
0.0
 40
3.0
 41
0.0
 71
     5
 72
     1
  1
\A1;25.4
  7
ACAD
 73
     1
 44
1.0
1001
ACAD
1000
MTEXTBEGIN
1070
    73
1070
     1
1070
    44
1040
1.0
1070
    74
1070
     0
1000
MTEXTEND
  0
POINT
  5
6585
330
615F
100
AcDbEntity
  8
Defpoints
  6
Continuous
 62
     0
100
AcDbPoint
 10
1315.310703114757
 20
653.1325608871748
 30
0.0
  0
POINT
  5
6586
330
615F
100
AcDbEntity
  8
Defpoints
  6
Continuous
 62
     0
100
AcDbPoint
 10
1340.710703114757
 20
646.2513688871747
 30
0.0
  0
POINT
  5
6587
330
615F
100
AcDbEntity
  8
Defpoints
  6
Continuous
 62
     0
100
AcDbPoint
 10
1340.710703114757
 20
628.2507488871747
 30
0.0
  0
ENDBLK
  5
616A
330
615F
100
AcDbEntity
  8
0
100
AcDbBlockEnd
  0
BLOCK
  5
617F
330
6175
100
AcDbEntity
  8
0
100
AcDbBlockBegin
  2
*D11
 70
     1
 10
0.0
 20
0.0
 30
0.0
  3
*D11
  1

  0
LINE
  5
6588
330
6175
100
AcDbEntity
  8
寸法
  6
Continuous
 62
     4
370
    -2
100
AcDbLine
 10
1340.710703114757
 20
646.2513688871747
 30
0.0
 11
1340.710703114757
 21
636.1325608871746
 31
0.0
  0
LINE
  5
6589
330
6175
100
AcDbEntity
  8
寸法
  6
Continuous
 62
     4
370
    -2
100
AcDbLine
 10
1360.710703114757
 20
645.2781968871748
 30
0.0
 11
1360.710703114757
 21
636.1325608871746
 31
0.0
  0
LINE
  5
658A
330
6175
100
AcDbEntity
  8
寸法
  6
Continuous
 62
     4
370
    -2
100
AcDbLine
 10
1341.710703114757
 20
636.1325608871746
 30
0.0
 11
1359.710703114757
 21
636.1325608871746
 31
0.0
  0
INSERT
  5
658B
330
6175
100
AcDbEntity
  8
寸法
  6
Continuous
 62
     4
370
    -2
100
AcDbBlockReference
  2
_Dot
 10
1340.710703114757
 20
636.1325608871746
 30
0.0
 50
180.0
  0
INSERT
  5
658C
330
6175
100
AcDbEntity
  8
寸法
  6
Continuous
 62
     4
370
    -2
100
AcDbBlockReference
  2
_Dot
 10
1360.710703114757
 20
636.1325608871746
 30
0.0
  0
MTEXT
  5
658D
330
6175
100
AcDbEntity
  8
寸法
  6
Continuous
 62
     3
100
AcDbMText
 10
1350.710703114757
 20
638.6325608871747
 30
0.0
 40
3.0
 41
0.0
 71
     5
 72
     1
  1
\A1;20
  7
ACAD
 73
     1
 44
1.0
1001
ACAD
1000
MTEXTBEGIN
1070
    73
1070
     1
1070
    44
1040
1.0
1070
    74
1070
     0
1000
MTEXTEND
  0
POINT
  5
658E
330
6175
100
AcDbEntity
  8
Defpoints
  6
Continuous
 62
     0
100
AcDbPoint
 10
1340.710703114757
 20
646.2513688871747
 30
0.0
  0
POINT
  5
658F
330
6175
100
AcDbEntity
  8
Defpoints
  6
Continuous
 62
     0
100
AcDbPoint
 10
1360.710703114757
 20
645.2781968871748
 30
0.0
  0
POINT
  5
6590
330
6175
100
AcDbEntity
  8
Defpoints
  6
Continuous
 62
     0
100
AcDbPoint
 10
1360.710703114757
 20
636.1325608871746
 30
0.0
  0
ENDBLK
  5
6180
330
6175
100
AcDbEntity
  8
0
100
AcDbBlockEnd
  0
BLOCK
  5
618C
330
6182
100
AcDbEntity
  8
0
100
AcDbBlockBegin
  2
*D12
 70
     1
 10
0.0
 20
0.0
 30
0.0
  3
*D12
  1

  0
LINE
  5
6591
330
6182
100
AcDbEntity
  8
寸法
  6
Continuous
 62
     4
370
    -2
100
AcDbLine
 10
1360.710703114757
 20
645.2781968871748
 30
0.0
 11
1360.710703114757
 21
636.1325608871746
 31
0.0
  0
LINE
  5
6592
330
6182
100
AcDbEntity
  8
寸法
  6
Continuous
 62
     4
370
    -2
100
AcDbLine
 10
1380.710703114757
 20
645.7233188871747
 30
0.0
 11
1380.710703114757
 21
636.1325608871746
 31
0.0
  0
LINE
  5
6593
330
6182
100
AcDbEntity
  8
寸法
  6
Continuous
 62
     4
370
    -2
100
AcDbLine
 10
1361.710703114757
 20
636.1325608871746
 30
0.0
 11
1379.710703114757
 21
636.1325608871746
 31
0.0
  0
INSERT
  5
6594
330
6182
100
AcDbEntity
  8
寸法
  6
Continuous
 62
     4
370
    -2
100
AcDbBlockReference
  2
_Dot
 10
1360.710703114757
 20
636.1325608871746
 30
0.0
 50
180.0
  0
INSERT
  5
6595
330
6182
100
AcDbEntity
  8
寸法
  6
Continuous
 62
     4
370
    -2
100
AcDbBlockReference
  2
_Dot
 10
1380.710703114757
 20
636.1325608871746
 30
0.0
  0
MTEXT
  5
6596
330
6182
100
AcDbEntity
  8
寸法
  6
Continuous
 62
     3
100
AcDbMText
 10
1370.710703114757
 20
638.6325608871747
 30
0.0
 40
3.0
 41
0.0
 71
     5
 72
     1
  1
\A1;20
  7
ACAD
 73
     1
 44
1.0
1001
ACAD
1000
MTEXTBEGIN
1070
    73
1070
     1
1070
    44
1040
1.0
1070
    74
1070
     0
1000
MTEXTEND
  0
POINT
  5
6597
330
6182
100
AcDbEntity
  8
Defpoints
  6
Continuous
 62
     0
100
AcDbPoint
 10
1360.710703114757
 20
645.2781968871748
 30
0.0
  0
POINT
  5
6598
330
6182
100
AcDbEntity
  8
Defpoints
  6
Continuous
 62
     0
100
AcDbPoint
 10
1380.710703114757
 20
645.7233188871747
 30
0.0
  0
POINT
  5
6599
330
6182
100
AcDbEntity
  8
Defpoints
  6
Continuous
 62
     0
100
AcDbPoint
 10
1380.710703114757
 20
636.1325608871746
 30
0.0
  0
ENDBLK
  5
618D
330
6182
100
AcDbEntity
  8
0
100
AcDbBlockEnd
  0
BLOCK
  5
6199
330
618F
100
AcDbEntity
  8
0
100
AcDbBlockBegin
  2
*D13
 70
     1
 10
0.0
 20
0.0
 30
0.0
  3
*D13
  1

  0
LINE
  5
659A
330
618F
100
AcDbEntity
  8
寸法
  6
Continuous
 62
     4
370
    -2
100
AcDbLine
 10
1380.710703114757
 20
645.7233188871747
 30
0.0
 11
1380.710703114757
 21
636.1325608871746
 31
0.0
  0
LINE
  5
659B
330
618F
100
AcDbEntity
  8
寸法
  6
Continuous
 62
     4
370
    -2
100
AcDbLine
 10
1400.710703114757
 20
645.5007578871747
 30
0.0
 11
1400.710703114757
 21
636.1325608871746
 31
0.0
  0
LINE
  5
659C
330
618F
100
AcDbEntity
  8
寸法
  6
Continuous
 62
     4
370
    -2
100
AcDbLine
 10
1381.710703114757
 20
636.1325608871746
 30
0.0
 11
1399.710703114757
 21
636.1325608871746
 31
0.0
  0
INSERT
  5
659D
330
618F
100
AcDbEntity
  8
寸法
  6
Continuous
 62
     4
370
    -2
100
AcDbBlockReference
  2
_Dot
 10
1380.710703114757
 20
636.1325608871746
 30
0.0
 50
180.0
  0
INSERT
  5
659E
330
618F
100
AcDbEntity
  8
寸法
  6
Continuous
 62
     4
370
    -2
100
AcDbBlockReference
  2
_Dot
 10
1400.710703114757
 20
636.1325608871746
 30
0.0
  0
MTEXT
  5
659F
330
618F
100
AcDbEntity
  8
寸法
  6
Continuous
 62
     3
100
AcDbMText
 10
1390.710703114757
 20
638.6325608871747
 30
0.0
 40
3.0
 41
0.0
 71
     5
 72
     1
  1
\A1;20
  7
ACAD
 73
     1
 44
1.0
1001
ACAD
1000
MTEXTBEGIN
1070
    73
1070
     1
1070
    44
1040
1.0
1070
    74
1070
     0
1000
MTEXTEND
  0
POINT
  5
65A0
330
618F
100
AcDbEntity
  8
Defpoints
  6
Continuous
 62
     0
100
AcDbPoint
 10
1380.710703114757
 20
645.7233188871747
 30
0.0
  0
POINT
  5
65A1
330
618F
100
AcDbEntity
  8
Defpoints
  6
Continuous
 62
     0
100
AcDbPoint
 10
1400.710703114757
 20
645.5007578871747
 30
0.0
  0
POINT
  5
65A2
330
618F
100
AcDbEntity
  8
Defpoints
  6
Continuous
 62
     0
100
AcDbPoint
 10
1400.710703114757
 20
636.1325608871746
 30
0.0
  0
ENDBLK
  5
619A
330
618F
100
AcDbEntity
  8
0
100
AcDbBlockEnd
  0
BLOCK
  5
61A6
330
619C
100
AcDbEntity
  8
0
100
AcDbBlockBegin
  2
*D14
 70
     1
 10
0.0
 20
0.0
 30
0.0
  3
*D14
  1

  0
LINE
  5
65A3
330
619C
100
AcDbEntity
  8
寸法
  6
Continuous
 62
     4
370
    -2
100
AcDbLine
 10
1400.710703114757
 20
645.5007578871747
 30
0.0
 11
1400.710703114757
 21
636.1325608871746
 31
0.0
  0
LINE
  5
65A4
330
619C
100
AcDbEntity
  8
寸法
  6
Continuous
 62
     4
370
    -2
100
AcDbLine
 10
1420.710703114757
 20
645.5007578871747
 30
0.0
 11
1420.710703114757
 21
636.1325608871746
 31
0.0
  0
LINE
  5
65A5
330
619C
100
AcDbEntity
  8
寸法
  6
Continuous
 62
     4
370
    -2
100
AcDbLine
 10
1401.710703114757
 20
636.1325608871746
 30
0.0
 11
1419.710703114757
 21
636.1325608871746
 31
0.0
  0
INSERT
  5
65A6
330
619C
100
AcDbEntity
  8
寸法
  6
Continuous
 62
     4
370
    -2
100
AcDbBlockReference
  2
_Dot
 10
1400.710703114757
 20
636.1325608871746
 30
0.0
 50
180.0
  0
INSERT
  5
65A7
330
619C
100
AcDbEntity
  8
寸法
  6
Continuous
 62
     4
370
    -2
100
AcDbBlockReference
  2
_Dot
 10
1420.710703114757
 20
636.1325608871746
 30
0.0
  0
MTEXT
  5
65A8
330
619C
100
AcDbEntity
  8
寸法
  6
Continuous
 62
     3
100
AcDbMText
 10
1410.710703114757
 20
638.6325608871747
 30
0.0
 40
3.0
 41
0.0
 71
     5
 72
     1
  1
\A1;20
  7
ACAD
 73
     1
 44
1.0
1001
ACAD
1000
MTEXTBEGIN
1070
    73
1070
     1
1070
    44
1040
1.0
1070
    74
1070
     0
1000
MTEXTEND
  0
POINT
  5
65A9
330
619C
100
AcDbEntity
  8
Defpoints
  6
Continuous
 62
     0
100
AcDbPoint
 10
1400.710703114757
 20
645.5007578871747
 30
0.0
  0
POINT
  5
65AA
330
619C
100
AcDbEntity
  8
Defpoints
  6
Continuous
 62
     0
100
AcDbPoint
 10
1420.710703114757
 20
645.5007578871747
 30
0.0
  0
POINT
  5
65AB
330
619C
100
AcDbEntity
  8
Defpoints
  6
Continuous
 62
     0
100
AcDbPoint
 10
1420.710703114757
 20
636.1325608871746
 30
0.0
  0
ENDBLK
  5
61A7
330
619C
100
AcDbEntity
  8
0
100
AcDbBlockEnd
  0
BLOCK
  5
61B3
330
61A9
100
AcDbEntity
  8
0
100
AcDbBlockBegin
  2
*D15
 70
     1
 10
0.0
 20
0.0
 30
0.0
  3
*D15
  1

  0
LINE
  5
65AC
330
61A9
100
AcDbEntity
  8
寸法
  6
Continuous
 62
     4
370
    -2
100
AcDbLine
 10
1420.710703114757
 20
645.5007578871747
 30
0.0
 11
1420.710703114757
 21
636.1325608871746
 31
0.0
  0
LINE
  5
65AD
330
61A9
100
AcDbEntity
  8
寸法
  6
Continuous
 62
     4
370
    -2
100
AcDbLine
 10
1440.710703114757
 20
645.8134818871747
 30
0.0
 11
1440.710703114757
 21
636.1325608871746
 31
0.0
  0
LINE
  5
65AE
330
61A9
100
AcDbEntity
  8
寸法
  6
Continuous
 62
     4
370
    -2
100
AcDbLine
 10
1421.710703114757
 20
636.1325608871746
 30
0.0
 11
1439.710703114757
 21
636.1325608871746
 31
0.0
  0
INSERT
  5
65AF
330
61A9
100
AcDbEntity
  8
寸法
  6
Continuous
 62
     4
370
    -2
100
AcDbBlockReference
  2
_Dot
 10
1420.710703114757
 20
636.1325608871746
 30
0.0
 50
180.0
  0
INSERT
  5
65B0
330
61A9
100
AcDbEntity
  8
寸法
  6
Continuous
 62
     4
370
    -2
100
AcDbBlockReference
  2
_Dot
 10
1440.710703114757
 20
636.1325608871746
 30
0.0
  0
MTEXT
  5
65B1
330
61A9
100
AcDbEntity
  8
寸法
  6
Continuous
 62
     3
100
AcDbMText
 10
1430.710703114757
 20
638.6325608871747
 30
0.0
 40
3.0
 41
0.0
 71
     5
 72
     1
  1
\A1;20
  7
ACAD
 73
     1
 44
1.0
1001
ACAD
1000
MTEXTBEGIN
1070
    73
1070
     1
1070
    44
1040
1.0
1070
    74
1070
     0
1000
MTEXTEND
  0
POINT
  5
65B2
330
61A9
100
AcDbEntity
  8
Defpoints
  6
Continuous
 62
     0
100
AcDbPoint
 10
1420.710703114757
 20
645.5007578871747
 30
0.0
  0
POINT
  5
65B3
330
61A9
100
AcDbEntity
  8
Defpoints
  6
Continuous
 62
     0
100
AcDbPoint
 10
1440.710703114757
 20
645.8134818871747
 30
0.0
  0
POINT
  5
65B4
330
61A9
100
AcDbEntity
  8
Defpoints
  6
Continuous
 62
     0
100
AcDbPoint
 10
1440.710703114757
 20
636.1325608871746
 30
0.0
  0
ENDBLK
  5
61B4
330
61A9
100
AcDbEntity
  8
0
100
AcDbBlockEnd
  0
BLOCK
  5
61C0
330
61B6
100
AcDbEntity
  8
0
100
AcDbBlockBegin
  2
*D16
 70
     1
 10
0.0
 20
0.0
 30
0.0
  3
*D16
  1

  0
LINE
  5
65B5
330
61B6
100
AcDbEntity
  8
寸法
  6
Continuous
 62
     4
370
    -2
100
AcDbLine
 10
1440.710703114757
 20
645.8134818871747
 30
0.0
 11
1440.710703114757
 21
628.2507488871747
 31
0.0
  0
LINE
  5
65B6
330
61B6
100
AcDbEntity
  8
寸法
  6
Continuous
 62
     4
370
    -2
100
AcDbLine
 10
1460.710703114757
 20
645.9535278871746
 30
0.0
 11
1460.710703114757
 21
628.2507488871747
 31
0.0
  0
LINE
  5
65B7
330
61B6
100
AcDbEntity
  8
寸法
  6
Continuous
 62
     4
370
    -2
100
AcDbLine
 10
1441.710703114757
 20
628.2507488871747
 30
0.0
 11
1459.710703114757
 21
628.2507488871747
 31
0.0
  0
INSERT
  5
65B8
330
61B6
100
AcDbEntity
  8
寸法
  6
Continuous
 62
     4
370
    -2
100
AcDbBlockReference
  2
_Dot
 10
1440.710703114757
 20
628.2507488871747
 30
0.0
 50
180.0
  0
INSERT
  5
65B9
330
61B6
100
AcDbEntity
  8
寸法
  6
Continuous
 62
     4
370
    -2
100
AcDbBlockReference
  2
_Dot
 10
1460.710703114757
 20
628.2507488871747
 30
0.0
  0
MTEXT
  5
65BA
330
61B6
100
AcDbEntity
  8
寸法
  6
Continuous
 62
     3
100
AcDbMText
 10
1450.710703114757
 20
630.7507488871747
 30
0.0
 40
3.0
 41
0.0
 71
     5
 72
     1
  1
\A1;20
  7
ACAD
 73
     1
 44
1.0
1001
ACAD
1000
MTEXTBEGIN
1070
    73
1070
     1
1070
    44
1040
1.0
1070
    74
1070
     0
1000
MTEXTEND
  0
POINT
  5
65BB
330
61B6
100
AcDbEntity
  8
Defpoints
  6
Continuous
 62
     0
100
AcDbPoint
 10
1440.710703114757
 20
645.8134818871747
 30
0.0
  0
POINT
  5
65BC
330
61B6
100
AcDbEntity
  8
Defpoints
  6
Continuous
 62
     0
100
AcDbPoint
 10
1460.710703114757
 20
645.9535278871746
 30
0.0
  0
POINT
  5
65BD
330
61B6
100
AcDbEntity
  8
Defpoints
  6
Continuous
 62
     0
100
AcDbPoint
 10
1460.710703114757
 20
628.2507488871747
 30
0.0
  0
ENDBLK
  5
61C1
330
61B6
100
AcDbEntity
  8
0
100
AcDbBlockEnd
  0
BLOCK
  5
61CD
330
61C3
100
AcDbEntity
  8
0
100
AcDbBlockBegin
  2
*D17
 70
     1
 10
0.0
 20
0.0
 30
0.0
  3
*D17
  1

  0
LINE
  5
65BE
330
61C3
100
AcDbEntity
  8
寸法
  6
Continuous
 62
     4
370
    -2
100
AcDbLine
 10
1440.710703114757
 20
645.8134818871747
 30
0.0
 11
1440.710703114757
 21
628.2507488871747
 31
0.0
  0
LINE
  5
65BF
330
61C3
100
AcDbEntity
  8
寸法
  6
Continuous
 62
     4
370
    -2
100
AcDbLine
 10
1340.710703114757
 20
646.2513688871747
 30
0.0
 11
1340.710703114757
 21
628.2507488871747
 31
0.0
  0
LINE
  5
65C0
330
61C3
100
AcDbEntity
  8
寸法
  6
Continuous
 62
     4
370
    -2
100
AcDbLine
 10
1439.710703114757
 20
628.2507488871747
 30
0.0
 11
1341.710703114757
 21
628.2507488871747
 31
0.0
  0
INSERT
  5
65C1
330
61C3
100
AcDbEntity
  8
寸法
  6
Continuous
 62
     4
370
    -2
100
AcDbBlockReference
  2
_Dot
 10
1440.710703114757
 20
628.2507488871747
 30
0.0
  0
INSERT
  5
65C2
330
61C3
100
AcDbEntity
  8
寸法
  6
Continuous
 62
     4
370
    -2
100
AcDbBlockReference
  2
_Dot
 10
1340.710703114757
 20
628.2507488871747
 30
0.0
 50
180.0
  0
MTEXT
  5
65C3
330
61C3
100
AcDbEntity
  8
寸法
  6
Continuous
 62
     3
100
AcDbMText
 10
1390.710703114757
 20
630.7507488871747
 30
0.0
 40
3.0
 41
0.0
 71
     5
 72
     1
  1
\A1;100
  7
ACAD
 73
     1
 44
1.0
1001
ACAD
1000
MTEXTBEGIN
1070
    73
1070
     1
1070
    44
1040
1.0
1070
    74
1070
     0
1000
MTEXTEND
  0
POINT
  5
65C4
330
61C3
100
AcDbEntity
  8
Defpoints
  6
Continuous
 62
     0
100
AcDbPoint
 10
1440.710703114757
 20
645.8134818871747
 30
0.0
  0
POINT
  5
65C5
330
61C3
100
AcDbEntity
  8
Defpoints
  6
Continuous
 62
     0
100
AcDbPoint
 10
1340.710703114757
 20
646.2513688871747
 30
0.0
  0
POINT
  5
65C6
330
61C3
100
AcDbEntity
  8
Defpoints
  6
Continuous
 62
     0
100
AcDbPoint
 10
1340.710703114757
 20
628.2507488871747
 30
0.0
  0
ENDBLK
  5
61CE
330
61C3
100
AcDbEntity
  8
0
100
AcDbBlockEnd
  0
BLOCK
  5
61DA
330
61D0
100
AcDbEntity
  8
0
100
AcDbBlockBegin
  2
*D18
 70
     1
 10
0.0
 20
0.0
 30
0.0
  3
*D18
  1

  0
LINE
  5
65C7
330
61D0
100
AcDbEntity
  8
寸法
  6
Continuous
 62
     4
370
    -2
100
AcDbLine
 10
1433.310703114757
 20
663.1221248871746
 30
0.0
 11
1433.310703114757
 21
674.5452318871747
 31
0.0
  0
LINE
  5
65C8
330
61D0
100
AcDbEntity
  8
寸法
  6
Continuous
 62
     4
370
    -2
100
AcDbLine
 10
1441.310703114757
 20
660.0664688871748
 30
0.0
 11
1441.310703114757
 21
674.5452318871747
 31
0.0
  0
LINE
  5
65C9
330
61D0
100
AcDbEntity
  8
寸法
  6
Continuous
 62
     4
370
    -2
100
AcDbLine
 10
1434.310703114757
 20
674.5452318871747
 30
0.0
 11
1440.310703114757
 21
674.5452318871747
 31
0.0
  0
INSERT
  5
65CA
330
61D0
100
AcDbEntity
  8
寸法
  6
Continuous
 62
     4
370
    -2
100
AcDbBlockReference
  2
_Dot
 10
1433.310703114757
 20
674.5452318871747
 30
0.0
 50
180.0
  0
INSERT
  5
65CB
330
61D0
100
AcDbEntity
  8
寸法
  6
Continuous
 62
     4
370
    -2
100
AcDbBlockReference
  2
_Dot
 10
1441.310703114757
 20
674.5452318871747
 30
0.0
  0
MTEXT
  5
65CC
330
61D0
100
AcDbEntity
  8
寸法
  6
Continuous
 62
     3
100
AcDbMText
 10
1437.310703114757
 20
677.0452318871747
 30
0.0
 40
3.0
 41
0.0
 71
     5
 72
     1
  1
\A1;8
  7
ACAD
 73
     1
 44
1.0
1001
ACAD
1000
MTEXTBEGIN
1070
    73
1070
     1
1070
    44
1040
1.0
1070
    74
1070
     0
1000
MTEXTEND
  0
POINT
  5
65CD
330
61D0
100
AcDbEntity
  8
Defpoints
  6
Continuous
 62
     0
100
AcDbPoint
 10
1433.310703114757
 20
663.1221248871746
 30
0.0
  0
POINT
  5
65CE
330
61D0
100
AcDbEntity
  8
Defpoints
  6
Continuous
 62
     0
100
AcDbPoint
 10
1441.310703114757
 20
660.0664688871748
 30
0.0
  0
POINT
  5
65CF
330
61D0
100
AcDbEntity
  8
Defpoints
  6
Continuous
 62
     0
100
AcDbPoint
 10
1441.310703114757
 20
674.5452318871747
 30
0.0
  0
ENDBLK
  5
61DB
330
61D0
100
AcDbEntity
  8
0
100
AcDbBlockEnd
  0
BLOCK
  5
61E7
330
61DD
100
AcDbEntity
  8
0
100
AcDbBlockBegin
  2
*D19
 70
     1
 10
0.0
 20
0.0
 30
0.0
  3
*D19
  1

  0
LINE
  5
65D0
330
61DD
100
AcDbEntity
  8
寸法
  6
Continuous
 62
     4
370
    -2
100
AcDbLine
 10
1441.310703114757
 20
660.0664688871748
 30
0.0
 11
1441.310703114757
 21
674.5452318871747
 31
0.0
  0
LINE
  5
65D1
330
61DD
100
AcDbEntity
  8
寸法
  6
Continuous
 62
     4
370
    -2
100
AcDbLine
 10
1453.310703114757
 20
663.0948708871747
 30
0.0
 11
1453.310703114757
 21
674.5452318871747
 31
0.0
  0
LINE
  5
65D2
330
61DD
100
AcDbEntity
  8
寸法
  6
Continuous
 62
     4
370
    -2
100
AcDbLine
 10
1442.310703114757
 20
674.5452318871747
 30
0.0
 11
1452.310703114757
 21
674.5452318871747
 31
0.0
  0
INSERT
  5
65D3
330
61DD
100
AcDbEntity
  8
寸法
  6
Continuous
 62
     4
370
    -2
100
AcDbBlockReference
  2
_Dot
 10
1441.310703114757
 20
674.5452318871747
 30
0.0
 50
180.0
  0
INSERT
  5
65D4
330
61DD
100
AcDbEntity
  8
寸法
  6
Continuous
 62
     4
370
    -2
100
AcDbBlockReference
  2
_Dot
 10
1453.310703114757
 20
674.5452318871747
 30
0.0
  0
MTEXT
  5
65D5
330
61DD
100
AcDbEntity
  8
寸法
  6
Continuous
 62
     3
100
AcDbMText
 10
1447.310703114757
 20
677.0452318871747
 30
0.0
 40
3.0
 41
0.0
 71
     5
 72
     1
  1
\A1;12
  7
ACAD
 73
     1
 44
1.0
1001
ACAD
1000
MTEXTBEGIN
1070
    73
1070
     1
1070
    44
1040
1.0
1070
    74
1070
     0
1000
MTEXTEND
  0
POINT
  5
65D6
330
61DD
100
AcDbEntity
  8
Defpoints
  6
Continuous
 62
     0
100
AcDbPoint
 10
1441.310703114757
 20
660.0664688871748
 30
0.0
  0
POINT
  5
65D7
330
61DD
100
AcDbEntity
  8
Defpoints
  6
Continuous
 62
     0
100
AcDbPoint
 10
1453.310703114757
 20
663.0948708871747
 30
0.0
  0
POINT
  5
65D8
330
61DD
100
AcDbEntity
  8
Defpoints
  6
Continuous
 62
     0
100
AcDbPoint
 10
1453.310703114757
 20
674.5452318871747
 30
0.0
  0
ENDBLK
  5
61E8
330
61DD
100
AcDbEntity
  8
0
100
AcDbBlockEnd
  0
BLOCK
  5
61F2
330
61EA
100
AcDbEntity
  8
0
100
AcDbBlockBegin
  2
*D20
 70
     1
 10
0.0
 20
0.0
 30
0.0
  3
*D20
  1

  0
LINE
  5
6765
330
61EA
100
AcDbEntity
  8
寸法
  6
Continuous
 62
     4
370
    -2
100
AcDbLine
 10
1448.610703114757
 20
668.9575698871747
 30
0.0
 11
1452.310703114757
 21
668.9575698871747
 31
0.0
  0
INSERT
  5
6766
330
61EA
100
AcDbEntity
  8
寸法
  6
Continuous
 62
     4
370
    -2
100
AcDbBlockReference
  2
_Dot
 10
1447.610703114757
 20
668.9575698871747
 30
0.0
 50
180.0
  0
INSERT
  5
6767
330
61EA
100
AcDbEntity
  8
寸法
  6
Continuous
 62
     4
370
    -2
100
AcDbBlockReference
  2
_Dot
 10
1453.310703114757
 20
668.9575698871747
 30
0.0
  0
MTEXT
  5
6768
330
61EA
100
AcDbEntity
  8
寸法
  6
Continuous
 62
     3
100
AcDbMText
 10
1450.460703114757
 20
671.4575698871747
 30
0.0
 40
3.0
 41
0.0
 71
     5
 72
     1
  1
\A1;5.7
  7
ACAD
 73
     1
 44
1.0
1001
ACAD
1000
MTEXTBEGIN
1070
    73
1070
     1
1070
    44
1040
1.0
1070
    74
1070
     0
1000
MTEXTEND
  0
POINT
  5
6769
330
61EA
100
AcDbEntity
  8
Defpoints
  6
Continuous
 62
     0
100
AcDbPoint
 10
1447.610703114757
 20
668.9575698871747
 30
0.0
  0
POINT
  5
676A
330
61EA
100
AcDbEntity
  8
Defpoints
  6
Continuous
 62
     0
100
AcDbPoint
 10
1453.310703114757
 20
668.9575698871747
 30
0.0
  0
POINT
  5
676B
330
61EA
100
AcDbEntity
  8
Defpoints
  6
Continuous
 62
     0
100
AcDbPoint
 10
1453.310703114757
 20
668.9575698871747
 30
0.0
  0
ENDBLK
  5
61F3
330
61EA
100
AcDbEntity
  8
0
100
AcDbBlockEnd
  0
BLOCK
  5
6207
330
61FD
100
AcDbEntity
  8
0
100
AcDbBlockBegin
  2
*D21
 70
     1
 10
0.0
 20
0.0
 30
0.0
  3
*D21
  1

  0
LINE
  5
65E1
330
61FD
100
AcDbEntity
  8
寸法
  6
Continuous
 62
     4
370
    -2
100
AcDbLine
 10
1433.310703114757
 20
663.1221248871746
 30
0.0
 11
1433.310703114757
 21
679.8325608871747
 31
0.0
  0
LINE
  5
65E2
330
61FD
100
AcDbEntity
  8
寸法
  6
Continuous
 62
     4
370
    -2
100
AcDbLine
 10
1453.310703114757
 20
663.0948708871747
 30
0.0
 11
1453.310703114757
 21
679.8325608871747
 31
0.0
  0
LINE
  5
65E3
330
61FD
100
AcDbEntity
  8
寸法
  6
Continuous
 62
     4
370
    -2
100
AcDbLine
 10
1434.310703114757
 20
679.8325608871747
 30
0.0
 11
1452.310703114757
 21
679.8325608871747
 31
0.0
  0
INSERT
  5
65E4
330
61FD
100
AcDbEntity
  8
寸法
  6
Continuous
 62
     4
370
    -2
100
AcDbBlockReference
  2
_Dot
 10
1433.310703114757
 20
679.8325608871747
 30
0.0
 50
180.0
  0
INSERT
  5
65E5
330
61FD
100
AcDbEntity
  8
寸法
  6
Continuous
 62
     4
370
    -2
100
AcDbBlockReference
  2
_Dot
 10
1453.310703114757
 20
679.8325608871747
 30
0.0
  0
MTEXT
  5
65E6
330
61FD
100
AcDbEntity
  8
寸法
  6
Continuous
 62
     3
100
AcDbMText
 10
1443.310703114757
 20
682.3325608871747
 30
0.0
 40
3.0
 41
0.0
 71
     5
 72
     1
  1
\A1;20
  7
ACAD
 73
     1
 44
1.0
1001
ACAD
1000
MTEXTBEGIN
1070
    73
1070
     1
1070
    44
1040
1.0
1070
    74
1070
     0
1000
MTEXTEND
  0
POINT
  5
65E7
330
61FD
100
AcDbEntity
  8
Defpoints
  6
Continuous
 62
     0
100
AcDbPoint
 10
1433.310703114757
 20
663.1221248871746
 30
0.0
  0
POINT
  5
65E8
330
61FD
100
AcDbEntity
  8
Defpoints
  6
Continuous
 62
     0
100
AcDbPoint
 10
1453.310703114757
 20
663.0948708871747
 30
0.0
  0
POINT
  5
65E9
330
61FD
100
AcDbEntity
  8
Defpoints
  6
Continuous
 62
     0
100
AcDbPoint
 10
1453.310703114757
 20
679.8325608871747
 30
0.0
  0
ENDBLK
  5
6208
330
61FD
100
AcDbEntity
  8
0
100
AcDbBlockEnd
  0
BLOCK
  5
6215
330
620A
100
AcDbEntity
  8
0
100
AcDbBlockBegin
  2
*D22
 70
     1
 10
0.0
 20
0.0
 30
0.0
  3
*D22
  1

  0
LINE
  5
65EA
330
620A
100
AcDbEntity
  8
寸法
  6
Continuous
 62
     4
370
    -2
100
AcDbLine
 10
1433.310703114757
 20
663.1221248871746
 30
0.0
 11
1433.310703114757
 21
668.9575698871747
 31
0.0
  0
LINE
  5
65EB
330
620A
100
AcDbEntity
  8
寸法
  6
Continuous
 62
     4
370
    -2
100
AcDbLine
 10
1435.942553042524
 20
663.9590163755964
 30
0.0
 11
1435.942553042524
 21
668.9575698871747
 31
0.0
  0
LINE
  5
65EC
330
620A
100
AcDbEntity
  8
寸法
  6
Continuous
 62
     4
370
    -2
100
AcDbLine
 10
1432.310703114757
 20
668.9575698871747
 30
0.0
 11
1431.310703114757
 21
668.9575698871747
 31
0.0
  0
LINE
  5
65ED
330
620A
100
AcDbEntity
  8
寸法
  6
Continuous
 62
     4
370
    -2
100
AcDbLine
 10
1436.942553042525
 20
668.9575698871747
 30
0.0
 11
1437.942553042524
 21
668.9575698871747
 31
0.0
  0
INSERT
  5
65EE
330
620A
100
AcDbEntity
  8
寸法
  6
Continuous
 62
     4
370
    -2
100
AcDbBlockReference
  2
_Dot
 10
1433.310703114757
 20
668.9575698871747
 30
0.0
  0
INSERT
  5
65EF
330
620A
100
AcDbEntity
  8
寸法
  6
Continuous
 62
     4
370
    -2
100
AcDbBlockReference
  2
_Dot
 10
1435.942553042524
 20
668.9575698871747
 30
0.0
 50
180.0
  0
MTEXT
  5
65F0
330
620A
100
AcDbEntity
  8
寸法
  6
Continuous
 62
     3
100
AcDbMText
 10
1434.626628078641
 20
672.243284172889
 30
0.0
 40
3.0
 41
0.0
 71
     5
 72
     1
  1
\A1;(2)
  7
ACAD
 73
     1
 44
1.0
1001
ACAD
1000
MTEXTBEGIN
1070
    73
1070
     1
1070
    44
1040
1.0
1070
    74
1070
     0
1000
MTEXTEND
  0
POINT
  5
65F1
330
620A
100
AcDbEntity
  8
Defpoints
  6
Continuous
 62
     0
100
AcDbPoint
 10
1433.310703114757
 20
663.1221248871746
 30
0.0
  0
POINT
  5
65F2
330
620A
100
AcDbEntity
  8
Defpoints
  6
Continuous
 62
     0
100
AcDbPoint
 10
1435.942553042524
 20
663.9590163755964
 30
0.0
  0
POINT
  5
65F3
330
620A
100
AcDbEntity
  8
Defpoints
  6
Continuous
 62
     0
100
AcDbPoint
 10
1435.942553042524
 20
668.9575698871747
 30
0.0
  0
ENDBLK
  5
6216
330
620A
100
AcDbEntity
  8
0
100
AcDbBlockEnd
  0
BLOCK
  5
622D
330
6222
100
AcDbEntity
  8
0
100
AcDbBlockBegin
  2
*D23
 70
     1
 10
0.0
 20
0.0
 30
0.0
  3
*D23
  1

  0
LINE
  5
65F4
330
6222
100
AcDbEntity
  8
寸法
  6
Continuous
 62
     4
370
    -2
100
AcDbLine
 10
1454.711878114757
 20
659.1325608871748
 30
0.0
 11
1457.924047114757
 21
659.1325608871748
 31
0.0
  0
LINE
  5
65F5
330
6222
100
AcDbEntity
  8
寸法
  6
Continuous
 62
     4
370
    -2
100
AcDbLine
 10
1454.867885114757
 20
662.1325608871748
 30
0.0
 11
1457.924047114757
 21
662.1325608871748
 31
0.0
  0
LINE
  5
65F6
330
6222
100
AcDbEntity
  8
寸法
  6
Continuous
 62
     4
370
    -2
100
AcDbLine
 10
1457.924047114757
 20
658.1325608871748
 30
0.0
 11
1457.924047114757
 21
657.1325608871748
 31
0.0
  0
LINE
  5
65F7
330
6222
100
AcDbEntity
  8
寸法
  6
Continuous
 62
     4
370
    -2
100
AcDbLine
 10
1457.924047114757
 20
663.1325608871748
 30
0.0
 11
1457.924047114757
 21
664.1325608871747
 31
0.0
  0
INSERT
  5
65F8
330
6222
100
AcDbEntity
  8
寸法
  6
Continuous
 62
     4
370
    -2
100
AcDbBlockReference
  2
_Dot
 10
1457.924047114757
 20
659.1325608871748
 30
0.0
 50
90.0
  0
INSERT
  5
65F9
330
6222
100
AcDbEntity
  8
寸法
  6
Continuous
 62
     4
370
    -2
100
AcDbBlockReference
  2
_Dot
 10
1457.924047114757
 20
662.1325608871748
 30
0.0
 50
270.0
  0
MTEXT
  5
65FA
330
6222
100
AcDbEntity
  8
寸法
  6
Continuous
 62
     3
100
AcDbMText
 10
1455.424047114757
 20
660.632560887175
 30
0.0
 40
3.0
 41
0.0
 71
     5
 72
     1
  1
\A1;3
  7
ACAD
 11
0.0000000000000001
 21
1.0
 31
0.0
 73
     1
 44
1.0
1001
ACAD
1000
MTEXTBEGIN
1070
    73
1070
     1
1070
    44
1040
1.0
1070
    74
1070
     0
1000
MTEXTEND
  0
POINT
  5
65FB
330
6222
100
AcDbEntity
  8
Defpoints
  6
Continuous
 62
     0
100
AcDbPoint
 10
1454.711878114757
 20
659.1325608871748
 30
0.0
  0
POINT
  5
65FC
330
6222
100
AcDbEntity
  8
Defpoints
  6
Continuous
 62
     0
100
AcDbPoint
 10
1454.867885114757
 20
662.1325608871748
 30
0.0
  0
POINT
  5
65FD
330
6222
100
AcDbEntity
  8
Defpoints
  6
Continuous
 62
     0
100
AcDbPoint
 10
1457.924047114757
 20
662.1325608871748
 30
0.0
  0
ENDBLK
  5
622E
330
6222
100
AcDbEntity
  8
0
100
AcDbBlockEnd
  0
BLOCK
  5
623A
330
6230
100
AcDbEntity
  8
0
100
AcDbBlockBegin
  2
*D24
 70
     1
 10
0.0
 20
0.0
 30
0.0
  3
*D24
  1

  0
LINE
  5
65FE
330
6230
100
AcDbEntity
  8
寸法
  6
Continuous
 62
     4
370
    -2
100
AcDbLine
 10
1317.310703114757
 20
559.1325608871747
 30
0.0
 11
1301.867046114757
 21
559.1325608871747
 31
0.0
  0
LINE
  5
65FF
330
6230
100
AcDbEntity
  8
寸法
  6
Continuous
 62
     4
370
    -2
100
AcDbLine
 10
1321.019293114757
 20
567.1325608871747
 30
0.0
 11
1301.867046114757
 21
567.1325608871747
 31
0.0
  0
LINE
  5
6600
330
6230
100
AcDbEntity
  8
寸法
  6
Continuous
 62
     4
370
    -2
100
AcDbLine
 10
1301.867046114757
 20
560.1325608871746
 30
0.0
 11
1301.867046114757
 21
566.1325608871747
 31
0.0
  0
INSERT
  5
6601
330
6230
100
AcDbEntity
  8
寸法
  6
Continuous
 62
     4
370
    -2
100
AcDbBlockReference
  2
_Dot
 10
1301.867046114757
 20
559.1325608871747
 30
0.0
 50
270.0
  0
INSERT
  5
6602
330
6230
100
AcDbEntity
  8
寸法
  6
Continuous
 62
     4
370
    -2
100
AcDbBlockReference
  2
_Dot
 10
1301.867046114757
 20
567.1325608871747
 30
0.0
 50
90.0
  0
MTEXT
  5
6603
330
6230
100
AcDbEntity
  8
寸法
  6
Continuous
 62
     3
100
AcDbMText
 10
1299.367046114757
 20
563.1325608871748
 30
0.0
 40
3.0
 41
0.0
 71
     5
 72
     1
  1
\A1;8
  7
ACAD
 11
0.0000000000000001
 21
1.0
 31
0.0
 73
     1
 44
1.0
1001
ACAD
1000
MTEXTBEGIN
1070
    73
1070
     1
1070
    44
1040
1.0
1070
    74
1070
     0
1000
MTEXTEND
  0
POINT
  5
6604
330
6230
100
AcDbEntity
  8
Defpoints
  6
Continuous
 62
     0
100
AcDbPoint
 10
1317.310703114757
 20
559.1325608871747
 30
0.0
  0
POINT
  5
6605
330
6230
100
AcDbEntity
  8
Defpoints
  6
Continuous
 62
     0
100
AcDbPoint
 10
1321.019293114757
 20
567.1325608871747
 30
0.0
  0
POINT
  5
6606
330
6230
100
AcDbEntity
  8
Defpoints
  6
Continuous
 62
     0
100
AcDbPoint
 10
1301.867046114757
 20
567.1325608871747
 30
0.0
  0
ENDBLK
  5
623B
330
6230
100
AcDbEntity
  8
0
100
AcDbBlockEnd
  0
BLOCK
  5
6248
330
623D
100
AcDbEntity
  8
0
100
AcDbBlockBegin
  2
*D25
 70
     1
 10
0.0
 20
0.0
 30
0.0
  3
*D25
  1

  0
LINE
  5
6786
330
623D
100
AcDbEntity
  8
寸法
  6
Continuous
 62
     4
370
    -2
100
AcDbLine
 10
1321.019293114757
 20
567.1325608871747
 30
0.0
 11
1301.867046114757
 21
567.1325608871747
 31
0.0
  0
LINE
  5
6787
330
623D
100
AcDbEntity
  8
寸法
  6
Continuous
 62
     4
370
    -2
100
AcDbLine
 10
1313.501015114757
 20
571.1325608871747
 30
0.0
 11
1301.867046114757
 21
571.1325608871747
 31
0.0
  0
LINE
  5
6788
330
623D
100
AcDbEntity
  8
寸法
  6
Continuous
 62
     4
370
    -2
100
AcDbLine
 10
1301.867046114757
 20
568.1325608871746
 30
0.0
 11
1301.867046114757
 21
570.1325608871747
 31
0.0
  0
INSERT
  5
6789
330
623D
100
AcDbEntity
  8
寸法
  6
Continuous
 62
     4
370
    -2
100
AcDbBlockReference
  2
_Dot
 10
1301.867046114757
 20
567.1325608871747
 30
0.0
 50
270.0
  0
INSERT
  5
678A
330
623D
100
AcDbEntity
  8
寸法
  6
Continuous
 62
     4
370
    -2
100
AcDbBlockReference
  2
_Dot
 10
1301.867046114757
 20
571.1325608871747
 30
0.0
 50
90.0
  0
MTEXT
  5
678B
330
623D
100
AcDbEntity
  8
寸法
  6
Continuous
 62
     3
100
AcDbMText
 10
1299.367046114757
 20
569.0108201348833
 30
0.0
 40
3.0
 41
0.0
 71
     5
 72
     1
  1
\A1;4
  7
ACAD
 11
0.0000000000000001
 21
1.0
 31
0.0
 73
     1
 44
1.0
1001
ACAD
1000
MTEXTBEGIN
1070
    73
1070
     1
1070
    44
1040
1.0
1070
    74
1070
     0
1000
MTEXTEND
  0
POINT
  5
678C
330
623D
100
AcDbEntity
  8
Defpoints
  6
Continuous
 62
     0
100
AcDbPoint
 10
1321.019293114757
 20
567.1325608871747
 30
0.0
  0
POINT
  5
678D
330
623D
100
AcDbEntity
  8
Defpoints
  6
Continuous
 62
     0
100
AcDbPoint
 10
1313.501015114757
 20
571.1325608871747
 30
0.0
  0
POINT
  5
678E
330
623D
100
AcDbEntity
  8
Defpoints
  6
Continuous
 62
     0
100
AcDbPoint
 10
1301.867046114757
 20
571.1325608871747
 30
0.0
  0
ENDBLK
  5
6249
330
623D
100
AcDbEntity
  8
0
100
AcDbBlockEnd
  0
BLOCK
  5
6256
330
624B
100
AcDbEntity
  8
0
100
AcDbBlockBegin
  2
*D26
 70
     1
 10
0.0
 20
0.0
 30
0.0
  3
*D26
  1

  0
LINE
  5
6611
330
624B
100
AcDbEntity
  8
寸法
  6
Continuous
 62
     4
370
    -2
100
AcDbLine
 10
1321.019293114757
 20
567.1325608871747
 30
0.0
 11
1308.756096114757
 21
567.1325608871747
 31
0.0
  0
LINE
  5
6612
330
624B
100
AcDbEntity
  8
寸法
  6
Continuous
 62
     4
370
    -2
100
AcDbLine
 10
1313.033608114757
 20
568.6325608871746
 30
0.0
 11
1308.756096114757
 21
568.6325608871746
 31
0.0
  0
LINE
  5
6613
330
624B
100
AcDbEntity
  8
寸法
  6
Continuous
 62
     4
370
    -2
100
AcDbLine
 10
1308.756096114757
 20
566.1325608871747
 30
0.0
 11
1308.756096114757
 21
565.1325608871746
 31
0.0
  0
LINE
  5
6614
330
624B
100
AcDbEntity
  8
寸法
  6
Continuous
 62
     4
370
    -2
100
AcDbLine
 10
1308.756096114757
 20
569.6325608871746
 30
0.0
 11
1308.756096114757
 21
570.6325608871747
 31
0.0
  0
INSERT
  5
6615
330
624B
100
AcDbEntity
  8
寸法
  6
Continuous
 62
     4
370
    -2
100
AcDbBlockReference
  2
_Dot
 10
1308.756096114757
 20
567.1325608871747
 30
0.0
 50
90.0
  0
INSERT
  5
6616
330
624B
100
AcDbEntity
  8
寸法
  6
Continuous
 62
     4
370
    -2
100
AcDbBlockReference
  2
_Dot
 10
1308.756096114757
 20
568.6325608871746
 30
0.0
 50
270.0
  0
MTEXT
  5
6617
330
624B
100
AcDbEntity
  8
寸法
  6
Continuous
 62
     3
100
AcDbMText
 10
1306.256096114757
 20
567.8825608871749
 30
0.0
 40
3.0
 41
0.0
 71
     5
 72
     1
  1
\A1;1.5
  7
ACAD
 11
0.0000000000000001
 21
1.0
 31
0.0
 73
     1
 44
1.0
1001
ACAD
1000
MTEXTBEGIN
1070
    73
1070
     1
1070
    44
1040
1.0
1070
    74
1070
     0
1000
MTEXTEND
  0
POINT
  5
6618
330
624B
100
AcDbEntity
  8
Defpoints
  6
Continuous
 62
     0
100
AcDbPoint
 10
1321.019293114757
 20
567.1325608871747
 30
0.0
  0
POINT
  5
6619
330
624B
100
AcDbEntity
  8
Defpoints
  6
Continuous
 62
     0
100
AcDbPoint
 10
1313.033608114757
 20
568.6325608871746
 30
0.0
  0
POINT
  5
661A
330
624B
100
AcDbEntity
  8
Defpoints
  6
Continuous
 62
     0
100
AcDbPoint
 10
1308.756096114757
 20
568.6325608871746
 30
0.0
  0
ENDBLK
  5
6257
330
624B
100
AcDbEntity
  8
0
100
AcDbBlockEnd
  0
BLOCK
  5
626D
330
6263
100
AcDbEntity
  8
0
100
AcDbBlockBegin
  2
*D27
 70
     1
 10
0.0
 20
0.0
 30
0.0
  3
*D27
  1

  0
LINE
  5
661B
330
6263
100
AcDbEntity
  8
寸法
  6
Continuous
 62
     4
370
    -2
100
AcDbLine
 10
1315.310703114757
 20
564.1325608871746
 30
0.0
 11
1315.310703114757
 21
553.7849698871747
 31
0.0
  0
LINE
  5
661C
330
6263
100
AcDbEntity
  8
寸法
  6
Continuous
 62
     4
370
    -2
100
AcDbLine
 10
1322.310703114757
 20
564.7659448871747
 30
0.0
 11
1322.310703114757
 21
553.7849698871747
 31
0.0
  0
LINE
  5
661D
330
6263
100
AcDbEntity
  8
寸法
  6
Continuous
 62
     4
370
    -2
100
AcDbLine
 10
1316.310703114757
 20
553.7849698871747
 30
0.0
 11
1321.310703114757
 21
553.7849698871747
 31
0.0
  0
INSERT
  5
661E
330
6263
100
AcDbEntity
  8
寸法
  6
Continuous
 62
     4
370
    -2
100
AcDbBlockReference
  2
_Dot
 10
1315.310703114757
 20
553.7849698871747
 30
0.0
 50
180.0
  0
INSERT
  5
661F
330
6263
100
AcDbEntity
  8
寸法
  6
Continuous
 62
     4
370
    -2
100
AcDbBlockReference
  2
_Dot
 10
1322.310703114757
 20
553.7849698871747
 30
0.0
  0
MTEXT
  5
6620
330
6263
100
AcDbEntity
  8
寸法
  6
Continuous
 62
     3
100
AcDbMText
 10
1318.810703114757
 20
556.2849698871747
 30
0.0
 40
3.0
 41
0.0
 71
     5
 72
     1
  1
\A1;7
  7
ACAD
 73
     1
 44
1.0
1001
ACAD
1000
MTEXTBEGIN
1070
    73
1070
     1
1070
    44
1040
1.0
1070
    74
1070
     0
1000
MTEXTEND
  0
POINT
  5
6621
330
6263
100
AcDbEntity
  8
Defpoints
  6
Continuous
 62
     0
100
AcDbPoint
 10
1315.310703114757
 20
564.1325608871746
 30
0.0
  0
POINT
  5
6622
330
6263
100
AcDbEntity
  8
Defpoints
  6
Continuous
 62
     0
100
AcDbPoint
 10
1322.310703114757
 20
564.7659448871747
 30
0.0
  0
POINT
  5
6623
330
6263
100
AcDbEntity
  8
Defpoints
  6
Continuous
 62
     0
100
AcDbPoint
 10
1322.310703114757
 20
553.7849698871747
 30
0.0
  0
ENDBLK
  5
626E
330
6263
100
AcDbEntity
  8
0
100
AcDbBlockEnd
  0
BLOCK
  5
627A
330
6270
100
AcDbEntity
  8
0
100
AcDbBlockBegin
  2
*D28
 70
     1
 10
0.0
 20
0.0
 30
0.0
  3
*D28
  1

  0
LINE
  5
6624
330
6270
100
AcDbEntity
  8
寸法
  6
Continuous
 62
     4
370
    -2
100
AcDbLine
 10
1340.710703114757
 20
558.4253928871746
 30
0.0
 11
1340.710703114757
 21
554.0110258871747
 31
0.0
  0
LINE
  5
6625
330
6270
100
AcDbEntity
  8
寸法
  6
Continuous
 62
     4
370
    -2
100
AcDbLine
 10
1350.710703114757
 20
558.5277118871747
 30
0.0
 11
1350.710703114757
 21
554.0110258871747
 31
0.0
  0
LINE
  5
6626
330
6270
100
AcDbEntity
  8
寸法
  6
Continuous
 62
     4
370
    -2
100
AcDbLine
 10
1341.710703114757
 20
554.0110258871747
 30
0.0
 11
1349.710703114757
 21
554.0110258871747
 31
0.0
  0
INSERT
  5
6627
330
6270
100
AcDbEntity
  8
寸法
  6
Continuous
 62
     4
370
    -2
100
AcDbBlockReference
  2
_Dot
 10
1340.710703114757
 20
554.0110258871747
 30
0.0
 50
180.0
  0
INSERT
  5
6628
330
6270
100
AcDbEntity
  8
寸法
  6
Continuous
 62
     4
370
    -2
100
AcDbBlockReference
  2
_Dot
 10
1350.710703114757
 20
554.0110258871747
 30
0.0
  0
MTEXT
  5
6629
330
6270
100
AcDbEntity
  8
寸法
  6
Continuous
 62
     3
100
AcDbMText
 10
1345.710703114757
 20
556.5110258871746
 30
0.0
 40
3.0
 41
0.0
 71
     5
 72
     1
  1
\A1;10
  7
ACAD
 73
     1
 44
1.0
1001
ACAD
1000
MTEXTBEGIN
1070
    73
1070
     1
1070
    44
1040
1.0
1070
    74
1070
     0
1000
MTEXTEND
  0
POINT
  5
662A
330
6270
100
AcDbEntity
  8
Defpoints
  6
Continuous
 62
     0
100
AcDbPoint
 10
1340.710703114757
 20
558.4253928871746
 30
0.0
  0
POINT
  5
662B
330
6270
100
AcDbEntity
  8
Defpoints
  6
Continuous
 62
     0
100
AcDbPoint
 10
1350.710703114757
 20
558.5277118871747
 30
0.0
  0
POINT
  5
662C
330
6270
100
AcDbEntity
  8
Defpoints
  6
Continuous
 62
     0
100
AcDbPoint
 10
1350.710703114757
 20
554.0110258871747
 30
0.0
  0
ENDBLK
  5
627B
330
6270
100
AcDbEntity
  8
0
100
AcDbBlockEnd
  0
BLOCK
  5
6287
330
627D
100
AcDbEntity
  8
0
100
AcDbBlockBegin
  2
*D29
 70
     1
 10
0.0
 20
0.0
 30
0.0
  3
*D29
  1

  0
LINE
  5
662D
330
627D
100
AcDbEntity
  8
寸法
  6
Continuous
 62
     4
370
    -2
100
AcDbLine
 10
1351.394216114757
 20
559.1325608871747
 30
0.0
 11
1357.641497114757
 21
559.1325608871747
 31
0.0
  0
LINE
  5
662E
330
627D
100
AcDbEntity
  8
寸法
  6
Continuous
 62
     4
370
    -2
100
AcDbLine
 10
1347.775678114757
 20
573.1325608871746
 30
0.0
 11
1357.641497114757
 21
573.1325608871746
 31
0.0
  0
LINE
  5
662F
330
627D
100
AcDbEntity
  8
寸法
  6
Continuous
 62
     4
370
    -2
100
AcDbLine
 10
1357.641497114757
 20
560.1325608871746
 30
0.0
 11
1357.641497114757
 21
572.1325608871747
 31
0.0
  0
INSERT
  5
6630
330
627D
100
AcDbEntity
  8
寸法
  6
Continuous
 62
     4
370
    -2
100
AcDbBlockReference
  2
_Dot
 10
1357.641497114757
 20
559.1325608871747
 30
0.0
 50
270.0
  0
INSERT
  5
6631
330
627D
100
AcDbEntity
  8
寸法
  6
Continuous
 62
     4
370
    -2
100
AcDbBlockReference
  2
_Dot
 10
1357.641497114757
 20
573.1325608871746
 30
0.0
 50
90.0
  0
MTEXT
  5
6632
330
627D
100
AcDbEntity
  8
寸法
  6
Continuous
 62
     3
100
AcDbMText
 10
1355.141497114757
 20
566.1325608871749
 30
0.0
 40
3.0
 41
0.0
 71
     5
 72
     1
  1
\A1;14
  7
ACAD
 11
0.0000000000000001
 21
1.0
 31
0.0
 73
     1
 44
1.0
1001
ACAD
1000
MTEXTBEGIN
1070
    73
1070
     1
1070
    44
1040
1.0
1070
    74
1070
     0
1000
MTEXTEND
  0
POINT
  5
6633
330
627D
100
AcDbEntity
  8
Defpoints
  6
Continuous
 62
     0
100
AcDbPoint
 10
1351.394216114757
 20
559.1325608871747
 30
0.0
  0
POINT
  5
6634
330
627D
100
AcDbEntity
  8
Defpoints
  6
Continuous
 62
     0
100
AcDbPoint
 10
1347.775678114757
 20
573.1325608871746
 30
0.0
  0
POINT
  5
6635
330
627D
100
AcDbEntity
  8
Defpoints
  6
Continuous
 62
     0
100
AcDbPoint
 10
1357.641497114757
 20
573.1325608871746
 30
0.0
  0
ENDBLK
  5
6288
330
627D
100
AcDbEntity
  8
0
100
AcDbBlockEnd
  0
BLOCK
  5
6294
330
628A
100
AcDbEntity
  8
0
100
AcDbBlockBegin
  2
*D30
 70
     1
 10
0.0
 20
0.0
 30
0.0
  3
*D30
  1

  0
LINE
  5
6636
330
628A
100
AcDbEntity
  8
寸法
  6
Continuous
 62
     4
370
    -2
100
AcDbLine
 10
1315.310703114757
 20
564.1325608871746
 30
0.0
 11
1315.310703114757
 21
539.2507488871747
 31
0.0
  0
LINE
  5
6637
330
628A
100
AcDbEntity
  8
寸法
  6
Continuous
 62
     4
370
    -2
100
AcDbLine
 10
1345.710703114757
 20
557.2513688871747
 30
0.0
 11
1345.710703114757
 21
539.2507488871747
 31
0.0
  0
LINE
  5
6638
330
628A
100
AcDbEntity
  8
寸法
  6
Continuous
 62
     4
370
    -2
100
AcDbLine
 10
1316.310703114757
 20
539.2507488871747
 30
0.0
 11
1344.710703114757
 21
539.2507488871747
 31
0.0
  0
INSERT
  5
6639
330
628A
100
AcDbEntity
  8
寸法
  6
Continuous
 62
     4
370
    -2
100
AcDbBlockReference
  2
_Dot
 10
1315.310703114757
 20
539.2507488871747
 30
0.0
 50
180.0
  0
INSERT
  5
663A
330
628A
100
AcDbEntity
  8
寸法
  6
Continuous
 62
     4
370
    -2
100
AcDbBlockReference
  2
_Dot
 10
1345.710703114757
 20
539.2507488871747
 30
0.0
  0
MTEXT
  5
663B
330
628A
100
AcDbEntity
  8
寸法
  6
Continuous
 62
     3
100
AcDbMText
 10
1330.510703114757
 20
541.7507488871747
 30
0.0
 40
3.0
 41
0.0
 71
     5
 72
     1
  1
\A1;30.4
  7
ACAD
 73
     1
 44
1.0
1001
ACAD
1000
MTEXTBEGIN
1070
    73
1070
     1
1070
    44
1040
1.0
1070
    74
1070
     0
1000
MTEXTEND
  0
POINT
  5
663C
330
628A
100
AcDbEntity
  8
Defpoints
  6
Continuous
 62
     0
100
AcDbPoint
 10
1315.310703114757
 20
564.1325608871746
 30
0.0
  0
POINT
  5
663D
330
628A
100
AcDbEntity
  8
Defpoints
  6
Continuous
 62
     0
100
AcDbPoint
 10
1345.710703114757
 20
557.2513688871747
 30
0.0
  0
POINT
  5
663E
330
628A
100
AcDbEntity
  8
Defpoints
  6
Continuous
 62
     0
100
AcDbPoint
 10
1345.710703114757
 20
539.2507488871747
 30
0.0
  0
ENDBLK
  5
6295
330
628A
100
AcDbEntity
  8
0
100
AcDbBlockEnd
  0
BLOCK
  5
62AA
330
62A0
100
AcDbEntity
  8
0
100
AcDbBlockBegin
  2
*D31
 70
     1
 10
0.0
 20
0.0
 30
0.0
  3
*D31
  1

  0
LINE
  5
663F
330
62A0
100
AcDbEntity
  8
寸法
  6
Continuous
 62
     4
370
    -2
100
AcDbLine
 10
1345.710703114757
 20
557.2513688871747
 30
0.0
 11
1345.710703114757
 21
547.1325608871747
 31
0.0
  0
LINE
  5
6640
330
62A0
100
AcDbEntity
  8
寸法
  6
Continuous
 62
     4
370
    -2
100
AcDbLine
 10
1370.710703114757
 20
556.2781968871747
 30
0.0
 11
1370.710703114757
 21
547.1325608871747
 31
0.0
  0
LINE
  5
6641
330
62A0
100
AcDbEntity
  8
寸法
  6
Continuous
 62
     4
370
    -2
100
AcDbLine
 10
1346.710703114757
 20
547.1325608871747
 30
0.0
 11
1369.710703114757
 21
547.1325608871747
 31
0.0
  0
INSERT
  5
6642
330
62A0
100
AcDbEntity
  8
寸法
  6
Continuous
 62
     4
370
    -2
100
AcDbBlockReference
  2
_Dot
 10
1345.710703114757
 20
547.1325608871747
 30
0.0
 50
180.0
  0
INSERT
  5
6643
330
62A0
100
AcDbEntity
  8
寸法
  6
Continuous
 62
     4
370
    -2
100
AcDbBlockReference
  2
_Dot
 10
1370.710703114757
 20
547.1325608871747
 30
0.0
  0
MTEXT
  5
6644
330
62A0
100
AcDbEntity
  8
寸法
  6
Continuous
 62
     3
100
AcDbMText
 10
1358.210703114757
 20
549.6325608871747
 30
0.0
 40
3.0
 41
0.0
 71
     5
 72
     1
  1
\A1;25
  7
ACAD
 73
     1
 44
1.0
1001
ACAD
1000
MTEXTBEGIN
1070
    73
1070
     1
1070
    44
1040
1.0
1070
    74
1070
     0
1000
MTEXTEND
  0
POINT
  5
6645
330
62A0
100
AcDbEntity
  8
Defpoints
  6
Continuous
 62
     0
100
AcDbPoint
 10
1345.710703114757
 20
557.2513688871747
 30
0.0
  0
POINT
  5
6646
330
62A0
100
AcDbEntity
  8
Defpoints
  6
Continuous
 62
     0
100
AcDbPoint
 10
1370.710703114757
 20
556.2781968871747
 30
0.0
  0
POINT
  5
6647
330
62A0
100
AcDbEntity
  8
Defpoints
  6
Continuous
 62
     0
100
AcDbPoint
 10
1370.710703114757
 20
547.1325608871747
 30
0.0
  0
ENDBLK
  5
62AB
330
62A0
100
AcDbEntity
  8
0
100
AcDbBlockEnd
  0
BLOCK
  5
62B7
330
62AD
100
AcDbEntity
  8
0
100
AcDbBlockBegin
  2
*D32
 70
     1
 10
0.0
 20
0.0
 30
0.0
  3
*D32
  1

  0
LINE
  5
6648
330
62AD
100
AcDbEntity
  8
寸法
  6
Continuous
 62
     4
370
    -2
100
AcDbLine
 10
1370.710703114757
 20
556.2781968871747
 30
0.0
 11
1370.710703114757
 21
547.1325608871747
 31
0.0
  0
LINE
  5
6649
330
62AD
100
AcDbEntity
  8
寸法
  6
Continuous
 62
     4
370
    -2
100
AcDbLine
 10
1395.710703114757
 20
556.7233188871747
 30
0.0
 11
1395.710703114757
 21
547.1325608871747
 31
0.0
  0
LINE
  5
664A
330
62AD
100
AcDbEntity
  8
寸法
  6
Continuous
 62
     4
370
    -2
100
AcDbLine
 10
1371.710703114757
 20
547.1325608871747
 30
0.0
 11
1394.710703114757
 21
547.1325608871747
 31
0.0
  0
INSERT
  5
664B
330
62AD
100
AcDbEntity
  8
寸法
  6
Continuous
 62
     4
370
    -2
100
AcDbBlockReference
  2
_Dot
 10
1370.710703114757
 20
547.1325608871747
 30
0.0
 50
180.0
  0
INSERT
  5
664C
330
62AD
100
AcDbEntity
  8
寸法
  6
Continuous
 62
     4
370
    -2
100
AcDbBlockReference
  2
_Dot
 10
1395.710703114757
 20
547.1325608871747
 30
0.0
  0
MTEXT
  5
664D
330
62AD
100
AcDbEntity
  8
寸法
  6
Continuous
 62
     3
100
AcDbMText
 10
1383.210703114757
 20
549.6325608871747
 30
0.0
 40
3.0
 41
0.0
 71
     5
 72
     1
  1
\A1;25
  7
ACAD
 73
     1
 44
1.0
1001
ACAD
1000
MTEXTBEGIN
1070
    73
1070
     1
1070
    44
1040
1.0
1070
    74
1070
     0
1000
MTEXTEND
  0
POINT
  5
664E
330
62AD
100
AcDbEntity
  8
Defpoints
  6
Continuous
 62
     0
100
AcDbPoint
 10
1370.710703114757
 20
556.2781968871747
 30
0.0
  0
POINT
  5
664F
330
62AD
100
AcDbEntity
  8
Defpoints
  6
Continuous
 62
     0
100
AcDbPoint
 10
1395.710703114757
 20
556.7233188871747
 30
0.0
  0
POINT
  5
6650
330
62AD
100
AcDbEntity
  8
Defpoints
  6
Continuous
 62
     0
100
AcDbPoint
 10
1395.710703114757
 20
547.1325608871747
 30
0.0
  0
ENDBLK
  5
62B8
330
62AD
100
AcDbEntity
  8
0
100
AcDbBlockEnd
  0
BLOCK
  5
62C4
330
62BA
100
AcDbEntity
  8
0
100
AcDbBlockBegin
  2
*D33
 70
     1
 10
0.0
 20
0.0
 30
0.0
  3
*D33
  1

  0
LINE
  5
6651
330
62BA
100
AcDbEntity
  8
寸法
  6
Continuous
 62
     4
370
    -2
100
AcDbLine
 10
1395.710703114757
 20
556.7233188871747
 30
0.0
 11
1395.710703114757
 21
547.1325608871747
 31
0.0
  0
LINE
  5
6652
330
62BA
100
AcDbEntity
  8
寸法
  6
Continuous
 62
     4
370
    -2
100
AcDbLine
 10
1420.710703114757
 20
556.5007578871747
 30
0.0
 11
1420.710703114757
 21
547.1325608871747
 31
0.0
  0
LINE
  5
6653
330
62BA
100
AcDbEntity
  8
寸法
  6
Continuous
 62
     4
370
    -2
100
AcDbLine
 10
1396.710703114757
 20
547.1325608871747
 30
0.0
 11
1419.710703114757
 21
547.1325608871747
 31
0.0
  0
INSERT
  5
6654
330
62BA
100
AcDbEntity
  8
寸法
  6
Continuous
 62
     4
370
    -2
100
AcDbBlockReference
  2
_Dot
 10
1395.710703114757
 20
547.1325608871747
 30
0.0
 50
180.0
  0
INSERT
  5
6655
330
62BA
100
AcDbEntity
  8
寸法
  6
Continuous
 62
     4
370
    -2
100
AcDbBlockReference
  2
_Dot
 10
1420.710703114757
 20
547.1325608871747
 30
0.0
  0
MTEXT
  5
6656
330
62BA
100
AcDbEntity
  8
寸法
  6
Continuous
 62
     3
100
AcDbMText
 10
1408.210703114757
 20
549.6325608871747
 30
0.0
 40
3.0
 41
0.0
 71
     5
 72
     1
  1
\A1;25
  7
ACAD
 73
     1
 44
1.0
1001
ACAD
1000
MTEXTBEGIN
1070
    73
1070
     1
1070
    44
1040
1.0
1070
    74
1070
     0
1000
MTEXTEND
  0
POINT
  5
6657
330
62BA
100
AcDbEntity
  8
Defpoints
  6
Continuous
 62
     0
100
AcDbPoint
 10
1395.710703114757
 20
556.7233188871747
 30
0.0
  0
POINT
  5
6658
330
62BA
100
AcDbEntity
  8
Defpoints
  6
Continuous
 62
     0
100
AcDbPoint
 10
1420.710703114757
 20
556.5007578871747
 30
0.0
  0
POINT
  5
6659
330
62BA
100
AcDbEntity
  8
Defpoints
  6
Continuous
 62
     0
100
AcDbPoint
 10
1420.710703114757
 20
547.1325608871747
 30
0.0
  0
ENDBLK
  5
62C5
330
62BA
100
AcDbEntity
  8
0
100
AcDbBlockEnd
  0
BLOCK
  5
62D1
330
62C7
100
AcDbEntity
  8
0
100
AcDbBlockBegin
  2
*D34
 70
     1
 10
0.0
 20
0.0
 30
0.0
  3
*D34
  1

  0
LINE
  5
665A
330
62C7
100
AcDbEntity
  8
寸法
  6
Continuous
 62
     4
370
    -2
100
AcDbLine
 10
1420.710703114757
 20
556.5007578871747
 30
0.0
 11
1420.710703114757
 21
539.2507488871747
 31
0.0
  0
LINE
  5
665B
330
62C7
100
AcDbEntity
  8
寸法
  6
Continuous
 62
     4
370
    -2
100
AcDbLine
 10
1445.710703114757
 20
556.3994988871748
 30
0.0
 11
1445.710703114757
 21
539.2507488871747
 31
0.0
  0
LINE
  5
665C
330
62C7
100
AcDbEntity
  8
寸法
  6
Continuous
 62
     4
370
    -2
100
AcDbLine
 10
1421.710703114757
 20
539.2507488871747
 30
0.0
 11
1444.710703114757
 21
539.2507488871747
 31
0.0
  0
INSERT
  5
665D
330
62C7
100
AcDbEntity
  8
寸法
  6
Continuous
 62
     4
370
    -2
100
AcDbBlockReference
  2
_Dot
 10
1420.710703114757
 20
539.2507488871747
 30
0.0
 50
180.0
  0
INSERT
  5
665E
330
62C7
100
AcDbEntity
  8
寸法
  6
Continuous
 62
     4
370
    -2
100
AcDbBlockReference
  2
_Dot
 10
1445.710703114757
 20
539.2507488871747
 30
0.0
  0
MTEXT
  5
665F
330
62C7
100
AcDbEntity
  8
寸法
  6
Continuous
 62
     3
100
AcDbMText
 10
1433.210703114757
 20
541.7507488871747
 30
0.0
 40
3.0
 41
0.0
 71
     5
 72
     1
  1
\A1;25
  7
ACAD
 73
     1
 44
1.0
1001
ACAD
1000
MTEXTBEGIN
1070
    73
1070
     1
1070
    44
1040
1.0
1070
    74
1070
     0
1000
MTEXTEND
  0
POINT
  5
6660
330
62C7
100
AcDbEntity
  8
Defpoints
  6
Continuous
 62
     0
100
AcDbPoint
 10
1420.710703114757
 20
556.5007578871747
 30
0.0
  0
POINT
  5
6661
330
62C7
100
AcDbEntity
  8
Defpoints
  6
Continuous
 62
     0
100
AcDbPoint
 10
1445.710703114757
 20
556.3994988871748
 30
0.0
  0
POINT
  5
6662
330
62C7
100
AcDbEntity
  8
Defpoints
  6
Continuous
 62
     0
100
AcDbPoint
 10
1445.710703114757
 20
539.2507488871747
 30
0.0
  0
ENDBLK
  5
62D2
330
62C7
100
AcDbEntity
  8
0
100
AcDbBlockEnd
  0
BLOCK
  5
62DE
330
62D4
100
AcDbEntity
  8
0
100
AcDbBlockBegin
  2
*D35
 70
     1
 10
0.0
 20
0.0
 30
0.0
  3
*D35
  1

  0
LINE
  5
6663
330
62D4
100
AcDbEntity
  8
寸法
  6
Continuous
 62
     4
370
    -2
100
AcDbLine
 10
1345.710703114757
 20
557.2513688871747
 30
0.0
 11
1345.710703114757
 21
539.2507488871747
 31
0.0
  0
LINE
  5
6664
330
62D4
100
AcDbEntity
  8
寸法
  6
Continuous
 62
     4
370
    -2
100
AcDbLine
 10
1420.710703114757
 20
556.5007578871747
 30
0.0
 11
1420.710703114757
 21
539.2507488871747
 31
0.0
  0
LINE
  5
6665
330
62D4
100
AcDbEntity
  8
寸法
  6
Continuous
 62
     4
370
    -2
100
AcDbLine
 10
1346.710703114757
 20
539.2507488871747
 30
0.0
 11
1419.710703114757
 21
539.2507488871747
 31
0.0
  0
INSERT
  5
6666
330
62D4
100
AcDbEntity
  8
寸法
  6
Continuous
 62
     4
370
    -2
100
AcDbBlockReference
  2
_Dot
 10
1345.710703114757
 20
539.2507488871747
 30
0.0
 50
180.0
  0
INSERT
  5
6667
330
62D4
100
AcDbEntity
  8
寸法
  6
Continuous
 62
     4
370
    -2
100
AcDbBlockReference
  2
_Dot
 10
1420.710703114757
 20
539.2507488871747
 30
0.0
  0
MTEXT
  5
6668
330
62D4
100
AcDbEntity
  8
寸法
  6
Continuous
 62
     3
100
AcDbMText
 10
1383.210703114757
 20
541.7507488871747
 30
0.0
 40
3.0
 41
0.0
 71
     5
 72
     1
  1
\A1;75
  7
ACAD
 73
     1
 44
1.0
1001
ACAD
1000
MTEXTBEGIN
1070
    73
1070
     1
1070
    44
1040
1.0
1070
    74
1070
     0
1000
MTEXTEND
  0
POINT
  5
6669
330
62D4
100
AcDbEntity
  8
Defpoints
  6
Continuous
 62
     0
100
AcDbPoint
 10
1345.710703114757
 20
557.2513688871747
 30
0.0
  0
POINT
  5
666A
330
62D4
100
AcDbEntity
  8
Defpoints
  6
Continuous
 62
     0
100
AcDbPoint
 10
1420.710703114757
 20
556.5007578871747
 30
0.0
  0
POINT
  5
666B
330
62D4
100
AcDbEntity
  8
Defpoints
  6
Continuous
 62
     0
100
AcDbPoint
 10
1420.710703114757
 20
539.2507488871747
 30
0.0
  0
ENDBLK
  5
62DF
330
62D4
100
AcDbEntity
  8
0
100
AcDbBlockEnd
  0
BLOCK
  5
62EC
330
62E1
100
AcDbEntity
  8
0
100
AcDbBlockBegin
  2
*D36
 70
     1
 10
0.0
 20
0.0
 30
0.0
  3
*D36
  1

  0
LINE
  5
666C
330
62E1
100
AcDbEntity
  8
寸法
  6
Continuous
 62
     4
370
    -2
100
AcDbLine
 10
1438.111878114757
 20
570.1325608871747
 30
0.0
 11
1441.324047114757
 21
570.1325608871747
 31
0.0
  0
LINE
  5
666D
330
62E1
100
AcDbEntity
  8
寸法
  6
Continuous
 62
     4
370
    -2
100
AcDbLine
 10
1438.267885114757
 20
573.1325608871746
 30
0.0
 11
1441.324047114757
 21
573.1325608871746
 31
0.0
  0
LINE
  5
666E
330
62E1
100
AcDbEntity
  8
寸法
  6
Continuous
 62
     4
370
    -2
100
AcDbLine
 10
1441.324047114757
 20
569.1325608871746
 30
0.0
 11
1441.324047114757
 21
568.1325608871746
 31
0.0
  0
LINE
  5
666F
330
62E1
100
AcDbEntity
  8
寸法
  6
Continuous
 62
     4
370
    -2
100
AcDbLine
 10
1441.324047114757
 20
574.1325608871746
 30
0.0
 11
1441.324047114757
 21
575.1325608871747
 31
0.0
  0
INSERT
  5
6670
330
62E1
100
AcDbEntity
  8
寸法
  6
Continuous
 62
     4
370
    -2
100
AcDbBlockReference
  2
_Dot
 10
1441.324047114757
 20
570.1325608871747
 30
0.0
 50
90.0
  0
INSERT
  5
6671
330
62E1
100
AcDbEntity
  8
寸法
  6
Continuous
 62
     4
370
    -2
100
AcDbBlockReference
  2
_Dot
 10
1441.324047114757
 20
573.1325608871746
 30
0.0
 50
270.0
  0
MTEXT
  5
6672
330
62E1
100
AcDbEntity
  8
寸法
  6
Continuous
 62
     3
100
AcDbMText
 10
1438.824047114757
 20
571.6325608871748
 30
0.0
 40
3.0
 41
0.0
 71
     5
 72
     1
  1
\A1;3
  7
ACAD
 11
0.0000000000000001
 21
1.0
 31
0.0
 73
     1
 44
1.0
1001
ACAD
1000
MTEXTBEGIN
1070
    73
1070
     1
1070
    44
1040
1.0
1070
    74
1070
     0
1000
MTEXTEND
  0
POINT
  5
6673
330
62E1
100
AcDbEntity
  8
Defpoints
  6
Continuous
 62
     0
100
AcDbPoint
 10
1438.111878114757
 20
570.1325608871747
 30
0.0
  0
POINT
  5
6674
330
62E1
100
AcDbEntity
  8
Defpoints
  6
Continuous
 62
     0
100
AcDbPoint
 10
1438.267885114757
 20
573.1325608871746
 30
0.0
  0
POINT
  5
6675
330
62E1
100
AcDbEntity
  8
Defpoints
  6
Continuous
 62
     0
100
AcDbPoint
 10
1441.324047114757
 20
573.1325608871746
 30
0.0
  0
ENDBLK
  5
62ED
330
62E1
100
AcDbEntity
  8
0
100
AcDbBlockEnd
  0
BLOCK
  5
62FA
330
62EF
100
AcDbEntity
  8
0
100
AcDbBlockBegin
  2
*D37
 70
     1
 10
0.0
 20
0.0
 30
0.0
  3
*D37
  1

  0
LINE
  5
6676
330
62EF
100
AcDbEntity
  8
寸法
  6
Continuous
 62
     4
370
    -2
100
AcDbLine
 10
1413.310703114757
 20
574.1221248871747
 30
0.0
 11
1413.310703114757
 21
579.9575698871747
 31
0.0
  0
LINE
  5
6677
330
62EF
100
AcDbEntity
  8
寸法
  6
Continuous
 62
     4
370
    -2
100
AcDbLine
 10
1415.310703114757
 20
574.9276368871746
 30
0.0
 11
1415.310703114757
 21
579.9575698871747
 31
0.0
  0
LINE
  5
6678
330
62EF
100
AcDbEntity
  8
寸法
  6
Continuous
 62
     4
370
    -2
100
AcDbLine
 10
1412.310703114757
 20
579.9575698871747
 30
0.0
 11
1411.310703114757
 21
579.9575698871747
 31
0.0
  0
LINE
  5
6679
330
62EF
100
AcDbEntity
  8
寸法
  6
Continuous
 62
     4
370
    -2
100
AcDbLine
 10
1416.310703114757
 20
579.9575698871747
 30
0.0
 11
1417.310703114757
 21
579.9575698871747
 31
0.0
  0
INSERT
  5
667A
330
62EF
100
AcDbEntity
  8
寸法
  6
Continuous
 62
     4
370
    -2
100
AcDbBlockReference
  2
_Dot
 10
1413.310703114757
 20
579.9575698871747
 30
0.0
  0
INSERT
  5
667B
330
62EF
100
AcDbEntity
  8
寸法
  6
Continuous
 62
     4
370
    -2
100
AcDbBlockReference
  2
_Dot
 10
1415.310703114757
 20
579.9575698871747
 30
0.0
 50
180.0
  0
MTEXT
  5
667C
330
62EF
100
AcDbEntity
  8
寸法
  6
Continuous
 62
     3
100
AcDbMText
 10
1414.310703114757
 20
583.243284172889
 30
0.0
 40
3.0
 41
0.0
 71
     5
 72
     1
  1
\A1;(2)
  7
ACAD
 73
     1
 44
1.0
1001
ACAD
1000
MTEXTBEGIN
1070
    73
1070
     1
1070
    44
1040
1.0
1070
    74
1070
     0
1000
MTEXTEND
  0
POINT
  5
667D
330
62EF
100
AcDbEntity
  8
Defpoints
  6
Continuous
 62
     0
100
AcDbPoint
 10
1413.310703114757
 20
574.1221248871747
 30
0.0
  0
POINT
  5
667E
330
62EF
100
AcDbEntity
  8
Defpoints
  6
Continuous
 62
     0
100
AcDbPoint
 10
1415.310703114757
 20
574.9276368871746
 30
0.0
  0
POINT
  5
667F
330
62EF
100
AcDbEntity
  8
Defpoints
  6
Continuous
 62
     0
100
AcDbPoint
 10
1415.310703114757
 20
579.9575698871747
 30
0.0
  0
ENDBLK
  5
62FB
330
62EF
100
AcDbEntity
  8
0
100
AcDbBlockEnd
  0
BLOCK
  5
6311
330
6307
100
AcDbEntity
  8
0
100
AcDbBlockBegin
  2
*D38
 70
     1
 10
0.0
 20
0.0
 30
0.0
  3
*D38
  1

  0
LINE
  5
6680
330
6307
100
AcDbEntity
  8
寸法
  6
Continuous
 62
     4
370
    -2
100
AcDbLine
 10
1413.310703114757
 20
574.1221248871747
 30
0.0
 11
1413.310703114757
 21
585.5452318871747
 31
0.0
  0
LINE
  5
6681
330
6307
100
AcDbEntity
  8
寸法
  6
Continuous
 62
     4
370
    -2
100
AcDbLine
 10
1421.310703114757
 20
571.0664688871747
 30
0.0
 11
1421.310703114757
 21
585.5452318871747
 31
0.0
  0
LINE
  5
6682
330
6307
100
AcDbEntity
  8
寸法
  6
Continuous
 62
     4
370
    -2
100
AcDbLine
 10
1414.310703114757
 20
585.5452318871747
 30
0.0
 11
1420.310703114757
 21
585.5452318871747
 31
0.0
  0
INSERT
  5
6683
330
6307
100
AcDbEntity
  8
寸法
  6
Continuous
 62
     4
370
    -2
100
AcDbBlockReference
  2
_Dot
 10
1413.310703114757
 20
585.5452318871747
 30
0.0
 50
180.0
  0
INSERT
  5
6684
330
6307
100
AcDbEntity
  8
寸法
  6
Continuous
 62
     4
370
    -2
100
AcDbBlockReference
  2
_Dot
 10
1421.310703114757
 20
585.5452318871747
 30
0.0
  0
MTEXT
  5
6685
330
6307
100
AcDbEntity
  8
寸法
  6
Continuous
 62
     3
100
AcDbMText
 10
1417.310703114757
 20
588.0452318871747
 30
0.0
 40
3.0
 41
0.0
 71
     5
 72
     1
  1
\A1;8
  7
ACAD
 73
     1
 44
1.0
1001
ACAD
1000
MTEXTBEGIN
1070
    73
1070
     1
1070
    44
1040
1.0
1070
    74
1070
     0
1000
MTEXTEND
  0
POINT
  5
6686
330
6307
100
AcDbEntity
  8
Defpoints
  6
Continuous
 62
     0
100
AcDbPoint
 10
1413.310703114757
 20
574.1221248871747
 30
0.0
  0
POINT
  5
6687
330
6307
100
AcDbEntity
  8
Defpoints
  6
Continuous
 62
     0
100
AcDbPoint
 10
1421.310703114757
 20
571.0664688871747
 30
0.0
  0
POINT
  5
6688
330
6307
100
AcDbEntity
  8
Defpoints
  6
Continuous
 62
     0
100
AcDbPoint
 10
1421.310703114757
 20
585.5452318871747
 30
0.0
  0
ENDBLK
  5
6312
330
6307
100
AcDbEntity
  8
0
100
AcDbBlockEnd
  0
BLOCK
  5
631E
330
6314
100
AcDbEntity
  8
0
100
AcDbBlockBegin
  2
*D39
 70
     1
 10
0.0
 20
0.0
 30
0.0
  3
*D39
  1

  0
LINE
  5
6689
330
6314
100
AcDbEntity
  8
寸法
  6
Continuous
 62
     4
370
    -2
100
AcDbLine
 10
1421.310703114757
 20
571.0664688871747
 30
0.0
 11
1421.310703114757
 21
585.5452318871747
 31
0.0
  0
LINE
  5
668A
330
6314
100
AcDbEntity
  8
寸法
  6
Continuous
 62
     4
370
    -2
100
AcDbLine
 10
1436.710703114757
 20
574.0948708871747
 30
0.0
 11
1436.710703114757
 21
585.5452318871747
 31
0.0
  0
LINE
  5
668B
330
6314
100
AcDbEntity
  8
寸法
  6
Continuous
 62
     4
370
    -2
100
AcDbLine
 10
1422.310703114757
 20
585.5452318871747
 30
0.0
 11
1435.710703114757
 21
585.5452318871747
 31
0.0
  0
INSERT
  5
668C
330
6314
100
AcDbEntity
  8
寸法
  6
Continuous
 62
     4
370
    -2
100
AcDbBlockReference
  2
_Dot
 10
1421.310703114757
 20
585.5452318871747
 30
0.0
 50
180.0
  0
INSERT
  5
668D
330
6314
100
AcDbEntity
  8
寸法
  6
Continuous
 62
     4
370
    -2
100
AcDbBlockReference
  2
_Dot
 10
1436.710703114757
 20
585.5452318871747
 30
0.0
  0
MTEXT
  5
668E
330
6314
100
AcDbEntity
  8
寸法
  6
Continuous
 62
     3
100
AcDbMText
 10
1429.010703114757
 20
588.0452318871747
 30
0.0
 40
3.0
 41
0.0
 71
     5
 72
     1
  1
\A1;15.4
  7
ACAD
 73
     1
 44
1.0
1001
ACAD
1000
MTEXTBEGIN
1070
    73
1070
     1
1070
    44
1040
1.0
1070
    74
1070
     0
1000
MTEXTEND
  0
POINT
  5
668F
330
6314
100
AcDbEntity
  8
Defpoints
  6
Continuous
 62
     0
100
AcDbPoint
 10
1421.310703114757
 20
571.0664688871747
 30
0.0
  0
POINT
  5
6690
330
6314
100
AcDbEntity
  8
Defpoints
  6
Continuous
 62
     0
100
AcDbPoint
 10
1436.710703114757
 20
574.0948708871747
 30
0.0
  0
POINT
  5
6691
330
6314
100
AcDbEntity
  8
Defpoints
  6
Continuous
 62
     0
100
AcDbPoint
 10
1436.710703114757
 20
585.5452318871747
 30
0.0
  0
ENDBLK
  5
631F
330
6314
100
AcDbEntity
  8
0
100
AcDbBlockEnd
  0
BLOCK
  5
6333
330
632A
100
AcDbEntity
  8
0
100
AcDbBlockBegin
  2
*D40
 70
     1
 10
0.0
 20
0.0
 30
0.0
  3
*D40
  1

  0
LINE
  5
6775
330
632A
100
AcDbEntity
  8
寸法
  6
Continuous
 62
     4
370
    -2
100
AcDbLine
 10
1436.710703114757
 20
574.0948708871747
 30
0.0
 11
1436.710703114757
 21
579.9575698871747
 31
0.0
  0
LINE
  5
6776
330
632A
100
AcDbEntity
  8
寸法
  6
Continuous
 62
     4
370
    -2
100
AcDbLine
 10
1432.010703114757
 20
579.9575698871747
 30
0.0
 11
1435.710703114757
 21
579.9575698871747
 31
0.0
  0
INSERT
  5
6777
330
632A
100
AcDbEntity
  8
寸法
  6
Continuous
 62
     4
370
    -2
100
AcDbBlockReference
  2
_Dot
 10
1431.010703114757
 20
579.9575698871747
 30
0.0
 50
180.0
  0
INSERT
  5
6778
330
632A
100
AcDbEntity
  8
寸法
  6
Continuous
 62
     4
370
    -2
100
AcDbBlockReference
  2
_Dot
 10
1436.710703114757
 20
579.9575698871747
 30
0.0
  0
MTEXT
  5
6779
330
632A
100
AcDbEntity
  8
寸法
  6
Continuous
 62
     3
100
AcDbMText
 10
1433.860703114757
 20
582.4575698871747
 30
0.0
 40
3.0
 41
0.0
 71
     5
 72
     1
  1
\A1;5.7
  7
ACAD
 73
     1
 44
1.0
1001
ACAD
1000
MTEXTBEGIN
1070
    73
1070
     1
1070
    44
1040
1.0
1070
    74
1070
     0
1000
MTEXTEND
  0
POINT
  5
677A
330
632A
100
AcDbEntity
  8
Defpoints
  6
Continuous
 62
     0
100
AcDbPoint
 10
1431.010703114757
 20
579.9575698871747
 30
0.0
  0
POINT
  5
677B
330
632A
100
AcDbEntity
  8
Defpoints
  6
Continuous
 62
     0
100
AcDbPoint
 10
1436.710703114757
 20
574.0948708871747
 30
0.0
  0
POINT
  5
677C
330
632A
100
AcDbEntity
  8
Defpoints
  6
Continuous
 62
     0
100
AcDbPoint
 10
1436.710703114757
 20
579.9575698871747
 30
0.0
  0
ENDBLK
  5
6334
330
632A
100
AcDbEntity
  8
0
100
AcDbBlockEnd
  0
BLOCK
  5
6349
330
633F
100
AcDbEntity
  8
0
100
AcDbBlockBegin
  2
*D41
 70
     1
 10
0.0
 20
0.0
 30
0.0
  3
*D41
  1

  0
LINE
  5
669B
330
633F
100
AcDbEntity
  8
寸法
  6
Continuous
 62
     4
370
    -2
100
AcDbLine
 10
1413.310703114757
 20
574.1221248871747
 30
0.0
 11
1413.310703114757
 21
590.8325608871747
 31
0.0
  0
LINE
  5
669C
330
633F
100
AcDbEntity
  8
寸法
  6
Continuous
 62
     4
370
    -2
100
AcDbLine
 10
1436.710703114757
 20
574.0948708871747
 30
0.0
 11
1436.710703114757
 21
590.8325608871747
 31
0.0
  0
LINE
  5
669D
330
633F
100
AcDbEntity
  8
寸法
  6
Continuous
 62
     4
370
    -2
100
AcDbLine
 10
1414.310703114757
 20
590.8325608871747
 30
0.0
 11
1435.710703114757
 21
590.8325608871747
 31
0.0
  0
INSERT
  5
669E
330
633F
100
AcDbEntity
  8
寸法
  6
Continuous
 62
     4
370
    -2
100
AcDbBlockReference
  2
_Dot
 10
1413.310703114757
 20
590.8325608871747
 30
0.0
 50
180.0
  0
INSERT
  5
669F
330
633F
100
AcDbEntity
  8
寸法
  6
Continuous
 62
     4
370
    -2
100
AcDbBlockReference
  2
_Dot
 10
1436.710703114757
 20
590.8325608871747
 30
0.0
  0
MTEXT
  5
66A0
330
633F
100
AcDbEntity
  8
寸法
  6
Continuous
 62
     3
100
AcDbMText
 10
1425.010703114757
 20
593.3325608871747
 30
0.0
 40
3.0
 41
0.0
 71
     5
 72
     1
  1
\A1;23.4
  7
ACAD
 73
     1
 44
1.0
1001
ACAD
1000
MTEXTBEGIN
1070
    73
1070
     1
1070
    44
1040
1.0
1070
    74
1070
     0
1000
MTEXTEND
  0
POINT
  5
66A1
330
633F
100
AcDbEntity
  8
Defpoints
  6
Continuous
 62
     0
100
AcDbPoint
 10
1413.310703114757
 20
574.1221248871747
 30
0.0
  0
POINT
  5
66A2
330
633F
100
AcDbEntity
  8
Defpoints
  6
Continuous
 62
     0
100
AcDbPoint
 10
1436.710703114757
 20
574.0948708871747
 30
0.0
  0
POINT
  5
66A3
330
633F
100
AcDbEntity
  8
Defpoints
  6
Continuous
 62
     0
100
AcDbPoint
 10
1436.710703114757
 20
590.8325608871747
 30
0.0
  0
ENDBLK
  5
634A
330
633F
100
AcDbEntity
  8
0
100
AcDbBlockEnd
  0
BLOCK
  5
6360
330
6355
100
AcDbEntity
  8
0
100
AcDbBlockBegin
  2
*D42
 70
     1
 10
0.0
 20
0.0
 30
0.0
  3
*D42
  1

  0
LINE
  5
66A4
330
6355
100
AcDbEntity
  8
寸法
  6
Continuous
 62
     4
370
    -2
100
AcDbLine
 10
1429.891900114757
 20
485.1209298871747
 30
0.0
 11
1429.891900114757
 21
489.8575698871747
 31
0.0
  0
LINE
  5
66A5
330
6355
100
AcDbEntity
  8
寸法
  6
Continuous
 62
     4
370
    -2
100
AcDbLine
 10
1431.891900114757
 20
484.9193558871747
 30
0.0
 11
1431.891900114757
 21
489.8575698871747
 31
0.0
  0
LINE
  5
66A6
330
6355
100
AcDbEntity
  8
寸法
  6
Continuous
 62
     4
370
    -2
100
AcDbLine
 10
1428.891900114757
 20
489.8575698871747
 30
0.0
 11
1427.891900114757
 21
489.8575698871747
 31
0.0
  0
LINE
  5
66A7
330
6355
100
AcDbEntity
  8
寸法
  6
Continuous
 62
     4
370
    -2
100
AcDbLine
 10
1432.891900114757
 20
489.8575698871747
 30
0.0
 11
1433.891900114757
 21
489.8575698871747
 31
0.0
  0
INSERT
  5
66A8
330
6355
100
AcDbEntity
  8
寸法
  6
Continuous
 62
     4
370
    -2
100
AcDbBlockReference
  2
_Dot
 10
1429.891900114757
 20
489.8575698871747
 30
0.0
  0
INSERT
  5
66A9
330
6355
100
AcDbEntity
  8
寸法
  6
Continuous
 62
     4
370
    -2
100
AcDbBlockReference
  2
_Dot
 10
1431.891900114757
 20
489.8575698871747
 30
0.0
 50
180.0
  0
MTEXT
  5
66AA
330
6355
100
AcDbEntity
  8
寸法
  6
Continuous
 62
     3
100
AcDbMText
 10
1430.891900114757
 20
493.143284172889
 30
0.0
 40
3.0
 41
0.0
 71
     5
 72
     1
  1
\A1;(2)
  7
ACAD
 73
     1
 44
1.0
1001
ACAD
1000
MTEXTBEGIN
1070
    73
1070
     1
1070
    44
1040
1.0
1070
    74
1070
     0
1000
MTEXTEND
  0
POINT
  5
66AB
330
6355
100
AcDbEntity
  8
Defpoints
  6
Continuous
 62
     0
100
AcDbPoint
 10
1429.891900114757
 20
485.1209298871747
 30
0.0
  0
POINT
  5
66AC
330
6355
100
AcDbEntity
  8
Defpoints
  6
Continuous
 62
     0
100
AcDbPoint
 10
1431.891900114757
 20
484.9193558871747
 30
0.0
  0
POINT
  5
66AD
330
6355
100
AcDbEntity
  8
Defpoints
  6
Continuous
 62
     0
100
AcDbPoint
 10
1431.891900114757
 20
489.8575698871747
 30
0.0
  0
ENDBLK
  5
6361
330
6355
100
AcDbEntity
  8
0
100
AcDbBlockEnd
  0
BLOCK
  5
6377
330
636D
100
AcDbEntity
  8
0
100
AcDbBlockBegin
  2
*D43
 70
     1
 10
0.0
 20
0.0
 30
0.0
  3
*D43
  1

  0
LINE
  5
66AE
330
636D
100
AcDbEntity
  8
寸法
  6
Continuous
 62
     4
370
    -2
100
AcDbLine
 10
1429.891900114757
 20
485.1209298871747
 30
0.0
 11
1429.891900114757
 21
495.4452318871747
 31
0.0
  0
LINE
  5
66AF
330
636D
100
AcDbEntity
  8
寸法
  6
Continuous
 62
     4
370
    -2
100
AcDbLine
 10
1437.891900114757
 20
482.0652728871747
 30
0.0
 11
1437.891900114757
 21
495.4452318871747
 31
0.0
  0
LINE
  5
66B0
330
636D
100
AcDbEntity
  8
寸法
  6
Continuous
 62
     4
370
    -2
100
AcDbLine
 10
1430.891900114757
 20
495.4452318871747
 30
0.0
 11
1436.891900114757
 21
495.4452318871747
 31
0.0
  0
INSERT
  5
66B1
330
636D
100
AcDbEntity
  8
寸法
  6
Continuous
 62
     4
370
    -2
100
AcDbBlockReference
  2
_Dot
 10
1429.891900114757
 20
495.4452318871747
 30
0.0
 50
180.0
  0
INSERT
  5
66B2
330
636D
100
AcDbEntity
  8
寸法
  6
Continuous
 62
     4
370
    -2
100
AcDbBlockReference
  2
_Dot
 10
1437.891900114757
 20
495.4452318871747
 30
0.0
  0
MTEXT
  5
66B3
330
636D
100
AcDbEntity
  8
寸法
  6
Continuous
 62
     3
100
AcDbMText
 10
1433.891900114757
 20
497.9452318871746
 30
0.0
 40
3.0
 41
0.0
 71
     5
 72
     1
  1
\A1;8
  7
ACAD
 73
     1
 44
1.0
1001
ACAD
1000
MTEXTBEGIN
1070
    73
1070
     1
1070
    44
1040
1.0
1070
    74
1070
     0
1000
MTEXTEND
  0
POINT
  5
66B4
330
636D
100
AcDbEntity
  8
Defpoints
  6
Continuous
 62
     0
100
AcDbPoint
 10
1429.891900114757
 20
485.1209298871747
 30
0.0
  0
POINT
  5
66B5
330
636D
100
AcDbEntity
  8
Defpoints
  6
Continuous
 62
     0
100
AcDbPoint
 10
1437.891900114757
 20
482.0652728871747
 30
0.0
  0
POINT
  5
66B6
330
636D
100
AcDbEntity
  8
Defpoints
  6
Continuous
 62
     0
100
AcDbPoint
 10
1437.891900114757
 20
495.4452318871747
 30
0.0
  0
ENDBLK
  5
6378
330
636D
100
AcDbEntity
  8
0
100
AcDbBlockEnd
  0
BLOCK
  5
6385
330
637A
100
AcDbEntity
  8
0
100
AcDbBlockBegin
  2
*D44
 70
     1
 10
0.0
 20
0.0
 30
0.0
  3
*D44
  1

  0
LINE
  5
66B7
330
637A
100
AcDbEntity
  8
寸法
  6
Continuous
 62
     4
370
    -2
100
AcDbLine
 10
1457.393075114757
 20
481.1313648871746
 30
0.0
 11
1460.605243114757
 21
481.1313648871746
 31
0.0
  0
LINE
  5
66B8
330
637A
100
AcDbEntity
  8
寸法
  6
Continuous
 62
     4
370
    -2
100
AcDbLine
 10
1457.549081114757
 20
484.1313648871746
 30
0.0
 11
1460.605243114757
 21
484.1313648871746
 31
0.0
  0
LINE
  5
66B9
330
637A
100
AcDbEntity
  8
寸法
  6
Continuous
 62
     4
370
    -2
100
AcDbLine
 10
1460.605243114757
 20
480.1313648871746
 30
0.0
 11
1460.605243114757
 21
479.1313648871747
 31
0.0
  0
LINE
  5
66BA
330
637A
100
AcDbEntity
  8
寸法
  6
Continuous
 62
     4
370
    -2
100
AcDbLine
 10
1460.605243114757
 20
485.1313648871746
 30
0.0
 11
1460.605243114757
 21
486.1313648871747
 31
0.0
  0
INSERT
  5
66BB
330
637A
100
AcDbEntity
  8
寸法
  6
Continuous
 62
     4
370
    -2
100
AcDbBlockReference
  2
_Dot
 10
1460.605243114757
 20
481.1313648871746
 30
0.0
 50
90.0
  0
INSERT
  5
66BC
330
637A
100
AcDbEntity
  8
寸法
  6
Continuous
 62
     4
370
    -2
100
AcDbBlockReference
  2
_Dot
 10
1460.605243114757
 20
484.1313648871746
 30
0.0
 50
270.0
  0
MTEXT
  5
66BD
330
637A
100
AcDbEntity
  8
寸法
  6
Continuous
 62
     3
100
AcDbMText
 10
1458.105243114757
 20
482.6313648871749
 30
0.0
 40
3.0
 41
0.0
 71
     5
 72
     1
  1
\A1;3
  7
ACAD
 11
0.0000000000000001
 21
1.0
 31
0.0
 73
     1
 44
1.0
1001
ACAD
1000
MTEXTBEGIN
1070
    73
1070
     1
1070
    44
1040
1.0
1070
    74
1070
     0
1000
MTEXTEND
  0
POINT
  5
66BE
330
637A
100
AcDbEntity
  8
Defpoints
  6
Continuous
 62
     0
100
AcDbPoint
 10
1457.393075114757
 20
481.1313648871746
 30
0.0
  0
POINT
  5
66BF
330
637A
100
AcDbEntity
  8
Defpoints
  6
Continuous
 62
     0
100
AcDbPoint
 10
1457.549081114757
 20
484.1313648871746
 30
0.0
  0
POINT
  5
66C0
330
637A
100
AcDbEntity
  8
Defpoints
  6
Continuous
 62
     0
100
AcDbPoint
 10
1460.605243114757
 20
484.1313648871746
 30
0.0
  0
ENDBLK
  5
6386
330
637A
100
AcDbEntity
  8
0
100
AcDbBlockEnd
  0
BLOCK
  5
6391
330
6388
100
AcDbEntity
  8
0
100
AcDbBlockBegin
  2
*D45
 70
     1
 10
0.0
 20
0.0
 30
0.0
  3
*D45
  1

  0
LINE
  5
6798
330
6388
100
AcDbEntity
  8
寸法
  6
Continuous
 62
     4
370
    -2
100
AcDbLine
 10
1455.991900114757
 20
485.0936748871746
 30
0.0
 11
1455.991900114757
 21
489.8575698871747
 31
0.0
  0
LINE
  5
6799
330
6388
100
AcDbEntity
  8
寸法
  6
Continuous
 62
     4
370
    -2
100
AcDbLine
 10
1451.391900114757
 20
489.8575698871747
 30
0.0
 11
1454.991900114757
 21
489.8575698871747
 31
0.0
  0
INSERT
  5
679A
330
6388
100
AcDbEntity
  8
寸法
  6
Continuous
 62
     4
370
    -2
100
AcDbBlockReference
  2
_Dot
 10
1450.391900114757
 20
489.8575698871747
 30
0.0
 50
180.0
  0
INSERT
  5
679B
330
6388
100
AcDbEntity
  8
寸法
  6
Continuous
 62
     4
370
    -2
100
AcDbBlockReference
  2
_Dot
 10
1455.991900114757
 20
489.8575698871747
 30
0.0
  0
MTEXT
  5
679C
330
6388
100
AcDbEntity
  8
寸法
  6
Continuous
 62
     3
100
AcDbMText
 10
1453.191900114757
 20
492.3575698871746
 30
0.0
 40
3.0
 41
0.0
 71
     5
 72
     1
  1
\A1;5.6
  7
ACAD
 73
     1
 44
1.0
1001
ACAD
1000
MTEXTBEGIN
1070
    73
1070
     1
1070
    44
1040
1.0
1070
    74
1070
     0
1000
MTEXTEND
  0
POINT
  5
679D
330
6388
100
AcDbEntity
  8
Defpoints
  6
Continuous
 62
     0
100
AcDbPoint
 10
1450.391900114757
 20
489.8575698871747
 30
0.0
  0
POINT
  5
679E
330
6388
100
AcDbEntity
  8
Defpoints
  6
Continuous
 62
     0
100
AcDbPoint
 10
1455.991900114757
 20
485.0936748871746
 30
0.0
  0
POINT
  5
679F
330
6388
100
AcDbEntity
  8
Defpoints
  6
Continuous
 62
     0
100
AcDbPoint
 10
1455.991900114757
 20
489.8575698871747
 30
0.0
  0
ENDBLK
  5
6392
330
6388
100
AcDbEntity
  8
0
100
AcDbBlockEnd
  0
BLOCK
  5
63A7
330
639D
100
AcDbEntity
  8
0
100
AcDbBlockBegin
  2
*D46
 70
     1
 10
0.0
 20
0.0
 30
0.0
  3
*D46
  1

  0
LINE
  5
66CA
330
639D
100
AcDbEntity
  8
寸法
  6
Continuous
 62
     4
370
    -2
100
AcDbLine
 10
1437.891900114757
 20
482.0652728871747
 30
0.0
 11
1437.891900114757
 21
495.4452318871747
 31
0.0
  0
LINE
  5
66CB
330
639D
100
AcDbEntity
  8
寸法
  6
Continuous
 62
     4
370
    -2
100
AcDbLine
 10
1455.991900114757
 20
485.0936748871746
 30
0.0
 11
1455.991900114757
 21
495.4452318871747
 31
0.0
  0
LINE
  5
66CC
330
639D
100
AcDbEntity
  8
寸法
  6
Continuous
 62
     4
370
    -2
100
AcDbLine
 10
1438.891900114757
 20
495.4452318871747
 30
0.0
 11
1454.991900114757
 21
495.4452318871747
 31
0.0
  0
INSERT
  5
66CD
330
639D
100
AcDbEntity
  8
寸法
  6
Continuous
 62
     4
370
    -2
100
AcDbBlockReference
  2
_Dot
 10
1437.891900114757
 20
495.4452318871747
 30
0.0
 50
180.0
  0
INSERT
  5
66CE
330
639D
100
AcDbEntity
  8
寸法
  6
Continuous
 62
     4
370
    -2
100
AcDbBlockReference
  2
_Dot
 10
1455.991900114757
 20
495.4452318871747
 30
0.0
  0
MTEXT
  5
66CF
330
639D
100
AcDbEntity
  8
寸法
  6
Continuous
 62
     3
100
AcDbMText
 10
1446.941900114757
 20
497.9452318871746
 30
0.0
 40
3.0
 41
0.0
 71
     5
 72
     1
  1
\A1;18.1
  7
ACAD
 73
     1
 44
1.0
1001
ACAD
1000
MTEXTBEGIN
1070
    73
1070
     1
1070
    44
1040
1.0
1070
    74
1070
     0
1000
MTEXTEND
  0
POINT
  5
66D0
330
639D
100
AcDbEntity
  8
Defpoints
  6
Continuous
 62
     0
100
AcDbPoint
 10
1437.891900114757
 20
482.0652728871747
 30
0.0
  0
POINT
  5
66D1
330
639D
100
AcDbEntity
  8
Defpoints
  6
Continuous
 62
     0
100
AcDbPoint
 10
1455.991900114757
 20
485.0936748871746
 30
0.0
  0
POINT
  5
66D2
330
639D
100
AcDbEntity
  8
Defpoints
  6
Continuous
 62
     0
100
AcDbPoint
 10
1455.991900114757
 20
495.4452318871747
 30
0.0
  0
ENDBLK
  5
63A8
330
639D
100
AcDbEntity
  8
0
100
AcDbBlockEnd
  0
BLOCK
  5
63BD
330
63B3
100
AcDbEntity
  8
0
100
AcDbBlockBegin
  2
*D47
 70
     1
 10
0.0
 20
0.0
 30
0.0
  3
*D47
  1

  0
LINE
  5
66D3
330
63B3
100
AcDbEntity
  8
寸法
  6
Continuous
 62
     4
370
    -2
100
AcDbLine
 10
1429.891900114757
 20
485.1209298871747
 30
0.0
 11
1429.891900114757
 21
501.8313648871746
 31
0.0
  0
LINE
  5
66D4
330
63B3
100
AcDbEntity
  8
寸法
  6
Continuous
 62
     4
370
    -2
100
AcDbLine
 10
1455.991900114757
 20
485.0936748871746
 30
0.0
 11
1455.991900114757
 21
501.8313648871746
 31
0.0
  0
LINE
  5
66D5
330
63B3
100
AcDbEntity
  8
寸法
  6
Continuous
 62
     4
370
    -2
100
AcDbLine
 10
1430.891900114757
 20
501.8313648871746
 30
0.0
 11
1454.991900114757
 21
501.8313648871746
 31
0.0
  0
INSERT
  5
66D6
330
63B3
100
AcDbEntity
  8
寸法
  6
Continuous
 62
     4
370
    -2
100
AcDbBlockReference
  2
_Dot
 10
1429.891900114757
 20
501.8313648871746
 30
0.0
 50
180.0
  0
INSERT
  5
66D7
330
63B3
100
AcDbEntity
  8
寸法
  6
Continuous
 62
     4
370
    -2
100
AcDbBlockReference
  2
_Dot
 10
1455.991900114757
 20
501.8313648871746
 30
0.0
  0
MTEXT
  5
66D8
330
63B3
100
AcDbEntity
  8
寸法
  6
Continuous
 62
     3
100
AcDbMText
 10
1442.941900114757
 20
504.3313648871746
 30
0.0
 40
3.0
 41
0.0
 71
     5
 72
     1
  1
\A1;26.1
  7
ACAD
 73
     1
 44
1.0
1001
ACAD
1000
MTEXTBEGIN
1070
    73
1070
     1
1070
    44
1040
1.0
1070
    74
1070
     0
1000
MTEXTEND
  0
POINT
  5
66D9
330
63B3
100
AcDbEntity
  8
Defpoints
  6
Continuous
 62
     0
100
AcDbPoint
 10
1429.891900114757
 20
485.1209298871747
 30
0.0
  0
POINT
  5
66DA
330
63B3
100
AcDbEntity
  8
Defpoints
  6
Continuous
 62
     0
100
AcDbPoint
 10
1455.991900114757
 20
485.0936748871746
 30
0.0
  0
POINT
  5
66DB
330
63B3
100
AcDbEntity
  8
Defpoints
  6
Continuous
 62
     0
100
AcDbPoint
 10
1455.991900114757
 20
501.8313648871746
 30
0.0
  0
ENDBLK
  5
63BE
330
63B3
100
AcDbEntity
  8
0
100
AcDbBlockEnd
  0
BLOCK
  5
63D3
330
63C9
100
AcDbEntity
  8
0
100
AcDbBlockBegin
  2
*D48
 70
     1
 10
0.0
 20
0.0
 30
0.0
  3
*D48
  1

  0
LINE
  5
66DC
330
63C9
100
AcDbEntity
  8
寸法
  6
Continuous
 62
     4
370
    -2
100
AcDbLine
 10
1336.946521114757
 20
470.1325608871747
 30
0.0
 11
1301.867046114757
 21
470.1325608871747
 31
0.0
  0
LINE
  5
66DD
330
63C9
100
AcDbEntity
  8
寸法
  6
Continuous
 62
     4
370
    -2
100
AcDbLine
 10
1318.600489114757
 20
477.0325608871747
 30
0.0
 11
1301.867046114757
 21
477.0325608871747
 31
0.0
  0
LINE
  5
66DE
330
63C9
100
AcDbEntity
  8
寸法
  6
Continuous
 62
     4
370
    -2
100
AcDbLine
 10
1301.867046114757
 20
471.1325608871747
 30
0.0
 11
1301.867046114757
 21
476.0325608871747
 31
0.0
  0
INSERT
  5
66DF
330
63C9
100
AcDbEntity
  8
寸法
  6
Continuous
 62
     4
370
    -2
100
AcDbBlockReference
  2
_Dot
 10
1301.867046114757
 20
470.1325608871747
 30
0.0
 50
270.0
  0
INSERT
  5
66E0
330
63C9
100
AcDbEntity
  8
寸法
  6
Continuous
 62
     4
370
    -2
100
AcDbBlockReference
  2
_Dot
 10
1301.867046114757
 20
477.0325608871747
 30
0.0
 50
90.0
  0
MTEXT
  5
66E1
330
63C9
100
AcDbEntity
  8
寸法
  6
Continuous
 62
     3
100
AcDbMText
 10
1299.367046114757
 20
473.5825608871748
 30
0.0
 40
3.0
 41
0.0
 71
     5
 72
     1
  1
\A1;6.9
  7
ACAD
 11
0.0000000000000001
 21
1.0
 31
0.0
 73
     1
 44
1.0
1001
ACAD
1000
MTEXTBEGIN
1070
    73
1070
     1
1070
    44
1040
1.0
1070
    74
1070
     0
1000
MTEXTEND
  0
POINT
  5
66E2
330
63C9
100
AcDbEntity
  8
Defpoints
  6
Continuous
 62
     0
100
AcDbPoint
 10
1336.946521114757
 20
470.1325608871747
 30
0.0
  0
POINT
  5
66E3
330
63C9
100
AcDbEntity
  8
Defpoints
  6
Continuous
 62
     0
100
AcDbPoint
 10
1318.600489114757
 20
477.0325608871747
 30
0.0
  0
POINT
  5
66E4
330
63C9
100
AcDbEntity
  8
Defpoints
  6
Continuous
 62
     0
100
AcDbPoint
 10
1301.867046114757
 20
477.0325608871747
 30
0.0
  0
ENDBLK
  5
63D4
330
63C9
100
AcDbEntity
  8
0
100
AcDbBlockEnd
  0
BLOCK
  5
63EB
330
63E0
100
AcDbEntity
  8
0
100
AcDbBlockBegin
  2
*D49
 70
     1
 10
0.0
 20
0.0
 30
0.0
  3
*D49
  1

  0
LINE
  5
67B2
330
63E0
100
AcDbEntity
  8
寸法
  6
Continuous
 62
     4
370
    -2
100
AcDbLine
 10
1318.600489114757
 20
477.0325608871747
 30
0.0
 11
1307.092366495046
 21
477.0325608871747
 31
0.0
  0
LINE
  5
67B3
330
63E0
100
AcDbEntity
  8
寸法
  6
Continuous
 62
     4
370
    -2
100
AcDbLine
 10
1310.355332114757
 20
478.0325608871747
 30
0.0
 11
1307.092366495046
 21
478.0325608871747
 31
0.0
  0
LINE
  5
67B4
330
63E0
100
AcDbEntity
  8
寸法
  6
Continuous
 62
     4
370
    -2
100
AcDbLine
 10
1307.092366495046
 20
476.0325608871747
 30
0.0
 11
1307.092366495046
 21
475.0325608871746
 31
0.0
  0
LINE
  5
67B5
330
63E0
100
AcDbEntity
  8
寸法
  6
Continuous
 62
     4
370
    -2
100
AcDbLine
 10
1307.092366495046
 20
479.0325608871746
 30
0.0
 11
1307.092366495046
 21
480.0325608871747
 31
0.0
  0
INSERT
  5
67B6
330
63E0
100
AcDbEntity
  8
寸法
  6
Continuous
 62
     4
370
    -2
100
AcDbBlockReference
  2
_Dot
 10
1307.092366495046
 20
477.0325608871747
 30
0.0
 50
90.0
  0
INSERT
  5
67B7
330
63E0
100
AcDbEntity
  8
寸法
  6
Continuous
 62
     4
370
    -2
100
AcDbBlockReference
  2
_Dot
 10
1307.092366495046
 20
478.0325608871747
 30
0.0
 50
270.0
  0
MTEXT
  5
67B8
330
63E0
100
AcDbEntity
  8
寸法
  6
Continuous
 62
     3
100
AcDbMText
 10
1304.592366495046
 20
477.5325608871749
 30
0.0
 40
3.0
 41
0.0
 71
     5
 72
     1
  1
\A1;1
  7
ACAD
 11
0.0000000000000001
 21
1.0
 31
0.0
 73
     1
 44
1.0
1001
ACAD
1000
MTEXTBEGIN
1070
    73
1070
     1
1070
    44
1040
1.0
1070
    74
1070
     0
1000
MTEXTEND
  0
POINT
  5
67B9
330
63E0
100
AcDbEntity
  8
Defpoints
  6
Continuous
 62
     0
100
AcDbPoint
 10
1318.600489114757
 20
477.0325608871747
 30
0.0
  0
POINT
  5
67BA
330
63E0
100
AcDbEntity
  8
Defpoints
  6
Continuous
 62
     0
100
AcDbPoint
 10
1310.355332114757
 20
478.0325608871747
 30
0.0
  0
POINT
  5
67BB
330
63E0
100
AcDbEntity
  8
Defpoints
  6
Continuous
 62
     0
100
AcDbPoint
 10
1307.092366495046
 20
478.0325608871747
 30
0.0
  0
ENDBLK
  5
63EC
330
63E0
100
AcDbEntity
  8
0
100
AcDbBlockEnd
  0
BLOCK
  5
63F8
330
63EE
100
AcDbEntity
  8
0
100
AcDbBlockBegin
  2
*D50
 70
     1
 10
0.0
 20
0.0
 30
0.0
  3
*D50
  1

  0
LINE
  5
67A9
330
63EE
100
AcDbEntity
  8
寸法
  6
Continuous
 62
     4
370
    -2
100
AcDbLine
 10
1318.600489114757
 20
477.0325608871747
 30
0.0
 11
1301.867046114757
 21
477.0325608871747
 31
0.0
  0
LINE
  5
67AA
330
63EE
100
AcDbEntity
  8
寸法
  6
Continuous
 62
     4
370
    -2
100
AcDbLine
 10
1310.082211114757
 20
482.6325608871747
 30
0.0
 11
1301.867046114757
 21
482.6325608871747
 31
0.0
  0
LINE
  5
67AB
330
63EE
100
AcDbEntity
  8
寸法
  6
Continuous
 62
     4
370
    -2
100
AcDbLine
 10
1301.867046114757
 20
478.0325608871747
 30
0.0
 11
1301.867046114757
 21
481.6325608871746
 31
0.0
  0
INSERT
  5
67AC
330
63EE
100
AcDbEntity
  8
寸法
  6
Continuous
 62
     4
370
    -2
100
AcDbBlockReference
  2
_Dot
 10
1301.867046114757
 20
477.0325608871747
 30
0.0
 50
270.0
  0
INSERT
  5
67AD
330
63EE
100
AcDbEntity
  8
寸法
  6
Continuous
 62
     4
370
    -2
100
AcDbBlockReference
  2
_Dot
 10
1301.867046114757
 20
482.6325608871747
 30
0.0
 50
90.0
  0
MTEXT
  5
67AE
330
63EE
100
AcDbEntity
  8
寸法
  6
Continuous
 62
     3
100
AcDbMText
 10
1299.367046114757
 20
479.8325608871748
 30
0.0
 40
3.0
 41
0.0
 71
     5
 72
     1
  1
\A1;5.6
  7
ACAD
 11
0.0000000000000001
 21
1.0
 31
0.0
 73
     1
 44
1.0
1001
ACAD
1000
MTEXTBEGIN
1070
    73
1070
     1
1070
    44
1040
1.0
1070
    74
1070
     0
1000
MTEXTEND
  0
POINT
  5
67AF
330
63EE
100
AcDbEntity
  8
Defpoints
  6
Continuous
 62
     0
100
AcDbPoint
 10
1318.600489114757
 20
477.0325608871747
 30
0.0
  0
POINT
  5
67B0
330
63EE
100
AcDbEntity
  8
Defpoints
  6
Continuous
 62
     0
100
AcDbPoint
 10
1310.082211114757
 20
482.6325608871747
 30
0.0
  0
POINT
  5
67B1
330
63EE
100
AcDbEntity
  8
Defpoints
  6
Continuous
 62
     0
100
AcDbPoint
 10
1301.867046114757
 20
482.6325608871747
 30
0.0
  0
ENDBLK
  5
63F9
330
63EE
100
AcDbEntity
  8
0
100
AcDbBlockEnd
  0
BLOCK
  5
640F
330
6405
100
AcDbEntity
  8
0
100
AcDbBlockBegin
  2
*D51
 70
     1
 10
0.0
 20
0.0
 30
0.0
  3
*D51
  1

  0
LINE
  5
66F9
330
6405
100
AcDbEntity
  8
寸法
  6
Continuous
 62
     4
370
    -2
100
AcDbLine
 10
1311.891900114757
 20
474.0325598871747
 30
0.0
 11
1311.891900114757
 21
464.7849698871747
 31
0.0
  0
LINE
  5
66FA
330
6405
100
AcDbEntity
  8
寸法
  6
Continuous
 62
     4
370
    -2
100
AcDbLine
 10
1319.891900114757
 20
474.6659448871747
 30
0.0
 11
1319.891900114757
 21
464.7849698871747
 31
0.0
  0
LINE
  5
66FB
330
6405
100
AcDbEntity
  8
寸法
  6
Continuous
 62
     4
370
    -2
100
AcDbLine
 10
1312.891900114757
 20
464.7849698871747
 30
0.0
 11
1318.891900114757
 21
464.7849698871747
 31
0.0
  0
INSERT
  5
66FC
330
6405
100
AcDbEntity
  8
寸法
  6
Continuous
 62
     4
370
    -2
100
AcDbBlockReference
  2
_Dot
 10
1311.891900114757
 20
464.7849698871747
 30
0.0
 50
180.0
  0
INSERT
  5
66FD
330
6405
100
AcDbEntity
  8
寸法
  6
Continuous
 62
     4
370
    -2
100
AcDbBlockReference
  2
_Dot
 10
1319.891900114757
 20
464.7849698871747
 30
0.0
  0
MTEXT
  5
66FE
330
6405
100
AcDbEntity
  8
寸法
  6
Continuous
 62
     3
100
AcDbMText
 10
1315.891900114757
 20
467.2849698871747
 30
0.0
 40
3.0
 41
0.0
 71
     5
 72
     1
  1
\A1;8
  7
ACAD
 73
     1
 44
1.0
1001
ACAD
1000
MTEXTBEGIN
1070
    73
1070
     1
1070
    44
1040
1.0
1070
    74
1070
     0
1000
MTEXTEND
  0
POINT
  5
66FF
330
6405
100
AcDbEntity
  8
Defpoints
  6
Continuous
 62
     0
100
AcDbPoint
 10
1311.891900114757
 20
474.0325598871747
 30
0.0
  0
POINT
  5
6700
330
6405
100
AcDbEntity
  8
Defpoints
  6
Continuous
 62
     0
100
AcDbPoint
 10
1319.891900114757
 20
474.6659448871747
 30
0.0
  0
POINT
  5
6701
330
6405
100
AcDbEntity
  8
Defpoints
  6
Continuous
 62
     0
100
AcDbPoint
 10
1319.891900114757
 20
464.7849698871747
 30
0.0
  0
ENDBLK
  5
6410
330
6405
100
AcDbEntity
  8
0
100
AcDbBlockEnd
  0
BLOCK
  5
641C
330
6412
100
AcDbEntity
  8
0
100
AcDbBlockBegin
  2
*D52
 70
     1
 10
0.0
 20
0.0
 30
0.0
  3
*D52
  1

  0
LINE
  5
6702
330
6412
100
AcDbEntity
  8
寸法
  6
Continuous
 62
     4
370
    -2
100
AcDbLine
 10
1339.791900114757
 20
469.4253928871747
 30
0.0
 11
1339.791900114757
 21
465.0110258871746
 31
0.0
  0
LINE
  5
6703
330
6412
100
AcDbEntity
  8
寸法
  6
Continuous
 62
     4
370
    -2
100
AcDbLine
 10
1354.991900114757
 20
469.5277118871747
 30
0.0
 11
1354.991900114757
 21
465.0110258871746
 31
0.0
  0
LINE
  5
6704
330
6412
100
AcDbEntity
  8
寸法
  6
Continuous
 62
     4
370
    -2
100
AcDbLine
 10
1340.791900114757
 20
465.0110258871746
 30
0.0
 11
1353.991900114757
 21
465.0110258871746
 31
0.0
  0
INSERT
  5
6705
330
6412
100
AcDbEntity
  8
寸法
  6
Continuous
 62
     4
370
    -2
100
AcDbBlockReference
  2
_Dot
 10
1339.791900114757
 20
465.0110258871746
 30
0.0
 50
180.0
  0
INSERT
  5
6706
330
6412
100
AcDbEntity
  8
寸法
  6
Continuous
 62
     4
370
    -2
100
AcDbBlockReference
  2
_Dot
 10
1354.991900114757
 20
465.0110258871746
 30
0.0
  0
MTEXT
  5
6707
330
6412
100
AcDbEntity
  8
寸法
  6
Continuous
 62
     3
100
AcDbMText
 10
1347.391900114757
 20
467.5110258871747
 30
0.0
 40
3.0
 41
0.0
 71
     5
 72
     1
  1
\A1;15.2
  7
ACAD
 73
     1
 44
1.0
1001
ACAD
1000
MTEXTBEGIN
1070
    73
1070
     1
1070
    44
1040
1.0
1070
    74
1070
     0
1000
MTEXTEND
  0
POINT
  5
6708
330
6412
100
AcDbEntity
  8
Defpoints
  6
Continuous
 62
     0
100
AcDbPoint
 10
1339.791900114757
 20
469.4253928871747
 30
0.0
  0
POINT
  5
6709
330
6412
100
AcDbEntity
  8
Defpoints
  6
Continuous
 62
     0
100
AcDbPoint
 10
1354.991900114757
 20
469.5277118871747
 30
0.0
  0
POINT
  5
670A
330
6412
100
AcDbEntity
  8
Defpoints
  6
Continuous
 62
     0
100
AcDbPoint
 10
1354.991900114757
 20
465.0110258871746
 30
0.0
  0
ENDBLK
  5
641D
330
6412
100
AcDbEntity
  8
0
100
AcDbBlockEnd
  0
BLOCK
  5
6432
330
6428
100
AcDbEntity
  8
0
100
AcDbBlockBegin
  2
*D53
 70
     1
 10
0.0
 20
0.0
 30
0.0
  3
*D53
  1

  0
LINE
  5
670B
330
6428
100
AcDbEntity
  8
寸法
  6
Continuous
 62
     4
370
    -2
100
AcDbLine
 10
1355.733636114757
 20
470.1325608871747
 30
0.0
 11
1364.559680114757
 21
470.1325608871747
 31
0.0
  0
LINE
  5
670C
330
6428
100
AcDbEntity
  8
寸法
  6
Continuous
 62
     4
370
    -2
100
AcDbLine
 10
1349.456875114757
 20
484.1325608871747
 30
0.0
 11
1364.559680114757
 21
484.1325608871747
 31
0.0
  0
LINE
  5
670D
330
6428
100
AcDbEntity
  8
寸法
  6
Continuous
 62
     4
370
    -2
100
AcDbLine
 10
1364.559680114757
 20
471.1325608871747
 30
0.0
 11
1364.559680114757
 21
483.1325608871747
 31
0.0
  0
INSERT
  5
670E
330
6428
100
AcDbEntity
  8
寸法
  6
Continuous
 62
     4
370
    -2
100
AcDbBlockReference
  2
_Dot
 10
1364.559680114757
 20
470.1325608871747
 30
0.0
 50
270.0
  0
INSERT
  5
670F
330
6428
100
AcDbEntity
  8
寸法
  6
Continuous
 62
     4
370
    -2
100
AcDbBlockReference
  2
_Dot
 10
1364.559680114757
 20
484.1325608871747
 30
0.0
 50
90.0
  0
MTEXT
  5
6710
330
6428
100
AcDbEntity
  8
寸法
  6
Continuous
 62
     3
100
AcDbMText
 10
1362.059680114757
 20
477.1325608871749
 30
0.0
 40
3.0
 41
0.0
 71
     5
 72
     1
  1
\A1;14
  7
ACAD
 11
0.0000000000000001
 21
1.0
 31
0.0
 73
     1
 44
1.0
1001
ACAD
1000
MTEXTBEGIN
1070
    73
1070
     1
1070
    44
1040
1.0
1070
    74
1070
     0
1000
MTEXTEND
  0
POINT
  5
6711
330
6428
100
AcDbEntity
  8
Defpoints
  6
Continuous
 62
     0
100
AcDbPoint
 10
1355.733636114757
 20
470.1325608871747
 30
0.0
  0
POINT
  5
6712
330
6428
100
AcDbEntity
  8
Defpoints
  6
Continuous
 62
     0
100
AcDbPoint
 10
1349.456875114757
 20
484.1325608871747
 30
0.0
  0
POINT
  5
6713
330
6428
100
AcDbEntity
  8
Defpoints
  6
Continuous
 62
     0
100
AcDbPoint
 10
1364.559680114757
 20
484.1325608871747
 30
0.0
  0
ENDBLK
  5
6433
330
6428
100
AcDbEntity
  8
0
100
AcDbBlockEnd
  0
BLOCK
  5
643F
330
6435
100
AcDbEntity
  8
0
100
AcDbBlockBegin
  2
*D54
 70
     1
 10
0.0
 20
0.0
 30
0.0
  3
*D54
  1

  0
LINE
  5
6714
330
6435
100
AcDbEntity
  8
寸法
  6
Continuous
 62
     4
370
    -2
100
AcDbLine
 10
1311.891900114757
 20
474.0325598871747
 30
0.0
 11
1311.891900114757
 21
450.2507488871747
 31
0.0
  0
LINE
  5
6715
330
6435
100
AcDbEntity
  8
寸法
  6
Continuous
 62
     4
370
    -2
100
AcDbLine
 10
1347.391900114757
 20
468.2513688871747
 30
0.0
 11
1347.391900114757
 21
450.2507488871747
 31
0.0
  0
LINE
  5
6716
330
6435
100
AcDbEntity
  8
寸法
  6
Continuous
 62
     4
370
    -2
100
AcDbLine
 10
1312.891900114757
 20
450.2507488871747
 30
0.0
 11
1346.391900114757
 21
450.2507488871747
 31
0.0
  0
INSERT
  5
6717
330
6435
100
AcDbEntity
  8
寸法
  6
Continuous
 62
     4
370
    -2
100
AcDbBlockReference
  2
_Dot
 10
1311.891900114757
 20
450.2507488871747
 30
0.0
 50
180.0
  0
INSERT
  5
6718
330
6435
100
AcDbEntity
  8
寸法
  6
Continuous
 62
     4
370
    -2
100
AcDbBlockReference
  2
_Dot
 10
1347.391900114757
 20
450.2507488871747
 30
0.0
  0
MTEXT
  5
6719
330
6435
100
AcDbEntity
  8
寸法
  6
Continuous
 62
     3
100
AcDbMText
 10
1329.641900114757
 20
452.7507488871747
 30
0.0
 40
3.0
 41
0.0
 71
     5
 72
     1
  1
\A1;35.5
  7
ACAD
 73
     1
 44
1.0
1001
ACAD
1000
MTEXTBEGIN
1070
    73
1070
     1
1070
    44
1040
1.0
1070
    74
1070
     0
1000
MTEXTEND
  0
POINT
  5
671A
330
6435
100
AcDbEntity
  8
Defpoints
  6
Continuous
 62
     0
100
AcDbPoint
 10
1311.891900114757
 20
474.0325598871747
 30
0.0
  0
POINT
  5
671B
330
6435
100
AcDbEntity
  8
Defpoints
  6
Continuous
 62
     0
100
AcDbPoint
 10
1347.391900114757
 20
468.2513688871747
 30
0.0
  0
POINT
  5
671C
330
6435
100
AcDbEntity
  8
Defpoints
  6
Continuous
 62
     0
100
AcDbPoint
 10
1347.391900114757
 20
450.2507488871747
 30
0.0
  0
ENDBLK
  5
6440
330
6435
100
AcDbEntity
  8
0
100
AcDbBlockEnd
  0
BLOCK
  5
6455
330
644B
100
AcDbEntity
  8
0
100
AcDbBlockBegin
  2
*D55
 70
     1
 10
0.0
 20
0.0
 30
0.0
  3
*D55
  1

  0
LINE
  5
671D
330
644B
100
AcDbEntity
  8
寸法
  6
Continuous
 62
     4
370
    -2
100
AcDbLine
 10
1347.391900114757
 20
468.2513688871747
 30
0.0
 11
1347.391900114757
 21
458.1325608871747
 31
0.0
  0
LINE
  5
671E
330
644B
100
AcDbEntity
  8
寸法
  6
Continuous
 62
     4
370
    -2
100
AcDbLine
 10
1377.391900114757
 20
467.2781968871746
 30
0.0
 11
1377.391900114757
 21
458.1325608871747
 31
0.0
  0
LINE
  5
671F
330
644B
100
AcDbEntity
  8
寸法
  6
Continuous
 62
     4
370
    -2
100
AcDbLine
 10
1348.391900114757
 20
458.1325608871747
 30
0.0
 11
1376.391900114757
 21
458.1325608871747
 31
0.0
  0
INSERT
  5
6720
330
644B
100
AcDbEntity
  8
寸法
  6
Continuous
 62
     4
370
    -2
100
AcDbBlockReference
  2
_Dot
 10
1347.391900114757
 20
458.1325608871747
 30
0.0
 50
180.0
  0
INSERT
  5
6721
330
644B
100
AcDbEntity
  8
寸法
  6
Continuous
 62
     4
370
    -2
100
AcDbBlockReference
  2
_Dot
 10
1377.391900114757
 20
458.1325608871747
 30
0.0
  0
MTEXT
  5
6722
330
644B
100
AcDbEntity
  8
寸法
  6
Continuous
 62
     3
100
AcDbMText
 10
1362.391900114757
 20
460.6325608871747
 30
0.0
 40
3.0
 41
0.0
 71
     5
 72
     1
  1
\A1;30
  7
ACAD
 73
     1
 44
1.0
1001
ACAD
1000
MTEXTBEGIN
1070
    73
1070
     1
1070
    44
1040
1.0
1070
    74
1070
     0
1000
MTEXTEND
  0
POINT
  5
6723
330
644B
100
AcDbEntity
  8
Defpoints
  6
Continuous
 62
     0
100
AcDbPoint
 10
1347.391900114757
 20
468.2513688871747
 30
0.0
  0
POINT
  5
6724
330
644B
100
AcDbEntity
  8
Defpoints
  6
Continuous
 62
     0
100
AcDbPoint
 10
1377.391900114757
 20
467.2781968871746
 30
0.0
  0
POINT
  5
6725
330
644B
100
AcDbEntity
  8
Defpoints
  6
Continuous
 62
     0
100
AcDbPoint
 10
1377.391900114757
 20
458.1325608871747
 30
0.0
  0
ENDBLK
  5
6456
330
644B
100
AcDbEntity
  8
0
100
AcDbBlockEnd
  0
BLOCK
  5
6462
330
6458
100
AcDbEntity
  8
0
100
AcDbBlockBegin
  2
*D56
 70
     1
 10
0.0
 20
0.0
 30
0.0
  3
*D56
  1

  0
LINE
  5
6726
330
6458
100
AcDbEntity
  8
寸法
  6
Continuous
 62
     4
370
    -2
100
AcDbLine
 10
1377.391900114757
 20
467.2781968871746
 30
0.0
 11
1377.391900114757
 21
458.1325608871747
 31
0.0
  0
LINE
  5
6727
330
6458
100
AcDbEntity
  8
寸法
  6
Continuous
 62
     4
370
    -2
100
AcDbLine
 10
1407.391900114757
 20
468.6497768871746
 30
0.0
 11
1407.391900114757
 21
458.1325608871747
 31
0.0
  0
LINE
  5
6728
330
6458
100
AcDbEntity
  8
寸法
  6
Continuous
 62
     4
370
    -2
100
AcDbLine
 10
1378.391900114757
 20
458.1325608871747
 30
0.0
 11
1406.391900114757
 21
458.1325608871747
 31
0.0
  0
INSERT
  5
6729
330
6458
100
AcDbEntity
  8
寸法
  6
Continuous
 62
     4
370
    -2
100
AcDbBlockReference
  2
_Dot
 10
1377.391900114757
 20
458.1325608871747
 30
0.0
 50
180.0
  0
INSERT
  5
672A
330
6458
100
AcDbEntity
  8
寸法
  6
Continuous
 62
     4
370
    -2
100
AcDbBlockReference
  2
_Dot
 10
1407.391900114757
 20
458.1325608871747
 30
0.0
  0
MTEXT
  5
672B
330
6458
100
AcDbEntity
  8
寸法
  6
Continuous
 62
     3
100
AcDbMText
 10
1392.391900114757
 20
460.6325608871747
 30
0.0
 40
3.0
 41
0.0
 71
     5
 72
     1
  1
\A1;30
  7
ACAD
 73
     1
 44
1.0
1001
ACAD
1000
MTEXTBEGIN
1070
    73
1070
     1
1070
    44
1040
1.0
1070
    74
1070
     0
1000
MTEXTEND
  0
POINT
  5
672C
330
6458
100
AcDbEntity
  8
Defpoints
  6
Continuous
 62
     0
100
AcDbPoint
 10
1377.391900114757
 20
467.2781968871746
 30
0.0
  0
POINT
  5
672D
330
6458
100
AcDbEntity
  8
Defpoints
  6
Continuous
 62
     0
100
AcDbPoint
 10
1407.391900114757
 20
468.6497768871746
 30
0.0
  0
POINT
  5
672E
330
6458
100
AcDbEntity
  8
Defpoints
  6
Continuous
 62
     0
100
AcDbPoint
 10
1407.391900114757
 20
458.1325608871747
 30
0.0
  0
ENDBLK
  5
6463
330
6458
100
AcDbEntity
  8
0
100
AcDbBlockEnd
  0
BLOCK
  5
646F
330
6465
100
AcDbEntity
  8
0
100
AcDbBlockBegin
  2
*D57
 70
     1
 10
0.0
 20
0.0
 30
0.0
  3
*D57
  1

  0
LINE
  5
672F
330
6465
100
AcDbEntity
  8
寸法
  6
Continuous
 62
     4
370
    -2
100
AcDbLine
 10
1407.391900114757
 20
468.6497768871746
 30
0.0
 11
1407.391900114757
 21
458.1325608871747
 31
0.0
  0
LINE
  5
6730
330
6465
100
AcDbEntity
  8
寸法
  6
Continuous
 62
     4
370
    -2
100
AcDbLine
 10
1437.391900114757
 20
467.5007578871746
 30
0.0
 11
1437.391900114757
 21
458.1325608871747
 31
0.0
  0
LINE
  5
6731
330
6465
100
AcDbEntity
  8
寸法
  6
Continuous
 62
     4
370
    -2
100
AcDbLine
 10
1408.391900114757
 20
458.1325608871747
 30
0.0
 11
1436.391900114757
 21
458.1325608871747
 31
0.0
  0
INSERT
  5
6732
330
6465
100
AcDbEntity
  8
寸法
  6
Continuous
 62
     4
370
    -2
100
AcDbBlockReference
  2
_Dot
 10
1407.391900114757
 20
458.1325608871747
 30
0.0
 50
180.0
  0
INSERT
  5
6733
330
6465
100
AcDbEntity
  8
寸法
  6
Continuous
 62
     4
370
    -2
100
AcDbBlockReference
  2
_Dot
 10
1437.391900114757
 20
458.1325608871747
 30
0.0
  0
MTEXT
  5
6734
330
6465
100
AcDbEntity
  8
寸法
  6
Continuous
 62
     3
100
AcDbMText
 10
1422.391900114757
 20
460.6325608871747
 30
0.0
 40
3.0
 41
0.0
 71
     5
 72
     1
  1
\A1;30
  7
ACAD
 73
     1
 44
1.0
1001
ACAD
1000
MTEXTBEGIN
1070
    73
1070
     1
1070
    44
1040
1.0
1070
    74
1070
     0
1000
MTEXTEND
  0
POINT
  5
6735
330
6465
100
AcDbEntity
  8
Defpoints
  6
Continuous
 62
     0
100
AcDbPoint
 10
1407.391900114757
 20
468.6497768871746
 30
0.0
  0
POINT
  5
6736
330
6465
100
AcDbEntity
  8
Defpoints
  6
Continuous
 62
     0
100
AcDbPoint
 10
1437.391900114757
 20
467.5007578871746
 30
0.0
  0
POINT
  5
6737
330
6465
100
AcDbEntity
  8
Defpoints
  6
Continuous
 62
     0
100
AcDbPoint
 10
1437.391900114757
 20
458.1325608871747
 30
0.0
  0
ENDBLK
  5
6470
330
6465
100
AcDbEntity
  8
0
100
AcDbBlockEnd
  0
BLOCK
  5
647C
330
6472
100
AcDbEntity
  8
0
100
AcDbBlockBegin
  2
*D58
 70
     1
 10
0.0
 20
0.0
 30
0.0
  3
*D58
  1

  0
LINE
  5
6738
330
6472
100
AcDbEntity
  8
寸法
  6
Continuous
 62
     4
370
    -2
100
AcDbLine
 10
1437.391900114757
 20
467.5007578871746
 30
0.0
 11
1437.391900114757
 21
450.2507488871747
 31
0.0
  0
LINE
  5
6739
330
6472
100
AcDbEntity
  8
寸法
  6
Continuous
 62
     4
370
    -2
100
AcDbLine
 10
1467.391900114757
 20
467.6417118871746
 30
0.0
 11
1467.391900114757
 21
450.2507488871747
 31
0.0
  0
LINE
  5
673A
330
6472
100
AcDbEntity
  8
寸法
  6
Continuous
 62
     4
370
    -2
100
AcDbLine
 10
1438.391900114757
 20
450.2507488871747
 30
0.0
 11
1466.391900114757
 21
450.2507488871747
 31
0.0
  0
INSERT
  5
673B
330
6472
100
AcDbEntity
  8
寸法
  6
Continuous
 62
     4
370
    -2
100
AcDbBlockReference
  2
_Dot
 10
1437.391900114757
 20
450.2507488871747
 30
0.0
 50
180.0
  0
INSERT
  5
673C
330
6472
100
AcDbEntity
  8
寸法
  6
Continuous
 62
     4
370
    -2
100
AcDbBlockReference
  2
_Dot
 10
1467.391900114757
 20
450.2507488871747
 30
0.0
  0
MTEXT
  5
673D
330
6472
100
AcDbEntity
  8
寸法
  6
Continuous
 62
     3
100
AcDbMText
 10
1452.391900114757
 20
452.7507488871747
 30
0.0
 40
3.0
 41
0.0
 71
     5
 72
     1
  1
\A1;30
  7
ACAD
 73
     1
 44
1.0
1001
ACAD
1000
MTEXTBEGIN
1070
    73
1070
     1
1070
    44
1040
1.0
1070
    74
1070
     0
1000
MTEXTEND
  0
POINT
  5
673E
330
6472
100
AcDbEntity
  8
Defpoints
  6
Continuous
 62
     0
100
AcDbPoint
 10
1437.391900114757
 20
467.5007578871746
 30
0.0
  0
POINT
  5
673F
330
6472
100
AcDbEntity
  8
Defpoints
  6
Continuous
 62
     0
100
AcDbPoint
 10
1467.391900114757
 20
467.6417118871746
 30
0.0
  0
POINT
  5
6740
330
6472
100
AcDbEntity
  8
Defpoints
  6
Continuous
 62
     0
100
AcDbPoint
 10
1467.391900114757
 20
450.2507488871747
 30
0.0
  0
ENDBLK
  5
647D
330
6472
100
AcDbEntity
  8
0
100
AcDbBlockEnd
  0
BLOCK
  5
6489
330
647F
100
AcDbEntity
  8
0
100
AcDbBlockBegin
  2
*D59
 70
     1
 10
0.0
 20
0.0
 30
0.0
  3
*D59
  1

  0
LINE
  5
6741
330
647F
100
AcDbEntity
  8
寸法
  6
Continuous
 62
     4
370
    -2
100
AcDbLine
 10
1437.391900114757
 20
467.5007578871746
 30
0.0
 11
1437.391900114757
 21
450.2507488871747
 31
0.0
  0
LINE
  5
6742
330
647F
100
AcDbEntity
  8
寸法
  6
Continuous
 62
     4
370
    -2
100
AcDbLine
 10
1347.391900114757
 20
468.2513688871747
 30
0.0
 11
1347.391900114757
 21
450.2507488871747
 31
0.0
  0
LINE
  5
6743
330
647F
100
AcDbEntity
  8
寸法
  6
Continuous
 62
     4
370
    -2
100
AcDbLine
 10
1436.391900114757
 20
450.2507488871747
 30
0.0
 11
1348.391900114757
 21
450.2507488871747
 31
0.0
  0
INSERT
  5
6744
330
647F
100
AcDbEntity
  8
寸法
  6
Continuous
 62
     4
370
    -2
100
AcDbBlockReference
  2
_Dot
 10
1437.391900114757
 20
450.2507488871747
 30
0.0
  0
INSERT
  5
6745
330
647F
100
AcDbEntity
  8
寸法
  6
Continuous
 62
     4
370
    -2
100
AcDbBlockReference
  2
_Dot
 10
1347.391900114757
 20
450.2507488871747
 30
0.0
 50
180.0
  0
MTEXT
  5
6746
330
647F
100
AcDbEntity
  8
寸法
  6
Continuous
 62
     3
100
AcDbMText
 10
1392.391900114757
 20
452.7507488871747
 30
0.0
 40
3.0
 41
0.0
 71
     5
 72
     1
  1
\A1;90
  7
ACAD
 73
     1
 44
1.0
1001
ACAD
1000
MTEXTBEGIN
1070
    73
1070
     1
1070
    44
1040
1.0
1070
    74
1070
     0
1000
MTEXTEND
  0
POINT
  5
6747
330
647F
100
AcDbEntity
  8
Defpoints
  6
Continuous
 62
     0
100
AcDbPoint
 10
1437.391900114757
 20
467.5007578871746
 30
0.0
  0
POINT
  5
6748
330
647F
100
AcDbEntity
  8
Defpoints
  6
Continuous
 62
     0
100
AcDbPoint
 10
1347.391900114757
 20
468.2513688871747
 30
0.0
  0
POINT
  5
6749
330
647F
100
AcDbEntity
  8
Defpoints
  6
Continuous
 62
     0
100
AcDbPoint
 10
1347.391900114757
 20
450.2507488871747
 30
0.0
  0
ENDBLK
  5
648A
330
647F
100
AcDbEntity
  8
0
100
AcDbBlockEnd
  0
ENDSEC
  0
SECTION
  2
ENTITIES
  0
LINE
  5
5EA8
330
1E
100
AcDbEntity
  8
図枠
  6
Continuous
 62
     4
100
AcDbLine
 10
1485.320863114757
 20
526.2507488871746
 30
0.0
 11
1291.320863114757
 21
526.2507488871746
 31
0.0
  0
LINE
  5
5EA9
330
1E
100
AcDbEntity
  8
図枠
  6
Continuous
 62
     4
100
AcDbLine
 10
1485.320863114757
 20
615.2507488871747
 30
0.0
 11
1291.320863114757
 21
615.2507488871747
 31
0.0
  0
LINE
  5
5EAA
330
1E
100
AcDbEntity
  8
図枠
  6
Continuous
 62
     4
100
AcDbLine
 10
1485.320863114757
 20
526.2507488871746
 30
0.0
 11
1291.320863114757
 21
526.2507488871746
 31
0.0
  0
LINE
  5
5EAB
330
1E
100
AcDbEntity
  8
躯体と製品
  6
Continuous
 62
     4
100
AcDbLine
 10
1369.791900114757
 20
470.1325608871747
 30
0.0
 11
1384.991900114757
 21
470.1325608871747
 31
0.0
  0
LINE
  5
5EAC
330
1E
100
AcDbEntity
  8
躯体と製品
  6
Continuous
 62
     4
100
AcDbLine
 10
1369.791900114757
 20
471.2325608871747
 30
0.0
 11
1376.841900114757
 21
471.2325608871747
 31
0.0
  0
LINE
  5
5EAD
330
1E
100
AcDbEntity
  8
躯体と製品
  6
Continuous
 62
     4
100
AcDbLine
 10
1347.941900114757
 20
478.1325598871746
 30
0.0
 11
1428.791900114757
 21
478.1325598871746
 31
0.0
  0
LINE
  5
5EAE
330
1E
100
AcDbEntity
  8
躯体と製品
  6
Continuous
 62
     4
100
AcDbLine
 10
1347.941900114757
 20
477.0325598871747
 30
0.0
 11
1376.791900114757
 21
477.0325598871747
 31
0.0
  0
LINE
  5
5EB1
330
1E
100
AcDbEntity
  8
躯体と製品
  6
Continuous
 62
     4
100
AcDbLine
 10
1395.110703114757
 20
567.1325608871747
 30
0.0
 11
1371.310703114757
 21
567.1325598871747
 31
0.0
  0
LINE
  5
5EB2
330
1E
100
AcDbEntity
  8
躯体と製品
  6
Continuous
 62
     4
100
AcDbLine
 10
1375.710703114757
 20
560.3325608871747
 30
0.0
 11
1371.310703114757
 21
560.3325608871747
 31
0.0
  0
LINE
  5
5EB3
330
1E
100
AcDbEntity
  8
躯体と製品
  6
Continuous
 62
     4
100
AcDbLine
 10
1365.710703114757
 20
559.1325608871747
 30
0.0
 11
1375.710703114757
 21
559.1325608871747
 31
0.0
  0
LINE
  5
5EB4
330
1E
100
AcDbEntity
  8
躯体と製品
  6
Continuous
 62
     4
100
AcDbLine
 10
1346.310703114757
 20
568.3325608871747
 30
0.0
 11
1412.110703114757
 21
568.3325608871747
 31
0.0
  0
LINE
  5
5EB7
330
1E
100
AcDbEntity
  8
躯体と製品
  6
Continuous
 62
     4
100
AcDbLine
 10
1380.110703114757
 20
656.1325608871747
 30
0.0
 11
1361.310703114757
 21
656.1325608871747
 31
0.0
  0
LINE
  5
5EB8
330
1E
100
AcDbEntity
  8
躯体と製品
  6
Continuous
 62
     4
100
AcDbLine
 10
1341.310703114757
 20
657.3325608871747
 30
0.0
 11
1432.110703114757
 21
657.3325608871747
 31
0.0
  0
LINE
  5
5EBA
330
1E
100
AcDbEntity
  8
図枠
  6
Continuous
 62
     7
100
AcDbLine
 10
1485.320863114757
 20
704.2507488871747
 30
0.0
 11
1291.320863114757
 21
704.2507488871747
 31
0.0
  0
LINE
  5
5EBB
330
1E
100
AcDbEntity
  8
図枠
  6
Continuous
 62
     7
100
AcDbLine
 10
1485.320863114757
 20
437.2507488871747
 30
0.0
 11
1291.320863114757
 21
437.2507488871747
 31
0.0
  0
LINE
  5
5EBC
330
1E
100
AcDbEntity
  8
図枠
  6
Continuous
 62
     4
100
AcDbLine
 10
1291.320863114757
 20
526.2507488871746
 30
0.0
 11
1485.320863114757
 21
526.2507488871746
 31
0.0
  0
LINE
  5
5EBE
330
1E
100
AcDbEntity
  8
躯体と製品
  6
Continuous
 62
     4
100
AcDbLine
 10
1345.110703114757
 20
572.5325608871746
 30
0.0
 11
1345.110703114757
 21
568.3325598871747
 31
0.0
  0
LINE
  5
5EC1
330
1E
100
AcDbEntity
  8
躯体と製品
  6
Continuous
 62
     4
100
AcDbLine
 10
1346.310703114757
 20
572.5325608871746
 30
0.0
 11
1346.310703114757
 21
568.3325608871747
 31
0.0
  0
ARC
  5
5EC2
330
1E
100
AcDbEntity
  8
躯体と製品
  6
Continuous
 62
     4
100
AcDbCircle
 10
1315.910703114757
 20
570.5325608871747
 30
0.0
 40
0.6
100
AcDbArc
 50
0.0
 51
180.0
  0
LINE
  5
5EC3
330
1E
100
AcDbEntity
  8
図枠
  6
Continuous
 62
     7
100
AcDbLine
 10
1291.320863114757
 20
704.2507488871747
 30
0.0
 11
1291.320863114757
 21
437.2507488871747
 31
0.0
  0
LINE
  5
5EC6
330
1E
100
AcDbEntity
  8
躯体と製品
  6
Continuous
 62
     4
100
AcDbLine
 10
1311.891900114757
 20
478.0325608871747
 30
0.0
 11
1319.891900114757
 21
478.0325608871747
 31
0.0
  0
ARC
  5
5ECB
330
1E
100
AcDbEntity
  8
躯体と製品
  6
Continuous
 62
     4
100
AcDbCircle
 10
1312.441900114757
 20
482.0825608871747
 30
0.0
 40
0.55
100
AcDbArc
 50
0.0
 51
180.0
  0
LINE
  5
5ED8
330
1E
100
AcDbEntity
  8
躯体と製品
  6
Continuous
 62
     4
100
AcDbLine
 10
1311.891900114757
 20
482.0825608871747
 30
0.0
 11
1311.891900114757
 21
478.0325608871747
 31
0.0
  0
LINE
  5
5EDE
330
1E
100
AcDbEntity
  8
躯体と製品
  6
Continuous
 62
     4
100
AcDbLine
 10
1339.791900114757
 20
470.1325608871747
 30
0.0
 11
1354.991900114757
 21
470.1325608871747
 31
0.0
  0
LINE
  5
5EDF
330
1E
100
AcDbEntity
  8
躯体と製品
  6
Continuous
 62
     4
100
AcDbLine
 10
1346.841900114757
 20
477.0325598871747
 30
0.0
 11
1319.891900114757
 21
477.0325598871747
 31
0.0
  0
LINE
  5
5EE2
330
1E
100
AcDbEntity
  8
躯体と製品
  6
Continuous
 62
     4
100
AcDbLine
 10
1339.791900114757
 20
471.2325608871747
 30
0.0
 11
1346.841900114757
 21
471.2325608871747
 31
0.0
  0
LINE
  5
5EE3
330
1E
100
AcDbEntity
  8
躯体と製品
  6
Continuous
 62
     4
100
AcDbLine
 10
1346.841900114757
 20
478.1325598871746
 30
0.0
 11
1320.991900114757
 21
478.1325608871746
 31
0.0
  0
LINE
  5
5EEA
330
1E
100
AcDbEntity
  8
躯体と製品
  6
Continuous
 62
     4
100
AcDbLine
 10
1312.991900114757
 20
479.1325608871747
 30
0.0
 11
1320.991900114757
 21
479.1325608871747
 31
0.0
  0
LINE
  5
5EEB
330
1E
100
AcDbEntity
  8
躯体と製品
  6
Continuous
 62
     4
100
AcDbLine
 10
1312.991900114757
 20
482.0825608871747
 30
0.0
 11
1312.991900114757
 21
479.1325608871747
 31
0.0
  0
LINE
  5
5EEC
330
1E
100
AcDbEntity
  8
躯体と製品
  6
Continuous
 62
     4
100
AcDbLine
 10
1319.891900114757
 20
478.0325608871747
 30
0.0
 11
1319.891900114757
 21
477.0325598871747
 31
0.0
  0
LINE
  5
5EED
330
1E
100
AcDbEntity
  8
躯体と製品
  6
Continuous
 62
     4
100
AcDbLine
 10
1320.991900114757
 20
479.1325608871747
 30
0.0
 11
1320.991900114757
 21
478.1325608871746
 31
0.0
  0
LINE
  5
5EEE
330
1E
100
AcDbEntity
  8
躯体と製品
  6
Continuous
 62
     4
100
AcDbLine
 10
1339.791900114757
 20
471.2325608871747
 30
0.0
 11
1339.791900114757
 21
470.1325608871747
 31
0.0
  0
LINE
  5
5EF9
330
1E
100
AcDbEntity
  8
躯体と製品
  6
Continuous
 62
     4
100
AcDbLine
 10
1346.841900114757
 20
477.0325598871747
 30
0.0
 11
1346.841900114757
 21
471.2325608871747
 31
0.0
  0
LINE
  5
5EFA
330
1E
100
AcDbEntity
  8
躯体と製品
  6
Continuous
 62
     4
100
AcDbLine
 10
1347.941900114757
 20
471.2325608871747
 30
0.0
 11
1347.941900114757
 21
477.0325598871747
 31
0.0
  0
LINE
  5
5EFB
330
1E
100
AcDbEntity
  8
躯体と製品
  6
Continuous
 62
     4
100
AcDbLine
 10
1354.991900114757
 20
471.2325608871747
 30
0.0
 11
1347.941900114757
 21
471.2325608871747
 31
0.0
  0
LINE
  5
5EFC
330
1E
100
AcDbEntity
  8
躯体と製品
  6
Continuous
 62
     4
100
AcDbLine
 10
1354.991900114757
 20
471.2325608871747
 30
0.0
 11
1354.991900114757
 21
470.1325608871747
 31
0.0
  0
LINE
  5
5EFD
330
1E
100
AcDbEntity
  8
躯体と製品
  6
Continuous
 62
     4
100
AcDbLine
 10
1346.841900114757
 20
483.5825608871747
 30
0.0
 11
1346.841900114757
 21
478.1325608871746
 31
0.0
  0
LINE
  5
5EFE
330
1E
100
AcDbEntity
  8
躯体と製品
  6
Continuous
 62
     4
100
AcDbLine
 10
1347.941900114757
 20
483.5825608871747
 30
0.0
 11
1347.941900114757
 21
478.1325598871746
 31
0.0
  0
ARC
  5
5EFF
330
1E
100
AcDbEntity
  8
躯体と製品
  6
Continuous
 62
     4
100
AcDbCircle
 10
1347.391900114757
 20
483.5825608871747
 30
0.0
 40
0.55
100
AcDbArc
 50
0.0
 51
180.0
  0
LINE
  5
5F03
330
1E
100
AcDbEntity
  8
躯体と製品
  6
Continuous
 62
     4
100
AcDbLine
 10
1369.791900114757
 20
471.2325608871747
 30
0.0
 11
1369.791900114757
 21
470.1325608871747
 31
0.0
  0
TEXT
  5
5F05
330
1E
100
AcDbEntity
  8
図枠
  6
Continuous
 62
     4
100
AcDbText
 10
1293.297242114757
 20
515.8595688871748
 30
0.0
 40
5.0
  1
ＳＴ－０１５Ａ
 41
0.8
  7
ACAD
100
AcDbText
  0
LINE
  5
5F06
330
1E
100
AcDbEntity
  8
図枠
  6
Continuous
 62
     3
100
AcDbLine
 10
1346.320863114757
 20
511.2507488871747
 30
0.0
 11
1291.320863114757
 21
511.2507488871747
 31
0.0
  0
LINE
  5
5F15
330
1E
100
AcDbEntity
  8
図枠
  6
Continuous
 62
     3
100
AcDbLine
 10
1346.320863114757
 20
516.2507488871747
 30
0.0
 11
1331.320863114757
 21
516.2507488871747
 31
0.0
  0
TEXT
  5
5F16
330
1E
100
AcDbEntity
  8
図枠
  6
Continuous
 62
     3
100
AcDbText
 10
1333.343224114757
 20
517.2543368871747
 30
0.0
 40
3.0
  1
（ｍｍ）
 41
0.8
  7
ACAD
100
AcDbText
  0
LINE
  5
5F17
330
1E
100
AcDbEntity
  8
図枠
  6
Continuous
 62
     3
100
AcDbLine
 10
1331.320863114757
 20
511.2507488871747
 30
0.0
 11
1331.320863114757
 21
526.2507488871746
 31
0.0
  0
TEXT
  5
5F18
330
1E
100
AcDbEntity
  8
図枠
  6
Continuous
 62
     3
100
AcDbText
 10
1336.008049114757
 20
512.3080018871746
 30
0.0
 40
3.0
  1
1.2
 41
0.8
  7
ACAD
100
AcDbText
  0
TEXT
  5
5F19
330
1E
100
AcDbEntity
  8
図枠
  6
Continuous
 62
     3
100
AcDbText
 10
1335.767022114757
 20
522.0481598871747
 30
0.0
 40
3.0
  1
板厚
 41
0.8
  7
ACAD
100
AcDbText
  0
LINE
  5
5F1A
330
1E
100
AcDbEntity
  8
図枠
  6
Continuous
 62
     3
100
AcDbLine
 10
1346.320863114757
 20
526.2507488871746
 30
0.0
 11
1346.320863114757
 21
511.2507488871747
 31
0.0
  0
LINE
  5
5F1C
330
1E
100
AcDbEntity
  8
躯体と製品
  6
Continuous
 62
     4
100
AcDbLine
 10
1340.710703114757
 20
559.1325608871747
 30
0.0
 11
1350.710703114757
 21
559.1325608871747
 31
0.0
  0
LINE
  5
5F1D
330
1E
100
AcDbEntity
  8
躯体と製品
  6
Continuous
 62
     4
100
AcDbLine
 10
1345.110703114757
 20
567.1325608871747
 30
0.0
 11
1322.310703114757
 21
567.1325608871747
 31
0.0
  0
LINE
  5
5F20
330
1E
100
AcDbEntity
  8
躯体と製品
  6
Continuous
 62
     4
100
AcDbLine
 10
1340.710703114757
 20
560.3325608871747
 30
0.0
 11
1345.110703114757
 21
560.3325608871747
 31
0.0
  0
LINE
  5
5F21
330
1E
100
AcDbEntity
  8
躯体と製品
  6
Continuous
 62
     4
100
AcDbLine
 10
1345.110703114757
 20
568.3325608871747
 30
0.0
 11
1323.510703114757
 21
568.3325608871747
 31
0.0
  0
LINE
  5
5F2B
330
1E
100
AcDbEntity
  8
躯体と製品
  6
Continuous
 62
     4
100
AcDbLine
 10
1315.310703114757
 20
568.6325608871746
 30
0.0
 11
1322.310703114757
 21
568.6325608871746
 31
0.0
  0
LINE
  5
5F2C
330
1E
100
AcDbEntity
  8
躯体と製品
  6
Continuous
 62
     4
100
AcDbLine
 10
1323.510703114757
 20
569.8325608871747
 30
0.0
 11
1316.510703114757
 21
569.8325608871747
 31
0.0
  0
LINE
  5
5F2D
330
1E
100
AcDbEntity
  8
躯体と製品
  6
Continuous
 62
     4
100
AcDbLine
 10
1315.310703114757
 20
570.5325608871747
 30
0.0
 11
1315.310703114757
 21
568.6325608871746
 31
0.0
  0
LINE
  5
5F2E
330
1E
100
AcDbEntity
  8
躯体と製品
  6
Continuous
 62
     4
100
AcDbLine
 10
1316.510703114757
 20
570.5325608871747
 30
0.0
 11
1316.510703114757
 21
569.8325608871747
 31
0.0
  0
LINE
  5
5F2F
330
1E
100
AcDbEntity
  8
躯体と製品
  6
Continuous
 62
     4
100
AcDbLine
 10
1322.310703114757
 20
568.6325608871746
 30
0.0
 11
1322.310703114757
 21
567.1325608871747
 31
0.0
  0
LINE
  5
5F30
330
1E
100
AcDbEntity
  8
躯体と製品
  6
Continuous
 62
     4
100
AcDbLine
 10
1323.510703114757
 20
569.8325598871747
 30
0.0
 11
1323.510703114757
 21
568.3325608871747
 31
0.0
  0
LINE
  5
5F31
330
1E
100
AcDbEntity
  8
躯体と製品
  6
Continuous
 62
     4
100
AcDbLine
 10
1340.710703114757
 20
560.3325608871747
 30
0.0
 11
1340.710703114757
 21
559.1325608871747
 31
0.0
  0
LINE
  5
5F3E
330
1E
100
AcDbEntity
  8
躯体と製品
  6
Continuous
 62
     4
100
AcDbLine
 10
1346.310703114757
 20
567.1325608871747
 30
0.0
 11
1370.110703114757
 21
567.1325598871747
 31
0.0
  0
LINE
  5
5F40
330
1E
100
AcDbEntity
  8
躯体と製品
  6
Continuous
 62
     4
100
AcDbLine
 10
1350.710703114757
 20
560.3325608871747
 30
0.0
 11
1350.710703114757
 21
559.1325608871747
 31
0.0
  0
LINE
  5
5F44
330
1E
100
AcDbEntity
  8
躯体と製品
  6
Continuous
 62
     4
100
AcDbLine
 10
1350.710703114757
 20
560.3325608871747
 30
0.0
 11
1346.310703114757
 21
560.3325608871747
 31
0.0
  0
LINE
  5
5F45
330
1E
100
AcDbEntity
  8
躯体と製品
  6
Continuous
 62
     4
100
AcDbLine
 10
1345.110703114757
 20
567.1325608871747
 30
0.0
 11
1345.110703114757
 21
560.3325608871747
 31
0.0
  0
LINE
  5
5F46
330
1E
100
AcDbEntity
  8
躯体と製品
  6
Continuous
 62
     4
100
AcDbLine
 10
1346.310703114757
 20
560.3325608871747
 30
0.0
 11
1346.310703114757
 21
567.1325598871747
 31
0.0
  0
LINE
  5
5F48
330
1E
100
AcDbEntity
  8
躯体と製品
  6
Continuous
 62
     4
100
AcDbLine
 10
1365.710703114757
 20
560.3325608871747
 30
0.0
 11
1365.710703114757
 21
559.1325608871747
 31
0.0
  0
LINE
  5
5F49
330
1E
100
AcDbEntity
  8
躯体と製品
  6
Continuous
 62
     4
100
AcDbLine
 10
1370.110703114757
 20
567.1325608871747
 30
0.0
 11
1370.110703114757
 21
560.3325608871747
 31
0.0
  0
LINE
  5
5F4A
330
1E
100
AcDbEntity
  8
躯体と製品
  6
Continuous
 62
     4
100
AcDbLine
 10
1371.310703114757
 20
560.3325608871747
 30
0.0
 11
1371.310703114757
 21
567.1325598871747
 31
0.0
  0
LINE
  5
5F4B
330
1E
100
AcDbEntity
  8
躯体と製品
  6
Continuous
 62
     4
100
AcDbLine
 10
1365.710703114757
 20
560.3325608871747
 30
0.0
 11
1370.110703114757
 21
560.3325608871747
 31
0.0
  0
TEXT
  5
5F4C
330
1E
100
AcDbEntity
  8
図枠
  6
Continuous
 62
     4
100
AcDbText
 10
1228.944626114757
 20
691.8745148871746
 30
0.0
 40
5.0
  1
ＳＴシリーズ
 41
0.8
  7
ACAD
100
AcDbText
  0
LINE
  5
5F4D
330
1E
100
AcDbEntity
  8
躯体と製品
  6
Continuous
 62
     4
100
AcDbLine
 10
1360.110703114757
 20
656.1325608871747
 30
0.0
 11
1360.110703114757
 21
649.3325608871747
 31
0.0
  0
LINE
  5
5F4E
330
1E
100
AcDbEntity
  8
躯体と製品
  6
Continuous
 62
     4
100
AcDbLine
 10
1361.310703114757
 20
649.3325608871747
 30
0.0
 11
1361.310703114757
 21
656.1325598871746
 31
0.0
  0
LINE
  5
5F4F
330
1E
100
AcDbEntity
  8
躯体と製品
  6
Continuous
 62
     4
100
AcDbLine
 10
1340.110703114757
 20
656.1325608871747
 30
0.0
 11
1340.110703114757
 21
649.3325608871747
 31
0.0
  0
LINE
  5
5F52
330
1E
100
AcDbEntity
  8
躯体と製品
  6
Continuous
 62
     4
100
AcDbLine
 10
1341.310703114757
 20
649.3325608871747
 30
0.0
 11
1341.310703114757
 21
656.1325598871746
 31
0.0
  0
LINE
  5
5F54
330
1E
100
AcDbEntity
  8
図枠
  6
Continuous
 62
     3
100
AcDbLine
 10
1346.320863114757
 20
600.2507488871747
 30
0.0
 11
1291.320863114757
 21
600.2507488871747
 31
0.0
  0
TEXT
  5
5F57
330
1E
100
AcDbEntity
  8
図枠
  6
Continuous
 62
     4
100
AcDbText
 10
1293.297242114757
 20
604.8595768871747
 30
0.0
 40
5.0
  1
ＳＴ－０１０Ａ
 41
0.8
  7
ACAD
100
AcDbText
  0
LINE
  5
5F5B
330
1E
100
AcDbEntity
  8
図枠
  6
Continuous
 62
     3
100
AcDbLine
 10
1346.320863114757
 20
615.2507488871747
 30
0.0
 11
1346.320863114757
 21
600.2507488871747
 31
0.0
  0
TEXT
  5
5F5C
330
1E
100
AcDbEntity
  8
図枠
  6
Continuous
 62
     3
100
AcDbText
 10
1335.767022114757
 20
611.0481748871746
 30
0.0
 40
3.0
  1
板厚
 41
0.8
  7
ACAD
100
AcDbText
  0
LINE
  5
5F5D
330
1E
100
AcDbEntity
  8
図枠
  6
Continuous
 62
     3
100
AcDbLine
 10
1331.320863114757
 20
600.2507488871747
 30
0.0
 11
1331.320863114757
 21
615.2507488871747
 31
0.0
  0
LINE
  5
5F5E
330
1E
100
AcDbEntity
  8
図枠
  6
Continuous
 62
     3
100
AcDbLine
 10
1346.320863114757
 20
605.2507488871746
 30
0.0
 11
1331.320863114757
 21
605.2507488871746
 31
0.0
  0
TEXT
  5
5F5F
330
1E
100
AcDbEntity
  8
図枠
  6
Continuous
 62
     3
100
AcDbText
 10
1336.008049114757
 20
601.3080168871747
 30
0.0
 40
3.0
  1
1.2
 41
0.8
  7
ACAD
100
AcDbText
  0
TEXT
  5
5F60
330
1E
100
AcDbEntity
  8
図枠
  6
Continuous
 62
     3
100
AcDbText
 10
1333.343224114757
 20
606.2543518871747
 30
0.0
 40
3.0
  1
（ｍｍ）
 41
0.8
  7
ACAD
100
AcDbText
  0
ARC
  5
5F63
330
1E
100
AcDbEntity
  8
躯体と製品
  6
Continuous
 62
     4
100
AcDbCircle
 10
1345.710703114757
 20
572.5325608871746
 30
0.0
 40
0.6
100
AcDbArc
 50
0.0
 51
180.0
  0
LINE
  5
5F7A
330
1E
100
AcDbEntity
  8
躯体と製品
  6
Continuous
 62
     4
100
AcDbLine
 10
1342.210703114757
 20
649.3325608871747
 30
0.0
 11
1341.310703114757
 21
649.3325608871747
 31
0.0
  0
LINE
  5
5F7B
330
1E
100
AcDbEntity
  8
躯体と製品
  6
Continuous
 62
     4
100
AcDbLine
 10
1339.210703114757
 20
648.1325608871748
 30
0.0
 11
1342.210703114757
 21
648.1325608871748
 31
0.0
  0
LINE
  5
5F7C
330
1E
100
AcDbEntity
  8
躯体と製品
  6
Continuous
 62
     4
100
AcDbLine
 10
1339.210703114757
 20
649.3325608871747
 30
0.0
 11
1339.210703114757
 21
648.1325608871748
 31
0.0
  0
LINE
  5
5F7D
330
1E
100
AcDbEntity
  8
躯体と製品
  6
Continuous
 62
     4
100
AcDbLine
 10
1342.210703114757
 20
649.3325608871747
 30
0.0
 11
1342.210703114757
 21
648.1325608871748
 31
0.0
  0
LINE
  5
5F7E
330
1E
100
AcDbEntity
  8
躯体と製品
  6
Continuous
 62
     4
100
AcDbLine
 10
1339.210703114757
 20
649.3325608871747
 30
0.0
 11
1340.110703114757
 21
649.3325608871747
 31
0.0
  0
LINE
  5
5F87
330
1E
100
AcDbEntity
  8
躯体と製品
  6
Continuous
 62
     4
100
AcDbLine
 10
1362.210703114757
 20
649.3325608871747
 30
0.0
 11
1361.310703114757
 21
649.3325608871747
 31
0.0
  0
LINE
  5
5F88
330
1E
100
AcDbEntity
  8
躯体と製品
  6
Continuous
 62
     4
100
AcDbLine
 10
1359.210703114757
 20
648.1325608871748
 30
0.0
 11
1362.210703114757
 21
648.1325608871748
 31
0.0
  0
LINE
  5
5F89
330
1E
100
AcDbEntity
  8
躯体と製品
  6
Continuous
 62
     4
100
AcDbLine
 10
1359.210703114757
 20
649.3325608871747
 30
0.0
 11
1359.210703114757
 21
648.1325608871748
 31
0.0
  0
LINE
  5
5F8A
330
1E
100
AcDbEntity
  8
躯体と製品
  6
Continuous
 62
     4
100
AcDbLine
 10
1359.210703114757
 20
649.3325608871747
 30
0.0
 11
1360.110703114757
 21
649.3325608871747
 31
0.0
  0
LINE
  5
5F8B
330
1E
100
AcDbEntity
  8
躯体と製品
  6
Continuous
 62
     4
100
AcDbLine
 10
1362.210703114757
 20
649.3325608871747
 30
0.0
 11
1362.210703114757
 21
648.1325608871748
 31
0.0
  0
LINE
  5
5F8C
330
1E
100
AcDbEntity
  8
図枠
  6
Continuous
 62
     3
100
AcDbLine
 10
1346.320863114757
 20
689.2507488871747
 30
0.0
 11
1291.320863114757
 21
689.2507488871747
 31
0.0
  0
TEXT
  5
5F8F
330
1E
100
AcDbEntity
  8
図枠
  6
Continuous
 62
     4
100
AcDbText
 10
1296.246270114757
 20
694.6397738871747
 30
0.0
 40
5.0
  1
ＳＴ－０３Ａ
 41
0.8
  7
ACAD
100
AcDbText
  0
TEXT
  5
5F9A
330
1E
100
AcDbEntity
  8
図枠
  6
Continuous
 62
     3
100
AcDbText
 10
1333.343224114757
 20
695.2543368871747
 30
0.0
 40
3.0
  1
（ｍｍ）
 41
0.8
  7
ACAD
100
AcDbText
  0
LINE
  5
5F9B
330
1E
100
AcDbEntity
  8
図枠
  6
Continuous
 62
     3
100
AcDbLine
 10
1346.320863114757
 20
704.2507488871747
 30
0.0
 11
1346.320863114757
 21
689.2507488871747
 31
0.0
  0
LINE
  5
5F9C
330
1E
100
AcDbEntity
  8
図枠
  6
Continuous
 62
     3
100
AcDbLine
 10
1331.320863114757
 20
689.2507488871747
 30
0.0
 11
1331.320863114757
 21
704.2507488871747
 31
0.0
  0
LINE
  5
5F9D
330
1E
100
AcDbEntity
  8
図枠
  6
Continuous
 62
     3
100
AcDbLine
 10
1346.320863114757
 20
694.2507488871747
 30
0.0
 11
1331.320863114757
 21
694.2507488871747
 31
0.0
  0
LINE
  5
5F9E
330
1E
100
AcDbEntity
  8
躯体と製品
  6
Continuous
 62
     4
100
AcDbLine
 10
1341.310703114757
 20
656.1325608871747
 30
0.0
 11
1360.110703114757
 21
656.1325598871746
 31
0.0
  0
TEXT
  5
5F9F
330
1E
100
AcDbEntity
  8
図枠
  6
Continuous
 62
     3
100
AcDbText
 10
1336.008049114757
 20
690.3080168871747
 30
0.0
 40
3.0
  1
1.2
 41
0.8
  7
ACAD
100
AcDbText
  0
LINE
  5
5FA0
330
1E
100
AcDbEntity
  8
躯体と製品
  6
Continuous
 62
     4
100
AcDbLine
 10
1340.110703114757
 20
656.1325608871747
 30
0.0
 11
1322.310703114757
 21
656.1325608871747
 31
0.0
  0
LINE
  5
5FA1
330
1E
100
AcDbEntity
  8
躯体と製品
  6
Continuous
 62
     4
100
AcDbLine
 10
1340.110703114757
 20
657.3325608871747
 30
0.0
 11
1323.510703114757
 21
657.3325608871747
 31
0.0
  0
LINE
  5
5FA2
330
1E
100
AcDbEntity
  8
躯体と製品
  6
Continuous
 62
     4
100
AcDbLine
 10
1315.310703114757
 20
657.6325608871748
 30
0.0
 11
1322.310703114757
 21
657.6325608871748
 31
0.0
  0
LINE
  5
5FA3
330
1E
100
AcDbEntity
  8
躯体と製品
  6
Continuous
 62
     4
100
AcDbLine
 10
1323.510703114757
 20
658.8325608871747
 30
0.0
 11
1316.510703114757
 21
658.8325608871747
 31
0.0
  0
ARC
  5
5FA4
330
1E
100
AcDbEntity
  8
躯体と製品
  6
Continuous
 62
     4
100
AcDbCircle
 10
1315.910703114757
 20
659.5325608871746
 30
0.0
 40
0.6
100
AcDbArc
 50
0.0
 51
180.0
  0
LINE
  5
5FA5
330
1E
100
AcDbEntity
  8
躯体と製品
  6
Continuous
 62
     4
100
AcDbLine
 10
1315.310703114757
 20
659.5325608871746
 30
0.0
 11
1315.310703114757
 21
657.6325608871748
 31
0.0
  0
LINE
  5
5FA6
330
1E
100
AcDbEntity
  8
躯体と製品
  6
Continuous
 62
     4
100
AcDbLine
 10
1316.510703114757
 20
659.5325608871746
 30
0.0
 11
1316.510703114757
 21
658.8325608871747
 31
0.0
  0
LINE
  5
5FA7
330
1E
100
AcDbEntity
  8
躯体と製品
  6
Continuous
 62
     4
100
AcDbLine
 10
1322.310703114757
 20
657.6325608871748
 30
0.0
 11
1322.310703114757
 21
656.1325608871747
 31
0.0
  0
LINE
  5
5FA8
330
1E
100
AcDbEntity
  8
躯体と製品
  6
Continuous
 62
     4
100
AcDbLine
 10
1323.510703114757
 20
658.8325598871747
 30
0.0
 11
1323.510703114757
 21
657.3325608871747
 31
0.0
  0
LINE
  5
5FA9
330
1E
100
AcDbEntity
  8
躯体と製品
  6
Continuous
 62
     4
100
AcDbLine
 10
1340.110703114757
 20
661.5325608871747
 30
0.0
 11
1340.110703114757
 21
657.3325598871747
 31
0.0
  0
LINE
  5
5FAA
330
1E
100
AcDbEntity
  8
躯体と製品
  6
Continuous
 62
     4
100
AcDbLine
 10
1341.310703114757
 20
661.5325608871747
 30
0.0
 11
1341.310703114757
 21
657.3325608871747
 31
0.0
  0
ARC
  5
5FAB
330
1E
100
AcDbEntity
  8
躯体と製品
  6
Continuous
 62
     4
100
AcDbCircle
 10
1340.710703114757
 20
661.5325608871747
 30
0.0
 40
0.6
100
AcDbArc
 50
0.0
 51
180.0
  0
TEXT
  5
5FAE
330
1E
100
AcDbEntity
  8
図枠
  6
Continuous
 62
     3
100
AcDbText
 10
1335.767022114757
 20
700.0481598871747
 30
0.0
 40
3.0
  1
板厚
 41
0.8
  7
ACAD
100
AcDbText
  0
LINE
  5
5FAF
330
1E
100
AcDbEntity
  8
躯体と製品
  6
Continuous
 62
     2
100
AcDbLine
 10
1445.110703114757
 20
572.2325608871747
 30
0.0
 11
1445.110703114757
 21
568.0325598871746
 31
0.0
  0
LINE
  5
5FB0
330
1E
100
AcDbEntity
  8
躯体と製品
  6
Continuous
 62
     2
100
AcDbLine
 10
1446.310703114757
 20
572.2325608871747
 30
0.0
 11
1446.310703114757
 21
568.0325608871746
 31
0.0
  0
ARC
  5
5FB1
330
1E
100
AcDbEntity
  8
躯体と製品
  6
Continuous
 62
     2
100
AcDbCircle
 10
1415.910703114757
 20
570.2325608871746
 30
0.0
 40
0.6
100
AcDbArc
 50
0.0
 51
180.0
  0
LINE
  5
5FB2
330
1E
100
AcDbEntity
  8
躯体と製品
  6
PLINE3
 62
     3
100
AcDbLine
 10
1431.010703114757
 20
580.6560278871748
 30
0.0
 11
1431.010703114757
 21
569.3245988871747
 31
0.0
  0
ARC
  5
5FB4
330
1E
100
AcDbEntity
  8
躯体と製品
  6
Continuous
 62
     4
100
AcDbCircle
 10
1436.110703114757
 20
570.7325608871747
 30
0.0
 40
0.6
100
AcDbArc
 50
180.0
 51
0.0
  0
LINE
  5
5FB5
330
1E
100
AcDbEntity
  8
躯体と製品
  6
Continuous
 62
     4
100
AcDbLine
 10
1412.110703114757
 20
568.3325608871747
 30
0.0
 11
1412.110703114757
 21
573.1325608871746
 31
0.0
  0
LINE
  5
5FB6
330
1E
100
AcDbEntity
  8
躯体と製品
  6
Continuous
 62
     4
100
AcDbLine
 10
1413.310703114757
 20
571.9325608871748
 30
0.0
 11
1413.310703114757
 21
568.3325608871747
 31
0.0
  0
LINE
  5
5FB7
330
1E
100
AcDbEntity
  8
図枠
  6
Continuous
 62
     7
100
AcDbLine
 10
1485.320863114757
 20
437.2507488871747
 30
0.0
 11
1485.320863114757
 21
704.2507488871747
 31
0.0
  0
LINE
  5
5FBB
330
1E
100
AcDbEntity
  8
躯体と製品
  6
PLINE3
 62
     3
100
AcDbLine
 10
1450.391900114757
 20
490.5560278871747
 30
0.0
 11
1450.391900114757
 21
480.3234038871747
 31
0.0
  0
LINE
  5
5FBD
330
1E
100
AcDbEntity
  8
躯体と製品
  6
Continuous
 62
     2
100
AcDbLine
 10
1431.891900114757
 20
478.1325788871747
 30
0.0
 11
1439.891900114757
 21
478.1325788871747
 31
0.0
  0
LINE
  5
5FBE
330
1E
100
AcDbEntity
  8
躯体と製品
  6
Continuous
 62
     2
100
AcDbLine
 10
1432.991900114757
 20
479.2325788871747
 30
0.0
 11
1440.991900114757
 21
479.2325788871747
 31
0.0
  0
LINE
  5
5FBF
330
1E
100
AcDbEntity
  8
躯体と製品
  6
Continuous
 62
     4
100
AcDbLine
 10
1429.791900114757
 20
470.1325608871747
 30
0.0
 11
1444.991900114757
 21
470.1325608871747
 31
0.0
  0
LINE
  5
5FC0
330
1E
100
AcDbEntity
  8
躯体と製品
  6
Continuous
 62
     4
100
AcDbLine
 10
1429.791900114757
 20
471.2325608871747
 30
0.0
 11
1436.841900114757
 21
471.2325608871747
 31
0.0
  0
LINE
  5
5FC1
330
1E
100
AcDbEntity
  8
躯体と製品
  6
Continuous
 62
     4
100
AcDbLine
 10
1437.941900114757
 20
478.1325598871746
 30
0.0
 11
1429.891900114757
 21
478.1325608871746
 31
0.0
  0
LINE
  5
5FC2
330
1E
100
AcDbEntity
  8
躯体と製品
  6
Continuous
 62
     4
100
AcDbLine
 10
1407.991900114757
 20
477.0325598871747
 30
0.0
 11
1436.841900114757
 21
477.0325598871747
 31
0.0
  0
LINE
  5
5FC3
330
1E
100
AcDbEntity
  8
躯体と製品
  6
Continuous
 62
     4
100
AcDbLine
 10
1429.891900114757
 20
483.0313648871747
 30
0.0
 11
1450.087900114757
 21
483.0313648871747
 31
0.0
  0
LINE
  5
5FC4
330
1E
100
AcDbEntity
  8
躯体と製品
  6
Continuous
 62
     4
100
AcDbLine
 10
1455.991900114757
 20
484.1313648871746
 30
0.0
 11
1428.791900114757
 21
484.1313648871746
 31
0.0
  0
LINE
  5
5FC6
330
1E
100
AcDbEntity
  8
躯体と製品
  6
Continuous
 62
     4
100
AcDbLine
 10
1406.841900114757
 20
477.0325598871747
 30
0.0
 11
1377.991900114757
 21
477.0325598871747
 31
0.0
  0
LINE
  5
5FC7
330
1E
100
AcDbEntity
  8
躯体と製品
  6
Continuous
 62
     4
100
AcDbLine
 10
1399.791900114757
 20
470.1325608871747
 30
0.0
 11
1414.991900114757
 21
470.1325608871747
 31
0.0
  0
LINE
  5
5FC8
330
1E
100
AcDbEntity
  8
躯体と製品
  6
Continuous
 62
     4
100
AcDbLine
 10
1399.791900114757
 20
471.2325608871747
 30
0.0
 11
1406.841900114757
 21
471.2325608871747
 31
0.0
  0
LINE
  5
5FCF
330
1E
100
AcDbEntity
  8
躯体と製品
  6
Continuous
 62
     4
100
AcDbLine
 10
1376.841900114757
 20
477.0325598871747
 30
0.0
 11
1376.841900114757
 21
471.2325608871747
 31
0.0
  0
LINE
  5
5FD0
330
1E
100
AcDbEntity
  8
躯体と製品
  6
Continuous
 62
     4
100
AcDbLine
 10
1377.941900114757
 20
471.2325608871747
 30
0.0
 11
1377.941900114757
 21
477.0325598871747
 31
0.0
  0
LINE
  5
5FD1
330
1E
100
AcDbEntity
  8
躯体と製品
  6
Continuous
 62
     4
100
AcDbLine
 10
1384.991900114757
 20
471.2325608871747
 30
0.0
 11
1377.941900114757
 21
471.2325608871747
 31
0.0
  0
LINE
  5
5FD2
330
1E
100
AcDbEntity
  8
躯体と製品
  6
Continuous
 62
     4
100
AcDbLine
 10
1384.991900114757
 20
471.2325608871747
 30
0.0
 11
1384.991900114757
 21
470.1325608871747
 31
0.0
  0
LINE
  5
5FD3
330
1E
100
AcDbEntity
  8
躯体と製品
  6
Continuous
 62
     4
100
AcDbLine
 10
1399.791900114757
 20
471.2325608871747
 30
0.0
 11
1399.791900114757
 21
470.1325608871747
 31
0.0
  0
LINE
  5
5FD8
330
1E
100
AcDbEntity
  8
躯体と製品
  6
Continuous
 62
     4
100
AcDbLine
 10
1406.841900114757
 20
477.0325598871747
 30
0.0
 11
1406.841900114757
 21
471.2325608871747
 31
0.0
  0
LINE
  5
5FD9
330
1E
100
AcDbEntity
  8
躯体と製品
  6
Continuous
 62
     4
100
AcDbLine
 10
1407.941900114757
 20
471.2325608871747
 30
0.0
 11
1407.941900114757
 21
477.0325598871747
 31
0.0
  0
LINE
  5
5FDA
330
1E
100
AcDbEntity
  8
躯体と製品
  6
Continuous
 62
     4
100
AcDbLine
 10
1414.991900114757
 20
471.2325608871747
 30
0.0
 11
1407.941900114757
 21
471.2325608871747
 31
0.0
  0
LINE
  5
5FDB
330
1E
100
AcDbEntity
  8
躯体と製品
  6
Continuous
 62
     4
100
AcDbLine
 10
1414.991900114757
 20
471.2325608871747
 30
0.0
 11
1414.991900114757
 21
470.1325608871747
 31
0.0
  0
LINE
  5
5FDC
330
1E
100
AcDbEntity
  8
躯体と製品
  6
Continuous
 62
     4
100
AcDbLine
 10
1429.791900114757
 20
471.2325608871747
 30
0.0
 11
1429.791900114757
 21
470.1325608871747
 31
0.0
  0
LINE
  5
5FDD
330
1E
100
AcDbEntity
  8
躯体と製品
  6
Continuous
 62
     2
100
AcDbLine
 10
1431.891900114757
 20
482.1825788871747
 30
0.0
 11
1431.891900114757
 21
478.1325788871747
 31
0.0
  0
LINE
  5
5FDE
330
1E
100
AcDbEntity
  8
躯体と製品
  6
Continuous
 62
     2
100
AcDbLine
 10
1432.991900114757
 20
482.1825788871747
 30
0.0
 11
1432.991900114757
 21
479.2325788871747
 31
0.0
  0
LINE
  5
5FDF
330
1E
100
AcDbEntity
  8
躯体と製品
  6
Continuous
 62
     4
100
AcDbLine
 10
1429.891900114757
 20
483.0313648871747
 30
0.0
 11
1429.891900114757
 21
478.1325608871746
 31
0.0
  0
LINE
  5
5FE0
330
1E
100
AcDbEntity
  8
躯体と製品
  6
Continuous
 62
     4
100
AcDbLine
 10
1428.791900114757
 20
484.1313648871746
 30
0.0
 11
1428.791900114757
 21
478.1325598871746
 31
0.0
  0
ARC
  5
5FE1
330
1E
100
AcDbEntity
  8
躯体と製品
  6
Continuous
 62
     2
100
AcDbCircle
 10
1432.441900114757
 20
482.1825788871747
 30
0.0
 40
0.55
100
AcDbArc
 50
0.0
 51
180.0
  0
LINE
  5
5FE2
330
1E
100
AcDbEntity
  8
躯体と製品
  6
Continuous
 62
     2
100
AcDbLine
 10
1459.791900114757
 20
470.2325788871747
 30
0.0
 11
1474.991900114757
 21
470.2325788871747
 31
0.0
  0
LINE
  5
5FE3
330
1E
100
AcDbEntity
  8
躯体と製品
  6
Continuous
 62
     2
100
AcDbLine
 10
1466.841900114757
 20
477.1325788871747
 30
0.0
 11
1439.891900114757
 21
477.1325788871747
 31
0.0
  0
LINE
  5
5FE4
330
1E
100
AcDbEntity
  8
躯体と製品
  6
Continuous
 62
     2
100
AcDbLine
 10
1459.791900114757
 20
471.3325788871747
 30
0.0
 11
1466.841900114757
 21
471.3325788871747
 31
0.0
  0
LINE
  5
5FE5
330
1E
100
AcDbEntity
  8
躯体と製品
  6
Continuous
 62
     2
100
AcDbLine
 10
1466.841900114757
 20
478.2325788871747
 30
0.0
 11
1440.991900114757
 21
478.2325788871747
 31
0.0
  0
LINE
  5
5FEE
330
1E
100
AcDbEntity
  8
躯体と製品
  6
Continuous
 62
     4
100
AcDbLine
 10
1436.841900114757
 20
477.0325598871747
 30
0.0
 11
1436.841900114757
 21
471.2325608871747
 31
0.0
  0
LINE
  5
5FEF
330
1E
100
AcDbEntity
  8
躯体と製品
  6
Continuous
 62
     4
100
AcDbLine
 10
1437.941900114757
 20
471.2325608871747
 30
0.0
 11
1437.941900114757
 21
478.1325598871746
 31
0.0
  0
LINE
  5
5FF0
330
1E
100
AcDbEntity
  8
躯体と製品
  6
Continuous
 62
     4
100
AcDbLine
 10
1444.991900114757
 20
471.2325608871747
 30
0.0
 11
1437.941900114757
 21
471.2325608871747
 31
0.0
  0
LINE
  5
5FF1
330
1E
100
AcDbEntity
  8
躯体と製品
  6
Continuous
 62
     4
100
AcDbLine
 10
1444.991900114757
 20
471.2325608871747
 30
0.0
 11
1444.991900114757
 21
470.1325608871747
 31
0.0
  0
LINE
  5
5FF2
330
1E
100
AcDbEntity
  8
躯体と製品
  6
Continuous
 62
     2
100
AcDbLine
 10
1439.891900114757
 20
478.1325788871747
 30
0.0
 11
1439.891900114757
 21
477.1325788871747
 31
0.0
  0
LINE
  5
5FF3
330
1E
100
AcDbEntity
  8
躯体と製品
  6
Continuous
 62
     2
100
AcDbLine
 10
1440.991900114757
 20
479.2325788871747
 30
0.0
 11
1440.991900114757
 21
478.2325788871747
 31
0.0
  0
LINE
  5
5FF4
330
1E
100
AcDbEntity
  8
躯体と製品
  6
Continuous
 62
     2
100
AcDbLine
 10
1459.791900114757
 20
471.3325788871747
 30
0.0
 11
1459.791900114757
 21
470.2325788871747
 31
0.0
  0
LINE
  5
5FF6
330
1E
100
AcDbEntity
  8
躯体と製品
  6
Continuous
 62
     4
100
AcDbLine
 10
1450.695900114757
 20
483.0313648871747
 30
0.0
 11
1454.891900114757
 21
483.0313648871747
 31
0.0
  0
LINE
  5
5FF7
330
1E
100
AcDbEntity
  8
躯体と製品
  6
Continuous
 62
     4
100
AcDbLine
 10
1450.391900114757
 20
483.3313648871747
 30
0.0
 11
1450.695900114757
 21
483.0273648871747
 31
0.0
  0
LINE
  5
5FF8
330
1E
100
AcDbEntity
  8
躯体と製品
  6
Continuous
 62
     4
100
AcDbLine
 10
1450.391900114757
 20
483.3313648871747
 30
0.0
 11
1450.087900114757
 21
483.0273648871747
 31
0.0
  0
LINE
  5
5FF9
330
1E
100
AcDbEntity
  8
躯体と製品
  6
Continuous
 62
     4
100
AcDbLine
 10
1454.891900114757
 20
481.6813648871747
 30
0.0
 11
1454.891900114757
 21
483.0313648871747
 31
0.0
  0
LINE
  5
5FFA
330
1E
100
AcDbEntity
  8
躯体と製品
  6
Continuous
 62
     4
100
AcDbLine
 10
1455.991900114757
 20
481.6813648871747
 30
0.0
 11
1455.991900114757
 21
484.1313648871746
 31
0.0
  0
ARC
  5
5FFB
330
1E
100
AcDbEntity
  8
躯体と製品
  6
Continuous
 62
     4
100
AcDbCircle
 10
1455.441900114757
 20
481.6813648871747
 30
0.0
 40
0.55
100
AcDbArc
 50
180.0
 51
0.0
  0
LINE
  5
6003
330
1E
100
AcDbEntity
  8
躯体と製品
  6
Continuous
 62
     2
100
AcDbLine
 10
1481.126780114757
 20
478.2325788871747
 30
0.0
 11
1467.941900114757
 21
478.2325788871747
 31
0.0
  0
LINE
  5
6004
330
1E
100
AcDbEntity
  8
躯体と製品
  6
Continuous
 62
     2
100
AcDbLine
 10
1481.126780114757
 20
477.1325788871747
 30
0.0
 11
1467.941900114757
 21
477.1325788871747
 31
0.0
  0
LINE
  5
6005
330
1E
100
AcDbEntity
  8
躯体と製品
  6
Continuous
 62
     2
100
AcDbLine
 10
1466.841900114757
 20
477.1325788871747
 30
0.0
 11
1466.841900114757
 21
471.3325788871747
 31
0.0
  0
LINE
  5
6006
330
1E
100
AcDbEntity
  8
躯体と製品
  6
Continuous
 62
     2
100
AcDbLine
 10
1467.941900114757
 20
471.3325788871747
 30
0.0
 11
1467.941900114757
 21
477.1325788871747
 31
0.0
  0
LINE
  5
6007
330
1E
100
AcDbEntity
  8
躯体と製品
  6
Continuous
 62
     2
100
AcDbLine
 10
1474.991900114757
 20
471.3325788871747
 30
0.0
 11
1467.941900114757
 21
471.3325788871747
 31
0.0
  0
LINE
  5
6008
330
1E
100
AcDbEntity
  8
躯体と製品
  6
Continuous
 62
     2
100
AcDbLine
 10
1474.991900114757
 20
471.3325788871747
 30
0.0
 11
1474.991900114757
 21
470.2325788871747
 31
0.0
  0
LINE
  5
6009
330
1E
100
AcDbEntity
  8
躯体と製品
  6
Continuous
 62
     2
100
AcDbLine
 10
1466.841900114757
 20
483.6825788871747
 30
0.0
 11
1466.841900114757
 21
478.2325788871747
 31
0.0
  0
LINE
  5
600A
330
1E
100
AcDbEntity
  8
躯体と製品
  6
Continuous
 62
     2
100
AcDbLine
 10
1467.941900114757
 20
483.6825788871747
 30
0.0
 11
1467.941900114757
 21
478.2325788871747
 31
0.0
  0
ARC
  5
600B
330
1E
100
AcDbEntity
  8
躯体と製品
  6
Continuous
 62
     2
100
AcDbCircle
 10
1467.391900114757
 20
483.6825788871747
 30
0.0
 40
0.55
100
AcDbArc
 50
0.0
 51
180.0
  0
LINE
  5
600F
330
1E
100
AcDbEntity
  8
躯体と製品
  6
Continuous
 62
     2
100
AcDbLine
 10
1445.110703114757
 20
566.8325608871747
 30
0.0
 11
1422.310703114757
 21
566.8325608871747
 31
0.0
  0
LINE
  5
6010
330
1E
100
AcDbEntity
  8
躯体と製品
  6
Continuous
 62
     2
100
AcDbLine
 10
1445.110703114757
 20
568.0325608871746
 30
0.0
 11
1423.510703114757
 21
568.0325608871746
 31
0.0
  0
LINE
  5
601B
330
1E
100
AcDbEntity
  8
躯体と製品
  6
Continuous
 62
     4
100
AcDbLine
 10
1396.310703114757
 20
567.1325608871747
 30
0.0
 11
1420.110703114757
 21
567.1325608871747
 31
0.0
  0
LINE
  5
6022
330
1E
100
AcDbEntity
  8
躯体と製品
  6
Continuous
 62
     4
100
AcDbLine
 10
1375.710703114757
 20
560.3325608871747
 30
0.0
 11
1375.710703114757
 21
559.1325608871747
 31
0.0
  0
LINE
  5
6023
330
1E
100
AcDbEntity
  8
躯体と製品
  6
Continuous
 62
     4
100
AcDbLine
 10
1390.710703114757
 20
560.3325608871747
 30
0.0
 11
1390.710703114757
 21
559.1325608871747
 31
0.0
  0
LINE
  5
6024
330
1E
100
AcDbEntity
  8
躯体と製品
  6
Continuous
 62
     4
100
AcDbLine
 10
1400.710703114757
 20
560.3325608871747
 30
0.0
 11
1400.710703114757
 21
559.1325608871747
 31
0.0
  0
LINE
  5
6025
330
1E
100
AcDbEntity
  8
躯体と製品
  6
Continuous
 62
     4
100
AcDbLine
 10
1390.710703114757
 20
559.1325608871747
 30
0.0
 11
1400.710703114757
 21
559.1325608871747
 31
0.0
  0
LINE
  5
6026
330
1E
100
AcDbEntity
  8
躯体と製品
  6
Continuous
 62
     4
100
AcDbLine
 10
1395.110703114757
 20
567.1325608871747
 30
0.0
 11
1395.110703114757
 21
560.3325608871747
 31
0.0
  0
LINE
  5
6027
330
1E
100
AcDbEntity
  8
躯体と製品
  6
Continuous
 62
     4
100
AcDbLine
 10
1390.710703114757
 20
560.3325608871747
 30
0.0
 11
1395.110703114757
 21
560.3325608871747
 31
0.0
  0
LINE
  5
6028
330
1E
100
AcDbEntity
  8
躯体と製品
  6
Continuous
 62
     4
100
AcDbLine
 10
1396.310703114757
 20
560.3325608871747
 30
0.0
 11
1396.310703114757
 21
567.1325598871747
 31
0.0
  0
LINE
  5
6029
330
1E
100
AcDbEntity
  8
躯体と製品
  6
Continuous
 62
     4
100
AcDbLine
 10
1400.710703114757
 20
560.3325608871747
 30
0.0
 11
1396.310703114757
 21
560.3325608871747
 31
0.0
  0
LINE
  5
6031
330
1E
100
AcDbEntity
  8
躯体と製品
  6
Continuous
 62
     2
100
AcDbLine
 10
1415.310703114757
 20
568.3325608871747
 30
0.0
 11
1422.310703114757
 21
568.3325608871747
 31
0.0
  0
LINE
  5
6032
330
1E
100
AcDbEntity
  8
躯体と製品
  6
Continuous
 62
     2
100
AcDbLine
 10
1423.510703114757
 20
569.5325608871747
 30
0.0
 11
1416.510703114757
 21
569.5325608871747
 31
0.0
  0
LINE
  5
6033
330
1E
100
AcDbEntity
  8
躯体と製品
  6
Continuous
 62
     4
100
AcDbLine
 10
1415.710703114757
 20
559.1325608871747
 30
0.0
 11
1425.710703114757
 21
559.1325608871747
 31
0.0
  0
LINE
  5
6034
330
1E
100
AcDbEntity
  8
躯体と製品
  6
Continuous
 62
     4
100
AcDbLine
 10
1415.710703114757
 20
560.3325608871747
 30
0.0
 11
1420.110703114757
 21
560.3325608871747
 31
0.0
  0
LINE
  5
6035
330
1E
100
AcDbEntity
  8
躯体と製品
  6
Continuous
 62
     4
100
AcDbLine
 10
1413.310703114757
 20
568.3325608871747
 30
0.0
 11
1421.310703114757
 21
568.3325608871747
 31
0.0
  0
LINE
  5
6036
330
1E
100
AcDbEntity
  8
躯体と製品
  6
Continuous
 62
     4
100
AcDbLine
 10
1413.310703114757
 20
568.3325608871747
 30
0.0
 11
1421.310703114757
 21
568.3325608871747
 31
0.0
  0
LINE
  5
6037
330
1E
100
AcDbEntity
  8
躯体と製品
  6
Continuous
 62
     4
100
AcDbLine
 10
1415.710703114757
 20
560.3325608871747
 30
0.0
 11
1415.710703114757
 21
559.1325608871747
 31
0.0
  0
LINE
  5
6038
330
1E
100
AcDbEntity
  8
躯体と製品
  6
Continuous
 62
     2
100
AcDbLine
 10
1415.310703114757
 20
570.2325608871746
 30
0.0
 11
1415.310703114757
 21
568.3325608871747
 31
0.0
  0
LINE
  5
6039
330
1E
100
AcDbEntity
  8
躯体と製品
  6
Continuous
 62
     2
100
AcDbLine
 10
1416.510703114757
 20
570.2325608871746
 30
0.0
 11
1416.510703114757
 21
569.5325608871747
 31
0.0
  0
LINE
  5
603A
330
1E
100
AcDbEntity
  8
躯体と製品
  6
Continuous
 62
     4
100
AcDbLine
 10
1425.710703114757
 20
560.3325608871747
 30
0.0
 11
1425.710703114757
 21
559.1325608871747
 31
0.0
  0
LINE
  5
603B
330
1E
100
AcDbEntity
  8
躯体と製品
  6
Continuous
 62
     4
100
AcDbLine
 10
1420.110703114757
 20
567.1325608871747
 30
0.0
 11
1420.110703114757
 21
560.3325608871747
 31
0.0
  0
LINE
  5
603C
330
1E
100
AcDbEntity
  8
躯体と製品
  6
Continuous
 62
     4
100
AcDbLine
 10
1421.310703114757
 20
560.3325608871747
 30
0.0
 11
1421.310703114757
 21
568.3325608871747
 31
0.0
  0
LINE
  5
603D
330
1E
100
AcDbEntity
  8
躯体と製品
  6
Continuous
 62
     4
100
AcDbLine
 10
1425.710703114757
 20
560.3325608871747
 30
0.0
 11
1421.310703114757
 21
560.3325608871747
 31
0.0
  0
LINE
  5
603E
330
1E
100
AcDbEntity
  8
躯体と製品
  6
Continuous
 62
     2
100
AcDbLine
 10
1422.310703114757
 20
568.3325608871747
 30
0.0
 11
1422.310703114757
 21
566.8325608871747
 31
0.0
  0
LINE
  5
603F
330
1E
100
AcDbEntity
  8
躯体と製品
  6
Continuous
 62
     2
100
AcDbLine
 10
1423.510703114757
 20
569.5325608871747
 30
0.0
 11
1423.510703114757
 21
568.0325608871746
 31
0.0
  0
LINE
  5
6051
330
1E
100
AcDbEntity
  8
躯体と製品
  6
Continuous
 62
     2
100
AcDbLine
 10
1450.710703114757
 20
560.0325608871746
 30
0.0
 11
1446.310703114757
 21
560.0325608871746
 31
0.0
  0
LINE
  5
6052
330
1E
100
AcDbEntity
  8
躯体と製品
  6
Continuous
 62
     2
100
AcDbLine
 10
1461.228947114757
 20
566.8325608871747
 30
0.0
 11
1446.310703114757
 21
566.8325608871747
 31
0.0
  0
LINE
  5
6053
330
1E
100
AcDbEntity
  8
躯体と製品
  6
Continuous
 62
     2
100
AcDbLine
 10
1461.228947114757
 20
568.0325608871746
 30
0.0
 11
1446.310703114757
 21
568.0325608871746
 31
0.0
  0
LINE
  5
6054
330
1E
100
AcDbEntity
  8
躯体と製品
  6
Continuous
 62
     2
100
AcDbLine
 10
1440.710703114757
 20
558.8325608871747
 30
0.0
 11
1450.710703114757
 21
558.8325608871747
 31
0.0
  0
LINE
  5
6055
330
1E
100
AcDbEntity
  8
躯体と製品
  6
Continuous
 62
     2
100
AcDbLine
 10
1445.110703114757
 20
566.8325608871747
 30
0.0
 11
1445.110703114757
 21
560.0325608871746
 31
0.0
  0
LINE
  5
6056
330
1E
100
AcDbEntity
  8
躯体と製品
  6
Continuous
 62
     2
100
AcDbLine
 10
1446.310703114757
 20
560.0325608871746
 30
0.0
 11
1446.310703114757
 21
566.8325608871747
 31
0.0
  0
LINE
  5
6057
330
1E
100
AcDbEntity
  8
躯体と製品
  6
Continuous
 62
     2
100
AcDbLine
 10
1440.710703114757
 20
560.0325608871746
 30
0.0
 11
1445.110703114757
 21
560.0325608871746
 31
0.0
  0
LINE
  5
6058
330
1E
100
AcDbEntity
  8
躯体と製品
  6
Continuous
 62
     2
100
AcDbLine
 10
1440.710703114757
 20
560.0325608871746
 30
0.0
 11
1440.710703114757
 21
558.8325608871747
 31
0.0
  0
LINE
  5
605B
330
1E
100
AcDbEntity
  8
躯体と製品
  6
Continuous
 62
     2
100
AcDbLine
 10
1450.710703114757
 20
560.0325608871746
 30
0.0
 11
1450.710703114757
 21
558.8325608871747
 31
0.0
  0
LINE
  5
605C
330
1E
100
AcDbEntity
  8
躯体と製品
  6
Continuous
 62
     2
100
AcDbLine
 10
1460.110703114757
 20
655.8325608871747
 30
0.0
 11
1460.110703114757
 21
649.0325608871747
 31
0.0
  0
LINE
  5
605D
330
1E
100
AcDbEntity
  8
躯体と製品
  6
Continuous
 62
     2
100
AcDbLine
 10
1461.310703114757
 20
649.0325608871747
 30
0.0
 11
1461.310703114757
 21
655.8325608871747
 31
0.0
  0
LINE
  5
605E
330
1E
100
AcDbEntity
  8
躯体と製品
  6
Continuous
 62
     4
100
AcDbLine
 10
1440.110703114757
 20
656.1325608871747
 30
0.0
 11
1440.110703114757
 21
649.3325608871747
 31
0.0
  0
LINE
  5
605F
330
1E
100
AcDbEntity
  8
躯体と製品
  6
Continuous
 62
     4
100
AcDbLine
 10
1441.310703114757
 20
649.3325608871747
 30
0.0
 11
1441.310703114757
 21
657.3325608871747
 31
0.0
  0
LINE
  5
6060
330
1E
100
AcDbEntity
  8
躯体と製品
  6
Continuous
 62
     4
100
AcDbLine
 10
1420.110703114757
 20
656.1325608871747
 30
0.0
 11
1420.110703114757
 21
649.3325608871747
 31
0.0
  0
LINE
  5
6061
330
1E
100
AcDbEntity
  8
躯体と製品
  6
Continuous
 62
     4
100
AcDbLine
 10
1421.310703114757
 20
649.3325608871747
 30
0.0
 11
1421.310703114757
 21
656.1325598871746
 31
0.0
  0
LINE
  5
6062
330
1E
100
AcDbEntity
  8
躯体と製品
  6
Continuous
 62
     4
100
AcDbLine
 10
1400.110703114757
 20
656.1325608871747
 30
0.0
 11
1400.110703114757
 21
649.3325608871747
 31
0.0
  0
LINE
  5
6063
330
1E
100
AcDbEntity
  8
躯体と製品
  6
Continuous
 62
     4
100
AcDbLine
 10
1401.310703114757
 20
649.3325608871747
 30
0.0
 11
1401.310703114757
 21
656.1325598871746
 31
0.0
  0
LINE
  5
6064
330
1E
100
AcDbEntity
  8
躯体と製品
  6
Continuous
 62
     4
100
AcDbLine
 10
1380.110703114757
 20
656.1325608871747
 30
0.0
 11
1380.110703114757
 21
649.3325608871747
 31
0.0
  0
LINE
  5
6065
330
1E
100
AcDbEntity
  8
躯体と製品
  6
Continuous
 62
     4
100
AcDbLine
 10
1381.310703114757
 20
649.3325608871747
 30
0.0
 11
1381.310703114757
 21
656.1325598871746
 31
0.0
  0
LINE
  5
6067
330
1E
100
AcDbEntity
  8
躯体と製品
  6
Continuous
 62
     4
100
AcDbLine
 10
1431.314703114757
 20
571.9325608871748
 30
0.0
 11
1435.510703114757
 21
571.9325608871748
 31
0.0
  0
LINE
  5
606B
330
1E
100
AcDbEntity
  8
躯体と製品
  6
Continuous
 62
     4
100
AcDbLine
 10
1412.110703114757
 20
573.1325608871746
 30
0.0
 11
1436.710703114757
 21
573.1325608871746
 31
0.0
  0
LINE
  5
606F
330
1E
100
AcDbEntity
  8
躯体と製品
  6
Continuous
 62
     4
100
AcDbLine
 10
1413.310703114757
 20
571.9325608871748
 30
0.0
 11
1430.706703114757
 21
571.9325608871748
 31
0.0
  0
LINE
  5
607B
330
1E
100
AcDbEntity
  8
躯体と製品
  6
Continuous
 62
     4
100
AcDbLine
 10
1431.010703114757
 20
572.2325608871747
 30
0.0
 11
1431.314703114757
 21
571.9285608871747
 31
0.0
  0
LINE
  5
607C
330
1E
100
AcDbEntity
  8
躯体と製品
  6
Continuous
 62
     4
100
AcDbLine
 10
1431.010703114757
 20
572.2325608871747
 30
0.0
 11
1430.706703114757
 21
571.9285608871747
 31
0.0
  0
LINE
  5
608A
330
1E
100
AcDbEntity
  8
躯体と製品
  6
Continuous
 62
     4
100
AcDbLine
 10
1379.210703114757
 20
648.1325608871748
 30
0.0
 11
1382.210703114757
 21
648.1325608871748
 31
0.0
  0
LINE
  5
608B
330
1E
100
AcDbEntity
  8
躯体と製品
  6
Continuous
 62
     4
100
AcDbLine
 10
1379.210703114757
 20
649.3325608871747
 30
0.0
 11
1379.210703114757
 21
648.1325608871748
 31
0.0
  0
LINE
  5
608C
330
1E
100
AcDbEntity
  8
躯体と製品
  6
Continuous
 62
     4
100
AcDbLine
 10
1379.210703114757
 20
649.3325608871747
 30
0.0
 11
1380.110703114757
 21
649.3325608871747
 31
0.0
  0
LINE
  5
608D
330
1E
100
AcDbEntity
  8
躯体と製品
  6
Continuous
 62
     4
100
AcDbLine
 10
1382.210703114757
 20
649.3325608871747
 30
0.0
 11
1381.310703114757
 21
649.3325608871747
 31
0.0
  0
LINE
  5
608E
330
1E
100
AcDbEntity
  8
躯体と製品
  6
Continuous
 62
     4
100
AcDbLine
 10
1382.210703114757
 20
649.3325608871747
 30
0.0
 11
1382.210703114757
 21
648.1325608871748
 31
0.0
  0
LINE
  5
6093
330
1E
100
AcDbEntity
  8
躯体と製品
  6
Continuous
 62
     4
100
AcDbLine
 10
1399.210703114757
 20
648.1325608871748
 30
0.0
 11
1402.210703114757
 21
648.1325608871748
 31
0.0
  0
LINE
  5
6094
330
1E
100
AcDbEntity
  8
躯体と製品
  6
Continuous
 62
     4
100
AcDbLine
 10
1399.210703114757
 20
649.3325608871747
 30
0.0
 11
1400.110703114757
 21
649.3325608871747
 31
0.0
  0
LINE
  5
6095
330
1E
100
AcDbEntity
  8
躯体と製品
  6
Continuous
 62
     4
100
AcDbLine
 10
1399.210703114757
 20
649.3325608871747
 30
0.0
 11
1399.210703114757
 21
648.1325608871748
 31
0.0
  0
LINE
  5
6096
330
1E
100
AcDbEntity
  8
躯体と製品
  6
Continuous
 62
     4
100
AcDbLine
 10
1402.210703114757
 20
649.3325608871747
 30
0.0
 11
1401.310703114757
 21
649.3325608871747
 31
0.0
  0
LINE
  5
6097
330
1E
100
AcDbEntity
  8
躯体と製品
  6
Continuous
 62
     4
100
AcDbLine
 10
1402.210703114757
 20
649.3325608871747
 30
0.0
 11
1402.210703114757
 21
648.1325608871748
 31
0.0
  0
LINE
  5
609D
330
1E
100
AcDbEntity
  8
躯体と製品
  6
Continuous
 62
     4
100
AcDbLine
 10
1422.210703114757
 20
649.3325608871747
 30
0.0
 11
1421.310703114757
 21
649.3325608871747
 31
0.0
  0
LINE
  5
609E
330
1E
100
AcDbEntity
  8
躯体と製品
  6
Continuous
 62
     4
100
AcDbLine
 10
1419.210703114757
 20
648.1325608871748
 30
0.0
 11
1422.210703114757
 21
648.1325608871748
 31
0.0
  0
LINE
  5
609F
330
1E
100
AcDbEntity
  8
躯体と製品
  6
Continuous
 62
     4
100
AcDbLine
 10
1419.210703114757
 20
649.3325608871747
 30
0.0
 11
1419.210703114757
 21
648.1325608871748
 31
0.0
  0
LINE
  5
60A0
330
1E
100
AcDbEntity
  8
躯体と製品
  6
Continuous
 62
     4
100
AcDbLine
 10
1422.210703114757
 20
649.3325608871747
 30
0.0
 11
1422.210703114757
 21
648.1325608871748
 31
0.0
  0
LINE
  5
60A1
330
1E
100
AcDbEntity
  8
躯体と製品
  6
Continuous
 62
     4
100
AcDbLine
 10
1419.210703114757
 20
649.3325608871747
 30
0.0
 11
1420.110703114757
 21
649.3325608871747
 31
0.0
  0
LINE
  5
60A4
330
1E
100
AcDbEntity
  8
躯体と製品
  6
Continuous
 62
     4
100
AcDbLine
 10
1435.510703114757
 20
570.7325608871747
 30
0.0
 11
1435.510703114757
 21
571.9325608871748
 31
0.0
  0
LINE
  5
60A5
330
1E
100
AcDbEntity
  8
躯体と製品
  6
Continuous
 62
     4
100
AcDbLine
 10
1436.710703114757
 20
570.7325608871747
 30
0.0
 11
1436.710703114757
 21
573.1325608871746
 31
0.0
  0
ARC
  5
60AA
330
1E
100
AcDbEntity
  8
躯体と製品
  6
Continuous
 62
     2
100
AcDbCircle
 10
1445.710703114757
 20
572.2325608871747
 30
0.0
 40
0.6
100
AcDbArc
 50
0.0
 51
180.0
  0
LINE
  5
60B8
330
1E
100
AcDbEntity
  8
躯体と製品
  6
Continuous
 62
     4
100
AcDbLine
 10
1442.210703114757
 20
649.3325608871747
 30
0.0
 11
1441.310703114757
 21
649.3325608871747
 31
0.0
  0
LINE
  5
60B9
330
1E
100
AcDbEntity
  8
躯体と製品
  6
Continuous
 62
     4
100
AcDbLine
 10
1439.210703114757
 20
648.1325608871748
 30
0.0
 11
1442.210703114757
 21
648.1325608871748
 31
0.0
  0
LINE
  5
60BA
330
1E
100
AcDbEntity
  8
躯体と製品
  6
Continuous
 62
     4
100
AcDbLine
 10
1439.210703114757
 20
649.3325608871747
 30
0.0
 11
1439.210703114757
 21
648.1325608871748
 31
0.0
  0
LINE
  5
60BB
330
1E
100
AcDbEntity
  8
躯体と製品
  6
Continuous
 62
     4
100
AcDbLine
 10
1439.210703114757
 20
649.3325608871747
 30
0.0
 11
1440.110703114757
 21
649.3325608871747
 31
0.0
  0
LINE
  5
60BC
330
1E
100
AcDbEntity
  8
躯体と製品
  6
Continuous
 62
     4
100
AcDbLine
 10
1442.210703114757
 20
649.3325608871747
 30
0.0
 11
1442.210703114757
 21
648.1325608871748
 31
0.0
  0
LINE
  5
60BD
330
1E
100
AcDbEntity
  8
躯体と製品
  6
Continuous
 62
     2
100
AcDbLine
 10
1459.210703114757
 20
647.8325608871747
 30
0.0
 11
1462.210703114757
 21
647.8325608871747
 31
0.0
  0
LINE
  5
60BE
330
1E
100
AcDbEntity
  8
躯体と製品
  6
Continuous
 62
     2
100
AcDbLine
 10
1459.210703114757
 20
649.0325608871747
 30
0.0
 11
1459.210703114757
 21
647.8325608871747
 31
0.0
  0
LINE
  5
60BF
330
1E
100
AcDbEntity
  8
躯体と製品
  6
Continuous
 62
     2
100
AcDbLine
 10
1459.210703114757
 20
649.0325608871747
 30
0.0
 11
1460.110703114757
 21
649.0325608871747
 31
0.0
  0
LINE
  5
60C0
330
1E
100
AcDbEntity
  8
躯体と製品
  6
Continuous
 62
     2
100
AcDbLine
 10
1462.210703114757
 20
649.0325608871747
 30
0.0
 11
1461.310703114757
 21
649.0325608871747
 31
0.0
  0
LINE
  5
60C1
330
1E
100
AcDbEntity
  8
躯体と製品
  6
Continuous
 62
     2
100
AcDbLine
 10
1462.210703114757
 20
649.0325608871747
 30
0.0
 11
1462.210703114757
 21
647.8325608871747
 31
0.0
  0
LINE
  5
60C2
330
1E
100
AcDbEntity
  8
躯体と製品
  6
Continuous
 62
     4
100
AcDbLine
 10
1421.310703114757
 20
656.1325608871747
 30
0.0
 11
1440.110703114757
 21
656.1325608871747
 31
0.0
  0
LINE
  5
60C3
330
1E
100
AcDbEntity
  8
躯体と製品
  6
Continuous
 62
     4
100
AcDbLine
 10
1433.310703114757
 20
657.3325608871747
 30
0.0
 11
1441.310703114757
 21
657.3325608871747
 31
0.0
  0
LINE
  5
60C5
330
1E
100
AcDbEntity
  8
躯体と製品
  6
Continuous
 62
     4
100
AcDbLine
 10
1433.310703114757
 20
660.9325608871747
 30
0.0
 11
1447.306703114757
 21
660.9325608871747
 31
0.0
  0
LINE
  5
60C8
330
1E
100
AcDbEntity
  8
躯体と製品
  6
Continuous
 62
     4
100
AcDbLine
 10
1432.110703114757
 20
662.1325608871748
 30
0.0
 11
1453.310703114757
 21
662.1325608871748
 31
0.0
  0
LINE
  5
60C9
330
1E
100
AcDbEntity
  8
躯体と製品
  6
Continuous
 62
     4
100
AcDbLine
 10
1420.110703114757
 20
656.1325608871747
 30
0.0
 11
1401.310703114757
 21
656.1325608871747
 31
0.0
  0
LINE
  5
60CA
330
1E
100
AcDbEntity
  8
躯体と製品
  6
Continuous
 62
     4
100
AcDbLine
 10
1381.310703114757
 20
656.1325608871747
 30
0.0
 11
1400.110703114757
 21
656.1325608871747
 31
0.0
  0
LINE
  5
60CC
330
1E
100
AcDbEntity
  8
躯体と製品
  6
Continuous
 62
     4
100
AcDbLine
 10
1432.110703114757
 20
657.3325608871747
 30
0.0
 11
1432.110703114757
 21
662.1325608871748
 31
0.0
  0
LINE
  5
60CD
330
1E
100
AcDbEntity
  8
躯体と製品
  6
Continuous
 62
     4
100
AcDbLine
 10
1433.310703114757
 20
660.9325608871747
 30
0.0
 11
1433.310703114757
 21
657.3325608871747
 31
0.0
  0
LINE
  5
60D4
330
1E
100
AcDbEntity
  8
躯体と製品
  6
Continuous
 62
     2
100
AcDbLine
 10
1469.204861114757
 20
655.8325608871747
 30
0.0
 11
1461.310703114757
 21
655.8325608871747
 31
0.0
  0
LINE
  5
60D5
330
1E
100
AcDbEntity
  8
躯体と製品
  6
Continuous
 62
     2
100
AcDbLine
 10
1469.204861114757
 20
657.0325608871747
 30
0.0
 11
1461.310703114757
 21
657.0325608871747
 31
0.0
  0
LINE
  5
60D9
330
1E
100
AcDbEntity
  8
躯体と製品
  6
Continuous
 62
     2
100
AcDbLine
 10
1460.110703114757
 20
655.8325608871747
 30
0.0
 11
1442.310703114757
 21
655.8325608871747
 31
0.0
  0
LINE
  5
60DA
330
1E
100
AcDbEntity
  8
躯体と製品
  6
Continuous
 62
     2
100
AcDbLine
 10
1460.110703114757
 20
657.0325608871747
 30
0.0
 11
1443.510703114757
 21
657.0325608871747
 31
0.0
  0
LINE
  5
60DC
330
1E
100
AcDbEntity
  8
躯体と製品
  6
Continuous
 62
     4
100
AcDbLine
 10
1447.914703114757
 20
660.9325608871747
 30
0.0
 11
1452.110703114757
 21
660.9325608871747
 31
0.0
  0
LINE
  5
60E0
330
1E
100
AcDbEntity
  8
躯体と製品
  6
PLINE3
 62
     3
100
AcDbLine
 10
1447.610703114757
 20
669.6560278871747
 30
0.0
 11
1447.610703114757
 21
658.3245988871746
 31
0.0
  0
LINE
  5
60E2
330
1E
100
AcDbEntity
  8
躯体と製品
  6
Continuous
 62
     2
100
AcDbLine
 10
1435.310703114757
 20
657.3325608871747
 30
0.0
 11
1442.310703114757
 21
657.3325608871747
 31
0.0
  0
LINE
  5
60E3
330
1E
100
AcDbEntity
  8
躯体と製品
  6
Continuous
 62
     2
100
AcDbLine
 10
1443.510703114757
 20
658.5325608871746
 30
0.0
 11
1436.510703114757
 21
658.5325608871746
 31
0.0
  0
LINE
  5
60E4
330
1E
100
AcDbEntity
  8
躯体と製品
  6
Continuous
 62
     2
100
AcDbLine
 10
1435.310703114757
 20
659.2325608871747
 30
0.0
 11
1435.310703114757
 21
657.3325608871747
 31
0.0
  0
ARC
  5
60E5
330
1E
100
AcDbEntity
  8
躯体と製品
  6
Continuous
 62
     2
100
AcDbCircle
 10
1435.910703114757
 20
659.2325608871747
 30
0.0
 40
0.6
100
AcDbArc
 50
0.0
 51
180.0
  0
LINE
  5
60E6
330
1E
100
AcDbEntity
  8
躯体と製品
  6
Continuous
 62
     2
100
AcDbLine
 10
1436.510703114757
 20
659.2325608871747
 30
0.0
 11
1436.510703114757
 21
658.5325608871746
 31
0.0
  0
LINE
  5
60E7
330
1E
100
AcDbEntity
  8
躯体と製品
  6
Continuous
 62
     2
100
AcDbLine
 10
1442.310703114757
 20
657.3325608871747
 30
0.0
 11
1442.310703114757
 21
655.8325608871747
 31
0.0
  0
LINE
  5
60E8
330
1E
100
AcDbEntity
  8
躯体と製品
  6
Continuous
 62
     2
100
AcDbLine
 10
1443.510703114757
 20
658.5325608871746
 30
0.0
 11
1443.510703114757
 21
657.0325608871747
 31
0.0
  0
LINE
  5
60E9
330
1E
100
AcDbEntity
  8
躯体と製品
  6
Continuous
 62
     4
100
AcDbLine
 10
1447.610703114757
 20
661.2325608871747
 30
0.0
 11
1447.914703114757
 21
660.9285608871747
 31
0.0
  0
LINE
  5
60EA
330
1E
100
AcDbEntity
  8
躯体と製品
  6
Continuous
 62
     4
100
AcDbLine
 10
1447.610703114757
 20
661.2325608871747
 30
0.0
 11
1447.306703114757
 21
660.9285608871747
 31
0.0
  0
LINE
  5
60F3
330
1E
100
AcDbEntity
  8
躯体と製品
  6
Continuous
 62
     4
100
AcDbLine
 10
1452.110703114757
 20
659.7325608871747
 30
0.0
 11
1452.110703114757
 21
660.9325608871747
 31
0.0
  0
LINE
  5
60F5
330
1E
100
AcDbEntity
  8
躯体と製品
  6
Continuous
 62
     4
100
AcDbLine
 10
1453.310703114757
 20
659.7325608871747
 30
0.0
 11
1453.310703114757
 21
662.1325608871748
 31
0.0
  0
ARC
  5
60F6
330
1E
100
AcDbEntity
  8
躯体と製品
  6
Continuous
 62
     4
100
AcDbCircle
 10
1452.710703114757
 20
659.7325608871747
 30
0.0
 40
0.6
100
AcDbArc
 50
180.0
 51
0.0
  0
LINE
  5
60F7
330
1E
100
AcDbEntity
  8
躯体と製品
  6
Continuous
 62
     2
100
AcDbLine
 10
1460.110703114757
 20
661.2325608871747
 30
0.0
 11
1460.110703114757
 21
657.0325598871747
 31
0.0
  0
LINE
  5
60F8
330
1E
100
AcDbEntity
  8
躯体と製品
  6
Continuous
 62
     2
100
AcDbLine
 10
1461.310703114757
 20
661.2325608871747
 30
0.0
 11
1461.310703114757
 21
657.0325608871747
 31
0.0
  0
ARC
  5
60FB
330
1E
100
AcDbEntity
  8
躯体と製品
  6
Continuous
 62
     2
100
AcDbCircle
 10
1460.710703114757
 20
661.2325608871747
 30
0.0
 40
0.6
100
AcDbArc
 50
0.0
 51
180.0
  0
DIMENSION
  5
6103
330
1E
100
AcDbEntity
  8
寸法
  6
Continuous
100
AcDbDimension
  2
*D4
 10
1301.867046114757
 20
656.1325608871747
 30
0.0
 11
1299.367046114757
 21
652.132560887175
 31
0.0
 70
    32
 71
     5
 42
8.0
  3
AutoCAD
100
AcDbAlignedDimension
 13
1335.740695114757
 23
648.1325608871748
 33
0.0
 14
1320.015198114757
 24
656.1325608871747
 34
0.0
 50
90.0
100
AcDbRotatedDimension
  0
DIMENSION
  5
6110
330
1E
100
AcDbEntity
  8
寸法
  6
Continuous
100
AcDbDimension
  2
*D5
 10
1301.867046114757
 20
660.1325608871747
 30
0.0
 11
1301.867046114757
 21
657.9927598758164
 31
0.0
 70
   160
 71
     5
 42
4.0
  3
AutoCAD
100
AcDbAlignedDimension
 13
1320.015198114757
 23
656.1325608871747
 33
0.0
 14
1313.501015114757
 24
660.1325608871747
 34
0.0
 50
90.0
100
AcDbRotatedDimension
  0
DIMENSION
  5
611E
330
1E
100
AcDbEntity
  8
寸法
  6
Continuous
100
AcDbDimension
  2
*D6
 10
1308.756096114757
 20
657.6325608871748
 30
0.0
 11
1306.256096114757
 21
656.882560887175
 31
0.0
 70
    32
  1
1.5
 71
     5
 42
1.5
  3
AutoCAD
100
AcDbAlignedDimension
 13
1320.015198114757
 23
656.1325608871747
 33
0.0
 14
1313.033608114757
 24
657.6325608871748
 34
0.0
 50
90.0
100
AcDbRotatedDimension
  0
DIMENSION
  5
6136
330
1E
100
AcDbEntity
  8
寸法
  6
Continuous
100
AcDbDimension
  2
*D7
 10
1322.310703114757
 20
642.7849698871747
 30
0.0
 11
1318.810703114757
 21
645.2849698871747
 31
0.0
 70
    32
 71
     5
 42
7.0
  3
AutoCAD
100
AcDbAlignedDimension
 13
1315.310703114757
 23
653.1325608871748
 33
0.0
 14
1322.310703114757
 24
653.7659448871748
 34
0.0
100
AcDbRotatedDimension
  0
DIMENSION
  5
6143
330
1E
100
AcDbEntity
  8
寸法
  6
Continuous
100
AcDbDimension
  2
*D8
 10
1342.210703114757
 20
643.0110258871747
 30
0.0
 11
1340.710703114757
 21
645.5110258871747
 31
0.0
 70
    32
 71
     5
 42
3.0
  3
AutoCAD
100
AcDbAlignedDimension
 13
1339.210703114757
 23
646.0800368871747
 33
0.0
 14
1342.210703114757
 24
646.1930648871747
 34
0.0
100
AcDbRotatedDimension
  0
DIMENSION
  5
6151
330
1E
100
AcDbEntity
  8
寸法
  6
Continuous
100
AcDbDimension
  2
*D9
 10
1352.641497114757
 20
662.1325608871748
 30
0.0
 11
1350.141497114757
 21
655.132560887175
 31
0.0
 70
    32
 71
     5
 42
14.0
  3
AutoCAD
100
AcDbAlignedDimension
 13
1343.974665114757
 23
648.1325608871748
 33
0.0
 14
1342.775678114757
 24
662.1325608871748
 34
0.0
 50
90.0
100
AcDbRotatedDimension
  0
DIMENSION
  5
615E
330
1E
100
AcDbEntity
  8
寸法
  6
Continuous
100
AcDbDimension
  2
*D10
 10
1340.710703114757
 20
628.2507488871747
 30
0.0
 11
1328.010703114757
 21
630.7507488871747
 31
0.0
 70
    32
  1
25.4
 71
     5
 42
25.40000000000009
  3
AutoCAD
100
AcDbAlignedDimension
 13
1315.310703114757
 23
653.1325608871748
 33
0.0
 14
1340.710703114757
 24
646.2513688871747
 34
0.0
100
AcDbRotatedDimension
  0
DIMENSION
  5
6174
330
1E
100
AcDbEntity
  8
寸法
  6
Continuous
100
AcDbDimension
  2
*D11
 10
1360.710703114757
 20
636.1325608871746
 30
0.0
 11
1350.710703114757
 21
638.6325608871747
 31
0.0
 70
    32
 71
     5
 42
20.0
  3
AutoCAD
100
AcDbAlignedDimension
 13
1340.710703114757
 23
646.2513688871747
 33
0.0
 14
1360.710703114757
 24
645.2781968871748
 34
0.0
100
AcDbRotatedDimension
  0
DIMENSION
  5
6181
330
1E
100
AcDbEntity
  8
寸法
  6
Continuous
100
AcDbDimension
  2
*D12
 10
1380.710703114757
 20
636.1325608871746
 30
0.0
 11
1370.710703114757
 21
638.6325608871747
 31
0.0
 70
    32
 71
     5
 42
20.0
  3
AutoCAD
100
AcDbAlignedDimension
 13
1360.710703114757
 23
645.2781968871748
 33
0.0
 14
1380.710703114757
 24
645.7233188871747
 34
0.0
100
AcDbRotatedDimension
  0
DIMENSION
  5
618E
330
1E
100
AcDbEntity
  8
寸法
  6
Continuous
100
AcDbDimension
  2
*D13
 10
1400.710703114757
 20
636.1325608871746
 30
0.0
 11
1390.710703114757
 21
638.6325608871747
 31
0.0
 70
    32
 71
     5
 42
20.0
  3
AutoCAD
100
AcDbAlignedDimension
 13
1380.710703114757
 23
645.7233188871747
 33
0.0
 14
1400.710703114757
 24
645.5007578871747
 34
0.0
100
AcDbRotatedDimension
  0
DIMENSION
  5
619B
330
1E
100
AcDbEntity
  8
寸法
  6
Continuous
100
AcDbDimension
  2
*D14
 10
1420.710703114757
 20
636.1325608871746
 30
0.0
 11
1410.710703114757
 21
638.6325608871747
 31
0.0
 70
    32
 71
     5
 42
20.0
  3
AutoCAD
100
AcDbAlignedDimension
 13
1400.710703114757
 23
645.5007578871747
 33
0.0
 14
1420.710703114757
 24
645.5007578871747
 34
0.0
100
AcDbRotatedDimension
  0
DIMENSION
  5
61A8
330
1E
100
AcDbEntity
  8
寸法
  6
Continuous
100
AcDbDimension
  2
*D15
 10
1440.710703114757
 20
636.1325608871746
 30
0.0
 11
1430.710703114757
 21
638.6325608871747
 31
0.0
 70
    32
 71
     5
 42
20.0
  3
AutoCAD
100
AcDbAlignedDimension
 13
1420.710703114757
 23
645.5007578871747
 33
0.0
 14
1440.710703114757
 24
645.8134818871747
 34
0.0
100
AcDbRotatedDimension
  0
DIMENSION
  5
61B5
330
1E
100
AcDbEntity
  8
寸法
  6
Continuous
100
AcDbDimension
  2
*D16
 10
1460.710703114757
 20
628.2507488871747
 30
0.0
 11
1450.710703114757
 21
630.7507488871747
 31
0.0
 70
    32
 71
     5
 42
20.0
  3
AutoCAD
100
AcDbAlignedDimension
 13
1440.710703114757
 23
645.8134818871747
 33
0.0
 14
1460.710703114757
 24
645.9535278871746
 34
0.0
100
AcDbRotatedDimension
  0
DIMENSION
  5
61C2
330
1E
100
AcDbEntity
  8
寸法
  6
Continuous
100
AcDbDimension
  2
*D17
 10
1340.710703114757
 20
628.2507488871747
 30
0.0
 11
1390.710703114757
 21
630.7507488871747
 31
0.0
 70
    32
 71
     5
 42
100.0
  3
AutoCAD
100
AcDbAlignedDimension
 13
1440.710703114757
 23
645.8134818871747
 33
0.0
 14
1340.710703114757
 24
646.2513688871747
 34
0.0
100
AcDbRotatedDimension
  0
DIMENSION
  5
61CF
330
1E
100
AcDbEntity
  8
寸法
  6
Continuous
100
AcDbDimension
  2
*D18
 10
1441.310703114757
 20
674.5452318871747
 30
0.0
 11
1437.310703114757
 21
677.0452318871747
 31
0.0
 70
    32
 71
     5
 42
8.0
  3
AutoCAD
100
AcDbAlignedDimension
 13
1433.310703114757
 23
663.1221248871746
 33
0.0
 14
1441.310703114757
 24
660.0664688871748
 34
0.0
100
AcDbRotatedDimension
  0
DIMENSION
  5
61DC
330
1E
100
AcDbEntity
  8
寸法
  6
Continuous
100
AcDbDimension
  2
*D19
 10
1453.310703114757
 20
674.5452318871747
 30
0.0
 11
1447.310703114757
 21
677.0452318871747
 31
0.0
 70
    32
 71
     5
 42
12.0
  3
AutoCAD
100
AcDbAlignedDimension
 13
1441.310703114757
 23
660.0664688871748
 33
0.0
 14
1453.310703114757
 24
663.0948708871747
 34
0.0
100
AcDbRotatedDimension
  0
DIMENSION
  5
61E9
330
1E
100
AcDbEntity
  8
寸法
  6
Continuous
100
AcDbDimension
  2
*D20
 10
1453.310703114757
 20
668.9575698871747
 30
0.0
 11
1450.460703114757
 21
668.9575698871747
 31
0.0
 70
   160
  1
5.7
 71
     5
 42
5.700000000000045
  3
AutoCAD
100
AcDbAlignedDimension
 13
1447.610703114757
 23
668.9575698871747
 33
0.0
 14
1453.310703114757
 24
668.9575698871747
 34
0.0
100
AcDbRotatedDimension
  0
DIMENSION
  5
61FC
330
1E
100
AcDbEntity
  8
寸法
  6
Continuous
100
AcDbDimension
  2
*D21
 10
1453.310703114757
 20
679.8325608871747
 30
0.0
 11
1443.310703114757
 21
682.3325608871747
 31
0.0
 70
    32
 71
     5
 42
20.0
  3
AutoCAD
100
AcDbAlignedDimension
 13
1433.310703114757
 23
663.1221248871746
 33
0.0
 14
1453.310703114757
 24
663.0948708871747
 34
0.0
100
AcDbRotatedDimension
  0
DIMENSION
  5
6209
330
1E
100
AcDbEntity
  8
寸法
  6
Continuous
100
AcDbDimension
  2
*D22
 10
1435.942553042524
 20
668.9575698871747
 30
0.0
 11
1434.626628078641
 21
672.243284172889
 31
0.0
 70
    32
  1
(2)
 71
     5
 42
2.631849927767461
  3
AutoCAD
100
AcDbAlignedDimension
 13
1433.310703114757
 23
663.1221248871746
 33
0.0
 14
1435.942553042524
 24
663.9590163755964
 34
0.0
100
AcDbRotatedDimension
  0
DIMENSION
  5
6221
330
1E
100
AcDbEntity
  8
寸法
  6
Continuous
100
AcDbDimension
  2
*D23
 10
1457.924047114757
 20
662.1325608871748
 30
0.0
 11
1455.424047114757
 21
660.632560887175
 31
0.0
 70
    32
 71
     5
 42
3.0
  3
AutoCAD
100
AcDbAlignedDimension
 13
1454.711878114757
 23
659.1325608871748
 33
0.0
 14
1454.867885114757
 24
662.1325608871748
 34
0.0
 50
90.0
100
AcDbRotatedDimension
  0
DIMENSION
  5
622F
330
1E
100
AcDbEntity
  8
寸法
  6
Continuous
100
AcDbDimension
  2
*D24
 10
1301.867046114757
 20
567.1325608871747
 30
0.0
 11
1299.367046114757
 21
563.1325608871748
 31
0.0
 70
    32
 71
     5
 42
8.0
  3
AutoCAD
100
AcDbAlignedDimension
 13
1317.310703114757
 23
559.1325608871747
 33
0.0
 14
1321.019293114757
 24
567.1325608871747
 34
0.0
 50
90.0
100
AcDbRotatedDimension
  0
DIMENSION
  5
623C
330
1E
100
AcDbEntity
  8
寸法
  6
Continuous
100
AcDbDimension
  2
*D25
 10
1301.867046114757
 20
571.1325608871747
 30
0.0
 11
1301.867046114757
 21
569.0108201348833
 31
0.0
 70
   160
 71
     5
 42
4.0
  3
AutoCAD
100
AcDbAlignedDimension
 13
1321.019293114757
 23
567.1325608871747
 33
0.0
 14
1313.501015114757
 24
571.1325608871747
 34
0.0
 50
90.0
100
AcDbRotatedDimension
  0
DIMENSION
  5
624A
330
1E
100
AcDbEntity
  8
寸法
  6
Continuous
100
AcDbDimension
  2
*D26
 10
1308.756096114757
 20
568.6325608871746
 30
0.0
 11
1306.256096114757
 21
567.8825608871749
 31
0.0
 70
    32
  1
1.5
 71
     5
 42
1.5
  3
AutoCAD
100
AcDbAlignedDimension
 13
1321.019293114757
 23
567.1325608871747
 33
0.0
 14
1313.033608114757
 24
568.6325608871746
 34
0.0
 50
90.0
100
AcDbRotatedDimension
  0
DIMENSION
  5
6262
330
1E
100
AcDbEntity
  8
寸法
  6
Continuous
100
AcDbDimension
  2
*D27
 10
1322.310703114757
 20
553.7849698871747
 30
0.0
 11
1318.810703114757
 21
556.2849698871747
 31
0.0
 70
    32
 71
     5
 42
7.0
  3
AutoCAD
100
AcDbAlignedDimension
 13
1315.310703114757
 23
564.1325608871746
 33
0.0
 14
1322.310703114757
 24
564.7659448871747
 34
0.0
100
AcDbRotatedDimension
  0
DIMENSION
  5
626F
330
1E
100
AcDbEntity
  8
寸法
  6
Continuous
100
AcDbDimension
  2
*D28
 10
1350.710703114757
 20
554.0110258871747
 30
0.0
 11
1345.710703114757
 21
556.5110258871746
 31
0.0
 70
    32
 71
     5
 42
10.0
  3
AutoCAD
100
AcDbAlignedDimension
 13
1340.710703114757
 23
558.4253928871746
 33
0.0
 14
1350.710703114757
 24
558.5277118871747
 34
0.0
100
AcDbRotatedDimension
  0
DIMENSION
  5
627C
330
1E
100
AcDbEntity
  8
寸法
  6
Continuous
100
AcDbDimension
  2
*D29
 10
1357.641497114757
 20
573.1325608871746
 30
0.0
 11
1355.141497114757
 21
566.1325608871749
 31
0.0
 70
    32
 71
     5
 42
14.0
  3
AutoCAD
100
AcDbAlignedDimension
 13
1351.394216114757
 23
559.1325608871747
 33
0.0
 14
1347.775678114757
 24
573.1325608871746
 34
0.0
 50
90.0
100
AcDbRotatedDimension
  0
DIMENSION
  5
6289
330
1E
100
AcDbEntity
  8
寸法
  6
Continuous
100
AcDbDimension
  2
*D30
 10
1345.710703114757
 20
539.2507488871747
 30
0.0
 11
1330.510703114757
 21
541.7507488871747
 31
0.0
 70
    32
  1
30.4
 71
     5
 42
30.40000000000009
  3
AutoCAD
100
AcDbAlignedDimension
 13
1315.310703114757
 23
564.1325608871746
 33
0.0
 14
1345.710703114757
 24
557.2513688871747
 34
0.0
100
AcDbRotatedDimension
  0
DIMENSION
  5
629F
330
1E
100
AcDbEntity
  8
寸法
  6
Continuous
100
AcDbDimension
  2
*D31
 10
1370.710703114757
 20
547.1325608871747
 30
0.0
 11
1358.210703114757
 21
549.6325608871747
 31
0.0
 70
    32
 71
     5
 42
25.0
  3
AutoCAD
100
AcDbAlignedDimension
 13
1345.710703114757
 23
557.2513688871747
 33
0.0
 14
1370.710703114757
 24
556.2781968871747
 34
0.0
100
AcDbRotatedDimension
  0
DIMENSION
  5
62AC
330
1E
100
AcDbEntity
  8
寸法
  6
Continuous
100
AcDbDimension
  2
*D32
 10
1395.710703114757
 20
547.1325608871747
 30
0.0
 11
1383.210703114757
 21
549.6325608871747
 31
0.0
 70
    32
 71
     5
 42
25.0
  3
AutoCAD
100
AcDbAlignedDimension
 13
1370.710703114757
 23
556.2781968871747
 33
0.0
 14
1395.710703114757
 24
556.7233188871747
 34
0.0
100
AcDbRotatedDimension
  0
DIMENSION
  5
62B9
330
1E
100
AcDbEntity
  8
寸法
  6
Continuous
100
AcDbDimension
  2
*D33
 10
1420.710703114757
 20
547.1325608871747
 30
0.0
 11
1408.210703114757
 21
549.6325608871747
 31
0.0
 70
    32
 71
     5
 42
25.0
  3
AutoCAD
100
AcDbAlignedDimension
 13
1395.710703114757
 23
556.7233188871747
 33
0.0
 14
1420.710703114757
 24
556.5007578871747
 34
0.0
100
AcDbRotatedDimension
  0
DIMENSION
  5
62C6
330
1E
100
AcDbEntity
  8
寸法
  6
Continuous
100
AcDbDimension
  2
*D34
 10
1445.710703114757
 20
539.2507488871747
 30
0.0
 11
1433.210703114757
 21
541.7507488871747
 31
0.0
 70
    32
 71
     5
 42
25.0
  3
AutoCAD
100
AcDbAlignedDimension
 13
1420.710703114757
 23
556.5007578871747
 33
0.0
 14
1445.710703114757
 24
556.3994988871748
 34
0.0
100
AcDbRotatedDimension
  0
DIMENSION
  5
62D3
330
1E
100
AcDbEntity
  8
寸法
  6
Continuous
100
AcDbDimension
  2
*D35
 10
1420.710703114757
 20
539.2507488871747
 30
0.0
 11
1383.210703114757
 21
541.7507488871747
 31
0.0
 70
    32
 71
     5
 42
75.0
  3
AutoCAD
100
AcDbAlignedDimension
 13
1345.710703114757
 23
557.2513688871747
 33
0.0
 14
1420.710703114757
 24
556.5007578871747
 34
0.0
100
AcDbRotatedDimension
  0
DIMENSION
  5
62E0
330
1E
100
AcDbEntity
  8
寸法
  6
Continuous
100
AcDbDimension
  2
*D36
 10
1441.324047114757
 20
573.1325608871746
 30
0.0
 11
1438.824047114757
 21
571.6325608871748
 31
0.0
 70
    32
 71
     5
 42
3.0
  3
AutoCAD
100
AcDbAlignedDimension
 13
1438.111878114757
 23
570.1325608871747
 33
0.0
 14
1438.267885114757
 24
573.1325608871746
 34
0.0
 50
90.0
100
AcDbRotatedDimension
  0
DIMENSION
  5
62EE
330
1E
100
AcDbEntity
  8
寸法
  6
Continuous
100
AcDbDimension
  2
*D37
 10
1415.310703114757
 20
579.9575698871747
 30
0.0
 11
1414.310703114757
 21
583.243284172889
 31
0.0
 70
    32
  1
(2)
 71
     5
 42
2.0
  3
AutoCAD
100
AcDbAlignedDimension
 13
1413.310703114757
 23
574.1221248871747
 33
0.0
 14
1415.310703114757
 24
574.9276368871746
 34
0.0
100
AcDbRotatedDimension
  0
DIMENSION
  5
6306
330
1E
100
AcDbEntity
  8
寸法
  6
Continuous
100
AcDbDimension
  2
*D38
 10
1421.310703114757
 20
585.5452318871747
 30
0.0
 11
1417.310703114757
 21
588.0452318871747
 31
0.0
 70
    32
 71
     5
 42
8.0
  3
AutoCAD
100
AcDbAlignedDimension
 13
1413.310703114757
 23
574.1221248871747
 33
0.0
 14
1421.310703114757
 24
571.0664688871747
 34
0.0
100
AcDbRotatedDimension
  0
DIMENSION
  5
6313
330
1E
100
AcDbEntity
  8
寸法
  6
Continuous
100
AcDbDimension
  2
*D39
 10
1436.710703114757
 20
585.5452318871747
 30
0.0
 11
1429.010703114757
 21
588.0452318871747
 31
0.0
 70
    32
  1
15.4
 71
     5
 42
15.40000000000009
  3
AutoCAD
100
AcDbAlignedDimension
 13
1421.310703114757
 23
571.0664688871747
 33
0.0
 14
1436.710703114757
 24
574.0948708871747
 34
0.0
100
AcDbRotatedDimension
  0
DIMENSION
  5
6329
330
1E
100
AcDbEntity
  8
寸法
  6
Continuous
100
AcDbDimension
  2
*D40
 10
1436.710703114757
 20
579.9575698871747
 30
0.0
 11
1433.860703114757
 21
579.9575698871747
 31
0.0
 70
   160
  1
5.7
 71
     5
 42
5.700000000000045
  3
AutoCAD
100
AcDbAlignedDimension
 13
1431.010703114757
 23
579.9575698871747
 33
0.0
 14
1436.710703114757
 24
574.0948708871747
 34
0.0
100
AcDbRotatedDimension
  0
DIMENSION
  5
633E
330
1E
100
AcDbEntity
  8
寸法
  6
Continuous
100
AcDbDimension
  2
*D41
 10
1436.710703114757
 20
590.8325608871747
 30
0.0
 11
1425.010703114757
 21
593.3325608871747
 31
0.0
 70
    32
  1
23.4
 71
     5
 42
23.40000000000009
  3
AutoCAD
100
AcDbAlignedDimension
 13
1413.310703114757
 23
574.1221248871747
 33
0.0
 14
1436.710703114757
 24
574.0948708871747
 34
0.0
100
AcDbRotatedDimension
  0
DIMENSION
  5
6354
330
1E
100
AcDbEntity
  8
寸法
  6
Continuous
100
AcDbDimension
  2
*D42
 10
1431.891900114757
 20
489.8575698871747
 30
0.0
 11
1430.891900114757
 21
493.143284172889
 31
0.0
 70
    32
  1
(2)
 71
     5
 42
2.0
  3
AutoCAD
100
AcDbAlignedDimension
 13
1429.891900114757
 23
485.1209298871747
 33
0.0
 14
1431.891900114757
 24
484.9193558871747
 34
0.0
100
AcDbRotatedDimension
  0
DIMENSION
  5
636C
330
1E
100
AcDbEntity
  8
寸法
  6
Continuous
100
AcDbDimension
  2
*D43
 10
1437.891900114757
 20
495.4452318871747
 30
0.0
 11
1433.891900114757
 21
497.9452318871746
 31
0.0
 70
    32
 71
     5
 42
8.0
  3
AutoCAD
100
AcDbAlignedDimension
 13
1429.891900114757
 23
485.1209298871747
 33
0.0
 14
1437.891900114757
 24
482.0652728871747
 34
0.0
100
AcDbRotatedDimension
  0
DIMENSION
  5
6379
330
1E
100
AcDbEntity
  8
寸法
  6
Continuous
100
AcDbDimension
  2
*D44
 10
1460.605243114757
 20
484.1313648871746
 30
0.0
 11
1458.105243114757
 21
482.6313648871749
 31
0.0
 70
    32
 71
     5
 42
3.0
  3
AutoCAD
100
AcDbAlignedDimension
 13
1457.393075114757
 23
481.1313648871746
 33
0.0
 14
1457.549081114757
 24
484.1313648871746
 34
0.0
 50
90.0
100
AcDbRotatedDimension
  0
DIMENSION
  5
6387
330
1E
100
AcDbEntity
  8
寸法
  6
Continuous
100
AcDbDimension
  2
*D45
 10
1455.991900114757
 20
489.8575698871747
 30
0.0
 11
1453.191900114757
 21
489.8575698871747
 31
0.0
 70
   160
  1
5.6
 71
     5
 42
5.599999999999909
  3
AutoCAD
100
AcDbAlignedDimension
 13
1450.391900114757
 23
489.8575698871747
 33
0.0
 14
1455.991900114757
 24
485.0936748871746
 34
0.0
100
AcDbRotatedDimension
  0
DIMENSION
  5
639C
330
1E
100
AcDbEntity
  8
寸法
  6
Continuous
100
AcDbDimension
  2
*D46
 10
1455.991900114757
 20
495.4452318871747
 30
0.0
 11
1446.941900114757
 21
497.9452318871746
 31
0.0
 70
    32
  1
18.1
 71
     5
 42
18.09999999999991
  3
AutoCAD
100
AcDbAlignedDimension
 13
1437.891900114757
 23
482.0652728871747
 33
0.0
 14
1455.991900114757
 24
485.0936748871746
 34
0.0
100
AcDbRotatedDimension
  0
DIMENSION
  5
63B2
330
1E
100
AcDbEntity
  8
寸法
  6
Continuous
100
AcDbDimension
  2
*D47
 10
1455.991900114757
 20
501.8313648871746
 30
0.0
 11
1442.941900114757
 21
504.3313648871746
 31
0.0
 70
    32
  1
26.1
 71
     5
 42
26.09999999999991
  3
AutoCAD
100
AcDbAlignedDimension
 13
1429.891900114757
 23
485.1209298871747
 33
0.0
 14
1455.991900114757
 24
485.0936748871746
 34
0.0
100
AcDbRotatedDimension
  0
DIMENSION
  5
63C8
330
1E
100
AcDbEntity
  8
寸法
  6
Continuous
100
AcDbDimension
  2
*D48
 10
1301.867046114757
 20
477.0325608871747
 30
0.0
 11
1299.367046114757
 21
473.5825608871748
 31
0.0
 70
    32
  1
6.9
 71
     5
 42
6.900000000000034
  3
AutoCAD
100
AcDbAlignedDimension
 13
1336.946521114757
 23
470.1325608871747
 33
0.0
 14
1318.600489114757
 24
477.0325608871747
 34
0.0
 50
90.0
100
AcDbRotatedDimension
  0
DIMENSION
  5
63DF
330
1E
100
AcDbEntity
  8
寸法
  6
Continuous
100
AcDbDimension
  2
*D49
 10
1307.092366495046
 20
478.0325608871747
 30
0.0
 11
1307.092366495046
 21
477.5325608871749
 31
0.0
 70
   160
 71
     5
  3
AutoCAD
100
AcDbAlignedDimension
 13
1318.600489114757
 23
477.0325608871747
 33
0.0
 14
1310.355332114757
 24
478.0325608871747
 34
0.0
 50
90.0
100
AcDbRotatedDimension
  0
DIMENSION
  5
63ED
330
1E
100
AcDbEntity
  8
寸法
  6
Continuous
100
AcDbDimension
  2
*D50
 10
1301.867046114757
 20
482.6325608871747
 30
0.0
 11
1301.867046114757
 21
479.8325608871748
 31
0.0
 70
   160
  1
5.6
 71
     5
 42
5.599999999999965
  3
AutoCAD
100
AcDbAlignedDimension
 13
1318.600489114757
 23
477.0325608871747
 33
0.0
 14
1310.082211114757
 24
482.6325608871747
 34
0.0
 50
90.0
100
AcDbRotatedDimension
  0
DIMENSION
  5
6404
330
1E
100
AcDbEntity
  8
寸法
  6
Continuous
100
AcDbDimension
  2
*D51
 10
1319.891900114757
 20
464.7849698871747
 30
0.0
 11
1315.891900114757
 21
467.2849698871747
 31
0.0
 70
    32
 71
     5
 42
8.0
  3
AutoCAD
100
AcDbAlignedDimension
 13
1311.891900114757
 23
474.0325598871747
 33
0.0
 14
1319.891900114757
 24
474.6659448871747
 34
0.0
100
AcDbRotatedDimension
  0
DIMENSION
  5
6411
330
1E
100
AcDbEntity
  8
寸法
  6
Continuous
100
AcDbDimension
  2
*D52
 10
1354.991900114757
 20
465.0110258871746
 30
0.0
 11
1347.391900114757
 21
467.5110258871747
 31
0.0
 70
    32
  1
15.2
 71
     5
 42
15.20000000000004
  3
AutoCAD
100
AcDbAlignedDimension
 13
1339.791900114757
 23
469.4253928871747
 33
0.0
 14
1354.991900114757
 24
469.5277118871747
 34
0.0
100
AcDbRotatedDimension
  0
DIMENSION
  5
6427
330
1E
100
AcDbEntity
  8
寸法
  6
Continuous
100
AcDbDimension
  2
*D53
 10
1364.559680114757
 20
484.1325608871747
 30
0.0
 11
1362.059680114757
 21
477.1325608871749
 31
0.0
 70
    32
 71
     5
 42
14.0
  3
AutoCAD
100
AcDbAlignedDimension
 13
1355.733636114757
 23
470.1325608871747
 33
0.0
 14
1349.456875114757
 24
484.1325608871747
 34
0.0
 50
90.0
100
AcDbRotatedDimension
  0
DIMENSION
  5
6434
330
1E
100
AcDbEntity
  8
寸法
  6
Continuous
100
AcDbDimension
  2
*D54
 10
1347.391900114757
 20
450.2507488871747
 30
0.0
 11
1329.641900114757
 21
452.7507488871747
 31
0.0
 70
    32
  1
35.5
 71
     5
 42
35.5
  3
AutoCAD
100
AcDbAlignedDimension
 13
1311.891900114757
 23
474.0325598871747
 33
0.0
 14
1347.391900114757
 24
468.2513688871747
 34
0.0
100
AcDbRotatedDimension
  0
DIMENSION
  5
644A
330
1E
100
AcDbEntity
  8
寸法
  6
Continuous
100
AcDbDimension
  2
*D55
 10
1377.391900114757
 20
458.1325608871747
 30
0.0
 11
1362.391900114757
 21
460.6325608871747
 31
0.0
 70
    32
 71
     5
 42
30.0
  3
AutoCAD
100
AcDbAlignedDimension
 13
1347.391900114757
 23
468.2513688871747
 33
0.0
 14
1377.391900114757
 24
467.2781968871746
 34
0.0
100
AcDbRotatedDimension
  0
DIMENSION
  5
6457
330
1E
100
AcDbEntity
  8
寸法
  6
Continuous
100
AcDbDimension
  2
*D56
 10
1407.391900114757
 20
458.1325608871747
 30
0.0
 11
1392.391900114757
 21
460.6325608871747
 31
0.0
 70
    32
 71
     5
 42
30.0
  3
AutoCAD
100
AcDbAlignedDimension
 13
1377.391900114757
 23
467.2781968871746
 33
0.0
 14
1407.391900114757
 24
468.6497768871746
 34
0.0
100
AcDbRotatedDimension
  0
DIMENSION
  5
6464
330
1E
100
AcDbEntity
  8
寸法
  6
Continuous
100
AcDbDimension
  2
*D57
 10
1437.391900114757
 20
458.1325608871747
 30
0.0
 11
1422.391900114757
 21
460.6325608871747
 31
0.0
 70
    32
 71
     5
 42
30.0
  3
AutoCAD
100
AcDbAlignedDimension
 13
1407.391900114757
 23
468.6497768871746
 33
0.0
 14
1437.391900114757
 24
467.5007578871746
 34
0.0
100
AcDbRotatedDimension
  0
DIMENSION
  5
6471
330
1E
100
AcDbEntity
  8
寸法
  6
Continuous
100
AcDbDimension
  2
*D58
 10
1467.391900114757
 20
450.2507488871747
 30
0.0
 11
1452.391900114757
 21
452.7507488871747
 31
0.0
 70
    32
 71
     5
 42
30.0
  3
AutoCAD
100
AcDbAlignedDimension
 13
1437.391900114757
 23
467.5007578871746
 33
0.0
 14
1467.391900114757
 24
467.6417118871746
 34
0.0
100
AcDbRotatedDimension
  0
DIMENSION
  5
647E
330
1E
100
AcDbEntity
  8
寸法
  6
Continuous
100
AcDbDimension
  2
*D59
 10
1347.391900114757
 20
450.2507488871747
 30
0.0
 11
1392.391900114757
 21
452.7507488871747
 31
0.0
 70
    32
 71
     5
 42
90.0
  3
AutoCAD
100
AcDbAlignedDimension
 13
1437.391900114757
 23
467.5007578871746
 33
0.0
 14
1347.391900114757
 24
468.2513688871747
 34
0.0
100
AcDbRotatedDimension
  0
ENDSEC
  0
SECTION
  2
OBJECTS
  0
DICTIONARY
  5
C
330
0
100
AcDbDictionary
281
     1
  3
ACAD_COLOR
350
653E
  3
ACAD_GROUP
350
D
  3
ACAD_LAYOUT
350
19
  3
ACAD_MATERIAL
350
6529
  3
ACAD_MLINESTYLE
350
16
  3
ACAD_PLOTSETTINGS
350
18
  3
ACAD_PLOTSTYLENAME
350
E
  3
ACAD_TABLESTYLE
350
653F
  3
ACAD_VISUALSTYLE
350
652D
  3
AcDbVariableDictionary
350
169
  3
DWGPROPS
350
67DE
  0
DICTIONARY
  5
67BD
330
8
100
AcDbDictionary
280
     1
281
     1
  0
DICTIONARY
  5
175
330
2
100
AcDbDictionary
280
     1
281
     1
  3
ACAD_LAYERFILTERS
360
185
  3
ACAD_LAYERSTATES
360
176
  0
DICTIONARY
  5
28B
330
1E
100
AcDbDictionary
280
     1
281
     1
  3
ACAD_LAYOUTSELFREF
360
6522
  0
DICTIONARY
  5
28D
330
1A
100
AcDbDictionary
280
     1
281
     1
  3
ACAD_LAYOUTSELFREF
360
6521
  0
DICTIONARY
  5
653E
102
{ACAD_REACTORS
330
C
102
}
330
C
100
AcDbDictionary
281
     1
  0
DICTIONARY
  5
D
102
{ACAD_REACTORS
330
C
102
}
330
C
100
AcDbDictionary
281
     1
  0
DICTIONARY
  5
19
102
{ACAD_REACTORS
330
C
102
}
330
C
100
AcDbDictionary
281
     1
  3
Model
350
21
  3
ﾚｲｱｳﾄ1
350
1D
  0
DICTIONARY
  5
6529
102
{ACAD_REACTORS
330
C
102
}
330
C
100
AcDbDictionary
281
     1
  3
ByBlock
350
652B
  3
ByLayer
350
652A
  3
Global
350
652C
  0
DICTIONARY
  5
16
102
{ACAD_REACTORS
330
C
102
}
330
C
100
AcDbDictionary
281
     1
  3
Standard
350
17
  0
DICTIONARY
  5
18
102
{ACAD_REACTORS
330
C
102
}
330
C
100
AcDbDictionary
281
     1
  0
ACDBDICTIONARYWDFLT
  5
E
102
{ACAD_REACTORS
330
C
102
}
330
C
100
AcDbDictionary
281
     1
  3
Normal
350
F
100
AcDbDictionaryWithDefault
340
F
1001
ACAD
1000
TREAT_AS_HARD
1070
     0
1000
TREAT_AS_HARD
1070
     0
1000
TREAT_AS_HARD
1070
     0
1000
TREAT_AS_HARD
1070
     0
1000
TREAT_AS_HARD
1070
     0
1000
TREAT_AS_HARD
1070
     0
1000
TREAT_AS_HARD
1070
     0
1000
TREAT_AS_HARD
1070
     0
1000
TREAT_AS_HARD
1070
     0
1000
TREAT_AS_HARD
1070
     0
1000
TREAT_AS_HARD
1070
     0
1000
TREAT_AS_HARD
1070
     0
1000
TREAT_AS_HARD
1070
     0
1000
TREAT_AS_HARD
1070
     0
1000
TREAT_AS_HARD
1070
     0
1000
TREAT_AS_HARD
1070
     0
1000
TREAT_AS_HARD
1070
     0
1000
TREAT_AS_HARD
1070
     0
1000
TREAT_AS_HARD
1070
     0
1000
TREAT_AS_HARD
1070
     0
1000
TREAT_AS_HARD
1070
     0
1000
TREAT_AS_HARD
1070
     0
1000
TREAT_AS_HARD
1070
     0
1000
TREAT_AS_HARD
1070
     0
1000
TREAT_AS_HARD
1070
     0
1000
TREAT_AS_HARD
1070
     0
  0
DICTIONARY
  5
653F
102
{ACAD_REACTORS
330
C
102
}
330
C
100
AcDbDictionary
281
     1
  3
Standard
350
6540
  0
DICTIONARY
  5
652D
102
{ACAD_REACTORS
330
C
102
}
330
C
100
AcDbDictionary
281
     1
  3
2dWireframe
350
6533
  3
3D Hidden
350
6535
  3
3dWireframe
350
6534
  3
Basic
350
6532
  3
Brighten
350
6539
  3
ColorChange
350
653D
  3
Conceptual
350
6536
  3
Dim
350
6538
  3
Facepattern
350
653C
  3
Flat
350
652E
  3
FlatWithEdges
350
652F
  3
Gouraud
350
6530
  3
GouraudWithEdges
350
6531
  3
Linepattern
350
653B
  3
Realistic
350
6537
  3
Thicken
350
653A
  0
DICTIONARY
  5
169
102
{ACAD_REACTORS
330
C
102
}
330
C
100
AcDbDictionary
281
     1
  3
CTABLESTYLE
350
67D5
  3
DIMASSOC
350
16A
  3
INDEXCTL
350
67D7
  3
SORTENTS
350
67D6
  0
XRECORD
  5
67DE
102
{ACAD_REACTORS
330
C
102
}
330
C
100
AcDbXrecord
280
     1
  1
DWGPROPS COOKIE
  2

  3

  4

  6

  7

  8
HON1000AV
  9

300
=
301
=
302
=
303
=
304
=
305
=
306
=
307
=
308
=
309
=
 40
0.2353994328703704
 41
2454316.693457674
 42
2454729.771699942
  1

 90
        0
  0
DICTIONARY
  5
185
102
{ACAD_REACTORS
330
175
102
}
330
175
100
AcDbDictionary
280
     1
281
     1
  0
DICTIONARY
  5
176
102
{ACAD_REACTORS
330
175
102
}
330
175
100
AcDbDictionary
281
     1
  3
ACAD
350
177
  0
XRECORD
  5
6522
102
{ACAD_REACTORS
330
28B
102
}
330
28B
100
AcDbXrecord
280
     1
340
1E
  0
XRECORD
  5
6521
102
{ACAD_REACTORS
330
28D
102
}
330
28D
100
AcDbXrecord
280
     1
340
1A
  0
LAYOUT
  5
21
102
{ACAD_XDICTIONARY
360
67E1
102
}
102
{ACAD_REACTORS
330
19
102
}
330
19
100
AcDbPlotSettings
  1

  2
\\MEISEI-1\EPSON Stylus Photo EX3
  4

  6

 40
0.0
 41
0.0
 42
0.0
 43
0.0
 44
0.0
 45
0.0
 46
0.0
 47
0.0
 48
0.0
 49
0.0
140
0.0
141
0.0
142
1.0
143
1.0
 70
  1712
 72
     0
 73
     0
 74
     0
  7

 75
     0
147
1.0
148
0.0
149
0.0
100
AcDbLayout
  1
Model
 70
     1
 71
     0
 10
0.0
 20
0.0
 11
12.0
 21
9.0
 12
0.0
 22
0.0
 32
0.0
 14
0.0
 24
0.0
 34
0.0
 15
0.0
 25
0.0
 35
0.0
146
0.0
 13
0.0
 23
0.0
 33
0.0
 16
1.0
 26
0.0
 36
0.0
 17
0.0
 27
1.0
 37
0.0
 76
     0
330
1E
331
64DD
  0
LAYOUT
  5
1D
102
{ACAD_XDICTIONARY
360
67DF
102
}
102
{ACAD_REACTORS
330
19
102
}
330
19
100
AcDbPlotSettings
  1

  2
\\MEISEI-1\EPSON Stylus Photo EX3
  4

  6

 40
0.0
 41
0.0
 42
0.0
 43
0.0
 44
0.0
 45
0.0
 46
0.0
 47
0.0
 48
0.0
 49
0.0
140
0.0
141
0.0
142
1.0
143
1.0
 70
   688
 72
     0
 73
     0
 74
     5
  7

 75
    16
147
1.0
148
0.0
149
0.0
100
AcDbLayout
  1
ﾚｲｱｳﾄ1
 70
     1
 71
     1
 10
0.0
 20
0.0
 11
12.0
 21
9.0
 12
0.0
 22
0.0
 32
0.0
 14
1.000000000000000E+20
 24
1.000000000000000E+20
 34
1.000000000000000E+20
 15
-1.000000000000000E+20
 25
-1.000000000000000E+20
 35
-1.000000000000000E+20
146
0.0
 13
0.0
 23
0.0
 33
0.0
 16
1.0
 26
0.0
 36
0.0
 17
0.0
 27
1.0
 37
0.0
 76
     0
330
1A
  0
MATERIAL
  5
652B
102
{ACAD_XDICTIONARY
360
67E5
102
}
102
{ACAD_REACTORS
330
6529
102
}
330
6529
100
AcDbMaterial
  1
ByBlock
  0
MATERIAL
  5
652A
102
{ACAD_XDICTIONARY
360
67E3
102
}
102
{ACAD_REACTORS
330
6529
102
}
330
6529
100
AcDbMaterial
  1
ByLayer
  0
MATERIAL
  5
652C
102
{ACAD_XDICTIONARY
360
67E7
102
}
102
{ACAD_REACTORS
330
6529
102
}
330
6529
100
AcDbMaterial
  1
Global
  0
MLINESTYLE
  5
17
102
{ACAD_REACTORS
330
16
102
}
330
16
100
AcDbMlineStyle
  2
STANDARD
 70
     0
  3

 62
   256
 51
90.0
 52
90.0
 71
     2
 49
0.5
 62
   256
  6
BYLAYER
 49
-0.5
 62
   256
  6
BYLAYER
  0
ACDBPLACEHOLDER
  5
F
102
{ACAD_REACTORS
330
E
102
}
330
E
  0
TABLESTYLE
  5
6540
102
{ACAD_XDICTIONARY
360
67E9
102
}
102
{ACAD_REACTORS
330
653F
102
}
330
653F
100
AcDbTableStyle
  3
Standard
 70
     0
 71
     0
 40
0.06
 41
0.06
280
     0
281
     0
  7
STANDARD
140
0.18
170
     2
 62
     0
 63
     7
283
     0
274
    -2
284
     1
 64
     0
275
    -2
285
     1
 65
     0
276
    -2
286
     1
 66
     0
277
    -2
287
     1
 67
     0
278
    -2
288
     1
 68
     0
279
    -2
289
     1
 69
     0
  7
STANDARD
140
0.25
170
     5
 62
     0
 63
     7
283
     0
274
    -2
284
     1
 64
     0
275
    -2
285
     1
 65
     0
276
    -2
286
     1
 66
     0
277
    -2
287
     1
 67
     0
278
    -2
288
     1
 68
     0
279
    -2
289
     1
 69
     0
  7
STANDARD
140
0.18
170
     5
 62
     0
 63
     7
283
     0
274
    -2
284
     1
 64
     0
275
    -2
285
     1
 65
     0
276
    -2
286
     1
 66
     0
277
    -2
287
     1
 67
     0
278
    -2
288
     1
 68
     0
279
    -2
289
     1
 69
     0
  0
VISUALSTYLE
  5
6533
102
{ACAD_REACTORS
330
652D
102
}
330
652D
100
AcDbVisualStyle
  2
2dWireframe
 70
     4
 71
     0
 72
     2
 73
     0
 90
        0
 40
-0.6
 41
-30.0
 62
     5
 63
     7
 74
     1
 91
        4
 64
     7
 65
   257
 75
     1
175
     1
 42
1.0
 92
        0
 66
   257
 43
1.0
 76
     1
 77
     6
 78
     2
 67
     7
 79
     5
170
     0
171
     0
290
     0
174
     0
 93
        1
 44
0.0
173
     0
291
     0
 45
0.0
1001
ACAD
1000
AcDbSavedByObjectVersion
1070
     0
  0
VISUALSTYLE
  5
6535
102
{ACAD_REACTORS
330
652D
102
}
330
652D
100
AcDbVisualStyle
  2
3D Hidden
 70
     6
 71
     1
 72
     2
 73
     2
 90
        0
 40
-0.6
 41
-30.0
 62
     5
 63
     7
 74
     2
 91
        2
 64
     7
 65
   257
 75
     2
175
     1
 42
40.0
 92
        0
 66
   257
 43
1.0
 76
     1
 77
     6
 78
     2
 67
     7
 79
     3
170
     0
171
     0
290
     0
174
     0
 93
        1
 44
0.0
173
     0
291
     0
 45
0.0
1001
ACAD
1000
AcDbSavedByObjectVersion
1070
     0
  0
VISUALSTYLE
  5
6534
102
{ACAD_REACTORS
330
652D
102
}
330
652D
100
AcDbVisualStyle
  2
3dWireframe
 70
     5
 71
     0
 72
     2
 73
     0
 90
        0
 40
-0.6
 41
-30.0
 62
     5
 63
     7
 74
     1
 91
        4
 64
     7
 65
   257
 75
     1
175
     1
 42
1.0
 92
        0
 66
   257
 43
1.0
 76
     1
 77
     6
 78
     2
 67
     7
 79
     5
170
     0
171
     0
290
     0
174
     0
 93
        1
 44
0.0
173
     0
291
     0
 45
0.0
1001
ACAD
1000
AcDbSavedByObjectVersion
1070
     0
  0
VISUALSTYLE
  5
6532
102
{ACAD_REACTORS
330
652D
102
}
330
652D
100
AcDbVisualStyle
  2
Basic
 70
     7
 71
     1
 72
     0
 73
     1
 90
        0
 40
-0.6
 41
-30.0
 62
     5
 63
     7
 74
     0
 91
        4
 64
     7
 65
   257
 75
     1
175
     1
 42
1.0
 92
        8
 66
     7
 43
1.0
 76
     1
 77
     6
 78
     2
 67
     7
 79
     5
170
     0
171
     0
290
     0
174
     0
 93
        1
 44
0.0
173
     0
291
     1
 45
0.0
1001
ACAD
1000
AcDbSavedByObjectVersion
1070
     0
  0
VISUALSTYLE
  5
6539
102
{ACAD_REACTORS
330
652D
102
}
330
652D
100
AcDbVisualStyle
  2
Brighten
 70
    12
 71
     2
 72
     2
 73
     0
 90
        0
 40
-0.6
 41
-30.0
 62
     5
 63
     7
 74
     1
 91
        4
 64
     7
 65
   257
 75
     1
175
     1
 42
1.0
 92
        8
 66
     7
 43
1.0
 76
     1
 77
     6
 78
     2
 67
     7
 79
     5
170
     0
171
     0
290
     0
174
     0
 93
        1
 44
50.0
173
     0
291
     1
 45
0.0
1001
ACAD
1000
AcDbSavedByObjectVersion
1070
     0
  0
VISUALSTYLE
  5
653D
102
{ACAD_REACTORS
330
652D
102
}
330
652D
100
AcDbVisualStyle
  2
ColorChange
 70
    16
 71
     2
 72
     2
 73
     3
 90
        0
 40
-0.6
 41
-30.0
 62
     5
 63
     8
 74
     1
 91
        4
 64
     7
 65
   257
 75
     1
175
     1
 42
1.0
 92
        8
 66
     8
 43
1.0
 76
     1
 77
     6
 78
     2
 67
     7
 79
     5
170
     0
171
     0
290
     0
174
     0
 93
        1
 44
0.0
173
     0
291
     1
 45
0.0
1001
ACAD
1000
AcDbSavedByObjectVersion
1070
     0
  0
VISUALSTYLE
  5
6536
102
{ACAD_REACTORS
330
652D
102
}
330
652D
100
AcDbVisualStyle
  2
Conceptual
 70
     9
 71
     3
 72
     2
 73
     0
 90
        0
 40
-0.6
 41
-30.0
 62
     5
 63
     7
 74
     2
 91
        2
 64
     7
 65
   257
 75
     1
175
     1
 42
40.0
 92
        8
 66
     7
 43
1.0
 76
     1
 77
     6
 78
     2
 67
     7
 79
     3
170
     0
171
     0
290
     0
174
     0
 93
        1
 44
0.0
173
     0
291
     0
 45
0.0
1001
ACAD
1000
AcDbSavedByObjectVersion
1070
     0
  0
VISUALSTYLE
  5
6538
102
{ACAD_REACTORS
330
652D
102
}
330
652D
100
AcDbVisualStyle
  2
Dim
 70
    11
 71
     2
 72
     2
 73
     0
 90
        0
 40
-0.6
 41
-30.0
 62
     5
 63
     7
 74
     1
 91
        4
 64
     7
 65
   257
 75
     1
175
     1
 42
1.0
 92
        8
 66
     7
 43
1.0
 76
     1
 77
     6
 78
     2
 67
     7
 79
     5
170
     0
171
     0
290
     0
174
     0
 93
        1
 44
-50.0
173
     0
291
     1
 45
0.0
1001
ACAD
1000
AcDbSavedByObjectVersion
1070
     0
  0
VISUALSTYLE
  5
653C
102
{ACAD_REACTORS
330
652D
102
}
330
652D
100
AcDbVisualStyle
  2
Facepattern
 70
    15
 71
     2
 72
     2
 73
     0
 90
        0
 40
-0.6
 41
-30.0
 62
     5
 63
     7
 74
     1
 91
        4
 64
     7
 65
   257
 75
     1
175
     1
 42
1.0
 92
        8
 66
     7
 43
1.0
 76
     1
 77
     6
 78
     2
 67
     7
 79
     5
170
     0
171
     0
290
     0
174
     0
 93
        1
 44
0.0
173
     0
291
     1
 45
0.0
1001
ACAD
1000
AcDbSavedByObjectVersion
1070
     0
  0
VISUALSTYLE
  5
652E
102
{ACAD_REACTORS
330
652D
102
}
330
652D
100
AcDbVisualStyle
  2
Flat
 70
     0
 71
     2
 72
     1
 73
     1
 90
        2
 40
-0.6
 41
30.0
 62
     5
 63
     7
 74
     0
 91
        4
 64
     7
 65
   257
 75
     1
175
     1
 42
1.0
 92
        8
 66
     7
 43
1.0
 76
     1
 77
     6
 78
     2
 67
     7
 79
     5
170
     0
171
     0
290
     0
174
     0
 93
       13
 44
0.0
173
     0
291
     1
 45
0.0
1001
ACAD
1000
AcDbSavedByObjectVersion
1070
     0
  0
VISUALSTYLE
  5
652F
102
{ACAD_REACTORS
330
652D
102
}
330
652D
100
AcDbVisualStyle
  2
FlatWithEdges
 70
     1
 71
     2
 72
     1
 73
     1
 90
        2
 40
-0.6
 41
30.0
 62
     5
 63
     7
 74
     1
 91
        4
 64
     7
 65
   257
 75
     1
175
     1
 42
1.0
 92
        0
 66
   257
 43
1.0
 76
     1
 77
     6
 78
     2
 67
     7
 79
     5
170
     0
171
     0
290
     0
174
     0
 93
       13
 44
0.0
173
     0
291
     1
 45
0.0
1001
ACAD
1000
AcDbSavedByObjectVersion
1070
     0
  0
VISUALSTYLE
  5
6530
102
{ACAD_REACTORS
330
652D
102
}
330
652D
100
AcDbVisualStyle
  2
Gouraud
 70
     2
 71
     2
 72
     2
 73
     1
 90
        2
 40
-0.6
 41
30.0
 62
     5
 63
     7
 74
     0
 91
        4
 64
     7
 65
   257
 75
     1
175
     1
 42
1.0
 92
        0
 66
     7
 43
1.0
 76
     1
 77
     6
 78
     2
 67
     7
 79
     5
170
     0
171
     0
290
     0
174
     0
 93
       13
 44
0.0
173
     0
291
     1
 45
0.0
1001
ACAD
1000
AcDbSavedByObjectVersion
1070
     0
  0
VISUALSTYLE
  5
6531
102
{ACAD_REACTORS
330
652D
102
}
330
652D
100
AcDbVisualStyle
  2
GouraudWithEdges
 70
     3
 71
     2
 72
     2
 73
     1
 90
        2
 40
-0.6
 41
30.0
 62
     5
 63
     7
 74
     1
 91
        4
 64
     7
 65
   257
 75
     1
175
     1
 42
1.0
 92
        0
 66
   257
 43
1.0
 76
     1
 77
     6
 78
     2
 67
     7
 79
     5
170
     0
171
     0
290
     0
174
     0
 93
       13
 44
0.0
173
     0
291
     1
 45
0.0
1001
ACAD
1000
AcDbSavedByObjectVersion
1070
     0
  0
VISUALSTYLE
  5
653B
102
{ACAD_REACTORS
330
652D
102
}
330
652D
100
AcDbVisualStyle
  2
Linepattern
 70
    14
 71
     2
 72
     2
 73
     0
 90
        0
 40
-0.6
 41
-30.0
 62
     5
 63
     7
 74
     1
 91
        4
 64
     7
 65
   257
 75
     7
175
     7
 42
1.0
 92
        8
 66
     7
 43
1.0
 76
     1
 77
     6
 78
     2
 67
     7
 79
     5
170
     0
171
     0
290
     0
174
     0
 93
        1
 44
0.0
173
     0
291
     1
 45
0.0
1001
ACAD
1000
AcDbSavedByObjectVersion
1070
     0
  0
VISUALSTYLE
  5
6537
102
{ACAD_REACTORS
330
652D
102
}
330
652D
100
AcDbVisualStyle
  2
Realistic
 70
     8
 71
     2
 72
     2
 73
     0
 90
        0
 40
-0.6
 41
-30.0
 62
     5
 63
     7
 74
     1
 91
        0
 64
     7
 65
   257
 75
     1
175
     1
 42
1.0
 92
        8
 66
     8
 43
1.0
 76
     1
 77
     6
 78
     2
 67
     7
 79
     5
170
     0
171
     0
290
     0
174
     0
 93
       13
 44
0.0
173
     0
291
     0
 45
0.0
1001
ACAD
1000
AcDbSavedByObjectVersion
1070
     0
  0
VISUALSTYLE
  5
653A
102
{ACAD_REACTORS
330
652D
102
}
330
652D
100
AcDbVisualStyle
  2
Thicken
 70
    13
 71
     2
 72
     2
 73
     0
 90
        0
 40
-0.6
 41
-30.0
 62
     5
 63
     7
 74
     1
 91
        4
 64
     7
 65
   257
 75
     1
175
     1
 42
1.0
 92
       12
 66
     7
 43
1.0
 76
     1
 77
     6
 78
     2
 67
     7
 79
     5
170
     0
171
     0
290
     0
174
     0
 93
        1
 44
0.0
173
     0
291
     1
 45
0.0
1001
ACAD
1000
AcDbSavedByObjectVersion
1070
     0
  0
DICTIONARYVAR
  5
67D5
102
{ACAD_REACTORS
330
169
102
}
330
169
100
DictionaryVariables
280
     0
  1
STANDARD
  0
DICTIONARYVAR
  5
16A
102
{ACAD_REACTORS
330
169
102
}
330
169
100
DictionaryVariables
280
     0
  1
1
  0
DICTIONARYVAR
  5
67D7
102
{ACAD_REACTORS
330
169
102
}
330
169
100
DictionaryVariables
280
     0
  1
0
  0
DICTIONARYVAR
  5
67D6
102
{ACAD_REACTORS
330
169
102
}
330
169
100
DictionaryVariables
280
     0
  1
127
  0
XRECORD
  5
177
102
{ACAD_REACTORS
330
176
102
}
330
176
100
AcDbXrecord
280
     1
 91
      476
330
179
 90
        8
 62
     7
370
    -3
331
15
  1
Color_7
330
178
 90
        8
 62
     7
370
    -3
331
15
  1
Color_7
330
128
 90
        0
 62
     7
370
    -3
331
15
  1
Color_7
330
10
 90
        8
 62
     7
370
    -3
331
15
  1
Color_7
  0
DICTIONARY
  5
67E1
330
21
100
AcDbDictionary
280
     1
281
     1
  3
ACAD_XREC_ROUNDTRIP
360
67E2
  0
DICTIONARY
  5
67DF
330
1D
100
AcDbDictionary
280
     1
281
     1
  3
ACAD_XREC_ROUNDTRIP
360
67E0
  0
DICTIONARY
  5
67E5
330
652B
100
AcDbDictionary
280
     1
281
     1
  3
ACAD_XREC_ROUNDTRIP
360
67E6
  0
DICTIONARY
  5
67E3
330
652A
100
AcDbDictionary
280
     1
281
     1
  3
ACAD_XREC_ROUNDTRIP
360
67E4
  0
DICTIONARY
  5
67E7
330
652C
100
AcDbDictionary
280
     1
281
     1
  3
ACAD_XREC_ROUNDTRIP
360
67E8
  0
DICTIONARY
  5
67E9
330
6540
100
AcDbDictionary
280
     1
281
     1
  3
ACAD_XREC_ROUNDTRIP
360
67EA
  0
XRECORD
  5
67E2
102
{ACAD_REACTORS
330
67E1
102
}
330
67E1
100
AcDbXrecord
280
     1
102
SHADEPLOT
 70
     0
102
SHADEPLOTRESLEVEL
 70
     2
102
SHADEPLOTCUSTOMDPI
 70
   300
  0
XRECORD
  5
67E0
102
{ACAD_REACTORS
330
67DF
102
}
330
67DF
100
AcDbXrecord
280
     1
102
SHADEPLOT
 70
     0
102
SHADEPLOTRESLEVEL
 70
     2
102
SHADEPLOTCUSTOMDPI
 70
   300
  0
XRECORD
  5
67E6
102
{ACAD_REACTORS
330
67E5
102
}
330
67E5
100
AcDbXrecord
280
     1
102
MATERIAL
148
0.0
149
0.0
149
0.0
 93
        0
 94
       63
282
     0
 72
     1
 77
     1
171
     1
175
     1
179
     1
273
     0
  0
XRECORD
  5
67E4
102
{ACAD_REACTORS
330
67E3
102
}
330
67E3
100
AcDbXrecord
280
     1
102
MATERIAL
148
0.0
149
0.0
149
0.0
 93
        0
 94
       63
282
     0
 72
     1
 77
     1
171
     1
175
     1
179
     1
273
     0
  0
XRECORD
  5
67E8
102
{ACAD_REACTORS
330
67E7
102
}
330
67E7
100
AcDbXrecord
280
     1
102
MATERIAL
148
0.0
149
0.0
149
0.0
 93
        0
 94
       63
282
     0
 72
     1
 77
     1
171
     1
175
     1
179
     1
273
     0
  0
XRECORD
  5
67EA
102
{ACAD_REACTORS
330
67E9
102
}
330
67E9
100
AcDbXrecord
280
     1
102
ACAD_ROUNDTRIP_PRE2007_TABLESTYLE
 90
      512
 91
        0
  1

 92
      512
 93
        0
  2

 94
      512
 95
        0
  3

  0
ENDSEC
  0
EOF
