  0
SECTION
  2
HEADER
  9
$ACADVER
  1
AC1015
  9
$ACADMAINTVER
 70
    20
  9
$DWGCODEPAGE
  3
ANSI_932
  9
$INSBASE
 10
0.0
 20
0.0
 30
0.0
  9
$EXTMIN
 10
1214.794448373416
 20
485.0215545775244
 30
0.0
  9
$EXTMAX
 10
1602.794448373416
 20
677.7437665775241
 30
0.0
  9
$LIMMIN
 10
0.0
 20
0.0
  9
$LIMMAX
 10
420.0
 20
297.0
  9
$ORTHOMODE
 70
     0
  9
$REGENMODE
 70
     1
  9
$FILLMODE
 70
     1
  9
$QTEXTMODE
 70
     0
  9
$MIRRTEXT
 70
     1
  9
$LTSCALE
 40
1.0
  9
$ATTMODE
 70
     1
  9
$TEXTSIZE
 40
5.0
  9
$TRACEWID
 40
0.05
  9
$TEXTSTYLE
  7
ACAD
  9
$CLAYER
  8
0
  9
$CELTYPE
  6
CONTINUOUS
  9
$CECOLOR
 62
   256
  9
$CELTSCALE
 40
1.0
  9
$DISPSILH
 70
     0
  9
$DIMSCALE
 40
1.0
  9
$DIMASZ
 40
1.0
  9
$DIMEXO
 40
0.0
  9
$DIMDLI
 40
0.38
  9
$DIMRND
 40
0.0
  9
$DIMDLE
 40
0.0
  9
$DIMEXE
 40
0.0
  9
$DIMTP
 40
0.0
  9
$DIMTM
 40
0.0
  9
$DIMTXT
 40
3.0
  9
$DIMCEN
 40
0.09
  9
$DIMTSZ
 40
0.0
  9
$DIMTOL
 70
     0
  9
$DIMLIM
 70
     0
  9
$DIMTIH
 70
     0
  9
$DIMTOH
 70
     1
  9
$DIMSE1
 70
     0
  9
$DIMSE2
 70
     0
  9
$DIMTAD
 70
     1
  9
$DIMZIN
 70
     0
  9
$DIMBLK
  1
Dot
  9
$DIMASO
 70
     1
  9
$DIMSHO
 70
     1
  9
$DIMPOST
  1

  9
$DIMAPOST
  1

  9
$DIMALT
 70
     0
  9
$DIMALTD
 70
     2
  9
$DIMALTF
 40
25.4
  9
$DIMLFAC
 40
1.0
  9
$DIMTOFL
 70
     0
  9
$DIMTVP
 40
0.0
  9
$DIMTIX
 70
     1
  9
$DIMSOXD
 70
     0
  9
$DIMSAH
 70
     0
  9
$DIMBLK1
  1

  9
$DIMBLK2
  1

  9
$DIMSTYLE
  2
AutoCAD
  9
$DIMCLRD
 70
     4
  9
$DIMCLRE
 70
     4
  9
$DIMCLRT
 70
     3
  9
$DIMTFAC
 40
1.0
  9
$DIMGAP
 40
1.0
  9
$DIMJUST
 70
     0
  9
$DIMSD1
 70
     0
  9
$DIMSD2
 70
     0
  9
$DIMTOLJ
 70
     1
  9
$DIMTZIN
 70
     0
  9
$DIMALTZ
 70
     0
  9
$DIMALTTZ
 70
     0
  9
$DIMUPT
 70
     0
  9
$DIMDEC
 70
     0
  9
$DIMTDEC
 70
     0
  9
$DIMALTU
 70
     2
  9
$DIMALTTD
 70
     2
  9
$DIMTXSTY
  7
ACAD
  9
$DIMAUNIT
 70
     0
  9
$DIMADEC
 70
     0
  9
$DIMALTRND
 40
0.0
  9
$DIMAZIN
 70
     0
  9
$DIMDSEP
 70
    46
  9
$DIMATFIT
 70
     0
  9
$DIMFRAC
 70
     0
  9
$DIMLDRBLK
  1
None
  9
$DIMLUNIT
 70
     2
  9
$DIMLWD
 70
    -2
  9
$DIMLWE
 70
    -2
  9
$DIMTMOVE
 70
     0
  9
$LUNITS
 70
     2
  9
$LUPREC
 70
     4
  9
$SKETCHINC
 40
0.1
  9
$FILLETRAD
 40
0.0
  9
$AUNITS
 70
     0
  9
$AUPREC
 70
     0
  9
$MENU
  1
.
  9
$ELEVATION
 40
0.0
  9
$PELEVATION
 40
0.0
  9
$THICKNESS
 40
0.0
  9
$LIMCHECK
 70
     0
  9
$CHAMFERA
 40
0.0
  9
$CHAMFERB
 40
0.0
  9
$CHAMFERC
 40
0.0
  9
$CHAMFERD
 40
0.0
  9
$SKPOLY
 70
     0
  9
$TDCREATE
 40
2454316.693457674
  9
$TDUCREATE
 40
2454316.318457674
  9
$TDUPDATE
 40
2454729.771283635
  9
$TDUUPDATE
 40
2454729.396283635
  9
$TDINDWG
 40
0.2685495718
  9
$TDUSRTIMER
 40
0.2685495718
  9
$USRTIMER
 70
     1
  9
$ANGBASE
 50
0.0
  9
$ANGDIR
 70
     0
  9
$PDMODE
 70
     0
  9
$PDSIZE
 40
0.0
  9
$PLINEWID
 40
0.0
  9
$SPLFRAME
 70
     0
  9
$SPLINETYPE
 70
     6
  9
$SPLINESEGS
 70
     8
  9
$HANDSEED
  5
6C93
  9
$SURFTAB1
 70
     6
  9
$SURFTAB2
 70
     6
  9
$SURFTYPE
 70
     6
  9
$SURFU
 70
     6
  9
$SURFV
 70
     6
  9
$UCSBASE
  2

  9
$UCSNAME
  2

  9
$UCSORG
 10
0.0
 20
0.0
 30
0.0
  9
$UCSXDIR
 10
1.0
 20
0.0
 30
0.0
  9
$UCSYDIR
 10
0.0
 20
1.0
 30
0.0
  9
$UCSORTHOREF
  2

  9
$UCSORTHOVIEW
 70
     0
  9
$UCSORGTOP
 10
0.0
 20
0.0
 30
0.0
  9
$UCSORGBOTTOM
 10
0.0
 20
0.0
 30
0.0
  9
$UCSORGLEFT
 10
0.0
 20
0.0
 30
0.0
  9
$UCSORGRIGHT
 10
0.0
 20
0.0
 30
0.0
  9
$UCSORGFRONT
 10
0.0
 20
0.0
 30
0.0
  9
$UCSORGBACK
 10
0.0
 20
0.0
 30
0.0
  9
$PUCSBASE
  2

  9
$PUCSNAME
  2

  9
$PUCSORG
 10
0.0
 20
0.0
 30
0.0
  9
$PUCSXDIR
 10
1.0
 20
0.0
 30
0.0
  9
$PUCSYDIR
 10
0.0
 20
1.0
 30
0.0
  9
$PUCSORTHOREF
  2

  9
$PUCSORTHOVIEW
 70
     0
  9
$PUCSORGTOP
 10
0.0
 20
0.0
 30
0.0
  9
$PUCSORGBOTTOM
 10
0.0
 20
0.0
 30
0.0
  9
$PUCSORGLEFT
 10
0.0
 20
0.0
 30
0.0
  9
$PUCSORGRIGHT
 10
0.0
 20
0.0
 30
0.0
  9
$PUCSORGFRONT
 10
0.0
 20
0.0
 30
0.0
  9
$PUCSORGBACK
 10
0.0
 20
0.0
 30
0.0
  9
$USERI1
 70
     0
  9
$USERI2
 70
     0
  9
$USERI3
 70
     0
  9
$USERI4
 70
     0
  9
$USERI5
 70
     0
  9
$USERR1
 40
0.0
  9
$USERR2
 40
0.0
  9
$USERR3
 40
0.0
  9
$USERR4
 40
0.0
  9
$USERR5
 40
0.0
  9
$WORLDVIEW
 70
     1
  9
$SHADEDGE
 70
     3
  9
$SHADEDIF
 70
    70
  9
$TILEMODE
 70
     1
  9
$MAXACTVP
 70
    48
  9
$PINSBASE
 10
0.0
 20
0.0
 30
0.0
  9
$PLIMCHECK
 70
     0
  9
$PEXTMIN
 10
1.000000000000000E+20
 20
1.000000000000000E+20
 30
1.000000000000000E+20
  9
$PEXTMAX
 10
-1.000000000000000E+20
 20
-1.000000000000000E+20
 30
-1.000000000000000E+20
  9
$PLIMMIN
 10
0.0
 20
0.0
  9
$PLIMMAX
 10
12.0
 20
9.0
  9
$UNITMODE
 70
     0
  9
$VISRETAIN
 70
     0
  9
$PLINEGEN
 70
     0
  9
$PSLTSCALE
 70
     1
  9
$TREEDEPTH
 70
  3020
  9
$CMLSTYLE
  2
Standard
  9
$CMLJUST
 70
     0
  9
$CMLSCALE
 40
1.0
  9
$PROXYGRAPHICS
 70
     1
  9
$MEASUREMENT
 70
     0
  9
$CELWEIGHT
370
    -1
  9
$ENDCAPS
280
     0
  9
$JOINSTYLE
280
     0
  9
$LWDISPLAY
290
     0
  9
$INSUNITS
 70
     0
  9
$HYPERLINKBASE
  1

  9
$STYLESHEET
  1

  9
$XEDIT
290
     1
  9
$CEPSNTYPE
380
     0
  9
$PSTYLEMODE
290
     1
  9
$FINGERPRINTGUID
  2
{CC7D6DEE-A9F1-4F3E-AC95-C84B62CCA3FD}
  9
$VERSIONGUID
  2
{2F3B069D-B7E5-4623-85CE-B42D27F01A7F}
  9
$EXTNAMES
290
     1
  9
$PSVPSCALE
 40
0.0
  9
$OLESTARTUP
290
     0
  0
ENDSEC
  0
SECTION
  2
CLASSES
  0
CLASS
  1
ACDBDICTIONARYWDFLT
  2
AcDbDictionaryWithDefault
  3
ObjectDBX Classes
 90
        0
280
     0
281
     0
  0
CLASS
  1
ACDBPLACEHOLDER
  2
AcDbPlaceHolder
  3
ObjectDBX Classes
 90
        0
280
     0
281
     0
  0
CLASS
  1
LAYOUT
  2
AcDbLayout
  3
ObjectDBX Classes
 90
        0
280
     0
281
     0
  0
CLASS
  1
DICTIONARYVAR
  2
AcDbDictionaryVar
  3
ObjectDBX Classes
 90
        0
280
     0
281
     0
  0
CLASS
  1
MATERIAL
  2
AcDbMaterial
  3
ObjectDBX Classes
 90
     1153
280
     0
281
     0
  0
CLASS
  1
VISUALSTYLE
  2
AcDbVisualStyle
  3
ObjectDBX Classes
 90
     4095
280
     0
281
     0
  0
CLASS
  1
TABLESTYLE
  2
AcDbTableStyle
  3
ObjectDBX Classes
 90
     4095
280
     0
281
     0
  0
ENDSEC
  0
SECTION
  2
TABLES
  0
TABLE
  2
VPORT
  5
8
102
{ACAD_XDICTIONARY
360
6BA6
102
}
330
0
100
AcDbSymbolTable
 70
     1
  0
VPORT
  5
664C
330
8
100
AcDbSymbolTableRecord
100
AcDbViewportTableRecord
  2
*Active
 70
     0
 10
0.0
 20
0.0
 11
1.0
 21
1.0
 12
1362.988305596391
 22
584.5518749602929
 13
0.0
 23
0.0
 14
1.0
 24
1.0
 15
0.0
 25
0.0
 16
0.0
 26
0.0
 36
1.0
 17
0.0
 27
0.0
 37
0.0
 40
460.1141377015595
 41
1.571614583333333
 42
50.0
 43
0.0
 44
0.0
 50
0.0
 51
0.0
 71
     0
 72
   100
 73
     1
 74
     1
 75
     0
 76
     0
 77
     0
 78
     0
281
     0
 65
     1
110
0.0
120
0.0
130
0.0
111
1.0
121
0.0
131
0.0
112
0.0
122
1.0
132
0.0
 79
     0
146
0.0
  0
ENDTAB
  0
TABLE
  2
LTYPE
  5
5
330
0
100
AcDbSymbolTable
 70
    50
  0
LTYPE
  5
13
330
5
100
AcDbSymbolTableRecord
100
AcDbLinetypeTableRecord
  2
ByBlock
 70
     0
  3

 72
    65
 73
     0
 40
0.0
  0
LTYPE
  5
14
330
5
100
AcDbSymbolTableRecord
100
AcDbLinetypeTableRecord
  2
ByLayer
 70
     0
  3

 72
    65
 73
     0
 40
0.0
  0
LTYPE
  5
15
330
5
100
AcDbSymbolTableRecord
100
AcDbLinetypeTableRecord
  2
CONTINUOUS
 70
     0
  3
実線
 72
    65
 73
     0
 40
0.0
  0
LTYPE
  5
22
330
5
100
AcDbSymbolTableRecord
100
AcDbLinetypeTableRecord
  2
DASHED1
 70
     0
  3
--  --  --  --  --  --  --  --  
 72
    65
 73
     2
 40
2.5
 49
1.25
 74
     0
 49
-1.25
 74
     0
  0
LTYPE
  5
23
330
5
100
AcDbSymbolTableRecord
100
AcDbLinetypeTableRecord
  2
DASHED2
 70
     0
  3
----    ----    ----    ----    
 72
    65
 73
     2
 40
5.0
 49
2.5
 74
     0
 49
-2.5
 74
     0
  0
LTYPE
  5
24
330
5
100
AcDbSymbolTableRecord
100
AcDbLinetypeTableRecord
  2
DASHED3
 70
     0
  3
------  ------  ------  ------  
 72
    65
 73
     2
 40
5.0
 49
3.75
 74
     0
 49
-1.25
 74
     0
  0
LTYPE
  5
25
330
5
100
AcDbSymbolTableRecord
100
AcDbLinetypeTableRecord
  2
CENTER1
 70
     0
  3
----- - ----- - ----- - ----- - 
 72
    65
 73
     4
 40
10.0
 49
6.25
 74
     0
 49
-1.25
 74
     0
 49
1.25
 74
     0
 49
-1.25
 74
     0
  0
LTYPE
  5
26
330
5
100
AcDbSymbolTableRecord
100
AcDbLinetypeTableRecord
  2
CENTER2
 70
     0
  3
----------  --  ----------  --  
 72
    65
 73
     4
 40
20.0
 49
12.5
 74
     0
 49
-2.5
 74
     0
 49
2.5
 74
     0
 49
-2.5
 74
     0
  0
LTYPE
  5
27
330
5
100
AcDbSymbolTableRecord
100
AcDbLinetypeTableRecord
  2
PHANTOM1
 70
     0
  3
--- - - --- - - --- - - --- - - 
 72
    65
 73
     6
 40
10.0
 49
3.25
 74
     0
 49
-1.25
 74
     0
 49
1.25
 74
     0
 49
-1.25
 74
     0
 49
1.25
 74
     0
 49
-1.25
 74
     0
  0
LTYPE
  5
28
330
5
100
AcDbSymbolTableRecord
100
AcDbLinetypeTableRecord
  2
PHANTOM2
 70
     0
  3
--------  -  -  --------  -  -  
 72
    65
 73
     6
 40
20.0
 49
10.0
 74
     0
 49
-2.5
 74
     0
 49
1.25
 74
     0
 49
-2.5
 74
     0
 49
1.25
 74
     0
 49
-2.5
 74
     0
  0
LTYPE
  5
29
330
5
100
AcDbSymbolTableRecord
100
AcDbLinetypeTableRecord
  2
DOT
 70
     0
  3
-   -   -   -   -   -   -   -   
 72
    65
 73
     2
 40
2.5
 49
0.625
 74
     0
 49
-1.875
 74
     0
  0
LTYPE
  5
2A
330
5
100
AcDbSymbolTableRecord
100
AcDbLinetypeTableRecord
  2
DUMMY
 70
     0
  3
ダミー
 72
    65
 73
     0
 40
0.0
  0
LTYPE
  5
2B
330
5
100
AcDbSymbolTableRecord
100
AcDbLinetypeTableRecord
  2
RAND1
 70
     0
  3
ランダム線1
 72
    65
 73
     4
 40
10.0
 49
1.0
 74
     0
 49
-2.0
 74
     0
 49
3.0
 74
     0
 49
-4.0
 74
     0
  0
LTYPE
  5
2C
330
5
100
AcDbSymbolTableRecord
100
AcDbLinetypeTableRecord
  2
RAND2
 70
     0
  3
ランダム線2
 72
    65
 73
     4
 40
14.0
 49
2.0
 74
     0
 49
-3.0
 74
     0
 49
4.0
 74
     0
 49
-5.0
 74
     0
  0
LTYPE
  5
2D
330
5
100
AcDbSymbolTableRecord
100
AcDbLinetypeTableRecord
  2
RAND3
 70
     0
  3
ランダム線3
 72
    65
 73
     4
 40
18.0
 49
3.0
 74
     0
 49
-4.0
 74
     0
 49
5.0
 74
     0
 49
-6.0
 74
     0
  0
LTYPE
  5
2E
330
5
100
AcDbSymbolTableRecord
100
AcDbLinetypeTableRecord
  2
RAND4
 70
     0
  3
ランダム線4
 72
    65
 73
     4
 40
22.0
 49
4.0
 74
     0
 49
-5.0
 74
     0
 49
6.0
 74
     0
 49
-7.0
 74
     0
  0
LTYPE
  5
2F
330
5
100
AcDbSymbolTableRecord
100
AcDbLinetypeTableRecord
  2
RAND5
 70
     0
  3
ランダム線5
 72
    65
 73
     4
 40
26.0
 49
5.0
 74
     0
 49
-6.0
 74
     0
 49
7.0
 74
     0
 49
-8.0
 74
     0
  0
LTYPE
  5
30
330
5
100
AcDbSymbolTableRecord
100
AcDbLinetypeTableRecord
  2
LONG1
 70
     0
  3
----------  --  ----------  --  
 72
    65
 73
     4
 40
40.0
 49
32.5
 74
     0
 49
-2.5
 74
     0
 49
2.5
 74
     0
 49
-2.5
 74
     0
  0
LTYPE
  5
31
330
5
100
AcDbSymbolTableRecord
100
AcDbLinetypeTableRecord
  2
LONG2
 70
     0
  3
--------  -  -  --------  -  -  
 72
    65
 73
     6
 40
40.0
 49
30.0
 74
     0
 49
-2.5
 74
     0
 49
1.25
 74
     0
 49
-2.5
 74
     0
 49
1.25
 74
     0
 49
-2.5
 74
     0
  0
LTYPE
  5
32
330
5
100
AcDbSymbolTableRecord
100
AcDbLinetypeTableRecord
  2
LONG3
 70
     0
  3
+++++++++++++++..+++++++++++++++
 72
    65
 73
     2
 40
40.0
 49
37.5
 74
     0
 49
-2.5
 74
     0
  0
LTYPE
  5
33
330
5
100
AcDbSymbolTableRecord
100
AcDbLinetypeTableRecord
  2
LONG4
 70
     0
  3
+++++++++++++++..+++++++++++++++
 72
    65
 73
     2
 40
80.0
 49
75.0
 74
     0
 49
-5.0
 74
     0
  0
LTYPE
  5
34
330
5
100
AcDbSymbolTableRecord
100
AcDbLinetypeTableRecord
  2
LONG5
 70
     0
  3
----------  --  ----------  --  
 72
    65
 73
     4
 40
60.0
 49
37.5
 74
     0
 49
-7.5
 74
     0
 49
7.5
 74
     0
 49
-7.5
 74
     0
  0
LTYPE
  5
35
330
5
100
AcDbSymbolTableRecord
100
AcDbLinetypeTableRecord
  2
DASHED
 70
     0
  3
-------   -------------   ------
 72
    65
 73
     2
 40
7.5
 49
6.0
 74
     0
 49
-1.5
 74
     0
  0
LTYPE
  5
36
330
5
100
AcDbSymbolTableRecord
100
AcDbLinetypeTableRecord
  2
DASHED_SPACED
 70
     0
  3
----        --------        ----
 72
    65
 73
     2
 40
12.0
 49
6.0
 74
     0
 49
-6.0
 74
     0
  0
LTYPE
  5
37
330
5
100
AcDbSymbolTableRecord
100
AcDbLinetypeTableRecord
  2
LONG_DASHED_DOTTED
 70
     0
  3
------------- --- --------------
 72
    65
 73
     4
 40
15.25
 49
12.0
 74
     0
 49
-1.5
 74
     0
 49
0.25
 74
     0
 49
-1.5
 74
     0
  0
LTYPE
  5
38
330
5
100
AcDbSymbolTableRecord
100
AcDbLinetypeTableRecord
  2
LONG_DASHED_DOUBLE-DOTTED
 70
     0
  3
----------- --- --- ------------
 72
    65
 73
     6
 40
17.0
 49
12.0
 74
     0
 49
-1.5
 74
     0
 49
0.25
 74
     0
 49
-1.5
 74
     0
 49
0.25
 74
     0
 49
-1.5
 74
     0
  0
LTYPE
  5
39
330
5
100
AcDbSymbolTableRecord
100
AcDbLinetypeTableRecord
  2
LONG_DASHED_TRIPLICATE-DOTTED
 70
     0
  3
--------- --- --- --- ----------
 72
    65
 73
     8
 40
18.75
 49
12.0
 74
     0
 49
-1.5
 74
     0
 49
0.25
 74
     0
 49
-1.5
 74
     0
 49
0.25
 74
     0
 49
-1.5
 74
     0
 49
0.25
 74
     0
 49
-1.5
 74
     0
  0
LTYPE
  5
3A
330
5
100
AcDbSymbolTableRecord
100
AcDbLinetypeTableRecord
  2
DOTTED
 70
     0
  3
   -       -       -       -    
 72
    65
 73
     2
 40
1.75
 49
0.25
 74
     0
 49
-1.5
 74
     0
  0
LTYPE
  5
3B
330
5
100
AcDbSymbolTableRecord
100
AcDbLinetypeTableRecord
  2
CHAIN
 70
     0
  3
-------------- -- --------------
 72
    65
 73
     4
 40
18.5
 49
12.0
 74
     0
 49
-1.5
 74
     0
 49
3.5
 74
     0
 49
-1.5
 74
     0
  0
LTYPE
  5
3C
330
5
100
AcDbSymbolTableRecord
100
AcDbLinetypeTableRecord
  2
CHAIN_DOUBLE_DASH
 70
     0
  3
------------ -- -- -------------
 72
    65
 73
     6
 40
23.5
 49
12.0
 74
     0
 49
-1.5
 74
     0
 49
3.5
 74
     0
 49
-1.5
 74
     0
 49
3.5
 74
     0
 49
-1.5
 74
     0
  0
LTYPE
  5
3D
330
5
100
AcDbSymbolTableRecord
100
AcDbLinetypeTableRecord
  2
DASHED_DOTTED
 70
     0
  3
-----------     -     ----------
 72
    65
 73
     4
 40
9.25
 49
6.0
 74
     0
 49
-1.5
 74
     0
 49
0.25
 74
     0
 49
-1.5
 74
     0
  0
LTYPE
  5
3E
330
5
100
AcDbSymbolTableRecord
100
AcDbLinetypeTableRecord
  2
DOUBLE-DASHED_DOTTED
 70
     0
  3
------   -----------   -   -----
 72
    65
 73
     6
 40
16.75
 49
6.0
 74
     0
 49
-1.5
 74
     0
 49
6.0
 74
     0
 49
-1.5
 74
     0
 49
0.25
 74
     0
 49
-1.5
 74
     0
  0
LTYPE
  5
3F
330
5
100
AcDbSymbolTableRecord
100
AcDbLinetypeTableRecord
  2
DASHED_DOUBLE-DOTTED
 70
     0
  3
---------    -    -    ---------
 72
    65
 73
     6
 40
11.0
 49
6.0
 74
     0
 49
-1.5
 74
     0
 49
0.25
 74
     0
 49
-1.5
 74
     0
 49
0.25
 74
     0
 49
-1.5
 74
     0
  0
LTYPE
  5
40
330
5
100
AcDbSymbolTableRecord
100
AcDbLinetypeTableRecord
  2
DOUBLE-DASHED_DOUBLE-DOTTED
 70
     0
  3
-----   ---------   -   -   ----
 72
    65
 73
     8
 40
18.5
 49
6.0
 74
     0
 49
-1.5
 74
     0
 49
6.0
 74
     0
 49
-1.5
 74
     0
 49
0.25
 74
     0
 49
-1.5
 74
     0
 49
0.25
 74
     0
 49
-1.5
 74
     0
  0
LTYPE
  5
41
330
5
100
AcDbSymbolTableRecord
100
AcDbLinetypeTableRecord
  2
DASHED_TRIPLICATE-DOTTED
 70
     0
  3
-------    -    -    -    ------
 72
    65
 73
     8
 40
12.75
 49
6.0
 74
     0
 49
-1.5
 74
     0
 49
0.25
 74
     0
 49
-1.5
 74
     0
 49
0.25
 74
     0
 49
-1.5
 74
     0
 49
0.25
 74
     0
 49
-1.5
 74
     0
  0
LTYPE
  5
42
330
5
100
AcDbSymbolTableRecord
100
AcDbLinetypeTableRecord
  2
DOUBLE-DASHED_TRIPLICATE-DOTTED
 70
     0
  3
-----  ---------  -  -  -  -----
 72
    65
 73
    10
 40
20.25
 49
6.0
 74
     0
 49
-1.5
 74
     0
 49
6.0
 74
     0
 49
-1.5
 74
     0
 49
0.25
 74
     0
 49
-1.5
 74
     0
 49
0.25
 74
     0
 49
-1.5
 74
     0
 49
0.25
 74
     0
 49
-1.5
 74
     0
  0
LTYPE
  5
43
330
5
100
AcDbSymbolTableRecord
100
AcDbLinetypeTableRecord
  2
UNDEFINED
 70
     0
  3
--------------------------------
 72
    65
 73
     0
 40
0.0
  0
LTYPE
  5
44
330
5
100
AcDbSymbolTableRecord
100
AcDbLinetypeTableRecord
  2
PLINE2
 70
     0
  3
------     -----------     -----
 72
    65
 73
     2
 40
3.0
 49
2.1
 74
     0
 49
-0.9
 74
     0
  0
LTYPE
  5
45
330
5
100
AcDbSymbolTableRecord
100
AcDbLinetypeTableRecord
  2
PLINE3
 70
     0
  3
------------   ---   -----------
 72
    65
 73
     4
 40
10.0
 49
7.0
 74
     0
 49
-1.0
 74
     0
 49
1.0
 74
     0
 49
-1.0
 74
     0
  0
LTYPE
  5
46
330
5
100
AcDbSymbolTableRecord
100
AcDbLinetypeTableRecord
  2
PLINE4
 70
     0
  3
---------   ---   ---   --------
 72
    65
 73
     6
 40
10.0
 49
5.0
 74
     0
 49
-1.0
 74
     0
 49
1.0
 74
     0
 49
-1.0
 74
     0
 49
1.0
 74
     0
 49
-1.0
 74
     0
  0
LTYPE
  5
47
330
5
100
AcDbSymbolTableRecord
100
AcDbLinetypeTableRecord
  2
PLINE5
 70
     0
  3
------     -----------     -----
 72
    65
 73
     2
 40
5.0
 49
3.5
 74
     0
 49
-1.5
 74
     0
  0
LTYPE
  5
48
330
5
100
AcDbSymbolTableRecord
100
AcDbLinetypeTableRecord
  2
PLINE6
 70
     0
  3
------------   ---   -----------
 72
    65
 73
     4
 40
15.0
 49
10.5
 74
     0
 49
-1.5
 74
     0
 49
1.5
 74
     0
 49
-1.5
 74
     0
  0
LTYPE
  5
49
330
5
100
AcDbSymbolTableRecord
100
AcDbLinetypeTableRecord
  2
PLINE7
 70
     0
  3
---------   ---   ---   --------
 72
    65
 73
     6
 40
15.0
 49
7.5
 74
     0
 49
-1.5
 74
     0
 49
1.5
 74
     0
 49
-1.5
 74
     0
 49
1.5
 74
     0
 49
-1.5
 74
     0
  0
LTYPE
  5
4A
330
5
100
AcDbSymbolTableRecord
100
AcDbLinetypeTableRecord
  2
PLINE8
 70
     0
  3
------     -----------     -----
 72
    65
 73
     2
 40
7.0
 49
4.9
 74
     0
 49
-2.1
 74
     0
  0
LTYPE
  5
4B
330
5
100
AcDbSymbolTableRecord
100
AcDbLinetypeTableRecord
  2
PLINE9
 70
     0
  3
------------   ---   -----------
 72
    65
 73
     4
 40
20.0
 49
14.0
 74
     0
 49
-2.0
 74
     0
 49
2.0
 74
     0
 49
-2.0
 74
     0
  0
LTYPE
  5
4C
330
5
100
AcDbSymbolTableRecord
100
AcDbLinetypeTableRecord
  2
PLINE10
 70
     0
  3
---------   ---   ---   --------
 72
    65
 73
     6
 40
20.0
 49
10.0
 74
     0
 49
-2.0
 74
     0
 49
2.0
 74
     0
 49
-2.0
 74
     0
 49
2.0
 74
     0
 49
-2.0
 74
     0
  0
LTYPE
  5
4D
330
5
100
AcDbSymbolTableRecord
100
AcDbLinetypeTableRecord
  2
PLINE11
 70
     0
  3
------     -----------     -----
 72
    65
 73
     2
 40
9.0
 49
6.299999999999999
 74
     0
 49
-2.7
 74
     0
  0
LTYPE
  5
4E
330
5
100
AcDbSymbolTableRecord
100
AcDbLinetypeTableRecord
  2
PLINE12
 70
     0
  3
------------   ---   -----------
 72
    65
 73
     4
 40
25.0
 49
17.5
 74
     0
 49
-2.5
 74
     0
 49
2.5
 74
     0
 49
-2.5
 74
     0
  0
LTYPE
  5
4F
330
5
100
AcDbSymbolTableRecord
100
AcDbLinetypeTableRecord
  2
PLINE13
 70
     0
  3
---------   ---   ---   --------
 72
    65
 73
     6
 40
25.0
 49
12.5
 74
     0
 49
-2.5
 74
     0
 49
2.5
 74
     0
 49
-2.5
 74
     0
 49
2.5
 74
     0
 49
-2.5
 74
     0
  0
LTYPE
  5
50
330
5
100
AcDbSymbolTableRecord
100
AcDbLinetypeTableRecord
  2
PLINE14
 70
     0
  3
------     -----------     -----
 72
    65
 73
     2
 40
11.0
 49
7.7
 74
     0
 49
-3.299999999999999
 74
     0
  0
LTYPE
  5
51
330
5
100
AcDbSymbolTableRecord
100
AcDbLinetypeTableRecord
  2
PLINE15
 70
     0
  3
------------   ---   -----------
 72
    65
 73
     4
 40
30.0
 49
21.0
 74
     0
 49
-3.0
 74
     0
 49
3.0
 74
     0
 49
-3.0
 74
     0
  0
LTYPE
  5
52
330
5
100
AcDbSymbolTableRecord
100
AcDbLinetypeTableRecord
  2
PLINE16
 70
     0
  3
---------   ---   ---   --------
 72
    65
 73
     6
 40
30.0
 49
15.0
 74
     0
 49
-3.0
 74
     0
 49
3.0
 74
     0
 49
-3.0
 74
     0
 49
3.0
 74
     0
 49
-3.0
 74
     0
  0
ENDTAB
  0
TABLE
  2
LAYER
  5
2
102
{ACAD_XDICTIONARY
360
175
102
}
330
0
100
AcDbSymbolTable
 70
     5
  0
LAYER
  5
10
330
2
100
AcDbSymbolTableRecord
100
AcDbLayerTableRecord
  2
0
 70
     0
 62
     7
  6
CONTINUOUS
370
    -3
390
F
  0
LAYER
  5
128
330
2
100
AcDbSymbolTableRecord
100
AcDbLayerTableRecord
  2
Defpoints
 70
     0
 62
     7
  6
CONTINUOUS
290
     0
370
    -3
390
F
  0
LAYER
  5
178
330
2
100
AcDbSymbolTableRecord
100
AcDbLayerTableRecord
  2
寸法
 70
     0
 62
     7
  6
CONTINUOUS
370
    -3
390
F
  0
LAYER
  5
179
330
2
100
AcDbSymbolTableRecord
100
AcDbLayerTableRecord
  2
躯体と製品
 70
     0
 62
     7
  6
CONTINUOUS
370
    -3
390
F
  0
LAYER
  5
4F62
330
2
100
AcDbSymbolTableRecord
100
AcDbLayerTableRecord
  2
図枠
 70
     0
 62
     7
  6
CONTINUOUS
370
    -3
390
F
  0
ENDTAB
  0
TABLE
  2
STYLE
  5
3
330
0
100
AcDbSymbolTable
 70
     5
  0
STYLE
  5
11
330
3
100
AcDbSymbolTableRecord
100
AcDbTextStyleTableRecord
  2
STANDARD
 70
     0
 40
0.0
 41
1.0
 50
0.0
 71
     0
 42
0.2
  3
txt
  4
bigfont.shx
  0
STYLE
  5
53
330
3
100
AcDbSymbolTableRecord
100
AcDbTextStyleTableRecord
  2
TATEGAKI
 70
     4
 40
0.0
 41
1.0
 50
0.0
 71
     0
 42
1.0
  3
txt
  4
bigfont.shx
  0
STYLE
  5
123
330
3
100
AcDbSymbolTableRecord
100
AcDbTextStyleTableRecord
  2
ACAD
 70
     0
 40
3.0
 41
0.8
 50
0.0
 71
     0
 42
5.0
  3
romans.shx
  4
extfont.shx
  0
STYLE
  5
3A5F
330
3
100
AcDbSymbolTableRecord
100
AcDbTextStyleTableRecord
  2
VERTXT
 70
     4
 40
0.0
 41
0.8582679999999999
 50
0.0
 71
     0
 42
3.5
  3
txt.shx
  4
BIGFONT
  0
STYLE
  5
50AD
330
3
100
AcDbSymbolTableRecord
100
AcDbTextStyleTableRecord
  2
STANDARD2
 70
     0
 40
0.0
 41
0.8582679999999999
 50
0.0
 71
     0
 42
3.5
  3
txt.shx
  4
EXTFONT
  0
ENDTAB
  0
TABLE
  2
VIEW
  5
6
330
0
100
AcDbSymbolTable
 70
     0
  0
ENDTAB
  0
TABLE
  2
UCS
  5
7
330
0
100
AcDbSymbolTable
 70
     0
  0
ENDTAB
  0
TABLE
  2
APPID
  5
9
330
0
100
AcDbSymbolTable
 70
     2
  0
APPID
  5
12
330
9
100
AcDbSymbolTableRecord
100
AcDbRegAppTableRecord
  2
ACAD
 70
     0
  0
APPID
  5
6C16
330
9
100
AcDbSymbolTableRecord
100
AcDbRegAppTableRecord
  2
ACAD_EXEMPT_FROM_CAD_STANDARDS
 70
     0
  0
ENDTAB
  0
TABLE
  2
DIMSTYLE
  5
A
330
0
100
AcDbSymbolTable
 70
     3
100
AcDbDimStyleTable
 71
     1
340
126
  0
DIMSTYLE
105
11C
330
A
100
AcDbSymbolTableRecord
100
AcDbDimStyleTableRecord
  2
Standard
 70
     0
340
11
  0
DIMSTYLE
105
126
102
{ACAD_REACTORS
330
616B
330
6178
330
6190
330
619D
330
61AA
330
61B7
330
61C4
330
61D1
330
61DE
330
61EB
330
61F8
330
6205
330
621F
330
622C
330
623A
330
6247
330
625E
330
6276
330
6283
330
6290
330
62A3
330
62B0
330
62C8
330
62D5
330
62E2
330
62EF
330
62FC
330
6309
330
6316
330
6323
330
6330
330
633E
330
634B
330
6359
330
6373
330
6380
330
63A0
330
63B7
330
63C4
330
63DC
330
63FB
330
6411
330
6427
330
643D
330
6453
330
6469
330
647F
330
648C
330
649A
330
64B1
330
64BE
330
64CB
330
64D8
330
64ED
330
64FA
330
6512
330
651F
330
652C
330
6539
330
6546
330
6553
330
6560
330
656D
330
657B
330
6588
330
65AD
330
65C5
330
65D2
330
65DF
102
}
330
A
100
AcDbSymbolTableRecord
100
AcDbDimStyleTableRecord
  2
AutoCAD
 70
     0
 41
1.0
 42
0.0
 44
0.0
 73
     0
 77
     1
140
3.0
147
1.0
174
     1
176
     4
177
     4
178
     3
271
     0
272
     0
289
     0
340
123
341
15B0
342
11E
  0
DIMSTYLE
105
2CBB
330
A
100
AcDbSymbolTableRecord
100
AcDbDimStyleTableRecord
  2
111
 70
     0
 41
1.0
 42
0.0
 44
0.0
 73
     0
 77
     1
140
5.0
147
1.0
174
     1
176
     4
177
     4
178
     3
271
     0
272
     0
289
     0
340
123
341
15B0
342
2CB5
  0
ENDTAB
  0
TABLE
  2
BLOCK_RECORD
  5
1
330
0
100
AcDbSymbolTable
 70
    73
  0
BLOCK_RECORD
  5
1E
102
{ACAD_XDICTIONARY
360
28B
102
}
330
1
100
AcDbSymbolTableRecord
100
AcDbBlockTableRecord
  2
*Model_Space
340
21
  0
BLOCK_RECORD
  5
1A
102
{ACAD_XDICTIONARY
360
28D
102
}
330
1
100
AcDbSymbolTableRecord
100
AcDbBlockTableRecord
  2
*Paper_Space
340
1D
  0
BLOCK_RECORD
  5
11E
330
1
100
AcDbSymbolTableRecord
100
AcDbBlockTableRecord
  2
_Dot
340
0
102
{BLKREFS
331
6930
331
6931
331
6943
331
6944
331
694C
331
694D
331
6955
331
6956
331
695E
331
695F
331
6967
331
6968
331
6970
331
6971
331
6979
331
697A
331
6982
331
6983
331
698B
331
698C
331
6994
331
6995
331
699D
331
699E
331
69A7
331
69A8
331
69B0
331
69B1
331
69C4
331
69C5
331
69CD
331
69CE
331
69D6
331
69D7
331
69E7
331
69E8
331
69F1
331
69F2
331
69FA
331
69FB
331
6A03
331
6A04
331
6A0C
331
6A0D
331
6A15
331
6A16
331
6A1E
331
6A1F
331
6A27
331
6A28
331
6A30
331
6A31
331
6A39
331
6A3A
331
6A43
331
6A44
331
6A4C
331
6A4D
331
6A56
331
6A57
331
6A5F
331
6A60
331
6A68
331
6A69
331
6A70
331
6A71
331
6A79
331
6A7A
331
6A82
331
6A83
331
6A95
331
6A96
331
6A9E
331
6A9F
331
6AA7
331
6AA8
331
6AB0
331
6AB1
331
6AB9
331
6ABA
331
6AC2
331
6AC3
331
6ACB
331
6ACC
331
6AD4
331
6AD5
331
6ADE
331
6ADF
331
6AF1
331
6AF2
331
6AFA
331
6AFB
331
6B03
331
6B04
331
6B15
331
6B16
331
6B28
331
6B29
331
6B31
331
6B32
331
6B3A
331
6B3B
331
6B43
331
6B44
331
6B4C
331
6B4D
331
6B55
331
6B56
331
6B5E
331
6B5F
331
6B68
331
6B69
331
6B71
331
6B72
331
6B85
331
6B86
331
6B8E
331
6B8F
331
6B97
331
6B98
331
6BD3
331
6BD4
331
6BE3
331
6BE4
331
6BEC
331
6BED
331
6BFE
331
6BFF
331
6C0F
331
6C10
331
6C1F
331
6C20
331
6C31
331
6C32
331
6C3A
331
6C3B
331
6C4A
331
6C4B
102
}
  0
BLOCK_RECORD
  5
15B0
330
1
100
AcDbSymbolTableRecord
100
AcDbBlockTableRecord
  2
_None
340
0
  0
BLOCK_RECORD
  5
2CB5
330
1
100
AcDbSymbolTableRecord
100
AcDbBlockTableRecord
  2
_Open30
340
0
  0
BLOCK_RECORD
  5
35E3
330
1
100
AcDbSymbolTableRecord
100
AcDbBlockTableRecord
  2
_DotBlank
340
0
  0
BLOCK_RECORD
  5
616C
330
1
100
AcDbSymbolTableRecord
100
AcDbBlockTableRecord
  2
*D4
340
0
  0
BLOCK_RECORD
  5
6179
330
1
100
AcDbSymbolTableRecord
100
AcDbBlockTableRecord
  2
*D5
340
0
  0
BLOCK_RECORD
  5
6191
330
1
100
AcDbSymbolTableRecord
100
AcDbBlockTableRecord
  2
*D6
340
0
  0
BLOCK_RECORD
  5
619E
330
1
100
AcDbSymbolTableRecord
100
AcDbBlockTableRecord
  2
*D7
340
0
  0
BLOCK_RECORD
  5
61AB
330
1
100
AcDbSymbolTableRecord
100
AcDbBlockTableRecord
  2
*D8
340
0
  0
BLOCK_RECORD
  5
61B8
330
1
100
AcDbSymbolTableRecord
100
AcDbBlockTableRecord
  2
*D9
340
0
  0
BLOCK_RECORD
  5
61C5
330
1
100
AcDbSymbolTableRecord
100
AcDbBlockTableRecord
  2
*D10
340
0
  0
BLOCK_RECORD
  5
61D2
330
1
100
AcDbSymbolTableRecord
100
AcDbBlockTableRecord
  2
*D11
340
0
  0
BLOCK_RECORD
  5
61DF
330
1
100
AcDbSymbolTableRecord
100
AcDbBlockTableRecord
  2
*D12
340
0
  0
BLOCK_RECORD
  5
61EC
330
1
100
AcDbSymbolTableRecord
100
AcDbBlockTableRecord
  2
*D13
340
0
  0
BLOCK_RECORD
  5
61F9
330
1
100
AcDbSymbolTableRecord
100
AcDbBlockTableRecord
  2
*D14
340
0
  0
BLOCK_RECORD
  5
6206
330
1
100
AcDbSymbolTableRecord
100
AcDbBlockTableRecord
  2
*D15
340
0
  0
BLOCK_RECORD
  5
6220
330
1
100
AcDbSymbolTableRecord
100
AcDbBlockTableRecord
  2
*D16
340
0
  0
BLOCK_RECORD
  5
622D
330
1
100
AcDbSymbolTableRecord
100
AcDbBlockTableRecord
  2
*D17
340
0
  0
BLOCK_RECORD
  5
623B
330
1
100
AcDbSymbolTableRecord
100
AcDbBlockTableRecord
  2
*D18
340
0
  0
BLOCK_RECORD
  5
6248
330
1
100
AcDbSymbolTableRecord
100
AcDbBlockTableRecord
  2
*D19
340
0
  0
BLOCK_RECORD
  5
625F
330
1
100
AcDbSymbolTableRecord
100
AcDbBlockTableRecord
  2
*D20
340
0
  0
BLOCK_RECORD
  5
6277
330
1
100
AcDbSymbolTableRecord
100
AcDbBlockTableRecord
  2
*D21
340
0
  0
BLOCK_RECORD
  5
6284
330
1
100
AcDbSymbolTableRecord
100
AcDbBlockTableRecord
  2
*D22
340
0
  0
BLOCK_RECORD
  5
6291
330
1
100
AcDbSymbolTableRecord
100
AcDbBlockTableRecord
  2
*D23
340
0
  0
BLOCK_RECORD
  5
62A4
330
1
100
AcDbSymbolTableRecord
100
AcDbBlockTableRecord
  2
*D24
340
0
  0
BLOCK_RECORD
  5
62B1
330
1
100
AcDbSymbolTableRecord
100
AcDbBlockTableRecord
  2
*D25
340
0
  0
BLOCK_RECORD
  5
62C9
330
1
100
AcDbSymbolTableRecord
100
AcDbBlockTableRecord
  2
*D26
340
0
  0
BLOCK_RECORD
  5
62D6
330
1
100
AcDbSymbolTableRecord
100
AcDbBlockTableRecord
  2
*D27
340
0
  0
BLOCK_RECORD
  5
62E3
330
1
100
AcDbSymbolTableRecord
100
AcDbBlockTableRecord
  2
*D28
340
0
  0
BLOCK_RECORD
  5
62F0
330
1
100
AcDbSymbolTableRecord
100
AcDbBlockTableRecord
  2
*D29
340
0
  0
BLOCK_RECORD
  5
62FD
330
1
100
AcDbSymbolTableRecord
100
AcDbBlockTableRecord
  2
*D30
340
0
  0
BLOCK_RECORD
  5
630A
330
1
100
AcDbSymbolTableRecord
100
AcDbBlockTableRecord
  2
*D31
340
0
  0
BLOCK_RECORD
  5
6317
330
1
100
AcDbSymbolTableRecord
100
AcDbBlockTableRecord
  2
*D32
340
0
  0
BLOCK_RECORD
  5
6324
330
1
100
AcDbSymbolTableRecord
100
AcDbBlockTableRecord
  2
*D33
340
0
  0
BLOCK_RECORD
  5
6331
330
1
100
AcDbSymbolTableRecord
100
AcDbBlockTableRecord
  2
*D34
340
0
  0
BLOCK_RECORD
  5
633F
330
1
100
AcDbSymbolTableRecord
100
AcDbBlockTableRecord
  2
*D35
340
0
  0
BLOCK_RECORD
  5
634C
330
1
100
AcDbSymbolTableRecord
100
AcDbBlockTableRecord
  2
*D36
340
0
  0
BLOCK_RECORD
  5
635A
330
1
100
AcDbSymbolTableRecord
100
AcDbBlockTableRecord
  2
*D37
340
0
  0
BLOCK_RECORD
  5
6374
330
1
100
AcDbSymbolTableRecord
100
AcDbBlockTableRecord
  2
*D38
340
0
  0
BLOCK_RECORD
  5
6381
330
1
100
AcDbSymbolTableRecord
100
AcDbBlockTableRecord
  2
*D39
340
0
  0
BLOCK_RECORD
  5
63A1
330
1
100
AcDbSymbolTableRecord
100
AcDbBlockTableRecord
  2
*D40
340
0
  0
BLOCK_RECORD
  5
63B8
330
1
100
AcDbSymbolTableRecord
100
AcDbBlockTableRecord
  2
*D41
340
0
  0
BLOCK_RECORD
  5
63C5
330
1
100
AcDbSymbolTableRecord
100
AcDbBlockTableRecord
  2
*D42
340
0
  0
BLOCK_RECORD
  5
63DD
330
1
100
AcDbSymbolTableRecord
100
AcDbBlockTableRecord
  2
*D43
340
0
  0
BLOCK_RECORD
  5
63FC
330
1
100
AcDbSymbolTableRecord
100
AcDbBlockTableRecord
  2
*D44
340
0
  0
BLOCK_RECORD
  5
6412
330
1
100
AcDbSymbolTableRecord
100
AcDbBlockTableRecord
  2
*D45
340
0
  0
BLOCK_RECORD
  5
6428
330
1
100
AcDbSymbolTableRecord
100
AcDbBlockTableRecord
  2
*D46
340
0
  0
BLOCK_RECORD
  5
643E
330
1
100
AcDbSymbolTableRecord
100
AcDbBlockTableRecord
  2
*D47
340
0
  0
BLOCK_RECORD
  5
6454
330
1
100
AcDbSymbolTableRecord
100
AcDbBlockTableRecord
  2
*D48
340
0
  0
BLOCK_RECORD
  5
646A
330
1
100
AcDbSymbolTableRecord
100
AcDbBlockTableRecord
  2
*D49
340
0
  0
BLOCK_RECORD
  5
6480
330
1
100
AcDbSymbolTableRecord
100
AcDbBlockTableRecord
  2
*D50
340
0
  0
BLOCK_RECORD
  5
648D
330
1
100
AcDbSymbolTableRecord
100
AcDbBlockTableRecord
  2
*D51
340
0
  0
BLOCK_RECORD
  5
649B
330
1
100
AcDbSymbolTableRecord
100
AcDbBlockTableRecord
  2
*D52
340
0
  0
BLOCK_RECORD
  5
64B2
330
1
100
AcDbSymbolTableRecord
100
AcDbBlockTableRecord
  2
*D53
340
0
  0
BLOCK_RECORD
  5
64BF
330
1
100
AcDbSymbolTableRecord
100
AcDbBlockTableRecord
  2
*D54
340
0
  0
BLOCK_RECORD
  5
64CC
330
1
100
AcDbSymbolTableRecord
100
AcDbBlockTableRecord
  2
*D55
340
0
  0
BLOCK_RECORD
  5
64D9
330
1
100
AcDbSymbolTableRecord
100
AcDbBlockTableRecord
  2
*D56
340
0
  0
BLOCK_RECORD
  5
64EE
330
1
100
AcDbSymbolTableRecord
100
AcDbBlockTableRecord
  2
*D57
340
0
  0
BLOCK_RECORD
  5
64FB
330
1
100
AcDbSymbolTableRecord
100
AcDbBlockTableRecord
  2
*D58
340
0
  0
BLOCK_RECORD
  5
6513
330
1
100
AcDbSymbolTableRecord
100
AcDbBlockTableRecord
  2
*D59
340
0
  0
BLOCK_RECORD
  5
6520
330
1
100
AcDbSymbolTableRecord
100
AcDbBlockTableRecord
  2
*D60
340
0
  0
BLOCK_RECORD
  5
652D
330
1
100
AcDbSymbolTableRecord
100
AcDbBlockTableRecord
  2
*D61
340
0
  0
BLOCK_RECORD
  5
653A
330
1
100
AcDbSymbolTableRecord
100
AcDbBlockTableRecord
  2
*D62
340
0
  0
BLOCK_RECORD
  5
6547
330
1
100
AcDbSymbolTableRecord
100
AcDbBlockTableRecord
  2
*D63
340
0
  0
BLOCK_RECORD
  5
6554
330
1
100
AcDbSymbolTableRecord
100
AcDbBlockTableRecord
  2
*D64
340
0
  0
BLOCK_RECORD
  5
6561
330
1
100
AcDbSymbolTableRecord
100
AcDbBlockTableRecord
  2
*D65
340
0
  0
BLOCK_RECORD
  5
656E
330
1
100
AcDbSymbolTableRecord
100
AcDbBlockTableRecord
  2
*D66
340
0
  0
BLOCK_RECORD
  5
657C
330
1
100
AcDbSymbolTableRecord
100
AcDbBlockTableRecord
  2
*D67
340
0
  0
BLOCK_RECORD
  5
6589
330
1
100
AcDbSymbolTableRecord
100
AcDbBlockTableRecord
  2
*D68
340
0
  0
BLOCK_RECORD
  5
65AE
330
1
100
AcDbSymbolTableRecord
100
AcDbBlockTableRecord
  2
*D69
340
0
  0
BLOCK_RECORD
  5
65C6
330
1
100
AcDbSymbolTableRecord
100
AcDbBlockTableRecord
  2
*D70
340
0
  0
BLOCK_RECORD
  5
65D3
330
1
100
AcDbSymbolTableRecord
100
AcDbBlockTableRecord
  2
*D71
340
0
  0
BLOCK_RECORD
  5
65E0
330
1
100
AcDbSymbolTableRecord
100
AcDbBlockTableRecord
  2
*D72
340
0
  0
ENDTAB
  0
ENDSEC
  0
SECTION
  2
BLOCKS
  0
BLOCK
  5
1F
330
1E
100
AcDbEntity
  8
0
100
AcDbBlockBegin
  2
*Model_Space
 70
     0
 10
0.0
 20
0.0
 30
0.0
  3
*Model_Space
  1

  0
ENDBLK
  5
20
330
1E
100
AcDbEntity
  8
0
100
AcDbBlockEnd
  0
BLOCK
  5
1B
330
1A
100
AcDbEntity
 67
     1
  8
0
100
AcDbBlockBegin
  2
*Paper_Space
 70
     0
 10
0.0
 20
0.0
 30
0.0
  3
*Paper_Space
  1

  0
ENDBLK
  5
1C
330
1A
100
AcDbEntity
 67
     1
  8
0
100
AcDbBlockEnd
  0
BLOCK
  5
121
330
11E
100
AcDbEntity
  8
0
100
AcDbBlockBegin
  2
_Dot
 70
     0
 10
0.0
 20
0.0
 30
0.0
  3
_Dot
  1

  0
LWPOLYLINE
  5
11F
330
11E
100
AcDbEntity
  8
0
  6
ByBlock
 62
     0
100
AcDbPolyline
 90
        2
 70
     1
 43
0.5
 10
-0.25
 20
0.0
 42
1.0
 10
0.25
 20
0.0
 42
1.0
  0
LINE
  5
120
330
11E
100
AcDbEntity
  8
0
  6
ByBlock
 62
     0
370
    -2
100
AcDbLine
 10
-0.5
 20
0.0
 30
0.0
 11
-1.0
 21
0.0
 31
0.0
  0
ENDBLK
  5
122
330
11E
100
AcDbEntity
  8
0
100
AcDbBlockEnd
  0
BLOCK
  5
15B1
330
15B0
100
AcDbEntity
  8
0
100
AcDbBlockBegin
  2
_None
 70
     0
 10
0.0
 20
0.0
 30
0.0
  3
_None
  1

  0
ENDBLK
  5
15B2
330
15B0
100
AcDbEntity
  8
0
100
AcDbBlockEnd
  0
BLOCK
  5
2CB9
330
2CB5
100
AcDbEntity
  8
0
100
AcDbBlockBegin
  2
_Open30
 70
     0
 10
0.0
 20
0.0
 30
0.0
  3
_Open30
  1

  0
LINE
  5
2CB6
330
2CB5
100
AcDbEntity
  8
0
  6
ByBlock
 62
     0
370
    -2
100
AcDbLine
 10
-1.0
 20
0.26794919
 30
0.0
 11
0.0
 21
0.0
 31
0.0
  0
LINE
  5
2CB7
330
2CB5
100
AcDbEntity
  8
0
  6
ByBlock
 62
     0
370
    -2
100
AcDbLine
 10
0.0
 20
0.0
 30
0.0
 11
-1.0
 21
-0.26794919
 31
0.0
  0
LINE
  5
2CB8
330
2CB5
100
AcDbEntity
  8
0
  6
ByBlock
 62
     0
370
    -2
100
AcDbLine
 10
0.0
 20
0.0
 30
0.0
 11
-1.0
 21
0.0
 31
0.0
  0
ENDBLK
  5
2CBA
330
2CB5
100
AcDbEntity
  8
0
100
AcDbBlockEnd
  0
BLOCK
  5
35E6
330
35E3
100
AcDbEntity
  8
0
100
AcDbBlockBegin
  2
_DotBlank
 70
     0
 10
0.0
 20
0.0
 30
0.0
  3
_DotBlank
  1

  0
CIRCLE
  5
35E4
330
35E3
100
AcDbEntity
  8
0
  6
ByBlock
 62
     0
370
    -2
100
AcDbCircle
 10
0.0
 20
0.0
 30
0.0
 40
0.5
  0
LINE
  5
35E5
330
35E3
100
AcDbEntity
  8
0
  6
ByBlock
 62
     0
370
    -2
100
AcDbLine
 10
-0.5
 20
0.0
 30
0.0
 11
-1.0
 21
0.0
 31
0.0
  0
ENDBLK
  5
35E7
330
35E3
100
AcDbEntity
  8
0
100
AcDbBlockEnd
  0
BLOCK
  5
6176
330
616C
100
AcDbEntity
  8
0
100
AcDbBlockBegin
  2
*D4
 70
     1
 10
0.0
 20
0.0
 30
0.0
  3
*D4
  1

  0
LINE
  5
692D
330
616C
100
AcDbEntity
  8
寸法
  6
Continuous
 62
     4
370
    -2
100
AcDbLine
 10
1252.189564373415
 20
608.4081625775244
 30
0.0
 11
1226.758240373415
 21
608.4081625775244
 31
0.0
  0
LINE
  5
692E
330
616C
100
AcDbEntity
  8
寸法
  6
Continuous
 62
     4
370
    -2
100
AcDbLine
 10
1232.189564373415
 20
616.4081625775244
 30
0.0
 11
1226.758240373415
 21
616.4081625775244
 31
0.0
  0
LINE
  5
692F
330
616C
100
AcDbEntity
  8
寸法
  6
Continuous
 62
     4
370
    -2
100
AcDbLine
 10
1226.758240373415
 20
609.4081625775244
 30
0.0
 11
1226.758240373415
 21
615.4081625775244
 31
0.0
  0
INSERT
  5
6930
330
616C
100
AcDbEntity
  8
寸法
  6
Continuous
 62
     4
370
    -2
100
AcDbBlockReference
  2
_Dot
 10
1226.758240373415
 20
608.4081625775244
 30
0.0
 50
270.0
  0
INSERT
  5
6931
330
616C
100
AcDbEntity
  8
寸法
  6
Continuous
 62
     4
370
    -2
100
AcDbBlockReference
  2
_Dot
 10
1226.758240373415
 20
616.4081625775244
 30
0.0
 50
90.0
  0
MTEXT
  5
6932
330
616C
100
AcDbEntity
  8
寸法
  6
Continuous
 62
     3
100
AcDbMText
 10
1224.258240373415
 20
612.4081625775245
 30
0.0
 40
3.0
 41
0.0
 71
     5
 72
     1
  1
\A1;8
  7
ACAD
 11
0.0000000000000001
 21
1.0
 31
0.0
 73
     1
 44
1.0
1001
ACAD
1000
MTEXTBEGIN
1070
    73
1070
     1
1070
    44
1040
1.0
1070
    74
1070
     0
1000
MTEXTEND
  0
POINT
  5
6933
330
616C
100
AcDbEntity
  8
Defpoints
  6
Continuous
 62
     0
100
AcDbPoint
 10
1252.189564373415
 20
608.4081625775244
 30
0.0
  0
POINT
  5
6934
330
616C
100
AcDbEntity
  8
Defpoints
  6
Continuous
 62
     0
100
AcDbPoint
 10
1232.189564373415
 20
616.4081625775244
 30
0.0
  0
POINT
  5
6935
330
616C
100
AcDbEntity
  8
Defpoints
  6
Continuous
 62
     0
100
AcDbPoint
 10
1226.758240373415
 20
616.4081625775244
 30
0.0
  0
ENDBLK
  5
6177
330
616C
100
AcDbEntity
  8
0
100
AcDbBlockEnd
  0
BLOCK
  5
6184
330
6179
100
AcDbEntity
  8
0
100
AcDbBlockBegin
  2
*D5
 70
     1
 10
0.0
 20
0.0
 30
0.0
  3
*D5
  1

  0
LINE
  5
6BD0
330
6179
100
AcDbEntity
  8
寸法
  6
Continuous
 62
     4
370
    -2
100
AcDbLine
 10
1232.189564373415
 20
616.4081625775244
 30
0.0
 11
1226.758240373415
 21
616.4081625775244
 31
0.0
  0
LINE
  5
6BD1
330
6179
100
AcDbEntity
  8
寸法
  6
Continuous
 62
     4
370
    -2
100
AcDbLine
 10
1232.189564373415
 20
620.9081625775244
 30
0.0
 11
1226.758240373415
 21
620.9081625775244
 31
0.0
  0
LINE
  5
6BD2
330
6179
100
AcDbEntity
  8
寸法
  6
Continuous
 62
     4
370
    -2
100
AcDbLine
 10
1226.758240373415
 20
617.4081625775244
 30
0.0
 11
1226.758240373415
 21
619.9081625775244
 31
0.0
  0
INSERT
  5
6BD3
330
6179
100
AcDbEntity
  8
寸法
  6
Continuous
 62
     4
370
    -2
100
AcDbBlockReference
  2
_Dot
 10
1226.758240373415
 20
616.4081625775244
 30
0.0
 50
270.0
  0
INSERT
  5
6BD4
330
6179
100
AcDbEntity
  8
寸法
  6
Continuous
 62
     4
370
    -2
100
AcDbBlockReference
  2
_Dot
 10
1226.758240373415
 20
620.9081625775244
 30
0.0
 50
90.0
  0
MTEXT
  5
6BD5
330
6179
100
AcDbEntity
  8
寸法
  6
Continuous
 62
     3
100
AcDbMText
 10
1224.258240373415
 20
618.6581625775245
 30
0.0
 40
3.0
 41
0.0
 71
     5
 72
     1
  1
\A1;4.5
  7
ACAD
 11
0.0000000000000001
 21
1.0
 31
0.0
 73
     1
 44
1.0
1001
ACAD
1000
MTEXTBEGIN
1070
    73
1070
     1
1070
    44
1040
1.0
1070
    74
1070
     0
1000
MTEXTEND
  0
POINT
  5
6BD6
330
6179
100
AcDbEntity
  8
Defpoints
  6
Continuous
 62
     0
100
AcDbPoint
 10
1232.189564373415
 20
616.4081625775244
 30
0.0
  0
POINT
  5
6BD7
330
6179
100
AcDbEntity
  8
Defpoints
  6
Continuous
 62
     0
100
AcDbPoint
 10
1232.189564373415
 20
620.9081625775244
 30
0.0
  0
POINT
  5
6BD8
330
6179
100
AcDbEntity
  8
Defpoints
  6
Continuous
 62
     0
100
AcDbPoint
 10
1226.758240373415
 20
620.9081625775244
 30
0.0
  0
ENDBLK
  5
6185
330
6179
100
AcDbEntity
  8
0
100
AcDbBlockEnd
  0
BLOCK
  5
619B
330
6191
100
AcDbEntity
  8
0
100
AcDbBlockBegin
  2
*D6
 70
     1
 10
0.0
 20
0.0
 30
0.0
  3
*D6
  1

  0
LINE
  5
6940
330
6191
100
AcDbEntity
  8
寸法
  6
Continuous
 62
     4
370
    -2
100
AcDbLine
 10
1235.189564373415
 20
613.6586285775244
 30
0.0
 11
1235.189564373415
 21
587.0215545775245
 31
0.0
  0
LINE
  5
6941
330
6191
100
AcDbEntity
  8
寸法
  6
Continuous
 62
     4
370
    -2
100
AcDbLine
 10
1255.189564373415
 20
605.9526115775245
 30
0.0
 11
1255.189564373415
 21
587.0215545775245
 31
0.0
  0
LINE
  5
6942
330
6191
100
AcDbEntity
  8
寸法
  6
Continuous
 62
     4
370
    -2
100
AcDbLine
 10
1236.189564373415
 20
587.0215545775245
 30
0.0
 11
1254.189564373415
 21
587.0215545775245
 31
0.0
  0
INSERT
  5
6943
330
6191
100
AcDbEntity
  8
寸法
  6
Continuous
 62
     4
370
    -2
100
AcDbBlockReference
  2
_Dot
 10
1235.189564373415
 20
587.0215545775245
 30
0.0
 50
180.0
  0
INSERT
  5
6944
330
6191
100
AcDbEntity
  8
寸法
  6
Continuous
 62
     4
370
    -2
100
AcDbBlockReference
  2
_Dot
 10
1255.189564373415
 20
587.0215545775245
 30
0.0
  0
MTEXT
  5
6945
330
6191
100
AcDbEntity
  8
寸法
  6
Continuous
 62
     3
100
AcDbMText
 10
1245.189564373415
 20
589.5215545775244
 30
0.0
 40
3.0
 41
0.0
 71
     5
 72
     1
  1
\A1;20
  7
ACAD
 73
     1
 44
1.0
1001
ACAD
1000
MTEXTBEGIN
1070
    73
1070
     1
1070
    44
1040
1.0
1070
    74
1070
     0
1000
MTEXTEND
  0
POINT
  5
6946
330
6191
100
AcDbEntity
  8
Defpoints
  6
Continuous
 62
     0
100
AcDbPoint
 10
1235.189564373415
 20
613.6586285775244
 30
0.0
  0
POINT
  5
6947
330
6191
100
AcDbEntity
  8
Defpoints
  6
Continuous
 62
     0
100
AcDbPoint
 10
1255.189564373415
 20
605.9526115775245
 30
0.0
  0
POINT
  5
6948
330
6191
100
AcDbEntity
  8
Defpoints
  6
Continuous
 62
     0
100
AcDbPoint
 10
1255.189564373415
 20
587.0215545775245
 30
0.0
  0
ENDBLK
  5
619C
330
6191
100
AcDbEntity
  8
0
100
AcDbBlockEnd
  0
BLOCK
  5
61A8
330
619E
100
AcDbEntity
  8
0
100
AcDbBlockBegin
  2
*D7
 70
     1
 10
0.0
 20
0.0
 30
0.0
  3
*D7
  1

  0
LINE
  5
6949
330
619E
100
AcDbEntity
  8
寸法
  6
Continuous
 62
     4
370
    -2
100
AcDbLine
 10
1255.189564373415
 20
605.9526115775245
 30
0.0
 11
1255.189564373415
 21
596.4081625775244
 31
0.0
  0
LINE
  5
694A
330
619E
100
AcDbEntity
  8
寸法
  6
Continuous
 62
     4
370
    -2
100
AcDbLine
 10
1270.189564373416
 20
605.4081625775244
 30
0.0
 11
1270.189564373416
 21
596.4081625775244
 31
0.0
  0
LINE
  5
694B
330
619E
100
AcDbEntity
  8
寸法
  6
Continuous
 62
     4
370
    -2
100
AcDbLine
 10
1256.189564373415
 20
596.4081625775244
 30
0.0
 11
1269.189564373415
 21
596.4081625775244
 31
0.0
  0
INSERT
  5
694C
330
619E
100
AcDbEntity
  8
寸法
  6
Continuous
 62
     4
370
    -2
100
AcDbBlockReference
  2
_Dot
 10
1255.189564373415
 20
596.4081625775244
 30
0.0
 50
180.0
  0
INSERT
  5
694D
330
619E
100
AcDbEntity
  8
寸法
  6
Continuous
 62
     4
370
    -2
100
AcDbBlockReference
  2
_Dot
 10
1270.189564373416
 20
596.4081625775244
 30
0.0
  0
MTEXT
  5
694E
330
619E
100
AcDbEntity
  8
寸法
  6
Continuous
 62
     3
100
AcDbMText
 10
1262.689564373415
 20
598.9081625775244
 30
0.0
 40
3.0
 41
0.0
 71
     5
 72
     1
  1
\A1;15
  7
ACAD
 73
     1
 44
1.0
1001
ACAD
1000
MTEXTBEGIN
1070
    73
1070
     1
1070
    44
1040
1.0
1070
    74
1070
     0
1000
MTEXTEND
  0
POINT
  5
694F
330
619E
100
AcDbEntity
  8
Defpoints
  6
Continuous
 62
     0
100
AcDbPoint
 10
1255.189564373415
 20
605.9526115775245
 30
0.0
  0
POINT
  5
6950
330
619E
100
AcDbEntity
  8
Defpoints
  6
Continuous
 62
     0
100
AcDbPoint
 10
1270.189564373416
 20
605.4081625775244
 30
0.0
  0
POINT
  5
6951
330
619E
100
AcDbEntity
  8
Defpoints
  6
Continuous
 62
     0
100
AcDbPoint
 10
1270.189564373416
 20
596.4081625775244
 30
0.0
  0
ENDBLK
  5
61A9
330
619E
100
AcDbEntity
  8
0
100
AcDbBlockEnd
  0
BLOCK
  5
61B5
330
61AB
100
AcDbEntity
  8
0
100
AcDbBlockBegin
  2
*D8
 70
     1
 10
0.0
 20
0.0
 30
0.0
  3
*D8
  1

  0
LINE
  5
6952
330
61AB
100
AcDbEntity
  8
寸法
  6
Continuous
 62
     4
370
    -2
100
AcDbLine
 10
1270.189564373416
 20
605.4081625775244
 30
0.0
 11
1270.189564373416
 21
596.4081625775244
 31
0.0
  0
LINE
  5
6953
330
61AB
100
AcDbEntity
  8
寸法
  6
Continuous
 62
     4
370
    -2
100
AcDbLine
 10
1285.189564373415
 20
605.8603385775244
 30
0.0
 11
1285.189564373415
 21
596.4081625775244
 31
0.0
  0
LINE
  5
6954
330
61AB
100
AcDbEntity
  8
寸法
  6
Continuous
 62
     4
370
    -2
100
AcDbLine
 10
1271.189564373415
 20
596.4081625775244
 30
0.0
 11
1284.189564373416
 21
596.4081625775244
 31
0.0
  0
INSERT
  5
6955
330
61AB
100
AcDbEntity
  8
寸法
  6
Continuous
 62
     4
370
    -2
100
AcDbBlockReference
  2
_Dot
 10
1270.189564373416
 20
596.4081625775244
 30
0.0
 50
180.0
  0
INSERT
  5
6956
330
61AB
100
AcDbEntity
  8
寸法
  6
Continuous
 62
     4
370
    -2
100
AcDbBlockReference
  2
_Dot
 10
1285.189564373415
 20
596.4081625775244
 30
0.0
  0
MTEXT
  5
6957
330
61AB
100
AcDbEntity
  8
寸法
  6
Continuous
 62
     3
100
AcDbMText
 10
1277.689564373415
 20
598.9081625775244
 30
0.0
 40
3.0
 41
0.0
 71
     5
 72
     1
  1
\A1;15
  7
ACAD
 73
     1
 44
1.0
1001
ACAD
1000
MTEXTBEGIN
1070
    73
1070
     1
1070
    44
1040
1.0
1070
    74
1070
     0
1000
MTEXTEND
  0
POINT
  5
6958
330
61AB
100
AcDbEntity
  8
Defpoints
  6
Continuous
 62
     0
100
AcDbPoint
 10
1270.189564373416
 20
605.4081625775244
 30
0.0
  0
POINT
  5
6959
330
61AB
100
AcDbEntity
  8
Defpoints
  6
Continuous
 62
     0
100
AcDbPoint
 10
1285.189564373415
 20
605.8603385775244
 30
0.0
  0
POINT
  5
695A
330
61AB
100
AcDbEntity
  8
Defpoints
  6
Continuous
 62
     0
100
AcDbPoint
 10
1285.189564373415
 20
596.4081625775244
 30
0.0
  0
ENDBLK
  5
61B6
330
61AB
100
AcDbEntity
  8
0
100
AcDbBlockEnd
  0
BLOCK
  5
61C2
330
61B8
100
AcDbEntity
  8
0
100
AcDbBlockBegin
  2
*D9
 70
     1
 10
0.0
 20
0.0
 30
0.0
  3
*D9
  1

  0
LINE
  5
695B
330
61B8
100
AcDbEntity
  8
寸法
  6
Continuous
 62
     4
370
    -2
100
AcDbLine
 10
1285.189564373415
 20
605.8603385775244
 30
0.0
 11
1285.189564373415
 21
596.4081625775244
 31
0.0
  0
LINE
  5
695C
330
61B8
100
AcDbEntity
  8
寸法
  6
Continuous
 62
     4
370
    -2
100
AcDbLine
 10
1300.189564373416
 20
604.9792135775244
 30
0.0
 11
1300.189564373416
 21
596.4081625775244
 31
0.0
  0
LINE
  5
695D
330
61B8
100
AcDbEntity
  8
寸法
  6
Continuous
 62
     4
370
    -2
100
AcDbLine
 10
1286.189564373416
 20
596.4081625775244
 30
0.0
 11
1299.189564373415
 21
596.4081625775244
 31
0.0
  0
INSERT
  5
695E
330
61B8
100
AcDbEntity
  8
寸法
  6
Continuous
 62
     4
370
    -2
100
AcDbBlockReference
  2
_Dot
 10
1285.189564373415
 20
596.4081625775244
 30
0.0
 50
180.0
  0
INSERT
  5
695F
330
61B8
100
AcDbEntity
  8
寸法
  6
Continuous
 62
     4
370
    -2
100
AcDbBlockReference
  2
_Dot
 10
1300.189564373416
 20
596.4081625775244
 30
0.0
  0
MTEXT
  5
6960
330
61B8
100
AcDbEntity
  8
寸法
  6
Continuous
 62
     3
100
AcDbMText
 10
1292.689564373415
 20
598.9081625775244
 30
0.0
 40
3.0
 41
0.0
 71
     5
 72
     1
  1
\A1;15
  7
ACAD
 73
     1
 44
1.0
1001
ACAD
1000
MTEXTBEGIN
1070
    73
1070
     1
1070
    44
1040
1.0
1070
    74
1070
     0
1000
MTEXTEND
  0
POINT
  5
6961
330
61B8
100
AcDbEntity
  8
Defpoints
  6
Continuous
 62
     0
100
AcDbPoint
 10
1285.189564373415
 20
605.8603385775244
 30
0.0
  0
POINT
  5
6962
330
61B8
100
AcDbEntity
  8
Defpoints
  6
Continuous
 62
     0
100
AcDbPoint
 10
1300.189564373416
 20
604.9792135775244
 30
0.0
  0
POINT
  5
6963
330
61B8
100
AcDbEntity
  8
Defpoints
  6
Continuous
 62
     0
100
AcDbPoint
 10
1300.189564373416
 20
596.4081625775244
 30
0.0
  0
ENDBLK
  5
61C3
330
61B8
100
AcDbEntity
  8
0
100
AcDbBlockEnd
  0
BLOCK
  5
61CF
330
61C5
100
AcDbEntity
  8
0
100
AcDbBlockBegin
  2
*D10
 70
     1
 10
0.0
 20
0.0
 30
0.0
  3
*D10
  1

  0
LINE
  5
6964
330
61C5
100
AcDbEntity
  8
寸法
  6
Continuous
 62
     4
370
    -2
100
AcDbLine
 10
1300.189564373416
 20
604.9792135775244
 30
0.0
 11
1300.189564373416
 21
596.4081625775244
 31
0.0
  0
LINE
  5
6965
330
61C5
100
AcDbEntity
  8
寸法
  6
Continuous
 62
     4
370
    -2
100
AcDbLine
 10
1315.189564373415
 20
605.4081625775244
 30
0.0
 11
1315.189564373415
 21
596.4081625775244
 31
0.0
  0
LINE
  5
6966
330
61C5
100
AcDbEntity
  8
寸法
  6
Continuous
 62
     4
370
    -2
100
AcDbLine
 10
1301.189564373415
 20
596.4081625775244
 30
0.0
 11
1314.189564373415
 21
596.4081625775244
 31
0.0
  0
INSERT
  5
6967
330
61C5
100
AcDbEntity
  8
寸法
  6
Continuous
 62
     4
370
    -2
100
AcDbBlockReference
  2
_Dot
 10
1300.189564373416
 20
596.4081625775244
 30
0.0
 50
180.0
  0
INSERT
  5
6968
330
61C5
100
AcDbEntity
  8
寸法
  6
Continuous
 62
     4
370
    -2
100
AcDbBlockReference
  2
_Dot
 10
1315.189564373415
 20
596.4081625775244
 30
0.0
  0
MTEXT
  5
6969
330
61C5
100
AcDbEntity
  8
寸法
  6
Continuous
 62
     3
100
AcDbMText
 10
1307.689564373415
 20
598.9081625775244
 30
0.0
 40
3.0
 41
0.0
 71
     5
 72
     1
  1
\A1;15
  7
ACAD
 73
     1
 44
1.0
1001
ACAD
1000
MTEXTBEGIN
1070
    73
1070
     1
1070
    44
1040
1.0
1070
    74
1070
     0
1000
MTEXTEND
  0
POINT
  5
696A
330
61C5
100
AcDbEntity
  8
Defpoints
  6
Continuous
 62
     0
100
AcDbPoint
 10
1300.189564373416
 20
604.9792135775244
 30
0.0
  0
POINT
  5
696B
330
61C5
100
AcDbEntity
  8
Defpoints
  6
Continuous
 62
     0
100
AcDbPoint
 10
1315.189564373415
 20
605.4081625775244
 30
0.0
  0
POINT
  5
696C
330
61C5
100
AcDbEntity
  8
Defpoints
  6
Continuous
 62
     0
100
AcDbPoint
 10
1315.189564373415
 20
596.4081625775244
 30
0.0
  0
ENDBLK
  5
61D0
330
61C5
100
AcDbEntity
  8
0
100
AcDbBlockEnd
  0
BLOCK
  5
61DC
330
61D2
100
AcDbEntity
  8
0
100
AcDbBlockBegin
  2
*D11
 70
     1
 10
0.0
 20
0.0
 30
0.0
  3
*D11
  1

  0
LINE
  5
696D
330
61D2
100
AcDbEntity
  8
寸法
  6
Continuous
 62
     4
370
    -2
100
AcDbLine
 10
1315.189564373415
 20
605.4081625775244
 30
0.0
 11
1315.189564373415
 21
596.4081625775244
 31
0.0
  0
LINE
  5
696E
330
61D2
100
AcDbEntity
  8
寸法
  6
Continuous
 62
     4
370
    -2
100
AcDbLine
 10
1330.189564373415
 20
605.4081625775244
 30
0.0
 11
1330.189564373415
 21
596.4081625775244
 31
0.0
  0
LINE
  5
696F
330
61D2
100
AcDbEntity
  8
寸法
  6
Continuous
 62
     4
370
    -2
100
AcDbLine
 10
1316.189564373415
 20
596.4081625775244
 30
0.0
 11
1329.189564373415
 21
596.4081625775244
 31
0.0
  0
INSERT
  5
6970
330
61D2
100
AcDbEntity
  8
寸法
  6
Continuous
 62
     4
370
    -2
100
AcDbBlockReference
  2
_Dot
 10
1315.189564373415
 20
596.4081625775244
 30
0.0
 50
180.0
  0
INSERT
  5
6971
330
61D2
100
AcDbEntity
  8
寸法
  6
Continuous
 62
     4
370
    -2
100
AcDbBlockReference
  2
_Dot
 10
1330.189564373415
 20
596.4081625775244
 30
0.0
  0
MTEXT
  5
6972
330
61D2
100
AcDbEntity
  8
寸法
  6
Continuous
 62
     3
100
AcDbMText
 10
1322.689564373416
 20
598.9081625775244
 30
0.0
 40
3.0
 41
0.0
 71
     5
 72
     1
  1
\A1;15
  7
ACAD
 73
     1
 44
1.0
1001
ACAD
1000
MTEXTBEGIN
1070
    73
1070
     1
1070
    44
1040
1.0
1070
    74
1070
     0
1000
MTEXTEND
  0
POINT
  5
6973
330
61D2
100
AcDbEntity
  8
Defpoints
  6
Continuous
 62
     0
100
AcDbPoint
 10
1315.189564373415
 20
605.4081625775244
 30
0.0
  0
POINT
  5
6974
330
61D2
100
AcDbEntity
  8
Defpoints
  6
Continuous
 62
     0
100
AcDbPoint
 10
1330.189564373415
 20
605.4081625775244
 30
0.0
  0
POINT
  5
6975
330
61D2
100
AcDbEntity
  8
Defpoints
  6
Continuous
 62
     0
100
AcDbPoint
 10
1330.189564373415
 20
596.4081625775244
 30
0.0
  0
ENDBLK
  5
61DD
330
61D2
100
AcDbEntity
  8
0
100
AcDbBlockEnd
  0
BLOCK
  5
61E9
330
61DF
100
AcDbEntity
  8
0
100
AcDbBlockBegin
  2
*D12
 70
     1
 10
0.0
 20
0.0
 30
0.0
  3
*D12
  1

  0
LINE
  5
6976
330
61DF
100
AcDbEntity
  8
寸法
  6
Continuous
 62
     4
370
    -2
100
AcDbLine
 10
1330.189564373415
 20
605.4081625775244
 30
0.0
 11
1330.189564373415
 21
596.4081625775244
 31
0.0
  0
LINE
  5
6977
330
61DF
100
AcDbEntity
  8
寸法
  6
Continuous
 62
     4
370
    -2
100
AcDbLine
 10
1345.189564373415
 20
605.0752515775244
 30
0.0
 11
1345.189564373415
 21
596.4081625775244
 31
0.0
  0
LINE
  5
6978
330
61DF
100
AcDbEntity
  8
寸法
  6
Continuous
 62
     4
370
    -2
100
AcDbLine
 10
1331.189564373415
 20
596.4081625775244
 30
0.0
 11
1344.189564373415
 21
596.4081625775244
 31
0.0
  0
INSERT
  5
6979
330
61DF
100
AcDbEntity
  8
寸法
  6
Continuous
 62
     4
370
    -2
100
AcDbBlockReference
  2
_Dot
 10
1330.189564373415
 20
596.4081625775244
 30
0.0
 50
180.0
  0
INSERT
  5
697A
330
61DF
100
AcDbEntity
  8
寸法
  6
Continuous
 62
     4
370
    -2
100
AcDbBlockReference
  2
_Dot
 10
1345.189564373415
 20
596.4081625775244
 30
0.0
  0
MTEXT
  5
697B
330
61DF
100
AcDbEntity
  8
寸法
  6
Continuous
 62
     3
100
AcDbMText
 10
1337.689564373415
 20
598.9081625775244
 30
0.0
 40
3.0
 41
0.0
 71
     5
 72
     1
  1
\A1;15
  7
ACAD
 73
     1
 44
1.0
1001
ACAD
1000
MTEXTBEGIN
1070
    73
1070
     1
1070
    44
1040
1.0
1070
    74
1070
     0
1000
MTEXTEND
  0
POINT
  5
697C
330
61DF
100
AcDbEntity
  8
Defpoints
  6
Continuous
 62
     0
100
AcDbPoint
 10
1330.189564373415
 20
605.4081625775244
 30
0.0
  0
POINT
  5
697D
330
61DF
100
AcDbEntity
  8
Defpoints
  6
Continuous
 62
     0
100
AcDbPoint
 10
1345.189564373415
 20
605.0752515775244
 30
0.0
  0
POINT
  5
697E
330
61DF
100
AcDbEntity
  8
Defpoints
  6
Continuous
 62
     0
100
AcDbPoint
 10
1345.189564373415
 20
596.4081625775244
 30
0.0
  0
ENDBLK
  5
61EA
330
61DF
100
AcDbEntity
  8
0
100
AcDbBlockEnd
  0
BLOCK
  5
61F6
330
61EC
100
AcDbEntity
  8
0
100
AcDbBlockBegin
  2
*D13
 70
     1
 10
0.0
 20
0.0
 30
0.0
  3
*D13
  1

  0
LINE
  5
697F
330
61EC
100
AcDbEntity
  8
寸法
  6
Continuous
 62
     4
370
    -2
100
AcDbLine
 10
1345.189564373415
 20
605.0752515775244
 30
0.0
 11
1345.189564373415
 21
596.4081625775244
 31
0.0
  0
LINE
  5
6980
330
61EC
100
AcDbEntity
  8
寸法
  6
Continuous
 62
     4
370
    -2
100
AcDbLine
 10
1360.189564373415
 20
605.5960285775245
 30
0.0
 11
1360.189564373415
 21
596.4081625775244
 31
0.0
  0
LINE
  5
6981
330
61EC
100
AcDbEntity
  8
寸法
  6
Continuous
 62
     4
370
    -2
100
AcDbLine
 10
1346.189564373415
 20
596.4081625775244
 30
0.0
 11
1359.189564373415
 21
596.4081625775244
 31
0.0
  0
INSERT
  5
6982
330
61EC
100
AcDbEntity
  8
寸法
  6
Continuous
 62
     4
370
    -2
100
AcDbBlockReference
  2
_Dot
 10
1345.189564373415
 20
596.4081625775244
 30
0.0
 50
180.0
  0
INSERT
  5
6983
330
61EC
100
AcDbEntity
  8
寸法
  6
Continuous
 62
     4
370
    -2
100
AcDbBlockReference
  2
_Dot
 10
1360.189564373415
 20
596.4081625775244
 30
0.0
  0
MTEXT
  5
6984
330
61EC
100
AcDbEntity
  8
寸法
  6
Continuous
 62
     3
100
AcDbMText
 10
1352.689564373415
 20
598.9081625775244
 30
0.0
 40
3.0
 41
0.0
 71
     5
 72
     1
  1
\A1;15
  7
ACAD
 73
     1
 44
1.0
1001
ACAD
1000
MTEXTBEGIN
1070
    73
1070
     1
1070
    44
1040
1.0
1070
    74
1070
     0
1000
MTEXTEND
  0
POINT
  5
6985
330
61EC
100
AcDbEntity
  8
Defpoints
  6
Continuous
 62
     0
100
AcDbPoint
 10
1345.189564373415
 20
605.0752515775244
 30
0.0
  0
POINT
  5
6986
330
61EC
100
AcDbEntity
  8
Defpoints
  6
Continuous
 62
     0
100
AcDbPoint
 10
1360.189564373415
 20
605.5960285775245
 30
0.0
  0
POINT
  5
6987
330
61EC
100
AcDbEntity
  8
Defpoints
  6
Continuous
 62
     0
100
AcDbPoint
 10
1360.189564373415
 20
596.4081625775244
 30
0.0
  0
ENDBLK
  5
61F7
330
61EC
100
AcDbEntity
  8
0
100
AcDbBlockEnd
  0
BLOCK
  5
6203
330
61F9
100
AcDbEntity
  8
0
100
AcDbBlockBegin
  2
*D14
 70
     1
 10
0.0
 20
0.0
 30
0.0
  3
*D14
  1

  0
LINE
  5
6988
330
61F9
100
AcDbEntity
  8
寸法
  6
Continuous
 62
     4
370
    -2
100
AcDbLine
 10
1360.189564373415
 20
605.5960285775245
 30
0.0
 11
1360.189564373415
 21
587.0215545775245
 31
0.0
  0
LINE
  5
6989
330
61F9
100
AcDbEntity
  8
寸法
  6
Continuous
 62
     4
370
    -2
100
AcDbLine
 10
1375.189564373415
 20
606.3960145775245
 30
0.0
 11
1375.189564373415
 21
587.0215545775245
 31
0.0
  0
LINE
  5
698A
330
61F9
100
AcDbEntity
  8
寸法
  6
Continuous
 62
     4
370
    -2
100
AcDbLine
 10
1361.189564373415
 20
587.0215545775245
 30
0.0
 11
1374.189564373415
 21
587.0215545775245
 31
0.0
  0
INSERT
  5
698B
330
61F9
100
AcDbEntity
  8
寸法
  6
Continuous
 62
     4
370
    -2
100
AcDbBlockReference
  2
_Dot
 10
1360.189564373415
 20
587.0215545775245
 30
0.0
 50
180.0
  0
INSERT
  5
698C
330
61F9
100
AcDbEntity
  8
寸法
  6
Continuous
 62
     4
370
    -2
100
AcDbBlockReference
  2
_Dot
 10
1375.189564373415
 20
587.0215545775245
 30
0.0
  0
MTEXT
  5
698D
330
61F9
100
AcDbEntity
  8
寸法
  6
Continuous
 62
     3
100
AcDbMText
 10
1367.689564373415
 20
589.5215545775244
 30
0.0
 40
3.0
 41
0.0
 71
     5
 72
     1
  1
\A1;15
  7
ACAD
 73
     1
 44
1.0
1001
ACAD
1000
MTEXTBEGIN
1070
    73
1070
     1
1070
    44
1040
1.0
1070
    74
1070
     0
1000
MTEXTEND
  0
POINT
  5
698E
330
61F9
100
AcDbEntity
  8
Defpoints
  6
Continuous
 62
     0
100
AcDbPoint
 10
1360.189564373415
 20
605.5960285775245
 30
0.0
  0
POINT
  5
698F
330
61F9
100
AcDbEntity
  8
Defpoints
  6
Continuous
 62
     0
100
AcDbPoint
 10
1375.189564373415
 20
606.3960145775245
 30
0.0
  0
POINT
  5
6990
330
61F9
100
AcDbEntity
  8
Defpoints
  6
Continuous
 62
     0
100
AcDbPoint
 10
1375.189564373415
 20
587.0215545775245
 30
0.0
  0
ENDBLK
  5
6204
330
61F9
100
AcDbEntity
  8
0
100
AcDbBlockEnd
  0
BLOCK
  5
6210
330
6206
100
AcDbEntity
  8
0
100
AcDbBlockBegin
  2
*D15
 70
     1
 10
0.0
 20
0.0
 30
0.0
  3
*D15
  1

  0
LINE
  5
6991
330
6206
100
AcDbEntity
  8
寸法
  6
Continuous
 62
     4
370
    -2
100
AcDbLine
 10
1255.189564373415
 20
605.9526115775245
 30
0.0
 11
1255.189564373415
 21
587.0215545775245
 31
0.0
  0
LINE
  5
6992
330
6206
100
AcDbEntity
  8
寸法
  6
Continuous
 62
     4
370
    -2
100
AcDbLine
 10
1360.189564373415
 20
605.5960285775245
 30
0.0
 11
1360.189564373415
 21
587.0215545775245
 31
0.0
  0
LINE
  5
6993
330
6206
100
AcDbEntity
  8
寸法
  6
Continuous
 62
     4
370
    -2
100
AcDbLine
 10
1256.189564373415
 20
587.0215545775245
 30
0.0
 11
1359.189564373415
 21
587.0215545775245
 31
0.0
  0
INSERT
  5
6994
330
6206
100
AcDbEntity
  8
寸法
  6
Continuous
 62
     4
370
    -2
100
AcDbBlockReference
  2
_Dot
 10
1255.189564373415
 20
587.0215545775245
 30
0.0
 50
180.0
  0
INSERT
  5
6995
330
6206
100
AcDbEntity
  8
寸法
  6
Continuous
 62
     4
370
    -2
100
AcDbBlockReference
  2
_Dot
 10
1360.189564373415
 20
587.0215545775245
 30
0.0
  0
MTEXT
  5
6996
330
6206
100
AcDbEntity
  8
寸法
  6
Continuous
 62
     3
100
AcDbMText
 10
1307.689564373415
 20
589.5215545775244
 30
0.0
 40
3.0
 41
0.0
 71
     5
 72
     1
  1
\A1;105
  7
ACAD
 73
     1
 44
1.0
1001
ACAD
1000
MTEXTBEGIN
1070
    73
1070
     1
1070
    44
1040
1.0
1070
    74
1070
     0
1000
MTEXTEND
  0
POINT
  5
6997
330
6206
100
AcDbEntity
  8
Defpoints
  6
Continuous
 62
     0
100
AcDbPoint
 10
1255.189564373415
 20
605.9526115775245
 30
0.0
  0
POINT
  5
6998
330
6206
100
AcDbEntity
  8
Defpoints
  6
Continuous
 62
     0
100
AcDbPoint
 10
1360.189564373415
 20
605.5960285775245
 30
0.0
  0
POINT
  5
6999
330
6206
100
AcDbEntity
  8
Defpoints
  6
Continuous
 62
     0
100
AcDbPoint
 10
1360.189564373415
 20
587.0215545775245
 30
0.0
  0
ENDBLK
  5
6211
330
6206
100
AcDbEntity
  8
0
100
AcDbBlockEnd
  0
BLOCK
  5
622A
330
6220
100
AcDbEntity
  8
0
100
AcDbBlockBegin
  2
*D16
 70
     1
 10
0.0
 20
0.0
 30
0.0
  3
*D16
  1

  0
LINE
  5
699A
330
6220
100
AcDbEntity
  8
寸法
  6
Continuous
 62
     4
370
    -2
100
AcDbLine
 10
1379.819266373415
 20
608.4081625775244
 30
0.0
 11
1382.639259373415
 21
608.4081625775244
 31
0.0
  0
LINE
  5
699B
330
6220
100
AcDbEntity
  8
寸法
  6
Continuous
 62
     4
370
    -2
100
AcDbLine
 10
1378.784890373416
 20
616.4081625775244
 30
0.0
 11
1382.639259373415
 21
616.4081625775244
 31
0.0
  0
LINE
  5
699C
330
6220
100
AcDbEntity
  8
寸法
  6
Continuous
 62
     4
370
    -2
100
AcDbLine
 10
1382.639259373415
 20
609.4081625775244
 30
0.0
 11
1382.639259373415
 21
615.4081625775244
 31
0.0
  0
INSERT
  5
699D
330
6220
100
AcDbEntity
  8
寸法
  6
Continuous
 62
     4
370
    -2
100
AcDbBlockReference
  2
_Dot
 10
1382.639259373415
 20
608.4081625775244
 30
0.0
 50
270.0
  0
INSERT
  5
699E
330
6220
100
AcDbEntity
  8
寸法
  6
Continuous
 62
     4
370
    -2
100
AcDbBlockReference
  2
_Dot
 10
1382.639259373415
 20
616.4081625775244
 30
0.0
 50
90.0
  0
MTEXT
  5
699F
330
6220
100
AcDbEntity
  8
寸法
  6
Continuous
 62
     3
100
AcDbMText
 10
1380.139259373415
 20
612.4081625775247
 30
0.0
 40
3.0
 41
0.0
 71
     5
 72
     1
  1
\A1;8
  7
ACAD
 11
0.0000000000000001
 21
1.0
 31
0.0
 73
     1
 44
1.0
1001
ACAD
1000
MTEXTBEGIN
1070
    73
1070
     1
1070
    44
1040
1.0
1070
    74
1070
     0
1000
MTEXTEND
  0
POINT
  5
69A0
330
6220
100
AcDbEntity
  8
Defpoints
  6
Continuous
 62
     0
100
AcDbPoint
 10
1379.819266373415
 20
608.4081625775244
 30
0.0
  0
POINT
  5
69A1
330
6220
100
AcDbEntity
  8
Defpoints
  6
Continuous
 62
     0
100
AcDbPoint
 10
1378.784890373416
 20
616.4081625775244
 30
0.0
  0
POINT
  5
69A2
330
6220
100
AcDbEntity
  8
Defpoints
  6
Continuous
 62
     0
100
AcDbPoint
 10
1382.639259373415
 20
616.4081625775244
 30
0.0
  0
ENDBLK
  5
622B
330
6220
100
AcDbEntity
  8
0
100
AcDbBlockEnd
  0
BLOCK
  5
6238
330
622D
100
AcDbEntity
  8
0
100
AcDbBlockBegin
  2
*D17
 70
     1
 10
0.0
 20
0.0
 30
0.0
  3
*D17
  1

  0
LINE
  5
69A3
330
622D
100
AcDbEntity
  8
寸法
  6
Continuous
 62
     4
370
    -2
100
AcDbLine
 10
1374.254146373415
 20
619.4081625775244
 30
0.0
 11
1382.639259373415
 21
619.4081625775244
 31
0.0
  0
LINE
  5
69A4
330
622D
100
AcDbEntity
  8
寸法
  6
Continuous
 62
     4
370
    -2
100
AcDbLine
 10
1373.374311373416
 20
622.4081625775244
 30
0.0
 11
1382.639259373415
 21
622.4081625775244
 31
0.0
  0
LINE
  5
69A5
330
622D
100
AcDbEntity
  8
寸法
  6
Continuous
 62
     4
370
    -2
100
AcDbLine
 10
1382.639259373415
 20
618.4081625775244
 30
0.0
 11
1382.639259373415
 21
617.4081625775244
 31
0.0
  0
LINE
  5
69A6
330
622D
100
AcDbEntity
  8
寸法
  6
Continuous
 62
     4
370
    -2
100
AcDbLine
 10
1382.639259373415
 20
623.4081625775244
 30
0.0
 11
1382.639259373415
 21
624.4081625775244
 31
0.0
  0
INSERT
  5
69A7
330
622D
100
AcDbEntity
  8
寸法
  6
Continuous
 62
     4
370
    -2
100
AcDbBlockReference
  2
_Dot
 10
1382.639259373415
 20
619.4081625775244
 30
0.0
 50
90.0
  0
INSERT
  5
69A8
330
622D
100
AcDbEntity
  8
寸法
  6
Continuous
 62
     4
370
    -2
100
AcDbBlockReference
  2
_Dot
 10
1382.639259373415
 20
622.4081625775244
 30
0.0
 50
270.0
  0
MTEXT
  5
69A9
330
622D
100
AcDbEntity
  8
寸法
  6
Continuous
 62
     3
100
AcDbMText
 10
1380.139259373415
 20
620.9081625775247
 30
0.0
 40
3.0
 41
0.0
 71
     5
 72
     1
  1
\A1;3
  7
ACAD
 11
0.0000000000000001
 21
1.0
 31
0.0
 73
     1
 44
1.0
1001
ACAD
1000
MTEXTBEGIN
1070
    73
1070
     1
1070
    44
1040
1.0
1070
    74
1070
     0
1000
MTEXTEND
  0
POINT
  5
69AA
330
622D
100
AcDbEntity
  8
Defpoints
  6
Continuous
 62
     0
100
AcDbPoint
 10
1374.254146373415
 20
619.4081625775244
 30
0.0
  0
POINT
  5
69AB
330
622D
100
AcDbEntity
  8
Defpoints
  6
Continuous
 62
     0
100
AcDbPoint
 10
1373.374311373416
 20
622.4081625775244
 30
0.0
  0
POINT
  5
69AC
330
622D
100
AcDbEntity
  8
Defpoints
  6
Continuous
 62
     0
100
AcDbPoint
 10
1382.639259373415
 20
622.4081625775244
 30
0.0
  0
ENDBLK
  5
6239
330
622D
100
AcDbEntity
  8
0
100
AcDbBlockEnd
  0
BLOCK
  5
6245
330
623B
100
AcDbEntity
  8
0
100
AcDbBlockBegin
  2
*D18
 70
     1
 10
0.0
 20
0.0
 30
0.0
  3
*D18
  1

  0
LINE
  5
69AD
330
623B
100
AcDbEntity
  8
寸法
  6
Continuous
 62
     4
370
    -2
100
AcDbLine
 10
1382.889259373415
 20
608.4081625775244
 30
0.0
 11
1404.322107373416
 21
608.4081625775244
 31
0.0
  0
LINE
  5
69AE
330
623B
100
AcDbEntity
  8
寸法
  6
Continuous
 62
     4
370
    -2
100
AcDbLine
 10
1373.374311373416
 20
622.4081625775244
 30
0.0
 11
1404.322107373416
 21
622.4081625775244
 31
0.0
  0
LINE
  5
69AF
330
623B
100
AcDbEntity
  8
寸法
  6
Continuous
 62
     4
370
    -2
100
AcDbLine
 10
1404.322107373416
 20
609.4081625775244
 30
0.0
 11
1404.322107373416
 21
621.4081625775244
 31
0.0
  0
INSERT
  5
69B0
330
623B
100
AcDbEntity
  8
寸法
  6
Continuous
 62
     4
370
    -2
100
AcDbBlockReference
  2
_Dot
 10
1404.322107373416
 20
608.4081625775244
 30
0.0
 50
270.0
  0
INSERT
  5
69B1
330
623B
100
AcDbEntity
  8
寸法
  6
Continuous
 62
     4
370
    -2
100
AcDbBlockReference
  2
_Dot
 10
1404.322107373416
 20
622.4081625775244
 30
0.0
 50
90.0
  0
MTEXT
  5
69B2
330
623B
100
AcDbEntity
  8
寸法
  6
Continuous
 62
     3
100
AcDbMText
 10
1401.822107373415
 20
615.4081625775246
 30
0.0
 40
3.0
 41
0.0
 71
     5
 72
     1
  1
\A1;14
  7
ACAD
 11
0.0000000000000001
 21
1.0
 31
0.0
 73
     1
 44
1.0
1001
ACAD
1000
MTEXTBEGIN
1070
    73
1070
     1
1070
    44
1040
1.0
1070
    74
1070
     0
1000
MTEXTEND
  0
POINT
  5
69B3
330
623B
100
AcDbEntity
  8
Defpoints
  6
Continuous
 62
     0
100
AcDbPoint
 10
1382.889259373415
 20
608.4081625775244
 30
0.0
  0
POINT
  5
69B4
330
623B
100
AcDbEntity
  8
Defpoints
  6
Continuous
 62
     0
100
AcDbPoint
 10
1373.374311373416
 20
622.4081625775244
 30
0.0
  0
POINT
  5
69B5
330
623B
100
AcDbEntity
  8
Defpoints
  6
Continuous
 62
     0
100
AcDbPoint
 10
1404.322107373416
 20
622.4081625775244
 30
0.0
  0
ENDBLK
  5
6246
330
623B
100
AcDbEntity
  8
0
100
AcDbBlockEnd
  0
BLOCK
  5
6252
330
6248
100
AcDbEntity
  8
0
100
AcDbBlockBegin
  2
*D19
 70
     1
 10
0.0
 20
0.0
 30
0.0
  3
*D19
  1

  0
LINE
  5
6BE9
330
6248
100
AcDbEntity
  8
寸法
  6
Continuous
 62
     4
370
    -2
100
AcDbLine
 10
1353.189564373415
 20
616.4081625775244
 30
0.0
 11
1349.137040502894
 21
616.4081625775244
 31
0.0
  0
LINE
  5
6BEA
330
6248
100
AcDbEntity
  8
寸法
  6
Continuous
 62
     4
370
    -2
100
AcDbLine
 10
1353.189564373415
 20
621.3081625775243
 30
0.0
 11
1349.137040502894
 21
621.3081625775243
 31
0.0
  0
LINE
  5
6BEB
330
6248
100
AcDbEntity
  8
寸法
  6
Continuous
 62
     4
370
    -2
100
AcDbLine
 10
1349.137040502894
 20
617.4081625775244
 30
0.0
 11
1349.137040502894
 21
620.3081625775244
 31
0.0
  0
INSERT
  5
6BEC
330
6248
100
AcDbEntity
  8
寸法
  6
Continuous
 62
     4
370
    -2
100
AcDbBlockReference
  2
_Dot
 10
1349.137040502894
 20
616.4081625775244
 30
0.0
 50
270.0
  0
INSERT
  5
6BED
330
6248
100
AcDbEntity
  8
寸法
  6
Continuous
 62
     4
370
    -2
100
AcDbBlockReference
  2
_Dot
 10
1349.137040502894
 20
621.3081625775243
 30
0.0
 50
90.0
  0
MTEXT
  5
6BEE
330
6248
100
AcDbEntity
  8
寸法
  6
Continuous
 62
     3
100
AcDbMText
 10
1345.851326217179
 20
618.8581625775246
 30
0.0
 40
3.0
 41
0.0
 71
     5
 72
     1
  1
\A1;(5)
  7
ACAD
 11
0.0000000000000001
 21
1.0
 31
0.0
 73
     1
 44
1.0
1001
ACAD
1000
MTEXTBEGIN
1070
    73
1070
     1
1070
    44
1040
1.0
1070
    74
1070
     0
1000
MTEXTEND
  0
POINT
  5
6BEF
330
6248
100
AcDbEntity
  8
Defpoints
  6
Continuous
 62
     0
100
AcDbPoint
 10
1353.189564373415
 20
616.4081625775244
 30
0.0
  0
POINT
  5
6BF0
330
6248
100
AcDbEntity
  8
Defpoints
  6
Continuous
 62
     0
100
AcDbPoint
 10
1353.189564373415
 20
621.3081625775243
 30
0.0
  0
POINT
  5
6BF1
330
6248
100
AcDbEntity
  8
Defpoints
  6
Continuous
 62
     0
100
AcDbPoint
 10
1349.137040502894
 20
621.3081625775243
 30
0.0
  0
ENDBLK
  5
6253
330
6248
100
AcDbEntity
  8
0
100
AcDbBlockEnd
  0
BLOCK
  5
626A
330
625F
100
AcDbEntity
  8
0
100
AcDbBlockBegin
  2
*D20
 70
     1
 10
0.0
 20
0.0
 30
0.0
  3
*D20
  1

  0
LINE
  5
69C0
330
625F
100
AcDbEntity
  8
寸法
  6
Continuous
 62
     4
370
    -2
100
AcDbLine
 10
1354.189564373415
 20
623.4608335775244
 30
0.0
 11
1354.189564373415
 21
629.8111685775244
 31
0.0
  0
LINE
  5
69C1
330
625F
100
AcDbEntity
  8
寸法
  6
Continuous
 62
     4
370
    -2
100
AcDbLine
 10
1355.189564373415
 20
623.5628205775245
 30
0.0
 11
1355.189564373415
 21
629.8111685775244
 31
0.0
  0
LINE
  5
69C2
330
625F
100
AcDbEntity
  8
寸法
  6
Continuous
 62
     4
370
    -2
100
AcDbLine
 10
1353.189564373415
 20
629.8111685775244
 30
0.0
 11
1352.189564373415
 21
629.8111685775244
 31
0.0
  0
LINE
  5
69C3
330
625F
100
AcDbEntity
  8
寸法
  6
Continuous
 62
     4
370
    -2
100
AcDbLine
 10
1356.189564373415
 20
629.8111685775244
 30
0.0
 11
1357.189564373415
 21
629.8111685775244
 31
0.0
  0
INSERT
  5
69C4
330
625F
100
AcDbEntity
  8
寸法
  6
Continuous
 62
     4
370
    -2
100
AcDbBlockReference
  2
_Dot
 10
1354.189564373415
 20
629.8111685775244
 30
0.0
  0
INSERT
  5
69C5
330
625F
100
AcDbEntity
  8
寸法
  6
Continuous
 62
     4
370
    -2
100
AcDbBlockReference
  2
_Dot
 10
1355.189564373415
 20
629.8111685775244
 30
0.0
 50
180.0
  0
MTEXT
  5
69C6
330
625F
100
AcDbEntity
  8
寸法
  6
Continuous
 62
     3
100
AcDbMText
 10
1354.689564373416
 20
633.0968828632387
 30
0.0
 40
3.0
 41
0.0
 71
     5
 72
     1
  1
\A1;(1)
  7
ACAD
 73
     1
 44
1.0
1001
ACAD
1000
MTEXTBEGIN
1070
    73
1070
     1
1070
    44
1040
1.0
1070
    74
1070
     0
1000
MTEXTEND
  0
POINT
  5
69C7
330
625F
100
AcDbEntity
  8
Defpoints
  6
Continuous
 62
     0
100
AcDbPoint
 10
1354.189564373415
 20
623.4608335775244
 30
0.0
  0
POINT
  5
69C8
330
625F
100
AcDbEntity
  8
Defpoints
  6
Continuous
 62
     0
100
AcDbPoint
 10
1355.189564373415
 20
623.5628205775245
 30
0.0
  0
POINT
  5
69C9
330
625F
100
AcDbEntity
  8
Defpoints
  6
Continuous
 62
     0
100
AcDbPoint
 10
1355.189564373415
 20
629.8111685775244
 30
0.0
  0
ENDBLK
  5
626B
330
625F
100
AcDbEntity
  8
0
100
AcDbBlockEnd
  0
BLOCK
  5
6281
330
6277
100
AcDbEntity
  8
0
100
AcDbBlockBegin
  2
*D21
 70
     1
 10
0.0
 20
0.0
 30
0.0
  3
*D21
  1

  0
LINE
  5
69CA
330
6277
100
AcDbEntity
  8
寸法
  6
Continuous
 62
     4
370
    -2
100
AcDbLine
 10
1354.189564373415
 20
623.4608335775244
 30
0.0
 11
1354.189564373415
 21
635.7254995775244
 31
0.0
  0
LINE
  5
69CB
330
6277
100
AcDbEntity
  8
寸法
  6
Continuous
 62
     4
370
    -2
100
AcDbLine
 10
1360.189564373415
 20
620.5221635775244
 30
0.0
 11
1360.189564373415
 21
635.7254995775244
 31
0.0
  0
LINE
  5
69CC
330
6277
100
AcDbEntity
  8
寸法
  6
Continuous
 62
     4
370
    -2
100
AcDbLine
 10
1355.189564373415
 20
635.7254995775244
 30
0.0
 11
1359.189564373415
 21
635.7254995775244
 31
0.0
  0
INSERT
  5
69CD
330
6277
100
AcDbEntity
  8
寸法
  6
Continuous
 62
     4
370
    -2
100
AcDbBlockReference
  2
_Dot
 10
1354.189564373415
 20
635.7254995775244
 30
0.0
 50
180.0
  0
INSERT
  5
69CE
330
6277
100
AcDbEntity
  8
寸法
  6
Continuous
 62
     4
370
    -2
100
AcDbBlockReference
  2
_Dot
 10
1360.189564373415
 20
635.7254995775244
 30
0.0
  0
MTEXT
  5
69CF
330
6277
100
AcDbEntity
  8
寸法
  6
Continuous
 62
     3
100
AcDbMText
 10
1357.189564373415
 20
638.2254995775245
 30
0.0
 40
3.0
 41
0.0
 71
     5
 72
     1
  1
\A1;6
  7
ACAD
 73
     1
 44
1.0
1001
ACAD
1000
MTEXTBEGIN
1070
    73
1070
     1
1070
    44
1040
1.0
1070
    74
1070
     0
1000
MTEXTEND
  0
POINT
  5
69D0
330
6277
100
AcDbEntity
  8
Defpoints
  6
Continuous
 62
     0
100
AcDbPoint
 10
1354.189564373415
 20
623.4608335775244
 30
0.0
  0
POINT
  5
69D1
330
6277
100
AcDbEntity
  8
Defpoints
  6
Continuous
 62
     0
100
AcDbPoint
 10
1360.189564373415
 20
620.5221635775244
 30
0.0
  0
POINT
  5
69D2
330
6277
100
AcDbEntity
  8
Defpoints
  6
Continuous
 62
     0
100
AcDbPoint
 10
1360.189564373415
 20
635.7254995775244
 30
0.0
  0
ENDBLK
  5
6282
330
6277
100
AcDbEntity
  8
0
100
AcDbBlockEnd
  0
BLOCK
  5
628E
330
6284
100
AcDbEntity
  8
0
100
AcDbBlockBegin
  2
*D22
 70
     1
 10
0.0
 20
0.0
 30
0.0
  3
*D22
  1

  0
LINE
  5
69D3
330
6284
100
AcDbEntity
  8
寸法
  6
Continuous
 62
     4
370
    -2
100
AcDbLine
 10
1360.189564373415
 20
620.5221635775244
 30
0.0
 11
1360.189564373415
 21
635.7254995775244
 31
0.0
  0
LINE
  5
69D4
330
6284
100
AcDbEntity
  8
寸法
  6
Continuous
 62
     4
370
    -2
100
AcDbLine
 10
1372.189564373415
 20
623.8112815775244
 30
0.0
 11
1372.189564373415
 21
635.7254995775244
 31
0.0
  0
LINE
  5
69D5
330
6284
100
AcDbEntity
  8
寸法
  6
Continuous
 62
     4
370
    -2
100
AcDbLine
 10
1361.189564373415
 20
635.7254995775244
 30
0.0
 11
1371.189564373415
 21
635.7254995775244
 31
0.0
  0
INSERT
  5
69D6
330
6284
100
AcDbEntity
  8
寸法
  6
Continuous
 62
     4
370
    -2
100
AcDbBlockReference
  2
_Dot
 10
1360.189564373415
 20
635.7254995775244
 30
0.0
 50
180.0
  0
INSERT
  5
69D7
330
6284
100
AcDbEntity
  8
寸法
  6
Continuous
 62
     4
370
    -2
100
AcDbBlockReference
  2
_Dot
 10
1372.189564373415
 20
635.7254995775244
 30
0.0
  0
MTEXT
  5
69D8
330
6284
100
AcDbEntity
  8
寸法
  6
Continuous
 62
     3
100
AcDbMText
 10
1366.189564373415
 20
638.2254995775245
 30
0.0
 40
3.0
 41
0.0
 71
     5
 72
     1
  1
\A1;12
  7
ACAD
 73
     1
 44
1.0
1001
ACAD
1000
MTEXTBEGIN
1070
    73
1070
     1
1070
    44
1040
1.0
1070
    74
1070
     0
1000
MTEXTEND
  0
POINT
  5
69D9
330
6284
100
AcDbEntity
  8
Defpoints
  6
Continuous
 62
     0
100
AcDbPoint
 10
1360.189564373415
 20
620.5221635775244
 30
0.0
  0
POINT
  5
69DA
330
6284
100
AcDbEntity
  8
Defpoints
  6
Continuous
 62
     0
100
AcDbPoint
 10
1372.189564373415
 20
623.8112815775244
 30
0.0
  0
POINT
  5
69DB
330
6284
100
AcDbEntity
  8
Defpoints
  6
Continuous
 62
     0
100
AcDbPoint
 10
1372.189564373415
 20
635.7254995775244
 30
0.0
  0
ENDBLK
  5
628F
330
6284
100
AcDbEntity
  8
0
100
AcDbBlockEnd
  0
BLOCK
  5
6299
330
6291
100
AcDbEntity
  8
0
100
AcDbBlockBegin
  2
*D23
 70
     1
 10
0.0
 20
0.0
 30
0.0
  3
*D23
  1

  0
LINE
  5
6BE2
330
6291
100
AcDbEntity
  8
寸法
  6
Continuous
 62
     4
370
    -2
100
AcDbLine
 10
1367.589564373415
 20
629.7556395775244
 30
0.0
 11
1371.189564373415
 21
629.7556395775244
 31
0.0
  0
INSERT
  5
6BE3
330
6291
100
AcDbEntity
  8
寸法
  6
Continuous
 62
     4
370
    -2
100
AcDbBlockReference
  2
_Dot
 10
1366.589564373416
 20
629.7556395775244
 30
0.0
 50
180.0
  0
INSERT
  5
6BE4
330
6291
100
AcDbEntity
  8
寸法
  6
Continuous
 62
     4
370
    -2
100
AcDbBlockReference
  2
_Dot
 10
1372.189564373415
 20
629.7556395775244
 30
0.0
  0
MTEXT
  5
6BE5
330
6291
100
AcDbEntity
  8
寸法
  6
Continuous
 62
     3
100
AcDbMText
 10
1369.389564373415
 20
632.2556395775244
 30
0.0
 40
3.0
 41
0.0
 71
     5
 72
     1
  1
\A1;5.6
  7
ACAD
 73
     1
 44
1.0
1001
ACAD
1000
MTEXTBEGIN
1070
    73
1070
     1
1070
    44
1040
1.0
1070
    74
1070
     0
1000
MTEXTEND
  0
POINT
  5
6BE6
330
6291
100
AcDbEntity
  8
Defpoints
  6
Continuous
 62
     0
100
AcDbPoint
 10
1366.589564373416
 20
629.7556395775244
 30
0.0
  0
POINT
  5
6BE7
330
6291
100
AcDbEntity
  8
Defpoints
  6
Continuous
 62
     0
100
AcDbPoint
 10
1372.189564373415
 20
629.7556395775244
 30
0.0
  0
POINT
  5
6BE8
330
6291
100
AcDbEntity
  8
Defpoints
  6
Continuous
 62
     0
100
AcDbPoint
 10
1372.189564373415
 20
629.7556395775244
 30
0.0
  0
ENDBLK
  5
629A
330
6291
100
AcDbEntity
  8
0
100
AcDbBlockEnd
  0
BLOCK
  5
62AE
330
62A4
100
AcDbEntity
  8
0
100
AcDbBlockBegin
  2
*D24
 70
     1
 10
0.0
 20
0.0
 30
0.0
  3
*D24
  1

  0
LINE
  5
69E4
330
62A4
100
AcDbEntity
  8
寸法
  6
Continuous
 62
     4
370
    -2
100
AcDbLine
 10
1461.068914373415
 20
608.6759225775245
 30
0.0
 11
1424.965947373415
 21
608.6759225775245
 31
0.0
  0
LINE
  5
69E5
330
62A4
100
AcDbEntity
  8
寸法
  6
Continuous
 62
     4
370
    -2
100
AcDbLine
 10
1433.965947373416
 20
616.6759225775244
 30
0.0
 11
1424.965947373415
 21
616.6759225775244
 31
0.0
  0
LINE
  5
69E6
330
62A4
100
AcDbEntity
  8
寸法
  6
Continuous
 62
     4
370
    -2
100
AcDbLine
 10
1424.965947373415
 20
609.6759225775245
 30
0.0
 11
1424.965947373415
 21
615.6759225775244
 31
0.0
  0
INSERT
  5
69E7
330
62A4
100
AcDbEntity
  8
寸法
  6
Continuous
 62
     4
370
    -2
100
AcDbBlockReference
  2
_Dot
 10
1424.965947373415
 20
608.6759225775245
 30
0.0
 50
270.0
  0
INSERT
  5
69E8
330
62A4
100
AcDbEntity
  8
寸法
  6
Continuous
 62
     4
370
    -2
100
AcDbBlockReference
  2
_Dot
 10
1424.965947373415
 20
616.6759225775244
 30
0.0
 50
90.0
  0
MTEXT
  5
69E9
330
62A4
100
AcDbEntity
  8
寸法
  6
Continuous
 62
     3
100
AcDbMText
 10
1422.465947373415
 20
612.6759225775247
 30
0.0
 40
3.0
 41
0.0
 71
     5
 72
     1
  1
\A1;8
  7
ACAD
 11
0.0000000000000001
 21
1.0
 31
0.0
 73
     1
 44
1.0
1001
ACAD
1000
MTEXTBEGIN
1070
    73
1070
     1
1070
    44
1040
1.0
1070
    74
1070
     0
1000
MTEXTEND
  0
POINT
  5
69EA
330
62A4
100
AcDbEntity
  8
Defpoints
  6
Continuous
 62
     0
100
AcDbPoint
 10
1461.068914373415
 20
608.6759225775245
 30
0.0
  0
POINT
  5
69EB
330
62A4
100
AcDbEntity
  8
Defpoints
  6
Continuous
 62
     0
100
AcDbPoint
 10
1433.965947373416
 20
616.6759225775244
 30
0.0
  0
POINT
  5
69EC
330
62A4
100
AcDbEntity
  8
Defpoints
  6
Continuous
 62
     0
100
AcDbPoint
 10
1424.965947373415
 20
616.6759225775244
 30
0.0
  0
ENDBLK
  5
62AF
330
62A4
100
AcDbEntity
  8
0
100
AcDbBlockEnd
  0
BLOCK
  5
62BC
330
62B1
100
AcDbEntity
  8
0
100
AcDbBlockBegin
  2
*D25
 70
     1
 10
0.0
 20
0.0
 30
0.0
  3
*D25
  1

  0
LINE
  5
69ED
330
62B1
100
AcDbEntity
  8
寸法
  6
Continuous
 62
     4
370
    -2
100
AcDbLine
 10
1433.965947373416
 20
616.6759225775244
 30
0.0
 11
1424.965947373415
 21
616.6759225775244
 31
0.0
  0
LINE
  5
69EE
330
62B1
100
AcDbEntity
  8
寸法
  6
Continuous
 62
     4
370
    -2
100
AcDbLine
 10
1433.965947373416
 20
621.1759225775245
 30
0.0
 11
1424.965947373415
 21
621.1759225775245
 31
0.0
  0
LINE
  5
69EF
330
62B1
100
AcDbEntity
  8
寸法
  6
Continuous
 62
     4
370
    -2
100
AcDbLine
 10
1424.965947373415
 20
615.6759225775244
 30
0.0
 11
1424.965947373415
 21
614.6759225775245
 31
0.0
  0
LINE
  5
69F0
330
62B1
100
AcDbEntity
  8
寸法
  6
Continuous
 62
     4
370
    -2
100
AcDbLine
 10
1424.965947373415
 20
622.1759225775245
 30
0.0
 11
1424.965947373415
 21
623.1759225775244
 31
0.0
  0
INSERT
  5
69F1
330
62B1
100
AcDbEntity
  8
寸法
  6
Continuous
 62
     4
370
    -2
100
AcDbBlockReference
  2
_Dot
 10
1424.965947373415
 20
616.6759225775244
 30
0.0
 50
90.0
  0
INSERT
  5
69F2
330
62B1
100
AcDbEntity
  8
寸法
  6
Continuous
 62
     4
370
    -2
100
AcDbBlockReference
  2
_Dot
 10
1424.965947373415
 20
621.1759225775245
 30
0.0
 50
270.0
  0
MTEXT
  5
69F3
330
62B1
100
AcDbEntity
  8
寸法
  6
Continuous
 62
     3
100
AcDbMText
 10
1422.465947373415
 20
618.9259225775247
 30
0.0
 40
3.0
 41
0.0
 71
     5
 72
     1
  1
\A1;4.5
  7
ACAD
 11
0.0000000000000001
 21
1.0
 31
0.0
 73
     1
 44
1.0
1001
ACAD
1000
MTEXTBEGIN
1070
    73
1070
     1
1070
    44
1040
1.0
1070
    74
1070
     0
1000
MTEXTEND
  0
POINT
  5
69F4
330
62B1
100
AcDbEntity
  8
Defpoints
  6
Continuous
 62
     0
100
AcDbPoint
 10
1433.965947373416
 20
616.6759225775244
 30
0.0
  0
POINT
  5
69F5
330
62B1
100
AcDbEntity
  8
Defpoints
  6
Continuous
 62
     0
100
AcDbPoint
 10
1433.965947373416
 20
621.1759225775245
 30
0.0
  0
POINT
  5
69F6
330
62B1
100
AcDbEntity
  8
Defpoints
  6
Continuous
 62
     0
100
AcDbPoint
 10
1424.965947373415
 20
621.1759225775245
 30
0.0
  0
ENDBLK
  5
62BD
330
62B1
100
AcDbEntity
  8
0
100
AcDbBlockEnd
  0
BLOCK
  5
62D3
330
62C9
100
AcDbEntity
  8
0
100
AcDbBlockBegin
  2
*D26
 70
     1
 10
0.0
 20
0.0
 30
0.0
  3
*D26
  1

  0
LINE
  5
69F7
330
62C9
100
AcDbEntity
  8
寸法
  6
Continuous
 62
     4
370
    -2
100
AcDbLine
 10
1436.965947373416
 20
614.3225965775244
 30
0.0
 11
1436.965947373416
 21
587.0215545775245
 31
0.0
  0
LINE
  5
69F8
330
62C9
100
AcDbEntity
  8
寸法
  6
Continuous
 62
     4
370
    -2
100
AcDbLine
 10
1463.965947373416
 20
604.9343435775244
 30
0.0
 11
1463.965947373416
 21
587.0215545775245
 31
0.0
  0
LINE
  5
69F9
330
62C9
100
AcDbEntity
  8
寸法
  6
Continuous
 62
     4
370
    -2
100
AcDbLine
 10
1437.965947373416
 20
587.0215545775245
 30
0.0
 11
1462.965947373415
 21
587.0215545775245
 31
0.0
  0
INSERT
  5
69FA
330
62C9
100
AcDbEntity
  8
寸法
  6
Continuous
 62
     4
370
    -2
100
AcDbBlockReference
  2
_Dot
 10
1436.965947373416
 20
587.0215545775245
 30
0.0
 50
180.0
  0
INSERT
  5
69FB
330
62C9
100
AcDbEntity
  8
寸法
  6
Continuous
 62
     4
370
    -2
100
AcDbBlockReference
  2
_Dot
 10
1463.965947373416
 20
587.0215545775245
 30
0.0
  0
MTEXT
  5
69FC
330
62C9
100
AcDbEntity
  8
寸法
  6
Continuous
 62
     3
100
AcDbMText
 10
1450.465947373416
 20
589.5215545775244
 30
0.0
 40
3.0
 41
0.0
 71
     5
 72
     1
  1
\A1;27
  7
ACAD
 73
     1
 44
1.0
1001
ACAD
1000
MTEXTBEGIN
1070
    73
1070
     1
1070
    44
1040
1.0
1070
    74
1070
     0
1000
MTEXTEND
  0
POINT
  5
69FD
330
62C9
100
AcDbEntity
  8
Defpoints
  6
Continuous
 62
     0
100
AcDbPoint
 10
1436.965947373416
 20
614.3225965775244
 30
0.0
  0
POINT
  5
69FE
330
62C9
100
AcDbEntity
  8
Defpoints
  6
Continuous
 62
     0
100
AcDbPoint
 10
1463.965947373416
 20
604.9343435775244
 30
0.0
  0
POINT
  5
69FF
330
62C9
100
AcDbEntity
  8
Defpoints
  6
Continuous
 62
     0
100
AcDbPoint
 10
1463.965947373416
 20
587.0215545775245
 30
0.0
  0
ENDBLK
  5
62D4
330
62C9
100
AcDbEntity
  8
0
100
AcDbBlockEnd
  0
BLOCK
  5
62E0
330
62D6
100
AcDbEntity
  8
0
100
AcDbBlockBegin
  2
*D27
 70
     1
 10
0.0
 20
0.0
 30
0.0
  3
*D27
  1

  0
LINE
  5
6A00
330
62D6
100
AcDbEntity
  8
寸法
  6
Continuous
 62
     4
370
    -2
100
AcDbLine
 10
1463.965947373416
 20
604.9343435775244
 30
0.0
 11
1463.965947373416
 21
596.6759225775245
 31
0.0
  0
LINE
  5
6A01
330
62D6
100
AcDbEntity
  8
寸法
  6
Continuous
 62
     4
370
    -2
100
AcDbLine
 10
1493.965947373415
 20
605.6759225775245
 30
0.0
 11
1493.965947373415
 21
596.6759225775245
 31
0.0
  0
LINE
  5
6A02
330
62D6
100
AcDbEntity
  8
寸法
  6
Continuous
 62
     4
370
    -2
100
AcDbLine
 10
1464.965947373416
 20
596.6759225775245
 30
0.0
 11
1492.965947373415
 21
596.6759225775245
 31
0.0
  0
INSERT
  5
6A03
330
62D6
100
AcDbEntity
  8
寸法
  6
Continuous
 62
     4
370
    -2
100
AcDbBlockReference
  2
_Dot
 10
1463.965947373416
 20
596.6759225775245
 30
0.0
 50
180.0
  0
INSERT
  5
6A04
330
62D6
100
AcDbEntity
  8
寸法
  6
Continuous
 62
     4
370
    -2
100
AcDbBlockReference
  2
_Dot
 10
1493.965947373415
 20
596.6759225775245
 30
0.0
  0
MTEXT
  5
6A05
330
62D6
100
AcDbEntity
  8
寸法
  6
Continuous
 62
     3
100
AcDbMText
 10
1478.965947373415
 20
599.1759225775244
 30
0.0
 40
3.0
 41
0.0
 71
     5
 72
     1
  1
\A1;30
  7
ACAD
 73
     1
 44
1.0
1001
ACAD
1000
MTEXTBEGIN
1070
    73
1070
     1
1070
    44
1040
1.0
1070
    74
1070
     0
1000
MTEXTEND
  0
POINT
  5
6A06
330
62D6
100
AcDbEntity
  8
Defpoints
  6
Continuous
 62
     0
100
AcDbPoint
 10
1463.965947373416
 20
604.9343435775244
 30
0.0
  0
POINT
  5
6A07
330
62D6
100
AcDbEntity
  8
Defpoints
  6
Continuous
 62
     0
100
AcDbPoint
 10
1493.965947373415
 20
605.6759225775245
 30
0.0
  0
POINT
  5
6A08
330
62D6
100
AcDbEntity
  8
Defpoints
  6
Continuous
 62
     0
100
AcDbPoint
 10
1493.965947373415
 20
596.6759225775245
 30
0.0
  0
ENDBLK
  5
62E1
330
62D6
100
AcDbEntity
  8
0
100
AcDbBlockEnd
  0
BLOCK
  5
62ED
330
62E3
100
AcDbEntity
  8
0
100
AcDbBlockBegin
  2
*D28
 70
     1
 10
0.0
 20
0.0
 30
0.0
  3
*D28
  1

  0
LINE
  5
6A09
330
62E3
100
AcDbEntity
  8
寸法
  6
Continuous
 62
     4
370
    -2
100
AcDbLine
 10
1493.965947373415
 20
605.6759225775245
 30
0.0
 11
1493.965947373415
 21
596.6759225775245
 31
0.0
  0
LINE
  5
6A0A
330
62E3
100
AcDbEntity
  8
寸法
  6
Continuous
 62
     4
370
    -2
100
AcDbLine
 10
1513.965947373415
 20
607.7772395775244
 30
0.0
 11
1513.965947373415
 21
596.6759225775245
 31
0.0
  0
LINE
  5
6A0B
330
62E3
100
AcDbEntity
  8
寸法
  6
Continuous
 62
     4
370
    -2
100
AcDbLine
 10
1494.965947373415
 20
596.6759225775245
 30
0.0
 11
1512.965947373415
 21
596.6759225775245
 31
0.0
  0
INSERT
  5
6A0C
330
62E3
100
AcDbEntity
  8
寸法
  6
Continuous
 62
     4
370
    -2
100
AcDbBlockReference
  2
_Dot
 10
1493.965947373415
 20
596.6759225775245
 30
0.0
 50
180.0
  0
INSERT
  5
6A0D
330
62E3
100
AcDbEntity
  8
寸法
  6
Continuous
 62
     4
370
    -2
100
AcDbBlockReference
  2
_Dot
 10
1513.965947373415
 20
596.6759225775245
 30
0.0
  0
MTEXT
  5
6A0E
330
62E3
100
AcDbEntity
  8
寸法
  6
Continuous
 62
     3
100
AcDbMText
 10
1503.965947373415
 20
599.1759225775244
 30
0.0
 40
3.0
 41
0.0
 71
     5
 72
     1
  1
\A1;20
  7
ACAD
 73
     1
 44
1.0
1001
ACAD
1000
MTEXTBEGIN
1070
    73
1070
     1
1070
    44
1040
1.0
1070
    74
1070
     0
1000
MTEXTEND
  0
POINT
  5
6A0F
330
62E3
100
AcDbEntity
  8
Defpoints
  6
Continuous
 62
     0
100
AcDbPoint
 10
1493.965947373415
 20
605.6759225775245
 30
0.0
  0
POINT
  5
6A10
330
62E3
100
AcDbEntity
  8
Defpoints
  6
Continuous
 62
     0
100
AcDbPoint
 10
1513.965947373415
 20
607.7772395775244
 30
0.0
  0
POINT
  5
6A11
330
62E3
100
AcDbEntity
  8
Defpoints
  6
Continuous
 62
     0
100
AcDbPoint
 10
1513.965947373415
 20
596.6759225775245
 30
0.0
  0
ENDBLK
  5
62EE
330
62E3
100
AcDbEntity
  8
0
100
AcDbBlockEnd
  0
BLOCK
  5
62FA
330
62F0
100
AcDbEntity
  8
0
100
AcDbBlockBegin
  2
*D29
 70
     1
 10
0.0
 20
0.0
 30
0.0
  3
*D29
  1

  0
LINE
  5
6A12
330
62F0
100
AcDbEntity
  8
寸法
  6
Continuous
 62
     4
370
    -2
100
AcDbLine
 10
1513.965947373415
 20
607.7772395775244
 30
0.0
 11
1513.965947373415
 21
596.6759225775245
 31
0.0
  0
LINE
  5
6A13
330
62F0
100
AcDbEntity
  8
寸法
  6
Continuous
 62
     4
370
    -2
100
AcDbLine
 10
1543.965947373415
 20
605.6759225775245
 30
0.0
 11
1543.965947373415
 21
596.6759225775245
 31
0.0
  0
LINE
  5
6A14
330
62F0
100
AcDbEntity
  8
寸法
  6
Continuous
 62
     4
370
    -2
100
AcDbLine
 10
1514.965947373415
 20
596.6759225775245
 30
0.0
 11
1542.965947373415
 21
596.6759225775245
 31
0.0
  0
INSERT
  5
6A15
330
62F0
100
AcDbEntity
  8
寸法
  6
Continuous
 62
     4
370
    -2
100
AcDbBlockReference
  2
_Dot
 10
1513.965947373415
 20
596.6759225775245
 30
0.0
 50
180.0
  0
INSERT
  5
6A16
330
62F0
100
AcDbEntity
  8
寸法
  6
Continuous
 62
     4
370
    -2
100
AcDbBlockReference
  2
_Dot
 10
1543.965947373415
 20
596.6759225775245
 30
0.0
  0
MTEXT
  5
6A17
330
62F0
100
AcDbEntity
  8
寸法
  6
Continuous
 62
     3
100
AcDbMText
 10
1528.965947373415
 20
599.1759225775244
 30
0.0
 40
3.0
 41
0.0
 71
     5
 72
     1
  1
\A1;30
  7
ACAD
 73
     1
 44
1.0
1001
ACAD
1000
MTEXTBEGIN
1070
    73
1070
     1
1070
    44
1040
1.0
1070
    74
1070
     0
1000
MTEXTEND
  0
POINT
  5
6A18
330
62F0
100
AcDbEntity
  8
Defpoints
  6
Continuous
 62
     0
100
AcDbPoint
 10
1513.965947373415
 20
607.7772395775244
 30
0.0
  0
POINT
  5
6A19
330
62F0
100
AcDbEntity
  8
Defpoints
  6
Continuous
 62
     0
100
AcDbPoint
 10
1543.965947373415
 20
605.6759225775245
 30
0.0
  0
POINT
  5
6A1A
330
62F0
100
AcDbEntity
  8
Defpoints
  6
Continuous
 62
     0
100
AcDbPoint
 10
1543.965947373415
 20
596.6759225775245
 30
0.0
  0
ENDBLK
  5
62FB
330
62F0
100
AcDbEntity
  8
0
100
AcDbBlockEnd
  0
BLOCK
  5
6307
330
62FD
100
AcDbEntity
  8
0
100
AcDbBlockBegin
  2
*D30
 70
     1
 10
0.0
 20
0.0
 30
0.0
  3
*D30
  1

  0
LINE
  5
6A1B
330
62FD
100
AcDbEntity
  8
寸法
  6
Continuous
 62
     4
370
    -2
100
AcDbLine
 10
1543.965947373415
 20
605.6759225775245
 30
0.0
 11
1543.965947373415
 21
587.0215545775245
 31
0.0
  0
LINE
  5
6A1C
330
62FD
100
AcDbEntity
  8
寸法
  6
Continuous
 62
     4
370
    -2
100
AcDbLine
 10
1563.965947373415
 20
606.7877985775244
 30
0.0
 11
1563.965947373415
 21
587.0215545775245
 31
0.0
  0
LINE
  5
6A1D
330
62FD
100
AcDbEntity
  8
寸法
  6
Continuous
 62
     4
370
    -2
100
AcDbLine
 10
1544.965947373415
 20
587.0215545775245
 30
0.0
 11
1562.965947373415
 21
587.0215545775245
 31
0.0
  0
INSERT
  5
6A1E
330
62FD
100
AcDbEntity
  8
寸法
  6
Continuous
 62
     4
370
    -2
100
AcDbBlockReference
  2
_Dot
 10
1543.965947373415
 20
587.0215545775245
 30
0.0
 50
180.0
  0
INSERT
  5
6A1F
330
62FD
100
AcDbEntity
  8
寸法
  6
Continuous
 62
     4
370
    -2
100
AcDbBlockReference
  2
_Dot
 10
1563.965947373415
 20
587.0215545775245
 30
0.0
  0
MTEXT
  5
6A20
330
62FD
100
AcDbEntity
  8
寸法
  6
Continuous
 62
     3
100
AcDbMText
 10
1553.965947373415
 20
589.5215545775244
 30
0.0
 40
3.0
 41
0.0
 71
     5
 72
     1
  1
\A1;20
  7
ACAD
 73
     1
 44
1.0
1001
ACAD
1000
MTEXTBEGIN
1070
    73
1070
     1
1070
    44
1040
1.0
1070
    74
1070
     0
1000
MTEXTEND
  0
POINT
  5
6A21
330
62FD
100
AcDbEntity
  8
Defpoints
  6
Continuous
 62
     0
100
AcDbPoint
 10
1543.965947373415
 20
605.6759225775245
 30
0.0
  0
POINT
  5
6A22
330
62FD
100
AcDbEntity
  8
Defpoints
  6
Continuous
 62
     0
100
AcDbPoint
 10
1563.965947373415
 20
606.7877985775244
 30
0.0
  0
POINT
  5
6A23
330
62FD
100
AcDbEntity
  8
Defpoints
  6
Continuous
 62
     0
100
AcDbPoint
 10
1563.965947373415
 20
587.0215545775245
 30
0.0
  0
ENDBLK
  5
6308
330
62FD
100
AcDbEntity
  8
0
100
AcDbBlockEnd
  0
BLOCK
  5
6314
330
630A
100
AcDbEntity
  8
0
100
AcDbBlockBegin
  2
*D31
 70
     1
 10
0.0
 20
0.0
 30
0.0
  3
*D31
  1

  0
LINE
  5
6A24
330
630A
100
AcDbEntity
  8
寸法
  6
Continuous
 62
     4
370
    -2
100
AcDbLine
 10
1543.965947373415
 20
605.6759225775245
 30
0.0
 11
1543.965947373415
 21
587.0215545775245
 31
0.0
  0
LINE
  5
6A25
330
630A
100
AcDbEntity
  8
寸法
  6
Continuous
 62
     4
370
    -2
100
AcDbLine
 10
1463.965947373416
 20
604.9343435775244
 30
0.0
 11
1463.965947373416
 21
587.0215545775245
 31
0.0
  0
LINE
  5
6A26
330
630A
100
AcDbEntity
  8
寸法
  6
Continuous
 62
     4
370
    -2
100
AcDbLine
 10
1542.965947373415
 20
587.0215545775245
 30
0.0
 11
1464.965947373416
 21
587.0215545775245
 31
0.0
  0
INSERT
  5
6A27
330
630A
100
AcDbEntity
  8
寸法
  6
Continuous
 62
     4
370
    -2
100
AcDbBlockReference
  2
_Dot
 10
1543.965947373415
 20
587.0215545775245
 30
0.0
  0
INSERT
  5
6A28
330
630A
100
AcDbEntity
  8
寸法
  6
Continuous
 62
     4
370
    -2
100
AcDbBlockReference
  2
_Dot
 10
1463.965947373416
 20
587.0215545775245
 30
0.0
 50
180.0
  0
MTEXT
  5
6A29
330
630A
100
AcDbEntity
  8
寸法
  6
Continuous
 62
     3
100
AcDbMText
 10
1503.965947373415
 20
589.5215545775244
 30
0.0
 40
3.0
 41
0.0
 71
     5
 72
     1
  1
\A1;80
  7
ACAD
 73
     1
 44
1.0
1001
ACAD
1000
MTEXTBEGIN
1070
    73
1070
     1
1070
    44
1040
1.0
1070
    74
1070
     0
1000
MTEXTEND
  0
POINT
  5
6A2A
330
630A
100
AcDbEntity
  8
Defpoints
  6
Continuous
 62
     0
100
AcDbPoint
 10
1543.965947373415
 20
605.6759225775245
 30
0.0
  0
POINT
  5
6A2B
330
630A
100
AcDbEntity
  8
Defpoints
  6
Continuous
 62
     0
100
AcDbPoint
 10
1463.965947373416
 20
604.9343435775244
 30
0.0
  0
POINT
  5
6A2C
330
630A
100
AcDbEntity
  8
Defpoints
  6
Continuous
 62
     0
100
AcDbPoint
 10
1463.965947373416
 20
587.0215545775245
 30
0.0
  0
ENDBLK
  5
6315
330
630A
100
AcDbEntity
  8
0
100
AcDbBlockEnd
  0
BLOCK
  5
6321
330
6317
100
AcDbEntity
  8
0
100
AcDbBlockBegin
  2
*D32
 70
     1
 10
0.0
 20
0.0
 30
0.0
  3
*D32
  1

  0
LINE
  5
6A2D
330
6317
100
AcDbEntity
  8
寸法
  6
Continuous
 62
     4
370
    -2
100
AcDbLine
 10
1546.935462373415
 20
608.6759225775245
 30
0.0
 11
1560.930140373416
 21
608.6759225775245
 31
0.0
  0
LINE
  5
6A2E
330
6317
100
AcDbEntity
  8
寸法
  6
Continuous
 62
     4
370
    -2
100
AcDbLine
 10
1561.259745873416
 20
616.6759225775244
 30
0.0
 11
1560.930140373416
 21
616.6759225775244
 31
0.0
  0
LINE
  5
6A2F
330
6317
100
AcDbEntity
  8
寸法
  6
Continuous
 62
     4
370
    -2
100
AcDbLine
 10
1560.930140373416
 20
609.6759225775245
 30
0.0
 11
1560.930140373416
 21
615.6759225775244
 31
0.0
  0
INSERT
  5
6A30
330
6317
100
AcDbEntity
  8
寸法
  6
Continuous
 62
     4
370
    -2
100
AcDbBlockReference
  2
_Dot
 10
1560.930140373416
 20
608.6759225775245
 30
0.0
 50
270.0
  0
INSERT
  5
6A31
330
6317
100
AcDbEntity
  8
寸法
  6
Continuous
 62
     4
370
    -2
100
AcDbBlockReference
  2
_Dot
 10
1560.930140373416
 20
616.6759225775244
 30
0.0
 50
90.0
  0
MTEXT
  5
6A32
330
6317
100
AcDbEntity
  8
寸法
  6
Continuous
 62
     3
100
AcDbMText
 10
1558.430140373415
 20
612.6759225775247
 30
0.0
 40
3.0
 41
0.0
 71
     5
 72
     1
  1
\A1;8
  7
ACAD
 11
0.0000000000000001
 21
1.0
 31
0.0
 73
     1
 44
1.0
1001
ACAD
1000
MTEXTBEGIN
1070
    73
1070
     1
1070
    44
1040
1.0
1070
    74
1070
     0
1000
MTEXTEND
  0
POINT
  5
6A33
330
6317
100
AcDbEntity
  8
Defpoints
  6
Continuous
 62
     0
100
AcDbPoint
 10
1546.935462373415
 20
608.6759225775245
 30
0.0
  0
POINT
  5
6A34
330
6317
100
AcDbEntity
  8
Defpoints
  6
Continuous
 62
     0
100
AcDbPoint
 10
1561.259745873416
 20
616.6759225775244
 30
0.0
  0
POINT
  5
6A35
330
6317
100
AcDbEntity
  8
Defpoints
  6
Continuous
 62
     0
100
AcDbPoint
 10
1560.930140373416
 20
616.6759225775244
 30
0.0
  0
ENDBLK
  5
6322
330
6317
100
AcDbEntity
  8
0
100
AcDbBlockEnd
  0
BLOCK
  5
632E
330
6324
100
AcDbEntity
  8
0
100
AcDbBlockBegin
  2
*D33
 70
     1
 10
0.0
 20
0.0
 30
0.0
  3
*D33
  1

  0
LINE
  5
6A36
330
6324
100
AcDbEntity
  8
寸法
  6
Continuous
 62
     4
370
    -2
100
AcDbLine
 10
1583.107443373416
 20
608.6759225775245
 30
0.0
 11
1590.357606373415
 21
608.6759225775245
 31
0.0
  0
LINE
  5
6A37
330
6324
100
AcDbEntity
  8
寸法
  6
Continuous
 62
     4
370
    -2
100
AcDbLine
 10
1564.965947373415
 20
622.6759225775245
 30
0.0
 11
1590.357606373415
 21
622.6759225775245
 31
0.0
  0
LINE
  5
6A38
330
6324
100
AcDbEntity
  8
寸法
  6
Continuous
 62
     4
370
    -2
100
AcDbLine
 10
1590.357606373415
 20
609.6759225775245
 30
0.0
 11
1590.357606373415
 21
621.6759225775245
 31
0.0
  0
INSERT
  5
6A39
330
6324
100
AcDbEntity
  8
寸法
  6
Continuous
 62
     4
370
    -2
100
AcDbBlockReference
  2
_Dot
 10
1590.357606373415
 20
608.6759225775245
 30
0.0
 50
270.0
  0
INSERT
  5
6A3A
330
6324
100
AcDbEntity
  8
寸法
  6
Continuous
 62
     4
370
    -2
100
AcDbBlockReference
  2
_Dot
 10
1590.357606373415
 20
622.6759225775245
 30
0.0
 50
90.0
  0
MTEXT
  5
6A3B
330
6324
100
AcDbEntity
  8
寸法
  6
Continuous
 62
     3
100
AcDbMText
 10
1587.857606373415
 20
615.6759225775247
 30
0.0
 40
3.0
 41
0.0
 71
     5
 72
     1
  1
\A1;14
  7
ACAD
 11
0.0000000000000001
 21
1.0
 31
0.0
 73
     1
 44
1.0
1001
ACAD
1000
MTEXTBEGIN
1070
    73
1070
     1
1070
    44
1040
1.0
1070
    74
1070
     0
1000
MTEXTEND
  0
POINT
  5
6A3C
330
6324
100
AcDbEntity
  8
Defpoints
  6
Continuous
 62
     0
100
AcDbPoint
 10
1583.107443373416
 20
608.6759225775245
 30
0.0
  0
POINT
  5
6A3D
330
6324
100
AcDbEntity
  8
Defpoints
  6
Continuous
 62
     0
100
AcDbPoint
 10
1564.965947373415
 20
622.6759225775245
 30
0.0
  0
POINT
  5
6A3E
330
6324
100
AcDbEntity
  8
Defpoints
  6
Continuous
 62
     0
100
AcDbPoint
 10
1590.357606373415
 20
622.6759225775245
 30
0.0
  0
ENDBLK
  5
632F
330
6324
100
AcDbEntity
  8
0
100
AcDbBlockEnd
  0
BLOCK
  5
633C
330
6331
100
AcDbEntity
  8
0
100
AcDbBlockBegin
  2
*D34
 70
     1
 10
0.0
 20
0.0
 30
0.0
  3
*D34
  1

  0
LINE
  5
6A3F
330
6331
100
AcDbEntity
  8
寸法
  6
Continuous
 62
     4
370
    -2
100
AcDbLine
 10
1556.886475373415
 20
619.6759225775244
 30
0.0
 11
1560.930140373416
 21
619.6759225775244
 31
0.0
  0
LINE
  5
6A40
330
6331
100
AcDbEntity
  8
寸法
  6
Continuous
 62
     4
370
    -2
100
AcDbLine
 10
1557.159106373416
 20
622.6759225775245
 30
0.0
 11
1560.930140373416
 21
622.6759225775245
 31
0.0
  0
LINE
  5
6A41
330
6331
100
AcDbEntity
  8
寸法
  6
Continuous
 62
     4
370
    -2
100
AcDbLine
 10
1560.930140373416
 20
618.6759225775245
 30
0.0
 11
1560.930140373416
 21
617.6759225775245
 31
0.0
  0
LINE
  5
6A42
330
6331
100
AcDbEntity
  8
寸法
  6
Continuous
 62
     4
370
    -2
100
AcDbLine
 10
1560.930140373416
 20
623.6759225775244
 30
0.0
 11
1560.930140373416
 21
624.6759225775244
 31
0.0
  0
INSERT
  5
6A43
330
6331
100
AcDbEntity
  8
寸法
  6
Continuous
 62
     4
370
    -2
100
AcDbBlockReference
  2
_Dot
 10
1560.930140373416
 20
619.6759225775244
 30
0.0
 50
90.0
  0
INSERT
  5
6A44
330
6331
100
AcDbEntity
  8
寸法
  6
Continuous
 62
     4
370
    -2
100
AcDbBlockReference
  2
_Dot
 10
1560.930140373416
 20
622.6759225775245
 30
0.0
 50
270.0
  0
MTEXT
  5
6A45
330
6331
100
AcDbEntity
  8
寸法
  6
Continuous
 62
     3
100
AcDbMText
 10
1558.430140373415
 20
621.1759225775247
 30
0.0
 40
3.0
 41
0.0
 71
     5
 72
     1
  1
\A1;3
  7
ACAD
 11
0.0000000000000001
 21
1.0
 31
0.0
 73
     1
 44
1.0
1001
ACAD
1000
MTEXTBEGIN
1070
    73
1070
     1
1070
    44
1040
1.0
1070
    74
1070
     0
1000
MTEXTEND
  0
POINT
  5
6A46
330
6331
100
AcDbEntity
  8
Defpoints
  6
Continuous
 62
     0
100
AcDbPoint
 10
1556.886475373415
 20
619.6759225775244
 30
0.0
  0
POINT
  5
6A47
330
6331
100
AcDbEntity
  8
Defpoints
  6
Continuous
 62
     0
100
AcDbPoint
 10
1557.159106373416
 20
622.6759225775245
 30
0.0
  0
POINT
  5
6A48
330
6331
100
AcDbEntity
  8
Defpoints
  6
Continuous
 62
     0
100
AcDbPoint
 10
1560.930140373416
 20
622.6759225775245
 30
0.0
  0
ENDBLK
  5
633D
330
6331
100
AcDbEntity
  8
0
100
AcDbBlockEnd
  0
BLOCK
  5
6349
330
633F
100
AcDbEntity
  8
0
100
AcDbBlockBegin
  2
*D35
 70
     1
 10
0.0
 20
0.0
 30
0.0
  3
*D35
  1

  0
LINE
  5
6A49
330
633F
100
AcDbEntity
  8
寸法
  6
Continuous
 62
     4
370
    -2
100
AcDbLine
 10
1533.965947373415
 20
616.6759225775244
 30
0.0
 11
1529.965947373415
 21
616.6759225775244
 31
0.0
  0
LINE
  5
6A4A
330
633F
100
AcDbEntity
  8
寸法
  6
Continuous
 62
     4
370
    -2
100
AcDbLine
 10
1533.965947373415
 20
621.6759225775245
 30
0.0
 11
1529.965947373415
 21
621.6759225775245
 31
0.0
  0
LINE
  5
6A4B
330
633F
100
AcDbEntity
  8
寸法
  6
Continuous
 62
     4
370
    -2
100
AcDbLine
 10
1529.965947373415
 20
617.6759225775245
 30
0.0
 11
1529.965947373415
 21
620.6759225775244
 31
0.0
  0
INSERT
  5
6A4C
330
633F
100
AcDbEntity
  8
寸法
  6
Continuous
 62
     4
370
    -2
100
AcDbBlockReference
  2
_Dot
 10
1529.965947373415
 20
616.6759225775244
 30
0.0
 50
270.0
  0
INSERT
  5
6A4D
330
633F
100
AcDbEntity
  8
寸法
  6
Continuous
 62
     4
370
    -2
100
AcDbBlockReference
  2
_Dot
 10
1529.965947373415
 20
621.6759225775245
 30
0.0
 50
90.0
  0
MTEXT
  5
6A4E
330
633F
100
AcDbEntity
  8
寸法
  6
Continuous
 62
     3
100
AcDbMText
 10
1527.465947373415
 20
619.1759225775247
 30
0.0
 40
3.0
 41
0.0
 71
     5
 72
     1
  1
\A1;5
  7
ACAD
 11
0.0000000000000001
 21
1.0
 31
0.0
 73
     1
 44
1.0
1001
ACAD
1000
MTEXTBEGIN
1070
    73
1070
     1
1070
    44
1040
1.0
1070
    74
1070
     0
1000
MTEXTEND
  0
POINT
  5
6A4F
330
633F
100
AcDbEntity
  8
Defpoints
  6
Continuous
 62
     0
100
AcDbPoint
 10
1533.965947373415
 20
616.6759225775244
 30
0.0
  0
POINT
  5
6A50
330
633F
100
AcDbEntity
  8
Defpoints
  6
Continuous
 62
     0
100
AcDbPoint
 10
1533.965947373415
 20
621.6759225775245
 30
0.0
  0
POINT
  5
6A51
330
633F
100
AcDbEntity
  8
Defpoints
  6
Continuous
 62
     0
100
AcDbPoint
 10
1529.965947373415
 20
621.6759225775245
 30
0.0
  0
ENDBLK
  5
634A
330
633F
100
AcDbEntity
  8
0
100
AcDbBlockEnd
  0
BLOCK
  5
6357
330
634C
100
AcDbEntity
  8
0
100
AcDbBlockBegin
  2
*D36
 70
     1
 10
0.0
 20
0.0
 30
0.0
  3
*D36
  1

  0
LINE
  5
6A52
330
634C
100
AcDbEntity
  8
寸法
  6
Continuous
 62
     4
370
    -2
100
AcDbLine
 10
1535.965947373415
 20
625.0053635775245
 30
0.0
 11
1535.965947373415
 21
629.1269055775244
 31
0.0
  0
LINE
  5
6A53
330
634C
100
AcDbEntity
  8
寸法
  6
Continuous
 62
     4
370
    -2
100
AcDbLine
 10
1536.965947373415
 20
624.9838605775244
 30
0.0
 11
1536.965947373415
 21
629.1269055775244
 31
0.0
  0
LINE
  5
6A54
330
634C
100
AcDbEntity
  8
寸法
  6
Continuous
 62
     4
370
    -2
100
AcDbLine
 10
1534.965947373415
 20
629.1269055775244
 30
0.0
 11
1533.965947373415
 21
629.1269055775244
 31
0.0
  0
LINE
  5
6A55
330
634C
100
AcDbEntity
  8
寸法
  6
Continuous
 62
     4
370
    -2
100
AcDbLine
 10
1537.965947373415
 20
629.1269055775244
 30
0.0
 11
1538.965947373415
 21
629.1269055775244
 31
0.0
  0
INSERT
  5
6A56
330
634C
100
AcDbEntity
  8
寸法
  6
Continuous
 62
     4
370
    -2
100
AcDbBlockReference
  2
_Dot
 10
1535.965947373415
 20
629.1269055775244
 30
0.0
  0
INSERT
  5
6A57
330
634C
100
AcDbEntity
  8
寸法
  6
Continuous
 62
     4
370
    -2
100
AcDbBlockReference
  2
_Dot
 10
1536.965947373415
 20
629.1269055775244
 30
0.0
 50
180.0
  0
MTEXT
  5
6A58
330
634C
100
AcDbEntity
  8
寸法
  6
Continuous
 62
     3
100
AcDbMText
 10
1536.465947373415
 20
632.4126198632387
 30
0.0
 40
3.0
 41
0.0
 71
     5
 72
     1
  1
\A1;(1)
  7
ACAD
 73
     1
 44
1.0
1001
ACAD
1000
MTEXTBEGIN
1070
    73
1070
     1
1070
    44
1040
1.0
1070
    74
1070
     0
1000
MTEXTEND
  0
POINT
  5
6A59
330
634C
100
AcDbEntity
  8
Defpoints
  6
Continuous
 62
     0
100
AcDbPoint
 10
1535.965947373415
 20
625.0053635775245
 30
0.0
  0
POINT
  5
6A5A
330
634C
100
AcDbEntity
  8
Defpoints
  6
Continuous
 62
     0
100
AcDbPoint
 10
1536.965947373415
 20
624.9838605775244
 30
0.0
  0
POINT
  5
6A5B
330
634C
100
AcDbEntity
  8
Defpoints
  6
Continuous
 62
     0
100
AcDbPoint
 10
1536.965947373415
 20
629.1269055775244
 30
0.0
  0
ENDBLK
  5
6358
330
634C
100
AcDbEntity
  8
0
100
AcDbBlockEnd
  0
BLOCK
  5
6364
330
635A
100
AcDbEntity
  8
0
100
AcDbBlockBegin
  2
*D37
 70
     1
 10
0.0
 20
0.0
 30
0.0
  3
*D37
  1

  0
LINE
  5
6A5C
330
635A
100
AcDbEntity
  8
寸法
  6
Continuous
 62
     4
370
    -2
100
AcDbLine
 10
1535.965947373415
 20
625.0053635775245
 30
0.0
 11
1535.965947373415
 21
635.1432375775244
 31
0.0
  0
LINE
  5
6A5D
330
635A
100
AcDbEntity
  8
寸法
  6
Continuous
 62
     4
370
    -2
100
AcDbLine
 10
1543.965947373415
 20
621.3888935775244
 30
0.0
 11
1543.965947373415
 21
635.1432375775244
 31
0.0
  0
LINE
  5
6A5E
330
635A
100
AcDbEntity
  8
寸法
  6
Continuous
 62
     4
370
    -2
100
AcDbLine
 10
1536.965947373415
 20
635.1432375775244
 30
0.0
 11
1542.965947373415
 21
635.1432375775244
 31
0.0
  0
INSERT
  5
6A5F
330
635A
100
AcDbEntity
  8
寸法
  6
Continuous
 62
     4
370
    -2
100
AcDbBlockReference
  2
_Dot
 10
1535.965947373415
 20
635.1432375775244
 30
0.0
 50
180.0
  0
INSERT
  5
6A60
330
635A
100
AcDbEntity
  8
寸法
  6
Continuous
 62
     4
370
    -2
100
AcDbBlockReference
  2
_Dot
 10
1543.965947373415
 20
635.1432375775244
 30
0.0
  0
MTEXT
  5
6A61
330
635A
100
AcDbEntity
  8
寸法
  6
Continuous
 62
     3
100
AcDbMText
 10
1539.965947373415
 20
637.6432375775245
 30
0.0
 40
3.0
 41
0.0
 71
     5
 72
     1
  1
\A1;8
  7
ACAD
 73
     1
 44
1.0
1001
ACAD
1000
MTEXTBEGIN
1070
    73
1070
     1
1070
    44
1040
1.0
1070
    74
1070
     0
1000
MTEXTEND
  0
POINT
  5
6A62
330
635A
100
AcDbEntity
  8
Defpoints
  6
Continuous
 62
     0
100
AcDbPoint
 10
1535.965947373415
 20
625.0053635775245
 30
0.0
  0
POINT
  5
6A63
330
635A
100
AcDbEntity
  8
Defpoints
  6
Continuous
 62
     0
100
AcDbPoint
 10
1543.965947373415
 20
621.3888935775244
 30
0.0
  0
POINT
  5
6A64
330
635A
100
AcDbEntity
  8
Defpoints
  6
Continuous
 62
     0
100
AcDbPoint
 10
1543.965947373415
 20
635.1432375775244
 30
0.0
  0
ENDBLK
  5
6365
330
635A
100
AcDbEntity
  8
0
100
AcDbBlockEnd
  0
BLOCK
  5
637E
330
6374
100
AcDbEntity
  8
0
100
AcDbBlockBegin
  2
*D38
 70
     1
 10
0.0
 20
0.0
 30
0.0
  3
*D38
  1

  0
LINE
  5
6A65
330
6374
100
AcDbEntity
  8
寸法
  6
Continuous
 62
     4
370
    -2
100
AcDbLine
 10
1543.965947373415
 20
621.3888935775244
 30
0.0
 11
1543.965947373415
 21
635.1432375775244
 31
0.0
  0
LINE
  5
6A66
330
6374
100
AcDbEntity
  8
寸法
  6
Continuous
 62
     4
370
    -2
100
AcDbLine
 10
1555.965947373415
 20
625.6759225775245
 30
0.0
 11
1555.965947373415
 21
635.1432375775244
 31
0.0
  0
LINE
  5
6A67
330
6374
100
AcDbEntity
  8
寸法
  6
Continuous
 62
     4
370
    -2
100
AcDbLine
 10
1544.965947373415
 20
635.1432375775244
 30
0.0
 11
1554.965947373415
 21
635.1432375775244
 31
0.0
  0
INSERT
  5
6A68
330
6374
100
AcDbEntity
  8
寸法
  6
Continuous
 62
     4
370
    -2
100
AcDbBlockReference
  2
_Dot
 10
1543.965947373415
 20
635.1432375775244
 30
0.0
 50
180.0
  0
INSERT
  5
6A69
330
6374
100
AcDbEntity
  8
寸法
  6
Continuous
 62
     4
370
    -2
100
AcDbBlockReference
  2
_Dot
 10
1555.965947373415
 20
635.1432375775244
 30
0.0
  0
MTEXT
  5
6A6A
330
6374
100
AcDbEntity
  8
寸法
  6
Continuous
 62
     3
100
AcDbMText
 10
1549.965947373415
 20
637.6432375775245
 30
0.0
 40
3.0
 41
0.0
 71
     5
 72
     1
  1
\A1;12
  7
ACAD
 73
     1
 44
1.0
1001
ACAD
1000
MTEXTBEGIN
1070
    73
1070
     1
1070
    44
1040
1.0
1070
    74
1070
     0
1000
MTEXTEND
  0
POINT
  5
6A6B
330
6374
100
AcDbEntity
  8
Defpoints
  6
Continuous
 62
     0
100
AcDbPoint
 10
1543.965947373415
 20
621.3888935775244
 30
0.0
  0
POINT
  5
6A6C
330
6374
100
AcDbEntity
  8
Defpoints
  6
Continuous
 62
     0
100
AcDbPoint
 10
1555.965947373415
 20
625.6759225775245
 30
0.0
  0
POINT
  5
6A6D
330
6374
100
AcDbEntity
  8
Defpoints
  6
Continuous
 62
     0
100
AcDbPoint
 10
1555.965947373415
 20
635.1432375775244
 30
0.0
  0
ENDBLK
  5
637F
330
6374
100
AcDbEntity
  8
0
100
AcDbBlockEnd
  0
BLOCK
  5
6389
330
6381
100
AcDbEntity
  8
0
100
AcDbBlockBegin
  2
*D39
 70
     1
 10
0.0
 20
0.0
 30
0.0
  3
*D39
  1

  0
LINE
  5
6A6E
330
6381
100
AcDbEntity
  8
寸法
  6
Continuous
 62
     4
370
    -2
100
AcDbLine
 10
1549.465947373415
 20
629.1269055775244
 30
0.0
 11
1548.465947373415
 21
629.1269055775244
 31
0.0
  0
LINE
  5
6A6F
330
6381
100
AcDbEntity
  8
寸法
  6
Continuous
 62
     4
370
    -2
100
AcDbLine
 10
1556.965947373415
 20
629.1269055775244
 30
0.0
 11
1557.965947373415
 21
629.1269055775244
 31
0.0
  0
INSERT
  5
6A70
330
6381
100
AcDbEntity
  8
寸法
  6
Continuous
 62
     4
370
    -2
100
AcDbBlockReference
  2
_Dot
 10
1550.465947373415
 20
629.1269055775244
 30
0.0
  0
INSERT
  5
6A71
330
6381
100
AcDbEntity
  8
寸法
  6
Continuous
 62
     4
370
    -2
100
AcDbBlockReference
  2
_Dot
 10
1555.965947373415
 20
629.1269055775244
 30
0.0
 50
180.0
  0
MTEXT
  5
6A72
330
6381
100
AcDbEntity
  8
寸法
  6
Continuous
 62
     3
100
AcDbMText
 10
1553.215947373415
 20
631.6269055775244
 30
0.0
 40
3.0
 41
0.0
 71
     5
 72
     1
  1
\A1;5.5
  7
ACAD
 73
     1
 44
1.0
1001
ACAD
1000
MTEXTBEGIN
1070
    73
1070
     1
1070
    44
1040
1.0
1070
    74
1070
     0
1000
MTEXTEND
  0
POINT
  5
6A73
330
6381
100
AcDbEntity
  8
Defpoints
  6
Continuous
 62
     0
100
AcDbPoint
 10
1550.465947373415
 20
629.1269055775244
 30
0.0
  0
POINT
  5
6A74
330
6381
100
AcDbEntity
  8
Defpoints
  6
Continuous
 62
     0
100
AcDbPoint
 10
1555.965947373415
 20
629.1269055775244
 30
0.0
  0
POINT
  5
6A75
330
6381
100
AcDbEntity
  8
Defpoints
  6
Continuous
 62
     0
100
AcDbPoint
 10
1555.965947373415
 20
629.1269055775244
 30
0.0
  0
ENDBLK
  5
638A
330
6381
100
AcDbEntity
  8
0
100
AcDbBlockEnd
  0
BLOCK
  5
63AB
330
63A1
100
AcDbEntity
  8
0
100
AcDbBlockBegin
  2
*D40
 70
     1
 10
0.0
 20
0.0
 30
0.0
  3
*D40
  1

  0
LINE
  5
6A76
330
63A1
100
AcDbEntity
  8
寸法
  6
Continuous
 62
     4
370
    -2
100
AcDbLine
 10
1535.965947373415
 20
635.3932375775245
 30
0.0
 11
1535.965947373415
 21
640.6759225775244
 31
0.0
  0
LINE
  5
6A77
330
63A1
100
AcDbEntity
  8
寸法
  6
Continuous
 62
     4
370
    -2
100
AcDbLine
 10
1556.215947373415
 20
635.1432375775244
 30
0.0
 11
1556.215947373415
 21
640.6759225775244
 31
0.0
  0
LINE
  5
6A78
330
63A1
100
AcDbEntity
  8
寸法
  6
Continuous
 62
     4
370
    -2
100
AcDbLine
 10
1536.965947373415
 20
640.6759225775244
 30
0.0
 11
1555.215947373415
 21
640.6759225775244
 31
0.0
  0
INSERT
  5
6A79
330
63A1
100
AcDbEntity
  8
寸法
  6
Continuous
 62
     4
370
    -2
100
AcDbBlockReference
  2
_Dot
 10
1535.965947373415
 20
640.6759225775244
 30
0.0
 50
180.0
  0
INSERT
  5
6A7A
330
63A1
100
AcDbEntity
  8
寸法
  6
Continuous
 62
     4
370
    -2
100
AcDbBlockReference
  2
_Dot
 10
1556.215947373415
 20
640.6759225775244
 30
0.0
  0
MTEXT
  5
6A7B
330
63A1
100
AcDbEntity
  8
寸法
  6
Continuous
 62
     3
100
AcDbMText
 10
1546.090947373415
 20
643.1759225775245
 30
0.0
 40
3.0
 41
0.0
 71
     5
 72
     1
  1
\A1;20
  7
ACAD
 73
     1
 44
1.0
1001
ACAD
1000
MTEXTBEGIN
1070
    73
1070
     1
1070
    44
1040
1.0
1070
    74
1070
     0
1000
MTEXTEND
  0
POINT
  5
6A7C
330
63A1
100
AcDbEntity
  8
Defpoints
  6
Continuous
 62
     0
100
AcDbPoint
 10
1535.965947373415
 20
635.3932375775245
 30
0.0
  0
POINT
  5
6A7D
330
63A1
100
AcDbEntity
  8
Defpoints
  6
Continuous
 62
     0
100
AcDbPoint
 10
1556.215947373415
 20
635.1432375775244
 30
0.0
  0
POINT
  5
6A7E
330
63A1
100
AcDbEntity
  8
Defpoints
  6
Continuous
 62
     0
100
AcDbPoint
 10
1556.215947373415
 20
640.6759225775244
 30
0.0
  0
ENDBLK
  5
63AC
330
63A1
100
AcDbEntity
  8
0
100
AcDbBlockEnd
  0
BLOCK
  5
63C2
330
63B8
100
AcDbEntity
  8
0
100
AcDbBlockBegin
  2
*D41
 70
     1
 10
0.0
 20
0.0
 30
0.0
  3
*D41
  1

  0
LINE
  5
6A7F
330
63B8
100
AcDbEntity
  8
寸法
  6
Continuous
 62
     4
370
    -2
100
AcDbLine
 10
1260.092530373416
 20
519.6759225775244
 30
0.0
 11
1226.758240373415
 21
519.6759225775244
 31
0.0
  0
LINE
  5
6A80
330
63B8
100
AcDbEntity
  8
寸法
  6
Continuous
 62
     4
370
    -2
100
AcDbLine
 10
1232.189564373415
 20
527.6759225775244
 30
0.0
 11
1226.758240373415
 21
527.6759225775244
 31
0.0
  0
LINE
  5
6A81
330
63B8
100
AcDbEntity
  8
寸法
  6
Continuous
 62
     4
370
    -2
100
AcDbLine
 10
1226.758240373415
 20
520.6759225775244
 30
0.0
 11
1226.758240373415
 21
526.6759225775245
 31
0.0
  0
INSERT
  5
6A82
330
63B8
100
AcDbEntity
  8
寸法
  6
Continuous
 62
     4
370
    -2
100
AcDbBlockReference
  2
_Dot
 10
1226.758240373415
 20
519.6759225775244
 30
0.0
 50
270.0
  0
INSERT
  5
6A83
330
63B8
100
AcDbEntity
  8
寸法
  6
Continuous
 62
     4
370
    -2
100
AcDbBlockReference
  2
_Dot
 10
1226.758240373415
 20
527.6759225775244
 30
0.0
 50
90.0
  0
MTEXT
  5
6A84
330
63B8
100
AcDbEntity
  8
寸法
  6
Continuous
 62
     3
100
AcDbMText
 10
1224.258240373415
 20
523.6759225775245
 30
0.0
 40
3.0
 41
0.0
 71
     5
 72
     1
  1
\A1;8
  7
ACAD
 11
0.0000000000000001
 21
1.0
 31
0.0
 73
     1
 44
1.0
1001
ACAD
1000
MTEXTBEGIN
1070
    73
1070
     1
1070
    44
1040
1.0
1070
    74
1070
     0
1000
MTEXTEND
  0
POINT
  5
6A85
330
63B8
100
AcDbEntity
  8
Defpoints
  6
Continuous
 62
     0
100
AcDbPoint
 10
1260.092530373416
 20
519.6759225775244
 30
0.0
  0
POINT
  5
6A86
330
63B8
100
AcDbEntity
  8
Defpoints
  6
Continuous
 62
     0
100
AcDbPoint
 10
1232.189564373415
 20
527.6759225775244
 30
0.0
  0
POINT
  5
6A87
330
63B8
100
AcDbEntity
  8
Defpoints
  6
Continuous
 62
     0
100
AcDbPoint
 10
1226.758240373415
 20
527.6759225775244
 30
0.0
  0
ENDBLK
  5
63C3
330
63B8
100
AcDbEntity
  8
0
100
AcDbBlockEnd
  0
BLOCK
  5
63D0
330
63C5
100
AcDbEntity
  8
0
100
AcDbBlockBegin
  2
*D42
 70
     1
 10
0.0
 20
0.0
 30
0.0
  3
*D42
  1

  0
LINE
  5
6BFB
330
63C5
100
AcDbEntity
  8
寸法
  6
Continuous
 62
     4
370
    -2
100
AcDbLine
 10
1232.189564373415
 20
527.6759225775244
 30
0.0
 11
1226.758240373415
 21
527.6759225775244
 31
0.0
  0
LINE
  5
6BFC
330
63C5
100
AcDbEntity
  8
寸法
  6
Continuous
 62
     4
370
    -2
100
AcDbLine
 10
1232.189564373415
 20
532.1759225775244
 30
0.0
 11
1226.758240373415
 21
532.1759225775244
 31
0.0
  0
LINE
  5
6BFD
330
63C5
100
AcDbEntity
  8
寸法
  6
Continuous
 62
     4
370
    -2
100
AcDbLine
 10
1226.758240373415
 20
528.6759225775244
 30
0.0
 11
1226.758240373415
 21
531.1759225775245
 31
0.0
  0
INSERT
  5
6BFE
330
63C5
100
AcDbEntity
  8
寸法
  6
Continuous
 62
     4
370
    -2
100
AcDbBlockReference
  2
_Dot
 10
1226.758240373415
 20
527.6759225775244
 30
0.0
 50
270.0
  0
INSERT
  5
6BFF
330
63C5
100
AcDbEntity
  8
寸法
  6
Continuous
 62
     4
370
    -2
100
AcDbBlockReference
  2
_Dot
 10
1226.758240373415
 20
532.1759225775244
 30
0.0
 50
90.0
  0
MTEXT
  5
6C00
330
63C5
100
AcDbEntity
  8
寸法
  6
Continuous
 62
     3
100
AcDbMText
 10
1224.258240373415
 20
529.9259225775245
 30
0.0
 40
3.0
 41
0.0
 71
     5
 72
     1
  1
\A1;4.5
  7
ACAD
 11
0.0000000000000001
 21
1.0
 31
0.0
 73
     1
 44
1.0
1001
ACAD
1000
MTEXTBEGIN
1070
    73
1070
     1
1070
    44
1040
1.0
1070
    74
1070
     0
1000
MTEXTEND
  0
POINT
  5
6C01
330
63C5
100
AcDbEntity
  8
Defpoints
  6
Continuous
 62
     0
100
AcDbPoint
 10
1232.189564373415
 20
527.6759225775244
 30
0.0
  0
POINT
  5
6C02
330
63C5
100
AcDbEntity
  8
Defpoints
  6
Continuous
 62
     0
100
AcDbPoint
 10
1232.189564373415
 20
532.1759225775244
 30
0.0
  0
POINT
  5
6C03
330
63C5
100
AcDbEntity
  8
Defpoints
  6
Continuous
 62
     0
100
AcDbPoint
 10
1226.758240373415
 20
532.1759225775244
 30
0.0
  0
ENDBLK
  5
63D1
330
63C5
100
AcDbEntity
  8
0
100
AcDbBlockEnd
  0
BLOCK
  5
63E7
330
63DD
100
AcDbEntity
  8
0
100
AcDbBlockBegin
  2
*D43
 70
     1
 10
0.0
 20
0.0
 30
0.0
  3
*D43
  1

  0
LINE
  5
6A92
330
63DD
100
AcDbEntity
  8
寸法
  6
Continuous
 62
     4
370
    -2
100
AcDbLine
 10
1235.189564373415
 20
525.3225965775244
 30
0.0
 11
1235.189564373415
 21
498.0215545775244
 31
0.0
  0
LINE
  5
6A93
330
63DD
100
AcDbEntity
  8
寸法
  6
Continuous
 62
     4
370
    -2
100
AcDbLine
 10
1262.989564373415
 20
515.9343435775245
 30
0.0
 11
1262.989564373415
 21
498.0215545775244
 31
0.0
  0
LINE
  5
6A94
330
63DD
100
AcDbEntity
  8
寸法
  6
Continuous
 62
     4
370
    -2
100
AcDbLine
 10
1236.189564373415
 20
498.0215545775244
 30
0.0
 11
1261.989564373415
 21
498.0215545775244
 31
0.0
  0
INSERT
  5
6A95
330
63DD
100
AcDbEntity
  8
寸法
  6
Continuous
 62
     4
370
    -2
100
AcDbBlockReference
  2
_Dot
 10
1235.189564373415
 20
498.0215545775244
 30
0.0
 50
180.0
  0
INSERT
  5
6A96
330
63DD
100
AcDbEntity
  8
寸法
  6
Continuous
 62
     4
370
    -2
100
AcDbBlockReference
  2
_Dot
 10
1262.989564373415
 20
498.0215545775244
 30
0.0
  0
MTEXT
  5
6A97
330
63DD
100
AcDbEntity
  8
寸法
  6
Continuous
 62
     3
100
AcDbMText
 10
1249.089564373416
 20
500.5215545775244
 30
0.0
 40
3.0
 41
0.0
 71
     5
 72
     1
  1
\A1;27.8
  7
ACAD
 73
     1
 44
1.0
1001
ACAD
1000
MTEXTBEGIN
1070
    73
1070
     1
1070
    44
1040
1.0
1070
    74
1070
     0
1000
MTEXTEND
  0
POINT
  5
6A98
330
63DD
100
AcDbEntity
  8
Defpoints
  6
Continuous
 62
     0
100
AcDbPoint
 10
1235.189564373415
 20
525.3225965775244
 30
0.0
  0
POINT
  5
6A99
330
63DD
100
AcDbEntity
  8
Defpoints
  6
Continuous
 62
     0
100
AcDbPoint
 10
1262.989564373415
 20
515.9343435775245
 30
0.0
  0
POINT
  5
6A9A
330
63DD
100
AcDbEntity
  8
Defpoints
  6
Continuous
 62
     0
100
AcDbPoint
 10
1262.989564373415
 20
498.0215545775244
 30
0.0
  0
ENDBLK
  5
63E8
330
63DD
100
AcDbEntity
  8
0
100
AcDbBlockEnd
  0
BLOCK
  5
6406
330
63FC
100
AcDbEntity
  8
0
100
AcDbBlockBegin
  2
*D44
 70
     1
 10
0.0
 20
0.0
 30
0.0
  3
*D44
  1

  0
LINE
  5
6A9B
330
63FC
100
AcDbEntity
  8
寸法
  6
Continuous
 62
     4
370
    -2
100
AcDbLine
 10
1262.989564373415
 20
515.9343435775245
 30
0.0
 11
1262.989564373415
 21
505.9098675775244
 31
0.0
  0
LINE
  5
6A9C
330
63FC
100
AcDbEntity
  8
寸法
  6
Continuous
 62
     4
370
    -2
100
AcDbLine
 10
1283.189564373415
 20
516.6759225775244
 30
0.0
 11
1283.189564373415
 21
505.9098675775244
 31
0.0
  0
LINE
  5
6A9D
330
63FC
100
AcDbEntity
  8
寸法
  6
Continuous
 62
     4
370
    -2
100
AcDbLine
 10
1263.989564373415
 20
505.9098675775244
 30
0.0
 11
1282.189564373415
 21
505.9098675775244
 31
0.0
  0
INSERT
  5
6A9E
330
63FC
100
AcDbEntity
  8
寸法
  6
Continuous
 62
     4
370
    -2
100
AcDbBlockReference
  2
_Dot
 10
1262.989564373415
 20
505.9098675775244
 30
0.0
 50
180.0
  0
INSERT
  5
6A9F
330
63FC
100
AcDbEntity
  8
寸法
  6
Continuous
 62
     4
370
    -2
100
AcDbBlockReference
  2
_Dot
 10
1283.189564373415
 20
505.9098675775244
 30
0.0
  0
MTEXT
  5
6AA0
330
63FC
100
AcDbEntity
  8
寸法
  6
Continuous
 62
     3
100
AcDbMText
 10
1273.089564373416
 20
508.4098675775244
 30
0.0
 40
3.0
 41
0.0
 71
     5
 72
     1
  1
\A1;20.2
  7
ACAD
 73
     1
 44
1.0
1001
ACAD
1000
MTEXTBEGIN
1070
    73
1070
     1
1070
    44
1040
1.0
1070
    74
1070
     0
1000
MTEXTEND
  0
POINT
  5
6AA1
330
63FC
100
AcDbEntity
  8
Defpoints
  6
Continuous
 62
     0
100
AcDbPoint
 10
1262.989564373415
 20
515.9343435775245
 30
0.0
  0
POINT
  5
6AA2
330
63FC
100
AcDbEntity
  8
Defpoints
  6
Continuous
 62
     0
100
AcDbPoint
 10
1283.189564373415
 20
516.6759225775244
 30
0.0
  0
POINT
  5
6AA3
330
63FC
100
AcDbEntity
  8
Defpoints
  6
Continuous
 62
     0
100
AcDbPoint
 10
1283.189564373415
 20
505.9098675775244
 30
0.0
  0
ENDBLK
  5
6407
330
63FC
100
AcDbEntity
  8
0
100
AcDbBlockEnd
  0
BLOCK
  5
641C
330
6412
100
AcDbEntity
  8
0
100
AcDbBlockBegin
  2
*D45
 70
     1
 10
0.0
 20
0.0
 30
0.0
  3
*D45
  1

  0
LINE
  5
6AA4
330
6412
100
AcDbEntity
  8
寸法
  6
Continuous
 62
     4
370
    -2
100
AcDbLine
 10
1283.189564373415
 20
516.6759225775244
 30
0.0
 11
1283.189564373415
 21
505.9098675775244
 31
0.0
  0
LINE
  5
6AA5
330
6412
100
AcDbEntity
  8
寸法
  6
Continuous
 62
     4
370
    -2
100
AcDbLine
 10
1302.989564373415
 20
516.6759225775244
 30
0.0
 11
1302.989564373415
 21
505.9098675775244
 31
0.0
  0
LINE
  5
6AA6
330
6412
100
AcDbEntity
  8
寸法
  6
Continuous
 62
     4
370
    -2
100
AcDbLine
 10
1284.189564373416
 20
505.9098675775244
 30
0.0
 11
1301.989564373415
 21
505.9098675775244
 31
0.0
  0
INSERT
  5
6AA7
330
6412
100
AcDbEntity
  8
寸法
  6
Continuous
 62
     4
370
    -2
100
AcDbBlockReference
  2
_Dot
 10
1283.189564373415
 20
505.9098675775244
 30
0.0
 50
180.0
  0
INSERT
  5
6AA8
330
6412
100
AcDbEntity
  8
寸法
  6
Continuous
 62
     4
370
    -2
100
AcDbBlockReference
  2
_Dot
 10
1302.989564373415
 20
505.9098675775244
 30
0.0
  0
MTEXT
  5
6AA9
330
6412
100
AcDbEntity
  8
寸法
  6
Continuous
 62
     3
100
AcDbMText
 10
1293.089564373415
 20
508.4098675775244
 30
0.0
 40
3.0
 41
0.0
 71
     5
 72
     1
  1
\A1;19.8
  7
ACAD
 73
     1
 44
1.0
1001
ACAD
1000
MTEXTBEGIN
1070
    73
1070
     1
1070
    44
1040
1.0
1070
    74
1070
     0
1000
MTEXTEND
  0
POINT
  5
6AAA
330
6412
100
AcDbEntity
  8
Defpoints
  6
Continuous
 62
     0
100
AcDbPoint
 10
1283.189564373415
 20
516.6759225775244
 30
0.0
  0
POINT
  5
6AAB
330
6412
100
AcDbEntity
  8
Defpoints
  6
Continuous
 62
     0
100
AcDbPoint
 10
1302.989564373415
 20
516.6759225775244
 30
0.0
  0
POINT
  5
6AAC
330
6412
100
AcDbEntity
  8
Defpoints
  6
Continuous
 62
     0
100
AcDbPoint
 10
1302.989564373415
 20
505.9098675775244
 30
0.0
  0
ENDBLK
  5
641D
330
6412
100
AcDbEntity
  8
0
100
AcDbBlockEnd
  0
BLOCK
  5
6432
330
6428
100
AcDbEntity
  8
0
100
AcDbBlockBegin
  2
*D46
 70
     1
 10
0.0
 20
0.0
 30
0.0
  3
*D46
  1

  0
LINE
  5
6AAD
330
6428
100
AcDbEntity
  8
寸法
  6
Continuous
 62
     4
370
    -2
100
AcDbLine
 10
1302.989564373415
 20
516.6759225775244
 30
0.0
 11
1302.989564373415
 21
505.9098675775244
 31
0.0
  0
LINE
  5
6AAE
330
6428
100
AcDbEntity
  8
寸法
  6
Continuous
 62
     4
370
    -2
100
AcDbLine
 10
1323.186042373415
 20
517.5444245775245
 30
0.0
 11
1323.186042373415
 21
505.9098675775244
 31
0.0
  0
LINE
  5
6AAF
330
6428
100
AcDbEntity
  8
寸法
  6
Continuous
 62
     4
370
    -2
100
AcDbLine
 10
1303.989564373415
 20
505.9098675775244
 30
0.0
 11
1322.186042373415
 21
505.9098675775244
 31
0.0
  0
INSERT
  5
6AB0
330
6428
100
AcDbEntity
  8
寸法
  6
Continuous
 62
     4
370
    -2
100
AcDbBlockReference
  2
_Dot
 10
1302.989564373415
 20
505.9098675775244
 30
0.0
 50
180.0
  0
INSERT
  5
6AB1
330
6428
100
AcDbEntity
  8
寸法
  6
Continuous
 62
     4
370
    -2
100
AcDbBlockReference
  2
_Dot
 10
1323.186042373415
 20
505.9098675775244
 30
0.0
  0
MTEXT
  5
6AB2
330
6428
100
AcDbEntity
  8
寸法
  6
Continuous
 62
     3
100
AcDbMText
 10
1313.087803373416
 20
508.4098675775244
 30
0.0
 40
3.0
 41
0.0
 71
     5
 72
     1
  1
\A1;20.2
  7
ACAD
 73
     1
 44
1.0
1001
ACAD
1000
MTEXTBEGIN
1070
    73
1070
     1
1070
    44
1040
1.0
1070
    74
1070
     0
1000
MTEXTEND
  0
POINT
  5
6AB3
330
6428
100
AcDbEntity
  8
Defpoints
  6
Continuous
 62
     0
100
AcDbPoint
 10
1302.989564373415
 20
516.6759225775244
 30
0.0
  0
POINT
  5
6AB4
330
6428
100
AcDbEntity
  8
Defpoints
  6
Continuous
 62
     0
100
AcDbPoint
 10
1323.186042373415
 20
517.5444245775245
 30
0.0
  0
POINT
  5
6AB5
330
6428
100
AcDbEntity
  8
Defpoints
  6
Continuous
 62
     0
100
AcDbPoint
 10
1323.186042373415
 20
505.9098675775244
 30
0.0
  0
ENDBLK
  5
6433
330
6428
100
AcDbEntity
  8
0
100
AcDbBlockEnd
  0
BLOCK
  5
6448
330
643E
100
AcDbEntity
  8
0
100
AcDbBlockBegin
  2
*D47
 70
     1
 10
0.0
 20
0.0
 30
0.0
  3
*D47
  1

  0
LINE
  5
6AB6
330
643E
100
AcDbEntity
  8
寸法
  6
Continuous
 62
     4
370
    -2
100
AcDbLine
 10
1323.186042373415
 20
517.5444245775245
 30
0.0
 11
1323.186042373415
 21
505.9098675775244
 31
0.0
  0
LINE
  5
6AB7
330
643E
100
AcDbEntity
  8
寸法
  6
Continuous
 62
     4
370
    -2
100
AcDbLine
 10
1342.986042373415
 20
517.3281615775245
 30
0.0
 11
1342.986042373415
 21
505.9098675775244
 31
0.0
  0
LINE
  5
6AB8
330
643E
100
AcDbEntity
  8
寸法
  6
Continuous
 62
     4
370
    -2
100
AcDbLine
 10
1324.186042373415
 20
505.9098675775244
 30
0.0
 11
1341.986042373415
 21
505.9098675775244
 31
0.0
  0
INSERT
  5
6AB9
330
643E
100
AcDbEntity
  8
寸法
  6
Continuous
 62
     4
370
    -2
100
AcDbBlockReference
  2
_Dot
 10
1323.186042373415
 20
505.9098675775244
 30
0.0
 50
180.0
  0
INSERT
  5
6ABA
330
643E
100
AcDbEntity
  8
寸法
  6
Continuous
 62
     4
370
    -2
100
AcDbBlockReference
  2
_Dot
 10
1342.986042373415
 20
505.9098675775244
 30
0.0
  0
MTEXT
  5
6ABB
330
643E
100
AcDbEntity
  8
寸法
  6
Continuous
 62
     3
100
AcDbMText
 10
1333.086042373415
 20
508.4098675775244
 30
0.0
 40
3.0
 41
0.0
 71
     5
 72
     1
  1
\A1;19.8
  7
ACAD
 73
     1
 44
1.0
1001
ACAD
1000
MTEXTBEGIN
1070
    73
1070
     1
1070
    44
1040
1.0
1070
    74
1070
     0
1000
MTEXTEND
  0
POINT
  5
6ABC
330
643E
100
AcDbEntity
  8
Defpoints
  6
Continuous
 62
     0
100
AcDbPoint
 10
1323.186042373415
 20
517.5444245775245
 30
0.0
  0
POINT
  5
6ABD
330
643E
100
AcDbEntity
  8
Defpoints
  6
Continuous
 62
     0
100
AcDbPoint
 10
1342.986042373415
 20
517.3281615775245
 30
0.0
  0
POINT
  5
6ABE
330
643E
100
AcDbEntity
  8
Defpoints
  6
Continuous
 62
     0
100
AcDbPoint
 10
1342.986042373415
 20
505.9098675775244
 30
0.0
  0
ENDBLK
  5
6449
330
643E
100
AcDbEntity
  8
0
100
AcDbBlockEnd
  0
BLOCK
  5
645E
330
6454
100
AcDbEntity
  8
0
100
AcDbBlockBegin
  2
*D48
 70
     1
 10
0.0
 20
0.0
 30
0.0
  3
*D48
  1

  0
LINE
  5
6ABF
330
6454
100
AcDbEntity
  8
寸法
  6
Continuous
 62
     4
370
    -2
100
AcDbLine
 10
1342.986042373415
 20
517.3281615775245
 30
0.0
 11
1342.986042373415
 21
505.9098675775244
 31
0.0
  0
LINE
  5
6AC0
330
6454
100
AcDbEntity
  8
寸法
  6
Continuous
 62
     4
370
    -2
100
AcDbLine
 10
1363.189564373415
 20
516.6759225775244
 30
0.0
 11
1363.189564373415
 21
505.9098675775244
 31
0.0
  0
LINE
  5
6AC1
330
6454
100
AcDbEntity
  8
寸法
  6
Continuous
 62
     4
370
    -2
100
AcDbLine
 10
1343.986042373416
 20
505.9098675775244
 30
0.0
 11
1362.189564373415
 21
505.9098675775244
 31
0.0
  0
INSERT
  5
6AC2
330
6454
100
AcDbEntity
  8
寸法
  6
Continuous
 62
     4
370
    -2
100
AcDbBlockReference
  2
_Dot
 10
1342.986042373415
 20
505.9098675775244
 30
0.0
 50
180.0
  0
INSERT
  5
6AC3
330
6454
100
AcDbEntity
  8
寸法
  6
Continuous
 62
     4
370
    -2
100
AcDbBlockReference
  2
_Dot
 10
1363.189564373415
 20
505.9098675775244
 30
0.0
  0
MTEXT
  5
6AC4
330
6454
100
AcDbEntity
  8
寸法
  6
Continuous
 62
     3
100
AcDbMText
 10
1353.087803373415
 20
508.4098675775244
 30
0.0
 40
3.0
 41
0.0
 71
     5
 72
     1
  1
\A1;20.2
  7
ACAD
 73
     1
 44
1.0
1001
ACAD
1000
MTEXTBEGIN
1070
    73
1070
     1
1070
    44
1040
1.0
1070
    74
1070
     0
1000
MTEXTEND
  0
POINT
  5
6AC5
330
6454
100
AcDbEntity
  8
Defpoints
  6
Continuous
 62
     0
100
AcDbPoint
 10
1342.986042373415
 20
517.3281615775245
 30
0.0
  0
POINT
  5
6AC6
330
6454
100
AcDbEntity
  8
Defpoints
  6
Continuous
 62
     0
100
AcDbPoint
 10
1363.189564373415
 20
516.6759225775244
 30
0.0
  0
POINT
  5
6AC7
330
6454
100
AcDbEntity
  8
Defpoints
  6
Continuous
 62
     0
100
AcDbPoint
 10
1363.189564373415
 20
505.9098675775244
 30
0.0
  0
ENDBLK
  5
645F
330
6454
100
AcDbEntity
  8
0
100
AcDbBlockEnd
  0
BLOCK
  5
6474
330
646A
100
AcDbEntity
  8
0
100
AcDbBlockBegin
  2
*D49
 70
     1
 10
0.0
 20
0.0
 30
0.0
  3
*D49
  1

  0
LINE
  5
6AC8
330
646A
100
AcDbEntity
  8
寸法
  6
Continuous
 62
     4
370
    -2
100
AcDbLine
 10
1363.189564373415
 20
516.6759225775244
 30
0.0
 11
1363.189564373415
 21
498.0215545775244
 31
0.0
  0
LINE
  5
6AC9
330
646A
100
AcDbEntity
  8
寸法
  6
Continuous
 62
     4
370
    -2
100
AcDbLine
 10
1382.989564373416
 20
517.1455025775244
 30
0.0
 11
1382.989564373416
 21
498.0215545775244
 31
0.0
  0
LINE
  5
6ACA
330
646A
100
AcDbEntity
  8
寸法
  6
Continuous
 62
     4
370
    -2
100
AcDbLine
 10
1364.189564373415
 20
498.0215545775244
 30
0.0
 11
1381.989564373415
 21
498.0215545775244
 31
0.0
  0
INSERT
  5
6ACB
330
646A
100
AcDbEntity
  8
寸法
  6
Continuous
 62
     4
370
    -2
100
AcDbBlockReference
  2
_Dot
 10
1363.189564373415
 20
498.0215545775244
 30
0.0
 50
180.0
  0
INSERT
  5
6ACC
330
646A
100
AcDbEntity
  8
寸法
  6
Continuous
 62
     4
370
    -2
100
AcDbBlockReference
  2
_Dot
 10
1382.989564373416
 20
498.0215545775244
 30
0.0
  0
MTEXT
  5
6ACD
330
646A
100
AcDbEntity
  8
寸法
  6
Continuous
 62
     3
100
AcDbMText
 10
1373.089564373416
 20
500.5215545775244
 30
0.0
 40
3.0
 41
0.0
 71
     5
 72
     1
  1
\A1;19.8
  7
ACAD
 73
     1
 44
1.0
1001
ACAD
1000
MTEXTBEGIN
1070
    73
1070
     1
1070
    44
1040
1.0
1070
    74
1070
     0
1000
MTEXTEND
  0
POINT
  5
6ACE
330
646A
100
AcDbEntity
  8
Defpoints
  6
Continuous
 62
     0
100
AcDbPoint
 10
1363.189564373415
 20
516.6759225775244
 30
0.0
  0
POINT
  5
6ACF
330
646A
100
AcDbEntity
  8
Defpoints
  6
Continuous
 62
     0
100
AcDbPoint
 10
1382.989564373416
 20
517.1455025775244
 30
0.0
  0
POINT
  5
6AD0
330
646A
100
AcDbEntity
  8
Defpoints
  6
Continuous
 62
     0
100
AcDbPoint
 10
1382.989564373416
 20
498.0215545775244
 30
0.0
  0
ENDBLK
  5
6475
330
646A
100
AcDbEntity
  8
0
100
AcDbBlockEnd
  0
BLOCK
  5
648A
330
6480
100
AcDbEntity
  8
0
100
AcDbBlockBegin
  2
*D50
 70
     1
 10
0.0
 20
0.0
 30
0.0
  3
*D50
  1

  0
LINE
  5
6AD1
330
6480
100
AcDbEntity
  8
寸法
  6
Continuous
 62
     4
370
    -2
100
AcDbLine
 10
1394.890805373415
 20
519.6759225775244
 30
0.0
 11
1401.663217373415
 21
519.6759225775244
 31
0.0
  0
LINE
  5
6AD2
330
6480
100
AcDbEntity
  8
寸法
  6
Continuous
 62
     4
370
    -2
100
AcDbLine
 10
1377.189564373415
 20
533.6759225775245
 30
0.0
 11
1401.663217373415
 21
533.6759225775245
 31
0.0
  0
LINE
  5
6AD3
330
6480
100
AcDbEntity
  8
寸法
  6
Continuous
 62
     4
370
    -2
100
AcDbLine
 10
1401.663217373415
 20
520.6759225775244
 30
0.0
 11
1401.663217373415
 21
532.6759225775244
 31
0.0
  0
INSERT
  5
6AD4
330
6480
100
AcDbEntity
  8
寸法
  6
Continuous
 62
     4
370
    -2
100
AcDbBlockReference
  2
_Dot
 10
1401.663217373415
 20
519.6759225775244
 30
0.0
 50
270.0
  0
INSERT
  5
6AD5
330
6480
100
AcDbEntity
  8
寸法
  6
Continuous
 62
     4
370
    -2
100
AcDbBlockReference
  2
_Dot
 10
1401.663217373415
 20
533.6759225775245
 30
0.0
 50
90.0
  0
MTEXT
  5
6AD6
330
6480
100
AcDbEntity
  8
寸法
  6
Continuous
 62
     3
100
AcDbMText
 10
1399.163217373415
 20
526.6759225775246
 30
0.0
 40
3.0
 41
0.0
 71
     5
 72
     1
  1
\A1;14
  7
ACAD
 11
0.0000000000000001
 21
1.0
 31
0.0
 73
     1
 44
1.0
1001
ACAD
1000
MTEXTBEGIN
1070
    73
1070
     1
1070
    44
1040
1.0
1070
    74
1070
     0
1000
MTEXTEND
  0
POINT
  5
6AD7
330
6480
100
AcDbEntity
  8
Defpoints
  6
Continuous
 62
     0
100
AcDbPoint
 10
1394.890805373415
 20
519.6759225775244
 30
0.0
  0
POINT
  5
6AD8
330
6480
100
AcDbEntity
  8
Defpoints
  6
Continuous
 62
     0
100
AcDbPoint
 10
1377.189564373415
 20
533.6759225775245
 30
0.0
  0
POINT
  5
6AD9
330
6480
100
AcDbEntity
  8
Defpoints
  6
Continuous
 62
     0
100
AcDbPoint
 10
1401.663217373415
 20
533.6759225775245
 30
0.0
  0
ENDBLK
  5
648B
330
6480
100
AcDbEntity
  8
0
100
AcDbBlockEnd
  0
BLOCK
  5
6498
330
648D
100
AcDbEntity
  8
0
100
AcDbBlockBegin
  2
*D51
 70
     1
 10
0.0
 20
0.0
 30
0.0
  3
*D51
  1

  0
LINE
  5
6ADA
330
648D
100
AcDbEntity
  8
寸法
  6
Continuous
 62
     4
370
    -2
100
AcDbLine
 10
1377.714906373415
 20
530.6759225775245
 30
0.0
 11
1388.627996373415
 21
530.6759225775245
 31
0.0
  0
LINE
  5
6ADB
330
648D
100
AcDbEntity
  8
寸法
  6
Continuous
 62
     4
370
    -2
100
AcDbLine
 10
1377.189564373415
 20
533.6759225775245
 30
0.0
 11
1388.627996373415
 21
533.6759225775245
 31
0.0
  0
LINE
  5
6ADC
330
648D
100
AcDbEntity
  8
寸法
  6
Continuous
 62
     4
370
    -2
100
AcDbLine
 10
1388.627996373415
 20
529.6759225775245
 30
0.0
 11
1388.627996373415
 21
528.6759225775244
 31
0.0
  0
LINE
  5
6ADD
330
648D
100
AcDbEntity
  8
寸法
  6
Continuous
 62
     4
370
    -2
100
AcDbLine
 10
1388.627996373415
 20
534.6759225775245
 30
0.0
 11
1388.627996373415
 21
535.6759225775244
 31
0.0
  0
INSERT
  5
6ADE
330
648D
100
AcDbEntity
  8
寸法
  6
Continuous
 62
     4
370
    -2
100
AcDbBlockReference
  2
_Dot
 10
1388.627996373415
 20
530.6759225775245
 30
0.0
 50
90.0
  0
INSERT
  5
6ADF
330
648D
100
AcDbEntity
  8
寸法
  6
Continuous
 62
     4
370
    -2
100
AcDbBlockReference
  2
_Dot
 10
1388.627996373415
 20
533.6759225775245
 30
0.0
 50
270.0
  0
MTEXT
  5
6AE0
330
648D
100
AcDbEntity
  8
寸法
  6
Continuous
 62
     3
100
AcDbMText
 10
1386.127996373415
 20
532.1759225775247
 30
0.0
 40
3.0
 41
0.0
 71
     5
 72
     1
  1
\A1;3
  7
ACAD
 11
0.0000000000000001
 21
1.0
 31
0.0
 73
     1
 44
1.0
1001
ACAD
1000
MTEXTBEGIN
1070
    73
1070
     1
1070
    44
1040
1.0
1070
    74
1070
     0
1000
MTEXTEND
  0
POINT
  5
6AE1
330
648D
100
AcDbEntity
  8
Defpoints
  6
Continuous
 62
     0
100
AcDbPoint
 10
1377.714906373415
 20
530.6759225775245
 30
0.0
  0
POINT
  5
6AE2
330
648D
100
AcDbEntity
  8
Defpoints
  6
Continuous
 62
     0
100
AcDbPoint
 10
1377.189564373415
 20
533.6759225775245
 30
0.0
  0
POINT
  5
6AE3
330
648D
100
AcDbEntity
  8
Defpoints
  6
Continuous
 62
     0
100
AcDbPoint
 10
1388.627996373415
 20
533.6759225775245
 30
0.0
  0
ENDBLK
  5
6499
330
648D
100
AcDbEntity
  8
0
100
AcDbBlockEnd
  0
BLOCK
  5
64A5
330
649B
100
AcDbEntity
  8
0
100
AcDbBlockBegin
  2
*D52
 70
     1
 10
0.0
 20
0.0
 30
0.0
  3
*D52
  1

  0
LINE
  5
6C1C
330
649B
100
AcDbEntity
  8
寸法
  6
Continuous
 62
     4
370
    -2
100
AcDbLine
 10
1354.189564373415
 20
527.6759225775244
 30
0.0
 11
1349.183509622639
 21
527.6759225775244
 31
0.0
  0
LINE
  5
6C1D
330
649B
100
AcDbEntity
  8
寸法
  6
Continuous
 62
     4
370
    -2
100
AcDbLine
 10
1354.189564373415
 20
532.6759225775244
 30
0.0
 11
1349.183509622639
 21
532.6759225775244
 31
0.0
  0
LINE
  5
6C1E
330
649B
100
AcDbEntity
  8
寸法
  6
Continuous
 62
     4
370
    -2
100
AcDbLine
 10
1349.183509622639
 20
528.6759225775244
 30
0.0
 11
1349.183509622639
 21
531.6759225775244
 31
0.0
  0
INSERT
  5
6C1F
330
649B
100
AcDbEntity
  8
寸法
  6
Continuous
 62
     4
370
    -2
100
AcDbBlockReference
  2
_Dot
 10
1349.183509622639
 20
527.6759225775244
 30
0.0
 50
270.0
  0
INSERT
  5
6C20
330
649B
100
AcDbEntity
  8
寸法
  6
Continuous
 62
     4
370
    -2
100
AcDbBlockReference
  2
_Dot
 10
1349.183509622639
 20
532.6759225775244
 30
0.0
 50
90.0
  0
MTEXT
  5
6C21
330
649B
100
AcDbEntity
  8
寸法
  6
Continuous
 62
     3
100
AcDbMText
 10
1345.897795336925
 20
530.1759225775247
 30
0.0
 40
3.0
 41
0.0
 71
     5
 72
     1
  1
\A1;(5)
  7
ACAD
 11
0.0000000000000001
 21
1.0
 31
0.0
 73
     1
 44
1.0
1001
ACAD
1000
MTEXTBEGIN
1070
    73
1070
     1
1070
    44
1040
1.0
1070
    74
1070
     0
1000
MTEXTEND
  0
POINT
  5
6C22
330
649B
100
AcDbEntity
  8
Defpoints
  6
Continuous
 62
     0
100
AcDbPoint
 10
1354.189564373415
 20
527.6759225775244
 30
0.0
  0
POINT
  5
6C23
330
649B
100
AcDbEntity
  8
Defpoints
  6
Continuous
 62
     0
100
AcDbPoint
 10
1354.189564373415
 20
532.6759225775244
 30
0.0
  0
POINT
  5
6C24
330
649B
100
AcDbEntity
  8
Defpoints
  6
Continuous
 62
     0
100
AcDbPoint
 10
1349.183509622639
 20
532.6759225775244
 30
0.0
  0
ENDBLK
  5
64A6
330
649B
100
AcDbEntity
  8
0
100
AcDbBlockEnd
  0
BLOCK
  5
64BC
330
64B2
100
AcDbEntity
  8
0
100
AcDbBlockBegin
  2
*D53
 70
     1
 10
0.0
 20
0.0
 30
0.0
  3
*D53
  1

  0
LINE
  5
6AEE
330
64B2
100
AcDbEntity
  8
寸法
  6
Continuous
 62
     4
370
    -2
100
AcDbLine
 10
1355.189564373415
 20
536.6218335775244
 30
0.0
 11
1355.189564373415
 21
547.5720895775245
 31
0.0
  0
LINE
  5
6AEF
330
64B2
100
AcDbEntity
  8
寸法
  6
Continuous
 62
     4
370
    -2
100
AcDbLine
 10
1363.189564373415
 20
531.8355865775244
 30
0.0
 11
1363.189564373415
 21
547.5720895775245
 31
0.0
  0
LINE
  5
6AF0
330
64B2
100
AcDbEntity
  8
寸法
  6
Continuous
 62
     4
370
    -2
100
AcDbLine
 10
1356.189564373415
 20
547.5720895775245
 30
0.0
 11
1362.189564373415
 21
547.5720895775245
 31
0.0
  0
INSERT
  5
6AF1
330
64B2
100
AcDbEntity
  8
寸法
  6
Continuous
 62
     4
370
    -2
100
AcDbBlockReference
  2
_Dot
 10
1355.189564373415
 20
547.5720895775245
 30
0.0
 50
180.0
  0
INSERT
  5
6AF2
330
64B2
100
AcDbEntity
  8
寸法
  6
Continuous
 62
     4
370
    -2
100
AcDbBlockReference
  2
_Dot
 10
1363.189564373415
 20
547.5720895775245
 30
0.0
  0
MTEXT
  5
6AF3
330
64B2
100
AcDbEntity
  8
寸法
  6
Continuous
 62
     3
100
AcDbMText
 10
1359.189564373415
 20
550.0720895775244
 30
0.0
 40
3.0
 41
0.0
 71
     5
 72
     1
  1
\A1;8
  7
ACAD
 73
     1
 44
1.0
1001
ACAD
1000
MTEXTBEGIN
1070
    73
1070
     1
1070
    44
1040
1.0
1070
    74
1070
     0
1000
MTEXTEND
  0
POINT
  5
6AF4
330
64B2
100
AcDbEntity
  8
Defpoints
  6
Continuous
 62
     0
100
AcDbPoint
 10
1355.189564373415
 20
536.6218335775244
 30
0.0
  0
POINT
  5
6AF5
330
64B2
100
AcDbEntity
  8
Defpoints
  6
Continuous
 62
     0
100
AcDbPoint
 10
1363.189564373415
 20
531.8355865775244
 30
0.0
  0
POINT
  5
6AF6
330
64B2
100
AcDbEntity
  8
Defpoints
  6
Continuous
 62
     0
100
AcDbPoint
 10
1363.189564373415
 20
547.5720895775245
 30
0.0
  0
ENDBLK
  5
64BD
330
64B2
100
AcDbEntity
  8
0
100
AcDbBlockEnd
  0
BLOCK
  5
64C9
330
64BF
100
AcDbEntity
  8
0
100
AcDbBlockBegin
  2
*D54
 70
     1
 10
0.0
 20
0.0
 30
0.0
  3
*D54
  1

  0
LINE
  5
6AF7
330
64BF
100
AcDbEntity
  8
寸法
  6
Continuous
 62
     4
370
    -2
100
AcDbLine
 10
1363.189564373415
 20
531.8355865775244
 30
0.0
 11
1363.189564373415
 21
547.5720895775245
 31
0.0
  0
LINE
  5
6AF8
330
64BF
100
AcDbEntity
  8
寸法
  6
Continuous
 62
     4
370
    -2
100
AcDbLine
 10
1374.189564373415
 20
536.6759225775244
 30
0.0
 11
1374.189564373415
 21
547.5720895775245
 31
0.0
  0
LINE
  5
6AF9
330
64BF
100
AcDbEntity
  8
寸法
  6
Continuous
 62
     4
370
    -2
100
AcDbLine
 10
1364.189564373415
 20
547.5720895775245
 30
0.0
 11
1373.189564373415
 21
547.5720895775245
 31
0.0
  0
INSERT
  5
6AFA
330
64BF
100
AcDbEntity
  8
寸法
  6
Continuous
 62
     4
370
    -2
100
AcDbBlockReference
  2
_Dot
 10
1363.189564373415
 20
547.5720895775245
 30
0.0
 50
180.0
  0
INSERT
  5
6AFB
330
64BF
100
AcDbEntity
  8
寸法
  6
Continuous
 62
     4
370
    -2
100
AcDbBlockReference
  2
_Dot
 10
1374.189564373415
 20
547.5720895775245
 30
0.0
  0
MTEXT
  5
6AFC
330
64BF
100
AcDbEntity
  8
寸法
  6
Continuous
 62
     3
100
AcDbMText
 10
1368.689564373415
 20
550.0720895775244
 30
0.0
 40
3.0
 41
0.0
 71
     5
 72
     1
  1
\A1;11
  7
ACAD
 73
     1
 44
1.0
1001
ACAD
1000
MTEXTBEGIN
1070
    73
1070
     1
1070
    44
1040
1.0
1070
    74
1070
     0
1000
MTEXTEND
  0
POINT
  5
6AFD
330
64BF
100
AcDbEntity
  8
Defpoints
  6
Continuous
 62
     0
100
AcDbPoint
 10
1363.189564373415
 20
531.8355865775244
 30
0.0
  0
POINT
  5
6AFE
330
64BF
100
AcDbEntity
  8
Defpoints
  6
Continuous
 62
     0
100
AcDbPoint
 10
1374.189564373415
 20
536.6759225775244
 30
0.0
  0
POINT
  5
6AFF
330
64BF
100
AcDbEntity
  8
Defpoints
  6
Continuous
 62
     0
100
AcDbPoint
 10
1374.189564373415
 20
547.5720895775245
 30
0.0
  0
ENDBLK
  5
64CA
330
64BF
100
AcDbEntity
  8
0
100
AcDbBlockEnd
  0
BLOCK
  5
64D6
330
64CC
100
AcDbEntity
  8
0
100
AcDbBlockBegin
  2
*D55
 70
     1
 10
0.0
 20
0.0
 30
0.0
  3
*D55
  1

  0
LINE
  5
6B00
330
64CC
100
AcDbEntity
  8
寸法
  6
Continuous
 62
     4
370
    -2
100
AcDbLine
 10
1355.189564373415
 20
536.6218335775244
 30
0.0
 11
1355.189564373415
 21
553.1410975775245
 31
0.0
  0
LINE
  5
6B01
330
64CC
100
AcDbEntity
  8
寸法
  6
Continuous
 62
     4
370
    -2
100
AcDbLine
 10
1374.189564373415
 20
536.6759225775244
 30
0.0
 11
1374.189564373415
 21
553.1410975775245
 31
0.0
  0
LINE
  5
6B02
330
64CC
100
AcDbEntity
  8
寸法
  6
Continuous
 62
     4
370
    -2
100
AcDbLine
 10
1356.189564373415
 20
553.1410975775245
 30
0.0
 11
1373.189564373415
 21
553.1410975775245
 31
0.0
  0
INSERT
  5
6B03
330
64CC
100
AcDbEntity
  8
寸法
  6
Continuous
 62
     4
370
    -2
100
AcDbBlockReference
  2
_Dot
 10
1355.189564373415
 20
553.1410975775245
 30
0.0
 50
180.0
  0
INSERT
  5
6B04
330
64CC
100
AcDbEntity
  8
寸法
  6
Continuous
 62
     4
370
    -2
100
AcDbBlockReference
  2
_Dot
 10
1374.189564373415
 20
553.1410975775245
 30
0.0
  0
MTEXT
  5
6B05
330
64CC
100
AcDbEntity
  8
寸法
  6
Continuous
 62
     3
100
AcDbMText
 10
1364.689564373416
 20
555.6410975775245
 30
0.0
 40
3.0
 41
0.0
 71
     5
 72
     1
  1
\A1;19
  7
ACAD
 73
     1
 44
1.0
1001
ACAD
1000
MTEXTBEGIN
1070
    73
1070
     1
1070
    44
1040
1.0
1070
    74
1070
     0
1000
MTEXTEND
  0
POINT
  5
6B06
330
64CC
100
AcDbEntity
  8
Defpoints
  6
Continuous
 62
     0
100
AcDbPoint
 10
1355.189564373415
 20
536.6218335775244
 30
0.0
  0
POINT
  5
6B07
330
64CC
100
AcDbEntity
  8
Defpoints
  6
Continuous
 62
     0
100
AcDbPoint
 10
1374.189564373415
 20
536.6759225775244
 30
0.0
  0
POINT
  5
6B08
330
64CC
100
AcDbEntity
  8
Defpoints
  6
Continuous
 62
     0
100
AcDbPoint
 10
1374.189564373415
 20
553.1410975775245
 30
0.0
  0
ENDBLK
  5
64D7
330
64CC
100
AcDbEntity
  8
0
100
AcDbBlockEnd
  0
BLOCK
  5
64E2
330
64D9
100
AcDbEntity
  8
0
100
AcDbBlockBegin
  2
*D56
 70
     1
 10
0.0
 20
0.0
 30
0.0
  3
*D56
  1

  0
LINE
  5
6C0D
330
64D9
100
AcDbEntity
  8
寸法
  6
Continuous
 62
     4
370
    -2
100
AcDbLine
 10
1368.689564373415
 20
541.9303605775244
 30
0.0
 11
1368.689564373415
 21
542.1240060775244
 31
0.0
  0
LINE
  5
6C0E
330
64D9
100
AcDbEntity
  8
寸法
  6
Continuous
 62
     4
370
    -2
100
AcDbLine
 10
1369.689564373415
 20
542.1240060775244
 30
0.0
 11
1373.189564373415
 21
542.1240060775244
 31
0.0
  0
INSERT
  5
6C0F
330
64D9
100
AcDbEntity
  8
寸法
  6
Continuous
 62
     4
370
    -2
100
AcDbBlockReference
  2
_Dot
 10
1368.689564373415
 20
542.1240060775244
 30
0.0
 50
180.0
  0
INSERT
  5
6C10
330
64D9
100
AcDbEntity
  8
寸法
  6
Continuous
 62
     4
370
    -2
100
AcDbBlockReference
  2
_Dot
 10
1374.189564373415
 20
542.1240060775244
 30
0.0
  0
MTEXT
  5
6C11
330
64D9
100
AcDbEntity
  8
寸法
  6
Continuous
 62
     3
100
AcDbMText
 10
1371.439564373415
 20
544.6240060775244
 30
0.0
 40
3.0
 41
0.0
 71
     5
 72
     1
  1
\A1;5.5
  7
ACAD
 73
     1
 44
1.0
1001
ACAD
1000
MTEXTBEGIN
1070
    73
1070
     1
1070
    44
1040
1.0
1070
    74
1070
     0
1000
MTEXTEND
  0
POINT
  5
6C12
330
64D9
100
AcDbEntity
  8
Defpoints
  6
Continuous
 62
     0
100
AcDbPoint
 10
1368.689564373415
 20
541.9303605775244
 30
0.0
  0
POINT
  5
6C13
330
64D9
100
AcDbEntity
  8
Defpoints
  6
Continuous
 62
     0
100
AcDbPoint
 10
1374.189564373415
 20
542.1240060775244
 30
0.0
  0
POINT
  5
6C14
330
64D9
100
AcDbEntity
  8
Defpoints
  6
Continuous
 62
     0
100
AcDbPoint
 10
1374.189564373415
 20
542.1240060775244
 30
0.0
  0
ENDBLK
  5
64E3
330
64D9
100
AcDbEntity
  8
0
100
AcDbBlockEnd
  0
BLOCK
  5
64F8
330
64EE
100
AcDbEntity
  8
0
100
AcDbBlockBegin
  2
*D57
 70
     1
 10
0.0
 20
0.0
 30
0.0
  3
*D57
  1

  0
LINE
  5
6B12
330
64EE
100
AcDbEntity
  8
寸法
  6
Continuous
 62
     4
370
    -2
100
AcDbLine
 10
1449.965947373416
 20
519.4081625775245
 30
0.0
 11
1424.965947373415
 21
519.4081625775245
 31
0.0
  0
LINE
  5
6B13
330
64EE
100
AcDbEntity
  8
寸法
  6
Continuous
 62
     4
370
    -2
100
AcDbLine
 10
1433.965947373416
 20
527.4081625775245
 30
0.0
 11
1424.965947373415
 21
527.4081625775245
 31
0.0
  0
LINE
  5
6B14
330
64EE
100
AcDbEntity
  8
寸法
  6
Continuous
 62
     4
370
    -2
100
AcDbLine
 10
1424.965947373415
 20
520.4081625775245
 30
0.0
 11
1424.965947373415
 21
526.4081625775245
 31
0.0
  0
INSERT
  5
6B15
330
64EE
100
AcDbEntity
  8
寸法
  6
Continuous
 62
     4
370
    -2
100
AcDbBlockReference
  2
_Dot
 10
1424.965947373415
 20
519.4081625775245
 30
0.0
 50
270.0
  0
INSERT
  5
6B16
330
64EE
100
AcDbEntity
  8
寸法
  6
Continuous
 62
     4
370
    -2
100
AcDbBlockReference
  2
_Dot
 10
1424.965947373415
 20
527.4081625775245
 30
0.0
 50
90.0
  0
MTEXT
  5
6B17
330
64EE
100
AcDbEntity
  8
寸法
  6
Continuous
 62
     3
100
AcDbMText
 10
1422.465947373415
 20
523.4081625775247
 30
0.0
 40
3.0
 41
0.0
 71
     5
 72
     1
  1
\A1;8
  7
ACAD
 11
0.0000000000000001
 21
1.0
 31
0.0
 73
     1
 44
1.0
1001
ACAD
1000
MTEXTBEGIN
1070
    73
1070
     1
1070
    44
1040
1.0
1070
    74
1070
     0
1000
MTEXTEND
  0
POINT
  5
6B18
330
64EE
100
AcDbEntity
  8
Defpoints
  6
Continuous
 62
     0
100
AcDbPoint
 10
1449.965947373416
 20
519.4081625775245
 30
0.0
  0
POINT
  5
6B19
330
64EE
100
AcDbEntity
  8
Defpoints
  6
Continuous
 62
     0
100
AcDbPoint
 10
1433.965947373416
 20
527.4081625775245
 30
0.0
  0
POINT
  5
6B1A
330
64EE
100
AcDbEntity
  8
Defpoints
  6
Continuous
 62
     0
100
AcDbPoint
 10
1424.965947373415
 20
527.4081625775245
 30
0.0
  0
ENDBLK
  5
64F9
330
64EE
100
AcDbEntity
  8
0
100
AcDbBlockEnd
  0
BLOCK
  5
6506
330
64FB
100
AcDbEntity
  8
0
100
AcDbBlockBegin
  2
*D58
 70
     1
 10
0.0
 20
0.0
 30
0.0
  3
*D58
  1

  0
LINE
  5
6C2E
330
64FB
100
AcDbEntity
  8
寸法
  6
Continuous
 62
     4
370
    -2
100
AcDbLine
 10
1433.965947373416
 20
527.4081625775245
 30
0.0
 11
1424.965947373415
 21
527.4081625775245
 31
0.0
  0
LINE
  5
6C2F
330
64FB
100
AcDbEntity
  8
寸法
  6
Continuous
 62
     4
370
    -2
100
AcDbLine
 10
1433.965947373416
 20
531.9081625775245
 30
0.0
 11
1424.965947373415
 21
531.9081625775245
 31
0.0
  0
LINE
  5
6C30
330
64FB
100
AcDbEntity
  8
寸法
  6
Continuous
 62
     4
370
    -2
100
AcDbLine
 10
1424.965947373415
 20
528.4081625775245
 30
0.0
 11
1424.965947373415
 21
530.9081625775245
 31
0.0
  0
INSERT
  5
6C31
330
64FB
100
AcDbEntity
  8
寸法
  6
Continuous
 62
     4
370
    -2
100
AcDbBlockReference
  2
_Dot
 10
1424.965947373415
 20
527.4081625775245
 30
0.0
 50
270.0
  0
INSERT
  5
6C32
330
64FB
100
AcDbEntity
  8
寸法
  6
Continuous
 62
     4
370
    -2
100
AcDbBlockReference
  2
_Dot
 10
1424.965947373415
 20
531.9081625775245
 30
0.0
 50
90.0
  0
MTEXT
  5
6C33
330
64FB
100
AcDbEntity
  8
寸法
  6
Continuous
 62
     3
100
AcDbMText
 10
1422.465947373415
 20
529.6581625775247
 30
0.0
 40
3.0
 41
0.0
 71
     5
 72
     1
  1
\A1;4.5
  7
ACAD
 11
0.0000000000000001
 21
1.0
 31
0.0
 73
     1
 44
1.0
1001
ACAD
1000
MTEXTBEGIN
1070
    73
1070
     1
1070
    44
1040
1.0
1070
    74
1070
     0
1000
MTEXTEND
  0
POINT
  5
6C34
330
64FB
100
AcDbEntity
  8
Defpoints
  6
Continuous
 62
     0
100
AcDbPoint
 10
1433.965947373416
 20
527.4081625775245
 30
0.0
  0
POINT
  5
6C35
330
64FB
100
AcDbEntity
  8
Defpoints
  6
Continuous
 62
     0
100
AcDbPoint
 10
1433.965947373416
 20
531.9081625775245
 30
0.0
  0
POINT
  5
6C36
330
64FB
100
AcDbEntity
  8
Defpoints
  6
Continuous
 62
     0
100
AcDbPoint
 10
1424.965947373415
 20
531.9081625775245
 30
0.0
  0
ENDBLK
  5
6507
330
64FB
100
AcDbEntity
  8
0
100
AcDbBlockEnd
  0
BLOCK
  5
651D
330
6513
100
AcDbEntity
  8
0
100
AcDbBlockBegin
  2
*D59
 70
     1
 10
0.0
 20
0.0
 30
0.0
  3
*D59
  1

  0
LINE
  5
6B25
330
6513
100
AcDbEntity
  8
寸法
  6
Continuous
 62
     4
370
    -2
100
AcDbLine
 10
1436.965947373416
 20
524.6586285775244
 30
0.0
 11
1436.965947373416
 21
498.0215545775244
 31
0.0
  0
LINE
  5
6B26
330
6513
100
AcDbEntity
  8
寸法
  6
Continuous
 62
     4
370
    -2
100
AcDbLine
 10
1452.965947373416
 20
516.9526115775245
 30
0.0
 11
1452.965947373416
 21
498.0215545775244
 31
0.0
  0
LINE
  5
6B27
330
6513
100
AcDbEntity
  8
寸法
  6
Continuous
 62
     4
370
    -2
100
AcDbLine
 10
1437.965947373416
 20
498.0215545775244
 30
0.0
 11
1451.965947373415
 21
498.0215545775244
 31
0.0
  0
INSERT
  5
6B28
330
6513
100
AcDbEntity
  8
寸法
  6
Continuous
 62
     4
370
    -2
100
AcDbBlockReference
  2
_Dot
 10
1436.965947373416
 20
498.0215545775244
 30
0.0
 50
180.0
  0
INSERT
  5
6B29
330
6513
100
AcDbEntity
  8
寸法
  6
Continuous
 62
     4
370
    -2
100
AcDbBlockReference
  2
_Dot
 10
1452.965947373416
 20
498.0215545775244
 30
0.0
  0
MTEXT
  5
6B2A
330
6513
100
AcDbEntity
  8
寸法
  6
Continuous
 62
     3
100
AcDbMText
 10
1444.965947373416
 20
500.5215545775244
 30
0.0
 40
3.0
 41
0.0
 71
     5
 72
     1
  1
\A1;16
  7
ACAD
 73
     1
 44
1.0
1001
ACAD
1000
MTEXTBEGIN
1070
    73
1070
     1
1070
    44
1040
1.0
1070
    74
1070
     0
1000
MTEXTEND
  0
POINT
  5
6B2B
330
6513
100
AcDbEntity
  8
Defpoints
  6
Continuous
 62
     0
100
AcDbPoint
 10
1436.965947373416
 20
524.6586285775244
 30
0.0
  0
POINT
  5
6B2C
330
6513
100
AcDbEntity
  8
Defpoints
  6
Continuous
 62
     0
100
AcDbPoint
 10
1452.965947373416
 20
516.9526115775245
 30
0.0
  0
POINT
  5
6B2D
330
6513
100
AcDbEntity
  8
Defpoints
  6
Continuous
 62
     0
100
AcDbPoint
 10
1452.965947373416
 20
498.0215545775244
 30
0.0
  0
ENDBLK
  5
651E
330
6513
100
AcDbEntity
  8
0
100
AcDbBlockEnd
  0
BLOCK
  5
652A
330
6520
100
AcDbEntity
  8
0
100
AcDbBlockBegin
  2
*D60
 70
     1
 10
0.0
 20
0.0
 30
0.0
  3
*D60
  1

  0
LINE
  5
6B2E
330
6520
100
AcDbEntity
  8
寸法
  6
Continuous
 62
     4
370
    -2
100
AcDbLine
 10
1452.965947373416
 20
516.9526115775245
 30
0.0
 11
1452.965947373416
 21
507.4081625775244
 31
0.0
  0
LINE
  5
6B2F
330
6520
100
AcDbEntity
  8
寸法
  6
Continuous
 62
     4
370
    -2
100
AcDbLine
 10
1497.965947373415
 20
516.0895475775244
 30
0.0
 11
1497.965947373415
 21
507.4081625775244
 31
0.0
  0
LINE
  5
6B30
330
6520
100
AcDbEntity
  8
寸法
  6
Continuous
 62
     4
370
    -2
100
AcDbLine
 10
1453.965947373416
 20
507.4081625775244
 30
0.0
 11
1496.965947373415
 21
507.4081625775244
 31
0.0
  0
INSERT
  5
6B31
330
6520
100
AcDbEntity
  8
寸法
  6
Continuous
 62
     4
370
    -2
100
AcDbBlockReference
  2
_Dot
 10
1452.965947373416
 20
507.4081625775244
 30
0.0
 50
180.0
  0
INSERT
  5
6B32
330
6520
100
AcDbEntity
  8
寸法
  6
Continuous
 62
     4
370
    -2
100
AcDbBlockReference
  2
_Dot
 10
1497.965947373415
 20
507.4081625775244
 30
0.0
  0
MTEXT
  5
6B33
330
6520
100
AcDbEntity
  8
寸法
  6
Continuous
 62
     3
100
AcDbMText
 10
1475.465947373415
 20
509.9081625775244
 30
0.0
 40
3.0
 41
0.0
 71
     5
 72
     1
  1
\A1;45
  7
ACAD
 73
     1
 44
1.0
1001
ACAD
1000
MTEXTBEGIN
1070
    73
1070
     1
1070
    44
1040
1.0
1070
    74
1070
     0
1000
MTEXTEND
  0
POINT
  5
6B34
330
6520
100
AcDbEntity
  8
Defpoints
  6
Continuous
 62
     0
100
AcDbPoint
 10
1452.965947373416
 20
516.9526115775245
 30
0.0
  0
POINT
  5
6B35
330
6520
100
AcDbEntity
  8
Defpoints
  6
Continuous
 62
     0
100
AcDbPoint
 10
1497.965947373415
 20
516.0895475775244
 30
0.0
  0
POINT
  5
6B36
330
6520
100
AcDbEntity
  8
Defpoints
  6
Continuous
 62
     0
100
AcDbPoint
 10
1497.965947373415
 20
507.4081625775244
 30
0.0
  0
ENDBLK
  5
652B
330
6520
100
AcDbEntity
  8
0
100
AcDbBlockEnd
  0
BLOCK
  5
6537
330
652D
100
AcDbEntity
  8
0
100
AcDbBlockBegin
  2
*D61
 70
     1
 10
0.0
 20
0.0
 30
0.0
  3
*D61
  1

  0
LINE
  5
6B37
330
652D
100
AcDbEntity
  8
寸法
  6
Continuous
 62
     4
370
    -2
100
AcDbLine
 10
1497.965947373415
 20
516.0895475775244
 30
0.0
 11
1497.965947373415
 21
507.4081625775244
 31
0.0
  0
LINE
  5
6B38
330
652D
100
AcDbEntity
  8
寸法
  6
Continuous
 62
     4
370
    -2
100
AcDbLine
 10
1507.965947373415
 20
516.4081625775245
 30
0.0
 11
1507.965947373415
 21
507.4081625775244
 31
0.0
  0
LINE
  5
6B39
330
652D
100
AcDbEntity
  8
寸法
  6
Continuous
 62
     4
370
    -2
100
AcDbLine
 10
1498.965947373415
 20
507.4081625775244
 30
0.0
 11
1506.965947373415
 21
507.4081625775244
 31
0.0
  0
INSERT
  5
6B3A
330
652D
100
AcDbEntity
  8
寸法
  6
Continuous
 62
     4
370
    -2
100
AcDbBlockReference
  2
_Dot
 10
1497.965947373415
 20
507.4081625775244
 30
0.0
 50
180.0
  0
INSERT
  5
6B3B
330
652D
100
AcDbEntity
  8
寸法
  6
Continuous
 62
     4
370
    -2
100
AcDbBlockReference
  2
_Dot
 10
1507.965947373415
 20
507.4081625775244
 30
0.0
  0
MTEXT
  5
6B3C
330
652D
100
AcDbEntity
  8
寸法
  6
Continuous
 62
     3
100
AcDbMText
 10
1502.965947373415
 20
509.9081625775244
 30
0.0
 40
3.0
 41
0.0
 71
     5
 72
     1
  1
\A1;10
  7
ACAD
 73
     1
 44
1.0
1001
ACAD
1000
MTEXTBEGIN
1070
    73
1070
     1
1070
    44
1040
1.0
1070
    74
1070
     0
1000
MTEXTEND
  0
POINT
  5
6B3D
330
652D
100
AcDbEntity
  8
Defpoints
  6
Continuous
 62
     0
100
AcDbPoint
 10
1497.965947373415
 20
516.0895475775244
 30
0.0
  0
POINT
  5
6B3E
330
652D
100
AcDbEntity
  8
Defpoints
  6
Continuous
 62
     0
100
AcDbPoint
 10
1507.965947373415
 20
516.4081625775245
 30
0.0
  0
POINT
  5
6B3F
330
652D
100
AcDbEntity
  8
Defpoints
  6
Continuous
 62
     0
100
AcDbPoint
 10
1507.965947373415
 20
507.4081625775244
 30
0.0
  0
ENDBLK
  5
6538
330
652D
100
AcDbEntity
  8
0
100
AcDbBlockEnd
  0
BLOCK
  5
6544
330
653A
100
AcDbEntity
  8
0
100
AcDbBlockBegin
  2
*D62
 70
     1
 10
0.0
 20
0.0
 30
0.0
  3
*D62
  1

  0
LINE
  5
6B40
330
653A
100
AcDbEntity
  8
寸法
  6
Continuous
 62
     4
370
    -2
100
AcDbLine
 10
1507.965947373415
 20
516.4081625775245
 30
0.0
 11
1507.965947373415
 21
507.4081625775244
 31
0.0
  0
LINE
  5
6B41
330
653A
100
AcDbEntity
  8
寸法
  6
Continuous
 62
     4
370
    -2
100
AcDbLine
 10
1552.965947373415
 20
516.9503285775244
 30
0.0
 11
1552.965947373415
 21
507.4081625775244
 31
0.0
  0
LINE
  5
6B42
330
653A
100
AcDbEntity
  8
寸法
  6
Continuous
 62
     4
370
    -2
100
AcDbLine
 10
1508.965947373415
 20
507.4081625775244
 30
0.0
 11
1551.965947373415
 21
507.4081625775244
 31
0.0
  0
INSERT
  5
6B43
330
653A
100
AcDbEntity
  8
寸法
  6
Continuous
 62
     4
370
    -2
100
AcDbBlockReference
  2
_Dot
 10
1507.965947373415
 20
507.4081625775244
 30
0.0
 50
180.0
  0
INSERT
  5
6B44
330
653A
100
AcDbEntity
  8
寸法
  6
Continuous
 62
     4
370
    -2
100
AcDbBlockReference
  2
_Dot
 10
1552.965947373415
 20
507.4081625775244
 30
0.0
  0
MTEXT
  5
6B45
330
653A
100
AcDbEntity
  8
寸法
  6
Continuous
 62
     3
100
AcDbMText
 10
1530.465947373415
 20
509.9081625775244
 30
0.0
 40
3.0
 41
0.0
 71
     5
 72
     1
  1
\A1;45
  7
ACAD
 73
     1
 44
1.0
1001
ACAD
1000
MTEXTBEGIN
1070
    73
1070
     1
1070
    44
1040
1.0
1070
    74
1070
     0
1000
MTEXTEND
  0
POINT
  5
6B46
330
653A
100
AcDbEntity
  8
Defpoints
  6
Continuous
 62
     0
100
AcDbPoint
 10
1507.965947373415
 20
516.4081625775245
 30
0.0
  0
POINT
  5
6B47
330
653A
100
AcDbEntity
  8
Defpoints
  6
Continuous
 62
     0
100
AcDbPoint
 10
1552.965947373415
 20
516.9503285775244
 30
0.0
  0
POINT
  5
6B48
330
653A
100
AcDbEntity
  8
Defpoints
  6
Continuous
 62
     0
100
AcDbPoint
 10
1552.965947373415
 20
507.4081625775244
 30
0.0
  0
ENDBLK
  5
6545
330
653A
100
AcDbEntity
  8
0
100
AcDbBlockEnd
  0
BLOCK
  5
6551
330
6547
100
AcDbEntity
  8
0
100
AcDbBlockBegin
  2
*D63
 70
     1
 10
0.0
 20
0.0
 30
0.0
  3
*D63
  1

  0
LINE
  5
6B49
330
6547
100
AcDbEntity
  8
寸法
  6
Continuous
 62
     4
370
    -2
100
AcDbLine
 10
1552.965947373415
 20
516.9503285775244
 30
0.0
 11
1552.965947373415
 21
498.0215545775244
 31
0.0
  0
LINE
  5
6B4A
330
6547
100
AcDbEntity
  8
寸法
  6
Continuous
 62
     4
370
    -2
100
AcDbLine
 10
1562.965947373415
 20
517.9256055775245
 30
0.0
 11
1562.965947373415
 21
498.0215545775244
 31
0.0
  0
LINE
  5
6B4B
330
6547
100
AcDbEntity
  8
寸法
  6
Continuous
 62
     4
370
    -2
100
AcDbLine
 10
1553.965947373415
 20
498.0215545775244
 30
0.0
 11
1561.965947373415
 21
498.0215545775244
 31
0.0
  0
INSERT
  5
6B4C
330
6547
100
AcDbEntity
  8
寸法
  6
Continuous
 62
     4
370
    -2
100
AcDbBlockReference
  2
_Dot
 10
1552.965947373415
 20
498.0215545775244
 30
0.0
 50
180.0
  0
INSERT
  5
6B4D
330
6547
100
AcDbEntity
  8
寸法
  6
Continuous
 62
     4
370
    -2
100
AcDbBlockReference
  2
_Dot
 10
1562.965947373415
 20
498.0215545775244
 30
0.0
  0
MTEXT
  5
6B4E
330
6547
100
AcDbEntity
  8
寸法
  6
Continuous
 62
     3
100
AcDbMText
 10
1557.965947373415
 20
500.5215545775244
 30
0.0
 40
3.0
 41
0.0
 71
     5
 72
     1
  1
\A1;10
  7
ACAD
 73
     1
 44
1.0
1001
ACAD
1000
MTEXTBEGIN
1070
    73
1070
     1
1070
    44
1040
1.0
1070
    74
1070
     0
1000
MTEXTEND
  0
POINT
  5
6B4F
330
6547
100
AcDbEntity
  8
Defpoints
  6
Continuous
 62
     0
100
AcDbPoint
 10
1552.965947373415
 20
516.9503285775244
 30
0.0
  0
POINT
  5
6B50
330
6547
100
AcDbEntity
  8
Defpoints
  6
Continuous
 62
     0
100
AcDbPoint
 10
1562.965947373415
 20
517.9256055775245
 30
0.0
  0
POINT
  5
6B51
330
6547
100
AcDbEntity
  8
Defpoints
  6
Continuous
 62
     0
100
AcDbPoint
 10
1562.965947373415
 20
498.0215545775244
 30
0.0
  0
ENDBLK
  5
6552
330
6547
100
AcDbEntity
  8
0
100
AcDbBlockEnd
  0
BLOCK
  5
655E
330
6554
100
AcDbEntity
  8
0
100
AcDbBlockBegin
  2
*D64
 70
     1
 10
0.0
 20
0.0
 30
0.0
  3
*D64
  1

  0
LINE
  5
6B52
330
6554
100
AcDbEntity
  8
寸法
  6
Continuous
 62
     4
370
    -2
100
AcDbLine
 10
1452.965947373416
 20
516.9526115775245
 30
0.0
 11
1452.965947373416
 21
498.0215545775244
 31
0.0
  0
LINE
  5
6B53
330
6554
100
AcDbEntity
  8
寸法
  6
Continuous
 62
     4
370
    -2
100
AcDbLine
 10
1552.965947373415
 20
516.9503285775244
 30
0.0
 11
1552.965947373415
 21
498.0215545775244
 31
0.0
  0
LINE
  5
6B54
330
6554
100
AcDbEntity
  8
寸法
  6
Continuous
 62
     4
370
    -2
100
AcDbLine
 10
1453.965947373416
 20
498.0215545775244
 30
0.0
 11
1551.965947373415
 21
498.0215545775244
 31
0.0
  0
INSERT
  5
6B55
330
6554
100
AcDbEntity
  8
寸法
  6
Continuous
 62
     4
370
    -2
100
AcDbBlockReference
  2
_Dot
 10
1452.965947373416
 20
498.0215545775244
 30
0.0
 50
180.0
  0
INSERT
  5
6B56
330
6554
100
AcDbEntity
  8
寸法
  6
Continuous
 62
     4
370
    -2
100
AcDbBlockReference
  2
_Dot
 10
1552.965947373415
 20
498.0215545775244
 30
0.0
  0
MTEXT
  5
6B57
330
6554
100
AcDbEntity
  8
寸法
  6
Continuous
 62
     3
100
AcDbMText
 10
1502.965947373415
 20
500.5215545775244
 30
0.0
 40
3.0
 41
0.0
 71
     5
 72
     1
  1
\A1;100
  7
ACAD
 73
     1
 44
1.0
1001
ACAD
1000
MTEXTBEGIN
1070
    73
1070
     1
1070
    44
1040
1.0
1070
    74
1070
     0
1000
MTEXTEND
  0
POINT
  5
6B58
330
6554
100
AcDbEntity
  8
Defpoints
  6
Continuous
 62
     0
100
AcDbPoint
 10
1452.965947373416
 20
516.9526115775245
 30
0.0
  0
POINT
  5
6B59
330
6554
100
AcDbEntity
  8
Defpoints
  6
Continuous
 62
     0
100
AcDbPoint
 10
1552.965947373415
 20
516.9503285775244
 30
0.0
  0
POINT
  5
6B5A
330
6554
100
AcDbEntity
  8
Defpoints
  6
Continuous
 62
     0
100
AcDbPoint
 10
1552.965947373415
 20
498.0215545775244
 30
0.0
  0
ENDBLK
  5
655F
330
6554
100
AcDbEntity
  8
0
100
AcDbBlockEnd
  0
BLOCK
  5
656B
330
6561
100
AcDbEntity
  8
0
100
AcDbBlockBegin
  2
*D65
 70
     1
 10
0.0
 20
0.0
 30
0.0
  3
*D65
  1

  0
LINE
  5
6B5B
330
6561
100
AcDbEntity
  8
寸法
  6
Continuous
 62
     4
370
    -2
100
AcDbLine
 10
1569.366020373416
 20
519.4081625775245
 30
0.0
 11
1573.415642373416
 21
519.4081625775245
 31
0.0
  0
LINE
  5
6B5C
330
6561
100
AcDbEntity
  8
寸法
  6
Continuous
 62
     4
370
    -2
100
AcDbLine
 10
1566.561273373415
 20
527.4081625775245
 30
0.0
 11
1573.415642373416
 21
527.4081625775245
 31
0.0
  0
LINE
  5
6B5D
330
6561
100
AcDbEntity
  8
寸法
  6
Continuous
 62
     4
370
    -2
100
AcDbLine
 10
1573.415642373416
 20
520.4081625775245
 30
0.0
 11
1573.415642373416
 21
526.4081625775245
 31
0.0
  0
INSERT
  5
6B5E
330
6561
100
AcDbEntity
  8
寸法
  6
Continuous
 62
     4
370
    -2
100
AcDbBlockReference
  2
_Dot
 10
1573.415642373416
 20
519.4081625775245
 30
0.0
 50
270.0
  0
INSERT
  5
6B5F
330
6561
100
AcDbEntity
  8
寸法
  6
Continuous
 62
     4
370
    -2
100
AcDbBlockReference
  2
_Dot
 10
1573.415642373416
 20
527.4081625775245
 30
0.0
 50
90.0
  0
MTEXT
  5
6B60
330
6561
100
AcDbEntity
  8
寸法
  6
Continuous
 62
     3
100
AcDbMText
 10
1570.915642373415
 20
523.4081625775247
 30
0.0
 40
3.0
 41
0.0
 71
     5
 72
     1
  1
\A1;8
  7
ACAD
 11
0.0000000000000001
 21
1.0
 31
0.0
 73
     1
 44
1.0
1001
ACAD
1000
MTEXTBEGIN
1070
    73
1070
     1
1070
    44
1040
1.0
1070
    74
1070
     0
1000
MTEXTEND
  0
POINT
  5
6B61
330
6561
100
AcDbEntity
  8
Defpoints
  6
Continuous
 62
     0
100
AcDbPoint
 10
1569.366020373416
 20
519.4081625775245
 30
0.0
  0
POINT
  5
6B62
330
6561
100
AcDbEntity
  8
Defpoints
  6
Continuous
 62
     0
100
AcDbPoint
 10
1566.561273373415
 20
527.4081625775245
 30
0.0
  0
POINT
  5
6B63
330
6561
100
AcDbEntity
  8
Defpoints
  6
Continuous
 62
     0
100
AcDbPoint
 10
1573.415642373416
 20
527.4081625775245
 30
0.0
  0
ENDBLK
  5
656C
330
6561
100
AcDbEntity
  8
0
100
AcDbBlockEnd
  0
BLOCK
  5
6579
330
656E
100
AcDbEntity
  8
0
100
AcDbBlockBegin
  2
*D66
 70
     1
 10
0.0
 20
0.0
 30
0.0
  3
*D66
  1

  0
LINE
  5
6B64
330
656E
100
AcDbEntity
  8
寸法
  6
Continuous
 62
     4
370
    -2
100
AcDbLine
 10
1566.030529373415
 20
530.4081625775245
 30
0.0
 11
1573.415642373416
 21
530.4081625775245
 31
0.0
  0
LINE
  5
6B65
330
656E
100
AcDbEntity
  8
寸法
  6
Continuous
 62
     4
370
    -2
100
AcDbLine
 10
1565.150695373415
 20
533.4081625775245
 30
0.0
 11
1573.415642373416
 21
533.4081625775245
 31
0.0
  0
LINE
  5
6B66
330
656E
100
AcDbEntity
  8
寸法
  6
Continuous
 62
     4
370
    -2
100
AcDbLine
 10
1573.415642373416
 20
529.4081625775245
 30
0.0
 11
1573.415642373416
 21
528.4081625775245
 31
0.0
  0
LINE
  5
6B67
330
656E
100
AcDbEntity
  8
寸法
  6
Continuous
 62
     4
370
    -2
100
AcDbLine
 10
1573.415642373416
 20
534.4081625775245
 30
0.0
 11
1573.415642373416
 21
535.4081625775245
 31
0.0
  0
INSERT
  5
6B68
330
656E
100
AcDbEntity
  8
寸法
  6
Continuous
 62
     4
370
    -2
100
AcDbBlockReference
  2
_Dot
 10
1573.415642373416
 20
530.4081625775245
 30
0.0
 50
90.0
  0
INSERT
  5
6B69
330
656E
100
AcDbEntity
  8
寸法
  6
Continuous
 62
     4
370
    -2
100
AcDbBlockReference
  2
_Dot
 10
1573.415642373416
 20
533.4081625775245
 30
0.0
 50
270.0
  0
MTEXT
  5
6B6A
330
656E
100
AcDbEntity
  8
寸法
  6
Continuous
 62
     3
100
AcDbMText
 10
1570.915642373415
 20
531.9081625775247
 30
0.0
 40
3.0
 41
0.0
 71
     5
 72
     1
  1
\A1;3
  7
ACAD
 11
0.0000000000000001
 21
1.0
 31
0.0
 73
     1
 44
1.0
1001
ACAD
1000
MTEXTBEGIN
1070
    73
1070
     1
1070
    44
1040
1.0
1070
    74
1070
     0
1000
MTEXTEND
  0
POINT
  5
6B6B
330
656E
100
AcDbEntity
  8
Defpoints
  6
Continuous
 62
     0
100
AcDbPoint
 10
1566.030529373415
 20
530.4081625775245
 30
0.0
  0
POINT
  5
6B6C
330
656E
100
AcDbEntity
  8
Defpoints
  6
Continuous
 62
     0
100
AcDbPoint
 10
1565.150695373415
 20
533.4081625775245
 30
0.0
  0
POINT
  5
6B6D
330
656E
100
AcDbEntity
  8
Defpoints
  6
Continuous
 62
     0
100
AcDbPoint
 10
1573.415642373416
 20
533.4081625775245
 30
0.0
  0
ENDBLK
  5
657A
330
656E
100
AcDbEntity
  8
0
100
AcDbBlockEnd
  0
BLOCK
  5
6586
330
657C
100
AcDbEntity
  8
0
100
AcDbBlockBegin
  2
*D67
 70
     1
 10
0.0
 20
0.0
 30
0.0
  3
*D67
  1

  0
LINE
  5
6B6E
330
657C
100
AcDbEntity
  8
寸法
  6
Continuous
 62
     4
370
    -2
100
AcDbLine
 10
1585.392431373415
 20
519.4081625775245
 30
0.0
 11
1595.098490373415
 21
519.4081625775245
 31
0.0
  0
LINE
  5
6B6F
330
657C
100
AcDbEntity
  8
寸法
  6
Continuous
 62
     4
370
    -2
100
AcDbLine
 10
1565.150695373415
 20
533.4081625775245
 30
0.0
 11
1595.098490373415
 21
533.4081625775245
 31
0.0
  0
LINE
  5
6B70
330
657C
100
AcDbEntity
  8
寸法
  6
Continuous
 62
     4
370
    -2
100
AcDbLine
 10
1595.098490373415
 20
520.4081625775245
 30
0.0
 11
1595.098490373415
 21
532.4081625775245
 31
0.0
  0
INSERT
  5
6B71
330
657C
100
AcDbEntity
  8
寸法
  6
Continuous
 62
     4
370
    -2
100
AcDbBlockReference
  2
_Dot
 10
1595.098490373415
 20
519.4081625775245
 30
0.0
 50
270.0
  0
INSERT
  5
6B72
330
657C
100
AcDbEntity
  8
寸法
  6
Continuous
 62
     4
370
    -2
100
AcDbBlockReference
  2
_Dot
 10
1595.098490373415
 20
533.4081625775245
 30
0.0
 50
90.0
  0
MTEXT
  5
6B73
330
657C
100
AcDbEntity
  8
寸法
  6
Continuous
 62
     3
100
AcDbMText
 10
1592.598490373415
 20
526.4081625775247
 30
0.0
 40
3.0
 41
0.0
 71
     5
 72
     1
  1
\A1;14
  7
ACAD
 11
0.0000000000000001
 21
1.0
 31
0.0
 73
     1
 44
1.0
1001
ACAD
1000
MTEXTBEGIN
1070
    73
1070
     1
1070
    44
1040
1.0
1070
    74
1070
     0
1000
MTEXTEND
  0
POINT
  5
6B74
330
657C
100
AcDbEntity
  8
Defpoints
  6
Continuous
 62
     0
100
AcDbPoint
 10
1585.392431373415
 20
519.4081625775245
 30
0.0
  0
POINT
  5
6B75
330
657C
100
AcDbEntity
  8
Defpoints
  6
Continuous
 62
     0
100
AcDbPoint
 10
1565.150695373415
 20
533.4081625775245
 30
0.0
  0
POINT
  5
6B76
330
657C
100
AcDbEntity
  8
Defpoints
  6
Continuous
 62
     0
100
AcDbPoint
 10
1595.098490373415
 20
533.4081625775245
 30
0.0
  0
ENDBLK
  5
6587
330
657C
100
AcDbEntity
  8
0
100
AcDbBlockEnd
  0
BLOCK
  5
6593
330
6589
100
AcDbEntity
  8
0
100
AcDbBlockBegin
  2
*D68
 70
     1
 10
0.0
 20
0.0
 30
0.0
  3
*D68
  1

  0
LINE
  5
6C37
330
6589
100
AcDbEntity
  8
寸法
  6
Continuous
 62
     4
370
    -2
100
AcDbLine
 10
1542.965947373415
 20
527.4081625775245
 30
0.0
 11
1537.184619336329
 21
527.4081625775245
 31
0.0
  0
LINE
  5
6C38
330
6589
100
AcDbEntity
  8
寸法
  6
Continuous
 62
     4
370
    -2
100
AcDbLine
 10
1542.965947373415
 20
532.4081625775245
 30
0.0
 11
1537.184619336329
 21
532.4081625775245
 31
0.0
  0
LINE
  5
6C39
330
6589
100
AcDbEntity
  8
寸法
  6
Continuous
 62
     4
370
    -2
100
AcDbLine
 10
1537.184619336329
 20
528.4081625775245
 30
0.0
 11
1537.184619336329
 21
531.4081625775245
 31
0.0
  0
INSERT
  5
6C3A
330
6589
100
AcDbEntity
  8
寸法
  6
Continuous
 62
     4
370
    -2
100
AcDbBlockReference
  2
_Dot
 10
1537.184619336329
 20
527.4081625775245
 30
0.0
 50
270.0
  0
INSERT
  5
6C3B
330
6589
100
AcDbEntity
  8
寸法
  6
Continuous
 62
     4
370
    -2
100
AcDbBlockReference
  2
_Dot
 10
1537.184619336329
 20
532.4081625775245
 30
0.0
 50
90.0
  0
MTEXT
  5
6C3C
330
6589
100
AcDbEntity
  8
寸法
  6
Continuous
 62
     3
100
AcDbMText
 10
1533.898905050615
 20
530.9996534753124
 30
0.0
 40
3.0
 41
0.0
 71
     5
 72
     1
  1
\A1;(5)
  7
ACAD
 11
0.0000000000000001
 21
1.0
 31
0.0
 73
     1
 44
1.0
1001
ACAD
1000
MTEXTBEGIN
1070
    73
1070
     1
1070
    44
1040
1.0
1070
    74
1070
     0
1000
MTEXTEND
  0
POINT
  5
6C3D
330
6589
100
AcDbEntity
  8
Defpoints
  6
Continuous
 62
     0
100
AcDbPoint
 10
1542.965947373415
 20
527.4081625775245
 30
0.0
  0
POINT
  5
6C3E
330
6589
100
AcDbEntity
  8
Defpoints
  6
Continuous
 62
     0
100
AcDbPoint
 10
1542.965947373415
 20
532.4081625775245
 30
0.0
  0
POINT
  5
6C3F
330
6589
100
AcDbEntity
  8
Defpoints
  6
Continuous
 62
     0
100
AcDbPoint
 10
1537.184619336329
 20
532.4081625775245
 30
0.0
  0
ENDBLK
  5
6594
330
6589
100
AcDbEntity
  8
0
100
AcDbBlockEnd
  0
BLOCK
  5
65B9
330
65AE
100
AcDbEntity
  8
0
100
AcDbBlockBegin
  2
*D69
 70
     1
 10
0.0
 20
0.0
 30
0.0
  3
*D69
  1

  0
LINE
  5
6B81
330
65AE
100
AcDbEntity
  8
寸法
  6
Continuous
 62
     4
370
    -2
100
AcDbLine
 10
1544.965947373415
 20
534.4608335775244
 30
0.0
 11
1544.965947373415
 21
540.8111685775244
 31
0.0
  0
LINE
  5
6B82
330
65AE
100
AcDbEntity
  8
寸法
  6
Continuous
 62
     4
370
    -2
100
AcDbLine
 10
1546.965947373415
 20
534.5688835775245
 30
0.0
 11
1546.965947373415
 21
540.8111685775244
 31
0.0
  0
LINE
  5
6B83
330
65AE
100
AcDbEntity
  8
寸法
  6
Continuous
 62
     4
370
    -2
100
AcDbLine
 10
1543.965947373415
 20
540.8111685775244
 30
0.0
 11
1542.965947373415
 21
540.8111685775244
 31
0.0
  0
LINE
  5
6B84
330
65AE
100
AcDbEntity
  8
寸法
  6
Continuous
 62
     4
370
    -2
100
AcDbLine
 10
1547.965947373415
 20
540.8111685775244
 30
0.0
 11
1548.965947373415
 21
540.8111685775244
 31
0.0
  0
INSERT
  5
6B85
330
65AE
100
AcDbEntity
  8
寸法
  6
Continuous
 62
     4
370
    -2
100
AcDbBlockReference
  2
_Dot
 10
1544.965947373415
 20
540.8111685775244
 30
0.0
  0
INSERT
  5
6B86
330
65AE
100
AcDbEntity
  8
寸法
  6
Continuous
 62
     4
370
    -2
100
AcDbBlockReference
  2
_Dot
 10
1546.965947373415
 20
540.8111685775244
 30
0.0
 50
180.0
  0
MTEXT
  5
6B87
330
65AE
100
AcDbEntity
  8
寸法
  6
Continuous
 62
     3
100
AcDbMText
 10
1545.965947373415
 20
544.0968828632387
 30
0.0
 40
3.0
 41
0.0
 71
     5
 72
     1
  1
\A1;(2)
  7
ACAD
 73
     1
 44
1.0
1001
ACAD
1000
MTEXTBEGIN
1070
    73
1070
     1
1070
    44
1040
1.0
1070
    74
1070
     0
1000
MTEXTEND
  0
POINT
  5
6B88
330
65AE
100
AcDbEntity
  8
Defpoints
  6
Continuous
 62
     0
100
AcDbPoint
 10
1544.965947373415
 20
534.4608335775244
 30
0.0
  0
POINT
  5
6B89
330
65AE
100
AcDbEntity
  8
Defpoints
  6
Continuous
 62
     0
100
AcDbPoint
 10
1546.965947373415
 20
534.5688835775245
 30
0.0
  0
POINT
  5
6B8A
330
65AE
100
AcDbEntity
  8
Defpoints
  6
Continuous
 62
     0
100
AcDbPoint
 10
1546.965947373415
 20
540.8111685775244
 30
0.0
  0
ENDBLK
  5
65BA
330
65AE
100
AcDbEntity
  8
0
100
AcDbBlockEnd
  0
BLOCK
  5
65D0
330
65C6
100
AcDbEntity
  8
0
100
AcDbBlockBegin
  2
*D70
 70
     1
 10
0.0
 20
0.0
 30
0.0
  3
*D70
  1

  0
LINE
  5
6B8B
330
65C6
100
AcDbEntity
  8
寸法
  6
Continuous
 62
     4
370
    -2
100
AcDbLine
 10
1544.965947373415
 20
534.4608335775244
 30
0.0
 11
1544.965947373415
 21
546.3320405775244
 31
0.0
  0
LINE
  5
6B8C
330
65C6
100
AcDbEntity
  8
寸法
  6
Continuous
 62
     4
370
    -2
100
AcDbLine
 10
1552.965947373415
 20
532.0595925775243
 30
0.0
 11
1552.965947373415
 21
546.3320405775244
 31
0.0
  0
LINE
  5
6B8D
330
65C6
100
AcDbEntity
  8
寸法
  6
Continuous
 62
     4
370
    -2
100
AcDbLine
 10
1545.965947373415
 20
546.3320405775244
 30
0.0
 11
1551.965947373415
 21
546.3320405775244
 31
0.0
  0
INSERT
  5
6B8E
330
65C6
100
AcDbEntity
  8
寸法
  6
Continuous
 62
     4
370
    -2
100
AcDbBlockReference
  2
_Dot
 10
1544.965947373415
 20
546.3320405775244
 30
0.0
 50
180.0
  0
INSERT
  5
6B8F
330
65C6
100
AcDbEntity
  8
寸法
  6
Continuous
 62
     4
370
    -2
100
AcDbBlockReference
  2
_Dot
 10
1552.965947373415
 20
546.3320405775244
 30
0.0
  0
MTEXT
  5
6B90
330
65C6
100
AcDbEntity
  8
寸法
  6
Continuous
 62
     3
100
AcDbMText
 10
1548.965947373415
 20
548.8320405775245
 30
0.0
 40
3.0
 41
0.0
 71
     5
 72
     1
  1
\A1;8
  7
ACAD
 73
     1
 44
1.0
1001
ACAD
1000
MTEXTBEGIN
1070
    73
1070
     1
1070
    44
1040
1.0
1070
    74
1070
     0
1000
MTEXTEND
  0
POINT
  5
6B91
330
65C6
100
AcDbEntity
  8
Defpoints
  6
Continuous
 62
     0
100
AcDbPoint
 10
1544.965947373415
 20
534.4608335775244
 30
0.0
  0
POINT
  5
6B92
330
65C6
100
AcDbEntity
  8
Defpoints
  6
Continuous
 62
     0
100
AcDbPoint
 10
1552.965947373415
 20
532.0595925775243
 30
0.0
  0
POINT
  5
6B93
330
65C6
100
AcDbEntity
  8
Defpoints
  6
Continuous
 62
     0
100
AcDbPoint
 10
1552.965947373415
 20
546.3320405775244
 30
0.0
  0
ENDBLK
  5
65D1
330
65C6
100
AcDbEntity
  8
0
100
AcDbBlockEnd
  0
BLOCK
  5
65DD
330
65D3
100
AcDbEntity
  8
0
100
AcDbBlockBegin
  2
*D71
 70
     1
 10
0.0
 20
0.0
 30
0.0
  3
*D71
  1

  0
LINE
  5
6B94
330
65D3
100
AcDbEntity
  8
寸法
  6
Continuous
 62
     4
370
    -2
100
AcDbLine
 10
1552.965947373415
 20
532.0595925775243
 30
0.0
 11
1552.965947373415
 21
546.3320405775244
 31
0.0
  0
LINE
  5
6B95
330
65D3
100
AcDbEntity
  8
寸法
  6
Continuous
 62
     4
370
    -2
100
AcDbLine
 10
1563.965947373415
 20
536.4081625775245
 30
0.0
 11
1563.965947373415
 21
546.3320405775244
 31
0.0
  0
LINE
  5
6B96
330
65D3
100
AcDbEntity
  8
寸法
  6
Continuous
 62
     4
370
    -2
100
AcDbLine
 10
1553.965947373415
 20
546.3320405775244
 30
0.0
 11
1562.965947373415
 21
546.3320405775244
 31
0.0
  0
INSERT
  5
6B97
330
65D3
100
AcDbEntity
  8
寸法
  6
Continuous
 62
     4
370
    -2
100
AcDbBlockReference
  2
_Dot
 10
1552.965947373415
 20
546.3320405775244
 30
0.0
 50
180.0
  0
INSERT
  5
6B98
330
65D3
100
AcDbEntity
  8
寸法
  6
Continuous
 62
     4
370
    -2
100
AcDbBlockReference
  2
_Dot
 10
1563.965947373415
 20
546.3320405775244
 30
0.0
  0
MTEXT
  5
6B99
330
65D3
100
AcDbEntity
  8
寸法
  6
Continuous
 62
     3
100
AcDbMText
 10
1558.465947373415
 20
548.8320405775245
 30
0.0
 40
3.0
 41
0.0
 71
     5
 72
     1
  1
\A1;11
  7
ACAD
 73
     1
 44
1.0
1001
ACAD
1000
MTEXTBEGIN
1070
    73
1070
     1
1070
    44
1040
1.0
1070
    74
1070
     0
1000
MTEXTEND
  0
POINT
  5
6B9A
330
65D3
100
AcDbEntity
  8
Defpoints
  6
Continuous
 62
     0
100
AcDbPoint
 10
1552.965947373415
 20
532.0595925775243
 30
0.0
  0
POINT
  5
6B9B
330
65D3
100
AcDbEntity
  8
Defpoints
  6
Continuous
 62
     0
100
AcDbPoint
 10
1563.965947373415
 20
536.4081625775245
 30
0.0
  0
POINT
  5
6B9C
330
65D3
100
AcDbEntity
  8
Defpoints
  6
Continuous
 62
     0
100
AcDbPoint
 10
1563.965947373415
 20
546.3320405775244
 30
0.0
  0
ENDBLK
  5
65DE
330
65D3
100
AcDbEntity
  8
0
100
AcDbBlockEnd
  0
BLOCK
  5
65E8
330
65E0
100
AcDbEntity
  8
0
100
AcDbBlockBegin
  2
*D72
 70
     1
 10
0.0
 20
0.0
 30
0.0
  3
*D72
  1

  0
LINE
  5
6C49
330
65E0
100
AcDbEntity
  8
寸法
  6
Continuous
 62
     4
370
    -2
100
AcDbLine
 10
1559.365947373416
 20
540.7556395775244
 30
0.0
 11
1562.965947373415
 21
540.7556395775244
 31
0.0
  0
INSERT
  5
6C4A
330
65E0
100
AcDbEntity
  8
寸法
  6
Continuous
 62
     4
370
    -2
100
AcDbBlockReference
  2
_Dot
 10
1558.365947373415
 20
540.7556395775244
 30
0.0
 50
180.0
  0
INSERT
  5
6C4B
330
65E0
100
AcDbEntity
  8
寸法
  6
Continuous
 62
     4
370
    -2
100
AcDbBlockReference
  2
_Dot
 10
1563.965947373415
 20
540.7556395775244
 30
0.0
  0
MTEXT
  5
6C4C
330
65E0
100
AcDbEntity
  8
寸法
  6
Continuous
 62
     3
100
AcDbMText
 10
1561.165947373415
 20
543.2556395775244
 30
0.0
 40
3.0
 41
0.0
 71
     5
 72
     1
  1
\A1;5.6
  7
ACAD
 73
     1
 44
1.0
1001
ACAD
1000
MTEXTBEGIN
1070
    73
1070
     1
1070
    44
1040
1.0
1070
    74
1070
     0
1000
MTEXTEND
  0
POINT
  5
6C4D
330
65E0
100
AcDbEntity
  8
Defpoints
  6
Continuous
 62
     0
100
AcDbPoint
 10
1558.365947373415
 20
540.7556395775244
 30
0.0
  0
POINT
  5
6C4E
330
65E0
100
AcDbEntity
  8
Defpoints
  6
Continuous
 62
     0
100
AcDbPoint
 10
1563.965947373415
 20
540.7556395775244
 30
0.0
  0
POINT
  5
6C4F
330
65E0
100
AcDbEntity
  8
Defpoints
  6
Continuous
 62
     0
100
AcDbPoint
 10
1563.965947373415
 20
540.7556395775244
 30
0.0
  0
ENDBLK
  5
65E9
330
65E0
100
AcDbEntity
  8
0
100
AcDbBlockEnd
  0
ENDSEC
  0
SECTION
  2
ENTITIES
  0
LINE
  5
5EDC
330
1E
100
AcDbEntity
  8
図枠
  6
Continuous
 62
     7
100
AcDbLine
 10
1602.794448373416
 20
663.0215545775245
 30
0.0
 11
1214.794448373416
 21
663.0215545775245
 31
0.0
  0
LINE
  5
5EDD
330
1E
100
AcDbEntity
  8
図枠
  6
Continuous
 62
     7
100
AcDbLine
 10
1214.794448373416
 20
485.0215545775244
 30
0.0
 11
1602.794448373416
 21
485.0215545775244
 31
0.0
  0
LINE
  5
5EDE
330
1E
100
AcDbEntity
  8
図枠
  6
Continuous
 62
     4
100
AcDbLine
 10
1214.794448373416
 20
574.0215545775245
 30
0.0
 11
1602.794448373416
 21
574.0215545775245
 31
0.0
  0
LINE
  5
5EDF
330
1E
100
AcDbEntity
  8
図枠
  6
Continuous
 62
     7
100
AcDbLine
 10
1214.794448373416
 20
663.0215545775245
 30
0.0
 11
1214.794448373416
 21
485.0215545775244
 31
0.0
  0
LINE
  5
5EE2
330
1E
100
AcDbEntity
  8
躯体と製品
  6
Continuous
 62
     4
100
AcDbLine
 10
1283.189578373415
 20
527.6759225775244
 30
0.0
 11
1302.986042373415
 21
527.6759225775244
 31
0.0
  0
LINE
  5
5EE3
330
1E
100
AcDbEntity
  8
躯体と製品
  6
Continuous
 62
     4
100
AcDbLine
 10
1283.189578373415
 20
528.6759225775244
 30
0.0
 11
1303.986042373415
 21
528.6759225775244
 31
0.0
  0
TEXT
  5
5EE4
330
1E
100
AcDbEntity
  8
図枠
  6
Continuous
 62
     4
100
AcDbText
 10
1216.770825373415
 20
563.6303785775244
 30
0.0
 40
5.0
  1
ＳＫ－０２０Ａ
 41
0.8
  7
ACAD
100
AcDbText
  0
LINE
  5
5EE5
330
1E
100
AcDbEntity
  8
図枠
  6
Continuous
 62
     3
100
AcDbLine
 10
1269.794448373416
 20
559.0215545775245
 30
0.0
 11
1214.794448373416
 21
559.0215545775245
 31
0.0
  0
LINE
  5
5EEC
330
1E
100
AcDbEntity
  8
躯体と製品
  6
Continuous
 62
     4
100
AcDbLine
 10
1235.189564373415
 20
527.6759225775244
 30
0.0
 11
1262.989564373415
 21
527.6759225775244
 31
0.0
  0
LINE
  5
5EED
330
1E
100
AcDbEntity
  8
躯体と製品
  6
Continuous
 62
     4
100
AcDbLine
 10
1236.189564373415
 20
528.6759225775244
 30
0.0
 11
1263.989564373415
 21
528.6759225775244
 31
0.0
  0
LINE
  5
5EF7
330
1E
100
AcDbEntity
  8
躯体と製品
  6
Continuous
 62
     4
100
AcDbLine
 10
1235.189564373415
 20
531.6759225775244
 30
0.0
 11
1235.189564373415
 21
527.6759225775244
 31
0.0
  0
LINE
  5
5EF8
330
1E
100
AcDbEntity
  8
躯体と製品
  6
Continuous
 62
     4
100
AcDbLine
 10
1236.189564373415
 20
531.6759225775244
 30
0.0
 11
1236.189564373415
 21
528.6759225775244
 31
0.0
  0
ARC
  5
5EF9
330
1E
100
AcDbEntity
  8
躯体と製品
  6
Continuous
 62
     4
100
AcDbCircle
 10
1235.689564373415
 20
531.6759225775244
 30
0.0
 40
0.5
100
AcDbArc
 50
0.0
 51
180.0
  0
LINE
  5
5F04
330
1E
100
AcDbEntity
  8
躯体と製品
  6
Continuous
 62
     4
100
AcDbLine
 10
1262.989564373415
 20
519.6759225775244
 30
0.0
 11
1283.189578373415
 21
519.6759225775244
 31
0.0
  0
LINE
  5
5F05
330
1E
100
AcDbEntity
  8
躯体と製品
  6
Continuous
 62
     4
100
AcDbLine
 10
1263.989564373415
 20
520.6759225775244
 30
0.0
 11
1282.189578373415
 21
520.6759225775244
 31
0.0
  0
LINE
  5
5F06
330
1E
100
AcDbEntity
  8
躯体と製品
  6
Continuous
 62
     4
100
AcDbLine
 10
1262.989564373415
 20
527.6759225775244
 30
0.0
 11
1262.989564373415
 21
519.6759225775244
 31
0.0
  0
LINE
  5
5F07
330
1E
100
AcDbEntity
  8
躯体と製品
  6
Continuous
 62
     4
100
AcDbLine
 10
1263.989564373415
 20
528.6759225775244
 30
0.0
 11
1263.989564373415
 21
520.6759225775244
 31
0.0
  0
LINE
  5
5F08
330
1E
100
AcDbEntity
  8
躯体と製品
  6
Continuous
 62
     4
100
AcDbLine
 10
1283.189578373415
 20
527.6759225775244
 30
0.0
 11
1283.189578373415
 21
519.6759225775244
 31
0.0
  0
LINE
  5
5F09
330
1E
100
AcDbEntity
  8
躯体と製品
  6
Continuous
 62
     4
100
AcDbLine
 10
1282.189578373415
 20
533.1759225775244
 30
0.0
 11
1282.189578373415
 21
520.6759225775244
 31
0.0
  0
LINE
  5
5F0A
330
1E
100
AcDbEntity
  8
躯体と製品
  6
Continuous
 62
     4
100
AcDbLine
 10
1283.189578373415
 20
533.1759225775244
 30
0.0
 11
1283.189578373415
 21
528.6759225775244
 31
0.0
  0
ARC
  5
5F0B
330
1E
100
AcDbEntity
  8
躯体と製品
  6
Continuous
 62
     4
100
AcDbCircle
 10
1282.689571373415
 20
533.1759225775244
 30
0.0
 40
0.499993
100
AcDbArc
 50
0.0
 51
180.0
  0
LINE
  5
5F0C
330
1E
100
AcDbEntity
  8
図枠
  6
Continuous
 62
     3
100
AcDbLine
 10
1269.794448373416
 20
564.0215545775244
 30
0.0
 11
1254.794448373415
 21
564.0215545775244
 31
0.0
  0
LINE
  5
5F0D
330
1E
100
AcDbEntity
  8
図枠
  6
Continuous
 62
     3
100
AcDbLine
 10
1254.794448373415
 20
559.0215545775245
 30
0.0
 11
1254.794448373415
 21
574.0215545775245
 31
0.0
  0
TEXT
  5
5F0E
330
1E
100
AcDbEntity
  8
図枠
  6
Continuous
 62
     3
100
AcDbText
 10
1256.816802373415
 20
565.0251465775244
 30
0.0
 40
3.0
  1
（ｍｍ）
 41
0.8
  7
ACAD
100
AcDbText
  0
LINE
  5
5F0F
330
1E
100
AcDbEntity
  8
図枠
  6
Continuous
 62
     3
100
AcDbLine
 10
1269.794448373416
 20
574.0215545775245
 30
0.0
 11
1269.794448373416
 21
559.0215545775245
 31
0.0
  0
TEXT
  5
5F10
330
1E
100
AcDbEntity
  8
図枠
  6
Continuous
 62
     3
100
AcDbText
 10
1258.993411622366
 20
559.8945076964456
 30
0.0
 40
3.0
  1
1.0
 41
0.8
  7
ACAD
100
AcDbText
  0
TEXT
  5
5F11
330
1E
100
AcDbEntity
  8
図枠
  6
Continuous
 62
     3
100
AcDbText
 10
1259.240600373416
 20
569.8189695775245
 30
0.0
 40
3.0
  1
板厚
 41
0.8
  7
ACAD
100
AcDbText
  0
LINE
  5
5F15
330
1E
100
AcDbEntity
  8
躯体と製品
  6
Continuous
 62
     4
100
AcDbLine
 10
1342.986042373415
 20
519.6759225775244
 30
0.0
 11
1363.186042373415
 21
519.6759225775244
 31
0.0
  0
LINE
  5
5F16
330
1E
100
AcDbEntity
  8
躯体と製品
  6
Continuous
 62
     4
100
AcDbLine
 10
1362.189564373415
 20
520.6759225775244
 30
0.0
 11
1343.986042373416
 21
520.6759225775244
 31
0.0
  0
LINE
  5
5F19
330
1E
100
AcDbEntity
  8
躯体と製品
  6
Continuous
 62
     4
100
AcDbLine
 10
1302.986042373415
 20
519.6759225775244
 30
0.0
 11
1323.186042373415
 21
519.6759225775244
 31
0.0
  0
LINE
  5
5F1A
330
1E
100
AcDbEntity
  8
躯体と製品
  6
Continuous
 62
     4
100
AcDbLine
 10
1303.986042373415
 20
520.6759225775244
 30
0.0
 11
1322.186042373415
 21
520.6759225775244
 31
0.0
  0
LINE
  5
5F22
330
1E
100
AcDbEntity
  8
躯体と製品
  6
Continuous
 62
     4
100
AcDbLine
 10
1302.986042373415
 20
527.6759225775244
 30
0.0
 11
1302.986042373415
 21
519.6759225775244
 31
0.0
  0
LINE
  5
5F23
330
1E
100
AcDbEntity
  8
躯体と製品
  6
Continuous
 62
     4
100
AcDbLine
 10
1303.986042373415
 20
528.6759225775244
 30
0.0
 11
1303.986042373415
 21
520.6759225775244
 31
0.0
  0
LINE
  5
5F2D
330
1E
100
AcDbEntity
  8
躯体と製品
  6
Continuous
 62
     4
100
AcDbLine
 10
1323.186042373415
 20
527.6759225775244
 30
0.0
 11
1342.986042373415
 21
527.6759225775244
 31
0.0
  0
LINE
  5
5F2E
330
1E
100
AcDbEntity
  8
躯体と製品
  6
Continuous
 62
     4
100
AcDbLine
 10
1322.186042373415
 20
528.6759225775244
 30
0.0
 11
1343.986042373416
 21
528.6759225775244
 31
0.0
  0
LINE
  5
5F2F
330
1E
100
AcDbEntity
  8
躯体と製品
  6
Continuous
 62
     4
100
AcDbLine
 10
1322.186042373415
 20
528.6759225775244
 30
0.0
 11
1322.186042373415
 21
520.6759225775244
 31
0.0
  0
LINE
  5
5F30
330
1E
100
AcDbEntity
  8
躯体と製品
  6
Continuous
 62
     4
100
AcDbLine
 10
1323.186042373415
 20
527.6759225775244
 30
0.0
 11
1323.186042373415
 21
519.6759225775244
 31
0.0
  0
LINE
  5
5F31
330
1E
100
AcDbEntity
  8
躯体と製品
  6
Continuous
 62
     4
100
AcDbLine
 10
1343.986042373416
 20
528.6759225775244
 30
0.0
 11
1343.986042373416
 21
520.6759225775244
 31
0.0
  0
LINE
  5
5F32
330
1E
100
AcDbEntity
  8
躯体と製品
  6
Continuous
 62
     4
100
AcDbLine
 10
1342.986042373415
 20
527.6759225775244
 30
0.0
 11
1342.986042373415
 21
519.6759225775244
 31
0.0
  0
LINE
  5
5F33
330
1E
100
AcDbEntity
  8
躯体と製品
  6
PLINE3
 62
     3
100
AcDbLine
 10
1368.689564373415
 20
541.8740060775244
 30
0.0
 11
1368.689564373415
 21
530.6365015775244
 31
0.0
  0
LINE
  5
5F36
330
1E
100
AcDbEntity
  8
躯体と製品
  6
Continuous
 62
     2
100
AcDbLine
 10
1355.189564373415
 20
527.6759225775244
 30
0.0
 11
1382.986042373415
 21
527.6759225775244
 31
0.0
  0
LINE
  5
5F37
330
1E
100
AcDbEntity
  8
躯体と製品
  6
Continuous
 62
     2
100
AcDbLine
 10
1356.189564373415
 20
528.6759225775244
 30
0.0
 11
1383.986042373415
 21
528.6759225775244
 31
0.0
  0
LINE
  5
5F43
330
1E
100
AcDbEntity
  8
躯体と製品
  6
Continuous
 62
     4
100
AcDbLine
 10
1355.189564373415
 20
532.6759225775244
 30
0.0
 11
1368.385564373415
 21
532.6759225775244
 31
0.0
  0
LINE
  5
5F44
330
1E
100
AcDbEntity
  8
躯体と製品
  6
Continuous
 62
     4
100
AcDbLine
 10
1354.189564373415
 20
533.6759225775245
 30
0.0
 11
1374.189564373415
 21
533.6759225775245
 31
0.0
  0
LINE
  5
5F45
330
1E
100
AcDbEntity
  8
躯体と製品
  6
Continuous
 62
     4
100
AcDbLine
 10
1355.189564373415
 20
527.6759225775244
 30
0.0
 11
1363.189564373415
 21
527.6759225775244
 31
0.0
  0
LINE
  5
5F46
330
1E
100
AcDbEntity
  8
躯体と製品
  6
Continuous
 62
     4
100
AcDbLine
 10
1362.189564373415
 20
526.6759225775245
 30
0.0
 11
1362.189564373415
 21
520.6759225775244
 31
0.0
  0
ARC
  5
5F47
330
1E
100
AcDbEntity
  8
躯体と製品
  6
Continuous
 62
     2
100
AcDbCircle
 10
1355.689564373415
 20
531.6759225775244
 30
0.0
 40
0.5
100
AcDbArc
 50
0.0
 51
180.0
  0
LINE
  5
5F48
330
1E
100
AcDbEntity
  8
躯体と製品
  6
Continuous
 62
     4
100
AcDbLine
 10
1354.189564373415
 20
526.6759225775245
 30
0.0
 11
1362.189564373415
 21
526.6759225775245
 31
0.0
  0
LINE
  5
5F4A
330
1E
100
AcDbEntity
  8
躯体と製品
  6
Continuous
 62
     2
100
AcDbLine
 10
1355.189564373415
 20
531.6759225775244
 30
0.0
 11
1355.189564373415
 21
527.6759225775244
 31
0.0
  0
LINE
  5
5F4B
330
1E
100
AcDbEntity
  8
躯体と製品
  6
Continuous
 62
     4
100
AcDbLine
 10
1355.189564373415
 20
527.6759225775244
 30
0.0
 11
1355.189564373415
 21
532.6759225775244
 31
0.0
  0
LINE
  5
5F4C
330
1E
100
AcDbEntity
  8
躯体と製品
  6
Continuous
 62
     4
100
AcDbLine
 10
1354.189564373415
 20
526.6759225775245
 30
0.0
 11
1354.189564373415
 21
533.6759225775245
 31
0.0
  0
LINE
  5
5F4F
330
1E
100
AcDbEntity
  8
躯体と製品
  6
Continuous
 62
     2
100
AcDbLine
 10
1356.189564373415
 20
531.6759225775244
 30
0.0
 11
1356.189564373415
 21
528.6759225775244
 31
0.0
  0
LINE
  5
5F50
330
1E
100
AcDbEntity
  8
躯体と製品
  6
Continuous
 62
     4
100
AcDbLine
 10
1363.186042373415
 20
527.6759225775244
 30
0.0
 11
1363.186042373415
 21
519.6759225775244
 31
0.0
  0
LINE
  5
5F52
330
1E
100
AcDbEntity
  8
躯体と製品
  6
Continuous
 62
     4
100
AcDbLine
 10
1368.993564373416
 20
532.6759225775244
 30
0.0
 11
1373.189564373415
 21
532.6759225775244
 31
0.0
  0
LINE
  5
5F53
330
1E
100
AcDbEntity
  8
躯体と製品
  6
Continuous
 62
     3
100
AcDbLine
 10
1368.689564373415
 20
532.9759225775244
 30
0.0
 11
1368.993564373416
 21
532.6719225775244
 31
0.0
  0
LINE
  5
5F54
330
1E
100
AcDbEntity
  8
躯体と製品
  6
Continuous
 62
     3
100
AcDbLine
 10
1368.689564373415
 20
532.9759225775244
 30
0.0
 11
1368.385564373415
 21
532.6719225775244
 31
0.0
  0
LINE
  5
5F55
330
1E
100
AcDbEntity
  8
躯体と製品
  6
Continuous
 62
     4
100
AcDbLine
 10
1373.189564373415
 20
531.1759225775245
 30
0.0
 11
1373.189564373415
 21
532.6759225775244
 31
0.0
  0
LINE
  5
5F56
330
1E
100
AcDbEntity
  8
躯体と製品
  6
Continuous
 62
     4
100
AcDbLine
 10
1374.189564373415
 20
531.1759225775245
 30
0.0
 11
1374.189564373415
 21
533.6759225775245
 31
0.0
  0
ARC
  5
5F57
330
1E
100
AcDbEntity
  8
躯体と製品
  6
Continuous
 62
     4
100
AcDbCircle
 10
1373.689564373415
 20
531.1759225775245
 30
0.0
 40
0.5
100
AcDbArc
 50
180.0
 51
0.0
  0
LINE
  5
5F5B
330
1E
100
AcDbEntity
  8
躯体と製品
  6
Continuous
 62
     2
100
AcDbLine
 10
1382.986042373415
 20
527.6759225775244
 30
0.0
 11
1382.986042373415
 21
519.6759225775244
 31
0.0
  0
LINE
  5
5F5C
330
1E
100
AcDbEntity
  8
躯体と製品
  6
Continuous
 62
     2
100
AcDbLine
 10
1383.986042373415
 20
528.6759225775244
 30
0.0
 11
1383.986042373415
 21
520.6759225775244
 31
0.0
  0
LINE
  5
5F5D
330
1E
100
AcDbEntity
  8
躯体と製品
  6
Continuous
 62
     2
100
AcDbLine
 10
1393.176487373415
 20
519.6759225775244
 30
0.0
 11
1382.986042373415
 21
519.6759225775244
 31
0.0
  0
LINE
  5
5F5E
330
1E
100
AcDbEntity
  8
躯体と製品
  6
Continuous
 62
     2
100
AcDbLine
 10
1393.176487373415
 20
520.6759225775244
 30
0.0
 11
1383.986042373415
 21
520.6759225775244
 31
0.0
  0
LINE
  5
5F82
330
1E
100
AcDbEntity
  8
躯体と製品
  6
Continuous
 62
     4
100
AcDbLine
 10
1286.289564373415
 20
609.5081625775244
 30
0.0
 11
1299.089564373416
 21
609.5081625775244
 31
0.0
  0
LINE
  5
5F84
330
1E
100
AcDbEntity
  8
躯体と製品
  6
Continuous
 62
     4
100
AcDbLine
 10
1285.189564373415
 20
608.4081625775244
 30
0.0
 11
1300.189564373416
 21
608.4081625775244
 31
0.0
  0
LINE
  5
5F86
330
1E
100
AcDbEntity
  8
図枠
  6
Continuous
 62
     3
100
AcDbLine
 10
1269.794448373416
 20
663.0215545775245
 30
0.0
 11
1269.794448373416
 21
648.0215545775244
 31
0.0
  0
TEXT
  5
5F87
330
1E
100
AcDbEntity
  8
図枠
  6
Continuous
 62
     3
100
AcDbText
 10
1259.240600373416
 20
658.8189775775244
 30
0.0
 40
3.0
  1
板厚
 41
0.8
  7
ACAD
100
AcDbText
  0
LINE
  5
5F88
330
1E
100
AcDbEntity
  8
図枠
  6
Continuous
 62
     3
100
AcDbLine
 10
1254.794448373415
 20
648.0215545775244
 30
0.0
 11
1254.794448373415
 21
663.0215545775245
 31
0.0
  0
LINE
  5
5F89
330
1E
100
AcDbEntity
  8
図枠
  6
Continuous
 62
     3
100
AcDbLine
 10
1269.794448373416
 20
648.0215545775244
 30
0.0
 11
1214.794448373416
 21
648.0215545775244
 31
0.0
  0
TEXT
  5
5F8D
330
1E
100
AcDbEntity
  8
図枠
  6
Continuous
 62
     4
100
AcDbText
 10
1216.770825373415
 20
652.6303785775244
 30
0.0
 40
5.0
  1
ＳＫ－０１５Ａ
 41
0.8
  7
ACAD
100
AcDbText
  0
LINE
  5
5F90
330
1E
100
AcDbEntity
  8
躯体と製品
  6
Continuous
 62
     4
100
AcDbLine
 10
1236.289564373415
 20
620.3581625775244
 30
0.0
 11
1236.289564373415
 21
617.5081625775244
 31
0.0
  0
LINE
  5
5F91
330
1E
100
AcDbEntity
  8
躯体と製品
  6
Continuous
 62
     4
100
AcDbLine
 10
1255.189564373415
 20
621.8581625775244
 30
0.0
 11
1255.189564373415
 21
617.5081625775244
 31
0.0
  0
LINE
  5
5F92
330
1E
100
AcDbEntity
  8
躯体と製品
  6
Continuous
 62
     4
100
AcDbLine
 10
1256.289564373415
 20
621.8581625775244
 30
0.0
 11
1256.289564373415
 21
609.5081625775244
 31
0.0
  0
LINE
  5
5F93
330
1E
100
AcDbEntity
  8
躯体と製品
  6
Continuous
 62
     4
100
AcDbLine
 10
1235.189564373415
 20
620.3581625775244
 30
0.0
 11
1235.189564373415
 21
616.4081625775244
 31
0.0
  0
LINE
  5
5F95
330
1E
100
AcDbEntity
  8
躯体と製品
  6
Continuous
 62
     4
100
AcDbLine
 10
1256.289564373415
 20
609.5081625775244
 30
0.0
 11
1269.089564373415
 21
609.5081625775244
 31
0.0
  0
LINE
  5
5F97
330
1E
100
AcDbEntity
  8
躯体と製品
  6
Continuous
 62
     4
100
AcDbLine
 10
1255.189564373415
 20
608.4081625775244
 30
0.0
 11
1270.189564373416
 21
608.4081625775244
 31
0.0
  0
LINE
  5
5FA1
330
1E
100
AcDbEntity
  8
躯体と製品
  6
Continuous
 62
     4
100
AcDbLine
 10
1255.189564373415
 20
617.5081625775244
 30
0.0
 11
1236.289564373415
 21
617.5081625775244
 31
0.0
  0
LINE
  5
5FA2
330
1E
100
AcDbEntity
  8
躯体と製品
  6
Continuous
 62
     4
100
AcDbLine
 10
1235.189564373415
 20
616.4081625775244
 30
0.0
 11
1255.189564373415
 21
616.4081625775244
 31
0.0
  0
LINE
  5
5FA7
330
1E
100
AcDbEntity
  8
躯体と製品
  6
Continuous
 62
     4
100
AcDbLine
 10
1255.189564373415
 20
616.4081625775244
 30
0.0
 11
1255.189564373415
 21
608.4081625775244
 31
0.0
  0
LINE
  5
5FB2
330
1E
100
AcDbEntity
  8
躯体と製品
  6
Continuous
 62
     4
100
AcDbLine
 10
1269.089564373415
 20
617.5081625775244
 30
0.0
 11
1286.289564373415
 21
617.5081625775244
 31
0.0
  0
LINE
  5
5FB3
330
1E
100
AcDbEntity
  8
躯体と製品
  6
Continuous
 62
     4
100
AcDbLine
 10
1270.189564373416
 20
616.4081625775244
 30
0.0
 11
1285.189564373415
 21
616.4081625775244
 31
0.0
  0
LINE
  5
5FB4
330
1E
100
AcDbEntity
  8
躯体と製品
  6
Continuous
 62
     4
100
AcDbLine
 10
1270.189564373416
 20
608.4081625775244
 30
0.0
 11
1270.189564373416
 21
616.4081625775244
 31
0.0
  0
LINE
  5
5FB5
330
1E
100
AcDbEntity
  8
躯体と製品
  6
Continuous
 62
     4
100
AcDbLine
 10
1269.089564373415
 20
609.5081625775244
 30
0.0
 11
1269.089564373415
 21
617.5081625775244
 31
0.0
  0
LINE
  5
5FB6
330
1E
100
AcDbEntity
  8
躯体と製品
  6
Continuous
 62
     4
100
AcDbLine
 10
1285.189564373415
 20
616.4081625775244
 30
0.0
 11
1285.189564373415
 21
608.4081625775244
 31
0.0
  0
LINE
  5
5FB7
330
1E
100
AcDbEntity
  8
躯体と製品
  6
Continuous
 62
     4
100
AcDbLine
 10
1286.289564373415
 20
609.5081625775244
 30
0.0
 11
1286.289564373415
 21
617.5081625775244
 31
0.0
  0
LINE
  5
5FB8
330
1E
100
AcDbEntity
  8
図枠
  6
Continuous
 62
     3
100
AcDbLine
 10
1269.794448373416
 20
653.0215545775245
 30
0.0
 11
1254.794448373415
 21
653.0215545775245
 31
0.0
  0
ARC
  5
5FBA
330
1E
100
AcDbEntity
  8
躯体と製品
  6
Continuous
 62
     4
100
AcDbCircle
 10
1235.739564373415
 20
620.3581625775244
 30
0.0
 40
0.55
100
AcDbArc
 50
0.0
 51
180.0
  0
ARC
  5
5FBB
330
1E
100
AcDbEntity
  8
躯体と製品
  6
Continuous
 62
     4
100
AcDbCircle
 10
1255.739564373415
 20
621.8581625775244
 30
0.0
 40
0.55
100
AcDbArc
 50
0.0
 51
180.0
  0
TEXT
  5
5FBC
330
1E
100
AcDbEntity
  8
図枠
  6
Continuous
 62
     3
100
AcDbText
 10
1258.81613904578
 20
648.7459324188998
 30
0.0
 40
3.0
  1
1.1
 41
0.8
  7
ACAD
100
AcDbText
  0
TEXT
  5
5FBD
330
1E
100
AcDbEntity
  8
図枠
  6
Continuous
 62
     3
100
AcDbText
 10
1256.816802373415
 20
654.0251535775244
 30
0.0
 40
3.0
  1
（ｍｍ）
 41
0.8
  7
ACAD
100
AcDbText
  0
TEXT
  5
5FBE
330
1E
100
AcDbEntity
  8
図枠
  6
Continuous
 62
     4
100
AcDbText
 10
1226.368522373415
 20
672.7437665775243
 30
0.0
 40
5.0
  1
ＳＫシリーズ
 41
0.8
  7
ACAD
100
AcDbText
  0
LINE
  5
5FC2
330
1E
100
AcDbEntity
  8
躯体と製品
  6
Continuous
 62
     4
100
AcDbLine
 10
1346.289564373415
 20
609.5081625775244
 30
0.0
 11
1359.089564373415
 21
609.5081625775244
 31
0.0
  0
LINE
  5
5FC3
330
1E
100
AcDbEntity
  8
躯体と製品
  6
Continuous
 62
     4
100
AcDbLine
 10
1345.189564373415
 20
608.4081625775244
 30
0.0
 11
1360.189564373415
 21
608.4081625775244
 31
0.0
  0
LINE
  5
5FC5
330
1E
100
AcDbEntity
  8
躯体と製品
  6
Continuous
 62
     4
100
AcDbLine
 10
1316.289564373415
 20
609.5081625775244
 30
0.0
 11
1329.089564373415
 21
609.5081625775244
 31
0.0
  0
LINE
  5
5FC6
330
1E
100
AcDbEntity
  8
躯体と製品
  6
Continuous
 62
     4
100
AcDbLine
 10
1315.189564373415
 20
608.4081625775244
 30
0.0
 11
1330.189564373415
 21
608.4081625775244
 31
0.0
  0
LINE
  5
5FD2
330
1E
100
AcDbEntity
  8
躯体と製品
  6
Continuous
 62
     4
100
AcDbLine
 10
1299.089564373416
 20
617.5081625775244
 30
0.0
 11
1316.289564373415
 21
617.5081625775244
 31
0.0
  0
LINE
  5
5FD3
330
1E
100
AcDbEntity
  8
躯体と製品
  6
Continuous
 62
     4
100
AcDbLine
 10
1300.189564373416
 20
616.4081625775244
 30
0.0
 11
1315.189564373415
 21
616.4081625775244
 31
0.0
  0
LINE
  5
5FD4
330
1E
100
AcDbEntity
  8
躯体と製品
  6
Continuous
 62
     4
100
AcDbLine
 10
1300.189564373416
 20
608.4081625775244
 30
0.0
 11
1300.189564373416
 21
616.4081625775244
 31
0.0
  0
LINE
  5
5FD5
330
1E
100
AcDbEntity
  8
躯体と製品
  6
Continuous
 62
     4
100
AcDbLine
 10
1299.089564373416
 20
609.5081625775244
 30
0.0
 11
1299.089564373416
 21
617.5081625775244
 31
0.0
  0
LINE
  5
5FD6
330
1E
100
AcDbEntity
  8
躯体と製品
  6
Continuous
 62
     4
100
AcDbLine
 10
1315.189564373415
 20
616.4081625775244
 30
0.0
 11
1315.189564373415
 21
608.4081625775244
 31
0.0
  0
LINE
  5
5FD7
330
1E
100
AcDbEntity
  8
躯体と製品
  6
Continuous
 62
     4
100
AcDbLine
 10
1316.289564373415
 20
617.5081625775244
 30
0.0
 11
1316.289564373415
 21
609.5081625775244
 31
0.0
  0
LINE
  5
5FE2
330
1E
100
AcDbEntity
  8
躯体と製品
  6
Continuous
 62
     4
100
AcDbLine
 10
1329.089564373415
 20
617.5081625775244
 30
0.0
 11
1346.289564373415
 21
617.5081625775244
 31
0.0
  0
LINE
  5
5FE3
330
1E
100
AcDbEntity
  8
躯体と製品
  6
Continuous
 62
     4
100
AcDbLine
 10
1330.189564373415
 20
616.4081625775244
 30
0.0
 11
1345.189564373415
 21
616.4081625775244
 31
0.0
  0
LINE
  5
5FE4
330
1E
100
AcDbEntity
  8
躯体と製品
  6
Continuous
 62
     4
100
AcDbLine
 10
1330.189564373415
 20
608.4081625775244
 30
0.0
 11
1330.189564373415
 21
616.4081625775244
 31
0.0
  0
LINE
  5
5FE5
330
1E
100
AcDbEntity
  8
躯体と製品
  6
Continuous
 62
     4
100
AcDbLine
 10
1329.089564373415
 20
609.5081625775244
 30
0.0
 11
1329.089564373415
 21
617.5081625775244
 31
0.0
  0
LINE
  5
5FE6
330
1E
100
AcDbEntity
  8
躯体と製品
  6
Continuous
 62
     4
100
AcDbLine
 10
1345.189564373415
 20
616.4081625775244
 30
0.0
 11
1345.189564373415
 21
608.4081625775244
 31
0.0
  0
LINE
  5
5FE7
330
1E
100
AcDbEntity
  8
躯体と製品
  6
Continuous
 62
     4
100
AcDbLine
 10
1346.289564373415
 20
609.5081625775244
 30
0.0
 11
1346.289564373415
 21
617.5081625775244
 31
0.0
  0
LINE
  5
5FE9
330
1E
100
AcDbEntity
  8
躯体と製品
  6
Continuous
 62
     2
100
AcDbLine
 10
1356.289564373415
 20
620.3581625775244
 30
0.0
 11
1356.289564373415
 21
617.5081625775244
 31
0.0
  0
LINE
  5
5FEA
330
1E
100
AcDbEntity
  8
躯体と製品
  6
Continuous
 62
     2
100
AcDbLine
 10
1375.189564373415
 20
621.8581625775244
 30
0.0
 11
1375.189564373415
 21
617.5081625775244
 31
0.0
  0
LINE
  5
5FEB
330
1E
100
AcDbEntity
  8
躯体と製品
  6
Continuous
 62
     2
100
AcDbLine
 10
1376.289564373415
 20
621.8581625775244
 30
0.0
 11
1376.289564373415
 21
609.5081625775244
 31
0.0
  0
LINE
  5
5FEC
330
1E
100
AcDbEntity
  8
躯体と製品
  6
Continuous
 62
     2
100
AcDbLine
 10
1355.189564373415
 20
620.3581625775244
 30
0.0
 11
1355.189564373415
 21
616.4081625775244
 31
0.0
  0
ARC
  5
5FEF
330
1E
100
AcDbEntity
  8
躯体と製品
  6
Continuous
 62
     4
100
AcDbCircle
 10
1371.639564373415
 20
619.9581625775245
 30
0.0
 40
0.55
100
AcDbArc
 50
180.0
 51
0.0
  0
LINE
  5
5FF0
330
1E
100
AcDbEntity
  8
躯体と製品
  6
Continuous
 62
     4
100
AcDbLine
 10
1354.189564373415
 20
616.4081625775244
 30
0.0
 11
1354.189564373415
 21
621.3081625775243
 31
0.0
  0
LINE
  5
5FF1
330
1E
100
AcDbEntity
  8
躯体と製品
  6
Continuous
 62
     4
100
AcDbLine
 10
1353.089564373415
 20
622.4081625775244
 30
0.0
 11
1353.089564373415
 21
615.3081625775244
 31
0.0
  0
LINE
  5
5FF3
330
1E
100
AcDbEntity
  8
躯体と製品
  6
PLINE3
 62
     3
100
AcDbLine
 10
1366.589564373416
 20
630.8081235775245
 30
0.0
 11
1366.589564373416
 21
619.1685875775244
 31
0.0
  0
LINE
  5
5FF4
330
1E
100
AcDbEntity
  8
躯体と製品
  6
Continuous
 62
     2
100
AcDbLine
 10
1376.289564373415
 20
609.5081625775244
 30
0.0
 11
1389.089564373416
 21
609.5081625775244
 31
0.0
  0
LINE
  5
5FF5
330
1E
100
AcDbEntity
  8
躯体と製品
  6
Continuous
 62
     2
100
AcDbLine
 10
1375.189564373415
 20
608.4081625775244
 30
0.0
 11
1390.189564373415
 21
608.4081625775244
 31
0.0
  0
LINE
  5
6002
330
1E
100
AcDbEntity
  8
躯体と製品
  6
Continuous
 62
     2
100
AcDbLine
 10
1375.189564373415
 20
617.5081625775244
 30
0.0
 11
1356.289564373415
 21
617.5081625775244
 31
0.0
  0
LINE
  5
6003
330
1E
100
AcDbEntity
  8
躯体と製品
  6
Continuous
 62
     2
100
AcDbLine
 10
1355.189564373415
 20
616.4081625775244
 30
0.0
 11
1375.189564373415
 21
616.4081625775244
 31
0.0
  0
LINE
  5
6004
330
1E
100
AcDbEntity
  8
躯体と製品
  6
Continuous
 62
     4
100
AcDbLine
 10
1360.189564373415
 20
608.4081625775244
 30
0.0
 11
1360.189564373415
 21
616.4081625775244
 31
0.0
  0
LINE
  5
6005
330
1E
100
AcDbEntity
  8
躯体と製品
  6
Continuous
 62
     4
100
AcDbLine
 10
1353.089564373415
 20
615.3081625775244
 30
0.0
 11
1359.089564373415
 21
615.3081625775244
 31
0.0
  0
LINE
  5
6006
330
1E
100
AcDbEntity
  8
躯体と製品
  6
Continuous
 62
     4
100
AcDbLine
 10
1360.189564373415
 20
616.4081625775244
 30
0.0
 11
1354.189564373415
 21
616.4081625775244
 31
0.0
  0
LINE
  5
6008
330
1E
100
AcDbEntity
  8
躯体と製品
  6
Continuous
 62
     4
100
AcDbLine
 10
1359.089564373415
 20
609.5081625775244
 30
0.0
 11
1359.089564373415
 21
615.3081625775244
 31
0.0
  0
LINE
  5
6009
330
1E
100
AcDbEntity
  8
躯体と製品
  6
Continuous
 62
     2
100
AcDbLine
 10
1375.189564373415
 20
616.4081625775244
 30
0.0
 11
1375.189564373415
 21
608.4081625775244
 31
0.0
  0
LINE
  5
600A
330
1E
100
AcDbEntity
  8
躯体と製品
  6
Continuous
 62
     2
100
AcDbLine
 10
1396.123617373415
 20
617.5081625775244
 30
0.0
 11
1389.089564373416
 21
617.5081625775244
 31
0.0
  0
LINE
  5
600B
330
1E
100
AcDbEntity
  8
躯体と製品
  6
Continuous
 62
     2
100
AcDbLine
 10
1396.123617373415
 20
616.4081625775244
 30
0.0
 11
1390.189564373415
 21
616.4081625775244
 31
0.0
  0
LINE
  5
600D
330
1E
100
AcDbEntity
  8
躯体と製品
  6
Continuous
 62
     2
100
AcDbLine
 10
1390.189564373415
 20
608.4081625775244
 30
0.0
 11
1390.189564373415
 21
616.4081625775244
 31
0.0
  0
LINE
  5
6014
330
1E
100
AcDbEntity
  8
躯体と製品
  6
Continuous
 62
     2
100
AcDbLine
 10
1389.089564373416
 20
609.5081625775244
 30
0.0
 11
1389.089564373416
 21
617.5081625775244
 31
0.0
  0
LINE
  5
601A
330
1E
100
AcDbEntity
  8
躯体と製品
  6
Continuous
 62
     4
100
AcDbLine
 10
1354.189564373415
 20
621.3081625775243
 30
0.0
 11
1366.289564373415
 21
621.3081625775243
 31
0.0
  0
LINE
  5
601B
330
1E
100
AcDbEntity
  8
躯体と製品
  6
Continuous
 62
     4
100
AcDbLine
 10
1372.189564373415
 20
622.4081625775244
 30
0.0
 11
1353.089564373415
 21
622.4081625775244
 31
0.0
  0
ARC
  5
6022
330
1E
100
AcDbEntity
  8
躯体と製品
  6
Continuous
 62
     2
100
AcDbCircle
 10
1355.739564373415
 20
620.3581625775244
 30
0.0
 40
0.55
100
AcDbArc
 50
0.0
 51
180.0
  0
LINE
  5
602E
330
1E
100
AcDbEntity
  8
躯体と製品
  6
Continuous
 62
     4
100
AcDbLine
 10
1366.889564373416
 20
621.3081625775243
 30
0.0
 11
1371.089564373416
 21
621.3081625775243
 31
0.0
  0
LINE
  5
602F
330
1E
100
AcDbEntity
  8
躯体と製品
  6
Continuous
 62
     3
100
AcDbLine
 10
1366.589564373416
 20
621.6081625775244
 30
0.0
 11
1366.889564373416
 21
621.3081625775243
 31
0.0
  0
LINE
  5
6030
330
1E
100
AcDbEntity
  8
躯体と製品
  6
Continuous
 62
     3
100
AcDbLine
 10
1366.589564373416
 20
621.6081625775244
 30
0.0
 11
1366.289564373415
 21
621.3081625775243
 31
0.0
  0
LINE
  5
6032
330
1E
100
AcDbEntity
  8
躯体と製品
  6
Continuous
 62
     4
100
AcDbLine
 10
1371.089564373416
 20
619.9581625775245
 30
0.0
 11
1371.089564373416
 21
621.3081625775243
 31
0.0
  0
LINE
  5
6033
330
1E
100
AcDbEntity
  8
躯体と製品
  6
Continuous
 62
     4
100
AcDbLine
 10
1372.189564373415
 20
619.9581625775245
 30
0.0
 11
1372.189564373415
 21
622.4081625775244
 31
0.0
  0
ARC
  5
6034
330
1E
100
AcDbEntity
  8
躯体と製品
  6
Continuous
 62
     2
100
AcDbCircle
 10
1375.739564373416
 20
621.8581625775244
 30
0.0
 40
0.55
100
AcDbArc
 50
0.0
 51
180.0
  0
LINE
  5
6043
330
1E
100
AcDbEntity
  8
図枠
  6
Continuous
 62
     7
100
AcDbLine
 10
1602.794448373416
 20
485.0215545775244
 30
0.0
 11
1602.794448373416
 21
663.0215545775245
 31
0.0
  0
LINE
  5
6044
330
1E
100
AcDbEntity
  8
図枠
  6
Continuous
 62
     4
100
AcDbLine
 10
1408.794448373416
 20
663.0215545775245
 30
0.0
 11
1408.794448373416
 21
485.0215545775244
 31
0.0
  0
LINE
  5
6045
330
1E
100
AcDbEntity
  8
躯体と製品
  6
Continuous
 62
     4
100
AcDbLine
 10
1508.965947373415
 20
520.4081625775245
 30
0.0
 11
1551.965947373415
 21
520.4081625775245
 31
0.0
  0
LINE
  5
6047
330
1E
100
AcDbEntity
  8
躯体と製品
  6
Continuous
 62
     4
100
AcDbLine
 10
1507.965947373415
 20
519.4081625775245
 30
0.0
 11
1552.965947373415
 21
519.4081625775245
 31
0.0
  0
LINE
  5
604A
330
1E
100
AcDbEntity
  8
躯体と製品
  6
Continuous
 62
     4
100
AcDbLine
 10
1453.965947373416
 20
520.4081625775245
 30
0.0
 11
1496.965947373415
 21
520.4081625775245
 31
0.0
  0
LINE
  5
604B
330
1E
100
AcDbEntity
  8
躯体と製品
  6
Continuous
 62
     4
100
AcDbLine
 10
1452.965947373416
 20
519.4081625775245
 30
0.0
 11
1497.965947373415
 21
519.4081625775245
 31
0.0
  0
LINE
  5
604D
330
1E
100
AcDbEntity
  8
躯体と製品
  6
Continuous
 62
     4
100
AcDbLine
 10
1453.965947373416
 20
528.4081625775245
 30
0.0
 11
1437.965947373416
 21
528.4081625775245
 31
0.0
  0
LINE
  5
604F
330
1E
100
AcDbEntity
  8
躯体と製品
  6
Continuous
 62
     4
100
AcDbLine
 10
1436.965947373416
 20
527.4081625775245
 30
0.0
 11
1452.965947373416
 21
527.4081625775245
 31
0.0
  0
LINE
  5
605D
330
1E
100
AcDbEntity
  8
躯体と製品
  6
Continuous
 62
     4
100
AcDbLine
 10
1437.965947373416
 20
531.4081625775245
 30
0.0
 11
1437.965947373416
 21
528.4081625775245
 31
0.0
  0
LINE
  5
605E
330
1E
100
AcDbEntity
  8
躯体と製品
  6
Continuous
 62
     4
100
AcDbLine
 10
1436.965947373416
 20
531.4081625775245
 30
0.0
 11
1436.965947373416
 21
527.4081625775245
 31
0.0
  0
ARC
  5
605F
330
1E
100
AcDbEntity
  8
躯体と製品
  6
Continuous
 62
     4
100
AcDbCircle
 10
1437.465947373415
 20
531.4081625775245
 30
0.0
 40
0.5
100
AcDbArc
 50
0.0
 51
180.0
  0
LINE
  5
6067
330
1E
100
AcDbEntity
  8
躯体と製品
  6
Continuous
 62
     4
100
AcDbLine
 10
1453.965947373416
 20
528.4081625775245
 30
0.0
 11
1453.965947373416
 21
520.4081625775245
 31
0.0
  0
LINE
  5
6068
330
1E
100
AcDbEntity
  8
躯体と製品
  6
Continuous
 62
     4
100
AcDbLine
 10
1452.965947373416
 20
527.4081625775245
 30
0.0
 11
1452.965947373416
 21
519.4081625775245
 31
0.0
  0
TEXT
  5
6069
330
1E
100
AcDbEntity
  8
図枠
  6
Continuous
 62
     4
100
AcDbText
 10
1410.770831373415
 20
563.6303785775244
 30
0.0
 40
5.0
  1
ＳＫ－０４５Ａ
 41
0.8
  7
ACAD
100
AcDbText
  0
LINE
  5
606A
330
1E
100
AcDbEntity
  8
図枠
  6
Continuous
 62
     3
100
AcDbLine
 10
1463.794448373415
 20
559.0215545775245
 30
0.0
 11
1408.794448373416
 21
559.0215545775245
 31
0.0
  0
TEXT
  5
606B
330
1E
100
AcDbEntity
  8
図枠
  6
Continuous
 62
     3
100
AcDbText
 10
1450.816806373415
 20
565.0251465775244
 30
0.0
 40
3.0
  1
（ｍｍ）
 41
0.8
  7
ACAD
100
AcDbText
  0
TEXT
  5
606C
330
1E
100
AcDbEntity
  8
図枠
  6
Continuous
 62
     3
100
AcDbText
 10
1453.240604373415
 20
569.8189695775245
 30
0.0
 40
3.0
  1
板厚
 41
0.8
  7
ACAD
100
AcDbText
  0
LINE
  5
606D
330
1E
100
AcDbEntity
  8
図枠
  6
Continuous
 62
     3
100
AcDbLine
 10
1463.794448373415
 20
564.0215545775244
 30
0.0
 11
1448.794448373416
 21
564.0215545775244
 31
0.0
  0
LINE
  5
606E
330
1E
100
AcDbEntity
  8
図枠
  6
Continuous
 62
     3
100
AcDbLine
 10
1448.794448373416
 20
559.0215545775245
 30
0.0
 11
1448.794448373416
 21
574.0215545775245
 31
0.0
  0
LINE
  5
606F
330
1E
100
AcDbEntity
  8
図枠
  6
Continuous
 62
     3
100
AcDbLine
 10
1463.794448373415
 20
574.0215545775245
 30
0.0
 11
1463.794448373415
 21
559.0215545775245
 31
0.0
  0
TEXT
  5
6070
330
1E
100
AcDbEntity
  8
図枠
  6
Continuous
 62
     3
100
AcDbText
 10
1453.349750170823
 20
559.7752658253125
 30
0.0
 40
3.0
  1
1.0
 41
0.8
  7
ACAD
100
AcDbText
  0
LINE
  5
6071
330
1E
100
AcDbEntity
  8
躯体と製品
  6
Continuous
 62
     4
100
AcDbLine
 10
1496.965947373415
 20
528.4081625775245
 30
0.0
 11
1508.965947373415
 21
528.4081625775245
 31
0.0
  0
LINE
  5
6073
330
1E
100
AcDbEntity
  8
躯体と製品
  6
Continuous
 62
     4
100
AcDbLine
 10
1497.965947373415
 20
527.4081625775245
 30
0.0
 11
1507.965947373415
 21
527.4081625775245
 31
0.0
  0
LINE
  5
6079
330
1E
100
AcDbEntity
  8
躯体と製品
  6
Continuous
 62
     4
100
AcDbLine
 10
1496.965947373415
 20
528.4081625775245
 30
0.0
 11
1496.965947373415
 21
520.4081625775245
 31
0.0
  0
LINE
  5
607A
330
1E
100
AcDbEntity
  8
躯体と製品
  6
Continuous
 62
     4
100
AcDbLine
 10
1497.965947373415
 20
519.4081625775245
 30
0.0
 11
1497.965947373415
 21
527.4081625775245
 31
0.0
  0
LINE
  5
6080
330
1E
100
AcDbEntity
  8
躯体と製品
  6
Continuous
 62
     4
100
AcDbLine
 10
1508.965947373415
 20
528.4081625775245
 30
0.0
 11
1508.965947373415
 21
520.4081625775245
 31
0.0
  0
LINE
  5
6081
330
1E
100
AcDbEntity
  8
躯体と製品
  6
Continuous
 62
     4
100
AcDbLine
 10
1507.965947373415
 20
527.4081625775245
 30
0.0
 11
1507.965947373415
 21
519.4081625775245
 31
0.0
  0
LINE
  5
6087
330
1E
100
AcDbEntity
  8
躯体と製品
  6
PLINE3
 62
     3
100
AcDbLine
 10
1558.365947373415
 20
541.8081235775245
 30
0.0
 11
1558.365947373415
 21
530.1685875775245
 31
0.0
  0
LINE
  5
6089
330
1E
100
AcDbEntity
  8
躯体と製品
  6
Continuous
 62
     2
100
AcDbLine
 10
1563.965947373415
 20
528.4081625775245
 30
0.0
 11
1547.965947373415
 21
528.4081625775245
 31
0.0
  0
LINE
  5
608A
330
1E
100
AcDbEntity
  8
躯体と製品
  6
Continuous
 62
     4
100
AcDbLine
 10
1558.665947373416
 20
532.4081625775245
 30
0.0
 11
1562.965947373415
 21
532.4081625775245
 31
0.0
  0
LINE
  5
608B
330
1E
100
AcDbEntity
  8
躯体と製品
  6
Continuous
 62
     2
100
AcDbLine
 10
1546.965947373415
 20
527.4081625775245
 30
0.0
 11
1562.965947373415
 21
527.4081625775245
 31
0.0
  0
LINE
  5
608C
330
1E
100
AcDbEntity
  8
躯体と製品
  6
Continuous
 62
     4
100
AcDbLine
 10
1563.965947373415
 20
533.4081625775245
 30
0.0
 11
1543.965947373415
 21
533.4081625775245
 31
0.0
  0
LINE
  5
6095
330
1E
100
AcDbEntity
  8
躯体と製品
  6
Continuous
 62
     4
100
AcDbLine
 10
1558.065947373416
 20
532.4081625775245
 30
0.0
 11
1544.965947373415
 21
532.4081625775245
 31
0.0
  0
LINE
  5
6096
330
1E
100
AcDbEntity
  8
躯体と製品
  6
Continuous
 62
     4
100
AcDbLine
 10
1543.965947373415
 20
526.4081625775245
 30
0.0
 11
1551.965947373415
 21
526.4081625775245
 31
0.0
  0
LINE
  5
6097
330
1E
100
AcDbEntity
  8
躯体と製品
  6
Continuous
 62
     4
100
AcDbLine
 10
1552.965947373415
 20
527.4081625775245
 30
0.0
 11
1544.965947373415
 21
527.4081625775245
 31
0.0
  0
LINE
  5
609C
330
1E
100
AcDbEntity
  8
躯体と製品
  6
Continuous
 62
     4
100
AcDbLine
 10
1543.965947373415
 20
526.4081625775245
 30
0.0
 11
1543.965947373415
 21
533.4081625775245
 31
0.0
  0
LINE
  5
609D
330
1E
100
AcDbEntity
  8
躯体と製品
  6
Continuous
 62
     4
100
AcDbLine
 10
1544.965947373415
 20
527.4081625775245
 30
0.0
 11
1544.965947373415
 21
532.4081625775245
 31
0.0
  0
LINE
  5
60A0
330
1E
100
AcDbEntity
  8
躯体と製品
  6
Continuous
 62
     4
100
AcDbLine
 10
1551.965947373415
 20
520.4081625775245
 30
0.0
 11
1551.965947373415
 21
526.4081625775245
 31
0.0
  0
LINE
  5
60A1
330
1E
100
AcDbEntity
  8
躯体と製品
  6
Continuous
 62
     4
100
AcDbLine
 10
1552.965947373415
 20
519.4081625775245
 30
0.0
 11
1552.965947373415
 21
527.4081625775245
 31
0.0
  0
LINE
  5
60A2
330
1E
100
AcDbEntity
  8
躯体と製品
  6
Continuous
 62
     2
100
AcDbLine
 10
1547.965947373415
 20
531.4081625775245
 30
0.0
 11
1547.965947373415
 21
528.4081625775245
 31
0.0
  0
LINE
  5
60A3
330
1E
100
AcDbEntity
  8
躯体と製品
  6
Continuous
 62
     2
100
AcDbLine
 10
1546.965947373415
 20
531.4081625775245
 30
0.0
 11
1546.965947373415
 21
527.4081625775245
 31
0.0
  0
ARC
  5
60A4
330
1E
100
AcDbEntity
  8
躯体と製品
  6
Continuous
 62
     2
100
AcDbCircle
 10
1547.465947373415
 20
531.4081625775245
 30
0.0
 40
0.5
100
AcDbArc
 50
0.0
 51
180.0
  0
LINE
  5
60A5
330
1E
100
AcDbEntity
  8
躯体と製品
  6
Continuous
 62
     3
100
AcDbLine
 10
1558.365947373415
 20
532.7081625775244
 30
0.0
 11
1558.665947373416
 21
532.4081625775245
 31
0.0
  0
LINE
  5
60A6
330
1E
100
AcDbEntity
  8
躯体と製品
  6
Continuous
 62
     3
100
AcDbLine
 10
1558.365947373415
 20
532.7081625775244
 30
0.0
 11
1558.065947373416
 21
532.4081625775245
 31
0.0
  0
LINE
  5
60A9
330
1E
100
AcDbEntity
  8
躯体と製品
  6
Continuous
 62
     2
100
AcDbLine
 10
1584.155407373415
 20
520.4081625775245
 30
0.0
 11
1563.965947373415
 21
520.4081625775245
 31
0.0
  0
LINE
  5
60AA
330
1E
100
AcDbEntity
  8
躯体と製品
  6
Continuous
 62
     2
100
AcDbLine
 10
1584.155407373415
 20
519.4081625775245
 30
0.0
 11
1562.965947373415
 21
519.4081625775245
 31
0.0
  0
LINE
  5
60AB
330
1E
100
AcDbEntity
  8
躯体と製品
  6
Continuous
 62
     2
100
AcDbLine
 10
1563.965947373415
 20
528.4081625775245
 30
0.0
 11
1563.965947373415
 21
520.4081625775245
 31
0.0
  0
LINE
  5
60AC
330
1E
100
AcDbEntity
  8
躯体と製品
  6
Continuous
 62
     2
100
AcDbLine
 10
1562.965947373415
 20
527.4081625775245
 30
0.0
 11
1562.965947373415
 21
519.4081625775245
 31
0.0
  0
ARC
  5
60B3
330
1E
100
AcDbEntity
  8
躯体と製品
  6
Continuous
 62
     4
100
AcDbCircle
 10
1563.465947373415
 20
530.9081625775245
 30
0.0
 40
0.5
100
AcDbArc
 50
180.0
 51
0.0
  0
LINE
  5
60B4
330
1E
100
AcDbEntity
  8
躯体と製品
  6
Continuous
 62
     4
100
AcDbLine
 10
1562.965947373415
 20
530.9081625775245
 30
0.0
 11
1562.965947373415
 21
532.4081625775245
 31
0.0
  0
LINE
  5
60B5
330
1E
100
AcDbEntity
  8
躯体と製品
  6
Continuous
 62
     4
100
AcDbLine
 10
1563.965947373415
 20
530.9081625775245
 30
0.0
 11
1563.965947373415
 21
533.4081625775245
 31
0.0
  0
LINE
  5
60DE
330
1E
100
AcDbEntity
  8
躯体と製品
  6
Continuous
 62
     4
100
AcDbLine
 10
1513.965947373415
 20
608.6759225775245
 30
0.0
 11
1543.965947373415
 21
608.6759225775245
 31
0.0
  0
LINE
  5
60DF
330
1E
100
AcDbEntity
  8
躯体と製品
  6
Continuous
 62
     4
100
AcDbLine
 10
1514.965947373415
 20
609.6759225775245
 30
0.0
 11
1542.965947373415
 21
609.6759225775245
 31
0.0
  0
LINE
  5
60E0
330
1E
100
AcDbEntity
  8
図枠
  6
Continuous
 62
     3
100
AcDbLine
 10
1463.794448373415
 20
663.0215545775245
 30
0.0
 11
1463.794448373415
 21
648.0215545775244
 31
0.0
  0
TEXT
  5
60E1
330
1E
100
AcDbEntity
  8
図枠
  6
Continuous
 62
     3
100
AcDbText
 10
1453.240604373415
 20
658.8189775775244
 30
0.0
 40
3.0
  1
板厚
 41
0.8
  7
ACAD
100
AcDbText
  0
LINE
  5
60E2
330
1E
100
AcDbEntity
  8
図枠
  6
Continuous
 62
     3
100
AcDbLine
 10
1448.794448373416
 20
648.0215545775244
 30
0.0
 11
1448.794448373416
 21
663.0215545775245
 31
0.0
  0
LINE
  5
60E4
330
1E
100
AcDbEntity
  8
躯体と製品
  6
Continuous
 62
     4
100
AcDbLine
 10
1463.965947373416
 20
608.6759225775245
 30
0.0
 11
1493.965961373415
 21
608.6759225775245
 31
0.0
  0
LINE
  5
60E5
330
1E
100
AcDbEntity
  8
躯体と製品
  6
Continuous
 62
     4
100
AcDbLine
 10
1464.965947373416
 20
609.6759225775245
 30
0.0
 11
1492.965961373416
 21
609.6759225775245
 31
0.0
  0
LINE
  5
60E6
330
1E
100
AcDbEntity
  8
躯体と製品
  6
Continuous
 62
     4
100
AcDbLine
 10
1436.965947373416
 20
620.6759225775244
 30
0.0
 11
1436.965947373416
 21
616.6759225775244
 31
0.0
  0
LINE
  5
60E7
330
1E
100
AcDbEntity
  8
躯体と製品
  6
Continuous
 62
     4
100
AcDbLine
 10
1463.965947373416
 20
622.6759225775245
 30
0.0
 11
1463.965947373416
 21
617.6759225775245
 31
0.0
  0
LINE
  5
60E8
330
1E
100
AcDbEntity
  8
躯体と製品
  6
Continuous
 62
     4
100
AcDbLine
 10
1437.965947373416
 20
620.6759225775244
 30
0.0
 11
1437.965947373416
 21
617.6759225775245
 31
0.0
  0
LINE
  5
60E9
330
1E
100
AcDbEntity
  8
躯体と製品
  6
Continuous
 62
     4
100
AcDbLine
 10
1464.965947373416
 20
622.6759225775245
 30
0.0
 11
1464.965947373416
 21
609.6759225775245
 31
0.0
  0
LINE
  5
60ED
330
1E
100
AcDbEntity
  8
躯体と製品
  6
Continuous
 62
     4
100
AcDbLine
 10
1436.965947373416
 20
616.6759225775244
 30
0.0
 11
1463.965947373416
 21
616.6759225775244
 31
0.0
  0
LINE
  5
60EE
330
1E
100
AcDbEntity
  8
躯体と製品
  6
Continuous
 62
     4
100
AcDbLine
 10
1463.965947373416
 20
617.6759225775245
 30
0.0
 11
1437.965947373416
 21
617.6759225775245
 31
0.0
  0
LINE
  5
60FE
330
1E
100
AcDbEntity
  8
躯体と製品
  6
Continuous
 62
     4
100
AcDbLine
 10
1463.965947373416
 20
616.6759225775244
 30
0.0
 11
1463.965947373416
 21
608.6759225775245
 31
0.0
  0
TEXT
  5
60FF
330
1E
100
AcDbEntity
  8
図枠
  6
Continuous
 62
     4
100
AcDbText
 10
1410.770831373415
 20
652.6303785775244
 30
0.0
 40
5.0
  1
ＳＫ－０３０Ａ
 41
0.8
  7
ACAD
100
AcDbText
  0
LINE
  5
6100
330
1E
100
AcDbEntity
  8
図枠
  6
Continuous
 62
     3
100
AcDbLine
 10
1463.794448373415
 20
648.0215545775244
 30
0.0
 11
1408.794448373416
 21
648.0215545775244
 31
0.0
  0
ARC
  5
6103
330
1E
100
AcDbEntity
  8
躯体と製品
  6
Continuous
 62
     4
100
AcDbCircle
 10
1437.465947373415
 20
620.6759225775244
 30
0.0
 40
0.5
100
AcDbArc
 50
0.0
 51
180.0
  0
LINE
  5
6104
330
1E
100
AcDbEntity
  8
躯体と製品
  6
Continuous
 62
     4
100
AcDbLine
 10
1464.965947373416
 20
622.6759225775245
 30
0.0
 11
1463.965947373416
 21
622.6759225775245
 31
0.0
  0
TEXT
  5
6105
330
1E
100
AcDbEntity
  8
図枠
  6
Continuous
 62
     3
100
AcDbText
 10
1450.816806373415
 20
654.0251535775244
 30
0.0
 40
3.0
  1
（ｍｍ）
 41
0.8
  7
ACAD
100
AcDbText
  0
LINE
  5
6106
330
1E
100
AcDbEntity
  8
図枠
  6
Continuous
 62
     3
100
AcDbLine
 10
1463.794448373415
 20
653.0215545775245
 30
0.0
 11
1448.794448373416
 21
653.0215545775245
 31
0.0
  0
TEXT
  5
6107
330
1E
100
AcDbEntity
  8
図枠
  6
Continuous
 62
     3
100
AcDbText
 10
1453.156851493425
 20
648.7703636771067
 30
0.0
 40
3.0
  1
1.0
 41
0.8
  7
ACAD
100
AcDbText
  0
LINE
  5
610B
330
1E
100
AcDbEntity
  8
躯体と製品
  6
Continuous
 62
     4
100
AcDbLine
 10
1493.965961373415
 20
616.6759225775244
 30
0.0
 11
1513.965947373415
 21
616.6759225775244
 31
0.0
  0
LINE
  5
610C
330
1E
100
AcDbEntity
  8
躯体と製品
  6
Continuous
 62
     4
100
AcDbLine
 10
1492.965961373416
 20
617.6759225775245
 30
0.0
 11
1514.965947373415
 21
617.6759225775245
 31
0.0
  0
LINE
  5
6111
330
1E
100
AcDbEntity
  8
躯体と製品
  6
Continuous
 62
     4
100
AcDbLine
 10
1493.965961373415
 20
608.6759225775245
 30
0.0
 11
1493.965961373415
 21
616.6759225775244
 31
0.0
  0
LINE
  5
6112
330
1E
100
AcDbEntity
  8
躯体と製品
  6
Continuous
 62
     4
100
AcDbLine
 10
1492.965961373416
 20
609.6759225775245
 30
0.0
 11
1492.965961373416
 21
617.6759225775245
 31
0.0
  0
LINE
  5
6118
330
1E
100
AcDbEntity
  8
躯体と製品
  6
Continuous
 62
     4
100
AcDbLine
 10
1513.965947373415
 20
616.6759225775244
 30
0.0
 11
1513.965947373415
 21
608.6759225775245
 31
0.0
  0
LINE
  5
6119
330
1E
100
AcDbEntity
  8
躯体と製品
  6
Continuous
 62
     4
100
AcDbLine
 10
1514.965947373415
 20
617.6759225775245
 30
0.0
 11
1514.965947373415
 21
609.6759225775245
 31
0.0
  0
LINE
  5
611C
330
1E
100
AcDbEntity
  8
躯体と製品
  6
Continuous
 62
     2
100
AcDbLine
 10
1536.965947373415
 20
620.6759225775244
 30
0.0
 11
1536.965947373415
 21
616.6759225775244
 31
0.0
  0
LINE
  5
611D
330
1E
100
AcDbEntity
  8
躯体と製品
  6
Continuous
 62
     2
100
AcDbLine
 10
1563.965947373415
 20
622.6759225775245
 30
0.0
 11
1563.965947373415
 21
617.6759225775245
 31
0.0
  0
LINE
  5
611E
330
1E
100
AcDbEntity
  8
躯体と製品
  6
Continuous
 62
     2
100
AcDbLine
 10
1537.965947373415
 20
620.6759225775244
 30
0.0
 11
1537.965947373415
 21
617.6759225775245
 31
0.0
  0
LINE
  5
611F
330
1E
100
AcDbEntity
  8
躯体と製品
  6
Continuous
 62
     2
100
AcDbLine
 10
1564.965947373415
 20
622.6759225775245
 30
0.0
 11
1564.965947373415
 21
609.6759225775245
 31
0.0
  0
LINE
  5
6121
330
1E
100
AcDbEntity
  8
躯体と製品
  6
Continuous
 62
     4
100
AcDbLine
 10
1535.965947373415
 20
616.6759225775244
 30
0.0
 11
1535.965947373415
 21
621.6759225775245
 31
0.0
  0
LINE
  5
6122
330
1E
100
AcDbEntity
  8
躯体と製品
  6
Continuous
 62
     4
100
AcDbLine
 10
1534.965947373415
 20
615.6759225775244
 30
0.0
 11
1534.965947373415
 21
622.6759225775245
 31
0.0
  0
LINE
  5
6124
330
1E
100
AcDbEntity
  8
躯体と製品
  6
PLINE3
 62
     3
100
AcDbLine
 10
1550.465947373415
 20
630.0260065775244
 30
0.0
 11
1550.465947373415
 21
619.0375495775245
 31
0.0
  0
LINE
  5
6125
330
1E
100
AcDbEntity
  8
躯体と製品
  6
Continuous
 62
     2
100
AcDbLine
 10
1536.965947373415
 20
616.6759225775244
 30
0.0
 11
1563.965947373415
 21
616.6759225775244
 31
0.0
  0
LINE
  5
6126
330
1E
100
AcDbEntity
  8
躯体と製品
  6
Continuous
 62
     2
100
AcDbLine
 10
1563.965947373415
 20
617.6759225775245
 30
0.0
 11
1537.965947373415
 21
617.6759225775245
 31
0.0
  0
LINE
  5
6130
330
1E
100
AcDbEntity
  8
躯体と製品
  6
Continuous
 62
     4
100
AcDbLine
 10
1543.965947373415
 20
616.6759225775244
 30
0.0
 11
1543.965947373415
 21
608.6759225775245
 31
0.0
  0
LINE
  5
6131
330
1E
100
AcDbEntity
  8
躯体と製品
  6
Continuous
 62
     4
100
AcDbLine
 10
1535.965947373415
 20
616.6759225775244
 30
0.0
 11
1543.965947373415
 21
616.6759225775244
 31
0.0
  0
LINE
  5
6132
330
1E
100
AcDbEntity
  8
躯体と製品
  6
Continuous
 62
     4
100
AcDbLine
 10
1534.965947373415
 20
615.6759225775244
 30
0.0
 11
1542.965947373415
 21
615.6759225775244
 31
0.0
  0
LINE
  5
6133
330
1E
100
AcDbEntity
  8
躯体と製品
  6
Continuous
 62
     4
100
AcDbLine
 10
1542.965947373415
 20
615.6759225775244
 30
0.0
 11
1542.965947373415
 21
609.6759225775245
 31
0.0
  0
LINE
  5
6139
330
1E
100
AcDbEntity
  8
躯体と製品
  6
Continuous
 62
     2
100
AcDbLine
 10
1580.597115373415
 20
608.6759225775245
 30
0.0
 11
1563.965947373415
 21
608.6759225775245
 31
0.0
  0
LINE
  5
613A
330
1E
100
AcDbEntity
  8
躯体と製品
  6
Continuous
 62
     2
100
AcDbLine
 10
1580.597115373415
 20
609.6759225775245
 30
0.0
 11
1564.965947373415
 21
609.6759225775245
 31
0.0
  0
LINE
  5
613B
330
1E
100
AcDbEntity
  8
躯体と製品
  6
Continuous
 62
     2
100
AcDbLine
 10
1563.965947373415
 20
616.6759225775244
 30
0.0
 11
1563.965947373415
 21
608.6759225775245
 31
0.0
  0
LINE
  5
6145
330
1E
100
AcDbEntity
  8
躯体と製品
  6
Continuous
 62
     4
100
AcDbLine
 10
1535.965947373415
 20
621.6759225775245
 30
0.0
 11
1550.191693373415
 21
621.6759225775245
 31
0.0
  0
LINE
  5
6146
330
1E
100
AcDbEntity
  8
躯体と製品
  6
Continuous
 62
     4
100
AcDbLine
 10
1534.965947373415
 20
622.6759225775245
 30
0.0
 11
1555.965947373415
 21
622.6759225775245
 31
0.0
  0
ARC
  5
614A
330
1E
100
AcDbEntity
  8
躯体と製品
  6
Continuous
 62
     2
100
AcDbCircle
 10
1537.465947373415
 20
620.6759225775244
 30
0.0
 40
0.5
100
AcDbArc
 50
0.0
 51
180.0
  0
LINE
  5
6156
330
1E
100
AcDbEntity
  8
躯体と製品
  6
Continuous
 62
     4
100
AcDbLine
 10
1550.799693373416
 20
621.6759225775245
 30
0.0
 11
1554.965947373415
 21
621.6759225775245
 31
0.0
  0
LINE
  5
6158
330
1E
100
AcDbEntity
  8
躯体と製品
  6
Continuous
 62
     3
100
AcDbLine
 10
1550.495693373416
 20
621.9759225775244
 30
0.0
 11
1550.799693373416
 21
621.6719225775245
 31
0.0
  0
LINE
  5
6159
330
1E
100
AcDbEntity
  8
躯体と製品
  6
Continuous
 62
     3
100
AcDbLine
 10
1550.495693373416
 20
621.9759225775244
 30
0.0
 11
1550.191693373415
 21
621.6719225775245
 31
0.0
  0
ARC
  5
615E
330
1E
100
AcDbEntity
  8
躯体と製品
  6
Continuous
 62
     4
100
AcDbCircle
 10
1555.465947373415
 20
620.1759225775244
 30
0.0
 40
0.5
100
AcDbArc
 50
180.0
 51
0.0
  0
LINE
  5
615F
330
1E
100
AcDbEntity
  8
躯体と製品
  6
Continuous
 62
     4
100
AcDbLine
 10
1554.965947373415
 20
620.1759225775244
 30
0.0
 11
1554.965947373415
 21
621.6759225775245
 31
0.0
  0
LINE
  5
6160
330
1E
100
AcDbEntity
  8
躯体と製品
  6
Continuous
 62
     4
100
AcDbLine
 10
1555.965947373415
 20
620.1759225775244
 30
0.0
 11
1555.965947373415
 21
622.6759225775245
 31
0.0
  0
LINE
  5
6169
330
1E
100
AcDbEntity
  8
躯体と製品
  6
Continuous
 62
     2
100
AcDbLine
 10
1564.965947373415
 20
622.6759225775245
 30
0.0
 11
1563.965947373415
 21
622.6759225775245
 31
0.0
  0
DIMENSION
  5
616B
330
1E
100
AcDbEntity
  8
寸法
  6
Continuous
100
AcDbDimension
  2
*D4
 10
1226.758240373415
 20
616.4081625775244
 30
0.0
 11
1224.258240373415
 21
612.4081625775245
 31
0.0
 70
    32
 71
     5
 42
8.0
  3
AutoCAD
100
AcDbAlignedDimension
 13
1252.189564373415
 23
608.4081625775244
 33
0.0
 14
1232.189564373415
 24
616.4081625775244
 34
0.0
 50
90.0
100
AcDbRotatedDimension
  0
DIMENSION
  5
6178
330
1E
100
AcDbEntity
  8
寸法
  6
Continuous
100
AcDbDimension
  2
*D5
 10
1226.758240373415
 20
620.9081625775244
 30
0.0
 11
1226.758240373415
 21
618.6581625775245
 31
0.0
 70
   160
  1
4.5
 71
     5
 42
4.5
  3
AutoCAD
100
AcDbAlignedDimension
 13
1232.189564373415
 23
616.4081625775244
 33
0.0
 14
1232.189564373415
 24
620.9081625775244
 34
0.0
 50
90.0
100
AcDbRotatedDimension
  0
DIMENSION
  5
6190
330
1E
100
AcDbEntity
  8
寸法
  6
Continuous
100
AcDbDimension
  2
*D6
 10
1255.189564373415
 20
587.0215545775245
 30
0.0
 11
1245.189564373415
 21
589.5215545775244
 31
0.0
 70
    32
 71
     5
 42
20.0
  3
AutoCAD
100
AcDbAlignedDimension
 13
1235.189564373415
 23
613.6586285775244
 33
0.0
 14
1255.189564373415
 24
605.9526115775245
 34
0.0
100
AcDbRotatedDimension
  0
DIMENSION
  5
619D
330
1E
100
AcDbEntity
  8
寸法
  6
Continuous
100
AcDbDimension
  2
*D7
 10
1270.189564373416
 20
596.4081625775244
 30
0.0
 11
1262.689564373415
 21
598.9081625775244
 31
0.0
 70
    32
 71
     5
 42
15.0
  3
AutoCAD
100
AcDbAlignedDimension
 13
1255.189564373415
 23
605.9526115775245
 33
0.0
 14
1270.189564373416
 24
605.4081625775244
 34
0.0
100
AcDbRotatedDimension
  0
DIMENSION
  5
61AA
330
1E
100
AcDbEntity
  8
寸法
  6
Continuous
100
AcDbDimension
  2
*D8
 10
1285.189564373415
 20
596.4081625775244
 30
0.0
 11
1277.689564373415
 21
598.9081625775244
 31
0.0
 70
    32
 71
     5
 42
15.0
  3
AutoCAD
100
AcDbAlignedDimension
 13
1270.189564373416
 23
605.4081625775244
 33
0.0
 14
1285.189564373415
 24
605.8603385775244
 34
0.0
100
AcDbRotatedDimension
  0
DIMENSION
  5
61B7
330
1E
100
AcDbEntity
  8
寸法
  6
Continuous
100
AcDbDimension
  2
*D9
 10
1300.189564373416
 20
596.4081625775244
 30
0.0
 11
1292.689564373415
 21
598.9081625775244
 31
0.0
 70
    32
 71
     5
 42
15.0
  3
AutoCAD
100
AcDbAlignedDimension
 13
1285.189564373415
 23
605.8603385775244
 33
0.0
 14
1300.189564373416
 24
604.9792135775244
 34
0.0
100
AcDbRotatedDimension
  0
DIMENSION
  5
61C4
330
1E
100
AcDbEntity
  8
寸法
  6
Continuous
100
AcDbDimension
  2
*D10
 10
1315.189564373415
 20
596.4081625775244
 30
0.0
 11
1307.689564373415
 21
598.9081625775244
 31
0.0
 70
    32
 71
     5
 42
15.0
  3
AutoCAD
100
AcDbAlignedDimension
 13
1300.189564373416
 23
604.9792135775244
 33
0.0
 14
1315.189564373415
 24
605.4081625775244
 34
0.0
100
AcDbRotatedDimension
  0
DIMENSION
  5
61D1
330
1E
100
AcDbEntity
  8
寸法
  6
Continuous
100
AcDbDimension
  2
*D11
 10
1330.189564373415
 20
596.4081625775244
 30
0.0
 11
1322.689564373416
 21
598.9081625775244
 31
0.0
 70
    32
 71
     5
 42
15.0
  3
AutoCAD
100
AcDbAlignedDimension
 13
1315.189564373415
 23
605.4081625775244
 33
0.0
 14
1330.189564373415
 24
605.4081625775244
 34
0.0
100
AcDbRotatedDimension
  0
DIMENSION
  5
61DE
330
1E
100
AcDbEntity
  8
寸法
  6
Continuous
100
AcDbDimension
  2
*D12
 10
1345.189564373415
 20
596.4081625775244
 30
0.0
 11
1337.689564373415
 21
598.9081625775244
 31
0.0
 70
    32
 71
     5
 42
15.0
  3
AutoCAD
100
AcDbAlignedDimension
 13
1330.189564373415
 23
605.4081625775244
 33
0.0
 14
1345.189564373415
 24
605.0752515775244
 34
0.0
100
AcDbRotatedDimension
  0
DIMENSION
  5
61EB
330
1E
100
AcDbEntity
  8
寸法
  6
Continuous
100
AcDbDimension
  2
*D13
 10
1360.189564373415
 20
596.4081625775244
 30
0.0
 11
1352.689564373415
 21
598.9081625775244
 31
0.0
 70
    32
 71
     5
 42
15.0
  3
AutoCAD
100
AcDbAlignedDimension
 13
1345.189564373415
 23
605.0752515775244
 33
0.0
 14
1360.189564373415
 24
605.5960285775245
 34
0.0
100
AcDbRotatedDimension
  0
DIMENSION
  5
61F8
330
1E
100
AcDbEntity
  8
寸法
  6
Continuous
100
AcDbDimension
  2
*D14
 10
1375.189564373415
 20
587.0215545775245
 30
0.0
 11
1367.689564373415
 21
589.5215545775244
 31
0.0
 70
    32
 71
     5
 42
15.0
  3
AutoCAD
100
AcDbAlignedDimension
 13
1360.189564373415
 23
605.5960285775245
 33
0.0
 14
1375.189564373415
 24
606.3960145775245
 34
0.0
100
AcDbRotatedDimension
  0
DIMENSION
  5
6205
330
1E
100
AcDbEntity
  8
寸法
  6
Continuous
100
AcDbDimension
  2
*D15
 10
1360.189564373415
 20
587.0215545775245
 30
0.0
 11
1307.689564373415
 21
589.5215545775244
 31
0.0
 70
    32
 71
     5
 42
105.0
  3
AutoCAD
100
AcDbAlignedDimension
 13
1255.189564373415
 23
605.9526115775245
 33
0.0
 14
1360.189564373415
 24
605.5960285775245
 34
0.0
100
AcDbRotatedDimension
  0
DIMENSION
  5
621F
330
1E
100
AcDbEntity
  8
寸法
  6
Continuous
100
AcDbDimension
  2
*D16
 10
1382.639259373415
 20
616.4081625775244
 30
0.0
 11
1380.139259373415
 21
612.4081625775247
 31
0.0
 70
    32
 71
     5
 42
8.0
  3
AutoCAD
100
AcDbAlignedDimension
 13
1379.819266373415
 23
608.4081625775244
 33
0.0
 14
1378.784890373416
 24
616.4081625775244
 34
0.0
 50
90.0
100
AcDbRotatedDimension
  0
DIMENSION
  5
622C
330
1E
100
AcDbEntity
  8
寸法
  6
Continuous
100
AcDbDimension
  2
*D17
 10
1382.639259373415
 20
622.4081625775244
 30
0.0
 11
1380.139259373415
 21
620.9081625775247
 31
0.0
 70
    32
 71
     5
 42
3.0
  3
AutoCAD
100
AcDbAlignedDimension
 13
1374.254146373415
 23
619.4081625775244
 33
0.0
 14
1373.374311373416
 24
622.4081625775244
 34
0.0
 50
90.0
100
AcDbRotatedDimension
  0
DIMENSION
  5
623A
330
1E
100
AcDbEntity
  8
寸法
  6
Continuous
100
AcDbDimension
  2
*D18
 10
1404.322107373416
 20
622.4081625775244
 30
0.0
 11
1401.822107373415
 21
615.4081625775246
 31
0.0
 70
    32
 71
     5
 42
14.0
  3
AutoCAD
100
AcDbAlignedDimension
 13
1382.889259373415
 23
608.4081625775244
 33
0.0
 14
1373.374311373416
 24
622.4081625775244
 34
0.0
 50
90.0
100
AcDbRotatedDimension
  0
DIMENSION
  5
6247
330
1E
100
AcDbEntity
  8
寸法
  6
Continuous
100
AcDbDimension
  2
*D19
 10
1349.137040502894
 20
621.3081625775243
 30
0.0
 11
1349.137040502894
 21
618.8581625775246
 31
0.0
 70
   160
  1
(5)
 71
     5
 42
4.899999999999977
  3
AutoCAD
100
AcDbAlignedDimension
 13
1353.189564373415
 23
616.4081625775244
 33
0.0
 14
1353.189564373415
 24
621.3081625775243
 34
0.0
 50
90.0
100
AcDbRotatedDimension
  0
DIMENSION
  5
625E
330
1E
100
AcDbEntity
  8
寸法
  6
Continuous
100
AcDbDimension
  2
*D20
 10
1355.189564373415
 20
629.8111685775244
 30
0.0
 11
1354.689564373416
 21
633.0968828632387
 31
0.0
 70
    32
  1
(1)
 71
     5
  3
AutoCAD
100
AcDbAlignedDimension
 13
1354.189564373415
 23
623.4608335775244
 33
0.0
 14
1355.189564373415
 24
623.5628205775245
 34
0.0
100
AcDbRotatedDimension
  0
DIMENSION
  5
6276
330
1E
100
AcDbEntity
  8
寸法
  6
Continuous
100
AcDbDimension
  2
*D21
 10
1360.189564373415
 20
635.7254995775244
 30
0.0
 11
1357.189564373415
 21
638.2254995775245
 31
0.0
 70
    32
 71
     5
 42
6.0
  3
AutoCAD
100
AcDbAlignedDimension
 13
1354.189564373415
 23
623.4608335775244
 33
0.0
 14
1360.189564373415
 24
620.5221635775244
 34
0.0
100
AcDbRotatedDimension
  0
DIMENSION
  5
6283
330
1E
100
AcDbEntity
  8
寸法
  6
Continuous
100
AcDbDimension
  2
*D22
 10
1372.189564373415
 20
635.7254995775244
 30
0.0
 11
1366.189564373415
 21
638.2254995775245
 31
0.0
 70
    32
 71
     5
 42
12.0
  3
AutoCAD
100
AcDbAlignedDimension
 13
1360.189564373415
 23
620.5221635775244
 33
0.0
 14
1372.189564373415
 24
623.8112815775244
 34
0.0
100
AcDbRotatedDimension
  0
DIMENSION
  5
6290
330
1E
100
AcDbEntity
  8
寸法
  6
Continuous
100
AcDbDimension
  2
*D23
 10
1372.189564373415
 20
629.7556395775244
 30
0.0
 11
1369.389564373415
 21
629.7556395775244
 31
0.0
 70
   160
  1
5.6
 71
     5
 42
5.599999999999909
  3
AutoCAD
100
AcDbAlignedDimension
 13
1366.589564373416
 23
629.7556395775244
 33
0.0
 14
1372.189564373415
 24
629.7556395775244
 34
0.0
100
AcDbRotatedDimension
  0
DIMENSION
  5
62A3
330
1E
100
AcDbEntity
  8
寸法
  6
Continuous
100
AcDbDimension
  2
*D24
 10
1424.965947373415
 20
616.6759225775244
 30
0.0
 11
1422.465947373415
 21
612.6759225775247
 31
0.0
 70
    32
 71
     5
 42
8.0
  3
AutoCAD
100
AcDbAlignedDimension
 13
1461.068914373415
 23
608.6759225775245
 33
0.0
 14
1433.965947373416
 24
616.6759225775244
 34
0.0
 50
90.0
100
AcDbRotatedDimension
  0
DIMENSION
  5
62B0
330
1E
100
AcDbEntity
  8
寸法
  6
Continuous
100
AcDbDimension
  2
*D25
 10
1424.965947373415
 20
621.1759225775245
 30
0.0
 11
1422.465947373415
 21
618.9259225775247
 31
0.0
 70
    32
  1
4.5
 71
     5
 42
4.5
  3
AutoCAD
100
AcDbAlignedDimension
 13
1433.965947373416
 23
616.6759225775244
 33
0.0
 14
1433.965947373416
 24
621.1759225775245
 34
0.0
 50
90.0
100
AcDbRotatedDimension
  0
DIMENSION
  5
62C8
330
1E
100
AcDbEntity
  8
寸法
  6
Continuous
100
AcDbDimension
  2
*D26
 10
1463.965947373416
 20
587.0215545775245
 30
0.0
 11
1450.465947373416
 21
589.5215545775244
 31
0.0
 70
    32
 71
     5
 42
27.0
  3
AutoCAD
100
AcDbAlignedDimension
 13
1436.965947373416
 23
614.3225965775244
 33
0.0
 14
1463.965947373416
 24
604.9343435775244
 34
0.0
100
AcDbRotatedDimension
  0
DIMENSION
  5
62D5
330
1E
100
AcDbEntity
  8
寸法
  6
Continuous
100
AcDbDimension
  2
*D27
 10
1493.965947373415
 20
596.6759225775245
 30
0.0
 11
1478.965947373415
 21
599.1759225775244
 31
0.0
 70
    32
 71
     5
 42
29.99999999999977
  3
AutoCAD
100
AcDbAlignedDimension
 13
1463.965947373416
 23
604.9343435775244
 33
0.0
 14
1493.965947373415
 24
605.6759225775245
 34
0.0
100
AcDbRotatedDimension
  0
DIMENSION
  5
62E2
330
1E
100
AcDbEntity
  8
寸法
  6
Continuous
100
AcDbDimension
  2
*D28
 10
1513.965947373415
 20
596.6759225775245
 30
0.0
 11
1503.965947373415
 21
599.1759225775244
 31
0.0
 70
    32
 71
     5
 42
20.0
  3
AutoCAD
100
AcDbAlignedDimension
 13
1493.965947373415
 23
605.6759225775245
 33
0.0
 14
1513.965947373415
 24
607.7772395775244
 34
0.0
100
AcDbRotatedDimension
  0
DIMENSION
  5
62EF
330
1E
100
AcDbEntity
  8
寸法
  6
Continuous
100
AcDbDimension
  2
*D29
 10
1543.965947373415
 20
596.6759225775245
 30
0.0
 11
1528.965947373415
 21
599.1759225775244
 31
0.0
 70
    32
 71
     5
 42
30.0
  3
AutoCAD
100
AcDbAlignedDimension
 13
1513.965947373415
 23
607.7772395775244
 33
0.0
 14
1543.965947373415
 24
605.6759225775245
 34
0.0
100
AcDbRotatedDimension
  0
DIMENSION
  5
62FC
330
1E
100
AcDbEntity
  8
寸法
  6
Continuous
100
AcDbDimension
  2
*D30
 10
1563.965947373415
 20
587.0215545775245
 30
0.0
 11
1553.965947373415
 21
589.5215545775244
 31
0.0
 70
    32
 71
     5
 42
20.0
  3
AutoCAD
100
AcDbAlignedDimension
 13
1543.965947373415
 23
605.6759225775245
 33
0.0
 14
1563.965947373415
 24
606.7877985775244
 34
0.0
100
AcDbRotatedDimension
  0
DIMENSION
  5
6309
330
1E
100
AcDbEntity
  8
寸法
  6
Continuous
100
AcDbDimension
  2
*D31
 10
1463.965947373416
 20
587.0215545775245
 30
0.0
 11
1503.965947373415
 21
589.5215545775244
 31
0.0
 70
    32
 71
     5
 42
79.99999999999977
  3
AutoCAD
100
AcDbAlignedDimension
 13
1543.965947373415
 23
605.6759225775245
 33
0.0
 14
1463.965947373416
 24
604.9343435775244
 34
0.0
100
AcDbRotatedDimension
  0
DIMENSION
  5
6316
330
1E
100
AcDbEntity
  8
寸法
  6
Continuous
100
AcDbDimension
  2
*D32
 10
1560.930140373416
 20
616.6759225775244
 30
0.0
 11
1558.430140373415
 21
612.6759225775247
 31
0.0
 70
    32
 71
     5
 42
8.0
  3
AutoCAD
100
AcDbAlignedDimension
 13
1546.935462373415
 23
608.6759225775245
 33
0.0
 14
1561.259745873416
 24
616.6759225775244
 34
0.0
 50
90.0
100
AcDbRotatedDimension
  0
DIMENSION
  5
6323
330
1E
100
AcDbEntity
  8
寸法
  6
Continuous
100
AcDbDimension
  2
*D33
 10
1590.357606373415
 20
622.6759225775245
 30
0.0
 11
1587.857606373415
 21
615.6759225775247
 31
0.0
 70
    32
 71
     5
 42
14.0
  3
AutoCAD
100
AcDbAlignedDimension
 13
1583.107443373416
 23
608.6759225775245
 33
0.0
 14
1564.965947373415
 24
622.6759225775245
 34
0.0
 50
90.0
100
AcDbRotatedDimension
  0
DIMENSION
  5
6330
330
1E
100
AcDbEntity
  8
寸法
  6
Continuous
100
AcDbDimension
  2
*D34
 10
1560.930140373416
 20
622.6759225775245
 30
0.0
 11
1558.430140373415
 21
621.1759225775247
 31
0.0
 70
    32
 71
     5
 42
3.0
  3
AutoCAD
100
AcDbAlignedDimension
 13
1556.886475373415
 23
619.6759225775244
 33
0.0
 14
1557.159106373416
 24
622.6759225775245
 34
0.0
 50
90.0
100
AcDbRotatedDimension
  0
DIMENSION
  5
633E
330
1E
100
AcDbEntity
  8
寸法
  6
Continuous
100
AcDbDimension
  2
*D35
 10
1529.965947373415
 20
621.6759225775245
 30
0.0
 11
1527.465947373415
 21
619.1759225775247
 31
0.0
 70
    32
 71
     5
 42
5.0
  3
AutoCAD
100
AcDbAlignedDimension
 13
1533.965947373415
 23
616.6759225775244
 33
0.0
 14
1533.965947373415
 24
621.6759225775245
 34
0.0
 50
90.0
100
AcDbRotatedDimension
  0
DIMENSION
  5
634B
330
1E
100
AcDbEntity
  8
寸法
  6
Continuous
100
AcDbDimension
  2
*D36
 10
1536.965947373415
 20
629.1269055775244
 30
0.0
 11
1536.465947373415
 21
632.4126198632387
 31
0.0
 70
    32
  1
(1)
 71
     5
  3
AutoCAD
100
AcDbAlignedDimension
 13
1535.965947373415
 23
625.0053635775245
 33
0.0
 14
1536.965947373415
 24
624.9838605775244
 34
0.0
100
AcDbRotatedDimension
  0
DIMENSION
  5
6359
330
1E
100
AcDbEntity
  8
寸法
  6
Continuous
100
AcDbDimension
  2
*D37
 10
1543.965947373415
 20
635.1432375775244
 30
0.0
 11
1539.965947373415
 21
637.6432375775245
 31
0.0
 70
    32
 71
     5
 42
8.0
  3
AutoCAD
100
AcDbAlignedDimension
 13
1535.965947373415
 23
625.0053635775245
 33
0.0
 14
1543.965947373415
 24
621.3888935775244
 34
0.0
100
AcDbRotatedDimension
  0
DIMENSION
  5
6373
330
1E
100
AcDbEntity
  8
寸法
  6
Continuous
100
AcDbDimension
  2
*D38
 10
1555.965947373415
 20
635.1432375775244
 30
0.0
 11
1549.965947373415
 21
637.6432375775245
 31
0.0
 70
    32
 71
     5
 42
12.0
  3
AutoCAD
100
AcDbAlignedDimension
 13
1543.965947373415
 23
621.3888935775244
 33
0.0
 14
1555.965947373415
 24
625.6759225775245
 34
0.0
100
AcDbRotatedDimension
  0
DIMENSION
  5
6380
330
1E
100
AcDbEntity
  8
寸法
  6
Continuous
100
AcDbDimension
  2
*D39
 10
1555.965947373415
 20
629.1269055775244
 30
0.0
 11
1553.215947373415
 21
631.6269055775244
 31
0.0
 70
    32
  1
5.5
 71
     5
 42
5.5
  3
AutoCAD
100
AcDbAlignedDimension
 13
1550.465947373415
 23
629.1269055775244
 33
0.0
 14
1555.965947373415
 24
629.1269055775244
 34
0.0
100
AcDbRotatedDimension
  0
DIMENSION
  5
63A0
330
1E
100
AcDbEntity
  8
寸法
  6
Continuous
100
AcDbDimension
  2
*D40
 10
1556.215947373415
 20
640.6759225775244
 30
0.0
 11
1546.090947373415
 21
643.1759225775245
 31
0.0
 70
    32
 71
     5
 42
20.25
  3
AutoCAD
100
AcDbAlignedDimension
 13
1535.965947373415
 23
635.3932375775245
 33
0.0
 14
1556.215947373415
 24
635.1432375775244
 34
0.0
100
AcDbRotatedDimension
  0
DIMENSION
  5
63B7
330
1E
100
AcDbEntity
  8
寸法
  6
Continuous
100
AcDbDimension
  2
*D41
 10
1226.758240373415
 20
527.6759225775244
 30
0.0
 11
1224.258240373415
 21
523.6759225775245
 31
0.0
 70
    32
 71
     5
 42
8.0
  3
AutoCAD
100
AcDbAlignedDimension
 13
1260.092530373416
 23
519.6759225775244
 33
0.0
 14
1232.189564373415
 24
527.6759225775244
 34
0.0
 50
90.0
100
AcDbRotatedDimension
  0
DIMENSION
  5
63C4
330
1E
100
AcDbEntity
  8
寸法
  6
Continuous
100
AcDbDimension
  2
*D42
 10
1226.758240373415
 20
532.1759225775244
 30
0.0
 11
1226.758240373415
 21
529.9259225775245
 31
0.0
 70
   160
  1
4.5
 71
     5
 42
4.5
  3
AutoCAD
100
AcDbAlignedDimension
 13
1232.189564373415
 23
527.6759225775244
 33
0.0
 14
1232.189564373415
 24
532.1759225775244
 34
0.0
 50
90.0
100
AcDbRotatedDimension
  0
DIMENSION
  5
63DC
330
1E
100
AcDbEntity
  8
寸法
  6
Continuous
100
AcDbDimension
  2
*D43
 10
1262.989564373415
 20
498.0215545775244
 30
0.0
 11
1249.089564373416
 21
500.5215545775244
 31
0.0
 70
    32
  1
27.8
 71
     5
 42
27.79999999999996
  3
AutoCAD
100
AcDbAlignedDimension
 13
1235.189564373415
 23
525.3225965775244
 33
0.0
 14
1262.989564373415
 24
515.9343435775245
 34
0.0
100
AcDbRotatedDimension
  0
DIMENSION
  5
63FB
330
1E
100
AcDbEntity
  8
寸法
  6
Continuous
100
AcDbDimension
  2
*D44
 10
1283.189564373415
 20
505.9098675775244
 30
0.0
 11
1273.089564373416
 21
508.4098675775244
 31
0.0
 70
    32
  1
20.2
 71
     5
 42
20.20000000000004
  3
AutoCAD
100
AcDbAlignedDimension
 13
1262.989564373415
 23
515.9343435775245
 33
0.0
 14
1283.189564373415
 24
516.6759225775244
 34
0.0
100
AcDbRotatedDimension
  0
DIMENSION
  5
6411
330
1E
100
AcDbEntity
  8
寸法
  6
Continuous
100
AcDbDimension
  2
*D45
 10
1302.989564373415
 20
505.9098675775244
 30
0.0
 11
1293.089564373415
 21
508.4098675775244
 31
0.0
 70
    32
  1
19.8
 71
     5
 42
19.79999999999995
  3
AutoCAD
100
AcDbAlignedDimension
 13
1283.189564373415
 23
516.6759225775244
 33
0.0
 14
1302.989564373415
 24
516.6759225775244
 34
0.0
100
AcDbRotatedDimension
  0
DIMENSION
  5
6427
330
1E
100
AcDbEntity
  8
寸法
  6
Continuous
100
AcDbDimension
  2
*D46
 10
1323.186042373415
 20
505.9098675775244
 30
0.0
 11
1313.087803373416
 21
508.4098675775244
 31
0.0
 70
    32
  1
20.2
 71
     5
 42
20.19647800000007
  3
AutoCAD
100
AcDbAlignedDimension
 13
1302.989564373415
 23
516.6759225775244
 33
0.0
 14
1323.186042373415
 24
517.5444245775245
 34
0.0
100
AcDbRotatedDimension
  0
DIMENSION
  5
643D
330
1E
100
AcDbEntity
  8
寸法
  6
Continuous
100
AcDbDimension
  2
*D47
 10
1342.986042373415
 20
505.9098675775244
 30
0.0
 11
1333.086042373415
 21
508.4098675775244
 31
0.0
 70
    32
  1
19.8
 71
     5
 42
19.79999999999995
  3
AutoCAD
100
AcDbAlignedDimension
 13
1323.186042373415
 23
517.5444245775245
 33
0.0
 14
1342.986042373415
 24
517.3281615775245
 34
0.0
100
AcDbRotatedDimension
  0
DIMENSION
  5
6453
330
1E
100
AcDbEntity
  8
寸法
  6
Continuous
100
AcDbDimension
  2
*D48
 10
1363.189564373415
 20
505.9098675775244
 30
0.0
 11
1353.087803373415
 21
508.4098675775244
 31
0.0
 70
    32
  1
20.2
 71
     5
 42
20.20352200000002
  3
AutoCAD
100
AcDbAlignedDimension
 13
1342.986042373415
 23
517.3281615775245
 33
0.0
 14
1363.189564373415
 24
516.6759225775244
 34
0.0
100
AcDbRotatedDimension
  0
DIMENSION
  5
6469
330
1E
100
AcDbEntity
  8
寸法
  6
Continuous
100
AcDbDimension
  2
*D49
 10
1382.989564373416
 20
498.0215545775244
 30
0.0
 11
1373.089564373416
 21
500.5215545775244
 31
0.0
 70
    32
  1
19.8
 71
     5
 42
19.79999999999995
  3
AutoCAD
100
AcDbAlignedDimension
 13
1363.189564373415
 23
516.6759225775244
 33
0.0
 14
1382.989564373416
 24
517.1455025775244
 34
0.0
100
AcDbRotatedDimension
  0
DIMENSION
  5
647F
330
1E
100
AcDbEntity
  8
寸法
  6
Continuous
100
AcDbDimension
  2
*D50
 10
1401.663217373415
 20
533.6759225775245
 30
0.0
 11
1399.163217373415
 21
526.6759225775246
 31
0.0
 70
    32
 71
     5
 42
14.0
  3
AutoCAD
100
AcDbAlignedDimension
 13
1394.890805373415
 23
519.6759225775244
 33
0.0
 14
1377.189564373415
 24
533.6759225775245
 34
0.0
 50
90.0
100
AcDbRotatedDimension
  0
DIMENSION
  5
648C
330
1E
100
AcDbEntity
  8
寸法
  6
Continuous
100
AcDbDimension
  2
*D51
 10
1388.627996373415
 20
533.6759225775245
 30
0.0
 11
1386.127996373415
 21
532.1759225775247
 31
0.0
 70
    32
 71
     5
 42
3.0
  3
AutoCAD
100
AcDbAlignedDimension
 13
1377.714906373415
 23
530.6759225775245
 33
0.0
 14
1377.189564373415
 24
533.6759225775245
 34
0.0
 50
90.0
100
AcDbRotatedDimension
  0
DIMENSION
  5
649A
330
1E
100
AcDbEntity
  8
寸法
  6
Continuous
100
AcDbDimension
  2
*D52
 10
1349.183509622639
 20
532.6759225775244
 30
0.0
 11
1349.183509622639
 21
530.1759225775247
 31
0.0
 70
   160
  1
(5)
 71
     5
 42
5.0
  3
AutoCAD
100
AcDbAlignedDimension
 13
1354.189564373415
 23
527.6759225775244
 33
0.0
 14
1354.189564373415
 24
532.6759225775244
 34
0.0
 50
90.0
100
AcDbRotatedDimension
  0
DIMENSION
  5
64B1
330
1E
100
AcDbEntity
  8
寸法
  6
Continuous
100
AcDbDimension
  2
*D53
 10
1363.189564373415
 20
547.5720895775245
 30
0.0
 11
1359.189564373415
 21
550.0720895775244
 31
0.0
 70
    32
 71
     5
 42
8.0
  3
AutoCAD
100
AcDbAlignedDimension
 13
1355.189564373415
 23
536.6218335775244
 33
0.0
 14
1363.189564373415
 24
531.8355865775244
 34
0.0
100
AcDbRotatedDimension
  0
DIMENSION
  5
64BE
330
1E
100
AcDbEntity
  8
寸法
  6
Continuous
100
AcDbDimension
  2
*D54
 10
1374.189564373415
 20
547.5720895775245
 30
0.0
 11
1368.689564373415
 21
550.0720895775244
 31
0.0
 70
    32
 71
     5
 42
11.0
  3
AutoCAD
100
AcDbAlignedDimension
 13
1363.189564373415
 23
531.8355865775244
 33
0.0
 14
1374.189564373415
 24
536.6759225775244
 34
0.0
100
AcDbRotatedDimension
  0
DIMENSION
  5
64CB
330
1E
100
AcDbEntity
  8
寸法
  6
Continuous
100
AcDbDimension
  2
*D55
 10
1374.189564373415
 20
553.1410975775245
 30
0.0
 11
1364.689564373416
 21
555.6410975775245
 31
0.0
 70
    32
 71
     5
 42
19.0
  3
AutoCAD
100
AcDbAlignedDimension
 13
1355.189564373415
 23
536.6218335775244
 33
0.0
 14
1374.189564373415
 24
536.6759225775244
 34
0.0
100
AcDbRotatedDimension
  0
DIMENSION
  5
64D8
330
1E
100
AcDbEntity
  8
寸法
  6
Continuous
100
AcDbDimension
  2
*D56
 10
1374.189564373415
 20
542.1240060775244
 30
0.0
 11
1371.439564373415
 21
542.1240060775244
 31
0.0
 70
   160
  1
5.5
 71
     5
 42
5.5
  3
AutoCAD
100
AcDbAlignedDimension
 13
1368.689564373415
 23
541.9303605775244
 33
0.0
 14
1374.189564373415
 24
542.1240060775244
 34
0.0
100
AcDbRotatedDimension
  0
DIMENSION
  5
64ED
330
1E
100
AcDbEntity
  8
寸法
  6
Continuous
100
AcDbDimension
  2
*D57
 10
1424.965947373415
 20
527.4081625775245
 30
0.0
 11
1422.465947373415
 21
523.4081625775247
 31
0.0
 70
    32
 71
     5
 42
8.0
  3
AutoCAD
100
AcDbAlignedDimension
 13
1449.965947373416
 23
519.4081625775245
 33
0.0
 14
1433.965947373416
 24
527.4081625775245
 34
0.0
 50
90.0
100
AcDbRotatedDimension
  0
DIMENSION
  5
64FA
330
1E
100
AcDbEntity
  8
寸法
  6
Continuous
100
AcDbDimension
  2
*D58
 10
1424.965947373415
 20
531.9081625775245
 30
0.0
 11
1424.965947373415
 21
529.6581625775247
 31
0.0
 70
   160
  1
4.5
 71
     5
 42
4.5
  3
AutoCAD
100
AcDbAlignedDimension
 13
1433.965947373416
 23
527.4081625775245
 33
0.0
 14
1433.965947373416
 24
531.9081625775245
 34
0.0
 50
90.0
100
AcDbRotatedDimension
  0
DIMENSION
  5
6512
330
1E
100
AcDbEntity
  8
寸法
  6
Continuous
100
AcDbDimension
  2
*D59
 10
1452.965947373416
 20
498.0215545775244
 30
0.0
 11
1444.965947373416
 21
500.5215545775244
 31
0.0
 70
    32
 71
     5
 42
16.0
  3
AutoCAD
100
AcDbAlignedDimension
 13
1436.965947373416
 23
524.6586285775244
 33
0.0
 14
1452.965947373416
 24
516.9526115775245
 34
0.0
100
AcDbRotatedDimension
  0
DIMENSION
  5
651F
330
1E
100
AcDbEntity
  8
寸法
  6
Continuous
100
AcDbDimension
  2
*D60
 10
1497.965947373415
 20
507.4081625775244
 30
0.0
 11
1475.465947373415
 21
509.9081625775244
 31
0.0
 70
    32
 71
     5
 42
44.99999999999977
  3
AutoCAD
100
AcDbAlignedDimension
 13
1452.965947373416
 23
516.9526115775245
 33
0.0
 14
1497.965947373415
 24
516.0895475775244
 34
0.0
100
AcDbRotatedDimension
  0
DIMENSION
  5
652C
330
1E
100
AcDbEntity
  8
寸法
  6
Continuous
100
AcDbDimension
  2
*D61
 10
1507.965947373415
 20
507.4081625775244
 30
0.0
 11
1502.965947373415
 21
509.9081625775244
 31
0.0
 70
    32
 71
     5
 42
10.0
  3
AutoCAD
100
AcDbAlignedDimension
 13
1497.965947373415
 23
516.0895475775244
 33
0.0
 14
1507.965947373415
 24
516.4081625775245
 34
0.0
100
AcDbRotatedDimension
  0
DIMENSION
  5
6539
330
1E
100
AcDbEntity
  8
寸法
  6
Continuous
100
AcDbDimension
  2
*D62
 10
1552.965947373415
 20
507.4081625775244
 30
0.0
 11
1530.465947373415
 21
509.9081625775244
 31
0.0
 70
    32
 71
     5
 42
45.0
  3
AutoCAD
100
AcDbAlignedDimension
 13
1507.965947373415
 23
516.4081625775245
 33
0.0
 14
1552.965947373415
 24
516.9503285775244
 34
0.0
100
AcDbRotatedDimension
  0
DIMENSION
  5
6546
330
1E
100
AcDbEntity
  8
寸法
  6
Continuous
100
AcDbDimension
  2
*D63
 10
1562.965947373415
 20
498.0215545775244
 30
0.0
 11
1557.965947373415
 21
500.5215545775244
 31
0.0
 70
    32
 71
     5
 42
10.0
  3
AutoCAD
100
AcDbAlignedDimension
 13
1552.965947373415
 23
516.9503285775244
 33
0.0
 14
1562.965947373415
 24
517.9256055775245
 34
0.0
100
AcDbRotatedDimension
  0
DIMENSION
  5
6553
330
1E
100
AcDbEntity
  8
寸法
  6
Continuous
100
AcDbDimension
  2
*D64
 10
1552.965947373415
 20
498.0215545775244
 30
0.0
 11
1502.965947373415
 21
500.5215545775244
 31
0.0
 70
    32
 71
     5
 42
99.99999999999978
  3
AutoCAD
100
AcDbAlignedDimension
 13
1452.965947373416
 23
516.9526115775245
 33
0.0
 14
1552.965947373415
 24
516.9503285775244
 34
0.0
100
AcDbRotatedDimension
  0
DIMENSION
  5
6560
330
1E
100
AcDbEntity
  8
寸法
  6
Continuous
100
AcDbDimension
  2
*D65
 10
1573.415642373416
 20
527.4081625775245
 30
0.0
 11
1570.915642373415
 21
523.4081625775247
 31
0.0
 70
    32
 71
     5
 42
8.0
  3
AutoCAD
100
AcDbAlignedDimension
 13
1569.366020373416
 23
519.4081625775245
 33
0.0
 14
1566.561273373415
 24
527.4081625775245
 34
0.0
 50
90.0
100
AcDbRotatedDimension
  0
DIMENSION
  5
656D
330
1E
100
AcDbEntity
  8
寸法
  6
Continuous
100
AcDbDimension
  2
*D66
 10
1573.415642373416
 20
533.4081625775245
 30
0.0
 11
1570.915642373415
 21
531.9081625775247
 31
0.0
 70
    32
 71
     5
 42
3.0
  3
AutoCAD
100
AcDbAlignedDimension
 13
1566.030529373415
 23
530.4081625775245
 33
0.0
 14
1565.150695373415
 24
533.4081625775245
 34
0.0
 50
90.0
100
AcDbRotatedDimension
  0
DIMENSION
  5
657B
330
1E
100
AcDbEntity
  8
寸法
  6
Continuous
100
AcDbDimension
  2
*D67
 10
1595.098490373415
 20
533.4081625775245
 30
0.0
 11
1592.598490373415
 21
526.4081625775247
 31
0.0
 70
    32
 71
     5
 42
14.0
  3
AutoCAD
100
AcDbAlignedDimension
 13
1585.392431373415
 23
519.4081625775245
 33
0.0
 14
1565.150695373415
 24
533.4081625775245
 34
0.0
 50
90.0
100
AcDbRotatedDimension
  0
DIMENSION
  5
6588
330
1E
100
AcDbEntity
  8
寸法
  6
Continuous
100
AcDbDimension
  2
*D68
 10
1537.184619336329
 20
532.4081625775245
 30
0.0
 11
1537.184619336329
 21
530.9996534753124
 31
0.0
 70
   160
  1
(5)
 71
     5
 42
5.0
  3
AutoCAD
100
AcDbAlignedDimension
 13
1542.965947373415
 23
527.4081625775245
 33
0.0
 14
1542.965947373415
 24
532.4081625775245
 34
0.0
 50
90.0
100
AcDbRotatedDimension
  0
DIMENSION
  5
65AD
330
1E
100
AcDbEntity
  8
寸法
  6
Continuous
100
AcDbDimension
  2
*D69
 10
1546.965947373415
 20
540.8111685775244
 30
0.0
 11
1545.965947373415
 21
544.0968828632387
 31
0.0
 70
    32
  1
(2)
 71
     5
 42
2.0
  3
AutoCAD
100
AcDbAlignedDimension
 13
1544.965947373415
 23
534.4608335775244
 33
0.0
 14
1546.965947373415
 24
534.5688835775245
 34
0.0
100
AcDbRotatedDimension
  0
DIMENSION
  5
65C5
330
1E
100
AcDbEntity
  8
寸法
  6
Continuous
100
AcDbDimension
  2
*D70
 10
1552.965947373415
 20
546.3320405775244
 30
0.0
 11
1548.965947373415
 21
548.8320405775245
 31
0.0
 70
    32
 71
     5
 42
8.0
  3
AutoCAD
100
AcDbAlignedDimension
 13
1544.965947373415
 23
534.4608335775244
 33
0.0
 14
1552.965947373415
 24
532.0595925775243
 34
0.0
100
AcDbRotatedDimension
  0
DIMENSION
  5
65D2
330
1E
100
AcDbEntity
  8
寸法
  6
Continuous
100
AcDbDimension
  2
*D71
 10
1563.965947373415
 20
546.3320405775244
 30
0.0
 11
1558.465947373415
 21
548.8320405775245
 31
0.0
 70
    32
 71
     5
 42
11.0
  3
AutoCAD
100
AcDbAlignedDimension
 13
1552.965947373415
 23
532.0595925775243
 33
0.0
 14
1563.965947373415
 24
536.4081625775245
 34
0.0
100
AcDbRotatedDimension
  0
DIMENSION
  5
65DF
330
1E
100
AcDbEntity
  8
寸法
  6
Continuous
100
AcDbDimension
  2
*D72
 10
1563.965947373415
 20
540.7556395775244
 30
0.0
 11
1561.165947373415
 21
540.7556395775244
 31
0.0
 70
   160
  1
5.6
 71
     5
 42
5.599999999999909
  3
AutoCAD
100
AcDbAlignedDimension
 13
1558.365947373415
 23
540.7556395775244
 33
0.0
 14
1563.965947373415
 24
540.7556395775244
 34
0.0
100
AcDbRotatedDimension
  0
ENDSEC
  0
SECTION
  2
OBJECTS
  0
DICTIONARY
  5
C
330
0
100
AcDbDictionary
281
     1
  3
ACAD_COLOR
350
66AD
  3
ACAD_GROUP
350
D
  3
ACAD_LAYOUT
350
19
  3
ACAD_MATERIAL
350
6698
  3
ACAD_MLINESTYLE
350
16
  3
ACAD_PLOTSETTINGS
350
18
  3
ACAD_PLOTSTYLENAME
350
E
  3
ACAD_TABLESTYLE
350
66AE
  3
ACAD_VISUALSTYLE
350
669C
  3
AcDbVariableDictionary
350
169
  3
DWGPROPS
350
6C86
  0
DICTIONARY
  5
6BA6
330
8
100
AcDbDictionary
280
     1
281
     1
  0
DICTIONARY
  5
175
330
2
100
AcDbDictionary
280
     1
281
     1
  3
ACAD_LAYERFILTERS
360
185
  3
ACAD_LAYERSTATES
360
176
  0
DICTIONARY
  5
28B
330
1E
100
AcDbDictionary
280
     1
281
     1
  3
ACAD_LAYOUTSELFREF
360
6691
  0
DICTIONARY
  5
28D
330
1A
100
AcDbDictionary
280
     1
281
     1
  3
ACAD_LAYOUTSELFREF
360
6690
  0
DICTIONARY
  5
66AD
102
{ACAD_REACTORS
330
C
102
}
330
C
100
AcDbDictionary
281
     1
  0
DICTIONARY
  5
D
102
{ACAD_REACTORS
330
C
102
}
330
C
100
AcDbDictionary
281
     1
  0
DICTIONARY
  5
19
102
{ACAD_REACTORS
330
C
102
}
330
C
100
AcDbDictionary
281
     1
  3
Model
350
21
  3
ﾚｲｱｳﾄ1
350
1D
  0
DICTIONARY
  5
6698
102
{ACAD_REACTORS
330
C
102
}
330
C
100
AcDbDictionary
281
     1
  3
ByBlock
350
669A
  3
ByLayer
350
6699
  3
Global
350
669B
  0
DICTIONARY
  5
16
102
{ACAD_REACTORS
330
C
102
}
330
C
100
AcDbDictionary
281
     1
  3
Standard
350
17
  0
DICTIONARY
  5
18
102
{ACAD_REACTORS
330
C
102
}
330
C
100
AcDbDictionary
281
     1
  0
ACDBDICTIONARYWDFLT
  5
E
102
{ACAD_REACTORS
330
C
102
}
330
C
100
AcDbDictionary
281
     1
  3
Normal
350
F
100
AcDbDictionaryWithDefault
340
F
1001
ACAD
1000
TREAT_AS_HARD
1070
     0
1000
TREAT_AS_HARD
1070
     0
1000
TREAT_AS_HARD
1070
     0
1000
TREAT_AS_HARD
1070
     0
1000
TREAT_AS_HARD
1070
     0
1000
TREAT_AS_HARD
1070
     0
1000
TREAT_AS_HARD
1070
     0
1000
TREAT_AS_HARD
1070
     0
1000
TREAT_AS_HARD
1070
     0
1000
TREAT_AS_HARD
1070
     0
1000
TREAT_AS_HARD
1070
     0
1000
TREAT_AS_HARD
1070
     0
1000
TREAT_AS_HARD
1070
     0
1000
TREAT_AS_HARD
1070
     0
1000
TREAT_AS_HARD
1070
     0
1000
TREAT_AS_HARD
1070
     0
1000
TREAT_AS_HARD
1070
     0
1000
TREAT_AS_HARD
1070
     0
1000
TREAT_AS_HARD
1070
     0
1000
TREAT_AS_HARD
1070
     0
1000
TREAT_AS_HARD
1070
     0
1000
TREAT_AS_HARD
1070
     0
1000
TREAT_AS_HARD
1070
     0
1000
TREAT_AS_HARD
1070
     0
1000
TREAT_AS_HARD
1070
     0
1000
TREAT_AS_HARD
1070
     0
  0
DICTIONARY
  5
66AE
102
{ACAD_REACTORS
330
C
102
}
330
C
100
AcDbDictionary
281
     1
  3
Standard
350
66AF
  0
DICTIONARY
  5
669C
102
{ACAD_REACTORS
330
C
102
}
330
C
100
AcDbDictionary
281
     1
  3
2dWireframe
350
66A2
  3
3D Hidden
350
66A4
  3
3dWireframe
350
66A3
  3
Basic
350
66A1
  3
Brighten
350
66A8
  3
ColorChange
350
66AC
  3
Conceptual
350
66A5
  3
Dim
350
66A7
  3
Facepattern
350
66AB
  3
Flat
350
669D
  3
FlatWithEdges
350
669E
  3
Gouraud
350
669F
  3
GouraudWithEdges
350
66A0
  3
Linepattern
350
66AA
  3
Realistic
350
66A6
  3
Thicken
350
66A9
  0
DICTIONARY
  5
169
102
{ACAD_REACTORS
330
C
102
}
330
C
100
AcDbDictionary
281
     1
  3
CTABLESTYLE
350
6BBE
  3
DIMASSOC
350
16A
  3
INDEXCTL
350
6BC0
  3
SORTENTS
350
6BBF
  0
XRECORD
  5
6C86
102
{ACAD_REACTORS
330
C
102
}
330
C
100
AcDbXrecord
280
     1
  1
DWGPROPS COOKIE
  2

  3

  4

  6

  7

  8
HON1000AV
  9

300
=
301
=
302
=
303
=
304
=
305
=
306
=
307
=
308
=
309
=
 40
0.2685490277777778
 41
2454316.693457674
 42
2454729.771283635
  1

 90
        0
  0
DICTIONARY
  5
185
102
{ACAD_REACTORS
330
175
102
}
330
175
100
AcDbDictionary
280
     1
281
     1
  0
DICTIONARY
  5
176
102
{ACAD_REACTORS
330
175
102
}
330
175
100
AcDbDictionary
281
     1
  3
ACAD
350
177
  0
XRECORD
  5
6691
102
{ACAD_REACTORS
330
28B
102
}
330
28B
100
AcDbXrecord
280
     1
340
1E
  0
XRECORD
  5
6690
102
{ACAD_REACTORS
330
28D
102
}
330
28D
100
AcDbXrecord
280
     1
340
1A
  0
LAYOUT
  5
21
102
{ACAD_XDICTIONARY
360
6C89
102
}
102
{ACAD_REACTORS
330
19
102
}
330
19
100
AcDbPlotSettings
  1

  2
\\MEISEI-1\EPSON Stylus Photo EX3
  4

  6

 40
0.0
 41
0.0
 42
0.0
 43
0.0
 44
0.0
 45
0.0
 46
0.0
 47
0.0
 48
0.0
 49
0.0
140
0.0
141
0.0
142
1.0
143
1.0
 70
  1712
 72
     0
 73
     0
 74
     0
  7

 75
     0
147
1.0
148
0.0
149
0.0
100
AcDbLayout
  1
Model
 70
     1
 71
     0
 10
0.0
 20
0.0
 11
12.0
 21
9.0
 12
0.0
 22
0.0
 32
0.0
 14
0.0
 24
0.0
 34
0.0
 15
0.0
 25
0.0
 35
0.0
146
0.0
 13
0.0
 23
0.0
 33
0.0
 16
1.0
 26
0.0
 36
0.0
 17
0.0
 27
1.0
 37
0.0
 76
     0
330
1E
331
664C
  0
LAYOUT
  5
1D
102
{ACAD_XDICTIONARY
360
6C87
102
}
102
{ACAD_REACTORS
330
19
102
}
330
19
100
AcDbPlotSettings
  1

  2
\\MEISEI-1\EPSON Stylus Photo EX3
  4

  6

 40
0.0
 41
0.0
 42
0.0
 43
0.0
 44
0.0
 45
0.0
 46
0.0
 47
0.0
 48
0.0
 49
0.0
140
0.0
141
0.0
142
1.0
143
1.0
 70
   688
 72
     0
 73
     0
 74
     5
  7

 75
    16
147
1.0
148
0.0
149
0.0
100
AcDbLayout
  1
ﾚｲｱｳﾄ1
 70
     1
 71
     1
 10
0.0
 20
0.0
 11
12.0
 21
9.0
 12
0.0
 22
0.0
 32
0.0
 14
1.000000000000000E+20
 24
1.000000000000000E+20
 34
1.000000000000000E+20
 15
-1.000000000000000E+20
 25
-1.000000000000000E+20
 35
-1.000000000000000E+20
146
0.0
 13
0.0
 23
0.0
 33
0.0
 16
1.0
 26
0.0
 36
0.0
 17
0.0
 27
1.0
 37
0.0
 76
     0
330
1A
  0
MATERIAL
  5
669A
102
{ACAD_XDICTIONARY
360
6C8D
102
}
102
{ACAD_REACTORS
330
6698
102
}
330
6698
100
AcDbMaterial
  1
ByBlock
  0
MATERIAL
  5
6699
102
{ACAD_XDICTIONARY
360
6C8B
102
}
102
{ACAD_REACTORS
330
6698
102
}
330
6698
100
AcDbMaterial
  1
ByLayer
  0
MATERIAL
  5
669B
102
{ACAD_XDICTIONARY
360
6C8F
102
}
102
{ACAD_REACTORS
330
6698
102
}
330
6698
100
AcDbMaterial
  1
Global
  0
MLINESTYLE
  5
17
102
{ACAD_REACTORS
330
16
102
}
330
16
100
AcDbMlineStyle
  2
STANDARD
 70
     0
  3

 62
   256
 51
90.0
 52
90.0
 71
     2
 49
0.5
 62
   256
  6
BYLAYER
 49
-0.5
 62
   256
  6
BYLAYER
  0
ACDBPLACEHOLDER
  5
F
102
{ACAD_REACTORS
330
E
102
}
330
E
  0
TABLESTYLE
  5
66AF
102
{ACAD_XDICTIONARY
360
6C91
102
}
102
{ACAD_REACTORS
330
66AE
102
}
330
66AE
100
AcDbTableStyle
  3
Standard
 70
     0
 71
     0
 40
0.06
 41
0.06
280
     0
281
     0
  7
STANDARD
140
0.18
170
     2
 62
     0
 63
     7
283
     0
274
    -2
284
     1
 64
     0
275
    -2
285
     1
 65
     0
276
    -2
286
     1
 66
     0
277
    -2
287
     1
 67
     0
278
    -2
288
     1
 68
     0
279
    -2
289
     1
 69
     0
  7
STANDARD
140
0.25
170
     5
 62
     0
 63
     7
283
     0
274
    -2
284
     1
 64
     0
275
    -2
285
     1
 65
     0
276
    -2
286
     1
 66
     0
277
    -2
287
     1
 67
     0
278
    -2
288
     1
 68
     0
279
    -2
289
     1
 69
     0
  7
STANDARD
140
0.18
170
     5
 62
     0
 63
     7
283
     0
274
    -2
284
     1
 64
     0
275
    -2
285
     1
 65
     0
276
    -2
286
     1
 66
     0
277
    -2
287
     1
 67
     0
278
    -2
288
     1
 68
     0
279
    -2
289
     1
 69
     0
  0
VISUALSTYLE
  5
66A2
102
{ACAD_REACTORS
330
669C
102
}
330
669C
100
AcDbVisualStyle
  2
2dWireframe
 70
     4
 71
     0
 72
     2
 73
     0
 90
        0
 40
-0.6
 41
-30.0
 62
     5
 63
     7
 74
     1
 91
        4
 64
     7
 65
   257
 75
     1
175
     1
 42
1.0
 92
        0
 66
   257
 43
1.0
 76
     1
 77
     6
 78
     2
 67
     7
 79
     5
170
     0
171
     0
290
     0
174
     0
 93
        1
 44
0.0
173
     0
291
     0
 45
0.0
1001
ACAD
1000
AcDbSavedByObjectVersion
1070
     0
  0
VISUALSTYLE
  5
66A4
102
{ACAD_REACTORS
330
669C
102
}
330
669C
100
AcDbVisualStyle
  2
3D Hidden
 70
     6
 71
     1
 72
     2
 73
     2
 90
        0
 40
-0.6
 41
-30.0
 62
     5
 63
     7
 74
     2
 91
        2
 64
     7
 65
   257
 75
     2
175
     1
 42
40.0
 92
        0
 66
   257
 43
1.0
 76
     1
 77
     6
 78
     2
 67
     7
 79
     3
170
     0
171
     0
290
     0
174
     0
 93
        1
 44
0.0
173
     0
291
     0
 45
0.0
1001
ACAD
1000
AcDbSavedByObjectVersion
1070
     0
  0
VISUALSTYLE
  5
66A3
102
{ACAD_REACTORS
330
669C
102
}
330
669C
100
AcDbVisualStyle
  2
3dWireframe
 70
     5
 71
     0
 72
     2
 73
     0
 90
        0
 40
-0.6
 41
-30.0
 62
     5
 63
     7
 74
     1
 91
        4
 64
     7
 65
   257
 75
     1
175
     1
 42
1.0
 92
        0
 66
   257
 43
1.0
 76
     1
 77
     6
 78
     2
 67
     7
 79
     5
170
     0
171
     0
290
     0
174
     0
 93
        1
 44
0.0
173
     0
291
     0
 45
0.0
1001
ACAD
1000
AcDbSavedByObjectVersion
1070
     0
  0
VISUALSTYLE
  5
66A1
102
{ACAD_REACTORS
330
669C
102
}
330
669C
100
AcDbVisualStyle
  2
Basic
 70
     7
 71
     1
 72
     0
 73
     1
 90
        0
 40
-0.6
 41
-30.0
 62
     5
 63
     7
 74
     0
 91
        4
 64
     7
 65
   257
 75
     1
175
     1
 42
1.0
 92
        8
 66
     7
 43
1.0
 76
     1
 77
     6
 78
     2
 67
     7
 79
     5
170
     0
171
     0
290
     0
174
     0
 93
        1
 44
0.0
173
     0
291
     1
 45
0.0
1001
ACAD
1000
AcDbSavedByObjectVersion
1070
     0
  0
VISUALSTYLE
  5
66A8
102
{ACAD_REACTORS
330
669C
102
}
330
669C
100
AcDbVisualStyle
  2
Brighten
 70
    12
 71
     2
 72
     2
 73
     0
 90
        0
 40
-0.6
 41
-30.0
 62
     5
 63
     7
 74
     1
 91
        4
 64
     7
 65
   257
 75
     1
175
     1
 42
1.0
 92
        8
 66
     7
 43
1.0
 76
     1
 77
     6
 78
     2
 67
     7
 79
     5
170
     0
171
     0
290
     0
174
     0
 93
        1
 44
50.0
173
     0
291
     1
 45
0.0
1001
ACAD
1000
AcDbSavedByObjectVersion
1070
     0
  0
VISUALSTYLE
  5
66AC
102
{ACAD_REACTORS
330
669C
102
}
330
669C
100
AcDbVisualStyle
  2
ColorChange
 70
    16
 71
     2
 72
     2
 73
     3
 90
        0
 40
-0.6
 41
-30.0
 62
     5
 63
     8
 74
     1
 91
        4
 64
     7
 65
   257
 75
     1
175
     1
 42
1.0
 92
        8
 66
     8
 43
1.0
 76
     1
 77
     6
 78
     2
 67
     7
 79
     5
170
     0
171
     0
290
     0
174
     0
 93
        1
 44
0.0
173
     0
291
     1
 45
0.0
1001
ACAD
1000
AcDbSavedByObjectVersion
1070
     0
  0
VISUALSTYLE
  5
66A5
102
{ACAD_REACTORS
330
669C
102
}
330
669C
100
AcDbVisualStyle
  2
Conceptual
 70
     9
 71
     3
 72
     2
 73
     0
 90
        0
 40
-0.6
 41
-30.0
 62
     5
 63
     7
 74
     2
 91
        2
 64
     7
 65
   257
 75
     1
175
     1
 42
40.0
 92
        8
 66
     7
 43
1.0
 76
     1
 77
     6
 78
     2
 67
     7
 79
     3
170
     0
171
     0
290
     0
174
     0
 93
        1
 44
0.0
173
     0
291
     0
 45
0.0
1001
ACAD
1000
AcDbSavedByObjectVersion
1070
     0
  0
VISUALSTYLE
  5
66A7
102
{ACAD_REACTORS
330
669C
102
}
330
669C
100
AcDbVisualStyle
  2
Dim
 70
    11
 71
     2
 72
     2
 73
     0
 90
        0
 40
-0.6
 41
-30.0
 62
     5
 63
     7
 74
     1
 91
        4
 64
     7
 65
   257
 75
     1
175
     1
 42
1.0
 92
        8
 66
     7
 43
1.0
 76
     1
 77
     6
 78
     2
 67
     7
 79
     5
170
     0
171
     0
290
     0
174
     0
 93
        1
 44
-50.0
173
     0
291
     1
 45
0.0
1001
ACAD
1000
AcDbSavedByObjectVersion
1070
     0
  0
VISUALSTYLE
  5
66AB
102
{ACAD_REACTORS
330
669C
102
}
330
669C
100
AcDbVisualStyle
  2
Facepattern
 70
    15
 71
     2
 72
     2
 73
     0
 90
        0
 40
-0.6
 41
-30.0
 62
     5
 63
     7
 74
     1
 91
        4
 64
     7
 65
   257
 75
     1
175
     1
 42
1.0
 92
        8
 66
     7
 43
1.0
 76
     1
 77
     6
 78
     2
 67
     7
 79
     5
170
     0
171
     0
290
     0
174
     0
 93
        1
 44
0.0
173
     0
291
     1
 45
0.0
1001
ACAD
1000
AcDbSavedByObjectVersion
1070
     0
  0
VISUALSTYLE
  5
669D
102
{ACAD_REACTORS
330
669C
102
}
330
669C
100
AcDbVisualStyle
  2
Flat
 70
     0
 71
     2
 72
     1
 73
     1
 90
        2
 40
-0.6
 41
30.0
 62
     5
 63
     7
 74
     0
 91
        4
 64
     7
 65
   257
 75
     1
175
     1
 42
1.0
 92
        8
 66
     7
 43
1.0
 76
     1
 77
     6
 78
     2
 67
     7
 79
     5
170
     0
171
     0
290
     0
174
     0
 93
       13
 44
0.0
173
     0
291
     1
 45
0.0
1001
ACAD
1000
AcDbSavedByObjectVersion
1070
     0
  0
VISUALSTYLE
  5
669E
102
{ACAD_REACTORS
330
669C
102
}
330
669C
100
AcDbVisualStyle
  2
FlatWithEdges
 70
     1
 71
     2
 72
     1
 73
     1
 90
        2
 40
-0.6
 41
30.0
 62
     5
 63
     7
 74
     1
 91
        4
 64
     7
 65
   257
 75
     1
175
     1
 42
1.0
 92
        0
 66
   257
 43
1.0
 76
     1
 77
     6
 78
     2
 67
     7
 79
     5
170
     0
171
     0
290
     0
174
     0
 93
       13
 44
0.0
173
     0
291
     1
 45
0.0
1001
ACAD
1000
AcDbSavedByObjectVersion
1070
     0
  0
VISUALSTYLE
  5
669F
102
{ACAD_REACTORS
330
669C
102
}
330
669C
100
AcDbVisualStyle
  2
Gouraud
 70
     2
 71
     2
 72
     2
 73
     1
 90
        2
 40
-0.6
 41
30.0
 62
     5
 63
     7
 74
     0
 91
        4
 64
     7
 65
   257
 75
     1
175
     1
 42
1.0
 92
        0
 66
     7
 43
1.0
 76
     1
 77
     6
 78
     2
 67
     7
 79
     5
170
     0
171
     0
290
     0
174
     0
 93
       13
 44
0.0
173
     0
291
     1
 45
0.0
1001
ACAD
1000
AcDbSavedByObjectVersion
1070
     0
  0
VISUALSTYLE
  5
66A0
102
{ACAD_REACTORS
330
669C
102
}
330
669C
100
AcDbVisualStyle
  2
GouraudWithEdges
 70
     3
 71
     2
 72
     2
 73
     1
 90
        2
 40
-0.6
 41
30.0
 62
     5
 63
     7
 74
     1
 91
        4
 64
     7
 65
   257
 75
     1
175
     1
 42
1.0
 92
        0
 66
   257
 43
1.0
 76
     1
 77
     6
 78
     2
 67
     7
 79
     5
170
     0
171
     0
290
     0
174
     0
 93
       13
 44
0.0
173
     0
291
     1
 45
0.0
1001
ACAD
1000
AcDbSavedByObjectVersion
1070
     0
  0
VISUALSTYLE
  5
66AA
102
{ACAD_REACTORS
330
669C
102
}
330
669C
100
AcDbVisualStyle
  2
Linepattern
 70
    14
 71
     2
 72
     2
 73
     0
 90
        0
 40
-0.6
 41
-30.0
 62
     5
 63
     7
 74
     1
 91
        4
 64
     7
 65
   257
 75
     7
175
     7
 42
1.0
 92
        8
 66
     7
 43
1.0
 76
     1
 77
     6
 78
     2
 67
     7
 79
     5
170
     0
171
     0
290
     0
174
     0
 93
        1
 44
0.0
173
     0
291
     1
 45
0.0
1001
ACAD
1000
AcDbSavedByObjectVersion
1070
     0
  0
VISUALSTYLE
  5
66A6
102
{ACAD_REACTORS
330
669C
102
}
330
669C
100
AcDbVisualStyle
  2
Realistic
 70
     8
 71
     2
 72
     2
 73
     0
 90
        0
 40
-0.6
 41
-30.0
 62
     5
 63
     7
 74
     1
 91
        0
 64
     7
 65
   257
 75
     1
175
     1
 42
1.0
 92
        8
 66
     8
 43
1.0
 76
     1
 77
     6
 78
     2
 67
     7
 79
     5
170
     0
171
     0
290
     0
174
     0
 93
       13
 44
0.0
173
     0
291
     0
 45
0.0
1001
ACAD
1000
AcDbSavedByObjectVersion
1070
     0
  0
VISUALSTYLE
  5
66A9
102
{ACAD_REACTORS
330
669C
102
}
330
669C
100
AcDbVisualStyle
  2
Thicken
 70
    13
 71
     2
 72
     2
 73
     0
 90
        0
 40
-0.6
 41
-30.0
 62
     5
 63
     7
 74
     1
 91
        4
 64
     7
 65
   257
 75
     1
175
     1
 42
1.0
 92
       12
 66
     7
 43
1.0
 76
     1
 77
     6
 78
     2
 67
     7
 79
     5
170
     0
171
     0
290
     0
174
     0
 93
        1
 44
0.0
173
     0
291
     1
 45
0.0
1001
ACAD
1000
AcDbSavedByObjectVersion
1070
     0
  0
DICTIONARYVAR
  5
6BBE
102
{ACAD_REACTORS
330
169
102
}
330
169
100
DictionaryVariables
280
     0
  1
STANDARD
  0
DICTIONARYVAR
  5
16A
102
{ACAD_REACTORS
330
169
102
}
330
169
100
DictionaryVariables
280
     0
  1
1
  0
DICTIONARYVAR
  5
6BC0
102
{ACAD_REACTORS
330
169
102
}
330
169
100
DictionaryVariables
280
     0
  1
0
  0
DICTIONARYVAR
  5
6BBF
102
{ACAD_REACTORS
330
169
102
}
330
169
100
DictionaryVariables
280
     0
  1
127
  0
XRECORD
  5
177
102
{ACAD_REACTORS
330
176
102
}
330
176
100
AcDbXrecord
280
     1
 91
      476
330
179
 90
        8
 62
     7
370
    -3
331
15
  1
Color_7
330
178
 90
        8
 62
     7
370
    -3
331
15
  1
Color_7
330
128
 90
        0
 62
     7
370
    -3
331
15
  1
Color_7
330
10
 90
        8
 62
     7
370
    -3
331
15
  1
Color_7
  0
DICTIONARY
  5
6C89
330
21
100
AcDbDictionary
280
     1
281
     1
  3
ACAD_XREC_ROUNDTRIP
360
6C8A
  0
DICTIONARY
  5
6C87
330
1D
100
AcDbDictionary
280
     1
281
     1
  3
ACAD_XREC_ROUNDTRIP
360
6C88
  0
DICTIONARY
  5
6C8D
330
669A
100
AcDbDictionary
280
     1
281
     1
  3
ACAD_XREC_ROUNDTRIP
360
6C8E
  0
DICTIONARY
  5
6C8B
330
6699
100
AcDbDictionary
280
     1
281
     1
  3
ACAD_XREC_ROUNDTRIP
360
6C8C
  0
DICTIONARY
  5
6C8F
330
669B
100
AcDbDictionary
280
     1
281
     1
  3
ACAD_XREC_ROUNDTRIP
360
6C90
  0
DICTIONARY
  5
6C91
330
66AF
100
AcDbDictionary
280
     1
281
     1
  3
ACAD_XREC_ROUNDTRIP
360
6C92
  0
XRECORD
  5
6C8A
102
{ACAD_REACTORS
330
6C89
102
}
330
6C89
100
AcDbXrecord
280
     1
102
SHADEPLOT
 70
     0
102
SHADEPLOTRESLEVEL
 70
     2
102
SHADEPLOTCUSTOMDPI
 70
   300
  0
XRECORD
  5
6C88
102
{ACAD_REACTORS
330
6C87
102
}
330
6C87
100
AcDbXrecord
280
     1
102
SHADEPLOT
 70
     0
102
SHADEPLOTRESLEVEL
 70
     2
102
SHADEPLOTCUSTOMDPI
 70
   300
  0
XRECORD
  5
6C8E
102
{ACAD_REACTORS
330
6C8D
102
}
330
6C8D
100
AcDbXrecord
280
     1
102
MATERIAL
148
0.0
149
0.0
149
0.0
 93
        0
 94
       63
282
     0
 72
     1
 77
     1
171
     1
175
     1
179
     1
273
     0
  0
XRECORD
  5
6C8C
102
{ACAD_REACTORS
330
6C8B
102
}
330
6C8B
100
AcDbXrecord
280
     1
102
MATERIAL
148
0.0
149
0.0
149
0.0
 93
        0
 94
       63
282
     0
 72
     1
 77
     1
171
     1
175
     1
179
     1
273
     0
  0
XRECORD
  5
6C90
102
{ACAD_REACTORS
330
6C8F
102
}
330
6C8F
100
AcDbXrecord
280
     1
102
MATERIAL
148
0.0
149
0.0
149
0.0
 93
        0
 94
       63
282
     0
 72
     1
 77
     1
171
     1
175
     1
179
     1
273
     0
  0
XRECORD
  5
6C92
102
{ACAD_REACTORS
330
6C91
102
}
330
6C91
100
AcDbXrecord
280
     1
102
ACAD_ROUNDTRIP_PRE2007_TABLESTYLE
 90
      512
 91
        0
  1

 92
      512
 93
        0
  2

 94
      512
 95
        0
  3

  0
ENDSEC
  0
EOF
