  0
SECTION
  2
HEADER
  9
$ACADVER
  1
AC1015
  9
$ACADMAINTVER
 70
    20
  9
$DWGCODEPAGE
  3
ANSI_932
  9
$INSBASE
 10
0.0
 20
0.0
 30
0.0
  9
$EXTMIN
 10
1187.711973284994
 20
451.5819905433223
 30
0.0
  9
$EXTMAX
 10
1677.063324284994
 20
735.0684815433218
 30
0.0
  9
$LIMMIN
 10
0.0
 20
0.0
  9
$LIMMAX
 10
420.0
 20
297.0
  9
$ORTHOMODE
 70
     0
  9
$REGENMODE
 70
     1
  9
$FILLMODE
 70
     1
  9
$QTEXTMODE
 70
     0
  9
$MIRRTEXT
 70
     1
  9
$LTSCALE
 40
1.0
  9
$ATTMODE
 70
     1
  9
$TEXTSIZE
 40
5.0
  9
$TRACEWID
 40
0.05
  9
$TEXTSTYLE
  7
ACAD
  9
$CLAYER
  8
0
  9
$CELTYPE
  6
CONTINUOUS
  9
$CECOLOR
 62
   256
  9
$CELTSCALE
 40
1.0
  9
$DISPSILH
 70
     0
  9
$DIMSCALE
 40
1.0
  9
$DIMASZ
 40
1.0
  9
$DIMEXO
 40
0.0
  9
$DIMDLI
 40
0.38
  9
$DIMRND
 40
0.0
  9
$DIMDLE
 40
0.0
  9
$DIMEXE
 40
0.0
  9
$DIMTP
 40
0.0
  9
$DIMTM
 40
0.0
  9
$DIMTXT
 40
3.0
  9
$DIMCEN
 40
0.09
  9
$DIMTSZ
 40
0.0
  9
$DIMTOL
 70
     0
  9
$DIMLIM
 70
     0
  9
$DIMTIH
 70
     0
  9
$DIMTOH
 70
     1
  9
$DIMSE1
 70
     0
  9
$DIMSE2
 70
     0
  9
$DIMTAD
 70
     1
  9
$DIMZIN
 70
     0
  9
$DIMBLK
  1
Dot
  9
$DIMASO
 70
     1
  9
$DIMSHO
 70
     1
  9
$DIMPOST
  1

  9
$DIMAPOST
  1

  9
$DIMALT
 70
     0
  9
$DIMALTD
 70
     2
  9
$DIMALTF
 40
25.4
  9
$DIMLFAC
 40
1.0
  9
$DIMTOFL
 70
     0
  9
$DIMTVP
 40
0.0
  9
$DIMTIX
 70
     1
  9
$DIMSOXD
 70
     0
  9
$DIMSAH
 70
     0
  9
$DIMBLK1
  1

  9
$DIMBLK2
  1

  9
$DIMSTYLE
  2
AutoCAD
  9
$DIMCLRD
 70
     4
  9
$DIMCLRE
 70
     4
  9
$DIMCLRT
 70
     3
  9
$DIMTFAC
 40
1.0
  9
$DIMGAP
 40
1.0
  9
$DIMJUST
 70
     0
  9
$DIMSD1
 70
     0
  9
$DIMSD2
 70
     0
  9
$DIMTOLJ
 70
     1
  9
$DIMTZIN
 70
     0
  9
$DIMALTZ
 70
     0
  9
$DIMALTTZ
 70
     0
  9
$DIMUPT
 70
     0
  9
$DIMDEC
 70
     0
  9
$DIMTDEC
 70
     0
  9
$DIMALTU
 70
     2
  9
$DIMALTTD
 70
     2
  9
$DIMTXSTY
  7
ACAD
  9
$DIMAUNIT
 70
     0
  9
$DIMADEC
 70
     0
  9
$DIMALTRND
 40
0.0
  9
$DIMAZIN
 70
     0
  9
$DIMDSEP
 70
    46
  9
$DIMATFIT
 70
     0
  9
$DIMFRAC
 70
     0
  9
$DIMLDRBLK
  1
None
  9
$DIMLUNIT
 70
     2
  9
$DIMLWD
 70
    -2
  9
$DIMLWE
 70
    -2
  9
$DIMTMOVE
 70
     0
  9
$LUNITS
 70
     2
  9
$LUPREC
 70
     4
  9
$SKETCHINC
 40
0.1
  9
$FILLETRAD
 40
0.0
  9
$AUNITS
 70
     0
  9
$AUPREC
 70
     0
  9
$MENU
  1
.
  9
$ELEVATION
 40
0.0
  9
$PELEVATION
 40
0.0
  9
$THICKNESS
 40
0.0
  9
$LIMCHECK
 70
     0
  9
$CHAMFERA
 40
0.0
  9
$CHAMFERB
 40
0.0
  9
$CHAMFERC
 40
0.0
  9
$CHAMFERD
 40
0.0
  9
$SKPOLY
 70
     0
  9
$TDCREATE
 40
2454316.693457674
  9
$TDUCREATE
 40
2454316.318457674
  9
$TDUPDATE
 40
2454729.771060833
  9
$TDUUPDATE
 40
2454729.396060833
  9
$TDINDWG
 40
0.2492624653
  9
$TDUSRTIMER
 40
0.2492624653
  9
$USRTIMER
 70
     1
  9
$ANGBASE
 50
0.0
  9
$ANGDIR
 70
     0
  9
$PDMODE
 70
     0
  9
$PDSIZE
 40
0.0
  9
$PLINEWID
 40
0.0
  9
$SPLFRAME
 70
     0
  9
$SPLINETYPE
 70
     6
  9
$SPLINESEGS
 70
     8
  9
$HANDSEED
  5
6B93
  9
$SURFTAB1
 70
     6
  9
$SURFTAB2
 70
     6
  9
$SURFTYPE
 70
     6
  9
$SURFU
 70
     6
  9
$SURFV
 70
     6
  9
$UCSBASE
  2

  9
$UCSNAME
  2

  9
$UCSORG
 10
0.0
 20
0.0
 30
0.0
  9
$UCSXDIR
 10
1.0
 20
0.0
 30
0.0
  9
$UCSYDIR
 10
0.0
 20
1.0
 30
0.0
  9
$UCSORTHOREF
  2

  9
$UCSORTHOVIEW
 70
     0
  9
$UCSORGTOP
 10
0.0
 20
0.0
 30
0.0
  9
$UCSORGBOTTOM
 10
0.0
 20
0.0
 30
0.0
  9
$UCSORGLEFT
 10
0.0
 20
0.0
 30
0.0
  9
$UCSORGRIGHT
 10
0.0
 20
0.0
 30
0.0
  9
$UCSORGFRONT
 10
0.0
 20
0.0
 30
0.0
  9
$UCSORGBACK
 10
0.0
 20
0.0
 30
0.0
  9
$PUCSBASE
  2

  9
$PUCSNAME
  2

  9
$PUCSORG
 10
0.0
 20
0.0
 30
0.0
  9
$PUCSXDIR
 10
1.0
 20
0.0
 30
0.0
  9
$PUCSYDIR
 10
0.0
 20
1.0
 30
0.0
  9
$PUCSORTHOREF
  2

  9
$PUCSORTHOVIEW
 70
     0
  9
$PUCSORGTOP
 10
0.0
 20
0.0
 30
0.0
  9
$PUCSORGBOTTOM
 10
0.0
 20
0.0
 30
0.0
  9
$PUCSORGLEFT
 10
0.0
 20
0.0
 30
0.0
  9
$PUCSORGRIGHT
 10
0.0
 20
0.0
 30
0.0
  9
$PUCSORGFRONT
 10
0.0
 20
0.0
 30
0.0
  9
$PUCSORGBACK
 10
0.0
 20
0.0
 30
0.0
  9
$USERI1
 70
     0
  9
$USERI2
 70
     0
  9
$USERI3
 70
     0
  9
$USERI4
 70
     0
  9
$USERI5
 70
     0
  9
$USERR1
 40
0.0
  9
$USERR2
 40
0.0
  9
$USERR3
 40
0.0
  9
$USERR4
 40
0.0
  9
$USERR5
 40
0.0
  9
$WORLDVIEW
 70
     1
  9
$SHADEDGE
 70
     3
  9
$SHADEDIF
 70
    70
  9
$TILEMODE
 70
     1
  9
$MAXACTVP
 70
    48
  9
$PINSBASE
 10
0.0
 20
0.0
 30
0.0
  9
$PLIMCHECK
 70
     0
  9
$PEXTMIN
 10
1.000000000000000E+20
 20
1.000000000000000E+20
 30
1.000000000000000E+20
  9
$PEXTMAX
 10
-1.000000000000000E+20
 20
-1.000000000000000E+20
 30
-1.000000000000000E+20
  9
$PLIMMIN
 10
0.0
 20
0.0
  9
$PLIMMAX
 10
12.0
 20
9.0
  9
$UNITMODE
 70
     0
  9
$VISRETAIN
 70
     0
  9
$PLINEGEN
 70
     0
  9
$PSLTSCALE
 70
     1
  9
$TREEDEPTH
 70
  3020
  9
$CMLSTYLE
  2
Standard
  9
$CMLJUST
 70
     0
  9
$CMLSCALE
 40
1.0
  9
$PROXYGRAPHICS
 70
     1
  9
$MEASUREMENT
 70
     0
  9
$CELWEIGHT
370
    -1
  9
$ENDCAPS
280
     0
  9
$JOINSTYLE
280
     0
  9
$LWDISPLAY
290
     0
  9
$INSUNITS
 70
     0
  9
$HYPERLINKBASE
  1

  9
$STYLESHEET
  1

  9
$XEDIT
290
     1
  9
$CEPSNTYPE
380
     0
  9
$PSTYLEMODE
290
     1
  9
$FINGERPRINTGUID
  2
{CC7D6DEE-A9F1-4F3E-AC95-C84B62CCA3FD}
  9
$VERSIONGUID
  2
{2ECB858A-A5FA-4661-9962-8A9753142801}
  9
$EXTNAMES
290
     1
  9
$PSVPSCALE
 40
0.0
  9
$OLESTARTUP
290
     0
  0
ENDSEC
  0
SECTION
  2
CLASSES
  0
CLASS
  1
ACDBDICTIONARYWDFLT
  2
AcDbDictionaryWithDefault
  3
ObjectDBX Classes
 90
        0
280
     0
281
     0
  0
CLASS
  1
ACDBPLACEHOLDER
  2
AcDbPlaceHolder
  3
ObjectDBX Classes
 90
        0
280
     0
281
     0
  0
CLASS
  1
LAYOUT
  2
AcDbLayout
  3
ObjectDBX Classes
 90
        0
280
     0
281
     0
  0
CLASS
  1
DICTIONARYVAR
  2
AcDbDictionaryVar
  3
ObjectDBX Classes
 90
        0
280
     0
281
     0
  0
CLASS
  1
MATERIAL
  2
AcDbMaterial
  3
ObjectDBX Classes
 90
     1153
280
     0
281
     0
  0
CLASS
  1
VISUALSTYLE
  2
AcDbVisualStyle
  3
ObjectDBX Classes
 90
     4095
280
     0
281
     0
  0
CLASS
  1
TABLESTYLE
  2
AcDbTableStyle
  3
ObjectDBX Classes
 90
     4095
280
     0
281
     0
  0
ENDSEC
  0
SECTION
  2
TABLES
  0
TABLE
  2
VPORT
  5
8
102
{ACAD_XDICTIONARY
360
6B66
102
}
330
0
100
AcDbSymbolTable
 70
     1
  0
VPORT
  5
672C
330
8
100
AcDbSymbolTableRecord
100
AcDbViewportTableRecord
  2
*Active
 70
     0
 10
0.0
 20
0.0
 11
1.0
 21
1.0
 12
1419.202131741194
 22
567.0804250201403
 13
0.0
 23
0.0
 14
1.0
 24
1.0
 15
0.0
 25
0.0
 16
0.0
 26
0.0
 36
1.0
 17
0.0
 27
0.0
 37
0.0
 40
498.0935559964798
 41
1.571614583333333
 42
50.0
 43
0.0
 44
0.0
 50
0.0
 51
0.0
 71
     0
 72
   100
 73
     1
 74
     1
 75
     0
 76
     0
 77
     0
 78
     0
281
     0
 65
     1
110
0.0
120
0.0
130
0.0
111
1.0
121
0.0
131
0.0
112
0.0
122
1.0
132
0.0
 79
     0
146
0.0
  0
ENDTAB
  0
TABLE
  2
LTYPE
  5
5
330
0
100
AcDbSymbolTable
 70
    50
  0
LTYPE
  5
13
330
5
100
AcDbSymbolTableRecord
100
AcDbLinetypeTableRecord
  2
ByBlock
 70
     0
  3

 72
    65
 73
     0
 40
0.0
  0
LTYPE
  5
14
330
5
100
AcDbSymbolTableRecord
100
AcDbLinetypeTableRecord
  2
ByLayer
 70
     0
  3

 72
    65
 73
     0
 40
0.0
  0
LTYPE
  5
15
330
5
100
AcDbSymbolTableRecord
100
AcDbLinetypeTableRecord
  2
CONTINUOUS
 70
     0
  3
実線
 72
    65
 73
     0
 40
0.0
  0
LTYPE
  5
22
330
5
100
AcDbSymbolTableRecord
100
AcDbLinetypeTableRecord
  2
DASHED1
 70
     0
  3
--  --  --  --  --  --  --  --  
 72
    65
 73
     2
 40
2.5
 49
1.25
 74
     0
 49
-1.25
 74
     0
  0
LTYPE
  5
23
330
5
100
AcDbSymbolTableRecord
100
AcDbLinetypeTableRecord
  2
DASHED2
 70
     0
  3
----    ----    ----    ----    
 72
    65
 73
     2
 40
5.0
 49
2.5
 74
     0
 49
-2.5
 74
     0
  0
LTYPE
  5
24
330
5
100
AcDbSymbolTableRecord
100
AcDbLinetypeTableRecord
  2
DASHED3
 70
     0
  3
------  ------  ------  ------  
 72
    65
 73
     2
 40
5.0
 49
3.75
 74
     0
 49
-1.25
 74
     0
  0
LTYPE
  5
25
330
5
100
AcDbSymbolTableRecord
100
AcDbLinetypeTableRecord
  2
CENTER1
 70
     0
  3
----- - ----- - ----- - ----- - 
 72
    65
 73
     4
 40
10.0
 49
6.25
 74
     0
 49
-1.25
 74
     0
 49
1.25
 74
     0
 49
-1.25
 74
     0
  0
LTYPE
  5
26
330
5
100
AcDbSymbolTableRecord
100
AcDbLinetypeTableRecord
  2
CENTER2
 70
     0
  3
----------  --  ----------  --  
 72
    65
 73
     4
 40
20.0
 49
12.5
 74
     0
 49
-2.5
 74
     0
 49
2.5
 74
     0
 49
-2.5
 74
     0
  0
LTYPE
  5
27
330
5
100
AcDbSymbolTableRecord
100
AcDbLinetypeTableRecord
  2
PHANTOM1
 70
     0
  3
--- - - --- - - --- - - --- - - 
 72
    65
 73
     6
 40
10.0
 49
3.25
 74
     0
 49
-1.25
 74
     0
 49
1.25
 74
     0
 49
-1.25
 74
     0
 49
1.25
 74
     0
 49
-1.25
 74
     0
  0
LTYPE
  5
28
330
5
100
AcDbSymbolTableRecord
100
AcDbLinetypeTableRecord
  2
PHANTOM2
 70
     0
  3
--------  -  -  --------  -  -  
 72
    65
 73
     6
 40
20.0
 49
10.0
 74
     0
 49
-2.5
 74
     0
 49
1.25
 74
     0
 49
-2.5
 74
     0
 49
1.25
 74
     0
 49
-2.5
 74
     0
  0
LTYPE
  5
29
330
5
100
AcDbSymbolTableRecord
100
AcDbLinetypeTableRecord
  2
DOT
 70
     0
  3
-   -   -   -   -   -   -   -   
 72
    65
 73
     2
 40
2.5
 49
0.625
 74
     0
 49
-1.875
 74
     0
  0
LTYPE
  5
2A
330
5
100
AcDbSymbolTableRecord
100
AcDbLinetypeTableRecord
  2
DUMMY
 70
     0
  3
ダミー
 72
    65
 73
     0
 40
0.0
  0
LTYPE
  5
2B
330
5
100
AcDbSymbolTableRecord
100
AcDbLinetypeTableRecord
  2
RAND1
 70
     0
  3
ランダム線1
 72
    65
 73
     4
 40
10.0
 49
1.0
 74
     0
 49
-2.0
 74
     0
 49
3.0
 74
     0
 49
-4.0
 74
     0
  0
LTYPE
  5
2C
330
5
100
AcDbSymbolTableRecord
100
AcDbLinetypeTableRecord
  2
RAND2
 70
     0
  3
ランダム線2
 72
    65
 73
     4
 40
14.0
 49
2.0
 74
     0
 49
-3.0
 74
     0
 49
4.0
 74
     0
 49
-5.0
 74
     0
  0
LTYPE
  5
2D
330
5
100
AcDbSymbolTableRecord
100
AcDbLinetypeTableRecord
  2
RAND3
 70
     0
  3
ランダム線3
 72
    65
 73
     4
 40
18.0
 49
3.0
 74
     0
 49
-4.0
 74
     0
 49
5.0
 74
     0
 49
-6.0
 74
     0
  0
LTYPE
  5
2E
330
5
100
AcDbSymbolTableRecord
100
AcDbLinetypeTableRecord
  2
RAND4
 70
     0
  3
ランダム線4
 72
    65
 73
     4
 40
22.0
 49
4.0
 74
     0
 49
-5.0
 74
     0
 49
6.0
 74
     0
 49
-7.0
 74
     0
  0
LTYPE
  5
2F
330
5
100
AcDbSymbolTableRecord
100
AcDbLinetypeTableRecord
  2
RAND5
 70
     0
  3
ランダム線5
 72
    65
 73
     4
 40
26.0
 49
5.0
 74
     0
 49
-6.0
 74
     0
 49
7.0
 74
     0
 49
-8.0
 74
     0
  0
LTYPE
  5
30
330
5
100
AcDbSymbolTableRecord
100
AcDbLinetypeTableRecord
  2
LONG1
 70
     0
  3
----------  --  ----------  --  
 72
    65
 73
     4
 40
40.0
 49
32.5
 74
     0
 49
-2.5
 74
     0
 49
2.5
 74
     0
 49
-2.5
 74
     0
  0
LTYPE
  5
31
330
5
100
AcDbSymbolTableRecord
100
AcDbLinetypeTableRecord
  2
LONG2
 70
     0
  3
--------  -  -  --------  -  -  
 72
    65
 73
     6
 40
40.0
 49
30.0
 74
     0
 49
-2.5
 74
     0
 49
1.25
 74
     0
 49
-2.5
 74
     0
 49
1.25
 74
     0
 49
-2.5
 74
     0
  0
LTYPE
  5
32
330
5
100
AcDbSymbolTableRecord
100
AcDbLinetypeTableRecord
  2
LONG3
 70
     0
  3
+++++++++++++++..+++++++++++++++
 72
    65
 73
     2
 40
40.0
 49
37.5
 74
     0
 49
-2.5
 74
     0
  0
LTYPE
  5
33
330
5
100
AcDbSymbolTableRecord
100
AcDbLinetypeTableRecord
  2
LONG4
 70
     0
  3
+++++++++++++++..+++++++++++++++
 72
    65
 73
     2
 40
80.0
 49
75.0
 74
     0
 49
-5.0
 74
     0
  0
LTYPE
  5
34
330
5
100
AcDbSymbolTableRecord
100
AcDbLinetypeTableRecord
  2
LONG5
 70
     0
  3
----------  --  ----------  --  
 72
    65
 73
     4
 40
60.0
 49
37.5
 74
     0
 49
-7.5
 74
     0
 49
7.5
 74
     0
 49
-7.5
 74
     0
  0
LTYPE
  5
35
330
5
100
AcDbSymbolTableRecord
100
AcDbLinetypeTableRecord
  2
DASHED
 70
     0
  3
-------   -------------   ------
 72
    65
 73
     2
 40
7.5
 49
6.0
 74
     0
 49
-1.5
 74
     0
  0
LTYPE
  5
36
330
5
100
AcDbSymbolTableRecord
100
AcDbLinetypeTableRecord
  2
DASHED_SPACED
 70
     0
  3
----        --------        ----
 72
    65
 73
     2
 40
12.0
 49
6.0
 74
     0
 49
-6.0
 74
     0
  0
LTYPE
  5
37
330
5
100
AcDbSymbolTableRecord
100
AcDbLinetypeTableRecord
  2
LONG_DASHED_DOTTED
 70
     0
  3
------------- --- --------------
 72
    65
 73
     4
 40
15.25
 49
12.0
 74
     0
 49
-1.5
 74
     0
 49
0.25
 74
     0
 49
-1.5
 74
     0
  0
LTYPE
  5
38
330
5
100
AcDbSymbolTableRecord
100
AcDbLinetypeTableRecord
  2
LONG_DASHED_DOUBLE-DOTTED
 70
     0
  3
----------- --- --- ------------
 72
    65
 73
     6
 40
17.0
 49
12.0
 74
     0
 49
-1.5
 74
     0
 49
0.25
 74
     0
 49
-1.5
 74
     0
 49
0.25
 74
     0
 49
-1.5
 74
     0
  0
LTYPE
  5
39
330
5
100
AcDbSymbolTableRecord
100
AcDbLinetypeTableRecord
  2
LONG_DASHED_TRIPLICATE-DOTTED
 70
     0
  3
--------- --- --- --- ----------
 72
    65
 73
     8
 40
18.75
 49
12.0
 74
     0
 49
-1.5
 74
     0
 49
0.25
 74
     0
 49
-1.5
 74
     0
 49
0.25
 74
     0
 49
-1.5
 74
     0
 49
0.25
 74
     0
 49
-1.5
 74
     0
  0
LTYPE
  5
3A
330
5
100
AcDbSymbolTableRecord
100
AcDbLinetypeTableRecord
  2
DOTTED
 70
     0
  3
   -       -       -       -    
 72
    65
 73
     2
 40
1.75
 49
0.25
 74
     0
 49
-1.5
 74
     0
  0
LTYPE
  5
3B
330
5
100
AcDbSymbolTableRecord
100
AcDbLinetypeTableRecord
  2
CHAIN
 70
     0
  3
-------------- -- --------------
 72
    65
 73
     4
 40
18.5
 49
12.0
 74
     0
 49
-1.5
 74
     0
 49
3.5
 74
     0
 49
-1.5
 74
     0
  0
LTYPE
  5
3C
330
5
100
AcDbSymbolTableRecord
100
AcDbLinetypeTableRecord
  2
CHAIN_DOUBLE_DASH
 70
     0
  3
------------ -- -- -------------
 72
    65
 73
     6
 40
23.5
 49
12.0
 74
     0
 49
-1.5
 74
     0
 49
3.5
 74
     0
 49
-1.5
 74
     0
 49
3.5
 74
     0
 49
-1.5
 74
     0
  0
LTYPE
  5
3D
330
5
100
AcDbSymbolTableRecord
100
AcDbLinetypeTableRecord
  2
DASHED_DOTTED
 70
     0
  3
-----------     -     ----------
 72
    65
 73
     4
 40
9.25
 49
6.0
 74
     0
 49
-1.5
 74
     0
 49
0.25
 74
     0
 49
-1.5
 74
     0
  0
LTYPE
  5
3E
330
5
100
AcDbSymbolTableRecord
100
AcDbLinetypeTableRecord
  2
DOUBLE-DASHED_DOTTED
 70
     0
  3
------   -----------   -   -----
 72
    65
 73
     6
 40
16.75
 49
6.0
 74
     0
 49
-1.5
 74
     0
 49
6.0
 74
     0
 49
-1.5
 74
     0
 49
0.25
 74
     0
 49
-1.5
 74
     0
  0
LTYPE
  5
3F
330
5
100
AcDbSymbolTableRecord
100
AcDbLinetypeTableRecord
  2
DASHED_DOUBLE-DOTTED
 70
     0
  3
---------    -    -    ---------
 72
    65
 73
     6
 40
11.0
 49
6.0
 74
     0
 49
-1.5
 74
     0
 49
0.25
 74
     0
 49
-1.5
 74
     0
 49
0.25
 74
     0
 49
-1.5
 74
     0
  0
LTYPE
  5
40
330
5
100
AcDbSymbolTableRecord
100
AcDbLinetypeTableRecord
  2
DOUBLE-DASHED_DOUBLE-DOTTED
 70
     0
  3
-----   ---------   -   -   ----
 72
    65
 73
     8
 40
18.5
 49
6.0
 74
     0
 49
-1.5
 74
     0
 49
6.0
 74
     0
 49
-1.5
 74
     0
 49
0.25
 74
     0
 49
-1.5
 74
     0
 49
0.25
 74
     0
 49
-1.5
 74
     0
  0
LTYPE
  5
41
330
5
100
AcDbSymbolTableRecord
100
AcDbLinetypeTableRecord
  2
DASHED_TRIPLICATE-DOTTED
 70
     0
  3
-------    -    -    -    ------
 72
    65
 73
     8
 40
12.75
 49
6.0
 74
     0
 49
-1.5
 74
     0
 49
0.25
 74
     0
 49
-1.5
 74
     0
 49
0.25
 74
     0
 49
-1.5
 74
     0
 49
0.25
 74
     0
 49
-1.5
 74
     0
  0
LTYPE
  5
42
330
5
100
AcDbSymbolTableRecord
100
AcDbLinetypeTableRecord
  2
DOUBLE-DASHED_TRIPLICATE-DOTTED
 70
     0
  3
-----  ---------  -  -  -  -----
 72
    65
 73
    10
 40
20.25
 49
6.0
 74
     0
 49
-1.5
 74
     0
 49
6.0
 74
     0
 49
-1.5
 74
     0
 49
0.25
 74
     0
 49
-1.5
 74
     0
 49
0.25
 74
     0
 49
-1.5
 74
     0
 49
0.25
 74
     0
 49
-1.5
 74
     0
  0
LTYPE
  5
43
330
5
100
AcDbSymbolTableRecord
100
AcDbLinetypeTableRecord
  2
UNDEFINED
 70
     0
  3
--------------------------------
 72
    65
 73
     0
 40
0.0
  0
LTYPE
  5
44
330
5
100
AcDbSymbolTableRecord
100
AcDbLinetypeTableRecord
  2
PLINE2
 70
     0
  3
------     -----------     -----
 72
    65
 73
     2
 40
3.0
 49
2.1
 74
     0
 49
-0.9
 74
     0
  0
LTYPE
  5
45
330
5
100
AcDbSymbolTableRecord
100
AcDbLinetypeTableRecord
  2
PLINE3
 70
     0
  3
------------   ---   -----------
 72
    65
 73
     4
 40
10.0
 49
7.0
 74
     0
 49
-1.0
 74
     0
 49
1.0
 74
     0
 49
-1.0
 74
     0
  0
LTYPE
  5
46
330
5
100
AcDbSymbolTableRecord
100
AcDbLinetypeTableRecord
  2
PLINE4
 70
     0
  3
---------   ---   ---   --------
 72
    65
 73
     6
 40
10.0
 49
5.0
 74
     0
 49
-1.0
 74
     0
 49
1.0
 74
     0
 49
-1.0
 74
     0
 49
1.0
 74
     0
 49
-1.0
 74
     0
  0
LTYPE
  5
47
330
5
100
AcDbSymbolTableRecord
100
AcDbLinetypeTableRecord
  2
PLINE5
 70
     0
  3
------     -----------     -----
 72
    65
 73
     2
 40
5.0
 49
3.5
 74
     0
 49
-1.5
 74
     0
  0
LTYPE
  5
48
330
5
100
AcDbSymbolTableRecord
100
AcDbLinetypeTableRecord
  2
PLINE6
 70
     0
  3
------------   ---   -----------
 72
    65
 73
     4
 40
15.0
 49
10.5
 74
     0
 49
-1.5
 74
     0
 49
1.5
 74
     0
 49
-1.5
 74
     0
  0
LTYPE
  5
49
330
5
100
AcDbSymbolTableRecord
100
AcDbLinetypeTableRecord
  2
PLINE7
 70
     0
  3
---------   ---   ---   --------
 72
    65
 73
     6
 40
15.0
 49
7.5
 74
     0
 49
-1.5
 74
     0
 49
1.5
 74
     0
 49
-1.5
 74
     0
 49
1.5
 74
     0
 49
-1.5
 74
     0
  0
LTYPE
  5
4A
330
5
100
AcDbSymbolTableRecord
100
AcDbLinetypeTableRecord
  2
PLINE8
 70
     0
  3
------     -----------     -----
 72
    65
 73
     2
 40
7.0
 49
4.9
 74
     0
 49
-2.1
 74
     0
  0
LTYPE
  5
4B
330
5
100
AcDbSymbolTableRecord
100
AcDbLinetypeTableRecord
  2
PLINE9
 70
     0
  3
------------   ---   -----------
 72
    65
 73
     4
 40
20.0
 49
14.0
 74
     0
 49
-2.0
 74
     0
 49
2.0
 74
     0
 49
-2.0
 74
     0
  0
LTYPE
  5
4C
330
5
100
AcDbSymbolTableRecord
100
AcDbLinetypeTableRecord
  2
PLINE10
 70
     0
  3
---------   ---   ---   --------
 72
    65
 73
     6
 40
20.0
 49
10.0
 74
     0
 49
-2.0
 74
     0
 49
2.0
 74
     0
 49
-2.0
 74
     0
 49
2.0
 74
     0
 49
-2.0
 74
     0
  0
LTYPE
  5
4D
330
5
100
AcDbSymbolTableRecord
100
AcDbLinetypeTableRecord
  2
PLINE11
 70
     0
  3
------     -----------     -----
 72
    65
 73
     2
 40
9.0
 49
6.299999999999999
 74
     0
 49
-2.7
 74
     0
  0
LTYPE
  5
4E
330
5
100
AcDbSymbolTableRecord
100
AcDbLinetypeTableRecord
  2
PLINE12
 70
     0
  3
------------   ---   -----------
 72
    65
 73
     4
 40
25.0
 49
17.5
 74
     0
 49
-2.5
 74
     0
 49
2.5
 74
     0
 49
-2.5
 74
     0
  0
LTYPE
  5
4F
330
5
100
AcDbSymbolTableRecord
100
AcDbLinetypeTableRecord
  2
PLINE13
 70
     0
  3
---------   ---   ---   --------
 72
    65
 73
     6
 40
25.0
 49
12.5
 74
     0
 49
-2.5
 74
     0
 49
2.5
 74
     0
 49
-2.5
 74
     0
 49
2.5
 74
     0
 49
-2.5
 74
     0
  0
LTYPE
  5
50
330
5
100
AcDbSymbolTableRecord
100
AcDbLinetypeTableRecord
  2
PLINE14
 70
     0
  3
------     -----------     -----
 72
    65
 73
     2
 40
11.0
 49
7.7
 74
     0
 49
-3.299999999999999
 74
     0
  0
LTYPE
  5
51
330
5
100
AcDbSymbolTableRecord
100
AcDbLinetypeTableRecord
  2
PLINE15
 70
     0
  3
------------   ---   -----------
 72
    65
 73
     4
 40
30.0
 49
21.0
 74
     0
 49
-3.0
 74
     0
 49
3.0
 74
     0
 49
-3.0
 74
     0
  0
LTYPE
  5
52
330
5
100
AcDbSymbolTableRecord
100
AcDbLinetypeTableRecord
  2
PLINE16
 70
     0
  3
---------   ---   ---   --------
 72
    65
 73
     6
 40
30.0
 49
15.0
 74
     0
 49
-3.0
 74
     0
 49
3.0
 74
     0
 49
-3.0
 74
     0
 49
3.0
 74
     0
 49
-3.0
 74
     0
  0
ENDTAB
  0
TABLE
  2
LAYER
  5
2
102
{ACAD_XDICTIONARY
360
175
102
}
330
0
100
AcDbSymbolTable
 70
     5
  0
LAYER
  5
10
330
2
100
AcDbSymbolTableRecord
100
AcDbLayerTableRecord
  2
0
 70
     0
 62
     7
  6
CONTINUOUS
370
    -3
390
F
  0
LAYER
  5
128
330
2
100
AcDbSymbolTableRecord
100
AcDbLayerTableRecord
  2
Defpoints
 70
     0
 62
     7
  6
CONTINUOUS
290
     0
370
    -3
390
F
  0
LAYER
  5
178
330
2
100
AcDbSymbolTableRecord
100
AcDbLayerTableRecord
  2
寸法
 70
     0
 62
     7
  6
CONTINUOUS
370
    -3
390
F
  0
LAYER
  5
179
330
2
100
AcDbSymbolTableRecord
100
AcDbLayerTableRecord
  2
躯体と製品
 70
     0
 62
     7
  6
CONTINUOUS
370
    -3
390
F
  0
LAYER
  5
4F62
330
2
100
AcDbSymbolTableRecord
100
AcDbLayerTableRecord
  2
図枠
 70
     0
 62
     7
  6
CONTINUOUS
370
    -3
390
F
  0
ENDTAB
  0
TABLE
  2
STYLE
  5
3
330
0
100
AcDbSymbolTable
 70
     5
  0
STYLE
  5
11
330
3
100
AcDbSymbolTableRecord
100
AcDbTextStyleTableRecord
  2
STANDARD
 70
     0
 40
0.0
 41
1.0
 50
0.0
 71
     0
 42
0.2
  3
txt
  4
bigfont.shx
  0
STYLE
  5
53
330
3
100
AcDbSymbolTableRecord
100
AcDbTextStyleTableRecord
  2
TATEGAKI
 70
     4
 40
0.0
 41
1.0
 50
0.0
 71
     0
 42
1.0
  3
txt
  4
bigfont.shx
  0
STYLE
  5
123
330
3
100
AcDbSymbolTableRecord
100
AcDbTextStyleTableRecord
  2
ACAD
 70
     0
 40
0.0
 41
0.8
 50
0.0
 71
     0
 42
5.0
  3
romans.shx
  4
extfont.shx
  0
STYLE
  5
3A5F
330
3
100
AcDbSymbolTableRecord
100
AcDbTextStyleTableRecord
  2
VERTXT
 70
     4
 40
0.0
 41
0.8582679999999999
 50
0.0
 71
     0
 42
3.5
  3
txt.shx
  4
BIGFONT
  0
STYLE
  5
50AD
330
3
100
AcDbSymbolTableRecord
100
AcDbTextStyleTableRecord
  2
STANDARD2
 70
     0
 40
0.0
 41
0.8582679999999999
 50
0.0
 71
     0
 42
3.5
  3
txt.shx
  4
EXTFONT
  0
ENDTAB
  0
TABLE
  2
VIEW
  5
6
330
0
100
AcDbSymbolTable
 70
     0
  0
ENDTAB
  0
TABLE
  2
UCS
  5
7
330
0
100
AcDbSymbolTable
 70
     0
  0
ENDTAB
  0
TABLE
  2
APPID
  5
9
330
0
100
AcDbSymbolTable
 70
     1
  0
APPID
  5
12
330
9
100
AcDbSymbolTableRecord
100
AcDbRegAppTableRecord
  2
ACAD
 70
     0
  0
ENDTAB
  0
TABLE
  2
DIMSTYLE
  5
A
330
0
100
AcDbSymbolTable
 70
     3
100
AcDbDimStyleTable
 71
     1
340
126
  0
DIMSTYLE
105
11C
330
A
100
AcDbSymbolTableRecord
100
AcDbDimStyleTableRecord
  2
Standard
 70
     0
340
11
  0
DIMSTYLE
105
126
102
{ACAD_REACTORS
330
61E3
330
61F0
330
6208
330
6215
330
622D
330
623A
330
6251
330
6269
330
6276
330
6283
330
6298
330
62A5
330
62B3
330
62C0
330
62CD
330
62DB
330
62E8
330
62F5
330
6302
330
6319
330
6331
330
633E
330
634B
330
635E
330
636B
330
6378
330
6385
330
63A7
330
63BF
330
63CC
330
63D9
330
63E5
330
63F2
330
6400
330
640D
330
641A
330
6427
330
6434
330
6441
330
644E
330
645C
330
6473
330
648D
330
64A5
330
64B2
330
64BF
330
64CB
330
64D8
330
64E6
330
64F3
330
6500
330
650D
330
651A
330
6527
330
6534
330
654C
330
655A
330
6567
330
6574
330
6581
330
658E
330
659B
330
65A9
330
65B6
330
65CD
330
65E5
330
65F2
330
65FF
330
6614
102
}
330
A
100
AcDbSymbolTableRecord
100
AcDbDimStyleTableRecord
  2
AutoCAD
 70
     0
 41
1.0
 42
0.0
 44
0.0
 73
     0
 77
     1
140
3.0
147
1.0
174
     1
176
     4
177
     4
178
     3
271
     0
272
     0
289
     0
340
123
341
15B0
342
11E
  0
DIMSTYLE
105
2CBB
330
A
100
AcDbSymbolTableRecord
100
AcDbDimStyleTableRecord
  2
111
 70
     0
 41
1.0
 42
0.0
 44
0.0
 73
     0
 77
     1
140
5.0
147
1.0
174
     1
176
     4
177
     4
178
     3
271
     0
272
     0
289
     0
340
123
341
15B0
342
2CB5
  0
ENDTAB
  0
TABLE
  2
BLOCK_RECORD
  5
1
330
0
100
AcDbSymbolTable
 70
    83
  0
BLOCK_RECORD
  5
1E
102
{ACAD_XDICTIONARY
360
28B
102
}
330
1
100
AcDbSymbolTableRecord
100
AcDbBlockTableRecord
  2
*Model_Space
340
21
  0
BLOCK_RECORD
  5
1A
102
{ACAD_XDICTIONARY
360
28D
102
}
330
1
100
AcDbSymbolTableRecord
100
AcDbBlockTableRecord
  2
*Paper_Space
340
1D
  0
BLOCK_RECORD
  5
11E
330
1
100
AcDbSymbolTableRecord
100
AcDbBlockTableRecord
  2
_Dot
340
0
102
{BLKREFS
331
6798
331
6799
331
67AB
331
67AC
331
67B5
331
67B6
331
67BE
331
67BF
331
67D2
331
67D3
331
67DB
331
67DC
331
67E4
331
67E5
331
67F6
331
67F7
331
6800
331
6801
331
6809
331
680A
331
6812
331
6813
331
6825
331
6826
331
682E
331
682F
331
6837
331
6838
331
684B
331
684C
331
6854
331
6855
331
685D
331
685E
331
686E
331
686F
331
6877
331
6878
331
6880
331
6881
331
6894
331
6895
331
689D
331
689E
331
68A6
331
68A7
331
68AE
331
68AF
331
68B7
331
68B8
331
68C1
331
68C2
331
68CA
331
68CB
331
68D3
331
68D4
331
68DC
331
68DD
331
68E5
331
68E6
331
68EE
331
68EF
331
68F7
331
68F8
331
6914
331
6915
331
691E
331
691F
331
6927
331
6928
331
6930
331
6931
331
6938
331
6939
331
6941
331
6942
331
694B
331
694C
331
6954
331
6955
331
695D
331
695E
331
6966
331
6967
331
696F
331
6970
331
6978
331
6979
331
6981
331
6982
331
699E
331
699F
331
69A7
331
69A8
331
69B0
331
69B1
331
69B9
331
69BA
331
69C2
331
69C3
331
69CC
331
69CD
331
69D5
331
69D6
331
69E9
331
69EA
331
69F2
331
69F3
331
69FB
331
69FC
331
6A0D
331
6A0E
331
6A20
331
6A21
331
6A29
331
6A2A
331
6A32
331
6A33
331
6A3B
331
6A3C
331
6A44
331
6A45
331
6A4D
331
6A4E
331
6A56
331
6A57
331
6A5F
331
6A60
331
6A68
331
6A69
331
6A7A
331
6A7B
331
6A8C
331
6A8D
331
6AB7
331
6AB8
331
6AD1
331
6AD2
331
6AE3
331
6AE4
331
6AF5
331
6AF6
331
6AFE
331
6AFF
331
6B0F
331
6B10
331
6B18
331
6B19
331
6B21
331
6B22
331
6B34
331
6B35
331
6B46
331
6B47
331
6B4F
331
6B50
331
6B5F
331
6B60
102
}
  0
BLOCK_RECORD
  5
15B0
330
1
100
AcDbSymbolTableRecord
100
AcDbBlockTableRecord
  2
_None
340
0
  0
BLOCK_RECORD
  5
2CB5
330
1
100
AcDbSymbolTableRecord
100
AcDbBlockTableRecord
  2
_Open30
340
0
  0
BLOCK_RECORD
  5
35E3
330
1
100
AcDbSymbolTableRecord
100
AcDbBlockTableRecord
  2
_DotBlank
340
0
  0
BLOCK_RECORD
  5
61E4
330
1
100
AcDbSymbolTableRecord
100
AcDbBlockTableRecord
  2
*D4
340
0
  0
BLOCK_RECORD
  5
61F1
330
1
100
AcDbSymbolTableRecord
100
AcDbBlockTableRecord
  2
*D5
340
0
  0
BLOCK_RECORD
  5
6209
330
1
100
AcDbSymbolTableRecord
100
AcDbBlockTableRecord
  2
*D6
340
0
  0
BLOCK_RECORD
  5
6216
330
1
100
AcDbSymbolTableRecord
100
AcDbBlockTableRecord
  2
*D7
340
0
  0
BLOCK_RECORD
  5
622E
330
1
100
AcDbSymbolTableRecord
100
AcDbBlockTableRecord
  2
*D8
340
0
  0
BLOCK_RECORD
  5
623B
330
1
100
AcDbSymbolTableRecord
100
AcDbBlockTableRecord
  2
*D9
340
0
  0
BLOCK_RECORD
  5
6252
330
1
100
AcDbSymbolTableRecord
100
AcDbBlockTableRecord
  2
*D10
340
0
  0
BLOCK_RECORD
  5
626A
330
1
100
AcDbSymbolTableRecord
100
AcDbBlockTableRecord
  2
*D11
340
0
  0
BLOCK_RECORD
  5
6277
330
1
100
AcDbSymbolTableRecord
100
AcDbBlockTableRecord
  2
*D12
340
0
  0
BLOCK_RECORD
  5
6284
330
1
100
AcDbSymbolTableRecord
100
AcDbBlockTableRecord
  2
*D13
340
0
  0
BLOCK_RECORD
  5
6299
330
1
100
AcDbSymbolTableRecord
100
AcDbBlockTableRecord
  2
*D14
340
0
  0
BLOCK_RECORD
  5
62A6
330
1
100
AcDbSymbolTableRecord
100
AcDbBlockTableRecord
  2
*D15
340
0
  0
BLOCK_RECORD
  5
62B4
330
1
100
AcDbSymbolTableRecord
100
AcDbBlockTableRecord
  2
*D16
340
0
  0
BLOCK_RECORD
  5
62C1
330
1
100
AcDbSymbolTableRecord
100
AcDbBlockTableRecord
  2
*D17
340
0
  0
BLOCK_RECORD
  5
62CE
330
1
100
AcDbSymbolTableRecord
100
AcDbBlockTableRecord
  2
*D18
340
0
  0
BLOCK_RECORD
  5
62DC
330
1
100
AcDbSymbolTableRecord
100
AcDbBlockTableRecord
  2
*D19
340
0
  0
BLOCK_RECORD
  5
62E9
330
1
100
AcDbSymbolTableRecord
100
AcDbBlockTableRecord
  2
*D20
340
0
  0
BLOCK_RECORD
  5
62F6
330
1
100
AcDbSymbolTableRecord
100
AcDbBlockTableRecord
  2
*D21
340
0
  0
BLOCK_RECORD
  5
6303
330
1
100
AcDbSymbolTableRecord
100
AcDbBlockTableRecord
  2
*D22
340
0
  0
BLOCK_RECORD
  5
631A
330
1
100
AcDbSymbolTableRecord
100
AcDbBlockTableRecord
  2
*D23
340
0
  0
BLOCK_RECORD
  5
6332
330
1
100
AcDbSymbolTableRecord
100
AcDbBlockTableRecord
  2
*D24
340
0
  0
BLOCK_RECORD
  5
633F
330
1
100
AcDbSymbolTableRecord
100
AcDbBlockTableRecord
  2
*D25
340
0
  0
BLOCK_RECORD
  5
634C
330
1
100
AcDbSymbolTableRecord
100
AcDbBlockTableRecord
  2
*D26
340
0
  0
BLOCK_RECORD
  5
635F
330
1
100
AcDbSymbolTableRecord
100
AcDbBlockTableRecord
  2
*D27
340
0
  0
BLOCK_RECORD
  5
636C
330
1
100
AcDbSymbolTableRecord
100
AcDbBlockTableRecord
  2
*D28
340
0
  0
BLOCK_RECORD
  5
6379
330
1
100
AcDbSymbolTableRecord
100
AcDbBlockTableRecord
  2
*D29
340
0
  0
BLOCK_RECORD
  5
6386
330
1
100
AcDbSymbolTableRecord
100
AcDbBlockTableRecord
  2
*D30
340
0
  0
BLOCK_RECORD
  5
63A8
330
1
100
AcDbSymbolTableRecord
100
AcDbBlockTableRecord
  2
*D31
340
0
  0
BLOCK_RECORD
  5
63C0
330
1
100
AcDbSymbolTableRecord
100
AcDbBlockTableRecord
  2
*D32
340
0
  0
BLOCK_RECORD
  5
63CD
330
1
100
AcDbSymbolTableRecord
100
AcDbBlockTableRecord
  2
*D33
340
0
  0
BLOCK_RECORD
  5
63DA
330
1
100
AcDbSymbolTableRecord
100
AcDbBlockTableRecord
  2
*D34
340
0
  0
BLOCK_RECORD
  5
63E6
330
1
100
AcDbSymbolTableRecord
100
AcDbBlockTableRecord
  2
*D35
340
0
  0
BLOCK_RECORD
  5
63F3
330
1
100
AcDbSymbolTableRecord
100
AcDbBlockTableRecord
  2
*D36
340
0
  0
BLOCK_RECORD
  5
6401
330
1
100
AcDbSymbolTableRecord
100
AcDbBlockTableRecord
  2
*D37
340
0
  0
BLOCK_RECORD
  5
640E
330
1
100
AcDbSymbolTableRecord
100
AcDbBlockTableRecord
  2
*D38
340
0
  0
BLOCK_RECORD
  5
641B
330
1
100
AcDbSymbolTableRecord
100
AcDbBlockTableRecord
  2
*D39
340
0
  0
BLOCK_RECORD
  5
6428
330
1
100
AcDbSymbolTableRecord
100
AcDbBlockTableRecord
  2
*D40
340
0
  0
BLOCK_RECORD
  5
6435
330
1
100
AcDbSymbolTableRecord
100
AcDbBlockTableRecord
  2
*D41
340
0
  0
BLOCK_RECORD
  5
6442
330
1
100
AcDbSymbolTableRecord
100
AcDbBlockTableRecord
  2
*D42
340
0
  0
BLOCK_RECORD
  5
644F
330
1
100
AcDbSymbolTableRecord
100
AcDbBlockTableRecord
  2
*D43
340
0
  0
BLOCK_RECORD
  5
645D
330
1
100
AcDbSymbolTableRecord
100
AcDbBlockTableRecord
  2
*D44
340
0
  0
BLOCK_RECORD
  5
6474
330
1
100
AcDbSymbolTableRecord
100
AcDbBlockTableRecord
  2
*D45
340
0
  0
BLOCK_RECORD
  5
648E
330
1
100
AcDbSymbolTableRecord
100
AcDbBlockTableRecord
  2
*D46
340
0
  0
BLOCK_RECORD
  5
64A6
330
1
100
AcDbSymbolTableRecord
100
AcDbBlockTableRecord
  2
*D47
340
0
  0
BLOCK_RECORD
  5
64B3
330
1
100
AcDbSymbolTableRecord
100
AcDbBlockTableRecord
  2
*D48
340
0
  0
BLOCK_RECORD
  5
64C0
330
1
100
AcDbSymbolTableRecord
100
AcDbBlockTableRecord
  2
*D49
340
0
  0
BLOCK_RECORD
  5
64CC
330
1
100
AcDbSymbolTableRecord
100
AcDbBlockTableRecord
  2
*D50
340
0
  0
BLOCK_RECORD
  5
64D9
330
1
100
AcDbSymbolTableRecord
100
AcDbBlockTableRecord
  2
*D51
340
0
  0
BLOCK_RECORD
  5
64E7
330
1
100
AcDbSymbolTableRecord
100
AcDbBlockTableRecord
  2
*D52
340
0
  0
BLOCK_RECORD
  5
64F4
330
1
100
AcDbSymbolTableRecord
100
AcDbBlockTableRecord
  2
*D53
340
0
  0
BLOCK_RECORD
  5
6501
330
1
100
AcDbSymbolTableRecord
100
AcDbBlockTableRecord
  2
*D54
340
0
  0
BLOCK_RECORD
  5
650E
330
1
100
AcDbSymbolTableRecord
100
AcDbBlockTableRecord
  2
*D55
340
0
  0
BLOCK_RECORD
  5
651B
330
1
100
AcDbSymbolTableRecord
100
AcDbBlockTableRecord
  2
*D56
340
0
  0
BLOCK_RECORD
  5
6528
330
1
100
AcDbSymbolTableRecord
100
AcDbBlockTableRecord
  2
*D57
340
0
  0
BLOCK_RECORD
  5
6535
330
1
100
AcDbSymbolTableRecord
100
AcDbBlockTableRecord
  2
*D58
340
0
  0
BLOCK_RECORD
  5
654D
330
1
100
AcDbSymbolTableRecord
100
AcDbBlockTableRecord
  2
*D59
340
0
  0
BLOCK_RECORD
  5
655B
330
1
100
AcDbSymbolTableRecord
100
AcDbBlockTableRecord
  2
*D60
340
0
  0
BLOCK_RECORD
  5
6568
330
1
100
AcDbSymbolTableRecord
100
AcDbBlockTableRecord
  2
*D61
340
0
  0
BLOCK_RECORD
  5
6575
330
1
100
AcDbSymbolTableRecord
100
AcDbBlockTableRecord
  2
*D62
340
0
  0
BLOCK_RECORD
  5
6582
330
1
100
AcDbSymbolTableRecord
100
AcDbBlockTableRecord
  2
*D63
340
0
  0
BLOCK_RECORD
  5
658F
330
1
100
AcDbSymbolTableRecord
100
AcDbBlockTableRecord
  2
*D64
340
0
  0
BLOCK_RECORD
  5
659C
330
1
100
AcDbSymbolTableRecord
100
AcDbBlockTableRecord
  2
*D65
340
0
  0
BLOCK_RECORD
  5
65AA
330
1
100
AcDbSymbolTableRecord
100
AcDbBlockTableRecord
  2
*D66
340
0
  0
BLOCK_RECORD
  5
65B7
330
1
100
AcDbSymbolTableRecord
100
AcDbBlockTableRecord
  2
*D67
340
0
  0
BLOCK_RECORD
  5
65CE
330
1
100
AcDbSymbolTableRecord
100
AcDbBlockTableRecord
  2
*D68
340
0
  0
BLOCK_RECORD
  5
65E6
330
1
100
AcDbSymbolTableRecord
100
AcDbBlockTableRecord
  2
*D69
340
0
  0
BLOCK_RECORD
  5
65F3
330
1
100
AcDbSymbolTableRecord
100
AcDbBlockTableRecord
  2
*D70
340
0
  0
BLOCK_RECORD
  5
6600
330
1
100
AcDbSymbolTableRecord
100
AcDbBlockTableRecord
  2
*D71
340
0
  0
BLOCK_RECORD
  5
6615
330
1
100
AcDbSymbolTableRecord
100
AcDbBlockTableRecord
  2
*D72
340
0
  0
ENDTAB
  0
ENDSEC
  0
SECTION
  2
BLOCKS
  0
BLOCK
  5
1F
330
1E
100
AcDbEntity
  8
0
100
AcDbBlockBegin
  2
*Model_Space
 70
     0
 10
0.0
 20
0.0
 30
0.0
  3
*Model_Space
  1

  0
ENDBLK
  5
20
330
1E
100
AcDbEntity
  8
0
100
AcDbBlockEnd
  0
BLOCK
  5
1B
330
1A
100
AcDbEntity
 67
     1
  8
0
100
AcDbBlockBegin
  2
*Paper_Space
 70
     0
 10
0.0
 20
0.0
 30
0.0
  3
*Paper_Space
  1

  0
ENDBLK
  5
1C
330
1A
100
AcDbEntity
 67
     1
  8
0
100
AcDbBlockEnd
  0
BLOCK
  5
121
330
11E
100
AcDbEntity
  8
0
100
AcDbBlockBegin
  2
_Dot
 70
     0
 10
0.0
 20
0.0
 30
0.0
  3
_Dot
  1

  0
LWPOLYLINE
  5
11F
330
11E
100
AcDbEntity
  8
0
  6
ByBlock
 62
     0
100
AcDbPolyline
 90
        2
 70
     1
 43
0.5
 10
-0.25
 20
0.0
 42
1.0
 10
0.25
 20
0.0
 42
1.0
  0
LINE
  5
120
330
11E
100
AcDbEntity
  8
0
  6
ByBlock
 62
     0
370
    -2
100
AcDbLine
 10
-0.5
 20
0.0
 30
0.0
 11
-1.0
 21
0.0
 31
0.0
  0
ENDBLK
  5
122
330
11E
100
AcDbEntity
  8
0
100
AcDbBlockEnd
  0
BLOCK
  5
15B1
330
15B0
100
AcDbEntity
  8
0
100
AcDbBlockBegin
  2
_None
 70
     0
 10
0.0
 20
0.0
 30
0.0
  3
_None
  1

  0
ENDBLK
  5
15B2
330
15B0
100
AcDbEntity
  8
0
100
AcDbBlockEnd
  0
BLOCK
  5
2CB9
330
2CB5
100
AcDbEntity
  8
0
100
AcDbBlockBegin
  2
_Open30
 70
     0
 10
0.0
 20
0.0
 30
0.0
  3
_Open30
  1

  0
LINE
  5
2CB6
330
2CB5
100
AcDbEntity
  8
0
  6
ByBlock
 62
     0
370
    -2
100
AcDbLine
 10
-1.0
 20
0.26794919
 30
0.0
 11
0.0
 21
0.0
 31
0.0
  0
LINE
  5
2CB7
330
2CB5
100
AcDbEntity
  8
0
  6
ByBlock
 62
     0
370
    -2
100
AcDbLine
 10
0.0
 20
0.0
 30
0.0
 11
-1.0
 21
-0.26794919
 31
0.0
  0
LINE
  5
2CB8
330
2CB5
100
AcDbEntity
  8
0
  6
ByBlock
 62
     0
370
    -2
100
AcDbLine
 10
0.0
 20
0.0
 30
0.0
 11
-1.0
 21
0.0
 31
0.0
  0
ENDBLK
  5
2CBA
330
2CB5
100
AcDbEntity
  8
0
100
AcDbBlockEnd
  0
BLOCK
  5
35E6
330
35E3
100
AcDbEntity
  8
0
100
AcDbBlockBegin
  2
_DotBlank
 70
     0
 10
0.0
 20
0.0
 30
0.0
  3
_DotBlank
  1

  0
CIRCLE
  5
35E4
330
35E3
100
AcDbEntity
  8
0
  6
ByBlock
 62
     0
370
    -2
100
AcDbCircle
 10
0.0
 20
0.0
 30
0.0
 40
0.5
  0
LINE
  5
35E5
330
35E3
100
AcDbEntity
  8
0
  6
ByBlock
 62
     0
370
    -2
100
AcDbLine
 10
-0.5
 20
0.0
 30
0.0
 11
-1.0
 21
0.0
 31
0.0
  0
ENDBLK
  5
35E7
330
35E3
100
AcDbEntity
  8
0
100
AcDbBlockEnd
  0
BLOCK
  5
61EE
330
61E4
100
AcDbEntity
  8
0
100
AcDbBlockBegin
  2
*D4
 70
     1
 10
0.0
 20
0.0
 30
0.0
  3
*D4
  1

  0
LINE
  5
6795
330
61E4
100
AcDbEntity
  8
寸法
  6
Continuous
 62
     4
370
    -2
100
AcDbLine
 10
1232.414675284994
 20
659.9984315433222
 30
0.0
 11
1208.414675284994
 21
659.9984315433222
 31
0.0
  0
LINE
  5
6796
330
61E4
100
AcDbEntity
  8
寸法
  6
Continuous
 62
     4
370
    -2
100
AcDbLine
 10
1227.414675284994
 20
667.9984315433222
 30
0.0
 11
1208.414675284994
 21
667.9984315433222
 31
0.0
  0
LINE
  5
6797
330
61E4
100
AcDbEntity
  8
寸法
  6
Continuous
 62
     4
370
    -2
100
AcDbLine
 10
1208.414675284994
 20
660.9984315433222
 30
0.0
 11
1208.414675284994
 21
666.9984315433222
 31
0.0
  0
INSERT
  5
6798
330
61E4
100
AcDbEntity
  8
寸法
  6
Continuous
 62
     4
370
    -2
100
AcDbBlockReference
  2
_Dot
 10
1208.414675284994
 20
659.9984315433222
 30
0.0
 50
270.0
  0
INSERT
  5
6799
330
61E4
100
AcDbEntity
  8
寸法
  6
Continuous
 62
     4
370
    -2
100
AcDbBlockReference
  2
_Dot
 10
1208.414675284994
 20
667.9984315433222
 30
0.0
 50
90.0
  0
MTEXT
  5
679A
330
61E4
100
AcDbEntity
  8
寸法
  6
Continuous
 62
     3
100
AcDbMText
 10
1205.914675284994
 20
663.9984315433223
 30
0.0
 40
3.0
 41
0.0
 71
     5
 72
     1
  1
\A1;8
  7
ACAD
 11
0.0000000000000001
 21
1.0
 31
0.0
 73
     1
 44
1.0
1001
ACAD
1000
MTEXTBEGIN
1070
    73
1070
     1
1070
    44
1040
1.0
1070
    74
1070
     0
1000
MTEXTEND
  0
POINT
  5
679B
330
61E4
100
AcDbEntity
  8
Defpoints
  6
Continuous
 62
     0
100
AcDbPoint
 10
1232.414675284994
 20
659.9984315433222
 30
0.0
  0
POINT
  5
679C
330
61E4
100
AcDbEntity
  8
Defpoints
  6
Continuous
 62
     0
100
AcDbPoint
 10
1227.414675284994
 20
667.9984315433222
 30
0.0
  0
POINT
  5
679D
330
61E4
100
AcDbEntity
  8
Defpoints
  6
Continuous
 62
     0
100
AcDbPoint
 10
1208.414675284994
 20
667.9984315433222
 30
0.0
  0
ENDBLK
  5
61EF
330
61E4
100
AcDbEntity
  8
0
100
AcDbBlockEnd
  0
BLOCK
  5
61FC
330
61F1
100
AcDbEntity
  8
0
100
AcDbBlockBegin
  2
*D5
 70
     1
 10
0.0
 20
0.0
 30
0.0
  3
*D5
  1

  0
LINE
  5
6A77
330
61F1
100
AcDbEntity
  8
寸法
  6
Continuous
 62
     4
370
    -2
100
AcDbLine
 10
1227.414675284994
 20
667.9984315433222
 30
0.0
 11
1208.414675284994
 21
667.9984315433222
 31
0.0
  0
LINE
  5
6A78
330
61F1
100
AcDbEntity
  8
寸法
  6
Continuous
 62
     4
370
    -2
100
AcDbLine
 10
1227.759875284994
 20
672.4984315433222
 30
0.0
 11
1208.414675284994
 21
672.4984315433222
 31
0.0
  0
LINE
  5
6A79
330
61F1
100
AcDbEntity
  8
寸法
  6
Continuous
 62
     4
370
    -2
100
AcDbLine
 10
1208.414675284994
 20
668.9984315433222
 30
0.0
 11
1208.414675284994
 21
671.4984315433222
 31
0.0
  0
INSERT
  5
6A7A
330
61F1
100
AcDbEntity
  8
寸法
  6
Continuous
 62
     4
370
    -2
100
AcDbBlockReference
  2
_Dot
 10
1208.414675284994
 20
667.9984315433222
 30
0.0
 50
270.0
  0
INSERT
  5
6A7B
330
61F1
100
AcDbEntity
  8
寸法
  6
Continuous
 62
     4
370
    -2
100
AcDbBlockReference
  2
_Dot
 10
1208.414675284994
 20
672.4984315433222
 30
0.0
 50
90.0
  0
MTEXT
  5
6A7C
330
61F1
100
AcDbEntity
  8
寸法
  6
Continuous
 62
     3
100
AcDbMText
 10
1205.914675284994
 20
670.2484315433223
 30
0.0
 40
3.0
 41
0.0
 71
     5
 72
     1
  1
\A1;4.5
  7
ACAD
 11
0.0000000000000001
 21
1.0
 31
0.0
 73
     1
 44
1.0
1001
ACAD
1000
MTEXTBEGIN
1070
    73
1070
     1
1070
    44
1040
1.0
1070
    74
1070
     0
1000
MTEXTEND
  0
POINT
  5
6A7D
330
61F1
100
AcDbEntity
  8
Defpoints
  6
Continuous
 62
     0
100
AcDbPoint
 10
1227.414675284994
 20
667.9984315433222
 30
0.0
  0
POINT
  5
6A7E
330
61F1
100
AcDbEntity
  8
Defpoints
  6
Continuous
 62
     0
100
AcDbPoint
 10
1227.759875284994
 20
672.4984315433222
 30
0.0
  0
POINT
  5
6A7F
330
61F1
100
AcDbEntity
  8
Defpoints
  6
Continuous
 62
     0
100
AcDbPoint
 10
1208.414675284994
 20
672.4984315433222
 30
0.0
  0
ENDBLK
  5
61FD
330
61F1
100
AcDbEntity
  8
0
100
AcDbBlockEnd
  0
BLOCK
  5
6213
330
6209
100
AcDbEntity
  8
0
100
AcDbBlockBegin
  2
*D6
 70
     1
 10
0.0
 20
0.0
 30
0.0
  3
*D6
  1

  0
LINE
  5
67A8
330
6209
100
AcDbEntity
  8
寸法
  6
Continuous
 62
     4
370
    -2
100
AcDbLine
 10
1230.414675284994
 20
664.9984315433222
 30
0.0
 11
1230.414675284994
 21
647.9984315433222
 31
0.0
  0
LINE
  5
67A9
330
6209
100
AcDbEntity
  8
寸法
  6
Continuous
 62
     4
370
    -2
100
AcDbLine
 10
1235.414675284994
 20
656.9984315433222
 30
0.0
 11
1235.414675284994
 21
647.9984315433222
 31
0.0
  0
LINE
  5
67AA
330
6209
100
AcDbEntity
  8
寸法
  6
Continuous
 62
     4
370
    -2
100
AcDbLine
 10
1231.414675284994
 20
647.9984315433222
 30
0.0
 11
1234.414675284994
 21
647.9984315433222
 31
0.0
  0
INSERT
  5
67AB
330
6209
100
AcDbEntity
  8
寸法
  6
Continuous
 62
     4
370
    -2
100
AcDbBlockReference
  2
_Dot
 10
1230.414675284994
 20
647.9984315433222
 30
0.0
 50
180.0
  0
INSERT
  5
67AC
330
6209
100
AcDbEntity
  8
寸法
  6
Continuous
 62
     4
370
    -2
100
AcDbBlockReference
  2
_Dot
 10
1235.414675284994
 20
647.9984315433222
 30
0.0
  0
MTEXT
  5
67AD
330
6209
100
AcDbEntity
  8
寸法
  6
Continuous
 62
     3
100
AcDbMText
 10
1232.914675284994
 20
650.4984315433222
 30
0.0
 40
3.0
 41
0.0
 71
     5
 72
     1
  1
\A1;5
  7
ACAD
 73
     1
 44
1.0
1001
ACAD
1000
MTEXTBEGIN
1070
    73
1070
     1
1070
    44
1040
1.0
1070
    74
1070
     0
1000
MTEXTEND
  0
POINT
  5
67AE
330
6209
100
AcDbEntity
  8
Defpoints
  6
Continuous
 62
     0
100
AcDbPoint
 10
1230.414675284994
 20
664.9984315433222
 30
0.0
  0
POINT
  5
67AF
330
6209
100
AcDbEntity
  8
Defpoints
  6
Continuous
 62
     0
100
AcDbPoint
 10
1235.414675284994
 20
656.9984315433222
 30
0.0
  0
POINT
  5
67B0
330
6209
100
AcDbEntity
  8
Defpoints
  6
Continuous
 62
     0
100
AcDbPoint
 10
1235.414675284994
 20
647.9984315433222
 30
0.0
  0
ENDBLK
  5
6214
330
6209
100
AcDbEntity
  8
0
100
AcDbBlockEnd
  0
BLOCK
  5
6221
330
6216
100
AcDbEntity
  8
0
100
AcDbBlockBegin
  2
*D7
 70
     1
 10
0.0
 20
0.0
 30
0.0
  3
*D7
  1

  0
LINE
  5
67B1
330
6216
100
AcDbEntity
  8
寸法
  6
Continuous
 62
     4
370
    -2
100
AcDbLine
 10
1235.414675284994
 20
664.6960235433222
 30
0.0
 11
1235.414675284994
 21
675.3387185433223
 31
0.0
  0
LINE
  5
67B2
330
6216
100
AcDbEntity
  8
寸法
  6
Continuous
 62
     4
370
    -2
100
AcDbLine
 10
1235.914675284994
 20
670.5368735433222
 30
0.0
 11
1235.914675284994
 21
675.3387185433223
 31
0.0
  0
LINE
  5
67B3
330
6216
100
AcDbEntity
  8
寸法
  6
Continuous
 62
     4
370
    -2
100
AcDbLine
 10
1234.414675284994
 20
675.3387185433223
 30
0.0
 11
1233.414675284994
 21
675.3387185433223
 31
0.0
  0
LINE
  5
67B4
330
6216
100
AcDbEntity
  8
寸法
  6
Continuous
 62
     4
370
    -2
100
AcDbLine
 10
1236.914675284994
 20
675.3387185433223
 30
0.0
 11
1237.914675284994
 21
675.3387185433223
 31
0.0
  0
INSERT
  5
67B5
330
6216
100
AcDbEntity
  8
寸法
  6
Continuous
 62
     4
370
    -2
100
AcDbBlockReference
  2
_Dot
 10
1235.414675284994
 20
675.3387185433223
 30
0.0
  0
INSERT
  5
67B6
330
6216
100
AcDbEntity
  8
寸法
  6
Continuous
 62
     4
370
    -2
100
AcDbBlockReference
  2
_Dot
 10
1235.914675284994
 20
675.3387185433223
 30
0.0
 50
180.0
  0
MTEXT
  5
67B7
330
6216
100
AcDbEntity
  8
寸法
  6
Continuous
 62
     3
100
AcDbMText
 10
1235.664675284994
 20
677.8387185433223
 30
0.0
 40
3.0
 41
0.0
 71
     5
 72
     1
  1
\A1;0.5
  7
ACAD
 73
     1
 44
1.0
1001
ACAD
1000
MTEXTBEGIN
1070
    73
1070
     1
1070
    44
1040
1.0
1070
    74
1070
     0
1000
MTEXTEND
  0
POINT
  5
67B8
330
6216
100
AcDbEntity
  8
Defpoints
  6
Continuous
 62
     0
100
AcDbPoint
 10
1235.414675284994
 20
664.6960235433222
 30
0.0
  0
POINT
  5
67B9
330
6216
100
AcDbEntity
  8
Defpoints
  6
Continuous
 62
     0
100
AcDbPoint
 10
1235.914675284994
 20
670.5368735433222
 30
0.0
  0
POINT
  5
67BA
330
6216
100
AcDbEntity
  8
Defpoints
  6
Continuous
 62
     0
100
AcDbPoint
 10
1235.914675284994
 20
675.3387185433223
 30
0.0
  0
ENDBLK
  5
6222
330
6216
100
AcDbEntity
  8
0
100
AcDbBlockEnd
  0
BLOCK
  5
6238
330
622E
100
AcDbEntity
  8
0
100
AcDbBlockBegin
  2
*D8
 70
     1
 10
0.0
 20
0.0
 30
0.0
  3
*D8
  1

  0
LINE
  5
67BB
330
622E
100
AcDbEntity
  8
寸法
  6
Continuous
 62
     4
370
    -2
100
AcDbLine
 10
1235.414675284994
 20
656.9984315433222
 30
0.0
 11
1235.414675284994
 21
647.9984315433222
 31
0.0
  0
LINE
  5
67BC
330
622E
100
AcDbEntity
  8
寸法
  6
Continuous
 62
     4
370
    -2
100
AcDbLine
 10
1335.414675284994
 20
656.9984315433222
 30
0.0
 11
1335.414675284994
 21
647.9984315433222
 31
0.0
  0
LINE
  5
67BD
330
622E
100
AcDbEntity
  8
寸法
  6
Continuous
 62
     4
370
    -2
100
AcDbLine
 10
1236.414675284994
 20
647.9984315433222
 30
0.0
 11
1334.414675284994
 21
647.9984315433222
 31
0.0
  0
INSERT
  5
67BE
330
622E
100
AcDbEntity
  8
寸法
  6
Continuous
 62
     4
370
    -2
100
AcDbBlockReference
  2
_Dot
 10
1235.414675284994
 20
647.9984315433222
 30
0.0
 50
180.0
  0
INSERT
  5
67BF
330
622E
100
AcDbEntity
  8
寸法
  6
Continuous
 62
     4
370
    -2
100
AcDbBlockReference
  2
_Dot
 10
1335.414675284994
 20
647.9984315433222
 30
0.0
  0
MTEXT
  5
67C0
330
622E
100
AcDbEntity
  8
寸法
  6
Continuous
 62
     3
100
AcDbMText
 10
1285.414675284994
 20
650.4984315433222
 30
0.0
 40
3.0
 41
0.0
 71
     5
 72
     1
  1
\A1;100
  7
ACAD
 73
     1
 44
1.0
1001
ACAD
1000
MTEXTBEGIN
1070
    73
1070
     1
1070
    44
1040
1.0
1070
    74
1070
     0
1000
MTEXTEND
  0
POINT
  5
67C1
330
622E
100
AcDbEntity
  8
Defpoints
  6
Continuous
 62
     0
100
AcDbPoint
 10
1235.414675284994
 20
656.9984315433222
 30
0.0
  0
POINT
  5
67C2
330
622E
100
AcDbEntity
  8
Defpoints
  6
Continuous
 62
     0
100
AcDbPoint
 10
1335.414675284994
 20
656.9984315433222
 30
0.0
  0
POINT
  5
67C3
330
622E
100
AcDbEntity
  8
Defpoints
  6
Continuous
 62
     0
100
AcDbPoint
 10
1335.414675284994
 20
647.9984315433222
 30
0.0
  0
ENDBLK
  5
6239
330
622E
100
AcDbEntity
  8
0
100
AcDbBlockEnd
  0
BLOCK
  5
6245
330
623B
100
AcDbEntity
  8
0
100
AcDbBlockBegin
  2
*D9
 70
     1
 10
0.0
 20
0.0
 30
0.0
  3
*D9
  1

  0
LINE
  5
6A89
330
623B
100
AcDbEntity
  8
寸法
  6
Continuous
 62
     4
370
    -2
100
AcDbLine
 10
1324.318900284994
 20
667.9984315433222
 30
0.0
 11
1316.990882114885
 21
667.9984315433222
 31
0.0
  0
LINE
  5
6A8A
330
623B
100
AcDbEntity
  8
寸法
  6
Continuous
 62
     4
370
    -2
100
AcDbLine
 10
1324.624944284994
 20
672.9984315433222
 30
0.0
 11
1316.990882114885
 21
672.9984315433222
 31
0.0
  0
LINE
  5
6A8B
330
623B
100
AcDbEntity
  8
寸法
  6
Continuous
 62
     4
370
    -2
100
AcDbLine
 10
1316.990882114885
 20
668.9984315433222
 30
0.0
 11
1316.990882114885
 21
671.9984315433222
 31
0.0
  0
INSERT
  5
6A8C
330
623B
100
AcDbEntity
  8
寸法
  6
Continuous
 62
     4
370
    -2
100
AcDbBlockReference
  2
_Dot
 10
1316.990882114885
 20
667.9984315433222
 30
0.0
 50
270.0
  0
INSERT
  5
6A8D
330
623B
100
AcDbEntity
  8
寸法
  6
Continuous
 62
     4
370
    -2
100
AcDbBlockReference
  2
_Dot
 10
1316.990882114885
 20
672.9984315433222
 30
0.0
 50
90.0
  0
MTEXT
  5
6A8E
330
623B
100
AcDbEntity
  8
寸法
  6
Continuous
 62
     3
100
AcDbMText
 10
1313.705167829171
 20
670.4984315433224
 30
0.0
 40
3.0
 41
0.0
 71
     5
 72
     1
  1
\A1;(5)
  7
ACAD
 11
0.0000000000000001
 21
1.0
 31
0.0
 73
     1
 44
1.0
1001
ACAD
1000
MTEXTBEGIN
1070
    73
1070
     1
1070
    44
1040
1.0
1070
    74
1070
     0
1000
MTEXTEND
  0
POINT
  5
6A8F
330
623B
100
AcDbEntity
  8
Defpoints
  6
Continuous
 62
     0
100
AcDbPoint
 10
1324.318900284994
 20
667.9984315433222
 30
0.0
  0
POINT
  5
6A90
330
623B
100
AcDbEntity
  8
Defpoints
  6
Continuous
 62
     0
100
AcDbPoint
 10
1324.624944284994
 20
672.9984315433222
 30
0.0
  0
POINT
  5
6A91
330
623B
100
AcDbEntity
  8
Defpoints
  6
Continuous
 62
     0
100
AcDbPoint
 10
1316.990882114885
 20
672.9984315433222
 30
0.0
  0
ENDBLK
  5
6246
330
623B
100
AcDbEntity
  8
0
100
AcDbBlockEnd
  0
BLOCK
  5
625D
330
6252
100
AcDbEntity
  8
0
100
AcDbBlockBegin
  2
*D10
 70
     1
 10
0.0
 20
0.0
 30
0.0
  3
*D10
  1

  0
LINE
  5
67CE
330
6252
100
AcDbEntity
  8
寸法
  6
Continuous
 62
     4
370
    -2
100
AcDbLine
 10
1327.414675284994
 20
675.6189685433222
 30
0.0
 11
1327.414675284994
 21
680.8234415433222
 31
0.0
  0
LINE
  5
67CF
330
6252
100
AcDbEntity
  8
寸法
  6
Continuous
 62
     4
370
    -2
100
AcDbLine
 10
1330.414675284994
 20
676.1132365433223
 30
0.0
 11
1330.414675284994
 21
680.8234415433222
 31
0.0
  0
LINE
  5
67D0
330
6252
100
AcDbEntity
  8
寸法
  6
Continuous
 62
     4
370
    -2
100
AcDbLine
 10
1326.414675284994
 20
680.8234415433222
 30
0.0
 11
1325.414675284994
 21
680.8234415433222
 31
0.0
  0
LINE
  5
67D1
330
6252
100
AcDbEntity
  8
寸法
  6
Continuous
 62
     4
370
    -2
100
AcDbLine
 10
1331.414675284994
 20
680.8234415433222
 30
0.0
 11
1332.414675284994
 21
680.8234415433222
 31
0.0
  0
INSERT
  5
67D2
330
6252
100
AcDbEntity
  8
寸法
  6
Continuous
 62
     4
370
    -2
100
AcDbBlockReference
  2
_Dot
 10
1327.414675284994
 20
680.8234415433222
 30
0.0
  0
INSERT
  5
67D3
330
6252
100
AcDbEntity
  8
寸法
  6
Continuous
 62
     4
370
    -2
100
AcDbBlockReference
  2
_Dot
 10
1330.414675284994
 20
680.8234415433222
 30
0.0
 50
180.0
  0
MTEXT
  5
67D4
330
6252
100
AcDbEntity
  8
寸法
  6
Continuous
 62
     3
100
AcDbMText
 10
1328.914675284994
 20
684.1091558290365
 30
0.0
 40
3.0
 41
0.0
 71
     5
 72
     1
  1
\A1;(3)
  7
ACAD
 73
     1
 44
1.0
1001
ACAD
1000
MTEXTBEGIN
1070
    73
1070
     1
1070
    44
1040
1.0
1070
    74
1070
     0
1000
MTEXTEND
  0
POINT
  5
67D5
330
6252
100
AcDbEntity
  8
Defpoints
  6
Continuous
 62
     0
100
AcDbPoint
 10
1327.414675284994
 20
675.6189685433222
 30
0.0
  0
POINT
  5
67D6
330
6252
100
AcDbEntity
  8
Defpoints
  6
Continuous
 62
     0
100
AcDbPoint
 10
1330.414675284994
 20
676.1132365433223
 30
0.0
  0
POINT
  5
67D7
330
6252
100
AcDbEntity
  8
Defpoints
  6
Continuous
 62
     0
100
AcDbPoint
 10
1330.414675284994
 20
680.8234415433222
 30
0.0
  0
ENDBLK
  5
625E
330
6252
100
AcDbEntity
  8
0
100
AcDbBlockEnd
  0
BLOCK
  5
6274
330
626A
100
AcDbEntity
  8
0
100
AcDbBlockBegin
  2
*D11
 70
     1
 10
0.0
 20
0.0
 30
0.0
  3
*D11
  1

  0
LINE
  5
67D8
330
626A
100
AcDbEntity
  8
寸法
  6
Continuous
 62
     4
370
    -2
100
AcDbLine
 10
1327.414675284994
 20
675.6189685433222
 30
0.0
 11
1327.414675284994
 21
686.4111025433222
 31
0.0
  0
LINE
  5
67D9
330
626A
100
AcDbEntity
  8
寸法
  6
Continuous
 62
     4
370
    -2
100
AcDbLine
 10
1335.414675284994
 20
672.1323395433222
 30
0.0
 11
1335.414675284994
 21
686.4111025433222
 31
0.0
  0
LINE
  5
67DA
330
626A
100
AcDbEntity
  8
寸法
  6
Continuous
 62
     4
370
    -2
100
AcDbLine
 10
1328.414675284994
 20
686.4111025433222
 30
0.0
 11
1334.414675284994
 21
686.4111025433222
 31
0.0
  0
INSERT
  5
67DB
330
626A
100
AcDbEntity
  8
寸法
  6
Continuous
 62
     4
370
    -2
100
AcDbBlockReference
  2
_Dot
 10
1327.414675284994
 20
686.4111025433222
 30
0.0
 50
180.0
  0
INSERT
  5
67DC
330
626A
100
AcDbEntity
  8
寸法
  6
Continuous
 62
     4
370
    -2
100
AcDbBlockReference
  2
_Dot
 10
1335.414675284994
 20
686.4111025433222
 30
0.0
  0
MTEXT
  5
67DD
330
626A
100
AcDbEntity
  8
寸法
  6
Continuous
 62
     3
100
AcDbMText
 10
1331.414675284994
 20
688.9111025433221
 30
0.0
 40
3.0
 41
0.0
 71
     5
 72
     1
  1
\A1;8
  7
ACAD
 73
     1
 44
1.0
1001
ACAD
1000
MTEXTBEGIN
1070
    73
1070
     1
1070
    44
1040
1.0
1070
    74
1070
     0
1000
MTEXTEND
  0
POINT
  5
67DE
330
626A
100
AcDbEntity
  8
Defpoints
  6
Continuous
 62
     0
100
AcDbPoint
 10
1327.414675284994
 20
675.6189685433222
 30
0.0
  0
POINT
  5
67DF
330
626A
100
AcDbEntity
  8
Defpoints
  6
Continuous
 62
     0
100
AcDbPoint
 10
1335.414675284994
 20
672.1323395433222
 30
0.0
  0
POINT
  5
67E0
330
626A
100
AcDbEntity
  8
Defpoints
  6
Continuous
 62
     0
100
AcDbPoint
 10
1335.414675284994
 20
686.4111025433222
 30
0.0
  0
ENDBLK
  5
6275
330
626A
100
AcDbEntity
  8
0
100
AcDbBlockEnd
  0
BLOCK
  5
6281
330
6277
100
AcDbEntity
  8
0
100
AcDbBlockBegin
  2
*D12
 70
     1
 10
0.0
 20
0.0
 30
0.0
  3
*D12
  1

  0
LINE
  5
67E1
330
6277
100
AcDbEntity
  8
寸法
  6
Continuous
 62
     4
370
    -2
100
AcDbLine
 10
1335.414675284994
 20
672.1323395433222
 30
0.0
 11
1335.414675284994
 21
686.4111025433222
 31
0.0
  0
LINE
  5
67E2
330
6277
100
AcDbEntity
  8
寸法
  6
Continuous
 62
     4
370
    -2
100
AcDbLine
 10
1347.414675284994
 20
676.9984315433222
 30
0.0
 11
1347.414675284994
 21
686.4111025433222
 31
0.0
  0
LINE
  5
67E3
330
6277
100
AcDbEntity
  8
寸法
  6
Continuous
 62
     4
370
    -2
100
AcDbLine
 10
1336.414675284994
 20
686.4111025433222
 30
0.0
 11
1346.414675284994
 21
686.4111025433222
 31
0.0
  0
INSERT
  5
67E4
330
6277
100
AcDbEntity
  8
寸法
  6
Continuous
 62
     4
370
    -2
100
AcDbBlockReference
  2
_Dot
 10
1335.414675284994
 20
686.4111025433222
 30
0.0
 50
180.0
  0
INSERT
  5
67E5
330
6277
100
AcDbEntity
  8
寸法
  6
Continuous
 62
     4
370
    -2
100
AcDbBlockReference
  2
_Dot
 10
1347.414675284994
 20
686.4111025433222
 30
0.0
  0
MTEXT
  5
67E6
330
6277
100
AcDbEntity
  8
寸法
  6
Continuous
 62
     3
100
AcDbMText
 10
1341.414675284994
 20
688.9111025433221
 30
0.0
 40
3.0
 41
0.0
 71
     5
 72
     1
  1
\A1;12
  7
ACAD
 73
     1
 44
1.0
1001
ACAD
1000
MTEXTBEGIN
1070
    73
1070
     1
1070
    44
1040
1.0
1070
    74
1070
     0
1000
MTEXTEND
  0
POINT
  5
67E7
330
6277
100
AcDbEntity
  8
Defpoints
  6
Continuous
 62
     0
100
AcDbPoint
 10
1335.414675284994
 20
672.1323395433222
 30
0.0
  0
POINT
  5
67E8
330
6277
100
AcDbEntity
  8
Defpoints
  6
Continuous
 62
     0
100
AcDbPoint
 10
1347.414675284994
 20
676.9984315433222
 30
0.0
  0
POINT
  5
67E9
330
6277
100
AcDbEntity
  8
Defpoints
  6
Continuous
 62
     0
100
AcDbPoint
 10
1347.414675284994
 20
686.4111025433222
 30
0.0
  0
ENDBLK
  5
6282
330
6277
100
AcDbEntity
  8
0
100
AcDbBlockEnd
  0
BLOCK
  5
628D
330
6284
100
AcDbEntity
  8
0
100
AcDbBlockBegin
  2
*D13
 70
     1
 10
0.0
 20
0.0
 30
0.0
  3
*D13
  1

  0
LINE
  5
6AB5
330
6284
100
AcDbEntity
  8
寸法
  6
Continuous
 62
     4
370
    -2
100
AcDbLine
 10
1347.414675284994
 20
680.7757545433222
 30
0.0
 11
1347.414675284994
 21
680.8234415433222
 31
0.0
  0
LINE
  5
6AB6
330
6284
100
AcDbEntity
  8
寸法
  6
Continuous
 62
     4
370
    -2
100
AcDbLine
 10
1342.914675284994
 20
680.8234415433222
 30
0.0
 11
1346.414675284994
 21
680.8234415433222
 31
0.0
  0
INSERT
  5
6AB7
330
6284
100
AcDbEntity
  8
寸法
  6
Continuous
 62
     4
370
    -2
100
AcDbBlockReference
  2
_Dot
 10
1341.914675284994
 20
680.8234415433222
 30
0.0
 50
180.0
  0
INSERT
  5
6AB8
330
6284
100
AcDbEntity
  8
寸法
  6
Continuous
 62
     4
370
    -2
100
AcDbBlockReference
  2
_Dot
 10
1347.414675284994
 20
680.8234415433222
 30
0.0
  0
MTEXT
  5
6AB9
330
6284
100
AcDbEntity
  8
寸法
  6
Continuous
 62
     3
100
AcDbMText
 10
1344.664675284994
 20
683.3234415433222
 30
0.0
 40
3.0
 41
0.0
 71
     5
 72
     1
  1
\A1;5.5
  7
ACAD
 73
     1
 44
1.0
1001
ACAD
1000
MTEXTBEGIN
1070
    73
1070
     1
1070
    44
1040
1.0
1070
    74
1070
     0
1000
MTEXTEND
  0
POINT
  5
6ABA
330
6284
100
AcDbEntity
  8
Defpoints
  6
Continuous
 62
     0
100
AcDbPoint
 10
1341.914675284994
 20
680.8234415433222
 30
0.0
  0
POINT
  5
6ABB
330
6284
100
AcDbEntity
  8
Defpoints
  6
Continuous
 62
     0
100
AcDbPoint
 10
1347.414675284994
 20
680.7757545433222
 30
0.0
  0
POINT
  5
6ABC
330
6284
100
AcDbEntity
  8
Defpoints
  6
Continuous
 62
     0
100
AcDbPoint
 10
1347.414675284994
 20
680.8234415433222
 30
0.0
  0
ENDBLK
  5
628E
330
6284
100
AcDbEntity
  8
0
100
AcDbBlockEnd
  0
BLOCK
  5
62A3
330
6299
100
AcDbEntity
  8
0
100
AcDbBlockBegin
  2
*D14
 70
     1
 10
0.0
 20
0.0
 30
0.0
  3
*D14
  1

  0
LINE
  5
67F3
330
6299
100
AcDbEntity
  8
寸法
  6
Continuous
 62
     4
370
    -2
100
AcDbLine
 10
1327.414675284994
 20
686.4111025433222
 30
0.0
 11
1327.414675284994
 21
691.9984315433222
 31
0.0
  0
LINE
  5
67F4
330
6299
100
AcDbEntity
  8
寸法
  6
Continuous
 62
     4
370
    -2
100
AcDbLine
 10
1347.664675284994
 20
686.4111025433222
 30
0.0
 11
1347.664675284994
 21
691.9984315433222
 31
0.0
  0
LINE
  5
67F5
330
6299
100
AcDbEntity
  8
寸法
  6
Continuous
 62
     4
370
    -2
100
AcDbLine
 10
1328.414675284994
 20
691.9984315433222
 30
0.0
 11
1346.664675284994
 21
691.9984315433222
 31
0.0
  0
INSERT
  5
67F6
330
6299
100
AcDbEntity
  8
寸法
  6
Continuous
 62
     4
370
    -2
100
AcDbBlockReference
  2
_Dot
 10
1327.414675284994
 20
691.9984315433222
 30
0.0
 50
180.0
  0
INSERT
  5
67F7
330
6299
100
AcDbEntity
  8
寸法
  6
Continuous
 62
     4
370
    -2
100
AcDbBlockReference
  2
_Dot
 10
1347.664675284994
 20
691.9984315433222
 30
0.0
  0
MTEXT
  5
67F8
330
6299
100
AcDbEntity
  8
寸法
  6
Continuous
 62
     3
100
AcDbMText
 10
1337.539675284994
 20
694.4984315433222
 30
0.0
 40
3.0
 41
0.0
 71
     5
 72
     1
  1
\A1;20
  7
ACAD
 73
     1
 44
1.0
1001
ACAD
1000
MTEXTBEGIN
1070
    73
1070
     1
1070
    44
1040
1.0
1070
    74
1070
     0
1000
MTEXTEND
  0
POINT
  5
67F9
330
6299
100
AcDbEntity
  8
Defpoints
  6
Continuous
 62
     0
100
AcDbPoint
 10
1327.414675284994
 20
686.4111025433222
 30
0.0
  0
POINT
  5
67FA
330
6299
100
AcDbEntity
  8
Defpoints
  6
Continuous
 62
     0
100
AcDbPoint
 10
1347.664675284994
 20
686.4111025433222
 30
0.0
  0
POINT
  5
67FB
330
6299
100
AcDbEntity
  8
Defpoints
  6
Continuous
 62
     0
100
AcDbPoint
 10
1347.664675284994
 20
691.9984315433222
 30
0.0
  0
ENDBLK
  5
62A4
330
6299
100
AcDbEntity
  8
0
100
AcDbBlockEnd
  0
BLOCK
  5
62B1
330
62A6
100
AcDbEntity
  8
0
100
AcDbBlockBegin
  2
*D15
 70
     1
 10
0.0
 20
0.0
 30
0.0
  3
*D15
  1

  0
LINE
  5
67FC
330
62A6
100
AcDbEntity
  8
寸法
  6
Continuous
 62
     4
370
    -2
100
AcDbLine
 10
1349.414675284994
 20
673.9984315433222
 30
0.0
 11
1361.746026284994
 21
673.9984315433222
 31
0.0
  0
LINE
  5
67FD
330
62A6
100
AcDbEntity
  8
寸法
  6
Continuous
 62
     4
370
    -2
100
AcDbLine
 10
1349.409785284994
 20
670.9984315433222
 30
0.0
 11
1361.746026284994
 21
670.9984315433222
 31
0.0
  0
LINE
  5
67FE
330
62A6
100
AcDbEntity
  8
寸法
  6
Continuous
 62
     4
370
    -2
100
AcDbLine
 10
1361.746026284994
 20
674.9984315433222
 30
0.0
 11
1361.746026284994
 21
675.9984315433221
 31
0.0
  0
LINE
  5
67FF
330
62A6
100
AcDbEntity
  8
寸法
  6
Continuous
 62
     4
370
    -2
100
AcDbLine
 10
1361.746026284994
 20
669.9984315433222
 30
0.0
 11
1361.746026284994
 21
668.9984315433222
 31
0.0
  0
INSERT
  5
6800
330
62A6
100
AcDbEntity
  8
寸法
  6
Continuous
 62
     4
370
    -2
100
AcDbBlockReference
  2
_Dot
 10
1361.746026284994
 20
673.9984315433222
 30
0.0
 50
270.0
  0
INSERT
  5
6801
330
62A6
100
AcDbEntity
  8
寸法
  6
Continuous
 62
     4
370
    -2
100
AcDbBlockReference
  2
_Dot
 10
1361.746026284994
 20
670.9984315433222
 30
0.0
 50
90.0
  0
MTEXT
  5
6802
330
62A6
100
AcDbEntity
  8
寸法
  6
Continuous
 62
     3
100
AcDbMText
 10
1359.246026284994
 20
672.4984315433224
 30
0.0
 40
3.0
 41
0.0
 71
     5
 72
     1
  1
\A1;3
  7
ACAD
 11
0.0000000000000001
 21
1.0
 31
0.0
 73
     1
 44
1.0
1001
ACAD
1000
MTEXTBEGIN
1070
    73
1070
     1
1070
    44
1040
1.0
1070
    74
1070
     0
1000
MTEXTEND
  0
POINT
  5
6803
330
62A6
100
AcDbEntity
  8
Defpoints
  6
Continuous
 62
     0
100
AcDbPoint
 10
1349.414675284994
 20
673.9984315433222
 30
0.0
  0
POINT
  5
6804
330
62A6
100
AcDbEntity
  8
Defpoints
  6
Continuous
 62
     0
100
AcDbPoint
 10
1349.409785284994
 20
670.9984315433222
 30
0.0
  0
POINT
  5
6805
330
62A6
100
AcDbEntity
  8
Defpoints
  6
Continuous
 62
     0
100
AcDbPoint
 10
1361.746026284994
 20
670.9984315433222
 30
0.0
  0
ENDBLK
  5
62B2
330
62A6
100
AcDbEntity
  8
0
100
AcDbBlockEnd
  0
BLOCK
  5
62BE
330
62B4
100
AcDbEntity
  8
0
100
AcDbBlockBegin
  2
*D16
 70
     1
 10
0.0
 20
0.0
 30
0.0
  3
*D16
  1

  0
LINE
  5
6806
330
62B4
100
AcDbEntity
  8
寸法
  6
Continuous
 62
     4
370
    -2
100
AcDbLine
 10
1349.414675284994
 20
673.9984315433222
 30
0.0
 11
1369.487205284994
 21
673.9984315433222
 31
0.0
  0
LINE
  5
6807
330
62B4
100
AcDbEntity
  8
寸法
  6
Continuous
 62
     4
370
    -2
100
AcDbLine
 10
1360.458878284994
 20
659.9984315433222
 30
0.0
 11
1369.487205284994
 21
659.9984315433222
 31
0.0
  0
LINE
  5
6808
330
62B4
100
AcDbEntity
  8
寸法
  6
Continuous
 62
     4
370
    -2
100
AcDbLine
 10
1369.487205284994
 20
672.9984315433222
 30
0.0
 11
1369.487205284994
 21
660.9984315433222
 31
0.0
  0
INSERT
  5
6809
330
62B4
100
AcDbEntity
  8
寸法
  6
Continuous
 62
     4
370
    -2
100
AcDbBlockReference
  2
_Dot
 10
1369.487205284994
 20
673.9984315433222
 30
0.0
 50
90.0
  0
INSERT
  5
680A
330
62B4
100
AcDbEntity
  8
寸法
  6
Continuous
 62
     4
370
    -2
100
AcDbBlockReference
  2
_Dot
 10
1369.487205284994
 20
659.9984315433222
 30
0.0
 50
270.0
  0
MTEXT
  5
680B
330
62B4
100
AcDbEntity
  8
寸法
  6
Continuous
 62
     3
100
AcDbMText
 10
1366.987205284994
 20
666.9984315433224
 30
0.0
 40
3.0
 41
0.0
 71
     5
 72
     1
  1
\A1;14
  7
ACAD
 11
0.0000000000000001
 21
1.0
 31
0.0
 73
     1
 44
1.0
1001
ACAD
1000
MTEXTBEGIN
1070
    73
1070
     1
1070
    44
1040
1.0
1070
    74
1070
     0
1000
MTEXTEND
  0
POINT
  5
680C
330
62B4
100
AcDbEntity
  8
Defpoints
  6
Continuous
 62
     0
100
AcDbPoint
 10
1349.414675284994
 20
673.9984315433222
 30
0.0
  0
POINT
  5
680D
330
62B4
100
AcDbEntity
  8
Defpoints
  6
Continuous
 62
     0
100
AcDbPoint
 10
1360.458878284994
 20
659.9984315433222
 30
0.0
  0
POINT
  5
680E
330
62B4
100
AcDbEntity
  8
Defpoints
  6
Continuous
 62
     0
100
AcDbPoint
 10
1369.487205284994
 20
659.9984315433222
 30
0.0
  0
ENDBLK
  5
62BF
330
62B4
100
AcDbEntity
  8
0
100
AcDbBlockEnd
  0
BLOCK
  5
62CB
330
62C1
100
AcDbEntity
  8
0
100
AcDbBlockBegin
  2
*D17
 70
     1
 10
0.0
 20
0.0
 30
0.0
  3
*D17
  1

  0
LINE
  5
680F
330
62C1
100
AcDbEntity
  8
寸法
  6
Continuous
 62
     4
370
    -2
100
AcDbLine
 10
1459.327092284994
 20
659.9984315433222
 30
0.0
 11
1434.258996284994
 21
659.9984315433222
 31
0.0
  0
LINE
  5
6810
330
62C1
100
AcDbEntity
  8
寸法
  6
Continuous
 62
     4
370
    -2
100
AcDbLine
 10
1443.081452284994
 20
667.9984315433222
 30
0.0
 11
1434.258996284994
 21
667.9984315433222
 31
0.0
  0
LINE
  5
6811
330
62C1
100
AcDbEntity
  8
寸法
  6
Continuous
 62
     4
370
    -2
100
AcDbLine
 10
1434.258996284994
 20
660.9984315433222
 30
0.0
 11
1434.258996284994
 21
666.9984315433222
 31
0.0
  0
INSERT
  5
6812
330
62C1
100
AcDbEntity
  8
寸法
  6
Continuous
 62
     4
370
    -2
100
AcDbBlockReference
  2
_Dot
 10
1434.258996284994
 20
659.9984315433222
 30
0.0
 50
270.0
  0
INSERT
  5
6813
330
62C1
100
AcDbEntity
  8
寸法
  6
Continuous
 62
     4
370
    -2
100
AcDbBlockReference
  2
_Dot
 10
1434.258996284994
 20
667.9984315433222
 30
0.0
 50
90.0
  0
MTEXT
  5
6814
330
62C1
100
AcDbEntity
  8
寸法
  6
Continuous
 62
     3
100
AcDbMText
 10
1431.758996284994
 20
663.9984315433224
 30
0.0
 40
3.0
 41
0.0
 71
     5
 72
     1
  1
\A1;8
  7
ACAD
 11
0.0000000000000001
 21
1.0
 31
0.0
 73
     1
 44
1.0
1001
ACAD
1000
MTEXTBEGIN
1070
    73
1070
     1
1070
    44
1040
1.0
1070
    74
1070
     0
1000
MTEXTEND
  0
POINT
  5
6815
330
62C1
100
AcDbEntity
  8
Defpoints
  6
Continuous
 62
     0
100
AcDbPoint
 10
1459.327092284994
 20
659.9984315433222
 30
0.0
  0
POINT
  5
6816
330
62C1
100
AcDbEntity
  8
Defpoints
  6
Continuous
 62
     0
100
AcDbPoint
 10
1443.081452284994
 20
667.9984315433222
 30
0.0
  0
POINT
  5
6817
330
62C1
100
AcDbEntity
  8
Defpoints
  6
Continuous
 62
     0
100
AcDbPoint
 10
1434.258996284994
 20
667.9984315433222
 30
0.0
  0
ENDBLK
  5
62CC
330
62C1
100
AcDbEntity
  8
0
100
AcDbBlockEnd
  0
BLOCK
  5
62D9
330
62CE
100
AcDbEntity
  8
0
100
AcDbBlockBegin
  2
*D18
 70
     1
 10
0.0
 20
0.0
 30
0.0
  3
*D18
  1

  0
LINE
  5
6B43
330
62CE
100
AcDbEntity
  8
寸法
  6
Continuous
 62
     4
370
    -2
100
AcDbLine
 10
1443.081452284994
 20
667.9984315433222
 30
0.0
 11
1434.258996284994
 21
667.9984315433222
 31
0.0
  0
LINE
  5
6B44
330
62CE
100
AcDbEntity
  8
寸法
  6
Continuous
 62
     4
370
    -2
100
AcDbLine
 10
1443.040201284994
 20
671.9984315433222
 30
0.0
 11
1434.258996284994
 21
671.9984315433222
 31
0.0
  0
LINE
  5
6B45
330
62CE
100
AcDbEntity
  8
寸法
  6
Continuous
 62
     4
370
    -2
100
AcDbLine
 10
1434.258996284994
 20
668.9984315433222
 30
0.0
 11
1434.258996284994
 21
670.9984315433222
 31
0.0
  0
INSERT
  5
6B46
330
62CE
100
AcDbEntity
  8
寸法
  6
Continuous
 62
     4
370
    -2
100
AcDbBlockReference
  2
_Dot
 10
1434.258996284994
 20
667.9984315433222
 30
0.0
 50
270.0
  0
INSERT
  5
6B47
330
62CE
100
AcDbEntity
  8
寸法
  6
Continuous
 62
     4
370
    -2
100
AcDbBlockReference
  2
_Dot
 10
1434.258996284994
 20
671.9984315433222
 30
0.0
 50
90.0
  0
MTEXT
  5
6B48
330
62CE
100
AcDbEntity
  8
寸法
  6
Continuous
 62
     3
100
AcDbMText
 10
1431.758996284994
 20
669.9830989258205
 30
0.0
 40
3.0
 41
0.0
 71
     5
 72
     1
  1
\A1;4
  7
ACAD
 11
0.0000000000000001
 21
1.0
 31
0.0
 73
     1
 44
1.0
1001
ACAD
1000
MTEXTBEGIN
1070
    73
1070
     1
1070
    44
1040
1.0
1070
    74
1070
     0
1000
MTEXTEND
  0
POINT
  5
6B49
330
62CE
100
AcDbEntity
  8
Defpoints
  6
Continuous
 62
     0
100
AcDbPoint
 10
1443.081452284994
 20
667.9984315433222
 30
0.0
  0
POINT
  5
6B4A
330
62CE
100
AcDbEntity
  8
Defpoints
  6
Continuous
 62
     0
100
AcDbPoint
 10
1443.040201284994
 20
671.9984315433222
 30
0.0
  0
POINT
  5
6B4B
330
62CE
100
AcDbEntity
  8
Defpoints
  6
Continuous
 62
     0
100
AcDbPoint
 10
1434.258996284994
 20
671.9984315433222
 30
0.0
  0
ENDBLK
  5
62DA
330
62CE
100
AcDbEntity
  8
0
100
AcDbBlockEnd
  0
BLOCK
  5
62E6
330
62DC
100
AcDbEntity
  8
0
100
AcDbBlockBegin
  2
*D19
 70
     1
 10
0.0
 20
0.0
 30
0.0
  3
*D19
  1

  0
LINE
  5
6822
330
62DC
100
AcDbEntity
  8
寸法
  6
Continuous
 62
     4
370
    -2
100
AcDbLine
 10
1446.081452284994
 20
664.9984315433222
 30
0.0
 11
1446.081452284994
 21
647.9984315433222
 31
0.0
  0
LINE
  5
6823
330
62DC
100
AcDbEntity
  8
寸法
  6
Continuous
 62
     4
370
    -2
100
AcDbLine
 10
1462.081452284994
 20
656.9984315433222
 30
0.0
 11
1462.081452284994
 21
647.9984315433222
 31
0.0
  0
LINE
  5
6824
330
62DC
100
AcDbEntity
  8
寸法
  6
Continuous
 62
     4
370
    -2
100
AcDbLine
 10
1447.081452284994
 20
647.9984315433222
 30
0.0
 11
1461.081452284994
 21
647.9984315433222
 31
0.0
  0
INSERT
  5
6825
330
62DC
100
AcDbEntity
  8
寸法
  6
Continuous
 62
     4
370
    -2
100
AcDbBlockReference
  2
_Dot
 10
1446.081452284994
 20
647.9984315433222
 30
0.0
 50
180.0
  0
INSERT
  5
6826
330
62DC
100
AcDbEntity
  8
寸法
  6
Continuous
 62
     4
370
    -2
100
AcDbBlockReference
  2
_Dot
 10
1462.081452284994
 20
647.9984315433222
 30
0.0
  0
MTEXT
  5
6827
330
62DC
100
AcDbEntity
  8
寸法
  6
Continuous
 62
     3
100
AcDbMText
 10
1454.081452284994
 20
650.4984315433222
 30
0.0
 40
3.0
 41
0.0
 71
     5
 72
     1
  1
\A1;16
  7
ACAD
 73
     1
 44
1.0
1001
ACAD
1000
MTEXTBEGIN
1070
    73
1070
     1
1070
    44
1040
1.0
1070
    74
1070
     0
1000
MTEXTEND
  0
POINT
  5
6828
330
62DC
100
AcDbEntity
  8
Defpoints
  6
Continuous
 62
     0
100
AcDbPoint
 10
1446.081452284994
 20
664.9984315433222
 30
0.0
  0
POINT
  5
6829
330
62DC
100
AcDbEntity
  8
Defpoints
  6
Continuous
 62
     0
100
AcDbPoint
 10
1462.081452284994
 20
656.9984315433222
 30
0.0
  0
POINT
  5
682A
330
62DC
100
AcDbEntity
  8
Defpoints
  6
Continuous
 62
     0
100
AcDbPoint
 10
1462.081452284994
 20
647.9984315433222
 30
0.0
  0
ENDBLK
  5
62E7
330
62DC
100
AcDbEntity
  8
0
100
AcDbBlockEnd
  0
BLOCK
  5
62F3
330
62E9
100
AcDbEntity
  8
0
100
AcDbBlockBegin
  2
*D20
 70
     1
 10
0.0
 20
0.0
 30
0.0
  3
*D20
  1

  0
LINE
  5
682B
330
62E9
100
AcDbEntity
  8
寸法
  6
Continuous
 62
     4
370
    -2
100
AcDbLine
 10
1462.081452284994
 20
656.9984315433222
 30
0.0
 11
1462.081452284994
 21
647.9984315433222
 31
0.0
  0
LINE
  5
682C
330
62E9
100
AcDbEntity
  8
寸法
  6
Continuous
 62
     4
370
    -2
100
AcDbLine
 10
1612.081452284994
 20
656.9984315433222
 30
0.0
 11
1612.081452284994
 21
647.9984315433222
 31
0.0
  0
LINE
  5
682D
330
62E9
100
AcDbEntity
  8
寸法
  6
Continuous
 62
     4
370
    -2
100
AcDbLine
 10
1463.081452284994
 20
647.9984315433222
 30
0.0
 11
1611.081452284994
 21
647.9984315433222
 31
0.0
  0
INSERT
  5
682E
330
62E9
100
AcDbEntity
  8
寸法
  6
Continuous
 62
     4
370
    -2
100
AcDbBlockReference
  2
_Dot
 10
1462.081452284994
 20
647.9984315433222
 30
0.0
 50
180.0
  0
INSERT
  5
682F
330
62E9
100
AcDbEntity
  8
寸法
  6
Continuous
 62
     4
370
    -2
100
AcDbBlockReference
  2
_Dot
 10
1612.081452284994
 20
647.9984315433222
 30
0.0
  0
MTEXT
  5
6830
330
62E9
100
AcDbEntity
  8
寸法
  6
Continuous
 62
     3
100
AcDbMText
 10
1537.081452284994
 20
650.4984315433222
 30
0.0
 40
3.0
 41
0.0
 71
     5
 72
     1
  1
\A1;150
  7
ACAD
 73
     1
 44
1.0
1001
ACAD
1000
MTEXTBEGIN
1070
    73
1070
     1
1070
    44
1040
1.0
1070
    74
1070
     0
1000
MTEXTEND
  0
POINT
  5
6831
330
62E9
100
AcDbEntity
  8
Defpoints
  6
Continuous
 62
     0
100
AcDbPoint
 10
1462.081452284994
 20
656.9984315433222
 30
0.0
  0
POINT
  5
6832
330
62E9
100
AcDbEntity
  8
Defpoints
  6
Continuous
 62
     0
100
AcDbPoint
 10
1612.081452284994
 20
656.9984315433222
 30
0.0
  0
POINT
  5
6833
330
62E9
100
AcDbEntity
  8
Defpoints
  6
Continuous
 62
     0
100
AcDbPoint
 10
1612.081452284994
 20
647.9984315433222
 30
0.0
  0
ENDBLK
  5
62F4
330
62E9
100
AcDbEntity
  8
0
100
AcDbBlockEnd
  0
BLOCK
  5
6300
330
62F6
100
AcDbEntity
  8
0
100
AcDbBlockBegin
  2
*D21
 70
     1
 10
0.0
 20
0.0
 30
0.0
  3
*D21
  1

  0
LINE
  5
6834
330
62F6
100
AcDbEntity
  8
寸法
  6
Continuous
 62
     4
370
    -2
100
AcDbLine
 10
1612.081452284994
 20
656.9984315433222
 30
0.0
 11
1612.081452284994
 21
647.9984315433222
 31
0.0
  0
LINE
  5
6835
330
62F6
100
AcDbEntity
  8
寸法
  6
Continuous
 62
     4
370
    -2
100
AcDbLine
 10
1622.081452284994
 20
657.6504905433222
 30
0.0
 11
1622.081452284994
 21
647.9984315433222
 31
0.0
  0
LINE
  5
6836
330
62F6
100
AcDbEntity
  8
寸法
  6
Continuous
 62
     4
370
    -2
100
AcDbLine
 10
1613.081452284994
 20
647.9984315433222
 30
0.0
 11
1621.081452284994
 21
647.9984315433222
 31
0.0
  0
INSERT
  5
6837
330
62F6
100
AcDbEntity
  8
寸法
  6
Continuous
 62
     4
370
    -2
100
AcDbBlockReference
  2
_Dot
 10
1612.081452284994
 20
647.9984315433222
 30
0.0
 50
180.0
  0
INSERT
  5
6838
330
62F6
100
AcDbEntity
  8
寸法
  6
Continuous
 62
     4
370
    -2
100
AcDbBlockReference
  2
_Dot
 10
1622.081452284994
 20
647.9984315433222
 30
0.0
  0
MTEXT
  5
6839
330
62F6
100
AcDbEntity
  8
寸法
  6
Continuous
 62
     3
100
AcDbMText
 10
1617.081452284994
 20
650.4984315433222
 30
0.0
 40
3.0
 41
0.0
 71
     5
 72
     1
  1
\A1;10
  7
ACAD
 73
     1
 44
1.0
1001
ACAD
1000
MTEXTBEGIN
1070
    73
1070
     1
1070
    44
1040
1.0
1070
    74
1070
     0
1000
MTEXTEND
  0
POINT
  5
683A
330
62F6
100
AcDbEntity
  8
Defpoints
  6
Continuous
 62
     0
100
AcDbPoint
 10
1612.081452284994
 20
656.9984315433222
 30
0.0
  0
POINT
  5
683B
330
62F6
100
AcDbEntity
  8
Defpoints
  6
Continuous
 62
     0
100
AcDbPoint
 10
1622.081452284994
 20
657.6504905433222
 30
0.0
  0
POINT
  5
683C
330
62F6
100
AcDbEntity
  8
Defpoints
  6
Continuous
 62
     0
100
AcDbPoint
 10
1622.081452284994
 20
647.9984315433222
 30
0.0
  0
ENDBLK
  5
6301
330
62F6
100
AcDbEntity
  8
0
100
AcDbBlockEnd
  0
BLOCK
  5
630D
330
6303
100
AcDbEntity
  8
0
100
AcDbBlockBegin
  2
*D22
 70
     1
 10
0.0
 20
0.0
 30
0.0
  3
*D22
  1

  0
LINE
  5
6B4C
330
6303
100
AcDbEntity
  8
寸法
  6
Continuous
 62
     4
370
    -2
100
AcDbLine
 10
1602.195849284994
 20
667.9984315433222
 30
0.0
 11
1594.482365848918
 21
667.9984315433222
 31
0.0
  0
LINE
  5
6B4D
330
6303
100
AcDbEntity
  8
寸法
  6
Continuous
 62
     4
370
    -2
100
AcDbLine
 10
1602.397920284994
 20
672.6984315433221
 30
0.0
 11
1594.482365848918
 21
672.6984315433221
 31
0.0
  0
LINE
  5
6B4E
330
6303
100
AcDbEntity
  8
寸法
  6
Continuous
 62
     4
370
    -2
100
AcDbLine
 10
1594.482365848918
 20
668.9984315433222
 30
0.0
 11
1594.482365848918
 21
671.6984315433221
 31
0.0
  0
INSERT
  5
6B4F
330
6303
100
AcDbEntity
  8
寸法
  6
Continuous
 62
     4
370
    -2
100
AcDbBlockReference
  2
_Dot
 10
1594.482365848918
 20
667.9984315433222
 30
0.0
 50
270.0
  0
INSERT
  5
6B50
330
6303
100
AcDbEntity
  8
寸法
  6
Continuous
 62
     4
370
    -2
100
AcDbBlockReference
  2
_Dot
 10
1594.482365848918
 20
672.6984315433221
 30
0.0
 50
90.0
  0
MTEXT
  5
6B51
330
6303
100
AcDbEntity
  8
寸法
  6
Continuous
 62
     3
100
AcDbMText
 10
1591.196651563203
 20
670.3484315433223
 30
0.0
 40
3.0
 41
0.0
 71
     5
 72
     1
  1
\A1;(4.7)
  7
ACAD
 11
0.0000000000000001
 21
1.0
 31
0.0
 73
     1
 44
1.0
1001
ACAD
1000
MTEXTBEGIN
1070
    73
1070
     1
1070
    44
1040
1.0
1070
    74
1070
     0
1000
MTEXTEND
  0
POINT
  5
6B52
330
6303
100
AcDbEntity
  8
Defpoints
  6
Continuous
 62
     0
100
AcDbPoint
 10
1602.195849284994
 20
667.9984315433222
 30
0.0
  0
POINT
  5
6B53
330
6303
100
AcDbEntity
  8
Defpoints
  6
Continuous
 62
     0
100
AcDbPoint
 10
1602.397920284994
 20
672.6984315433221
 30
0.0
  0
POINT
  5
6B54
330
6303
100
AcDbEntity
  8
Defpoints
  6
Continuous
 62
     0
100
AcDbPoint
 10
1594.482365848918
 20
672.6984315433221
 30
0.0
  0
ENDBLK
  5
630E
330
6303
100
AcDbEntity
  8
0
100
AcDbBlockEnd
  0
BLOCK
  5
6325
330
631A
100
AcDbEntity
  8
0
100
AcDbBlockBegin
  2
*D23
 70
     1
 10
0.0
 20
0.0
 30
0.0
  3
*D23
  1

  0
LINE
  5
6847
330
631A
100
AcDbEntity
  8
寸法
  6
Continuous
 62
     4
370
    -2
100
AcDbLine
 10
1604.081452284994
 20
674.9879965433222
 30
0.0
 11
1604.081452284994
 21
680.8234415433222
 31
0.0
  0
LINE
  5
6848
330
631A
100
AcDbEntity
  8
寸法
  6
Continuous
 62
     4
370
    -2
100
AcDbLine
 10
1606.081452284994
 20
675.7935085433222
 30
0.0
 11
1606.081452284994
 21
680.8234415433222
 31
0.0
  0
LINE
  5
6849
330
631A
100
AcDbEntity
  8
寸法
  6
Continuous
 62
     4
370
    -2
100
AcDbLine
 10
1603.081452284994
 20
680.8234415433222
 30
0.0
 11
1602.081452284994
 21
680.8234415433222
 31
0.0
  0
LINE
  5
684A
330
631A
100
AcDbEntity
  8
寸法
  6
Continuous
 62
     4
370
    -2
100
AcDbLine
 10
1607.081452284994
 20
680.8234415433222
 30
0.0
 11
1608.081452284994
 21
680.8234415433222
 31
0.0
  0
INSERT
  5
684B
330
631A
100
AcDbEntity
  8
寸法
  6
Continuous
 62
     4
370
    -2
100
AcDbBlockReference
  2
_Dot
 10
1604.081452284994
 20
680.8234415433222
 30
0.0
  0
INSERT
  5
684C
330
631A
100
AcDbEntity
  8
寸法
  6
Continuous
 62
     4
370
    -2
100
AcDbBlockReference
  2
_Dot
 10
1606.081452284994
 20
680.8234415433222
 30
0.0
 50
180.0
  0
MTEXT
  5
684D
330
631A
100
AcDbEntity
  8
寸法
  6
Continuous
 62
     3
100
AcDbMText
 10
1605.081452284994
 20
684.1091558290365
 30
0.0
 40
3.0
 41
0.0
 71
     5
 72
     1
  1
\A1;(2)
  7
ACAD
 73
     1
 44
1.0
1001
ACAD
1000
MTEXTBEGIN
1070
    73
1070
     1
1070
    44
1040
1.0
1070
    74
1070
     0
1000
MTEXTEND
  0
POINT
  5
684E
330
631A
100
AcDbEntity
  8
Defpoints
  6
Continuous
 62
     0
100
AcDbPoint
 10
1604.081452284994
 20
674.9879965433222
 30
0.0
  0
POINT
  5
684F
330
631A
100
AcDbEntity
  8
Defpoints
  6
Continuous
 62
     0
100
AcDbPoint
 10
1606.081452284994
 20
675.7935085433222
 30
0.0
  0
POINT
  5
6850
330
631A
100
AcDbEntity
  8
Defpoints
  6
Continuous
 62
     0
100
AcDbPoint
 10
1606.081452284994
 20
680.8234415433222
 30
0.0
  0
ENDBLK
  5
6326
330
631A
100
AcDbEntity
  8
0
100
AcDbBlockEnd
  0
BLOCK
  5
633C
330
6332
100
AcDbEntity
  8
0
100
AcDbBlockBegin
  2
*D24
 70
     1
 10
0.0
 20
0.0
 30
0.0
  3
*D24
  1

  0
LINE
  5
6851
330
6332
100
AcDbEntity
  8
寸法
  6
Continuous
 62
     4
370
    -2
100
AcDbLine
 10
1604.081452284994
 20
674.9879965433222
 30
0.0
 11
1604.081452284994
 21
686.4111025433222
 31
0.0
  0
LINE
  5
6852
330
6332
100
AcDbEntity
  8
寸法
  6
Continuous
 62
     4
370
    -2
100
AcDbLine
 10
1612.081452284994
 20
671.8323395433221
 30
0.0
 11
1612.081452284994
 21
686.4111025433222
 31
0.0
  0
LINE
  5
6853
330
6332
100
AcDbEntity
  8
寸法
  6
Continuous
 62
     4
370
    -2
100
AcDbLine
 10
1605.081452284994
 20
686.4111025433222
 30
0.0
 11
1611.081452284994
 21
686.4111025433222
 31
0.0
  0
INSERT
  5
6854
330
6332
100
AcDbEntity
  8
寸法
  6
Continuous
 62
     4
370
    -2
100
AcDbBlockReference
  2
_Dot
 10
1604.081452284994
 20
686.4111025433222
 30
0.0
 50
180.0
  0
INSERT
  5
6855
330
6332
100
AcDbEntity
  8
寸法
  6
Continuous
 62
     4
370
    -2
100
AcDbBlockReference
  2
_Dot
 10
1612.081452284994
 20
686.4111025433222
 30
0.0
  0
MTEXT
  5
6856
330
6332
100
AcDbEntity
  8
寸法
  6
Continuous
 62
     3
100
AcDbMText
 10
1608.081452284994
 20
688.9111025433221
 30
0.0
 40
3.0
 41
0.0
 71
     5
 72
     1
  1
\A1;8
  7
ACAD
 73
     1
 44
1.0
1001
ACAD
1000
MTEXTBEGIN
1070
    73
1070
     1
1070
    44
1040
1.0
1070
    74
1070
     0
1000
MTEXTEND
  0
POINT
  5
6857
330
6332
100
AcDbEntity
  8
Defpoints
  6
Continuous
 62
     0
100
AcDbPoint
 10
1604.081452284994
 20
674.9879965433222
 30
0.0
  0
POINT
  5
6858
330
6332
100
AcDbEntity
  8
Defpoints
  6
Continuous
 62
     0
100
AcDbPoint
 10
1612.081452284994
 20
671.8323395433221
 30
0.0
  0
POINT
  5
6859
330
6332
100
AcDbEntity
  8
Defpoints
  6
Continuous
 62
     0
100
AcDbPoint
 10
1612.081452284994
 20
686.4111025433222
 30
0.0
  0
ENDBLK
  5
633D
330
6332
100
AcDbEntity
  8
0
100
AcDbBlockEnd
  0
BLOCK
  5
6349
330
633F
100
AcDbEntity
  8
0
100
AcDbBlockBegin
  2
*D25
 70
     1
 10
0.0
 20
0.0
 30
0.0
  3
*D25
  1

  0
LINE
  5
685A
330
633F
100
AcDbEntity
  8
寸法
  6
Continuous
 62
     4
370
    -2
100
AcDbLine
 10
1612.081452284994
 20
671.8323395433221
 30
0.0
 11
1612.081452284994
 21
686.4111025433222
 31
0.0
  0
LINE
  5
685B
330
633F
100
AcDbEntity
  8
寸法
  6
Continuous
 62
     4
370
    -2
100
AcDbLine
 10
1624.081452284994
 20
674.9357395433222
 30
0.0
 11
1624.081452284994
 21
686.4111025433222
 31
0.0
  0
LINE
  5
685C
330
633F
100
AcDbEntity
  8
寸法
  6
Continuous
 62
     4
370
    -2
100
AcDbLine
 10
1613.081452284994
 20
686.4111025433222
 30
0.0
 11
1623.081452284994
 21
686.4111025433222
 31
0.0
  0
INSERT
  5
685D
330
633F
100
AcDbEntity
  8
寸法
  6
Continuous
 62
     4
370
    -2
100
AcDbBlockReference
  2
_Dot
 10
1612.081452284994
 20
686.4111025433222
 30
0.0
 50
180.0
  0
INSERT
  5
685E
330
633F
100
AcDbEntity
  8
寸法
  6
Continuous
 62
     4
370
    -2
100
AcDbBlockReference
  2
_Dot
 10
1624.081452284994
 20
686.4111025433222
 30
0.0
  0
MTEXT
  5
685F
330
633F
100
AcDbEntity
  8
寸法
  6
Continuous
 62
     3
100
AcDbMText
 10
1618.081452284994
 20
688.9111025433221
 30
0.0
 40
3.0
 41
0.0
 71
     5
 72
     1
  1
\A1;12
  7
ACAD
 73
     1
 44
1.0
1001
ACAD
1000
MTEXTBEGIN
1070
    73
1070
     1
1070
    44
1040
1.0
1070
    74
1070
     0
1000
MTEXTEND
  0
POINT
  5
6860
330
633F
100
AcDbEntity
  8
Defpoints
  6
Continuous
 62
     0
100
AcDbPoint
 10
1612.081452284994
 20
671.8323395433221
 30
0.0
  0
POINT
  5
6861
330
633F
100
AcDbEntity
  8
Defpoints
  6
Continuous
 62
     0
100
AcDbPoint
 10
1624.081452284994
 20
674.9357395433222
 30
0.0
  0
POINT
  5
6862
330
633F
100
AcDbEntity
  8
Defpoints
  6
Continuous
 62
     0
100
AcDbPoint
 10
1624.081452284994
 20
686.4111025433222
 30
0.0
  0
ENDBLK
  5
634A
330
633F
100
AcDbEntity
  8
0
100
AcDbBlockEnd
  0
BLOCK
  5
6354
330
634C
100
AcDbEntity
  8
0
100
AcDbBlockBegin
  2
*D26
 70
     1
 10
0.0
 20
0.0
 30
0.0
  3
*D26
  1

  0
LINE
  5
6B5E
330
634C
100
AcDbEntity
  8
寸法
  6
Continuous
 62
     4
370
    -2
100
AcDbLine
 10
1619.281452284994
 20
680.8234415433222
 30
0.0
 11
1623.081452284994
 21
680.8234415433222
 31
0.0
  0
INSERT
  5
6B5F
330
634C
100
AcDbEntity
  8
寸法
  6
Continuous
 62
     4
370
    -2
100
AcDbBlockReference
  2
_Dot
 10
1618.281452284994
 20
680.8234415433222
 30
0.0
 50
180.0
  0
INSERT
  5
6B60
330
634C
100
AcDbEntity
  8
寸法
  6
Continuous
 62
     4
370
    -2
100
AcDbBlockReference
  2
_Dot
 10
1624.081452284994
 20
680.8234415433222
 30
0.0
  0
MTEXT
  5
6B61
330
634C
100
AcDbEntity
  8
寸法
  6
Continuous
 62
     3
100
AcDbMText
 10
1621.181452284994
 20
683.3234415433222
 30
0.0
 40
3.0
 41
0.0
 71
     5
 72
     1
  1
\A1;5.8
  7
ACAD
 73
     1
 44
1.0
1001
ACAD
1000
MTEXTBEGIN
1070
    73
1070
     1
1070
    44
1040
1.0
1070
    74
1070
     0
1000
MTEXTEND
  0
POINT
  5
6B62
330
634C
100
AcDbEntity
  8
Defpoints
  6
Continuous
 62
     0
100
AcDbPoint
 10
1618.281452284994
 20
680.8234415433222
 30
0.0
  0
POINT
  5
6B63
330
634C
100
AcDbEntity
  8
Defpoints
  6
Continuous
 62
     0
100
AcDbPoint
 10
1624.081452284994
 20
680.8234415433222
 30
0.0
  0
POINT
  5
6B64
330
634C
100
AcDbEntity
  8
Defpoints
  6
Continuous
 62
     0
100
AcDbPoint
 10
1624.081452284994
 20
680.8234415433222
 30
0.0
  0
ENDBLK
  5
6355
330
634C
100
AcDbEntity
  8
0
100
AcDbBlockEnd
  0
BLOCK
  5
6369
330
635F
100
AcDbEntity
  8
0
100
AcDbBlockBegin
  2
*D27
 70
     1
 10
0.0
 20
0.0
 30
0.0
  3
*D27
  1

  0
LINE
  5
686B
330
635F
100
AcDbEntity
  8
寸法
  6
Continuous
 62
     4
370
    -2
100
AcDbLine
 10
1604.081452284994
 20
686.4111025433222
 30
0.0
 11
1604.081452284994
 21
691.6984315433222
 31
0.0
  0
LINE
  5
686C
330
635F
100
AcDbEntity
  8
寸法
  6
Continuous
 62
     4
370
    -2
100
AcDbLine
 10
1624.081452284994
 20
686.1611025433221
 30
0.0
 11
1624.081452284994
 21
691.6984315433222
 31
0.0
  0
LINE
  5
686D
330
635F
100
AcDbEntity
  8
寸法
  6
Continuous
 62
     4
370
    -2
100
AcDbLine
 10
1605.081452284994
 20
691.6984315433222
 30
0.0
 11
1623.081452284994
 21
691.6984315433222
 31
0.0
  0
INSERT
  5
686E
330
635F
100
AcDbEntity
  8
寸法
  6
Continuous
 62
     4
370
    -2
100
AcDbBlockReference
  2
_Dot
 10
1604.081452284994
 20
691.6984315433222
 30
0.0
 50
180.0
  0
INSERT
  5
686F
330
635F
100
AcDbEntity
  8
寸法
  6
Continuous
 62
     4
370
    -2
100
AcDbBlockReference
  2
_Dot
 10
1624.081452284994
 20
691.6984315433222
 30
0.0
  0
MTEXT
  5
6870
330
635F
100
AcDbEntity
  8
寸法
  6
Continuous
 62
     3
100
AcDbMText
 10
1614.081452284994
 20
694.1984315433221
 30
0.0
 40
3.0
 41
0.0
 71
     5
 72
     1
  1
\A1;20
  7
ACAD
 73
     1
 44
1.0
1001
ACAD
1000
MTEXTBEGIN
1070
    73
1070
     1
1070
    44
1040
1.0
1070
    74
1070
     0
1000
MTEXTEND
  0
POINT
  5
6871
330
635F
100
AcDbEntity
  8
Defpoints
  6
Continuous
 62
     0
100
AcDbPoint
 10
1604.081452284994
 20
686.4111025433222
 30
0.0
  0
POINT
  5
6872
330
635F
100
AcDbEntity
  8
Defpoints
  6
Continuous
 62
     0
100
AcDbPoint
 10
1624.081452284994
 20
686.1611025433221
 30
0.0
  0
POINT
  5
6873
330
635F
100
AcDbEntity
  8
Defpoints
  6
Continuous
 62
     0
100
AcDbPoint
 10
1624.081452284994
 20
691.6984315433222
 30
0.0
  0
ENDBLK
  5
636A
330
635F
100
AcDbEntity
  8
0
100
AcDbBlockEnd
  0
BLOCK
  5
6376
330
636C
100
AcDbEntity
  8
0
100
AcDbBlockBegin
  2
*D28
 70
     1
 10
0.0
 20
0.0
 30
0.0
  3
*D28
  1

  0
LINE
  5
6874
330
636C
100
AcDbEntity
  8
寸法
  6
Continuous
 62
     4
370
    -2
100
AcDbLine
 10
1625.765074284994
 20
667.9984315433222
 30
0.0
 11
1638.493583284994
 21
667.9984315433222
 31
0.0
  0
LINE
  5
6875
330
636C
100
AcDbEntity
  8
寸法
  6
Continuous
 62
     4
370
    -2
100
AcDbLine
 10
1635.002813284994
 20
659.9984315433222
 30
0.0
 11
1638.493583284994
 21
659.9984315433222
 31
0.0
  0
LINE
  5
6876
330
636C
100
AcDbEntity
  8
寸法
  6
Continuous
 62
     4
370
    -2
100
AcDbLine
 10
1638.493583284994
 20
666.9984315433222
 30
0.0
 11
1638.493583284994
 21
660.9984315433222
 31
0.0
  0
INSERT
  5
6877
330
636C
100
AcDbEntity
  8
寸法
  6
Continuous
 62
     4
370
    -2
100
AcDbBlockReference
  2
_Dot
 10
1638.493583284994
 20
667.9984315433222
 30
0.0
 50
90.0
  0
INSERT
  5
6878
330
636C
100
AcDbEntity
  8
寸法
  6
Continuous
 62
     4
370
    -2
100
AcDbBlockReference
  2
_Dot
 10
1638.493583284994
 20
659.9984315433222
 30
0.0
 50
270.0
  0
MTEXT
  5
6879
330
636C
100
AcDbEntity
  8
寸法
  6
Continuous
 62
     3
100
AcDbMText
 10
1635.993583284994
 20
663.9984315433224
 30
0.0
 40
3.0
 41
0.0
 71
     5
 72
     1
  1
\A1;8
  7
ACAD
 11
0.0000000000000001
 21
1.0
 31
0.0
 73
     1
 44
1.0
1001
ACAD
1000
MTEXTBEGIN
1070
    73
1070
     1
1070
    44
1040
1.0
1070
    74
1070
     0
1000
MTEXTEND
  0
POINT
  5
687A
330
636C
100
AcDbEntity
  8
Defpoints
  6
Continuous
 62
     0
100
AcDbPoint
 10
1625.765074284994
 20
667.9984315433222
 30
0.0
  0
POINT
  5
687B
330
636C
100
AcDbEntity
  8
Defpoints
  6
Continuous
 62
     0
100
AcDbPoint
 10
1635.002813284994
 20
659.9984315433222
 30
0.0
  0
POINT
  5
687C
330
636C
100
AcDbEntity
  8
Defpoints
  6
Continuous
 62
     0
100
AcDbPoint
 10
1638.493583284994
 20
659.9984315433222
 30
0.0
  0
ENDBLK
  5
6377
330
636C
100
AcDbEntity
  8
0
100
AcDbBlockEnd
  0
BLOCK
  5
6383
330
6379
100
AcDbEntity
  8
0
100
AcDbBlockBegin
  2
*D29
 70
     1
 10
0.0
 20
0.0
 30
0.0
  3
*D29
  1

  0
LINE
  5
687D
330
6379
100
AcDbEntity
  8
寸法
  6
Continuous
 62
     4
370
    -2
100
AcDbLine
 10
1626.192290284994
 20
673.9984315433222
 30
0.0
 11
1646.153973284994
 21
673.9984315433222
 31
0.0
  0
LINE
  5
687E
330
6379
100
AcDbEntity
  8
寸法
  6
Continuous
 62
     4
370
    -2
100
AcDbLine
 10
1635.002813284994
 20
659.9984315433222
 30
0.0
 11
1646.153973284994
 21
659.9984315433222
 31
0.0
  0
LINE
  5
687F
330
6379
100
AcDbEntity
  8
寸法
  6
Continuous
 62
     4
370
    -2
100
AcDbLine
 10
1646.153973284994
 20
672.9984315433222
 30
0.0
 11
1646.153973284994
 21
660.9984315433222
 31
0.0
  0
INSERT
  5
6880
330
6379
100
AcDbEntity
  8
寸法
  6
Continuous
 62
     4
370
    -2
100
AcDbBlockReference
  2
_Dot
 10
1646.153973284994
 20
673.9984315433222
 30
0.0
 50
90.0
  0
INSERT
  5
6881
330
6379
100
AcDbEntity
  8
寸法
  6
Continuous
 62
     4
370
    -2
100
AcDbBlockReference
  2
_Dot
 10
1646.153973284994
 20
659.9984315433222
 30
0.0
 50
270.0
  0
MTEXT
  5
6882
330
6379
100
AcDbEntity
  8
寸法
  6
Continuous
 62
     3
100
AcDbMText
 10
1643.653973284994
 20
666.9984315433224
 30
0.0
 40
3.0
 41
0.0
 71
     5
 72
     1
  1
\A1;14
  7
ACAD
 11
0.0000000000000001
 21
1.0
 31
0.0
 73
     1
 44
1.0
1001
ACAD
1000
MTEXTBEGIN
1070
    73
1070
     1
1070
    44
1040
1.0
1070
    74
1070
     0
1000
MTEXTEND
  0
POINT
  5
6883
330
6379
100
AcDbEntity
  8
Defpoints
  6
Continuous
 62
     0
100
AcDbPoint
 10
1626.192290284994
 20
673.9984315433222
 30
0.0
  0
POINT
  5
6884
330
6379
100
AcDbEntity
  8
Defpoints
  6
Continuous
 62
     0
100
AcDbPoint
 10
1635.002813284994
 20
659.9984315433222
 30
0.0
  0
POINT
  5
6885
330
6379
100
AcDbEntity
  8
Defpoints
  6
Continuous
 62
     0
100
AcDbPoint
 10
1646.153973284994
 20
659.9984315433222
 30
0.0
  0
ENDBLK
  5
6384
330
6379
100
AcDbEntity
  8
0
100
AcDbBlockEnd
  0
BLOCK
  5
6391
330
6386
100
AcDbEntity
  8
0
100
AcDbBlockBegin
  2
*D30
 70
     1
 10
0.0
 20
0.0
 30
0.0
  3
*D30
  1

  0
LINE
  5
6B1E
330
6386
100
AcDbEntity
  8
寸法
  6
Continuous
 62
     4
370
    -2
100
AcDbLine
 10
1624.874056284994
 20
577.7497735433222
 30
0.0
 11
1616.805904594915
 21
577.7497735433222
 31
0.0
  0
LINE
  5
6B1F
330
6386
100
AcDbEntity
  8
寸法
  6
Continuous
 62
     4
370
    -2
100
AcDbLine
 10
1625.076127284994
 20
582.2497735433223
 30
0.0
 11
1616.805904594915
 21
582.2497735433223
 31
0.0
  0
LINE
  5
6B20
330
6386
100
AcDbEntity
  8
寸法
  6
Continuous
 62
     4
370
    -2
100
AcDbLine
 10
1616.805904594915
 20
578.7497735433222
 30
0.0
 11
1616.805904594915
 21
581.2497735433222
 31
0.0
  0
INSERT
  5
6B21
330
6386
100
AcDbEntity
  8
寸法
  6
Continuous
 62
     4
370
    -2
100
AcDbBlockReference
  2
_Dot
 10
1616.805904594915
 20
577.7497735433222
 30
0.0
 50
270.0
  0
INSERT
  5
6B22
330
6386
100
AcDbEntity
  8
寸法
  6
Continuous
 62
     4
370
    -2
100
AcDbBlockReference
  2
_Dot
 10
1616.805904594915
 20
582.2497735433223
 30
0.0
 50
90.0
  0
MTEXT
  5
6B23
330
6386
100
AcDbEntity
  8
寸法
  6
Continuous
 62
     3
100
AcDbMText
 10
1613.5201903092
 20
579.9997735433224
 30
0.0
 40
3.0
 41
0.0
 71
     5
 72
     1
  1
\A1;(4.5)
  7
ACAD
 11
0.0000000000000001
 21
1.0
 31
0.0
 73
     1
 44
1.0
1001
ACAD
1000
MTEXTBEGIN
1070
    73
1070
     1
1070
    44
1040
1.0
1070
    74
1070
     0
1000
MTEXTEND
  0
POINT
  5
6B24
330
6386
100
AcDbEntity
  8
Defpoints
  6
Continuous
 62
     0
100
AcDbPoint
 10
1624.874056284994
 20
577.7497735433222
 30
0.0
  0
POINT
  5
6B25
330
6386
100
AcDbEntity
  8
Defpoints
  6
Continuous
 62
     0
100
AcDbPoint
 10
1625.076127284994
 20
582.2497735433223
 30
0.0
  0
POINT
  5
6B26
330
6386
100
AcDbEntity
  8
Defpoints
  6
Continuous
 62
     0
100
AcDbPoint
 10
1616.805904594915
 20
582.2497735433223
 30
0.0
  0
ENDBLK
  5
6392
330
6386
100
AcDbEntity
  8
0
100
AcDbBlockEnd
  0
BLOCK
  5
63B3
330
63A8
100
AcDbEntity
  8
0
100
AcDbBlockBegin
  2
*D31
 70
     1
 10
0.0
 20
0.0
 30
0.0
  3
*D31
  1

  0
LINE
  5
6890
330
63A8
100
AcDbEntity
  8
寸法
  6
Continuous
 62
     4
370
    -2
100
AcDbLine
 10
1626.759659284994
 20
584.5393375433222
 30
0.0
 11
1626.759659284994
 21
590.5747825433222
 31
0.0
  0
LINE
  5
6891
330
63A8
100
AcDbEntity
  8
寸法
  6
Continuous
 62
     4
370
    -2
100
AcDbLine
 10
1628.759659284994
 20
585.5434605433222
 30
0.0
 11
1628.759659284994
 21
590.5747825433222
 31
0.0
  0
LINE
  5
6892
330
63A8
100
AcDbEntity
  8
寸法
  6
Continuous
 62
     4
370
    -2
100
AcDbLine
 10
1625.759659284994
 20
590.5747825433222
 30
0.0
 11
1624.759659284994
 21
590.5747825433222
 31
0.0
  0
LINE
  5
6893
330
63A8
100
AcDbEntity
  8
寸法
  6
Continuous
 62
     4
370
    -2
100
AcDbLine
 10
1629.759659284994
 20
590.5747825433222
 30
0.0
 11
1630.759659284994
 21
590.5747825433222
 31
0.0
  0
INSERT
  5
6894
330
63A8
100
AcDbEntity
  8
寸法
  6
Continuous
 62
     4
370
    -2
100
AcDbBlockReference
  2
_Dot
 10
1626.759659284994
 20
590.5747825433222
 30
0.0
  0
INSERT
  5
6895
330
63A8
100
AcDbEntity
  8
寸法
  6
Continuous
 62
     4
370
    -2
100
AcDbBlockReference
  2
_Dot
 10
1628.759659284994
 20
590.5747825433222
 30
0.0
 50
180.0
  0
MTEXT
  5
6896
330
63A8
100
AcDbEntity
  8
寸法
  6
Continuous
 62
     3
100
AcDbMText
 10
1627.759659284994
 20
593.8604968290365
 30
0.0
 40
3.0
 41
0.0
 71
     5
 72
     1
  1
\A1;(2)
  7
ACAD
 73
     1
 44
1.0
1001
ACAD
1000
MTEXTBEGIN
1070
    73
1070
     1
1070
    44
1040
1.0
1070
    74
1070
     0
1000
MTEXTEND
  0
POINT
  5
6897
330
63A8
100
AcDbEntity
  8
Defpoints
  6
Continuous
 62
     0
100
AcDbPoint
 10
1626.759659284994
 20
584.5393375433222
 30
0.0
  0
POINT
  5
6898
330
63A8
100
AcDbEntity
  8
Defpoints
  6
Continuous
 62
     0
100
AcDbPoint
 10
1628.759659284994
 20
585.5434605433222
 30
0.0
  0
POINT
  5
6899
330
63A8
100
AcDbEntity
  8
Defpoints
  6
Continuous
 62
     0
100
AcDbPoint
 10
1628.759659284994
 20
590.5747825433222
 30
0.0
  0
ENDBLK
  5
63B4
330
63A8
100
AcDbEntity
  8
0
100
AcDbBlockEnd
  0
BLOCK
  5
63CA
330
63C0
100
AcDbEntity
  8
0
100
AcDbBlockBegin
  2
*D32
 70
     1
 10
0.0
 20
0.0
 30
0.0
  3
*D32
  1

  0
LINE
  5
689A
330
63C0
100
AcDbEntity
  8
寸法
  6
Continuous
 62
     4
370
    -2
100
AcDbLine
 10
1626.759659284994
 20
584.5393375433222
 30
0.0
 11
1626.759659284994
 21
596.1624445433222
 31
0.0
  0
LINE
  5
689B
330
63C0
100
AcDbEntity
  8
寸法
  6
Continuous
 62
     4
370
    -2
100
AcDbLine
 10
1634.759659284994
 20
581.3836815433222
 30
0.0
 11
1634.759659284994
 21
596.1624445433222
 31
0.0
  0
LINE
  5
689C
330
63C0
100
AcDbEntity
  8
寸法
  6
Continuous
 62
     4
370
    -2
100
AcDbLine
 10
1627.759659284994
 20
596.1624445433222
 30
0.0
 11
1633.759659284994
 21
596.1624445433222
 31
0.0
  0
INSERT
  5
689D
330
63C0
100
AcDbEntity
  8
寸法
  6
Continuous
 62
     4
370
    -2
100
AcDbBlockReference
  2
_Dot
 10
1626.759659284994
 20
596.1624445433222
 30
0.0
 50
180.0
  0
INSERT
  5
689E
330
63C0
100
AcDbEntity
  8
寸法
  6
Continuous
 62
     4
370
    -2
100
AcDbBlockReference
  2
_Dot
 10
1634.759659284994
 20
596.1624445433222
 30
0.0
  0
MTEXT
  5
689F
330
63C0
100
AcDbEntity
  8
寸法
  6
Continuous
 62
     3
100
AcDbMText
 10
1630.759659284994
 20
598.6624445433221
 30
0.0
 40
3.0
 41
0.0
 71
     5
 72
     1
  1
\A1;8
  7
ACAD
 73
     1
 44
1.0
1001
ACAD
1000
MTEXTBEGIN
1070
    73
1070
     1
1070
    44
1040
1.0
1070
    74
1070
     0
1000
MTEXTEND
  0
POINT
  5
68A0
330
63C0
100
AcDbEntity
  8
Defpoints
  6
Continuous
 62
     0
100
AcDbPoint
 10
1626.759659284994
 20
584.5393375433222
 30
0.0
  0
POINT
  5
68A1
330
63C0
100
AcDbEntity
  8
Defpoints
  6
Continuous
 62
     0
100
AcDbPoint
 10
1634.759659284994
 20
581.3836815433222
 30
0.0
  0
POINT
  5
68A2
330
63C0
100
AcDbEntity
  8
Defpoints
  6
Continuous
 62
     0
100
AcDbPoint
 10
1634.759659284994
 20
596.1624445433222
 30
0.0
  0
ENDBLK
  5
63CB
330
63C0
100
AcDbEntity
  8
0
100
AcDbBlockEnd
  0
BLOCK
  5
63D7
330
63CD
100
AcDbEntity
  8
0
100
AcDbBlockBegin
  2
*D33
 70
     1
 10
0.0
 20
0.0
 30
0.0
  3
*D33
  1

  0
LINE
  5
68A3
330
63CD
100
AcDbEntity
  8
寸法
  6
Continuous
 62
     4
370
    -2
100
AcDbLine
 10
1634.759659284994
 20
581.3836815433222
 30
0.0
 11
1634.759659284994
 21
596.1624445433222
 31
0.0
  0
LINE
  5
68A4
330
63CD
100
AcDbEntity
  8
寸法
  6
Continuous
 62
     4
370
    -2
100
AcDbLine
 10
1646.759659284994
 20
584.4870815433222
 30
0.0
 11
1646.759659284994
 21
596.1624445433222
 31
0.0
  0
LINE
  5
68A5
330
63CD
100
AcDbEntity
  8
寸法
  6
Continuous
 62
     4
370
    -2
100
AcDbLine
 10
1635.759659284994
 20
596.1624445433222
 30
0.0
 11
1645.759659284994
 21
596.1624445433222
 31
0.0
  0
INSERT
  5
68A6
330
63CD
100
AcDbEntity
  8
寸法
  6
Continuous
 62
     4
370
    -2
100
AcDbBlockReference
  2
_Dot
 10
1634.759659284994
 20
596.1624445433222
 30
0.0
 50
180.0
  0
INSERT
  5
68A7
330
63CD
100
AcDbEntity
  8
寸法
  6
Continuous
 62
     4
370
    -2
100
AcDbBlockReference
  2
_Dot
 10
1646.759659284994
 20
596.1624445433222
 30
0.0
  0
MTEXT
  5
68A8
330
63CD
100
AcDbEntity
  8
寸法
  6
Continuous
 62
     3
100
AcDbMText
 10
1640.759659284994
 20
598.6624445433221
 30
0.0
 40
3.0
 41
0.0
 71
     5
 72
     1
  1
\A1;12
  7
ACAD
 73
     1
 44
1.0
1001
ACAD
1000
MTEXTBEGIN
1070
    73
1070
     1
1070
    44
1040
1.0
1070
    74
1070
     0
1000
MTEXTEND
  0
POINT
  5
68A9
330
63CD
100
AcDbEntity
  8
Defpoints
  6
Continuous
 62
     0
100
AcDbPoint
 10
1634.759659284994
 20
581.3836815433222
 30
0.0
  0
POINT
  5
68AA
330
63CD
100
AcDbEntity
  8
Defpoints
  6
Continuous
 62
     0
100
AcDbPoint
 10
1646.759659284994
 20
584.4870815433222
 30
0.0
  0
POINT
  5
68AB
330
63CD
100
AcDbEntity
  8
Defpoints
  6
Continuous
 62
     0
100
AcDbPoint
 10
1646.759659284994
 20
596.1624445433222
 30
0.0
  0
ENDBLK
  5
63D8
330
63CD
100
AcDbEntity
  8
0
100
AcDbBlockEnd
  0
BLOCK
  5
63E3
330
63DA
100
AcDbEntity
  8
0
100
AcDbBlockBegin
  2
*D34
 70
     1
 10
0.0
 20
0.0
 30
0.0
  3
*D34
  1

  0
LINE
  5
68AC
330
63DA
100
AcDbEntity
  8
寸法
  6
Continuous
 62
     4
370
    -2
100
AcDbLine
 10
1646.759659284994
 20
590.5270965433222
 30
0.0
 11
1646.759659284994
 21
590.5747825433222
 31
0.0
  0
LINE
  5
68AD
330
63DA
100
AcDbEntity
  8
寸法
  6
Continuous
 62
     4
370
    -2
100
AcDbLine
 10
1641.759659284994
 20
590.5747825433222
 30
0.0
 11
1645.759659284994
 21
590.5747825433222
 31
0.0
  0
INSERT
  5
68AE
330
63DA
100
AcDbEntity
  8
寸法
  6
Continuous
 62
     4
370
    -2
100
AcDbBlockReference
  2
_Dot
 10
1640.759659284994
 20
590.5747825433222
 30
0.0
 50
180.0
  0
INSERT
  5
68AF
330
63DA
100
AcDbEntity
  8
寸法
  6
Continuous
 62
     4
370
    -2
100
AcDbBlockReference
  2
_Dot
 10
1646.759659284994
 20
590.5747825433222
 30
0.0
  0
MTEXT
  5
68B0
330
63DA
100
AcDbEntity
  8
寸法
  6
Continuous
 62
     3
100
AcDbMText
 10
1643.759659284994
 20
593.0747825433222
 30
0.0
 40
3.0
 41
0.0
 71
     5
 72
     1
  1
\A1;6
  7
ACAD
 73
     1
 44
1.0
1001
ACAD
1000
MTEXTBEGIN
1070
    73
1070
     1
1070
    44
1040
1.0
1070
    74
1070
     0
1000
MTEXTEND
  0
POINT
  5
68B1
330
63DA
100
AcDbEntity
  8
Defpoints
  6
Continuous
 62
     0
100
AcDbPoint
 10
1640.759659284994
 20
590.5747825433222
 30
0.0
  0
POINT
  5
68B2
330
63DA
100
AcDbEntity
  8
Defpoints
  6
Continuous
 62
     0
100
AcDbPoint
 10
1646.759659284994
 20
590.5270965433222
 30
0.0
  0
POINT
  5
68B3
330
63DA
100
AcDbEntity
  8
Defpoints
  6
Continuous
 62
     0
100
AcDbPoint
 10
1646.759659284994
 20
590.5747825433222
 30
0.0
  0
ENDBLK
  5
63E4
330
63DA
100
AcDbEntity
  8
0
100
AcDbBlockEnd
  0
BLOCK
  5
63F0
330
63E6
100
AcDbEntity
  8
0
100
AcDbBlockBegin
  2
*D35
 70
     1
 10
0.0
 20
0.0
 30
0.0
  3
*D35
  1

  0
LINE
  5
68B4
330
63E6
100
AcDbEntity
  8
寸法
  6
Continuous
 62
     4
370
    -2
100
AcDbLine
 10
1626.509659284994
 20
596.1624445433222
 30
0.0
 11
1626.509659284994
 21
601.2497735433222
 31
0.0
  0
LINE
  5
68B5
330
63E6
100
AcDbEntity
  8
寸法
  6
Continuous
 62
     4
370
    -2
100
AcDbLine
 10
1646.509659284994
 20
596.1624445433222
 30
0.0
 11
1646.509659284994
 21
601.2497735433222
 31
0.0
  0
LINE
  5
68B6
330
63E6
100
AcDbEntity
  8
寸法
  6
Continuous
 62
     4
370
    -2
100
AcDbLine
 10
1627.509659284994
 20
601.2497735433222
 30
0.0
 11
1645.509659284994
 21
601.2497735433222
 31
0.0
  0
INSERT
  5
68B7
330
63E6
100
AcDbEntity
  8
寸法
  6
Continuous
 62
     4
370
    -2
100
AcDbBlockReference
  2
_Dot
 10
1626.509659284994
 20
601.2497735433222
 30
0.0
 50
180.0
  0
INSERT
  5
68B8
330
63E6
100
AcDbEntity
  8
寸法
  6
Continuous
 62
     4
370
    -2
100
AcDbBlockReference
  2
_Dot
 10
1646.509659284994
 20
601.2497735433222
 30
0.0
  0
MTEXT
  5
68B9
330
63E6
100
AcDbEntity
  8
寸法
  6
Continuous
 62
     3
100
AcDbMText
 10
1636.509659284994
 20
603.7497735433222
 30
0.0
 40
3.0
 41
0.0
 71
     5
 72
     1
  1
\A1;20
  7
ACAD
 73
     1
 44
1.0
1001
ACAD
1000
MTEXTBEGIN
1070
    73
1070
     1
1070
    44
1040
1.0
1070
    74
1070
     0
1000
MTEXTEND
  0
POINT
  5
68BA
330
63E6
100
AcDbEntity
  8
Defpoints
  6
Continuous
 62
     0
100
AcDbPoint
 10
1626.509659284994
 20
596.1624445433222
 30
0.0
  0
POINT
  5
68BB
330
63E6
100
AcDbEntity
  8
Defpoints
  6
Continuous
 62
     0
100
AcDbPoint
 10
1646.509659284994
 20
596.1624445433222
 30
0.0
  0
POINT
  5
68BC
330
63E6
100
AcDbEntity
  8
Defpoints
  6
Continuous
 62
     0
100
AcDbPoint
 10
1646.509659284994
 20
601.2497735433222
 30
0.0
  0
ENDBLK
  5
63F1
330
63E6
100
AcDbEntity
  8
0
100
AcDbBlockEnd
  0
BLOCK
  5
63FE
330
63F3
100
AcDbEntity
  8
0
100
AcDbBlockBegin
  2
*D36
 70
     1
 10
0.0
 20
0.0
 30
0.0
  3
*D36
  1

  0
LINE
  5
68BD
330
63F3
100
AcDbEntity
  8
寸法
  6
Continuous
 62
     4
370
    -2
100
AcDbLine
 10
1648.870497284994
 20
583.7497735433222
 30
0.0
 11
1661.171762284994
 21
583.7497735433222
 31
0.0
  0
LINE
  5
68BE
330
63F3
100
AcDbEntity
  8
寸法
  6
Continuous
 62
     4
370
    -2
100
AcDbLine
 10
1649.205612284994
 20
580.7497735433222
 30
0.0
 11
1661.171762284994
 21
580.7497735433222
 31
0.0
  0
LINE
  5
68BF
330
63F3
100
AcDbEntity
  8
寸法
  6
Continuous
 62
     4
370
    -2
100
AcDbLine
 10
1661.171762284994
 20
584.7497735433222
 30
0.0
 11
1661.171762284994
 21
585.7497735433222
 31
0.0
  0
LINE
  5
68C0
330
63F3
100
AcDbEntity
  8
寸法
  6
Continuous
 62
     4
370
    -2
100
AcDbLine
 10
1661.171762284994
 20
579.7497735433222
 30
0.0
 11
1661.171762284994
 21
578.7497735433222
 31
0.0
  0
INSERT
  5
68C1
330
63F3
100
AcDbEntity
  8
寸法
  6
Continuous
 62
     4
370
    -2
100
AcDbBlockReference
  2
_Dot
 10
1661.171762284994
 20
583.7497735433222
 30
0.0
 50
270.0
  0
INSERT
  5
68C2
330
63F3
100
AcDbEntity
  8
寸法
  6
Continuous
 62
     4
370
    -2
100
AcDbBlockReference
  2
_Dot
 10
1661.171762284994
 20
580.7497735433222
 30
0.0
 50
90.0
  0
MTEXT
  5
68C3
330
63F3
100
AcDbEntity
  8
寸法
  6
Continuous
 62
     3
100
AcDbMText
 10
1658.671762284994
 20
582.2497735433224
 30
0.0
 40
3.0
 41
0.0
 71
     5
 72
     1
  1
\A1;3
  7
ACAD
 11
0.0000000000000001
 21
1.0
 31
0.0
 73
     1
 44
1.0
1001
ACAD
1000
MTEXTBEGIN
1070
    73
1070
     1
1070
    44
1040
1.0
1070
    74
1070
     0
1000
MTEXTEND
  0
POINT
  5
68C4
330
63F3
100
AcDbEntity
  8
Defpoints
  6
Continuous
 62
     0
100
AcDbPoint
 10
1648.870497284994
 20
583.7497735433222
 30
0.0
  0
POINT
  5
68C5
330
63F3
100
AcDbEntity
  8
Defpoints
  6
Continuous
 62
     0
100
AcDbPoint
 10
1649.205612284994
 20
580.7497735433222
 30
0.0
  0
POINT
  5
68C6
330
63F3
100
AcDbEntity
  8
Defpoints
  6
Continuous
 62
     0
100
AcDbPoint
 10
1661.171762284994
 20
580.7497735433222
 30
0.0
  0
ENDBLK
  5
63FF
330
63F3
100
AcDbEntity
  8
0
100
AcDbBlockEnd
  0
BLOCK
  5
640B
330
6401
100
AcDbEntity
  8
0
100
AcDbBlockBegin
  2
*D37
 70
     1
 10
0.0
 20
0.0
 30
0.0
  3
*D37
  1

  0
LINE
  5
68C7
330
6401
100
AcDbEntity
  8
寸法
  6
Continuous
 62
     4
370
    -2
100
AcDbLine
 10
1648.443281284994
 20
577.7497735433222
 30
0.0
 11
1661.171790284994
 21
577.7497735433222
 31
0.0
  0
LINE
  5
68C8
330
6401
100
AcDbEntity
  8
寸法
  6
Continuous
 62
     4
370
    -2
100
AcDbLine
 10
1657.681020284994
 20
569.7497735433223
 30
0.0
 11
1661.171790284994
 21
569.7497735433223
 31
0.0
  0
LINE
  5
68C9
330
6401
100
AcDbEntity
  8
寸法
  6
Continuous
 62
     4
370
    -2
100
AcDbLine
 10
1661.171790284994
 20
576.7497735433222
 30
0.0
 11
1661.171790284994
 21
570.7497735433222
 31
0.0
  0
INSERT
  5
68CA
330
6401
100
AcDbEntity
  8
寸法
  6
Continuous
 62
     4
370
    -2
100
AcDbBlockReference
  2
_Dot
 10
1661.171790284994
 20
577.7497735433222
 30
0.0
 50
90.0
  0
INSERT
  5
68CB
330
6401
100
AcDbEntity
  8
寸法
  6
Continuous
 62
     4
370
    -2
100
AcDbBlockReference
  2
_Dot
 10
1661.171790284994
 20
569.7497735433223
 30
0.0
 50
270.0
  0
MTEXT
  5
68CC
330
6401
100
AcDbEntity
  8
寸法
  6
Continuous
 62
     3
100
AcDbMText
 10
1658.671790284994
 20
573.7497735433224
 30
0.0
 40
3.0
 41
0.0
 71
     5
 72
     1
  1
\A1;8
  7
ACAD
 11
0.0000000000000001
 21
1.0
 31
0.0
 73
     1
 44
1.0
1001
ACAD
1000
MTEXTBEGIN
1070
    73
1070
     1
1070
    44
1040
1.0
1070
    74
1070
     0
1000
MTEXTEND
  0
POINT
  5
68CD
330
6401
100
AcDbEntity
  8
Defpoints
  6
Continuous
 62
     0
100
AcDbPoint
 10
1648.443281284994
 20
577.7497735433222
 30
0.0
  0
POINT
  5
68CE
330
6401
100
AcDbEntity
  8
Defpoints
  6
Continuous
 62
     0
100
AcDbPoint
 10
1657.681020284994
 20
569.7497735433223
 30
0.0
  0
POINT
  5
68CF
330
6401
100
AcDbEntity
  8
Defpoints
  6
Continuous
 62
     0
100
AcDbPoint
 10
1661.171790284994
 20
569.7497735433223
 30
0.0
  0
ENDBLK
  5
640C
330
6401
100
AcDbEntity
  8
0
100
AcDbBlockEnd
  0
BLOCK
  5
6418
330
640E
100
AcDbEntity
  8
0
100
AcDbBlockBegin
  2
*D38
 70
     1
 10
0.0
 20
0.0
 30
0.0
  3
*D38
  1

  0
LINE
  5
68D0
330
640E
100
AcDbEntity
  8
寸法
  6
Continuous
 62
     4
370
    -2
100
AcDbLine
 10
1657.681020284994
 20
569.7497735433223
 30
0.0
 11
1668.832180284994
 21
569.7497735433223
 31
0.0
  0
LINE
  5
68D1
330
640E
100
AcDbEntity
  8
寸法
  6
Continuous
 62
     4
370
    -2
100
AcDbLine
 10
1648.870497284994
 20
583.7497735433222
 30
0.0
 11
1668.832180284994
 21
583.7497735433222
 31
0.0
  0
LINE
  5
68D2
330
640E
100
AcDbEntity
  8
寸法
  6
Continuous
 62
     4
370
    -2
100
AcDbLine
 10
1668.832180284994
 20
570.7497735433222
 30
0.0
 11
1668.832180284994
 21
582.7497735433222
 31
0.0
  0
INSERT
  5
68D3
330
640E
100
AcDbEntity
  8
寸法
  6
Continuous
 62
     4
370
    -2
100
AcDbBlockReference
  2
_Dot
 10
1668.832180284994
 20
569.7497735433223
 30
0.0
 50
270.0
  0
INSERT
  5
68D4
330
640E
100
AcDbEntity
  8
寸法
  6
Continuous
 62
     4
370
    -2
100
AcDbBlockReference
  2
_Dot
 10
1668.832180284994
 20
583.7497735433222
 30
0.0
 50
90.0
  0
MTEXT
  5
68D5
330
640E
100
AcDbEntity
  8
寸法
  6
Continuous
 62
     3
100
AcDbMText
 10
1666.332180284994
 20
576.7497735433225
 30
0.0
 40
3.0
 41
0.0
 71
     5
 72
     1
  1
\A1;14
  7
ACAD
 11
0.0000000000000001
 21
1.0
 31
0.0
 73
     1
 44
1.0
1001
ACAD
1000
MTEXTBEGIN
1070
    73
1070
     1
1070
    44
1040
1.0
1070
    74
1070
     0
1000
MTEXTEND
  0
POINT
  5
68D6
330
640E
100
AcDbEntity
  8
Defpoints
  6
Continuous
 62
     0
100
AcDbPoint
 10
1657.681020284994
 20
569.7497735433223
 30
0.0
  0
POINT
  5
68D7
330
640E
100
AcDbEntity
  8
Defpoints
  6
Continuous
 62
     0
100
AcDbPoint
 10
1648.870497284994
 20
583.7497735433222
 30
0.0
  0
POINT
  5
68D8
330
640E
100
AcDbEntity
  8
Defpoints
  6
Continuous
 62
     0
100
AcDbPoint
 10
1668.832180284994
 20
583.7497735433222
 30
0.0
  0
ENDBLK
  5
6419
330
640E
100
AcDbEntity
  8
0
100
AcDbBlockEnd
  0
BLOCK
  5
6425
330
641B
100
AcDbEntity
  8
0
100
AcDbBlockBegin
  2
*D39
 70
     1
 10
0.0
 20
0.0
 30
0.0
  3
*D39
  1

  0
LINE
  5
68D9
330
641B
100
AcDbEntity
  8
寸法
  6
Continuous
 62
     4
370
    -2
100
AcDbLine
 10
1634.759659284994
 20
566.7497735433222
 30
0.0
 11
1634.759659284994
 21
557.7497735433222
 31
0.0
  0
LINE
  5
68DA
330
641B
100
AcDbEntity
  8
寸法
  6
Continuous
 62
     4
370
    -2
100
AcDbLine
 10
1644.759659284994
 20
567.4018315433222
 30
0.0
 11
1644.759659284994
 21
557.7497735433222
 31
0.0
  0
LINE
  5
68DB
330
641B
100
AcDbEntity
  8
寸法
  6
Continuous
 62
     4
370
    -2
100
AcDbLine
 10
1635.759659284994
 20
557.7497735433222
 30
0.0
 11
1643.759659284994
 21
557.7497735433222
 31
0.0
  0
INSERT
  5
68DC
330
641B
100
AcDbEntity
  8
寸法
  6
Continuous
 62
     4
370
    -2
100
AcDbBlockReference
  2
_Dot
 10
1634.759659284994
 20
557.7497735433222
 30
0.0
 50
180.0
  0
INSERT
  5
68DD
330
641B
100
AcDbEntity
  8
寸法
  6
Continuous
 62
     4
370
    -2
100
AcDbBlockReference
  2
_Dot
 10
1644.759659284994
 20
557.7497735433222
 30
0.0
  0
MTEXT
  5
68DE
330
641B
100
AcDbEntity
  8
寸法
  6
Continuous
 62
     3
100
AcDbMText
 10
1639.759659284994
 20
560.2497735433222
 30
0.0
 40
3.0
 41
0.0
 71
     5
 72
     1
  1
\A1;10
  7
ACAD
 73
     1
 44
1.0
1001
ACAD
1000
MTEXTBEGIN
1070
    73
1070
     1
1070
    44
1040
1.0
1070
    74
1070
     0
1000
MTEXTEND
  0
POINT
  5
68DF
330
641B
100
AcDbEntity
  8
Defpoints
  6
Continuous
 62
     0
100
AcDbPoint
 10
1634.759659284994
 20
566.7497735433222
 30
0.0
  0
POINT
  5
68E0
330
641B
100
AcDbEntity
  8
Defpoints
  6
Continuous
 62
     0
100
AcDbPoint
 10
1644.759659284994
 20
567.4018315433222
 30
0.0
  0
POINT
  5
68E1
330
641B
100
AcDbEntity
  8
Defpoints
  6
Continuous
 62
     0
100
AcDbPoint
 10
1644.759659284994
 20
557.7497735433222
 30
0.0
  0
ENDBLK
  5
6426
330
641B
100
AcDbEntity
  8
0
100
AcDbBlockEnd
  0
BLOCK
  5
6432
330
6428
100
AcDbEntity
  8
0
100
AcDbBlockBegin
  2
*D40
 70
     1
 10
0.0
 20
0.0
 30
0.0
  3
*D40
  1

  0
LINE
  5
68E2
330
6428
100
AcDbEntity
  8
寸法
  6
Continuous
 62
     4
370
    -2
100
AcDbLine
 10
1634.759659284994
 20
566.7497735433222
 30
0.0
 11
1634.759659284994
 21
557.7497735433222
 31
0.0
  0
LINE
  5
68E3
330
6428
100
AcDbEntity
  8
寸法
  6
Continuous
 62
     4
370
    -2
100
AcDbLine
 10
1434.759659284994
 20
566.7497735433222
 30
0.0
 11
1434.759659284994
 21
557.7497735433222
 31
0.0
  0
LINE
  5
68E4
330
6428
100
AcDbEntity
  8
寸法
  6
Continuous
 62
     4
370
    -2
100
AcDbLine
 10
1633.759659284994
 20
557.7497735433222
 30
0.0
 11
1435.759659284994
 21
557.7497735433222
 31
0.0
  0
INSERT
  5
68E5
330
6428
100
AcDbEntity
  8
寸法
  6
Continuous
 62
     4
370
    -2
100
AcDbBlockReference
  2
_Dot
 10
1634.759659284994
 20
557.7497735433222
 30
0.0
  0
INSERT
  5
68E6
330
6428
100
AcDbEntity
  8
寸法
  6
Continuous
 62
     4
370
    -2
100
AcDbBlockReference
  2
_Dot
 10
1434.759659284994
 20
557.7497735433222
 30
0.0
 50
180.0
  0
MTEXT
  5
68E7
330
6428
100
AcDbEntity
  8
寸法
  6
Continuous
 62
     3
100
AcDbMText
 10
1534.759659284994
 20
560.2497735433222
 30
0.0
 40
3.0
 41
0.0
 71
     5
 72
     1
  1
\A1;200
  7
ACAD
 73
     1
 44
1.0
1001
ACAD
1000
MTEXTBEGIN
1070
    73
1070
     1
1070
    44
1040
1.0
1070
    74
1070
     0
1000
MTEXTEND
  0
POINT
  5
68E8
330
6428
100
AcDbEntity
  8
Defpoints
  6
Continuous
 62
     0
100
AcDbPoint
 10
1634.759659284994
 20
566.7497735433222
 30
0.0
  0
POINT
  5
68E9
330
6428
100
AcDbEntity
  8
Defpoints
  6
Continuous
 62
     0
100
AcDbPoint
 10
1434.759659284994
 20
566.7497735433222
 30
0.0
  0
POINT
  5
68EA
330
6428
100
AcDbEntity
  8
Defpoints
  6
Continuous
 62
     0
100
AcDbPoint
 10
1434.759659284994
 20
557.7497735433222
 30
0.0
  0
ENDBLK
  5
6433
330
6428
100
AcDbEntity
  8
0
100
AcDbBlockEnd
  0
BLOCK
  5
643F
330
6435
100
AcDbEntity
  8
0
100
AcDbBlockBegin
  2
*D41
 70
     1
 10
0.0
 20
0.0
 30
0.0
  3
*D41
  1

  0
LINE
  5
68EB
330
6435
100
AcDbEntity
  8
寸法
  6
Continuous
 62
     4
370
    -2
100
AcDbLine
 10
1434.759659284994
 20
566.7497735433222
 30
0.0
 11
1434.759659284994
 21
557.7497735433222
 31
0.0
  0
LINE
  5
68EC
330
6435
100
AcDbEntity
  8
寸法
  6
Continuous
 62
     4
370
    -2
100
AcDbLine
 10
1418.759659284994
 20
574.7497735433222
 30
0.0
 11
1418.759659284994
 21
557.7497735433222
 31
0.0
  0
LINE
  5
68ED
330
6435
100
AcDbEntity
  8
寸法
  6
Continuous
 62
     4
370
    -2
100
AcDbLine
 10
1433.759659284994
 20
557.7497735433222
 30
0.0
 11
1419.759659284994
 21
557.7497735433222
 31
0.0
  0
INSERT
  5
68EE
330
6435
100
AcDbEntity
  8
寸法
  6
Continuous
 62
     4
370
    -2
100
AcDbBlockReference
  2
_Dot
 10
1434.759659284994
 20
557.7497735433222
 30
0.0
  0
INSERT
  5
68EF
330
6435
100
AcDbEntity
  8
寸法
  6
Continuous
 62
     4
370
    -2
100
AcDbBlockReference
  2
_Dot
 10
1418.759659284994
 20
557.7497735433222
 30
0.0
 50
180.0
  0
MTEXT
  5
68F0
330
6435
100
AcDbEntity
  8
寸法
  6
Continuous
 62
     3
100
AcDbMText
 10
1426.759659284994
 20
560.2497735433222
 30
0.0
 40
3.0
 41
0.0
 71
     5
 72
     1
  1
\A1;16
  7
ACAD
 73
     1
 44
1.0
1001
ACAD
1000
MTEXTBEGIN
1070
    73
1070
     1
1070
    44
1040
1.0
1070
    74
1070
     0
1000
MTEXTEND
  0
POINT
  5
68F1
330
6435
100
AcDbEntity
  8
Defpoints
  6
Continuous
 62
     0
100
AcDbPoint
 10
1434.759659284994
 20
566.7497735433222
 30
0.0
  0
POINT
  5
68F2
330
6435
100
AcDbEntity
  8
Defpoints
  6
Continuous
 62
     0
100
AcDbPoint
 10
1418.759659284994
 20
574.7497735433222
 30
0.0
  0
POINT
  5
68F3
330
6435
100
AcDbEntity
  8
Defpoints
  6
Continuous
 62
     0
100
AcDbPoint
 10
1418.759659284994
 20
557.7497735433222
 30
0.0
  0
ENDBLK
  5
6440
330
6435
100
AcDbEntity
  8
0
100
AcDbBlockEnd
  0
BLOCK
  5
644C
330
6442
100
AcDbEntity
  8
0
100
AcDbBlockBegin
  2
*D42
 70
     1
 10
0.0
 20
0.0
 30
0.0
  3
*D42
  1

  0
LINE
  5
68F4
330
6442
100
AcDbEntity
  8
寸法
  6
Continuous
 62
     4
370
    -2
100
AcDbLine
 10
1431.784258284994
 20
569.7497735433223
 30
0.0
 11
1406.937204284994
 21
569.7497735433223
 31
0.0
  0
LINE
  5
68F5
330
6442
100
AcDbEntity
  8
寸法
  6
Continuous
 62
     4
370
    -2
100
AcDbLine
 10
1415.759659284994
 20
577.7497735433222
 30
0.0
 11
1406.937204284994
 21
577.7497735433222
 31
0.0
  0
LINE
  5
68F6
330
6442
100
AcDbEntity
  8
寸法
  6
Continuous
 62
     4
370
    -2
100
AcDbLine
 10
1406.937204284994
 20
570.7497735433222
 30
0.0
 11
1406.937204284994
 21
576.7497735433222
 31
0.0
  0
INSERT
  5
68F7
330
6442
100
AcDbEntity
  8
寸法
  6
Continuous
 62
     4
370
    -2
100
AcDbBlockReference
  2
_Dot
 10
1406.937204284994
 20
569.7497735433223
 30
0.0
 50
270.0
  0
INSERT
  5
68F8
330
6442
100
AcDbEntity
  8
寸法
  6
Continuous
 62
     4
370
    -2
100
AcDbBlockReference
  2
_Dot
 10
1406.937204284994
 20
577.7497735433222
 30
0.0
 50
90.0
  0
MTEXT
  5
68F9
330
6442
100
AcDbEntity
  8
寸法
  6
Continuous
 62
     3
100
AcDbMText
 10
1404.437204284994
 20
573.7497735433224
 30
0.0
 40
3.0
 41
0.0
 71
     5
 72
     1
  1
\A1;8
  7
ACAD
 11
0.0000000000000001
 21
1.0
 31
0.0
 73
     1
 44
1.0
1001
ACAD
1000
MTEXTBEGIN
1070
    73
1070
     1
1070
    44
1040
1.0
1070
    74
1070
     0
1000
MTEXTEND
  0
POINT
  5
68FA
330
6442
100
AcDbEntity
  8
Defpoints
  6
Continuous
 62
     0
100
AcDbPoint
 10
1431.784258284994
 20
569.7497735433223
 30
0.0
  0
POINT
  5
68FB
330
6442
100
AcDbEntity
  8
Defpoints
  6
Continuous
 62
     0
100
AcDbPoint
 10
1415.759659284994
 20
577.7497735433222
 30
0.0
  0
POINT
  5
68FC
330
6442
100
AcDbEntity
  8
Defpoints
  6
Continuous
 62
     0
100
AcDbPoint
 10
1406.937204284994
 20
577.7497735433222
 30
0.0
  0
ENDBLK
  5
644D
330
6442
100
AcDbEntity
  8
0
100
AcDbBlockEnd
  0
BLOCK
  5
645A
330
644F
100
AcDbEntity
  8
0
100
AcDbBlockBegin
  2
*D43
 70
     1
 10
0.0
 20
0.0
 30
0.0
  3
*D43
  1

  0
LINE
  5
6B31
330
644F
100
AcDbEntity
  8
寸法
  6
Continuous
 62
     4
370
    -2
100
AcDbLine
 10
1415.759659284994
 20
577.7497735433222
 30
0.0
 11
1406.937204284994
 21
577.7497735433222
 31
0.0
  0
LINE
  5
6B32
330
644F
100
AcDbEntity
  8
寸法
  6
Continuous
 62
     4
370
    -2
100
AcDbLine
 10
1415.718408284994
 20
581.7497735433222
 30
0.0
 11
1406.937204284994
 21
581.7497735433222
 31
0.0
  0
LINE
  5
6B33
330
644F
100
AcDbEntity
  8
寸法
  6
Continuous
 62
     4
370
    -2
100
AcDbLine
 10
1406.937204284994
 20
578.7497735433222
 30
0.0
 11
1406.937204284994
 21
580.7497735433222
 31
0.0
  0
INSERT
  5
6B34
330
644F
100
AcDbEntity
  8
寸法
  6
Continuous
 62
     4
370
    -2
100
AcDbBlockReference
  2
_Dot
 10
1406.937204284994
 20
577.7497735433222
 30
0.0
 50
270.0
  0
INSERT
  5
6B35
330
644F
100
AcDbEntity
  8
寸法
  6
Continuous
 62
     4
370
    -2
100
AcDbBlockReference
  2
_Dot
 10
1406.937204284994
 20
581.7497735433222
 30
0.0
 50
90.0
  0
MTEXT
  5
6B36
330
644F
100
AcDbEntity
  8
寸法
  6
Continuous
 62
     3
100
AcDbMText
 10
1404.437204284994
 20
579.6777270912343
 30
0.0
 40
3.0
 41
0.0
 71
     5
 72
     1
  1
\A1;4
  7
ACAD
 11
0.0000000000000001
 21
1.0
 31
0.0
 73
     1
 44
1.0
1001
ACAD
1000
MTEXTBEGIN
1070
    73
1070
     1
1070
    44
1040
1.0
1070
    74
1070
     0
1000
MTEXTEND
  0
POINT
  5
6B37
330
644F
100
AcDbEntity
  8
Defpoints
  6
Continuous
 62
     0
100
AcDbPoint
 10
1415.759659284994
 20
577.7497735433222
 30
0.0
  0
POINT
  5
6B38
330
644F
100
AcDbEntity
  8
Defpoints
  6
Continuous
 62
     0
100
AcDbPoint
 10
1415.718408284994
 20
581.7497735433222
 30
0.0
  0
POINT
  5
6B39
330
644F
100
AcDbEntity
  8
Defpoints
  6
Continuous
 62
     0
100
AcDbPoint
 10
1406.937204284994
 20
581.7497735433222
 30
0.0
  0
ENDBLK
  5
645B
330
644F
100
AcDbEntity
  8
0
100
AcDbBlockEnd
  0
BLOCK
  5
6467
330
645D
100
AcDbEntity
  8
0
100
AcDbBlockBegin
  2
*D44
 70
     1
 10
0.0
 20
0.0
 30
0.0
  3
*D44
  1

  0
LINE
  5
6ACE
330
645D
100
AcDbEntity
  8
寸法
  6
Continuous
 62
     4
370
    -2
100
AcDbLine
 10
1333.414675284994
 20
577.7497735433222
 30
0.0
 11
1326.265339812956
 21
577.7497735433222
 31
0.0
  0
LINE
  5
6ACF
330
645D
100
AcDbEntity
  8
寸法
  6
Continuous
 62
     4
370
    -2
100
AcDbLine
 10
1333.414675284994
 20
582.7497735433222
 30
0.0
 11
1326.265339812956
 21
582.7497735433222
 31
0.0
  0
LINE
  5
6AD0
330
645D
100
AcDbEntity
  8
寸法
  6
Continuous
 62
     4
370
    -2
100
AcDbLine
 10
1326.265339812956
 20
578.7497735433222
 30
0.0
 11
1326.265339812956
 21
581.7497735433222
 31
0.0
  0
INSERT
  5
6AD1
330
645D
100
AcDbEntity
  8
寸法
  6
Continuous
 62
     4
370
    -2
100
AcDbBlockReference
  2
_Dot
 10
1326.265339812956
 20
577.7497735433222
 30
0.0
 50
270.0
  0
INSERT
  5
6AD2
330
645D
100
AcDbEntity
  8
寸法
  6
Continuous
 62
     4
370
    -2
100
AcDbBlockReference
  2
_Dot
 10
1326.265339812956
 20
582.7497735433222
 30
0.0
 50
90.0
  0
MTEXT
  5
6AD3
330
645D
100
AcDbEntity
  8
寸法
  6
Continuous
 62
     3
100
AcDbMText
 10
1322.979625527242
 20
580.2497735433225
 30
0.0
 40
3.0
 41
0.0
 71
     5
 72
     1
  1
\A1;(5)
  7
ACAD
 11
0.0000000000000001
 21
1.0
 31
0.0
 73
     1
 44
1.0
1001
ACAD
1000
MTEXTBEGIN
1070
    73
1070
     1
1070
    44
1040
1.0
1070
    74
1070
     0
1000
MTEXTEND
  0
POINT
  5
6AD4
330
645D
100
AcDbEntity
  8
Defpoints
  6
Continuous
 62
     0
100
AcDbPoint
 10
1333.414675284994
 20
577.7497735433222
 30
0.0
  0
POINT
  5
6AD5
330
645D
100
AcDbEntity
  8
Defpoints
  6
Continuous
 62
     0
100
AcDbPoint
 10
1333.414675284994
 20
582.7497735433222
 30
0.0
  0
POINT
  5
6AD6
330
645D
100
AcDbEntity
  8
Defpoints
  6
Continuous
 62
     0
100
AcDbPoint
 10
1326.265339812956
 20
582.7497735433222
 30
0.0
  0
ENDBLK
  5
6468
330
645D
100
AcDbEntity
  8
0
100
AcDbBlockEnd
  0
BLOCK
  5
647E
330
6474
100
AcDbEntity
  8
0
100
AcDbBlockBegin
  2
*D45
 70
     1
 10
0.0
 20
0.0
 30
0.0
  3
*D45
  1

  0
LINE
  5
6911
330
6474
100
AcDbEntity
  8
寸法
  6
Continuous
 62
     4
370
    -2
100
AcDbLine
 10
1333.414675284994
 20
576.7497735433222
 30
0.0
 11
1316.414675284994
 21
576.7497735433222
 31
0.0
  0
LINE
  5
6912
330
6474
100
AcDbEntity
  8
寸法
  6
Continuous
 62
     4
370
    -2
100
AcDbLine
 10
1333.414675284994
 20
583.7497735433222
 30
0.0
 11
1316.414675284994
 21
583.7497735433222
 31
0.0
  0
LINE
  5
6913
330
6474
100
AcDbEntity
  8
寸法
  6
Continuous
 62
     4
370
    -2
100
AcDbLine
 10
1316.414675284994
 20
577.7497735433222
 30
0.0
 11
1316.414675284994
 21
582.7497735433222
 31
0.0
  0
INSERT
  5
6914
330
6474
100
AcDbEntity
  8
寸法
  6
Continuous
 62
     4
370
    -2
100
AcDbBlockReference
  2
_Dot
 10
1316.414675284994
 20
576.7497735433222
 30
0.0
 50
270.0
  0
INSERT
  5
6915
330
6474
100
AcDbEntity
  8
寸法
  6
Continuous
 62
     4
370
    -2
100
AcDbBlockReference
  2
_Dot
 10
1316.414675284994
 20
583.7497735433222
 30
0.0
 50
90.0
  0
MTEXT
  5
6916
330
6474
100
AcDbEntity
  8
寸法
  6
Continuous
 62
     3
100
AcDbMText
 10
1313.914675284994
 20
580.2497735433225
 30
0.0
 40
3.0
 41
0.0
 71
     5
 72
     1
  1
\A1;7
  7
ACAD
 11
0.0000000000000001
 21
1.0
 31
0.0
 73
     1
 44
1.0
1001
ACAD
1000
MTEXTBEGIN
1070
    73
1070
     1
1070
    44
1040
1.0
1070
    74
1070
     0
1000
MTEXTEND
  0
POINT
  5
6917
330
6474
100
AcDbEntity
  8
Defpoints
  6
Continuous
 62
     0
100
AcDbPoint
 10
1333.414675284994
 20
576.7497735433222
 30
0.0
  0
POINT
  5
6918
330
6474
100
AcDbEntity
  8
Defpoints
  6
Continuous
 62
     0
100
AcDbPoint
 10
1333.414675284994
 20
583.7497735433222
 30
0.0
  0
POINT
  5
6919
330
6474
100
AcDbEntity
  8
Defpoints
  6
Continuous
 62
     0
100
AcDbPoint
 10
1316.414675284994
 20
583.7497735433222
 30
0.0
  0
ENDBLK
  5
647F
330
6474
100
AcDbEntity
  8
0
100
AcDbBlockEnd
  0
BLOCK
  5
6499
330
648E
100
AcDbEntity
  8
0
100
AcDbBlockBegin
  2
*D46
 70
     1
 10
0.0
 20
0.0
 30
0.0
  3
*D46
  1

  0
LINE
  5
691A
330
648E
100
AcDbEntity
  8
寸法
  6
Continuous
 62
     4
370
    -2
100
AcDbLine
 10
1337.414675284994
 20
586.1816965433222
 30
0.0
 11
1337.414675284994
 21
590.5747825433222
 31
0.0
  0
LINE
  5
691B
330
648E
100
AcDbEntity
  8
寸法
  6
Continuous
 62
     4
370
    -2
100
AcDbLine
 10
1340.414675284994
 20
585.8359405433223
 30
0.0
 11
1340.414675284994
 21
590.5747825433222
 31
0.0
  0
LINE
  5
691C
330
648E
100
AcDbEntity
  8
寸法
  6
Continuous
 62
     4
370
    -2
100
AcDbLine
 10
1336.414675284994
 20
590.5747825433222
 30
0.0
 11
1335.414675284994
 21
590.5747825433222
 31
0.0
  0
LINE
  5
691D
330
648E
100
AcDbEntity
  8
寸法
  6
Continuous
 62
     4
370
    -2
100
AcDbLine
 10
1341.414675284994
 20
590.5747825433222
 30
0.0
 11
1342.414675284994
 21
590.5747825433222
 31
0.0
  0
INSERT
  5
691E
330
648E
100
AcDbEntity
  8
寸法
  6
Continuous
 62
     4
370
    -2
100
AcDbBlockReference
  2
_Dot
 10
1337.414675284994
 20
590.5747825433222
 30
0.0
  0
INSERT
  5
691F
330
648E
100
AcDbEntity
  8
寸法
  6
Continuous
 62
     4
370
    -2
100
AcDbBlockReference
  2
_Dot
 10
1340.414675284994
 20
590.5747825433222
 30
0.0
 50
180.0
  0
MTEXT
  5
6920
330
648E
100
AcDbEntity
  8
寸法
  6
Continuous
 62
     3
100
AcDbMText
 10
1338.914675284994
 20
593.8604968290365
 30
0.0
 40
3.0
 41
0.0
 71
     5
 72
     1
  1
\A1;(3)
  7
ACAD
 73
     1
 44
1.0
1001
ACAD
1000
MTEXTBEGIN
1070
    73
1070
     1
1070
    44
1040
1.0
1070
    74
1070
     0
1000
MTEXTEND
  0
POINT
  5
6921
330
648E
100
AcDbEntity
  8
Defpoints
  6
Continuous
 62
     0
100
AcDbPoint
 10
1337.414675284994
 20
586.1816965433222
 30
0.0
  0
POINT
  5
6922
330
648E
100
AcDbEntity
  8
Defpoints
  6
Continuous
 62
     0
100
AcDbPoint
 10
1340.414675284994
 20
585.8359405433223
 30
0.0
  0
POINT
  5
6923
330
648E
100
AcDbEntity
  8
Defpoints
  6
Continuous
 62
     0
100
AcDbPoint
 10
1340.414675284994
 20
590.5747825433222
 30
0.0
  0
ENDBLK
  5
649A
330
648E
100
AcDbEntity
  8
0
100
AcDbBlockEnd
  0
BLOCK
  5
64B0
330
64A6
100
AcDbEntity
  8
0
100
AcDbBlockBegin
  2
*D47
 70
     1
 10
0.0
 20
0.0
 30
0.0
  3
*D47
  1

  0
LINE
  5
6924
330
64A6
100
AcDbEntity
  8
寸法
  6
Continuous
 62
     4
370
    -2
100
AcDbLine
 10
1337.414675284994
 20
586.1816965433222
 30
0.0
 11
1337.414675284994
 21
596.1624445433222
 31
0.0
  0
LINE
  5
6925
330
64A6
100
AcDbEntity
  8
寸法
  6
Continuous
 62
     4
370
    -2
100
AcDbLine
 10
1345.414675284994
 20
581.8836815433222
 30
0.0
 11
1345.414675284994
 21
596.1624445433222
 31
0.0
  0
LINE
  5
6926
330
64A6
100
AcDbEntity
  8
寸法
  6
Continuous
 62
     4
370
    -2
100
AcDbLine
 10
1338.414675284994
 20
596.1624445433222
 30
0.0
 11
1344.414675284994
 21
596.1624445433222
 31
0.0
  0
INSERT
  5
6927
330
64A6
100
AcDbEntity
  8
寸法
  6
Continuous
 62
     4
370
    -2
100
AcDbBlockReference
  2
_Dot
 10
1337.414675284994
 20
596.1624445433222
 30
0.0
 50
180.0
  0
INSERT
  5
6928
330
64A6
100
AcDbEntity
  8
寸法
  6
Continuous
 62
     4
370
    -2
100
AcDbBlockReference
  2
_Dot
 10
1345.414675284994
 20
596.1624445433222
 30
0.0
  0
MTEXT
  5
6929
330
64A6
100
AcDbEntity
  8
寸法
  6
Continuous
 62
     3
100
AcDbMText
 10
1341.414675284994
 20
598.6624445433221
 30
0.0
 40
3.0
 41
0.0
 71
     5
 72
     1
  1
\A1;8
  7
ACAD
 73
     1
 44
1.0
1001
ACAD
1000
MTEXTBEGIN
1070
    73
1070
     1
1070
    44
1040
1.0
1070
    74
1070
     0
1000
MTEXTEND
  0
POINT
  5
692A
330
64A6
100
AcDbEntity
  8
Defpoints
  6
Continuous
 62
     0
100
AcDbPoint
 10
1337.414675284994
 20
586.1816965433222
 30
0.0
  0
POINT
  5
692B
330
64A6
100
AcDbEntity
  8
Defpoints
  6
Continuous
 62
     0
100
AcDbPoint
 10
1345.414675284994
 20
581.8836815433222
 30
0.0
  0
POINT
  5
692C
330
64A6
100
AcDbEntity
  8
Defpoints
  6
Continuous
 62
     0
100
AcDbPoint
 10
1345.414675284994
 20
596.1624445433222
 30
0.0
  0
ENDBLK
  5
64B1
330
64A6
100
AcDbEntity
  8
0
100
AcDbBlockEnd
  0
BLOCK
  5
64BD
330
64B3
100
AcDbEntity
  8
0
100
AcDbBlockBegin
  2
*D48
 70
     1
 10
0.0
 20
0.0
 30
0.0
  3
*D48
  1

  0
LINE
  5
692D
330
64B3
100
AcDbEntity
  8
寸法
  6
Continuous
 62
     4
370
    -2
100
AcDbLine
 10
1345.414675284994
 20
581.8836815433222
 30
0.0
 11
1345.414675284994
 21
596.1624445433222
 31
0.0
  0
LINE
  5
692E
330
64B3
100
AcDbEntity
  8
寸法
  6
Continuous
 62
     4
370
    -2
100
AcDbLine
 10
1357.414675284994
 20
586.7497735433222
 30
0.0
 11
1357.414675284994
 21
596.1624445433222
 31
0.0
  0
LINE
  5
692F
330
64B3
100
AcDbEntity
  8
寸法
  6
Continuous
 62
     4
370
    -2
100
AcDbLine
 10
1346.414675284994
 20
596.1624445433222
 30
0.0
 11
1356.414675284994
 21
596.1624445433222
 31
0.0
  0
INSERT
  5
6930
330
64B3
100
AcDbEntity
  8
寸法
  6
Continuous
 62
     4
370
    -2
100
AcDbBlockReference
  2
_Dot
 10
1345.414675284994
 20
596.1624445433222
 30
0.0
 50
180.0
  0
INSERT
  5
6931
330
64B3
100
AcDbEntity
  8
寸法
  6
Continuous
 62
     4
370
    -2
100
AcDbBlockReference
  2
_Dot
 10
1357.414675284994
 20
596.1624445433222
 30
0.0
  0
MTEXT
  5
6932
330
64B3
100
AcDbEntity
  8
寸法
  6
Continuous
 62
     3
100
AcDbMText
 10
1351.414675284994
 20
598.6624445433221
 30
0.0
 40
3.0
 41
0.0
 71
     5
 72
     1
  1
\A1;12
  7
ACAD
 73
     1
 44
1.0
1001
ACAD
1000
MTEXTBEGIN
1070
    73
1070
     1
1070
    44
1040
1.0
1070
    74
1070
     0
1000
MTEXTEND
  0
POINT
  5
6933
330
64B3
100
AcDbEntity
  8
Defpoints
  6
Continuous
 62
     0
100
AcDbPoint
 10
1345.414675284994
 20
581.8836815433222
 30
0.0
  0
POINT
  5
6934
330
64B3
100
AcDbEntity
  8
Defpoints
  6
Continuous
 62
     0
100
AcDbPoint
 10
1357.414675284994
 20
586.7497735433222
 30
0.0
  0
POINT
  5
6935
330
64B3
100
AcDbEntity
  8
Defpoints
  6
Continuous
 62
     0
100
AcDbPoint
 10
1357.414675284994
 20
596.1624445433222
 30
0.0
  0
ENDBLK
  5
64BE
330
64B3
100
AcDbEntity
  8
0
100
AcDbBlockEnd
  0
BLOCK
  5
64C9
330
64C0
100
AcDbEntity
  8
0
100
AcDbBlockBegin
  2
*D49
 70
     1
 10
0.0
 20
0.0
 30
0.0
  3
*D49
  1

  0
LINE
  5
6936
330
64C0
100
AcDbEntity
  8
寸法
  6
Continuous
 62
     4
370
    -2
100
AcDbLine
 10
1357.414675284994
 20
590.5270965433222
 30
0.0
 11
1357.414675284994
 21
590.5747825433222
 31
0.0
  0
LINE
  5
6937
330
64C0
100
AcDbEntity
  8
寸法
  6
Continuous
 62
     4
370
    -2
100
AcDbLine
 10
1352.414675284994
 20
590.5747825433222
 30
0.0
 11
1356.414675284994
 21
590.5747825433222
 31
0.0
  0
INSERT
  5
6938
330
64C0
100
AcDbEntity
  8
寸法
  6
Continuous
 62
     4
370
    -2
100
AcDbBlockReference
  2
_Dot
 10
1351.414675284994
 20
590.5747825433222
 30
0.0
 50
180.0
  0
INSERT
  5
6939
330
64C0
100
AcDbEntity
  8
寸法
  6
Continuous
 62
     4
370
    -2
100
AcDbBlockReference
  2
_Dot
 10
1357.414675284994
 20
590.5747825433222
 30
0.0
  0
MTEXT
  5
693A
330
64C0
100
AcDbEntity
  8
寸法
  6
Continuous
 62
     3
100
AcDbMText
 10
1354.414675284994
 20
593.0747825433222
 30
0.0
 40
3.0
 41
0.0
 71
     5
 72
     1
  1
\A1;6
  7
ACAD
 73
     1
 44
1.0
1001
ACAD
1000
MTEXTBEGIN
1070
    73
1070
     1
1070
    44
1040
1.0
1070
    74
1070
     0
1000
MTEXTEND
  0
POINT
  5
693B
330
64C0
100
AcDbEntity
  8
Defpoints
  6
Continuous
 62
     0
100
AcDbPoint
 10
1351.414675284994
 20
590.5747825433222
 30
0.0
  0
POINT
  5
693C
330
64C0
100
AcDbEntity
  8
Defpoints
  6
Continuous
 62
     0
100
AcDbPoint
 10
1357.414675284994
 20
590.5270965433222
 30
0.0
  0
POINT
  5
693D
330
64C0
100
AcDbEntity
  8
Defpoints
  6
Continuous
 62
     0
100
AcDbPoint
 10
1357.414675284994
 20
590.5747825433222
 30
0.0
  0
ENDBLK
  5
64CA
330
64C0
100
AcDbEntity
  8
0
100
AcDbBlockEnd
  0
BLOCK
  5
64D6
330
64CC
100
AcDbEntity
  8
0
100
AcDbBlockBegin
  2
*D50
 70
     1
 10
0.0
 20
0.0
 30
0.0
  3
*D50
  1

  0
LINE
  5
693E
330
64CC
100
AcDbEntity
  8
寸法
  6
Continuous
 62
     4
370
    -2
100
AcDbLine
 10
1337.664675284994
 20
596.1624445433222
 30
0.0
 11
1337.664675284994
 21
601.7497735433222
 31
0.0
  0
LINE
  5
693F
330
64CC
100
AcDbEntity
  8
寸法
  6
Continuous
 62
     4
370
    -2
100
AcDbLine
 10
1357.414675284994
 20
596.4124445433221
 30
0.0
 11
1357.414675284994
 21
601.7497735433222
 31
0.0
  0
LINE
  5
6940
330
64CC
100
AcDbEntity
  8
寸法
  6
Continuous
 62
     4
370
    -2
100
AcDbLine
 10
1338.664675284994
 20
601.7497735433222
 30
0.0
 11
1356.414675284994
 21
601.7497735433222
 31
0.0
  0
INSERT
  5
6941
330
64CC
100
AcDbEntity
  8
寸法
  6
Continuous
 62
     4
370
    -2
100
AcDbBlockReference
  2
_Dot
 10
1337.664675284994
 20
601.7497735433222
 30
0.0
 50
180.0
  0
INSERT
  5
6942
330
64CC
100
AcDbEntity
  8
寸法
  6
Continuous
 62
     4
370
    -2
100
AcDbBlockReference
  2
_Dot
 10
1357.414675284994
 20
601.7497735433222
 30
0.0
  0
MTEXT
  5
6943
330
64CC
100
AcDbEntity
  8
寸法
  6
Continuous
 62
     3
100
AcDbMText
 10
1347.539675284994
 20
604.2497735433222
 30
0.0
 40
3.0
 41
0.0
 71
     5
 72
     1
  1
\A1;20
  7
ACAD
 73
     1
 44
1.0
1001
ACAD
1000
MTEXTBEGIN
1070
    73
1070
     1
1070
    44
1040
1.0
1070
    74
1070
     0
1000
MTEXTEND
  0
POINT
  5
6944
330
64CC
100
AcDbEntity
  8
Defpoints
  6
Continuous
 62
     0
100
AcDbPoint
 10
1337.664675284994
 20
596.1624445433222
 30
0.0
  0
POINT
  5
6945
330
64CC
100
AcDbEntity
  8
Defpoints
  6
Continuous
 62
     0
100
AcDbPoint
 10
1357.414675284994
 20
596.4124445433221
 30
0.0
  0
POINT
  5
6946
330
64CC
100
AcDbEntity
  8
Defpoints
  6
Continuous
 62
     0
100
AcDbPoint
 10
1357.414675284994
 20
601.7497735433222
 30
0.0
  0
ENDBLK
  5
64D7
330
64CC
100
AcDbEntity
  8
0
100
AcDbBlockEnd
  0
BLOCK
  5
64E4
330
64D9
100
AcDbEntity
  8
0
100
AcDbBlockBegin
  2
*D51
 70
     1
 10
0.0
 20
0.0
 30
0.0
  3
*D51
  1

  0
LINE
  5
6947
330
64D9
100
AcDbEntity
  8
寸法
  6
Continuous
 62
     4
370
    -2
100
AcDbLine
 10
1359.414675284994
 20
583.7497735433222
 30
0.0
 11
1368.414675284994
 21
583.7497735433222
 31
0.0
  0
LINE
  5
6948
330
64D9
100
AcDbEntity
  8
寸法
  6
Continuous
 62
     4
370
    -2
100
AcDbLine
 10
1360.414675284994
 20
580.7497735433222
 30
0.0
 11
1368.414675284994
 21
580.7497735433222
 31
0.0
  0
LINE
  5
6949
330
64D9
100
AcDbEntity
  8
寸法
  6
Continuous
 62
     4
370
    -2
100
AcDbLine
 10
1368.414675284994
 20
584.7497735433222
 30
0.0
 11
1368.414675284994
 21
585.7497735433222
 31
0.0
  0
LINE
  5
694A
330
64D9
100
AcDbEntity
  8
寸法
  6
Continuous
 62
     4
370
    -2
100
AcDbLine
 10
1368.414675284994
 20
579.7497735433222
 30
0.0
 11
1368.414675284994
 21
578.7497735433222
 31
0.0
  0
INSERT
  5
694B
330
64D9
100
AcDbEntity
  8
寸法
  6
Continuous
 62
     4
370
    -2
100
AcDbBlockReference
  2
_Dot
 10
1368.414675284994
 20
583.7497735433222
 30
0.0
 50
270.0
  0
INSERT
  5
694C
330
64D9
100
AcDbEntity
  8
寸法
  6
Continuous
 62
     4
370
    -2
100
AcDbBlockReference
  2
_Dot
 10
1368.414675284994
 20
580.7497735433222
 30
0.0
 50
90.0
  0
MTEXT
  5
694D
330
64D9
100
AcDbEntity
  8
寸法
  6
Continuous
 62
     3
100
AcDbMText
 10
1365.914675284994
 20
582.2497735433224
 30
0.0
 40
3.0
 41
0.0
 71
     5
 72
     1
  1
\A1;3
  7
ACAD
 11
0.0000000000000001
 21
1.0
 31
0.0
 73
     1
 44
1.0
1001
ACAD
1000
MTEXTBEGIN
1070
    73
1070
     1
1070
    44
1040
1.0
1070
    74
1070
     0
1000
MTEXTEND
  0
POINT
  5
694E
330
64D9
100
AcDbEntity
  8
Defpoints
  6
Continuous
 62
     0
100
AcDbPoint
 10
1359.414675284994
 20
583.7497735433222
 30
0.0
  0
POINT
  5
694F
330
64D9
100
AcDbEntity
  8
Defpoints
  6
Continuous
 62
     0
100
AcDbPoint
 10
1360.414675284994
 20
580.7497735433222
 30
0.0
  0
POINT
  5
6950
330
64D9
100
AcDbEntity
  8
Defpoints
  6
Continuous
 62
     0
100
AcDbPoint
 10
1368.414675284994
 20
580.7497735433222
 30
0.0
  0
ENDBLK
  5
64E5
330
64D9
100
AcDbEntity
  8
0
100
AcDbBlockEnd
  0
BLOCK
  5
64F1
330
64E7
100
AcDbEntity
  8
0
100
AcDbBlockBegin
  2
*D52
 70
     1
 10
0.0
 20
0.0
 30
0.0
  3
*D52
  1

  0
LINE
  5
6951
330
64E7
100
AcDbEntity
  8
寸法
  6
Continuous
 62
     4
370
    -2
100
AcDbLine
 10
1358.098297284994
 20
577.7497735433222
 30
0.0
 11
1368.414675284994
 21
577.7497735433222
 31
0.0
  0
LINE
  5
6952
330
64E7
100
AcDbEntity
  8
寸法
  6
Continuous
 62
     4
370
    -2
100
AcDbLine
 10
1366.737679284994
 20
569.7497735433223
 30
0.0
 11
1368.414675284994
 21
569.7497735433223
 31
0.0
  0
LINE
  5
6953
330
64E7
100
AcDbEntity
  8
寸法
  6
Continuous
 62
     4
370
    -2
100
AcDbLine
 10
1368.414675284994
 20
576.7497735433222
 30
0.0
 11
1368.414675284994
 21
570.7497735433222
 31
0.0
  0
INSERT
  5
6954
330
64E7
100
AcDbEntity
  8
寸法
  6
Continuous
 62
     4
370
    -2
100
AcDbBlockReference
  2
_Dot
 10
1368.414675284994
 20
577.7497735433222
 30
0.0
 50
90.0
  0
INSERT
  5
6955
330
64E7
100
AcDbEntity
  8
寸法
  6
Continuous
 62
     4
370
    -2
100
AcDbBlockReference
  2
_Dot
 10
1368.414675284994
 20
569.7497735433223
 30
0.0
 50
270.0
  0
MTEXT
  5
6956
330
64E7
100
AcDbEntity
  8
寸法
  6
Continuous
 62
     3
100
AcDbMText
 10
1365.914675284994
 20
573.7497735433224
 30
0.0
 40
3.0
 41
0.0
 71
     5
 72
     1
  1
\A1;8
  7
ACAD
 11
0.0000000000000001
 21
1.0
 31
0.0
 73
     1
 44
1.0
1001
ACAD
1000
MTEXTBEGIN
1070
    73
1070
     1
1070
    44
1040
1.0
1070
    74
1070
     0
1000
MTEXTEND
  0
POINT
  5
6957
330
64E7
100
AcDbEntity
  8
Defpoints
  6
Continuous
 62
     0
100
AcDbPoint
 10
1358.098297284994
 20
577.7497735433222
 30
0.0
  0
POINT
  5
6958
330
64E7
100
AcDbEntity
  8
Defpoints
  6
Continuous
 62
     0
100
AcDbPoint
 10
1366.737679284994
 20
569.7497735433223
 30
0.0
  0
POINT
  5
6959
330
64E7
100
AcDbEntity
  8
Defpoints
  6
Continuous
 62
     0
100
AcDbPoint
 10
1368.414675284994
 20
569.7497735433223
 30
0.0
  0
ENDBLK
  5
64F2
330
64E7
100
AcDbEntity
  8
0
100
AcDbBlockEnd
  0
BLOCK
  5
64FE
330
64F4
100
AcDbEntity
  8
0
100
AcDbBlockBegin
  2
*D53
 70
     1
 10
0.0
 20
0.0
 30
0.0
  3
*D53
  1

  0
LINE
  5
695A
330
64F4
100
AcDbEntity
  8
寸法
  6
Continuous
 62
     4
370
    -2
100
AcDbLine
 10
1359.414675284994
 20
583.7497735433222
 30
0.0
 11
1376.611921284994
 21
583.7497735433222
 31
0.0
  0
LINE
  5
695B
330
64F4
100
AcDbEntity
  8
寸法
  6
Continuous
 62
     4
370
    -2
100
AcDbLine
 10
1373.373028284994
 20
569.7497735433223
 30
0.0
 11
1376.611921284994
 21
569.7497735433223
 31
0.0
  0
LINE
  5
695C
330
64F4
100
AcDbEntity
  8
寸法
  6
Continuous
 62
     4
370
    -2
100
AcDbLine
 10
1376.611921284994
 20
582.7497735433222
 30
0.0
 11
1376.611921284994
 21
570.7497735433222
 31
0.0
  0
INSERT
  5
695D
330
64F4
100
AcDbEntity
  8
寸法
  6
Continuous
 62
     4
370
    -2
100
AcDbBlockReference
  2
_Dot
 10
1376.611921284994
 20
583.7497735433222
 30
0.0
 50
90.0
  0
INSERT
  5
695E
330
64F4
100
AcDbEntity
  8
寸法
  6
Continuous
 62
     4
370
    -2
100
AcDbBlockReference
  2
_Dot
 10
1376.611921284994
 20
569.7497735433223
 30
0.0
 50
270.0
  0
MTEXT
  5
695F
330
64F4
100
AcDbEntity
  8
寸法
  6
Continuous
 62
     3
100
AcDbMText
 10
1374.111921284994
 20
576.7497735433225
 30
0.0
 40
3.0
 41
0.0
 71
     5
 72
     1
  1
\A1;14
  7
ACAD
 11
0.0000000000000001
 21
1.0
 31
0.0
 73
     1
 44
1.0
1001
ACAD
1000
MTEXTBEGIN
1070
    73
1070
     1
1070
    44
1040
1.0
1070
    74
1070
     0
1000
MTEXTEND
  0
POINT
  5
6960
330
64F4
100
AcDbEntity
  8
Defpoints
  6
Continuous
 62
     0
100
AcDbPoint
 10
1359.414675284994
 20
583.7497735433222
 30
0.0
  0
POINT
  5
6961
330
64F4
100
AcDbEntity
  8
Defpoints
  6
Continuous
 62
     0
100
AcDbPoint
 10
1373.373028284994
 20
569.7497735433223
 30
0.0
  0
POINT
  5
6962
330
64F4
100
AcDbEntity
  8
Defpoints
  6
Continuous
 62
     0
100
AcDbPoint
 10
1376.611921284994
 20
569.7497735433223
 30
0.0
  0
ENDBLK
  5
64FF
330
64F4
100
AcDbEntity
  8
0
100
AcDbBlockEnd
  0
BLOCK
  5
650B
330
6501
100
AcDbEntity
  8
0
100
AcDbBlockBegin
  2
*D54
 70
     1
 10
0.0
 20
0.0
 30
0.0
  3
*D54
  1

  0
LINE
  5
6963
330
6501
100
AcDbEntity
  8
寸法
  6
Continuous
 62
     4
370
    -2
100
AcDbLine
 10
1345.414675284994
 20
566.7497735433222
 30
0.0
 11
1345.414675284994
 21
557.7497735433222
 31
0.0
  0
LINE
  5
6964
330
6501
100
AcDbEntity
  8
寸法
  6
Continuous
 62
     4
370
    -2
100
AcDbLine
 10
1355.414675284994
 20
567.9622135433223
 30
0.0
 11
1355.414675284994
 21
557.7497735433222
 31
0.0
  0
LINE
  5
6965
330
6501
100
AcDbEntity
  8
寸法
  6
Continuous
 62
     4
370
    -2
100
AcDbLine
 10
1346.414675284994
 20
557.7497735433222
 30
0.0
 11
1354.414675284994
 21
557.7497735433222
 31
0.0
  0
INSERT
  5
6966
330
6501
100
AcDbEntity
  8
寸法
  6
Continuous
 62
     4
370
    -2
100
AcDbBlockReference
  2
_Dot
 10
1345.414675284994
 20
557.7497735433222
 30
0.0
 50
180.0
  0
INSERT
  5
6967
330
6501
100
AcDbEntity
  8
寸法
  6
Continuous
 62
     4
370
    -2
100
AcDbBlockReference
  2
_Dot
 10
1355.414675284994
 20
557.7497735433222
 30
0.0
  0
MTEXT
  5
6968
330
6501
100
AcDbEntity
  8
寸法
  6
Continuous
 62
     3
100
AcDbMText
 10
1350.414675284994
 20
560.2497735433222
 30
0.0
 40
3.0
 41
0.0
 71
     5
 72
     1
  1
\A1;10
  7
ACAD
 73
     1
 44
1.0
1001
ACAD
1000
MTEXTBEGIN
1070
    73
1070
     1
1070
    44
1040
1.0
1070
    74
1070
     0
1000
MTEXTEND
  0
POINT
  5
6969
330
6501
100
AcDbEntity
  8
Defpoints
  6
Continuous
 62
     0
100
AcDbPoint
 10
1345.414675284994
 20
566.7497735433222
 30
0.0
  0
POINT
  5
696A
330
6501
100
AcDbEntity
  8
Defpoints
  6
Continuous
 62
     0
100
AcDbPoint
 10
1355.414675284994
 20
567.9622135433223
 30
0.0
  0
POINT
  5
696B
330
6501
100
AcDbEntity
  8
Defpoints
  6
Continuous
 62
     0
100
AcDbPoint
 10
1355.414675284994
 20
557.7497735433222
 30
0.0
  0
ENDBLK
  5
650C
330
6501
100
AcDbEntity
  8
0
100
AcDbBlockEnd
  0
BLOCK
  5
6518
330
650E
100
AcDbEntity
  8
0
100
AcDbBlockBegin
  2
*D55
 70
     1
 10
0.0
 20
0.0
 30
0.0
  3
*D55
  1

  0
LINE
  5
696C
330
650E
100
AcDbEntity
  8
寸法
  6
Continuous
 62
     4
370
    -2
100
AcDbLine
 10
1245.414675284994
 20
566.7497735433222
 30
0.0
 11
1245.414675284994
 21
557.7497735433222
 31
0.0
  0
LINE
  5
696D
330
650E
100
AcDbEntity
  8
寸法
  6
Continuous
 62
     4
370
    -2
100
AcDbLine
 10
1345.414675284994
 20
566.7497735433222
 30
0.0
 11
1345.414675284994
 21
557.7497735433222
 31
0.0
  0
LINE
  5
696E
330
650E
100
AcDbEntity
  8
寸法
  6
Continuous
 62
     4
370
    -2
100
AcDbLine
 10
1246.414675284994
 20
557.7497735433222
 30
0.0
 11
1344.414675284994
 21
557.7497735433222
 31
0.0
  0
INSERT
  5
696F
330
650E
100
AcDbEntity
  8
寸法
  6
Continuous
 62
     4
370
    -2
100
AcDbBlockReference
  2
_Dot
 10
1245.414675284994
 20
557.7497735433222
 30
0.0
 50
180.0
  0
INSERT
  5
6970
330
650E
100
AcDbEntity
  8
寸法
  6
Continuous
 62
     4
370
    -2
100
AcDbBlockReference
  2
_Dot
 10
1345.414675284994
 20
557.7497735433222
 30
0.0
  0
MTEXT
  5
6971
330
650E
100
AcDbEntity
  8
寸法
  6
Continuous
 62
     3
100
AcDbMText
 10
1295.414675284994
 20
560.2497735433222
 30
0.0
 40
3.0
 41
0.0
 71
     5
 72
     1
  1
\A1;100
  7
ACAD
 73
     1
 44
1.0
1001
ACAD
1000
MTEXTBEGIN
1070
    73
1070
     1
1070
    44
1040
1.0
1070
    74
1070
     0
1000
MTEXTEND
  0
POINT
  5
6972
330
650E
100
AcDbEntity
  8
Defpoints
  6
Continuous
 62
     0
100
AcDbPoint
 10
1245.414675284994
 20
566.7497735433222
 30
0.0
  0
POINT
  5
6973
330
650E
100
AcDbEntity
  8
Defpoints
  6
Continuous
 62
     0
100
AcDbPoint
 10
1345.414675284994
 20
566.7497735433222
 30
0.0
  0
POINT
  5
6974
330
650E
100
AcDbEntity
  8
Defpoints
  6
Continuous
 62
     0
100
AcDbPoint
 10
1345.414675284994
 20
557.7497735433222
 30
0.0
  0
ENDBLK
  5
6519
330
650E
100
AcDbEntity
  8
0
100
AcDbBlockEnd
  0
BLOCK
  5
6525
330
651B
100
AcDbEntity
  8
0
100
AcDbBlockBegin
  2
*D56
 70
     1
 10
0.0
 20
0.0
 30
0.0
  3
*D56
  1

  0
LINE
  5
6975
330
651B
100
AcDbEntity
  8
寸法
  6
Continuous
 62
     4
370
    -2
100
AcDbLine
 10
1230.414675284994
 20
574.7497735433222
 30
0.0
 11
1230.414675284994
 21
557.7497735433222
 31
0.0
  0
LINE
  5
6976
330
651B
100
AcDbEntity
  8
寸法
  6
Continuous
 62
     4
370
    -2
100
AcDbLine
 10
1245.414675284994
 20
566.7497735433222
 30
0.0
 11
1245.414675284994
 21
557.7497735433222
 31
0.0
  0
LINE
  5
6977
330
651B
100
AcDbEntity
  8
寸法
  6
Continuous
 62
     4
370
    -2
100
AcDbLine
 10
1231.414675284994
 20
557.7497735433222
 30
0.0
 11
1244.414675284994
 21
557.7497735433222
 31
0.0
  0
INSERT
  5
6978
330
651B
100
AcDbEntity
  8
寸法
  6
Continuous
 62
     4
370
    -2
100
AcDbBlockReference
  2
_Dot
 10
1230.414675284994
 20
557.7497735433222
 30
0.0
 50
180.0
  0
INSERT
  5
6979
330
651B
100
AcDbEntity
  8
寸法
  6
Continuous
 62
     4
370
    -2
100
AcDbBlockReference
  2
_Dot
 10
1245.414675284994
 20
557.7497735433222
 30
0.0
  0
MTEXT
  5
697A
330
651B
100
AcDbEntity
  8
寸法
  6
Continuous
 62
     3
100
AcDbMText
 10
1237.914675284994
 20
560.2497735433222
 30
0.0
 40
3.0
 41
0.0
 71
     5
 72
     1
  1
\A1;15
  7
ACAD
 73
     1
 44
1.0
1001
ACAD
1000
MTEXTBEGIN
1070
    73
1070
     1
1070
    44
1040
1.0
1070
    74
1070
     0
1000
MTEXTEND
  0
POINT
  5
697B
330
651B
100
AcDbEntity
  8
Defpoints
  6
Continuous
 62
     0
100
AcDbPoint
 10
1230.414675284994
 20
574.7497735433222
 30
0.0
  0
POINT
  5
697C
330
651B
100
AcDbEntity
  8
Defpoints
  6
Continuous
 62
     0
100
AcDbPoint
 10
1245.414675284994
 20
566.7497735433222
 30
0.0
  0
POINT
  5
697D
330
651B
100
AcDbEntity
  8
Defpoints
  6
Continuous
 62
     0
100
AcDbPoint
 10
1245.414675284994
 20
557.7497735433222
 30
0.0
  0
ENDBLK
  5
6526
330
651B
100
AcDbEntity
  8
0
100
AcDbBlockEnd
  0
BLOCK
  5
6532
330
6528
100
AcDbEntity
  8
0
100
AcDbBlockBegin
  2
*D57
 70
     1
 10
0.0
 20
0.0
 30
0.0
  3
*D57
  1

  0
LINE
  5
697E
330
6528
100
AcDbEntity
  8
寸法
  6
Continuous
 62
     4
370
    -2
100
AcDbLine
 10
1242.414675284994
 20
569.7497735433223
 30
0.0
 11
1218.414675284994
 21
569.7497735433223
 31
0.0
  0
LINE
  5
697F
330
6528
100
AcDbEntity
  8
寸法
  6
Continuous
 62
     4
370
    -2
100
AcDbLine
 10
1227.414675284994
 20
577.7497735433222
 30
0.0
 11
1218.414675284994
 21
577.7497735433222
 31
0.0
  0
LINE
  5
6980
330
6528
100
AcDbEntity
  8
寸法
  6
Continuous
 62
     4
370
    -2
100
AcDbLine
 10
1218.414675284994
 20
570.7497735433222
 30
0.0
 11
1218.414675284994
 21
576.7497735433222
 31
0.0
  0
INSERT
  5
6981
330
6528
100
AcDbEntity
  8
寸法
  6
Continuous
 62
     4
370
    -2
100
AcDbBlockReference
  2
_Dot
 10
1218.414675284994
 20
569.7497735433223
 30
0.0
 50
270.0
  0
INSERT
  5
6982
330
6528
100
AcDbEntity
  8
寸法
  6
Continuous
 62
     4
370
    -2
100
AcDbBlockReference
  2
_Dot
 10
1218.414675284994
 20
577.7497735433222
 30
0.0
 50
90.0
  0
MTEXT
  5
6983
330
6528
100
AcDbEntity
  8
寸法
  6
Continuous
 62
     3
100
AcDbMText
 10
1215.914675284994
 20
573.7497735433223
 30
0.0
 40
3.0
 41
0.0
 71
     5
 72
     1
  1
\A1;8
  7
ACAD
 11
0.0000000000000001
 21
1.0
 31
0.0
 73
     1
 44
1.0
1001
ACAD
1000
MTEXTBEGIN
1070
    73
1070
     1
1070
    44
1040
1.0
1070
    74
1070
     0
1000
MTEXTEND
  0
POINT
  5
6984
330
6528
100
AcDbEntity
  8
Defpoints
  6
Continuous
 62
     0
100
AcDbPoint
 10
1242.414675284994
 20
569.7497735433223
 30
0.0
  0
POINT
  5
6985
330
6528
100
AcDbEntity
  8
Defpoints
  6
Continuous
 62
     0
100
AcDbPoint
 10
1227.414675284994
 20
577.7497735433222
 30
0.0
  0
POINT
  5
6986
330
6528
100
AcDbEntity
  8
Defpoints
  6
Continuous
 62
     0
100
AcDbPoint
 10
1218.414675284994
 20
577.7497735433222
 30
0.0
  0
ENDBLK
  5
6533
330
6528
100
AcDbEntity
  8
0
100
AcDbBlockEnd
  0
BLOCK
  5
6540
330
6535
100
AcDbEntity
  8
0
100
AcDbBlockBegin
  2
*D58
 70
     1
 10
0.0
 20
0.0
 30
0.0
  3
*D58
  1

  0
LINE
  5
6AE0
330
6535
100
AcDbEntity
  8
寸法
  6
Continuous
 62
     4
370
    -2
100
AcDbLine
 10
1227.414675284994
 20
577.7497735433222
 30
0.0
 11
1218.414675284994
 21
577.7497735433222
 31
0.0
  0
LINE
  5
6AE1
330
6535
100
AcDbEntity
  8
寸法
  6
Continuous
 62
     4
370
    -2
100
AcDbLine
 10
1227.414675284994
 20
582.0497735433222
 30
0.0
 11
1218.414675284994
 21
582.0497735433222
 31
0.0
  0
LINE
  5
6AE2
330
6535
100
AcDbEntity
  8
寸法
  6
Continuous
 62
     4
370
    -2
100
AcDbLine
 10
1218.414675284994
 20
578.7497735433222
 30
0.0
 11
1218.414675284994
 21
581.0497735433222
 31
0.0
  0
INSERT
  5
6AE3
330
6535
100
AcDbEntity
  8
寸法
  6
Continuous
 62
     4
370
    -2
100
AcDbBlockReference
  2
_Dot
 10
1218.414675284994
 20
577.7497735433222
 30
0.0
 50
270.0
  0
INSERT
  5
6AE4
330
6535
100
AcDbEntity
  8
寸法
  6
Continuous
 62
     4
370
    -2
100
AcDbBlockReference
  2
_Dot
 10
1218.414675284994
 20
582.0497735433222
 30
0.0
 50
90.0
  0
MTEXT
  5
6AE5
330
6535
100
AcDbEntity
  8
寸法
  6
Continuous
 62
     3
100
AcDbMText
 10
1215.914675284994
 20
579.8997735433223
 30
0.0
 40
3.0
 41
0.0
 71
     5
 72
     1
  1
\A1;4.3
  7
ACAD
 11
0.0000000000000001
 21
1.0
 31
0.0
 73
     1
 44
1.0
1001
ACAD
1000
MTEXTBEGIN
1070
    73
1070
     1
1070
    44
1040
1.0
1070
    74
1070
     0
1000
MTEXTEND
  0
POINT
  5
6AE6
330
6535
100
AcDbEntity
  8
Defpoints
  6
Continuous
 62
     0
100
AcDbPoint
 10
1227.414675284994
 20
577.7497735433222
 30
0.0
  0
POINT
  5
6AE7
330
6535
100
AcDbEntity
  8
Defpoints
  6
Continuous
 62
     0
100
AcDbPoint
 10
1227.414675284994
 20
582.0497735433222
 30
0.0
  0
POINT
  5
6AE8
330
6535
100
AcDbEntity
  8
Defpoints
  6
Continuous
 62
     0
100
AcDbPoint
 10
1218.414675284994
 20
582.0497735433222
 30
0.0
  0
ENDBLK
  5
6541
330
6535
100
AcDbEntity
  8
0
100
AcDbBlockEnd
  0
BLOCK
  5
6558
330
654D
100
AcDbEntity
  8
0
100
AcDbBlockBegin
  2
*D59
 70
     1
 10
0.0
 20
0.0
 30
0.0
  3
*D59
  1

  0
LINE
  5
6AF2
330
654D
100
AcDbEntity
  8
寸法
  6
Continuous
 62
     4
370
    -2
100
AcDbLine
 10
1208.343856284994
 20
495.4331945433222
 30
0.0
 11
1200.385107284994
 21
495.4331945433222
 31
0.0
  0
LINE
  5
6AF3
330
654D
100
AcDbEntity
  8
寸法
  6
Continuous
 62
     4
370
    -2
100
AcDbLine
 10
1208.385107284994
 20
491.4331945433222
 30
0.0
 11
1200.385107284994
 21
491.4331945433222
 31
0.0
  0
LINE
  5
6AF4
330
654D
100
AcDbEntity
  8
寸法
  6
Continuous
 62
     4
370
    -2
100
AcDbLine
 10
1200.385107284994
 20
494.4331945433222
 30
0.0
 11
1200.385107284994
 21
492.4331945433221
 31
0.0
  0
INSERT
  5
6AF5
330
654D
100
AcDbEntity
  8
寸法
  6
Continuous
 62
     4
370
    -2
100
AcDbBlockReference
  2
_Dot
 10
1200.385107284994
 20
495.4331945433222
 30
0.0
 50
90.0
  0
INSERT
  5
6AF6
330
654D
100
AcDbEntity
  8
寸法
  6
Continuous
 62
     4
370
    -2
100
AcDbBlockReference
  2
_Dot
 10
1200.385107284994
 20
491.4331945433222
 30
0.0
 50
270.0
  0
MTEXT
  5
6AF7
330
654D
100
AcDbEntity
  8
寸法
  6
Continuous
 62
     3
100
AcDbMText
 10
1197.885107284994
 20
494.1180628550485
 30
0.0
 40
3.0
 41
0.0
 71
     5
 72
     1
  1
\A1;4
  7
ACAD
 11
0.0000000000000001
 21
1.0
 31
0.0
 73
     1
 44
1.0
1001
ACAD
1000
MTEXTBEGIN
1070
    73
1070
     1
1070
    44
1040
1.0
1070
    74
1070
     0
1000
MTEXTEND
  0
POINT
  5
6AF8
330
654D
100
AcDbEntity
  8
Defpoints
  6
Continuous
 62
     0
100
AcDbPoint
 10
1208.343856284994
 20
495.4331945433222
 30
0.0
  0
POINT
  5
6AF9
330
654D
100
AcDbEntity
  8
Defpoints
  6
Continuous
 62
     0
100
AcDbPoint
 10
1208.385107284994
 20
491.4331945433222
 30
0.0
  0
POINT
  5
6AFA
330
654D
100
AcDbEntity
  8
Defpoints
  6
Continuous
 62
     0
100
AcDbPoint
 10
1200.385107284994
 20
491.4331945433222
 30
0.0
  0
ENDBLK
  5
6559
330
654D
100
AcDbEntity
  8
0
100
AcDbBlockEnd
  0
BLOCK
  5
6565
330
655B
100
AcDbEntity
  8
0
100
AcDbBlockBegin
  2
*D60
 70
     1
 10
0.0
 20
0.0
 30
0.0
  3
*D60
  1

  0
LINE
  5
699B
330
655B
100
AcDbEntity
  8
寸法
  6
Continuous
 62
     4
370
    -2
100
AcDbLine
 10
1208.385107284994
 20
491.4331945433222
 30
0.0
 11
1200.385107284994
 21
491.4331945433222
 31
0.0
  0
LINE
  5
699C
330
655B
100
AcDbEntity
  8
寸法
  6
Continuous
 62
     4
370
    -2
100
AcDbLine
 10
1223.757278284994
 20
483.4331945433222
 30
0.0
 11
1200.385107284994
 21
483.4331945433222
 31
0.0
  0
LINE
  5
699D
330
655B
100
AcDbEntity
  8
寸法
  6
Continuous
 62
     4
370
    -2
100
AcDbLine
 10
1200.385107284994
 20
490.4331945433222
 30
0.0
 11
1200.385107284994
 21
484.4331945433221
 31
0.0
  0
INSERT
  5
699E
330
655B
100
AcDbEntity
  8
寸法
  6
Continuous
 62
     4
370
    -2
100
AcDbBlockReference
  2
_Dot
 10
1200.385107284994
 20
491.4331945433222
 30
0.0
 50
90.0
  0
INSERT
  5
699F
330
655B
100
AcDbEntity
  8
寸法
  6
Continuous
 62
     4
370
    -2
100
AcDbBlockReference
  2
_Dot
 10
1200.385107284994
 20
483.4331945433222
 30
0.0
 50
270.0
  0
MTEXT
  5
69A0
330
655B
100
AcDbEntity
  8
寸法
  6
Continuous
 62
     3
100
AcDbMText
 10
1197.885107284994
 20
487.4331945433224
 30
0.0
 40
3.0
 41
0.0
 71
     5
 72
     1
  1
\A1;8
  7
ACAD
 11
0.0000000000000001
 21
1.0
 31
0.0
 73
     1
 44
1.0
1001
ACAD
1000
MTEXTBEGIN
1070
    73
1070
     1
1070
    44
1040
1.0
1070
    74
1070
     0
1000
MTEXTEND
  0
POINT
  5
69A1
330
655B
100
AcDbEntity
  8
Defpoints
  6
Continuous
 62
     0
100
AcDbPoint
 10
1208.385107284994
 20
491.4331945433222
 30
0.0
  0
POINT
  5
69A2
330
655B
100
AcDbEntity
  8
Defpoints
  6
Continuous
 62
     0
100
AcDbPoint
 10
1223.757278284994
 20
483.4331945433222
 30
0.0
  0
POINT
  5
69A3
330
655B
100
AcDbEntity
  8
Defpoints
  6
Continuous
 62
     0
100
AcDbPoint
 10
1200.385107284994
 20
483.4331945433222
 30
0.0
  0
ENDBLK
  5
6566
330
655B
100
AcDbEntity
  8
0
100
AcDbBlockEnd
  0
BLOCK
  5
6572
330
6568
100
AcDbEntity
  8
0
100
AcDbBlockBegin
  2
*D61
 70
     1
 10
0.0
 20
0.0
 30
0.0
  3
*D61
  1

  0
LINE
  5
69A4
330
6568
100
AcDbEntity
  8
寸法
  6
Continuous
 62
     4
370
    -2
100
AcDbLine
 10
1211.385107284994
 20
488.4331945433221
 30
0.0
 11
1211.385107284994
 21
471.4331945433221
 31
0.0
  0
LINE
  5
69A5
330
6568
100
AcDbEntity
  8
寸法
  6
Continuous
 62
     4
370
    -2
100
AcDbLine
 10
1227.385107284994
 20
480.4331945433221
 30
0.0
 11
1227.385107284994
 21
471.4331945433221
 31
0.0
  0
LINE
  5
69A6
330
6568
100
AcDbEntity
  8
寸法
  6
Continuous
 62
     4
370
    -2
100
AcDbLine
 10
1212.385107284994
 20
471.4331945433221
 30
0.0
 11
1226.385107284994
 21
471.4331945433221
 31
0.0
  0
INSERT
  5
69A7
330
6568
100
AcDbEntity
  8
寸法
  6
Continuous
 62
     4
370
    -2
100
AcDbBlockReference
  2
_Dot
 10
1211.385107284994
 20
471.4331945433221
 30
0.0
 50
180.0
  0
INSERT
  5
69A8
330
6568
100
AcDbEntity
  8
寸法
  6
Continuous
 62
     4
370
    -2
100
AcDbBlockReference
  2
_Dot
 10
1227.385107284994
 20
471.4331945433221
 30
0.0
  0
MTEXT
  5
69A9
330
6568
100
AcDbEntity
  8
寸法
  6
Continuous
 62
     3
100
AcDbMText
 10
1219.385107284994
 20
473.9331945433222
 30
0.0
 40
3.0
 41
0.0
 71
     5
 72
     1
  1
\A1;16
  7
ACAD
 73
     1
 44
1.0
1001
ACAD
1000
MTEXTBEGIN
1070
    73
1070
     1
1070
    44
1040
1.0
1070
    74
1070
     0
1000
MTEXTEND
  0
POINT
  5
69AA
330
6568
100
AcDbEntity
  8
Defpoints
  6
Continuous
 62
     0
100
AcDbPoint
 10
1211.385107284994
 20
488.4331945433221
 30
0.0
  0
POINT
  5
69AB
330
6568
100
AcDbEntity
  8
Defpoints
  6
Continuous
 62
     0
100
AcDbPoint
 10
1227.385107284994
 20
480.4331945433221
 30
0.0
  0
POINT
  5
69AC
330
6568
100
AcDbEntity
  8
Defpoints
  6
Continuous
 62
     0
100
AcDbPoint
 10
1227.385107284994
 20
471.4331945433221
 30
0.0
  0
ENDBLK
  5
6573
330
6568
100
AcDbEntity
  8
0
100
AcDbBlockEnd
  0
BLOCK
  5
657F
330
6575
100
AcDbEntity
  8
0
100
AcDbBlockBegin
  2
*D62
 70
     1
 10
0.0
 20
0.0
 30
0.0
  3
*D62
  1

  0
LINE
  5
69AD
330
6575
100
AcDbEntity
  8
寸法
  6
Continuous
 62
     4
370
    -2
100
AcDbLine
 10
1227.385107284994
 20
480.4331945433221
 30
0.0
 11
1227.385107284994
 21
471.4331945433221
 31
0.0
  0
LINE
  5
69AE
330
6575
100
AcDbEntity
  8
寸法
  6
Continuous
 62
     4
370
    -2
100
AcDbLine
 10
1347.385107284994
 20
480.4331945433221
 30
0.0
 11
1347.385107284994
 21
471.4331945433221
 31
0.0
  0
LINE
  5
69AF
330
6575
100
AcDbEntity
  8
寸法
  6
Continuous
 62
     4
370
    -2
100
AcDbLine
 10
1228.385107284994
 20
471.4331945433221
 30
0.0
 11
1346.385107284994
 21
471.4331945433221
 31
0.0
  0
INSERT
  5
69B0
330
6575
100
AcDbEntity
  8
寸法
  6
Continuous
 62
     4
370
    -2
100
AcDbBlockReference
  2
_Dot
 10
1227.385107284994
 20
471.4331945433221
 30
0.0
 50
180.0
  0
INSERT
  5
69B1
330
6575
100
AcDbEntity
  8
寸法
  6
Continuous
 62
     4
370
    -2
100
AcDbBlockReference
  2
_Dot
 10
1347.385107284994
 20
471.4331945433221
 30
0.0
  0
MTEXT
  5
69B2
330
6575
100
AcDbEntity
  8
寸法
  6
Continuous
 62
     3
100
AcDbMText
 10
1287.385107284994
 20
473.9331945433222
 30
0.0
 40
3.0
 41
0.0
 71
     5
 72
     1
  1
\A1;120
  7
ACAD
 73
     1
 44
1.0
1001
ACAD
1000
MTEXTBEGIN
1070
    73
1070
     1
1070
    44
1040
1.0
1070
    74
1070
     0
1000
MTEXTEND
  0
POINT
  5
69B3
330
6575
100
AcDbEntity
  8
Defpoints
  6
Continuous
 62
     0
100
AcDbPoint
 10
1227.385107284994
 20
480.4331945433221
 30
0.0
  0
POINT
  5
69B4
330
6575
100
AcDbEntity
  8
Defpoints
  6
Continuous
 62
     0
100
AcDbPoint
 10
1347.385107284994
 20
480.4331945433221
 30
0.0
  0
POINT
  5
69B5
330
6575
100
AcDbEntity
  8
Defpoints
  6
Continuous
 62
     0
100
AcDbPoint
 10
1347.385107284994
 20
471.4331945433221
 30
0.0
  0
ENDBLK
  5
6580
330
6575
100
AcDbEntity
  8
0
100
AcDbBlockEnd
  0
BLOCK
  5
658C
330
6582
100
AcDbEntity
  8
0
100
AcDbBlockBegin
  2
*D63
 70
     1
 10
0.0
 20
0.0
 30
0.0
  3
*D63
  1

  0
LINE
  5
69B6
330
6582
100
AcDbEntity
  8
寸法
  6
Continuous
 62
     4
370
    -2
100
AcDbLine
 10
1347.385107284994
 20
480.4331945433221
 30
0.0
 11
1347.385107284994
 21
471.4331945433221
 31
0.0
  0
LINE
  5
69B7
330
6582
100
AcDbEntity
  8
寸法
  6
Continuous
 62
     4
370
    -2
100
AcDbLine
 10
1357.385107284994
 20
481.0852535433221
 30
0.0
 11
1357.385107284994
 21
471.4331945433221
 31
0.0
  0
LINE
  5
69B8
330
6582
100
AcDbEntity
  8
寸法
  6
Continuous
 62
     4
370
    -2
100
AcDbLine
 10
1348.385107284994
 20
471.4331945433221
 30
0.0
 11
1356.385107284994
 21
471.4331945433221
 31
0.0
  0
INSERT
  5
69B9
330
6582
100
AcDbEntity
  8
寸法
  6
Continuous
 62
     4
370
    -2
100
AcDbBlockReference
  2
_Dot
 10
1347.385107284994
 20
471.4331945433221
 30
0.0
 50
180.0
  0
INSERT
  5
69BA
330
6582
100
AcDbEntity
  8
寸法
  6
Continuous
 62
     4
370
    -2
100
AcDbBlockReference
  2
_Dot
 10
1357.385107284994
 20
471.4331945433221
 30
0.0
  0
MTEXT
  5
69BB
330
6582
100
AcDbEntity
  8
寸法
  6
Continuous
 62
     3
100
AcDbMText
 10
1352.385107284994
 20
473.9331945433222
 30
0.0
 40
3.0
 41
0.0
 71
     5
 72
     1
  1
\A1;10
  7
ACAD
 73
     1
 44
1.0
1001
ACAD
1000
MTEXTBEGIN
1070
    73
1070
     1
1070
    44
1040
1.0
1070
    74
1070
     0
1000
MTEXTEND
  0
POINT
  5
69BC
330
6582
100
AcDbEntity
  8
Defpoints
  6
Continuous
 62
     0
100
AcDbPoint
 10
1347.385107284994
 20
480.4331945433221
 30
0.0
  0
POINT
  5
69BD
330
6582
100
AcDbEntity
  8
Defpoints
  6
Continuous
 62
     0
100
AcDbPoint
 10
1357.385107284994
 20
481.0852535433221
 30
0.0
  0
POINT
  5
69BE
330
6582
100
AcDbEntity
  8
Defpoints
  6
Continuous
 62
     0
100
AcDbPoint
 10
1357.385107284994
 20
471.4331945433221
 30
0.0
  0
ENDBLK
  5
658D
330
6582
100
AcDbEntity
  8
0
100
AcDbBlockEnd
  0
BLOCK
  5
6599
330
658F
100
AcDbEntity
  8
0
100
AcDbBlockBegin
  2
*D64
 70
     1
 10
0.0
 20
0.0
 30
0.0
  3
*D64
  1

  0
LINE
  5
69BF
330
658F
100
AcDbEntity
  8
寸法
  6
Continuous
 62
     4
370
    -2
100
AcDbLine
 10
1369.506384284994
 20
483.4331945433222
 30
0.0
 11
1373.797238284994
 21
483.4331945433222
 31
0.0
  0
LINE
  5
69C0
330
658F
100
AcDbEntity
  8
寸法
  6
Continuous
 62
     4
370
    -2
100
AcDbLine
 10
1361.068729284994
 20
491.4331945433222
 30
0.0
 11
1373.797238284994
 21
491.4331945433222
 31
0.0
  0
LINE
  5
69C1
330
658F
100
AcDbEntity
  8
寸法
  6
Continuous
 62
     4
370
    -2
100
AcDbLine
 10
1373.797238284994
 20
484.4331945433221
 30
0.0
 11
1373.797238284994
 21
490.4331945433222
 31
0.0
  0
INSERT
  5
69C2
330
658F
100
AcDbEntity
  8
寸法
  6
Continuous
 62
     4
370
    -2
100
AcDbBlockReference
  2
_Dot
 10
1373.797238284994
 20
483.4331945433222
 30
0.0
 50
270.0
  0
INSERT
  5
69C3
330
658F
100
AcDbEntity
  8
寸法
  6
Continuous
 62
     4
370
    -2
100
AcDbBlockReference
  2
_Dot
 10
1373.797238284994
 20
491.4331945433222
 30
0.0
 50
90.0
  0
MTEXT
  5
69C4
330
658F
100
AcDbEntity
  8
寸法
  6
Continuous
 62
     3
100
AcDbMText
 10
1371.297238284994
 20
487.4331945433224
 30
0.0
 40
3.0
 41
0.0
 71
     5
 72
     1
  1
\A1;8
  7
ACAD
 11
0.0000000000000001
 21
1.0
 31
0.0
 73
     1
 44
1.0
1001
ACAD
1000
MTEXTBEGIN
1070
    73
1070
     1
1070
    44
1040
1.0
1070
    74
1070
     0
1000
MTEXTEND
  0
POINT
  5
69C5
330
658F
100
AcDbEntity
  8
Defpoints
  6
Continuous
 62
     0
100
AcDbPoint
 10
1369.506384284994
 20
483.4331945433222
 30
0.0
  0
POINT
  5
69C6
330
658F
100
AcDbEntity
  8
Defpoints
  6
Continuous
 62
     0
100
AcDbPoint
 10
1361.068729284994
 20
491.4331945433222
 30
0.0
  0
POINT
  5
69C7
330
658F
100
AcDbEntity
  8
Defpoints
  6
Continuous
 62
     0
100
AcDbPoint
 10
1373.797238284994
 20
491.4331945433222
 30
0.0
  0
ENDBLK
  5
659A
330
658F
100
AcDbEntity
  8
0
100
AcDbBlockEnd
  0
BLOCK
  5
65A7
330
659C
100
AcDbEntity
  8
0
100
AcDbBlockBegin
  2
*D65
 70
     1
 10
0.0
 20
0.0
 30
0.0
  3
*D65
  1

  0
LINE
  5
69C8
330
659C
100
AcDbEntity
  8
寸法
  6
Continuous
 62
     4
370
    -2
100
AcDbLine
 10
1362.124227284994
 20
494.3331945433222
 30
0.0
 11
1373.797238284994
 21
494.3331945433222
 31
0.0
  0
LINE
  5
69C9
330
659C
100
AcDbEntity
  8
寸法
  6
Continuous
 62
     4
370
    -2
100
AcDbLine
 10
1361.291447284994
 20
497.3331945433222
 30
0.0
 11
1373.797238284994
 21
497.3331945433222
 31
0.0
  0
LINE
  5
69CA
330
659C
100
AcDbEntity
  8
寸法
  6
Continuous
 62
     4
370
    -2
100
AcDbLine
 10
1373.797238284994
 20
493.3331945433222
 30
0.0
 11
1373.797238284994
 21
492.3331945433222
 31
0.0
  0
LINE
  5
69CB
330
659C
100
AcDbEntity
  8
寸法
  6
Continuous
 62
     4
370
    -2
100
AcDbLine
 10
1373.797238284994
 20
498.3331945433222
 30
0.0
 11
1373.797238284994
 21
499.3331945433222
 31
0.0
  0
INSERT
  5
69CC
330
659C
100
AcDbEntity
  8
寸法
  6
Continuous
 62
     4
370
    -2
100
AcDbBlockReference
  2
_Dot
 10
1373.797238284994
 20
494.3331945433222
 30
0.0
 50
90.0
  0
INSERT
  5
69CD
330
659C
100
AcDbEntity
  8
寸法
  6
Continuous
 62
     4
370
    -2
100
AcDbBlockReference
  2
_Dot
 10
1373.797238284994
 20
497.3331945433222
 30
0.0
 50
270.0
  0
MTEXT
  5
69CE
330
659C
100
AcDbEntity
  8
寸法
  6
Continuous
 62
     3
100
AcDbMText
 10
1371.297238284994
 20
495.8331945433224
 30
0.0
 40
3.0
 41
0.0
 71
     5
 72
     1
  1
\A1;3
  7
ACAD
 11
0.0000000000000001
 21
1.0
 31
0.0
 73
     1
 44
1.0
1001
ACAD
1000
MTEXTBEGIN
1070
    73
1070
     1
1070
    44
1040
1.0
1070
    74
1070
     0
1000
MTEXTEND
  0
POINT
  5
69CF
330
659C
100
AcDbEntity
  8
Defpoints
  6
Continuous
 62
     0
100
AcDbPoint
 10
1362.124227284994
 20
494.3331945433222
 30
0.0
  0
POINT
  5
69D0
330
659C
100
AcDbEntity
  8
Defpoints
  6
Continuous
 62
     0
100
AcDbPoint
 10
1361.291447284994
 20
497.3331945433222
 30
0.0
  0
POINT
  5
69D1
330
659C
100
AcDbEntity
  8
Defpoints
  6
Continuous
 62
     0
100
AcDbPoint
 10
1373.797238284994
 20
497.3331945433222
 30
0.0
  0
ENDBLK
  5
65A8
330
659C
100
AcDbEntity
  8
0
100
AcDbBlockEnd
  0
BLOCK
  5
65B4
330
65AA
100
AcDbEntity
  8
0
100
AcDbBlockBegin
  2
*D66
 70
     1
 10
0.0
 20
0.0
 30
0.0
  3
*D66
  1

  0
LINE
  5
69D2
330
65AA
100
AcDbEntity
  8
寸法
  6
Continuous
 62
     4
370
    -2
100
AcDbLine
 10
1369.506384284994
 20
483.4331945433222
 30
0.0
 11
1381.457637284994
 21
483.4331945433222
 31
0.0
  0
LINE
  5
69D3
330
65AA
100
AcDbEntity
  8
寸法
  6
Continuous
 62
     4
370
    -2
100
AcDbLine
 10
1361.291447284994
 20
497.3331945433222
 30
0.0
 11
1381.457637284994
 21
497.3331945433222
 31
0.0
  0
LINE
  5
69D4
330
65AA
100
AcDbEntity
  8
寸法
  6
Continuous
 62
     4
370
    -2
100
AcDbLine
 10
1381.457637284994
 20
484.4331945433221
 30
0.0
 11
1381.457637284994
 21
496.3331945433222
 31
0.0
  0
INSERT
  5
69D5
330
65AA
100
AcDbEntity
  8
寸法
  6
Continuous
 62
     4
370
    -2
100
AcDbBlockReference
  2
_Dot
 10
1381.457637284994
 20
483.4331945433222
 30
0.0
 50
270.0
  0
INSERT
  5
69D6
330
65AA
100
AcDbEntity
  8
寸法
  6
Continuous
 62
     4
370
    -2
100
AcDbBlockReference
  2
_Dot
 10
1381.457637284994
 20
497.3331945433222
 30
0.0
 50
90.0
  0
MTEXT
  5
69D7
330
65AA
100
AcDbEntity
  8
寸法
  6
Continuous
 62
     3
100
AcDbMText
 10
1378.957637284994
 20
490.3831945433224
 30
0.0
 40
3.0
 41
0.0
 71
     5
 72
     1
  1
\A1;14
  7
ACAD
 11
0.0000000000000001
 21
1.0
 31
0.0
 73
     1
 44
1.0
1001
ACAD
1000
MTEXTBEGIN
1070
    73
1070
     1
1070
    44
1040
1.0
1070
    74
1070
     0
1000
MTEXTEND
  0
POINT
  5
69D8
330
65AA
100
AcDbEntity
  8
Defpoints
  6
Continuous
 62
     0
100
AcDbPoint
 10
1369.506384284994
 20
483.4331945433222
 30
0.0
  0
POINT
  5
69D9
330
65AA
100
AcDbEntity
  8
Defpoints
  6
Continuous
 62
     0
100
AcDbPoint
 10
1361.291447284994
 20
497.3331945433222
 30
0.0
  0
POINT
  5
69DA
330
65AA
100
AcDbEntity
  8
Defpoints
  6
Continuous
 62
     0
100
AcDbPoint
 10
1381.457637284994
 20
497.3331945433222
 30
0.0
  0
ENDBLK
  5
65B5
330
65AA
100
AcDbEntity
  8
0
100
AcDbBlockEnd
  0
BLOCK
  5
65C1
330
65B7
100
AcDbEntity
  8
0
100
AcDbBlockBegin
  2
*D67
 70
     1
 10
0.0
 20
0.0
 30
0.0
  3
*D67
  1

  0
LINE
  5
6AFB
330
65B7
100
AcDbEntity
  8
寸法
  6
Continuous
 62
     4
370
    -2
100
AcDbLine
 10
1337.499504284994
 20
491.4331945433222
 30
0.0
 11
1327.510856596161
 21
491.4331945433222
 31
0.0
  0
LINE
  5
6AFC
330
65B7
100
AcDbEntity
  8
寸法
  6
Continuous
 62
     4
370
    -2
100
AcDbLine
 10
1337.701575284994
 20
496.2331945433222
 30
0.0
 11
1327.510856596161
 21
496.2331945433222
 31
0.0
  0
LINE
  5
6AFD
330
65B7
100
AcDbEntity
  8
寸法
  6
Continuous
 62
     4
370
    -2
100
AcDbLine
 10
1327.510856596161
 20
492.4331945433221
 30
0.0
 11
1327.510856596161
 21
495.2331945433222
 31
0.0
  0
INSERT
  5
6AFE
330
65B7
100
AcDbEntity
  8
寸法
  6
Continuous
 62
     4
370
    -2
100
AcDbBlockReference
  2
_Dot
 10
1327.510856596161
 20
491.4331945433222
 30
0.0
 50
270.0
  0
INSERT
  5
6AFF
330
65B7
100
AcDbEntity
  8
寸法
  6
Continuous
 62
     4
370
    -2
100
AcDbBlockReference
  2
_Dot
 10
1327.510856596161
 20
496.2331945433222
 30
0.0
 50
90.0
  0
MTEXT
  5
6B00
330
65B7
100
AcDbEntity
  8
寸法
  6
Continuous
 62
     3
100
AcDbMText
 10
1324.225142310447
 20
493.8331945433224
 30
0.0
 40
3.0
 41
0.0
 71
     5
 72
     1
  1
\A1;(4.8)
  7
ACAD
 11
0.0000000000000001
 21
1.0
 31
0.0
 73
     1
 44
1.0
1001
ACAD
1000
MTEXTBEGIN
1070
    73
1070
     1
1070
    44
1040
1.0
1070
    74
1070
     0
1000
MTEXTEND
  0
POINT
  5
6B01
330
65B7
100
AcDbEntity
  8
Defpoints
  6
Continuous
 62
     0
100
AcDbPoint
 10
1337.499504284994
 20
491.4331945433222
 30
0.0
  0
POINT
  5
6B02
330
65B7
100
AcDbEntity
  8
Defpoints
  6
Continuous
 62
     0
100
AcDbPoint
 10
1337.701575284994
 20
496.2331945433222
 30
0.0
  0
POINT
  5
6B03
330
65B7
100
AcDbEntity
  8
Defpoints
  6
Continuous
 62
     0
100
AcDbPoint
 10
1327.510856596161
 20
496.2331945433222
 30
0.0
  0
ENDBLK
  5
65C2
330
65B7
100
AcDbEntity
  8
0
100
AcDbBlockEnd
  0
BLOCK
  5
65D9
330
65CE
100
AcDbEntity
  8
0
100
AcDbBlockBegin
  2
*D68
 70
     1
 10
0.0
 20
0.0
 30
0.0
  3
*D68
  1

  0
LINE
  5
69E5
330
65CE
100
AcDbEntity
  8
寸法
  6
Continuous
 62
     4
370
    -2
100
AcDbLine
 10
1339.385107284994
 20
498.5227595433222
 30
0.0
 11
1339.385107284994
 21
504.2582045433221
 31
0.0
  0
LINE
  5
69E6
330
65CE
100
AcDbEntity
  8
寸法
  6
Continuous
 62
     4
370
    -2
100
AcDbLine
 10
1341.385107284994
 20
499.8509365433222
 30
0.0
 11
1341.385107284994
 21
504.2582045433221
 31
0.0
  0
LINE
  5
69E7
330
65CE
100
AcDbEntity
  8
寸法
  6
Continuous
 62
     4
370
    -2
100
AcDbLine
 10
1338.385107284994
 20
504.2582045433221
 30
0.0
 11
1337.385107284994
 21
504.2582045433221
 31
0.0
  0
LINE
  5
69E8
330
65CE
100
AcDbEntity
  8
寸法
  6
Continuous
 62
     4
370
    -2
100
AcDbLine
 10
1342.385107284994
 20
504.2582045433221
 30
0.0
 11
1343.385107284994
 21
504.2582045433221
 31
0.0
  0
INSERT
  5
69E9
330
65CE
100
AcDbEntity
  8
寸法
  6
Continuous
 62
     4
370
    -2
100
AcDbBlockReference
  2
_Dot
 10
1339.385107284994
 20
504.2582045433221
 30
0.0
  0
INSERT
  5
69EA
330
65CE
100
AcDbEntity
  8
寸法
  6
Continuous
 62
     4
370
    -2
100
AcDbBlockReference
  2
_Dot
 10
1341.385107284994
 20
504.2582045433221
 30
0.0
 50
180.0
  0
MTEXT
  5
69EB
330
65CE
100
AcDbEntity
  8
寸法
  6
Continuous
 62
     3
100
AcDbMText
 10
1340.385107284994
 20
507.5439188290364
 30
0.0
 40
3.0
 41
0.0
 71
     5
 72
     1
  1
\A1;(2)
  7
ACAD
 73
     1
 44
1.0
1001
ACAD
1000
MTEXTBEGIN
1070
    73
1070
     1
1070
    44
1040
1.0
1070
    74
1070
     0
1000
MTEXTEND
  0
POINT
  5
69EC
330
65CE
100
AcDbEntity
  8
Defpoints
  6
Continuous
 62
     0
100
AcDbPoint
 10
1339.385107284994
 20
498.5227595433222
 30
0.0
  0
POINT
  5
69ED
330
65CE
100
AcDbEntity
  8
Defpoints
  6
Continuous
 62
     0
100
AcDbPoint
 10
1341.385107284994
 20
499.8509365433222
 30
0.0
  0
POINT
  5
69EE
330
65CE
100
AcDbEntity
  8
Defpoints
  6
Continuous
 62
     0
100
AcDbPoint
 10
1341.385107284994
 20
504.2582045433221
 30
0.0
  0
ENDBLK
  5
65DA
330
65CE
100
AcDbEntity
  8
0
100
AcDbBlockEnd
  0
BLOCK
  5
65F0
330
65E6
100
AcDbEntity
  8
0
100
AcDbBlockBegin
  2
*D69
 70
     1
 10
0.0
 20
0.0
 30
0.0
  3
*D69
  1

  0
LINE
  5
69EF
330
65E6
100
AcDbEntity
  8
寸法
  6
Continuous
 62
     4
370
    -2
100
AcDbLine
 10
1339.385107284994
 20
498.5227595433222
 30
0.0
 11
1339.385107284994
 21
509.8458665433222
 31
0.0
  0
LINE
  5
69F0
330
65E6
100
AcDbEntity
  8
寸法
  6
Continuous
 62
     4
370
    -2
100
AcDbLine
 10
1347.385107284994
 20
495.3671035433222
 30
0.0
 11
1347.385107284994
 21
509.8458665433222
 31
0.0
  0
LINE
  5
69F1
330
65E6
100
AcDbEntity
  8
寸法
  6
Continuous
 62
     4
370
    -2
100
AcDbLine
 10
1340.385107284994
 20
509.8458665433222
 30
0.0
 11
1346.385107284994
 21
509.8458665433222
 31
0.0
  0
INSERT
  5
69F2
330
65E6
100
AcDbEntity
  8
寸法
  6
Continuous
 62
     4
370
    -2
100
AcDbBlockReference
  2
_Dot
 10
1339.385107284994
 20
509.8458665433222
 30
0.0
 50
180.0
  0
INSERT
  5
69F3
330
65E6
100
AcDbEntity
  8
寸法
  6
Continuous
 62
     4
370
    -2
100
AcDbBlockReference
  2
_Dot
 10
1347.385107284994
 20
509.8458665433222
 30
0.0
  0
MTEXT
  5
69F4
330
65E6
100
AcDbEntity
  8
寸法
  6
Continuous
 62
     3
100
AcDbMText
 10
1343.385107284994
 20
512.3458665433222
 30
0.0
 40
3.0
 41
0.0
 71
     5
 72
     1
  1
\A1;8
  7
ACAD
 73
     1
 44
1.0
1001
ACAD
1000
MTEXTBEGIN
1070
    73
1070
     1
1070
    44
1040
1.0
1070
    74
1070
     0
1000
MTEXTEND
  0
POINT
  5
69F5
330
65E6
100
AcDbEntity
  8
Defpoints
  6
Continuous
 62
     0
100
AcDbPoint
 10
1339.385107284994
 20
498.5227595433222
 30
0.0
  0
POINT
  5
69F6
330
65E6
100
AcDbEntity
  8
Defpoints
  6
Continuous
 62
     0
100
AcDbPoint
 10
1347.385107284994
 20
495.3671035433222
 30
0.0
  0
POINT
  5
69F7
330
65E6
100
AcDbEntity
  8
Defpoints
  6
Continuous
 62
     0
100
AcDbPoint
 10
1347.385107284994
 20
509.8458665433222
 30
0.0
  0
ENDBLK
  5
65F1
330
65E6
100
AcDbEntity
  8
0
100
AcDbBlockEnd
  0
BLOCK
  5
65FD
330
65F3
100
AcDbEntity
  8
0
100
AcDbBlockBegin
  2
*D70
 70
     1
 10
0.0
 20
0.0
 30
0.0
  3
*D70
  1

  0
LINE
  5
69F8
330
65F3
100
AcDbEntity
  8
寸法
  6
Continuous
 62
     4
370
    -2
100
AcDbLine
 10
1347.385107284994
 20
495.3671035433222
 30
0.0
 11
1347.385107284994
 21
509.8458665433222
 31
0.0
  0
LINE
  5
69F9
330
65F3
100
AcDbEntity
  8
寸法
  6
Continuous
 62
     4
370
    -2
100
AcDbLine
 10
1359.385107284994
 20
498.4705035433222
 30
0.0
 11
1359.385107284994
 21
509.8458665433222
 31
0.0
  0
LINE
  5
69FA
330
65F3
100
AcDbEntity
  8
寸法
  6
Continuous
 62
     4
370
    -2
100
AcDbLine
 10
1348.385107284994
 20
509.8458665433222
 30
0.0
 11
1358.385107284994
 21
509.8458665433222
 31
0.0
  0
INSERT
  5
69FB
330
65F3
100
AcDbEntity
  8
寸法
  6
Continuous
 62
     4
370
    -2
100
AcDbBlockReference
  2
_Dot
 10
1347.385107284994
 20
509.8458665433222
 30
0.0
 50
180.0
  0
INSERT
  5
69FC
330
65F3
100
AcDbEntity
  8
寸法
  6
Continuous
 62
     4
370
    -2
100
AcDbBlockReference
  2
_Dot
 10
1359.385107284994
 20
509.8458665433222
 30
0.0
  0
MTEXT
  5
69FD
330
65F3
100
AcDbEntity
  8
寸法
  6
Continuous
 62
     3
100
AcDbMText
 10
1353.385107284994
 20
512.3458665433222
 30
0.0
 40
3.0
 41
0.0
 71
     5
 72
     1
  1
\A1;12
  7
ACAD
 73
     1
 44
1.0
1001
ACAD
1000
MTEXTBEGIN
1070
    73
1070
     1
1070
    44
1040
1.0
1070
    74
1070
     0
1000
MTEXTEND
  0
POINT
  5
69FE
330
65F3
100
AcDbEntity
  8
Defpoints
  6
Continuous
 62
     0
100
AcDbPoint
 10
1347.385107284994
 20
495.3671035433222
 30
0.0
  0
POINT
  5
69FF
330
65F3
100
AcDbEntity
  8
Defpoints
  6
Continuous
 62
     0
100
AcDbPoint
 10
1359.385107284994
 20
498.4705035433222
 30
0.0
  0
POINT
  5
6A00
330
65F3
100
AcDbEntity
  8
Defpoints
  6
Continuous
 62
     0
100
AcDbPoint
 10
1359.385107284994
 20
509.8458665433222
 30
0.0
  0
ENDBLK
  5
65FE
330
65F3
100
AcDbEntity
  8
0
100
AcDbBlockEnd
  0
BLOCK
  5
6609
330
6600
100
AcDbEntity
  8
0
100
AcDbBlockBegin
  2
*D71
 70
     1
 10
0.0
 20
0.0
 30
0.0
  3
*D71
  1

  0
LINE
  5
6B0D
330
6600
100
AcDbEntity
  8
寸法
  6
Continuous
 62
     4
370
    -2
100
AcDbLine
 10
1353.685107284994
 20
504.2582045433221
 30
0.0
 11
1353.685107284994
 21
504.1581850433222
 31
0.0
  0
LINE
  5
6B0E
330
6600
100
AcDbEntity
  8
寸法
  6
Continuous
 62
     4
370
    -2
100
AcDbLine
 10
1354.685107284994
 20
504.1581850433222
 30
0.0
 11
1358.385107284994
 21
504.1581850433222
 31
0.0
  0
INSERT
  5
6B0F
330
6600
100
AcDbEntity
  8
寸法
  6
Continuous
 62
     4
370
    -2
100
AcDbBlockReference
  2
_Dot
 10
1353.685107284994
 20
504.1581850433222
 30
0.0
 50
180.0
  0
INSERT
  5
6B10
330
6600
100
AcDbEntity
  8
寸法
  6
Continuous
 62
     4
370
    -2
100
AcDbBlockReference
  2
_Dot
 10
1359.385107284994
 20
504.1581850433222
 30
0.0
  0
MTEXT
  5
6B11
330
6600
100
AcDbEntity
  8
寸法
  6
Continuous
 62
     3
100
AcDbMText
 10
1356.535107284994
 20
506.6581850433222
 30
0.0
 40
3.0
 41
0.0
 71
     5
 72
     1
  1
\A1;5.7
  7
ACAD
 73
     1
 44
1.0
1001
ACAD
1000
MTEXTBEGIN
1070
    73
1070
     1
1070
    44
1040
1.0
1070
    74
1070
     0
1000
MTEXTEND
  0
POINT
  5
6B12
330
6600
100
AcDbEntity
  8
Defpoints
  6
Continuous
 62
     0
100
AcDbPoint
 10
1353.685107284994
 20
504.2582045433221
 30
0.0
  0
POINT
  5
6B13
330
6600
100
AcDbEntity
  8
Defpoints
  6
Continuous
 62
     0
100
AcDbPoint
 10
1359.385107284994
 20
504.1581850433222
 30
0.0
  0
POINT
  5
6B14
330
6600
100
AcDbEntity
  8
Defpoints
  6
Continuous
 62
     0
100
AcDbPoint
 10
1359.385107284994
 20
504.1581850433222
 30
0.0
  0
ENDBLK
  5
660A
330
6600
100
AcDbEntity
  8
0
100
AcDbBlockEnd
  0
BLOCK
  5
661F
330
6615
100
AcDbEntity
  8
0
100
AcDbBlockBegin
  2
*D72
 70
     1
 10
0.0
 20
0.0
 30
0.0
  3
*D72
  1

  0
LINE
  5
6A0A
330
6615
100
AcDbEntity
  8
寸法
  6
Continuous
 62
     4
370
    -2
100
AcDbLine
 10
1339.385107284994
 20
510.0958665433222
 30
0.0
 11
1339.385107284994
 21
515.2331945433222
 31
0.0
  0
LINE
  5
6A0B
330
6615
100
AcDbEntity
  8
寸法
  6
Continuous
 62
     4
370
    -2
100
AcDbLine
 10
1359.385107284994
 20
509.5958665433222
 30
0.0
 11
1359.385107284994
 21
515.2331945433222
 31
0.0
  0
LINE
  5
6A0C
330
6615
100
AcDbEntity
  8
寸法
  6
Continuous
 62
     4
370
    -2
100
AcDbLine
 10
1340.385107284994
 20
515.2331945433222
 30
0.0
 11
1358.385107284994
 21
515.2331945433222
 31
0.0
  0
INSERT
  5
6A0D
330
6615
100
AcDbEntity
  8
寸法
  6
Continuous
 62
     4
370
    -2
100
AcDbBlockReference
  2
_Dot
 10
1339.385107284994
 20
515.2331945433222
 30
0.0
 50
180.0
  0
INSERT
  5
6A0E
330
6615
100
AcDbEntity
  8
寸法
  6
Continuous
 62
     4
370
    -2
100
AcDbBlockReference
  2
_Dot
 10
1359.385107284994
 20
515.2331945433222
 30
0.0
  0
MTEXT
  5
6A0F
330
6615
100
AcDbEntity
  8
寸法
  6
Continuous
 62
     3
100
AcDbMText
 10
1349.385107284994
 20
517.7331945433222
 30
0.0
 40
3.0
 41
0.0
 71
     5
 72
     1
  1
\A1;20
  7
ACAD
 73
     1
 44
1.0
1001
ACAD
1000
MTEXTBEGIN
1070
    73
1070
     1
1070
    44
1040
1.0
1070
    74
1070
     0
1000
MTEXTEND
  0
POINT
  5
6A10
330
6615
100
AcDbEntity
  8
Defpoints
  6
Continuous
 62
     0
100
AcDbPoint
 10
1339.385107284994
 20
510.0958665433222
 30
0.0
  0
POINT
  5
6A11
330
6615
100
AcDbEntity
  8
Defpoints
  6
Continuous
 62
     0
100
AcDbPoint
 10
1359.385107284994
 20
509.5958665433222
 30
0.0
  0
POINT
  5
6A12
330
6615
100
AcDbEntity
  8
Defpoints
  6
Continuous
 62
     0
100
AcDbPoint
 10
1359.385107284994
 20
515.2331945433222
 30
0.0
  0
ENDBLK
  5
6620
330
6615
100
AcDbEntity
  8
0
100
AcDbBlockEnd
  0
ENDSEC
  0
SECTION
  2
ENTITIES
  0
TEXT
  5
5F1D
330
1E
100
AcDbEntity
  8
図枠
  6
Continuous
 62
     3
100
AcDbText
 10
1443.421248488779
 20
615.5327171669389
 30
0.0
 40
3.0
  1
1.5
 41
0.8
  7
ACAD
100
AcDbText
  0
TEXT
  5
5F1E
330
1E
100
AcDbEntity
  8
図枠
  6
Continuous
 62
     3
100
AcDbText
 10
1441.301901284994
 20
620.5855715433222
 30
0.0
 40
3.0
  1
（ｍｍ）
 41
0.8
  7
ACAD
100
AcDbText
  0
TEXT
  5
5F1F
330
1E
100
AcDbEntity
  8
図枠
  6
Continuous
 62
     3
100
AcDbText
 10
1443.725668284994
 20
625.3793945433222
 30
0.0
 40
3.0
  1
板厚
 41
0.8
  7
ACAD
100
AcDbText
  0
LINE
  5
5F20
330
1E
100
AcDbEntity
  8
図枠
  6
Continuous
 62
     3
100
AcDbLine
 10
1454.279540284994
 20
619.5819905433222
 30
0.0
 11
1439.279540284994
 21
619.5819905433222
 31
0.0
  0
LINE
  5
5F21
330
1E
100
AcDbEntity
  8
図枠
  6
Continuous
 62
     3
100
AcDbLine
 10
1454.279540284994
 20
614.5819905433222
 30
0.0
 11
1399.279540284994
 21
614.5819905433222
 31
0.0
  0
TEXT
  5
5F22
330
1E
100
AcDbEntity
  8
図枠
  6
Continuous
 62
     3
100
AcDbText
 10
1443.507773978881
 20
704.5172300729563
 30
0.0
 40
3.0
  1
1.3
 41
0.8
  7
ACAD
100
AcDbText
  0
TEXT
  5
5F23
330
1E
100
AcDbEntity
  8
図枠
  6
Continuous
 62
     3
100
AcDbText
 10
1441.301901284994
 20
709.5856025433222
 30
0.0
 40
3.0
  1
（ｍｍ）
 41
0.8
  7
ACAD
100
AcDbText
  0
TEXT
  5
5F24
330
1E
100
AcDbEntity
  8
図枠
  6
Continuous
 62
     3
100
AcDbText
 10
1443.725668284994
 20
714.3794255433221
 30
0.0
 40
3.0
  1
板厚
 41
0.8
  7
ACAD
100
AcDbText
  0
LINE
  5
5F25
330
1E
100
AcDbEntity
  8
図枠
  6
Continuous
 62
     3
100
AcDbLine
 10
1454.279540284994
 20
708.5819905433222
 30
0.0
 11
1439.279540284994
 21
708.5819905433222
 31
0.0
  0
LINE
  5
5F26
330
1E
100
AcDbEntity
  8
図枠
  6
Continuous
 62
     3
100
AcDbLine
 10
1454.279540284994
 20
703.5819905433222
 30
0.0
 11
1399.279540284994
 21
703.5819905433222
 31
0.0
  0
LINE
  5
5F27
330
1E
100
AcDbEntity
  8
図枠
  6
Continuous
 62
     4
100
AcDbLine
 10
1187.711973284994
 20
540.5819905433222
 30
0.0
 11
1677.063324284994
 21
540.5819905433222
 31
0.0
  0
LINE
  5
5F2C
330
1E
100
AcDbEntity
  8
躯体と製品
  6
Continuous
 62
     4
100
AcDbLine
 10
1434.759659284994
 20
569.7497735433223
 30
0.0
 11
1634.759659284994
 21
569.7497735433223
 31
0.0
  0
LINE
  5
5F2F
330
1E
100
AcDbEntity
  8
躯体と製品
  6
Continuous
 62
     4
100
AcDbLine
 10
1436.259659284994
 20
571.2497735433222
 30
0.0
 11
1633.259659284994
 21
571.2497735433222
 31
0.0
  0
LINE
  5
5F30
330
1E
100
AcDbEntity
  8
図枠
  6
Continuous
 62
     7
100
AcDbLine
 10
1187.711973284994
 20
718.5819905433223
 30
0.0
 11
1677.063324284994
 21
718.5819905433223
 31
0.0
  0
LINE
  5
5F31
330
1E
100
AcDbEntity
  8
図枠
  6
Continuous
 62
     7
100
AcDbLine
 10
1187.711973284994
 20
451.5819905433223
 30
0.0
 11
1677.063324284994
 21
451.5819905433223
 31
0.0
  0
LINE
  5
5F32
330
1E
100
AcDbEntity
  8
図枠
  6
Continuous
 62
     4
100
AcDbLine
 10
1187.711973284994
 20
629.5819905433222
 30
0.0
 11
1677.063324284994
 21
629.5819905433222
 31
0.0
  0
LINE
  5
5F33
330
1E
100
AcDbEntity
  8
図枠
  6
Continuous
 62
     7
100
AcDbLine
 10
1187.711973284994
 20
718.5819905433223
 30
0.0
 11
1187.711973284994
 21
451.5819905433223
 31
0.0
  0
LINE
  5
5F34
330
1E
100
AcDbEntity
  8
図枠
  6
Continuous
 62
     4
100
AcDbLine
 10
1399.279540284994
 20
451.5819905433223
 30
0.0
 11
1399.279540284994
 21
718.5819905433223
 31
0.0
  0
LINE
  5
5F36
330
1E
100
AcDbEntity
  8
躯体と製品
  6
Continuous
 62
     4
100
AcDbLine
 10
1246.414675284994
 20
570.7497735433222
 30
0.0
 11
1344.414675284994
 21
570.7497735433222
 31
0.0
  0
LINE
  5
5F37
330
1E
100
AcDbEntity
  8
躯体と製品
  6
Continuous
 62
     4
100
AcDbLine
 10
1245.414675284994
 20
569.7497735433223
 30
0.0
 11
1345.414675284994
 21
569.7497735433223
 31
0.0
  0
LINE
  5
5F39
330
1E
100
AcDbEntity
  8
躯体と製品
  6
Continuous
 62
     4
100
AcDbLine
 10
1347.385107284994
 20
483.4331945433222
 30
0.0
 11
1227.385107284994
 21
483.4331945433222
 31
0.0
  0
LINE
  5
5F3A
330
1E
100
AcDbEntity
  8
躯体と製品
  6
Continuous
 62
     4
100
AcDbLine
 10
1346.285107284994
 20
484.5331945433222
 30
0.0
 11
1228.485107284994
 21
484.5331945433222
 31
0.0
  0
LINE
  5
5F3B
330
1E
100
AcDbEntity
  8
躯体と製品
  6
Continuous
 62
     4
100
AcDbLine
 10
1227.385107284994
 20
483.4331945433222
 30
0.0
 11
1227.385107284994
 21
491.4331945433222
 31
0.0
  0
TEXT
  5
5F46
330
1E
100
AcDbEntity
  8
図枠
  6
Continuous
 62
     4
100
AcDbText
 10
1189.763460284994
 20
529.2278065433221
 30
0.0
 40
5.0
  1
ＳＦ－１２０Ａ
 41
0.8
  7
ACAD
100
AcDbText
  0
LINE
  5
5F47
330
1E
100
AcDbEntity
  8
図枠
  6
Continuous
 62
     3
100
AcDbLine
 10
1242.711973284994
 20
525.5819905433222
 30
0.0
 11
1187.711973284994
 21
525.5819905433222
 31
0.0
  0
LINE
  5
5F48
330
1E
100
AcDbEntity
  8
躯体と製品
  6
Continuous
 62
     4
100
AcDbLine
 10
1211.385107284994
 20
491.4331945433222
 30
0.0
 11
1227.385107284994
 21
491.4331945433222
 31
0.0
  0
LINE
  5
5F49
330
1E
100
AcDbEntity
  8
躯体と製品
  6
Continuous
 62
     4
100
AcDbLine
 10
1212.485107284994
 20
492.5331945433222
 30
0.0
 11
1228.485107284994
 21
492.5331945433222
 31
0.0
  0
LINE
  5
5F52
330
1E
100
AcDbEntity
  8
躯体と製品
  6
Continuous
 62
     4
100
AcDbLine
 10
1211.385107284994
 20
494.8831945433222
 30
0.0
 11
1211.385107284994
 21
491.4331945433222
 31
0.0
  0
ARC
  5
5F53
330
1E
100
AcDbEntity
  8
躯体と製品
  6
Continuous
 62
     4
100
AcDbCircle
 10
1211.935107284994
 20
494.8831945433222
 30
0.0
 40
0.55
100
AcDbArc
 50
0.0
 51
180.0
  0
LINE
  5
5F54
330
1E
100
AcDbEntity
  8
躯体と製品
  6
Continuous
 62
     4
100
AcDbLine
 10
1212.485107284994
 20
494.8831945433222
 30
0.0
 11
1212.485107284994
 21
492.5331945433222
 31
0.0
  0
LINE
  5
5F55
330
1E
100
AcDbEntity
  8
躯体と製品
  6
Continuous
 62
     4
100
AcDbLine
 10
1228.485107284994
 20
492.5331945433222
 30
0.0
 11
1228.485107284994
 21
484.5331945433222
 31
0.0
  0
LINE
  5
5F56
330
1E
100
AcDbEntity
  8
図枠
  6
Continuous
 62
     3
100
AcDbLine
 10
1242.711973284994
 20
540.5819905433222
 30
0.0
 11
1242.711973284994
 21
525.5819905433222
 31
0.0
  0
LINE
  5
5F57
330
1E
100
AcDbEntity
  8
図枠
  6
Continuous
 62
     3
100
AcDbLine
 10
1227.711973284994
 20
525.5819905433222
 30
0.0
 11
1227.711973284994
 21
540.5819905433222
 31
0.0
  0
TEXT
  5
5F58
330
1E
100
AcDbEntity
  8
図枠
  6
Continuous
 62
     3
100
AcDbText
 10
1231.893655789074
 20
526.4312271683913
 30
0.0
 40
3.0
  1
1.2
 41
0.8
  7
ACAD
100
AcDbText
  0
TEXT
  5
5F59
330
1E
100
AcDbEntity
  8
図枠
  6
Continuous
 62
     3
100
AcDbText
 10
1229.734312284994
 20
531.5855865433222
 30
0.0
 40
3.0
  1
（ｍｍ）
 41
0.8
  7
ACAD
100
AcDbText
  0
TEXT
  5
5F5A
330
1E
100
AcDbEntity
  8
図枠
  6
Continuous
 62
     3
100
AcDbText
 10
1232.158110284994
 20
536.3794105433222
 30
0.0
 40
3.0
  1
板厚
 41
0.8
  7
ACAD
100
AcDbText
  0
LINE
  5
5F5B
330
1E
100
AcDbEntity
  8
図枠
  6
Continuous
 62
     3
100
AcDbLine
 10
1242.711973284994
 20
530.5819905433223
 30
0.0
 11
1227.711973284994
 21
530.5819905433223
 31
0.0
  0
LINE
  5
5F67
330
1E
100
AcDbEntity
  8
躯体と製品
  6
Continuous
 62
     4
100
AcDbLine
 10
1246.414675284994
 20
578.7497735433222
 30
0.0
 11
1246.414675284994
 21
570.7497735433222
 31
0.0
  0
LINE
  5
5F68
330
1E
100
AcDbEntity
  8
躯体と製品
  6
Continuous
 62
     4
100
AcDbLine
 10
1245.414675284994
 20
577.7497735433222
 30
0.0
 11
1245.414675284994
 21
569.7497735433223
 31
0.0
  0
LINE
  5
5F70
330
1E
100
AcDbEntity
  8
躯体と製品
  6
Continuous
 62
     4
100
AcDbLine
 10
1231.414675284994
 20
578.7497735433222
 30
0.0
 11
1246.414675284994
 21
578.7497735433222
 31
0.0
  0
LINE
  5
5F71
330
1E
100
AcDbEntity
  8
躯体と製品
  6
Continuous
 62
     4
100
AcDbLine
 10
1230.414675284994
 20
577.7497735433222
 30
0.0
 11
1245.414675284994
 21
577.7497735433222
 31
0.0
  0
LINE
  5
5F72
330
1E
100
AcDbEntity
  8
躯体と製品
  6
Continuous
 62
     4
100
AcDbLine
 10
1230.414675284994
 20
582.0497735433222
 30
0.0
 11
1231.414675284994
 21
582.0497735433222
 31
0.0
  0
LINE
  5
5F73
330
1E
100
AcDbEntity
  8
躯体と製品
  6
Continuous
 62
     4
100
AcDbLine
 10
1230.414675284994
 20
582.0497735433222
 30
0.0
 11
1230.414675284994
 21
577.7497735433222
 31
0.0
  0
LINE
  5
5F74
330
1E
100
AcDbEntity
  8
躯体と製品
  6
Continuous
 62
     4
100
AcDbLine
 10
1231.414675284994
 20
582.0497735433222
 30
0.0
 11
1231.414675284994
 21
578.7497735433222
 31
0.0
  0
LINE
  5
5F77
330
1E
100
AcDbEntity
  8
躯体と製品
  6
Continuous
 62
     2
100
AcDbLine
 10
1357.385107284994
 20
483.4331945433222
 30
0.0
 11
1357.385107284994
 21
491.4331945433222
 31
0.0
  0
LINE
  5
5F78
330
1E
100
AcDbEntity
  8
躯体と製品
  6
Continuous
 62
     4
100
AcDbLine
 10
1347.385107284994
 20
491.4331945433222
 30
0.0
 11
1347.385107284994
 21
483.4331945433222
 31
0.0
  0
LINE
  5
5F89
330
1E
100
AcDbEntity
  8
躯体と製品
  6
Continuous
 62
     2
100
AcDbLine
 10
1368.780217284994
 20
483.4331945433222
 30
0.0
 11
1357.385107284994
 21
483.4331945433222
 31
0.0
  0
LINE
  5
5F93
330
1E
100
AcDbEntity
  8
躯体と製品
  6
Continuous
 62
     2
100
AcDbLine
 10
1372.242849284994
 20
570.7497735433222
 30
0.0
 11
1356.414675284994
 21
570.7497735433222
 31
0.0
  0
LINE
  5
5F94
330
1E
100
AcDbEntity
  8
躯体と製品
  6
Continuous
 62
     2
100
AcDbLine
 10
1372.242849284994
 20
569.7497735433223
 30
0.0
 11
1355.414675284994
 21
569.7497735433223
 31
0.0
  0
LINE
  5
5F97
330
1E
100
AcDbEntity
  8
躯体と製品
  6
Continuous
 62
     4
100
AcDbLine
 10
1356.414675284994
 20
580.7497735433222
 30
0.0
 11
1357.414675284994
 21
580.7497735433222
 31
0.0
  0
LINE
  5
5F98
330
1E
100
AcDbEntity
  8
躯体と製品
  6
Continuous
 62
     4
100
AcDbLine
 10
1336.414675284994
 20
583.7497735433222
 30
0.0
 11
1357.414675284994
 21
583.7497735433222
 31
0.0
  0
LINE
  5
5F9D
330
1E
100
AcDbEntity
  8
躯体と製品
  6
Continuous
 62
     2
100
AcDbLine
 10
1341.385107284994
 20
491.4331945433222
 30
0.0
 11
1357.385107284994
 21
491.4331945433222
 31
0.0
  0
LINE
  5
5F9E
330
1E
100
AcDbEntity
  8
躯体と製品
  6
Continuous
 62
     2
100
AcDbLine
 10
1342.485107284994
 20
492.5331945433222
 30
0.0
 11
1358.485107284994
 21
492.5331945433222
 31
0.0
  0
LINE
  5
5FA0
330
1E
100
AcDbEntity
  8
躯体と製品
  6
Continuous
 62
     4
100
AcDbLine
 10
1353.989107284994
 20
496.2331945433222
 30
0.0
 11
1358.285107284994
 21
496.2331945433222
 31
0.0
  0
LINE
  5
5FA4
330
1E
100
AcDbEntity
  8
躯体と製品
  6
Continuous
 62
     4
100
AcDbLine
 10
1338.285107284994
 20
497.3331945433222
 30
0.0
 11
1359.385107284994
 21
497.3331945433222
 31
0.0
  0
LINE
  5
5FAE
330
1E
100
AcDbEntity
  8
躯体と製品
  6
PLINE3
 62
     3
100
AcDbLine
 10
1353.685107284994
 20
504.9566615433222
 30
0.0
 11
1353.685107284994
 21
493.6252335433222
 31
0.0
  0
LINE
  5
5FAF
330
1E
100
AcDbEntity
  8
躯体と製品
  6
Continuous
 62
     4
100
AcDbLine
 10
1339.385107284994
 20
496.2331945433222
 30
0.0
 11
1353.381107284994
 21
496.2331945433222
 31
0.0
  0
LINE
  5
5FB0
330
1E
100
AcDbEntity
  8
躯体と製品
  6
Continuous
 62
     4
100
AcDbLine
 10
1339.385107284994
 20
491.4331945433222
 30
0.0
 11
1347.385107284994
 21
491.4331945433222
 31
0.0
  0
LINE
  5
5FB1
330
1E
100
AcDbEntity
  8
躯体と製品
  6
Continuous
 62
     4
100
AcDbLine
 10
1346.285107284994
 20
490.3331945433222
 30
0.0
 11
1338.285107284994
 21
490.3331945433222
 31
0.0
  0
LINE
  5
5FB2
330
1E
100
AcDbEntity
  8
躯体と製品
  6
Continuous
 62
     4
100
AcDbLine
 10
1338.285107284994
 20
490.3331945433222
 30
0.0
 11
1338.285107284994
 21
497.3331945433222
 31
0.0
  0
LINE
  5
5FB3
330
1E
100
AcDbEntity
  8
躯体と製品
  6
Continuous
 62
     4
100
AcDbLine
 10
1339.385107284994
 20
491.4331945433222
 30
0.0
 11
1339.385107284994
 21
496.2331945433222
 31
0.0
  0
LINE
  5
5FB4
330
1E
100
AcDbEntity
  8
躯体と製品
  6
Continuous
 62
     2
100
AcDbLine
 10
1341.385107284994
 20
494.8831945433222
 30
0.0
 11
1341.385107284994
 21
491.4331945433222
 31
0.0
  0
ARC
  5
5FB5
330
1E
100
AcDbEntity
  8
躯体と製品
  6
Continuous
 62
     2
100
AcDbCircle
 10
1341.935107284994
 20
494.8831945433222
 30
0.0
 40
0.55
100
AcDbArc
 50
0.0
 51
180.0
  0
LINE
  5
5FB6
330
1E
100
AcDbEntity
  8
躯体と製品
  6
Continuous
 62
     2
100
AcDbLine
 10
1342.485107284994
 20
494.8831945433222
 30
0.0
 11
1342.485107284994
 21
492.5331945433222
 31
0.0
  0
LINE
  5
5FB7
330
1E
100
AcDbEntity
  8
躯体と製品
  6
Continuous
 62
     4
100
AcDbLine
 10
1346.285107284994
 20
484.5331945433222
 30
0.0
 11
1346.285107284994
 21
490.3331945433222
 31
0.0
  0
LINE
  5
5FB8
330
1E
100
AcDbEntity
  8
躯体と製品
  6
Continuous
 62
     4
100
AcDbLine
 10
1353.685107284994
 20
496.5331945433222
 30
0.0
 11
1353.989107284994
 21
496.2291945433222
 31
0.0
  0
LINE
  5
5FB9
330
1E
100
AcDbEntity
  8
躯体と製品
  6
Continuous
 62
     4
100
AcDbLine
 10
1353.685107284994
 20
496.5331945433222
 30
0.0
 11
1353.381107284994
 21
496.2291945433222
 31
0.0
  0
LINE
  5
5FCD
330
1E
100
AcDbEntity
  8
躯体と製品
  6
Continuous
 62
     2
100
AcDbLine
 10
1356.414675284994
 20
578.7497735433222
 30
0.0
 11
1356.414675284994
 21
570.7497735433222
 31
0.0
  0
LINE
  5
5FCE
330
1E
100
AcDbEntity
  8
躯体と製品
  6
Continuous
 62
     2
100
AcDbLine
 10
1355.414675284994
 20
577.7497735433222
 30
0.0
 11
1355.414675284994
 21
569.7497735433223
 31
0.0
  0
LINE
  5
5FCF
330
1E
100
AcDbEntity
  8
躯体と製品
  6
Continuous
 62
     4
100
AcDbLine
 10
1344.414675284994
 20
576.7497735433222
 30
0.0
 11
1344.414675284994
 21
570.7497735433222
 31
0.0
  0
LINE
  5
5FD0
330
1E
100
AcDbEntity
  8
躯体と製品
  6
Continuous
 62
     4
100
AcDbLine
 10
1345.414675284994
 20
577.7497735433222
 30
0.0
 11
1345.414675284994
 21
569.7497735433223
 31
0.0
  0
LINE
  5
5FE6
330
1E
100
AcDbEntity
  8
躯体と製品
  6
Continuous
 62
     2
100
AcDbLine
 10
1341.414675284994
 20
578.7497735433222
 30
0.0
 11
1356.414675284994
 21
578.7497735433222
 31
0.0
  0
LINE
  5
5FE7
330
1E
100
AcDbEntity
  8
躯体と製品
  6
Continuous
 62
     2
100
AcDbLine
 10
1340.414675284994
 20
577.7497735433222
 30
0.0
 11
1355.414675284994
 21
577.7497735433222
 31
0.0
  0
LINE
  5
5FE8
330
1E
100
AcDbEntity
  8
躯体と製品
  6
Continuous
 62
     4
100
AcDbLine
 10
1337.414675284994
 20
582.7497735433222
 30
0.0
 11
1351.110675284994
 21
582.7497735433222
 31
0.0
  0
LINE
  5
5FE9
330
1E
100
AcDbEntity
  8
躯体と製品
  6
Continuous
 62
     2
100
AcDbLine
 10
1340.414675284994
 20
582.2497735433223
 30
0.0
 11
1341.414675284994
 21
582.2497735433223
 31
0.0
  0
LINE
  5
5FEA
330
1E
100
AcDbEntity
  8
躯体と製品
  6
Continuous
 62
     4
100
AcDbLine
 10
1337.414675284994
 20
577.7497735433222
 30
0.0
 11
1345.414675284994
 21
577.7497735433222
 31
0.0
  0
LINE
  5
5FEB
330
1E
100
AcDbEntity
  8
躯体と製品
  6
Continuous
 62
     4
100
AcDbLine
 10
1336.414675284994
 20
576.7497735433222
 30
0.0
 11
1344.414675284994
 21
576.7497735433222
 31
0.0
  0
LINE
  5
5FEC
330
1E
100
AcDbEntity
  8
躯体と製品
  6
Continuous
 62
     2
100
AcDbLine
 10
1340.414675284994
 20
582.2497735433223
 30
0.0
 11
1340.414675284994
 21
577.7497735433222
 31
0.0
  0
LINE
  5
5FED
330
1E
100
AcDbEntity
  8
躯体と製品
  6
Continuous
 62
     4
100
AcDbLine
 10
1337.414675284994
 20
577.7497735433222
 30
0.0
 11
1337.414675284994
 21
582.7497735433222
 31
0.0
  0
LINE
  5
5FEE
330
1E
100
AcDbEntity
  8
躯体と製品
  6
Continuous
 62
     4
100
AcDbLine
 10
1336.414675284994
 20
576.7497735433222
 30
0.0
 11
1336.414675284994
 21
583.7497735433222
 31
0.0
  0
LINE
  5
5FEF
330
1E
100
AcDbEntity
  8
躯体と製品
  6
Continuous
 62
     2
100
AcDbLine
 10
1341.414675284994
 20
582.2497735433223
 30
0.0
 11
1341.414675284994
 21
578.7497735433222
 31
0.0
  0
LINE
  5
5FF5
330
1E
100
AcDbEntity
  8
躯体と製品
  6
PLINE3
 62
     3
100
AcDbLine
 10
1351.414675284994
 20
591.2732405433222
 30
0.0
 11
1351.414675284994
 21
580.1418115433222
 31
0.0
  0
LINE
  5
5FF6
330
1E
100
AcDbEntity
  8
躯体と製品
  6
Continuous
 62
     4
100
AcDbLine
 10
1351.718675284994
 20
582.7497735433222
 30
0.0
 11
1356.414675284994
 21
582.7497735433222
 31
0.0
  0
LINE
  5
5FF7
330
1E
100
AcDbEntity
  8
躯体と製品
  6
Continuous
 62
     3
100
AcDbLine
 10
1351.414675284994
 20
583.0497735433222
 30
0.0
 11
1351.718675284994
 21
582.7457735433222
 31
0.0
  0
LINE
  5
5FF8
330
1E
100
AcDbEntity
  8
躯体と製品
  6
Continuous
 62
     3
100
AcDbLine
 10
1351.414675284994
 20
583.0497735433222
 30
0.0
 11
1351.110675284994
 21
582.7457735433222
 31
0.0
  0
LINE
  5
5FF9
330
1E
100
AcDbEntity
  8
躯体と製品
  6
Continuous
 62
     4
100
AcDbLine
 10
1356.414675284994
 20
582.7497735433222
 30
0.0
 11
1356.414675284994
 21
580.7497735433222
 31
0.0
  0
LINE
  5
6009
330
1E
100
AcDbEntity
  8
躯体と製品
  6
Continuous
 62
     2
100
AcDbLine
 10
1368.780217284994
 20
484.5331945433222
 30
0.0
 11
1358.485107284994
 21
484.5331945433222
 31
0.0
  0
LINE
  5
600C
330
1E
100
AcDbEntity
  8
躯体と製品
  6
Continuous
 62
     2
100
AcDbLine
 10
1358.485107284994
 20
492.5331945433222
 30
0.0
 11
1358.485107284994
 21
484.5331945433222
 31
0.0
  0
LINE
  5
600D
330
1E
100
AcDbEntity
  8
躯体と製品
  6
Continuous
 62
     4
100
AcDbLine
 10
1359.385107284994
 20
494.8831945433222
 30
0.0
 11
1359.385107284994
 21
497.3331945433222
 31
0.0
  0
ARC
  5
600E
330
1E
100
AcDbEntity
  8
躯体と製品
  6
Continuous
 62
     4
100
AcDbCircle
 10
1358.835107284994
 20
494.8831945433222
 30
0.0
 40
0.55
100
AcDbArc
 50
180.0
 51
0.0
  0
LINE
  5
600F
330
1E
100
AcDbEntity
  8
躯体と製品
  6
Continuous
 62
     4
100
AcDbLine
 10
1358.285107284994
 20
494.8831945433222
 30
0.0
 11
1358.285107284994
 21
496.2331945433222
 31
0.0
  0
LINE
  5
6037
330
1E
100
AcDbEntity
  8
躯体と製品
  6
Continuous
 62
     4
100
AcDbLine
 10
1357.414675284994
 20
583.7497735433222
 30
0.0
 11
1357.414675284994
 21
580.7497735433222
 31
0.0
  0
LINE
  5
603B
330
1E
100
AcDbEntity
  8
躯体と製品
  6
Continuous
 62
     4
100
AcDbLine
 10
1434.759659284994
 20
569.7497735433223
 30
0.0
 11
1434.759659284994
 21
577.7497735433222
 31
0.0
  0
LINE
  5
603D
330
1E
100
AcDbEntity
  8
躯体と製品
  6
Continuous
 62
     4
100
AcDbLine
 10
1436.259659284994
 20
571.2497735433222
 30
0.0
 11
1436.259659284994
 21
579.2497735433222
 31
0.0
  0
LINE
  5
6048
330
1E
100
AcDbEntity
  8
躯体と製品
  6
Continuous
 62
     4
100
AcDbLine
 10
1418.759659284994
 20
577.7497735433222
 30
0.0
 11
1434.759659284994
 21
577.7497735433222
 31
0.0
  0
LINE
  5
6049
330
1E
100
AcDbEntity
  8
躯体と製品
  6
Continuous
 62
     4
100
AcDbLine
 10
1436.259659284994
 20
579.2497735433222
 30
0.0
 11
1420.259659284994
 21
579.2497735433222
 31
0.0
  0
LINE
  5
6051
330
1E
100
AcDbEntity
  8
躯体と製品
  6
Continuous
 62
     4
100
AcDbLine
 10
1418.759659284994
 20
580.9997735433222
 30
0.0
 11
1418.759659284994
 21
577.7497735433222
 31
0.0
  0
ARC
  5
6052
330
1E
100
AcDbEntity
  8
躯体と製品
  6
Continuous
 62
     4
100
AcDbCircle
 10
1419.509659284994
 20
580.9997735433222
 30
0.0
 40
0.75
100
AcDbArc
 50
0.0
 51
180.0
  0
LINE
  5
6053
330
1E
100
AcDbEntity
  8
躯体と製品
  6
Continuous
 62
     4
100
AcDbLine
 10
1420.259659284994
 20
580.9997735433222
 30
0.0
 11
1420.259659284994
 21
579.2497735433222
 31
0.0
  0
LINE
  5
6055
330
1E
100
AcDbEntity
  8
躯体と製品
  6
Continuous
 62
     4
100
AcDbLine
 10
1334.414675284994
 20
660.9984315433222
 30
0.0
 11
1236.414675284994
 21
660.9984315433222
 31
0.0
  0
LINE
  5
6056
330
1E
100
AcDbEntity
  8
躯体と製品
  6
Continuous
 62
     4
100
AcDbLine
 10
1235.414675284994
 20
659.9984315433222
 30
0.0
 11
1335.414675284994
 21
659.9984315433222
 31
0.0
  0
LINE
  5
6057
330
1E
100
AcDbEntity
  8
躯体と製品
  6
Continuous
 62
     4
100
AcDbLine
 10
1237.001475284994
 20
668.9984315433222
 30
0.0
 11
1236.414675284994
 21
661.9568365433222
 31
0.0
  0
LINE
  5
6059
330
1E
100
AcDbEntity
  8
躯体と製品
  6
Continuous
 62
     4
100
AcDbLine
 10
1230.414675284994
 20
671.9984315433222
 30
0.0
 11
1230.414675284994
 21
667.9984315433222
 31
0.0
  0
LINE
  5
605C
330
1E
100
AcDbEntity
  8
図枠
  6
Continuous
 62
     3
100
AcDbLine
 10
1242.711973284994
 20
614.5819905433222
 30
0.0
 11
1187.711973284994
 21
614.5819905433222
 31
0.0
  0
TEXT
  5
605F
330
1E
100
AcDbEntity
  8
図枠
  6
Continuous
 62
     4
100
AcDbText
 10
1193.045534284994
 20
619.1907965433222
 30
0.0
 40
5.0
  1
ＳＦ－１００
 41
0.8
  7
ACAD
100
AcDbText
  0
TEXT
  5
6065
330
1E
100
AcDbEntity
  8
図枠
  6
Continuous
 62
     3
100
AcDbText
 10
1229.734312284994
 20
620.5855715433222
 30
0.0
 40
3.0
  1
（ｍｍ）
 41
0.8
  7
ACAD
100
AcDbText
  0
LINE
  5
6066
330
1E
100
AcDbEntity
  8
図枠
  6
Continuous
 62
     3
100
AcDbLine
 10
1242.711973284994
 20
629.5819905433222
 30
0.0
 11
1242.711973284994
 21
614.5819905433222
 31
0.0
  0
LINE
  5
6067
330
1E
100
AcDbEntity
  8
図枠
  6
Continuous
 62
     3
100
AcDbLine
 10
1227.711973284994
 20
614.5819905433222
 30
0.0
 11
1227.711973284994
 21
629.5819905433222
 31
0.0
  0
TEXT
  5
6068
330
1E
100
AcDbEntity
  8
図枠
  6
Continuous
 62
     3
100
AcDbText
 10
1232.118102392788
 20
615.1747959725136
 30
0.0
 40
3.0
  1
1.0
 41
0.8
  7
ACAD
100
AcDbText
  0
LINE
  5
6069
330
1E
100
AcDbEntity
  8
図枠
  6
Continuous
 62
     3
100
AcDbLine
 10
1242.711973284994
 20
619.5819905433222
 30
0.0
 11
1227.711973284994
 21
619.5819905433222
 31
0.0
  0
TEXT
  5
606A
330
1E
100
AcDbEntity
  8
図枠
  6
Continuous
 62
     3
100
AcDbText
 10
1232.158110284994
 20
625.3793945433222
 30
0.0
 40
3.0
  1
板厚
 41
0.8
  7
ACAD
100
AcDbText
  0
LINE
  5
6072
330
1E
100
AcDbEntity
  8
躯体と製品
  6
Continuous
 62
     4
100
AcDbLine
 10
1235.914675284994
 20
667.9984315433222
 30
0.0
 11
1235.414675284994
 21
661.9984315433222
 31
0.0
  0
LINE
  5
6073
330
1E
100
AcDbEntity
  8
躯体と製品
  6
Continuous
 62
     4
100
AcDbLine
 10
1230.414675284994
 20
667.9984315433222
 30
0.0
 11
1235.914675284994
 21
667.9984315433222
 31
0.0
  0
LINE
  5
6074
330
1E
100
AcDbEntity
  8
躯体と製品
  6
Continuous
 62
     4
100
AcDbLine
 10
1235.414675284994
 20
661.9984315433222
 30
0.0
 11
1235.414675284994
 21
659.9984315433222
 31
0.0
  0
LINE
  5
6075
330
1E
100
AcDbEntity
  8
躯体と製品
  6
Continuous
 62
     4
100
AcDbLine
 10
1236.414675284994
 20
661.9568365433222
 30
0.0
 11
1236.414675284994
 21
660.9984315433222
 31
0.0
  0
LINE
  5
6076
330
1E
100
AcDbEntity
  8
図枠
  6
Continuous
 62
     3
100
AcDbLine
 10
1242.711973284994
 20
703.5819905433222
 30
0.0
 11
1187.711973284994
 21
703.5819905433222
 31
0.0
  0
TEXT
  5
6077
330
1E
100
AcDbEntity
  8
図枠
  6
Continuous
 62
     4
100
AcDbText
 10
1189.763460284994
 20
707.2278135433222
 30
0.0
 40
5.0
  1
ＳＦ－１００ＮＡ
 41
0.8
  7
ACAD
100
AcDbText
  0
LINE
  5
607D
330
1E
100
AcDbEntity
  8
躯体と製品
  6
Continuous
 62
     4
100
AcDbLine
 10
1231.414675284994
 20
668.9984315433222
 30
0.0
 11
1237.001475284994
 21
668.9984315433222
 31
0.0
  0
ARC
  5
607E
330
1E
100
AcDbEntity
  8
躯体と製品
  6
Continuous
 62
     4
100
AcDbCircle
 10
1230.921736284994
 20
671.9984315433222
 30
0.0
 40
0.475098
100
AcDbArc
 50
0.0
 51
180.0
  0
LINE
  5
607F
330
1E
100
AcDbEntity
  8
躯体と製品
  6
Continuous
 62
     4
100
AcDbLine
 10
1231.414675284994
 20
671.9984315433222
 30
0.0
 11
1231.414675284994
 21
668.9984315433222
 31
0.0
  0
LINE
  5
6082
330
1E
100
AcDbEntity
  8
図枠
  6
Continuous
 62
     3
100
AcDbLine
 10
1242.711973284994
 20
718.5819905433223
 30
0.0
 11
1242.711973284994
 21
703.5819905433222
 31
0.0
  0
TEXT
  5
6083
330
1E
100
AcDbEntity
  8
図枠
  6
Continuous
 62
     3
100
AcDbText
 10
1232.332720146064
 20
714.0929862343784
 30
0.0
 40
3.0
  1
板厚
 41
0.8
  7
ACAD
100
AcDbText
  0
LINE
  5
6084
330
1E
100
AcDbEntity
  8
図枠
  6
Continuous
 62
     3
100
AcDbLine
 10
1227.711973284994
 20
703.5819905433222
 30
0.0
 11
1227.711973284994
 21
718.5819905433223
 31
0.0
  0
TEXT
  5
6085
330
1E
100
AcDbEntity
  8
図枠
  6
Continuous
 62
     3
100
AcDbText
 10
1231.767702672192
 20
704.6915517349527
 30
0.0
 40
3.0
  1
1.0
 41
0.8
  7
ACAD
100
AcDbText
  0
TEXT
  5
6086
330
1E
100
AcDbEntity
  8
図枠
  6
Continuous
 62
     3
100
AcDbText
 10
1229.308213497513
 20
709.9071889720339
 30
0.0
 40
3.0
  1
（ｍｍ）
 41
0.8
  7
ACAD
100
AcDbText
  0
LINE
  5
6087
330
1E
100
AcDbEntity
  8
図枠
  6
Continuous
 62
     3
100
AcDbLine
 10
1242.711973284994
 20
708.5819905433222
 30
0.0
 11
1227.711973284994
 21
708.5819905433222
 31
0.0
  0
TEXT
  5
6088
330
1E
100
AcDbEntity
  8
図枠
  6
Continuous
 62
     4
100
AcDbText
 10
1206.630892284994
 20
730.0684815433222
 30
0.0
 40
5.0
  1
ＳＦシリーズ
 41
0.8
  7
ACAD
100
AcDbText
  0
LINE
  5
608B
330
1E
100
AcDbEntity
  8
躯体と製品
  6
Continuous
 62
     2
100
AcDbLine
 10
1337.001475284994
 20
668.9984315433222
 30
0.0
 11
1336.414675284994
 21
661.9568365433222
 31
0.0
  0
LINE
  5
608C
330
1E
100
AcDbEntity
  8
躯体と製品
  6
Continuous
 62
     2
100
AcDbLine
 10
1330.414675284994
 20
671.9984315433222
 30
0.0
 11
1330.414675284994
 21
667.9984315433222
 31
0.0
  0
LINE
  5
608D
330
1E
100
AcDbEntity
  8
躯体と製品
  6
Continuous
 62
     4
100
AcDbLine
 10
1327.414675284994
 20
667.9984315433222
 30
0.0
 11
1327.414675284994
 21
672.9984315433222
 31
0.0
  0
LINE
  5
608E
330
1E
100
AcDbEntity
  8
躯体と製品
  6
Continuous
 62
     4
100
AcDbLine
 10
1326.414675284994
 20
666.9984315433222
 30
0.0
 11
1326.414675284994
 21
673.9984315433222
 31
0.0
  0
LINE
  5
6092
330
1E
100
AcDbEntity
  8
躯体と製品
  6
Continuous
 62
     2
100
AcDbLine
 10
1330.414675284994
 20
667.9984315433222
 30
0.0
 11
1335.914675284994
 21
667.9984315433222
 31
0.0
  0
LINE
  5
6094
330
1E
100
AcDbEntity
  8
躯体と製品
  6
Continuous
 62
     4
100
AcDbLine
 10
1327.414675284994
 20
667.9984315433222
 30
0.0
 11
1335.414675284994
 21
667.9984315433222
 31
0.0
  0
LINE
  5
6097
330
1E
100
AcDbEntity
  8
躯体と製品
  6
Continuous
 62
     4
100
AcDbLine
 10
1326.414675284994
 20
666.9984315433222
 30
0.0
 11
1334.414675284994
 21
666.9984315433222
 31
0.0
  0
LINE
  5
6098
330
1E
100
AcDbEntity
  8
躯体と製品
  6
Continuous
 62
     4
100
AcDbLine
 10
1334.414675284994
 20
666.9984315433222
 30
0.0
 11
1334.414675284994
 21
660.9984315433222
 31
0.0
  0
LINE
  5
609A
330
1E
100
AcDbEntity
  8
躯体と製品
  6
Continuous
 62
     2
100
AcDbLine
 10
1355.990312284994
 20
660.9984315433222
 30
0.0
 11
1336.414675284994
 21
660.9984315433222
 31
0.0
  0
LINE
  5
609B
330
1E
100
AcDbEntity
  8
躯体と製品
  6
Continuous
 62
     2
100
AcDbLine
 10
1355.990312284994
 20
659.9984315433222
 30
0.0
 11
1335.414675284994
 21
659.9984315433222
 31
0.0
  0
LINE
  5
609C
330
1E
100
AcDbEntity
  8
躯体と製品
  6
Continuous
 62
     2
100
AcDbLine
 10
1335.414675284994
 20
661.9984315433222
 30
0.0
 11
1335.414675284994
 21
659.9984315433222
 31
0.0
  0
LINE
  5
609D
330
1E
100
AcDbEntity
  8
躯体と製品
  6
Continuous
 62
     4
100
AcDbLine
 10
1335.414675284994
 20
667.9984315433222
 30
0.0
 11
1335.414675284994
 21
659.9984315433222
 31
0.0
  0
LINE
  5
609E
330
1E
100
AcDbEntity
  8
躯体と製品
  6
Continuous
 62
     2
100
AcDbLine
 10
1336.414675284994
 20
661.9568365433222
 30
0.0
 11
1336.414675284994
 21
660.9984315433222
 31
0.0
  0
LINE
  5
609F
330
1E
100
AcDbEntity
  8
躯体と製品
  6
Continuous
 62
     2
100
AcDbLine
 10
1335.914675284994
 20
667.9984315433222
 30
0.0
 11
1335.414675284994
 21
661.9984315433222
 31
0.0
  0
LINE
  5
60A0
330
1E
100
AcDbEntity
  8
躯体と製品
  6
Continuous
 62
     2
100
AcDbLine
 10
1331.414675284994
 20
668.9984315433222
 30
0.0
 11
1337.001475284994
 21
668.9984315433222
 31
0.0
  0
LINE
  5
60A4
330
1E
100
AcDbEntity
  8
躯体と製品
  6
Continuous
 62
     4
100
AcDbLine
 10
1327.414675284994
 20
672.9984315433222
 30
0.0
 11
1341.610675284994
 21
672.9984315433222
 31
0.0
  0
LINE
  5
60A5
330
1E
100
AcDbEntity
  8
躯体と製品
  6
Continuous
 62
     4
100
AcDbLine
 10
1326.414675284994
 20
673.9984315433222
 30
0.0
 11
1347.414675284994
 21
673.9984315433222
 31
0.0
  0
ARC
  5
60AC
330
1E
100
AcDbEntity
  8
躯体と製品
  6
Continuous
 62
     2
100
AcDbCircle
 10
1330.921736284994
 20
671.9984315433222
 30
0.0
 40
0.475098
100
AcDbArc
 50
0.0
 51
180.0
  0
LINE
  5
60AD
330
1E
100
AcDbEntity
  8
躯体と製品
  6
Continuous
 62
     2
100
AcDbLine
 10
1331.414675284994
 20
671.9984315433222
 30
0.0
 11
1331.414675284994
 21
668.9984315433222
 31
0.0
  0
LINE
  5
60BA
330
1E
100
AcDbEntity
  8
躯体と製品
  6
Continuous
 62
     4
100
AcDbLine
 10
1342.218675284994
 20
672.9984315433222
 30
0.0
 11
1346.414675284994
 21
672.9984315433222
 31
0.0
  0
LINE
  5
60BD
330
1E
100
AcDbEntity
  8
躯体と製品
  6
Continuous
 62
     4
100
AcDbLine
 10
1341.914675284994
 20
673.2984315433222
 30
0.0
 11
1342.218675284994
 21
672.9944315433222
 31
0.0
  0
LINE
  5
60BE
330
1E
100
AcDbEntity
  8
躯体と製品
  6
Continuous
 62
     4
100
AcDbLine
 10
1341.914675284994
 20
673.2984315433222
 30
0.0
 11
1341.610675284994
 21
672.9944315433222
 31
0.0
  0
ARC
  5
60C0
330
1E
100
AcDbEntity
  8
躯体と製品
  6
Continuous
 62
     4
100
AcDbCircle
 10
1346.914675284994
 20
671.4984315433222
 30
0.0
 40
0.5
100
AcDbArc
 50
180.0
 51
0.0
  0
LINE
  5
60C1
330
1E
100
AcDbEntity
  8
躯体と製品
  6
Continuous
 62
     4
100
AcDbLine
 10
1346.414675284994
 20
671.4984315433222
 30
0.0
 11
1346.414675284994
 21
672.9984315433222
 31
0.0
  0
LINE
  5
60C2
330
1E
100
AcDbEntity
  8
躯体と製品
  6
Continuous
 62
     4
100
AcDbLine
 10
1347.414675284994
 20
671.4984315433222
 30
0.0
 11
1347.414675284994
 21
673.9984315433222
 31
0.0
  0
TEXT
  5
60CF
330
1E
100
AcDbEntity
  8
図枠
  6
Continuous
 62
     4
100
AcDbText
 10
1401.331030284994
 20
618.2277985433223
 30
0.0
 40
5.0
  1
ＳＦ－２００Ａ
 41
0.8
  7
ACAD
100
AcDbText
  0
LINE
  5
60D0
330
1E
100
AcDbEntity
  8
図枠
  6
Continuous
 62
     3
100
AcDbLine
 10
1439.279540284994
 20
614.5819905433222
 30
0.0
 11
1439.279540284994
 21
629.5819905433222
 31
0.0
  0
TEXT
  5
60DF
330
1E
100
AcDbEntity
  8
図枠
  6
Continuous
 62
     4
100
AcDbText
 10
1401.331030284994
 20
707.2278135433222
 30
0.0
 40
5.0
  1
ＳＦ－１５０Ａ
 41
0.8
  7
ACAD
100
AcDbText
  0
LINE
  5
60E0
330
1E
100
AcDbEntity
  8
図枠
  6
Continuous
 62
     3
100
AcDbLine
 10
1439.279540284994
 20
703.5819905433222
 30
0.0
 11
1439.279540284994
 21
718.5819905433223
 31
0.0
  0
LINE
  5
60E1
330
1E
100
AcDbEntity
  8
図枠
  6
Continuous
 62
     7
100
AcDbLine
 10
1677.063324284994
 20
451.5819905433223
 30
0.0
 11
1677.063324284994
 21
718.5819905433223
 31
0.0
  0
LINE
  5
6134
330
1E
100
AcDbEntity
  8
躯体と製品
  6
Continuous
 62
     2
100
AcDbLine
 10
1644.759659284994
 20
569.7497735433223
 30
0.0
 11
1644.759659284994
 21
577.7497735433222
 31
0.0
  0
LINE
  5
6135
330
1E
100
AcDbEntity
  8
躯体と製品
  6
Continuous
 62
     2
100
AcDbLine
 10
1646.259659284994
 20
571.2497735433222
 30
0.0
 11
1646.259659284994
 21
579.2497735433222
 31
0.0
  0
LINE
  5
6136
330
1E
100
AcDbEntity
  8
躯体と製品
  6
Continuous
 62
     4
100
AcDbLine
 10
1634.759659284994
 20
577.7497735433222
 30
0.0
 11
1634.759659284994
 21
569.7497735433223
 31
0.0
  0
LINE
  5
6138
330
1E
100
AcDbEntity
  8
躯体と製品
  6
Continuous
 62
     4
100
AcDbLine
 10
1633.259659284994
 20
571.2497735433222
 30
0.0
 11
1633.259659284994
 21
576.2497735433222
 31
0.0
  0
LINE
  5
6139
330
1E
100
AcDbEntity
  8
躯体と製品
  6
Continuous
 62
     2
100
AcDbLine
 10
1656.937342284994
 20
569.7497735433223
 30
0.0
 11
1644.759659284994
 21
569.7497735433223
 31
0.0
  0
LINE
  5
6142
330
1E
100
AcDbEntity
  8
躯体と製品
  6
Continuous
 62
     2
100
AcDbLine
 10
1656.937342284994
 20
571.2497735433222
 30
0.0
 11
1646.259659284994
 21
571.2497735433222
 31
0.0
  0
LINE
  5
6146
330
1E
100
AcDbEntity
  8
躯体と製品
  6
Continuous
 62
     2
100
AcDbLine
 10
1646.259659284994
 20
579.2497735433222
 30
0.0
 11
1630.259659284994
 21
579.2497735433222
 31
0.0
  0
LINE
  5
6148
330
1E
100
AcDbEntity
  8
躯体と製品
  6
Continuous
 62
     4
100
AcDbLine
 10
1641.063659284994
 20
582.2497735433223
 30
0.0
 11
1645.259659284994
 21
582.2497735433223
 31
0.0
  0
LINE
  5
614B
330
1E
100
AcDbEntity
  8
躯体と製品
  6
Continuous
 62
     4
100
AcDbLine
 10
1625.259659284994
 20
583.7497735433222
 30
0.0
 11
1646.759659284994
 21
583.7497735433222
 31
0.0
  0
LINE
  5
614E
330
1E
100
AcDbEntity
  8
躯体と製品
  6
Continuous
 62
     2
100
AcDbLine
 10
1628.759659284994
 20
577.7497735433222
 30
0.0
 11
1644.759659284994
 21
577.7497735433222
 31
0.0
  0
LINE
  5
614F
330
1E
100
AcDbEntity
  8
躯体と製品
  6
Continuous
 62
     4
100
AcDbLine
 10
1626.759659284994
 20
582.2497735433223
 30
0.0
 11
1640.455659284994
 21
582.2497735433223
 31
0.0
  0
LINE
  5
6150
330
1E
100
AcDbEntity
  8
躯体と製品
  6
Continuous
 62
     4
100
AcDbLine
 10
1626.759659284994
 20
577.7497735433222
 30
0.0
 11
1634.759659284994
 21
577.7497735433222
 31
0.0
  0
LINE
  5
6151
330
1E
100
AcDbEntity
  8
躯体と製品
  6
Continuous
 62
     4
100
AcDbLine
 10
1633.259659284994
 20
576.2497735433222
 30
0.0
 11
1625.259659284994
 21
576.2497735433222
 31
0.0
  0
LINE
  5
6152
330
1E
100
AcDbEntity
  8
躯体と製品
  6
Continuous
 62
     4
100
AcDbLine
 10
1626.759659284994
 20
577.7497735433222
 30
0.0
 11
1626.759659284994
 21
582.2497735433223
 31
0.0
  0
LINE
  5
6153
330
1E
100
AcDbEntity
  8
躯体と製品
  6
Continuous
 62
     4
100
AcDbLine
 10
1625.259659284994
 20
583.7497735433222
 30
0.0
 11
1625.259659284994
 21
576.2497735433222
 31
0.0
  0
LINE
  5
6154
330
1E
100
AcDbEntity
  8
躯体と製品
  6
Continuous
 62
     2
100
AcDbLine
 10
1628.759659284994
 20
580.9997735433222
 30
0.0
 11
1628.759659284994
 21
577.7497735433222
 31
0.0
  0
ARC
  5
6155
330
1E
100
AcDbEntity
  8
躯体と製品
  6
Continuous
 62
     2
100
AcDbCircle
 10
1629.509659284994
 20
580.9997735433222
 30
0.0
 40
0.75
100
AcDbArc
 50
0.0
 51
180.0
  0
LINE
  5
6156
330
1E
100
AcDbEntity
  8
躯体と製品
  6
Continuous
 62
     2
100
AcDbLine
 10
1630.259659284994
 20
580.9997735433222
 30
0.0
 11
1630.259659284994
 21
579.2497735433222
 31
0.0
  0
LINE
  5
615C
330
1E
100
AcDbEntity
  8
躯体と製品
  6
PLINE3
 62
     3
100
AcDbLine
 10
1640.759659284994
 20
591.2732405433222
 30
0.0
 11
1640.759659284994
 21
579.7418115433222
 31
0.0
  0
LINE
  5
615D
330
1E
100
AcDbEntity
  8
躯体と製品
  6
Continuous
 62
     4
100
AcDbLine
 10
1640.759659284994
 20
582.5497735433222
 30
0.0
 11
1641.063659284994
 21
582.2457735433222
 31
0.0
  0
LINE
  5
615E
330
1E
100
AcDbEntity
  8
躯体と製品
  6
Continuous
 62
     4
100
AcDbLine
 10
1640.759659284994
 20
582.5497735433222
 30
0.0
 11
1640.455659284994
 21
582.2457735433222
 31
0.0
  0
LINE
  5
6170
330
1E
100
AcDbEntity
  8
躯体と製品
  6
Continuous
 62
     4
100
AcDbLine
 10
1646.759659284994
 20
581.4997735433222
 30
0.0
 11
1646.759659284994
 21
583.7497735433222
 31
0.0
  0
ARC
  5
6171
330
1E
100
AcDbEntity
  8
躯体と製品
  6
Continuous
 62
     4
100
AcDbCircle
 10
1646.009659284994
 20
581.4997735433222
 30
0.0
 40
0.75
100
AcDbArc
 50
180.0
 51
0.0
  0
LINE
  5
6172
330
1E
100
AcDbEntity
  8
躯体と製品
  6
Continuous
 62
     4
100
AcDbLine
 10
1645.259659284994
 20
581.4997735433222
 30
0.0
 11
1645.259659284994
 21
582.2497735433223
 31
0.0
  0
LINE
  5
6180
330
1E
100
AcDbEntity
  8
躯体と製品
  6
Continuous
 62
     2
100
AcDbLine
 10
1634.259135284994
 20
659.9984315433222
 30
0.0
 11
1622.081452284994
 21
659.9984315433222
 31
0.0
  0
LINE
  5
6181
330
1E
100
AcDbEntity
  8
躯体と製品
  6
Continuous
 62
     2
100
AcDbLine
 10
1623.381452284994
 20
669.2984315433222
 30
0.0
 11
1607.381452284994
 21
669.2984315433222
 31
0.0
  0
ARC
  5
6186
330
1E
100
AcDbEntity
  8
躯体と製品
  6
Continuous
 62
     4
100
AcDbCircle
 10
1623.431452284994
 20
671.6484315433222
 30
0.0
 40
0.65
100
AcDbArc
 50
180.0
 51
0.0
  0
LINE
  5
6187
330
1E
100
AcDbEntity
  8
躯体と製品
  6
Continuous
 62
     4
100
AcDbLine
 10
1602.781452284994
 20
673.9984315433222
 30
0.0
 11
1624.081452284994
 21
673.9984315433222
 31
0.0
  0
LINE
  5
618A
330
1E
100
AcDbEntity
  8
躯体と製品
  6
Continuous
 62
     4
100
AcDbLine
 10
1612.081452284994
 20
659.9984315433222
 30
0.0
 11
1462.081452284994
 21
659.9984315433222
 31
0.0
  0
LINE
  5
618B
330
1E
100
AcDbEntity
  8
躯体と製品
  6
Continuous
 62
     4
100
AcDbLine
 10
1610.781452284994
 20
661.2984315433223
 30
0.0
 11
1463.381452284994
 21
661.2984315433223
 31
0.0
  0
LINE
  5
618C
330
1E
100
AcDbEntity
  8
躯体と製品
  6
Continuous
 62
     4
100
AcDbLine
 10
1446.081452284994
 20
671.3484315433222
 30
0.0
 11
1446.081452284994
 21
667.9984315433222
 31
0.0
  0
LINE
  5
618D
330
1E
100
AcDbEntity
  8
躯体と製品
  6
Continuous
 62
     4
100
AcDbLine
 10
1463.381452284994
 20
669.2984315433222
 30
0.0
 11
1463.381452284994
 21
661.2984315433223
 31
0.0
  0
LINE
  5
618E
330
1E
100
AcDbEntity
  8
図枠
  6
Continuous
 62
     3
100
AcDbLine
 10
1454.279540284994
 20
629.5819905433222
 30
0.0
 11
1454.279540284994
 21
614.5819905433222
 31
0.0
  0
LINE
  5
6195
330
1E
100
AcDbEntity
  8
躯体と製品
  6
Continuous
 62
     4
100
AcDbLine
 10
1446.081452284994
 20
667.9984315433222
 30
0.0
 11
1462.081452284994
 21
667.9984315433222
 31
0.0
  0
LINE
  5
6196
330
1E
100
AcDbEntity
  8
躯体と製品
  6
Continuous
 62
     4
100
AcDbLine
 10
1462.081452284994
 20
659.9984315433222
 30
0.0
 11
1462.081452284994
 21
667.9984315433222
 31
0.0
  0
LINE
  5
6197
330
1E
100
AcDbEntity
  8
躯体と製品
  6
Continuous
 62
     4
100
AcDbLine
 10
1463.381452284994
 20
669.2984315433222
 30
0.0
 11
1447.381452284994
 21
669.2984315433222
 31
0.0
  0
ARC
  5
6198
330
1E
100
AcDbEntity
  8
躯体と製品
  6
Continuous
 62
     4
100
AcDbCircle
 10
1446.731452284994
 20
671.3484315433222
 30
0.0
 40
0.65
100
AcDbArc
 50
0.0
 51
180.0
  0
LINE
  5
6199
330
1E
100
AcDbEntity
  8
躯体と製品
  6
Continuous
 62
     4
100
AcDbLine
 10
1447.381452284994
 20
671.3484315433222
 30
0.0
 11
1447.381452284994
 21
669.2984315433222
 31
0.0
  0
LINE
  5
619A
330
1E
100
AcDbEntity
  8
図枠
  6
Continuous
 62
     3
100
AcDbLine
 10
1454.279540284994
 20
718.5819905433223
 30
0.0
 11
1454.279540284994
 21
703.5819905433222
 31
0.0
  0
LINE
  5
619B
330
1E
100
AcDbEntity
  8
躯体と製品
  6
Continuous
 62
     2
100
AcDbLine
 10
1606.081452284994
 20
671.3484315433222
 30
0.0
 11
1606.081452284994
 21
667.9984315433222
 31
0.0
  0
LINE
  5
619C
330
1E
100
AcDbEntity
  8
躯体と製品
  6
Continuous
 62
     4
100
AcDbLine
 10
1604.081452284994
 20
667.9984315433222
 30
0.0
 11
1604.081452284994
 21
672.6984315433221
 31
0.0
  0
LINE
  5
619F
330
1E
100
AcDbEntity
  8
躯体と製品
  6
Continuous
 62
     4
100
AcDbLine
 10
1602.781452284994
 20
673.9984315433222
 30
0.0
 11
1602.781452284994
 21
666.6984315433222
 31
0.0
  0
LINE
  5
61AA
330
1E
100
AcDbEntity
  8
躯体と製品
  6
Continuous
 62
     2
100
AcDbLine
 10
1606.081452284994
 20
667.9984315433222
 30
0.0
 11
1622.081452284994
 21
667.9984315433222
 31
0.0
  0
LINE
  5
61AB
330
1E
100
AcDbEntity
  8
躯体と製品
  6
Continuous
 62
     4
100
AcDbLine
 10
1604.081452284994
 20
667.9984315433222
 30
0.0
 11
1612.081452284994
 21
667.9984315433222
 31
0.0
  0
LINE
  5
61AC
330
1E
100
AcDbEntity
  8
躯体と製品
  6
Continuous
 62
     4
100
AcDbLine
 10
1602.781452284994
 20
666.6984315433222
 30
0.0
 11
1610.781452284994
 21
666.6984315433222
 31
0.0
  0
LINE
  5
61AD
330
1E
100
AcDbEntity
  8
躯体と製品
  6
Continuous
 62
     4
100
AcDbLine
 10
1610.781452284994
 20
666.6984315433222
 30
0.0
 11
1610.781452284994
 21
661.2984315433223
 31
0.0
  0
LINE
  5
61AE
330
1E
100
AcDbEntity
  8
躯体と製品
  6
Continuous
 62
     2
100
AcDbLine
 10
1622.081452284994
 20
659.9984315433222
 30
0.0
 11
1622.081452284994
 21
667.9984315433222
 31
0.0
  0
LINE
  5
61AF
330
1E
100
AcDbEntity
  8
躯体と製品
  6
Continuous
 62
     4
100
AcDbLine
 10
1612.081452284994
 20
667.9984315433222
 30
0.0
 11
1612.081452284994
 21
659.9984315433222
 31
0.0
  0
LINE
  5
61B5
330
1E
100
AcDbEntity
  8
躯体と製品
  6
Continuous
 62
     4
100
AcDbLine
 10
1604.081452284994
 20
672.6984315433221
 30
0.0
 11
1617.977452284994
 21
672.6984315433221
 31
0.0
  0
ARC
  5
61B7
330
1E
100
AcDbEntity
  8
躯体と製品
  6
Continuous
 62
     2
100
AcDbCircle
 10
1606.731452284994
 20
671.3484315433222
 30
0.0
 40
0.65
100
AcDbArc
 50
0.0
 51
180.0
  0
LINE
  5
61B8
330
1E
100
AcDbEntity
  8
躯体と製品
  6
Continuous
 62
     2
100
AcDbLine
 10
1607.381452284994
 20
671.3484315433222
 30
0.0
 11
1607.381452284994
 21
669.2984315433222
 31
0.0
  0
LINE
  5
61BD
330
1E
100
AcDbEntity
  8
躯体と製品
  6
PLINE3
 62
     3
100
AcDbLine
 10
1618.281452284994
 20
681.5218985433221
 30
0.0
 11
1618.281452284994
 21
670.1904705433222
 31
0.0
  0
LINE
  5
61BE
330
1E
100
AcDbEntity
  8
躯体と製品
  6
Continuous
 62
     4
100
AcDbLine
 10
1618.281452284994
 20
672.9984315433222
 30
0.0
 11
1618.585452284994
 21
672.6944315433222
 31
0.0
  0
LINE
  5
61BF
330
1E
100
AcDbEntity
  8
躯体と製品
  6
Continuous
 62
     4
100
AcDbLine
 10
1618.281452284994
 20
672.9984315433222
 30
0.0
 11
1617.977452284994
 21
672.6944315433222
 31
0.0
  0
LINE
  5
61C0
330
1E
100
AcDbEntity
  8
躯体と製品
  6
Continuous
 62
     4
100
AcDbLine
 10
1618.585452284994
 20
672.6984315433221
 30
0.0
 11
1622.781452284994
 21
672.6984315433221
 31
0.0
  0
LINE
  5
61C1
330
1E
100
AcDbEntity
  8
躯体と製品
  6
Continuous
 62
     4
100
AcDbLine
 10
1622.781452284994
 20
671.6484315433222
 30
0.0
 11
1622.781452284994
 21
672.6984315433221
 31
0.0
  0
LINE
  5
61CE
330
1E
100
AcDbEntity
  8
躯体と製品
  6
Continuous
 62
     2
100
AcDbLine
 10
1623.381452284994
 20
669.2984315433222
 30
0.0
 11
1623.381452284994
 21
661.2984315433223
 31
0.0
  0
LINE
  5
61D1
330
1E
100
AcDbEntity
  8
躯体と製品
  6
Continuous
 62
     2
100
AcDbLine
 10
1634.259135284994
 20
661.2984315433223
 30
0.0
 11
1623.381452284994
 21
661.2984315433223
 31
0.0
  0
LINE
  5
61DD
330
1E
100
AcDbEntity
  8
躯体と製品
  6
Continuous
 62
     4
100
AcDbLine
 10
1624.081452284994
 20
671.6484315433222
 30
0.0
 11
1624.081452284994
 21
673.9984315433222
 31
0.0
  0
DIMENSION
  5
61E3
330
1E
100
AcDbEntity
  8
寸法
  6
Continuous
100
AcDbDimension
  2
*D4
 10
1208.414675284994
 20
667.9984315433222
 30
0.0
 11
1205.914675284994
 21
663.9984315433223
 31
0.0
 70
    32
 71
     5
 42
8.0
  3
AutoCAD
100
AcDbAlignedDimension
 13
1232.414675284994
 23
659.9984315433222
 33
0.0
 14
1227.414675284994
 24
667.9984315433222
 34
0.0
 50
90.0
100
AcDbRotatedDimension
  0
DIMENSION
  5
61F0
330
1E
100
AcDbEntity
  8
寸法
  6
Continuous
100
AcDbDimension
  2
*D5
 10
1208.414675284994
 20
672.4984315433222
 30
0.0
 11
1208.414675284994
 21
670.2484315433223
 31
0.0
 70
   160
  1
4.5
 71
     5
 42
4.5
  3
AutoCAD
100
AcDbAlignedDimension
 13
1227.414675284994
 23
667.9984315433222
 33
0.0
 14
1227.759875284994
 24
672.4984315433222
 34
0.0
 50
90.0
100
AcDbRotatedDimension
  0
DIMENSION
  5
6208
330
1E
100
AcDbEntity
  8
寸法
  6
Continuous
100
AcDbDimension
  2
*D6
 10
1235.414675284994
 20
647.9984315433222
 30
0.0
 11
1232.914675284994
 21
650.4984315433222
 31
0.0
 70
    32
 71
     5
 42
5.0
  3
AutoCAD
100
AcDbAlignedDimension
 13
1230.414675284994
 23
664.9984315433222
 33
0.0
 14
1235.414675284994
 24
656.9984315433222
 34
0.0
100
AcDbRotatedDimension
  0
DIMENSION
  5
6215
330
1E
100
AcDbEntity
  8
寸法
  6
Continuous
100
AcDbDimension
  2
*D7
 10
1235.914675284994
 20
675.3387185433223
 30
0.0
 11
1235.664675284994
 21
677.8387185433223
 31
0.0
 70
    32
  1
0.5
 71
     5
 42
0.5
  3
AutoCAD
100
AcDbAlignedDimension
 13
1235.414675284994
 23
664.6960235433222
 33
0.0
 14
1235.914675284994
 24
670.5368735433222
 34
0.0
100
AcDbRotatedDimension
  0
DIMENSION
  5
622D
330
1E
100
AcDbEntity
  8
寸法
  6
Continuous
100
AcDbDimension
  2
*D8
 10
1335.414675284994
 20
647.9984315433222
 30
0.0
 11
1285.414675284994
 21
650.4984315433222
 31
0.0
 70
    32
 71
     5
 42
100.0
  3
AutoCAD
100
AcDbAlignedDimension
 13
1235.414675284994
 23
656.9984315433222
 33
0.0
 14
1335.414675284994
 24
656.9984315433222
 34
0.0
100
AcDbRotatedDimension
  0
DIMENSION
  5
623A
330
1E
100
AcDbEntity
  8
寸法
  6
Continuous
100
AcDbDimension
  2
*D9
 10
1316.990882114885
 20
672.9984315433222
 30
0.0
 11
1316.990882114885
 21
670.4984315433224
 31
0.0
 70
   160
  1
(5)
 71
     5
 42
5.0
  3
AutoCAD
100
AcDbAlignedDimension
 13
1324.318900284994
 23
667.9984315433222
 33
0.0
 14
1324.624944284994
 24
672.9984315433222
 34
0.0
 50
90.0
100
AcDbRotatedDimension
  0
DIMENSION
  5
6251
330
1E
100
AcDbEntity
  8
寸法
  6
Continuous
100
AcDbDimension
  2
*D10
 10
1330.414675284994
 20
680.8234415433222
 30
0.0
 11
1328.914675284994
 21
684.1091558290365
 31
0.0
 70
    32
  1
(3)
 71
     5
 42
3.0
  3
AutoCAD
100
AcDbAlignedDimension
 13
1327.414675284994
 23
675.6189685433222
 33
0.0
 14
1330.414675284994
 24
676.1132365433223
 34
0.0
100
AcDbRotatedDimension
  0
DIMENSION
  5
6269
330
1E
100
AcDbEntity
  8
寸法
  6
Continuous
100
AcDbDimension
  2
*D11
 10
1335.414675284994
 20
686.4111025433222
 30
0.0
 11
1331.414675284994
 21
688.9111025433221
 31
0.0
 70
    32
 71
     5
 42
8.0
  3
AutoCAD
100
AcDbAlignedDimension
 13
1327.414675284994
 23
675.6189685433222
 33
0.0
 14
1335.414675284994
 24
672.1323395433222
 34
0.0
100
AcDbRotatedDimension
  0
DIMENSION
  5
6276
330
1E
100
AcDbEntity
  8
寸法
  6
Continuous
100
AcDbDimension
  2
*D12
 10
1347.414675284994
 20
686.4111025433222
 30
0.0
 11
1341.414675284994
 21
688.9111025433221
 31
0.0
 70
    32
 71
     5
 42
12.0
  3
AutoCAD
100
AcDbAlignedDimension
 13
1335.414675284994
 23
672.1323395433222
 33
0.0
 14
1347.414675284994
 24
676.9984315433222
 34
0.0
100
AcDbRotatedDimension
  0
DIMENSION
  5
6283
330
1E
100
AcDbEntity
  8
寸法
  6
Continuous
100
AcDbDimension
  2
*D13
 10
1347.414675284994
 20
680.8234415433222
 30
0.0
 11
1344.664675284994
 21
680.8234415433222
 31
0.0
 70
   160
  1
5.5
 71
     5
 42
5.5
  3
AutoCAD
100
AcDbAlignedDimension
 13
1341.914675284994
 23
680.8234415433222
 33
0.0
 14
1347.414675284994
 24
680.7757545433222
 34
0.0
100
AcDbRotatedDimension
  0
DIMENSION
  5
6298
330
1E
100
AcDbEntity
  8
寸法
  6
Continuous
100
AcDbDimension
  2
*D14
 10
1347.664675284994
 20
691.9984315433222
 30
0.0
 11
1337.539675284994
 21
694.4984315433222
 31
0.0
 70
    32
 71
     5
 42
20.25
  3
AutoCAD
100
AcDbAlignedDimension
 13
1327.414675284994
 23
686.4111025433222
 33
0.0
 14
1347.664675284994
 24
686.4111025433222
 34
0.0
100
AcDbRotatedDimension
  0
DIMENSION
  5
62A5
330
1E
100
AcDbEntity
  8
寸法
  6
Continuous
100
AcDbDimension
  2
*D15
 10
1361.746026284994
 20
670.9984315433222
 30
0.0
 11
1359.246026284994
 21
672.4984315433224
 31
0.0
 70
    32
 71
     5
 42
3.0
  3
AutoCAD
100
AcDbAlignedDimension
 13
1349.414675284994
 23
673.9984315433222
 33
0.0
 14
1349.409785284994
 24
670.9984315433222
 34
0.0
 50
90.0
100
AcDbRotatedDimension
  0
DIMENSION
  5
62B3
330
1E
100
AcDbEntity
  8
寸法
  6
Continuous
100
AcDbDimension
  2
*D16
 10
1369.487205284994
 20
659.9984315433222
 30
0.0
 11
1366.987205284994
 21
666.9984315433224
 31
0.0
 70
    32
 71
     5
 42
14.0
  3
AutoCAD
100
AcDbAlignedDimension
 13
1349.414675284994
 23
673.9984315433222
 33
0.0
 14
1360.458878284994
 24
659.9984315433222
 34
0.0
 50
90.0
100
AcDbRotatedDimension
  0
DIMENSION
  5
62C0
330
1E
100
AcDbEntity
  8
寸法
  6
Continuous
100
AcDbDimension
  2
*D17
 10
1434.258996284994
 20
667.9984315433222
 30
0.0
 11
1431.758996284994
 21
663.9984315433224
 31
0.0
 70
    32
 71
     5
 42
8.0
  3
AutoCAD
100
AcDbAlignedDimension
 13
1459.327092284994
 23
659.9984315433222
 33
0.0
 14
1443.081452284994
 24
667.9984315433222
 34
0.0
 50
90.0
100
AcDbRotatedDimension
  0
DIMENSION
  5
62CD
330
1E
100
AcDbEntity
  8
寸法
  6
Continuous
100
AcDbDimension
  2
*D18
 10
1434.258996284994
 20
671.9984315433222
 30
0.0
 11
1434.258996284994
 21
669.9830989258205
 31
0.0
 70
   160
 71
     5
 42
4.0
  3
AutoCAD
100
AcDbAlignedDimension
 13
1443.081452284994
 23
667.9984315433222
 33
0.0
 14
1443.040201284994
 24
671.9984315433222
 34
0.0
 50
90.0
100
AcDbRotatedDimension
  0
DIMENSION
  5
62DB
330
1E
100
AcDbEntity
  8
寸法
  6
Continuous
100
AcDbDimension
  2
*D19
 10
1462.081452284994
 20
647.9984315433222
 30
0.0
 11
1454.081452284994
 21
650.4984315433222
 31
0.0
 70
    32
 71
     5
 42
16.0
  3
AutoCAD
100
AcDbAlignedDimension
 13
1446.081452284994
 23
664.9984315433222
 33
0.0
 14
1462.081452284994
 24
656.9984315433222
 34
0.0
100
AcDbRotatedDimension
  0
DIMENSION
  5
62E8
330
1E
100
AcDbEntity
  8
寸法
  6
Continuous
100
AcDbDimension
  2
*D20
 10
1612.081452284994
 20
647.9984315433222
 30
0.0
 11
1537.081452284994
 21
650.4984315433222
 31
0.0
 70
    32
 71
     5
 42
150.0
  3
AutoCAD
100
AcDbAlignedDimension
 13
1462.081452284994
 23
656.9984315433222
 33
0.0
 14
1612.081452284994
 24
656.9984315433222
 34
0.0
100
AcDbRotatedDimension
  0
DIMENSION
  5
62F5
330
1E
100
AcDbEntity
  8
寸法
  6
Continuous
100
AcDbDimension
  2
*D21
 10
1622.081452284994
 20
647.9984315433222
 30
0.0
 11
1617.081452284994
 21
650.4984315433222
 31
0.0
 70
    32
 71
     5
 42
10.0
  3
AutoCAD
100
AcDbAlignedDimension
 13
1612.081452284994
 23
656.9984315433222
 33
0.0
 14
1622.081452284994
 24
657.6504905433222
 34
0.0
100
AcDbRotatedDimension
  0
DIMENSION
  5
6302
330
1E
100
AcDbEntity
  8
寸法
  6
Continuous
100
AcDbDimension
  2
*D22
 10
1594.482365848918
 20
672.6984315433221
 30
0.0
 11
1594.482365848917
 21
670.3484315433223
 31
0.0
 70
   160
  1
(4.7)
 71
     5
 42
4.699999999999931
  3
AutoCAD
100
AcDbAlignedDimension
 13
1602.195849284994
 23
667.9984315433222
 33
0.0
 14
1602.397920284994
 24
672.6984315433221
 34
0.0
 50
90.0
100
AcDbRotatedDimension
  0
DIMENSION
  5
6319
330
1E
100
AcDbEntity
  8
寸法
  6
Continuous
100
AcDbDimension
  2
*D23
 10
1606.081452284994
 20
680.8234415433222
 30
0.0
 11
1605.081452284994
 21
684.1091558290365
 31
0.0
 70
    32
  1
(2)
 71
     5
 42
2.0
  3
AutoCAD
100
AcDbAlignedDimension
 13
1604.081452284994
 23
674.9879965433222
 33
0.0
 14
1606.081452284994
 24
675.7935085433222
 34
0.0
100
AcDbRotatedDimension
  0
DIMENSION
  5
6331
330
1E
100
AcDbEntity
  8
寸法
  6
Continuous
100
AcDbDimension
  2
*D24
 10
1612.081452284994
 20
686.4111025433222
 30
0.0
 11
1608.081452284994
 21
688.9111025433221
 31
0.0
 70
    32
 71
     5
 42
8.0
  3
AutoCAD
100
AcDbAlignedDimension
 13
1604.081452284994
 23
674.9879965433222
 33
0.0
 14
1612.081452284994
 24
671.8323395433221
 34
0.0
100
AcDbRotatedDimension
  0
DIMENSION
  5
633E
330
1E
100
AcDbEntity
  8
寸法
  6
Continuous
100
AcDbDimension
  2
*D25
 10
1624.081452284994
 20
686.4111025433222
 30
0.0
 11
1618.081452284994
 21
688.9111025433221
 31
0.0
 70
    32
 71
     5
 42
12.0
  3
AutoCAD
100
AcDbAlignedDimension
 13
1612.081452284994
 23
671.8323395433221
 33
0.0
 14
1624.081452284994
 24
674.9357395433222
 34
0.0
100
AcDbRotatedDimension
  0
DIMENSION
  5
634B
330
1E
100
AcDbEntity
  8
寸法
  6
Continuous
100
AcDbDimension
  2
*D26
 10
1624.081452284994
 20
680.8234415433222
 30
0.0
 11
1621.181452284994
 21
680.8234415433222
 31
0.0
 70
   160
  1
5.8
 71
     5
 42
5.800000000000181
  3
AutoCAD
100
AcDbAlignedDimension
 13
1618.281452284994
 23
680.8234415433222
 33
0.0
 14
1624.081452284994
 24
680.8234415433222
 34
0.0
100
AcDbRotatedDimension
  0
DIMENSION
  5
635E
330
1E
100
AcDbEntity
  8
寸法
  6
Continuous
100
AcDbDimension
  2
*D27
 10
1624.081452284994
 20
691.6984315433222
 30
0.0
 11
1614.081452284994
 21
694.1984315433221
 31
0.0
 70
    32
 71
     5
 42
20.0
  3
AutoCAD
100
AcDbAlignedDimension
 13
1604.081452284994
 23
686.4111025433222
 33
0.0
 14
1624.081452284994
 24
686.1611025433221
 34
0.0
100
AcDbRotatedDimension
  0
DIMENSION
  5
636B
330
1E
100
AcDbEntity
  8
寸法
  6
Continuous
100
AcDbDimension
  2
*D28
 10
1638.493583284994
 20
659.9984315433222
 30
0.0
 11
1635.993583284994
 21
663.9984315433224
 31
0.0
 70
    32
 71
     5
 42
8.0
  3
AutoCAD
100
AcDbAlignedDimension
 13
1625.765074284994
 23
667.9984315433222
 33
0.0
 14
1635.002813284994
 24
659.9984315433222
 34
0.0
 50
90.0
100
AcDbRotatedDimension
  0
DIMENSION
  5
6378
330
1E
100
AcDbEntity
  8
寸法
  6
Continuous
100
AcDbDimension
  2
*D29
 10
1646.153973284994
 20
659.9984315433222
 30
0.0
 11
1643.653973284994
 21
666.9984315433224
 31
0.0
 70
    32
 71
     5
 42
14.0
  3
AutoCAD
100
AcDbAlignedDimension
 13
1626.192290284994
 23
673.9984315433222
 33
0.0
 14
1635.002813284994
 24
659.9984315433222
 34
0.0
 50
90.0
100
AcDbRotatedDimension
  0
DIMENSION
  5
6385
330
1E
100
AcDbEntity
  8
寸法
  6
Continuous
100
AcDbDimension
  2
*D30
 10
1616.805904594915
 20
582.2497735433223
 30
0.0
 11
1616.805904594915
 21
579.9997735433224
 31
0.0
 70
   160
  1
(4.5)
 71
     5
 42
4.5
  3
AutoCAD
100
AcDbAlignedDimension
 13
1624.874056284994
 23
577.7497735433222
 33
0.0
 14
1625.076127284994
 24
582.2497735433223
 34
0.0
 50
90.0
100
AcDbRotatedDimension
  0
DIMENSION
  5
63A7
330
1E
100
AcDbEntity
  8
寸法
  6
Continuous
100
AcDbDimension
  2
*D31
 10
1628.759659284994
 20
590.5747825433222
 30
0.0
 11
1627.759659284994
 21
593.8604968290365
 31
0.0
 70
    32
  1
(2)
 71
     5
 42
2.0
  3
AutoCAD
100
AcDbAlignedDimension
 13
1626.759659284994
 23
584.5393375433222
 33
0.0
 14
1628.759659284994
 24
585.5434605433222
 34
0.0
100
AcDbRotatedDimension
  0
DIMENSION
  5
63BF
330
1E
100
AcDbEntity
  8
寸法
  6
Continuous
100
AcDbDimension
  2
*D32
 10
1634.759659284994
 20
596.1624445433222
 30
0.0
 11
1630.759659284994
 21
598.6624445433221
 31
0.0
 70
    32
 71
     5
 42
8.0
  3
AutoCAD
100
AcDbAlignedDimension
 13
1626.759659284994
 23
584.5393375433222
 33
0.0
 14
1634.759659284994
 24
581.3836815433222
 34
0.0
100
AcDbRotatedDimension
  0
DIMENSION
  5
63CC
330
1E
100
AcDbEntity
  8
寸法
  6
Continuous
100
AcDbDimension
  2
*D33
 10
1646.759659284994
 20
596.1624445433222
 30
0.0
 11
1640.759659284994
 21
598.6624445433221
 31
0.0
 70
    32
 71
     5
 42
12.0
  3
AutoCAD
100
AcDbAlignedDimension
 13
1634.759659284994
 23
581.3836815433222
 33
0.0
 14
1646.759659284994
 24
584.4870815433222
 34
0.0
100
AcDbRotatedDimension
  0
DIMENSION
  5
63D9
330
1E
100
AcDbEntity
  8
寸法
  6
Continuous
100
AcDbDimension
  2
*D34
 10
1646.759659284994
 20
590.5747825433222
 30
0.0
 11
1643.759659284994
 21
593.0747825433222
 31
0.0
 70
    32
 71
     5
 42
6.0
  3
AutoCAD
100
AcDbAlignedDimension
 13
1640.759659284994
 23
590.5747825433222
 33
0.0
 14
1646.759659284994
 24
590.5270965433222
 34
0.0
100
AcDbRotatedDimension
  0
DIMENSION
  5
63E5
330
1E
100
AcDbEntity
  8
寸法
  6
Continuous
100
AcDbDimension
  2
*D35
 10
1646.509659284994
 20
601.2497735433222
 30
0.0
 11
1636.509659284994
 21
603.7497735433222
 31
0.0
 70
    32
 71
     5
 42
20.0
  3
AutoCAD
100
AcDbAlignedDimension
 13
1626.509659284994
 23
596.1624445433222
 33
0.0
 14
1646.509659284994
 24
596.1624445433222
 34
0.0
100
AcDbRotatedDimension
  0
DIMENSION
  5
63F2
330
1E
100
AcDbEntity
  8
寸法
  6
Continuous
100
AcDbDimension
  2
*D36
 10
1661.171762284994
 20
580.7497735433222
 30
0.0
 11
1658.671762284994
 21
582.2497735433224
 31
0.0
 70
    32
 71
     5
 42
3.0
  3
AutoCAD
100
AcDbAlignedDimension
 13
1648.870497284994
 23
583.7497735433222
 33
0.0
 14
1649.205612284994
 24
580.7497735433222
 34
0.0
 50
90.0
100
AcDbRotatedDimension
  0
DIMENSION
  5
6400
330
1E
100
AcDbEntity
  8
寸法
  6
Continuous
100
AcDbDimension
  2
*D37
 10
1661.171790284994
 20
569.7497735433223
 30
0.0
 11
1658.671790284994
 21
573.7497735433224
 31
0.0
 70
    32
 71
     5
 42
8.0
  3
AutoCAD
100
AcDbAlignedDimension
 13
1648.443281284994
 23
577.7497735433222
 33
0.0
 14
1657.681020284994
 24
569.7497735433223
 34
0.0
 50
90.0
100
AcDbRotatedDimension
  0
DIMENSION
  5
640D
330
1E
100
AcDbEntity
  8
寸法
  6
Continuous
100
AcDbDimension
  2
*D38
 10
1668.832180284994
 20
583.7497735433222
 30
0.0
 11
1666.332180284994
 21
576.7497735433225
 31
0.0
 70
    32
 71
     5
 42
14.0
  3
AutoCAD
100
AcDbAlignedDimension
 13
1657.681020284994
 23
569.7497735433223
 33
0.0
 14
1648.870497284994
 24
583.7497735433222
 34
0.0
 50
90.0
100
AcDbRotatedDimension
  0
DIMENSION
  5
641A
330
1E
100
AcDbEntity
  8
寸法
  6
Continuous
100
AcDbDimension
  2
*D39
 10
1644.759659284994
 20
557.7497735433222
 30
0.0
 11
1639.759659284994
 21
560.2497735433222
 31
0.0
 70
    32
 71
     5
 42
10.0
  3
AutoCAD
100
AcDbAlignedDimension
 13
1634.759659284994
 23
566.7497735433222
 33
0.0
 14
1644.759659284994
 24
567.4018315433222
 34
0.0
100
AcDbRotatedDimension
  0
DIMENSION
  5
6427
330
1E
100
AcDbEntity
  8
寸法
  6
Continuous
100
AcDbDimension
  2
*D40
 10
1434.759659284994
 20
557.7497735433222
 30
0.0
 11
1534.759659284994
 21
560.2497735433222
 31
0.0
 70
    32
 71
     5
 42
200.0
  3
AutoCAD
100
AcDbAlignedDimension
 13
1634.759659284994
 23
566.7497735433222
 33
0.0
 14
1434.759659284994
 24
566.7497735433222
 34
0.0
100
AcDbRotatedDimension
  0
DIMENSION
  5
6434
330
1E
100
AcDbEntity
  8
寸法
  6
Continuous
100
AcDbDimension
  2
*D41
 10
1418.759659284994
 20
557.7497735433222
 30
0.0
 11
1426.759659284994
 21
560.2497735433222
 31
0.0
 70
    32
 71
     5
 42
16.0
  3
AutoCAD
100
AcDbAlignedDimension
 13
1434.759659284994
 23
566.7497735433222
 33
0.0
 14
1418.759659284994
 24
574.7497735433222
 34
0.0
100
AcDbRotatedDimension
  0
DIMENSION
  5
6441
330
1E
100
AcDbEntity
  8
寸法
  6
Continuous
100
AcDbDimension
  2
*D42
 10
1406.937204284994
 20
577.7497735433222
 30
0.0
 11
1404.437204284994
 21
573.7497735433224
 31
0.0
 70
    32
 71
     5
 42
8.0
  3
AutoCAD
100
AcDbAlignedDimension
 13
1431.784258284994
 23
569.7497735433223
 33
0.0
 14
1415.759659284994
 24
577.7497735433222
 34
0.0
 50
90.0
100
AcDbRotatedDimension
  0
DIMENSION
  5
644E
330
1E
100
AcDbEntity
  8
寸法
  6
Continuous
100
AcDbDimension
  2
*D43
 10
1406.937204284994
 20
581.7497735433222
 30
0.0
 11
1406.937204284994
 21
579.6777270912343
 31
0.0
 70
   160
 71
     5
 42
4.0
  3
AutoCAD
100
AcDbAlignedDimension
 13
1415.759659284994
 23
577.7497735433222
 33
0.0
 14
1415.718408284994
 24
581.7497735433222
 34
0.0
 50
90.0
100
AcDbRotatedDimension
  0
DIMENSION
  5
645C
330
1E
100
AcDbEntity
  8
寸法
  6
Continuous
100
AcDbDimension
  2
*D44
 10
1326.265339812956
 20
582.7497735433222
 30
0.0
 11
1326.265339812956
 21
580.2497735433225
 31
0.0
 70
   160
  1
(5)
 71
     5
 42
5.0
  3
AutoCAD
100
AcDbAlignedDimension
 13
1333.414675284994
 23
577.7497735433222
 33
0.0
 14
1333.414675284994
 24
582.7497735433222
 34
0.0
 50
90.0
100
AcDbRotatedDimension
  0
DIMENSION
  5
6473
330
1E
100
AcDbEntity
  8
寸法
  6
Continuous
100
AcDbDimension
  2
*D45
 10
1316.414675284994
 20
583.7497735433222
 30
0.0
 11
1313.914675284994
 21
580.2497735433225
 31
0.0
 70
    32
 71
     5
 42
7.0
  3
AutoCAD
100
AcDbAlignedDimension
 13
1333.414675284994
 23
576.7497735433222
 33
0.0
 14
1333.414675284994
 24
583.7497735433222
 34
0.0
 50
90.0
100
AcDbRotatedDimension
  0
DIMENSION
  5
648D
330
1E
100
AcDbEntity
  8
寸法
  6
Continuous
100
AcDbDimension
  2
*D46
 10
1340.414675284994
 20
590.5747825433222
 30
0.0
 11
1338.914675284994
 21
593.8604968290365
 31
0.0
 70
    32
  1
(3)
 71
     5
 42
3.0
  3
AutoCAD
100
AcDbAlignedDimension
 13
1337.414675284994
 23
586.1816965433222
 33
0.0
 14
1340.414675284994
 24
585.8359405433223
 34
0.0
100
AcDbRotatedDimension
  0
DIMENSION
  5
64A5
330
1E
100
AcDbEntity
  8
寸法
  6
Continuous
100
AcDbDimension
  2
*D47
 10
1345.414675284994
 20
596.1624445433222
 30
0.0
 11
1341.414675284994
 21
598.6624445433221
 31
0.0
 70
    32
 71
     5
 42
8.0
  3
AutoCAD
100
AcDbAlignedDimension
 13
1337.414675284994
 23
586.1816965433222
 33
0.0
 14
1345.414675284994
 24
581.8836815433222
 34
0.0
100
AcDbRotatedDimension
  0
DIMENSION
  5
64B2
330
1E
100
AcDbEntity
  8
寸法
  6
Continuous
100
AcDbDimension
  2
*D48
 10
1357.414675284994
 20
596.1624445433222
 30
0.0
 11
1351.414675284994
 21
598.6624445433221
 31
0.0
 70
    32
 71
     5
 42
12.0
  3
AutoCAD
100
AcDbAlignedDimension
 13
1345.414675284994
 23
581.8836815433222
 33
0.0
 14
1357.414675284994
 24
586.7497735433222
 34
0.0
100
AcDbRotatedDimension
  0
DIMENSION
  5
64BF
330
1E
100
AcDbEntity
  8
寸法
  6
Continuous
100
AcDbDimension
  2
*D49
 10
1357.414675284994
 20
590.5747825433222
 30
0.0
 11
1354.414675284994
 21
593.0747825433222
 31
0.0
 70
    32
 71
     5
 42
6.0
  3
AutoCAD
100
AcDbAlignedDimension
 13
1351.414675284994
 23
590.5747825433222
 33
0.0
 14
1357.414675284994
 24
590.5270965433222
 34
0.0
100
AcDbRotatedDimension
  0
DIMENSION
  5
64CB
330
1E
100
AcDbEntity
  8
寸法
  6
Continuous
100
AcDbDimension
  2
*D50
 10
1357.414675284994
 20
601.7497735433222
 30
0.0
 11
1347.539675284994
 21
604.2497735433222
 31
0.0
 70
    32
 71
     5
 42
19.75
  3
AutoCAD
100
AcDbAlignedDimension
 13
1337.664675284994
 23
596.1624445433222
 33
0.0
 14
1357.414675284994
 24
596.4124445433221
 34
0.0
100
AcDbRotatedDimension
  0
DIMENSION
  5
64D8
330
1E
100
AcDbEntity
  8
寸法
  6
Continuous
100
AcDbDimension
  2
*D51
 10
1368.414675284994
 20
580.7497735433222
 30
0.0
 11
1365.914675284994
 21
582.2497735433224
 31
0.0
 70
    32
 71
     5
 42
3.0
  3
AutoCAD
100
AcDbAlignedDimension
 13
1359.414675284994
 23
583.7497735433222
 33
0.0
 14
1360.414675284994
 24
580.7497735433222
 34
0.0
 50
90.0
100
AcDbRotatedDimension
  0
DIMENSION
  5
64E6
330
1E
100
AcDbEntity
  8
寸法
  6
Continuous
100
AcDbDimension
  2
*D52
 10
1368.414675284994
 20
569.7497735433223
 30
0.0
 11
1365.914675284994
 21
573.7497735433224
 31
0.0
 70
    32
 71
     5
 42
8.0
  3
AutoCAD
100
AcDbAlignedDimension
 13
1358.098297284994
 23
577.7497735433222
 33
0.0
 14
1366.737679284994
 24
569.7497735433223
 34
0.0
 50
90.0
100
AcDbRotatedDimension
  0
DIMENSION
  5
64F3
330
1E
100
AcDbEntity
  8
寸法
  6
Continuous
100
AcDbDimension
  2
*D53
 10
1376.611921284994
 20
569.7497735433223
 30
0.0
 11
1374.111921284994
 21
576.7497735433225
 31
0.0
 70
    32
 71
     5
 42
14.0
  3
AutoCAD
100
AcDbAlignedDimension
 13
1359.414675284994
 23
583.7497735433222
 33
0.0
 14
1373.373028284994
 24
569.7497735433223
 34
0.0
 50
90.0
100
AcDbRotatedDimension
  0
DIMENSION
  5
6500
330
1E
100
AcDbEntity
  8
寸法
  6
Continuous
100
AcDbDimension
  2
*D54
 10
1355.414675284994
 20
557.7497735433222
 30
0.0
 11
1350.414675284994
 21
560.2497735433222
 31
0.0
 70
    32
 71
     5
 42
10.0
  3
AutoCAD
100
AcDbAlignedDimension
 13
1345.414675284994
 23
566.7497735433222
 33
0.0
 14
1355.414675284994
 24
567.9622135433223
 34
0.0
100
AcDbRotatedDimension
  0
DIMENSION
  5
650D
330
1E
100
AcDbEntity
  8
寸法
  6
Continuous
100
AcDbDimension
  2
*D55
 10
1345.414675284994
 20
557.7497735433222
 30
0.0
 11
1295.414675284994
 21
560.2497735433222
 31
0.0
 70
    32
 71
     5
 42
100.0
  3
AutoCAD
100
AcDbAlignedDimension
 13
1245.414675284994
 23
566.7497735433222
 33
0.0
 14
1345.414675284994
 24
566.7497735433222
 34
0.0
100
AcDbRotatedDimension
  0
DIMENSION
  5
651A
330
1E
100
AcDbEntity
  8
寸法
  6
Continuous
100
AcDbDimension
  2
*D56
 10
1245.414675284994
 20
557.7497735433222
 30
0.0
 11
1237.914675284994
 21
560.2497735433222
 31
0.0
 70
    32
 71
     5
 42
15.0
  3
AutoCAD
100
AcDbAlignedDimension
 13
1230.414675284994
 23
574.7497735433222
 33
0.0
 14
1245.414675284994
 24
566.7497735433222
 34
0.0
100
AcDbRotatedDimension
  0
DIMENSION
  5
6527
330
1E
100
AcDbEntity
  8
寸法
  6
Continuous
100
AcDbDimension
  2
*D57
 10
1218.414675284994
 20
577.7497735433222
 30
0.0
 11
1215.914675284994
 21
573.7497735433223
 31
0.0
 70
    32
 71
     5
 42
8.0
  3
AutoCAD
100
AcDbAlignedDimension
 13
1242.414675284994
 23
569.7497735433223
 33
0.0
 14
1227.414675284994
 24
577.7497735433222
 34
0.0
 50
90.0
100
AcDbRotatedDimension
  0
DIMENSION
  5
6534
330
1E
100
AcDbEntity
  8
寸法
  6
Continuous
100
AcDbDimension
  2
*D58
 10
1218.414675284994
 20
582.0497735433222
 30
0.0
 11
1218.414675284994
 21
579.8997735433223
 31
0.0
 70
   160
  1
4.3
 71
     5
 42
4.299999999999954
  3
AutoCAD
100
AcDbAlignedDimension
 13
1227.414675284994
 23
577.7497735433222
 33
0.0
 14
1227.414675284994
 24
582.0497735433222
 34
0.0
 50
90.0
100
AcDbRotatedDimension
  0
DIMENSION
  5
654C
330
1E
100
AcDbEntity
  8
寸法
  6
Continuous
100
AcDbDimension
  2
*D59
 10
1200.385107284994
 20
491.4331945433222
 30
0.0
 11
1200.385107284994
 21
494.1180628550485
 31
0.0
 70
   160
 71
     5
 42
4.0
  3
AutoCAD
100
AcDbAlignedDimension
 13
1208.343856284994
 23
495.4331945433222
 33
0.0
 14
1208.385107284994
 24
491.4331945433222
 34
0.0
 50
90.0
100
AcDbRotatedDimension
  0
DIMENSION
  5
655A
330
1E
100
AcDbEntity
  8
寸法
  6
Continuous
100
AcDbDimension
  2
*D60
 10
1200.385107284994
 20
483.4331945433222
 30
0.0
 11
1197.885107284994
 21
487.4331945433224
 31
0.0
 70
    32
 71
     5
 42
8.0
  3
AutoCAD
100
AcDbAlignedDimension
 13
1208.385107284994
 23
491.4331945433222
 33
0.0
 14
1223.757278284994
 24
483.4331945433222
 34
0.0
 50
90.0
100
AcDbRotatedDimension
  0
DIMENSION
  5
6567
330
1E
100
AcDbEntity
  8
寸法
  6
Continuous
100
AcDbDimension
  2
*D61
 10
1227.385107284994
 20
471.4331945433221
 30
0.0
 11
1219.385107284994
 21
473.9331945433222
 31
0.0
 70
    32
 71
     5
 42
16.0
  3
AutoCAD
100
AcDbAlignedDimension
 13
1211.385107284994
 23
488.4331945433221
 33
0.0
 14
1227.385107284994
 24
480.4331945433221
 34
0.0
100
AcDbRotatedDimension
  0
DIMENSION
  5
6574
330
1E
100
AcDbEntity
  8
寸法
  6
Continuous
100
AcDbDimension
  2
*D62
 10
1347.385107284994
 20
471.4331945433221
 30
0.0
 11
1287.385107284994
 21
473.9331945433222
 31
0.0
 70
    32
 71
     5
 42
120.0
  3
AutoCAD
100
AcDbAlignedDimension
 13
1227.385107284994
 23
480.4331945433221
 33
0.0
 14
1347.385107284994
 24
480.4331945433221
 34
0.0
100
AcDbRotatedDimension
  0
DIMENSION
  5
6581
330
1E
100
AcDbEntity
  8
寸法
  6
Continuous
100
AcDbDimension
  2
*D63
 10
1357.385107284994
 20
471.4331945433221
 30
0.0
 11
1352.385107284994
 21
473.9331945433222
 31
0.0
 70
    32
 71
     5
 42
10.0
  3
AutoCAD
100
AcDbAlignedDimension
 13
1347.385107284994
 23
480.4331945433221
 33
0.0
 14
1357.385107284994
 24
481.0852535433221
 34
0.0
100
AcDbRotatedDimension
  0
DIMENSION
  5
658E
330
1E
100
AcDbEntity
  8
寸法
  6
Continuous
100
AcDbDimension
  2
*D64
 10
1373.797238284994
 20
491.4331945433222
 30
0.0
 11
1371.297238284994
 21
487.4331945433224
 31
0.0
 70
    32
 71
     5
 42
8.0
  3
AutoCAD
100
AcDbAlignedDimension
 13
1369.506384284994
 23
483.4331945433222
 33
0.0
 14
1361.068729284994
 24
491.4331945433222
 34
0.0
 50
90.0
100
AcDbRotatedDimension
  0
DIMENSION
  5
659B
330
1E
100
AcDbEntity
  8
寸法
  6
Continuous
100
AcDbDimension
  2
*D65
 10
1373.797238284994
 20
497.3331945433222
 30
0.0
 11
1371.297238284994
 21
495.8331945433224
 31
0.0
 70
    32
 71
     5
 42
3.0
  3
AutoCAD
100
AcDbAlignedDimension
 13
1362.124227284994
 23
494.3331945433222
 33
0.0
 14
1361.291447284994
 24
497.3331945433222
 34
0.0
 50
90.0
100
AcDbRotatedDimension
  0
DIMENSION
  5
65A9
330
1E
100
AcDbEntity
  8
寸法
  6
Continuous
100
AcDbDimension
  2
*D66
 10
1381.457637284994
 20
497.3331945433222
 30
0.0
 11
1378.957637284994
 21
490.3831945433224
 31
0.0
 70
    32
 71
     5
 42
13.90000000000003
  3
AutoCAD
100
AcDbAlignedDimension
 13
1369.506384284994
 23
483.4331945433222
 33
0.0
 14
1361.291447284994
 24
497.3331945433222
 34
0.0
 50
90.0
100
AcDbRotatedDimension
  0
DIMENSION
  5
65B6
330
1E
100
AcDbEntity
  8
寸法
  6
Continuous
100
AcDbDimension
  2
*D67
 10
1327.510856596161
 20
496.2331945433222
 30
0.0
 11
1327.510856596161
 21
493.8331945433224
 31
0.0
 70
   160
  1
(4.8)
 71
     5
 42
4.800000000000011
  3
AutoCAD
100
AcDbAlignedDimension
 13
1337.499504284994
 23
491.4331945433222
 33
0.0
 14
1337.701575284994
 24
496.2331945433222
 34
0.0
 50
90.0
100
AcDbRotatedDimension
  0
DIMENSION
  5
65CD
330
1E
100
AcDbEntity
  8
寸法
  6
Continuous
100
AcDbDimension
  2
*D68
 10
1341.385107284994
 20
504.2582045433221
 30
0.0
 11
1340.385107284994
 21
507.5439188290364
 31
0.0
 70
    32
  1
(2)
 71
     5
 42
2.0
  3
AutoCAD
100
AcDbAlignedDimension
 13
1339.385107284994
 23
498.5227595433222
 33
0.0
 14
1341.385107284994
 24
499.8509365433222
 34
0.0
100
AcDbRotatedDimension
  0
DIMENSION
  5
65E5
330
1E
100
AcDbEntity
  8
寸法
  6
Continuous
100
AcDbDimension
  2
*D69
 10
1347.385107284994
 20
509.8458665433222
 30
0.0
 11
1343.385107284994
 21
512.3458665433222
 31
0.0
 70
    32
 71
     5
 42
8.0
  3
AutoCAD
100
AcDbAlignedDimension
 13
1339.385107284994
 23
498.5227595433222
 33
0.0
 14
1347.385107284994
 24
495.3671035433222
 34
0.0
100
AcDbRotatedDimension
  0
DIMENSION
  5
65F2
330
1E
100
AcDbEntity
  8
寸法
  6
Continuous
100
AcDbDimension
  2
*D70
 10
1359.385107284994
 20
509.8458665433222
 30
0.0
 11
1353.385107284994
 21
512.3458665433222
 31
0.0
 70
    32
 71
     5
 42
12.0
  3
AutoCAD
100
AcDbAlignedDimension
 13
1347.385107284994
 23
495.3671035433222
 33
0.0
 14
1359.385107284994
 24
498.4705035433222
 34
0.0
100
AcDbRotatedDimension
  0
DIMENSION
  5
65FF
330
1E
100
AcDbEntity
  8
寸法
  6
Continuous
100
AcDbDimension
  2
*D71
 10
1359.385107284994
 20
504.1581850433222
 30
0.0
 11
1356.535107284994
 21
504.1581850433222
 31
0.0
 70
   160
  1
5.7
 71
     5
 42
5.700000000000045
  3
AutoCAD
100
AcDbAlignedDimension
 13
1353.685107284994
 23
504.2582045433221
 33
0.0
 14
1359.385107284994
 24
504.1581850433222
 34
0.0
100
AcDbRotatedDimension
  0
DIMENSION
  5
6614
330
1E
100
AcDbEntity
  8
寸法
  6
Continuous
100
AcDbDimension
  2
*D72
 10
1359.385107284994
 20
515.2331945433222
 30
0.0
 11
1349.385107284994
 21
517.7331945433222
 31
0.0
 70
    32
 71
     5
 42
20.0
  3
AutoCAD
100
AcDbAlignedDimension
 13
1339.385107284994
 23
510.0958665433222
 33
0.0
 14
1359.385107284994
 24
509.5958665433222
 34
0.0
100
AcDbRotatedDimension
  0
LINE
  5
6AC4
330
1E
100
AcDbEntity
  8
躯体と製品
  6
PLINE3
 62
     3
100
AcDbLine
 10
1341.914675284994
 20
681.5218985433223
 30
0.0
 11
1341.914675284994
 21
670.3904695433223
 31
0.0
  0
ENDSEC
  0
SECTION
  2
OBJECTS
  0
DICTIONARY
  5
C
330
0
100
AcDbDictionary
281
     1
  3
ACAD_COLOR
350
678D
  3
ACAD_GROUP
350
D
  3
ACAD_LAYOUT
350
19
  3
ACAD_MATERIAL
350
6778
  3
ACAD_MLINESTYLE
350
16
  3
ACAD_PLOTSETTINGS
350
18
  3
ACAD_PLOTSTYLENAME
350
E
  3
ACAD_TABLESTYLE
350
678E
  3
ACAD_VISUALSTYLE
350
677C
  3
AcDbVariableDictionary
350
169
  3
DWGPROPS
350
6B86
  0
DICTIONARY
  5
6B66
330
8
100
AcDbDictionary
280
     1
281
     1
  0
DICTIONARY
  5
175
330
2
100
AcDbDictionary
280
     1
281
     1
  3
ACAD_LAYERFILTERS
360
185
  3
ACAD_LAYERSTATES
360
176
  0
DICTIONARY
  5
28B
330
1E
100
AcDbDictionary
280
     1
281
     1
  3
ACAD_LAYOUTSELFREF
360
6771
  0
DICTIONARY
  5
28D
330
1A
100
AcDbDictionary
280
     1
281
     1
  3
ACAD_LAYOUTSELFREF
360
6770
  0
DICTIONARY
  5
678D
102
{ACAD_REACTORS
330
C
102
}
330
C
100
AcDbDictionary
281
     1
  0
DICTIONARY
  5
D
102
{ACAD_REACTORS
330
C
102
}
330
C
100
AcDbDictionary
281
     1
  0
DICTIONARY
  5
19
102
{ACAD_REACTORS
330
C
102
}
330
C
100
AcDbDictionary
281
     1
  3
Model
350
21
  3
ﾚｲｱｳﾄ1
350
1D
  0
DICTIONARY
  5
6778
102
{ACAD_REACTORS
330
C
102
}
330
C
100
AcDbDictionary
281
     1
  3
ByBlock
350
677A
  3
ByLayer
350
6779
  3
Global
350
677B
  0
DICTIONARY
  5
16
102
{ACAD_REACTORS
330
C
102
}
330
C
100
AcDbDictionary
281
     1
  3
Standard
350
17
  0
DICTIONARY
  5
18
102
{ACAD_REACTORS
330
C
102
}
330
C
100
AcDbDictionary
281
     1
  0
ACDBDICTIONARYWDFLT
  5
E
102
{ACAD_REACTORS
330
C
102
}
330
C
100
AcDbDictionary
281
     1
  3
Normal
350
F
100
AcDbDictionaryWithDefault
340
F
1001
ACAD
1000
TREAT_AS_HARD
1070
     0
1000
TREAT_AS_HARD
1070
     0
1000
TREAT_AS_HARD
1070
     0
1000
TREAT_AS_HARD
1070
     0
1000
TREAT_AS_HARD
1070
     0
1000
TREAT_AS_HARD
1070
     0
1000
TREAT_AS_HARD
1070
     0
1000
TREAT_AS_HARD
1070
     0
1000
TREAT_AS_HARD
1070
     0
1000
TREAT_AS_HARD
1070
     0
1000
TREAT_AS_HARD
1070
     0
1000
TREAT_AS_HARD
1070
     0
1000
TREAT_AS_HARD
1070
     0
1000
TREAT_AS_HARD
1070
     0
1000
TREAT_AS_HARD
1070
     0
1000
TREAT_AS_HARD
1070
     0
1000
TREAT_AS_HARD
1070
     0
1000
TREAT_AS_HARD
1070
     0
1000
TREAT_AS_HARD
1070
     0
1000
TREAT_AS_HARD
1070
     0
1000
TREAT_AS_HARD
1070
     0
1000
TREAT_AS_HARD
1070
     0
1000
TREAT_AS_HARD
1070
     0
1000
TREAT_AS_HARD
1070
     0
1000
TREAT_AS_HARD
1070
     0
1000
TREAT_AS_HARD
1070
     0
  0
DICTIONARY
  5
678E
102
{ACAD_REACTORS
330
C
102
}
330
C
100
AcDbDictionary
281
     1
  3
Standard
350
678F
  0
DICTIONARY
  5
677C
102
{ACAD_REACTORS
330
C
102
}
330
C
100
AcDbDictionary
281
     1
  3
2dWireframe
350
6782
  3
3D Hidden
350
6784
  3
3dWireframe
350
6783
  3
Basic
350
6781
  3
Brighten
350
6788
  3
ColorChange
350
678C
  3
Conceptual
350
6785
  3
Dim
350
6787
  3
Facepattern
350
678B
  3
Flat
350
677D
  3
FlatWithEdges
350
677E
  3
Gouraud
350
677F
  3
GouraudWithEdges
350
6780
  3
Linepattern
350
678A
  3
Realistic
350
6786
  3
Thicken
350
6789
  0
DICTIONARY
  5
169
102
{ACAD_REACTORS
330
C
102
}
330
C
100
AcDbDictionary
281
     1
  3
CTABLESTYLE
350
6B27
  3
DIMASSOC
350
16A
  3
INDEXCTL
350
6B7F
  3
SORTENTS
350
6B7E
  0
XRECORD
  5
6B86
102
{ACAD_REACTORS
330
C
102
}
330
C
100
AcDbXrecord
280
     1
  1
DWGPROPS COOKIE
  2

  3

  4

  6

  7

  8
HON1000AV
  9

300
=
301
=
302
=
303
=
304
=
305
=
306
=
307
=
308
=
309
=
 40
0.2492617361111111
 41
2454316.693457674
 42
2454729.771060833
  1

 90
        0
  0
DICTIONARY
  5
185
102
{ACAD_REACTORS
330
175
102
}
330
175
100
AcDbDictionary
280
     1
281
     1
  0
DICTIONARY
  5
176
102
{ACAD_REACTORS
330
175
102
}
330
175
100
AcDbDictionary
281
     1
  3
ACAD
350
177
  0
XRECORD
  5
6771
102
{ACAD_REACTORS
330
28B
102
}
330
28B
100
AcDbXrecord
280
     1
340
1E
  0
XRECORD
  5
6770
102
{ACAD_REACTORS
330
28D
102
}
330
28D
100
AcDbXrecord
280
     1
340
1A
  0
LAYOUT
  5
21
102
{ACAD_XDICTIONARY
360
6B89
102
}
102
{ACAD_REACTORS
330
19
102
}
330
19
100
AcDbPlotSettings
  1

  2
\\MEISEI-1\EPSON Stylus Photo EX3
  4

  6

 40
0.0
 41
0.0
 42
0.0
 43
0.0
 44
0.0
 45
0.0
 46
0.0
 47
0.0
 48
0.0
 49
0.0
140
0.0
141
0.0
142
1.0
143
1.0
 70
  1712
 72
     0
 73
     0
 74
     0
  7

 75
     0
147
1.0
148
0.0
149
0.0
100
AcDbLayout
  1
Model
 70
     1
 71
     0
 10
0.0
 20
0.0
 11
12.0
 21
9.0
 12
0.0
 22
0.0
 32
0.0
 14
0.0
 24
0.0
 34
0.0
 15
0.0
 25
0.0
 35
0.0
146
0.0
 13
0.0
 23
0.0
 33
0.0
 16
1.0
 26
0.0
 36
0.0
 17
0.0
 27
1.0
 37
0.0
 76
     0
330
1E
331
672C
  0
LAYOUT
  5
1D
102
{ACAD_XDICTIONARY
360
6B87
102
}
102
{ACAD_REACTORS
330
19
102
}
330
19
100
AcDbPlotSettings
  1

  2
\\MEISEI-1\EPSON Stylus Photo EX3
  4

  6

 40
0.0
 41
0.0
 42
0.0
 43
0.0
 44
0.0
 45
0.0
 46
0.0
 47
0.0
 48
0.0
 49
0.0
140
0.0
141
0.0
142
1.0
143
1.0
 70
   688
 72
     0
 73
     0
 74
     5
  7

 75
    16
147
1.0
148
0.0
149
0.0
100
AcDbLayout
  1
ﾚｲｱｳﾄ1
 70
     1
 71
     1
 10
0.0
 20
0.0
 11
12.0
 21
9.0
 12
0.0
 22
0.0
 32
0.0
 14
1.000000000000000E+20
 24
1.000000000000000E+20
 34
1.000000000000000E+20
 15
-1.000000000000000E+20
 25
-1.000000000000000E+20
 35
-1.000000000000000E+20
146
0.0
 13
0.0
 23
0.0
 33
0.0
 16
1.0
 26
0.0
 36
0.0
 17
0.0
 27
1.0
 37
0.0
 76
     0
330
1A
  0
MATERIAL
  5
677A
102
{ACAD_XDICTIONARY
360
6B8D
102
}
102
{ACAD_REACTORS
330
6778
102
}
330
6778
100
AcDbMaterial
  1
ByBlock
  0
MATERIAL
  5
6779
102
{ACAD_XDICTIONARY
360
6B8B
102
}
102
{ACAD_REACTORS
330
6778
102
}
330
6778
100
AcDbMaterial
  1
ByLayer
  0
MATERIAL
  5
677B
102
{ACAD_XDICTIONARY
360
6B8F
102
}
102
{ACAD_REACTORS
330
6778
102
}
330
6778
100
AcDbMaterial
  1
Global
  0
MLINESTYLE
  5
17
102
{ACAD_REACTORS
330
16
102
}
330
16
100
AcDbMlineStyle
  2
STANDARD
 70
     0
  3

 62
   256
 51
90.0
 52
90.0
 71
     2
 49
0.5
 62
   256
  6
BYLAYER
 49
-0.5
 62
   256
  6
BYLAYER
  0
ACDBPLACEHOLDER
  5
F
102
{ACAD_REACTORS
330
E
102
}
330
E
  0
TABLESTYLE
  5
678F
102
{ACAD_XDICTIONARY
360
6B91
102
}
102
{ACAD_REACTORS
330
678E
102
}
330
678E
100
AcDbTableStyle
  3
Standard
 70
     0
 71
     0
 40
0.06
 41
0.06
280
     0
281
     0
  7
STANDARD
140
0.18
170
     2
 62
     0
 63
     7
283
     0
274
    -2
284
     1
 64
     0
275
    -2
285
     1
 65
     0
276
    -2
286
     1
 66
     0
277
    -2
287
     1
 67
     0
278
    -2
288
     1
 68
     0
279
    -2
289
     1
 69
     0
  7
STANDARD
140
0.25
170
     5
 62
     0
 63
     7
283
     0
274
    -2
284
     1
 64
     0
275
    -2
285
     1
 65
     0
276
    -2
286
     1
 66
     0
277
    -2
287
     1
 67
     0
278
    -2
288
     1
 68
     0
279
    -2
289
     1
 69
     0
  7
STANDARD
140
0.18
170
     5
 62
     0
 63
     7
283
     0
274
    -2
284
     1
 64
     0
275
    -2
285
     1
 65
     0
276
    -2
286
     1
 66
     0
277
    -2
287
     1
 67
     0
278
    -2
288
     1
 68
     0
279
    -2
289
     1
 69
     0
  0
VISUALSTYLE
  5
6782
102
{ACAD_REACTORS
330
677C
102
}
330
677C
100
AcDbVisualStyle
  2
2dWireframe
 70
     4
 71
     0
 72
     2
 73
     0
 90
        0
 40
-0.6
 41
-30.0
 62
     5
 63
     7
 74
     1
 91
        4
 64
     7
 65
   257
 75
     1
175
     1
 42
1.0
 92
        0
 66
   257
 43
1.0
 76
     1
 77
     6
 78
     2
 67
     7
 79
     5
170
     0
171
     0
290
     0
174
     0
 93
        1
 44
0.0
173
     0
291
     0
 45
0.0
1001
ACAD
1000
AcDbSavedByObjectVersion
1070
     0
  0
VISUALSTYLE
  5
6784
102
{ACAD_REACTORS
330
677C
102
}
330
677C
100
AcDbVisualStyle
  2
3D Hidden
 70
     6
 71
     1
 72
     2
 73
     2
 90
        0
 40
-0.6
 41
-30.0
 62
     5
 63
     7
 74
     2
 91
        2
 64
     7
 65
   257
 75
     2
175
     1
 42
40.0
 92
        0
 66
   257
 43
1.0
 76
     1
 77
     6
 78
     2
 67
     7
 79
     3
170
     0
171
     0
290
     0
174
     0
 93
        1
 44
0.0
173
     0
291
     0
 45
0.0
1001
ACAD
1000
AcDbSavedByObjectVersion
1070
     0
  0
VISUALSTYLE
  5
6783
102
{ACAD_REACTORS
330
677C
102
}
330
677C
100
AcDbVisualStyle
  2
3dWireframe
 70
     5
 71
     0
 72
     2
 73
     0
 90
        0
 40
-0.6
 41
-30.0
 62
     5
 63
     7
 74
     1
 91
        4
 64
     7
 65
   257
 75
     1
175
     1
 42
1.0
 92
        0
 66
   257
 43
1.0
 76
     1
 77
     6
 78
     2
 67
     7
 79
     5
170
     0
171
     0
290
     0
174
     0
 93
        1
 44
0.0
173
     0
291
     0
 45
0.0
1001
ACAD
1000
AcDbSavedByObjectVersion
1070
     0
  0
VISUALSTYLE
  5
6781
102
{ACAD_REACTORS
330
677C
102
}
330
677C
100
AcDbVisualStyle
  2
Basic
 70
     7
 71
     1
 72
     0
 73
     1
 90
        0
 40
-0.6
 41
-30.0
 62
     5
 63
     7
 74
     0
 91
        4
 64
     7
 65
   257
 75
     1
175
     1
 42
1.0
 92
        8
 66
     7
 43
1.0
 76
     1
 77
     6
 78
     2
 67
     7
 79
     5
170
     0
171
     0
290
     0
174
     0
 93
        1
 44
0.0
173
     0
291
     1
 45
0.0
1001
ACAD
1000
AcDbSavedByObjectVersion
1070
     0
  0
VISUALSTYLE
  5
6788
102
{ACAD_REACTORS
330
677C
102
}
330
677C
100
AcDbVisualStyle
  2
Brighten
 70
    12
 71
     2
 72
     2
 73
     0
 90
        0
 40
-0.6
 41
-30.0
 62
     5
 63
     7
 74
     1
 91
        4
 64
     7
 65
   257
 75
     1
175
     1
 42
1.0
 92
        8
 66
     7
 43
1.0
 76
     1
 77
     6
 78
     2
 67
     7
 79
     5
170
     0
171
     0
290
     0
174
     0
 93
        1
 44
50.0
173
     0
291
     1
 45
0.0
1001
ACAD
1000
AcDbSavedByObjectVersion
1070
     0
  0
VISUALSTYLE
  5
678C
102
{ACAD_REACTORS
330
677C
102
}
330
677C
100
AcDbVisualStyle
  2
ColorChange
 70
    16
 71
     2
 72
     2
 73
     3
 90
        0
 40
-0.6
 41
-30.0
 62
     5
 63
     8
 74
     1
 91
        4
 64
     7
 65
   257
 75
     1
175
     1
 42
1.0
 92
        8
 66
     8
 43
1.0
 76
     1
 77
     6
 78
     2
 67
     7
 79
     5
170
     0
171
     0
290
     0
174
     0
 93
        1
 44
0.0
173
     0
291
     1
 45
0.0
1001
ACAD
1000
AcDbSavedByObjectVersion
1070
     0
  0
VISUALSTYLE
  5
6785
102
{ACAD_REACTORS
330
677C
102
}
330
677C
100
AcDbVisualStyle
  2
Conceptual
 70
     9
 71
     3
 72
     2
 73
     0
 90
        0
 40
-0.6
 41
-30.0
 62
     5
 63
     7
 74
     2
 91
        2
 64
     7
 65
   257
 75
     1
175
     1
 42
40.0
 92
        8
 66
     7
 43
1.0
 76
     1
 77
     6
 78
     2
 67
     7
 79
     3
170
     0
171
     0
290
     0
174
     0
 93
        1
 44
0.0
173
     0
291
     0
 45
0.0
1001
ACAD
1000
AcDbSavedByObjectVersion
1070
     0
  0
VISUALSTYLE
  5
6787
102
{ACAD_REACTORS
330
677C
102
}
330
677C
100
AcDbVisualStyle
  2
Dim
 70
    11
 71
     2
 72
     2
 73
     0
 90
        0
 40
-0.6
 41
-30.0
 62
     5
 63
     7
 74
     1
 91
        4
 64
     7
 65
   257
 75
     1
175
     1
 42
1.0
 92
        8
 66
     7
 43
1.0
 76
     1
 77
     6
 78
     2
 67
     7
 79
     5
170
     0
171
     0
290
     0
174
     0
 93
        1
 44
-50.0
173
     0
291
     1
 45
0.0
1001
ACAD
1000
AcDbSavedByObjectVersion
1070
     0
  0
VISUALSTYLE
  5
678B
102
{ACAD_REACTORS
330
677C
102
}
330
677C
100
AcDbVisualStyle
  2
Facepattern
 70
    15
 71
     2
 72
     2
 73
     0
 90
        0
 40
-0.6
 41
-30.0
 62
     5
 63
     7
 74
     1
 91
        4
 64
     7
 65
   257
 75
     1
175
     1
 42
1.0
 92
        8
 66
     7
 43
1.0
 76
     1
 77
     6
 78
     2
 67
     7
 79
     5
170
     0
171
     0
290
     0
174
     0
 93
        1
 44
0.0
173
     0
291
     1
 45
0.0
1001
ACAD
1000
AcDbSavedByObjectVersion
1070
     0
  0
VISUALSTYLE
  5
677D
102
{ACAD_REACTORS
330
677C
102
}
330
677C
100
AcDbVisualStyle
  2
Flat
 70
     0
 71
     2
 72
     1
 73
     1
 90
        2
 40
-0.6
 41
30.0
 62
     5
 63
     7
 74
     0
 91
        4
 64
     7
 65
   257
 75
     1
175
     1
 42
1.0
 92
        8
 66
     7
 43
1.0
 76
     1
 77
     6
 78
     2
 67
     7
 79
     5
170
     0
171
     0
290
     0
174
     0
 93
       13
 44
0.0
173
     0
291
     1
 45
0.0
1001
ACAD
1000
AcDbSavedByObjectVersion
1070
     0
  0
VISUALSTYLE
  5
677E
102
{ACAD_REACTORS
330
677C
102
}
330
677C
100
AcDbVisualStyle
  2
FlatWithEdges
 70
     1
 71
     2
 72
     1
 73
     1
 90
        2
 40
-0.6
 41
30.0
 62
     5
 63
     7
 74
     1
 91
        4
 64
     7
 65
   257
 75
     1
175
     1
 42
1.0
 92
        0
 66
   257
 43
1.0
 76
     1
 77
     6
 78
     2
 67
     7
 79
     5
170
     0
171
     0
290
     0
174
     0
 93
       13
 44
0.0
173
     0
291
     1
 45
0.0
1001
ACAD
1000
AcDbSavedByObjectVersion
1070
     0
  0
VISUALSTYLE
  5
677F
102
{ACAD_REACTORS
330
677C
102
}
330
677C
100
AcDbVisualStyle
  2
Gouraud
 70
     2
 71
     2
 72
     2
 73
     1
 90
        2
 40
-0.6
 41
30.0
 62
     5
 63
     7
 74
     0
 91
        4
 64
     7
 65
   257
 75
     1
175
     1
 42
1.0
 92
        0
 66
     7
 43
1.0
 76
     1
 77
     6
 78
     2
 67
     7
 79
     5
170
     0
171
     0
290
     0
174
     0
 93
       13
 44
0.0
173
     0
291
     1
 45
0.0
1001
ACAD
1000
AcDbSavedByObjectVersion
1070
     0
  0
VISUALSTYLE
  5
6780
102
{ACAD_REACTORS
330
677C
102
}
330
677C
100
AcDbVisualStyle
  2
GouraudWithEdges
 70
     3
 71
     2
 72
     2
 73
     1
 90
        2
 40
-0.6
 41
30.0
 62
     5
 63
     7
 74
     1
 91
        4
 64
     7
 65
   257
 75
     1
175
     1
 42
1.0
 92
        0
 66
   257
 43
1.0
 76
     1
 77
     6
 78
     2
 67
     7
 79
     5
170
     0
171
     0
290
     0
174
     0
 93
       13
 44
0.0
173
     0
291
     1
 45
0.0
1001
ACAD
1000
AcDbSavedByObjectVersion
1070
     0
  0
VISUALSTYLE
  5
678A
102
{ACAD_REACTORS
330
677C
102
}
330
677C
100
AcDbVisualStyle
  2
Linepattern
 70
    14
 71
     2
 72
     2
 73
     0
 90
        0
 40
-0.6
 41
-30.0
 62
     5
 63
     7
 74
     1
 91
        4
 64
     7
 65
   257
 75
     7
175
     7
 42
1.0
 92
        8
 66
     7
 43
1.0
 76
     1
 77
     6
 78
     2
 67
     7
 79
     5
170
     0
171
     0
290
     0
174
     0
 93
        1
 44
0.0
173
     0
291
     1
 45
0.0
1001
ACAD
1000
AcDbSavedByObjectVersion
1070
     0
  0
VISUALSTYLE
  5
6786
102
{ACAD_REACTORS
330
677C
102
}
330
677C
100
AcDbVisualStyle
  2
Realistic
 70
     8
 71
     2
 72
     2
 73
     0
 90
        0
 40
-0.6
 41
-30.0
 62
     5
 63
     7
 74
     1
 91
        0
 64
     7
 65
   257
 75
     1
175
     1
 42
1.0
 92
        8
 66
     8
 43
1.0
 76
     1
 77
     6
 78
     2
 67
     7
 79
     5
170
     0
171
     0
290
     0
174
     0
 93
       13
 44
0.0
173
     0
291
     0
 45
0.0
1001
ACAD
1000
AcDbSavedByObjectVersion
1070
     0
  0
VISUALSTYLE
  5
6789
102
{ACAD_REACTORS
330
677C
102
}
330
677C
100
AcDbVisualStyle
  2
Thicken
 70
    13
 71
     2
 72
     2
 73
     0
 90
        0
 40
-0.6
 41
-30.0
 62
     5
 63
     7
 74
     1
 91
        4
 64
     7
 65
   257
 75
     1
175
     1
 42
1.0
 92
       12
 66
     7
 43
1.0
 76
     1
 77
     6
 78
     2
 67
     7
 79
     5
170
     0
171
     0
290
     0
174
     0
 93
        1
 44
0.0
173
     0
291
     1
 45
0.0
1001
ACAD
1000
AcDbSavedByObjectVersion
1070
     0
  0
DICTIONARYVAR
  5
6B27
102
{ACAD_REACTORS
330
169
102
}
330
169
100
DictionaryVariables
280
     0
  1
STANDARD
  0
DICTIONARYVAR
  5
16A
102
{ACAD_REACTORS
330
169
102
}
330
169
100
DictionaryVariables
280
     0
  1
1
  0
DICTIONARYVAR
  5
6B7F
102
{ACAD_REACTORS
330
169
102
}
330
169
100
DictionaryVariables
280
     0
  1
0
  0
DICTIONARYVAR
  5
6B7E
102
{ACAD_REACTORS
330
169
102
}
330
169
100
DictionaryVariables
280
     0
  1
127
  0
XRECORD
  5
177
102
{ACAD_REACTORS
330
176
102
}
330
176
100
AcDbXrecord
280
     1
 91
      476
330
179
 90
        8
 62
     7
370
    -3
331
15
  1
Color_7
330
178
 90
        8
 62
     7
370
    -3
331
15
  1
Color_7
330
128
 90
        0
 62
     7
370
    -3
331
15
  1
Color_7
330
10
 90
        8
 62
     7
370
    -3
331
15
  1
Color_7
  0
DICTIONARY
  5
6B89
330
21
100
AcDbDictionary
280
     1
281
     1
  3
ACAD_XREC_ROUNDTRIP
360
6B8A
  0
DICTIONARY
  5
6B87
330
1D
100
AcDbDictionary
280
     1
281
     1
  3
ACAD_XREC_ROUNDTRIP
360
6B88
  0
DICTIONARY
  5
6B8D
330
677A
100
AcDbDictionary
280
     1
281
     1
  3
ACAD_XREC_ROUNDTRIP
360
6B8E
  0
DICTIONARY
  5
6B8B
330
6779
100
AcDbDictionary
280
     1
281
     1
  3
ACAD_XREC_ROUNDTRIP
360
6B8C
  0
DICTIONARY
  5
6B8F
330
677B
100
AcDbDictionary
280
     1
281
     1
  3
ACAD_XREC_ROUNDTRIP
360
6B90
  0
DICTIONARY
  5
6B91
330
678F
100
AcDbDictionary
280
     1
281
     1
  3
ACAD_XREC_ROUNDTRIP
360
6B92
  0
XRECORD
  5
6B8A
102
{ACAD_REACTORS
330
6B89
102
}
330
6B89
100
AcDbXrecord
280
     1
102
SHADEPLOT
 70
     0
102
SHADEPLOTRESLEVEL
 70
     2
102
SHADEPLOTCUSTOMDPI
 70
   300
  0
XRECORD
  5
6B88
102
{ACAD_REACTORS
330
6B87
102
}
330
6B87
100
AcDbXrecord
280
     1
102
SHADEPLOT
 70
     0
102
SHADEPLOTRESLEVEL
 70
     2
102
SHADEPLOTCUSTOMDPI
 70
   300
  0
XRECORD
  5
6B8E
102
{ACAD_REACTORS
330
6B8D
102
}
330
6B8D
100
AcDbXrecord
280
     1
102
MATERIAL
148
0.0
149
0.0
149
0.0
 93
        0
 94
       63
282
     0
 72
     1
 77
     1
171
     1
175
     1
179
     1
273
     0
  0
XRECORD
  5
6B8C
102
{ACAD_REACTORS
330
6B8B
102
}
330
6B8B
100
AcDbXrecord
280
     1
102
MATERIAL
148
0.0
149
0.0
149
0.0
 93
        0
 94
       63
282
     0
 72
     1
 77
     1
171
     1
175
     1
179
     1
273
     0
  0
XRECORD
  5
6B90
102
{ACAD_REACTORS
330
6B8F
102
}
330
6B8F
100
AcDbXrecord
280
     1
102
MATERIAL
148
0.0
149
0.0
149
0.0
 93
        0
 94
       63
282
     0
 72
     1
 77
     1
171
     1
175
     1
179
     1
273
     0
  0
XRECORD
  5
6B92
102
{ACAD_REACTORS
330
6B91
102
}
330
6B91
100
AcDbXrecord
280
     1
102
ACAD_ROUNDTRIP_PRE2007_TABLESTYLE
 90
      512
 91
        0
  1

 92
      512
 93
        0
  2

 94
      512
 95
        0
  3

  0
ENDSEC
  0
EOF
