  0
SECTION
  2
HEADER
  9
$ACADVER
  1
AC1015
  9
$ACADMAINTVER
 70
    20
  9
$DWGCODEPAGE
  3
ANSI_932
  9
$INSBASE
 10
0.0
 20
0.0
 30
0.0
  9
$EXTMIN
 10
1216.733265828332
 20
457.9514321927324
 30
0.0
  9
$EXTMAX
 10
1534.437075494999
 20
708.8224001927324
 30
0.0
  9
$LIMMIN
 10
0.0
 20
0.0
  9
$LIMMAX
 10
420.0
 20
297.0
  9
$ORTHOMODE
 70
     1
  9
$REGENMODE
 70
     1
  9
$FILLMODE
 70
     1
  9
$QTEXTMODE
 70
     0
  9
$MIRRTEXT
 70
     1
  9
$LTSCALE
 40
1.0
  9
$ATTMODE
 70
     1
  9
$TEXTSIZE
 40
5.0
  9
$TRACEWID
 40
0.05
  9
$TEXTSTYLE
  7
ACAD
  9
$CLAYER
  8
0
  9
$CELTYPE
  6
CONTINUOUS
  9
$CECOLOR
 62
   256
  9
$CELTSCALE
 40
1.0
  9
$DISPSILH
 70
     0
  9
$DIMSCALE
 40
1.0
  9
$DIMASZ
 40
1.0
  9
$DIMEXO
 40
0.0
  9
$DIMDLI
 40
0.38
  9
$DIMRND
 40
0.0
  9
$DIMDLE
 40
0.0
  9
$DIMEXE
 40
0.0
  9
$DIMTP
 40
0.0
  9
$DIMTM
 40
0.0
  9
$DIMTXT
 40
3.0
  9
$DIMCEN
 40
0.09
  9
$DIMTSZ
 40
0.0
  9
$DIMTOL
 70
     0
  9
$DIMLIM
 70
     0
  9
$DIMTIH
 70
     0
  9
$DIMTOH
 70
     1
  9
$DIMSE1
 70
     0
  9
$DIMSE2
 70
     0
  9
$DIMTAD
 70
     1
  9
$DIMZIN
 70
     0
  9
$DIMBLK
  1
Dot
  9
$DIMASO
 70
     1
  9
$DIMSHO
 70
     1
  9
$DIMPOST
  1

  9
$DIMAPOST
  1

  9
$DIMALT
 70
     0
  9
$DIMALTD
 70
     2
  9
$DIMALTF
 40
25.4
  9
$DIMLFAC
 40
1.0
  9
$DIMTOFL
 70
     0
  9
$DIMTVP
 40
0.0
  9
$DIMTIX
 70
     1
  9
$DIMSOXD
 70
     0
  9
$DIMSAH
 70
     0
  9
$DIMBLK1
  1

  9
$DIMBLK2
  1

  9
$DIMSTYLE
  2
AutoCAD
  9
$DIMCLRD
 70
     4
  9
$DIMCLRE
 70
     4
  9
$DIMCLRT
 70
     3
  9
$DIMTFAC
 40
1.0
  9
$DIMGAP
 40
1.0
  9
$DIMJUST
 70
     0
  9
$DIMSD1
 70
     0
  9
$DIMSD2
 70
     0
  9
$DIMTOLJ
 70
     1
  9
$DIMTZIN
 70
     0
  9
$DIMALTZ
 70
     0
  9
$DIMALTTZ
 70
     0
  9
$DIMUPT
 70
     0
  9
$DIMDEC
 70
     0
  9
$DIMTDEC
 70
     0
  9
$DIMALTU
 70
     2
  9
$DIMALTTD
 70
     2
  9
$DIMTXSTY
  7
ACAD
  9
$DIMAUNIT
 70
     0
  9
$DIMADEC
 70
     0
  9
$DIMALTRND
 40
0.0
  9
$DIMAZIN
 70
     0
  9
$DIMDSEP
 70
    46
  9
$DIMATFIT
 70
     0
  9
$DIMFRAC
 70
     0
  9
$DIMLDRBLK
  1
None
  9
$DIMLUNIT
 70
     2
  9
$DIMLWD
 70
    -2
  9
$DIMLWE
 70
    -2
  9
$DIMTMOVE
 70
     0
  9
$LUNITS
 70
     2
  9
$LUPREC
 70
     4
  9
$SKETCHINC
 40
0.1
  9
$FILLETRAD
 40
0.0
  9
$AUNITS
 70
     0
  9
$AUPREC
 70
     0
  9
$MENU
  1
.
  9
$ELEVATION
 40
0.0
  9
$PELEVATION
 40
0.0
  9
$THICKNESS
 40
0.0
  9
$LIMCHECK
 70
     0
  9
$CHAMFERA
 40
0.0
  9
$CHAMFERB
 40
0.0
  9
$CHAMFERC
 40
0.0
  9
$CHAMFERD
 40
0.0
  9
$SKPOLY
 70
     0
  9
$TDCREATE
 40
2454316.693457674
  9
$TDUCREATE
 40
2454316.318457674
  9
$TDUPDATE
 40
2454729.770848160
  9
$TDUUPDATE
 40
2454729.395848160
  9
$TDINDWG
 40
0.2339485185
  9
$TDUSRTIMER
 40
0.2339485185
  9
$USRTIMER
 70
     1
  9
$ANGBASE
 50
0.0
  9
$ANGDIR
 70
     0
  9
$PDMODE
 70
     0
  9
$PDSIZE
 40
0.0
  9
$PLINEWID
 40
0.0
  9
$SPLFRAME
 70
     0
  9
$SPLINETYPE
 70
     6
  9
$SPLINESEGS
 70
     8
  9
$HANDSEED
  5
6550
  9
$SURFTAB1
 70
     6
  9
$SURFTAB2
 70
     6
  9
$SURFTYPE
 70
     6
  9
$SURFU
 70
     6
  9
$SURFV
 70
     6
  9
$UCSBASE
  2

  9
$UCSNAME
  2

  9
$UCSORG
 10
0.0
 20
0.0
 30
0.0
  9
$UCSXDIR
 10
1.0
 20
0.0
 30
0.0
  9
$UCSYDIR
 10
0.0
 20
1.0
 30
0.0
  9
$UCSORTHOREF
  2

  9
$UCSORTHOVIEW
 70
     0
  9
$UCSORGTOP
 10
0.0
 20
0.0
 30
0.0
  9
$UCSORGBOTTOM
 10
0.0
 20
0.0
 30
0.0
  9
$UCSORGLEFT
 10
0.0
 20
0.0
 30
0.0
  9
$UCSORGRIGHT
 10
0.0
 20
0.0
 30
0.0
  9
$UCSORGFRONT
 10
0.0
 20
0.0
 30
0.0
  9
$UCSORGBACK
 10
0.0
 20
0.0
 30
0.0
  9
$PUCSBASE
  2

  9
$PUCSNAME
  2

  9
$PUCSORG
 10
0.0
 20
0.0
 30
0.0
  9
$PUCSXDIR
 10
1.0
 20
0.0
 30
0.0
  9
$PUCSYDIR
 10
0.0
 20
1.0
 30
0.0
  9
$PUCSORTHOREF
  2

  9
$PUCSORTHOVIEW
 70
     0
  9
$PUCSORGTOP
 10
0.0
 20
0.0
 30
0.0
  9
$PUCSORGBOTTOM
 10
0.0
 20
0.0
 30
0.0
  9
$PUCSORGLEFT
 10
0.0
 20
0.0
 30
0.0
  9
$PUCSORGRIGHT
 10
0.0
 20
0.0
 30
0.0
  9
$PUCSORGFRONT
 10
0.0
 20
0.0
 30
0.0
  9
$PUCSORGBACK
 10
0.0
 20
0.0
 30
0.0
  9
$USERI1
 70
     0
  9
$USERI2
 70
     0
  9
$USERI3
 70
     0
  9
$USERI4
 70
     0
  9
$USERI5
 70
     0
  9
$USERR1
 40
0.0
  9
$USERR2
 40
0.0
  9
$USERR3
 40
0.0
  9
$USERR4
 40
0.0
  9
$USERR5
 40
0.0
  9
$WORLDVIEW
 70
     1
  9
$SHADEDGE
 70
     3
  9
$SHADEDIF
 70
    70
  9
$TILEMODE
 70
     1
  9
$MAXACTVP
 70
    48
  9
$PINSBASE
 10
0.0
 20
0.0
 30
0.0
  9
$PLIMCHECK
 70
     0
  9
$PEXTMIN
 10
1.000000000000000E+20
 20
1.000000000000000E+20
 30
1.000000000000000E+20
  9
$PEXTMAX
 10
-1.000000000000000E+20
 20
-1.000000000000000E+20
 30
-1.000000000000000E+20
  9
$PLIMMIN
 10
0.0
 20
0.0
  9
$PLIMMAX
 10
12.0
 20
9.0
  9
$UNITMODE
 70
     0
  9
$VISRETAIN
 70
     0
  9
$PLINEGEN
 70
     0
  9
$PSLTSCALE
 70
     1
  9
$TREEDEPTH
 70
  3020
  9
$CMLSTYLE
  2
Standard
  9
$CMLJUST
 70
     0
  9
$CMLSCALE
 40
1.0
  9
$PROXYGRAPHICS
 70
     1
  9
$MEASUREMENT
 70
     0
  9
$CELWEIGHT
370
    -1
  9
$ENDCAPS
280
     0
  9
$JOINSTYLE
280
     0
  9
$LWDISPLAY
290
     0
  9
$INSUNITS
 70
     0
  9
$HYPERLINKBASE
  1

  9
$STYLESHEET
  1

  9
$XEDIT
290
     1
  9
$CEPSNTYPE
380
     0
  9
$PSTYLEMODE
290
     1
  9
$FINGERPRINTGUID
  2
{CC7D6DEE-A9F1-4F3E-AC95-C84B62CCA3FD}
  9
$VERSIONGUID
  2
{3A44BC2C-35F0-4DDD-A628-5CE4B0B79BFE}
  9
$EXTNAMES
290
     1
  9
$PSVPSCALE
 40
0.0
  9
$OLESTARTUP
290
     0
  0
ENDSEC
  0
SECTION
  2
CLASSES
  0
CLASS
  1
ACDBDICTIONARYWDFLT
  2
AcDbDictionaryWithDefault
  3
ObjectDBX Classes
 90
        0
280
     0
281
     0
  0
CLASS
  1
ACDBPLACEHOLDER
  2
AcDbPlaceHolder
  3
ObjectDBX Classes
 90
        0
280
     0
281
     0
  0
CLASS
  1
LAYOUT
  2
AcDbLayout
  3
ObjectDBX Classes
 90
        0
280
     0
281
     0
  0
CLASS
  1
DICTIONARYVAR
  2
AcDbDictionaryVar
  3
ObjectDBX Classes
 90
        0
280
     0
281
     0
  0
CLASS
  1
MATERIAL
  2
AcDbMaterial
  3
ObjectDBX Classes
 90
     1153
280
     0
281
     0
  0
CLASS
  1
VISUALSTYLE
  2
AcDbVisualStyle
  3
ObjectDBX Classes
 90
     4095
280
     0
281
     0
  0
CLASS
  1
TABLESTYLE
  2
AcDbTableStyle
  3
ObjectDBX Classes
 90
     4095
280
     0
281
     0
  0
ENDSEC
  0
SECTION
  2
TABLES
  0
TABLE
  2
VPORT
  5
8
102
{ACAD_XDICTIONARY
360
6522
102
}
330
0
100
AcDbSymbolTable
 70
     1
  0
VPORT
  5
622F
330
8
100
AcDbSymbolTableRecord
100
AcDbViewportTableRecord
  2
*Active
 70
     0
 10
0.0
 20
0.0
 11
1.0
 21
1.0
 12
1369.392489631463
 22
570.6752597338668
 13
0.0
 23
0.0
 14
1.0
 24
1.0
 15
0.0
 25
0.0
 16
0.0
 26
0.0
 36
1.0
 17
0.0
 27
0.0
 37
0.0
 40
363.8857584266795
 41
1.571614583333333
 42
50.0
 43
0.0
 44
0.0
 50
0.0
 51
0.0
 71
     0
 72
   100
 73
     1
 74
     1
 75
     0
 76
     0
 77
     0
 78
     0
281
     0
 65
     1
110
0.0
120
0.0
130
0.0
111
1.0
121
0.0
131
0.0
112
0.0
122
1.0
132
0.0
 79
     0
146
0.0
  0
ENDTAB
  0
TABLE
  2
LTYPE
  5
5
330
0
100
AcDbSymbolTable
 70
    50
  0
LTYPE
  5
13
330
5
100
AcDbSymbolTableRecord
100
AcDbLinetypeTableRecord
  2
ByBlock
 70
     0
  3

 72
    65
 73
     0
 40
0.0
  0
LTYPE
  5
14
330
5
100
AcDbSymbolTableRecord
100
AcDbLinetypeTableRecord
  2
ByLayer
 70
     0
  3

 72
    65
 73
     0
 40
0.0
  0
LTYPE
  5
15
330
5
100
AcDbSymbolTableRecord
100
AcDbLinetypeTableRecord
  2
CONTINUOUS
 70
     0
  3
実線
 72
    65
 73
     0
 40
0.0
  0
LTYPE
  5
22
330
5
100
AcDbSymbolTableRecord
100
AcDbLinetypeTableRecord
  2
DASHED1
 70
     0
  3
--  --  --  --  --  --  --  --  
 72
    65
 73
     2
 40
2.5
 49
1.25
 74
     0
 49
-1.25
 74
     0
  0
LTYPE
  5
23
330
5
100
AcDbSymbolTableRecord
100
AcDbLinetypeTableRecord
  2
DASHED2
 70
     0
  3
----    ----    ----    ----    
 72
    65
 73
     2
 40
5.0
 49
2.5
 74
     0
 49
-2.5
 74
     0
  0
LTYPE
  5
24
330
5
100
AcDbSymbolTableRecord
100
AcDbLinetypeTableRecord
  2
DASHED3
 70
     0
  3
------  ------  ------  ------  
 72
    65
 73
     2
 40
5.0
 49
3.75
 74
     0
 49
-1.25
 74
     0
  0
LTYPE
  5
25
330
5
100
AcDbSymbolTableRecord
100
AcDbLinetypeTableRecord
  2
CENTER1
 70
     0
  3
----- - ----- - ----- - ----- - 
 72
    65
 73
     4
 40
10.0
 49
6.25
 74
     0
 49
-1.25
 74
     0
 49
1.25
 74
     0
 49
-1.25
 74
     0
  0
LTYPE
  5
26
330
5
100
AcDbSymbolTableRecord
100
AcDbLinetypeTableRecord
  2
CENTER2
 70
     0
  3
----------  --  ----------  --  
 72
    65
 73
     4
 40
20.0
 49
12.5
 74
     0
 49
-2.5
 74
     0
 49
2.5
 74
     0
 49
-2.5
 74
     0
  0
LTYPE
  5
27
330
5
100
AcDbSymbolTableRecord
100
AcDbLinetypeTableRecord
  2
PHANTOM1
 70
     0
  3
--- - - --- - - --- - - --- - - 
 72
    65
 73
     6
 40
10.0
 49
3.25
 74
     0
 49
-1.25
 74
     0
 49
1.25
 74
     0
 49
-1.25
 74
     0
 49
1.25
 74
     0
 49
-1.25
 74
     0
  0
LTYPE
  5
28
330
5
100
AcDbSymbolTableRecord
100
AcDbLinetypeTableRecord
  2
PHANTOM2
 70
     0
  3
--------  -  -  --------  -  -  
 72
    65
 73
     6
 40
20.0
 49
10.0
 74
     0
 49
-2.5
 74
     0
 49
1.25
 74
     0
 49
-2.5
 74
     0
 49
1.25
 74
     0
 49
-2.5
 74
     0
  0
LTYPE
  5
29
330
5
100
AcDbSymbolTableRecord
100
AcDbLinetypeTableRecord
  2
DOT
 70
     0
  3
-   -   -   -   -   -   -   -   
 72
    65
 73
     2
 40
2.5
 49
0.625
 74
     0
 49
-1.875
 74
     0
  0
LTYPE
  5
2A
330
5
100
AcDbSymbolTableRecord
100
AcDbLinetypeTableRecord
  2
DUMMY
 70
     0
  3
ダミー
 72
    65
 73
     0
 40
0.0
  0
LTYPE
  5
2B
330
5
100
AcDbSymbolTableRecord
100
AcDbLinetypeTableRecord
  2
RAND1
 70
     0
  3
ランダム線1
 72
    65
 73
     4
 40
10.0
 49
1.0
 74
     0
 49
-2.0
 74
     0
 49
3.0
 74
     0
 49
-4.0
 74
     0
  0
LTYPE
  5
2C
330
5
100
AcDbSymbolTableRecord
100
AcDbLinetypeTableRecord
  2
RAND2
 70
     0
  3
ランダム線2
 72
    65
 73
     4
 40
14.0
 49
2.0
 74
     0
 49
-3.0
 74
     0
 49
4.0
 74
     0
 49
-5.0
 74
     0
  0
LTYPE
  5
2D
330
5
100
AcDbSymbolTableRecord
100
AcDbLinetypeTableRecord
  2
RAND3
 70
     0
  3
ランダム線3
 72
    65
 73
     4
 40
18.0
 49
3.0
 74
     0
 49
-4.0
 74
     0
 49
5.0
 74
     0
 49
-6.0
 74
     0
  0
LTYPE
  5
2E
330
5
100
AcDbSymbolTableRecord
100
AcDbLinetypeTableRecord
  2
RAND4
 70
     0
  3
ランダム線4
 72
    65
 73
     4
 40
22.0
 49
4.0
 74
     0
 49
-5.0
 74
     0
 49
6.0
 74
     0
 49
-7.0
 74
     0
  0
LTYPE
  5
2F
330
5
100
AcDbSymbolTableRecord
100
AcDbLinetypeTableRecord
  2
RAND5
 70
     0
  3
ランダム線5
 72
    65
 73
     4
 40
26.0
 49
5.0
 74
     0
 49
-6.0
 74
     0
 49
7.0
 74
     0
 49
-8.0
 74
     0
  0
LTYPE
  5
30
330
5
100
AcDbSymbolTableRecord
100
AcDbLinetypeTableRecord
  2
LONG1
 70
     0
  3
----------  --  ----------  --  
 72
    65
 73
     4
 40
40.0
 49
32.5
 74
     0
 49
-2.5
 74
     0
 49
2.5
 74
     0
 49
-2.5
 74
     0
  0
LTYPE
  5
31
330
5
100
AcDbSymbolTableRecord
100
AcDbLinetypeTableRecord
  2
LONG2
 70
     0
  3
--------  -  -  --------  -  -  
 72
    65
 73
     6
 40
40.0
 49
30.0
 74
     0
 49
-2.5
 74
     0
 49
1.25
 74
     0
 49
-2.5
 74
     0
 49
1.25
 74
     0
 49
-2.5
 74
     0
  0
LTYPE
  5
32
330
5
100
AcDbSymbolTableRecord
100
AcDbLinetypeTableRecord
  2
LONG3
 70
     0
  3
+++++++++++++++..+++++++++++++++
 72
    65
 73
     2
 40
40.0
 49
37.5
 74
     0
 49
-2.5
 74
     0
  0
LTYPE
  5
33
330
5
100
AcDbSymbolTableRecord
100
AcDbLinetypeTableRecord
  2
LONG4
 70
     0
  3
+++++++++++++++..+++++++++++++++
 72
    65
 73
     2
 40
80.0
 49
75.0
 74
     0
 49
-5.0
 74
     0
  0
LTYPE
  5
34
330
5
100
AcDbSymbolTableRecord
100
AcDbLinetypeTableRecord
  2
LONG5
 70
     0
  3
----------  --  ----------  --  
 72
    65
 73
     4
 40
60.0
 49
37.5
 74
     0
 49
-7.5
 74
     0
 49
7.5
 74
     0
 49
-7.5
 74
     0
  0
LTYPE
  5
35
330
5
100
AcDbSymbolTableRecord
100
AcDbLinetypeTableRecord
  2
DASHED
 70
     0
  3
-------   -------------   ------
 72
    65
 73
     2
 40
7.5
 49
6.0
 74
     0
 49
-1.5
 74
     0
  0
LTYPE
  5
36
330
5
100
AcDbSymbolTableRecord
100
AcDbLinetypeTableRecord
  2
DASHED_SPACED
 70
     0
  3
----        --------        ----
 72
    65
 73
     2
 40
12.0
 49
6.0
 74
     0
 49
-6.0
 74
     0
  0
LTYPE
  5
37
330
5
100
AcDbSymbolTableRecord
100
AcDbLinetypeTableRecord
  2
LONG_DASHED_DOTTED
 70
     0
  3
------------- --- --------------
 72
    65
 73
     4
 40
15.25
 49
12.0
 74
     0
 49
-1.5
 74
     0
 49
0.25
 74
     0
 49
-1.5
 74
     0
  0
LTYPE
  5
38
330
5
100
AcDbSymbolTableRecord
100
AcDbLinetypeTableRecord
  2
LONG_DASHED_DOUBLE-DOTTED
 70
     0
  3
----------- --- --- ------------
 72
    65
 73
     6
 40
17.0
 49
12.0
 74
     0
 49
-1.5
 74
     0
 49
0.25
 74
     0
 49
-1.5
 74
     0
 49
0.25
 74
     0
 49
-1.5
 74
     0
  0
LTYPE
  5
39
330
5
100
AcDbSymbolTableRecord
100
AcDbLinetypeTableRecord
  2
LONG_DASHED_TRIPLICATE-DOTTED
 70
     0
  3
--------- --- --- --- ----------
 72
    65
 73
     8
 40
18.75
 49
12.0
 74
     0
 49
-1.5
 74
     0
 49
0.25
 74
     0
 49
-1.5
 74
     0
 49
0.25
 74
     0
 49
-1.5
 74
     0
 49
0.25
 74
     0
 49
-1.5
 74
     0
  0
LTYPE
  5
3A
330
5
100
AcDbSymbolTableRecord
100
AcDbLinetypeTableRecord
  2
DOTTED
 70
     0
  3
   -       -       -       -    
 72
    65
 73
     2
 40
1.75
 49
0.25
 74
     0
 49
-1.5
 74
     0
  0
LTYPE
  5
3B
330
5
100
AcDbSymbolTableRecord
100
AcDbLinetypeTableRecord
  2
CHAIN
 70
     0
  3
-------------- -- --------------
 72
    65
 73
     4
 40
18.5
 49
12.0
 74
     0
 49
-1.5
 74
     0
 49
3.5
 74
     0
 49
-1.5
 74
     0
  0
LTYPE
  5
3C
330
5
100
AcDbSymbolTableRecord
100
AcDbLinetypeTableRecord
  2
CHAIN_DOUBLE_DASH
 70
     0
  3
------------ -- -- -------------
 72
    65
 73
     6
 40
23.5
 49
12.0
 74
     0
 49
-1.5
 74
     0
 49
3.5
 74
     0
 49
-1.5
 74
     0
 49
3.5
 74
     0
 49
-1.5
 74
     0
  0
LTYPE
  5
3D
330
5
100
AcDbSymbolTableRecord
100
AcDbLinetypeTableRecord
  2
DASHED_DOTTED
 70
     0
  3
-----------     -     ----------
 72
    65
 73
     4
 40
9.25
 49
6.0
 74
     0
 49
-1.5
 74
     0
 49
0.25
 74
     0
 49
-1.5
 74
     0
  0
LTYPE
  5
3E
330
5
100
AcDbSymbolTableRecord
100
AcDbLinetypeTableRecord
  2
DOUBLE-DASHED_DOTTED
 70
     0
  3
------   -----------   -   -----
 72
    65
 73
     6
 40
16.75
 49
6.0
 74
     0
 49
-1.5
 74
     0
 49
6.0
 74
     0
 49
-1.5
 74
     0
 49
0.25
 74
     0
 49
-1.5
 74
     0
  0
LTYPE
  5
3F
330
5
100
AcDbSymbolTableRecord
100
AcDbLinetypeTableRecord
  2
DASHED_DOUBLE-DOTTED
 70
     0
  3
---------    -    -    ---------
 72
    65
 73
     6
 40
11.0
 49
6.0
 74
     0
 49
-1.5
 74
     0
 49
0.25
 74
     0
 49
-1.5
 74
     0
 49
0.25
 74
     0
 49
-1.5
 74
     0
  0
LTYPE
  5
40
330
5
100
AcDbSymbolTableRecord
100
AcDbLinetypeTableRecord
  2
DOUBLE-DASHED_DOUBLE-DOTTED
 70
     0
  3
-----   ---------   -   -   ----
 72
    65
 73
     8
 40
18.5
 49
6.0
 74
     0
 49
-1.5
 74
     0
 49
6.0
 74
     0
 49
-1.5
 74
     0
 49
0.25
 74
     0
 49
-1.5
 74
     0
 49
0.25
 74
     0
 49
-1.5
 74
     0
  0
LTYPE
  5
41
330
5
100
AcDbSymbolTableRecord
100
AcDbLinetypeTableRecord
  2
DASHED_TRIPLICATE-DOTTED
 70
     0
  3
-------    -    -    -    ------
 72
    65
 73
     8
 40
12.75
 49
6.0
 74
     0
 49
-1.5
 74
     0
 49
0.25
 74
     0
 49
-1.5
 74
     0
 49
0.25
 74
     0
 49
-1.5
 74
     0
 49
0.25
 74
     0
 49
-1.5
 74
     0
  0
LTYPE
  5
42
330
5
100
AcDbSymbolTableRecord
100
AcDbLinetypeTableRecord
  2
DOUBLE-DASHED_TRIPLICATE-DOTTED
 70
     0
  3
-----  ---------  -  -  -  -----
 72
    65
 73
    10
 40
20.25
 49
6.0
 74
     0
 49
-1.5
 74
     0
 49
6.0
 74
     0
 49
-1.5
 74
     0
 49
0.25
 74
     0
 49
-1.5
 74
     0
 49
0.25
 74
     0
 49
-1.5
 74
     0
 49
0.25
 74
     0
 49
-1.5
 74
     0
  0
LTYPE
  5
43
330
5
100
AcDbSymbolTableRecord
100
AcDbLinetypeTableRecord
  2
UNDEFINED
 70
     0
  3
--------------------------------
 72
    65
 73
     0
 40
0.0
  0
LTYPE
  5
44
330
5
100
AcDbSymbolTableRecord
100
AcDbLinetypeTableRecord
  2
PLINE2
 70
     0
  3
------     -----------     -----
 72
    65
 73
     2
 40
3.0
 49
2.1
 74
     0
 49
-0.9
 74
     0
  0
LTYPE
  5
45
330
5
100
AcDbSymbolTableRecord
100
AcDbLinetypeTableRecord
  2
PLINE3
 70
     0
  3
------------   ---   -----------
 72
    65
 73
     4
 40
10.0
 49
7.0
 74
     0
 49
-1.0
 74
     0
 49
1.0
 74
     0
 49
-1.0
 74
     0
  0
LTYPE
  5
46
330
5
100
AcDbSymbolTableRecord
100
AcDbLinetypeTableRecord
  2
PLINE4
 70
     0
  3
---------   ---   ---   --------
 72
    65
 73
     6
 40
10.0
 49
5.0
 74
     0
 49
-1.0
 74
     0
 49
1.0
 74
     0
 49
-1.0
 74
     0
 49
1.0
 74
     0
 49
-1.0
 74
     0
  0
LTYPE
  5
47
330
5
100
AcDbSymbolTableRecord
100
AcDbLinetypeTableRecord
  2
PLINE5
 70
     0
  3
------     -----------     -----
 72
    65
 73
     2
 40
5.0
 49
3.5
 74
     0
 49
-1.5
 74
     0
  0
LTYPE
  5
48
330
5
100
AcDbSymbolTableRecord
100
AcDbLinetypeTableRecord
  2
PLINE6
 70
     0
  3
------------   ---   -----------
 72
    65
 73
     4
 40
15.0
 49
10.5
 74
     0
 49
-1.5
 74
     0
 49
1.5
 74
     0
 49
-1.5
 74
     0
  0
LTYPE
  5
49
330
5
100
AcDbSymbolTableRecord
100
AcDbLinetypeTableRecord
  2
PLINE7
 70
     0
  3
---------   ---   ---   --------
 72
    65
 73
     6
 40
15.0
 49
7.5
 74
     0
 49
-1.5
 74
     0
 49
1.5
 74
     0
 49
-1.5
 74
     0
 49
1.5
 74
     0
 49
-1.5
 74
     0
  0
LTYPE
  5
4A
330
5
100
AcDbSymbolTableRecord
100
AcDbLinetypeTableRecord
  2
PLINE8
 70
     0
  3
------     -----------     -----
 72
    65
 73
     2
 40
7.0
 49
4.9
 74
     0
 49
-2.1
 74
     0
  0
LTYPE
  5
4B
330
5
100
AcDbSymbolTableRecord
100
AcDbLinetypeTableRecord
  2
PLINE9
 70
     0
  3
------------   ---   -----------
 72
    65
 73
     4
 40
20.0
 49
14.0
 74
     0
 49
-2.0
 74
     0
 49
2.0
 74
     0
 49
-2.0
 74
     0
  0
LTYPE
  5
4C
330
5
100
AcDbSymbolTableRecord
100
AcDbLinetypeTableRecord
  2
PLINE10
 70
     0
  3
---------   ---   ---   --------
 72
    65
 73
     6
 40
20.0
 49
10.0
 74
     0
 49
-2.0
 74
     0
 49
2.0
 74
     0
 49
-2.0
 74
     0
 49
2.0
 74
     0
 49
-2.0
 74
     0
  0
LTYPE
  5
4D
330
5
100
AcDbSymbolTableRecord
100
AcDbLinetypeTableRecord
  2
PLINE11
 70
     0
  3
------     -----------     -----
 72
    65
 73
     2
 40
9.0
 49
6.299999999999999
 74
     0
 49
-2.7
 74
     0
  0
LTYPE
  5
4E
330
5
100
AcDbSymbolTableRecord
100
AcDbLinetypeTableRecord
  2
PLINE12
 70
     0
  3
------------   ---   -----------
 72
    65
 73
     4
 40
25.0
 49
17.5
 74
     0
 49
-2.5
 74
     0
 49
2.5
 74
     0
 49
-2.5
 74
     0
  0
LTYPE
  5
4F
330
5
100
AcDbSymbolTableRecord
100
AcDbLinetypeTableRecord
  2
PLINE13
 70
     0
  3
---------   ---   ---   --------
 72
    65
 73
     6
 40
25.0
 49
12.5
 74
     0
 49
-2.5
 74
     0
 49
2.5
 74
     0
 49
-2.5
 74
     0
 49
2.5
 74
     0
 49
-2.5
 74
     0
  0
LTYPE
  5
50
330
5
100
AcDbSymbolTableRecord
100
AcDbLinetypeTableRecord
  2
PLINE14
 70
     0
  3
------     -----------     -----
 72
    65
 73
     2
 40
11.0
 49
7.7
 74
     0
 49
-3.299999999999999
 74
     0
  0
LTYPE
  5
51
330
5
100
AcDbSymbolTableRecord
100
AcDbLinetypeTableRecord
  2
PLINE15
 70
     0
  3
------------   ---   -----------
 72
    65
 73
     4
 40
30.0
 49
21.0
 74
     0
 49
-3.0
 74
     0
 49
3.0
 74
     0
 49
-3.0
 74
     0
  0
LTYPE
  5
52
330
5
100
AcDbSymbolTableRecord
100
AcDbLinetypeTableRecord
  2
PLINE16
 70
     0
  3
---------   ---   ---   --------
 72
    65
 73
     6
 40
30.0
 49
15.0
 74
     0
 49
-3.0
 74
     0
 49
3.0
 74
     0
 49
-3.0
 74
     0
 49
3.0
 74
     0
 49
-3.0
 74
     0
  0
ENDTAB
  0
TABLE
  2
LAYER
  5
2
102
{ACAD_XDICTIONARY
360
175
102
}
330
0
100
AcDbSymbolTable
 70
     5
  0
LAYER
  5
10
330
2
100
AcDbSymbolTableRecord
100
AcDbLayerTableRecord
  2
0
 70
     0
 62
     7
  6
CONTINUOUS
370
    -3
390
F
  0
LAYER
  5
128
330
2
100
AcDbSymbolTableRecord
100
AcDbLayerTableRecord
  2
Defpoints
 70
     0
 62
     7
  6
CONTINUOUS
290
     0
370
    -3
390
F
  0
LAYER
  5
178
330
2
100
AcDbSymbolTableRecord
100
AcDbLayerTableRecord
  2
寸法
 70
     0
 62
     7
  6
CONTINUOUS
370
    -3
390
F
  0
LAYER
  5
179
330
2
100
AcDbSymbolTableRecord
100
AcDbLayerTableRecord
  2
躯体と製品
 70
     0
 62
     7
  6
CONTINUOUS
370
    -3
390
F
  0
LAYER
  5
4F62
330
2
100
AcDbSymbolTableRecord
100
AcDbLayerTableRecord
  2
図枠
 70
     0
 62
     7
  6
CONTINUOUS
370
    -3
390
F
  0
ENDTAB
  0
TABLE
  2
STYLE
  5
3
330
0
100
AcDbSymbolTable
 70
     5
  0
STYLE
  5
11
330
3
100
AcDbSymbolTableRecord
100
AcDbTextStyleTableRecord
  2
STANDARD
 70
     0
 40
0.0
 41
1.0
 50
0.0
 71
     0
 42
0.2
  3
txt
  4
bigfont.shx
  0
STYLE
  5
53
330
3
100
AcDbSymbolTableRecord
100
AcDbTextStyleTableRecord
  2
TATEGAKI
 70
     4
 40
0.0
 41
1.0
 50
0.0
 71
     0
 42
1.0
  3
txt
  4
bigfont.shx
  0
STYLE
  5
123
330
3
100
AcDbSymbolTableRecord
100
AcDbTextStyleTableRecord
  2
ACAD
 70
     0
 40
0.0
 41
0.8
 50
0.0
 71
     0
 42
5.0
  3
romans.shx
  4
extfont.shx
  0
STYLE
  5
3A5F
330
3
100
AcDbSymbolTableRecord
100
AcDbTextStyleTableRecord
  2
VERTXT
 70
     4
 40
0.0
 41
0.8582679999999999
 50
0.0
 71
     0
 42
3.5
  3
txt.shx
  4
BIGFONT
  0
STYLE
  5
50AD
330
3
100
AcDbSymbolTableRecord
100
AcDbTextStyleTableRecord
  2
STANDARD2
 70
     0
 40
0.0
 41
0.8582679999999999
 50
0.0
 71
     0
 42
3.5
  3
txt.shx
  4
EXTFONT
  0
ENDTAB
  0
TABLE
  2
VIEW
  5
6
330
0
100
AcDbSymbolTable
 70
     0
  0
ENDTAB
  0
TABLE
  2
UCS
  5
7
330
0
100
AcDbSymbolTable
 70
     0
  0
ENDTAB
  0
TABLE
  2
APPID
  5
9
330
0
100
AcDbSymbolTable
 70
     1
  0
APPID
  5
12
330
9
100
AcDbSymbolTableRecord
100
AcDbRegAppTableRecord
  2
ACAD
 70
     0
  0
ENDTAB
  0
TABLE
  2
DIMSTYLE
  5
A
330
0
100
AcDbSymbolTable
 70
     3
100
AcDbDimStyleTable
 71
     1
340
126
  0
DIMSTYLE
105
11C
330
A
100
AcDbSymbolTableRecord
100
AcDbDimStyleTableRecord
  2
Standard
 70
     0
340
11
  0
DIMSTYLE
105
126
102
{ACAD_REACTORS
330
606D
330
607A
330
6092
330
609F
330
60AC
330
60B9
330
60D0
330
60E8
330
60F5
330
6102
330
6115
330
6122
330
6130
330
613D
330
614A
330
6162
330
616F
330
617C
330
6189
330
61A0
330
61B8
330
61C5
330
61D2
330
61F9
330
6206
330
6214
102
}
330
A
100
AcDbSymbolTableRecord
100
AcDbDimStyleTableRecord
  2
AutoCAD
 70
     0
 41
1.0
 42
0.0
 44
0.0
 73
     0
 77
     1
140
3.0
147
1.0
174
     1
176
     4
177
     4
178
     3
271
     0
272
     0
289
     0
340
123
341
15B0
342
11E
  0
DIMSTYLE
105
2CBB
330
A
100
AcDbSymbolTableRecord
100
AcDbDimStyleTableRecord
  2
111
 70
     0
 41
1.0
 42
0.0
 44
0.0
 73
     0
 77
     1
140
5.0
147
1.0
174
     1
176
     4
177
     4
178
     3
271
     0
272
     0
289
     0
340
123
341
15B0
342
2CB5
  0
ENDTAB
  0
TABLE
  2
BLOCK_RECORD
  5
1
330
0
100
AcDbSymbolTable
 70
    30
  0
BLOCK_RECORD
  5
1E
102
{ACAD_XDICTIONARY
360
28B
102
}
330
1
100
AcDbSymbolTableRecord
100
AcDbBlockTableRecord
  2
*Model_Space
340
21
  0
BLOCK_RECORD
  5
1A
102
{ACAD_XDICTIONARY
360
28D
102
}
330
1
100
AcDbSymbolTableRecord
100
AcDbBlockTableRecord
  2
*Paper_Space
340
1D
  0
BLOCK_RECORD
  5
11E
330
1
100
AcDbSymbolTableRecord
100
AcDbBlockTableRecord
  2
_Dot
340
0
102
{BLKREFS
331
638B
331
638C
331
639E
331
639F
331
63A7
331
63A8
331
63B0
331
63B1
331
63C4
331
63C5
331
63CD
331
63CE
331
63D6
331
63D7
331
63E7
331
63E8
331
63F1
331
63F2
331
63FA
331
63FB
331
6403
331
6404
331
6416
331
6417
331
641F
331
6420
331
6428
331
6429
331
643C
331
643D
331
6445
331
6446
331
644E
331
644F
331
645F
331
6460
331
6469
331
646A
331
6472
331
6473
331
64A7
331
64A8
331
64D5
331
64D6
331
64E5
331
64E6
331
64F7
331
64F8
331
6509
331
650A
331
651B
331
651C
102
}
  0
BLOCK_RECORD
  5
15B0
330
1
100
AcDbSymbolTableRecord
100
AcDbBlockTableRecord
  2
_None
340
0
  0
BLOCK_RECORD
  5
2CB5
330
1
100
AcDbSymbolTableRecord
100
AcDbBlockTableRecord
  2
_Open30
340
0
  0
BLOCK_RECORD
  5
35E3
330
1
100
AcDbSymbolTableRecord
100
AcDbBlockTableRecord
  2
_DotBlank
340
0
  0
BLOCK_RECORD
  5
606E
330
1
100
AcDbSymbolTableRecord
100
AcDbBlockTableRecord
  2
*D4
340
0
  0
BLOCK_RECORD
  5
607B
330
1
100
AcDbSymbolTableRecord
100
AcDbBlockTableRecord
  2
*D5
340
0
  0
BLOCK_RECORD
  5
6093
330
1
100
AcDbSymbolTableRecord
100
AcDbBlockTableRecord
  2
*D6
340
0
  0
BLOCK_RECORD
  5
60A0
330
1
100
AcDbSymbolTableRecord
100
AcDbBlockTableRecord
  2
*D7
340
0
  0
BLOCK_RECORD
  5
60AD
330
1
100
AcDbSymbolTableRecord
100
AcDbBlockTableRecord
  2
*D8
340
0
  0
BLOCK_RECORD
  5
60BA
330
1
100
AcDbSymbolTableRecord
100
AcDbBlockTableRecord
  2
*D9
340
0
  0
BLOCK_RECORD
  5
60D1
330
1
100
AcDbSymbolTableRecord
100
AcDbBlockTableRecord
  2
*D10
340
0
  0
BLOCK_RECORD
  5
60E9
330
1
100
AcDbSymbolTableRecord
100
AcDbBlockTableRecord
  2
*D11
340
0
  0
BLOCK_RECORD
  5
60F6
330
1
100
AcDbSymbolTableRecord
100
AcDbBlockTableRecord
  2
*D12
340
0
  0
BLOCK_RECORD
  5
6103
330
1
100
AcDbSymbolTableRecord
100
AcDbBlockTableRecord
  2
*D13
340
0
  0
BLOCK_RECORD
  5
6116
330
1
100
AcDbSymbolTableRecord
100
AcDbBlockTableRecord
  2
*D14
340
0
  0
BLOCK_RECORD
  5
6123
330
1
100
AcDbSymbolTableRecord
100
AcDbBlockTableRecord
  2
*D15
340
0
  0
BLOCK_RECORD
  5
6131
330
1
100
AcDbSymbolTableRecord
100
AcDbBlockTableRecord
  2
*D16
340
0
  0
BLOCK_RECORD
  5
613E
330
1
100
AcDbSymbolTableRecord
100
AcDbBlockTableRecord
  2
*D17
340
0
  0
BLOCK_RECORD
  5
614B
330
1
100
AcDbSymbolTableRecord
100
AcDbBlockTableRecord
  2
*D18
340
0
  0
BLOCK_RECORD
  5
6163
330
1
100
AcDbSymbolTableRecord
100
AcDbBlockTableRecord
  2
*D19
340
0
  0
BLOCK_RECORD
  5
6170
330
1
100
AcDbSymbolTableRecord
100
AcDbBlockTableRecord
  2
*D20
340
0
  0
BLOCK_RECORD
  5
617D
330
1
100
AcDbSymbolTableRecord
100
AcDbBlockTableRecord
  2
*D21
340
0
  0
BLOCK_RECORD
  5
618A
330
1
100
AcDbSymbolTableRecord
100
AcDbBlockTableRecord
  2
*D22
340
0
  0
BLOCK_RECORD
  5
61A1
330
1
100
AcDbSymbolTableRecord
100
AcDbBlockTableRecord
  2
*D23
340
0
  0
BLOCK_RECORD
  5
61B9
330
1
100
AcDbSymbolTableRecord
100
AcDbBlockTableRecord
  2
*D24
340
0
  0
BLOCK_RECORD
  5
61C6
330
1
100
AcDbSymbolTableRecord
100
AcDbBlockTableRecord
  2
*D25
340
0
  0
BLOCK_RECORD
  5
61D3
330
1
100
AcDbSymbolTableRecord
100
AcDbBlockTableRecord
  2
*D26
340
0
  0
BLOCK_RECORD
  5
61FA
330
1
100
AcDbSymbolTableRecord
100
AcDbBlockTableRecord
  2
*D27
340
0
  0
BLOCK_RECORD
  5
6207
330
1
100
AcDbSymbolTableRecord
100
AcDbBlockTableRecord
  2
*D28
340
0
  0
BLOCK_RECORD
  5
6215
330
1
100
AcDbSymbolTableRecord
100
AcDbBlockTableRecord
  2
*D29
340
0
  0
ENDTAB
  0
ENDSEC
  0
SECTION
  2
BLOCKS
  0
BLOCK
  5
1F
330
1E
100
AcDbEntity
  8
0
100
AcDbBlockBegin
  2
*Model_Space
 70
     0
 10
0.0
 20
0.0
 30
0.0
  3
*Model_Space
  1

  0
ENDBLK
  5
20
330
1E
100
AcDbEntity
  8
0
100
AcDbBlockEnd
  0
BLOCK
  5
1B
330
1A
100
AcDbEntity
 67
     1
  8
0
100
AcDbBlockBegin
  2
*Paper_Space
 70
     0
 10
0.0
 20
0.0
 30
0.0
  3
*Paper_Space
  1

  0
ENDBLK
  5
1C
330
1A
100
AcDbEntity
 67
     1
  8
0
100
AcDbBlockEnd
  0
BLOCK
  5
121
330
11E
100
AcDbEntity
  8
0
100
AcDbBlockBegin
  2
_Dot
 70
     0
 10
0.0
 20
0.0
 30
0.0
  3
_Dot
  1

  0
LWPOLYLINE
  5
11F
330
11E
100
AcDbEntity
  8
0
  6
ByBlock
 62
     0
100
AcDbPolyline
 90
        2
 70
     1
 43
0.5
 10
-0.25
 20
0.0
 42
1.0
 10
0.25
 20
0.0
 42
1.0
  0
LINE
  5
120
330
11E
100
AcDbEntity
  8
0
  6
ByBlock
 62
     0
370
    -2
100
AcDbLine
 10
-0.5
 20
0.0
 30
0.0
 11
-1.0
 21
0.0
 31
0.0
  0
ENDBLK
  5
122
330
11E
100
AcDbEntity
  8
0
100
AcDbBlockEnd
  0
BLOCK
  5
15B1
330
15B0
100
AcDbEntity
  8
0
100
AcDbBlockBegin
  2
_None
 70
     0
 10
0.0
 20
0.0
 30
0.0
  3
_None
  1

  0
ENDBLK
  5
15B2
330
15B0
100
AcDbEntity
  8
0
100
AcDbBlockEnd
  0
BLOCK
  5
2CB9
330
2CB5
100
AcDbEntity
  8
0
100
AcDbBlockBegin
  2
_Open30
 70
     0
 10
0.0
 20
0.0
 30
0.0
  3
_Open30
  1

  0
LINE
  5
2CB6
330
2CB5
100
AcDbEntity
  8
0
  6
ByBlock
 62
     0
370
    -2
100
AcDbLine
 10
-1.0
 20
0.26794919
 30
0.0
 11
0.0
 21
0.0
 31
0.0
  0
LINE
  5
2CB7
330
2CB5
100
AcDbEntity
  8
0
  6
ByBlock
 62
     0
370
    -2
100
AcDbLine
 10
0.0
 20
0.0
 30
0.0
 11
-1.0
 21
-0.26794919
 31
0.0
  0
LINE
  5
2CB8
330
2CB5
100
AcDbEntity
  8
0
  6
ByBlock
 62
     0
370
    -2
100
AcDbLine
 10
0.0
 20
0.0
 30
0.0
 11
-1.0
 21
0.0
 31
0.0
  0
ENDBLK
  5
2CBA
330
2CB5
100
AcDbEntity
  8
0
100
AcDbBlockEnd
  0
BLOCK
  5
35E6
330
35E3
100
AcDbEntity
  8
0
100
AcDbBlockBegin
  2
_DotBlank
 70
     0
 10
0.0
 20
0.0
 30
0.0
  3
_DotBlank
  1

  0
CIRCLE
  5
35E4
330
35E3
100
AcDbEntity
  8
0
  6
ByBlock
 62
     0
370
    -2
100
AcDbCircle
 10
0.0
 20
0.0
 30
0.0
 40
0.5
  0
LINE
  5
35E5
330
35E3
100
AcDbEntity
  8
0
  6
ByBlock
 62
     0
370
    -2
100
AcDbLine
 10
-0.5
 20
0.0
 30
0.0
 11
-1.0
 21
0.0
 31
0.0
  0
ENDBLK
  5
35E7
330
35E3
100
AcDbEntity
  8
0
100
AcDbBlockEnd
  0
BLOCK
  5
6078
330
606E
100
AcDbEntity
  8
0
100
AcDbBlockBegin
  2
*D4
 70
     1
 10
0.0
 20
0.0
 30
0.0
  3
*D4
  1

  0
LINE
  5
6388
330
606E
100
AcDbEntity
  8
寸法
  6
Continuous
 62
     4
370
    -2
100
AcDbLine
 10
1352.816166494999
 20
642.0224001927324
 30
0.0
 11
1324.321638494999
 21
642.0224001927324
 31
0.0
  0
LINE
  5
6389
330
606E
100
AcDbEntity
  8
寸法
  6
Continuous
 62
     4
370
    -2
100
AcDbLine
 10
1337.640224494999
 20
650.0224001927324
 30
0.0
 11
1324.321638494999
 21
650.0224001927324
 31
0.0
  0
LINE
  5
638A
330
606E
100
AcDbEntity
  8
寸法
  6
Continuous
 62
     4
370
    -2
100
AcDbLine
 10
1324.321638494999
 20
643.0224001927324
 30
0.0
 11
1324.321638494999
 21
649.0224001927324
 31
0.0
  0
INSERT
  5
638B
330
606E
100
AcDbEntity
  8
寸法
  6
Continuous
 62
     4
370
    -2
100
AcDbBlockReference
  2
_Dot
 10
1324.321638494999
 20
642.0224001927324
 30
0.0
 50
270.0
  0
INSERT
  5
638C
330
606E
100
AcDbEntity
  8
寸法
  6
Continuous
 62
     4
370
    -2
100
AcDbBlockReference
  2
_Dot
 10
1324.321638494999
 20
650.0224001927324
 30
0.0
 50
90.0
  0
MTEXT
  5
638D
330
606E
100
AcDbEntity
  8
寸法
  6
Continuous
 62
     3
100
AcDbMText
 10
1321.821638494999
 20
646.0224001927326
 30
0.0
 40
3.0
 41
0.0
 71
     5
 72
     1
  1
\A1;8
  7
ACAD
 11
0.0000000000000001
 21
1.0
 31
0.0
 73
     1
 44
1.0
1001
ACAD
1000
MTEXTBEGIN
1070
    73
1070
     1
1070
    44
1040
1.0
1070
    74
1070
     0
1000
MTEXTEND
  0
POINT
  5
638E
330
606E
100
AcDbEntity
  8
Defpoints
  6
Continuous
 62
     0
100
AcDbPoint
 10
1352.816166494999
 20
642.0224001927324
 30
0.0
  0
POINT
  5
638F
330
606E
100
AcDbEntity
  8
Defpoints
  6
Continuous
 62
     0
100
AcDbPoint
 10
1337.640224494999
 20
650.0224001927324
 30
0.0
  0
POINT
  5
6390
330
606E
100
AcDbEntity
  8
Defpoints
  6
Continuous
 62
     0
100
AcDbPoint
 10
1324.321638494999
 20
650.0224001927324
 30
0.0
  0
ENDBLK
  5
6079
330
606E
100
AcDbEntity
  8
0
100
AcDbBlockEnd
  0
BLOCK
  5
6086
330
607B
100
AcDbEntity
  8
0
100
AcDbBlockBegin
  2
*D5
 70
     1
 10
0.0
 20
0.0
 30
0.0
  3
*D5
  1

  0
LINE
  5
6506
330
607B
100
AcDbEntity
  8
寸法
  6
Continuous
 62
     4
370
    -2
100
AcDbLine
 10
1337.640224494999
 20
650.0224001927324
 30
0.0
 11
1324.321638494999
 21
650.0224001927324
 31
0.0
  0
LINE
  5
6507
330
607B
100
AcDbEntity
  8
寸法
  6
Continuous
 62
     4
370
    -2
100
AcDbLine
 10
1337.598974494999
 20
654.5224001927324
 30
0.0
 11
1324.321638494999
 21
654.5224001927324
 31
0.0
  0
LINE
  5
6508
330
607B
100
AcDbEntity
  8
寸法
  6
Continuous
 62
     4
370
    -2
100
AcDbLine
 10
1324.321638494999
 20
651.0224001927324
 30
0.0
 11
1324.321638494999
 21
653.5224001927324
 31
0.0
  0
INSERT
  5
6509
330
607B
100
AcDbEntity
  8
寸法
  6
Continuous
 62
     4
370
    -2
100
AcDbBlockReference
  2
_Dot
 10
1324.321638494999
 20
650.0224001927324
 30
0.0
 50
270.0
  0
INSERT
  5
650A
330
607B
100
AcDbEntity
  8
寸法
  6
Continuous
 62
     4
370
    -2
100
AcDbBlockReference
  2
_Dot
 10
1324.321638494999
 20
654.5224001927324
 30
0.0
 50
90.0
  0
MTEXT
  5
650B
330
607B
100
AcDbEntity
  8
寸法
  6
Continuous
 62
     3
100
AcDbMText
 10
1321.821638494999
 20
652.2724001927326
 30
0.0
 40
3.0
 41
0.0
 71
     5
 72
     1
  1
\A1;4.5
  7
ACAD
 11
0.0000000000000001
 21
1.0
 31
0.0
 73
     1
 44
1.0
1001
ACAD
1000
MTEXTBEGIN
1070
    73
1070
     1
1070
    44
1040
1.0
1070
    74
1070
     0
1000
MTEXTEND
  0
POINT
  5
650C
330
607B
100
AcDbEntity
  8
Defpoints
  6
Continuous
 62
     0
100
AcDbPoint
 10
1337.640224494999
 20
650.0224001927324
 30
0.0
  0
POINT
  5
650D
330
607B
100
AcDbEntity
  8
Defpoints
  6
Continuous
 62
     0
100
AcDbPoint
 10
1337.598974494999
 20
654.5224001927324
 30
0.0
  0
POINT
  5
650E
330
607B
100
AcDbEntity
  8
Defpoints
  6
Continuous
 62
     0
100
AcDbPoint
 10
1324.321638494999
 20
654.5224001927324
 30
0.0
  0
ENDBLK
  5
6087
330
607B
100
AcDbEntity
  8
0
100
AcDbBlockEnd
  0
BLOCK
  5
609D
330
6093
100
AcDbEntity
  8
0
100
AcDbBlockBegin
  2
*D6
 70
     1
 10
0.0
 20
0.0
 30
0.0
  3
*D6
  1

  0
LINE
  5
639B
330
6093
100
AcDbEntity
  8
寸法
  6
Continuous
 62
     4
370
    -2
100
AcDbLine
 10
1340.640224494999
 20
647.0224001927324
 30
0.0
 11
1340.640224494999
 21
630.0224001927325
 31
0.0
  0
LINE
  5
639C
330
6093
100
AcDbEntity
  8
寸法
  6
Continuous
 62
     4
370
    -2
100
AcDbLine
 10
1356.640224494999
 20
639.0224001927324
 30
0.0
 11
1356.640224494999
 21
630.0224001927325
 31
0.0
  0
LINE
  5
639D
330
6093
100
AcDbEntity
  8
寸法
  6
Continuous
 62
     4
370
    -2
100
AcDbLine
 10
1341.640224494999
 20
630.0224001927325
 30
0.0
 11
1355.640224494999
 21
630.0224001927325
 31
0.0
  0
INSERT
  5
639E
330
6093
100
AcDbEntity
  8
寸法
  6
Continuous
 62
     4
370
    -2
100
AcDbBlockReference
  2
_Dot
 10
1340.640224494999
 20
630.0224001927325
 30
0.0
 50
180.0
  0
INSERT
  5
639F
330
6093
100
AcDbEntity
  8
寸法
  6
Continuous
 62
     4
370
    -2
100
AcDbBlockReference
  2
_Dot
 10
1356.640224494999
 20
630.0224001927325
 30
0.0
  0
MTEXT
  5
63A0
330
6093
100
AcDbEntity
  8
寸法
  6
Continuous
 62
     3
100
AcDbMText
 10
1348.640224494999
 20
632.5224001927324
 30
0.0
 40
3.0
 41
0.0
 71
     5
 72
     1
  1
\A1;16
  7
ACAD
 73
     1
 44
1.0
1001
ACAD
1000
MTEXTBEGIN
1070
    73
1070
     1
1070
    44
1040
1.0
1070
    74
1070
     0
1000
MTEXTEND
  0
POINT
  5
63A1
330
6093
100
AcDbEntity
  8
Defpoints
  6
Continuous
 62
     0
100
AcDbPoint
 10
1340.640224494999
 20
647.0224001927324
 30
0.0
  0
POINT
  5
63A2
330
6093
100
AcDbEntity
  8
Defpoints
  6
Continuous
 62
     0
100
AcDbPoint
 10
1356.640224494999
 20
639.0224001927324
 30
0.0
  0
POINT
  5
63A3
330
6093
100
AcDbEntity
  8
Defpoints
  6
Continuous
 62
     0
100
AcDbPoint
 10
1356.640224494999
 20
630.0224001927325
 30
0.0
  0
ENDBLK
  5
609E
330
6093
100
AcDbEntity
  8
0
100
AcDbBlockEnd
  0
BLOCK
  5
60AA
330
60A0
100
AcDbEntity
  8
0
100
AcDbBlockBegin
  2
*D7
 70
     1
 10
0.0
 20
0.0
 30
0.0
  3
*D7
  1

  0
LINE
  5
63A4
330
60A0
100
AcDbEntity
  8
寸法
  6
Continuous
 62
     4
370
    -2
100
AcDbLine
 10
1356.640224494999
 20
639.0224001927324
 30
0.0
 11
1356.640224494999
 21
630.0224001927325
 31
0.0
  0
LINE
  5
63A5
330
60A0
100
AcDbEntity
  8
寸法
  6
Continuous
 62
     4
370
    -2
100
AcDbLine
 10
1456.640224494999
 20
639.0224001927324
 30
0.0
 11
1456.640224494999
 21
630.0224001927325
 31
0.0
  0
LINE
  5
63A6
330
60A0
100
AcDbEntity
  8
寸法
  6
Continuous
 62
     4
370
    -2
100
AcDbLine
 10
1357.640224494999
 20
630.0224001927325
 30
0.0
 11
1455.640224494999
 21
630.0224001927325
 31
0.0
  0
INSERT
  5
63A7
330
60A0
100
AcDbEntity
  8
寸法
  6
Continuous
 62
     4
370
    -2
100
AcDbBlockReference
  2
_Dot
 10
1356.640224494999
 20
630.0224001927325
 30
0.0
 50
180.0
  0
INSERT
  5
63A8
330
60A0
100
AcDbEntity
  8
寸法
  6
Continuous
 62
     4
370
    -2
100
AcDbBlockReference
  2
_Dot
 10
1456.640224494999
 20
630.0224001927325
 30
0.0
  0
MTEXT
  5
63A9
330
60A0
100
AcDbEntity
  8
寸法
  6
Continuous
 62
     3
100
AcDbMText
 10
1406.640224494999
 20
632.5224001927324
 30
0.0
 40
3.0
 41
0.0
 71
     5
 72
     1
  1
\A1;100
  7
ACAD
 73
     1
 44
1.0
1001
ACAD
1000
MTEXTBEGIN
1070
    73
1070
     1
1070
    44
1040
1.0
1070
    74
1070
     0
1000
MTEXTEND
  0
POINT
  5
63AA
330
60A0
100
AcDbEntity
  8
Defpoints
  6
Continuous
 62
     0
100
AcDbPoint
 10
1356.640224494999
 20
639.0224001927324
 30
0.0
  0
POINT
  5
63AB
330
60A0
100
AcDbEntity
  8
Defpoints
  6
Continuous
 62
     0
100
AcDbPoint
 10
1456.640224494999
 20
639.0224001927324
 30
0.0
  0
POINT
  5
63AC
330
60A0
100
AcDbEntity
  8
Defpoints
  6
Continuous
 62
     0
100
AcDbPoint
 10
1456.640224494999
 20
630.0224001927325
 30
0.0
  0
ENDBLK
  5
60AB
330
60A0
100
AcDbEntity
  8
0
100
AcDbBlockEnd
  0
BLOCK
  5
60B7
330
60AD
100
AcDbEntity
  8
0
100
AcDbBlockBegin
  2
*D8
 70
     1
 10
0.0
 20
0.0
 30
0.0
  3
*D8
  1

  0
LINE
  5
63AD
330
60AD
100
AcDbEntity
  8
寸法
  6
Continuous
 62
     4
370
    -2
100
AcDbLine
 10
1456.640224494999
 20
639.0224001927324
 30
0.0
 11
1456.640224494999
 21
630.0224001927325
 31
0.0
  0
LINE
  5
63AE
330
60AD
100
AcDbEntity
  8
寸法
  6
Continuous
 62
     4
370
    -2
100
AcDbLine
 10
1466.640224494999
 20
639.6744581927324
 30
0.0
 11
1466.640224494999
 21
630.0224001927325
 31
0.0
  0
LINE
  5
63AF
330
60AD
100
AcDbEntity
  8
寸法
  6
Continuous
 62
     4
370
    -2
100
AcDbLine
 10
1457.640224494999
 20
630.0224001927325
 30
0.0
 11
1465.640224494999
 21
630.0224001927325
 31
0.0
  0
INSERT
  5
63B0
330
60AD
100
AcDbEntity
  8
寸法
  6
Continuous
 62
     4
370
    -2
100
AcDbBlockReference
  2
_Dot
 10
1456.640224494999
 20
630.0224001927325
 30
0.0
 50
180.0
  0
INSERT
  5
63B1
330
60AD
100
AcDbEntity
  8
寸法
  6
Continuous
 62
     4
370
    -2
100
AcDbBlockReference
  2
_Dot
 10
1466.640224494999
 20
630.0224001927325
 30
0.0
  0
MTEXT
  5
63B2
330
60AD
100
AcDbEntity
  8
寸法
  6
Continuous
 62
     3
100
AcDbMText
 10
1461.640224494999
 20
632.5224001927324
 30
0.0
 40
3.0
 41
0.0
 71
     5
 72
     1
  1
\A1;10
  7
ACAD
 73
     1
 44
1.0
1001
ACAD
1000
MTEXTBEGIN
1070
    73
1070
     1
1070
    44
1040
1.0
1070
    74
1070
     0
1000
MTEXTEND
  0
POINT
  5
63B3
330
60AD
100
AcDbEntity
  8
Defpoints
  6
Continuous
 62
     0
100
AcDbPoint
 10
1456.640224494999
 20
639.0224001927324
 30
0.0
  0
POINT
  5
63B4
330
60AD
100
AcDbEntity
  8
Defpoints
  6
Continuous
 62
     0
100
AcDbPoint
 10
1466.640224494999
 20
639.6744581927324
 30
0.0
  0
POINT
  5
63B5
330
60AD
100
AcDbEntity
  8
Defpoints
  6
Continuous
 62
     0
100
AcDbPoint
 10
1466.640224494999
 20
630.0224001927325
 30
0.0
  0
ENDBLK
  5
60B8
330
60AD
100
AcDbEntity
  8
0
100
AcDbBlockEnd
  0
BLOCK
  5
60C4
330
60BA
100
AcDbEntity
  8
0
100
AcDbBlockBegin
  2
*D9
 70
     1
 10
0.0
 20
0.0
 30
0.0
  3
*D9
  1

  0
LINE
  5
64F4
330
60BA
100
AcDbEntity
  8
寸法
  6
Continuous
 62
     4
370
    -2
100
AcDbLine
 10
1446.754621494999
 20
650.0224001927324
 30
0.0
 11
1437.640224494999
 21
650.0224001927324
 31
0.0
  0
LINE
  5
64F5
330
60BA
100
AcDbEntity
  8
寸法
  6
Continuous
 62
     4
370
    -2
100
AcDbLine
 10
1446.956692494999
 20
655.0224001927325
 30
0.0
 11
1437.640224494999
 21
655.0224001927325
 31
0.0
  0
LINE
  5
64F6
330
60BA
100
AcDbEntity
  8
寸法
  6
Continuous
 62
     4
370
    -2
100
AcDbLine
 10
1437.640224494999
 20
651.0224001927324
 30
0.0
 11
1437.640224494999
 21
654.0224001927324
 31
0.0
  0
INSERT
  5
64F7
330
60BA
100
AcDbEntity
  8
寸法
  6
Continuous
 62
     4
370
    -2
100
AcDbBlockReference
  2
_Dot
 10
1437.640224494999
 20
650.0224001927324
 30
0.0
 50
270.0
  0
INSERT
  5
64F8
330
60BA
100
AcDbEntity
  8
寸法
  6
Continuous
 62
     4
370
    -2
100
AcDbBlockReference
  2
_Dot
 10
1437.640224494999
 20
655.0224001927325
 30
0.0
 50
90.0
  0
MTEXT
  5
64F9
330
60BA
100
AcDbEntity
  8
寸法
  6
Continuous
 62
     3
100
AcDbMText
 10
1434.354510209285
 20
652.5224001927327
 30
0.0
 40
3.0
 41
0.0
 71
     5
 72
     1
  1
\A1;(5)
  7
ACAD
 11
0.0000000000000001
 21
1.0
 31
0.0
 73
     1
 44
1.0
1001
ACAD
1000
MTEXTBEGIN
1070
    73
1070
     1
1070
    44
1040
1.0
1070
    74
1070
     0
1000
MTEXTEND
  0
POINT
  5
64FA
330
60BA
100
AcDbEntity
  8
Defpoints
  6
Continuous
 62
     0
100
AcDbPoint
 10
1446.754621494999
 20
650.0224001927324
 30
0.0
  0
POINT
  5
64FB
330
60BA
100
AcDbEntity
  8
Defpoints
  6
Continuous
 62
     0
100
AcDbPoint
 10
1446.956692494999
 20
655.0224001927325
 30
0.0
  0
POINT
  5
64FC
330
60BA
100
AcDbEntity
  8
Defpoints
  6
Continuous
 62
     0
100
AcDbPoint
 10
1437.640224494999
 20
655.0224001927325
 30
0.0
  0
ENDBLK
  5
60C5
330
60BA
100
AcDbEntity
  8
0
100
AcDbBlockEnd
  0
BLOCK
  5
60DC
330
60D1
100
AcDbEntity
  8
0
100
AcDbBlockBegin
  2
*D10
 70
     1
 10
0.0
 20
0.0
 30
0.0
  3
*D10
  1

  0
LINE
  5
63C0
330
60D1
100
AcDbEntity
  8
寸法
  6
Continuous
 62
     4
370
    -2
100
AcDbLine
 10
1448.640224494999
 20
657.3119641927324
 30
0.0
 11
1448.640224494999
 21
662.8474091927325
 31
0.0
  0
LINE
  5
63C1
330
60D1
100
AcDbEntity
  8
寸法
  6
Continuous
 62
     4
370
    -2
100
AcDbLine
 10
1450.640224494999
 20
658.4401411927323
 30
0.0
 11
1450.640224494999
 21
662.8474091927325
 31
0.0
  0
LINE
  5
63C2
330
60D1
100
AcDbEntity
  8
寸法
  6
Continuous
 62
     4
370
    -2
100
AcDbLine
 10
1447.640224494999
 20
662.8474091927325
 30
0.0
 11
1446.640224494999
 21
662.8474091927325
 31
0.0
  0
LINE
  5
63C3
330
60D1
100
AcDbEntity
  8
寸法
  6
Continuous
 62
     4
370
    -2
100
AcDbLine
 10
1451.640224494999
 20
662.8474091927325
 30
0.0
 11
1452.640224494999
 21
662.8474091927325
 31
0.0
  0
INSERT
  5
63C4
330
60D1
100
AcDbEntity
  8
寸法
  6
Continuous
 62
     4
370
    -2
100
AcDbBlockReference
  2
_Dot
 10
1448.640224494999
 20
662.8474091927325
 30
0.0
  0
INSERT
  5
63C5
330
60D1
100
AcDbEntity
  8
寸法
  6
Continuous
 62
     4
370
    -2
100
AcDbBlockReference
  2
_Dot
 10
1450.640224494999
 20
662.8474091927325
 30
0.0
 50
180.0
  0
MTEXT
  5
63C6
330
60D1
100
AcDbEntity
  8
寸法
  6
Continuous
 62
     3
100
AcDbMText
 10
1449.640224494999
 20
666.1331234784467
 30
0.0
 40
3.0
 41
0.0
 71
     5
 72
     1
  1
\A1;(2)
  7
ACAD
 73
     1
 44
1.0
1001
ACAD
1000
MTEXTBEGIN
1070
    73
1070
     1
1070
    44
1040
1.0
1070
    74
1070
     0
1000
MTEXTEND
  0
POINT
  5
63C7
330
60D1
100
AcDbEntity
  8
Defpoints
  6
Continuous
 62
     0
100
AcDbPoint
 10
1448.640224494999
 20
657.3119641927324
 30
0.0
  0
POINT
  5
63C8
330
60D1
100
AcDbEntity
  8
Defpoints
  6
Continuous
 62
     0
100
AcDbPoint
 10
1450.640224494999
 20
658.4401411927323
 30
0.0
  0
POINT
  5
63C9
330
60D1
100
AcDbEntity
  8
Defpoints
  6
Continuous
 62
     0
100
AcDbPoint
 10
1450.640224494999
 20
662.8474091927325
 30
0.0
  0
ENDBLK
  5
60DD
330
60D1
100
AcDbEntity
  8
0
100
AcDbBlockEnd
  0
BLOCK
  5
60F3
330
60E9
100
AcDbEntity
  8
0
100
AcDbBlockBegin
  2
*D11
 70
     1
 10
0.0
 20
0.0
 30
0.0
  3
*D11
  1

  0
LINE
  5
63CA
330
60E9
100
AcDbEntity
  8
寸法
  6
Continuous
 62
     4
370
    -2
100
AcDbLine
 10
1448.640224494999
 20
657.3119641927324
 30
0.0
 11
1448.640224494999
 21
669.4696051927324
 31
0.0
  0
LINE
  5
63CB
330
60E9
100
AcDbEntity
  8
寸法
  6
Continuous
 62
     4
370
    -2
100
AcDbLine
 10
1456.640224494999
 20
654.6962521927325
 30
0.0
 11
1456.640224494999
 21
669.4696051927324
 31
0.0
  0
LINE
  5
63CC
330
60E9
100
AcDbEntity
  8
寸法
  6
Continuous
 62
     4
370
    -2
100
AcDbLine
 10
1449.640224494999
 20
669.4696051927324
 30
0.0
 11
1455.640224494999
 21
669.4696051927324
 31
0.0
  0
INSERT
  5
63CD
330
60E9
100
AcDbEntity
  8
寸法
  6
Continuous
 62
     4
370
    -2
100
AcDbBlockReference
  2
_Dot
 10
1448.640224494999
 20
669.4696051927324
 30
0.0
 50
180.0
  0
INSERT
  5
63CE
330
60E9
100
AcDbEntity
  8
寸法
  6
Continuous
 62
     4
370
    -2
100
AcDbBlockReference
  2
_Dot
 10
1456.640224494999
 20
669.4696051927324
 30
0.0
  0
MTEXT
  5
63CF
330
60E9
100
AcDbEntity
  8
寸法
  6
Continuous
 62
     3
100
AcDbMText
 10
1452.640224494999
 20
671.9696051927323
 30
0.0
 40
3.0
 41
0.0
 71
     5
 72
     1
  1
\A1;8
  7
ACAD
 73
     1
 44
1.0
1001
ACAD
1000
MTEXTBEGIN
1070
    73
1070
     1
1070
    44
1040
1.0
1070
    74
1070
     0
1000
MTEXTEND
  0
POINT
  5
63D0
330
60E9
100
AcDbEntity
  8
Defpoints
  6
Continuous
 62
     0
100
AcDbPoint
 10
1448.640224494999
 20
657.3119641927324
 30
0.0
  0
POINT
  5
63D1
330
60E9
100
AcDbEntity
  8
Defpoints
  6
Continuous
 62
     0
100
AcDbPoint
 10
1456.640224494999
 20
654.6962521927325
 30
0.0
  0
POINT
  5
63D2
330
60E9
100
AcDbEntity
  8
Defpoints
  6
Continuous
 62
     0
100
AcDbPoint
 10
1456.640224494999
 20
669.4696051927324
 30
0.0
  0
ENDBLK
  5
60F4
330
60E9
100
AcDbEntity
  8
0
100
AcDbBlockEnd
  0
BLOCK
  5
6100
330
60F6
100
AcDbEntity
  8
0
100
AcDbBlockBegin
  2
*D12
 70
     1
 10
0.0
 20
0.0
 30
0.0
  3
*D12
  1

  0
LINE
  5
63D3
330
60F6
100
AcDbEntity
  8
寸法
  6
Continuous
 62
     4
370
    -2
100
AcDbLine
 10
1456.640224494999
 20
654.6962521927325
 30
0.0
 11
1456.640224494999
 21
669.4696051927324
 31
0.0
  0
LINE
  5
63D4
330
60F6
100
AcDbEntity
  8
寸法
  6
Continuous
 62
     4
370
    -2
100
AcDbLine
 10
1467.640224494999
 20
657.2597081927324
 30
0.0
 11
1467.640224494999
 21
669.4696051927324
 31
0.0
  0
LINE
  5
63D5
330
60F6
100
AcDbEntity
  8
寸法
  6
Continuous
 62
     4
370
    -2
100
AcDbLine
 10
1457.640224494999
 20
669.4696051927324
 30
0.0
 11
1466.640224494999
 21
669.4696051927324
 31
0.0
  0
INSERT
  5
63D6
330
60F6
100
AcDbEntity
  8
寸法
  6
Continuous
 62
     4
370
    -2
100
AcDbBlockReference
  2
_Dot
 10
1456.640224494999
 20
669.4696051927324
 30
0.0
 50
180.0
  0
INSERT
  5
63D7
330
60F6
100
AcDbEntity
  8
寸法
  6
Continuous
 62
     4
370
    -2
100
AcDbBlockReference
  2
_Dot
 10
1467.640224494999
 20
669.4696051927324
 30
0.0
  0
MTEXT
  5
63D8
330
60F6
100
AcDbEntity
  8
寸法
  6
Continuous
 62
     3
100
AcDbMText
 10
1462.140224494999
 20
671.9696051927323
 30
0.0
 40
3.0
 41
0.0
 71
     5
 72
     1
  1
\A1;11
  7
ACAD
 73
     1
 44
1.0
1001
ACAD
1000
MTEXTBEGIN
1070
    73
1070
     1
1070
    44
1040
1.0
1070
    74
1070
     0
1000
MTEXTEND
  0
POINT
  5
63D9
330
60F6
100
AcDbEntity
  8
Defpoints
  6
Continuous
 62
     0
100
AcDbPoint
 10
1456.640224494999
 20
654.6962521927325
 30
0.0
  0
POINT
  5
63DA
330
60F6
100
AcDbEntity
  8
Defpoints
  6
Continuous
 62
     0
100
AcDbPoint
 10
1467.640224494999
 20
657.2597081927324
 30
0.0
  0
POINT
  5
63DB
330
60F6
100
AcDbEntity
  8
Defpoints
  6
Continuous
 62
     0
100
AcDbPoint
 10
1467.640224494999
 20
669.4696051927324
 30
0.0
  0
ENDBLK
  5
6101
330
60F6
100
AcDbEntity
  8
0
100
AcDbBlockEnd
  0
BLOCK
  5
610B
330
6103
100
AcDbEntity
  8
0
100
AcDbBlockBegin
  2
*D13
 70
     1
 10
0.0
 20
0.0
 30
0.0
  3
*D13
  1

  0
LINE
  5
64E4
330
6103
100
AcDbEntity
  8
寸法
  6
Continuous
 62
     4
370
    -2
100
AcDbLine
 10
1463.140224494999
 20
662.8474091927325
 30
0.0
 11
1466.640224494999
 21
662.8474091927325
 31
0.0
  0
INSERT
  5
64E5
330
6103
100
AcDbEntity
  8
寸法
  6
Continuous
 62
     4
370
    -2
100
AcDbBlockReference
  2
_Dot
 10
1462.140224494999
 20
662.8474091927325
 30
0.0
 50
180.0
  0
INSERT
  5
64E6
330
6103
100
AcDbEntity
  8
寸法
  6
Continuous
 62
     4
370
    -2
100
AcDbBlockReference
  2
_Dot
 10
1467.640224494999
 20
662.8474091927325
 30
0.0
  0
MTEXT
  5
64E7
330
6103
100
AcDbEntity
  8
寸法
  6
Continuous
 62
     3
100
AcDbMText
 10
1464.890224494999
 20
665.3474091927324
 30
0.0
 40
3.0
 41
0.0
 71
     5
 72
     1
  1
\A1;5.5
  7
ACAD
 73
     1
 44
1.0
1001
ACAD
1000
MTEXTBEGIN
1070
    73
1070
     1
1070
    44
1040
1.0
1070
    74
1070
     0
1000
MTEXTEND
  0
POINT
  5
64E8
330
6103
100
AcDbEntity
  8
Defpoints
  6
Continuous
 62
     0
100
AcDbPoint
 10
1462.140224494999
 20
662.8474091927325
 30
0.0
  0
POINT
  5
64E9
330
6103
100
AcDbEntity
  8
Defpoints
  6
Continuous
 62
     0
100
AcDbPoint
 10
1467.640224494999
 20
662.8474091927325
 30
0.0
  0
POINT
  5
64EA
330
6103
100
AcDbEntity
  8
Defpoints
  6
Continuous
 62
     0
100
AcDbPoint
 10
1467.640224494999
 20
662.8474091927325
 30
0.0
  0
ENDBLK
  5
610C
330
6103
100
AcDbEntity
  8
0
100
AcDbBlockEnd
  0
BLOCK
  5
6120
330
6116
100
AcDbEntity
  8
0
100
AcDbBlockBegin
  2
*D14
 70
     1
 10
0.0
 20
0.0
 30
0.0
  3
*D14
  1

  0
LINE
  5
63E4
330
6116
100
AcDbEntity
  8
寸法
  6
Continuous
 62
     4
370
    -2
100
AcDbLine
 10
1448.640224494999
 20
669.7196051927323
 30
0.0
 11
1448.640224494999
 21
674.9826221927325
 31
0.0
  0
LINE
  5
63E5
330
6116
100
AcDbEntity
  8
寸法
  6
Continuous
 62
     4
370
    -2
100
AcDbLine
 10
1467.890224494999
 20
669.4696051927324
 30
0.0
 11
1467.890224494999
 21
674.9826221927325
 31
0.0
  0
LINE
  5
63E6
330
6116
100
AcDbEntity
  8
寸法
  6
Continuous
 62
     4
370
    -2
100
AcDbLine
 10
1449.640224494999
 20
674.9826221927325
 30
0.0
 11
1466.890224494999
 21
674.9826221927325
 31
0.0
  0
INSERT
  5
63E7
330
6116
100
AcDbEntity
  8
寸法
  6
Continuous
 62
     4
370
    -2
100
AcDbBlockReference
  2
_Dot
 10
1448.640224494999
 20
674.9826221927325
 30
0.0
 50
180.0
  0
INSERT
  5
63E8
330
6116
100
AcDbEntity
  8
寸法
  6
Continuous
 62
     4
370
    -2
100
AcDbBlockReference
  2
_Dot
 10
1467.890224494999
 20
674.9826221927325
 30
0.0
  0
MTEXT
  5
63E9
330
6116
100
AcDbEntity
  8
寸法
  6
Continuous
 62
     3
100
AcDbMText
 10
1458.265224494999
 20
677.4826221927325
 30
0.0
 40
3.0
 41
0.0
 71
     5
 72
     1
  1
\A1;19
  7
ACAD
 73
     1
 44
1.0
1001
ACAD
1000
MTEXTBEGIN
1070
    73
1070
     1
1070
    44
1040
1.0
1070
    74
1070
     0
1000
MTEXTEND
  0
POINT
  5
63EA
330
6116
100
AcDbEntity
  8
Defpoints
  6
Continuous
 62
     0
100
AcDbPoint
 10
1448.640224494999
 20
669.7196051927323
 30
0.0
  0
POINT
  5
63EB
330
6116
100
AcDbEntity
  8
Defpoints
  6
Continuous
 62
     0
100
AcDbPoint
 10
1467.890224494999
 20
669.4696051927324
 30
0.0
  0
POINT
  5
63EC
330
6116
100
AcDbEntity
  8
Defpoints
  6
Continuous
 62
     0
100
AcDbPoint
 10
1467.890224494999
 20
674.9826221927325
 30
0.0
  0
ENDBLK
  5
6121
330
6116
100
AcDbEntity
  8
0
100
AcDbBlockEnd
  0
BLOCK
  5
612E
330
6123
100
AcDbEntity
  8
0
100
AcDbBlockBegin
  2
*D15
 70
     1
 10
0.0
 20
0.0
 30
0.0
  3
*D15
  1

  0
LINE
  5
63ED
330
6123
100
AcDbEntity
  8
寸法
  6
Continuous
 62
     4
370
    -2
100
AcDbLine
 10
1468.562626494999
 20
656.0224001927324
 30
0.0
 11
1483.052355494999
 21
656.0224001927324
 31
0.0
  0
LINE
  5
63EE
330
6123
100
AcDbEntity
  8
寸法
  6
Continuous
 62
     4
370
    -2
100
AcDbLine
 10
1468.455146494999
 20
653.0224001927324
 30
0.0
 11
1483.052355494999
 21
653.0224001927324
 31
0.0
  0
LINE
  5
63EF
330
6123
100
AcDbEntity
  8
寸法
  6
Continuous
 62
     4
370
    -2
100
AcDbLine
 10
1483.052355494999
 20
657.0224001927324
 30
0.0
 11
1483.052355494999
 21
658.0224001927324
 31
0.0
  0
LINE
  5
63F0
330
6123
100
AcDbEntity
  8
寸法
  6
Continuous
 62
     4
370
    -2
100
AcDbLine
 10
1483.052355494999
 20
652.0224001927324
 30
0.0
 11
1483.052355494999
 21
651.0224001927324
 31
0.0
  0
INSERT
  5
63F1
330
6123
100
AcDbEntity
  8
寸法
  6
Continuous
 62
     4
370
    -2
100
AcDbBlockReference
  2
_Dot
 10
1483.052355494999
 20
656.0224001927324
 30
0.0
 50
270.0
  0
INSERT
  5
63F2
330
6123
100
AcDbEntity
  8
寸法
  6
Continuous
 62
     4
370
    -2
100
AcDbBlockReference
  2
_Dot
 10
1483.052355494999
 20
653.0224001927324
 30
0.0
 50
90.0
  0
MTEXT
  5
63F3
330
6123
100
AcDbEntity
  8
寸法
  6
Continuous
 62
     3
100
AcDbMText
 10
1480.552355494999
 20
654.5224001927326
 30
0.0
 40
3.0
 41
0.0
 71
     5
 72
     1
  1
\A1;3
  7
ACAD
 11
0.0000000000000001
 21
1.0
 31
0.0
 73
     1
 44
1.0
1001
ACAD
1000
MTEXTBEGIN
1070
    73
1070
     1
1070
    44
1040
1.0
1070
    74
1070
     0
1000
MTEXTEND
  0
POINT
  5
63F4
330
6123
100
AcDbEntity
  8
Defpoints
  6
Continuous
 62
     0
100
AcDbPoint
 10
1468.562626494999
 20
656.0224001927324
 30
0.0
  0
POINT
  5
63F5
330
6123
100
AcDbEntity
  8
Defpoints
  6
Continuous
 62
     0
100
AcDbPoint
 10
1468.455146494999
 20
653.0224001927324
 30
0.0
  0
POINT
  5
63F6
330
6123
100
AcDbEntity
  8
Defpoints
  6
Continuous
 62
     0
100
AcDbPoint
 10
1483.052355494999
 20
653.0224001927324
 30
0.0
  0
ENDBLK
  5
612F
330
6123
100
AcDbEntity
  8
0
100
AcDbBlockEnd
  0
BLOCK
  5
613B
330
6131
100
AcDbEntity
  8
0
100
AcDbBlockBegin
  2
*D16
 70
     1
 10
0.0
 20
0.0
 30
0.0
  3
*D16
  1

  0
LINE
  5
63F7
330
6131
100
AcDbEntity
  8
寸法
  6
Continuous
 62
     4
370
    -2
100
AcDbLine
 10
1468.562626494999
 20
656.0224001927324
 30
0.0
 11
1490.712746494999
 21
656.0224001927324
 31
0.0
  0
LINE
  5
63F8
330
6131
100
AcDbEntity
  8
寸法
  6
Continuous
 62
     4
370
    -2
100
AcDbLine
 10
1487.117198494999
 20
642.0224001927324
 30
0.0
 11
1490.712746494999
 21
642.0224001927324
 31
0.0
  0
LINE
  5
63F9
330
6131
100
AcDbEntity
  8
寸法
  6
Continuous
 62
     4
370
    -2
100
AcDbLine
 10
1490.712746494999
 20
655.0224001927325
 30
0.0
 11
1490.712746494999
 21
643.0224001927324
 31
0.0
  0
INSERT
  5
63FA
330
6131
100
AcDbEntity
  8
寸法
  6
Continuous
 62
     4
370
    -2
100
AcDbBlockReference
  2
_Dot
 10
1490.712746494999
 20
656.0224001927324
 30
0.0
 50
90.0
  0
INSERT
  5
63FB
330
6131
100
AcDbEntity
  8
寸法
  6
Continuous
 62
     4
370
    -2
100
AcDbBlockReference
  2
_Dot
 10
1490.712746494999
 20
642.0224001927324
 30
0.0
 50
270.0
  0
MTEXT
  5
63FC
330
6131
100
AcDbEntity
  8
寸法
  6
Continuous
 62
     3
100
AcDbMText
 10
1488.212746494999
 20
649.0224001927327
 30
0.0
 40
3.0
 41
0.0
 71
     5
 72
     1
  1
\A1;14
  7
ACAD
 11
0.0000000000000001
 21
1.0
 31
0.0
 73
     1
 44
1.0
1001
ACAD
1000
MTEXTBEGIN
1070
    73
1070
     1
1070
    44
1040
1.0
1070
    74
1070
     0
1000
MTEXTEND
  0
POINT
  5
63FD
330
6131
100
AcDbEntity
  8
Defpoints
  6
Continuous
 62
     0
100
AcDbPoint
 10
1468.562626494999
 20
656.0224001927324
 30
0.0
  0
POINT
  5
63FE
330
6131
100
AcDbEntity
  8
Defpoints
  6
Continuous
 62
     0
100
AcDbPoint
 10
1487.117198494999
 20
642.0224001927324
 30
0.0
  0
POINT
  5
63FF
330
6131
100
AcDbEntity
  8
Defpoints
  6
Continuous
 62
     0
100
AcDbPoint
 10
1490.712746494999
 20
642.0224001927324
 30
0.0
  0
ENDBLK
  5
613C
330
6131
100
AcDbEntity
  8
0
100
AcDbBlockEnd
  0
BLOCK
  5
6148
330
613E
100
AcDbEntity
  8
0
100
AcDbBlockBegin
  2
*D17
 70
     1
 10
0.0
 20
0.0
 30
0.0
  3
*D17
  1

  0
LINE
  5
6400
330
613E
100
AcDbEntity
  8
寸法
  6
Continuous
 62
     4
370
    -2
100
AcDbLine
 10
1327.816166494999
 20
516.5869161927324
 30
0.0
 11
1299.321638494999
 21
516.5869161927324
 31
0.0
  0
LINE
  5
6401
330
613E
100
AcDbEntity
  8
寸法
  6
Continuous
 62
     4
370
    -2
100
AcDbLine
 10
1312.640224494999
 20
524.5869161927324
 30
0.0
 11
1299.321638494999
 21
524.5869161927324
 31
0.0
  0
LINE
  5
6402
330
613E
100
AcDbEntity
  8
寸法
  6
Continuous
 62
     4
370
    -2
100
AcDbLine
 10
1299.321638494999
 20
517.5869161927324
 30
0.0
 11
1299.321638494999
 21
523.5869161927324
 31
0.0
  0
INSERT
  5
6403
330
613E
100
AcDbEntity
  8
寸法
  6
Continuous
 62
     4
370
    -2
100
AcDbBlockReference
  2
_Dot
 10
1299.321638494999
 20
516.5869161927324
 30
0.0
 50
270.0
  0
INSERT
  5
6404
330
613E
100
AcDbEntity
  8
寸法
  6
Continuous
 62
     4
370
    -2
100
AcDbBlockReference
  2
_Dot
 10
1299.321638494999
 20
524.5869161927324
 30
0.0
 50
90.0
  0
MTEXT
  5
6405
330
613E
100
AcDbEntity
  8
寸法
  6
Continuous
 62
     3
100
AcDbMText
 10
1296.821638494999
 20
520.5869161927327
 30
0.0
 40
3.0
 41
0.0
 71
     5
 72
     1
  1
\A1;8
  7
ACAD
 11
0.0000000000000001
 21
1.0
 31
0.0
 73
     1
 44
1.0
1001
ACAD
1000
MTEXTBEGIN
1070
    73
1070
     1
1070
    44
1040
1.0
1070
    74
1070
     0
1000
MTEXTEND
  0
POINT
  5
6406
330
613E
100
AcDbEntity
  8
Defpoints
  6
Continuous
 62
     0
100
AcDbPoint
 10
1327.816166494999
 20
516.5869161927324
 30
0.0
  0
POINT
  5
6407
330
613E
100
AcDbEntity
  8
Defpoints
  6
Continuous
 62
     0
100
AcDbPoint
 10
1312.640224494999
 20
524.5869161927324
 30
0.0
  0
POINT
  5
6408
330
613E
100
AcDbEntity
  8
Defpoints
  6
Continuous
 62
     0
100
AcDbPoint
 10
1299.321638494999
 20
524.5869161927324
 30
0.0
  0
ENDBLK
  5
6149
330
613E
100
AcDbEntity
  8
0
100
AcDbBlockEnd
  0
BLOCK
  5
6156
330
614B
100
AcDbEntity
  8
0
100
AcDbBlockBegin
  2
*D18
 70
     1
 10
0.0
 20
0.0
 30
0.0
  3
*D18
  1

  0
LINE
  5
6518
330
614B
100
AcDbEntity
  8
寸法
  6
Continuous
 62
     4
370
    -2
100
AcDbLine
 10
1312.640224494999
 20
524.5869161927324
 30
0.0
 11
1299.321638494999
 21
524.5869161927324
 31
0.0
  0
LINE
  5
6519
330
614B
100
AcDbEntity
  8
寸法
  6
Continuous
 62
     4
370
    -2
100
AcDbLine
 10
1312.598974494999
 20
529.0869161927324
 30
0.0
 11
1299.321638494999
 21
529.0869161927324
 31
0.0
  0
LINE
  5
651A
330
614B
100
AcDbEntity
  8
寸法
  6
Continuous
 62
     4
370
    -2
100
AcDbLine
 10
1299.321638494999
 20
525.5869161927324
 30
0.0
 11
1299.321638494999
 21
528.0869161927324
 31
0.0
  0
INSERT
  5
651B
330
614B
100
AcDbEntity
  8
寸法
  6
Continuous
 62
     4
370
    -2
100
AcDbBlockReference
  2
_Dot
 10
1299.321638494999
 20
524.5869161927324
 30
0.0
 50
270.0
  0
INSERT
  5
651C
330
614B
100
AcDbEntity
  8
寸法
  6
Continuous
 62
     4
370
    -2
100
AcDbBlockReference
  2
_Dot
 10
1299.321638494999
 20
529.0869161927324
 30
0.0
 50
90.0
  0
MTEXT
  5
651D
330
614B
100
AcDbEntity
  8
寸法
  6
Continuous
 62
     3
100
AcDbMText
 10
1296.821638494999
 20
526.8369161927327
 30
0.0
 40
3.0
 41
0.0
 71
     5
 72
     1
  1
\A1;4.5
  7
ACAD
 11
0.0000000000000001
 21
1.0
 31
0.0
 73
     1
 44
1.0
1001
ACAD
1000
MTEXTBEGIN
1070
    73
1070
     1
1070
    44
1040
1.0
1070
    74
1070
     0
1000
MTEXTEND
  0
POINT
  5
651E
330
614B
100
AcDbEntity
  8
Defpoints
  6
Continuous
 62
     0
100
AcDbPoint
 10
1312.640224494999
 20
524.5869161927324
 30
0.0
  0
POINT
  5
651F
330
614B
100
AcDbEntity
  8
Defpoints
  6
Continuous
 62
     0
100
AcDbPoint
 10
1312.598974494999
 20
529.0869161927324
 30
0.0
  0
POINT
  5
6520
330
614B
100
AcDbEntity
  8
Defpoints
  6
Continuous
 62
     0
100
AcDbPoint
 10
1299.321638494999
 20
529.0869161927324
 30
0.0
  0
ENDBLK
  5
6157
330
614B
100
AcDbEntity
  8
0
100
AcDbBlockEnd
  0
BLOCK
  5
616D
330
6163
100
AcDbEntity
  8
0
100
AcDbBlockBegin
  2
*D19
 70
     1
 10
0.0
 20
0.0
 30
0.0
  3
*D19
  1

  0
LINE
  5
6413
330
6163
100
AcDbEntity
  8
寸法
  6
Continuous
 62
     4
370
    -2
100
AcDbLine
 10
1315.640224494999
 20
521.5869161927324
 30
0.0
 11
1315.640224494999
 21
504.5869161927324
 31
0.0
  0
LINE
  5
6414
330
6163
100
AcDbEntity
  8
寸法
  6
Continuous
 62
     4
370
    -2
100
AcDbLine
 10
1331.640224494999
 20
513.5869161927324
 30
0.0
 11
1331.640224494999
 21
504.5869161927324
 31
0.0
  0
LINE
  5
6415
330
6163
100
AcDbEntity
  8
寸法
  6
Continuous
 62
     4
370
    -2
100
AcDbLine
 10
1316.640224494999
 20
504.5869161927324
 30
0.0
 11
1330.640224494999
 21
504.5869161927324
 31
0.0
  0
INSERT
  5
6416
330
6163
100
AcDbEntity
  8
寸法
  6
Continuous
 62
     4
370
    -2
100
AcDbBlockReference
  2
_Dot
 10
1315.640224494999
 20
504.5869161927324
 30
0.0
 50
180.0
  0
INSERT
  5
6417
330
6163
100
AcDbEntity
  8
寸法
  6
Continuous
 62
     4
370
    -2
100
AcDbBlockReference
  2
_Dot
 10
1331.640224494999
 20
504.5869161927324
 30
0.0
  0
MTEXT
  5
6418
330
6163
100
AcDbEntity
  8
寸法
  6
Continuous
 62
     3
100
AcDbMText
 10
1323.640224494999
 20
507.0869161927324
 30
0.0
 40
3.0
 41
0.0
 71
     5
 72
     1
  1
\A1;16
  7
ACAD
 73
     1
 44
1.0
1001
ACAD
1000
MTEXTBEGIN
1070
    73
1070
     1
1070
    44
1040
1.0
1070
    74
1070
     0
1000
MTEXTEND
  0
POINT
  5
6419
330
6163
100
AcDbEntity
  8
Defpoints
  6
Continuous
 62
     0
100
AcDbPoint
 10
1315.640224494999
 20
521.5869161927324
 30
0.0
  0
POINT
  5
641A
330
6163
100
AcDbEntity
  8
Defpoints
  6
Continuous
 62
     0
100
AcDbPoint
 10
1331.640224494999
 20
513.5869161927324
 30
0.0
  0
POINT
  5
641B
330
6163
100
AcDbEntity
  8
Defpoints
  6
Continuous
 62
     0
100
AcDbPoint
 10
1331.640224494999
 20
504.5869161927324
 30
0.0
  0
ENDBLK
  5
616E
330
6163
100
AcDbEntity
  8
0
100
AcDbBlockEnd
  0
BLOCK
  5
617A
330
6170
100
AcDbEntity
  8
0
100
AcDbBlockBegin
  2
*D20
 70
     1
 10
0.0
 20
0.0
 30
0.0
  3
*D20
  1

  0
LINE
  5
641C
330
6170
100
AcDbEntity
  8
寸法
  6
Continuous
 62
     4
370
    -2
100
AcDbLine
 10
1331.640224494999
 20
513.5869161927324
 30
0.0
 11
1331.640224494999
 21
504.5869161927324
 31
0.0
  0
LINE
  5
641D
330
6170
100
AcDbEntity
  8
寸法
  6
Continuous
 62
     4
370
    -2
100
AcDbLine
 10
1481.640224494999
 20
513.5869161927324
 30
0.0
 11
1481.640224494999
 21
504.5869161927324
 31
0.0
  0
LINE
  5
641E
330
6170
100
AcDbEntity
  8
寸法
  6
Continuous
 62
     4
370
    -2
100
AcDbLine
 10
1332.640224494999
 20
504.5869161927324
 30
0.0
 11
1480.640224494999
 21
504.5869161927324
 31
0.0
  0
INSERT
  5
641F
330
6170
100
AcDbEntity
  8
寸法
  6
Continuous
 62
     4
370
    -2
100
AcDbBlockReference
  2
_Dot
 10
1331.640224494999
 20
504.5869161927324
 30
0.0
 50
180.0
  0
INSERT
  5
6420
330
6170
100
AcDbEntity
  8
寸法
  6
Continuous
 62
     4
370
    -2
100
AcDbBlockReference
  2
_Dot
 10
1481.640224494999
 20
504.5869161927324
 30
0.0
  0
MTEXT
  5
6421
330
6170
100
AcDbEntity
  8
寸法
  6
Continuous
 62
     3
100
AcDbMText
 10
1406.640224494999
 20
507.0869161927324
 30
0.0
 40
3.0
 41
0.0
 71
     5
 72
     1
  1
\A1;150
  7
ACAD
 73
     1
 44
1.0
1001
ACAD
1000
MTEXTBEGIN
1070
    73
1070
     1
1070
    44
1040
1.0
1070
    74
1070
     0
1000
MTEXTEND
  0
POINT
  5
6422
330
6170
100
AcDbEntity
  8
Defpoints
  6
Continuous
 62
     0
100
AcDbPoint
 10
1331.640224494999
 20
513.5869161927324
 30
0.0
  0
POINT
  5
6423
330
6170
100
AcDbEntity
  8
Defpoints
  6
Continuous
 62
     0
100
AcDbPoint
 10
1481.640224494999
 20
513.5869161927324
 30
0.0
  0
POINT
  5
6424
330
6170
100
AcDbEntity
  8
Defpoints
  6
Continuous
 62
     0
100
AcDbPoint
 10
1481.640224494999
 20
504.5869161927324
 30
0.0
  0
ENDBLK
  5
617B
330
6170
100
AcDbEntity
  8
0
100
AcDbBlockEnd
  0
BLOCK
  5
6187
330
617D
100
AcDbEntity
  8
0
100
AcDbBlockBegin
  2
*D21
 70
     1
 10
0.0
 20
0.0
 30
0.0
  3
*D21
  1

  0
LINE
  5
6425
330
617D
100
AcDbEntity
  8
寸法
  6
Continuous
 62
     4
370
    -2
100
AcDbLine
 10
1481.640224494999
 20
513.5869161927324
 30
0.0
 11
1481.640224494999
 21
504.5869161927324
 31
0.0
  0
LINE
  5
6426
330
617D
100
AcDbEntity
  8
寸法
  6
Continuous
 62
     4
370
    -2
100
AcDbLine
 10
1491.640224494999
 20
514.2389741927324
 30
0.0
 11
1491.640224494999
 21
504.5869161927324
 31
0.0
  0
LINE
  5
6427
330
617D
100
AcDbEntity
  8
寸法
  6
Continuous
 62
     4
370
    -2
100
AcDbLine
 10
1482.640224494999
 20
504.5869161927324
 30
0.0
 11
1490.640224494999
 21
504.5869161927324
 31
0.0
  0
INSERT
  5
6428
330
617D
100
AcDbEntity
  8
寸法
  6
Continuous
 62
     4
370
    -2
100
AcDbBlockReference
  2
_Dot
 10
1481.640224494999
 20
504.5869161927324
 30
0.0
 50
180.0
  0
INSERT
  5
6429
330
617D
100
AcDbEntity
  8
寸法
  6
Continuous
 62
     4
370
    -2
100
AcDbBlockReference
  2
_Dot
 10
1491.640224494999
 20
504.5869161927324
 30
0.0
  0
MTEXT
  5
642A
330
617D
100
AcDbEntity
  8
寸法
  6
Continuous
 62
     3
100
AcDbMText
 10
1486.640224494999
 20
507.0869161927324
 30
0.0
 40
3.0
 41
0.0
 71
     5
 72
     1
  1
\A1;10
  7
ACAD
 73
     1
 44
1.0
1001
ACAD
1000
MTEXTBEGIN
1070
    73
1070
     1
1070
    44
1040
1.0
1070
    74
1070
     0
1000
MTEXTEND
  0
POINT
  5
642B
330
617D
100
AcDbEntity
  8
Defpoints
  6
Continuous
 62
     0
100
AcDbPoint
 10
1481.640224494999
 20
513.5869161927324
 30
0.0
  0
POINT
  5
642C
330
617D
100
AcDbEntity
  8
Defpoints
  6
Continuous
 62
     0
100
AcDbPoint
 10
1491.640224494999
 20
514.2389741927324
 30
0.0
  0
POINT
  5
642D
330
617D
100
AcDbEntity
  8
Defpoints
  6
Continuous
 62
     0
100
AcDbPoint
 10
1491.640224494999
 20
504.5869161927324
 30
0.0
  0
ENDBLK
  5
6188
330
617D
100
AcDbEntity
  8
0
100
AcDbBlockEnd
  0
BLOCK
  5
6194
330
618A
100
AcDbEntity
  8
0
100
AcDbBlockBegin
  2
*D22
 70
     1
 10
0.0
 20
0.0
 30
0.0
  3
*D22
  1

  0
LINE
  5
64D2
330
618A
100
AcDbEntity
  8
寸法
  6
Continuous
 62
     4
370
    -2
100
AcDbLine
 10
1471.754621494999
 20
524.5869161927324
 30
0.0
 11
1462.925911436947
 21
524.5869161927324
 31
0.0
  0
LINE
  5
64D3
330
618A
100
AcDbEntity
  8
寸法
  6
Continuous
 62
     4
370
    -2
100
AcDbLine
 10
1471.956692494999
 20
529.5869161927324
 30
0.0
 11
1462.925911436947
 21
529.5869161927324
 31
0.0
  0
LINE
  5
64D4
330
618A
100
AcDbEntity
  8
寸法
  6
Continuous
 62
     4
370
    -2
100
AcDbLine
 10
1462.925911436947
 20
525.5869161927324
 30
0.0
 11
1462.925911436947
 21
528.5869161927324
 31
0.0
  0
INSERT
  5
64D5
330
618A
100
AcDbEntity
  8
寸法
  6
Continuous
 62
     4
370
    -2
100
AcDbBlockReference
  2
_Dot
 10
1462.925911436947
 20
524.5869161927324
 30
0.0
 50
270.0
  0
INSERT
  5
64D6
330
618A
100
AcDbEntity
  8
寸法
  6
Continuous
 62
     4
370
    -2
100
AcDbBlockReference
  2
_Dot
 10
1462.925911436947
 20
529.5869161927324
 30
0.0
 50
90.0
  0
MTEXT
  5
64D7
330
618A
100
AcDbEntity
  8
寸法
  6
Continuous
 62
     3
100
AcDbMText
 10
1459.640197151232
 20
527.0869161927326
 30
0.0
 40
3.0
 41
0.0
 71
     5
 72
     1
  1
\A1;(5)
  7
ACAD
 11
0.0000000000000001
 21
1.0
 31
0.0
 73
     1
 44
1.0
1001
ACAD
1000
MTEXTBEGIN
1070
    73
1070
     1
1070
    44
1040
1.0
1070
    74
1070
     0
1000
MTEXTEND
  0
POINT
  5
64D8
330
618A
100
AcDbEntity
  8
Defpoints
  6
Continuous
 62
     0
100
AcDbPoint
 10
1471.754621494999
 20
524.5869161927324
 30
0.0
  0
POINT
  5
64D9
330
618A
100
AcDbEntity
  8
Defpoints
  6
Continuous
 62
     0
100
AcDbPoint
 10
1471.956692494999
 20
529.5869161927324
 30
0.0
  0
POINT
  5
64DA
330
618A
100
AcDbEntity
  8
Defpoints
  6
Continuous
 62
     0
100
AcDbPoint
 10
1462.925911436947
 20
529.5869161927324
 30
0.0
  0
ENDBLK
  5
6195
330
618A
100
AcDbEntity
  8
0
100
AcDbBlockEnd
  0
BLOCK
  5
61AC
330
61A1
100
AcDbEntity
  8
0
100
AcDbBlockBegin
  2
*D23
 70
     1
 10
0.0
 20
0.0
 30
0.0
  3
*D23
  1

  0
LINE
  5
6438
330
61A1
100
AcDbEntity
  8
寸法
  6
Continuous
 62
     4
370
    -2
100
AcDbLine
 10
1473.640224494999
 20
531.8764801927325
 30
0.0
 11
1473.640224494999
 21
537.4119251927324
 31
0.0
  0
LINE
  5
6439
330
61A1
100
AcDbEntity
  8
寸法
  6
Continuous
 62
     4
370
    -2
100
AcDbLine
 10
1475.640224494999
 20
533.0046571927324
 30
0.0
 11
1475.640224494999
 21
537.4119251927324
 31
0.0
  0
LINE
  5
643A
330
61A1
100
AcDbEntity
  8
寸法
  6
Continuous
 62
     4
370
    -2
100
AcDbLine
 10
1472.640224494999
 20
537.4119251927324
 30
0.0
 11
1471.640224494999
 21
537.4119251927324
 31
0.0
  0
LINE
  5
643B
330
61A1
100
AcDbEntity
  8
寸法
  6
Continuous
 62
     4
370
    -2
100
AcDbLine
 10
1476.640224494999
 20
537.4119251927324
 30
0.0
 11
1477.640224494999
 21
537.4119251927324
 31
0.0
  0
INSERT
  5
643C
330
61A1
100
AcDbEntity
  8
寸法
  6
Continuous
 62
     4
370
    -2
100
AcDbBlockReference
  2
_Dot
 10
1473.640224494999
 20
537.4119251927324
 30
0.0
  0
INSERT
  5
643D
330
61A1
100
AcDbEntity
  8
寸法
  6
Continuous
 62
     4
370
    -2
100
AcDbBlockReference
  2
_Dot
 10
1475.640224494999
 20
537.4119251927324
 30
0.0
 50
180.0
  0
MTEXT
  5
643E
330
61A1
100
AcDbEntity
  8
寸法
  6
Continuous
 62
     3
100
AcDbMText
 10
1474.640224494999
 20
540.6976394784468
 30
0.0
 40
3.0
 41
0.0
 71
     5
 72
     1
  1
\A1;(2)
  7
ACAD
 73
     1
 44
1.0
1001
ACAD
1000
MTEXTBEGIN
1070
    73
1070
     1
1070
    44
1040
1.0
1070
    74
1070
     0
1000
MTEXTEND
  0
POINT
  5
643F
330
61A1
100
AcDbEntity
  8
Defpoints
  6
Continuous
 62
     0
100
AcDbPoint
 10
1473.640224494999
 20
531.8764801927325
 30
0.0
  0
POINT
  5
6440
330
61A1
100
AcDbEntity
  8
Defpoints
  6
Continuous
 62
     0
100
AcDbPoint
 10
1475.640224494999
 20
533.0046571927324
 30
0.0
  0
POINT
  5
6441
330
61A1
100
AcDbEntity
  8
Defpoints
  6
Continuous
 62
     0
100
AcDbPoint
 10
1475.640224494999
 20
537.4119251927324
 30
0.0
  0
ENDBLK
  5
61AD
330
61A1
100
AcDbEntity
  8
0
100
AcDbBlockEnd
  0
BLOCK
  5
61C3
330
61B9
100
AcDbEntity
  8
0
100
AcDbBlockBegin
  2
*D24
 70
     1
 10
0.0
 20
0.0
 30
0.0
  3
*D24
  1

  0
LINE
  5
6442
330
61B9
100
AcDbEntity
  8
寸法
  6
Continuous
 62
     4
370
    -2
100
AcDbLine
 10
1473.640224494999
 20
531.8764801927325
 30
0.0
 11
1473.640224494999
 21
543.5069371927324
 31
0.0
  0
LINE
  5
6443
330
61B9
100
AcDbEntity
  8
寸法
  6
Continuous
 62
     4
370
    -2
100
AcDbLine
 10
1481.640224494999
 20
529.1351751927325
 30
0.0
 11
1481.640224494999
 21
543.5069371927324
 31
0.0
  0
LINE
  5
6444
330
61B9
100
AcDbEntity
  8
寸法
  6
Continuous
 62
     4
370
    -2
100
AcDbLine
 10
1474.640224494999
 20
543.5069371927324
 30
0.0
 11
1480.640224494999
 21
543.5069371927324
 31
0.0
  0
INSERT
  5
6445
330
61B9
100
AcDbEntity
  8
寸法
  6
Continuous
 62
     4
370
    -2
100
AcDbBlockReference
  2
_Dot
 10
1473.640224494999
 20
543.5069371927324
 30
0.0
 50
180.0
  0
INSERT
  5
6446
330
61B9
100
AcDbEntity
  8
寸法
  6
Continuous
 62
     4
370
    -2
100
AcDbBlockReference
  2
_Dot
 10
1481.640224494999
 20
543.5069371927324
 30
0.0
  0
MTEXT
  5
6447
330
61B9
100
AcDbEntity
  8
寸法
  6
Continuous
 62
     3
100
AcDbMText
 10
1477.640224494999
 20
546.0069371927325
 30
0.0
 40
3.0
 41
0.0
 71
     5
 72
     1
  1
\A1;8
  7
ACAD
 73
     1
 44
1.0
1001
ACAD
1000
MTEXTBEGIN
1070
    73
1070
     1
1070
    44
1040
1.0
1070
    74
1070
     0
1000
MTEXTEND
  0
POINT
  5
6448
330
61B9
100
AcDbEntity
  8
Defpoints
  6
Continuous
 62
     0
100
AcDbPoint
 10
1473.640224494999
 20
531.8764801927325
 30
0.0
  0
POINT
  5
6449
330
61B9
100
AcDbEntity
  8
Defpoints
  6
Continuous
 62
     0
100
AcDbPoint
 10
1481.640224494999
 20
529.1351751927325
 30
0.0
  0
POINT
  5
644A
330
61B9
100
AcDbEntity
  8
Defpoints
  6
Continuous
 62
     0
100
AcDbPoint
 10
1481.640224494999
 20
543.5069371927324
 30
0.0
  0
ENDBLK
  5
61C4
330
61B9
100
AcDbEntity
  8
0
100
AcDbBlockEnd
  0
BLOCK
  5
61D0
330
61C6
100
AcDbEntity
  8
0
100
AcDbBlockBegin
  2
*D25
 70
     1
 10
0.0
 20
0.0
 30
0.0
  3
*D25
  1

  0
LINE
  5
644B
330
61C6
100
AcDbEntity
  8
寸法
  6
Continuous
 62
     4
370
    -2
100
AcDbLine
 10
1481.640224494999
 20
529.1351751927325
 30
0.0
 11
1481.640224494999
 21
543.5069371927324
 31
0.0
  0
LINE
  5
644C
330
61C6
100
AcDbEntity
  8
寸法
  6
Continuous
 62
     4
370
    -2
100
AcDbLine
 10
1492.640224494999
 20
531.8242241927324
 30
0.0
 11
1492.640224494999
 21
543.5069371927324
 31
0.0
  0
LINE
  5
644D
330
61C6
100
AcDbEntity
  8
寸法
  6
Continuous
 62
     4
370
    -2
100
AcDbLine
 10
1482.640224494999
 20
543.5069371927324
 30
0.0
 11
1491.640224494999
 21
543.5069371927324
 31
0.0
  0
INSERT
  5
644E
330
61C6
100
AcDbEntity
  8
寸法
  6
Continuous
 62
     4
370
    -2
100
AcDbBlockReference
  2
_Dot
 10
1481.640224494999
 20
543.5069371927324
 30
0.0
 50
180.0
  0
INSERT
  5
644F
330
61C6
100
AcDbEntity
  8
寸法
  6
Continuous
 62
     4
370
    -2
100
AcDbBlockReference
  2
_Dot
 10
1492.640224494999
 20
543.5069371927324
 30
0.0
  0
MTEXT
  5
6450
330
61C6
100
AcDbEntity
  8
寸法
  6
Continuous
 62
     3
100
AcDbMText
 10
1487.140224494999
 20
546.0069371927325
 30
0.0
 40
3.0
 41
0.0
 71
     5
 72
     1
  1
\A1;11
  7
ACAD
 73
     1
 44
1.0
1001
ACAD
1000
MTEXTBEGIN
1070
    73
1070
     1
1070
    44
1040
1.0
1070
    74
1070
     0
1000
MTEXTEND
  0
POINT
  5
6451
330
61C6
100
AcDbEntity
  8
Defpoints
  6
Continuous
 62
     0
100
AcDbPoint
 10
1481.640224494999
 20
529.1351751927325
 30
0.0
  0
POINT
  5
6452
330
61C6
100
AcDbEntity
  8
Defpoints
  6
Continuous
 62
     0
100
AcDbPoint
 10
1492.640224494999
 20
531.8242241927324
 30
0.0
  0
POINT
  5
6453
330
61C6
100
AcDbEntity
  8
Defpoints
  6
Continuous
 62
     0
100
AcDbPoint
 10
1492.640224494999
 20
543.5069371927324
 30
0.0
  0
ENDBLK
  5
61D1
330
61C6
100
AcDbEntity
  8
0
100
AcDbBlockEnd
  0
BLOCK
  5
61DB
330
61D3
100
AcDbEntity
  8
0
100
AcDbBlockBegin
  2
*D26
 70
     1
 10
0.0
 20
0.0
 30
0.0
  3
*D26
  1

  0
LINE
  5
64A6
330
61D3
100
AcDbEntity
  8
寸法
  6
Continuous
 62
     4
370
    -2
100
AcDbLine
 10
1487.940224494999
 20
537.4119251927324
 30
0.0
 11
1491.640224494999
 21
537.4119251927324
 31
0.0
  0
INSERT
  5
64A7
330
61D3
100
AcDbEntity
  8
寸法
  6
Continuous
 62
     4
370
    -2
100
AcDbBlockReference
  2
_Dot
 10
1486.940224494999
 20
537.4119251927324
 30
0.0
 50
180.0
  0
INSERT
  5
64A8
330
61D3
100
AcDbEntity
  8
寸法
  6
Continuous
 62
     4
370
    -2
100
AcDbBlockReference
  2
_Dot
 10
1492.640224494999
 20
537.4119251927324
 30
0.0
  0
MTEXT
  5
64A9
330
61D3
100
AcDbEntity
  8
寸法
  6
Continuous
 62
     3
100
AcDbMText
 10
1489.790224494999
 20
539.9119251927325
 30
0.0
 40
3.0
 41
0.0
 71
     5
 72
     1
  1
\A1;5.7
  7
ACAD
 73
     1
 44
1.0
1001
ACAD
1000
MTEXTBEGIN
1070
    73
1070
     1
1070
    44
1040
1.0
1070
    74
1070
     0
1000
MTEXTEND
  0
POINT
  5
64AA
330
61D3
100
AcDbEntity
  8
Defpoints
  6
Continuous
 62
     0
100
AcDbPoint
 10
1486.940224494999
 20
537.4119251927324
 30
0.0
  0
POINT
  5
64AB
330
61D3
100
AcDbEntity
  8
Defpoints
  6
Continuous
 62
     0
100
AcDbPoint
 10
1492.640224494999
 20
537.4119251927324
 30
0.0
  0
POINT
  5
64AC
330
61D3
100
AcDbEntity
  8
Defpoints
  6
Continuous
 62
     0
100
AcDbPoint
 10
1492.640224494999
 20
537.4119251927324
 30
0.0
  0
ENDBLK
  5
61DC
330
61D3
100
AcDbEntity
  8
0
100
AcDbBlockEnd
  0
BLOCK
  5
6204
330
61FA
100
AcDbEntity
  8
0
100
AcDbBlockBegin
  2
*D27
 70
     1
 10
0.0
 20
0.0
 30
0.0
  3
*D27
  1

  0
LINE
  5
645C
330
61FA
100
AcDbEntity
  8
寸法
  6
Continuous
 62
     4
370
    -2
100
AcDbLine
 10
1473.640224494999
 20
543.2569371927325
 30
0.0
 11
1473.640224494999
 21
549.7726021927324
 31
0.0
  0
LINE
  5
645D
330
61FA
100
AcDbEntity
  8
寸法
  6
Continuous
 62
     4
370
    -2
100
AcDbLine
 10
1492.890224494999
 20
543.5069371927324
 30
0.0
 11
1492.890224494999
 21
549.7726021927324
 31
0.0
  0
LINE
  5
645E
330
61FA
100
AcDbEntity
  8
寸法
  6
Continuous
 62
     4
370
    -2
100
AcDbLine
 10
1474.640224494999
 20
549.7726021927324
 30
0.0
 11
1491.890224494999
 21
549.7726021927324
 31
0.0
  0
INSERT
  5
645F
330
61FA
100
AcDbEntity
  8
寸法
  6
Continuous
 62
     4
370
    -2
100
AcDbBlockReference
  2
_Dot
 10
1473.640224494999
 20
549.7726021927324
 30
0.0
 50
180.0
  0
INSERT
  5
6460
330
61FA
100
AcDbEntity
  8
寸法
  6
Continuous
 62
     4
370
    -2
100
AcDbBlockReference
  2
_Dot
 10
1492.890224494999
 20
549.7726021927324
 30
0.0
  0
MTEXT
  5
6461
330
61FA
100
AcDbEntity
  8
寸法
  6
Continuous
 62
     3
100
AcDbMText
 10
1483.265224494999
 20
552.2726021927325
 30
0.0
 40
3.0
 41
0.0
 71
     5
 72
     1
  1
\A1;19
  7
ACAD
 73
     1
 44
1.0
1001
ACAD
1000
MTEXTBEGIN
1070
    73
1070
     1
1070
    44
1040
1.0
1070
    74
1070
     0
1000
MTEXTEND
  0
POINT
  5
6462
330
61FA
100
AcDbEntity
  8
Defpoints
  6
Continuous
 62
     0
100
AcDbPoint
 10
1473.640224494999
 20
543.2569371927325
 30
0.0
  0
POINT
  5
6463
330
61FA
100
AcDbEntity
  8
Defpoints
  6
Continuous
 62
     0
100
AcDbPoint
 10
1492.890224494999
 20
543.5069371927324
 30
0.0
  0
POINT
  5
6464
330
61FA
100
AcDbEntity
  8
Defpoints
  6
Continuous
 62
     0
100
AcDbPoint
 10
1492.890224494999
 20
549.7726021927324
 30
0.0
  0
ENDBLK
  5
6205
330
61FA
100
AcDbEntity
  8
0
100
AcDbBlockEnd
  0
BLOCK
  5
6212
330
6207
100
AcDbEntity
  8
0
100
AcDbBlockBegin
  2
*D28
 70
     1
 10
0.0
 20
0.0
 30
0.0
  3
*D28
  1

  0
LINE
  5
6465
330
6207
100
AcDbEntity
  8
寸法
  6
Continuous
 62
     4
370
    -2
100
AcDbLine
 10
1493.472660494999
 20
530.7869161927324
 30
0.0
 11
1508.052355494999
 21
530.7869161927324
 31
0.0
  0
LINE
  5
6466
330
6207
100
AcDbEntity
  8
寸法
  6
Continuous
 62
     4
370
    -2
100
AcDbLine
 10
1493.405614494999
 20
527.7869161927323
 30
0.0
 11
1508.052355494999
 21
527.7869161927323
 31
0.0
  0
LINE
  5
6467
330
6207
100
AcDbEntity
  8
寸法
  6
Continuous
 62
     4
370
    -2
100
AcDbLine
 10
1508.052355494999
 20
531.7869161927323
 30
0.0
 11
1508.052355494999
 21
532.7869161927323
 31
0.0
  0
LINE
  5
6468
330
6207
100
AcDbEntity
  8
寸法
  6
Continuous
 62
     4
370
    -2
100
AcDbLine
 10
1508.052355494999
 20
526.7869161927324
 30
0.0
 11
1508.052355494999
 21
525.7869161927324
 31
0.0
  0
INSERT
  5
6469
330
6207
100
AcDbEntity
  8
寸法
  6
Continuous
 62
     4
370
    -2
100
AcDbBlockReference
  2
_Dot
 10
1508.052355494999
 20
530.7869161927324
 30
0.0
 50
270.0
  0
INSERT
  5
646A
330
6207
100
AcDbEntity
  8
寸法
  6
Continuous
 62
     4
370
    -2
100
AcDbBlockReference
  2
_Dot
 10
1508.052355494999
 20
527.7869161927323
 30
0.0
 50
90.0
  0
MTEXT
  5
646B
330
6207
100
AcDbEntity
  8
寸法
  6
Continuous
 62
     3
100
AcDbMText
 10
1505.552355494999
 20
529.2869161927326
 30
0.0
 40
3.0
 41
0.0
 71
     5
 72
     1
  1
\A1;3
  7
ACAD
 11
0.0000000000000001
 21
1.0
 31
0.0
 73
     1
 44
1.0
1001
ACAD
1000
MTEXTBEGIN
1070
    73
1070
     1
1070
    44
1040
1.0
1070
    74
1070
     0
1000
MTEXTEND
  0
POINT
  5
646C
330
6207
100
AcDbEntity
  8
Defpoints
  6
Continuous
 62
     0
100
AcDbPoint
 10
1493.472660494999
 20
530.7869161927324
 30
0.0
  0
POINT
  5
646D
330
6207
100
AcDbEntity
  8
Defpoints
  6
Continuous
 62
     0
100
AcDbPoint
 10
1493.405614494999
 20
527.7869161927323
 30
0.0
  0
POINT
  5
646E
330
6207
100
AcDbEntity
  8
Defpoints
  6
Continuous
 62
     0
100
AcDbPoint
 10
1508.052355494999
 20
527.7869161927323
 30
0.0
  0
ENDBLK
  5
6213
330
6207
100
AcDbEntity
  8
0
100
AcDbBlockEnd
  0
BLOCK
  5
621F
330
6215
100
AcDbEntity
  8
0
100
AcDbBlockBegin
  2
*D29
 70
     1
 10
0.0
 20
0.0
 30
0.0
  3
*D29
  1

  0
LINE
  5
646F
330
6215
100
AcDbEntity
  8
寸法
  6
Continuous
 62
     4
370
    -2
100
AcDbLine
 10
1493.472660494999
 20
530.7869161927324
 30
0.0
 11
1515.712746494999
 21
530.7869161927324
 31
0.0
  0
LINE
  5
6470
330
6215
100
AcDbEntity
  8
寸法
  6
Continuous
 62
     4
370
    -2
100
AcDbLine
 10
1512.117198494999
 20
516.5869161927324
 30
0.0
 11
1515.712746494999
 21
516.5869161927324
 31
0.0
  0
LINE
  5
6471
330
6215
100
AcDbEntity
  8
寸法
  6
Continuous
 62
     4
370
    -2
100
AcDbLine
 10
1515.712746494999
 20
529.7869161927324
 30
0.0
 11
1515.712746494999
 21
517.5869161927324
 31
0.0
  0
INSERT
  5
6472
330
6215
100
AcDbEntity
  8
寸法
  6
Continuous
 62
     4
370
    -2
100
AcDbBlockReference
  2
_Dot
 10
1515.712746494999
 20
530.7869161927324
 30
0.0
 50
90.0
  0
INSERT
  5
6473
330
6215
100
AcDbEntity
  8
寸法
  6
Continuous
 62
     4
370
    -2
100
AcDbBlockReference
  2
_Dot
 10
1515.712746494999
 20
516.5869161927324
 30
0.0
 50
270.0
  0
MTEXT
  5
6474
330
6215
100
AcDbEntity
  8
寸法
  6
Continuous
 62
     3
100
AcDbMText
 10
1513.212746494999
 20
523.6869161927326
 30
0.0
 40
3.0
 41
0.0
 71
     5
 72
     1
  1
\A1;14
  7
ACAD
 11
0.0000000000000001
 21
1.0
 31
0.0
 73
     1
 44
1.0
1001
ACAD
1000
MTEXTBEGIN
1070
    73
1070
     1
1070
    44
1040
1.0
1070
    74
1070
     0
1000
MTEXTEND
  0
POINT
  5
6475
330
6215
100
AcDbEntity
  8
Defpoints
  6
Continuous
 62
     0
100
AcDbPoint
 10
1493.472660494999
 20
530.7869161927324
 30
0.0
  0
POINT
  5
6476
330
6215
100
AcDbEntity
  8
Defpoints
  6
Continuous
 62
     0
100
AcDbPoint
 10
1512.117198494999
 20
516.5869161927324
 30
0.0
  0
POINT
  5
6477
330
6215
100
AcDbEntity
  8
Defpoints
  6
Continuous
 62
     0
100
AcDbPoint
 10
1515.712746494999
 20
516.5869161927324
 30
0.0
  0
ENDBLK
  5
6220
330
6215
100
AcDbEntity
  8
0
100
AcDbBlockEnd
  0
ENDSEC
  0
SECTION
  2
ENTITIES
  0
LINE
  5
5E5D
330
1E
100
AcDbEntity
  8
躯体と製品
  6
Continuous
 62
     4
100
AcDbLine
 10
1393.140224494999
 20
516.5869161927324
 30
0.0
 11
1394.140224494999
 21
516.5869161927324
 31
0.0
  0
LINE
  5
5E5F
330
1E
100
AcDbEntity
  8
躯体と製品
  6
Continuous
 62
     4
100
AcDbLine
 10
1332.840224494999
 20
517.7869101927324
 30
0.0
 11
1480.440224494999
 21
517.7869101927324
 31
0.0
  0
LINE
  5
5E60
330
1E
100
AcDbEntity
  8
図枠
  6
Continuous
 62
     4
100
AcDbLine
 10
1534.437075494999
 20
583.3869161927323
 30
0.0
 11
1282.328967494999
 21
583.3869161927323
 31
0.0
  0
ARC
  5
5E61
330
1E
100
AcDbEntity
  8
躯体と製品
  6
Continuous
 62
     4
100
AcDbCircle
 10
1393.640224494999
 20
642.0224001927324
 30
0.0
 40
0.5
100
AcDbArc
 50
0.0
 51
180.0
  0
LINE
  5
5E63
330
1E
100
AcDbEntity
  8
躯体と製品
  6
Continuous
 62
     4
100
AcDbLine
 10
1357.640224494999
 20
643.0224001927324
 30
0.0
 11
1455.640224494999
 21
643.0224001927324
 31
0.0
  0
LINE
  5
5E64
330
1E
100
AcDbEntity
  8
図枠
  6
Continuous
 62
     7
100
AcDbLine
 10
1282.328967494999
 20
708.8224001927324
 30
0.0
 11
1534.437075494999
 21
708.8224001927324
 31
0.0
  0
LINE
  5
5E65
330
1E
100
AcDbEntity
  8
図枠
  6
Continuous
 62
     7
100
AcDbLine
 10
1282.328967494999
 20
457.9514321927324
 30
0.0
 11
1534.437075494999
 21
457.9514321927324
 31
0.0
  0
LINE
  5
5E66
330
1E
100
AcDbEntity
  8
図枠
  6
Continuous
 62
     7
100
AcDbLine
 10
1282.328967494999
 20
457.9514321927324
 30
0.0
 11
1282.328967494999
 21
708.8224001927324
 31
0.0
  0
TEXT
  5
5E67
330
1E
100
AcDbEntity
  8
図枠
  6
Continuous
 62
     3
100
AcDbText
 10
1323.963969241044
 20
573.973877872548
 30
0.0
 40
3.0
  1
（ｍｍ）
 41
0.8
  7
ACAD
100
AcDbText
  0
LINE
  5
5E68
330
1E
100
AcDbEntity
  8
図枠
  6
Continuous
 62
     3
100
AcDbLine
 10
1337.328967494999
 20
573.3869161927324
 30
0.0
 11
1322.328967494999
 21
573.3869161927324
 31
0.0
  0
LINE
  5
5E69
330
1E
100
AcDbEntity
  8
図枠
  6
Continuous
 62
     3
100
AcDbLine
 10
1337.328967494999
 20
568.3869161927324
 30
0.0
 11
1282.328967494999
 21
568.3869161927324
 31
0.0
  0
ARC
  5
5E6A
330
1E
100
AcDbEntity
  8
躯体と製品
  6
Continuous
 62
     4
100
AcDbCircle
 10
1332.640224494999
 20
516.5869161927324
 30
0.0
 40
0.5
100
AcDbArc
 50
0.0
 51
180.0
  0
LINE
  5
5E6B
330
1E
100
AcDbEntity
  8
躯体と製品
  6
Continuous
 62
     4
100
AcDbLine
 10
1316.840224494999
 20
525.7869161927324
 30
0.0
 11
1332.840224494999
 21
525.7869161927324
 31
0.0
  0
TEXT
  5
5E6C
330
1E
100
AcDbEntity
  8
図枠
  6
Continuous
 62
     3
100
AcDbText
 10
1326.308109683148
 20
569.2880672784821
 30
0.0
 40
3.0
  1
1.2
 41
0.8
  7
ACAD
100
AcDbText
  0
LINE
  5
5E78
330
1E
100
AcDbEntity
  8
躯体と製品
  6
Continuous
 62
     4
100
AcDbLine
 10
1331.640224494999
 20
516.5869161927324
 30
0.0
 11
1331.640224494999
 21
524.5869161927324
 31
0.0
  0
LINE
  5
5E80
330
1E
100
AcDbEntity
  8
躯体と製品
  6
Continuous
 62
     4
100
AcDbLine
 10
1331.640224494999
 20
516.5869161927324
 30
0.0
 11
1332.140224494999
 21
516.5869131927324
 31
0.0
  0
LINE
  5
5E81
330
1E
100
AcDbEntity
  8
躯体と製品
  6
Continuous
 62
     4
100
AcDbLine
 10
1315.640224494999
 20
524.5869161927324
 30
0.0
 11
1331.640224494999
 21
524.5869161927324
 31
0.0
  0
LINE
  5
5E82
330
1E
100
AcDbEntity
  8
躯体と製品
  6
Continuous
 62
     4
100
AcDbLine
 10
1315.640224494999
 20
528.4869161927324
 30
0.0
 11
1315.640224494999
 21
524.5869161927324
 31
0.0
  0
LINE
  5
5E83
330
1E
100
AcDbEntity
  8
躯体と製品
  6
Continuous
 62
     4
100
AcDbLine
 10
1316.840224494999
 20
528.4869161927324
 30
0.0
 11
1316.840224494999
 21
525.7869161927324
 31
0.0
  0
ARC
  5
5E84
330
1E
100
AcDbEntity
  8
躯体と製品
  6
Continuous
 62
     4
100
AcDbCircle
 10
1316.240224494999
 20
528.4869161927324
 30
0.0
 40
0.6
100
AcDbArc
 50
0.0
 51
180.0
  0
TEXT
  5
5E85
330
1E
100
AcDbEntity
  8
図枠
  6
Continuous
 62
     4
100
AcDbText
 10
1284.305344494999
 20
573.2694511927324
 30
0.0
 40
5.0
  1
ＳＤ－１５０Ａ
 41
0.8
  7
ACAD
100
AcDbText
  0
LINE
  5
5E86
330
1E
100
AcDbEntity
  8
図枠
  6
Continuous
 62
     3
100
AcDbLine
 10
1322.328967494999
 20
568.3869161927324
 30
0.0
 11
1322.328967494999
 21
583.3869161927323
 31
0.0
  0
TEXT
  5
5E87
330
1E
100
AcDbEntity
  8
図枠
  6
Continuous
 62
     3
100
AcDbText
 10
1326.725381339487
 20
578.1373223472403
 30
0.0
 40
3.0
  1
板厚
 41
0.8
  7
ACAD
100
AcDbText
  0
ARC
  5
5E88
330
1E
100
AcDbEntity
  8
躯体と製品
  6
Continuous
 62
     4
100
AcDbCircle
 10
1362.640224494999
 20
516.5869161927324
 30
0.0
 40
0.5
100
AcDbArc
 50
0.0
 51
180.0
  0
LINE
  5
5E89
330
1E
100
AcDbEntity
  8
躯体と製品
  6
Continuous
 62
     4
100
AcDbLine
 10
1332.840224494999
 20
525.7869161927324
 30
0.0
 11
1332.840224494999
 21
517.7869101927324
 31
0.0
  0
LINE
  5
5E8A
330
1E
100
AcDbEntity
  8
躯体と製品
  6
Continuous
 62
     4
100
AcDbLine
 10
1347.140224494999
 20
516.5869161927324
 30
0.0
 11
1348.140224494999
 21
516.5869161927324
 31
0.0
  0
ARC
  5
5E8B
330
1E
100
AcDbEntity
  8
躯体と製品
  6
Continuous
 62
     4
100
AcDbCircle
 10
1340.640224494999
 20
516.5869161927324
 30
0.0
 40
0.5
100
AcDbArc
 50
0.0
 51
180.0
  0
ARC
  5
5E8C
330
1E
100
AcDbEntity
  8
躯体と製品
  6
Continuous
 62
     4
100
AcDbCircle
 10
1336.640224494999
 20
516.5869161927324
 30
0.0
 40
0.5
100
AcDbArc
 50
0.0
 51
180.0
  0
LINE
  5
5E8D
330
1E
100
AcDbEntity
  8
躯体と製品
  6
Continuous
 62
     4
100
AcDbLine
 10
1335.140224494999
 20
516.5869051927325
 30
0.0
 11
1336.140224494999
 21
516.5869171927324
 31
0.0
  0
LINE
  5
5E8E
330
1E
100
AcDbEntity
  8
躯体と製品
  6
Continuous
 62
     4
100
AcDbLine
 10
1333.140224494999
 20
516.5869091927325
 30
0.0
 11
1334.140224494999
 21
516.5869051927325
 31
0.0
  0
ARC
  5
5E8F
330
1E
100
AcDbEntity
  8
躯体と製品
  6
Continuous
 62
     4
100
AcDbCircle
 10
1334.640224494999
 20
516.5869161927324
 30
0.0
 40
0.5
100
AcDbArc
 50
0.0
 51
180.0
  0
ARC
  5
5E90
330
1E
100
AcDbEntity
  8
躯体と製品
  6
Continuous
 62
     4
100
AcDbCircle
 10
1338.640224494999
 20
516.5869161927324
 30
0.0
 40
0.5
100
AcDbArc
 50
0.0
 51
180.0
  0
LINE
  5
5E91
330
1E
100
AcDbEntity
  8
躯体と製品
  6
Continuous
 62
     4
100
AcDbLine
 10
1339.140224494999
 20
516.5869161927324
 30
0.0
 11
1340.140224494999
 21
516.5869161927324
 31
0.0
  0
LINE
  5
5E92
330
1E
100
AcDbEntity
  8
躯体と製品
  6
Continuous
 62
     4
100
AcDbLine
 10
1337.140224494999
 20
516.5869171927324
 30
0.0
 11
1338.140224494999
 21
516.5869161927324
 31
0.0
  0
LINE
  5
5E93
330
1E
100
AcDbEntity
  8
躯体と製品
  6
Continuous
 62
     4
100
AcDbLine
 10
1343.140224494999
 20
516.5869161927324
 30
0.0
 11
1344.140224494999
 21
516.5869161927324
 31
0.0
  0
ARC
  5
5E94
330
1E
100
AcDbEntity
  8
躯体と製品
  6
Continuous
 62
     4
100
AcDbCircle
 10
1342.640224494999
 20
516.5869161927324
 30
0.0
 40
0.5
100
AcDbArc
 50
0.0
 51
180.0
  0
LINE
  5
5E95
330
1E
100
AcDbEntity
  8
躯体と製品
  6
Continuous
 62
     4
100
AcDbLine
 10
1341.140224494999
 20
516.5869161927324
 30
0.0
 11
1342.140224494999
 21
516.5869161927324
 31
0.0
  0
ARC
  5
5E96
330
1E
100
AcDbEntity
  8
躯体と製品
  6
Continuous
 62
     4
100
AcDbCircle
 10
1344.640224494999
 20
516.5869161927324
 30
0.0
 40
0.5
100
AcDbArc
 50
0.0
 51
180.0
  0
ARC
  5
5E97
330
1E
100
AcDbEntity
  8
躯体と製品
  6
Continuous
 62
     4
100
AcDbCircle
 10
1346.640224494999
 20
516.5869161927324
 30
0.0
 40
0.5
100
AcDbArc
 50
0.0
 51
180.0
  0
LINE
  5
5E98
330
1E
100
AcDbEntity
  8
躯体と製品
  6
Continuous
 62
     4
100
AcDbLine
 10
1345.140224494999
 20
516.5869161927324
 30
0.0
 11
1346.140224494999
 21
516.5869161927324
 31
0.0
  0
LINE
  5
5E99
330
1E
100
AcDbEntity
  8
躯体と製品
  6
Continuous
 62
     4
100
AcDbLine
 10
1355.140224494999
 20
516.5869161927324
 30
0.0
 11
1356.140224494999
 21
516.5869161927324
 31
0.0
  0
LINE
  5
5E9A
330
1E
100
AcDbEntity
  8
躯体と製品
  6
Continuous
 62
     4
100
AcDbLine
 10
1351.140224494999
 20
516.5869161927324
 30
0.0
 11
1352.140224494999
 21
516.5869161927324
 31
0.0
  0
ARC
  5
5E9B
330
1E
100
AcDbEntity
  8
躯体と製品
  6
Continuous
 62
     4
100
AcDbCircle
 10
1350.640224494999
 20
516.5869161927324
 30
0.0
 40
0.5
100
AcDbArc
 50
0.0
 51
180.0
  0
ARC
  5
5E9C
330
1E
100
AcDbEntity
  8
躯体と製品
  6
Continuous
 62
     4
100
AcDbCircle
 10
1348.640224494999
 20
516.5869161927324
 30
0.0
 40
0.5
100
AcDbArc
 50
0.0
 51
180.0
  0
LINE
  5
5E9D
330
1E
100
AcDbEntity
  8
躯体と製品
  6
Continuous
 62
     4
100
AcDbLine
 10
1349.140224494999
 20
516.5869161927324
 30
0.0
 11
1350.140224494999
 21
516.5869161927324
 31
0.0
  0
ARC
  5
5E9E
330
1E
100
AcDbEntity
  8
躯体と製品
  6
Continuous
 62
     4
100
AcDbCircle
 10
1352.640224494999
 20
516.5869161927324
 30
0.0
 40
0.5
100
AcDbArc
 50
0.0
 51
180.0
  0
ARC
  5
5E9F
330
1E
100
AcDbEntity
  8
躯体と製品
  6
Continuous
 62
     4
100
AcDbCircle
 10
1354.640224494999
 20
516.5869161927324
 30
0.0
 40
0.5
100
AcDbArc
 50
0.0
 51
180.0
  0
LINE
  5
5EA0
330
1E
100
AcDbEntity
  8
躯体と製品
  6
Continuous
 62
     4
100
AcDbLine
 10
1353.140224494999
 20
516.5869161927324
 30
0.0
 11
1354.140224494999
 21
516.5869161927324
 31
0.0
  0
LINE
  5
5EA1
330
1E
100
AcDbEntity
  8
躯体と製品
  6
Continuous
 62
     4
100
AcDbLine
 10
1359.140224494999
 20
516.5869161927324
 30
0.0
 11
1360.140224494999
 21
516.5869161927324
 31
0.0
  0
ARC
  5
5EA2
330
1E
100
AcDbEntity
  8
躯体と製品
  6
Continuous
 62
     4
100
AcDbCircle
 10
1358.640224494999
 20
516.5869161927324
 30
0.0
 40
0.5
100
AcDbArc
 50
0.0
 51
180.0
  0
ARC
  5
5EA3
330
1E
100
AcDbEntity
  8
躯体と製品
  6
Continuous
 62
     4
100
AcDbCircle
 10
1356.640224494999
 20
516.5869161927324
 30
0.0
 40
0.5
100
AcDbArc
 50
0.0
 51
180.0
  0
LINE
  5
5EA4
330
1E
100
AcDbEntity
  8
躯体と製品
  6
Continuous
 62
     4
100
AcDbLine
 10
1357.140224494999
 20
516.5869161927324
 30
0.0
 11
1358.140224494999
 21
516.5869161927324
 31
0.0
  0
ARC
  5
5EA5
330
1E
100
AcDbEntity
  8
躯体と製品
  6
Continuous
 62
     4
100
AcDbCircle
 10
1360.640224494999
 20
516.5869161927324
 30
0.0
 40
0.5
100
AcDbArc
 50
0.0
 51
180.0
  0
LINE
  5
5EA6
330
1E
100
AcDbEntity
  8
躯体と製品
  6
Continuous
 62
     4
100
AcDbLine
 10
1361.140224494999
 20
516.5869161927324
 30
0.0
 11
1362.140224494999
 21
516.5869161927324
 31
0.0
  0
ARC
  5
5EA7
330
1E
100
AcDbEntity
  8
躯体と製品
  6
Continuous
 62
     4
100
AcDbCircle
 10
1378.640224494999
 20
516.5869161927324
 30
0.0
 40
0.5
100
AcDbArc
 50
0.0
 51
180.0
  0
ARC
  5
5EA8
330
1E
100
AcDbEntity
  8
躯体と製品
  6
Continuous
 62
     4
100
AcDbCircle
 10
1370.640224494999
 20
516.5869161927324
 30
0.0
 40
0.5
100
AcDbArc
 50
0.0
 51
180.0
  0
ARC
  5
5EA9
330
1E
100
AcDbEntity
  8
躯体と製品
  6
Continuous
 62
     4
100
AcDbCircle
 10
1366.640224494999
 20
516.5869161927324
 30
0.0
 40
0.5
100
AcDbArc
 50
0.0
 51
180.0
  0
ARC
  5
5EAA
330
1E
100
AcDbEntity
  8
躯体と製品
  6
Continuous
 62
     4
100
AcDbCircle
 10
1364.640224494999
 20
516.5869161927324
 30
0.0
 40
0.5
100
AcDbArc
 50
0.0
 51
180.0
  0
LINE
  5
5EAB
330
1E
100
AcDbEntity
  8
躯体と製品
  6
Continuous
 62
     4
100
AcDbLine
 10
1365.140224494999
 20
516.5869161927324
 30
0.0
 11
1366.140224494999
 21
516.5869161927324
 31
0.0
  0
LINE
  5
5EAC
330
1E
100
AcDbEntity
  8
躯体と製品
  6
Continuous
 62
     4
100
AcDbLine
 10
1363.140224494999
 20
516.5869161927324
 30
0.0
 11
1364.140224494999
 21
516.5869161927324
 31
0.0
  0
ARC
  5
5EAD
330
1E
100
AcDbEntity
  8
躯体と製品
  6
Continuous
 62
     4
100
AcDbCircle
 10
1368.640224494999
 20
516.5869161927324
 30
0.0
 40
0.5
100
AcDbArc
 50
0.0
 51
180.0
  0
LINE
  5
5EAE
330
1E
100
AcDbEntity
  8
躯体と製品
  6
Continuous
 62
     4
100
AcDbLine
 10
1369.140224494999
 20
516.5869161927324
 30
0.0
 11
1370.140224494999
 21
516.5869161927324
 31
0.0
  0
LINE
  5
5EAF
330
1E
100
AcDbEntity
  8
躯体と製品
  6
Continuous
 62
     4
100
AcDbLine
 10
1367.140224494999
 20
516.5869161927324
 30
0.0
 11
1368.140224494999
 21
516.5869161927324
 31
0.0
  0
ARC
  5
5EB0
330
1E
100
AcDbEntity
  8
躯体と製品
  6
Continuous
 62
     4
100
AcDbCircle
 10
1374.640224494999
 20
516.5869161927324
 30
0.0
 40
0.5
100
AcDbArc
 50
0.0
 51
180.0
  0
ARC
  5
5EB1
330
1E
100
AcDbEntity
  8
躯体と製品
  6
Continuous
 62
     4
100
AcDbCircle
 10
1372.640224494999
 20
516.5869161927324
 30
0.0
 40
0.5
100
AcDbArc
 50
0.0
 51
180.0
  0
LINE
  5
5EB2
330
1E
100
AcDbEntity
  8
躯体と製品
  6
Continuous
 62
     4
100
AcDbLine
 10
1373.140224494999
 20
516.5869161927324
 30
0.0
 11
1374.140224494999
 21
516.5869161927324
 31
0.0
  0
LINE
  5
5EB3
330
1E
100
AcDbEntity
  8
躯体と製品
  6
Continuous
 62
     4
100
AcDbLine
 10
1371.140224494999
 20
516.5869161927324
 30
0.0
 11
1372.140224494999
 21
516.5869161927324
 31
0.0
  0
ARC
  5
5EB4
330
1E
100
AcDbEntity
  8
躯体と製品
  6
Continuous
 62
     4
100
AcDbCircle
 10
1376.640224494999
 20
516.5869161927324
 30
0.0
 40
0.5
100
AcDbArc
 50
0.0
 51
180.0
  0
LINE
  5
5EB5
330
1E
100
AcDbEntity
  8
躯体と製品
  6
Continuous
 62
     4
100
AcDbLine
 10
1377.140224494999
 20
516.5869161927324
 30
0.0
 11
1378.140224494999
 21
516.5869161927324
 31
0.0
  0
LINE
  5
5EB6
330
1E
100
AcDbEntity
  8
躯体と製品
  6
Continuous
 62
     4
100
AcDbLine
 10
1375.140224494999
 20
516.5869161927324
 30
0.0
 11
1376.140224494999
 21
516.5869161927324
 31
0.0
  0
LINE
  5
5EB7
330
1E
100
AcDbEntity
  8
躯体と製品
  6
Continuous
 62
     4
100
AcDbLine
 10
1385.140224494999
 20
516.5869161927324
 30
0.0
 11
1386.140224494999
 21
516.5869161927324
 31
0.0
  0
LINE
  5
5EB8
330
1E
100
AcDbEntity
  8
躯体と製品
  6
Continuous
 62
     4
100
AcDbLine
 10
1381.140224494999
 20
516.5869161927324
 30
0.0
 11
1382.140224494999
 21
516.5869161927324
 31
0.0
  0
ARC
  5
5EB9
330
1E
100
AcDbEntity
  8
躯体と製品
  6
Continuous
 62
     4
100
AcDbCircle
 10
1380.640224494999
 20
516.5869161927324
 30
0.0
 40
0.5
100
AcDbArc
 50
0.0
 51
180.0
  0
LINE
  5
5EBA
330
1E
100
AcDbEntity
  8
躯体と製品
  6
Continuous
 62
     4
100
AcDbLine
 10
1379.140224494999
 20
516.5869161927324
 30
0.0
 11
1380.140224494999
 21
516.5869161927324
 31
0.0
  0
ARC
  5
5EBB
330
1E
100
AcDbEntity
  8
躯体と製品
  6
Continuous
 62
     4
100
AcDbCircle
 10
1384.640224494999
 20
516.5869161927324
 30
0.0
 40
0.5
100
AcDbArc
 50
0.0
 51
180.0
  0
ARC
  5
5EBC
330
1E
100
AcDbEntity
  8
躯体と製品
  6
Continuous
 62
     4
100
AcDbCircle
 10
1382.640224494999
 20
516.5869161927324
 30
0.0
 40
0.5
100
AcDbArc
 50
0.0
 51
180.0
  0
LINE
  5
5EBD
330
1E
100
AcDbEntity
  8
躯体と製品
  6
Continuous
 62
     4
100
AcDbLine
 10
1383.140224494999
 20
516.5869161927324
 30
0.0
 11
1384.140224494999
 21
516.5869161927324
 31
0.0
  0
LINE
  5
5EBE
330
1E
100
AcDbEntity
  8
躯体と製品
  6
Continuous
 62
     4
100
AcDbLine
 10
1389.140224494999
 20
516.5869161927324
 30
0.0
 11
1390.140224494999
 21
516.5869161927324
 31
0.0
  0
ARC
  5
5EBF
330
1E
100
AcDbEntity
  8
躯体と製品
  6
Continuous
 62
     4
100
AcDbCircle
 10
1388.640224494999
 20
516.5869161927324
 30
0.0
 40
0.5
100
AcDbArc
 50
0.0
 51
180.0
  0
ARC
  5
5EC0
330
1E
100
AcDbEntity
  8
躯体と製品
  6
Continuous
 62
     4
100
AcDbCircle
 10
1386.640224494999
 20
516.5869161927324
 30
0.0
 40
0.5
100
AcDbArc
 50
0.0
 51
180.0
  0
LINE
  5
5EC1
330
1E
100
AcDbEntity
  8
躯体と製品
  6
Continuous
 62
     4
100
AcDbLine
 10
1387.140224494999
 20
516.5869161927324
 30
0.0
 11
1388.140224494999
 21
516.5869161927324
 31
0.0
  0
ARC
  5
5EC2
330
1E
100
AcDbEntity
  8
躯体と製品
  6
Continuous
 62
     4
100
AcDbCircle
 10
1392.640224494999
 20
516.5869161927324
 30
0.0
 40
0.5
100
AcDbArc
 50
0.0
 51
180.0
  0
ARC
  5
5EC3
330
1E
100
AcDbEntity
  8
躯体と製品
  6
Continuous
 62
     4
100
AcDbCircle
 10
1390.640224494999
 20
516.5869161927324
 30
0.0
 40
0.5
100
AcDbArc
 50
0.0
 51
180.0
  0
LINE
  5
5EC4
330
1E
100
AcDbEntity
  8
躯体と製品
  6
Continuous
 62
     4
100
AcDbLine
 10
1391.140224494999
 20
516.5869161927324
 30
0.0
 11
1392.140224494999
 21
516.5869161927324
 31
0.0
  0
LINE
  5
5EC5
330
1E
100
AcDbEntity
  8
図枠
  6
Continuous
 62
     3
100
AcDbLine
 10
1337.328967494999
 20
583.3869161927323
 30
0.0
 11
1337.328967494999
 21
568.3869161927324
 31
0.0
  0
TEXT
  5
5EC6
330
1E
100
AcDbEntity
  8
図枠
  6
Continuous
 62
     4
100
AcDbText
 10
1216.199932494999
 20
695.3815421927324
 30
0.0
 40
5.0
  1
ＳＤシリーズ
 41
0.8
  7
ACAD
100
AcDbText
  0
LINE
  5
5ED2
330
1E
100
AcDbEntity
  8
躯体と製品
  6
Continuous
 62
     4
100
AcDbLine
 10
1362.140224494999
 20
642.0224001927324
 30
0.0
 11
1363.140224494999
 21
642.0223991927324
 31
0.0
  0
LINE
  5
5ED3
330
1E
100
AcDbEntity
  8
躯体と製品
  6
Continuous
 62
     4
100
AcDbLine
 10
1356.640224494999
 20
642.0224001927324
 30
0.0
 11
1356.640224494999
 21
650.0224001927324
 31
0.0
  0
LINE
  5
5ED4
330
1E
100
AcDbEntity
  8
躯体と製品
  6
Continuous
 62
     4
100
AcDbLine
 10
1357.640224494999
 20
651.0224001927324
 30
0.0
 11
1357.640224494999
 21
643.0224001927324
 31
0.0
  0
ARC
  5
5EDC
330
1E
100
AcDbEntity
  8
躯体と製品
  6
Continuous
 62
     4
100
AcDbCircle
 10
1359.640224494999
 20
642.0224001927324
 30
0.0
 40
0.5
100
AcDbArc
 50
0.0
 51
180.0
  0
LINE
  5
5EDD
330
1E
100
AcDbEntity
  8
躯体と製品
  6
Continuous
 62
     4
100
AcDbLine
 10
1358.140224494999
 20
642.0223931927324
 30
0.0
 11
1359.140224494999
 21
642.0223881927324
 31
0.0
  0
LINE
  5
5EDE
330
1E
100
AcDbEntity
  8
躯体と製品
  6
Continuous
 62
     4
100
AcDbLine
 10
1356.640224494999
 20
642.0224001927324
 30
0.0
 11
1357.140224494999
 21
642.0223971927324
 31
0.0
  0
ARC
  5
5EDF
330
1E
100
AcDbEntity
  8
躯体と製品
  6
Continuous
 62
     4
100
AcDbCircle
 10
1357.640224494999
 20
642.0224001927324
 30
0.0
 40
0.5
100
AcDbArc
 50
0.0
 51
180.0
  0
ARC
  5
5EE0
330
1E
100
AcDbEntity
  8
躯体と製品
  6
Continuous
 62
     4
100
AcDbCircle
 10
1361.640224494999
 20
642.0224001927324
 30
0.0
 40
0.5
100
AcDbArc
 50
0.0
 51
180.0
  0
LINE
  5
5EE1
330
1E
100
AcDbEntity
  8
躯体と製品
  6
Continuous
 62
     4
100
AcDbLine
 10
1360.140224494999
 20
642.0223881927324
 30
0.0
 11
1361.140224494999
 21
642.0224001927324
 31
0.0
  0
LINE
  5
5EE2
330
1E
100
AcDbEntity
  8
躯体と製品
  6
Continuous
 62
     4
100
AcDbLine
 10
1340.640224494999
 20
650.0224001927324
 30
0.0
 11
1356.640224494999
 21
650.0224001927324
 31
0.0
  0
LINE
  5
5EE3
330
1E
100
AcDbEntity
  8
躯体と製品
  6
Continuous
 62
     4
100
AcDbLine
 10
1341.640224494999
 20
651.0224001927324
 30
0.0
 11
1357.640224494999
 21
651.0224001927324
 31
0.0
  0
LINE
  5
5EE4
330
1E
100
AcDbEntity
  8
躯体と製品
  6
Continuous
 62
     4
100
AcDbLine
 10
1340.640224494999
 20
654.0224001927324
 30
0.0
 11
1340.640224494999
 21
650.0224001927324
 31
0.0
  0
ARC
  5
5EE5
330
1E
100
AcDbEntity
  8
躯体と製品
  6
Continuous
 62
     4
100
AcDbCircle
 10
1341.140224494999
 20
654.0224001927324
 30
0.0
 40
0.5
100
AcDbArc
 50
0.0
 51
180.0
  0
LINE
  5
5EE6
330
1E
100
AcDbEntity
  8
躯体と製品
  6
Continuous
 62
     4
100
AcDbLine
 10
1341.640224494999
 20
654.0224001927324
 30
0.0
 11
1341.640224494999
 21
651.0224001927324
 31
0.0
  0
LINE
  5
5EE7
330
1E
100
AcDbEntity
  8
躯体と製品
  6
Continuous
 62
     4
100
AcDbLine
 10
1378.140224494999
 20
642.0224001927324
 30
0.0
 11
1379.140224494999
 21
642.0224001927324
 31
0.0
  0
LINE
  5
5EE8
330
1E
100
AcDbEntity
  8
躯体と製品
  6
Continuous
 62
     4
100
AcDbLine
 10
1370.140224494999
 20
642.0224001927324
 30
0.0
 11
1371.140224494999
 21
642.0224001927324
 31
0.0
  0
LINE
  5
5EE9
330
1E
100
AcDbEntity
  8
躯体と製品
  6
Continuous
 62
     4
100
AcDbLine
 10
1366.140224494999
 20
642.0224001927324
 30
0.0
 11
1367.140224494999
 21
642.0224001927324
 31
0.0
  0
ARC
  5
5EEA
330
1E
100
AcDbEntity
  8
躯体と製品
  6
Continuous
 62
     4
100
AcDbCircle
 10
1365.640224494999
 20
642.0224001927324
 30
0.0
 40
0.5
100
AcDbArc
 50
0.0
 51
180.0
  0
ARC
  5
5EEB
330
1E
100
AcDbEntity
  8
躯体と製品
  6
Continuous
 62
     4
100
AcDbCircle
 10
1363.640224494999
 20
642.0224001927324
 30
0.0
 40
0.5
100
AcDbArc
 50
0.0
 51
180.0
  0
LINE
  5
5EEC
330
1E
100
AcDbEntity
  8
躯体と製品
  6
Continuous
 62
     4
100
AcDbLine
 10
1364.140224494999
 20
642.0223991927324
 30
0.0
 11
1365.140224494999
 21
642.0224001927324
 31
0.0
  0
ARC
  5
5EED
330
1E
100
AcDbEntity
  8
躯体と製品
  6
Continuous
 62
     4
100
AcDbCircle
 10
1367.640224494999
 20
642.0224001927324
 30
0.0
 40
0.5
100
AcDbArc
 50
0.0
 51
180.0
  0
ARC
  5
5EEE
330
1E
100
AcDbEntity
  8
躯体と製品
  6
Continuous
 62
     4
100
AcDbCircle
 10
1369.640224494999
 20
642.0224001927324
 30
0.0
 40
0.5
100
AcDbArc
 50
0.0
 51
180.0
  0
LINE
  5
5EEF
330
1E
100
AcDbEntity
  8
躯体と製品
  6
Continuous
 62
     4
100
AcDbLine
 10
1368.140224494999
 20
642.0224001927324
 30
0.0
 11
1369.140224494999
 21
642.0224001927324
 31
0.0
  0
LINE
  5
5EF0
330
1E
100
AcDbEntity
  8
躯体と製品
  6
Continuous
 62
     4
100
AcDbLine
 10
1374.140224494999
 20
642.0224001927324
 30
0.0
 11
1375.140224494999
 21
642.0224001927324
 31
0.0
  0
ARC
  5
5EF1
330
1E
100
AcDbEntity
  8
躯体と製品
  6
Continuous
 62
     4
100
AcDbCircle
 10
1373.640224494999
 20
642.0224001927324
 30
0.0
 40
0.5
100
AcDbArc
 50
0.0
 51
180.0
  0
ARC
  5
5EF2
330
1E
100
AcDbEntity
  8
躯体と製品
  6
Continuous
 62
     4
100
AcDbCircle
 10
1371.640224494999
 20
642.0224001927324
 30
0.0
 40
0.5
100
AcDbArc
 50
0.0
 51
180.0
  0
LINE
  5
5EF3
330
1E
100
AcDbEntity
  8
躯体と製品
  6
Continuous
 62
     4
100
AcDbLine
 10
1372.140224494999
 20
642.0224001927324
 30
0.0
 11
1373.140224494999
 21
642.0224001927324
 31
0.0
  0
ARC
  5
5EF4
330
1E
100
AcDbEntity
  8
躯体と製品
  6
Continuous
 62
     4
100
AcDbCircle
 10
1377.640224494999
 20
642.0224001927324
 30
0.0
 40
0.5
100
AcDbArc
 50
0.0
 51
180.0
  0
ARC
  5
5EF5
330
1E
100
AcDbEntity
  8
躯体と製品
  6
Continuous
 62
     4
100
AcDbCircle
 10
1375.640224494999
 20
642.0224001927324
 30
0.0
 40
0.5
100
AcDbArc
 50
0.0
 51
180.0
  0
LINE
  5
5EF6
330
1E
100
AcDbEntity
  8
躯体と製品
  6
Continuous
 62
     4
100
AcDbLine
 10
1376.140224494999
 20
642.0224001927324
 30
0.0
 11
1377.140224494999
 21
642.0224001927324
 31
0.0
  0
ARC
  5
5EF7
330
1E
100
AcDbEntity
  8
躯体と製品
  6
Continuous
 62
     4
100
AcDbCircle
 10
1385.640224494999
 20
642.0224001927324
 30
0.0
 40
0.5
100
AcDbArc
 50
0.0
 51
180.0
  0
ARC
  5
5EF8
330
1E
100
AcDbEntity
  8
躯体と製品
  6
Continuous
 62
     4
100
AcDbCircle
 10
1381.640224494999
 20
642.0224001927324
 30
0.0
 40
0.5
100
AcDbArc
 50
0.0
 51
180.0
  0
ARC
  5
5EF9
330
1E
100
AcDbEntity
  8
躯体と製品
  6
Continuous
 62
     4
100
AcDbCircle
 10
1379.640224494999
 20
642.0224001927324
 30
0.0
 40
0.5
100
AcDbArc
 50
0.0
 51
180.0
  0
LINE
  5
5EFA
330
1E
100
AcDbEntity
  8
躯体と製品
  6
Continuous
 62
     4
100
AcDbLine
 10
1380.140224494999
 20
642.0224001927324
 30
0.0
 11
1381.140224494999
 21
642.0224001927324
 31
0.0
  0
ARC
  5
5EFB
330
1E
100
AcDbEntity
  8
躯体と製品
  6
Continuous
 62
     4
100
AcDbCircle
 10
1383.640224494999
 20
642.0224001927324
 30
0.0
 40
0.5
100
AcDbArc
 50
0.0
 51
180.0
  0
LINE
  5
5EFC
330
1E
100
AcDbEntity
  8
躯体と製品
  6
Continuous
 62
     4
100
AcDbLine
 10
1384.140224494999
 20
642.0224001927324
 30
0.0
 11
1385.140224494999
 21
642.0224001927324
 31
0.0
  0
LINE
  5
5EFD
330
1E
100
AcDbEntity
  8
躯体と製品
  6
Continuous
 62
     4
100
AcDbLine
 10
1382.140224494999
 20
642.0224001927324
 30
0.0
 11
1383.140224494999
 21
642.0224001927324
 31
0.0
  0
ARC
  5
5EFE
330
1E
100
AcDbEntity
  8
躯体と製品
  6
Continuous
 62
     4
100
AcDbCircle
 10
1389.640224494999
 20
642.0224001927324
 30
0.0
 40
0.5
100
AcDbArc
 50
0.0
 51
180.0
  0
ARC
  5
5EFF
330
1E
100
AcDbEntity
  8
躯体と製品
  6
Continuous
 62
     4
100
AcDbCircle
 10
1387.640224494999
 20
642.0224001927324
 30
0.0
 40
0.5
100
AcDbArc
 50
0.0
 51
180.0
  0
LINE
  5
5F00
330
1E
100
AcDbEntity
  8
躯体と製品
  6
Continuous
 62
     4
100
AcDbLine
 10
1388.140224494999
 20
642.0224001927324
 30
0.0
 11
1389.140224494999
 21
642.0224001927324
 31
0.0
  0
LINE
  5
5F01
330
1E
100
AcDbEntity
  8
躯体と製品
  6
Continuous
 62
     4
100
AcDbLine
 10
1386.140224494999
 20
642.0224001927324
 30
0.0
 11
1387.140224494999
 21
642.0224001927324
 31
0.0
  0
ARC
  5
5F02
330
1E
100
AcDbEntity
  8
躯体と製品
  6
Continuous
 62
     4
100
AcDbCircle
 10
1391.640224494999
 20
642.0224001927324
 30
0.0
 40
0.5
100
AcDbArc
 50
0.0
 51
180.0
  0
LINE
  5
5F03
330
1E
100
AcDbEntity
  8
躯体と製品
  6
Continuous
 62
     4
100
AcDbLine
 10
1392.140224494999
 20
642.0224001927324
 30
0.0
 11
1393.140224494999
 21
642.0224001927324
 31
0.0
  0
LINE
  5
5F04
330
1E
100
AcDbEntity
  8
躯体と製品
  6
Continuous
 62
     4
100
AcDbLine
 10
1390.140224494999
 20
642.0224001927324
 30
0.0
 11
1391.140224494999
 21
642.0224001927324
 31
0.0
  0
TEXT
  5
5F05
330
1E
100
AcDbEntity
  8
図枠
  6
Continuous
 62
     3
100
AcDbText
 10
1323.965970376782
 20
699.6545729489597
 30
0.0
 40
3.0
  1
（ｍｍ）
 41
0.8
  7
ACAD
100
AcDbText
  0
LINE
  5
5F06
330
1E
100
AcDbEntity
  8
図枠
  6
Continuous
 62
     3
100
AcDbLine
 10
1337.328967494999
 20
698.8224001927323
 30
0.0
 11
1322.328967494999
 21
698.8224001927323
 31
0.0
  0
LINE
  5
5F07
330
1E
100
AcDbEntity
  8
図枠
  6
Continuous
 62
     3
100
AcDbLine
 10
1337.328967494999
 20
693.8224001927324
 30
0.0
 11
1282.328967494999
 21
693.8224001927324
 31
0.0
  0
TEXT
  5
5F08
330
1E
100
AcDbEntity
  8
図枠
  6
Continuous
 62
     3
100
AcDbText
 10
1326.337739132784
 20
694.9471464286647
 30
0.0
 40
3.0
  1
1.0
 41
0.8
  7
ACAD
100
AcDbText
  0
TEXT
  5
5F09
330
1E
100
AcDbEntity
  8
図枠
  6
Continuous
 62
     4
100
AcDbText
 10
1284.305344494999
 20
698.7049371927325
 30
0.0
 40
5.0
  1
ＳＤ－１００Ａ
 41
0.8
  7
ACAD
100
AcDbText
  0
LINE
  5
5F0A
330
1E
100
AcDbEntity
  8
図枠
  6
Continuous
 62
     3
100
AcDbLine
 10
1322.328967494999
 20
693.8224001927324
 30
0.0
 11
1322.328967494999
 21
708.8224001927324
 31
0.0
  0
TEXT
  5
5F0B
330
1E
100
AcDbEntity
  8
図枠
  6
Continuous
 62
     3
100
AcDbText
 10
1326.879857307243
 20
703.5438855323136
 30
0.0
 40
3.0
  1
板厚
 41
0.8
  7
ACAD
100
AcDbText
  0
LINE
  5
5F0C
330
1E
100
AcDbEntity
  8
図枠
  6
Continuous
 62
     3
100
AcDbLine
 10
1337.328967494999
 20
708.8224001927324
 30
0.0
 11
1337.328967494999
 21
693.8224001927324
 31
0.0
  0
LINE
  5
5F0D
330
1E
100
AcDbEntity
  8
図枠
  6
Continuous
 62
     7
100
AcDbLine
 10
1534.437075494999
 20
457.9514321927324
 30
0.0
 11
1534.437075494999
 21
708.8224001927324
 31
0.0
  0
ARC
  5
5F10
330
1E
100
AcDbEntity
  8
躯体と製品
  6
Continuous
 62
     4
100
AcDbCircle
 10
1454.640224494999
 20
516.5869161927324
 30
0.0
 40
0.5
100
AcDbArc
 50
0.0
 51
180.0
  0
LINE
  5
5F11
330
1E
100
AcDbEntity
  8
躯体と製品
  6
Continuous
 62
     4
100
AcDbLine
 10
1423.140224494999
 20
516.5869161927324
 30
0.0
 11
1424.140224494999
 21
516.5869161927324
 31
0.0
  0
ARC
  5
5F12
330
1E
100
AcDbEntity
  8
躯体と製品
  6
Continuous
 62
     4
100
AcDbCircle
 10
1408.640224494999
 20
516.5869161927324
 30
0.0
 40
0.5
100
AcDbArc
 50
0.0
 51
180.0
  0
ARC
  5
5F14
330
1E
100
AcDbEntity
  8
躯体と製品
  6
Continuous
 62
     4
100
AcDbCircle
 10
1400.640224494999
 20
516.5869161927324
 30
0.0
 40
0.5
100
AcDbArc
 50
0.0
 51
180.0
  0
LINE
  5
5F15
330
1E
100
AcDbEntity
  8
躯体と製品
  6
Continuous
 62
     4
100
AcDbLine
 10
1397.140224494999
 20
516.5869161927324
 30
0.0
 11
1398.140224494999
 21
516.5869161927324
 31
0.0
  0
ARC
  5
5F16
330
1E
100
AcDbEntity
  8
躯体と製品
  6
Continuous
 62
     4
100
AcDbCircle
 10
1394.640224494999
 20
516.5869161927324
 30
0.0
 40
0.5
100
AcDbArc
 50
0.0
 51
180.0
  0
ARC
  5
5F17
330
1E
100
AcDbEntity
  8
躯体と製品
  6
Continuous
 62
     4
100
AcDbCircle
 10
1396.640224494999
 20
516.5869161927324
 30
0.0
 40
0.5
100
AcDbArc
 50
0.0
 51
180.0
  0
LINE
  5
5F18
330
1E
100
AcDbEntity
  8
躯体と製品
  6
Continuous
 62
     4
100
AcDbLine
 10
1395.140224494999
 20
516.5869161927324
 30
0.0
 11
1396.140224494999
 21
516.5869161927324
 31
0.0
  0
ARC
  5
5F19
330
1E
100
AcDbEntity
  8
躯体と製品
  6
Continuous
 62
     4
100
AcDbCircle
 10
1398.640224494999
 20
516.5869161927324
 30
0.0
 40
0.5
100
AcDbArc
 50
0.0
 51
180.0
  0
LINE
  5
5F1A
330
1E
100
AcDbEntity
  8
躯体と製品
  6
Continuous
 62
     4
100
AcDbLine
 10
1399.140224494999
 20
516.5869161927324
 30
0.0
 11
1400.140224494999
 21
516.5869161927324
 31
0.0
  0
ARC
  5
5F1B
330
1E
100
AcDbEntity
  8
躯体と製品
  6
Continuous
 62
     4
100
AcDbCircle
 10
1404.640224494999
 20
516.5869161927324
 30
0.0
 40
0.5
100
AcDbArc
 50
0.0
 51
180.0
  0
ARC
  5
5F1C
330
1E
100
AcDbEntity
  8
躯体と製品
  6
Continuous
 62
     4
100
AcDbCircle
 10
1402.640224494999
 20
516.5869161927324
 30
0.0
 40
0.5
100
AcDbArc
 50
0.0
 51
180.0
  0
LINE
  5
5F1D
330
1E
100
AcDbEntity
  8
躯体と製品
  6
Continuous
 62
     4
100
AcDbLine
 10
1403.140224494999
 20
516.5869161927324
 30
0.0
 11
1404.140224494999
 21
516.5869161927324
 31
0.0
  0
LINE
  5
5F1E
330
1E
100
AcDbEntity
  8
躯体と製品
  6
Continuous
 62
     4
100
AcDbLine
 10
1401.140224494999
 20
516.5869161927324
 30
0.0
 11
1402.140224494999
 21
516.5869161927324
 31
0.0
  0
ARC
  5
5F1F
330
1E
100
AcDbEntity
  8
躯体と製品
  6
Continuous
 62
     4
100
AcDbCircle
 10
1406.640224494999
 20
516.5869161927324
 30
0.0
 40
0.5
100
AcDbArc
 50
0.0
 51
180.0
  0
LINE
  5
5F20
330
1E
100
AcDbEntity
  8
躯体と製品
  6
Continuous
 62
     4
100
AcDbLine
 10
1407.140224494999
 20
516.5869161927324
 30
0.0
 11
1408.140224494999
 21
516.5869161927324
 31
0.0
  0
LINE
  5
5F21
330
1E
100
AcDbEntity
  8
躯体と製品
  6
Continuous
 62
     4
100
AcDbLine
 10
1405.140224494999
 20
516.5869161927324
 30
0.0
 11
1406.140224494999
 21
516.5869161927324
 31
0.0
  0
ARC
  5
5F22
330
1E
100
AcDbEntity
  8
躯体と製品
  6
Continuous
 62
     4
100
AcDbCircle
 10
1416.640224494999
 20
516.5869161927324
 30
0.0
 40
0.5
100
AcDbArc
 50
0.0
 51
180.0
  0
ARC
  5
5F23
330
1E
100
AcDbEntity
  8
躯体と製品
  6
Continuous
 62
     4
100
AcDbCircle
 10
1412.640224494999
 20
516.5869161927324
 30
0.0
 40
0.5
100
AcDbArc
 50
0.0
 51
180.0
  0
ARC
  5
5F24
330
1E
100
AcDbEntity
  8
躯体と製品
  6
Continuous
 62
     4
100
AcDbCircle
 10
1410.640224494999
 20
516.5869161927324
 30
0.0
 40
0.5
100
AcDbArc
 50
0.0
 51
180.0
  0
LINE
  5
5F25
330
1E
100
AcDbEntity
  8
躯体と製品
  6
Continuous
 62
     4
100
AcDbLine
 10
1411.140224494999
 20
516.5869161927324
 30
0.0
 11
1412.140224494999
 21
516.5869161927324
 31
0.0
  0
LINE
  5
5F26
330
1E
100
AcDbEntity
  8
躯体と製品
  6
Continuous
 62
     4
100
AcDbLine
 10
1409.140224494999
 20
516.5869161927324
 30
0.0
 11
1410.140224494999
 21
516.5869161927324
 31
0.0
  0
ARC
  5
5F27
330
1E
100
AcDbEntity
  8
躯体と製品
  6
Continuous
 62
     4
100
AcDbCircle
 10
1414.640224494999
 20
516.5869161927324
 30
0.0
 40
0.5
100
AcDbArc
 50
0.0
 51
180.0
  0
LINE
  5
5F28
330
1E
100
AcDbEntity
  8
躯体と製品
  6
Continuous
 62
     4
100
AcDbLine
 10
1415.140224494999
 20
516.5869161927324
 30
0.0
 11
1416.140224494999
 21
516.5869161927324
 31
0.0
  0
LINE
  5
5F29
330
1E
100
AcDbEntity
  8
躯体と製品
  6
Continuous
 62
     4
100
AcDbLine
 10
1413.140224494999
 20
516.5869161927324
 30
0.0
 11
1414.140224494999
 21
516.5869161927324
 31
0.0
  0
ARC
  5
5F2A
330
1E
100
AcDbEntity
  8
躯体と製品
  6
Continuous
 62
     4
100
AcDbCircle
 10
1420.640224494999
 20
516.5869161927324
 30
0.0
 40
0.5
100
AcDbArc
 50
0.0
 51
180.0
  0
ARC
  5
5F2B
330
1E
100
AcDbEntity
  8
躯体と製品
  6
Continuous
 62
     4
100
AcDbCircle
 10
1418.640224494999
 20
516.5869161927324
 30
0.0
 40
0.5
100
AcDbArc
 50
0.0
 51
180.0
  0
LINE
  5
5F2C
330
1E
100
AcDbEntity
  8
躯体と製品
  6
Continuous
 62
     4
100
AcDbLine
 10
1419.140224494999
 20
516.5869161927324
 30
0.0
 11
1420.140224494999
 21
516.5869161927324
 31
0.0
  0
LINE
  5
5F2D
330
1E
100
AcDbEntity
  8
躯体と製品
  6
Continuous
 62
     4
100
AcDbLine
 10
1417.140224494999
 20
516.5869161927324
 30
0.0
 11
1418.140224494999
 21
516.5869161927324
 31
0.0
  0
ARC
  5
5F2E
330
1E
100
AcDbEntity
  8
躯体と製品
  6
Continuous
 62
     4
100
AcDbCircle
 10
1422.640224494999
 20
516.5869161927324
 30
0.0
 40
0.5
100
AcDbArc
 50
0.0
 51
180.0
  0
LINE
  5
5F2F
330
1E
100
AcDbEntity
  8
躯体と製品
  6
Continuous
 62
     4
100
AcDbLine
 10
1421.140224494999
 20
516.5869161927324
 30
0.0
 11
1422.140224494999
 21
516.5869161927324
 31
0.0
  0
LINE
  5
5F30
330
1E
100
AcDbEntity
  8
躯体と製品
  6
Continuous
 62
     4
100
AcDbLine
 10
1439.140224494999
 20
516.5869161927324
 30
0.0
 11
1440.140224494999
 21
516.5869161927324
 31
0.0
  0
LINE
  5
5F31
330
1E
100
AcDbEntity
  8
躯体と製品
  6
Continuous
 62
     4
100
AcDbLine
 10
1431.140224494999
 20
516.5869161927324
 30
0.0
 11
1432.140224494999
 21
516.5869161927324
 31
0.0
  0
LINE
  5
5F32
330
1E
100
AcDbEntity
  8
躯体と製品
  6
Continuous
 62
     4
100
AcDbLine
 10
1427.140224494999
 20
516.5869161927324
 30
0.0
 11
1428.140224494999
 21
516.5869161927324
 31
0.0
  0
ARC
  5
5F33
330
1E
100
AcDbEntity
  8
躯体と製品
  6
Continuous
 62
     4
100
AcDbCircle
 10
1426.640224494999
 20
516.5869161927324
 30
0.0
 40
0.5
100
AcDbArc
 50
0.0
 51
180.0
  0
ARC
  5
5F34
330
1E
100
AcDbEntity
  8
躯体と製品
  6
Continuous
 62
     4
100
AcDbCircle
 10
1424.640224494999
 20
516.5869161927324
 30
0.0
 40
0.5
100
AcDbArc
 50
0.0
 51
180.0
  0
LINE
  5
5F35
330
1E
100
AcDbEntity
  8
躯体と製品
  6
Continuous
 62
     4
100
AcDbLine
 10
1425.140224494999
 20
516.5869161927324
 30
0.0
 11
1426.140224494999
 21
516.5869161927324
 31
0.0
  0
ARC
  5
5F36
330
1E
100
AcDbEntity
  8
躯体と製品
  6
Continuous
 62
     4
100
AcDbCircle
 10
1428.640224494999
 20
516.5869161927324
 30
0.0
 40
0.5
100
AcDbArc
 50
0.0
 51
180.0
  0
ARC
  5
5F37
330
1E
100
AcDbEntity
  8
躯体と製品
  6
Continuous
 62
     4
100
AcDbCircle
 10
1430.640224494999
 20
516.5869161927324
 30
0.0
 40
0.5
100
AcDbArc
 50
0.0
 51
180.0
  0
LINE
  5
5F38
330
1E
100
AcDbEntity
  8
躯体と製品
  6
Continuous
 62
     4
100
AcDbLine
 10
1429.140224494999
 20
516.5869161927324
 30
0.0
 11
1430.140224494999
 21
516.5869161927324
 31
0.0
  0
LINE
  5
5F39
330
1E
100
AcDbEntity
  8
躯体と製品
  6
Continuous
 62
     4
100
AcDbLine
 10
1435.140224494999
 20
516.5869161927324
 30
0.0
 11
1436.140224494999
 21
516.5869161927324
 31
0.0
  0
ARC
  5
5F3A
330
1E
100
AcDbEntity
  8
躯体と製品
  6
Continuous
 62
     4
100
AcDbCircle
 10
1432.640224494999
 20
516.5869161927324
 30
0.0
 40
0.5
100
AcDbArc
 50
0.0
 51
180.0
  0
ARC
  5
5F3B
330
1E
100
AcDbEntity
  8
躯体と製品
  6
Continuous
 62
     4
100
AcDbCircle
 10
1434.640224494999
 20
516.5869161927324
 30
0.0
 40
0.5
100
AcDbArc
 50
0.0
 51
180.0
  0
LINE
  5
5F3C
330
1E
100
AcDbEntity
  8
躯体と製品
  6
Continuous
 62
     4
100
AcDbLine
 10
1433.140224494999
 20
516.5869161927324
 30
0.0
 11
1434.140224494999
 21
516.5869161927324
 31
0.0
  0
ARC
  5
5F3D
330
1E
100
AcDbEntity
  8
躯体と製品
  6
Continuous
 62
     4
100
AcDbCircle
 10
1436.640224494999
 20
516.5869161927324
 30
0.0
 40
0.5
100
AcDbArc
 50
0.0
 51
180.0
  0
ARC
  5
5F3E
330
1E
100
AcDbEntity
  8
躯体と製品
  6
Continuous
 62
     4
100
AcDbCircle
 10
1438.640224494999
 20
516.5869161927324
 30
0.0
 40
0.5
100
AcDbArc
 50
0.0
 51
180.0
  0
LINE
  5
5F3F
330
1E
100
AcDbEntity
  8
躯体と製品
  6
Continuous
 62
     4
100
AcDbLine
 10
1437.140224494999
 20
516.5869161927324
 30
0.0
 11
1438.140224494999
 21
516.5869161927324
 31
0.0
  0
ARC
  5
5F40
330
1E
100
AcDbEntity
  8
躯体と製品
  6
Continuous
 62
     4
100
AcDbCircle
 10
1446.640224494999
 20
516.5869161927324
 30
0.0
 40
0.5
100
AcDbArc
 50
0.0
 51
180.0
  0
ARC
  5
5F41
330
1E
100
AcDbEntity
  8
躯体と製品
  6
Continuous
 62
     4
100
AcDbCircle
 10
1442.640224494999
 20
516.5869161927324
 30
0.0
 40
0.5
100
AcDbArc
 50
0.0
 51
180.0
  0
ARC
  5
5F42
330
1E
100
AcDbEntity
  8
躯体と製品
  6
Continuous
 62
     4
100
AcDbCircle
 10
1440.640224494999
 20
516.5869161927324
 30
0.0
 40
0.5
100
AcDbArc
 50
0.0
 51
180.0
  0
LINE
  5
5F43
330
1E
100
AcDbEntity
  8
躯体と製品
  6
Continuous
 62
     4
100
AcDbLine
 10
1441.140224494999
 20
516.5869161927324
 30
0.0
 11
1442.140224494999
 21
516.5869161927324
 31
0.0
  0
ARC
  5
5F44
330
1E
100
AcDbEntity
  8
躯体と製品
  6
Continuous
 62
     4
100
AcDbCircle
 10
1444.640224494999
 20
516.5869161927324
 30
0.0
 40
0.5
100
AcDbArc
 50
0.0
 51
180.0
  0
LINE
  5
5F45
330
1E
100
AcDbEntity
  8
躯体と製品
  6
Continuous
 62
     4
100
AcDbLine
 10
1445.140224494999
 20
516.5869161927324
 30
0.0
 11
1446.140224494999
 21
516.5869161927324
 31
0.0
  0
LINE
  5
5F46
330
1E
100
AcDbEntity
  8
躯体と製品
  6
Continuous
 62
     4
100
AcDbLine
 10
1443.140224494999
 20
516.5869161927324
 30
0.0
 11
1444.140224494999
 21
516.5869161927324
 31
0.0
  0
ARC
  5
5F47
330
1E
100
AcDbEntity
  8
躯体と製品
  6
Continuous
 62
     4
100
AcDbCircle
 10
1450.640224494999
 20
516.5869161927324
 30
0.0
 40
0.5
100
AcDbArc
 50
0.0
 51
180.0
  0
ARC
  5
5F48
330
1E
100
AcDbEntity
  8
躯体と製品
  6
Continuous
 62
     4
100
AcDbCircle
 10
1448.640224494999
 20
516.5869161927324
 30
0.0
 40
0.5
100
AcDbArc
 50
0.0
 51
180.0
  0
LINE
  5
5F49
330
1E
100
AcDbEntity
  8
躯体と製品
  6
Continuous
 62
     4
100
AcDbLine
 10
1449.140224494999
 20
516.5869161927324
 30
0.0
 11
1450.140224494999
 21
516.5869161927324
 31
0.0
  0
LINE
  5
5F4A
330
1E
100
AcDbEntity
  8
躯体と製品
  6
Continuous
 62
     4
100
AcDbLine
 10
1447.140224494999
 20
516.5869161927324
 30
0.0
 11
1448.140224494999
 21
516.5869161927324
 31
0.0
  0
ARC
  5
5F4B
330
1E
100
AcDbEntity
  8
躯体と製品
  6
Continuous
 62
     4
100
AcDbCircle
 10
1452.640224494999
 20
516.5869161927324
 30
0.0
 40
0.5
100
AcDbArc
 50
0.0
 51
180.0
  0
LINE
  5
5F4C
330
1E
100
AcDbEntity
  8
躯体と製品
  6
Continuous
 62
     4
100
AcDbLine
 10
1453.140224494999
 20
516.5869161927324
 30
0.0
 11
1454.140224494999
 21
516.5869161927324
 31
0.0
  0
LINE
  5
5F4D
330
1E
100
AcDbEntity
  8
躯体と製品
  6
Continuous
 62
     4
100
AcDbLine
 10
1451.140224494999
 20
516.5869161927324
 30
0.0
 11
1452.140224494999
 21
516.5869161927324
 31
0.0
  0
LINE
  5
5F51
330
1E
100
AcDbEntity
  8
躯体と製品
  6
Continuous
 62
     2
100
AcDbLine
 10
1475.640224494999
 20
524.5869161927324
 30
0.0
 11
1491.640224494999
 21
524.5869161927324
 31
0.0
  0
LINE
  5
5F52
330
1E
100
AcDbEntity
  8
躯体と製品
  6
Continuous
 62
     4
100
AcDbLine
 10
1486.636224494999
 20
529.5869161927324
 30
0.0
 11
1473.640224494999
 21
529.5869161927324
 31
0.0
  0
LINE
  5
5F55
330
1E
100
AcDbEntity
  8
躯体と製品
  6
Continuous
 62
     2
100
AcDbLine
 10
1492.840224494999
 20
525.7869161927324
 30
0.0
 11
1476.840224494999
 21
525.7869161927324
 31
0.0
  0
LINE
  5
5F56
330
1E
100
AcDbEntity
  8
躯体と製品
  6
Continuous
 62
     4
100
AcDbLine
 10
1472.440224494999
 20
530.7869161927324
 30
0.0
 11
1492.640224494999
 21
530.7869161927324
 31
0.0
  0
LINE
  5
5F58
330
1E
100
AcDbEntity
  8
躯体と製品
  6
Continuous
 62
     4
100
AcDbLine
 10
1481.640224494999
 20
524.5869161927324
 30
0.0
 11
1481.640224494999
 21
516.5869161927324
 31
0.0
  0
LINE
  5
5F59
330
1E
100
AcDbEntity
  8
躯体と製品
  6
Continuous
 62
     4
100
AcDbLine
 10
1480.440224494999
 20
523.3869161927324
 30
0.0
 11
1480.440224494999
 21
517.7869101927324
 31
0.0
  0
LINE
  5
5F5A
330
1E
100
AcDbEntity
  8
躯体と製品
  6
Continuous
 62
     4
100
AcDbLine
 10
1469.140224494999
 20
516.5869161927324
 30
0.0
 11
1470.140224494999
 21
516.5869161927324
 31
0.0
  0
LINE
  5
5F5B
330
1E
100
AcDbEntity
  8
躯体と製品
  6
Continuous
 62
     4
100
AcDbLine
 10
1461.140224494999
 20
516.5869161927324
 30
0.0
 11
1462.140224494999
 21
516.5869161927324
 31
0.0
  0
ARC
  5
5F5C
330
1E
100
AcDbEntity
  8
躯体と製品
  6
Continuous
 62
     4
100
AcDbCircle
 10
1458.640224494999
 20
516.5869161927324
 30
0.0
 40
0.5
100
AcDbArc
 50
0.0
 51
180.0
  0
ARC
  5
5F5D
330
1E
100
AcDbEntity
  8
躯体と製品
  6
Continuous
 62
     4
100
AcDbCircle
 10
1456.640224494999
 20
516.5869161927324
 30
0.0
 40
0.5
100
AcDbArc
 50
0.0
 51
180.0
  0
LINE
  5
5F5E
330
1E
100
AcDbEntity
  8
躯体と製品
  6
Continuous
 62
     4
100
AcDbLine
 10
1457.140224494999
 20
516.5869161927324
 30
0.0
 11
1458.140224494999
 21
516.5869161927324
 31
0.0
  0
LINE
  5
5F5F
330
1E
100
AcDbEntity
  8
躯体と製品
  6
Continuous
 62
     4
100
AcDbLine
 10
1455.140224494999
 20
516.5869161927324
 30
0.0
 11
1456.140224494999
 21
516.5869161927324
 31
0.0
  0
ARC
  5
5F60
330
1E
100
AcDbEntity
  8
躯体と製品
  6
Continuous
 62
     4
100
AcDbCircle
 10
1460.640224494999
 20
516.5869161927324
 30
0.0
 40
0.5
100
AcDbArc
 50
0.0
 51
180.0
  0
LINE
  5
5F61
330
1E
100
AcDbEntity
  8
躯体と製品
  6
Continuous
 62
     4
100
AcDbLine
 10
1459.140224494999
 20
516.5869161927324
 30
0.0
 11
1460.140224494999
 21
516.5869161927324
 31
0.0
  0
LINE
  5
5F62
330
1E
100
AcDbEntity
  8
躯体と製品
  6
Continuous
 62
     4
100
AcDbLine
 10
1465.140224494999
 20
516.5869161927324
 30
0.0
 11
1466.140224494999
 21
516.5869161927324
 31
0.0
  0
ARC
  5
5F63
330
1E
100
AcDbEntity
  8
躯体と製品
  6
Continuous
 62
     4
100
AcDbCircle
 10
1464.640224494999
 20
516.5869161927324
 30
0.0
 40
0.5
100
AcDbArc
 50
0.0
 51
180.0
  0
ARC
  5
5F64
330
1E
100
AcDbEntity
  8
躯体と製品
  6
Continuous
 62
     4
100
AcDbCircle
 10
1462.640224494999
 20
516.5869161927324
 30
0.0
 40
0.5
100
AcDbArc
 50
0.0
 51
180.0
  0
LINE
  5
5F65
330
1E
100
AcDbEntity
  8
躯体と製品
  6
Continuous
 62
     4
100
AcDbLine
 10
1463.140224494999
 20
516.5869161927324
 30
0.0
 11
1464.140224494999
 21
516.5869161927324
 31
0.0
  0
ARC
  5
5F66
330
1E
100
AcDbEntity
  8
躯体と製品
  6
Continuous
 62
     4
100
AcDbCircle
 10
1466.640224494999
 20
516.5869161927324
 30
0.0
 40
0.5
100
AcDbArc
 50
0.0
 51
180.0
  0
ARC
  5
5F67
330
1E
100
AcDbEntity
  8
躯体と製品
  6
Continuous
 62
     4
100
AcDbCircle
 10
1468.640224494999
 20
516.5869161927324
 30
0.0
 40
0.5
100
AcDbArc
 50
0.0
 51
180.0
  0
LINE
  5
5F68
330
1E
100
AcDbEntity
  8
躯体と製品
  6
Continuous
 62
     4
100
AcDbLine
 10
1467.140224494999
 20
516.5869161927324
 30
0.0
 11
1468.140224494999
 21
516.5869161927324
 31
0.0
  0
LINE
  5
5F6D
330
1E
100
AcDbEntity
  8
躯体と製品
  6
Continuous
 62
     4
100
AcDbLine
 10
1477.140224494999
 20
516.5869161927324
 30
0.0
 11
1478.140224494999
 21
516.5869161927324
 31
0.0
  0
LINE
  5
5F6E
330
1E
100
AcDbEntity
  8
躯体と製品
  6
Continuous
 62
     4
100
AcDbLine
 10
1473.140224494999
 20
516.5869161927324
 30
0.0
 11
1474.140224494999
 21
516.5869161927324
 31
0.0
  0
ARC
  5
5F6F
330
1E
100
AcDbEntity
  8
躯体と製品
  6
Continuous
 62
     4
100
AcDbCircle
 10
1472.640224494999
 20
516.5869161927324
 30
0.0
 40
0.5
100
AcDbArc
 50
0.0
 51
180.0
  0
ARC
  5
5F70
330
1E
100
AcDbEntity
  8
躯体と製品
  6
Continuous
 62
     4
100
AcDbCircle
 10
1470.640224494999
 20
516.5869161927324
 30
0.0
 40
0.5
100
AcDbArc
 50
0.0
 51
180.0
  0
LINE
  5
5F71
330
1E
100
AcDbEntity
  8
躯体と製品
  6
Continuous
 62
     4
100
AcDbLine
 10
1471.140224494999
 20
516.5869161927324
 30
0.0
 11
1472.140224494999
 21
516.5869161927324
 31
0.0
  0
ARC
  5
5F72
330
1E
100
AcDbEntity
  8
躯体と製品
  6
Continuous
 62
     4
100
AcDbCircle
 10
1474.640224494999
 20
516.5869161927324
 30
0.0
 40
0.5
100
AcDbArc
 50
0.0
 51
180.0
  0
ARC
  5
5F73
330
1E
100
AcDbEntity
  8
躯体と製品
  6
Continuous
 62
     4
100
AcDbCircle
 10
1476.640224494999
 20
516.5869161927324
 30
0.0
 40
0.5
100
AcDbArc
 50
0.0
 51
180.0
  0
LINE
  5
5F74
330
1E
100
AcDbEntity
  8
躯体と製品
  6
Continuous
 62
     4
100
AcDbLine
 10
1475.140224494999
 20
516.5869161927324
 30
0.0
 11
1476.140224494999
 21
516.5869161927324
 31
0.0
  0
ARC
  5
5F75
330
1E
100
AcDbEntity
  8
躯体と製品
  6
Continuous
 62
     4
100
AcDbCircle
 10
1480.640224494999
 20
516.5869161927324
 30
0.0
 40
0.5
100
AcDbArc
 50
0.0
 51
180.0
  0
ARC
  5
5F76
330
1E
100
AcDbEntity
  8
躯体と製品
  6
Continuous
 62
     4
100
AcDbCircle
 10
1478.640224494999
 20
516.5869161927324
 30
0.0
 40
0.5
100
AcDbArc
 50
0.0
 51
180.0
  0
LINE
  5
5F77
330
1E
100
AcDbEntity
  8
躯体と製品
  6
Continuous
 62
     4
100
AcDbLine
 10
1479.140224494999
 20
516.5869161927324
 30
0.0
 11
1480.140224494999
 21
516.5869161927324
 31
0.0
  0
LINE
  5
5F78
330
1E
100
AcDbEntity
  8
躯体と製品
  6
Continuous
 62
     4
100
AcDbLine
 10
1481.140224494999
 20
516.5869161927324
 30
0.0
 11
1481.640224494999
 21
516.5869161927324
 31
0.0
  0
LINE
  5
5F82
330
1E
100
AcDbEntity
  8
躯体と製品
  6
Continuous
 62
     4
100
AcDbLine
 10
1481.640224494999
 20
524.5869161927324
 30
0.0
 11
1473.640224494999
 21
524.5869161927324
 31
0.0
  0
LINE
  5
5F83
330
1E
100
AcDbEntity
  8
躯体と製品
  6
Continuous
 62
     4
100
AcDbLine
 10
1472.440224494999
 20
523.3869161927324
 30
0.0
 11
1480.440224494999
 21
523.3869161927324
 31
0.0
  0
LINE
  5
5F84
330
1E
100
AcDbEntity
  8
躯体と製品
  6
Continuous
 62
     2
100
AcDbLine
 10
1475.640224494999
 20
528.4869161927324
 30
0.0
 11
1475.640224494999
 21
524.5869161927324
 31
0.0
  0
LINE
  5
5F85
330
1E
100
AcDbEntity
  8
躯体と製品
  6
Continuous
 62
     4
100
AcDbLine
 10
1472.440224494999
 20
523.3869161927324
 30
0.0
 11
1472.440224494999
 21
530.7869161927324
 31
0.0
  0
LINE
  5
5F86
330
1E
100
AcDbEntity
  8
躯体と製品
  6
Continuous
 62
     2
100
AcDbLine
 10
1476.840224494999
 20
528.4869161927324
 30
0.0
 11
1476.840224494999
 21
525.7869161927324
 31
0.0
  0
LINE
  5
5F87
330
1E
100
AcDbEntity
  8
躯体と製品
  6
Continuous
 62
     4
100
AcDbLine
 10
1473.640224494999
 20
524.5869161927324
 30
0.0
 11
1473.640224494999
 21
529.5869161927324
 31
0.0
  0
ARC
  5
5F88
330
1E
100
AcDbEntity
  8
躯体と製品
  6
Continuous
 62
     2
100
AcDbCircle
 10
1476.240224494999
 20
528.4869161927324
 30
0.0
 40
0.6
100
AcDbArc
 50
0.0
 51
180.0
  0
LINE
  5
5F91
330
1E
100
AcDbEntity
  8
躯体と製品
  6
Continuous
 62
     2
100
AcDbLine
 10
1491.640224494999
 20
516.5869161927324
 30
0.0
 11
1491.640224494999
 21
524.5869161927324
 31
0.0
  0
LINE
  5
5F93
330
1E
100
AcDbEntity
  8
躯体と製品
  6
Continuous
 62
     2
100
AcDbLine
 10
1492.840224494999
 20
517.7864231927324
 30
0.0
 11
1492.840224494999
 21
525.7869161927324
 31
0.0
  0
ARC
  5
5F94
330
1E
100
AcDbEntity
  8
躯体と製品
  6
Continuous
 62
     2
100
AcDbCircle
 10
1500.640224494999
 20
516.5869161927324
 30
0.0
 40
0.5
100
AcDbArc
 50
0.0
 51
180.0
  0
LINE
  5
5F95
330
1E
100
AcDbEntity
  8
躯体と製品
  6
Continuous
 62
     2
100
AcDbLine
 10
1511.571617494999
 20
517.7864231927324
 30
0.0
 11
1492.840224494999
 21
517.7864231927324
 31
0.0
  0
ARC
  5
5F98
330
1E
100
AcDbEntity
  8
躯体と製品
  6
Continuous
 62
     2
100
AcDbCircle
 10
1492.640224494999
 20
516.5869161927324
 30
0.0
 40
0.5
100
AcDbArc
 50
0.0
 51
180.0
  0
LINE
  5
5F99
330
1E
100
AcDbEntity
  8
躯体と製品
  6
Continuous
 62
     2
100
AcDbLine
 10
1491.640224494999
 20
516.5869161927324
 30
0.0
 11
1492.140224494999
 21
516.5869131927324
 31
0.0
  0
ARC
  5
5F9A
330
1E
100
AcDbEntity
  8
躯体と製品
  6
Continuous
 62
     2
100
AcDbCircle
 10
1496.640224494999
 20
516.5869161927324
 30
0.0
 40
0.5
100
AcDbArc
 50
0.0
 51
180.0
  0
LINE
  5
5F9B
330
1E
100
AcDbEntity
  8
躯体と製品
  6
Continuous
 62
     2
100
AcDbLine
 10
1495.140224494999
 20
516.5869051927325
 30
0.0
 11
1496.140224494999
 21
516.5869171927324
 31
0.0
  0
LINE
  5
5F9C
330
1E
100
AcDbEntity
  8
躯体と製品
  6
Continuous
 62
     2
100
AcDbLine
 10
1493.140224494999
 20
516.5869091927325
 30
0.0
 11
1494.140224494999
 21
516.5869051927325
 31
0.0
  0
ARC
  5
5F9D
330
1E
100
AcDbEntity
  8
躯体と製品
  6
Continuous
 62
     2
100
AcDbCircle
 10
1494.640224494999
 20
516.5869161927324
 30
0.0
 40
0.5
100
AcDbArc
 50
0.0
 51
180.0
  0
ARC
  5
5F9E
330
1E
100
AcDbEntity
  8
躯体と製品
  6
Continuous
 62
     2
100
AcDbCircle
 10
1498.640224494999
 20
516.5869161927324
 30
0.0
 40
0.5
100
AcDbArc
 50
0.0
 51
180.0
  0
LINE
  5
5F9F
330
1E
100
AcDbEntity
  8
躯体と製品
  6
Continuous
 62
     2
100
AcDbLine
 10
1499.140224494999
 20
516.5869161927324
 30
0.0
 11
1500.140224494999
 21
516.5869161927324
 31
0.0
  0
LINE
  5
5FA0
330
1E
100
AcDbEntity
  8
躯体と製品
  6
Continuous
 62
     2
100
AcDbLine
 10
1497.140224494999
 20
516.5869171927324
 30
0.0
 11
1498.140224494999
 21
516.5869161927324
 31
0.0
  0
LINE
  5
5FA1
330
1E
100
AcDbEntity
  8
躯体と製品
  6
Continuous
 62
     2
100
AcDbLine
 10
1507.140224494999
 20
516.5869161927324
 30
0.0
 11
1508.140224494999
 21
516.5869161927324
 31
0.0
  0
LINE
  5
5FA2
330
1E
100
AcDbEntity
  8
躯体と製品
  6
Continuous
 62
     2
100
AcDbLine
 10
1503.140224494999
 20
516.5869161927324
 30
0.0
 11
1504.140224494999
 21
516.5869161927324
 31
0.0
  0
ARC
  5
5FA3
330
1E
100
AcDbEntity
  8
躯体と製品
  6
Continuous
 62
     2
100
AcDbCircle
 10
1502.640224494999
 20
516.5869161927324
 30
0.0
 40
0.5
100
AcDbArc
 50
0.0
 51
180.0
  0
LINE
  5
5FA4
330
1E
100
AcDbEntity
  8
躯体と製品
  6
Continuous
 62
     2
100
AcDbLine
 10
1501.140224494999
 20
516.5869161927324
 30
0.0
 11
1502.140224494999
 21
516.5869161927324
 31
0.0
  0
ARC
  5
5FA5
330
1E
100
AcDbEntity
  8
躯体と製品
  6
Continuous
 62
     2
100
AcDbCircle
 10
1504.640224494999
 20
516.5869161927324
 30
0.0
 40
0.5
100
AcDbArc
 50
0.0
 51
180.0
  0
ARC
  5
5FA6
330
1E
100
AcDbEntity
  8
躯体と製品
  6
Continuous
 62
     2
100
AcDbCircle
 10
1506.640224494999
 20
516.5869161927324
 30
0.0
 40
0.5
100
AcDbArc
 50
0.0
 51
180.0
  0
LINE
  5
5FA7
330
1E
100
AcDbEntity
  8
躯体と製品
  6
Continuous
 62
     2
100
AcDbLine
 10
1505.140224494999
 20
516.5869161927324
 30
0.0
 11
1506.140224494999
 21
516.5869161927324
 31
0.0
  0
LINE
  5
5FA8
330
1E
100
AcDbEntity
  8
躯体と製品
  6
Continuous
 62
     2
100
AcDbLine
 10
1511.571617494999
 20
516.5869161927324
 30
0.0
 11
1511.140224494999
 21
516.5869161927324
 31
0.0
  0
ARC
  5
5FA9
330
1E
100
AcDbEntity
  8
躯体と製品
  6
Continuous
 62
     2
100
AcDbCircle
 10
1510.640224494999
 20
516.5869161927324
 30
0.0
 40
0.5
100
AcDbArc
 50
0.0
 51
180.0
  0
ARC
  5
5FAA
330
1E
100
AcDbEntity
  8
躯体と製品
  6
Continuous
 62
     2
100
AcDbCircle
 10
1508.640224494999
 20
516.5869161927324
 30
0.0
 40
0.5
100
AcDbArc
 50
0.0
 51
180.0
  0
LINE
  5
5FAB
330
1E
100
AcDbEntity
  8
躯体と製品
  6
Continuous
 62
     2
100
AcDbLine
 10
1509.140224494999
 20
516.5869161927324
 30
0.0
 11
1510.140224494999
 21
516.5869161927324
 31
0.0
  0
LINE
  5
5FAD
330
1E
100
AcDbEntity
  8
躯体と製品
  6
PLINE3
 62
     3
100
AcDbLine
 10
1486.940224494999
 20
538.1103831927324
 30
0.0
 11
1486.940224494999
 21
526.7789541927324
 31
0.0
  0
ARC
  5
5FAE
330
1E
100
AcDbEntity
  8
躯体と製品
  6
Continuous
 62
     4
100
AcDbCircle
 10
1492.040224494999
 20
528.3869161927324
 30
0.0
 40
0.6
100
AcDbArc
 50
180.0
 51
0.0
  0
LINE
  5
5FAF
330
1E
100
AcDbEntity
  8
躯体と製品
  6
Continuous
 62
     4
100
AcDbLine
 10
1487.244224494999
 20
529.5869161927324
 30
0.0
 11
1491.440224494999
 21
529.5869161927324
 31
0.0
  0
LINE
  5
5FB0
330
1E
100
AcDbEntity
  8
躯体と製品
  6
Continuous
 62
     4
100
AcDbLine
 10
1486.940224494999
 20
529.8869161927324
 30
0.0
 11
1487.244224494999
 21
529.5829161927324
 31
0.0
  0
LINE
  5
5FB1
330
1E
100
AcDbEntity
  8
躯体と製品
  6
Continuous
 62
     4
100
AcDbLine
 10
1486.940224494999
 20
529.8869161927324
 30
0.0
 11
1486.636224494999
 21
529.5829161927324
 31
0.0
  0
LINE
  5
5FB2
330
1E
100
AcDbEntity
  8
躯体と製品
  6
Continuous
 62
     4
100
AcDbLine
 10
1491.440224494999
 20
528.3869161927324
 30
0.0
 11
1491.440224494999
 21
529.5869161927324
 31
0.0
  0
LINE
  5
5FB3
330
1E
100
AcDbEntity
  8
躯体と製品
  6
Continuous
 62
     4
100
AcDbLine
 10
1492.640224494999
 20
528.3869161927324
 30
0.0
 11
1492.640224494999
 21
530.7869161927324
 31
0.0
  0
LINE
  5
5FCD
330
1E
100
AcDbEntity
  8
躯体と製品
  6
Continuous
 62
     2
100
AcDbLine
 10
1450.640224494999
 20
650.0224001927324
 30
0.0
 11
1466.640224494999
 21
650.0224001927324
 31
0.0
  0
LINE
  5
5FCE
330
1E
100
AcDbEntity
  8
躯体と製品
  6
Continuous
 62
     2
100
AcDbLine
 10
1451.640224494999
 20
651.0224001927324
 30
0.0
 11
1467.640224494999
 21
651.0224001927324
 31
0.0
  0
LINE
  5
5FCF
330
1E
100
AcDbEntity
  8
躯体と製品
  6
Continuous
 62
     4
100
AcDbLine
 10
1448.640224494999
 20
655.0224001927325
 30
0.0
 11
1461.836224494999
 21
655.0224001927325
 31
0.0
  0
LINE
  5
5FD0
330
1E
100
AcDbEntity
  8
躯体と製品
  6
Continuous
 62
     4
100
AcDbLine
 10
1448.640224494999
 20
650.0224001927324
 30
0.0
 11
1456.640224494999
 21
650.0224001927324
 31
0.0
  0
LINE
  5
5FD1
330
1E
100
AcDbEntity
  8
躯体と製品
  6
Continuous
 62
     4
100
AcDbLine
 10
1454.140224494999
 20
642.0224001927324
 30
0.0
 11
1455.140224494999
 21
642.0224001927324
 31
0.0
  0
LINE
  5
5FD2
330
1E
100
AcDbEntity
  8
躯体と製品
  6
Continuous
 62
     4
100
AcDbLine
 10
1447.640224494999
 20
656.0224001927324
 30
0.0
 11
1467.640224494999
 21
656.0224001927324
 31
0.0
  0
LINE
  5
5FD3
330
1E
100
AcDbEntity
  8
躯体と製品
  6
Continuous
 62
     4
100
AcDbLine
 10
1447.640224494999
 20
649.0224001927324
 30
0.0
 11
1455.640224494999
 21
649.0224001927324
 31
0.0
  0
ARC
  5
5FD4
330
1E
100
AcDbEntity
  8
躯体と製品
  6
Continuous
 62
     4
100
AcDbCircle
 10
1423.640224494999
 20
642.0224001927324
 30
0.0
 40
0.5
100
AcDbArc
 50
0.0
 51
180.0
  0
LINE
  5
5FD6
330
1E
100
AcDbEntity
  8
躯体と製品
  6
Continuous
 62
     4
100
AcDbLine
 10
1408.140224494999
 20
642.0224001927324
 30
0.0
 11
1409.140224494999
 21
642.0224001927324
 31
0.0
  0
LINE
  5
5FD7
330
1E
100
AcDbEntity
  8
躯体と製品
  6
Continuous
 62
     4
100
AcDbLine
 10
1400.140224494999
 20
642.0224001927324
 30
0.0
 11
1401.140224494999
 21
642.0224001927324
 31
0.0
  0
ARC
  5
5FD8
330
1E
100
AcDbEntity
  8
躯体と製品
  6
Continuous
 62
     4
100
AcDbCircle
 10
1397.640224494999
 20
642.0224001927324
 30
0.0
 40
0.5
100
AcDbArc
 50
0.0
 51
180.0
  0
ARC
  5
5FD9
330
1E
100
AcDbEntity
  8
躯体と製品
  6
Continuous
 62
     4
100
AcDbCircle
 10
1395.640224494999
 20
642.0224001927324
 30
0.0
 40
0.5
100
AcDbArc
 50
0.0
 51
180.0
  0
LINE
  5
5FDA
330
1E
100
AcDbEntity
  8
躯体と製品
  6
Continuous
 62
     4
100
AcDbLine
 10
1396.140224494999
 20
642.0224001927324
 30
0.0
 11
1397.140224494999
 21
642.0224001927324
 31
0.0
  0
LINE
  5
5FDB
330
1E
100
AcDbEntity
  8
躯体と製品
  6
Continuous
 62
     4
100
AcDbLine
 10
1394.140224494999
 20
642.0224001927324
 30
0.0
 11
1395.140224494999
 21
642.0224001927324
 31
0.0
  0
ARC
  5
5FDC
330
1E
100
AcDbEntity
  8
躯体と製品
  6
Continuous
 62
     4
100
AcDbCircle
 10
1399.640224494999
 20
642.0224001927324
 30
0.0
 40
0.5
100
AcDbArc
 50
0.0
 51
180.0
  0
LINE
  5
5FDD
330
1E
100
AcDbEntity
  8
躯体と製品
  6
Continuous
 62
     4
100
AcDbLine
 10
1398.140224494999
 20
642.0224001927324
 30
0.0
 11
1399.140224494999
 21
642.0224001927324
 31
0.0
  0
LINE
  5
5FDE
330
1E
100
AcDbEntity
  8
躯体と製品
  6
Continuous
 62
     4
100
AcDbLine
 10
1404.140224494999
 20
642.0224001927324
 30
0.0
 11
1405.140224494999
 21
642.0224001927324
 31
0.0
  0
ARC
  5
5FDF
330
1E
100
AcDbEntity
  8
躯体と製品
  6
Continuous
 62
     4
100
AcDbCircle
 10
1401.640224494999
 20
642.0224001927324
 30
0.0
 40
0.5
100
AcDbArc
 50
0.0
 51
180.0
  0
ARC
  5
5FE0
330
1E
100
AcDbEntity
  8
躯体と製品
  6
Continuous
 62
     4
100
AcDbCircle
 10
1403.640224494999
 20
642.0224001927324
 30
0.0
 40
0.5
100
AcDbArc
 50
0.0
 51
180.0
  0
LINE
  5
5FE1
330
1E
100
AcDbEntity
  8
躯体と製品
  6
Continuous
 62
     4
100
AcDbLine
 10
1402.140224494999
 20
642.0224001927324
 30
0.0
 11
1403.140224494999
 21
642.0224001927324
 31
0.0
  0
ARC
  5
5FE2
330
1E
100
AcDbEntity
  8
躯体と製品
  6
Continuous
 62
     4
100
AcDbCircle
 10
1407.640224494999
 20
642.0224001927324
 30
0.0
 40
0.5
100
AcDbArc
 50
0.0
 51
180.0
  0
ARC
  5
5FE3
330
1E
100
AcDbEntity
  8
躯体と製品
  6
Continuous
 62
     4
100
AcDbCircle
 10
1405.640224494999
 20
642.0224001927324
 30
0.0
 40
0.5
100
AcDbArc
 50
0.0
 51
180.0
  0
LINE
  5
5FE4
330
1E
100
AcDbEntity
  8
躯体と製品
  6
Continuous
 62
     4
100
AcDbLine
 10
1406.140224494999
 20
642.0224001927324
 30
0.0
 11
1407.140224494999
 21
642.0224001927324
 31
0.0
  0
LINE
  5
5FE5
330
1E
100
AcDbEntity
  8
躯体と製品
  6
Continuous
 62
     4
100
AcDbLine
 10
1416.140224494999
 20
642.0224001927324
 30
0.0
 11
1417.140224494999
 21
642.0224001927324
 31
0.0
  0
LINE
  5
5FE6
330
1E
100
AcDbEntity
  8
躯体と製品
  6
Continuous
 62
     4
100
AcDbLine
 10
1412.140224494999
 20
642.0224001927324
 30
0.0
 11
1413.140224494999
 21
642.0224001927324
 31
0.0
  0
ARC
  5
5FE7
330
1E
100
AcDbEntity
  8
躯体と製品
  6
Continuous
 62
     4
100
AcDbCircle
 10
1409.640224494999
 20
642.0224001927324
 30
0.0
 40
0.5
100
AcDbArc
 50
0.0
 51
180.0
  0
ARC
  5
5FE8
330
1E
100
AcDbEntity
  8
躯体と製品
  6
Continuous
 62
     4
100
AcDbCircle
 10
1411.640224494999
 20
642.0224001927324
 30
0.0
 40
0.5
100
AcDbArc
 50
0.0
 51
180.0
  0
LINE
  5
5FE9
330
1E
100
AcDbEntity
  8
躯体と製品
  6
Continuous
 62
     4
100
AcDbLine
 10
1410.140224494999
 20
642.0224001927324
 30
0.0
 11
1411.140224494999
 21
642.0224001927324
 31
0.0
  0
ARC
  5
5FEA
330
1E
100
AcDbEntity
  8
躯体と製品
  6
Continuous
 62
     4
100
AcDbCircle
 10
1415.640224494999
 20
642.0224001927324
 30
0.0
 40
0.5
100
AcDbArc
 50
0.0
 51
180.0
  0
ARC
  5
5FEB
330
1E
100
AcDbEntity
  8
躯体と製品
  6
Continuous
 62
     4
100
AcDbCircle
 10
1413.640224494999
 20
642.0224001927324
 30
0.0
 40
0.5
100
AcDbArc
 50
0.0
 51
180.0
  0
LINE
  5
5FEC
330
1E
100
AcDbEntity
  8
躯体と製品
  6
Continuous
 62
     4
100
AcDbLine
 10
1414.140224494999
 20
642.0224001927324
 30
0.0
 11
1415.140224494999
 21
642.0224001927324
 31
0.0
  0
LINE
  5
5FED
330
1E
100
AcDbEntity
  8
躯体と製品
  6
Continuous
 62
     4
100
AcDbLine
 10
1420.140224494999
 20
642.0224001927324
 30
0.0
 11
1421.140224494999
 21
642.0224001927324
 31
0.0
  0
ARC
  5
5FEE
330
1E
100
AcDbEntity
  8
躯体と製品
  6
Continuous
 62
     4
100
AcDbCircle
 10
1417.640224494999
 20
642.0224001927324
 30
0.0
 40
0.5
100
AcDbArc
 50
0.0
 51
180.0
  0
ARC
  5
5FEF
330
1E
100
AcDbEntity
  8
躯体と製品
  6
Continuous
 62
     4
100
AcDbCircle
 10
1419.640224494999
 20
642.0224001927324
 30
0.0
 40
0.5
100
AcDbArc
 50
0.0
 51
180.0
  0
LINE
  5
5FF0
330
1E
100
AcDbEntity
  8
躯体と製品
  6
Continuous
 62
     4
100
AcDbLine
 10
1418.140224494999
 20
642.0224001927324
 30
0.0
 11
1419.140224494999
 21
642.0224001927324
 31
0.0
  0
ARC
  5
5FF1
330
1E
100
AcDbEntity
  8
躯体と製品
  6
Continuous
 62
     4
100
AcDbCircle
 10
1421.640224494999
 20
642.0224001927324
 30
0.0
 40
0.5
100
AcDbArc
 50
0.0
 51
180.0
  0
LINE
  5
5FF2
330
1E
100
AcDbEntity
  8
躯体と製品
  6
Continuous
 62
     4
100
AcDbLine
 10
1422.140224494999
 20
642.0224001927324
 30
0.0
 11
1423.140224494999
 21
642.0224001927324
 31
0.0
  0
LINE
  5
5FF3
330
1E
100
AcDbEntity
  8
躯体と製品
  6
Continuous
 62
     4
100
AcDbLine
 10
1447.640224494999
 20
649.0224001927324
 30
0.0
 11
1447.640224494999
 21
656.0224001927324
 31
0.0
  0
ARC
  5
5FF4
330
1E
100
AcDbEntity
  8
躯体と製品
  6
Continuous
 62
     4
100
AcDbCircle
 10
1439.640224494999
 20
642.0224001927324
 30
0.0
 40
0.5
100
AcDbArc
 50
0.0
 51
180.0
  0
ARC
  5
5FF5
330
1E
100
AcDbEntity
  8
躯体と製品
  6
Continuous
 62
     4
100
AcDbCircle
 10
1431.640224494999
 20
642.0224001927324
 30
0.0
 40
0.5
100
AcDbArc
 50
0.0
 51
180.0
  0
ARC
  5
5FF6
330
1E
100
AcDbEntity
  8
躯体と製品
  6
Continuous
 62
     4
100
AcDbCircle
 10
1427.640224494999
 20
642.0224001927324
 30
0.0
 40
0.5
100
AcDbArc
 50
0.0
 51
180.0
  0
ARC
  5
5FF7
330
1E
100
AcDbEntity
  8
躯体と製品
  6
Continuous
 62
     4
100
AcDbCircle
 10
1425.640224494999
 20
642.0224001927324
 30
0.0
 40
0.5
100
AcDbArc
 50
0.0
 51
180.0
  0
LINE
  5
5FF8
330
1E
100
AcDbEntity
  8
躯体と製品
  6
Continuous
 62
     4
100
AcDbLine
 10
1426.140224494999
 20
642.0224001927324
 30
0.0
 11
1427.140224494999
 21
642.0224001927324
 31
0.0
  0
LINE
  5
5FF9
330
1E
100
AcDbEntity
  8
躯体と製品
  6
Continuous
 62
     4
100
AcDbLine
 10
1424.140224494999
 20
642.0224001927324
 30
0.0
 11
1425.140224494999
 21
642.0224001927324
 31
0.0
  0
ARC
  5
5FFA
330
1E
100
AcDbEntity
  8
躯体と製品
  6
Continuous
 62
     4
100
AcDbCircle
 10
1429.640224494999
 20
642.0224001927324
 30
0.0
 40
0.5
100
AcDbArc
 50
0.0
 51
180.0
  0
LINE
  5
5FFB
330
1E
100
AcDbEntity
  8
躯体と製品
  6
Continuous
 62
     4
100
AcDbLine
 10
1430.140224494999
 20
642.0224001927324
 30
0.0
 11
1431.140224494999
 21
642.0224001927324
 31
0.0
  0
LINE
  5
5FFC
330
1E
100
AcDbEntity
  8
躯体と製品
  6
Continuous
 62
     4
100
AcDbLine
 10
1428.140224494999
 20
642.0224001927324
 30
0.0
 11
1429.140224494999
 21
642.0224001927324
 31
0.0
  0
ARC
  5
5FFD
330
1E
100
AcDbEntity
  8
躯体と製品
  6
Continuous
 62
     4
100
AcDbCircle
 10
1435.640224494999
 20
642.0224001927324
 30
0.0
 40
0.5
100
AcDbArc
 50
0.0
 51
180.0
  0
ARC
  5
5FFE
330
1E
100
AcDbEntity
  8
躯体と製品
  6
Continuous
 62
     4
100
AcDbCircle
 10
1433.640224494999
 20
642.0224001927324
 30
0.0
 40
0.5
100
AcDbArc
 50
0.0
 51
180.0
  0
LINE
  5
5FFF
330
1E
100
AcDbEntity
  8
躯体と製品
  6
Continuous
 62
     4
100
AcDbLine
 10
1434.140224494999
 20
642.0224001927324
 30
0.0
 11
1435.140224494999
 21
642.0224001927324
 31
0.0
  0
LINE
  5
6000
330
1E
100
AcDbEntity
  8
躯体と製品
  6
Continuous
 62
     4
100
AcDbLine
 10
1432.140224494999
 20
642.0224001927324
 30
0.0
 11
1433.140224494999
 21
642.0224001927324
 31
0.0
  0
ARC
  5
6001
330
1E
100
AcDbEntity
  8
躯体と製品
  6
Continuous
 62
     4
100
AcDbCircle
 10
1437.640224494999
 20
642.0224001927324
 30
0.0
 40
0.5
100
AcDbArc
 50
0.0
 51
180.0
  0
LINE
  5
6002
330
1E
100
AcDbEntity
  8
躯体と製品
  6
Continuous
 62
     4
100
AcDbLine
 10
1438.140224494999
 20
642.0224001927324
 30
0.0
 11
1439.140224494999
 21
642.0224001927324
 31
0.0
  0
LINE
  5
6003
330
1E
100
AcDbEntity
  8
躯体と製品
  6
Continuous
 62
     4
100
AcDbLine
 10
1436.140224494999
 20
642.0224001927324
 30
0.0
 11
1437.140224494999
 21
642.0224001927324
 31
0.0
  0
LINE
  5
6004
330
1E
100
AcDbEntity
  8
躯体と製品
  6
Continuous
 62
     4
100
AcDbLine
 10
1446.140224494999
 20
642.0224001927324
 30
0.0
 11
1447.140224494999
 21
642.0224001927324
 31
0.0
  0
LINE
  5
6005
330
1E
100
AcDbEntity
  8
躯体と製品
  6
Continuous
 62
     4
100
AcDbLine
 10
1442.140224494999
 20
642.0224001927324
 30
0.0
 11
1443.140224494999
 21
642.0224001927324
 31
0.0
  0
ARC
  5
6006
330
1E
100
AcDbEntity
  8
躯体と製品
  6
Continuous
 62
     4
100
AcDbCircle
 10
1441.640224494999
 20
642.0224001927324
 30
0.0
 40
0.5
100
AcDbArc
 50
0.0
 51
180.0
  0
LINE
  5
6007
330
1E
100
AcDbEntity
  8
躯体と製品
  6
Continuous
 62
     4
100
AcDbLine
 10
1440.140224494999
 20
642.0224001927324
 30
0.0
 11
1441.140224494999
 21
642.0224001927324
 31
0.0
  0
ARC
  5
6008
330
1E
100
AcDbEntity
  8
躯体と製品
  6
Continuous
 62
     4
100
AcDbCircle
 10
1443.640224494999
 20
642.0224001927324
 30
0.0
 40
0.5
100
AcDbArc
 50
0.0
 51
180.0
  0
ARC
  5
6009
330
1E
100
AcDbEntity
  8
躯体と製品
  6
Continuous
 62
     4
100
AcDbCircle
 10
1445.640224494999
 20
642.0224001927324
 30
0.0
 40
0.5
100
AcDbArc
 50
0.0
 51
180.0
  0
LINE
  5
600A
330
1E
100
AcDbEntity
  8
躯体と製品
  6
Continuous
 62
     4
100
AcDbLine
 10
1444.140224494999
 20
642.0224001927324
 30
0.0
 11
1445.140224494999
 21
642.0224001927324
 31
0.0
  0
LINE
  5
600B
330
1E
100
AcDbEntity
  8
躯体と製品
  6
Continuous
 62
     4
100
AcDbLine
 10
1450.140224494999
 20
642.0224001927324
 30
0.0
 11
1451.140224494999
 21
642.0224001927324
 31
0.0
  0
ARC
  5
600C
330
1E
100
AcDbEntity
  8
躯体と製品
  6
Continuous
 62
     4
100
AcDbCircle
 10
1447.640224494999
 20
642.0224001927324
 30
0.0
 40
0.5
100
AcDbArc
 50
0.0
 51
180.0
  0
ARC
  5
600D
330
1E
100
AcDbEntity
  8
躯体と製品
  6
Continuous
 62
     4
100
AcDbCircle
 10
1449.640224494999
 20
642.0224001927324
 30
0.0
 40
0.5
100
AcDbArc
 50
0.0
 51
180.0
  0
LINE
  5
600E
330
1E
100
AcDbEntity
  8
躯体と製品
  6
Continuous
 62
     4
100
AcDbLine
 10
1448.140224494999
 20
642.0224001927324
 30
0.0
 11
1449.140224494999
 21
642.0224001927324
 31
0.0
  0
ARC
  5
600F
330
1E
100
AcDbEntity
  8
躯体と製品
  6
Continuous
 62
     4
100
AcDbCircle
 10
1451.640224494999
 20
642.0224001927324
 30
0.0
 40
0.5
100
AcDbArc
 50
0.0
 51
180.0
  0
ARC
  5
6010
330
1E
100
AcDbEntity
  8
躯体と製品
  6
Continuous
 62
     4
100
AcDbCircle
 10
1453.640224494999
 20
642.0224001927324
 30
0.0
 40
0.5
100
AcDbArc
 50
0.0
 51
180.0
  0
LINE
  5
6011
330
1E
100
AcDbEntity
  8
躯体と製品
  6
Continuous
 62
     4
100
AcDbLine
 10
1452.140224494999
 20
642.0224001927324
 30
0.0
 11
1453.140224494999
 21
642.0224001927324
 31
0.0
  0
LINE
  5
6019
330
1E
100
AcDbEntity
  8
躯体と製品
  6
Continuous
 62
     4
100
AcDbLine
 10
1448.640224494999
 20
650.0224001927324
 30
0.0
 11
1448.640224494999
 21
655.0224001927325
 31
0.0
  0
LINE
  5
601A
330
1E
100
AcDbEntity
  8
躯体と製品
  6
Continuous
 62
     2
100
AcDbLine
 10
1450.640224494999
 20
654.0224001927324
 30
0.0
 11
1450.640224494999
 21
650.0224001927324
 31
0.0
  0
ARC
  5
601B
330
1E
100
AcDbEntity
  8
躯体と製品
  6
Continuous
 62
     2
100
AcDbCircle
 10
1451.140224494999
 20
654.0224001927324
 30
0.0
 40
0.5
100
AcDbArc
 50
0.0
 51
180.0
  0
LINE
  5
601C
330
1E
100
AcDbEntity
  8
躯体と製品
  6
Continuous
 62
     2
100
AcDbLine
 10
1451.640224494999
 20
654.0224001927324
 30
0.0
 11
1451.640224494999
 21
651.0224001927324
 31
0.0
  0
LINE
  5
6024
330
1E
100
AcDbEntity
  8
躯体と製品
  6
Continuous
 62
     2
100
AcDbLine
 10
1484.140224494999
 20
642.0224001927324
 30
0.0
 11
1485.140224494999
 21
642.0224001927324
 31
0.0
  0
LINE
  5
6025
330
1E
100
AcDbEntity
  8
躯体と製品
  6
Continuous
 62
     2
100
AcDbLine
 10
1486.571617494999
 20
643.0224001927324
 30
0.0
 11
1467.640224494999
 21
643.0224001927324
 31
0.0
  0
LINE
  5
6027
330
1E
100
AcDbEntity
  8
躯体と製品
  6
Continuous
 62
     2
100
AcDbLine
 10
1466.640224494999
 20
642.0224001927324
 30
0.0
 11
1466.640224494999
 21
650.0224001927324
 31
0.0
  0
LINE
  5
6028
330
1E
100
AcDbEntity
  8
躯体と製品
  6
Continuous
 62
     2
100
AcDbLine
 10
1467.640224494999
 20
651.0224001927324
 30
0.0
 11
1467.640224494999
 21
643.0224001927324
 31
0.0
  0
LINE
  5
6029
330
1E
100
AcDbEntity
  8
躯体と製品
  6
Continuous
 62
     4
100
AcDbLine
 10
1456.640224494999
 20
650.0224001927324
 30
0.0
 11
1456.640224494999
 21
642.0224001927324
 31
0.0
  0
ARC
  5
602A
330
1E
100
AcDbEntity
  8
躯体と製品
  6
Continuous
 62
     2
100
AcDbCircle
 10
1469.640224494999
 20
642.0224001927324
 30
0.0
 40
0.5
100
AcDbArc
 50
0.0
 51
180.0
  0
LINE
  5
6033
330
1E
100
AcDbEntity
  8
躯体と製品
  6
Continuous
 62
     4
100
AcDbLine
 10
1455.640224494999
 20
649.0224001927324
 30
0.0
 11
1455.640224494999
 21
643.0224001927324
 31
0.0
  0
ARC
  5
6034
330
1E
100
AcDbEntity
  8
躯体と製品
  6
Continuous
 62
     4
100
AcDbCircle
 10
1455.640224494999
 20
642.0224001927324
 30
0.0
 40
0.5
100
AcDbArc
 50
0.0
 51
180.0
  0
LINE
  5
6035
330
1E
100
AcDbEntity
  8
躯体と製品
  6
Continuous
 62
     4
100
AcDbLine
 10
1456.140224494999
 20
642.0224001927324
 30
0.0
 11
1456.640224494999
 21
642.0224001927324
 31
0.0
  0
LINE
  5
6036
330
1E
100
AcDbEntity
  8
躯体と製品
  6
Continuous
 62
     2
100
AcDbLine
 10
1468.140224494999
 20
642.0223931927324
 30
0.0
 11
1469.140224494999
 21
642.0223881927324
 31
0.0
  0
LINE
  5
6037
330
1E
100
AcDbEntity
  8
躯体と製品
  6
Continuous
 62
     2
100
AcDbLine
 10
1466.640224494999
 20
642.0224001927324
 30
0.0
 11
1467.140224494999
 21
642.0223971927324
 31
0.0
  0
ARC
  5
6038
330
1E
100
AcDbEntity
  8
躯体と製品
  6
Continuous
 62
     2
100
AcDbCircle
 10
1467.640224494999
 20
642.0224001927324
 30
0.0
 40
0.5
100
AcDbArc
 50
0.0
 51
180.0
  0
ARC
  5
6039
330
1E
100
AcDbEntity
  8
躯体と製品
  6
Continuous
 62
     2
100
AcDbCircle
 10
1477.640224494999
 20
642.0224001927324
 30
0.0
 40
0.5
100
AcDbArc
 50
0.0
 51
180.0
  0
ARC
  5
603A
330
1E
100
AcDbEntity
  8
躯体と製品
  6
Continuous
 62
     2
100
AcDbCircle
 10
1473.640224494999
 20
642.0224001927324
 30
0.0
 40
0.5
100
AcDbArc
 50
0.0
 51
180.0
  0
ARC
  5
603B
330
1E
100
AcDbEntity
  8
躯体と製品
  6
Continuous
 62
     2
100
AcDbCircle
 10
1471.640224494999
 20
642.0224001927324
 30
0.0
 40
0.5
100
AcDbArc
 50
0.0
 51
180.0
  0
LINE
  5
603C
330
1E
100
AcDbEntity
  8
躯体と製品
  6
Continuous
 62
     2
100
AcDbLine
 10
1472.140224494999
 20
642.0224001927324
 30
0.0
 11
1473.140224494999
 21
642.0223991927324
 31
0.0
  0
LINE
  5
603D
330
1E
100
AcDbEntity
  8
躯体と製品
  6
Continuous
 62
     2
100
AcDbLine
 10
1470.140224494999
 20
642.0223881927324
 30
0.0
 11
1471.140224494999
 21
642.0224001927324
 31
0.0
  0
ARC
  5
603E
330
1E
100
AcDbEntity
  8
躯体と製品
  6
Continuous
 62
     2
100
AcDbCircle
 10
1475.640224494999
 20
642.0224001927324
 30
0.0
 40
0.5
100
AcDbArc
 50
0.0
 51
180.0
  0
LINE
  5
603F
330
1E
100
AcDbEntity
  8
躯体と製品
  6
Continuous
 62
     2
100
AcDbLine
 10
1476.140224494999
 20
642.0224001927324
 30
0.0
 11
1477.140224494999
 21
642.0224001927324
 31
0.0
  0
LINE
  5
6040
330
1E
100
AcDbEntity
  8
躯体と製品
  6
Continuous
 62
     2
100
AcDbLine
 10
1474.140224494999
 20
642.0223991927324
 30
0.0
 11
1475.140224494999
 21
642.0224001927324
 31
0.0
  0
LINE
  5
6041
330
1E
100
AcDbEntity
  8
躯体と製品
  6
Continuous
 62
     2
100
AcDbLine
 10
1480.140224494999
 20
642.0224001927324
 30
0.0
 11
1481.140224494999
 21
642.0224001927324
 31
0.0
  0
ARC
  5
6042
330
1E
100
AcDbEntity
  8
躯体と製品
  6
Continuous
 62
     2
100
AcDbCircle
 10
1479.640224494999
 20
642.0224001927324
 30
0.0
 40
0.5
100
AcDbArc
 50
0.0
 51
180.0
  0
LINE
  5
6043
330
1E
100
AcDbEntity
  8
躯体と製品
  6
Continuous
 62
     2
100
AcDbLine
 10
1478.140224494999
 20
642.0224001927324
 30
0.0
 11
1479.140224494999
 21
642.0224001927324
 31
0.0
  0
ARC
  5
6044
330
1E
100
AcDbEntity
  8
躯体と製品
  6
Continuous
 62
     2
100
AcDbCircle
 10
1483.640224494999
 20
642.0224001927324
 30
0.0
 40
0.5
100
AcDbArc
 50
0.0
 51
180.0
  0
ARC
  5
6045
330
1E
100
AcDbEntity
  8
躯体と製品
  6
Continuous
 62
     2
100
AcDbCircle
 10
1481.640224494999
 20
642.0224001927324
 30
0.0
 40
0.5
100
AcDbArc
 50
0.0
 51
180.0
  0
LINE
  5
6046
330
1E
100
AcDbEntity
  8
躯体と製品
  6
Continuous
 62
     2
100
AcDbLine
 10
1482.140224494999
 20
642.0224001927324
 30
0.0
 11
1483.140224494999
 21
642.0224001927324
 31
0.0
  0
LINE
  5
6049
330
1E
100
AcDbEntity
  8
躯体と製品
  6
PLINE3
 62
     3
100
AcDbLine
 10
1462.140224494999
 20
663.5458671927324
 30
0.0
 11
1462.140224494999
 21
652.2144381927325
 31
0.0
  0
LINE
  5
604A
330
1E
100
AcDbEntity
  8
躯体と製品
  6
Continuous
 62
     4
100
AcDbLine
 10
1462.140224494999
 20
655.3224001927324
 30
0.0
 11
1461.836224494999
 21
655.0184001927324
 31
0.0
  0
LINE
  5
604B
330
1E
100
AcDbEntity
  8
躯体と製品
  6
Continuous
 62
     4
100
AcDbLine
 10
1467.640224494999
 20
653.5224001927324
 30
0.0
 11
1467.640224494999
 21
656.0224001927324
 31
0.0
  0
LINE
  5
604C
330
1E
100
AcDbEntity
  8
躯体と製品
  6
Continuous
 62
     4
100
AcDbLine
 10
1466.640224494999
 20
653.5224001927324
 30
0.0
 11
1466.640224494999
 21
655.0224001927325
 31
0.0
  0
ARC
  5
604D
330
1E
100
AcDbEntity
  8
躯体と製品
  6
Continuous
 62
     4
100
AcDbCircle
 10
1467.140224494999
 20
653.5224001927324
 30
0.0
 40
0.5
100
AcDbArc
 50
180.0
 51
0.0
  0
LINE
  5
604E
330
1E
100
AcDbEntity
  8
躯体と製品
  6
Continuous
 62
     4
100
AcDbLine
 10
1462.444224494999
 20
655.0224001927325
 30
0.0
 11
1466.640224494999
 21
655.0224001927325
 31
0.0
  0
LINE
  5
604F
330
1E
100
AcDbEntity
  8
躯体と製品
  6
Continuous
 62
     4
100
AcDbLine
 10
1462.140224494999
 20
655.3224001927324
 30
0.0
 11
1462.444224494999
 21
655.0184001927324
 31
0.0
  0
ARC
  5
6063
330
1E
100
AcDbEntity
  8
躯体と製品
  6
Continuous
 62
     2
100
AcDbCircle
 10
1485.640224494999
 20
642.0224001927324
 30
0.0
 40
0.5
100
AcDbArc
 50
0.0
 51
180.0
  0
LINE
  5
6064
330
1E
100
AcDbEntity
  8
躯体と製品
  6
Continuous
 62
     2
100
AcDbLine
 10
1486.571617494999
 20
642.0224001927324
 30
0.0
 11
1486.140224494999
 21
642.0224001927324
 31
0.0
  0
DIMENSION
  5
606D
330
1E
100
AcDbEntity
  8
寸法
  6
Continuous
100
AcDbDimension
  2
*D4
 10
1324.321638494999
 20
650.0224001927324
 30
0.0
 11
1321.821638494999
 21
646.0224001927326
 31
0.0
 70
    32
 71
     5
 42
8.0
  3
AutoCAD
100
AcDbAlignedDimension
 13
1352.816166494999
 23
642.0224001927324
 33
0.0
 14
1337.640224494999
 24
650.0224001927324
 34
0.0
 50
90.0
100
AcDbRotatedDimension
  0
DIMENSION
  5
607A
330
1E
100
AcDbEntity
  8
寸法
  6
Continuous
100
AcDbDimension
  2
*D5
 10
1324.321638494999
 20
654.5224001927324
 30
0.0
 11
1324.321638494999
 21
652.2724001927326
 31
0.0
 70
   160
  1
4.5
 71
     5
 42
4.5
  3
AutoCAD
100
AcDbAlignedDimension
 13
1337.640224494999
 23
650.0224001927324
 33
0.0
 14
1337.598974494999
 24
654.5224001927324
 34
0.0
 50
90.0
100
AcDbRotatedDimension
  0
DIMENSION
  5
6092
330
1E
100
AcDbEntity
  8
寸法
  6
Continuous
100
AcDbDimension
  2
*D6
 10
1356.640224494999
 20
630.0224001927325
 30
0.0
 11
1348.640224494999
 21
632.5224001927324
 31
0.0
 70
    32
 71
     5
 42
16.0
  3
AutoCAD
100
AcDbAlignedDimension
 13
1340.640224494999
 23
647.0224001927324
 33
0.0
 14
1356.640224494999
 24
639.0224001927324
 34
0.0
100
AcDbRotatedDimension
  0
DIMENSION
  5
609F
330
1E
100
AcDbEntity
  8
寸法
  6
Continuous
100
AcDbDimension
  2
*D7
 10
1456.640224494999
 20
630.0224001927325
 30
0.0
 11
1406.640224494999
 21
632.5224001927324
 31
0.0
 70
    32
 71
     5
 42
100.0
  3
AutoCAD
100
AcDbAlignedDimension
 13
1356.640224494999
 23
639.0224001927324
 33
0.0
 14
1456.640224494999
 24
639.0224001927324
 34
0.0
100
AcDbRotatedDimension
  0
DIMENSION
  5
60AC
330
1E
100
AcDbEntity
  8
寸法
  6
Continuous
100
AcDbDimension
  2
*D8
 10
1466.640224494999
 20
630.0224001927325
 30
0.0
 11
1461.640224494999
 21
632.5224001927324
 31
0.0
 70
    32
 71
     5
 42
10.0
  3
AutoCAD
100
AcDbAlignedDimension
 13
1456.640224494999
 23
639.0224001927324
 33
0.0
 14
1466.640224494999
 24
639.6744581927324
 34
0.0
100
AcDbRotatedDimension
  0
DIMENSION
  5
60B9
330
1E
100
AcDbEntity
  8
寸法
  6
Continuous
100
AcDbDimension
  2
*D9
 10
1437.640224494999
 20
655.0224001927325
 30
0.0
 11
1437.640224494999
 21
652.5224001927327
 31
0.0
 70
   160
  1
(5)
 71
     5
 42
5.0
  3
AutoCAD
100
AcDbAlignedDimension
 13
1446.754621494999
 23
650.0224001927324
 33
0.0
 14
1446.956692494999
 24
655.0224001927325
 34
0.0
 50
90.0
100
AcDbRotatedDimension
  0
DIMENSION
  5
60D0
330
1E
100
AcDbEntity
  8
寸法
  6
Continuous
100
AcDbDimension
  2
*D10
 10
1450.640224494999
 20
662.8474091927325
 30
0.0
 11
1449.640224494999
 21
666.1331234784467
 31
0.0
 70
    32
  1
(2)
 71
     5
 42
2.0
  3
AutoCAD
100
AcDbAlignedDimension
 13
1448.640224494999
 23
657.3119641927324
 33
0.0
 14
1450.640224494999
 24
658.4401411927323
 34
0.0
100
AcDbRotatedDimension
  0
DIMENSION
  5
60E8
330
1E
100
AcDbEntity
  8
寸法
  6
Continuous
100
AcDbDimension
  2
*D11
 10
1456.640224494999
 20
669.4696051927324
 30
0.0
 11
1452.640224494999
 21
671.9696051927323
 31
0.0
 70
    32
 71
     5
 42
8.0
  3
AutoCAD
100
AcDbAlignedDimension
 13
1448.640224494999
 23
657.3119641927324
 33
0.0
 14
1456.640224494999
 24
654.6962521927325
 34
0.0
100
AcDbRotatedDimension
  0
DIMENSION
  5
60F5
330
1E
100
AcDbEntity
  8
寸法
  6
Continuous
100
AcDbDimension
  2
*D12
 10
1467.640224494999
 20
669.4696051927324
 30
0.0
 11
1462.140224494999
 21
671.9696051927323
 31
0.0
 70
    32
 71
     5
 42
11.0
  3
AutoCAD
100
AcDbAlignedDimension
 13
1456.640224494999
 23
654.6962521927325
 33
0.0
 14
1467.640224494999
 24
657.2597081927324
 34
0.0
100
AcDbRotatedDimension
  0
DIMENSION
  5
6102
330
1E
100
AcDbEntity
  8
寸法
  6
Continuous
100
AcDbDimension
  2
*D13
 10
1467.640224494999
 20
662.8474091927325
 30
0.0
 11
1464.890224494999
 21
662.8474091927325
 31
0.0
 70
   160
  1
5.5
 71
     5
 42
5.5
  3
AutoCAD
100
AcDbAlignedDimension
 13
1462.140224494999
 23
662.8474091927325
 33
0.0
 14
1467.640224494999
 24
662.8474091927325
 34
0.0
100
AcDbRotatedDimension
  0
DIMENSION
  5
6115
330
1E
100
AcDbEntity
  8
寸法
  6
Continuous
100
AcDbDimension
  2
*D14
 10
1467.890224494999
 20
674.9826221927325
 30
0.0
 11
1458.265224494999
 21
677.4826221927325
 31
0.0
 70
    32
 71
     5
 42
19.25
  3
AutoCAD
100
AcDbAlignedDimension
 13
1448.640224494999
 23
669.7196051927323
 33
0.0
 14
1467.890224494999
 24
669.4696051927324
 34
0.0
100
AcDbRotatedDimension
  0
DIMENSION
  5
6122
330
1E
100
AcDbEntity
  8
寸法
  6
Continuous
100
AcDbDimension
  2
*D15
 10
1483.052355494999
 20
653.0224001927324
 30
0.0
 11
1480.552355494999
 21
654.5224001927326
 31
0.0
 70
    32
 71
     5
 42
3.0
  3
AutoCAD
100
AcDbAlignedDimension
 13
1468.562626494999
 23
656.0224001927324
 33
0.0
 14
1468.455146494999
 24
653.0224001927324
 34
0.0
 50
90.0
100
AcDbRotatedDimension
  0
DIMENSION
  5
6130
330
1E
100
AcDbEntity
  8
寸法
  6
Continuous
100
AcDbDimension
  2
*D16
 10
1490.712746494999
 20
642.0224001927324
 30
0.0
 11
1488.212746494999
 21
649.0224001927327
 31
0.0
 70
    32
 71
     5
 42
14.0
  3
AutoCAD
100
AcDbAlignedDimension
 13
1468.562626494999
 23
656.0224001927324
 33
0.0
 14
1487.117198494999
 24
642.0224001927324
 34
0.0
 50
90.0
100
AcDbRotatedDimension
  0
DIMENSION
  5
613D
330
1E
100
AcDbEntity
  8
寸法
  6
Continuous
100
AcDbDimension
  2
*D17
 10
1299.321638494999
 20
524.5869161927324
 30
0.0
 11
1296.821638494999
 21
520.5869161927327
 31
0.0
 70
    32
 71
     5
 42
8.0
  3
AutoCAD
100
AcDbAlignedDimension
 13
1327.816166494999
 23
516.5869161927324
 33
0.0
 14
1312.640224494999
 24
524.5869161927324
 34
0.0
 50
90.0
100
AcDbRotatedDimension
  0
DIMENSION
  5
614A
330
1E
100
AcDbEntity
  8
寸法
  6
Continuous
100
AcDbDimension
  2
*D18
 10
1299.321638494999
 20
529.0869161927324
 30
0.0
 11
1299.321638494999
 21
526.8369161927327
 31
0.0
 70
   160
  1
4.5
 71
     5
 42
4.5
  3
AutoCAD
100
AcDbAlignedDimension
 13
1312.640224494999
 23
524.5869161927324
 33
0.0
 14
1312.598974494999
 24
529.0869161927324
 34
0.0
 50
90.0
100
AcDbRotatedDimension
  0
DIMENSION
  5
6162
330
1E
100
AcDbEntity
  8
寸法
  6
Continuous
100
AcDbDimension
  2
*D19
 10
1331.640224494999
 20
504.5869161927324
 30
0.0
 11
1323.640224494999
 21
507.0869161927324
 31
0.0
 70
    32
 71
     5
 42
16.0
  3
AutoCAD
100
AcDbAlignedDimension
 13
1315.640224494999
 23
521.5869161927324
 33
0.0
 14
1331.640224494999
 24
513.5869161927324
 34
0.0
100
AcDbRotatedDimension
  0
DIMENSION
  5
616F
330
1E
100
AcDbEntity
  8
寸法
  6
Continuous
100
AcDbDimension
  2
*D20
 10
1481.640224494999
 20
504.5869161927324
 30
0.0
 11
1406.640224494999
 21
507.0869161927324
 31
0.0
 70
    32
 71
     5
 42
150.0
  3
AutoCAD
100
AcDbAlignedDimension
 13
1331.640224494999
 23
513.5869161927324
 33
0.0
 14
1481.640224494999
 24
513.5869161927324
 34
0.0
100
AcDbRotatedDimension
  0
DIMENSION
  5
617C
330
1E
100
AcDbEntity
  8
寸法
  6
Continuous
100
AcDbDimension
  2
*D21
 10
1491.640224494999
 20
504.5869161927324
 30
0.0
 11
1486.640224494999
 21
507.0869161927324
 31
0.0
 70
    32
 71
     5
 42
10.0
  3
AutoCAD
100
AcDbAlignedDimension
 13
1481.640224494999
 23
513.5869161927324
 33
0.0
 14
1491.640224494999
 24
514.2389741927324
 34
0.0
100
AcDbRotatedDimension
  0
DIMENSION
  5
6189
330
1E
100
AcDbEntity
  8
寸法
  6
Continuous
100
AcDbDimension
  2
*D22
 10
1462.925911436947
 20
529.5869161927324
 30
0.0
 11
1462.925911436947
 21
527.0869161927326
 31
0.0
 70
   160
  1
(5)
 71
     5
 42
5.0
  3
AutoCAD
100
AcDbAlignedDimension
 13
1471.754621494999
 23
524.5869161927324
 33
0.0
 14
1471.956692494999
 24
529.5869161927324
 34
0.0
 50
90.0
100
AcDbRotatedDimension
  0
DIMENSION
  5
61A0
330
1E
100
AcDbEntity
  8
寸法
  6
Continuous
100
AcDbDimension
  2
*D23
 10
1475.640224494999
 20
537.4119251927324
 30
0.0
 11
1474.640224494999
 21
540.6976394784468
 31
0.0
 70
    32
  1
(2)
 71
     5
 42
2.0
  3
AutoCAD
100
AcDbAlignedDimension
 13
1473.640224494999
 23
531.8764801927325
 33
0.0
 14
1475.640224494999
 24
533.0046571927324
 34
0.0
100
AcDbRotatedDimension
  0
DIMENSION
  5
61B8
330
1E
100
AcDbEntity
  8
寸法
  6
Continuous
100
AcDbDimension
  2
*D24
 10
1481.640224494999
 20
543.5069371927324
 30
0.0
 11
1477.640224494999
 21
546.0069371927325
 31
0.0
 70
    32
 71
     5
 42
8.0
  3
AutoCAD
100
AcDbAlignedDimension
 13
1473.640224494999
 23
531.8764801927325
 33
0.0
 14
1481.640224494999
 24
529.1351751927325
 34
0.0
100
AcDbRotatedDimension
  0
DIMENSION
  5
61C5
330
1E
100
AcDbEntity
  8
寸法
  6
Continuous
100
AcDbDimension
  2
*D25
 10
1492.640224494999
 20
543.5069371927324
 30
0.0
 11
1487.140224494999
 21
546.0069371927325
 31
0.0
 70
    32
 71
     5
 42
11.0
  3
AutoCAD
100
AcDbAlignedDimension
 13
1481.640224494999
 23
529.1351751927325
 33
0.0
 14
1492.640224494999
 24
531.8242241927324
 34
0.0
100
AcDbRotatedDimension
  0
DIMENSION
  5
61D2
330
1E
100
AcDbEntity
  8
寸法
  6
Continuous
100
AcDbDimension
  2
*D26
 10
1492.640224494999
 20
537.4119251927324
 30
0.0
 11
1489.790224494999
 21
537.4119251927324
 31
0.0
 70
   160
  1
5.7
 71
     5
 42
5.700000000000045
  3
AutoCAD
100
AcDbAlignedDimension
 13
1486.940224494999
 23
537.4119251927324
 33
0.0
 14
1492.640224494999
 24
537.4119251927324
 34
0.0
100
AcDbRotatedDimension
  0
DIMENSION
  5
61F9
330
1E
100
AcDbEntity
  8
寸法
  6
Continuous
100
AcDbDimension
  2
*D27
 10
1492.890224494999
 20
549.7726021927324
 30
0.0
 11
1483.265224494999
 21
552.2726021927325
 31
0.0
 70
    32
 71
     5
 42
19.25
  3
AutoCAD
100
AcDbAlignedDimension
 13
1473.640224494999
 23
543.2569371927325
 33
0.0
 14
1492.890224494999
 24
543.5069371927324
 34
0.0
100
AcDbRotatedDimension
  0
DIMENSION
  5
6206
330
1E
100
AcDbEntity
  8
寸法
  6
Continuous
100
AcDbDimension
  2
*D28
 10
1508.052355494999
 20
527.7869161927323
 30
0.0
 11
1505.552355494999
 21
529.2869161927326
 31
0.0
 70
    32
 71
     5
 42
3.0
  3
AutoCAD
100
AcDbAlignedDimension
 13
1493.472660494999
 23
530.7869161927324
 33
0.0
 14
1493.405614494999
 24
527.7869161927323
 34
0.0
 50
90.0
100
AcDbRotatedDimension
  0
DIMENSION
  5
6214
330
1E
100
AcDbEntity
  8
寸法
  6
Continuous
100
AcDbDimension
  2
*D29
 10
1515.712746494999
 20
516.5869161927324
 30
0.0
 11
1513.212746494999
 21
523.6869161927326
 31
0.0
 70
    32
 71
     5
 42
14.19999999999993
  3
AutoCAD
100
AcDbAlignedDimension
 13
1493.472660494999
 23
530.7869161927324
 33
0.0
 14
1512.117198494999
 24
516.5869161927324
 34
0.0
 50
90.0
100
AcDbRotatedDimension
  0
ENDSEC
  0
SECTION
  2
OBJECTS
  0
DICTIONARY
  5
C
330
0
100
AcDbDictionary
281
     1
  3
ACAD_COLOR
350
6290
  3
ACAD_GROUP
350
D
  3
ACAD_LAYOUT
350
19
  3
ACAD_MATERIAL
350
627B
  3
ACAD_MLINESTYLE
350
16
  3
ACAD_PLOTSETTINGS
350
18
  3
ACAD_PLOTSTYLENAME
350
E
  3
ACAD_TABLESTYLE
350
6291
  3
ACAD_VISUALSTYLE
350
627F
  3
AcDbVariableDictionary
350
169
  3
DWGPROPS
350
6543
  0
DICTIONARY
  5
6522
330
8
100
AcDbDictionary
280
     1
281
     1
  0
DICTIONARY
  5
175
330
2
100
AcDbDictionary
280
     1
281
     1
  3
ACAD_LAYERFILTERS
360
185
  3
ACAD_LAYERSTATES
360
176
  0
DICTIONARY
  5
28B
330
1E
100
AcDbDictionary
280
     1
281
     1
  3
ACAD_LAYOUTSELFREF
360
6274
  0
DICTIONARY
  5
28D
330
1A
100
AcDbDictionary
280
     1
281
     1
  3
ACAD_LAYOUTSELFREF
360
6273
  0
DICTIONARY
  5
6290
102
{ACAD_REACTORS
330
C
102
}
330
C
100
AcDbDictionary
281
     1
  0
DICTIONARY
  5
D
102
{ACAD_REACTORS
330
C
102
}
330
C
100
AcDbDictionary
281
     1
  0
DICTIONARY
  5
19
102
{ACAD_REACTORS
330
C
102
}
330
C
100
AcDbDictionary
281
     1
  3
Model
350
21
  3
ﾚｲｱｳﾄ1
350
1D
  0
DICTIONARY
  5
627B
102
{ACAD_REACTORS
330
C
102
}
330
C
100
AcDbDictionary
281
     1
  3
ByBlock
350
627D
  3
ByLayer
350
627C
  3
Global
350
627E
  0
DICTIONARY
  5
16
102
{ACAD_REACTORS
330
C
102
}
330
C
100
AcDbDictionary
281
     1
  3
Standard
350
17
  0
DICTIONARY
  5
18
102
{ACAD_REACTORS
330
C
102
}
330
C
100
AcDbDictionary
281
     1
  0
ACDBDICTIONARYWDFLT
  5
E
102
{ACAD_REACTORS
330
C
102
}
330
C
100
AcDbDictionary
281
     1
  3
Normal
350
F
100
AcDbDictionaryWithDefault
340
F
1001
ACAD
1000
TREAT_AS_HARD
1070
     0
1000
TREAT_AS_HARD
1070
     0
1000
TREAT_AS_HARD
1070
     0
1000
TREAT_AS_HARD
1070
     0
1000
TREAT_AS_HARD
1070
     0
1000
TREAT_AS_HARD
1070
     0
1000
TREAT_AS_HARD
1070
     0
1000
TREAT_AS_HARD
1070
     0
1000
TREAT_AS_HARD
1070
     0
1000
TREAT_AS_HARD
1070
     0
1000
TREAT_AS_HARD
1070
     0
1000
TREAT_AS_HARD
1070
     0
1000
TREAT_AS_HARD
1070
     0
1000
TREAT_AS_HARD
1070
     0
1000
TREAT_AS_HARD
1070
     0
1000
TREAT_AS_HARD
1070
     0
1000
TREAT_AS_HARD
1070
     0
1000
TREAT_AS_HARD
1070
     0
1000
TREAT_AS_HARD
1070
     0
1000
TREAT_AS_HARD
1070
     0
1000
TREAT_AS_HARD
1070
     0
1000
TREAT_AS_HARD
1070
     0
1000
TREAT_AS_HARD
1070
     0
1000
TREAT_AS_HARD
1070
     0
1000
TREAT_AS_HARD
1070
     0
1000
TREAT_AS_HARD
1070
     0
  0
DICTIONARY
  5
6291
102
{ACAD_REACTORS
330
C
102
}
330
C
100
AcDbDictionary
281
     1
  3
Standard
350
6292
  0
DICTIONARY
  5
627F
102
{ACAD_REACTORS
330
C
102
}
330
C
100
AcDbDictionary
281
     1
  3
2dWireframe
350
6285
  3
3D Hidden
350
6287
  3
3dWireframe
350
6286
  3
Basic
350
6284
  3
Brighten
350
628B
  3
ColorChange
350
628F
  3
Conceptual
350
6288
  3
Dim
350
628A
  3
Facepattern
350
628E
  3
Flat
350
6280
  3
FlatWithEdges
350
6281
  3
Gouraud
350
6282
  3
GouraudWithEdges
350
6283
  3
Linepattern
350
628D
  3
Realistic
350
6289
  3
Thicken
350
628C
  0
DICTIONARY
  5
169
102
{ACAD_REACTORS
330
C
102
}
330
C
100
AcDbDictionary
281
     1
  3
CTABLESTYLE
350
653A
  3
DIMASSOC
350
16A
  3
INDEXCTL
350
653C
  3
SORTENTS
350
653B
  0
XRECORD
  5
6543
102
{ACAD_REACTORS
330
C
102
}
330
C
100
AcDbXrecord
280
     1
  1
DWGPROPS COOKIE
  2

  3

  4

  6

  7

  8
HON1000AV
  9

300
=
301
=
302
=
303
=
304
=
305
=
306
=
307
=
308
=
309
=
 40
0.2339481481481481
 41
2454316.693457674
 42
2454729.77084816
  1

 90
        0
  0
DICTIONARY
  5
185
102
{ACAD_REACTORS
330
175
102
}
330
175
100
AcDbDictionary
280
     1
281
     1
  0
DICTIONARY
  5
176
102
{ACAD_REACTORS
330
175
102
}
330
175
100
AcDbDictionary
281
     1
  3
ACAD
350
177
  0
XRECORD
  5
6274
102
{ACAD_REACTORS
330
28B
102
}
330
28B
100
AcDbXrecord
280
     1
340
1E
  0
XRECORD
  5
6273
102
{ACAD_REACTORS
330
28D
102
}
330
28D
100
AcDbXrecord
280
     1
340
1A
  0
LAYOUT
  5
21
102
{ACAD_XDICTIONARY
360
6546
102
}
102
{ACAD_REACTORS
330
19
102
}
330
19
100
AcDbPlotSettings
  1

  2
\\MEISEI-1\EPSON Stylus Photo EX3
  4

  6

 40
0.0
 41
0.0
 42
0.0
 43
0.0
 44
0.0
 45
0.0
 46
0.0
 47
0.0
 48
0.0
 49
0.0
140
0.0
141
0.0
142
1.0
143
1.0
 70
  1712
 72
     0
 73
     0
 74
     0
  7

 75
     0
147
1.0
148
0.0
149
0.0
100
AcDbLayout
  1
Model
 70
     1
 71
     0
 10
0.0
 20
0.0
 11
12.0
 21
9.0
 12
0.0
 22
0.0
 32
0.0
 14
0.0
 24
0.0
 34
0.0
 15
0.0
 25
0.0
 35
0.0
146
0.0
 13
0.0
 23
0.0
 33
0.0
 16
1.0
 26
0.0
 36
0.0
 17
0.0
 27
1.0
 37
0.0
 76
     0
330
1E
331
622F
  0
LAYOUT
  5
1D
102
{ACAD_XDICTIONARY
360
6544
102
}
102
{ACAD_REACTORS
330
19
102
}
330
19
100
AcDbPlotSettings
  1

  2
\\MEISEI-1\EPSON Stylus Photo EX3
  4

  6

 40
0.0
 41
0.0
 42
0.0
 43
0.0
 44
0.0
 45
0.0
 46
0.0
 47
0.0
 48
0.0
 49
0.0
140
0.0
141
0.0
142
1.0
143
1.0
 70
   688
 72
     0
 73
     0
 74
     5
  7

 75
    16
147
1.0
148
0.0
149
0.0
100
AcDbLayout
  1
ﾚｲｱｳﾄ1
 70
     1
 71
     1
 10
0.0
 20
0.0
 11
12.0
 21
9.0
 12
0.0
 22
0.0
 32
0.0
 14
1.000000000000000E+20
 24
1.000000000000000E+20
 34
1.000000000000000E+20
 15
-1.000000000000000E+20
 25
-1.000000000000000E+20
 35
-1.000000000000000E+20
146
0.0
 13
0.0
 23
0.0
 33
0.0
 16
1.0
 26
0.0
 36
0.0
 17
0.0
 27
1.0
 37
0.0
 76
     0
330
1A
  0
MATERIAL
  5
627D
102
{ACAD_XDICTIONARY
360
654A
102
}
102
{ACAD_REACTORS
330
627B
102
}
330
627B
100
AcDbMaterial
  1
ByBlock
  0
MATERIAL
  5
627C
102
{ACAD_XDICTIONARY
360
6548
102
}
102
{ACAD_REACTORS
330
627B
102
}
330
627B
100
AcDbMaterial
  1
ByLayer
  0
MATERIAL
  5
627E
102
{ACAD_XDICTIONARY
360
654C
102
}
102
{ACAD_REACTORS
330
627B
102
}
330
627B
100
AcDbMaterial
  1
Global
  0
MLINESTYLE
  5
17
102
{ACAD_REACTORS
330
16
102
}
330
16
100
AcDbMlineStyle
  2
STANDARD
 70
     0
  3

 62
   256
 51
90.0
 52
90.0
 71
     2
 49
0.5
 62
   256
  6
BYLAYER
 49
-0.5
 62
   256
  6
BYLAYER
  0
ACDBPLACEHOLDER
  5
F
102
{ACAD_REACTORS
330
E
102
}
330
E
  0
TABLESTYLE
  5
6292
102
{ACAD_XDICTIONARY
360
654E
102
}
102
{ACAD_REACTORS
330
6291
102
}
330
6291
100
AcDbTableStyle
  3
Standard
 70
     0
 71
     0
 40
0.06
 41
0.06
280
     0
281
     0
  7
STANDARD
140
0.18
170
     2
 62
     0
 63
     7
283
     0
274
    -2
284
     1
 64
     0
275
    -2
285
     1
 65
     0
276
    -2
286
     1
 66
     0
277
    -2
287
     1
 67
     0
278
    -2
288
     1
 68
     0
279
    -2
289
     1
 69
     0
  7
STANDARD
140
0.25
170
     5
 62
     0
 63
     7
283
     0
274
    -2
284
     1
 64
     0
275
    -2
285
     1
 65
     0
276
    -2
286
     1
 66
     0
277
    -2
287
     1
 67
     0
278
    -2
288
     1
 68
     0
279
    -2
289
     1
 69
     0
  7
STANDARD
140
0.18
170
     5
 62
     0
 63
     7
283
     0
274
    -2
284
     1
 64
     0
275
    -2
285
     1
 65
     0
276
    -2
286
     1
 66
     0
277
    -2
287
     1
 67
     0
278
    -2
288
     1
 68
     0
279
    -2
289
     1
 69
     0
  0
VISUALSTYLE
  5
6285
102
{ACAD_REACTORS
330
627F
102
}
330
627F
100
AcDbVisualStyle
  2
2dWireframe
 70
     4
 71
     0
 72
     2
 73
     0
 90
        0
 40
-0.6
 41
-30.0
 62
     5
 63
     7
 74
     1
 91
        4
 64
     7
 65
   257
 75
     1
175
     1
 42
1.0
 92
        0
 66
   257
 43
1.0
 76
     1
 77
     6
 78
     2
 67
     7
 79
     5
170
     0
171
     0
290
     0
174
     0
 93
        1
 44
0.0
173
     0
291
     0
 45
0.0
1001
ACAD
1000
AcDbSavedByObjectVersion
1070
     0
  0
VISUALSTYLE
  5
6287
102
{ACAD_REACTORS
330
627F
102
}
330
627F
100
AcDbVisualStyle
  2
3D Hidden
 70
     6
 71
     1
 72
     2
 73
     2
 90
        0
 40
-0.6
 41
-30.0
 62
     5
 63
     7
 74
     2
 91
        2
 64
     7
 65
   257
 75
     2
175
     1
 42
40.0
 92
        0
 66
   257
 43
1.0
 76
     1
 77
     6
 78
     2
 67
     7
 79
     3
170
     0
171
     0
290
     0
174
     0
 93
        1
 44
0.0
173
     0
291
     0
 45
0.0
1001
ACAD
1000
AcDbSavedByObjectVersion
1070
     0
  0
VISUALSTYLE
  5
6286
102
{ACAD_REACTORS
330
627F
102
}
330
627F
100
AcDbVisualStyle
  2
3dWireframe
 70
     5
 71
     0
 72
     2
 73
     0
 90
        0
 40
-0.6
 41
-30.0
 62
     5
 63
     7
 74
     1
 91
        4
 64
     7
 65
   257
 75
     1
175
     1
 42
1.0
 92
        0
 66
   257
 43
1.0
 76
     1
 77
     6
 78
     2
 67
     7
 79
     5
170
     0
171
     0
290
     0
174
     0
 93
        1
 44
0.0
173
     0
291
     0
 45
0.0
1001
ACAD
1000
AcDbSavedByObjectVersion
1070
     0
  0
VISUALSTYLE
  5
6284
102
{ACAD_REACTORS
330
627F
102
}
330
627F
100
AcDbVisualStyle
  2
Basic
 70
     7
 71
     1
 72
     0
 73
     1
 90
        0
 40
-0.6
 41
-30.0
 62
     5
 63
     7
 74
     0
 91
        4
 64
     7
 65
   257
 75
     1
175
     1
 42
1.0
 92
        8
 66
     7
 43
1.0
 76
     1
 77
     6
 78
     2
 67
     7
 79
     5
170
     0
171
     0
290
     0
174
     0
 93
        1
 44
0.0
173
     0
291
     1
 45
0.0
1001
ACAD
1000
AcDbSavedByObjectVersion
1070
     0
  0
VISUALSTYLE
  5
628B
102
{ACAD_REACTORS
330
627F
102
}
330
627F
100
AcDbVisualStyle
  2
Brighten
 70
    12
 71
     2
 72
     2
 73
     0
 90
        0
 40
-0.6
 41
-30.0
 62
     5
 63
     7
 74
     1
 91
        4
 64
     7
 65
   257
 75
     1
175
     1
 42
1.0
 92
        8
 66
     7
 43
1.0
 76
     1
 77
     6
 78
     2
 67
     7
 79
     5
170
     0
171
     0
290
     0
174
     0
 93
        1
 44
50.0
173
     0
291
     1
 45
0.0
1001
ACAD
1000
AcDbSavedByObjectVersion
1070
     0
  0
VISUALSTYLE
  5
628F
102
{ACAD_REACTORS
330
627F
102
}
330
627F
100
AcDbVisualStyle
  2
ColorChange
 70
    16
 71
     2
 72
     2
 73
     3
 90
        0
 40
-0.6
 41
-30.0
 62
     5
 63
     8
 74
     1
 91
        4
 64
     7
 65
   257
 75
     1
175
     1
 42
1.0
 92
        8
 66
     8
 43
1.0
 76
     1
 77
     6
 78
     2
 67
     7
 79
     5
170
     0
171
     0
290
     0
174
     0
 93
        1
 44
0.0
173
     0
291
     1
 45
0.0
1001
ACAD
1000
AcDbSavedByObjectVersion
1070
     0
  0
VISUALSTYLE
  5
6288
102
{ACAD_REACTORS
330
627F
102
}
330
627F
100
AcDbVisualStyle
  2
Conceptual
 70
     9
 71
     3
 72
     2
 73
     0
 90
        0
 40
-0.6
 41
-30.0
 62
     5
 63
     7
 74
     2
 91
        2
 64
     7
 65
   257
 75
     1
175
     1
 42
40.0
 92
        8
 66
     7
 43
1.0
 76
     1
 77
     6
 78
     2
 67
     7
 79
     3
170
     0
171
     0
290
     0
174
     0
 93
        1
 44
0.0
173
     0
291
     0
 45
0.0
1001
ACAD
1000
AcDbSavedByObjectVersion
1070
     0
  0
VISUALSTYLE
  5
628A
102
{ACAD_REACTORS
330
627F
102
}
330
627F
100
AcDbVisualStyle
  2
Dim
 70
    11
 71
     2
 72
     2
 73
     0
 90
        0
 40
-0.6
 41
-30.0
 62
     5
 63
     7
 74
     1
 91
        4
 64
     7
 65
   257
 75
     1
175
     1
 42
1.0
 92
        8
 66
     7
 43
1.0
 76
     1
 77
     6
 78
     2
 67
     7
 79
     5
170
     0
171
     0
290
     0
174
     0
 93
        1
 44
-50.0
173
     0
291
     1
 45
0.0
1001
ACAD
1000
AcDbSavedByObjectVersion
1070
     0
  0
VISUALSTYLE
  5
628E
102
{ACAD_REACTORS
330
627F
102
}
330
627F
100
AcDbVisualStyle
  2
Facepattern
 70
    15
 71
     2
 72
     2
 73
     0
 90
        0
 40
-0.6
 41
-30.0
 62
     5
 63
     7
 74
     1
 91
        4
 64
     7
 65
   257
 75
     1
175
     1
 42
1.0
 92
        8
 66
     7
 43
1.0
 76
     1
 77
     6
 78
     2
 67
     7
 79
     5
170
     0
171
     0
290
     0
174
     0
 93
        1
 44
0.0
173
     0
291
     1
 45
0.0
1001
ACAD
1000
AcDbSavedByObjectVersion
1070
     0
  0
VISUALSTYLE
  5
6280
102
{ACAD_REACTORS
330
627F
102
}
330
627F
100
AcDbVisualStyle
  2
Flat
 70
     0
 71
     2
 72
     1
 73
     1
 90
        2
 40
-0.6
 41
30.0
 62
     5
 63
     7
 74
     0
 91
        4
 64
     7
 65
   257
 75
     1
175
     1
 42
1.0
 92
        8
 66
     7
 43
1.0
 76
     1
 77
     6
 78
     2
 67
     7
 79
     5
170
     0
171
     0
290
     0
174
     0
 93
       13
 44
0.0
173
     0
291
     1
 45
0.0
1001
ACAD
1000
AcDbSavedByObjectVersion
1070
     0
  0
VISUALSTYLE
  5
6281
102
{ACAD_REACTORS
330
627F
102
}
330
627F
100
AcDbVisualStyle
  2
FlatWithEdges
 70
     1
 71
     2
 72
     1
 73
     1
 90
        2
 40
-0.6
 41
30.0
 62
     5
 63
     7
 74
     1
 91
        4
 64
     7
 65
   257
 75
     1
175
     1
 42
1.0
 92
        0
 66
   257
 43
1.0
 76
     1
 77
     6
 78
     2
 67
     7
 79
     5
170
     0
171
     0
290
     0
174
     0
 93
       13
 44
0.0
173
     0
291
     1
 45
0.0
1001
ACAD
1000
AcDbSavedByObjectVersion
1070
     0
  0
VISUALSTYLE
  5
6282
102
{ACAD_REACTORS
330
627F
102
}
330
627F
100
AcDbVisualStyle
  2
Gouraud
 70
     2
 71
     2
 72
     2
 73
     1
 90
        2
 40
-0.6
 41
30.0
 62
     5
 63
     7
 74
     0
 91
        4
 64
     7
 65
   257
 75
     1
175
     1
 42
1.0
 92
        0
 66
     7
 43
1.0
 76
     1
 77
     6
 78
     2
 67
     7
 79
     5
170
     0
171
     0
290
     0
174
     0
 93
       13
 44
0.0
173
     0
291
     1
 45
0.0
1001
ACAD
1000
AcDbSavedByObjectVersion
1070
     0
  0
VISUALSTYLE
  5
6283
102
{ACAD_REACTORS
330
627F
102
}
330
627F
100
AcDbVisualStyle
  2
GouraudWithEdges
 70
     3
 71
     2
 72
     2
 73
     1
 90
        2
 40
-0.6
 41
30.0
 62
     5
 63
     7
 74
     1
 91
        4
 64
     7
 65
   257
 75
     1
175
     1
 42
1.0
 92
        0
 66
   257
 43
1.0
 76
     1
 77
     6
 78
     2
 67
     7
 79
     5
170
     0
171
     0
290
     0
174
     0
 93
       13
 44
0.0
173
     0
291
     1
 45
0.0
1001
ACAD
1000
AcDbSavedByObjectVersion
1070
     0
  0
VISUALSTYLE
  5
628D
102
{ACAD_REACTORS
330
627F
102
}
330
627F
100
AcDbVisualStyle
  2
Linepattern
 70
    14
 71
     2
 72
     2
 73
     0
 90
        0
 40
-0.6
 41
-30.0
 62
     5
 63
     7
 74
     1
 91
        4
 64
     7
 65
   257
 75
     7
175
     7
 42
1.0
 92
        8
 66
     7
 43
1.0
 76
     1
 77
     6
 78
     2
 67
     7
 79
     5
170
     0
171
     0
290
     0
174
     0
 93
        1
 44
0.0
173
     0
291
     1
 45
0.0
1001
ACAD
1000
AcDbSavedByObjectVersion
1070
     0
  0
VISUALSTYLE
  5
6289
102
{ACAD_REACTORS
330
627F
102
}
330
627F
100
AcDbVisualStyle
  2
Realistic
 70
     8
 71
     2
 72
     2
 73
     0
 90
        0
 40
-0.6
 41
-30.0
 62
     5
 63
     7
 74
     1
 91
        0
 64
     7
 65
   257
 75
     1
175
     1
 42
1.0
 92
        8
 66
     8
 43
1.0
 76
     1
 77
     6
 78
     2
 67
     7
 79
     5
170
     0
171
     0
290
     0
174
     0
 93
       13
 44
0.0
173
     0
291
     0
 45
0.0
1001
ACAD
1000
AcDbSavedByObjectVersion
1070
     0
  0
VISUALSTYLE
  5
628C
102
{ACAD_REACTORS
330
627F
102
}
330
627F
100
AcDbVisualStyle
  2
Thicken
 70
    13
 71
     2
 72
     2
 73
     0
 90
        0
 40
-0.6
 41
-30.0
 62
     5
 63
     7
 74
     1
 91
        4
 64
     7
 65
   257
 75
     1
175
     1
 42
1.0
 92
       12
 66
     7
 43
1.0
 76
     1
 77
     6
 78
     2
 67
     7
 79
     5
170
     0
171
     0
290
     0
174
     0
 93
        1
 44
0.0
173
     0
291
     1
 45
0.0
1001
ACAD
1000
AcDbSavedByObjectVersion
1070
     0
  0
DICTIONARYVAR
  5
653A
102
{ACAD_REACTORS
330
169
102
}
330
169
100
DictionaryVariables
280
     0
  1
STANDARD
  0
DICTIONARYVAR
  5
16A
102
{ACAD_REACTORS
330
169
102
}
330
169
100
DictionaryVariables
280
     0
  1
1
  0
DICTIONARYVAR
  5
653C
102
{ACAD_REACTORS
330
169
102
}
330
169
100
DictionaryVariables
280
     0
  1
0
  0
DICTIONARYVAR
  5
653B
102
{ACAD_REACTORS
330
169
102
}
330
169
100
DictionaryVariables
280
     0
  1
127
  0
XRECORD
  5
177
102
{ACAD_REACTORS
330
176
102
}
330
176
100
AcDbXrecord
280
     1
 91
      476
330
179
 90
        8
 62
     7
370
    -3
331
15
  1
Color_7
330
178
 90
        8
 62
     7
370
    -3
331
15
  1
Color_7
330
128
 90
        0
 62
     7
370
    -3
331
15
  1
Color_7
330
10
 90
        8
 62
     7
370
    -3
331
15
  1
Color_7
  0
DICTIONARY
  5
6546
330
21
100
AcDbDictionary
280
     1
281
     1
  3
ACAD_XREC_ROUNDTRIP
360
6547
  0
DICTIONARY
  5
6544
330
1D
100
AcDbDictionary
280
     1
281
     1
  3
ACAD_XREC_ROUNDTRIP
360
6545
  0
DICTIONARY
  5
654A
330
627D
100
AcDbDictionary
280
     1
281
     1
  3
ACAD_XREC_ROUNDTRIP
360
654B
  0
DICTIONARY
  5
6548
330
627C
100
AcDbDictionary
280
     1
281
     1
  3
ACAD_XREC_ROUNDTRIP
360
6549
  0
DICTIONARY
  5
654C
330
627E
100
AcDbDictionary
280
     1
281
     1
  3
ACAD_XREC_ROUNDTRIP
360
654D
  0
DICTIONARY
  5
654E
330
6292
100
AcDbDictionary
280
     1
281
     1
  3
ACAD_XREC_ROUNDTRIP
360
654F
  0
XRECORD
  5
6547
102
{ACAD_REACTORS
330
6546
102
}
330
6546
100
AcDbXrecord
280
     1
102
SHADEPLOT
 70
     0
102
SHADEPLOTRESLEVEL
 70
     2
102
SHADEPLOTCUSTOMDPI
 70
   300
  0
XRECORD
  5
6545
102
{ACAD_REACTORS
330
6544
102
}
330
6544
100
AcDbXrecord
280
     1
102
SHADEPLOT
 70
     0
102
SHADEPLOTRESLEVEL
 70
     2
102
SHADEPLOTCUSTOMDPI
 70
   300
  0
XRECORD
  5
654B
102
{ACAD_REACTORS
330
654A
102
}
330
654A
100
AcDbXrecord
280
     1
102
MATERIAL
148
0.0
149
0.0
149
0.0
 93
        0
 94
       63
282
     0
 72
     1
 77
     1
171
     1
175
     1
179
     1
273
     0
  0
XRECORD
  5
6549
102
{ACAD_REACTORS
330
6548
102
}
330
6548
100
AcDbXrecord
280
     1
102
MATERIAL
148
0.0
149
0.0
149
0.0
 93
        0
 94
       63
282
     0
 72
     1
 77
     1
171
     1
175
     1
179
     1
273
     0
  0
XRECORD
  5
654D
102
{ACAD_REACTORS
330
654C
102
}
330
654C
100
AcDbXrecord
280
     1
102
MATERIAL
148
0.0
149
0.0
149
0.0
 93
        0
 94
       63
282
     0
 72
     1
 77
     1
171
     1
175
     1
179
     1
273
     0
  0
XRECORD
  5
654F
102
{ACAD_REACTORS
330
654E
102
}
330
654E
100
AcDbXrecord
280
     1
102
ACAD_ROUNDTRIP_PRE2007_TABLESTYLE
 90
      512
 91
        0
  1

 92
      512
 93
        0
  2

 94
      512
 95
        0
  3

  0
ENDSEC
  0
EOF
