  0
SECTION
  2
HEADER
  9
$ACADVER
  1
AC1015
  9
$ACADMAINTVER
 70
    13
  9
$DWGCODEPAGE
  3
ANSI_932
  9
$INSBASE
 10
0.0
 20
0.0
 30
0.0
  9
$EXTMIN
 10
1111.898339184287
 20
400.5857832988483
 30
-0.0015258207003583
  9
$EXTMAX
 10
1622.86691736991
 20
753.3743968505046
 30
0.0000000349246037
  9
$LIMMIN
 10
0.0
 20
0.0
  9
$LIMMAX
 10
420.0
 20
297.0
  9
$ORTHOMODE
 70
     0
  9
$REGENMODE
 70
     1
  9
$FILLMODE
 70
     1
  9
$QTEXTMODE
 70
     0
  9
$MIRRTEXT
 70
     1
  9
$LTSCALE
 40
1.0
  9
$ATTMODE
 70
     1
  9
$TEXTSIZE
 40
5.0
  9
$TRACEWID
 40
0.05
  9
$TEXTSTYLE
  7
ACAD
  9
$CLAYER
  8
0
  9
$CELTYPE
  6
CONTINUOUS
  9
$CECOLOR
 62
   256
  9
$CELTSCALE
 40
1.0
  9
$DISPSILH
 70
     0
  9
$DIMSCALE
 40
1.0
  9
$DIMASZ
 40
1.0
  9
$DIMEXO
 40
0.0
  9
$DIMDLI
 40
0.38
  9
$DIMRND
 40
0.0
  9
$DIMDLE
 40
0.0
  9
$DIMEXE
 40
0.0
  9
$DIMTP
 40
0.0
  9
$DIMTM
 40
0.0
  9
$DIMTXT
 40
5.0
  9
$DIMCEN
 40
0.09
  9
$DIMTSZ
 40
0.0
  9
$DIMTOL
 70
     0
  9
$DIMLIM
 70
     0
  9
$DIMTIH
 70
     0
  9
$DIMTOH
 70
     1
  9
$DIMSE1
 70
     0
  9
$DIMSE2
 70
     0
  9
$DIMTAD
 70
     1
  9
$DIMZIN
 70
     0
  9
$DIMBLK
  1
Dot
  9
$DIMASO
 70
     1
  9
$DIMSHO
 70
     1
  9
$DIMPOST
  1

  9
$DIMAPOST
  1

  9
$DIMALT
 70
     0
  9
$DIMALTD
 70
     2
  9
$DIMALTF
 40
25.4
  9
$DIMLFAC
 40
1.0
  9
$DIMTOFL
 70
     0
  9
$DIMTVP
 40
0.0
  9
$DIMTIX
 70
     1
  9
$DIMSOXD
 70
     0
  9
$DIMSAH
 70
     0
  9
$DIMBLK1
  1

  9
$DIMBLK2
  1

  9
$DIMSTYLE
  2
AutoCAD
  9
$DIMCLRD
 70
     4
  9
$DIMCLRE
 70
     4
  9
$DIMCLRT
 70
     3
  9
$DIMTFAC
 40
1.0
  9
$DIMGAP
 40
1.0
  9
$DIMJUST
 70
     0
  9
$DIMSD1
 70
     0
  9
$DIMSD2
 70
     0
  9
$DIMTOLJ
 70
     1
  9
$DIMTZIN
 70
     0
  9
$DIMALTZ
 70
     0
  9
$DIMALTTZ
 70
     0
  9
$DIMUPT
 70
     0
  9
$DIMDEC
 70
     0
  9
$DIMTDEC
 70
     0
  9
$DIMALTU
 70
     2
  9
$DIMALTTD
 70
     2
  9
$DIMTXSTY
  7
ACAD
  9
$DIMAUNIT
 70
     0
  9
$DIMADEC
 70
     0
  9
$DIMALTRND
 40
0.0
  9
$DIMAZIN
 70
     0
  9
$DIMDSEP
 70
    46
  9
$DIMATFIT
 70
     0
  9
$DIMFRAC
 70
     0
  9
$DIMLDRBLK
  1
None
  9
$DIMLUNIT
 70
     2
  9
$DIMLWD
 70
    -2
  9
$DIMLWE
 70
    -2
  9
$DIMTMOVE
 70
     0
  9
$LUNITS
 70
     2
  9
$LUPREC
 70
     4
  9
$SKETCHINC
 40
0.1
  9
$FILLETRAD
 40
0.0
  9
$AUNITS
 70
     0
  9
$AUPREC
 70
     0
  9
$MENU
  1
.
  9
$ELEVATION
 40
0.0
  9
$PELEVATION
 40
0.0
  9
$THICKNESS
 40
0.0
  9
$LIMCHECK
 70
     0
  9
$CHAMFERA
 40
0.0
  9
$CHAMFERB
 40
0.0
  9
$CHAMFERC
 40
0.0
  9
$CHAMFERD
 40
0.0
  9
$SKPOLY
 70
     0
  9
$TDCREATE
 40
2454316.693457673
  9
$TDUCREATE
 40
2454316.318457673
  9
$TDUPDATE
 40
2454445.703634617
  9
$TDUUPDATE
 40
2454445.328634617
  9
$TDINDWG
 40
0.2272925231
  9
$TDUSRTIMER
 40
0.2272925231
  9
$USRTIMER
 70
     1
  9
$ANGBASE
 50
0.0
  9
$ANGDIR
 70
     0
  9
$PDMODE
 70
     0
  9
$PDSIZE
 40
0.0
  9
$PLINEWID
 40
0.0
  9
$SPLFRAME
 70
     0
  9
$SPLINETYPE
 70
     6
  9
$SPLINESEGS
 70
     8
  9
$HANDSEED
  5
5FD7
  9
$SURFTAB1
 70
     6
  9
$SURFTAB2
 70
     6
  9
$SURFTYPE
 70
     6
  9
$SURFU
 70
     6
  9
$SURFV
 70
     6
  9
$UCSBASE
  2

  9
$UCSNAME
  2

  9
$UCSORG
 10
0.0
 20
0.0
 30
0.0
  9
$UCSXDIR
 10
1.0
 20
0.0
 30
0.0
  9
$UCSYDIR
 10
0.0
 20
1.0
 30
0.0
  9
$UCSORTHOREF
  2

  9
$UCSORTHOVIEW
 70
     0
  9
$UCSORGTOP
 10
0.0
 20
0.0
 30
0.0
  9
$UCSORGBOTTOM
 10
0.0
 20
0.0
 30
0.0
  9
$UCSORGLEFT
 10
0.0
 20
0.0
 30
0.0
  9
$UCSORGRIGHT
 10
0.0
 20
0.0
 30
0.0
  9
$UCSORGFRONT
 10
0.0
 20
0.0
 30
0.0
  9
$UCSORGBACK
 10
0.0
 20
0.0
 30
0.0
  9
$PUCSBASE
  2

  9
$PUCSNAME
  2

  9
$PUCSORG
 10
0.0
 20
0.0
 30
0.0
  9
$PUCSXDIR
 10
1.0
 20
0.0
 30
0.0
  9
$PUCSYDIR
 10
0.0
 20
1.0
 30
0.0
  9
$PUCSORTHOREF
  2

  9
$PUCSORTHOVIEW
 70
     0
  9
$PUCSORGTOP
 10
0.0
 20
0.0
 30
0.0
  9
$PUCSORGBOTTOM
 10
0.0
 20
0.0
 30
0.0
  9
$PUCSORGLEFT
 10
0.0
 20
0.0
 30
0.0
  9
$PUCSORGRIGHT
 10
0.0
 20
0.0
 30
0.0
  9
$PUCSORGFRONT
 10
0.0
 20
0.0
 30
0.0
  9
$PUCSORGBACK
 10
0.0
 20
0.0
 30
0.0
  9
$USERI1
 70
     0
  9
$USERI2
 70
     0
  9
$USERI3
 70
     0
  9
$USERI4
 70
     0
  9
$USERI5
 70
     0
  9
$USERR1
 40
0.0
  9
$USERR2
 40
0.0
  9
$USERR3
 40
0.0
  9
$USERR4
 40
0.0
  9
$USERR5
 40
0.0
  9
$WORLDVIEW
 70
     1
  9
$SHADEDGE
 70
     3
  9
$SHADEDIF
 70
    70
  9
$TILEMODE
 70
     1
  9
$MAXACTVP
 70
    48
  9
$PINSBASE
 10
0.0
 20
0.0
 30
0.0
  9
$PLIMCHECK
 70
     0
  9
$PEXTMIN
 10
1.000000000000000E+20
 20
1.000000000000000E+20
 30
1.000000000000000E+20
  9
$PEXTMAX
 10
-1.000000000000000E+20
 20
-1.000000000000000E+20
 30
-1.000000000000000E+20
  9
$PLIMMIN
 10
0.0
 20
0.0
  9
$PLIMMAX
 10
12.0
 20
9.0
  9
$UNITMODE
 70
     0
  9
$VISRETAIN
 70
     0
  9
$PLINEGEN
 70
     0
  9
$PSLTSCALE
 70
     1
  9
$TREEDEPTH
 70
  3020
  9
$CMLSTYLE
  2
Standard
  9
$CMLJUST
 70
     0
  9
$CMLSCALE
 40
1.0
  9
$PROXYGRAPHICS
 70
     1
  9
$MEASUREMENT
 70
     0
  9
$CELWEIGHT
370
    -1
  9
$ENDCAPS
280
     0
  9
$JOINSTYLE
280
     0
  9
$LWDISPLAY
290
     0
  9
$INSUNITS
 70
     0
  9
$HYPERLINKBASE
  1

  9
$STYLESHEET
  1

  9
$XEDIT
290
     1
  9
$CEPSNTYPE
380
     0
  9
$PSTYLEMODE
290
     1
  9
$FINGERPRINTGUID
  2
{CC7D6DEE-A9F1-4F3E-AC95-C84B62CCA3FD}
  9
$VERSIONGUID
  2
{CF4F5BE5-7977-4A66-9F9C-923665BC079A}
  9
$EXTNAMES
290
     1
  9
$PSVPSCALE
 40
0.0
  9
$OLESTARTUP
290
     0
  0
ENDSEC
  0
SECTION
  2
CLASSES
  0
CLASS
  1
ACDBDICTIONARYWDFLT
  2
AcDbDictionaryWithDefault
  3
AutoCAD 2000
 90
        0
280
     0
281
     0
  0
CLASS
  1
ACDBPLACEHOLDER
  2
AcDbPlaceHolder
  3
AutoCAD 2000
 90
        0
280
     0
281
     0
  0
CLASS
  1
LAYOUT
  2
AcDbLayout
  3
AutoCAD 2000
 90
        0
280
     0
281
     0
  0
CLASS
  1
DICTIONARYVAR
  2
AcDbDictionaryVar
  3
AutoCAD 2000
 90
        0
280
     0
281
     0
  0
CLASS
  1
LONG_TRANSACTION
  2
AcDbLongTransaction
  3
AutoCAD 2000
 90
    32768
280
     0
281
     0
  0
CLASS
  1
LWPOLYLINE
  2
AcDbPolyline
  3
AutoCAD 2000
 90
    32768
280
     0
281
     1
  0
CLASS
  1
HATCH
  2
AcDbHatch
  3
AutoCAD 2000
 90
    32768
280
     0
281
     1
  0
CLASS
  1
XRECORD
  2
AcDbXrecord
  3
AutoCAD 2000
 90
    32768
280
     0
281
     0
  0
CLASS
  1
LONG_TRANSACTION
  2
AcDbLongTransaction
  3
AutoCAD 2000
 90
    32768
280
     0
281
     0
  0
CLASS
  1
LWPOLYLINE
  2
AcDbPolyline
  3
AutoCAD 2000
 90
    32768
280
     0
281
     1
  0
CLASS
  1
HATCH
  2
AcDbHatch
  3
AutoCAD 2000
 90
    32768
280
     0
281
     1
  0
CLASS
  1
XRECORD
  2
AcDbXrecord
  3
AutoCAD 2000
 90
    32768
280
     0
281
     0
  0
CLASS
  1
LONG_TRANSACTION
  2
AcDbLongTransaction
  3
AutoCAD 2000
 90
    32768
280
     0
281
     0
  0
CLASS
  1
LWPOLYLINE
  2
AcDbPolyline
  3
AutoCAD 2000
 90
    32768
280
     0
281
     1
  0
CLASS
  1
HATCH
  2
AcDbHatch
  3
AutoCAD 2000
 90
    32768
280
     0
281
     1
  0
CLASS
  1
XRECORD
  2
AcDbXrecord
  3
AutoCAD 2000
 90
    32768
280
     0
281
     0
  0
CLASS
  1
LONG_TRANSACTION
  2
AcDbLongTransaction
  3
AutoCAD 2000
 90
    32768
280
     0
281
     0
  0
CLASS
  1
LWPOLYLINE
  2
AcDbPolyline
  3
AutoCAD 2000
 90
    32768
280
     0
281
     1
  0
CLASS
  1
HATCH
  2
AcDbHatch
  3
AutoCAD 2000
 90
    32768
280
     0
281
     1
  0
CLASS
  1
XRECORD
  2
AcDbXrecord
  3
AutoCAD 2000
 90
    32768
280
     0
281
     0
  0
CLASS
  1
LONG_TRANSACTION
  2
AcDbLongTransaction
  3
AutoCAD 2000
 90
    32768
280
     0
281
     0
  0
CLASS
  1
LWPOLYLINE
  2
AcDbPolyline
  3
AutoCAD 2000
 90
    32768
280
     0
281
     1
  0
CLASS
  1
HATCH
  2
AcDbHatch
  3
AutoCAD 2000
 90
    32768
280
     0
281
     1
  0
CLASS
  1
XRECORD
  2
AcDbXrecord
  3
AutoCAD 2000
 90
    32768
280
     0
281
     0
  0
CLASS
  1
LONG_TRANSACTION
  2
AcDbLongTransaction
  3
AutoCAD 2000
 90
    32768
280
     0
281
     0
  0
CLASS
  1
LWPOLYLINE
  2
AcDbPolyline
  3
AutoCAD 2000
 90
    32768
280
     0
281
     1
  0
CLASS
  1
HATCH
  2
AcDbHatch
  3
AutoCAD 2000
 90
    32768
280
     0
281
     1
  0
CLASS
  1
XRECORD
  2
AcDbXrecord
  3
AutoCAD 2000
 90
    32768
280
     0
281
     0
  0
CLASS
  1
LONG_TRANSACTION
  2
AcDbLongTransaction
  3
AutoCAD 2000
 90
    32768
280
     0
281
     0
  0
CLASS
  1
LWPOLYLINE
  2
AcDbPolyline
  3
AutoCAD 2000
 90
    32768
280
     0
281
     1
  0
CLASS
  1
HATCH
  2
AcDbHatch
  3
AutoCAD 2000
 90
    32768
280
     0
281
     1
  0
CLASS
  1
XRECORD
  2
AcDbXrecord
  3
AutoCAD 2000
 90
    32768
280
     0
281
     0
  0
CLASS
  1
LONG_TRANSACTION
  2
AcDbLongTransaction
  3
AutoCAD 2000
 90
    32768
280
     0
281
     0
  0
CLASS
  1
LWPOLYLINE
  2
AcDbPolyline
  3
AutoCAD 2000
 90
    32768
280
     0
281
     1
  0
CLASS
  1
HATCH
  2
AcDbHatch
  3
AutoCAD 2000
 90
    32768
280
     0
281
     1
  0
CLASS
  1
XRECORD
  2
AcDbXrecord
  3
AutoCAD 2000
 90
    32768
280
     0
281
     0
  0
CLASS
  1
LONG_TRANSACTION
  2
AcDbLongTransaction
  3
AutoCAD 2000
 90
    32768
280
     0
281
     0
  0
CLASS
  1
LWPOLYLINE
  2
AcDbPolyline
  3
AutoCAD 2000
 90
    32768
280
     0
281
     1
  0
CLASS
  1
HATCH
  2
AcDbHatch
  3
AutoCAD 2000
 90
    32768
280
     0
281
     1
  0
CLASS
  1
XRECORD
  2
AcDbXrecord
  3
AutoCAD 2000
 90
    32768
280
     0
281
     0
  0
CLASS
  1
LONG_TRANSACTION
  2
AcDbLongTransaction
  3
AutoCAD 2000
 90
    32768
280
     0
281
     0
  0
CLASS
  1
LWPOLYLINE
  2
AcDbPolyline
  3
AutoCAD 2000
 90
    32768
280
     0
281
     1
  0
CLASS
  1
HATCH
  2
AcDbHatch
  3
AutoCAD 2000
 90
    32768
280
     0
281
     1
  0
CLASS
  1
XRECORD
  2
AcDbXrecord
  3
AutoCAD 2000
 90
    32768
280
     0
281
     0
  0
CLASS
  1
LONG_TRANSACTION
  2
AcDbLongTransaction
  3
AutoCAD 2000
 90
    32768
280
     0
281
     0
  0
CLASS
  1
LWPOLYLINE
  2
AcDbPolyline
  3
AutoCAD 2000
 90
    32768
280
     0
281
     1
  0
CLASS
  1
HATCH
  2
AcDbHatch
  3
AutoCAD 2000
 90
    32768
280
     0
281
     1
  0
CLASS
  1
XRECORD
  2
AcDbXrecord
  3
AutoCAD 2000
 90
    32768
280
     0
281
     0
  0
CLASS
  1
LONG_TRANSACTION
  2
AcDbLongTransaction
  3
AutoCAD 2000
 90
    32768
280
     0
281
     0
  0
CLASS
  1
LWPOLYLINE
  2
AcDbPolyline
  3
AutoCAD 2000
 90
    32768
280
     0
281
     1
  0
CLASS
  1
HATCH
  2
AcDbHatch
  3
AutoCAD 2000
 90
    32768
280
     0
281
     1
  0
CLASS
  1
XRECORD
  2
AcDbXrecord
  3
AutoCAD 2000
 90
    32768
280
     0
281
     0
  0
CLASS
  1
LONG_TRANSACTION
  2
AcDbLongTransaction
  3
AutoCAD 2000
 90
    32768
280
     0
281
     0
  0
CLASS
  1
LWPOLYLINE
  2
AcDbPolyline
  3
AutoCAD 2000
 90
    32768
280
     0
281
     1
  0
CLASS
  1
HATCH
  2
AcDbHatch
  3
AutoCAD 2000
 90
    32768
280
     0
281
     1
  0
CLASS
  1
XRECORD
  2
AcDbXrecord
  3
AutoCAD 2000
 90
    32768
280
     0
281
     0
  0
CLASS
  1
LONG_TRANSACTION
  2
AcDbLongTransaction
  3
AutoCAD 2000
 90
    32768
280
     0
281
     0
  0
CLASS
  1
LWPOLYLINE
  2
AcDbPolyline
  3
AutoCAD 2000
 90
    32768
280
     0
281
     1
  0
CLASS
  1
HATCH
  2
AcDbHatch
  3
AutoCAD 2000
 90
    32768
280
     0
281
     1
  0
CLASS
  1
XRECORD
  2
AcDbXrecord
  3
AutoCAD 2000
 90
    32768
280
     0
281
     0
  0
CLASS
  1
LONG_TRANSACTION
  2
AcDbLongTransaction
  3
AutoCAD 2000
 90
    32768
280
     0
281
     0
  0
CLASS
  1
LWPOLYLINE
  2
AcDbPolyline
  3
AutoCAD 2000
 90
    32768
280
     0
281
     1
  0
CLASS
  1
HATCH
  2
AcDbHatch
  3
AutoCAD 2000
 90
    32768
280
     0
281
     1
  0
CLASS
  1
XRECORD
  2
AcDbXrecord
  3
AutoCAD 2000
 90
    32768
280
     0
281
     0
  0
CLASS
  1
LONG_TRANSACTION
  2
AcDbLongTransaction
  3
AutoCAD 2000
 90
    32768
280
     0
281
     0
  0
CLASS
  1
LWPOLYLINE
  2
AcDbPolyline
  3
AutoCAD 2000
 90
    32768
280
     0
281
     1
  0
CLASS
  1
HATCH
  2
AcDbHatch
  3
AutoCAD 2000
 90
    32768
280
     0
281
     1
  0
CLASS
  1
XRECORD
  2
AcDbXrecord
  3
AutoCAD 2000
 90
    32768
280
     0
281
     0
  0
CLASS
  1
LONG_TRANSACTION
  2
AcDbLongTransaction
  3
AutoCAD 2000
 90
    32768
280
     0
281
     0
  0
CLASS
  1
LWPOLYLINE
  2
AcDbPolyline
  3
AutoCAD 2000
 90
    32768
280
     0
281
     1
  0
CLASS
  1
HATCH
  2
AcDbHatch
  3
AutoCAD 2000
 90
    32768
280
     0
281
     1
  0
CLASS
  1
XRECORD
  2
AcDbXrecord
  3
AutoCAD 2000
 90
    32768
280
     0
281
     0
  0
CLASS
  1
LONG_TRANSACTION
  2
AcDbLongTransaction
  3
AutoCAD 2000
 90
    32768
280
     0
281
     0
  0
CLASS
  1
LWPOLYLINE
  2
AcDbPolyline
  3
AutoCAD 2000
 90
    32768
280
     0
281
     1
  0
CLASS
  1
HATCH
  2
AcDbHatch
  3
AutoCAD 2000
 90
    32768
280
     0
281
     1
  0
CLASS
  1
XRECORD
  2
AcDbXrecord
  3
AutoCAD 2000
 90
    32768
280
     0
281
     0
  0
CLASS
  1
LONG_TRANSACTION
  2
AcDbLongTransaction
  3
AutoCAD 2000
 90
    32768
280
     0
281
     0
  0
CLASS
  1
LWPOLYLINE
  2
AcDbPolyline
  3
AutoCAD 2000
 90
    32768
280
     0
281
     1
  0
CLASS
  1
HATCH
  2
AcDbHatch
  3
AutoCAD 2000
 90
    32768
280
     0
281
     1
  0
CLASS
  1
XRECORD
  2
AcDbXrecord
  3
AutoCAD 2000
 90
    32768
280
     0
281
     0
  0
CLASS
  1
LONG_TRANSACTION
  2
AcDbLongTransaction
  3
AutoCAD 2000
 90
    32768
280
     0
281
     0
  0
CLASS
  1
LWPOLYLINE
  2
AcDbPolyline
  3
AutoCAD 2000
 90
    32768
280
     0
281
     1
  0
CLASS
  1
HATCH
  2
AcDbHatch
  3
AutoCAD 2000
 90
    32768
280
     0
281
     1
  0
CLASS
  1
XRECORD
  2
AcDbXrecord
  3
AutoCAD 2000
 90
    32768
280
     0
281
     0
  0
CLASS
  1
LONG_TRANSACTION
  2
AcDbLongTransaction
  3
AutoCAD 2000
 90
    32768
280
     0
281
     0
  0
CLASS
  1
LWPOLYLINE
  2
AcDbPolyline
  3
AutoCAD 2000
 90
    32768
280
     0
281
     1
  0
CLASS
  1
HATCH
  2
AcDbHatch
  3
AutoCAD 2000
 90
    32768
280
     0
281
     1
  0
CLASS
  1
XRECORD
  2
AcDbXrecord
  3
AutoCAD 2000
 90
    32768
280
     0
281
     0
  0
CLASS
  1
LONG_TRANSACTION
  2
AcDbLongTransaction
  3
AutoCAD 2000
 90
    32768
280
     0
281
     0
  0
CLASS
  1
LWPOLYLINE
  2
AcDbPolyline
  3
AutoCAD 2000
 90
    32768
280
     0
281
     1
  0
CLASS
  1
HATCH
  2
AcDbHatch
  3
AutoCAD 2000
 90
    32768
280
     0
281
     1
  0
CLASS
  1
XRECORD
  2
AcDbXrecord
  3
AutoCAD 2000
 90
    32768
280
     0
281
     0
  0
CLASS
  1
LONG_TRANSACTION
  2
AcDbLongTransaction
  3
AutoCAD 2000
 90
    32768
280
     0
281
     0
  0
CLASS
  1
LWPOLYLINE
  2
AcDbPolyline
  3
AutoCAD 2000
 90
    32768
280
     0
281
     1
  0
CLASS
  1
HATCH
  2
AcDbHatch
  3
AutoCAD 2000
 90
    32768
280
     0
281
     1
  0
CLASS
  1
XRECORD
  2
AcDbXrecord
  3
AutoCAD 2000
 90
    32768
280
     0
281
     0
  0
CLASS
  1
LONG_TRANSACTION
  2
AcDbLongTransaction
  3
AutoCAD 2000
 90
    32768
280
     0
281
     0
  0
CLASS
  1
LWPOLYLINE
  2
AcDbPolyline
  3
AutoCAD 2000
 90
    32768
280
     0
281
     1
  0
CLASS
  1
HATCH
  2
AcDbHatch
  3
AutoCAD 2000
 90
    32768
280
     0
281
     1
  0
CLASS
  1
XRECORD
  2
AcDbXrecord
  3
AutoCAD 2000
 90
    32768
280
     0
281
     0
  0
CLASS
  1
LONG_TRANSACTION
  2
AcDbLongTransaction
  3
AutoCAD 2000
 90
    32768
280
     0
281
     0
  0
CLASS
  1
LWPOLYLINE
  2
AcDbPolyline
  3
AutoCAD 2000
 90
    32768
280
     0
281
     1
  0
CLASS
  1
HATCH
  2
AcDbHatch
  3
AutoCAD 2000
 90
    32768
280
     0
281
     1
  0
CLASS
  1
XRECORD
  2
AcDbXrecord
  3
AutoCAD 2000
 90
    32768
280
     0
281
     0
  0
ENDSEC
  0
SECTION
  2
TABLES
  0
TABLE
  2
VPORT
  5
8
330
0
100
AcDbSymbolTable
 70
     5
  0
VPORT
  5
5FD6
330
8
100
AcDbSymbolTableRecord
100
AcDbViewportTableRecord
  2
*Active
 70
     0
 10
0.0
 20
0.0
 11
1.0
 21
1.0
 12
1367.382628277098
 22
576.9800900746765
 13
0.0
 23
0.0
 14
1.0
 24
1.0
 15
0.0
 25
0.0
 16
0.0
 26
0.0
 36
1.0
 17
0.0
 27
0.0
 37
0.0
 40
355.5555830697084
 41
1.578534031413612
 42
50.0
 43
0.0
 44
0.0
 50
0.0
 51
0.0
 71
     0
 72
   100
 73
     1
 74
     1
 75
     0
 76
     0
 77
     0
 78
     0
281
     0
 65
     1
110
0.0
120
0.0
130
0.0
111
1.0
121
0.0
131
0.0
112
0.0
122
1.0
132
0.0
 79
     0
146
0.0
  0
ENDTAB
  0
TABLE
  2
LTYPE
  5
5
330
0
100
AcDbSymbolTable
 70
    50
  0
LTYPE
  5
13
330
5
100
AcDbSymbolTableRecord
100
AcDbLinetypeTableRecord
  2
ByBlock
 70
     0
  3

 72
    65
 73
     0
 40
0.0
  0
LTYPE
  5
14
330
5
100
AcDbSymbolTableRecord
100
AcDbLinetypeTableRecord
  2
ByLayer
 70
     0
  3

 72
    65
 73
     0
 40
0.0
  0
LTYPE
  5
15
330
5
100
AcDbSymbolTableRecord
100
AcDbLinetypeTableRecord
  2
CONTINUOUS
 70
     0
  3
実線
 72
    65
 73
     0
 40
0.0
  0
LTYPE
  5
22
330
5
100
AcDbSymbolTableRecord
100
AcDbLinetypeTableRecord
  2
DASHED1
 70
     0
  3
--  --  --  --  --  --  --  --  
 72
    65
 73
     2
 40
2.5
 49
1.25
 74
     0
 49
-1.25
 74
     0
  0
LTYPE
  5
23
330
5
100
AcDbSymbolTableRecord
100
AcDbLinetypeTableRecord
  2
DASHED2
 70
     0
  3
----    ----    ----    ----    
 72
    65
 73
     2
 40
5.0
 49
2.5
 74
     0
 49
-2.5
 74
     0
  0
LTYPE
  5
24
330
5
100
AcDbSymbolTableRecord
100
AcDbLinetypeTableRecord
  2
DASHED3
 70
     0
  3
------  ------  ------  ------  
 72
    65
 73
     2
 40
5.0
 49
3.75
 74
     0
 49
-1.25
 74
     0
  0
LTYPE
  5
25
330
5
100
AcDbSymbolTableRecord
100
AcDbLinetypeTableRecord
  2
CENTER1
 70
     0
  3
----- - ----- - ----- - ----- - 
 72
    65
 73
     4
 40
10.0
 49
6.25
 74
     0
 49
-1.25
 74
     0
 49
1.25
 74
     0
 49
-1.25
 74
     0
  0
LTYPE
  5
26
330
5
100
AcDbSymbolTableRecord
100
AcDbLinetypeTableRecord
  2
CENTER2
 70
     0
  3
----------  --  ----------  --  
 72
    65
 73
     4
 40
20.0
 49
12.5
 74
     0
 49
-2.5
 74
     0
 49
2.5
 74
     0
 49
-2.5
 74
     0
  0
LTYPE
  5
27
330
5
100
AcDbSymbolTableRecord
100
AcDbLinetypeTableRecord
  2
PHANTOM1
 70
     0
  3
--- - - --- - - --- - - --- - - 
 72
    65
 73
     6
 40
10.0
 49
3.25
 74
     0
 49
-1.25
 74
     0
 49
1.25
 74
     0
 49
-1.25
 74
     0
 49
1.25
 74
     0
 49
-1.25
 74
     0
  0
LTYPE
  5
28
330
5
100
AcDbSymbolTableRecord
100
AcDbLinetypeTableRecord
  2
PHANTOM2
 70
     0
  3
--------  -  -  --------  -  -  
 72
    65
 73
     6
 40
20.0
 49
10.0
 74
     0
 49
-2.5
 74
     0
 49
1.25
 74
     0
 49
-2.5
 74
     0
 49
1.25
 74
     0
 49
-2.5
 74
     0
  0
LTYPE
  5
29
330
5
100
AcDbSymbolTableRecord
100
AcDbLinetypeTableRecord
  2
DOT
 70
     0
  3
-   -   -   -   -   -   -   -   
 72
    65
 73
     2
 40
2.5
 49
0.625
 74
     0
 49
-1.875
 74
     0
  0
LTYPE
  5
2A
330
5
100
AcDbSymbolTableRecord
100
AcDbLinetypeTableRecord
  2
DUMMY
 70
     0
  3
ダミー
 72
    65
 73
     0
 40
0.0
  0
LTYPE
  5
2B
330
5
100
AcDbSymbolTableRecord
100
AcDbLinetypeTableRecord
  2
RAND1
 70
     0
  3
ランダム線1
 72
    65
 73
     4
 40
10.0
 49
1.0
 74
     0
 49
-2.0
 74
     0
 49
3.0
 74
     0
 49
-4.0
 74
     0
  0
LTYPE
  5
2C
330
5
100
AcDbSymbolTableRecord
100
AcDbLinetypeTableRecord
  2
RAND2
 70
     0
  3
ランダム線2
 72
    65
 73
     4
 40
14.0
 49
2.0
 74
     0
 49
-3.0
 74
     0
 49
4.0
 74
     0
 49
-5.0
 74
     0
  0
LTYPE
  5
2D
330
5
100
AcDbSymbolTableRecord
100
AcDbLinetypeTableRecord
  2
RAND3
 70
     0
  3
ランダム線3
 72
    65
 73
     4
 40
18.0
 49
3.0
 74
     0
 49
-4.0
 74
     0
 49
5.0
 74
     0
 49
-6.0
 74
     0
  0
LTYPE
  5
2E
330
5
100
AcDbSymbolTableRecord
100
AcDbLinetypeTableRecord
  2
RAND4
 70
     0
  3
ランダム線4
 72
    65
 73
     4
 40
22.0
 49
4.0
 74
     0
 49
-5.0
 74
     0
 49
6.0
 74
     0
 49
-7.0
 74
     0
  0
LTYPE
  5
2F
330
5
100
AcDbSymbolTableRecord
100
AcDbLinetypeTableRecord
  2
RAND5
 70
     0
  3
ランダム線5
 72
    65
 73
     4
 40
26.0
 49
5.0
 74
     0
 49
-6.0
 74
     0
 49
7.0
 74
     0
 49
-8.0
 74
     0
  0
LTYPE
  5
30
330
5
100
AcDbSymbolTableRecord
100
AcDbLinetypeTableRecord
  2
LONG1
 70
     0
  3
----------  --  ----------  --  
 72
    65
 73
     4
 40
40.0
 49
32.5
 74
     0
 49
-2.5
 74
     0
 49
2.5
 74
     0
 49
-2.5
 74
     0
  0
LTYPE
  5
31
330
5
100
AcDbSymbolTableRecord
100
AcDbLinetypeTableRecord
  2
LONG2
 70
     0
  3
--------  -  -  --------  -  -  
 72
    65
 73
     6
 40
40.0
 49
30.0
 74
     0
 49
-2.5
 74
     0
 49
1.25
 74
     0
 49
-2.5
 74
     0
 49
1.25
 74
     0
 49
-2.5
 74
     0
  0
LTYPE
  5
32
330
5
100
AcDbSymbolTableRecord
100
AcDbLinetypeTableRecord
  2
LONG3
 70
     0
  3
+++++++++++++++..+++++++++++++++
 72
    65
 73
     2
 40
40.0
 49
37.5
 74
     0
 49
-2.5
 74
     0
  0
LTYPE
  5
33
330
5
100
AcDbSymbolTableRecord
100
AcDbLinetypeTableRecord
  2
LONG4
 70
     0
  3
+++++++++++++++..+++++++++++++++
 72
    65
 73
     2
 40
80.0
 49
75.0
 74
     0
 49
-5.0
 74
     0
  0
LTYPE
  5
34
330
5
100
AcDbSymbolTableRecord
100
AcDbLinetypeTableRecord
  2
LONG5
 70
     0
  3
----------  --  ----------  --  
 72
    65
 73
     4
 40
60.0
 49
37.5
 74
     0
 49
-7.5
 74
     0
 49
7.5
 74
     0
 49
-7.5
 74
     0
  0
LTYPE
  5
35
330
5
100
AcDbSymbolTableRecord
100
AcDbLinetypeTableRecord
  2
DASHED
 70
     0
  3
-------   -------------   ------
 72
    65
 73
     2
 40
7.5
 49
6.0
 74
     0
 49
-1.5
 74
     0
  0
LTYPE
  5
36
330
5
100
AcDbSymbolTableRecord
100
AcDbLinetypeTableRecord
  2
DASHED_SPACED
 70
     0
  3
----        --------        ----
 72
    65
 73
     2
 40
12.0
 49
6.0
 74
     0
 49
-6.0
 74
     0
  0
LTYPE
  5
37
330
5
100
AcDbSymbolTableRecord
100
AcDbLinetypeTableRecord
  2
LONG_DASHED_DOTTED
 70
     0
  3
------------- --- --------------
 72
    65
 73
     4
 40
15.25
 49
12.0
 74
     0
 49
-1.5
 74
     0
 49
0.25
 74
     0
 49
-1.5
 74
     0
  0
LTYPE
  5
38
330
5
100
AcDbSymbolTableRecord
100
AcDbLinetypeTableRecord
  2
LONG_DASHED_DOUBLE-DOTTED
 70
     0
  3
----------- --- --- ------------
 72
    65
 73
     6
 40
17.0
 49
12.0
 74
     0
 49
-1.5
 74
     0
 49
0.25
 74
     0
 49
-1.5
 74
     0
 49
0.25
 74
     0
 49
-1.5
 74
     0
  0
LTYPE
  5
39
330
5
100
AcDbSymbolTableRecord
100
AcDbLinetypeTableRecord
  2
LONG_DASHED_TRIPLICATE-DOTTED
 70
     0
  3
--------- --- --- --- ----------
 72
    65
 73
     8
 40
18.75
 49
12.0
 74
     0
 49
-1.5
 74
     0
 49
0.25
 74
     0
 49
-1.5
 74
     0
 49
0.25
 74
     0
 49
-1.5
 74
     0
 49
0.25
 74
     0
 49
-1.5
 74
     0
  0
LTYPE
  5
3A
330
5
100
AcDbSymbolTableRecord
100
AcDbLinetypeTableRecord
  2
DOTTED
 70
     0
  3
   -       -       -       -    
 72
    65
 73
     2
 40
1.75
 49
0.25
 74
     0
 49
-1.5
 74
     0
  0
LTYPE
  5
3B
330
5
100
AcDbSymbolTableRecord
100
AcDbLinetypeTableRecord
  2
CHAIN
 70
     0
  3
-------------- -- --------------
 72
    65
 73
     4
 40
18.5
 49
12.0
 74
     0
 49
-1.5
 74
     0
 49
3.5
 74
     0
 49
-1.5
 74
     0
  0
LTYPE
  5
3C
330
5
100
AcDbSymbolTableRecord
100
AcDbLinetypeTableRecord
  2
CHAIN_DOUBLE_DASH
 70
     0
  3
------------ -- -- -------------
 72
    65
 73
     6
 40
23.5
 49
12.0
 74
     0
 49
-1.5
 74
     0
 49
3.5
 74
     0
 49
-1.5
 74
     0
 49
3.5
 74
     0
 49
-1.5
 74
     0
  0
LTYPE
  5
3D
330
5
100
AcDbSymbolTableRecord
100
AcDbLinetypeTableRecord
  2
DASHED_DOTTED
 70
     0
  3
-----------     -     ----------
 72
    65
 73
     4
 40
9.25
 49
6.0
 74
     0
 49
-1.5
 74
     0
 49
0.25
 74
     0
 49
-1.5
 74
     0
  0
LTYPE
  5
3E
330
5
100
AcDbSymbolTableRecord
100
AcDbLinetypeTableRecord
  2
DOUBLE-DASHED_DOTTED
 70
     0
  3
------   -----------   -   -----
 72
    65
 73
     6
 40
16.75
 49
6.0
 74
     0
 49
-1.5
 74
     0
 49
6.0
 74
     0
 49
-1.5
 74
     0
 49
0.25
 74
     0
 49
-1.5
 74
     0
  0
LTYPE
  5
3F
330
5
100
AcDbSymbolTableRecord
100
AcDbLinetypeTableRecord
  2
DASHED_DOUBLE-DOTTED
 70
     0
  3
---------    -    -    ---------
 72
    65
 73
     6
 40
11.0
 49
6.0
 74
     0
 49
-1.5
 74
     0
 49
0.25
 74
     0
 49
-1.5
 74
     0
 49
0.25
 74
     0
 49
-1.5
 74
     0
  0
LTYPE
  5
40
330
5
100
AcDbSymbolTableRecord
100
AcDbLinetypeTableRecord
  2
DOUBLE-DASHED_DOUBLE-DOTTED
 70
     0
  3
-----   ---------   -   -   ----
 72
    65
 73
     8
 40
18.5
 49
6.0
 74
     0
 49
-1.5
 74
     0
 49
6.0
 74
     0
 49
-1.5
 74
     0
 49
0.25
 74
     0
 49
-1.5
 74
     0
 49
0.25
 74
     0
 49
-1.5
 74
     0
  0
LTYPE
  5
41
330
5
100
AcDbSymbolTableRecord
100
AcDbLinetypeTableRecord
  2
DASHED_TRIPLICATE-DOTTED
 70
     0
  3
-------    -    -    -    ------
 72
    65
 73
     8
 40
12.75
 49
6.0
 74
     0
 49
-1.5
 74
     0
 49
0.25
 74
     0
 49
-1.5
 74
     0
 49
0.25
 74
     0
 49
-1.5
 74
     0
 49
0.25
 74
     0
 49
-1.5
 74
     0
  0
LTYPE
  5
42
330
5
100
AcDbSymbolTableRecord
100
AcDbLinetypeTableRecord
  2
DOUBLE-DASHED_TRIPLICATE-DOTTED
 70
     0
  3
-----  ---------  -  -  -  -----
 72
    65
 73
    10
 40
20.24999999999999
 49
6.0
 74
     0
 49
-1.5
 74
     0
 49
6.0
 74
     0
 49
-1.5
 74
     0
 49
0.25
 74
     0
 49
-1.5
 74
     0
 49
0.25
 74
     0
 49
-1.5
 74
     0
 49
0.25
 74
     0
 49
-1.5
 74
     0
  0
LTYPE
  5
43
330
5
100
AcDbSymbolTableRecord
100
AcDbLinetypeTableRecord
  2
UNDEFINED
 70
     0
  3
--------------------------------
 72
    65
 73
     0
 40
0.0
  0
LTYPE
  5
44
330
5
100
AcDbSymbolTableRecord
100
AcDbLinetypeTableRecord
  2
PLINE2
 70
     0
  3
------     -----------     -----
 72
    65
 73
     2
 40
3.0
 49
2.1
 74
     0
 49
-0.9
 74
     0
  0
LTYPE
  5
45
330
5
100
AcDbSymbolTableRecord
100
AcDbLinetypeTableRecord
  2
PLINE3
 70
     0
  3
------------   ---   -----------
 72
    65
 73
     4
 40
10.0
 49
7.0
 74
     0
 49
-1.0
 74
     0
 49
1.0
 74
     0
 49
-1.0
 74
     0
  0
LTYPE
  5
46
330
5
100
AcDbSymbolTableRecord
100
AcDbLinetypeTableRecord
  2
PLINE4
 70
     0
  3
---------   ---   ---   --------
 72
    65
 73
     6
 40
10.0
 49
5.0
 74
     0
 49
-1.0
 74
     0
 49
1.0
 74
     0
 49
-1.0
 74
     0
 49
1.0
 74
     0
 49
-1.0
 74
     0
  0
LTYPE
  5
47
330
5
100
AcDbSymbolTableRecord
100
AcDbLinetypeTableRecord
  2
PLINE5
 70
     0
  3
------     -----------     -----
 72
    65
 73
     2
 40
5.0
 49
3.5
 74
     0
 49
-1.5
 74
     0
  0
LTYPE
  5
48
330
5
100
AcDbSymbolTableRecord
100
AcDbLinetypeTableRecord
  2
PLINE6
 70
     0
  3
------------   ---   -----------
 72
    65
 73
     4
 40
15.0
 49
10.5
 74
     0
 49
-1.5
 74
     0
 49
1.5
 74
     0
 49
-1.5
 74
     0
  0
LTYPE
  5
49
330
5
100
AcDbSymbolTableRecord
100
AcDbLinetypeTableRecord
  2
PLINE7
 70
     0
  3
---------   ---   ---   --------
 72
    65
 73
     6
 40
15.0
 49
7.5
 74
     0
 49
-1.5
 74
     0
 49
1.5
 74
     0
 49
-1.5
 74
     0
 49
1.5
 74
     0
 49
-1.5
 74
     0
  0
LTYPE
  5
4A
330
5
100
AcDbSymbolTableRecord
100
AcDbLinetypeTableRecord
  2
PLINE8
 70
     0
  3
------     -----------     -----
 72
    65
 73
     2
 40
7.0
 49
4.9
 74
     0
 49
-2.1
 74
     0
  0
LTYPE
  5
4B
330
5
100
AcDbSymbolTableRecord
100
AcDbLinetypeTableRecord
  2
PLINE9
 70
     0
  3
------------   ---   -----------
 72
    65
 73
     4
 40
20.0
 49
14.0
 74
     0
 49
-2.0
 74
     0
 49
2.0
 74
     0
 49
-2.0
 74
     0
  0
LTYPE
  5
4C
330
5
100
AcDbSymbolTableRecord
100
AcDbLinetypeTableRecord
  2
PLINE10
 70
     0
  3
---------   ---   ---   --------
 72
    65
 73
     6
 40
20.0
 49
10.0
 74
     0
 49
-2.0
 74
     0
 49
2.0
 74
     0
 49
-2.0
 74
     0
 49
2.0
 74
     0
 49
-2.0
 74
     0
  0
LTYPE
  5
4D
330
5
100
AcDbSymbolTableRecord
100
AcDbLinetypeTableRecord
  2
PLINE11
 70
     0
  3
------     -----------     -----
 72
    65
 73
     2
 40
9.0
 49
6.299999999999999
 74
     0
 49
-2.7
 74
     0
  0
LTYPE
  5
4E
330
5
100
AcDbSymbolTableRecord
100
AcDbLinetypeTableRecord
  2
PLINE12
 70
     0
  3
------------   ---   -----------
 72
    65
 73
     4
 40
25.0
 49
17.5
 74
     0
 49
-2.5
 74
     0
 49
2.5
 74
     0
 49
-2.5
 74
     0
  0
LTYPE
  5
4F
330
5
100
AcDbSymbolTableRecord
100
AcDbLinetypeTableRecord
  2
PLINE13
 70
     0
  3
---------   ---   ---   --------
 72
    65
 73
     6
 40
25.0
 49
12.5
 74
     0
 49
-2.5
 74
     0
 49
2.5
 74
     0
 49
-2.5
 74
     0
 49
2.5
 74
     0
 49
-2.5
 74
     0
  0
LTYPE
  5
50
330
5
100
AcDbSymbolTableRecord
100
AcDbLinetypeTableRecord
  2
PLINE14
 70
     0
  3
------     -----------     -----
 72
    65
 73
     2
 40
11.0
 49
7.7
 74
     0
 49
-3.299999999999999
 74
     0
  0
LTYPE
  5
51
330
5
100
AcDbSymbolTableRecord
100
AcDbLinetypeTableRecord
  2
PLINE15
 70
     0
  3
------------   ---   -----------
 72
    65
 73
     4
 40
30.0
 49
21.0
 74
     0
 49
-3.0
 74
     0
 49
3.0
 74
     0
 49
-3.0
 74
     0
  0
LTYPE
  5
52
330
5
100
AcDbSymbolTableRecord
100
AcDbLinetypeTableRecord
  2
PLINE16
 70
     0
  3
---------   ---   ---   --------
 72
    65
 73
     6
 40
30.0
 49
15.0
 74
     0
 49
-3.0
 74
     0
 49
3.0
 74
     0
 49
-3.0
 74
     0
 49
3.0
 74
     0
 49
-3.0
 74
     0
  0
ENDTAB
  0
TABLE
  2
LAYER
  5
2
102
{ACAD_XDICTIONARY
360
175
102
}
330
0
100
AcDbSymbolTable
 70
     5
  0
LAYER
  5
10
330
2
100
AcDbSymbolTableRecord
100
AcDbLayerTableRecord
  2
0
 70
     0
 62
     7
  6
CONTINUOUS
370
    -3
390
F
  0
LAYER
  5
128
330
2
100
AcDbSymbolTableRecord
100
AcDbLayerTableRecord
  2
Defpoints
 70
     0
 62
     7
  6
CONTINUOUS
290
     0
370
    -3
390
F
  0
LAYER
  5
178
330
2
100
AcDbSymbolTableRecord
100
AcDbLayerTableRecord
  2
寸法
 70
     0
 62
     7
  6
CONTINUOUS
370
    -3
390
F
  0
LAYER
  5
179
330
2
100
AcDbSymbolTableRecord
100
AcDbLayerTableRecord
  2
躯体と製品
 70
     0
 62
     7
  6
CONTINUOUS
370
    -3
390
F
  0
LAYER
  5
4F62
330
2
100
AcDbSymbolTableRecord
100
AcDbLayerTableRecord
  2
文字-記号
 70
     0
 62
     7
  6
CONTINUOUS
370
    -3
390
F
  0
ENDTAB
  0
TABLE
  2
STYLE
  5
3
330
0
100
AcDbSymbolTable
 70
     5
  0
STYLE
  5
11
330
3
100
AcDbSymbolTableRecord
100
AcDbTextStyleTableRecord
  2
STANDARD
 70
     0
 40
0.0
 41
1.0
 50
0.0
 71
     0
 42
0.2
  3
txt
  4
bigfont.shx
  0
STYLE
  5
53
330
3
100
AcDbSymbolTableRecord
100
AcDbTextStyleTableRecord
  2
TATEGAKI
 70
     4
 40
0.0
 41
1.0
 50
0.0
 71
     0
 42
1.0
  3
txt
  4
bigfont.shx
  0
STYLE
  5
123
330
3
100
AcDbSymbolTableRecord
100
AcDbTextStyleTableRecord
  2
ACAD
 70
     0
 40
5.0
 41
0.8
 50
0.0
 71
     0
 42
5.0
  3
romans.shx
  4
extfont.shx
  0
STYLE
  5
3A5F
330
3
100
AcDbSymbolTableRecord
100
AcDbTextStyleTableRecord
  2
VERTXT
 70
     4
 40
0.0
 41
0.8582679999999999
 50
0.0
 71
     0
 42
3.5
  3
txt.shx
  4
BIGFONT
  0
STYLE
  5
50AD
330
3
100
AcDbSymbolTableRecord
100
AcDbTextStyleTableRecord
  2
STANDARD2
 70
     0
 40
0.0
 41
0.8582679999999999
 50
0.0
 71
     0
 42
3.5
  3
txt.shx
  4
EXTFONT
  0
ENDTAB
  0
TABLE
  2
VIEW
  5
6
330
0
100
AcDbSymbolTable
 70
     0
  0
ENDTAB
  0
TABLE
  2
UCS
  5
7
330
0
100
AcDbSymbolTable
 70
     0
  0
ENDTAB
  0
TABLE
  2
APPID
  5
9
330
0
100
AcDbSymbolTable
 70
     1
  0
APPID
  5
12
330
9
100
AcDbSymbolTableRecord
100
AcDbRegAppTableRecord
  2
ACAD
 70
     0
  0
ENDTAB
  0
TABLE
  2
DIMSTYLE
  5
A
330
0
100
AcDbSymbolTable
 70
     3
100
AcDbDimStyleTable
 71
     1
340
126
  0
DIMSTYLE
105
11C
330
A
100
AcDbSymbolTableRecord
100
AcDbDimStyleTableRecord
  2
Standard
 70
     0
340
11
  0
DIMSTYLE
105
126
102
{ACAD_REACTORS
330
5E8A
330
5EA0
330
5EAD
330
5EBA
330
5EC7
330
5ED4
330
5EE1
102
}
330
A
100
AcDbSymbolTableRecord
100
AcDbDimStyleTableRecord
  2
AutoCAD
 70
     0
 41
1.0
 42
0.0
 44
0.0
 73
     0
 77
     1
140
5.0
147
1.0
174
     1
176
     4
177
     4
178
     3
271
     0
272
     0
289
     0
340
123
341
15B0
342
11E
  0
DIMSTYLE
105
2CBB
330
A
100
AcDbSymbolTableRecord
100
AcDbDimStyleTableRecord
  2
111
 70
     0
 41
1.0
 42
0.0
 44
0.0
 73
     0
 77
     1
140
5.0
147
1.0
174
     1
176
     4
177
     4
178
     3
271
     0
272
     0
289
     0
340
123
341
15B0
342
2CB5
  0
ENDTAB
  0
TABLE
  2
BLOCK_RECORD
  5
1
330
0
100
AcDbSymbolTable
 70
    11
  0
BLOCK_RECORD
  5
1E
102
{ACAD_XDICTIONARY
360
28B
102
}
330
1
100
AcDbSymbolTableRecord
100
AcDbBlockTableRecord
  2
*Model_Space
340
21
  0
BLOCK_RECORD
  5
1A
102
{ACAD_XDICTIONARY
360
28D
102
}
330
1
100
AcDbSymbolTableRecord
100
AcDbBlockTableRecord
  2
*Paper_Space
340
1D
  0
BLOCK_RECORD
  5
11E
330
1
100
AcDbSymbolTableRecord
100
AcDbBlockTableRecord
  2
_Dot
340
0
102
{BLKREFS
331
5E9A
331
5E9B
331
5EA5
331
5EA6
331
5EB2
331
5EB3
331
5EBF
331
5EC0
331
5ECC
331
5ECD
331
5ED9
331
5EDA
331
5EE6
331
5EE7
102
}
  0
BLOCK_RECORD
  5
15B0
330
1
100
AcDbSymbolTableRecord
100
AcDbBlockTableRecord
  2
_None
340
0
  0
BLOCK_RECORD
  5
2CB5
330
1
100
AcDbSymbolTableRecord
100
AcDbBlockTableRecord
  2
_Open30
340
0
  0
BLOCK_RECORD
  5
35E3
330
1
100
AcDbSymbolTableRecord
100
AcDbBlockTableRecord
  2
_DotBlank
340
0
  0
BLOCK_RECORD
  5
5E8B
330
1
100
AcDbSymbolTableRecord
100
AcDbBlockTableRecord
  2
*D4
340
0
  0
BLOCK_RECORD
  5
5EA1
330
1
100
AcDbSymbolTableRecord
100
AcDbBlockTableRecord
  2
*D5
340
0
  0
BLOCK_RECORD
  5
5EAE
330
1
100
AcDbSymbolTableRecord
100
AcDbBlockTableRecord
  2
*D6
340
0
  0
BLOCK_RECORD
  5
5EBB
330
1
100
AcDbSymbolTableRecord
100
AcDbBlockTableRecord
  2
*D7
340
0
  0
BLOCK_RECORD
  5
5EC8
330
1
100
AcDbSymbolTableRecord
100
AcDbBlockTableRecord
  2
*D8
340
0
  0
BLOCK_RECORD
  5
5ED5
330
1
100
AcDbSymbolTableRecord
100
AcDbBlockTableRecord
  2
*D9
340
0
  0
BLOCK_RECORD
  5
5EE2
330
1
100
AcDbSymbolTableRecord
100
AcDbBlockTableRecord
  2
*D10
340
0
  0
ENDTAB
  0
ENDSEC
  0
SECTION
  2
BLOCKS
  0
BLOCK
  5
1F
330
1E
100
AcDbEntity
  8
0
100
AcDbBlockBegin
  2
*Model_Space
 70
     0
 10
0.0
 20
0.0
 30
0.0
  3
*Model_Space
  1

  0
ENDBLK
  5
20
330
1E
100
AcDbEntity
  8
0
100
AcDbBlockEnd
  0
BLOCK
  5
1B
330
1A
100
AcDbEntity
 67
     1
  8
0
100
AcDbBlockBegin
  2
*Paper_Space
 70
     0
 10
0.0
 20
0.0
 30
0.0
  3
*Paper_Space
  1

  0
ENDBLK
  5
1C
330
1A
100
AcDbEntity
 67
     1
  8
0
100
AcDbBlockEnd
  0
BLOCK
  5
121
330
11E
100
AcDbEntity
  8
0
100
AcDbBlockBegin
  2
_Dot
 70
     0
 10
0.0
 20
0.0
 30
0.0
  3
_Dot
  1

  0
LWPOLYLINE
  5
11F
330
11E
100
AcDbEntity
  8
0
  6
ByBlock
 62
     0
100
AcDbPolyline
 90
        2
 70
     1
 43
0.5
 10
-0.25
 20
0.0
 42
1.0
 10
0.25
 20
0.0
 42
1.0
  0
LINE
  5
120
330
11E
100
AcDbEntity
  8
0
  6
ByBlock
 62
     0
370
    -2
100
AcDbLine
 10
-0.5
 20
0.0
 30
0.0
 11
-1.0
 21
0.0
 31
0.0
  0
ENDBLK
  5
122
330
11E
100
AcDbEntity
  8
0
100
AcDbBlockEnd
  0
BLOCK
  5
15B1
330
15B0
100
AcDbEntity
  8
0
100
AcDbBlockBegin
  2
_None
 70
     0
 10
0.0
 20
0.0
 30
0.0
  3
_None
  1

  0
ENDBLK
  5
15B2
330
15B0
100
AcDbEntity
  8
0
100
AcDbBlockEnd
  0
BLOCK
  5
2CB9
330
2CB5
100
AcDbEntity
  8
0
100
AcDbBlockBegin
  2
_Open30
 70
     0
 10
0.0
 20
0.0
 30
0.0
  3
_Open30
  1

  0
LINE
  5
2CB6
330
2CB5
100
AcDbEntity
  8
0
  6
ByBlock
 62
     0
370
    -2
100
AcDbLine
 10
-1.0
 20
0.26794919
 30
0.0
 11
0.0
 21
0.0
 31
0.0
  0
LINE
  5
2CB7
330
2CB5
100
AcDbEntity
  8
0
  6
ByBlock
 62
     0
370
    -2
100
AcDbLine
 10
0.0
 20
0.0
 30
0.0
 11
-1.0
 21
-0.26794919
 31
0.0
  0
LINE
  5
2CB8
330
2CB5
100
AcDbEntity
  8
0
  6
ByBlock
 62
     0
370
    -2
100
AcDbLine
 10
0.0
 20
0.0
 30
0.0
 11
-1.0
 21
0.0
 31
0.0
  0
ENDBLK
  5
2CBA
330
2CB5
100
AcDbEntity
  8
0
100
AcDbBlockEnd
  0
BLOCK
  5
35E6
330
35E3
100
AcDbEntity
  8
0
100
AcDbBlockBegin
  2
_DotBlank
 70
     0
 10
0.0
 20
0.0
 30
0.0
  3
_DotBlank
  1

  0
CIRCLE
  5
35E4
330
35E3
100
AcDbEntity
  8
0
  6
ByBlock
 62
     0
370
    -2
100
AcDbCircle
 10
0.0
 20
0.0
 30
0.0
 40
0.5
  0
LINE
  5
35E5
330
35E3
100
AcDbEntity
  8
0
  6
ByBlock
 62
     0
370
    -2
100
AcDbLine
 10
-0.5
 20
0.0
 30
0.0
 11
-1.0
 21
0.0
 31
0.0
  0
ENDBLK
  5
35E7
330
35E3
100
AcDbEntity
  8
0
100
AcDbBlockEnd
  0
BLOCK
  5
5E95
330
5E8B
100
AcDbEntity
  8
0
100
AcDbBlockBegin
  2
*D4
 70
     1
 10
0.0
 20
0.0
 30
0.0
  3
*D4
  1

  0
LINE
  5
5E97
330
5E8B
100
AcDbEntity
  8
寸法
  6
Continuous
 62
     4
370
    -2
100
AcDbLine
 10
1139.317571134981
 20
652.8514046360982
 30
0.0
 11
1117.917427134981
 21
652.8514046360982
 31
0.0
  0
LINE
  5
5E98
330
5E8B
100
AcDbEntity
  8
寸法
  6
Continuous
 62
     4
370
    -2
100
AcDbLine
 10
1135.117571134981
 20
752.8514046360982
 30
0.0
 11
1117.917427134981
 21
752.8514046360982
 31
0.0
  0
LINE
  5
5E99
330
5E8B
100
AcDbEntity
  8
寸法
  6
Continuous
 62
     4
370
    -2
100
AcDbLine
 10
1117.917427134981
 20
653.8514046360983
 30
0.0
 11
1117.917427134981
 21
751.8514046360983
 31
0.0
  0
INSERT
  5
5E9A
330
5E8B
100
AcDbEntity
  8
寸法
  6
Continuous
 62
     4
370
    -2
100
AcDbBlockReference
  2
_Dot
 10
1117.917427134981
 20
652.8514046360982
 30
0.0
 50
270.0
  0
INSERT
  5
5E9B
330
5E8B
100
AcDbEntity
  8
寸法
  6
Continuous
 62
     4
370
    -2
100
AcDbBlockReference
  2
_Dot
 10
1117.917427134981
 20
752.8514046360982
 30
0.0
 50
90.0
  0
MTEXT
  5
5E9C
330
5E8B
100
AcDbEntity
  8
寸法
  6
Continuous
 62
     3
100
AcDbMText
 10
1114.417427134981
 20
702.8514046360984
 30
0.0
 40
5.0
 41
0.0
 71
     5
 72
     1
  1
\A1;100
  7
ACAD
 11
0.0000000000000001
 21
1.0
 31
0.0
 73
     1
 44
1.0
  0
POINT
  5
5E9D
330
5E8B
100
AcDbEntity
  8
Defpoints
  6
Continuous
 62
     0
100
AcDbPoint
 10
1139.317571134981
 20
652.8514046360982
 30
0.0
  0
POINT
  5
5E9E
330
5E8B
100
AcDbEntity
  8
Defpoints
  6
Continuous
 62
     0
100
AcDbPoint
 10
1135.117571134981
 20
752.8514046360982
 30
0.0
  0
POINT
  5
5E9F
330
5E8B
100
AcDbEntity
  8
Defpoints
  6
Continuous
 62
     0
100
AcDbPoint
 10
1117.917427134981
 20
752.8514046360982
 30
0.0
  0
ENDBLK
  5
5E96
330
5E8B
100
AcDbEntity
  8
0
100
AcDbBlockEnd
  0
BLOCK
  5
5EAB
330
5EA1
100
AcDbEntity
  8
0
100
AcDbBlockBegin
  2
*D5
 70
     1
 10
0.0
 20
0.0
 30
0.0
  3
*D5
  1

  0
LINE
  5
5EA2
330
5EA1
100
AcDbEntity
  8
寸法
  6
Continuous
 62
     4
370
    -2
100
AcDbLine
 10
1138.820274134981
 20
651.9973506360981
 30
0.0
 11
1138.820274134981
 21
628.1520496360982
 31
0.0
  0
LINE
  5
5EA3
330
5EA1
100
AcDbEntity
  8
寸法
  6
Continuous
 62
     4
370
    -2
100
AcDbLine
 10
1388.820274134981
 20
647.7973506360982
 30
0.0
 11
1388.820274134981
 21
628.1520496360982
 31
0.0
  0
LINE
  5
5EA4
330
5EA1
100
AcDbEntity
  8
寸法
  6
Continuous
 62
     4
370
    -2
100
AcDbLine
 10
1139.820274134981
 20
628.1520496360982
 30
0.0
 11
1387.820274134981
 21
628.1520496360982
 31
0.0
  0
INSERT
  5
5EA5
330
5EA1
100
AcDbEntity
  8
寸法
  6
Continuous
 62
     4
370
    -2
100
AcDbBlockReference
  2
_Dot
 10
1138.820274134981
 20
628.1520496360982
 30
0.0
 50
180.0
  0
INSERT
  5
5EA6
330
5EA1
100
AcDbEntity
  8
寸法
  6
Continuous
 62
     4
370
    -2
100
AcDbBlockReference
  2
_Dot
 10
1388.820274134981
 20
628.1520496360982
 30
0.0
  0
MTEXT
  5
5EA7
330
5EA1
100
AcDbEntity
  8
寸法
  6
Continuous
 62
     3
100
AcDbMText
 10
1263.820274134981
 20
631.6520496360982
 30
0.0
 40
5.0
 41
0.0
 71
     5
 72
     1
  1
\A1;250
  7
ACAD
 73
     1
 44
1.0
  0
POINT
  5
5EA8
330
5EA1
100
AcDbEntity
  8
Defpoints
  6
Continuous
 62
     0
100
AcDbPoint
 10
1138.820274134981
 20
651.9973506360981
 30
0.0
  0
POINT
  5
5EA9
330
5EA1
100
AcDbEntity
  8
Defpoints
  6
Continuous
 62
     0
100
AcDbPoint
 10
1388.820274134981
 20
647.7973506360982
 30
0.0
  0
POINT
  5
5EAA
330
5EA1
100
AcDbEntity
  8
Defpoints
  6
Continuous
 62
     0
100
AcDbPoint
 10
1388.820274134981
 20
628.1520496360982
 30
0.0
  0
ENDBLK
  5
5EAC
330
5EA1
100
AcDbEntity
  8
0
100
AcDbBlockEnd
  0
BLOCK
  5
5EB8
330
5EAE
100
AcDbEntity
  8
0
100
AcDbBlockBegin
  2
*D6
 70
     1
 10
0.0
 20
0.0
 30
0.0
  3
*D6
  1

  0
LINE
  5
5EAF
330
5EAE
100
AcDbEntity
  8
寸法
  6
Continuous
 62
     4
370
    -2
100
AcDbLine
 10
1440.702095134981
 20
651.9973506360981
 30
0.0
 11
1440.702095134981
 21
628.1520496360982
 31
0.0
  0
LINE
  5
5EB0
330
5EAE
100
AcDbEntity
  8
寸法
  6
Continuous
 62
     4
370
    -2
100
AcDbLine
 10
1590.702095134981
 20
647.7973506360982
 30
0.0
 11
1590.702095134981
 21
628.1520496360982
 31
0.0
  0
LINE
  5
5EB1
330
5EAE
100
AcDbEntity
  8
寸法
  6
Continuous
 62
     4
370
    -2
100
AcDbLine
 10
1441.702095134981
 20
628.1520496360982
 30
0.0
 11
1589.702095134981
 21
628.1520496360982
 31
0.0
  0
INSERT
  5
5EB2
330
5EAE
100
AcDbEntity
  8
寸法
  6
Continuous
 62
     4
370
    -2
100
AcDbBlockReference
  2
_Dot
 10
1440.702095134981
 20
628.1520496360982
 30
0.0
 50
180.0
  0
INSERT
  5
5EB3
330
5EAE
100
AcDbEntity
  8
寸法
  6
Continuous
 62
     4
370
    -2
100
AcDbBlockReference
  2
_Dot
 10
1590.702095134981
 20
628.1520496360982
 30
0.0
  0
MTEXT
  5
5EB4
330
5EAE
100
AcDbEntity
  8
寸法
  6
Continuous
 62
     3
100
AcDbMText
 10
1515.702095134981
 20
631.6520496360982
 30
0.0
 40
5.0
 41
0.0
 71
     5
 72
     1
  1
\A1;150
  7
ACAD
 73
     1
 44
1.0
  0
POINT
  5
5EB5
330
5EAE
100
AcDbEntity
  8
Defpoints
  6
Continuous
 62
     0
100
AcDbPoint
 10
1440.702095134981
 20
651.9973506360981
 30
0.0
  0
POINT
  5
5EB6
330
5EAE
100
AcDbEntity
  8
Defpoints
  6
Continuous
 62
     0
100
AcDbPoint
 10
1590.702095134981
 20
647.7973506360982
 30
0.0
  0
POINT
  5
5EB7
330
5EAE
100
AcDbEntity
  8
Defpoints
  6
Continuous
 62
     0
100
AcDbPoint
 10
1590.702095134981
 20
628.1520496360982
 30
0.0
  0
ENDBLK
  5
5EB9
330
5EAE
100
AcDbEntity
  8
0
100
AcDbBlockEnd
  0
BLOCK
  5
5EC5
330
5EBB
100
AcDbEntity
  8
0
100
AcDbBlockBegin
  2
*D7
 70
     1
 10
0.0
 20
0.0
 30
0.0
  3
*D7
  1

  0
LINE
  5
5EBC
330
5EBB
100
AcDbEntity
  8
寸法
  6
Continuous
 62
     4
370
    -2
100
AcDbLine
 10
1265.624213134981
 20
524.9701956360982
 30
0.0
 11
1265.624213134981
 21
514.3163346360982
 31
0.0
  0
LINE
  5
5EBD
330
5EBB
100
AcDbEntity
  8
寸法
  6
Continuous
 62
     4
370
    -2
100
AcDbLine
 10
1395.624213134981
 20
525.2708806360982
 30
0.0
 11
1395.624213134981
 21
514.3163346360982
 31
0.0
  0
LINE
  5
5EBE
330
5EBB
100
AcDbEntity
  8
寸法
  6
Continuous
 62
     4
370
    -2
100
AcDbLine
 10
1266.624213134981
 20
514.3163346360982
 30
0.0
 11
1394.624213134981
 21
514.3163346360982
 31
0.0
  0
INSERT
  5
5EBF
330
5EBB
100
AcDbEntity
  8
寸法
  6
Continuous
 62
     4
370
    -2
100
AcDbBlockReference
  2
_Dot
 10
1265.624213134981
 20
514.3163346360982
 30
0.0
 50
180.0
  0
INSERT
  5
5EC0
330
5EBB
100
AcDbEntity
  8
寸法
  6
Continuous
 62
     4
370
    -2
100
AcDbBlockReference
  2
_Dot
 10
1395.624213134981
 20
514.3163346360982
 30
0.0
  0
MTEXT
  5
5EC1
330
5EBB
100
AcDbEntity
  8
寸法
  6
Continuous
 62
     3
100
AcDbMText
 10
1330.624213134981
 20
517.8163346360982
 30
0.0
 40
5.0
 41
0.0
 71
     5
 72
     1
  1
\A1;130
  7
ACAD
 73
     1
 44
1.0
  0
POINT
  5
5EC2
330
5EBB
100
AcDbEntity
  8
Defpoints
  6
Continuous
 62
     0
100
AcDbPoint
 10
1265.624213134981
 20
524.9701956360982
 30
0.0
  0
POINT
  5
5EC3
330
5EBB
100
AcDbEntity
  8
Defpoints
  6
Continuous
 62
     0
100
AcDbPoint
 10
1395.624213134981
 20
525.2708806360982
 30
0.0
  0
POINT
  5
5EC4
330
5EBB
100
AcDbEntity
  8
Defpoints
  6
Continuous
 62
     0
100
AcDbPoint
 10
1395.624213134981
 20
514.3163346360982
 30
0.0
  0
ENDBLK
  5
5EC6
330
5EBB
100
AcDbEntity
  8
0
100
AcDbBlockEnd
  0
BLOCK
  5
5ED2
330
5EC8
100
AcDbEntity
  8
0
100
AcDbBlockBegin
  2
*D8
 70
     1
 10
0.0
 20
0.0
 30
0.0
  3
*D8
  1

  0
LINE
  5
5EC9
330
5EC8
100
AcDbEntity
  8
寸法
  6
Continuous
 62
     4
370
    -2
100
AcDbLine
 10
1261.912688134981
 20
528.2613266360981
 30
0.0
 11
1254.495521134981
 21
528.2613266360981
 31
0.0
  0
LINE
  5
5ECA
330
5EC8
100
AcDbEntity
  8
寸法
  6
Continuous
 62
     4
370
    -2
100
AcDbLine
 10
1261.912688134981
 20
558.2613266360981
 30
0.0
 11
1254.495521134981
 21
558.2613266360981
 31
0.0
  0
LINE
  5
5ECB
330
5EC8
100
AcDbEntity
  8
寸法
  6
Continuous
 62
     4
370
    -2
100
AcDbLine
 10
1254.495521134981
 20
529.2613266360981
 30
0.0
 11
1254.495521134981
 21
557.2613266360981
 31
0.0
  0
INSERT
  5
5ECC
330
5EC8
100
AcDbEntity
  8
寸法
  6
Continuous
 62
     4
370
    -2
100
AcDbBlockReference
  2
_Dot
 10
1254.495521134981
 20
528.2613266360981
 30
0.0
 50
270.0
  0
INSERT
  5
5ECD
330
5EC8
100
AcDbEntity
  8
寸法
  6
Continuous
 62
     4
370
    -2
100
AcDbBlockReference
  2
_Dot
 10
1254.495521134981
 20
558.2613266360981
 30
0.0
 50
90.0
  0
MTEXT
  5
5ECE
330
5EC8
100
AcDbEntity
  8
寸法
  6
Continuous
 62
     3
100
AcDbMText
 10
1250.995521134981
 20
543.2613266360982
 30
0.0
 40
5.0
 41
0.0
 71
     5
 72
     1
  1
\A1;30
  7
ACAD
 11
0.0000000000000001
 21
1.0
 31
0.0
 73
     1
 44
1.0
  0
POINT
  5
5ECF
330
5EC8
100
AcDbEntity
  8
Defpoints
  6
Continuous
 62
     0
100
AcDbPoint
 10
1261.912688134981
 20
528.2613266360981
 30
0.0
  0
POINT
  5
5ED0
330
5EC8
100
AcDbEntity
  8
Defpoints
  6
Continuous
 62
     0
100
AcDbPoint
 10
1261.912688134981
 20
558.2613266360981
 30
0.0
  0
POINT
  5
5ED1
330
5EC8
100
AcDbEntity
  8
Defpoints
  6
Continuous
 62
     0
100
AcDbPoint
 10
1254.495521134981
 20
558.2613266360981
 30
0.0
  0
ENDBLK
  5
5ED3
330
5EC8
100
AcDbEntity
  8
0
100
AcDbBlockEnd
  0
BLOCK
  5
5EDF
330
5ED5
100
AcDbEntity
  8
0
100
AcDbBlockBegin
  2
*D9
 70
     1
 10
0.0
 20
0.0
 30
0.0
  3
*D9
  1

  0
LINE
  5
5ED6
330
5ED5
100
AcDbEntity
  8
寸法
  6
Continuous
 62
     4
370
    -2
100
AcDbLine
 10
1141.745420134981
 20
586.0712886360982
 30
0.0
 11
1141.745420134981
 21
594.0172446360982
 31
0.0
  0
LINE
  5
5ED7
330
5ED5
100
AcDbEntity
  8
寸法
  6
Continuous
 62
     4
370
    -2
100
AcDbLine
 10
1191.745420134981
 20
586.0712886360982
 30
0.0
 11
1191.745420134981
 21
594.0172446360982
 31
0.0
  0
LINE
  5
5ED8
330
5ED5
100
AcDbEntity
  8
寸法
  6
Continuous
 62
     4
370
    -2
100
AcDbLine
 10
1142.745420134981
 20
594.0172446360982
 30
0.0
 11
1190.745420134981
 21
594.0172446360982
 31
0.0
  0
INSERT
  5
5ED9
330
5ED5
100
AcDbEntity
  8
寸法
  6
Continuous
 62
     4
370
    -2
100
AcDbBlockReference
  2
_Dot
 10
1141.745420134981
 20
594.0172446360982
 30
0.0
 50
180.0
  0
INSERT
  5
5EDA
330
5ED5
100
AcDbEntity
  8
寸法
  6
Continuous
 62
     4
370
    -2
100
AcDbBlockReference
  2
_Dot
 10
1191.745420134981
 20
594.0172446360982
 30
0.0
  0
MTEXT
  5
5EDB
330
5ED5
100
AcDbEntity
  8
寸法
  6
Continuous
 62
     3
100
AcDbMText
 10
1166.745420134981
 20
597.5172446360982
 30
0.0
 40
5.0
 41
0.0
 71
     5
 72
     1
  1
\A1;50
  7
ACAD
 73
     1
 44
1.0
  0
POINT
  5
5EDC
330
5ED5
100
AcDbEntity
  8
Defpoints
  6
Continuous
 62
     0
100
AcDbPoint
 10
1141.745420134981
 20
586.0712886360982
 30
0.0
  0
POINT
  5
5EDD
330
5ED5
100
AcDbEntity
  8
Defpoints
  6
Continuous
 62
     0
100
AcDbPoint
 10
1191.745420134981
 20
586.0712886360982
 30
0.0
  0
POINT
  5
5EDE
330
5ED5
100
AcDbEntity
  8
Defpoints
  6
Continuous
 62
     0
100
AcDbPoint
 10
1191.745420134981
 20
594.0172446360982
 30
0.0
  0
ENDBLK
  5
5EE0
330
5ED5
100
AcDbEntity
  8
0
100
AcDbBlockEnd
  0
BLOCK
  5
5EEC
330
5EE2
100
AcDbEntity
  8
0
100
AcDbBlockBegin
  2
*D10
 70
     1
 10
0.0
 20
0.0
 30
0.0
  3
*D10
  1

  0
LINE
  5
5EE3
330
5EE2
100
AcDbEntity
  8
寸法
  6
Continuous
 62
     4
370
    -2
100
AcDbLine
 10
1140.013713134981
 20
584.0956786360982
 30
0.0
 11
1130.601598134981
 21
584.0956786360982
 31
0.0
  0
LINE
  5
5EE4
330
5EE2
100
AcDbEntity
  8
寸法
  6
Continuous
 62
     4
370
    -2
100
AcDbLine
 10
1140.013713134981
 20
509.0956786360982
 30
0.0
 11
1130.601598134981
 21
509.0956786360982
 31
0.0
  0
LINE
  5
5EE5
330
5EE2
100
AcDbEntity
  8
寸法
  6
Continuous
 62
     4
370
    -2
100
AcDbLine
 10
1130.601598134981
 20
583.0956786360982
 30
0.0
 11
1130.601598134981
 21
510.0956786360982
 31
0.0
  0
INSERT
  5
5EE6
330
5EE2
100
AcDbEntity
  8
寸法
  6
Continuous
 62
     4
370
    -2
100
AcDbBlockReference
  2
_Dot
 10
1130.601598134981
 20
584.0956786360982
 30
0.0
 50
90.0
  0
INSERT
  5
5EE7
330
5EE2
100
AcDbEntity
  8
寸法
  6
Continuous
 62
     4
370
    -2
100
AcDbBlockReference
  2
_Dot
 10
1130.601598134981
 20
509.0956786360982
 30
0.0
 50
270.0
  0
MTEXT
  5
5EE8
330
5EE2
100
AcDbEntity
  8
寸法
  6
Continuous
 62
     3
100
AcDbMText
 10
1127.101598134981
 20
546.5956786360983
 30
0.0
 40
5.0
 41
0.0
 71
     5
 72
     1
  1
\A1;75
  7
ACAD
 11
0.0000000000000001
 21
1.0
 31
0.0
 73
     1
 44
1.0
  0
POINT
  5
5EE9
330
5EE2
100
AcDbEntity
  8
Defpoints
  6
Continuous
 62
     0
100
AcDbPoint
 10
1140.013713134981
 20
584.0956786360982
 30
0.0
  0
POINT
  5
5EEA
330
5EE2
100
AcDbEntity
  8
Defpoints
  6
Continuous
 62
     0
100
AcDbPoint
 10
1140.013713134981
 20
509.0956786360982
 30
0.0
  0
POINT
  5
5EEB
330
5EE2
100
AcDbEntity
  8
Defpoints
  6
Continuous
 62
     0
100
AcDbPoint
 10
1130.601598134981
 20
509.0956786360982
 30
0.0
  0
ENDBLK
  5
5EED
330
5EE2
100
AcDbEntity
  8
0
100
AcDbBlockEnd
  0
ENDSEC
  0
SECTION
  2
ENTITIES
  0
LINE
  5
5D6D
330
1E
100
AcDbEntity
  8
躯体と製品
  6
Continuous
 62
     4
100
AcDbLine
 10
1263.224213134981
 20
528.2613266360981
 30
0.0
 11
1395.624213134981
 21
528.2613266360981
 31
0.0
  0
LINE
  5
5D6E
330
1E
100
AcDbEntity
  8
躯体と製品
  6
Continuous
 62
     4
100
AcDbLine
 10
1265.624213134981
 20
558.2613266360981
 30
0.0
 11
1395.624213134981
 21
538.2613266360981
 31
0.0
  0
LINE
  5
5D6F
330
1E
100
AcDbEntity
  8
躯体と製品
  6
PLINE2
 62
     3
100
AcDbLine
 10
1265.624213134981
 20
530.6613266360982
 30
0.0
 11
1395.624213134981
 21
530.6613266360982
 31
0.0
  0
LINE
  5
5D70
330
1E
100
AcDbEntity
  8
躯体と製品
  6
Continuous
 62
     4
100
AcDbLine
 10
1276.820274134981
 20
656.0514046360983
 30
0.0
 11
1388.820274134981
 21
656.0514046360983
 31
0.0
  0
LINE
  5
5D71
330
1E
100
AcDbEntity
  8
躯体と製品
  6
Continuous
 62
     4
100
AcDbLine
 10
1143.020274134981
 20
652.8514046360982
 30
0.0
 11
1388.820274134981
 21
652.8514046360982
 31
0.0
  0
LINE
  5
5D73
330
1E
100
AcDbEntity
  8
躯体と製品
  6
Continuous
 62
     4
100
AcDbLine
 10
1141.745420134981
 20
509.0956786360982
 30
0.0
 11
1141.745420134981
 21
584.0956786360982
 31
0.0
  0
ARC
  5
5D74
330
1E
100
AcDbEntity
  8
躯体と製品
  6
Continuous
 62
     4
100
AcDbCircle
 10
1150.745420134981
 20
575.0956786360982
 30
0.0
 40
4.0
100
AcDbArc
 50
90.0
 51
180.0
  0
ARC
  5
5D75
330
1E
100
AcDbEntity
  8
躯体と製品
  6
Continuous
 62
     4
100
AcDbCircle
 10
1187.745420134981
 20
583.0956786360982
 30
0.0
 40
4.0
100
AcDbArc
 50
270.0
 51
0.0
  0
LINE
  5
5D76
330
1E
100
AcDbEntity
  8
躯体と製品
  6
PLINE2
 62
     3
100
AcDbLine
 10
1171.745420134981
 20
584.0956786360982
 30
0.0
 11
1171.745420134981
 21
579.0956786360982
 31
0.0
  0
LINE
  5
5D77
330
1E
100
AcDbEntity
  8
躯体と製品
  6
PLINE2
 62
     3
100
AcDbLine
 10
1161.745420134981
 20
584.0956786360982
 30
0.0
 11
1161.745420134981
 21
579.0956786360982
 31
0.0
  0
LINE
  5
5D78
330
1E
100
AcDbEntity
  8
躯体と製品
  6
PLINE3
 62
     3
100
AcDbLine
 10
1169.451756134981
 20
415.0515136360982
 30
0.0
 11
1169.451756134981
 21
463.9835526360982
 31
0.0
  0
TEXT
  5
5D79
330
1E
100
AcDbEntity
  8
文字-記号
  6
Continuous
 62
     3
100
AcDbText
 10
1157.325142134981
 20
399.3079166360982
 30
0.0
 40
10.0
  1
ＳＢ２４
 41
0.8
  7
ACAD
100
AcDbText
  0
LINE
  5
5D7A
330
1E
100
AcDbEntity
  8
躯体と製品
  6
Continuous
 62
     3
100
AcDbLine
 10
1159.451756134981
 20
434.4495706360982
 30
0.0
 11
1179.451756134981
 21
434.4495706360982
 31
0.0
  0
LINE
  5
5D7B
330
1E
100
AcDbEntity
  8
躯体と製品
  6
Continuous
 62
     4
100
AcDbLine
 10
1136.951756134981
 20
426.6495706360982
 30
0.0
 11
1201.951756134981
 21
426.6495706360982
 31
0.0
  0
LINE
  5
5D7C
330
1E
100
AcDbEntity
  8
躯体と製品
  6
Continuous
 62
     4
100
AcDbLine
 10
1201.951756134981
 20
429.4495706360982
 30
0.0
 11
1136.951756134981
 21
429.4495706360982
 31
0.0
  0
LINE
  5
5D7D
330
1E
100
AcDbEntity
  8
躯体と製品
  6
Continuous
 62
     3
100
AcDbLine
 10
1159.451756134981
 20
436.0495706360982
 30
0.0
 11
1179.451756134981
 21
436.0495706360982
 31
0.0
  0
LINE
  5
5D7E
330
1E
100
AcDbEntity
  8
躯体と製品
  6
Continuous
 62
     4
100
AcDbLine
 10
1136.951756134981
 20
426.6495706360982
 30
0.0
 11
1136.951756134981
 21
429.4495706360982
 31
0.0
  0
LINE
  5
5D7F
330
1E
100
AcDbEntity
  8
躯体と製品
  6
Continuous
 62
     3
100
AcDbLine
 10
1159.451756134981
 20
436.0495706360982
 30
0.0
 11
1159.451756134981
 21
434.4495706360982
 31
0.0
  0
LINE
  5
5D80
330
1E
100
AcDbEntity
  8
躯体と製品
  6
Continuous
 62
     3
100
AcDbLine
 10
1173.451756134981
 20
436.0495706360982
 30
0.0
 11
1173.451756134981
 21
441.8567506360982
 31
0.0
  0
LINE
  5
5D81
330
1E
100
AcDbEntity
  8
躯体と製品
  6
Continuous
 62
     3
100
AcDbLine
 10
1176.951756134981
 20
441.8567506360982
 30
0.0
 11
1176.951756134981
 21
436.0495706360982
 31
0.0
  0
LINE
  5
5D82
330
1E
100
AcDbEntity
  8
躯体と製品
  6
Continuous
 62
     3
100
AcDbLine
 10
1165.451756134981
 20
436.0495706360982
 30
0.0
 11
1165.451756134981
 21
441.8567506360982
 31
0.0
  0
LINE
  5
5D83
330
1E
100
AcDbEntity
  8
躯体と製品
  6
Continuous
 62
     3
100
AcDbLine
 10
1161.951756134981
 20
441.8567506360982
 30
0.0
 11
1161.951756134981
 21
436.0495706360982
 31
0.0
  0
LINE
  5
5D84
330
1E
100
AcDbEntity
  8
躯体と製品
  6
Continuous
 62
     3
100
AcDbLine
 10
1161.951756134981
 20
436.0495706360982
 30
0.0
 11
1176.951756134981
 21
436.0495706360982
 31
0.0
  0
LINE
  5
5D85
330
1E
100
AcDbEntity
  8
躯体と製品
  6
Continuous
 62
     3
100
AcDbLine
 10
1165.451756134981
 20
434.4495706360982
 30
0.0
 11
1165.451756134981
 21
429.4495806360982
 31
0.0
  0
LINE
  5
5D86
330
1E
100
AcDbEntity
  8
躯体と製品
  6
Continuous
 62
     3
100
AcDbLine
 10
1173.451756134981
 20
434.4495706360982
 30
0.0
 11
1173.451754134981
 21
429.4495726360982
 31
0.0
  0
LINE
  5
5D87
330
1E
100
AcDbEntity
  8
躯体と製品
  6
Continuous
 62
     3
100
AcDbLine
 10
1179.451756134981
 20
436.0495706360982
 30
0.0
 11
1179.451756134981
 21
434.4495706360982
 31
0.0
  0
LINE
  5
5D88
330
1E
100
AcDbEntity
  8
躯体と製品
  6
Continuous
 62
     3
100
AcDbLine
 10
1163.151756134981
 20
442.5495706360982
 30
0.0
 11
1175.751756134981
 21
442.5495706360982
 31
0.0
  0
ARC
  5
5D89
330
1E
100
AcDbEntity
  8
躯体と製品
  6
Continuous
 62
     3
100
AcDbCircle
 10
1169.451756134981
 20
430.6561546360982
 30
0.0
 40
11.893416
100
AcDbArc
 50
70.3471399999965
 51
109.6528600000034
  0
LINE
  5
5D8A
330
1E
100
AcDbEntity
  8
躯体と製品
  6
Continuous
 62
     3
100
AcDbLine
 10
1165.451756134981
 20
448.9495806360982
 30
0.0
 11
1173.451756134981
 21
448.9495806360982
 31
0.0
  0
LINE
  5
5D8B
330
1E
100
AcDbEntity
  8
躯体と製品
  6
Continuous
 62
     3
100
AcDbLine
 10
1165.951756134981
 20
449.4495806360982
 30
0.0
 11
1172.951756134981
 21
449.4495806360982
 31
0.0
  0
LINE
  5
5D8C
330
1E
100
AcDbEntity
  8
躯体と製品
  6
Continuous
 62
     3
100
AcDbLine
 10
1165.951756134981
 20
449.4495806360982
 30
0.0
 11
1165.951756134981
 21
442.5495706360982
 31
0.0
  0
LINE
  5
5D8D
330
1E
100
AcDbEntity
  8
躯体と製品
  6
Continuous
 62
     3
100
AcDbLine
 10
1165.451756134981
 20
448.9495806360982
 30
0.0
 11
1165.451756134981
 21
442.5495706360982
 31
0.0
  0
LINE
  5
5D8E
330
1E
100
AcDbEntity
  8
躯体と製品
  6
Continuous
 62
     3
100
AcDbLine
 10
1161.951756134981
 20
441.8567506360982
 30
0.0
 11
1163.151756134981
 21
442.5495706360982
 31
0.0
  0
LINE
  5
5D8F
330
1E
100
AcDbEntity
  8
躯体と製品
  6
Continuous
 62
     3
100
AcDbLine
 10
1163.151756134981
 20
442.5495706360982
 30
0.0
 11
1165.451756134981
 21
441.8567506360982
 31
0.0
  0
LINE
  5
5D90
330
1E
100
AcDbEntity
  8
躯体と製品
  6
Continuous
 62
     3
100
AcDbLine
 10
1165.451756134981
 20
448.9495806360982
 30
0.0
 11
1165.951756134981
 21
449.4495806360982
 31
0.0
  0
LINE
  5
5D91
330
1E
100
AcDbEntity
  8
躯体と製品
  6
Continuous
 62
     3
100
AcDbLine
 10
1173.451756134981
 20
448.9495806360982
 30
0.0
 11
1173.451756134981
 21
442.5495706360982
 31
0.0
  0
LINE
  5
5D92
330
1E
100
AcDbEntity
  8
躯体と製品
  6
Continuous
 62
     3
100
AcDbLine
 10
1172.951756134981
 20
449.4495806360982
 30
0.0
 11
1172.951756134981
 21
442.5495706360982
 31
0.0
  0
LINE
  5
5D93
330
1E
100
AcDbEntity
  8
躯体と製品
  6
Continuous
 62
     3
100
AcDbLine
 10
1176.951756134981
 20
441.8567506360982
 30
0.0
 11
1175.751756134981
 21
442.5495706360982
 31
0.0
  0
LINE
  5
5D94
330
1E
100
AcDbEntity
  8
躯体と製品
  6
Continuous
 62
     3
100
AcDbLine
 10
1175.751756134981
 20
442.5495706360982
 30
0.0
 11
1173.451756134981
 21
441.8567506360982
 31
0.0
  0
LINE
  5
5D95
330
1E
100
AcDbEntity
  8
躯体と製品
  6
Continuous
 62
     3
100
AcDbLine
 10
1172.951756134981
 20
449.4495806360982
 30
0.0
 11
1173.451756134981
 21
448.9495806360982
 31
0.0
  0
LINE
  5
5D96
330
1E
100
AcDbEntity
  8
躯体と製品
  6
Continuous
 62
     4
100
AcDbLine
 10
1201.951756134981
 20
426.6495706360982
 30
0.0
 11
1201.951756134981
 21
429.4495706360982
 31
0.0
  0
LINE
  5
5D97
330
1E
100
AcDbEntity
  8
躯体と製品
  6
Continuous
 62
     4
100
AcDbLine
 10
1146.745420134981
 20
575.0956786360982
 30
0.0
 11
1146.745420134981
 21
513.0956786360981
 31
0.0
  0
ARC
  5
5D9A
330
1E
100
AcDbEntity
  8
躯体と製品
  6
Continuous
 62
     4
100
AcDbCircle
 10
1142.745420134981
 20
513.0956786360981
 30
0.0
 40
4.0
100
AcDbArc
 50
270.0
 51
0.0
  0
LINE
  5
5D9B
330
1E
100
AcDbEntity
  8
躯体と製品
  6
Continuous
 62
     4
100
AcDbLine
 10
1142.745420134981
 20
509.0956786360982
 30
0.0
 11
1141.745420134981
 21
509.0956786360982
 31
0.0
  0
LINE
  5
5D9C
330
1E
100
AcDbEntity
  8
躯体と製品
  6
PLINE2
 62
     3
100
AcDbLine
 10
1146.745420134981
 20
517.0956786360981
 30
0.0
 11
1141.745420134981
 21
517.0956786360981
 31
0.0
  0
TEXT
  5
5D9D
330
1E
100
AcDbEntity
  8
文字-記号
  6
Continuous
 62
     3
100
AcDbText
 10
1170.338112134981
 20
506.4098266360982
 30
0.0
 40
10.0
  1
ＳＢ１４
 41
0.8
  7
ACAD
100
AcDbText
  0
LINE
  5
5D9E
330
1E
100
AcDbEntity
  8
躯体と製品
  6
Continuous
 62
     4
100
AcDbLine
 10
1187.745420134981
 20
579.0956786360982
 30
0.0
 11
1150.745420134981
 21
579.0956786360982
 31
0.0
  0
LINE
  5
5DA0
330
1E
100
AcDbEntity
  8
躯体と製品
  6
PLINE2
 62
     3
100
AcDbLine
 10
1141.745420134981
 20
521.0956786360982
 30
0.0
 11
1146.745420134981
 21
521.0956786360982
 31
0.0
  0
LINE
  5
5DA1
330
1E
100
AcDbEntity
  8
躯体と製品
  6
Continuous
 62
     4
100
AcDbLine
 10
1305.363020134981
 20
426.3692766360982
 30
0.0
 11
1351.163020134981
 21
426.3692766360982
 31
0.0
  0
LINE
  5
5DA2
330
1E
100
AcDbEntity
  8
躯体と製品
  6
Continuous
 62
     4
100
AcDbLine
 10
1308.363020134981
 20
445.3692766360981
 30
0.0
 11
1354.163020134981
 21
445.3692766360981
 31
0.0
  0
TEXT
  5
5DA3
330
1E
100
AcDbEntity
  8
文字-記号
  6
Continuous
 62
     3
100
AcDbText
 10
1317.930039134981
 20
401.6651996360982
 30
0.0
 40
10.0
  1
ＳＢ２５
 41
0.8
  7
ACAD
100
AcDbText
  0
LINE
  5
5DA4
330
1E
100
AcDbEntity
  8
躯体と製品
  6
Continuous
 62
     4
100
AcDbLine
 10
1305.363020134981
 20
422.3692766360982
 30
0.0
 11
1305.363020134981
 21
426.3692766360982
 31
0.0
  0
LINE
  5
5DA5
330
1E
100
AcDbEntity
  8
躯体と製品
  6
Continuous
 62
     4
100
AcDbLine
 10
1304.163020134981
 20
448.3692766360982
 30
0.0
 11
1304.163020134981
 21
422.3692766360982
 31
0.0
  0
LINE
  5
5DA6
330
1E
100
AcDbEntity
  8
躯体と製品
  6
Continuous
 62
     4
100
AcDbLine
 10
1304.163020134981
 20
422.3692766360982
 30
0.0
 11
1305.363020134981
 21
422.3692766360982
 31
0.0
  0
LINE
  5
5DA7
330
1E
100
AcDbEntity
  8
躯体と製品
  6
Continuous
 62
     4
100
AcDbLine
 10
1305.363020134981
 20
448.3692766360982
 30
0.0
 11
1304.163020134981
 21
448.3692766360982
 31
0.0
  0
LINE
  5
5DA8
330
1E
100
AcDbEntity
  8
躯体と製品
  6
Continuous
 62
     4
100
AcDbLine
 10
1305.363020134981
 20
445.3692766360981
 30
0.0
 11
1305.363020134981
 21
448.3692766360982
 31
0.0
  0
LINE
  5
5DA9
330
1E
100
AcDbEntity
  8
躯体と製品
  6
Continuous
 62
     4
100
AcDbLine
 10
1308.363020134981
 20
445.3692766360981
 30
0.0
 11
1308.363020134981
 21
443.9087886360982
 31
0.0
  0
LINE
  5
5DAA
330
1E
100
AcDbEntity
  8
躯体と製品
  6
Continuous
 62
     4
100
AcDbLine
 10
1305.363020134981
 20
445.3692766360981
 30
0.0
 11
1305.363020134981
 21
443.9087886360982
 31
0.0
  0
ARC
  5
5DAB
330
1E
100
AcDbEntity
  8
躯体と製品
  6
Continuous
 62
     4
100
AcDbCircle
 10
1306.863020134981
 20
443.9087886360982
 30
0.0
 40
1.5
100
AcDbArc
 50
270.0
 51
0.0
  0
ARC
  5
5DAC
330
1E
100
AcDbEntity
  8
躯体と製品
  6
Continuous
 62
     4
100
AcDbCircle
 10
1306.863020134981
 20
443.9087886360982
 30
0.0
 40
1.5
100
AcDbArc
 50
180.0
 51
270.0
  0
LINE
  5
5DAD
330
1E
100
AcDbEntity
  8
躯体と製品
  6
Continuous
 62
     4
100
AcDbLine
 10
1354.163020134981
 20
445.3692766360981
 30
0.0
 11
1354.163020134981
 21
429.3692766360982
 31
0.0
  0
ARC
  5
5DAE
330
1E
100
AcDbEntity
  8
躯体と製品
  6
Continuous
 62
     4
100
AcDbCircle
 10
1351.163020134981
 20
429.3692766360982
 30
0.0
 40
3.0
100
AcDbArc
 50
270.0
 51
0.0
  0
LINE
  5
5DB2
330
1E
100
AcDbEntity
  8
躯体と製品
  6
Continuous
 62
     4
100
AcDbLine
 10
1263.224213134981
 20
558.2613266360981
 30
0.0
 11
1263.224213134981
 21
528.2613266360981
 31
0.0
  0
LINE
  5
5DB3
330
1E
100
AcDbEntity
  8
躯体と製品
  6
Continuous
 62
     4
100
AcDbLine
 10
1265.624213134981
 20
558.2613266360981
 30
0.0
 11
1265.624213134981
 21
528.2613266360981
 31
0.0
  0
LINE
  5
5DB7
330
1E
100
AcDbEntity
  8
躯体と製品
  6
Continuous
 62
     3
100
AcDbLine
 10
1263.224213134981
 20
538.2613266360981
 30
0.0
 11
1265.624213134981
 21
538.2613266360981
 31
0.0
  0
LINE
  5
5DB8
330
1E
100
AcDbEntity
  8
躯体と製品
  6
Continuous
 62
     3
100
AcDbLine
 10
1263.224213134981
 20
548.2613266360981
 30
0.0
 11
1265.624213134981
 21
548.2613266360981
 31
0.0
  0
LINE
  5
5DBB
330
1E
100
AcDbEntity
  8
躯体と製品
  6
Continuous
 62
     4
100
AcDbLine
 10
1263.224213134981
 20
558.2613266360981
 30
0.0
 11
1265.624213134981
 21
558.2613266360981
 31
0.0
  0
TEXT
  5
5DBD
330
1E
100
AcDbEntity
  8
文字-記号
  6
Continuous
 62
     3
100
AcDbText
 10
1301.903657134981
 20
480.2690796360982
 30
0.0
 40
10.0
  1
ＳＢ１６・１７
 41
0.8
  7
ACAD
100
AcDbText
  0
LINE
  5
5DBE
330
1E
100
AcDbEntity
  8
躯体と製品
  6
PLINE2
 62
     3
100
AcDbLine
 10
1276.820274134981
 20
656.0514046360983
 30
0.0
 11
1143.020274134981
 21
656.0514046360983
 31
0.0
  0
LINE
  5
5DBF
330
1E
100
AcDbEntity
  8
躯体と製品
  6
Continuous
 62
     4
100
AcDbLine
 10
1138.820274134981
 20
692.8514046360983
 30
0.0
 11
1288.820274134981
 21
652.8514046360982
 31
0.0
  0
LINE
  5
5DC2
330
1E
100
AcDbEntity
  8
躯体と製品
  6
Continuous
 62
     4
100
AcDbLine
 10
1142.020274134981
 20
752.8514046360982
 30
0.0
 11
1142.020274134981
 21
691.9980716360982
 31
0.0
  0
LINE
  5
5DC3
330
1E
100
AcDbEntity
  8
躯体と製品
  6
Continuous
 62
     4
100
AcDbLine
 10
1138.820274134981
 20
657.0514046360982
 30
0.0
 11
1138.820274134981
 21
752.8514046360982
 31
0.0
  0
LINE
  5
5DC6
330
1E
100
AcDbEntity
  8
躯体と製品
  6
Continuous
 62
     4
100
AcDbLine
 10
1141.745420134981
 20
584.0956786360982
 30
0.0
 11
1191.745420134981
 21
584.0956786360982
 31
0.0
  0
LINE
  5
5DCE
330
1E
100
AcDbEntity
  8
躯体と製品
  6
Continuous
 62
     4
100
AcDbLine
 10
1191.745420134981
 20
584.0956786360982
 30
0.0
 11
1191.745420134981
 21
583.0956786360982
 31
0.0
  0
LINE
  5
5DD0
330
1E
100
AcDbEntity
  8
躯体と製品
  6
PLINE2
 62
     3
100
AcDbLine
 10
1142.020274134981
 20
691.9980716360982
 30
0.0
 11
1142.020274134981
 21
657.0514046360982
 31
0.0
  0
ARC
  5
5DD2
330
1E
100
AcDbEntity
  8
躯体と製品
  6
Continuous
 62
     4
100
AcDbCircle
 10
1143.020274134981
 20
657.0514046360982
 30
0.0
 40
4.2
100
AcDbArc
 50
180.0
 51
270.0
  0
LINE
  5
5DD4
330
1E
100
AcDbEntity
  8
躯体と製品
  6
PLINE2
 62
     3
100
AcDbLine
 10
1142.020274134981
 20
659.0514046360982
 30
0.0
 11
1145.020274134981
 21
656.0514046360983
 31
0.0
  0
ARC
  5
5DD5
330
1E
100
AcDbEntity
  8
躯体と製品
  6
PLINE2
 62
     3
100
AcDbCircle
 10
1143.020274134981
 20
657.0514046360982
 30
0.0
 40
1.0
100
AcDbArc
 50
180.0
 51
270.0
  0
LINE
  5
5DD6
330
1E
100
AcDbEntity
  8
躯体と製品
  6
PLINE2
 62
     3
100
AcDbLine
 10
1138.820274134981
 20
672.8514046360983
 30
0.0
 11
1142.020274134981
 21
672.8514046360983
 31
0.0
  0
LINE
  5
5DD7
330
1E
100
AcDbEntity
  8
躯体と製品
  6
PLINE2
 62
     3
100
AcDbLine
 10
1138.820274134981
 20
692.8514046360983
 30
0.0
 11
1142.020274134981
 21
692.8514046360983
 31
0.0
  0
LINE
  5
5DD8
330
1E
100
AcDbEntity
  8
躯体と製品
  6
PLINE2
 62
     3
100
AcDbLine
 10
1138.820274134981
 20
722.8514046360983
 30
0.0
 11
1142.020274134981
 21
722.8514046360983
 31
0.0
  0
LINE
  5
5DDB
330
1E
100
AcDbEntity
  8
躯体と製品
  6
PLINE2
 62
     3
100
AcDbLine
 10
1138.820274134981
 20
742.8514046360983
 30
0.0
 11
1142.020274134981
 21
742.8514046360983
 31
0.0
  0
LINE
  5
5DDC
330
1E
100
AcDbEntity
  8
躯体と製品
  6
Continuous
 62
     4
100
AcDbLine
 10
1138.820274134981
 20
752.8514046360982
 30
0.0
 11
1142.020274134981
 21
752.8514046360982
 31
0.0
  0
TEXT
  5
5DDE
330
1E
100
AcDbEntity
  8
文字-記号
  6
Continuous
 62
     3
100
AcDbText
 10
1226.704041134981
 20
689.5482846360983
 30
0.0
 40
10.0
  1
ＳＢ１２
 41
0.8
  7
ACAD
100
AcDbText
  0
LINE
  5
5DDF
330
1E
100
AcDbEntity
  8
躯体と製品
  6
PLINE2
 62
     3
100
AcDbLine
 10
1238.820274134981
 20
656.0514046360983
 30
0.0
 11
1238.820274134981
 21
652.8514046360982
 31
0.0
  0
LINE
  5
5DE0
330
1E
100
AcDbEntity
  8
躯体と製品
  6
PLINE2
 62
     3
100
AcDbLine
 10
1338.820274134981
 20
656.0514046360983
 30
0.0
 11
1338.820274134981
 21
652.8514046360982
 31
0.0
  0
LINE
  5
5DE1
330
1E
100
AcDbEntity
  8
躯体と製品
  6
Continuous
 62
     3
100
AcDbLine
 10
1479.288598134981
 20
541.0032266360982
 30
0.0
 11
1479.288598134981
 21
590.7376566360982
 31
0.0
  0
LINE
  5
5DE2
330
1E
100
AcDbEntity
  8
躯体と製品
  6
Continuous
 62
     3
100
AcDbLine
 10
1478.288598134981
 20
541.0032266360982
 30
0.0
 11
1478.288598134981
 21
589.6672886360981
 31
0.0
  0
LINE
  5
5DE3
330
1E
100
AcDbEntity
  8
躯体と製品
  6
Continuous
 62
     3
100
AcDbLine
 10
1469.288598134981
 20
540.9932266360982
 30
0.0
 11
1469.288598134981
 21
590.7376566360982
 31
0.0
  0
LINE
  5
5DE4
330
1E
100
AcDbEntity
  8
躯体と製品
  6
Continuous
 62
     3
100
AcDbLine
 10
1470.288598134981
 20
540.9932266360982
 30
0.0
 11
1470.288598134981
 21
591.8080236360983
 31
0.0
  0
LINE
  5
5DE5
330
1E
100
AcDbEntity
  8
躯体と製品
  6
PLINE3
 62
     3
100
AcDbLine
 10
1474.288598134981
 20
596.4337356360982
 30
0.0
 11
1474.288598134981
 21
494.5032266360982
 31
0.0
  0
LINE
  5
5DE6
330
1E
100
AcDbEntity
  8
躯体と製品
  6
Continuous
 62
     4
100
AcDbLine
 10
1560.817389134981
 20
492.5032266360982
 30
0.0
 11
1554.817389134981
 21
492.5032266360982
 31
0.0
  0
LINE
  5
5DE7
330
1E
100
AcDbEntity
  8
躯体と製品
  6
Continuous
 62
     4
100
AcDbLine
 10
1554.817389134981
 20
494.5032266360982
 30
0.0
 11
1561.817389134981
 21
494.5032266360982
 31
0.0
  0
LINE
  5
5DE8
330
1E
100
AcDbEntity
  8
躯体と製品
  6
Continuous
 62
     4
100
AcDbLine
 10
1622.817389134981
 20
488.5032266360982
 30
0.0
 11
1554.817389134981
 21
488.5032266360982
 31
0.0
  0
LINE
  5
5DE9
330
1E
100
AcDbEntity
  8
躯体と製品
  6
Continuous
 62
     4
100
AcDbLine
 10
1554.817389134981
 20
490.5032266360982
 30
0.0
 11
1622.817389134981
 21
490.5032266360982
 31
0.0
  0
TEXT
  5
5DEA
330
1E
100
AcDbEntity
  8
文字-記号
  6
Continuous
 62
     3
100
AcDbText
 10
1460.351243134981
 20
463.4095896360982
 30
0.0
 40
10.0
  1
ＳＢ２１
 41
0.8
  7
ACAD
100
AcDbText
  0
LINE
  5
5DEB
330
1E
100
AcDbEntity
  8
躯体と製品
  6
Continuous
 62
     3
100
AcDbLine
 10
1463.788598134981
 20
527.5032266360982
 30
0.0
 11
1484.788598134981
 21
527.5032266360982
 31
0.0
  0
LINE
  5
5DEC
330
1E
100
AcDbEntity
  8
躯体と製品
  6
Continuous
 62
     3
100
AcDbLine
 10
1466.288598134981
 20
541.0032266360982
 30
0.0
 11
1474.288598134981
 21
541.0032266360982
 31
0.0
  0
ARC
  5
5DED
330
1E
100
AcDbEntity
  8
躯体と製品
  6
Continuous
 62
     3
100
AcDbCircle
 10
1474.288598134981
 20
532.7132266360981
 30
0.0
 40
8.279999999999999
100
AcDbArc
 50
55.03744499999515
 51
124.9721830000011
  0
LINE
  5
5DEE
330
1E
100
AcDbEntity
  8
躯体と製品
  6
Continuous
 62
     3
100
AcDbLine
 10
1466.288598134981
 20
520.0032266360982
 30
0.0
 11
1474.288598134981
 21
520.0032266360982
 31
0.0
  0
LINE
  5
5DEF
330
1E
100
AcDbEntity
  8
躯体と製品
  6
Continuous
 62
     3
100
AcDbLine
 10
1470.288598134981
 20
505.0032266360982
 30
0.0
 11
1478.288598134981
 21
505.0032266360982
 31
0.0
  0
ARC
  5
5DF0
330
1E
100
AcDbEntity
  8
躯体と製品
  6
Continuous
 62
     3
100
AcDbCircle
 10
1474.288598134981
 20
528.2932266360981
 30
0.0
 40
8.279999999999999
100
AcDbArc
 50
235.0278169999988
 51
304.9625550000048
  0
LINE
  5
5DF1
330
1E
100
AcDbEntity
  8
躯体と製品
  6
Continuous
 62
     3
100
AcDbLine
 10
1469.288598134981
 20
506.0032266360982
 30
0.0
 11
1479.288598134981
 21
506.0032266360982
 31
0.0
  0
LINE
  5
5DF2
330
1E
100
AcDbEntity
  8
躯体と製品
  6
Continuous
 62
     3
100
AcDbLine
 10
1463.788598134981
 20
533.5032266360982
 30
0.0
 11
1484.788598134981
 21
533.5032266360982
 31
0.0
  0
LINE
  5
5DF3
330
1E
100
AcDbEntity
  8
躯体と製品
  6
Continuous
 62
     4
100
AcDbLine
 10
1454.288598134981
 20
529.5032266360983
 30
0.0
 11
1494.288598134981
 21
529.5032266360983
 31
0.0
  0
LINE
  5
5DF4
330
1E
100
AcDbEntity
  8
躯体と製品
  6
Continuous
 62
     4
100
AcDbLine
 10
1454.288598134981
 20
531.5032266360982
 30
0.0
 11
1494.288598134981
 21
531.5032266360982
 31
0.0
  0
LINE
  5
5DF5
330
1E
100
AcDbEntity
  8
躯体と製品
  6
Continuous
 62
     4
100
AcDbLine
 10
1508.288598134981
 20
488.5032266360982
 30
0.0
 11
1440.288598134981
 21
488.5032266360982
 31
0.0
  0
LINE
  5
5DF6
330
1E
100
AcDbEntity
  8
躯体と製品
  6
Continuous
 62
     4
100
AcDbLine
 10
1440.288598134981
 20
490.5032266360982
 30
0.0
 11
1508.288598134981
 21
490.5032266360982
 31
0.0
  0
LINE
  5
5DF8
330
1E
100
AcDbEntity
  8
躯体と製品
  6
Continuous
 62
     3
100
AcDbLine
 10
1470.288598134981
 20
505.0032266360982
 30
0.0
 11
1470.288598134981
 21
520.0032266360982
 31
0.0
  0
LINE
  5
5DF9
330
1E
100
AcDbEntity
  8
躯体と製品
  6
Continuous
 62
     3
100
AcDbLine
 10
1469.288598134981
 20
520.0032266360982
 30
0.0
 11
1469.288598134981
 21
506.0032266360982
 31
0.0
  0
LINE
  5
5DFA
330
1E
100
AcDbEntity
  8
躯体と製品
  6
Continuous
 62
     4
100
AcDbLine
 10
1454.288598134981
 20
490.5032266360982
 30
0.0
 11
1454.288598134981
 21
531.5032266360982
 31
0.0
  0
LINE
  5
5DFC
330
1E
100
AcDbEntity
  8
躯体と製品
  6
Continuous
 62
     4
100
AcDbLine
 10
1450.288598134981
 20
490.5032266360982
 30
0.0
 11
1447.288598134981
 21
494.5032266360982
 31
0.0
  0
LINE
  5
5DFD
330
1E
100
AcDbEntity
  8
躯体と製品
  6
Continuous
 62
     4
100
AcDbLine
 10
1440.288598134981
 20
492.5032266360982
 30
0.0
 11
1440.288598134981
 21
494.5032266360982
 31
0.0
  0
LINE
  5
5DFE
330
1E
100
AcDbEntity
  8
躯体と製品
  6
Continuous
 62
     4
100
AcDbLine
 10
1446.288598134981
 20
492.5032266360982
 30
0.0
 11
1440.288598134981
 21
492.5032266360982
 31
0.0
  0
LINE
  5
5DFF
330
1E
100
AcDbEntity
  8
躯体と製品
  6
Continuous
 62
     4
100
AcDbLine
 10
1440.288598134981
 20
488.5032266360982
 30
0.0
 11
1440.288598134981
 21
490.5032266360982
 31
0.0
  0
LINE
  5
5E00
330
1E
100
AcDbEntity
  8
躯体と製品
  6
Continuous
 62
     4
100
AcDbLine
 10
1446.288598134981
 20
492.5032266360982
 30
0.0
 11
1447.788598134981
 21
490.5032266360982
 31
0.0
  0
LINE
  5
5E01
330
1E
100
AcDbEntity
  8
躯体と製品
  6
Continuous
 62
     4
100
AcDbLine
 10
1440.288598134981
 20
494.5032266360982
 30
0.0
 11
1447.288598134981
 21
494.5032266360982
 31
0.0
  0
LINE
  5
5E02
330
1E
100
AcDbEntity
  8
躯体と製品
  6
Continuous
 62
     3
100
AcDbLine
 10
1469.288598134981
 20
506.0032266360982
 30
0.0
 11
1470.288598134981
 21
505.0032266360982
 31
0.0
  0
LINE
  5
5E03
330
1E
100
AcDbEntity
  8
躯体と製品
  6
Continuous
 62
     4
100
AcDbLine
 10
1395.624213134981
 20
538.2613266360981
 30
0.0
 11
1395.624213134981
 21
528.2613266360981
 31
0.0
  0
LINE
  5
5E04
330
1E
100
AcDbEntity
  8
躯体と製品
  6
Continuous
 62
     3
100
AcDbLine
 10
1463.788598134981
 20
531.5032266360982
 30
0.0
 11
1463.788598134981
 21
533.5032266360982
 31
0.0
  0
LINE
  5
5E05
330
1E
100
AcDbEntity
  8
躯体と製品
  6
Continuous
 62
     3
100
AcDbLine
 10
1464.788598134981
 20
527.5032266360982
 30
0.0
 11
1464.788598134981
 21
521.5032266360982
 31
0.0
  0
LINE
  5
5E06
330
1E
100
AcDbEntity
  8
躯体と製品
  6
Continuous
 62
     3
100
AcDbLine
 10
1469.538598134981
 20
527.5032266360982
 30
0.0
 11
1469.538598134981
 21
522.5032266360982
 31
0.0
  0
LINE
  5
5E07
330
1E
100
AcDbEntity
  8
躯体と製品
  6
Continuous
 62
     3
100
AcDbLine
 10
1466.288598134981
 20
520.0032266360982
 30
0.0
 11
1464.788598134981
 21
521.5032266360982
 31
0.0
  0
ARC
  5
5E08
330
1E
100
AcDbEntity
  8
躯体と製品
  6
Continuous
 62
     3
100
AcDbCircle
 10
1467.159181134981
 20
522.6264186360983
 30
0.0
 40
2.623207999999999
100
AcDbArc
 50
270.2056879999986
 51
335.1026809999997
  0
LINE
  5
5E09
330
1E
100
AcDbEntity
  8
躯体と製品
  6
Continuous
 62
     3
100
AcDbLine
 10
1469.538598134981
 20
522.5032266360982
 30
0.0
 11
1469.538598134981
 21
521.5032266360982
 31
0.0
  0
LINE
  5
5E0A
330
1E
100
AcDbEntity
  8
躯体と製品
  6
Continuous
 62
     3
100
AcDbLine
 10
1463.788598134981
 20
529.5032266360983
 30
0.0
 11
1463.788598134981
 21
527.5032266360982
 31
0.0
  0
LINE
  5
5E0B
330
1E
100
AcDbEntity
  8
躯体と製品
  6
Continuous
 62
     3
100
AcDbLine
 10
1466.288598134981
 20
541.0032266360982
 30
0.0
 11
1464.788598134981
 21
539.5032266360982
 31
0.0
  0
ARC
  5
5E0C
330
1E
100
AcDbEntity
  8
躯体と製品
  6
Continuous
 62
     3
100
AcDbCircle
 10
1467.159181134981
 20
538.3800356360982
 30
0.0
 40
2.623207999999999
100
AcDbArc
 50
24.8973190000002
 51
89.79431200000128
  0
LINE
  5
5E0D
330
1E
100
AcDbEntity
  8
躯体と製品
  6
Continuous
 62
     3
100
AcDbLine
 10
1464.788598134981
 20
533.5032266360982
 30
0.0
 11
1464.788598134981
 21
539.5032266360982
 31
0.0
  0
LINE
  5
5E0E
330
1E
100
AcDbEntity
  8
躯体と製品
  6
Continuous
 62
     3
100
AcDbLine
 10
1469.538598134981
 20
538.5032266360982
 30
0.0
 11
1469.538598134981
 21
539.5032266360982
 31
0.0
  0
LINE
  5
5E0F
330
1E
100
AcDbEntity
  8
躯体と製品
  6
Continuous
 62
     3
100
AcDbLine
 10
1469.538598134981
 20
533.5032266360982
 30
0.0
 11
1469.538598134981
 21
538.5032266360982
 31
0.0
  0
LINE
  5
5E10
330
1E
100
AcDbEntity
  8
躯体と製品
  6
Continuous
 62
     3
100
AcDbLine
 10
1478.288598134981
 20
505.0032266360982
 30
0.0
 11
1478.288598134981
 21
520.0032266360982
 31
0.0
  0
LINE
  5
5E11
330
1E
100
AcDbEntity
  8
躯体と製品
  6
Continuous
 62
     3
100
AcDbLine
 10
1479.288598134981
 20
506.0032266360982
 30
0.0
 11
1479.288598134981
 21
520.0032266360982
 31
0.0
  0
LINE
  5
5E12
330
1E
100
AcDbEntity
  8
躯体と製品
  6
Continuous
 62
     4
100
AcDbLine
 10
1494.288598134981
 20
531.5032266360982
 30
0.0
 11
1494.288598134981
 21
490.5032266360982
 31
0.0
  0
LINE
  5
5E13
330
1E
100
AcDbEntity
  8
躯体と製品
  6
Continuous
 62
     3
100
AcDbLine
 10
1479.288598134981
 20
506.0032266360982
 30
0.0
 11
1478.288598134981
 21
505.0032266360982
 31
0.0
  0
LINE
  5
5E14
330
1E
100
AcDbEntity
  8
躯体と製品
  6
Continuous
 62
     4
100
AcDbLine
 10
1502.288598134981
 20
492.5032266360982
 30
0.0
 11
1508.288598134981
 21
492.5032266360982
 31
0.0
  0
LINE
  5
5E15
330
1E
100
AcDbEntity
  8
躯体と製品
  6
Continuous
 62
     4
100
AcDbLine
 10
1508.288598134981
 20
494.5032266360982
 30
0.0
 11
1501.288598134981
 21
494.5032266360982
 31
0.0
  0
LINE
  5
5E16
330
1E
100
AcDbEntity
  8
躯体と製品
  6
Continuous
 62
     4
100
AcDbLine
 10
1498.288598134981
 20
490.5032266360982
 30
0.0
 11
1501.288598134981
 21
494.5032266360982
 31
0.0
  0
LINE
  5
5E17
330
1E
100
AcDbEntity
  8
躯体と製品
  6
Continuous
 62
     4
100
AcDbLine
 10
1502.288598134981
 20
492.5032266360982
 30
0.0
 11
1500.788598134981
 21
490.5032266360982
 31
0.0
  0
LINE
  5
5E18
330
1E
100
AcDbEntity
  8
躯体と製品
  6
Continuous
 62
     4
100
AcDbLine
 10
1508.288598134981
 20
492.5032266360982
 30
0.0
 11
1508.288598134981
 21
494.5032266360982
 31
0.0
  0
LINE
  5
5E19
330
1E
100
AcDbEntity
  8
躯体と製品
  6
Continuous
 62
     4
100
AcDbLine
 10
1508.288598134981
 20
490.5032266360982
 30
0.0
 11
1508.288598134981
 21
488.5032266360982
 31
0.0
  0
LINE
  5
5E1A
330
1E
100
AcDbEntity
  8
躯体と製品
  6
Continuous
 62
     4
100
AcDbLine
 10
1554.817389134981
 20
492.5032266360982
 30
0.0
 11
1554.817389134981
 21
494.5032266360982
 31
0.0
  0
LINE
  5
5E1B
330
1E
100
AcDbEntity
  8
躯体と製品
  6
Continuous
 62
     4
100
AcDbLine
 10
1554.817389134981
 20
488.5032266360982
 30
0.0
 11
1554.817389134981
 21
490.5032266360982
 31
0.0
  0
LINE
  5
5E1C
330
1E
100
AcDbEntity
  8
躯体と製品
  6
Continuous
 62
     3
100
AcDbLine
 10
1484.788598134981
 20
533.5032266360982
 30
0.0
 11
1484.788598134981
 21
531.5032266360982
 31
0.0
  0
LINE
  5
5E1D
330
1E
100
AcDbEntity
  8
躯体と製品
  6
Continuous
 62
     3
100
AcDbLine
 10
1482.288598134981
 20
520.0032266360982
 30
0.0
 11
1474.288598134981
 21
520.0032266360982
 31
0.0
  0
LINE
  5
5E1E
330
1E
100
AcDbEntity
  8
躯体と製品
  6
Continuous
 62
     3
100
AcDbLine
 10
1479.038598134981
 20
527.5032266360982
 30
0.0
 11
1479.038598134981
 21
522.5032266360982
 31
0.0
  0
ARC
  5
5E1F
330
1E
100
AcDbEntity
  8
躯体と製品
  6
Continuous
 62
     3
100
AcDbCircle
 10
1481.418015134981
 20
522.6264186360983
 30
0.0
 40
2.623207999999999
100
AcDbArc
 50
204.8973190000001
 51
269.7943120000013
  0
LINE
  5
5E20
330
1E
100
AcDbEntity
  8
躯体と製品
  6
Continuous
 62
     3
100
AcDbLine
 10
1479.038598134981
 20
522.5032266360982
 30
0.0
 11
1479.038598134981
 21
521.5032266360982
 31
0.0
  0
LINE
  5
5E21
330
1E
100
AcDbEntity
  8
躯体と製品
  6
Continuous
 62
     3
100
AcDbLine
 10
1483.788598134981
 20
527.5032266360982
 30
0.0
 11
1483.788598134981
 21
521.5032266360982
 31
0.0
  0
LINE
  5
5E22
330
1E
100
AcDbEntity
  8
躯体と製品
  6
Continuous
 62
     3
100
AcDbLine
 10
1483.788598134981
 20
521.5220646360982
 30
0.0
 11
1482.288598134981
 21
520.0032266360982
 31
0.0
  0
ARC
  5
5E23
330
1E
100
AcDbEntity
  8
躯体と製品
  6
Continuous
 62
     4
100
AcDbCircle
 10
1481.418015134981
 20
522.6264186360983
 30
0.0
 40
2.623207999999999
100
AcDbArc
 50
334.648221999998
 51
335.0211979999983
  0
LINE
  5
5E24
330
1E
100
AcDbEntity
  8
躯体と製品
  6
Continuous
 62
     3
100
AcDbLine
 10
1484.788598134981
 20
527.5032266360982
 30
0.0
 11
1484.788598134981
 21
529.5032266360983
 31
0.0
  0
LINE
  5
5E25
330
1E
100
AcDbEntity
  8
躯体と製品
  6
Continuous
 62
     3
100
AcDbLine
 10
1482.288598134981
 20
541.0032266360982
 30
0.0
 11
1474.288598134981
 21
541.0032266360982
 31
0.0
  0
ARC
  5
5E26
330
1E
100
AcDbEntity
  8
躯体と製品
  6
Continuous
 62
     3
100
AcDbCircle
 10
1481.418015134981
 20
538.3800356360982
 30
0.0
 40
2.623207999999999
100
AcDbArc
 50
90.20568799999871
 51
155.1026809999998
  0
LINE
  5
5E27
330
1E
100
AcDbEntity
  8
躯体と製品
  6
Continuous
 62
     3
100
AcDbLine
 10
1479.038598134981
 20
538.5032266360982
 30
0.0
 11
1479.038598134981
 21
539.5032266360982
 31
0.0
  0
LINE
  5
5E28
330
1E
100
AcDbEntity
  8
躯体と製品
  6
Continuous
 62
     3
100
AcDbLine
 10
1479.038598134981
 20
533.5032266360982
 30
0.0
 11
1479.038598134981
 21
538.5032266360982
 31
0.0
  0
LINE
  5
5E29
330
1E
100
AcDbEntity
  8
躯体と製品
  6
Continuous
 62
     3
100
AcDbLine
 10
1483.788598134981
 20
539.4843886360981
 30
0.0
 11
1482.288598134981
 21
541.0032266360982
 31
0.0
  0
ARC
  5
5E2A
330
1E
100
AcDbEntity
  8
躯体と製品
  6
Continuous
 62
     4
100
AcDbCircle
 10
1481.418015134981
 20
538.3800356360982
 30
0.0
 40
2.623207999999999
100
AcDbArc
 50
24.97880200000166
 51
25.35177799999896
  0
LINE
  5
5E2B
330
1E
100
AcDbEntity
  8
躯体と製品
  6
Continuous
 62
     3
100
AcDbLine
 10
1483.788598134981
 20
533.5032266360982
 30
0.0
 11
1483.788598134981
 21
539.5032266360982
 31
0.0
  0
LINE
  5
5E2C
330
1E
100
AcDbEntity
  8
躯体と製品
  6
Continuous
 62
     3
100
AcDbLine
 10
1579.317389134981
 20
512.5032266360982
 30
0.0
 11
1579.317389134981
 21
518.5032266360982
 31
0.0
  0
LINE
  5
5E2D
330
1E
100
AcDbEntity
  8
躯体と製品
  6
Continuous
 62
     3
100
AcDbLine
 10
1598.317389134981
 20
512.5032266360982
 30
0.0
 11
1598.317389134981
 21
518.5032266360982
 31
0.0
  0
LINE
  5
5E2E
330
1E
100
AcDbEntity
  8
躯体と製品
  6
Continuous
 62
     3
100
AcDbLine
 10
1584.067389134981
 20
512.5032266360982
 30
0.0
 11
1584.067389134981
 21
517.5032266360982
 31
0.0
  0
LINE
  5
5E2F
330
1E
100
AcDbEntity
  8
躯体と製品
  6
Continuous
 62
     3
100
AcDbLine
 10
1593.567389134981
 20
512.5032266360982
 30
0.0
 11
1593.567389134981
 21
517.5032266360982
 31
0.0
  0
LINE
  5
5E30
330
1E
100
AcDbEntity
  8
躯体と製品
  6
PLINE3
 62
     3
100
AcDbLine
 10
1588.817389134981
 20
575.4337356360982
 30
0.0
 11
1588.817389134981
 21
496.9992006360982
 31
0.0
  0
TEXT
  5
5E31
330
1E
100
AcDbEntity
  8
文字-記号
  6
Continuous
 62
     3
100
AcDbText
 10
1581.121323134981
 20
466.9271756360982
 30
0.0
 40
10.0
  1
ＳＢ２２
 41
0.8
  7
ACAD
100
AcDbText
  0
LINE
  5
5E32
330
1E
100
AcDbEntity
  8
躯体と製品
  6
Continuous
 62
     4
100
AcDbLine
 10
1568.817389134981
 20
508.5032266360982
 30
0.0
 11
1608.817389134981
 21
508.5032266360982
 31
0.0
  0
LINE
  5
5E33
330
1E
100
AcDbEntity
  8
躯体と製品
  6
Continuous
 62
     4
100
AcDbLine
 10
1568.817389134981
 20
510.5032266360982
 30
0.0
 11
1608.817389134981
 21
510.5032266360982
 31
0.0
  0
LINE
  5
5E34
330
1E
100
AcDbEntity
  8
躯体と製品
  6
Continuous
 62
     3
100
AcDbLine
 10
1578.317389134981
 20
506.5032266360982
 30
0.0
 11
1599.317389134981
 21
506.5032266360982
 31
0.0
  0
LINE
  5
5E35
330
1E
100
AcDbEntity
  8
躯体と製品
  6
Continuous
 62
     3
100
AcDbLine
 10
1580.817389134981
 20
499.0032266360982
 30
0.0
 11
1588.817389134981
 21
499.0032266360982
 31
0.0
  0
LINE
  5
5E36
330
1E
100
AcDbEntity
  8
躯体と製品
  6
Continuous
 62
     3
100
AcDbLine
 10
1578.317389134981
 20
512.5032266360982
 30
0.0
 11
1599.317389134981
 21
512.5032266360982
 31
0.0
  0
LINE
  5
5E37
330
1E
100
AcDbEntity
  8
躯体と製品
  6
Continuous
 62
     3
100
AcDbLine
 10
1579.317389134981
 20
506.5032266360982
 30
0.0
 11
1579.317389134981
 21
500.5032266360982
 31
0.0
  0
LINE
  5
5E38
330
1E
100
AcDbEntity
  8
躯体と製品
  6
Continuous
 62
     4
100
AcDbLine
 10
1568.817389134981
 20
490.5032266360982
 30
0.0
 11
1568.817389134981
 21
510.5032266360982
 31
0.0
  0
LINE
  5
5E39
330
1E
100
AcDbEntity
  8
躯体と製品
  6
Continuous
 62
     4
100
AcDbLine
 10
1564.817389134981
 20
490.5032266360982
 30
0.0
 11
1561.817389134981
 21
494.5032266360982
 31
0.0
  0
LINE
  5
5E3A
330
1E
100
AcDbEntity
  8
躯体と製品
  6
Continuous
 62
     4
100
AcDbLine
 10
1560.817389134981
 20
492.5032266360982
 30
0.0
 11
1562.317389134981
 21
490.5032266360982
 31
0.0
  0
LINE
  5
5E3B
330
1E
100
AcDbEntity
  8
躯体と製品
  6
Continuous
 62
     3
100
AcDbLine
 10
1580.817389134981
 20
499.0032266360982
 30
0.0
 11
1579.317389134981
 21
500.5032266360982
 31
0.0
  0
LINE
  5
5E3C
330
1E
100
AcDbEntity
  8
躯体と製品
  6
Continuous
 62
     3
100
AcDbLine
 10
1578.317389134981
 20
508.5032266360982
 30
0.0
 11
1578.317389134981
 21
506.5032266360982
 31
0.0
  0
LINE
  5
5E3D
330
1E
100
AcDbEntity
  8
躯体と製品
  6
Continuous
 62
     3
100
AcDbLine
 10
1578.317389134981
 20
510.5032266360982
 30
0.0
 11
1578.317389134981
 21
512.5032266360982
 31
0.0
  0
LINE
  5
5E3E
330
1E
100
AcDbEntity
  8
躯体と製品
  6
Continuous
 62
     3
100
AcDbLine
 10
1598.317389134981
 20
506.5032266360982
 30
0.0
 11
1598.317389134981
 21
500.5032266360982
 31
0.0
  0
LINE
  5
5E3F
330
1E
100
AcDbEntity
  8
躯体と製品
  6
Continuous
 62
     3
100
AcDbLine
 10
1584.067389134981
 20
506.5032266360982
 30
0.0
 11
1584.067389134981
 21
501.5032266360982
 31
0.0
  0
LINE
  5
5E40
330
1E
100
AcDbEntity
  8
躯体と製品
  6
Continuous
 62
     3
100
AcDbLine
 10
1593.567389134981
 20
506.5032266360982
 30
0.0
 11
1593.567389134981
 21
501.5032266360982
 31
0.0
  0
LINE
  5
5E41
330
1E
100
AcDbEntity
  8
躯体と製品
  6
Continuous
 62
     3
100
AcDbLine
 10
1596.817389134981
 20
499.0032266360982
 30
0.0
 11
1588.817389134981
 21
499.0032266360982
 31
0.0
  0
LINE
  5
5E42
330
1E
100
AcDbEntity
  8
躯体と製品
  6
Continuous
 62
     3
100
AcDbLine
 10
1584.817389134981
 20
492.6304406360982
 30
0.0
 11
1592.817389134981
 21
492.6304406360982
 31
0.0
  0
ARC
  5
5E43
330
1E
100
AcDbEntity
  8
躯体と製品
  6
Continuous
 62
     3
100
AcDbCircle
 10
1588.817389134981
 20
507.2932266360981
 30
0.0
 40
8.279999999999999
100
AcDbArc
 50
235.0278169999988
 51
304.9625550000048
  0
LINE
  5
5E44
330
1E
100
AcDbEntity
  8
躯体と製品
  6
Continuous
 62
     3
100
AcDbLine
 10
1583.817389134981
 20
493.6304406360982
 30
0.0
 11
1593.817389134981
 21
493.6304406360982
 31
0.0
  0
LINE
  5
5E45
330
1E
100
AcDbEntity
  8
躯体と製品
  6
Continuous
 62
     3
100
AcDbLine
 10
1584.817389134981
 20
492.6304406360982
 30
0.0
 11
1584.817389134981
 21
499.0032266360982
 31
0.0
  0
LINE
  5
5E46
330
1E
100
AcDbEntity
  8
躯体と製品
  6
Continuous
 62
     3
100
AcDbLine
 10
1583.817389134981
 20
499.0032266360982
 30
0.0
 11
1583.817389134981
 21
493.6304406360982
 31
0.0
  0
LINE
  5
5E47
330
1E
100
AcDbEntity
  8
躯体と製品
  6
Continuous
 62
     3
100
AcDbLine
 10
1583.817389134981
 20
493.6304406360982
 30
0.0
 11
1584.817389134981
 21
492.6304406360982
 31
0.0
  0
ARC
  5
5E48
330
1E
100
AcDbEntity
  8
躯体と製品
  6
Continuous
 62
     3
100
AcDbCircle
 10
1581.687971134981
 20
501.6264186360983
 30
0.0
 40
2.623207999999999
100
AcDbArc
 50
270.2056879999986
 51
335.1026809999997
  0
LINE
  5
5E49
330
1E
100
AcDbEntity
  8
躯体と製品
  6
Continuous
 62
     3
100
AcDbLine
 10
1584.067389134981
 20
501.5032266360982
 30
0.0
 11
1584.067389134981
 21
500.5032266360982
 31
0.0
  0
LINE
  5
5E4A
330
1E
100
AcDbEntity
  8
躯体と製品
  6
Continuous
 62
     3
100
AcDbLine
 10
1592.817389134981
 20
492.6304406360982
 30
0.0
 11
1592.817389134981
 21
499.0032266360982
 31
0.0
  0
LINE
  5
5E4B
330
1E
100
AcDbEntity
  8
躯体と製品
  6
Continuous
 62
     3
100
AcDbLine
 10
1593.817389134981
 20
493.6304406360982
 30
0.0
 11
1593.817389134981
 21
499.0032266360982
 31
0.0
  0
LINE
  5
5E4C
330
1E
100
AcDbEntity
  8
躯体と製品
  6
Continuous
 62
     3
100
AcDbLine
 10
1593.817389134981
 20
493.6304406360982
 30
0.0
 11
1592.817389134981
 21
492.6304406360982
 31
0.0
  0
LINE
  5
5E4D
330
1E
100
AcDbEntity
  8
躯体と製品
  6
Continuous
 62
     3
100
AcDbLine
 10
1598.317389134981
 20
500.5220646360982
 30
0.0
 11
1596.817389134981
 21
499.0032266360982
 31
0.0
  0
ARC
  5
5E4E
330
1E
100
AcDbEntity
  8
躯体と製品
  6
Continuous
 62
     3
100
AcDbCircle
 10
1595.946806134981
 20
501.6264186360983
 30
0.0
 40
2.623207999999999
100
AcDbArc
 50
204.8973190000001
 51
269.7943120000013
  0
LINE
  5
5E4F
330
1E
100
AcDbEntity
  8
躯体と製品
  6
Continuous
 62
     3
100
AcDbLine
 10
1593.567389134981
 20
501.5032266360982
 30
0.0
 11
1593.567389134981
 21
500.5032266360982
 31
0.0
  0
ARC
  5
5E50
330
1E
100
AcDbEntity
  8
躯体と製品
  6
Continuous
 62
     4
100
AcDbCircle
 10
1595.946806134981
 20
501.6264186360983
 30
0.0
 40
2.623207999999999
100
AcDbArc
 50
334.648221999998
 51
335.0211979999983
  0
LINE
  5
5E51
330
1E
100
AcDbEntity
  8
躯体と製品
  6
Continuous
 62
     3
100
AcDbLine
 10
1599.317389134981
 20
506.5032266360982
 30
0.0
 11
1599.317389134981
 21
508.5032266360982
 31
0.0
  0
LINE
  5
5E52
330
1E
100
AcDbEntity
  8
躯体と製品
  6
Continuous
 62
     3
100
AcDbLine
 10
1599.317389134981
 20
512.5032266360982
 30
0.0
 11
1599.317389134981
 21
510.5032266360982
 31
0.0
  0
LINE
  5
5E53
330
1E
100
AcDbEntity
  8
躯体と製品
  6
Continuous
 62
     4
100
AcDbLine
 10
1608.817389134981
 20
510.5032266360982
 30
0.0
 11
1608.817389134981
 21
490.5032266360982
 31
0.0
  0
LINE
  5
5E54
330
1E
100
AcDbEntity
  8
躯体と製品
  6
Continuous
 62
     4
100
AcDbLine
 10
1612.817389134981
 20
490.5032266360982
 30
0.0
 11
1615.817389134981
 21
494.5032266360982
 31
0.0
  0
LINE
  5
5E55
330
1E
100
AcDbEntity
  8
躯体と製品
  6
Continuous
 62
     4
100
AcDbLine
 10
1622.817389134981
 20
492.5032266360982
 30
0.0
 11
1622.817389134981
 21
494.5032266360982
 31
0.0
  0
LINE
  5
5E56
330
1E
100
AcDbEntity
  8
躯体と製品
  6
Continuous
 62
     4
100
AcDbLine
 10
1616.817389134981
 20
492.5032266360982
 30
0.0
 11
1622.817389134981
 21
492.5032266360982
 31
0.0
  0
LINE
  5
5E57
330
1E
100
AcDbEntity
  8
躯体と製品
  6
Continuous
 62
     4
100
AcDbLine
 10
1616.817389134981
 20
492.5032266360982
 30
0.0
 11
1615.317389134981
 21
490.5032266360982
 31
0.0
  0
LINE
  5
5E58
330
1E
100
AcDbEntity
  8
躯体と製品
  6
Continuous
 62
     4
100
AcDbLine
 10
1622.817389134981
 20
490.5032266360982
 30
0.0
 11
1622.817389134981
 21
488.5032266360982
 31
0.0
  0
LINE
  5
5E59
330
1E
100
AcDbEntity
  8
躯体と製品
  6
Continuous
 62
     4
100
AcDbLine
 10
1622.817389134981
 20
494.5032266360982
 30
0.0
 11
1615.817389134981
 21
494.5032266360982
 31
0.0
  0
LINE
  5
5E5A
330
1E
100
AcDbEntity
  8
躯体と製品
  6
Continuous
 62
     3
100
AcDbLine
 10
1593.817389134981
 20
520.0032266360982
 30
0.0
 11
1593.817389134981
 21
569.7376566360982
 31
0.0
  0
LINE
  5
5E5B
330
1E
100
AcDbEntity
  8
躯体と製品
  6
Continuous
 62
     3
100
AcDbLine
 10
1592.817389134981
 20
520.0032266360982
 30
0.0
 11
1592.817389134981
 21
568.6672886360981
 31
0.0
  0
LINE
  5
5E5C
330
1E
100
AcDbEntity
  8
躯体と製品
  6
Continuous
 62
     3
100
AcDbLine
 10
1583.817389134981
 20
519.9932266360982
 30
0.0
 11
1583.817389134981
 21
569.7376566360982
 31
0.0
  0
LINE
  5
5E5D
330
1E
100
AcDbEntity
  8
躯体と製品
  6
Continuous
 62
     3
100
AcDbLine
 10
1584.817389134981
 20
519.9932266360982
 30
0.0
 11
1584.817389134981
 21
570.8080236360983
 31
0.0
  0
LINE
  5
5E5E
330
1E
100
AcDbEntity
  8
躯体と製品
  6
Continuous
 62
     3
100
AcDbLine
 10
1580.817389134981
 20
520.0032266360982
 30
0.0
 11
1588.817389134981
 21
520.0032266360982
 31
0.0
  0
LINE
  5
5E5F
330
1E
100
AcDbEntity
  8
躯体と製品
  6
Continuous
 62
     3
100
AcDbLine
 10
1580.817389134981
 20
520.0032266360982
 30
0.0
 11
1579.317389134981
 21
518.5032266360982
 31
0.0
  0
LINE
  5
5E60
330
1E
100
AcDbEntity
  8
躯体と製品
  6
Continuous
 62
     3
100
AcDbLine
 10
1596.817389134981
 20
520.0032266360982
 30
0.0
 11
1588.817389134981
 21
520.0032266360982
 31
0.0
  0
ARC
  5
5E61
330
1E
100
AcDbEntity
  8
躯体と製品
  6
Continuous
 62
     3
100
AcDbCircle
 10
1588.817389134981
 20
511.7132266360981
 30
0.0
 40
8.279999999999999
100
AcDbArc
 50
55.03744499999515
 51
124.9721830000011
  0
ARC
  5
5E62
330
1E
100
AcDbEntity
  8
躯体と製品
  6
Continuous
 62
     3
100
AcDbCircle
 10
1581.687971134981
 20
517.3800356360982
 30
0.0
 40
2.623207999999999
100
AcDbArc
 50
24.8973190000002
 51
89.79431200000128
  0
LINE
  5
5E63
330
1E
100
AcDbEntity
  8
躯体と製品
  6
Continuous
 62
     3
100
AcDbLine
 10
1584.067389134981
 20
517.5032266360982
 30
0.0
 11
1584.067389134981
 21
518.5032266360982
 31
0.0
  0
LINE
  5
5E64
330
1E
100
AcDbEntity
  8
躯体と製品
  6
Continuous
 62
     3
100
AcDbLine
 10
1598.317389134981
 20
518.4843886360981
 30
0.0
 11
1596.817389134981
 21
520.0032266360982
 31
0.0
  0
ARC
  5
5E65
330
1E
100
AcDbEntity
  8
躯体と製品
  6
Continuous
 62
     3
100
AcDbCircle
 10
1595.946806134981
 20
517.3800356360982
 30
0.0
 40
2.623207999999999
100
AcDbArc
 50
90.20568799999871
 51
155.1026809999998
  0
LINE
  5
5E66
330
1E
100
AcDbEntity
  8
躯体と製品
  6
Continuous
 62
     3
100
AcDbLine
 10
1593.567389134981
 20
517.5032266360982
 30
0.0
 11
1593.567389134981
 21
518.5032266360982
 31
0.0
  0
ARC
  5
5E67
330
1E
100
AcDbEntity
  8
躯体と製品
  6
Continuous
 62
     4
100
AcDbCircle
 10
1595.946806134981
 20
517.3800356360982
 30
0.0
 40
2.623207999999999
100
AcDbArc
 50
24.97880200000166
 51
25.35177799999896
  0
ARC
  5
5E68
330
1E
100
AcDbEntity
  8
躯体と製品
  6
Continuous
 62
     3
100
AcDbCircle
 10
1591.317387134981
 20
568.4043206360981
 30
0.0
 40
2.833336
100
AcDbArc
 50
28.07251499999892
 51
151.9274240000009
  0
ARC
  5
5E69
330
1E
100
AcDbEntity
  8
躯体と製品
  6
Continuous
 62
     3
100
AcDbCircle
 10
1591.317389134981
 20
571.0709896360982
 30
0.0
 40
2.833333
100
AcDbArc
 50
208.0724870000017
 51
331.9275129999982
  0
ARC
  5
5E6A
330
1E
100
AcDbEntity
  8
躯体と製品
  6
Continuous
 62
     3
100
AcDbCircle
 10
1586.317389134981
 20
568.4043226360982
 30
0.0
 40
2.833333
100
AcDbArc
 50
28.07248700000177
 51
151.9275129999982
  0
LINE
  5
5E6C
330
1E
100
AcDbEntity
  8
躯体と製品
  6
PLINE2
 62
     3
100
AcDbLine
 10
1578.702095134981
 20
656.0514046360983
 30
0.0
 11
1444.902095134981
 21
656.0514046360983
 31
0.0
  0
LINE
  5
5E6D
330
1E
100
AcDbEntity
  8
躯体と製品
  6
Continuous
 62
     4
100
AcDbLine
 10
1444.902095134981
 20
652.8514046360982
 30
0.0
 11
1590.702095134981
 21
652.8514046360982
 31
0.0
  0
LINE
  5
5E6E
330
1E
100
AcDbEntity
  8
躯体と製品
  6
Continuous
 62
     4
100
AcDbLine
 10
1440.702095134981
 20
692.8514046360983
 30
0.0
 11
1590.702095134981
 21
652.8514046360982
 31
0.0
  0
LINE
  5
5E6F
330
1E
100
AcDbEntity
  8
躯体と製品
  6
Continuous
 62
     4
100
AcDbLine
 10
1443.902095134981
 20
752.8514046360982
 30
0.0
 11
1443.902095134981
 21
691.9980716360982
 31
0.0
  0
LINE
  5
5E70
330
1E
100
AcDbEntity
  8
躯体と製品
  6
Continuous
 62
     4
100
AcDbLine
 10
1440.702095134981
 20
657.0514046360982
 30
0.0
 11
1440.702095134981
 21
752.8514046360982
 31
0.0
  0
ARC
  5
5E71
330
1E
100
AcDbEntity
  8
躯体と製品
  6
Continuous
 62
     3
100
AcDbCircle
 10
1471.788598134981
 20
589.4043226360982
 30
0.0
 40
2.833333
100
AcDbArc
 50
28.07248700000177
 51
151.9275129999982
  0
LINE
  5
5E76
330
1E
100
AcDbEntity
  8
躯体と製品
  6
Continuous
 62
     4
100
AcDbLine
 10
1388.820274134981
 20
656.0514046360983
 30
0.0
 11
1388.820274134981
 21
652.8514046360982
 31
0.0
  0
LINE
  5
5E77
330
1E
100
AcDbEntity
  8
躯体と製品
  6
PLINE2
 62
     3
100
AcDbLine
 10
1443.902095134981
 20
691.9980716360982
 30
0.0
 11
1443.902095134981
 21
657.0514046360982
 31
0.0
  0
LINE
  5
5E78
330
1E
100
AcDbEntity
  8
躯体と製品
  6
PLINE2
 62
     3
100
AcDbLine
 10
1443.902095134981
 20
659.0514046360982
 30
0.0
 11
1446.902095134981
 21
656.0514046360983
 31
0.0
  0
ARC
  5
5E79
330
1E
100
AcDbEntity
  8
躯体と製品
  6
PLINE2
 62
     3
100
AcDbCircle
 10
1444.902095134981
 20
657.0514046360982
 30
0.0
 40
1.0
100
AcDbArc
 50
180.0
 51
270.0
  0
ARC
  5
5E7A
330
1E
100
AcDbEntity
  8
躯体と製品
  6
Continuous
 62
     4
100
AcDbCircle
 10
1444.902095134981
 20
657.0514046360982
 30
0.0
 40
4.2
100
AcDbArc
 50
180.0
 51
270.0
  0
LINE
  5
5E7B
330
1E
100
AcDbEntity
  8
躯体と製品
  6
PLINE2
 62
     3
100
AcDbLine
 10
1440.702095134981
 20
672.8514046360983
 30
0.0
 11
1443.902095134981
 21
672.8514046360983
 31
0.0
  0
LINE
  5
5E7C
330
1E
100
AcDbEntity
  8
躯体と製品
  6
PLINE2
 62
     3
100
AcDbLine
 10
1440.702095134981
 20
692.8514046360983
 30
0.0
 11
1443.902095134981
 21
692.8514046360983
 31
0.0
  0
ARC
  5
5E7E
330
1E
100
AcDbEntity
  8
躯体と製品
  6
Continuous
 62
     3
100
AcDbCircle
 10
1476.788596134981
 20
589.4043206360982
 30
0.0
 40
2.833336
100
AcDbArc
 50
28.07251499999892
 51
151.9274240000009
  0
ARC
  5
5E7F
330
1E
100
AcDbEntity
  8
躯体と製品
  6
Continuous
 62
     3
100
AcDbCircle
 10
1476.788598134981
 20
592.0709896360981
 30
0.0
 40
2.833333
100
AcDbArc
 50
208.0724870000017
 51
331.9275129999982
  0
LINE
  5
5E80
330
1E
100
AcDbEntity
  8
躯体と製品
  6
PLINE2
 62
     3
100
AcDbLine
 10
1475.702095134981
 20
656.0514046360983
 30
0.0
 11
1475.702095134981
 21
652.8514046360982
 31
0.0
  0
TEXT
  5
5E81
330
1E
100
AcDbEntity
  8
文字-記号
  6
Continuous
 62
     3
100
AcDbText
 10
1517.904038134981
 20
689.5482846360983
 30
0.0
 40
10.0
  1
ＳＢ１３
 41
0.8
  7
ACAD
100
AcDbText
  0
LINE
  5
5E82
330
1E
100
AcDbEntity
  8
躯体と製品
  6
PLINE2
 62
     3
100
AcDbLine
 10
1440.702095134981
 20
722.8514046360983
 30
0.0
 11
1443.902095134981
 21
722.8514046360983
 31
0.0
  0
LINE
  5
5E83
330
1E
100
AcDbEntity
  8
躯体と製品
  6
PLINE2
 62
     3
100
AcDbLine
 10
1440.702095134981
 20
742.8514046360983
 30
0.0
 11
1443.902095134981
 21
742.8514046360983
 31
0.0
  0
LINE
  5
5E84
330
1E
100
AcDbEntity
  8
躯体と製品
  6
Continuous
 62
     4
100
AcDbLine
 10
1440.702095134981
 20
752.8514046360982
 30
0.0
 11
1443.902095134981
 21
752.8514046360982
 31
0.0
  0
LINE
  5
5E87
330
1E
100
AcDbEntity
  8
躯体と製品
  6
Continuous
 62
     4
100
AcDbLine
 10
1578.702095134981
 20
656.0514046360983
 30
0.0
 11
1590.702095134981
 21
656.0514046360983
 31
0.0
  0
LINE
  5
5E88
330
1E
100
AcDbEntity
  8
躯体と製品
  6
PLINE2
 62
     3
100
AcDbLine
 10
1575.702095134981
 20
656.0514046360983
 30
0.0
 11
1575.702095134981
 21
652.8514046360982
 31
0.0
  0
LINE
  5
5E89
330
1E
100
AcDbEntity
  8
躯体と製品
  6
Continuous
 62
     4
100
AcDbLine
 10
1590.702095134981
 20
656.0514046360983
 30
0.0
 11
1590.702095134981
 21
652.8514046360982
 31
0.0
  0
DIMENSION
  5
5E8A
330
1E
100
AcDbEntity
  8
寸法
  6
Continuous
100
AcDbDimension
  2
*D4
 10
1117.917427134981
 20
752.8514046360982
 30
0.0
 11
1114.417427134981
 21
702.8514046360984
 31
0.0
 70
    32
 71
     5
 42
100.0
  3
AutoCAD
100
AcDbAlignedDimension
 13
1139.317571134981
 23
652.8514046360982
 33
0.0
 14
1135.117571134981
 24
752.8514046360982
 34
0.0
 50
90.0
100
AcDbRotatedDimension
  0
DIMENSION
  5
5EA0
330
1E
100
AcDbEntity
  8
寸法
  6
Continuous
100
AcDbDimension
  2
*D5
 10
1388.820274134981
 20
628.1520496360982
 30
0.0
 11
1263.820274134981
 21
631.6520496360982
 31
0.0
 70
    32
 71
     5
 42
250.0000000000002
  3
AutoCAD
100
AcDbAlignedDimension
 13
1138.820274134981
 23
651.9973506360981
 33
0.0
 14
1388.820274134981
 24
647.7973506360982
 34
0.0
100
AcDbRotatedDimension
  0
DIMENSION
  5
5EAD
330
1E
100
AcDbEntity
  8
寸法
  6
Continuous
100
AcDbDimension
  2
*D6
 10
1590.702095134981
 20
628.1520496360982
 30
0.0
 11
1515.702095134981
 21
631.6520496360982
 31
0.0
 70
    32
 71
     5
 42
150.0
  3
AutoCAD
100
AcDbAlignedDimension
 13
1440.702095134981
 23
651.9973506360981
 33
0.0
 14
1590.702095134981
 24
647.7973506360982
 34
0.0
100
AcDbRotatedDimension
  0
DIMENSION
  5
5EBA
330
1E
100
AcDbEntity
  8
寸法
  6
Continuous
100
AcDbDimension
  2
*D7
 10
1395.624213134981
 20
514.3163346360982
 30
0.0
 11
1330.624213134981
 21
517.8163346360982
 31
0.0
 70
    32
 71
     5
 42
130.0
  3
AutoCAD
100
AcDbAlignedDimension
 13
1265.624213134981
 23
524.9701956360982
 33
0.0
 14
1395.624213134981
 24
525.2708806360982
 34
0.0
100
AcDbRotatedDimension
  0
DIMENSION
  5
5EC7
330
1E
100
AcDbEntity
  8
寸法
  6
Continuous
100
AcDbDimension
  2
*D8
 10
1254.495521134981
 20
558.2613266360981
 30
0.0
 11
1250.995521134981
 21
543.2613266360982
 31
0.0
 70
    32
 71
     5
 42
30.0
  3
AutoCAD
100
AcDbAlignedDimension
 13
1261.912688134981
 23
528.2613266360981
 33
0.0
 14
1261.912688134981
 24
558.2613266360981
 34
0.0
 50
90.0
100
AcDbRotatedDimension
  0
DIMENSION
  5
5ED4
330
1E
100
AcDbEntity
  8
寸法
  6
Continuous
100
AcDbDimension
  2
*D9
 10
1191.745420134981
 20
594.0172446360982
 30
0.0
 11
1166.745420134981
 21
597.5172446360982
 31
0.0
 70
    32
 71
     5
 42
50.0
  3
AutoCAD
100
AcDbAlignedDimension
 13
1141.745420134981
 23
586.0712886360982
 33
0.0
 14
1191.745420134981
 24
586.0712886360982
 34
0.0
100
AcDbRotatedDimension
  0
DIMENSION
  5
5EE1
330
1E
100
AcDbEntity
  8
寸法
  6
Continuous
100
AcDbDimension
  2
*D10
 10
1130.601598134981
 20
509.0956786360982
 30
0.0
 11
1127.101598134981
 21
546.5956786360983
 31
0.0
 70
    32
 71
     5
 42
75.0
  3
AutoCAD
100
AcDbAlignedDimension
 13
1140.013713134981
 23
584.0956786360982
 33
0.0
 14
1140.013713134981
 24
509.0956786360982
 34
0.0
 50
90.0
100
AcDbRotatedDimension
  0
ENDSEC
  0
SECTION
  2
OBJECTS
  0
DICTIONARY
  5
C
330
0
100
AcDbDictionary
281
     1
  3
ACAD_GROUP
350
D
  3
ACAD_LAYOUT
350
19
  3
ACAD_MLINESTYLE
350
16
  3
ACAD_PLOTSETTINGS
350
18
  3
ACAD_PLOTSTYLENAME
350
E
  3
AcDbVariableDictionary
350
169
  0
DICTIONARY
  5
175
330
2
100
AcDbDictionary
280
     1
281
     1
  3
ACAD_LAYERFILTERS
360
185
  3
ACAD_LAYERSTATES
360
176
  0
DICTIONARY
  5
28B
330
1E
100
AcDbDictionary
280
     1
281
     1
  0
DICTIONARY
  5
28D
330
1A
100
AcDbDictionary
280
     1
281
     1
  0
DICTIONARY
  5
D
102
{ACAD_REACTORS
330
C
102
}
330
C
100
AcDbDictionary
281
     1
  0
DICTIONARY
  5
19
102
{ACAD_REACTORS
330
C
102
}
330
C
100
AcDbDictionary
281
     1
  3
Model
350
21
  3
ﾚｲｱｳﾄ1
350
1D
  0
DICTIONARY
  5
16
102
{ACAD_REACTORS
330
C
102
}
330
C
100
AcDbDictionary
281
     1
  3
Standard
350
17
  0
DICTIONARY
  5
18
102
{ACAD_REACTORS
330
C
102
}
330
C
100
AcDbDictionary
281
     1
  0
ACDBDICTIONARYWDFLT
  5
E
102
{ACAD_REACTORS
330
C
102
}
330
C
100
AcDbDictionary
281
     1
  3
Normal
350
F
100
AcDbDictionaryWithDefault
340
F
1001
ACAD
1000
TREAT_AS_HARD
1070
     0
1000
TREAT_AS_HARD
1070
     0
1000
TREAT_AS_HARD
1070
     0
1000
TREAT_AS_HARD
1070
     0
1000
TREAT_AS_HARD
1070
     0
1000
TREAT_AS_HARD
1070
     0
1000
TREAT_AS_HARD
1070
     0
1000
TREAT_AS_HARD
1070
     0
1000
TREAT_AS_HARD
1070
     0
1000
TREAT_AS_HARD
1070
     0
1000
TREAT_AS_HARD
1070
     0
1000
TREAT_AS_HARD
1070
     0
1000
TREAT_AS_HARD
1070
     0
1000
TREAT_AS_HARD
1070
     0
1000
TREAT_AS_HARD
1070
     0
1000
TREAT_AS_HARD
1070
     0
1000
TREAT_AS_HARD
1070
     0
1000
TREAT_AS_HARD
1070
     0
1000
TREAT_AS_HARD
1070
     0
1000
TREAT_AS_HARD
1070
     0
1000
TREAT_AS_HARD
1070
     0
1000
TREAT_AS_HARD
1070
     0
1000
TREAT_AS_HARD
1070
     0
1000
TREAT_AS_HARD
1070
     0
1000
TREAT_AS_HARD
1070
     0
  0
DICTIONARY
  5
169
102
{ACAD_REACTORS
330
C
102
}
330
C
100
AcDbDictionary
281
     1
  3
DIMASSOC
350
16A
  0
DICTIONARY
  5
185
102
{ACAD_REACTORS
330
175
102
}
330
175
100
AcDbDictionary
280
     1
281
     1
  0
DICTIONARY
  5
176
102
{ACAD_REACTORS
330
175
102
}
330
175
100
AcDbDictionary
281
     1
  3
ACAD
350
177
  0
LAYOUT
  5
21
102
{ACAD_REACTORS
330
19
102
}
330
19
100
AcDbPlotSettings
  1

  2
\\MEISEI-1\EPSON Stylus Photo EX3
  4

  6

 40
0.0
 41
0.0
 42
0.0
 43
0.0
 44
0.0
 45
0.0
 46
0.0
 47
0.0
 48
0.0
 49
0.0
140
0.0
141
0.0
142
1.0
143
1.0
 70
  1712
 72
     0
 73
     0
 74
     0
  7

 75
     0
147
1.0
148
0.0
149
0.0
100
AcDbLayout
  1
Model
 70
     1
 71
     0
 10
0.0
 20
0.0
 11
12.0
 21
9.0
 12
0.0
 22
0.0
 32
0.0
 14
0.0
 24
0.0
 34
0.0
 15
0.0
 25
0.0
 35
0.0
146
0.0
 13
0.0
 23
0.0
 33
0.0
 16
1.0
 26
0.0
 36
0.0
 17
0.0
 27
1.0
 37
0.0
 76
     0
330
1E
  0
LAYOUT
  5
1D
102
{ACAD_REACTORS
330
19
102
}
330
19
100
AcDbPlotSettings
  1

  2
\\MEISEI-1\EPSON Stylus Photo EX3
  4

  6

 40
0.0
 41
0.0
 42
0.0
 43
0.0
 44
0.0
 45
0.0
 46
0.0
 47
0.0
 48
0.0
 49
0.0
140
0.0
141
0.0
142
1.0
143
1.0
 70
   688
 72
     0
 73
     0
 74
     5
  7

 75
    16
147
1.0
148
0.0
149
0.0
100
AcDbLayout
  1
ﾚｲｱｳﾄ1
 70
     1
 71
     1
 10
0.0
 20
0.0
 11
12.0
 21
9.0
 12
0.0
 22
0.0
 32
0.0
 14
1.000000000000000E+20
 24
1.000000000000000E+20
 34
1.000000000000000E+20
 15
-1.000000000000000E+20
 25
-1.000000000000000E+20
 35
-1.000000000000000E+20
146
0.0
 13
0.0
 23
0.0
 33
0.0
 16
1.0
 26
0.0
 36
0.0
 17
0.0
 27
1.0
 37
0.0
 76
     0
330
1A
  0
MLINESTYLE
  5
17
102
{ACAD_REACTORS
330
16
102
}
330
16
100
AcDbMlineStyle
  2
STANDARD
 70
     0
  3

 62
   256
 51
90.0
 52
90.0
 71
     2
 49
0.5
 62
   256
  6
BYLAYER
 49
-0.5
 62
   256
  6
BYLAYER
  0
ACDBPLACEHOLDER
  5
F
102
{ACAD_REACTORS
330
E
102
}
330
E
  0
DICTIONARYVAR
  5
16A
102
{ACAD_REACTORS
330
169
102
}
330
169
100
DictionaryVariables
280
     0
  1
1
  0
XRECORD
  5
177
102
{ACAD_REACTORS
330
176
102
}
330
176
100
AcDbXrecord
280
     1
 91
      476
330
179
 90
        8
 62
     7
370
    -3
331
15
  1
Color_7
330
178
 90
        8
 62
     7
370
    -3
331
15
  1
Color_7
330
128
 90
        0
 62
     7
370
    -3
331
15
  1
Color_7
330
10
 90
        8
 62
     7
370
    -3
331
15
  1
Color_7
  0
ENDSEC
  0
EOF
