  0
SECTION
  2
HEADER
  9
$ACADVER
  1
AC1015
  9
$DWGCODEPAGE
  3
ANSI_932
  9
$EXTMIN
 10
10
 20
16
  9
$EXTMAX
 10
1788.066275663
 20
1184.503806667
  9
$LIMMIN
 10
0
 20
0
  9
$LIMMAX
 10
2520
 20
1782
  9
$LTSCALE
 40
6
  9
$DIMSCALE
 40
6
  9
$DIMSTYLE
  2
M7DIMSTL
  9
$HANDSEED
  5
7FFFFFFF
  9
$PSLTSCALE
 70
     0
  9
$MEASUREMENT
 70
     1
  0
ENDSEC
  0
SECTION
  2
CLASSES
  0
CLASS
  1
CSOFTARXCLASS
  2
CSoftArxClass
  3
CSRasterApi
 90
     0
280
     0
281
     0
  0
CLASS
  1
IMAGEDEF
  2
AcDbRasterImageDef
  3
ISM
 90
     0
280
     0
281
     0
  0
CLASS
  1
RASTERVARIABLES
  2
AcDbRasterVariables
  3
ISM
 90
     0
280
     0
281
     0
  0
CLASS
  1
IMAGE
  2
AcDbRasterImage
  3
ISM
 90
   127
280
     0
281
     0
  0
CLASS
  1
IMAGEDEF_REACTOR
  2
AcDbRasterImageDefReactor
  3
ISM
 90
     1
280
     0
281
     0
  0
CLASS
  1
HATCH
  2
AcDbHatch
  3
M7
 90
     0
280
     0
281
     1
  0
ENDSEC
  0
SECTION
  2
TABLES
  0
TABLE
  2
VPORT
  5
FF
100
AcDbSymbolTable
 70
     5
  0
VPORT
  5
100
100
AcDbSymbolTableRecord
100
AcDbViewportTableRecord
  2
*ACTIVE
 70
     0
 10
0
 20
0
 11
1
 21
1
 12
1260
 22
891
 13
0
 23
0
 14
0
 24
0
 15
0
 25
0
 16
0
 26
0
 36
1
 17
0
 27
0
 37
0
 40
891
 41
1.414141414141
 42
50
 43
0
 44
0
 50
0
 51
0
 71
     0
 72
   100
 73
     1
 74
     3
 75
     0
 76
     0
 77
     0
 78
     0
  0
ENDTAB
  0
TABLE
  2
LTYPE
  5
101
100
AcDbSymbolTable
 70
     1
  0
LTYPE
  5
102
100
AcDbSymbolTableRecord
100
AcDbLinetypeTableRecord
  2
BYBLOCK
 70
     0
  3

 72
    65
 73
     0
 40
0
  0
LTYPE
  5
103
100
AcDbSymbolTableRecord
100
AcDbLinetypeTableRecord
  2
BYLAYER
 70
     0
  3

 72
    65
 73
     0
 40
0
  0
LTYPE
  5
104
100
AcDbSymbolTableRecord
100
AcDbLinetypeTableRecord
  2
CONTINUOUS
 70
     0
  3
Solid line
 72
    65
 73
     0
 40
0
  0
LTYPE
  5
105
100
AcDbSymbolTableRecord
100
AcDbLinetypeTableRecord
  2
DOT
 70
     0
  3
...............................
 72
    65
 73
     2
 40
2
 49
1
 74
     0
 49
-1
 74
     0
  0
LTYPE
  5
106
100
AcDbSymbolTableRecord
100
AcDbLinetypeTableRecord
  2
DASHED
 70
     0
  3
- - - - - - - - - - - - - - - -
 72
    65
 73
     2
 40
4
 49
2
 74
     0
 49
-2
 74
     0
  0
LTYPE
  5
107
100
AcDbSymbolTableRecord
100
AcDbLinetypeTableRecord
  2
DASHED2
 70
     0
  3
-- -- -- -- -- -- -- -- -- -- -
 72
    65
 73
     2
 40
8
 49
5
 74
     0
 49
-3
 74
     0
  0
LTYPE
  5
108
100
AcDbSymbolTableRecord
100
AcDbLinetypeTableRecord
  2
CENTER
 70
     0
  3
--------- - --------- - -------
 72
    65
 73
     4
 40
23
 49
20
 74
     0
 49
-1
 74
     0
 49
1
 74
     0
 49
-1
 74
     0
  0
LTYPE
  5
109
100
AcDbSymbolTableRecord
100
AcDbLinetypeTableRecord
  2
CENTERX2
 70
     0
  3
-------------- - --------------
 72
    65
 73
     4
 40
43
 49
40
 74
     0
 49
-1
 74
     0
 49
1
 74
     0
 49
-1
 74
     0
  0
LTYPE
  5
10A
100
AcDbSymbolTableRecord
100
AcDbLinetypeTableRecord
  2
CENTER2
 70
     0
  3
------ - ----- - ------ - -----
 72
    65
 73
     4
 40
13
 49
10
 74
     0
 49
-1
 74
     0
 49
1
 74
     0
 49
-1
 74
     0
  0
LTYPE
  5
10B
100
AcDbSymbolTableRecord
100
AcDbLinetypeTableRecord
  2
PHANTOM
 70
     0
  3
-------- - - ------- - - ------
 72
    65
 73
     6
 40
25
 49
20
 74
     0
 49
-1
 74
     0
 49
1
 74
     0
 49
-1
 74
     0
 49
1
 74
     0
 49
-1
 74
     0
  0
LTYPE
  5
10C
100
AcDbSymbolTableRecord
100
AcDbLinetypeTableRecord
  2
PHANTOMX2
 70
     0
  3
------------- - - -------------
 72
    65
 73
     6
 40
45
 49
40
 74
     0
 49
-1
 74
     0
 49
1
 74
     0
 49
-1
 74
     0
 49
1
 74
     0
 49
-1
 74
     0
  0
LTYPE
  5
10D
100
AcDbSymbolTableRecord
100
AcDbLinetypeTableRecord
  2
PHANTOM2
 70
     0
  3
---- - - ---- - - ---- - - ----
 72
    65
 73
     6
 40
15
 49
10
 74
     0
 49
-1
 74
     0
 49
1
 74
     0
 49
-1
 74
     0
 49
1
 74
     0
 49
-1
 74
     0
  0
LTYPE
  5
10E
100
AcDbSymbolTableRecord
100
AcDbLinetypeTableRecord
  2
ACAD_ISO06W100
 70
     0
  3
------------ - - - ------------
 72
    65
 73
     8
 40
47
 49
40
 74
     0
 49
-1
 74
     0
 49
1
 74
     0
 49
-1
 74
     0
 49
1
 74
     0
 49
-1
 74
     0
 49
1
 74
     0
 49
-1
 74
     0
  0
LTYPE
  5
10F
100
AcDbSymbolTableRecord
100
AcDbLinetypeTableRecord
  2
ACAD_ISO14W100
 70
     0
  3
---- - - - -------- - - - -----
 72
    65
 73
     8
 40
27
 49
20
 74
     0
 49
-1
 74
     0
 49
1
 74
     0
 49
-1
 74
     0
 49
1
 74
     0
 49
-1
 74
     0
 49
1
 74
     0
 49
-1
 74
     0
  0
LTYPE
  5
110
100
AcDbSymbolTableRecord
100
AcDbLinetypeTableRecord
  2
ACAD_ISO11W100
 70
     0
  3
------- ------ - ------- ------
 72
    65
 73
     6
 40
44
 49
20
 74
     0
 49
-1
 74
     0
 49
20
 74
     0
 49
-1
 74
     0
 49
1
 74
     0
 49
-1
 74
     0
  0
LTYPE
  5
111
100
AcDbSymbolTableRecord
100
AcDbLinetypeTableRecord
  2
ACAD_ISO13W100
 70
     0
  3
------ ------ - - ------ ------
 72
    65
 73
     8
 40
46
 49
20
 74
     0
 49
-1
 74
     0
 49
20
 74
     0
 49
-1
 74
     0
 49
1
 74
     0
 49
-1
 74
     0
 49
1
 74
     0
 49
-1
 74
     0
  0
LTYPE
  5
112
100
AcDbSymbolTableRecord
100
AcDbLinetypeTableRecord
  2
ACAD_ISO15W100
 70
     0
  3
------ ----- - - - ------ -----
 72
    65
 73
    10
 40
48
 49
20
 74
     0
 49
-1
 74
     0
 49
20
 74
     0
 49
-1
 74
     0
 49
1
 74
     0
 49
-1
 74
     0
 49
1
 74
     0
 49
-1
 74
     0
 49
1
 74
     0
 49
-1
 74
     0
  0
LTYPE
  5
113
100
AcDbSymbolTableRecord
100
AcDbLinetypeTableRecord
  2
HIDDEN
 70
     0
  3
. . . . . . . . . . . . . . . .
 72
    65
 73
     2
 40
1.5
 49
1
 74
     0
 49
-0.5
 74
     0
  0
ENDTAB
  0
TABLE
  2
LAYER
  5
114
100
AcDbSymbolTable
 70
     1
  0
LAYER
  5
115
100
AcDbSymbolTableRecord
100
AcDbLayerTableRecord
  2
0
 70
     0
 62
     7
  6
CONTINUOUS
390
116
  0
LAYER
  5
117
100
AcDbSymbolTableRecord
100
AcDbLayerTableRecord
  2
鉄骨下地
 70
     0
 62
     7
  6
CONTINUOUS
390
   278
  0
LAYER
  5
118
100
AcDbSymbolTableRecord
100
AcDbLayerTableRecord
  2
ボルトナット
 70
     0
 62
     7
  6
CONTINUOUS
390
   278
  0
LAYER
  5
119
100
AcDbSymbolTableRecord
100
AcDbLayerTableRecord
  2
固定アングル
 70
     0
 62
     7
  6
CONTINUOUS
390
   278
  0
LAYER
  5
11A
100
AcDbSymbolTableRecord
100
AcDbLayerTableRecord
  2
ストリンガー
 70
     0
 62
     7
  6
CONTINUOUS
390
   278
  0
LAYER
  5
11B
100
AcDbSymbolTableRecord
100
AcDbLayerTableRecord
  2
パネル
 70
     0
 62
     7
  6
CONTINUOUS
390
   278
  0
LAYER
  5
11C
100
AcDbSymbolTableRecord
100
AcDbLayerTableRecord
  2
取付金具
 70
     0
 62
     7
  6
CONTINUOUS
390
   278
  0
LAYER
  5
11D
100
AcDbSymbolTableRecord
100
AcDbLayerTableRecord
  2
ボルトセット
 70
     0
 62
     7
  6
CONTINUOUS
390
   278
  0
LAYER
  5
11E
100
AcDbSymbolTableRecord
100
AcDbLayerTableRecord
  2
部品名
 70
     0
 62
     7
  6
CONTINUOUS
390
   278
  0
LAYER
  5
11F
100
AcDbSymbolTableRecord
100
AcDbLayerTableRecord
  2
寸法
 70
     0
 62
     7
  6
CONTINUOUS
390
   278
  0
LAYER
  5
120
100
AcDbSymbolTableRecord
100
AcDbLayerTableRecord
  2
レイヤ1
 70
     0
 62
     7
  6
CONTINUOUS
390
   278
  0
LAYER
  5
121
100
AcDbSymbolTableRecord
100
AcDbLayerTableRecord
  2
レイヤ15
 70
     0
 62
     7
  6
CONTINUOUS
390
   278
  0
LAYER
  5
122
100
AcDbSymbolTableRecord
100
AcDbLayerTableRecord
  2
レイヤ16
 70
     0
 62
     7
  6
CONTINUOUS
390
   278
  0
ENDTAB
  0
TABLE
  2
STYLE
  5
123
100
AcDbSymbolTable
 70
     1
  0
STYLE
  5
124
100
AcDbSymbolTableRecord
100
AcDbTextStyleTableRecord
  2
STANDARD
 70
     0
 40
0
 41
0
 50
0
 71
     0
 42
1
  3
txt
  4
bigfont
  0
STYLE
  5
125
100
AcDbSymbolTableRecord
100
AcDbTextStyleTableRecord
  2
VSTANDARD
 70
     4
 40
0
 41
0
 50
0
 71
     0
 42
1
  3
txt
  4
bigfont
  0
ENDTAB
  0
TABLE
  2
VIEW
  5
126
100
AcDbSymbolTable
 70
     0
  0
ENDTAB
  0
TABLE
  2
UCS
  5
127
100
AcDbSymbolTable
 70
     0
  0
ENDTAB
  0
TABLE
  2
APPID
  5
128
100
AcDbSymbolTable
 70
     1
  0
APPID
  5
129
100
AcDbSymbolTableRecord
100
AcDbRegAppTableRecord
  2
ACAD
 70
     0
  0
ENDTAB
  0
TABLE
  2
DIMSTYLE
  5
12A
100
AcDbSymbolTable
 70
     1
100
AcDbDimStyleTable
 71
     0
  0
DIMSTYLE
105
12B
100
AcDbSymbolTableRecord
100
AcDbDimStyleTableRecord
  2
M7DIMSTL
 70
     0
  3

  4

  5

  6

  7

 40
6
 41
2.5
 42
0.625
 43
3.75
 44
1.25
 45
0
 46
0
 47
0
 48
0
140
2.5
141
2.5
142
0
143
0.03937007874016
144
1
145
0
146
1
147
0.625
 71
     0
 72
     0
 73
     0
 74
     0
 75
     0
 76
     0
 77
     1
 78
     8
170
     0
171
     3
172
     1
173
     0
174
     0
175
     0
176
     0
177
     0
178
     0
270
     2
271
     2
272
     2
273
     2
274
     3
340
124
275
     0
280
     0
281
     0
282
     0
283
     0
284
     8
285
     0
286
     0
287
     3
288
     0
  0
ENDTAB
  0
TABLE
  2
BLOCK_RECORD
  5
12C
100
AcDbSymbolTable
 70
     2
  0
BLOCK_RECORD
  5
12D
100
AcDbSymbolTableRecord
100
AcDbBlockTableRecord
  2
*MODEL_SPACE
  0
BLOCK_RECORD
  5
12E
100
AcDbSymbolTableRecord
100
AcDbBlockTableRecord
  2
*PAPER_SPACE
  0
BLOCK_RECORD
  5
12F
100
AcDbSymbolTableRecord
100
AcDbBlockTableRecord
  2
_DOT
  0
BLOCK_RECORD
  5
130
100
AcDbSymbolTableRecord
100
AcDbBlockTableRecord
  2
_OPEN30
  0
BLOCK_RECORD
  5
131
100
AcDbSymbolTableRecord
100
AcDbBlockTableRecord
  2
_ClosedBlank
  0
BLOCK_RECORD
  5
132
100
AcDbSymbolTableRecord
100
AcDbBlockTableRecord
  2
_Origin
  0
BLOCK_RECORD
  5
133
100
AcDbSymbolTableRecord
100
AcDbBlockTableRecord
  2
_Oblique
  0
BLOCK_RECORD
  5
134
100
AcDbSymbolTableRecord
100
AcDbBlockTableRecord
  2
_Origin2
  0
BLOCK_RECORD
  5
135
100
AcDbSymbolTableRecord
100
AcDbBlockTableRecord
  2
_BoxBlank
  0
BLOCK_RECORD
  5
136
100
AcDbSymbolTableRecord
100
AcDbBlockTableRecord
  2
_BoxFilled
  0
BLOCK_RECORD
  5
137
100
AcDbSymbolTableRecord
100
AcDbBlockTableRecord
  2
_Integral
  0
BLOCK_RECORD
  5
138
100
AcDbSymbolTableRecord
100
AcDbBlockTableRecord
  2
BK2
  0
BLOCK_RECORD
  5
139
100
AcDbSymbolTableRecord
100
AcDbBlockTableRecord
  2
BK3
  0
BLOCK_RECORD
  5
13A
100
AcDbSymbolTableRecord
100
AcDbBlockTableRecord
  2
BK4
  0
BLOCK_RECORD
  5
13B
100
AcDbSymbolTableRecord
100
AcDbBlockTableRecord
  2
BK5
  0
BLOCK_RECORD
  5
13C
100
AcDbSymbolTableRecord
100
AcDbBlockTableRecord
  2
BK6
  0
BLOCK_RECORD
  5
13D
100
AcDbSymbolTableRecord
100
AcDbBlockTableRecord
  2
BK7
  0
BLOCK_RECORD
  5
13E
100
AcDbSymbolTableRecord
100
AcDbBlockTableRecord
  2
BK8
  0
BLOCK_RECORD
  5
13F
100
AcDbSymbolTableRecord
100
AcDbBlockTableRecord
  2
BK9
  0
BLOCK_RECORD
  5
140
100
AcDbSymbolTableRecord
100
AcDbBlockTableRecord
  2
BK10
  0
BLOCK_RECORD
  5
141
100
AcDbSymbolTableRecord
100
AcDbBlockTableRecord
  2
BK11
  0
BLOCK_RECORD
  5
142
100
AcDbSymbolTableRecord
100
AcDbBlockTableRecord
  2
BK12
  0
BLOCK_RECORD
  5
143
100
AcDbSymbolTableRecord
100
AcDbBlockTableRecord
  2
BK13
  0
BLOCK_RECORD
  5
144
100
AcDbSymbolTableRecord
100
AcDbBlockTableRecord
  2
BK14
  0
BLOCK_RECORD
  5
145
100
AcDbSymbolTableRecord
100
AcDbBlockTableRecord
  2
BK15
  0
BLOCK_RECORD
  5
146
100
AcDbSymbolTableRecord
100
AcDbBlockTableRecord
  2
BK16
  0
BLOCK_RECORD
  5
147
100
AcDbSymbolTableRecord
100
AcDbBlockTableRecord
  2
BK17
  0
BLOCK_RECORD
  5
148
100
AcDbSymbolTableRecord
100
AcDbBlockTableRecord
  2
BK18
  0
BLOCK_RECORD
  5
149
100
AcDbSymbolTableRecord
100
AcDbBlockTableRecord
  2
BK19
  0
BLOCK_RECORD
  5
14A
100
AcDbSymbolTableRecord
100
AcDbBlockTableRecord
  2
BK20
  0
BLOCK_RECORD
  5
14B
100
AcDbSymbolTableRecord
100
AcDbBlockTableRecord
  2
BK21
  0
BLOCK_RECORD
  5
14C
100
AcDbSymbolTableRecord
100
AcDbBlockTableRecord
  2
BK22
  0
BLOCK_RECORD
  5
14D
100
AcDbSymbolTableRecord
100
AcDbBlockTableRecord
  2
BK23
  0
BLOCK_RECORD
  5
14E
100
AcDbSymbolTableRecord
100
AcDbBlockTableRecord
  2
BK24
  0
BLOCK_RECORD
  5
14F
100
AcDbSymbolTableRecord
100
AcDbBlockTableRecord
  2
*D25
  0
BLOCK_RECORD
  5
150
100
AcDbSymbolTableRecord
100
AcDbBlockTableRecord
  2
*D26
  0
BLOCK_RECORD
  5
151
100
AcDbSymbolTableRecord
100
AcDbBlockTableRecord
  2
*D27
  0
BLOCK_RECORD
  5
152
100
AcDbSymbolTableRecord
100
AcDbBlockTableRecord
  2
*D28
  0
BLOCK_RECORD
  5
153
100
AcDbSymbolTableRecord
100
AcDbBlockTableRecord
  2
*D29
  0
BLOCK_RECORD
  5
154
100
AcDbSymbolTableRecord
100
AcDbBlockTableRecord
  2
*D30
  0
BLOCK_RECORD
  5
155
100
AcDbSymbolTableRecord
100
AcDbBlockTableRecord
  2
*D31
  0
BLOCK_RECORD
  5
156
100
AcDbSymbolTableRecord
100
AcDbBlockTableRecord
  2
*D32
  0
BLOCK_RECORD
  5
157
100
AcDbSymbolTableRecord
100
AcDbBlockTableRecord
  2
*D33
  0
BLOCK_RECORD
  5
158
100
AcDbSymbolTableRecord
100
AcDbBlockTableRecord
  2
*D34
  0
BLOCK_RECORD
  5
159
100
AcDbSymbolTableRecord
100
AcDbBlockTableRecord
  2
*D35
  0
BLOCK_RECORD
  5
15A
100
AcDbSymbolTableRecord
100
AcDbBlockTableRecord
  2
*D36
  0
BLOCK_RECORD
  5
15B
100
AcDbSymbolTableRecord
100
AcDbBlockTableRecord
  2
*D37
  0
BLOCK_RECORD
  5
15C
100
AcDbSymbolTableRecord
100
AcDbBlockTableRecord
  2
*D38
  0
BLOCK_RECORD
  5
15D
100
AcDbSymbolTableRecord
100
AcDbBlockTableRecord
  2
*D39
  0
BLOCK_RECORD
  5
15E
100
AcDbSymbolTableRecord
100
AcDbBlockTableRecord
  2
*D40
  0
BLOCK_RECORD
  5
15F
100
AcDbSymbolTableRecord
100
AcDbBlockTableRecord
  2
*D41
  0
BLOCK_RECORD
  5
160
100
AcDbSymbolTableRecord
100
AcDbBlockTableRecord
  2
*D42
  0
BLOCK_RECORD
  5
161
100
AcDbSymbolTableRecord
100
AcDbBlockTableRecord
  2
*D43
  0
BLOCK_RECORD
  5
162
100
AcDbSymbolTableRecord
100
AcDbBlockTableRecord
  2
*D44
  0
ENDTAB
  0
ENDSEC
  0
SECTION
  2
BLOCKS
  0
BLOCK
  5
163
100
AcDbEntity
  8
0
100
AcDbBlockBegin
  2
*MODEL_SPACE
 70
     0
 10
0
 20
0
  3
*MODEL_SPACE
  1

  0
ENDBLK
  5
164
100
AcDbEntity
  8
0
100
AcDbBlockEnd
  0
BLOCK
  5
165
100
AcDbEntity
 67
     1
  8
0
100
AcDbBlockBegin
  2
*PAPER_SPACE
 70
     0
 10
0
 20
0
  3
*PAPER_SPACE
  1

  0
ENDBLK
  5
166
100
AcDbEntity
 67
     1
  8
0
100
AcDbBlockEnd
  0
BLOCK
  5
167
100
AcDbEntity
 67
     1
  8
0
100
AcDbBlockBegin
  2
_DOT
 70
     0
 10
0
 20
0
  3
_DOT
  1

  0
LWPOLYLINE
  5
168
100
AcDbEntity
  8
0
  6
BYBLOCK
 62
     0
100
AcDbPolyline
 90
     2
 70
     1
 43
0.5
 10
-0.25
 20
0
 42
1
 10
0.25
 20
0
 42
1
  0
LINE
  5
169
100
AcDbEntity
  8
0
  6
BYBLOCK
 62
     0
100
AcDbLine
 10
-0.5
 20
0
 11
-1
 21
0
  0
ENDBLK
  5
16A
100
AcDbEntity
  8
0
100
AcDbBlockEnd
  0
BLOCK
  5
16B
100
AcDbEntity
 67
     1
  8
0
100
AcDbBlockBegin
  2
_OPEN30
 70
     0
 10
0
 20
0
  3
_OPEN30
  1

  0
LINE
  5
16C
100
AcDbEntity
  8
0
  6
BYBLOCK
 62
     0
100
AcDbLine
 10
-1
 20
0.26794919
 11
0
 21
0
  0
LINE
  5
16D
100
AcDbEntity
  8
0
  6
BYBLOCK
 62
     0
100
AcDbLine
 10
-1
 20
-0.26794919
 11
0
 21
0
  0
LINE
  5
16E
100
AcDbEntity
  8
0
  6
BYBLOCK
 62
     0
100
AcDbLine
 10
0
 20
0
 11
-1
 21
0
  0
ENDBLK
  5
16F
100
AcDbEntity
  8
0
100
AcDbBlockEnd
  0
BLOCK
  5
170
100
AcDbEntity
 67
     1
  8
0
100
AcDbBlockBegin
  2
_ClosedBlank
 70
     0
 10
0
 20
0
  3
_ClosedBlank
  1

  0
LINE
  5
171
100
AcDbEntity
  8
0
  6
BYBLOCK
 62
     0
100
AcDbLine
 10
-1
 20
0.1666666666667
 11
0
 21
0
  0
LINE
  5
172
100
AcDbEntity
  8
0
  6
BYBLOCK
 62
     0
100
AcDbLine
 10
0
 20
0
 11
-1
 21
-0.1666666666667
  0
LINE
  5
173
100
AcDbEntity
  8
0
  6
BYBLOCK
 62
     0
100
AcDbLine
 10
-1
 20
0.1666666666667
 11
-1
 21
-0.1666666666667
  0
ENDBLK
  5
174
100
AcDbEntity
  8
0
100
AcDbBlockEnd
  0
BLOCK
  5
175
100
AcDbEntity
 67
     1
  8
0
100
AcDbBlockBegin
  2
_Origin
 70
     0
 10
0
 20
0
  3
_Origin
  1

  0
CIRCLE
  5
176
100
AcDbEntity
  8
0
  6
BYBLOCK
 62
     0
100
AcDbCircle
 10
0
 20
0
 40
0.5
  0
LINE
  5
177
100
AcDbEntity
  8
0
  6
BYBLOCK
 62
     0
100
AcDbLine
 10
0
 20
0
 11
-1
 21
0
  0
ENDBLK
  5
178
100
AcDbEntity
  8
0
100
AcDbBlockEnd
  0
BLOCK
  5
179
100
AcDbEntity
 67
     1
  8
0
100
AcDbBlockBegin
  2
_Oblique
 70
     0
 10
0
 20
0
  3
_Oblique
  1

  0
LINE
  5
17A
100
AcDbEntity
  8
0
  6
BYBLOCK
 62
     0
100
AcDbLine
 10
-0.5
 20
-0.5
 11
0.5
 21
0.5
  0
ENDBLK
  5
17B
100
AcDbEntity
  8
0
100
AcDbBlockEnd
  0
BLOCK
  5
17C
100
AcDbEntity
 67
     1
  8
0
100
AcDbBlockBegin
  2
_Origin2
 70
     0
 10
0
 20
0
  3
_Origin2
  1

  0
CIRCLE
  5
17D
100
AcDbEntity
  8
0
  6
BYBLOCK
 62
     0
100
AcDbCircle
 10
0
 20
0
 40
0.5
  0
CIRCLE
  5
17E
100
AcDbEntity
  8
0
  6
BYBLOCK
 62
     0
100
AcDbCircle
 10
0
 20
0
 40
0.25
  0
LINE
  5
17F
100
AcDbEntity
  8
0
  6
BYBLOCK
 62
     0
100
AcDbLine
 10
-0.5
 20
0
 11
-1
 21
0
  0
ENDBLK
  5
180
100
AcDbEntity
  8
0
100
AcDbBlockEnd
  0
BLOCK
  5
181
100
AcDbEntity
 67
     1
  8
0
100
AcDbBlockBegin
  2
_BoxBlank
 70
     0
 10
0
 20
0
  3
_BoxBlank
  1

  0
LINE
  5
182
100
AcDbEntity
  8
0
  6
BYBLOCK
 62
     0
100
AcDbLine
 10
-0.5
 20
-0.5
 11
0.5
 21
-0.5
  0
LINE
  5
183
100
AcDbEntity
  8
0
  6
BYBLOCK
 62
     0
100
AcDbLine
 10
0.5
 20
-0.5
 11
0.5
 21
0.5
  0
LINE
  5
184
100
AcDbEntity
  8
0
  6
BYBLOCK
 62
     0
100
AcDbLine
 10
0.5
 20
0.5
 11
-0.5
 21
0.5
  0
LINE
  5
185
100
AcDbEntity
  8
0
  6
BYBLOCK
 62
     0
100
AcDbLine
 10
-0.5
 20
0.5
 11
-0.5
 21
-0.5
  0
LINE
  5
186
100
AcDbEntity
  8
0
  6
BYBLOCK
 62
     0
100
AcDbLine
 10
-0.5
 20
0
 11
-1
 21
0
  0
ENDBLK
  5
187
100
AcDbEntity
  8
0
100
AcDbBlockEnd
  0
BLOCK
  5
188
100
AcDbEntity
 67
     1
  8
0
100
AcDbBlockBegin
  2
_BoxFilled
 70
     0
 10
0
 20
0
  3
_BoxFilled
  1

  0
SOLID
  5
189
100
AcDbEntity
  8
0
  6
BYBLOCK
 62
     0
100
AcDbTrace
 10
-0.5
 20
0.5
 11
0.5
 21
0.5
 12
-0.5
 22
-0.5
 13
0.5
 23
-0.5
  0
LINE
  5
18A
100
AcDbEntity
  8
0
  6
BYBLOCK
 62
     0
100
AcDbLine
 10
-0.5
 20
0
 11
-1
 21
0
  0
ENDBLK
  5
18B
100
AcDbEntity
  8
0
100
AcDbBlockEnd
  0
BLOCK
  5
18C
100
AcDbEntity
 67
     1
  8
0
100
AcDbBlockBegin
  2
_Integral
 70
     0
 10
0
 20
0
  3
_Integral
  1

  0
ARC
  5
18D
100
AcDbEntity
  8
0
  6
BYBLOCK
 62
     0
100
AcDbCircle
 10
0.44488802
 20
-0.09133463
 40
0.45416667
100
AcDbArc
 50
101.999999998
 51
167.9999999799
  0
ARC
  5
18E
100
AcDbEntity
  8
0
  6
BYBLOCK
 62
     0
100
AcDbCircle
 10
-0.44488802
 20
0.09133463
 40
0.45416667
100
AcDbArc
 50
282.0000000215
 51
348.0000000034
  0
ENDBLK
  5
18F
100
AcDbEntity
  8
0
100
AcDbBlockEnd
  0
BLOCK
  5
190
100
AcDbEntity
  8
固定アングル
100
AcDbBlockBegin
  2
BK2
 70
    64
 10
0
 20
0
  3
BK2
  1

  0
LINE
  5
191
100
AcDbEntity
  8
固定アングル
  6
CONTINUOUS
 62
     0
100
AcDbLine
 10
1670.937209349
 20
960.821272429
 11
1670.937209349
 21
1010.821272429
  0
LINE
  5
192
100
AcDbEntity
  8
固定アングル
  6
CONTINUOUS
 62
     0
100
AcDbLine
 10
1674.937209349
 20
964.821242429
 11
1674.937209349
 21
1010.821272429
  0
LINE
  5
193
100
AcDbEntity
  8
固定アングル
  6
DASHED2
 62
     0
100
AcDbLine
 10
1695.295634135
 20
960.8212762409
 11
1693.687209349
 21
962.4297010262
  0
LINE
  5
194
100
AcDbEntity
  8
固定アングル
  6
DASHED2
 62
     0
100
AcDbLine
 10
1697.989710971
 20
960.8212762409
 11
1693.989739783
 21
964.821247429
  0
LINE
  5
195
100
AcDbEntity
  8
固定アングル
  6
DASHED2
 62
     0
100
AcDbLine
 10
1700.683787807
 20
960.8212762409
 11
1696.683816619
 21
964.821247429
  0
LINE
  5
196
100
AcDbEntity
  8
固定アングル
  6
DASHED2
 62
     0
100
AcDbLine
 10
1703.377864644
 20
960.8212762409
 11
1699.377893455
 21
964.821247429
  0
LINE
  5
197
100
AcDbEntity
  8
固定アングル
  6
DASHED2
 62
     0
100
AcDbLine
 10
1705.687209349
 20
961.2060083715
 11
1702.071970292
 21
964.821247429
  0
LINE
  5
198
100
AcDbEntity
  8
固定アングル
  6
DASHED2
 62
     0
100
AcDbLine
 10
1705.687209349
 20
963.9000852078
 11
1704.766047128
 21
964.821247429
  0
LINE
  5
199
100
AcDbEntity
  8
固定アングル
  6
CONTINUOUS
 62
     0
100
AcDbLine
 10
1720.937209349
 20
960.821272429
 11
1670.937209349
 21
960.821272429
  0
LINE
  5
19A
100
AcDbEntity
  8
固定アングル
  6
CONTINUOUS
 62
     0
100
AcDbLine
 10
1720.937209349
 20
964.821242429
 11
1674.937209349
 21
964.821242429
  0
LINE
  5
19B
100
AcDbEntity
  8
固定アングル
  6
DASHED
 62
     0
100
AcDbLine
 10
1693.687209349
 20
960.8212762409
 11
1693.687209349
 21
964.821237429
  0
LINE
  5
19C
100
AcDbEntity
  8
固定アングル
  6
DASHED
 62
     0
100
AcDbLine
 10
1705.687209349
 20
960.8212723706
 11
1705.687209349
 21
964.821247429
  0
LINE
  5
19D
100
AcDbEntity
  8
固定アングル
  6
CONTINUOUS
 62
     0
100
AcDbLine
 10
1720.937209349
 20
960.821272429
 11
1720.937209349
 21
964.821242429
  0
LINE
  5
19E
100
AcDbEntity
  8
固定アングル
  6
DASHED
 62
     0
100
AcDbLine
 10
1670.937223349
 20
996.821287429
 11
1674.937223349
 21
996.821287429
  0
LINE
  5
19F
100
AcDbEntity
  8
固定アングル
  6
DASHED
 62
     0
100
AcDbLine
 10
1670.937223349
 20
984.821287429
 11
1674.937223349
 21
984.821287429
  0
LINE
  5
1A0
100
AcDbEntity
  8
固定アングル
  6
DASHED
 62
     0
100
AcDbLine
 10
1673.603875084
 20
996.821287429
 11
1673.603875084
 21
984.821287429
  0
LINE
  5
1A1
100
AcDbEntity
  8
固定アングル
  6
DASHED
 62
     0
100
AcDbLine
 10
1673.603875084
 20
996.821287429
 11
1673.603878372
 21
984.821287429
  0
LINE
  5
1A2
100
AcDbEntity
  8
固定アングル
  6
DASHED
 62
     0
100
AcDbLine
 10
1672.270532483
 20
996.821287429
 11
1672.270532483
 21
984.821287429
  0
LINE
  5
1A3
100
AcDbEntity
  8
固定アングル
  6
CONTINUOUS
 62
     0
100
AcDbLine
 10
1674.937209349
 20
1010.821272429
 11
1670.937209349
 21
1010.821272429
  0
ENDBLK
  5
1A4
100
AcDbEntity
 67
     1
  8
固定アングル
100
AcDbBlockEnd
  0
BLOCK
  5
1A5
100
AcDbEntity
  8
固定アングル
100
AcDbBlockBegin
  2
BK3
 70
    64
 10
0
 20
0
  3
BK3
  1

  0
LINE
  5
1A6
100
AcDbEntity
  8
固定アングル
  6
CONTINUOUS
 62
     0
100
AcDbLine
 10
1506.937227568
 20
796.8212642098
 11
1460.937199349
 21
796.821251607
  0
LINE
  5
1A7
100
AcDbEntity
  8
固定アングル
  6
CONTINUOUS
 62
     0
100
AcDbLine
 10
1510.937229349
 20
800.821262429
 11
1460.937199349
 21
800.821252429
  0
LINE
  5
1A8
100
AcDbEntity
  8
固定アングル
  6
CONTINUOUS
 62
     0
100
AcDbLine
 10
1460.937199349
 20
796.821251607
 11
1460.937199349
 21
800.821232429
  0
LINE
  5
1A9
100
AcDbEntity
  8
固定アングル
  6
DASHED
 62
     0
100
AcDbLine
 10
1486.937229332
 20
800.821242429
 11
1486.937229332
 21
796.821242429
  0
LINE
  5
1AA
100
AcDbEntity
  8
固定アングル
  6
DASHED
 62
     0
100
AcDbLine
 10
1474.937229332
 20
800.821242429
 11
1474.937229332
 21
796.821242429
  0
LINE
  5
1AB
100
AcDbEntity
  8
固定アングル
  6
DASHED
 62
     0
100
AcDbLine
 10
1486.937229332
 20
798.1545906938
 11
1474.937229332
 21
798.1545906938
  0
LINE
  5
1AC
100
AcDbEntity
  8
固定アングル
  6
DASHED
 62
     0
100
AcDbLine
 10
1486.937229332
 20
798.1545906938
 11
1474.937229332
 21
798.1545874061
  0
LINE
  5
1AD
100
AcDbEntity
  8
固定アングル
  6
DASHED
 62
     0
100
AcDbLine
 10
1486.937229332
 20
799.4879332956
 11
1474.937229332
 21
799.4879332956
  0
LINE
  5
1AE
100
AcDbEntity
  8
固定アングル
  6
CONTINUOUS
 62
     0
100
AcDbLine
 10
1506.937240171
 20
750.821241829
 11
1506.937227568
 21
796.8212642098
  0
LINE
  5
1AF
100
AcDbEntity
  8
固定アングル
  6
DASHED2
 62
     0
100
AcDbLine
 10
1510.93720052
 20
767.6157954717
 11
1509.392647477
 21
766.071242429
  0
LINE
  5
1B0
100
AcDbEntity
  8
固定アングル
  6
DASHED2
 62
     0
100
AcDbLine
 10
1510.93720052
 20
770.309872308
 11
1506.937229332
 21
766.3099011199
  0
LINE
  5
1B1
100
AcDbEntity
  8
固定アングル
  6
DASHED2
 62
     0
100
AcDbLine
 10
1510.93720052
 20
773.0039491443
 11
1506.937229332
 21
769.0039779562
  0
LINE
  5
1B2
100
AcDbEntity
  8
固定アングル
  6
DASHED2
 62
     0
100
AcDbLine
 10
1510.93720052
 20
775.6980259806
 11
1506.937229332
 21
771.6980547925
  0
LINE
  5
1B3
100
AcDbEntity
  8
固定アングル
  6
DASHED2
 62
     0
100
AcDbLine
 10
1510.616340132
 20
778.071242429
 11
1506.937229332
 21
774.3921316288
  0
LINE
  5
1B4
100
AcDbEntity
  8
固定アングル
  6
DASHED2
 62
     0
100
AcDbLine
 10
1507.922263296
 20
778.071242429
 11
1506.937229332
 21
777.0862084652
  0
LINE
  5
1B5
100
AcDbEntity
  8
固定アングル
  6
CONTINUOUS
 62
     0
100
AcDbLine
 10
1510.937195619
 20
750.821242629
 11
1510.937211745
 21
800.8212681013
  0
LINE
  5
1B6
100
AcDbEntity
  8
固定アングル
  6
DASHED
 62
     0
100
AcDbLine
 10
1510.93720052
 20
766.071242429
 11
1506.937239332
 21
766.071242429
  0
LINE
  5
1B7
100
AcDbEntity
  8
固定アングル
  6
CONTINUOUS
 62
     0
100
AcDbLine
 10
1510.937195619
 20
750.821242629
 11
1506.937240171
 21
750.821241829
  0
LINE
  5
1B8
100
AcDbEntity
  8
固定アングル
  6
DASHED
 62
     0
100
AcDbLine
 10
1510.93720439
 20
778.071242429
 11
1506.937229332
 21
778.071242429
  0
ENDBLK
  5
1B9
100
AcDbEntity
 67
     1
  8
固定アングル
100
AcDbBlockEnd
  0
BLOCK
  5
1BA
100
AcDbEntity
  8
固定アングル
100
AcDbBlockBegin
  2
BK4
 70
    64
 10
0
 20
0
  3
BK4
  1

  0
LINE
  5
1BB
100
AcDbEntity
  8
固定アングル
  6
DASHED
 62
     0
100
AcDbLine
 10
950.42
 20
1037.109123072
 11
950.42
 21
987.1091230715
  0
LINE
  5
1BC
100
AcDbEntity
  8
固定アングル
  6
CONTINUOUS
 62
     0
100
AcDbLine
 10
1000.42
 20
1037.109123072
 11
1000.42
 21
987.1091230715
  0
LINE
  5
1BD
100
AcDbEntity
  8
固定アングル
  6
DASHED
 62
     0
100
AcDbLine
 10
996.42
 20
1037.109123072
 11
996.42
 21
987.1091230715
  0
LINE
  5
1BE
100
AcDbEntity
  8
固定アングル
  6
CONTINUOUS
 62
     0
100
AcDbLine
 10
990.42
 20
987.1091230715
 11
1000.42
 21
987.1091230715
  0
LINE
  5
1BF
100
AcDbEntity
  8
固定アングル
  6
DASHED
 62
     0
100
AcDbLine
 10
950.42
 20
987.1091230715
 11
990.42
 21
987.1091230715
  0
LINE
  5
1C0
100
AcDbEntity
  8
固定アングル
  6
CONTINUOUS
 62
     0
100
AcDbLine
 10
961.42
 20
1018.109123072
 11
961.8673
 21
1018.109123072
  0
LINE
  5
1C1
100
AcDbEntity
  8
固定アングル
  6
CONTINUOUS
 62
     0
100
AcDbLine
 10
961.42
 20
1006.109123072
 11
961.81999
 21
1006.109123072
  0
ARC
  5
1C2
100
AcDbEntity
  8
固定アングル
  6
CONTINUOUS
 62
     0
100
AcDbCircle
 10
961.42
 20
1012.109123072
 40
6
100
AcDbArc
 50
89.99996
 51
270
  0
LINE
  5
1C3
100
AcDbEntity
  8
固定アングル
  6
CONTINUOUS
 62
     0
100
AcDbLine
 10
978.98888
 20
1018.109123072
 11
979.42
 21
1018.109123072
  0
LINE
  5
1C4
100
AcDbEntity
  8
固定アングル
  6
CONTINUOUS
 62
     0
100
AcDbLine
 10
979.0368439698
 20
1006.109123072
 11
979.42
 21
1006.109123072
  0
ARC
  5
1C5
100
AcDbEntity
  8
固定アングル
  6
CONTINUOUS
 62
     0
100
AcDbCircle
 10
979.42
 20
1012.109123072
 40
6
100
AcDbArc
 50
-90
 51
90.00002
  0
LINE
  5
1C6
100
AcDbEntity
  8
固定アングル
  6
DASHED
 62
     0
100
AcDbLine
 10
1000.420001935
 20
1018.109123072
 11
996.4200268767
 21
1018.109123072
  0
LINE
  5
1C7
100
AcDbEntity
  8
固定アングル
  6
DASHED
 62
     0
100
AcDbLine
 10
1000.419998065
 20
1006.109123072
 11
996.4200368767
 21
1006.109123072
  0
LINE
  5
1C8
100
AcDbEntity
  8
固定アングル
  6
DASHED2
 62
     0
100
AcDbLine
 10
1000.419998065
 20
1006.846292472
 11
999.6828286639
 21
1006.109123072
  0
LINE
  5
1C9
100
AcDbEntity
  8
固定アングル
  6
DASHED2
 62
     0
100
AcDbLine
 10
1000.419998065
 20
1009.540369309
 11
996.9887518276
 21
1006.109123072
  0
LINE
  5
1CA
100
AcDbEntity
  8
固定アングル
  6
DASHED2
 62
     0
100
AcDbLine
 10
1000.419998065
 20
1012.234446145
 11
996.4200268767
 21
1008.234474957
  0
LINE
  5
1CB
100
AcDbEntity
  8
固定アングル
  6
DASHED2
 62
     0
100
AcDbLine
 10
1000.419998065
 20
1014.928522981
 11
996.4200268767
 21
1010.928551793
  0
LINE
  5
1CC
100
AcDbEntity
  8
固定アングル
  6
DASHED2
 62
     0
100
AcDbLine
 10
1000.419998065
 20
1017.622599818
 11
996.4200268767
 21
1013.62262863
  0
LINE
  5
1CD
100
AcDbEntity
  8
固定アングル
  6
DASHED2
 62
     0
100
AcDbLine
 10
998.2124444823
 20
1018.109123072
 11
996.4200268767
 21
1016.316705466
  0
LINE
  5
1CE
100
AcDbEntity
  8
固定アングル
  6
CONTINUOUS
 62
     0
100
AcDbLine
 10
990.42
 20
1037.109123072
 11
1000.42
 21
1037.109123072
  0
LINE
  5
1CF
100
AcDbEntity
  8
固定アングル
  6
DASHED
 62
     0
100
AcDbLine
 10
950.42
 20
1037.109123072
 11
990.42
 21
1037.109123072
  0
ENDBLK
  5
1D0
100
AcDbEntity
 67
     1
  8
固定アングル
100
AcDbBlockEnd
  0
BLOCK
  5
1D1
100
AcDbEntity
  8
固定アングル
100
AcDbBlockBegin
  2
BK5
 70
    64
 10
0
 20
0
  3
BK5
  1

  0
LINE
  5
1D2
100
AcDbEntity
  8
固定アングル
  6
DASHED
 62
     0
100
AcDbLine
 10
950.42
 20
837.1091210715
 11
950.42
 21
787.1091210715
  0
LINE
  5
1D3
100
AcDbEntity
  8
固定アングル
  6
CONTINUOUS
 62
     0
100
AcDbLine
 10
1000.42
 20
837.1091210715
 11
1000.42
 21
787.1091210715
  0
LINE
  5
1D4
100
AcDbEntity
  8
固定アングル
  6
DASHED
 62
     0
100
AcDbLine
 10
996.42
 20
837.1091210715
 11
996.42
 21
787.1091210715
  0
LINE
  5
1D5
100
AcDbEntity
  8
固定アングル
  6
CONTINUOUS
 62
     0
100
AcDbLine
 10
990.42
 20
787.1091210715
 11
1000.42
 21
787.1091210715
  0
LINE
  5
1D6
100
AcDbEntity
  8
固定アングル
  6
DASHED
 62
     0
100
AcDbLine
 10
950.42
 20
787.1091210715
 11
990.42
 21
787.1091210715
  0
LINE
  5
1D7
100
AcDbEntity
  8
固定アングル
  6
CONTINUOUS
 62
     0
100
AcDbLine
 10
990.42
 20
837.1091210715
 11
1000.42
 21
837.1091210715
  0
LINE
  5
1D8
100
AcDbEntity
  8
固定アングル
  6
DASHED
 62
     0
100
AcDbLine
 10
950.42
 20
837.1091210715
 11
990.42
 21
837.1091210715
  0
LINE
  5
1D9
100
AcDbEntity
  8
固定アングル
  6
CONTINUOUS
 62
     0
100
AcDbLine
 10
961.42
 20
818.1091210715
 11
961.8673
 21
818.1091210715
  0
LINE
  5
1DA
100
AcDbEntity
  8
固定アングル
  6
CONTINUOUS
 62
     0
100
AcDbLine
 10
961.42
 20
806.1091210715
 11
961.81999
 21
806.1091210715
  0
ARC
  5
1DB
100
AcDbEntity
  8
固定アングル
  6
CONTINUOUS
 62
     0
100
AcDbCircle
 10
961.42
 20
812.1091210715
 40
6
100
AcDbArc
 50
89.99996
 51
270
  0
LINE
  5
1DC
100
AcDbEntity
  8
固定アングル
  6
CONTINUOUS
 62
     0
100
AcDbLine
 10
978.98888
 20
818.1091210715
 11
979.42
 21
818.1091210715
  0
LINE
  5
1DD
100
AcDbEntity
  8
固定アングル
  6
CONTINUOUS
 62
     0
100
AcDbLine
 10
979.0368439698
 20
806.1091210715
 11
979.42
 21
806.1091210715
  0
ARC
  5
1DE
100
AcDbEntity
  8
固定アングル
  6
CONTINUOUS
 62
     0
100
AcDbCircle
 10
979.42
 20
812.1091210715
 40
6
100
AcDbArc
 50
-90
 51
90.00002
  0
LINE
  5
1DF
100
AcDbEntity
  8
固定アングル
  6
DASHED
 62
     0
100
AcDbLine
 10
1000.420001935
 20
818.1091210715
 11
996.4200268767
 21
818.1091210715
  0
LINE
  5
1E0
100
AcDbEntity
  8
固定アングル
  6
DASHED
 62
     0
100
AcDbLine
 10
1000.419998065
 20
806.1091210715
 11
996.4200368767
 21
806.1091210715
  0
LINE
  5
1E1
100
AcDbEntity
  8
固定アングル
  6
DASHED2
 62
     0
100
AcDbLine
 10
1000.419998065
 20
807.4846065848
 11
999.0445125516
 21
806.1091210715
  0
LINE
  5
1E2
100
AcDbEntity
  8
固定アングル
  6
DASHED2
 62
     0
100
AcDbLine
 10
1000.419998065
 20
810.1786834211
 11
996.4200268767
 21
806.178712233
  0
LINE
  5
1E3
100
AcDbEntity
  8
固定アングル
  6
DASHED2
 62
     0
100
AcDbLine
 10
1000.419998065
 20
812.8727602574
 11
996.4200268767
 21
808.8727890693
  0
LINE
  5
1E4
100
AcDbEntity
  8
固定アングル
  6
DASHED2
 62
     0
100
AcDbLine
 10
1000.419998065
 20
815.5668370937
 11
996.4200268767
 21
811.5668659056
  0
LINE
  5
1E5
100
AcDbEntity
  8
固定アングル
  6
DASHED2
 62
     0
100
AcDbLine
 10
1000.268205206
 20
818.1091210715
 11
996.4200268767
 21
814.2609427419
  0
LINE
  5
1E6
100
AcDbEntity
  8
固定アングル
  6
DASHED2
 62
     0
100
AcDbLine
 10
997.57412837
 20
818.1091210715
 11
996.4200268767
 21
816.9550195783
  0
ENDBLK
  5
1E7
100
AcDbEntity
 67
     1
  8
固定アングル
100
AcDbBlockEnd
  0
BLOCK
  5
1E8
100
AcDbEntity
  8
パネル
100
AcDbBlockBegin
  2
BK6
 70
    64
 10
0
 20
0
  3
BK6
  1

  0
ARC
  5
1E9
100
AcDbEntity
  8
パネル
  6
CONTINUOUS
 62
     0
100
AcDbCircle
 10
902.0876213863
 20
1035.730253722
 40
0.4501795172693
100
AcDbArc
 50
142.0000483044
 51
321.9999576907
  0
ARC
  5
1EA
100
AcDbEntity
  8
パネル
  6
CONTINUOUS
 62
     0
100
AcDbCircle
 10
903.1649085214
 20
1037.109123072
 40
3.224998855591
100
AcDbArc
 50
-158.4938133414
 51
-42.60723791439
  0
ARC
  5
1EB
100
AcDbEntity
  8
パネル
  6
CONTINUOUS
 62
     0
100
AcDbCircle
 10
892.9200050534
 20
1029.609121711
 40
11
100
AcDbArc
 50
157.000003309
 51
337.000003309
  0
LINE
  5
1EC
100
AcDbEntity
  8
パネル
  6
CONTINUOUS
 62
     0
100
AcDbLine
 10
912.0300262953
 20
1102.781872842
 11
882.7944514172
 21
1033.907163539
  0
ARC
  5
1ED
100
AcDbEntity
  8
パネル
  6
CONTINUOUS
 62
     0
100
AcDbCircle
 10
903.1649085214
 20
1037.109123072
 40
3.224998855591
100
AcDbArc
 50
-3.392762085651
 51
112.4938133415
  0
LINE
  5
1EE
100
AcDbEntity
  8
パネル
  6
CONTINUOUS
 62
     0
100
AcDbLine
 10
901.959690268
 20
1038.708516621
 11
901.5666137227
 21
1039.230145977
  0
LINE
  5
1EF
100
AcDbEntity
  8
パネル
  6
CONTINUOUS
 62
     0
100
AcDbLine
 10
910.6492689813
 20
1103.367969455
 11
881.4136941032
 21
1034.493260152
  0
ARC
  5
1F0
100
AcDbEntity
  8
パネル
  6
CONTINUOUS
 62
     0
100
AcDbCircle
 10
892.9200050534
 20
1029.609121711
 40
12.5
100
AcDbArc
 50
157.000003309
 51
337.000003309
  0
LINE
  5
1F1
100
AcDbEntity
  8
パネル
  6
CONTINUOUS
 62
     0
100
AcDbLine
 10
901.7330234539
 20
1036.007312805
 11
901.7328748519
 21
1036.007411608
  0
LINE
  5
1F2
100
AcDbEntity
  8
パネル
  6
CONTINUOUS
 62
     0
100
AcDbLine
 10
901.785062217
 20
1036.073919129
 11
901.7330234539
 21
1036.007312805
  0
ARC
  5
1F3
100
AcDbEntity
  8
パネル
  6
CONTINUOUS
 62
     0
100
AcDbCircle
 10
903.1649085214
 20
1037.109123072
 40
1.724999427795
100
AcDbArc
 50
-164.3808204479
 51
-143.1216202113
  0
ARC
  5
1F4
100
AcDbEntity
  8
パネル
  6
CONTINUOUS
 62
     0
100
AcDbCircle
 10
901.2137598935
 20
1036.567301755
 40
0.2999999523163
100
AcDbArc
 50
14.94720239077
 51
96.99992069403
  0
LINE
  5
1F5
100
AcDbEntity
  8
パネル
  6
CONTINUOUS
 62
     0
100
AcDbLine
 10
901.1771958001
 20
1036.8650825
 11
901.1771995085
 21
1036.865065603
  0
LINE
  5
1F6
100
AcDbEntity
  8
パネル
  6
CONTINUOUS
 62
     0
100
AcDbLine
 10
900.5289162178
 20
1036.785483855
 11
901.1771958001
 21
1036.8650825
  0
LINE
  5
1F7
100
AcDbEntity
  8
パネル
  6
CONTINUOUS
 62
     0
100
AcDbLine
 10
900.1644405728
 20
1035.926833045
 11
900.5289162178
 21
1036.785483855
  0
LINE
  5
1F8
100
AcDbEntity
  8
パネル
  6
CONTINUOUS
 62
     0
100
AcDbLine
 10
901.5666137227
 20
1039.230145977
 11
901.9310766175
 21
1040.08876675
  0
LINE
  5
1F9
100
AcDbEntity
  8
パネル
  6
CONTINUOUS
 62
     0
100
AcDbLine
 10
907.6002286685
 20
1036.04121165
 11
929.9633245441
 21
1088.725372436
  0
LINE
  5
1FA
100
AcDbEntity
  8
パネル
  6
CONTINUOUS
 62
     0
100
AcDbLine
 10
904.4263160036
 20
1024.724983269
 11
931.3115213594
 21
1088.062568082
  0
LINE
  5
1FB
100
AcDbEntity
  8
パネル
  6
CONTINUOUS
 62
     0
100
AcDbLine
 10
902.4422328248
 20
1035.453217914
 11
902.4942718937
 21
1035.519824629
  0
LINE
  5
1FC
100
AcDbEntity
  8
パネル
  6
CONTINUOUS
 62
     0
100
AcDbLine
 10
902.4423674823
 20
1035.453095274
 11
902.4422328248
 21
1035.453217914
  0
ARC
  5
1FD
100
AcDbEntity
  8
パネル
  6
CONTINUOUS
 62
     0
100
AcDbCircle
 10
905.9065507945
 20
1034.5874145
 40
0.4999999999998
100
AcDbArc
 50
67.0000000002
 51
137.3927620857
  0
LINE
  5
1FE
100
AcDbEntity
  8
パネル
  6
CONTINUOUS
 62
     0
100
AcDbLine
 10
907.0141320555
 20
1034.660454336
 11
906.1019163587
 21
1035.047666927
  0
LINE
  5
1FF
100
AcDbEntity
  8
パネル
  6
CONTINUOUS
 62
     0
100
AcDbLine
 10
903.0455586896
 20
1025.311079882
 11
907.0141320555
 21
1034.660454336
  0
LINE
  5
200
100
AcDbEntity
  8
パネル
  6
CONTINUOUS
 62
     0
100
AcDbLine
 10
906.6880130515
 20
1036.428424207
 11
907.6002286685
 21
1036.04121165
  0
ARC
  5
201
100
AcDbEntity
  8
パネル
  6
CONTINUOUS
 62
     0
100
AcDbCircle
 10
906.8833786157
 20
1036.888676633
 40
0.4999999999999
100
AcDbArc
 50
176.6072379145
 51
247.0000000002
  0
LINE
  5
202
100
AcDbEntity
  8
パネル
  6
CONTINUOUS
 62
     0
100
AcDbLine
 10
901.9596960358
 20
1038.708511877
 11
901.959690268
 21
1038.708516621
  0
ARC
  5
203
100
AcDbEntity
  8
パネル
  6
CONTINUOUS
 62
     0
100
AcDbCircle
 10
902.1992863951
 20
1038.889056695
 40
0.2999999523159
100
AcDbArc
 50
-142.9999188727
 51
-61.90791555361
  0
ARC
  5
204
100
AcDbEntity
  8
パネル
  6
CONTINUOUS
 62
     0
100
AcDbCircle
 10
903.1649085214
 20
1037.109123072
 40
1.724999427795
100
AcDbArc
 50
97.12111980912
 51
118.5475023861
  0
LINE
  5
205
100
AcDbEntity
  8
パネル
  6
CONTINUOUS
 62
     0
100
AcDbLine
 10
902.9628587001
 20
1038.904731693
 11
902.9510650826
 21
1038.820816388
  0
LINE
  5
206
100
AcDbEntity
  8
パネル
  6
CONTINUOUS
 62
     0
100
AcDbLine
 10
902.9626685587
 20
1038.904740706
 11
902.9628587001
 21
1038.904731693
  0
ARC
  5
207
100
AcDbEntity
  8
パネル
  6
CONTINUOUS
 62
     0
100
AcDbCircle
 10
903.4084670061
 20
1038.842088156
 40
0.4501795172693
100
AcDbArc
 50
-7.999867077344
 51
172.0000423092
  0
LINE
  5
208
100
AcDbEntity
  8
パネル
  6
CONTINUOUS
 62
     0
100
AcDbLine
 10
903.8540938613
 20
1038.779476114
 11
903.8542655526
 21
1038.77943631
  0
LINE
  5
209
100
AcDbEntity
  8
パネル
  6
CONTINUOUS
 62
     0
100
AcDbLine
 10
903.8422998287
 20
1038.6955543
 11
903.8540938613
 21
1038.779476114
  0
ARC
  5
20A
100
AcDbEntity
  8
パネル
  6
CONTINUOUS
 62
     0
100
AcDbCircle
 10
903.1649085214
 20
1037.109123072
 40
1.724999427795
100
AcDbArc
 50
37.12167789256
 51
66.87797075684
  0
LINE
  5
20B
100
AcDbEntity
  8
パネル
  6
CONTINUOUS
 62
     0
100
AcDbLine
 10
904.6188956529
 20
1038.181912508
 11
904.5403465574
 21
1038.150176978
  0
LINE
  5
20C
100
AcDbEntity
  8
パネル
  6
CONTINUOUS
 62
     0
100
AcDbLine
 10
904.618845214
 20
1038.182085876
 11
904.6188956529
 21
1038.181912508
  0
ARC
  5
20D
100
AcDbEntity
  8
パネル
  6
CONTINUOUS
 62
     0
100
AcDbCircle
 10
904.7874870192
 20
1037.764687338
 40
0.4501795172688
100
AcDbArc
 50
-67.99963652045
 51
112.0002182246
  0
LINE
  5
20E
100
AcDbEntity
  8
パネル
  6
CONTINUOUS
 62
     0
100
AcDbLine
 10
904.9560388498
 20
1037.347452013
 11
904.9561298825
 21
1037.347289228
  0
LINE
  5
20F
100
AcDbEntity
  8
パネル
  6
CONTINUOUS
 62
     0
100
AcDbLine
 10
904.8774919004
 20
1037.31571735
 11
904.9560388498
 21
1037.347452013
  0
ARC
  5
210
100
AcDbEntity
  8
パネル
  6
CONTINUOUS
 62
     0
100
AcDbCircle
 10
903.1649085214
 20
1037.109123072
 40
1.724999427795
100
AcDbArc
 50
-52.87889059453
 51
6.87853096622
  0
LINE
  5
211
100
AcDbEntity
  8
パネル
  6
CONTINUOUS
 62
     0
100
AcDbLine
 10
904.2376780858
 20
1035.655142821
 11
904.2059487803
 21
1035.733674706
  0
LINE
  5
212
100
AcDbEntity
  8
パネル
  6
CONTINUOUS
 62
     0
100
AcDbLine
 10
904.2378777683
 20
1035.655199236
 11
904.2376780858
 21
1035.655142821
  0
ARC
  5
213
100
AcDbEntity
  8
パネル
  6
CONTINUOUS
 62
     0
100
AcDbCircle
 10
903.8204787501
 20
1035.48655862
 40
0.450179517269
100
AcDbArc
 50
-157.9994958185
 51
22.0000549831
  0
LINE
  5
214
100
AcDbEntity
  8
パネル
  6
CONTINUOUS
 62
     0
100
AcDbLine
 10
903.4032430401
 20
1035.318009543
 11
903.403081054
 21
1035.317914731
  0
LINE
  5
215
100
AcDbEntity
  8
パネル
  6
CONTINUOUS
 62
     0
100
AcDbLine
 10
903.371513895
 20
1035.396541031
 11
903.4032430401
 21
1035.318009543
  0
ARC
  5
216
100
AcDbEntity
  8
パネル
  6
CONTINUOUS
 62
     0
100
AcDbCircle
 10
903.1649085214
 20
1037.109123072
 40
1.724999427796
100
AcDbArc
 50
-112.8782968808
 51
-83.12109784581
  0
LINE
  5
217
100
AcDbEntity
  8
パネル
  6
CONTINUOUS
 62
     0
100
AcDbLine
 10
924.020012207
 20
1100.936998788
 11
924.020012207
 21
1101.869803007
  0
LINE
  5
218
100
AcDbEntity
  8
パネル
  6
CONTINUOUS
 62
     0
100
AcDbLine
 10
925.4324544144
 20
1101.182826837
 11
925.4543311844
 21
1101.101182228
  0
ARC
  5
219
100
AcDbEntity
  8
パネル
  6
CONTINUOUS
 62
     0
100
AcDbCircle
 10
926.32
 20
1099.609123072
 40
1.724999427795
100
AcDbArc
 50
60.12109784583
 51
89.87829688085
  0
LINE
  5
21A
100
AcDbEntity
  8
パネル
  6
CONTINUOUS
 62
     0
100
AcDbLine
 10
927.2392318916
 20
1101.164727053
 11
927.1793403624
 21
1101.104836001
  0
ARC
  5
21B
100
AcDbEntity
  8
パネル
  6
CONTINUOUS
 62
     0
100
AcDbCircle
 10
927.5574420166
 20
1100.846549829
 40
0.450179517269
100
AcDbArc
 50
-45.00005498302
 51
134.9994958182
  0
LINE
  5
21C
100
AcDbEntity
  8
パネル
  6
CONTINUOUS
 62
     0
100
AcDbLine
 10
929.42
 20
1091.438828926
 11
929.42
 21
1113.379417217
  0
LINE
  5
21D
100
AcDbEntity
  8
パネル
  6
CONTINUOUS
 62
     0
100
AcDbLine
 10
924.5856550407
 20
1100.610424837
 11
924.020012207
 21
1100.936998788
  0
LINE
  5
21E
100
AcDbEntity
  8
パネル
  6
CONTINUOUS
 62
     0
100
AcDbLine
 10
924.5856650563
 20
1100.610438941
 11
924.5856550407
 21
1100.610424837
  0
ARC
  5
21F
100
AcDbEntity
  8
パネル
  6
CONTINUOUS
 62
     0
100
AcDbCircle
 10
924.7356646729
 20
1100.870246729
 40
0.2999999523164
100
AcDbArc
 50
-119.9999206937
 51
-37.94720245705
  0
ARC
  5
220
100
AcDbEntity
  8
パネル
  6
CONTINUOUS
 62
     0
100
AcDbCircle
 10
926.32
 20
1099.609123072
 40
1.724999427796
100
AcDbArc
 50
120.1216202117
 51
141.3808204598
  0
LINE
  5
221
100
AcDbEntity
  8
パネル
  6
CONTINUOUS
 62
     0
100
AcDbLine
 10
927.8756049347
 20
1100.528354486
 11
927.8757667005
 21
1100.528224534
  0
LINE
  5
222
100
AcDbEntity
  8
パネル
  6
CONTINUOUS
 62
     0
100
AcDbLine
 10
927.8157131029
 20
1100.468463132
 11
927.8756049347
 21
1100.528354486
  0
ARC
  5
223
100
AcDbEntity
  8
パネル
  6
CONTINUOUS
 62
     0
100
AcDbCircle
 10
926.32
 20
1099.609123072
 40
1.724999427796
100
AcDbArc
 50
-29.87853096617
 51
29.87889059453
  0
LINE
  5
224
100
AcDbEntity
  8
パネル
  6
CONTINUOUS
 62
     0
100
AcDbLine
 10
927.875621624
 20
1098.689889749
 11
927.8157184966
 21
1098.749792399
  0
LINE
  5
225
100
AcDbEntity
  8
パネル
  6
CONTINUOUS
 62
     0
100
AcDbLine
 10
927.8757690254
 20
1098.690004025
 11
927.875621624
 21
1098.689889749
  0
ARC
  5
226
100
AcDbEntity
  8
パネル
  6
CONTINUOUS
 62
     0
100
AcDbCircle
 10
927.5574420166
 20
1098.371681055
 40
0.4501795172692
100
AcDbArc
 50
-135.0002182246
 51
44.99963652054
  0
LINE
  5
227
100
AcDbEntity
  8
パネル
  6
CONTINUOUS
 62
     0
100
AcDbLine
 10
927.2392299843
 20
1098.053497156
 11
927.2391158148
 21
1098.053357278
  0
LINE
  5
228
100
AcDbEntity
  8
パネル
  6
CONTINUOUS
 62
     0
100
AcDbLine
 10
927.1793252202
 20
1098.113401442
 11
927.2392299843
 21
1098.053497156
  0
ARC
  5
229
100
AcDbEntity
  8
パネル
  6
CONTINUOUS
 62
     0
100
AcDbCircle
 10
926.32
 20
1099.609123072
 40
1.724999427795
100
AcDbArc
 50
-89.8779707568
 51
-60.12167789252
  0
LINE
  5
22A
100
AcDbEntity
  8
パネル
  6
CONTINUOUS
 62
     0
100
AcDbLine
 10
926.301739521
 20
1097.802268823
 11
926.3236739218
 21
1097.884127556
  0
LINE
  5
22B
100
AcDbEntity
  8
パネル
  6
CONTINUOUS
 62
     0
100
AcDbLine
 10
926.3019131161
 20
1097.802238378
 11
926.301739521
 21
1097.802268823
  0
ARC
  5
22C
100
AcDbEntity
  8
パネル
  6
CONTINUOUS
 62
     0
100
AcDbCircle
 10
925.8670733643
 20
1097.918754419
 40
0.4501795172691
100
AcDbArc
 50
164.9999576907
 51
344.9998670772
  0
LINE
  5
22D
100
AcDbEntity
  8
パネル
  6
CONTINUOUS
 62
     0
100
AcDbLine
 10
925.4324119759
 20
1098.035203775
 11
925.4322334281
 21
1098.035269773
  0
LINE
  5
22E
100
AcDbEntity
  8
パネル
  6
CONTINUOUS
 62
     0
100
AcDbLine
 10
925.4543442155
 20
1098.117056354
 11
925.4324119759
 21
1098.035203775
  0
ARC
  5
22F
100
AcDbEntity
  8
パネル
  6
CONTINUOUS
 62
     0
100
AcDbCircle
 10
926.32
 20
1099.609123072
 40
1.724999427796
100
AcDbArc
 50
-141.5475028581
 51
-120.1211198091
  0
ARC
  5
230
100
AcDbEntity
  8
パネル
  6
CONTINUOUS
 62
     0
100
AcDbCircle
 10
924.735664673
 20
1098.347984156
 40
0.2999999523164
100
AcDbArc
 50
38.90791827039
 51
119.9999188942
  0
LINE
  5
231
100
AcDbEntity
  8
パネル
  6
CONTINUOUS
 62
     0
100
AcDbLine
 10
924.5856579018
 20
1098.607789835
 11
924.5856650646
 21
1098.607791948
  0
LINE
  5
232
100
AcDbEntity
  8
パネル
  6
CONTINUOUS
 62
     0
100
AcDbLine
 10
924.020012207
 20
1098.281214723
 11
924.5856579018
 21
1098.607789835
  0
LINE
  5
233
100
AcDbEntity
  8
パネル
  6
CONTINUOUS
 62
     0
100
AcDbLine
 10
924.020012207
 20
1097.348443136
 11
924.020012207
 21
1098.281214723
  0
ARC
  5
234
100
AcDbEntity
  8
パネル
  6
CONTINUOUS
 62
     0
100
AcDbCircle
 10
926.32
 20
1099.609123072
 40
3.224998855591
100
AcDbArc
 50
-135.4938133413
 51
-72.82450725632
  0
ARC
  5
235
100
AcDbEntity
  8
パネル
  6
CONTINUOUS
 62
     0
100
AcDbCircle
 10
927.41999
 20
1096.050241439
 40
0.5
100
AcDbArc
 50
0
 51
107.1754927438
  0
LINE
  5
236
100
AcDbEntity
  8
パネル
  6
CONTINUOUS
 62
     0
100
AcDbLine
 10
927.91999
 20
1089.723925455
 11
927.91999
 21
1096.050241439
  0
ARC
  5
237
100
AcDbEntity
  8
パネル
  6
CONTINUOUS
 62
     0
100
AcDbCircle
 10
928.41999
 20
1089.723925455
 40
0.5000000000001
100
AcDbArc
 50
180
 51
281.3099324739
  0
LINE
  5
238
100
AcDbEntity
  8
パネル
  6
CONTINUOUS
 62
     0
100
AcDbLine
 10
929.4050140385
 20
1089.411028311
 11
928.5180480676
 21
1089.233635117
  0
ARC
  5
239
100
AcDbEntity
  8
パネル
  6
CONTINUOUS
 62
     0
100
AcDbCircle
 10
929.5030721061
 20
1088.920737973
 40
0.4999999999998
100
AcDbArc
 50
-22.99999669073
 51
101.3099324741
  0
ARC
  5
23A
100
AcDbEntity
  8
パネル
  6
CONTINUOUS
 62
     0
100
AcDbCircle
 10
939.42
 20
1099.109123072
 40
1
100
AcDbArc
 50
0
 51
90
  0
ARC
  5
23B
100
AcDbEntity
  8
パネル
  6
CONTINUOUS
 62
     0
100
AcDbCircle
 10
938.07
 20
1099.459123072
 40
0.65
100
AcDbArc
 50
90
 51
270
  0
LINE
  5
23C
100
AcDbEntity
  8
パネル
  6
CONTINUOUS
 62
     0
100
AcDbLine
 10
938.07
 20
1098.809123072
 11
938.92
 21
1098.809123072
  0
LINE
  5
23D
100
AcDbEntity
  8
パネル
  6
CONTINUOUS
 62
     0
100
AcDbLine
 10
939.42
 20
1100.109123072
 11
938.07
 21
1100.109123072
  0
LINE
  5
23E
100
AcDbEntity
  8
パネル
  6
CONTINUOUS
 62
     0
100
AcDbLine
 10
934.9334650638
 20
1091.011816084
 11
939.6161161351
 21
1091.948346299
  0
ARC
  5
23F
100
AcDbEntity
  8
パネル
  6
CONTINUOUS
 62
     0
100
AcDbCircle
 10
939.42
 20
1092.928926974
 40
1
100
AcDbArc
 50
-78.69006752603
 51
0
  0
ARC
  5
240
100
AcDbEntity
  8
パネル
  6
CONTINUOUS
 62
     0
100
AcDbCircle
 10
935.9140457395
 20
1086.108912706
 40
5
100
AcDbArc
 50
101.309932474
 51
157.000003309
  0
LINE
  5
241
100
AcDbEntity
  8
パネル
  6
CONTINUOUS
 62
     0
100
AcDbLine
 10
938.92
 20
1093.338828926
 11
929.42
 21
1091.438828926
  0
LINE
  5
242
100
AcDbEntity
  8
パネル
  6
CONTINUOUS
 62
     0
100
AcDbLine
 10
940.42
 20
1092.928926974
 11
940.42
 21
1099.109123072
  0
LINE
  5
243
100
AcDbEntity
  8
パネル
  6
CONTINUOUS
 62
     0
100
AcDbLine
 10
938.92
 20
1098.809123072
 11
938.92
 21
1093.338828926
  0
ARC
  5
244
100
AcDbEntity
  8
パネル
  6
CONTINUOUS
 62
     0
100
AcDbCircle
 10
926.7581043116
 20
1096.530175636
 40
16
100
AcDbArc
 50
101.309932474
 51
157.000003309
  0
ARC
  5
245
100
AcDbEntity
  8
パネル
  6
CONTINUOUS
 62
     0
100
AcDbCircle
 10
926.7581043116
 20
1096.530175636
 40
17.5
100
AcDbArc
 50
101.309932474
 51
157.000003309
  0
LINE
  5
246
100
AcDbEntity
  8
パネル
  6
CONTINUOUS
 62
     0
100
AcDbLine
 10
927.91999
 20
1113.079415217
 11
923.6202461494
 21
1112.219466447
  0
LINE
  5
247
100
AcDbEntity
  8
パネル
  6
CONTINUOUS
 62
     0
100
AcDbLine
 10
927.91999
 20
1103.168004704
 11
927.91999
 21
1113.079415217
  0
ARC
  5
248
100
AcDbEntity
  8
パネル
  6
CONTINUOUS
 62
     0
100
AcDbCircle
 10
927.41999
 20
1103.168004704
 40
0.4999999999998
100
AcDbArc
 50
-107.1754927438
 51
0
  0
ARC
  5
249
100
AcDbEntity
  8
パネル
  6
CONTINUOUS
 62
     0
100
AcDbCircle
 10
926.32
 20
1099.609123072
 40
3.224998855591
100
AcDbArc
 50
72.82450725636
 51
135.4938133414
  0
LINE
  5
24A
100
AcDbEntity
  8
パネル
  6
CONTINUOUS
 62
     0
100
AcDbLine
 10
925.4322790202
 20
1101.182793952
 11
925.4324544144
 21
1101.182826837
  0
ARC
  5
24B
100
AcDbEntity
  8
パネル
  6
CONTINUOUS
 62
     0
100
AcDbCircle
 10
925.8671191406
 20
1101.299308618
 40
0.450179517269
100
AcDbArc
 50
15.0000423094
 51
194.9999516951
  0
LINE
  5
24C
100
AcDbEntity
  8
パネル
  6
CONTINUOUS
 62
     0
100
AcDbLine
 10
926.3017872047
 20
1101.415763697
 11
926.3019590768
 21
1101.415823972
  0
LINE
  5
24D
100
AcDbEntity
  8
パネル
  6
CONTINUOUS
 62
     0
100
AcDbLine
 10
926.3236641033
 20
1101.334118608
 11
926.3017872047
 21
1101.415763697
  0
LINE
  5
24E
100
AcDbEntity
  8
パネル
  6
CONTINUOUS
 62
     0
100
AcDbLine
 10
927.2391198283
 20
1101.16487762
 11
927.2392318916
 21
1101.164727053
  0
LINE
  5
24F
100
AcDbEntity
  8
パネル
  6
CONTINUOUS
 62
     0
100
AcDbLine
 10
938.92
 20
1115.279417217
 11
938.92
 21
1110.409123072
  0
LINE
  5
250
100
AcDbEntity
  8
パネル
  6
CONTINUOUS
 62
     0
100
AcDbLine
 10
938.92
 20
1110.409123072
 11
938.07
 21
1110.409123072
  0
ARC
  5
251
100
AcDbEntity
  8
パネル
  6
CONTINUOUS
 62
     0
100
AcDbCircle
 10
939.42
 20
1115.889319169
 40
1
100
AcDbArc
 50
0
 51
101.3099324741
  0
LINE
  5
252
100
AcDbEntity
  8
パネル
  6
CONTINUOUS
 62
     0
100
AcDbLine
 10
940.42
 20
1117.109123072
 11
923.3260719467
 21
1113.690337461
  0
LINE
  5
253
100
AcDbEntity
  8
パネル
  6
CONTINUOUS
 62
     0
100
AcDbLine
 10
929.42
 20
1113.379417217
 11
938.92
 21
1115.279417217
  0
ARC
  5
254
100
AcDbEntity
  8
パネル
  6
CONTINUOUS
 62
     0
100
AcDbCircle
 10
939.42
 20
1110.109123072
 40
1
100
AcDbArc
 50
-90
 51
0
  0
LINE
  5
255
100
AcDbEntity
  8
パネル
  6
CONTINUOUS
 62
     0
100
AcDbLine
 10
938.07
 20
1109.109123072
 11
939.42
 21
1109.109123072
  0
LINE
  5
256
100
AcDbEntity
  8
パネル
  6
CONTINUOUS
 62
     0
100
AcDbLine
 10
940.42
 20
1110.109123072
 11
940.42
 21
1117.109123072
  0
ARC
  5
257
100
AcDbEntity
  8
パネル
  6
CONTINUOUS
 62
     0
100
AcDbCircle
 10
938.07
 20
1109.759123072
 40
0.65
100
AcDbArc
 50
90
 51
270
  0
ENDBLK
  5
258
100
AcDbEntity
 67
     1
  8
パネル
100
AcDbBlockEnd
  0
BLOCK
  5
259
100
AcDbEntity
  8
パネル
100
AcDbBlockBegin
  2
BK7
 70
    64
 10
0
 20
0
  3
BK7
  1

  0
ARC
  5
25A
100
AcDbEntity
  8
パネル
  6
CONTINUOUS
 62
     0
100
AcDbCircle
 10
902.0876213863
 20
860.7302537217
 40
0.4501795172693
100
AcDbArc
 50
142.0000483044
 51
321.9999576907
  0
ARC
  5
25B
100
AcDbEntity
  8
パネル
  6
CONTINUOUS
 62
     0
100
AcDbCircle
 10
903.1649085214
 20
862.1091230715
 40
3.224998855591
100
AcDbArc
 50
-158.4938133415
 51
-42.60723791438
  0
ARC
  5
25C
100
AcDbEntity
  8
パネル
  6
CONTINUOUS
 62
     0
100
AcDbCircle
 10
892.9200050534
 20
854.6091217108
 40
11
100
AcDbArc
 50
157.000003309
 51
337.000003309
  0
LINE
  5
25D
100
AcDbEntity
  8
パネル
  6
CONTINUOUS
 62
     0
100
AcDbLine
 10
912.0300262953
 20
927.7818728415
 11
882.7944514172
 21
858.9071635394
  0
ARC
  5
25E
100
AcDbEntity
  8
パネル
  6
CONTINUOUS
 62
     0
100
AcDbCircle
 10
903.1649085214
 20
862.1091230715
 40
3.224998855591
100
AcDbArc
 50
-3.392762085619
 51
112.4938133415
  0
LINE
  5
25F
100
AcDbEntity
  8
パネル
  6
CONTINUOUS
 62
     0
100
AcDbLine
 10
901.959690268
 20
863.7085166211
 11
901.5666137227
 21
864.2301459773
  0
LINE
  5
260
100
AcDbEntity
  8
パネル
  6
CONTINUOUS
 62
     0
100
AcDbLine
 10
910.6492689813
 20
928.3679694545
 11
881.4136941032
 21
859.4932601523
  0
ARC
  5
261
100
AcDbEntity
  8
パネル
  6
CONTINUOUS
 62
     0
100
AcDbCircle
 10
892.9200050534
 20
854.6091217108
 40
12.5
100
AcDbArc
 50
157.000003309
 51
337.000003309
  0
LINE
  5
262
100
AcDbEntity
  8
パネル
  6
CONTINUOUS
 62
     0
100
AcDbLine
 10
901.7330234539
 20
861.0073128054
 11
901.7328748519
 21
861.0074116083
  0
LINE
  5
263
100
AcDbEntity
  8
パネル
  6
CONTINUOUS
 62
     0
100
AcDbLine
 10
901.785062217
 20
861.0739191293
 11
901.7330234539
 21
861.0073128054
  0
ARC
  5
264
100
AcDbEntity
  8
パネル
  6
CONTINUOUS
 62
     0
100
AcDbCircle
 10
903.1649085214
 20
862.1091230715
 40
1.724999427795
100
AcDbArc
 50
-164.3808204479
 51
-143.1216202113
  0
ARC
  5
265
100
AcDbEntity
  8
パネル
  6
CONTINUOUS
 62
     0
100
AcDbCircle
 10
901.2137598935
 20
861.5673017545
 40
0.2999999523163
100
AcDbArc
 50
14.94720239095
 51
96.99992069403
  0
LINE
  5
266
100
AcDbEntity
  8
パネル
  6
CONTINUOUS
 62
     0
100
AcDbLine
 10
901.1771958001
 20
861.8650824998
 11
901.1771995085
 21
861.8650656033
  0
LINE
  5
267
100
AcDbEntity
  8
パネル
  6
CONTINUOUS
 62
     0
100
AcDbLine
 10
900.5289162178
 20
861.7854838552
 11
901.1771958001
 21
861.8650824998
  0
LINE
  5
268
100
AcDbEntity
  8
パネル
  6
CONTINUOUS
 62
     0
100
AcDbLine
 10
900.1644405728
 20
860.9268330447
 11
900.5289162178
 21
861.7854838552
  0
LINE
  5
269
100
AcDbEntity
  8
パネル
  6
CONTINUOUS
 62
     0
100
AcDbLine
 10
901.5666137227
 20
864.2301459773
 11
901.9310766175
 21
865.0887667501
  0
LINE
  5
26A
100
AcDbEntity
  8
パネル
  6
CONTINUOUS
 62
     0
100
AcDbLine
 10
907.6002286685
 20
861.0412116504
 11
929.9633245441
 21
913.7253724358
  0
LINE
  5
26B
100
AcDbEntity
  8
パネル
  6
CONTINUOUS
 62
     0
100
AcDbLine
 10
904.4263160036
 20
849.7249832692
 11
931.3115213594
 21
913.0625680825
  0
LINE
  5
26C
100
AcDbEntity
  8
パネル
  6
CONTINUOUS
 62
     0
100
AcDbLine
 10
902.4422328248
 20
860.4532179138
 11
902.4942718937
 21
860.519824629
  0
LINE
  5
26D
100
AcDbEntity
  8
パネル
  6
CONTINUOUS
 62
     0
100
AcDbLine
 10
902.4423674823
 20
860.4530952739
 11
902.4422328248
 21
860.4532179138
  0
ARC
  5
26E
100
AcDbEntity
  8
パネル
  6
CONTINUOUS
 62
     0
100
AcDbCircle
 10
905.9065507945
 20
859.5874144998
 40
0.4999999999998
100
AcDbArc
 50
67.00000000024
 51
137.3927620856
  0
LINE
  5
26F
100
AcDbEntity
  8
パネル
  6
CONTINUOUS
 62
     0
100
AcDbLine
 10
907.0141320555
 20
859.6604543363
 11
906.1019163587
 21
860.0476669265
  0
LINE
  5
270
100
AcDbEntity
  8
パネル
  6
CONTINUOUS
 62
     0
100
AcDbLine
 10
903.0455586896
 20
850.3110798822
 11
907.0141320555
 21
859.6604543363
  0
LINE
  5
271
100
AcDbEntity
  8
パネル
  6
CONTINUOUS
 62
     0
100
AcDbLine
 10
906.6880130515
 20
861.4284242067
 11
907.6002286685
 21
861.0412116504
  0
ARC
  5
272
100
AcDbEntity
  8
パネル
  6
CONTINUOUS
 62
     0
100
AcDbCircle
 10
906.8833786157
 20
861.8886766334
 40
0.4999999999999
100
AcDbArc
 50
176.6072379145
 51
247.0000000002
  0
LINE
  5
273
100
AcDbEntity
  8
パネル
  6
CONTINUOUS
 62
     0
100
AcDbLine
 10
901.9596960358
 20
863.7085118774
 11
901.959690268
 21
863.7085166211
  0
ARC
  5
274
100
AcDbEntity
  8
パネル
  6
CONTINUOUS
 62
     0
100
AcDbCircle
 10
902.1992863951
 20
863.8890566949
 40
0.2999999523159
100
AcDbArc
 50
-142.9999188726
 51
-61.90791555361
  0
ARC
  5
275
100
AcDbEntity
  8
パネル
  6
CONTINUOUS
 62
     0
100
AcDbCircle
 10
903.1649085214
 20
862.1091230715
 40
1.724999427795
100
AcDbArc
 50
97.12111980912
 51
118.5475023861
  0
LINE
  5
276
100
AcDbEntity
  8
パネル
  6
CONTINUOUS
 62
     0
100
AcDbLine
 10
902.9628587001
 20
863.904731693
 11
902.9510650826
 21
863.820816388
  0
LINE
  5
277
100
AcDbEntity
  8
パネル
  6
CONTINUOUS
 62
     0
100
AcDbLine
 10
902.9626685587
 20
863.9047407059
 11
902.9628587001
 21
863.904731693
  0
ARC
  5
278
100
AcDbEntity
  8
パネル
  6
CONTINUOUS
 62
     0
100
AcDbCircle
 10
903.4084670061
 20
863.8420881557
 40
0.4501795172693
100
AcDbArc
 50
-7.999867077344
 51
172.0000423092
  0
LINE
  5
279
100
AcDbEntity
  8
パネル
  6
CONTINUOUS
 62
     0
100
AcDbLine
 10
903.8540938613
 20
863.7794761139
 11
903.8542655526
 21
863.7794363105
  0
LINE
  5
27A
100
AcDbEntity
  8
パネル
  6
CONTINUOUS
 62
     0
100
AcDbLine
 10
903.8422998287
 20
863.6955543
 11
903.8540938613
 21
863.7794761139
  0
ARC
  5
27B
100
AcDbEntity
  8
パネル
  6
CONTINUOUS
 62
     0
100
AcDbCircle
 10
903.1649085214
 20
862.1091230715
 40
1.724999427795
100
AcDbArc
 50
37.12167789258
 51
66.87797075684
  0
LINE
  5
27C
100
AcDbEntity
  8
パネル
  6
CONTINUOUS
 62
     0
100
AcDbLine
 10
904.6188956529
 20
863.1819125078
 11
904.5403465574
 21
863.1501769775
  0
LINE
  5
27D
100
AcDbEntity
  8
パネル
  6
CONTINUOUS
 62
     0
100
AcDbLine
 10
904.618845214
 20
863.1820858759
 11
904.6188956529
 21
863.1819125078
  0
ARC
  5
27E
100
AcDbEntity
  8
パネル
  6
CONTINUOUS
 62
     0
100
AcDbCircle
 10
904.7874870192
 20
862.7646873381
 40
0.4501795172688
100
AcDbArc
 50
-67.99963652045
 51
112.0002182246
  0
LINE
  5
27F
100
AcDbEntity
  8
パネル
  6
CONTINUOUS
 62
     0
100
AcDbLine
 10
904.9560388498
 20
862.3474520134
 11
904.9561298825
 21
862.3472892279
  0
LINE
  5
280
100
AcDbEntity
  8
パネル
  6
CONTINUOUS
 62
     0
100
AcDbLine
 10
904.8774919004
 20
862.3157173502
 11
904.9560388498
 21
862.3474520134
  0
ARC
  5
281
100
AcDbEntity
  8
パネル
  6
CONTINUOUS
 62
     0
100
AcDbCircle
 10
903.1649085214
 20
862.1091230715
 40
1.724999427795
100
AcDbArc
 50
-52.87889059453
 51
6.878530966235
  0
LINE
  5
282
100
AcDbEntity
  8
パネル
  6
CONTINUOUS
 62
     0
100
AcDbLine
 10
904.2376780858
 20
860.6551428212
 11
904.2059487803
 21
860.7336747064
  0
LINE
  5
283
100
AcDbEntity
  8
パネル
  6
CONTINUOUS
 62
     0
100
AcDbLine
 10
904.2378777683
 20
860.6551992355
 11
904.2376780858
 21
860.6551428212
  0
ARC
  5
284
100
AcDbEntity
  8
パネル
  6
CONTINUOUS
 62
     0
100
AcDbCircle
 10
903.8204787501
 20
860.4865586196
 40
0.450179517269
100
AcDbArc
 50
-157.9994958185
 51
22.00005498304
  0
LINE
  5
285
100
AcDbEntity
  8
パネル
  6
CONTINUOUS
 62
     0
100
AcDbLine
 10
903.4032430401
 20
860.3180095426
 11
903.403081054
 21
860.3179147313
  0
LINE
  5
286
100
AcDbEntity
  8
パネル
  6
CONTINUOUS
 62
     0
100
AcDbLine
 10
903.371513895
 20
860.396541031
 11
903.4032430401
 21
860.3180095426
  0
ARC
  5
287
100
AcDbEntity
  8
パネル
  6
CONTINUOUS
 62
     0
100
AcDbCircle
 10
903.1649085214
 20
862.1091230715
 40
1.724999427796
100
AcDbArc
 50
-112.8782968808
 51
-83.12109784581
  0
LINE
  5
288
100
AcDbEntity
  8
パネル
  6
CONTINUOUS
 62
     0
100
AcDbLine
 10
924.020012207
 20
925.9369987884
 11
924.020012207
 21
926.869803007
  0
LINE
  5
289
100
AcDbEntity
  8
パネル
  6
CONTINUOUS
 62
     0
100
AcDbLine
 10
925.4324544144
 20
926.1828268374
 11
925.4543311844
 21
926.1011822284
  0
ARC
  5
28A
100
AcDbEntity
  8
パネル
  6
CONTINUOUS
 62
     0
100
AcDbCircle
 10
926.32
 20
924.6091230715
 40
1.724999427795
100
AcDbArc
 50
60.12109784583
 51
89.87829688085
  0
LINE
  5
28B
100
AcDbEntity
  8
パネル
  6
CONTINUOUS
 62
     0
100
AcDbLine
 10
927.2392318916
 20
926.1647270526
 11
927.1793403624
 21
926.104836001
  0
ARC
  5
28C
100
AcDbEntity
  8
パネル
  6
CONTINUOUS
 62
     0
100
AcDbCircle
 10
927.5574420166
 20
925.8465498294
 40
0.450179517269
100
AcDbArc
 50
-45.00005498302
 51
134.9994958182
  0
LINE
  5
28D
100
AcDbEntity
  8
パネル
  6
CONTINUOUS
 62
     0
100
AcDbLine
 10
929.42
 20
916.4388289256
 11
929.42
 21
938.3794172175
  0
LINE
  5
28E
100
AcDbEntity
  8
パネル
  6
CONTINUOUS
 62
     0
100
AcDbLine
 10
924.5856550407
 20
925.610424837
 11
924.020012207
 21
925.9369987884
  0
LINE
  5
28F
100
AcDbEntity
  8
パネル
  6
CONTINUOUS
 62
     0
100
AcDbLine
 10
924.5856650563
 20
925.6104389413
 11
924.5856550407
 21
925.610424837
  0
ARC
  5
290
100
AcDbEntity
  8
パネル
  6
CONTINUOUS
 62
     0
100
AcDbCircle
 10
924.7356646729
 20
925.8702467288
 40
0.2999999523164
100
AcDbArc
 50
-119.9999206937
 51
-37.94720245705
  0
ARC
  5
291
100
AcDbEntity
  8
パネル
  6
CONTINUOUS
 62
     0
100
AcDbCircle
 10
926.32
 20
924.6091230715
 40
1.724999427796
100
AcDbArc
 50
120.1216202117
 51
141.3808204598
  0
LINE
  5
292
100
AcDbEntity
  8
パネル
  6
CONTINUOUS
 62
     0
100
AcDbLine
 10
927.8756049347
 20
925.5283544863
 11
927.8757667005
 21
925.5282245345
  0
LINE
  5
293
100
AcDbEntity
  8
パネル
  6
CONTINUOUS
 62
     0
100
AcDbLine
 10
927.8157131029
 20
925.4684631322
 11
927.8756049347
 21
925.5283544863
  0
ARC
  5
294
100
AcDbEntity
  8
パネル
  6
CONTINUOUS
 62
     0
100
AcDbCircle
 10
926.32
 20
924.6091230715
 40
1.724999427796
100
AcDbArc
 50
-29.87853096616
 51
29.87889059454
  0
LINE
  5
295
100
AcDbEntity
  8
パネル
  6
CONTINUOUS
 62
     0
100
AcDbLine
 10
927.875621624
 20
923.6898897494
 11
927.8157184966
 21
923.749792399
  0
LINE
  5
296
100
AcDbEntity
  8
パネル
  6
CONTINUOUS
 62
     0
100
AcDbLine
 10
927.8757690254
 20
923.6900040249
 11
927.875621624
 21
923.6898897494
  0
ARC
  5
297
100
AcDbEntity
  8
パネル
  6
CONTINUOUS
 62
     0
100
AcDbCircle
 10
927.5574420166
 20
923.3716810549
 40
0.4501795172692
100
AcDbArc
 50
-135.0002182246
 51
44.99963652054
  0
LINE
  5
298
100
AcDbEntity
  8
パネル
  6
CONTINUOUS
 62
     0
100
AcDbLine
 10
927.2392299843
 20
923.053497156
 11
927.2391158148
 21
923.0533572779
  0
LINE
  5
299
100
AcDbEntity
  8
パネル
  6
CONTINUOUS
 62
     0
100
AcDbLine
 10
927.1793252202
 20
923.1134014424
 11
927.2392299843
 21
923.053497156
  0
ARC
  5
29A
100
AcDbEntity
  8
パネル
  6
CONTINUOUS
 62
     0
100
AcDbCircle
 10
926.32
 20
924.6091230715
 40
1.724999427795
100
AcDbArc
 50
-89.8779707568
 51
-60.12167789252
  0
LINE
  5
29B
100
AcDbEntity
  8
パネル
  6
CONTINUOUS
 62
     0
100
AcDbLine
 10
926.301739521
 20
922.8022688235
 11
926.3236739218
 21
922.8841275561
  0
LINE
  5
29C
100
AcDbEntity
  8
パネル
  6
CONTINUOUS
 62
     0
100
AcDbLine
 10
926.3019131161
 20
922.8022383776
 11
926.301739521
 21
922.8022688235
  0
ARC
  5
29D
100
AcDbEntity
  8
パネル
  6
CONTINUOUS
 62
     0
100
AcDbCircle
 10
925.8670733643
 20
922.9187544192
 40
0.4501795172691
100
AcDbArc
 50
164.9999576906
 51
344.9998670772
  0
LINE
  5
29E
100
AcDbEntity
  8
パネル
  6
CONTINUOUS
 62
     0
100
AcDbLine
 10
925.4324119759
 20
923.0352037753
 11
925.4322334281
 21
923.0352697731
  0
LINE
  5
29F
100
AcDbEntity
  8
パネル
  6
CONTINUOUS
 62
     0
100
AcDbLine
 10
925.4543442155
 20
923.1170563543
 11
925.4324119759
 21
923.0352037753
  0
ARC
  5
2A0
100
AcDbEntity
  8
パネル
  6
CONTINUOUS
 62
     0
100
AcDbCircle
 10
926.32
 20
924.6091230715
 40
1.724999427796
100
AcDbArc
 50
-141.5475028581
 51
-120.1211198091
  0
ARC
  5
2A1
100
AcDbEntity
  8
パネル
  6
CONTINUOUS
 62
     0
100
AcDbCircle
 10
924.735664673
 20
923.3479841556
 40
0.2999999523164
100
AcDbArc
 50
38.90791827039
 51
119.9999188942
  0
LINE
  5
2A2
100
AcDbEntity
  8
パネル
  6
CONTINUOUS
 62
     0
100
AcDbLine
 10
924.5856579018
 20
923.6077898348
 11
924.5856650646
 21
923.6077919478
  0
LINE
  5
2A3
100
AcDbEntity
  8
パネル
  6
CONTINUOUS
 62
     0
100
AcDbLine
 10
924.020012207
 20
923.2812147229
 11
924.5856579018
 21
923.6077898348
  0
LINE
  5
2A4
100
AcDbEntity
  8
パネル
  6
CONTINUOUS
 62
     0
100
AcDbLine
 10
924.020012207
 20
922.348443136
 11
924.020012207
 21
923.2812147229
  0
ARC
  5
2A5
100
AcDbEntity
  8
パネル
  6
CONTINUOUS
 62
     0
100
AcDbCircle
 10
926.32
 20
924.6091230715
 40
3.224998855591
100
AcDbArc
 50
-135.4938133413
 51
-72.82450725632
  0
ARC
  5
2A6
100
AcDbEntity
  8
パネル
  6
CONTINUOUS
 62
     0
100
AcDbCircle
 10
927.41999
 20
921.0502414391
 40
0.5
100
AcDbArc
 50
0
 51
107.1754927438
  0
LINE
  5
2A7
100
AcDbEntity
  8
パネル
  6
CONTINUOUS
 62
     0
100
AcDbLine
 10
927.91999
 20
914.7239254549
 11
927.91999
 21
921.0502414391
  0
ARC
  5
2A8
100
AcDbEntity
  8
パネル
  6
CONTINUOUS
 62
     0
100
AcDbCircle
 10
928.41999
 20
914.7239254549
 40
0.5000000000001
100
AcDbArc
 50
180
 51
281.3099324739
  0
LINE
  5
2A9
100
AcDbEntity
  8
パネル
  6
CONTINUOUS
 62
     0
100
AcDbLine
 10
929.4050140385
 20
914.4110283113
 11
928.5180480676
 21
914.2336351171
  0
ARC
  5
2AA
100
AcDbEntity
  8
パネル
  6
CONTINUOUS
 62
     0
100
AcDbCircle
 10
929.5030721061
 20
913.9207379734
 40
0.4999999999998
100
AcDbArc
 50
-22.99999669079
 51
101.3099324741
  0
ARC
  5
2AB
100
AcDbEntity
  8
パネル
  6
CONTINUOUS
 62
     0
100
AcDbCircle
 10
939.42
 20
924.1091230715
 40
1
100
AcDbArc
 50
0
 51
90
  0
ARC
  5
2AC
100
AcDbEntity
  8
パネル
  6
CONTINUOUS
 62
     0
100
AcDbCircle
 10
938.07
 20
924.4591230715
 40
0.65
100
AcDbArc
 50
90
 51
270
  0
LINE
  5
2AD
100
AcDbEntity
  8
パネル
  6
CONTINUOUS
 62
     0
100
AcDbLine
 10
938.07
 20
923.8091230715
 11
938.92
 21
923.8091230715
  0
LINE
  5
2AE
100
AcDbEntity
  8
パネル
  6
CONTINUOUS
 62
     0
100
AcDbLine
 10
939.42
 20
925.1091230715
 11
938.07
 21
925.1091230715
  0
LINE
  5
2AF
100
AcDbEntity
  8
パネル
  6
CONTINUOUS
 62
     0
100
AcDbLine
 10
934.9334650638
 20
916.0118160843
 11
939.6161161351
 21
916.9483462986
  0
ARC
  5
2B0
100
AcDbEntity
  8
パネル
  6
CONTINUOUS
 62
     0
100
AcDbCircle
 10
939.42
 20
917.9289269743
 40
1
100
AcDbArc
 50
-78.69006752603
 51
0
  0
ARC
  5
2B1
100
AcDbEntity
  8
パネル
  6
CONTINUOUS
 62
     0
100
AcDbCircle
 10
935.9140457395
 20
911.1089127058
 40
5
100
AcDbArc
 50
101.309932474
 51
157.000003309
  0
LINE
  5
2B2
100
AcDbEntity
  8
パネル
  6
CONTINUOUS
 62
     0
100
AcDbLine
 10
938.92
 20
918.3388289256
 11
929.42
 21
916.4388289256
  0
LINE
  5
2B3
100
AcDbEntity
  8
パネル
  6
CONTINUOUS
 62
     0
100
AcDbLine
 10
940.42
 20
917.9289269743
 11
940.42
 21
924.1091230715
  0
LINE
  5
2B4
100
AcDbEntity
  8
パネル
  6
CONTINUOUS
 62
     0
100
AcDbLine
 10
938.92
 20
923.8091230715
 11
938.92
 21
918.3388289256
  0
ARC
  5
2B5
100
AcDbEntity
  8
パネル
  6
CONTINUOUS
 62
     0
100
AcDbCircle
 10
926.7581043116
 20
921.5301756363
 40
16
100
AcDbArc
 50
101.309932474
 51
157.000003309
  0
ARC
  5
2B6
100
AcDbEntity
  8
パネル
  6
CONTINUOUS
 62
     0
100
AcDbCircle
 10
926.7581043116
 20
921.5301756363
 40
17.5
100
AcDbArc
 50
101.309932474
 51
157.000003309
  0
LINE
  5
2B7
100
AcDbEntity
  8
パネル
  6
CONTINUOUS
 62
     0
100
AcDbLine
 10
927.91999
 20
938.0794152175
 11
923.6202461494
 21
937.2194664473
  0
LINE
  5
2B8
100
AcDbEntity
  8
パネル
  6
CONTINUOUS
 62
     0
100
AcDbLine
 10
927.91999
 20
928.168004704
 11
927.91999
 21
938.0794152175
  0
ARC
  5
2B9
100
AcDbEntity
  8
パネル
  6
CONTINUOUS
 62
     0
100
AcDbCircle
 10
927.41999
 20
928.168004704
 40
0.4999999999998
100
AcDbArc
 50
-107.1754927438
 51
0
  0
ARC
  5
2BA
100
AcDbEntity
  8
パネル
  6
CONTINUOUS
 62
     0
100
AcDbCircle
 10
926.32
 20
924.6091230715
 40
3.224998855591
100
AcDbArc
 50
72.82450725636
 51
135.4938133414
  0
LINE
  5
2BB
100
AcDbEntity
  8
パネル
  6
CONTINUOUS
 62
     0
100
AcDbLine
 10
925.4322790202
 20
926.1827939522
 11
925.4324544144
 21
926.1828268374
  0
ARC
  5
2BC
100
AcDbEntity
  8
パネル
  6
CONTINUOUS
 62
     0
100
AcDbCircle
 10
925.8671191406
 20
926.2993086184
 40
0.450179517269
100
AcDbArc
 50
15.00004230952
 51
194.9999516949
  0
LINE
  5
2BD
100
AcDbEntity
  8
パネル
  6
CONTINUOUS
 62
     0
100
AcDbLine
 10
926.3017872047
 20
926.4157636965
 11
926.3019590768
 21
926.4158239723
  0
LINE
  5
2BE
100
AcDbEntity
  8
パネル
  6
CONTINUOUS
 62
     0
100
AcDbLine
 10
926.3236641033
 20
926.3341186078
 11
926.3017872047
 21
926.4157636965
  0
LINE
  5
2BF
100
AcDbEntity
  8
パネル
  6
CONTINUOUS
 62
     0
100
AcDbLine
 10
927.2391198283
 20
926.1648776199
 11
927.2392318916
 21
926.1647270526
  0
LINE
  5
2C0
100
AcDbEntity
  8
パネル
  6
CONTINUOUS
 62
     0
100
AcDbLine
 10
938.92
 20
940.2794172175
 11
938.92
 21
935.4091230715
  0
LINE
  5
2C1
100
AcDbEntity
  8
パネル
  6
CONTINUOUS
 62
     0
100
AcDbLine
 10
938.92
 20
935.4091230715
 11
938.07
 21
935.4091230715
  0
ARC
  5
2C2
100
AcDbEntity
  8
パネル
  6
CONTINUOUS
 62
     0
100
AcDbCircle
 10
939.42
 20
940.8893191688
 40
1
100
AcDbArc
 50
0
 51
101.3099324741
  0
LINE
  5
2C3
100
AcDbEntity
  8
パネル
  6
CONTINUOUS
 62
     0
100
AcDbLine
 10
940.42
 20
942.1091230715
 11
923.3260719467
 21
938.6903374609
  0
LINE
  5
2C4
100
AcDbEntity
  8
パネル
  6
CONTINUOUS
 62
     0
100
AcDbLine
 10
929.42
 20
938.3794172175
 11
938.92
 21
940.2794172175
  0
ARC
  5
2C5
100
AcDbEntity
  8
パネル
  6
CONTINUOUS
 62
     0
100
AcDbCircle
 10
939.42
 20
935.1091230715
 40
1
100
AcDbArc
 50
-90
 51
0
  0
LINE
  5
2C6
100
AcDbEntity
  8
パネル
  6
CONTINUOUS
 62
     0
100
AcDbLine
 10
938.07
 20
934.1091230715
 11
939.42
 21
934.1091230715
  0
LINE
  5
2C7
100
AcDbEntity
  8
パネル
  6
CONTINUOUS
 62
     0
100
AcDbLine
 10
940.42
 20
935.1091230715
 11
940.42
 21
942.1091230715
  0
ARC
  5
2C8
100
AcDbEntity
  8
パネル
  6
CONTINUOUS
 62
     0
100
AcDbCircle
 10
938.07
 20
934.7591230715
 40
0.65
100
AcDbArc
 50
90
 51
270
  0
ENDBLK
  5
2C9
100
AcDbEntity
 67
     1
  8
パネル
100
AcDbBlockEnd
  0
BLOCK
  5
2CA
100
AcDbEntity
  8
パネル
100
AcDbBlockBegin
  2
BK8
 70
    64
 10
0
 20
0
  3
BK8
  1

  0
ARC
  5
2CB
100
AcDbEntity
  8
パネル
  6
CONTINUOUS
 62
     0
100
AcDbCircle
 10
902.0876213863
 20
685.7302537217
 40
0.4501795172693
100
AcDbArc
 50
142.0000483044
 51
321.9999576908
  0
ARC
  5
2CC
100
AcDbEntity
  8
パネル
  6
CONTINUOUS
 62
     0
100
AcDbCircle
 10
903.1649085214
 20
687.1091230715
 40
3.224998855591
100
AcDbArc
 50
-158.4938133414
 51
-42.60723791439
  0
ARC
  5
2CD
100
AcDbEntity
  8
パネル
  6
CONTINUOUS
 62
     0
100
AcDbCircle
 10
892.9200050534
 20
679.6091217108
 40
11
100
AcDbArc
 50
157.000003309
 51
337.000003309
  0
LINE
  5
2CE
100
AcDbEntity
  8
パネル
  6
CONTINUOUS
 62
     0
100
AcDbLine
 10
912.0300262953
 20
752.7818728415
 11
882.7944514172
 21
683.9071635394
  0
ARC
  5
2CF
100
AcDbEntity
  8
パネル
  6
CONTINUOUS
 62
     0
100
AcDbCircle
 10
903.1649085214
 20
687.1091230715
 40
3.224998855591
100
AcDbArc
 50
-3.392762085619
 51
112.4938133415
  0
LINE
  5
2D0
100
AcDbEntity
  8
パネル
  6
CONTINUOUS
 62
     0
100
AcDbLine
 10
901.959690268
 20
688.7085166211
 11
901.5666137227
 21
689.2301459773
  0
LINE
  5
2D1
100
AcDbEntity
  8
パネル
  6
CONTINUOUS
 62
     0
100
AcDbLine
 10
910.6492689813
 20
753.3679694545
 11
881.4136941032
 21
684.4932601523
  0
ARC
  5
2D2
100
AcDbEntity
  8
パネル
  6
CONTINUOUS
 62
     0
100
AcDbCircle
 10
892.9200050534
 20
679.6091217108
 40
12.5
100
AcDbArc
 50
157.000003309
 51
337.000003309
  0
LINE
  5
2D3
100
AcDbEntity
  8
パネル
  6
CONTINUOUS
 62
     0
100
AcDbLine
 10
901.7330234539
 20
686.0073128054
 11
901.7328748519
 21
686.0074116083
  0
LINE
  5
2D4
100
AcDbEntity
  8
パネル
  6
CONTINUOUS
 62
     0
100
AcDbLine
 10
901.785062217
 20
686.0739191293
 11
901.7330234539
 21
686.0073128054
  0
ARC
  5
2D5
100
AcDbEntity
  8
パネル
  6
CONTINUOUS
 62
     0
100
AcDbCircle
 10
903.1649085214
 20
687.1091230715
 40
1.724999427795
100
AcDbArc
 50
-164.3808204479
 51
-143.1216202113
  0
ARC
  5
2D6
100
AcDbEntity
  8
パネル
  6
CONTINUOUS
 62
     0
100
AcDbCircle
 10
901.2137598935
 20
686.5673017545
 40
0.2999999523163
100
AcDbArc
 50
14.94720239077
 51
96.99992069403
  0
LINE
  5
2D7
100
AcDbEntity
  8
パネル
  6
CONTINUOUS
 62
     0
100
AcDbLine
 10
901.1771958001
 20
686.8650824998
 11
901.1771995085
 21
686.8650656033
  0
LINE
  5
2D8
100
AcDbEntity
  8
パネル
  6
CONTINUOUS
 62
     0
100
AcDbLine
 10
900.5289162178
 20
686.7854838552
 11
901.1771958001
 21
686.8650824998
  0
LINE
  5
2D9
100
AcDbEntity
  8
パネル
  6
CONTINUOUS
 62
     0
100
AcDbLine
 10
900.1644405728
 20
685.9268330447
 11
900.5289162178
 21
686.7854838552
  0
LINE
  5
2DA
100
AcDbEntity
  8
パネル
  6
CONTINUOUS
 62
     0
100
AcDbLine
 10
901.5666137227
 20
689.2301459773
 11
901.9310766175
 21
690.0887667501
  0
LINE
  5
2DB
100
AcDbEntity
  8
パネル
  6
CONTINUOUS
 62
     0
100
AcDbLine
 10
907.6002286685
 20
686.0412116504
 11
929.9633245441
 21
738.7253724358
  0
LINE
  5
2DC
100
AcDbEntity
  8
パネル
  6
CONTINUOUS
 62
     0
100
AcDbLine
 10
904.4263160036
 20
674.7249832692
 11
931.3115213594
 21
738.0625680825
  0
LINE
  5
2DD
100
AcDbEntity
  8
パネル
  6
CONTINUOUS
 62
     0
100
AcDbLine
 10
902.4422328248
 20
685.4532179138
 11
902.4942718937
 21
685.519824629
  0
LINE
  5
2DE
100
AcDbEntity
  8
パネル
  6
CONTINUOUS
 62
     0
100
AcDbLine
 10
902.4423674823
 20
685.4530952739
 11
902.4422328248
 21
685.4532179138
  0
ARC
  5
2DF
100
AcDbEntity
  8
パネル
  6
CONTINUOUS
 62
     0
100
AcDbCircle
 10
905.9065507945
 20
684.5874144998
 40
0.4999999999998
100
AcDbArc
 50
67.0000000002
 51
137.3927620857
  0
LINE
  5
2E0
100
AcDbEntity
  8
パネル
  6
CONTINUOUS
 62
     0
100
AcDbLine
 10
907.0141320555
 20
684.6604543363
 11
906.1019163587
 21
685.0476669265
  0
LINE
  5
2E1
100
AcDbEntity
  8
パネル
  6
CONTINUOUS
 62
     0
100
AcDbLine
 10
903.0455586896
 20
675.3110798822
 11
907.0141320555
 21
684.6604543363
  0
LINE
  5
2E2
100
AcDbEntity
  8
パネル
  6
CONTINUOUS
 62
     0
100
AcDbLine
 10
906.6880130515
 20
686.4284242067
 11
907.6002286685
 21
686.0412116504
  0
ARC
  5
2E3
100
AcDbEntity
  8
パネル
  6
CONTINUOUS
 62
     0
100
AcDbCircle
 10
906.8833786157
 20
686.8886766334
 40
0.4999999999999
100
AcDbArc
 50
176.6072379143
 51
247.0000000002
  0
LINE
  5
2E4
100
AcDbEntity
  8
パネル
  6
CONTINUOUS
 62
     0
100
AcDbLine
 10
901.9596960358
 20
688.7085118774
 11
901.959690268
 21
688.7085166211
  0
ARC
  5
2E5
100
AcDbEntity
  8
パネル
  6
CONTINUOUS
 62
     0
100
AcDbCircle
 10
902.1992863951
 20
688.8890566949
 40
0.2999999523159
100
AcDbArc
 50
-142.9999188726
 51
-61.90791555361
  0
ARC
  5
2E6
100
AcDbEntity
  8
パネル
  6
CONTINUOUS
 62
     0
100
AcDbCircle
 10
903.1649085214
 20
687.1091230715
 40
1.724999427795
100
AcDbArc
 50
97.12111980912
 51
118.5475023861
  0
LINE
  5
2E7
100
AcDbEntity
  8
パネル
  6
CONTINUOUS
 62
     0
100
AcDbLine
 10
902.9628587001
 20
688.904731693
 11
902.9510650826
 21
688.820816388
  0
LINE
  5
2E8
100
AcDbEntity
  8
パネル
  6
CONTINUOUS
 62
     0
100
AcDbLine
 10
902.9626685587
 20
688.9047407059
 11
902.9628587001
 21
688.904731693
  0
ARC
  5
2E9
100
AcDbEntity
  8
パネル
  6
CONTINUOUS
 62
     0
100
AcDbCircle
 10
903.4084670061
 20
688.8420881557
 40
0.4501795172693
100
AcDbArc
 50
-7.999867077168
 51
172.0000423092
  0
LINE
  5
2EA
100
AcDbEntity
  8
パネル
  6
CONTINUOUS
 62
     0
100
AcDbLine
 10
903.8540938613
 20
688.7794761139
 11
903.8542655526
 21
688.7794363105
  0
LINE
  5
2EB
100
AcDbEntity
  8
パネル
  6
CONTINUOUS
 62
     0
100
AcDbLine
 10
903.8422998287
 20
688.6955543
 11
903.8540938613
 21
688.7794761139
  0
ARC
  5
2EC
100
AcDbEntity
  8
パネル
  6
CONTINUOUS
 62
     0
100
AcDbCircle
 10
903.1649085214
 20
687.1091230715
 40
1.724999427795
100
AcDbArc
 50
37.12167789255
 51
66.87797075684
  0
LINE
  5
2ED
100
AcDbEntity
  8
パネル
  6
CONTINUOUS
 62
     0
100
AcDbLine
 10
904.6188956529
 20
688.1819125078
 11
904.5403465574
 21
688.1501769775
  0
LINE
  5
2EE
100
AcDbEntity
  8
パネル
  6
CONTINUOUS
 62
     0
100
AcDbLine
 10
904.618845214
 20
688.1820858759
 11
904.6188956529
 21
688.1819125078
  0
ARC
  5
2EF
100
AcDbEntity
  8
パネル
  6
CONTINUOUS
 62
     0
100
AcDbCircle
 10
904.7874870192
 20
687.7646873381
 40
0.4501795172688
100
AcDbArc
 50
-67.99963652045
 51
112.0002182246
  0
LINE
  5
2F0
100
AcDbEntity
  8
パネル
  6
CONTINUOUS
 62
     0
100
AcDbLine
 10
904.9560388498
 20
687.3474520134
 11
904.9561298825
 21
687.3472892279
  0
LINE
  5
2F1
100
AcDbEntity
  8
パネル
  6
CONTINUOUS
 62
     0
100
AcDbLine
 10
904.8774919004
 20
687.3157173502
 11
904.9560388498
 21
687.3474520134
  0
ARC
  5
2F2
100
AcDbEntity
  8
パネル
  6
CONTINUOUS
 62
     0
100
AcDbCircle
 10
903.1649085214
 20
687.1091230715
 40
1.724999427795
100
AcDbArc
 50
-52.87889059453
 51
6.878530966204
  0
LINE
  5
2F3
100
AcDbEntity
  8
パネル
  6
CONTINUOUS
 62
     0
100
AcDbLine
 10
904.2376780858
 20
685.6551428212
 11
904.2059487803
 21
685.7336747064
  0
LINE
  5
2F4
100
AcDbEntity
  8
パネル
  6
CONTINUOUS
 62
     0
100
AcDbLine
 10
904.2378777683
 20
685.6551992355
 11
904.2376780858
 21
685.6551428212
  0
ARC
  5
2F5
100
AcDbEntity
  8
パネル
  6
CONTINUOUS
 62
     0
100
AcDbCircle
 10
903.8204787501
 20
685.4865586196
 40
0.450179517269
100
AcDbArc
 50
-157.9994958185
 51
22.00005498304
  0
LINE
  5
2F6
100
AcDbEntity
  8
パネル
  6
CONTINUOUS
 62
     0
100
AcDbLine
 10
903.4032430401
 20
685.3180095426
 11
903.403081054
 21
685.3179147313
  0
LINE
  5
2F7
100
AcDbEntity
  8
パネル
  6
CONTINUOUS
 62
     0
100
AcDbLine
 10
903.371513895
 20
685.396541031
 11
903.4032430401
 21
685.3180095426
  0
ARC
  5
2F8
100
AcDbEntity
  8
パネル
  6
CONTINUOUS
 62
     0
100
AcDbCircle
 10
903.1649085214
 20
687.1091230715
 40
1.724999427796
100
AcDbArc
 50
-112.8782968808
 51
-83.12109784581
  0
LINE
  5
2F9
100
AcDbEntity
  8
パネル
  6
CONTINUOUS
 62
     0
100
AcDbLine
 10
924.020012207
 20
750.9369987884
 11
924.020012207
 21
751.869803007
  0
LINE
  5
2FA
100
AcDbEntity
  8
パネル
  6
CONTINUOUS
 62
     0
100
AcDbLine
 10
925.4324544144
 20
751.1828268374
 11
925.4543311844
 21
751.1011822284
  0
ARC
  5
2FB
100
AcDbEntity
  8
パネル
  6
CONTINUOUS
 62
     0
100
AcDbCircle
 10
926.32
 20
749.6091230715
 40
1.724999427795
100
AcDbArc
 50
60.12109784582
 51
89.87829688085
  0
LINE
  5
2FC
100
AcDbEntity
  8
パネル
  6
CONTINUOUS
 62
     0
100
AcDbLine
 10
927.2392318916
 20
751.1647270526
 11
927.1793403624
 21
751.104836001
  0
ARC
  5
2FD
100
AcDbEntity
  8
パネル
  6
CONTINUOUS
 62
     0
100
AcDbCircle
 10
927.5574420166
 20
750.8465498294
 40
0.450179517269
100
AcDbArc
 50
-45.00005498304
 51
134.9994958183
  0
LINE
  5
2FE
100
AcDbEntity
  8
パネル
  6
CONTINUOUS
 62
     0
100
AcDbLine
 10
929.42
 20
741.4388289256
 11
929.42
 21
763.3794172175
  0
LINE
  5
2FF
100
AcDbEntity
  8
パネル
  6
CONTINUOUS
 62
     0
100
AcDbLine
 10
924.5856550407
 20
750.610424837
 11
924.020012207
 21
750.9369987884
  0
LINE
  5
300
100
AcDbEntity
  8
パネル
  6
CONTINUOUS
 62
     0
100
AcDbLine
 10
924.5856650563
 20
750.6104389413
 11
924.5856550407
 21
750.610424837
  0
ARC
  5
301
100
AcDbEntity
  8
パネル
  6
CONTINUOUS
 62
     0
100
AcDbCircle
 10
924.7356646729
 20
750.8702467288
 40
0.2999999523164
100
AcDbArc
 50
-119.9999206941
 51
-37.94720245705
  0
ARC
  5
302
100
AcDbEntity
  8
パネル
  6
CONTINUOUS
 62
     0
100
AcDbCircle
 10
926.32
 20
749.6091230715
 40
1.724999427796
100
AcDbArc
 50
120.1216202117
 51
141.3808204598
  0
LINE
  5
303
100
AcDbEntity
  8
パネル
  6
CONTINUOUS
 62
     0
100
AcDbLine
 10
927.8756049347
 20
750.5283544863
 11
927.8757667005
 21
750.5282245345
  0
LINE
  5
304
100
AcDbEntity
  8
パネル
  6
CONTINUOUS
 62
     0
100
AcDbLine
 10
927.8157131029
 20
750.4684631322
 11
927.8756049347
 21
750.5283544863
  0
ARC
  5
305
100
AcDbEntity
  8
パネル
  6
CONTINUOUS
 62
     0
100
AcDbCircle
 10
926.32
 20
749.6091230715
 40
1.724999427796
100
AcDbArc
 50
-29.87853096616
 51
29.87889059453
  0
LINE
  5
306
100
AcDbEntity
  8
パネル
  6
CONTINUOUS
 62
     0
100
AcDbLine
 10
927.875621624
 20
748.6898897494
 11
927.8157184966
 21
748.7497923991
  0
LINE
  5
307
100
AcDbEntity
  8
パネル
  6
CONTINUOUS
 62
     0
100
AcDbLine
 10
927.8757690254
 20
748.6900040249
 11
927.875621624
 21
748.6898897494
  0
ARC
  5
308
100
AcDbEntity
  8
パネル
  6
CONTINUOUS
 62
     0
100
AcDbCircle
 10
927.5574420166
 20
748.3716810549
 40
0.4501795172692
100
AcDbArc
 50
-135.0002182246
 51
44.99963652054
  0
LINE
  5
309
100
AcDbEntity
  8
パネル
  6
CONTINUOUS
 62
     0
100
AcDbLine
 10
927.2392299843
 20
748.053497156
 11
927.2391158148
 21
748.0533572779
  0
LINE
  5
30A
100
AcDbEntity
  8
パネル
  6
CONTINUOUS
 62
     0
100
AcDbLine
 10
927.1793252202
 20
748.1134014424
 11
927.2392299843
 21
748.053497156
  0
ARC
  5
30B
100
AcDbEntity
  8
パネル
  6
CONTINUOUS
 62
     0
100
AcDbCircle
 10
926.32
 20
749.6091230715
 40
1.724999427795
100
AcDbArc
 50
-89.8779707568
 51
-60.12167789252
  0
LINE
  5
30C
100
AcDbEntity
  8
パネル
  6
CONTINUOUS
 62
     0
100
AcDbLine
 10
926.301739521
 20
747.8022688235
 11
926.3236739218
 21
747.8841275561
  0
LINE
  5
30D
100
AcDbEntity
  8
パネル
  6
CONTINUOUS
 62
     0
100
AcDbLine
 10
926.3019131161
 20
747.8022383776
 11
926.301739521
 21
747.8022688235
  0
ARC
  5
30E
100
AcDbEntity
  8
パネル
  6
CONTINUOUS
 62
     0
100
AcDbCircle
 10
925.8670733643
 20
747.9187544192
 40
0.4501795172691
100
AcDbArc
 50
164.9999576907
 51
344.9998670774
  0
LINE
  5
30F
100
AcDbEntity
  8
パネル
  6
CONTINUOUS
 62
     0
100
AcDbLine
 10
925.4324119759
 20
748.0352037753
 11
925.4322334281
 21
748.0352697731
  0
LINE
  5
310
100
AcDbEntity
  8
パネル
  6
CONTINUOUS
 62
     0
100
AcDbLine
 10
925.4543442155
 20
748.1170563543
 11
925.4324119759
 21
748.0352037753
  0
ARC
  5
311
100
AcDbEntity
  8
パネル
  6
CONTINUOUS
 62
     0
100
AcDbCircle
 10
926.32
 20
749.6091230715
 40
1.724999427796
100
AcDbArc
 50
-141.5475028581
 51
-120.1211198091
  0
ARC
  5
312
100
AcDbEntity
  8
パネル
  6
CONTINUOUS
 62
     0
100
AcDbCircle
 10
924.735664673
 20
748.3479841556
 40
0.2999999523164
100
AcDbArc
 50
38.90791827048
 51
119.9999188942
  0
LINE
  5
313
100
AcDbEntity
  8
パネル
  6
CONTINUOUS
 62
     0
100
AcDbLine
 10
924.5856579018
 20
748.6077898348
 11
924.5856650646
 21
748.6077919478
  0
LINE
  5
314
100
AcDbEntity
  8
パネル
  6
CONTINUOUS
 62
     0
100
AcDbLine
 10
924.020012207
 20
748.2812147229
 11
924.5856579018
 21
748.6077898348
  0
LINE
  5
315
100
AcDbEntity
  8
パネル
  6
CONTINUOUS
 62
     0
100
AcDbLine
 10
924.020012207
 20
747.348443136
 11
924.020012207
 21
748.2812147229
  0
ARC
  5
316
100
AcDbEntity
  8
パネル
  6
CONTINUOUS
 62
     0
100
AcDbCircle
 10
926.32
 20
749.6091230715
 40
3.224998855591
100
AcDbArc
 50
-135.4938133413
 51
-72.82450725632
  0
ARC
  5
317
100
AcDbEntity
  8
パネル
  6
CONTINUOUS
 62
     0
100
AcDbCircle
 10
927.41999
 20
746.0502414391
 40
0.5
100
AcDbArc
 50
0
 51
107.1754927438
  0
LINE
  5
318
100
AcDbEntity
  8
パネル
  6
CONTINUOUS
 62
     0
100
AcDbLine
 10
927.91999
 20
739.7239254549
 11
927.91999
 21
746.0502414391
  0
ARC
  5
319
100
AcDbEntity
  8
パネル
  6
CONTINUOUS
 62
     0
100
AcDbCircle
 10
928.41999
 20
739.7239254549
 40
0.5000000000001
100
AcDbArc
 50
180
 51
281.3099324739
  0
LINE
  5
31A
100
AcDbEntity
  8
パネル
  6
CONTINUOUS
 62
     0
100
AcDbLine
 10
929.4050140385
 20
739.4110283113
 11
928.5180480676
 21
739.2336351171
  0
ARC
  5
31B
100
AcDbEntity
  8
パネル
  6
CONTINUOUS
 62
     0
100
AcDbCircle
 10
929.5030721061
 20
738.9207379734
 40
0.4999999999998
100
AcDbArc
 50
-22.99999669073
 51
101.3099324741
  0
ARC
  5
31C
100
AcDbEntity
  8
パネル
  6
CONTINUOUS
 62
     0
100
AcDbCircle
 10
939.42
 20
749.1091230715
 40
1
100
AcDbArc
 50
0
 51
90
  0
ARC
  5
31D
100
AcDbEntity
  8
パネル
  6
CONTINUOUS
 62
     0
100
AcDbCircle
 10
938.07
 20
749.4591230715
 40
0.65
100
AcDbArc
 50
90
 51
270
  0
LINE
  5
31E
100
AcDbEntity
  8
パネル
  6
CONTINUOUS
 62
     0
100
AcDbLine
 10
938.07
 20
748.8091230715
 11
938.92
 21
748.8091230715
  0
LINE
  5
31F
100
AcDbEntity
  8
パネル
  6
CONTINUOUS
 62
     0
100
AcDbLine
 10
939.42
 20
750.1091230715
 11
938.07
 21
750.1091230715
  0
LINE
  5
320
100
AcDbEntity
  8
パネル
  6
CONTINUOUS
 62
     0
100
AcDbLine
 10
934.9334650638
 20
741.0118160843
 11
939.6161161351
 21
741.9483462986
  0
ARC
  5
321
100
AcDbEntity
  8
パネル
  6
CONTINUOUS
 62
     0
100
AcDbCircle
 10
939.42
 20
742.9289269743
 40
1
100
AcDbArc
 50
-78.69006752603
 51
0
  0
ARC
  5
322
100
AcDbEntity
  8
パネル
  6
CONTINUOUS
 62
     0
100
AcDbCircle
 10
935.9140457395
 20
736.1089127058
 40
5
100
AcDbArc
 50
101.309932474
 51
157.000003309
  0
LINE
  5
323
100
AcDbEntity
  8
パネル
  6
CONTINUOUS
 62
     0
100
AcDbLine
 10
938.92
 20
743.3388289256
 11
929.42
 21
741.4388289256
  0
LINE
  5
324
100
AcDbEntity
  8
パネル
  6
CONTINUOUS
 62
     0
100
AcDbLine
 10
940.42
 20
742.9289269743
 11
940.42
 21
749.1091230715
  0
LINE
  5
325
100
AcDbEntity
  8
パネル
  6
CONTINUOUS
 62
     0
100
AcDbLine
 10
938.92
 20
748.8091230715
 11
938.92
 21
743.3388289256
  0
ARC
  5
326
100
AcDbEntity
  8
パネル
  6
CONTINUOUS
 62
     0
100
AcDbCircle
 10
926.7581043116
 20
746.5301756363
 40
16
100
AcDbArc
 50
101.309932474
 51
157.000003309
  0
ARC
  5
327
100
AcDbEntity
  8
パネル
  6
CONTINUOUS
 62
     0
100
AcDbCircle
 10
926.7581043116
 20
746.5301756363
 40
17.5
100
AcDbArc
 50
101.309932474
 51
157.000003309
  0
LINE
  5
328
100
AcDbEntity
  8
パネル
  6
CONTINUOUS
 62
     0
100
AcDbLine
 10
927.91999
 20
763.0794152175
 11
923.6202461494
 21
762.2194664473
  0
LINE
  5
329
100
AcDbEntity
  8
パネル
  6
CONTINUOUS
 62
     0
100
AcDbLine
 10
927.91999
 20
753.168004704
 11
927.91999
 21
763.0794152175
  0
ARC
  5
32A
100
AcDbEntity
  8
パネル
  6
CONTINUOUS
 62
     0
100
AcDbCircle
 10
927.41999
 20
753.168004704
 40
0.4999999999998
100
AcDbArc
 50
-107.1754927438
 51
0
  0
ARC
  5
32B
100
AcDbEntity
  8
パネル
  6
CONTINUOUS
 62
     0
100
AcDbCircle
 10
926.32
 20
749.6091230715
 40
3.224998855591
100
AcDbArc
 50
72.82450725636
 51
135.4938133414
  0
LINE
  5
32C
100
AcDbEntity
  8
パネル
  6
CONTINUOUS
 62
     0
100
AcDbLine
 10
925.4322790202
 20
751.1827939522
 11
925.4324544144
 21
751.1828268374
  0
ARC
  5
32D
100
AcDbEntity
  8
パネル
  6
CONTINUOUS
 62
     0
100
AcDbCircle
 10
925.8671191406
 20
751.2993086184
 40
0.450179517269
100
AcDbArc
 50
15.00004230928
 51
194.9999516952
  0
LINE
  5
32E
100
AcDbEntity
  8
パネル
  6
CONTINUOUS
 62
     0
100
AcDbLine
 10
926.3017872047
 20
751.4157636965
 11
926.3019590768
 21
751.4158239723
  0
LINE
  5
32F
100
AcDbEntity
  8
パネル
  6
CONTINUOUS
 62
     0
100
AcDbLine
 10
926.3236641033
 20
751.3341186078
 11
926.3017872047
 21
751.4157636965
  0
LINE
  5
330
100
AcDbEntity
  8
パネル
  6
CONTINUOUS
 62
     0
100
AcDbLine
 10
927.2391198283
 20
751.1648776199
 11
927.2392318916
 21
751.1647270526
  0
LINE
  5
331
100
AcDbEntity
  8
パネル
  6
CONTINUOUS
 62
     0
100
AcDbLine
 10
938.92
 20
765.2794172175
 11
938.92
 21
760.4091230715
  0
LINE
  5
332
100
AcDbEntity
  8
パネル
  6
CONTINUOUS
 62
     0
100
AcDbLine
 10
938.92
 20
760.4091230715
 11
938.07
 21
760.4091230715
  0
ARC
  5
333
100
AcDbEntity
  8
パネル
  6
CONTINUOUS
 62
     0
100
AcDbCircle
 10
939.42
 20
765.8893191688
 40
1
100
AcDbArc
 50
0
 51
101.3099324741
  0
LINE
  5
334
100
AcDbEntity
  8
パネル
  6
CONTINUOUS
 62
     0
100
AcDbLine
 10
940.42
 20
767.1091230715
 11
923.3260719467
 21
763.6903374609
  0
LINE
  5
335
100
AcDbEntity
  8
パネル
  6
CONTINUOUS
 62
     0
100
AcDbLine
 10
929.42
 20
763.3794172175
 11
938.92
 21
765.2794172175
  0
ARC
  5
336
100
AcDbEntity
  8
パネル
  6
CONTINUOUS
 62
     0
100
AcDbCircle
 10
939.42
 20
760.1091230715
 40
1
100
AcDbArc
 50
-90
 51
0
  0
LINE
  5
337
100
AcDbEntity
  8
パネル
  6
CONTINUOUS
 62
     0
100
AcDbLine
 10
938.07
 20
759.1091230715
 11
939.42
 21
759.1091230715
  0
LINE
  5
338
100
AcDbEntity
  8
パネル
  6
CONTINUOUS
 62
     0
100
AcDbLine
 10
940.42
 20
760.1091230715
 11
940.42
 21
767.1091230715
  0
ARC
  5
339
100
AcDbEntity
  8
パネル
  6
CONTINUOUS
 62
     0
100
AcDbCircle
 10
938.07
 20
759.7591230715
 40
0.65
100
AcDbArc
 50
90
 51
270
  0
ENDBLK
  5
33A
100
AcDbEntity
 67
     1
  8
パネル
100
AcDbBlockEnd
  0
BLOCK
  5
33B
100
AcDbEntity
  8
ボルトナット
100
AcDbBlockBegin
  2
BK9
 70
    64
 10
0
 20
0
  3
BK9
  1

  0
LINE
  5
33C
100
AcDbEntity
  8
ボルトナット
  6
CONTINUOUS
 62
     0
100
AcDbLine
 10
1470.437199332
 20
806.821252429
 11
1491.437229332
 21
806.821252429
  0
LINE
  5
33D
100
AcDbEntity
  8
ボルトナット
  6
CONTINUOUS
 62
     0
100
AcDbLine
 10
1474.337189332
 20
813.821252429
 11
1487.537199332
 21
813.821252429
  0
ARC
  5
33E
100
AcDbEntity
  8
ボルトナット
  6
CONTINUOUS
 62
     0
100
AcDbCircle
 10
1480.937209332
 20
803.641252429
 40
10.18
100
AcDbArc
 50
64.391533
 51
115.60855
  0
LINE
  5
33F
100
AcDbEntity
  8
ボルトナット
  6
CONTINUOUS
 62
     0
100
AcDbLine
 10
1470.437199332
 20
804.821252429
 11
1491.437229332
 21
804.821252429
  0
LINE
  5
340
100
AcDbEntity
  8
ボルトナット
  6
CONTINUOUS
 62
     0
100
AcDbLine
 10
1472.137209332
 20
812.551082429
 11
1472.137209332
 21
806.821252429
  0
LINE
  5
341
100
AcDbEntity
  8
ボルトナット
  6
CONTINUOUS
 62
     0
100
AcDbLine
 10
1476.537199332
 20
812.821252429
 11
1476.537209332
 21
806.821252429
  0
LINE
  5
342
100
AcDbEntity
  8
ボルトナット
  6
CONTINUOUS
 62
     0
100
AcDbLine
 10
1470.437199332
 20
806.821252429
 11
1470.437199332
 21
804.821252429
  0
LINE
  5
343
100
AcDbEntity
  8
ボルトナット
  6
CONTINUOUS
 62
     0
100
AcDbLine
 10
1474.337229332
 20
813.821252429
 11
1472.137219332
 21
812.551082429
  0
ARC
  5
344
100
AcDbEntity
  8
ボルトナット
  6
CONTINUOUS
 62
     0
100
AcDbCircle
 10
1474.337229332
 20
810.901242429
 40
2.9200001
100
AcDbArc
 50
41.11209699998
 51
90.00002300005
  0
LINE
  5
345
100
AcDbEntity
  8
ボルトナット
  6
CONTINUOUS
 62
     0
100
AcDbLine
 10
1489.737219332
 20
812.551082429
 11
1489.737219332
 21
806.821242429
  0
LINE
  5
346
100
AcDbEntity
  8
ボルトナット
  6
CONTINUOUS
 62
     0
100
AcDbLine
 10
1485.337189332
 20
812.821242429
 11
1485.337189332
 21
806.821242429
  0
LINE
  5
347
100
AcDbEntity
  8
ボルトナット
  6
CONTINUOUS
 62
     0
100
AcDbLine
 10
1491.437229332
 20
806.821242429
 11
1491.437229332
 21
804.821242429
  0
LINE
  5
348
100
AcDbEntity
  8
ボルトナット
  6
CONTINUOUS
 62
     0
100
AcDbLine
 10
1487.537199332
 20
813.821252429
 11
1489.737199332
 21
812.551072429
  0
ARC
  5
349
100
AcDbEntity
  8
ボルトナット
  6
CONTINUOUS
 62
     0
100
AcDbCircle
 10
1487.537179332
 20
810.901242429
 40
2.9199991
100
AcDbArc
 50
90.000043
 51
138.88791
  0
LINE
  5
34A
100
AcDbEntity
  8
ボルトナット
  6
CONTINUOUS
 62
     0
100
AcDbLine
 10
1470.437199332
 20
796.821252429
 11
1491.437229332
 21
796.821252429
  0
LINE
  5
34B
100
AcDbEntity
  8
ボルトナット
  6
CONTINUOUS
 62
     0
100
AcDbLine
 10
1470.437199332
 20
794.821252429
 11
1491.437229332
 21
794.821252429
  0
LINE
  5
34C
100
AcDbEntity
  8
ボルトナット
  6
CONTINUOUS
 62
     0
100
AcDbLine
 10
1474.337199332
 20
785.321252429
 11
1487.537209332
 21
785.321252429
  0
ARC
  5
34D
100
AcDbEntity
  8
ボルトナット
  6
CONTINUOUS
 62
     0
100
AcDbCircle
 10
1480.937209332
 20
795.501252429
 40
10.18
100
AcDbArc
 50
-115.60848
 51
-64.39145999999
  0
LINE
  5
34E
100
AcDbEntity
  8
ボルトナット
  6
CONTINUOUS
 62
     0
100
AcDbLine
 10
1476.937229332
 20
781.821252429
 11
1484.937229332
 21
781.821252429
  0
LINE
  5
34F
100
AcDbEntity
  8
ボルトナット
  6
CONTINUOUS
 62
     0
100
AcDbLine
 10
1475.937229332
 20
782.821252429
 11
1485.937229332
 21
782.821252429
  0
LINE
  5
350
100
AcDbEntity
  8
ボルトナット
  6
CONTINUOUS
 62
     0
100
AcDbLine
 10
1475.937229332
 20
785.321252429
 11
1475.937229332
 21
782.821252429
  0
LINE
  5
351
100
AcDbEntity
  8
ボルトナット
  6
CONTINUOUS
 62
     0
100
AcDbLine
 10
1476.937229332
 20
785.321252429
 11
1476.937229332
 21
781.821252429
  0
LINE
  5
352
100
AcDbEntity
  8
ボルトナット
  6
CONTINUOUS
 62
     0
100
AcDbLine
 10
1475.937199332
 20
782.821252429
 11
1476.937199332
 21
781.821242429
  0
LINE
  5
353
100
AcDbEntity
  8
ボルトナット
  6
CONTINUOUS
 62
     0
100
AcDbLine
 10
1470.437199332
 20
796.821252429
 11
1470.437199332
 21
794.821252429
  0
LINE
  5
354
100
AcDbEntity
  8
ボルトナット
  6
CONTINUOUS
 62
     0
100
AcDbLine
 10
1474.337209332
 20
785.321232429
 11
1472.137209332
 21
786.591402429
  0
ARC
  5
355
100
AcDbEntity
  8
ボルトナット
  6
CONTINUOUS
 62
     0
100
AcDbCircle
 10
1474.337229332
 20
788.241242429
 40
2.9200001
100
AcDbArc
 50
-90
 51
-41.11210000001
  0
LINE
  5
356
100
AcDbEntity
  8
ボルトナット
  6
CONTINUOUS
 62
     0
100
AcDbLine
 10
1476.537209332
 20
786.321252429
 11
1476.537209332
 21
792.321252429
  0
LINE
  5
357
100
AcDbEntity
  8
ボルトナット
  6
CONTINUOUS
 62
     0
100
AcDbLine
 10
1472.137209332
 20
786.591412429
 11
1472.137209332
 21
792.321252429
  0
LINE
  5
358
100
AcDbEntity
  8
ボルトナット
  6
CONTINUOUS
 62
     0
100
AcDbLine
 10
1485.937229332
 20
785.321252429
 11
1485.937229332
 21
782.821242429
  0
LINE
  5
359
100
AcDbEntity
  8
ボルトナット
  6
CONTINUOUS
 62
     0
100
AcDbLine
 10
1484.937229332
 20
785.321252429
 11
1484.937229332
 21
781.821242429
  0
LINE
  5
35A
100
AcDbEntity
  8
ボルトナット
  6
CONTINUOUS
 62
     0
100
AcDbLine
 10
1484.937189332
 20
781.821222429
 11
1485.937209332
 21
782.821252429
  0
LINE
  5
35B
100
AcDbEntity
  8
ボルトナット
  6
CONTINUOUS
 62
     0
100
AcDbLine
 10
1487.537199332
 20
785.321242429
 11
1489.737199332
 21
786.591412429
  0
ARC
  5
35C
100
AcDbEntity
  8
ボルトナット
  6
CONTINUOUS
 62
     0
100
AcDbCircle
 10
1487.537179332
 20
788.241242429
 40
2.9199991
100
AcDbArc
 50
-138.88784
 51
-90
  0
LINE
  5
35D
100
AcDbEntity
  8
ボルトナット
  6
CONTINUOUS
 62
     0
100
AcDbLine
 10
1485.337199332
 20
786.321252429
 11
1485.337189332
 21
792.321252429
  0
LINE
  5
35E
100
AcDbEntity
  8
ボルトナット
  6
CONTINUOUS
 62
     0
100
AcDbLine
 10
1491.437229332
 20
796.821252429
 11
1491.437229332
 21
794.821252429
  0
LINE
  5
35F
100
AcDbEntity
  8
ボルトナット
  6
CONTINUOUS
 62
     0
100
AcDbLine
 10
1489.737219332
 20
786.591412429
 11
1489.737219332
 21
792.321252429
  0
LINE
  5
360
100
AcDbEntity
  8
ボルトナット
  6
CENTER
 62
     0
100
AcDbLine
 10
1480.937214332
 20
817.7649121607
 11
1480.937214332
 21
777.35194226
  0
LINE
  5
361
100
AcDbEntity
  8
ボルトナット
  6
DASHED
 62
     0
100
AcDbLine
 10
1475.937229332
 20
806.821252429
 11
1475.937229332
 21
794.821252429
  0
LINE
  5
362
100
AcDbEntity
  8
ボルトナット
  6
DASHED
 62
     0
100
AcDbLine
 10
1485.937229332
 20
806.821252429
 11
1485.937229332
 21
794.821252429
  0
LINE
  5
363
100
AcDbEntity
  8
ボルトナット
  6
CONTINUOUS
 62
     0
100
AcDbLine
 10
1490.137219332
 20
792.321252429
 11
1490.137219332
 21
794.821252429
  0
LINE
  5
364
100
AcDbEntity
  8
ボルトナット
  6
CONTINUOUS
 62
     0
100
AcDbLine
 10
1471.737209332
 20
792.321252429
 11
1471.737209332
 21
794.821252429
  0
LINE
  5
365
100
AcDbEntity
  8
ボルトナット
  6
CONTINUOUS
 62
     0
100
AcDbLine
 10
1471.737209332
 20
792.321252429
 11
1490.137219332
 21
792.321252429
  0
ENDBLK
  5
366
100
AcDbEntity
 67
     1
  8
ボルトナット
100
AcDbBlockEnd
  0
BLOCK
  5
367
100
AcDbEntity
  8
ボルトナット
100
AcDbBlockBegin
  2
BK10
 70
    64
 10
0
 20
0
  3
BK10
  1

  0
LINE
  5
368
100
AcDbEntity
  8
ボルトナット
  6
CONTINUOUS
 62
     0
100
AcDbLine
 10
1708.487229349
 20
975.0511144327
 11
1708.487229349
 21
969.3212544327
  0
LINE
  5
369
100
AcDbEntity
  8
ボルトナット
  6
CONTINUOUS
 62
     0
100
AcDbLine
 10
1704.087209349
 20
975.3212544327
 11
1704.087209349
 21
969.3212544327
  0
LINE
  5
36A
100
AcDbEntity
  8
ボルトナット
  6
CONTINUOUS
 62
     0
100
AcDbLine
 10
1690.887189349
 20
975.0511144327
 11
1690.887189349
 21
969.3212544327
  0
LINE
  5
36B
100
AcDbEntity
  8
ボルトナット
  6
CONTINUOUS
 62
     0
100
AcDbLine
 10
1695.287219349
 20
975.3212544327
 11
1695.287219349
 21
969.3212544327
  0
ARC
  5
36C
100
AcDbEntity
  8
ボルトナット
  6
CONTINUOUS
 62
     0
100
AcDbCircle
 10
1699.687209349
 20
966.1413244327
 40
10.18
100
AcDbArc
 50
64.39145
 51
115.60847
  0
LINE
  5
36D
100
AcDbEntity
  8
ボルトナット
  6
CONTINUOUS
 62
     0
100
AcDbLine
 10
1706.287219349
 20
976.3212544327
 11
1693.087209349
 21
976.3212544327
  0
LINE
  5
36E
100
AcDbEntity
  8
ボルトナット
  6
CONTINUOUS
 62
     0
100
AcDbLine
 10
1704.687209349
 20
979.6213044327
 11
1694.687209349
 21
979.6213044327
  0
LINE
  5
36F
100
AcDbEntity
  8
ボルトナット
  6
CONTINUOUS
 62
     0
100
AcDbLine
 10
1703.687209349
 20
980.6213044327
 11
1695.687209349
 21
980.6213044327
  0
LINE
  5
370
100
AcDbEntity
  8
ボルトナット
  6
CONTINUOUS
 62
     0
100
AcDbLine
 10
1695.687209349
 20
976.3212544327
 11
1695.687209349
 21
980.6213044327
  0
LINE
  5
371
100
AcDbEntity
  8
ボルトナット
  6
CONTINUOUS
 62
     0
100
AcDbLine
 10
1694.687209349
 20
976.3212544327
 11
1694.687209349
 21
979.6213044327
  0
LINE
  5
372
100
AcDbEntity
  8
ボルトナット
  6
CONTINUOUS
 62
     0
100
AcDbLine
 10
1695.687219349
 20
980.6213144327
 11
1694.687219349
 21
979.6213144327
  0
ARC
  5
373
100
AcDbEntity
  8
ボルトナット
  6
CONTINUOUS
 62
     0
100
AcDbCircle
 10
1693.087209349
 20
973.4012744327
 40
2.9199991
100
AcDbArc
 50
41.11215000003
 51
89.99996000001
  0
LINE
  5
374
100
AcDbEntity
  8
ボルトナット
  6
CONTINUOUS
 62
     0
100
AcDbLine
 10
1693.087179349
 20
976.3212944327
 11
1690.887179349
 21
975.0511244327
  0
LINE
  5
375
100
AcDbEntity
  8
ボルトナット
  6
CONTINUOUS
 62
     0
100
AcDbLine
 10
1703.687209349
 20
976.3212544327
 11
1703.687209349
 21
980.6213044327
  0
LINE
  5
376
100
AcDbEntity
  8
ボルトナット
  6
CONTINUOUS
 62
     0
100
AcDbLine
 10
1704.687209349
 20
976.3212544327
 11
1704.687209349
 21
979.6213044327
  0
LINE
  5
377
100
AcDbEntity
  8
ボルトナット
  6
CONTINUOUS
 62
     0
100
AcDbLine
 10
1704.687209349
 20
979.6213344327
 11
1703.687239349
 21
980.6213144327
  0
ARC
  5
378
100
AcDbEntity
  8
ボルトナット
  6
CONTINUOUS
 62
     0
100
AcDbCircle
 10
1706.287219349
 20
973.4012744327
 40
2.9200001
100
AcDbArc
 50
89.99995999996
 51
138.88784
  0
LINE
  5
379
100
AcDbEntity
  8
ボルトナット
  6
CONTINUOUS
 62
     0
100
AcDbLine
 10
1706.287199349
 20
976.3212644327
 11
1708.487209349
 21
975.0510844327
  0
LINE
  5
37A
100
AcDbEntity
  8
ボルトナット
  6
CONTINUOUS
 62
     0
100
AcDbLine
 10
1708.887229349
 20
969.3212544327
 11
1690.487189349
 21
969.3212544327
  0
LINE
  5
37B
100
AcDbEntity
  8
ボルトナット
  6
CONTINUOUS
 62
     0
100
AcDbLine
 10
1710.187209349
 20
964.8212544327
 11
1710.187209349
 21
966.8212544327
  0
LINE
  5
37C
100
AcDbEntity
  8
ボルトナット
  6
CENTER
 62
     0
100
AcDbLine
 10
1699.687209349
 20
984.9239487063
 11
1699.687209349
 21
943.2051876461
  0
LINE
  5
37D
100
AcDbEntity
  8
ボルトナット
  6
CONTINUOUS
 62
     0
100
AcDbLine
 10
1689.187209349
 20
964.8213244327
 11
1689.187209349
 21
966.8213244327
  0
LINE
  5
37E
100
AcDbEntity
  8
ボルトナット
  6
DASHED
 62
     0
100
AcDbLine
 10
1704.687209349
 20
955.6213044327
 11
1704.687209349
 21
966.8212544327
  0
LINE
  5
37F
100
AcDbEntity
  8
ボルトナット
  6
DASHED
 62
     0
100
AcDbLine
 10
1694.687209349
 20
955.6213044327
 11
1694.687209349
 21
966.8212544327
  0
LINE
  5
380
100
AcDbEntity
  8
ボルトナット
  6
DASHED
 62
     0
100
AcDbLine
 10
1710.187209349
 20
955.6213044327
 11
1689.187209349
 21
955.6213044327
  0
ARC
  5
381
100
AcDbEntity
  8
ボルトナット
  6
DASHED
 62
     0
100
AcDbCircle
 10
1699.687209349
 20
958.8013044327
 40
10.18
100
AcDbArc
 50
-115.60844
 51
-64.39141799998
  0
LINE
  5
382
100
AcDbEntity
  8
ボルトナット
  6
DASHED
 62
     0
100
AcDbLine
 10
1706.287219349
 20
948.6213044327
 11
1693.087209349
 21
948.6213044327
  0
LINE
  5
383
100
AcDbEntity
  8
ボルトナット
  6
DASHED
 62
     0
100
AcDbLine
 10
1704.087209349
 20
949.6213044327
 11
1704.087209349
 21
955.6213044327
  0
LINE
  5
384
100
AcDbEntity
  8
ボルトナット
  6
DASHED
 62
     0
100
AcDbLine
 10
1708.487229349
 20
949.8914444327
 11
1708.487229349
 21
955.6213044327
  0
LINE
  5
385
100
AcDbEntity
  8
ボルトナット
  6
DASHED
 62
     0
100
AcDbLine
 10
1710.187209349
 20
955.6213044327
 11
1710.187209349
 21
957.6213044327
  0
ARC
  5
386
100
AcDbEntity
  8
ボルトナット
  6
DASHED
 62
     0
100
AcDbCircle
 10
1706.287219349
 20
951.5412944327
 40
2.9200001
100
AcDbArc
 50
-138.88791
 51
-89.99998200999
  0
LINE
  5
387
100
AcDbEntity
  8
ボルトナット
  6
DASHED
 62
     0
100
AcDbLine
 10
1706.287189349
 20
948.6213244327
 11
1708.487189349
 21
949.8915044327
  0
LINE
  5
388
100
AcDbEntity
  8
ボルトナット
  6
DASHED
 62
     0
100
AcDbLine
 10
1695.287219349
 20
949.6213044327
 11
1695.287219349
 21
955.6213044327
  0
LINE
  5
389
100
AcDbEntity
  8
ボルトナット
  6
DASHED
 62
     0
100
AcDbLine
 10
1690.887189349
 20
949.8914444327
 11
1690.887189349
 21
955.6213044327
  0
LINE
  5
38A
100
AcDbEntity
  8
ボルトナット
  6
DASHED
 62
     0
100
AcDbLine
 10
1689.187209349
 20
955.6213044327
 11
1689.187209349
 21
957.6213044327
  0
ARC
  5
38B
100
AcDbEntity
  8
ボルトナット
  6
DASHED
 62
     0
100
AcDbCircle
 10
1693.087209349
 20
951.5412944327
 40
2.9199991
100
AcDbArc
 50
-89.99992737002
 51
-41.112095
  0
LINE
  5
38C
100
AcDbEntity
  8
ボルトナット
  6
DASHED
 62
     0
100
AcDbLine
 10
1693.087199349
 20
948.6213144327
 11
1690.887189349
 21
949.8914844327
  0
LINE
  5
38D
100
AcDbEntity
  8
ボルトナット
  6
CONTINUOUS
 62
     0
100
AcDbLine
 10
1710.187209349
 20
966.8212544327
 11
1689.187209349
 21
966.8212544327
  0
LINE
  5
38E
100
AcDbEntity
  8
ボルトナット
  6
CONTINUOUS
 62
     0
100
AcDbLine
 10
1690.487189349
 20
969.3212544327
 11
1690.487189349
 21
966.8212544327
  0
LINE
  5
38F
100
AcDbEntity
  8
ボルトナット
  6
CONTINUOUS
 62
     0
100
AcDbLine
 10
1708.887229349
 20
969.3212544327
 11
1708.887229349
 21
966.8212544327
  0
ENDBLK
  5
390
100
AcDbEntity
 67
     1
  8
ボルトナット
100
AcDbBlockEnd
  0
BLOCK
  5
391
100
AcDbEntity
  8
ボルトナット
100
AcDbBlockBegin
  2
BK11
 70
    64
 10
0
 20
0
  3
BK11
  1

  0
LINE
  5
392
100
AcDbEntity
  8
ボルトナット
  6
CONTINUOUS
 62
     0
100
AcDbLine
 10
1496.707362173
 20
780.871262429
 11
1502.437222173
 21
780.871262429
  0
LINE
  5
393
100
AcDbEntity
  8
ボルトナット
  6
CONTINUOUS
 62
     0
100
AcDbLine
 10
1496.437222173
 20
776.471242429
 11
1502.437222173
 21
776.471242429
  0
LINE
  5
394
100
AcDbEntity
  8
ボルトナット
  6
CONTINUOUS
 62
     0
100
AcDbLine
 10
1496.707362173
 20
763.271222429
 11
1502.437222173
 21
763.271222429
  0
LINE
  5
395
100
AcDbEntity
  8
ボルトナット
  6
CONTINUOUS
 62
     0
100
AcDbLine
 10
1496.437222173
 20
767.671252429
 11
1502.437222173
 21
767.671252429
  0
ARC
  5
396
100
AcDbEntity
  8
ボルトナット
  6
CONTINUOUS
 62
     0
100
AcDbCircle
 10
1505.617152173
 20
772.071242429
 40
10.18
100
AcDbArc
 50
154.39145
 51
205.60847
  0
LINE
  5
397
100
AcDbEntity
  8
ボルトナット
  6
CONTINUOUS
 62
     0
100
AcDbLine
 10
1495.437222173
 20
778.671252429
 11
1495.437222173
 21
765.471242429
  0
LINE
  5
398
100
AcDbEntity
  8
ボルトナット
  6
CONTINUOUS
 62
     0
100
AcDbLine
 10
1492.137172173
 20
777.071242429
 11
1492.137172173
 21
767.071242429
  0
LINE
  5
399
100
AcDbEntity
  8
ボルトナット
  6
CONTINUOUS
 62
     0
100
AcDbLine
 10
1491.137172173
 20
776.071242429
 11
1491.137172173
 21
768.071242429
  0
LINE
  5
39A
100
AcDbEntity
  8
ボルトナット
  6
CONTINUOUS
 62
     0
100
AcDbLine
 10
1495.437222173
 20
768.071242429
 11
1491.137172173
 21
768.071242429
  0
LINE
  5
39B
100
AcDbEntity
  8
ボルトナット
  6
CONTINUOUS
 62
     0
100
AcDbLine
 10
1495.437222173
 20
767.071242429
 11
1492.137172173
 21
767.071242429
  0
LINE
  5
39C
100
AcDbEntity
  8
ボルトナット
  6
CONTINUOUS
 62
     0
100
AcDbLine
 10
1491.137162173
 20
768.071252429
 11
1492.137162173
 21
767.071252429
  0
ARC
  5
39D
100
AcDbEntity
  8
ボルトナット
  6
CONTINUOUS
 62
     0
100
AcDbCircle
 10
1498.357202173
 20
765.471242429
 40
2.9199991
100
AcDbArc
 50
131.11215
 51
179.99996
  0
LINE
  5
39E
100
AcDbEntity
  8
ボルトナット
  6
CONTINUOUS
 62
     0
100
AcDbLine
 10
1495.437182173
 20
765.471212429
 11
1496.707352173
 21
763.271212429
  0
LINE
  5
39F
100
AcDbEntity
  8
ボルトナット
  6
CONTINUOUS
 62
     0
100
AcDbLine
 10
1495.437222173
 20
776.071242429
 11
1491.137172173
 21
776.071242429
  0
LINE
  5
3A0
100
AcDbEntity
  8
ボルトナット
  6
CONTINUOUS
 62
     0
100
AcDbLine
 10
1495.437222173
 20
777.071242429
 11
1492.137172173
 21
777.071242429
  0
LINE
  5
3A1
100
AcDbEntity
  8
ボルトナット
  6
CONTINUOUS
 62
     0
100
AcDbLine
 10
1492.137142173
 20
777.071242429
 11
1491.137162173
 21
776.071272429
  0
ARC
  5
3A2
100
AcDbEntity
  8
ボルトナット
  6
CONTINUOUS
 62
     0
100
AcDbCircle
 10
1498.357202173
 20
778.671252429
 40
2.9200001
100
AcDbArc
 50
179.99996
 51
228.88784
  0
LINE
  5
3A3
100
AcDbEntity
  8
ボルトナット
  6
CONTINUOUS
 62
     0
100
AcDbLine
 10
1495.437212173
 20
778.671232429
 11
1496.707392173
 21
780.871242429
  0
LINE
  5
3A4
100
AcDbEntity
  8
ボルトナット
  6
CONTINUOUS
 62
     0
100
AcDbLine
 10
1502.437222173
 20
781.271262429
 11
1502.437222173
 21
762.871222429
  0
LINE
  5
3A5
100
AcDbEntity
  8
ボルトナット
  6
CONTINUOUS
 62
     0
100
AcDbLine
 10
1506.937222173
 20
782.571242429
 11
1504.937222173
 21
782.571242429
  0
LINE
  5
3A6
100
AcDbEntity
  8
ボルトナット
  6
CENTER
 62
     0
100
AcDbLine
 10
1486.834527899
 20
772.071242429
 11
1528.55328896
 21
772.071242429
  0
LINE
  5
3A7
100
AcDbEntity
  8
ボルトナット
  6
CONTINUOUS
 62
     0
100
AcDbLine
 10
1506.937152173
 20
761.571242429
 11
1504.937152173
 21
761.571242429
  0
LINE
  5
3A8
100
AcDbEntity
  8
ボルトナット
  6
DASHED
 62
     0
100
AcDbLine
 10
1516.137172173
 20
777.071242429
 11
1504.937222173
 21
777.071242429
  0
LINE
  5
3A9
100
AcDbEntity
  8
ボルトナット
  6
DASHED
 62
     0
100
AcDbLine
 10
1516.137172173
 20
767.071242429
 11
1504.937222173
 21
767.071242429
  0
LINE
  5
3AA
100
AcDbEntity
  8
ボルトナット
  6
DASHED
 62
     0
100
AcDbLine
 10
1516.137172173
 20
782.571242429
 11
1516.137172173
 21
761.571242429
  0
ARC
  5
3AB
100
AcDbEntity
  8
ボルトナット
  6
DASHED
 62
     0
100
AcDbCircle
 10
1512.957172173
 20
772.071242429
 40
10.18
100
AcDbArc
 50
-25.60843999999
 51
25.60858200002
  0
LINE
  5
3AC
100
AcDbEntity
  8
ボルトナット
  6
DASHED
 62
     0
100
AcDbLine
 10
1523.137172173
 20
778.671252429
 11
1523.137172173
 21
765.471242429
  0
LINE
  5
3AD
100
AcDbEntity
  8
ボルトナット
  6
DASHED
 62
     0
100
AcDbLine
 10
1522.137172173
 20
776.471242429
 11
1516.137172173
 21
776.471242429
  0
LINE
  5
3AE
100
AcDbEntity
  8
ボルトナット
  6
DASHED
 62
     0
100
AcDbLine
 10
1521.867032173
 20
780.871262429
 11
1516.137172173
 21
780.871262429
  0
LINE
  5
3AF
100
AcDbEntity
  8
ボルトナット
  6
DASHED
 62
     0
100
AcDbLine
 10
1516.137172173
 20
782.571242429
 11
1514.137172173
 21
782.571242429
  0
ARC
  5
3B0
100
AcDbEntity
  8
ボルトナット
  6
DASHED
 62
     0
100
AcDbCircle
 10
1520.217182173
 20
778.671252429
 40
2.9200001
100
AcDbArc
 50
-48.88790999999
 51
1.799001359598E-005
  0
LINE
  5
3B1
100
AcDbEntity
  8
ボルトナット
  6
DASHED
 62
     0
100
AcDbLine
 10
1523.137152173
 20
778.671222429
 11
1521.866972173
 21
780.871222429
  0
LINE
  5
3B2
100
AcDbEntity
  8
ボルトナット
  6
DASHED
 62
     0
100
AcDbLine
 10
1522.137172173
 20
767.671252429
 11
1516.137172173
 21
767.671252429
  0
LINE
  5
3B3
100
AcDbEntity
  8
ボルトナット
  6
DASHED
 62
     0
100
AcDbLine
 10
1521.867032173
 20
763.271222429
 11
1516.137172173
 21
763.271222429
  0
LINE
  5
3B4
100
AcDbEntity
  8
ボルトナット
  6
DASHED
 62
     0
100
AcDbLine
 10
1516.137172173
 20
761.571242429
 11
1514.137172173
 21
761.571242429
  0
ARC
  5
3B5
100
AcDbEntity
  8
ボルトナット
  6
DASHED
 62
     0
100
AcDbCircle
 10
1520.217182173
 20
765.471242429
 40
2.9199991
100
AcDbArc
 50
7.263001663314E-005
 51
48.88790500001
  0
LINE
  5
3B6
100
AcDbEntity
  8
ボルトナット
  6
DASHED
 62
     0
100
AcDbLine
 10
1523.137162173
 20
765.471232429
 11
1521.866992173
 21
763.271222429
  0
LINE
  5
3B7
100
AcDbEntity
  8
ボルトナット
  6
CONTINUOUS
 62
     0
100
AcDbLine
 10
1504.937222173
 20
782.571242429
 11
1504.937222173
 21
761.571242429
  0
LINE
  5
3B8
100
AcDbEntity
  8
ボルトナット
  6
CONTINUOUS
 62
     0
100
AcDbLine
 10
1502.437222173
 20
762.871222429
 11
1504.937222173
 21
762.871222429
  0
LINE
  5
3B9
100
AcDbEntity
  8
ボルトナット
  6
CONTINUOUS
 62
     0
100
AcDbLine
 10
1502.437222173
 20
781.271262429
 11
1504.937222173
 21
781.271262429
  0
ENDBLK
  5
3BA
100
AcDbEntity
 67
     1
  8
ボルトナット
100
AcDbBlockEnd
  0
BLOCK
  5
3BB
100
AcDbEntity
  8
ボルトナット
100
AcDbBlockBegin
  2
BK12
 70
    64
 10
0
 20
0
  3
BK12
  1

  0
LINE
  5
3BC
100
AcDbEntity
  8
ボルトナット
  6
CONTINUOUS
 62
     0
100
AcDbLine
 10
1664.937213322
 20
980.321257429
 11
1664.937213322
 21
1001.321287429
  0
LINE
  5
3BD
100
AcDbEntity
  8
ボルトナット
  6
CONTINUOUS
 62
     0
100
AcDbLine
 10
1657.937213322
 20
984.221247429
 11
1657.937213322
 21
997.421257429
  0
ARC
  5
3BE
100
AcDbEntity
  8
ボルトナット
  6
CONTINUOUS
 62
     0
100
AcDbCircle
 10
1668.117213322
 20
990.821267429
 40
10.18
100
AcDbArc
 50
154.391533
 51
205.60855
  0
LINE
  5
3BF
100
AcDbEntity
  8
ボルトナット
  6
CONTINUOUS
 62
     0
100
AcDbLine
 10
1666.937213322
 20
980.321257429
 11
1666.937213322
 21
1001.321287429
  0
LINE
  5
3C0
100
AcDbEntity
  8
ボルトナット
  6
CONTINUOUS
 62
     0
100
AcDbLine
 10
1659.207383322
 20
982.021267429
 11
1664.937213322
 21
982.021267429
  0
LINE
  5
3C1
100
AcDbEntity
  8
ボルトナット
  6
CONTINUOUS
 62
     0
100
AcDbLine
 10
1658.937213322
 20
986.421257429
 11
1664.937213322
 21
986.421267429
  0
LINE
  5
3C2
100
AcDbEntity
  8
ボルトナット
  6
CONTINUOUS
 62
     0
100
AcDbLine
 10
1664.937213322
 20
980.321257429
 11
1666.937213322
 21
980.321257429
  0
LINE
  5
3C3
100
AcDbEntity
  8
ボルトナット
  6
CONTINUOUS
 62
     0
100
AcDbLine
 10
1657.937213322
 20
984.221287429
 11
1659.207383322
 21
982.021277429
  0
ARC
  5
3C4
100
AcDbEntity
  8
ボルトナット
  6
CONTINUOUS
 62
     0
100
AcDbCircle
 10
1660.857223322
 20
984.221287429
 40
2.9200001
100
AcDbArc
 50
131.112097
 51
180.000023
  0
LINE
  5
3C5
100
AcDbEntity
  8
ボルトナット
  6
CONTINUOUS
 62
     0
100
AcDbLine
 10
1659.207383322
 20
999.621277429
 11
1664.937223322
 21
999.621277429
  0
LINE
  5
3C6
100
AcDbEntity
  8
ボルトナット
  6
CONTINUOUS
 62
     0
100
AcDbLine
 10
1658.937223322
 20
995.221247429
 11
1664.937223322
 21
995.221247429
  0
LINE
  5
3C7
100
AcDbEntity
  8
ボルトナット
  6
CONTINUOUS
 62
     0
100
AcDbLine
 10
1664.937223322
 20
1001.321287429
 11
1666.937223322
 21
1001.321287429
  0
LINE
  5
3C8
100
AcDbEntity
  8
ボルトナット
  6
CONTINUOUS
 62
     0
100
AcDbLine
 10
1657.937213322
 20
997.421257429
 11
1659.207393322
 21
999.621257429
  0
ARC
  5
3C9
100
AcDbEntity
  8
ボルトナット
  6
CONTINUOUS
 62
     0
100
AcDbCircle
 10
1660.857223322
 20
997.421237429
 40
2.9199991
100
AcDbArc
 50
-179.999957
 51
-131.11209
  0
LINE
  5
3CA
100
AcDbEntity
  8
ボルトナット
  6
CONTINUOUS
 62
     0
100
AcDbLine
 10
1674.937213322
 20
980.321257429
 11
1674.937213322
 21
1001.321287429
  0
LINE
  5
3CB
100
AcDbEntity
  8
ボルトナット
  6
CONTINUOUS
 62
     0
100
AcDbLine
 10
1676.937213322
 20
980.321257429
 11
1676.937213322
 21
1001.321287429
  0
LINE
  5
3CC
100
AcDbEntity
  8
ボルトナット
  6
CONTINUOUS
 62
     0
100
AcDbLine
 10
1686.437213322
 20
984.221257429
 11
1686.437213322
 21
997.421267429
  0
ARC
  5
3CD
100
AcDbEntity
  8
ボルトナット
  6
CONTINUOUS
 62
     0
100
AcDbCircle
 10
1676.257213322
 20
990.821267429
 40
10.18
100
AcDbArc
 50
-25.60847999999
 51
25.60853999999
  0
LINE
  5
3CE
100
AcDbEntity
  8
ボルトナット
  6
CONTINUOUS
 62
     0
100
AcDbLine
 10
1689.937213322
 20
986.821287429
 11
1689.937213322
 21
994.821287429
  0
LINE
  5
3CF
100
AcDbEntity
  8
ボルトナット
  6
CONTINUOUS
 62
     0
100
AcDbLine
 10
1688.937213322
 20
985.821287429
 11
1688.937213322
 21
995.821287429
  0
LINE
  5
3D0
100
AcDbEntity
  8
ボルトナット
  6
CONTINUOUS
 62
     0
100
AcDbLine
 10
1686.437213322
 20
985.821287429
 11
1688.937213322
 21
985.821287429
  0
LINE
  5
3D1
100
AcDbEntity
  8
ボルトナット
  6
CONTINUOUS
 62
     0
100
AcDbLine
 10
1686.437213322
 20
986.821287429
 11
1689.937213322
 21
986.821287429
  0
LINE
  5
3D2
100
AcDbEntity
  8
ボルトナット
  6
CONTINUOUS
 62
     0
100
AcDbLine
 10
1688.937213322
 20
985.821257429
 11
1689.937223322
 21
986.821257429
  0
LINE
  5
3D3
100
AcDbEntity
  8
ボルトナット
  6
CONTINUOUS
 62
     0
100
AcDbLine
 10
1674.937213322
 20
980.321257429
 11
1676.937213322
 21
980.321257429
  0
LINE
  5
3D4
100
AcDbEntity
  8
ボルトナット
  6
CONTINUOUS
 62
     0
100
AcDbLine
 10
1686.437233322
 20
984.221267429
 11
1685.167063322
 21
982.021267429
  0
ARC
  5
3D5
100
AcDbEntity
  8
ボルトナット
  6
CONTINUOUS
 62
     0
100
AcDbCircle
 10
1683.517223322
 20
984.221287429
 40
2.9200001
100
AcDbArc
 50
0
 51
48.8879
  0
LINE
  5
3D6
100
AcDbEntity
  8
ボルトナット
  6
CONTINUOUS
 62
     0
100
AcDbLine
 10
1685.437213322
 20
986.421267429
 11
1679.437213322
 21
986.421267429
  0
LINE
  5
3D7
100
AcDbEntity
  8
ボルトナット
  6
CONTINUOUS
 62
     0
100
AcDbLine
 10
1685.167053322
 20
982.021267429
 11
1679.437213322
 21
982.021267429
  0
LINE
  5
3D8
100
AcDbEntity
  8
ボルトナット
  6
CONTINUOUS
 62
     0
100
AcDbLine
 10
1686.437213322
 20
995.821287429
 11
1688.937223322
 21
995.821287429
  0
LINE
  5
3D9
100
AcDbEntity
  8
ボルトナット
  6
CONTINUOUS
 62
     0
100
AcDbLine
 10
1686.437213322
 20
994.821287429
 11
1689.937223322
 21
994.821287429
  0
LINE
  5
3DA
100
AcDbEntity
  8
ボルトナット
  6
CONTINUOUS
 62
     0
100
AcDbLine
 10
1689.937243322
 20
994.821247429
 11
1688.937213322
 21
995.821267429
  0
LINE
  5
3DB
100
AcDbEntity
  8
ボルトナット
  6
CONTINUOUS
 62
     0
100
AcDbLine
 10
1686.437223322
 20
997.421257429
 11
1685.167053322
 21
999.621257429
  0
ARC
  5
3DC
100
AcDbEntity
  8
ボルトナット
  6
CONTINUOUS
 62
     0
100
AcDbCircle
 10
1683.517223322
 20
997.421237429
 40
2.9199991
100
AcDbArc
 50
-48.88783999999
 51
0
  0
LINE
  5
3DD
100
AcDbEntity
  8
ボルトナット
  6
CONTINUOUS
 62
     0
100
AcDbLine
 10
1685.437213322
 20
995.221257429
 11
1679.437213322
 21
995.221247429
  0
LINE
  5
3DE
100
AcDbEntity
  8
ボルトナット
  6
CONTINUOUS
 62
     0
100
AcDbLine
 10
1674.937213322
 20
1001.321287429
 11
1676.937213322
 21
1001.321287429
  0
LINE
  5
3DF
100
AcDbEntity
  8
ボルトナット
  6
CONTINUOUS
 62
     0
100
AcDbLine
 10
1685.167053322
 20
999.621277429
 11
1679.437213322
 21
999.621277429
  0
LINE
  5
3E0
100
AcDbEntity
  8
ボルトナット
  6
CENTER
 62
     0
100
AcDbLine
 10
1653.99355359
 20
990.821272429
 11
1694.406523491
 21
990.821272429
  0
LINE
  5
3E1
100
AcDbEntity
  8
ボルトナット
  6
DASHED
 62
     0
100
AcDbLine
 10
1664.937213322
 20
985.821287429
 11
1676.937213322
 21
985.821287429
  0
LINE
  5
3E2
100
AcDbEntity
  8
ボルトナット
  6
DASHED
 62
     0
100
AcDbLine
 10
1664.937213322
 20
995.821287429
 11
1676.937213322
 21
995.821287429
  0
LINE
  5
3E3
100
AcDbEntity
  8
ボルトナット
  6
CONTINUOUS
 62
     0
100
AcDbLine
 10
1679.437213322
 20
1000.021277429
 11
1676.937213322
 21
1000.021277429
  0
LINE
  5
3E4
100
AcDbEntity
  8
ボルトナット
  6
CONTINUOUS
 62
     0
100
AcDbLine
 10
1679.437213322
 20
981.621267429
 11
1676.937213322
 21
981.621267429
  0
LINE
  5
3E5
100
AcDbEntity
  8
ボルトナット
  6
CONTINUOUS
 62
     0
100
AcDbLine
 10
1679.437213322
 20
981.621267429
 11
1679.437213322
 21
1000.021277429
  0
ENDBLK
  5
3E6
100
AcDbEntity
 67
     1
  8
ボルトナット
100
AcDbBlockEnd
  0
BLOCK
  5
3E7
100
AcDbEntity
  8
ボルトナット
100
AcDbBlockBegin
  2
BK13
 70
    64
 10
0
 20
0
  3
BK13
  1

  0
LINE
  5
3E8
100
AcDbEntity
  8
ボルトナット
  6
DASHED
 62
     0
100
AcDbLine
 10
994.42
 20
801.6091210715
 11
994.42
 21
822.6091210715
  0
LINE
  5
3E9
100
AcDbEntity
  8
ボルトナット
  6
DASHED
 62
     0
100
AcDbLine
 10
981.62001
 20
807.1091210715
 11
981.62001
 21
817.1091210715
  0
LINE
  5
3EA
100
AcDbEntity
  8
ボルトナット
  6
DASHED
 62
     0
100
AcDbLine
 10
984.92
 20
805.5091210715
 11
984.92
 21
818.7091210715
  0
ARC
  5
3EB
100
AcDbEntity
  8
ボルトナット
  6
DASHED
 62
     0
100
AcDbCircle
 10
995.09999
 20
812.1091210715
 40
10.18
100
AcDbArc
 50
154.39147
 51
205.60849
  0
LINE
  5
3EC
100
AcDbEntity
  8
ボルトナット
  6
DASHED
 62
     0
100
AcDbLine
 10
985.92
 20
807.7091210715
 11
991.92
 21
807.7091210715
  0
LINE
  5
3ED
100
AcDbEntity
  8
ボルトナット
  6
DASHED
 62
     0
100
AcDbLine
 10
986.19017
 20
803.3091210715
 11
991.92
 21
803.3091210715
  0
LINE
  5
3EE
100
AcDbEntity
  8
ボルトナット
  6
DASHED
 62
     0
100
AcDbLine
 10
984.92
 20
807.1091210715
 11
981.62001
 21
807.1091210715
  0
LINE
  5
3EF
100
AcDbEntity
  8
ボルトナット
  6
DASHED
 62
     0
100
AcDbLine
 10
984.92
 20
808.1091210715
 11
981.62001
 21
808.1091210715
  0
LINE
  5
3F0
100
AcDbEntity
  8
ボルトナット
  6
DASHED
 62
     0
100
AcDbLine
 10
984.92002
 20
805.5091310715
 11
986.19019
 21
803.3091310715
  0
ARC
  5
3F1
100
AcDbEntity
  8
ボルトナット
  6
DASHED
 62
     0
100
AcDbCircle
 10
987.83998
 20
805.5091210715
 40
2.9200001
100
AcDbArc
 50
131.11211
 51
180.00001
  0
LINE
  5
3F2
100
AcDbEntity
  8
ボルトナット
  6
DASHED
 62
     0
100
AcDbLine
 10
996.42
 20
801.6091210715
 11
994.42
 21
801.6091210715
  0
LINE
  5
3F3
100
AcDbEntity
  8
ボルトナット
  6
DASHED
 62
     0
100
AcDbLine
 10
986.19017
 20
820.9091210715
 11
991.92
 21
820.9091210715
  0
LINE
  5
3F4
100
AcDbEntity
  8
ボルトナット
  6
DASHED
 62
     0
100
AcDbLine
 10
985.92
 20
816.5091210715
 11
991.92
 21
816.5091210715
  0
LINE
  5
3F5
100
AcDbEntity
  8
ボルトナット
  6
DASHED
 62
     0
100
AcDbLine
 10
984.92
 20
817.1091210715
 11
981.62001
 21
817.1091210715
  0
LINE
  5
3F6
100
AcDbEntity
  8
ボルトナット
  6
DASHED
 62
     0
100
AcDbLine
 10
984.92
 20
816.1091210715
 11
981.62001
 21
816.1091210715
  0
LINE
  5
3F7
100
AcDbEntity
  8
ボルトナット
  6
DASHED
 62
     0
100
AcDbLine
 10
984.92001
 20
818.7091310715
 11
986.19019
 21
820.9091310715
  0
ARC
  5
3F8
100
AcDbEntity
  8
ボルトナット
  6
DASHED
 62
     0
100
AcDbCircle
 10
987.83998
 20
818.7091210715
 40
2.9199991
100
AcDbArc
 50
179.99999
 51
228.88784
  0
LINE
  5
3F9
100
AcDbEntity
  8
ボルトナット
  6
DASHED
 62
     0
100
AcDbLine
 10
996.42
 20
822.6091210715
 11
994.42
 21
822.6091210715
  0
LINE
  5
3FA
100
AcDbEntity
  8
ボルトナット
  6
CONTINUOUS
 62
     0
100
AcDbLine
 10
1011.34984
 20
820.9091210715
 11
1005.62001
 21
820.9091210715
  0
LINE
  5
3FB
100
AcDbEntity
  8
ボルトナット
  6
CONTINUOUS
 62
     0
100
AcDbLine
 10
1011.62001
 20
816.5091210715
 11
1005.62001
 21
816.5091210715
  0
LINE
  5
3FC
100
AcDbEntity
  8
ボルトナット
  6
CONTINUOUS
 62
     0
100
AcDbLine
 10
1011.34984
 20
803.3091210715
 11
1005.62001
 21
803.3091210715
  0
LINE
  5
3FD
100
AcDbEntity
  8
ボルトナット
  6
CONTINUOUS
 62
     0
100
AcDbLine
 10
1011.62001
 20
807.7091210715
 11
1005.62001
 21
807.7091210715
  0
LINE
  5
3FE
100
AcDbEntity
  8
ボルトナット
  6
CONTINUOUS
 62
     0
100
AcDbLine
 10
1005.62001
 20
801.6091210715
 11
1005.62001
 21
822.6091210715
  0
LINE
  5
3FF
100
AcDbEntity
  8
ボルトナット
  6
CONTINUOUS
 62
     0
100
AcDbLine
 10
1003.62001
 20
801.6091210715
 11
1003.62001
 21
822.6091210715
  0
LINE
  5
400
100
AcDbEntity
  8
ボルトナット
  6
CONTINUOUS
 62
     0
100
AcDbLine
 10
1005.62001
 20
801.6091210715
 11
1003.62001
 21
801.6091210715
  0
LINE
  5
401
100
AcDbEntity
  8
ボルトナット
  6
CONTINUOUS
 62
     0
100
AcDbLine
 10
1005.62001
 20
822.6091210715
 11
1003.62001
 21
822.6091210715
  0
LINE
  5
402
100
AcDbEntity
  8
ボルトナット
  6
CONTINUOUS
 62
     0
100
AcDbLine
 10
1012.62001
 20
805.5091210715
 11
1012.62001
 21
818.7091210715
  0
ARC
  5
403
100
AcDbEntity
  8
ボルトナット
  6
CONTINUOUS
 62
     0
100
AcDbCircle
 10
1002.43999
 20
812.1091210715
 40
10.18
100
AcDbArc
 50
-25.60855000001
 51
25.60847400001
  0
LINE
  5
404
100
AcDbEntity
  8
ボルトナット
  6
CONTINUOUS
 62
     0
100
AcDbLine
 10
1012.62001
 20
805.5091110715
 11
1011.34986
 21
803.3091310715
  0
ARC
  5
405
100
AcDbEntity
  8
ボルトナット
  6
CONTINUOUS
 62
     0
100
AcDbCircle
 10
1009.7
 20
805.5091210715
 40
2.9200001
100
AcDbArc
 50
-2.00000398752E-005
 51
48.88790899995
  0
LINE
  5
406
100
AcDbEntity
  8
ボルトナット
  6
CONTINUOUS
 62
     0
100
AcDbLine
 10
1012.62001
 20
818.7091210715
 11
1011.34984
 21
820.9091210715
  0
ARC
  5
407
100
AcDbEntity
  8
ボルトナット
  6
CONTINUOUS
 62
     0
100
AcDbCircle
 10
1009.7
 20
818.7091210715
 40
2.9199991
100
AcDbArc
 50
-48.88790999998
 51
-4.00000220652E-005
  0
LINE
  5
408
100
AcDbEntity
  8
ボルトナット
  6
DASHED
 62
     0
100
AcDbLine
 10
1005.62001
 20
807.1091210715
 11
994.42
 21
807.1091210715
  0
LINE
  5
409
100
AcDbEntity
  8
ボルトナット
  6
DASHED
 62
     0
100
AcDbLine
 10
1005.62001
 20
817.1091210715
 11
994.42
 21
817.1091210715
  0
LINE
  5
40A
100
AcDbEntity
  8
ボルトナット
  6
DASHED
 62
     0
100
AcDbLine
 10
980.62001
 20
808.1091210715
 11
980.62001
 21
816.1091210715
  0
LINE
  5
40B
100
AcDbEntity
  8
ボルトナット
  6
DASHED
 62
     0
100
AcDbLine
 10
980.62
 20
816.1091110715
 11
981.62
 21
817.1091110715
  0
LINE
  5
40C
100
AcDbEntity
  8
ボルトナット
  6
CONTINUOUS
 62
     0
100
AcDbLine
 10
981.61999
 20
807.1091110715
 11
980.61999
 21
808.1091210715
  0
LINE
  5
40D
100
AcDbEntity
  8
ボルトナット
  6
CENTER
 62
     0
100
AcDbLine
 10
977.0896675428
 20
812.1091210715
 11
1018.036172163
 21
812.1091210715
  0
LINE
  5
40E
100
AcDbEntity
  8
ボルトナット
  6
DASHED
 62
     0
100
AcDbLine
 10
991.92
 20
802.9091210715
 11
991.92
 21
821.3091210715
  0
LINE
  5
40F
100
AcDbEntity
  8
ボルトナット
  6
DASHED
 62
     0
100
AcDbLine
 10
991.92
 20
821.3091210715
 11
994.42
 21
821.3091210715
  0
LINE
  5
410
100
AcDbEntity
  8
ボルトナット
  6
DASHED
 62
     0
100
AcDbLine
 10
991.92
 20
802.9091210715
 11
994.42
 21
802.9091210715
  0
ENDBLK
  5
411
100
AcDbEntity
 67
     1
  8
ボルトナット
100
AcDbBlockEnd
  0
BLOCK
  5
412
100
AcDbEntity
  8
ボルトナット
100
AcDbBlockBegin
  2
BK14
 70
    64
 10
0
 20
0
  3
BK14
  1

  0
LINE
  5
413
100
AcDbEntity
  8
ボルトナット
  6
DASHED
 62
     0
100
AcDbLine
 10
994.42
 20
1001.609123072
 11
994.42
 21
1022.609123072
  0
LINE
  5
414
100
AcDbEntity
  8
ボルトナット
  6
DASHED
 62
     0
100
AcDbLine
 10
981.62001
 20
1007.109123072
 11
981.62001
 21
1017.109123072
  0
LINE
  5
415
100
AcDbEntity
  8
ボルトナット
  6
DASHED
 62
     0
100
AcDbLine
 10
984.92
 20
1005.509123072
 11
984.92
 21
1018.709123072
  0
ARC
  5
416
100
AcDbEntity
  8
ボルトナット
  6
DASHED
 62
     0
100
AcDbCircle
 10
995.09999
 20
1012.109123072
 40
10.18
100
AcDbArc
 50
154.39147
 51
205.60849
  0
LINE
  5
417
100
AcDbEntity
  8
ボルトナット
  6
DASHED
 62
     0
100
AcDbLine
 10
985.92
 20
1007.709123072
 11
991.92
 21
1007.709123072
  0
LINE
  5
418
100
AcDbEntity
  8
ボルトナット
  6
DASHED
 62
     0
100
AcDbLine
 10
986.19017
 20
1003.309123072
 11
991.92
 21
1003.309123072
  0
LINE
  5
419
100
AcDbEntity
  8
ボルトナット
  6
DASHED
 62
     0
100
AcDbLine
 10
984.92
 20
1007.109123072
 11
981.62001
 21
1007.109123072
  0
LINE
  5
41A
100
AcDbEntity
  8
ボルトナット
  6
DASHED
 62
     0
100
AcDbLine
 10
984.92
 20
1008.109123072
 11
981.62001
 21
1008.109123072
  0
LINE
  5
41B
100
AcDbEntity
  8
ボルトナット
  6
DASHED
 62
     0
100
AcDbLine
 10
984.92002
 20
1005.509133072
 11
986.19019
 21
1003.309133072
  0
ARC
  5
41C
100
AcDbEntity
  8
ボルトナット
  6
DASHED
 62
     0
100
AcDbCircle
 10
987.83998
 20
1005.509123072
 40
2.9200001
100
AcDbArc
 50
131.11211
 51
180.00001
  0
LINE
  5
41D
100
AcDbEntity
  8
ボルトナット
  6
DASHED
 62
     0
100
AcDbLine
 10
996.42
 20
1001.609123072
 11
994.42
 21
1001.609123072
  0
LINE
  5
41E
100
AcDbEntity
  8
ボルトナット
  6
DASHED
 62
     0
100
AcDbLine
 10
986.19017
 20
1020.909123072
 11
991.92
 21
1020.909123072
  0
LINE
  5
41F
100
AcDbEntity
  8
ボルトナット
  6
DASHED
 62
     0
100
AcDbLine
 10
985.92
 20
1016.509123072
 11
991.92
 21
1016.509123072
  0
LINE
  5
420
100
AcDbEntity
  8
ボルトナット
  6
DASHED
 62
     0
100
AcDbLine
 10
984.92
 20
1017.109123072
 11
981.62001
 21
1017.109123072
  0
LINE
  5
421
100
AcDbEntity
  8
ボルトナット
  6
DASHED
 62
     0
100
AcDbLine
 10
984.92
 20
1016.109123072
 11
981.62001
 21
1016.109123072
  0
LINE
  5
422
100
AcDbEntity
  8
ボルトナット
  6
DASHED
 62
     0
100
AcDbLine
 10
984.92001
 20
1018.709133072
 11
986.19019
 21
1020.909133072
  0
ARC
  5
423
100
AcDbEntity
  8
ボルトナット
  6
DASHED
 62
     0
100
AcDbCircle
 10
987.83998
 20
1018.709123072
 40
2.9199991
100
AcDbArc
 50
179.99999
 51
228.88784
  0
LINE
  5
424
100
AcDbEntity
  8
ボルトナット
  6
DASHED
 62
     0
100
AcDbLine
 10
996.42
 20
1022.609123072
 11
994.42
 21
1022.609123072
  0
LINE
  5
425
100
AcDbEntity
  8
ボルトナット
  6
CONTINUOUS
 62
     0
100
AcDbLine
 10
1011.34984
 20
1020.909123072
 11
1005.62001
 21
1020.909123072
  0
LINE
  5
426
100
AcDbEntity
  8
ボルトナット
  6
CONTINUOUS
 62
     0
100
AcDbLine
 10
1011.62001
 20
1016.509123072
 11
1005.62001
 21
1016.509123072
  0
LINE
  5
427
100
AcDbEntity
  8
ボルトナット
  6
CONTINUOUS
 62
     0
100
AcDbLine
 10
1011.34984
 20
1003.309123072
 11
1005.62001
 21
1003.309123072
  0
LINE
  5
428
100
AcDbEntity
  8
ボルトナット
  6
CONTINUOUS
 62
     0
100
AcDbLine
 10
1011.62001
 20
1007.709123072
 11
1005.62001
 21
1007.709123072
  0
LINE
  5
429
100
AcDbEntity
  8
ボルトナット
  6
CONTINUOUS
 62
     0
100
AcDbLine
 10
1005.62001
 20
1001.609123072
 11
1005.62001
 21
1022.609123072
  0
LINE
  5
42A
100
AcDbEntity
  8
ボルトナット
  6
CONTINUOUS
 62
     0
100
AcDbLine
 10
1003.62001
 20
1001.609123072
 11
1003.62001
 21
1022.609123072
  0
LINE
  5
42B
100
AcDbEntity
  8
ボルトナット
  6
CONTINUOUS
 62
     0
100
AcDbLine
 10
1005.62001
 20
1001.609123072
 11
1003.62001
 21
1001.609123072
  0
LINE
  5
42C
100
AcDbEntity
  8
ボルトナット
  6
CONTINUOUS
 62
     0
100
AcDbLine
 10
1005.62001
 20
1022.609123072
 11
1003.62001
 21
1022.609123072
  0
LINE
  5
42D
100
AcDbEntity
  8
ボルトナット
  6
CONTINUOUS
 62
     0
100
AcDbLine
 10
1012.62001
 20
1005.509123072
 11
1012.62001
 21
1018.709123072
  0
ARC
  5
42E
100
AcDbEntity
  8
ボルトナット
  6
CONTINUOUS
 62
     0
100
AcDbCircle
 10
1002.43999
 20
1012.109123072
 40
10.18
100
AcDbArc
 50
-25.60855000001
 51
25.60847400001
  0
LINE
  5
42F
100
AcDbEntity
  8
ボルトナット
  6
CONTINUOUS
 62
     0
100
AcDbLine
 10
1012.62001
 20
1005.509113072
 11
1011.34986
 21
1003.309133072
  0
ARC
  5
430
100
AcDbEntity
  8
ボルトナット
  6
CONTINUOUS
 62
     0
100
AcDbCircle
 10
1009.7
 20
1005.509123072
 40
2.9200001
100
AcDbArc
 50
-2.000000418328E-005
 51
48.88790899995
  0
LINE
  5
431
100
AcDbEntity
  8
ボルトナット
  6
CONTINUOUS
 62
     0
100
AcDbLine
 10
1012.62001
 20
1018.709123072
 11
1011.34984
 21
1020.909123072
  0
ARC
  5
432
100
AcDbEntity
  8
ボルトナット
  6
CONTINUOUS
 62
     0
100
AcDbCircle
 10
1009.7
 20
1018.709123072
 40
2.9199991
100
AcDbArc
 50
-48.88790999998
 51
-3.999995068133E-005
  0
LINE
  5
433
100
AcDbEntity
  8
ボルトナット
  6
DASHED
 62
     0
100
AcDbLine
 10
1005.62001
 20
1007.109123072
 11
994.42
 21
1007.109123072
  0
LINE
  5
434
100
AcDbEntity
  8
ボルトナット
  6
DASHED
 62
     0
100
AcDbLine
 10
1005.62001
 20
1017.109123072
 11
994.42
 21
1017.109123072
  0
LINE
  5
435
100
AcDbEntity
  8
ボルトナット
  6
DASHED
 62
     0
100
AcDbLine
 10
980.62001
 20
1008.109123072
 11
980.62001
 21
1016.109123072
  0
LINE
  5
436
100
AcDbEntity
  8
ボルトナット
  6
DASHED
 62
     0
100
AcDbLine
 10
980.62
 20
1016.109113072
 11
981.62
 21
1017.109113072
  0
LINE
  5
437
100
AcDbEntity
  8
ボルトナット
  6
CONTINUOUS
 62
     0
100
AcDbLine
 10
981.61999
 20
1007.109113072
 11
980.61999
 21
1008.109123072
  0
LINE
  5
438
100
AcDbEntity
  8
ボルトナット
  6
CENTER
 62
     0
100
AcDbLine
 10
977.0896675428
 20
1012.109123072
 11
1018.036172163
 21
1012.109123072
  0
LINE
  5
439
100
AcDbEntity
  8
ボルトナット
  6
DASHED
 62
     0
100
AcDbLine
 10
991.92
 20
1002.909123072
 11
991.92
 21
1021.309123072
  0
LINE
  5
43A
100
AcDbEntity
  8
ボルトナット
  6
DASHED
 62
     0
100
AcDbLine
 10
991.92
 20
1021.309123072
 11
994.42
 21
1021.309123072
  0
LINE
  5
43B
100
AcDbEntity
  8
ボルトナット
  6
DASHED
 62
     0
100
AcDbLine
 10
991.92
 20
1002.909123072
 11
994.42
 21
1002.909123072
  0
ENDBLK
  5
43C
100
AcDbEntity
 67
     1
  8
ボルトナット
100
AcDbBlockEnd
  0
BLOCK
  5
43D
100
AcDbEntity
  8
取付金具
100
AcDbBlockBegin
  2
BK15
 70
    64
 10
0
 20
0
  3
BK15
  1

  0
LINE
  5
43E
100
AcDbEntity
  8
取付金具
  6
CONTINUOUS
 62
     0
100
AcDbLine
 10
934.12
 20
1097.959123072
 11
931.42
 21
1097.959123072
  0
ARC
  5
43F
100
AcDbEntity
  8
取付金具
  6
CONTINUOUS
 62
     0
100
AcDbCircle
 10
931.42
 20
1098.259123072
 40
0.3
100
AcDbArc
 50
180
 51
270
  0
LINE
  5
440
100
AcDbEntity
  8
取付金具
  6
CONTINUOUS
 62
     0
100
AcDbLine
 10
931.12
 20
1098.259123072
 11
931.12
 21
1099.159123072
  0
ARC
  5
441
100
AcDbEntity
  8
取付金具
  6
CONTINUOUS
 62
     0
100
AcDbCircle
 10
931.42
 20
1099.159123072
 40
0.3
100
AcDbArc
 50
90
 51
180
  0
LINE
  5
442
100
AcDbEntity
  8
取付金具
  6
CONTINUOUS
 62
     0
100
AcDbLine
 10
931.42
 20
1099.459123072
 11
934.12
 21
1099.459123072
  0
LINE
  5
443
100
AcDbEntity
  8
取付金具
  6
CONTINUOUS
 62
     0
100
AcDbLine
 10
934.12
 20
1099.459123072
 11
934.12
 21
1109.759123072
  0
LINE
  5
444
100
AcDbEntity
  8
取付金具
  6
CONTINUOUS
 62
     0
100
AcDbLine
 10
934.12
 20
1109.759123072
 11
931.42
 21
1109.759123072
  0
ARC
  5
445
100
AcDbEntity
  8
取付金具
  6
CONTINUOUS
 62
     0
100
AcDbCircle
 10
931.42
 20
1110.059123072
 40
0.3
100
AcDbArc
 50
180
 51
270
  0
LINE
  5
446
100
AcDbEntity
  8
取付金具
  6
CONTINUOUS
 62
     0
100
AcDbLine
 10
931.12
 20
1110.059123072
 11
931.12
 21
1110.959123072
  0
ARC
  5
447
100
AcDbEntity
  8
取付金具
  6
CONTINUOUS
 62
     0
100
AcDbCircle
 10
931.42
 20
1110.959123072
 40
0.3
100
AcDbArc
 50
90
 51
180
  0
LINE
  5
448
100
AcDbEntity
  8
取付金具
  6
CONTINUOUS
 62
     0
100
AcDbLine
 10
931.42
 20
1111.259123072
 11
934.12
 21
1111.259123072
  0
LINE
  5
449
100
AcDbEntity
  8
取付金具
  6
CONTINUOUS
 62
     0
100
AcDbLine
 10
934.12
 20
1111.259123072
 11
934.12
 21
1111.609123072
  0
ARC
  5
44A
100
AcDbEntity
  8
取付金具
  6
CONTINUOUS
 62
     0
100
AcDbCircle
 10
935.12
 20
1111.609123072
 40
1
100
AcDbArc
 50
90
 51
180
  0
LINE
  5
44B
100
AcDbEntity
  8
取付金具
  6
CONTINUOUS
 62
     0
100
AcDbLine
 10
935.12
 20
1112.609123072
 11
938.42
 21
1112.609123072
  0
ARC
  5
44C
100
AcDbEntity
  8
取付金具
  6
CONTINUOUS
 62
     0
100
AcDbCircle
 10
938.42
 20
1112.109123072
 40
0.5
100
AcDbArc
 50
0
 51
90
  0
LINE
  5
44D
100
AcDbEntity
  8
取付金具
  6
CONTINUOUS
 62
     0
100
AcDbLine
 10
938.92
 20
1112.109123072
 11
938.92
 21
1111.309123072
  0
ARC
  5
44E
100
AcDbEntity
  8
取付金具
  6
CONTINUOUS
 62
     0
100
AcDbCircle
 10
938.42
 20
1111.309123072
 40
0.5
100
AcDbArc
 50
-90
 51
0
  0
LINE
  5
44F
100
AcDbEntity
  8
取付金具
  6
CONTINUOUS
 62
     0
100
AcDbLine
 10
938.42
 20
1110.809123072
 11
937.42
 21
1110.809123072
  0
LINE
  5
450
100
AcDbEntity
  8
取付金具
  6
CONTINUOUS
 62
     0
100
AcDbLine
 10
937.42
 20
1110.809123072
 11
937.42
 21
1109.109123072
  0
ARC
  5
451
100
AcDbEntity
  8
取付金具
  6
CONTINUOUS
 62
     0
100
AcDbCircle
 10
937.92
 20
1109.109123072
 40
0.5
100
AcDbArc
 50
180
 51
270
  0
LINE
  5
452
100
AcDbEntity
  8
取付金具
  6
CONTINUOUS
 62
     0
100
AcDbLine
 10
937.92
 20
1108.609123072
 11
939.620005
 21
1108.609123072
  0
ARC
  5
453
100
AcDbEntity
  8
取付金具
  6
CONTINUOUS
 62
     0
100
AcDbCircle
 10
939.620005
 20
1108.109123072
 40
0.5
100
AcDbArc
 50
0
 51
90
  0
LINE
  5
454
100
AcDbEntity
  8
取付金具
  6
CONTINUOUS
 62
     0
100
AcDbLine
 10
940.120005
 20
1108.109123072
 11
940.120005
 21
1105.128738314
  0
LINE
  5
455
100
AcDbEntity
  8
取付金具
  6
CONTINUOUS
 62
     0
100
AcDbLine
 10
940.120005
 20
1105.128738314
 11
939.820005
 21
1104.609123072
  0
LINE
  5
456
100
AcDbEntity
  8
取付金具
  6
CONTINUOUS
 62
     0
100
AcDbLine
 10
939.820005
 20
1104.609123072
 11
940.120005
 21
1104.089507829
  0
LINE
  5
457
100
AcDbEntity
  8
取付金具
  6
CONTINUOUS
 62
     0
100
AcDbLine
 10
940.120005
 20
1104.089507829
 11
940.120005
 21
1101.109123072
  0
ARC
  5
458
100
AcDbEntity
  8
取付金具
  6
CONTINUOUS
 62
     0
100
AcDbCircle
 10
939.620005
 20
1101.109123072
 40
0.5
100
AcDbArc
 50
-90
 51
0
  0
LINE
  5
459
100
AcDbEntity
  8
取付金具
  6
CONTINUOUS
 62
     0
100
AcDbLine
 10
939.620005
 20
1100.609123072
 11
937.92
 21
1100.609123072
  0
ARC
  5
45A
100
AcDbEntity
  8
取付金具
  6
CONTINUOUS
 62
     0
100
AcDbCircle
 10
937.92
 20
1100.109123072
 40
0.5
100
AcDbArc
 50
90
 51
180
  0
LINE
  5
45B
100
AcDbEntity
  8
取付金具
  6
CONTINUOUS
 62
     0
100
AcDbLine
 10
937.42
 20
1100.109123072
 11
937.42
 21
1098.409123072
  0
LINE
  5
45C
100
AcDbEntity
  8
取付金具
  6
CONTINUOUS
 62
     0
100
AcDbLine
 10
937.42
 20
1098.409123072
 11
938.42
 21
1098.409123072
  0
ARC
  5
45D
100
AcDbEntity
  8
取付金具
  6
CONTINUOUS
 62
     0
100
AcDbCircle
 10
938.42
 20
1097.909123072
 40
0.5
100
AcDbArc
 50
0
 51
90
  0
LINE
  5
45E
100
AcDbEntity
  8
取付金具
  6
CONTINUOUS
 62
     0
100
AcDbLine
 10
938.92
 20
1097.909123072
 11
938.92
 21
1097.109123072
  0
ARC
  5
45F
100
AcDbEntity
  8
取付金具
  6
CONTINUOUS
 62
     0
100
AcDbCircle
 10
938.42
 20
1097.109123072
 40
0.5
100
AcDbArc
 50
-90
 51
0
  0
LINE
  5
460
100
AcDbEntity
  8
取付金具
  6
CONTINUOUS
 62
     0
100
AcDbLine
 10
938.42
 20
1096.609123072
 11
935.12
 21
1096.609123072
  0
ARC
  5
461
100
AcDbEntity
  8
取付金具
  6
CONTINUOUS
 62
     0
100
AcDbCircle
 10
935.12
 20
1097.609123072
 40
1
100
AcDbArc
 50
180
 51
270
  0
LINE
  5
462
100
AcDbEntity
  8
取付金具
  6
CONTINUOUS
 62
     0
100
AcDbLine
 10
934.12
 20
1097.609123072
 11
934.12
 21
1097.959123072
  0
LINE
  5
463
100
AcDbEntity
  8
取付金具
  6
DOT
 62
     0
100
AcDbLine
 10
934.12
 20
1107.609154712
 11
940.12
 21
1107.609110852
  0
LINE
  5
464
100
AcDbEntity
  8
取付金具
  6
DOT
 62
     0
100
AcDbLine
 10
934.12
 20
1101.609154712
 11
940.12
 21
1101.609110852
  0
LINE
  5
465
100
AcDbEntity
  8
取付金具
  6
DOT
 62
     0
100
AcDbLine
 10
940.120005
 20
1107.069123072
 11
934.12
 21
1107.069123072
  0
LINE
  5
466
100
AcDbEntity
  8
取付金具
  6
DOT
 62
     0
100
AcDbLine
 10
940.120005
 20
1102.149123072
 11
934.12
 21
1102.149123072
  0
LINE
  5
467
100
AcDbEntity
  8
取付金具
  6
CENTER
 62
     0
100
AcDbLine
 10
929.12
 20
1104.609123072
 11
942.120005
 21
1104.609123072
  0
ENDBLK
  5
468
100
AcDbEntity
 67
     1
  8
取付金具
100
AcDbBlockEnd
  0
BLOCK
  5
469
100
AcDbEntity
  8
取付金具
100
AcDbBlockBegin
  2
BK16
 70
    64
 10
0
 20
0
  3
BK16
  1

  0
LINE
  5
46A
100
AcDbEntity
  8
取付金具
  6
CONTINUOUS
 62
     0
100
AcDbLine
 10
934.12
 20
922.9591230715
 11
931.42
 21
922.9591230715
  0
ARC
  5
46B
100
AcDbEntity
  8
取付金具
  6
CONTINUOUS
 62
     0
100
AcDbCircle
 10
931.42
 20
923.2591230715
 40
0.3
100
AcDbArc
 50
180
 51
270
  0
LINE
  5
46C
100
AcDbEntity
  8
取付金具
  6
CONTINUOUS
 62
     0
100
AcDbLine
 10
931.12
 20
923.2591230715
 11
931.12
 21
924.1591230715
  0
ARC
  5
46D
100
AcDbEntity
  8
取付金具
  6
CONTINUOUS
 62
     0
100
AcDbCircle
 10
931.42
 20
924.1591230715
 40
0.3
100
AcDbArc
 50
90
 51
180
  0
LINE
  5
46E
100
AcDbEntity
  8
取付金具
  6
CONTINUOUS
 62
     0
100
AcDbLine
 10
931.42
 20
924.4591230715
 11
934.12
 21
924.4591230715
  0
LINE
  5
46F
100
AcDbEntity
  8
取付金具
  6
CONTINUOUS
 62
     0
100
AcDbLine
 10
934.12
 20
924.4591230715
 11
934.12
 21
934.7591230715
  0
LINE
  5
470
100
AcDbEntity
  8
取付金具
  6
CONTINUOUS
 62
     0
100
AcDbLine
 10
934.12
 20
934.7591230715
 11
931.42
 21
934.7591230715
  0
ARC
  5
471
100
AcDbEntity
  8
取付金具
  6
CONTINUOUS
 62
     0
100
AcDbCircle
 10
931.42
 20
935.0591230715
 40
0.3
100
AcDbArc
 50
180
 51
270
  0
LINE
  5
472
100
AcDbEntity
  8
取付金具
  6
CONTINUOUS
 62
     0
100
AcDbLine
 10
931.12
 20
935.0591230715
 11
931.12
 21
935.9591230715
  0
ARC
  5
473
100
AcDbEntity
  8
取付金具
  6
CONTINUOUS
 62
     0
100
AcDbCircle
 10
931.42
 20
935.9591230715
 40
0.3
100
AcDbArc
 50
90
 51
180
  0
LINE
  5
474
100
AcDbEntity
  8
取付金具
  6
CONTINUOUS
 62
     0
100
AcDbLine
 10
931.42
 20
936.2591230715
 11
934.12
 21
936.2591230715
  0
LINE
  5
475
100
AcDbEntity
  8
取付金具
  6
CONTINUOUS
 62
     0
100
AcDbLine
 10
934.12
 20
936.2591230715
 11
934.12
 21
936.6091230715
  0
ARC
  5
476
100
AcDbEntity
  8
取付金具
  6
CONTINUOUS
 62
     0
100
AcDbCircle
 10
935.12
 20
936.6091230715
 40
1
100
AcDbArc
 50
90
 51
180
  0
LINE
  5
477
100
AcDbEntity
  8
取付金具
  6
CONTINUOUS
 62
     0
100
AcDbLine
 10
935.12
 20
937.6091230715
 11
938.42
 21
937.6091230715
  0
ARC
  5
478
100
AcDbEntity
  8
取付金具
  6
CONTINUOUS
 62
     0
100
AcDbCircle
 10
938.42
 20
937.1091230715
 40
0.5
100
AcDbArc
 50
0
 51
90
  0
LINE
  5
479
100
AcDbEntity
  8
取付金具
  6
CONTINUOUS
 62
     0
100
AcDbLine
 10
938.92
 20
937.1091230715
 11
938.92
 21
936.3091230715
  0
ARC
  5
47A
100
AcDbEntity
  8
取付金具
  6
CONTINUOUS
 62
     0
100
AcDbCircle
 10
938.42
 20
936.3091230715
 40
0.5
100
AcDbArc
 50
-90
 51
0
  0
LINE
  5
47B
100
AcDbEntity
  8
取付金具
  6
CONTINUOUS
 62
     0
100
AcDbLine
 10
938.42
 20
935.8091230715
 11
937.42
 21
935.8091230715
  0
LINE
  5
47C
100
AcDbEntity
  8
取付金具
  6
CONTINUOUS
 62
     0
100
AcDbLine
 10
937.42
 20
935.8091230715
 11
937.42
 21
934.1091230715
  0
ARC
  5
47D
100
AcDbEntity
  8
取付金具
  6
CONTINUOUS
 62
     0
100
AcDbCircle
 10
937.92
 20
934.1091230715
 40
0.5
100
AcDbArc
 50
180
 51
270
  0
LINE
  5
47E
100
AcDbEntity
  8
取付金具
  6
CONTINUOUS
 62
     0
100
AcDbLine
 10
937.92
 20
933.6091230715
 11
939.620005
 21
933.6091230715
  0
ARC
  5
47F
100
AcDbEntity
  8
取付金具
  6
CONTINUOUS
 62
     0
100
AcDbCircle
 10
939.620005
 20
933.1091230715
 40
0.5
100
AcDbArc
 50
0
 51
90
  0
LINE
  5
480
100
AcDbEntity
  8
取付金具
  6
CONTINUOUS
 62
     0
100
AcDbLine
 10
940.120005
 20
933.1091230715
 11
940.120005
 21
930.1287383138
  0
LINE
  5
481
100
AcDbEntity
  8
取付金具
  6
CONTINUOUS
 62
     0
100
AcDbLine
 10
940.120005
 20
930.1287383138
 11
939.820005
 21
929.6091230715
  0
LINE
  5
482
100
AcDbEntity
  8
取付金具
  6
CONTINUOUS
 62
     0
100
AcDbLine
 10
939.820005
 20
929.6091230715
 11
940.120005
 21
929.0895078293
  0
LINE
  5
483
100
AcDbEntity
  8
取付金具
  6
CONTINUOUS
 62
     0
100
AcDbLine
 10
940.120005
 20
929.0895078293
 11
940.120005
 21
926.1091230715
  0
ARC
  5
484
100
AcDbEntity
  8
取付金具
  6
CONTINUOUS
 62
     0
100
AcDbCircle
 10
939.620005
 20
926.1091230715
 40
0.5
100
AcDbArc
 50
-90
 51
0
  0
LINE
  5
485
100
AcDbEntity
  8
取付金具
  6
CONTINUOUS
 62
     0
100
AcDbLine
 10
939.620005
 20
925.6091230715
 11
937.92
 21
925.6091230715
  0
ARC
  5
486
100
AcDbEntity
  8
取付金具
  6
CONTINUOUS
 62
     0
100
AcDbCircle
 10
937.92
 20
925.1091230715
 40
0.5
100
AcDbArc
 50
90
 51
180
  0
LINE
  5
487
100
AcDbEntity
  8
取付金具
  6
CONTINUOUS
 62
     0
100
AcDbLine
 10
937.42
 20
925.1091230715
 11
937.42
 21
923.4091230715
  0
LINE
  5
488
100
AcDbEntity
  8
取付金具
  6
CONTINUOUS
 62
     0
100
AcDbLine
 10
937.42
 20
923.4091230715
 11
938.42
 21
923.4091230715
  0
ARC
  5
489
100
AcDbEntity
  8
取付金具
  6
CONTINUOUS
 62
     0
100
AcDbCircle
 10
938.42
 20
922.9091230715
 40
0.5
100
AcDbArc
 50
0
 51
90
  0
LINE
  5
48A
100
AcDbEntity
  8
取付金具
  6
CONTINUOUS
 62
     0
100
AcDbLine
 10
938.92
 20
922.9091230715
 11
938.92
 21
922.1091230715
  0
ARC
  5
48B
100
AcDbEntity
  8
取付金具
  6
CONTINUOUS
 62
     0
100
AcDbCircle
 10
938.42
 20
922.1091230715
 40
0.5
100
AcDbArc
 50
-90
 51
0
  0
LINE
  5
48C
100
AcDbEntity
  8
取付金具
  6
CONTINUOUS
 62
     0
100
AcDbLine
 10
938.42
 20
921.6091230715
 11
935.12
 21
921.6091230715
  0
ARC
  5
48D
100
AcDbEntity
  8
取付金具
  6
CONTINUOUS
 62
     0
100
AcDbCircle
 10
935.12
 20
922.6091230715
 40
1
100
AcDbArc
 50
180
 51
270
  0
LINE
  5
48E
100
AcDbEntity
  8
取付金具
  6
CONTINUOUS
 62
     0
100
AcDbLine
 10
934.12
 20
922.6091230715
 11
934.12
 21
922.9591230715
  0
LINE
  5
48F
100
AcDbEntity
  8
取付金具
  6
DOT
 62
     0
100
AcDbLine
 10
934.12
 20
932.6091547119
 11
940.12
 21
932.6091108523
  0
LINE
  5
490
100
AcDbEntity
  8
取付金具
  6
DOT
 62
     0
100
AcDbLine
 10
934.12
 20
926.6091547119
 11
940.12
 21
926.6091108523
  0
LINE
  5
491
100
AcDbEntity
  8
取付金具
  6
DOT
 62
     0
100
AcDbLine
 10
940.120005
 20
932.0691230715
 11
934.12
 21
932.0691230715
  0
LINE
  5
492
100
AcDbEntity
  8
取付金具
  6
DOT
 62
     0
100
AcDbLine
 10
940.120005
 20
927.1491230715
 11
934.12
 21
927.1491230715
  0
LINE
  5
493
100
AcDbEntity
  8
取付金具
  6
CENTER
 62
     0
100
AcDbLine
 10
929.12
 20
929.6091230715
 11
942.120005
 21
929.6091230715
  0
ENDBLK
  5
494
100
AcDbEntity
 67
     1
  8
取付金具
100
AcDbBlockEnd
  0
BLOCK
  5
495
100
AcDbEntity
  8
取付金具
100
AcDbBlockBegin
  2
BK17
 70
    64
 10
0
 20
0
  3
BK17
  1

  0
LINE
  5
496
100
AcDbEntity
  8
取付金具
  6
CONTINUOUS
 62
     0
100
AcDbLine
 10
934.12
 20
747.9591230715
 11
931.42
 21
747.9591230715
  0
ARC
  5
497
100
AcDbEntity
  8
取付金具
  6
CONTINUOUS
 62
     0
100
AcDbCircle
 10
931.42
 20
748.2591230715
 40
0.3
100
AcDbArc
 50
180
 51
270
  0
LINE
  5
498
100
AcDbEntity
  8
取付金具
  6
CONTINUOUS
 62
     0
100
AcDbLine
 10
931.12
 20
748.2591230715
 11
931.12
 21
749.1591230715
  0
ARC
  5
499
100
AcDbEntity
  8
取付金具
  6
CONTINUOUS
 62
     0
100
AcDbCircle
 10
931.42
 20
749.1591230715
 40
0.3
100
AcDbArc
 50
90
 51
180
  0
LINE
  5
49A
100
AcDbEntity
  8
取付金具
  6
CONTINUOUS
 62
     0
100
AcDbLine
 10
931.42
 20
749.4591230715
 11
934.12
 21
749.4591230715
  0
LINE
  5
49B
100
AcDbEntity
  8
取付金具
  6
CONTINUOUS
 62
     0
100
AcDbLine
 10
934.12
 20
749.4591230715
 11
934.12
 21
759.7591230715
  0
LINE
  5
49C
100
AcDbEntity
  8
取付金具
  6
CONTINUOUS
 62
     0
100
AcDbLine
 10
934.12
 20
759.7591230715
 11
931.42
 21
759.7591230715
  0
ARC
  5
49D
100
AcDbEntity
  8
取付金具
  6
CONTINUOUS
 62
     0
100
AcDbCircle
 10
931.42
 20
760.0591230715
 40
0.3
100
AcDbArc
 50
180
 51
270
  0
LINE
  5
49E
100
AcDbEntity
  8
取付金具
  6
CONTINUOUS
 62
     0
100
AcDbLine
 10
931.12
 20
760.0591230715
 11
931.12
 21
760.9591230715
  0
ARC
  5
49F
100
AcDbEntity
  8
取付金具
  6
CONTINUOUS
 62
     0
100
AcDbCircle
 10
931.42
 20
760.9591230715
 40
0.3
100
AcDbArc
 50
90
 51
180
  0
LINE
  5
4A0
100
AcDbEntity
  8
取付金具
  6
CONTINUOUS
 62
     0
100
AcDbLine
 10
931.42
 20
761.2591230715
 11
934.12
 21
761.2591230715
  0
LINE
  5
4A1
100
AcDbEntity
  8
取付金具
  6
CONTINUOUS
 62
     0
100
AcDbLine
 10
934.12
 20
761.2591230715
 11
934.12
 21
761.6091230715
  0
ARC
  5
4A2
100
AcDbEntity
  8
取付金具
  6
CONTINUOUS
 62
     0
100
AcDbCircle
 10
935.12
 20
761.6091230715
 40
1
100
AcDbArc
 50
90
 51
180
  0
LINE
  5
4A3
100
AcDbEntity
  8
取付金具
  6
CONTINUOUS
 62
     0
100
AcDbLine
 10
935.12
 20
762.6091230715
 11
938.42
 21
762.6091230715
  0
ARC
  5
4A4
100
AcDbEntity
  8
取付金具
  6
CONTINUOUS
 62
     0
100
AcDbCircle
 10
938.42
 20
762.1091230715
 40
0.5
100
AcDbArc
 50
0
 51
90
  0
LINE
  5
4A5
100
AcDbEntity
  8
取付金具
  6
CONTINUOUS
 62
     0
100
AcDbLine
 10
938.92
 20
762.1091230715
 11
938.92
 21
761.3091230715
  0
ARC
  5
4A6
100
AcDbEntity
  8
取付金具
  6
CONTINUOUS
 62
     0
100
AcDbCircle
 10
938.42
 20
761.3091230715
 40
0.5
100
AcDbArc
 50
-90
 51
0
  0
LINE
  5
4A7
100
AcDbEntity
  8
取付金具
  6
CONTINUOUS
 62
     0
100
AcDbLine
 10
938.42
 20
760.8091230715
 11
937.42
 21
760.8091230715
  0
LINE
  5
4A8
100
AcDbEntity
  8
取付金具
  6
CONTINUOUS
 62
     0
100
AcDbLine
 10
937.42
 20
760.8091230715
 11
937.42
 21
759.1091230715
  0
ARC
  5
4A9
100
AcDbEntity
  8
取付金具
  6
CONTINUOUS
 62
     0
100
AcDbCircle
 10
937.92
 20
759.1091230715
 40
0.5
100
AcDbArc
 50
180
 51
270
  0
LINE
  5
4AA
100
AcDbEntity
  8
取付金具
  6
CONTINUOUS
 62
     0
100
AcDbLine
 10
937.92
 20
758.6091230715
 11
939.620005
 21
758.6091230715
  0
ARC
  5
4AB
100
AcDbEntity
  8
取付金具
  6
CONTINUOUS
 62
     0
100
AcDbCircle
 10
939.620005
 20
758.1091230715
 40
0.5
100
AcDbArc
 50
0
 51
90
  0
LINE
  5
4AC
100
AcDbEntity
  8
取付金具
  6
CONTINUOUS
 62
     0
100
AcDbLine
 10
940.120005
 20
758.1091230715
 11
940.120005
 21
755.1287383138
  0
LINE
  5
4AD
100
AcDbEntity
  8
取付金具
  6
CONTINUOUS
 62
     0
100
AcDbLine
 10
940.120005
 20
755.1287383138
 11
939.820005
 21
754.6091230715
  0
LINE
  5
4AE
100
AcDbEntity
  8
取付金具
  6
CONTINUOUS
 62
     0
100
AcDbLine
 10
939.820005
 20
754.6091230715
 11
940.120005
 21
754.0895078293
  0
LINE
  5
4AF
100
AcDbEntity
  8
取付金具
  6
CONTINUOUS
 62
     0
100
AcDbLine
 10
940.120005
 20
754.0895078293
 11
940.120005
 21
751.1091230715
  0
ARC
  5
4B0
100
AcDbEntity
  8
取付金具
  6
CONTINUOUS
 62
     0
100
AcDbCircle
 10
939.620005
 20
751.1091230715
 40
0.5
100
AcDbArc
 50
-90
 51
0
  0
LINE
  5
4B1
100
AcDbEntity
  8
取付金具
  6
CONTINUOUS
 62
     0
100
AcDbLine
 10
939.620005
 20
750.6091230715
 11
937.92
 21
750.6091230715
  0
ARC
  5
4B2
100
AcDbEntity
  8
取付金具
  6
CONTINUOUS
 62
     0
100
AcDbCircle
 10
937.92
 20
750.1091230715
 40
0.5
100
AcDbArc
 50
90
 51
180
  0
LINE
  5
4B3
100
AcDbEntity
  8
取付金具
  6
CONTINUOUS
 62
     0
100
AcDbLine
 10
937.42
 20
750.1091230715
 11
937.42
 21
748.4091230715
  0
LINE
  5
4B4
100
AcDbEntity
  8
取付金具
  6
CONTINUOUS
 62
     0
100
AcDbLine
 10
937.42
 20
748.4091230715
 11
938.42
 21
748.4091230715
  0
ARC
  5
4B5
100
AcDbEntity
  8
取付金具
  6
CONTINUOUS
 62
     0
100
AcDbCircle
 10
938.42
 20
747.9091230715
 40
0.5
100
AcDbArc
 50
0
 51
90
  0
LINE
  5
4B6
100
AcDbEntity
  8
取付金具
  6
CONTINUOUS
 62
     0
100
AcDbLine
 10
938.92
 20
747.9091230715
 11
938.92
 21
747.1091230715
  0
ARC
  5
4B7
100
AcDbEntity
  8
取付金具
  6
CONTINUOUS
 62
     0
100
AcDbCircle
 10
938.42
 20
747.1091230715
 40
0.5
100
AcDbArc
 50
-90
 51
0
  0
LINE
  5
4B8
100
AcDbEntity
  8
取付金具
  6
CONTINUOUS
 62
     0
100
AcDbLine
 10
938.42
 20
746.6091230715
 11
935.12
 21
746.6091230715
  0
ARC
  5
4B9
100
AcDbEntity
  8
取付金具
  6
CONTINUOUS
 62
     0
100
AcDbCircle
 10
935.12
 20
747.6091230715
 40
1
100
AcDbArc
 50
180
 51
270
  0
LINE
  5
4BA
100
AcDbEntity
  8
取付金具
  6
CONTINUOUS
 62
     0
100
AcDbLine
 10
934.12
 20
747.6091230715
 11
934.12
 21
747.9591230715
  0
LINE
  5
4BB
100
AcDbEntity
  8
取付金具
  6
DOT
 62
     0
100
AcDbLine
 10
934.12
 20
757.6091547119
 11
940.12
 21
757.6091108523
  0
LINE
  5
4BC
100
AcDbEntity
  8
取付金具
  6
DOT
 62
     0
100
AcDbLine
 10
934.12
 20
751.6091547119
 11
940.12
 21
751.6091108523
  0
LINE
  5
4BD
100
AcDbEntity
  8
取付金具
  6
DOT
 62
     0
100
AcDbLine
 10
940.120005
 20
757.0691230715
 11
934.12
 21
757.0691230715
  0
LINE
  5
4BE
100
AcDbEntity
  8
取付金具
  6
DOT
 62
     0
100
AcDbLine
 10
940.120005
 20
752.1491230715
 11
934.12
 21
752.1491230715
  0
LINE
  5
4BF
100
AcDbEntity
  8
取付金具
  6
CENTER
 62
     0
100
AcDbLine
 10
929.12
 20
754.6091230715
 11
942.120005
 21
754.6091230715
  0
ENDBLK
  5
4C0
100
AcDbEntity
 67
     1
  8
取付金具
100
AcDbBlockEnd
  0
BLOCK
  5
4C1
100
AcDbEntity
  8
ボルトセット
100
AcDbBlockBegin
  2
BK18
 70
    64
 10
0
 20
0
  3
BK18
  1

  0
LINE
  5
4C2
100
AcDbEntity
  8
ボルトセット
  6
CONTINUOUS
 62
     0
100
AcDbLine
 10
928.92002
 20
1107.209144369
 11
929.42001
 21
1107.709134369
  0
LINE
  5
4C3
100
AcDbEntity
  8
ボルトセット
  6
CONTINUOUS
 62
     0
100
AcDbLine
 10
929.42002
 20
1101.709164369
 11
928.92002
 21
1102.209164369
  0
LINE
  5
4C4
100
AcDbEntity
  8
ボルトセット
  6
CONTINUOUS
 62
     0
100
AcDbLine
 10
928.92
 20
1102.209174369
 11
928.92
 21
1107.209174369
  0
LINE
  5
4C5
100
AcDbEntity
  8
ボルトセット
  6
CONTINUOUS
 62
     0
100
AcDbLine
 10
929.42
 20
1101.709174369
 11
929.42
 21
1107.709174369
  0
LINE
  5
4C6
100
AcDbEntity
  8
ボルトセット
  6
CONTINUOUS
 62
     0
100
AcDbLine
 10
950.92
 20
1100.310672019
 11
950.92
 21
1109.107676718
  0
LINE
  5
4C7
100
AcDbEntity
  8
ボルトセット
  6
CONTINUOUS
 62
     0
100
AcDbLine
 10
946.92
 20
1098.935672019
 11
946.92
 21
1110.482676718
  0
ARC
  5
4C8
100
AcDbEntity
  8
ボルトセット
  6
CONTINUOUS
 62
     0
100
AcDbCircle
 10
942.344816283
 20
1104.707763184
 40
8.575183716996
100
AcDbArc
 50
-19.66226701541
 51
19.66224604733
  0
LINE
  5
4C9
100
AcDbEntity
  8
ボルトセット
  6
CONTINUOUS
 62
     0
100
AcDbLine
 10
950.12617
 20
1098.935672019
 11
946.92
 21
1098.935672019
  0
LINE
  5
4CA
100
AcDbEntity
  8
ボルトセット
  6
CONTINUOUS
 62
     0
100
AcDbLine
 10
950.42
 20
1101.822423892
 11
946.92
 21
1101.822423892
  0
LINE
  5
4CB
100
AcDbEntity
  8
ボルトセット
  6
CONTINUOUS
 62
     0
100
AcDbLine
 10
950.92002
 20
1100.310702019
 11
950.12614
 21
1098.935652019
  0
LINE
  5
4CC
100
AcDbEntity
  8
ボルトセット
  6
CONTINUOUS
 62
     0
100
AcDbLine
 10
946.92
 20
1099.209174369
 11
945.42
 21
1099.209174369
  0
ARC
  5
4CD
100
AcDbEntity
  8
ボルトセット
  6
CONTINUOUS
 62
     0
100
AcDbCircle
 10
948.3964880708
 20
1100.314603625
 40
2.523509994274
100
AcDbArc
 50
-0.0893002954743
 51
36.69167662029
  0
LINE
  5
4CE
100
AcDbEntity
  8
ボルトセット
  6
CONTINUOUS
 62
     0
100
AcDbLine
 10
950.12617
 20
1110.482676718
 11
946.92
 21
1110.482676718
  0
LINE
  5
4CF
100
AcDbEntity
  8
ボルトセット
  6
CONTINUOUS
 62
     0
100
AcDbLine
 10
950.42
 20
1107.593102329
 11
946.92
 21
1107.593102329
  0
LINE
  5
4D0
100
AcDbEntity
  8
ボルトセット
  6
CONTINUOUS
 62
     0
100
AcDbLine
 10
950.92003
 20
1109.107686718
 11
950.12617
 21
1110.482686718
  0
ARC
  5
4D1
100
AcDbEntity
  8
ボルトセット
  6
CONTINUOUS
 62
     0
100
AcDbCircle
 10
948.3882031585
 20
1109.103667742
 40
2.531795013115
100
AcDbArc
 50
-36.62949570986
 51
0.09069134699859
  0
LINE
  5
4D2
100
AcDbEntity
  8
ボルトセット
  6
CONTINUOUS
 62
     0
100
AcDbLine
 10
946.92
 20
1110.209174369
 11
945.42
 21
1110.209174369
  0
LINE
  5
4D3
100
AcDbEntity
  8
ボルトセット
  6
CONTINUOUS
 62
     0
100
AcDbLine
 10
944.42
 20
1111.159174369
 11
944.42
 21
1098.159174369
  0
LINE
  5
4D4
100
AcDbEntity
  8
ボルトセット
  6
CONTINUOUS
 62
     0
100
AcDbLine
 10
945.42
 20
1111.159174369
 11
945.42
 21
1098.159174369
  0
LINE
  5
4D5
100
AcDbEntity
  8
ボルトセット
  6
CONTINUOUS
 62
     0
100
AcDbLine
 10
945.42
 20
1111.159174369
 11
944.42
 21
1111.159174369
  0
LINE
  5
4D6
100
AcDbEntity
  8
ボルトセット
  6
CONTINUOUS
 62
     0
100
AcDbLine
 10
945.42
 20
1098.159174369
 11
944.42
 21
1098.159174369
  0
LINE
  5
4D7
100
AcDbEntity
  8
ボルトセット
  6
CENTER
 62
     0
100
AcDbLine
 10
952.92
 20
1104.709174369
 11
926.92
 21
1104.709174369
  0
LINE
  5
4D8
100
AcDbEntity
  8
ボルトセット
  6
CONTINUOUS
 62
     0
100
AcDbLine
 10
933.61999
 20
1107.709174369
 11
929.42
 21
1107.709174369
  0
LINE
  5
4D9
100
AcDbEntity
  8
ボルトセット
  6
CONTINUOUS
 62
     0
100
AcDbLine
 10
933.61999
 20
1107.209174369
 11
928.92
 21
1107.209174369
  0
LINE
  5
4DA
100
AcDbEntity
  8
ボルトセット
  6
CONTINUOUS
 62
     0
100
AcDbLine
 10
933.61999
 20
1102.209174369
 11
928.92
 21
1102.209174369
  0
LINE
  5
4DB
100
AcDbEntity
  8
ボルトセット
  6
CONTINUOUS
 62
     0
100
AcDbLine
 10
933.61999
 20
1101.709174369
 11
929.42
 21
1101.709174369
  0
LINE
  5
4DC
100
AcDbEntity
  8
ボルトセット
  6
DOT
 62
     0
100
AcDbLine
 10
941.92
 20
1101.709174369
 11
941.92
 21
1107.709174369
  0
LINE
  5
4DD
100
AcDbEntity
  8
ボルトセット
  6
DOT
 62
     0
100
AcDbLine
 10
941.92
 20
1102.209174369
 11
944.42
 21
1102.209174369
  0
LINE
  5
4DE
100
AcDbEntity
  8
ボルトセット
  6
DOT
 62
     0
100
AcDbLine
 10
941.92
 20
1107.209174369
 11
944.42
 21
1107.209174369
  0
LINE
  5
4DF
100
AcDbEntity
  8
ボルトセット
  6
DOT
 62
     0
100
AcDbLine
 10
941.92
 20
1107.709174369
 11
933.61999
 21
1107.709174369
  0
LINE
  5
4E0
100
AcDbEntity
  8
ボルトセット
  6
DOT
 62
     0
100
AcDbLine
 10
941.92
 20
1107.209174369
 11
933.61999
 21
1107.209174369
  0
LINE
  5
4E1
100
AcDbEntity
  8
ボルトセット
  6
DOT
 62
     0
100
AcDbLine
 10
941.92
 20
1102.209174369
 11
933.61999
 21
1102.209174369
  0
LINE
  5
4E2
100
AcDbEntity
  8
ボルトセット
  6
DOT
 62
     0
100
AcDbLine
 10
941.92
 20
1101.709174369
 11
933.61999
 21
1101.709174369
  0
ENDBLK
  5
4E3
100
AcDbEntity
 67
     1
  8
ボルトセット
100
AcDbBlockEnd
  0
BLOCK
  5
4E4
100
AcDbEntity
  8
ボルトセット
100
AcDbBlockBegin
  2
BK19
 70
    64
 10
0
 20
0
  3
BK19
  1

  0
LINE
  5
4E5
100
AcDbEntity
  8
ボルトセット
  6
CONTINUOUS
 62
     0
100
AcDbLine
 10
928.92002
 20
932.2091443685
 11
929.42001
 21
932.7091343685
  0
LINE
  5
4E6
100
AcDbEntity
  8
ボルトセット
  6
CONTINUOUS
 62
     0
100
AcDbLine
 10
929.42002
 20
926.7091643685
 11
928.92002
 21
927.2091643685
  0
LINE
  5
4E7
100
AcDbEntity
  8
ボルトセット
  6
CONTINUOUS
 62
     0
100
AcDbLine
 10
928.92
 20
927.2091743685
 11
928.92
 21
932.2091743685
  0
LINE
  5
4E8
100
AcDbEntity
  8
ボルトセット
  6
CONTINUOUS
 62
     0
100
AcDbLine
 10
929.42
 20
926.7091743685
 11
929.42
 21
932.7091743685
  0
LINE
  5
4E9
100
AcDbEntity
  8
ボルトセット
  6
CONTINUOUS
 62
     0
100
AcDbLine
 10
950.92
 20
925.3106720187
 11
950.92
 21
934.1076767184
  0
LINE
  5
4EA
100
AcDbEntity
  8
ボルトセット
  6
CONTINUOUS
 62
     0
100
AcDbLine
 10
946.92
 20
923.9356720187
 11
946.92
 21
935.4826767184
  0
ARC
  5
4EB
100
AcDbEntity
  8
ボルトセット
  6
CONTINUOUS
 62
     0
100
AcDbCircle
 10
942.344816283
 20
929.707763184
 40
8.575183716996
100
AcDbArc
 50
-19.66226701541
 51
19.66224604733
  0
LINE
  5
4EC
100
AcDbEntity
  8
ボルトセット
  6
CONTINUOUS
 62
     0
100
AcDbLine
 10
950.12617
 20
923.9356720187
 11
946.92
 21
923.9356720187
  0
LINE
  5
4ED
100
AcDbEntity
  8
ボルトセット
  6
CONTINUOUS
 62
     0
100
AcDbLine
 10
950.42
 20
926.822423892
 11
946.92
 21
926.822423892
  0
LINE
  5
4EE
100
AcDbEntity
  8
ボルトセット
  6
CONTINUOUS
 62
     0
100
AcDbLine
 10
950.92002
 20
925.3107020187
 11
950.12614
 21
923.9356520187
  0
LINE
  5
4EF
100
AcDbEntity
  8
ボルトセット
  6
CONTINUOUS
 62
     0
100
AcDbLine
 10
946.92
 20
924.2091743685
 11
945.42
 21
924.2091743685
  0
ARC
  5
4F0
100
AcDbEntity
  8
ボルトセット
  6
CONTINUOUS
 62
     0
100
AcDbCircle
 10
948.3964880708
 20
925.3146036254
 40
2.523509994274
100
AcDbArc
 50
-0.0893002954743
 51
36.69167662029
  0
LINE
  5
4F1
100
AcDbEntity
  8
ボルトセット
  6
CONTINUOUS
 62
     0
100
AcDbLine
 10
950.12617
 20
935.4826767184
 11
946.92
 21
935.4826767184
  0
LINE
  5
4F2
100
AcDbEntity
  8
ボルトセット
  6
CONTINUOUS
 62
     0
100
AcDbLine
 10
950.42
 20
932.5931023286
 11
946.92
 21
932.5931023286
  0
LINE
  5
4F3
100
AcDbEntity
  8
ボルトセット
  6
CONTINUOUS
 62
     0
100
AcDbLine
 10
950.92003
 20
934.1076867184
 11
950.12617
 21
935.4826867184
  0
ARC
  5
4F4
100
AcDbEntity
  8
ボルトセット
  6
CONTINUOUS
 62
     0
100
AcDbCircle
 10
948.3882031585
 20
934.1036677419
 40
2.531795013115
100
AcDbArc
 50
-36.62949570986
 51
0.09069134699859
  0
LINE
  5
4F5
100
AcDbEntity
  8
ボルトセット
  6
CONTINUOUS
 62
     0
100
AcDbLine
 10
946.92
 20
935.2091743685
 11
945.42
 21
935.2091743685
  0
LINE
  5
4F6
100
AcDbEntity
  8
ボルトセット
  6
CONTINUOUS
 62
     0
100
AcDbLine
 10
944.42
 20
936.1591743685
 11
944.42
 21
923.1591743685
  0
LINE
  5
4F7
100
AcDbEntity
  8
ボルトセット
  6
CONTINUOUS
 62
     0
100
AcDbLine
 10
945.42
 20
936.1591743685
 11
945.42
 21
923.1591743685
  0
LINE
  5
4F8
100
AcDbEntity
  8
ボルトセット
  6
CONTINUOUS
 62
     0
100
AcDbLine
 10
945.42
 20
936.1591743685
 11
944.42
 21
936.1591743685
  0
LINE
  5
4F9
100
AcDbEntity
  8
ボルトセット
  6
CONTINUOUS
 62
     0
100
AcDbLine
 10
945.42
 20
923.1591743685
 11
944.42
 21
923.1591743685
  0
LINE
  5
4FA
100
AcDbEntity
  8
ボルトセット
  6
CENTER
 62
     0
100
AcDbLine
 10
952.92
 20
929.7091743685
 11
926.92
 21
929.7091743685
  0
LINE
  5
4FB
100
AcDbEntity
  8
ボルトセット
  6
CONTINUOUS
 62
     0
100
AcDbLine
 10
933.61999
 20
932.7091743685
 11
929.42
 21
932.7091743685
  0
LINE
  5
4FC
100
AcDbEntity
  8
ボルトセット
  6
CONTINUOUS
 62
     0
100
AcDbLine
 10
933.61999
 20
932.2091743685
 11
928.92
 21
932.2091743685
  0
LINE
  5
4FD
100
AcDbEntity
  8
ボルトセット
  6
CONTINUOUS
 62
     0
100
AcDbLine
 10
933.61999
 20
927.2091743685
 11
928.92
 21
927.2091743685
  0
LINE
  5
4FE
100
AcDbEntity
  8
ボルトセット
  6
CONTINUOUS
 62
     0
100
AcDbLine
 10
933.61999
 20
926.7091743685
 11
929.42
 21
926.7091743685
  0
LINE
  5
4FF
100
AcDbEntity
  8
ボルトセット
  6
DOT
 62
     0
100
AcDbLine
 10
941.92
 20
926.7091743685
 11
941.92
 21
932.7091743685
  0
LINE
  5
500
100
AcDbEntity
  8
ボルトセット
  6
DOT
 62
     0
100
AcDbLine
 10
941.92
 20
927.2091743685
 11
944.42
 21
927.2091743685
  0
LINE
  5
501
100
AcDbEntity
  8
ボルトセット
  6
DOT
 62
     0
100
AcDbLine
 10
941.92
 20
932.2091743685
 11
944.42
 21
932.2091743685
  0
LINE
  5
502
100
AcDbEntity
  8
ボルトセット
  6
DOT
 62
     0
100
AcDbLine
 10
941.92
 20
932.7091743685
 11
933.61999
 21
932.7091743685
  0
LINE
  5
503
100
AcDbEntity
  8
ボルトセット
  6
DOT
 62
     0
100
AcDbLine
 10
941.92
 20
932.2091743685
 11
933.61999
 21
932.2091743685
  0
LINE
  5
504
100
AcDbEntity
  8
ボルトセット
  6
DOT
 62
     0
100
AcDbLine
 10
941.92
 20
927.2091743685
 11
933.61999
 21
927.2091743685
  0
LINE
  5
505
100
AcDbEntity
  8
ボルトセット
  6
DOT
 62
     0
100
AcDbLine
 10
941.92
 20
926.7091743685
 11
933.61999
 21
926.7091743685
  0
ENDBLK
  5
506
100
AcDbEntity
 67
     1
  8
ボルトセット
100
AcDbBlockEnd
  0
BLOCK
  5
507
100
AcDbEntity
  8
ボルトセット
100
AcDbBlockBegin
  2
BK20
 70
    64
 10
0
 20
0
  3
BK20
  1

  0
LINE
  5
508
100
AcDbEntity
  8
ボルトセット
  6
CONTINUOUS
 62
     0
100
AcDbLine
 10
928.92002
 20
757.2091443685
 11
929.42001
 21
757.7091343685
  0
LINE
  5
509
100
AcDbEntity
  8
ボルトセット
  6
CONTINUOUS
 62
     0
100
AcDbLine
 10
929.42002
 20
751.7091643685
 11
928.92002
 21
752.2091643685
  0
LINE
  5
50A
100
AcDbEntity
  8
ボルトセット
  6
CONTINUOUS
 62
     0
100
AcDbLine
 10
928.92
 20
752.2091743685
 11
928.92
 21
757.2091743685
  0
LINE
  5
50B
100
AcDbEntity
  8
ボルトセット
  6
CONTINUOUS
 62
     0
100
AcDbLine
 10
929.42
 20
751.7091743685
 11
929.42
 21
757.7091743685
  0
LINE
  5
50C
100
AcDbEntity
  8
ボルトセット
  6
CONTINUOUS
 62
     0
100
AcDbLine
 10
950.92
 20
750.3106720187
 11
950.92
 21
759.1076767184
  0
LINE
  5
50D
100
AcDbEntity
  8
ボルトセット
  6
CONTINUOUS
 62
     0
100
AcDbLine
 10
946.92
 20
748.9356720187
 11
946.92
 21
760.4826767184
  0
ARC
  5
50E
100
AcDbEntity
  8
ボルトセット
  6
CONTINUOUS
 62
     0
100
AcDbCircle
 10
942.344816283
 20
754.707763184
 40
8.575183716996
100
AcDbArc
 50
-19.66226701541
 51
19.66224604733
  0
LINE
  5
50F
100
AcDbEntity
  8
ボルトセット
  6
CONTINUOUS
 62
     0
100
AcDbLine
 10
950.12617
 20
748.9356720187
 11
946.92
 21
748.9356720187
  0
LINE
  5
510
100
AcDbEntity
  8
ボルトセット
  6
CONTINUOUS
 62
     0
100
AcDbLine
 10
950.42
 20
751.822423892
 11
946.92
 21
751.822423892
  0
LINE
  5
511
100
AcDbEntity
  8
ボルトセット
  6
CONTINUOUS
 62
     0
100
AcDbLine
 10
950.92002
 20
750.3107020187
 11
950.12614
 21
748.9356520187
  0
LINE
  5
512
100
AcDbEntity
  8
ボルトセット
  6
CONTINUOUS
 62
     0
100
AcDbLine
 10
946.92
 20
749.2091743685
 11
945.42
 21
749.2091743685
  0
ARC
  5
513
100
AcDbEntity
  8
ボルトセット
  6
CONTINUOUS
 62
     0
100
AcDbCircle
 10
948.3964880708
 20
750.3146036254
 40
2.523509994274
100
AcDbArc
 50
-0.0893002954743
 51
36.6916766203
  0
LINE
  5
514
100
AcDbEntity
  8
ボルトセット
  6
CONTINUOUS
 62
     0
100
AcDbLine
 10
950.12617
 20
760.4826767184
 11
946.92
 21
760.4826767184
  0
LINE
  5
515
100
AcDbEntity
  8
ボルトセット
  6
CONTINUOUS
 62
     0
100
AcDbLine
 10
950.42
 20
757.5931023286
 11
946.92
 21
757.5931023286
  0
LINE
  5
516
100
AcDbEntity
  8
ボルトセット
  6
CONTINUOUS
 62
     0
100
AcDbLine
 10
950.92003
 20
759.1076867184
 11
950.12617
 21
760.4826867184
  0
ARC
  5
517
100
AcDbEntity
  8
ボルトセット
  6
CONTINUOUS
 62
     0
100
AcDbCircle
 10
948.3882031585
 20
759.1036677419
 40
2.531795013115
100
AcDbArc
 50
-36.62949570985
 51
0.09069134699859
  0
LINE
  5
518
100
AcDbEntity
  8
ボルトセット
  6
CONTINUOUS
 62
     0
100
AcDbLine
 10
946.92
 20
760.2091743685
 11
945.42
 21
760.2091743685
  0
LINE
  5
519
100
AcDbEntity
  8
ボルトセット
  6
CONTINUOUS
 62
     0
100
AcDbLine
 10
944.42
 20
761.1591743685
 11
944.42
 21
748.1591743685
  0
LINE
  5
51A
100
AcDbEntity
  8
ボルトセット
  6
CONTINUOUS
 62
     0
100
AcDbLine
 10
945.42
 20
761.1591743685
 11
945.42
 21
748.1591743685
  0
LINE
  5
51B
100
AcDbEntity
  8
ボルトセット
  6
CONTINUOUS
 62
     0
100
AcDbLine
 10
945.42
 20
761.1591743685
 11
944.42
 21
761.1591743685
  0
LINE
  5
51C
100
AcDbEntity
  8
ボルトセット
  6
CONTINUOUS
 62
     0
100
AcDbLine
 10
945.42
 20
748.1591743685
 11
944.42
 21
748.1591743685
  0
LINE
  5
51D
100
AcDbEntity
  8
ボルトセット
  6
CENTER
 62
     0
100
AcDbLine
 10
952.92
 20
754.7091743685
 11
926.92
 21
754.7091743685
  0
LINE
  5
51E
100
AcDbEntity
  8
ボルトセット
  6
CONTINUOUS
 62
     0
100
AcDbLine
 10
933.61999
 20
757.7091743685
 11
929.42
 21
757.7091743685
  0
LINE
  5
51F
100
AcDbEntity
  8
ボルトセット
  6
CONTINUOUS
 62
     0
100
AcDbLine
 10
933.61999
 20
757.2091743685
 11
928.92
 21
757.2091743685
  0
LINE
  5
520
100
AcDbEntity
  8
ボルトセット
  6
CONTINUOUS
 62
     0
100
AcDbLine
 10
933.61999
 20
752.2091743685
 11
928.92
 21
752.2091743685
  0
LINE
  5
521
100
AcDbEntity
  8
ボルトセット
  6
CONTINUOUS
 62
     0
100
AcDbLine
 10
933.61999
 20
751.7091743685
 11
929.42
 21
751.7091743685
  0
LINE
  5
522
100
AcDbEntity
  8
ボルトセット
  6
DOT
 62
     0
100
AcDbLine
 10
941.92
 20
751.7091743685
 11
941.92
 21
757.7091743685
  0
LINE
  5
523
100
AcDbEntity
  8
ボルトセット
  6
DOT
 62
     0
100
AcDbLine
 10
941.92
 20
752.2091743685
 11
944.42
 21
752.2091743685
  0
LINE
  5
524
100
AcDbEntity
  8
ボルトセット
  6
DOT
 62
     0
100
AcDbLine
 10
941.92
 20
757.2091743685
 11
944.42
 21
757.2091743685
  0
LINE
  5
525
100
AcDbEntity
  8
ボルトセット
  6
DOT
 62
     0
100
AcDbLine
 10
941.92
 20
757.7091743685
 11
933.61999
 21
757.7091743685
  0
LINE
  5
526
100
AcDbEntity
  8
ボルトセット
  6
DOT
 62
     0
100
AcDbLine
 10
941.92
 20
757.2091743685
 11
933.61999
 21
757.2091743685
  0
LINE
  5
527
100
AcDbEntity
  8
ボルトセット
  6
DOT
 62
     0
100
AcDbLine
 10
941.92
 20
752.2091743685
 11
933.61999
 21
752.2091743685
  0
LINE
  5
528
100
AcDbEntity
  8
ボルトセット
  6
DOT
 62
     0
100
AcDbLine
 10
941.92
 20
751.7091743685
 11
933.61999
 21
751.7091743685
  0
ENDBLK
  5
529
100
AcDbEntity
 67
     1
  8
ボルトセット
100
AcDbBlockEnd
  0
BLOCK
  5
52A
100
AcDbEntity
  8
ボルトセット
100
AcDbBlockBegin
  2
BK21
 70
    64
 10
0
 20
0
  3
BK21
  1

  0
LINE
  5
52B
100
AcDbEntity
  8
ボルトセット
  6
CONTINUOUS
 62
     0
100
AcDbLine
 10
1638.437231217
 20
1032.321190322
 11
1637.937241217
 21
1031.821200322
  0
LINE
  5
52C
100
AcDbEntity
  8
ボルトセット
  6
CONTINUOUS
 62
     0
100
AcDbLine
 10
1643.937211217
 20
1031.821190322
 11
1643.437211217
 21
1032.321190322
  0
LINE
  5
52D
100
AcDbEntity
  8
ボルトセット
  6
CONTINUOUS
 62
     0
100
AcDbLine
 10
1643.437201217
 20
1032.321210322
 11
1638.437201217
 21
1032.321210322
  0
LINE
  5
52E
100
AcDbEntity
  8
ボルトセット
  6
CONTINUOUS
 62
     0
100
AcDbLine
 10
1643.937201217
 20
1031.821210322
 11
1637.937201217
 21
1031.821210322
  0
LINE
  5
52F
100
AcDbEntity
  8
ボルトセット
  6
CONTINUOUS
 62
     0
100
AcDbLine
 10
1645.335703566
 20
1010.321210322
 11
1636.538698867
 21
1010.321210322
  0
LINE
  5
530
100
AcDbEntity
  8
ボルトセット
  6
CONTINUOUS
 62
     0
100
AcDbLine
 10
1646.710703566
 20
1014.321210322
 11
1635.163698867
 21
1014.321210322
  0
ARC
  5
531
100
AcDbEntity
  8
ボルトセット
  6
CONTINUOUS
 62
     0
100
AcDbCircle
 10
1640.938612401
 20
1018.896394039
 40
8.575183716996
100
AcDbArc
 50
-109.6622460473
 51
-70.33773298458
  0
LINE
  5
532
100
AcDbEntity
  8
ボルトセット
  6
CONTINUOUS
 62
     0
100
AcDbLine
 10
1646.710703566
 20
1011.115040322
 11
1646.710703566
 21
1014.321210322
  0
LINE
  5
533
100
AcDbEntity
  8
ボルトセット
  6
CONTINUOUS
 62
     0
100
AcDbLine
 10
1643.823951693
 20
1010.821210322
 11
1643.823951693
 21
1014.321210322
  0
LINE
  5
534
100
AcDbEntity
  8
ボルトセット
  6
CONTINUOUS
 62
     0
100
AcDbLine
 10
1645.335673566
 20
1010.321190322
 11
1646.710723566
 21
1011.115070322
  0
LINE
  5
535
100
AcDbEntity
  8
ボルトセット
  6
CONTINUOUS
 62
     0
100
AcDbLine
 10
1646.437201217
 20
1014.321210322
 11
1646.437201217
 21
1015.821210322
  0
ARC
  5
536
100
AcDbEntity
  8
ボルトセット
  6
CONTINUOUS
 62
     0
100
AcDbCircle
 10
1645.33177196
 20
1012.844722252
 40
2.523509994274
100
AcDbArc
 50
-126.6916766203
 51
-89.91069970451
  0
LINE
  5
537
100
AcDbEntity
  8
ボルトセット
  6
CONTINUOUS
 62
     0
100
AcDbLine
 10
1635.163698867
 20
1011.115040322
 11
1635.163698867
 21
1014.321210322
  0
LINE
  5
538
100
AcDbEntity
  8
ボルトセット
  6
CONTINUOUS
 62
     0
100
AcDbLine
 10
1638.053273256
 20
1010.821210322
 11
1638.053273256
 21
1014.321210322
  0
LINE
  5
539
100
AcDbEntity
  8
ボルトセット
  6
CONTINUOUS
 62
     0
100
AcDbLine
 10
1636.538688867
 20
1010.321180322
 11
1635.163688867
 21
1011.115040322
  0
ARC
  5
53A
100
AcDbEntity
  8
ボルトセット
  6
CONTINUOUS
 62
     0
100
AcDbCircle
 10
1636.542707843
 20
1012.853007164
 40
2.531795013115
100
AcDbArc
 50
-90.090691347
 51
-53.37050429014
  0
LINE
  5
53B
100
AcDbEntity
  8
ボルトセット
  6
CONTINUOUS
 62
     0
100
AcDbLine
 10
1635.437201217
 20
1014.321210322
 11
1635.437201217
 21
1015.821210322
  0
LINE
  5
53C
100
AcDbEntity
  8
ボルトセット
  6
CONTINUOUS
 62
     0
100
AcDbLine
 10
1634.487201217
 20
1016.821210322
 11
1647.487201217
 21
1016.821210322
  0
LINE
  5
53D
100
AcDbEntity
  8
ボルトセット
  6
CONTINUOUS
 62
     0
100
AcDbLine
 10
1634.487201217
 20
1015.821210322
 11
1647.487201217
 21
1015.821210322
  0
LINE
  5
53E
100
AcDbEntity
  8
ボルトセット
  6
CONTINUOUS
 62
     0
100
AcDbLine
 10
1634.487201217
 20
1015.821210322
 11
1634.487201217
 21
1016.821210322
  0
LINE
  5
53F
100
AcDbEntity
  8
ボルトセット
  6
CONTINUOUS
 62
     0
100
AcDbLine
 10
1647.487201217
 20
1015.821210322
 11
1647.487201217
 21
1016.821210322
  0
LINE
  5
540
100
AcDbEntity
  8
ボルトセット
  6
CENTER
 62
     0
100
AcDbLine
 10
1640.937201217
 20
1008.321210322
 11
1640.937201217
 21
1034.321210322
  0
LINE
  5
541
100
AcDbEntity
  8
ボルトセット
  6
CONTINUOUS
 62
     0
100
AcDbLine
 10
1637.937201217
 20
1027.621220322
 11
1637.937201217
 21
1031.821210322
  0
LINE
  5
542
100
AcDbEntity
  8
ボルトセット
  6
CONTINUOUS
 62
     0
100
AcDbLine
 10
1638.437201217
 20
1027.621220322
 11
1638.437201217
 21
1032.321210322
  0
LINE
  5
543
100
AcDbEntity
  8
ボルトセット
  6
CONTINUOUS
 62
     0
100
AcDbLine
 10
1643.437201217
 20
1027.621220322
 11
1643.437201217
 21
1032.321210322
  0
LINE
  5
544
100
AcDbEntity
  8
ボルトセット
  6
CONTINUOUS
 62
     0
100
AcDbLine
 10
1643.937201217
 20
1027.621220322
 11
1643.937201217
 21
1031.821210322
  0
LINE
  5
545
100
AcDbEntity
  8
ボルトセット
  6
DOT
 62
     0
100
AcDbLine
 10
1643.937201217
 20
1019.321210322
 11
1637.937201217
 21
1019.321210322
  0
LINE
  5
546
100
AcDbEntity
  8
ボルトセット
  6
DOT
 62
     0
100
AcDbLine
 10
1643.437201217
 20
1019.321210322
 11
1643.437201217
 21
1016.821210322
  0
LINE
  5
547
100
AcDbEntity
  8
ボルトセット
  6
DOT
 62
     0
100
AcDbLine
 10
1638.437201217
 20
1019.321210322
 11
1638.437201217
 21
1016.821210322
  0
LINE
  5
548
100
AcDbEntity
  8
ボルトセット
  6
DOT
 62
     0
100
AcDbLine
 10
1637.937201217
 20
1019.321210322
 11
1637.937201217
 21
1027.621220322
  0
LINE
  5
549
100
AcDbEntity
  8
ボルトセット
  6
DOT
 62
     0
100
AcDbLine
 10
1638.437201217
 20
1019.321210322
 11
1638.437201217
 21
1027.621220322
  0
LINE
  5
54A
100
AcDbEntity
  8
ボルトセット
  6
DOT
 62
     0
100
AcDbLine
 10
1643.437201217
 20
1019.321210322
 11
1643.437201217
 21
1027.621220322
  0
LINE
  5
54B
100
AcDbEntity
  8
ボルトセット
  6
DOT
 62
     0
100
AcDbLine
 10
1643.937201217
 20
1019.321210322
 11
1643.937201217
 21
1027.621220322
  0
ENDBLK
  5
54C
100
AcDbEntity
 67
     1
  8
ボルトセット
100
AcDbBlockEnd
  0
BLOCK
  5
54D
100
AcDbEntity
  8
ボルトセット
100
AcDbBlockBegin
  2
BK22
 70
    64
 10
0
 20
0
  3
BK22
  1

  0
LINE
  5
54E
100
AcDbEntity
  8
ボルトセット
  6
CONTINUOUS
 62
     0
100
AcDbLine
 10
1439.437214829
 20
833.3212115386
 11
1439.937204829
 21
833.8212015386
  0
LINE
  5
54F
100
AcDbEntity
  8
ボルトセット
  6
CONTINUOUS
 62
     0
100
AcDbLine
 10
1439.937214829
 20
827.8212315386
 11
1439.437214829
 21
828.3212315386
  0
LINE
  5
550
100
AcDbEntity
  8
ボルトセット
  6
CONTINUOUS
 62
     0
100
AcDbLine
 10
1439.437194829
 20
828.3212415386
 11
1439.437194829
 21
833.3212415386
  0
LINE
  5
551
100
AcDbEntity
  8
ボルトセット
  6
CONTINUOUS
 62
     0
100
AcDbLine
 10
1439.937194829
 20
827.8212415386
 11
1439.937194829
 21
833.8212415386
  0
LINE
  5
552
100
AcDbEntity
  8
ボルトセット
  6
CONTINUOUS
 62
     0
100
AcDbLine
 10
1461.437194829
 20
826.4227391887
 11
1461.437194829
 21
835.2197438884
  0
LINE
  5
553
100
AcDbEntity
  8
ボルトセット
  6
CONTINUOUS
 62
     0
100
AcDbLine
 10
1457.437194829
 20
825.0477391887
 11
1457.437194829
 21
836.5947438884
  0
ARC
  5
554
100
AcDbEntity
  8
ボルトセット
  6
CONTINUOUS
 62
     0
100
AcDbCircle
 10
1452.862011112
 20
830.8198303541
 40
8.575183716996
100
AcDbArc
 50
-19.66226701541
 51
19.66224604734
  0
LINE
  5
555
100
AcDbEntity
  8
ボルトセット
  6
CONTINUOUS
 62
     0
100
AcDbLine
 10
1460.643364829
 20
825.0477391887
 11
1457.437194829
 21
825.0477391887
  0
LINE
  5
556
100
AcDbEntity
  8
ボルトセット
  6
CONTINUOUS
 62
     0
100
AcDbLine
 10
1460.937194829
 20
827.9344910621
 11
1457.437194829
 21
827.9344910621
  0
LINE
  5
557
100
AcDbEntity
  8
ボルトセット
  6
CONTINUOUS
 62
     0
100
AcDbLine
 10
1461.437214829
 20
826.4227691887
 11
1460.643334829
 21
825.0477191887
  0
LINE
  5
558
100
AcDbEntity
  8
ボルトセット
  6
CONTINUOUS
 62
     0
100
AcDbLine
 10
1457.437194829
 20
825.3212415386
 11
1455.937194829
 21
825.3212415386
  0
ARC
  5
559
100
AcDbEntity
  8
ボルトセット
  6
CONTINUOUS
 62
     0
100
AcDbCircle
 10
1458.913682899
 20
826.4266707954
 40
2.523509994274
100
AcDbArc
 50
-0.0893002954743
 51
36.6916766203
  0
LINE
  5
55A
100
AcDbEntity
  8
ボルトセット
  6
CONTINUOUS
 62
     0
100
AcDbLine
 10
1460.643364829
 20
836.5947438884
 11
1457.437194829
 21
836.5947438884
  0
LINE
  5
55B
100
AcDbEntity
  8
ボルトセット
  6
CONTINUOUS
 62
     0
100
AcDbLine
 10
1460.937194829
 20
833.7051694987
 11
1457.437194829
 21
833.7051694987
  0
LINE
  5
55C
100
AcDbEntity
  8
ボルトセット
  6
CONTINUOUS
 62
     0
100
AcDbLine
 10
1461.437224829
 20
835.2197538884
 11
1460.643364829
 21
836.5947538884
  0
ARC
  5
55D
100
AcDbEntity
  8
ボルトセット
  6
CONTINUOUS
 62
     0
100
AcDbCircle
 10
1458.905397987
 20
835.215734912
 40
2.531795013115
100
AcDbArc
 50
-36.62949570986
 51
0.09069134699859
  0
LINE
  5
55E
100
AcDbEntity
  8
ボルトセット
  6
CONTINUOUS
 62
     0
100
AcDbLine
 10
1457.437194829
 20
836.3212415386
 11
1455.937194829
 21
836.3212415386
  0
LINE
  5
55F
100
AcDbEntity
  8
ボルトセット
  6
CONTINUOUS
 62
     0
100
AcDbLine
 10
1454.937194829
 20
837.2712415386
 11
1454.937194829
 21
824.2712415386
  0
LINE
  5
560
100
AcDbEntity
  8
ボルトセット
  6
CONTINUOUS
 62
     0
100
AcDbLine
 10
1455.937194829
 20
837.2712415386
 11
1455.937194829
 21
824.2712415386
  0
LINE
  5
561
100
AcDbEntity
  8
ボルトセット
  6
CONTINUOUS
 62
     0
100
AcDbLine
 10
1455.937194829
 20
837.2712415386
 11
1454.937194829
 21
837.2712415386
  0
LINE
  5
562
100
AcDbEntity
  8
ボルトセット
  6
CONTINUOUS
 62
     0
100
AcDbLine
 10
1455.937194829
 20
824.2712415386
 11
1454.937194829
 21
824.2712415386
  0
LINE
  5
563
100
AcDbEntity
  8
ボルトセット
  6
CENTER
 62
     0
100
AcDbLine
 10
1463.437194829
 20
830.8212415386
 11
1437.437194829
 21
830.8212415386
  0
LINE
  5
564
100
AcDbEntity
  8
ボルトセット
  6
CONTINUOUS
 62
     0
100
AcDbLine
 10
1444.137184829
 20
833.8212415386
 11
1439.937194829
 21
833.8212415386
  0
LINE
  5
565
100
AcDbEntity
  8
ボルトセット
  6
CONTINUOUS
 62
     0
100
AcDbLine
 10
1444.137184829
 20
833.3212415386
 11
1439.437194829
 21
833.3212415386
  0
LINE
  5
566
100
AcDbEntity
  8
ボルトセット
  6
CONTINUOUS
 62
     0
100
AcDbLine
 10
1444.137184829
 20
828.3212415386
 11
1439.437194829
 21
828.3212415386
  0
LINE
  5
567
100
AcDbEntity
  8
ボルトセット
  6
CONTINUOUS
 62
     0
100
AcDbLine
 10
1444.137184829
 20
827.8212415386
 11
1439.937194829
 21
827.8212415386
  0
LINE
  5
568
100
AcDbEntity
  8
ボルトセット
  6
DOT
 62
     0
100
AcDbLine
 10
1452.437194829
 20
827.8212415386
 11
1452.437194829
 21
833.8212415386
  0
LINE
  5
569
100
AcDbEntity
  8
ボルトセット
  6
DOT
 62
     0
100
AcDbLine
 10
1452.437194829
 20
828.3212415386
 11
1454.937194829
 21
828.3212415386
  0
LINE
  5
56A
100
AcDbEntity
  8
ボルトセット
  6
DOT
 62
     0
100
AcDbLine
 10
1452.437194829
 20
833.3212415386
 11
1454.937194829
 21
833.3212415386
  0
LINE
  5
56B
100
AcDbEntity
  8
ボルトセット
  6
DOT
 62
     0
100
AcDbLine
 10
1452.437194829
 20
833.8212415386
 11
1444.137184829
 21
833.8212415386
  0
LINE
  5
56C
100
AcDbEntity
  8
ボルトセット
  6
DOT
 62
     0
100
AcDbLine
 10
1452.437194829
 20
833.3212415386
 11
1444.137184829
 21
833.3212415386
  0
LINE
  5
56D
100
AcDbEntity
  8
ボルトセット
  6
DOT
 62
     0
100
AcDbLine
 10
1452.437194829
 20
828.3212415386
 11
1444.137184829
 21
828.3212415386
  0
LINE
  5
56E
100
AcDbEntity
  8
ボルトセット
  6
DOT
 62
     0
100
AcDbLine
 10
1452.437194829
 20
827.8212415386
 11
1444.137184829
 21
827.8212415386
  0
ENDBLK
  5
56F
100
AcDbEntity
 67
     1
  8
ボルトセット
100
AcDbBlockEnd
  0
BLOCK
  5
570
100
AcDbEntity
  8
取付金具
100
AcDbBlockBegin
  2
BK23
 70
    64
 10
0
 20
0
  3
BK23
  1

  0
LINE
  5
571
100
AcDbEntity
  8
取付金具
  6
DOT
 62
     0
100
AcDbLine
 10
1450.937175132
 20
850.8212415386
 11
1450.937175132
 21
810.8212415386
  0
LINE
  5
572
100
AcDbEntity
  8
取付金具
  6
DOT
 62
     0
100
AcDbLine
 10
1446.137175132
 20
850.8212415386
 11
1446.137175132
 21
810.8212415386
  0
LINE
  5
573
100
AcDbEntity
  8
取付金具
  6
DOT
 62
     0
100
AcDbLine
 10
1449.437175132
 20
850.8212415386
 11
1449.437175132
 21
810.8212415386
  0
LINE
  5
574
100
AcDbEntity
  8
取付金具
  6
DOT
 62
     0
100
AcDbLine
 10
1452.137180132
 20
850.8212415386
 11
1443.137175132
 21
850.8212415386
  0
LINE
  5
575
100
AcDbEntity
  8
取付金具
  6
DOT
 62
     0
100
AcDbLine
 10
1443.137175132
 20
850.8212415386
 11
1443.137175132
 21
810.8212415386
  0
LINE
  5
576
100
AcDbEntity
  8
取付金具
  6
DOT
 62
     0
100
AcDbLine
 10
1452.137180132
 20
810.8212415386
 11
1443.137175132
 21
810.8212415386
  0
LINE
  5
577
100
AcDbEntity
  8
取付金具
  6
DOT
 62
     0
100
AcDbLine
 10
1452.137180132
 20
850.8212415386
 11
1452.137180132
 21
810.8212415386
  0
ENDBLK
  5
578
100
AcDbEntity
 67
     1
  8
取付金具
100
AcDbBlockEnd
  0
BLOCK
  5
579
100
AcDbEntity
  8
取付金具
100
AcDbBlockBegin
  2
BK24
 70
    64
 10
0
 20
0
  3
BK24
  1

  0
LINE
  5
57A
100
AcDbEntity
  8
取付金具
  6
DOT
 62
     0
100
AcDbLine
 10
1660.937201217
 20
1020.821272429
 11
1620.937201217
 21
1020.821272429
  0
LINE
  5
57B
100
AcDbEntity
  8
取付金具
  6
DOT
 62
     0
100
AcDbLine
 10
1660.937201217
 20
1025.621272429
 11
1620.937201217
 21
1025.621272429
  0
LINE
  5
57C
100
AcDbEntity
  8
取付金具
  6
DOT
 62
     0
100
AcDbLine
 10
1660.937201217
 20
1022.321272429
 11
1620.937201217
 21
1022.321272429
  0
LINE
  5
57D
100
AcDbEntity
  8
取付金具
  6
DOT
 62
     0
100
AcDbLine
 10
1660.937201217
 20
1019.621267429
 11
1660.937201217
 21
1028.621272429
  0
LINE
  5
57E
100
AcDbEntity
  8
取付金具
  6
DOT
 62
     0
100
AcDbLine
 10
1660.937201217
 20
1028.621272429
 11
1620.937201217
 21
1028.621272429
  0
LINE
  5
57F
100
AcDbEntity
  8
取付金具
  6
DOT
 62
     0
100
AcDbLine
 10
1620.937201217
 20
1019.621267429
 11
1620.937201217
 21
1028.621272429
  0
LINE
  5
580
100
AcDbEntity
  8
取付金具
  6
DOT
 62
     0
100
AcDbLine
 10
1660.937201217
 20
1019.621267429
 11
1620.937201217
 21
1019.621267429
  0
ENDBLK
  5
581
100
AcDbEntity
 67
     1
  8
取付金具
100
AcDbBlockEnd
  0
BLOCK
  5
582
100
AcDbEntity
  8
寸法
100
AcDbBlockBegin
  2
*D25
 70
     1
 10
0
 20
0
  3
*D25
  1

  0
LINE
  5
583
100
AcDbEntity
  8
寸法
 62
     0
100
AcDbLine
 10
1038.42
 20
787.1091230715
 11
1038.42
 21
812.1091230715
  0
MTEXT
  5
584
100
AcDbEntity
  8
寸法
 62
     0
100
AcDbMText
 10
1027.92
 20
799.6091230715
 40
15
 41
0
 71
     5
 72
     1
  1
25
 11
6.123031769112E-017
 21
1
1001
ACAD
1000
MTEXTBEGIN
1000
MTEXTEND
  0
POINT
  5
585
100
AcDbEntity
  8
寸法
100
AcDbPoint
 10
1038.42
 20
787.1091230715
  0
POINT
  5
586
100
AcDbEntity
  8
寸法
100
AcDbPoint
 10
1038.42
 20
812.1091230715
  0
POINT
  5
587
100
AcDbEntity
  8
寸法
100
AcDbPoint
 10
1038.42
 20
812.1091230715
  0
ENDBLK
  5
588
100
AcDbEntity
  8
寸法
100
AcDbBlockEnd
  0
BLOCK
  5
589
100
AcDbEntity
  8
寸法
100
AcDbBlockBegin
  2
*D26
 70
     1
 10
0
 20
0
  3
*D26
  1

  0
LINE
  5
58A
100
AcDbEntity
  8
寸法
 62
     0
100
AcDbLine
 10
1038.42
 20
812.1091230715
 11
1038.42
 21
837.1091230715
  0
MTEXT
  5
58B
100
AcDbEntity
  8
寸法
 62
     0
100
AcDbMText
 10
1027.92
 20
824.6091230715
 40
15
 41
0
 71
     5
 72
     1
  1
25
 11
6.123031769112E-017
 21
1
1001
ACAD
1000
MTEXTBEGIN
1000
MTEXTEND
  0
POINT
  5
58C
100
AcDbEntity
  8
寸法
100
AcDbPoint
 10
1038.42
 20
812.1091230715
  0
POINT
  5
58D
100
AcDbEntity
  8
寸法
100
AcDbPoint
 10
1038.42
 20
837.1091230715
  0
POINT
  5
58E
100
AcDbEntity
  8
寸法
100
AcDbPoint
 10
1038.42
 20
837.1091230715
  0
ENDBLK
  5
58F
100
AcDbEntity
  8
寸法
100
AcDbBlockEnd
  0
BLOCK
  5
590
100
AcDbEntity
  8
寸法
100
AcDbBlockBegin
  2
*D27
 70
     1
 10
0
 20
0
  3
*D27
  1

  0
LINE
  5
591
100
AcDbEntity
  8
寸法
 62
     0
100
AcDbLine
 10
950.42
 20
855.1091230715
 11
970.42
 21
855.1091230715
  0
MTEXT
  5
592
100
AcDbEntity
  8
寸法
 62
     0
100
AcDbMText
 10
960.42
 20
865.6091230715
 40
15
 41
0
 71
     5
 72
     1
  1
20
 11
1
 21
0
1001
ACAD
1000
MTEXTBEGIN
1000
MTEXTEND
  0
POINT
  5
593
100
AcDbEntity
  8
寸法
100
AcDbPoint
 10
950.42
 20
855.1091230715
  0
POINT
  5
594
100
AcDbEntity
  8
寸法
100
AcDbPoint
 10
970.42
 20
855.1091230715
  0
POINT
  5
595
100
AcDbEntity
  8
寸法
100
AcDbPoint
 10
970.42
 20
855.1091230715
  0
ENDBLK
  5
596
100
AcDbEntity
  8
寸法
100
AcDbBlockEnd
  0
BLOCK
  5
597
100
AcDbEntity
  8
寸法
100
AcDbBlockBegin
  2
*D28
 70
     1
 10
0
 20
0
  3
*D28
  1

  0
LINE
  5
598
100
AcDbEntity
  8
寸法
 62
     0
100
AcDbLine
 10
970.42
 20
855.1091230715
 11
1000.42
 21
855.1091230715
  0
MTEXT
  5
599
100
AcDbEntity
  8
寸法
 62
     0
100
AcDbMText
 10
985.42
 20
865.6091230715
 40
15
 41
0
 71
     5
 72
     1
  1
30
 11
1
 21
0
1001
ACAD
1000
MTEXTBEGIN
1000
MTEXTEND
  0
POINT
  5
59A
100
AcDbEntity
  8
寸法
100
AcDbPoint
 10
970.42
 20
855.1091230715
  0
POINT
  5
59B
100
AcDbEntity
  8
寸法
100
AcDbPoint
 10
1000.42
 20
855.1091230715
  0
POINT
  5
59C
100
AcDbEntity
  8
寸法
100
AcDbPoint
 10
1000.42
 20
855.1091230715
  0
ENDBLK
  5
59D
100
AcDbEntity
  8
寸法
100
AcDbBlockEnd
  0
BLOCK
  5
59E
100
AcDbEntity
  8
寸法
100
AcDbBlockBegin
  2
*D29
 70
     1
 10
0
 20
0
  3
*D29
  1

  0
LINE
  5
59F
100
AcDbEntity
  8
寸法
 62
     0
100
AcDbLine
 10
990.42
 20
873.1091230715
 11
1000.42
 21
873.1091230715
  0
MTEXT
  5
5A0
100
AcDbEntity
  8
寸法
 62
     0
100
AcDbMText
 10
995.42
 20
883.6091230715
 40
15
 41
0
 71
     5
 72
     1
  1
10
 11
1
 21
0
1001
ACAD
1000
MTEXTBEGIN
1000
MTEXTEND
  0
POINT
  5
5A1
100
AcDbEntity
  8
寸法
100
AcDbPoint
 10
990.42
 20
873.1091230715
  0
POINT
  5
5A2
100
AcDbEntity
  8
寸法
100
AcDbPoint
 10
1000.42
 20
873.1091230715
  0
POINT
  5
5A3
100
AcDbEntity
  8
寸法
100
AcDbPoint
 10
1000.42
 20
873.1091230715
  0
ENDBLK
  5
5A4
100
AcDbEntity
  8
寸法
100
AcDbBlockEnd
  0
BLOCK
  5
5A5
100
AcDbEntity
  8
寸法
100
AcDbBlockBegin
  2
*D30
 70
     1
 10
0
 20
0
  3
*D30
  1

  0
LINE
  5
5A6
100
AcDbEntity
  8
寸法
 62
     0
100
AcDbLine
 10
1546.937195619
 20
750.821242629
 11
1546.937195619
 21
800.821262429
  0
MTEXT
  5
5A7
100
AcDbEntity
  8
寸法
 62
     0
100
AcDbMText
 10
1536.437195619
 20
775.821252529
 40
15
 41
0
 71
     5
 72
     1
  1
50
 11
6.123031769112E-017
 21
1
1001
ACAD
1000
MTEXTBEGIN
1000
MTEXTEND
  0
POINT
  5
5A8
100
AcDbEntity
  8
寸法
100
AcDbPoint
 10
1546.937195619
 20
750.821242629
  0
POINT
  5
5A9
100
AcDbEntity
  8
寸法
100
AcDbPoint
 10
1546.937195619
 20
800.821262429
  0
POINT
  5
5AA
100
AcDbEntity
  8
寸法
100
AcDbPoint
 10
1546.937195619
 20
800.821262429
  0
ENDBLK
  5
5AB
100
AcDbEntity
  8
寸法
100
AcDbBlockEnd
  0
BLOCK
  5
5AC
100
AcDbEntity
  8
寸法
100
AcDbBlockBegin
  2
*D31
 70
     1
 10
0
 20
0
  3
*D31
  1

  0
LINE
  5
5AD
100
AcDbEntity
  8
寸法
 62
     0
100
AcDbLine
 10
1546.937195619
 20
800.821262429
 11
1546.937195619
 21
850.821232429
  0
MTEXT
  5
5AE
100
AcDbEntity
  8
寸法
 62
     0
100
AcDbMText
 10
1536.437195619
 20
825.821247429
 40
15
 41
0
 71
     5
 72
     1
  1
50
 11
6.123031769112E-017
 21
1
1001
ACAD
1000
MTEXTBEGIN
1000
MTEXTEND
  0
POINT
  5
5AF
100
AcDbEntity
  8
寸法
100
AcDbPoint
 10
1546.937195619
 20
800.821262429
  0
POINT
  5
5B0
100
AcDbEntity
  8
寸法
100
AcDbPoint
 10
1546.937195619
 20
850.821232429
  0
POINT
  5
5B1
100
AcDbEntity
  8
寸法
100
AcDbPoint
 10
1546.937195619
 20
850.821232429
  0
ENDBLK
  5
5B2
100
AcDbEntity
  8
寸法
100
AcDbBlockEnd
  0
BLOCK
  5
5B3
100
AcDbEntity
  8
寸法
100
AcDbBlockBegin
  2
*D32
 70
     1
 10
0
 20
0
  3
*D32
  1

  0
LINE
  5
5B4
100
AcDbEntity
  8
寸法
 62
     0
100
AcDbLine
 10
1450.937189349
 20
886.821232429
 11
1500.937229349
 21
886.821232429
  0
MTEXT
  5
5B5
100
AcDbEntity
  8
寸法
 62
     0
100
AcDbMText
 10
1475.937209349
 20
897.321232429
 40
15
 41
0
 71
     5
 72
     1
  1
50
 11
1
 21
0
1001
ACAD
1000
MTEXTBEGIN
1000
MTEXTEND
  0
POINT
  5
5B6
100
AcDbEntity
  8
寸法
100
AcDbPoint
 10
1450.937189349
 20
886.821232429
  0
POINT
  5
5B7
100
AcDbEntity
  8
寸法
100
AcDbPoint
 10
1500.937229349
 20
886.821232429
  0
POINT
  5
5B8
100
AcDbEntity
  8
寸法
100
AcDbPoint
 10
1500.937229349
 20
886.821232429
  0
ENDBLK
  5
5B9
100
AcDbEntity
  8
寸法
100
AcDbBlockEnd
  0
BLOCK
  5
5BA
100
AcDbEntity
  8
寸法
100
AcDbBlockBegin
  2
*D33
 70
     1
 10
0
 20
0
  3
*D33
  1

  0
LINE
  5
5BB
100
AcDbEntity
  8
寸法
 62
     0
100
AcDbLine
 10
1510.937195619
 20
714.821242629
 11
1460.937199349
 21
714.821242629
  0
MTEXT
  5
5BC
100
AcDbEntity
  8
寸法
 62
     0
100
AcDbMText
 10
1485.937197484
 20
725.321242629
 40
15
 41
0
 71
     5
 72
     1
  1
50
 11
1
 21
0
1001
ACAD
1000
MTEXTBEGIN
1000
MTEXTEND
  0
POINT
  5
5BD
100
AcDbEntity
  8
寸法
100
AcDbPoint
 10
1510.937195619
 20
714.821242629
  0
POINT
  5
5BE
100
AcDbEntity
  8
寸法
100
AcDbPoint
 10
1460.937199349
 20
714.821242629
  0
POINT
  5
5BF
100
AcDbEntity
  8
寸法
100
AcDbPoint
 10
1460.937199349
 20
714.821242629
  0
ENDBLK
  5
5C0
100
AcDbEntity
  8
寸法
100
AcDbBlockEnd
  0
BLOCK
  5
5C1
100
AcDbEntity
  8
寸法
100
AcDbBlockBegin
  2
*D34
 70
     1
 10
0
 20
0
  3
*D34
  1

  0
LINE
  5
5C2
100
AcDbEntity
  8
寸法
 62
     0
100
AcDbLine
 10
809.6081081741
 20
767.1091230715
 11
809.6081081741
 21
667.1091217108
  0
MTEXT
  5
5C3
100
AcDbEntity
  8
寸法
 62
     0
100
AcDbMText
 10
796.1081081741
 20
717.1091223911
 40
15
 41
0
 71
     5
 72
     1
  1
100
 11
6.123031769112E-017
 21
1
1001
ACAD
1000
MTEXTBEGIN
1000
MTEXTEND
  0
POINT
  5
5C4
100
AcDbEntity
  8
寸法
100
AcDbPoint
 10
809.6081081741
 20
767.1091230715
  0
POINT
  5
5C5
100
AcDbEntity
  8
寸法
100
AcDbPoint
 10
809.6081081741
 20
667.1091217108
  0
POINT
  5
5C6
100
AcDbEntity
  8
寸法
100
AcDbPoint
 10
809.6081081741
 20
667.1091217108
  0
ENDBLK
  5
5C7
100
AcDbEntity
  8
寸法
100
AcDbBlockEnd
  0
BLOCK
  5
5C8
100
AcDbEntity
  8
寸法
100
AcDbBlockBegin
  2
*D35
 70
     1
 10
0
 20
0
  3
*D35
  1

  0
LINE
  5
5C9
100
AcDbEntity
  8
寸法
 62
     0
100
AcDbLine
 10
880.4200050534
 20
605.4389551482
 11
940.42
 21
605.4389551482
  0
MTEXT
  5
5CA
100
AcDbEntity
  8
寸法
 62
     0
100
AcDbMText
 10
910.4200025267
 20
618.9389551482
 40
15
 41
0
 71
     5
 72
     1
  1
60
 11
1
 21
0
1001
ACAD
1000
MTEXTBEGIN
1000
MTEXTEND
  0
POINT
  5
5CB
100
AcDbEntity
  8
寸法
100
AcDbPoint
 10
880.4200050534
 20
605.4389551482
  0
POINT
  5
5CC
100
AcDbEntity
  8
寸法
100
AcDbPoint
 10
940.42
 20
605.4389551482
  0
POINT
  5
5CD
100
AcDbEntity
  8
寸法
100
AcDbPoint
 10
940.42
 20
605.4389551482
  0
ENDBLK
  5
5CE
100
AcDbEntity
  8
寸法
100
AcDbBlockEnd
  0
BLOCK
  5
5CF
100
AcDbEntity
  8
寸法
100
AcDbBlockBegin
  2
*D36
 70
     1
 10
0
 20
0
  3
*D36
  1

  0
LINE
  5
5D0
100
AcDbEntity
  8
寸法
 62
     0
100
AcDbLine
 10
940.42
 20
605.4389551482
 11
990.42
 21
605.4389551482
  0
MTEXT
  5
5D1
100
AcDbEntity
  8
寸法
 62
     0
100
AcDbMText
 10
965.42
 20
618.9389551482
 40
15
 41
0
 71
     5
 72
     1
  1
50
 11
1
 21
0
1001
ACAD
1000
MTEXTBEGIN
1000
MTEXTEND
  0
POINT
  5
5D2
100
AcDbEntity
  8
寸法
100
AcDbPoint
 10
940.42
 20
605.4389551482
  0
POINT
  5
5D3
100
AcDbEntity
  8
寸法
100
AcDbPoint
 10
990.42
 20
605.4389551482
  0
POINT
  5
5D4
100
AcDbEntity
  8
寸法
100
AcDbPoint
 10
990.42
 20
605.4389551482
  0
ENDBLK
  5
5D5
100
AcDbEntity
  8
寸法
100
AcDbBlockEnd
  0
BLOCK
  5
5D6
100
AcDbEntity
  8
寸法
100
AcDbBlockBegin
  2
*D37
 70
     1
 10
0
 20
0
  3
*D37
  1

  0
LINE
  5
5D7
100
AcDbEntity
  8
寸法
 62
     0
100
AcDbLine
 10
990.42
 20
605.4389551482
 11
1000.42
 21
605.4389551482
  0
MTEXT
  5
5D8
100
AcDbEntity
  8
寸法
 62
     0
100
AcDbMText
 10
995.42
 20
618.9389551482
 40
15
 41
0
 71
     5
 72
     1
  1
10
 11
1
 21
0
1001
ACAD
1000
MTEXTBEGIN
1000
MTEXTEND
  0
POINT
  5
5D9
100
AcDbEntity
  8
寸法
100
AcDbPoint
 10
990.42
 20
605.4389551482
  0
POINT
  5
5DA
100
AcDbEntity
  8
寸法
100
AcDbPoint
 10
1000.42
 20
605.4389551482
  0
POINT
  5
5DB
100
AcDbEntity
  8
寸法
100
AcDbPoint
 10
1000.42
 20
605.4389551482
  0
ENDBLK
  5
5DC
100
AcDbEntity
  8
寸法
100
AcDbBlockEnd
  0
BLOCK
  5
5DD
100
AcDbEntity
  8
寸法
100
AcDbBlockBegin
  2
*D38
 70
     1
 10
0
 20
0
  3
*D38
  1

  0
LINE
  5
5DE
100
AcDbEntity
  8
寸法
 62
     0
100
AcDbLine
 10
1000.42
 20
605.4389551482
 11
1100.42
 21
605.4389551482
  0
MTEXT
  5
5DF
100
AcDbEntity
  8
寸法
 62
     0
100
AcDbMText
 10
1050.42
 20
618.9389551482
 40
15
 41
0
 71
     5
 72
     1
  1
100
 11
1
 21
0
1001
ACAD
1000
MTEXTBEGIN
1000
MTEXTEND
  0
POINT
  5
5E0
100
AcDbEntity
  8
寸法
100
AcDbPoint
 10
1000.42
 20
605.4389551482
  0
POINT
  5
5E1
100
AcDbEntity
  8
寸法
100
AcDbPoint
 10
1100.42
 20
605.4389551482
  0
POINT
  5
5E2
100
AcDbEntity
  8
寸法
100
AcDbPoint
 10
1100.42
 20
605.4389551482
  0
ENDBLK
  5
5E3
100
AcDbEntity
  8
寸法
100
AcDbBlockEnd
  0
BLOCK
  5
5E4
100
AcDbEntity
  8
寸法
100
AcDbBlockBegin
  2
*D39
 70
     1
 10
0
 20
0
  3
*D39
  1

  0
LINE
  5
5E5
100
AcDbEntity
  8
寸法
 62
     0
100
AcDbLine
 10
1390.937201717
 20
605.4389551482
 11
1450.937201717
 21
605.4389551482
  0
MTEXT
  5
5E6
100
AcDbEntity
  8
寸法
 62
     0
100
AcDbMText
 10
1420.937201717
 20
618.9389551482
 40
15
 41
0
 71
     5
 72
     1
  1
60
 11
1
 21
0
1001
ACAD
1000
MTEXTBEGIN
1000
MTEXTEND
  0
POINT
  5
5E7
100
AcDbEntity
  8
寸法
100
AcDbPoint
 10
1390.937201717
 20
605.4389551482
  0
POINT
  5
5E8
100
AcDbEntity
  8
寸法
100
AcDbPoint
 10
1450.937201717
 20
605.4389551482
  0
POINT
  5
5E9
100
AcDbEntity
  8
寸法
100
AcDbPoint
 10
1450.937201717
 20
605.4389551482
  0
ENDBLK
  5
5EA
100
AcDbEntity
  8
寸法
100
AcDbBlockEnd
  0
BLOCK
  5
5EB
100
AcDbEntity
  8
寸法
100
AcDbBlockBegin
  2
*D40
 70
     1
 10
0
 20
0
  3
*D40
  1

  0
LINE
  5
5EC
100
AcDbEntity
  8
寸法
 62
     0
100
AcDbLine
 10
1450.937201717
 20
605.4389551482
 11
1510.937201717
 21
605.4389551482
  0
MTEXT
  5
5ED
100
AcDbEntity
  8
寸法
 62
     0
100
AcDbMText
 10
1480.937201717
 20
618.9389551482
 40
15
 41
0
 71
     5
 72
     1
  1
60
 11
1
 21
0
1001
ACAD
1000
MTEXTBEGIN
1000
MTEXTEND
  0
POINT
  5
5EE
100
AcDbEntity
  8
寸法
100
AcDbPoint
 10
1450.937201717
 20
605.4389551482
  0
POINT
  5
5EF
100
AcDbEntity
  8
寸法
100
AcDbPoint
 10
1510.937201717
 20
605.4389551482
  0
POINT
  5
5F0
100
AcDbEntity
  8
寸法
100
AcDbPoint
 10
1510.937201717
 20
605.4389551482
  0
ENDBLK
  5
5F1
100
AcDbEntity
  8
寸法
100
AcDbBlockEnd
  0
BLOCK
  5
5F2
100
AcDbEntity
  8
寸法
100
AcDbBlockBegin
  2
*D41
 70
     1
 10
0
 20
0
  3
*D41
  1

  0
LINE
  5
5F3
100
AcDbEntity
  8
寸法
 62
     0
100
AcDbLine
 10
1510.937201717
 20
605.4389551482
 11
1610.937209349
 21
605.4389551482
  0
MTEXT
  5
5F4
100
AcDbEntity
  8
寸法
 62
     0
100
AcDbMText
 10
1560.937205533
 20
618.9389551482
 40
15
 41
0
 71
     5
 72
     1
  1
100
 11
1
 21
0
1001
ACAD
1000
MTEXTBEGIN
1000
MTEXTEND
  0
POINT
  5
5F5
100
AcDbEntity
  8
寸法
100
AcDbPoint
 10
1510.937201717
 20
605.4389551482
  0
POINT
  5
5F6
100
AcDbEntity
  8
寸法
100
AcDbPoint
 10
1610.937209349
 20
605.4389551482
  0
POINT
  5
5F7
100
AcDbEntity
  8
寸法
100
AcDbPoint
 10
1610.937209349
 20
605.4389551482
  0
ENDBLK
  5
5F8
100
AcDbEntity
  8
寸法
100
AcDbBlockEnd
  0
BLOCK
  5
5F9
100
AcDbEntity
  8
寸法
100
AcDbBlockBegin
  2
*D42
 70
     1
 10
0
 20
0
  3
*D42
  1

  0
LINE
  5
5FA
100
AcDbEntity
  8
寸法
 62
     0
100
AcDbLine
 10
1369.723908634
 20
1094.963291556
 11
1376.79494732
 21
1102.034388493
  0
MTEXT
  5
5FB
100
AcDbEntity
  8
寸法
 62
     0
100
AcDbMText
 10
1365.834776193
 20
1105.923430645
 40
15
 41
0
 71
     5
 72
     1
  1
10
 11
0.7071038686238
 21
0.7071096937373
1001
ACAD
1000
MTEXTBEGIN
1000
MTEXTEND
  0
POINT
  5
5FC
100
AcDbEntity
  8
寸法
100
AcDbPoint
 10
1369.723908634
 20
1094.963291556
  0
POINT
  5
5FD
100
AcDbEntity
  8
寸法
100
AcDbPoint
 10
1376.79494732
 20
1102.034388493
  0
POINT
  5
5FE
100
AcDbEntity
  8
寸法
100
AcDbPoint
 10
1376.79494732
 20
1102.034388493
  0
ENDBLK
  5
5FF
100
AcDbEntity
  8
寸法
100
AcDbBlockEnd
  0
BLOCK
  5
600
100
AcDbEntity
  8
寸法
100
AcDbBlockBegin
  2
*D43
 70
     1
 10
0
 20
0
  3
*D43
  1

  0
LINE
  5
601
100
AcDbEntity
  8
寸法
 62
     0
100
AcDbLine
 10
945.42
 20
759.1091230715
 11
981.42
 21
759.1091230715
  0
LINE
  5
602
100
AcDbEntity
  8
寸法
 62
     0
100
AcDbLine
 10
945.42
 20
750.1091230715
 11
981.42
 21
750.1091230715
  0
LINE
  5
603
100
AcDbEntity
  8
寸法
 62
     0
100
AcDbLine
 10
975.42
 20
759.1091230715
 11
975.42
 21
750.1091230715
  0
INSERT
  5
604
100
AcDbEntity
  8
寸法
 62
     0
100
AcDbBlockReference
  2
_DOT
 10
975.42
 20
759.1091230715
 41
4.2
 42
4.2
 50
90
  0
INSERT
  5
605
100
AcDbEntity
  8
寸法
 62
     0
100
AcDbBlockReference
  2
_DOT
 10
975.42
 20
750.1091230715
 41
4.2
 42
4.2
 50
-90
  0
MTEXT
  5
606
100
AcDbEntity
  8
寸法
 62
     0
100
AcDbMText
 10
964.92
 20
754.6091230715
 40
15
 41
0
 71
     5
 72
     1
  1
9
 11
6.123031769112E-017
 21
1
1001
ACAD
1000
MTEXTBEGIN
1000
MTEXTEND
  0
POINT
  5
607
100
AcDbEntity
  8
寸法
100
AcDbPoint
 10
945.42
 20
759.1091230715
  0
POINT
  5
608
100
AcDbEntity
  8
寸法
100
AcDbPoint
 10
945.42
 20
750.1091230715
  0
POINT
  5
609
100
AcDbEntity
  8
寸法
100
AcDbPoint
 10
975.42
 20
750.1091230715
  0
ENDBLK
  5
60A
100
AcDbEntity
  8
寸法
100
AcDbBlockEnd
  0
BLOCK
  5
60B
100
AcDbEntity
  8
寸法
100
AcDbBlockBegin
  2
*D44
 70
     1
 10
0
 20
0
  3
*D44
  1

  0
LINE
  5
60C
100
AcDbEntity
  8
寸法
 62
     0
100
AcDbLine
 10
946.42
 20
767.1091230715
 11
1006.42
 21
767.1091230715
  0
LINE
  5
60D
100
AcDbEntity
  8
寸法
 62
     0
100
AcDbLine
 10
946.42
 20
742.1091230243
 11
1006.42
 21
742.1091230243
  0
LINE
  5
60E
100
AcDbEntity
  8
寸法
 62
     0
100
AcDbLine
 10
1000.42
 20
767.1091230715
 11
1000.42
 21
742.1091230243
  0
INSERT
  5
60F
100
AcDbEntity
  8
寸法
 62
     0
100
AcDbBlockReference
  2
_DOT
 10
1000.42
 20
767.1091230715
 41
4.2
 42
4.2
 50
90
  0
INSERT
  5
610
100
AcDbEntity
  8
寸法
 62
     0
100
AcDbBlockReference
  2
_DOT
 10
1000.42
 20
742.1091230243
 41
4.2
 42
4.2
 50
-90
  0
MTEXT
  5
611
100
AcDbEntity
  8
寸法
 62
     0
100
AcDbMText
 10
989.92
 20
754.6091230479
 40
15
 41
0
 71
     5
 72
     1
  1
25
 11
6.123031769112E-017
 21
1
1001
ACAD
1000
MTEXTBEGIN
1000
MTEXTEND
  0
POINT
  5
612
100
AcDbEntity
  8
寸法
100
AcDbPoint
 10
946.42
 20
767.1091230715
  0
POINT
  5
613
100
AcDbEntity
  8
寸法
100
AcDbPoint
 10
946.42
 20
742.1091230243
  0
POINT
  5
614
100
AcDbEntity
  8
寸法
100
AcDbPoint
 10
1000.42
 20
742.1091230243
  0
ENDBLK
  5
615
100
AcDbEntity
  8
寸法
100
AcDbBlockEnd
  0
ENDSEC
  0
SECTION
  2
ENTITIES
  0
INSERT
  5
616
100
AcDbEntity
  8
固定アングル
100
AcDbBlockReference
  2
BK2
 10
0
 20
0
  0
INSERT
  5
617
100
AcDbEntity
  8
固定アングル
100
AcDbBlockReference
  2
BK3
 10
0
 20
0
  0
LINE
  5
618
100
AcDbEntity
  8
ストリンガー
  6
CONTINUOUS
 62
     0
100
AcDbLine
 10
1500.937229349
 20
804.8212632509
 11
1500.937229349
 21
800.821242429
  0
LINE
  5
619
100
AcDbEntity
  8
ストリンガー
  6
DASHED
 62
     0
100
AcDbLine
 10
1490.937229332
 20
804.821242429
 11
1490.937229332
 21
800.821242429
  0
LINE
  5
61A
100
AcDbEntity
  8
ストリンガー
  6
DASHED
 62
     0
100
AcDbLine
 10
1470.937199332
 20
804.821242429
 11
1470.937199332
 21
800.821242429
  0
LINE
  5
61B
100
AcDbEntity
  8
ストリンガー
  6
CONTINUOUS
 62
     0
100
AcDbLine
 10
1450.937183674
 20
850.821232429
 11
1450.937183674
 21
800.821232429
  0
LINE
  5
61C
100
AcDbEntity
  8
ストリンガー
  6
CONTINUOUS
 62
     0
100
AcDbLine
 10
1450.937199349
 20
800.821252429
 11
1500.937229349
 21
800.821262429
  0
LINE
  5
61D
100
AcDbEntity
  8
ストリンガー
  6
CONTINUOUS
 62
     0
100
AcDbLine
 10
1454.93720113
 20
804.8212506481
 11
1500.937229349
 21
804.8212632509
  0
LINE
  5
61E
100
AcDbEntity
  8
ストリンガー
  6
DASHED
 62
     0
100
AcDbLine
 10
1470.937199332
 20
802.1545887623
 11
1490.937229332
 21
802.1545887623
  0
LINE
  5
61F
100
AcDbEntity
  8
ストリンガー
  6
DASHED
 62
     0
100
AcDbLine
 10
1470.937199332
 20
803.4879320956
 11
1490.937229332
 21
803.4879320956
  0
LINE
  5
620
100
AcDbEntity
  8
ストリンガー
  6
DASHED
 62
     0
100
AcDbLine
 10
1452.270522987
 20
827.821252429
 11
1452.270522987
 21
850.802676365
  0
LINE
  5
621
100
AcDbEntity
  8
ストリンガー
  6
DASHED
 62
     0
100
AcDbLine
 10
1453.603861495
 20
827.821252429
 11
1453.603861495
 21
850.821232429
  0
LINE
  5
622
100
AcDbEntity
  8
ストリンガー
  6
CONTINUOUS
 62
     0
100
AcDbLine
 10
1454.937188527
 20
850.821232429
 11
1454.93720113
 21
804.8212506481
  0
LINE
  5
623
100
AcDbEntity
  8
ストリンガー
  6
DASHED
 62
     0
100
AcDbLine
 10
1450.937189349
 20
827.821252429
 11
1454.937189349
 21
827.821252429
  0
LINE
  5
624
100
AcDbEntity
  8
ストリンガー
  6
CONTINUOUS
 62
     0
100
AcDbLine
 10
1450.937189349
 20
850.821232429
 11
1454.937188527
 21
850.821232429
  0
LINE
  5
625
100
AcDbEntity
  8
ストリンガー
  6
CONTINUOUS
 62
     0
100
AcDbLine
 10
1620.937209349
 20
1016.821272429
 11
1666.937209349
 21
1016.821272429
  0
LINE
  5
626
100
AcDbEntity
  8
ストリンガー
  6
CONTINUOUS
 62
     0
100
AcDbLine
 10
1620.937209349
 20
1020.821272429
 11
1670.937213547
 21
1020.821272429
  0
LINE
  5
627
100
AcDbEntity
  8
ストリンガー
  6
DASHED
 62
     0
100
AcDbLine
 10
1643.937209349
 20
1018.154600283
 11
1620.937209349
 21
1018.154600283
  0
LINE
  5
628
100
AcDbEntity
  8
ストリンガー
  6
DASHED
 62
     0
100
AcDbLine
 10
1643.937209349
 20
1019.487938792
 11
1620.955785413
 21
1019.487938792
  0
LINE
  5
629
100
AcDbEntity
  8
ストリンガー
  6
CONTINUOUS
 62
     0
100
AcDbLine
 10
1620.937209349
 20
1020.821272429
 11
1620.937209349
 21
1016.821272429
  0
LINE
  5
62A
100
AcDbEntity
  8
ストリンガー
  6
DASHED
 62
     0
100
AcDbLine
 10
1643.937209349
 20
1020.821272429
 11
1643.937209349
 21
1016.821272429
  0
LINE
  5
62B
100
AcDbEntity
  8
ストリンガー
  6
CONTINUOUS
 62
     0
100
AcDbLine
 10
1670.937209349
 20
1020.821272429
 11
1670.937209349
 21
970.821272429
  0
LINE
  5
62C
100
AcDbEntity
  8
ストリンガー
  6
CONTINUOUS
 62
     0
100
AcDbLine
 10
1666.937209349
 20
1016.821272429
 11
1666.937209349
 21
970.821272429
  0
LINE
  5
62D
100
AcDbEntity
  8
ストリンガー
  6
CONTINUOUS
 62
     0
100
AcDbLine
 10
1666.937209349
 20
970.821272429
 11
1670.937209349
 21
970.821272429
  0
LINE
  5
62E
100
AcDbEntity
  8
ストリンガー
  6
DASHED
 62
     0
100
AcDbLine
 10
1666.937219349
 20
1000.821262429
 11
1670.937219349
 21
1000.821262429
  0
LINE
  5
62F
100
AcDbEntity
  8
ストリンガー
  6
DASHED
 62
     0
100
AcDbLine
 10
1666.937219349
 20
980.821232429
 11
1670.937219349
 21
980.821232429
  0
LINE
  5
630
100
AcDbEntity
  8
ストリンガー
  6
DASHED
 62
     0
100
AcDbLine
 10
1669.603873016
 20
1000.821262429
 11
1669.603873016
 21
980.821232429
  0
LINE
  5
631
100
AcDbEntity
  8
ストリンガー
  6
DASHED
 62
     0
100
AcDbLine
 10
1668.270529683
 20
1000.821262429
 11
1668.270529683
 21
980.821232429
  0
LINE
  5
632
100
AcDbEntity
  8
パネル
  6
CONTINUOUS
 62
     0
100
AcDbLine
 10
1390.9371706
 20
1073.750204343
 11
1390.937201717
 21
673.6091230715
  0
LINE
  5
633
100
AcDbEntity
  8
パネル
  6
CONTINUOUS
 62
     0
100
AcDbLine
 10
1450.937175249
 20
1013.750204343
 11
1450.937201717
 21
673.6091230715
  0
LINE
  5
634
100
AcDbEntity
  8
パネル
  6
DASHED
 62
     0
100
AcDbLine
 10
1449.437175132
 20
1015.250204343
 11
1449.437201717
 21
673.6091230715
  0
LINE
  5
635
100
AcDbEntity
  8
パネル
  6
DASHED
 62
     0
100
AcDbLine
 10
1392.237170701
 20
1072.450204343
 11
1392.237201717
 21
673.6091230715
  0
LINE
  5
636
100
AcDbEntity
  8
パネル
  6
DASHED
 62
     0
100
AcDbLine
 10
1439.937174397
 20
1024.750204342
 11
1439.937201717
 21
673.6091230715
  0
LINE
  5
637
100
AcDbEntity
  8
パネル
  6
DASHED
 62
     0
100
AcDbLine
 10
1438.637174297
 20
1026.050204342
 11
1438.637201717
 21
673.6091230715
  0
LINE
  5
638
100
AcDbEntity
  8
パネル
  6
CONTINUOUS
 62
     0
100
AcDbLine
 10
1398.008238138
 20
1080.821272429
 11
1788.066275663
 21
1080.821272429
  0
LINE
  5
639
100
AcDbEntity
  8
パネル
  6
CONTINUOUS
 62
     0
100
AcDbLine
 10
1458.008242787
 20
1020.821272429
 11
1788.066275663
 21
1020.821272429
  0
LINE
  5
63A
100
AcDbEntity
  8
パネル
  6
DASHED
 62
     0
100
AcDbLine
 10
1399.308238239
 20
1079.521272429
 11
1788.066275663
 21
1079.521272429
  0
LINE
  5
63B
100
AcDbEntity
  8
パネル
  6
DASHED
 62
     0
100
AcDbLine
 10
1456.50824267
 20
1022.321272429
 11
1788.066275663
 21
1022.321272429
  0
LINE
  5
63C
100
AcDbEntity
  8
パネル
  6
DASHED
 62
     0
100
AcDbLine
 10
1447.008241934
 20
1031.821272429
 11
1788.066275663
 21
1031.821272429
  0
LINE
  5
63D
100
AcDbEntity
  8
パネル
  6
DASHED
 62
     0
100
AcDbLine
 10
1445.708241834
 20
1033.121272429
 11
1788.066275663
 21
1033.121272429
  0
LINE
  5
63E
100
AcDbEntity
  8
パネル
  6
CONTINUOUS
 62
     0
100
AcDbLine
 10
1390.9371706
 20
1073.750204343
 11
1450.937175249
 21
1013.750204343
  0
LINE
  5
63F
100
AcDbEntity
  8
パネル
  6
CONTINUOUS
 62
     0
100
AcDbLine
 10
1398.008238138
 20
1080.821272429
 11
1458.008242787
 21
1020.821272429
  0
INSERT
  5
640
100
AcDbEntity
  8
固定アングル
100
AcDbBlockReference
  2
BK4
 10
0
 20
0
  0
INSERT
  5
641
100
AcDbEntity
  8
固定アングル
100
AcDbBlockReference
  2
BK5
 10
0
 20
0
  0
LINE
  5
642
100
AcDbEntity
  8
ストリンガー
  6
CONTINUOUS
 62
     0
100
AcDbLine
 10
990.42
 20
1118.609123072
 11
990.42
 21
668.6091230715
  0
LINE
  5
643
100
AcDbEntity
  8
ストリンガー
  6
CONTINUOUS
 62
     0
100
AcDbLine
 10
944.42
 20
1118.609123072
 11
944.42
 21
668.6091230715
  0
LINE
  5
644
100
AcDbEntity
  8
ストリンガー
  6
CONTINUOUS
 62
     0
100
AcDbLine
 10
940.42
 20
1118.609123072
 11
940.42
 21
668.6091230715
  0
LINE
  5
645
100
AcDbEntity
  8
ストリンガー
  6
CONTINUOUS
 62
     0
100
AcDbLine
 10
940.42
 20
668.6091230715
 11
990.42
 21
668.6091230715
  0
LINE
  5
646
100
AcDbEntity
  8
ストリンガー
  6
DASHED
 62
     0
100
AcDbLine
 10
943.0866666667
 20
1108.209174369
 11
943.0866666667
 21
1101.209174369
  0
LINE
  5
647
100
AcDbEntity
  8
ストリンガー
  6
DASHED
 62
     0
100
AcDbLine
 10
941.7533333333
 20
1108.209174369
 11
941.7533333333
 21
1101.209174369
  0
LINE
  5
648
100
AcDbEntity
  8
ストリンガー
  6
DASHED
 62
     0
100
AcDbLine
 10
940.42
 20
1101.209174369
 11
944.42
 21
1101.209174369
  0
LINE
  5
649
100
AcDbEntity
  8
ストリンガー
  6
CONTINUOUS
 62
     0
100
AcDbLine
 10
940.42
 20
1118.609123072
 11
990.42
 21
1118.609123072
  0
LINE
  5
64A
100
AcDbEntity
  8
ストリンガー
  6
DASHED
 62
     0
100
AcDbLine
 10
940.42
 20
1108.209174369
 11
944.42
 21
1108.209174369
  0
LINE
  5
64B
100
AcDbEntity
  8
ストリンガー
  6
DASHED
 62
     0
100
AcDbLine
 10
943.0866666667
 20
933.2091743685
 11
943.0866666667
 21
926.2091743685
  0
LINE
  5
64C
100
AcDbEntity
  8
ストリンガー
  6
DASHED
 62
     0
100
AcDbLine
 10
941.7533333333
 20
933.2091743685
 11
941.7533333333
 21
926.2091743685
  0
LINE
  5
64D
100
AcDbEntity
  8
ストリンガー
  6
DASHED
 62
     0
100
AcDbLine
 10
940.42
 20
926.2091743685
 11
944.42
 21
926.2091743685
  0
LINE
  5
64E
100
AcDbEntity
  8
ストリンガー
  6
DASHED
 62
     0
100
AcDbLine
 10
940.42
 20
933.2091743685
 11
944.42
 21
933.2091743685
  0
LINE
  5
64F
100
AcDbEntity
  8
ストリンガー
  6
DASHED
 62
     0
100
AcDbLine
 10
940.42
 20
758.2091743685
 11
944.42
 21
758.2091743685
  0
LINE
  5
650
100
AcDbEntity
  8
ストリンガー
  6
DASHED
 62
     0
100
AcDbLine
 10
940.42
 20
751.2091743685
 11
944.42
 21
751.2091743685
  0
LINE
  5
651
100
AcDbEntity
  8
ストリンガー
  6
DASHED
 62
     0
100
AcDbLine
 10
941.7533333333
 20
758.2091743685
 11
941.7533333333
 21
751.2091743685
  0
LINE
  5
652
100
AcDbEntity
  8
ストリンガー
  6
DASHED
 62
     0
100
AcDbLine
 10
943.0866666667
 20
758.2091743685
 11
943.0866666667
 21
751.2091743685
  0
INSERT
  5
653
100
AcDbEntity
  8
パネル
100
AcDbBlockReference
  2
BK6
 10
0
 20
0
  0
INSERT
  5
654
100
AcDbEntity
  8
パネル
100
AcDbBlockReference
  2
BK7
 10
0
 20
0
  0
INSERT
  5
655
100
AcDbEntity
  8
パネル
100
AcDbBlockReference
  2
BK8
 10
0
 20
0
  0
LINE
  5
656
100
AcDbEntity
  8
鉄骨下地
  6
PHANTOM
 62
     0
100
AcDbLine
 10
1610.937209349
 20
860.821272429
 11
1610.937209349
 21
673.6091230715
  0
LINE
  5
657
100
AcDbEntity
  8
鉄骨下地
  6
DASHED
 62
     0
100
AcDbLine
 10
1514.137189349
 20
960.821282429
 11
1514.137211717
 21
673.6091230715
  0
LINE
  5
658
100
AcDbEntity
  8
鉄骨下地
  6
PHANTOM
 62
     0
100
AcDbLine
 10
1510.937179349
 20
960.821282429
 11
1510.937201717
 21
673.6091230715
  0
LINE
  5
659
100
AcDbEntity
  8
鉄骨下地
  6
DASHED
 62
     0
100
AcDbLine
 10
1607.737179349
 20
960.821292181
 11
1607.737201717
 21
673.6091230715
  0
LINE
  5
65A
100
AcDbEntity
  8
鉄骨下地
  6
PHANTOM
 62
     0
100
AcDbLine
 10
1682.437187097
 20
839.821272429
 11
1682.437187097
 21
731.821272429
  0
LINE
  5
65B
100
AcDbEntity
  8
鉄骨下地
  6
PHANTOM
 62
     0
100
AcDbLine
 10
1689.437187097
 20
839.821272429
 11
1689.437187097
 21
731.821272429
  0
LINE
  5
65C
100
AcDbEntity
  8
鉄骨下地
  6
PHANTOM
 62
     0
100
AcDbLine
 10
1700.437187097
 20
720.821272429
 11
1760.937187097
 21
720.821272429
  0
LINE
  5
65D
100
AcDbEntity
  8
鉄骨下地
  6
PHANTOM
 62
     0
100
AcDbLine
 10
1610.937187097
 20
710.821272429
 11
1760.937187097
 21
710.821272429
  0
LINE
  5
65E
100
AcDbEntity
  8
鉄骨下地
  6
PHANTOM
 62
     0
100
AcDbLine
 10
1610.937187097
 20
720.821272429
 11
1671.437187097
 21
720.821272429
  0
ARC
  5
65F
100
AcDbEntity
  8
鉄骨下地
  6
PHANTOM
 62
     0
100
AcDbCircle
 10
1700.437187097
 20
731.821272429
 40
11
100
AcDbArc
 50
180
 51
270
  0
ARC
  5
660
100
AcDbEntity
  8
鉄骨下地
  6
PHANTOM
 62
     0
100
AcDbCircle
 10
1671.437187097
 20
731.821272429
 40
11
100
AcDbArc
 50
-90
 51
0
  0
LINE
  5
661
100
AcDbEntity
  8
鉄骨下地
  6
PHANTOM
 62
     0
100
AcDbLine
 10
1760.937187097
 20
710.821272429
 11
1760.937187097
 21
720.821272429
  0
LINE
  5
662
100
AcDbEntity
  8
鉄骨下地
  6
PHANTOM
 62
     0
100
AcDbLine
 10
1510.937209349
 20
960.821272429
 11
1610.937209349
 21
960.821272429
  0
LINE
  5
663
100
AcDbEntity
  8
鉄骨下地
  6
PHANTOM
 62
     0
100
AcDbLine
 10
1560.937183223
 20
910.821272429
 11
1788.066275663
 21
910.821272429
  0
LINE
  5
664
100
AcDbEntity
  8
鉄骨下地
  6
CENTER
 62
     0
100
AcDbLine
 10
1570.93718516
 20
885.821272429
 11
1600.93718516
 21
885.821272429
  0
LINE
  5
665
100
AcDbEntity
  8
鉄骨下地
  6
PHANTOM
 62
     0
100
AcDbLine
 10
1560.937187097
 20
860.821272429
 11
1788.066275663
 21
860.821272429
  0
LINE
  5
666
100
AcDbEntity
  8
鉄骨下地
  6
PHANTOM
 62
     0
100
AcDbLine
 10
1560.937187097
 20
864.821272429
 11
1788.066275663
 21
864.821272429
  0
LINE
  5
667
100
AcDbEntity
  8
鉄骨下地
  6
PHANTOM
 62
     0
100
AcDbLine
 10
1560.937183223
 20
910.821272429
 11
1560.937187097
 21
860.821272429
  0
LINE
  5
668
100
AcDbEntity
  8
鉄骨下地
  6
DASHED
 62
     0
100
AcDbLine
 10
1620.937179669
 20
957.621292429
 11
1788.066275663
 21
957.621292429
  0
LINE
  5
669
100
AcDbEntity
  8
鉄骨下地
  6
PHANTOM
 62
     0
100
AcDbLine
 10
1620.937209349
 20
960.821272429
 11
1788.066275663
 21
960.821272429
  0
LINE
  5
66A
100
AcDbEntity
  8
鉄骨下地
  6
PHANTOM
 62
     0
100
AcDbLine
 10
1700.437187097
 20
850.821272429
 11
1760.937187097
 21
850.821272429
  0
LINE
  5
66B
100
AcDbEntity
  8
鉄骨下地
  6
PHANTOM
 62
     0
100
AcDbLine
 10
1620.937179349
 20
960.821292429
 11
1620.937184349
 21
910.821272429
  0
LINE
  5
66C
100
AcDbEntity
  8
鉄骨下地
  6
PHANTOM
 62
     0
100
AcDbLine
 10
1610.937179349
 20
960.821292429
 11
1610.937183223
 21
910.821272429
  0
LINE
  5
66D
100
AcDbEntity
  8
鉄骨下地
  6
PHANTOM
 62
     0
100
AcDbLine
 10
1610.937187097
 20
850.821272429
 11
1671.437187097
 21
850.821272429
  0
LINE
  5
66E
100
AcDbEntity
  8
鉄骨下地
  6
DASHED
 62
     0
100
AcDbLine
 10
1610.937183223
 20
910.821272429
 11
1610.937187097
 21
860.821272429
  0
LINE
  5
66F
100
AcDbEntity
  8
鉄骨下地
  6
CENTER
 62
     0
100
AcDbLine
 10
1585.937183998
 20
900.8212704921
 11
1585.937186322
 21
870.8212704921
  0
LINE
  5
670
100
AcDbEntity
  8
鉄骨下地
  6
DASHED
 62
     0
100
AcDbLine
 10
1620.937184349
 20
910.821272429
 11
1620.937189349
 21
860.821292429
  0
ARC
  5
671
100
AcDbEntity
  8
鉄骨下地
  6
PHANTOM
 62
     0
100
AcDbCircle
 10
1700.437187097
 20
839.821272429
 40
11
100
AcDbArc
 50
90
 51
180
  0
ARC
  5
672
100
AcDbEntity
  8
鉄骨下地
  6
PHANTOM
 62
     0
100
AcDbCircle
 10
1671.437187097
 20
839.821272429
 40
11
100
AcDbArc
 50
0
 51
90
  0
LINE
  5
673
100
AcDbEntity
  8
鉄骨下地
  6
CENTER
 62
     0
100
AcDbLine
 10
1670.937185349
 20
900.821272429
 11
1670.937188349
 21
870.821272429
  0
LINE
  5
674
100
AcDbEntity
  8
鉄骨下地
  6
CENTER
 62
     0
100
AcDbLine
 10
1655.937186849
 20
885.821272429
 11
1685.937186849
 21
885.821272429
  0
LINE
  5
675
100
AcDbEntity
  8
鉄骨下地
  6
PHANTOM
 62
     0
100
AcDbLine
 10
1760.937187097
 20
860.821272429
 11
1760.937187097
 21
850.821272429
  0
LINE
  5
676
100
AcDbEntity
  8
鉄骨下地
  6
PHANTOM
 62
     0
100
AcDbLine
 10
1053.42
 20
1041.109123072
 11
1089.92
 21
1041.109123072
  0
LINE
  5
677
100
AcDbEntity
  8
鉄骨下地
  6
PHANTOM
 62
     0
100
AcDbLine
 10
1095.42
 20
1037.109123072
 11
1005.42
 21
1037.109123072
  0
LINE
  5
678
100
AcDbEntity
  8
鉄骨下地
  6
PHANTOM
 62
     0
100
AcDbLine
 10
1094.71999
 20
1033.909143072
 11
1006.11998
 21
1033.909143072
  0
LINE
  5
679
100
AcDbEntity
  8
鉄骨下地
  6
PHANTOM
 62
     0
100
AcDbLine
 10
1053.42
 20
841.1091230715
 11
1089.92
 21
841.1091230715
  0
LINE
  5
67A
100
AcDbEntity
  8
鉄骨下地
  6
PHANTOM
 62
     0
100
AcDbLine
 10
1006.119980785
 20
833.9091430715
 11
1094.71999
 21
833.9091430715
  0
LINE
  5
67B
100
AcDbEntity
  8
鉄骨下地
  6
PHANTOM
 62
     0
100
AcDbLine
 10
1005.420001571
 20
837.1091230715
 11
1095.42
 21
837.1091230715
  0
LINE
  5
67C
100
AcDbEntity
  8
鉄骨下地
  6
PHANTOM
 62
     0
100
AcDbLine
 10
1003.61998
 20
831.4091430715
 11
1003.61998
 21
792.8091330715
  0
LINE
  5
67D
100
AcDbEntity
  8
鉄骨下地
  6
PHANTOM
 62
     0
100
AcDbLine
 10
1020.42
 20
790.3091330715
 11
1006.11998
 21
790.3091330715
  0
LINE
  5
67E
100
AcDbEntity
  8
鉄骨下地
  6
PHANTOM
 62
     0
100
AcDbLine
 10
1020.42
 20
787.1091230715
 11
1005.42
 21
787.1091230715
  0
ARC
  5
67F
100
AcDbEntity
  8
鉄骨下地
  6
PHANTOM
 62
     0
100
AcDbCircle
 10
1005.42
 20
792.1091230715
 40
5
100
AcDbArc
 50
-179.99998
 51
-90
  0
ARC
  5
680
100
AcDbEntity
  8
鉄骨下地
  6
PHANTOM
 62
     0
100
AcDbCircle
 10
1006.11998
 20
792.8091330715
 40
2.5
100
AcDbArc
 50
-179.99998
 51
-90
  0
LINE
  5
681
100
AcDbEntity
  8
鉄骨下地
  6
PHANTOM
 62
     0
100
AcDbLine
 10
1020.42
 20
790.3091330715
 11
1020.42
 21
787.1091230715
  0
ARC
  5
682
100
AcDbEntity
  8
鉄骨下地
  6
PHANTOM
 62
     0
100
AcDbCircle
 10
1006.11998
 20
1031.409143072
 40
2.5
100
AcDbArc
 50
89.99998200001
 51
180.0000200001
  0
ARC
  5
683
100
AcDbEntity
  8
鉄骨下地
  6
PHANTOM
 62
     0
100
AcDbCircle
 10
1005.42
 20
1032.109123072
 40
5
100
AcDbArc
 50
89.99998199999
 51
180.00002
  0
ARC
  5
684
100
AcDbEntity
  8
鉄骨下地
  6
PHANTOM
 62
     0
100
AcDbCircle
 10
1005.42
 20
832.1091230715
 40
5
100
AcDbArc
 50
89.99998199999
 51
180.00002
  0
ARC
  5
685
100
AcDbEntity
  8
鉄骨下地
  6
PHANTOM
 62
     0
100
AcDbCircle
 10
1006.11998
 20
831.4091430715
 40
2.5
100
AcDbArc
 50
89.99998200001
 51
180.00002
  0
LINE
  5
686
100
AcDbEntity
  8
鉄骨下地
  6
PHANTOM
 62
     0
100
AcDbLine
 10
1050.42
 20
837.1091230715
 11
1050.42
 21
838.1091230715
  0
ARC
  5
687
100
AcDbEntity
  8
鉄骨下地
  6
PHANTOM
 62
     0
100
AcDbCircle
 10
1053.42
 20
838.1091230715
 40
3
100
AcDbArc
 50
89.99998200002
 51
179.99996
  0
LINE
  5
688
100
AcDbEntity
  8
鉄骨下地
  6
PHANTOM
 62
     0
100
AcDbLine
 10
1003.61998
 20
1031.409143072
 11
1003.61998
 21
992.8091330715
  0
LINE
  5
689
100
AcDbEntity
  8
鉄骨下地
  6
PHANTOM
 62
     0
100
AcDbLine
 10
1020.42
 20
990.3091330715
 11
1006.11998
 21
990.3091330715
  0
LINE
  5
68A
100
AcDbEntity
  8
鉄骨下地
  6
PHANTOM
 62
     0
100
AcDbLine
 10
1020.42
 20
987.1091230715
 11
1005.42
 21
987.1091230715
  0
ARC
  5
68B
100
AcDbEntity
  8
鉄骨下地
  6
PHANTOM
 62
     0
100
AcDbCircle
 10
1005.42
 20
992.1091230715
 40
5
100
AcDbArc
 50
-179.99998
 51
-90
  0
ARC
  5
68C
100
AcDbEntity
  8
鉄骨下地
  6
PHANTOM
 62
     0
100
AcDbCircle
 10
1006.11998
 20
992.8091330715
 40
2.5
100
AcDbArc
 50
-179.99998
 51
-90
  0
LINE
  5
68D
100
AcDbEntity
  8
鉄骨下地
  6
PHANTOM
 62
     0
100
AcDbLine
 10
1020.42
 20
990.3091330715
 11
1020.42
 21
987.1091230715
  0
LINE
  5
68E
100
AcDbEntity
  8
鉄骨下地
  6
PHANTOM
 62
     0
100
AcDbLine
 10
1050.42
 20
1037.109123072
 11
1050.42
 21
1038.109123072
  0
ARC
  5
68F
100
AcDbEntity
  8
鉄骨下地
  6
PHANTOM
 62
     0
100
AcDbCircle
 10
1053.42
 20
1038.109123072
 40
3
100
AcDbArc
 50
89.99998200002
 51
179.99996
  0
LINE
  5
690
100
AcDbEntity
  8
鉄骨下地
  6
PHANTOM
 62
     0
100
AcDbLine
 10
1097.21999
 20
831.4091430715
 11
1097.21999
 21
792.8091330715
  0
LINE
  5
691
100
AcDbEntity
  8
鉄骨下地
  6
PHANTOM
 62
     0
100
AcDbLine
 10
1100.42
 20
1113.609123072
 11
1100.42
 21
673.6091230715
  0
LINE
  5
692
100
AcDbEntity
  8
鉄骨下地
  6
PHANTOM
 62
     0
100
AcDbLine
 10
1094.71999
 20
790.3091330715
 11
1080.42
 21
790.3091330715
  0
LINE
  5
693
100
AcDbEntity
  8
鉄骨下地
  6
PHANTOM
 62
     0
100
AcDbLine
 10
1095.42
 20
787.1091230715
 11
1080.42
 21
787.1091230715
  0
LINE
  5
694
100
AcDbEntity
  8
鉄骨下地
  6
PHANTOM
 62
     0
100
AcDbLine
 10
1080.42
 20
790.3091330715
 11
1080.42
 21
787.1091230715
  0
ARC
  5
695
100
AcDbEntity
  8
鉄骨下地
  6
PHANTOM
 62
     0
100
AcDbCircle
 10
1095.42
 20
792.1091230715
 40
5
100
AcDbArc
 50
-90
 51
-2.000000201286E-005
  0
ARC
  5
696
100
AcDbEntity
  8
鉄骨下地
  6
PHANTOM
 62
     0
100
AcDbCircle
 10
1094.71999
 20
792.8091330715
 40
2.5
100
AcDbArc
 50
-90
 51
-1.999998116878E-005
  0
ARC
  5
697
100
AcDbEntity
  8
鉄骨下地
  6
PHANTOM
 62
     0
100
AcDbCircle
 10
1094.71999
 20
1031.409143072
 40
2.5
100
AcDbArc
 50
-2.000006454511E-005
 51
89.99996199999
  0
ARC
  5
698
100
AcDbEntity
  8
鉄骨下地
  6
PHANTOM
 62
     0
100
AcDbCircle
 10
1095.42
 20
1032.109123072
 40
5
100
AcDbArc
 50
-2.000002285694E-005
 51
89.99996199999
  0
LINE
  5
699
100
AcDbEntity
  8
鉄骨下地
  6
PHANTOM
 62
     0
100
AcDbLine
 10
1096.42
 20
847.6091230715
 11
1096.42
 21
884.1091230715
  0
ARC
  5
69A
100
AcDbEntity
  8
鉄骨下地
  6
PHANTOM
 62
     0
100
AcDbCircle
 10
1089.92
 20
847.6091230715
 40
6.5
100
AcDbArc
 50
-90.00004
 51
1.799001509065E-005
  0
ARC
  5
69B
100
AcDbEntity
  8
鉄骨下地
  6
PHANTOM
 62
     0
100
AcDbCircle
 10
1095.42
 20
832.1091230715
 40
5
100
AcDbArc
 50
-1.998634913839E-005
 51
90
  0
LINE
  5
69C
100
AcDbEntity
  8
鉄骨下地
  6
PHANTOM
 62
     0
100
AcDbLine
 10
1095.42
 20
837.1091230715
 11
1100.42
 21
837.1091230715
  0
ARC
  5
69D
100
AcDbEntity
  8
鉄骨下地
  6
PHANTOM
 62
     0
100
AcDbCircle
 10
1094.71999
 20
831.4091430715
 40
2.5
100
AcDbArc
 50
-1.998630745022E-005
 51
90
  0
ARC
  5
69E
100
AcDbEntity
  8
鉄骨下地
  6
PHANTOM
 62
     0
100
AcDbCircle
 10
1099.42
 20
884.1091230715
 40
3
100
AcDbArc
 50
89.99998200002
 51
179.99996
  0
LINE
  5
69F
100
AcDbEntity
  8
鉄骨下地
  6
PHANTOM
 62
     0
100
AcDbLine
 10
1099.42
 20
887.1091230715
 11
1100.42
 21
887.1091230715
  0
LINE
  5
6A0
100
AcDbEntity
  8
鉄骨下地
  6
PHANTOM
 62
     0
100
AcDbLine
 10
1097.21999
 20
1031.409143072
 11
1097.21999
 21
992.8091330715
  0
LINE
  5
6A1
100
AcDbEntity
  8
鉄骨下地
  6
PHANTOM
 62
     0
100
AcDbLine
 10
1094.71999
 20
990.3091330715
 11
1080.42
 21
990.3091330715
  0
LINE
  5
6A2
100
AcDbEntity
  8
鉄骨下地
  6
PHANTOM
 62
     0
100
AcDbLine
 10
1095.42
 20
987.1091230715
 11
1080.42
 21
987.1091230715
  0
LINE
  5
6A3
100
AcDbEntity
  8
鉄骨下地
  6
PHANTOM
 62
     0
100
AcDbLine
 10
1080.42
 20
990.3091330715
 11
1080.42
 21
987.1091230715
  0
ARC
  5
6A4
100
AcDbEntity
  8
鉄骨下地
  6
PHANTOM
 62
     0
100
AcDbCircle
 10
1095.42
 20
992.1091230715
 40
5
100
AcDbArc
 50
-90
 51
-2.000000201286E-005
  0
ARC
  5
6A5
100
AcDbEntity
  8
鉄骨下地
  6
PHANTOM
 62
     0
100
AcDbCircle
 10
1094.71999
 20
992.8091330715
 40
2.5
100
AcDbArc
 50
-90
 51
-1.999998116878E-005
  0
LINE
  5
6A6
100
AcDbEntity
  8
鉄骨下地
  6
PHANTOM
 62
     0
100
AcDbLine
 10
1096.42
 20
1047.609123072
 11
1096.42
 21
1084.109123072
  0
ARC
  5
6A7
100
AcDbEntity
  8
鉄骨下地
  6
PHANTOM
 62
     0
100
AcDbCircle
 10
1089.92
 20
1047.609123072
 40
6.5
100
AcDbArc
 50
-90.00004
 51
1.798999905674E-005
  0
LINE
  5
6A8
100
AcDbEntity
  8
鉄骨下地
  6
PHANTOM
 62
     0
100
AcDbLine
 10
1095.42
 20
1037.109123072
 11
1100.42
 21
1037.109123072
  0
LINE
  5
6A9
100
AcDbEntity
  8
鉄骨下地
  6
PHANTOM
 62
     0
100
AcDbLine
 10
1099.42
 20
1087.109123072
 11
1100.42
 21
1087.109123072
  0
ARC
  5
6AA
100
AcDbEntity
  8
鉄骨下地
  6
PHANTOM
 62
     0
100
AcDbCircle
 10
1099.42
 20
1084.109123072
 40
3
100
AcDbArc
 50
89.99998200002
 51
179.99996
  0
LINE
  5
6AB
100
AcDbEntity
  8
鉄骨下地
  6
CENTER
 62
     0
100
AcDbLine
 10
1070.42
 20
1055.439454715
 11
1070.42
 21
1014.492950095
  0
LINE
  5
6AC
100
AcDbEntity
  8
鉄骨下地
  6
CENTER
 62
     0
100
AcDbLine
 10
1070.42
 20
855.4394547153
 11
1070.42
 21
814.4929500948
  0
INSERT
  5
6AD
100
AcDbEntity
  8
ボルトナット
100
AcDbBlockReference
  2
BK9
 10
0
 20
0
  0
INSERT
  5
6AE
100
AcDbEntity
  8
ボルトナット
100
AcDbBlockReference
  2
BK10
 10
0
 20
0
  0
INSERT
  5
6AF
100
AcDbEntity
  8
ボルトナット
100
AcDbBlockReference
  2
BK11
 10
0
 20
0
  0
INSERT
  5
6B0
100
AcDbEntity
  8
ボルトナット
100
AcDbBlockReference
  2
BK12
 10
0
 20
0
  0
LINE
  5
6B1
100
AcDbEntity
  8
ボルトナット
  6
CONTINUOUS
 62
     0
100
AcDbLine
 10
970.42001
 20
821.9240810715
 11
978.92
 21
817.0166110715
  0
LINE
  5
6B2
100
AcDbEntity
  8
ボルトナット
  6
CONTINUOUS
 62
     0
100
AcDbLine
 10
970.41999
 20
802.2941610715
 11
978.92
 21
807.2016510715
  0
CIRCLE
  5
6B3
100
AcDbEntity
  8
ボルトナット
  6
CONTINUOUS
 62
     0
100
AcDbCircle
 10
970.42
 20
812.1091210715
 40
10.5
  0
CIRCLE
  5
6B4
100
AcDbEntity
  8
ボルトナット
  6
CONTINUOUS
 62
     0
100
AcDbCircle
 10
970.42
 20
812.1091210715
 40
8.5
  0
LINE
  5
6B5
100
AcDbEntity
  8
ボルトナット
  6
CONTINUOUS
 62
     0
100
AcDbLine
 10
961.91998
 20
817.0166010715
 11
970.42
 21
821.9240910715
  0
LINE
  5
6B6
100
AcDbEntity
  8
ボルトナット
  6
CONTINUOUS
 62
     0
100
AcDbLine
 10
961.91999
 20
807.2016210715
 11
970.41998
 21
802.2941510715
  0
LINE
  5
6B7
100
AcDbEntity
  8
ボルトナット
  6
CONTINUOUS
 62
     0
100
AcDbLine
 10
961.92
 20
817.0166010715
 11
961.92
 21
807.2016410715
  0
LINE
  5
6B8
100
AcDbEntity
  8
ボルトナット
  6
CONTINUOUS
 62
     0
100
AcDbLine
 10
978.92
 20
817.0166010715
 11
978.92
 21
807.2016410715
  0
LINE
  5
6B9
100
AcDbEntity
  8
ボルトナット
  6
CONTINUOUS
 62
     0
100
AcDbLine
 10
961.91999
 20
1007.201623072
 11
970.41998
 21
1002.294153072
  0
LINE
  5
6BA
100
AcDbEntity
  8
ボルトナット
  6
CONTINUOUS
 62
     0
100
AcDbLine
 10
970.41999
 20
1002.294163072
 11
978.92
 21
1007.201653072
  0
CIRCLE
  5
6BB
100
AcDbEntity
  8
ボルトナット
  6
CONTINUOUS
 62
     0
100
AcDbCircle
 10
970.42
 20
1012.109123072
 40
10.5
  0
LINE
  5
6BC
100
AcDbEntity
  8
ボルトナット
  6
CONTINUOUS
 62
     0
100
AcDbLine
 10
970.42001
 20
1021.924083072
 11
978.92
 21
1017.016613072
  0
CIRCLE
  5
6BD
100
AcDbEntity
  8
ボルトナット
  6
CONTINUOUS
 62
     0
100
AcDbCircle
 10
970.42
 20
1012.109123072
 40
8.5
  0
LINE
  5
6BE
100
AcDbEntity
  8
ボルトナット
  6
CONTINUOUS
 62
     0
100
AcDbLine
 10
961.91998
 20
1017.016603072
 11
970.42
 21
1021.924093072
  0
LINE
  5
6BF
100
AcDbEntity
  8
ボルトナット
  6
CONTINUOUS
 62
     0
100
AcDbLine
 10
961.92
 20
1017.016603072
 11
961.92
 21
1007.201643072
  0
LINE
  5
6C0
100
AcDbEntity
  8
ボルトナット
  6
CONTINUOUS
 62
     0
100
AcDbLine
 10
978.92
 20
1017.016603072
 11
978.92
 21
1007.201643072
  0
INSERT
  5
6C1
100
AcDbEntity
  8
ボルトナット
100
AcDbBlockReference
  2
BK13
 10
0
 20
0
  0
INSERT
  5
6C2
100
AcDbEntity
  8
ボルトナット
100
AcDbBlockReference
  2
BK14
 10
0
 20
0
  0
INSERT
  5
6C3
100
AcDbEntity
  8
取付金具
100
AcDbBlockReference
  2
BK15
 10
0
 20
0
  0
INSERT
  5
6C4
100
AcDbEntity
  8
取付金具
100
AcDbBlockReference
  2
BK16
 10
0
 20
0
  0
INSERT
  5
6C5
100
AcDbEntity
  8
取付金具
100
AcDbBlockReference
  2
BK17
 10
0
 20
0
  0
INSERT
  5
6C6
100
AcDbEntity
  8
ボルトセット
100
AcDbBlockReference
  2
BK18
 10
0
 20
0
  0
INSERT
  5
6C7
100
AcDbEntity
  8
ボルトセット
100
AcDbBlockReference
  2
BK19
 10
0
 20
0
  0
INSERT
  5
6C8
100
AcDbEntity
  8
ボルトセット
100
AcDbBlockReference
  2
BK20
 10
0
 20
0
  0
INSERT
  5
6C9
100
AcDbEntity
  8
ボルトセット
100
AcDbBlockReference
  2
BK21
 10
0
 20
0
  0
INSERT
  5
6CA
100
AcDbEntity
  8
ボルトセット
100
AcDbBlockReference
  2
BK22
 10
0
 20
0
  0
INSERT
  5
6CB
100
AcDbEntity
  8
取付金具
100
AcDbBlockReference
  2
BK23
 10
0
 20
0
  0
INSERT
  5
6CC
100
AcDbEntity
  8
取付金具
100
AcDbBlockReference
  2
BK24
 10
0
 20
0
  0
LINE
  5
6CD
100
AcDbEntity
  8
寸法
  6
CONTINUOUS
 62
     0
100
AcDbLine
 10
1018.62001
 20
812.1091230715
 11
1044.42
 21
812.1091230715
  0
LINE
  5
6CE
100
AcDbEntity
  8
寸法
  6
CONTINUOUS
 62
     0
100
AcDbLine
 10
1026.42
 20
787.1091230715
 11
1044.42
 21
787.1091230715
  0
CIRCLE
  5
6CF
100
AcDbEntity
  8
寸法
  6
CONTINUOUS
 62
     0
100
AcDbCircle
 10
1038.42
 20
787.1091230715
 40
4.2
  0
CIRCLE
  5
6D0
100
AcDbEntity
  8
寸法
  6
CONTINUOUS
 62
     0
100
AcDbCircle
 10
1038.42
 20
812.1091230715
 40
4.2
  0
DIMENSION
  5
6D1
100
AcDbEntity
  8
寸法
100
AcDbDimension
  2
*D25
 10
1038.42
 20
812.1091230715
 11
1027.92
 21
799.6091230715
 70
    32
  3
M7DIMSTL
100
AcDbAlignedDimension
 13
1038.42
 23
787.1091230715
 14
1038.42
 24
812.1091230715
 50
90
100
AcDbRotatedDimension
  0
LINE
  5
6D2
100
AcDbEntity
  8
寸法
  6
CONTINUOUS
 62
     0
100
AcDbLine
 10
1011.420001571
 20
837.1091230715
 11
1044.42
 21
837.1091230715
  0
CIRCLE
  5
6D3
100
AcDbEntity
  8
寸法
  6
CONTINUOUS
 62
     0
100
AcDbCircle
 10
1038.42
 20
837.1091230715
 40
4.2
  0
DIMENSION
  5
6D4
100
AcDbEntity
  8
寸法
100
AcDbDimension
  2
*D26
 10
1038.42
 20
837.1091230715
 11
1027.92
 21
824.6091230715
 70
    32
  3
M7DIMSTL
100
AcDbAlignedDimension
 13
1038.42
 23
812.1091230715
 14
1038.42
 24
837.1091230715
 50
90
100
AcDbRotatedDimension
  0
LINE
  5
6D5
100
AcDbEntity
  8
寸法
  6
CONTINUOUS
 62
     0
100
AcDbLine
 10
970.42
 20
826.9091130715
 11
970.42
 21
861.1091230715
  0
LINE
  5
6D6
100
AcDbEntity
  8
寸法
  6
CONTINUOUS
 62
     0
100
AcDbLine
 10
950.42
 20
843.1091230715
 11
950.42
 21
861.1091230715
  0
CIRCLE
  5
6D7
100
AcDbEntity
  8
寸法
  6
CONTINUOUS
 62
     0
100
AcDbCircle
 10
950.42
 20
855.1091230715
 40
4.2
  0
CIRCLE
  5
6D8
100
AcDbEntity
  8
寸法
  6
CONTINUOUS
 62
     0
100
AcDbCircle
 10
970.42
 20
855.1091230715
 40
4.2
  0
DIMENSION
  5
6D9
100
AcDbEntity
  8
寸法
100
AcDbDimension
  2
*D27
 10
970.42
 20
855.1091230715
 11
960.42
 21
865.6091230715
 70
    32
  3
M7DIMSTL
100
AcDbAlignedDimension
 13
950.42
 23
855.1091230715
 14
970.42
 24
855.1091230715
100
AcDbRotatedDimension
  0
LINE
  5
6DA
100
AcDbEntity
  8
寸法
  6
CONTINUOUS
 62
     0
100
AcDbLine
 10
1000.42
 20
843.1091230715
 11
1000.42
 21
861.1091230715
  0
CIRCLE
  5
6DB
100
AcDbEntity
  8
寸法
  6
CONTINUOUS
 62
     0
100
AcDbCircle
 10
1000.42
 20
855.1091230715
 40
4.2
  0
DIMENSION
  5
6DC
100
AcDbEntity
  8
寸法
100
AcDbDimension
  2
*D28
 10
1000.42
 20
855.1091230715
 11
985.42
 21
865.6091230715
 70
    32
  3
M7DIMSTL
100
AcDbAlignedDimension
 13
970.42
 23
855.1091230715
 14
1000.42
 24
855.1091230715
100
AcDbRotatedDimension
  0
LINE
  5
6DD
100
AcDbEntity
  8
寸法
  6
CONTINUOUS
 62
     0
100
AcDbLine
 10
1000.42
 20
861.1091230715
 11
1000.42
 21
879.1091230715
  0
LINE
  5
6DE
100
AcDbEntity
  8
寸法
  6
CONTINUOUS
 62
     0
100
AcDbLine
 10
990.42
 20
861.1091230715
 11
990.42
 21
879.1091230715
  0
CIRCLE
  5
6DF
100
AcDbEntity
  8
寸法
  6
CONTINUOUS
 62
     0
100
AcDbCircle
 10
990.42
 20
873.1091230715
 40
4.2
  0
CIRCLE
  5
6E0
100
AcDbEntity
  8
寸法
  6
CONTINUOUS
 62
     0
100
AcDbCircle
 10
1000.42
 20
873.1091230715
 40
4.2
  0
DIMENSION
  5
6E1
100
AcDbEntity
  8
寸法
100
AcDbDimension
  2
*D29
 10
1000.42
 20
873.1091230715
 11
995.42
 21
883.6091230715
 70
    32
  3
M7DIMSTL
100
AcDbAlignedDimension
 13
990.42
 23
873.1091230715
 14
1000.42
 24
873.1091230715
100
AcDbRotatedDimension
  0
TEXT
  5
6E2
100
AcDbEntity
  8
部品名
  6
CONTINUOUS
 62
     0
100
AcDbText
 10
1710.293862513
 20
929.0146638842
 40
9
  1
SUS M10x25
  7
STANDARD
100
AcDbText
  0
TEXT
  5
6E3
100
AcDbEntity
  8
部品名
  6
CONTINUOUS
 62
     0
100
AcDbText
 10
1707.614900468
 20
999.4989469605
 40
9
  1
SUS M10x25
  7
STANDARD
100
AcDbText
  0
TEXT
  5
6E4
100
AcDbEntity
  8
部品名
  6
CONTINUOUS
 62
     0
100
AcDbText
 10
1729.704356588
 20
969.9633830546
 40
9
  1
KA5050A
  7
STANDARD
100
AcDbText
  0
TEXT
  5
6E5
100
AcDbEntity
  8
部品名
  6
CONTINUOUS
 62
     0
100
AcDbText
 10
1501.116136965
 20
1010.214670711
 40
9
  1
パネル
  7
STANDARD
100
AcDbText
  0
TEXT
  5
6E6
100
AcDbEntity
  8
部品名
  6
CONTINUOUS
 62
     0
100
AcDbText
 10
1711.043862513
 20
938.0146638842
 40
9
  1
ボルト・ナット
  7
STANDARD
100
AcDbText
  0
TEXT
  5
6E7
100
AcDbEntity
  8
部品名
  6
CONTINUOUS
 62
     0
100
AcDbText
 10
1730.454356588
 20
978.9633830546
 40
9
  1
固定アングル
  7
STANDARD
100
AcDbText
  0
TEXT
  5
6E8
100
AcDbEntity
  8
部品名
  6
CONTINUOUS
 62
     0
100
AcDbText
 10
1708.36490647
 20
1008.498940959
 40
9
  1
ボルト・ナット
  7
STANDARD
100
AcDbText
  0
TEXT
  5
6E9
100
AcDbEntity
  8
部品名
  6
CONTINUOUS
 62
     0
100
AcDbText
 10
1548.563484623
 20
992.0725330874
 40
9
  1
ストリンガー
  7
STANDARD
100
AcDbText
  0
TEXT
  5
6EA
100
AcDbEntity
  8
部品名
  6
CONTINUOUS
 62
     0
100
AcDbText
 10
1550.831881905
 20
974.3659508698
 40
9
  1
ボルトセット
  7
STANDARD
100
AcDbText
  0
POLYLINE
  5
6EB
100
AcDbEntity
  8
部品名
  6
CONTINUOUS
 62
     0
100
AcDb2dPolyline
 66
     1
 10
0
 20
0
 70
     0
  0
VERTEX
  5
6EC
100
AcDbEntity
  8
部品名
100
AcDbVertex
100
AcDb2dVertex
 10
1628.062221964
 20
1016.821270429
  0
VERTEX
  5
6ED
100
AcDbEntity
  8
部品名
100
AcDbVertex
100
AcDb2dVertex
 10
1603.313484623
 20
992.0725330874
  0
VERTEX
  5
6EE
100
AcDbEntity
  8
部品名
100
AcDbVertex
100
AcDb2dVertex
 10
1548.563484623
 20
992.0725330874
  0
SEQEND
  5
6EF
100
AcDbEntity
  8
部品名
  0
POLYLINE
  5
6F0
100
AcDbEntity
  8
部品名
  6
CONTINUOUS
 62
     0
100
AcDb2dPolyline
 66
     1
 10
0
 20
0
 70
     0
  0
VERTEX
  5
6F1
100
AcDbEntity
  8
部品名
100
AcDbVertex
100
AcDb2dVertex
 10
1689.93723794
 20
990.821272429
  0
VERTEX
  5
6F2
100
AcDbEntity
  8
部品名
100
AcDbVertex
100
AcDb2dVertex
 10
1707.61490647
 20
1008.498940959
  0
VERTEX
  5
6F3
100
AcDbEntity
  8
部品名
100
AcDbVertex
100
AcDb2dVertex
 10
1771.36490647
 20
1008.498940959
  0
SEQEND
  5
6F4
100
AcDbEntity
  8
部品名
  0
POLYLINE
  5
6F5
100
AcDbEntity
  8
部品名
  6
CONTINUOUS
 62
     0
100
AcDb2dPolyline
 66
     1
 10
0
 20
0
 70
     0
  0
VERTEX
  5
6F6
100
AcDbEntity
  8
部品名
100
AcDbVertex
100
AcDb2dVertex
 10
1715.562215962
 20
964.821242429
  0
VERTEX
  5
6F7
100
AcDbEntity
  8
部品名
100
AcDbVertex
100
AcDb2dVertex
 10
1729.704356588
 20
978.9633830546
  0
VERTEX
  5
6F8
100
AcDbEntity
  8
部品名
100
AcDbVertex
100
AcDb2dVertex
 10
1784.454356588
 20
978.9633830546
  0
SEQEND
  5
6F9
100
AcDbEntity
  8
部品名
  0
POLYLINE
  5
6FA
100
AcDbEntity
  8
部品名
  6
CONTINUOUS
 62
     0
100
AcDb2dPolyline
 66
     1
 10
0
 20
0
 70
     0
  0
VERTEX
  5
6FB
100
AcDbEntity
  8
部品名
100
AcDbVertex
100
AcDb2dVertex
 10
1699.687221964
 20
948.6213044327
  0
VERTEX
  5
6FC
100
AcDbEntity
  8
部品名
100
AcDbVertex
100
AcDb2dVertex
 10
1710.293862513
 20
938.0146638842
  0
VERTEX
  5
6FD
100
AcDbEntity
  8
部品名
100
AcDbVertex
100
AcDb2dVertex
 10
1774.043862513
 20
938.0146638842
  0
SEQEND
  5
6FE
100
AcDbEntity
  8
部品名
  0
POLYLINE
  5
6FF
100
AcDbEntity
  8
部品名
  6
CONTINUOUS
 62
     0
100
AcDb2dPolyline
 66
     1
 10
0
 20
0
 70
     0
  0
VERTEX
  5
700
100
AcDbEntity
  8
部品名
100
AcDbVertex
100
AcDb2dVertex
 10
1640.937221964
 20
1009.721290929
  0
VERTEX
  5
701
100
AcDbEntity
  8
部品名
100
AcDbVertex
100
AcDb2dVertex
 10
1605.581881905
 20
974.3659508698
  0
VERTEX
  5
702
100
AcDbEntity
  8
部品名
100
AcDbVertex
100
AcDb2dVertex
 10
1542.581881905
 20
974.3659508698
  0
SEQEND
  5
703
100
AcDbEntity
  8
部品名
  0
TEXT
  5
704
100
AcDbEntity
  8
部品名
  6
CONTINUOUS
 62
     0
100
AcDbText
 10
1570.045073725
 20
1010.479136805
 40
9
  1
取付金具
  7
STANDARD
100
AcDbText
  0
POLYLINE
  5
705
100
AcDbEntity
  8
部品名
  6
CONTINUOUS
 62
     0
100
AcDb2dPolyline
 66
     1
 10
0
 20
0
 70
     0
  0
VERTEX
  5
706
100
AcDbEntity
  8
部品名
100
AcDbVertex
100
AcDb2dVertex
 10
1539.472737683
 20
1020.821271429
  0
VERTEX
  5
707
100
AcDbEntity
  8
部品名
100
AcDbVertex
100
AcDb2dVertex
 10
1528.866136965
 20
1010.214670711
  0
VERTEX
  5
708
100
AcDbEntity
  8
部品名
100
AcDbVertex
100
AcDb2dVertex
 10
1492.866136965
 20
1010.214670711
  0
SEQEND
  5
709
100
AcDbEntity
  8
部品名
  0
TEXT
  5
70A
100
AcDbEntity
  8
部品名
  6
CONTINUOUS
 62
     0
100
AcDbText
 10
1023.226651548
 20
992.5024835231
 40
9
  1
SUS M10x25
  7
STANDARD
100
AcDbText
  0
TEXT
  5
70B
100
AcDbEntity
  8
部品名
  6
CONTINUOUS
 62
     0
100
AcDbText
 10
1002.954277754
 20
967.4636384938
 40
9
  1
SUS M10x25
  7
STANDARD
100
AcDbText
  0
TEXT
  5
70C
100
AcDbEntity
  8
部品名
  6
CONTINUOUS
 62
     0
100
AcDbText
 10
1000.718737256
 20
1052.857858663
 40
9
  1
KA5050A
  7
STANDARD
100
AcDbText
  0
TEXT
  5
70D
100
AcDbEntity
  8
部品名
  6
CONTINUOUS
 62
     0
100
AcDbText
 10
1023.976651548
 20
1001.502483523
 40
9
  1
ボルト・ナット
  7
STANDARD
100
AcDbText
  0
TEXT
  5
70E
100
AcDbEntity
  8
部品名
  6
CONTINUOUS
 62
     0
100
AcDbText
 10
1003.704277754
 20
976.4636384938
 40
9
  1
ボルト・ナット
  7
STANDARD
100
AcDbText
  0
TEXT
  5
70F
100
AcDbEntity
  8
部品名
  6
CONTINUOUS
 62
     0
100
AcDbText
 10
1001.468737256
 20
1061.857858663
 40
9
  1
固定アングル
  7
STANDARD
100
AcDbText
  0
TEXT
  5
710
100
AcDbEntity
  8
部品名
  6
CONTINUOUS
 62
     0
100
AcDbText
 10
1001.776621546
 20
1085.545782052
 40
9
  1
ストリンガー
  7
STANDARD
100
AcDbText
  0
TEXT
  5
711
100
AcDbEntity
  8
部品名
  6
CONTINUOUS
 62
     0
100
AcDbText
 10
1006.814660941
 20
951.7537840122
 40
9
  1
胴縁(別途)
  7
STANDARD
100
AcDbText
  0
POLYLINE
  5
712
100
AcDbEntity
  8
部品名
  6
CONTINUOUS
 62
     0
100
AcDb2dPolyline
 66
     1
 10
0
 20
0
 70
     0
  0
VERTEX
  5
713
100
AcDbEntity
  8
部品名
100
AcDbVertex
100
AcDb2dVertex
 10
1620.937209349
 20
1024.621272429
  0
VERTEX
  5
714
100
AcDbEntity
  8
部品名
100
AcDbVertex
100
AcDb2dVertex
 10
1606.795073725
 20
1010.479136805
  0
VERTEX
  5
715
100
AcDbEntity
  8
部品名
100
AcDbVertex
100
AcDb2dVertex
 10
1570.045073725
 20
1010.479136805
  0
SEQEND
  5
716
100
AcDbEntity
  8
部品名
  0
POLYLINE
  5
717
100
AcDbEntity
  8
部品名
  6
CONTINUOUS
 62
     0
100
AcDb2dPolyline
 66
     1
 10
0
 20
0
 70
     0
  0
VERTEX
  5
718
100
AcDbEntity
  8
部品名
100
AcDbVertex
100
AcDb2dVertex
 10
990.4200188286
 20
1074.939179334
  0
VERTEX
  5
719
100
AcDbEntity
  8
部品名
100
AcDbVertex
100
AcDb2dVertex
 10
1001.026621546
 20
1085.545782052
  0
VERTEX
  5
71A
100
AcDbEntity
  8
部品名
100
AcDbVertex
100
AcDb2dVertex
 10
1055.776621546
 20
1085.545782052
  0
SEQEND
  5
71B
100
AcDbEntity
  8
部品名
  0
POLYLINE
  5
71C
100
AcDbEntity
  8
部品名
  6
CONTINUOUS
 62
     0
100
AcDb2dPolyline
 66
     1
 10
0
 20
0
 70
     0
  0
VERTEX
  5
71D
100
AcDbEntity
  8
部品名
100
AcDbVertex
100
AcDb2dVertex
 10
975.9700026642
 20
1037.109124072
  0
VERTEX
  5
71E
100
AcDbEntity
  8
部品名
100
AcDbVertex
100
AcDb2dVertex
 10
1000.718737256
 20
1061.857858663
  0
VERTEX
  5
71F
100
AcDbEntity
  8
部品名
100
AcDbVertex
100
AcDb2dVertex
 10
1055.468737256
 20
1061.857858663
  0
SEQEND
  5
720
100
AcDbEntity
  8
部品名
  0
POLYLINE
  5
721
100
AcDbEntity
  8
部品名
  6
CONTINUOUS
 62
     0
100
AcDb2dPolyline
 66
     1
 10
0
 20
0
 70
     0
  0
VERTEX
  5
722
100
AcDbEntity
  8
部品名
100
AcDbVertex
100
AcDb2dVertex
 10
1012.620011
 20
1012.109124072
  0
VERTEX
  5
723
100
AcDbEntity
  8
部品名
100
AcDbVertex
100
AcDb2dVertex
 10
1023.226651548
 20
1001.502483523
  0
VERTEX
  5
724
100
AcDbEntity
  8
部品名
100
AcDbVertex
100
AcDb2dVertex
 10
1086.976651548
 20
1001.502483523
  0
SEQEND
  5
725
100
AcDbEntity
  8
部品名
  0
POLYLINE
  5
726
100
AcDbEntity
  8
部品名
  6
CONTINUOUS
 62
     0
100
AcDb2dPolyline
 66
     1
 10
0
 20
0
 70
     0
  0
VERTEX
  5
727
100
AcDbEntity
  8
部品名
100
AcDbVertex
100
AcDb2dVertex
 10
974.6700055066
 20
1004.747910741
  0
VERTEX
  5
728
100
AcDbEntity
  8
部品名
100
AcDbVertex
100
AcDb2dVertex
 10
1002.954277754
 20
976.4636384938
  0
VERTEX
  5
729
100
AcDbEntity
  8
部品名
100
AcDbVertex
100
AcDb2dVertex
 10
1066.704277754
 20
976.4636384938
  0
SEQEND
  5
72A
100
AcDbEntity
  8
部品名
  0
TEXT
  5
72B
100
AcDbEntity
  8
部品名
  6
CONTINUOUS
 62
     0
100
AcDbText
 10
984.2397836535
 20
1136.528978022
 40
9
  1
ボルトセット
  7
STANDARD
100
AcDbText
  0
POLYLINE
  5
72C
100
AcDbEntity
  8
部品名
  6
CONTINUOUS
 62
     0
100
AcDb2dPolyline
 66
     1
 10
0
 20
0
 70
     0
  0
VERTEX
  5
72D
100
AcDbEntity
  8
部品名
100
AcDbVertex
100
AcDb2dVertex
 10
1087.92
 20
987.1091230715
  0
VERTEX
  5
72E
100
AcDbEntity
  8
部品名
100
AcDbVertex
100
AcDb2dVertex
 10
1052.564660941
 20
951.7537840122
  0
VERTEX
  5
72F
100
AcDbEntity
  8
部品名
100
AcDbVertex
100
AcDb2dVertex
 10
1006.814660941
 20
951.7537840122
  0
SEQEND
  5
730
100
AcDbEntity
  8
部品名
  0
TEXT
  5
731
100
AcDbEntity
  8
部品名
  6
CONTINUOUS
 62
     0
100
AcDbText
 10
980.5964201789
 20
1155.135538072
 40
9
  1
取付金具
  7
STANDARD
100
AcDbText
  0
POLYLINE
  5
732
100
AcDbEntity
  8
部品名
  6
CONTINUOUS
 62
     0
100
AcDb2dPolyline
 66
     1
 10
0
 20
0
 70
     0
  0
VERTEX
  5
733
100
AcDbEntity
  8
部品名
100
AcDbVertex
100
AcDb2dVertex
 10
951.51998
 20
1104.709174369
  0
VERTEX
  5
734
100
AcDbEntity
  8
部品名
100
AcDbVertex
100
AcDb2dVertex
 10
983.3397836535
 20
1136.528978022
  0
VERTEX
  5
735
100
AcDbEntity
  8
部品名
100
AcDbVertex
100
AcDb2dVertex
 10
1046.339783654
 20
1136.528978022
  0
SEQEND
  5
736
100
AcDbEntity
  8
部品名
  0
TEXT
  5
737
100
AcDbEntity
  8
部品名
  6
CONTINUOUS
 62
     0
100
AcDbText
 10
992.8771123742
 20
1175.503806667
 40
9
  1
パネル
  7
STANDARD
100
AcDbText
  0
POLYLINE
  5
738
100
AcDbEntity
  8
部品名
  6
CONTINUOUS
 62
     0
100
AcDb2dPolyline
 66
     1
 10
0
 20
0
 70
     0
  0
VERTEX
  5
739
100
AcDbEntity
  8
部品名
100
AcDbVertex
100
AcDb2dVertex
 10
937.2700148076
 20
1112.709132701
  0
VERTEX
  5
73A
100
AcDbEntity
  8
部品名
100
AcDbVertex
100
AcDb2dVertex
 10
979.6964201789
 20
1155.135538072
  0
VERTEX
  5
73B
100
AcDbEntity
  8
部品名
100
AcDbVertex
100
AcDb2dVertex
 10
1016.596420179
 20
1155.135538072
  0
SEQEND
  5
73C
100
AcDbEntity
  8
部品名
  0
TEXT
  5
73D
100
AcDbEntity
  8
部品名
  6
CONTINUOUS
 62
     0
100
AcDbText
 10
991.9771123742
 20
1166.503806667
 40
9
  1
PGR10060
  7
STANDARD
100
AcDbText
  0
TEXT
  5
73E
100
AcDbEntity
  8
部品名
  6
CONTINUOUS
 62
     0
100
AcDbText
 10
1492.866136965
 20
1001.214670711
 40
9
  1
PGR10060
  7
STANDARD
100
AcDbText
  0
POLYLINE
  5
73F
100
AcDbEntity
  8
部品名
  6
CONTINUOUS
 62
     0
100
AcDb2dPolyline
 66
     1
 10
0
 20
0
 70
     0
  0
VERTEX
  5
740
100
AcDbEntity
  8
部品名
100
AcDbVertex
100
AcDb2dVertex
 10
931.8730359733
 20
1115.399730266
  0
VERTEX
  5
741
100
AcDbEntity
  8
部品名
100
AcDbVertex
100
AcDb2dVertex
 10
991.9771123742
 20
1175.503806667
  0
VERTEX
  5
742
100
AcDbEntity
  8
部品名
100
AcDbVertex
100
AcDb2dVertex
 10
1027.977112374
 20
1175.503806667
  0
SEQEND
  5
743
100
AcDbEntity
  8
部品名
  0
LINE
  5
744
100
AcDbEntity
  8
寸法
  6
CONTINUOUS
 62
     0
100
AcDbLine
 10
1516.937229349
 20
800.821262429
 11
1552.937195619
 21
800.821262429
  0
LINE
  5
745
100
AcDbEntity
  8
寸法
  6
CONTINUOUS
 62
     0
100
AcDbLine
 10
1516.937195619
 20
750.821242629
 11
1552.937195619
 21
750.821242629
  0
CIRCLE
  5
746
100
AcDbEntity
  8
寸法
  6
CONTINUOUS
 62
     0
100
AcDbCircle
 10
1546.937195619
 20
750.821242629
 40
4.2
  0
CIRCLE
  5
747
100
AcDbEntity
  8
寸法
  6
CONTINUOUS
 62
     0
100
AcDbCircle
 10
1546.937195619
 20
800.821262429
 40
4.2
  0
DIMENSION
  5
748
100
AcDbEntity
  8
寸法
100
AcDbDimension
  2
*D30
 10
1546.937195619
 20
800.821262429
 11
1536.437195619
 21
775.821252529
 70
    32
  3
M7DIMSTL
100
AcDbAlignedDimension
 13
1546.937195619
 23
750.821242629
 14
1546.937195619
 24
800.821262429
 50
90
100
AcDbRotatedDimension
  0
LINE
  5
749
100
AcDbEntity
  8
寸法
  6
CONTINUOUS
 62
     0
100
AcDbLine
 10
1460.937188527
 20
850.821232429
 11
1552.937195619
 21
850.821232429
  0
CIRCLE
  5
74A
100
AcDbEntity
  8
寸法
  6
CONTINUOUS
 62
     0
100
AcDbCircle
 10
1546.937195619
 20
850.821232429
 40
4.2
  0
DIMENSION
  5
74B
100
AcDbEntity
  8
寸法
100
AcDbDimension
  2
*D31
 10
1546.937195619
 20
850.821232429
 11
1536.437195619
 21
825.821247429
 70
    32
  3
M7DIMSTL
100
AcDbAlignedDimension
 13
1546.937195619
 23
800.821262429
 14
1546.937195619
 24
850.821232429
 50
90
100
AcDbRotatedDimension
  0
LINE
  5
74C
100
AcDbEntity
  8
寸法
  6
CONTINUOUS
 62
     0
100
AcDbLine
 10
1500.937229349
 20
810.8212632509
 11
1500.937229349
 21
892.821232429
  0
LINE
  5
74D
100
AcDbEntity
  8
寸法
  6
CONTINUOUS
 62
     0
100
AcDbLine
 10
1450.937189349
 20
856.821232429
 11
1450.937189349
 21
892.821232429
  0
CIRCLE
  5
74E
100
AcDbEntity
  8
寸法
  6
CONTINUOUS
 62
     0
100
AcDbCircle
 10
1450.937189349
 20
886.821232429
 40
4.2
  0
CIRCLE
  5
74F
100
AcDbEntity
  8
寸法
  6
CONTINUOUS
 62
     0
100
AcDbCircle
 10
1500.937229349
 20
886.821232429
 40
4.2
  0
DIMENSION
  5
750
100
AcDbEntity
  8
寸法
100
AcDbDimension
  2
*D32
 10
1500.937229349
 20
886.821232429
 11
1475.937209349
 21
897.321232429
 70
    32
  3
M7DIMSTL
100
AcDbAlignedDimension
 13
1450.937189349
 23
886.821232429
 14
1500.937229349
 24
886.821232429
100
AcDbRotatedDimension
  0
LINE
  5
751
100
AcDbEntity
  8
寸法
  6
CONTINUOUS
 62
     0
100
AcDbLine
 10
1460.937199349
 20
790.821251607
 11
1460.937199349
 21
708.821242629
  0
LINE
  5
752
100
AcDbEntity
  8
寸法
  6
CONTINUOUS
 62
     0
100
AcDbLine
 10
1510.937195619
 20
744.821242629
 11
1510.937195619
 21
708.821242629
  0
CIRCLE
  5
753
100
AcDbEntity
  8
寸法
  6
CONTINUOUS
 62
     0
100
AcDbCircle
 10
1510.937195619
 20
714.821242629
 40
4.2
  0
CIRCLE
  5
754
100
AcDbEntity
  8
寸法
  6
CONTINUOUS
 62
     0
100
AcDbCircle
 10
1460.937199349
 20
714.821242629
 40
4.2
  0
DIMENSION
  5
755
100
AcDbEntity
  8
寸法
100
AcDbDimension
  2
*D33
 10
1460.937199349
 20
714.821242629
 11
1485.937197484
 21
725.321242629
 70
    32
  3
M7DIMSTL
100
AcDbAlignedDimension
 13
1510.937195619
 23
714.821242629
 14
1460.937199349
 24
714.821242629
 50
180
100
AcDbRotatedDimension
  0
CIRCLE
  5
756
100
AcDbEntity
  8
寸法
  6
CONTINUOUS
 62
     0
100
AcDbCircle
 10
809.6081081741
 20
767.1091230715
 40
4.2
  0
CIRCLE
  5
757
100
AcDbEntity
  8
寸法
  6
CONTINUOUS
 62
     0
100
AcDbCircle
 10
809.6081081741
 20
667.1091217108
 40
4.2
  0
LINE
  5
758
100
AcDbEntity
  8
寸法
  6
CONTINUOUS
 62
     0
100
AcDbLine
 10
800.6081081741
 20
767.1091230715
 11
842.3068029913
 21
767.1091230715
  0
LINE
  5
759
100
AcDbEntity
  8
寸法
  6
CONTINUOUS
 62
     0
100
AcDbLine
 10
800.6081081741
 20
667.1091217108
 11
842.3068029913
 21
667.1091217108
  0
DIMENSION
  5
75A
100
AcDbEntity
  8
寸法
100
AcDbDimension
  2
*D34
 10
809.6081081741
 20
667.1091217108
 11
796.1081081741
 21
717.1091223911
 70
    32
  3
M7DIMSTL
100
AcDbAlignedDimension
 13
809.6081081741
 23
767.1091230715
 14
809.6081081741
 24
667.1091217108
 50
-90
100
AcDbRotatedDimension
  0
CIRCLE
  5
75B
100
AcDbEntity
  8
寸法
  6
CONTINUOUS
 62
     0
100
AcDbCircle
 10
880.4200050534
 20
605.4389551482
 40
4.2
  0
CIRCLE
  5
75C
100
AcDbEntity
  8
寸法
  6
CONTINUOUS
 62
     0
100
AcDbCircle
 10
940.42
 20
605.4389551482
 40
4.2
  0
LINE
  5
75D
100
AcDbEntity
  8
寸法
  6
CONTINUOUS
 62
     0
100
AcDbLine
 10
880.4200050534
 20
596.4389551482
 11
880.4200050534
 21
633.5694386037
  0
LINE
  5
75E
100
AcDbEntity
  8
寸法
  6
CONTINUOUS
 62
     0
100
AcDbLine
 10
940.42
 20
596.4389551482
 11
940.42
 21
633.5694386037
  0
DIMENSION
  5
75F
100
AcDbEntity
  8
寸法
100
AcDbDimension
  2
*D35
 10
940.42
 20
605.4389551482
 11
910.4200025267
 21
618.9389551482
 70
    32
  3
M7DIMSTL
100
AcDbAlignedDimension
 13
880.4200050534
 23
605.4389551482
 14
940.42
 24
605.4389551482
100
AcDbRotatedDimension
  0
CIRCLE
  5
760
100
AcDbEntity
  8
寸法
  6
CONTINUOUS
 62
     0
100
AcDbCircle
 10
990.42
 20
605.4389551482
 40
4.2
  0
LINE
  5
761
100
AcDbEntity
  8
寸法
  6
CONTINUOUS
 62
     0
100
AcDbLine
 10
990.42
 20
596.4389551482
 11
990.42
 21
633.5694386037
  0
DIMENSION
  5
762
100
AcDbEntity
  8
寸法
100
AcDbDimension
  2
*D36
 10
990.42
 20
605.4389551482
 11
965.42
 21
618.9389551482
 70
    32
  3
M7DIMSTL
100
AcDbAlignedDimension
 13
940.42
 23
605.4389551482
 14
990.42
 24
605.4389551482
100
AcDbRotatedDimension
  0
CIRCLE
  5
763
100
AcDbEntity
  8
寸法
  6
CONTINUOUS
 62
     0
100
AcDbCircle
 10
1000.42
 20
605.4389551482
 40
4.2
  0
LINE
  5
764
100
AcDbEntity
  8
寸法
  6
CONTINUOUS
 62
     0
100
AcDbLine
 10
1000.42
 20
596.4389551482
 11
1000.42
 21
633.5694386037
  0
DIMENSION
  5
765
100
AcDbEntity
  8
寸法
100
AcDbDimension
  2
*D37
 10
1000.42
 20
605.4389551482
 11
995.42
 21
618.9389551482
 70
    32
  3
M7DIMSTL
100
AcDbAlignedDimension
 13
990.42
 23
605.4389551482
 14
1000.42
 24
605.4389551482
100
AcDbRotatedDimension
  0
CIRCLE
  5
766
100
AcDbEntity
  8
寸法
  6
CONTINUOUS
 62
     0
100
AcDbCircle
 10
1100.42
 20
605.4389551482
 40
4.2
  0
LINE
  5
767
100
AcDbEntity
  8
寸法
  6
CONTINUOUS
 62
     0
100
AcDbLine
 10
1100.42
 20
596.4389551482
 11
1100.42
 21
633.5694386037
  0
DIMENSION
  5
768
100
AcDbEntity
  8
寸法
100
AcDbDimension
  2
*D38
 10
1100.42
 20
605.4389551482
 11
1050.42
 21
618.9389551482
 70
    32
  3
M7DIMSTL
100
AcDbAlignedDimension
 13
1000.42
 23
605.4389551482
 14
1100.42
 24
605.4389551482
100
AcDbRotatedDimension
  0
CIRCLE
  5
769
100
AcDbEntity
  8
寸法
  6
CONTINUOUS
 62
     0
100
AcDbCircle
 10
1390.937201717
 20
605.4389551482
 40
4.2
  0
CIRCLE
  5
76A
100
AcDbEntity
  8
寸法
  6
CONTINUOUS
 62
     0
100
AcDbCircle
 10
1450.937201717
 20
605.4389551482
 40
4.2
  0
LINE
  5
76B
100
AcDbEntity
  8
寸法
  6
CONTINUOUS
 62
     0
100
AcDbLine
 10
1390.937201717
 20
596.4389551482
 11
1390.937201717
 21
633.5694386037
  0
LINE
  5
76C
100
AcDbEntity
  8
寸法
  6
CONTINUOUS
 62
     0
100
AcDbLine
 10
1450.937201717
 20
596.4389551482
 11
1450.937201717
 21
633.5694386037
  0
DIMENSION
  5
76D
100
AcDbEntity
  8
寸法
100
AcDbDimension
  2
*D39
 10
1450.937201717
 20
605.4389551482
 11
1420.937201717
 21
618.9389551482
 70
    32
  3
M7DIMSTL
100
AcDbAlignedDimension
 13
1390.937201717
 23
605.4389551482
 14
1450.937201717
 24
605.4389551482
100
AcDbRotatedDimension
  0
CIRCLE
  5
76E
100
AcDbEntity
  8
寸法
  6
CONTINUOUS
 62
     0
100
AcDbCircle
 10
1510.937201717
 20
605.4389551482
 40
4.2
  0
LINE
  5
76F
100
AcDbEntity
  8
寸法
  6
CONTINUOUS
 62
     0
100
AcDbLine
 10
1510.937201717
 20
596.4389551482
 11
1510.937201717
 21
633.5694386037
  0
DIMENSION
  5
770
100
AcDbEntity
  8
寸法
100
AcDbDimension
  2
*D40
 10
1510.937201717
 20
605.4389551482
 11
1480.937201717
 21
618.9389551482
 70
    32
  3
M7DIMSTL
100
AcDbAlignedDimension
 13
1450.937201717
 23
605.4389551482
 14
1510.937201717
 24
605.4389551482
100
AcDbRotatedDimension
  0
CIRCLE
  5
771
100
AcDbEntity
  8
寸法
  6
CONTINUOUS
 62
     0
100
AcDbCircle
 10
1610.937209349
 20
605.4389551482
 40
4.2
  0
LINE
  5
772
100
AcDbEntity
  8
寸法
  6
CONTINUOUS
 62
     0
100
AcDbLine
 10
1610.937209349
 20
596.4389551482
 11
1610.937209349
 21
633.5694386037
  0
DIMENSION
  5
773
100
AcDbEntity
  8
寸法
100
AcDbDimension
  2
*D41
 10
1610.937209349
 20
605.4389551482
 11
1560.937205533
 21
618.9389551482
 70
    32
  3
M7DIMSTL
100
AcDbAlignedDimension
 13
1510.937201717
 23
605.4389551482
 14
1610.937209349
 24
605.4389551482
100
AcDbRotatedDimension
  0
LINE
  5
774
100
AcDbEntity
  8
寸法
  6
CONTINUOUS
 62
     0
100
AcDbLine
 10
1028.520005
 20
812.1091230715
 11
1146.903850665
 21
812.1091230715
  0
CIRCLE
  5
775
100
AcDbEntity
  8
寸法
  6
CONTINUOUS
 62
     0
100
AcDbCircle
 10
1140.903850665
 20
812.1091230715
 40
4.2
  0
LINE
  5
776
100
AcDbEntity
  8
寸法
  6
CONTINUOUS
 62
     0
100
AcDbLine
 10
1140.903850665
 20
1011.778745834
 11
1140.903850665
 21
812.1091230715
  0
CIRCLE
  5
777
100
AcDbEntity
  8
寸法
  6
CONTINUOUS
 62
     0
100
AcDbCircle
 10
1140.903850665
 20
1011.778745834
 40
4.2
  0
LINE
  5
778
100
AcDbEntity
  8
寸法
  6
CONTINUOUS
 62
     0
100
AcDbLine
 10
1028.520005
 20
1011.778745834
 11
1146.903850665
 21
1011.778745834
  0
POLYLINE
  5
779
100
AcDbEntity
  8
寸法
  6
CONTINUOUS
 62
     0
100
AcDb2dPolyline
 66
     1
 10
0
 20
0
 70
     0
  0
VERTEX
  5
77A
100
AcDbEntity
  8
寸法
100
AcDbVertex
100
AcDb2dVertex
 10
1142.876638513
 20
1106.772395986
  0
VERTEX
  5
77B
100
AcDbEntity
  8
寸法
100
AcDbVertex
100
AcDb2dVertex
 10
1140.903850665
 20
1118.609123072
  0
VERTEX
  5
77C
100
AcDbEntity
  8
寸法
100
AcDbVertex
100
AcDb2dVertex
 10
1138.931062818
 20
1106.772395986
  0
SEQEND
  5
77D
100
AcDbEntity
  8
寸法
  0
LINE
  5
77E
100
AcDbEntity
  8
寸法
  6
CONTINUOUS
 62
     0
100
AcDbLine
 10
1140.903850665
 20
1011.778745834
 11
1140.903850665
 21
1118.609123072
  0
LINE
  5
77F
100
AcDbEntity
  8
寸法
  6
CONTINUOUS
 62
     0
100
AcDbLine
 10
1140.903850665
 20
812.1091230715
 11
1140.903850665
 21
668.6091230715
  0
POLYLINE
  5
780
100
AcDbEntity
  8
寸法
  6
CONTINUOUS
 62
     0
100
AcDb2dPolyline
 66
     1
 10
0
 20
0
 70
     0
  0
VERTEX
  5
781
100
AcDbEntity
  8
寸法
100
AcDbVertex
100
AcDb2dVertex
 10
1138.931062818
 20
680.4458501575
  0
VERTEX
  5
782
100
AcDbEntity
  8
寸法
100
AcDbVertex
100
AcDb2dVertex
 10
1140.903850665
 20
668.6091230715
  0
VERTEX
  5
783
100
AcDbEntity
  8
寸法
100
AcDbVertex
100
AcDb2dVertex
 10
1142.876638513
 20
680.4458501575
  0
SEQEND
  5
784
100
AcDbEntity
  8
寸法
  0
TEXT
  5
785
100
AcDbEntity
  8
寸法
  6
CONTINUOUS
 62
     0
100
AcDbText
 10
1140.903850665
 20
708.8591230715
 40
9
  1
はね出しピッチ
 50
90
  7
STANDARD
100
AcDbText
  0
TEXT
  5
786
100
AcDbEntity
  8
寸法
  6
CONTINUOUS
 62
     0
100
AcDbText
 10
1140.903850665
 20
871.4439344529
 40
9
  1
固定アングルピッチ
 50
90
  7
STANDARD
100
AcDbText
  0
TEXT
  5
787
100
AcDbEntity
  8
寸法
  6
CONTINUOUS
 62
     0
100
AcDbText
 10
1140.903850665
 20
1033.693934453
 40
9
  1
はね出しピッチ
 50
90
  7
STANDARD
100
AcDbText
  0
LINE
  5
788
100
AcDbEntity
  8
寸法
  6
CONTINUOUS
 62
     0
100
AcDbLine
 10
1398.008238138
 20
1086.821272429
 11
1398.008238138
 21
1122.821272429
  0
LINE
  5
789
100
AcDbEntity
  8
寸法
  6
CONTINUOUS
 62
     0
100
AcDbLine
 10
1385.937170326
 20
1073.750204617
 11
1354.937170326
 21
1073.750204617
  0
LINE
  5
78A
100
AcDbEntity
  8
寸法
  6
CONTINUOUS
 62
     0
100
AcDbLine
 10
1394.472689669
 20
1084.356791772
 11
1372.552289158
 21
1106.277011705
  0
LINE
  5
78B
100
AcDbEntity
  8
寸法
  6
CONTINUOUS
 62
     0
100
AcDbLine
 10
1387.401650977
 20
1077.28569484
 11
1365.481250472
 21
1099.205914768
  0
CIRCLE
  5
78C
100
AcDbEntity
  8
寸法
  6
CONTINUOUS
 62
     0
100
AcDbCircle
 10
1369.723908634
 20
1094.963291556
 40
4.2
  0
CIRCLE
  5
78D
100
AcDbEntity
  8
寸法
  6
CONTINUOUS
 62
     0
100
AcDbCircle
 10
1376.79494732
 20
1102.034388493
 40
4.2
  0
DIMENSION
  5
78E
100
AcDbEntity
  8
寸法
100
AcDbDimension
  2
*D42
 10
1376.79494732
 20
1102.034388493
 11
1365.834776193
 21
1105.923430645
 70
    32
  3
M7DIMSTL
100
AcDbAlignedDimension
 13
1369.723908634
 23
1094.963291556
 14
1376.79494732
 24
1102.034388493
 50
45.000236
100
AcDbRotatedDimension
  0
CIRCLE
  5
78F
100
AcDbEntity
  8
寸法
  6
CONTINUOUS
 62
     0
100
AcDbCircle
 10
1398.008238138
 20
1116.821272429
 40
4.2
  0
CIRCLE
  5
790
100
AcDbEntity
  8
寸法
  6
CONTINUOUS
 62
     0
100
AcDbCircle
 10
1354.9371706
 20
1073.750204343
 40
4.2
  0
POLYLINE
  5
791
100
AcDbEntity
  8
寸法
  6
CONTINUOUS
 62
     0
100
AcDb2dPolyline
 66
     1
 10
0
 20
0
 70
     0
  0
VERTEX
  5
792
100
AcDbEntity
  8
寸法
100
AcDbVertex
100
AcDb2dVertex
 10
1776.229548577
 20
1114.848484581
  0
VERTEX
  5
793
100
AcDbEntity
  8
寸法
100
AcDbVertex
100
AcDb2dVertex
 10
1788.066275663
 20
1116.821272429
  0
VERTEX
  5
794
100
AcDbEntity
  8
寸法
100
AcDbVertex
100
AcDb2dVertex
 10
1776.229548577
 20
1118.794060277
  0
SEQEND
  5
795
100
AcDbEntity
  8
寸法
  0
LINE
  5
796
100
AcDbEntity
  8
寸法
  6
CONTINUOUS
 62
     0
100
AcDbLine
 10
1398.008238138
 20
1116.821272429
 11
1640.937209349
 21
1116.821272429
  0
CIRCLE
  5
797
100
AcDbEntity
  8
寸法
  6
CONTINUOUS
 62
     0
100
AcDbCircle
 10
1640.937209349
 20
1116.821272429
 40
4.2
  0
LINE
  5
798
100
AcDbEntity
  8
寸法
  6
CONTINUOUS
 62
     0
100
AcDbLine
 10
1640.937209349
 20
1075.28040565
 11
1640.937209349
 21
1122.821272429
  0
LINE
  5
799
100
AcDbEntity
  8
寸法
  6
CONTINUOUS
 62
     0
100
AcDbLine
 10
1640.937209349
 20
1116.821272429
 11
1788.066275663
 21
1116.821272429
  0
LINE
  5
79A
100
AcDbEntity
  8
寸法
  6
CONTINUOUS
 62
     0
100
AcDbLine
 10
1354.9371706
 20
1073.750204343
 11
1354.9371706
 21
830.821252429
  0
CIRCLE
  5
79B
100
AcDbEntity
  8
寸法
  6
CONTINUOUS
 62
     0
100
AcDbCircle
 10
1354.9371706
 20
830.821252429
 40
4.2
  0
LINE
  5
79C
100
AcDbEntity
  8
寸法
  6
CONTINUOUS
 62
     0
100
AcDbLine
 10
1398.000828926
 20
830.821252429
 11
1348.9371706
 21
830.821252429
  0
POLYLINE
  5
79D
100
AcDbEntity
  8
寸法
  6
CONTINUOUS
 62
     0
100
AcDb2dPolyline
 66
     1
 10
0
 20
0
 70
     0
  0
VERTEX
  5
79E
100
AcDbEntity
  8
寸法
100
AcDbVertex
100
AcDb2dVertex
 10
1352.964382752
 20
685.4458501575
  0
VERTEX
  5
79F
100
AcDbEntity
  8
寸法
100
AcDbVertex
100
AcDb2dVertex
 10
1354.9371706
 20
673.6091230715
  0
VERTEX
  5
7A0
100
AcDbEntity
  8
寸法
100
AcDbVertex
100
AcDb2dVertex
 10
1356.909958448
 20
685.4458501575
  0
SEQEND
  5
7A1
100
AcDbEntity
  8
寸法
  0
LINE
  5
7A2
100
AcDbEntity
  8
寸法
  6
CONTINUOUS
 62
     0
100
AcDbLine
 10
1354.9371706
 20
830.821252429
 11
1354.9371706
 21
673.6091230715
  0
TEXT
  5
7A3
100
AcDbEntity
  8
寸法
  6
CONTINUOUS
 62
     0
100
AcDbText
 10
1354.9371706
 20
711.7151877503
 40
9
  1
ストリンガーピッチ
 50
90
  7
STANDARD
100
AcDbText
  0
TEXT
  5
7A4
100
AcDbEntity
  8
寸法
  6
CONTINUOUS
 62
     0
100
AcDbText
 10
1354.9371706
 20
907.2857283861
 40
9
  1
パネルはね出しピッチ
 50
90
  7
STANDARD
100
AcDbText
  0
TEXT
  5
7A5
100
AcDbEntity
  8
寸法
  6
CONTINUOUS
 62
     0
100
AcDbText
 10
1474.472723744
 20
1116.821272429
 40
9
  1
パネルはね出しピッチ
  7
STANDARD
100
AcDbText
  0
TEXT
  5
7A6
100
AcDbEntity
  8
寸法
  6
CONTINUOUS
 62
     0
100
AcDbText
 10
1674.001742506
 20
1116.821272429
 40
9
  1
ストリンガーピッチ
  7
STANDARD
100
AcDbText
  0
TEXT
  5
7A7
100
AcDbEntity
  8
部品名
  6
CONTINUOUS
 62
     0
100
AcDbText
 10
983.3397836535
 20
1127.528978022
 40
9
  1
BS-A SUS M6x18
  7
STANDARD
100
AcDbText
  0
TEXT
  5
7A8
100
AcDbEntity
  8
部品名
  6
CONTINUOUS
 62
     0
100
AcDbText
 10
1542.581881905
 20
965.3659508698
 40
9
  1
BS-A SUS M6x18
  7
STANDARD
100
AcDbText
  0
TEXT
  5
7A9
100
AcDbEntity
  8
寸法
  6
CONTINUOUS
 62
     0
100
AcDbText
 10
1124.903850665
 20
1038.193934453
 40
9
  1
ストリンガー
 50
90
  7
STANDARD
100
AcDbText
  0
TEXT
  5
7AA
100
AcDbEntity
  8
寸法
  6
CONTINUOUS
 62
     0
100
AcDbText
 10
1124.903850665
 20
713.3591230715
 40
9
  1
ストリンガー
 50
90
  7
STANDARD
100
AcDbText
  0
TEXT
  5
7AB
100
AcDbEntity
  8
部品名
  6
CONTINUOUS
 62
     0
100
AcDbText
 10
979.6964201789
 20
1146.135538072
 40
9
  1
TK9A
  7
STANDARD
100
AcDbText
  0
TEXT
  5
7AC
100
AcDbEntity
  8
部品名
  6
CONTINUOUS
 62
     0
100
AcDbText
 10
1588.795073725
 20
1001.479136805
 40
9
  1
TK9A
  7
STANDARD
100
AcDbText
  0
TEXT
  5
7AD
100
AcDbEntity
  8
部品名
  6
CONTINUOUS
 62
     0
100
AcDbText
 10
1001.026621546
 20
1076.545782052
 40
9
  1
SR5050A
  7
STANDARD
100
AcDbText
  0
TEXT
  5
7AE
100
AcDbEntity
  8
部品名
  6
CONTINUOUS
 62
     0
100
AcDbText
 10
1571.813484623
 20
983.0725330874
 40
9
  1
SR5050A
  7
STANDARD
100
AcDbText
  0
DIMENSION
  5
7AF
100
AcDbEntity
  8
寸法
100
AcDbDimension
  2
*D43
 10
975.42
 20
750.1091230715
 11
964.92
 21
754.6091230715
 70
    32
  3
M7DIMSTL
100
AcDbAlignedDimension
 13
945.42
 23
759.1091230715
 14
945.42
 24
750.1091230715
 50
-90
100
AcDbRotatedDimension
  0
DIMENSION
  5
7B0
100
AcDbEntity
  8
寸法
100
AcDbDimension
  2
*D44
 10
1000.42
 20
742.1091230243
 11
989.92
 21
754.6091230479
 70
    32
  3
M7DIMSTL
100
AcDbAlignedDimension
 13
946.42
 23
767.1091230715
 14
946.42
 24
742.1091230243
 50
-90
100
AcDbRotatedDimension
  0
LINE
  5
7B1
100
AcDbEntity
  8
寸法
  6
CONTINUOUS
 62
     0
100
AcDbLine
 10
842.3068029913
 20
929.7091743685
 11
800.6081081741
 21
929.7091743685
  0
LINE
  5
7B2
100
AcDbEntity
  8
寸法
  6
CONTINUOUS
 62
     0
100
AcDbLine
 10
809.6081081741
 20
1104.709174369
 11
809.6081081741
 21
929.7091743685
  0
CIRCLE
  5
7B3
100
AcDbEntity
  8
寸法
  6
CONTINUOUS
 62
     0
100
AcDbCircle
 10
809.6081081741
 20
929.7091743685
 40
4.2
  0
CIRCLE
  5
7B4
100
AcDbEntity
  8
寸法
  6
CONTINUOUS
 62
     0
100
AcDbCircle
 10
809.6081081741
 20
1104.709174369
 40
4.2
  0
LINE
  5
7B5
100
AcDbEntity
  8
寸法
  6
CONTINUOUS
 62
     0
100
AcDbLine
 10
800.6081081741
 20
1104.709174369
 11
842.3068029913
 21
1104.709174369
  0
TEXT
  5
7B6
100
AcDbEntity
  8
寸法
  6
CONTINUOUS
 62
     0
100
AcDbText
 10
809.6081081741
 20
990.2091743685
 40
9
  1
パネルピッチ
 50
90
  7
STANDARD
100
AcDbText
  0
TEXT
  5
7B7
100
AcDbEntity
  8
レイヤ16
  6
CONTINUOUS
 62
     0
100
AcDbText
 10
747.48
 20
1617
 40
48
  1
アルミ製ルーバー　スカイマーカーTypeU　納まり図
 41
0
  7
STANDARD
100
AcDbText
  0
TEXT
  5
7B8
100
AcDbEntity
  8
レイヤ16
  6
CONTINUOUS
 62
     0
100
AcDbText
 10
92.80162918055
 20
1539
 40
24
  1
横張り納まり
  7
STANDARD
100
AcDbText
  0
TEXT
  5
7B9
100
AcDbEntity
  8
レイヤ16
  6
CONTINUOUS
 62
     0
100
AcDbText
 10
1125.158502174
 20
122.2932269461
 40
19.2
  1
東京都墨田区太平2-9-4
  7
STANDARD
100
AcDbText
  0
TEXT
  5
7BA
100
AcDbEntity
  8
レイヤ16
  6
CONTINUOUS
 62
     0
100
AcDbText
 10
1125.158502174
 20
101.2932269461
 40
19.2
  1
Ｔ：０３－５６１１－６３１０
  7
STANDARD
100
AcDbText
  0
TEXT
  5
7BB
100
AcDbEntity
  8
レイヤ16
  6
CONTINUOUS
 62
     0
100
AcDbText
 10
116.6032583611
 20
1509
 40
24
  1
PGR10060
  7
STANDARD
100
AcDbText
  0
TEXT
  5
7BC
100
AcDbEntity
  8
レイヤ16
  6
CONTINUOUS
 62
     0
100
AcDbText
 10
2412
 20
162
 40
24
  1
1016
  7
STANDARD
100
AcDbText
  0
TEXT
  5
7BD
100
AcDbEntity
  8
レイヤ16
  6
CONTINUOUS
 62
     0
100
AcDbText
 10
2340
 20
96
 40
24
  1
2021.02.01
  7
STANDARD
100
AcDbText
  0
LINE
  5
7BE
100
AcDbEntity
  8
レイヤ15
  6
CONTINUOUS
 62
     0
100
AcDbLine
 10
1431.877645367
 20
171.7295367488
 11
1428.203583942
 21
171.7295367488
  0
LINE
  5
7BF
100
AcDbEntity
  8
レイヤ15
  6
CONTINUOUS
 62
     0
100
AcDbLine
 10
1432.199319965
 20
171.0233407996
 11
1428.050830502
 21
166.2535752771
  0
LINE
  5
7C0
100
AcDbEntity
  8
レイヤ15
  6
CONTINUOUS
 62
     0
100
AcDbLine
 10
1432.138323574
 20
155.3508378916
 11
1428.38163881
 21
159.063888189
  0
LINE
  5
7C1
100
AcDbEntity
  8
レイヤ15
  6
CONTINUOUS
 62
     0
100
AcDbLine
 10
1432.864506077
 20
161.2741412233
 11
1432.864506077
 21
155.6541007127
  0
LINE
  5
7C2
100
AcDbEntity
  8
レイヤ15
  6
CONTINUOUS
 62
     0
100
AcDbLine
 10
1432.739258755
 20
161.5759867444
 11
1428.050830502
 21
166.2535752771
  0
LINE
  5
7C3
100
AcDbEntity
  8
レイヤ15
  6
CONTINUOUS
 62
     0
100
AcDbLine
 10
1434.563901216
 20
162.4041754748
 11
1440.390473826
 21
162.4041754748
  0
LINE
  5
7C4
100
AcDbEntity
  8
レイヤ15
  6
CONTINUOUS
 62
     0
100
AcDbLine
 10
1434.563901216
 20
166.5156707837
 11
1440.390473826
 21
166.5156707837
  0
LINE
  5
7C5
100
AcDbEntity
  8
レイヤ15
  6
CONTINUOUS
 62
     0
100
AcDbLine
 10
1433.924331488
 20
165.8761010557
 11
1433.924331488
 21
163.0437583261
  0
LINE
  5
7C6
100
AcDbEntity
  8
レイヤ15
  6
CONTINUOUS
 62
     0
100
AcDbLine
 10
1440.390473826
 20
173.8471272369
 11
1440.390473826
 21
166.5156707837
  0
LINE
  5
7C7
100
AcDbEntity
  8
レイヤ15
  6
CONTINUOUS
 62
     0
100
AcDbLine
 10
1447.139341259
 20
174.4867100881
 11
1441.030043554
 21
174.4867100881
  0
LINE
  5
7C8
100
AcDbEntity
  8
レイヤ15
  6
CONTINUOUS
 62
     0
100
AcDbLine
 10
1447.778910987
 20
173.8471272369
 11
1447.778910987
 21
166.5156707837
  0
LINE
  5
7C9
100
AcDbEntity
  8
レイヤ15
  6
CONTINUOUS
 62
     0
100
AcDbLine
 10
1453.605483596
 20
166.5156707837
 11
1447.778910987
 21
166.5156707837
  0
LINE
  5
7CA
100
AcDbEntity
  8
レイヤ15
  6
CONTINUOUS
 62
     0
100
AcDbLine
 10
1453.605483596
 20
162.4041754748
 11
1447.778910987
 21
162.4041754748
  0
LINE
  5
7CB
100
AcDbEntity
  8
レイヤ15
  6
CONTINUOUS
 62
     0
100
AcDbLine
 10
1454.245053324
 20
163.0437583261
 11
1454.245053324
 21
165.8761010557
  0
LINE
  5
7CC
100
AcDbEntity
  8
レイヤ15
  6
CONTINUOUS
 62
     0
100
AcDbLine
 10
1416.009555065
 20
171.7295367488
 11
1421.201177295
 21
171.7295367488
  0
LINE
  5
7CD
100
AcDbEntity
  8
レイヤ15
  6
CONTINUOUS
 62
     0
100
AcDbLine
 10
1416.009555065
 20
167.6180414399
 11
1421.201177295
 21
167.6180414399
  0
LINE
  5
7CE
100
AcDbEntity
  8
レイヤ15
  6
CONTINUOUS
 62
     0
100
AcDbLine
 10
1421.201177295
 20
173.8471272369
 11
1421.201177295
 21
171.7295367488
  0
LINE
  5
7CF
100
AcDbEntity
  8
レイヤ15
  6
CONTINUOUS
 62
     0
100
AcDbLine
 10
1428.203583942
 20
173.8471272369
 11
1428.203583942
 21
171.7295367488
  0
LINE
  5
7D0
100
AcDbEntity
  8
レイヤ15
  6
CONTINUOUS
 62
     0
100
AcDbLine
 10
1427.564014214
 20
174.4867100881
 11
1421.840747023
 21
174.4867100881
  0
LINE
  5
7D1
100
AcDbEntity
  8
レイヤ15
  6
CONTINUOUS
 62
     0
100
AcDbLine
 10
1088.52791239
 20
178.1714800021
 11
1088.52791239
 21
141.4932269461
  0
LINE
  5
7D2
100
AcDbEntity
  8
レイヤ15
  6
CONTINUOUS
 62
     0
100
AcDbLine
 10
1125.158502174
 20
141.4932269461
 11
1125.158502174
 21
178.1714800021
  0
LINE
  5
7D3
100
AcDbEntity
  8
レイヤ15
  6
CONTINUOUS
 62
     0
100
AcDbLine
 10
1125.158502174
 20
178.1714800021
 11
1088.52791239
 21
178.1714800021
  0
LINE
  5
7D4
100
AcDbEntity
  8
レイヤ15
  6
CONTINUOUS
 62
     0
100
AcDbLine
 10
1088.52791239
 20
141.4932269461
 11
1125.158502174
 21
141.4932269461
  0
LINE
  5
7D5
100
AcDbEntity
  8
レイヤ15
  6
CONTINUOUS
 62
     0
100
AcDbLine
 10
1106.742631478
 20
145.6200500915
 11
1106.742631478
 21
144.7457728662
  0
LINE
  5
7D6
100
AcDbEntity
  8
レイヤ15
  6
CONTINUOUS
 62
     0
100
AcDbLine
 10
1105.99650179
 20
149.9020282127
 11
1105.99650179
 21
159.4427797104
  0
LINE
  5
7D7
100
AcDbEntity
  8
レイヤ15
  6
CONTINUOUS
 62
     0
100
AcDbLine
 10
1106.742631478
 20
160.1746576596
 11
1113.415069698
 21
166.8470958798
  0
LINE
  5
7D8
100
AcDbEntity
  8
レイヤ15
  6
CONTINUOUS
 62
     0
100
AcDbLine
 10
1106.742631478
 20
159.4133707363
 11
1113.800680271
 21
166.4714064064
  0
LINE
  5
7D9
100
AcDbEntity
  8
レイヤ15
  6
CONTINUOUS
 62
     0
100
AcDbLine
 10
1115.288635254
 20
164.5293248961
 11
1114.342193839
 21
163.5697865799
  0
LINE
  5
7DA
100
AcDbEntity
  8
レイヤ15
  6
CONTINUOUS
 62
     0
100
AcDbLine
 10
1109.407575335
 20
151.5795208183
 11
1109.407575335
 21
150.2423901724
  0
LINE
  5
7DB
100
AcDbEntity
  8
レイヤ15
  6
CONTINUOUS
 62
     0
100
AcDbLine
 10
1104.077687621
 20
151.5795208183
 11
1104.077687621
 21
150.2423901724
  0
LINE
  5
7DC
100
AcDbEntity
  8
レイヤ15
  6
CONTINUOUS
 62
     0
100
AcDbLine
 10
1099.147478494
 20
163.5783035028
 11
1098.203451738
 21
164.522304012
  0
LINE
  5
7DD
100
AcDbEntity
  8
レイヤ15
  6
CONTINUOUS
 62
     0
100
AcDbLine
 10
1102.937548545
 20
167.3256708315
 11
1101.990582205
 21
168.2726896647
  0
LINE
  5
7DE
100
AcDbEntity
  8
レイヤ15
  6
CONTINUOUS
 62
     0
100
AcDbLine
 10
1110.54771441
 20
167.3256708315
 11
1111.494680751
 21
168.2726896647
  0
LINE
  5
7DF
100
AcDbEntity
  8
レイヤ15
  6
CONTINUOUS
 62
     0
100
AcDbLine
 10
1362.034573352
 20
174.0654964152
 11
1362.962012449
 21
171.7295367488
  0
LINE
  5
7E0
100
AcDbEntity
  8
レイヤ15
  6
CONTINUOUS
 62
     0
100
AcDbLine
 10
1361.433428201
 20
174.4867100881
 11
1353.22222217
 21
174.4867100881
  0
LINE
  5
7E1
100
AcDbEntity
  8
レイヤ15
  6
CONTINUOUS
 62
     0
100
AcDbLine
 10
1267.112011177
 20
157.783607019
 11
1267.112011177
 21
157.1568848525
  0
LINE
  5
7E2
100
AcDbEntity
  8
レイヤ15
  6
CONTINUOUS
 62
     0
100
AcDbLine
 10
1274.500343352
 20
157.783607019
 11
1274.500343352
 21
157.1568848525
  0
LINE
  5
7E3
100
AcDbEntity
  8
レイヤ15
  6
CONTINUOUS
 62
     0
100
AcDbLine
 10
1266.701309145
 20
167.6180414399
 11
1266.437481383
 21
166.6333198032
  0
LINE
  5
7E4
100
AcDbEntity
  8
レイヤ15
  6
CONTINUOUS
 62
     0
100
AcDbLine
 10
1266.701309145
 20
167.6180414399
 11
1274.911045384
 21
167.6180414399
  0
LINE
  5
7E5
100
AcDbEntity
  8
レイヤ15
  6
CONTINUOUS
 62
     0
100
AcDbLine
 10
1266.437481383
 20
166.6333198032
 11
1275.174873146
 21
166.6333198032
  0
LINE
  5
7E6
100
AcDbEntity
  8
レイヤ15
  6
CONTINUOUS
 62
     0
100
AcDbLine
 10
1267.803128629
 20
171.7295367488
 11
1273.8092259
 21
171.7295367488
  0
LINE
  5
7E7
100
AcDbEntity
  8
レイヤ15
  6
CONTINUOUS
 62
     0
100
AcDbLine
 10
1261.871360867
 20
171.7295367488
 11
1262.56247832
 21
171.7295367488
  0
LINE
  5
7E8
100
AcDbEntity
  8
レイヤ15
  6
CONTINUOUS
 62
     0
100
AcDbLine
 10
1279.049876209
 20
171.7295367488
 11
1279.740993662
 21
171.7295367488
  0
LINE
  5
7E9
100
AcDbEntity
  8
レイヤ15
  6
CONTINUOUS
 62
     0
100
AcDbLine
 10
1300.714093418
 20
166.1011630393
 11
1300.714093418
 21
167.6180414399
  0
LINE
  5
7EA
100
AcDbEntity
  8
レイヤ15
  6
CONTINUOUS
 62
     0
100
AcDbLine
 10
1366.906620688
 20
174.4867100881
 11
1366.906620688
 21
173.0593971709
  0
LINE
  5
7EB
100
AcDbEntity
  8
レイヤ15
  6
CONTINUOUS
 62
     0
100
AcDbLine
 10
1371.581190897
 20
174.4867100881
 11
1366.906620688
 21
174.4867100881
  0
LINE
  5
7EC
100
AcDbEntity
  8
レイヤ15
  6
CONTINUOUS
 62
     0
100
AcDbLine
 10
1371.581190897
 20
173.0593971709
 11
1371.581190897
 21
174.4867100881
  0
LINE
  5
7ED
100
AcDbEntity
  8
レイヤ15
  6
CONTINUOUS
 62
     0
100
AcDbLine
 10
1366.906620688
 20
173.0593971709
 11
1371.581190897
 21
173.0593971709
  0
LINE
  5
7EE
100
AcDbEntity
  8
レイヤ15
  6
CONTINUOUS
 62
     0
100
AcDbLine
 10
1307.716500065
 20
166.1011630393
 11
1307.716500065
 21
167.6180414399
  0
LINE
  5
7EF
100
AcDbEntity
  8
レイヤ15
  6
CONTINUOUS
 62
     0
100
AcDbLine
 10
1182.931322842
 20
171.0899670207
 11
1182.931322842
 21
167.0277228852
  0
LINE
  5
7F0
100
AcDbEntity
  8
レイヤ15
  6
CONTINUOUS
 62
     0
100
AcDbLine
 10
1187.044957224
 20
171.7295367488
 11
1183.57089257
 21
171.7295367488
  0
LINE
  5
7F1
100
AcDbEntity
  8
レイヤ15
  6
CONTINUOUS
 62
     0
100
AcDbLine
 10
1131.766584477
 20
152.4058066924
 11
1131.766584477
 21
147.9677024827
  0
LINE
  5
7F2
100
AcDbEntity
  8
レイヤ15
  6
CONTINUOUS
 62
     0
100
AcDbLine
 10
1164.811300388
 20
153.0453895436
 11
1132.406154205
 21
153.0453895436
  0
LINE
  5
7F3
100
AcDbEntity
  8
レイヤ15
  6
CONTINUOUS
 62
     0
100
AcDbLine
 10
1165.450870116
 20
147.9677024827
 11
1165.450870116
 21
152.4058066924
  0
LINE
  5
7F4
100
AcDbEntity
  8
レイヤ15
  6
CONTINUOUS
 62
     0
100
AcDbLine
 10
1132.406154205
 20
147.3281196314
 11
1164.811300388
 21
147.3281196314
  0
LINE
  5
7F5
100
AcDbEntity
  8
レイヤ15
  6
CONTINUOUS
 62
     0
100
AcDbLine
 10
1131.766584477
 20
173.8471272369
 11
1131.766584477
 21
169.4090230272
  0
LINE
  5
7F6
100
AcDbEntity
  8
レイヤ15
  6
CONTINUOUS
 62
     0
100
AcDbLine
 10
1164.811300388
 20
174.4867100881
 11
1132.406154205
 21
174.4867100881
  0
LINE
  5
7F7
100
AcDbEntity
  8
レイヤ15
  6
CONTINUOUS
 62
     0
100
AcDbLine
 10
1165.450870116
 20
169.4090230272
 11
1165.450870116
 21
173.8471272369
  0
LINE
  5
7F8
100
AcDbEntity
  8
レイヤ15
  6
CONTINUOUS
 62
     0
100
AcDbLine
 10
1132.406154205
 20
168.7694401759
 11
1164.811300388
 21
168.7694401759
  0
LINE
  5
7F9
100
AcDbEntity
  8
レイヤ15
  6
CONTINUOUS
 62
     0
100
AcDbLine
 10
1267.112011177
 20
162.5218244943
 11
1267.112011177
 21
162.0182368231
  0
LINE
  5
7FA
100
AcDbEntity
  8
レイヤ15
  6
CONTINUOUS
 62
     0
100
AcDbLine
 10
1274.500343352
 20
162.5218244943
 11
1274.500343352
 21
162.0182368231
  0
LINE
  5
7FB
100
AcDbEntity
  8
レイヤ15
  6
CONTINUOUS
 62
     0
100
AcDbLine
 10
1281.932874289
 20
167.6180414399
 11
1281.202597364
 21
166.6333198032
  0
LINE
  5
7FC
100
AcDbEntity
  8
レイヤ15
  6
CONTINUOUS
 62
     0
100
AcDbLine
 10
1259.67948024
 20
167.6180414399
 11
1260.409757165
 21
166.6333198032
  0
LINE
  5
7FD
100
AcDbEntity
  8
レイヤ15
  6
CONTINUOUS
 62
     0
100
AcDbLine
 10
1274.911045384
 20
167.6180414399
 11
1275.174873146
 21
166.6333198032
  0
LINE
  5
7FE
100
AcDbEntity
  8
レイヤ15
  6
CONTINUOUS
 62
     0
100
AcDbLine
 10
1294.930984674
 20
154.7044441267
 11
1300.762176632
 21
159.3254194002
  0
LINE
  5
7FF
100
AcDbEntity
  8
レイヤ15
  6
CONTINUOUS
 62
     0
100
AcDbLine
 10
1327.955858385
 20
164.9456436349
 11
1327.955858385
 21
167.6180414399
  0
LINE
  5
800
100
AcDbEntity
  8
レイヤ15
  6
CONTINUOUS
 62
     0
100
AcDbLine
 10
1335.017476675
 20
167.6180414399
 11
1327.955858385
 21
167.6180414399
  0
LINE
  5
801
100
AcDbEntity
  8
レイヤ15
  6
CONTINUOUS
 62
     0
100
AcDbLine
 10
1335.657046403
 20
171.0899670207
 11
1335.657046403
 21
168.2576242911
  0
LINE
  5
802
100
AcDbEntity
  8
レイヤ15
  6
CONTINUOUS
 62
     0
100
AcDbLine
 10
1327.955858385
 20
171.7295367488
 11
1335.017476675
 21
171.7295367488
  0
LINE
  5
803
100
AcDbEntity
  8
レイヤ15
  6
CONTINUOUS
 62
     0
100
AcDbLine
 10
1327.955858385
 20
164.9186361968
 11
1335.017476675
 21
164.9186361968
  0
LINE
  5
804
100
AcDbEntity
  8
レイヤ15
  6
CONTINUOUS
 62
     0
100
AcDbLine
 10
1320.953346753
 20
164.9456436349
 11
1320.953346753
 21
167.6180414399
  0
LINE
  5
805
100
AcDbEntity
  8
レイヤ15
  6
CONTINUOUS
 62
     0
100
AcDbLine
 10
1320.953346753
 20
171.7295367488
 11
1319.112536574
 21
171.7295367488
  0
LINE
  5
806
100
AcDbEntity
  8
レイヤ15
  6
CONTINUOUS
 62
     0
100
AcDbLine
 10
1313.252053751
 20
160.8071408879
 11
1317.720538047
 21
160.8071408879
  0
LINE
  5
807
100
AcDbEntity
  8
レイヤ15
  6
CONTINUOUS
 62
     0
100
AcDbLine
 10
1313.252053751
 20
164.2790533456
 11
1313.252053751
 21
160.8071408879
  0
LINE
  5
808
100
AcDbEntity
  8
レイヤ15
  6
CONTINUOUS
 62
     0
100
AcDbLine
 10
1320.953346753
 20
164.9186361968
 11
1313.891623479
 21
164.9186361968
  0
LINE
  5
809
100
AcDbEntity
  8
レイヤ15
  6
CONTINUOUS
 62
     0
100
AcDbLine
 10
1314.671978336
 20
174.108382862
 11
1319.847957773
 21
174.108382862
  0
LINE
  5
80A
100
AcDbEntity
  8
レイヤ15
  6
CONTINUOUS
 62
     0
100
AcDbLine
 10
1319.112536574
 20
171.7295367488
 11
1319.847957773
 21
174.108382862
  0
LINE
  5
80B
100
AcDbEntity
  8
レイヤ15
  6
CONTINUOUS
 62
     0
100
AcDbLine
 10
1372.065172586
 20
171.7295367488
 11
1362.962012449
 21
171.7295367488
  0
LINE
  5
80C
100
AcDbEntity
  8
レイヤ15
  6
CONTINUOUS
 62
     0
100
AcDbLine
 10
1393.245303121
 20
170.3752147792
 11
1376.244212736
 21
165.5210280474
  0
LINE
  5
80D
100
AcDbEntity
  8
レイヤ15
  6
CONTINUOUS
 62
     0
100
AcDbLine
 10
1393.245303121
 20
174.4867100881
 11
1410.246498491
 21
169.6325233563
  0
LINE
  5
80E
100
AcDbEntity
  8
レイヤ15
  6
CONTINUOUS
 62
     0
100
AcDbLine
 10
1410.246498491
 20
165.5210280474
 11
1410.246498491
 21
169.6325233563
  0
LINE
  5
80F
100
AcDbEntity
  8
レイヤ15
  6
CONTINUOUS
 62
     0
100
AcDbLine
 10
1393.245303121
 20
170.3752147792
 11
1410.246498491
 21
165.5210280474
  0
LINE
  5
810
100
AcDbEntity
  8
レイヤ15
  6
CONTINUOUS
 62
     0
100
AcDbLine
 10
1307.716500065
 20
160.0682551778
 11
1311.181535993
 21
157.3099270014
  0
LINE
  5
811
100
AcDbEntity
  8
レイヤ15
  6
CONTINUOUS
 62
     0
100
AcDbLine
 10
1162.762199608
 20
158.6883561933
 11
1162.762199608
 21
163.1264735262
  0
LINE
  5
812
100
AcDbEntity
  8
レイヤ15
  6
CONTINUOUS
 62
     0
100
AcDbLine
 10
1135.727255449
 20
163.7660563775
 11
1162.122524895
 21
163.7660563775
  0
LINE
  5
813
100
AcDbEntity
  8
レイヤ15
  6
CONTINUOUS
 62
     0
100
AcDbLine
 10
1135.087685721
 20
158.6883561933
 11
1135.087685721
 21
163.1264735262
  0
LINE
  5
814
100
AcDbEntity
  8
レイヤ15
  6
CONTINUOUS
 62
     0
100
AcDbLine
 10
1135.727255449
 20
158.0487864653
 11
1162.122524895
 21
158.0487864653
  0
LINE
  5
815
100
AcDbEntity
  8
レイヤ15
  6
CONTINUOUS
 62
     0
100
AcDbLine
 10
1169.564504498
 20
169.2725422907
 11
1169.564504498
 21
173.6736392238
  0
LINE
  5
816
100
AcDbEntity
  8
レイヤ15
  6
CONTINUOUS
 62
     0
100
AcDbLine
 10
1180.453252608
 20
171.8480256497
 11
1170.354727962
 21
174.2952171164
  0
LINE
  5
817
100
AcDbEntity
  8
レイヤ15
  6
CONTINUOUS
 62
     0
100
AcDbLine
 10
1180.9421686
 20
166.825350824
 11
1180.9421686
 21
171.226434634
  0
LINE
  5
818
100
AcDbEntity
  8
レイヤ15
  6
CONTINUOUS
 62
     0
100
AcDbLine
 10
1180.152050121
 20
166.2037598083
 11
1170.05342049
 21
168.650951275
  0
LINE
  5
819
100
AcDbEntity
  8
レイヤ15
  6
CONTINUOUS
 62
     0
100
AcDbLine
 10
1169.564504498
 20
160.9694217328
 11
1169.564504498
 21
165.370518666
  0
LINE
  5
81A
100
AcDbEntity
  8
レイヤ15
  6
CONTINUOUS
 62
     0
100
AcDbLine
 10
1180.152050121
 20
157.9006392505
 11
1170.05342049
 21
160.3478438403
  0
LINE
  5
81B
100
AcDbEntity
  8
レイヤ15
  6
CONTINUOUS
 62
     0
100
AcDbLine
 10
1180.9421686
 20
162.9233140761
 11
1180.9421686
 21
158.5222302661
  0
LINE
  5
81C
100
AcDbEntity
  8
レイヤ15
  6
CONTINUOUS
 62
     0
100
AcDbLine
 10
1180.453252608
 20
163.5449050918
 11
1170.354727962
 21
165.9920965585
  0
LINE
  5
81D
100
AcDbEntity
  8
レイヤ15
  6
CONTINUOUS
 62
     0
100
AcDbLine
 10
1176.50360508
 20
147.692720045
 11
1180.205382594
 21
155.4664397
  0
LINE
  5
81E
100
AcDbEntity
  8
レイヤ15
  6
CONTINUOUS
 62
     0
100
AcDbLine
 10
1170.762385424
 20
147.3281196314
 11
1175.92618658
 21
147.3281196314
  0
LINE
  5
81F
100
AcDbEntity
  8
レイヤ15
  6
CONTINUOUS
 62
     0
100
AcDbLine
 10
1173.887374348
 20
156.0164176985
 11
1170.184861938
 21
148.2427111666
  0
LINE
  5
820
100
AcDbEntity
  8
レイヤ15
  6
CONTINUOUS
 62
     0
100
AcDbLine
 10
1174.464792848
 20
156.3809918658
 11
1179.627964093
 21
156.3809918658
  0
LINE
  5
821
100
AcDbEntity
  8
レイヤ15
  6
CONTINUOUS
 62
     0
100
AcDbLine
 10
1192.907224795
 20
166.3881531572
 11
1183.57089257
 21
166.3881531572
  0
LINE
  5
822
100
AcDbEntity
  8
レイヤ15
  6
CONTINUOUS
 62
     0
100
AcDbLine
 10
1192.907224795
 20
163.3750653138
 11
1192.907224795
 21
166.3881531572
  0
LINE
  5
823
100
AcDbEntity
  8
レイヤ15
  6
CONTINUOUS
 62
     0
100
AcDbLine
 10
1184.555968531
 20
163.3750653138
 11
1192.907224795
 21
163.3750653138
  0
LINE
  5
824
100
AcDbEntity
  8
レイヤ15
  6
CONTINUOUS
 62
     0
100
AcDbLine
 10
1183.916398803
 20
158.6732514503
 11
1183.916398803
 21
162.7354824626
  0
LINE
  5
825
100
AcDbEntity
  8
レイヤ15
  6
CONTINUOUS
 62
     0
100
AcDbLine
 10
1192.907224795
 20
158.0336685991
 11
1184.555968531
 21
158.0336685991
  0
LINE
  5
826
100
AcDbEntity
  8
レイヤ15
  6
CONTINUOUS
 62
     0
100
AcDbLine
 10
1192.907224795
 20
155.0205807557
 11
1192.907224795
 21
158.0336685991
  0
LINE
  5
827
100
AcDbEntity
  8
レイヤ15
  6
CONTINUOUS
 62
     0
100
AcDbLine
 10
1183.57089257
 20
155.0205807557
 11
1192.907224795
 21
155.0205807557
  0
LINE
  5
828
100
AcDbEntity
  8
レイヤ15
  6
CONTINUOUS
 62
     0
100
AcDbLine
 10
1182.931322842
 20
150.3187668922
 11
1182.931322842
 21
154.3810110276
  0
LINE
  5
829
100
AcDbEntity
  8
レイヤ15
  6
CONTINUOUS
 62
     0
100
AcDbLine
 10
1200.295661956
 20
155.0205807557
 11
1209.632099166
 21
155.0205807557
  0
LINE
  5
82A
100
AcDbEntity
  8
レイヤ15
  6
CONTINUOUS
 62
     0
100
AcDbLine
 10
1200.295661956
 20
158.0336685991
 11
1200.295661956
 21
155.0205807557
  0
LINE
  5
82B
100
AcDbEntity
  8
レイヤ15
  6
CONTINUOUS
 62
     0
100
AcDbLine
 10
1208.646918219
 20
158.0336685991
 11
1200.295661956
 21
158.0336685991
  0
LINE
  5
82C
100
AcDbEntity
  8
レイヤ15
  6
CONTINUOUS
 62
     0
100
AcDbLine
 10
1209.286487948
 20
162.7354824626
 11
1209.286487948
 21
158.6732514503
  0
LINE
  5
82D
100
AcDbEntity
  8
レイヤ15
  6
CONTINUOUS
 62
     0
100
AcDbLine
 10
1200.295661956
 20
163.3750653138
 11
1208.646918219
 21
163.3750653138
  0
LINE
  5
82E
100
AcDbEntity
  8
レイヤ15
  6
CONTINUOUS
 62
     0
100
AcDbLine
 10
1200.295661956
 20
166.3881531572
 11
1200.295661956
 21
163.3750653138
  0
LINE
  5
82F
100
AcDbEntity
  8
レイヤ15
  6
CONTINUOUS
 62
     0
100
AcDbLine
 10
1209.632099166
 20
166.3881531572
 11
1200.295661956
 21
166.3881531572
  0
LINE
  5
830
100
AcDbEntity
  8
レイヤ15
  6
CONTINUOUS
 62
     0
100
AcDbLine
 10
1210.271668894
 20
171.0899670207
 11
1210.271668894
 21
167.0277228852
  0
LINE
  5
831
100
AcDbEntity
  8
レイヤ15
  6
CONTINUOUS
 62
     0
100
AcDbLine
 10
1209.632099166
 20
171.7295367488
 11
1206.157929527
 21
171.7295367488
  0
LINE
  5
832
100
AcDbEntity
  8
レイヤ15
  6
CONTINUOUS
 62
     0
100
AcDbLine
 10
1194.531870485
 20
171.7295367488
 11
1198.671016266
 21
171.7295367488
  0
LINE
  5
833
100
AcDbEntity
  8
レイヤ15
  6
CONTINUOUS
 62
     0
100
AcDbLine
 10
1191.660840716
 20
174.3024873402
 11
1194.082743877
 21
171.9137594967
  0
LINE
  5
834
100
AcDbEntity
  8
レイヤ15
  6
CONTINUOUS
 62
     0
100
AcDbLine
 10
1201.542046035
 20
174.3024873402
 11
1199.120142874
 21
171.9137594967
  0
LINE
  5
835
100
AcDbEntity
  8
レイヤ15
  6
CONTINUOUS
 62
     0
100
AcDbLine
 10
1185.288975071
 20
174.4867100881
 11
1191.211714108
 21
174.4867100881
  0
LINE
  5
836
100
AcDbEntity
  8
レイヤ15
  6
CONTINUOUS
 62
     0
100
AcDbLine
 10
1184.989557333
 20
173.7567612416
 11
1187.044957224
 21
171.7295367488
  0
LINE
  5
837
100
AcDbEntity
  8
レイヤ15
  6
CONTINUOUS
 62
     0
100
AcDbLine
 10
1208.213329418
 20
173.7567612416
 11
1206.157929527
 21
171.7295367488
  0
LINE
  5
838
100
AcDbEntity
  8
レイヤ15
  6
CONTINUOUS
 62
     0
100
AcDbLine
 10
1207.91391168
 20
174.4867100881
 11
1201.991172643
 21
174.4867100881
  0
LINE
  5
839
100
AcDbEntity
  8
レイヤ15
  6
CONTINUOUS
 62
     0
100
AcDbLine
 10
1227.588134766
 20
168.7694401759
 11
1215.932574887
 21
168.7694401759
  0
LINE
  5
83A
100
AcDbEntity
  8
レイヤ15
  6
CONTINUOUS
 62
     0
100
AcDbLine
 10
1246.63223679
 20
168.7694401759
 11
1234.976571926
 21
168.7694401759
  0
LINE
  5
83B
100
AcDbEntity
  8
レイヤ15
  6
CONTINUOUS
 62
     0
100
AcDbLine
 10
1246.63223679
 20
174.4867100881
 11
1215.932574887
 21
174.4867100881
  0
LINE
  5
83C
100
AcDbEntity
  8
レイヤ15
  6
CONTINUOUS
 62
     0
100
AcDbLine
 10
1247.271806518
 20
173.8471272369
 11
1247.271806518
 21
169.4090230272
  0
LINE
  5
83D
100
AcDbEntity
  8
レイヤ15
  6
CONTINUOUS
 62
     0
100
AcDbLine
 10
1252.497968873
 20
171.7295367488
 11
1256.630710558
 21
171.7295367488
  0
LINE
  5
83E
100
AcDbEntity
  8
レイヤ15
  6
CONTINUOUS
 62
     0
100
AcDbLine
 10
1251.858399144
 20
168.2576242911
 11
1251.858399144
 21
171.0899670207
  0
LINE
  5
83F
100
AcDbEntity
  8
レイヤ15
  6
CONTINUOUS
 62
     0
100
AcDbLine
 10
1252.497968873
 20
167.6180414399
 11
1259.67948024
 21
167.6180414399
  0
LINE
  5
840
100
AcDbEntity
  8
レイヤ15
  6
CONTINUOUS
 62
     0
100
AcDbLine
 10
1252.497968873
 20
166.6333198032
 11
1260.409757165
 21
166.6333198032
  0
LINE
  5
841
100
AcDbEntity
  8
レイヤ15
  6
CONTINUOUS
 62
     0
100
AcDbLine
 10
1251.858399144
 20
163.1613942224
 11
1251.858399144
 21
165.993736952
  0
LINE
  5
842
100
AcDbEntity
  8
レイヤ15
  6
CONTINUOUS
 62
     0
100
AcDbLine
 10
1252.497968873
 20
162.5218244943
 11
1267.112011177
 21
162.5218244943
  0
LINE
  5
843
100
AcDbEntity
  8
レイヤ15
  6
CONTINUOUS
 62
     0
100
AcDbLine
 10
1253.483044834
 20
162.0182368231
 11
1267.112011177
 21
162.0182368231
  0
LINE
  5
844
100
AcDbEntity
  8
レイヤ15
  6
CONTINUOUS
 62
     0
100
AcDbLine
 10
1253.483044834
 20
157.783607019
 11
1267.112011177
 21
157.783607019
  0
LINE
  5
845
100
AcDbEntity
  8
レイヤ15
  6
CONTINUOUS
 62
     0
100
AcDbLine
 10
1252.843475106
 20
158.423176747
 11
1252.843475106
 21
161.378667095
  0
LINE
  5
846
100
AcDbEntity
  8
レイヤ15
  6
CONTINUOUS
 62
     0
100
AcDbLine
 10
1252.497968873
 20
157.1568848525
 11
1267.112011177
 21
157.1568848525
  0
LINE
  5
847
100
AcDbEntity
  8
レイヤ15
  6
CONTINUOUS
 62
     0
100
AcDbLine
 10
1251.858399144
 20
153.6849592717
 11
1251.858399144
 21
156.5173020013
  0
LINE
  5
848
100
AcDbEntity
  8
レイヤ15
  6
CONTINUOUS
 62
     0
100
AcDbLine
 10
1289.114385656
 20
157.1568848525
 11
1274.500343352
 21
157.1568848525
  0
LINE
  5
849
100
AcDbEntity
  8
レイヤ15
  6
CONTINUOUS
 62
     0
100
AcDbLine
 10
1289.753955384
 20
156.5173020013
 11
1289.753955384
 21
153.6849592717
  0
LINE
  5
84A
100
AcDbEntity
  8
レイヤ15
  6
CONTINUOUS
 62
     0
100
AcDbLine
 10
1288.129309695
 20
157.783607019
 11
1274.500343352
 21
157.783607019
  0
LINE
  5
84B
100
AcDbEntity
  8
レイヤ15
  6
CONTINUOUS
 62
     0
100
AcDbLine
 10
1288.768879423
 20
161.378667095
 11
1288.768879423
 21
158.423176747
  0
LINE
  5
84C
100
AcDbEntity
  8
レイヤ15
  6
CONTINUOUS
 62
     0
100
AcDbLine
 10
1288.129309695
 20
162.0182368231
 11
1274.500343352
 21
162.0182368231
  0
LINE
  5
84D
100
AcDbEntity
  8
レイヤ15
  6
CONTINUOUS
 62
     0
100
AcDbLine
 10
1289.114385656
 20
162.5218244943
 11
1274.500343352
 21
162.5218244943
  0
LINE
  5
84E
100
AcDbEntity
  8
レイヤ15
  6
CONTINUOUS
 62
     0
100
AcDbLine
 10
1289.753955384
 20
165.993736952
 11
1289.753955384
 21
163.1613942224
  0
LINE
  5
84F
100
AcDbEntity
  8
レイヤ15
  6
CONTINUOUS
 62
     0
100
AcDbLine
 10
1289.114385656
 20
166.6333198032
 11
1281.202597364
 21
166.6333198032
  0
LINE
  5
850
100
AcDbEntity
  8
レイヤ15
  6
CONTINUOUS
 62
     0
100
AcDbLine
 10
1289.114385656
 20
167.6180414399
 11
1281.932874289
 21
167.6180414399
  0
LINE
  5
851
100
AcDbEntity
  8
レイヤ15
  6
CONTINUOUS
 62
     0
100
AcDbLine
 10
1289.114385656
 20
171.7295367488
 11
1284.981643971
 21
171.7295367488
  0
LINE
  5
852
100
AcDbEntity
  8
レイヤ15
  6
CONTINUOUS
 62
     0
100
AcDbLine
 10
1289.753955384
 20
171.0899670207
 11
1289.753955384
 21
168.2576242911
  0
LINE
  5
853
100
AcDbEntity
  8
レイヤ15
  6
CONTINUOUS
 62
     0
100
AcDbLine
 10
1281.593772152
 20
174.2280922157
 11
1279.740993662
 21
171.7295367488
  0
LINE
  5
854
100
AcDbEntity
  8
レイヤ15
  6
CONTINUOUS
 62
     0
100
AcDbLine
 10
1278.438127555
 20
174.0126757456
 11
1279.049876209
 21
171.7295367488
  0
LINE
  5
855
100
AcDbEntity
  8
レイヤ15
  6
CONTINUOUS
 62
     0
100
AcDbLine
 10
1263.174226974
 20
174.0126757456
 11
1262.56247832
 21
171.7295367488
  0
LINE
  5
856
100
AcDbEntity
  8
レイヤ15
  6
CONTINUOUS
 62
     0
100
AcDbLine
 10
1260.018582377
 20
174.2280922157
 11
1261.871360867
 21
171.7295367488
  0
LINE
  5
857
100
AcDbEntity
  8
レイヤ15
  6
CONTINUOUS
 62
     0
100
AcDbLine
 10
1255.433144588
 20
174.4867100881
 11
1259.504784897
 21
174.4867100881
  0
LINE
  5
858
100
AcDbEntity
  8
レイヤ15
  6
CONTINUOUS
 62
     0
100
AcDbLine
 10
1255.090682924
 20
173.8063536169
 11
1256.630710558
 21
171.7295367488
  0
LINE
  5
859
100
AcDbEntity
  8
レイヤ15
  6
CONTINUOUS
 62
     0
100
AcDbLine
 10
1286.521671604
 20
173.8063536169
 11
1284.981643971
 21
171.7295367488
  0
LINE
  5
85A
100
AcDbEntity
  8
レイヤ15
  6
CONTINUOUS
 62
     0
100
AcDbLine
 10
1286.179209941
 20
174.4867100881
 11
1282.107569632
 21
174.4867100881
  0
LINE
  5
85B
100
AcDbEntity
  8
レイヤ15
  6
CONTINUOUS
 62
     0
100
AcDbLine
 10
1273.626131743
 20
174.4867100881
 11
1277.820289759
 21
174.4867100881
  0
LINE
  5
85C
100
AcDbEntity
  8
レイヤ15
  6
CONTINUOUS
 62
     0
100
AcDbLine
 10
1273.214274874
 20
173.9499602226
 11
1273.8092259
 21
171.7295367488
  0
LINE
  5
85D
100
AcDbEntity
  8
レイヤ15
  6
CONTINUOUS
 62
     0
100
AcDbLine
 10
1267.986222786
 20
174.4867100881
 11
1263.79206477
 21
174.4867100881
  0
LINE
  5
85E
100
AcDbEntity
  8
レイヤ15
  6
CONTINUOUS
 62
     0
100
AcDbLine
 10
1268.398079655
 20
173.9499602226
 11
1267.803128629
 21
171.7295367488
  0
LINE
  5
85F
100
AcDbEntity
  8
レイヤ15
  6
CONTINUOUS
 62
     0
100
AcDbLine
 10
1295.522471189
 20
171.7295367488
 11
1300.714093418
 21
171.7295367488
  0
LINE
  5
860
100
AcDbEntity
  8
レイヤ15
  6
CONTINUOUS
 62
     0
100
AcDbLine
 10
1294.882901461
 20
168.2576242911
 11
1294.882901461
 21
171.0899670207
  0
LINE
  5
861
100
AcDbEntity
  8
レイヤ15
  6
CONTINUOUS
 62
     0
100
AcDbLine
 10
1295.522471189
 20
167.6180414399
 11
1300.714093418
 21
167.6180414399
  0
LINE
  5
862
100
AcDbEntity
  8
レイヤ15
  6
CONTINUOUS
 62
     0
100
AcDbLine
 10
1300.714093418
 20
173.8471272369
 11
1300.714093418
 21
171.7295367488
  0
LINE
  5
863
100
AcDbEntity
  8
レイヤ15
  6
CONTINUOUS
 62
     0
100
AcDbLine
 10
1307.076930337
 20
174.4867100881
 11
1301.353663146
 21
174.4867100881
  0
LINE
  5
864
100
AcDbEntity
  8
レイヤ15
  6
CONTINUOUS
 62
     0
100
AcDbLine
 10
1307.716500065
 20
173.8471272369
 11
1307.716500065
 21
171.7295367488
  0
LINE
  5
865
100
AcDbEntity
  8
レイヤ15
  6
CONTINUOUS
 62
     0
100
AcDbLine
 10
1310.541966265
 20
171.7295367488
 11
1307.716500065
 21
171.7295367488
  0
LINE
  5
866
100
AcDbEntity
  8
レイヤ15
  6
CONTINUOUS
 62
     0
100
AcDbLine
 10
1310.541966265
 20
167.6180414399
 11
1307.716500065
 21
167.6180414399
  0
LINE
  5
867
100
AcDbEntity
  8
レイヤ15
  6
CONTINUOUS
 62
     0
100
AcDbLine
 10
1311.181535993
 20
168.2576242911
 11
1311.181535993
 21
171.0899670207
  0
LINE
  5
868
100
AcDbEntity
  8
レイヤ15
  6
CONTINUOUS
 62
     0
100
AcDbLine
 10
1294.882901461
 20
161.1709801589
 11
1294.882901461
 21
154.6623188225
  0
LINE
  5
869
100
AcDbEntity
  8
レイヤ15
  6
CONTINUOUS
 62
     0
100
AcDbLine
 10
1295.12520726
 20
161.672245033
 11
1300.714093418
 21
166.1011630393
  0
LINE
  5
86A
100
AcDbEntity
  8
レイヤ15
  6
CONTINUOUS
 62
     0
100
AcDbLine
 10
1310.940280045
 20
163.5348790069
 11
1307.716500065
 21
166.1011630393
  0
LINE
  5
86B
100
AcDbEntity
  8
レイヤ15
  6
CONTINUOUS
 62
     0
100
AcDbLine
 10
1311.181535993
 20
163.0344802606
 11
1311.181535993
 21
157.3099270014
  0
LINE
  5
86C
100
AcDbEntity
  8
レイヤ15
  6
CONTINUOUS
 62
     0
100
AcDbLine
 10
1313.532469171
 20
167.6180414399
 11
1320.953346753
 21
167.6180414399
  0
LINE
  5
86D
100
AcDbEntity
  8
レイヤ15
  6
CONTINUOUS
 62
     0
100
AcDbLine
 10
1312.921455413
 20
168.4465451259
 11
1314.671978336
 21
174.108382862
  0
LINE
  5
86E
100
AcDbEntity
  8
レイヤ15
  6
CONTINUOUS
 62
     0
100
AcDbLine
 10
1320.953346753
 20
173.8471272369
 11
1320.953346753
 21
171.7295367488
  0
LINE
  5
86F
100
AcDbEntity
  8
レイヤ15
  6
CONTINUOUS
 62
     0
100
AcDbLine
 10
1327.955858385
 20
173.8471272369
 11
1327.955858385
 21
171.7295367488
  0
LINE
  5
870
100
AcDbEntity
  8
レイヤ15
  6
CONTINUOUS
 62
     0
100
AcDbLine
 10
1327.316288657
 20
174.4867100881
 11
1321.592916481
 21
174.4867100881
  0
LINE
  5
871
100
AcDbEntity
  8
レイヤ15
  6
CONTINUOUS
 62
     0
100
AcDbLine
 10
1335.017476675
 20
160.8071408879
 11
1331.188667091
 21
160.8071408879
  0
LINE
  5
872
100
AcDbEntity
  8
レイヤ15
  6
CONTINUOUS
 62
     0
100
AcDbLine
 10
1335.657046403
 20
161.446710616
 11
1335.657046403
 21
164.2790533456
  0
LINE
  5
873
100
AcDbEntity
  8
レイヤ15
  6
CONTINUOUS
 62
     0
100
AcDbLine
 10
1339.659921418
 20
159.4630549736
 11
1343.475502868
 21
159.4630549736
  0
LINE
  5
874
100
AcDbEntity
  8
レイヤ15
  6
CONTINUOUS
 62
     0
100
AcDbLine
 10
1339.02035169
 20
162.9349674313
 11
1339.02035169
 21
160.1026247017
  0
LINE
  5
875
100
AcDbEntity
  8
レイヤ15
  6
CONTINUOUS
 62
     0
100
AcDbLine
 10
1354.679416494
 20
163.5745502825
 11
1339.659921418
 21
163.5745502825
  0
LINE
  5
876
100
AcDbEntity
  8
レイヤ15
  6
CONTINUOUS
 62
     0
100
AcDbLine
 10
1354.679416494
 20
159.4630549736
 11
1350.863835044
 21
159.4630549736
  0
LINE
  5
877
100
AcDbEntity
  8
レイヤ15
  6
CONTINUOUS
 62
     0
100
AcDbLine
 10
1355.318986223
 20
160.1026247017
 11
1355.318986223
 21
162.9349674313
  0
LINE
  5
878
100
AcDbEntity
  8
レイヤ15
  6
CONTINUOUS
 62
     0
100
AcDbLine
 10
1339.659921418
 20
167.6180414399
 11
1355.944172981
 21
167.6180414399
  0
LINE
  5
879
100
AcDbEntity
  8
レイヤ15
  6
CONTINUOUS
 62
     0
100
AcDbLine
 10
1339.02035169
 20
171.0899670207
 11
1339.02035169
 21
168.2576242911
  0
LINE
  5
87A
100
AcDbEntity
  8
レイヤ15
  6
CONTINUOUS
 62
     0
100
AcDbLine
 10
1339.659921418
 20
171.7295367488
 11
1354.314802958
 21
171.7295367488
  0
LINE
  5
87B
100
AcDbEntity
  8
レイヤ15
  6
CONTINUOUS
 62
     0
100
AcDbLine
 10
1372.704742314
 20
168.2576242911
 11
1372.704742314
 21
171.0899670207
  0
LINE
  5
87C
100
AcDbEntity
  8
レイヤ15
  6
CONTINUOUS
 62
     0
100
AcDbLine
 10
1372.065172586
 20
167.6180414399
 11
1364.603560753
 21
167.6180414399
  0
LINE
  5
87D
100
AcDbEntity
  8
レイヤ15
  6
CONTINUOUS
 62
     0
100
AcDbLine
 10
1376.883782464
 20
156.0541729945
 11
1384.908534812
 21
156.0541729945
  0
LINE
  5
87E
100
AcDbEntity
  8
レイヤ15
  6
CONTINUOUS
 62
     0
100
AcDbLine
 10
1376.244212736
 20
159.5260854522
 11
1376.244212736
 21
156.6937427226
  0
LINE
  5
87F
100
AcDbEntity
  8
レイヤ15
  6
CONTINUOUS
 62
     0
100
AcDbLine
 10
1381.502290586
 20
165.8761010557
 11
1381.502290586
 21
163.0437583261
  0
LINE
  5
880
100
AcDbEntity
  8
レイヤ15
  6
CONTINUOUS
 62
     0
100
AcDbLine
 10
1404.348850913
 20
166.5156707837
 11
1382.141860314
 21
166.5156707837
  0
LINE
  5
881
100
AcDbEntity
  8
レイヤ15
  6
CONTINUOUS
 62
     0
100
AcDbLine
 10
1404.988420641
 20
163.0437583261
 11
1404.988420641
 21
165.8761010557
  0
LINE
  5
882
100
AcDbEntity
  8
レイヤ15
  6
CONTINUOUS
 62
     0
100
AcDbLine
 10
1404.348850913
 20
162.4041754748
 11
1382.141860314
 21
162.4041754748
  0
LINE
  5
883
100
AcDbEntity
  8
レイヤ15
  6
CONTINUOUS
 62
     0
100
AcDbLine
 10
1409.606928763
 20
160.1656683034
 11
1376.883782464
 21
160.1656683034
  0
LINE
  5
884
100
AcDbEntity
  8
レイヤ15
  6
CONTINUOUS
 62
     0
100
AcDbLine
 10
1409.606928763
 20
156.0541729945
 11
1392.296971973
 21
156.0541729945
  0
LINE
  5
885
100
AcDbEntity
  8
レイヤ15
  6
CONTINUOUS
 62
     0
100
AcDbLine
 10
1410.246498491
 20
156.6937427226
 11
1410.246498491
 21
159.5260854522
  0
LINE
  5
886
100
AcDbEntity
  8
レイヤ15
  6
CONTINUOUS
 62
     0
100
AcDbLine
 10
1415.369985337
 20
168.2576242911
 11
1415.369985337
 21
171.0899670207
  0
LINE
  5
887
100
AcDbEntity
  8
レイヤ15
  6
CONTINUOUS
 62
     0
100
AcDbLine
 10
1376.244212736
 20
169.6325233563
 11
1393.245303121
 21
174.4867100881
  0
LINE
  5
888
100
AcDbEntity
  8
レイヤ15
  6
CONTINUOUS
 62
     0
100
AcDbLine
 10
1376.244212736
 20
169.6325233563
 11
1376.244212736
 21
165.5210280474
  0
LINE
  5
889
100
AcDbEntity
  8
レイヤ15
  6
CONTINUOUS
 62
     0
100
AcDbLine
 10
1409.088301964
 20
154.098574642
 11
1401.995818031
 21
154.098574642
  0
LINE
  5
88A
100
AcDbEntity
  8
レイヤ15
  6
CONTINUOUS
 62
     0
100
AcDbLine
 10
1215.293005159
 20
173.8471272369
 11
1215.293005159
 21
169.4090230272
  0
LINE
  5
88B
100
AcDbEntity
  8
レイヤ15
  6
CONTINUOUS
 62
     0
100
AcDbLine
 10
1107.488761165
 20
149.9020282127
 11
1107.488761165
 21
159.4427797104
  0
LINE
  5
88C
100
AcDbEntity
  8
レイヤ15
  6
CONTINUOUS
 62
     0
100
AcDbLine
 10
1106.742631478
 20
160.8071015185
 11
1113.09885433
 21
167.1633112477
  0
LINE
  5
88D
100
AcDbEntity
  8
レイヤ15
  6
CONTINUOUS
 62
     0
100
AcDbLine
 10
1107.488761165
 20
159.4427797104
 11
1114.159099682
 21
166.1130263649
  0
LINE
  5
88E
100
AcDbEntity
  8
レイヤ15
  6
CONTINUOUS
 62
     0
100
AcDbLine
 10
1106.742631478
 20
173.7536248093
 11
1106.742631478
 21
174.6279020346
  0
LINE
  5
88F
100
AcDbEntity
  8
レイヤ15
  6
CONTINUOUS
 62
     0
100
AcDbLine
 10
1120.809386029
 20
159.686844012
 11
1121.683702624
 21
159.686844012
  0
LINE
  5
890
100
AcDbEntity
  8
レイヤ15
  6
CONTINUOUS
 62
     0
100
AcDbLine
 10
1092.675876927
 20
159.686844012
 11
1091.801560332
 21
159.686844012
  0
LINE
  5
891
100
AcDbEntity
  8
レイヤ15
  6
CONTINUOUS
 62
     0
100
AcDbLine
 10
1354.314802958
 20
171.7295367488
 11
1353.199440385
 21
174.5493337491
  0
LINE
  5
892
100
AcDbEntity
  8
レイヤ15
  6
CONTINUOUS
 62
     0
100
AcDbLine
 10
1107.009608795
 20
149.9323820534
 11
1107.009608795
 21
159.6803349307
  0
LINE
  5
893
100
AcDbEntity
  8
レイヤ15
  6
CONTINUOUS
 62
     0
100
AcDbLine
 10
1106.513658796
 20
149.9300723794
 11
1106.513658796
 21
159.6423565412
  0
LINE
  5
894
100
AcDbEntity
  8
レイヤ15
  6
CONTINUOUS
 62
     0
100
AcDbLine
 10
1106.742631478
 20
160.8071015185
 11
1100.386408625
 21
167.1633112477
  0
LINE
  5
895
100
AcDbEntity
  8
レイヤ15
  6
CONTINUOUS
 62
     0
100
AcDbLine
 10
1105.99650179
 20
159.4427797104
 11
1099.326268259
 21
166.1130263649
  0
LINE
  5
896
100
AcDbEntity
  8
レイヤ15
  6
CONTINUOUS
 62
     0
100
AcDbLine
 10
1106.742631478
 20
160.1746576596
 11
1100.070193258
 21
166.8470958798
  0
LINE
  5
897
100
AcDbEntity
  8
レイヤ15
  6
CONTINUOUS
 62
     0
100
AcDbLine
 10
1106.742631478
 20
159.4133707363
 11
1099.684582684
 21
166.4714064064
  0
LINE
  5
898
100
AcDbEntity
  8
レイヤ15
  6
CONTINUOUS
 62
     0
100
AcDbLine
 10
1415.474655564
 20
161.0339482503
 11
1421.201177295
 21
167.6180414399
  0
LINE
  5
899
100
AcDbEntity
  8
レイヤ15
  6
CONTINUOUS
 62
     0
100
AcDbLine
 10
1440.390473826
 20
162.4041754748
 11
1440.390473826
 21
151.4327777804
  0
LINE
  5
89A
100
AcDbEntity
  8
レイヤ15
  6
CONTINUOUS
 62
     0
100
AcDbLine
 10
1447.778910987
 20
162.4041754748
 11
1447.778910987
 21
151.4327777804
  0
LINE
  5
89B
100
AcDbEntity
  8
レイヤ15
  6
CONTINUOUS
 62
     0
100
AcDbLine
 10
1416.118109744
 20
152.533770506
 11
1421.201177295
 21
158.3780724883
  0
LINE
  5
89C
100
AcDbEntity
  8
レイヤ15
  6
CONTINUOUS
 62
     0
100
AcDbLine
 10
1433.796039596
 20
151.4396149403
 11
1440.390473826
 21
151.4396149403
  0
LINE
  5
89D
100
AcDbEntity
  8
レイヤ15
  6
CONTINUOUS
 62
     0
100
AcDbLine
 10
1433.156469868
 20
150.8000320891
 11
1433.156469868
 21
147.9677024827
  0
LINE
  5
89E
100
AcDbEntity
  8
レイヤ15
  6
CONTINUOUS
 62
     0
100
AcDbLine
 10
1454.373345217
 20
151.4396149403
 11
1447.778910987
 21
151.4396149403
  0
LINE
  5
89F
100
AcDbEntity
  8
レイヤ15
  6
CONTINUOUS
 62
     0
100
AcDbLine
 10
1454.373345217
 20
147.3281196314
 11
1433.796039596
 21
147.3281196314
  0
LINE
  5
8A0
100
AcDbEntity
  8
レイヤ15
  6
CONTINUOUS
 62
     0
100
AcDbLine
 10
1455.012914945
 20
147.9677024827
 11
1455.012914945
 21
150.8000320891
  0
LINE
  5
8A1
100
AcDbEntity
  8
レイヤ15
  6
CONTINUOUS
 62
     0
100
AcDbLine
 10
1428.203583942
 20
147.9677024827
 11
1428.203583942
 21
159.2398433538
  0
LINE
  5
8A2
100
AcDbEntity
  8
レイヤ15
  6
CONTINUOUS
 62
     0
100
AcDbLine
 10
1421.840747023
 20
147.3281196314
 11
1427.564014214
 21
147.3281196314
  0
LINE
  5
8A3
100
AcDbEntity
  8
レイヤ15
  6
CONTINUOUS
 62
     0
100
AcDbLine
 10
1421.201177295
 20
147.9677024827
 11
1421.201177295
 21
158.3780724883
  0
LINE
  5
8A4
100
AcDbEntity
  8
レイヤ15
  6
CONTINUOUS
 62
     0
100
AcDbLine
 10
1372.669257322
 20
147.2298797475
 11
1364.603560753
 21
167.6180414399
  0
LINE
  5
8A5
100
AcDbEntity
  8
レイヤ15
  6
CONTINUOUS
 62
     0
100
AcDbLine
 10
1388.445800546
 20
151.4327777804
 11
1401.995818031
 21
151.4327777804
  0
LINE
  5
8A6
100
AcDbEntity
  8
レイヤ15
  6
CONTINUOUS
 62
     0
100
AcDbLine
 10
1401.995818031
 20
151.4327777804
 11
1401.995818031
 21
154.0939159246
  0
LINE
  5
8A7
100
AcDbEntity
  8
レイヤ15
  6
CONTINUOUS
 62
     0
100
AcDbLine
 10
1318.121371472
 20
147.3281196314
 11
1320.953346753
 21
155.2574010797
  0
LINE
  5
8A8
100
AcDbEntity
  8
レイヤ15
  6
CONTINUOUS
 62
     0
100
AcDbLine
 10
1330.787833667
 20
147.3281196314
 11
1327.955858385
 21
155.2574010797
  0
LINE
  5
8A9
100
AcDbEntity
  8
レイヤ15
  6
CONTINUOUS
 62
     0
100
AcDbLine
 10
1343.475502868
 20
159.4630549736
 11
1343.475502868
 21
151.4327777804
  0
LINE
  5
8AA
100
AcDbEntity
  8
レイヤ15
  6
CONTINUOUS
 62
     0
100
AcDbLine
 10
1350.863835044
 20
159.4630549736
 11
1350.863835044
 21
151.4327777804
  0
LINE
  5
8AB
100
AcDbEntity
  8
レイヤ15
  6
CONTINUOUS
 62
     0
100
AcDbLine
 10
1392.296971973
 20
156.0541729945
 11
1388.445800546
 21
151.4327777804
  0
LINE
  5
8AC
100
AcDbEntity
  8
レイヤ15
  6
CONTINUOUS
 62
     0
100
AcDbLine
 10
1192.907224795
 20
149.6791971641
 11
1183.57089257
 21
149.6791971641
  0
LINE
  5
8AD
100
AcDbEntity
  8
レイヤ15
  6
CONTINUOUS
 62
     0
100
AcDbLine
 10
1192.907224795
 20
147.9677024827
 11
1192.907224795
 21
149.6791971641
  0
LINE
  5
8AE
100
AcDbEntity
  8
レイヤ15
  6
CONTINUOUS
 62
     0
100
AcDbLine
 10
1199.656092228
 20
147.3281196314
 11
1193.546899508
 21
147.3281196314
  0
LINE
  5
8AF
100
AcDbEntity
  8
レイヤ15
  6
CONTINUOUS
 62
     0
100
AcDbLine
 10
1200.295661956
 20
149.6791971641
 11
1200.295661956
 21
147.9677024827
  0
LINE
  5
8B0
100
AcDbEntity
  8
レイヤ15
  6
CONTINUOUS
 62
     0
100
AcDbLine
 10
1209.632099166
 20
149.6791971641
 11
1200.295661956
 21
149.6791971641
  0
LINE
  5
8B1
100
AcDbEntity
  8
レイヤ15
  6
CONTINUOUS
 62
     0
100
AcDbLine
 10
1210.271668894
 20
154.3810110276
 11
1210.271668894
 21
150.3187668922
  0
LINE
  5
8B2
100
AcDbEntity
  8
レイヤ15
  6
CONTINUOUS
 62
     0
100
AcDbLine
 10
1227.588134766
 20
153.0453895436
 11
1227.588134766
 21
168.7694401759
  0
LINE
  5
8B3
100
AcDbEntity
  8
レイヤ15
  6
CONTINUOUS
 62
     0
100
AcDbLine
 10
1215.079780255
 20
153.0453895436
 11
1227.588134766
 21
153.0453895436
  0
LINE
  5
8B4
100
AcDbEntity
  8
レイヤ15
  6
CONTINUOUS
 62
     0
100
AcDbLine
 10
1214.440210527
 20
147.9677024827
 11
1214.440210527
 21
152.4058066924
  0
LINE
  5
8B5
100
AcDbEntity
  8
レイヤ15
  6
CONTINUOUS
 62
     0
100
AcDbLine
 10
1247.484926437
 20
147.3281196314
 11
1215.079780255
 21
147.3281196314
  0
LINE
  5
8B6
100
AcDbEntity
  8
レイヤ15
  6
CONTINUOUS
 62
     0
100
AcDbLine
 10
1248.124496165
 20
152.4058066924
 11
1248.124496165
 21
147.9677024827
  0
LINE
  5
8B7
100
AcDbEntity
  8
レイヤ15
  6
CONTINUOUS
 62
     0
100
AcDbLine
 10
1234.976571926
 20
153.0453895436
 11
1247.484926437
 21
153.0453895436
  0
LINE
  5
8B8
100
AcDbEntity
  8
レイヤ15
  6
CONTINUOUS
 62
     0
100
AcDbLine
 10
1234.976571926
 20
168.7694401759
 11
1234.976571926
 21
153.0453895436
  0
LINE
  5
8B9
100
AcDbEntity
  8
レイヤ15
  6
CONTINUOUS
 62
     0
100
AcDbLine
 10
1252.497968873
 20
153.0453895436
 11
1261.103919188
 21
153.0453895436
  0
LINE
  5
8BA
100
AcDbEntity
  8
レイヤ15
  6
CONTINUOUS
 62
     0
100
AcDbLine
 10
1274.500343352
 20
147.9677024827
 11
1274.500343352
 21
151.4327777804
  0
LINE
  5
8BB
100
AcDbEntity
  8
レイヤ15
  6
CONTINUOUS
 62
     0
100
AcDbLine
 10
1267.751580905
 20
147.3281196314
 11
1273.860773624
 21
147.3281196314
  0
LINE
  5
8BC
100
AcDbEntity
  8
レイヤ15
  6
CONTINUOUS
 62
     0
100
AcDbLine
 10
1267.112011177
 20
147.9677024827
 11
1267.112011177
 21
151.4327777804
  0
LINE
  5
8BD
100
AcDbEntity
  8
レイヤ15
  6
CONTINUOUS
 62
     0
100
AcDbLine
 10
1261.627375304
 20
147.4501780285
 11
1267.112011177
 21
151.4327777804
  0
LINE
  5
8BE
100
AcDbEntity
  8
レイヤ15
  6
CONTINUOUS
 62
     0
100
AcDbLine
 10
1279.984979224
 20
147.4501780285
 11
1274.500343352
 21
151.4327777804
  0
LINE
  5
8BF
100
AcDbEntity
  8
レイヤ15
  6
CONTINUOUS
 62
     0
100
AcDbLine
 10
1289.114385656
 20
153.0453895436
 11
1280.508435341
 21
153.0453895436
  0
LINE
  5
8C0
100
AcDbEntity
  8
レイヤ15
  6
CONTINUOUS
 62
     0
100
AcDbLine
 10
1253.966081656
 20
148.1051018395
 11
1261.103919188
 21
153.0453895436
  0
LINE
  5
8C1
100
AcDbEntity
  8
レイヤ15
  6
CONTINUOUS
 62
     0
100
AcDbLine
 10
1254.208807397
 20
147.3281196314
 11
1261.251633338
 21
147.3281196314
  0
LINE
  5
8C2
100
AcDbEntity
  8
レイヤ15
  6
CONTINUOUS
 62
     0
100
AcDbLine
 10
1287.646272873
 20
148.1051018395
 11
1280.508435341
 21
153.0453895436
  0
LINE
  5
8C3
100
AcDbEntity
  8
レイヤ15
  6
CONTINUOUS
 62
     0
100
AcDbLine
 10
1287.403547132
 20
147.3281196314
 11
1280.36072119
 21
147.3281196314
  0
LINE
  5
8C4
100
AcDbEntity
  8
レイヤ15
  6
CONTINUOUS
 62
     0
100
AcDbLine
 10
1378.219613918
 20
148.0274652974
 11
1384.908534812
 21
156.0541729945
  0
LINE
  5
8C5
100
AcDbEntity
  8
レイヤ15
  6
CONTINUOUS
 62
     0
100
AcDbLine
 10
1313.346750385
 20
147.3281196314
 11
1318.121371472
 21
147.3281196314
  0
LINE
  5
8C6
100
AcDbEntity
  8
レイヤ15
  6
CONTINUOUS
 62
     0
100
AcDbLine
 10
1312.945287049
 20
147.897913583
 11
1317.555921282
 21
160.8071408879
  0
LINE
  5
8C7
100
AcDbEntity
  8
レイヤ15
  6
CONTINUOUS
 62
     0
100
AcDbLine
 10
1335.562454754
 20
147.3281196314
 11
1330.787833667
 21
147.3281196314
  0
LINE
  5
8C8
100
AcDbEntity
  8
レイヤ15
  6
CONTINUOUS
 62
     0
100
AcDbLine
 10
1335.963918089
 20
147.897913583
 11
1331.353283856
 21
160.8071408879
  0
LINE
  5
8C9
100
AcDbEntity
  8
レイヤ15
  6
CONTINUOUS
 62
     0
100
AcDbLine
 10
1415.369985337
 20
160.7541233711
 11
1415.369985337
 21
152.8135953852
  0
LINE
  5
8CA
100
AcDbEntity
  8
レイヤ15
  6
CONTINUOUS
 62
     0
100
AcDbLine
 10
1327.955858385
 20
147.9677024827
 11
1327.955858385
 21
155.2574010797
  0
LINE
  5
8CB
100
AcDbEntity
  8
レイヤ15
  6
CONTINUOUS
 62
     0
100
AcDbLine
 10
1321.592916481
 20
147.3281196314
 11
1327.316288657
 21
147.3281196314
  0
LINE
  5
8CC
100
AcDbEntity
  8
レイヤ15
  6
CONTINUOUS
 62
     0
100
AcDbLine
 10
1320.953346753
 20
147.9677024827
 11
1320.953346753
 21
155.2574010797
  0
LINE
  5
8CD
100
AcDbEntity
  8
レイヤ15
  6
CONTINUOUS
 62
     0
100
AcDbLine
 10
1339.659921418
 20
151.4396149403
 11
1343.475502868
 21
151.4396149403
  0
LINE
  5
8CE
100
AcDbEntity
  8
レイヤ15
  6
CONTINUOUS
 62
     0
100
AcDbLine
 10
1339.02035169
 20
150.8000320891
 11
1339.02035169
 21
147.9677024827
  0
LINE
  5
8CF
100
AcDbEntity
  8
レイヤ15
  6
CONTINUOUS
 62
     0
100
AcDbLine
 10
1354.679416494
 20
151.4396149403
 11
1350.863835044
 21
151.4396149403
  0
LINE
  5
8D0
100
AcDbEntity
  8
レイヤ15
  6
CONTINUOUS
 62
     0
100
AcDbLine
 10
1354.679416494
 20
147.3281196314
 11
1339.659921418
 21
147.3281196314
  0
LINE
  5
8D1
100
AcDbEntity
  8
レイヤ15
  6
CONTINUOUS
 62
     0
100
AcDbLine
 10
1355.318986223
 20
147.9677024827
 11
1355.318986223
 21
150.8000320891
  0
LINE
  5
8D2
100
AcDbEntity
  8
レイヤ15
  6
CONTINUOUS
 62
     0
100
AcDbLine
 10
1300.714093418
 20
147.9677024827
 11
1300.714093418
 21
159.2735698435
  0
LINE
  5
8D3
100
AcDbEntity
  8
レイヤ15
  6
CONTINUOUS
 62
     0
100
AcDbLine
 10
1307.076930337
 20
147.3281196314
 11
1301.353663146
 21
147.3281196314
  0
LINE
  5
8D4
100
AcDbEntity
  8
レイヤ15
  6
CONTINUOUS
 62
     0
100
AcDbLine
 10
1307.716500065
 20
147.9677024827
 11
1307.716500065
 21
160.0682551778
  0
LINE
  5
8D5
100
AcDbEntity
  8
レイヤ15
  6
CONTINUOUS
 62
     0
100
AcDbLine
 10
1409.088301964
 20
147.3281196314
 11
1378.547167686
 21
147.3281196314
  0
LINE
  5
8D6
100
AcDbEntity
  8
レイヤ15
  6
CONTINUOUS
 62
     0
100
AcDbLine
 10
1409.727976678
 20
153.4589917908
 11
1409.727976678
 21
147.9677024827
  0
LINE
  5
8D7
100
AcDbEntity
  8
レイヤ15
  6
CONTINUOUS
 62
     0
100
AcDbLine
 10
1363.85690614
 20
147.6510934204
 11
1355.944172981
 21
167.6180414399
  0
LINE
  5
8D8
100
AcDbEntity
  8
レイヤ15
  6
CONTINUOUS
 62
     0
100
AcDbLine
 10
1364.458051291
 20
147.2298797475
 11
1372.625688472
 21
147.2298797475
  0
ARC
  5
8D9
100
AcDbEntity
  8
レイヤ15
  6
CONTINUOUS
 62
     0
100
AcDbCircle
 10
1431.877645367
 20
171.3031525557
 40
0.4263839880472
100
AcDbArc
 50
-41.01509094226
 51
90
  0
ARC
  5
8DA
100
AcDbEntity
  8
レイヤ15
  6
CONTINUOUS
 62
     0
100
AcDbCircle
 10
1432.438056268
 20
155.6541007127
 40
0.4263839880472
100
AcDbArc
 50
-134.6650390626
 51
0
  0
ARC
  5
8DB
100
AcDbEntity
  8
レイヤ15
  6
CONTINUOUS
 62
     0
100
AcDbCircle
 10
1432.438056268
 20
161.2741412233
 40
0.4263839880472
100
AcDbArc
 50
0
 51
45.06604003914
  0
ARC
  5
8DC
100
AcDbEntity
  8
レイヤ15
  6
CONTINUOUS
 62
     0
100
AcDbCircle
 10
1433.796039596
 20
147.9677024827
 40
0.6395759820708
100
AcDbArc
 50
180
 51
270
  0
ARC
  5
8DD
100
AcDbEntity
  8
レイヤ15
  6
CONTINUOUS
 62
     0
100
AcDbCircle
 10
1433.796039596
 20
150.8000320891
 40
0.6395759820708
100
AcDbArc
 50
90
 51
180
  0
ARC
  5
8DE
100
AcDbEntity
  8
レイヤ15
  6
CONTINUOUS
 62
     0
100
AcDbCircle
 10
1434.563901216
 20
163.0437583261
 40
0.6395759820708
100
AcDbArc
 50
180
 51
270
  0
ARC
  5
8DF
100
AcDbEntity
  8
レイヤ15
  6
CONTINUOUS
 62
     0
100
AcDbCircle
 10
1434.563901216
 20
165.8761010557
 40
0.6395759820708
100
AcDbArc
 50
90
 51
180
  0
ARC
  5
8E0
100
AcDbEntity
  8
レイヤ15
  6
CONTINUOUS
 62
     0
100
AcDbCircle
 10
1441.030043554
 20
173.8471272369
 40
0.6395759820708
100
AcDbArc
 50
90
 51
180
  0
ARC
  5
8E1
100
AcDbEntity
  8
レイヤ15
  6
CONTINUOUS
 62
     0
100
AcDbCircle
 10
1447.139341259
 20
173.8471272369
 40
0.6395759820708
100
AcDbArc
 50
0
 51
90
  0
ARC
  5
8E2
100
AcDbEntity
  8
レイヤ15
  6
CONTINUOUS
 62
     0
100
AcDbCircle
 10
1453.605483596
 20
165.8761010557
 40
0.6395759820708
100
AcDbArc
 50
0
 51
90
  0
ARC
  5
8E3
100
AcDbEntity
  8
レイヤ15
  6
CONTINUOUS
 62
     0
100
AcDbCircle
 10
1453.605483596
 20
163.0437583261
 40
0.6395759820708
100
AcDbArc
 50
-90
 51
0
  0
ARC
  5
8E4
100
AcDbEntity
  8
レイヤ15
  6
CONTINUOUS
 62
     0
100
AcDbCircle
 10
1454.373345217
 20
150.8000320891
 40
0.6395759820708
100
AcDbArc
 50
0
 51
90
  0
ARC
  5
8E5
100
AcDbEntity
  8
レイヤ15
  6
CONTINUOUS
 62
     0
100
AcDbCircle
 10
1454.373345217
 20
147.9677024827
 40
0.6395759820708
100
AcDbArc
 50
-90
 51
0
  0
ARC
  5
8E6
100
AcDbEntity
  8
レイヤ15
  6
CONTINUOUS
 62
     0
100
AcDbCircle
 10
1427.564014214
 20
147.9677024827
 40
0.6395759820708
100
AcDbArc
 50
-90
 51
0
  0
ARC
  5
8E7
100
AcDbEntity
  8
レイヤ15
  6
CONTINUOUS
 62
     0
100
AcDbCircle
 10
1421.840747023
 20
147.9677024827
 40
0.6395759820708
100
AcDbArc
 50
180
 51
270
  0
ARC
  5
8E8
100
AcDbEntity
  8
レイヤ15
  6
CONTINUOUS
 62
     0
100
AcDbCircle
 10
1421.840747023
 20
173.8471272369
 40
0.6395759820708
100
AcDbArc
 50
90
 51
180
  0
ARC
  5
8E9
100
AcDbEntity
  8
レイヤ15
  6
CONTINUOUS
 62
     0
100
AcDbCircle
 10
1427.564014214
 20
173.8471272369
 40
0.6395759820708
100
AcDbArc
 50
0
 51
90
  0
ARC
  5
8EA
100
AcDbEntity
  8
レイヤ15
  6
CONTINUOUS
 62
     0
100
AcDbCircle
 10
1106.742631478
 20
159.686844012
 40
9.813215111213
100
AcDbArc
 50
-74.24275207519
 51
29.52146911621
  0
ARC
  5
8EB
100
AcDbEntity
  8
レイヤ15
  6
CONTINUOUS
 62
     0
100
AcDbCircle
 10
1106.742631478
 20
159.686844012
 40
9.813215111213
100
AcDbArc
 50
61.03636169433
 51
118.9636230469
  0
CIRCLE
  5
8EC
100
AcDbEntity
  8
レイヤ15
  6
CONTINUOUS
 62
     0
100
AcDbCircle
 10
1106.742631478
 20
159.686844012
 40
14.06678407809
  0
ARC
  5
8ED
100
AcDbEntity
  8
レイヤ15
  6
CONTINUOUS
 62
     0
100
AcDbCircle
 10
1107.719938536
 20
144.679934034
 40
0.9795404539145
100
AcDbArc
 50
86.80894470217
 51
176.1456298828
  0
ARC
  5
8EE
100
AcDbEntity
  8
レイヤ15
  6
CONTINUOUS
 62
     0
100
AcDbCircle
 10
1106.742631478
 20
159.686844012
 40
9.813215111213
100
AcDbArc
 50
-94.36083984374
 51
-85.63917541504
  0
ARC
  5
8EF
100
AcDbEntity
  8
レイヤ15
  6
CONTINUOUS
 62
     0
100
AcDbCircle
 10
1106.742631478
 20
159.686844012
 40
9.813215111213
100
AcDbArc
 50
40.90832519531
 51
49.63009643555
  0
ARC
  5
8F0
100
AcDbEntity
  8
レイヤ15
  6
CONTINUOUS
 62
     0
100
AcDbCircle
 10
1106.742631478
 20
159.686844012
 40
9.813215111213
100
AcDbArc
 50
130.3698883057
 51
139.0916595459
  0
ARC
  5
8F1
100
AcDbEntity
  8
レイヤ15
  6
CONTINUOUS
 62
     0
100
AcDbCircle
 10
1106.742631478
 20
159.686844012
 40
9.813215111213
100
AcDbArc
 50
150.478515625
 51
254.2427368164
  0
ARC
  5
8F2
100
AcDbEntity
  8
レイヤ15
  6
CONTINUOUS
 62
     0
100
AcDbCircle
 10
1106.742631478
 20
159.686844012
 40
9.338457355168
100
AcDbArc
 50
-73.41914367675
 51
28.71322631836
  0
ARC
  5
8F3
100
AcDbEntity
  8
レイヤ15
  6
CONTINUOUS
 62
     0
100
AcDbCircle
 10
1106.742631478
 20
159.686844012
 40
9.374474654327
100
AcDbArc
 50
61.80863952636
 51
118.1913452148
  0
ARC
  5
8F4
100
AcDbEntity
  8
レイヤ15
  6
CONTINUOUS
 62
     0
100
AcDbCircle
 10
1106.742631478
 20
159.686844012
 40
9.338457355168
100
AcDbArc
 50
151.2867584228
 51
253.419128418
  0
CIRCLE
  5
8F5
100
AcDbEntity
  8
レイヤ15
  6
CONTINUOUS
 62
     0
100
AcDbCircle
 10
1106.742631478
 20
159.686844012
 40
12.53340824046
  0
CIRCLE
  5
8F6
100
AcDbEntity
  8
レイヤ15
  6
CONTINUOUS
 62
     0
100
AcDbCircle
 10
1106.742631478
 20
159.686844012
 40
13.62120318045
  0
CIRCLE
  5
8F7
100
AcDbEntity
  8
レイヤ15
  6
CONTINUOUS
 62
     0
100
AcDbCircle
 10
1106.742631478
 20
159.686844012
 40
13.07755135938
  0
ARC
  5
8F8
100
AcDbEntity
  8
レイヤ15
  6
CONTINUOUS
 62
     0
100
AcDbCircle
 10
1106.742631478
 20
159.686844012
 40
8.534063352121
100
AcDbArc
 50
153.345199585
 51
251.3209228516
  0
ARC
  5
8F9
100
AcDbEntity
  8
レイヤ15
  6
CONTINUOUS
 62
     0
100
AcDbCircle
 10
1106.742631478
 20
159.686844012
 40
8.534063352121
100
AcDbArc
 50
-71.32093811035
 51
26.65478515625
  0
ARC
  5
8FA
100
AcDbEntity
  8
レイヤ15
  6
CONTINUOUS
 62
     0
100
AcDbCircle
 10
1106.742631478
 20
159.686844012
 40
8.534063352121
100
AcDbArc
 50
63.52107238769
 51
116.4789123535
  0
ARC
  5
8FB
100
AcDbEntity
  8
レイヤ15
  6
CONTINUOUS
 62
     0
100
AcDbCircle
 10
1106.742631478
 20
159.686844012
 40
8.891266411336
100
AcDbArc
 50
-72.22804260254
 51
27.54460144043
  0
ARC
  5
8FC
100
AcDbEntity
  8
レイヤ15
  6
CONTINUOUS
 62
     0
100
AcDbCircle
 10
1106.742631478
 20
159.686844012
 40
8.913821821507
100
AcDbArc
 50
62.98234558105
 51
117.0176391602
  0
ARC
  5
8FD
100
AcDbEntity
  8
レイヤ15
  6
CONTINUOUS
 62
     0
100
AcDbCircle
 10
1106.742631478
 20
159.686844012
 40
8.924191568809
100
AcDbArc
 50
152.263092041
 51
252.4240417481
  0
ARC
  5
8FE
100
AcDbEntity
  8
レイヤ15
  6
CONTINUOUS
 62
     0
100
AcDbCircle
 10
1361.433428201
 20
173.8471272369
 40
0.6395759820708
100
AcDbArc
 50
19.96281433105
 51
90
  0
ARC
  5
8FF
100
AcDbEntity
  8
レイヤ15
  6
CONTINUOUS
 62
     0
100
AcDbCircle
 10
1183.57089257
 20
167.0277228852
 40
0.6395759820708
100
AcDbArc
 50
180
 51
270
  0
ARC
  5
900
100
AcDbEntity
  8
レイヤ15
  6
CONTINUOUS
 62
     0
100
AcDbCircle
 10
1183.57089257
 20
171.0899670207
 40
0.6395759820708
100
AcDbArc
 50
90
 51
180
  0
ARC
  5
901
100
AcDbEntity
  8
レイヤ15
  6
CONTINUOUS
 62
     0
100
AcDbCircle
 10
1132.406154205
 20
147.9677024827
 40
0.6395759820708
100
AcDbArc
 50
180
 51
270
  0
ARC
  5
902
100
AcDbEntity
  8
レイヤ15
  6
CONTINUOUS
 62
     0
100
AcDbCircle
 10
1132.406154205
 20
152.4058066924
 40
0.6395759820708
100
AcDbArc
 50
90
 51
180
  0
ARC
  5
903
100
AcDbEntity
  8
レイヤ15
  6
CONTINUOUS
 62
     0
100
AcDbCircle
 10
1164.811300388
 20
152.4058066924
 40
0.6395759820708
100
AcDbArc
 50
0
 51
90
  0
ARC
  5
904
100
AcDbEntity
  8
レイヤ15
  6
CONTINUOUS
 62
     0
100
AcDbCircle
 10
1164.811300388
 20
147.9677024827
 40
0.6395759820708
100
AcDbArc
 50
-90
 51
0
  0
ARC
  5
905
100
AcDbEntity
  8
レイヤ15
  6
CONTINUOUS
 62
     0
100
AcDbCircle
 10
1132.406154205
 20
169.4090230272
 40
0.6395759820708
100
AcDbArc
 50
180
 51
270
  0
ARC
  5
906
100
AcDbEntity
  8
レイヤ15
  6
CONTINUOUS
 62
     0
100
AcDbCircle
 10
1132.406154205
 20
173.8471272369
 40
0.6395759820708
100
AcDbArc
 50
90
 51
180
  0
ARC
  5
907
100
AcDbEntity
  8
レイヤ15
  6
CONTINUOUS
 62
     0
100
AcDbCircle
 10
1164.811300388
 20
173.8471272369
 40
0.6395759820708
100
AcDbArc
 50
0
 51
90
  0
ARC
  5
908
100
AcDbEntity
  8
レイヤ15
  6
CONTINUOUS
 62
     0
100
AcDbCircle
 10
1164.811300388
 20
169.4090230272
 40
0.6395759820708
100
AcDbArc
 50
-90
 51
0
  0
ARC
  5
909
100
AcDbEntity
  8
レイヤ15
  6
CONTINUOUS
 62
     0
100
AcDbCircle
 10
1335.017476675
 20
168.2576242911
 40
0.6395759820708
100
AcDbArc
 50
-90
 51
0
  0
ARC
  5
90A
100
AcDbEntity
  8
レイヤ15
  6
CONTINUOUS
 62
     0
100
AcDbCircle
 10
1335.017476675
 20
171.0899670207
 40
0.6395759820708
100
AcDbArc
 50
0
 51
90
  0
ARC
  5
90B
100
AcDbEntity
  8
レイヤ15
  6
CONTINUOUS
 62
     0
100
AcDbCircle
 10
1335.017476675
 20
164.2790533456
 40
0.6395759820708
100
AcDbArc
 50
0
 51
90
  0
ARC
  5
90C
100
AcDbEntity
  8
レイヤ15
  6
CONTINUOUS
 62
     0
100
AcDbCircle
 10
1313.891623479
 20
164.2790533456
 40
0.6395759820708
100
AcDbArc
 50
90
 51
180
  0
ARC
  5
90D
100
AcDbEntity
  8
レイヤ15
  6
CONTINUOUS
 62
     0
100
AcDbCircle
 10
1372.065172586
 20
171.0899670207
 40
0.6395759820708
100
AcDbArc
 50
0
 51
90
  0
ARC
  5
90E
100
AcDbEntity
  8
レイヤ15
  6
CONTINUOUS
 62
     0
100
AcDbCircle
 10
1162.122524895
 20
163.1264735262
 40
0.6395759820708
100
AcDbArc
 50
0
 51
90
  0
ARC
  5
90F
100
AcDbEntity
  8
レイヤ15
  6
CONTINUOUS
 62
     0
100
AcDbCircle
 10
1162.122524895
 20
158.6883561933
 40
0.6395759820708
100
AcDbArc
 50
-90
 51
0
  0
ARC
  5
910
100
AcDbEntity
  8
レイヤ15
  6
CONTINUOUS
 62
     0
100
AcDbCircle
 10
1135.727255449
 20
163.1264735262
 40
0.6395759820708
100
AcDbArc
 50
90
 51
180
  0
ARC
  5
911
100
AcDbEntity
  8
レイヤ15
  6
CONTINUOUS
 62
     0
100
AcDbCircle
 10
1135.727255449
 20
158.6883561933
 40
0.6395759820708
100
AcDbArc
 50
180
 51
270
  0
ARC
  5
912
100
AcDbEntity
  8
レイヤ15
  6
CONTINUOUS
 62
     0
100
AcDbCircle
 10
1170.204074226
 20
173.6736392238
 40
0.6395759820708
100
AcDbArc
 50
76.37803649893
 51
180
  0
ARC
  5
913
100
AcDbEntity
  8
レイヤ15
  6
CONTINUOUS
 62
     0
100
AcDbCircle
 10
1170.204074226
 20
169.2725422907
 40
0.6395759820708
100
AcDbArc
 50
180
 51
256.3780364992
  0
ARC
  5
914
100
AcDbEntity
  8
レイヤ15
  6
CONTINUOUS
 62
     0
100
AcDbCircle
 10
1180.302598872
 20
171.226434634
 40
0.6395759820708
100
AcDbArc
 50
0
 51
76.37803649893
  0
ARC
  5
915
100
AcDbEntity
  8
レイヤ15
  6
CONTINUOUS
 62
     0
100
AcDbCircle
 10
1180.302598872
 20
166.825350824
 40
0.6395759820708
100
AcDbArc
 50
-103.621963501
 51
0
  0
ARC
  5
916
100
AcDbEntity
  8
レイヤ15
  6
CONTINUOUS
 62
     0
100
AcDbCircle
 10
1170.204074226
 20
165.370518666
 40
0.6395759820708
100
AcDbArc
 50
76.37803649891
 51
180
  0
ARC
  5
917
100
AcDbEntity
  8
レイヤ15
  6
CONTINUOUS
 62
     0
100
AcDbCircle
 10
1170.204074226
 20
160.9694217328
 40
0.6395759820708
100
AcDbArc
 50
180
 51
256.3780364992
  0
ARC
  5
918
100
AcDbEntity
  8
レイヤ15
  6
CONTINUOUS
 62
     0
100
AcDbCircle
 10
1180.302598872
 20
158.5222302661
 40
0.6395759820708
100
AcDbArc
 50
-103.621963501
 51
0
  0
ARC
  5
919
100
AcDbEntity
  8
レイヤ15
  6
CONTINUOUS
 62
     0
100
AcDbCircle
 10
1180.302598872
 20
162.9233140761
 40
0.6395759820708
100
AcDbArc
 50
0
 51
76.37803649891
  0
ARC
  5
91A
100
AcDbEntity
  8
レイヤ15
  6
CONTINUOUS
 62
     0
100
AcDbCircle
 10
1179.627964093
 20
155.7414090146
 40
0.6395759820708
100
AcDbArc
 50
-25.46334838874
 51
90
  0
ARC
  5
91B
100
AcDbEntity
  8
レイヤ15
  6
CONTINUOUS
 62
     0
100
AcDbCircle
 10
1175.92618658
 20
147.9677024827
 40
0.6395759820708
100
AcDbArc
 50
-90
 51
-25.4633483886
  0
ARC
  5
91C
100
AcDbEntity
  8
レイヤ15
  6
CONTINUOUS
 62
     0
100
AcDbCircle
 10
1170.762385424
 20
147.9677024827
 40
0.6395759820708
100
AcDbArc
 50
154.5324707032
 51
270
  0
ARC
  5
91D
100
AcDbEntity
  8
レイヤ15
  6
CONTINUOUS
 62
     0
100
AcDbCircle
 10
1174.464792848
 20
155.7414090146
 40
0.6395759820708
100
AcDbArc
 50
90
 51
154.5324707032
  0
ARC
  5
91E
100
AcDbEntity
  8
レイヤ15
  6
CONTINUOUS
 62
     0
100
AcDbCircle
 10
1184.555968531
 20
162.7354824626
 40
0.6395759820708
100
AcDbArc
 50
90
 51
180
  0
ARC
  5
91F
100
AcDbEntity
  8
レイヤ15
  6
CONTINUOUS
 62
     0
100
AcDbCircle
 10
1184.555968531
 20
158.6732514503
 40
0.6395759820708
100
AcDbArc
 50
180
 51
270
  0
ARC
  5
920
100
AcDbEntity
  8
レイヤ15
  6
CONTINUOUS
 62
     0
100
AcDbCircle
 10
1183.57089257
 20
154.3810110276
 40
0.6395759820708
100
AcDbArc
 50
90
 51
180
  0
ARC
  5
921
100
AcDbEntity
  8
レイヤ15
  6
CONTINUOUS
 62
     0
100
AcDbCircle
 10
1183.57089257
 20
150.3187668922
 40
0.6395759820708
100
AcDbArc
 50
180
 51
270
  0
ARC
  5
922
100
AcDbEntity
  8
レイヤ15
  6
CONTINUOUS
 62
     0
100
AcDbCircle
 10
1193.546899508
 20
147.9677024827
 40
0.6395759820708
100
AcDbArc
 50
180
 51
270
  0
ARC
  5
923
100
AcDbEntity
  8
レイヤ15
  6
CONTINUOUS
 62
     0
100
AcDbCircle
 10
1199.656092228
 20
147.9677024827
 40
0.6395759820708
100
AcDbArc
 50
-90
 51
0
  0
ARC
  5
924
100
AcDbEntity
  8
レイヤ15
  6
CONTINUOUS
 62
     0
100
AcDbCircle
 10
1209.632099166
 20
150.3187668922
 40
0.6395759820708
100
AcDbArc
 50
-90
 51
0
  0
ARC
  5
925
100
AcDbEntity
  8
レイヤ15
  6
CONTINUOUS
 62
     0
100
AcDbCircle
 10
1209.632099166
 20
154.3810110276
 40
0.6395759820708
100
AcDbArc
 50
0
 51
90
  0
ARC
  5
926
100
AcDbEntity
  8
レイヤ15
  6
CONTINUOUS
 62
     0
100
AcDbCircle
 10
1208.646918219
 20
158.6732514503
 40
0.6395759820708
100
AcDbArc
 50
-90
 51
0
  0
ARC
  5
927
100
AcDbEntity
  8
レイヤ15
  6
CONTINUOUS
 62
     0
100
AcDbCircle
 10
1208.646918219
 20
162.7354824626
 40
0.6395759820708
100
AcDbArc
 50
0
 51
90
  0
ARC
  5
928
100
AcDbEntity
  8
レイヤ15
  6
CONTINUOUS
 62
     0
100
AcDbCircle
 10
1209.632099166
 20
167.0277228852
 40
0.6395759820708
100
AcDbArc
 50
-90
 51
0
  0
ARC
  5
929
100
AcDbEntity
  8
レイヤ15
  6
CONTINUOUS
 62
     0
100
AcDbCircle
 10
1209.632099166
 20
171.0899670207
 40
0.6395759820708
100
AcDbArc
 50
0
 51
90
  0
ARC
  5
92A
100
AcDbEntity
  8
レイヤ15
  6
CONTINUOUS
 62
     0
100
AcDbCircle
 10
1198.671016266
 20
172.3691196
 40
0.6395759820708
100
AcDbArc
 50
-90
 51
-45.39506530763
  0
ARC
  5
92B
100
AcDbEntity
  8
レイヤ15
  6
CONTINUOUS
 62
     0
100
AcDbCircle
 10
1194.531870485
 20
172.3691196
 40
0.6395759820708
100
AcDbArc
 50
-134.6049499512
 51
-90
  0
ARC
  5
92C
100
AcDbEntity
  8
レイヤ15
  6
CONTINUOUS
 62
     0
100
AcDbCircle
 10
1191.211714108
 20
173.8471272369
 40
0.6395759820708
100
AcDbArc
 50
45.39505004883
 51
90
  0
ARC
  5
92D
100
AcDbEntity
  8
レイヤ15
  6
CONTINUOUS
 62
     0
100
AcDbCircle
 10
1201.991172643
 20
173.8471272369
 40
0.6395759820708
100
AcDbArc
 50
90
 51
134.6049346924
  0
ARC
  5
92E
100
AcDbEntity
  8
レイヤ15
  6
CONTINUOUS
 62
     0
100
AcDbCircle
 10
1185.288975071
 20
174.060325895
 40
0.4263839880472
100
AcDbArc
 50
90
 51
225.3950500489
  0
ARC
  5
92F
100
AcDbEntity
  8
レイヤ15
  6
CONTINUOUS
 62
     0
100
AcDbCircle
 10
1207.91391168
 20
174.060325895
 40
0.4263839880472
100
AcDbArc
 50
-45.39506530769
 51
90
  0
ARC
  5
930
100
AcDbEntity
  8
レイヤ15
  6
CONTINUOUS
 62
     0
100
AcDbCircle
 10
1215.079780255
 20
152.4058066924
 40
0.6395759820708
100
AcDbArc
 50
90
 51
180
  0
ARC
  5
931
100
AcDbEntity
  8
レイヤ15
  6
CONTINUOUS
 62
     0
100
AcDbCircle
 10
1215.079780255
 20
147.9677024827
 40
0.6395759820708
100
AcDbArc
 50
180
 51
270
  0
ARC
  5
932
100
AcDbEntity
  8
レイヤ15
  6
CONTINUOUS
 62
     0
100
AcDbCircle
 10
1247.484926437
 20
147.9677024827
 40
0.6395759820708
100
AcDbArc
 50
-90
 51
0
  0
ARC
  5
933
100
AcDbEntity
  8
レイヤ15
  6
CONTINUOUS
 62
     0
100
AcDbCircle
 10
1247.484926437
 20
152.4058066924
 40
0.6395759820708
100
AcDbArc
 50
0
 51
90
  0
ARC
  5
934
100
AcDbEntity
  8
レイヤ15
  6
CONTINUOUS
 62
     0
100
AcDbCircle
 10
1246.63223679
 20
169.4090230272
 40
0.6395759820708
100
AcDbArc
 50
-90
 51
0
  0
ARC
  5
935
100
AcDbEntity
  8
レイヤ15
  6
CONTINUOUS
 62
     0
100
AcDbCircle
 10
1246.63223679
 20
173.8471272369
 40
0.6395759820708
100
AcDbArc
 50
0
 51
90
  0
ARC
  5
936
100
AcDbEntity
  8
レイヤ15
  6
CONTINUOUS
 62
     0
100
AcDbCircle
 10
1252.497968873
 20
171.0899670207
 40
0.6395759820708
100
AcDbArc
 50
90
 51
180
  0
ARC
  5
937
100
AcDbEntity
  8
レイヤ15
  6
CONTINUOUS
 62
     0
100
AcDbCircle
 10
1252.497968873
 20
168.2576242911
 40
0.6395759820708
100
AcDbArc
 50
180
 51
270
  0
ARC
  5
938
100
AcDbEntity
  8
レイヤ15
  6
CONTINUOUS
 62
     0
100
AcDbCircle
 10
1252.497968873
 20
165.993736952
 40
0.6395759820708
100
AcDbArc
 50
90
 51
180
  0
ARC
  5
939
100
AcDbEntity
  8
レイヤ15
  6
CONTINUOUS
 62
     0
100
AcDbCircle
 10
1252.497968873
 20
163.1613942224
 40
0.6395759820708
100
AcDbArc
 50
180
 51
270
  0
ARC
  5
93A
100
AcDbEntity
  8
レイヤ15
  6
CONTINUOUS
 62
     0
100
AcDbCircle
 10
1253.483044834
 20
161.378667095
 40
0.6395759820708
100
AcDbArc
 50
90
 51
180
  0
ARC
  5
93B
100
AcDbEntity
  8
レイヤ15
  6
CONTINUOUS
 62
     0
100
AcDbCircle
 10
1253.483044834
 20
158.423176747
 40
0.6395759820708
100
AcDbArc
 50
180
 51
270
  0
ARC
  5
93C
100
AcDbEntity
  8
レイヤ15
  6
CONTINUOUS
 62
     0
100
AcDbCircle
 10
1252.497968873
 20
156.5173020013
 40
0.6395759820708
100
AcDbArc
 50
90
 51
180
  0
ARC
  5
93D
100
AcDbEntity
  8
レイヤ15
  6
CONTINUOUS
 62
     0
100
AcDbCircle
 10
1252.497968873
 20
153.6849592717
 40
0.6395759820708
100
AcDbArc
 50
180
 51
270
  0
ARC
  5
93E
100
AcDbEntity
  8
レイヤ15
  6
CONTINUOUS
 62
     0
100
AcDbCircle
 10
1273.860773624
 20
147.9677024827
 40
0.6395759820708
100
AcDbArc
 50
-90
 51
0
  0
ARC
  5
93F
100
AcDbEntity
  8
レイヤ15
  6
CONTINUOUS
 62
     0
100
AcDbCircle
 10
1267.751580905
 20
147.9677024827
 40
0.6395759820708
100
AcDbArc
 50
180
 51
270
  0
ARC
  5
940
100
AcDbEntity
  8
レイヤ15
  6
CONTINUOUS
 62
     0
100
AcDbCircle
 10
1261.251633338
 20
147.9677024827
 40
0.6395759820708
100
AcDbArc
 50
-90
 51
-54.01489257822
  0
ARC
  5
941
100
AcDbEntity
  8
レイヤ15
  6
CONTINUOUS
 62
     0
100
AcDbCircle
 10
1280.36072119
 20
147.9677024827
 40
0.6395759820708
100
AcDbArc
 50
-125.9851226806
 51
-90
  0
ARC
  5
942
100
AcDbEntity
  8
レイヤ15
  6
CONTINUOUS
 62
     0
100
AcDbCircle
 10
1289.114385656
 20
153.6849592717
 40
0.6395759820708
100
AcDbArc
 50
-90
 51
0
  0
ARC
  5
943
100
AcDbEntity
  8
レイヤ15
  6
CONTINUOUS
 62
     0
100
AcDbCircle
 10
1289.114385656
 20
156.5173020013
 40
0.6395759820708
100
AcDbArc
 50
0
 51
90
  0
ARC
  5
944
100
AcDbEntity
  8
レイヤ15
  6
CONTINUOUS
 62
     0
100
AcDbCircle
 10
1288.129309695
 20
158.423176747
 40
0.6395759820708
100
AcDbArc
 50
-90
 51
0
  0
ARC
  5
945
100
AcDbEntity
  8
レイヤ15
  6
CONTINUOUS
 62
     0
100
AcDbCircle
 10
1288.129309695
 20
161.378667095
 40
0.6395759820708
100
AcDbArc
 50
0
 51
90
  0
ARC
  5
946
100
AcDbEntity
  8
レイヤ15
  6
CONTINUOUS
 62
     0
100
AcDbCircle
 10
1289.114385656
 20
163.1613942224
 40
0.6395759820708
100
AcDbArc
 50
-90
 51
0
  0
ARC
  5
947
100
AcDbEntity
  8
レイヤ15
  6
CONTINUOUS
 62
     0
100
AcDbCircle
 10
1289.114385656
 20
165.993736952
 40
0.6395759820708
100
AcDbArc
 50
0
 51
90
  0
ARC
  5
948
100
AcDbEntity
  8
レイヤ15
  6
CONTINUOUS
 62
     0
100
AcDbCircle
 10
1289.114385656
 20
168.2576242911
 40
0.6395759820708
100
AcDbArc
 50
-90
 51
0
  0
ARC
  5
949
100
AcDbEntity
  8
レイヤ15
  6
CONTINUOUS
 62
     0
100
AcDbCircle
 10
1289.114385656
 20
171.0899670207
 40
0.6395759820708
100
AcDbArc
 50
0
 51
90
  0
ARC
  5
94A
100
AcDbEntity
  8
レイヤ15
  6
CONTINUOUS
 62
     0
100
AcDbCircle
 10
1282.107569632
 20
173.8471272369
 40
0.6395759820708
100
AcDbArc
 50
90
 51
143.4417266846
  0
ARC
  5
94B
100
AcDbEntity
  8
レイヤ15
  6
CONTINUOUS
 62
     0
100
AcDbCircle
 10
1277.820289759
 20
173.8471272369
 40
0.6395759820708
100
AcDbArc
 50
15.00106811523
 51
90
  0
ARC
  5
94C
100
AcDbEntity
  8
レイヤ15
  6
CONTINUOUS
 62
     0
100
AcDbCircle
 10
1263.79206477
 20
173.8471272369
 40
0.6395759820708
100
AcDbArc
 50
90
 51
164.998916626
  0
ARC
  5
94D
100
AcDbEntity
  8
レイヤ15
  6
CONTINUOUS
 62
     0
100
AcDbCircle
 10
1259.504784897
 20
173.8471272369
 40
0.6395759820708
100
AcDbArc
 50
36.55825805668
 51
90
  0
ARC
  5
94E
100
AcDbEntity
  8
レイヤ15
  6
CONTINUOUS
 62
     0
100
AcDbCircle
 10
1255.433144588
 20
174.060325895
 40
0.4263839880472
100
AcDbArc
 50
90
 51
216.5582580565
  0
ARC
  5
94F
100
AcDbEntity
  8
レイヤ15
  6
CONTINUOUS
 62
     0
100
AcDbCircle
 10
1286.179209941
 20
174.060325895
 40
0.4263839880472
100
AcDbArc
 50
-36.55827331558
 51
90
  0
ARC
  5
950
100
AcDbEntity
  8
レイヤ15
  6
CONTINUOUS
 62
     0
100
AcDbCircle
 10
1273.626131743
 20
174.060325895
 40
0.4263839880472
100
AcDbArc
 50
90
 51
195.0010681153
  0
ARC
  5
951
100
AcDbEntity
  8
レイヤ15
  6
CONTINUOUS
 62
     0
100
AcDbCircle
 10
1267.986222786
 20
174.060325895
 40
0.4263839880472
100
AcDbArc
 50
-15.001083374
 51
90
  0
ARC
  5
952
100
AcDbEntity
  8
レイヤ15
  6
CONTINUOUS
 62
     0
100
AcDbCircle
 10
1254.208807397
 20
147.7545038245
 40
0.4263839880472
100
AcDbArc
 50
124.6880187988
 51
270
  0
ARC
  5
953
100
AcDbEntity
  8
レイヤ15
  6
CONTINUOUS
 62
     0
100
AcDbCircle
 10
1287.403547132
 20
147.7545038245
 40
0.4263839880472
100
AcDbArc
 50
-90
 51
55.31196594248
  0
ARC
  5
954
100
AcDbEntity
  8
レイヤ15
  6
CONTINUOUS
 62
     0
100
AcDbCircle
 10
1378.547167686
 20
147.7545038245
 40
0.4263839880472
100
AcDbArc
 50
140.1944274903
 51
270
  0
ARC
  5
955
100
AcDbEntity
  8
レイヤ15
  6
CONTINUOUS
 62
     0
100
AcDbCircle
 10
1313.346750385
 20
147.7545038245
 40
0.4263839880472
100
AcDbArc
 50
160.3453369141
 51
270
  0
ARC
  5
956
100
AcDbEntity
  8
レイヤ15
  6
CONTINUOUS
 62
     0
100
AcDbCircle
 10
1335.562454754
 20
147.7545038245
 40
0.4263839880472
100
AcDbArc
 50
-90
 51
19.65464782704
  0
ARC
  5
957
100
AcDbEntity
  8
レイヤ15
  6
CONTINUOUS
 62
     0
100
AcDbCircle
 10
1415.796330161
 20
160.7541233711
 40
0.4263839880472
100
AcDbArc
 50
138.9849090577
 51
180
  0
ARC
  5
958
100
AcDbEntity
  8
レイヤ15
  6
CONTINUOUS
 62
     0
100
AcDbCircle
 10
1295.522471189
 20
171.0899670207
 40
0.6395759820708
100
AcDbArc
 50
90
 51
180
  0
ARC
  5
959
100
AcDbEntity
  8
レイヤ15
  6
CONTINUOUS
 62
     0
100
AcDbCircle
 10
1295.522471189
 20
168.2576242911
 40
0.6395759820708
100
AcDbArc
 50
180
 51
270
  0
ARC
  5
95A
100
AcDbEntity
  8
レイヤ15
  6
CONTINUOUS
 62
     0
100
AcDbCircle
 10
1301.353663146
 20
173.8471272369
 40
0.6395759820708
100
AcDbArc
 50
90
 51
180
  0
ARC
  5
95B
100
AcDbEntity
  8
レイヤ15
  6
CONTINUOUS
 62
     0
100
AcDbCircle
 10
1307.076930337
 20
173.8471272369
 40
0.6395759820708
100
AcDbArc
 50
0
 51
90
  0
ARC
  5
95C
100
AcDbEntity
  8
レイヤ15
  6
CONTINUOUS
 62
     0
100
AcDbCircle
 10
1310.541966265
 20
171.0899670207
 40
0.6395759820708
100
AcDbArc
 50
0
 51
90
  0
ARC
  5
95D
100
AcDbEntity
  8
レイヤ15
  6
CONTINUOUS
 62
     0
100
AcDbCircle
 10
1310.541966265
 20
168.2576242911
 40
0.6395759820708
100
AcDbArc
 50
-90
 51
0
  0
ARC
  5
95E
100
AcDbEntity
  8
レイヤ15
  6
CONTINUOUS
 62
     0
100
AcDbCircle
 10
1295.522471189
 20
161.1709801589
 40
0.6395759820708
100
AcDbArc
 50
128.3954162597
 51
180
  0
ARC
  5
95F
100
AcDbEntity
  8
レイヤ15
  6
CONTINUOUS
 62
     0
100
AcDbCircle
 10
1310.541966265
 20
163.0344802606
 40
0.6395759820708
100
AcDbArc
 50
0
 51
51.4783477784
  0
ARC
  5
960
100
AcDbEntity
  8
レイヤ15
  6
CONTINUOUS
 62
     0
100
AcDbCircle
 10
1313.532469171
 20
168.2576242911
 40
0.6395759820708
100
AcDbArc
 50
162.8192138672
 51
270
  0
ARC
  5
961
100
AcDbEntity
  8
レイヤ15
  6
CONTINUOUS
 62
     0
100
AcDbCircle
 10
1321.592916481
 20
173.8471272369
 40
0.6395759820708
100
AcDbArc
 50
90
 51
180
  0
ARC
  5
962
100
AcDbEntity
  8
レイヤ15
  6
CONTINUOUS
 62
     0
100
AcDbCircle
 10
1327.316288657
 20
173.8471272369
 40
0.6395759820708
100
AcDbArc
 50
0
 51
90
  0
ARC
  5
963
100
AcDbEntity
  8
レイヤ15
  6
CONTINUOUS
 62
     0
100
AcDbCircle
 10
1335.017476675
 20
161.446710616
 40
0.6395759820708
100
AcDbArc
 50
-90
 51
0
  0
ARC
  5
964
100
AcDbEntity
  8
レイヤ15
  6
CONTINUOUS
 62
     0
100
AcDbCircle
 10
1327.316288657
 20
147.9677024827
 40
0.6395759820708
100
AcDbArc
 50
-90
 51
0
  0
ARC
  5
965
100
AcDbEntity
  8
レイヤ15
  6
CONTINUOUS
 62
     0
100
AcDbCircle
 10
1321.592916481
 20
147.9677024827
 40
0.6395759820708
100
AcDbArc
 50
180
 51
270
  0
ARC
  5
966
100
AcDbEntity
  8
レイヤ15
  6
CONTINUOUS
 62
     0
100
AcDbCircle
 10
1339.659921418
 20
147.9677024827
 40
0.6395759820708
100
AcDbArc
 50
180
 51
270
  0
ARC
  5
967
100
AcDbEntity
  8
レイヤ15
  6
CONTINUOUS
 62
     0
100
AcDbCircle
 10
1339.659921418
 20
150.8000320891
 40
0.6395759820708
100
AcDbArc
 50
90
 51
180
  0
ARC
  5
968
100
AcDbEntity
  8
レイヤ15
  6
CONTINUOUS
 62
     0
100
AcDbCircle
 10
1339.659921418
 20
160.1026247017
 40
0.6395759820708
100
AcDbArc
 50
180
 51
270
  0
ARC
  5
969
100
AcDbEntity
  8
レイヤ15
  6
CONTINUOUS
 62
     0
100
AcDbCircle
 10
1339.659921418
 20
162.9349674313
 40
0.6395759820708
100
AcDbArc
 50
90
 51
180
  0
ARC
  5
96A
100
AcDbEntity
  8
レイヤ15
  6
CONTINUOUS
 62
     0
100
AcDbCircle
 10
1354.679416494
 20
162.9349674313
 40
0.6395759820708
100
AcDbArc
 50
0
 51
90
  0
ARC
  5
96B
100
AcDbEntity
  8
レイヤ15
  6
CONTINUOUS
 62
     0
100
AcDbCircle
 10
1354.679416494
 20
160.1026247017
 40
0.6395759820708
100
AcDbArc
 50
-90
 51
0
  0
ARC
  5
96C
100
AcDbEntity
  8
レイヤ15
  6
CONTINUOUS
 62
     0
100
AcDbCircle
 10
1354.679416494
 20
150.8000320891
 40
0.6395759820708
100
AcDbArc
 50
0
 51
90
  0
ARC
  5
96D
100
AcDbEntity
  8
レイヤ15
  6
CONTINUOUS
 62
     0
100
AcDbCircle
 10
1354.679416494
 20
147.9677024827
 40
0.6395759820708
100
AcDbArc
 50
-90
 51
0
  0
ARC
  5
96E
100
AcDbEntity
  8
レイヤ15
  6
CONTINUOUS
 62
     0
100
AcDbCircle
 10
1339.659921418
 20
168.2576242911
 40
0.6395759820708
100
AcDbArc
 50
180
 51
270
  0
ARC
  5
96F
100
AcDbEntity
  8
レイヤ15
  6
CONTINUOUS
 62
     0
100
AcDbCircle
 10
1339.659921418
 20
171.0899670207
 40
0.6395759820708
100
AcDbArc
 50
90
 51
180
  0
ARC
  5
970
100
AcDbEntity
  8
レイヤ15
  6
CONTINUOUS
 62
     0
100
AcDbCircle
 10
1372.065172586
 20
168.2576242911
 40
0.6395759820708
100
AcDbArc
 50
-90
 51
0
  0
ARC
  5
971
100
AcDbEntity
  8
レイヤ15
  6
CONTINUOUS
 62
     0
100
AcDbCircle
 10
1301.353663146
 20
147.9677024827
 40
0.6395759820708
100
AcDbArc
 50
180
 51
270
  0
ARC
  5
972
100
AcDbEntity
  8
レイヤ15
  6
CONTINUOUS
 62
     0
100
AcDbCircle
 10
1307.076930337
 20
147.9677024827
 40
0.6395759820708
100
AcDbArc
 50
-90
 51
0
  0
ARC
  5
973
100
AcDbEntity
  8
レイヤ15
  6
CONTINUOUS
 62
     0
100
AcDbCircle
 10
1376.883782464
 20
156.6937427226
 40
0.6395759820708
100
AcDbArc
 50
180
 51
270
  0
ARC
  5
974
100
AcDbEntity
  8
レイヤ15
  6
CONTINUOUS
 62
     0
100
AcDbCircle
 10
1376.883782464
 20
159.5260854522
 40
0.6395759820708
100
AcDbArc
 50
90
 51
180
  0
ARC
  5
975
100
AcDbEntity
  8
レイヤ15
  6
CONTINUOUS
 62
     0
100
AcDbCircle
 10
1382.141860314
 20
163.0437583261
 40
0.6395759820708
100
AcDbArc
 50
180
 51
270
  0
ARC
  5
976
100
AcDbEntity
  8
レイヤ15
  6
CONTINUOUS
 62
     0
100
AcDbCircle
 10
1382.141860314
 20
165.8761010557
 40
0.6395759820708
100
AcDbArc
 50
90
 51
180
  0
ARC
  5
977
100
AcDbEntity
  8
レイヤ15
  6
CONTINUOUS
 62
     0
100
AcDbCircle
 10
1404.348850913
 20
165.8761010557
 40
0.6395759820708
100
AcDbArc
 50
0
 51
90
  0
ARC
  5
978
100
AcDbEntity
  8
レイヤ15
  6
CONTINUOUS
 62
     0
100
AcDbCircle
 10
1404.348850913
 20
163.0437583261
 40
0.6395759820708
100
AcDbArc
 50
-90
 51
0
  0
ARC
  5
979
100
AcDbEntity
  8
レイヤ15
  6
CONTINUOUS
 62
     0
100
AcDbCircle
 10
1409.606928763
 20
159.5260854522
 40
0.6395759820708
100
AcDbArc
 50
0
 51
90
  0
ARC
  5
97A
100
AcDbEntity
  8
レイヤ15
  6
CONTINUOUS
 62
     0
100
AcDbCircle
 10
1409.606928763
 20
156.6937427226
 40
0.6395759820708
100
AcDbArc
 50
-90
 51
0
  0
ARC
  5
97B
100
AcDbEntity
  8
レイヤ15
  6
CONTINUOUS
 62
     0
100
AcDbCircle
 10
1409.088301964
 20
147.9677024827
 40
0.6395759820708
100
AcDbArc
 50
-90
 51
0
  0
ARC
  5
97C
100
AcDbEntity
  8
レイヤ15
  6
CONTINUOUS
 62
     0
100
AcDbCircle
 10
1409.088301964
 20
153.4589917908
 40
0.6395759820708
100
AcDbArc
 50
0
 51
90
  0
ARC
  5
97D
100
AcDbEntity
  8
レイヤ15
  6
CONTINUOUS
 62
     0
100
AcDbCircle
 10
1215.932574887
 20
173.8471272369
 40
0.6395759820708
100
AcDbArc
 50
90
 51
180
  0
ARC
  5
97E
100
AcDbEntity
  8
レイヤ15
  6
CONTINUOUS
 62
     0
100
AcDbCircle
 10
1215.932574887
 20
169.4090230272
 40
0.6395759820708
100
AcDbArc
 50
180
 51
270
  0
ARC
  5
97F
100
AcDbEntity
  8
レイヤ15
  6
CONTINUOUS
 62
     0
100
AcDbCircle
 10
1105.76532442
 20
144.679934034
 40
0.9795404539145
100
AcDbArc
 50
3.854354858389
 51
93.19104003907
  0
ARC
  5
980
100
AcDbEntity
  8
レイヤ15
  6
CONTINUOUS
 62
     0
100
AcDbCircle
 10
1107.719938536
 20
174.69375399
 40
0.9795404539145
100
AcDbArc
 50
-176.1456451416
 51
-86.80895996093
  0
ARC
  5
981
100
AcDbEntity
  8
レイヤ15
  6
CONTINUOUS
 62
     0
100
AcDbCircle
 10
1105.76532442
 20
174.69375399
 40
0.9795404539145
100
AcDbArc
 50
-93.19105529783
 51
-3.854370117193
  0
ARC
  5
982
100
AcDbEntity
  8
レイヤ15
  6
CONTINUOUS
 62
     0
100
AcDbCircle
 10
1121.749528333
 20
160.6641641933
 40
0.9795404539145
100
AcDbArc
 50
176.8089447022
 51
266.1456298828
  0
ARC
  5
983
100
AcDbEntity
  8
レイヤ15
  6
CONTINUOUS
 62
     0
100
AcDbCircle
 10
1121.749528333
 20
158.7095107075
 40
0.9795404539145
100
AcDbArc
 50
93.85435485843
 51
183.191040039
  0
ARC
  5
984
100
AcDbEntity
  8
レイヤ15
  6
CONTINUOUS
 62
     0
100
AcDbCircle
 10
1091.735734623
 20
160.6641641933
 40
0.9795404539145
100
AcDbArc
 50
-86.14564514157
 51
3.19104003907
  0
ARC
  5
985
100
AcDbEntity
  8
レイヤ15
  6
CONTINUOUS
 62
     0
100
AcDbCircle
 10
1091.735734623
 20
158.7095107075
 40
0.9795404539145
100
AcDbArc
 50
-3.191055297832
 51
86.14562988281
  0
ARC
  5
986
100
AcDbEntity
  8
レイヤ15
  6
CONTINUOUS
 62
     0
100
AcDbCircle
 10
1364.458051291
 20
147.8694494756
 40
0.6395759820708
100
AcDbArc
 50
-160.0371856689
 51
-90
  0
ARC
  5
987
100
AcDbEntity
  8
レイヤ15
  6
CONTINUOUS
 62
     0
100
AcDbCircle
 10
1415.796330161
 20
152.8135953852
 40
0.4263839880472
100
AcDbArc
 50
180
 51
318.9849090575
  0
ARC
  5
988
100
AcDbEntity
  8
レイヤ15
  6
CONTINUOUS
 62
     0
100
AcDbCircle
 10
1416.009555065
 20
171.0899670207
 40
0.6395759820708
100
AcDbArc
 50
90
 51
180
  0
ARC
  5
989
100
AcDbEntity
  8
レイヤ15
  6
CONTINUOUS
 62
     0
100
AcDbCircle
 10
1416.009555065
 20
168.2576242911
 40
0.6395759820708
100
AcDbArc
 50
180
 51
270
  0
LINE
  5
98A
100
AcDbEntity
  8
レイヤ15
  6
CONTINUOUS
 62
     0
100
AcDbLine
 10
90
 20
1536
 11
239.6032583611
 21
1536
  0
LINE
  5
98B
100
AcDbEntity
  8
レイヤ15
  6
CONTINUOUS
 62
     0
100
AcDbLine
 10
89.60325836109
 20
1506
 11
239.2065167222
 21
1506
  0
LINE
  5
98C
100
AcDbEntity
  8
レイヤ15
  6
CONTINUOUS
 62
     0
100
AcDbLine
 10
240
 20
1566
 11
240
 21
1506
  0
LINE
  5
98D
100
AcDbEntity
  8
レイヤ15
  6
CONTINUOUS
 62
     0
100
AcDbLine
 10
90
 20
1566
 11
240
 21
1566
  0
LINE
  5
98E
100
AcDbEntity
  8
レイヤ15
  6
CONTINUOUS
 62
     0
100
AcDbLine
 10
90
 20
1566
 11
90
 21
1506
  0
LINE
  5
98F
100
AcDbEntity
  8
レイヤ1
  6
CONTINUOUS
 62
     0
100
AcDbLine
 10
60
 20
1686
 11
2460
 21
1686
  0
LINE
  5
990
100
AcDbEntity
  8
レイヤ1
  6
CONTINUOUS
 62
     0
100
AcDbLine
 10
60
 20
96
 11
2460
 21
96
  0
LINE
  5
991
100
AcDbEntity
  8
レイヤ1
  6
CONTINUOUS
 62
     0
100
AcDbLine
 10
60
 20
1596
 11
2460
 21
1596
  0
LINE
  5
992
100
AcDbEntity
  8
レイヤ1
  6
CONTINUOUS
 62
     0
100
AcDbLine
 10
60
 20
186
 11
2460
 21
186
  0
LINE
  5
993
100
AcDbEntity
  8
レイヤ1
  6
CONTINUOUS
 62
     0
100
AcDbLine
 10
2460
 20
96
 11
2460
 21
1686
  0
LINE
  5
994
100
AcDbEntity
  8
レイヤ1
  6
CONTINUOUS
 62
     0
100
AcDbLine
 10
60
 20
1686
 11
60
 21
96
  0
ENDSEC
  0
SECTION
  2
OBJECTS
  0
DICTIONARY
  5
995
100
AcDbDictionary
  3
ACAD_GROUP
350
996
  3
ACAD_IMAGE_DICT
350
997
  3
ACAD_MLINESTYLE
350
998
  0
DICTIONARY
  5
996
330
995
100
AcDbDictionary
  0
DICTIONARY
  5
997
100
AcDbDictionary
  0
DICTIONARY
  5
998
100
AcDbDictionary
  3
STANDARD
350
999
  0
RASTERVARIABLES
  5
99A
100
AcDbRasterVariables
 90
     0
 70
     1
 71
     1
 72
     0
  0
MLINESTYLE
  5
999
100
AcDbMlineStyle
  2
STANDARD
 70
     0
  3

 62
   256
 51
90
 52
90
 71
     0
  0
ENDSEC
  0
EOF
