  0
SECTION
  2
HEADER
  9
$ACADVER
  1
AC1015
  9
$DWGCODEPAGE
  3
ANSI_932
  9
$EXTMIN
 10
10
 20
16
  9
$EXTMAX
 10
1788.066275663
 20
1177.713199472
  9
$LIMMIN
 10
0
 20
0
  9
$LIMMAX
 10
2520
 20
1782
  9
$LTSCALE
 40
6
  9
$DIMSCALE
 40
6
  9
$DIMSTYLE
  2
M7DIMSTL
  9
$HANDSEED
  5
7FFFFFFF
  9
$PSLTSCALE
 70
     0
  9
$MEASUREMENT
 70
     1
  0
ENDSEC
  0
SECTION
  2
CLASSES
  0
CLASS
  1
CSOFTARXCLASS
  2
CSoftArxClass
  3
CSRasterApi
 90
     0
280
     0
281
     0
  0
CLASS
  1
IMAGEDEF
  2
AcDbRasterImageDef
  3
ISM
 90
     0
280
     0
281
     0
  0
CLASS
  1
RASTERVARIABLES
  2
AcDbRasterVariables
  3
ISM
 90
     0
280
     0
281
     0
  0
CLASS
  1
IMAGE
  2
AcDbRasterImage
  3
ISM
 90
   127
280
     0
281
     0
  0
CLASS
  1
IMAGEDEF_REACTOR
  2
AcDbRasterImageDefReactor
  3
ISM
 90
     1
280
     0
281
     0
  0
CLASS
  1
HATCH
  2
AcDbHatch
  3
M7
 90
     0
280
     0
281
     1
  0
ENDSEC
  0
SECTION
  2
TABLES
  0
TABLE
  2
VPORT
  5
FF
100
AcDbSymbolTable
 70
     5
  0
VPORT
  5
100
100
AcDbSymbolTableRecord
100
AcDbViewportTableRecord
  2
*ACTIVE
 70
     0
 10
0
 20
0
 11
1
 21
1
 12
1260
 22
891
 13
0
 23
0
 14
0
 24
0
 15
0
 25
0
 16
0
 26
0
 36
1
 17
0
 27
0
 37
0
 40
891
 41
1.414141414141
 42
50
 43
0
 44
0
 50
0
 51
0
 71
     0
 72
   100
 73
     1
 74
     3
 75
     0
 76
     0
 77
     0
 78
     0
  0
ENDTAB
  0
TABLE
  2
LTYPE
  5
101
100
AcDbSymbolTable
 70
     1
  0
LTYPE
  5
102
100
AcDbSymbolTableRecord
100
AcDbLinetypeTableRecord
  2
BYBLOCK
 70
     0
  3

 72
    65
 73
     0
 40
0
  0
LTYPE
  5
103
100
AcDbSymbolTableRecord
100
AcDbLinetypeTableRecord
  2
BYLAYER
 70
     0
  3

 72
    65
 73
     0
 40
0
  0
LTYPE
  5
104
100
AcDbSymbolTableRecord
100
AcDbLinetypeTableRecord
  2
CONTINUOUS
 70
     0
  3
Solid line
 72
    65
 73
     0
 40
0
  0
LTYPE
  5
105
100
AcDbSymbolTableRecord
100
AcDbLinetypeTableRecord
  2
DOT
 70
     0
  3
...............................
 72
    65
 73
     2
 40
2
 49
1
 74
     0
 49
-1
 74
     0
  0
LTYPE
  5
106
100
AcDbSymbolTableRecord
100
AcDbLinetypeTableRecord
  2
DASHED
 70
     0
  3
- - - - - - - - - - - - - - - -
 72
    65
 73
     2
 40
4
 49
2
 74
     0
 49
-2
 74
     0
  0
LTYPE
  5
107
100
AcDbSymbolTableRecord
100
AcDbLinetypeTableRecord
  2
DASHED2
 70
     0
  3
-- -- -- -- -- -- -- -- -- -- -
 72
    65
 73
     2
 40
8
 49
5
 74
     0
 49
-3
 74
     0
  0
LTYPE
  5
108
100
AcDbSymbolTableRecord
100
AcDbLinetypeTableRecord
  2
CENTER
 70
     0
  3
--------- - --------- - -------
 72
    65
 73
     4
 40
23
 49
20
 74
     0
 49
-1
 74
     0
 49
1
 74
     0
 49
-1
 74
     0
  0
LTYPE
  5
109
100
AcDbSymbolTableRecord
100
AcDbLinetypeTableRecord
  2
CENTERX2
 70
     0
  3
-------------- - --------------
 72
    65
 73
     4
 40
43
 49
40
 74
     0
 49
-1
 74
     0
 49
1
 74
     0
 49
-1
 74
     0
  0
LTYPE
  5
10A
100
AcDbSymbolTableRecord
100
AcDbLinetypeTableRecord
  2
CENTER2
 70
     0
  3
------ - ----- - ------ - -----
 72
    65
 73
     4
 40
13
 49
10
 74
     0
 49
-1
 74
     0
 49
1
 74
     0
 49
-1
 74
     0
  0
LTYPE
  5
10B
100
AcDbSymbolTableRecord
100
AcDbLinetypeTableRecord
  2
PHANTOM
 70
     0
  3
-------- - - ------- - - ------
 72
    65
 73
     6
 40
25
 49
20
 74
     0
 49
-1
 74
     0
 49
1
 74
     0
 49
-1
 74
     0
 49
1
 74
     0
 49
-1
 74
     0
  0
LTYPE
  5
10C
100
AcDbSymbolTableRecord
100
AcDbLinetypeTableRecord
  2
PHANTOMX2
 70
     0
  3
------------- - - -------------
 72
    65
 73
     6
 40
45
 49
40
 74
     0
 49
-1
 74
     0
 49
1
 74
     0
 49
-1
 74
     0
 49
1
 74
     0
 49
-1
 74
     0
  0
LTYPE
  5
10D
100
AcDbSymbolTableRecord
100
AcDbLinetypeTableRecord
  2
PHANTOM2
 70
     0
  3
---- - - ---- - - ---- - - ----
 72
    65
 73
     6
 40
15
 49
10
 74
     0
 49
-1
 74
     0
 49
1
 74
     0
 49
-1
 74
     0
 49
1
 74
     0
 49
-1
 74
     0
  0
LTYPE
  5
10E
100
AcDbSymbolTableRecord
100
AcDbLinetypeTableRecord
  2
ACAD_ISO06W100
 70
     0
  3
------------ - - - ------------
 72
    65
 73
     8
 40
47
 49
40
 74
     0
 49
-1
 74
     0
 49
1
 74
     0
 49
-1
 74
     0
 49
1
 74
     0
 49
-1
 74
     0
 49
1
 74
     0
 49
-1
 74
     0
  0
LTYPE
  5
10F
100
AcDbSymbolTableRecord
100
AcDbLinetypeTableRecord
  2
ACAD_ISO14W100
 70
     0
  3
---- - - - -------- - - - -----
 72
    65
 73
     8
 40
27
 49
20
 74
     0
 49
-1
 74
     0
 49
1
 74
     0
 49
-1
 74
     0
 49
1
 74
     0
 49
-1
 74
     0
 49
1
 74
     0
 49
-1
 74
     0
  0
LTYPE
  5
110
100
AcDbSymbolTableRecord
100
AcDbLinetypeTableRecord
  2
ACAD_ISO11W100
 70
     0
  3
------- ------ - ------- ------
 72
    65
 73
     6
 40
44
 49
20
 74
     0
 49
-1
 74
     0
 49
20
 74
     0
 49
-1
 74
     0
 49
1
 74
     0
 49
-1
 74
     0
  0
LTYPE
  5
111
100
AcDbSymbolTableRecord
100
AcDbLinetypeTableRecord
  2
ACAD_ISO13W100
 70
     0
  3
------ ------ - - ------ ------
 72
    65
 73
     8
 40
46
 49
20
 74
     0
 49
-1
 74
     0
 49
20
 74
     0
 49
-1
 74
     0
 49
1
 74
     0
 49
-1
 74
     0
 49
1
 74
     0
 49
-1
 74
     0
  0
LTYPE
  5
112
100
AcDbSymbolTableRecord
100
AcDbLinetypeTableRecord
  2
ACAD_ISO15W100
 70
     0
  3
------ ----- - - - ------ -----
 72
    65
 73
    10
 40
48
 49
20
 74
     0
 49
-1
 74
     0
 49
20
 74
     0
 49
-1
 74
     0
 49
1
 74
     0
 49
-1
 74
     0
 49
1
 74
     0
 49
-1
 74
     0
 49
1
 74
     0
 49
-1
 74
     0
  0
LTYPE
  5
113
100
AcDbSymbolTableRecord
100
AcDbLinetypeTableRecord
  2
HIDDEN
 70
     0
  3
. . . . . . . . . . . . . . . .
 72
    65
 73
     2
 40
1.5
 49
1
 74
     0
 49
-0.5
 74
     0
  0
ENDTAB
  0
TABLE
  2
LAYER
  5
114
100
AcDbSymbolTable
 70
     1
  0
LAYER
  5
115
100
AcDbSymbolTableRecord
100
AcDbLayerTableRecord
  2
0
 70
     0
 62
     7
  6
CONTINUOUS
390
116
  0
LAYER
  5
117
100
AcDbSymbolTableRecord
100
AcDbLayerTableRecord
  2
鉄骨下地
 70
     0
 62
     7
  6
CONTINUOUS
390
   278
  0
LAYER
  5
118
100
AcDbSymbolTableRecord
100
AcDbLayerTableRecord
  2
ボルトナット
 70
     0
 62
     7
  6
CONTINUOUS
390
   278
  0
LAYER
  5
119
100
AcDbSymbolTableRecord
100
AcDbLayerTableRecord
  2
固定アングル
 70
     0
 62
     7
  6
CONTINUOUS
390
   278
  0
LAYER
  5
11A
100
AcDbSymbolTableRecord
100
AcDbLayerTableRecord
  2
ストリンガー
 70
     0
 62
     7
  6
CONTINUOUS
390
   278
  0
LAYER
  5
11B
100
AcDbSymbolTableRecord
100
AcDbLayerTableRecord
  2
パネル
 70
     0
 62
     7
  6
CONTINUOUS
390
   278
  0
LAYER
  5
11C
100
AcDbSymbolTableRecord
100
AcDbLayerTableRecord
  2
取付金具
 70
     0
 62
     7
  6
CONTINUOUS
390
   278
  0
LAYER
  5
11D
100
AcDbSymbolTableRecord
100
AcDbLayerTableRecord
  2
ボルトセット
 70
     0
 62
     7
  6
CONTINUOUS
390
   278
  0
LAYER
  5
11E
100
AcDbSymbolTableRecord
100
AcDbLayerTableRecord
  2
部品名
 70
     0
 62
     7
  6
CONTINUOUS
390
   278
  0
LAYER
  5
11F
100
AcDbSymbolTableRecord
100
AcDbLayerTableRecord
  2
寸法
 70
     0
 62
     7
  6
CONTINUOUS
390
   278
  0
LAYER
  5
120
100
AcDbSymbolTableRecord
100
AcDbLayerTableRecord
  2
レイヤ1
 70
     0
 62
     7
  6
CONTINUOUS
390
   278
  0
LAYER
  5
121
100
AcDbSymbolTableRecord
100
AcDbLayerTableRecord
  2
レイヤ15
 70
     0
 62
     7
  6
CONTINUOUS
390
   278
  0
LAYER
  5
122
100
AcDbSymbolTableRecord
100
AcDbLayerTableRecord
  2
レイヤ16
 70
     0
 62
     7
  6
CONTINUOUS
390
   278
  0
ENDTAB
  0
TABLE
  2
STYLE
  5
123
100
AcDbSymbolTable
 70
     1
  0
STYLE
  5
124
100
AcDbSymbolTableRecord
100
AcDbTextStyleTableRecord
  2
STANDARD
 70
     0
 40
0
 41
0
 50
0
 71
     0
 42
1
  3
txt
  4
bigfont
  0
STYLE
  5
125
100
AcDbSymbolTableRecord
100
AcDbTextStyleTableRecord
  2
VSTANDARD
 70
     4
 40
0
 41
0
 50
0
 71
     0
 42
1
  3
txt
  4
bigfont
  0
ENDTAB
  0
TABLE
  2
VIEW
  5
126
100
AcDbSymbolTable
 70
     0
  0
ENDTAB
  0
TABLE
  2
UCS
  5
127
100
AcDbSymbolTable
 70
     0
  0
ENDTAB
  0
TABLE
  2
APPID
  5
128
100
AcDbSymbolTable
 70
     1
  0
APPID
  5
129
100
AcDbSymbolTableRecord
100
AcDbRegAppTableRecord
  2
ACAD
 70
     0
  0
ENDTAB
  0
TABLE
  2
DIMSTYLE
  5
12A
100
AcDbSymbolTable
 70
     1
100
AcDbDimStyleTable
 71
     0
  0
DIMSTYLE
105
12B
100
AcDbSymbolTableRecord
100
AcDbDimStyleTableRecord
  2
M7DIMSTL
 70
     0
  3

  4

  5

  6

  7

 40
6
 41
2.5
 42
0.625
 43
3.75
 44
1.25
 45
0
 46
0
 47
0
 48
0
140
2.5
141
2.5
142
0
143
0.03937007874016
144
1
145
0
146
1
147
0.625
 71
     0
 72
     0
 73
     0
 74
     0
 75
     0
 76
     0
 77
     1
 78
     8
170
     0
171
     3
172
     1
173
     0
174
     0
175
     0
176
     0
177
     0
178
     0
270
     2
271
     2
272
     2
273
     2
274
     3
340
124
275
     0
280
     0
281
     0
282
     0
283
     0
284
     8
285
     0
286
     0
287
     3
288
     0
  0
ENDTAB
  0
TABLE
  2
BLOCK_RECORD
  5
12C
100
AcDbSymbolTable
 70
     2
  0
BLOCK_RECORD
  5
12D
100
AcDbSymbolTableRecord
100
AcDbBlockTableRecord
  2
*MODEL_SPACE
  0
BLOCK_RECORD
  5
12E
100
AcDbSymbolTableRecord
100
AcDbBlockTableRecord
  2
*PAPER_SPACE
  0
BLOCK_RECORD
  5
12F
100
AcDbSymbolTableRecord
100
AcDbBlockTableRecord
  2
_DOT
  0
BLOCK_RECORD
  5
130
100
AcDbSymbolTableRecord
100
AcDbBlockTableRecord
  2
_OPEN30
  0
BLOCK_RECORD
  5
131
100
AcDbSymbolTableRecord
100
AcDbBlockTableRecord
  2
_ClosedBlank
  0
BLOCK_RECORD
  5
132
100
AcDbSymbolTableRecord
100
AcDbBlockTableRecord
  2
_Origin
  0
BLOCK_RECORD
  5
133
100
AcDbSymbolTableRecord
100
AcDbBlockTableRecord
  2
_Oblique
  0
BLOCK_RECORD
  5
134
100
AcDbSymbolTableRecord
100
AcDbBlockTableRecord
  2
_Origin2
  0
BLOCK_RECORD
  5
135
100
AcDbSymbolTableRecord
100
AcDbBlockTableRecord
  2
_BoxBlank
  0
BLOCK_RECORD
  5
136
100
AcDbSymbolTableRecord
100
AcDbBlockTableRecord
  2
_BoxFilled
  0
BLOCK_RECORD
  5
137
100
AcDbSymbolTableRecord
100
AcDbBlockTableRecord
  2
_Integral
  0
BLOCK_RECORD
  5
138
100
AcDbSymbolTableRecord
100
AcDbBlockTableRecord
  2
BK2
  0
BLOCK_RECORD
  5
139
100
AcDbSymbolTableRecord
100
AcDbBlockTableRecord
  2
BK3
  0
BLOCK_RECORD
  5
13A
100
AcDbSymbolTableRecord
100
AcDbBlockTableRecord
  2
BK4
  0
BLOCK_RECORD
  5
13B
100
AcDbSymbolTableRecord
100
AcDbBlockTableRecord
  2
BK5
  0
BLOCK_RECORD
  5
13C
100
AcDbSymbolTableRecord
100
AcDbBlockTableRecord
  2
BK6
  0
BLOCK_RECORD
  5
13D
100
AcDbSymbolTableRecord
100
AcDbBlockTableRecord
  2
BK7
  0
BLOCK_RECORD
  5
13E
100
AcDbSymbolTableRecord
100
AcDbBlockTableRecord
  2
BK8
  0
BLOCK_RECORD
  5
13F
100
AcDbSymbolTableRecord
100
AcDbBlockTableRecord
  2
BK9
  0
BLOCK_RECORD
  5
140
100
AcDbSymbolTableRecord
100
AcDbBlockTableRecord
  2
BK10
  0
BLOCK_RECORD
  5
141
100
AcDbSymbolTableRecord
100
AcDbBlockTableRecord
  2
BK11
  0
BLOCK_RECORD
  5
142
100
AcDbSymbolTableRecord
100
AcDbBlockTableRecord
  2
BK12
  0
BLOCK_RECORD
  5
143
100
AcDbSymbolTableRecord
100
AcDbBlockTableRecord
  2
BK13
  0
BLOCK_RECORD
  5
144
100
AcDbSymbolTableRecord
100
AcDbBlockTableRecord
  2
BK14
  0
BLOCK_RECORD
  5
145
100
AcDbSymbolTableRecord
100
AcDbBlockTableRecord
  2
BK15
  0
BLOCK_RECORD
  5
146
100
AcDbSymbolTableRecord
100
AcDbBlockTableRecord
  2
BK16
  0
BLOCK_RECORD
  5
147
100
AcDbSymbolTableRecord
100
AcDbBlockTableRecord
  2
BK17
  0
BLOCK_RECORD
  5
148
100
AcDbSymbolTableRecord
100
AcDbBlockTableRecord
  2
BK18
  0
BLOCK_RECORD
  5
149
100
AcDbSymbolTableRecord
100
AcDbBlockTableRecord
  2
BK19
  0
BLOCK_RECORD
  5
14A
100
AcDbSymbolTableRecord
100
AcDbBlockTableRecord
  2
BK20
  0
BLOCK_RECORD
  5
14B
100
AcDbSymbolTableRecord
100
AcDbBlockTableRecord
  2
BK21
  0
BLOCK_RECORD
  5
14C
100
AcDbSymbolTableRecord
100
AcDbBlockTableRecord
  2
BK22
  0
BLOCK_RECORD
  5
14D
100
AcDbSymbolTableRecord
100
AcDbBlockTableRecord
  2
BK23
  0
BLOCK_RECORD
  5
14E
100
AcDbSymbolTableRecord
100
AcDbBlockTableRecord
  2
BK24
  0
BLOCK_RECORD
  5
14F
100
AcDbSymbolTableRecord
100
AcDbBlockTableRecord
  2
*D25
  0
BLOCK_RECORD
  5
150
100
AcDbSymbolTableRecord
100
AcDbBlockTableRecord
  2
*D26
  0
BLOCK_RECORD
  5
151
100
AcDbSymbolTableRecord
100
AcDbBlockTableRecord
  2
*D27
  0
BLOCK_RECORD
  5
152
100
AcDbSymbolTableRecord
100
AcDbBlockTableRecord
  2
*D28
  0
BLOCK_RECORD
  5
153
100
AcDbSymbolTableRecord
100
AcDbBlockTableRecord
  2
*D29
  0
BLOCK_RECORD
  5
154
100
AcDbSymbolTableRecord
100
AcDbBlockTableRecord
  2
*D30
  0
BLOCK_RECORD
  5
155
100
AcDbSymbolTableRecord
100
AcDbBlockTableRecord
  2
*D31
  0
BLOCK_RECORD
  5
156
100
AcDbSymbolTableRecord
100
AcDbBlockTableRecord
  2
*D32
  0
BLOCK_RECORD
  5
157
100
AcDbSymbolTableRecord
100
AcDbBlockTableRecord
  2
*D33
  0
BLOCK_RECORD
  5
158
100
AcDbSymbolTableRecord
100
AcDbBlockTableRecord
  2
*D34
  0
BLOCK_RECORD
  5
159
100
AcDbSymbolTableRecord
100
AcDbBlockTableRecord
  2
*D35
  0
BLOCK_RECORD
  5
15A
100
AcDbSymbolTableRecord
100
AcDbBlockTableRecord
  2
*D36
  0
BLOCK_RECORD
  5
15B
100
AcDbSymbolTableRecord
100
AcDbBlockTableRecord
  2
*D37
  0
BLOCK_RECORD
  5
15C
100
AcDbSymbolTableRecord
100
AcDbBlockTableRecord
  2
*D38
  0
BLOCK_RECORD
  5
15D
100
AcDbSymbolTableRecord
100
AcDbBlockTableRecord
  2
*D39
  0
BLOCK_RECORD
  5
15E
100
AcDbSymbolTableRecord
100
AcDbBlockTableRecord
  2
*D40
  0
BLOCK_RECORD
  5
15F
100
AcDbSymbolTableRecord
100
AcDbBlockTableRecord
  2
*D41
  0
BLOCK_RECORD
  5
160
100
AcDbSymbolTableRecord
100
AcDbBlockTableRecord
  2
*D42
  0
BLOCK_RECORD
  5
161
100
AcDbSymbolTableRecord
100
AcDbBlockTableRecord
  2
*D43
  0
BLOCK_RECORD
  5
162
100
AcDbSymbolTableRecord
100
AcDbBlockTableRecord
  2
*D44
  0
ENDTAB
  0
ENDSEC
  0
SECTION
  2
BLOCKS
  0
BLOCK
  5
163
100
AcDbEntity
  8
0
100
AcDbBlockBegin
  2
*MODEL_SPACE
 70
     0
 10
0
 20
0
  3
*MODEL_SPACE
  1

  0
ENDBLK
  5
164
100
AcDbEntity
  8
0
100
AcDbBlockEnd
  0
BLOCK
  5
165
100
AcDbEntity
 67
     1
  8
0
100
AcDbBlockBegin
  2
*PAPER_SPACE
 70
     0
 10
0
 20
0
  3
*PAPER_SPACE
  1

  0
ENDBLK
  5
166
100
AcDbEntity
 67
     1
  8
0
100
AcDbBlockEnd
  0
BLOCK
  5
167
100
AcDbEntity
 67
     1
  8
0
100
AcDbBlockBegin
  2
_DOT
 70
     0
 10
0
 20
0
  3
_DOT
  1

  0
LWPOLYLINE
  5
168
100
AcDbEntity
  8
0
  6
BYBLOCK
 62
     0
100
AcDbPolyline
 90
     2
 70
     1
 43
0.5
 10
-0.25
 20
0
 42
1
 10
0.25
 20
0
 42
1
  0
LINE
  5
169
100
AcDbEntity
  8
0
  6
BYBLOCK
 62
     0
100
AcDbLine
 10
-0.5
 20
0
 11
-1
 21
0
  0
ENDBLK
  5
16A
100
AcDbEntity
  8
0
100
AcDbBlockEnd
  0
BLOCK
  5
16B
100
AcDbEntity
 67
     1
  8
0
100
AcDbBlockBegin
  2
_OPEN30
 70
     0
 10
0
 20
0
  3
_OPEN30
  1

  0
LINE
  5
16C
100
AcDbEntity
  8
0
  6
BYBLOCK
 62
     0
100
AcDbLine
 10
-1
 20
0.26794919
 11
0
 21
0
  0
LINE
  5
16D
100
AcDbEntity
  8
0
  6
BYBLOCK
 62
     0
100
AcDbLine
 10
-1
 20
-0.26794919
 11
0
 21
0
  0
LINE
  5
16E
100
AcDbEntity
  8
0
  6
BYBLOCK
 62
     0
100
AcDbLine
 10
0
 20
0
 11
-1
 21
0
  0
ENDBLK
  5
16F
100
AcDbEntity
  8
0
100
AcDbBlockEnd
  0
BLOCK
  5
170
100
AcDbEntity
 67
     1
  8
0
100
AcDbBlockBegin
  2
_ClosedBlank
 70
     0
 10
0
 20
0
  3
_ClosedBlank
  1

  0
LINE
  5
171
100
AcDbEntity
  8
0
  6
BYBLOCK
 62
     0
100
AcDbLine
 10
-1
 20
0.1666666666667
 11
0
 21
0
  0
LINE
  5
172
100
AcDbEntity
  8
0
  6
BYBLOCK
 62
     0
100
AcDbLine
 10
0
 20
0
 11
-1
 21
-0.1666666666667
  0
LINE
  5
173
100
AcDbEntity
  8
0
  6
BYBLOCK
 62
     0
100
AcDbLine
 10
-1
 20
0.1666666666667
 11
-1
 21
-0.1666666666667
  0
ENDBLK
  5
174
100
AcDbEntity
  8
0
100
AcDbBlockEnd
  0
BLOCK
  5
175
100
AcDbEntity
 67
     1
  8
0
100
AcDbBlockBegin
  2
_Origin
 70
     0
 10
0
 20
0
  3
_Origin
  1

  0
CIRCLE
  5
176
100
AcDbEntity
  8
0
  6
BYBLOCK
 62
     0
100
AcDbCircle
 10
0
 20
0
 40
0.5
  0
LINE
  5
177
100
AcDbEntity
  8
0
  6
BYBLOCK
 62
     0
100
AcDbLine
 10
0
 20
0
 11
-1
 21
0
  0
ENDBLK
  5
178
100
AcDbEntity
  8
0
100
AcDbBlockEnd
  0
BLOCK
  5
179
100
AcDbEntity
 67
     1
  8
0
100
AcDbBlockBegin
  2
_Oblique
 70
     0
 10
0
 20
0
  3
_Oblique
  1

  0
LINE
  5
17A
100
AcDbEntity
  8
0
  6
BYBLOCK
 62
     0
100
AcDbLine
 10
-0.5
 20
-0.5
 11
0.5
 21
0.5
  0
ENDBLK
  5
17B
100
AcDbEntity
  8
0
100
AcDbBlockEnd
  0
BLOCK
  5
17C
100
AcDbEntity
 67
     1
  8
0
100
AcDbBlockBegin
  2
_Origin2
 70
     0
 10
0
 20
0
  3
_Origin2
  1

  0
CIRCLE
  5
17D
100
AcDbEntity
  8
0
  6
BYBLOCK
 62
     0
100
AcDbCircle
 10
0
 20
0
 40
0.5
  0
CIRCLE
  5
17E
100
AcDbEntity
  8
0
  6
BYBLOCK
 62
     0
100
AcDbCircle
 10
0
 20
0
 40
0.25
  0
LINE
  5
17F
100
AcDbEntity
  8
0
  6
BYBLOCK
 62
     0
100
AcDbLine
 10
-0.5
 20
0
 11
-1
 21
0
  0
ENDBLK
  5
180
100
AcDbEntity
  8
0
100
AcDbBlockEnd
  0
BLOCK
  5
181
100
AcDbEntity
 67
     1
  8
0
100
AcDbBlockBegin
  2
_BoxBlank
 70
     0
 10
0
 20
0
  3
_BoxBlank
  1

  0
LINE
  5
182
100
AcDbEntity
  8
0
  6
BYBLOCK
 62
     0
100
AcDbLine
 10
-0.5
 20
-0.5
 11
0.5
 21
-0.5
  0
LINE
  5
183
100
AcDbEntity
  8
0
  6
BYBLOCK
 62
     0
100
AcDbLine
 10
0.5
 20
-0.5
 11
0.5
 21
0.5
  0
LINE
  5
184
100
AcDbEntity
  8
0
  6
BYBLOCK
 62
     0
100
AcDbLine
 10
0.5
 20
0.5
 11
-0.5
 21
0.5
  0
LINE
  5
185
100
AcDbEntity
  8
0
  6
BYBLOCK
 62
     0
100
AcDbLine
 10
-0.5
 20
0.5
 11
-0.5
 21
-0.5
  0
LINE
  5
186
100
AcDbEntity
  8
0
  6
BYBLOCK
 62
     0
100
AcDbLine
 10
-0.5
 20
0
 11
-1
 21
0
  0
ENDBLK
  5
187
100
AcDbEntity
  8
0
100
AcDbBlockEnd
  0
BLOCK
  5
188
100
AcDbEntity
 67
     1
  8
0
100
AcDbBlockBegin
  2
_BoxFilled
 70
     0
 10
0
 20
0
  3
_BoxFilled
  1

  0
SOLID
  5
189
100
AcDbEntity
  8
0
  6
BYBLOCK
 62
     0
100
AcDbTrace
 10
-0.5
 20
0.5
 11
0.5
 21
0.5
 12
-0.5
 22
-0.5
 13
0.5
 23
-0.5
  0
LINE
  5
18A
100
AcDbEntity
  8
0
  6
BYBLOCK
 62
     0
100
AcDbLine
 10
-0.5
 20
0
 11
-1
 21
0
  0
ENDBLK
  5
18B
100
AcDbEntity
  8
0
100
AcDbBlockEnd
  0
BLOCK
  5
18C
100
AcDbEntity
 67
     1
  8
0
100
AcDbBlockBegin
  2
_Integral
 70
     0
 10
0
 20
0
  3
_Integral
  1

  0
ARC
  5
18D
100
AcDbEntity
  8
0
  6
BYBLOCK
 62
     0
100
AcDbCircle
 10
0.44488802
 20
-0.09133463
 40
0.45416667
100
AcDbArc
 50
101.999999998
 51
167.9999999799
  0
ARC
  5
18E
100
AcDbEntity
  8
0
  6
BYBLOCK
 62
     0
100
AcDbCircle
 10
-0.44488802
 20
0.09133463
 40
0.45416667
100
AcDbArc
 50
282.0000000215
 51
348.0000000034
  0
ENDBLK
  5
18F
100
AcDbEntity
  8
0
100
AcDbBlockEnd
  0
BLOCK
  5
190
100
AcDbEntity
  8
固定アングル
100
AcDbBlockBegin
  2
BK2
 70
    64
 10
0
 20
0
  3
BK2
  1

  0
LINE
  5
191
100
AcDbEntity
  8
固定アングル
  6
CONTINUOUS
 62
     0
100
AcDbLine
 10
1506.937277775
 20
761.9490278379
 11
1506.937265172
 21
807.9490502187
  0
LINE
  5
192
100
AcDbEntity
  8
固定アングル
  6
CONTINUOUS
 62
     0
100
AcDbLine
 10
1510.937233223
 20
761.9490286378
 11
1510.937249349
 21
811.9490541102
  0
LINE
  5
193
100
AcDbEntity
  8
固定アングル
  6
CONTINUOUS
 62
     0
100
AcDbLine
 10
1510.937233223
 20
761.9490286378
 11
1506.937277775
 21
761.9490278379
  0
LINE
  5
194
100
AcDbEntity
  8
固定アングル
  6
DASHED
 62
     0
100
AcDbLine
 10
1510.937279616
 20
789.1990284379
 11
1506.937304557
 21
789.1990284379
  0
LINE
  5
195
100
AcDbEntity
  8
固定アングル
  6
DASHED
 62
     0
100
AcDbLine
 10
1510.937275746
 20
777.1990284379
 11
1506.937314557
 21
777.1990284379
  0
LINE
  5
196
100
AcDbEntity
  8
固定アングル
  6
DASHED2
 62
     0
100
AcDbLine
 10
1510.937275746
 20
778.5553781785
 11
1509.580926005
 21
777.1990284379
  0
LINE
  5
197
100
AcDbEntity
  8
固定アングル
  6
DASHED2
 62
     0
100
AcDbLine
 10
1510.937275746
 20
781.2494550148
 11
1506.937304557
 21
777.2494838267
  0
LINE
  5
198
100
AcDbEntity
  8
固定アングル
  6
DASHED2
 62
     0
100
AcDbLine
 10
1510.937275746
 20
783.9435318512
 11
1506.937304557
 21
779.9435606631
  0
LINE
  5
199
100
AcDbEntity
  8
固定アングル
  6
DASHED2
 62
     0
100
AcDbLine
 10
1510.937275746
 20
786.6376086875
 11
1506.937304557
 21
782.6376374994
  0
LINE
  5
19A
100
AcDbEntity
  8
固定アングル
  6
DASHED2
 62
     0
100
AcDbLine
 10
1510.80461866
 20
789.1990284379
 11
1506.937304557
 21
785.3317143357
  0
LINE
  5
19B
100
AcDbEntity
  8
固定アングル
  6
DASHED2
 62
     0
100
AcDbLine
 10
1508.110541823
 20
789.1990284379
 11
1506.937304557
 21
788.025791172
  0
LINE
  5
19C
100
AcDbEntity
  8
固定アングル
  6
CONTINUOUS
 62
     0
100
AcDbLine
 10
1510.937266953
 20
811.9490484379
 11
1460.937236953
 21
811.9490384378
  0
LINE
  5
19D
100
AcDbEntity
  8
固定アングル
  6
CONTINUOUS
 62
     0
100
AcDbLine
 10
1460.937236953
 20
807.9490376159
 11
1460.937236953
 21
811.9490184379
  0
LINE
  5
19E
100
AcDbEntity
  8
固定アングル
  6
CONTINUOUS
 62
     0
100
AcDbLine
 10
1506.937265172
 20
807.9490502187
 11
1460.937236953
 21
807.9490376159
  0
LINE
  5
19F
100
AcDbEntity
  8
固定アングル
  6
DASHED
 62
     0
100
AcDbLine
 10
1486.937304557
 20
809.2823767027
 11
1474.937304557
 21
809.2823767027
  0
LINE
  5
1A0
100
AcDbEntity
  8
固定アングル
  6
DASHED
 62
     0
100
AcDbLine
 10
1486.937304557
 20
809.2823767027
 11
1474.937304557
 21
809.282373415
  0
LINE
  5
1A1
100
AcDbEntity
  8
固定アングル
  6
DASHED
 62
     0
100
AcDbLine
 10
1486.937304557
 20
810.6157193045
 11
1474.937304557
 21
810.6157193045
  0
LINE
  5
1A2
100
AcDbEntity
  8
固定アングル
  6
DASHED
 62
     0
100
AcDbLine
 10
1474.937304557
 20
811.9490284379
 11
1474.937304557
 21
807.9490284379
  0
LINE
  5
1A3
100
AcDbEntity
  8
固定アングル
  6
DASHED
 62
     0
100
AcDbLine
 10
1486.937304557
 20
811.9490284379
 11
1486.937304557
 21
807.9490284379
  0
ENDBLK
  5
1A4
100
AcDbEntity
 67
     1
  8
固定アングル
100
AcDbBlockEnd
  0
BLOCK
  5
1A5
100
AcDbEntity
  8
固定アングル
100
AcDbBlockBegin
  2
BK3
 70
    64
 10
0
 20
0
  3
BK3
  1

  0
LINE
  5
1A6
100
AcDbEntity
  8
固定アングル
  6
CONTINUOUS
 62
     0
100
AcDbLine
 10
1670.937209349
 20
971.9490584378
 11
1670.937209349
 21
1021.949058438
  0
LINE
  5
1A7
100
AcDbEntity
  8
固定アングル
  6
DASHED2
 62
     0
100
AcDbLine
 10
1696.042338342
 20
971.9490622497
 11
1693.687209349
 21
974.3041912427
  0
LINE
  5
1A8
100
AcDbEntity
  8
固定アングル
  6
DASHED2
 62
     0
100
AcDbLine
 10
1698.736415179
 20
971.9490622497
 11
1694.73644399
 21
975.9490334378
  0
LINE
  5
1A9
100
AcDbEntity
  8
固定アングル
  6
DASHED2
 62
     0
100
AcDbLine
 10
1701.430492015
 20
971.9490622497
 11
1697.430520827
 21
975.9490334378
  0
LINE
  5
1AA
100
AcDbEntity
  8
固定アングル
  6
DASHED2
 62
     0
100
AcDbLine
 10
1704.124568851
 20
971.9490622497
 11
1700.124597663
 21
975.9490334378
  0
LINE
  5
1AB
100
AcDbEntity
  8
固定アングル
  6
DASHED2
 62
     0
100
AcDbLine
 10
1705.687209349
 20
973.080498588
 11
1702.818674499
 21
975.9490334378
  0
LINE
  5
1AC
100
AcDbEntity
  8
固定アングル
  6
DASHED2
 62
     0
100
AcDbLine
 10
1705.687209349
 20
975.7745754244
 11
1705.512751336
 21
975.9490334378
  0
LINE
  5
1AD
100
AcDbEntity
  8
固定アングル
  6
DASHED
 62
     0
100
AcDbLine
 10
1693.687209349
 20
971.9490622497
 11
1693.687209349
 21
975.9490234378
  0
LINE
  5
1AE
100
AcDbEntity
  8
固定アングル
  6
DASHED
 62
     0
100
AcDbLine
 10
1705.687209349
 20
971.9490583794
 11
1705.687209349
 21
975.9490334378
  0
LINE
  5
1AF
100
AcDbEntity
  8
固定アングル
  6
CONTINUOUS
 62
     0
100
AcDbLine
 10
1720.937209349
 20
971.9490584378
 11
1670.937209349
 21
971.9490584378
  0
LINE
  5
1B0
100
AcDbEntity
  8
固定アングル
  6
CONTINUOUS
 62
     0
100
AcDbLine
 10
1720.937209349
 20
971.9490584378
 11
1720.937209349
 21
975.9490284378
  0
LINE
  5
1B1
100
AcDbEntity
  8
固定アングル
  6
CONTINUOUS
 62
     0
100
AcDbLine
 10
1720.937209349
 20
975.9490284378
 11
1674.937209349
 21
975.9490284378
  0
LINE
  5
1B2
100
AcDbEntity
  8
固定アングル
  6
DASHED
 62
     0
100
AcDbLine
 10
1673.603875084
 20
1007.949073438
 11
1673.603875084
 21
995.9490734378
  0
LINE
  5
1B3
100
AcDbEntity
  8
固定アングル
  6
DASHED
 62
     0
100
AcDbLine
 10
1673.603875084
 20
1007.949073438
 11
1673.603878372
 21
995.9490734378
  0
LINE
  5
1B4
100
AcDbEntity
  8
固定アングル
  6
DASHED
 62
     0
100
AcDbLine
 10
1672.270532483
 20
1007.949073438
 11
1672.270532483
 21
995.9490734378
  0
LINE
  5
1B5
100
AcDbEntity
  8
固定アングル
  6
CONTINUOUS
 62
     0
100
AcDbLine
 10
1674.937209349
 20
975.9490284378
 11
1674.937209349
 21
1021.949058438
  0
LINE
  5
1B6
100
AcDbEntity
  8
固定アングル
  6
DASHED
 62
     0
100
AcDbLine
 10
1670.937223349
 20
995.9490734378
 11
1674.937223349
 21
995.9490734378
  0
LINE
  5
1B7
100
AcDbEntity
  8
固定アングル
  6
CONTINUOUS
 62
     0
100
AcDbLine
 10
1674.937209349
 20
1021.949058438
 11
1670.937209349
 21
1021.949058438
  0
LINE
  5
1B8
100
AcDbEntity
  8
固定アングル
  6
DASHED
 62
     0
100
AcDbLine
 10
1670.937223349
 20
1007.949073438
 11
1674.937223349
 21
1007.949073438
  0
ENDBLK
  5
1B9
100
AcDbEntity
 67
     1
  8
固定アングル
100
AcDbBlockEnd
  0
BLOCK
  5
1BA
100
AcDbEntity
  8
固定アングル
100
AcDbBlockBegin
  2
BK4
 70
    64
 10
0
 20
0
  3
BK4
  1

  0
LINE
  5
1BB
100
AcDbEntity
  8
固定アングル
  6
DASHED2
 62
     0
100
AcDbLine
 10
984.9999980648
 20
808.3343932593
 11
982.7747278771
 21
806.1091230715
  0
LINE
  5
1BC
100
AcDbEntity
  8
固定アングル
  6
DASHED2
 62
     0
100
AcDbLine
 10
984.9999980648
 20
811.0284700956
 11
981.0000268767
 21
807.0284989075
  0
LINE
  5
1BD
100
AcDbEntity
  8
固定アングル
  6
DASHED2
 62
     0
100
AcDbLine
 10
984.9999980648
 20
813.7225469319
 11
981.0000268767
 21
809.7225757438
  0
LINE
  5
1BE
100
AcDbEntity
  8
固定アングル
  6
DASHED2
 62
     0
100
AcDbLine
 10
984.9999980648
 20
816.4166237682
 11
981.0000268767
 21
812.4166525801
  0
LINE
  5
1BF
100
AcDbEntity
  8
固定アングル
  6
DASHED2
 62
     0
100
AcDbLine
 10
983.9984205318
 20
818.1091230715
 11
981.0000268767
 21
815.1107294165
  0
LINE
  5
1C0
100
AcDbEntity
  8
固定アングル
  6
DASHED2
 62
     0
100
AcDbLine
 10
981.3043436955
 20
818.1091230715
 11
981.0000268767
 21
817.8048062528
  0
ENDBLK
  5
1C1
100
AcDbEntity
 67
     1
  8
固定アングル
100
AcDbBlockEnd
  0
BLOCK
  5
1C2
100
AcDbEntity
  8
固定アングル
100
AcDbBlockBegin
  2
BK5
 70
    64
 10
0
 20
0
  3
BK5
  1

  0
LINE
  5
1C3
100
AcDbEntity
  8
固定アングル
  6
DASHED2
 62
     0
100
AcDbLine
 10
984.767036521
 20
1007.463117603
 11
983.0826647521
 21
1005.778745834
  0
LINE
  5
1C4
100
AcDbEntity
  8
固定アングル
  6
DASHED2
 62
     0
100
AcDbLine
 10
984.767036521
 20
1010.157194439
 11
980.7670653329
 21
1006.157223251
  0
LINE
  5
1C5
100
AcDbEntity
  8
固定アングル
  6
DASHED2
 62
     0
100
AcDbLine
 10
984.767036521
 20
1012.851271276
 11
980.7670653329
 21
1008.851300088
  0
LINE
  5
1C6
100
AcDbEntity
  8
固定アングル
  6
DASHED2
 62
     0
100
AcDbLine
 10
984.767036521
 20
1015.545348112
 11
980.7670653329
 21
1011.545376924
  0
LINE
  5
1C7
100
AcDbEntity
  8
固定アングル
  6
DASHED2
 62
     0
100
AcDbLine
 10
984.3063574068
 20
1017.778745834
 11
980.7670653329
 21
1014.23945376
  0
LINE
  5
1C8
100
AcDbEntity
  8
固定アングル
  6
DASHED2
 62
     0
100
AcDbLine
 10
981.6122805705
 20
1017.778745834
 11
980.7670653329
 21
1016.933530597
  0
ENDBLK
  5
1C9
100
AcDbEntity
 67
     1
  8
固定アングル
100
AcDbBlockEnd
  0
BLOCK
  5
1CA
100
AcDbEntity
  8
パネル
100
AcDbBlockBegin
  2
BK6
 70
    64
 10
0
 20
0
  3
BK6
  1

  0
LINE
  5
1CB
100
AcDbEntity
  8
パネル
  6
CONTINUOUS
 62
     0
100
AcDbLine
 10
888.5905856127
 20
724.7501124608
 11
908.4101502457
 21
758.8838071066
  0
LINE
  5
1CC
100
AcDbEntity
  8
パネル
  6
CONTINUOUS
 62
     0
100
AcDbLine
 10
865
 20
687.1091230715
 11
910
 21
764.6091230715
  0
ARC
  5
1CD
100
AcDbEntity
  8
パネル
  6
CONTINUOUS
 62
     0
100
AcDbCircle
 10
912
 20
760.6091230715
 40
3.224998855591
100
AcDbArc
 50
-147.9558234016
 51
-74.64726282891
  0
ARC
  5
1CE
100
AcDbEntity
  8
パネル
  6
CONTINUOUS
 62
     0
100
AcDbCircle
 10
908.8425447191
 20
758.6327393479
 40
0.5
100
AcDbArc
 50
32.0441765985
 51
149.8586144481
  0
ARC
  5
1CF
100
AcDbEntity
  8
パネル
  6
CONTINUOUS
 62
     0
100
AcDbCircle
 10
912
 20
760.6091230715
 40
3.224998855591
100
AcDbArc
 50
14.36449172481
 51
45.58411488752
  0
ARC
  5
1D0
100
AcDbEntity
  8
パネル
  6
CONTINUOUS
 62
     0
100
AcDbCircle
 10
911.5470634813
 20
762.2994999523
 40
0.4501795172691
100
AcDbArc
 50
14.99982600544
 51
194.9996807502
  0
ARC
  5
1D1
100
AcDbEntity
  8
パネル
  6
CONTINUOUS
 62
     0
100
AcDbCircle
 10
912
 20
760.6091230715
 40
1.724999427795
100
AcDbArc
 50
60.00008020219
 51
90.00007420683
  0
LINE
  5
1D2
100
AcDbEntity
  8
パネル
  6
CONTINUOUS
 62
     0
100
AcDbLine
 10
911.134294705
 20
762.1013303782
 11
911.112407601
 21
762.1830126073
  0
LINE
  5
1D3
100
AcDbEntity
  8
パネル
  6
CONTINUOUS
 62
     0
100
AcDbLine
 10
912.0036221486
 20
762.3342673821
 11
911.9817350447
 21
762.4159496112
  0
ARC
  5
1D4
100
AcDbEntity
  8
パネル
  6
CONTINUOUS
 62
     0
100
AcDbCircle
 10
913.2374293435
 20
761.8465629036
 40
0.4501795172691
100
AcDbArc
 50
-44.99999807921
 51
134.9999113073
  0
LINE
  5
1D5
100
AcDbEntity
  8
パネル
  6
CONTINUOUS
 62
     0
100
AcDbLine
 10
912.8594552914
 20
762.1049910305
 11
912.9192399618
 21
762.1647752214
  0
LINE
  5
1D6
100
AcDbEntity
  8
パネル
  6
CONTINUOUS
 62
     0
100
AcDbLine
 10
913.4958470915
 20
761.4685985117
 11
913.5556327155
 21
761.5283843544
  0
ARC
  5
1D7
100
AcDbEntity
  8
パネル
  6
CONTINUOUS
 62
     0
100
AcDbCircle
 10
914.6069829118
 20
763.2698103083
 40
0.5
100
AcDbArc
 50
98.42696902133
 51
225.5841148874
  0
LINE
  5
1D8
100
AcDbEntity
  8
パネル
  6
CONTINUOUS
 62
     0
100
AcDbLine
 10
923.5
 20
766.6091230715
 11
910
 21
764.6091230715
  0
LINE
  5
1D9
100
AcDbEntity
  8
パネル
  6
CONTINUOUS
 62
     0
100
AcDbLine
 10
923.5
 20
765.0927515089
 11
914.5337085813
 21
763.7644120394
  0
LINE
  5
1DA
100
AcDbEntity
  8
パネル
  6
CONTINUOUS
 62
     0
100
AcDbLine
 10
925
 20
767.1091230715
 11
923.5
 21
767.1091230715
  0
LINE
  5
1DB
100
AcDbEntity
  8
パネル
  6
CONTINUOUS
 62
     0
100
AcDbLine
 10
923.5
 20
766.6091230715
 11
923.5
 21
767.1091230715
  0
LINE
  5
1DC
100
AcDbEntity
  8
パネル
  6
CONTINUOUS
 62
     0
100
AcDbLine
 10
914.6558080881
 20
760.609133589
 11
914.0026509343
 21
760.609133589
  0
ARC
  5
1DD
100
AcDbEntity
  8
パネル
  6
CONTINUOUS
 62
     0
100
AcDbCircle
 10
910.3096307486
 20
760.1561997674
 40
0.4501795172691
100
AcDbArc
 50
104.9999892466
 51
284.9995400484
  0
ARC
  5
1DE
100
AcDbEntity
  8
パネル
  6
CONTINUOUS
 62
     0
100
AcDbCircle
 10
912
 20
760.6091230715
 40
1.724999427795
100
AcDbArc
 50
-89.8782887755
 51
-68.51960080686
  0
ARC
  5
1DF
100
AcDbEntity
  8
パネル
  6
CONTINUOUS
 62
     0
100
AcDbCircle
 10
912
 20
760.6091230715
 40
1.724999427795
100
AcDbArc
 50
-149.999963435
 51
-119.8652990307
  0
ARC
  5
1E0
100
AcDbEntity
  8
パネル
  6
CONTINUOUS
 62
     0
100
AcDbCircle
 10
911.5471148604
 20
758.9189386715
 40
0.4501795172691
100
AcDbArc
 50
165.0000865389
 51
344.9999959258
  0
LINE
  5
1E1
100
AcDbEntity
  8
パネル
  6
CONTINUOUS
 62
     0
100
AcDbLine
 10
911.1343362894
 20
759.1170873105
 11
911.1124536457
 21
759.035419312
  0
LINE
  5
1E2
100
AcDbEntity
  8
パネル
  6
CONTINUOUS
 62
     0
100
AcDbLine
 10
912.0036691796
 20
758.8841508239
 11
911.9817865359
 21
758.8024828254
  0
LINE
  5
1E3
100
AcDbEntity
  8
パネル
  6
CONTINUOUS
 62
     0
100
AcDbLine
 10
910.2748589885
 20
760.6127289998
 11
910.193190915
 21
760.5908463869
  0
LINE
  5
1E4
100
AcDbEntity
  8
パネル
  6
CONTINUOUS
 62
     0
100
AcDbLine
 10
910.507788598
 20
759.7434278494
 11
910.4261205245
 21
759.7215452366
  0
LINE
  5
1E5
100
AcDbEntity
  8
パネル
  6
CONTINUOUS
 62
     0
100
AcDbLine
 10
912.8538531243
 20
757.4992111016
 11
913.326033129
 21
758.3124099985
  0
LINE
  5
1E6
100
AcDbEntity
  8
パネル
  6
CONTINUOUS
 62
     0
100
AcDbLine
 10
913.0013372498
 20
758.8747985992
 11
913.326033129
 21
758.3124099985
  0
ARC
  5
1E7
100
AcDbEntity
  8
パネル
  6
CONTINUOUS
 62
     0
100
AcDbCircle
 10
912.7415142674
 20
758.7247908559
 40
0.2999999523163
100
AcDbArc
 50
30.00012353658
 51
111.48051007
  0
ARC
  5
1E8
100
AcDbEntity
  8
パネル
  6
CONTINUOUS
 62
     0
100
AcDbCircle
 10
914.0026438678
 20
760.9091352929
 40
0.2999999523163
100
AcDbArc
 50
-171.4804200158
 51
-90.00003689751
  0
LINE
  5
1E9
100
AcDbEntity
  8
パネル
  6
CONTINUOUS
 62
     0
100
AcDbLine
 10
923.5
 20
756.9091230715
 11
921.15
 21
756.9091230715
  0
LINE
  5
1EA
100
AcDbEntity
  8
パネル
  6
CONTINUOUS
 62
     0
100
AcDbLine
 10
923
 20
755.6091230715
 11
921.15
 21
755.6091230715
  0
LINE
  5
1EB
100
AcDbEntity
  8
パネル
  6
CONTINUOUS
 62
     0
100
AcDbLine
 10
924
 20
750.6091230715
 11
921.75
 21
750.6091230715
  0
LINE
  5
1EC
100
AcDbEntity
  8
パネル
  6
CONTINUOUS
 62
     0
100
AcDbLine
 10
923.5
 20
752.1091230715
 11
921.75
 21
752.1091230715
  0
ARC
  5
1ED
100
AcDbEntity
  8
パネル
  6
CONTINUOUS
 62
     0
100
AcDbCircle
 10
921.75
 20
751.3591230715
 40
0.75
100
AcDbArc
 50
90
 51
270
  0
ARC
  5
1EE
100
AcDbEntity
  8
パネル
  6
CONTINUOUS
 62
     0
100
AcDbCircle
 10
921.15
 20
756.2591230715
 40
0.65
100
AcDbArc
 50
90
 51
270
  0
ARC
  5
1EF
100
AcDbEntity
  8
パネル
  6
CONTINUOUS
 62
     0
100
AcDbCircle
 10
924
 20
751.6091230715
 40
1
100
AcDbArc
 50
-90
 51
0
  0
ARC
  5
1F0
100
AcDbEntity
  8
パネル
  6
CONTINUOUS
 62
     0
100
AcDbCircle
 10
923
 20
755.1091230715
 40
0.5
100
AcDbArc
 50
0
 51
90
  0
LINE
  5
1F1
100
AcDbEntity
  8
パネル
  6
CONTINUOUS
 62
     0
100
AcDbLine
 10
923.5
 20
752.1091230715
 11
923.5
 21
755.1091230715
  0
LINE
  5
1F2
100
AcDbEntity
  8
パネル
  6
CONTINUOUS
 62
     0
100
AcDbLine
 10
925
 20
767.1091230715
 11
925
 21
751.6091230715
  0
LINE
  5
1F3
100
AcDbEntity
  8
パネル
  6
CONTINUOUS
 62
     0
100
AcDbLine
 10
923.5
 20
756.9091230715
 11
923.5
 21
765.0927515089
  0
ARC
  5
1F4
100
AcDbEntity
  8
パネル
  6
CONTINUOUS
 62
     0
100
AcDbCircle
 10
912
 20
760.6091230715
 40
1.724999427795
100
AcDbArc
 50
120.0000682114
 51
180.0000562207
  0
ARC
  5
1F5
100
AcDbEntity
  8
パネル
  6
CONTINUOUS
 62
     0
100
AcDbCircle
 10
912
 20
760.6091230715
 40
1.724999427795
100
AcDbArc
 50
8.51967037022
 51
30.00001425317
  0
LINE
  5
1F6
100
AcDbEntity
  8
パネル
  6
CONTINUOUS
 62
     0
100
AcDbLine
 10
914.6596084617
 20
760.6091230715
 11
915.1241760301
 21
761.4092116615
  0
LINE
  5
1F7
100
AcDbEntity
  8
パネル
  6
CONTINUOUS
 62
     0
100
AcDbLine
 10
866.5
 20
686.7052150167
 11
887.6377530641
 21
723.1091230715
  0
LINE
  5
1F8
100
AcDbEntity
  8
パネル
  6
CONTINUOUS
 62
     0
100
AcDbLine
 10
866.5
 20
686.7052150167
 11
866.5
 21
667.8591230715
  0
LINE
  5
1F9
100
AcDbEntity
  8
パネル
  6
CONTINUOUS
 62
     0
100
AcDbLine
 10
865
 20
687.1091230715
 11
865
 21
667.8591230715
  0
ARC
  5
1FA
100
AcDbEntity
  8
パネル
  6
CONTINUOUS
 62
     0
100
AcDbCircle
 10
865.75
 20
667.8591230715
 40
0.75
100
AcDbArc
 50
180
 51
360
  0
ARC
  5
1FB
100
AcDbEntity
  8
パネル
  6
CONTINUOUS
 62
     0
100
AcDbCircle
 10
902.8259083207
 20
727.1595696649
 40
0.5
100
AcDbArc
 50
-82.37784642083
 51
31.55859077417
  0
LINE
  5
1FC
100
AcDbEntity
  8
パネル
  6
CONTINUOUS
 62
     0
100
AcDbLine
 10
887.6369479992
 20
723.1091230715
 11
925
 21
728.1091230715
  0
ARC
  5
1FD
100
AcDbEntity
  8
パネル
  6
CONTINUOUS
 62
     0
100
AcDbCircle
 10
909.5750128682
 20
728.0627486326
 40
0.5
100
AcDbArc
 50
163.6857163843
 51
277.6221535792
  0
ARC
  5
1FE
100
AcDbEntity
  8
パネル
  6
CONTINUOUS
 62
     0
100
AcDbCircle
 10
906
 20
729.1091230715
 40
3.224998855591
100
AcDbArc
 50
-16.31428361578
 51
53.11627630232
  0
ARC
  5
1FF
100
AcDbEntity
  8
パネル
  6
CONTINUOUS
 62
     0
100
AcDbCircle
 10
906
 20
729.1091230715
 40
1.724999427795
100
AcDbArc
 50
-112.0397148985
 51
-52.03972688923
  0
ARC
  5
200
100
AcDbEntity
  8
パネル
  6
CONTINUOUS
 62
     0
100
AcDbCircle
 10
906
 20
729.1091230715
 40
3.224998855591
100
AcDbArc
 50
142.128030856
 51
211.5585907741
  0
ARC
  5
201
100
AcDbEntity
  8
パネル
  6
CONTINUOUS
 62
     0
100
AcDbCircle
 10
904.9458502283
 20
727.712235908
 40
0.4501795172691
100
AcDbArc
 50
142.9600428955
 51
322.9598976404
  0
LINE
  5
202
100
AcDbEntity
  8
パネル
  6
CONTINUOUS
 62
     0
100
AcDbLine
 10
905.3559945851
 20
727.5086902147
 11
905.3050562759
 21
727.4411896922
  0
LINE
  5
203
100
AcDbEntity
  8
パネル
  6
CONTINUOUS
 62
     0
100
AcDbLine
 10
903.4542358342
 20
731.0889469098
 11
904.3607481295
 21
731.2102582383
  0
ARC
  5
204
100
AcDbEntity
  8
パネル
  6
CONTINUOUS
 62
     0
100
AcDbCircle
 10
904.2631950276
 20
729.3235926641
 40
0.4501795172691
100
AcDbArc
 50
82.96021881108
 51
262.9601281971
  0
LINE
  5
205
100
AcDbEntity
  8
パネル
  6
CONTINUOUS
 62
     0
100
AcDbLine
 10
904.3607481295
 20
731.2102582383
 11
904.7681327311
 21
730.6880827912
  0
ARC
  5
206
100
AcDbEntity
  8
パネル
  6
CONTINUOUS
 62
     0
100
AcDbCircle
 10
906
 20
729.1091230715
 40
1.724999427795
100
AcDbArc
 50
136.4798872602
 51
157.9602311432
  0
LINE
  5
207
100
AcDbEntity
  8
パネル
  6
CONTINUOUS
 62
     0
100
AcDbLine
 10
904.4022401145
 20
729.7598303033
 11
904.3183276966
 21
729.7701924445
  0
LINE
  5
208
100
AcDbEntity
  8
パネル
  6
CONTINUOUS
 62
     0
100
AcDbLine
 10
904.2919376574
 20
728.8666207371
 11
904.2080271285
 21
728.8769831425
  0
ARC
  5
209
100
AcDbEntity
  8
パネル
  6
CONTINUOUS
 62
     0
100
AcDbCircle
 10
904.5316043206
 20
730.5035419193
 40
0.2999999523163
100
AcDbArc
 50
-43.52020312615
 51
37.96017999236
  0
LINE
  5
20A
100
AcDbEntity
  8
パネル
  6
CONTINUOUS
 62
     0
100
AcDbLine
 10
904.637602556
 20
728.0508181926
 11
904.5866642468
 21
727.9833176702
  0
ARC
  5
20B
100
AcDbEntity
  8
パネル
  6
CONTINUOUS
 62
     0
100
AcDbCircle
 10
906
 20
729.1091230715
 40
1.724999427795
100
AcDbArc
 50
-172.0397029079
 51
-142.0397089032
  0
ARC
  5
20C
100
AcDbEntity
  8
パネル
  6
CONTINUOUS
 62
     0
100
AcDbCircle
 10
907.3968720518
 20
728.0549711867
 40
0.4501795172691
100
AcDbArc
 50
-127.0397938632
 51
52.95975693824
  0
LINE
  5
20D
100
AcDbEntity
  8
パネル
  6
CONTINUOUS
 62
     0
100
AcDbLine
 10
907.0583156384
 20
727.746738206
 11
907.1258039125
 21
727.6958082951
  0
ARC
  5
20E
100
AcDbEntity
  8
パネル
  6
CONTINUOUS
 62
     0
100
AcDbCircle
 10
907.6111817543
 20
729.7917075793
 40
0.4501795172691
100
AcDbArc
 50
-67.0396965709
 51
112.9602128156
  0
LINE
  5
20F
100
AcDbEntity
  8
パネル
  6
CONTINUOUS
 62
     0
100
AcDbLine
 10
906.9932028595
 20
731.5625387118
 11
907.9356218369
 21
731.688655146
  0
LINE
  5
210
100
AcDbEntity
  8
パネル
  6
CONTINUOUS
 62
     0
100
AcDbLine
 10
906.751470662
 20
730.9654230224
 11
906.9932028595
 21
731.5625387118
  0
LINE
  5
211
100
AcDbEntity
  8
パネル
  6
CONTINUOUS
 62
     0
100
AcDbLine
 10
907.7088597787
 20
729.3443732129
 11
907.7867102601
 21
729.3773552475
  0
ARC
  5
212
100
AcDbEntity
  8
パネル
  6
CONTINUOUS
 62
     0
100
AcDbCircle
 10
906
 20
729.1091230715
 40
1.724999427795
100
AcDbArc
 50
38.08192811453
 51
59.44061608318
  0
LINE
  5
213
100
AcDbEntity
  8
パネル
  6
CONTINUOUS
 62
     0
100
AcDbLine
 10
907.3577767838
 20
730.1730708727
 11
907.4356272652
 21
730.2060529074
  0
LINE
  5
214
100
AcDbEntity
  8
パネル
  6
CONTINUOUS
 62
     0
100
AcDbLine
 10
907.6004274341
 20
728.4651082318
 11
907.6679157083
 21
728.4141783209
  0
ARC
  5
215
100
AcDbEntity
  8
パネル
  6
CONTINUOUS
 62
     0
100
AcDbCircle
 10
906
 20
729.1091230715
 40
1.724999427795
100
AcDbArc
 50
-22.03974654501
 51
8.09491785928
  0
ARC
  5
216
100
AcDbEntity
  8
パネル
  6
CONTINUOUS
 62
     0
100
AcDbCircle
 10
907.0295632732
 20
730.8528405871
 40
0.2999999523163
100
AcDbArc
 50
157.9603404261
 51
239.4407269601
  0
LINE
  5
217
100
AcDbEntity
  8
パネル
  6
CONTINUOUS
 62
     0
100
AcDbLine
 10
909.6413326866
 20
727.5671664682
 11
923.5
 21
729.4217616594
  0
LINE
  5
218
100
AcDbEntity
  8
パネル
  6
CONTINUOUS
 62
     0
100
AcDbLine
 10
921.75
 20
736.6091230715
 11
924
 21
736.6091230715
  0
LINE
  5
219
100
AcDbEntity
  8
パネル
  6
CONTINUOUS
 62
     0
100
AcDbLine
 10
921.75
 20
735.1091230715
 11
923.5
 21
735.1091230715
  0
ARC
  5
21A
100
AcDbEntity
  8
パネル
  6
CONTINUOUS
 62
     0
100
AcDbCircle
 10
921.75
 20
735.8591230715
 40
0.75
100
AcDbArc
 50
90
 51
270
  0
LINE
  5
21B
100
AcDbEntity
  8
パネル
  6
CONTINUOUS
 62
     0
100
AcDbLine
 10
923.5
 20
729.4217616594
 11
923.5
 21
735.1091230715
  0
LINE
  5
21C
100
AcDbEntity
  8
パネル
  6
CONTINUOUS
 62
     0
100
AcDbLine
 10
925
 20
728.1091230715
 11
925
 21
735.6091230715
  0
ARC
  5
21D
100
AcDbEntity
  8
パネル
  6
CONTINUOUS
 62
     0
100
AcDbCircle
 10
924
 20
735.6091230715
 40
1
100
AcDbArc
 50
0
 51
90
  0
LINE
  5
21E
100
AcDbEntity
  8
パネル
  6
CONTINUOUS
 62
     0
100
AcDbLine
 10
888.5905856127
 20
724.7501124608
 11
902.892228139
 21
726.6639875005
  0
ENDBLK
  5
21F
100
AcDbEntity
 67
     1
  8
パネル
100
AcDbBlockEnd
  0
BLOCK
  5
220
100
AcDbEntity
  8
パネル
100
AcDbBlockBegin
  2
BK7
 70
    64
 10
0
 20
0
  3
BK7
  1

  0
LINE
  5
221
100
AcDbEntity
  8
パネル
  6
CONTINUOUS
 62
     0
100
AcDbLine
 10
888.5905856127
 20
1074.750112461
 11
908.4101502457
 21
1108.883807107
  0
LINE
  5
222
100
AcDbEntity
  8
パネル
  6
CONTINUOUS
 62
     0
100
AcDbLine
 10
865
 20
1037.109123072
 11
910
 21
1114.609123072
  0
ARC
  5
223
100
AcDbEntity
  8
パネル
  6
CONTINUOUS
 62
     0
100
AcDbCircle
 10
912
 20
1110.609123072
 40
3.224998855591
100
AcDbArc
 50
-147.9558234016
 51
-74.64726282891
  0
ARC
  5
224
100
AcDbEntity
  8
パネル
  6
CONTINUOUS
 62
     0
100
AcDbCircle
 10
908.8425447191
 20
1108.632739348
 40
0.5
100
AcDbArc
 50
32.04417659848
 51
149.8586144482
  0
ARC
  5
225
100
AcDbEntity
  8
パネル
  6
CONTINUOUS
 62
     0
100
AcDbCircle
 10
912
 20
1110.609123072
 40
3.224998855591
100
AcDbArc
 50
14.36449172483
 51
45.58411488752
  0
ARC
  5
226
100
AcDbEntity
  8
パネル
  6
CONTINUOUS
 62
     0
100
AcDbCircle
 10
911.5470634813
 20
1112.299499952
 40
0.4501795172691
100
AcDbArc
 50
14.99982600544
 51
194.9996807502
  0
ARC
  5
227
100
AcDbEntity
  8
パネル
  6
CONTINUOUS
 62
     0
100
AcDbCircle
 10
912
 20
1110.609123072
 40
1.724999427795
100
AcDbArc
 50
60.00008020219
 51
90.00007420683
  0
LINE
  5
228
100
AcDbEntity
  8
パネル
  6
CONTINUOUS
 62
     0
100
AcDbLine
 10
911.134294705
 20
1112.101330378
 11
911.112407601
 21
1112.183012607
  0
LINE
  5
229
100
AcDbEntity
  8
パネル
  6
CONTINUOUS
 62
     0
100
AcDbLine
 10
912.0036221486
 20
1112.334267382
 11
911.9817350447
 21
1112.415949611
  0
ARC
  5
22A
100
AcDbEntity
  8
パネル
  6
CONTINUOUS
 62
     0
100
AcDbCircle
 10
913.2374293435
 20
1111.846562904
 40
0.4501795172691
100
AcDbArc
 50
-44.9999980792
 51
134.9999113073
  0
LINE
  5
22B
100
AcDbEntity
  8
パネル
  6
CONTINUOUS
 62
     0
100
AcDbLine
 10
912.8594552914
 20
1112.10499103
 11
912.9192399618
 21
1112.164775221
  0
LINE
  5
22C
100
AcDbEntity
  8
パネル
  6
CONTINUOUS
 62
     0
100
AcDbLine
 10
913.4958470915
 20
1111.468598512
 11
913.5556327155
 21
1111.528384354
  0
ARC
  5
22D
100
AcDbEntity
  8
パネル
  6
CONTINUOUS
 62
     0
100
AcDbCircle
 10
914.6069829118
 20
1113.269810308
 40
0.5
100
AcDbArc
 50
98.42696902133
 51
225.5841148874
  0
LINE
  5
22E
100
AcDbEntity
  8
パネル
  6
CONTINUOUS
 62
     0
100
AcDbLine
 10
923.5
 20
1116.609123072
 11
910
 21
1114.609123072
  0
LINE
  5
22F
100
AcDbEntity
  8
パネル
  6
CONTINUOUS
 62
     0
100
AcDbLine
 10
923.5
 20
1115.092751509
 11
914.5337085813
 21
1113.764412039
  0
LINE
  5
230
100
AcDbEntity
  8
パネル
  6
CONTINUOUS
 62
     0
100
AcDbLine
 10
925
 20
1117.109123072
 11
923.5
 21
1117.109123072
  0
LINE
  5
231
100
AcDbEntity
  8
パネル
  6
CONTINUOUS
 62
     0
100
AcDbLine
 10
923.5
 20
1116.609123072
 11
923.5
 21
1117.109123072
  0
LINE
  5
232
100
AcDbEntity
  8
パネル
  6
CONTINUOUS
 62
     0
100
AcDbLine
 10
914.6558080881
 20
1110.609133589
 11
914.0026509343
 21
1110.609133589
  0
ARC
  5
233
100
AcDbEntity
  8
パネル
  6
CONTINUOUS
 62
     0
100
AcDbCircle
 10
910.3096307486
 20
1110.156199767
 40
0.4501795172691
100
AcDbArc
 50
104.9999892466
 51
284.9995400484
  0
ARC
  5
234
100
AcDbEntity
  8
パネル
  6
CONTINUOUS
 62
     0
100
AcDbCircle
 10
912
 20
1110.609123072
 40
1.724999427795
100
AcDbArc
 50
-89.8782887755
 51
-68.51960080686
  0
ARC
  5
235
100
AcDbEntity
  8
パネル
  6
CONTINUOUS
 62
     0
100
AcDbCircle
 10
912
 20
1110.609123072
 40
1.724999427795
100
AcDbArc
 50
-149.999963435
 51
-119.8652990307
  0
ARC
  5
236
100
AcDbEntity
  8
パネル
  6
CONTINUOUS
 62
     0
100
AcDbCircle
 10
911.5471148604
 20
1108.918938672
 40
0.4501795172691
100
AcDbArc
 50
165.000086539
 51
344.9999959257
  0
LINE
  5
237
100
AcDbEntity
  8
パネル
  6
CONTINUOUS
 62
     0
100
AcDbLine
 10
911.1343362894
 20
1109.11708731
 11
911.1124536457
 21
1109.035419312
  0
LINE
  5
238
100
AcDbEntity
  8
パネル
  6
CONTINUOUS
 62
     0
100
AcDbLine
 10
912.0036691796
 20
1108.884150824
 11
911.9817865359
 21
1108.802482825
  0
LINE
  5
239
100
AcDbEntity
  8
パネル
  6
CONTINUOUS
 62
     0
100
AcDbLine
 10
910.2748589885
 20
1110.612729
 11
910.193190915
 21
1110.590846387
  0
LINE
  5
23A
100
AcDbEntity
  8
パネル
  6
CONTINUOUS
 62
     0
100
AcDbLine
 10
910.507788598
 20
1109.743427849
 11
910.4261205245
 21
1109.721545237
  0
LINE
  5
23B
100
AcDbEntity
  8
パネル
  6
CONTINUOUS
 62
     0
100
AcDbLine
 10
912.8538531243
 20
1107.499211102
 11
913.326033129
 21
1108.312409998
  0
LINE
  5
23C
100
AcDbEntity
  8
パネル
  6
CONTINUOUS
 62
     0
100
AcDbLine
 10
913.0013372498
 20
1108.874798599
 11
913.326033129
 21
1108.312409998
  0
ARC
  5
23D
100
AcDbEntity
  8
パネル
  6
CONTINUOUS
 62
     0
100
AcDbCircle
 10
912.7415142674
 20
1108.724790856
 40
0.2999999523163
100
AcDbArc
 50
30.00012353658
 51
111.48051007
  0
ARC
  5
23E
100
AcDbEntity
  8
パネル
  6
CONTINUOUS
 62
     0
100
AcDbCircle
 10
914.0026438678
 20
1110.909135293
 40
0.2999999523163
100
AcDbArc
 50
-171.4804200159
 51
-90.00003689751
  0
LINE
  5
23F
100
AcDbEntity
  8
パネル
  6
CONTINUOUS
 62
     0
100
AcDbLine
 10
923.5
 20
1106.909123072
 11
921.15
 21
1106.909123072
  0
LINE
  5
240
100
AcDbEntity
  8
パネル
  6
CONTINUOUS
 62
     0
100
AcDbLine
 10
923
 20
1105.609123072
 11
921.15
 21
1105.609123072
  0
LINE
  5
241
100
AcDbEntity
  8
パネル
  6
CONTINUOUS
 62
     0
100
AcDbLine
 10
924
 20
1100.609123072
 11
921.75
 21
1100.609123072
  0
LINE
  5
242
100
AcDbEntity
  8
パネル
  6
CONTINUOUS
 62
     0
100
AcDbLine
 10
923.5
 20
1102.109123072
 11
921.75
 21
1102.109123072
  0
ARC
  5
243
100
AcDbEntity
  8
パネル
  6
CONTINUOUS
 62
     0
100
AcDbCircle
 10
921.75
 20
1101.359123072
 40
0.75
100
AcDbArc
 50
90
 51
270
  0
ARC
  5
244
100
AcDbEntity
  8
パネル
  6
CONTINUOUS
 62
     0
100
AcDbCircle
 10
921.15
 20
1106.259123072
 40
0.65
100
AcDbArc
 50
90
 51
270
  0
ARC
  5
245
100
AcDbEntity
  8
パネル
  6
CONTINUOUS
 62
     0
100
AcDbCircle
 10
924
 20
1101.609123072
 40
1
100
AcDbArc
 50
-90
 51
0
  0
ARC
  5
246
100
AcDbEntity
  8
パネル
  6
CONTINUOUS
 62
     0
100
AcDbCircle
 10
923
 20
1105.109123072
 40
0.5
100
AcDbArc
 50
0
 51
90
  0
LINE
  5
247
100
AcDbEntity
  8
パネル
  6
CONTINUOUS
 62
     0
100
AcDbLine
 10
923.5
 20
1102.109123072
 11
923.5
 21
1105.109123072
  0
LINE
  5
248
100
AcDbEntity
  8
パネル
  6
CONTINUOUS
 62
     0
100
AcDbLine
 10
925
 20
1117.109123072
 11
925
 21
1101.609123072
  0
LINE
  5
249
100
AcDbEntity
  8
パネル
  6
CONTINUOUS
 62
     0
100
AcDbLine
 10
923.5
 20
1106.909123072
 11
923.5
 21
1115.092751509
  0
ARC
  5
24A
100
AcDbEntity
  8
パネル
  6
CONTINUOUS
 62
     0
100
AcDbCircle
 10
912
 20
1110.609123072
 40
1.724999427795
100
AcDbArc
 50
120.0000682114
 51
180.0000562207
  0
ARC
  5
24B
100
AcDbEntity
  8
パネル
  6
CONTINUOUS
 62
     0
100
AcDbCircle
 10
912
 20
1110.609123072
 40
1.724999427795
100
AcDbArc
 50
8.51967037022
 51
30.00001425317
  0
LINE
  5
24C
100
AcDbEntity
  8
パネル
  6
CONTINUOUS
 62
     0
100
AcDbLine
 10
914.6596084617
 20
1110.609123072
 11
915.1241760301
 21
1111.409211661
  0
LINE
  5
24D
100
AcDbEntity
  8
パネル
  6
CONTINUOUS
 62
     0
100
AcDbLine
 10
866.5
 20
1036.705215017
 11
887.6377530641
 21
1073.109123072
  0
LINE
  5
24E
100
AcDbEntity
  8
パネル
  6
CONTINUOUS
 62
     0
100
AcDbLine
 10
866.5
 20
1036.705215017
 11
866.5
 21
1017.859123072
  0
LINE
  5
24F
100
AcDbEntity
  8
パネル
  6
CONTINUOUS
 62
     0
100
AcDbLine
 10
865
 20
1037.109123072
 11
865
 21
1017.859123072
  0
ARC
  5
250
100
AcDbEntity
  8
パネル
  6
CONTINUOUS
 62
     0
100
AcDbCircle
 10
865.75
 20
1017.859123072
 40
0.75
100
AcDbArc
 50
180
 51
360
  0
ARC
  5
251
100
AcDbEntity
  8
パネル
  6
CONTINUOUS
 62
     0
100
AcDbCircle
 10
902.8259083207
 20
1077.159569665
 40
0.5
100
AcDbArc
 50
-82.37784642083
 51
31.55859077414
  0
LINE
  5
252
100
AcDbEntity
  8
パネル
  6
CONTINUOUS
 62
     0
100
AcDbLine
 10
887.6369479992
 20
1073.109123072
 11
925
 21
1078.109123072
  0
ARC
  5
253
100
AcDbEntity
  8
パネル
  6
CONTINUOUS
 62
     0
100
AcDbCircle
 10
909.5750128682
 20
1078.062748633
 40
0.5
100
AcDbArc
 50
163.6857163843
 51
277.6221535792
  0
ARC
  5
254
100
AcDbEntity
  8
パネル
  6
CONTINUOUS
 62
     0
100
AcDbCircle
 10
906
 20
1079.109123072
 40
3.224998855591
100
AcDbArc
 50
-16.31428361578
 51
53.11627630232
  0
ARC
  5
255
100
AcDbEntity
  8
パネル
  6
CONTINUOUS
 62
     0
100
AcDbCircle
 10
906
 20
1079.109123072
 40
1.724999427795
100
AcDbArc
 50
-112.0397148985
 51
-52.03972688923
  0
ARC
  5
256
100
AcDbEntity
  8
パネル
  6
CONTINUOUS
 62
     0
100
AcDbCircle
 10
906
 20
1079.109123072
 40
3.224998855591
100
AcDbArc
 50
142.128030856
 51
211.5585907741
  0
ARC
  5
257
100
AcDbEntity
  8
パネル
  6
CONTINUOUS
 62
     0
100
AcDbCircle
 10
904.9458502283
 20
1077.712235908
 40
0.4501795172691
100
AcDbArc
 50
142.9600428955
 51
322.9598976404
  0
LINE
  5
258
100
AcDbEntity
  8
パネル
  6
CONTINUOUS
 62
     0
100
AcDbLine
 10
905.3559945851
 20
1077.508690215
 11
905.3050562759
 21
1077.441189692
  0
LINE
  5
259
100
AcDbEntity
  8
パネル
  6
CONTINUOUS
 62
     0
100
AcDbLine
 10
903.4542358342
 20
1081.08894691
 11
904.3607481295
 21
1081.210258238
  0
ARC
  5
25A
100
AcDbEntity
  8
パネル
  6
CONTINUOUS
 62
     0
100
AcDbCircle
 10
904.2631950276
 20
1079.323592664
 40
0.4501795172691
100
AcDbArc
 50
82.96021881108
 51
262.9601281971
  0
LINE
  5
25B
100
AcDbEntity
  8
パネル
  6
CONTINUOUS
 62
     0
100
AcDbLine
 10
904.3607481295
 20
1081.210258238
 11
904.7681327311
 21
1080.688082791
  0
ARC
  5
25C
100
AcDbEntity
  8
パネル
  6
CONTINUOUS
 62
     0
100
AcDbCircle
 10
906
 20
1079.109123072
 40
1.724999427795
100
AcDbArc
 50
136.4798872602
 51
157.9602311432
  0
LINE
  5
25D
100
AcDbEntity
  8
パネル
  6
CONTINUOUS
 62
     0
100
AcDbLine
 10
904.4022401145
 20
1079.759830303
 11
904.3183276966
 21
1079.770192445
  0
LINE
  5
25E
100
AcDbEntity
  8
パネル
  6
CONTINUOUS
 62
     0
100
AcDbLine
 10
904.2919376574
 20
1078.866620737
 11
904.2080271285
 21
1078.876983142
  0
ARC
  5
25F
100
AcDbEntity
  8
パネル
  6
CONTINUOUS
 62
     0
100
AcDbCircle
 10
904.5316043206
 20
1080.503541919
 40
0.2999999523163
100
AcDbArc
 50
-43.52020312615
 51
37.96017999236
  0
LINE
  5
260
100
AcDbEntity
  8
パネル
  6
CONTINUOUS
 62
     0
100
AcDbLine
 10
904.637602556
 20
1078.050818193
 11
904.5866642468
 21
1077.98331767
  0
ARC
  5
261
100
AcDbEntity
  8
パネル
  6
CONTINUOUS
 62
     0
100
AcDbCircle
 10
906
 20
1079.109123072
 40
1.724999427795
100
AcDbArc
 50
-172.0397029079
 51
-142.0397089033
  0
ARC
  5
262
100
AcDbEntity
  8
パネル
  6
CONTINUOUS
 62
     0
100
AcDbCircle
 10
907.3968720518
 20
1078.054971187
 40
0.4501795172691
100
AcDbArc
 50
-127.0397938632
 51
52.95975693824
  0
LINE
  5
263
100
AcDbEntity
  8
パネル
  6
CONTINUOUS
 62
     0
100
AcDbLine
 10
907.0583156384
 20
1077.746738206
 11
907.1258039125
 21
1077.695808295
  0
ARC
  5
264
100
AcDbEntity
  8
パネル
  6
CONTINUOUS
 62
     0
100
AcDbCircle
 10
907.6111817543
 20
1079.791707579
 40
0.4501795172691
100
AcDbArc
 50
-67.03969657088
 51
112.9602128155
  0
LINE
  5
265
100
AcDbEntity
  8
パネル
  6
CONTINUOUS
 62
     0
100
AcDbLine
 10
906.9932028595
 20
1081.562538712
 11
907.9356218369
 21
1081.688655146
  0
LINE
  5
266
100
AcDbEntity
  8
パネル
  6
CONTINUOUS
 62
     0
100
AcDbLine
 10
906.751470662
 20
1080.965423022
 11
906.9932028595
 21
1081.562538712
  0
LINE
  5
267
100
AcDbEntity
  8
パネル
  6
CONTINUOUS
 62
     0
100
AcDbLine
 10
907.7088597787
 20
1079.344373213
 11
907.7867102601
 21
1079.377355248
  0
ARC
  5
268
100
AcDbEntity
  8
パネル
  6
CONTINUOUS
 62
     0
100
AcDbCircle
 10
906
 20
1079.109123072
 40
1.724999427795
100
AcDbArc
 50
38.08192811453
 51
59.44061608318
  0
LINE
  5
269
100
AcDbEntity
  8
パネル
  6
CONTINUOUS
 62
     0
100
AcDbLine
 10
907.3577767838
 20
1080.173070873
 11
907.4356272652
 21
1080.206052907
  0
LINE
  5
26A
100
AcDbEntity
  8
パネル
  6
CONTINUOUS
 62
     0
100
AcDbLine
 10
907.6004274341
 20
1078.465108232
 11
907.6679157083
 21
1078.414178321
  0
ARC
  5
26B
100
AcDbEntity
  8
パネル
  6
CONTINUOUS
 62
     0
100
AcDbCircle
 10
906
 20
1079.109123072
 40
1.724999427795
100
AcDbArc
 50
-22.03974654501
 51
8.094917859288
  0
ARC
  5
26C
100
AcDbEntity
  8
パネル
  6
CONTINUOUS
 62
     0
100
AcDbCircle
 10
907.0295632732
 20
1080.852840587
 40
0.2999999523163
100
AcDbArc
 50
157.9603404262
 51
239.4407269601
  0
LINE
  5
26D
100
AcDbEntity
  8
パネル
  6
CONTINUOUS
 62
     0
100
AcDbLine
 10
909.6413326866
 20
1077.567166468
 11
923.5
 21
1079.421761659
  0
LINE
  5
26E
100
AcDbEntity
  8
パネル
  6
CONTINUOUS
 62
     0
100
AcDbLine
 10
921.75
 20
1086.609123072
 11
924
 21
1086.609123072
  0
LINE
  5
26F
100
AcDbEntity
  8
パネル
  6
CONTINUOUS
 62
     0
100
AcDbLine
 10
921.75
 20
1085.109123072
 11
923.5
 21
1085.109123072
  0
ARC
  5
270
100
AcDbEntity
  8
パネル
  6
CONTINUOUS
 62
     0
100
AcDbCircle
 10
921.75
 20
1085.859123072
 40
0.75
100
AcDbArc
 50
90
 51
270
  0
LINE
  5
271
100
AcDbEntity
  8
パネル
  6
CONTINUOUS
 62
     0
100
AcDbLine
 10
923.5
 20
1079.421761659
 11
923.5
 21
1085.109123072
  0
LINE
  5
272
100
AcDbEntity
  8
パネル
  6
CONTINUOUS
 62
     0
100
AcDbLine
 10
925
 20
1078.109123072
 11
925
 21
1085.609123072
  0
ARC
  5
273
100
AcDbEntity
  8
パネル
  6
CONTINUOUS
 62
     0
100
AcDbCircle
 10
924
 20
1085.609123072
 40
1
100
AcDbArc
 50
0
 51
90
  0
LINE
  5
274
100
AcDbEntity
  8
パネル
  6
CONTINUOUS
 62
     0
100
AcDbLine
 10
888.5905856127
 20
1074.750112461
 11
902.892228139
 21
1076.6639875
  0
ENDBLK
  5
275
100
AcDbEntity
 67
     1
  8
パネル
100
AcDbBlockEnd
  0
BLOCK
  5
276
100
AcDbEntity
  8
パネル
100
AcDbBlockBegin
  2
BK8
 70
    64
 10
0
 20
0
  3
BK8
  1

  0
LINE
  5
277
100
AcDbEntity
  8
パネル
  6
CONTINUOUS
 62
     0
100
AcDbLine
 10
888.5905856127
 20
899.7501124608
 11
908.4101502457
 21
933.8838071066
  0
LINE
  5
278
100
AcDbEntity
  8
パネル
  6
CONTINUOUS
 62
     0
100
AcDbLine
 10
865
 20
862.1091230715
 11
910
 21
939.6091230715
  0
ARC
  5
279
100
AcDbEntity
  8
パネル
  6
CONTINUOUS
 62
     0
100
AcDbCircle
 10
912
 20
935.6091230715
 40
3.224998855591
100
AcDbArc
 50
-147.9558234016
 51
-74.64726282891
  0
ARC
  5
27A
100
AcDbEntity
  8
パネル
  6
CONTINUOUS
 62
     0
100
AcDbCircle
 10
908.8425447191
 20
933.6327393479
 40
0.5
100
AcDbArc
 50
32.0441765985
 51
149.8586144481
  0
ARC
  5
27B
100
AcDbEntity
  8
パネル
  6
CONTINUOUS
 62
     0
100
AcDbCircle
 10
912
 20
935.6091230715
 40
3.224998855591
100
AcDbArc
 50
14.36449172481
 51
45.58411488752
  0
ARC
  5
27C
100
AcDbEntity
  8
パネル
  6
CONTINUOUS
 62
     0
100
AcDbCircle
 10
911.5470634813
 20
937.2994999523
 40
0.4501795172691
100
AcDbArc
 50
14.99982600544
 51
194.9996807502
  0
ARC
  5
27D
100
AcDbEntity
  8
パネル
  6
CONTINUOUS
 62
     0
100
AcDbCircle
 10
912
 20
935.6091230715
 40
1.724999427795
100
AcDbArc
 50
60.00008020219
 51
90.00007420683
  0
LINE
  5
27E
100
AcDbEntity
  8
パネル
  6
CONTINUOUS
 62
     0
100
AcDbLine
 10
911.134294705
 20
937.1013303782
 11
911.112407601
 21
937.1830126073
  0
LINE
  5
27F
100
AcDbEntity
  8
パネル
  6
CONTINUOUS
 62
     0
100
AcDbLine
 10
912.0036221486
 20
937.3342673821
 11
911.9817350447
 21
937.4159496112
  0
ARC
  5
280
100
AcDbEntity
  8
パネル
  6
CONTINUOUS
 62
     0
100
AcDbCircle
 10
913.2374293435
 20
936.8465629036
 40
0.4501795172691
100
AcDbArc
 50
-44.99999807921
 51
134.9999113073
  0
LINE
  5
281
100
AcDbEntity
  8
パネル
  6
CONTINUOUS
 62
     0
100
AcDbLine
 10
912.8594552914
 20
937.1049910305
 11
912.9192399618
 21
937.1647752214
  0
LINE
  5
282
100
AcDbEntity
  8
パネル
  6
CONTINUOUS
 62
     0
100
AcDbLine
 10
913.4958470915
 20
936.4685985117
 11
913.5556327155
 21
936.5283843544
  0
ARC
  5
283
100
AcDbEntity
  8
パネル
  6
CONTINUOUS
 62
     0
100
AcDbCircle
 10
914.6069829118
 20
938.2698103083
 40
0.5
100
AcDbArc
 50
98.42696902133
 51
225.5841148875
  0
LINE
  5
284
100
AcDbEntity
  8
パネル
  6
CONTINUOUS
 62
     0
100
AcDbLine
 10
923.5
 20
941.6091230715
 11
910
 21
939.6091230715
  0
LINE
  5
285
100
AcDbEntity
  8
パネル
  6
CONTINUOUS
 62
     0
100
AcDbLine
 10
923.5
 20
940.0927515089
 11
914.5337085813
 21
938.7644120394
  0
LINE
  5
286
100
AcDbEntity
  8
パネル
  6
CONTINUOUS
 62
     0
100
AcDbLine
 10
925
 20
942.1091230715
 11
923.5
 21
942.1091230715
  0
LINE
  5
287
100
AcDbEntity
  8
パネル
  6
CONTINUOUS
 62
     0
100
AcDbLine
 10
923.5
 20
941.6091230715
 11
923.5
 21
942.1091230715
  0
LINE
  5
288
100
AcDbEntity
  8
パネル
  6
CONTINUOUS
 62
     0
100
AcDbLine
 10
914.6558080881
 20
935.609133589
 11
914.0026509343
 21
935.609133589
  0
ARC
  5
289
100
AcDbEntity
  8
パネル
  6
CONTINUOUS
 62
     0
100
AcDbCircle
 10
910.3096307486
 20
935.1561997674
 40
0.4501795172691
100
AcDbArc
 50
104.9999892466
 51
284.9995400484
  0
ARC
  5
28A
100
AcDbEntity
  8
パネル
  6
CONTINUOUS
 62
     0
100
AcDbCircle
 10
912
 20
935.6091230715
 40
1.724999427795
100
AcDbArc
 50
-89.8782887755
 51
-68.51960080686
  0
ARC
  5
28B
100
AcDbEntity
  8
パネル
  6
CONTINUOUS
 62
     0
100
AcDbCircle
 10
912
 20
935.6091230715
 40
1.724999427795
100
AcDbArc
 50
-149.999963435
 51
-119.8652990307
  0
ARC
  5
28C
100
AcDbEntity
  8
パネル
  6
CONTINUOUS
 62
     0
100
AcDbCircle
 10
911.5471148604
 20
933.9189386715
 40
0.4501795172691
100
AcDbArc
 50
165.0000865389
 51
344.9999959258
  0
LINE
  5
28D
100
AcDbEntity
  8
パネル
  6
CONTINUOUS
 62
     0
100
AcDbLine
 10
911.1343362894
 20
934.1170873105
 11
911.1124536457
 21
934.035419312
  0
LINE
  5
28E
100
AcDbEntity
  8
パネル
  6
CONTINUOUS
 62
     0
100
AcDbLine
 10
912.0036691796
 20
933.8841508239
 11
911.9817865359
 21
933.8024828254
  0
LINE
  5
28F
100
AcDbEntity
  8
パネル
  6
CONTINUOUS
 62
     0
100
AcDbLine
 10
910.2748589885
 20
935.6127289998
 11
910.193190915
 21
935.5908463869
  0
LINE
  5
290
100
AcDbEntity
  8
パネル
  6
CONTINUOUS
 62
     0
100
AcDbLine
 10
910.507788598
 20
934.7434278494
 11
910.4261205245
 21
934.7215452366
  0
LINE
  5
291
100
AcDbEntity
  8
パネル
  6
CONTINUOUS
 62
     0
100
AcDbLine
 10
912.8538531243
 20
932.4992111016
 11
913.326033129
 21
933.3124099985
  0
LINE
  5
292
100
AcDbEntity
  8
パネル
  6
CONTINUOUS
 62
     0
100
AcDbLine
 10
913.0013372498
 20
933.8747985992
 11
913.326033129
 21
933.3124099985
  0
ARC
  5
293
100
AcDbEntity
  8
パネル
  6
CONTINUOUS
 62
     0
100
AcDbCircle
 10
912.7415142674
 20
933.7247908559
 40
0.2999999523163
100
AcDbArc
 50
30.00012353658
 51
111.48051007
  0
ARC
  5
294
100
AcDbEntity
  8
パネル
  6
CONTINUOUS
 62
     0
100
AcDbCircle
 10
914.0026438678
 20
935.9091352929
 40
0.2999999523163
100
AcDbArc
 50
-171.4804200155
 51
-90.00003689751
  0
LINE
  5
295
100
AcDbEntity
  8
パネル
  6
CONTINUOUS
 62
     0
100
AcDbLine
 10
923.5
 20
931.9091230715
 11
921.15
 21
931.9091230715
  0
LINE
  5
296
100
AcDbEntity
  8
パネル
  6
CONTINUOUS
 62
     0
100
AcDbLine
 10
923
 20
930.6091230715
 11
921.15
 21
930.6091230715
  0
LINE
  5
297
100
AcDbEntity
  8
パネル
  6
CONTINUOUS
 62
     0
100
AcDbLine
 10
924
 20
925.6091230715
 11
921.75
 21
925.6091230715
  0
LINE
  5
298
100
AcDbEntity
  8
パネル
  6
CONTINUOUS
 62
     0
100
AcDbLine
 10
923.5
 20
927.1091230715
 11
921.75
 21
927.1091230715
  0
ARC
  5
299
100
AcDbEntity
  8
パネル
  6
CONTINUOUS
 62
     0
100
AcDbCircle
 10
921.75
 20
926.3591230715
 40
0.75
100
AcDbArc
 50
90
 51
270
  0
ARC
  5
29A
100
AcDbEntity
  8
パネル
  6
CONTINUOUS
 62
     0
100
AcDbCircle
 10
921.15
 20
931.2591230715
 40
0.65
100
AcDbArc
 50
90
 51
270
  0
ARC
  5
29B
100
AcDbEntity
  8
パネル
  6
CONTINUOUS
 62
     0
100
AcDbCircle
 10
924
 20
926.6091230715
 40
1
100
AcDbArc
 50
-90
 51
0
  0
ARC
  5
29C
100
AcDbEntity
  8
パネル
  6
CONTINUOUS
 62
     0
100
AcDbCircle
 10
923
 20
930.1091230715
 40
0.5
100
AcDbArc
 50
0
 51
90
  0
LINE
  5
29D
100
AcDbEntity
  8
パネル
  6
CONTINUOUS
 62
     0
100
AcDbLine
 10
923.5
 20
927.1091230715
 11
923.5
 21
930.1091230715
  0
LINE
  5
29E
100
AcDbEntity
  8
パネル
  6
CONTINUOUS
 62
     0
100
AcDbLine
 10
925
 20
942.1091230715
 11
925
 21
926.6091230715
  0
LINE
  5
29F
100
AcDbEntity
  8
パネル
  6
CONTINUOUS
 62
     0
100
AcDbLine
 10
923.5
 20
931.9091230715
 11
923.5
 21
940.0927515089
  0
ARC
  5
2A0
100
AcDbEntity
  8
パネル
  6
CONTINUOUS
 62
     0
100
AcDbCircle
 10
912
 20
935.6091230715
 40
1.724999427795
100
AcDbArc
 50
120.0000682114
 51
180.0000562207
  0
ARC
  5
2A1
100
AcDbEntity
  8
パネル
  6
CONTINUOUS
 62
     0
100
AcDbCircle
 10
912
 20
935.6091230715
 40
1.724999427795
100
AcDbArc
 50
8.519670370185
 51
30.00001425318
  0
LINE
  5
2A2
100
AcDbEntity
  8
パネル
  6
CONTINUOUS
 62
     0
100
AcDbLine
 10
914.6596084617
 20
935.6091230715
 11
915.1241760301
 21
936.4092116615
  0
LINE
  5
2A3
100
AcDbEntity
  8
パネル
  6
CONTINUOUS
 62
     0
100
AcDbLine
 10
866.5
 20
861.7052150167
 11
887.6377530641
 21
898.1091230715
  0
LINE
  5
2A4
100
AcDbEntity
  8
パネル
  6
CONTINUOUS
 62
     0
100
AcDbLine
 10
866.5
 20
861.7052150167
 11
866.5
 21
842.8591230715
  0
LINE
  5
2A5
100
AcDbEntity
  8
パネル
  6
CONTINUOUS
 62
     0
100
AcDbLine
 10
865
 20
862.1091230715
 11
865
 21
842.8591230715
  0
ARC
  5
2A6
100
AcDbEntity
  8
パネル
  6
CONTINUOUS
 62
     0
100
AcDbCircle
 10
865.75
 20
842.8591230715
 40
0.75
100
AcDbArc
 50
180
 51
360
  0
ARC
  5
2A7
100
AcDbEntity
  8
パネル
  6
CONTINUOUS
 62
     0
100
AcDbCircle
 10
902.8259083207
 20
902.1595696649
 40
0.5
100
AcDbArc
 50
-82.37784642083
 51
31.55859077417
  0
LINE
  5
2A8
100
AcDbEntity
  8
パネル
  6
CONTINUOUS
 62
     0
100
AcDbLine
 10
887.6369479992
 20
898.1091230715
 11
925
 21
903.1091230715
  0
ARC
  5
2A9
100
AcDbEntity
  8
パネル
  6
CONTINUOUS
 62
     0
100
AcDbCircle
 10
909.5750128682
 20
903.0627486326
 40
0.5
100
AcDbArc
 50
163.6857163845
 51
277.6221535792
  0
ARC
  5
2AA
100
AcDbEntity
  8
パネル
  6
CONTINUOUS
 62
     0
100
AcDbCircle
 10
906
 20
904.1091230715
 40
3.224998855591
100
AcDbArc
 50
-16.31428361578
 51
53.11627630232
  0
ARC
  5
2AB
100
AcDbEntity
  8
パネル
  6
CONTINUOUS
 62
     0
100
AcDbCircle
 10
906
 20
904.1091230715
 40
1.724999427795
100
AcDbArc
 50
-112.0397148985
 51
-52.03972688923
  0
ARC
  5
2AC
100
AcDbEntity
  8
パネル
  6
CONTINUOUS
 62
     0
100
AcDbCircle
 10
906
 20
904.1091230715
 40
3.224998855591
100
AcDbArc
 50
142.128030856
 51
211.5585907741
  0
ARC
  5
2AD
100
AcDbEntity
  8
パネル
  6
CONTINUOUS
 62
     0
100
AcDbCircle
 10
904.9458502283
 20
902.712235908
 40
0.4501795172691
100
AcDbArc
 50
142.9600428955
 51
322.9598976404
  0
LINE
  5
2AE
100
AcDbEntity
  8
パネル
  6
CONTINUOUS
 62
     0
100
AcDbLine
 10
905.3559945851
 20
902.5086902147
 11
905.3050562759
 21
902.4411896922
  0
LINE
  5
2AF
100
AcDbEntity
  8
パネル
  6
CONTINUOUS
 62
     0
100
AcDbLine
 10
903.4542358342
 20
906.0889469098
 11
904.3607481295
 21
906.2102582383
  0
ARC
  5
2B0
100
AcDbEntity
  8
パネル
  6
CONTINUOUS
 62
     0
100
AcDbCircle
 10
904.2631950276
 20
904.3235926641
 40
0.4501795172691
100
AcDbArc
 50
82.96021881109
 51
262.9601281971
  0
LINE
  5
2B1
100
AcDbEntity
  8
パネル
  6
CONTINUOUS
 62
     0
100
AcDbLine
 10
904.3607481295
 20
906.2102582383
 11
904.7681327311
 21
905.6880827912
  0
ARC
  5
2B2
100
AcDbEntity
  8
パネル
  6
CONTINUOUS
 62
     0
100
AcDbCircle
 10
906
 20
904.1091230715
 40
1.724999427795
100
AcDbArc
 50
136.4798872602
 51
157.9602311432
  0
LINE
  5
2B3
100
AcDbEntity
  8
パネル
  6
CONTINUOUS
 62
     0
100
AcDbLine
 10
904.4022401145
 20
904.7598303033
 11
904.3183276966
 21
904.7701924445
  0
LINE
  5
2B4
100
AcDbEntity
  8
パネル
  6
CONTINUOUS
 62
     0
100
AcDbLine
 10
904.2919376574
 20
903.8666207371
 11
904.2080271285
 21
903.8769831425
  0
ARC
  5
2B5
100
AcDbEntity
  8
パネル
  6
CONTINUOUS
 62
     0
100
AcDbCircle
 10
904.5316043206
 20
905.5035419193
 40
0.2999999523163
100
AcDbArc
 50
-43.52020312615
 51
37.96017999236
  0
LINE
  5
2B6
100
AcDbEntity
  8
パネル
  6
CONTINUOUS
 62
     0
100
AcDbLine
 10
904.637602556
 20
903.0508181926
 11
904.5866642468
 21
902.9833176702
  0
ARC
  5
2B7
100
AcDbEntity
  8
パネル
  6
CONTINUOUS
 62
     0
100
AcDbCircle
 10
906
 20
904.1091230715
 40
1.724999427795
100
AcDbArc
 50
-172.0397029079
 51
-142.0397089032
  0
ARC
  5
2B8
100
AcDbEntity
  8
パネル
  6
CONTINUOUS
 62
     0
100
AcDbCircle
 10
907.3968720518
 20
903.0549711867
 40
0.4501795172691
100
AcDbArc
 50
-127.0397938632
 51
52.95975693824
  0
LINE
  5
2B9
100
AcDbEntity
  8
パネル
  6
CONTINUOUS
 62
     0
100
AcDbLine
 10
907.0583156384
 20
902.746738206
 11
907.1258039125
 21
902.6958082951
  0
ARC
  5
2BA
100
AcDbEntity
  8
パネル
  6
CONTINUOUS
 62
     0
100
AcDbCircle
 10
907.6111817543
 20
904.7917075793
 40
0.4501795172691
100
AcDbArc
 50
-67.03969657089
 51
112.9602128155
  0
LINE
  5
2BB
100
AcDbEntity
  8
パネル
  6
CONTINUOUS
 62
     0
100
AcDbLine
 10
906.9932028595
 20
906.5625387118
 11
907.9356218369
 21
906.688655146
  0
LINE
  5
2BC
100
AcDbEntity
  8
パネル
  6
CONTINUOUS
 62
     0
100
AcDbLine
 10
906.751470662
 20
905.9654230224
 11
906.9932028595
 21
906.5625387118
  0
LINE
  5
2BD
100
AcDbEntity
  8
パネル
  6
CONTINUOUS
 62
     0
100
AcDbLine
 10
907.7088597787
 20
904.3443732129
 11
907.7867102601
 21
904.3773552475
  0
ARC
  5
2BE
100
AcDbEntity
  8
パネル
  6
CONTINUOUS
 62
     0
100
AcDbCircle
 10
906
 20
904.1091230715
 40
1.724999427795
100
AcDbArc
 50
38.08192811452
 51
59.44061608318
  0
LINE
  5
2BF
100
AcDbEntity
  8
パネル
  6
CONTINUOUS
 62
     0
100
AcDbLine
 10
907.3577767838
 20
905.1730708727
 11
907.4356272652
 21
905.2060529074
  0
LINE
  5
2C0
100
AcDbEntity
  8
パネル
  6
CONTINUOUS
 62
     0
100
AcDbLine
 10
907.6004274341
 20
903.4651082318
 11
907.6679157083
 21
903.4141783209
  0
ARC
  5
2C1
100
AcDbEntity
  8
パネル
  6
CONTINUOUS
 62
     0
100
AcDbCircle
 10
906
 20
904.1091230715
 40
1.724999427795
100
AcDbArc
 50
-22.03974654503
 51
8.09491785928
  0
ARC
  5
2C2
100
AcDbEntity
  8
パネル
  6
CONTINUOUS
 62
     0
100
AcDbCircle
 10
907.0295632732
 20
905.8528405871
 40
0.2999999523163
100
AcDbArc
 50
157.9603404261
 51
239.44072696
  0
LINE
  5
2C3
100
AcDbEntity
  8
パネル
  6
CONTINUOUS
 62
     0
100
AcDbLine
 10
909.6413326866
 20
902.5671664682
 11
923.5
 21
904.4217616594
  0
LINE
  5
2C4
100
AcDbEntity
  8
パネル
  6
CONTINUOUS
 62
     0
100
AcDbLine
 10
921.75
 20
911.6091230715
 11
924
 21
911.6091230715
  0
LINE
  5
2C5
100
AcDbEntity
  8
パネル
  6
CONTINUOUS
 62
     0
100
AcDbLine
 10
921.75
 20
910.1091230715
 11
923.5
 21
910.1091230715
  0
ARC
  5
2C6
100
AcDbEntity
  8
パネル
  6
CONTINUOUS
 62
     0
100
AcDbCircle
 10
921.75
 20
910.8591230715
 40
0.75
100
AcDbArc
 50
90
 51
270
  0
LINE
  5
2C7
100
AcDbEntity
  8
パネル
  6
CONTINUOUS
 62
     0
100
AcDbLine
 10
923.5
 20
904.4217616594
 11
923.5
 21
910.1091230715
  0
LINE
  5
2C8
100
AcDbEntity
  8
パネル
  6
CONTINUOUS
 62
     0
100
AcDbLine
 10
925
 20
903.1091230715
 11
925
 21
910.6091230715
  0
ARC
  5
2C9
100
AcDbEntity
  8
パネル
  6
CONTINUOUS
 62
     0
100
AcDbCircle
 10
924
 20
910.6091230715
 40
1
100
AcDbArc
 50
0
 51
90
  0
LINE
  5
2CA
100
AcDbEntity
  8
パネル
  6
CONTINUOUS
 62
     0
100
AcDbLine
 10
888.5905856127
 20
899.7501124608
 11
902.892228139
 21
901.6639875005
  0
ENDBLK
  5
2CB
100
AcDbEntity
 67
     1
  8
パネル
100
AcDbBlockEnd
  0
BLOCK
  5
2CC
100
AcDbEntity
  8
ボルトナット
100
AcDbBlockBegin
  2
BK9
 70
    64
 10
0
 20
0
  3
BK9
  1

  0
LINE
  5
2CD
100
AcDbEntity
  8
ボルトナット
  6
CONTINUOUS
 62
     0
100
AcDbLine
 10
1470.437274557
 20
817.9490384379
 11
1491.437304557
 21
817.9490384379
  0
LINE
  5
2CE
100
AcDbEntity
  8
ボルトナット
  6
CONTINUOUS
 62
     0
100
AcDbLine
 10
1474.337264557
 20
824.9490384379
 11
1487.537274557
 21
824.9490384379
  0
ARC
  5
2CF
100
AcDbEntity
  8
ボルトナット
  6
CONTINUOUS
 62
     0
100
AcDbCircle
 10
1480.937284557
 20
814.7690384379
 40
10.18
100
AcDbArc
 50
64.391533
 51
115.60855
  0
LINE
  5
2D0
100
AcDbEntity
  8
ボルトナット
  6
CONTINUOUS
 62
     0
100
AcDbLine
 10
1470.437274557
 20
815.9490384379
 11
1491.437304557
 21
815.9490384379
  0
LINE
  5
2D1
100
AcDbEntity
  8
ボルトナット
  6
CONTINUOUS
 62
     0
100
AcDbLine
 10
1472.137284557
 20
823.6788684379
 11
1472.137284557
 21
817.9490384379
  0
LINE
  5
2D2
100
AcDbEntity
  8
ボルトナット
  6
CONTINUOUS
 62
     0
100
AcDbLine
 10
1476.537274557
 20
823.9490384379
 11
1476.537284557
 21
817.9490384379
  0
LINE
  5
2D3
100
AcDbEntity
  8
ボルトナット
  6
CONTINUOUS
 62
     0
100
AcDbLine
 10
1470.437274557
 20
817.9490384379
 11
1470.437274557
 21
815.9490384379
  0
LINE
  5
2D4
100
AcDbEntity
  8
ボルトナット
  6
CONTINUOUS
 62
     0
100
AcDbLine
 10
1474.337304557
 20
824.9490384379
 11
1472.137294557
 21
823.6788684379
  0
ARC
  5
2D5
100
AcDbEntity
  8
ボルトナット
  6
CONTINUOUS
 62
     0
100
AcDbCircle
 10
1474.337304557
 20
822.0290284379
 40
2.9200001
100
AcDbArc
 50
41.11209699998
 51
90.00002300002
  0
LINE
  5
2D6
100
AcDbEntity
  8
ボルトナット
  6
CONTINUOUS
 62
     0
100
AcDbLine
 10
1489.737294557
 20
823.6788684379
 11
1489.737294557
 21
817.9490284379
  0
LINE
  5
2D7
100
AcDbEntity
  8
ボルトナット
  6
CONTINUOUS
 62
     0
100
AcDbLine
 10
1485.337264557
 20
823.9490284379
 11
1485.337264557
 21
817.9490284379
  0
LINE
  5
2D8
100
AcDbEntity
  8
ボルトナット
  6
CONTINUOUS
 62
     0
100
AcDbLine
 10
1491.437304557
 20
817.9490284379
 11
1491.437304557
 21
815.9490284379
  0
LINE
  5
2D9
100
AcDbEntity
  8
ボルトナット
  6
CONTINUOUS
 62
     0
100
AcDbLine
 10
1487.537274557
 20
824.9490384379
 11
1489.737274557
 21
823.6788584379
  0
ARC
  5
2DA
100
AcDbEntity
  8
ボルトナット
  6
CONTINUOUS
 62
     0
100
AcDbCircle
 10
1487.537254557
 20
822.0290284379
 40
2.9199991
100
AcDbArc
 50
90.000043
 51
138.88791
  0
LINE
  5
2DB
100
AcDbEntity
  8
ボルトナット
  6
CONTINUOUS
 62
     0
100
AcDbLine
 10
1470.437274557
 20
807.9490384379
 11
1491.437304557
 21
807.9490384379
  0
LINE
  5
2DC
100
AcDbEntity
  8
ボルトナット
  6
CONTINUOUS
 62
     0
100
AcDbLine
 10
1470.437274557
 20
805.9490384379
 11
1491.437304557
 21
805.9490384379
  0
LINE
  5
2DD
100
AcDbEntity
  8
ボルトナット
  6
CONTINUOUS
 62
     0
100
AcDbLine
 10
1474.337274557
 20
796.4490384379
 11
1487.537284557
 21
796.4490384379
  0
ARC
  5
2DE
100
AcDbEntity
  8
ボルトナット
  6
CONTINUOUS
 62
     0
100
AcDbCircle
 10
1480.937284557
 20
806.6290384379
 40
10.18
100
AcDbArc
 50
-115.60848
 51
-64.39145999999
  0
LINE
  5
2DF
100
AcDbEntity
  8
ボルトナット
  6
CONTINUOUS
 62
     0
100
AcDbLine
 10
1476.937304557
 20
792.9490384379
 11
1484.937304557
 21
792.9490384379
  0
LINE
  5
2E0
100
AcDbEntity
  8
ボルトナット
  6
CONTINUOUS
 62
     0
100
AcDbLine
 10
1475.937304557
 20
793.9490384379
 11
1485.937304557
 21
793.9490384379
  0
LINE
  5
2E1
100
AcDbEntity
  8
ボルトナット
  6
CONTINUOUS
 62
     0
100
AcDbLine
 10
1475.937304557
 20
796.4490384379
 11
1475.937304557
 21
793.9490384379
  0
LINE
  5
2E2
100
AcDbEntity
  8
ボルトナット
  6
CONTINUOUS
 62
     0
100
AcDbLine
 10
1476.937304557
 20
796.4490384379
 11
1476.937304557
 21
792.9490384379
  0
LINE
  5
2E3
100
AcDbEntity
  8
ボルトナット
  6
CONTINUOUS
 62
     0
100
AcDbLine
 10
1475.937274557
 20
793.9490384379
 11
1476.937274557
 21
792.9490284379
  0
LINE
  5
2E4
100
AcDbEntity
  8
ボルトナット
  6
CONTINUOUS
 62
     0
100
AcDbLine
 10
1470.437274557
 20
807.9490384379
 11
1470.437274557
 21
805.9490384379
  0
LINE
  5
2E5
100
AcDbEntity
  8
ボルトナット
  6
CONTINUOUS
 62
     0
100
AcDbLine
 10
1474.337284557
 20
796.4490184379
 11
1472.137284557
 21
797.7191884379
  0
ARC
  5
2E6
100
AcDbEntity
  8
ボルトナット
  6
CONTINUOUS
 62
     0
100
AcDbCircle
 10
1474.337304557
 20
799.3690284379
 40
2.9200001
100
AcDbArc
 50
-90
 51
-41.11210000001
  0
LINE
  5
2E7
100
AcDbEntity
  8
ボルトナット
  6
CONTINUOUS
 62
     0
100
AcDbLine
 10
1476.537284557
 20
797.4490384379
 11
1476.537284557
 21
803.4490384379
  0
LINE
  5
2E8
100
AcDbEntity
  8
ボルトナット
  6
CONTINUOUS
 62
     0
100
AcDbLine
 10
1472.137284557
 20
797.7191984379
 11
1472.137284557
 21
803.4490384379
  0
LINE
  5
2E9
100
AcDbEntity
  8
ボルトナット
  6
CONTINUOUS
 62
     0
100
AcDbLine
 10
1485.937304557
 20
796.4490384379
 11
1485.937304557
 21
793.9490284379
  0
LINE
  5
2EA
100
AcDbEntity
  8
ボルトナット
  6
CONTINUOUS
 62
     0
100
AcDbLine
 10
1484.937304557
 20
796.4490384379
 11
1484.937304557
 21
792.9490284379
  0
LINE
  5
2EB
100
AcDbEntity
  8
ボルトナット
  6
CONTINUOUS
 62
     0
100
AcDbLine
 10
1484.937264557
 20
792.9490084379
 11
1485.937284557
 21
793.9490384379
  0
LINE
  5
2EC
100
AcDbEntity
  8
ボルトナット
  6
CONTINUOUS
 62
     0
100
AcDbLine
 10
1487.537274557
 20
796.4490284379
 11
1489.737274557
 21
797.7191984379
  0
ARC
  5
2ED
100
AcDbEntity
  8
ボルトナット
  6
CONTINUOUS
 62
     0
100
AcDbCircle
 10
1487.537254557
 20
799.3690284379
 40
2.9199991
100
AcDbArc
 50
-138.88784
 51
-90
  0
LINE
  5
2EE
100
AcDbEntity
  8
ボルトナット
  6
CONTINUOUS
 62
     0
100
AcDbLine
 10
1485.337274557
 20
797.4490384379
 11
1485.337264557
 21
803.4490384379
  0
LINE
  5
2EF
100
AcDbEntity
  8
ボルトナット
  6
CONTINUOUS
 62
     0
100
AcDbLine
 10
1491.437304557
 20
807.9490384379
 11
1491.437304557
 21
805.9490384379
  0
LINE
  5
2F0
100
AcDbEntity
  8
ボルトナット
  6
CONTINUOUS
 62
     0
100
AcDbLine
 10
1489.737294557
 20
797.7191984379
 11
1489.737294557
 21
803.4490384379
  0
LINE
  5
2F1
100
AcDbEntity
  8
ボルトナット
  6
CENTER
 62
     0
100
AcDbLine
 10
1480.937289557
 20
828.8926981696
 11
1480.937289557
 21
788.4797282689
  0
LINE
  5
2F2
100
AcDbEntity
  8
ボルトナット
  6
DASHED
 62
     0
100
AcDbLine
 10
1475.937304557
 20
817.9490384379
 11
1475.937304557
 21
805.9490384379
  0
LINE
  5
2F3
100
AcDbEntity
  8
ボルトナット
  6
DASHED
 62
     0
100
AcDbLine
 10
1485.937304557
 20
817.9490384379
 11
1485.937304557
 21
805.9490384379
  0
LINE
  5
2F4
100
AcDbEntity
  8
ボルトナット
  6
CONTINUOUS
 62
     0
100
AcDbLine
 10
1490.137294557
 20
803.4490384379
 11
1490.137294557
 21
805.9490384379
  0
LINE
  5
2F5
100
AcDbEntity
  8
ボルトナット
  6
CONTINUOUS
 62
     0
100
AcDbLine
 10
1471.737284557
 20
803.4490384379
 11
1471.737284557
 21
805.9490384379
  0
LINE
  5
2F6
100
AcDbEntity
  8
ボルトナット
  6
CONTINUOUS
 62
     0
100
AcDbLine
 10
1471.737284557
 20
803.4490384379
 11
1490.137294557
 21
803.4490384379
  0
ENDBLK
  5
2F7
100
AcDbEntity
 67
     1
  8
ボルトナット
100
AcDbBlockEnd
  0
BLOCK
  5
2F8
100
AcDbEntity
  8
ボルトナット
100
AcDbBlockBegin
  2
BK10
 70
    64
 10
0
 20
0
  3
BK10
  1

  0
LINE
  5
2F9
100
AcDbEntity
  8
ボルトナット
  6
CONTINUOUS
 62
     0
100
AcDbLine
 10
1708.487229349
 20
986.1789004415
 11
1708.487229349
 21
980.4490404415
  0
LINE
  5
2FA
100
AcDbEntity
  8
ボルトナット
  6
CONTINUOUS
 62
     0
100
AcDbLine
 10
1704.087209349
 20
986.4490404415
 11
1704.087209349
 21
980.4490404415
  0
LINE
  5
2FB
100
AcDbEntity
  8
ボルトナット
  6
CONTINUOUS
 62
     0
100
AcDbLine
 10
1690.887189349
 20
986.1789004415
 11
1690.887189349
 21
980.4490404415
  0
LINE
  5
2FC
100
AcDbEntity
  8
ボルトナット
  6
CONTINUOUS
 62
     0
100
AcDbLine
 10
1695.287219349
 20
986.4490404415
 11
1695.287219349
 21
980.4490404415
  0
ARC
  5
2FD
100
AcDbEntity
  8
ボルトナット
  6
CONTINUOUS
 62
     0
100
AcDbCircle
 10
1699.687209349
 20
977.2691104415
 40
10.18
100
AcDbArc
 50
64.39145
 51
115.60847
  0
LINE
  5
2FE
100
AcDbEntity
  8
ボルトナット
  6
CONTINUOUS
 62
     0
100
AcDbLine
 10
1706.287219349
 20
987.4490404415
 11
1693.087209349
 21
987.4490404415
  0
LINE
  5
2FF
100
AcDbEntity
  8
ボルトナット
  6
CONTINUOUS
 62
     0
100
AcDbLine
 10
1704.687209349
 20
990.7490904415
 11
1694.687209349
 21
990.7490904415
  0
LINE
  5
300
100
AcDbEntity
  8
ボルトナット
  6
CONTINUOUS
 62
     0
100
AcDbLine
 10
1703.687209349
 20
991.7490904415
 11
1695.687209349
 21
991.7490904415
  0
LINE
  5
301
100
AcDbEntity
  8
ボルトナット
  6
CONTINUOUS
 62
     0
100
AcDbLine
 10
1695.687209349
 20
987.4490404415
 11
1695.687209349
 21
991.7490904415
  0
LINE
  5
302
100
AcDbEntity
  8
ボルトナット
  6
CONTINUOUS
 62
     0
100
AcDbLine
 10
1694.687209349
 20
987.4490404415
 11
1694.687209349
 21
990.7490904415
  0
LINE
  5
303
100
AcDbEntity
  8
ボルトナット
  6
CONTINUOUS
 62
     0
100
AcDbLine
 10
1695.687219349
 20
991.7491004415
 11
1694.687219349
 21
990.7491004415
  0
ARC
  5
304
100
AcDbEntity
  8
ボルトナット
  6
CONTINUOUS
 62
     0
100
AcDbCircle
 10
1693.087209349
 20
984.5290604415
 40
2.9199991
100
AcDbArc
 50
41.11214999998
 51
89.99996000001
  0
LINE
  5
305
100
AcDbEntity
  8
ボルトナット
  6
CONTINUOUS
 62
     0
100
AcDbLine
 10
1693.087179349
 20
987.4490804415
 11
1690.887179349
 21
986.1789104415
  0
LINE
  5
306
100
AcDbEntity
  8
ボルトナット
  6
CONTINUOUS
 62
     0
100
AcDbLine
 10
1703.687209349
 20
987.4490404415
 11
1703.687209349
 21
991.7490904415
  0
LINE
  5
307
100
AcDbEntity
  8
ボルトナット
  6
CONTINUOUS
 62
     0
100
AcDbLine
 10
1704.687209349
 20
987.4490404415
 11
1704.687209349
 21
990.7490904415
  0
LINE
  5
308
100
AcDbEntity
  8
ボルトナット
  6
CONTINUOUS
 62
     0
100
AcDbLine
 10
1704.687209349
 20
990.7491204415
 11
1703.687239349
 21
991.7491004415
  0
ARC
  5
309
100
AcDbEntity
  8
ボルトナット
  6
CONTINUOUS
 62
     0
100
AcDbCircle
 10
1706.287219349
 20
984.5290604415
 40
2.9200001
100
AcDbArc
 50
89.99995999999
 51
138.88784
  0
LINE
  5
30A
100
AcDbEntity
  8
ボルトナット
  6
CONTINUOUS
 62
     0
100
AcDbLine
 10
1706.287199349
 20
987.4490504415
 11
1708.487209349
 21
986.1788704415
  0
LINE
  5
30B
100
AcDbEntity
  8
ボルトナット
  6
CONTINUOUS
 62
     0
100
AcDbLine
 10
1708.887229349
 20
980.4490404415
 11
1690.487189349
 21
980.4490404415
  0
LINE
  5
30C
100
AcDbEntity
  8
ボルトナット
  6
CONTINUOUS
 62
     0
100
AcDbLine
 10
1710.187209349
 20
975.9490404415
 11
1710.187209349
 21
977.9490404415
  0
LINE
  5
30D
100
AcDbEntity
  8
ボルトナット
  6
CENTER
 62
     0
100
AcDbLine
 10
1699.687209349
 20
996.0517347152
 11
1699.687209349
 21
954.332973655
  0
LINE
  5
30E
100
AcDbEntity
  8
ボルトナット
  6
CONTINUOUS
 62
     0
100
AcDbLine
 10
1689.187209349
 20
975.9491104415
 11
1689.187209349
 21
977.9491104415
  0
LINE
  5
30F
100
AcDbEntity
  8
ボルトナット
  6
DASHED
 62
     0
100
AcDbLine
 10
1704.687209349
 20
966.7490904415
 11
1704.687209349
 21
977.9490404415
  0
LINE
  5
310
100
AcDbEntity
  8
ボルトナット
  6
DASHED
 62
     0
100
AcDbLine
 10
1694.687209349
 20
966.7490904415
 11
1694.687209349
 21
977.9490404415
  0
LINE
  5
311
100
AcDbEntity
  8
ボルトナット
  6
DASHED
 62
     0
100
AcDbLine
 10
1710.187209349
 20
966.7490904415
 11
1689.187209349
 21
966.7490904415
  0
ARC
  5
312
100
AcDbEntity
  8
ボルトナット
  6
DASHED
 62
     0
100
AcDbCircle
 10
1699.687209349
 20
969.9290904415
 40
10.18
100
AcDbArc
 50
-115.60844
 51
-64.39141799998
  0
LINE
  5
313
100
AcDbEntity
  8
ボルトナット
  6
DASHED
 62
     0
100
AcDbLine
 10
1706.287219349
 20
959.7490904415
 11
1693.087209349
 21
959.7490904415
  0
LINE
  5
314
100
AcDbEntity
  8
ボルトナット
  6
DASHED
 62
     0
100
AcDbLine
 10
1704.087209349
 20
960.7490904415
 11
1704.087209349
 21
966.7490904415
  0
LINE
  5
315
100
AcDbEntity
  8
ボルトナット
  6
DASHED
 62
     0
100
AcDbLine
 10
1708.487229349
 20
961.0192304415
 11
1708.487229349
 21
966.7490904415
  0
LINE
  5
316
100
AcDbEntity
  8
ボルトナット
  6
DASHED
 62
     0
100
AcDbLine
 10
1710.187209349
 20
966.7490904415
 11
1710.187209349
 21
968.7490904415
  0
ARC
  5
317
100
AcDbEntity
  8
ボルトナット
  6
DASHED
 62
     0
100
AcDbCircle
 10
1706.287219349
 20
962.6690804415
 40
2.9200001
100
AcDbArc
 50
-138.88791
 51
-89.99998201002
  0
LINE
  5
318
100
AcDbEntity
  8
ボルトナット
  6
DASHED
 62
     0
100
AcDbLine
 10
1706.287189349
 20
959.7491104415
 11
1708.487189349
 21
961.0192904415
  0
LINE
  5
319
100
AcDbEntity
  8
ボルトナット
  6
DASHED
 62
     0
100
AcDbLine
 10
1695.287219349
 20
960.7490904415
 11
1695.287219349
 21
966.7490904415
  0
LINE
  5
31A
100
AcDbEntity
  8
ボルトナット
  6
DASHED
 62
     0
100
AcDbLine
 10
1690.887189349
 20
961.0192304415
 11
1690.887189349
 21
966.7490904415
  0
LINE
  5
31B
100
AcDbEntity
  8
ボルトナット
  6
DASHED
 62
     0
100
AcDbLine
 10
1689.187209349
 20
966.7490904415
 11
1689.187209349
 21
968.7490904415
  0
ARC
  5
31C
100
AcDbEntity
  8
ボルトナット
  6
DASHED
 62
     0
100
AcDbCircle
 10
1693.087209349
 20
962.6690804415
 40
2.9199991
100
AcDbArc
 50
-89.99992737002
 51
-41.11209500001
  0
LINE
  5
31D
100
AcDbEntity
  8
ボルトナット
  6
DASHED
 62
     0
100
AcDbLine
 10
1693.087199349
 20
959.7491004415
 11
1690.887189349
 21
961.0192704415
  0
LINE
  5
31E
100
AcDbEntity
  8
ボルトナット
  6
CONTINUOUS
 62
     0
100
AcDbLine
 10
1710.187209349
 20
977.9490404415
 11
1689.187209349
 21
977.9490404415
  0
LINE
  5
31F
100
AcDbEntity
  8
ボルトナット
  6
CONTINUOUS
 62
     0
100
AcDbLine
 10
1690.487189349
 20
980.4490404415
 11
1690.487189349
 21
977.9490404415
  0
LINE
  5
320
100
AcDbEntity
  8
ボルトナット
  6
CONTINUOUS
 62
     0
100
AcDbLine
 10
1708.887229349
 20
980.4490404415
 11
1708.887229349
 21
977.9490404415
  0
ENDBLK
  5
321
100
AcDbEntity
 67
     1
  8
ボルトナット
100
AcDbBlockEnd
  0
BLOCK
  5
322
100
AcDbEntity
  8
ボルトナット
100
AcDbBlockBegin
  2
BK11
 70
    64
 10
0
 20
0
  3
BK11
  1

  0
LINE
  5
323
100
AcDbEntity
  8
ボルトナット
  6
CONTINUOUS
 62
     0
100
AcDbLine
 10
1496.707437399
 20
791.9990484379
 11
1502.437297399
 21
791.9990484379
  0
LINE
  5
324
100
AcDbEntity
  8
ボルトナット
  6
CONTINUOUS
 62
     0
100
AcDbLine
 10
1496.437297399
 20
787.5990284379
 11
1502.437297399
 21
787.5990284379
  0
LINE
  5
325
100
AcDbEntity
  8
ボルトナット
  6
CONTINUOUS
 62
     0
100
AcDbLine
 10
1496.707437399
 20
774.3990084379
 11
1502.437297399
 21
774.3990084379
  0
LINE
  5
326
100
AcDbEntity
  8
ボルトナット
  6
CONTINUOUS
 62
     0
100
AcDbLine
 10
1496.437297399
 20
778.7990384379
 11
1502.437297399
 21
778.7990384379
  0
ARC
  5
327
100
AcDbEntity
  8
ボルトナット
  6
CONTINUOUS
 62
     0
100
AcDbCircle
 10
1505.617227399
 20
783.1990284379
 40
10.18
100
AcDbArc
 50
154.39145
 51
205.60847
  0
LINE
  5
328
100
AcDbEntity
  8
ボルトナット
  6
CONTINUOUS
 62
     0
100
AcDbLine
 10
1495.437297399
 20
789.7990384379
 11
1495.437297399
 21
776.5990284379
  0
LINE
  5
329
100
AcDbEntity
  8
ボルトナット
  6
CONTINUOUS
 62
     0
100
AcDbLine
 10
1492.137247399
 20
788.1990284379
 11
1492.137247399
 21
778.1990284379
  0
LINE
  5
32A
100
AcDbEntity
  8
ボルトナット
  6
CONTINUOUS
 62
     0
100
AcDbLine
 10
1491.137247399
 20
787.1990284379
 11
1491.137247399
 21
779.1990284379
  0
LINE
  5
32B
100
AcDbEntity
  8
ボルトナット
  6
CONTINUOUS
 62
     0
100
AcDbLine
 10
1495.437297399
 20
779.1990284379
 11
1491.137247399
 21
779.1990284379
  0
LINE
  5
32C
100
AcDbEntity
  8
ボルトナット
  6
CONTINUOUS
 62
     0
100
AcDbLine
 10
1495.437297399
 20
778.1990284379
 11
1492.137247399
 21
778.1990284379
  0
LINE
  5
32D
100
AcDbEntity
  8
ボルトナット
  6
CONTINUOUS
 62
     0
100
AcDbLine
 10
1491.137237399
 20
779.1990384379
 11
1492.137237399
 21
778.1990384379
  0
ARC
  5
32E
100
AcDbEntity
  8
ボルトナット
  6
CONTINUOUS
 62
     0
100
AcDbCircle
 10
1498.357277399
 20
776.5990284379
 40
2.9199991
100
AcDbArc
 50
131.11215
 51
179.99996
  0
LINE
  5
32F
100
AcDbEntity
  8
ボルトナット
  6
CONTINUOUS
 62
     0
100
AcDbLine
 10
1495.437257399
 20
776.5989984379
 11
1496.707427399
 21
774.3989984379
  0
LINE
  5
330
100
AcDbEntity
  8
ボルトナット
  6
CONTINUOUS
 62
     0
100
AcDbLine
 10
1495.437297399
 20
787.1990284379
 11
1491.137247399
 21
787.1990284379
  0
LINE
  5
331
100
AcDbEntity
  8
ボルトナット
  6
CONTINUOUS
 62
     0
100
AcDbLine
 10
1495.437297399
 20
788.1990284379
 11
1492.137247399
 21
788.1990284379
  0
LINE
  5
332
100
AcDbEntity
  8
ボルトナット
  6
CONTINUOUS
 62
     0
100
AcDbLine
 10
1492.137217399
 20
788.1990284379
 11
1491.137237399
 21
787.1990584379
  0
ARC
  5
333
100
AcDbEntity
  8
ボルトナット
  6
CONTINUOUS
 62
     0
100
AcDbCircle
 10
1498.357277399
 20
789.7990384379
 40
2.9200001
100
AcDbArc
 50
179.99996
 51
228.88784
  0
LINE
  5
334
100
AcDbEntity
  8
ボルトナット
  6
CONTINUOUS
 62
     0
100
AcDbLine
 10
1495.437287399
 20
789.7990184379
 11
1496.707467399
 21
791.9990284379
  0
LINE
  5
335
100
AcDbEntity
  8
ボルトナット
  6
CONTINUOUS
 62
     0
100
AcDbLine
 10
1502.437297399
 20
792.3990484379
 11
1502.437297399
 21
773.9990084379
  0
LINE
  5
336
100
AcDbEntity
  8
ボルトナット
  6
CONTINUOUS
 62
     0
100
AcDbLine
 10
1506.937297399
 20
793.6990284379
 11
1504.937297399
 21
793.6990284379
  0
LINE
  5
337
100
AcDbEntity
  8
ボルトナット
  6
CENTER
 62
     0
100
AcDbLine
 10
1486.834603125
 20
783.1990284379
 11
1528.553364185
 21
783.1990284379
  0
LINE
  5
338
100
AcDbEntity
  8
ボルトナット
  6
CONTINUOUS
 62
     0
100
AcDbLine
 10
1506.937227399
 20
772.6990284379
 11
1504.937227399
 21
772.6990284379
  0
LINE
  5
339
100
AcDbEntity
  8
ボルトナット
  6
DASHED
 62
     0
100
AcDbLine
 10
1516.137247399
 20
788.1990284379
 11
1504.937297399
 21
788.1990284379
  0
LINE
  5
33A
100
AcDbEntity
  8
ボルトナット
  6
DASHED
 62
     0
100
AcDbLine
 10
1516.137247399
 20
778.1990284379
 11
1504.937297399
 21
778.1990284379
  0
LINE
  5
33B
100
AcDbEntity
  8
ボルトナット
  6
DASHED
 62
     0
100
AcDbLine
 10
1516.137247399
 20
793.6990284379
 11
1516.137247399
 21
772.6990284379
  0
ARC
  5
33C
100
AcDbEntity
  8
ボルトナット
  6
DASHED
 62
     0
100
AcDbCircle
 10
1512.957247399
 20
783.1990284379
 40
10.18
100
AcDbArc
 50
-25.60844
 51
25.60858200001
  0
LINE
  5
33D
100
AcDbEntity
  8
ボルトナット
  6
DASHED
 62
     0
100
AcDbLine
 10
1523.137247399
 20
789.7990384379
 11
1523.137247399
 21
776.5990284379
  0
LINE
  5
33E
100
AcDbEntity
  8
ボルトナット
  6
DASHED
 62
     0
100
AcDbLine
 10
1522.137247399
 20
787.5990284379
 11
1516.137247399
 21
787.5990284379
  0
LINE
  5
33F
100
AcDbEntity
  8
ボルトナット
  6
DASHED
 62
     0
100
AcDbLine
 10
1521.867107399
 20
791.9990484379
 11
1516.137247399
 21
791.9990484379
  0
LINE
  5
340
100
AcDbEntity
  8
ボルトナット
  6
DASHED
 62
     0
100
AcDbLine
 10
1516.137247399
 20
793.6990284379
 11
1514.137247399
 21
793.6990284379
  0
ARC
  5
341
100
AcDbEntity
  8
ボルトナット
  6
DASHED
 62
     0
100
AcDbCircle
 10
1520.217257399
 20
789.7990384379
 40
2.9200001
100
AcDbArc
 50
-48.88790999999
 51
1.799001359598E-005
  0
LINE
  5
342
100
AcDbEntity
  8
ボルトナット
  6
DASHED
 62
     0
100
AcDbLine
 10
1523.137227399
 20
789.7990084379
 11
1521.867047399
 21
791.9990084379
  0
LINE
  5
343
100
AcDbEntity
  8
ボルトナット
  6
DASHED
 62
     0
100
AcDbLine
 10
1522.137247399
 20
778.7990384379
 11
1516.137247399
 21
778.7990384379
  0
LINE
  5
344
100
AcDbEntity
  8
ボルトナット
  6
DASHED
 62
     0
100
AcDbLine
 10
1521.867107399
 20
774.3990084379
 11
1516.137247399
 21
774.3990084379
  0
LINE
  5
345
100
AcDbEntity
  8
ボルトナット
  6
DASHED
 62
     0
100
AcDbLine
 10
1516.137247399
 20
772.6990284379
 11
1514.137247399
 21
772.6990284379
  0
ARC
  5
346
100
AcDbEntity
  8
ボルトナット
  6
DASHED
 62
     0
100
AcDbCircle
 10
1520.217257399
 20
776.5990284379
 40
2.9199991
100
AcDbArc
 50
7.263001663314E-005
 51
48.887905
  0
LINE
  5
347
100
AcDbEntity
  8
ボルトナット
  6
DASHED
 62
     0
100
AcDbLine
 10
1523.137237399
 20
776.5990184379
 11
1521.867067399
 21
774.3990084379
  0
LINE
  5
348
100
AcDbEntity
  8
ボルトナット
  6
CONTINUOUS
 62
     0
100
AcDbLine
 10
1504.937297399
 20
793.6990284379
 11
1504.937297399
 21
772.6990284379
  0
LINE
  5
349
100
AcDbEntity
  8
ボルトナット
  6
CONTINUOUS
 62
     0
100
AcDbLine
 10
1502.437297399
 20
773.9990084379
 11
1504.937297399
 21
773.9990084379
  0
LINE
  5
34A
100
AcDbEntity
  8
ボルトナット
  6
CONTINUOUS
 62
     0
100
AcDbLine
 10
1502.437297399
 20
792.3990484379
 11
1504.937297399
 21
792.3990484379
  0
ENDBLK
  5
34B
100
AcDbEntity
 67
     1
  8
ボルトナット
100
AcDbBlockEnd
  0
BLOCK
  5
34C
100
AcDbEntity
  8
ボルトナット
100
AcDbBlockBegin
  2
BK12
 70
    64
 10
0
 20
0
  3
BK12
  1

  0
LINE
  5
34D
100
AcDbEntity
  8
ボルトナット
  6
CONTINUOUS
 62
     0
100
AcDbLine
 10
1664.937213322
 20
991.4490434378
 11
1664.937213322
 21
1012.449073438
  0
LINE
  5
34E
100
AcDbEntity
  8
ボルトナット
  6
CONTINUOUS
 62
     0
100
AcDbLine
 10
1657.937213322
 20
995.3490334378
 11
1657.937213322
 21
1008.549043438
  0
ARC
  5
34F
100
AcDbEntity
  8
ボルトナット
  6
CONTINUOUS
 62
     0
100
AcDbCircle
 10
1668.117213322
 20
1001.949053438
 40
10.18
100
AcDbArc
 50
154.391533
 51
205.60855
  0
LINE
  5
350
100
AcDbEntity
  8
ボルトナット
  6
CONTINUOUS
 62
     0
100
AcDbLine
 10
1666.937213322
 20
991.4490434378
 11
1666.937213322
 21
1012.449073438
  0
LINE
  5
351
100
AcDbEntity
  8
ボルトナット
  6
CONTINUOUS
 62
     0
100
AcDbLine
 10
1659.207383322
 20
993.1490534378
 11
1664.937213322
 21
993.1490534378
  0
LINE
  5
352
100
AcDbEntity
  8
ボルトナット
  6
CONTINUOUS
 62
     0
100
AcDbLine
 10
1658.937213322
 20
997.5490434378
 11
1664.937213322
 21
997.5490534378
  0
LINE
  5
353
100
AcDbEntity
  8
ボルトナット
  6
CONTINUOUS
 62
     0
100
AcDbLine
 10
1664.937213322
 20
991.4490434378
 11
1666.937213322
 21
991.4490434378
  0
LINE
  5
354
100
AcDbEntity
  8
ボルトナット
  6
CONTINUOUS
 62
     0
100
AcDbLine
 10
1657.937213322
 20
995.3490734378
 11
1659.207383322
 21
993.1490634378
  0
ARC
  5
355
100
AcDbEntity
  8
ボルトナット
  6
CONTINUOUS
 62
     0
100
AcDbCircle
 10
1660.857223322
 20
995.3490734378
 40
2.9200001
100
AcDbArc
 50
131.112097
 51
180.000023
  0
LINE
  5
356
100
AcDbEntity
  8
ボルトナット
  6
CONTINUOUS
 62
     0
100
AcDbLine
 10
1659.207383322
 20
1010.749063438
 11
1664.937223322
 21
1010.749063438
  0
LINE
  5
357
100
AcDbEntity
  8
ボルトナット
  6
CONTINUOUS
 62
     0
100
AcDbLine
 10
1658.937223322
 20
1006.349033438
 11
1664.937223322
 21
1006.349033438
  0
LINE
  5
358
100
AcDbEntity
  8
ボルトナット
  6
CONTINUOUS
 62
     0
100
AcDbLine
 10
1664.937223322
 20
1012.449073438
 11
1666.937223322
 21
1012.449073438
  0
LINE
  5
359
100
AcDbEntity
  8
ボルトナット
  6
CONTINUOUS
 62
     0
100
AcDbLine
 10
1657.937213322
 20
1008.549043438
 11
1659.207393322
 21
1010.749043438
  0
ARC
  5
35A
100
AcDbEntity
  8
ボルトナット
  6
CONTINUOUS
 62
     0
100
AcDbCircle
 10
1660.857223322
 20
1008.549023438
 40
2.9199991
100
AcDbArc
 50
-179.999957
 51
-131.11209
  0
LINE
  5
35B
100
AcDbEntity
  8
ボルトナット
  6
CONTINUOUS
 62
     0
100
AcDbLine
 10
1674.937213322
 20
991.4490434378
 11
1674.937213322
 21
1012.449073438
  0
LINE
  5
35C
100
AcDbEntity
  8
ボルトナット
  6
CONTINUOUS
 62
     0
100
AcDbLine
 10
1676.937213322
 20
991.4490434378
 11
1676.937213322
 21
1012.449073438
  0
LINE
  5
35D
100
AcDbEntity
  8
ボルトナット
  6
CONTINUOUS
 62
     0
100
AcDbLine
 10
1686.437213322
 20
995.3490434378
 11
1686.437213322
 21
1008.549053438
  0
ARC
  5
35E
100
AcDbEntity
  8
ボルトナット
  6
CONTINUOUS
 62
     0
100
AcDbCircle
 10
1676.257213322
 20
1001.949053438
 40
10.18
100
AcDbArc
 50
-25.60847999999
 51
25.60853999999
  0
LINE
  5
35F
100
AcDbEntity
  8
ボルトナット
  6
CONTINUOUS
 62
     0
100
AcDbLine
 10
1689.937213322
 20
997.9490734378
 11
1689.937213322
 21
1005.949073438
  0
LINE
  5
360
100
AcDbEntity
  8
ボルトナット
  6
CONTINUOUS
 62
     0
100
AcDbLine
 10
1688.937213322
 20
996.9490734378
 11
1688.937213322
 21
1006.949073438
  0
LINE
  5
361
100
AcDbEntity
  8
ボルトナット
  6
CONTINUOUS
 62
     0
100
AcDbLine
 10
1686.437213322
 20
996.9490734378
 11
1688.937213322
 21
996.9490734378
  0
LINE
  5
362
100
AcDbEntity
  8
ボルトナット
  6
CONTINUOUS
 62
     0
100
AcDbLine
 10
1686.437213322
 20
997.9490734378
 11
1689.937213322
 21
997.9490734378
  0
LINE
  5
363
100
AcDbEntity
  8
ボルトナット
  6
CONTINUOUS
 62
     0
100
AcDbLine
 10
1688.937213322
 20
996.9490434378
 11
1689.937223322
 21
997.9490434378
  0
LINE
  5
364
100
AcDbEntity
  8
ボルトナット
  6
CONTINUOUS
 62
     0
100
AcDbLine
 10
1674.937213322
 20
991.4490434378
 11
1676.937213322
 21
991.4490434378
  0
LINE
  5
365
100
AcDbEntity
  8
ボルトナット
  6
CONTINUOUS
 62
     0
100
AcDbLine
 10
1686.437233322
 20
995.3490534378
 11
1685.167063322
 21
993.1490534378
  0
ARC
  5
366
100
AcDbEntity
  8
ボルトナット
  6
CONTINUOUS
 62
     0
100
AcDbCircle
 10
1683.517223322
 20
995.3490734378
 40
2.9200001
100
AcDbArc
 50
0
 51
48.8879
  0
LINE
  5
367
100
AcDbEntity
  8
ボルトナット
  6
CONTINUOUS
 62
     0
100
AcDbLine
 10
1685.437213322
 20
997.5490534378
 11
1679.437213322
 21
997.5490534378
  0
LINE
  5
368
100
AcDbEntity
  8
ボルトナット
  6
CONTINUOUS
 62
     0
100
AcDbLine
 10
1685.167053322
 20
993.1490534378
 11
1679.437213322
 21
993.1490534378
  0
LINE
  5
369
100
AcDbEntity
  8
ボルトナット
  6
CONTINUOUS
 62
     0
100
AcDbLine
 10
1686.437213322
 20
1006.949073438
 11
1688.937223322
 21
1006.949073438
  0
LINE
  5
36A
100
AcDbEntity
  8
ボルトナット
  6
CONTINUOUS
 62
     0
100
AcDbLine
 10
1686.437213322
 20
1005.949073438
 11
1689.937223322
 21
1005.949073438
  0
LINE
  5
36B
100
AcDbEntity
  8
ボルトナット
  6
CONTINUOUS
 62
     0
100
AcDbLine
 10
1689.937243322
 20
1005.949033438
 11
1688.937213322
 21
1006.949053438
  0
LINE
  5
36C
100
AcDbEntity
  8
ボルトナット
  6
CONTINUOUS
 62
     0
100
AcDbLine
 10
1686.437223322
 20
1008.549043438
 11
1685.167053322
 21
1010.749043438
  0
ARC
  5
36D
100
AcDbEntity
  8
ボルトナット
  6
CONTINUOUS
 62
     0
100
AcDbCircle
 10
1683.517223322
 20
1008.549023438
 40
2.9199991
100
AcDbArc
 50
-48.88784
 51
0
  0
LINE
  5
36E
100
AcDbEntity
  8
ボルトナット
  6
CONTINUOUS
 62
     0
100
AcDbLine
 10
1685.437213322
 20
1006.349043438
 11
1679.437213322
 21
1006.349033438
  0
LINE
  5
36F
100
AcDbEntity
  8
ボルトナット
  6
CONTINUOUS
 62
     0
100
AcDbLine
 10
1674.937213322
 20
1012.449073438
 11
1676.937213322
 21
1012.449073438
  0
LINE
  5
370
100
AcDbEntity
  8
ボルトナット
  6
CONTINUOUS
 62
     0
100
AcDbLine
 10
1685.167053322
 20
1010.749063438
 11
1679.437213322
 21
1010.749063438
  0
LINE
  5
371
100
AcDbEntity
  8
ボルトナット
  6
CENTER
 62
     0
100
AcDbLine
 10
1653.99355359
 20
1001.949058438
 11
1694.406523491
 21
1001.949058438
  0
LINE
  5
372
100
AcDbEntity
  8
ボルトナット
  6
DASHED
 62
     0
100
AcDbLine
 10
1664.937213322
 20
996.9490734378
 11
1676.937213322
 21
996.9490734378
  0
LINE
  5
373
100
AcDbEntity
  8
ボルトナット
  6
DASHED
 62
     0
100
AcDbLine
 10
1664.937213322
 20
1006.949073438
 11
1676.937213322
 21
1006.949073438
  0
LINE
  5
374
100
AcDbEntity
  8
ボルトナット
  6
CONTINUOUS
 62
     0
100
AcDbLine
 10
1679.437213322
 20
1011.149063438
 11
1676.937213322
 21
1011.149063438
  0
LINE
  5
375
100
AcDbEntity
  8
ボルトナット
  6
CONTINUOUS
 62
     0
100
AcDbLine
 10
1679.437213322
 20
992.7490534378
 11
1676.937213322
 21
992.7490534378
  0
LINE
  5
376
100
AcDbEntity
  8
ボルトナット
  6
CONTINUOUS
 62
     0
100
AcDbLine
 10
1679.437213322
 20
992.7490534378
 11
1679.437213322
 21
1011.149063438
  0
ENDBLK
  5
377
100
AcDbEntity
 67
     1
  8
ボルトナット
100
AcDbBlockEnd
  0
BLOCK
  5
378
100
AcDbEntity
  8
ボルトナット
100
AcDbBlockBegin
  2
BK13
 70
    64
 10
0
 20
0
  3
BK13
  1

  0
LINE
  5
379
100
AcDbEntity
  8
ボルトナット
  6
DASHED
 62
     0
100
AcDbLine
 10
979
 20
801.6091230715
 11
979
 21
822.6091230715
  0
LINE
  5
37A
100
AcDbEntity
  8
ボルトナット
  6
DASHED
 62
     0
100
AcDbLine
 10
966.20001
 20
807.1091230715
 11
966.20001
 21
817.1091230715
  0
LINE
  5
37B
100
AcDbEntity
  8
ボルトナット
  6
DASHED
 62
     0
100
AcDbLine
 10
969.5
 20
805.5091230715
 11
969.5
 21
818.7091230715
  0
ARC
  5
37C
100
AcDbEntity
  8
ボルトナット
  6
DASHED
 62
     0
100
AcDbCircle
 10
979.67999
 20
812.1091230715
 40
10.18
100
AcDbArc
 50
154.39147
 51
205.60849
  0
LINE
  5
37D
100
AcDbEntity
  8
ボルトナット
  6
DASHED
 62
     0
100
AcDbLine
 10
970.5
 20
807.7091230715
 11
976.5
 21
807.7091230715
  0
LINE
  5
37E
100
AcDbEntity
  8
ボルトナット
  6
DASHED
 62
     0
100
AcDbLine
 10
970.77017
 20
803.3091230715
 11
976.5
 21
803.3091230715
  0
LINE
  5
37F
100
AcDbEntity
  8
ボルトナット
  6
DASHED
 62
     0
100
AcDbLine
 10
969.5
 20
807.1091230715
 11
966.20001
 21
807.1091230715
  0
LINE
  5
380
100
AcDbEntity
  8
ボルトナット
  6
DASHED
 62
     0
100
AcDbLine
 10
969.5
 20
808.1091230715
 11
966.20001
 21
808.1091230715
  0
LINE
  5
381
100
AcDbEntity
  8
ボルトナット
  6
DASHED
 62
     0
100
AcDbLine
 10
969.50002
 20
805.5091330715
 11
970.77019
 21
803.3091330715
  0
ARC
  5
382
100
AcDbEntity
  8
ボルトナット
  6
DASHED
 62
     0
100
AcDbCircle
 10
972.41998
 20
805.5091230715
 40
2.9200001
100
AcDbArc
 50
131.11211
 51
180.00001
  0
LINE
  5
383
100
AcDbEntity
  8
ボルトナット
  6
DASHED
 62
     0
100
AcDbLine
 10
981
 20
801.6091230715
 11
979
 21
801.6091230715
  0
LINE
  5
384
100
AcDbEntity
  8
ボルトナット
  6
DASHED
 62
     0
100
AcDbLine
 10
970.77017
 20
820.9091230715
 11
976.5
 21
820.9091230715
  0
LINE
  5
385
100
AcDbEntity
  8
ボルトナット
  6
DASHED
 62
     0
100
AcDbLine
 10
970.5
 20
816.5091230715
 11
976.5
 21
816.5091230715
  0
LINE
  5
386
100
AcDbEntity
  8
ボルトナット
  6
DASHED
 62
     0
100
AcDbLine
 10
969.5
 20
817.1091230715
 11
966.20001
 21
817.1091230715
  0
LINE
  5
387
100
AcDbEntity
  8
ボルトナット
  6
DASHED
 62
     0
100
AcDbLine
 10
969.5
 20
816.1091230715
 11
966.20001
 21
816.1091230715
  0
LINE
  5
388
100
AcDbEntity
  8
ボルトナット
  6
DASHED
 62
     0
100
AcDbLine
 10
969.50001
 20
818.7091330715
 11
970.77019
 21
820.9091330715
  0
ARC
  5
389
100
AcDbEntity
  8
ボルトナット
  6
DASHED
 62
     0
100
AcDbCircle
 10
972.41998
 20
818.7091230715
 40
2.9199991
100
AcDbArc
 50
179.99999
 51
228.88784
  0
LINE
  5
38A
100
AcDbEntity
  8
ボルトナット
  6
DASHED
 62
     0
100
AcDbLine
 10
981
 20
822.6091230715
 11
979
 21
822.6091230715
  0
LINE
  5
38B
100
AcDbEntity
  8
ボルトナット
  6
CONTINUOUS
 62
     0
100
AcDbLine
 10
995.92984
 20
820.9091230715
 11
990.20001
 21
820.9091230715
  0
LINE
  5
38C
100
AcDbEntity
  8
ボルトナット
  6
CONTINUOUS
 62
     0
100
AcDbLine
 10
996.20001
 20
816.5091230715
 11
990.20001
 21
816.5091230715
  0
LINE
  5
38D
100
AcDbEntity
  8
ボルトナット
  6
CONTINUOUS
 62
     0
100
AcDbLine
 10
995.92984
 20
803.3091230715
 11
990.20001
 21
803.3091230715
  0
LINE
  5
38E
100
AcDbEntity
  8
ボルトナット
  6
CONTINUOUS
 62
     0
100
AcDbLine
 10
996.20001
 20
807.7091230715
 11
990.20001
 21
807.7091230715
  0
LINE
  5
38F
100
AcDbEntity
  8
ボルトナット
  6
CONTINUOUS
 62
     0
100
AcDbLine
 10
990.20001
 20
801.6091230715
 11
990.20001
 21
822.6091230715
  0
LINE
  5
390
100
AcDbEntity
  8
ボルトナット
  6
CONTINUOUS
 62
     0
100
AcDbLine
 10
988.20001
 20
801.6091230715
 11
988.20001
 21
822.6091230715
  0
LINE
  5
391
100
AcDbEntity
  8
ボルトナット
  6
CONTINUOUS
 62
     0
100
AcDbLine
 10
990.20001
 20
801.6091230715
 11
988.20001
 21
801.6091230715
  0
LINE
  5
392
100
AcDbEntity
  8
ボルトナット
  6
CONTINUOUS
 62
     0
100
AcDbLine
 10
990.20001
 20
822.6091230715
 11
988.20001
 21
822.6091230715
  0
LINE
  5
393
100
AcDbEntity
  8
ボルトナット
  6
CONTINUOUS
 62
     0
100
AcDbLine
 10
997.20001
 20
805.5091230715
 11
997.20001
 21
818.7091230715
  0
ARC
  5
394
100
AcDbEntity
  8
ボルトナット
  6
CONTINUOUS
 62
     0
100
AcDbCircle
 10
987.01999
 20
812.1091230715
 40
10.18
100
AcDbArc
 50
-25.60855000001
 51
25.60847400001
  0
LINE
  5
395
100
AcDbEntity
  8
ボルトナット
  6
CONTINUOUS
 62
     0
100
AcDbLine
 10
997.20001
 20
805.5091130715
 11
995.92986
 21
803.3091330715
  0
ARC
  5
396
100
AcDbEntity
  8
ボルトナット
  6
CONTINUOUS
 62
     0
100
AcDbCircle
 10
994.28
 20
805.5091230715
 40
2.9200001
100
AcDbArc
 50
-2.000000418328E-005
 51
48.887909
  0
LINE
  5
397
100
AcDbEntity
  8
ボルトナット
  6
CONTINUOUS
 62
     0
100
AcDbLine
 10
997.20001
 20
818.7091230715
 11
995.92984
 21
820.9091230715
  0
ARC
  5
398
100
AcDbEntity
  8
ボルトナット
  6
CONTINUOUS
 62
     0
100
AcDbCircle
 10
994.28
 20
818.7091230715
 40
2.9199991
100
AcDbArc
 50
-48.88791000003
 51
-3.999998637327E-005
  0
LINE
  5
399
100
AcDbEntity
  8
ボルトナット
  6
DASHED
 62
     0
100
AcDbLine
 10
990.20001
 20
807.1091230715
 11
979
 21
807.1091230715
  0
LINE
  5
39A
100
AcDbEntity
  8
ボルトナット
  6
DASHED
 62
     0
100
AcDbLine
 10
990.20001
 20
817.1091230715
 11
979
 21
817.1091230715
  0
LINE
  5
39B
100
AcDbEntity
  8
ボルトナット
  6
DASHED
 62
     0
100
AcDbLine
 10
965.20001
 20
808.1091230715
 11
965.20001
 21
816.1091230715
  0
LINE
  5
39C
100
AcDbEntity
  8
ボルトナット
  6
DASHED
 62
     0
100
AcDbLine
 10
965.2
 20
816.1091130715
 11
966.2
 21
817.1091130715
  0
LINE
  5
39D
100
AcDbEntity
  8
ボルトナット
  6
CONTINUOUS
 62
     0
100
AcDbLine
 10
966.19999
 20
807.1091130715
 11
965.19999
 21
808.1091230715
  0
LINE
  5
39E
100
AcDbEntity
  8
ボルトナット
  6
CENTER
 62
     0
100
AcDbLine
 10
961.6696675428
 20
812.1091230715
 11
1002.616172163
 21
812.1091230715
  0
LINE
  5
39F
100
AcDbEntity
  8
ボルトナット
  6
DASHED
 62
     0
100
AcDbLine
 10
976.5
 20
802.9091230715
 11
976.5
 21
821.3091230715
  0
LINE
  5
3A0
100
AcDbEntity
  8
ボルトナット
  6
DASHED
 62
     0
100
AcDbLine
 10
976.5
 20
821.3091230715
 11
979
 21
821.3091230715
  0
LINE
  5
3A1
100
AcDbEntity
  8
ボルトナット
  6
DASHED
 62
     0
100
AcDbLine
 10
976.5
 20
802.9091230715
 11
979
 21
802.9091230715
  0
ENDBLK
  5
3A2
100
AcDbEntity
 67
     1
  8
ボルトナット
100
AcDbBlockEnd
  0
BLOCK
  5
3A3
100
AcDbEntity
  8
ボルトナット
100
AcDbBlockBegin
  2
BK14
 70
    64
 10
0
 20
0
  3
BK14
  1

  0
LINE
  5
3A4
100
AcDbEntity
  8
ボルトナット
  6
DASHED
 62
     0
100
AcDbLine
 10
978.7670384561
 20
1001.278745834
 11
978.7670384561
 21
1022.278745834
  0
LINE
  5
3A5
100
AcDbEntity
  8
ボルトナット
  6
DASHED
 62
     0
100
AcDbLine
 10
965.9670484561
 20
1006.778745834
 11
965.9670484561
 21
1016.778745834
  0
LINE
  5
3A6
100
AcDbEntity
  8
ボルトナット
  6
DASHED
 62
     0
100
AcDbLine
 10
969.2670384561
 20
1005.178745834
 11
969.2670384561
 21
1018.378745834
  0
ARC
  5
3A7
100
AcDbEntity
  8
ボルトナット
  6
DASHED
 62
     0
100
AcDbCircle
 10
979.4470284561
 20
1011.778745834
 40
10.18
100
AcDbArc
 50
154.39147
 51
205.60849
  0
LINE
  5
3A8
100
AcDbEntity
  8
ボルトナット
  6
DASHED
 62
     0
100
AcDbLine
 10
970.2670384561
 20
1007.378745834
 11
976.2670384561
 21
1007.378745834
  0
LINE
  5
3A9
100
AcDbEntity
  8
ボルトナット
  6
DASHED
 62
     0
100
AcDbLine
 10
970.5372084561
 20
1002.978745834
 11
976.2670384561
 21
1002.978745834
  0
LINE
  5
3AA
100
AcDbEntity
  8
ボルトナット
  6
DASHED
 62
     0
100
AcDbLine
 10
969.2670384561
 20
1006.778745834
 11
965.9670484561
 21
1006.778745834
  0
LINE
  5
3AB
100
AcDbEntity
  8
ボルトナット
  6
DASHED
 62
     0
100
AcDbLine
 10
969.2670384561
 20
1007.778745834
 11
965.9670484561
 21
1007.778745834
  0
LINE
  5
3AC
100
AcDbEntity
  8
ボルトナット
  6
DASHED
 62
     0
100
AcDbLine
 10
969.2670584561
 20
1005.178755834
 11
970.5372284561
 21
1002.978755834
  0
ARC
  5
3AD
100
AcDbEntity
  8
ボルトナット
  6
DASHED
 62
     0
100
AcDbCircle
 10
972.1870184561
 20
1005.178745834
 40
2.9200001
100
AcDbArc
 50
131.11211
 51
180.00001
  0
LINE
  5
3AE
100
AcDbEntity
  8
ボルトナット
  6
DASHED
 62
     0
100
AcDbLine
 10
980.7670384561
 20
1001.278745834
 11
978.7670384561
 21
1001.278745834
  0
LINE
  5
3AF
100
AcDbEntity
  8
ボルトナット
  6
DASHED
 62
     0
100
AcDbLine
 10
970.5372084561
 20
1020.578745834
 11
976.2670384561
 21
1020.578745834
  0
LINE
  5
3B0
100
AcDbEntity
  8
ボルトナット
  6
DASHED
 62
     0
100
AcDbLine
 10
970.2670384561
 20
1016.178745834
 11
976.2670384561
 21
1016.178745834
  0
LINE
  5
3B1
100
AcDbEntity
  8
ボルトナット
  6
DASHED
 62
     0
100
AcDbLine
 10
969.2670384561
 20
1016.778745834
 11
965.9670484561
 21
1016.778745834
  0
LINE
  5
3B2
100
AcDbEntity
  8
ボルトナット
  6
DASHED
 62
     0
100
AcDbLine
 10
969.2670384561
 20
1015.778745834
 11
965.9670484561
 21
1015.778745834
  0
LINE
  5
3B3
100
AcDbEntity
  8
ボルトナット
  6
DASHED
 62
     0
100
AcDbLine
 10
969.2670484561
 20
1018.378755834
 11
970.5372284561
 21
1020.578755834
  0
ARC
  5
3B4
100
AcDbEntity
  8
ボルトナット
  6
DASHED
 62
     0
100
AcDbCircle
 10
972.1870184561
 20
1018.378745834
 40
2.9199991
100
AcDbArc
 50
179.99999
 51
228.88784
  0
LINE
  5
3B5
100
AcDbEntity
  8
ボルトナット
  6
DASHED
 62
     0
100
AcDbLine
 10
980.7670384561
 20
1022.278745834
 11
978.7670384561
 21
1022.278745834
  0
LINE
  5
3B6
100
AcDbEntity
  8
ボルトナット
  6
CONTINUOUS
 62
     0
100
AcDbLine
 10
995.6968784561
 20
1020.578745834
 11
989.9670484561
 21
1020.578745834
  0
LINE
  5
3B7
100
AcDbEntity
  8
ボルトナット
  6
CONTINUOUS
 62
     0
100
AcDbLine
 10
995.9670484561
 20
1016.178745834
 11
989.9670484561
 21
1016.178745834
  0
LINE
  5
3B8
100
AcDbEntity
  8
ボルトナット
  6
CONTINUOUS
 62
     0
100
AcDbLine
 10
995.6968784561
 20
1002.978745834
 11
989.9670484561
 21
1002.978745834
  0
LINE
  5
3B9
100
AcDbEntity
  8
ボルトナット
  6
CONTINUOUS
 62
     0
100
AcDbLine
 10
995.9670484561
 20
1007.378745834
 11
989.9670484561
 21
1007.378745834
  0
LINE
  5
3BA
100
AcDbEntity
  8
ボルトナット
  6
CONTINUOUS
 62
     0
100
AcDbLine
 10
989.9670484561
 20
1001.278745834
 11
989.9670484561
 21
1022.278745834
  0
LINE
  5
3BB
100
AcDbEntity
  8
ボルトナット
  6
CONTINUOUS
 62
     0
100
AcDbLine
 10
987.9670484561
 20
1001.278745834
 11
987.9670484561
 21
1022.278745834
  0
LINE
  5
3BC
100
AcDbEntity
  8
ボルトナット
  6
CONTINUOUS
 62
     0
100
AcDbLine
 10
989.9670484561
 20
1001.278745834
 11
987.9670484561
 21
1001.278745834
  0
LINE
  5
3BD
100
AcDbEntity
  8
ボルトナット
  6
CONTINUOUS
 62
     0
100
AcDbLine
 10
989.9670484561
 20
1022.278745834
 11
987.9670484561
 21
1022.278745834
  0
LINE
  5
3BE
100
AcDbEntity
  8
ボルトナット
  6
CONTINUOUS
 62
     0
100
AcDbLine
 10
996.9670484561
 20
1005.178745834
 11
996.9670484561
 21
1018.378745834
  0
ARC
  5
3BF
100
AcDbEntity
  8
ボルトナット
  6
CONTINUOUS
 62
     0
100
AcDbCircle
 10
986.7870284561
 20
1011.778745834
 40
10.18
100
AcDbArc
 50
-25.60855000001
 51
25.60847400001
  0
LINE
  5
3C0
100
AcDbEntity
  8
ボルトナット
  6
CONTINUOUS
 62
     0
100
AcDbLine
 10
996.9670484561
 20
1005.178735834
 11
995.6968984561
 21
1002.978755834
  0
ARC
  5
3C1
100
AcDbEntity
  8
ボルトナット
  6
CONTINUOUS
 62
     0
100
AcDbCircle
 10
994.0470384561
 20
1005.178745834
 40
2.9200001
100
AcDbArc
 50
-2.000000418328E-005
 51
48.88790899995
  0
LINE
  5
3C2
100
AcDbEntity
  8
ボルトナット
  6
CONTINUOUS
 62
     0
100
AcDbLine
 10
996.9670484561
 20
1018.378745834
 11
995.6968784561
 21
1020.578745834
  0
ARC
  5
3C3
100
AcDbEntity
  8
ボルトナット
  6
CONTINUOUS
 62
     0
100
AcDbCircle
 10
994.0470384561
 20
1018.378745834
 40
2.9199991
100
AcDbArc
 50
-48.88790999998
 51
-3.999998637327E-005
  0
LINE
  5
3C4
100
AcDbEntity
  8
ボルトナット
  6
DASHED
 62
     0
100
AcDbLine
 10
989.9670484561
 20
1006.778745834
 11
978.7670384561
 21
1006.778745834
  0
LINE
  5
3C5
100
AcDbEntity
  8
ボルトナット
  6
DASHED
 62
     0
100
AcDbLine
 10
989.9670484561
 20
1016.778745834
 11
978.7670384561
 21
1016.778745834
  0
LINE
  5
3C6
100
AcDbEntity
  8
ボルトナット
  6
DASHED
 62
     0
100
AcDbLine
 10
964.9670484561
 20
1007.778745834
 11
964.9670484561
 21
1015.778745834
  0
LINE
  5
3C7
100
AcDbEntity
  8
ボルトナット
  6
DASHED
 62
     0
100
AcDbLine
 10
964.9670384561
 20
1015.778735834
 11
965.9670384561
 21
1016.778735834
  0
LINE
  5
3C8
100
AcDbEntity
  8
ボルトナット
  6
CONTINUOUS
 62
     0
100
AcDbLine
 10
965.9670284561
 20
1006.778735834
 11
964.9670284561
 21
1007.778745834
  0
LINE
  5
3C9
100
AcDbEntity
  8
ボルトナット
  6
CENTER
 62
     0
100
AcDbLine
 10
961.4367059989
 20
1011.778745834
 11
1002.383210619
 21
1011.778745834
  0
LINE
  5
3CA
100
AcDbEntity
  8
ボルトナット
  6
DASHED
 62
     0
100
AcDbLine
 10
976.2670384561
 20
1002.578745834
 11
976.2670384561
 21
1020.978745834
  0
LINE
  5
3CB
100
AcDbEntity
  8
ボルトナット
  6
DASHED
 62
     0
100
AcDbLine
 10
976.2670384561
 20
1020.978745834
 11
978.7670384561
 21
1020.978745834
  0
LINE
  5
3CC
100
AcDbEntity
  8
ボルトナット
  6
DASHED
 62
     0
100
AcDbLine
 10
976.2670384561
 20
1002.578745834
 11
978.7670384561
 21
1002.578745834
  0
ENDBLK
  5
3CD
100
AcDbEntity
 67
     1
  8
ボルトナット
100
AcDbBlockEnd
  0
BLOCK
  5
3CE
100
AcDbEntity
  8
取付金具
100
AcDbBlockBegin
  2
BK15
 70
    64
 10
0
 20
0
  3
BK15
  1

  0
LINE
  5
3CF
100
AcDbEntity
  8
取付金具
  6
CENTER
 62
     0
100
AcDbLine
 10
916.3133651988
 20
743.6071595149
 11
926.76
 21
743.6071595149
  0
LINE
  5
3D0
100
AcDbEntity
  8
取付金具
  6
CONTINUOUS
 62
     0
100
AcDbLine
 10
921.0000753519
 20
752.1992375673
 11
921
 21
752.199207743
  0
LINE
  5
3D1
100
AcDbEntity
  8
取付金具
  6
CONTINUOUS
 62
     0
100
AcDbLine
 10
915.7
 20
749.9591230715
 11
915.7
 21
749.0591230715
  0
LINE
  5
3D2
100
AcDbEntity
  8
取付金具
  6
CONTINUOUS
 62
     0
100
AcDbLine
 10
918.2
 20
750.2591230715
 11
916
 21
750.2591230715
  0
LINE
  5
3D3
100
AcDbEntity
  8
取付金具
  6
CONTINUOUS
 62
     0
100
AcDbLine
 10
918.2
 20
753.1091230715
 11
918.2
 21
750.2591230715
  0
LINE
  5
3D4
100
AcDbEntity
  8
取付金具
  6
CONTINUOUS
 62
     0
100
AcDbLine
 10
924.4
 20
743.6091230715
 11
924.7
 21
744.1287383135
  0
LINE
  5
3D5
100
AcDbEntity
  8
取付金具
  6
CONTINUOUS
 62
     0
100
AcDbLine
 10
924.7
 20
744.1287383135
 11
924.7
 21
747.9302624095
  0
LINE
  5
3D6
100
AcDbEntity
  8
取付金具
  6
CONTINUOUS
 62
     0
100
AcDbLine
 10
924.542655111
 20
748.1941743635
 11
921.262241483
 21
749.9673709185
  0
LINE
  5
3D7
100
AcDbEntity
  8
取付金具
  6
CONTINUOUS
 62
     0
100
AcDbLine
 10
921
 20
750.4072241755
 11
921
 21
752.1992211205
  0
LINE
  5
3D8
100
AcDbEntity
  8
取付金具
  6
CONTINUOUS
 62
     0
100
AcDbLine
 10
921.401941933
 20
752.6895114585
 11
923.098058068
 21
753.0287346855
  0
LINE
  5
3D9
100
AcDbEntity
  8
取付金具
  6
CONTINUOUS
 62
     0
100
AcDbLine
 10
923.5
 20
753.5190250225
 11
923.5
 21
754.6091230715
  0
LINE
  5
3DA
100
AcDbEntity
  8
取付金具
  6
CONTINUOUS
 62
     0
100
AcDbLine
 10
923
 20
755.1091230715
 11
920.2
 21
755.1091230715
  0
LINE
  5
3DB
100
AcDbEntity
  8
取付金具
  6
CONTINUOUS
 62
     0
100
AcDbLine
 10
916
 20
748.7591230715
 11
918.7
 21
748.7591230715
  0
LINE
  5
3DC
100
AcDbEntity
  8
取付金具
  6
CONTINUOUS
 62
     0
100
AcDbLine
 10
918.7
 20
748.7591230715
 11
918.7
 21
738.4591230715
  0
ARC
  5
3DD
100
AcDbEntity
  8
取付金具
  6
CONTINUOUS
 62
     0
100
AcDbCircle
 10
920.2
 20
753.1091230715
 40
2
100
AcDbArc
 50
90
 51
180
  0
ARC
  5
3DE
100
AcDbEntity
  8
取付金具
  6
CONTINUOUS
 62
     0
100
AcDbCircle
 10
921.5
 20
750.4072241755
 40
0.5
100
AcDbArc
 50
180
 51
241.6069805787
  0
ARC
  5
3DF
100
AcDbEntity
  8
取付金具
  6
CONTINUOUS
 62
     0
100
AcDbCircle
 10
921.5
 20
752.1992211205
 40
0.5
100
AcDbArc
 50
101.3099324741
 51
180
  0
ARC
  5
3E0
100
AcDbEntity
  8
取付金具
  6
CONTINUOUS
 62
     0
100
AcDbCircle
 10
923
 20
753.5190250225
 40
0.5
100
AcDbArc
 50
-78.69006752613
 51
0
  0
ARC
  5
3E1
100
AcDbEntity
  8
取付金具
  6
CONTINUOUS
 62
     0
100
AcDbCircle
 10
923
 20
754.6091230715
 40
0.5
100
AcDbArc
 50
0
 51
90
  0
ARC
  5
3E2
100
AcDbEntity
  8
取付金具
  6
CONTINUOUS
 62
     0
100
AcDbCircle
 10
916
 20
749.9591230715
 40
0.3
100
AcDbArc
 50
90
 51
180
  0
ARC
  5
3E3
100
AcDbEntity
  8
取付金具
  6
CONTINUOUS
 62
     0
100
AcDbCircle
 10
916
 20
749.0591230715
 40
0.3
100
AcDbArc
 50
180
 51
270
  0
ARC
  5
3E4
100
AcDbEntity
  8
取付金具
  6
CONTINUOUS
 62
     0
100
AcDbCircle
 10
916
 20
738.1591230715
 40
0.3
100
AcDbArc
 50
90
 51
180
  0
ARC
  5
3E5
100
AcDbEntity
  8
取付金具
  6
CONTINUOUS
 62
     0
100
AcDbCircle
 10
916
 20
737.2591230715
 40
0.3
100
AcDbArc
 50
180
 51
270
  0
ARC
  5
3E6
100
AcDbEntity
  8
取付金具
  6
CONTINUOUS
 62
     0
100
AcDbCircle
 10
923
 20
732.6091230715
 40
0.5
100
AcDbArc
 50
-90
 51
0
  0
ARC
  5
3E7
100
AcDbEntity
  8
取付金具
  6
CONTINUOUS
 62
     0
100
AcDbCircle
 10
923
 20
733.6992211205
 40
0.5
100
AcDbArc
 50
0
 51
78.69006752613
  0
ARC
  5
3E8
100
AcDbEntity
  8
取付金具
  6
CONTINUOUS
 62
     0
100
AcDbCircle
 10
921.5
 20
735.0190250225
 40
0.5
100
AcDbArc
 50
180
 51
258.6900675259
  0
ARC
  5
3E9
100
AcDbEntity
  8
取付金具
  6
CONTINUOUS
 62
     0
100
AcDbCircle
 10
921.5
 20
736.8110219675
 40
0.5
100
AcDbArc
 50
118.3930194212
 51
180
  0
ARC
  5
3EA
100
AcDbEntity
  8
取付金具
  6
CONTINUOUS
 62
     0
100
AcDbCircle
 10
920.2
 20
734.1091230715
 40
2
100
AcDbArc
 50
180
 51
270
  0
ARC
  5
3EB
100
AcDbEntity
  8
取付金具
  6
CONTINUOUS
 62
     0
100
AcDbCircle
 10
924.4
 20
747.9302624095
 40
0.3
100
AcDbArc
 50
0
 51
61.60698057885
  0
ARC
  5
3EC
100
AcDbEntity
  8
取付金具
  6
CONTINUOUS
 62
     0
100
AcDbCircle
 10
924.4
 20
739.2879837335
 40
0.3
100
AcDbArc
 50
-61.60698057882
 51
0
  0
LINE
  5
3ED
100
AcDbEntity
  8
取付金具
  6
CONTINUOUS
 62
     0
100
AcDbLine
 10
916
 20
738.4591230715
 11
918.7
 21
738.4591230715
  0
LINE
  5
3EE
100
AcDbEntity
  8
取付金具
  6
CONTINUOUS
 62
     0
100
AcDbLine
 10
923
 20
732.1091230715
 11
920.2
 21
732.1091230715
  0
LINE
  5
3EF
100
AcDbEntity
  8
取付金具
  6
CONTINUOUS
 62
     0
100
AcDbLine
 10
923.5
 20
733.6992211205
 11
923.5
 21
732.6091230715
  0
LINE
  5
3F0
100
AcDbEntity
  8
取付金具
  6
CONTINUOUS
 62
     0
100
AcDbLine
 10
921.401941933
 20
734.5287346855
 11
923.098058068
 21
734.1895114585
  0
LINE
  5
3F1
100
AcDbEntity
  8
取付金具
  6
CONTINUOUS
 62
     0
100
AcDbLine
 10
921
 20
736.8110219675
 11
921
 21
735.0190250225
  0
LINE
  5
3F2
100
AcDbEntity
  8
取付金具
  6
CONTINUOUS
 62
     0
100
AcDbLine
 10
924.542655111
 20
739.0240717795
 11
921.262241483
 21
737.2508752245
  0
LINE
  5
3F3
100
AcDbEntity
  8
取付金具
  6
CONTINUOUS
 62
     0
100
AcDbLine
 10
924.7
 20
743.0895078295
 11
924.7
 21
739.2879837335
  0
LINE
  5
3F4
100
AcDbEntity
  8
取付金具
  6
CONTINUOUS
 62
     0
100
AcDbLine
 10
924.4
 20
743.6091230715
 11
924.7
 21
743.0895078295
  0
LINE
  5
3F5
100
AcDbEntity
  8
取付金具
  6
CONTINUOUS
 62
     0
100
AcDbLine
 10
918.2
 20
734.1091230715
 11
918.2
 21
736.9591230715
  0
LINE
  5
3F6
100
AcDbEntity
  8
取付金具
  6
CONTINUOUS
 62
     0
100
AcDbLine
 10
918.2
 20
736.9591230715
 11
916
 21
736.9591230715
  0
LINE
  5
3F7
100
AcDbEntity
  8
取付金具
  6
CONTINUOUS
 62
     0
100
AcDbLine
 10
915.7
 20
737.2591230715
 11
915.7
 21
738.1591230715
  0
LINE
  5
3F8
100
AcDbEntity
  8
取付金具
  6
DOT
 62
     0
100
AcDbLine
 10
918.7
 20
740.60719155
 11
924.7
 21
740.6071389185
  0
LINE
  5
3F9
100
AcDbEntity
  8
取付金具
  6
DOT
 62
     0
100
AcDbLine
 10
918.7
 20
741.14719155
 11
924.7
 21
741.1471389185
  0
LINE
  5
3FA
100
AcDbEntity
  8
取付金具
  6
DOT
 62
     0
100
AcDbLine
 10
918.7
 20
746.06719155
 11
924.7
 21
746.0671389185
  0
LINE
  5
3FB
100
AcDbEntity
  8
取付金具
  6
DOT
 62
     0
100
AcDbLine
 10
918.7
 20
746.60719155
 11
924.7
 21
746.6071389185
  0
ENDBLK
  5
3FC
100
AcDbEntity
 67
     1
  8
取付金具
100
AcDbBlockEnd
  0
BLOCK
  5
3FD
100
AcDbEntity
  8
取付金具
100
AcDbBlockBegin
  2
BK16
 70
    64
 10
0
 20
0
  3
BK16
  1

  0
LINE
  5
3FE
100
AcDbEntity
  8
取付金具
  6
CENTER
 62
     0
100
AcDbLine
 10
916.3133651988
 20
918.6071595149
 11
926.76
 21
918.6071595149
  0
LINE
  5
3FF
100
AcDbEntity
  8
取付金具
  6
CONTINUOUS
 62
     0
100
AcDbLine
 10
921.0000753519
 20
927.1992375673
 11
921
 21
927.199207743
  0
LINE
  5
400
100
AcDbEntity
  8
取付金具
  6
CONTINUOUS
 62
     0
100
AcDbLine
 10
915.7
 20
924.9591230715
 11
915.7
 21
924.0591230715
  0
LINE
  5
401
100
AcDbEntity
  8
取付金具
  6
CONTINUOUS
 62
     0
100
AcDbLine
 10
918.2
 20
925.2591230715
 11
916
 21
925.2591230715
  0
LINE
  5
402
100
AcDbEntity
  8
取付金具
  6
CONTINUOUS
 62
     0
100
AcDbLine
 10
918.2
 20
928.1091230715
 11
918.2
 21
925.2591230715
  0
LINE
  5
403
100
AcDbEntity
  8
取付金具
  6
CONTINUOUS
 62
     0
100
AcDbLine
 10
924.4
 20
918.6091230715
 11
924.7
 21
919.1287383135
  0
LINE
  5
404
100
AcDbEntity
  8
取付金具
  6
CONTINUOUS
 62
     0
100
AcDbLine
 10
924.7
 20
919.1287383135
 11
924.7
 21
922.9302624095
  0
LINE
  5
405
100
AcDbEntity
  8
取付金具
  6
CONTINUOUS
 62
     0
100
AcDbLine
 10
924.542655111
 20
923.1941743635
 11
921.262241483
 21
924.9673709185
  0
LINE
  5
406
100
AcDbEntity
  8
取付金具
  6
CONTINUOUS
 62
     0
100
AcDbLine
 10
921
 20
925.4072241755
 11
921
 21
927.1992211205
  0
LINE
  5
407
100
AcDbEntity
  8
取付金具
  6
CONTINUOUS
 62
     0
100
AcDbLine
 10
921.401941933
 20
927.6895114585
 11
923.098058068
 21
928.0287346855
  0
LINE
  5
408
100
AcDbEntity
  8
取付金具
  6
CONTINUOUS
 62
     0
100
AcDbLine
 10
923.5
 20
928.5190250225
 11
923.5
 21
929.6091230715
  0
LINE
  5
409
100
AcDbEntity
  8
取付金具
  6
CONTINUOUS
 62
     0
100
AcDbLine
 10
923
 20
930.1091230715
 11
920.2
 21
930.1091230715
  0
LINE
  5
40A
100
AcDbEntity
  8
取付金具
  6
CONTINUOUS
 62
     0
100
AcDbLine
 10
916
 20
923.7591230715
 11
918.7
 21
923.7591230715
  0
LINE
  5
40B
100
AcDbEntity
  8
取付金具
  6
CONTINUOUS
 62
     0
100
AcDbLine
 10
918.7
 20
923.7591230715
 11
918.7
 21
913.4591230715
  0
ARC
  5
40C
100
AcDbEntity
  8
取付金具
  6
CONTINUOUS
 62
     0
100
AcDbCircle
 10
920.2
 20
928.1091230715
 40
2
100
AcDbArc
 50
90
 51
180
  0
ARC
  5
40D
100
AcDbEntity
  8
取付金具
  6
CONTINUOUS
 62
     0
100
AcDbCircle
 10
921.5
 20
925.4072241755
 40
0.5
100
AcDbArc
 50
180
 51
241.6069805787
  0
ARC
  5
40E
100
AcDbEntity
  8
取付金具
  6
CONTINUOUS
 62
     0
100
AcDbCircle
 10
921.5
 20
927.1992211205
 40
0.5
100
AcDbArc
 50
101.3099324741
 51
180
  0
ARC
  5
40F
100
AcDbEntity
  8
取付金具
  6
CONTINUOUS
 62
     0
100
AcDbCircle
 10
923
 20
928.5190250225
 40
0.5
100
AcDbArc
 50
-78.69006752614
 51
0
  0
ARC
  5
410
100
AcDbEntity
  8
取付金具
  6
CONTINUOUS
 62
     0
100
AcDbCircle
 10
923
 20
929.6091230715
 40
0.5
100
AcDbArc
 50
0
 51
90
  0
ARC
  5
411
100
AcDbEntity
  8
取付金具
  6
CONTINUOUS
 62
     0
100
AcDbCircle
 10
916
 20
924.9591230715
 40
0.3
100
AcDbArc
 50
90
 51
180
  0
ARC
  5
412
100
AcDbEntity
  8
取付金具
  6
CONTINUOUS
 62
     0
100
AcDbCircle
 10
916
 20
924.0591230715
 40
0.3
100
AcDbArc
 50
180
 51
270
  0
ARC
  5
413
100
AcDbEntity
  8
取付金具
  6
CONTINUOUS
 62
     0
100
AcDbCircle
 10
916
 20
913.1591230715
 40
0.3
100
AcDbArc
 50
90
 51
180
  0
ARC
  5
414
100
AcDbEntity
  8
取付金具
  6
CONTINUOUS
 62
     0
100
AcDbCircle
 10
916
 20
912.2591230715
 40
0.3
100
AcDbArc
 50
180
 51
270
  0
ARC
  5
415
100
AcDbEntity
  8
取付金具
  6
CONTINUOUS
 62
     0
100
AcDbCircle
 10
923
 20
907.6091230715
 40
0.5
100
AcDbArc
 50
-90
 51
0
  0
ARC
  5
416
100
AcDbEntity
  8
取付金具
  6
CONTINUOUS
 62
     0
100
AcDbCircle
 10
923
 20
908.6992211205
 40
0.5
100
AcDbArc
 50
0
 51
78.69006752614
  0
ARC
  5
417
100
AcDbEntity
  8
取付金具
  6
CONTINUOUS
 62
     0
100
AcDbCircle
 10
921.5
 20
910.0190250225
 40
0.5
100
AcDbArc
 50
180
 51
258.6900675259
  0
ARC
  5
418
100
AcDbEntity
  8
取付金具
  6
CONTINUOUS
 62
     0
100
AcDbCircle
 10
921.5
 20
911.8110219675
 40
0.5
100
AcDbArc
 50
118.3930194212
 51
180
  0
ARC
  5
419
100
AcDbEntity
  8
取付金具
  6
CONTINUOUS
 62
     0
100
AcDbCircle
 10
920.2
 20
909.1091230715
 40
2
100
AcDbArc
 50
180
 51
270
  0
ARC
  5
41A
100
AcDbEntity
  8
取付金具
  6
CONTINUOUS
 62
     0
100
AcDbCircle
 10
924.4
 20
922.9302624095
 40
0.3
100
AcDbArc
 50
0
 51
61.60698057887
  0
ARC
  5
41B
100
AcDbEntity
  8
取付金具
  6
CONTINUOUS
 62
     0
100
AcDbCircle
 10
924.4
 20
914.2879837335
 40
0.3
100
AcDbArc
 50
-61.60698057882
 51
0
  0
LINE
  5
41C
100
AcDbEntity
  8
取付金具
  6
CONTINUOUS
 62
     0
100
AcDbLine
 10
916
 20
913.4591230715
 11
918.7
 21
913.4591230715
  0
LINE
  5
41D
100
AcDbEntity
  8
取付金具
  6
CONTINUOUS
 62
     0
100
AcDbLine
 10
923
 20
907.1091230715
 11
920.2
 21
907.1091230715
  0
LINE
  5
41E
100
AcDbEntity
  8
取付金具
  6
CONTINUOUS
 62
     0
100
AcDbLine
 10
923.5
 20
908.6992211205
 11
923.5
 21
907.6091230715
  0
LINE
  5
41F
100
AcDbEntity
  8
取付金具
  6
CONTINUOUS
 62
     0
100
AcDbLine
 10
921.401941933
 20
909.5287346855
 11
923.098058068
 21
909.1895114585
  0
LINE
  5
420
100
AcDbEntity
  8
取付金具
  6
CONTINUOUS
 62
     0
100
AcDbLine
 10
921
 20
911.8110219675
 11
921
 21
910.0190250225
  0
LINE
  5
421
100
AcDbEntity
  8
取付金具
  6
CONTINUOUS
 62
     0
100
AcDbLine
 10
924.542655111
 20
914.0240717795
 11
921.262241483
 21
912.2508752245
  0
LINE
  5
422
100
AcDbEntity
  8
取付金具
  6
CONTINUOUS
 62
     0
100
AcDbLine
 10
924.7
 20
918.0895078295
 11
924.7
 21
914.2879837335
  0
LINE
  5
423
100
AcDbEntity
  8
取付金具
  6
CONTINUOUS
 62
     0
100
AcDbLine
 10
924.4
 20
918.6091230715
 11
924.7
 21
918.0895078295
  0
LINE
  5
424
100
AcDbEntity
  8
取付金具
  6
CONTINUOUS
 62
     0
100
AcDbLine
 10
918.2
 20
909.1091230715
 11
918.2
 21
911.9591230715
  0
LINE
  5
425
100
AcDbEntity
  8
取付金具
  6
CONTINUOUS
 62
     0
100
AcDbLine
 10
918.2
 20
911.9591230715
 11
916
 21
911.9591230715
  0
LINE
  5
426
100
AcDbEntity
  8
取付金具
  6
CONTINUOUS
 62
     0
100
AcDbLine
 10
915.7
 20
912.2591230715
 11
915.7
 21
913.1591230715
  0
LINE
  5
427
100
AcDbEntity
  8
取付金具
  6
DOT
 62
     0
100
AcDbLine
 10
918.7
 20
915.60719155
 11
924.7
 21
915.6071389185
  0
LINE
  5
428
100
AcDbEntity
  8
取付金具
  6
DOT
 62
     0
100
AcDbLine
 10
918.7
 20
916.14719155
 11
924.7
 21
916.1471389185
  0
LINE
  5
429
100
AcDbEntity
  8
取付金具
  6
DOT
 62
     0
100
AcDbLine
 10
918.7
 20
921.06719155
 11
924.7
 21
921.0671389185
  0
LINE
  5
42A
100
AcDbEntity
  8
取付金具
  6
DOT
 62
     0
100
AcDbLine
 10
918.7
 20
921.60719155
 11
924.7
 21
921.6071389185
  0
ENDBLK
  5
42B
100
AcDbEntity
 67
     1
  8
取付金具
100
AcDbBlockEnd
  0
BLOCK
  5
42C
100
AcDbEntity
  8
取付金具
100
AcDbBlockBegin
  2
BK17
 70
    64
 10
0
 20
0
  3
BK17
  1

  0
LINE
  5
42D
100
AcDbEntity
  8
取付金具
  6
CENTER
 62
     0
100
AcDbLine
 10
916.3133651988
 20
1093.607159515
 11
926.76
 21
1093.607159515
  0
LINE
  5
42E
100
AcDbEntity
  8
取付金具
  6
CONTINUOUS
 62
     0
100
AcDbLine
 10
921.0000753519
 20
1102.199237567
 11
921
 21
1102.199207743
  0
LINE
  5
42F
100
AcDbEntity
  8
取付金具
  6
CONTINUOUS
 62
     0
100
AcDbLine
 10
915.7
 20
1099.959123072
 11
915.7
 21
1099.059123072
  0
LINE
  5
430
100
AcDbEntity
  8
取付金具
  6
CONTINUOUS
 62
     0
100
AcDbLine
 10
918.2
 20
1100.259123072
 11
916
 21
1100.259123072
  0
LINE
  5
431
100
AcDbEntity
  8
取付金具
  6
CONTINUOUS
 62
     0
100
AcDbLine
 10
918.2
 20
1103.109123072
 11
918.2
 21
1100.259123072
  0
LINE
  5
432
100
AcDbEntity
  8
取付金具
  6
CONTINUOUS
 62
     0
100
AcDbLine
 10
924.4
 20
1093.609123072
 11
924.7
 21
1094.128738314
  0
LINE
  5
433
100
AcDbEntity
  8
取付金具
  6
CONTINUOUS
 62
     0
100
AcDbLine
 10
924.7
 20
1094.128738314
 11
924.7
 21
1097.93026241
  0
LINE
  5
434
100
AcDbEntity
  8
取付金具
  6
CONTINUOUS
 62
     0
100
AcDbLine
 10
924.542655111
 20
1098.194174364
 11
921.262241483
 21
1099.967370919
  0
LINE
  5
435
100
AcDbEntity
  8
取付金具
  6
CONTINUOUS
 62
     0
100
AcDbLine
 10
921
 20
1100.407224176
 11
921
 21
1102.199221121
  0
LINE
  5
436
100
AcDbEntity
  8
取付金具
  6
CONTINUOUS
 62
     0
100
AcDbLine
 10
921.401941933
 20
1102.689511459
 11
923.098058068
 21
1103.028734686
  0
LINE
  5
437
100
AcDbEntity
  8
取付金具
  6
CONTINUOUS
 62
     0
100
AcDbLine
 10
923.5
 20
1103.519025023
 11
923.5
 21
1104.609123072
  0
LINE
  5
438
100
AcDbEntity
  8
取付金具
  6
CONTINUOUS
 62
     0
100
AcDbLine
 10
923
 20
1105.109123072
 11
920.2
 21
1105.109123072
  0
LINE
  5
439
100
AcDbEntity
  8
取付金具
  6
CONTINUOUS
 62
     0
100
AcDbLine
 10
916
 20
1098.759123072
 11
918.7
 21
1098.759123072
  0
LINE
  5
43A
100
AcDbEntity
  8
取付金具
  6
CONTINUOUS
 62
     0
100
AcDbLine
 10
918.7
 20
1098.759123072
 11
918.7
 21
1088.459123072
  0
ARC
  5
43B
100
AcDbEntity
  8
取付金具
  6
CONTINUOUS
 62
     0
100
AcDbCircle
 10
920.2
 20
1103.109123072
 40
2
100
AcDbArc
 50
90
 51
180
  0
ARC
  5
43C
100
AcDbEntity
  8
取付金具
  6
CONTINUOUS
 62
     0
100
AcDbCircle
 10
921.5
 20
1100.407224176
 40
0.5
100
AcDbArc
 50
180
 51
241.6069805788
  0
ARC
  5
43D
100
AcDbEntity
  8
取付金具
  6
CONTINUOUS
 62
     0
100
AcDbCircle
 10
921.5
 20
1102.199221121
 40
0.5
100
AcDbArc
 50
101.3099324741
 51
180
  0
ARC
  5
43E
100
AcDbEntity
  8
取付金具
  6
CONTINUOUS
 62
     0
100
AcDbCircle
 10
923
 20
1103.519025023
 40
0.5
100
AcDbArc
 50
-78.69006752613
 51
0
  0
ARC
  5
43F
100
AcDbEntity
  8
取付金具
  6
CONTINUOUS
 62
     0
100
AcDbCircle
 10
923
 20
1104.609123072
 40
0.5
100
AcDbArc
 50
0
 51
90
  0
ARC
  5
440
100
AcDbEntity
  8
取付金具
  6
CONTINUOUS
 62
     0
100
AcDbCircle
 10
916
 20
1099.959123072
 40
0.3
100
AcDbArc
 50
90
 51
180
  0
ARC
  5
441
100
AcDbEntity
  8
取付金具
  6
CONTINUOUS
 62
     0
100
AcDbCircle
 10
916
 20
1099.059123072
 40
0.3
100
AcDbArc
 50
180
 51
270
  0
ARC
  5
442
100
AcDbEntity
  8
取付金具
  6
CONTINUOUS
 62
     0
100
AcDbCircle
 10
916
 20
1088.159123072
 40
0.3
100
AcDbArc
 50
90
 51
180
  0
ARC
  5
443
100
AcDbEntity
  8
取付金具
  6
CONTINUOUS
 62
     0
100
AcDbCircle
 10
916
 20
1087.259123072
 40
0.3
100
AcDbArc
 50
180
 51
270
  0
ARC
  5
444
100
AcDbEntity
  8
取付金具
  6
CONTINUOUS
 62
     0
100
AcDbCircle
 10
923
 20
1082.609123072
 40
0.5
100
AcDbArc
 50
-90
 51
0
  0
ARC
  5
445
100
AcDbEntity
  8
取付金具
  6
CONTINUOUS
 62
     0
100
AcDbCircle
 10
923
 20
1083.699221121
 40
0.5
100
AcDbArc
 50
0
 51
78.69006752613
  0
ARC
  5
446
100
AcDbEntity
  8
取付金具
  6
CONTINUOUS
 62
     0
100
AcDbCircle
 10
921.5
 20
1085.019025023
 40
0.5
100
AcDbArc
 50
180
 51
258.6900675259
  0
ARC
  5
447
100
AcDbEntity
  8
取付金具
  6
CONTINUOUS
 62
     0
100
AcDbCircle
 10
921.5
 20
1086.811021968
 40
0.5
100
AcDbArc
 50
118.3930194212
 51
180
  0
ARC
  5
448
100
AcDbEntity
  8
取付金具
  6
CONTINUOUS
 62
     0
100
AcDbCircle
 10
920.2
 20
1084.109123072
 40
2
100
AcDbArc
 50
180
 51
270
  0
ARC
  5
449
100
AcDbEntity
  8
取付金具
  6
CONTINUOUS
 62
     0
100
AcDbCircle
 10
924.4
 20
1097.93026241
 40
0.3
100
AcDbArc
 50
0
 51
61.60698057884
  0
ARC
  5
44A
100
AcDbEntity
  8
取付金具
  6
CONTINUOUS
 62
     0
100
AcDbCircle
 10
924.4
 20
1089.287983734
 40
0.3
100
AcDbArc
 50
-61.60698057884
 51
0
  0
LINE
  5
44B
100
AcDbEntity
  8
取付金具
  6
CONTINUOUS
 62
     0
100
AcDbLine
 10
916
 20
1088.459123072
 11
918.7
 21
1088.459123072
  0
LINE
  5
44C
100
AcDbEntity
  8
取付金具
  6
CONTINUOUS
 62
     0
100
AcDbLine
 10
923
 20
1082.109123072
 11
920.2
 21
1082.109123072
  0
LINE
  5
44D
100
AcDbEntity
  8
取付金具
  6
CONTINUOUS
 62
     0
100
AcDbLine
 10
923.5
 20
1083.699221121
 11
923.5
 21
1082.609123072
  0
LINE
  5
44E
100
AcDbEntity
  8
取付金具
  6
CONTINUOUS
 62
     0
100
AcDbLine
 10
921.401941933
 20
1084.528734686
 11
923.098058068
 21
1084.189511459
  0
LINE
  5
44F
100
AcDbEntity
  8
取付金具
  6
CONTINUOUS
 62
     0
100
AcDbLine
 10
921
 20
1086.811021968
 11
921
 21
1085.019025023
  0
LINE
  5
450
100
AcDbEntity
  8
取付金具
  6
CONTINUOUS
 62
     0
100
AcDbLine
 10
924.542655111
 20
1089.02407178
 11
921.262241483
 21
1087.250875225
  0
LINE
  5
451
100
AcDbEntity
  8
取付金具
  6
CONTINUOUS
 62
     0
100
AcDbLine
 10
924.7
 20
1093.08950783
 11
924.7
 21
1089.287983734
  0
LINE
  5
452
100
AcDbEntity
  8
取付金具
  6
CONTINUOUS
 62
     0
100
AcDbLine
 10
924.4
 20
1093.609123072
 11
924.7
 21
1093.08950783
  0
LINE
  5
453
100
AcDbEntity
  8
取付金具
  6
CONTINUOUS
 62
     0
100
AcDbLine
 10
918.2
 20
1084.109123072
 11
918.2
 21
1086.959123072
  0
LINE
  5
454
100
AcDbEntity
  8
取付金具
  6
CONTINUOUS
 62
     0
100
AcDbLine
 10
918.2
 20
1086.959123072
 11
916
 21
1086.959123072
  0
LINE
  5
455
100
AcDbEntity
  8
取付金具
  6
CONTINUOUS
 62
     0
100
AcDbLine
 10
915.7
 20
1087.259123072
 11
915.7
 21
1088.159123072
  0
LINE
  5
456
100
AcDbEntity
  8
取付金具
  6
DOT
 62
     0
100
AcDbLine
 10
918.7
 20
1090.60719155
 11
924.7
 21
1090.607138918
  0
LINE
  5
457
100
AcDbEntity
  8
取付金具
  6
DOT
 62
     0
100
AcDbLine
 10
918.7
 20
1091.14719155
 11
924.7
 21
1091.147138918
  0
LINE
  5
458
100
AcDbEntity
  8
取付金具
  6
DOT
 62
     0
100
AcDbLine
 10
918.7
 20
1096.06719155
 11
924.7
 21
1096.067138918
  0
LINE
  5
459
100
AcDbEntity
  8
取付金具
  6
DOT
 62
     0
100
AcDbLine
 10
918.7
 20
1096.60719155
 11
924.7
 21
1096.607138918
  0
ENDBLK
  5
45A
100
AcDbEntity
 67
     1
  8
取付金具
100
AcDbBlockEnd
  0
BLOCK
  5
45B
100
AcDbEntity
  8
ボルトセット
100
AcDbBlockBegin
  2
BK18
 70
    64
 10
0
 20
0
  3
BK18
  1

  0
LINE
  5
45C
100
AcDbEntity
  8
ボルトセット
  6
CONTINUOUS
 62
     0
100
AcDbLine
 10
913.500015
 20
1096.109093072
 11
914.000005
 21
1096.609083072
  0
LINE
  5
45D
100
AcDbEntity
  8
ボルトセット
  6
CONTINUOUS
 62
     0
100
AcDbLine
 10
914.000015
 20
1090.609113072
 11
913.500015
 21
1091.109113072
  0
LINE
  5
45E
100
AcDbEntity
  8
ボルトセット
  6
CONTINUOUS
 62
     0
100
AcDbLine
 10
913.499995
 20
1091.109123072
 11
913.499995
 21
1096.109123072
  0
LINE
  5
45F
100
AcDbEntity
  8
ボルトセット
  6
CONTINUOUS
 62
     0
100
AcDbLine
 10
913.999995
 20
1090.609123072
 11
913.999995
 21
1096.609123072
  0
LINE
  5
460
100
AcDbEntity
  8
ボルトセット
  6
CONTINUOUS
 62
     0
100
AcDbLine
 10
935.499995
 20
1089.210620722
 11
935.499995
 21
1098.007625421
  0
LINE
  5
461
100
AcDbEntity
  8
ボルトセット
  6
CONTINUOUS
 62
     0
100
AcDbLine
 10
931.499995
 20
1087.835620722
 11
931.499995
 21
1099.382625421
  0
ARC
  5
462
100
AcDbEntity
  8
ボルトセット
  6
CONTINUOUS
 62
     0
100
AcDbCircle
 10
926.924811283
 20
1093.607711887
 40
8.575183716996
100
AcDbArc
 50
-19.66226701541
 51
19.66224604733
  0
LINE
  5
463
100
AcDbEntity
  8
ボルトセット
  6
CONTINUOUS
 62
     0
100
AcDbLine
 10
934.706165
 20
1087.835620722
 11
931.499995
 21
1087.835620722
  0
LINE
  5
464
100
AcDbEntity
  8
ボルトセット
  6
CONTINUOUS
 62
     0
100
AcDbLine
 10
934.999995
 20
1090.722372595
 11
931.499995
 21
1090.722372595
  0
LINE
  5
465
100
AcDbEntity
  8
ボルトセット
  6
CONTINUOUS
 62
     0
100
AcDbLine
 10
935.500015
 20
1089.210650722
 11
934.706135
 21
1087.835600722
  0
LINE
  5
466
100
AcDbEntity
  8
ボルトセット
  6
CONTINUOUS
 62
     0
100
AcDbLine
 10
931.499995
 20
1088.109123072
 11
929.999995
 21
1088.109123072
  0
ARC
  5
467
100
AcDbEntity
  8
ボルトセット
  6
CONTINUOUS
 62
     0
100
AcDbCircle
 10
932.9764830708
 20
1089.214552328
 40
2.523509994274
100
AcDbArc
 50
-0.0893002954743
 51
36.69167662029
  0
LINE
  5
468
100
AcDbEntity
  8
ボルトセット
  6
CONTINUOUS
 62
     0
100
AcDbLine
 10
934.706165
 20
1099.382625421
 11
931.499995
 21
1099.382625421
  0
LINE
  5
469
100
AcDbEntity
  8
ボルトセット
  6
CONTINUOUS
 62
     0
100
AcDbLine
 10
934.999995
 20
1096.493051032
 11
931.499995
 21
1096.493051032
  0
LINE
  5
46A
100
AcDbEntity
  8
ボルトセット
  6
CONTINUOUS
 62
     0
100
AcDbLine
 10
935.500025
 20
1098.007635421
 11
934.706165
 21
1099.382635421
  0
ARC
  5
46B
100
AcDbEntity
  8
ボルトセット
  6
CONTINUOUS
 62
     0
100
AcDbCircle
 10
932.9681981585
 20
1098.003616445
 40
2.531795013115
100
AcDbArc
 50
-36.62949570986
 51
0.09069134699859
  0
LINE
  5
46C
100
AcDbEntity
  8
ボルトセット
  6
CONTINUOUS
 62
     0
100
AcDbLine
 10
931.499995
 20
1099.109123072
 11
929.999995
 21
1099.109123072
  0
LINE
  5
46D
100
AcDbEntity
  8
ボルトセット
  6
CONTINUOUS
 62
     0
100
AcDbLine
 10
928.999995
 20
1100.059123072
 11
928.999995
 21
1087.059123072
  0
LINE
  5
46E
100
AcDbEntity
  8
ボルトセット
  6
CONTINUOUS
 62
     0
100
AcDbLine
 10
929.999995
 20
1100.059123072
 11
929.999995
 21
1087.059123072
  0
LINE
  5
46F
100
AcDbEntity
  8
ボルトセット
  6
CONTINUOUS
 62
     0
100
AcDbLine
 10
929.999995
 20
1100.059123072
 11
928.999995
 21
1100.059123072
  0
LINE
  5
470
100
AcDbEntity
  8
ボルトセット
  6
CONTINUOUS
 62
     0
100
AcDbLine
 10
929.999995
 20
1087.059123072
 11
928.999995
 21
1087.059123072
  0
LINE
  5
471
100
AcDbEntity
  8
ボルトセット
  6
CENTER
 62
     0
100
AcDbLine
 10
937.499995
 20
1093.609123072
 11
911.499995
 21
1093.609123072
  0
LINE
  5
472
100
AcDbEntity
  8
ボルトセット
  6
CONTINUOUS
 62
     0
100
AcDbLine
 10
918.199985
 20
1096.609123072
 11
913.999995
 21
1096.609123072
  0
LINE
  5
473
100
AcDbEntity
  8
ボルトセット
  6
CONTINUOUS
 62
     0
100
AcDbLine
 10
918.199985
 20
1096.109123072
 11
913.499995
 21
1096.109123072
  0
LINE
  5
474
100
AcDbEntity
  8
ボルトセット
  6
CONTINUOUS
 62
     0
100
AcDbLine
 10
918.199985
 20
1091.109123072
 11
913.499995
 21
1091.109123072
  0
LINE
  5
475
100
AcDbEntity
  8
ボルトセット
  6
CONTINUOUS
 62
     0
100
AcDbLine
 10
918.199985
 20
1090.609123072
 11
913.999995
 21
1090.609123072
  0
LINE
  5
476
100
AcDbEntity
  8
ボルトセット
  6
DOT
 62
     0
100
AcDbLine
 10
926.499995
 20
1090.609123072
 11
926.499995
 21
1096.609123072
  0
LINE
  5
477
100
AcDbEntity
  8
ボルトセット
  6
DOT
 62
     0
100
AcDbLine
 10
926.499995
 20
1091.109123072
 11
928.999995
 21
1091.109123072
  0
LINE
  5
478
100
AcDbEntity
  8
ボルトセット
  6
DOT
 62
     0
100
AcDbLine
 10
926.499995
 20
1096.109123072
 11
928.999995
 21
1096.109123072
  0
LINE
  5
479
100
AcDbEntity
  8
ボルトセット
  6
DOT
 62
     0
100
AcDbLine
 10
926.499995
 20
1096.609123072
 11
918.199985
 21
1096.609123072
  0
LINE
  5
47A
100
AcDbEntity
  8
ボルトセット
  6
DOT
 62
     0
100
AcDbLine
 10
926.499995
 20
1096.109123072
 11
918.199985
 21
1096.109123072
  0
LINE
  5
47B
100
AcDbEntity
  8
ボルトセット
  6
DOT
 62
     0
100
AcDbLine
 10
926.499995
 20
1091.109123072
 11
918.199985
 21
1091.109123072
  0
LINE
  5
47C
100
AcDbEntity
  8
ボルトセット
  6
DOT
 62
     0
100
AcDbLine
 10
926.499995
 20
1090.609123072
 11
918.199985
 21
1090.609123072
  0
ENDBLK
  5
47D
100
AcDbEntity
 67
     1
  8
ボルトセット
100
AcDbBlockEnd
  0
BLOCK
  5
47E
100
AcDbEntity
  8
ボルトセット
100
AcDbBlockBegin
  2
BK19
 70
    64
 10
0
 20
0
  3
BK19
  1

  0
LINE
  5
47F
100
AcDbEntity
  8
ボルトセット
  6
CONTINUOUS
 62
     0
100
AcDbLine
 10
913.500015
 20
921.1090930715
 11
914.000005
 21
921.6090830715
  0
LINE
  5
480
100
AcDbEntity
  8
ボルトセット
  6
CONTINUOUS
 62
     0
100
AcDbLine
 10
914.000015
 20
915.6091130715
 11
913.500015
 21
916.1091130715
  0
LINE
  5
481
100
AcDbEntity
  8
ボルトセット
  6
CONTINUOUS
 62
     0
100
AcDbLine
 10
913.499995
 20
916.1091230715
 11
913.499995
 21
921.1091230715
  0
LINE
  5
482
100
AcDbEntity
  8
ボルトセット
  6
CONTINUOUS
 62
     0
100
AcDbLine
 10
913.999995
 20
915.6091230715
 11
913.999995
 21
921.6091230715
  0
LINE
  5
483
100
AcDbEntity
  8
ボルトセット
  6
CONTINUOUS
 62
     0
100
AcDbLine
 10
935.499995
 20
914.2106207217
 11
935.499995
 21
923.0076254214
  0
LINE
  5
484
100
AcDbEntity
  8
ボルトセット
  6
CONTINUOUS
 62
     0
100
AcDbLine
 10
931.499995
 20
912.8356207217
 11
931.499995
 21
924.3826254214
  0
ARC
  5
485
100
AcDbEntity
  8
ボルトセット
  6
CONTINUOUS
 62
     0
100
AcDbCircle
 10
926.924811283
 20
918.6077118871
 40
8.575183716996
100
AcDbArc
 50
-19.66226701541
 51
19.66224604733
  0
LINE
  5
486
100
AcDbEntity
  8
ボルトセット
  6
CONTINUOUS
 62
     0
100
AcDbLine
 10
934.706165
 20
912.8356207217
 11
931.499995
 21
912.8356207217
  0
LINE
  5
487
100
AcDbEntity
  8
ボルトセット
  6
CONTINUOUS
 62
     0
100
AcDbLine
 10
934.999995
 20
915.722372595
 11
931.499995
 21
915.722372595
  0
LINE
  5
488
100
AcDbEntity
  8
ボルトセット
  6
CONTINUOUS
 62
     0
100
AcDbLine
 10
935.500015
 20
914.2106507217
 11
934.706135
 21
912.8356007217
  0
LINE
  5
489
100
AcDbEntity
  8
ボルトセット
  6
CONTINUOUS
 62
     0
100
AcDbLine
 10
931.499995
 20
913.1091230715
 11
929.999995
 21
913.1091230715
  0
ARC
  5
48A
100
AcDbEntity
  8
ボルトセット
  6
CONTINUOUS
 62
     0
100
AcDbCircle
 10
932.9764830708
 20
914.2145523284
 40
2.523509994274
100
AcDbArc
 50
-0.0893002954743
 51
36.69167662029
  0
LINE
  5
48B
100
AcDbEntity
  8
ボルトセット
  6
CONTINUOUS
 62
     0
100
AcDbLine
 10
934.706165
 20
924.3826254214
 11
931.499995
 21
924.3826254214
  0
LINE
  5
48C
100
AcDbEntity
  8
ボルトセット
  6
CONTINUOUS
 62
     0
100
AcDbLine
 10
934.999995
 20
921.4930510317
 11
931.499995
 21
921.4930510317
  0
LINE
  5
48D
100
AcDbEntity
  8
ボルトセット
  6
CONTINUOUS
 62
     0
100
AcDbLine
 10
935.500025
 20
923.0076354214
 11
934.706165
 21
924.3826354214
  0
ARC
  5
48E
100
AcDbEntity
  8
ボルトセット
  6
CONTINUOUS
 62
     0
100
AcDbCircle
 10
932.9681981585
 20
923.003616445
 40
2.531795013115
100
AcDbArc
 50
-36.62949570986
 51
0.09069134699859
  0
LINE
  5
48F
100
AcDbEntity
  8
ボルトセット
  6
CONTINUOUS
 62
     0
100
AcDbLine
 10
931.499995
 20
924.1091230715
 11
929.999995
 21
924.1091230715
  0
LINE
  5
490
100
AcDbEntity
  8
ボルトセット
  6
CONTINUOUS
 62
     0
100
AcDbLine
 10
928.999995
 20
925.0591230715
 11
928.999995
 21
912.0591230715
  0
LINE
  5
491
100
AcDbEntity
  8
ボルトセット
  6
CONTINUOUS
 62
     0
100
AcDbLine
 10
929.999995
 20
925.0591230715
 11
929.999995
 21
912.0591230715
  0
LINE
  5
492
100
AcDbEntity
  8
ボルトセット
  6
CONTINUOUS
 62
     0
100
AcDbLine
 10
929.999995
 20
925.0591230715
 11
928.999995
 21
925.0591230715
  0
LINE
  5
493
100
AcDbEntity
  8
ボルトセット
  6
CONTINUOUS
 62
     0
100
AcDbLine
 10
929.999995
 20
912.0591230715
 11
928.999995
 21
912.0591230715
  0
LINE
  5
494
100
AcDbEntity
  8
ボルトセット
  6
CENTER
 62
     0
100
AcDbLine
 10
937.499995
 20
918.6091230715
 11
911.499995
 21
918.6091230715
  0
LINE
  5
495
100
AcDbEntity
  8
ボルトセット
  6
CONTINUOUS
 62
     0
100
AcDbLine
 10
918.199985
 20
921.6091230715
 11
913.999995
 21
921.6091230715
  0
LINE
  5
496
100
AcDbEntity
  8
ボルトセット
  6
CONTINUOUS
 62
     0
100
AcDbLine
 10
918.199985
 20
921.1091230715
 11
913.499995
 21
921.1091230715
  0
LINE
  5
497
100
AcDbEntity
  8
ボルトセット
  6
CONTINUOUS
 62
     0
100
AcDbLine
 10
918.199985
 20
916.1091230715
 11
913.499995
 21
916.1091230715
  0
LINE
  5
498
100
AcDbEntity
  8
ボルトセット
  6
CONTINUOUS
 62
     0
100
AcDbLine
 10
918.199985
 20
915.6091230715
 11
913.999995
 21
915.6091230715
  0
LINE
  5
499
100
AcDbEntity
  8
ボルトセット
  6
DOT
 62
     0
100
AcDbLine
 10
926.499995
 20
915.6091230715
 11
926.499995
 21
921.6091230715
  0
LINE
  5
49A
100
AcDbEntity
  8
ボルトセット
  6
DOT
 62
     0
100
AcDbLine
 10
926.499995
 20
916.1091230715
 11
928.999995
 21
916.1091230715
  0
LINE
  5
49B
100
AcDbEntity
  8
ボルトセット
  6
DOT
 62
     0
100
AcDbLine
 10
926.499995
 20
921.1091230715
 11
928.999995
 21
921.1091230715
  0
LINE
  5
49C
100
AcDbEntity
  8
ボルトセット
  6
DOT
 62
     0
100
AcDbLine
 10
926.499995
 20
921.6091230715
 11
918.199985
 21
921.6091230715
  0
LINE
  5
49D
100
AcDbEntity
  8
ボルトセット
  6
DOT
 62
     0
100
AcDbLine
 10
926.499995
 20
921.1091230715
 11
918.199985
 21
921.1091230715
  0
LINE
  5
49E
100
AcDbEntity
  8
ボルトセット
  6
DOT
 62
     0
100
AcDbLine
 10
926.499995
 20
916.1091230715
 11
918.199985
 21
916.1091230715
  0
LINE
  5
49F
100
AcDbEntity
  8
ボルトセット
  6
DOT
 62
     0
100
AcDbLine
 10
926.499995
 20
915.6091230715
 11
918.199985
 21
915.6091230715
  0
ENDBLK
  5
4A0
100
AcDbEntity
 67
     1
  8
ボルトセット
100
AcDbBlockEnd
  0
BLOCK
  5
4A1
100
AcDbEntity
  8
ボルトセット
100
AcDbBlockBegin
  2
BK20
 70
    64
 10
0
 20
0
  3
BK20
  1

  0
LINE
  5
4A2
100
AcDbEntity
  8
ボルトセット
  6
CONTINUOUS
 62
     0
100
AcDbLine
 10
913.500015
 20
746.1090930715
 11
914.000005
 21
746.6090830715
  0
LINE
  5
4A3
100
AcDbEntity
  8
ボルトセット
  6
CONTINUOUS
 62
     0
100
AcDbLine
 10
914.000015
 20
740.6091130715
 11
913.500015
 21
741.1091130715
  0
LINE
  5
4A4
100
AcDbEntity
  8
ボルトセット
  6
CONTINUOUS
 62
     0
100
AcDbLine
 10
913.499995
 20
741.1091230715
 11
913.499995
 21
746.1091230715
  0
LINE
  5
4A5
100
AcDbEntity
  8
ボルトセット
  6
CONTINUOUS
 62
     0
100
AcDbLine
 10
913.999995
 20
740.6091230715
 11
913.999995
 21
746.6091230715
  0
LINE
  5
4A6
100
AcDbEntity
  8
ボルトセット
  6
CONTINUOUS
 62
     0
100
AcDbLine
 10
935.499995
 20
739.2106207217
 11
935.499995
 21
748.0076254214
  0
LINE
  5
4A7
100
AcDbEntity
  8
ボルトセット
  6
CONTINUOUS
 62
     0
100
AcDbLine
 10
931.499995
 20
737.8356207217
 11
931.499995
 21
749.3826254214
  0
ARC
  5
4A8
100
AcDbEntity
  8
ボルトセット
  6
CONTINUOUS
 62
     0
100
AcDbCircle
 10
926.924811283
 20
743.6077118871
 40
8.575183716996
100
AcDbArc
 50
-19.66226701541
 51
19.66224604733
  0
LINE
  5
4A9
100
AcDbEntity
  8
ボルトセット
  6
CONTINUOUS
 62
     0
100
AcDbLine
 10
934.706165
 20
737.8356207217
 11
931.499995
 21
737.8356207217
  0
LINE
  5
4AA
100
AcDbEntity
  8
ボルトセット
  6
CONTINUOUS
 62
     0
100
AcDbLine
 10
934.999995
 20
740.722372595
 11
931.499995
 21
740.722372595
  0
LINE
  5
4AB
100
AcDbEntity
  8
ボルトセット
  6
CONTINUOUS
 62
     0
100
AcDbLine
 10
935.500015
 20
739.2106507217
 11
934.706135
 21
737.8356007217
  0
LINE
  5
4AC
100
AcDbEntity
  8
ボルトセット
  6
CONTINUOUS
 62
     0
100
AcDbLine
 10
931.499995
 20
738.1091230715
 11
929.999995
 21
738.1091230715
  0
ARC
  5
4AD
100
AcDbEntity
  8
ボルトセット
  6
CONTINUOUS
 62
     0
100
AcDbCircle
 10
932.9764830708
 20
739.2145523284
 40
2.523509994274
100
AcDbArc
 50
-0.0893002954743
 51
36.69167662029
  0
LINE
  5
4AE
100
AcDbEntity
  8
ボルトセット
  6
CONTINUOUS
 62
     0
100
AcDbLine
 10
934.706165
 20
749.3826254214
 11
931.499995
 21
749.3826254214
  0
LINE
  5
4AF
100
AcDbEntity
  8
ボルトセット
  6
CONTINUOUS
 62
     0
100
AcDbLine
 10
934.999995
 20
746.4930510317
 11
931.499995
 21
746.4930510317
  0
LINE
  5
4B0
100
AcDbEntity
  8
ボルトセット
  6
CONTINUOUS
 62
     0
100
AcDbLine
 10
935.500025
 20
748.0076354214
 11
934.706165
 21
749.3826354214
  0
ARC
  5
4B1
100
AcDbEntity
  8
ボルトセット
  6
CONTINUOUS
 62
     0
100
AcDbCircle
 10
932.9681981585
 20
748.003616445
 40
2.531795013115
100
AcDbArc
 50
-36.62949570986
 51
0.09069134699859
  0
LINE
  5
4B2
100
AcDbEntity
  8
ボルトセット
  6
CONTINUOUS
 62
     0
100
AcDbLine
 10
931.499995
 20
749.1091230715
 11
929.999995
 21
749.1091230715
  0
LINE
  5
4B3
100
AcDbEntity
  8
ボルトセット
  6
CONTINUOUS
 62
     0
100
AcDbLine
 10
928.999995
 20
750.0591230715
 11
928.999995
 21
737.0591230715
  0
LINE
  5
4B4
100
AcDbEntity
  8
ボルトセット
  6
CONTINUOUS
 62
     0
100
AcDbLine
 10
929.999995
 20
750.0591230715
 11
929.999995
 21
737.0591230715
  0
LINE
  5
4B5
100
AcDbEntity
  8
ボルトセット
  6
CONTINUOUS
 62
     0
100
AcDbLine
 10
929.999995
 20
750.0591230715
 11
928.999995
 21
750.0591230715
  0
LINE
  5
4B6
100
AcDbEntity
  8
ボルトセット
  6
CONTINUOUS
 62
     0
100
AcDbLine
 10
929.999995
 20
737.0591230715
 11
928.999995
 21
737.0591230715
  0
LINE
  5
4B7
100
AcDbEntity
  8
ボルトセット
  6
CENTER
 62
     0
100
AcDbLine
 10
937.499995
 20
743.6091230715
 11
911.499995
 21
743.6091230715
  0
LINE
  5
4B8
100
AcDbEntity
  8
ボルトセット
  6
CONTINUOUS
 62
     0
100
AcDbLine
 10
918.199985
 20
746.6091230715
 11
913.999995
 21
746.6091230715
  0
LINE
  5
4B9
100
AcDbEntity
  8
ボルトセット
  6
CONTINUOUS
 62
     0
100
AcDbLine
 10
918.199985
 20
746.1091230715
 11
913.499995
 21
746.1091230715
  0
LINE
  5
4BA
100
AcDbEntity
  8
ボルトセット
  6
CONTINUOUS
 62
     0
100
AcDbLine
 10
918.199985
 20
741.1091230715
 11
913.499995
 21
741.1091230715
  0
LINE
  5
4BB
100
AcDbEntity
  8
ボルトセット
  6
CONTINUOUS
 62
     0
100
AcDbLine
 10
918.199985
 20
740.6091230715
 11
913.999995
 21
740.6091230715
  0
LINE
  5
4BC
100
AcDbEntity
  8
ボルトセット
  6
DOT
 62
     0
100
AcDbLine
 10
926.499995
 20
740.6091230715
 11
926.499995
 21
746.6091230715
  0
LINE
  5
4BD
100
AcDbEntity
  8
ボルトセット
  6
DOT
 62
     0
100
AcDbLine
 10
926.499995
 20
741.1091230715
 11
928.999995
 21
741.1091230715
  0
LINE
  5
4BE
100
AcDbEntity
  8
ボルトセット
  6
DOT
 62
     0
100
AcDbLine
 10
926.499995
 20
746.1091230715
 11
928.999995
 21
746.1091230715
  0
LINE
  5
4BF
100
AcDbEntity
  8
ボルトセット
  6
DOT
 62
     0
100
AcDbLine
 10
926.499995
 20
746.6091230715
 11
918.199985
 21
746.6091230715
  0
LINE
  5
4C0
100
AcDbEntity
  8
ボルトセット
  6
DOT
 62
     0
100
AcDbLine
 10
926.499995
 20
746.1091230715
 11
918.199985
 21
746.1091230715
  0
LINE
  5
4C1
100
AcDbEntity
  8
ボルトセット
  6
DOT
 62
     0
100
AcDbLine
 10
926.499995
 20
741.1091230715
 11
918.199985
 21
741.1091230715
  0
LINE
  5
4C2
100
AcDbEntity
  8
ボルトセット
  6
DOT
 62
     0
100
AcDbLine
 10
926.499995
 20
740.6091230715
 11
918.199985
 21
740.6091230715
  0
ENDBLK
  5
4C3
100
AcDbEntity
 67
     1
  8
ボルトセット
100
AcDbBlockEnd
  0
BLOCK
  5
4C4
100
AcDbEntity
  8
ボルトセット
100
AcDbBlockBegin
  2
BK21
 70
    64
 10
0
 20
0
  3
BK21
  1

  0
LINE
  5
4C5
100
AcDbEntity
  8
ボルトセット
  6
CONTINUOUS
 62
     0
100
AcDbLine
 10
1638.437231217
 20
1043.448976331
 11
1637.937241217
 21
1042.948986331
  0
LINE
  5
4C6
100
AcDbEntity
  8
ボルトセット
  6
CONTINUOUS
 62
     0
100
AcDbLine
 10
1643.937211217
 20
1042.948976331
 11
1643.437211217
 21
1043.448976331
  0
LINE
  5
4C7
100
AcDbEntity
  8
ボルトセット
  6
CONTINUOUS
 62
     0
100
AcDbLine
 10
1643.437201217
 20
1043.448996331
 11
1638.437201217
 21
1043.448996331
  0
LINE
  5
4C8
100
AcDbEntity
  8
ボルトセット
  6
CONTINUOUS
 62
     0
100
AcDbLine
 10
1643.937201217
 20
1042.948996331
 11
1637.937201217
 21
1042.948996331
  0
LINE
  5
4C9
100
AcDbEntity
  8
ボルトセット
  6
CONTINUOUS
 62
     0
100
AcDbLine
 10
1645.335703566
 20
1021.448996331
 11
1636.538698867
 21
1021.448996331
  0
LINE
  5
4CA
100
AcDbEntity
  8
ボルトセット
  6
CONTINUOUS
 62
     0
100
AcDbLine
 10
1646.710703566
 20
1025.448996331
 11
1635.163698867
 21
1025.448996331
  0
ARC
  5
4CB
100
AcDbEntity
  8
ボルトセット
  6
CONTINUOUS
 62
     0
100
AcDbCircle
 10
1640.938612401
 20
1030.024180048
 40
8.575183716996
100
AcDbArc
 50
-109.6622460473
 51
-70.33773298458
  0
LINE
  5
4CC
100
AcDbEntity
  8
ボルトセット
  6
CONTINUOUS
 62
     0
100
AcDbLine
 10
1646.710703566
 20
1022.242826331
 11
1646.710703566
 21
1025.448996331
  0
LINE
  5
4CD
100
AcDbEntity
  8
ボルトセット
  6
CONTINUOUS
 62
     0
100
AcDbLine
 10
1643.823951693
 20
1021.948996331
 11
1643.823951693
 21
1025.448996331
  0
LINE
  5
4CE
100
AcDbEntity
  8
ボルトセット
  6
CONTINUOUS
 62
     0
100
AcDbLine
 10
1645.335673566
 20
1021.448976331
 11
1646.710723566
 21
1022.242856331
  0
LINE
  5
4CF
100
AcDbEntity
  8
ボルトセット
  6
CONTINUOUS
 62
     0
100
AcDbLine
 10
1646.437201217
 20
1025.448996331
 11
1646.437201217
 21
1026.948996331
  0
ARC
  5
4D0
100
AcDbEntity
  8
ボルトセット
  6
CONTINUOUS
 62
     0
100
AcDbCircle
 10
1645.33177196
 20
1023.972508261
 40
2.523509994274
100
AcDbArc
 50
-126.6916766203
 51
-89.91069970451
  0
LINE
  5
4D1
100
AcDbEntity
  8
ボルトセット
  6
CONTINUOUS
 62
     0
100
AcDbLine
 10
1635.163698867
 20
1022.242826331
 11
1635.163698867
 21
1025.448996331
  0
LINE
  5
4D2
100
AcDbEntity
  8
ボルトセット
  6
CONTINUOUS
 62
     0
100
AcDbLine
 10
1638.053273256
 20
1021.948996331
 11
1638.053273256
 21
1025.448996331
  0
LINE
  5
4D3
100
AcDbEntity
  8
ボルトセット
  6
CONTINUOUS
 62
     0
100
AcDbLine
 10
1636.538688867
 20
1021.448966331
 11
1635.163688867
 21
1022.242826331
  0
ARC
  5
4D4
100
AcDbEntity
  8
ボルトセット
  6
CONTINUOUS
 62
     0
100
AcDbCircle
 10
1636.542707843
 20
1023.980793173
 40
2.531795013115
100
AcDbArc
 50
-90.090691347
 51
-53.37050429015
  0
LINE
  5
4D5
100
AcDbEntity
  8
ボルトセット
  6
CONTINUOUS
 62
     0
100
AcDbLine
 10
1635.437201217
 20
1025.448996331
 11
1635.437201217
 21
1026.948996331
  0
LINE
  5
4D6
100
AcDbEntity
  8
ボルトセット
  6
CONTINUOUS
 62
     0
100
AcDbLine
 10
1634.487201217
 20
1027.948996331
 11
1647.487201217
 21
1027.948996331
  0
LINE
  5
4D7
100
AcDbEntity
  8
ボルトセット
  6
CONTINUOUS
 62
     0
100
AcDbLine
 10
1634.487201217
 20
1026.948996331
 11
1647.487201217
 21
1026.948996331
  0
LINE
  5
4D8
100
AcDbEntity
  8
ボルトセット
  6
CONTINUOUS
 62
     0
100
AcDbLine
 10
1634.487201217
 20
1026.948996331
 11
1634.487201217
 21
1027.948996331
  0
LINE
  5
4D9
100
AcDbEntity
  8
ボルトセット
  6
CONTINUOUS
 62
     0
100
AcDbLine
 10
1647.487201217
 20
1026.948996331
 11
1647.487201217
 21
1027.948996331
  0
LINE
  5
4DA
100
AcDbEntity
  8
ボルトセット
  6
CENTER
 62
     0
100
AcDbLine
 10
1640.937201217
 20
1019.448996331
 11
1640.937201217
 21
1045.448996331
  0
LINE
  5
4DB
100
AcDbEntity
  8
ボルトセット
  6
CONTINUOUS
 62
     0
100
AcDbLine
 10
1637.937201217
 20
1038.749006331
 11
1637.937201217
 21
1042.948996331
  0
LINE
  5
4DC
100
AcDbEntity
  8
ボルトセット
  6
CONTINUOUS
 62
     0
100
AcDbLine
 10
1638.437201217
 20
1038.749006331
 11
1638.437201217
 21
1043.448996331
  0
LINE
  5
4DD
100
AcDbEntity
  8
ボルトセット
  6
CONTINUOUS
 62
     0
100
AcDbLine
 10
1643.437201217
 20
1038.749006331
 11
1643.437201217
 21
1043.448996331
  0
LINE
  5
4DE
100
AcDbEntity
  8
ボルトセット
  6
CONTINUOUS
 62
     0
100
AcDbLine
 10
1643.937201217
 20
1038.749006331
 11
1643.937201217
 21
1042.948996331
  0
LINE
  5
4DF
100
AcDbEntity
  8
ボルトセット
  6
DOT
 62
     0
100
AcDbLine
 10
1643.937201217
 20
1030.448996331
 11
1637.937201217
 21
1030.448996331
  0
LINE
  5
4E0
100
AcDbEntity
  8
ボルトセット
  6
DOT
 62
     0
100
AcDbLine
 10
1643.437201217
 20
1030.448996331
 11
1643.437201217
 21
1027.948996331
  0
LINE
  5
4E1
100
AcDbEntity
  8
ボルトセット
  6
DOT
 62
     0
100
AcDbLine
 10
1638.437201217
 20
1030.448996331
 11
1638.437201217
 21
1027.948996331
  0
LINE
  5
4E2
100
AcDbEntity
  8
ボルトセット
  6
DOT
 62
     0
100
AcDbLine
 10
1637.937201217
 20
1030.448996331
 11
1637.937201217
 21
1038.749006331
  0
LINE
  5
4E3
100
AcDbEntity
  8
ボルトセット
  6
DOT
 62
     0
100
AcDbLine
 10
1638.437201217
 20
1030.448996331
 11
1638.437201217
 21
1038.749006331
  0
LINE
  5
4E4
100
AcDbEntity
  8
ボルトセット
  6
DOT
 62
     0
100
AcDbLine
 10
1643.437201217
 20
1030.448996331
 11
1643.437201217
 21
1038.749006331
  0
LINE
  5
4E5
100
AcDbEntity
  8
ボルトセット
  6
DOT
 62
     0
100
AcDbLine
 10
1643.937201217
 20
1030.448996331
 11
1643.937201217
 21
1038.749006331
  0
ENDBLK
  5
4E6
100
AcDbEntity
 67
     1
  8
ボルトセット
100
AcDbBlockEnd
  0
BLOCK
  5
4E7
100
AcDbEntity
  8
ボルトセット
100
AcDbBlockBegin
  2
BK22
 70
    64
 10
0
 20
0
  3
BK22
  1

  0
LINE
  5
4E8
100
AcDbEntity
  8
ボルトセット
  6
CONTINUOUS
 62
     0
100
AcDbLine
 10
1439.437252433
 20
844.4489975474
 11
1439.937242433
 21
844.9489875474
  0
LINE
  5
4E9
100
AcDbEntity
  8
ボルトセット
  6
CONTINUOUS
 62
     0
100
AcDbLine
 10
1439.937252433
 20
838.9490175474
 11
1439.437252433
 21
839.4490175474
  0
LINE
  5
4EA
100
AcDbEntity
  8
ボルトセット
  6
CONTINUOUS
 62
     0
100
AcDbLine
 10
1439.437232433
 20
839.4490275474
 11
1439.437232433
 21
844.4490275474
  0
LINE
  5
4EB
100
AcDbEntity
  8
ボルトセット
  6
CONTINUOUS
 62
     0
100
AcDbLine
 10
1439.937232433
 20
838.9490275474
 11
1439.937232433
 21
844.9490275474
  0
LINE
  5
4EC
100
AcDbEntity
  8
ボルトセット
  6
CONTINUOUS
 62
     0
100
AcDbLine
 10
1461.437232433
 20
837.5505251976
 11
1461.437232433
 21
846.3475298973
  0
LINE
  5
4ED
100
AcDbEntity
  8
ボルトセット
  6
CONTINUOUS
 62
     0
100
AcDbLine
 10
1457.437232433
 20
836.1755251976
 11
1457.437232433
 21
847.7225298973
  0
ARC
  5
4EE
100
AcDbEntity
  8
ボルトセット
  6
CONTINUOUS
 62
     0
100
AcDbCircle
 10
1452.862048716
 20
841.947616363
 40
8.575183716996
100
AcDbArc
 50
-19.66226701542
 51
19.66224604733
  0
LINE
  5
4EF
100
AcDbEntity
  8
ボルトセット
  6
CONTINUOUS
 62
     0
100
AcDbLine
 10
1460.643402433
 20
836.1755251976
 11
1457.437232433
 21
836.1755251976
  0
LINE
  5
4F0
100
AcDbEntity
  8
ボルトセット
  6
CONTINUOUS
 62
     0
100
AcDbLine
 10
1460.937232433
 20
839.0622770709
 11
1457.437232433
 21
839.0622770709
  0
LINE
  5
4F1
100
AcDbEntity
  8
ボルトセット
  6
CONTINUOUS
 62
     0
100
AcDbLine
 10
1461.437252433
 20
837.5505551976
 11
1460.643372433
 21
836.1755051976
  0
LINE
  5
4F2
100
AcDbEntity
  8
ボルトセット
  6
CONTINUOUS
 62
     0
100
AcDbLine
 10
1457.437232433
 20
836.4490275474
 11
1455.937232433
 21
836.4490275474
  0
ARC
  5
4F3
100
AcDbEntity
  8
ボルトセット
  6
CONTINUOUS
 62
     0
100
AcDbCircle
 10
1458.913720504
 20
837.5544568043
 40
2.523509994274
100
AcDbArc
 50
-0.0893002954743
 51
36.69167662029
  0
LINE
  5
4F4
100
AcDbEntity
  8
ボルトセット
  6
CONTINUOUS
 62
     0
100
AcDbLine
 10
1460.643402433
 20
847.7225298973
 11
1457.437232433
 21
847.7225298973
  0
LINE
  5
4F5
100
AcDbEntity
  8
ボルトセット
  6
CONTINUOUS
 62
     0
100
AcDbLine
 10
1460.937232433
 20
844.8329555076
 11
1457.437232433
 21
844.8329555076
  0
LINE
  5
4F6
100
AcDbEntity
  8
ボルトセット
  6
CONTINUOUS
 62
     0
100
AcDbLine
 10
1461.437262433
 20
846.3475398973
 11
1460.643402433
 21
847.7225398973
  0
ARC
  5
4F7
100
AcDbEntity
  8
ボルトセット
  6
CONTINUOUS
 62
     0
100
AcDbCircle
 10
1458.905435591
 20
846.3435209209
 40
2.531795013115
100
AcDbArc
 50
-36.62949570986
 51
0.09069134699859
  0
LINE
  5
4F8
100
AcDbEntity
  8
ボルトセット
  6
CONTINUOUS
 62
     0
100
AcDbLine
 10
1457.437232433
 20
847.4490275474
 11
1455.937232433
 21
847.4490275474
  0
LINE
  5
4F9
100
AcDbEntity
  8
ボルトセット
  6
CONTINUOUS
 62
     0
100
AcDbLine
 10
1454.937232433
 20
848.3990275474
 11
1454.937232433
 21
835.3990275474
  0
LINE
  5
4FA
100
AcDbEntity
  8
ボルトセット
  6
CONTINUOUS
 62
     0
100
AcDbLine
 10
1455.937232433
 20
848.3990275474
 11
1455.937232433
 21
835.3990275474
  0
LINE
  5
4FB
100
AcDbEntity
  8
ボルトセット
  6
CONTINUOUS
 62
     0
100
AcDbLine
 10
1455.937232433
 20
848.3990275474
 11
1454.937232433
 21
848.3990275474
  0
LINE
  5
4FC
100
AcDbEntity
  8
ボルトセット
  6
CONTINUOUS
 62
     0
100
AcDbLine
 10
1455.937232433
 20
835.3990275474
 11
1454.937232433
 21
835.3990275474
  0
LINE
  5
4FD
100
AcDbEntity
  8
ボルトセット
  6
CENTER
 62
     0
100
AcDbLine
 10
1463.437232433
 20
841.9490275474
 11
1437.437232433
 21
841.9490275474
  0
LINE
  5
4FE
100
AcDbEntity
  8
ボルトセット
  6
CONTINUOUS
 62
     0
100
AcDbLine
 10
1444.137222433
 20
844.9490275474
 11
1439.937232433
 21
844.9490275474
  0
LINE
  5
4FF
100
AcDbEntity
  8
ボルトセット
  6
CONTINUOUS
 62
     0
100
AcDbLine
 10
1444.137222433
 20
844.4490275474
 11
1439.437232433
 21
844.4490275474
  0
LINE
  5
500
100
AcDbEntity
  8
ボルトセット
  6
CONTINUOUS
 62
     0
100
AcDbLine
 10
1444.137222433
 20
839.4490275474
 11
1439.437232433
 21
839.4490275474
  0
LINE
  5
501
100
AcDbEntity
  8
ボルトセット
  6
CONTINUOUS
 62
     0
100
AcDbLine
 10
1444.137222433
 20
838.9490275474
 11
1439.937232433
 21
838.9490275474
  0
LINE
  5
502
100
AcDbEntity
  8
ボルトセット
  6
DOT
 62
     0
100
AcDbLine
 10
1452.437232433
 20
838.9490275474
 11
1452.437232433
 21
844.9490275474
  0
LINE
  5
503
100
AcDbEntity
  8
ボルトセット
  6
DOT
 62
     0
100
AcDbLine
 10
1452.437232433
 20
839.4490275474
 11
1454.937232433
 21
839.4490275474
  0
LINE
  5
504
100
AcDbEntity
  8
ボルトセット
  6
DOT
 62
     0
100
AcDbLine
 10
1452.437232433
 20
844.4490275474
 11
1454.937232433
 21
844.4490275474
  0
LINE
  5
505
100
AcDbEntity
  8
ボルトセット
  6
DOT
 62
     0
100
AcDbLine
 10
1452.437232433
 20
844.9490275474
 11
1444.137222433
 21
844.9490275474
  0
LINE
  5
506
100
AcDbEntity
  8
ボルトセット
  6
DOT
 62
     0
100
AcDbLine
 10
1452.437232433
 20
844.4490275474
 11
1444.137222433
 21
844.4490275474
  0
LINE
  5
507
100
AcDbEntity
  8
ボルトセット
  6
DOT
 62
     0
100
AcDbLine
 10
1452.437232433
 20
839.4490275474
 11
1444.137222433
 21
839.4490275474
  0
LINE
  5
508
100
AcDbEntity
  8
ボルトセット
  6
DOT
 62
     0
100
AcDbLine
 10
1452.437232433
 20
838.9490275474
 11
1444.137222433
 21
838.9490275474
  0
ENDBLK
  5
509
100
AcDbEntity
 67
     1
  8
ボルトセット
100
AcDbBlockEnd
  0
BLOCK
  5
50A
100
AcDbEntity
  8
取付金具
100
AcDbBlockBegin
  2
BK23
 70
    64
 10
0
 20
0
  3
BK23
  1

  0
LINE
  5
50B
100
AcDbEntity
  8
取付金具
  6
DOT
 62
     0
100
AcDbLine
 10
1441.637175132
 20
861.9490275474
 11
1441.637175132
 21
821.9490275474
  0
LINE
  5
50C
100
AcDbEntity
  8
取付金具
  6
DOT
 62
     0
100
AcDbLine
 10
1441.637175132
 20
821.9490275474
 11
1450.637175132
 21
821.9490275474
  0
LINE
  5
50D
100
AcDbEntity
  8
取付金具
  6
DOT
 62
     0
100
AcDbLine
 10
1450.637175132
 20
861.9490275474
 11
1450.637175132
 21
821.9490275474
  0
LINE
  5
50E
100
AcDbEntity
  8
取付金具
  6
DOT
 62
     0
100
AcDbLine
 10
1441.637175132
 20
861.9490275474
 11
1450.637175132
 21
861.9490275474
  0
LINE
  5
50F
100
AcDbEntity
  8
取付金具
  6
DOT
 62
     0
100
AcDbLine
 10
1444.637175132
 20
861.9490275474
 11
1444.637175132
 21
821.9490275474
  0
LINE
  5
510
100
AcDbEntity
  8
取付金具
  6
DOT
 62
     0
100
AcDbLine
 10
1446.937175132
 20
861.9490275474
 11
1446.937175132
 21
821.9490275474
  0
LINE
  5
511
100
AcDbEntity
  8
取付金具
  6
DOT
 62
     0
100
AcDbLine
 10
1449.437175132
 20
861.9490275474
 11
1449.437175132
 21
821.9490275474
  0
ENDBLK
  5
512
100
AcDbEntity
 67
     1
  8
取付金具
100
AcDbBlockEnd
  0
BLOCK
  5
513
100
AcDbEntity
  8
取付金具
100
AcDbBlockBegin
  2
BK24
 70
    64
 10
0
 20
0
  3
BK24
  1

  0
LINE
  5
514
100
AcDbEntity
  8
取付金具
  6
DOT
 62
     0
100
AcDbLine
 10
1660.937201217
 20
1041.249058438
 11
1620.937201217
 21
1041.249058438
  0
LINE
  5
515
100
AcDbEntity
  8
取付金具
  6
DOT
 62
     0
100
AcDbLine
 10
1620.937201217
 20
1041.249058438
 11
1620.937201217
 21
1032.249058438
  0
LINE
  5
516
100
AcDbEntity
  8
取付金具
  6
DOT
 62
     0
100
AcDbLine
 10
1660.937201217
 20
1032.249058438
 11
1620.937201217
 21
1032.249058438
  0
LINE
  5
517
100
AcDbEntity
  8
取付金具
  6
DOT
 62
     0
100
AcDbLine
 10
1660.937201217
 20
1041.249058438
 11
1660.937201217
 21
1032.249058438
  0
LINE
  5
518
100
AcDbEntity
  8
取付金具
  6
DOT
 62
     0
100
AcDbLine
 10
1660.937201217
 20
1038.249058438
 11
1620.937201217
 21
1038.249058438
  0
LINE
  5
519
100
AcDbEntity
  8
取付金具
  6
DOT
 62
     0
100
AcDbLine
 10
1660.937201217
 20
1035.949058438
 11
1620.937201217
 21
1035.949058438
  0
LINE
  5
51A
100
AcDbEntity
  8
取付金具
  6
DOT
 62
     0
100
AcDbLine
 10
1660.937201217
 20
1033.449058438
 11
1620.937201217
 21
1033.449058438
  0
ENDBLK
  5
51B
100
AcDbEntity
 67
     1
  8
取付金具
100
AcDbBlockEnd
  0
BLOCK
  5
51C
100
AcDbEntity
  8
寸法
100
AcDbBlockBegin
  2
*D25
 70
     1
 10
0
 20
0
  3
*D25
  1

  0
LINE
  5
51D
100
AcDbEntity
  8
寸法
 62
     0
100
AcDbLine
 10
1023
 20
787.1091230715
 11
1023
 21
812.1091230715
  0
MTEXT
  5
51E
100
AcDbEntity
  8
寸法
 62
     0
100
AcDbMText
 10
1012.5
 20
799.6091230715
 40
15
 41
0
 71
     5
 72
     1
  1
25
 11
6.123031769112E-017
 21
1
1001
ACAD
1000
MTEXTBEGIN
1000
MTEXTEND
  0
POINT
  5
51F
100
AcDbEntity
  8
寸法
100
AcDbPoint
 10
1023
 20
787.1091230715
  0
POINT
  5
520
100
AcDbEntity
  8
寸法
100
AcDbPoint
 10
1023
 20
812.1091230715
  0
POINT
  5
521
100
AcDbEntity
  8
寸法
100
AcDbPoint
 10
1023
 20
812.1091230715
  0
ENDBLK
  5
522
100
AcDbEntity
  8
寸法
100
AcDbBlockEnd
  0
BLOCK
  5
523
100
AcDbEntity
  8
寸法
100
AcDbBlockBegin
  2
*D26
 70
     1
 10
0
 20
0
  3
*D26
  1

  0
LINE
  5
524
100
AcDbEntity
  8
寸法
 62
     0
100
AcDbLine
 10
1023
 20
812.1091230715
 11
1023
 21
837.1091230715
  0
MTEXT
  5
525
100
AcDbEntity
  8
寸法
 62
     0
100
AcDbMText
 10
1012.5
 20
824.6091230715
 40
15
 41
0
 71
     5
 72
     1
  1
25
 11
6.123031769112E-017
 21
1
1001
ACAD
1000
MTEXTBEGIN
1000
MTEXTEND
  0
POINT
  5
526
100
AcDbEntity
  8
寸法
100
AcDbPoint
 10
1023
 20
812.1091230715
  0
POINT
  5
527
100
AcDbEntity
  8
寸法
100
AcDbPoint
 10
1023
 20
837.1091230715
  0
POINT
  5
528
100
AcDbEntity
  8
寸法
100
AcDbPoint
 10
1023
 20
837.1091230715
  0
ENDBLK
  5
529
100
AcDbEntity
  8
寸法
100
AcDbBlockEnd
  0
BLOCK
  5
52A
100
AcDbEntity
  8
寸法
100
AcDbBlockBegin
  2
*D27
 70
     1
 10
0
 20
0
  3
*D27
  1

  0
LINE
  5
52B
100
AcDbEntity
  8
寸法
 62
     0
100
AcDbLine
 10
935
 20
855.1091230715
 11
955
 21
855.1091230715
  0
MTEXT
  5
52C
100
AcDbEntity
  8
寸法
 62
     0
100
AcDbMText
 10
945
 20
865.6091230715
 40
15
 41
0
 71
     5
 72
     1
  1
20
 11
1
 21
0
1001
ACAD
1000
MTEXTBEGIN
1000
MTEXTEND
  0
POINT
  5
52D
100
AcDbEntity
  8
寸法
100
AcDbPoint
 10
935
 20
855.1091230715
  0
POINT
  5
52E
100
AcDbEntity
  8
寸法
100
AcDbPoint
 10
955
 20
855.1091230715
  0
POINT
  5
52F
100
AcDbEntity
  8
寸法
100
AcDbPoint
 10
955
 20
855.1091230715
  0
ENDBLK
  5
530
100
AcDbEntity
  8
寸法
100
AcDbBlockEnd
  0
BLOCK
  5
531
100
AcDbEntity
  8
寸法
100
AcDbBlockBegin
  2
*D28
 70
     1
 10
0
 20
0
  3
*D28
  1

  0
LINE
  5
532
100
AcDbEntity
  8
寸法
 62
     0
100
AcDbLine
 10
955
 20
855.1091230715
 11
985
 21
855.1091230715
  0
MTEXT
  5
533
100
AcDbEntity
  8
寸法
 62
     0
100
AcDbMText
 10
970
 20
865.6091230715
 40
15
 41
0
 71
     5
 72
     1
  1
30
 11
1
 21
0
1001
ACAD
1000
MTEXTBEGIN
1000
MTEXTEND
  0
POINT
  5
534
100
AcDbEntity
  8
寸法
100
AcDbPoint
 10
955
 20
855.1091230715
  0
POINT
  5
535
100
AcDbEntity
  8
寸法
100
AcDbPoint
 10
985
 20
855.1091230715
  0
POINT
  5
536
100
AcDbEntity
  8
寸法
100
AcDbPoint
 10
985
 20
855.1091230715
  0
ENDBLK
  5
537
100
AcDbEntity
  8
寸法
100
AcDbBlockEnd
  0
BLOCK
  5
538
100
AcDbEntity
  8
寸法
100
AcDbBlockBegin
  2
*D29
 70
     1
 10
0
 20
0
  3
*D29
  1

  0
LINE
  5
539
100
AcDbEntity
  8
寸法
 62
     0
100
AcDbLine
 10
975
 20
873.1091230715
 11
985
 21
873.1091230715
  0
MTEXT
  5
53A
100
AcDbEntity
  8
寸法
 62
     0
100
AcDbMText
 10
980
 20
883.6091230715
 40
15
 41
0
 71
     5
 72
     1
  1
10
 11
1
 21
0
1001
ACAD
1000
MTEXTBEGIN
1000
MTEXTEND
  0
POINT
  5
53B
100
AcDbEntity
  8
寸法
100
AcDbPoint
 10
975
 20
873.1091230715
  0
POINT
  5
53C
100
AcDbEntity
  8
寸法
100
AcDbPoint
 10
985
 20
873.1091230715
  0
POINT
  5
53D
100
AcDbEntity
  8
寸法
100
AcDbPoint
 10
985
 20
873.1091230715
  0
ENDBLK
  5
53E
100
AcDbEntity
  8
寸法
100
AcDbBlockEnd
  0
BLOCK
  5
53F
100
AcDbEntity
  8
寸法
100
AcDbBlockBegin
  2
*D30
 70
     1
 10
0
 20
0
  3
*D30
  1

  0
LINE
  5
540
100
AcDbEntity
  8
寸法
 62
     0
100
AcDbLine
 10
1546.937233223
 20
761.9490286378
 11
1546.937233223
 21
811.9490484379
  0
MTEXT
  5
541
100
AcDbEntity
  8
寸法
 62
     0
100
AcDbMText
 10
1536.437233223
 20
786.9490385379
 40
15
 41
0
 71
     5
 72
     1
  1
50
 11
6.123031769112E-017
 21
1
1001
ACAD
1000
MTEXTBEGIN
1000
MTEXTEND
  0
POINT
  5
542
100
AcDbEntity
  8
寸法
100
AcDbPoint
 10
1546.937233223
 20
761.9490286378
  0
POINT
  5
543
100
AcDbEntity
  8
寸法
100
AcDbPoint
 10
1546.937233223
 20
811.9490484379
  0
POINT
  5
544
100
AcDbEntity
  8
寸法
100
AcDbPoint
 10
1546.937233223
 20
811.9490484379
  0
ENDBLK
  5
545
100
AcDbEntity
  8
寸法
100
AcDbBlockEnd
  0
BLOCK
  5
546
100
AcDbEntity
  8
寸法
100
AcDbBlockBegin
  2
*D31
 70
     1
 10
0
 20
0
  3
*D31
  1

  0
LINE
  5
547
100
AcDbEntity
  8
寸法
 62
     0
100
AcDbLine
 10
1546.937233223
 20
811.9490484379
 11
1546.937233223
 21
861.9490184379
  0
MTEXT
  5
548
100
AcDbEntity
  8
寸法
 62
     0
100
AcDbMText
 10
1536.437233223
 20
836.9490334379
 40
15
 41
0
 71
     5
 72
     1
  1
50
 11
6.123031769112E-017
 21
1
1001
ACAD
1000
MTEXTBEGIN
1000
MTEXTEND
  0
POINT
  5
549
100
AcDbEntity
  8
寸法
100
AcDbPoint
 10
1546.937233223
 20
811.9490484379
  0
POINT
  5
54A
100
AcDbEntity
  8
寸法
100
AcDbPoint
 10
1546.937233223
 20
861.9490184379
  0
POINT
  5
54B
100
AcDbEntity
  8
寸法
100
AcDbPoint
 10
1546.937233223
 20
861.9490184379
  0
ENDBLK
  5
54C
100
AcDbEntity
  8
寸法
100
AcDbBlockEnd
  0
BLOCK
  5
54D
100
AcDbEntity
  8
寸法
100
AcDbBlockBegin
  2
*D32
 70
     1
 10
0
 20
0
  3
*D32
  1

  0
LINE
  5
54E
100
AcDbEntity
  8
寸法
 62
     0
100
AcDbLine
 10
1450.937226953
 20
897.9490184379
 11
1500.937266953
 21
897.9490184379
  0
MTEXT
  5
54F
100
AcDbEntity
  8
寸法
 62
     0
100
AcDbMText
 10
1475.937246953
 20
908.4490184379
 40
15
 41
0
 71
     5
 72
     1
  1
50
 11
1
 21
0
1001
ACAD
1000
MTEXTBEGIN
1000
MTEXTEND
  0
POINT
  5
550
100
AcDbEntity
  8
寸法
100
AcDbPoint
 10
1450.937226953
 20
897.9490184379
  0
POINT
  5
551
100
AcDbEntity
  8
寸法
100
AcDbPoint
 10
1500.937266953
 20
897.9490184379
  0
POINT
  5
552
100
AcDbEntity
  8
寸法
100
AcDbPoint
 10
1500.937266953
 20
897.9490184379
  0
ENDBLK
  5
553
100
AcDbEntity
  8
寸法
100
AcDbBlockEnd
  0
BLOCK
  5
554
100
AcDbEntity
  8
寸法
100
AcDbBlockBegin
  2
*D33
 70
     1
 10
0
 20
0
  3
*D33
  1

  0
LINE
  5
555
100
AcDbEntity
  8
寸法
 62
     0
100
AcDbLine
 10
1510.937233223
 20
725.9490286378
 11
1460.937236953
 21
725.9490286378
  0
MTEXT
  5
556
100
AcDbEntity
  8
寸法
 62
     0
100
AcDbMText
 10
1485.937235088
 20
736.4490286378
 40
15
 41
0
 71
     5
 72
     1
  1
50
 11
1
 21
0
1001
ACAD
1000
MTEXTBEGIN
1000
MTEXTEND
  0
POINT
  5
557
100
AcDbEntity
  8
寸法
100
AcDbPoint
 10
1510.937233223
 20
725.9490286378
  0
POINT
  5
558
100
AcDbEntity
  8
寸法
100
AcDbPoint
 10
1460.937236953
 20
725.9490286378
  0
POINT
  5
559
100
AcDbEntity
  8
寸法
100
AcDbPoint
 10
1460.937236953
 20
725.9490286378
  0
ENDBLK
  5
55A
100
AcDbEntity
  8
寸法
100
AcDbBlockEnd
  0
BLOCK
  5
55B
100
AcDbEntity
  8
寸法
100
AcDbBlockBegin
  2
*D34
 70
     1
 10
0
 20
0
  3
*D34
  1

  0
LINE
  5
55C
100
AcDbEntity
  8
寸法
 62
     0
100
AcDbLine
 10
787.0143418569
 20
767.1091230715
 11
787.0143418569
 21
667.1091230715
  0
MTEXT
  5
55D
100
AcDbEntity
  8
寸法
 62
     0
100
AcDbMText
 10
773.5143418569
 20
717.1091230715
 40
15
 41
0
 71
     5
 72
     1
  1
100
 11
6.123031769112E-017
 21
1
1001
ACAD
1000
MTEXTBEGIN
1000
MTEXTEND
  0
POINT
  5
55E
100
AcDbEntity
  8
寸法
100
AcDbPoint
 10
787.0143418569
 20
767.1091230715
  0
POINT
  5
55F
100
AcDbEntity
  8
寸法
100
AcDbPoint
 10
787.0143418569
 20
667.1091230715
  0
POINT
  5
560
100
AcDbEntity
  8
寸法
100
AcDbPoint
 10
787.0143418569
 20
667.1091230715
  0
ENDBLK
  5
561
100
AcDbEntity
  8
寸法
100
AcDbBlockEnd
  0
BLOCK
  5
562
100
AcDbEntity
  8
寸法
100
AcDbBlockBegin
  2
*D35
 70
     1
 10
0
 20
0
  3
*D35
  1

  0
LINE
  5
563
100
AcDbEntity
  8
寸法
 62
     0
100
AcDbLine
 10
1369.723908634
 20
1106.091077565
 11
1376.79494732
 21
1113.162174502
  0
MTEXT
  5
564
100
AcDbEntity
  8
寸法
 62
     0
100
AcDbMText
 10
1365.834776193
 20
1117.051216654
 40
15
 41
0
 71
     5
 72
     1
  1
10
 11
0.7071038686238
 21
0.7071096937373
1001
ACAD
1000
MTEXTBEGIN
1000
MTEXTEND
  0
POINT
  5
565
100
AcDbEntity
  8
寸法
100
AcDbPoint
 10
1369.723908634
 20
1106.091077565
  0
POINT
  5
566
100
AcDbEntity
  8
寸法
100
AcDbPoint
 10
1376.79494732
 20
1113.162174502
  0
POINT
  5
567
100
AcDbEntity
  8
寸法
100
AcDbPoint
 10
1376.79494732
 20
1113.162174502
  0
ENDBLK
  5
568
100
AcDbEntity
  8
寸法
100
AcDbBlockEnd
  0
BLOCK
  5
569
100
AcDbEntity
  8
寸法
100
AcDbBlockBegin
  2
*D36
 70
     1
 10
0
 20
0
  3
*D36
  1

  0
LINE
  5
56A
100
AcDbEntity
  8
寸法
 62
     0
100
AcDbLine
 10
865
 20
562.7531434449
 11
925
 21
562.7531434449
  0
MTEXT
  5
56B
100
AcDbEntity
  8
寸法
 62
     0
100
AcDbMText
 10
895
 20
576.2531434449
 40
15
 41
0
 71
     5
 72
     1
  1
60
 11
1
 21
0
1001
ACAD
1000
MTEXTBEGIN
1000
MTEXTEND
  0
POINT
  5
56C
100
AcDbEntity
  8
寸法
100
AcDbPoint
 10
865
 20
562.7531434449
  0
POINT
  5
56D
100
AcDbEntity
  8
寸法
100
AcDbPoint
 10
925
 20
562.7531434449
  0
POINT
  5
56E
100
AcDbEntity
  8
寸法
100
AcDbPoint
 10
925
 20
562.7531434449
  0
ENDBLK
  5
56F
100
AcDbEntity
  8
寸法
100
AcDbBlockEnd
  0
BLOCK
  5
570
100
AcDbEntity
  8
寸法
100
AcDbBlockBegin
  2
*D37
 70
     1
 10
0
 20
0
  3
*D37
  1

  0
LINE
  5
571
100
AcDbEntity
  8
寸法
 62
     0
100
AcDbLine
 10
925
 20
562.7531434449
 11
975
 21
562.7531434449
  0
MTEXT
  5
572
100
AcDbEntity
  8
寸法
 62
     0
100
AcDbMText
 10
950
 20
576.2531434449
 40
15
 41
0
 71
     5
 72
     1
  1
50
 11
1
 21
0
1001
ACAD
1000
MTEXTBEGIN
1000
MTEXTEND
  0
POINT
  5
573
100
AcDbEntity
  8
寸法
100
AcDbPoint
 10
925
 20
562.7531434449
  0
POINT
  5
574
100
AcDbEntity
  8
寸法
100
AcDbPoint
 10
975
 20
562.7531434449
  0
POINT
  5
575
100
AcDbEntity
  8
寸法
100
AcDbPoint
 10
975
 20
562.7531434449
  0
ENDBLK
  5
576
100
AcDbEntity
  8
寸法
100
AcDbBlockEnd
  0
BLOCK
  5
577
100
AcDbEntity
  8
寸法
100
AcDbBlockBegin
  2
*D38
 70
     1
 10
0
 20
0
  3
*D38
  1

  0
LINE
  5
578
100
AcDbEntity
  8
寸法
 62
     0
100
AcDbLine
 10
975
 20
562.7531434449
 11
985
 21
562.7531434449
  0
MTEXT
  5
579
100
AcDbEntity
  8
寸法
 62
     0
100
AcDbMText
 10
980
 20
576.2531434449
 40
15
 41
0
 71
     5
 72
     1
  1
10
 11
1
 21
0
1001
ACAD
1000
MTEXTBEGIN
1000
MTEXTEND
  0
POINT
  5
57A
100
AcDbEntity
  8
寸法
100
AcDbPoint
 10
975
 20
562.7531434449
  0
POINT
  5
57B
100
AcDbEntity
  8
寸法
100
AcDbPoint
 10
985
 20
562.7531434449
  0
POINT
  5
57C
100
AcDbEntity
  8
寸法
100
AcDbPoint
 10
985
 20
562.7531434449
  0
ENDBLK
  5
57D
100
AcDbEntity
  8
寸法
100
AcDbBlockEnd
  0
BLOCK
  5
57E
100
AcDbEntity
  8
寸法
100
AcDbBlockBegin
  2
*D39
 70
     1
 10
0
 20
0
  3
*D39
  1

  0
LINE
  5
57F
100
AcDbEntity
  8
寸法
 62
     0
100
AcDbLine
 10
985
 20
562.7531434449
 11
1085
 21
562.7531434449
  0
MTEXT
  5
580
100
AcDbEntity
  8
寸法
 62
     0
100
AcDbMText
 10
1035
 20
576.2531434449
 40
15
 41
0
 71
     5
 72
     1
  1
100
 11
1
 21
0
1001
ACAD
1000
MTEXTBEGIN
1000
MTEXTEND
  0
POINT
  5
581
100
AcDbEntity
  8
寸法
100
AcDbPoint
 10
985
 20
562.7531434449
  0
POINT
  5
582
100
AcDbEntity
  8
寸法
100
AcDbPoint
 10
1085
 20
562.7531434449
  0
POINT
  5
583
100
AcDbEntity
  8
寸法
100
AcDbPoint
 10
1085
 20
562.7531434449
  0
ENDBLK
  5
584
100
AcDbEntity
  8
寸法
100
AcDbBlockEnd
  0
BLOCK
  5
585
100
AcDbEntity
  8
寸法
100
AcDbBlockBegin
  2
*D40
 70
     1
 10
0
 20
0
  3
*D40
  1

  0
LINE
  5
586
100
AcDbEntity
  8
寸法
 62
     0
100
AcDbLine
 10
1390.937202463
 20
562.7531434449
 11
1450.937202463
 21
562.7531434449
  0
MTEXT
  5
587
100
AcDbEntity
  8
寸法
 62
     0
100
AcDbMText
 10
1420.937202463
 20
576.2531434449
 40
15
 41
0
 71
     5
 72
     1
  1
60
 11
1
 21
0
1001
ACAD
1000
MTEXTBEGIN
1000
MTEXTEND
  0
POINT
  5
588
100
AcDbEntity
  8
寸法
100
AcDbPoint
 10
1390.937202463
 20
562.7531434449
  0
POINT
  5
589
100
AcDbEntity
  8
寸法
100
AcDbPoint
 10
1450.937202463
 20
562.7531434449
  0
POINT
  5
58A
100
AcDbEntity
  8
寸法
100
AcDbPoint
 10
1450.937202463
 20
562.7531434449
  0
ENDBLK
  5
58B
100
AcDbEntity
  8
寸法
100
AcDbBlockEnd
  0
BLOCK
  5
58C
100
AcDbEntity
  8
寸法
100
AcDbBlockBegin
  2
*D41
 70
     1
 10
0
 20
0
  3
*D41
  1

  0
LINE
  5
58D
100
AcDbEntity
  8
寸法
 62
     0
100
AcDbLine
 10
1450.937202463
 20
562.7531434449
 11
1510.937202463
 21
562.7531434449
  0
MTEXT
  5
58E
100
AcDbEntity
  8
寸法
 62
     0
100
AcDbMText
 10
1480.937202463
 20
576.2531434449
 40
15
 41
0
 71
     5
 72
     1
  1
60
 11
1
 21
0
1001
ACAD
1000
MTEXTBEGIN
1000
MTEXTEND
  0
POINT
  5
58F
100
AcDbEntity
  8
寸法
100
AcDbPoint
 10
1450.937202463
 20
562.7531434449
  0
POINT
  5
590
100
AcDbEntity
  8
寸法
100
AcDbPoint
 10
1510.937202463
 20
562.7531434449
  0
POINT
  5
591
100
AcDbEntity
  8
寸法
100
AcDbPoint
 10
1510.937202463
 20
562.7531434449
  0
ENDBLK
  5
592
100
AcDbEntity
  8
寸法
100
AcDbBlockEnd
  0
BLOCK
  5
593
100
AcDbEntity
  8
寸法
100
AcDbBlockBegin
  2
*D42
 70
     1
 10
0
 20
0
  3
*D42
  1

  0
LINE
  5
594
100
AcDbEntity
  8
寸法
 62
     0
100
AcDbLine
 10
1510.937202463
 20
562.7531434449
 11
1610.937209349
 21
562.7531434449
  0
MTEXT
  5
595
100
AcDbEntity
  8
寸法
 62
     0
100
AcDbMText
 10
1560.937205906
 20
576.2531434449
 40
15
 41
0
 71
     5
 72
     1
  1
100
 11
1
 21
0
1001
ACAD
1000
MTEXTBEGIN
1000
MTEXTEND
  0
POINT
  5
596
100
AcDbEntity
  8
寸法
100
AcDbPoint
 10
1510.937202463
 20
562.7531434449
  0
POINT
  5
597
100
AcDbEntity
  8
寸法
100
AcDbPoint
 10
1610.937209349
 20
562.7531434449
  0
POINT
  5
598
100
AcDbEntity
  8
寸法
100
AcDbPoint
 10
1610.937209349
 20
562.7531434449
  0
ENDBLK
  5
599
100
AcDbEntity
  8
寸法
100
AcDbBlockEnd
  0
BLOCK
  5
59A
100
AcDbEntity
  8
寸法
100
AcDbBlockBegin
  2
*D43
 70
     1
 10
0
 20
0
  3
*D43
  1

  0
LINE
  5
59B
100
AcDbEntity
  8
寸法
 62
     0
100
AcDbLine
 10
930
 20
750.6091230715
 11
966
 21
750.6091230715
  0
LINE
  5
59C
100
AcDbEntity
  8
寸法
 62
     0
100
AcDbLine
 10
930
 20
736.6091230715
 11
966
 21
736.6091230715
  0
LINE
  5
59D
100
AcDbEntity
  8
寸法
 62
     0
100
AcDbLine
 10
960
 20
750.6091230715
 11
960
 21
736.6091230715
  0
INSERT
  5
59E
100
AcDbEntity
  8
寸法
 62
     0
100
AcDbBlockReference
  2
_DOT
 10
960
 20
750.6091230715
 41
4.2
 42
4.2
 50
90
  0
INSERT
  5
59F
100
AcDbEntity
  8
寸法
 62
     0
100
AcDbBlockReference
  2
_DOT
 10
960
 20
736.6091230715
 41
4.2
 42
4.2
 50
-90
  0
MTEXT
  5
5A0
100
AcDbEntity
  8
寸法
 62
     0
100
AcDbMText
 10
949.5
 20
743.6091230715
 40
15
 41
0
 71
     5
 72
     1
  1
14
 11
6.123031769112E-017
 21
1
1001
ACAD
1000
MTEXTBEGIN
1000
MTEXTEND
  0
POINT
  5
5A1
100
AcDbEntity
  8
寸法
100
AcDbPoint
 10
930
 20
750.6091230715
  0
POINT
  5
5A2
100
AcDbEntity
  8
寸法
100
AcDbPoint
 10
930
 20
736.6091230715
  0
POINT
  5
5A3
100
AcDbEntity
  8
寸法
100
AcDbPoint
 10
960
 20
736.6091230715
  0
ENDBLK
  5
5A4
100
AcDbEntity
  8
寸法
100
AcDbBlockEnd
  0
BLOCK
  5
5A5
100
AcDbEntity
  8
寸法
100
AcDbBlockBegin
  2
*D44
 70
     1
 10
0
 20
0
  3
*D44
  1

  0
LINE
  5
5A6
100
AcDbEntity
  8
寸法
 62
     0
100
AcDbLine
 10
931
 20
728.1091230715
 11
991
 21
728.1091230715
  0
LINE
  5
5A7
100
AcDbEntity
  8
寸法
 62
     0
100
AcDbLine
 10
931
 20
767.1091230715
 11
991
 21
767.1091230715
  0
LINE
  5
5A8
100
AcDbEntity
  8
寸法
 62
     0
100
AcDbLine
 10
985
 20
728.1091230715
 11
985
 21
767.1091230715
  0
INSERT
  5
5A9
100
AcDbEntity
  8
寸法
 62
     0
100
AcDbBlockReference
  2
_DOT
 10
985
 20
728.1091230715
 41
4.2
 42
4.2
 50
-90
  0
INSERT
  5
5AA
100
AcDbEntity
  8
寸法
 62
     0
100
AcDbBlockReference
  2
_DOT
 10
985
 20
767.1091230715
 41
4.2
 42
4.2
 50
90
  0
MTEXT
  5
5AB
100
AcDbEntity
  8
寸法
 62
     0
100
AcDbMText
 10
974.5
 20
747.6091230715
 40
15
 41
0
 71
     5
 72
     1
  1
39
 11
6.123031769112E-017
 21
1
1001
ACAD
1000
MTEXTBEGIN
1000
MTEXTEND
  0
POINT
  5
5AC
100
AcDbEntity
  8
寸法
100
AcDbPoint
 10
931
 20
728.1091230715
  0
POINT
  5
5AD
100
AcDbEntity
  8
寸法
100
AcDbPoint
 10
931
 20
767.1091230715
  0
POINT
  5
5AE
100
AcDbEntity
  8
寸法
100
AcDbPoint
 10
985
 20
767.1091230715
  0
ENDBLK
  5
5AF
100
AcDbEntity
  8
寸法
100
AcDbBlockEnd
  0
ENDSEC
  0
SECTION
  2
ENTITIES
  0
INSERT
  5
5B0
100
AcDbEntity
  8
固定アングル
100
AcDbBlockReference
  2
BK2
 10
0
 20
0
  0
INSERT
  5
5B1
100
AcDbEntity
  8
固定アングル
100
AcDbBlockReference
  2
BK3
 10
0
 20
0
  0
LINE
  5
5B2
100
AcDbEntity
  8
ストリンガー
  6
DASHED
 62
     0
100
AcDbLine
 10
1452.270560591
 20
838.9490384378
 11
1452.270560591
 21
861.9304623739
  0
LINE
  5
5B3
100
AcDbEntity
  8
ストリンガー
  6
DASHED
 62
     0
100
AcDbLine
 10
1453.603899099
 20
838.9490384378
 11
1453.603899099
 21
861.9490184378
  0
LINE
  5
5B4
100
AcDbEntity
  8
ストリンガー
  6
CONTINUOUS
 62
     0
100
AcDbLine
 10
1454.937226131
 20
861.9490184378
 11
1454.937238734
 21
815.949036657
  0
LINE
  5
5B5
100
AcDbEntity
  8
ストリンガー
  6
CONTINUOUS
 62
     0
100
AcDbLine
 10
1450.937236953
 20
811.9490384378
 11
1500.937266953
 21
811.9490484379
  0
LINE
  5
5B6
100
AcDbEntity
  8
ストリンガー
  6
CONTINUOUS
 62
     0
100
AcDbLine
 10
1454.937238734
 20
815.949036657
 11
1500.937266953
 21
815.9490492598
  0
LINE
  5
5B7
100
AcDbEntity
  8
ストリンガー
  6
DASHED
 62
     0
100
AcDbLine
 10
1450.937226953
 20
838.9490384378
 11
1454.937226953
 21
838.9490384378
  0
LINE
  5
5B8
100
AcDbEntity
  8
ストリンガー
  6
DASHED
 62
     0
100
AcDbLine
 10
1470.937274557
 20
813.2823747712
 11
1490.937304557
 21
813.2823747712
  0
LINE
  5
5B9
100
AcDbEntity
  8
ストリンガー
  6
DASHED
 62
     0
100
AcDbLine
 10
1470.937274557
 20
814.6157181045
 11
1490.937304557
 21
814.6157181045
  0
LINE
  5
5BA
100
AcDbEntity
  8
ストリンガー
  6
DASHED
 62
     0
100
AcDbLine
 10
1470.937274557
 20
815.9490284379
 11
1470.937274557
 21
811.9490284379
  0
LINE
  5
5BB
100
AcDbEntity
  8
ストリンガー
  6
CONTINUOUS
 62
     0
100
AcDbLine
 10
1500.937266953
 20
815.9490492598
 11
1500.937266953
 21
811.9490284379
  0
LINE
  5
5BC
100
AcDbEntity
  8
ストリンガー
  6
DASHED
 62
     0
100
AcDbLine
 10
1490.937304557
 20
815.9490284379
 11
1490.937304557
 21
811.9490284379
  0
LINE
  5
5BD
100
AcDbEntity
  8
ストリンガー
  6
CONTINUOUS
 62
     0
100
AcDbLine
 10
1450.937226953
 20
861.9490184378
 11
1454.937226131
 21
861.9490184378
  0
LINE
  5
5BE
100
AcDbEntity
  8
ストリンガー
  6
CONTINUOUS
 62
     0
100
AcDbLine
 10
1620.937209349
 20
1031.949058438
 11
1670.937209349
 21
1031.949058438
  0
LINE
  5
5BF
100
AcDbEntity
  8
ストリンガー
  6
DASHED
 62
     0
100
AcDbLine
 10
1666.937219349
 20
1011.949048438
 11
1670.937219349
 21
1011.949048438
  0
LINE
  5
5C0
100
AcDbEntity
  8
ストリンガー
  6
DASHED
 62
     0
100
AcDbLine
 10
1666.937219349
 20
991.9490184378
 11
1670.937219349
 21
991.9490184378
  0
LINE
  5
5C1
100
AcDbEntity
  8
ストリンガー
  6
DASHED
 62
     0
100
AcDbLine
 10
1643.937209349
 20
1029.282386292
 11
1620.937209349
 21
1029.282386292
  0
LINE
  5
5C2
100
AcDbEntity
  8
ストリンガー
  6
DASHED
 62
     0
100
AcDbLine
 10
1643.937209349
 20
1030.6157248
 11
1620.955785413
 21
1030.6157248
  0
LINE
  5
5C3
100
AcDbEntity
  8
ストリンガー
  6
CONTINUOUS
 62
     0
100
AcDbLine
 10
1620.937209349
 20
1027.949058438
 11
1666.937209349
 21
1027.949058438
  0
LINE
  5
5C4
100
AcDbEntity
  8
ストリンガー
  6
CONTINUOUS
 62
     0
100
AcDbLine
 10
1620.937209349
 20
1031.949058438
 11
1620.937209349
 21
1027.949058438
  0
LINE
  5
5C5
100
AcDbEntity
  8
ストリンガー
  6
CONTINUOUS
 62
     0
100
AcDbLine
 10
1666.937209349
 20
1027.949058438
 11
1666.937209349
 21
981.9490584378
  0
LINE
  5
5C6
100
AcDbEntity
  8
ストリンガー
  6
DASHED
 62
     0
100
AcDbLine
 10
1643.937209349
 20
1031.949058438
 11
1643.937209349
 21
1027.949058438
  0
LINE
  5
5C7
100
AcDbEntity
  8
ストリンガー
  6
DASHED
 62
     0
100
AcDbLine
 10
1669.603873016
 20
1011.949048438
 11
1669.603873016
 21
991.9490184378
  0
LINE
  5
5C8
100
AcDbEntity
  8
ストリンガー
  6
DASHED
 62
     0
100
AcDbLine
 10
1668.270529683
 20
1011.949048438
 11
1668.270529683
 21
991.9490184378
  0
LINE
  5
5C9
100
AcDbEntity
  8
ストリンガー
  6
CONTINUOUS
 62
     0
100
AcDbLine
 10
1670.937209349
 20
1031.949058438
 11
1670.937209349
 21
981.9490584378
  0
LINE
  5
5CA
100
AcDbEntity
  8
ストリンガー
  6
CONTINUOUS
 62
     0
100
AcDbLine
 10
1666.937209349
 20
981.9490584378
 11
1670.937209349
 21
981.9490584378
  0
LINE
  5
5CB
100
AcDbEntity
  8
パネル
  6
CONTINUOUS
 62
     0
100
AcDbLine
 10
1450.937175249
 20
1024.877990352
 11
1450.937202463
 21
673.6091230715
  0
LINE
  5
5CC
100
AcDbEntity
  8
パネル
  6
CONTINUOUS
 62
     0
100
AcDbLine
 10
1390.9371706
 20
1084.877990352
 11
1390.937202463
 21
673.6091230715
  0
LINE
  5
5CD
100
AcDbEntity
  8
パネル
  6
CONTINUOUS
 62
     0
100
AcDbLine
 10
1449.437175132
 20
1026.377990352
 11
1449.437202463
 21
673.6091230715
  0
LINE
  5
5CE
100
AcDbEntity
  8
パネル
  6
DASHED
 62
     0
100
AcDbLine
 10
1392.437170716
 20
1083.377990352
 11
1392.437202463
 21
673.6091230715
  0
LINE
  5
5CF
100
AcDbEntity
  8
パネル
  6
CONTINUOUS
 62
     0
100
AcDbLine
 10
1435.937174086
 20
1039.877990352
 11
1435.937202463
 21
673.6091230715
  0
LINE
  5
5D0
100
AcDbEntity
  8
パネル
  6
CONTINUOUS
 62
     0
100
AcDbLine
 10
1458.008242787
 20
1031.949058438
 11
1788.066275663
 21
1031.949058438
  0
LINE
  5
5D1
100
AcDbEntity
  8
パネル
  6
CONTINUOUS
 62
     0
100
AcDbLine
 10
1398.008238138
 20
1091.949058438
 11
1788.066275663
 21
1091.949058438
  0
LINE
  5
5D2
100
AcDbEntity
  8
パネル
  6
CONTINUOUS
 62
     0
100
AcDbLine
 10
1456.50824267
 20
1033.449058438
 11
1788.066275663
 21
1033.449058438
  0
LINE
  5
5D3
100
AcDbEntity
  8
パネル
  6
DASHED
 62
     0
100
AcDbLine
 10
1399.508238254
 20
1090.449058438
 11
1788.066275663
 21
1090.449058438
  0
LINE
  5
5D4
100
AcDbEntity
  8
パネル
  6
CONTINUOUS
 62
     0
100
AcDbLine
 10
1443.008241624
 20
1046.949058438
 11
1788.066275663
 21
1046.949058438
  0
LINE
  5
5D5
100
AcDbEntity
  8
パネル
  6
CONTINUOUS
 62
     0
100
AcDbLine
 10
1398.008238138
 20
1091.949058438
 11
1458.008242787
 21
1031.949058438
  0
LINE
  5
5D6
100
AcDbEntity
  8
パネル
  6
CONTINUOUS
 62
     0
100
AcDbLine
 10
1390.9371706
 20
1084.877990352
 11
1450.937175249
 21
1024.877990352
  0
LINE
  5
5D7
100
AcDbEntity
  8
固定アングル
  6
DASHED
 62
     0
100
AcDbLine
 10
935
 20
837.1091230715
 11
935
 21
787.1091230715
  0
LINE
  5
5D8
100
AcDbEntity
  8
固定アングル
  6
CONTINUOUS
 62
     0
100
AcDbLine
 10
985
 20
837.1091230715
 11
985
 21
787.1091230715
  0
LINE
  5
5D9
100
AcDbEntity
  8
固定アングル
  6
DASHED
 62
     0
100
AcDbLine
 10
981
 20
837.1091230715
 11
981
 21
787.1091230715
  0
LINE
  5
5DA
100
AcDbEntity
  8
固定アングル
  6
DASHED
 62
     0
100
AcDbLine
 10
935
 20
787.1091230715
 11
975
 21
787.1091230715
  0
LINE
  5
5DB
100
AcDbEntity
  8
固定アングル
  6
CONTINUOUS
 62
     0
100
AcDbLine
 10
975
 20
787.1091230715
 11
985
 21
787.1091230715
  0
LINE
  5
5DC
100
AcDbEntity
  8
固定アングル
  6
DASHED
 62
     0
100
AcDbLine
 10
934.7670384561
 20
1036.778745834
 11
934.7670384561
 21
986.7787458342
  0
LINE
  5
5DD
100
AcDbEntity
  8
固定アングル
  6
CONTINUOUS
 62
     0
100
AcDbLine
 10
984.7670384561
 20
1036.778745834
 11
984.7670384561
 21
986.7787458342
  0
LINE
  5
5DE
100
AcDbEntity
  8
固定アングル
  6
DASHED
 62
     0
100
AcDbLine
 10
980.7670384561
 20
1036.778745834
 11
980.7670384561
 21
986.7787458342
  0
LINE
  5
5DF
100
AcDbEntity
  8
固定アングル
  6
DASHED
 62
     0
100
AcDbLine
 10
935
 20
837.1091230715
 11
975
 21
837.1091230715
  0
ARC
  5
5E0
100
AcDbEntity
  8
固定アングル
  6
CONTINUOUS
 62
     0
100
AcDbCircle
 10
946
 20
812.1091230715
 40
6
100
AcDbArc
 50
89.99996
 51
270
  0
LINE
  5
5E1
100
AcDbEntity
  8
固定アングル
  6
CONTINUOUS
 62
     0
100
AcDbLine
 10
946
 20
818.1091230715
 11
946.4473
 21
818.1091230715
  0
LINE
  5
5E2
100
AcDbEntity
  8
固定アングル
  6
CONTINUOUS
 62
     0
100
AcDbLine
 10
946
 20
806.1091230715
 11
946.39999
 21
806.1091230715
  0
LINE
  5
5E3
100
AcDbEntity
  8
固定アングル
  6
CONTINUOUS
 62
     0
100
AcDbLine
 10
963.56888
 20
818.1091230715
 11
964
 21
818.1091230715
  0
LINE
  5
5E4
100
AcDbEntity
  8
固定アングル
  6
CONTINUOUS
 62
     0
100
AcDbLine
 10
963.6168439698
 20
806.1091230715
 11
964
 21
806.1091230715
  0
ARC
  5
5E5
100
AcDbEntity
  8
固定アングル
  6
CONTINUOUS
 62
     0
100
AcDbCircle
 10
964
 20
812.1091230715
 40
6
100
AcDbArc
 50
-90
 51
90.00002
  0
LINE
  5
5E6
100
AcDbEntity
  8
固定アングル
  6
DASHED
 62
     0
100
AcDbLine
 10
985.0000019352
 20
818.1091230715
 11
981.0000268767
 21
818.1091230715
  0
LINE
  5
5E7
100
AcDbEntity
  8
固定アングル
  6
DASHED
 62
     0
100
AcDbLine
 10
984.9999980648
 20
806.1091230715
 11
981.0000368767
 21
806.1091230715
  0
INSERT
  5
5E8
100
AcDbEntity
  8
固定アングル
100
AcDbBlockReference
  2
BK4
 10
0
 20
0
  0
LINE
  5
5E9
100
AcDbEntity
  8
固定アングル
  6
CONTINUOUS
 62
     0
100
AcDbLine
 10
975
 20
837.1091230715
 11
985
 21
837.1091230715
  0
LINE
  5
5EA
100
AcDbEntity
  8
固定アングル
  6
DASHED
 62
     0
100
AcDbLine
 10
934.7670384561
 20
986.7787458342
 11
974.7670384561
 21
986.7787458342
  0
ARC
  5
5EB
100
AcDbEntity
  8
固定アングル
  6
CONTINUOUS
 62
     0
100
AcDbCircle
 10
945.7670384561
 20
1011.778745834
 40
6
100
AcDbArc
 50
89.99996
 51
270
  0
LINE
  5
5EC
100
AcDbEntity
  8
固定アングル
  6
CONTINUOUS
 62
     0
100
AcDbLine
 10
945.7670384561
 20
1017.778745834
 11
946.2143384561
 21
1017.778745834
  0
LINE
  5
5ED
100
AcDbEntity
  8
固定アングル
  6
CONTINUOUS
 62
     0
100
AcDbLine
 10
945.7670384561
 20
1005.778745834
 11
946.1670284561
 21
1005.778745834
  0
LINE
  5
5EE
100
AcDbEntity
  8
固定アングル
  6
CONTINUOUS
 62
     0
100
AcDbLine
 10
974.7670384561
 20
986.7787458342
 11
984.7670384561
 21
986.7787458342
  0
LINE
  5
5EF
100
AcDbEntity
  8
固定アングル
  6
CONTINUOUS
 62
     0
100
AcDbLine
 10
963.3359184561
 20
1017.778745834
 11
963.7670384561
 21
1017.778745834
  0
LINE
  5
5F0
100
AcDbEntity
  8
固定アングル
  6
CONTINUOUS
 62
     0
100
AcDbLine
 10
963.3838824259
 20
1005.778745834
 11
963.7670384561
 21
1005.778745834
  0
ARC
  5
5F1
100
AcDbEntity
  8
固定アングル
  6
CONTINUOUS
 62
     0
100
AcDbCircle
 10
963.7670384561
 20
1011.778745834
 40
6
100
AcDbArc
 50
-90
 51
90.00002
  0
LINE
  5
5F2
100
AcDbEntity
  8
固定アングル
  6
DASHED
 62
     0
100
AcDbLine
 10
984.7670403913
 20
1017.778745834
 11
980.7670653329
 21
1017.778745834
  0
LINE
  5
5F3
100
AcDbEntity
  8
固定アングル
  6
DASHED
 62
     0
100
AcDbLine
 10
984.767036521
 20
1005.778745834
 11
980.7670753329
 21
1005.778745834
  0
INSERT
  5
5F4
100
AcDbEntity
  8
固定アングル
100
AcDbBlockReference
  2
BK5
 10
0
 20
0
  0
LINE
  5
5F5
100
AcDbEntity
  8
固定アングル
  6
DASHED
 62
     0
100
AcDbLine
 10
934.7670384561
 20
1036.778745834
 11
974.7670384561
 21
1036.778745834
  0
LINE
  5
5F6
100
AcDbEntity
  8
固定アングル
  6
CONTINUOUS
 62
     0
100
AcDbLine
 10
974.7670384561
 20
1036.778745834
 11
984.7670384561
 21
1036.778745834
  0
LINE
  5
5F7
100
AcDbEntity
  8
ストリンガー
  6
CONTINUOUS
 62
     0
100
AcDbLine
 10
975
 20
1118.609123072
 11
975
 21
668.6091230715
  0
LINE
  5
5F8
100
AcDbEntity
  8
ストリンガー
  6
CONTINUOUS
 62
     0
100
AcDbLine
 10
925
 20
1118.609123072
 11
925
 21
668.6091230715
  0
LINE
  5
5F9
100
AcDbEntity
  8
ストリンガー
  6
CONTINUOUS
 62
     0
100
AcDbLine
 10
929
 20
1118.609123072
 11
929
 21
668.6091230715
  0
LINE
  5
5FA
100
AcDbEntity
  8
ストリンガー
  6
CONTINUOUS
 62
     0
100
AcDbLine
 10
925
 20
668.6091230715
 11
975
 21
668.6091230715
  0
LINE
  5
5FB
100
AcDbEntity
  8
ストリンガー
  6
DASHED
 62
     0
100
AcDbLine
 10
924.999995
 20
747.1091230715
 11
928.999995
 21
747.1091230715
  0
LINE
  5
5FC
100
AcDbEntity
  8
ストリンガー
  6
DASHED
 62
     0
100
AcDbLine
 10
924.999995
 20
740.1091230715
 11
928.999995
 21
740.1091230715
  0
LINE
  5
5FD
100
AcDbEntity
  8
ストリンガー
  6
DASHED
 62
     0
100
AcDbLine
 10
927.6666616667
 20
747.1091230715
 11
927.6666616667
 21
740.1091230715
  0
LINE
  5
5FE
100
AcDbEntity
  8
ストリンガー
  6
DASHED
 62
     0
100
AcDbLine
 10
926.3333283333
 20
747.1091230715
 11
926.3333283333
 21
740.1091230715
  0
LINE
  5
5FF
100
AcDbEntity
  8
ストリンガー
  6
DASHED
 62
     0
100
AcDbLine
 10
927.6666616667
 20
922.1091230715
 11
927.6666616667
 21
915.1091230715
  0
LINE
  5
600
100
AcDbEntity
  8
ストリンガー
  6
DASHED
 62
     0
100
AcDbLine
 10
926.3333283333
 20
922.1091230715
 11
926.3333283333
 21
915.1091230715
  0
LINE
  5
601
100
AcDbEntity
  8
ストリンガー
  6
DASHED
 62
     0
100
AcDbLine
 10
924.999995
 20
915.1091230715
 11
928.999995
 21
915.1091230715
  0
LINE
  5
602
100
AcDbEntity
  8
ストリンガー
  6
DASHED
 62
     0
100
AcDbLine
 10
924.999995
 20
922.1091230715
 11
928.999995
 21
922.1091230715
  0
LINE
  5
603
100
AcDbEntity
  8
ストリンガー
  6
DASHED
 62
     0
100
AcDbLine
 10
926.3333283333
 20
1097.109123072
 11
926.3333283333
 21
1090.109123072
  0
LINE
  5
604
100
AcDbEntity
  8
ストリンガー
  6
DASHED
 62
     0
100
AcDbLine
 10
927.6666616667
 20
1097.109123072
 11
927.6666616667
 21
1090.109123072
  0
LINE
  5
605
100
AcDbEntity
  8
ストリンガー
  6
DASHED
 62
     0
100
AcDbLine
 10
924.999995
 20
1090.109123072
 11
928.999995
 21
1090.109123072
  0
LINE
  5
606
100
AcDbEntity
  8
ストリンガー
  6
CONTINUOUS
 62
     0
100
AcDbLine
 10
925
 20
1118.609123072
 11
975
 21
1118.609123072
  0
LINE
  5
607
100
AcDbEntity
  8
ストリンガー
  6
DASHED
 62
     0
100
AcDbLine
 10
924.999995
 20
1097.109123072
 11
928.999995
 21
1097.109123072
  0
INSERT
  5
608
100
AcDbEntity
  8
パネル
100
AcDbBlockReference
  2
BK6
 10
0
 20
0
  0
INSERT
  5
609
100
AcDbEntity
  8
パネル
100
AcDbBlockReference
  2
BK7
 10
0
 20
0
  0
INSERT
  5
60A
100
AcDbEntity
  8
パネル
100
AcDbBlockReference
  2
BK8
 10
0
 20
0
  0
LINE
  5
60B
100
AcDbEntity
  8
鉄骨下地
  6
PHANTOM
 62
     0
100
AcDbLine
 10
1610.937209349
 20
871.9490584378
 11
1610.937209349
 21
673.6091230715
  0
LINE
  5
60C
100
AcDbEntity
  8
鉄骨下地
  6
PHANTOM
 62
     0
100
AcDbLine
 10
1510.937179349
 20
971.9490684378
 11
1510.937202463
 21
673.6091230715
  0
LINE
  5
60D
100
AcDbEntity
  8
鉄骨下地
  6
DASHED
 62
     0
100
AcDbLine
 10
1514.137189349
 20
971.9490684378
 11
1514.137212463
 21
673.6091230715
  0
LINE
  5
60E
100
AcDbEntity
  8
鉄骨下地
  6
DASHED
 62
     0
100
AcDbLine
 10
1607.737179349
 20
971.9490781899
 11
1607.737202463
 21
673.6091230715
  0
LINE
  5
60F
100
AcDbEntity
  8
鉄骨下地
  6
PHANTOM
 62
     0
100
AcDbLine
 10
1682.437187097
 20
850.9490584378
 11
1682.437187097
 21
742.9490584378
  0
LINE
  5
610
100
AcDbEntity
  8
鉄骨下地
  6
PHANTOM
 62
     0
100
AcDbLine
 10
1689.437187097
 20
850.9490584378
 11
1689.437187097
 21
742.9490584378
  0
LINE
  5
611
100
AcDbEntity
  8
鉄骨下地
  6
PHANTOM
 62
     0
100
AcDbLine
 10
1700.437187097
 20
731.9490584378
 11
1760.937187097
 21
731.9490584378
  0
LINE
  5
612
100
AcDbEntity
  8
鉄骨下地
  6
PHANTOM
 62
     0
100
AcDbLine
 10
1610.937187097
 20
721.9490584378
 11
1760.937187097
 21
721.9490584378
  0
LINE
  5
613
100
AcDbEntity
  8
鉄骨下地
  6
PHANTOM
 62
     0
100
AcDbLine
 10
1610.937187097
 20
731.9490584378
 11
1671.437187097
 21
731.9490584378
  0
ARC
  5
614
100
AcDbEntity
  8
鉄骨下地
  6
PHANTOM
 62
     0
100
AcDbCircle
 10
1700.437187097
 20
742.9490584378
 40
11
100
AcDbArc
 50
180
 51
270
  0
ARC
  5
615
100
AcDbEntity
  8
鉄骨下地
  6
PHANTOM
 62
     0
100
AcDbCircle
 10
1671.437187097
 20
742.9490584378
 40
11
100
AcDbArc
 50
-90
 51
0
  0
LINE
  5
616
100
AcDbEntity
  8
鉄骨下地
  6
PHANTOM
 62
     0
100
AcDbLine
 10
1760.937187097
 20
721.9490584378
 11
1760.937187097
 21
731.9490584378
  0
LINE
  5
617
100
AcDbEntity
  8
鉄骨下地
  6
CENTER
 62
     0
100
AcDbLine
 10
1570.93718516
 20
896.9490584378
 11
1600.93718516
 21
896.9490584378
  0
LINE
  5
618
100
AcDbEntity
  8
鉄骨下地
  6
PHANTOM
 62
     0
100
AcDbLine
 10
1510.937209349
 20
971.9490584378
 11
1610.937209349
 21
971.9490584378
  0
LINE
  5
619
100
AcDbEntity
  8
鉄骨下地
  6
PHANTOM
 62
     0
100
AcDbLine
 10
1560.937183223
 20
921.9490584378
 11
1788.066275663
 21
921.9490584378
  0
LINE
  5
61A
100
AcDbEntity
  8
鉄骨下地
  6
PHANTOM
 62
     0
100
AcDbLine
 10
1560.937187097
 20
871.9490584378
 11
1788.066275663
 21
871.9490584378
  0
LINE
  5
61B
100
AcDbEntity
  8
鉄骨下地
  6
PHANTOM
 62
     0
100
AcDbLine
 10
1560.937187097
 20
875.9490584378
 11
1788.066275663
 21
875.9490584378
  0
LINE
  5
61C
100
AcDbEntity
  8
鉄骨下地
  6
PHANTOM
 62
     0
100
AcDbLine
 10
1560.937183223
 20
921.9490584378
 11
1560.937187097
 21
871.9490584378
  0
LINE
  5
61D
100
AcDbEntity
  8
鉄骨下地
  6
CENTER
 62
     0
100
AcDbLine
 10
1585.937183998
 20
911.949056501
 11
1585.937186322
 21
881.949056501
  0
LINE
  5
61E
100
AcDbEntity
  8
鉄骨下地
  6
DASHED
 62
     0
100
AcDbLine
 10
1620.937179669
 20
968.7490784378
 11
1788.066275663
 21
968.7490784378
  0
LINE
  5
61F
100
AcDbEntity
  8
鉄骨下地
  6
PHANTOM
 62
     0
100
AcDbLine
 10
1620.937209349
 20
971.9490584378
 11
1788.066275663
 21
971.9490584378
  0
LINE
  5
620
100
AcDbEntity
  8
鉄骨下地
  6
PHANTOM
 62
     0
100
AcDbLine
 10
1700.437187097
 20
861.9490584378
 11
1760.937187097
 21
861.9490584378
  0
LINE
  5
621
100
AcDbEntity
  8
鉄骨下地
  6
DASHED
 62
     0
100
AcDbLine
 10
1620.937184349
 20
921.9490584378
 11
1620.937189349
 21
871.9490784378
  0
LINE
  5
622
100
AcDbEntity
  8
鉄骨下地
  6
DASHED
 62
     0
100
AcDbLine
 10
1610.937183223
 20
921.9490584378
 11
1610.937187097
 21
871.9490584378
  0
LINE
  5
623
100
AcDbEntity
  8
鉄骨下地
  6
CENTER
 62
     0
100
AcDbLine
 10
1655.937186849
 20
896.9490584378
 11
1685.937186849
 21
896.9490584378
  0
LINE
  5
624
100
AcDbEntity
  8
鉄骨下地
  6
PHANTOM
 62
     0
100
AcDbLine
 10
1610.937187097
 20
861.9490584378
 11
1671.437187097
 21
861.9490584378
  0
ARC
  5
625
100
AcDbEntity
  8
鉄骨下地
  6
PHANTOM
 62
     0
100
AcDbCircle
 10
1700.437187097
 20
850.9490584378
 40
11
100
AcDbArc
 50
90
 51
180
  0
ARC
  5
626
100
AcDbEntity
  8
鉄骨下地
  6
PHANTOM
 62
     0
100
AcDbCircle
 10
1671.437187097
 20
850.9490584378
 40
11
100
AcDbArc
 50
0
 51
90
  0
LINE
  5
627
100
AcDbEntity
  8
鉄骨下地
  6
CENTER
 62
     0
100
AcDbLine
 10
1670.937185349
 20
911.9490584378
 11
1670.937188349
 21
881.9490584378
  0
LINE
  5
628
100
AcDbEntity
  8
鉄骨下地
  6
PHANTOM
 62
     0
100
AcDbLine
 10
1620.937179349
 20
971.9490784378
 11
1620.937184349
 21
921.9490584378
  0
LINE
  5
629
100
AcDbEntity
  8
鉄骨下地
  6
PHANTOM
 62
     0
100
AcDbLine
 10
1610.937179349
 20
971.9490784378
 11
1610.937183223
 21
921.9490584378
  0
LINE
  5
62A
100
AcDbEntity
  8
鉄骨下地
  6
PHANTOM
 62
     0
100
AcDbLine
 10
1760.937187097
 20
871.9490584378
 11
1760.937187097
 21
861.9490584378
  0
LINE
  5
62B
100
AcDbEntity
  8
鉄骨下地
  6
PHANTOM
 62
     0
100
AcDbLine
 10
1038
 20
1041.109123072
 11
1074.5
 21
1041.109123072
  0
LINE
  5
62C
100
AcDbEntity
  8
鉄骨下地
  6
PHANTOM
 62
     0
100
AcDbLine
 10
1079.29999
 20
990.3091330715
 11
1065
 21
990.3091330715
  0
LINE
  5
62D
100
AcDbEntity
  8
鉄骨下地
  6
PHANTOM
 62
     0
100
AcDbLine
 10
1080
 20
987.1091230715
 11
1065
 21
987.1091230715
  0
LINE
  5
62E
100
AcDbEntity
  8
鉄骨下地
  6
PHANTOM
 62
     0
100
AcDbLine
 10
990.6999807854
 20
1033.909143072
 11
1079.29999
 21
1033.909143072
  0
LINE
  5
62F
100
AcDbEntity
  8
鉄骨下地
  6
PHANTOM
 62
     0
100
AcDbLine
 10
990.0000015708
 20
1037.109123072
 11
1080
 21
1037.109123072
  0
LINE
  5
630
100
AcDbEntity
  8
鉄骨下地
  6
PHANTOM
 62
     0
100
AcDbLine
 10
1038
 20
841.1091230715
 11
1074.5
 21
841.1091230715
  0
LINE
  5
631
100
AcDbEntity
  8
鉄骨下地
  6
PHANTOM
 62
     0
100
AcDbLine
 10
1079.29999
 20
790.3091330715
 11
1065
 21
790.3091330715
  0
LINE
  5
632
100
AcDbEntity
  8
鉄骨下地
  6
PHANTOM
 62
     0
100
AcDbLine
 10
1080
 20
787.1091230715
 11
1065
 21
787.1091230715
  0
LINE
  5
633
100
AcDbEntity
  8
鉄骨下地
  6
PHANTOM
 62
     0
100
AcDbLine
 10
990.6999807854
 20
833.9091430715
 11
1079.29999
 21
833.9091430715
  0
LINE
  5
634
100
AcDbEntity
  8
鉄骨下地
  6
PHANTOM
 62
     0
100
AcDbLine
 10
990.0000015708
 20
837.1091230715
 11
1080
 21
837.1091230715
  0
LINE
  5
635
100
AcDbEntity
  8
鉄骨下地
  6
PHANTOM
 62
     0
100
AcDbLine
 10
988.19998
 20
831.4091430715
 11
988.19998
 21
792.8091330715
  0
LINE
  5
636
100
AcDbEntity
  8
鉄骨下地
  6
PHANTOM
 62
     0
100
AcDbLine
 10
1005
 20
790.3091330715
 11
990.69998
 21
790.3091330715
  0
LINE
  5
637
100
AcDbEntity
  8
鉄骨下地
  6
PHANTOM
 62
     0
100
AcDbLine
 10
1005
 20
787.1091230715
 11
990
 21
787.1091230715
  0
ARC
  5
638
100
AcDbEntity
  8
鉄骨下地
  6
PHANTOM
 62
     0
100
AcDbCircle
 10
990.69998
 20
792.8091330715
 40
2.5
100
AcDbArc
 50
-179.99998
 51
-90
  0
ARC
  5
639
100
AcDbEntity
  8
鉄骨下地
  6
PHANTOM
 62
     0
100
AcDbCircle
 10
990
 20
792.1091230715
 40
5
100
AcDbArc
 50
-179.99998
 51
-90
  0
LINE
  5
63A
100
AcDbEntity
  8
鉄骨下地
  6
PHANTOM
 62
     0
100
AcDbLine
 10
1005
 20
790.3091330715
 11
1005
 21
787.1091230715
  0
LINE
  5
63B
100
AcDbEntity
  8
鉄骨下地
  6
PHANTOM
 62
     0
100
AcDbLine
 10
1065
 20
790.3091330715
 11
1065
 21
787.1091230715
  0
ARC
  5
63C
100
AcDbEntity
  8
鉄骨下地
  6
PHANTOM
 62
     0
100
AcDbCircle
 10
990.69998
 20
1031.409143072
 40
2.5
100
AcDbArc
 50
89.99998199997
 51
180.00002
  0
ARC
  5
63D
100
AcDbEntity
  8
鉄骨下地
  6
PHANTOM
 62
     0
100
AcDbCircle
 10
990
 20
1032.109123072
 40
5
100
AcDbArc
 50
89.99998200001
 51
180.00002
  0
ARC
  5
63E
100
AcDbEntity
  8
鉄骨下地
  6
PHANTOM
 62
     0
100
AcDbCircle
 10
990
 20
832.1091230715
 40
5
100
AcDbArc
 50
89.99998200001
 51
180.00002
  0
ARC
  5
63F
100
AcDbEntity
  8
鉄骨下地
  6
PHANTOM
 62
     0
100
AcDbCircle
 10
990.69998
 20
831.4091430715
 40
2.5
100
AcDbArc
 50
89.99998199997
 51
180.00002
  0
ARC
  5
640
100
AcDbEntity
  8
鉄骨下地
  6
PHANTOM
 62
     0
100
AcDbCircle
 10
1038
 20
838.1091230715
 40
3
100
AcDbArc
 50
89.99998199999
 51
179.99996
  0
LINE
  5
641
100
AcDbEntity
  8
鉄骨下地
  6
PHANTOM
 62
     0
100
AcDbLine
 10
1035
 20
837.1091230715
 11
1035
 21
838.1091230715
  0
LINE
  5
642
100
AcDbEntity
  8
鉄骨下地
  6
PHANTOM
 62
     0
100
AcDbLine
 10
1005
 20
990.3091330715
 11
990.69998
 21
990.3091330715
  0
LINE
  5
643
100
AcDbEntity
  8
鉄骨下地
  6
PHANTOM
 62
     0
100
AcDbLine
 10
1005
 20
987.1091230715
 11
990
 21
987.1091230715
  0
LINE
  5
644
100
AcDbEntity
  8
鉄骨下地
  6
PHANTOM
 62
     0
100
AcDbLine
 10
988.19998
 20
1031.409143072
 11
988.19998
 21
992.8091330715
  0
ARC
  5
645
100
AcDbEntity
  8
鉄骨下地
  6
PHANTOM
 62
     0
100
AcDbCircle
 10
990.69998
 20
992.8091330715
 40
2.5
100
AcDbArc
 50
-179.99998
 51
-90
  0
ARC
  5
646
100
AcDbEntity
  8
鉄骨下地
  6
PHANTOM
 62
     0
100
AcDbCircle
 10
990
 20
992.1091230715
 40
5
100
AcDbArc
 50
-179.99998
 51
-90
  0
LINE
  5
647
100
AcDbEntity
  8
鉄骨下地
  6
PHANTOM
 62
     0
100
AcDbLine
 10
1005
 20
990.3091330715
 11
1005
 21
987.1091230715
  0
LINE
  5
648
100
AcDbEntity
  8
鉄骨下地
  6
PHANTOM
 62
     0
100
AcDbLine
 10
1065
 20
990.3091330715
 11
1065
 21
987.1091230715
  0
ARC
  5
649
100
AcDbEntity
  8
鉄骨下地
  6
PHANTOM
 62
     0
100
AcDbCircle
 10
1038
 20
1038.109123072
 40
3
100
AcDbArc
 50
89.99998199999
 51
179.99996
  0
LINE
  5
64A
100
AcDbEntity
  8
鉄骨下地
  6
PHANTOM
 62
     0
100
AcDbLine
 10
1035
 20
1037.109123072
 11
1035
 21
1038.109123072
  0
LINE
  5
64B
100
AcDbEntity
  8
鉄骨下地
  6
PHANTOM
 62
     0
100
AcDbLine
 10
1081.79999
 20
831.4091430715
 11
1081.79999
 21
792.8091330715
  0
LINE
  5
64C
100
AcDbEntity
  8
鉄骨下地
  6
PHANTOM
 62
     0
100
AcDbLine
 10
1085
 20
1113.609123072
 11
1085
 21
673.6091230715
  0
ARC
  5
64D
100
AcDbEntity
  8
鉄骨下地
  6
PHANTOM
 62
     0
100
AcDbCircle
 10
1079.29999
 20
792.8091330715
 40
2.5
100
AcDbArc
 50
-90
 51
-1.999998116878E-005
  0
ARC
  5
64E
100
AcDbEntity
  8
鉄骨下地
  6
PHANTOM
 62
     0
100
AcDbCircle
 10
1080
 20
792.1091230715
 40
5
100
AcDbArc
 50
-90
 51
-1.999998116877E-005
  0
ARC
  5
64F
100
AcDbEntity
  8
鉄骨下地
  6
PHANTOM
 62
     0
100
AcDbCircle
 10
1079.29999
 20
1031.409143072
 40
2.5
100
AcDbArc
 50
-1.998630745022E-005
 51
90
  0
ARC
  5
650
100
AcDbEntity
  8
鉄骨下地
  6
PHANTOM
 62
     0
100
AcDbCircle
 10
1080
 20
1032.109123072
 40
5
100
AcDbArc
 50
-1.998630745022E-005
 51
90
  0
LINE
  5
651
100
AcDbEntity
  8
鉄骨下地
  6
PHANTOM
 62
     0
100
AcDbLine
 10
1081
 20
847.6091230715
 11
1081
 21
884.1091230715
  0
LINE
  5
652
100
AcDbEntity
  8
鉄骨下地
  6
PHANTOM
 62
     0
100
AcDbLine
 10
1081
 20
837.1091230715
 11
1085
 21
837.1091230715
  0
ARC
  5
653
100
AcDbEntity
  8
鉄骨下地
  6
PHANTOM
 62
     0
100
AcDbCircle
 10
1080
 20
832.1091230715
 40
5
100
AcDbArc
 50
-1.998630745022E-005
 51
90
  0
ARC
  5
654
100
AcDbEntity
  8
鉄骨下地
  6
PHANTOM
 62
     0
100
AcDbCircle
 10
1079.29999
 20
831.4091430715
 40
2.5
100
AcDbArc
 50
-1.998630745022E-005
 51
90
  0
ARC
  5
655
100
AcDbEntity
  8
鉄骨下地
  6
PHANTOM
 62
     0
100
AcDbCircle
 10
1074.5
 20
847.6091230715
 40
6.5
100
AcDbArc
 50
-90.00004
 51
1.799001509065E-005
  0
ARC
  5
656
100
AcDbEntity
  8
鉄骨下地
  6
PHANTOM
 62
     0
100
AcDbCircle
 10
1084
 20
884.1091230715
 40
3
100
AcDbArc
 50
89.99998199999
 51
179.99996
  0
LINE
  5
657
100
AcDbEntity
  8
鉄骨下地
  6
PHANTOM
 62
     0
100
AcDbLine
 10
1084
 20
887.1091230715
 11
1085
 21
887.1091230715
  0
LINE
  5
658
100
AcDbEntity
  8
鉄骨下地
  6
PHANTOM
 62
     0
100
AcDbLine
 10
1081.79999
 20
1031.409143072
 11
1081.79999
 21
992.8091330715
  0
ARC
  5
659
100
AcDbEntity
  8
鉄骨下地
  6
PHANTOM
 62
     0
100
AcDbCircle
 10
1079.29999
 20
992.8091330715
 40
2.5
100
AcDbArc
 50
-90
 51
-2.000002285694E-005
  0
ARC
  5
65A
100
AcDbEntity
  8
鉄骨下地
  6
PHANTOM
 62
     0
100
AcDbCircle
 10
1080
 20
992.1091230715
 40
5
100
AcDbArc
 50
-90
 51
-1.999998377428E-005
  0
LINE
  5
65B
100
AcDbEntity
  8
鉄骨下地
  6
PHANTOM
 62
     0
100
AcDbLine
 10
1081
 20
1047.609123072
 11
1081
 21
1084.109123072
  0
LINE
  5
65C
100
AcDbEntity
  8
鉄骨下地
  6
PHANTOM
 62
     0
100
AcDbLine
 10
1081
 20
1037.109123072
 11
1085
 21
1037.109123072
  0
ARC
  5
65D
100
AcDbEntity
  8
鉄骨下地
  6
PHANTOM
 62
     0
100
AcDbCircle
 10
1074.5
 20
1047.609123072
 40
6.5
100
AcDbArc
 50
-90.00004
 51
1.799001509065E-005
  0
LINE
  5
65E
100
AcDbEntity
  8
鉄骨下地
  6
PHANTOM
 62
     0
100
AcDbLine
 10
1084
 20
1087.109123072
 11
1085
 21
1087.109123072
  0
ARC
  5
65F
100
AcDbEntity
  8
鉄骨下地
  6
PHANTOM
 62
     0
100
AcDbCircle
 10
1084
 20
1084.109123072
 40
3
100
AcDbArc
 50
89.99998199999
 51
179.99996
  0
LINE
  5
660
100
AcDbEntity
  8
鉄骨下地
  6
CENTER
 62
     0
100
AcDbLine
 10
1055
 20
1060.439454715
 11
1055
 21
1014.492950095
  0
LINE
  5
661
100
AcDbEntity
  8
鉄骨下地
  6
CENTER
 62
     0
100
AcDbLine
 10
1055
 20
855.4394547153
 11
1055
 21
814.4929500948
  0
INSERT
  5
662
100
AcDbEntity
  8
ボルトナット
100
AcDbBlockReference
  2
BK9
 10
0
 20
0
  0
INSERT
  5
663
100
AcDbEntity
  8
ボルトナット
100
AcDbBlockReference
  2
BK10
 10
0
 20
0
  0
INSERT
  5
664
100
AcDbEntity
  8
ボルトナット
100
AcDbBlockReference
  2
BK11
 10
0
 20
0
  0
INSERT
  5
665
100
AcDbEntity
  8
ボルトナット
100
AcDbBlockReference
  2
BK12
 10
0
 20
0
  0
LINE
  5
666
100
AcDbEntity
  8
ボルトナット
  6
CONTINUOUS
 62
     0
100
AcDbLine
 10
946.49998
 20
817.0166030715
 11
955
 21
821.9240930715
  0
LINE
  5
667
100
AcDbEntity
  8
ボルトナット
  6
CONTINUOUS
 62
     0
100
AcDbLine
 10
946.49999
 20
807.2016230715
 11
954.99998
 21
802.2941530715
  0
CIRCLE
  5
668
100
AcDbEntity
  8
ボルトナット
  6
CONTINUOUS
 62
     0
100
AcDbCircle
 10
955
 20
812.1091230715
 40
10.5
  0
CIRCLE
  5
669
100
AcDbEntity
  8
ボルトナット
  6
CONTINUOUS
 62
     0
100
AcDbCircle
 10
955
 20
812.1091230715
 40
8.5
  0
LINE
  5
66A
100
AcDbEntity
  8
ボルトナット
  6
CONTINUOUS
 62
     0
100
AcDbLine
 10
946.5
 20
817.0166030715
 11
946.5
 21
807.2016430715
  0
LINE
  5
66B
100
AcDbEntity
  8
ボルトナット
  6
CONTINUOUS
 62
     0
100
AcDbLine
 10
955.00001
 20
821.9240830715
 11
963.5
 21
817.0166130715
  0
LINE
  5
66C
100
AcDbEntity
  8
ボルトナット
  6
CONTINUOUS
 62
     0
100
AcDbLine
 10
954.99999
 20
802.2941630715
 11
963.5
 21
807.2016530715
  0
LINE
  5
66D
100
AcDbEntity
  8
ボルトナット
  6
CONTINUOUS
 62
     0
100
AcDbLine
 10
963.5
 20
817.0166030715
 11
963.5
 21
807.2016430715
  0
LINE
  5
66E
100
AcDbEntity
  8
ボルトナット
  6
CONTINUOUS
 62
     0
100
AcDbLine
 10
946.2670184561
 20
1016.686225834
 11
954.7670384561
 21
1021.593715834
  0
LINE
  5
66F
100
AcDbEntity
  8
ボルトナット
  6
CONTINUOUS
 62
     0
100
AcDbLine
 10
946.2670284561
 20
1006.871245834
 11
954.7670184561
 21
1001.963775834
  0
CIRCLE
  5
670
100
AcDbEntity
  8
ボルトナット
  6
CONTINUOUS
 62
     0
100
AcDbCircle
 10
954.7670384561
 20
1011.778745834
 40
10.5
  0
CIRCLE
  5
671
100
AcDbEntity
  8
ボルトナット
  6
CONTINUOUS
 62
     0
100
AcDbCircle
 10
954.7670384561
 20
1011.778745834
 40
8.5
  0
LINE
  5
672
100
AcDbEntity
  8
ボルトナット
  6
CONTINUOUS
 62
     0
100
AcDbLine
 10
946.2670384561
 20
1016.686225834
 11
946.2670384561
 21
1006.871265834
  0
LINE
  5
673
100
AcDbEntity
  8
ボルトナット
  6
CONTINUOUS
 62
     0
100
AcDbLine
 10
954.7670284561
 20
1001.963785834
 11
963.2670384561
 21
1006.871275834
  0
LINE
  5
674
100
AcDbEntity
  8
ボルトナット
  6
CONTINUOUS
 62
     0
100
AcDbLine
 10
954.7670484561
 20
1021.593705834
 11
963.2670384561
 21
1016.686235834
  0
LINE
  5
675
100
AcDbEntity
  8
ボルトナット
  6
CONTINUOUS
 62
     0
100
AcDbLine
 10
963.2670384561
 20
1016.686225834
 11
963.2670384561
 21
1006.871265834
  0
INSERT
  5
676
100
AcDbEntity
  8
ボルトナット
100
AcDbBlockReference
  2
BK13
 10
0
 20
0
  0
INSERT
  5
677
100
AcDbEntity
  8
ボルトナット
100
AcDbBlockReference
  2
BK14
 10
0
 20
0
  0
INSERT
  5
678
100
AcDbEntity
  8
取付金具
100
AcDbBlockReference
  2
BK15
 10
0
 20
0
  0
INSERT
  5
679
100
AcDbEntity
  8
取付金具
100
AcDbBlockReference
  2
BK16
 10
0
 20
0
  0
INSERT
  5
67A
100
AcDbEntity
  8
取付金具
100
AcDbBlockReference
  2
BK17
 10
0
 20
0
  0
INSERT
  5
67B
100
AcDbEntity
  8
ボルトセット
100
AcDbBlockReference
  2
BK18
 10
0
 20
0
  0
INSERT
  5
67C
100
AcDbEntity
  8
ボルトセット
100
AcDbBlockReference
  2
BK19
 10
0
 20
0
  0
INSERT
  5
67D
100
AcDbEntity
  8
ボルトセット
100
AcDbBlockReference
  2
BK20
 10
0
 20
0
  0
INSERT
  5
67E
100
AcDbEntity
  8
ボルトセット
100
AcDbBlockReference
  2
BK21
 10
0
 20
0
  0
INSERT
  5
67F
100
AcDbEntity
  8
ボルトセット
100
AcDbBlockReference
  2
BK22
 10
0
 20
0
  0
INSERT
  5
680
100
AcDbEntity
  8
取付金具
100
AcDbBlockReference
  2
BK23
 10
0
 20
0
  0
INSERT
  5
681
100
AcDbEntity
  8
取付金具
100
AcDbBlockReference
  2
BK24
 10
0
 20
0
  0
LINE
  5
682
100
AcDbEntity
  8
寸法
  6
CONTINUOUS
 62
     0
100
AcDbLine
 10
1003.20001
 20
812.1091230715
 11
1029
 21
812.1091230715
  0
LINE
  5
683
100
AcDbEntity
  8
寸法
  6
CONTINUOUS
 62
     0
100
AcDbLine
 10
1011
 20
787.1091230715
 11
1029
 21
787.1091230715
  0
CIRCLE
  5
684
100
AcDbEntity
  8
寸法
  6
CONTINUOUS
 62
     0
100
AcDbCircle
 10
1023
 20
787.1091230715
 40
4.2
  0
CIRCLE
  5
685
100
AcDbEntity
  8
寸法
  6
CONTINUOUS
 62
     0
100
AcDbCircle
 10
1023
 20
812.1091230715
 40
4.2
  0
DIMENSION
  5
686
100
AcDbEntity
  8
寸法
100
AcDbDimension
  2
*D25
 10
1023
 20
812.1091230715
 11
1012.5
 21
799.6091230715
 70
    32
  3
M7DIMSTL
100
AcDbAlignedDimension
 13
1023
 23
787.1091230715
 14
1023
 24
812.1091230715
 50
90
100
AcDbRotatedDimension
  0
LINE
  5
687
100
AcDbEntity
  8
寸法
  6
CONTINUOUS
 62
     0
100
AcDbLine
 10
996.0000015708
 20
837.1091230715
 11
1029
 21
837.1091230715
  0
CIRCLE
  5
688
100
AcDbEntity
  8
寸法
  6
CONTINUOUS
 62
     0
100
AcDbCircle
 10
1023
 20
837.1091230715
 40
4.2
  0
DIMENSION
  5
689
100
AcDbEntity
  8
寸法
100
AcDbDimension
  2
*D26
 10
1023
 20
837.1091230715
 11
1012.5
 21
824.6091230715
 70
    32
  3
M7DIMSTL
100
AcDbAlignedDimension
 13
1023
 23
812.1091230715
 14
1023
 24
837.1091230715
 50
90
100
AcDbRotatedDimension
  0
LINE
  5
68A
100
AcDbEntity
  8
寸法
  6
CONTINUOUS
 62
     0
100
AcDbLine
 10
955
 20
826.9091130715
 11
955
 21
861.1091230715
  0
LINE
  5
68B
100
AcDbEntity
  8
寸法
  6
CONTINUOUS
 62
     0
100
AcDbLine
 10
935
 20
843.1091230715
 11
935
 21
861.1091230715
  0
CIRCLE
  5
68C
100
AcDbEntity
  8
寸法
  6
CONTINUOUS
 62
     0
100
AcDbCircle
 10
935
 20
855.1091230715
 40
4.2
  0
CIRCLE
  5
68D
100
AcDbEntity
  8
寸法
  6
CONTINUOUS
 62
     0
100
AcDbCircle
 10
955
 20
855.1091230715
 40
4.2
  0
DIMENSION
  5
68E
100
AcDbEntity
  8
寸法
100
AcDbDimension
  2
*D27
 10
955
 20
855.1091230715
 11
945
 21
865.6091230715
 70
    32
  3
M7DIMSTL
100
AcDbAlignedDimension
 13
935
 23
855.1091230715
 14
955
 24
855.1091230715
100
AcDbRotatedDimension
  0
LINE
  5
68F
100
AcDbEntity
  8
寸法
  6
CONTINUOUS
 62
     0
100
AcDbLine
 10
985
 20
843.1091230715
 11
985
 21
861.1091230715
  0
CIRCLE
  5
690
100
AcDbEntity
  8
寸法
  6
CONTINUOUS
 62
     0
100
AcDbCircle
 10
985
 20
855.1091230715
 40
4.2
  0
DIMENSION
  5
691
100
AcDbEntity
  8
寸法
100
AcDbDimension
  2
*D28
 10
985
 20
855.1091230715
 11
970
 21
865.6091230715
 70
    32
  3
M7DIMSTL
100
AcDbAlignedDimension
 13
955
 23
855.1091230715
 14
985
 24
855.1091230715
100
AcDbRotatedDimension
  0
LINE
  5
692
100
AcDbEntity
  8
寸法
  6
CONTINUOUS
 62
     0
100
AcDbLine
 10
985
 20
861.1091230715
 11
985
 21
879.1091230715
  0
LINE
  5
693
100
AcDbEntity
  8
寸法
  6
CONTINUOUS
 62
     0
100
AcDbLine
 10
975
 20
861.1091230715
 11
975
 21
879.1091230715
  0
CIRCLE
  5
694
100
AcDbEntity
  8
寸法
  6
CONTINUOUS
 62
     0
100
AcDbCircle
 10
975
 20
873.1091230715
 40
4.2
  0
CIRCLE
  5
695
100
AcDbEntity
  8
寸法
  6
CONTINUOUS
 62
     0
100
AcDbCircle
 10
985
 20
873.1091230715
 40
4.2
  0
DIMENSION
  5
696
100
AcDbEntity
  8
寸法
100
AcDbDimension
  2
*D29
 10
985
 20
873.1091230715
 11
980
 21
883.6091230715
 70
    32
  3
M7DIMSTL
100
AcDbAlignedDimension
 13
975
 23
873.1091230715
 14
985
 24
873.1091230715
100
AcDbRotatedDimension
  0
TEXT
  5
697
100
AcDbEntity
  8
部品名
  6
CONTINUOUS
 62
     0
100
AcDbText
 10
1710.293875127
 20
940.1424498931
 40
9
  1
SUS M10x25
  7
STANDARD
100
AcDbText
  0
TEXT
  5
698
100
AcDbEntity
  8
部品名
  6
CONTINUOUS
 62
     0
100
AcDbText
 10
1707.614913083
 20
1010.626732969
 40
9
  1
SUS M10x25
  7
STANDARD
100
AcDbText
  0
TEXT
  5
699
100
AcDbEntity
  8
部品名
  6
CONTINUOUS
 62
     0
100
AcDbText
 10
1729.704369203
 20
981.0911690634
 40
9
  1
KA5050A
  7
STANDARD
100
AcDbText
  0
TEXT
  5
69A
100
AcDbEntity
  8
部品名
  6
CONTINUOUS
 62
     0
100
AcDbText
 10
1501.11614958
 20
1021.34245672
 40
9
  1
パネル
  7
STANDARD
100
AcDbText
  0
TEXT
  5
69B
100
AcDbEntity
  8
部品名
  6
CONTINUOUS
 62
     0
100
AcDbText
 10
1711.043875127
 20
949.1424498931
 40
9
  1
ボルト・ナット
  7
STANDARD
100
AcDbText
  0
TEXT
  5
69C
100
AcDbEntity
  8
部品名
  6
CONTINUOUS
 62
     0
100
AcDbText
 10
1730.454369203
 20
990.0911690634
 40
9
  1
固定アングル
  7
STANDARD
100
AcDbText
  0
TEXT
  5
69D
100
AcDbEntity
  8
部品名
  6
CONTINUOUS
 62
     0
100
AcDbText
 10
1708.364919085
 20
1019.626726968
 40
9
  1
ボルト・ナット
  7
STANDARD
100
AcDbText
  0
TEXT
  5
69E
100
AcDbEntity
  8
部品名
  6
CONTINUOUS
 62
     0
100
AcDbText
 10
1548.563497237
 20
1003.200319096
 40
9
  1
ストリンガー
  7
STANDARD
100
AcDbText
  0
TEXT
  5
69F
100
AcDbEntity
  8
部品名
  6
CONTINUOUS
 62
     0
100
AcDbText
 10
1550.83189452
 20
985.4937368786
 40
9
  1
ボルトセット
  7
STANDARD
100
AcDbText
  0
POLYLINE
  5
6A0
100
AcDbEntity
  8
部品名
  6
CONTINUOUS
 62
     0
100
AcDb2dPolyline
 66
     1
 10
0
 20
0
 70
     0
  0
VERTEX
  5
6A1
100
AcDbEntity
  8
部品名
100
AcDbVertex
100
AcDb2dVertex
 10
1628.062234579
 20
1027.949056438
  0
VERTEX
  5
6A2
100
AcDbEntity
  8
部品名
100
AcDbVertex
100
AcDb2dVertex
 10
1603.313497237
 20
1003.200319096
  0
VERTEX
  5
6A3
100
AcDbEntity
  8
部品名
100
AcDbVertex
100
AcDb2dVertex
 10
1548.563497237
 20
1003.200319096
  0
SEQEND
  5
6A4
100
AcDbEntity
  8
部品名
  0
POLYLINE
  5
6A5
100
AcDbEntity
  8
部品名
  6
CONTINUOUS
 62
     0
100
AcDb2dPolyline
 66
     1
 10
0
 20
0
 70
     0
  0
VERTEX
  5
6A6
100
AcDbEntity
  8
部品名
100
AcDbVertex
100
AcDb2dVertex
 10
1689.937250555
 20
1001.949058438
  0
VERTEX
  5
6A7
100
AcDbEntity
  8
部品名
100
AcDbVertex
100
AcDb2dVertex
 10
1707.614919085
 20
1019.626726968
  0
VERTEX
  5
6A8
100
AcDbEntity
  8
部品名
100
AcDbVertex
100
AcDb2dVertex
 10
1771.364919085
 20
1019.626726968
  0
SEQEND
  5
6A9
100
AcDbEntity
  8
部品名
  0
POLYLINE
  5
6AA
100
AcDbEntity
  8
部品名
  6
CONTINUOUS
 62
     0
100
AcDb2dPolyline
 66
     1
 10
0
 20
0
 70
     0
  0
VERTEX
  5
6AB
100
AcDbEntity
  8
部品名
100
AcDbVertex
100
AcDb2dVertex
 10
1715.562228577
 20
975.9490284379
  0
VERTEX
  5
6AC
100
AcDbEntity
  8
部品名
100
AcDbVertex
100
AcDb2dVertex
 10
1729.704369203
 20
990.0911690634
  0
VERTEX
  5
6AD
100
AcDbEntity
  8
部品名
100
AcDbVertex
100
AcDb2dVertex
 10
1784.454369203
 20
990.0911690634
  0
SEQEND
  5
6AE
100
AcDbEntity
  8
部品名
  0
POLYLINE
  5
6AF
100
AcDbEntity
  8
部品名
  6
CONTINUOUS
 62
     0
100
AcDb2dPolyline
 66
     1
 10
0
 20
0
 70
     0
  0
VERTEX
  5
6B0
100
AcDbEntity
  8
部品名
100
AcDbVertex
100
AcDb2dVertex
 10
1699.687234579
 20
959.7490904416
  0
VERTEX
  5
6B1
100
AcDbEntity
  8
部品名
100
AcDbVertex
100
AcDb2dVertex
 10
1710.293875127
 20
949.1424498931
  0
VERTEX
  5
6B2
100
AcDbEntity
  8
部品名
100
AcDbVertex
100
AcDb2dVertex
 10
1774.043875127
 20
949.1424498931
  0
SEQEND
  5
6B3
100
AcDbEntity
  8
部品名
  0
TEXT
  5
6B4
100
AcDbEntity
  8
部品名
  6
CONTINUOUS
 62
     0
100
AcDbText
 10
1007.806651548
 20
992.5024835231
 40
9
  1
SUS M10x25
  7
STANDARD
100
AcDbText
  0
TEXT
  5
6B5
100
AcDbEntity
  8
部品名
  6
CONTINUOUS
 62
     0
100
AcDbText
 10
987.5342777541
 20
967.4636384938
 40
9
  1
SUS M10x25
  7
STANDARD
100
AcDbText
  0
TEXT
  5
6B6
100
AcDbEntity
  8
部品名
  6
CONTINUOUS
 62
     0
100
AcDbText
 10
985.2987372558
 20
1052.857858663
 40
9
  1
KA5050A
  7
STANDARD
100
AcDbText
  0
TEXT
  5
6B7
100
AcDbEntity
  8
部品名
  6
CONTINUOUS
 62
     0
100
AcDbText
 10
1008.556651548
 20
1001.502483523
 40
9
  1
ボルト・ナット
  7
STANDARD
100
AcDbText
  0
TEXT
  5
6B8
100
AcDbEntity
  8
部品名
  6
CONTINUOUS
 62
     0
100
AcDbText
 10
988.2842777541
 20
976.4636384938
 40
9
  1
ボルト・ナット
  7
STANDARD
100
AcDbText
  0
TEXT
  5
6B9
100
AcDbEntity
  8
部品名
  6
CONTINUOUS
 62
     0
100
AcDbText
 10
986.0487372558
 20
1061.857858663
 40
9
  1
固定アングル
  7
STANDARD
100
AcDbText
  0
TEXT
  5
6BA
100
AcDbEntity
  8
部品名
  6
CONTINUOUS
 62
     0
100
AcDbText
 10
986.3566215464
 20
1085.545782052
 40
9
  1
ストリンガー
  7
STANDARD
100
AcDbText
  0
TEXT
  5
6BB
100
AcDbEntity
  8
部品名
  6
CONTINUOUS
 62
     0
100
AcDbText
 10
991.3946609407
 20
951.7537840122
 40
9
  1
胴縁(別途)
  7
STANDARD
100
AcDbText
  0
POLYLINE
  5
6BC
100
AcDbEntity
  8
部品名
  6
CONTINUOUS
 62
     0
100
AcDb2dPolyline
 66
     1
 10
0
 20
0
 70
     0
  0
VERTEX
  5
6BD
100
AcDbEntity
  8
部品名
100
AcDbVertex
100
AcDb2dVertex
 10
1640.937234579
 20
1020.849076938
  0
VERTEX
  5
6BE
100
AcDbEntity
  8
部品名
100
AcDbVertex
100
AcDb2dVertex
 10
1605.58189452
 20
985.4937368786
  0
VERTEX
  5
6BF
100
AcDbEntity
  8
部品名
100
AcDbVertex
100
AcDb2dVertex
 10
1542.58189452
 20
985.4937368786
  0
SEQEND
  5
6C0
100
AcDbEntity
  8
部品名
  0
POLYLINE
  5
6C1
100
AcDbEntity
  8
部品名
  6
CONTINUOUS
 62
     0
100
AcDb2dPolyline
 66
     1
 10
0
 20
0
 70
     0
  0
VERTEX
  5
6C2
100
AcDbEntity
  8
部品名
100
AcDbVertex
100
AcDb2dVertex
 10
975.0000188286
 20
1074.939179334
  0
VERTEX
  5
6C3
100
AcDbEntity
  8
部品名
100
AcDbVertex
100
AcDb2dVertex
 10
985.6066215464
 20
1085.545782052
  0
VERTEX
  5
6C4
100
AcDbEntity
  8
部品名
100
AcDbVertex
100
AcDb2dVertex
 10
1040.356621546
 20
1085.545782052
  0
SEQEND
  5
6C5
100
AcDbEntity
  8
部品名
  0
POLYLINE
  5
6C6
100
AcDbEntity
  8
部品名
  6
CONTINUOUS
 62
     0
100
AcDb2dPolyline
 66
     1
 10
0
 20
0
 70
     0
  0
VERTEX
  5
6C7
100
AcDbEntity
  8
部品名
100
AcDbVertex
100
AcDb2dVertex
 10
960.5500026642
 20
1037.109124072
  0
VERTEX
  5
6C8
100
AcDbEntity
  8
部品名
100
AcDbVertex
100
AcDb2dVertex
 10
985.2987372558
 20
1061.857858663
  0
VERTEX
  5
6C9
100
AcDbEntity
  8
部品名
100
AcDbVertex
100
AcDb2dVertex
 10
1040.048737256
 20
1061.857858663
  0
SEQEND
  5
6CA
100
AcDbEntity
  8
部品名
  0
POLYLINE
  5
6CB
100
AcDbEntity
  8
部品名
  6
CONTINUOUS
 62
     0
100
AcDb2dPolyline
 66
     1
 10
0
 20
0
 70
     0
  0
VERTEX
  5
6CC
100
AcDbEntity
  8
部品名
100
AcDbVertex
100
AcDb2dVertex
 10
997.200011
 20
1012.109124072
  0
VERTEX
  5
6CD
100
AcDbEntity
  8
部品名
100
AcDbVertex
100
AcDb2dVertex
 10
1007.806651548
 20
1001.502483523
  0
VERTEX
  5
6CE
100
AcDbEntity
  8
部品名
100
AcDbVertex
100
AcDb2dVertex
 10
1071.556651548
 20
1001.502483523
  0
SEQEND
  5
6CF
100
AcDbEntity
  8
部品名
  0
POLYLINE
  5
6D0
100
AcDbEntity
  8
部品名
  6
CONTINUOUS
 62
     0
100
AcDb2dPolyline
 66
     1
 10
0
 20
0
 70
     0
  0
VERTEX
  5
6D1
100
AcDbEntity
  8
部品名
100
AcDbVertex
100
AcDb2dVertex
 10
959.2500055066
 20
1004.747910741
  0
VERTEX
  5
6D2
100
AcDbEntity
  8
部品名
100
AcDbVertex
100
AcDb2dVertex
 10
987.5342777541
 20
976.4636384938
  0
VERTEX
  5
6D3
100
AcDbEntity
  8
部品名
100
AcDbVertex
100
AcDb2dVertex
 10
1051.284277754
 20
976.4636384938
  0
SEQEND
  5
6D4
100
AcDbEntity
  8
部品名
  0
TEXT
  5
6D5
100
AcDbEntity
  8
部品名
  6
CONTINUOUS
 62
     0
100
AcDbText
 10
968.8197859281
 20
1125.428926725
 40
9
  1
ボルトセット
  7
STANDARD
100
AcDbText
  0
TEXT
  5
6D6
100
AcDbEntity
  8
部品名
  6
CONTINUOUS
 62
     0
100
AcDbText
 10
964.9264049839
 20
1147.53552383
 40
9
  1
取付金具
  7
STANDARD
100
AcDbText
  0
TEXT
  5
6D7
100
AcDbEntity
  8
部品名
  6
CONTINUOUS
 62
     0
100
AcDbText
 10
975.2790754009
 20
1168.713199472
 40
9
  1
パネル
  7
STANDARD
100
AcDbText
  0
POLYLINE
  5
6D8
100
AcDbEntity
  8
部品名
  6
CONTINUOUS
 62
     0
100
AcDb2dPolyline
 66
     1
 10
0
 20
0
 70
     0
  0
VERTEX
  5
6D9
100
AcDbEntity
  8
部品名
100
AcDbVertex
100
AcDb2dVertex
 10
1072.5
 20
987.1091230715
  0
VERTEX
  5
6DA
100
AcDbEntity
  8
部品名
100
AcDbVertex
100
AcDb2dVertex
 10
1037.144660941
 20
951.7537840122
  0
VERTEX
  5
6DB
100
AcDbEntity
  8
部品名
100
AcDbVertex
100
AcDb2dVertex
 10
991.3946609407
 20
951.7537840122
  0
SEQEND
  5
6DC
100
AcDbEntity
  8
部品名
  0
POLYLINE
  5
6DD
100
AcDbEntity
  8
部品名
  6
CONTINUOUS
 62
     0
100
AcDb2dPolyline
 66
     1
 10
0
 20
0
 70
     0
  0
VERTEX
  5
6DE
100
AcDbEntity
  8
部品名
100
AcDbVertex
100
AcDb2dVertex
 10
921.5999996126
 20
1105.109118459
  0
VERTEX
  5
6DF
100
AcDbEntity
  8
部品名
100
AcDbVertex
100
AcDb2dVertex
 10
964.0264049839
 20
1147.53552383
  0
VERTEX
  5
6E0
100
AcDbEntity
  8
部品名
100
AcDbVertex
100
AcDb2dVertex
 10
1000.926404984
 20
1147.53552383
  0
SEQEND
  5
6E1
100
AcDbEntity
  8
部品名
  0
TEXT
  5
6E2
100
AcDbEntity
  8
部品名
  6
CONTINUOUS
 62
     0
100
AcDbText
 10
1565.045073725
 20
1021.606922814
 40
9
  1
取付金具
  7
STANDARD
100
AcDbText
  0
POLYLINE
  5
6E3
100
AcDbEntity
  8
部品名
  6
CONTINUOUS
 62
     0
100
AcDb2dPolyline
 66
     1
 10
0
 20
0
 70
     0
  0
VERTEX
  5
6E4
100
AcDbEntity
  8
部品名
100
AcDbVertex
100
AcDb2dVertex
 10
936.0999822746
 20
1093.609123072
  0
VERTEX
  5
6E5
100
AcDbEntity
  8
部品名
100
AcDbVertex
100
AcDb2dVertex
 10
967.9197859281
 20
1125.428926725
  0
VERTEX
  5
6E6
100
AcDbEntity
  8
部品名
100
AcDbVertex
100
AcDb2dVertex
 10
1030.919785928
 20
1125.428926725
  0
SEQEND
  5
6E7
100
AcDbEntity
  8
部品名
  0
POLYLINE
  5
6E8
100
AcDbEntity
  8
部品名
  6
CONTINUOUS
 62
     0
100
AcDb2dPolyline
 66
     1
 10
0
 20
0
 70
     0
  0
VERTEX
  5
6E9
100
AcDbEntity
  8
部品名
100
AcDbVertex
100
AcDb2dVertex
 10
1615.937209349
 20
1035.749058438
  0
VERTEX
  5
6EA
100
AcDbEntity
  8
部品名
100
AcDbVertex
100
AcDb2dVertex
 10
1601.795073725
 20
1021.606922814
  0
VERTEX
  5
6EB
100
AcDbEntity
  8
部品名
100
AcDbVertex
100
AcDb2dVertex
 10
1565.045073725
 20
1021.606922814
  0
SEQEND
  5
6EC
100
AcDbEntity
  8
部品名
  0
TEXT
  5
6ED
100
AcDbEntity
  8
部品名
  6
CONTINUOUS
 62
     0
100
AcDbText
 10
1492.86614958
 20
1012.34245672
 40
9
  1
PGF10060
  7
STANDARD
100
AcDbText
  0
TEXT
  5
6EE
100
AcDbEntity
  8
部品名
  6
CONTINUOUS
 62
     0
100
AcDbText
 10
974.3790754009
 20
1159.713199472
 40
9
  1
PGF10060
  7
STANDARD
100
AcDbText
  0
POLYLINE
  5
6EF
100
AcDbEntity
  8
部品名
  6
CONTINUOUS
 62
     0
100
AcDb2dPolyline
 66
     1
 10
0
 20
0
 70
     0
  0
VERTEX
  5
6F0
100
AcDbEntity
  8
部品名
100
AcDbVertex
100
AcDb2dVertex
 10
1539.472750298
 20
1031.949057438
  0
VERTEX
  5
6F1
100
AcDbEntity
  8
部品名
100
AcDbVertex
100
AcDb2dVertex
 10
1528.86614958
 20
1021.34245672
  0
VERTEX
  5
6F2
100
AcDbEntity
  8
部品名
100
AcDbVertex
100
AcDb2dVertex
 10
1492.86614958
 20
1021.34245672
  0
SEQEND
  5
6F3
100
AcDbEntity
  8
部品名
  0
POLYLINE
  5
6F4
100
AcDbEntity
  8
部品名
  6
CONTINUOUS
 62
     0
100
AcDb2dPolyline
 66
     1
 10
0
 20
0
 70
     0
  0
VERTEX
  5
6F5
100
AcDbEntity
  8
部品名
100
AcDbVertex
100
AcDb2dVertex
 10
914.274999
 20
1108.609123072
  0
VERTEX
  5
6F6
100
AcDbEntity
  8
部品名
100
AcDbVertex
100
AcDb2dVertex
 10
974.3790754009
 20
1168.713199472
  0
VERTEX
  5
6F7
100
AcDbEntity
  8
部品名
100
AcDbVertex
100
AcDb2dVertex
 10
1010.379075401
 20
1168.713199472
  0
SEQEND
  5
6F8
100
AcDbEntity
  8
部品名
  0
LINE
  5
6F9
100
AcDbEntity
  8
寸法
  6
CONTINUOUS
 62
     0
100
AcDbLine
 10
1516.937266953
 20
811.9490484379
 11
1552.937233223
 21
811.9490484379
  0
LINE
  5
6FA
100
AcDbEntity
  8
寸法
  6
CONTINUOUS
 62
     0
100
AcDbLine
 10
1516.937233223
 20
761.9490286378
 11
1552.937233223
 21
761.9490286378
  0
CIRCLE
  5
6FB
100
AcDbEntity
  8
寸法
  6
CONTINUOUS
 62
     0
100
AcDbCircle
 10
1546.937233223
 20
761.9490286378
 40
4.2
  0
CIRCLE
  5
6FC
100
AcDbEntity
  8
寸法
  6
CONTINUOUS
 62
     0
100
AcDbCircle
 10
1546.937233223
 20
811.9490484379
 40
4.2
  0
DIMENSION
  5
6FD
100
AcDbEntity
  8
寸法
100
AcDbDimension
  2
*D30
 10
1546.937233223
 20
811.9490484379
 11
1536.437233223
 21
786.9490385379
 70
    32
  3
M7DIMSTL
100
AcDbAlignedDimension
 13
1546.937233223
 23
761.9490286378
 14
1546.937233223
 24
811.9490484379
 50
90
100
AcDbRotatedDimension
  0
LINE
  5
6FE
100
AcDbEntity
  8
寸法
  6
CONTINUOUS
 62
     0
100
AcDbLine
 10
1460.937226131
 20
861.9490184379
 11
1552.937233223
 21
861.9490184379
  0
CIRCLE
  5
6FF
100
AcDbEntity
  8
寸法
  6
CONTINUOUS
 62
     0
100
AcDbCircle
 10
1546.937233223
 20
861.9490184379
 40
4.2
  0
DIMENSION
  5
700
100
AcDbEntity
  8
寸法
100
AcDbDimension
  2
*D31
 10
1546.937233223
 20
861.9490184379
 11
1536.437233223
 21
836.9490334379
 70
    32
  3
M7DIMSTL
100
AcDbAlignedDimension
 13
1546.937233223
 23
811.9490484379
 14
1546.937233223
 24
861.9490184379
 50
90
100
AcDbRotatedDimension
  0
LINE
  5
701
100
AcDbEntity
  8
寸法
  6
CONTINUOUS
 62
     0
100
AcDbLine
 10
1500.937266953
 20
821.9490492598
 11
1500.937266953
 21
903.9490184379
  0
LINE
  5
702
100
AcDbEntity
  8
寸法
  6
CONTINUOUS
 62
     0
100
AcDbLine
 10
1450.937226953
 20
867.9490184379
 11
1450.937226953
 21
903.9490184379
  0
CIRCLE
  5
703
100
AcDbEntity
  8
寸法
  6
CONTINUOUS
 62
     0
100
AcDbCircle
 10
1450.937226953
 20
897.9490184379
 40
4.2
  0
CIRCLE
  5
704
100
AcDbEntity
  8
寸法
  6
CONTINUOUS
 62
     0
100
AcDbCircle
 10
1500.937266953
 20
897.9490184379
 40
4.2
  0
DIMENSION
  5
705
100
AcDbEntity
  8
寸法
100
AcDbDimension
  2
*D32
 10
1500.937266953
 20
897.9490184379
 11
1475.937246953
 21
908.4490184379
 70
    32
  3
M7DIMSTL
100
AcDbAlignedDimension
 13
1450.937226953
 23
897.9490184379
 14
1500.937266953
 24
897.9490184379
100
AcDbRotatedDimension
  0
LINE
  5
706
100
AcDbEntity
  8
寸法
  6
CONTINUOUS
 62
     0
100
AcDbLine
 10
1460.937236953
 20
801.9490376159
 11
1460.937236953
 21
719.9490286378
  0
LINE
  5
707
100
AcDbEntity
  8
寸法
  6
CONTINUOUS
 62
     0
100
AcDbLine
 10
1510.937233223
 20
755.9490286378
 11
1510.937233223
 21
719.9490286378
  0
CIRCLE
  5
708
100
AcDbEntity
  8
寸法
  6
CONTINUOUS
 62
     0
100
AcDbCircle
 10
1510.937233223
 20
725.9490286378
 40
4.2
  0
CIRCLE
  5
709
100
AcDbEntity
  8
寸法
  6
CONTINUOUS
 62
     0
100
AcDbCircle
 10
1460.937236953
 20
725.9490286378
 40
4.2
  0
DIMENSION
  5
70A
100
AcDbEntity
  8
寸法
100
AcDbDimension
  2
*D33
 10
1460.937236953
 20
725.9490286378
 11
1485.937235088
 21
736.4490286378
 70
    32
  3
M7DIMSTL
100
AcDbAlignedDimension
 13
1510.937233223
 23
725.9490286378
 14
1460.937236953
 24
725.9490286378
 50
180
100
AcDbRotatedDimension
  0
CIRCLE
  5
70B
100
AcDbEntity
  8
寸法
  6
CONTINUOUS
 62
     0
100
AcDbCircle
 10
782.309076728
 20
1093.609123072
 40
4.2
  0
LINE
  5
70C
100
AcDbEntity
  8
寸法
  6
CONTINUOUS
 62
     0
100
AcDbLine
 10
773.309076728
 20
1093.609123072
 11
823.3762174561
 21
1093.609123072
  0
CIRCLE
  5
70D
100
AcDbEntity
  8
寸法
  6
CONTINUOUS
 62
     0
100
AcDbCircle
 10
787.0143418569
 20
667.1091230715
 40
4.2
  0
LINE
  5
70E
100
AcDbEntity
  8
寸法
  6
CONTINUOUS
 62
     0
100
AcDbLine
 10
778.0143418569
 20
667.1091230715
 11
828.0814825851
 21
667.1091230715
  0
CIRCLE
  5
70F
100
AcDbEntity
  8
寸法
  6
CONTINUOUS
 62
     0
100
AcDbCircle
 10
787.0143418569
 20
767.1091230715
 40
4.2
  0
LINE
  5
710
100
AcDbEntity
  8
寸法
  6
CONTINUOUS
 62
     0
100
AcDbLine
 10
778.0143418569
 20
767.1091230715
 11
828.0814825851
 21
767.1091230715
  0
DIMENSION
  5
711
100
AcDbEntity
  8
寸法
100
AcDbDimension
  2
*D34
 10
787.0143418569
 20
667.1091230715
 11
773.5143418569
 21
717.1091230715
 70
    32
  3
M7DIMSTL
100
AcDbAlignedDimension
 13
787.0143418569
 23
767.1091230715
 14
787.0143418569
 24
667.1091230715
 50
-90
100
AcDbRotatedDimension
  0
LINE
  5
712
100
AcDbEntity
  8
寸法
  6
CONTINUOUS
 62
     0
100
AcDbLine
 10
1013.100005
 20
812.1091230715
 11
1131.483850665
 21
812.1091230715
  0
CIRCLE
  5
713
100
AcDbEntity
  8
寸法
  6
CONTINUOUS
 62
     0
100
AcDbCircle
 10
1125.483850665
 20
812.1091230715
 40
4.2
  0
LINE
  5
714
100
AcDbEntity
  8
寸法
  6
CONTINUOUS
 62
     0
100
AcDbLine
 10
1125.483850665
 20
1011.778745834
 11
1125.483850665
 21
812.1091230715
  0
CIRCLE
  5
715
100
AcDbEntity
  8
寸法
  6
CONTINUOUS
 62
     0
100
AcDbCircle
 10
1125.483850665
 20
1011.778745834
 40
4.2
  0
LINE
  5
716
100
AcDbEntity
  8
寸法
  6
CONTINUOUS
 62
     0
100
AcDbLine
 10
1013.100005
 20
1011.778745834
 11
1131.483850665
 21
1011.778745834
  0
POLYLINE
  5
717
100
AcDbEntity
  8
寸法
  6
CONTINUOUS
 62
     0
100
AcDb2dPolyline
 66
     1
 10
0
 20
0
 70
     0
  0
VERTEX
  5
718
100
AcDbEntity
  8
寸法
100
AcDbVertex
100
AcDb2dVertex
 10
1127.456638513
 20
1106.772395986
  0
VERTEX
  5
719
100
AcDbEntity
  8
寸法
100
AcDbVertex
100
AcDb2dVertex
 10
1125.483850665
 20
1118.609123072
  0
VERTEX
  5
71A
100
AcDbEntity
  8
寸法
100
AcDbVertex
100
AcDb2dVertex
 10
1123.511062818
 20
1106.772395986
  0
SEQEND
  5
71B
100
AcDbEntity
  8
寸法
  0
LINE
  5
71C
100
AcDbEntity
  8
寸法
  6
CONTINUOUS
 62
     0
100
AcDbLine
 10
1125.483850665
 20
1011.778745834
 11
1125.483850665
 21
1118.609123072
  0
LINE
  5
71D
100
AcDbEntity
  8
寸法
  6
CONTINUOUS
 62
     0
100
AcDbLine
 10
1125.483850665
 20
812.1091230715
 11
1125.483850665
 21
668.6091230715
  0
POLYLINE
  5
71E
100
AcDbEntity
  8
寸法
  6
CONTINUOUS
 62
     0
100
AcDb2dPolyline
 66
     1
 10
0
 20
0
 70
     0
  0
VERTEX
  5
71F
100
AcDbEntity
  8
寸法
100
AcDbVertex
100
AcDb2dVertex
 10
1123.511062818
 20
680.4458501575
  0
VERTEX
  5
720
100
AcDbEntity
  8
寸法
100
AcDbVertex
100
AcDb2dVertex
 10
1125.483850665
 20
668.6091230715
  0
VERTEX
  5
721
100
AcDbEntity
  8
寸法
100
AcDbVertex
100
AcDb2dVertex
 10
1127.456638513
 20
680.4458501575
  0
SEQEND
  5
722
100
AcDbEntity
  8
寸法
  0
TEXT
  5
723
100
AcDbEntity
  8
寸法
  6
CONTINUOUS
 62
     0
100
AcDbText
 10
1125.483850665
 20
708.8591230715
 40
9
  1
はね出しピッチ
 50
90
  7
STANDARD
100
AcDbText
  0
TEXT
  5
724
100
AcDbEntity
  8
寸法
  6
CONTINUOUS
 62
     0
100
AcDbText
 10
1125.483850665
 20
871.4439344529
 40
9
  1
固定アングルピッチ
 50
90
  7
STANDARD
100
AcDbText
  0
TEXT
  5
725
100
AcDbEntity
  8
寸法
  6
CONTINUOUS
 62
     0
100
AcDbText
 10
1125.483850665
 20
1033.693934453
 40
9
  1
はね出しピッチ
 50
90
  7
STANDARD
100
AcDbText
  0
LINE
  5
726
100
AcDbEntity
  8
寸法
  6
CONTINUOUS
 62
     0
100
AcDbLine
 10
1398.008238138
 20
1097.949058438
 11
1398.008238138
 21
1133.949058438
  0
LINE
  5
727
100
AcDbEntity
  8
寸法
  6
CONTINUOUS
 62
     0
100
AcDbLine
 10
1385.937170326
 20
1084.877990626
 11
1354.937170326
 21
1084.877990626
  0
LINE
  5
728
100
AcDbEntity
  8
寸法
  6
CONTINUOUS
 62
     0
100
AcDbLine
 10
1394.472689669
 20
1095.484577781
 11
1372.552289158
 21
1117.404797714
  0
LINE
  5
729
100
AcDbEntity
  8
寸法
  6
CONTINUOUS
 62
     0
100
AcDbLine
 10
1387.401650977
 20
1088.413480849
 11
1365.481250472
 21
1110.333700776
  0
CIRCLE
  5
72A
100
AcDbEntity
  8
寸法
  6
CONTINUOUS
 62
     0
100
AcDbCircle
 10
1369.723908634
 20
1106.091077565
 40
4.2
  0
CIRCLE
  5
72B
100
AcDbEntity
  8
寸法
  6
CONTINUOUS
 62
     0
100
AcDbCircle
 10
1376.79494732
 20
1113.162174502
 40
4.2
  0
DIMENSION
  5
72C
100
AcDbEntity
  8
寸法
100
AcDbDimension
  2
*D35
 10
1376.79494732
 20
1113.162174502
 11
1365.834776193
 21
1117.051216654
 70
    32
  3
M7DIMSTL
100
AcDbAlignedDimension
 13
1369.723908634
 23
1106.091077565
 14
1376.79494732
 24
1113.162174502
 50
45.000236
100
AcDbRotatedDimension
  0
CIRCLE
  5
72D
100
AcDbEntity
  8
寸法
  6
CONTINUOUS
 62
     0
100
AcDbCircle
 10
1398.008238138
 20
1127.949058438
 40
4.2
  0
CIRCLE
  5
72E
100
AcDbEntity
  8
寸法
  6
CONTINUOUS
 62
     0
100
AcDbCircle
 10
1354.9371706
 20
1084.877990352
 40
4.2
  0
LINE
  5
72F
100
AcDbEntity
  8
寸法
  6
CONTINUOUS
 62
     0
100
AcDbLine
 10
1354.9371706
 20
1084.877990352
 11
1354.9371706
 21
891.9490684378
  0
CIRCLE
  5
730
100
AcDbEntity
  8
寸法
  6
CONTINUOUS
 62
     0
100
AcDbCircle
 10
1354.9371706
 20
891.9490684378
 40
4.2
  0
LINE
  5
731
100
AcDbEntity
  8
寸法
  6
CONTINUOUS
 62
     0
100
AcDbLine
 10
1398.000828926
 20
891.9490684378
 11
1348.9371706
 21
891.9490684378
  0
LINE
  5
732
100
AcDbEntity
  8
寸法
  6
CONTINUOUS
 62
     0
100
AcDbLine
 10
1398.008238138
 20
1127.949058438
 11
1575.937176912
 21
1127.949058438
  0
CIRCLE
  5
733
100
AcDbEntity
  8
寸法
  6
CONTINUOUS
 62
     0
100
AcDbCircle
 10
1575.937176912
 20
1127.949058438
 40
4.2
  0
LINE
  5
734
100
AcDbEntity
  8
寸法
  6
CONTINUOUS
 62
     0
100
AcDbLine
 10
1575.937176912
 20
1086.408191659
 11
1575.937176912
 21
1133.949058438
  0
TEXT
  5
735
100
AcDbEntity
  8
寸法
  6
CONTINUOUS
 62
     0
100
AcDbText
 10
1434.972714425
 20
1127.949058438
 40
9
  1
パネルはね出しピッチ
  7
STANDARD
100
AcDbText
  0
TEXT
  5
736
100
AcDbEntity
  8
寸法
  6
CONTINUOUS
 62
     0
100
AcDbText
 10
1354.9371706
 20
943.413529395
 40
9
  1
パネルはね出しピッチ
 50
90
  7
STANDARD
100
AcDbText
  0
CIRCLE
  5
737
100
AcDbEntity
  8
寸法
  6
CONTINUOUS
 62
     0
100
AcDbCircle
 10
865
 20
562.7531434449
 40
4.2
  0
CIRCLE
  5
738
100
AcDbEntity
  8
寸法
  6
CONTINUOUS
 62
     0
100
AcDbCircle
 10
925
 20
562.7531434449
 40
4.2
  0
LINE
  5
739
100
AcDbEntity
  8
寸法
  6
CONTINUOUS
 62
     0
100
AcDbLine
 10
865
 20
553.7531434449
 11
865
 21
609.8455100937
  0
LINE
  5
73A
100
AcDbEntity
  8
寸法
  6
CONTINUOUS
 62
     0
100
AcDbLine
 10
925
 20
553.7531434449
 11
925
 21
609.8455100937
  0
DIMENSION
  5
73B
100
AcDbEntity
  8
寸法
100
AcDbDimension
  2
*D36
 10
925
 20
562.7531434449
 11
895
 21
576.2531434449
 70
    32
  3
M7DIMSTL
100
AcDbAlignedDimension
 13
865
 23
562.7531434449
 14
925
 24
562.7531434449
100
AcDbRotatedDimension
  0
CIRCLE
  5
73C
100
AcDbEntity
  8
寸法
  6
CONTINUOUS
 62
     0
100
AcDbCircle
 10
975
 20
562.7531434449
 40
4.2
  0
LINE
  5
73D
100
AcDbEntity
  8
寸法
  6
CONTINUOUS
 62
     0
100
AcDbLine
 10
975
 20
553.7531434449
 11
975
 21
609.8455100937
  0
DIMENSION
  5
73E
100
AcDbEntity
  8
寸法
100
AcDbDimension
  2
*D37
 10
975
 20
562.7531434449
 11
950
 21
576.2531434449
 70
    32
  3
M7DIMSTL
100
AcDbAlignedDimension
 13
925
 23
562.7531434449
 14
975
 24
562.7531434449
100
AcDbRotatedDimension
  0
CIRCLE
  5
73F
100
AcDbEntity
  8
寸法
  6
CONTINUOUS
 62
     0
100
AcDbCircle
 10
985
 20
562.7531434449
 40
4.2
  0
LINE
  5
740
100
AcDbEntity
  8
寸法
  6
CONTINUOUS
 62
     0
100
AcDbLine
 10
985
 20
553.7531434449
 11
985
 21
609.8455100937
  0
DIMENSION
  5
741
100
AcDbEntity
  8
寸法
100
AcDbDimension
  2
*D38
 10
985
 20
562.7531434449
 11
980
 21
576.2531434449
 70
    32
  3
M7DIMSTL
100
AcDbAlignedDimension
 13
975
 23
562.7531434449
 14
985
 24
562.7531434449
100
AcDbRotatedDimension
  0
CIRCLE
  5
742
100
AcDbEntity
  8
寸法
  6
CONTINUOUS
 62
     0
100
AcDbCircle
 10
1085
 20
562.7531434449
 40
4.2
  0
LINE
  5
743
100
AcDbEntity
  8
寸法
  6
CONTINUOUS
 62
     0
100
AcDbLine
 10
1085
 20
553.7531434449
 11
1085
 21
609.8455100937
  0
DIMENSION
  5
744
100
AcDbEntity
  8
寸法
100
AcDbDimension
  2
*D39
 10
1085
 20
562.7531434449
 11
1035
 21
576.2531434449
 70
    32
  3
M7DIMSTL
100
AcDbAlignedDimension
 13
985
 23
562.7531434449
 14
1085
 24
562.7531434449
100
AcDbRotatedDimension
  0
POLYLINE
  5
745
100
AcDbEntity
  8
寸法
  6
CONTINUOUS
 62
     0
100
AcDb2dPolyline
 66
     1
 10
0
 20
0
 70
     0
  0
VERTEX
  5
746
100
AcDbEntity
  8
寸法
100
AcDbVertex
100
AcDb2dVertex
 10
1352.964382752
 20
685.4458501575
  0
VERTEX
  5
747
100
AcDbEntity
  8
寸法
100
AcDbVertex
100
AcDb2dVertex
 10
1354.9371706
 20
673.6091230715
  0
VERTEX
  5
748
100
AcDbEntity
  8
寸法
100
AcDbVertex
100
AcDb2dVertex
 10
1356.909958448
 20
685.4458501575
  0
SEQEND
  5
749
100
AcDbEntity
  8
寸法
  0
LINE
  5
74A
100
AcDbEntity
  8
寸法
  6
CONTINUOUS
 62
     0
100
AcDbLine
 10
1354.9371706
 20
891.9490684378
 11
1354.9371706
 21
673.6091230715
  0
POLYLINE
  5
74B
100
AcDbEntity
  8
寸法
  6
CONTINUOUS
 62
     0
100
AcDb2dPolyline
 66
     1
 10
0
 20
0
 70
     0
  0
VERTEX
  5
74C
100
AcDbEntity
  8
寸法
100
AcDbVertex
100
AcDb2dVertex
 10
1776.229548577
 20
1125.97627059
  0
VERTEX
  5
74D
100
AcDbEntity
  8
寸法
100
AcDbVertex
100
AcDb2dVertex
 10
1788.066275663
 20
1127.949058438
  0
VERTEX
  5
74E
100
AcDbEntity
  8
寸法
100
AcDbVertex
100
AcDb2dVertex
 10
1776.229548577
 20
1129.921846286
  0
SEQEND
  5
74F
100
AcDbEntity
  8
寸法
  0
LINE
  5
750
100
AcDbEntity
  8
寸法
  6
CONTINUOUS
 62
     0
100
AcDbLine
 10
1575.937176912
 20
1127.949058438
 11
1788.066275663
 21
1127.949058438
  0
TEXT
  5
751
100
AcDbEntity
  8
寸法
  6
CONTINUOUS
 62
     0
100
AcDbText
 10
1641.501726287
 20
1127.949058438
 40
9
  1
ストリンガーピッチ
  7
STANDARD
100
AcDbText
  0
TEXT
  5
752
100
AcDbEntity
  8
寸法
  6
CONTINUOUS
 62
     0
100
AcDbText
 10
1354.9371706
 20
742.2790957547
 40
9
  1
ストリンガーピッチ
 50
90
  7
STANDARD
100
AcDbText
  0
CIRCLE
  5
753
100
AcDbEntity
  8
寸法
  6
CONTINUOUS
 62
     0
100
AcDbCircle
 10
1390.937202463
 20
562.7531434449
 40
4.2
  0
CIRCLE
  5
754
100
AcDbEntity
  8
寸法
  6
CONTINUOUS
 62
     0
100
AcDbCircle
 10
1450.937202463
 20
562.7531434449
 40
4.2
  0
LINE
  5
755
100
AcDbEntity
  8
寸法
  6
CONTINUOUS
 62
     0
100
AcDbLine
 10
1390.937202463
 20
553.7531434449
 11
1390.937202463
 21
609.8455100937
  0
LINE
  5
756
100
AcDbEntity
  8
寸法
  6
CONTINUOUS
 62
     0
100
AcDbLine
 10
1450.937202463
 20
553.7531434449
 11
1450.937202463
 21
609.8455100937
  0
DIMENSION
  5
757
100
AcDbEntity
  8
寸法
100
AcDbDimension
  2
*D40
 10
1450.937202463
 20
562.7531434449
 11
1420.937202463
 21
576.2531434449
 70
    32
  3
M7DIMSTL
100
AcDbAlignedDimension
 13
1390.937202463
 23
562.7531434449
 14
1450.937202463
 24
562.7531434449
100
AcDbRotatedDimension
  0
CIRCLE
  5
758
100
AcDbEntity
  8
寸法
  6
CONTINUOUS
 62
     0
100
AcDbCircle
 10
1450.937202463
 20
562.7531434449
 40
4.2
  0
CIRCLE
  5
759
100
AcDbEntity
  8
寸法
  6
CONTINUOUS
 62
     0
100
AcDbCircle
 10
1510.937202463
 20
562.7531434449
 40
4.2
  0
LINE
  5
75A
100
AcDbEntity
  8
寸法
  6
CONTINUOUS
 62
     0
100
AcDbLine
 10
1450.937202463
 20
553.7531434449
 11
1450.937202463
 21
609.8455100937
  0
LINE
  5
75B
100
AcDbEntity
  8
寸法
  6
CONTINUOUS
 62
     0
100
AcDbLine
 10
1510.937202463
 20
553.7531434449
 11
1510.937202463
 21
609.8455100937
  0
DIMENSION
  5
75C
100
AcDbEntity
  8
寸法
100
AcDbDimension
  2
*D41
 10
1510.937202463
 20
562.7531434449
 11
1480.937202463
 21
576.2531434449
 70
    32
  3
M7DIMSTL
100
AcDbAlignedDimension
 13
1450.937202463
 23
562.7531434449
 14
1510.937202463
 24
562.7531434449
100
AcDbRotatedDimension
  0
CIRCLE
  5
75D
100
AcDbEntity
  8
寸法
  6
CONTINUOUS
 62
     0
100
AcDbCircle
 10
1610.937209349
 20
562.7531434449
 40
4.2
  0
LINE
  5
75E
100
AcDbEntity
  8
寸法
  6
CONTINUOUS
 62
     0
100
AcDbLine
 10
1610.937209349
 20
553.7531434449
 11
1610.937209349
 21
609.8455100937
  0
DIMENSION
  5
75F
100
AcDbEntity
  8
寸法
100
AcDbDimension
  2
*D42
 10
1610.937209349
 20
562.7531434449
 11
1560.937205906
 21
576.2531434449
 70
    32
  3
M7DIMSTL
100
AcDbAlignedDimension
 13
1510.937202463
 23
562.7531434449
 14
1610.937209349
 24
562.7531434449
100
AcDbRotatedDimension
  0
CIRCLE
  5
760
100
AcDbEntity
  8
寸法
  6
CONTINUOUS
 62
     0
100
AcDbCircle
 10
782.309076728
 20
918.6091230715
 40
4.2
  0
LINE
  5
761
100
AcDbEntity
  8
寸法
  6
CONTINUOUS
 62
     0
100
AcDbLine
 10
773.309076728
 20
918.6091230715
 11
823.3762174561
 21
918.6091230715
  0
LINE
  5
762
100
AcDbEntity
  8
寸法
  6
CONTINUOUS
 62
     0
100
AcDbLine
 10
782.309076728
 20
1093.609123072
 11
782.309076728
 21
918.6091230715
  0
TEXT
  5
763
100
AcDbEntity
  8
寸法
  6
CONTINUOUS
 62
     0
100
AcDbText
 10
782.309076728
 20
979.1091230715
 40
9
  1
パネルピッチ
 50
90
  7
STANDARD
100
AcDbText
  0
TEXT
  5
764
100
AcDbEntity
  8
部品名
  6
CONTINUOUS
 62
     0
100
AcDbText
 10
967.9197859281
 20
1116.428926725
 40
9
  1
BS-A SUS M6x18
  7
STANDARD
100
AcDbText
  0
TEXT
  5
765
100
AcDbEntity
  8
部品名
  6
CONTINUOUS
 62
     0
100
AcDbText
 10
1542.58189452
 20
976.4937368786
 40
9
  1
BS-A SUS M6x18
  7
STANDARD
100
AcDbText
  0
TEXT
  5
766
100
AcDbEntity
  8
寸法
  6
CONTINUOUS
 62
     0
100
AcDbText
 10
1109.483850665
 20
1038.193934453
 40
9
  1
ストリンガー
 50
90
  7
STANDARD
100
AcDbText
  0
TEXT
  5
767
100
AcDbEntity
  8
寸法
  6
CONTINUOUS
 62
     0
100
AcDbText
 10
1109.483850665
 20
713.3591230715
 40
9
  1
ストリンガー
 50
90
  7
STANDARD
100
AcDbText
  0
TEXT
  5
768
100
AcDbEntity
  8
部品名
  6
CONTINUOUS
 62
     0
100
AcDbText
 10
964.0264049839
 20
1138.53552383
 40
9
  1
TK14A/TK14B
  7
STANDARD
100
AcDbText
  0
TEXT
  5
769
100
AcDbEntity
  8
部品名
  6
CONTINUOUS
 62
     0
100
AcDbText
 10
1552.295073725
 20
1012.606922814
 40
9
  1
TK14A/TK14B
  7
STANDARD
100
AcDbText
  0
TEXT
  5
76A
100
AcDbEntity
  8
部品名
  6
CONTINUOUS
 62
     0
100
AcDbText
 10
985.6066215464
 20
1076.545782052
 40
9
  1
SR5050A
  7
STANDARD
100
AcDbText
  0
TEXT
  5
76B
100
AcDbEntity
  8
部品名
  6
CONTINUOUS
 62
     0
100
AcDbText
 10
1571.813497237
 20
994.2003190963
 40
9
  1
SR5050A
  7
STANDARD
100
AcDbText
  0
DIMENSION
  5
76C
100
AcDbEntity
  8
寸法
100
AcDbDimension
  2
*D43
 10
960
 20
736.6091230715
 11
949.5
 21
743.6091230715
 70
    32
  3
M7DIMSTL
100
AcDbAlignedDimension
 13
930
 23
750.6091230715
 14
930
 24
736.6091230715
 50
-90
100
AcDbRotatedDimension
  0
DIMENSION
  5
76D
100
AcDbEntity
  8
寸法
100
AcDbDimension
  2
*D44
 10
985
 20
767.1091230715
 11
974.5
 21
747.6091230715
 70
    32
  3
M7DIMSTL
100
AcDbAlignedDimension
 13
931
 23
728.1091230715
 14
931
 24
767.1091230715
 50
90
100
AcDbRotatedDimension
  0
TEXT
  5
76E
100
AcDbEntity
  8
レイヤ16
  6
CONTINUOUS
 62
     0
100
AcDbText
 10
747.48
 20
1617
 40
48
  1
アルミ製ルーバー　スカイマーカーTypeU　納まり図
 41
0
  7
STANDARD
100
AcDbText
  0
TEXT
  5
76F
100
AcDbEntity
  8
レイヤ16
  6
CONTINUOUS
 62
     0
100
AcDbText
 10
1125.158502174
 20
122.2932269461
 40
19.2
  1
東京都墨田区太平2-9-4
  7
STANDARD
100
AcDbText
  0
TEXT
  5
770
100
AcDbEntity
  8
レイヤ16
  6
CONTINUOUS
 62
     0
100
AcDbText
 10
1125.158502174
 20
101.2932269461
 40
19.2
  1
Ｔ：０３－５６１１－６３１０
  7
STANDARD
100
AcDbText
  0
TEXT
  5
771
100
AcDbEntity
  8
レイヤ16
  6
CONTINUOUS
 62
     0
100
AcDbText
 10
92.80162918055
 20
1539
 40
24
  1
横張り納まり
  7
STANDARD
100
AcDbText
  0
TEXT
  5
772
100
AcDbEntity
  8
レイヤ16
  6
CONTINUOUS
 62
     0
100
AcDbText
 10
116.6032583611
 20
1509
 40
24
  1
PGF10060
  7
STANDARD
100
AcDbText
  0
TEXT
  5
773
100
AcDbEntity
  8
レイヤ16
  6
CONTINUOUS
 62
     0
100
AcDbText
 10
2412
 20
162
 40
24
  1
1006
  7
STANDARD
100
AcDbText
  0
TEXT
  5
774
100
AcDbEntity
  8
レイヤ16
  6
CONTINUOUS
 62
     0
100
AcDbText
 10
2340
 20
96
 40
24
  1
2021.02.01
  7
STANDARD
100
AcDbText
  0
LINE
  5
775
100
AcDbEntity
  8
レイヤ15
  6
CONTINUOUS
 62
     0
100
AcDbLine
 10
1431.877645367
 20
171.7295367488
 11
1428.203583942
 21
171.7295367488
  0
LINE
  5
776
100
AcDbEntity
  8
レイヤ15
  6
CONTINUOUS
 62
     0
100
AcDbLine
 10
1432.199319965
 20
171.0233407996
 11
1428.050830502
 21
166.2535752771
  0
LINE
  5
777
100
AcDbEntity
  8
レイヤ15
  6
CONTINUOUS
 62
     0
100
AcDbLine
 10
1432.138323574
 20
155.3508378916
 11
1428.38163881
 21
159.063888189
  0
LINE
  5
778
100
AcDbEntity
  8
レイヤ15
  6
CONTINUOUS
 62
     0
100
AcDbLine
 10
1432.864506077
 20
161.2741412233
 11
1432.864506077
 21
155.6541007127
  0
LINE
  5
779
100
AcDbEntity
  8
レイヤ15
  6
CONTINUOUS
 62
     0
100
AcDbLine
 10
1432.739258755
 20
161.5759867444
 11
1428.050830502
 21
166.2535752771
  0
LINE
  5
77A
100
AcDbEntity
  8
レイヤ15
  6
CONTINUOUS
 62
     0
100
AcDbLine
 10
1434.563901216
 20
162.4041754748
 11
1440.390473826
 21
162.4041754748
  0
LINE
  5
77B
100
AcDbEntity
  8
レイヤ15
  6
CONTINUOUS
 62
     0
100
AcDbLine
 10
1434.563901216
 20
166.5156707837
 11
1440.390473826
 21
166.5156707837
  0
LINE
  5
77C
100
AcDbEntity
  8
レイヤ15
  6
CONTINUOUS
 62
     0
100
AcDbLine
 10
1433.924331488
 20
165.8761010557
 11
1433.924331488
 21
163.0437583261
  0
LINE
  5
77D
100
AcDbEntity
  8
レイヤ15
  6
CONTINUOUS
 62
     0
100
AcDbLine
 10
1440.390473826
 20
173.8471272369
 11
1440.390473826
 21
166.5156707837
  0
LINE
  5
77E
100
AcDbEntity
  8
レイヤ15
  6
CONTINUOUS
 62
     0
100
AcDbLine
 10
1447.139341259
 20
174.4867100881
 11
1441.030043554
 21
174.4867100881
  0
LINE
  5
77F
100
AcDbEntity
  8
レイヤ15
  6
CONTINUOUS
 62
     0
100
AcDbLine
 10
1447.778910987
 20
173.8471272369
 11
1447.778910987
 21
166.5156707837
  0
LINE
  5
780
100
AcDbEntity
  8
レイヤ15
  6
CONTINUOUS
 62
     0
100
AcDbLine
 10
1453.605483596
 20
166.5156707837
 11
1447.778910987
 21
166.5156707837
  0
LINE
  5
781
100
AcDbEntity
  8
レイヤ15
  6
CONTINUOUS
 62
     0
100
AcDbLine
 10
1453.605483596
 20
162.4041754748
 11
1447.778910987
 21
162.4041754748
  0
LINE
  5
782
100
AcDbEntity
  8
レイヤ15
  6
CONTINUOUS
 62
     0
100
AcDbLine
 10
1454.245053324
 20
163.0437583261
 11
1454.245053324
 21
165.8761010557
  0
LINE
  5
783
100
AcDbEntity
  8
レイヤ15
  6
CONTINUOUS
 62
     0
100
AcDbLine
 10
1416.009555065
 20
171.7295367488
 11
1421.201177295
 21
171.7295367488
  0
LINE
  5
784
100
AcDbEntity
  8
レイヤ15
  6
CONTINUOUS
 62
     0
100
AcDbLine
 10
1416.009555065
 20
167.6180414399
 11
1421.201177295
 21
167.6180414399
  0
LINE
  5
785
100
AcDbEntity
  8
レイヤ15
  6
CONTINUOUS
 62
     0
100
AcDbLine
 10
1421.201177295
 20
173.8471272369
 11
1421.201177295
 21
171.7295367488
  0
LINE
  5
786
100
AcDbEntity
  8
レイヤ15
  6
CONTINUOUS
 62
     0
100
AcDbLine
 10
1428.203583942
 20
173.8471272369
 11
1428.203583942
 21
171.7295367488
  0
LINE
  5
787
100
AcDbEntity
  8
レイヤ15
  6
CONTINUOUS
 62
     0
100
AcDbLine
 10
1427.564014214
 20
174.4867100881
 11
1421.840747023
 21
174.4867100881
  0
LINE
  5
788
100
AcDbEntity
  8
レイヤ15
  6
CONTINUOUS
 62
     0
100
AcDbLine
 10
1088.52791239
 20
178.1714800021
 11
1088.52791239
 21
141.4932269461
  0
LINE
  5
789
100
AcDbEntity
  8
レイヤ15
  6
CONTINUOUS
 62
     0
100
AcDbLine
 10
1125.158502174
 20
141.4932269461
 11
1125.158502174
 21
178.1714800021
  0
LINE
  5
78A
100
AcDbEntity
  8
レイヤ15
  6
CONTINUOUS
 62
     0
100
AcDbLine
 10
1125.158502174
 20
178.1714800021
 11
1088.52791239
 21
178.1714800021
  0
LINE
  5
78B
100
AcDbEntity
  8
レイヤ15
  6
CONTINUOUS
 62
     0
100
AcDbLine
 10
1088.52791239
 20
141.4932269461
 11
1125.158502174
 21
141.4932269461
  0
LINE
  5
78C
100
AcDbEntity
  8
レイヤ15
  6
CONTINUOUS
 62
     0
100
AcDbLine
 10
1106.742631478
 20
145.6200500915
 11
1106.742631478
 21
144.7457728662
  0
LINE
  5
78D
100
AcDbEntity
  8
レイヤ15
  6
CONTINUOUS
 62
     0
100
AcDbLine
 10
1105.99650179
 20
149.9020282127
 11
1105.99650179
 21
159.4427797104
  0
LINE
  5
78E
100
AcDbEntity
  8
レイヤ15
  6
CONTINUOUS
 62
     0
100
AcDbLine
 10
1106.742631478
 20
160.1746576596
 11
1113.415069698
 21
166.8470958798
  0
LINE
  5
78F
100
AcDbEntity
  8
レイヤ15
  6
CONTINUOUS
 62
     0
100
AcDbLine
 10
1106.742631478
 20
159.4133707363
 11
1113.800680271
 21
166.4714064064
  0
LINE
  5
790
100
AcDbEntity
  8
レイヤ15
  6
CONTINUOUS
 62
     0
100
AcDbLine
 10
1115.288635254
 20
164.5293248961
 11
1114.342193839
 21
163.5697865799
  0
LINE
  5
791
100
AcDbEntity
  8
レイヤ15
  6
CONTINUOUS
 62
     0
100
AcDbLine
 10
1109.407575335
 20
151.5795208183
 11
1109.407575335
 21
150.2423901724
  0
LINE
  5
792
100
AcDbEntity
  8
レイヤ15
  6
CONTINUOUS
 62
     0
100
AcDbLine
 10
1104.077687621
 20
151.5795208183
 11
1104.077687621
 21
150.2423901724
  0
LINE
  5
793
100
AcDbEntity
  8
レイヤ15
  6
CONTINUOUS
 62
     0
100
AcDbLine
 10
1099.147478494
 20
163.5783035028
 11
1098.203451738
 21
164.522304012
  0
LINE
  5
794
100
AcDbEntity
  8
レイヤ15
  6
CONTINUOUS
 62
     0
100
AcDbLine
 10
1102.937548545
 20
167.3256708315
 11
1101.990582205
 21
168.2726896647
  0
LINE
  5
795
100
AcDbEntity
  8
レイヤ15
  6
CONTINUOUS
 62
     0
100
AcDbLine
 10
1110.54771441
 20
167.3256708315
 11
1111.494680751
 21
168.2726896647
  0
LINE
  5
796
100
AcDbEntity
  8
レイヤ15
  6
CONTINUOUS
 62
     0
100
AcDbLine
 10
1362.034573352
 20
174.0654964152
 11
1362.962012449
 21
171.7295367488
  0
LINE
  5
797
100
AcDbEntity
  8
レイヤ15
  6
CONTINUOUS
 62
     0
100
AcDbLine
 10
1361.433428201
 20
174.4867100881
 11
1353.22222217
 21
174.4867100881
  0
LINE
  5
798
100
AcDbEntity
  8
レイヤ15
  6
CONTINUOUS
 62
     0
100
AcDbLine
 10
1267.112011177
 20
157.783607019
 11
1267.112011177
 21
157.1568848525
  0
LINE
  5
799
100
AcDbEntity
  8
レイヤ15
  6
CONTINUOUS
 62
     0
100
AcDbLine
 10
1274.500343352
 20
157.783607019
 11
1274.500343352
 21
157.1568848525
  0
LINE
  5
79A
100
AcDbEntity
  8
レイヤ15
  6
CONTINUOUS
 62
     0
100
AcDbLine
 10
1266.701309145
 20
167.6180414399
 11
1266.437481383
 21
166.6333198032
  0
LINE
  5
79B
100
AcDbEntity
  8
レイヤ15
  6
CONTINUOUS
 62
     0
100
AcDbLine
 10
1266.701309145
 20
167.6180414399
 11
1274.911045384
 21
167.6180414399
  0
LINE
  5
79C
100
AcDbEntity
  8
レイヤ15
  6
CONTINUOUS
 62
     0
100
AcDbLine
 10
1266.437481383
 20
166.6333198032
 11
1275.174873146
 21
166.6333198032
  0
LINE
  5
79D
100
AcDbEntity
  8
レイヤ15
  6
CONTINUOUS
 62
     0
100
AcDbLine
 10
1267.803128629
 20
171.7295367488
 11
1273.8092259
 21
171.7295367488
  0
LINE
  5
79E
100
AcDbEntity
  8
レイヤ15
  6
CONTINUOUS
 62
     0
100
AcDbLine
 10
1261.871360867
 20
171.7295367488
 11
1262.56247832
 21
171.7295367488
  0
LINE
  5
79F
100
AcDbEntity
  8
レイヤ15
  6
CONTINUOUS
 62
     0
100
AcDbLine
 10
1279.049876209
 20
171.7295367488
 11
1279.740993662
 21
171.7295367488
  0
LINE
  5
7A0
100
AcDbEntity
  8
レイヤ15
  6
CONTINUOUS
 62
     0
100
AcDbLine
 10
1300.714093418
 20
166.1011630393
 11
1300.714093418
 21
167.6180414399
  0
LINE
  5
7A1
100
AcDbEntity
  8
レイヤ15
  6
CONTINUOUS
 62
     0
100
AcDbLine
 10
1366.906620688
 20
174.4867100881
 11
1366.906620688
 21
173.0593971709
  0
LINE
  5
7A2
100
AcDbEntity
  8
レイヤ15
  6
CONTINUOUS
 62
     0
100
AcDbLine
 10
1371.581190897
 20
174.4867100881
 11
1366.906620688
 21
174.4867100881
  0
LINE
  5
7A3
100
AcDbEntity
  8
レイヤ15
  6
CONTINUOUS
 62
     0
100
AcDbLine
 10
1371.581190897
 20
173.0593971709
 11
1371.581190897
 21
174.4867100881
  0
LINE
  5
7A4
100
AcDbEntity
  8
レイヤ15
  6
CONTINUOUS
 62
     0
100
AcDbLine
 10
1366.906620688
 20
173.0593971709
 11
1371.581190897
 21
173.0593971709
  0
LINE
  5
7A5
100
AcDbEntity
  8
レイヤ15
  6
CONTINUOUS
 62
     0
100
AcDbLine
 10
1307.716500065
 20
166.1011630393
 11
1307.716500065
 21
167.6180414399
  0
LINE
  5
7A6
100
AcDbEntity
  8
レイヤ15
  6
CONTINUOUS
 62
     0
100
AcDbLine
 10
1182.931322842
 20
171.0899670207
 11
1182.931322842
 21
167.0277228852
  0
LINE
  5
7A7
100
AcDbEntity
  8
レイヤ15
  6
CONTINUOUS
 62
     0
100
AcDbLine
 10
1187.044957224
 20
171.7295367488
 11
1183.57089257
 21
171.7295367488
  0
LINE
  5
7A8
100
AcDbEntity
  8
レイヤ15
  6
CONTINUOUS
 62
     0
100
AcDbLine
 10
1131.766584477
 20
152.4058066924
 11
1131.766584477
 21
147.9677024827
  0
LINE
  5
7A9
100
AcDbEntity
  8
レイヤ15
  6
CONTINUOUS
 62
     0
100
AcDbLine
 10
1164.811300388
 20
153.0453895436
 11
1132.406154205
 21
153.0453895436
  0
LINE
  5
7AA
100
AcDbEntity
  8
レイヤ15
  6
CONTINUOUS
 62
     0
100
AcDbLine
 10
1165.450870116
 20
147.9677024827
 11
1165.450870116
 21
152.4058066924
  0
LINE
  5
7AB
100
AcDbEntity
  8
レイヤ15
  6
CONTINUOUS
 62
     0
100
AcDbLine
 10
1132.406154205
 20
147.3281196314
 11
1164.811300388
 21
147.3281196314
  0
LINE
  5
7AC
100
AcDbEntity
  8
レイヤ15
  6
CONTINUOUS
 62
     0
100
AcDbLine
 10
1131.766584477
 20
173.8471272369
 11
1131.766584477
 21
169.4090230272
  0
LINE
  5
7AD
100
AcDbEntity
  8
レイヤ15
  6
CONTINUOUS
 62
     0
100
AcDbLine
 10
1164.811300388
 20
174.4867100881
 11
1132.406154205
 21
174.4867100881
  0
LINE
  5
7AE
100
AcDbEntity
  8
レイヤ15
  6
CONTINUOUS
 62
     0
100
AcDbLine
 10
1165.450870116
 20
169.4090230272
 11
1165.450870116
 21
173.8471272369
  0
LINE
  5
7AF
100
AcDbEntity
  8
レイヤ15
  6
CONTINUOUS
 62
     0
100
AcDbLine
 10
1132.406154205
 20
168.7694401759
 11
1164.811300388
 21
168.7694401759
  0
LINE
  5
7B0
100
AcDbEntity
  8
レイヤ15
  6
CONTINUOUS
 62
     0
100
AcDbLine
 10
1267.112011177
 20
162.5218244943
 11
1267.112011177
 21
162.0182368231
  0
LINE
  5
7B1
100
AcDbEntity
  8
レイヤ15
  6
CONTINUOUS
 62
     0
100
AcDbLine
 10
1274.500343352
 20
162.5218244943
 11
1274.500343352
 21
162.0182368231
  0
LINE
  5
7B2
100
AcDbEntity
  8
レイヤ15
  6
CONTINUOUS
 62
     0
100
AcDbLine
 10
1281.932874289
 20
167.6180414399
 11
1281.202597364
 21
166.6333198032
  0
LINE
  5
7B3
100
AcDbEntity
  8
レイヤ15
  6
CONTINUOUS
 62
     0
100
AcDbLine
 10
1259.67948024
 20
167.6180414399
 11
1260.409757165
 21
166.6333198032
  0
LINE
  5
7B4
100
AcDbEntity
  8
レイヤ15
  6
CONTINUOUS
 62
     0
100
AcDbLine
 10
1274.911045384
 20
167.6180414399
 11
1275.174873146
 21
166.6333198032
  0
LINE
  5
7B5
100
AcDbEntity
  8
レイヤ15
  6
CONTINUOUS
 62
     0
100
AcDbLine
 10
1294.930984674
 20
154.7044441267
 11
1300.762176632
 21
159.3254194002
  0
LINE
  5
7B6
100
AcDbEntity
  8
レイヤ15
  6
CONTINUOUS
 62
     0
100
AcDbLine
 10
1327.955858385
 20
164.9456436349
 11
1327.955858385
 21
167.6180414399
  0
LINE
  5
7B7
100
AcDbEntity
  8
レイヤ15
  6
CONTINUOUS
 62
     0
100
AcDbLine
 10
1335.017476675
 20
167.6180414399
 11
1327.955858385
 21
167.6180414399
  0
LINE
  5
7B8
100
AcDbEntity
  8
レイヤ15
  6
CONTINUOUS
 62
     0
100
AcDbLine
 10
1335.657046403
 20
171.0899670207
 11
1335.657046403
 21
168.2576242911
  0
LINE
  5
7B9
100
AcDbEntity
  8
レイヤ15
  6
CONTINUOUS
 62
     0
100
AcDbLine
 10
1327.955858385
 20
171.7295367488
 11
1335.017476675
 21
171.7295367488
  0
LINE
  5
7BA
100
AcDbEntity
  8
レイヤ15
  6
CONTINUOUS
 62
     0
100
AcDbLine
 10
1327.955858385
 20
164.9186361968
 11
1335.017476675
 21
164.9186361968
  0
LINE
  5
7BB
100
AcDbEntity
  8
レイヤ15
  6
CONTINUOUS
 62
     0
100
AcDbLine
 10
1320.953346753
 20
164.9456436349
 11
1320.953346753
 21
167.6180414399
  0
LINE
  5
7BC
100
AcDbEntity
  8
レイヤ15
  6
CONTINUOUS
 62
     0
100
AcDbLine
 10
1320.953346753
 20
171.7295367488
 11
1319.112536574
 21
171.7295367488
  0
LINE
  5
7BD
100
AcDbEntity
  8
レイヤ15
  6
CONTINUOUS
 62
     0
100
AcDbLine
 10
1313.252053751
 20
160.8071408879
 11
1317.720538047
 21
160.8071408879
  0
LINE
  5
7BE
100
AcDbEntity
  8
レイヤ15
  6
CONTINUOUS
 62
     0
100
AcDbLine
 10
1313.252053751
 20
164.2790533456
 11
1313.252053751
 21
160.8071408879
  0
LINE
  5
7BF
100
AcDbEntity
  8
レイヤ15
  6
CONTINUOUS
 62
     0
100
AcDbLine
 10
1320.953346753
 20
164.9186361968
 11
1313.891623479
 21
164.9186361968
  0
LINE
  5
7C0
100
AcDbEntity
  8
レイヤ15
  6
CONTINUOUS
 62
     0
100
AcDbLine
 10
1314.671978336
 20
174.108382862
 11
1319.847957773
 21
174.108382862
  0
LINE
  5
7C1
100
AcDbEntity
  8
レイヤ15
  6
CONTINUOUS
 62
     0
100
AcDbLine
 10
1319.112536574
 20
171.7295367488
 11
1319.847957773
 21
174.108382862
  0
LINE
  5
7C2
100
AcDbEntity
  8
レイヤ15
  6
CONTINUOUS
 62
     0
100
AcDbLine
 10
1372.065172586
 20
171.7295367488
 11
1362.962012449
 21
171.7295367488
  0
LINE
  5
7C3
100
AcDbEntity
  8
レイヤ15
  6
CONTINUOUS
 62
     0
100
AcDbLine
 10
1393.245303121
 20
170.3752147792
 11
1376.244212736
 21
165.5210280474
  0
LINE
  5
7C4
100
AcDbEntity
  8
レイヤ15
  6
CONTINUOUS
 62
     0
100
AcDbLine
 10
1393.245303121
 20
174.4867100881
 11
1410.246498491
 21
169.6325233563
  0
LINE
  5
7C5
100
AcDbEntity
  8
レイヤ15
  6
CONTINUOUS
 62
     0
100
AcDbLine
 10
1410.246498491
 20
165.5210280474
 11
1410.246498491
 21
169.6325233563
  0
LINE
  5
7C6
100
AcDbEntity
  8
レイヤ15
  6
CONTINUOUS
 62
     0
100
AcDbLine
 10
1393.245303121
 20
170.3752147792
 11
1410.246498491
 21
165.5210280474
  0
LINE
  5
7C7
100
AcDbEntity
  8
レイヤ15
  6
CONTINUOUS
 62
     0
100
AcDbLine
 10
1307.716500065
 20
160.0682551778
 11
1311.181535993
 21
157.3099270014
  0
LINE
  5
7C8
100
AcDbEntity
  8
レイヤ15
  6
CONTINUOUS
 62
     0
100
AcDbLine
 10
1162.762199608
 20
158.6883561933
 11
1162.762199608
 21
163.1264735262
  0
LINE
  5
7C9
100
AcDbEntity
  8
レイヤ15
  6
CONTINUOUS
 62
     0
100
AcDbLine
 10
1135.727255449
 20
163.7660563775
 11
1162.122524895
 21
163.7660563775
  0
LINE
  5
7CA
100
AcDbEntity
  8
レイヤ15
  6
CONTINUOUS
 62
     0
100
AcDbLine
 10
1135.087685721
 20
158.6883561933
 11
1135.087685721
 21
163.1264735262
  0
LINE
  5
7CB
100
AcDbEntity
  8
レイヤ15
  6
CONTINUOUS
 62
     0
100
AcDbLine
 10
1135.727255449
 20
158.0487864653
 11
1162.122524895
 21
158.0487864653
  0
LINE
  5
7CC
100
AcDbEntity
  8
レイヤ15
  6
CONTINUOUS
 62
     0
100
AcDbLine
 10
1169.564504498
 20
169.2725422907
 11
1169.564504498
 21
173.6736392238
  0
LINE
  5
7CD
100
AcDbEntity
  8
レイヤ15
  6
CONTINUOUS
 62
     0
100
AcDbLine
 10
1180.453252608
 20
171.8480256497
 11
1170.354727962
 21
174.2952171164
  0
LINE
  5
7CE
100
AcDbEntity
  8
レイヤ15
  6
CONTINUOUS
 62
     0
100
AcDbLine
 10
1180.9421686
 20
166.825350824
 11
1180.9421686
 21
171.226434634
  0
LINE
  5
7CF
100
AcDbEntity
  8
レイヤ15
  6
CONTINUOUS
 62
     0
100
AcDbLine
 10
1180.152050121
 20
166.2037598083
 11
1170.05342049
 21
168.650951275
  0
LINE
  5
7D0
100
AcDbEntity
  8
レイヤ15
  6
CONTINUOUS
 62
     0
100
AcDbLine
 10
1169.564504498
 20
160.9694217328
 11
1169.564504498
 21
165.370518666
  0
LINE
  5
7D1
100
AcDbEntity
  8
レイヤ15
  6
CONTINUOUS
 62
     0
100
AcDbLine
 10
1180.152050121
 20
157.9006392505
 11
1170.05342049
 21
160.3478438403
  0
LINE
  5
7D2
100
AcDbEntity
  8
レイヤ15
  6
CONTINUOUS
 62
     0
100
AcDbLine
 10
1180.9421686
 20
162.9233140761
 11
1180.9421686
 21
158.5222302661
  0
LINE
  5
7D3
100
AcDbEntity
  8
レイヤ15
  6
CONTINUOUS
 62
     0
100
AcDbLine
 10
1180.453252608
 20
163.5449050918
 11
1170.354727962
 21
165.9920965585
  0
LINE
  5
7D4
100
AcDbEntity
  8
レイヤ15
  6
CONTINUOUS
 62
     0
100
AcDbLine
 10
1176.50360508
 20
147.692720045
 11
1180.205382594
 21
155.4664397
  0
LINE
  5
7D5
100
AcDbEntity
  8
レイヤ15
  6
CONTINUOUS
 62
     0
100
AcDbLine
 10
1170.762385424
 20
147.3281196314
 11
1175.92618658
 21
147.3281196314
  0
LINE
  5
7D6
100
AcDbEntity
  8
レイヤ15
  6
CONTINUOUS
 62
     0
100
AcDbLine
 10
1173.887374348
 20
156.0164176985
 11
1170.184861938
 21
148.2427111666
  0
LINE
  5
7D7
100
AcDbEntity
  8
レイヤ15
  6
CONTINUOUS
 62
     0
100
AcDbLine
 10
1174.464792848
 20
156.3809918658
 11
1179.627964093
 21
156.3809918658
  0
LINE
  5
7D8
100
AcDbEntity
  8
レイヤ15
  6
CONTINUOUS
 62
     0
100
AcDbLine
 10
1192.907224795
 20
166.3881531572
 11
1183.57089257
 21
166.3881531572
  0
LINE
  5
7D9
100
AcDbEntity
  8
レイヤ15
  6
CONTINUOUS
 62
     0
100
AcDbLine
 10
1192.907224795
 20
163.3750653138
 11
1192.907224795
 21
166.3881531572
  0
LINE
  5
7DA
100
AcDbEntity
  8
レイヤ15
  6
CONTINUOUS
 62
     0
100
AcDbLine
 10
1184.555968531
 20
163.3750653138
 11
1192.907224795
 21
163.3750653138
  0
LINE
  5
7DB
100
AcDbEntity
  8
レイヤ15
  6
CONTINUOUS
 62
     0
100
AcDbLine
 10
1183.916398803
 20
158.6732514503
 11
1183.916398803
 21
162.7354824626
  0
LINE
  5
7DC
100
AcDbEntity
  8
レイヤ15
  6
CONTINUOUS
 62
     0
100
AcDbLine
 10
1192.907224795
 20
158.0336685991
 11
1184.555968531
 21
158.0336685991
  0
LINE
  5
7DD
100
AcDbEntity
  8
レイヤ15
  6
CONTINUOUS
 62
     0
100
AcDbLine
 10
1192.907224795
 20
155.0205807557
 11
1192.907224795
 21
158.0336685991
  0
LINE
  5
7DE
100
AcDbEntity
  8
レイヤ15
  6
CONTINUOUS
 62
     0
100
AcDbLine
 10
1183.57089257
 20
155.0205807557
 11
1192.907224795
 21
155.0205807557
  0
LINE
  5
7DF
100
AcDbEntity
  8
レイヤ15
  6
CONTINUOUS
 62
     0
100
AcDbLine
 10
1182.931322842
 20
150.3187668922
 11
1182.931322842
 21
154.3810110276
  0
LINE
  5
7E0
100
AcDbEntity
  8
レイヤ15
  6
CONTINUOUS
 62
     0
100
AcDbLine
 10
1200.295661956
 20
155.0205807557
 11
1209.632099166
 21
155.0205807557
  0
LINE
  5
7E1
100
AcDbEntity
  8
レイヤ15
  6
CONTINUOUS
 62
     0
100
AcDbLine
 10
1200.295661956
 20
158.0336685991
 11
1200.295661956
 21
155.0205807557
  0
LINE
  5
7E2
100
AcDbEntity
  8
レイヤ15
  6
CONTINUOUS
 62
     0
100
AcDbLine
 10
1208.646918219
 20
158.0336685991
 11
1200.295661956
 21
158.0336685991
  0
LINE
  5
7E3
100
AcDbEntity
  8
レイヤ15
  6
CONTINUOUS
 62
     0
100
AcDbLine
 10
1209.286487948
 20
162.7354824626
 11
1209.286487948
 21
158.6732514503
  0
LINE
  5
7E4
100
AcDbEntity
  8
レイヤ15
  6
CONTINUOUS
 62
     0
100
AcDbLine
 10
1200.295661956
 20
163.3750653138
 11
1208.646918219
 21
163.3750653138
  0
LINE
  5
7E5
100
AcDbEntity
  8
レイヤ15
  6
CONTINUOUS
 62
     0
100
AcDbLine
 10
1200.295661956
 20
166.3881531572
 11
1200.295661956
 21
163.3750653138
  0
LINE
  5
7E6
100
AcDbEntity
  8
レイヤ15
  6
CONTINUOUS
 62
     0
100
AcDbLine
 10
1209.632099166
 20
166.3881531572
 11
1200.295661956
 21
166.3881531572
  0
LINE
  5
7E7
100
AcDbEntity
  8
レイヤ15
  6
CONTINUOUS
 62
     0
100
AcDbLine
 10
1210.271668894
 20
171.0899670207
 11
1210.271668894
 21
167.0277228852
  0
LINE
  5
7E8
100
AcDbEntity
  8
レイヤ15
  6
CONTINUOUS
 62
     0
100
AcDbLine
 10
1209.632099166
 20
171.7295367488
 11
1206.157929527
 21
171.7295367488
  0
LINE
  5
7E9
100
AcDbEntity
  8
レイヤ15
  6
CONTINUOUS
 62
     0
100
AcDbLine
 10
1194.531870485
 20
171.7295367488
 11
1198.671016266
 21
171.7295367488
  0
LINE
  5
7EA
100
AcDbEntity
  8
レイヤ15
  6
CONTINUOUS
 62
     0
100
AcDbLine
 10
1191.660840716
 20
174.3024873402
 11
1194.082743877
 21
171.9137594967
  0
LINE
  5
7EB
100
AcDbEntity
  8
レイヤ15
  6
CONTINUOUS
 62
     0
100
AcDbLine
 10
1201.542046035
 20
174.3024873402
 11
1199.120142874
 21
171.9137594967
  0
LINE
  5
7EC
100
AcDbEntity
  8
レイヤ15
  6
CONTINUOUS
 62
     0
100
AcDbLine
 10
1185.288975071
 20
174.4867100881
 11
1191.211714108
 21
174.4867100881
  0
LINE
  5
7ED
100
AcDbEntity
  8
レイヤ15
  6
CONTINUOUS
 62
     0
100
AcDbLine
 10
1184.989557333
 20
173.7567612416
 11
1187.044957224
 21
171.7295367488
  0
LINE
  5
7EE
100
AcDbEntity
  8
レイヤ15
  6
CONTINUOUS
 62
     0
100
AcDbLine
 10
1208.213329418
 20
173.7567612416
 11
1206.157929527
 21
171.7295367488
  0
LINE
  5
7EF
100
AcDbEntity
  8
レイヤ15
  6
CONTINUOUS
 62
     0
100
AcDbLine
 10
1207.91391168
 20
174.4867100881
 11
1201.991172643
 21
174.4867100881
  0
LINE
  5
7F0
100
AcDbEntity
  8
レイヤ15
  6
CONTINUOUS
 62
     0
100
AcDbLine
 10
1227.588134766
 20
168.7694401759
 11
1215.932574887
 21
168.7694401759
  0
LINE
  5
7F1
100
AcDbEntity
  8
レイヤ15
  6
CONTINUOUS
 62
     0
100
AcDbLine
 10
1246.63223679
 20
168.7694401759
 11
1234.976571926
 21
168.7694401759
  0
LINE
  5
7F2
100
AcDbEntity
  8
レイヤ15
  6
CONTINUOUS
 62
     0
100
AcDbLine
 10
1246.63223679
 20
174.4867100881
 11
1215.932574887
 21
174.4867100881
  0
LINE
  5
7F3
100
AcDbEntity
  8
レイヤ15
  6
CONTINUOUS
 62
     0
100
AcDbLine
 10
1247.271806518
 20
173.8471272369
 11
1247.271806518
 21
169.4090230272
  0
LINE
  5
7F4
100
AcDbEntity
  8
レイヤ15
  6
CONTINUOUS
 62
     0
100
AcDbLine
 10
1252.497968873
 20
171.7295367488
 11
1256.630710558
 21
171.7295367488
  0
LINE
  5
7F5
100
AcDbEntity
  8
レイヤ15
  6
CONTINUOUS
 62
     0
100
AcDbLine
 10
1251.858399144
 20
168.2576242911
 11
1251.858399144
 21
171.0899670207
  0
LINE
  5
7F6
100
AcDbEntity
  8
レイヤ15
  6
CONTINUOUS
 62
     0
100
AcDbLine
 10
1252.497968873
 20
167.6180414399
 11
1259.67948024
 21
167.6180414399
  0
LINE
  5
7F7
100
AcDbEntity
  8
レイヤ15
  6
CONTINUOUS
 62
     0
100
AcDbLine
 10
1252.497968873
 20
166.6333198032
 11
1260.409757165
 21
166.6333198032
  0
LINE
  5
7F8
100
AcDbEntity
  8
レイヤ15
  6
CONTINUOUS
 62
     0
100
AcDbLine
 10
1251.858399144
 20
163.1613942224
 11
1251.858399144
 21
165.993736952
  0
LINE
  5
7F9
100
AcDbEntity
  8
レイヤ15
  6
CONTINUOUS
 62
     0
100
AcDbLine
 10
1252.497968873
 20
162.5218244943
 11
1267.112011177
 21
162.5218244943
  0
LINE
  5
7FA
100
AcDbEntity
  8
レイヤ15
  6
CONTINUOUS
 62
     0
100
AcDbLine
 10
1253.483044834
 20
162.0182368231
 11
1267.112011177
 21
162.0182368231
  0
LINE
  5
7FB
100
AcDbEntity
  8
レイヤ15
  6
CONTINUOUS
 62
     0
100
AcDbLine
 10
1253.483044834
 20
157.783607019
 11
1267.112011177
 21
157.783607019
  0
LINE
  5
7FC
100
AcDbEntity
  8
レイヤ15
  6
CONTINUOUS
 62
     0
100
AcDbLine
 10
1252.843475106
 20
158.423176747
 11
1252.843475106
 21
161.378667095
  0
LINE
  5
7FD
100
AcDbEntity
  8
レイヤ15
  6
CONTINUOUS
 62
     0
100
AcDbLine
 10
1252.497968873
 20
157.1568848525
 11
1267.112011177
 21
157.1568848525
  0
LINE
  5
7FE
100
AcDbEntity
  8
レイヤ15
  6
CONTINUOUS
 62
     0
100
AcDbLine
 10
1251.858399144
 20
153.6849592717
 11
1251.858399144
 21
156.5173020013
  0
LINE
  5
7FF
100
AcDbEntity
  8
レイヤ15
  6
CONTINUOUS
 62
     0
100
AcDbLine
 10
1289.114385656
 20
157.1568848525
 11
1274.500343352
 21
157.1568848525
  0
LINE
  5
800
100
AcDbEntity
  8
レイヤ15
  6
CONTINUOUS
 62
     0
100
AcDbLine
 10
1289.753955384
 20
156.5173020013
 11
1289.753955384
 21
153.6849592717
  0
LINE
  5
801
100
AcDbEntity
  8
レイヤ15
  6
CONTINUOUS
 62
     0
100
AcDbLine
 10
1288.129309695
 20
157.783607019
 11
1274.500343352
 21
157.783607019
  0
LINE
  5
802
100
AcDbEntity
  8
レイヤ15
  6
CONTINUOUS
 62
     0
100
AcDbLine
 10
1288.768879423
 20
161.378667095
 11
1288.768879423
 21
158.423176747
  0
LINE
  5
803
100
AcDbEntity
  8
レイヤ15
  6
CONTINUOUS
 62
     0
100
AcDbLine
 10
1288.129309695
 20
162.0182368231
 11
1274.500343352
 21
162.0182368231
  0
LINE
  5
804
100
AcDbEntity
  8
レイヤ15
  6
CONTINUOUS
 62
     0
100
AcDbLine
 10
1289.114385656
 20
162.5218244943
 11
1274.500343352
 21
162.5218244943
  0
LINE
  5
805
100
AcDbEntity
  8
レイヤ15
  6
CONTINUOUS
 62
     0
100
AcDbLine
 10
1289.753955384
 20
165.993736952
 11
1289.753955384
 21
163.1613942224
  0
LINE
  5
806
100
AcDbEntity
  8
レイヤ15
  6
CONTINUOUS
 62
     0
100
AcDbLine
 10
1289.114385656
 20
166.6333198032
 11
1281.202597364
 21
166.6333198032
  0
LINE
  5
807
100
AcDbEntity
  8
レイヤ15
  6
CONTINUOUS
 62
     0
100
AcDbLine
 10
1289.114385656
 20
167.6180414399
 11
1281.932874289
 21
167.6180414399
  0
LINE
  5
808
100
AcDbEntity
  8
レイヤ15
  6
CONTINUOUS
 62
     0
100
AcDbLine
 10
1289.114385656
 20
171.7295367488
 11
1284.981643971
 21
171.7295367488
  0
LINE
  5
809
100
AcDbEntity
  8
レイヤ15
  6
CONTINUOUS
 62
     0
100
AcDbLine
 10
1289.753955384
 20
171.0899670207
 11
1289.753955384
 21
168.2576242911
  0
LINE
  5
80A
100
AcDbEntity
  8
レイヤ15
  6
CONTINUOUS
 62
     0
100
AcDbLine
 10
1281.593772152
 20
174.2280922157
 11
1279.740993662
 21
171.7295367488
  0
LINE
  5
80B
100
AcDbEntity
  8
レイヤ15
  6
CONTINUOUS
 62
     0
100
AcDbLine
 10
1278.438127555
 20
174.0126757456
 11
1279.049876209
 21
171.7295367488
  0
LINE
  5
80C
100
AcDbEntity
  8
レイヤ15
  6
CONTINUOUS
 62
     0
100
AcDbLine
 10
1263.174226974
 20
174.0126757456
 11
1262.56247832
 21
171.7295367488
  0
LINE
  5
80D
100
AcDbEntity
  8
レイヤ15
  6
CONTINUOUS
 62
     0
100
AcDbLine
 10
1260.018582377
 20
174.2280922157
 11
1261.871360867
 21
171.7295367488
  0
LINE
  5
80E
100
AcDbEntity
  8
レイヤ15
  6
CONTINUOUS
 62
     0
100
AcDbLine
 10
1255.433144588
 20
174.4867100881
 11
1259.504784897
 21
174.4867100881
  0
LINE
  5
80F
100
AcDbEntity
  8
レイヤ15
  6
CONTINUOUS
 62
     0
100
AcDbLine
 10
1255.090682924
 20
173.8063536169
 11
1256.630710558
 21
171.7295367488
  0
LINE
  5
810
100
AcDbEntity
  8
レイヤ15
  6
CONTINUOUS
 62
     0
100
AcDbLine
 10
1286.521671604
 20
173.8063536169
 11
1284.981643971
 21
171.7295367488
  0
LINE
  5
811
100
AcDbEntity
  8
レイヤ15
  6
CONTINUOUS
 62
     0
100
AcDbLine
 10
1286.179209941
 20
174.4867100881
 11
1282.107569632
 21
174.4867100881
  0
LINE
  5
812
100
AcDbEntity
  8
レイヤ15
  6
CONTINUOUS
 62
     0
100
AcDbLine
 10
1273.626131743
 20
174.4867100881
 11
1277.820289759
 21
174.4867100881
  0
LINE
  5
813
100
AcDbEntity
  8
レイヤ15
  6
CONTINUOUS
 62
     0
100
AcDbLine
 10
1273.214274874
 20
173.9499602226
 11
1273.8092259
 21
171.7295367488
  0
LINE
  5
814
100
AcDbEntity
  8
レイヤ15
  6
CONTINUOUS
 62
     0
100
AcDbLine
 10
1267.986222786
 20
174.4867100881
 11
1263.79206477
 21
174.4867100881
  0
LINE
  5
815
100
AcDbEntity
  8
レイヤ15
  6
CONTINUOUS
 62
     0
100
AcDbLine
 10
1268.398079655
 20
173.9499602226
 11
1267.803128629
 21
171.7295367488
  0
LINE
  5
816
100
AcDbEntity
  8
レイヤ15
  6
CONTINUOUS
 62
     0
100
AcDbLine
 10
1295.522471189
 20
171.7295367488
 11
1300.714093418
 21
171.7295367488
  0
LINE
  5
817
100
AcDbEntity
  8
レイヤ15
  6
CONTINUOUS
 62
     0
100
AcDbLine
 10
1294.882901461
 20
168.2576242911
 11
1294.882901461
 21
171.0899670207
  0
LINE
  5
818
100
AcDbEntity
  8
レイヤ15
  6
CONTINUOUS
 62
     0
100
AcDbLine
 10
1295.522471189
 20
167.6180414399
 11
1300.714093418
 21
167.6180414399
  0
LINE
  5
819
100
AcDbEntity
  8
レイヤ15
  6
CONTINUOUS
 62
     0
100
AcDbLine
 10
1300.714093418
 20
173.8471272369
 11
1300.714093418
 21
171.7295367488
  0
LINE
  5
81A
100
AcDbEntity
  8
レイヤ15
  6
CONTINUOUS
 62
     0
100
AcDbLine
 10
1307.076930337
 20
174.4867100881
 11
1301.353663146
 21
174.4867100881
  0
LINE
  5
81B
100
AcDbEntity
  8
レイヤ15
  6
CONTINUOUS
 62
     0
100
AcDbLine
 10
1307.716500065
 20
173.8471272369
 11
1307.716500065
 21
171.7295367488
  0
LINE
  5
81C
100
AcDbEntity
  8
レイヤ15
  6
CONTINUOUS
 62
     0
100
AcDbLine
 10
1310.541966265
 20
171.7295367488
 11
1307.716500065
 21
171.7295367488
  0
LINE
  5
81D
100
AcDbEntity
  8
レイヤ15
  6
CONTINUOUS
 62
     0
100
AcDbLine
 10
1310.541966265
 20
167.6180414399
 11
1307.716500065
 21
167.6180414399
  0
LINE
  5
81E
100
AcDbEntity
  8
レイヤ15
  6
CONTINUOUS
 62
     0
100
AcDbLine
 10
1311.181535993
 20
168.2576242911
 11
1311.181535993
 21
171.0899670207
  0
LINE
  5
81F
100
AcDbEntity
  8
レイヤ15
  6
CONTINUOUS
 62
     0
100
AcDbLine
 10
1294.882901461
 20
161.1709801589
 11
1294.882901461
 21
154.6623188225
  0
LINE
  5
820
100
AcDbEntity
  8
レイヤ15
  6
CONTINUOUS
 62
     0
100
AcDbLine
 10
1295.12520726
 20
161.672245033
 11
1300.714093418
 21
166.1011630393
  0
LINE
  5
821
100
AcDbEntity
  8
レイヤ15
  6
CONTINUOUS
 62
     0
100
AcDbLine
 10
1310.940280045
 20
163.5348790069
 11
1307.716500065
 21
166.1011630393
  0
LINE
  5
822
100
AcDbEntity
  8
レイヤ15
  6
CONTINUOUS
 62
     0
100
AcDbLine
 10
1311.181535993
 20
163.0344802606
 11
1311.181535993
 21
157.3099270014
  0
LINE
  5
823
100
AcDbEntity
  8
レイヤ15
  6
CONTINUOUS
 62
     0
100
AcDbLine
 10
1313.532469171
 20
167.6180414399
 11
1320.953346753
 21
167.6180414399
  0
LINE
  5
824
100
AcDbEntity
  8
レイヤ15
  6
CONTINUOUS
 62
     0
100
AcDbLine
 10
1312.921455413
 20
168.4465451259
 11
1314.671978336
 21
174.108382862
  0
LINE
  5
825
100
AcDbEntity
  8
レイヤ15
  6
CONTINUOUS
 62
     0
100
AcDbLine
 10
1320.953346753
 20
173.8471272369
 11
1320.953346753
 21
171.7295367488
  0
LINE
  5
826
100
AcDbEntity
  8
レイヤ15
  6
CONTINUOUS
 62
     0
100
AcDbLine
 10
1327.955858385
 20
173.8471272369
 11
1327.955858385
 21
171.7295367488
  0
LINE
  5
827
100
AcDbEntity
  8
レイヤ15
  6
CONTINUOUS
 62
     0
100
AcDbLine
 10
1327.316288657
 20
174.4867100881
 11
1321.592916481
 21
174.4867100881
  0
LINE
  5
828
100
AcDbEntity
  8
レイヤ15
  6
CONTINUOUS
 62
     0
100
AcDbLine
 10
1335.017476675
 20
160.8071408879
 11
1331.188667091
 21
160.8071408879
  0
LINE
  5
829
100
AcDbEntity
  8
レイヤ15
  6
CONTINUOUS
 62
     0
100
AcDbLine
 10
1335.657046403
 20
161.446710616
 11
1335.657046403
 21
164.2790533456
  0
LINE
  5
82A
100
AcDbEntity
  8
レイヤ15
  6
CONTINUOUS
 62
     0
100
AcDbLine
 10
1339.659921418
 20
159.4630549736
 11
1343.475502868
 21
159.4630549736
  0
LINE
  5
82B
100
AcDbEntity
  8
レイヤ15
  6
CONTINUOUS
 62
     0
100
AcDbLine
 10
1339.02035169
 20
162.9349674313
 11
1339.02035169
 21
160.1026247017
  0
LINE
  5
82C
100
AcDbEntity
  8
レイヤ15
  6
CONTINUOUS
 62
     0
100
AcDbLine
 10
1354.679416494
 20
163.5745502825
 11
1339.659921418
 21
163.5745502825
  0
LINE
  5
82D
100
AcDbEntity
  8
レイヤ15
  6
CONTINUOUS
 62
     0
100
AcDbLine
 10
1354.679416494
 20
159.4630549736
 11
1350.863835044
 21
159.4630549736
  0
LINE
  5
82E
100
AcDbEntity
  8
レイヤ15
  6
CONTINUOUS
 62
     0
100
AcDbLine
 10
1355.318986223
 20
160.1026247017
 11
1355.318986223
 21
162.9349674313
  0
LINE
  5
82F
100
AcDbEntity
  8
レイヤ15
  6
CONTINUOUS
 62
     0
100
AcDbLine
 10
1339.659921418
 20
167.6180414399
 11
1355.944172981
 21
167.6180414399
  0
LINE
  5
830
100
AcDbEntity
  8
レイヤ15
  6
CONTINUOUS
 62
     0
100
AcDbLine
 10
1339.02035169
 20
171.0899670207
 11
1339.02035169
 21
168.2576242911
  0
LINE
  5
831
100
AcDbEntity
  8
レイヤ15
  6
CONTINUOUS
 62
     0
100
AcDbLine
 10
1339.659921418
 20
171.7295367488
 11
1354.314802958
 21
171.7295367488
  0
LINE
  5
832
100
AcDbEntity
  8
レイヤ15
  6
CONTINUOUS
 62
     0
100
AcDbLine
 10
1372.704742314
 20
168.2576242911
 11
1372.704742314
 21
171.0899670207
  0
LINE
  5
833
100
AcDbEntity
  8
レイヤ15
  6
CONTINUOUS
 62
     0
100
AcDbLine
 10
1372.065172586
 20
167.6180414399
 11
1364.603560753
 21
167.6180414399
  0
LINE
  5
834
100
AcDbEntity
  8
レイヤ15
  6
CONTINUOUS
 62
     0
100
AcDbLine
 10
1376.883782464
 20
156.0541729945
 11
1384.908534812
 21
156.0541729945
  0
LINE
  5
835
100
AcDbEntity
  8
レイヤ15
  6
CONTINUOUS
 62
     0
100
AcDbLine
 10
1376.244212736
 20
159.5260854522
 11
1376.244212736
 21
156.6937427226
  0
LINE
  5
836
100
AcDbEntity
  8
レイヤ15
  6
CONTINUOUS
 62
     0
100
AcDbLine
 10
1381.502290586
 20
165.8761010557
 11
1381.502290586
 21
163.0437583261
  0
LINE
  5
837
100
AcDbEntity
  8
レイヤ15
  6
CONTINUOUS
 62
     0
100
AcDbLine
 10
1404.348850913
 20
166.5156707837
 11
1382.141860314
 21
166.5156707837
  0
LINE
  5
838
100
AcDbEntity
  8
レイヤ15
  6
CONTINUOUS
 62
     0
100
AcDbLine
 10
1404.988420641
 20
163.0437583261
 11
1404.988420641
 21
165.8761010557
  0
LINE
  5
839
100
AcDbEntity
  8
レイヤ15
  6
CONTINUOUS
 62
     0
100
AcDbLine
 10
1404.348850913
 20
162.4041754748
 11
1382.141860314
 21
162.4041754748
  0
LINE
  5
83A
100
AcDbEntity
  8
レイヤ15
  6
CONTINUOUS
 62
     0
100
AcDbLine
 10
1409.606928763
 20
160.1656683034
 11
1376.883782464
 21
160.1656683034
  0
LINE
  5
83B
100
AcDbEntity
  8
レイヤ15
  6
CONTINUOUS
 62
     0
100
AcDbLine
 10
1409.606928763
 20
156.0541729945
 11
1392.296971973
 21
156.0541729945
  0
LINE
  5
83C
100
AcDbEntity
  8
レイヤ15
  6
CONTINUOUS
 62
     0
100
AcDbLine
 10
1410.246498491
 20
156.6937427226
 11
1410.246498491
 21
159.5260854522
  0
LINE
  5
83D
100
AcDbEntity
  8
レイヤ15
  6
CONTINUOUS
 62
     0
100
AcDbLine
 10
1415.369985337
 20
168.2576242911
 11
1415.369985337
 21
171.0899670207
  0
LINE
  5
83E
100
AcDbEntity
  8
レイヤ15
  6
CONTINUOUS
 62
     0
100
AcDbLine
 10
1376.244212736
 20
169.6325233563
 11
1393.245303121
 21
174.4867100881
  0
LINE
  5
83F
100
AcDbEntity
  8
レイヤ15
  6
CONTINUOUS
 62
     0
100
AcDbLine
 10
1376.244212736
 20
169.6325233563
 11
1376.244212736
 21
165.5210280474
  0
LINE
  5
840
100
AcDbEntity
  8
レイヤ15
  6
CONTINUOUS
 62
     0
100
AcDbLine
 10
1409.088301964
 20
154.098574642
 11
1401.995818031
 21
154.098574642
  0
LINE
  5
841
100
AcDbEntity
  8
レイヤ15
  6
CONTINUOUS
 62
     0
100
AcDbLine
 10
1215.293005159
 20
173.8471272369
 11
1215.293005159
 21
169.4090230272
  0
LINE
  5
842
100
AcDbEntity
  8
レイヤ15
  6
CONTINUOUS
 62
     0
100
AcDbLine
 10
1107.488761165
 20
149.9020282127
 11
1107.488761165
 21
159.4427797104
  0
LINE
  5
843
100
AcDbEntity
  8
レイヤ15
  6
CONTINUOUS
 62
     0
100
AcDbLine
 10
1106.742631478
 20
160.8071015185
 11
1113.09885433
 21
167.1633112477
  0
LINE
  5
844
100
AcDbEntity
  8
レイヤ15
  6
CONTINUOUS
 62
     0
100
AcDbLine
 10
1107.488761165
 20
159.4427797104
 11
1114.159099682
 21
166.1130263649
  0
LINE
  5
845
100
AcDbEntity
  8
レイヤ15
  6
CONTINUOUS
 62
     0
100
AcDbLine
 10
1106.742631478
 20
173.7536248093
 11
1106.742631478
 21
174.6279020346
  0
LINE
  5
846
100
AcDbEntity
  8
レイヤ15
  6
CONTINUOUS
 62
     0
100
AcDbLine
 10
1120.809386029
 20
159.686844012
 11
1121.683702624
 21
159.686844012
  0
LINE
  5
847
100
AcDbEntity
  8
レイヤ15
  6
CONTINUOUS
 62
     0
100
AcDbLine
 10
1092.675876927
 20
159.686844012
 11
1091.801560332
 21
159.686844012
  0
LINE
  5
848
100
AcDbEntity
  8
レイヤ15
  6
CONTINUOUS
 62
     0
100
AcDbLine
 10
1354.314802958
 20
171.7295367488
 11
1353.199440385
 21
174.5493337491
  0
LINE
  5
849
100
AcDbEntity
  8
レイヤ15
  6
CONTINUOUS
 62
     0
100
AcDbLine
 10
1107.009608795
 20
149.9323820534
 11
1107.009608795
 21
159.6803349307
  0
LINE
  5
84A
100
AcDbEntity
  8
レイヤ15
  6
CONTINUOUS
 62
     0
100
AcDbLine
 10
1106.513658796
 20
149.9300723794
 11
1106.513658796
 21
159.6423565412
  0
LINE
  5
84B
100
AcDbEntity
  8
レイヤ15
  6
CONTINUOUS
 62
     0
100
AcDbLine
 10
1106.742631478
 20
160.8071015185
 11
1100.386408625
 21
167.1633112477
  0
LINE
  5
84C
100
AcDbEntity
  8
レイヤ15
  6
CONTINUOUS
 62
     0
100
AcDbLine
 10
1105.99650179
 20
159.4427797104
 11
1099.326268259
 21
166.1130263649
  0
LINE
  5
84D
100
AcDbEntity
  8
レイヤ15
  6
CONTINUOUS
 62
     0
100
AcDbLine
 10
1106.742631478
 20
160.1746576596
 11
1100.070193258
 21
166.8470958798
  0
LINE
  5
84E
100
AcDbEntity
  8
レイヤ15
  6
CONTINUOUS
 62
     0
100
AcDbLine
 10
1106.742631478
 20
159.4133707363
 11
1099.684582684
 21
166.4714064064
  0
LINE
  5
84F
100
AcDbEntity
  8
レイヤ15
  6
CONTINUOUS
 62
     0
100
AcDbLine
 10
1415.474655564
 20
161.0339482503
 11
1421.201177295
 21
167.6180414399
  0
LINE
  5
850
100
AcDbEntity
  8
レイヤ15
  6
CONTINUOUS
 62
     0
100
AcDbLine
 10
1440.390473826
 20
162.4041754748
 11
1440.390473826
 21
151.4327777804
  0
LINE
  5
851
100
AcDbEntity
  8
レイヤ15
  6
CONTINUOUS
 62
     0
100
AcDbLine
 10
1447.778910987
 20
162.4041754748
 11
1447.778910987
 21
151.4327777804
  0
LINE
  5
852
100
AcDbEntity
  8
レイヤ15
  6
CONTINUOUS
 62
     0
100
AcDbLine
 10
1416.118109744
 20
152.533770506
 11
1421.201177295
 21
158.3780724883
  0
LINE
  5
853
100
AcDbEntity
  8
レイヤ15
  6
CONTINUOUS
 62
     0
100
AcDbLine
 10
1433.796039596
 20
151.4396149403
 11
1440.390473826
 21
151.4396149403
  0
LINE
  5
854
100
AcDbEntity
  8
レイヤ15
  6
CONTINUOUS
 62
     0
100
AcDbLine
 10
1433.156469868
 20
150.8000320891
 11
1433.156469868
 21
147.9677024827
  0
LINE
  5
855
100
AcDbEntity
  8
レイヤ15
  6
CONTINUOUS
 62
     0
100
AcDbLine
 10
1454.373345217
 20
151.4396149403
 11
1447.778910987
 21
151.4396149403
  0
LINE
  5
856
100
AcDbEntity
  8
レイヤ15
  6
CONTINUOUS
 62
     0
100
AcDbLine
 10
1454.373345217
 20
147.3281196314
 11
1433.796039596
 21
147.3281196314
  0
LINE
  5
857
100
AcDbEntity
  8
レイヤ15
  6
CONTINUOUS
 62
     0
100
AcDbLine
 10
1455.012914945
 20
147.9677024827
 11
1455.012914945
 21
150.8000320891
  0
LINE
  5
858
100
AcDbEntity
  8
レイヤ15
  6
CONTINUOUS
 62
     0
100
AcDbLine
 10
1428.203583942
 20
147.9677024827
 11
1428.203583942
 21
159.2398433538
  0
LINE
  5
859
100
AcDbEntity
  8
レイヤ15
  6
CONTINUOUS
 62
     0
100
AcDbLine
 10
1421.840747023
 20
147.3281196314
 11
1427.564014214
 21
147.3281196314
  0
LINE
  5
85A
100
AcDbEntity
  8
レイヤ15
  6
CONTINUOUS
 62
     0
100
AcDbLine
 10
1421.201177295
 20
147.9677024827
 11
1421.201177295
 21
158.3780724883
  0
LINE
  5
85B
100
AcDbEntity
  8
レイヤ15
  6
CONTINUOUS
 62
     0
100
AcDbLine
 10
1372.669257322
 20
147.2298797475
 11
1364.603560753
 21
167.6180414399
  0
LINE
  5
85C
100
AcDbEntity
  8
レイヤ15
  6
CONTINUOUS
 62
     0
100
AcDbLine
 10
1388.445800546
 20
151.4327777804
 11
1401.995818031
 21
151.4327777804
  0
LINE
  5
85D
100
AcDbEntity
  8
レイヤ15
  6
CONTINUOUS
 62
     0
100
AcDbLine
 10
1401.995818031
 20
151.4327777804
 11
1401.995818031
 21
154.0939159246
  0
LINE
  5
85E
100
AcDbEntity
  8
レイヤ15
  6
CONTINUOUS
 62
     0
100
AcDbLine
 10
1318.121371472
 20
147.3281196314
 11
1320.953346753
 21
155.2574010797
  0
LINE
  5
85F
100
AcDbEntity
  8
レイヤ15
  6
CONTINUOUS
 62
     0
100
AcDbLine
 10
1330.787833667
 20
147.3281196314
 11
1327.955858385
 21
155.2574010797
  0
LINE
  5
860
100
AcDbEntity
  8
レイヤ15
  6
CONTINUOUS
 62
     0
100
AcDbLine
 10
1343.475502868
 20
159.4630549736
 11
1343.475502868
 21
151.4327777804
  0
LINE
  5
861
100
AcDbEntity
  8
レイヤ15
  6
CONTINUOUS
 62
     0
100
AcDbLine
 10
1350.863835044
 20
159.4630549736
 11
1350.863835044
 21
151.4327777804
  0
LINE
  5
862
100
AcDbEntity
  8
レイヤ15
  6
CONTINUOUS
 62
     0
100
AcDbLine
 10
1392.296971973
 20
156.0541729945
 11
1388.445800546
 21
151.4327777804
  0
LINE
  5
863
100
AcDbEntity
  8
レイヤ15
  6
CONTINUOUS
 62
     0
100
AcDbLine
 10
1192.907224795
 20
149.6791971641
 11
1183.57089257
 21
149.6791971641
  0
LINE
  5
864
100
AcDbEntity
  8
レイヤ15
  6
CONTINUOUS
 62
     0
100
AcDbLine
 10
1192.907224795
 20
147.9677024827
 11
1192.907224795
 21
149.6791971641
  0
LINE
  5
865
100
AcDbEntity
  8
レイヤ15
  6
CONTINUOUS
 62
     0
100
AcDbLine
 10
1199.656092228
 20
147.3281196314
 11
1193.546899508
 21
147.3281196314
  0
LINE
  5
866
100
AcDbEntity
  8
レイヤ15
  6
CONTINUOUS
 62
     0
100
AcDbLine
 10
1200.295661956
 20
149.6791971641
 11
1200.295661956
 21
147.9677024827
  0
LINE
  5
867
100
AcDbEntity
  8
レイヤ15
  6
CONTINUOUS
 62
     0
100
AcDbLine
 10
1209.632099166
 20
149.6791971641
 11
1200.295661956
 21
149.6791971641
  0
LINE
  5
868
100
AcDbEntity
  8
レイヤ15
  6
CONTINUOUS
 62
     0
100
AcDbLine
 10
1210.271668894
 20
154.3810110276
 11
1210.271668894
 21
150.3187668922
  0
LINE
  5
869
100
AcDbEntity
  8
レイヤ15
  6
CONTINUOUS
 62
     0
100
AcDbLine
 10
1227.588134766
 20
153.0453895436
 11
1227.588134766
 21
168.7694401759
  0
LINE
  5
86A
100
AcDbEntity
  8
レイヤ15
  6
CONTINUOUS
 62
     0
100
AcDbLine
 10
1215.079780255
 20
153.0453895436
 11
1227.588134766
 21
153.0453895436
  0
LINE
  5
86B
100
AcDbEntity
  8
レイヤ15
  6
CONTINUOUS
 62
     0
100
AcDbLine
 10
1214.440210527
 20
147.9677024827
 11
1214.440210527
 21
152.4058066924
  0
LINE
  5
86C
100
AcDbEntity
  8
レイヤ15
  6
CONTINUOUS
 62
     0
100
AcDbLine
 10
1247.484926437
 20
147.3281196314
 11
1215.079780255
 21
147.3281196314
  0
LINE
  5
86D
100
AcDbEntity
  8
レイヤ15
  6
CONTINUOUS
 62
     0
100
AcDbLine
 10
1248.124496165
 20
152.4058066924
 11
1248.124496165
 21
147.9677024827
  0
LINE
  5
86E
100
AcDbEntity
  8
レイヤ15
  6
CONTINUOUS
 62
     0
100
AcDbLine
 10
1234.976571926
 20
153.0453895436
 11
1247.484926437
 21
153.0453895436
  0
LINE
  5
86F
100
AcDbEntity
  8
レイヤ15
  6
CONTINUOUS
 62
     0
100
AcDbLine
 10
1234.976571926
 20
168.7694401759
 11
1234.976571926
 21
153.0453895436
  0
LINE
  5
870
100
AcDbEntity
  8
レイヤ15
  6
CONTINUOUS
 62
     0
100
AcDbLine
 10
1252.497968873
 20
153.0453895436
 11
1261.103919188
 21
153.0453895436
  0
LINE
  5
871
100
AcDbEntity
  8
レイヤ15
  6
CONTINUOUS
 62
     0
100
AcDbLine
 10
1274.500343352
 20
147.9677024827
 11
1274.500343352
 21
151.4327777804
  0
LINE
  5
872
100
AcDbEntity
  8
レイヤ15
  6
CONTINUOUS
 62
     0
100
AcDbLine
 10
1267.751580905
 20
147.3281196314
 11
1273.860773624
 21
147.3281196314
  0
LINE
  5
873
100
AcDbEntity
  8
レイヤ15
  6
CONTINUOUS
 62
     0
100
AcDbLine
 10
1267.112011177
 20
147.9677024827
 11
1267.112011177
 21
151.4327777804
  0
LINE
  5
874
100
AcDbEntity
  8
レイヤ15
  6
CONTINUOUS
 62
     0
100
AcDbLine
 10
1261.627375304
 20
147.4501780285
 11
1267.112011177
 21
151.4327777804
  0
LINE
  5
875
100
AcDbEntity
  8
レイヤ15
  6
CONTINUOUS
 62
     0
100
AcDbLine
 10
1279.984979224
 20
147.4501780285
 11
1274.500343352
 21
151.4327777804
  0
LINE
  5
876
100
AcDbEntity
  8
レイヤ15
  6
CONTINUOUS
 62
     0
100
AcDbLine
 10
1289.114385656
 20
153.0453895436
 11
1280.508435341
 21
153.0453895436
  0
LINE
  5
877
100
AcDbEntity
  8
レイヤ15
  6
CONTINUOUS
 62
     0
100
AcDbLine
 10
1253.966081656
 20
148.1051018395
 11
1261.103919188
 21
153.0453895436
  0
LINE
  5
878
100
AcDbEntity
  8
レイヤ15
  6
CONTINUOUS
 62
     0
100
AcDbLine
 10
1254.208807397
 20
147.3281196314
 11
1261.251633338
 21
147.3281196314
  0
LINE
  5
879
100
AcDbEntity
  8
レイヤ15
  6
CONTINUOUS
 62
     0
100
AcDbLine
 10
1287.646272873
 20
148.1051018395
 11
1280.508435341
 21
153.0453895436
  0
LINE
  5
87A
100
AcDbEntity
  8
レイヤ15
  6
CONTINUOUS
 62
     0
100
AcDbLine
 10
1287.403547132
 20
147.3281196314
 11
1280.36072119
 21
147.3281196314
  0
LINE
  5
87B
100
AcDbEntity
  8
レイヤ15
  6
CONTINUOUS
 62
     0
100
AcDbLine
 10
1378.219613918
 20
148.0274652974
 11
1384.908534812
 21
156.0541729945
  0
LINE
  5
87C
100
AcDbEntity
  8
レイヤ15
  6
CONTINUOUS
 62
     0
100
AcDbLine
 10
1313.346750385
 20
147.3281196314
 11
1318.121371472
 21
147.3281196314
  0
LINE
  5
87D
100
AcDbEntity
  8
レイヤ15
  6
CONTINUOUS
 62
     0
100
AcDbLine
 10
1312.945287049
 20
147.897913583
 11
1317.555921282
 21
160.8071408879
  0
LINE
  5
87E
100
AcDbEntity
  8
レイヤ15
  6
CONTINUOUS
 62
     0
100
AcDbLine
 10
1335.562454754
 20
147.3281196314
 11
1330.787833667
 21
147.3281196314
  0
LINE
  5
87F
100
AcDbEntity
  8
レイヤ15
  6
CONTINUOUS
 62
     0
100
AcDbLine
 10
1335.963918089
 20
147.897913583
 11
1331.353283856
 21
160.8071408879
  0
LINE
  5
880
100
AcDbEntity
  8
レイヤ15
  6
CONTINUOUS
 62
     0
100
AcDbLine
 10
1415.369985337
 20
160.7541233711
 11
1415.369985337
 21
152.8135953852
  0
LINE
  5
881
100
AcDbEntity
  8
レイヤ15
  6
CONTINUOUS
 62
     0
100
AcDbLine
 10
1327.955858385
 20
147.9677024827
 11
1327.955858385
 21
155.2574010797
  0
LINE
  5
882
100
AcDbEntity
  8
レイヤ15
  6
CONTINUOUS
 62
     0
100
AcDbLine
 10
1321.592916481
 20
147.3281196314
 11
1327.316288657
 21
147.3281196314
  0
LINE
  5
883
100
AcDbEntity
  8
レイヤ15
  6
CONTINUOUS
 62
     0
100
AcDbLine
 10
1320.953346753
 20
147.9677024827
 11
1320.953346753
 21
155.2574010797
  0
LINE
  5
884
100
AcDbEntity
  8
レイヤ15
  6
CONTINUOUS
 62
     0
100
AcDbLine
 10
1339.659921418
 20
151.4396149403
 11
1343.475502868
 21
151.4396149403
  0
LINE
  5
885
100
AcDbEntity
  8
レイヤ15
  6
CONTINUOUS
 62
     0
100
AcDbLine
 10
1339.02035169
 20
150.8000320891
 11
1339.02035169
 21
147.9677024827
  0
LINE
  5
886
100
AcDbEntity
  8
レイヤ15
  6
CONTINUOUS
 62
     0
100
AcDbLine
 10
1354.679416494
 20
151.4396149403
 11
1350.863835044
 21
151.4396149403
  0
LINE
  5
887
100
AcDbEntity
  8
レイヤ15
  6
CONTINUOUS
 62
     0
100
AcDbLine
 10
1354.679416494
 20
147.3281196314
 11
1339.659921418
 21
147.3281196314
  0
LINE
  5
888
100
AcDbEntity
  8
レイヤ15
  6
CONTINUOUS
 62
     0
100
AcDbLine
 10
1355.318986223
 20
147.9677024827
 11
1355.318986223
 21
150.8000320891
  0
LINE
  5
889
100
AcDbEntity
  8
レイヤ15
  6
CONTINUOUS
 62
     0
100
AcDbLine
 10
1300.714093418
 20
147.9677024827
 11
1300.714093418
 21
159.2735698435
  0
LINE
  5
88A
100
AcDbEntity
  8
レイヤ15
  6
CONTINUOUS
 62
     0
100
AcDbLine
 10
1307.076930337
 20
147.3281196314
 11
1301.353663146
 21
147.3281196314
  0
LINE
  5
88B
100
AcDbEntity
  8
レイヤ15
  6
CONTINUOUS
 62
     0
100
AcDbLine
 10
1307.716500065
 20
147.9677024827
 11
1307.716500065
 21
160.0682551778
  0
LINE
  5
88C
100
AcDbEntity
  8
レイヤ15
  6
CONTINUOUS
 62
     0
100
AcDbLine
 10
1409.088301964
 20
147.3281196314
 11
1378.547167686
 21
147.3281196314
  0
LINE
  5
88D
100
AcDbEntity
  8
レイヤ15
  6
CONTINUOUS
 62
     0
100
AcDbLine
 10
1409.727976678
 20
153.4589917908
 11
1409.727976678
 21
147.9677024827
  0
LINE
  5
88E
100
AcDbEntity
  8
レイヤ15
  6
CONTINUOUS
 62
     0
100
AcDbLine
 10
1363.85690614
 20
147.6510934204
 11
1355.944172981
 21
167.6180414399
  0
LINE
  5
88F
100
AcDbEntity
  8
レイヤ15
  6
CONTINUOUS
 62
     0
100
AcDbLine
 10
1364.458051291
 20
147.2298797475
 11
1372.625688472
 21
147.2298797475
  0
ARC
  5
890
100
AcDbEntity
  8
レイヤ15
  6
CONTINUOUS
 62
     0
100
AcDbCircle
 10
1431.877645367
 20
171.3031525557
 40
0.4263839880472
100
AcDbArc
 50
-41.01509094226
 51
90
  0
ARC
  5
891
100
AcDbEntity
  8
レイヤ15
  6
CONTINUOUS
 62
     0
100
AcDbCircle
 10
1432.438056268
 20
155.6541007127
 40
0.4263839880472
100
AcDbArc
 50
-134.6650390627
 51
0
  0
ARC
  5
892
100
AcDbEntity
  8
レイヤ15
  6
CONTINUOUS
 62
     0
100
AcDbCircle
 10
1432.438056268
 20
161.2741412233
 40
0.4263839880472
100
AcDbArc
 50
0
 51
45.06604003919
  0
ARC
  5
893
100
AcDbEntity
  8
レイヤ15
  6
CONTINUOUS
 62
     0
100
AcDbCircle
 10
1433.796039596
 20
147.9677024827
 40
0.6395759820708
100
AcDbArc
 50
180
 51
270
  0
ARC
  5
894
100
AcDbEntity
  8
レイヤ15
  6
CONTINUOUS
 62
     0
100
AcDbCircle
 10
1433.796039596
 20
150.8000320891
 40
0.6395759820708
100
AcDbArc
 50
90
 51
180
  0
ARC
  5
895
100
AcDbEntity
  8
レイヤ15
  6
CONTINUOUS
 62
     0
100
AcDbCircle
 10
1434.563901216
 20
163.0437583261
 40
0.6395759820708
100
AcDbArc
 50
180
 51
270
  0
ARC
  5
896
100
AcDbEntity
  8
レイヤ15
  6
CONTINUOUS
 62
     0
100
AcDbCircle
 10
1434.563901216
 20
165.8761010557
 40
0.6395759820708
100
AcDbArc
 50
90
 51
180
  0
ARC
  5
897
100
AcDbEntity
  8
レイヤ15
  6
CONTINUOUS
 62
     0
100
AcDbCircle
 10
1441.030043554
 20
173.8471272369
 40
0.6395759820708
100
AcDbArc
 50
90
 51
180
  0
ARC
  5
898
100
AcDbEntity
  8
レイヤ15
  6
CONTINUOUS
 62
     0
100
AcDbCircle
 10
1447.139341259
 20
173.8471272369
 40
0.6395759820708
100
AcDbArc
 50
0
 51
90
  0
ARC
  5
899
100
AcDbEntity
  8
レイヤ15
  6
CONTINUOUS
 62
     0
100
AcDbCircle
 10
1453.605483596
 20
165.8761010557
 40
0.6395759820708
100
AcDbArc
 50
0
 51
90
  0
ARC
  5
89A
100
AcDbEntity
  8
レイヤ15
  6
CONTINUOUS
 62
     0
100
AcDbCircle
 10
1453.605483596
 20
163.0437583261
 40
0.6395759820708
100
AcDbArc
 50
-90
 51
0
  0
ARC
  5
89B
100
AcDbEntity
  8
レイヤ15
  6
CONTINUOUS
 62
     0
100
AcDbCircle
 10
1454.373345217
 20
150.8000320891
 40
0.6395759820708
100
AcDbArc
 50
0
 51
90
  0
ARC
  5
89C
100
AcDbEntity
  8
レイヤ15
  6
CONTINUOUS
 62
     0
100
AcDbCircle
 10
1454.373345217
 20
147.9677024827
 40
0.6395759820708
100
AcDbArc
 50
-90
 51
0
  0
ARC
  5
89D
100
AcDbEntity
  8
レイヤ15
  6
CONTINUOUS
 62
     0
100
AcDbCircle
 10
1427.564014214
 20
147.9677024827
 40
0.6395759820708
100
AcDbArc
 50
-90
 51
0
  0
ARC
  5
89E
100
AcDbEntity
  8
レイヤ15
  6
CONTINUOUS
 62
     0
100
AcDbCircle
 10
1421.840747023
 20
147.9677024827
 40
0.6395759820708
100
AcDbArc
 50
180
 51
270
  0
ARC
  5
89F
100
AcDbEntity
  8
レイヤ15
  6
CONTINUOUS
 62
     0
100
AcDbCircle
 10
1421.840747023
 20
173.8471272369
 40
0.6395759820708
100
AcDbArc
 50
90
 51
180
  0
ARC
  5
8A0
100
AcDbEntity
  8
レイヤ15
  6
CONTINUOUS
 62
     0
100
AcDbCircle
 10
1427.564014214
 20
173.8471272369
 40
0.6395759820708
100
AcDbArc
 50
0
 51
90
  0
ARC
  5
8A1
100
AcDbEntity
  8
レイヤ15
  6
CONTINUOUS
 62
     0
100
AcDbCircle
 10
1106.742631478
 20
159.686844012
 40
9.813215111213
100
AcDbArc
 50
-74.24275207519
 51
29.52146911621
  0
ARC
  5
8A2
100
AcDbEntity
  8
レイヤ15
  6
CONTINUOUS
 62
     0
100
AcDbCircle
 10
1106.742631478
 20
159.686844012
 40
9.813215111213
100
AcDbArc
 50
61.03636169433
 51
118.9636230469
  0
CIRCLE
  5
8A3
100
AcDbEntity
  8
レイヤ15
  6
CONTINUOUS
 62
     0
100
AcDbCircle
 10
1106.742631478
 20
159.686844012
 40
14.06678407809
  0
ARC
  5
8A4
100
AcDbEntity
  8
レイヤ15
  6
CONTINUOUS
 62
     0
100
AcDbCircle
 10
1107.719938536
 20
144.679934034
 40
0.9795404539145
100
AcDbArc
 50
86.80894470217
 51
176.1456298828
  0
ARC
  5
8A5
100
AcDbEntity
  8
レイヤ15
  6
CONTINUOUS
 62
     0
100
AcDbCircle
 10
1106.742631478
 20
159.686844012
 40
9.813215111213
100
AcDbArc
 50
-94.36083984374
 51
-85.63917541504
  0
ARC
  5
8A6
100
AcDbEntity
  8
レイヤ15
  6
CONTINUOUS
 62
     0
100
AcDbCircle
 10
1106.742631478
 20
159.686844012
 40
9.813215111213
100
AcDbArc
 50
40.90832519531
 51
49.63009643555
  0
ARC
  5
8A7
100
AcDbEntity
  8
レイヤ15
  6
CONTINUOUS
 62
     0
100
AcDbCircle
 10
1106.742631478
 20
159.686844012
 40
9.813215111213
100
AcDbArc
 50
130.3698883057
 51
139.0916595459
  0
ARC
  5
8A8
100
AcDbEntity
  8
レイヤ15
  6
CONTINUOUS
 62
     0
100
AcDbCircle
 10
1106.742631478
 20
159.686844012
 40
9.813215111213
100
AcDbArc
 50
150.478515625
 51
254.2427368164
  0
ARC
  5
8A9
100
AcDbEntity
  8
レイヤ15
  6
CONTINUOUS
 62
     0
100
AcDbCircle
 10
1106.742631478
 20
159.686844012
 40
9.338457355168
100
AcDbArc
 50
-73.41914367675
 51
28.71322631836
  0
ARC
  5
8AA
100
AcDbEntity
  8
レイヤ15
  6
CONTINUOUS
 62
     0
100
AcDbCircle
 10
1106.742631478
 20
159.686844012
 40
9.374474654327
100
AcDbArc
 50
61.80863952636
 51
118.1913452148
  0
ARC
  5
8AB
100
AcDbEntity
  8
レイヤ15
  6
CONTINUOUS
 62
     0
100
AcDbCircle
 10
1106.742631478
 20
159.686844012
 40
9.338457355168
100
AcDbArc
 50
151.2867584228
 51
253.419128418
  0
CIRCLE
  5
8AC
100
AcDbEntity
  8
レイヤ15
  6
CONTINUOUS
 62
     0
100
AcDbCircle
 10
1106.742631478
 20
159.686844012
 40
12.53340824046
  0
CIRCLE
  5
8AD
100
AcDbEntity
  8
レイヤ15
  6
CONTINUOUS
 62
     0
100
AcDbCircle
 10
1106.742631478
 20
159.686844012
 40
13.62120318045
  0
CIRCLE
  5
8AE
100
AcDbEntity
  8
レイヤ15
  6
CONTINUOUS
 62
     0
100
AcDbCircle
 10
1106.742631478
 20
159.686844012
 40
13.07755135938
  0
ARC
  5
8AF
100
AcDbEntity
  8
レイヤ15
  6
CONTINUOUS
 62
     0
100
AcDbCircle
 10
1106.742631478
 20
159.686844012
 40
8.534063352121
100
AcDbArc
 50
153.345199585
 51
251.3209228516
  0
ARC
  5
8B0
100
AcDbEntity
  8
レイヤ15
  6
CONTINUOUS
 62
     0
100
AcDbCircle
 10
1106.742631478
 20
159.686844012
 40
8.534063352121
100
AcDbArc
 50
-71.32093811035
 51
26.65478515625
  0
ARC
  5
8B1
100
AcDbEntity
  8
レイヤ15
  6
CONTINUOUS
 62
     0
100
AcDbCircle
 10
1106.742631478
 20
159.686844012
 40
8.534063352121
100
AcDbArc
 50
63.52107238769
 51
116.4789123535
  0
ARC
  5
8B2
100
AcDbEntity
  8
レイヤ15
  6
CONTINUOUS
 62
     0
100
AcDbCircle
 10
1106.742631478
 20
159.686844012
 40
8.891266411336
100
AcDbArc
 50
-72.22804260254
 51
27.54460144043
  0
ARC
  5
8B3
100
AcDbEntity
  8
レイヤ15
  6
CONTINUOUS
 62
     0
100
AcDbCircle
 10
1106.742631478
 20
159.686844012
 40
8.913821821507
100
AcDbArc
 50
62.98234558105
 51
117.0176391602
  0
ARC
  5
8B4
100
AcDbEntity
  8
レイヤ15
  6
CONTINUOUS
 62
     0
100
AcDbCircle
 10
1106.742631478
 20
159.686844012
 40
8.924191568809
100
AcDbArc
 50
152.263092041
 51
252.4240417481
  0
ARC
  5
8B5
100
AcDbEntity
  8
レイヤ15
  6
CONTINUOUS
 62
     0
100
AcDbCircle
 10
1361.433428201
 20
173.8471272369
 40
0.6395759820708
100
AcDbArc
 50
19.96281433108
 51
90
  0
ARC
  5
8B6
100
AcDbEntity
  8
レイヤ15
  6
CONTINUOUS
 62
     0
100
AcDbCircle
 10
1183.57089257
 20
167.0277228852
 40
0.6395759820708
100
AcDbArc
 50
180
 51
270
  0
ARC
  5
8B7
100
AcDbEntity
  8
レイヤ15
  6
CONTINUOUS
 62
     0
100
AcDbCircle
 10
1183.57089257
 20
171.0899670207
 40
0.6395759820708
100
AcDbArc
 50
90
 51
180
  0
ARC
  5
8B8
100
AcDbEntity
  8
レイヤ15
  6
CONTINUOUS
 62
     0
100
AcDbCircle
 10
1132.406154205
 20
147.9677024827
 40
0.6395759820708
100
AcDbArc
 50
180
 51
270
  0
ARC
  5
8B9
100
AcDbEntity
  8
レイヤ15
  6
CONTINUOUS
 62
     0
100
AcDbCircle
 10
1132.406154205
 20
152.4058066924
 40
0.6395759820708
100
AcDbArc
 50
90
 51
180
  0
ARC
  5
8BA
100
AcDbEntity
  8
レイヤ15
  6
CONTINUOUS
 62
     0
100
AcDbCircle
 10
1164.811300388
 20
152.4058066924
 40
0.6395759820708
100
AcDbArc
 50
0
 51
90
  0
ARC
  5
8BB
100
AcDbEntity
  8
レイヤ15
  6
CONTINUOUS
 62
     0
100
AcDbCircle
 10
1164.811300388
 20
147.9677024827
 40
0.6395759820708
100
AcDbArc
 50
-90
 51
0
  0
ARC
  5
8BC
100
AcDbEntity
  8
レイヤ15
  6
CONTINUOUS
 62
     0
100
AcDbCircle
 10
1132.406154205
 20
169.4090230272
 40
0.6395759820708
100
AcDbArc
 50
180
 51
270
  0
ARC
  5
8BD
100
AcDbEntity
  8
レイヤ15
  6
CONTINUOUS
 62
     0
100
AcDbCircle
 10
1132.406154205
 20
173.8471272369
 40
0.6395759820708
100
AcDbArc
 50
90
 51
180
  0
ARC
  5
8BE
100
AcDbEntity
  8
レイヤ15
  6
CONTINUOUS
 62
     0
100
AcDbCircle
 10
1164.811300388
 20
173.8471272369
 40
0.6395759820708
100
AcDbArc
 50
0
 51
90
  0
ARC
  5
8BF
100
AcDbEntity
  8
レイヤ15
  6
CONTINUOUS
 62
     0
100
AcDbCircle
 10
1164.811300388
 20
169.4090230272
 40
0.6395759820708
100
AcDbArc
 50
-90
 51
0
  0
ARC
  5
8C0
100
AcDbEntity
  8
レイヤ15
  6
CONTINUOUS
 62
     0
100
AcDbCircle
 10
1335.017476675
 20
168.2576242911
 40
0.6395759820708
100
AcDbArc
 50
-90
 51
0
  0
ARC
  5
8C1
100
AcDbEntity
  8
レイヤ15
  6
CONTINUOUS
 62
     0
100
AcDbCircle
 10
1335.017476675
 20
171.0899670207
 40
0.6395759820708
100
AcDbArc
 50
0
 51
90
  0
ARC
  5
8C2
100
AcDbEntity
  8
レイヤ15
  6
CONTINUOUS
 62
     0
100
AcDbCircle
 10
1335.017476675
 20
164.2790533456
 40
0.6395759820708
100
AcDbArc
 50
0
 51
90
  0
ARC
  5
8C3
100
AcDbEntity
  8
レイヤ15
  6
CONTINUOUS
 62
     0
100
AcDbCircle
 10
1313.891623479
 20
164.2790533456
 40
0.6395759820708
100
AcDbArc
 50
90
 51
180
  0
ARC
  5
8C4
100
AcDbEntity
  8
レイヤ15
  6
CONTINUOUS
 62
     0
100
AcDbCircle
 10
1372.065172586
 20
171.0899670207
 40
0.6395759820708
100
AcDbArc
 50
0
 51
90
  0
ARC
  5
8C5
100
AcDbEntity
  8
レイヤ15
  6
CONTINUOUS
 62
     0
100
AcDbCircle
 10
1162.122524895
 20
163.1264735262
 40
0.6395759820708
100
AcDbArc
 50
0
 51
90
  0
ARC
  5
8C6
100
AcDbEntity
  8
レイヤ15
  6
CONTINUOUS
 62
     0
100
AcDbCircle
 10
1162.122524895
 20
158.6883561933
 40
0.6395759820708
100
AcDbArc
 50
-90
 51
0
  0
ARC
  5
8C7
100
AcDbEntity
  8
レイヤ15
  6
CONTINUOUS
 62
     0
100
AcDbCircle
 10
1135.727255449
 20
163.1264735262
 40
0.6395759820708
100
AcDbArc
 50
90
 51
180
  0
ARC
  5
8C8
100
AcDbEntity
  8
レイヤ15
  6
CONTINUOUS
 62
     0
100
AcDbCircle
 10
1135.727255449
 20
158.6883561933
 40
0.6395759820708
100
AcDbArc
 50
180
 51
270
  0
ARC
  5
8C9
100
AcDbEntity
  8
レイヤ15
  6
CONTINUOUS
 62
     0
100
AcDbCircle
 10
1170.204074226
 20
173.6736392238
 40
0.6395759820708
100
AcDbArc
 50
76.37803649892
 51
180
  0
ARC
  5
8CA
100
AcDbEntity
  8
レイヤ15
  6
CONTINUOUS
 62
     0
100
AcDbCircle
 10
1170.204074226
 20
169.2725422907
 40
0.6395759820708
100
AcDbArc
 50
180
 51
256.3780364992
  0
ARC
  5
8CB
100
AcDbEntity
  8
レイヤ15
  6
CONTINUOUS
 62
     0
100
AcDbCircle
 10
1180.302598872
 20
171.226434634
 40
0.6395759820708
100
AcDbArc
 50
0
 51
76.37803649892
  0
ARC
  5
8CC
100
AcDbEntity
  8
レイヤ15
  6
CONTINUOUS
 62
     0
100
AcDbCircle
 10
1180.302598872
 20
166.825350824
 40
0.6395759820708
100
AcDbArc
 50
-103.621963501
 51
0
  0
ARC
  5
8CD
100
AcDbEntity
  8
レイヤ15
  6
CONTINUOUS
 62
     0
100
AcDbCircle
 10
1170.204074226
 20
165.370518666
 40
0.6395759820708
100
AcDbArc
 50
76.37803649892
 51
180
  0
ARC
  5
8CE
100
AcDbEntity
  8
レイヤ15
  6
CONTINUOUS
 62
     0
100
AcDbCircle
 10
1170.204074226
 20
160.9694217328
 40
0.6395759820708
100
AcDbArc
 50
180
 51
256.3780364992
  0
ARC
  5
8CF
100
AcDbEntity
  8
レイヤ15
  6
CONTINUOUS
 62
     0
100
AcDbCircle
 10
1180.302598872
 20
158.5222302661
 40
0.6395759820708
100
AcDbArc
 50
-103.621963501
 51
0
  0
ARC
  5
8D0
100
AcDbEntity
  8
レイヤ15
  6
CONTINUOUS
 62
     0
100
AcDbCircle
 10
1180.302598872
 20
162.9233140761
 40
0.6395759820708
100
AcDbArc
 50
0
 51
76.37803649892
  0
ARC
  5
8D1
100
AcDbEntity
  8
レイヤ15
  6
CONTINUOUS
 62
     0
100
AcDbCircle
 10
1179.627964093
 20
155.7414090146
 40
0.6395759820708
100
AcDbArc
 50
-25.46334838856
 51
90
  0
ARC
  5
8D2
100
AcDbEntity
  8
レイヤ15
  6
CONTINUOUS
 62
     0
100
AcDbCircle
 10
1175.92618658
 20
147.9677024827
 40
0.6395759820708
100
AcDbArc
 50
-90
 51
-25.46334838856
  0
ARC
  5
8D3
100
AcDbEntity
  8
レイヤ15
  6
CONTINUOUS
 62
     0
100
AcDbCircle
 10
1170.762385424
 20
147.9677024827
 40
0.6395759820708
100
AcDbArc
 50
154.5324707032
 51
270
  0
ARC
  5
8D4
100
AcDbEntity
  8
レイヤ15
  6
CONTINUOUS
 62
     0
100
AcDbCircle
 10
1174.464792848
 20
155.7414090146
 40
0.6395759820708
100
AcDbArc
 50
90
 51
154.5324707032
  0
ARC
  5
8D5
100
AcDbEntity
  8
レイヤ15
  6
CONTINUOUS
 62
     0
100
AcDbCircle
 10
1184.555968531
 20
162.7354824626
 40
0.6395759820708
100
AcDbArc
 50
90
 51
180
  0
ARC
  5
8D6
100
AcDbEntity
  8
レイヤ15
  6
CONTINUOUS
 62
     0
100
AcDbCircle
 10
1184.555968531
 20
158.6732514503
 40
0.6395759820708
100
AcDbArc
 50
180
 51
270
  0
ARC
  5
8D7
100
AcDbEntity
  8
レイヤ15
  6
CONTINUOUS
 62
     0
100
AcDbCircle
 10
1183.57089257
 20
154.3810110276
 40
0.6395759820708
100
AcDbArc
 50
90
 51
180
  0
ARC
  5
8D8
100
AcDbEntity
  8
レイヤ15
  6
CONTINUOUS
 62
     0
100
AcDbCircle
 10
1183.57089257
 20
150.3187668922
 40
0.6395759820708
100
AcDbArc
 50
180
 51
270
  0
ARC
  5
8D9
100
AcDbEntity
  8
レイヤ15
  6
CONTINUOUS
 62
     0
100
AcDbCircle
 10
1193.546899508
 20
147.9677024827
 40
0.6395759820708
100
AcDbArc
 50
180
 51
270
  0
ARC
  5
8DA
100
AcDbEntity
  8
レイヤ15
  6
CONTINUOUS
 62
     0
100
AcDbCircle
 10
1199.656092228
 20
147.9677024827
 40
0.6395759820708
100
AcDbArc
 50
-90
 51
0
  0
ARC
  5
8DB
100
AcDbEntity
  8
レイヤ15
  6
CONTINUOUS
 62
     0
100
AcDbCircle
 10
1209.632099166
 20
150.3187668922
 40
0.6395759820708
100
AcDbArc
 50
-90
 51
0
  0
ARC
  5
8DC
100
AcDbEntity
  8
レイヤ15
  6
CONTINUOUS
 62
     0
100
AcDbCircle
 10
1209.632099166
 20
154.3810110276
 40
0.6395759820708
100
AcDbArc
 50
0
 51
90
  0
ARC
  5
8DD
100
AcDbEntity
  8
レイヤ15
  6
CONTINUOUS
 62
     0
100
AcDbCircle
 10
1208.646918219
 20
158.6732514503
 40
0.6395759820708
100
AcDbArc
 50
-90
 51
0
  0
ARC
  5
8DE
100
AcDbEntity
  8
レイヤ15
  6
CONTINUOUS
 62
     0
100
AcDbCircle
 10
1208.646918219
 20
162.7354824626
 40
0.6395759820708
100
AcDbArc
 50
0
 51
90
  0
ARC
  5
8DF
100
AcDbEntity
  8
レイヤ15
  6
CONTINUOUS
 62
     0
100
AcDbCircle
 10
1209.632099166
 20
167.0277228852
 40
0.6395759820708
100
AcDbArc
 50
-90
 51
0
  0
ARC
  5
8E0
100
AcDbEntity
  8
レイヤ15
  6
CONTINUOUS
 62
     0
100
AcDbCircle
 10
1209.632099166
 20
171.0899670207
 40
0.6395759820708
100
AcDbArc
 50
0
 51
90
  0
ARC
  5
8E1
100
AcDbEntity
  8
レイヤ15
  6
CONTINUOUS
 62
     0
100
AcDbCircle
 10
1198.671016266
 20
172.3691196
 40
0.6395759820708
100
AcDbArc
 50
-90
 51
-45.3950653076
  0
ARC
  5
8E2
100
AcDbEntity
  8
レイヤ15
  6
CONTINUOUS
 62
     0
100
AcDbCircle
 10
1194.531870485
 20
172.3691196
 40
0.6395759820708
100
AcDbArc
 50
-134.604949951
 51
-90
  0
ARC
  5
8E3
100
AcDbEntity
  8
レイヤ15
  6
CONTINUOUS
 62
     0
100
AcDbCircle
 10
1191.211714108
 20
173.8471272369
 40
0.6395759820708
100
AcDbArc
 50
45.39505004879
 51
90
  0
ARC
  5
8E4
100
AcDbEntity
  8
レイヤ15
  6
CONTINUOUS
 62
     0
100
AcDbCircle
 10
1201.991172643
 20
173.8471272369
 40
0.6395759820708
100
AcDbArc
 50
90
 51
134.6049346924
  0
ARC
  5
8E5
100
AcDbEntity
  8
レイヤ15
  6
CONTINUOUS
 62
     0
100
AcDbCircle
 10
1185.288975071
 20
174.060325895
 40
0.4263839880472
100
AcDbArc
 50
90
 51
225.3950500488
  0
ARC
  5
8E6
100
AcDbEntity
  8
レイヤ15
  6
CONTINUOUS
 62
     0
100
AcDbCircle
 10
1207.91391168
 20
174.060325895
 40
0.4263839880472
100
AcDbArc
 50
-45.39506530769
 51
90
  0
ARC
  5
8E7
100
AcDbEntity
  8
レイヤ15
  6
CONTINUOUS
 62
     0
100
AcDbCircle
 10
1215.079780255
 20
152.4058066924
 40
0.6395759820708
100
AcDbArc
 50
90
 51
180
  0
ARC
  5
8E8
100
AcDbEntity
  8
レイヤ15
  6
CONTINUOUS
 62
     0
100
AcDbCircle
 10
1215.079780255
 20
147.9677024827
 40
0.6395759820708
100
AcDbArc
 50
180
 51
270
  0
ARC
  5
8E9
100
AcDbEntity
  8
レイヤ15
  6
CONTINUOUS
 62
     0
100
AcDbCircle
 10
1247.484926437
 20
147.9677024827
 40
0.6395759820708
100
AcDbArc
 50
-90
 51
0
  0
ARC
  5
8EA
100
AcDbEntity
  8
レイヤ15
  6
CONTINUOUS
 62
     0
100
AcDbCircle
 10
1247.484926437
 20
152.4058066924
 40
0.6395759820708
100
AcDbArc
 50
0
 51
90
  0
ARC
  5
8EB
100
AcDbEntity
  8
レイヤ15
  6
CONTINUOUS
 62
     0
100
AcDbCircle
 10
1246.63223679
 20
169.4090230272
 40
0.6395759820708
100
AcDbArc
 50
-90
 51
0
  0
ARC
  5
8EC
100
AcDbEntity
  8
レイヤ15
  6
CONTINUOUS
 62
     0
100
AcDbCircle
 10
1246.63223679
 20
173.8471272369
 40
0.6395759820708
100
AcDbArc
 50
0
 51
90
  0
ARC
  5
8ED
100
AcDbEntity
  8
レイヤ15
  6
CONTINUOUS
 62
     0
100
AcDbCircle
 10
1252.497968873
 20
171.0899670207
 40
0.6395759820708
100
AcDbArc
 50
90
 51
180
  0
ARC
  5
8EE
100
AcDbEntity
  8
レイヤ15
  6
CONTINUOUS
 62
     0
100
AcDbCircle
 10
1252.497968873
 20
168.2576242911
 40
0.6395759820708
100
AcDbArc
 50
180
 51
270
  0
ARC
  5
8EF
100
AcDbEntity
  8
レイヤ15
  6
CONTINUOUS
 62
     0
100
AcDbCircle
 10
1252.497968873
 20
165.993736952
 40
0.6395759820708
100
AcDbArc
 50
90
 51
180
  0
ARC
  5
8F0
100
AcDbEntity
  8
レイヤ15
  6
CONTINUOUS
 62
     0
100
AcDbCircle
 10
1252.497968873
 20
163.1613942224
 40
0.6395759820708
100
AcDbArc
 50
180
 51
270
  0
ARC
  5
8F1
100
AcDbEntity
  8
レイヤ15
  6
CONTINUOUS
 62
     0
100
AcDbCircle
 10
1253.483044834
 20
161.378667095
 40
0.6395759820708
100
AcDbArc
 50
90
 51
180
  0
ARC
  5
8F2
100
AcDbEntity
  8
レイヤ15
  6
CONTINUOUS
 62
     0
100
AcDbCircle
 10
1253.483044834
 20
158.423176747
 40
0.6395759820708
100
AcDbArc
 50
180
 51
270
  0
ARC
  5
8F3
100
AcDbEntity
  8
レイヤ15
  6
CONTINUOUS
 62
     0
100
AcDbCircle
 10
1252.497968873
 20
156.5173020013
 40
0.6395759820708
100
AcDbArc
 50
90
 51
180
  0
ARC
  5
8F4
100
AcDbEntity
  8
レイヤ15
  6
CONTINUOUS
 62
     0
100
AcDbCircle
 10
1252.497968873
 20
153.6849592717
 40
0.6395759820708
100
AcDbArc
 50
180
 51
270
  0
ARC
  5
8F5
100
AcDbEntity
  8
レイヤ15
  6
CONTINUOUS
 62
     0
100
AcDbCircle
 10
1273.860773624
 20
147.9677024827
 40
0.6395759820708
100
AcDbArc
 50
-90
 51
0
  0
ARC
  5
8F6
100
AcDbEntity
  8
レイヤ15
  6
CONTINUOUS
 62
     0
100
AcDbCircle
 10
1267.751580905
 20
147.9677024827
 40
0.6395759820708
100
AcDbArc
 50
180
 51
270
  0
ARC
  5
8F7
100
AcDbEntity
  8
レイヤ15
  6
CONTINUOUS
 62
     0
100
AcDbCircle
 10
1261.251633338
 20
147.9677024827
 40
0.6395759820708
100
AcDbArc
 50
-90
 51
-54.01489257825
  0
ARC
  5
8F8
100
AcDbEntity
  8
レイヤ15
  6
CONTINUOUS
 62
     0
100
AcDbCircle
 10
1280.36072119
 20
147.9677024827
 40
0.6395759820708
100
AcDbArc
 50
-125.9851226807
 51
-90
  0
ARC
  5
8F9
100
AcDbEntity
  8
レイヤ15
  6
CONTINUOUS
 62
     0
100
AcDbCircle
 10
1289.114385656
 20
153.6849592717
 40
0.6395759820708
100
AcDbArc
 50
-90
 51
0
  0
ARC
  5
8FA
100
AcDbEntity
  8
レイヤ15
  6
CONTINUOUS
 62
     0
100
AcDbCircle
 10
1289.114385656
 20
156.5173020013
 40
0.6395759820708
100
AcDbArc
 50
0
 51
90
  0
ARC
  5
8FB
100
AcDbEntity
  8
レイヤ15
  6
CONTINUOUS
 62
     0
100
AcDbCircle
 10
1288.129309695
 20
158.423176747
 40
0.6395759820708
100
AcDbArc
 50
-90
 51
0
  0
ARC
  5
8FC
100
AcDbEntity
  8
レイヤ15
  6
CONTINUOUS
 62
     0
100
AcDbCircle
 10
1288.129309695
 20
161.378667095
 40
0.6395759820708
100
AcDbArc
 50
0
 51
90
  0
ARC
  5
8FD
100
AcDbEntity
  8
レイヤ15
  6
CONTINUOUS
 62
     0
100
AcDbCircle
 10
1289.114385656
 20
163.1613942224
 40
0.6395759820708
100
AcDbArc
 50
-90
 51
0
  0
ARC
  5
8FE
100
AcDbEntity
  8
レイヤ15
  6
CONTINUOUS
 62
     0
100
AcDbCircle
 10
1289.114385656
 20
165.993736952
 40
0.6395759820708
100
AcDbArc
 50
0
 51
90
  0
ARC
  5
8FF
100
AcDbEntity
  8
レイヤ15
  6
CONTINUOUS
 62
     0
100
AcDbCircle
 10
1289.114385656
 20
168.2576242911
 40
0.6395759820708
100
AcDbArc
 50
-90
 51
0
  0
ARC
  5
900
100
AcDbEntity
  8
レイヤ15
  6
CONTINUOUS
 62
     0
100
AcDbCircle
 10
1289.114385656
 20
171.0899670207
 40
0.6395759820708
100
AcDbArc
 50
0
 51
90
  0
ARC
  5
901
100
AcDbEntity
  8
レイヤ15
  6
CONTINUOUS
 62
     0
100
AcDbCircle
 10
1282.107569632
 20
173.8471272369
 40
0.6395759820708
100
AcDbArc
 50
90
 51
143.4417266846
  0
ARC
  5
902
100
AcDbEntity
  8
レイヤ15
  6
CONTINUOUS
 62
     0
100
AcDbCircle
 10
1277.820289759
 20
173.8471272369
 40
0.6395759820708
100
AcDbArc
 50
15.0010681151
 51
90
  0
ARC
  5
903
100
AcDbEntity
  8
レイヤ15
  6
CONTINUOUS
 62
     0
100
AcDbCircle
 10
1263.79206477
 20
173.8471272369
 40
0.6395759820708
100
AcDbArc
 50
90
 51
164.998916626
  0
ARC
  5
904
100
AcDbEntity
  8
レイヤ15
  6
CONTINUOUS
 62
     0
100
AcDbCircle
 10
1259.504784897
 20
173.8471272369
 40
0.6395759820708
100
AcDbArc
 50
36.55825805668
 51
90
  0
ARC
  5
905
100
AcDbEntity
  8
レイヤ15
  6
CONTINUOUS
 62
     0
100
AcDbCircle
 10
1255.433144588
 20
174.060325895
 40
0.4263839880472
100
AcDbArc
 50
90
 51
216.5582580565
  0
ARC
  5
906
100
AcDbEntity
  8
レイヤ15
  6
CONTINUOUS
 62
     0
100
AcDbCircle
 10
1286.179209941
 20
174.060325895
 40
0.4263839880472
100
AcDbArc
 50
-36.55827331553
 51
90
  0
ARC
  5
907
100
AcDbEntity
  8
レイヤ15
  6
CONTINUOUS
 62
     0
100
AcDbCircle
 10
1273.626131743
 20
174.060325895
 40
0.4263839880472
100
AcDbArc
 50
90
 51
195.0010681152
  0
ARC
  5
908
100
AcDbEntity
  8
レイヤ15
  6
CONTINUOUS
 62
     0
100
AcDbCircle
 10
1267.986222786
 20
174.060325895
 40
0.4263839880472
100
AcDbArc
 50
-15.00108337409
 51
90
  0
ARC
  5
909
100
AcDbEntity
  8
レイヤ15
  6
CONTINUOUS
 62
     0
100
AcDbCircle
 10
1254.208807397
 20
147.7545038245
 40
0.4263839880472
100
AcDbArc
 50
124.6880187988
 51
270
  0
ARC
  5
90A
100
AcDbEntity
  8
レイヤ15
  6
CONTINUOUS
 62
     0
100
AcDbCircle
 10
1287.403547132
 20
147.7545038245
 40
0.4263839880472
100
AcDbArc
 50
-90
 51
55.31196594248
  0
ARC
  5
90B
100
AcDbEntity
  8
レイヤ15
  6
CONTINUOUS
 62
     0
100
AcDbCircle
 10
1378.547167686
 20
147.7545038245
 40
0.4263839880472
100
AcDbArc
 50
140.1944274904
 51
270
  0
ARC
  5
90C
100
AcDbEntity
  8
レイヤ15
  6
CONTINUOUS
 62
     0
100
AcDbCircle
 10
1313.346750385
 20
147.7545038245
 40
0.4263839880472
100
AcDbArc
 50
160.345336914
 51
270
  0
ARC
  5
90D
100
AcDbEntity
  8
レイヤ15
  6
CONTINUOUS
 62
     0
100
AcDbCircle
 10
1335.562454754
 20
147.7545038245
 40
0.4263839880472
100
AcDbArc
 50
-90
 51
19.6546478272
  0
ARC
  5
90E
100
AcDbEntity
  8
レイヤ15
  6
CONTINUOUS
 62
     0
100
AcDbCircle
 10
1415.796330161
 20
160.7541233711
 40
0.4263839880472
100
AcDbArc
 50
138.9849090575
 51
180
  0
ARC
  5
90F
100
AcDbEntity
  8
レイヤ15
  6
CONTINUOUS
 62
     0
100
AcDbCircle
 10
1295.522471189
 20
171.0899670207
 40
0.6395759820708
100
AcDbArc
 50
90
 51
180
  0
ARC
  5
910
100
AcDbEntity
  8
レイヤ15
  6
CONTINUOUS
 62
     0
100
AcDbCircle
 10
1295.522471189
 20
168.2576242911
 40
0.6395759820708
100
AcDbArc
 50
180
 51
270
  0
ARC
  5
911
100
AcDbEntity
  8
レイヤ15
  6
CONTINUOUS
 62
     0
100
AcDbCircle
 10
1301.353663146
 20
173.8471272369
 40
0.6395759820708
100
AcDbArc
 50
90
 51
180
  0
ARC
  5
912
100
AcDbEntity
  8
レイヤ15
  6
CONTINUOUS
 62
     0
100
AcDbCircle
 10
1307.076930337
 20
173.8471272369
 40
0.6395759820708
100
AcDbArc
 50
0
 51
90
  0
ARC
  5
913
100
AcDbEntity
  8
レイヤ15
  6
CONTINUOUS
 62
     0
100
AcDbCircle
 10
1310.541966265
 20
171.0899670207
 40
0.6395759820708
100
AcDbArc
 50
0
 51
90
  0
ARC
  5
914
100
AcDbEntity
  8
レイヤ15
  6
CONTINUOUS
 62
     0
100
AcDbCircle
 10
1310.541966265
 20
168.2576242911
 40
0.6395759820708
100
AcDbArc
 50
-90
 51
0
  0
ARC
  5
915
100
AcDbEntity
  8
レイヤ15
  6
CONTINUOUS
 62
     0
100
AcDbCircle
 10
1295.522471189
 20
161.1709801589
 40
0.6395759820708
100
AcDbArc
 50
128.3954162597
 51
180
  0
ARC
  5
916
100
AcDbEntity
  8
レイヤ15
  6
CONTINUOUS
 62
     0
100
AcDbCircle
 10
1310.541966265
 20
163.0344802606
 40
0.6395759820708
100
AcDbArc
 50
0
 51
51.4783477784
  0
ARC
  5
917
100
AcDbEntity
  8
レイヤ15
  6
CONTINUOUS
 62
     0
100
AcDbCircle
 10
1313.532469171
 20
168.2576242911
 40
0.6395759820708
100
AcDbArc
 50
162.8192138671
 51
270
  0
ARC
  5
918
100
AcDbEntity
  8
レイヤ15
  6
CONTINUOUS
 62
     0
100
AcDbCircle
 10
1321.592916481
 20
173.8471272369
 40
0.6395759820708
100
AcDbArc
 50
90
 51
180
  0
ARC
  5
919
100
AcDbEntity
  8
レイヤ15
  6
CONTINUOUS
 62
     0
100
AcDbCircle
 10
1327.316288657
 20
173.8471272369
 40
0.6395759820708
100
AcDbArc
 50
0
 51
90
  0
ARC
  5
91A
100
AcDbEntity
  8
レイヤ15
  6
CONTINUOUS
 62
     0
100
AcDbCircle
 10
1335.017476675
 20
161.446710616
 40
0.6395759820708
100
AcDbArc
 50
-90
 51
0
  0
ARC
  5
91B
100
AcDbEntity
  8
レイヤ15
  6
CONTINUOUS
 62
     0
100
AcDbCircle
 10
1327.316288657
 20
147.9677024827
 40
0.6395759820708
100
AcDbArc
 50
-90
 51
0
  0
ARC
  5
91C
100
AcDbEntity
  8
レイヤ15
  6
CONTINUOUS
 62
     0
100
AcDbCircle
 10
1321.592916481
 20
147.9677024827
 40
0.6395759820708
100
AcDbArc
 50
180
 51
270
  0
ARC
  5
91D
100
AcDbEntity
  8
レイヤ15
  6
CONTINUOUS
 62
     0
100
AcDbCircle
 10
1339.659921418
 20
147.9677024827
 40
0.6395759820708
100
AcDbArc
 50
180
 51
270
  0
ARC
  5
91E
100
AcDbEntity
  8
レイヤ15
  6
CONTINUOUS
 62
     0
100
AcDbCircle
 10
1339.659921418
 20
150.8000320891
 40
0.6395759820708
100
AcDbArc
 50
90
 51
180
  0
ARC
  5
91F
100
AcDbEntity
  8
レイヤ15
  6
CONTINUOUS
 62
     0
100
AcDbCircle
 10
1339.659921418
 20
160.1026247017
 40
0.6395759820708
100
AcDbArc
 50
180
 51
270
  0
ARC
  5
920
100
AcDbEntity
  8
レイヤ15
  6
CONTINUOUS
 62
     0
100
AcDbCircle
 10
1339.659921418
 20
162.9349674313
 40
0.6395759820708
100
AcDbArc
 50
90
 51
180
  0
ARC
  5
921
100
AcDbEntity
  8
レイヤ15
  6
CONTINUOUS
 62
     0
100
AcDbCircle
 10
1354.679416494
 20
162.9349674313
 40
0.6395759820708
100
AcDbArc
 50
0
 51
90
  0
ARC
  5
922
100
AcDbEntity
  8
レイヤ15
  6
CONTINUOUS
 62
     0
100
AcDbCircle
 10
1354.679416494
 20
160.1026247017
 40
0.6395759820708
100
AcDbArc
 50
-90
 51
0
  0
ARC
  5
923
100
AcDbEntity
  8
レイヤ15
  6
CONTINUOUS
 62
     0
100
AcDbCircle
 10
1354.679416494
 20
150.8000320891
 40
0.6395759820708
100
AcDbArc
 50
0
 51
90
  0
ARC
  5
924
100
AcDbEntity
  8
レイヤ15
  6
CONTINUOUS
 62
     0
100
AcDbCircle
 10
1354.679416494
 20
147.9677024827
 40
0.6395759820708
100
AcDbArc
 50
-90
 51
0
  0
ARC
  5
925
100
AcDbEntity
  8
レイヤ15
  6
CONTINUOUS
 62
     0
100
AcDbCircle
 10
1339.659921418
 20
168.2576242911
 40
0.6395759820708
100
AcDbArc
 50
180
 51
270
  0
ARC
  5
926
100
AcDbEntity
  8
レイヤ15
  6
CONTINUOUS
 62
     0
100
AcDbCircle
 10
1339.659921418
 20
171.0899670207
 40
0.6395759820708
100
AcDbArc
 50
90
 51
180
  0
ARC
  5
927
100
AcDbEntity
  8
レイヤ15
  6
CONTINUOUS
 62
     0
100
AcDbCircle
 10
1372.065172586
 20
168.2576242911
 40
0.6395759820708
100
AcDbArc
 50
-90
 51
0
  0
ARC
  5
928
100
AcDbEntity
  8
レイヤ15
  6
CONTINUOUS
 62
     0
100
AcDbCircle
 10
1301.353663146
 20
147.9677024827
 40
0.6395759820708
100
AcDbArc
 50
180
 51
270
  0
ARC
  5
929
100
AcDbEntity
  8
レイヤ15
  6
CONTINUOUS
 62
     0
100
AcDbCircle
 10
1307.076930337
 20
147.9677024827
 40
0.6395759820708
100
AcDbArc
 50
-90
 51
0
  0
ARC
  5
92A
100
AcDbEntity
  8
レイヤ15
  6
CONTINUOUS
 62
     0
100
AcDbCircle
 10
1376.883782464
 20
156.6937427226
 40
0.6395759820708
100
AcDbArc
 50
180
 51
270
  0
ARC
  5
92B
100
AcDbEntity
  8
レイヤ15
  6
CONTINUOUS
 62
     0
100
AcDbCircle
 10
1376.883782464
 20
159.5260854522
 40
0.6395759820708
100
AcDbArc
 50
90
 51
180
  0
ARC
  5
92C
100
AcDbEntity
  8
レイヤ15
  6
CONTINUOUS
 62
     0
100
AcDbCircle
 10
1382.141860314
 20
163.0437583261
 40
0.6395759820708
100
AcDbArc
 50
180
 51
270
  0
ARC
  5
92D
100
AcDbEntity
  8
レイヤ15
  6
CONTINUOUS
 62
     0
100
AcDbCircle
 10
1382.141860314
 20
165.8761010557
 40
0.6395759820708
100
AcDbArc
 50
90
 51
180
  0
ARC
  5
92E
100
AcDbEntity
  8
レイヤ15
  6
CONTINUOUS
 62
     0
100
AcDbCircle
 10
1404.348850913
 20
165.8761010557
 40
0.6395759820708
100
AcDbArc
 50
0
 51
90
  0
ARC
  5
92F
100
AcDbEntity
  8
レイヤ15
  6
CONTINUOUS
 62
     0
100
AcDbCircle
 10
1404.348850913
 20
163.0437583261
 40
0.6395759820708
100
AcDbArc
 50
-90
 51
0
  0
ARC
  5
930
100
AcDbEntity
  8
レイヤ15
  6
CONTINUOUS
 62
     0
100
AcDbCircle
 10
1409.606928763
 20
159.5260854522
 40
0.6395759820708
100
AcDbArc
 50
0
 51
90
  0
ARC
  5
931
100
AcDbEntity
  8
レイヤ15
  6
CONTINUOUS
 62
     0
100
AcDbCircle
 10
1409.606928763
 20
156.6937427226
 40
0.6395759820708
100
AcDbArc
 50
-90
 51
0
  0
ARC
  5
932
100
AcDbEntity
  8
レイヤ15
  6
CONTINUOUS
 62
     0
100
AcDbCircle
 10
1409.088301964
 20
147.9677024827
 40
0.6395759820708
100
AcDbArc
 50
-90
 51
0
  0
ARC
  5
933
100
AcDbEntity
  8
レイヤ15
  6
CONTINUOUS
 62
     0
100
AcDbCircle
 10
1409.088301964
 20
153.4589917908
 40
0.6395759820708
100
AcDbArc
 50
0
 51
90
  0
ARC
  5
934
100
AcDbEntity
  8
レイヤ15
  6
CONTINUOUS
 62
     0
100
AcDbCircle
 10
1215.932574887
 20
173.8471272369
 40
0.6395759820708
100
AcDbArc
 50
90
 51
180
  0
ARC
  5
935
100
AcDbEntity
  8
レイヤ15
  6
CONTINUOUS
 62
     0
100
AcDbCircle
 10
1215.932574887
 20
169.4090230272
 40
0.6395759820708
100
AcDbArc
 50
180
 51
270
  0
ARC
  5
936
100
AcDbEntity
  8
レイヤ15
  6
CONTINUOUS
 62
     0
100
AcDbCircle
 10
1105.76532442
 20
144.679934034
 40
0.9795404539145
100
AcDbArc
 50
3.854354858389
 51
93.19104003907
  0
ARC
  5
937
100
AcDbEntity
  8
レイヤ15
  6
CONTINUOUS
 62
     0
100
AcDbCircle
 10
1107.719938536
 20
174.69375399
 40
0.9795404539145
100
AcDbArc
 50
-176.1456451416
 51
-86.80895996093
  0
ARC
  5
938
100
AcDbEntity
  8
レイヤ15
  6
CONTINUOUS
 62
     0
100
AcDbCircle
 10
1105.76532442
 20
174.69375399
 40
0.9795404539145
100
AcDbArc
 50
-93.19105529783
 51
-3.854370117193
  0
ARC
  5
939
100
AcDbEntity
  8
レイヤ15
  6
CONTINUOUS
 62
     0
100
AcDbCircle
 10
1121.749528333
 20
160.6641641933
 40
0.9795404539145
100
AcDbArc
 50
176.8089447022
 51
266.1456298828
  0
ARC
  5
93A
100
AcDbEntity
  8
レイヤ15
  6
CONTINUOUS
 62
     0
100
AcDbCircle
 10
1121.749528333
 20
158.7095107075
 40
0.9795404539145
100
AcDbArc
 50
93.85435485843
 51
183.191040039
  0
ARC
  5
93B
100
AcDbEntity
  8
レイヤ15
  6
CONTINUOUS
 62
     0
100
AcDbCircle
 10
1091.735734623
 20
160.6641641933
 40
0.9795404539145
100
AcDbArc
 50
-86.14564514157
 51
3.19104003907
  0
ARC
  5
93C
100
AcDbEntity
  8
レイヤ15
  6
CONTINUOUS
 62
     0
100
AcDbCircle
 10
1091.735734623
 20
158.7095107075
 40
0.9795404539145
100
AcDbArc
 50
-3.191055297832
 51
86.14562988281
  0
ARC
  5
93D
100
AcDbEntity
  8
レイヤ15
  6
CONTINUOUS
 62
     0
100
AcDbCircle
 10
1364.458051291
 20
147.8694494756
 40
0.6395759820708
100
AcDbArc
 50
-160.0371856689
 51
-90
  0
ARC
  5
93E
100
AcDbEntity
  8
レイヤ15
  6
CONTINUOUS
 62
     0
100
AcDbCircle
 10
1415.796330161
 20
152.8135953852
 40
0.4263839880472
100
AcDbArc
 50
180
 51
318.9849090575
  0
ARC
  5
93F
100
AcDbEntity
  8
レイヤ15
  6
CONTINUOUS
 62
     0
100
AcDbCircle
 10
1416.009555065
 20
171.0899670207
 40
0.6395759820708
100
AcDbArc
 50
90
 51
180
  0
ARC
  5
940
100
AcDbEntity
  8
レイヤ15
  6
CONTINUOUS
 62
     0
100
AcDbCircle
 10
1416.009555065
 20
168.2576242911
 40
0.6395759820708
100
AcDbArc
 50
180
 51
270
  0
LINE
  5
941
100
AcDbEntity
  8
レイヤ15
  6
CONTINUOUS
 62
     0
100
AcDbLine
 10
90
 20
1536
 11
239.6032583611
 21
1536
  0
LINE
  5
942
100
AcDbEntity
  8
レイヤ15
  6
CONTINUOUS
 62
     0
100
AcDbLine
 10
89.60325836109
 20
1506
 11
239.2065167222
 21
1506
  0
LINE
  5
943
100
AcDbEntity
  8
レイヤ15
  6
CONTINUOUS
 62
     0
100
AcDbLine
 10
240
 20
1566
 11
240
 21
1506
  0
LINE
  5
944
100
AcDbEntity
  8
レイヤ15
  6
CONTINUOUS
 62
     0
100
AcDbLine
 10
90
 20
1566
 11
240
 21
1566
  0
LINE
  5
945
100
AcDbEntity
  8
レイヤ15
  6
CONTINUOUS
 62
     0
100
AcDbLine
 10
90
 20
1566
 11
90
 21
1506
  0
LINE
  5
946
100
AcDbEntity
  8
レイヤ1
  6
CONTINUOUS
 62
     0
100
AcDbLine
 10
60
 20
1686
 11
2460
 21
1686
  0
LINE
  5
947
100
AcDbEntity
  8
レイヤ1
  6
CONTINUOUS
 62
     0
100
AcDbLine
 10
60
 20
96
 11
2460
 21
96
  0
LINE
  5
948
100
AcDbEntity
  8
レイヤ1
  6
CONTINUOUS
 62
     0
100
AcDbLine
 10
60
 20
1596
 11
2460
 21
1596
  0
LINE
  5
949
100
AcDbEntity
  8
レイヤ1
  6
CONTINUOUS
 62
     0
100
AcDbLine
 10
60
 20
186
 11
2460
 21
186
  0
LINE
  5
94A
100
AcDbEntity
  8
レイヤ1
  6
CONTINUOUS
 62
     0
100
AcDbLine
 10
2460
 20
96
 11
2460
 21
1686
  0
LINE
  5
94B
100
AcDbEntity
  8
レイヤ1
  6
CONTINUOUS
 62
     0
100
AcDbLine
 10
60
 20
1686
 11
60
 21
96
  0
ENDSEC
  0
SECTION
  2
OBJECTS
  0
DICTIONARY
  5
94C
100
AcDbDictionary
  3
ACAD_GROUP
350
94D
  3
ACAD_IMAGE_DICT
350
94E
  3
ACAD_MLINESTYLE
350
94F
  0
DICTIONARY
  5
94D
330
94C
100
AcDbDictionary
  0
DICTIONARY
  5
94E
100
AcDbDictionary
  0
DICTIONARY
  5
94F
100
AcDbDictionary
  3
STANDARD
350
950
  0
RASTERVARIABLES
  5
951
100
AcDbRasterVariables
 90
     0
 70
     1
 71
     1
 72
     0
  0
MLINESTYLE
  5
950
100
AcDbMlineStyle
  2
STANDARD
 70
     0
  3

 62
   256
 51
90
 52
90
 71
     0
  0
ENDSEC
  0
EOF
