  0
SECTION
  2
HEADER
  9
$ACADVER
  1
AC1015
  9
$ACADMAINTVER
 70
    13
  9
$DWGCODEPAGE
  3
ANSI_932
  9
$INSBASE
 10
0.0
 20
0.0
 30
0.0
  9
$EXTMIN
 10
23.089217
 20
21.276456
 30
0.0
  9
$EXTMAX
 10
835.8939499999999
 20
578.774161
 30
0.0
  9
$LIMMIN
 10
0.0
 20
0.0
  9
$LIMMAX
 10
891.0
 20
630.0
  9
$ORTHOMODE
 70
     0
  9
$REGENMODE
 70
     1
  9
$FILLMODE
 70
     1
  9
$QTEXTMODE
 70
     0
  9
$MIRRTEXT
 70
     1
  9
$LTSCALE
 40
3.0
  9
$ATTMODE
 70
     1
  9
$TEXTSIZE
 40
3.5
  9
$TRACEWID
 40
0.05
  9
$TEXTSTYLE
  7
STANDARD
  9
$CLAYER
  8
0
  9
$CELTYPE
  6
CONTINUOUS
  9
$CECOLOR
 62
   256
  9
$CELTSCALE
 40
1.0
  9
$DISPSILH
 70
     0
  9
$DIMSCALE
 40
1.0
  9
$DIMASZ
 40
7.5
  9
$DIMEXO
 40
3.0
  9
$DIMDLI
 40
0.38
  9
$DIMRND
 40
0.0
  9
$DIMDLE
 40
0.0
  9
$DIMEXE
 40
3.0
  9
$DIMTP
 40
0.0
  9
$DIMTM
 40
0.0
  9
$DIMTXT
 40
9.0
  9
$DIMCEN
 40
0.09
  9
$DIMTSZ
 40
0.0
  9
$DIMTOL
 70
     0
  9
$DIMLIM
 70
     0
  9
$DIMTIH
 70
     0
  9
$DIMTOH
 70
     0
  9
$DIMSE1
 70
     0
  9
$DIMSE2
 70
     0
  9
$DIMTAD
 70
     1
  9
$DIMZIN
 70
     0
  9
$DIMBLK
  1

  9
$DIMASO
 70
     1
  9
$DIMSHO
 70
     1
  9
$DIMPOST
  1

  9
$DIMAPOST
  1

  9
$DIMALT
 70
     0
  9
$DIMALTD
 70
     2
  9
$DIMALTF
 40
25.4
  9
$DIMLFAC
 40
1.0
  9
$DIMTOFL
 70
     1
  9
$DIMTVP
 40
1.0
  9
$DIMTIX
 70
     0
  9
$DIMSOXD
 70
     0
  9
$DIMSAH
 70
     0
  9
$DIMBLK1
  1

  9
$DIMBLK2
  1

  9
$DIMSTYLE
  2
Standard
  9
$DIMCLRD
 70
     3
  9
$DIMCLRE
 70
     3
  9
$DIMCLRT
 70
     7
  9
$DIMTFAC
 40
1.0
  9
$DIMGAP
 40
3.0
  9
$DIMJUST
 70
     0
  9
$DIMSD1
 70
     0
  9
$DIMSD2
 70
     0
  9
$DIMTOLJ
 70
     1
  9
$DIMTZIN
 70
     0
  9
$DIMALTZ
 70
     0
  9
$DIMALTTZ
 70
     0
  9
$DIMUPT
 70
     0
  9
$DIMDEC
 70
     4
  9
$DIMTDEC
 70
     4
  9
$DIMALTU
 70
     2
  9
$DIMALTTD
 70
     2
  9
$DIMTXSTY
  7
STANDARD
  9
$DIMAUNIT
 70
     0
  9
$DIMADEC
 70
     0
  9
$DIMALTRND
 40
0.0
  9
$DIMAZIN
 70
     0
  9
$DIMDSEP
 70
    46
  9
$DIMATFIT
 70
     3
  9
$DIMFRAC
 70
     0
  9
$DIMLDRBLK
  1

  9
$DIMLUNIT
 70
     2
  9
$DIMLWD
 70
    -2
  9
$DIMLWE
 70
    -2
  9
$DIMTMOVE
 70
     0
  9
$LUNITS
 70
     2
  9
$LUPREC
 70
     6
  9
$SKETCHINC
 40
0.1
  9
$FILLETRAD
 40
0.0
  9
$AUNITS
 70
     0
  9
$AUPREC
 70
     6
  9
$MENU
  1
.
  9
$ELEVATION
 40
0.0
  9
$PELEVATION
 40
0.0
  9
$THICKNESS
 40
0.0
  9
$LIMCHECK
 70
     0
  9
$CHAMFERA
 40
0.0
  9
$CHAMFERB
 40
0.0
  9
$CHAMFERC
 40
0.0
  9
$CHAMFERD
 40
0.0
  9
$SKPOLY
 70
     0
  9
$TDCREATE
 40
2453504.735636574
  9
$TDUCREATE
 40
2453504.360636574
  9
$TDUPDATE
 40
2454711.674130590
  9
$TDUUPDATE
 40
2454711.299130590
  9
$TDINDWG
 40
0.0006067593
  9
$TDUSRTIMER
 40
0.0006067593
  9
$USRTIMER
 70
     1
  9
$ANGBASE
 50
0.0
  9
$ANGDIR
 70
     0
  9
$PDMODE
 70
    35
  9
$PDSIZE
 40
1.5
  9
$PLINEWID
 40
0.0
  9
$SPLFRAME
 70
     0
  9
$SPLINETYPE
 70
     6
  9
$SPLINESEGS
 70
     8
  9
$HANDSEED
  5
735
  9
$SURFTAB1
 70
     6
  9
$SURFTAB2
 70
     6
  9
$SURFTYPE
 70
     6
  9
$SURFU
 70
     6
  9
$SURFV
 70
     6
  9
$UCSBASE
  2

  9
$UCSNAME
  2

  9
$UCSORG
 10
0.0
 20
0.0
 30
0.0
  9
$UCSXDIR
 10
1.0
 20
0.0
 30
0.0
  9
$UCSYDIR
 10
0.0
 20
1.0
 30
0.0
  9
$UCSORTHOREF
  2

  9
$UCSORTHOVIEW
 70
     0
  9
$UCSORGTOP
 10
0.0
 20
0.0
 30
0.0
  9
$UCSORGBOTTOM
 10
0.0
 20
0.0
 30
0.0
  9
$UCSORGLEFT
 10
0.0
 20
0.0
 30
0.0
  9
$UCSORGRIGHT
 10
0.0
 20
0.0
 30
0.0
  9
$UCSORGFRONT
 10
0.0
 20
0.0
 30
0.0
  9
$UCSORGBACK
 10
0.0
 20
0.0
 30
0.0
  9
$PUCSBASE
  2

  9
$PUCSNAME
  2

  9
$PUCSORG
 10
0.0
 20
0.0
 30
0.0
  9
$PUCSXDIR
 10
1.0
 20
0.0
 30
0.0
  9
$PUCSYDIR
 10
0.0
 20
1.0
 30
0.0
  9
$PUCSORTHOREF
  2

  9
$PUCSORTHOVIEW
 70
     0
  9
$PUCSORGTOP
 10
0.0
 20
0.0
 30
0.0
  9
$PUCSORGBOTTOM
 10
0.0
 20
0.0
 30
0.0
  9
$PUCSORGLEFT
 10
0.0
 20
0.0
 30
0.0
  9
$PUCSORGRIGHT
 10
0.0
 20
0.0
 30
0.0
  9
$PUCSORGFRONT
 10
0.0
 20
0.0
 30
0.0
  9
$PUCSORGBACK
 10
0.0
 20
0.0
 30
0.0
  9
$USERI1
 70
     0
  9
$USERI2
 70
     0
  9
$USERI3
 70
     0
  9
$USERI4
 70
     0
  9
$USERI5
 70
     0
  9
$USERR1
 40
0.0
  9
$USERR2
 40
0.0
  9
$USERR3
 40
0.0
  9
$USERR4
 40
0.0
  9
$USERR5
 40
0.0
  9
$WORLDVIEW
 70
     1
  9
$SHADEDGE
 70
     3
  9
$SHADEDIF
 70
    70
  9
$TILEMODE
 70
     1
  9
$MAXACTVP
 70
    64
  9
$PINSBASE
 10
0.0
 20
0.0
 30
0.0
  9
$PLIMCHECK
 70
     0
  9
$PEXTMIN
 10
1.000000000000000E+20
 20
1.000000000000000E+20
 30
1.000000000000000E+20
  9
$PEXTMAX
 10
-1.000000000000000E+20
 20
-1.000000000000000E+20
 30
-1.000000000000000E+20
  9
$PLIMMIN
 10
0.0
 20
0.0
  9
$PLIMMAX
 10
12.0
 20
9.0
  9
$UNITMODE
 70
     0
  9
$VISRETAIN
 70
     1
  9
$PLINEGEN
 70
     0
  9
$PSLTSCALE
 70
     1
  9
$TREEDEPTH
 70
  3020
  9
$CMLSTYLE
  2
STANDARD
  9
$CMLJUST
 70
     0
  9
$CMLSCALE
 40
1.0
  9
$PROXYGRAPHICS
 70
     1
  9
$MEASUREMENT
 70
     1
  9
$CELWEIGHT
370
    -1
  9
$ENDCAPS
280
     0
  9
$JOINSTYLE
280
     0
  9
$LWDISPLAY
290
     0
  9
$INSUNITS
 70
     0
  9
$HYPERLINKBASE
  1

  9
$STYLESHEET
  1

  9
$XEDIT
290
     1
  9
$CEPSNTYPE
380
     0
  9
$PSTYLEMODE
290
     1
  9
$FINGERPRINTGUID
  2
{0A00E182-6B3D-41E8-A541-D1A0A232DCE2}
  9
$VERSIONGUID
  2
{783D7CD8-82F3-4BFA-8D62-1004A7DB50C2}
  9
$EXTNAMES
290
     1
  9
$PSVPSCALE
 40
0.0
  9
$OLESTARTUP
290
     0
  0
ENDSEC
  0
SECTION
  2
CLASSES
  0
CLASS
  1
DICTIONARYVAR
  2
AcDbDictionaryVar
  3
AutoCAD 2000
 90
        0
280
     0
281
     1
  0
CLASS
  1
HATCH
  2
AcDbHatch
  3
AutoCAD 2000
 90
    32768
280
     0
281
     1
  0
CLASS
  1
ACDBDICTIONARYWDFLT
  2
AcDbDictionaryWithDefault
  3
AutoCAD 2000
 90
        0
280
     0
281
     0
  0
CLASS
  1
ACDBPLACEHOLDER
  2
AcDbPlaceHolder
  3
AutoCAD 2000
 90
        0
280
     0
281
     0
  0
CLASS
  1
LAYOUT
  2
AcDbLayout
  3
AutoCAD 2000
 90
        0
280
     0
281
     0
  0
ENDSEC
  0
SECTION
  2
TABLES
  0
TABLE
  2
VPORT
  5
36
330
0
100
AcDbSymbolTable
 70
     3
  0
VPORT
  5
734
330
36
100
AcDbSymbolTableRecord
100
AcDbViewportTableRecord
  2
*Active
 70
     0
 10
0.0
 20
0.0
 11
1.0
 21
1.0
 12
681.4691512272165
 22
264.4284081616702
 13
0.0
 23
0.0
 14
1.0
 24
1.0
 15
0.0
 25
0.0
 16
0.0
 26
0.0
 36
1.0
 17
0.0
 27
0.0
 37
0.0
 40
517.3735432954278
 41
1.781954887218045
 42
50.0
 43
0.0
 44
0.0
 50
0.0
 51
0.0
 71
     0
 72
   100
 73
     1
 74
     3
 75
     0
 76
     0
 77
     0
 78
     0
281
     0
 65
     1
110
0.0
120
0.0
130
0.0
111
1.0
121
0.0
131
0.0
112
0.0
122
1.0
132
0.0
 79
     0
146
0.0
  0
ENDTAB
  0
TABLE
  2
LTYPE
  5
20
330
0
100
AcDbSymbolTable
 70
    16
  0
LTYPE
  5
21
330
20
100
AcDbSymbolTableRecord
100
AcDbLinetypeTableRecord
  2
BYBLOCK
 70
     0
  3

 72
    65
 73
     0
 40
0.0
  0
LTYPE
  5
22
330
20
100
AcDbSymbolTableRecord
100
AcDbLinetypeTableRecord
  2
BYLAYER
 70
     0
  3

 72
    65
 73
     0
 40
0.0
  0
LTYPE
  5
23
330
20
100
AcDbSymbolTableRecord
100
AcDbLinetypeTableRecord
  2
CONTINUOUS
 70
     0
  3
実線
 72
    65
 73
     0
 40
0.0
  0
LTYPE
  5
24
330
20
100
AcDbSymbolTableRecord
100
AcDbLinetypeTableRecord
  2
PLINE2
 70
     0
  3
点線
 72
    65
 73
     3
 40
1.7
 49
0.5
 74
     0
 49
-0.7
 74
     0
 49
0.5
 74
     0
  0
LTYPE
  5
25
330
20
100
AcDbSymbolTableRecord
100
AcDbLinetypeTableRecord
  2
PLINE3
 70
     0
  3
１点鎖線
 72
    65
 73
     4
 40
10.0
 49
7.0
 74
     0
 49
-1.0
 74
     0
 49
1.0
 74
     0
 49
-1.0
 74
     0
  0
LTYPE
  5
26
330
20
100
AcDbSymbolTableRecord
100
AcDbLinetypeTableRecord
  2
PLINE4
 70
     0
  3
２点鎖線
 72
    65
 73
     7
 40
6.5
 49
2.0
 74
     0
 49
-0.5
 74
     0
 49
0.5
 74
     0
 49
-0.5
 74
     0
 49
0.5
 74
     0
 49
-0.5
 74
     0
 49
2.0
 74
     0
  0
LTYPE
  5
27
330
20
100
AcDbSymbolTableRecord
100
AcDbLinetypeTableRecord
  2
PLINE5
 70
     0
  3
点線1
 72
    65
 73
     2
 40
5.0
 49
3.5
 74
     0
 49
-1.5
 74
     0
  0
LTYPE
  5
28
330
20
100
AcDbSymbolTableRecord
100
AcDbLinetypeTableRecord
  2
PLINE6
 70
     0
  3
１点鎖線1
 72
    65
 73
     4
 40
15.0
 49
10.5
 74
     0
 49
-1.5
 74
     0
 49
1.5
 74
     0
 49
-1.5
 74
     0
  0
LTYPE
  5
29
330
20
100
AcDbSymbolTableRecord
100
AcDbLinetypeTableRecord
  2
PLINE7
 70
     0
  3
２点鎖線1
 72
    65
 73
     6
 40
15.0
 49
7.5
 74
     0
 49
-1.5
 74
     0
 49
1.5
 74
     0
 49
-1.5
 74
     0
 49
1.5
 74
     0
 49
-1.5
 74
     0
  0
LTYPE
  5
2A
330
20
100
AcDbSymbolTableRecord
100
AcDbLinetypeTableRecord
  2
PLINE8
 70
     0
  3
点線2
 72
    65
 73
     2
 40
7.0
 49
4.9
 74
     0
 49
-2.1
 74
     0
  0
LTYPE
  5
2B
330
20
100
AcDbSymbolTableRecord
100
AcDbLinetypeTableRecord
  2
PLINE9
 70
     0
  3
１点鎖線2
 72
    65
 73
     4
 40
20.0
 49
14.0
 74
     0
 49
-2.0
 74
     0
 49
2.0
 74
     0
 49
-2.0
 74
     0
  0
LTYPE
  5
2C
330
20
100
AcDbSymbolTableRecord
100
AcDbLinetypeTableRecord
  2
PLINE10
 70
     0
  3
２点鎖線2
 72
    65
 73
     6
 40
20.0
 49
10.0
 74
     0
 49
-2.0
 74
     0
 49
2.0
 74
     0
 49
-2.0
 74
     0
 49
2.0
 74
     0
 49
-2.0
 74
     0
  0
LTYPE
  5
2D
330
20
100
AcDbSymbolTableRecord
100
AcDbLinetypeTableRecord
  2
PLINE11
 70
     0
  3
点線3
 72
    65
 73
     2
 40
9.0
 49
6.299999999999999
 74
     0
 49
-2.7
 74
     0
  0
LTYPE
  5
2E
330
20
100
AcDbSymbolTableRecord
100
AcDbLinetypeTableRecord
  2
PLINE12
 70
     0
  3
１点鎖線3
 72
    65
 73
     4
 40
25.0
 49
17.5
 74
     0
 49
-2.5
 74
     0
 49
2.5
 74
     0
 49
-2.5
 74
     0
  0
LTYPE
  5
2F
330
20
100
AcDbSymbolTableRecord
100
AcDbLinetypeTableRecord
  2
PLINE13
 70
     0
  3
２点鎖線3
 72
    65
 73
     6
 40
25.0
 49
12.5
 74
     0
 49
-2.5
 74
     0
 49
2.5
 74
     0
 49
-2.5
 74
     0
 49
2.5
 74
     0
 49
-2.5
 74
     0
  0
LTYPE
  5
30
330
20
100
AcDbSymbolTableRecord
100
AcDbLinetypeTableRecord
  2
PLINE14
 70
     0
  3
点線4
 72
    65
 73
     2
 40
11.0
 49
7.7
 74
     0
 49
-3.299999999999999
 74
     0
  0
LTYPE
  5
31
330
20
100
AcDbSymbolTableRecord
100
AcDbLinetypeTableRecord
  2
PLINE15
 70
     0
  3
１点鎖線4
 72
    65
 73
     4
 40
30.0
 49
21.0
 74
     0
 49
-3.0
 74
     0
 49
3.0
 74
     0
 49
-3.0
 74
     0
  0
LTYPE
  5
32
330
20
100
AcDbSymbolTableRecord
100
AcDbLinetypeTableRecord
  2
PLINE16
 70
     0
  3
２点鎖線4
 72
    65
 73
     6
 40
30.0
 49
15.0
 74
     0
 49
-3.0
 74
     0
 49
3.0
 74
     0
 49
-3.0
 74
     0
 49
3.0
 74
     0
 49
-3.0
 74
     0
  0
ENDTAB
  0
TABLE
  2
LAYER
  5
33
330
0
100
AcDbSymbolTable
 70
     2
  0
LAYER
  5
34
330
33
100
AcDbSymbolTableRecord
100
AcDbLayerTableRecord
  2
0
 70
     0
 62
     7
  6
CONTINUOUS
370
    -3
390
728
  0
LAYER
  5
35
330
33
100
AcDbSymbolTableRecord
100
AcDbLayerTableRecord
  2
PRO0
 70
     0
 62
     7
  6
CONTINUOUS
370
    -3
390
728
  0
ENDTAB
  0
TABLE
  2
STYLE
  5
37
330
0
100
AcDbSymbolTable
 70
     4
  0
STYLE
  5
38
330
37
100
AcDbSymbolTableRecord
100
AcDbTextStyleTableRecord
  2
STANDARD
 70
     0
 40
0.0
 41
0.8582679999999999
 50
0.0
 71
     0
 42
3.5
  3
txt
  4
BIGFONT
  0
STYLE
  5
39
330
37
100
AcDbSymbolTableRecord
100
AcDbTextStyleTableRecord
  2
VERTXT
 70
     4
 40
0.0
 41
0.8582679999999999
 50
0.0
 71
     0
 42
3.5
  3

  4
BIGFONT
  0
STYLE
  5
3A
330
37
100
AcDbSymbolTableRecord
100
AcDbTextStyleTableRecord
  2
STANDARD2
 70
     0
 40
0.0
 41
0.8582679999999999
 50
0.0
 71
     0
 42
3.5
  3

  4
EXTFONT
  0
STYLE
  5
3B
330
37
100
AcDbSymbolTableRecord
100
AcDbTextStyleTableRecord
  2
VERTXT2
 70
     4
 40
0.0
 41
0.8582679999999999
 50
0.0
 71
     0
 42
3.5
  3

  4
EXTFONT
  0
ENDTAB
  0
TABLE
  2
VIEW
  5
3C
330
0
100
AcDbSymbolTable
 70
     0
  0
ENDTAB
  0
TABLE
  2
UCS
  5
3D
330
0
100
AcDbSymbolTable
 70
     0
  0
ENDTAB
  0
TABLE
  2
APPID
  5
3E
330
0
100
AcDbSymbolTable
 70
     1
  0
APPID
  5
3F
330
3E
100
AcDbSymbolTableRecord
100
AcDbRegAppTableRecord
  2
ACAD
 70
     0
  0
ENDTAB
  0
TABLE
  2
DIMSTYLE
  5
40
330
0
100
AcDbSymbolTable
 70
     1
100
AcDbDimStyleTable
 71
     0
  0
DIMSTYLE
105
729
330
40
100
AcDbSymbolTableRecord
100
AcDbDimStyleTableRecord
  2
Standard
 70
     0
340
38
  0
ENDTAB
  0
TABLE
  2
BLOCK_RECORD
  5
70D
330
0
100
AcDbSymbolTable
 70
    33
  0
BLOCK_RECORD
  5
70E
330
70D
100
AcDbSymbolTableRecord
100
AcDbBlockTableRecord
  2
*MODEL_SPACE
340
72C
  0
BLOCK_RECORD
  5
70F
330
70D
100
AcDbSymbolTableRecord
100
AcDbBlockTableRecord
  2
*PAPER_SPACE
340
72D
  0
BLOCK_RECORD
  5
14B
330
70D
100
AcDbSymbolTableRecord
100
AcDbBlockTableRecord
  2
*D0
340
0
  0
BLOCK_RECORD
  5
16A
330
70D
100
AcDbSymbolTableRecord
100
AcDbBlockTableRecord
  2
*D1
340
0
  0
BLOCK_RECORD
  5
19A
330
70D
100
AcDbSymbolTableRecord
100
AcDbBlockTableRecord
  2
*D2
340
0
  0
BLOCK_RECORD
  5
1B9
330
70D
100
AcDbSymbolTableRecord
100
AcDbBlockTableRecord
  2
*D3
340
0
  0
BLOCK_RECORD
  5
232
330
70D
100
AcDbSymbolTableRecord
100
AcDbBlockTableRecord
  2
*D4
340
0
  0
BLOCK_RECORD
  5
23E
330
70D
100
AcDbSymbolTableRecord
100
AcDbBlockTableRecord
  2
*D5
340
0
  0
BLOCK_RECORD
  5
24A
330
70D
100
AcDbSymbolTableRecord
100
AcDbBlockTableRecord
  2
*D6
340
0
  0
BLOCK_RECORD
  5
255
330
70D
100
AcDbSymbolTableRecord
100
AcDbBlockTableRecord
  2
*D7
340
0
  0
BLOCK_RECORD
  5
260
330
70D
100
AcDbSymbolTableRecord
100
AcDbBlockTableRecord
  2
*D8
340
0
  0
BLOCK_RECORD
  5
26C
330
70D
100
AcDbSymbolTableRecord
100
AcDbBlockTableRecord
  2
*D9
340
0
  0
BLOCK_RECORD
  5
278
330
70D
100
AcDbSymbolTableRecord
100
AcDbBlockTableRecord
  2
*D10
340
0
  0
BLOCK_RECORD
  5
283
330
70D
100
AcDbSymbolTableRecord
100
AcDbBlockTableRecord
  2
*D11
340
0
  0
BLOCK_RECORD
  5
28D
330
70D
100
AcDbSymbolTableRecord
100
AcDbBlockTableRecord
  2
*D12
340
0
  0
BLOCK_RECORD
  5
299
330
70D
100
AcDbSymbolTableRecord
100
AcDbBlockTableRecord
  2
*D13
340
0
  0
BLOCK_RECORD
  5
2A4
330
70D
100
AcDbSymbolTableRecord
100
AcDbBlockTableRecord
  2
*D14
340
0
  0
BLOCK_RECORD
  5
2AF
330
70D
100
AcDbSymbolTableRecord
100
AcDbBlockTableRecord
  2
*D15
340
0
  0
BLOCK_RECORD
  5
2BB
330
70D
100
AcDbSymbolTableRecord
100
AcDbBlockTableRecord
  2
*D16
340
0
  0
BLOCK_RECORD
  5
4AA
330
70D
100
AcDbSymbolTableRecord
100
AcDbBlockTableRecord
  2
*D17
340
0
  0
BLOCK_RECORD
  5
4B6
330
70D
100
AcDbSymbolTableRecord
100
AcDbBlockTableRecord
  2
*D18
340
0
  0
BLOCK_RECORD
  5
4C1
330
70D
100
AcDbSymbolTableRecord
100
AcDbBlockTableRecord
  2
*D19
340
0
  0
BLOCK_RECORD
  5
4CD
330
70D
100
AcDbSymbolTableRecord
100
AcDbBlockTableRecord
  2
*D20
340
0
  0
BLOCK_RECORD
  5
4D8
330
70D
100
AcDbSymbolTableRecord
100
AcDbBlockTableRecord
  2
*D21
340
0
  0
BLOCK_RECORD
  5
4E3
330
70D
100
AcDbSymbolTableRecord
100
AcDbBlockTableRecord
  2
*D22
340
0
  0
BLOCK_RECORD
  5
4EE
330
70D
100
AcDbSymbolTableRecord
100
AcDbBlockTableRecord
  2
*D23
340
0
  0
BLOCK_RECORD
  5
4FA
330
70D
100
AcDbSymbolTableRecord
100
AcDbBlockTableRecord
  2
*D24
340
0
  0
BLOCK_RECORD
  5
505
330
70D
100
AcDbSymbolTableRecord
100
AcDbBlockTableRecord
  2
*D25
340
0
  0
BLOCK_RECORD
  5
511
330
70D
100
AcDbSymbolTableRecord
100
AcDbBlockTableRecord
  2
*D26
340
0
  0
BLOCK_RECORD
  5
51C
330
70D
100
AcDbSymbolTableRecord
100
AcDbBlockTableRecord
  2
*D27
340
0
  0
BLOCK_RECORD
  5
527
330
70D
100
AcDbSymbolTableRecord
100
AcDbBlockTableRecord
  2
*D28
340
0
  0
BLOCK_RECORD
  5
538
330
70D
100
AcDbSymbolTableRecord
100
AcDbBlockTableRecord
  2
*D29
340
0
  0
BLOCK_RECORD
  5
544
330
70D
100
AcDbSymbolTableRecord
100
AcDbBlockTableRecord
  2
*D30
340
0
  0
BLOCK_RECORD
  5
550
330
70D
100
AcDbSymbolTableRecord
100
AcDbBlockTableRecord
  2
*D31
340
0
  0
BLOCK_RECORD
  5
702
330
70D
100
AcDbSymbolTableRecord
100
AcDbBlockTableRecord
  2
*D32
340
0
  0
ENDTAB
  0
ENDSEC
  0
SECTION
  2
BLOCKS
  0
BLOCK
  5
710
330
70E
100
AcDbEntity
  8
0
100
AcDbBlockBegin
  2
*MODEL_SPACE
 70
     0
 10
0.0
 20
0.0
 30
0.0
  3
*MODEL_SPACE
  1

  0
ENDBLK
  5
711
330
70E
100
AcDbEntity
  8
0
100
AcDbBlockEnd
  0
BLOCK
  5
712
330
70F
100
AcDbEntity
 67
     1
  8
0
100
AcDbBlockBegin
  2
*PAPER_SPACE
 70
     0
 10
0.0
 20
0.0
 30
0.0
  3
*PAPER_SPACE
  1

  0
ENDBLK
  5
713
330
70F
100
AcDbEntity
 67
     1
  8
0
100
AcDbBlockEnd
  0
BLOCK
  5
14A
330
14B
100
AcDbEntity
  8
0
100
AcDbBlockBegin
  2
*D0
 70
     1
 10
0.0
 20
0.0
 30
0.0
  3
*D0
  1

  0
LINE
  5
14C
330
14B
100
AcDbEntity
  8
PRO0
  6
Continuous
 62
     3
100
AcDbLine
 10
143.28233
 20
299.096815
 30
0.0
 11
143.28233
 21
298.097315
 31
0.0
  0
LINE
  5
14D
330
14B
100
AcDbEntity
  8
PRO0
  6
Continuous
 62
     3
100
AcDbLine
 10
143.28233
 20
299.096815
 30
0.0
 11
142.53233
 21
302.0968149999999
 31
0.0
  0
LINE
  5
14E
330
14B
100
AcDbEntity
  8
PRO0
  6
Continuous
 62
     3
100
AcDbLine
 10
143.28233
 20
299.096815
 30
0.0
 11
144.03233
 21
302.0968149999999
 31
0.0
  0
LINE
  5
14F
330
14B
100
AcDbEntity
  8
PRO0
  6
Continuous
 62
     3
100
AcDbLine
 10
143.28233
 20
299.096815
 30
0.0
 11
143.28233
 21
308.0968149999999
 31
0.0
  0
LINE
  5
150
330
14B
100
AcDbEntity
  8
PRO0
  6
Continuous
 62
     3
100
AcDbLine
 10
143.28233
 20
298.097315
 30
0.0
 11
144.03233
 21
295.0973149999999
 31
0.0
  0
LINE
  5
151
330
14B
100
AcDbEntity
  8
PRO0
  6
Continuous
 62
     3
100
AcDbLine
 10
143.28233
 20
298.097315
 30
0.0
 11
142.53233
 21
295.0973149999999
 31
0.0
  0
LINE
  5
152
330
14B
100
AcDbEntity
  8
PRO0
  6
Continuous
 62
     3
100
AcDbLine
 10
143.28233
 20
298.097315
 30
0.0
 11
143.28233
 21
289.0973149999999
 31
0.0
  0
TEXT
  5
153
330
14B
100
AcDbEntity
  8
PRO0
  6
Continuous
 62
     3
100
AcDbText
 10
141.7823304019324
 20
287.422449
 30
0.0
 40
6.0
  1
φ１
 50
90.00000300000001
 41
0.73811
 72
     2
 11
141.78233
 21
295.098793
 31
0.0
100
AcDbText
  0
LINE
  5
154
330
14B
100
AcDbEntity
  8
PRO0
  6
Continuous
 62
     3
100
AcDbLine
 10
143.28233
 20
298.097315
 30
0.0
 11
143.28233
 21
284.379768
 31
0.0
  0
ENDBLK
  5
155
330
14B
100
AcDbEntity
  8
0
100
AcDbBlockEnd
  0
BLOCK
  5
169
330
16A
100
AcDbEntity
  8
0
100
AcDbBlockBegin
  2
*D1
 70
     1
 10
0.0
 20
0.0
 30
0.0
  3
*D1
  1

  0
LINE
  5
16B
330
16A
100
AcDbEntity
  8
PRO0
  6
Continuous
 62
     3
100
AcDbLine
 10
75.57982599999999
 20
267.1597499999999
 30
0.0
 11
325.4548259999999
 21
267.1597499999999
 31
0.0
  0
LINE
  5
16C
330
16A
100
AcDbEntity
  8
PRO0
  6
Continuous
 62
     3
100
AcDbLine
 10
75.57982599999999
 20
297.0978149999999
 30
0.0
 11
75.57982599999999
 21
264.1597499999999
 31
0.0
  0
LINE
  5
16D
330
16A
100
AcDbEntity
  8
PRO0
  6
Continuous
 62
     3
100
AcDbLine
 10
325.4548259999999
 20
297.0978149999999
 30
0.0
 11
325.4548259999999
 21
264.1597499999999
 31
0.0
  0
LINE
  5
16E
330
16A
100
AcDbEntity
  8
PRO0
  6
Continuous
 62
     3
100
AcDbLine
 10
75.57982599999999
 20
267.1597499999999
 30
0.0
 11
78.57982599999999
 21
267.9097499999999
 31
0.0
  0
LINE
  5
16F
330
16A
100
AcDbEntity
  8
PRO0
  6
Continuous
 62
     3
100
AcDbLine
 10
75.57982599999999
 20
267.1597499999999
 30
0.0
 11
78.57982599999999
 21
266.40975
 31
0.0
  0
LINE
  5
170
330
16A
100
AcDbEntity
  8
PRO0
  6
Continuous
 62
     3
100
AcDbLine
 10
325.4548259999999
 20
267.1597499999999
 30
0.0
 11
322.4548259999999
 21
266.40975
 31
0.0
  0
LINE
  5
171
330
16A
100
AcDbEntity
  8
PRO0
  6
Continuous
 62
     3
100
AcDbLine
 10
325.4548259999999
 20
267.1597499999999
 30
0.0
 11
322.4548259999999
 21
267.9097499999999
 31
0.0
  0
TEXT
  5
172
330
16A
100
AcDbEntity
  8
PRO0
  6
Continuous
 62
     3
100
AcDbText
 10
190.183794
 20
268.6597139999999
 30
0.0
 40
6.0
  1
１０００
 41
0.73811
 72
     1
 11
200.517334
 21
268.6597139999999
 31
0.0
100
AcDbText
  0
ENDBLK
  5
173
330
16A
100
AcDbEntity
  8
0
100
AcDbBlockEnd
  0
BLOCK
  5
199
330
19A
100
AcDbEntity
  8
0
100
AcDbBlockBegin
  2
*D2
 70
     1
 10
0.0
 20
0.0
 30
0.0
  3
*D2
  1

  0
LINE
  5
19B
330
19A
100
AcDbEntity
  8
PRO0
  6
Continuous
 62
     3
100
AcDbLine
 10
549.4678969999999
 20
299.096815
 30
0.0
 11
549.4678969999999
 21
298.097315
 31
0.0
  0
LINE
  5
19C
330
19A
100
AcDbEntity
  8
PRO0
  6
Continuous
 62
     3
100
AcDbLine
 10
549.4678969999999
 20
299.096815
 30
0.0
 11
548.717897
 21
302.0968149999999
 31
0.0
  0
LINE
  5
19D
330
19A
100
AcDbEntity
  8
PRO0
  6
Continuous
 62
     3
100
AcDbLine
 10
549.4678969999999
 20
299.096815
 30
0.0
 11
550.217897
 21
302.0968149999999
 31
0.0
  0
LINE
  5
19E
330
19A
100
AcDbEntity
  8
PRO0
  6
Continuous
 62
     3
100
AcDbLine
 10
549.4678969999999
 20
299.096815
 30
0.0
 11
549.4678969999999
 21
308.0968149999999
 31
0.0
  0
LINE
  5
19F
330
19A
100
AcDbEntity
  8
PRO0
  6
Continuous
 62
     3
100
AcDbLine
 10
549.4678969999999
 20
298.097315
 30
0.0
 11
550.217897
 21
295.0973149999999
 31
0.0
  0
LINE
  5
1A0
330
19A
100
AcDbEntity
  8
PRO0
  6
Continuous
 62
     3
100
AcDbLine
 10
549.4678969999999
 20
298.097315
 30
0.0
 11
548.717897
 21
295.0973149999999
 31
0.0
  0
LINE
  5
1A1
330
19A
100
AcDbEntity
  8
PRO0
  6
Continuous
 62
     3
100
AcDbLine
 10
549.4678969999999
 20
298.097315
 30
0.0
 11
549.4678969999999
 21
289.0973149999999
 31
0.0
  0
TEXT
  5
1A2
330
19A
100
AcDbEntity
  8
PRO0
  6
Continuous
 62
     3
100
AcDbText
 10
547.9678804019324
 20
287.422449
 30
0.0
 40
6.0
  1
φ１
 50
90.00000300000001
 41
0.73811
 72
     2
 11
547.96788
 21
295.098793
 31
0.0
100
AcDbText
  0
LINE
  5
1A3
330
19A
100
AcDbEntity
  8
PRO0
  6
Continuous
 62
     3
100
AcDbLine
 10
549.4678969999999
 20
298.097315
 30
0.0
 11
549.4678969999999
 21
284.379768
 31
0.0
  0
ENDBLK
  5
1A4
330
19A
100
AcDbEntity
  8
0
100
AcDbBlockEnd
  0
BLOCK
  5
1B8
330
1B9
100
AcDbEntity
  8
0
100
AcDbBlockBegin
  2
*D3
 70
     1
 10
0.0
 20
0.0
 30
0.0
  3
*D3
  1

  0
LINE
  5
1BA
330
1B9
100
AcDbEntity
  8
PRO0
  6
Continuous
 62
     3
100
AcDbLine
 10
481.7653929999999
 20
267.1597499999999
 30
0.0
 11
731.6403929999999
 21
267.1597499999999
 31
0.0
  0
LINE
  5
1BB
330
1B9
100
AcDbEntity
  8
PRO0
  6
Continuous
 62
     3
100
AcDbLine
 10
481.7653929999999
 20
297.0978149999999
 30
0.0
 11
481.7653929999999
 21
264.1597499999999
 31
0.0
  0
LINE
  5
1BC
330
1B9
100
AcDbEntity
  8
PRO0
  6
Continuous
 62
     3
100
AcDbLine
 10
731.6403929999999
 20
297.0978149999999
 30
0.0
 11
731.6403929999999
 21
264.1597499999999
 31
0.0
  0
LINE
  5
1BD
330
1B9
100
AcDbEntity
  8
PRO0
  6
Continuous
 62
     3
100
AcDbLine
 10
481.7653929999999
 20
267.1597499999999
 30
0.0
 11
484.7653929999999
 21
267.9097499999999
 31
0.0
  0
LINE
  5
1BE
330
1B9
100
AcDbEntity
  8
PRO0
  6
Continuous
 62
     3
100
AcDbLine
 10
481.7653929999999
 20
267.1597499999999
 30
0.0
 11
484.7653929999999
 21
266.40975
 31
0.0
  0
LINE
  5
1BF
330
1B9
100
AcDbEntity
  8
PRO0
  6
Continuous
 62
     3
100
AcDbLine
 10
731.6403929999999
 20
267.1597499999999
 30
0.0
 11
728.640393
 21
266.40975
 31
0.0
  0
LINE
  5
1C0
330
1B9
100
AcDbEntity
  8
PRO0
  6
Continuous
 62
     3
100
AcDbLine
 10
731.6403929999999
 20
267.1597499999999
 30
0.0
 11
728.640393
 21
267.9097499999999
 31
0.0
  0
TEXT
  5
1C1
330
1B9
100
AcDbEntity
  8
PRO0
  6
Continuous
 62
     3
100
AcDbText
 10
596.36931
 20
268.6597139999999
 30
0.0
 40
6.0
  1
１０００
 41
0.73811
 72
     1
 11
606.70285
 21
268.6597139999999
 31
0.0
100
AcDbText
  0
ENDBLK
  5
1C2
330
1B9
100
AcDbEntity
  8
0
100
AcDbBlockEnd
  0
BLOCK
  5
231
330
232
100
AcDbEntity
  8
0
100
AcDbBlockBegin
  2
*D4
 70
     1
 10
0.0
 20
0.0
 30
0.0
  3
*D4
  1

  0
LINE
  5
233
330
232
100
AcDbEntity
  8
PRO0
  6
Continuous
 62
     3
100
AcDbLine
 10
136.3266979999999
 20
491.4864299999999
 30
0.0
 11
316.3267
 21
491.4864299999999
 31
0.0
  0
LINE
  5
234
330
232
100
AcDbEntity
  8
PRO0
  6
Continuous
 62
     3
100
AcDbLine
 10
136.3266979999999
 20
440.115508
 30
0.0
 11
136.3266979999999
 21
494.4864299999999
 31
0.0
  0
LINE
  5
235
330
232
100
AcDbEntity
  8
PRO0
  6
Continuous
 62
     3
100
AcDbLine
 10
316.3267
 20
440.115508
 30
0.0
 11
316.3267
 21
494.4864299999999
 31
0.0
  0
LINE
  5
236
330
232
100
AcDbEntity
  8
PRO0
  6
Continuous
 62
     3
100
AcDbLine
 10
136.3266979999999
 20
491.4864299999999
 30
0.0
 11
139.3266979999999
 21
492.2364299999999
 31
0.0
  0
LINE
  5
237
330
232
100
AcDbEntity
  8
PRO0
  6
Continuous
 62
     3
100
AcDbLine
 10
136.3266979999999
 20
491.4864299999999
 30
0.0
 11
139.3266979999999
 21
490.73643
 31
0.0
  0
LINE
  5
238
330
232
100
AcDbEntity
  8
PRO0
  6
Continuous
 62
     3
100
AcDbLine
 10
316.3267
 20
491.4864299999999
 30
0.0
 11
313.3267
 21
490.73643
 31
0.0
  0
LINE
  5
239
330
232
100
AcDbEntity
  8
PRO0
  6
Continuous
 62
     3
100
AcDbLine
 10
316.3267
 20
491.4864299999999
 30
0.0
 11
313.3267
 21
492.2364299999999
 31
0.0
  0
TEXT
  5
23A
330
232
100
AcDbEntity
  8
PRO0
  6
Continuous
 62
     3
100
AcDbText
 10
218.650347
 20
492.986389
 30
0.0
 40
6.0
  1
１８０
 41
0.73811
 72
     1
 11
226.326691
 21
492.986389
 31
0.0
100
AcDbText
  0
ENDBLK
  5
23B
330
232
100
AcDbEntity
  8
0
100
AcDbBlockEnd
  0
BLOCK
  5
23D
330
23E
100
AcDbEntity
  8
0
100
AcDbBlockBegin
  2
*D5
 70
     1
 10
0.0
 20
0.0
 30
0.0
  3
*D5
  1

  0
LINE
  5
23F
330
23E
100
AcDbEntity
  8
PRO0
  6
Continuous
 62
     3
100
AcDbLine
 10
136.3266979999999
 20
479.0927219999999
 30
0.0
 11
197.3266989999999
 21
479.0927219999999
 31
0.0
  0
LINE
  5
240
330
23E
100
AcDbEntity
  8
PRO0
  6
Continuous
 62
     3
100
AcDbLine
 10
136.3266979999999
 20
463.609586
 30
0.0
 11
136.3266979999999
 21
482.0927219999999
 31
0.0
  0
LINE
  5
241
330
23E
100
AcDbEntity
  8
PRO0
  6
Continuous
 62
     3
100
AcDbLine
 10
197.3266989999999
 20
440.115508
 30
0.0
 11
197.3266989999999
 21
482.0927219999999
 31
0.0
  0
LINE
  5
242
330
23E
100
AcDbEntity
  8
PRO0
  6
Continuous
 62
     3
100
AcDbLine
 10
136.3266979999999
 20
479.0927219999999
 30
0.0
 11
139.3266979999999
 21
479.8427219999999
 31
0.0
  0
LINE
  5
243
330
23E
100
AcDbEntity
  8
PRO0
  6
Continuous
 62
     3
100
AcDbLine
 10
136.3266979999999
 20
479.0927219999999
 30
0.0
 11
139.3266979999999
 21
478.342722
 31
0.0
  0
LINE
  5
244
330
23E
100
AcDbEntity
  8
PRO0
  6
Continuous
 62
     3
100
AcDbLine
 10
197.3266989999999
 20
479.0927219999999
 30
0.0
 11
194.3266989999999
 21
478.342722
 31
0.0
  0
LINE
  5
245
330
23E
100
AcDbEntity
  8
PRO0
  6
Continuous
 62
     3
100
AcDbLine
 10
197.3266989999999
 20
479.0927219999999
 30
0.0
 11
194.3266989999999
 21
479.8427219999999
 31
0.0
  0
TEXT
  5
246
330
23E
100
AcDbEntity
  8
PRO0
  6
Continuous
 62
     3
100
AcDbText
 10
162.6933009999999
 20
480.5926669999999
 30
0.0
 40
6.0
  1
６１
 41
0.73811
 72
     1
 11
166.826717
 21
480.5926669999999
 31
0.0
100
AcDbText
  0
ENDBLK
  5
247
330
23E
100
AcDbEntity
  8
0
100
AcDbBlockEnd
  0
BLOCK
  5
249
330
24A
100
AcDbEntity
  8
0
100
AcDbBlockBegin
  2
*D6
 70
     1
 10
0.0
 20
0.0
 30
0.0
  3
*D6
  1

  0
LINE
  5
24B
330
24A
100
AcDbEntity
  8
PRO0
  6
Continuous
 62
     3
100
AcDbLine
 10
197.3266989999999
 20
479.0927219999999
 30
0.0
 11
255.326699
 21
479.0927219999999
 31
0.0
  0
LINE
  5
24C
330
24A
100
AcDbEntity
  8
PRO0
  6
Continuous
 62
     3
100
AcDbLine
 10
255.326699
 20
440.115508
 30
0.0
 11
255.326699
 21
482.0927219999999
 31
0.0
  0
LINE
  5
24D
330
24A
100
AcDbEntity
  8
PRO0
  6
Continuous
 62
     3
100
AcDbLine
 10
197.3266989999999
 20
479.0927219999999
 30
0.0
 11
200.3266989999999
 21
479.8427219999999
 31
0.0
  0
LINE
  5
24E
330
24A
100
AcDbEntity
  8
PRO0
  6
Continuous
 62
     3
100
AcDbLine
 10
197.3266989999999
 20
479.0927219999999
 30
0.0
 11
200.3266989999999
 21
478.342722
 31
0.0
  0
LINE
  5
24F
330
24A
100
AcDbEntity
  8
PRO0
  6
Continuous
 62
     3
100
AcDbLine
 10
255.326699
 20
479.0927219999999
 30
0.0
 11
252.326699
 21
478.342722
 31
0.0
  0
LINE
  5
250
330
24A
100
AcDbEntity
  8
PRO0
  6
Continuous
 62
     3
100
AcDbLine
 10
255.326699
 20
479.0927219999999
 30
0.0
 11
252.326699
 21
479.8427219999999
 31
0.0
  0
TEXT
  5
251
330
24A
100
AcDbEntity
  8
PRO0
  6
Continuous
 62
     3
100
AcDbText
 10
221.455165
 20
480.5926669999999
 30
0.0
 40
6.0
  1
５８
 41
0.73811
 72
     1
 11
226.326691
 21
480.5926669999999
 31
0.0
100
AcDbText
  0
ENDBLK
  5
252
330
24A
100
AcDbEntity
  8
0
100
AcDbBlockEnd
  0
BLOCK
  5
254
330
255
100
AcDbEntity
  8
0
100
AcDbBlockBegin
  2
*D7
 70
     1
 10
0.0
 20
0.0
 30
0.0
  3
*D7
  1

  0
LINE
  5
256
330
255
100
AcDbEntity
  8
PRO0
  6
Continuous
 62
     3
100
AcDbLine
 10
255.326699
 20
479.0927219999999
 30
0.0
 11
316.3267
 21
479.0927219999999
 31
0.0
  0
LINE
  5
257
330
255
100
AcDbEntity
  8
PRO0
  6
Continuous
 62
     3
100
AcDbLine
 10
316.3267
 20
463.609586
 30
0.0
 11
316.3267
 21
482.0927219999999
 31
0.0
  0
LINE
  5
258
330
255
100
AcDbEntity
  8
PRO0
  6
Continuous
 62
     3
100
AcDbLine
 10
255.326699
 20
479.0927219999999
 30
0.0
 11
258.326699
 21
479.8427219999999
 31
0.0
  0
LINE
  5
259
330
255
100
AcDbEntity
  8
PRO0
  6
Continuous
 62
     3
100
AcDbLine
 10
255.326699
 20
479.0927219999999
 30
0.0
 11
258.326699
 21
478.342722
 31
0.0
  0
LINE
  5
25A
330
255
100
AcDbEntity
  8
PRO0
  6
Continuous
 62
     3
100
AcDbLine
 10
316.3267
 20
479.0927219999999
 30
0.0
 11
313.3267
 21
478.342722
 31
0.0
  0
LINE
  5
25B
330
255
100
AcDbEntity
  8
PRO0
  6
Continuous
 62
     3
100
AcDbLine
 10
316.3267
 20
479.0927219999999
 30
0.0
 11
313.3267
 21
479.8427219999999
 31
0.0
  0
TEXT
  5
25C
330
255
100
AcDbEntity
  8
PRO0
  6
Continuous
 62
     3
100
AcDbText
 10
281.693259
 20
480.5926669999999
 30
0.0
 40
6.0
  1
６１
 41
0.73811
 72
     1
 11
285.826675
 21
480.5926669999999
 31
0.0
100
AcDbText
  0
ENDBLK
  5
25D
330
255
100
AcDbEntity
  8
0
100
AcDbBlockEnd
  0
BLOCK
  5
25F
330
260
100
AcDbEntity
  8
0
100
AcDbBlockBegin
  2
*D8
 70
     1
 10
0.0
 20
0.0
 30
0.0
  3
*D8
  1

  0
LINE
  5
261
330
260
100
AcDbEntity
  8
PRO0
  6
Continuous
 62
     3
100
AcDbLine
 10
183.8266989999999
 20
465.402246
 30
0.0
 11
268.82656
 21
465.402246
 31
0.0
  0
LINE
  5
262
330
260
100
AcDbEntity
  8
PRO0
  6
Continuous
 62
     3
100
AcDbLine
 10
183.8266989999999
 20
435.3155089999999
 30
0.0
 11
183.8266989999999
 21
468.402246
 31
0.0
  0
LINE
  5
263
330
260
100
AcDbEntity
  8
PRO0
  6
Continuous
 62
     3
100
AcDbLine
 10
268.82656
 20
435.3155089999999
 30
0.0
 11
268.82656
 21
468.402246
 31
0.0
  0
LINE
  5
264
330
260
100
AcDbEntity
  8
PRO0
  6
Continuous
 62
     3
100
AcDbLine
 10
183.8266989999999
 20
465.402246
 30
0.0
 11
186.826699
 21
466.1522459999999
 31
0.0
  0
LINE
  5
265
330
260
100
AcDbEntity
  8
PRO0
  6
Continuous
 62
     3
100
AcDbLine
 10
183.8266989999999
 20
465.402246
 30
0.0
 11
186.826699
 21
464.6522459999999
 31
0.0
  0
LINE
  5
266
330
260
100
AcDbEntity
  8
PRO0
  6
Continuous
 62
     3
100
AcDbLine
 10
268.82656
 20
465.402246
 30
0.0
 11
265.82656
 21
464.6522459999999
 31
0.0
  0
LINE
  5
267
330
260
100
AcDbEntity
  8
PRO0
  6
Continuous
 62
     3
100
AcDbLine
 10
268.82656
 20
465.402246
 30
0.0
 11
265.82656
 21
466.1522459999999
 31
0.0
  0
TEXT
  5
268
330
260
100
AcDbEntity
  8
PRO0
  6
Continuous
 62
     3
100
AcDbText
 10
221.602718
 20
466.902237
 30
0.0
 40
6.0
  1
８５
 41
0.73811
 72
     1
 11
226.326622
 21
466.902237
 31
0.0
100
AcDbText
  0
ENDBLK
  5
269
330
260
100
AcDbEntity
  8
0
100
AcDbBlockEnd
  0
BLOCK
  5
26B
330
26C
100
AcDbEntity
  8
0
100
AcDbBlockBegin
  2
*D9
 70
     1
 10
0.0
 20
0.0
 30
0.0
  3
*D9
  1

  0
LINE
  5
26D
330
26C
100
AcDbEntity
  8
PRO0
  6
Continuous
 62
     3
100
AcDbLine
 10
102.2276179999999
 20
440.815508
 30
0.0
 11
102.2276179999999
 21
421.115508
 31
0.0
  0
LINE
  5
26E
330
26C
100
AcDbEntity
  8
PRO0
  6
Continuous
 62
     3
100
AcDbLine
 10
137.026699
 20
440.815508
 30
0.0
 11
99.22761800000001
 21
440.815508
 31
0.0
  0
LINE
  5
26F
330
26C
100
AcDbEntity
  8
PRO0
  6
Continuous
 62
     3
100
AcDbLine
 10
120.326699
 20
421.115508
 30
0.0
 11
99.22761800000001
 21
421.115508
 31
0.0
  0
LINE
  5
270
330
26C
100
AcDbEntity
  8
PRO0
  6
Continuous
 62
     3
100
AcDbLine
 10
102.2276179999999
 20
440.815508
 30
0.0
 11
102.977618
 21
437.8155079999999
 31
0.0
  0
LINE
  5
271
330
26C
100
AcDbEntity
  8
PRO0
  6
Continuous
 62
     3
100
AcDbLine
 10
102.2276179999999
 20
440.815508
 30
0.0
 11
101.477618
 21
437.8155079999999
 31
0.0
  0
LINE
  5
272
330
26C
100
AcDbEntity
  8
PRO0
  6
Continuous
 62
     3
100
AcDbLine
 10
102.2276179999999
 20
421.115508
 30
0.0
 11
101.477618
 21
424.115508
 31
0.0
  0
LINE
  5
273
330
26C
100
AcDbEntity
  8
PRO0
  6
Continuous
 62
     3
100
AcDbLine
 10
102.2276179999999
 20
421.115508
 30
0.0
 11
102.977618
 21
424.115508
 31
0.0
  0
TEXT
  5
274
330
26C
100
AcDbEntity
  8
PRO0
  6
Continuous
 62
     3
100
AcDbText
 10
100.7275895487923
 20
420.484292
 30
0.0
 40
6.0
  1
１９．７
 50
90.00000300000001
 41
0.73811
 72
     1
 11
100.727589
 21
430.965454
 31
0.0
100
AcDbText
  0
ENDBLK
  5
275
330
26C
100
AcDbEntity
  8
0
100
AcDbBlockEnd
  0
BLOCK
  5
277
330
278
100
AcDbEntity
  8
0
100
AcDbBlockBegin
  2
*D10
 70
     1
 10
0.0
 20
0.0
 30
0.0
  3
*D10
  1

  0
LINE
  5
279
330
278
100
AcDbEntity
  8
PRO0
  6
Continuous
 62
     3
100
AcDbLine
 10
116.781887
 20
440.815508
 30
0.0
 11
116.781887
 21
430.815508
 31
0.0
  0
LINE
  5
27A
330
278
100
AcDbEntity
  8
PRO0
  6
Continuous
 62
     3
100
AcDbLine
 10
137.026699
 20
430.815508
 30
0.0
 11
114.781887
 21
430.815508
 31
0.0
  0
LINE
  5
27B
330
278
100
AcDbEntity
  8
PRO0
  6
Continuous
 62
     3
100
AcDbLine
 10
116.781887
 20
440.815508
 30
0.0
 11
117.531887
 21
437.8155079999999
 31
0.0
  0
LINE
  5
27C
330
278
100
AcDbEntity
  8
PRO0
  6
Continuous
 62
     3
100
AcDbLine
 10
116.781887
 20
440.815508
 30
0.0
 11
116.031887
 21
437.8155079999999
 31
0.0
  0
LINE
  5
27D
330
278
100
AcDbEntity
  8
PRO0
  6
Continuous
 62
     3
100
AcDbLine
 10
116.781887
 20
430.815508
 30
0.0
 11
116.031887
 21
433.8155079999999
 31
0.0
  0
LINE
  5
27E
330
278
100
AcDbEntity
  8
PRO0
  6
Continuous
 62
     3
100
AcDbLine
 10
116.781887
 20
430.815508
 30
0.0
 11
117.531887
 21
433.8155079999999
 31
0.0
  0
TEXT
  5
27F
330
278
100
AcDbEntity
  8
PRO0
  6
Continuous
 62
     3
100
AcDbText
 10
115.2818532628019
 20
430.796312
 30
0.0
 40
6.0
  1
１０
 50
90.00000300000001
 41
0.73811
 72
     1
 11
115.281853
 21
435.8154599999999
 31
0.0
100
AcDbText
  0
ENDBLK
  5
280
330
278
100
AcDbEntity
  8
0
100
AcDbBlockEnd
  0
BLOCK
  5
282
330
283
100
AcDbEntity
  8
0
100
AcDbBlockBegin
  2
*D11
 70
     1
 10
0.0
 20
0.0
 30
0.0
  3
*D11
  1

  0
LINE
  5
284
330
283
100
AcDbEntity
  8
PRO0
  6
Continuous
 62
     3
100
AcDbLine
 10
116.781887
 20
430.815508
 30
0.0
 11
116.781887
 21
421.115508
 31
0.0
  0
LINE
  5
285
330
283
100
AcDbEntity
  8
PRO0
  6
Continuous
 62
     3
100
AcDbLine
 10
116.781887
 20
430.815508
 30
0.0
 11
117.531887
 21
427.815508
 31
0.0
  0
LINE
  5
286
330
283
100
AcDbEntity
  8
PRO0
  6
Continuous
 62
     3
100
AcDbLine
 10
116.781887
 20
430.815508
 30
0.0
 11
116.031887
 21
427.815508
 31
0.0
  0
LINE
  5
287
330
283
100
AcDbEntity
  8
PRO0
  6
Continuous
 62
     3
100
AcDbLine
 10
116.781887
 20
421.115508
 30
0.0
 11
116.031887
 21
424.115508
 31
0.0
  0
LINE
  5
288
330
283
100
AcDbEntity
  8
PRO0
  6
Continuous
 62
     3
100
AcDbLine
 10
116.781887
 20
421.115508
 30
0.0
 11
117.531887
 21
424.115508
 31
0.0
  0
TEXT
  5
289
330
283
100
AcDbEntity
  8
PRO0
  6
Continuous
 62
     3
100
AcDbText
 10
115.2818533864734
 20
418.5843849999999
 30
0.0
 40
6.0
  1
９．７
 50
90.00000300000001
 41
0.73811
 72
     1
 11
115.281853
 21
425.9654849999999
 31
0.0
100
AcDbText
  0
ENDBLK
  5
28A
330
283
100
AcDbEntity
  8
0
100
AcDbBlockEnd
  0
BLOCK
  5
28C
330
28D
100
AcDbEntity
  8
0
100
AcDbBlockBegin
  2
*D12
 70
     1
 10
0.0
 20
0.0
 30
0.0
  3
*D12
  1

  0
LINE
  5
28E
330
28D
100
AcDbEntity
  8
PRO0
  6
Continuous
 62
     3
100
AcDbLine
 10
171.3266989999999
 20
352.8275069999999
 30
0.0
 11
201.3266989999999
 21
352.8275069999999
 31
0.0
  0
LINE
  5
28F
330
28D
100
AcDbEntity
  8
PRO0
  6
Continuous
 62
     3
100
AcDbLine
 10
171.3266989999999
 20
375.603925
 30
0.0
 11
171.3266989999999
 21
350.8275069999999
 31
0.0
  0
LINE
  5
290
330
28D
100
AcDbEntity
  8
PRO0
  6
Continuous
 62
     3
100
AcDbLine
 10
201.3266989999999
 20
360.115508
 30
0.0
 11
201.3266989999999
 21
350.8275069999999
 31
0.0
  0
LINE
  5
291
330
28D
100
AcDbEntity
  8
PRO0
  6
Continuous
 62
     3
100
AcDbLine
 10
171.3266989999999
 20
352.8275069999999
 30
0.0
 11
174.3266989999999
 21
353.5775069999999
 31
0.0
  0
LINE
  5
292
330
28D
100
AcDbEntity
  8
PRO0
  6
Continuous
 62
     3
100
AcDbLine
 10
171.3266989999999
 20
352.8275069999999
 30
0.0
 11
174.3266989999999
 21
352.0775069999999
 31
0.0
  0
LINE
  5
293
330
28D
100
AcDbEntity
  8
PRO0
  6
Continuous
 62
     3
100
AcDbLine
 10
201.3266989999999
 20
352.8275069999999
 30
0.0
 11
198.3266989999999
 21
352.0775069999999
 31
0.0
  0
LINE
  5
294
330
28D
100
AcDbEntity
  8
PRO0
  6
Continuous
 62
     3
100
AcDbLine
 10
201.3266989999999
 20
352.8275069999999
 30
0.0
 11
198.3266989999999
 21
353.5775069999999
 31
0.0
  0
TEXT
  5
295
330
28D
100
AcDbEntity
  8
PRO0
  6
Continuous
 62
     3
100
AcDbText
 10
181.750435
 20
354.3274839999999
 30
0.0
 40
6.0
  1
３０
 41
0.73811
 72
     1
 11
186.326717
 21
354.3274839999999
 31
0.0
100
AcDbText
  0
ENDBLK
  5
296
330
28D
100
AcDbEntity
  8
0
100
AcDbBlockEnd
  0
BLOCK
  5
298
330
299
100
AcDbEntity
  8
0
100
AcDbBlockBegin
  2
*D13
 70
     1
 10
0.0
 20
0.0
 30
0.0
  3
*D13
  1

  0
LINE
  5
29A
330
299
100
AcDbEntity
  8
PRO0
  6
Continuous
 62
     3
100
AcDbLine
 10
201.3266989999999
 20
352.8275069999999
 30
0.0
 11
251.326699
 21
352.8275069999999
 31
0.0
  0
LINE
  5
29B
330
299
100
AcDbEntity
  8
PRO0
  6
Continuous
 62
     3
100
AcDbLine
 10
251.326699
 20
360.115508
 30
0.0
 11
251.326699
 21
350.8275069999999
 31
0.0
  0
LINE
  5
29C
330
299
100
AcDbEntity
  8
PRO0
  6
Continuous
 62
     3
100
AcDbLine
 10
201.3266989999999
 20
352.8275069999999
 30
0.0
 11
204.3266989999999
 21
353.5775069999999
 31
0.0
  0
LINE
  5
29D
330
299
100
AcDbEntity
  8
PRO0
  6
Continuous
 62
     3
100
AcDbLine
 10
201.3266989999999
 20
352.8275069999999
 30
0.0
 11
204.3266989999999
 21
352.0775069999999
 31
0.0
  0
LINE
  5
29E
330
299
100
AcDbEntity
  8
PRO0
  6
Continuous
 62
     3
100
AcDbLine
 10
251.326699
 20
352.8275069999999
 30
0.0
 11
248.326699
 21
352.0775069999999
 31
0.0
  0
LINE
  5
29F
330
299
100
AcDbEntity
  8
PRO0
  6
Continuous
 62
     3
100
AcDbLine
 10
251.326699
 20
352.8275069999999
 30
0.0
 11
248.326699
 21
353.5775069999999
 31
0.0
  0
TEXT
  5
2A0
330
299
100
AcDbEntity
  8
PRO0
  6
Continuous
 62
     3
100
AcDbText
 10
221.602787
 20
354.3274839999999
 30
0.0
 40
6.0
  1
５０
 41
0.73811
 72
     1
 11
226.326691
 21
354.3274839999999
 31
0.0
100
AcDbText
  0
ENDBLK
  5
2A1
330
299
100
AcDbEntity
  8
0
100
AcDbBlockEnd
  0
BLOCK
  5
2A3
330
2A4
100
AcDbEntity
  8
0
100
AcDbBlockBegin
  2
*D14
 70
     1
 10
0.0
 20
0.0
 30
0.0
  3
*D14
  1

  0
LINE
  5
2A5
330
2A4
100
AcDbEntity
  8
PRO0
  6
Continuous
 62
     3
100
AcDbLine
 10
251.326699
 20
352.8275069999999
 30
0.0
 11
281.326699
 21
352.8275069999999
 31
0.0
  0
LINE
  5
2A6
330
2A4
100
AcDbEntity
  8
PRO0
  6
Continuous
 62
     3
100
AcDbLine
 10
281.326699
 20
375.603925
 30
0.0
 11
281.326699
 21
350.8275069999999
 31
0.0
  0
LINE
  5
2A7
330
2A4
100
AcDbEntity
  8
PRO0
  6
Continuous
 62
     3
100
AcDbLine
 10
251.326699
 20
352.8275069999999
 30
0.0
 11
254.326699
 21
353.5775069999999
 31
0.0
  0
LINE
  5
2A8
330
2A4
100
AcDbEntity
  8
PRO0
  6
Continuous
 62
     3
100
AcDbLine
 10
251.326699
 20
352.8275069999999
 30
0.0
 11
254.326699
 21
352.0775069999999
 31
0.0
  0
LINE
  5
2A9
330
2A4
100
AcDbEntity
  8
PRO0
  6
Continuous
 62
     3
100
AcDbLine
 10
281.326699
 20
352.8275069999999
 30
0.0
 11
278.326699
 21
352.0775069999999
 31
0.0
  0
LINE
  5
2AA
330
2A4
100
AcDbEntity
  8
PRO0
  6
Continuous
 62
     3
100
AcDbLine
 10
281.326699
 20
352.8275069999999
 30
0.0
 11
278.326699
 21
353.5775069999999
 31
0.0
  0
TEXT
  5
2AB
330
2A4
100
AcDbEntity
  8
PRO0
  6
Continuous
 62
     3
100
AcDbText
 10
261.750393
 20
354.3274839999999
 30
0.0
 40
6.0
  1
３０
 41
0.73811
 72
     1
 11
266.326675
 21
354.3274839999999
 31
0.0
100
AcDbText
  0
ENDBLK
  5
2AC
330
2A4
100
AcDbEntity
  8
0
100
AcDbBlockEnd
  0
BLOCK
  5
2AE
330
2AF
100
AcDbEntity
  8
0
100
AcDbBlockBegin
  2
*D15
 70
     1
 10
0.0
 20
0.0
 30
0.0
  3
*D15
  1

  0
LINE
  5
2B0
330
2AF
100
AcDbEntity
  8
PRO0
  6
Continuous
 62
     3
100
AcDbLine
 10
152.3266989999999
 20
465.402246
 30
0.0
 11
136.3266979999999
 21
465.402246
 31
0.0
  0
LINE
  5
2B1
330
2AF
100
AcDbEntity
  8
PRO0
  6
Continuous
 62
     3
100
AcDbLine
 10
152.3266989999999
 20
450.6093749999999
 30
0.0
 11
152.3266989999999
 21
468.402246
 31
0.0
  0
LINE
  5
2B2
330
2AF
100
AcDbEntity
  8
PRO0
  6
Continuous
 62
     3
100
AcDbLine
 10
136.3266979999999
 20
453.145266
 30
0.0
 11
136.3266979999999
 21
468.402246
 31
0.0
  0
LINE
  5
2B3
330
2AF
100
AcDbEntity
  8
PRO0
  6
Continuous
 62
     3
100
AcDbLine
 10
152.3266989999999
 20
465.402246
 30
0.0
 11
149.3266989999999
 21
464.6522459999999
 31
0.0
  0
LINE
  5
2B4
330
2AF
100
AcDbEntity
  8
PRO0
  6
Continuous
 62
     3
100
AcDbLine
 10
152.3266989999999
 20
465.402246
 30
0.0
 11
149.3266989999999
 21
466.1522459999999
 31
0.0
  0
LINE
  5
2B5
330
2AF
100
AcDbEntity
  8
PRO0
  6
Continuous
 62
     3
100
AcDbLine
 10
136.3266979999999
 20
465.402246
 30
0.0
 11
139.3266979999999
 21
466.1522459999999
 31
0.0
  0
LINE
  5
2B6
330
2AF
100
AcDbEntity
  8
PRO0
  6
Continuous
 62
     3
100
AcDbLine
 10
136.3266979999999
 20
465.402246
 30
0.0
 11
139.3266979999999
 21
464.6522459999999
 31
0.0
  0
TEXT
  5
2B7
330
2AF
100
AcDbEntity
  8
PRO0
  6
Continuous
 62
     3
100
AcDbText
 10
139.1599239999999
 20
466.902237
 30
0.0
 40
6.0
  1
１６
 41
0.73811
 72
     1
 11
144.3266939999999
 21
466.902237
 31
0.0
100
AcDbText
  0
ENDBLK
  5
2B8
330
2AF
100
AcDbEntity
  8
0
100
AcDbBlockEnd
  0
BLOCK
  5
2BA
330
2BB
100
AcDbEntity
  8
0
100
AcDbBlockBegin
  2
*D16
 70
     1
 10
0.0
 20
0.0
 30
0.0
  3
*D16
  1

  0
LINE
  5
2BC
330
2BB
100
AcDbEntity
  8
PRO0
  6
Continuous
 62
     3
100
AcDbLine
 10
300.326699
 20
465.402246
 30
0.0
 11
316.3267
 21
465.402246
 31
0.0
  0
LINE
  5
2BD
330
2BB
100
AcDbEntity
  8
PRO0
  6
Continuous
 62
     3
100
AcDbLine
 10
300.326699
 20
450.6093749999999
 30
0.0
 11
300.326699
 21
468.402246
 31
0.0
  0
LINE
  5
2BE
330
2BB
100
AcDbEntity
  8
PRO0
  6
Continuous
 62
     3
100
AcDbLine
 10
316.3267
 20
453.145266
 30
0.0
 11
316.3267
 21
468.402246
 31
0.0
  0
LINE
  5
2BF
330
2BB
100
AcDbEntity
  8
PRO0
  6
Continuous
 62
     3
100
AcDbLine
 10
300.326699
 20
465.402246
 30
0.0
 11
303.326699
 21
466.1522459999999
 31
0.0
  0
LINE
  5
2C0
330
2BB
100
AcDbEntity
  8
PRO0
  6
Continuous
 62
     3
100
AcDbLine
 10
300.326699
 20
465.402246
 30
0.0
 11
303.326699
 21
464.6522459999999
 31
0.0
  0
LINE
  5
2C1
330
2BB
100
AcDbEntity
  8
PRO0
  6
Continuous
 62
     3
100
AcDbLine
 10
316.3267
 20
465.402246
 30
0.0
 11
313.3267
 21
464.6522459999999
 31
0.0
  0
LINE
  5
2C2
330
2BB
100
AcDbEntity
  8
PRO0
  6
Continuous
 62
     3
100
AcDbLine
 10
316.3267
 20
465.402246
 30
0.0
 11
313.3267
 21
466.1522459999999
 31
0.0
  0
TEXT
  5
2C3
330
2BB
100
AcDbEntity
  8
PRO0
  6
Continuous
 62
     3
100
AcDbText
 10
303.159928
 20
466.902237
 30
0.0
 40
6.0
  1
１６
 41
0.73811
 72
     1
 11
308.326698
 21
466.902237
 31
0.0
100
AcDbText
  0
ENDBLK
  5
2C4
330
2BB
100
AcDbEntity
  8
0
100
AcDbBlockEnd
  0
BLOCK
  5
4A9
330
4AA
100
AcDbEntity
  8
0
100
AcDbBlockBegin
  2
*D17
 70
     1
 10
0.0
 20
0.0
 30
0.0
  3
*D17
  1

  0
LINE
  5
4AB
330
4AA
100
AcDbEntity
  8
PRO0
  6
Continuous
 62
     3
100
AcDbLine
 10
561.4828
 20
513.72412
 30
0.0
 11
656.483141
 21
513.72412
 31
0.0
  0
LINE
  5
4AC
330
4AA
100
AcDbEntity
  8
PRO0
  6
Continuous
 62
     3
100
AcDbLine
 10
561.4828
 20
505.843361
 30
0.0
 11
561.4828
 21
516.7241199999999
 31
0.0
  0
LINE
  5
4AD
330
4AA
100
AcDbEntity
  8
PRO0
  6
Continuous
 62
     3
100
AcDbLine
 10
656.483141
 20
485.6155209999999
 30
0.0
 11
656.483141
 21
516.7241199999999
 31
0.0
  0
LINE
  5
4AE
330
4AA
100
AcDbEntity
  8
PRO0
  6
Continuous
 62
     3
100
AcDbLine
 10
561.4828
 20
513.72412
 30
0.0
 11
564.4828
 21
514.4741199999999
 31
0.0
  0
LINE
  5
4AF
330
4AA
100
AcDbEntity
  8
PRO0
  6
Continuous
 62
     3
100
AcDbLine
 10
561.4828
 20
513.72412
 30
0.0
 11
564.4828
 21
512.9741199999999
 31
0.0
  0
LINE
  5
4B0
330
4AA
100
AcDbEntity
  8
PRO0
  6
Continuous
 62
     3
100
AcDbLine
 10
656.483141
 20
513.72412
 30
0.0
 11
653.483141
 21
512.9741199999999
 31
0.0
  0
LINE
  5
4B1
330
4AA
100
AcDbEntity
  8
PRO0
  6
Continuous
 62
     3
100
AcDbLine
 10
656.483141
 20
513.72412
 30
0.0
 11
653.483141
 21
514.4741199999999
 31
0.0
  0
TEXT
  5
4B2
330
4AA
100
AcDbEntity
  8
PRO0
  6
Continuous
 62
     3
100
AcDbText
 10
604.259067
 20
515.224091
 30
0.0
 40
6.0
  1
９５
 41
0.73811
 72
     1
 11
608.982971
 21
515.224091
 31
0.0
100
AcDbText
  0
ENDBLK
  5
4B3
330
4AA
100
AcDbEntity
  8
0
100
AcDbBlockEnd
  0
BLOCK
  5
4B5
330
4B6
100
AcDbEntity
  8
0
100
AcDbBlockBegin
  2
*D18
 70
     1
 10
0.0
 20
0.0
 30
0.0
  3
*D18
  1

  0
LINE
  5
4B7
330
4B6
100
AcDbEntity
  8
PRO0
  6
Continuous
 62
     3
100
AcDbLine
 10
656.483141
 20
513.72412
 30
0.0
 11
676.1828
 21
513.72412
 31
0.0
  0
LINE
  5
4B8
330
4B6
100
AcDbEntity
  8
PRO0
  6
Continuous
 62
     3
100
AcDbLine
 10
676.1828
 20
505.843361
 30
0.0
 11
676.1828
 21
516.7241199999999
 31
0.0
  0
LINE
  5
4B9
330
4B6
100
AcDbEntity
  8
PRO0
  6
Continuous
 62
     3
100
AcDbLine
 10
656.483141
 20
513.72412
 30
0.0
 11
659.483141
 21
514.4741199999999
 31
0.0
  0
LINE
  5
4BA
330
4B6
100
AcDbEntity
  8
PRO0
  6
Continuous
 62
     3
100
AcDbLine
 10
656.483141
 20
513.72412
 30
0.0
 11
659.483141
 21
512.9741199999999
 31
0.0
  0
LINE
  5
4BB
330
4B6
100
AcDbEntity
  8
PRO0
  6
Continuous
 62
     3
100
AcDbLine
 10
676.1828
 20
513.72412
 30
0.0
 11
673.1828
 21
512.9741199999999
 31
0.0
  0
LINE
  5
4BC
330
4B6
100
AcDbEntity
  8
PRO0
  6
Continuous
 62
     3
100
AcDbLine
 10
676.1828
 20
513.72412
 30
0.0
 11
673.1828
 21
514.4741199999999
 31
0.0
  0
TEXT
  5
4BD
330
4B6
100
AcDbEntity
  8
PRO0
  6
Continuous
 62
     3
100
AcDbText
 10
655.85177
 20
515.224091
 30
0.0
 40
6.0
  1
１９．７
 41
0.73811
 72
     1
 11
666.332932
 21
515.224091
 31
0.0
100
AcDbText
  0
ENDBLK
  5
4BE
330
4B6
100
AcDbEntity
  8
0
100
AcDbBlockEnd
  0
BLOCK
  5
4C0
330
4C1
100
AcDbEntity
  8
0
100
AcDbBlockBegin
  2
*D19
 70
     1
 10
0.0
 20
0.0
 30
0.0
  3
*D19
  1

  0
LINE
  5
4C2
330
4C1
100
AcDbEntity
  8
PRO0
  6
Continuous
 62
     3
100
AcDbLine
 10
561.1828
 20
501.327426
 30
0.0
 11
622.1828
 21
501.327426
 31
0.0
  0
LINE
  5
4C3
330
4C1
100
AcDbEntity
  8
PRO0
  6
Continuous
 62
     3
100
AcDbLine
 10
561.1828
 20
496.1189509999999
 30
0.0
 11
561.1828
 21
504.327426
 31
0.0
  0
LINE
  5
4C4
330
4C1
100
AcDbEntity
  8
PRO0
  6
Continuous
 62
     3
100
AcDbLine
 10
622.1828
 20
440.115508
 30
0.0
 11
622.1828
 21
504.327426
 31
0.0
  0
LINE
  5
4C5
330
4C1
100
AcDbEntity
  8
PRO0
  6
Continuous
 62
     3
100
AcDbLine
 10
561.1828
 20
501.327426
 30
0.0
 11
564.1828
 21
502.077426
 31
0.0
  0
LINE
  5
4C6
330
4C1
100
AcDbEntity
  8
PRO0
  6
Continuous
 62
     3
100
AcDbLine
 10
561.1828
 20
501.327426
 30
0.0
 11
564.1828
 21
500.5774259999999
 31
0.0
  0
LINE
  5
4C7
330
4C1
100
AcDbEntity
  8
PRO0
  6
Continuous
 62
     3
100
AcDbLine
 10
622.1828
 20
501.327426
 30
0.0
 11
619.1828
 21
500.5774259999999
 31
0.0
  0
LINE
  5
4C8
330
4C1
100
AcDbEntity
  8
PRO0
  6
Continuous
 62
     3
100
AcDbLine
 10
622.1828
 20
501.327426
 30
0.0
 11
619.1828
 21
502.077426
 31
0.0
  0
TEXT
  5
4C9
330
4C1
100
AcDbEntity
  8
PRO0
  6
Continuous
 62
     3
100
AcDbText
 10
587.549384
 20
502.827438
 30
0.0
 40
6.0
  1
６１
 41
0.73811
 72
     1
 11
591.6828
 21
502.827438
 31
0.0
100
AcDbText
  0
ENDBLK
  5
4CA
330
4C1
100
AcDbEntity
  8
0
100
AcDbBlockEnd
  0
BLOCK
  5
4CC
330
4CD
100
AcDbEntity
  8
0
100
AcDbBlockBegin
  2
*D20
 70
     1
 10
0.0
 20
0.0
 30
0.0
  3
*D20
  1

  0
LINE
  5
4CE
330
4CD
100
AcDbEntity
  8
PRO0
  6
Continuous
 62
     3
100
AcDbLine
 10
622.1828
 20
501.327426
 30
0.0
 11
656.483141
 21
501.327426
 31
0.0
  0
LINE
  5
4CF
330
4CD
100
AcDbEntity
  8
PRO0
  6
Continuous
 62
     3
100
AcDbLine
 10
656.483141
 20
496.1189509999999
 30
0.0
 11
656.483141
 21
504.327426
 31
0.0
  0
LINE
  5
4D0
330
4CD
100
AcDbEntity
  8
PRO0
  6
Continuous
 62
     3
100
AcDbLine
 10
622.1828
 20
501.327426
 30
0.0
 11
625.1828
 21
502.077426
 31
0.0
  0
LINE
  5
4D1
330
4CD
100
AcDbEntity
  8
PRO0
  6
Continuous
 62
     3
100
AcDbLine
 10
622.1828
 20
501.327426
 30
0.0
 11
625.1828
 21
500.5774259999999
 31
0.0
  0
LINE
  5
4D2
330
4CD
100
AcDbEntity
  8
PRO0
  6
Continuous
 62
     3
100
AcDbLine
 10
656.483141
 20
501.327426
 30
0.0
 11
653.483141
 21
500.5774259999999
 31
0.0
  0
LINE
  5
4D3
330
4CD
100
AcDbEntity
  8
PRO0
  6
Continuous
 62
     3
100
AcDbLine
 10
656.483141
 20
501.327426
 30
0.0
 11
653.483141
 21
502.077426
 31
0.0
  0
TEXT
  5
4D4
330
4CD
100
AcDbEntity
  8
PRO0
  6
Continuous
 62
     3
100
AcDbText
 10
629.2946360000001
 20
502.827438
 30
0.0
 40
6.0
  1
３４．３
 41
0.73811
 72
     1
 11
639.332932
 21
502.827438
 31
0.0
100
AcDbText
  0
ENDBLK
  5
4D5
330
4CD
100
AcDbEntity
  8
0
100
AcDbBlockEnd
  0
BLOCK
  5
4D7
330
4D8
100
AcDbEntity
  8
0
100
AcDbBlockBegin
  2
*D21
 70
     1
 10
0.0
 20
0.0
 30
0.0
  3
*D21
  1

  0
LINE
  5
4D9
330
4D8
100
AcDbEntity
  8
PRO0
  6
Continuous
 62
     3
100
AcDbLine
 10
656.483141
 20
501.327426
 30
0.0
 11
666.483141
 21
501.327426
 31
0.0
  0
LINE
  5
4DA
330
4D8
100
AcDbEntity
  8
PRO0
  6
Continuous
 62
     3
100
AcDbLine
 10
666.483141
 20
485.415138
 30
0.0
 11
666.483141
 21
504.327426
 31
0.0
  0
LINE
  5
4DB
330
4D8
100
AcDbEntity
  8
PRO0
  6
Continuous
 62
     3
100
AcDbLine
 10
656.483141
 20
501.327426
 30
0.0
 11
659.483141
 21
502.077426
 31
0.0
  0
LINE
  5
4DC
330
4D8
100
AcDbEntity
  8
PRO0
  6
Continuous
 62
     3
100
AcDbLine
 10
656.483141
 20
501.327426
 30
0.0
 11
659.483141
 21
500.5774259999999
 31
0.0
  0
LINE
  5
4DD
330
4D8
100
AcDbEntity
  8
PRO0
  6
Continuous
 62
     3
100
AcDbLine
 10
666.483141
 20
501.327426
 30
0.0
 11
663.483141
 21
500.5774259999999
 31
0.0
  0
LINE
  5
4DE
330
4D8
100
AcDbEntity
  8
PRO0
  6
Continuous
 62
     3
100
AcDbLine
 10
666.483141
 20
501.327426
 30
0.0
 11
663.483141
 21
502.077426
 31
0.0
  0
TEXT
  5
4DF
330
4D8
100
AcDbEntity
  8
PRO0
  6
Continuous
 62
     3
100
AcDbText
 10
656.464006
 20
502.827438
 30
0.0
 40
6.0
  1
１０
 41
0.73811
 72
     1
 11
661.4831539999999
 21
502.827438
 31
0.0
100
AcDbText
  0
ENDBLK
  5
4E0
330
4D8
100
AcDbEntity
  8
0
100
AcDbBlockEnd
  0
BLOCK
  5
4E2
330
4E3
100
AcDbEntity
  8
0
100
AcDbBlockBegin
  2
*D22
 70
     1
 10
0.0
 20
0.0
 30
0.0
  3
*D22
  1

  0
LINE
  5
4E4
330
4E3
100
AcDbEntity
  8
PRO0
  6
Continuous
 62
     3
100
AcDbLine
 10
666.483141
 20
501.327426
 30
0.0
 11
676.1828
 21
501.327426
 31
0.0
  0
LINE
  5
4E5
330
4E3
100
AcDbEntity
  8
PRO0
  6
Continuous
 62
     3
100
AcDbLine
 10
676.1828
 20
496.1189509999999
 30
0.0
 11
676.1828
 21
504.327426
 31
0.0
  0
LINE
  5
4E6
330
4E3
100
AcDbEntity
  8
PRO0
  6
Continuous
 62
     3
100
AcDbLine
 10
666.483141
 20
501.327426
 30
0.0
 11
669.483141
 21
502.077426
 31
0.0
  0
LINE
  5
4E7
330
4E3
100
AcDbEntity
  8
PRO0
  6
Continuous
 62
     3
100
AcDbLine
 10
666.483141
 20
501.327426
 30
0.0
 11
669.483141
 21
500.5774259999999
 31
0.0
  0
LINE
  5
4E8
330
4E3
100
AcDbEntity
  8
PRO0
  6
Continuous
 62
     3
100
AcDbLine
 10
676.1828
 20
501.327426
 30
0.0
 11
673.1828
 21
500.5774259999999
 31
0.0
  0
LINE
  5
4E9
330
4E3
100
AcDbEntity
  8
PRO0
  6
Continuous
 62
     3
100
AcDbLine
 10
676.1828
 20
501.327426
 30
0.0
 11
673.1828
 21
502.077426
 31
0.0
  0
TEXT
  5
4EA
330
4E3
100
AcDbEntity
  8
PRO0
  6
Continuous
 62
     3
100
AcDbText
 10
663.951847
 20
502.827438
 30
0.0
 40
6.0
  1
９．７
 41
0.73811
 72
     1
 11
671.3329469999999
 21
502.827438
 31
0.0
100
AcDbText
  0
ENDBLK
  5
4EB
330
4E3
100
AcDbEntity
  8
0
100
AcDbBlockEnd
  0
BLOCK
  5
4ED
330
4EE
100
AcDbEntity
  8
0
100
AcDbBlockBegin
  2
*D23
 70
     1
 10
0.0
 20
0.0
 30
0.0
  3
*D23
  1

  0
LINE
  5
4EF
330
4EE
100
AcDbEntity
  8
PRO0
  6
Continuous
 62
     3
100
AcDbLine
 10
527.0071989999999
 20
486.315521
 30
0.0
 11
527.0071989999999
 21
440.815508
 31
0.0
  0
LINE
  5
4F0
330
4EE
100
AcDbEntity
  8
PRO0
  6
Continuous
 62
     3
100
AcDbLine
 10
657.1831409999999
 20
486.315521
 30
0.0
 11
524.007199
 21
486.315521
 31
0.0
  0
LINE
  5
4F1
330
4EE
100
AcDbEntity
  8
PRO0
  6
Continuous
 62
     3
100
AcDbLine
 10
561.8827999999999
 20
440.815508
 30
0.0
 11
524.007199
 21
440.815508
 31
0.0
  0
LINE
  5
4F2
330
4EE
100
AcDbEntity
  8
PRO0
  6
Continuous
 62
     3
100
AcDbLine
 10
527.0071989999999
 20
486.315521
 30
0.0
 11
527.757199
 21
483.315521
 31
0.0
  0
LINE
  5
4F3
330
4EE
100
AcDbEntity
  8
PRO0
  6
Continuous
 62
     3
100
AcDbLine
 10
527.0071989999999
 20
486.315521
 30
0.0
 11
526.257199
 21
483.315521
 31
0.0
  0
LINE
  5
4F4
330
4EE
100
AcDbEntity
  8
PRO0
  6
Continuous
 62
     3
100
AcDbLine
 10
527.0071989999999
 20
440.815508
 30
0.0
 11
526.257199
 21
443.815508
 31
0.0
  0
LINE
  5
4F5
330
4EE
100
AcDbEntity
  8
PRO0
  6
Continuous
 62
     3
100
AcDbLine
 10
527.0071989999999
 20
440.815508
 30
0.0
 11
527.757199
 21
443.815508
 31
0.0
  0
TEXT
  5
4F6
330
4EE
100
AcDbEntity
  8
PRO0
  6
Continuous
 62
     3
100
AcDbText
 10
525.5072025256039
 20
453.5272099999999
 30
0.0
 40
6.0
  1
４５．５
 50
90.00000300000001
 41
0.73811
 72
     1
 11
525.507202
 21
463.5655059999999
 31
0.0
100
AcDbText
  0
ENDBLK
  5
4F7
330
4EE
100
AcDbEntity
  8
0
100
AcDbBlockEnd
  0
BLOCK
  5
4F9
330
4FA
100
AcDbEntity
  8
0
100
AcDbBlockBegin
  2
*D24
 70
     1
 10
0.0
 20
0.0
 30
0.0
  3
*D24
  1

  0
LINE
  5
4FB
330
4FA
100
AcDbEntity
  8
PRO0
  6
Continuous
 62
     3
100
AcDbLine
 10
527.0071989999999
 20
440.815508
 30
0.0
 11
527.0071989999999
 21
421.115508
 31
0.0
  0
LINE
  5
4FC
330
4FA
100
AcDbEntity
  8
PRO0
  6
Continuous
 62
     3
100
AcDbLine
 10
545.1828
 20
421.115508
 30
0.0
 11
524.007199
 21
421.115508
 31
0.0
  0
LINE
  5
4FD
330
4FA
100
AcDbEntity
  8
PRO0
  6
Continuous
 62
     3
100
AcDbLine
 10
527.0071989999999
 20
440.815508
 30
0.0
 11
527.757199
 21
437.8155079999999
 31
0.0
  0
LINE
  5
4FE
330
4FA
100
AcDbEntity
  8
PRO0
  6
Continuous
 62
     3
100
AcDbLine
 10
527.0071989999999
 20
440.815508
 30
0.0
 11
526.257199
 21
437.8155079999999
 31
0.0
  0
LINE
  5
4FF
330
4FA
100
AcDbEntity
  8
PRO0
  6
Continuous
 62
     3
100
AcDbLine
 10
527.0071989999999
 20
421.115508
 30
0.0
 11
526.257199
 21
424.115508
 31
0.0
  0
LINE
  5
500
330
4FA
100
AcDbEntity
  8
PRO0
  6
Continuous
 62
     3
100
AcDbLine
 10
527.0071989999999
 20
421.115508
 30
0.0
 11
527.757199
 21
424.115508
 31
0.0
  0
TEXT
  5
501
330
4FA
100
AcDbEntity
  8
PRO0
  6
Continuous
 62
     3
100
AcDbText
 10
525.5072025487923
 20
420.484338
 30
0.0
 40
6.0
  1
１９．７
 50
90.00000300000001
 41
0.73811
 72
     1
 11
525.507202
 21
430.9655
 31
0.0
100
AcDbText
  0
ENDBLK
  5
502
330
4FA
100
AcDbEntity
  8
0
100
AcDbBlockEnd
  0
BLOCK
  5
504
330
505
100
AcDbEntity
  8
0
100
AcDbBlockBegin
  2
*D25
 70
     1
 10
0.0
 20
0.0
 30
0.0
  3
*D25
  1

  0
LINE
  5
506
330
505
100
AcDbEntity
  8
PRO0
  6
Continuous
 62
     3
100
AcDbLine
 10
541.470009
 20
440.815508
 30
0.0
 11
541.470009
 21
430.815508
 31
0.0
  0
LINE
  5
507
330
505
100
AcDbEntity
  8
PRO0
  6
Continuous
 62
     3
100
AcDbLine
 10
549.7491639999999
 20
440.815508
 30
0.0
 11
538.4700089999999
 21
440.815508
 31
0.0
  0
LINE
  5
508
330
505
100
AcDbEntity
  8
PRO0
  6
Continuous
 62
     3
100
AcDbLine
 10
561.8827999999999
 20
430.815508
 30
0.0
 11
538.4700089999999
 21
430.815508
 31
0.0
  0
LINE
  5
509
330
505
100
AcDbEntity
  8
PRO0
  6
Continuous
 62
     3
100
AcDbLine
 10
541.470009
 20
440.815508
 30
0.0
 11
542.220009
 21
437.8155079999999
 31
0.0
  0
LINE
  5
50A
330
505
100
AcDbEntity
  8
PRO0
  6
Continuous
 62
     3
100
AcDbLine
 10
541.470009
 20
440.815508
 30
0.0
 11
540.7200089999999
 21
437.8155079999999
 31
0.0
  0
LINE
  5
50B
330
505
100
AcDbEntity
  8
PRO0
  6
Continuous
 62
     3
100
AcDbLine
 10
541.470009
 20
430.815508
 30
0.0
 11
540.7200089999999
 21
433.8155079999999
 31
0.0
  0
LINE
  5
50C
330
505
100
AcDbEntity
  8
PRO0
  6
Continuous
 62
     3
100
AcDbLine
 10
541.470009
 20
430.815508
 30
0.0
 11
542.220009
 21
433.8155079999999
 31
0.0
  0
TEXT
  5
50D
330
505
100
AcDbEntity
  8
PRO0
  6
Continuous
 62
     3
100
AcDbText
 10
539.970016262802
 20
430.796358
 30
0.0
 40
6.0
  1
１０
 50
90.00000300000001
 41
0.73811
 72
     1
 11
539.970016
 21
435.8155059999999
 31
0.0
100
AcDbText
  0
ENDBLK
  5
50E
330
505
100
AcDbEntity
  8
0
100
AcDbBlockEnd
  0
BLOCK
  5
510
330
511
100
AcDbEntity
  8
0
100
AcDbBlockBegin
  2
*D26
 70
     1
 10
0.0
 20
0.0
 30
0.0
  3
*D26
  1

  0
LINE
  5
512
330
511
100
AcDbEntity
  8
PRO0
  6
Continuous
 62
     3
100
AcDbLine
 10
541.470009
 20
430.815508
 30
0.0
 11
541.470009
 21
421.115508
 31
0.0
  0
LINE
  5
513
330
511
100
AcDbEntity
  8
PRO0
  6
Continuous
 62
     3
100
AcDbLine
 10
549.7491639999999
 20
421.115508
 30
0.0
 11
538.4700089999999
 21
421.115508
 31
0.0
  0
LINE
  5
514
330
511
100
AcDbEntity
  8
PRO0
  6
Continuous
 62
     3
100
AcDbLine
 10
541.470009
 20
430.815508
 30
0.0
 11
542.220009
 21
427.815508
 31
0.0
  0
LINE
  5
515
330
511
100
AcDbEntity
  8
PRO0
  6
Continuous
 62
     3
100
AcDbLine
 10
541.470009
 20
430.815508
 30
0.0
 11
540.7200089999999
 21
427.815508
 31
0.0
  0
LINE
  5
516
330
511
100
AcDbEntity
  8
PRO0
  6
Continuous
 62
     3
100
AcDbLine
 10
541.470009
 20
421.115508
 30
0.0
 11
540.7200089999999
 21
424.115508
 31
0.0
  0
LINE
  5
517
330
511
100
AcDbEntity
  8
PRO0
  6
Continuous
 62
     3
100
AcDbLine
 10
541.470009
 20
421.115508
 30
0.0
 11
542.220009
 21
424.115508
 31
0.0
  0
TEXT
  5
518
330
511
100
AcDbEntity
  8
PRO0
  6
Continuous
 62
     3
100
AcDbText
 10
539.9700163864735
 20
418.5843849999999
 30
0.0
 40
6.0
  1
９．７
 50
90.00000300000001
 41
0.73811
 72
     1
 11
539.970016
 21
425.9654849999999
 31
0.0
100
AcDbText
  0
ENDBLK
  5
519
330
511
100
AcDbEntity
  8
0
100
AcDbBlockEnd
  0
BLOCK
  5
51B
330
51C
100
AcDbEntity
  8
0
100
AcDbBlockBegin
  2
*D27
 70
     1
 10
0.0
 20
0.0
 30
0.0
  3
*D27
  1

  0
LINE
  5
51D
330
51C
100
AcDbEntity
  8
PRO0
  6
Continuous
 62
     3
100
AcDbLine
 10
577.1828
 20
459.440861
 30
0.0
 11
561.1828
 21
459.440861
 31
0.0
  0
LINE
  5
51E
330
51C
100
AcDbEntity
  8
PRO0
  6
Continuous
 62
     3
100
AcDbLine
 10
577.1828
 20
450.6093749999999
 30
0.0
 11
577.1828
 21
461.440861
 31
0.0
  0
LINE
  5
51F
330
51C
100
AcDbEntity
  8
PRO0
  6
Continuous
 62
     3
100
AcDbLine
 10
577.1828
 20
459.440861
 30
0.0
 11
574.1828
 21
458.690861
 31
0.0
  0
LINE
  5
520
330
51C
100
AcDbEntity
  8
PRO0
  6
Continuous
 62
     3
100
AcDbLine
 10
577.1828
 20
459.440861
 30
0.0
 11
574.1828
 21
460.190861
 31
0.0
  0
LINE
  5
521
330
51C
100
AcDbEntity
  8
PRO0
  6
Continuous
 62
     3
100
AcDbLine
 10
561.1828
 20
459.440861
 30
0.0
 11
564.1828
 21
460.190861
 31
0.0
  0
LINE
  5
522
330
51C
100
AcDbEntity
  8
PRO0
  6
Continuous
 62
     3
100
AcDbLine
 10
561.1828
 20
459.440861
 30
0.0
 11
564.1828
 21
458.690861
 31
0.0
  0
TEXT
  5
523
330
51C
100
AcDbEntity
  8
PRO0
  6
Continuous
 62
     3
100
AcDbText
 10
564.0160759999999
 20
460.9408259999999
 30
0.0
 40
6.0
  1
１６
 41
0.73811
 72
     1
 11
569.182846
 21
460.9408259999999
 31
0.0
100
AcDbText
  0
ENDBLK
  5
524
330
51C
100
AcDbEntity
  8
0
100
AcDbBlockEnd
  0
BLOCK
  5
526
330
527
100
AcDbEntity
  8
0
100
AcDbBlockBegin
  2
*D28
 70
     1
 10
0.0
 20
0.0
 30
0.0
  3
*D28
  1

  0
LINE
  5
528
330
527
100
AcDbEntity
  8
PRO0
  6
Continuous
 62
     3
100
AcDbLine
 10
637.862359
 20
486.315521
 30
0.0
 11
637.862359
 21
470.315138
 31
0.0
  0
LINE
  5
529
330
527
100
AcDbEntity
  8
PRO0
  6
Continuous
 62
     3
100
AcDbLine
 10
646.989274
 20
470.315138
 30
0.0
 11
635.8623589999999
 21
470.315138
 31
0.0
  0
LINE
  5
52A
330
527
100
AcDbEntity
  8
PRO0
  6
Continuous
 62
     3
100
AcDbLine
 10
637.862359
 20
486.315521
 30
0.0
 11
638.6123589999999
 21
483.315521
 31
0.0
  0
LINE
  5
52B
330
527
100
AcDbEntity
  8
PRO0
  6
Continuous
 62
     3
100
AcDbLine
 10
637.862359
 20
486.315521
 30
0.0
 11
637.1123589999999
 21
483.315521
 31
0.0
  0
LINE
  5
52C
330
527
100
AcDbEntity
  8
PRO0
  6
Continuous
 62
     3
100
AcDbLine
 10
637.862359
 20
470.315138
 30
0.0
 11
637.1123589999999
 21
473.3151379999999
 31
0.0
  0
LINE
  5
52D
330
527
100
AcDbEntity
  8
PRO0
  6
Continuous
 62
     3
100
AcDbLine
 10
637.862359
 20
470.315138
 30
0.0
 11
638.6123589999999
 21
473.3151379999999
 31
0.0
  0
TEXT
  5
52E
330
527
100
AcDbEntity
  8
PRO0
  6
Continuous
 62
     3
100
AcDbText
 10
636.3623662705315
 20
473.148568
 30
0.0
 40
6.0
  1
１６
 50
90.00000300000001
 41
0.73811
 72
     1
 11
636.362366
 21
478.3153379999999
 31
0.0
100
AcDbText
  0
ENDBLK
  5
52F
330
527
100
AcDbEntity
  8
0
100
AcDbBlockEnd
  0
BLOCK
  5
537
330
538
100
AcDbEntity
  8
0
100
AcDbBlockBegin
  2
*D29
 70
     1
 10
0.0
 20
0.0
 30
0.0
  3
*D29
  1

  0
LINE
  5
539
330
538
100
AcDbEntity
  8
PRO0
  6
Continuous
 62
     3
100
AcDbLine
 10
731.947925
 20
421.115508
 30
0.0
 11
731.947925
 21
451.115138
 31
0.0
  0
LINE
  5
53A
330
538
100
AcDbEntity
  8
PRO0
  6
Continuous
 62
     3
100
AcDbLine
 10
627.1828
 20
421.115508
 30
0.0
 11
733.9479250000001
 21
421.115508
 31
0.0
  0
LINE
  5
53B
330
538
100
AcDbEntity
  8
PRO0
  6
Continuous
 62
     3
100
AcDbLine
 10
721.6943829999999
 20
451.115138
 30
0.0
 11
733.9479250000001
 21
451.115138
 31
0.0
  0
LINE
  5
53C
330
538
100
AcDbEntity
  8
PRO0
  6
Continuous
 62
     3
100
AcDbLine
 10
731.947925
 20
421.115508
 30
0.0
 11
731.197925
 21
424.115508
 31
0.0
  0
LINE
  5
53D
330
538
100
AcDbEntity
  8
PRO0
  6
Continuous
 62
     3
100
AcDbLine
 10
731.947925
 20
421.115508
 30
0.0
 11
732.697925
 21
424.115508
 31
0.0
  0
LINE
  5
53E
330
538
100
AcDbEntity
  8
PRO0
  6
Continuous
 62
     3
100
AcDbLine
 10
731.947925
 20
451.115138
 30
0.0
 11
732.697925
 21
448.115138
 31
0.0
  0
LINE
  5
53F
330
538
100
AcDbEntity
  8
PRO0
  6
Continuous
 62
     3
100
AcDbLine
 10
731.947925
 20
451.115138
 30
0.0
 11
731.197925
 21
448.115138
 31
0.0
  0
TEXT
  5
540
330
538
100
AcDbEntity
  8
PRO0
  6
Continuous
 62
     3
100
AcDbText
 10
730.4478612396135
 20
431.5390129999999
 30
0.0
 40
6.0
  1
３０
 50
90.00000300000001
 41
0.73811
 72
     1
 11
730.447861
 21
436.115295
 31
0.0
100
AcDbText
  0
ENDBLK
  5
541
330
538
100
AcDbEntity
  8
0
100
AcDbBlockEnd
  0
BLOCK
  5
543
330
544
100
AcDbEntity
  8
0
100
AcDbBlockBegin
  2
*D30
 70
     1
 10
0.0
 20
0.0
 30
0.0
  3
*D30
  1

  0
LINE
  5
545
330
544
100
AcDbEntity
  8
PRO0
  6
Continuous
 62
     3
100
AcDbLine
 10
596.1828
 20
350.352649
 30
0.0
 11
626.1828
 21
350.352649
 31
0.0
  0
LINE
  5
546
330
544
100
AcDbEntity
  8
PRO0
  6
Continuous
 62
     3
100
AcDbLine
 10
596.1828
 20
375.603925
 30
0.0
 11
596.1828
 21
348.352649
 31
0.0
  0
LINE
  5
547
330
544
100
AcDbEntity
  8
PRO0
  6
Continuous
 62
     3
100
AcDbLine
 10
626.1828
 20
360.115508
 30
0.0
 11
626.1828
 21
348.352649
 31
0.0
  0
LINE
  5
548
330
544
100
AcDbEntity
  8
PRO0
  6
Continuous
 62
     3
100
AcDbLine
 10
596.1828
 20
350.352649
 30
0.0
 11
599.1828
 21
351.102649
 31
0.0
  0
LINE
  5
549
330
544
100
AcDbEntity
  8
PRO0
  6
Continuous
 62
     3
100
AcDbLine
 10
596.1828
 20
350.352649
 30
0.0
 11
599.1828
 21
349.602649
 31
0.0
  0
LINE
  5
54A
330
544
100
AcDbEntity
  8
PRO0
  6
Continuous
 62
     3
100
AcDbLine
 10
626.1828
 20
350.352649
 30
0.0
 11
623.1828
 21
349.602649
 31
0.0
  0
LINE
  5
54B
330
544
100
AcDbEntity
  8
PRO0
  6
Continuous
 62
     3
100
AcDbLine
 10
626.1828
 20
350.352649
 30
0.0
 11
623.1828
 21
351.102649
 31
0.0
  0
TEXT
  5
54C
330
544
100
AcDbEntity
  8
PRO0
  6
Continuous
 62
     3
100
AcDbText
 10
606.606518
 20
351.852631
 30
0.0
 40
6.0
  1
３０
 41
0.73811
 72
     1
 11
611.1828
 21
351.852631
 31
0.0
100
AcDbText
  0
ENDBLK
  5
54D
330
544
100
AcDbEntity
  8
0
100
AcDbBlockEnd
  0
BLOCK
  5
54F
330
550
100
AcDbEntity
  8
0
100
AcDbBlockBegin
  2
*D31
 70
     1
 10
0.0
 20
0.0
 30
0.0
  3
*D31
  1

  0
LINE
  5
551
330
550
100
AcDbEntity
  8
PRO0
  6
Continuous
 62
     3
100
AcDbLine
 10
626.1828
 20
350.352649
 30
0.0
 11
676.1828
 21
350.352649
 31
0.0
  0
LINE
  5
552
330
550
100
AcDbEntity
  8
PRO0
  6
Continuous
 62
     3
100
AcDbLine
 10
676.1828
 20
360.115508
 30
0.0
 11
676.1828
 21
348.352649
 31
0.0
  0
LINE
  5
553
330
550
100
AcDbEntity
  8
PRO0
  6
Continuous
 62
     3
100
AcDbLine
 10
626.1828
 20
350.352649
 30
0.0
 11
629.1828
 21
351.102649
 31
0.0
  0
LINE
  5
554
330
550
100
AcDbEntity
  8
PRO0
  6
Continuous
 62
     3
100
AcDbLine
 10
626.1828
 20
350.352649
 30
0.0
 11
629.1828
 21
349.602649
 31
0.0
  0
LINE
  5
555
330
550
100
AcDbEntity
  8
PRO0
  6
Continuous
 62
     3
100
AcDbLine
 10
676.1828
 20
350.352649
 30
0.0
 11
673.1828
 21
349.602649
 31
0.0
  0
LINE
  5
556
330
550
100
AcDbEntity
  8
PRO0
  6
Continuous
 62
     3
100
AcDbLine
 10
676.1828
 20
350.352649
 30
0.0
 11
673.1828
 21
351.102649
 31
0.0
  0
TEXT
  5
557
330
550
100
AcDbEntity
  8
PRO0
  6
Continuous
 62
     3
100
AcDbText
 10
646.458881
 20
351.852631
 30
0.0
 40
6.0
  1
５０
 41
0.73811
 72
     1
 11
651.1827849999999
 21
351.852631
 31
0.0
100
AcDbText
  0
ENDBLK
  5
558
330
550
100
AcDbEntity
  8
0
100
AcDbBlockEnd
  0
BLOCK
  5
701
330
702
100
AcDbEntity
  8
0
100
AcDbBlockBegin
  2
*D32
 70
     1
 10
0.0
 20
0.0
 30
0.0
  3
*D32
  1

  0
LINE
  5
703
330
702
100
AcDbEntity
  8
PRO0
  6
Continuous
 62
     3
100
AcDbLine
 10
676.1828
 20
525.707591
 30
0.0
 11
561.1828
 21
525.707591
 31
0.0
  0
LINE
  5
704
330
702
100
AcDbEntity
  8
PRO0
  6
Continuous
 62
     3
100
AcDbLine
 10
676.1828
 20
498.343812
 30
0.0
 11
676.1828
 21
528.7075909999999
 31
0.0
  0
LINE
  5
705
330
702
100
AcDbEntity
  8
PRO0
  6
Continuous
 62
     3
100
AcDbLine
 10
561.1828
 20
440.115508
 30
0.0
 11
561.1828
 21
528.7075909999999
 31
0.0
  0
LINE
  5
706
330
702
100
AcDbEntity
  8
PRO0
  6
Continuous
 62
     3
100
AcDbLine
 10
676.1828
 20
525.707591
 30
0.0
 11
673.1828
 21
524.9575909999999
 31
0.0
  0
LINE
  5
707
330
702
100
AcDbEntity
  8
PRO0
  6
Continuous
 62
     3
100
AcDbLine
 10
676.1828
 20
525.707591
 30
0.0
 11
673.1828
 21
526.4575909999999
 31
0.0
  0
LINE
  5
708
330
702
100
AcDbEntity
  8
PRO0
  6
Continuous
 62
     3
100
AcDbLine
 10
561.1828
 20
525.707591
 30
0.0
 11
564.1828
 21
526.4575909999999
 31
0.0
  0
LINE
  5
709
330
702
100
AcDbEntity
  8
PRO0
  6
Continuous
 62
     3
100
AcDbLine
 10
561.1828
 20
525.707591
 30
0.0
 11
564.1828
 21
524.9575909999999
 31
0.0
  0
TEXT
  5
70A
330
702
100
AcDbEntity
  8
PRO0
  6
Continuous
 62
     3
100
AcDbText
 10
610.8587889999999
 20
527.207611
 30
0.0
 40
6.0
  1
１１５
 41
0.73811
 72
     1
 11
618.6827549999999
 21
527.207611
 31
0.0
100
AcDbText
  0
ENDBLK
  5
70B
330
702
100
AcDbEntity
  8
0
100
AcDbBlockEnd
  0
ENDSEC
  0
SECTION
  2
ENTITIES
  0
LINE
  5
41
330
70E
100
AcDbEntity
  8
PRO0
  6
Continuous
 62
     3
100
AcDbLine
 10
142.159359
 20
425.401767
 30
0.0
 11
126.1984809999999
 21
397.756716
 31
0.0
  0
LINE
  5
42
330
70E
100
AcDbEntity
  8
PRO0
  6
Continuous
 62
     3
100
AcDbLine
 10
126.1984809999999
 20
397.756716
 30
0.0
 11
55.391395
 21
397.756716
 31
0.0
  0
CIRCLE
  5
43
330
70E
100
AcDbEntity
  8
PRO0
  6
Continuous
 62
     3
100
AcDbCircle
 10
142.159359
 20
425.401767
 30
0.0
 40
0.6
  0
TEXT
  5
44
330
70E
100
AcDbEntity
  8
PRO0
  6
Continuous
 62
     3
100
AcDbText
 10
55.39139599999999
 20
399.2567139999999
 30
0.0
 40
7.5
  1
コーキング処理（別途）
 41
0.73811
100
AcDbText
  0
LINE
  5
45
330
70E
100
AcDbEntity
  8
PRO0
  6
Continuous
 62
     3
100
AcDbLine
 10
569.1828
 20
426.607133
 30
0.0
 11
553.8284039999999
 21
400.012538
 31
0.0
  0
LINE
  5
46
330
70E
100
AcDbEntity
  8
PRO0
  6
Continuous
 62
     3
100
AcDbLine
 10
553.8284039999999
 20
400.012538
 30
0.0
 11
483.021317
 21
400.012538
 31
0.0
  0
CIRCLE
  5
47
330
70E
100
AcDbEntity
  8
PRO0
  6
Continuous
 62
     3
100
AcDbCircle
 10
569.1828
 20
426.607133
 30
0.0
 40
0.6
  0
TEXT
  5
48
330
70E
100
AcDbEntity
  8
PRO0
  6
Continuous
 62
     3
100
AcDbText
 10
483.021332
 20
401.5125269999999
 30
0.0
 40
7.5
  1
コーキング処理（別途）
 41
0.73811
100
AcDbText
  0
LINE
  5
49
330
70E
100
AcDbEntity
  8
PRO0
  6
Continuous
 62
     3
100
AcDbLine
 10
671.148958
 20
480.383698
 30
0.0
 11
684.0045629999999
 21
502.6502579999999
 31
0.0
  0
LINE
  5
4A
330
70E
100
AcDbEntity
  8
PRO0
  6
Continuous
 62
     3
100
AcDbLine
 10
684.0045629999999
 20
502.6502579999999
 30
0.0
 11
754.8116489999999
 21
502.6502579999999
 31
0.0
  0
CIRCLE
  5
4B
330
70E
100
AcDbEntity
  8
PRO0
  6
Continuous
 62
     3
100
AcDbCircle
 10
671.148958
 20
480.383698
 30
0.0
 40
0.6
  0
TEXT
  5
4C
330
70E
100
AcDbEntity
  8
PRO0
  6
Continuous
 62
     3
100
AcDbText
 10
684.004578
 20
504.1502379999999
 30
0.0
 40
7.5
  1
コーキング処理（別途）
 41
0.73811
100
AcDbText
  0
LINE
  5
4D
330
70E
100
AcDbEntity
  8
PRO0
  6
Continuous
 62
     3
100
AcDbLine
 10
569.1828
 20
421.179469
 30
0.0
 11
563.8715459999999
 21
426.490723
 31
0.0
  0
LINE
  5
4E
330
70E
100
AcDbEntity
  8
PRO0
  6
Continuous
 62
     3
100
AcDbLine
 10
567.125441
 20
421.115508
 30
0.0
 11
563.78902
 21
424.451929
 31
0.0
  0
LINE
  5
4F
330
70E
100
AcDbEntity
  8
PRO0
  6
Continuous
 62
     3
100
AcDbLine
 10
565.0041209999999
 20
421.115508
 30
0.0
 11
563.435546
 21
422.6840829999999
 31
0.0
  0
LINE
  5
50
330
70E
100
AcDbEntity
  8
PRO0
  6
Continuous
 62
     3
100
AcDbLine
 10
569.1828
 20
423.3007889999999
 30
0.0
 11
563.507435
 21
428.976155
 31
0.0
  0
LINE
  5
51
330
70E
100
AcDbEntity
  8
PRO0
  6
Continuous
 62
     3
100
AcDbLine
 10
569.1828
 20
425.4221099999999
 30
0.0
 11
563.789402
 21
430.815508
 31
0.0
  0
LINE
  5
52
330
70E
100
AcDbEntity
  8
PRO0
  6
Continuous
 62
     3
100
AcDbLine
 10
569.1828
 20
427.5434299999999
 30
0.0
 11
565.910722
 21
430.815508
 31
0.0
  0
LINE
  5
53
330
70E
100
AcDbEntity
  8
PRO0
  6
Continuous
 62
     3
100
AcDbLine
 10
569.1828
 20
429.66475
 30
0.0
 11
568.0320429999999
 21
430.815508
 31
0.0
  0
LINE
  5
54
330
70E
100
AcDbEntity
  8
PRO0
  6
Continuous
 62
     3
100
AcDbLine
 10
676.118839
 20
478.1151379999999
 30
0.0
 11
670.8075769999999
 21
483.4264
 31
0.0
  0
LINE
  5
55
330
70E
100
AcDbEntity
  8
PRO0
  6
Continuous
 62
     3
100
AcDbLine
 10
673.997519
 20
478.1151379999999
 30
0.0
 11
668.3220610000001
 21
483.7905959999999
 31
0.0
  0
LINE
  5
56
330
70E
100
AcDbEntity
  8
PRO0
  6
Continuous
 62
     3
100
AcDbLine
 10
671.876199
 20
478.1151379999999
 30
0.0
 11
666.483141
 21
483.508195
 31
0.0
  0
LINE
  5
57
330
70E
100
AcDbEntity
  8
PRO0
  6
Continuous
 62
     3
100
AcDbLine
 10
669.754878
 20
478.1151379999999
 30
0.0
 11
666.483141
 21
481.386875
 31
0.0
  0
LINE
  5
58
330
70E
100
AcDbEntity
  8
PRO0
  6
Continuous
 62
     3
100
AcDbLine
 10
667.6335579999999
 20
478.1151379999999
 30
0.0
 11
666.483141
 21
479.265555
 31
0.0
  0
LINE
  5
59
330
70E
100
AcDbEntity
  8
PRO0
  6
Continuous
 62
     3
100
AcDbLine
 10
676.1828
 20
480.1724969999999
 30
0.0
 11
672.8463929999999
 21
483.508904
 31
0.0
  0
LINE
  5
5A
330
70E
100
AcDbEntity
  8
PRO0
  6
Continuous
 62
     3
100
AcDbLine
 10
676.1828
 20
482.2938169999999
 30
0.0
 11
674.614238
 21
483.8623789999999
 31
0.0
  0
LINE
  5
5B
330
70E
100
AcDbEntity
  8
PRO0
  6
Continuous
 62
     3
100
AcDbLine
 10
676.1828
 20
484.411691
 30
0.0
 11
676.180391
 21
484.4141
 31
0.0
  0
LINE
  5
5C
330
70E
100
AcDbEntity
  8
PRO0
  6
Continuous
 62
     3
100
AcDbLine
 10
181.865546
 20
440.815508
 30
0.0
 11
188.5097169999999
 21
452.323549
 31
0.0
  0
CIRCLE
  5
5D
330
70E
100
AcDbEntity
  8
PRO0
  6
Continuous
 62
     3
100
AcDbCircle
 10
191.059717
 20
456.740278
 30
0.0
 40
5.099999999999999
  0
CIRCLE
  5
5E
330
70E
100
AcDbEntity
  8
PRO0
  6
Continuous
 62
     3
100
AcDbCircle
 10
181.865546
 20
440.815508
 30
0.0
 40
0.6
  0
TEXT
  5
5F
330
70E
100
AcDbEntity
  8
PRO0
  6
Continuous
 62
     3
100
AcDbText
 10
189.3632469759999
 20
454.088287
 30
0.0
 40
5.303999999999999
  1
１
 41
0.73811
 72
     1
 11
191.059719
 21
454.088287
 31
0.0
100
AcDbText
  0
LINE
  5
60
330
70E
100
AcDbEntity
  8
PRO0
  6
Continuous
 62
     3
100
AcDbLine
 10
195.826699
 20
424.615508
 30
0.0
 11
205.7759169999999
 21
441.8480589999999
 31
0.0
  0
CIRCLE
  5
61
330
70E
100
AcDbEntity
  8
PRO0
  6
Continuous
 62
     3
100
AcDbCircle
 10
208.325917
 20
446.2647889999999
 30
0.0
 40
5.099999999999999
  0
CIRCLE
  5
62
330
70E
100
AcDbEntity
  8
PRO0
  6
Continuous
 62
     3
100
AcDbCircle
 10
195.826699
 20
424.615508
 30
0.0
 40
0.6
  0
TEXT
  5
63
330
70E
100
AcDbEntity
  8
PRO0
  6
Continuous
 62
     3
100
AcDbText
 10
206.4989421279999
 20
443.612778
 30
0.0
 40
5.303999999999999
  1
３
 41
0.73811
 72
     1
 11
208.325912
 21
443.612778
 31
0.0
100
AcDbText
  0
LINE
  5
64
330
70E
100
AcDbEntity
  8
PRO0
  6
Continuous
 62
     3
100
AcDbLine
 10
226.326699
 20
434.315515
 30
0.0
 11
231.1071899999999
 21
442.5955679999999
 31
0.0
  0
CIRCLE
  5
65
330
70E
100
AcDbEntity
  8
PRO0
  6
Continuous
 62
     3
100
AcDbCircle
 10
233.65719
 20
447.012297
 30
0.0
 40
5.099999999999999
  0
CIRCLE
  5
66
330
70E
100
AcDbEntity
  8
PRO0
  6
Continuous
 62
     3
100
AcDbCircle
 10
226.326699
 20
434.315515
 30
0.0
 40
0.6
  0
TEXT
  5
67
330
70E
100
AcDbEntity
  8
PRO0
  6
Continuous
 62
     3
100
AcDbText
 10
231.8302111279999
 20
444.360306
 30
0.0
 40
5.303999999999999
  1
２
 41
0.73811
 72
     1
 11
233.657181
 21
444.360306
 31
0.0
100
AcDbText
  0
LINE
  5
68
330
70E
100
AcDbEntity
  8
PRO0
  6
Continuous
 62
     3
100
AcDbLine
 10
207.776723
 20
401.0877069999999
 30
0.0
 11
213.9029009999999
 21
411.6985579999999
 31
0.0
  0
CIRCLE
  5
69
330
70E
100
AcDbEntity
  8
PRO0
  6
Continuous
 62
     3
100
AcDbCircle
 10
216.4529009999999
 20
416.115287
 30
0.0
 40
5.099999999999999
  0
CIRCLE
  5
6A
330
70E
100
AcDbEntity
  8
PRO0
  6
Continuous
 62
     3
100
AcDbCircle
 10
207.776723
 20
401.0877069999999
 30
0.0
 40
0.6
  0
TEXT
  5
6B
330
70E
100
AcDbEntity
  8
PRO0
  6
Continuous
 62
     3
100
AcDbText
 10
214.6259411279999
 20
413.4632719999999
 30
0.0
 40
5.303999999999999
  1
４
 41
0.73811
 72
     1
 11
216.452911
 21
413.4632719999999
 31
0.0
100
AcDbText
  0
LINE
  5
6C
330
70E
100
AcDbEntity
  8
PRO0
  6
Continuous
 62
     3
100
AcDbLine
 10
166.7034639999999
 20
401.315129
 30
0.0
 11
158.952936
 21
387.890821
 31
0.0
  0
CIRCLE
  5
6D
330
70E
100
AcDbEntity
  8
PRO0
  6
Continuous
 62
     3
100
AcDbCircle
 10
156.402936
 20
383.4740909999999
 30
0.0
 40
5.099999999999999
  0
CIRCLE
  5
6E
330
70E
100
AcDbEntity
  8
PRO0
  6
Continuous
 62
     3
100
AcDbCircle
 10
166.7034639999999
 20
401.315129
 30
0.0
 40
0.6
  0
TEXT
  5
6F
330
70E
100
AcDbEntity
  8
PRO0
  6
Continuous
 62
     3
100
AcDbText
 10
154.44546728
 20
380.82209
 30
0.0
 40
5.303999999999999
  1
５
 41
0.73811
 72
     1
 11
156.402935
 21
380.82209
 31
0.0
100
AcDbText
  0
LINE
  5
70
330
70E
100
AcDbEntity
  8
PRO0
  6
Continuous
 62
     3
100
AcDbLine
 10
171.3266989999999
 20
428.9155079999999
 30
0.0
 11
157.135715
 21
404.336004
 31
0.0
  0
CIRCLE
  5
71
330
70E
100
AcDbEntity
  8
PRO0
  6
Continuous
 62
     3
100
AcDbCircle
 10
154.5857149999999
 20
399.919274
 30
0.0
 40
5.099999999999999
  0
CIRCLE
  5
72
330
70E
100
AcDbEntity
  8
PRO0
  6
Continuous
 62
     3
100
AcDbCircle
 10
171.3266989999999
 20
428.9155079999999
 30
0.0
 40
0.6
  0
TEXT
  5
73
330
70E
100
AcDbEntity
  8
PRO0
  6
Continuous
 62
     3
100
AcDbText
 10
152.7587461279999
 20
397.2672729999999
 30
0.0
 40
5.303999999999999
  1
６
 41
0.73811
 72
     1
 11
154.5857159999999
 21
397.2672729999999
 31
0.0
100
AcDbText
  0
LINE
  5
74
330
70E
100
AcDbEntity
  8
PRO0
  6
Continuous
 62
     3
100
AcDbLine
 10
152.3266989999999
 20
446.3155079999999
 30
0.0
 11
156.7964599999999
 21
454.0573619999999
 31
0.0
  0
CIRCLE
  5
75
330
70E
100
AcDbEntity
  8
PRO0
  6
Continuous
 62
     3
100
AcDbCircle
 10
159.34646
 20
458.4740909999999
 30
0.0
 40
5.099999999999999
  0
CIRCLE
  5
76
330
70E
100
AcDbEntity
  8
PRO0
  6
Continuous
 62
     3
100
AcDbCircle
 10
152.3266989999999
 20
446.3155079999999
 30
0.0
 40
0.6
  0
TEXT
  5
77
330
70E
100
AcDbEntity
  8
PRO0
  6
Continuous
 62
     3
100
AcDbText
 10
157.519488128
 20
455.8221129999999
 30
0.0
 40
5.303999999999999
  1
７
 41
0.73811
 72
     1
 11
159.346458
 21
455.8221129999999
 31
0.0
100
AcDbText
  0
LINE
  5
78
330
70E
100
AcDbEntity
  8
PRO0
  6
Continuous
 62
     3
100
AcDbLine
 10
178.260918
 20
425.615508
 30
0.0
 11
185.771162
 21
412.607383
 31
0.0
  0
CIRCLE
  5
79
330
70E
100
AcDbEntity
  8
PRO0
  6
Continuous
 62
     3
100
AcDbCircle
 10
188.321162
 20
408.190654
 30
0.0
 40
5.099999999999999
  0
CIRCLE
  5
7A
330
70E
100
AcDbEntity
  8
PRO0
  6
Continuous
 62
     3
100
AcDbCircle
 10
178.260918
 20
425.615508
 30
0.0
 40
0.6
  0
TEXT
  5
7B
330
70E
100
AcDbEntity
  8
PRO0
  6
Continuous
 62
     3
100
AcDbText
 10
186.4941891279999
 20
405.5386509999999
 30
0.0
 40
5.303999999999999
  1
８
 41
0.73811
 72
     1
 11
188.3211589999999
 21
405.5386509999999
 31
0.0
100
AcDbText
  0
LINE
  5
7C
330
70E
100
AcDbEntity
  8
PRO0
  6
Continuous
 62
     3
100
AcDbLine
 10
191.547631
 20
437.561283
 30
0.0
 11
201.1098739999999
 21
454.123575
 31
0.0
  0
CIRCLE
  5
7D
330
70E
100
AcDbEntity
  8
PRO0
  6
Continuous
 62
     3
100
AcDbCircle
 10
203.659874
 20
458.540304
 30
0.0
 40
5.099999999999999
  0
CIRCLE
  5
7E
330
70E
100
AcDbEntity
  8
PRO0
  6
Continuous
 62
     3
100
AcDbCircle
 10
191.547631
 20
437.561283
 30
0.0
 40
0.6
  0
TEXT
  5
7F
330
70E
100
AcDbEntity
  8
PRO0
  6
Continuous
 62
     3
100
AcDbText
 10
201.8329121279999
 20
455.8883059999999
 30
0.0
 40
5.303999999999999
  1
９
 41
0.73811
 72
     1
 11
203.659882
 21
455.8883059999999
 31
0.0
100
AcDbText
  0
LINE
  5
80
330
70E
100
AcDbEntity
  8
PRO0
  6
Continuous
 62
     3
100
AcDbLine
 10
592.292968
 20
440.815508
 30
0.0
 11
599.8522499999999
 21
453.908569
 31
0.0
  0
CIRCLE
  5
81
330
70E
100
AcDbEntity
  8
PRO0
  6
Continuous
 62
     3
100
AcDbCircle
 10
602.10225
 20
457.805683
 30
0.0
 40
4.5
  0
CIRCLE
  5
82
330
70E
100
AcDbEntity
  8
PRO0
  6
Continuous
 62
     3
100
AcDbCircle
 10
592.292968
 20
440.815508
 30
0.0
 40
0.6
  0
TEXT
  5
83
330
70E
100
AcDbEntity
  8
PRO0
  6
Continuous
 62
     3
100
AcDbText
 10
600.1831479999999
 20
454.805695
 30
0.0
 40
6.0
  1
１
 41
0.73811
 72
     1
 11
602.102234
 21
454.805695
 31
0.0
100
AcDbText
  0
LINE
  5
84
330
70E
100
AcDbEntity
  8
PRO0
  6
Continuous
 62
     3
100
AcDbLine
 10
639.488122
 20
434.315523
 30
0.0
 11
646.110362
 21
445.7855789999999
 31
0.0
  0
CIRCLE
  5
85
330
70E
100
AcDbEntity
  8
PRO0
  6
Continuous
 62
     3
100
AcDbCircle
 10
648.360362
 20
449.682693
 30
0.0
 40
4.5
  0
CIRCLE
  5
86
330
70E
100
AcDbEntity
  8
PRO0
  6
Continuous
 62
     3
100
AcDbCircle
 10
639.488122
 20
434.315523
 30
0.0
 40
0.6
  0
TEXT
  5
87
330
70E
100
AcDbEntity
  8
PRO0
  6
Continuous
 62
     3
100
AcDbText
 10
646.2936889999999
 20
446.6826779999999
 30
0.0
 40
6.0
  1
２
 41
0.73811
 72
     1
 11
648.3603969999998
 21
446.6826779999999
 31
0.0
100
AcDbText
  0
LINE
  5
88
330
70E
100
AcDbEntity
  8
PRO0
  6
Continuous
 62
     3
100
AcDbLine
 10
622.1828
 20
429.4581289999999
 30
0.0
 11
630.916149
 21
444.584733
 31
0.0
  0
CIRCLE
  5
89
330
70E
100
AcDbEntity
  8
PRO0
  6
Continuous
 62
     3
100
AcDbCircle
 10
633.166149
 20
448.4818469999999
 30
0.0
 40
4.5
  0
CIRCLE
  5
8A
330
70E
100
AcDbEntity
  8
PRO0
  6
Continuous
 62
     3
100
AcDbCircle
 10
622.1828
 20
429.4581289999999
 30
0.0
 40
0.6
  0
TEXT
  5
8B
330
70E
100
AcDbEntity
  8
PRO0
  6
Continuous
 62
     3
100
AcDbText
 10
631.09946
 20
445.4818269999999
 30
0.0
 40
6.0
  1
３
 41
0.73811
 72
     1
 11
633.1661679999999
 21
445.4818269999999
 31
0.0
100
AcDbText
  0
LINE
  5
8C
330
70E
100
AcDbEntity
  8
PRO0
  6
Continuous
 62
     3
100
AcDbLine
 10
673.1831409999999
 20
463.9962719999999
 30
0.0
 11
681.721
 21
478.784279
 31
0.0
  0
CIRCLE
  5
8D
330
70E
100
AcDbEntity
  8
PRO0
  6
Continuous
 62
     3
100
AcDbCircle
 10
683.971
 20
482.6813929999999
 30
0.0
 40
4.5
  0
CIRCLE
  5
8E
330
70E
100
AcDbEntity
  8
PRO0
  6
Continuous
 62
     3
100
AcDbCircle
 10
673.1831409999999
 20
463.9962719999999
 30
0.0
 40
0.6
  0
TEXT
  5
8F
330
70E
100
AcDbEntity
  8
PRO0
  6
Continuous
 62
     3
100
AcDbText
 10
681.9042700000001
 20
479.681396
 30
0.0
 40
6.0
  1
４
 41
0.73811
 72
     1
 11
683.970978
 21
479.681396
 31
0.0
100
AcDbText
  0
LINE
  5
90
330
70E
100
AcDbEntity
  8
PRO0
  6
Continuous
 62
     3
100
AcDbLine
 10
635.1702979999999
 20
391.7011519999999
 30
0.0
 11
641.330825
 21
402.371497
 31
0.0
  0
CIRCLE
  5
91
330
70E
100
AcDbEntity
  8
PRO0
  6
Continuous
 62
     3
100
AcDbCircle
 10
643.580825
 20
406.268612
 30
0.0
 40
4.5
  0
CIRCLE
  5
92
330
70E
100
AcDbEntity
  8
PRO0
  6
Continuous
 62
     3
100
AcDbCircle
 10
635.1702979999999
 20
391.7011519999999
 30
0.0
 40
0.6
  0
TEXT
  5
93
330
70E
100
AcDbEntity
  8
PRO0
  6
Continuous
 62
     3
100
AcDbText
 10
641.3665109999999
 20
403.2685999999999
 30
0.0
 40
6.0
  1
５
 41
0.73811
 72
     1
 11
643.5808409999999
 21
403.2685999999999
 31
0.0
100
AcDbText
  0
LINE
  5
94
330
70E
100
AcDbEntity
  8
PRO0
  6
Continuous
 62
     3
100
AcDbLine
 10
591.4548929999999
 20
399.31787
 30
0.0
 11
582.700124
 21
384.1541649999999
 31
0.0
  0
CIRCLE
  5
95
330
70E
100
AcDbEntity
  8
PRO0
  6
Continuous
 62
     3
100
AcDbCircle
 10
580.450124
 20
380.2570509999999
 30
0.0
 40
4.5
  0
CIRCLE
  5
96
330
70E
100
AcDbEntity
  8
PRO0
  6
Continuous
 62
     3
100
AcDbCircle
 10
591.4548929999999
 20
399.31787
 30
0.0
 40
0.6
  0
TEXT
  5
97
330
70E
100
AcDbEntity
  8
PRO0
  6
Continuous
 62
     3
100
AcDbText
 10
578.383396
 20
377.25705
 30
0.0
 40
6.0
  1
６
 41
0.73811
 72
     1
 11
580.4501039999999
 21
377.25705
 31
0.0
100
AcDbText
  0
LINE
  5
98
330
70E
100
AcDbEntity
  8
PRO0
  6
Continuous
 62
     3
100
AcDbLine
 10
596.1828
 20
428.9155079999999
 30
0.0
 11
581.277297
 21
403.0984189999999
 31
0.0
  0
CIRCLE
  5
99
330
70E
100
AcDbEntity
  8
PRO0
  6
Continuous
 62
     3
100
AcDbCircle
 10
579.027297
 20
399.201305
 30
0.0
 40
4.5
  0
CIRCLE
  5
9A
330
70E
100
AcDbEntity
  8
PRO0
  6
Continuous
 62
     3
100
AcDbCircle
 10
596.1828
 20
428.9155079999999
 30
0.0
 40
0.6
  0
TEXT
  5
9B
330
70E
100
AcDbEntity
  8
PRO0
  6
Continuous
 62
     3
100
AcDbText
 10
576.9605750000001
 20
396.201324
 30
0.0
 40
6.0
  1
７
 41
0.73811
 72
     1
 11
579.027283
 21
396.201324
 31
0.0
100
AcDbText
  0
LINE
  5
9C
330
70E
100
AcDbEntity
  8
PRO0
  6
Continuous
 62
     3
100
AcDbLine
 10
577.1828
 20
446.3155079999999
 30
0.0
 11
585.555541
 21
460.8175199999999
 31
0.0
  0
CIRCLE
  5
9D
330
70E
100
AcDbEntity
  8
PRO0
  6
Continuous
 62
     3
100
AcDbCircle
 10
587.805541
 20
464.7146349999999
 30
0.0
 40
4.5
  0
CIRCLE
  5
9E
330
70E
100
AcDbEntity
  8
PRO0
  6
Continuous
 62
     3
100
AcDbCircle
 10
577.1828
 20
446.3155079999999
 30
0.0
 40
0.6
  0
TEXT
  5
9F
330
70E
100
AcDbEntity
  8
PRO0
  6
Continuous
 62
     3
100
AcDbText
 10
585.7388339999999
 20
461.7146299999999
 30
0.0
 40
6.0
  1
８
 41
0.73811
 72
     1
 11
587.8055419999999
 21
461.7146299999999
 31
0.0
100
AcDbText
  0
LINE
  5
A0
330
70E
100
AcDbEntity
  8
PRO0
  6
Continuous
 62
     3
100
AcDbLine
 10
602.53139
 20
425.615508
 30
0.0
 11
611.3145519999999
 21
410.402625
 31
0.0
  0
CIRCLE
  5
A1
330
70E
100
AcDbEntity
  8
PRO0
  6
Continuous
 62
     3
100
AcDbCircle
 10
613.5645519999999
 20
406.50551
 30
0.0
 40
4.5
  0
CIRCLE
  5
A2
330
70E
100
AcDbEntity
  8
PRO0
  6
Continuous
 62
     3
100
AcDbCircle
 10
602.53139
 20
425.615508
 30
0.0
 40
0.6
  0
TEXT
  5
A3
330
70E
100
AcDbEntity
  8
PRO0
  6
Continuous
 62
     3
100
AcDbText
 10
611.4978370000001
 20
403.505493
 30
0.0
 40
6.0
  1
９
 41
0.73811
 72
     1
 11
613.5645450000001
 21
403.505493
 31
0.0
100
AcDbText
  0
LINE
  5
A4
330
70E
100
AcDbEntity
  8
PRO0
  6
Continuous
 62
     3
100
AcDbLine
 10
616.661765
 20
437.2711809999999
 30
0.0
 11
627.782412
 21
456.532707
 31
0.0
  0
CIRCLE
  5
A5
330
70E
100
AcDbEntity
  8
PRO0
  6
Continuous
 62
     3
100
AcDbCircle
 10
630.0324119999999
 20
460.429821
 30
0.0
 40
4.5
  0
CIRCLE
  5
A6
330
70E
100
AcDbEntity
  8
PRO0
  6
Continuous
 62
     3
100
AcDbCircle
 10
616.661765
 20
437.2711809999999
 30
0.0
 40
0.6
  0
TEXT
  5
A7
330
70E
100
AcDbEntity
  8
PRO0
  6
Continuous
 62
     3
100
AcDbText
 10
625.5151767999999
 20
457.429825
 30
0.0
 40
6.0
  1
１０
 41
0.664299
 72
     1
 11
630.0324099999999
 21
457.429825
 31
0.0
100
AcDbText
  0
TEXT
  5
A8
330
70E
100
AcDbEntity
  8
PRO0
  6
Continuous
 62
     2
100
AcDbText
 10
438.1761019999999
 20
561.46376
 30
0.0
 40
8.4
  1
（ステンレス５０タイプ）
 41
0.73811
100
AcDbText
  0
TEXT
  5
A9
330
70E
100
AcDbEntity
  8
PRO0
  6
Continuous
 62
     2
100
AcDbText
 10
455.735138
 20
540.9607999999999
 30
0.0
 40
10.5
  1
◇外壁コーナー（５０ＳＣＨ－Ｓ）　Ｓ＝１／３
 41
0.808566
100
AcDbText
  0
LINE
  5
AA
330
70E
100
AcDbEntity
  8
PRO0
  6
Continuous
 62
     1
100
AcDbLine
 10
23.089217
 20
21.276456
 30
0.0
 11
835.8939499999999
 21
21.276456
 31
0.0
  0
LINE
  5
AB
330
70E
100
AcDbEntity
  8
PRO0
  6
Continuous
 62
     1
100
AcDbLine
 10
835.8939499999999
 20
21.276456
 30
0.0
 11
835.8939499999999
 21
578.774161
 31
0.0
  0
LINE
  5
AC
330
70E
100
AcDbEntity
  8
PRO0
  6
Continuous
 62
     1
100
AcDbLine
 10
835.8939499999999
 20
578.774161
 30
0.0
 11
23.089217
 21
578.774161
 31
0.0
  0
LINE
  5
AD
330
70E
100
AcDbEntity
  8
PRO0
  6
Continuous
 62
     1
100
AcDbLine
 10
23.137615
 20
578.774161
 30
0.0
 11
23.137615
 21
21.276456
 31
0.0
  0
LINE
  5
AE
330
70E
100
AcDbEntity
  8
PRO0
  6
Continuous
 62
     1
100
AcDbLine
 10
429.5157829999999
 20
578.774161
 30
0.0
 11
429.5157829999999
 21
21.276456
 31
0.0
  0
TEXT
  5
AF
330
70E
100
AcDbEntity
  8
PRO0
  6
Continuous
 62
     2
100
AcDbText
 10
31.05647
 20
562.5517269999999
 30
0.0
 40
8.4
  1
（ステンレス５０タイプ）
 41
0.73811
100
AcDbText
  0
TEXT
  5
B0
330
70E
100
AcDbEntity
  8
PRO0
  6
Continuous
 62
     2
100
AcDbText
 10
44.34130099999999
 20
543.8913570000001
 30
0.0
 40
10.5
  1
◇外壁－外壁（５０ＳＳＨ－Ｓ）　Ｓ＝１／３
 41
0.808406
100
AcDbText
  0
LINE
  5
B1
330
70E
100
AcDbEntity
  8
PRO0
  6
Continuous
 62
     1
100
AcDbLine
 10
84.17669899999999
 20
62.025704
 30
0.0
 11
84.17669899999999
 21
239.625704
 31
0.0
  0
LINE
  5
B2
330
70E
100
AcDbEntity
  8
PRO0
  6
Continuous
 62
     1
100
AcDbLine
 10
98.57669900000001
 20
62.025704
 30
0.0
 11
98.57669900000001
 21
239.625704
 31
0.0
  0
LINE
  5
B3
330
70E
100
AcDbEntity
  8
PRO0
  6
Continuous
 62
     1
100
AcDbLine
 10
212.576699
 20
62.025704
 30
0.0
 11
212.576699
 21
239.625704
 31
0.0
  0
TEXT
  5
B4
330
70E
100
AcDbEntity
  8
PRO0
  6
Continuous
 62
     2
100
AcDbText
 10
93.2783784
 20
148.480831
 30
0.0
 40
7.2
  1
６
 41
0.73811
 51
-0.0002
 72
     2
 11
97.52989200000001
 21
148.480831
 31
0.0
100
AcDbText
  0
TEXT
  5
B5
330
70E
100
AcDbEntity
  8
PRO0
  6
Continuous
 62
     2
100
AcDbText
 10
92.9240856
 20
100.48082
 30
0.0
 40
7.2
  1
※
 41
0.73811
 51
-0.0002
 72
     2
 11
97.52989200000001
 21
100.48082
 31
0.0
100
AcDbText
  0
LINE
  5
B6
330
70E
100
AcDbEntity
  8
PRO0
  6
Continuous
 62
     2
100
AcDbLine
 10
368.4766989999999
 20
110.025704
 30
0.0
 11
84.17669899999999
 21
110.025704
 31
0.0
  0
TEXT
  5
B7
330
70E
100
AcDbEntity
  8
PRO0
  6
Continuous
 62
     2
100
AcDbText
 10
93.2783784
 20
124.48082
 30
0.0
 40
7.2
  1
８
 41
0.73811
 51
-0.0002
 72
     2
 11
97.52989200000001
 21
124.48082
 31
0.0
100
AcDbText
  0
TEXT
  5
B8
330
70E
100
AcDbEntity
  8
PRO0
  6
Continuous
 62
     2
100
AcDbText
 10
93.2783784
 20
136.4808199999999
 30
0.0
 40
7.2
  1
７
 41
0.73811
 51
-0.0002
 72
     2
 11
97.52989200000001
 21
136.4808199999999
 31
0.0
100
AcDbText
  0
LINE
  5
B9
330
70E
100
AcDbEntity
  8
PRO0
  6
Continuous
 62
     2
100
AcDbLine
 10
368.4766989999999
 20
134.025704
 30
0.0
 11
84.17669899999999
 21
134.025704
 31
0.0
  0
LINE
  5
BA
330
70E
100
AcDbEntity
  8
PRO0
  6
Continuous
 62
     2
100
AcDbLine
 10
368.4766989999999
 20
122.025704
 30
0.0
 11
84.17669899999999
 21
122.025704
 31
0.0
  0
LINE
  5
BB
330
70E
100
AcDbEntity
  8
PRO0
  6
Continuous
 62
     2
100
AcDbLine
 10
368.4766989999999
 20
146.0257039999999
 30
0.0
 11
84.17669899999999
 21
146.0257039999999
 31
0.0
  0
TEXT
  5
BC
330
70E
100
AcDbEntity
  8
PRO0
  6
Continuous
 62
     2
100
AcDbText
 10
88.3182792
 20
208.4807969999999
 30
0.0
 40
7.2
  1
　１
 41
0.73811
 51
-0.0002
 72
     2
 11
97.52989200000001
 21
208.4807969999999
 31
0.0
100
AcDbText
  0
TEXT
  5
BD
330
70E
100
AcDbEntity
  8
PRO0
  6
Continuous
 62
     2
100
AcDbText
 10
93.2783784
 20
196.480797
 30
0.0
 40
7.2
  1
２
 41
0.73811
 51
-0.0002
 72
     2
 11
97.52989200000001
 21
196.480797
 31
0.0
100
AcDbText
  0
TEXT
  5
BE
330
70E
100
AcDbEntity
  8
PRO0
  6
Continuous
 62
     2
100
AcDbText
 10
93.2783784
 20
184.4808079999999
 30
0.0
 40
7.2
  1
３
 41
0.73811
 51
-0.0002
 72
     2
 11
97.52989200000001
 21
184.4808079999999
 31
0.0
100
AcDbText
  0
TEXT
  5
BF
330
70E
100
AcDbEntity
  8
PRO0
  6
Continuous
 62
     2
100
AcDbText
 10
93.2783784
 20
172.48082
 30
0.0
 40
7.2
  1
４
 41
0.73811
 51
-0.0002
 72
     2
 11
97.52989200000001
 21
172.48082
 31
0.0
100
AcDbText
  0
TEXT
  5
C0
330
70E
100
AcDbEntity
  8
PRO0
  6
Continuous
 62
     2
100
AcDbText
 10
100.976715
 20
208.425705
 30
0.0
 40
7.2
  1
ＳＳＨサイドプレート（Ａ）Ｓ
 41
0.8066489999999999
 51
-0.0002
100
AcDbText
  0
TEXT
  5
C1
330
70E
100
AcDbEntity
  8
PRO0
  6
Continuous
 62
     2
100
AcDbText
 10
100.976715
 20
196.425705
 30
0.0
 40
7.2
  1
ＳＳＨセンタープレート（Ａ）Ｓ
 41
0.8070009999999999
 51
-0.0002
100
AcDbText
  0
TEXT
  5
C2
330
70E
100
AcDbEntity
  8
PRO0
  6
Continuous
 62
     2
100
AcDbText
 10
100.976715
 20
184.4257159999999
 30
0.0
 40
7.2
  1
ＳＳＨフレーム（Ａ）
 41
0.8045399999999998
 51
-0.0002
100
AcDbText
  0
TEXT
  5
C3
330
70E
100
AcDbEntity
  8
PRO0
  6
Continuous
 62
     2
100
AcDbText
 10
100.976715
 20
172.4257279999999
 30
0.0
 40
7.2
  1
止水補助板
 41
0.7971590000000001
 51
-0.0002
100
AcDbText
  0
TEXT
  5
C4
330
70E
100
AcDbEntity
  8
PRO0
  6
Continuous
 62
     2
100
AcDbText
 10
93.2783784
 20
160.4808309999999
 30
0.0
 40
7.2
  1
５
 41
0.73811
 51
-0.0002
 72
     2
 11
97.52989200000001
 21
160.4808309999999
 31
0.0
100
AcDbText
  0
LINE
  5
C5
330
70E
100
AcDbEntity
  8
PRO0
  6
Continuous
 62
     1
100
AcDbLine
 10
368.4766989999999
 20
218.0257039999999
 30
0.0
 11
84.17669899999999
 21
218.0257039999999
 31
0.0
  0
LINE
  5
C6
330
70E
100
AcDbEntity
  8
PRO0
  6
Continuous
 62
     2
100
AcDbLine
 10
368.4766989999999
 20
206.0257039999999
 30
0.0
 11
84.17669899999999
 21
206.0257039999999
 31
0.0
  0
LINE
  5
C7
330
70E
100
AcDbEntity
  8
PRO0
  6
Continuous
 62
     2
100
AcDbLine
 10
368.4766989999999
 20
194.0257039999999
 30
0.0
 11
84.17669899999999
 21
194.0257039999999
 31
0.0
  0
LINE
  5
C8
330
70E
100
AcDbEntity
  8
PRO0
  6
Continuous
 62
     2
100
AcDbLine
 10
368.4766989999999
 20
182.0257039999999
 30
0.0
 11
84.17669899999999
 21
182.0257039999999
 31
0.0
  0
LINE
  5
C9
330
70E
100
AcDbEntity
  8
PRO0
  6
Continuous
 62
     2
100
AcDbLine
 10
368.4766989999999
 20
170.0257039999999
 30
0.0
 11
84.17669899999999
 21
170.0257039999999
 31
0.0
  0
LINE
  5
CA
330
70E
100
AcDbEntity
  8
PRO0
  6
Continuous
 62
     2
100
AcDbLine
 10
368.4766989999999
 20
158.025704
 30
0.0
 11
84.17669899999999
 21
158.025704
 31
0.0
  0
TEXT
  5
CB
330
70E
100
AcDbEntity
  8
PRO0
  6
Continuous
 62
     2
100
AcDbText
 10
140.1273069199999
 20
230.0257189999999
 30
0.0
 40
7.2
  1
部材名称
 41
0.793469
 51
-0.0002
 72
     1
 11
153.076721
 21
230.0257189999999
 31
0.0
100
AcDbText
  0
LINE
  5
CC
330
70E
100
AcDbEntity
  8
PRO0
  6
Continuous
 62
     1
100
AcDbLine
 10
368.4766989999999
 20
239.625704
 30
0.0
 11
84.17669899999999
 21
239.625704
 31
0.0
  0
LINE
  5
CD
330
70E
100
AcDbEntity
  8
PRO0
  6
Continuous
 62
     2
100
AcDbLine
 10
368.4766989999999
 20
98.025704
 30
0.0
 11
84.17669899999999
 21
98.025704
 31
0.0
  0
TEXT
  5
CE
330
70E
100
AcDbEntity
  8
PRO0
  6
Continuous
 62
     2
100
AcDbText
 10
100.976715
 20
64.42572199999999
 30
0.0
 40
7.2
  1
落下防止ワイヤー
 41
0.8026949999999999
 51
-0.0002
100
AcDbText
  0
TEXT
  5
CF
330
70E
100
AcDbEntity
  8
PRO0
  6
Continuous
 62
     2
100
AcDbText
 10
92.9240856
 20
88.48081399999999
 30
0.0
 40
7.2
  1
※
 41
0.73811
 51
-0.0002
 72
     2
 11
97.52989200000001
 21
88.48081399999999
 31
0.0
100
AcDbText
  0
LINE
  5
D0
330
70E
100
AcDbEntity
  8
PRO0
  6
Continuous
 62
     2
100
AcDbLine
 10
368.4766989999999
 20
86.02570400000001
 30
0.0
 11
84.17669899999999
 21
86.02570400000001
 31
0.0
  0
TEXT
  5
D1
330
70E
100
AcDbEntity
  8
PRO0
  6
Continuous
 62
     2
100
AcDbText
 10
92.9240856
 20
76.48081399999999
 30
0.0
 40
7.2
  1
※
 41
0.73811
 51
-0.0002
 72
     2
 11
97.52989200000001
 21
76.48081399999999
 31
0.0
100
AcDbText
  0
TEXT
  5
D2
330
70E
100
AcDbEntity
  8
PRO0
  6
Continuous
 62
     2
100
AcDbText
 10
100.976715
 20
88.42571099999998
 30
0.0
 40
7.2
  1
センタープレートジョイントカバー
 41
0.807308
 51
-0.0002
100
AcDbText
  0
TEXT
  5
D3
330
70E
100
AcDbEntity
  8
PRO0
  6
Continuous
 62
     2
100
AcDbText
 10
214.9767149999999
 20
136.4257279999999
 30
0.0
 40
7.2
  1
４×１３
 41
0.793469
 51
-0.0002
100
AcDbText
  0
TEXT
  5
D4
330
70E
100
AcDbEntity
  8
PRO0
  6
Continuous
 62
     2
100
AcDbText
 10
344.8251464
 20
208.5256809999999
 30
0.0
 40
7.2
  1
２
 41
0.73811
 72
     2
 11
349.07666
 21
208.5256809999999
 31
0.0
100
AcDbText
  0
TEXT
  5
D5
330
70E
100
AcDbEntity
  8
PRO0
  6
Continuous
 62
     2
100
AcDbText
 10
358.7966534
 20
172.4257279999999
 30
0.0
 40
7.2
  1
枚
 41
0.73811
 51
-0.0002
 72
     1
 11
361.276703
 21
172.4257279999999
 31
0.0
100
AcDbText
  0
TEXT
  5
D6
330
70E
100
AcDbEntity
  8
PRO0
  6
Continuous
 62
     2
100
AcDbText
 10
359.1509462
 20
184.4257159999999
 30
0.0
 40
7.2
  1
〃
 41
0.73811
 51
-0.0002
 72
     1
 11
361.276703
 21
184.4257159999999
 31
0.0
100
AcDbText
  0
TEXT
  5
D7
330
70E
100
AcDbEntity
  8
PRO0
  6
Continuous
 62
     2
100
AcDbText
 10
359.1509462
 20
136.4257049999999
 30
0.0
 40
7.2
  1
〃
 41
0.73811
 51
-0.0002
 72
     1
 11
361.276703
 21
136.4257049999999
 31
0.0
100
AcDbText
  0
TEXT
  5
D8
330
70E
100
AcDbEntity
  8
PRO0
  6
Continuous
 62
     2
100
AcDbText
 10
359.1509462
 20
148.425716
 30
0.0
 40
7.2
  1
〃
 41
0.73811
 51
-0.0002
 72
     1
 11
361.276703
 21
148.425716
 31
0.0
100
AcDbText
  0
TEXT
  5
D9
330
70E
100
AcDbEntity
  8
PRO0
  6
Continuous
 62
     2
100
AcDbText
 10
359.1509462
 20
196.425705
 30
0.0
 40
7.2
  1
〃
 41
0.73811
 51
-0.0002
 72
     1
 11
361.276703
 21
196.425705
 31
0.0
100
AcDbText
  0
TEXT
  5
DA
330
70E
100
AcDbEntity
  8
PRO0
  6
Continuous
 62
     2
100
AcDbText
 10
303.2078892
 20
196.425705
 30
0.0
 40
7.2
  1
３０００
 41
0.73811
 51
-0.0002
 72
     1
 11
315.076698
 21
196.425705
 31
0.0
100
AcDbText
  0
LINE
  5
DB
330
70E
100
AcDbEntity
  8
PRO0
  6
Continuous
 62
     1
100
AcDbLine
 10
368.4766989999999
 20
62.025704
 30
0.0
 11
368.4766989999999
 21
239.625704
 31
0.0
  0
LINE
  5
DC
330
70E
100
AcDbEntity
  8
PRO0
  6
Continuous
 62
     1
100
AcDbLine
 10
330.076699
 20
62.025704
 30
0.0
 11
330.076699
 21
239.625704
 31
0.0
  0
LINE
  5
DD
330
70E
100
AcDbEntity
  8
PRO0
  6
Continuous
 62
     1
100
AcDbLine
 10
300.076699
 20
62.025704
 30
0.0
 11
300.076699
 21
239.625704
 31
0.0
  0
TEXT
  5
DE
330
70E
100
AcDbEntity
  8
PRO0
  6
Continuous
 62
     2
100
AcDbText
 10
358.7966534
 20
208.425705
 30
0.0
 40
7.2
  1
本
 41
0.73811
 51
-0.0002
 72
     1
 11
361.276703
 21
208.425705
 31
0.0
100
AcDbText
  0
TEXT
  5
DF
330
70E
100
AcDbEntity
  8
PRO0
  6
Continuous
 62
     2
100
AcDbText
 10
360.7664759999999
 20
237.9457189999999
 30
0.0
 40
7.2
  1
単位
 41
0.8599999999999999
 51
-0.0002
  7
VERTXT
 72
     1
 11
360.7664759999999
 21
230.0257189999999
 31
0.0
100
AcDbText
  0
TEXT
  5
E0
330
70E
100
AcDbEntity
  8
PRO0
  6
Continuous
 62
     2
100
AcDbText
 10
303.2078892
 20
208.425705
 30
0.0
 40
7.2
  1
３０００
 41
0.73811
 51
-0.0002
 72
     1
 11
315.076698
 21
208.425705
 31
0.0
100
AcDbText
  0
TEXT
  5
E1
330
70E
100
AcDbEntity
  8
PRO0
  6
Continuous
 62
     2
100
AcDbText
 10
301.42755984
 20
220.4257049999999
 30
0.0
 40
7.2
  1
（ｍｍ）
 41
0.8488269999999999
 51
-0.0002
 72
     1
 11
315.076698
 21
220.4257049999999
 31
0.0
100
AcDbText
  0
TEXT
  5
E2
330
70E
100
AcDbEntity
  8
PRO0
  6
Continuous
 62
     2
100
AcDbText
 10
305.628882
 20
230.0257189999999
 30
0.0
 40
7.2
  1
定　尺
 41
0.7873180000000001
 51
-0.0002
 72
     1
 11
315.076698
 21
230.0257189999999
 31
0.0
100
AcDbText
  0
TEXT
  5
E3
330
70E
100
AcDbEntity
  8
PRO0
  6
Continuous
 62
     2
100
AcDbText
 10
359.1509462
 20
88.42571099999998
 30
0.0
 40
7.2
  1
〃
 41
0.73811
 51
-0.0002
 72
     1
 11
361.276703
 21
88.42571099999998
 31
0.0
100
AcDbText
  0
TEXT
  5
E4
330
70E
100
AcDbEntity
  8
PRO0
  6
Continuous
 62
     2
100
AcDbText
 10
358.7966534
 20
100.425716
 30
0.0
 40
7.2
  1
個
 41
0.73811
 51
-0.0002
 72
     1
 11
361.276703
 21
100.425716
 31
0.0
100
AcDbText
  0
TEXT
  5
E5
330
70E
100
AcDbEntity
  8
PRO0
  6
Continuous
 62
     2
100
AcDbText
 10
335.84114472
 20
220.4257049999999
 30
0.0
 40
7.2
  1
数量
 41
0.811921
 51
-0.0002
 72
     1
 11
342.076698
 21
220.4257049999999
 31
0.0
100
AcDbText
  0
TEXT
  5
E6
330
70E
100
AcDbEntity
  8
PRO0
  6
Continuous
 62
     2
100
AcDbText
 10
336.03600576
 20
230.0257189999999
 30
0.0
 40
7.2
  1
使用
 41
0.811921
 51
-0.0002
 72
     1
 11
342.076698
 21
230.0257189999999
 31
0.0
100
AcDbText
  0
LINE
  5
E7
330
70E
100
AcDbEntity
  8
PRO0
  6
Continuous
 62
     1
100
AcDbLine
 10
354.076699
 20
62.025704
 30
0.0
 11
354.076699
 21
239.625704
 31
0.0
  0
TEXT
  5
E8
330
70E
100
AcDbEntity
  8
PRO0
  6
Continuous
 62
     2
100
AcDbText
 10
346.2423175999999
 20
196.525703
 30
0.0
 40
7.2
  1
１
 41
0.73811
 72
     2
 11
349.07666
 21
196.525703
 31
0.0
100
AcDbText
  0
TEXT
  5
E9
330
70E
100
AcDbEntity
  8
PRO0
  6
Continuous
 62
     2
100
AcDbText
 10
344.8251464
 20
184.5256919999999
 30
0.0
 40
7.2
  1
２
 41
0.73811
 72
     2
 11
349.07666
 21
184.5256919999999
 31
0.0
100
AcDbText
  0
TEXT
  5
EA
330
70E
100
AcDbEntity
  8
PRO0
  6
Continuous
 62
     2
100
AcDbText
 10
346.2423175999999
 20
172.525715
 30
0.0
 40
7.2
  1
１
 41
0.73811
 72
     2
 11
349.07666
 21
172.525715
 31
0.0
100
AcDbText
  0
TEXT
  5
EB
330
70E
100
AcDbEntity
  8
PRO0
  6
Continuous
 62
     2
100
AcDbText
 10
338.447876
 20
136.5256919999999
 30
0.0
 40
7.2
  1
１６
 41
0.73811
 72
     2
 11
349.07666
 21
136.5256919999999
 31
0.0
100
AcDbText
  0
TEXT
  5
EC
330
70E
100
AcDbEntity
  8
PRO0
  6
Continuous
 62
     2
100
AcDbText
 10
346.2423175999999
 20
88.52569799999999
 30
0.0
 40
7.2
  1
１
 41
0.73811
 72
     2
 11
349.07666
 21
88.52569799999999
 31
0.0
100
AcDbText
  0
TEXT
  5
ED
330
70E
100
AcDbEntity
  8
PRO0
  6
Continuous
 62
     2
100
AcDbText
 10
344.8251464
 20
100.525715
 30
0.0
 40
7.2
  1
２
 41
0.73811
 72
     2
 11
349.07666
 21
100.525715
 31
0.0
100
AcDbText
  0
LINE
  5
EE
330
70E
100
AcDbEntity
  8
PRO0
  6
Continuous
 62
     3
100
AcDbLine
 10
298.076699
 20
62.025704
 30
0.0
 11
298.076699
 21
239.625704
 31
0.0
  0
LINE
  5
EF
330
70E
100
AcDbEntity
  8
PRO0
  6
Continuous
 62
     1
100
AcDbLine
 10
774.8548659999999
 20
218.0257039999999
 30
0.0
 11
490.554866
 21
218.0257039999999
 31
0.0
  0
TEXT
  5
F0
330
70E
100
AcDbEntity
  8
PRO0
  6
Continuous
 62
     2
100
AcDbText
 10
494.6964222
 20
208.4807969999999
 30
0.0
 40
7.2
  1
　１
 41
0.73811
 51
-0.0002
 72
     2
 11
503.9080349999999
 21
208.4807969999999
 31
0.0
100
AcDbText
  0
TEXT
  5
F1
330
70E
100
AcDbEntity
  8
PRO0
  6
Continuous
 62
     2
100
AcDbText
 10
499.6565213999999
 20
196.480797
 30
0.0
 40
7.2
  1
２
 41
0.73811
 51
-0.0002
 72
     2
 11
503.9080349999999
 21
196.480797
 31
0.0
100
AcDbText
  0
TEXT
  5
F2
330
70E
100
AcDbEntity
  8
PRO0
  6
Continuous
 62
     2
100
AcDbText
 10
499.6565213999999
 20
184.4808079999999
 30
0.0
 40
7.2
  1
３
 41
0.73811
 51
-0.0002
 72
     2
 11
503.9080349999999
 21
184.4808079999999
 31
0.0
100
AcDbText
  0
TEXT
  5
F3
330
70E
100
AcDbEntity
  8
PRO0
  6
Continuous
 62
     2
100
AcDbText
 10
499.6565213999999
 20
172.48082
 30
0.0
 40
7.2
  1
４
 41
0.73811
 51
-0.0002
 72
     2
 11
503.9080349999999
 21
172.48082
 31
0.0
100
AcDbText
  0
TEXT
  5
F4
330
70E
100
AcDbEntity
  8
PRO0
  6
Continuous
 62
     2
100
AcDbText
 10
507.3549039999999
 20
208.425705
 30
0.0
 40
7.2
  1
ＳＳＨサイドプレート（Ａ）Ｓ
 41
0.8066489999999999
 51
-0.0002
100
AcDbText
  0
TEXT
  5
F5
330
70E
100
AcDbEntity
  8
PRO0
  6
Continuous
 62
     2
100
AcDbText
 10
507.3549039999999
 20
196.425705
 30
0.0
 40
7.2
  1
ＳＣＨセンタープレート（Ａ）Ｓ
 41
0.8070009999999999
 51
-0.0002
100
AcDbText
  0
TEXT
  5
F6
330
70E
100
AcDbEntity
  8
PRO0
  6
Continuous
 62
     2
100
AcDbText
 10
507.3549039999999
 20
184.4257159999999
 30
0.0
 40
7.2
  1
ＳＳＨフレーム（Ａ）
 41
0.8045399999999998
 51
-0.0002
100
AcDbText
  0
TEXT
  5
F7
330
70E
100
AcDbEntity
  8
PRO0
  6
Continuous
 62
     2
100
AcDbText
 10
507.3549039999999
 20
172.4257279999999
 30
0.0
 40
7.2
  1
ＳＣＨ壁フレーム
 41
0.8026949999999999
 51
-0.0002
100
AcDbText
  0
TEXT
  5
F8
330
70E
100
AcDbEntity
  8
PRO0
  6
Continuous
 62
     2
100
AcDbText
 10
507.3549039999999
 20
160.4257279999999
 30
0.0
 40
7.2
  1
止水補助板
 41
0.7971590000000001
 51
-0.0002
100
AcDbText
  0
TEXT
  5
F9
330
70E
100
AcDbEntity
  8
PRO0
  6
Continuous
 62
     2
100
AcDbText
 10
499.6565213999999
 20
160.4808309999999
 30
0.0
 40
7.2
  1
５
 41
0.73811
 51
-0.0002
 72
     2
 11
503.9080349999999
 21
160.4808309999999
 31
0.0
100
AcDbText
  0
TEXT
  5
FA
330
70E
100
AcDbEntity
  8
PRO0
  6
Continuous
 62
     2
100
AcDbText
 10
499.6565213999999
 20
136.4808199999999
 30
0.0
 40
7.2
  1
７
 41
0.73811
 51
-0.0002
 72
     2
 11
503.9080349999999
 21
136.4808199999999
 31
0.0
100
AcDbText
  0
TEXT
  5
FB
330
70E
100
AcDbEntity
  8
PRO0
  6
Continuous
 62
     2
100
AcDbText
 10
499.6565213999999
 20
124.48082
 30
0.0
 40
7.2
  1
８
 41
0.73811
 51
-0.0002
 72
     2
 11
503.9080349999999
 21
124.48082
 31
0.0
100
AcDbText
  0
TEXT
  5
FC
330
70E
100
AcDbEntity
  8
PRO0
  6
Continuous
 62
     2
100
AcDbText
 10
507.3549039999999
 20
124.4257159999999
 30
0.0
 40
7.2
  1
ステンセットシルタップ
 41
0.805211
 51
-0.0002
100
AcDbText
  0
TEXT
  5
FD
330
70E
100
AcDbEntity
  8
PRO0
  6
Continuous
 62
     2
100
AcDbText
 10
507.3549039999999
 20
112.4257159999999
 30
0.0
 40
7.2
  1
ステンワッシャー
 41
0.8026949999999999
 51
-0.0002
100
AcDbText
  0
TEXT
  5
FE
330
70E
100
AcDbEntity
  8
PRO0
  6
Continuous
 62
     2
100
AcDbText
 10
499.6565213999999
 20
112.4808199999999
 30
0.0
 40
7.2
  1
９
 41
0.73811
 51
-0.0002
 72
     2
 11
503.9080349999999
 21
112.4808199999999
 31
0.0
100
AcDbText
  0
TEXT
  5
FF
330
70E
100
AcDbEntity
  8
PRO0
  6
Continuous
 62
     2
100
AcDbText
 10
499.6565213999999
 20
148.480831
 30
0.0
 40
7.2
  1
６
 41
0.73811
 51
-0.0002
 72
     2
 11
503.9080349999999
 21
148.480831
 31
0.0
100
AcDbText
  0
LINE
  5
100
330
70E
100
AcDbEntity
  8
PRO0
  6
Continuous
 62
     2
100
AcDbLine
 10
774.8548659999999
 20
206.0257039999999
 30
0.0
 11
490.554866
 21
206.0257039999999
 31
0.0
  0
LINE
  5
101
330
70E
100
AcDbEntity
  8
PRO0
  6
Continuous
 62
     2
100
AcDbLine
 10
774.8548659999999
 20
194.0257039999999
 30
0.0
 11
490.554866
 21
194.0257039999999
 31
0.0
  0
LINE
  5
102
330
70E
100
AcDbEntity
  8
PRO0
  6
Continuous
 62
     2
100
AcDbLine
 10
774.8548659999999
 20
182.0257039999999
 30
0.0
 11
490.554866
 21
182.0257039999999
 31
0.0
  0
LINE
  5
103
330
70E
100
AcDbEntity
  8
PRO0
  6
Continuous
 62
     2
100
AcDbLine
 10
774.8548659999999
 20
170.0257039999999
 30
0.0
 11
490.554866
 21
170.0257039999999
 31
0.0
  0
LINE
  5
104
330
70E
100
AcDbEntity
  8
PRO0
  6
Continuous
 62
     2
100
AcDbLine
 10
774.8548659999999
 20
158.025704
 30
0.0
 11
490.554866
 21
158.025704
 31
0.0
  0
LINE
  5
105
330
70E
100
AcDbEntity
  8
PRO0
  6
Continuous
 62
     2
100
AcDbLine
 10
774.8548659999999
 20
146.0257039999999
 30
0.0
 11
490.554866
 21
146.0257039999999
 31
0.0
  0
LINE
  5
106
330
70E
100
AcDbEntity
  8
PRO0
  6
Continuous
 62
     2
100
AcDbLine
 10
774.8548659999999
 20
134.025704
 30
0.0
 11
490.554866
 21
134.025704
 31
0.0
  0
LINE
  5
107
330
70E
100
AcDbEntity
  8
PRO0
  6
Continuous
 62
     2
100
AcDbLine
 10
774.8548659999999
 20
122.025704
 30
0.0
 11
490.554866
 21
122.025704
 31
0.0
  0
LINE
  5
108
330
70E
100
AcDbEntity
  8
PRO0
  6
Continuous
 62
     2
100
AcDbLine
 10
774.8548659999999
 20
110.025704
 30
0.0
 11
490.554866
 21
110.025704
 31
0.0
  0
LINE
  5
109
330
70E
100
AcDbEntity
  8
PRO0
  6
Continuous
 62
     2
100
AcDbLine
 10
774.8548659999999
 20
86.02570400000001
 30
0.0
 11
490.554866
 21
86.02570400000001
 31
0.0
  0
TEXT
  5
10A
330
70E
100
AcDbEntity
  8
PRO0
  6
Continuous
 62
     2
100
AcDbText
 10
621.354813
 20
112.4257159999999
 30
0.0
 40
7.2
  1
１．５×１８×５．５穴
 41
0.805211
 51
-0.0002
100
AcDbText
  0
TEXT
  5
10B
330
70E
100
AcDbEntity
  8
PRO0
  6
Continuous
 62
     2
100
AcDbText
 10
621.354813
 20
124.4257159999999
 30
0.0
 40
7.2
  1
４×１３
 41
0.793469
 51
-0.0002
100
AcDbText
  0
LINE
  5
10C
330
70E
100
AcDbEntity
  8
PRO0
  6
Continuous
 62
     1
100
AcDbLine
 10
490.554866
 20
50.02570399999999
 30
0.0
 11
490.554866
 21
239.625704
 31
0.0
  0
LINE
  5
10D
330
70E
100
AcDbEntity
  8
PRO0
  6
Continuous
 62
     1
100
AcDbLine
 10
504.954866
 20
50.02570399999999
 30
0.0
 11
504.954866
 21
239.625704
 31
0.0
  0
LINE
  5
10E
330
70E
100
AcDbEntity
  8
PRO0
  6
Continuous
 62
     1
100
AcDbLine
 10
618.954866
 20
50.02570399999999
 30
0.0
 11
618.954866
 21
239.625704
 31
0.0
  0
TEXT
  5
10F
330
70E
100
AcDbEntity
  8
PRO0
  6
Continuous
 62
     2
100
AcDbText
 10
546.50540492
 20
230.0257419999999
 30
0.0
 40
7.2
  1
部材名称
 41
0.793469
 51
-0.0002
 72
     1
 11
559.454819
 21
230.0257419999999
 31
0.0
100
AcDbText
  0
LINE
  5
110
330
70E
100
AcDbEntity
  8
PRO0
  6
Continuous
 62
     1
100
AcDbLine
 10
774.8548659999999
 20
239.625704
 30
0.0
 11
490.554866
 21
239.625704
 31
0.0
  0
TEXT
  5
111
330
70E
100
AcDbEntity
  8
PRO0
  6
Continuous
 62
     2
100
AcDbText
 10
507.3549039999999
 20
88.42571099999998
 30
0.0
 40
7.2
  1
サイドプレートジョイントカバー
 41
0.8070009999999999
 51
-0.0002
100
AcDbText
  0
TEXT
  5
112
330
70E
100
AcDbEntity
  8
PRO0
  6
Continuous
 62
     2
100
AcDbText
 10
499.3022285999999
 20
88.48081399999999
 30
0.0
 40
7.2
  1
※
 41
0.73811
 51
-0.0002
 72
     2
 11
503.9080349999999
 21
88.48081399999999
 31
0.0
100
AcDbText
  0
LINE
  5
113
330
70E
100
AcDbEntity
  8
PRO0
  6
Continuous
 62
     2
100
AcDbLine
 10
774.8548659999999
 20
62.025704
 30
0.0
 11
490.554866
 21
62.025704
 31
0.0
  0
TEXT
  5
114
330
70E
100
AcDbEntity
  8
PRO0
  6
Continuous
 62
     2
100
AcDbText
 10
621.354813
 20
160.4257279999999
 30
0.0
 40
7.2
  1
ＦＳ２００
 41
0.7971590000000001
 51
-0.0002
100
AcDbText
  0
TEXT
  5
115
330
70E
100
AcDbEntity
  8
PRO0
  6
Continuous
 62
     2
100
AcDbText
 10
507.3549039999999
 20
64.42572199999999
 30
0.0
 40
7.2
  1
ブチルテープ
 41
0.799619
 51
-0.0002
100
AcDbText
  0
TEXT
  5
116
330
70E
100
AcDbEntity
  8
PRO0
  6
Continuous
 62
     2
100
AcDbText
 10
499.3022285999999
 20
64.48081999999999
 30
0.0
 40
7.2
  1
※
 41
0.73811
 51
-0.0002
 72
     2
 11
503.9080349999999
 21
64.48081999999999
 31
0.0
100
AcDbText
  0
TEXT
  5
117
330
70E
100
AcDbEntity
  8
PRO0
  6
Continuous
 62
     2
100
AcDbText
 10
753.6204916
 20
208.5256809999999
 30
0.0
 40
7.2
  1
１
 41
0.73811
 72
     2
 11
756.4548339999999
 21
208.5256809999999
 31
0.0
100
AcDbText
  0
LINE
  5
118
330
70E
100
AcDbEntity
  8
PRO0
  6
Continuous
 62
     3
100
AcDbLine
 10
704.454866
 20
50.02570399999999
 30
0.0
 11
704.454866
 21
239.625704
 31
0.0
  0
LINE
  5
119
330
70E
100
AcDbEntity
  8
PRO0
  6
Continuous
 62
     1
100
AcDbLine
 10
774.8548659999999
 20
50.02570399999999
 30
0.0
 11
774.8548659999999
 21
239.625704
 31
0.0
  0
LINE
  5
11A
330
70E
100
AcDbEntity
  8
PRO0
  6
Continuous
 62
     1
100
AcDbLine
 10
760.454866
 20
50.02570399999999
 30
0.0
 11
760.454866
 21
239.625704
 31
0.0
  0
LINE
  5
11B
330
70E
100
AcDbEntity
  8
PRO0
  6
Continuous
 62
     1
100
AcDbLine
 10
736.454866
 20
50.02570399999999
 30
0.0
 11
736.454866
 21
239.625704
 31
0.0
  0
LINE
  5
11C
330
70E
100
AcDbEntity
  8
PRO0
  6
Continuous
 62
     1
100
AcDbLine
 10
706.454866
 20
50.02570399999999
 30
0.0
 11
706.454866
 21
239.625704
 31
0.0
  0
TEXT
  5
11D
330
70E
100
AcDbEntity
  8
PRO0
  6
Continuous
 62
     2
100
AcDbText
 10
765.5290892
 20
196.425705
 30
0.0
 40
7.2
  1
〃
 41
0.73811
 51
-0.0002
 72
     1
 11
767.654846
 21
196.425705
 31
0.0
100
AcDbText
  0
TEXT
  5
11E
330
70E
100
AcDbEntity
  8
PRO0
  6
Continuous
 62
     2
100
AcDbText
 10
709.5859642
 20
196.425705
 30
0.0
 40
7.2
  1
３０００
 41
0.73811
 51
-0.0002
 72
     1
 11
721.454773
 21
196.425705
 31
0.0
100
AcDbText
  0
TEXT
  5
11F
330
70E
100
AcDbEntity
  8
PRO0
  6
Continuous
 62
     2
100
AcDbText
 10
709.5859642
 20
184.4257159999999
 30
0.0
 40
7.2
  1
３０００
 41
0.73811
 51
-0.0002
 72
     1
 11
721.454773
 21
184.4257159999999
 31
0.0
100
AcDbText
  0
TEXT
  5
120
330
70E
100
AcDbEntity
  8
PRO0
  6
Continuous
 62
     2
100
AcDbText
 10
765.1747964
 20
112.4257159999999
 30
0.0
 40
7.2
  1
枚
 41
0.73811
 51
-0.0002
 72
     1
 11
767.654846
 21
112.4257159999999
 31
0.0
100
AcDbText
  0
TEXT
  5
121
330
70E
100
AcDbEntity
  8
PRO0
  6
Continuous
 62
     2
100
AcDbText
 10
765.5290892
 20
124.4257159999999
 30
0.0
 40
7.2
  1
〃
 41
0.73811
 51
-0.0002
 72
     1
 11
767.654846
 21
124.4257159999999
 31
0.0
100
AcDbText
  0
TEXT
  5
122
330
70E
100
AcDbEntity
  8
PRO0
  6
Continuous
 62
     2
100
AcDbText
 10
765.1747964
 20
160.4257279999999
 30
0.0
 40
7.2
  1
枚
 41
0.73811
 51
-0.0002
 72
     1
 11
767.654846
 21
160.4257279999999
 31
0.0
100
AcDbText
  0
TEXT
  5
123
330
70E
100
AcDbEntity
  8
PRO0
  6
Continuous
 62
     2
100
AcDbText
 10
765.5290892
 20
172.4257279999999
 30
0.0
 40
7.2
  1
〃
 41
0.73811
 51
-0.0002
 72
     1
 11
767.654846
 21
172.4257279999999
 31
0.0
100
AcDbText
  0
TEXT
  5
124
330
70E
100
AcDbEntity
  8
PRO0
  6
Continuous
 62
     2
100
AcDbText
 10
765.5290892
 20
184.4257159999999
 30
0.0
 40
7.2
  1
〃
 41
0.73811
 51
-0.0002
 72
     1
 11
767.654846
 21
184.4257159999999
 31
0.0
100
AcDbText
  0
TEXT
  5
125
330
70E
100
AcDbEntity
  8
PRO0
  6
Continuous
 62
     2
100
AcDbText
 10
765.1747964
 20
208.425705
 30
0.0
 40
7.2
  1
本
 41
0.73811
 51
-0.0002
 72
     1
 11
767.654846
 21
208.425705
 31
0.0
100
AcDbText
  0
TEXT
  5
126
330
70E
100
AcDbEntity
  8
PRO0
  6
Continuous
 62
     2
100
AcDbText
 10
709.5859642
 20
208.425705
 30
0.0
 40
7.2
  1
３０００
 41
0.73811
 51
-0.0002
 72
     1
 11
721.454773
 21
208.425705
 31
0.0
100
AcDbText
  0
TEXT
  5
127
330
70E
100
AcDbEntity
  8
PRO0
  6
Continuous
 62
     2
100
AcDbText
 10
767.144573
 20
237.9457419999999
 30
0.0
 40
7.2
  1
単位
 41
0.8599999999999999
 51
-0.0002
  7
VERTXT
 72
     1
 11
767.144573
 21
230.0257419999999
 31
0.0
100
AcDbText
  0
TEXT
  5
128
330
70E
100
AcDbEntity
  8
PRO0
  6
Continuous
 62
     2
100
AcDbText
 10
707.80563484
 20
220.4257279999999
 30
0.0
 40
7.2
  1
（ｍｍ）
 41
0.8488269999999999
 51
-0.0002
 72
     1
 11
721.454773
 21
220.4257279999999
 31
0.0
100
AcDbText
  0
TEXT
  5
129
330
70E
100
AcDbEntity
  8
PRO0
  6
Continuous
 62
     2
100
AcDbText
 10
712.006957
 20
230.0257419999999
 30
0.0
 40
7.2
  1
定　尺
 41
0.7873180000000001
 51
-0.0002
 72
     1
 11
721.454773
 21
230.0257419999999
 31
0.0
100
AcDbText
  0
TEXT
  5
12A
330
70E
100
AcDbEntity
  8
PRO0
  6
Continuous
 62
     2
100
AcDbText
 10
765.1747964
 20
88.42571099999998
 30
0.0
 40
7.2
  1
個
 41
0.73811
 51
-0.0002
 72
     1
 11
767.654846
 21
88.42571099999998
 31
0.0
100
AcDbText
  0
TEXT
  5
12B
330
70E
100
AcDbEntity
  8
PRO0
  6
Continuous
 62
     2
100
AcDbText
 10
765.1747964
 20
64.42572199999999
 30
0.0
 40
7.2
  1
巻
 41
0.73811
 51
-0.0002
 72
     1
 11
767.654846
 21
64.42572199999999
 31
0.0
100
AcDbText
  0
TEXT
  5
12C
330
70E
100
AcDbEntity
  8
PRO0
  6
Continuous
 62
     2
100
AcDbText
 10
753.6204916
 20
196.525703
 30
0.0
 40
7.2
  1
１
 41
0.73811
 72
     2
 11
756.4548339999999
 21
196.525703
 31
0.0
100
AcDbText
  0
TEXT
  5
12D
330
70E
100
AcDbEntity
  8
PRO0
  6
Continuous
 62
     2
100
AcDbText
 10
753.6204916
 20
184.5256919999999
 30
0.0
 40
7.2
  1
１
 41
0.73811
 72
     2
 11
756.4548339999999
 21
184.5256919999999
 31
0.0
100
AcDbText
  0
TEXT
  5
12E
330
70E
100
AcDbEntity
  8
PRO0
  6
Continuous
 62
     2
100
AcDbText
 10
753.6204916
 20
172.525715
 30
0.0
 40
7.2
  1
１
 41
0.73811
 72
     2
 11
756.4548339999999
 21
172.525715
 31
0.0
100
AcDbText
  0
TEXT
  5
12F
330
70E
100
AcDbEntity
  8
PRO0
  6
Continuous
 62
     2
100
AcDbText
 10
753.6204916
 20
160.5257149999999
 30
0.0
 40
7.2
  1
１
 41
0.73811
 72
     2
 11
756.4548339999999
 21
160.5257149999999
 31
0.0
100
AcDbText
  0
TEXT
  5
130
330
70E
100
AcDbEntity
  8
PRO0
  6
Continuous
 62
     2
100
AcDbText
 10
745.82605
 20
124.525715
 30
0.0
 40
7.2
  1
１６
 41
0.73811
 72
     2
 11
756.4548339999999
 21
124.525715
 31
0.0
100
AcDbText
  0
TEXT
  5
131
330
70E
100
AcDbEntity
  8
PRO0
  6
Continuous
 62
     2
100
AcDbText
 10
745.82605
 20
112.5257029999999
 30
0.0
 40
7.2
  1
１２
 41
0.73811
 72
     2
 11
756.4548339999999
 21
112.5257029999999
 31
0.0
100
AcDbText
  0
TEXT
  5
132
330
70E
100
AcDbEntity
  8
PRO0
  6
Continuous
 62
     2
100
AcDbText
 10
753.6204916
 20
88.52570899999999
 30
0.0
 40
7.2
  1
１
 41
0.73811
 72
     2
 11
756.4548339999999
 21
88.52570899999999
 31
0.0
100
AcDbText
  0
TEXT
  5
133
330
70E
100
AcDbEntity
  8
PRO0
  6
Continuous
 62
     2
100
AcDbText
 10
753.6204916
 20
64.52570899999999
 30
0.0
 40
7.2
  1
１
 41
0.73811
 72
     2
 11
756.4548339999999
 21
64.52570899999999
 31
0.0
100
AcDbText
  0
TEXT
  5
134
330
70E
100
AcDbEntity
  8
PRO0
  6
Continuous
 62
     2
100
AcDbText
 10
742.21926572
 20
220.4257049999999
 30
0.0
 40
7.2
  1
数量
 41
0.811921
 51
-0.0002
 72
     1
 11
748.454819
 21
220.4257049999999
 31
0.0
100
AcDbText
  0
TEXT
  5
135
330
70E
100
AcDbEntity
  8
PRO0
  6
Continuous
 62
     2
100
AcDbText
 10
742.41412676
 20
230.0257189999999
 30
0.0
 40
7.2
  1
使用
 41
0.811921
 51
-0.0002
 72
     1
 11
748.454819
 21
230.0257189999999
 31
0.0
100
AcDbText
  0
TEXT
  5
136
330
70E
100
AcDbEntity
  8
PRO0
  6
Continuous
 62
     2
100
AcDbText
 10
214.9767149999999
 20
172.4257279999999
 30
0.0
 40
7.2
  1
ＦＳ２００
 41
0.7971590000000001
 51
-0.0002
100
AcDbText
  0
TEXT
  5
137
330
70E
100
AcDbEntity
  8
PRO0
  6
Continuous
 62
     2
100
AcDbText
 10
100.976715
 20
136.4257279999999
 30
0.0
 40
7.2
  1
ステンセットシルタップ
 41
0.805211
 51
-0.0002
100
AcDbText
  0
LINE
  5
138
330
70E
100
AcDbEntity
  8
PRO0
  6
Continuous
 62
     2
100
AcDbLine
 10
368.4766989999999
 20
74.025704
 30
0.0
 11
84.17669899999999
 21
74.025704
 31
0.0
  0
TEXT
  5
139
330
70E
100
AcDbEntity
  8
PRO0
  6
Continuous
 62
     2
100
AcDbText
 10
92.9240856
 20
64.48081999999999
 30
0.0
 40
7.2
  1
※
 41
0.73811
 51
-0.0002
 72
     2
 11
97.52989200000001
 21
64.48081999999999
 31
0.0
100
AcDbText
  0
TEXT
  5
13A
330
70E
100
AcDbEntity
  8
PRO0
  6
Continuous
 62
     2
100
AcDbText
 10
100.976715
 20
100.425716
 30
0.0
 40
7.2
  1
サイドプレートジョイントカバー
 41
0.8070009999999999
 51
-0.0002
100
AcDbText
  0
TEXT
  5
13C
330
70E
100
AcDbEntity
  8
PRO0
  6
Continuous
 62
     2
100
AcDbText
 10
303.2078892
 20
172.4257279999999
 30
0.0
 40
7.2
  1
３１００
 41
0.73811
 51
-0.0002
 72
     1
 11
315.076698
 21
172.4257279999999
 31
0.0
100
AcDbText
  0
TEXT
  5
13D
330
70E
100
AcDbEntity
  8
PRO0
  6
Continuous
 62
     2
100
AcDbText
 10
358.7966534
 20
64.42572199999999
 30
0.0
 40
7.2
  1
本
 41
0.73811
 51
-0.0002
 72
     1
 11
361.276703
 21
64.42572199999999
 31
0.0
100
AcDbText
  0
TEXT
  5
13E
330
70E
100
AcDbEntity
  8
PRO0
  6
Continuous
 62
     2
100
AcDbText
 10
344.8251464
 20
64.52570899999999
 30
0.0
 40
7.2
  1
２
 41
0.73811
 72
     2
 11
349.07666
 21
64.52570899999999
 31
0.0
100
AcDbText
  0
LINE
  5
13F
330
70E
100
AcDbEntity
  8
PRO0
  6
Continuous
 62
     1
100
AcDbLine
 10
774.8548659999999
 20
50.02570399999999
 30
0.0
 11
490.554866
 21
50.02570399999999
 31
0.0
  0
TEXT
  5
140
330
70E
100
AcDbEntity
  8
PRO0
  6
Continuous
 62
     2
100
AcDbText
 10
507.3549039999999
 20
52.42571599999999
 30
0.0
 40
7.2
  1
落下防止ワイヤー
 41
0.8026949999999999
 51
-0.0002
100
AcDbText
  0
TEXT
  5
141
330
70E
100
AcDbEntity
  8
PRO0
  6
Continuous
 62
     2
100
AcDbText
 10
499.3022285999999
 20
52.48082
 30
0.0
 40
7.2
  1
※
 41
0.73811
 51
-0.0002
 72
     2
 11
503.9080349999999
 21
52.48082
 31
0.0
100
AcDbText
  0
TEXT
  5
142
330
70E
100
AcDbEntity
  8
PRO0
  6
Continuous
 62
     2
100
AcDbText
 10
621.354813
 20
88.42571099999998
 30
0.0
 40
7.2
  1
外ジョイント材（ステン）
 41
0.80577
 51
-0.0002
100
AcDbText
  0
TEXT
  5
143
330
70E
100
AcDbEntity
  8
PRO0
  6
Continuous
 62
     2
100
AcDbText
 10
214.9767149999999
 20
100.425716
 30
0.0
 40
7.2
  1
外ジョイント材（ステン）
 41
0.80577
 51
-0.0002
100
AcDbText
  0
TEXT
  5
144
330
70E
100
AcDbEntity
  8
PRO0
  6
Continuous
 62
     2
100
AcDbText
 10
709.5859642
 20
160.4257279999999
 30
0.0
 40
7.2
  1
３１００
 41
0.73811
 51
-0.0002
 72
     1
 11
721.454773
 21
160.4257279999999
 31
0.0
100
AcDbText
  0
TEXT
  5
145
330
70E
100
AcDbEntity
  8
PRO0
  6
Continuous
 62
     2
100
AcDbText
 10
709.5859642
 20
64.42572199999999
 30
0.0
 40
7.2
  1
６０００
 41
0.73811
 51
-0.0002
 72
     1
 11
721.454773
 21
64.42572199999999
 31
0.0
100
AcDbText
  0
TEXT
  5
146
330
70E
100
AcDbEntity
  8
PRO0
  6
Continuous
 62
     2
100
AcDbText
 10
621.354813
 20
64.42572199999999
 30
0.0
 40
7.2
  1
ｔ１．０×ｗ３０
 41
0.8026949999999999
 51
-0.0002
100
AcDbText
  0
TEXT
  5
148
330
70E
100
AcDbEntity
  8
PRO0
  6
Continuous
 62
     2
100
AcDbText
 10
765.1747964
 20
52.42571599999999
 30
0.0
 40
7.2
  1
本
 41
0.73811
 51
-0.0002
 72
     1
 11
767.654846
 21
52.42571599999999
 31
0.0
100
AcDbText
  0
TEXT
  5
149
330
70E
100
AcDbEntity
  8
PRO0
  6
Continuous
 62
     2
100
AcDbText
 10
752.2033204
 20
52.525709
 30
0.0
 40
7.2
  1
２
 41
0.73811
 72
     2
 11
756.4548339999999
 21
52.525709
 31
0.0
100
AcDbText
  0
LINE
  5
157
330
70E
100
AcDbEntity
  8
PRO0
  6
Continuous
 62
     3
100
AcDbLine
 10
81.70498499999998
 20
293.728452
 30
0.0
 11
100.567326
 21
298.097315
 31
0.0
  0
LINE
  5
158
330
70E
100
AcDbEntity
  8
PRO0
  6
Continuous
 62
     3
100
AcDbLine
 10
100.502753
 20
299.1083189999999
 30
0.0
 11
81.47945400000001
 21
294.702175
 31
0.0
  0
LINE
  5
159
330
70E
100
AcDbEntity
  8
PRO0
  6
Continuous
 62
     3
100
AcDbLine
 10
100.567326
 20
297.2977149999999
 30
0.0
 11
105.5648259999999
 21
297.2977149999999
 31
0.0
  0
LINE
  5
15A
330
70E
100
AcDbEntity
  8
PRO0
  6
Continuous
 62
     3
100
AcDbLine
 10
105.5648259999999
 20
297.2977149999999
 30
0.0
 11
105.5648259999999
 21
300.8959149999999
 31
0.0
  0
LINE
  5
15B
330
70E
100
AcDbEntity
  8
PRO0
  6
Continuous
 62
     3
100
AcDbLine
 10
105.5648259999999
 20
300.8959149999999
 30
0.0
 11
100.567326
 21
300.8959149999999
 31
0.0
  0
LINE
  5
15C
330
70E
100
AcDbEntity
  8
PRO0
  6
Continuous
 62
     3
100
AcDbLine
 10
100.567326
 20
300.8959149999999
 30
0.0
 11
100.567326
 21
297.2977149999999
 31
0.0
  0
LINE
  5
15D
330
70E
100
AcDbEntity
  8
PRO0
  6
Continuous
 62
     3
100
AcDbLine
 10
81.453825
 20
303.5171009999999
 30
0.0
 11
100.567326
 21
300.112052
 31
0.0
  0
LINE
  5
15E
330
70E
100
AcDbEntity
  8
PRO0
  6
Continuous
 62
     3
100
AcDbLine
 10
81.27852500000001
 20
302.5330939999999
 30
0.0
 11
100.567326
 21
299.096815
 31
0.0
  0
LINE
  5
15F
330
70E
100
AcDbEntity
  8
PRO0
  6
Continuous
 62
     3
100
AcDbLine
 10
195.5198259999999
 20
299.096815
 30
0.0
 11
105.5648259999999
 21
299.096815
 31
0.0
  0
ARC
  5
160
330
70E
100
AcDbEntity
  8
PRO0
  6
Continuous
 62
     3
100
AcDbCircle
 10
107.583201
 20
300.596065
 30
0.0
 40
1.499249999999999
100
AcDbArc
 50
270.0
 51
0.0
  0
LINE
  5
161
330
70E
100
AcDbEntity
  8
PRO0
  6
Continuous
 62
     3
100
AcDbLine
 10
195.5198259999999
 20
298.097315
 30
0.0
 11
105.5648259999999
 21
298.097315
 31
0.0
  0
LINE
  5
162
330
70E
100
AcDbEntity
  8
PRO0
  6
Continuous
 62
     3
100
AcDbLine
 10
105.5648259999999
 20
300.096315
 30
0.0
 11
107.583201
 21
300.096315
 31
0.0
  0
ARC
  5
163
330
70E
100
AcDbEntity
  8
PRO0
  6
Continuous
 62
     3
100
AcDbCircle
 10
107.583201
 20
300.596065
 30
0.0
 40
0.4997500000000001
100
AcDbArc
 50
270.0
 51
0.0
  0
LINE
  5
164
330
70E
100
AcDbEntity
  8
PRO0
  6
Continuous
 62
     3
100
AcDbLine
 10
108.082951
 20
300.8959149999999
 30
0.0
 11
108.082951
 21
300.596065
 31
0.0
  0
LINE
  5
165
330
70E
100
AcDbEntity
  8
PRO0
  6
Continuous
 62
     3
100
AcDbLine
 10
108.082951
 20
300.8959149999999
 30
0.0
 11
109.082451
 21
300.8959149999999
 31
0.0
  0
LINE
  5
166
330
70E
100
AcDbEntity
  8
PRO0
  6
Continuous
 62
     3
100
AcDbLine
 10
109.082451
 20
300.8959149999999
 30
0.0
 11
109.082451
 21
300.596065
 31
0.0
  0
ARC
  5
167
330
70E
100
AcDbEntity
  8
PRO0
  6
Continuous
 62
     3
100
AcDbCircle
 10
80.57732599999999
 20
298.597065
 30
0.0
 40
3.998
100
AcDbArc
 50
79.89879000000001
 51
283.040795
  0
ARC
  5
168
330
70E
100
AcDbEntity
  8
PRO0
  6
Continuous
 62
     3
100
AcDbCircle
 10
80.57732599999999
 20
298.597065
 30
0.0
 40
4.997499999999999
100
AcDbArc
 50
79.89879000000001
 51
283.040795
  0
LINE
  5
175
330
70E
100
AcDbEntity
  8
PRO0
  6
Continuous
 62
     3
100
AcDbLine
 10
319.329666
 20
293.728452
 30
0.0
 11
300.4673259999999
 21
298.097315
 31
0.0
  0
LINE
  5
176
330
70E
100
AcDbEntity
  8
PRO0
  6
Continuous
 62
     3
100
AcDbLine
 10
300.531899
 20
299.1083189999999
 30
0.0
 11
319.555198
 21
294.702175
 31
0.0
  0
LINE
  5
177
330
70E
100
AcDbEntity
  8
PRO0
  6
Continuous
 62
     3
100
AcDbLine
 10
300.4673259999999
 20
297.2977149999999
 30
0.0
 11
295.4698259999999
 21
297.2977149999999
 31
0.0
  0
LINE
  5
178
330
70E
100
AcDbEntity
  8
PRO0
  6
Continuous
 62
     3
100
AcDbLine
 10
295.4698259999999
 20
297.2977149999999
 30
0.0
 11
295.4698259999999
 21
300.8959149999999
 31
0.0
  0
LINE
  5
179
330
70E
100
AcDbEntity
  8
PRO0
  6
Continuous
 62
     3
100
AcDbLine
 10
295.4698259999999
 20
300.8959149999999
 30
0.0
 11
300.4673259999999
 21
300.8959149999999
 31
0.0
  0
LINE
  5
17A
330
70E
100
AcDbEntity
  8
PRO0
  6
Continuous
 62
     3
100
AcDbLine
 10
300.4673259999999
 20
300.8959149999999
 30
0.0
 11
300.4673259999999
 21
297.2977149999999
 31
0.0
  0
LINE
  5
17B
330
70E
100
AcDbEntity
  8
PRO0
  6
Continuous
 62
     3
100
AcDbLine
 10
319.580827
 20
303.5171009999999
 30
0.0
 11
300.4673259999999
 21
300.112052
 31
0.0
  0
LINE
  5
17C
330
70E
100
AcDbEntity
  8
PRO0
  6
Continuous
 62
     3
100
AcDbLine
 10
319.756127
 20
302.5330939999999
 30
0.0
 11
300.4673259999999
 21
299.096815
 31
0.0
  0
LINE
  5
17D
330
70E
100
AcDbEntity
  8
PRO0
  6
Continuous
 62
     3
100
AcDbLine
 10
205.514826
 20
299.096815
 30
0.0
 11
295.4698259999999
 21
299.096815
 31
0.0
  0
ARC
  5
17E
330
70E
100
AcDbEntity
  8
PRO0
  6
Continuous
 62
     3
100
AcDbCircle
 10
293.4514509999999
 20
300.596065
 30
0.0
 40
1.499249999999999
100
AcDbArc
 50
180.0
 51
270.0
  0
LINE
  5
17F
330
70E
100
AcDbEntity
  8
PRO0
  6
Continuous
 62
     3
100
AcDbLine
 10
205.514826
 20
298.097315
 30
0.0
 11
295.4698259999999
 21
298.097315
 31
0.0
  0
LINE
  5
180
330
70E
100
AcDbEntity
  8
PRO0
  6
Continuous
 62
     3
100
AcDbLine
 10
295.4698259999999
 20
300.096315
 30
0.0
 11
293.4514509999999
 21
300.096315
 31
0.0
  0
ARC
  5
181
330
70E
100
AcDbEntity
  8
PRO0
  6
Continuous
 62
     3
100
AcDbCircle
 10
293.4514509999999
 20
300.596065
 30
0.0
 40
0.4997500000000001
100
AcDbArc
 50
180.0
 51
270.0
  0
LINE
  5
182
330
70E
100
AcDbEntity
  8
PRO0
  6
Continuous
 62
     3
100
AcDbLine
 10
292.9517009999999
 20
300.8959149999999
 30
0.0
 11
292.9517009999999
 21
300.596065
 31
0.0
  0
LINE
  5
183
330
70E
100
AcDbEntity
  8
PRO0
  6
Continuous
 62
     3
100
AcDbLine
 10
292.9517009999999
 20
300.8959149999999
 30
0.0
 11
291.952201
 21
300.8959149999999
 31
0.0
  0
LINE
  5
184
330
70E
100
AcDbEntity
  8
PRO0
  6
Continuous
 62
     3
100
AcDbLine
 10
291.952201
 20
300.8959149999999
 30
0.0
 11
291.952201
 21
300.596065
 31
0.0
  0
ARC
  5
185
330
70E
100
AcDbEntity
  8
PRO0
  6
Continuous
 62
     3
100
AcDbCircle
 10
320.4573259999999
 20
298.597065
 30
0.0
 40
3.998
100
AcDbArc
 50
256.959205
 51
110.010381
  0
ARC
  5
186
330
70E
100
AcDbEntity
  8
PRO0
  6
Continuous
 62
     3
100
AcDbCircle
 10
320.4573259999999
 20
298.597065
 30
0.0
 40
4.997499999999999
100
AcDbArc
 50
256.959205
 51
108.0215989999999
  0
LINE
  5
1A6
330
70E
100
AcDbEntity
  8
PRO0
  6
Continuous
 62
     3
100
AcDbLine
 10
487.8905519999999
 20
293.728452
 30
0.0
 11
506.7528929999999
 21
298.097315
 31
0.0
  0
LINE
  5
1A7
330
70E
100
AcDbEntity
  8
PRO0
  6
Continuous
 62
     3
100
AcDbLine
 10
506.68832
 20
299.1083189999999
 30
0.0
 11
487.665021
 21
294.702175
 31
0.0
  0
LINE
  5
1A8
330
70E
100
AcDbEntity
  8
PRO0
  6
Continuous
 62
     3
100
AcDbLine
 10
506.7528929999999
 20
297.2977149999999
 30
0.0
 11
511.7503929999999
 21
297.2977149999999
 31
0.0
  0
LINE
  5
1A9
330
70E
100
AcDbEntity
  8
PRO0
  6
Continuous
 62
     3
100
AcDbLine
 10
511.7503929999999
 20
297.2977149999999
 30
0.0
 11
511.7503929999999
 21
300.8959149999999
 31
0.0
  0
LINE
  5
1AA
330
70E
100
AcDbEntity
  8
PRO0
  6
Continuous
 62
     3
100
AcDbLine
 10
511.7503929999999
 20
300.8959149999999
 30
0.0
 11
506.7528929999999
 21
300.8959149999999
 31
0.0
  0
LINE
  5
1AB
330
70E
100
AcDbEntity
  8
PRO0
  6
Continuous
 62
     3
100
AcDbLine
 10
506.7528929999999
 20
300.8959149999999
 30
0.0
 11
506.7528929999999
 21
297.2977149999999
 31
0.0
  0
LINE
  5
1AC
330
70E
100
AcDbEntity
  8
PRO0
  6
Continuous
 62
     3
100
AcDbLine
 10
487.6393919999999
 20
303.5171009999999
 30
0.0
 11
506.7528929999999
 21
300.112052
 31
0.0
  0
LINE
  5
1AD
330
70E
100
AcDbEntity
  8
PRO0
  6
Continuous
 62
     3
100
AcDbLine
 10
487.464092
 20
302.5330939999999
 30
0.0
 11
506.7528929999999
 21
299.096815
 31
0.0
  0
LINE
  5
1AE
330
70E
100
AcDbEntity
  8
PRO0
  6
Continuous
 62
     3
100
AcDbLine
 10
601.7053929999999
 20
299.096815
 30
0.0
 11
511.7503929999999
 21
299.096815
 31
0.0
  0
ARC
  5
1AF
330
70E
100
AcDbEntity
  8
PRO0
  6
Continuous
 62
     3
100
AcDbCircle
 10
513.7687679999999
 20
300.596065
 30
0.0
 40
1.499249999999999
100
AcDbArc
 50
270.0
 51
0.0
  0
LINE
  5
1B0
330
70E
100
AcDbEntity
  8
PRO0
  6
Continuous
 62
     3
100
AcDbLine
 10
601.7053929999999
 20
298.097315
 30
0.0
 11
511.7503929999999
 21
298.097315
 31
0.0
  0
LINE
  5
1B1
330
70E
100
AcDbEntity
  8
PRO0
  6
Continuous
 62
     3
100
AcDbLine
 10
511.7503929999999
 20
300.096315
 30
0.0
 11
513.7687679999999
 21
300.096315
 31
0.0
  0
ARC
  5
1B2
330
70E
100
AcDbEntity
  8
PRO0
  6
Continuous
 62
     3
100
AcDbCircle
 10
513.7687679999999
 20
300.596065
 30
0.0
 40
0.4997500000000001
100
AcDbArc
 50
270.0
 51
0.0
  0
LINE
  5
1B3
330
70E
100
AcDbEntity
  8
PRO0
  6
Continuous
 62
     3
100
AcDbLine
 10
514.2685179999999
 20
300.8959149999999
 30
0.0
 11
514.2685179999999
 21
300.596065
 31
0.0
  0
LINE
  5
1B4
330
70E
100
AcDbEntity
  8
PRO0
  6
Continuous
 62
     3
100
AcDbLine
 10
514.2685179999999
 20
300.8959149999999
 30
0.0
 11
515.2680179999999
 21
300.8959149999999
 31
0.0
  0
LINE
  5
1B5
330
70E
100
AcDbEntity
  8
PRO0
  6
Continuous
 62
     3
100
AcDbLine
 10
515.2680179999999
 20
300.8959149999999
 30
0.0
 11
515.2680179999999
 21
300.596065
 31
0.0
  0
ARC
  5
1B6
330
70E
100
AcDbEntity
  8
PRO0
  6
Continuous
 62
     3
100
AcDbCircle
 10
486.7628929999999
 20
298.597065
 30
0.0
 40
3.998
100
AcDbArc
 50
79.89879000000001
 51
283.040795
  0
ARC
  5
1B7
330
70E
100
AcDbEntity
  8
PRO0
  6
Continuous
 62
     3
100
AcDbCircle
 10
486.7628929999999
 20
298.597065
 30
0.0
 40
4.997499999999999
100
AcDbArc
 50
79.89879000000001
 51
283.040795
  0
LINE
  5
1C4
330
70E
100
AcDbEntity
  8
PRO0
  6
Continuous
 62
     3
100
AcDbLine
 10
725.5152329999999
 20
293.728452
 30
0.0
 11
706.6528929999999
 21
298.097315
 31
0.0
  0
LINE
  5
1C5
330
70E
100
AcDbEntity
  8
PRO0
  6
Continuous
 62
     3
100
AcDbLine
 10
706.717466
 20
299.1083189999999
 30
0.0
 11
725.740765
 21
294.702175
 31
0.0
  0
LINE
  5
1C6
330
70E
100
AcDbEntity
  8
PRO0
  6
Continuous
 62
     3
100
AcDbLine
 10
706.6528929999999
 20
297.2977149999999
 30
0.0
 11
701.655393
 21
297.2977149999999
 31
0.0
  0
LINE
  5
1C7
330
70E
100
AcDbEntity
  8
PRO0
  6
Continuous
 62
     3
100
AcDbLine
 10
701.655393
 20
297.2977149999999
 30
0.0
 11
701.655393
 21
300.8959149999999
 31
0.0
  0
LINE
  5
1C8
330
70E
100
AcDbEntity
  8
PRO0
  6
Continuous
 62
     3
100
AcDbLine
 10
701.655393
 20
300.8959149999999
 30
0.0
 11
706.6528929999999
 21
300.8959149999999
 31
0.0
  0
LINE
  5
1C9
330
70E
100
AcDbEntity
  8
PRO0
  6
Continuous
 62
     3
100
AcDbLine
 10
706.6528929999999
 20
300.8959149999999
 30
0.0
 11
706.6528929999999
 21
297.2977149999999
 31
0.0
  0
LINE
  5
1CA
330
70E
100
AcDbEntity
  8
PRO0
  6
Continuous
 62
     3
100
AcDbLine
 10
725.766394
 20
303.5171009999999
 30
0.0
 11
706.6528929999999
 21
300.112052
 31
0.0
  0
LINE
  5
1CB
330
70E
100
AcDbEntity
  8
PRO0
  6
Continuous
 62
     3
100
AcDbLine
 10
725.9416940000001
 20
302.5330939999999
 30
0.0
 11
706.6528929999999
 21
299.096815
 31
0.0
  0
LINE
  5
1CC
330
70E
100
AcDbEntity
  8
PRO0
  6
Continuous
 62
     3
100
AcDbLine
 10
611.700393
 20
299.096815
 30
0.0
 11
701.655393
 21
299.096815
 31
0.0
  0
ARC
  5
1CD
330
70E
100
AcDbEntity
  8
PRO0
  6
Continuous
 62
     3
100
AcDbCircle
 10
699.637018
 20
300.596065
 30
0.0
 40
1.499249999999999
100
AcDbArc
 50
180.0
 51
270.0
  0
LINE
  5
1CE
330
70E
100
AcDbEntity
  8
PRO0
  6
Continuous
 62
     3
100
AcDbLine
 10
611.700393
 20
298.097315
 30
0.0
 11
701.655393
 21
298.097315
 31
0.0
  0
LINE
  5
1CF
330
70E
100
AcDbEntity
  8
PRO0
  6
Continuous
 62
     3
100
AcDbLine
 10
701.655393
 20
300.096315
 30
0.0
 11
699.637018
 21
300.096315
 31
0.0
  0
ARC
  5
1D0
330
70E
100
AcDbEntity
  8
PRO0
  6
Continuous
 62
     3
100
AcDbCircle
 10
699.637018
 20
300.596065
 30
0.0
 40
0.4997500000000001
100
AcDbArc
 50
180.0
 51
270.0
  0
LINE
  5
1D1
330
70E
100
AcDbEntity
  8
PRO0
  6
Continuous
 62
     3
100
AcDbLine
 10
699.1372679999999
 20
300.8959149999999
 30
0.0
 11
699.1372679999999
 21
300.596065
 31
0.0
  0
LINE
  5
1D2
330
70E
100
AcDbEntity
  8
PRO0
  6
Continuous
 62
     3
100
AcDbLine
 10
699.1372679999999
 20
300.8959149999999
 30
0.0
 11
698.1377679999999
 21
300.8959149999999
 31
0.0
  0
LINE
  5
1D3
330
70E
100
AcDbEntity
  8
PRO0
  6
Continuous
 62
     3
100
AcDbLine
 10
698.1377679999999
 20
300.8959149999999
 30
0.0
 11
698.1377679999999
 21
300.596065
 31
0.0
  0
ARC
  5
1D4
330
70E
100
AcDbEntity
  8
PRO0
  6
Continuous
 62
     3
100
AcDbCircle
 10
726.642893
 20
298.597065
 30
0.0
 40
3.998
100
AcDbArc
 50
256.959205
 51
110.010381
  0
ARC
  5
1D5
330
70E
100
AcDbEntity
  8
PRO0
  6
Continuous
 62
     3
100
AcDbCircle
 10
726.642893
 20
298.597065
 30
0.0
 40
4.997499999999999
100
AcDbArc
 50
256.959205
 51
108.0215989999999
  0
TEXT
  5
1E8
330
70E
100
AcDbEntity
  8
PRO0
  6
Continuous
 62
     2
100
AcDbText
 10
71.800064
 20
317.8340149999999
 30
0.0
 40
7.2
  1
（落下防止ワイヤー）
 41
0.8045399999999998
 51
-0.0002
 72
     1
 11
105.5907439999999
 21
317.8340149999999
 31
0.0
100
AcDbText
  0
TEXT
  5
1E9
330
70E
100
AcDbEntity
  8
PRO0
  6
Continuous
 62
     2
100
AcDbText
 10
476.9546969999999
 20
317.8340149999999
 30
0.0
 40
7.2
  1
（落下防止ワイヤー）
 41
0.8045399999999998
 51
-0.0002
 72
     1
 11
510.7453769999999
 21
317.8340149999999
 31
0.0
100
AcDbText
  0
TEXT
  5
1EA
330
70E
100
AcDbEntity
  8
PRO0
  6
Continuous
 62
     2
100
AcDbText
 10
214.9767149999999
 20
160.4257279999999
 30
0.0
 40
7.2
  1
フィッシャープラグＳ８
 41
0.805211
 51
-0.0002
100
AcDbText
  0
TEXT
  5
1EB
330
70E
100
AcDbEntity
  8
PRO0
  6
Continuous
 62
     2
100
AcDbText
 10
359.1509462
 20
160.425705
 30
0.0
 40
7.2
  1
〃
 41
0.73811
 51
-0.0002
 72
     1
 11
361.276703
 21
160.425705
 31
0.0
100
AcDbText
  0
TEXT
  5
1EC
330
70E
100
AcDbEntity
  8
PRO0
  6
Continuous
 62
     2
100
AcDbText
 10
338.447876
 20
160.5256919999999
 30
0.0
 40
7.2
  1
１２
 41
0.73811
 72
     2
 11
349.07666
 21
160.5256919999999
 31
0.0
100
AcDbText
  0
TEXT
  5
1ED
330
70E
100
AcDbEntity
  8
PRO0
  6
Continuous
 62
     2
100
AcDbText
 10
100.976715
 20
160.4257279999999
 30
0.0
 40
7.2
  1
アンカープラグ
 41
0.801377
 51
-0.0002
100
AcDbText
  0
TEXT
  5
1EE
330
70E
100
AcDbEntity
  8
PRO0
  6
Continuous
 62
     2
100
AcDbText
 10
100.976715
 20
148.425716
 30
0.0
 40
7.2
  1
ステンタッピンねじ
 41
0.80372
 51
-0.0002
100
AcDbText
  0
TEXT
  5
1EF
330
70E
100
AcDbEntity
  8
PRO0
  6
Continuous
 62
     2
100
AcDbText
 10
214.9767379999999
 20
148.425716
 30
0.0
 40
7.2
  1
なべ５×５０
 41
0.799619
 51
-0.0002
100
AcDbText
  0
TEXT
  5
1F0
330
70E
100
AcDbEntity
  8
PRO0
  6
Continuous
 62
     2
100
AcDbText
 10
338.447876
 20
148.5257029999999
 30
0.0
 40
7.2
  1
１２
 41
0.73811
 72
     2
 11
349.07666
 21
148.5257029999999
 31
0.0
100
AcDbText
  0
TEXT
  5
1F1
330
70E
100
AcDbEntity
  8
PRO0
  6
Continuous
 62
     2
100
AcDbText
 10
100.976715
 20
124.425728
 30
0.0
 40
7.2
  1
ステンワッシャー
 41
0.8026949999999999
 51
-0.0002
100
AcDbText
  0
TEXT
  5
1F2
330
70E
100
AcDbEntity
  8
PRO0
  6
Continuous
 62
     2
100
AcDbText
 10
214.9767379999999
 20
124.425728
 30
0.0
 40
7.2
  1
１．５×１８×５．５穴
 41
0.805211
 51
-0.0002
100
AcDbText
  0
TEXT
  5
1F3
330
70E
100
AcDbEntity
  8
PRO0
  6
Continuous
 62
     2
100
AcDbText
 10
358.7966534
 20
124.425728
 30
0.0
 40
7.2
  1
枚
 41
0.73811
 51
-0.0002
 72
     1
 11
361.276703
 21
124.425728
 31
0.0
100
AcDbText
  0
TEXT
  5
1F4
330
70E
100
AcDbEntity
  8
PRO0
  6
Continuous
 62
     2
100
AcDbText
 10
338.447876
 20
124.525726
 30
0.0
 40
7.2
  1
１２
 41
0.73811
 72
     2
 11
349.07666
 21
124.525726
 31
0.0
100
AcDbText
  0
TEXT
  5
1F5
330
70E
100
AcDbEntity
  8
PRO0
  6
Continuous
 62
     2
100
AcDbText
 10
100.976715
 20
76.42571600000001
 30
0.0
 40
7.2
  1
ブチルテープ
 41
0.799619
 51
-0.0002
100
AcDbText
  0
TEXT
  5
1F6
330
70E
100
AcDbEntity
  8
PRO0
  6
Continuous
 62
     2
100
AcDbText
 10
358.7966534
 20
76.42571600000001
 30
0.0
 40
7.2
  1
巻
 41
0.73811
 51
-0.0002
 72
     1
 11
361.276703
 21
76.42571600000001
 31
0.0
100
AcDbText
  0
TEXT
  5
1F7
330
70E
100
AcDbEntity
  8
PRO0
  6
Continuous
 62
     2
100
AcDbText
 10
346.2423175999999
 20
76.525703
 30
0.0
 40
7.2
  1
１
 41
0.73811
 72
     2
 11
349.07666
 21
76.525703
 31
0.0
100
AcDbText
  0
TEXT
  5
1F8
330
70E
100
AcDbEntity
  8
PRO0
  6
Continuous
 62
     2
100
AcDbText
 10
214.9767379999999
 20
76.42571600000001
 30
0.0
 40
7.2
  1
ｔ１．０×ｗ３０
 41
0.8026949999999999
 51
-0.0002
100
AcDbText
  0
TEXT
  5
1F9
330
70E
100
AcDbEntity
  8
PRO0
  6
Continuous
 62
     2
100
AcDbText
 10
303.2078892
 20
76.425728
 30
0.0
 40
7.2
  1
６０００
 41
0.73811
 51
-0.0002
 72
     1
 11
315.076698
 21
76.425728
 31
0.0
100
AcDbText
  0
TEXT
  5
1FA
330
70E
100
AcDbEntity
  8
PRO0
  6
Continuous
 62
     2
100
AcDbText
 10
214.9767149999999
 20
88.42571099999998
 30
0.0
 40
7.2
  1
外ジョイント材（ステン）
 41
0.80577
 51
-0.0002
100
AcDbText
  0
TEXT
  5
1FB
330
70E
100
AcDbEntity
  8
PRO0
  6
Continuous
 62
     2
100
AcDbText
 10
243.3789049999999
 20
230.0257189999999
 30
0.0
 40
7.2
  1
規　格
 41
0.7873180000000001
 51
-0.0002
 72
     1
 11
252.826721
 21
230.0257189999999
 31
0.0
100
AcDbText
  0
LINE
  5
1FC
330
70E
100
AcDbEntity
  8
PRO0
  6
Continuous
 62
     1
100
AcDbLine
 10
368.4766989999999
 20
62.025704
 30
0.0
 11
84.17669899999999
 21
62.025704
 31
0.0
  0
TEXT
  5
1FD
330
70E
100
AcDbEntity
  8
PRO0
  6
Continuous
 62
     2
100
AcDbText
 10
93.2783784
 20
112.4808199999999
 30
0.0
 40
7.2
  1
９
 41
0.73811
 51
-0.0002
 72
     2
 11
97.52989200000001
 21
112.4808199999999
 31
0.0
100
AcDbText
  0
TEXT
  5
1FE
330
70E
100
AcDbEntity
  8
PRO0
  6
Continuous
 62
     2
100
AcDbText
 10
100.976715
 20
112.425728
 30
0.0
 40
7.2
  1
ガスケットＳＨＦ
 41
0.8026949999999999
 51
-0.0002
100
AcDbText
  0
TEXT
  5
1FF
330
70E
100
AcDbEntity
  8
PRO0
  6
Continuous
 62
     2
100
AcDbText
 10
358.7966534
 20
112.425728
 30
0.0
 40
7.2
  1
本
 41
0.73811
 51
-0.0002
 72
     1
 11
361.276703
 21
112.425728
 31
0.0
100
AcDbText
  0
TEXT
  5
200
330
70E
100
AcDbEntity
  8
PRO0
  6
Continuous
 62
     2
100
AcDbText
 10
344.8251464
 20
112.525726
 30
0.0
 40
7.2
  1
２
 41
0.73811
 72
     2
 11
349.07666
 21
112.525726
 31
0.0
100
AcDbText
  0
TEXT
  5
201
330
70E
100
AcDbEntity
  8
PRO0
  6
Continuous
 62
     2
100
AcDbText
 10
303.2078892
 20
112.425728
 30
0.0
 40
7.2
  1
３０００
 41
0.73811
 51
-0.0002
 72
     1
 11
315.076698
 21
112.425728
 31
0.0
100
AcDbText
  0
TEXT
  5
202
330
70E
100
AcDbEntity
  8
PRO0
  6
Continuous
 62
     2
100
AcDbText
 10
709.5859642
 20
172.4257279999999
 30
0.0
 40
7.2
  1
３０００
 41
0.73811
 51
-0.0002
 72
     1
 11
721.454773
 21
172.4257279999999
 31
0.0
100
AcDbText
  0
TEXT
  5
203
330
70E
100
AcDbEntity
  8
PRO0
  6
Continuous
 62
     2
100
AcDbText
 10
507.3549039999999
 20
148.425728
 30
0.0
 40
7.2
  1
アンカープラグ
 41
0.801377
 51
-0.0002
100
AcDbText
  0
TEXT
  5
204
330
70E
100
AcDbEntity
  8
PRO0
  6
Continuous
 62
     2
100
AcDbText
 10
621.354904
 20
148.425728
 30
0.0
 40
7.2
  1
フィッシャープラグＳ８
 41
0.805211
 51
-0.0002
100
AcDbText
  0
TEXT
  5
205
330
70E
100
AcDbEntity
  8
PRO0
  6
Continuous
 62
     2
100
AcDbText
 10
765.1747964
 20
148.425716
 30
0.0
 40
7.2
  1
本
 41
0.73811
 51
-0.0002
 72
     1
 11
767.654846
 21
148.425716
 31
0.0
100
AcDbText
  0
TEXT
  5
206
330
70E
100
AcDbEntity
  8
PRO0
  6
Continuous
 62
     2
100
AcDbText
 10
745.82605
 20
148.5257029999999
 30
0.0
 40
7.2
  1
１２
 41
0.73811
 72
     2
 11
756.4548339999999
 21
148.5257029999999
 31
0.0
100
AcDbText
  0
TEXT
  5
207
330
70E
100
AcDbEntity
  8
PRO0
  6
Continuous
 62
     2
100
AcDbText
 10
507.3549039999999
 20
136.4257159999999
 30
0.0
 40
7.2
  1
ステンタッピンねじ
 41
0.80372
 51
-0.0002
100
AcDbText
  0
TEXT
  5
208
330
70E
100
AcDbEntity
  8
PRO0
  6
Continuous
 62
     2
100
AcDbText
 10
621.354813
 20
136.4257159999999
 30
0.0
 40
7.2
  1
なべ５×５０
 41
0.799619
 51
-0.0002
100
AcDbText
  0
TEXT
  5
209
330
70E
100
AcDbEntity
  8
PRO0
  6
Continuous
 62
     2
100
AcDbText
 10
765.5290892
 20
136.4257159999999
 30
0.0
 40
7.2
  1
〃
 41
0.73811
 51
-0.0002
 72
     1
 11
767.654846
 21
136.4257159999999
 31
0.0
100
AcDbText
  0
TEXT
  5
20A
330
70E
100
AcDbEntity
  8
PRO0
  6
Continuous
 62
     2
100
AcDbText
 10
745.82605
 20
136.5257149999999
 30
0.0
 40
7.2
  1
１２
 41
0.73811
 72
     2
 11
756.4548339999999
 21
136.5257149999999
 31
0.0
100
AcDbText
  0
LINE
  5
20B
330
70E
100
AcDbEntity
  8
PRO0
  6
Continuous
 62
     2
100
AcDbLine
 10
774.8548659999999
 20
98.025704
 30
0.0
 11
490.554866
 21
98.025704
 31
0.0
  0
TEXT
  5
20C
330
70E
100
AcDbEntity
  8
PRO0
  6
Continuous
 62
     2
100
AcDbText
 10
493.6335437999999
 20
100.48082
 30
0.0
 40
7.2
  1
１０
 41
0.73811
 51
-0.0002
 72
     2
 11
503.9080349999999
 21
100.48082
 31
0.0
100
AcDbText
  0
TEXT
  5
20D
330
70E
100
AcDbEntity
  8
PRO0
  6
Continuous
 62
     2
100
AcDbText
 10
507.354858
 20
100.425728
 30
0.0
 40
7.2
  1
ガスケットＳＨＦ
 41
0.8026949999999999
 51
-0.0002
100
AcDbText
  0
TEXT
  5
20E
330
70E
100
AcDbEntity
  8
PRO0
  6
Continuous
 62
     2
100
AcDbText
 10
765.1747964
 20
100.425728
 30
0.0
 40
7.2
  1
本
 41
0.73811
 51
-0.0002
 72
     1
 11
767.654846
 21
100.425728
 31
0.0
100
AcDbText
  0
TEXT
  5
20F
330
70E
100
AcDbEntity
  8
PRO0
  6
Continuous
 62
     2
100
AcDbText
 10
751.2032894
 20
100.525726
 30
0.0
 40
7.2
  1
２
 41
0.73811
 72
     2
 11
755.4548029999999
 21
100.525726
 31
0.0
100
AcDbText
  0
TEXT
  5
210
330
70E
100
AcDbEntity
  8
PRO0
  6
Continuous
 62
     2
100
AcDbText
 10
709.5860562
 20
100.425728
 30
0.0
 40
7.2
  1
３０００
 41
0.73811
 51
-0.0002
 72
     1
 11
721.454865
 21
100.425728
 31
0.0
100
AcDbText
  0
LINE
  5
211
330
70E
100
AcDbEntity
  8
PRO0
  6
Continuous
 62
     2
100
AcDbLine
 10
774.8548659999999
 20
74.025704
 30
0.0
 11
490.554866
 21
74.025704
 31
0.0
  0
TEXT
  5
212
330
70E
100
AcDbEntity
  8
PRO0
  6
Continuous
 62
     2
100
AcDbText
 10
507.3549039999999
 20
76.42571099999999
 30
0.0
 40
7.2
  1
センタープレートジョイントカバー
 41
0.807308
 51
-0.0002
100
AcDbText
  0
TEXT
  5
213
330
70E
100
AcDbEntity
  8
PRO0
  6
Continuous
 62
     2
100
AcDbText
 10
499.3022285999999
 20
76.48081399999999
 30
0.0
 40
7.2
  1
※
 41
0.73811
 51
-0.0002
 72
     2
 11
503.9080349999999
 21
76.48081399999999
 31
0.0
100
AcDbText
  0
TEXT
  5
214
330
70E
100
AcDbEntity
  8
PRO0
  6
Continuous
 62
     2
100
AcDbText
 10
753.6204916
 20
76.52570899999999
 30
0.0
 40
7.2
  1
１
 41
0.73811
 72
     2
 11
756.4548339999999
 21
76.52570899999999
 31
0.0
100
AcDbText
  0
TEXT
  5
215
330
70E
100
AcDbEntity
  8
PRO0
  6
Continuous
 62
     2
100
AcDbText
 10
621.354813
 20
76.42571099999999
 30
0.0
 40
7.2
  1
外ジョイント材（ステン）
 41
0.80577
 51
-0.0002
100
AcDbText
  0
TEXT
  5
216
330
70E
100
AcDbEntity
  8
PRO0
  6
Continuous
 62
     2
100
AcDbText
 10
649.757003
 20
230.0257419999999
 30
0.0
 40
7.2
  1
規　格
 41
0.7873180000000001
 51
-0.0002
 72
     1
 11
659.204819
 21
230.0257419999999
 31
0.0
100
AcDbText
  0
TEXT
  5
217
330
70E
100
AcDbEntity
  8
PRO0
  6
Continuous
 62
     3
100
AcDbText
 10
84.17670200000001
 20
48.025709
 30
0.0
 40
6.0
  1
注）　ガスケットＳＨＦはＳＳＨサイドプレート（Ａ）Ｓにセット済み。
 41
0.73811
100
AcDbText
  0
TEXT
  5
218
330
70E
100
AcDbEntity
  8
PRO0
  6
Continuous
 62
     3
100
AcDbText
 10
489.1766969999999
 20
36.02570599999999
 30
0.0
 40
6.0
  1
注）　ガスケットＳＨＦはＳＳＨサイドプレート（Ａ）Ｓセット済み。
 41
0.73811
100
AcDbText
  0
TEXT
  5
219
330
70E
100
AcDbEntity
  8
PRO0
  6
Continuous
 62
     2
100
AcDbText
 10
765.5290892
 20
76.42571099999999
 30
0.0
 40
7.2
  1
〃
 41
0.73811
 51
-0.0002
 72
     1
 11
767.654846
 21
76.42571099999999
 31
0.0
100
AcDbText
  0
LINE
  5
21A
330
70E
100
AcDbEntity
  8
PRO0
  6
Continuous
 62
     3
100
AcDbLine
 10
144.3266989999999
 20
421.837303
 30
0.0
 11
138.9644389999999
 21
427.199563
 31
0.0
  0
LINE
  5
21B
330
70E
100
AcDbEntity
  8
PRO0
  6
Continuous
 62
     3
100
AcDbLine
 10
142.927174
 20
421.115508
 30
0.0
 11
138.992487
 21
425.050195
 31
0.0
  0
LINE
  5
21C
330
70E
100
AcDbEntity
  8
PRO0
  6
Continuous
 62
     3
100
AcDbLine
 10
140.805853
 20
421.115508
 30
0.0
 11
138.7127419999999
 21
423.208619
 31
0.0
  0
LINE
  5
21D
330
70E
100
AcDbEntity
  8
PRO0
  6
Continuous
 62
     3
100
AcDbLine
 10
138.684533
 20
421.115508
 30
0.0
 11
138.2168169999999
 21
421.583224
 31
0.0
  0
LINE
  5
21E
330
70E
100
AcDbEntity
  8
PRO0
  6
Continuous
 62
     3
100
AcDbLine
 10
144.3266989999999
 20
423.958623
 30
0.0
 11
138.374675
 21
429.9106469999999
 31
0.0
  0
LINE
  5
21F
330
70E
100
AcDbEntity
  8
PRO0
  6
Continuous
 62
     3
100
AcDbLine
 10
144.3266989999999
 20
426.079944
 30
0.0
 11
139.591135
 21
430.815508
 31
0.0
  0
LINE
  5
220
330
70E
100
AcDbEntity
  8
PRO0
  6
Continuous
 62
     3
100
AcDbLine
 10
144.3266989999999
 20
428.2012639999999
 30
0.0
 11
141.712455
 21
430.815508
 31
0.0
  0
LINE
  5
221
330
70E
100
AcDbEntity
  8
PRO0
  6
Continuous
 62
     3
100
AcDbLine
 10
144.3266989999999
 20
430.322584
 30
0.0
 11
143.833775
 21
430.815508
 31
0.0
  0
LINE
  5
222
330
70E
100
AcDbEntity
  8
PRO0
  6
Continuous
 62
     3
100
AcDbLine
 10
314.6231
 20
421.115508
 30
0.0
 11
308.326699
 21
427.4118559999999
 31
0.0
  0
LINE
  5
223
330
70E
100
AcDbEntity
  8
PRO0
  6
Continuous
 62
     3
100
AcDbLine
 10
312.5053789999999
 20
421.115508
 30
0.0
 11
308.326699
 21
425.2941879999999
 31
0.0
  0
LINE
  5
224
330
70E
100
AcDbEntity
  8
PRO0
  6
Continuous
 62
     3
100
AcDbLine
 10
310.3840579999999
 20
421.115508
 30
0.0
 11
308.326699
 21
423.1728669999999
 31
0.0
  0
LINE
  5
225
330
70E
100
AcDbEntity
  8
PRO0
  6
Continuous
 62
     3
100
AcDbLine
 10
313.770525
 20
424.093003
 30
0.0
 11
308.326699
 21
429.5368279999999
 31
0.0
  0
LINE
  5
226
330
70E
100
AcDbEntity
  8
PRO0
  6
Continuous
 62
     3
100
AcDbLine
 10
313.632794
 20
426.352054
 30
0.0
 11
309.16934
 21
430.815508
 31
0.0
  0
LINE
  5
227
330
70E
100
AcDbEntity
  8
PRO0
  6
Continuous
 62
     3
100
AcDbLine
 10
313.84376
 20
428.2624089999999
 30
0.0
 11
311.29066
 21
430.815508
 31
0.0
  0
LINE
  5
228
330
70E
100
AcDbEntity
  8
PRO0
  6
Continuous
 62
     3
100
AcDbLine
 10
314.28842
 20
429.939068
 30
0.0
 11
313.4119799999999
 21
430.815508
 31
0.0
  0
LINE
  5
229
330
70E
100
AcDbEntity
  8
PRO0
  6
Continuous
 62
     2
100
AcDbLine
 10
186.126699
 20
439.615508
 30
0.0
 11
186.126699
 21
434.315483
 31
0.0
  0
LINE
  5
22A
330
70E
100
AcDbEntity
  8
PRO0
  6
Continuous
 62
     3
100
AcDbLine
 10
188.24801
 20
434.3155
 30
0.0
 11
193.5480179999999
 21
439.615508
 31
0.0
  0
LINE
  5
22B
330
70E
100
AcDbEntity
  8
PRO0
  6
Continuous
 62
     3
100
AcDbLine
 10
190.369326
 20
434.3154949999999
 30
0.0
 11
195.667658
 21
439.613828
 31
0.0
  0
LINE
  5
22C
330
70E
100
AcDbEntity
  8
PRO0
  6
Continuous
 62
     3
100
AcDbLine
 10
192.490641
 20
434.3154909999999
 30
0.0
 11
196.126699
 21
437.9515480000001
 31
0.0
  0
LINE
  5
22D
330
70E
100
AcDbEntity
  8
PRO0
  6
Continuous
 62
     3
100
AcDbLine
 10
194.611957
 20
434.315486
 30
0.0
 11
196.126699
 21
435.830228
 31
0.0
  0
LINE
  5
22E
330
70E
100
AcDbEntity
  8
PRO0
  6
Continuous
 62
     3
100
AcDbLine
 10
186.129786
 20
434.315504
 30
0.0
 11
191.4298269999999
 21
439.615508
 31
0.0
  0
LINE
  5
22F
330
70E
100
AcDbEntity
  8
PRO0
  6
Continuous
 62
     3
100
AcDbLine
 10
186.126699
 20
436.4368299999999
 30
0.0
 11
189.3053769999999
 21
439.615508
 31
0.0
  0
LINE
  5
230
330
70E
100
AcDbEntity
  8
PRO0
  6
Continuous
 62
     3
100
AcDbLine
 10
186.126699
 20
438.5581499999999
 30
0.0
 11
187.1840569999999
 21
439.615508
 31
0.0
  0
DIMENSION
  5
23C
330
70E
100
AcDbEntity
  8
PRO0
  6
Continuous
 62
     3
100
AcDbDimension
  2
*D4
 10
316.3267
 20
491.4864299999999
 30
0.0
 11
226.326691
 21
492.986389
 31
0.0
 70
   128
 71
     5
 42
-1.0
100
AcDbAlignedDimension
 13
136.3266979999999
 23
437.115508
 33
0.0
 14
316.3267
 24
437.115508
 34
0.0
100
AcDbRotatedDimension
  0
DIMENSION
  5
248
330
70E
100
AcDbEntity
  8
PRO0
  6
Continuous
 62
     3
100
AcDbDimension
  2
*D5
 10
197.3266989999999
 20
479.0927219999999
 30
0.0
 11
166.826717
 21
480.5926669999999
 31
0.0
 70
   128
 71
     5
 42
-1.0
100
AcDbAlignedDimension
 13
136.3266979999999
 23
460.609586
 33
0.0
 14
197.3266989999999
 24
437.115508
 34
0.0
100
AcDbRotatedDimension
  0
DIMENSION
  5
253
330
70E
100
AcDbEntity
  8
PRO0
  6
Continuous
 62
     3
100
AcDbDimension
  2
*D6
 10
255.326699
 20
479.0927219999999
 30
0.0
 11
226.326691
 21
480.5926669999999
 31
0.0
 70
   128
 71
     5
 42
-1.0
100
AcDbAlignedDimension
 13
197.3266989999999
 23
437.115508
 33
0.0
 14
255.326699
 24
437.115508
 34
0.0
100
AcDbRotatedDimension
  0
DIMENSION
  5
25E
330
70E
100
AcDbEntity
  8
PRO0
  6
Continuous
 62
     3
100
AcDbDimension
  2
*D7
 10
316.3267
 20
479.0927219999999
 30
0.0
 11
285.826675
 21
480.5926669999999
 31
0.0
 70
   128
 71
     5
 42
-1.0
100
AcDbAlignedDimension
 13
255.326699
 23
437.115508
 33
0.0
 14
316.3267
 24
460.609586
 34
0.0
100
AcDbRotatedDimension
  0
DIMENSION
  5
26A
330
70E
100
AcDbEntity
  8
PRO0
  6
Continuous
 62
     3
100
AcDbDimension
  2
*D8
 10
268.82656
 20
465.402246
 30
0.0
 11
226.326622
 21
466.902237
 31
0.0
 70
   128
 71
     5
 42
-1.0
100
AcDbAlignedDimension
 13
183.8266989999999
 23
432.3155089999999
 33
0.0
 14
268.82656
 24
432.3155089999999
 34
0.0
100
AcDbRotatedDimension
  0
DIMENSION
  5
276
330
70E
100
AcDbEntity
  8
PRO0
  6
Continuous
 62
     3
100
AcDbDimension
  2
*D9
 10
102.2276179999999
 20
421.115508
 30
0.0
 11
100.727589
 21
430.965454
 31
0.0
 70
   128
 71
     5
 42
-1.0
100
AcDbAlignedDimension
 13
140.026699
 23
440.815508
 33
0.0
 14
123.326699
 24
421.115508
 34
0.0
 50
90.0
100
AcDbRotatedDimension
  0
DIMENSION
  5
281
330
70E
100
AcDbEntity
  8
PRO0
  6
Continuous
 62
     3
100
AcDbDimension
  2
*D10
 10
116.781887
 20
430.815508
 30
0.0
 11
115.281853
 21
435.8154599999999
 31
0.0
 70
   128
 71
     5
 42
-1.0
100
AcDbAlignedDimension
 13
116.781887
 23
440.815508
 33
0.0
 14
140.026699
 24
430.815508
 34
0.0
 50
90.0
100
AcDbRotatedDimension
  0
DIMENSION
  5
28B
330
70E
100
AcDbEntity
  8
PRO0
  6
Continuous
 62
     3
100
AcDbDimension
  2
*D11
 10
116.781887
 20
421.115508
 30
0.0
 11
115.281853
 21
425.9654849999999
 31
0.0
 70
   128
 71
     5
 42
-1.0
100
AcDbAlignedDimension
 13
140.026699
 23
430.815508
 33
0.0
 14
116.781887
 24
421.115508
 34
0.0
 50
90.0
100
AcDbRotatedDimension
  0
DIMENSION
  5
297
330
70E
100
AcDbEntity
  8
PRO0
  6
Continuous
 62
     3
100
AcDbDimension
  2
*D12
 10
201.3266989999999
 20
352.8275069999999
 30
0.0
 11
186.326717
 21
354.3274839999999
 31
0.0
 70
   128
 71
     5
 42
-1.0
100
AcDbAlignedDimension
 13
171.3266989999999
 23
378.6039249999999
 33
0.0
 14
201.3266989999999
 24
363.115508
 34
0.0
100
AcDbRotatedDimension
  0
DIMENSION
  5
2A2
330
70E
100
AcDbEntity
  8
PRO0
  6
Continuous
 62
     3
100
AcDbDimension
  2
*D13
 10
251.326699
 20
352.8275069999999
 30
0.0
 11
226.326691
 21
354.3274839999999
 31
0.0
 70
   128
 71
     5
 42
-1.0
100
AcDbAlignedDimension
 13
201.3266989999999
 23
363.115508
 33
0.0
 14
251.326699
 24
363.115508
 34
0.0
100
AcDbRotatedDimension
  0
DIMENSION
  5
2AD
330
70E
100
AcDbEntity
  8
PRO0
  6
Continuous
 62
     3
100
AcDbDimension
  2
*D14
 10
281.326699
 20
352.8275069999999
 30
0.0
 11
266.326675
 21
354.3274839999999
 31
0.0
 70
   128
 71
     5
 42
-1.0
100
AcDbAlignedDimension
 13
251.326699
 23
363.115508
 33
0.0
 14
281.326699
 24
378.6039249999999
 34
0.0
100
AcDbRotatedDimension
  0
DIMENSION
  5
2B9
330
70E
100
AcDbEntity
  8
PRO0
  6
Continuous
 62
     3
100
AcDbDimension
  2
*D15
 10
136.3266979999999
 20
465.402246
 30
0.0
 11
144.3266939999999
 21
466.902237
 31
0.0
 70
   128
 71
     5
 42
-1.0
100
AcDbAlignedDimension
 13
152.3266989999999
 23
447.609375
 33
0.0
 14
136.3266979999999
 24
450.1452659999999
 34
0.0
100
AcDbRotatedDimension
  0
DIMENSION
  5
2C5
330
70E
100
AcDbEntity
  8
PRO0
  6
Continuous
 62
     3
100
AcDbDimension
  2
*D16
 10
316.3267
 20
465.402246
 30
0.0
 11
308.326698
 21
466.902237
 31
0.0
 70
   128
 71
     5
 42
-1.0
100
AcDbAlignedDimension
 13
300.326699
 23
447.609375
 33
0.0
 14
316.3267
 24
450.1452659999999
 34
0.0
100
AcDbRotatedDimension
  0
ARC
  5
2C6
330
70E
100
AcDbEntity
  8
PRO0
  6
Continuous
 62
     2
100
AcDbCircle
 10
126.7654489999999
 20
425.9655079999999
 30
0.0
 40
12.26125
100
AcDbArc
 50
336.6994009999999
 51
23.30059899999999
  0
LINE
  5
2C7
330
70E
100
AcDbEntity
  8
PRO0
  6
Continuous
 62
     2
100
AcDbLine
 10
174.763621
 20
430.0893259999999
 30
0.0
 11
175.2707629999999
 21
429.001757
 31
0.0
  0
LINE
  5
2C8
330
70E
100
AcDbEntity
  8
PRO0
  6
Continuous
 62
     2
100
AcDbLine
 10
175.2707629999999
 20
429.001757
 30
0.0
 11
184.09273
 21
433.115508
 31
0.0
  0
LINE
  5
2C9
330
70E
100
AcDbEntity
  8
PRO0
  6
Continuous
 62
     2
100
AcDbLine
 10
174.763621
 20
430.0893259999999
 30
0.0
 11
183.8266989999999
 21
434.3155089999999
 31
0.0
  0
LINE
  5
2CA
330
70E
100
AcDbEntity
  8
PRO0
  6
Continuous
 62
     3
100
AcDbLine
 10
138.0302979999999
 20
421.115508
 30
0.0
 11
144.3266989999999
 21
427.4118559999999
 31
0.0
  0
LINE
  5
2CB
330
70E
100
AcDbEntity
  8
PRO0
  6
Continuous
 62
     3
100
AcDbLine
 10
140.148019
 20
421.115508
 30
0.0
 11
144.3266989999999
 21
425.2941879999999
 31
0.0
  0
LINE
  5
2CC
330
70E
100
AcDbEntity
  8
PRO0
  6
Continuous
 62
     3
100
AcDbLine
 10
142.2693399999999
 20
421.115508
 30
0.0
 11
144.3266989999999
 21
423.1728669999999
 31
0.0
  0
LINE
  5
2CD
330
70E
100
AcDbEntity
  8
PRO0
  6
Continuous
 62
     3
100
AcDbLine
 10
138.8828729999999
 20
424.093003
 30
0.0
 11
144.3266989999999
 21
429.5368279999999
 31
0.0
  0
LINE
  5
2CE
330
70E
100
AcDbEntity
  8
PRO0
  6
Continuous
 62
     3
100
AcDbLine
 10
139.020604
 20
426.352054
 30
0.0
 11
143.484058
 21
430.815508
 31
0.0
  0
LINE
  5
2CF
330
70E
100
AcDbEntity
  8
PRO0
  6
Continuous
 62
     3
100
AcDbLine
 10
138.8096379999999
 20
428.2624089999999
 30
0.0
 11
141.3627379999999
 21
430.815508
 31
0.0
  0
LINE
  5
2D0
330
70E
100
AcDbEntity
  8
PRO0
  6
Continuous
 62
     3
100
AcDbLine
 10
138.364978
 20
429.939068
 30
0.0
 11
139.2414179999999
 21
430.815508
 31
0.0
  0
LINE
  5
2D1
330
70E
100
AcDbEntity
  8
PRO0
  6
Continuous
 62
     2
100
AcDbLine
 10
184.09273
 20
433.115508
 30
0.0
 11
268.560529
 21
433.115508
 31
0.0
  0
LINE
  5
2D2
330
70E
100
AcDbEntity
  8
PRO0
  6
Continuous
 62
     2
100
AcDbLine
 10
183.8266989999999
 20
434.3155089999999
 30
0.0
 11
268.8265359999999
 21
434.3155199999999
 31
0.0
  0
LINE
  5
2D3
330
70E
100
AcDbEntity
  8
PRO0
  6
Continuous
 62
     2
100
AcDbLine
 10
121.326699
 20
421.115508
 30
0.0
 11
201.3266989999999
 21
421.115508
 31
0.0
  0
LINE
  5
2D4
330
70E
100
AcDbEntity
  8
PRO0
  6
Continuous
 62
     2
100
AcDbLine
 10
201.3266989999999
 20
361.115508
 30
0.0
 11
201.3266989999999
 21
421.115508
 31
0.0
  0
ARC
  5
2D5
330
70E
100
AcDbEntity
  8
PRO0
  6
Continuous
 62
     2
100
AcDbCircle
 10
196.5766989999999
 20
432.365508
 30
0.0
 40
0.75
100
AcDbArc
 50
0.0
 51
180.0
  0
ARC
  5
2D6
330
70E
100
AcDbEntity
  8
PRO0
  6
Continuous
 62
     2
100
AcDbCircle
 10
196.826699
 20
422.615508
 30
0.0
 40
0.5
100
AcDbArc
 50
270.0
 51
0.0
  0
LINE
  5
2D7
330
70E
100
AcDbEntity
  8
PRO0
  6
Continuous
 62
     2
100
AcDbLine
 10
197.3266989999999
 20
432.365508
 30
0.0
 11
197.3266989999999
 21
422.615508
 31
0.0
  0
LINE
  5
2D8
330
70E
100
AcDbEntity
  8
PRO0
  6
Continuous
 62
     2
100
AcDbLine
 10
195.826699
 20
422.615508
 30
0.0
 11
195.826699
 21
422.115508
 31
0.0
  0
LINE
  5
2D9
330
70E
100
AcDbEntity
  8
PRO0
  6
Continuous
 62
     2
100
AcDbLine
 10
195.826699
 20
432.365508
 30
0.0
 11
195.826699
 21
424.615508
 31
0.0
  0
ARC
  5
2DA
330
70E
100
AcDbEntity
  8
PRO0
  6
Continuous
 62
     2
100
AcDbCircle
 10
138.8266989999999
 20
438.615508
 30
0.0
 40
1.0
100
AcDbArc
 50
90.0
 51
180.0
  0
LINE
  5
2DB
330
70E
100
AcDbEntity
  8
PRO0
  6
Continuous
 62
     2
100
AcDbLine
 10
137.8266989999999
 20
438.115508
 30
0.0
 11
137.8266989999999
 21
438.615508
 31
0.0
  0
ARC
  5
2DC
330
70E
100
AcDbEntity
  8
PRO0
  6
Continuous
 62
     2
100
AcDbCircle
 10
145.826699
 20
437.615508
 30
0.0
 40
0.5
100
AcDbArc
 50
0.0
 51
90.0
  0
LINE
  5
2DD
330
70E
100
AcDbEntity
  8
PRO0
  6
Continuous
 62
     2
100
AcDbLine
 10
137.8266989999999
 20
438.115508
 30
0.0
 11
145.826699
 21
438.115508
 31
0.0
  0
LINE
  5
2DE
330
70E
100
AcDbEntity
  8
PRO0
  6
Continuous
 62
     2
100
AcDbLine
 10
146.3266989999999
 20
422.115508
 30
0.0
 11
146.3266989999999
 21
437.615508
 31
0.0
  0
ARC
  5
2DF
330
70E
100
AcDbEntity
  8
PRO0
  6
Continuous
 62
     2
100
AcDbCircle
 10
148.626699
 20
437.115508
 30
0.0
 40
0.5
100
AcDbArc
 50
90.0
 51
180.0
  0
LINE
  5
2E0
330
70E
100
AcDbEntity
  8
PRO0
  6
Continuous
 62
     2
100
AcDbLine
 10
157.326699
 20
437.615508
 30
0.0
 11
148.626699
 21
437.615508
 31
0.0
  0
ARC
  5
2E1
330
70E
100
AcDbEntity
  8
PRO0
  6
Continuous
 62
     2
100
AcDbCircle
 10
157.326699
 20
438.615508
 30
0.0
 40
1.0
100
AcDbArc
 50
270.0
 51
0.0
  0
LINE
  5
2E2
330
70E
100
AcDbEntity
  8
PRO0
  6
Continuous
 62
     2
100
AcDbLine
 10
158.326699
 20
439.615508
 30
0.0
 11
158.326699
 21
438.615508
 31
0.0
  0
LINE
  5
2E3
330
70E
100
AcDbEntity
  8
PRO0
  6
Continuous
 62
     2
100
AcDbLine
 10
148.1266989999999
 20
437.115508
 30
0.0
 11
148.1266989999999
 21
424.615508
 31
0.0
  0
ARC
  5
2E4
330
70E
100
AcDbEntity
  8
PRO0
  6
Continuous
 62
     2
100
AcDbCircle
 10
148.626699
 20
424.615508
 30
0.0
 40
0.5
100
AcDbArc
 50
180.0
 51
270.0
  0
ARC
  5
2E5
330
70E
100
AcDbEntity
  8
PRO0
  6
Continuous
 62
     2
100
AcDbCircle
 10
195.3266989999999
 20
424.615508
 30
0.0
 40
0.5
100
AcDbArc
 50
270.0
 51
0.0
  0
LINE
  5
2E6
330
70E
100
AcDbEntity
  8
PRO0
  6
Continuous
 62
     2
100
AcDbLine
 10
148.626699
 20
424.115508
 30
0.0
 11
195.3266989999999
 21
424.115508
 31
0.0
  0
LINE
  5
2E7
330
70E
100
AcDbEntity
  8
PRO0
  6
Continuous
 62
     2
100
AcDbLine
 10
146.3266989999999
 20
422.115508
 30
0.0
 11
202.092263
 21
422.115508
 31
0.0
  0
LINE
  5
2E8
330
70E
100
AcDbEntity
  8
PRO0
  6
Continuous
 62
     2
100
AcDbLine
 10
162.3266989999999
 20
422.615508
 30
0.0
 11
147.8266989999999
 21
422.615508
 31
0.0
  0
LINE
  5
2E9
330
70E
100
AcDbEntity
  8
PRO0
  6
Continuous
 62
     2
100
AcDbLine
 10
162.3266989999999
 20
422.615508
 30
0.0
 11
162.3266989999999
 21
422.115508
 31
0.0
  0
LINE
  5
2EA
330
70E
100
AcDbEntity
  8
PRO0
  6
Continuous
 62
     2
100
AcDbLine
 10
180.326699
 20
422.615508
 30
0.0
 11
180.326699
 21
422.115508
 31
0.0
  0
LINE
  5
2EB
330
70E
100
AcDbEntity
  8
PRO0
  6
Continuous
 62
     2
100
AcDbLine
 10
180.326699
 20
422.615508
 30
0.0
 11
195.826699
 21
422.615508
 31
0.0
  0
LINE
  5
2EC
330
70E
100
AcDbEntity
  8
PRO0
  6
Continuous
 62
     2
100
AcDbLine
 10
147.8266989999999
 20
422.615508
 30
0.0
 11
147.8266989999999
 21
422.115508
 31
0.0
  0
LINE
  5
2ED
330
70E
100
AcDbEntity
  8
PRO0
  6
Continuous
 62
     2
100
AcDbLine
 10
146.3266989999999
 20
421.115508
 30
0.0
 11
146.3266989999999
 21
422.115508
 31
0.0
  0
LINE
  5
2EE
330
70E
100
AcDbEntity
  8
PRO0
  6
Continuous
 62
     2
100
AcDbLine
 10
171.3266989999999
 20
423.815508
 30
0.0
 11
171.626699
 21
424.115508
 31
0.0
  0
LINE
  5
2EF
330
70E
100
AcDbEntity
  8
PRO0
  6
Continuous
 62
     2
100
AcDbLine
 10
137.8266989999999
 20
438.615508
 30
0.0
 11
137.8266989999999
 21
438.115508
 31
0.0
  0
LINE
  5
2F0
330
70E
100
AcDbEntity
  8
PRO0
  6
PLINE3
 62
     3
100
AcDbLine
 10
226.326699
 20
441.115508
 30
0.0
 11
226.326699
 21
361.115508
 31
0.0
  0
LINE
  5
2F1
330
70E
100
AcDbEntity
  8
PRO0
  6
Continuous
 62
     2
100
AcDbLine
 10
201.3266989999999
 20
421.115508
 30
0.0
 11
211.846468
 21
382.201058
 31
0.0
  0
LINE
  5
2F2
330
70E
100
AcDbEntity
  8
PRO0
  6
Continuous
 62
     2
100
AcDbLine
 10
212.811817
 20
382.4620209999999
 30
0.0
 11
202.092263
 21
422.115508
 31
0.0
  0
ARC
  5
2F3
330
70E
100
AcDbEntity
  8
PRO0
  6
Continuous
 62
     2
100
AcDbCircle
 10
226.326699
 20
386.115508
 30
0.0
 40
14.0
100
AcDbArc
 50
195.127232
 51
344.872768
  0
ARC
  5
2F4
330
70E
100
AcDbEntity
  8
PRO0
  6
Continuous
 62
     2
100
AcDbCircle
 10
226.326699
 20
386.115508
 30
0.0
 40
15.0
100
AcDbArc
 50
195.127232
 51
344.872768
  0
LINE
  5
2F5
330
70E
100
AcDbEntity
  8
PRO0
  6
Continuous
 62
     2
100
AcDbLine
 10
171.3266989999999
 20
423.815508
 30
0.0
 11
171.026699
 21
424.115508
 31
0.0
  0
LINE
  5
2F6
330
70E
100
AcDbEntity
  8
PRO0
  6
Continuous
 62
     2
100
AcDbLine
 10
166.9545639999999
 20
427.077007
 30
0.0
 11
166.826699
 21
425.615508
 31
0.0
  0
LINE
  5
2F7
330
70E
100
AcDbEntity
  8
PRO0
  6
Continuous
 62
     2
100
AcDbLine
 10
175.698834
 20
427.077007
 30
0.0
 11
175.8266989999999
 21
425.615508
 31
0.0
  0
ARC
  5
2F8
330
70E
100
AcDbEntity
  8
PRO0
  6
Continuous
 62
     2
100
AcDbCircle
 10
171.3266989999999
 20
416.915508
 30
0.0
 40
12.0
100
AcDbArc
 50
74.50603199999999
 51
105.4939679999999
  0
ARC
  5
2F9
330
70E
100
AcDbEntity
  8
PRO0
  6
Continuous
 62
     2
100
AcDbCircle
 10
168.548475
 20
426.937557
 30
0.0
 40
1.6
100
AcDbArc
 50
105.4939679999999
 51
175.0
  0
ARC
  5
2FA
330
70E
100
AcDbEntity
  8
PRO0
  6
Continuous
 62
     2
100
AcDbCircle
 10
174.1049229999999
 20
426.937557
 30
0.0
 40
1.6
100
AcDbArc
 50
5.0
 51
74.50603199999999
  0
LINE
  5
2FB
330
70E
100
AcDbEntity
  8
PRO0
  6
PLINE2
 62
     3
100
AcDbLine
 10
166.3266989999999
 20
421.115508
 30
0.0
 11
176.3266989999999
 21
421.115508
 31
0.0
  0
LINE
  5
2FC
330
70E
100
AcDbEntity
  8
PRO0
  6
Continuous
 62
     2
100
AcDbLine
 10
162.3266989999999
 20
425.615508
 30
0.0
 11
162.3266989999999
 21
424.115508
 31
0.0
  0
LINE
  5
2FD
330
70E
100
AcDbEntity
  8
PRO0
  6
Continuous
 62
     2
100
AcDbLine
 10
162.3266989999999
 20
425.615508
 30
0.0
 11
180.326699
 21
425.615508
 31
0.0
  0
LINE
  5
2FE
330
70E
100
AcDbEntity
  8
PRO0
  6
Continuous
 62
     2
100
AcDbLine
 10
180.326699
 20
425.615508
 30
0.0
 11
180.326699
 21
424.115508
 31
0.0
  0
LINE
  5
2FF
330
70E
100
AcDbEntity
  8
PRO0
  6
PLINE2
 62
     3
100
AcDbLine
 10
177.6453
 20
405.9731089999999
 30
0.0
 11
178.6376549999999
 21
412.776731
 31
0.0
  0
ARC
  5
300
330
70E
100
AcDbEntity
  8
PRO0
  6
PLINE2
 62
     3
100
AcDbCircle
 10
178.2418429999999
 20
412.8344629999999
 30
0.0
 40
0.4
100
AcDbArc
 50
351.7015339999999
 51
81.86989799999999
  0
LINE
  5
301
330
70E
100
AcDbEntity
  8
PRO0
  6
PLINE2
 62
     3
100
AcDbLine
 10
178.298412
 20
413.230443
 30
0.0
 11
178.101587
 21
413.2585609999999
 31
0.0
  0
ARC
  5
302
330
70E
100
AcDbEntity
  8
PRO0
  6
PLINE2
 62
     3
100
AcDbCircle
 10
178.0450189999999
 20
412.8625809999999
 30
0.0
 40
0.4
100
AcDbArc
 50
81.86989799999999
 51
171.869898
  0
LINE
  5
303
330
70E
100
AcDbEntity
  8
PRO0
  6
PLINE2
 62
     3
100
AcDbLine
 10
177.649039
 20
412.91915
 30
0.0
 11
176.705607
 21
406.315129
 31
0.0
  0
LINE
  5
304
330
70E
100
AcDbEntity
  8
PRO0
  6
PLINE2
 62
     3
100
AcDbLine
 10
177.6453
 20
405.9731089999999
 30
0.0
 11
178.6376549999999
 21
412.776731
 31
0.0
  0
ARC
  5
305
330
70E
100
AcDbEntity
  8
PRO0
  6
PLINE2
 62
     3
100
AcDbCircle
 10
178.2418429999999
 20
412.8344629999999
 30
0.0
 40
0.4
100
AcDbArc
 50
351.7015339999999
 51
81.86989799999999
  0
LINE
  5
306
330
70E
100
AcDbEntity
  8
PRO0
  6
PLINE2
 62
     3
100
AcDbLine
 10
178.298412
 20
413.230443
 30
0.0
 11
178.101587
 21
413.2585609999999
 31
0.0
  0
ARC
  5
307
330
70E
100
AcDbEntity
  8
PRO0
  6
PLINE2
 62
     3
100
AcDbCircle
 10
178.0450189999999
 20
412.8625809999999
 30
0.0
 40
0.4
100
AcDbArc
 50
81.86989799999999
 51
171.869898
  0
LINE
  5
308
330
70E
100
AcDbEntity
  8
PRO0
  6
PLINE2
 62
     3
100
AcDbLine
 10
177.649039
 20
412.91915
 30
0.0
 11
176.705607
 21
406.315129
 31
0.0
  0
LINE
  5
309
330
70E
100
AcDbEntity
  8
PRO0
  6
PLINE2
 62
     3
100
AcDbLine
 10
165.008098
 20
405.9731089999999
 30
0.0
 11
164.0157429999999
 21
412.776731
 31
0.0
  0
ARC
  5
30A
330
70E
100
AcDbEntity
  8
PRO0
  6
PLINE2
 62
     3
100
AcDbCircle
 10
164.4115549999999
 20
412.8344629999999
 30
0.0
 40
0.4
100
AcDbArc
 50
98.130102
 51
188.2984659999999
  0
LINE
  5
30B
330
70E
100
AcDbEntity
  8
PRO0
  6
PLINE2
 62
     3
100
AcDbLine
 10
164.354986
 20
413.230443
 30
0.0
 11
164.551811
 21
413.2585609999999
 31
0.0
  0
ARC
  5
30C
330
70E
100
AcDbEntity
  8
PRO0
  6
PLINE2
 62
     3
100
AcDbCircle
 10
164.60838
 20
412.8625809999999
 30
0.0
 40
0.4
100
AcDbArc
 50
8.130102
 51
98.130102
  0
LINE
  5
30D
330
70E
100
AcDbEntity
  8
PRO0
  6
PLINE2
 62
     3
100
AcDbLine
 10
165.004359
 20
412.91915
 30
0.0
 11
165.9477909999999
 21
406.315129
 31
0.0
  0
LINE
  5
30E
330
70E
100
AcDbEntity
  8
PRO0
  6
PLINE2
 62
     3
100
AcDbLine
 10
167.3266989999999
 20
409.115508
 30
0.0
 11
167.3266989999999
 21
413.115508
 31
0.0
  0
LINE
  5
30F
330
70E
100
AcDbEntity
  8
PRO0
  6
PLINE2
 62
     3
100
AcDbLine
 10
169.3089559999999
 20
384.155252
 30
0.0
 11
165.8137529999999
 21
384.338427
 31
0.0
  0
LINE
  5
310
330
70E
100
AcDbEntity
  8
PRO0
  6
PLINE2
 62
     3
100
AcDbLine
 10
165.8137529999999
 20
384.338427
 30
0.0
 11
167.7063399999999
 21
382.2364959999999
 31
0.0
  0
LINE
  5
311
330
70E
100
AcDbEntity
  8
PRO0
  6
PLINE2
 62
     3
100
AcDbLine
 10
167.7063399999999
 20
382.2364959999999
 30
0.0
 11
169.204284
 21
382.1579919999999
 31
0.0
  0
LINE
  5
312
330
70E
100
AcDbEntity
  8
PRO0
  6
PLINE2
 62
     3
100
AcDbLine
 10
169.204284
 20
382.1579919999999
 30
0.0
 11
170.826699
 21
413.115508
 31
0.0
  0
LINE
  5
313
330
70E
100
AcDbEntity
  8
PRO0
  6
PLINE2
 62
     3
100
AcDbLine
 10
175.326699
 20
409.115508
 30
0.0
 11
175.326699
 21
413.115508
 31
0.0
  0
LINE
  5
314
330
70E
100
AcDbEntity
  8
PRO0
  6
PLINE2
 62
     3
100
AcDbLine
 10
173.3444419999999
 20
384.155252
 30
0.0
 11
176.839645
 21
384.338427
 31
0.0
  0
LINE
  5
315
330
70E
100
AcDbEntity
  8
PRO0
  6
PLINE2
 62
     3
100
AcDbLine
 10
176.839645
 20
384.338427
 30
0.0
 11
174.947058
 21
382.2364959999999
 31
0.0
  0
LINE
  5
316
330
70E
100
AcDbEntity
  8
PRO0
  6
PLINE2
 62
     3
100
AcDbLine
 10
174.947058
 20
382.2364959999999
 30
0.0
 11
173.4491139999999
 21
382.1579919999999
 31
0.0
  0
LINE
  5
317
330
70E
100
AcDbEntity
  8
PRO0
  6
PLINE2
 62
     3
100
AcDbLine
 10
173.4491139999999
 20
382.1579919999999
 30
0.0
 11
171.826699
 21
413.115508
 31
0.0
  0
LINE
  5
318
330
70E
100
AcDbEntity
  8
PRO0
  6
PLINE2
 62
     3
100
AcDbLine
 10
167.767642
 20
401.315129
 30
0.0
 11
165.9477909999999
 21
406.315129
 31
0.0
  0
LINE
  5
319
330
70E
100
AcDbEntity
  8
PRO0
  6
PLINE2
 62
     3
100
AcDbLine
 10
166.7034639999999
 20
401.315129
 30
0.0
 11
165.008098
 21
405.9731089999999
 31
0.0
  0
LINE
  5
31A
330
70E
100
AcDbEntity
  8
PRO0
  6
PLINE2
 62
     3
100
AcDbLine
 10
174.885756
 20
401.315129
 30
0.0
 11
176.705607
 21
406.315129
 31
0.0
  0
LINE
  5
31B
330
70E
100
AcDbEntity
  8
PRO0
  6
PLINE2
 62
     3
100
AcDbLine
 10
175.949934
 20
401.315129
 30
0.0
 11
177.6453
 21
405.9731089999999
 31
0.0
  0
LINE
  5
31C
330
70E
100
AcDbEntity
  8
PRO0
  6
PLINE2
 62
     3
100
AcDbLine
 10
167.3266989999999
 20
409.115508
 30
0.0
 11
169.0670749999999
 21
408.200864
 31
0.0
  0
LINE
  5
31D
330
70E
100
AcDbEntity
  8
PRO0
  6
PLINE2
 62
     3
100
AcDbLine
 10
169.457255
 20
386.984952
 30
0.0
 11
171.3266989999999
 21
385.115508
 31
0.0
  0
LINE
  5
31E
330
70E
100
AcDbEntity
  8
PRO0
  6
PLINE2
 62
     3
100
AcDbLine
 10
169.0670749999999
 20
408.200864
 30
0.0
 11
168.962403
 21
406.2036049999999
 31
0.0
  0
LINE
  5
31F
330
70E
100
AcDbEntity
  8
PRO0
  6
PLINE2
 62
     3
100
AcDbLine
 10
168.962403
 20
406.2036049999999
 30
0.0
 11
166.9651439999999
 21
406.3082769999999
 31
0.0
  0
LINE
  5
320
330
70E
100
AcDbEntity
  8
PRO0
  6
PLINE2
 62
     3
100
AcDbLine
 10
166.9651439999999
 20
406.3082769999999
 30
0.0
 11
166.8604719999999
 21
404.311018
 31
0.0
  0
LINE
  5
321
330
70E
100
AcDbEntity
  8
PRO0
  6
PLINE2
 62
     3
100
AcDbLine
 10
166.8604719999999
 20
404.311018
 30
0.0
 11
168.805395
 21
403.2077169999999
 31
0.0
  0
LINE
  5
322
330
70E
100
AcDbEntity
  8
PRO0
  6
PLINE2
 62
     3
100
AcDbLine
 10
168.805395
 20
403.2077169999999
 30
0.0
 11
168.700723
 21
401.2104579999999
 31
0.0
  0
LINE
  5
323
330
70E
100
AcDbEntity
  8
PRO0
  6
PLINE2
 62
     3
100
AcDbLine
 10
168.700723
 20
401.2104579999999
 30
0.0
 11
166.7034639999999
 21
401.315129
 31
0.0
  0
LINE
  5
324
330
70E
100
AcDbEntity
  8
PRO0
  6
PLINE2
 62
     3
100
AcDbLine
 10
166.7034639999999
 20
401.315129
 30
0.0
 11
166.598792
 21
399.31787
 31
0.0
  0
LINE
  5
325
330
70E
100
AcDbEntity
  8
PRO0
  6
PLINE2
 62
     3
100
AcDbLine
 10
166.598792
 20
399.31787
 30
0.0
 11
168.543715
 21
398.2145689999999
 31
0.0
  0
LINE
  5
326
330
70E
100
AcDbEntity
  8
PRO0
  6
PLINE2
 62
     3
100
AcDbLine
 10
168.543715
 20
398.2145689999999
 30
0.0
 11
168.439043
 21
396.21731
 31
0.0
  0
LINE
  5
327
330
70E
100
AcDbEntity
  8
PRO0
  6
PLINE2
 62
     3
100
AcDbLine
 10
168.439043
 20
396.21731
 30
0.0
 11
166.441784
 21
396.3219819999999
 31
0.0
  0
LINE
  5
328
330
70E
100
AcDbEntity
  8
PRO0
  6
PLINE2
 62
     3
100
AcDbLine
 10
166.441784
 20
396.3219819999999
 30
0.0
 11
166.337112
 21
394.324723
 31
0.0
  0
LINE
  5
329
330
70E
100
AcDbEntity
  8
PRO0
  6
PLINE2
 62
     3
100
AcDbLine
 10
166.337112
 20
394.324723
 30
0.0
 11
168.282036
 21
393.221421
 31
0.0
  0
LINE
  5
32A
330
70E
100
AcDbEntity
  8
PRO0
  6
PLINE2
 62
     3
100
AcDbLine
 10
168.282036
 20
393.221421
 30
0.0
 11
168.1773639999999
 21
391.224162
 31
0.0
  0
LINE
  5
32B
330
70E
100
AcDbEntity
  8
PRO0
  6
PLINE2
 62
     3
100
AcDbLine
 10
168.1773639999999
 20
391.224162
 30
0.0
 11
166.180105
 21
391.3288339999999
 31
0.0
  0
LINE
  5
32C
330
70E
100
AcDbEntity
  8
PRO0
  6
PLINE2
 62
     3
100
AcDbLine
 10
166.180105
 20
391.3288339999999
 30
0.0
 11
166.075433
 21
389.3315749999999
 31
0.0
  0
LINE
  5
32D
330
70E
100
AcDbEntity
  8
PRO0
  6
PLINE2
 62
     3
100
AcDbLine
 10
166.075433
 20
389.3315749999999
 30
0.0
 11
168.0203559999999
 21
388.2282739999999
 31
0.0
  0
LINE
  5
32E
330
70E
100
AcDbEntity
  8
PRO0
  6
PLINE2
 62
     3
100
AcDbLine
 10
168.0203559999999
 20
388.2282739999999
 30
0.0
 11
167.915684
 21
386.231015
 31
0.0
  0
LINE
  5
32F
330
70E
100
AcDbEntity
  8
PRO0
  6
PLINE2
 62
     3
100
AcDbLine
 10
167.915684
 20
386.231015
 30
0.0
 11
165.918425
 21
386.335686
 31
0.0
  0
LINE
  5
330
330
70E
100
AcDbEntity
  8
PRO0
  6
PLINE2
 62
     3
100
AcDbLine
 10
165.918425
 20
386.335686
 30
0.0
 11
165.8137529999999
 21
384.338427
 31
0.0
  0
LINE
  5
331
330
70E
100
AcDbEntity
  8
PRO0
  6
PLINE2
 62
     3
100
AcDbLine
 10
175.326699
 20
409.115508
 30
0.0
 11
173.5863229999999
 21
408.200864
 31
0.0
  0
LINE
  5
332
330
70E
100
AcDbEntity
  8
PRO0
  6
PLINE2
 62
     3
100
AcDbLine
 10
173.5863229999999
 20
408.200864
 30
0.0
 11
173.6909949999999
 21
406.2036049999999
 31
0.0
  0
LINE
  5
333
330
70E
100
AcDbEntity
  8
PRO0
  6
PLINE2
 62
     3
100
AcDbLine
 10
173.6909949999999
 20
406.2036049999999
 30
0.0
 11
175.688254
 21
406.3082769999999
 31
0.0
  0
LINE
  5
334
330
70E
100
AcDbEntity
  8
PRO0
  6
PLINE2
 62
     3
100
AcDbLine
 10
175.688254
 20
406.3082769999999
 30
0.0
 11
175.792926
 21
404.311018
 31
0.0
  0
LINE
  5
335
330
70E
100
AcDbEntity
  8
PRO0
  6
PLINE2
 62
     3
100
AcDbLine
 10
175.792926
 20
404.311018
 30
0.0
 11
173.848003
 21
403.2077169999999
 31
0.0
  0
LINE
  5
336
330
70E
100
AcDbEntity
  8
PRO0
  6
PLINE2
 62
     3
100
AcDbLine
 10
173.848003
 20
403.2077169999999
 30
0.0
 11
173.952675
 21
401.2104579999999
 31
0.0
  0
LINE
  5
337
330
70E
100
AcDbEntity
  8
PRO0
  6
PLINE2
 62
     3
100
AcDbLine
 10
173.952675
 20
401.2104579999999
 30
0.0
 11
175.949934
 21
401.315129
 31
0.0
  0
LINE
  5
338
330
70E
100
AcDbEntity
  8
PRO0
  6
PLINE2
 62
     3
100
AcDbLine
 10
175.949934
 20
401.315129
 30
0.0
 11
176.054606
 21
399.31787
 31
0.0
  0
LINE
  5
339
330
70E
100
AcDbEntity
  8
PRO0
  6
PLINE2
 62
     3
100
AcDbLine
 10
176.054606
 20
399.31787
 30
0.0
 11
174.109683
 21
398.2145689999999
 31
0.0
  0
LINE
  5
33A
330
70E
100
AcDbEntity
  8
PRO0
  6
PLINE2
 62
     3
100
AcDbLine
 10
174.109683
 20
398.2145689999999
 30
0.0
 11
174.214355
 21
396.21731
 31
0.0
  0
LINE
  5
33B
330
70E
100
AcDbEntity
  8
PRO0
  6
PLINE2
 62
     3
100
AcDbLine
 10
174.214355
 20
396.21731
 30
0.0
 11
176.211614
 21
396.3219819999999
 31
0.0
  0
LINE
  5
33C
330
70E
100
AcDbEntity
  8
PRO0
  6
PLINE2
 62
     3
100
AcDbLine
 10
176.211614
 20
396.3219819999999
 30
0.0
 11
176.316286
 21
394.324723
 31
0.0
  0
LINE
  5
33D
330
70E
100
AcDbEntity
  8
PRO0
  6
PLINE2
 62
     3
100
AcDbLine
 10
176.316286
 20
394.324723
 30
0.0
 11
174.371362
 21
393.221421
 31
0.0
  0
LINE
  5
33E
330
70E
100
AcDbEntity
  8
PRO0
  6
PLINE2
 62
     3
100
AcDbLine
 10
174.371362
 20
393.221421
 30
0.0
 11
174.476034
 21
391.224162
 31
0.0
  0
LINE
  5
33F
330
70E
100
AcDbEntity
  8
PRO0
  6
PLINE2
 62
     3
100
AcDbLine
 10
174.476034
 20
391.224162
 30
0.0
 11
176.4732929999999
 21
391.3288339999999
 31
0.0
  0
LINE
  5
340
330
70E
100
AcDbEntity
  8
PRO0
  6
PLINE2
 62
     3
100
AcDbLine
 10
176.4732929999999
 20
391.3288339999999
 30
0.0
 11
176.5779649999999
 21
389.3315749999999
 31
0.0
  0
LINE
  5
341
330
70E
100
AcDbEntity
  8
PRO0
  6
PLINE2
 62
     3
100
AcDbLine
 10
176.5779649999999
 20
389.3315749999999
 30
0.0
 11
174.6330419999999
 21
388.2282739999999
 31
0.0
  0
LINE
  5
342
330
70E
100
AcDbEntity
  8
PRO0
  6
PLINE2
 62
     3
100
AcDbLine
 10
174.6330419999999
 20
388.2282739999999
 30
0.0
 11
174.7377139999999
 21
386.231015
 31
0.0
  0
LINE
  5
343
330
70E
100
AcDbEntity
  8
PRO0
  6
PLINE2
 62
     3
100
AcDbLine
 10
174.7377139999999
 20
386.231015
 30
0.0
 11
176.734973
 21
386.335686
 31
0.0
  0
LINE
  5
344
330
70E
100
AcDbEntity
  8
PRO0
  6
PLINE2
 62
     3
100
AcDbLine
 10
176.734973
 20
386.335686
 30
0.0
 11
176.839645
 21
384.338427
 31
0.0
  0
LINE
  5
345
330
70E
100
AcDbEntity
  8
PRO0
  6
PLINE2
 62
     3
100
AcDbLine
 10
170.826699
 20
413.115508
 30
0.0
 11
171.3266989999999
 21
413.115508
 31
0.0
  0
LINE
  5
346
330
70E
100
AcDbEntity
  8
PRO0
  6
PLINE2
 62
     3
100
AcDbLine
 10
171.826699
 20
413.115508
 30
0.0
 11
171.3266989999999
 21
413.115508
 31
0.0
  0
LINE
  5
347
330
70E
100
AcDbEntity
  8
PRO0
  6
Continuous
 62
     2
100
AcDbLine
 10
162.3266989999999
 20
424.115508
 30
0.0
 11
180.326699
 21
424.115508
 31
0.0
  0
LINE
  5
348
330
70E
100
AcDbEntity
  8
PRO0
  6
PLINE2
 62
     3
100
AcDbLine
 10
167.3266989999999
 20
421.115508
 30
0.0
 11
167.3266989999999
 21
413.115508
 31
0.0
  0
LINE
  5
349
330
70E
100
AcDbEntity
  8
PRO0
  6
PLINE2
 62
     3
100
AcDbLine
 10
166.3266989999999
 20
421.115508
 30
0.0
 11
167.3266989999999
 21
416.115508
 31
0.0
  0
LINE
  5
34A
330
70E
100
AcDbEntity
  8
PRO0
  6
PLINE2
 62
     3
100
AcDbLine
 10
170.3266989999999
 20
421.115508
 30
0.0
 11
171.3266989999999
 21
416.115508
 31
0.0
  0
LINE
  5
34B
330
70E
100
AcDbEntity
  8
PRO0
  6
PLINE2
 62
     3
100
AcDbLine
 10
172.3266989999999
 20
421.115508
 30
0.0
 11
171.3266989999999
 21
416.115508
 31
0.0
  0
LINE
  5
34C
330
70E
100
AcDbEntity
  8
PRO0
  6
PLINE2
 62
     3
100
AcDbLine
 10
171.3266989999999
 20
416.115508
 30
0.0
 11
171.3266989999999
 21
421.115508
 31
0.0
  0
LINE
  5
34D
330
70E
100
AcDbEntity
  8
PRO0
  6
PLINE2
 62
     3
100
AcDbLine
 10
175.326699
 20
421.115508
 30
0.0
 11
175.326699
 21
413.115508
 31
0.0
  0
LINE
  5
34E
330
70E
100
AcDbEntity
  8
PRO0
  6
PLINE2
 62
     3
100
AcDbLine
 10
176.3266989999999
 20
421.115508
 30
0.0
 11
175.326699
 21
416.115508
 31
0.0
  0
LINE
  5
34F
330
70E
100
AcDbEntity
  8
PRO0
  6
PLINE3
 62
     3
100
AcDbLine
 10
171.3266989999999
 20
376.6039249999999
 30
0.0
 11
171.3266989999999
 21
433.131013
 31
0.0
  0
LINE
  5
350
330
70E
100
AcDbEntity
  8
PRO0
  6
PLINE2
 62
     3
100
AcDbLine
 10
173.196143
 20
386.984952
 30
0.0
 11
171.3266989999999
 21
385.115508
 31
0.0
  0
ARC
  5
351
330
70E
100
AcDbEntity
  8
PRO0
  6
Continuous
 62
     2
100
AcDbCircle
 10
152.3266989999999
 20
440.2321749999999
 30
0.0
 40
6.083333
100
AcDbArc
 50
53.831358
 51
126.1686419999999
  0
ARC
  5
352
330
70E
100
AcDbEntity
  8
PRO0
  6
Continuous
 62
     2
100
AcDbCircle
 10
155.326699
 20
444.335865
 30
0.0
 40
1.0
100
AcDbArc
 50
0.0
 51
53.831358
  0
ARC
  5
353
330
70E
100
AcDbEntity
  8
PRO0
  6
Continuous
 62
     2
100
AcDbCircle
 10
149.3266989999999
 20
444.335865
 30
0.0
 40
1.0
100
AcDbArc
 50
126.1686419999999
 51
180.0
  0
LINE
  5
354
330
70E
100
AcDbEntity
  8
PRO0
  6
Continuous
 62
     2
100
AcDbLine
 10
146.3266989999999
 20
442.565508
 30
0.0
 11
146.3266989999999
 21
441.815508
 31
0.0
  0
ARC
  5
355
330
70E
100
AcDbEntity
  8
PRO0
  6
Continuous
 62
     2
100
AcDbCircle
 10
148.0284499999999
 20
441.315537
 30
0.0
 40
2.0
100
AcDbArc
 50
89.999801
 51
125.0
  0
LINE
  5
356
330
70E
100
AcDbEntity
  8
PRO0
  6
Continuous
 62
     2
100
AcDbLine
 10
146.3266989999999
 20
442.565508
 30
0.0
 11
146.8812969999999
 21
442.953841
 31
0.0
  0
LINE
  5
357
330
70E
100
AcDbEntity
  8
PRO0
  6
Continuous
 62
     2
100
AcDbLine
 10
146.3266989999999
 20
442.565508
 30
0.0
 11
158.326699
 21
442.565508
 31
0.0
  0
LINE
  5
358
330
70E
100
AcDbEntity
  8
PRO0
  6
Continuous
 62
     2
100
AcDbLine
 10
146.3266989999999
 20
441.815508
 30
0.0
 11
158.326699
 21
441.815508
 31
0.0
  0
LINE
  5
359
330
70E
100
AcDbEntity
  8
PRO0
  6
Continuous
 62
     2
100
AcDbLine
 10
158.326699
 20
442.565508
 30
0.0
 11
158.326699
 21
441.815508
 31
0.0
  0
LINE
  5
35A
330
70E
100
AcDbEntity
  8
PRO0
  6
Continuous
 62
     2
100
AcDbLine
 10
147.3266989999999
 20
441.815508
 30
0.0
 11
147.3266989999999
 21
440.815508
 31
0.0
  0
LINE
  5
35B
330
70E
100
AcDbEntity
  8
PRO0
  6
Continuous
 62
     2
100
AcDbLine
 10
147.3266989999999
 20
440.815508
 30
0.0
 11
157.326699
 21
440.815508
 31
0.0
  0
LINE
  5
35C
330
70E
100
AcDbEntity
  8
PRO0
  6
Continuous
 62
     2
100
AcDbLine
 10
157.326699
 20
441.815508
 30
0.0
 11
157.326699
 21
440.815508
 31
0.0
  0
LINE
  5
35D
330
70E
100
AcDbEntity
  8
PRO0
  6
Continuous
 62
     3
100
AcDbLine
 10
150.4480189999999
 20
440.815508
 30
0.0
 11
151.448019
 21
441.815508
 31
0.0
  0
LINE
  5
35E
330
70E
100
AcDbEntity
  8
PRO0
  6
Continuous
 62
     3
100
AcDbLine
 10
152.5693399999999
 20
440.815508
 30
0.0
 11
153.5693399999999
 21
441.815508
 31
0.0
  0
LINE
  5
35F
330
70E
100
AcDbEntity
  8
PRO0
  6
Continuous
 62
     3
100
AcDbLine
 10
154.6906599999999
 20
440.815508
 30
0.0
 11
155.69066
 21
441.815508
 31
0.0
  0
LINE
  5
360
330
70E
100
AcDbEntity
  8
PRO0
  6
Continuous
 62
     3
100
AcDbLine
 10
156.81198
 20
440.815508
 30
0.0
 11
157.326699
 21
441.3302269999999
 31
0.0
  0
LINE
  5
361
330
70E
100
AcDbEntity
  8
PRO0
  6
Continuous
 62
     3
100
AcDbLine
 10
148.3266989999999
 20
440.815508
 30
0.0
 11
149.3266989999999
 21
441.815508
 31
0.0
  0
LINE
  5
362
330
70E
100
AcDbEntity
  8
PRO0
  6
Continuous
 62
     3
100
AcDbLine
 10
152.3266989999999
 20
433.41434
 30
0.0
 11
153.9266989999999
 21
433.4613199999999
 31
0.0
  0
LINE
  5
363
330
70E
100
AcDbEntity
  8
PRO0
  6
Continuous
 62
     3
100
AcDbLine
 10
152.3266989999999
 20
433.41434
 30
0.0
 11
153.9266989999999
 21
434.3081009999999
 31
0.0
  0
LINE
  5
364
330
70E
100
AcDbEntity
  8
PRO0
  6
Continuous
 62
     3
100
AcDbLine
 10
150.7266989999999
 20
436.283542
 30
0.0
 11
150.7266989999999
 21
435.248841
 31
0.0
  0
LINE
  5
365
330
70E
100
AcDbEntity
  8
PRO0
  6
Continuous
 62
     3
100
AcDbLine
 10
150.7266989999999
 20
434.402061
 30
0.0
 11
150.7266989999999
 21
428.239268
 31
0.0
  0
LINE
  5
366
330
70E
100
AcDbEntity
  8
PRO0
  6
Continuous
 62
     3
100
AcDbLine
 10
153.9266989999999
 20
437.224283
 30
0.0
 11
153.9266989999999
 21
436.1895819999999
 31
0.0
  0
LINE
  5
367
330
70E
100
AcDbEntity
  8
PRO0
  6
Continuous
 62
     3
100
AcDbLine
 10
153.9266989999999
 20
435.3428019999999
 30
0.0
 11
153.9266989999999
 21
434.3081009999999
 31
0.0
  0
LINE
  5
368
330
70E
100
AcDbEntity
  8
PRO0
  6
Continuous
 62
     3
100
AcDbLine
 10
153.9266989999999
 20
433.4613199999999
 30
0.0
 11
153.9266989999999
 21
428.239268
 31
0.0
  0
LINE
  5
369
330
70E
100
AcDbEntity
  8
PRO0
  6
Continuous
 62
     3
100
AcDbLine
 10
150.7266989999999
 20
438.1650239999999
 30
0.0
 11
150.7266989999999
 21
437.130323
 31
0.0
  0
LINE
  5
36A
330
70E
100
AcDbEntity
  8
PRO0
  6
Continuous
 62
     3
100
AcDbLine
 10
153.9266989999999
 20
438.071064
 30
0.0
 11
153.9266989999999
 21
439.105765
 31
0.0
  0
LINE
  5
36B
330
70E
100
AcDbEntity
  8
PRO0
  6
Continuous
 62
     3
100
AcDbLine
 10
150.7266989999999
 20
436.283542
 30
0.0
 11
153.9266989999999
 21
437.224283
 31
0.0
  0
LINE
  5
36C
330
70E
100
AcDbEntity
  8
PRO0
  6
Continuous
 62
     3
100
AcDbLine
 10
150.7266989999999
 20
437.130323
 30
0.0
 11
153.9266989999999
 21
438.071064
 31
0.0
  0
LINE
  5
36D
330
70E
100
AcDbEntity
  8
PRO0
  6
Continuous
 62
     3
100
AcDbLine
 10
149.9933659999999
 20
436.7069329999999
 30
0.0
 11
154.660032
 21
437.647673
 31
0.0
  0
LINE
  5
36E
330
70E
100
AcDbEntity
  8
PRO0
  6
Continuous
 62
     3
100
AcDbLine
 10
149.9933659999999
 20
436.7069329999999
 30
0.0
 11
150.7266989999999
 21
436.283542
 31
0.0
  0
LINE
  5
36F
330
70E
100
AcDbEntity
  8
PRO0
  6
Continuous
 62
     3
100
AcDbLine
 10
149.9933659999999
 20
436.7069329999999
 30
0.0
 11
150.7266989999999
 21
437.130323
 31
0.0
  0
LINE
  5
370
330
70E
100
AcDbEntity
  8
PRO0
  6
Continuous
 62
     3
100
AcDbLine
 10
154.660032
 20
437.647673
 30
0.0
 11
153.9266989999999
 21
437.224283
 31
0.0
  0
LINE
  5
371
330
70E
100
AcDbEntity
  8
PRO0
  6
Continuous
 62
     3
100
AcDbLine
 10
153.9266989999999
 20
438.071064
 30
0.0
 11
154.660032
 21
437.647673
 31
0.0
  0
LINE
  5
372
330
70E
100
AcDbEntity
  8
PRO0
  6
Continuous
 62
     3
100
AcDbLine
 10
150.7266989999999
 20
440.046505
 30
0.0
 11
150.7266989999999
 21
439.0118039999999
 31
0.0
  0
LINE
  5
373
330
70E
100
AcDbEntity
  8
PRO0
  6
Continuous
 62
     3
100
AcDbLine
 10
153.9266989999999
 20
440.815508
 30
0.0
 11
153.9266989999999
 21
439.952545
 31
0.0
  0
LINE
  5
374
330
70E
100
AcDbEntity
  8
PRO0
  6
Continuous
 62
     3
100
AcDbLine
 10
150.7266989999999
 20
438.1650239999999
 30
0.0
 11
153.9266989999999
 21
439.105765
 31
0.0
  0
LINE
  5
375
330
70E
100
AcDbEntity
  8
PRO0
  6
Continuous
 62
     3
100
AcDbLine
 10
150.7266989999999
 20
439.0118039999999
 30
0.0
 11
153.9266989999999
 21
439.952545
 31
0.0
  0
LINE
  5
376
330
70E
100
AcDbEntity
  8
PRO0
  6
Continuous
 62
     3
100
AcDbLine
 10
149.9933659999999
 20
438.5884139999999
 30
0.0
 11
154.660032
 21
439.529155
 31
0.0
  0
LINE
  5
377
330
70E
100
AcDbEntity
  8
PRO0
  6
Continuous
 62
     3
100
AcDbLine
 10
149.9933659999999
 20
438.5884139999999
 30
0.0
 11
150.7266989999999
 21
438.1650239999999
 31
0.0
  0
LINE
  5
378
330
70E
100
AcDbEntity
  8
PRO0
  6
Continuous
 62
     3
100
AcDbLine
 10
149.9933659999999
 20
438.5884139999999
 30
0.0
 11
150.7266989999999
 21
439.0118039999999
 31
0.0
  0
LINE
  5
379
330
70E
100
AcDbEntity
  8
PRO0
  6
Continuous
 62
     3
100
AcDbLine
 10
154.660032
 20
439.529155
 30
0.0
 11
153.9266989999999
 21
439.105765
 31
0.0
  0
LINE
  5
37A
330
70E
100
AcDbEntity
  8
PRO0
  6
Continuous
 62
     3
100
AcDbLine
 10
153.9266989999999
 20
439.952545
 30
0.0
 11
154.660032
 21
439.529155
 31
0.0
  0
LINE
  5
37B
330
70E
100
AcDbEntity
  8
PRO0
  6
Continuous
 62
     3
100
AcDbLine
 10
153.3425189999999
 20
440.815508
 30
0.0
 11
150.7266989999999
 21
440.046505
 31
0.0
  0
LINE
  5
37C
330
70E
100
AcDbEntity
  8
PRO0
  6
Continuous
 62
     3
100
AcDbLine
 10
151.707821
 20
440.815508
 30
0.0
 11
149.9933659999999
 21
440.469896
 31
0.0
  0
LINE
  5
37D
330
70E
100
AcDbEntity
  8
PRO0
  6
Continuous
 62
     3
100
AcDbLine
 10
149.9933659999999
 20
440.469896
 30
0.0
 11
150.7266989999999
 21
440.046505
 31
0.0
  0
LINE
  5
37E
330
70E
100
AcDbEntity
  8
PRO0
  6
Continuous
 62
     3
100
AcDbLine
 10
150.5919839999999
 20
440.815508
 30
0.0
 11
149.9933659999999
 21
440.469896
 31
0.0
  0
LINE
  5
37F
330
70E
100
AcDbEntity
  8
PRO0
  6
Continuous
 62
     2
100
AcDbLine
 10
148.3266989999999
 20
444.335865
 30
0.0
 11
148.3266989999999
 21
443.315508
 31
0.0
  0
ARC
  5
380
330
70E
100
AcDbEntity
  8
PRO0
  6
Continuous
 62
     2
100
AcDbCircle
 10
156.6249909999999
 20
441.315508
 30
0.0
 40
2.0
100
AcDbArc
 50
55.0
 51
89.999801
  0
LINE
  5
381
330
70E
100
AcDbEntity
  8
PRO0
  6
Continuous
 62
     2
100
AcDbLine
 10
148.028456
 20
443.315537
 30
0.0
 11
156.624998
 21
443.315508
 31
0.0
  0
LINE
  5
382
330
70E
100
AcDbEntity
  8
PRO0
  6
Continuous
 62
     2
100
AcDbLine
 10
156.3266989999999
 20
444.335865
 30
0.0
 11
156.3266989999999
 21
443.315508
 31
0.0
  0
LINE
  5
383
330
70E
100
AcDbEntity
  8
PRO0
  6
PLINE3
 62
     3
100
AcDbLine
 10
152.3266989999999
 20
449.609375
 30
0.0
 11
152.3266989999999
 21
423.846422
 31
0.0
  0
LINE
  5
384
330
70E
100
AcDbEntity
  8
PRO0
  6
Continuous
 62
     3
100
AcDbLine
 10
152.3266989999999
 20
429.351749
 30
0.0
 11
152.3266989999999
 21
427.315508
 31
0.0
  0
LINE
  5
385
330
70E
100
AcDbEntity
  8
PRO0
  6
Continuous
 62
     3
100
AcDbLine
 10
153.9266989999999
 20
432.9155079999999
 30
0.0
 11
150.7267139999999
 21
432.9155079999999
 31
0.0
  0
LINE
  5
386
330
70E
100
AcDbEntity
  8
PRO0
  6
Continuous
 62
     3
100
AcDbLine
 10
152.3266989999999
 20
427.315508
 30
0.0
 11
150.7266999999999
 21
428.239268
 31
0.0
  0
LINE
  5
387
330
70E
100
AcDbEntity
  8
PRO0
  6
Continuous
 62
     3
100
AcDbLine
 10
152.3266989999999
 20
427.315508
 30
0.0
 11
153.9266989999999
 21
428.239268
 31
0.0
  0
ARC
  5
388
330
70E
100
AcDbEntity
  8
PRO0
  6
Continuous
 62
     3
100
AcDbCircle
 10
152.351757
 20
427.5508379999999
 30
0.0
 40
1.764847999999999
100
AcDbArc
 50
90.813543
 51
157.040875
  0
ARC
  5
389
330
70E
100
AcDbEntity
  8
PRO0
  6
Continuous
 62
     3
100
AcDbCircle
 10
158.359111
 20
428.789992
 30
0.0
 40
6.055258999999999
100
AcDbArc
 50
137.0538
 51
175.0212219999999
  0
LINE
  5
38A
330
70E
100
AcDbEntity
  8
PRO0
  6
Continuous
 62
     3
100
AcDbLine
 10
150.7266989999999
 20
434.402061
 30
0.0
 11
153.9266989999999
 21
435.3428019999999
 31
0.0
  0
LINE
  5
38B
330
70E
100
AcDbEntity
  8
PRO0
  6
Continuous
 62
     3
100
AcDbLine
 10
150.7266989999999
 20
435.248841
 30
0.0
 11
153.9266989999999
 21
436.1895819999999
 31
0.0
  0
LINE
  5
38C
330
70E
100
AcDbEntity
  8
PRO0
  6
Continuous
 62
     3
100
AcDbLine
 10
149.9933659999999
 20
434.825451
 30
0.0
 11
154.660032
 21
435.7661919999999
 31
0.0
  0
LINE
  5
38D
330
70E
100
AcDbEntity
  8
PRO0
  6
Continuous
 62
     3
100
AcDbLine
 10
149.9933659999999
 20
434.825451
 30
0.0
 11
150.7266989999999
 21
434.402061
 31
0.0
  0
LINE
  5
38E
330
70E
100
AcDbEntity
  8
PRO0
  6
Continuous
 62
     3
100
AcDbLine
 10
149.9933659999999
 20
434.825451
 30
0.0
 11
150.7266989999999
 21
435.248841
 31
0.0
  0
LINE
  5
38F
330
70E
100
AcDbEntity
  8
PRO0
  6
Continuous
 62
     3
100
AcDbLine
 10
154.660032
 20
435.7661919999999
 30
0.0
 11
153.9266989999999
 21
435.3428019999999
 31
0.0
  0
LINE
  5
390
330
70E
100
AcDbEntity
  8
PRO0
  6
Continuous
 62
     3
100
AcDbLine
 10
153.9266989999999
 20
436.1895819999999
 30
0.0
 11
154.660032
 21
435.7661919999999
 31
0.0
  0
LINE
  5
391
330
70E
100
AcDbEntity
  8
PRO0
  6
Continuous
 62
     3
100
AcDbLine
 10
152.3266989999999
 20
433.41434
 30
0.0
 11
154.660032
 21
433.8847099999999
 31
0.0
  0
LINE
  5
392
330
70E
100
AcDbEntity
  8
PRO0
  6
Continuous
 62
     3
100
AcDbLine
 10
154.660032
 20
433.8847099999999
 30
0.0
 11
153.9266989999999
 21
433.4613199999999
 31
0.0
  0
LINE
  5
393
330
70E
100
AcDbEntity
  8
PRO0
  6
Continuous
 62
     3
100
AcDbLine
 10
153.9266989999999
 20
434.3081009999999
 30
0.0
 11
154.660032
 21
433.8847099999999
 31
0.0
  0
LINE
  5
394
330
70E
100
AcDbEntity
  8
PRO0
  6
Continuous
 62
     2
100
AcDbLine
 10
158.326699
 20
442.565508
 30
0.0
 11
157.7721439999999
 21
442.953812
 31
0.0
  0
LINE
  5
395
330
70E
100
AcDbEntity
  8
PRO0
  6
PLINE2
 62
     3
100
AcDbLine
 10
163.8266989999999
 20
424.115508
 30
0.0
 11
163.8266989999999
 21
422.115508
 31
0.0
  0
LINE
  5
396
330
70E
100
AcDbEntity
  8
PRO0
  6
PLINE2
 62
     3
100
AcDbLine
 10
178.8266989999999
 20
424.115508
 30
0.0
 11
178.8266989999999
 21
422.115508
 31
0.0
  0
LINE
  5
397
330
70E
100
AcDbEntity
  8
PRO0
  6
Continuous
 62
     2
100
AcDbLine
 10
138.8266989999999
 20
439.615508
 30
0.0
 11
158.326699
 21
439.615508
 31
0.0
  0
LINE
  5
398
330
70E
100
AcDbEntity
  8
PRO0
  6
Continuous
 62
     2
100
AcDbLine
 10
136.3266989999999
 20
439.115508
 30
0.0
 11
136.3266989999999
 21
432.515508
 31
0.0
  0
ARC
  5
399
330
70E
100
AcDbEntity
  8
PRO0
  6
Continuous
 62
     2
100
AcDbCircle
 10
138.026699
 20
432.515508
 30
0.0
 40
1.7
100
AcDbArc
 50
180.0
 51
270.0
  0
LINE
  5
39A
330
70E
100
AcDbEntity
  8
PRO0
  6
Continuous
 62
     2
100
AcDbLine
 10
146.3266989999999
 20
430.815508
 30
0.0
 11
138.026699
 21
430.815508
 31
0.0
  0
LINE
  5
39B
330
70E
100
AcDbEntity
  8
PRO0
  6
Continuous
 62
     2
100
AcDbLine
 10
146.3266989999999
 20
432.015508
 30
0.0
 11
138.026699
 21
432.015508
 31
0.0
  0
ARC
  5
39C
330
70E
100
AcDbEntity
  8
PRO0
  6
Continuous
 62
     2
100
AcDbCircle
 10
138.026699
 20
439.115508
 30
0.0
 40
1.7
100
AcDbArc
 50
90.0
 51
180.0
  0
LINE
  5
39D
330
70E
100
AcDbEntity
  8
PRO0
  6
Continuous
 62
     2
100
AcDbLine
 10
138.026699
 20
440.815508
 30
0.0
 11
195.6266989999999
 21
440.815508
 31
0.0
  0
ARC
  5
39E
330
70E
100
AcDbEntity
  8
PRO0
  6
Continuous
 62
     2
100
AcDbCircle
 10
195.6266989999999
 20
439.115508
 30
0.0
 40
1.7
100
AcDbArc
 50
0.0
 51
90.0
  0
LINE
  5
39F
330
70E
100
AcDbEntity
  8
PRO0
  6
Continuous
 62
     2
100
AcDbLine
 10
197.3266989999999
 20
434.315508
 30
0.0
 11
197.3266989999999
 21
439.115508
 31
0.0
  0
ARC
  5
3A0
330
70E
100
AcDbEntity
  8
PRO0
  6
Continuous
 62
     2
100
AcDbCircle
 10
195.6266989999999
 20
439.115508
 30
0.0
 40
0.5
100
AcDbArc
 50
0.0
 51
90.0
  0
LINE
  5
3A1
330
70E
100
AcDbEntity
  8
PRO0
  6
Continuous
 62
     2
100
AcDbLine
 10
196.126699
 20
434.315508
 30
0.0
 11
196.126699
 21
439.115508
 31
0.0
  0
LINE
  5
3A2
330
70E
100
AcDbEntity
  8
PRO0
  6
Continuous
 62
     2
100
AcDbLine
 10
138.026699
 20
439.615508
 30
0.0
 11
195.6266989999999
 21
439.615508
 31
0.0
  0
ARC
  5
3A3
330
70E
100
AcDbEntity
  8
PRO0
  6
Continuous
 62
     2
100
AcDbCircle
 10
138.026699
 20
439.115508
 30
0.0
 40
0.5
100
AcDbArc
 50
90.0
 51
180.0
  0
ARC
  5
3A4
330
70E
100
AcDbEntity
  8
PRO0
  6
Continuous
 62
     2
100
AcDbCircle
 10
138.026699
 20
432.515508
 30
0.0
 40
0.5
100
AcDbArc
 50
180.0
 51
270.0
  0
LINE
  5
3A5
330
70E
100
AcDbEntity
  8
PRO0
  6
Continuous
 62
     2
100
AcDbLine
 10
137.526699
 20
439.115508
 30
0.0
 11
137.526699
 21
432.515508
 31
0.0
  0
LINE
  5
3A6
330
70E
100
AcDbEntity
  8
PRO0
  6
Continuous
 62
     2
100
AcDbLine
 10
144.3266989999999
 20
430.815508
 30
0.0
 11
144.3266989999999
 21
421.115508
 31
0.0
  0
LINE
  5
3A7
330
70E
100
AcDbEntity
  8
PRO0
  6
Continuous
 62
     2
100
AcDbLine
 10
144.3266989999999
 20
430.815508
 30
0.0
 11
146.3266989999999
 21
421.115508
 31
0.0
  0
ARC
  5
3A8
330
70E
100
AcDbEntity
  8
PRO0
  6
Continuous
 62
     2
100
AcDbCircle
 10
325.887949
 20
425.9655079999999
 30
0.0
 40
12.26125
100
AcDbArc
 50
156.6994009999999
 51
203.3005989999999
  0
LINE
  5
3A9
330
70E
100
AcDbEntity
  8
PRO0
  6
Continuous
 62
     2
100
AcDbLine
 10
277.8896379999999
 20
430.0893259999999
 30
0.0
 11
277.382496
 21
429.001757
 31
0.0
  0
LINE
  5
3AA
330
70E
100
AcDbEntity
  8
PRO0
  6
Continuous
 62
     2
100
AcDbLine
 10
277.382496
 20
429.001757
 30
0.0
 11
268.560529
 21
433.115508
 31
0.0
  0
LINE
  5
3AB
330
70E
100
AcDbEntity
  8
PRO0
  6
Continuous
 62
     2
100
AcDbLine
 10
277.8896379999999
 20
430.0893259999999
 30
0.0
 11
268.82656
 21
434.3155089999999
 31
0.0
  0
LINE
  5
3AC
330
70E
100
AcDbEntity
  8
PRO0
  6
Continuous
 62
     3
100
AcDbLine
 10
308.326699
 20
421.179469
 30
0.0
 11
313.6379529999999
 21
426.490723
 31
0.0
  0
LINE
  5
3AD
330
70E
100
AcDbEntity
  8
PRO0
  6
Continuous
 62
     3
100
AcDbLine
 10
310.3840579999999
 20
421.115508
 30
0.0
 11
313.720479
 21
424.451929
 31
0.0
  0
LINE
  5
3AE
330
70E
100
AcDbEntity
  8
PRO0
  6
Continuous
 62
     3
100
AcDbLine
 10
312.5053789999999
 20
421.115508
 30
0.0
 11
314.0739529999999
 21
422.6840829999999
 31
0.0
  0
LINE
  5
3AF
330
70E
100
AcDbEntity
  8
PRO0
  6
Continuous
 62
     3
100
AcDbLine
 10
308.326699
 20
423.3007889999999
 30
0.0
 11
314.002064
 21
428.976155
 31
0.0
  0
LINE
  5
3B0
330
70E
100
AcDbEntity
  8
PRO0
  6
Continuous
 62
     3
100
AcDbLine
 10
308.326699
 20
425.4221099999999
 30
0.0
 11
313.720097
 21
430.815508
 31
0.0
  0
LINE
  5
3B1
330
70E
100
AcDbEntity
  8
PRO0
  6
Continuous
 62
     3
100
AcDbLine
 10
308.326699
 20
427.5434299999999
 30
0.0
 11
311.5987769999999
 21
430.815508
 31
0.0
  0
LINE
  5
3B2
330
70E
100
AcDbEntity
  8
PRO0
  6
Continuous
 62
     3
100
AcDbLine
 10
308.326699
 20
429.66475
 30
0.0
 11
309.4774569999999
 21
430.815508
 31
0.0
  0
LINE
  5
3B3
330
70E
100
AcDbEntity
  8
PRO0
  6
Continuous
 62
     2
100
AcDbLine
 10
331.326699
 20
421.115508
 30
0.0
 11
251.326699
 21
421.115508
 31
0.0
  0
LINE
  5
3B4
330
70E
100
AcDbEntity
  8
PRO0
  6
Continuous
 62
     2
100
AcDbLine
 10
251.326699
 20
361.115508
 30
0.0
 11
251.326699
 21
421.115508
 31
0.0
  0
ARC
  5
3B5
330
70E
100
AcDbEntity
  8
PRO0
  6
Continuous
 62
     2
100
AcDbCircle
 10
256.076699
 20
432.365508
 30
0.0
 40
0.75
100
AcDbArc
 50
0.0
 51
180.0
  0
ARC
  5
3B6
330
70E
100
AcDbEntity
  8
PRO0
  6
Continuous
 62
     2
100
AcDbCircle
 10
255.826699
 20
422.615508
 30
0.0
 40
0.5
100
AcDbArc
 50
180.0
 51
270.0
  0
LINE
  5
3B7
330
70E
100
AcDbEntity
  8
PRO0
  6
Continuous
 62
     2
100
AcDbLine
 10
255.326699
 20
432.365508
 30
0.0
 11
255.326699
 21
422.615508
 31
0.0
  0
LINE
  5
3B8
330
70E
100
AcDbEntity
  8
PRO0
  6
Continuous
 62
     2
100
AcDbLine
 10
256.826699
 20
422.615508
 30
0.0
 11
256.826699
 21
422.115508
 31
0.0
  0
LINE
  5
3B9
330
70E
100
AcDbEntity
  8
PRO0
  6
Continuous
 62
     2
100
AcDbLine
 10
256.826699
 20
432.365508
 30
0.0
 11
256.826699
 21
424.615508
 31
0.0
  0
ARC
  5
3BA
330
70E
100
AcDbEntity
  8
PRO0
  6
Continuous
 62
     2
100
AcDbCircle
 10
313.826699
 20
438.615508
 30
0.0
 40
1.0
100
AcDbArc
 50
0.0
 51
90.0
  0
LINE
  5
3BB
330
70E
100
AcDbEntity
  8
PRO0
  6
Continuous
 62
     2
100
AcDbLine
 10
314.826699
 20
438.115508
 30
0.0
 11
314.826699
 21
438.615508
 31
0.0
  0
ARC
  5
3BC
330
70E
100
AcDbEntity
  8
PRO0
  6
Continuous
 62
     2
100
AcDbCircle
 10
306.826699
 20
437.615508
 30
0.0
 40
0.5
100
AcDbArc
 50
90.0
 51
180.0
  0
LINE
  5
3BD
330
70E
100
AcDbEntity
  8
PRO0
  6
Continuous
 62
     2
100
AcDbLine
 10
314.826699
 20
438.115508
 30
0.0
 11
306.826699
 21
438.115508
 31
0.0
  0
LINE
  5
3BE
330
70E
100
AcDbEntity
  8
PRO0
  6
Continuous
 62
     2
100
AcDbLine
 10
306.326699
 20
422.115508
 30
0.0
 11
306.326699
 21
437.615508
 31
0.0
  0
ARC
  5
3BF
330
70E
100
AcDbEntity
  8
PRO0
  6
Continuous
 62
     2
100
AcDbCircle
 10
304.026699
 20
437.115508
 30
0.0
 40
0.5
100
AcDbArc
 50
0.0
 51
90.0
  0
LINE
  5
3C0
330
70E
100
AcDbEntity
  8
PRO0
  6
Continuous
 62
     2
100
AcDbLine
 10
295.326699
 20
437.615508
 30
0.0
 11
304.026699
 21
437.615508
 31
0.0
  0
ARC
  5
3C1
330
70E
100
AcDbEntity
  8
PRO0
  6
Continuous
 62
     2
100
AcDbCircle
 10
295.326699
 20
438.615508
 30
0.0
 40
1.0
100
AcDbArc
 50
180.0
 51
270.0
  0
LINE
  5
3C2
330
70E
100
AcDbEntity
  8
PRO0
  6
Continuous
 62
     2
100
AcDbLine
 10
294.326699
 20
439.615508
 30
0.0
 11
294.326699
 21
438.615508
 31
0.0
  0
LINE
  5
3C3
330
70E
100
AcDbEntity
  8
PRO0
  6
Continuous
 62
     2
100
AcDbLine
 10
304.526699
 20
437.115508
 30
0.0
 11
304.526699
 21
424.615508
 31
0.0
  0
ARC
  5
3C4
330
70E
100
AcDbEntity
  8
PRO0
  6
Continuous
 62
     2
100
AcDbCircle
 10
304.026699
 20
424.615508
 30
0.0
 40
0.5
100
AcDbArc
 50
270.0
 51
0.0
  0
ARC
  5
3C5
330
70E
100
AcDbEntity
  8
PRO0
  6
Continuous
 62
     2
100
AcDbCircle
 10
257.326699
 20
424.615508
 30
0.0
 40
0.5
100
AcDbArc
 50
180.0
 51
270.0
  0
LINE
  5
3C6
330
70E
100
AcDbEntity
  8
PRO0
  6
Continuous
 62
     2
100
AcDbLine
 10
304.026699
 20
424.115508
 30
0.0
 11
257.326699
 21
424.115508
 31
0.0
  0
LINE
  5
3C7
330
70E
100
AcDbEntity
  8
PRO0
  6
Continuous
 62
     2
100
AcDbLine
 10
306.326699
 20
422.115508
 30
0.0
 11
250.561135
 21
422.115508
 31
0.0
  0
LINE
  5
3C8
330
70E
100
AcDbEntity
  8
PRO0
  6
Continuous
 62
     2
100
AcDbLine
 10
290.326699
 20
422.615508
 30
0.0
 11
304.826699
 21
422.615508
 31
0.0
  0
LINE
  5
3C9
330
70E
100
AcDbEntity
  8
PRO0
  6
Continuous
 62
     2
100
AcDbLine
 10
290.326699
 20
422.615508
 30
0.0
 11
290.326699
 21
422.115508
 31
0.0
  0
LINE
  5
3CA
330
70E
100
AcDbEntity
  8
PRO0
  6
Continuous
 62
     2
100
AcDbLine
 10
272.326699
 20
422.615508
 30
0.0
 11
272.326699
 21
422.115508
 31
0.0
  0
LINE
  5
3CB
330
70E
100
AcDbEntity
  8
PRO0
  6
Continuous
 62
     2
100
AcDbLine
 10
272.326699
 20
422.615508
 30
0.0
 11
256.826699
 21
422.615508
 31
0.0
  0
LINE
  5
3CC
330
70E
100
AcDbEntity
  8
PRO0
  6
Continuous
 62
     2
100
AcDbLine
 10
304.826699
 20
422.615508
 30
0.0
 11
304.826699
 21
422.115508
 31
0.0
  0
LINE
  5
3CD
330
70E
100
AcDbEntity
  8
PRO0
  6
Continuous
 62
     2
100
AcDbLine
 10
306.326699
 20
421.115508
 30
0.0
 11
306.326699
 21
422.115508
 31
0.0
  0
LINE
  5
3CE
330
70E
100
AcDbEntity
  8
PRO0
  6
Continuous
 62
     2
100
AcDbLine
 10
281.326699
 20
423.815508
 30
0.0
 11
281.026699
 21
424.115508
 31
0.0
  0
LINE
  5
3CF
330
70E
100
AcDbEntity
  8
PRO0
  6
Continuous
 62
     2
100
AcDbLine
 10
314.826699
 20
438.615508
 30
0.0
 11
314.826699
 21
438.115508
 31
0.0
  0
LINE
  5
3D0
330
70E
100
AcDbEntity
  8
PRO0
  6
Continuous
 62
     2
100
AcDbLine
 10
281.326699
 20
423.815508
 30
0.0
 11
281.626699
 21
424.115508
 31
0.0
  0
LINE
  5
3D1
330
70E
100
AcDbEntity
  8
PRO0
  6
Continuous
 62
     2
100
AcDbLine
 10
285.698834
 20
427.077007
 30
0.0
 11
285.826699
 21
425.615508
 31
0.0
  0
LINE
  5
3D2
330
70E
100
AcDbEntity
  8
PRO0
  6
Continuous
 62
     2
100
AcDbLine
 10
276.954564
 20
427.077007
 30
0.0
 11
276.826699
 21
425.615508
 31
0.0
  0
ARC
  5
3D3
330
70E
100
AcDbEntity
  8
PRO0
  6
Continuous
 62
     2
100
AcDbCircle
 10
281.326699
 20
416.915508
 30
0.0
 40
12.0
100
AcDbArc
 50
74.50603199999999
 51
105.4939679999999
  0
ARC
  5
3D4
330
70E
100
AcDbEntity
  8
PRO0
  6
Continuous
 62
     2
100
AcDbCircle
 10
284.1049229999999
 20
426.937557
 30
0.0
 40
1.6
100
AcDbArc
 50
5.0
 51
74.50603199999999
  0
ARC
  5
3D5
330
70E
100
AcDbEntity
  8
PRO0
  6
Continuous
 62
     2
100
AcDbCircle
 10
278.548475
 20
426.937557
 30
0.0
 40
1.6
100
AcDbArc
 50
105.4939679999999
 51
175.0
  0
LINE
  5
3D6
330
70E
100
AcDbEntity
  8
PRO0
  6
PLINE2
 62
     3
100
AcDbLine
 10
286.3266989999999
 20
421.115508
 30
0.0
 11
276.326699
 21
421.115508
 31
0.0
  0
LINE
  5
3D7
330
70E
100
AcDbEntity
  8
PRO0
  6
Continuous
 62
     2
100
AcDbLine
 10
290.326699
 20
425.615508
 30
0.0
 11
290.326699
 21
424.115508
 31
0.0
  0
LINE
  5
3D8
330
70E
100
AcDbEntity
  8
PRO0
  6
Continuous
 62
     2
100
AcDbLine
 10
290.326699
 20
425.615508
 30
0.0
 11
272.326699
 21
425.615508
 31
0.0
  0
LINE
  5
3D9
330
70E
100
AcDbEntity
  8
PRO0
  6
Continuous
 62
     2
100
AcDbLine
 10
272.326699
 20
425.615508
 30
0.0
 11
272.326699
 21
424.115508
 31
0.0
  0
LINE
  5
3DA
330
70E
100
AcDbEntity
  8
PRO0
  6
PLINE2
 62
     3
100
AcDbLine
 10
275.008098
 20
405.9731089999999
 30
0.0
 11
274.015743
 21
412.776731
 31
0.0
  0
ARC
  5
3DB
330
70E
100
AcDbEntity
  8
PRO0
  6
PLINE2
 62
     3
100
AcDbCircle
 10
274.4115549999999
 20
412.8344629999999
 30
0.0
 40
0.4
100
AcDbArc
 50
98.130102
 51
188.2984659999999
  0
LINE
  5
3DC
330
70E
100
AcDbEntity
  8
PRO0
  6
PLINE2
 62
     3
100
AcDbLine
 10
274.3549859999999
 20
413.230443
 30
0.0
 11
274.5518109999999
 21
413.2585609999999
 31
0.0
  0
ARC
  5
3DD
330
70E
100
AcDbEntity
  8
PRO0
  6
PLINE2
 62
     3
100
AcDbCircle
 10
274.6083799999999
 20
412.8625809999999
 30
0.0
 40
0.4
100
AcDbArc
 50
8.130102
 51
98.130102
  0
LINE
  5
3DE
330
70E
100
AcDbEntity
  8
PRO0
  6
PLINE2
 62
     3
100
AcDbLine
 10
275.0043589999999
 20
412.91915
 30
0.0
 11
275.947791
 21
406.315129
 31
0.0
  0
LINE
  5
3DF
330
70E
100
AcDbEntity
  8
PRO0
  6
PLINE2
 62
     3
100
AcDbLine
 10
275.008098
 20
405.9731089999999
 30
0.0
 11
274.015743
 21
412.776731
 31
0.0
  0
ARC
  5
3E0
330
70E
100
AcDbEntity
  8
PRO0
  6
PLINE2
 62
     3
100
AcDbCircle
 10
274.4115549999999
 20
412.8344629999999
 30
0.0
 40
0.4
100
AcDbArc
 50
98.130102
 51
188.2984659999999
  0
LINE
  5
3E1
330
70E
100
AcDbEntity
  8
PRO0
  6
PLINE2
 62
     3
100
AcDbLine
 10
274.3549859999999
 20
413.230443
 30
0.0
 11
274.5518109999999
 21
413.2585609999999
 31
0.0
  0
ARC
  5
3E2
330
70E
100
AcDbEntity
  8
PRO0
  6
PLINE2
 62
     3
100
AcDbCircle
 10
274.6083799999999
 20
412.8625809999999
 30
0.0
 40
0.4
100
AcDbArc
 50
8.130102
 51
98.130102
  0
LINE
  5
3E3
330
70E
100
AcDbEntity
  8
PRO0
  6
PLINE2
 62
     3
100
AcDbLine
 10
275.0043589999999
 20
412.91915
 30
0.0
 11
275.947791
 21
406.315129
 31
0.0
  0
LINE
  5
3E4
330
70E
100
AcDbEntity
  8
PRO0
  6
PLINE2
 62
     3
100
AcDbLine
 10
287.6453
 20
405.9731089999999
 30
0.0
 11
288.6376549999999
 21
412.776731
 31
0.0
  0
ARC
  5
3E5
330
70E
100
AcDbEntity
  8
PRO0
  6
PLINE2
 62
     3
100
AcDbCircle
 10
288.241843
 20
412.8344629999999
 30
0.0
 40
0.4
100
AcDbArc
 50
351.7015339999999
 51
81.86989799999999
  0
LINE
  5
3E6
330
70E
100
AcDbEntity
  8
PRO0
  6
PLINE2
 62
     3
100
AcDbLine
 10
288.2984119999999
 20
413.230443
 30
0.0
 11
288.101587
 21
413.2585609999999
 31
0.0
  0
ARC
  5
3E7
330
70E
100
AcDbEntity
  8
PRO0
  6
PLINE2
 62
     3
100
AcDbCircle
 10
288.0450189999999
 20
412.8625809999999
 30
0.0
 40
0.4
100
AcDbArc
 50
81.86989799999999
 51
171.869898
  0
LINE
  5
3E8
330
70E
100
AcDbEntity
  8
PRO0
  6
PLINE2
 62
     3
100
AcDbLine
 10
287.649039
 20
412.91915
 30
0.0
 11
286.7056069999999
 21
406.315129
 31
0.0
  0
LINE
  5
3E9
330
70E
100
AcDbEntity
  8
PRO0
  6
PLINE2
 62
     3
100
AcDbLine
 10
285.326699
 20
409.115508
 30
0.0
 11
285.326699
 21
413.115508
 31
0.0
  0
LINE
  5
3EA
330
70E
100
AcDbEntity
  8
PRO0
  6
PLINE2
 62
     3
100
AcDbLine
 10
283.344442
 20
384.155252
 30
0.0
 11
286.839645
 21
384.338427
 31
0.0
  0
LINE
  5
3EB
330
70E
100
AcDbEntity
  8
PRO0
  6
PLINE2
 62
     3
100
AcDbLine
 10
286.839645
 20
384.338427
 30
0.0
 11
284.947058
 21
382.2364959999999
 31
0.0
  0
LINE
  5
3EC
330
70E
100
AcDbEntity
  8
PRO0
  6
PLINE2
 62
     3
100
AcDbLine
 10
284.947058
 20
382.2364959999999
 30
0.0
 11
283.449114
 21
382.1579919999999
 31
0.0
  0
LINE
  5
3ED
330
70E
100
AcDbEntity
  8
PRO0
  6
PLINE2
 62
     3
100
AcDbLine
 10
283.449114
 20
382.1579919999999
 30
0.0
 11
281.826699
 21
413.115508
 31
0.0
  0
LINE
  5
3EE
330
70E
100
AcDbEntity
  8
PRO0
  6
PLINE2
 62
     3
100
AcDbLine
 10
277.326699
 20
409.115508
 30
0.0
 11
277.326699
 21
413.115508
 31
0.0
  0
LINE
  5
3EF
330
70E
100
AcDbEntity
  8
PRO0
  6
PLINE2
 62
     3
100
AcDbLine
 10
279.308956
 20
384.155252
 30
0.0
 11
275.8137529999999
 21
384.338427
 31
0.0
  0
LINE
  5
3F0
330
70E
100
AcDbEntity
  8
PRO0
  6
PLINE2
 62
     3
100
AcDbLine
 10
275.8137529999999
 20
384.338427
 30
0.0
 11
277.70634
 21
382.2364959999999
 31
0.0
  0
LINE
  5
3F1
330
70E
100
AcDbEntity
  8
PRO0
  6
PLINE2
 62
     3
100
AcDbLine
 10
277.70634
 20
382.2364959999999
 30
0.0
 11
279.2042839999999
 21
382.1579919999999
 31
0.0
  0
LINE
  5
3F2
330
70E
100
AcDbEntity
  8
PRO0
  6
PLINE2
 62
     3
100
AcDbLine
 10
279.2042839999999
 20
382.1579919999999
 30
0.0
 11
280.826699
 21
413.115508
 31
0.0
  0
LINE
  5
3F3
330
70E
100
AcDbEntity
  8
PRO0
  6
PLINE2
 62
     3
100
AcDbLine
 10
284.885756
 20
401.315129
 30
0.0
 11
286.7056069999999
 21
406.315129
 31
0.0
  0
LINE
  5
3F4
330
70E
100
AcDbEntity
  8
PRO0
  6
PLINE2
 62
     3
100
AcDbLine
 10
285.9499339999999
 20
401.315129
 30
0.0
 11
287.6453
 21
405.9731089999999
 31
0.0
  0
LINE
  5
3F5
330
70E
100
AcDbEntity
  8
PRO0
  6
PLINE2
 62
     3
100
AcDbLine
 10
277.7676419999999
 20
401.315129
 30
0.0
 11
275.947791
 21
406.315129
 31
0.0
  0
LINE
  5
3F6
330
70E
100
AcDbEntity
  8
PRO0
  6
PLINE2
 62
     3
100
AcDbLine
 10
276.7034639999999
 20
401.315129
 30
0.0
 11
275.008098
 21
405.9731089999999
 31
0.0
  0
LINE
  5
3F7
330
70E
100
AcDbEntity
  8
PRO0
  6
PLINE2
 62
     3
100
AcDbLine
 10
285.326699
 20
409.115508
 30
0.0
 11
283.586323
 21
408.200864
 31
0.0
  0
LINE
  5
3F8
330
70E
100
AcDbEntity
  8
PRO0
  6
PLINE2
 62
     3
100
AcDbLine
 10
283.196143
 20
386.984952
 30
0.0
 11
281.326699
 21
385.115508
 31
0.0
  0
LINE
  5
3F9
330
70E
100
AcDbEntity
  8
PRO0
  6
PLINE2
 62
     3
100
AcDbLine
 10
283.586323
 20
408.200864
 30
0.0
 11
283.690995
 21
406.2036049999999
 31
0.0
  0
LINE
  5
3FA
330
70E
100
AcDbEntity
  8
PRO0
  6
PLINE2
 62
     3
100
AcDbLine
 10
283.690995
 20
406.2036049999999
 30
0.0
 11
285.688254
 21
406.3082769999999
 31
0.0
  0
LINE
  5
3FB
330
70E
100
AcDbEntity
  8
PRO0
  6
PLINE2
 62
     3
100
AcDbLine
 10
285.688254
 20
406.3082769999999
 30
0.0
 11
285.7929259999999
 21
404.311018
 31
0.0
  0
LINE
  5
3FC
330
70E
100
AcDbEntity
  8
PRO0
  6
PLINE2
 62
     3
100
AcDbLine
 10
285.7929259999999
 20
404.311018
 30
0.0
 11
283.8480029999999
 21
403.2077169999999
 31
0.0
  0
LINE
  5
3FD
330
70E
100
AcDbEntity
  8
PRO0
  6
PLINE2
 62
     3
100
AcDbLine
 10
283.8480029999999
 20
403.2077169999999
 30
0.0
 11
283.952675
 21
401.2104579999999
 31
0.0
  0
LINE
  5
3FE
330
70E
100
AcDbEntity
  8
PRO0
  6
PLINE2
 62
     3
100
AcDbLine
 10
283.952675
 20
401.2104579999999
 30
0.0
 11
285.9499339999999
 21
401.315129
 31
0.0
  0
LINE
  5
3FF
330
70E
100
AcDbEntity
  8
PRO0
  6
PLINE2
 62
     3
100
AcDbLine
 10
285.9499339999999
 20
401.315129
 30
0.0
 11
286.0546059999999
 21
399.31787
 31
0.0
  0
LINE
  5
400
330
70E
100
AcDbEntity
  8
PRO0
  6
PLINE2
 62
     3
100
AcDbLine
 10
286.0546059999999
 20
399.31787
 30
0.0
 11
284.109683
 21
398.2145689999999
 31
0.0
  0
LINE
  5
401
330
70E
100
AcDbEntity
  8
PRO0
  6
PLINE2
 62
     3
100
AcDbLine
 10
284.109683
 20
398.2145689999999
 30
0.0
 11
284.2143549999999
 21
396.21731
 31
0.0
  0
LINE
  5
402
330
70E
100
AcDbEntity
  8
PRO0
  6
PLINE2
 62
     3
100
AcDbLine
 10
284.2143549999999
 20
396.21731
 30
0.0
 11
286.2116139999999
 21
396.3219819999999
 31
0.0
  0
LINE
  5
403
330
70E
100
AcDbEntity
  8
PRO0
  6
PLINE2
 62
     3
100
AcDbLine
 10
286.2116139999999
 20
396.3219819999999
 30
0.0
 11
286.316286
 21
394.324723
 31
0.0
  0
LINE
  5
404
330
70E
100
AcDbEntity
  8
PRO0
  6
PLINE2
 62
     3
100
AcDbLine
 10
286.316286
 20
394.324723
 30
0.0
 11
284.371362
 21
393.221421
 31
0.0
  0
LINE
  5
405
330
70E
100
AcDbEntity
  8
PRO0
  6
PLINE2
 62
     3
100
AcDbLine
 10
284.371362
 20
393.221421
 30
0.0
 11
284.4760339999999
 21
391.224162
 31
0.0
  0
LINE
  5
406
330
70E
100
AcDbEntity
  8
PRO0
  6
PLINE2
 62
     3
100
AcDbLine
 10
284.4760339999999
 20
391.224162
 30
0.0
 11
286.473293
 21
391.3288339999999
 31
0.0
  0
LINE
  5
407
330
70E
100
AcDbEntity
  8
PRO0
  6
PLINE2
 62
     3
100
AcDbLine
 10
286.473293
 20
391.3288339999999
 30
0.0
 11
286.5779649999999
 21
389.3315749999999
 31
0.0
  0
LINE
  5
408
330
70E
100
AcDbEntity
  8
PRO0
  6
PLINE2
 62
     3
100
AcDbLine
 10
286.5779649999999
 20
389.3315749999999
 30
0.0
 11
284.633042
 21
388.2282739999999
 31
0.0
  0
LINE
  5
409
330
70E
100
AcDbEntity
  8
PRO0
  6
PLINE2
 62
     3
100
AcDbLine
 10
284.633042
 20
388.2282739999999
 30
0.0
 11
284.737714
 21
386.231015
 31
0.0
  0
LINE
  5
40A
330
70E
100
AcDbEntity
  8
PRO0
  6
PLINE2
 62
     3
100
AcDbLine
 10
284.737714
 20
386.231015
 30
0.0
 11
286.734973
 21
386.335686
 31
0.0
  0
LINE
  5
40B
330
70E
100
AcDbEntity
  8
PRO0
  6
PLINE2
 62
     3
100
AcDbLine
 10
286.734973
 20
386.335686
 30
0.0
 11
286.839645
 21
384.338427
 31
0.0
  0
LINE
  5
40C
330
70E
100
AcDbEntity
  8
PRO0
  6
PLINE2
 62
     3
100
AcDbLine
 10
277.326699
 20
409.115508
 30
0.0
 11
279.0670749999999
 21
408.200864
 31
0.0
  0
LINE
  5
40D
330
70E
100
AcDbEntity
  8
PRO0
  6
PLINE2
 62
     3
100
AcDbLine
 10
279.0670749999999
 20
408.200864
 30
0.0
 11
278.962403
 21
406.2036049999999
 31
0.0
  0
LINE
  5
40E
330
70E
100
AcDbEntity
  8
PRO0
  6
PLINE2
 62
     3
100
AcDbLine
 10
278.962403
 20
406.2036049999999
 30
0.0
 11
276.965144
 21
406.3082769999999
 31
0.0
  0
LINE
  5
40F
330
70E
100
AcDbEntity
  8
PRO0
  6
PLINE2
 62
     3
100
AcDbLine
 10
276.965144
 20
406.3082769999999
 30
0.0
 11
276.860472
 21
404.311018
 31
0.0
  0
LINE
  5
410
330
70E
100
AcDbEntity
  8
PRO0
  6
PLINE2
 62
     3
100
AcDbLine
 10
276.860472
 20
404.311018
 30
0.0
 11
278.805395
 21
403.2077169999999
 31
0.0
  0
LINE
  5
411
330
70E
100
AcDbEntity
  8
PRO0
  6
PLINE2
 62
     3
100
AcDbLine
 10
278.805395
 20
403.2077169999999
 30
0.0
 11
278.7007229999999
 21
401.2104579999999
 31
0.0
  0
LINE
  5
412
330
70E
100
AcDbEntity
  8
PRO0
  6
PLINE2
 62
     3
100
AcDbLine
 10
278.7007229999999
 20
401.2104579999999
 30
0.0
 11
276.7034639999999
 21
401.315129
 31
0.0
  0
LINE
  5
413
330
70E
100
AcDbEntity
  8
PRO0
  6
PLINE2
 62
     3
100
AcDbLine
 10
276.7034639999999
 20
401.315129
 30
0.0
 11
276.598792
 21
399.31787
 31
0.0
  0
LINE
  5
414
330
70E
100
AcDbEntity
  8
PRO0
  6
PLINE2
 62
     3
100
AcDbLine
 10
276.598792
 20
399.31787
 30
0.0
 11
278.5437149999999
 21
398.2145689999999
 31
0.0
  0
LINE
  5
415
330
70E
100
AcDbEntity
  8
PRO0
  6
PLINE2
 62
     3
100
AcDbLine
 10
278.5437149999999
 20
398.2145689999999
 30
0.0
 11
278.439043
 21
396.21731
 31
0.0
  0
LINE
  5
416
330
70E
100
AcDbEntity
  8
PRO0
  6
PLINE2
 62
     3
100
AcDbLine
 10
278.439043
 20
396.21731
 30
0.0
 11
276.4417839999999
 21
396.3219819999999
 31
0.0
  0
LINE
  5
417
330
70E
100
AcDbEntity
  8
PRO0
  6
PLINE2
 62
     3
100
AcDbLine
 10
276.4417839999999
 20
396.3219819999999
 30
0.0
 11
276.3371119999999
 21
394.324723
 31
0.0
  0
LINE
  5
418
330
70E
100
AcDbEntity
  8
PRO0
  6
PLINE2
 62
     3
100
AcDbLine
 10
276.3371119999999
 20
394.324723
 30
0.0
 11
278.282036
 21
393.221421
 31
0.0
  0
LINE
  5
419
330
70E
100
AcDbEntity
  8
PRO0
  6
PLINE2
 62
     3
100
AcDbLine
 10
278.282036
 20
393.221421
 30
0.0
 11
278.177364
 21
391.224162
 31
0.0
  0
LINE
  5
41A
330
70E
100
AcDbEntity
  8
PRO0
  6
PLINE2
 62
     3
100
AcDbLine
 10
278.177364
 20
391.224162
 30
0.0
 11
276.1801049999999
 21
391.3288339999999
 31
0.0
  0
LINE
  5
41B
330
70E
100
AcDbEntity
  8
PRO0
  6
PLINE2
 62
     3
100
AcDbLine
 10
276.1801049999999
 20
391.3288339999999
 30
0.0
 11
276.075433
 21
389.3315749999999
 31
0.0
  0
LINE
  5
41C
330
70E
100
AcDbEntity
  8
PRO0
  6
PLINE2
 62
     3
100
AcDbLine
 10
276.075433
 20
389.3315749999999
 30
0.0
 11
278.0203559999999
 21
388.2282739999999
 31
0.0
  0
LINE
  5
41D
330
70E
100
AcDbEntity
  8
PRO0
  6
PLINE2
 62
     3
100
AcDbLine
 10
278.0203559999999
 20
388.2282739999999
 30
0.0
 11
277.915684
 21
386.231015
 31
0.0
  0
LINE
  5
41E
330
70E
100
AcDbEntity
  8
PRO0
  6
PLINE2
 62
     3
100
AcDbLine
 10
277.915684
 20
386.231015
 30
0.0
 11
275.918425
 21
386.335686
 31
0.0
  0
LINE
  5
41F
330
70E
100
AcDbEntity
  8
PRO0
  6
PLINE2
 62
     3
100
AcDbLine
 10
275.918425
 20
386.335686
 30
0.0
 11
275.8137529999999
 21
384.338427
 31
0.0
  0
LINE
  5
420
330
70E
100
AcDbEntity
  8
PRO0
  6
PLINE2
 62
     3
100
AcDbLine
 10
281.826699
 20
413.115508
 30
0.0
 11
281.326699
 21
413.115508
 31
0.0
  0
LINE
  5
421
330
70E
100
AcDbEntity
  8
PRO0
  6
PLINE2
 62
     3
100
AcDbLine
 10
280.826699
 20
413.115508
 30
0.0
 11
281.326699
 21
413.115508
 31
0.0
  0
LINE
  5
422
330
70E
100
AcDbEntity
  8
PRO0
  6
Continuous
 62
     2
100
AcDbLine
 10
290.326699
 20
424.115508
 30
0.0
 11
272.326699
 21
424.115508
 31
0.0
  0
LINE
  5
423
330
70E
100
AcDbEntity
  8
PRO0
  6
PLINE2
 62
     3
100
AcDbLine
 10
285.326699
 20
421.115508
 30
0.0
 11
285.326699
 21
413.115508
 31
0.0
  0
LINE
  5
424
330
70E
100
AcDbEntity
  8
PRO0
  6
PLINE2
 62
     3
100
AcDbLine
 10
286.3266989999999
 20
421.115508
 30
0.0
 11
285.326699
 21
416.115508
 31
0.0
  0
LINE
  5
425
330
70E
100
AcDbEntity
  8
PRO0
  6
PLINE2
 62
     3
100
AcDbLine
 10
282.326699
 20
421.115508
 30
0.0
 11
281.326699
 21
416.115508
 31
0.0
  0
LINE
  5
426
330
70E
100
AcDbEntity
  8
PRO0
  6
PLINE2
 62
     3
100
AcDbLine
 10
280.326699
 20
421.115508
 30
0.0
 11
281.326699
 21
416.115508
 31
0.0
  0
LINE
  5
427
330
70E
100
AcDbEntity
  8
PRO0
  6
PLINE2
 62
     3
100
AcDbLine
 10
281.326699
 20
416.115508
 30
0.0
 11
281.326699
 21
421.115508
 31
0.0
  0
LINE
  5
428
330
70E
100
AcDbEntity
  8
PRO0
  6
PLINE2
 62
     3
100
AcDbLine
 10
277.326699
 20
421.115508
 30
0.0
 11
277.326699
 21
413.115508
 31
0.0
  0
LINE
  5
429
330
70E
100
AcDbEntity
  8
PRO0
  6
PLINE2
 62
     3
100
AcDbLine
 10
276.326699
 20
421.115508
 30
0.0
 11
277.326699
 21
416.115508
 31
0.0
  0
LINE
  5
42A
330
70E
100
AcDbEntity
  8
PRO0
  6
PLINE3
 62
     3
100
AcDbLine
 10
281.326699
 20
376.6039249999999
 30
0.0
 11
281.326699
 21
433.131013
 31
0.0
  0
LINE
  5
42B
330
70E
100
AcDbEntity
  8
PRO0
  6
PLINE2
 62
     3
100
AcDbLine
 10
279.4572549999999
 20
386.984952
 30
0.0
 11
281.326699
 21
385.115508
 31
0.0
  0
ARC
  5
42C
330
70E
100
AcDbEntity
  8
PRO0
  6
Continuous
 62
     2
100
AcDbCircle
 10
300.326699
 20
440.2321749999999
 30
0.0
 40
6.083333
100
AcDbArc
 50
53.831358
 51
126.1686419999999
  0
ARC
  5
42D
330
70E
100
AcDbEntity
  8
PRO0
  6
Continuous
 62
     2
100
AcDbCircle
 10
297.326699
 20
444.335865
 30
0.0
 40
1.0
100
AcDbArc
 50
126.1686419999999
 51
180.0
  0
ARC
  5
42E
330
70E
100
AcDbEntity
  8
PRO0
  6
Continuous
 62
     2
100
AcDbCircle
 10
303.326699
 20
444.335865
 30
0.0
 40
1.0
100
AcDbArc
 50
0.0
 51
53.831358
  0
LINE
  5
42F
330
70E
100
AcDbEntity
  8
PRO0
  6
Continuous
 62
     2
100
AcDbLine
 10
306.326699
 20
442.565508
 30
0.0
 11
306.326699
 21
441.815508
 31
0.0
  0
ARC
  5
430
330
70E
100
AcDbEntity
  8
PRO0
  6
Continuous
 62
     2
100
AcDbCircle
 10
304.624949
 20
441.315537
 30
0.0
 40
2.0
100
AcDbArc
 50
55.0
 51
90.00019899999999
  0
LINE
  5
431
330
70E
100
AcDbEntity
  8
PRO0
  6
Continuous
 62
     2
100
AcDbLine
 10
306.326699
 20
442.565508
 30
0.0
 11
305.7721009999999
 21
442.953841
 31
0.0
  0
LINE
  5
432
330
70E
100
AcDbEntity
  8
PRO0
  6
Continuous
 62
     2
100
AcDbLine
 10
306.326699
 20
442.565508
 30
0.0
 11
294.326699
 21
442.565508
 31
0.0
  0
LINE
  5
433
330
70E
100
AcDbEntity
  8
PRO0
  6
Continuous
 62
     2
100
AcDbLine
 10
306.326699
 20
441.815508
 30
0.0
 11
294.326699
 21
441.815508
 31
0.0
  0
LINE
  5
434
330
70E
100
AcDbEntity
  8
PRO0
  6
Continuous
 62
     2
100
AcDbLine
 10
294.326699
 20
442.565508
 30
0.0
 11
294.326699
 21
441.815508
 31
0.0
  0
LINE
  5
435
330
70E
100
AcDbEntity
  8
PRO0
  6
Continuous
 62
     2
100
AcDbLine
 10
305.326699
 20
441.815508
 30
0.0
 11
305.326699
 21
440.815508
 31
0.0
  0
LINE
  5
436
330
70E
100
AcDbEntity
  8
PRO0
  6
Continuous
 62
     2
100
AcDbLine
 10
305.326699
 20
440.815508
 30
0.0
 11
295.326699
 21
440.815508
 31
0.0
  0
LINE
  5
437
330
70E
100
AcDbEntity
  8
PRO0
  6
Continuous
 62
     2
100
AcDbLine
 10
295.326699
 20
441.815508
 30
0.0
 11
295.326699
 21
440.815508
 31
0.0
  0
LINE
  5
438
330
70E
100
AcDbEntity
  8
PRO0
  6
Continuous
 62
     3
100
AcDbLine
 10
300.084058
 20
440.815508
 30
0.0
 11
301.084058
 21
441.815508
 31
0.0
  0
LINE
  5
439
330
70E
100
AcDbEntity
  8
PRO0
  6
Continuous
 62
     3
100
AcDbLine
 10
302.205379
 20
440.815508
 30
0.0
 11
303.2053789999999
 21
441.815508
 31
0.0
  0
LINE
  5
43A
330
70E
100
AcDbEntity
  8
PRO0
  6
Continuous
 62
     3
100
AcDbLine
 10
304.329837
 20
440.815508
 30
0.0
 11
305.326699
 21
441.812363
 31
0.0
  0
LINE
  5
43B
330
70E
100
AcDbEntity
  8
PRO0
  6
Continuous
 62
     3
100
AcDbLine
 10
297.962738
 20
440.815508
 30
0.0
 11
298.9627379999999
 21
441.815508
 31
0.0
  0
LINE
  5
43C
330
70E
100
AcDbEntity
  8
PRO0
  6
Continuous
 62
     3
100
AcDbLine
 10
295.841418
 20
440.815508
 30
0.0
 11
296.841418
 21
441.815508
 31
0.0
  0
LINE
  5
43D
330
70E
100
AcDbEntity
  8
PRO0
  6
Continuous
 62
     3
100
AcDbLine
 10
300.326699
 20
433.41434
 30
0.0
 11
298.726699
 21
433.4613199999999
 31
0.0
  0
LINE
  5
43E
330
70E
100
AcDbEntity
  8
PRO0
  6
Continuous
 62
     3
100
AcDbLine
 10
300.326699
 20
433.41434
 30
0.0
 11
298.726699
 21
434.3081009999999
 31
0.0
  0
LINE
  5
43F
330
70E
100
AcDbEntity
  8
PRO0
  6
Continuous
 62
     3
100
AcDbLine
 10
301.926699
 20
436.283542
 30
0.0
 11
301.926699
 21
435.248841
 31
0.0
  0
LINE
  5
440
330
70E
100
AcDbEntity
  8
PRO0
  6
Continuous
 62
     3
100
AcDbLine
 10
301.926699
 20
434.402061
 30
0.0
 11
301.926699
 21
428.239268
 31
0.0
  0
LINE
  5
441
330
70E
100
AcDbEntity
  8
PRO0
  6
Continuous
 62
     3
100
AcDbLine
 10
298.726699
 20
437.224283
 30
0.0
 11
298.726699
 21
436.1895819999999
 31
0.0
  0
LINE
  5
442
330
70E
100
AcDbEntity
  8
PRO0
  6
Continuous
 62
     3
100
AcDbLine
 10
298.726699
 20
435.3428019999999
 30
0.0
 11
298.726699
 21
434.3081009999999
 31
0.0
  0
LINE
  5
443
330
70E
100
AcDbEntity
  8
PRO0
  6
Continuous
 62
     3
100
AcDbLine
 10
298.726699
 20
433.4613199999999
 30
0.0
 11
298.726699
 21
428.239268
 31
0.0
  0
LINE
  5
444
330
70E
100
AcDbEntity
  8
PRO0
  6
Continuous
 62
     3
100
AcDbLine
 10
301.926699
 20
438.1650239999999
 30
0.0
 11
301.926699
 21
437.130323
 31
0.0
  0
LINE
  5
445
330
70E
100
AcDbEntity
  8
PRO0
  6
Continuous
 62
     3
100
AcDbLine
 10
298.726699
 20
438.071064
 30
0.0
 11
298.726699
 21
439.105765
 31
0.0
  0
LINE
  5
446
330
70E
100
AcDbEntity
  8
PRO0
  6
Continuous
 62
     3
100
AcDbLine
 10
301.926699
 20
436.283542
 30
0.0
 11
298.726699
 21
437.224283
 31
0.0
  0
LINE
  5
447
330
70E
100
AcDbEntity
  8
PRO0
  6
Continuous
 62
     3
100
AcDbLine
 10
301.926699
 20
437.130323
 30
0.0
 11
298.726699
 21
438.071064
 31
0.0
  0
LINE
  5
448
330
70E
100
AcDbEntity
  8
PRO0
  6
Continuous
 62
     3
100
AcDbLine
 10
302.660032
 20
436.7069329999999
 30
0.0
 11
297.993366
 21
437.647673
 31
0.0
  0
LINE
  5
449
330
70E
100
AcDbEntity
  8
PRO0
  6
Continuous
 62
     3
100
AcDbLine
 10
302.660032
 20
436.7069329999999
 30
0.0
 11
301.926699
 21
436.283542
 31
0.0
  0
LINE
  5
44A
330
70E
100
AcDbEntity
  8
PRO0
  6
Continuous
 62
     3
100
AcDbLine
 10
302.660032
 20
436.7069329999999
 30
0.0
 11
301.926699
 21
437.130323
 31
0.0
  0
LINE
  5
44B
330
70E
100
AcDbEntity
  8
PRO0
  6
Continuous
 62
     3
100
AcDbLine
 10
297.993366
 20
437.647673
 30
0.0
 11
298.726699
 21
437.224283
 31
0.0
  0
LINE
  5
44C
330
70E
100
AcDbEntity
  8
PRO0
  6
Continuous
 62
     3
100
AcDbLine
 10
298.726699
 20
438.071064
 30
0.0
 11
297.993366
 21
437.647673
 31
0.0
  0
LINE
  5
44D
330
70E
100
AcDbEntity
  8
PRO0
  6
Continuous
 62
     3
100
AcDbLine
 10
301.926699
 20
440.046505
 30
0.0
 11
301.926699
 21
439.0118039999999
 31
0.0
  0
LINE
  5
44E
330
70E
100
AcDbEntity
  8
PRO0
  6
Continuous
 62
     3
100
AcDbLine
 10
298.726699
 20
440.815508
 30
0.0
 11
298.726699
 21
439.952545
 31
0.0
  0
LINE
  5
44F
330
70E
100
AcDbEntity
  8
PRO0
  6
Continuous
 62
     3
100
AcDbLine
 10
301.926699
 20
438.1650239999999
 30
0.0
 11
298.726699
 21
439.105765
 31
0.0
  0
LINE
  5
450
330
70E
100
AcDbEntity
  8
PRO0
  6
Continuous
 62
     3
100
AcDbLine
 10
301.926699
 20
439.0118039999999
 30
0.0
 11
298.726699
 21
439.952545
 31
0.0
  0
LINE
  5
451
330
70E
100
AcDbEntity
  8
PRO0
  6
Continuous
 62
     3
100
AcDbLine
 10
302.660032
 20
438.5884139999999
 30
0.0
 11
297.993366
 21
439.529155
 31
0.0
  0
LINE
  5
452
330
70E
100
AcDbEntity
  8
PRO0
  6
Continuous
 62
     3
100
AcDbLine
 10
302.660032
 20
438.5884139999999
 30
0.0
 11
301.926699
 21
438.1650239999999
 31
0.0
  0
LINE
  5
453
330
70E
100
AcDbEntity
  8
PRO0
  6
Continuous
 62
     3
100
AcDbLine
 10
302.660032
 20
438.5884139999999
 30
0.0
 11
301.926699
 21
439.0118039999999
 31
0.0
  0
LINE
  5
454
330
70E
100
AcDbEntity
  8
PRO0
  6
Continuous
 62
     3
100
AcDbLine
 10
297.993366
 20
439.529155
 30
0.0
 11
298.726699
 21
439.105765
 31
0.0
  0
LINE
  5
455
330
70E
100
AcDbEntity
  8
PRO0
  6
Continuous
 62
     3
100
AcDbLine
 10
298.726699
 20
439.952545
 30
0.0
 11
297.993366
 21
439.529155
 31
0.0
  0
LINE
  5
456
330
70E
100
AcDbEntity
  8
PRO0
  6
Continuous
 62
     3
100
AcDbLine
 10
299.3108789999999
 20
440.815508
 30
0.0
 11
301.926699
 21
440.046505
 31
0.0
  0
LINE
  5
457
330
70E
100
AcDbEntity
  8
PRO0
  6
Continuous
 62
     3
100
AcDbLine
 10
300.945577
 20
440.815508
 30
0.0
 11
302.660032
 21
440.469896
 31
0.0
  0
LINE
  5
458
330
70E
100
AcDbEntity
  8
PRO0
  6
Continuous
 62
     3
100
AcDbLine
 10
302.660032
 20
440.469896
 30
0.0
 11
301.926699
 21
440.046505
 31
0.0
  0
LINE
  5
459
330
70E
100
AcDbEntity
  8
PRO0
  6
Continuous
 62
     3
100
AcDbLine
 10
302.061414
 20
440.815508
 30
0.0
 11
302.660032
 21
440.469896
 31
0.0
  0
LINE
  5
45A
330
70E
100
AcDbEntity
  8
PRO0
  6
Continuous
 62
     2
100
AcDbLine
 10
304.326699
 20
444.335865
 30
0.0
 11
304.326699
 21
443.315508
 31
0.0
  0
ARC
  5
45B
330
70E
100
AcDbEntity
  8
PRO0
  6
Continuous
 62
     2
100
AcDbCircle
 10
296.0284069999999
 20
441.315508
 30
0.0
 40
2.0
100
AcDbArc
 50
90.00019899999999
 51
125.0
  0
LINE
  5
45C
330
70E
100
AcDbEntity
  8
PRO0
  6
Continuous
 62
     2
100
AcDbLine
 10
304.6249419999999
 20
443.315537
 30
0.0
 11
296.0283999999999
 21
443.315508
 31
0.0
  0
LINE
  5
45D
330
70E
100
AcDbEntity
  8
PRO0
  6
Continuous
 62
     2
100
AcDbLine
 10
296.326699
 20
444.335865
 30
0.0
 11
296.326699
 21
443.315508
 31
0.0
  0
LINE
  5
45E
330
70E
100
AcDbEntity
  8
PRO0
  6
PLINE3
 62
     3
100
AcDbLine
 10
300.326699
 20
449.609375
 30
0.0
 11
300.326699
 21
423.846422
 31
0.0
  0
LINE
  5
45F
330
70E
100
AcDbEntity
  8
PRO0
  6
Continuous
 62
     3
100
AcDbLine
 10
300.326699
 20
429.351749
 30
0.0
 11
300.326699
 21
427.315508
 31
0.0
  0
LINE
  5
460
330
70E
100
AcDbEntity
  8
PRO0
  6
Continuous
 62
     3
100
AcDbLine
 10
298.726699
 20
432.9155079999999
 30
0.0
 11
301.9266839999999
 21
432.9155079999999
 31
0.0
  0
LINE
  5
461
330
70E
100
AcDbEntity
  8
PRO0
  6
Continuous
 62
     3
100
AcDbLine
 10
300.326699
 20
427.315508
 30
0.0
 11
301.9266979999999
 21
428.239268
 31
0.0
  0
LINE
  5
462
330
70E
100
AcDbEntity
  8
PRO0
  6
Continuous
 62
     3
100
AcDbLine
 10
300.326699
 20
427.315508
 30
0.0
 11
298.726699
 21
428.239268
 31
0.0
  0
ARC
  5
463
330
70E
100
AcDbEntity
  8
PRO0
  6
Continuous
 62
     3
100
AcDbCircle
 10
300.301641
 20
427.5508379999999
 30
0.0
 40
1.764847999999999
100
AcDbArc
 50
22.959125
 51
89.186457
  0
ARC
  5
464
330
70E
100
AcDbEntity
  8
PRO0
  6
Continuous
 62
     3
100
AcDbCircle
 10
294.2942869999999
 20
428.789992
 30
0.0
 40
6.055258999999999
100
AcDbArc
 50
4.978778000000001
 51
42.9462
  0
LINE
  5
465
330
70E
100
AcDbEntity
  8
PRO0
  6
Continuous
 62
     3
100
AcDbLine
 10
301.926699
 20
434.402061
 30
0.0
 11
298.726699
 21
435.3428019999999
 31
0.0
  0
LINE
  5
466
330
70E
100
AcDbEntity
  8
PRO0
  6
Continuous
 62
     3
100
AcDbLine
 10
301.926699
 20
435.248841
 30
0.0
 11
298.726699
 21
436.1895819999999
 31
0.0
  0
LINE
  5
467
330
70E
100
AcDbEntity
  8
PRO0
  6
Continuous
 62
     3
100
AcDbLine
 10
302.660032
 20
434.825451
 30
0.0
 11
297.993366
 21
435.7661919999999
 31
0.0
  0
LINE
  5
468
330
70E
100
AcDbEntity
  8
PRO0
  6
Continuous
 62
     3
100
AcDbLine
 10
302.660032
 20
434.825451
 30
0.0
 11
301.926699
 21
434.402061
 31
0.0
  0
LINE
  5
469
330
70E
100
AcDbEntity
  8
PRO0
  6
Continuous
 62
     3
100
AcDbLine
 10
302.660032
 20
434.825451
 30
0.0
 11
301.926699
 21
435.248841
 31
0.0
  0
LINE
  5
46A
330
70E
100
AcDbEntity
  8
PRO0
  6
Continuous
 62
     3
100
AcDbLine
 10
297.993366
 20
435.7661919999999
 30
0.0
 11
298.726699
 21
435.3428019999999
 31
0.0
  0
LINE
  5
46B
330
70E
100
AcDbEntity
  8
PRO0
  6
Continuous
 62
     3
100
AcDbLine
 10
298.726699
 20
436.1895819999999
 30
0.0
 11
297.993366
 21
435.7661919999999
 31
0.0
  0
LINE
  5
46C
330
70E
100
AcDbEntity
  8
PRO0
  6
Continuous
 62
     3
100
AcDbLine
 10
300.326699
 20
433.41434
 30
0.0
 11
297.993366
 21
433.8847099999999
 31
0.0
  0
LINE
  5
46D
330
70E
100
AcDbEntity
  8
PRO0
  6
Continuous
 62
     3
100
AcDbLine
 10
297.993366
 20
433.8847099999999
 30
0.0
 11
298.726699
 21
433.4613199999999
 31
0.0
  0
LINE
  5
46E
330
70E
100
AcDbEntity
  8
PRO0
  6
Continuous
 62
     3
100
AcDbLine
 10
298.726699
 20
434.3081009999999
 30
0.0
 11
297.993366
 21
433.8847099999999
 31
0.0
  0
LINE
  5
46F
330
70E
100
AcDbEntity
  8
PRO0
  6
Continuous
 62
     2
100
AcDbLine
 10
294.326699
 20
442.565508
 30
0.0
 11
294.881254
 21
442.953812
 31
0.0
  0
LINE
  5
470
330
70E
100
AcDbEntity
  8
PRO0
  6
PLINE2
 62
     3
100
AcDbLine
 10
288.826699
 20
424.115508
 30
0.0
 11
288.826699
 21
422.115508
 31
0.0
  0
LINE
  5
471
330
70E
100
AcDbEntity
  8
PRO0
  6
PLINE2
 62
     3
100
AcDbLine
 10
273.826699
 20
424.115508
 30
0.0
 11
273.826699
 21
422.115508
 31
0.0
  0
LINE
  5
472
330
70E
100
AcDbEntity
  8
PRO0
  6
Continuous
 62
     2
100
AcDbLine
 10
313.826699
 20
439.615508
 30
0.0
 11
294.326699
 21
439.615508
 31
0.0
  0
LINE
  5
473
330
70E
100
AcDbEntity
  8
PRO0
  6
Continuous
 62
     2
100
AcDbLine
 10
316.326699
 20
439.115508
 30
0.0
 11
316.326699
 21
432.515508
 31
0.0
  0
ARC
  5
474
330
70E
100
AcDbEntity
  8
PRO0
  6
Continuous
 62
     2
100
AcDbCircle
 10
314.626699
 20
432.515508
 30
0.0
 40
1.7
100
AcDbArc
 50
270.0
 51
0.0
  0
LINE
  5
475
330
70E
100
AcDbEntity
  8
PRO0
  6
Continuous
 62
     2
100
AcDbLine
 10
306.326699
 20
430.815508
 30
0.0
 11
314.626699
 21
430.815508
 31
0.0
  0
LINE
  5
476
330
70E
100
AcDbEntity
  8
PRO0
  6
Continuous
 62
     2
100
AcDbLine
 10
306.326699
 20
432.015508
 30
0.0
 11
314.626699
 21
432.015508
 31
0.0
  0
ARC
  5
477
330
70E
100
AcDbEntity
  8
PRO0
  6
Continuous
 62
     2
100
AcDbCircle
 10
314.626699
 20
439.115508
 30
0.0
 40
1.7
100
AcDbArc
 50
0.0
 51
90.0
  0
LINE
  5
478
330
70E
100
AcDbEntity
  8
PRO0
  6
Continuous
 62
     2
100
AcDbLine
 10
314.626699
 20
440.815508
 30
0.0
 11
257.0266989999999
 21
440.815508
 31
0.0
  0
ARC
  5
479
330
70E
100
AcDbEntity
  8
PRO0
  6
Continuous
 62
     2
100
AcDbCircle
 10
257.0266989999999
 20
439.115508
 30
0.0
 40
1.7
100
AcDbArc
 50
90.0
 51
180.0
  0
LINE
  5
47A
330
70E
100
AcDbEntity
  8
PRO0
  6
Continuous
 62
     2
100
AcDbLine
 10
255.326699
 20
434.315508
 30
0.0
 11
255.326699
 21
439.115508
 31
0.0
  0
ARC
  5
47B
330
70E
100
AcDbEntity
  8
PRO0
  6
Continuous
 62
     2
100
AcDbCircle
 10
257.0266989999999
 20
439.115508
 30
0.0
 40
0.5
100
AcDbArc
 50
90.0
 51
180.0
  0
LINE
  5
47C
330
70E
100
AcDbEntity
  8
PRO0
  6
Continuous
 62
     2
100
AcDbLine
 10
256.526699
 20
434.315508
 30
0.0
 11
256.526699
 21
439.115508
 31
0.0
  0
LINE
  5
47D
330
70E
100
AcDbEntity
  8
PRO0
  6
Continuous
 62
     2
100
AcDbLine
 10
314.626699
 20
439.615508
 30
0.0
 11
257.0266989999999
 21
439.615508
 31
0.0
  0
ARC
  5
47E
330
70E
100
AcDbEntity
  8
PRO0
  6
Continuous
 62
     2
100
AcDbCircle
 10
314.626699
 20
439.115508
 30
0.0
 40
0.5
100
AcDbArc
 50
0.0
 51
90.0
  0
ARC
  5
47F
330
70E
100
AcDbEntity
  8
PRO0
  6
Continuous
 62
     2
100
AcDbCircle
 10
314.626699
 20
432.515508
 30
0.0
 40
0.5
100
AcDbArc
 50
270.0
 51
0.0
  0
LINE
  5
480
330
70E
100
AcDbEntity
  8
PRO0
  6
Continuous
 62
     2
100
AcDbLine
 10
315.126699
 20
439.115508
 30
0.0
 11
315.126699
 21
432.515508
 31
0.0
  0
LINE
  5
481
330
70E
100
AcDbEntity
  8
PRO0
  6
Continuous
 62
     2
100
AcDbLine
 10
308.326699
 20
430.815508
 30
0.0
 11
308.326699
 21
421.115508
 31
0.0
  0
LINE
  5
482
330
70E
100
AcDbEntity
  8
PRO0
  6
Continuous
 62
     2
100
AcDbLine
 10
308.326699
 20
430.815508
 30
0.0
 11
306.326699
 21
421.115508
 31
0.0
  0
LINE
  5
483
330
70E
100
AcDbEntity
  8
PRO0
  6
Continuous
 62
     2
100
AcDbLine
 10
251.326699
 20
421.115508
 30
0.0
 11
240.80693
 21
382.201058
 31
0.0
  0
LINE
  5
484
330
70E
100
AcDbEntity
  8
PRO0
  6
Continuous
 62
     2
100
AcDbLine
 10
239.841581
 20
382.4620209999999
 30
0.0
 11
250.561135
 21
422.115508
 31
0.0
  0
LINE
  5
485
330
70E
100
AcDbEntity
  8
PRO0
  6
Continuous
 62
     2
100
AcDbLine
 10
266.526699
 20
439.615508
 30
0.0
 11
266.526699
 21
434.315483
 31
0.0
  0
LINE
  5
486
330
70E
100
AcDbEntity
  8
PRO0
  6
Continuous
 62
     3
100
AcDbLine
 10
260.1627189999999
 20
434.3154909999999
 30
0.0
 11
265.462737
 21
439.615508
 31
0.0
  0
LINE
  5
487
330
70E
100
AcDbEntity
  8
PRO0
  6
Continuous
 62
     3
100
AcDbLine
 10
262.284044
 20
434.3154949999999
 30
0.0
 11
266.526699
 21
438.5581499999999
 31
0.0
  0
LINE
  5
488
330
70E
100
AcDbEntity
  8
PRO0
  6
Continuous
 62
     3
100
AcDbLine
 10
264.405369
 20
434.3155
 30
0.0
 11
266.526699
 21
436.4368299999999
 31
0.0
  0
LINE
  5
489
330
70E
100
AcDbEntity
  8
PRO0
  6
Continuous
 62
     3
100
AcDbLine
 10
258.0413939999999
 20
434.315486
 30
0.0
 11
263.341416
 21
439.615508
 31
0.0
  0
LINE
  5
48A
330
70E
100
AcDbEntity
  8
PRO0
  6
Continuous
 62
     3
100
AcDbLine
 10
256.526699
 20
434.922111
 30
0.0
 11
261.220096
 21
439.615508
 31
0.0
  0
LINE
  5
48B
330
70E
100
AcDbEntity
  8
PRO0
  6
Continuous
 62
     3
100
AcDbLine
 10
256.526699
 20
437.0434309999999
 30
0.0
 11
259.0987759999999
 21
439.615508
 31
0.0
  0
LINE
  5
48C
330
70E
100
AcDbEntity
  8
PRO0
  6
Continuous
 62
     3
100
AcDbLine
 10
256.5294049999999
 20
439.167458
 30
0.0
 11
256.974749
 21
439.6128019999999
 31
0.0
  0
ARC
  5
48D
330
70E
100
AcDbEntity
  8
PRO0
  6
Continuous
 62
     2
100
AcDbCircle
 10
551.6215499999999
 20
425.9655079999999
 30
0.0
 40
12.26125
100
AcDbArc
 50
336.6994009999999
 51
23.30059899999999
  0
ARC
  5
48E
330
70E
100
AcDbEntity
  8
PRO0
  6
Continuous
 62
     2
100
AcDbCircle
 10
671.332971
 20
495.675562
 30
0.0
 40
12.260424
100
AcDbArc
 50
246.698605
 51
293.301395
  0
LINE
  5
48F
330
70E
100
AcDbEntity
  8
PRO0
  6
Continuous
 62
     2
100
AcDbLine
 10
599.4200359999999
 20
430.0893259999999
 30
0.0
 11
599.927178
 21
429.001757
 31
0.0
  0
LINE
  5
490
330
70E
100
AcDbEntity
  8
PRO0
  6
Continuous
 62
     2
100
AcDbLine
 10
599.927178
 20
429.001757
 30
0.0
 11
608.7491449999999
 21
433.115508
 31
0.0
  0
LINE
  5
491
330
70E
100
AcDbEntity
  8
PRO0
  6
Continuous
 62
     2
100
AcDbLine
 10
599.4200359999999
 20
430.0893259999999
 30
0.0
 11
608.483114
 21
434.3155089999999
 31
0.0
  0
LINE
  5
492
330
70E
100
AcDbEntity
  8
PRO0
  6
Continuous
 62
     2
100
AcDbLine
 10
665.283141
 20
476.3155209999999
 30
0.0
 11
666.483141
 21
476.3155209999999
 31
0.0
  0
LINE
  5
493
330
70E
100
AcDbEntity
  8
PRO0
  6
Continuous
 62
     2
100
AcDbLine
 10
610.9828
 20
439.615508
 30
0.0
 11
610.9828
 21
434.3155139999999
 31
0.0
  0
LINE
  5
494
330
70E
100
AcDbEntity
  8
PRO0
  6
Continuous
 62
     3
100
AcDbLine
 10
562.886399
 20
421.115508
 30
0.0
 11
569.1828
 21
427.4118559999999
 31
0.0
  0
LINE
  5
495
330
70E
100
AcDbEntity
  8
PRO0
  6
Continuous
 62
     3
100
AcDbLine
 10
565.0041209999999
 20
421.115508
 30
0.0
 11
569.1828
 21
425.2941879999999
 31
0.0
  0
LINE
  5
496
330
70E
100
AcDbEntity
  8
PRO0
  6
Continuous
 62
     3
100
AcDbLine
 10
567.125441
 20
421.115508
 30
0.0
 11
569.1828
 21
423.1728669999999
 31
0.0
  0
LINE
  5
497
330
70E
100
AcDbEntity
  8
PRO0
  6
Continuous
 62
     3
100
AcDbLine
 10
563.7389749999999
 20
424.093003
 30
0.0
 11
569.1828
 21
429.5368279999999
 31
0.0
  0
LINE
  5
498
330
70E
100
AcDbEntity
  8
PRO0
  6
Continuous
 62
     3
100
AcDbLine
 10
563.876706
 20
426.352054
 30
0.0
 11
568.3401599999999
 21
430.815508
 31
0.0
  0
LINE
  5
499
330
70E
100
AcDbEntity
  8
PRO0
  6
Continuous
 62
     3
100
AcDbLine
 10
563.66574
 20
428.2624089999999
 30
0.0
 11
566.2188389999999
 21
430.815508
 31
0.0
  0
LINE
  5
49A
330
70E
100
AcDbEntity
  8
PRO0
  6
Continuous
 62
     3
100
AcDbLine
 10
563.221079
 20
429.939068
 30
0.0
 11
564.097519
 21
430.815508
 31
0.0
  0
LINE
  5
49B
330
70E
100
AcDbEntity
  8
PRO0
  6
Continuous
 62
     3
100
AcDbLine
 10
666.4865429999999
 20
478.1151379999999
 30
0.0
 11
671.7953
 21
483.423858
 31
0.0
  0
LINE
  5
49C
330
70E
100
AcDbEntity
  8
PRO0
  6
Continuous
 62
     3
100
AcDbLine
 10
668.604461
 20
478.1151379999999
 30
0.0
 11
674.2586519999999
 21
483.769329
 31
0.0
  0
LINE
  5
49D
330
70E
100
AcDbEntity
  8
PRO0
  6
Continuous
 62
     3
100
AcDbLine
 10
670.7257809999999
 20
478.1151379999999
 30
0.0
 11
676.1828
 21
483.5721559999999
 31
0.0
  0
LINE
  5
49E
330
70E
100
AcDbEntity
  8
PRO0
  6
Continuous
 62
     3
100
AcDbLine
 10
672.8471019999999
 20
478.1151379999999
 30
0.0
 11
676.1828
 21
481.450836
 31
0.0
  0
LINE
  5
49F
330
70E
100
AcDbEntity
  8
PRO0
  6
Continuous
 62
     3
100
AcDbLine
 10
674.9684219999998
 20
478.1151379999999
 30
0.0
 11
676.1828
 21
479.329516
 31
0.0
  0
LINE
  5
4A0
330
70E
100
AcDbEntity
  8
PRO0
  6
Continuous
 62
     3
100
AcDbLine
 10
666.483141
 20
480.236458
 30
0.0
 11
669.762783
 21
483.5161
 31
0.0
  0
LINE
  5
4A1
330
70E
100
AcDbEntity
  8
PRO0
  6
Continuous
 62
     3
100
AcDbLine
 10
666.483141
 20
482.357778
 30
0.0
 11
668.0017349999999
 21
483.8763730000001
 31
0.0
  0
LINE
  5
4A2
330
70E
100
AcDbEntity
  8
PRO0
  6
Continuous
 62
     3
100
AcDbLine
 10
611.466633
 20
434.3155099999999
 30
0.0
 11
616.7666320000001
 21
439.615508
 31
0.0
  0
LINE
  5
4A3
330
70E
100
AcDbEntity
  8
PRO0
  6
Continuous
 62
     3
100
AcDbLine
 10
613.5879539999999
 20
434.3155099999999
 30
0.0
 11
618.8879519999999
 21
439.615508
 31
0.0
  0
LINE
  5
4A4
330
70E
100
AcDbEntity
  8
PRO0
  6
Continuous
 62
     3
100
AcDbLine
 10
615.709274
 20
434.3155099999999
 30
0.0
 11
620.8493419999999
 21
439.455578
 31
0.0
  0
LINE
  5
4A5
330
70E
100
AcDbEntity
  8
PRO0
  6
Continuous
 62
     3
100
AcDbLine
 10
617.830595
 20
434.3155099999999
 30
0.0
 11
620.9827999999999
 21
437.467716
 31
0.0
  0
LINE
  5
4A6
330
70E
100
AcDbEntity
  8
PRO0
  6
Continuous
 62
     3
100
AcDbLine
 10
619.951915
 20
434.3155099999999
 30
0.0
 11
620.9827999999999
 21
435.346395
 31
0.0
  0
LINE
  5
4A7
330
70E
100
AcDbEntity
  8
PRO0
  6
Continuous
 62
     3
100
AcDbLine
 10
610.9828
 20
435.9529969999999
 30
0.0
 11
614.645311
 21
439.615508
 31
0.0
  0
LINE
  5
4A8
330
70E
100
AcDbEntity
  8
PRO0
  6
Continuous
 62
     3
100
AcDbLine
 10
610.9828
 20
438.074317
 30
0.0
 11
612.523991
 21
439.615508
 31
0.0
  0
DIMENSION
  5
4B4
330
70E
100
AcDbEntity
  8
PRO0
  6
Continuous
 62
     3
100
AcDbDimension
  2
*D17
 10
656.483141
 20
513.72412
 30
0.0
 11
608.982971
 21
515.224091
 31
0.0
 70
   128
 71
     5
 42
-1.0
100
AcDbAlignedDimension
 13
561.4828
 23
502.843361
 33
0.0
 14
656.483141
 24
482.615521
 34
0.0
100
AcDbRotatedDimension
  0
DIMENSION
  5
4BF
330
70E
100
AcDbEntity
  8
PRO0
  6
Continuous
 62
     3
100
AcDbDimension
  2
*D18
 10
676.1828
 20
513.72412
 30
0.0
 11
666.332932
 21
515.224091
 31
0.0
 70
   128
 71
     5
 42
-1.0
100
AcDbAlignedDimension
 13
656.483141
 23
482.615521
 33
0.0
 14
676.1828
 24
502.843361
 34
0.0
100
AcDbRotatedDimension
  0
DIMENSION
  5
4CB
330
70E
100
AcDbEntity
  8
PRO0
  6
Continuous
 62
     3
100
AcDbDimension
  2
*D19
 10
622.1828
 20
501.327426
 30
0.0
 11
591.6828
 21
502.827438
 31
0.0
 70
   128
 71
     5
 42
-1.0
100
AcDbAlignedDimension
 13
561.1828
 23
493.118951
 33
0.0
 14
622.1828
 24
437.115508
 34
0.0
100
AcDbRotatedDimension
  0
DIMENSION
  5
4D6
330
70E
100
AcDbEntity
  8
PRO0
  6
Continuous
 62
     3
100
AcDbDimension
  2
*D20
 10
656.483141
 20
501.327426
 30
0.0
 11
639.332932
 21
502.827438
 31
0.0
 70
   128
 71
     5
 42
-1.0
100
AcDbAlignedDimension
 13
622.1828
 23
437.115508
 33
0.0
 14
656.483141
 24
493.118951
 34
0.0
100
AcDbRotatedDimension
  0
DIMENSION
  5
4E1
330
70E
100
AcDbEntity
  8
PRO0
  6
Continuous
 62
     3
100
AcDbDimension
  2
*D21
 10
666.483141
 20
501.327426
 30
0.0
 11
661.4831539999999
 21
502.827438
 31
0.0
 70
   128
 71
     5
 42
-1.0
100
AcDbAlignedDimension
 13
656.483141
 23
493.118951
 33
0.0
 14
666.483141
 24
482.4151379999999
 34
0.0
100
AcDbRotatedDimension
  0
DIMENSION
  5
4EC
330
70E
100
AcDbEntity
  8
PRO0
  6
Continuous
 62
     3
100
AcDbDimension
  2
*D22
 10
676.1828
 20
501.327426
 30
0.0
 11
671.3329469999999
 21
502.827438
 31
0.0
 70
   128
 71
     5
 42
-1.0
100
AcDbAlignedDimension
 13
666.483141
 23
482.4151379999999
 33
0.0
 14
676.1828
 24
493.118951
 34
0.0
100
AcDbRotatedDimension
  0
DIMENSION
  5
4F8
330
70E
100
AcDbEntity
  8
PRO0
  6
Continuous
 62
     3
100
AcDbDimension
  2
*D23
 10
527.0071989999999
 20
440.815508
 30
0.0
 11
525.507202
 21
463.5655059999999
 31
0.0
 70
   128
 71
     5
 42
-1.0
100
AcDbAlignedDimension
 13
660.1831409999999
 23
486.315521
 33
0.0
 14
564.8827999999999
 24
440.815508
 34
0.0
 50
90.0
100
AcDbRotatedDimension
  0
DIMENSION
  5
503
330
70E
100
AcDbEntity
  8
PRO0
  6
Continuous
 62
     3
100
AcDbDimension
  2
*D24
 10
527.0071989999999
 20
421.115508
 30
0.0
 11
525.507202
 21
430.9655
 31
0.0
 70
   128
 71
     5
 42
-1.0
100
AcDbAlignedDimension
 13
564.8827999999999
 23
440.815508
 33
0.0
 14
548.1828
 24
421.115508
 34
0.0
 50
90.0
100
AcDbRotatedDimension
  0
DIMENSION
  5
50F
330
70E
100
AcDbEntity
  8
PRO0
  6
Continuous
 62
     3
100
AcDbDimension
  2
*D25
 10
541.470009
 20
430.815508
 30
0.0
 11
539.970016
 21
435.8155059999999
 31
0.0
 70
   128
 71
     5
 42
-1.0
100
AcDbAlignedDimension
 13
552.749164
 23
440.815508
 33
0.0
 14
564.8827999999999
 24
430.815508
 34
0.0
 50
90.0
100
AcDbRotatedDimension
  0
DIMENSION
  5
51A
330
70E
100
AcDbEntity
  8
PRO0
  6
Continuous
 62
     3
100
AcDbDimension
  2
*D26
 10
541.470009
 20
421.115508
 30
0.0
 11
539.970016
 21
425.9654849999999
 31
0.0
 70
   128
 71
     5
 42
-1.0
100
AcDbAlignedDimension
 13
564.8827999999999
 23
430.815508
 33
0.0
 14
552.749164
 24
421.115508
 34
0.0
 50
90.0
100
AcDbRotatedDimension
  0
DIMENSION
  5
525
330
70E
100
AcDbEntity
  8
PRO0
  6
Continuous
 62
     3
100
AcDbDimension
  2
*D27
 10
561.1828
 20
459.440861
 30
0.0
 11
569.182846
 21
460.9408259999999
 31
0.0
 70
   128
 71
     5
 42
-1.0
100
AcDbAlignedDimension
 13
577.1828
 23
447.609375
 33
0.0
 14
561.1828
 24
459.440861
 34
0.0
100
AcDbRotatedDimension
  0
DIMENSION
  5
530
330
70E
100
AcDbEntity
  8
PRO0
  6
Continuous
 62
     3
100
AcDbDimension
  2
*D28
 10
637.862359
 20
470.315138
 30
0.0
 11
636.362366
 21
478.3153379999999
 31
0.0
 70
   128
 71
     5
 42
-1.0
100
AcDbAlignedDimension
 13
637.862359
 23
486.315521
 33
0.0
 14
649.9892739999999
 24
470.315138
 34
0.0
 50
90.0
100
AcDbRotatedDimension
  0
LINE
  5
531
330
70E
100
AcDbEntity
  8
PRO0
  6
Continuous
 62
     2
100
AcDbLine
 10
608.7491449999999
 20
433.115508
 30
0.0
 11
655.9831410000001
 21
433.115508
 31
0.0
  0
LINE
  5
532
330
70E
100
AcDbEntity
  8
PRO0
  6
Continuous
 62
     2
100
AcDbLine
 10
655.9831410000001
 20
434.315508
 30
0.0
 11
608.483114
 21
434.3155089999999
 31
0.0
  0
LINE
  5
533
330
70E
100
AcDbEntity
  8
PRO0
  6
Continuous
 62
     2
100
AcDbLine
 10
676.1828
 20
497.3438119999999
 30
0.0
 11
676.1828
 21
361.115508
 31
0.0
  0
LINE
  5
534
330
70E
100
AcDbEntity
  8
PRO0
  6
Continuous
 62
     2
100
AcDbLine
 10
675.183598
 20
476.1151919999999
 30
0.0
 11
675.182573
 21
420.1153019999999
 31
0.0
  0
LINE
  5
535
330
70E
100
AcDbEntity
  8
PRO0
  6
Continuous
 62
     2
100
AcDbLine
 10
664.669718
 20
382.3601039999999
 30
0.0
 11
675.182573
 21
420.1153019999999
 31
0.0
  0
LINE
  5
536
330
70E
100
AcDbEntity
  8
PRO0
  6
Continuous
 62
     2
100
AcDbLine
 10
676.1828
 20
419.9794909999999
 30
0.0
 11
665.633069
 21
382.091861
 31
0.0
  0
DIMENSION
  5
542
330
70E
100
AcDbEntity
  8
PRO0
  6
Continuous
 62
     3
100
AcDbDimension
  2
*D29
 10
731.947925
 20
451.115138
 30
0.0
 11
730.447861
 21
436.115295
 31
0.0
 70
   128
 71
     5
 42
-1.0
100
AcDbAlignedDimension
 13
624.1828
 23
421.115508
 33
0.0
 14
718.694383
 24
451.115138
 34
0.0
 50
90.0
100
AcDbRotatedDimension
  0
DIMENSION
  5
54E
330
70E
100
AcDbEntity
  8
PRO0
  6
Continuous
 62
     3
100
AcDbDimension
  2
*D30
 10
626.1828
 20
350.352649
 30
0.0
 11
611.1828
 21
351.852631
 31
0.0
 70
   128
 71
     5
 42
-1.0
100
AcDbAlignedDimension
 13
596.1828
 23
378.6039249999999
 33
0.0
 14
626.1828
 24
363.115508
 34
0.0
100
AcDbRotatedDimension
  0
DIMENSION
  5
559
330
70E
100
AcDbEntity
  8
PRO0
  6
Continuous
 62
     3
100
AcDbDimension
  2
*D31
 10
676.1828
 20
350.352649
 30
0.0
 11
651.1827849999999
 21
351.852631
 31
0.0
 70
   128
 71
     5
 42
-1.0
100
AcDbAlignedDimension
 13
626.1828
 23
363.115508
 33
0.0
 14
676.1828
 24
363.115508
 34
0.0
100
AcDbRotatedDimension
  0
LINE
  5
55A
330
70E
100
AcDbEntity
  8
PRO0
  6
Continuous
 62
     2
100
AcDbLine
 10
673.1832
 20
450.8152379999999
 30
0.0
 11
673.483207
 21
451.1152329999999
 31
0.0
  0
LINE
  5
55B
330
70E
100
AcDbEntity
  8
PRO0
  6
Continuous
 62
     2
100
AcDbLine
 10
673.483207
 20
451.1152329999999
 30
0.0
 11
673.183214
 21
451.4152379999999
 31
0.0
  0
LINE
  5
55C
330
70E
100
AcDbEntity
  8
PRO0
  6
Continuous
 62
     2
100
AcDbLine
 10
546.1828
 20
421.115508
 30
0.0
 11
626.1828
 21
421.115508
 31
0.0
  0
LINE
  5
55D
330
70E
100
AcDbEntity
  8
PRO0
  6
Continuous
 62
     2
100
AcDbLine
 10
626.1828
 20
361.115508
 30
0.0
 11
626.1828
 21
421.115508
 31
0.0
  0
ARC
  5
55E
330
70E
100
AcDbEntity
  8
PRO0
  6
Continuous
 62
     2
100
AcDbCircle
 10
621.4328
 20
432.365508
 30
0.0
 40
0.75
100
AcDbArc
 50
0.0
 51
180.0
  0
ARC
  5
55F
330
70E
100
AcDbEntity
  8
PRO0
  6
Continuous
 62
     2
100
AcDbCircle
 10
621.6828
 20
422.615508
 30
0.0
 40
0.5
100
AcDbArc
 50
270.0
 51
0.0
  0
LINE
  5
560
330
70E
100
AcDbEntity
  8
PRO0
  6
Continuous
 62
     2
100
AcDbLine
 10
622.1828
 20
432.365508
 30
0.0
 11
622.1828
 21
422.615508
 31
0.0
  0
LINE
  5
561
330
70E
100
AcDbEntity
  8
PRO0
  6
Continuous
 62
     2
100
AcDbLine
 10
620.6828
 20
422.615508
 30
0.0
 11
620.6828
 21
422.115508
 31
0.0
  0
LINE
  5
562
330
70E
100
AcDbEntity
  8
PRO0
  6
Continuous
 62
     2
100
AcDbLine
 10
620.6828
 20
432.365508
 30
0.0
 11
620.6828
 21
424.615508
 31
0.0
  0
ARC
  5
563
330
70E
100
AcDbEntity
  8
PRO0
  6
Continuous
 62
     2
100
AcDbCircle
 10
563.6828
 20
438.615508
 30
0.0
 40
1.0
100
AcDbArc
 50
90.0
 51
180.0
  0
LINE
  5
564
330
70E
100
AcDbEntity
  8
PRO0
  6
Continuous
 62
     2
100
AcDbLine
 10
562.6828
 20
438.115508
 30
0.0
 11
562.6828
 21
438.615508
 31
0.0
  0
ARC
  5
565
330
70E
100
AcDbEntity
  8
PRO0
  6
Continuous
 62
     2
100
AcDbCircle
 10
570.6828
 20
437.615508
 30
0.0
 40
0.5
100
AcDbArc
 50
0.0
 51
90.0
  0
LINE
  5
566
330
70E
100
AcDbEntity
  8
PRO0
  6
Continuous
 62
     2
100
AcDbLine
 10
562.6828
 20
438.115508
 30
0.0
 11
570.6828
 21
438.115508
 31
0.0
  0
LINE
  5
567
330
70E
100
AcDbEntity
  8
PRO0
  6
Continuous
 62
     2
100
AcDbLine
 10
571.1828
 20
422.115508
 30
0.0
 11
571.1828
 21
437.615508
 31
0.0
  0
ARC
  5
568
330
70E
100
AcDbEntity
  8
PRO0
  6
Continuous
 62
     2
100
AcDbCircle
 10
573.4828
 20
437.115508
 30
0.0
 40
0.5
100
AcDbArc
 50
90.0
 51
180.0
  0
LINE
  5
569
330
70E
100
AcDbEntity
  8
PRO0
  6
Continuous
 62
     2
100
AcDbLine
 10
582.1828
 20
437.615508
 30
0.0
 11
573.4828
 21
437.615508
 31
0.0
  0
ARC
  5
56A
330
70E
100
AcDbEntity
  8
PRO0
  6
Continuous
 62
     2
100
AcDbCircle
 10
582.1828
 20
438.615508
 30
0.0
 40
1.0
100
AcDbArc
 50
270.0
 51
0.0
  0
LINE
  5
56B
330
70E
100
AcDbEntity
  8
PRO0
  6
Continuous
 62
     2
100
AcDbLine
 10
583.1828
 20
439.615508
 30
0.0
 11
583.1828
 21
438.615508
 31
0.0
  0
LINE
  5
56C
330
70E
100
AcDbEntity
  8
PRO0
  6
Continuous
 62
     2
100
AcDbLine
 10
572.9828
 20
437.115508
 30
0.0
 11
572.9828
 21
424.615508
 31
0.0
  0
ARC
  5
56D
330
70E
100
AcDbEntity
  8
PRO0
  6
Continuous
 62
     2
100
AcDbCircle
 10
573.4828
 20
424.615508
 30
0.0
 40
0.5
100
AcDbArc
 50
180.0
 51
270.0
  0
ARC
  5
56E
330
70E
100
AcDbEntity
  8
PRO0
  6
Continuous
 62
     2
100
AcDbCircle
 10
620.1828
 20
424.615508
 30
0.0
 40
0.5
100
AcDbArc
 50
270.0
 51
0.0
  0
LINE
  5
56F
330
70E
100
AcDbEntity
  8
PRO0
  6
Continuous
 62
     2
100
AcDbLine
 10
573.4828
 20
424.115508
 30
0.0
 11
620.1828
 21
424.115508
 31
0.0
  0
LINE
  5
570
330
70E
100
AcDbEntity
  8
PRO0
  6
Continuous
 62
     2
100
AcDbLine
 10
571.1828
 20
422.115508
 30
0.0
 11
626.948365
 21
422.115508
 31
0.0
  0
LINE
  5
571
330
70E
100
AcDbEntity
  8
PRO0
  6
Continuous
 62
     2
100
AcDbLine
 10
587.1828
 20
422.615508
 30
0.0
 11
572.6828
 21
422.615508
 31
0.0
  0
LINE
  5
572
330
70E
100
AcDbEntity
  8
PRO0
  6
Continuous
 62
     2
100
AcDbLine
 10
587.1828
 20
422.615508
 30
0.0
 11
587.1828
 21
422.115508
 31
0.0
  0
LINE
  5
573
330
70E
100
AcDbEntity
  8
PRO0
  6
Continuous
 62
     2
100
AcDbLine
 10
605.1828
 20
422.615508
 30
0.0
 11
605.1828
 21
422.115508
 31
0.0
  0
LINE
  5
574
330
70E
100
AcDbEntity
  8
PRO0
  6
Continuous
 62
     2
100
AcDbLine
 10
605.1828
 20
422.615508
 30
0.0
 11
620.6828
 21
422.615508
 31
0.0
  0
LINE
  5
575
330
70E
100
AcDbEntity
  8
PRO0
  6
Continuous
 62
     2
100
AcDbLine
 10
572.6828
 20
422.615508
 30
0.0
 11
572.6828
 21
422.115508
 31
0.0
  0
LINE
  5
576
330
70E
100
AcDbEntity
  8
PRO0
  6
Continuous
 62
     2
100
AcDbLine
 10
571.1828
 20
421.115508
 30
0.0
 11
571.1828
 21
422.115508
 31
0.0
  0
LINE
  5
577
330
70E
100
AcDbEntity
  8
PRO0
  6
Continuous
 62
     2
100
AcDbLine
 10
596.1828
 20
423.815508
 30
0.0
 11
596.4827999999999
 21
424.115508
 31
0.0
  0
LINE
  5
578
330
70E
100
AcDbEntity
  8
PRO0
  6
Continuous
 62
     2
100
AcDbLine
 10
562.6828
 20
438.615508
 30
0.0
 11
562.6828
 21
438.115508
 31
0.0
  0
LINE
  5
579
330
70E
100
AcDbEntity
  8
PRO0
  6
PLINE3
 62
     3
100
AcDbLine
 10
651.1828
 20
441.115508
 30
0.0
 11
651.1828
 21
361.115508
 31
0.0
  0
LINE
  5
57A
330
70E
100
AcDbEntity
  8
PRO0
  6
Continuous
 62
     2
100
AcDbLine
 10
626.1828
 20
421.115508
 30
0.0
 11
636.70257
 21
382.201058
 31
0.0
  0
LINE
  5
57B
330
70E
100
AcDbEntity
  8
PRO0
  6
Continuous
 62
     2
100
AcDbLine
 10
637.667918
 20
382.4620209999999
 30
0.0
 11
626.948365
 21
422.115508
 31
0.0
  0
ARC
  5
57C
330
70E
100
AcDbEntity
  8
PRO0
  6
Continuous
 62
     2
100
AcDbCircle
 10
651.1828
 20
386.115508
 30
0.0
 40
14.0
100
AcDbArc
 50
195.127232
 51
344.44025
  0
ARC
  5
57D
330
70E
100
AcDbEntity
  8
PRO0
  6
Continuous
 62
     2
100
AcDbCircle
 10
651.1828
 20
386.115508
 30
0.0
 40
15.0
100
AcDbArc
 50
195.127232
 51
344.44025
  0
LINE
  5
57E
330
70E
100
AcDbEntity
  8
PRO0
  6
Continuous
 62
     2
100
AcDbLine
 10
596.1828
 20
423.815508
 30
0.0
 11
595.8827999999999
 21
424.115508
 31
0.0
  0
LINE
  5
57F
330
70E
100
AcDbEntity
  8
PRO0
  6
Continuous
 62
     2
100
AcDbLine
 10
591.8106650000001
 20
427.077007
 30
0.0
 11
591.6828
 21
425.615508
 31
0.0
  0
LINE
  5
580
330
70E
100
AcDbEntity
  8
PRO0
  6
Continuous
 62
     2
100
AcDbLine
 10
600.5549359999999
 20
427.077007
 30
0.0
 11
600.6828
 21
425.615508
 31
0.0
  0
ARC
  5
581
330
70E
100
AcDbEntity
  8
PRO0
  6
Continuous
 62
     2
100
AcDbCircle
 10
596.1828
 20
416.915508
 30
0.0
 40
12.0
100
AcDbArc
 50
74.50603199999999
 51
105.4939679999999
  0
ARC
  5
582
330
70E
100
AcDbEntity
  8
PRO0
  6
Continuous
 62
     2
100
AcDbCircle
 10
593.404576
 20
426.937557
 30
0.0
 40
1.6
100
AcDbArc
 50
105.4939679999999
 51
175.0
  0
ARC
  5
583
330
70E
100
AcDbEntity
  8
PRO0
  6
Continuous
 62
     2
100
AcDbCircle
 10
598.9610240000001
 20
426.937557
 30
0.0
 40
1.6
100
AcDbArc
 50
5.0
 51
74.50603199999999
  0
LINE
  5
584
330
70E
100
AcDbEntity
  8
PRO0
  6
PLINE2
 62
     3
100
AcDbLine
 10
591.1828
 20
421.115508
 30
0.0
 11
601.1828
 21
421.115508
 31
0.0
  0
LINE
  5
585
330
70E
100
AcDbEntity
  8
PRO0
  6
Continuous
 62
     2
100
AcDbLine
 10
587.1828
 20
425.615508
 30
0.0
 11
587.1828
 21
424.115508
 31
0.0
  0
LINE
  5
586
330
70E
100
AcDbEntity
  8
PRO0
  6
Continuous
 62
     2
100
AcDbLine
 10
587.1828
 20
425.615508
 30
0.0
 11
605.1828
 21
425.615508
 31
0.0
  0
LINE
  5
587
330
70E
100
AcDbEntity
  8
PRO0
  6
Continuous
 62
     2
100
AcDbLine
 10
605.1828
 20
425.615508
 30
0.0
 11
605.1828
 21
424.115508
 31
0.0
  0
LINE
  5
588
330
70E
100
AcDbEntity
  8
PRO0
  6
PLINE2
 62
     3
100
AcDbLine
 10
602.5014009999999
 20
405.9731089999999
 30
0.0
 11
603.4937559999999
 21
412.776731
 31
0.0
  0
ARC
  5
589
330
70E
100
AcDbEntity
  8
PRO0
  6
PLINE2
 62
     3
100
AcDbCircle
 10
603.0979440000001
 20
412.8344629999999
 30
0.0
 40
0.4
100
AcDbArc
 50
351.7015339999999
 51
81.86989799999999
  0
LINE
  5
58A
330
70E
100
AcDbEntity
  8
PRO0
  6
PLINE2
 62
     3
100
AcDbLine
 10
603.1545129999999
 20
413.230443
 30
0.0
 11
602.9576879999999
 21
413.2585609999999
 31
0.0
  0
ARC
  5
58B
330
70E
100
AcDbEntity
  8
PRO0
  6
PLINE2
 62
     3
100
AcDbCircle
 10
602.90112
 20
412.8625809999999
 30
0.0
 40
0.4
100
AcDbArc
 50
81.86989799999999
 51
171.869898
  0
LINE
  5
58C
330
70E
100
AcDbEntity
  8
PRO0
  6
PLINE2
 62
     3
100
AcDbLine
 10
602.5051399999999
 20
412.91915
 30
0.0
 11
601.5617079999999
 21
406.315129
 31
0.0
  0
LINE
  5
58D
330
70E
100
AcDbEntity
  8
PRO0
  6
PLINE2
 62
     3
100
AcDbLine
 10
602.5014009999999
 20
405.9731089999999
 30
0.0
 11
603.4937559999999
 21
412.776731
 31
0.0
  0
ARC
  5
58E
330
70E
100
AcDbEntity
  8
PRO0
  6
PLINE2
 62
     3
100
AcDbCircle
 10
603.0979440000001
 20
412.8344629999999
 30
0.0
 40
0.4
100
AcDbArc
 50
351.7015339999999
 51
81.86989799999999
  0
LINE
  5
58F
330
70E
100
AcDbEntity
  8
PRO0
  6
PLINE2
 62
     3
100
AcDbLine
 10
603.1545129999999
 20
413.230443
 30
0.0
 11
602.9576879999999
 21
413.2585609999999
 31
0.0
  0
ARC
  5
590
330
70E
100
AcDbEntity
  8
PRO0
  6
PLINE2
 62
     3
100
AcDbCircle
 10
602.90112
 20
412.8625809999999
 30
0.0
 40
0.4
100
AcDbArc
 50
81.86989799999999
 51
171.869898
  0
LINE
  5
591
330
70E
100
AcDbEntity
  8
PRO0
  6
PLINE2
 62
     3
100
AcDbLine
 10
602.5051399999999
 20
412.91915
 30
0.0
 11
601.5617079999999
 21
406.315129
 31
0.0
  0
LINE
  5
592
330
70E
100
AcDbEntity
  8
PRO0
  6
PLINE2
 62
     3
100
AcDbLine
 10
589.8641989999999
 20
405.9731089999999
 30
0.0
 11
588.8718439999999
 21
412.776731
 31
0.0
  0
ARC
  5
593
330
70E
100
AcDbEntity
  8
PRO0
  6
PLINE2
 62
     3
100
AcDbCircle
 10
589.2676559999999
 20
412.8344629999999
 30
0.0
 40
0.4
100
AcDbArc
 50
98.130102
 51
188.2984659999999
  0
LINE
  5
594
330
70E
100
AcDbEntity
  8
PRO0
  6
PLINE2
 62
     3
100
AcDbLine
 10
589.211088
 20
413.230443
 30
0.0
 11
589.4079119999999
 21
413.2585609999999
 31
0.0
  0
ARC
  5
595
330
70E
100
AcDbEntity
  8
PRO0
  6
PLINE2
 62
     3
100
AcDbCircle
 10
589.4644809999999
 20
412.8625809999999
 30
0.0
 40
0.4
100
AcDbArc
 50
8.130102
 51
98.130102
  0
LINE
  5
596
330
70E
100
AcDbEntity
  8
PRO0
  6
PLINE2
 62
     3
100
AcDbLine
 10
589.8604609999999
 20
412.91915
 30
0.0
 11
590.803892
 21
406.315129
 31
0.0
  0
LINE
  5
597
330
70E
100
AcDbEntity
  8
PRO0
  6
PLINE2
 62
     3
100
AcDbLine
 10
592.1828
 20
409.115508
 30
0.0
 11
592.1828
 21
413.115508
 31
0.0
  0
LINE
  5
598
330
70E
100
AcDbEntity
  8
PRO0
  6
PLINE2
 62
     3
100
AcDbLine
 10
594.165057
 20
384.155252
 30
0.0
 11
590.6698539999999
 21
384.338427
 31
0.0
  0
LINE
  5
599
330
70E
100
AcDbEntity
  8
PRO0
  6
PLINE2
 62
     3
100
AcDbLine
 10
590.6698539999999
 20
384.338427
 30
0.0
 11
592.562441
 21
382.2364959999999
 31
0.0
  0
LINE
  5
59A
330
70E
100
AcDbEntity
  8
PRO0
  6
PLINE2
 62
     3
100
AcDbLine
 10
592.562441
 20
382.2364959999999
 30
0.0
 11
594.060386
 21
382.1579919999999
 31
0.0
  0
LINE
  5
59B
330
70E
100
AcDbEntity
  8
PRO0
  6
PLINE2
 62
     3
100
AcDbLine
 10
594.060386
 20
382.1579919999999
 30
0.0
 11
595.6828
 21
413.115508
 31
0.0
  0
LINE
  5
59C
330
70E
100
AcDbEntity
  8
PRO0
  6
PLINE2
 62
     3
100
AcDbLine
 10
600.1828
 20
409.115508
 30
0.0
 11
600.1828
 21
413.115508
 31
0.0
  0
LINE
  5
59D
330
70E
100
AcDbEntity
  8
PRO0
  6
PLINE2
 62
     3
100
AcDbLine
 10
598.2005429999999
 20
384.155252
 30
0.0
 11
601.695746
 21
384.338427
 31
0.0
  0
LINE
  5
59E
330
70E
100
AcDbEntity
  8
PRO0
  6
PLINE2
 62
     3
100
AcDbLine
 10
601.695746
 20
384.338427
 30
0.0
 11
599.8031589999999
 21
382.2364959999999
 31
0.0
  0
LINE
  5
59F
330
70E
100
AcDbEntity
  8
PRO0
  6
PLINE2
 62
     3
100
AcDbLine
 10
599.8031589999999
 20
382.2364959999999
 30
0.0
 11
598.305215
 21
382.1579919999999
 31
0.0
  0
LINE
  5
5A0
330
70E
100
AcDbEntity
  8
PRO0
  6
PLINE2
 62
     3
100
AcDbLine
 10
598.305215
 20
382.1579919999999
 30
0.0
 11
596.6828
 21
413.115508
 31
0.0
  0
LINE
  5
5A1
330
70E
100
AcDbEntity
  8
PRO0
  6
PLINE2
 62
     3
100
AcDbLine
 10
592.6237429999999
 20
401.315129
 30
0.0
 11
590.803892
 21
406.315129
 31
0.0
  0
LINE
  5
5A2
330
70E
100
AcDbEntity
  8
PRO0
  6
PLINE2
 62
     3
100
AcDbLine
 10
591.559565
 20
401.315129
 30
0.0
 11
589.8641989999999
 21
405.9731089999999
 31
0.0
  0
LINE
  5
5A3
330
70E
100
AcDbEntity
  8
PRO0
  6
PLINE2
 62
     3
100
AcDbLine
 10
599.7418569999999
 20
401.315129
 30
0.0
 11
601.5617079999999
 21
406.315129
 31
0.0
  0
LINE
  5
5A4
330
70E
100
AcDbEntity
  8
PRO0
  6
PLINE2
 62
     3
100
AcDbLine
 10
600.806035
 20
401.315129
 30
0.0
 11
602.5014009999999
 21
405.9731089999999
 31
0.0
  0
LINE
  5
5A5
330
70E
100
AcDbEntity
  8
PRO0
  6
PLINE2
 62
     3
100
AcDbLine
 10
592.1828
 20
409.115508
 30
0.0
 11
593.923176
 21
408.200864
 31
0.0
  0
LINE
  5
5A6
330
70E
100
AcDbEntity
  8
PRO0
  6
PLINE2
 62
     3
100
AcDbLine
 10
594.3133559999999
 20
386.984952
 30
0.0
 11
596.1828
 21
385.115508
 31
0.0
  0
LINE
  5
5A7
330
70E
100
AcDbEntity
  8
PRO0
  6
PLINE2
 62
     3
100
AcDbLine
 10
593.923176
 20
408.200864
 30
0.0
 11
593.8185039999999
 21
406.2036049999999
 31
0.0
  0
LINE
  5
5A8
330
70E
100
AcDbEntity
  8
PRO0
  6
PLINE2
 62
     3
100
AcDbLine
 10
593.8185039999999
 20
406.2036049999999
 30
0.0
 11
591.8212449999999
 21
406.3082769999999
 31
0.0
  0
LINE
  5
5A9
330
70E
100
AcDbEntity
  8
PRO0
  6
PLINE2
 62
     3
100
AcDbLine
 10
591.8212449999999
 20
406.3082769999999
 30
0.0
 11
591.716573
 21
404.311018
 31
0.0
  0
LINE
  5
5AA
330
70E
100
AcDbEntity
  8
PRO0
  6
PLINE2
 62
     3
100
AcDbLine
 10
591.716573
 20
404.311018
 30
0.0
 11
593.6614959999999
 21
403.2077169999999
 31
0.0
  0
LINE
  5
5AB
330
70E
100
AcDbEntity
  8
PRO0
  6
PLINE2
 62
     3
100
AcDbLine
 10
593.6614959999999
 20
403.2077169999999
 30
0.0
 11
593.556824
 21
401.2104579999999
 31
0.0
  0
LINE
  5
5AC
330
70E
100
AcDbEntity
  8
PRO0
  6
PLINE2
 62
     3
100
AcDbLine
 10
593.556824
 20
401.2104579999999
 30
0.0
 11
591.559565
 21
401.315129
 31
0.0
  0
LINE
  5
5AD
330
70E
100
AcDbEntity
  8
PRO0
  6
PLINE2
 62
     3
100
AcDbLine
 10
591.559565
 20
401.315129
 30
0.0
 11
591.4548929999999
 21
399.31787
 31
0.0
  0
LINE
  5
5AE
330
70E
100
AcDbEntity
  8
PRO0
  6
PLINE2
 62
     3
100
AcDbLine
 10
591.4548929999999
 20
399.31787
 30
0.0
 11
593.3998169999999
 21
398.2145689999999
 31
0.0
  0
LINE
  5
5AF
330
70E
100
AcDbEntity
  8
PRO0
  6
PLINE2
 62
     3
100
AcDbLine
 10
593.3998169999999
 20
398.2145689999999
 30
0.0
 11
593.295145
 21
396.21731
 31
0.0
  0
LINE
  5
5B0
330
70E
100
AcDbEntity
  8
PRO0
  6
PLINE2
 62
     3
100
AcDbLine
 10
593.295145
 20
396.21731
 30
0.0
 11
591.297886
 21
396.3219819999999
 31
0.0
  0
LINE
  5
5B1
330
70E
100
AcDbEntity
  8
PRO0
  6
PLINE2
 62
     3
100
AcDbLine
 10
591.297886
 20
396.3219819999999
 30
0.0
 11
591.193214
 21
394.324723
 31
0.0
  0
LINE
  5
5B2
330
70E
100
AcDbEntity
  8
PRO0
  6
PLINE2
 62
     3
100
AcDbLine
 10
591.193214
 20
394.324723
 30
0.0
 11
593.138137
 21
393.221421
 31
0.0
  0
LINE
  5
5B3
330
70E
100
AcDbEntity
  8
PRO0
  6
PLINE2
 62
     3
100
AcDbLine
 10
593.138137
 20
393.221421
 30
0.0
 11
593.033465
 21
391.224162
 31
0.0
  0
LINE
  5
5B4
330
70E
100
AcDbEntity
  8
PRO0
  6
PLINE2
 62
     3
100
AcDbLine
 10
593.033465
 20
391.224162
 30
0.0
 11
591.0362059999999
 21
391.3288339999999
 31
0.0
  0
LINE
  5
5B5
330
70E
100
AcDbEntity
  8
PRO0
  6
PLINE2
 62
     3
100
AcDbLine
 10
591.0362059999999
 20
391.3288339999999
 30
0.0
 11
590.9315339999999
 21
389.3315749999999
 31
0.0
  0
LINE
  5
5B6
330
70E
100
AcDbEntity
  8
PRO0
  6
PLINE2
 62
     3
100
AcDbLine
 10
590.9315339999999
 20
389.3315749999999
 30
0.0
 11
592.8764570000001
 21
388.2282739999999
 31
0.0
  0
LINE
  5
5B7
330
70E
100
AcDbEntity
  8
PRO0
  6
PLINE2
 62
     3
100
AcDbLine
 10
592.8764570000001
 20
388.2282739999999
 30
0.0
 11
592.7717849999999
 21
386.231015
 31
0.0
  0
LINE
  5
5B8
330
70E
100
AcDbEntity
  8
PRO0
  6
PLINE2
 62
     3
100
AcDbLine
 10
592.7717849999999
 20
386.231015
 30
0.0
 11
590.7745259999999
 21
386.335686
 31
0.0
  0
LINE
  5
5B9
330
70E
100
AcDbEntity
  8
PRO0
  6
PLINE2
 62
     3
100
AcDbLine
 10
590.7745259999999
 20
386.335686
 30
0.0
 11
590.6698539999999
 21
384.338427
 31
0.0
  0
LINE
  5
5BA
330
70E
100
AcDbEntity
  8
PRO0
  6
PLINE2
 62
     3
100
AcDbLine
 10
600.1828
 20
409.115508
 30
0.0
 11
598.442424
 21
408.200864
 31
0.0
  0
LINE
  5
5BB
330
70E
100
AcDbEntity
  8
PRO0
  6
PLINE2
 62
     3
100
AcDbLine
 10
598.442424
 20
408.200864
 30
0.0
 11
598.547096
 21
406.2036049999999
 31
0.0
  0
LINE
  5
5BC
330
70E
100
AcDbEntity
  8
PRO0
  6
PLINE2
 62
     3
100
AcDbLine
 10
598.547096
 20
406.2036049999999
 30
0.0
 11
600.5443549999999
 21
406.3082769999999
 31
0.0
  0
LINE
  5
5BD
330
70E
100
AcDbEntity
  8
PRO0
  6
PLINE2
 62
     3
100
AcDbLine
 10
600.5443549999999
 20
406.3082769999999
 30
0.0
 11
600.6490269999999
 21
404.311018
 31
0.0
  0
LINE
  5
5BE
330
70E
100
AcDbEntity
  8
PRO0
  6
PLINE2
 62
     3
100
AcDbLine
 10
600.6490269999999
 20
404.311018
 30
0.0
 11
598.704104
 21
403.2077169999999
 31
0.0
  0
LINE
  5
5BF
330
70E
100
AcDbEntity
  8
PRO0
  6
PLINE2
 62
     3
100
AcDbLine
 10
598.704104
 20
403.2077169999999
 30
0.0
 11
598.8087759999999
 21
401.2104579999999
 31
0.0
  0
LINE
  5
5C0
330
70E
100
AcDbEntity
  8
PRO0
  6
PLINE2
 62
     3
100
AcDbLine
 10
598.8087759999999
 20
401.2104579999999
 30
0.0
 11
600.806035
 21
401.315129
 31
0.0
  0
LINE
  5
5C1
330
70E
100
AcDbEntity
  8
PRO0
  6
PLINE2
 62
     3
100
AcDbLine
 10
600.806035
 20
401.315129
 30
0.0
 11
600.9107069999999
 21
399.31787
 31
0.0
  0
LINE
  5
5C2
330
70E
100
AcDbEntity
  8
PRO0
  6
PLINE2
 62
     3
100
AcDbLine
 10
600.9107069999999
 20
399.31787
 30
0.0
 11
598.9657839999999
 21
398.2145689999999
 31
0.0
  0
LINE
  5
5C3
330
70E
100
AcDbEntity
  8
PRO0
  6
PLINE2
 62
     3
100
AcDbLine
 10
598.9657839999999
 20
398.2145689999999
 30
0.0
 11
599.0704559999999
 21
396.21731
 31
0.0
  0
LINE
  5
5C4
330
70E
100
AcDbEntity
  8
PRO0
  6
PLINE2
 62
     3
100
AcDbLine
 10
599.0704559999999
 20
396.21731
 30
0.0
 11
601.067715
 21
396.3219819999999
 31
0.0
  0
LINE
  5
5C5
330
70E
100
AcDbEntity
  8
PRO0
  6
PLINE2
 62
     3
100
AcDbLine
 10
601.067715
 20
396.3219819999999
 30
0.0
 11
601.1723869999999
 21
394.324723
 31
0.0
  0
LINE
  5
5C6
330
70E
100
AcDbEntity
  8
PRO0
  6
PLINE2
 62
     3
100
AcDbLine
 10
601.1723869999999
 20
394.324723
 30
0.0
 11
599.2274639999999
 21
393.221421
 31
0.0
  0
LINE
  5
5C7
330
70E
100
AcDbEntity
  8
PRO0
  6
PLINE2
 62
     3
100
AcDbLine
 10
599.2274639999999
 20
393.221421
 30
0.0
 11
599.332136
 21
391.224162
 31
0.0
  0
LINE
  5
5C8
330
70E
100
AcDbEntity
  8
PRO0
  6
PLINE2
 62
     3
100
AcDbLine
 10
599.332136
 20
391.224162
 30
0.0
 11
601.3293949999999
 21
391.3288339999999
 31
0.0
  0
LINE
  5
5C9
330
70E
100
AcDbEntity
  8
PRO0
  6
PLINE2
 62
     3
100
AcDbLine
 10
601.3293949999999
 20
391.3288339999999
 30
0.0
 11
601.434067
 21
389.3315749999999
 31
0.0
  0
LINE
  5
5CA
330
70E
100
AcDbEntity
  8
PRO0
  6
PLINE2
 62
     3
100
AcDbLine
 10
601.434067
 20
389.3315749999999
 30
0.0
 11
599.489143
 21
388.2282739999999
 31
0.0
  0
LINE
  5
5CB
330
70E
100
AcDbEntity
  8
PRO0
  6
PLINE2
 62
     3
100
AcDbLine
 10
599.489143
 20
388.2282739999999
 30
0.0
 11
599.593815
 21
386.231015
 31
0.0
  0
LINE
  5
5CC
330
70E
100
AcDbEntity
  8
PRO0
  6
PLINE2
 62
     3
100
AcDbLine
 10
599.593815
 20
386.231015
 30
0.0
 11
601.591074
 21
386.335686
 31
0.0
  0
LINE
  5
5CD
330
70E
100
AcDbEntity
  8
PRO0
  6
PLINE2
 62
     3
100
AcDbLine
 10
601.591074
 20
386.335686
 30
0.0
 11
601.695746
 21
384.338427
 31
0.0
  0
LINE
  5
5CE
330
70E
100
AcDbEntity
  8
PRO0
  6
PLINE2
 62
     3
100
AcDbLine
 10
595.6828
 20
413.115508
 30
0.0
 11
596.1828
 21
413.115508
 31
0.0
  0
LINE
  5
5CF
330
70E
100
AcDbEntity
  8
PRO0
  6
PLINE2
 62
     3
100
AcDbLine
 10
596.6828
 20
413.115508
 30
0.0
 11
596.1828
 21
413.115508
 31
0.0
  0
LINE
  5
5D0
330
70E
100
AcDbEntity
  8
PRO0
  6
Continuous
 62
     2
100
AcDbLine
 10
587.1828
 20
424.115508
 30
0.0
 11
605.1828
 21
424.115508
 31
0.0
  0
LINE
  5
5D1
330
70E
100
AcDbEntity
  8
PRO0
  6
PLINE2
 62
     3
100
AcDbLine
 10
592.1828
 20
421.115508
 30
0.0
 11
592.1828
 21
413.115508
 31
0.0
  0
LINE
  5
5D2
330
70E
100
AcDbEntity
  8
PRO0
  6
PLINE2
 62
     3
100
AcDbLine
 10
591.1828
 20
421.115508
 30
0.0
 11
592.1828
 21
416.115508
 31
0.0
  0
LINE
  5
5D3
330
70E
100
AcDbEntity
  8
PRO0
  6
PLINE2
 62
     3
100
AcDbLine
 10
595.1828
 20
421.115508
 30
0.0
 11
596.1828
 21
416.115508
 31
0.0
  0
LINE
  5
5D4
330
70E
100
AcDbEntity
  8
PRO0
  6
PLINE2
 62
     3
100
AcDbLine
 10
597.1828
 20
421.115508
 30
0.0
 11
596.1828
 21
416.115508
 31
0.0
  0
LINE
  5
5D5
330
70E
100
AcDbEntity
  8
PRO0
  6
PLINE2
 62
     3
100
AcDbLine
 10
596.1828
 20
416.115508
 30
0.0
 11
596.1828
 21
421.115508
 31
0.0
  0
LINE
  5
5D6
330
70E
100
AcDbEntity
  8
PRO0
  6
PLINE2
 62
     3
100
AcDbLine
 10
600.1828
 20
421.115508
 30
0.0
 11
600.1828
 21
413.115508
 31
0.0
  0
LINE
  5
5D7
330
70E
100
AcDbEntity
  8
PRO0
  6
PLINE2
 62
     3
100
AcDbLine
 10
601.1828
 20
421.115508
 30
0.0
 11
600.1828
 21
416.115508
 31
0.0
  0
LINE
  5
5D8
330
70E
100
AcDbEntity
  8
PRO0
  6
PLINE3
 62
     3
100
AcDbLine
 10
596.1828
 20
376.6039249999999
 30
0.0
 11
596.1828
 21
433.131013
 31
0.0
  0
LINE
  5
5D9
330
70E
100
AcDbEntity
  8
PRO0
  6
PLINE2
 62
     3
100
AcDbLine
 10
598.0522449999999
 20
386.984952
 30
0.0
 11
596.1828
 21
385.115508
 31
0.0
  0
ARC
  5
5DA
330
70E
100
AcDbEntity
  8
PRO0
  6
Continuous
 62
     2
100
AcDbCircle
 10
577.1828
 20
440.2321749999999
 30
0.0
 40
6.083333
100
AcDbArc
 50
53.831358
 51
126.1686419999999
  0
ARC
  5
5DB
330
70E
100
AcDbEntity
  8
PRO0
  6
Continuous
 62
     2
100
AcDbCircle
 10
580.1828
 20
444.335865
 30
0.0
 40
1.0
100
AcDbArc
 50
0.0
 51
53.831358
  0
ARC
  5
5DC
330
70E
100
AcDbEntity
  8
PRO0
  6
Continuous
 62
     2
100
AcDbCircle
 10
574.1828
 20
444.335865
 30
0.0
 40
1.0
100
AcDbArc
 50
126.1686419999999
 51
180.0
  0
LINE
  5
5DD
330
70E
100
AcDbEntity
  8
PRO0
  6
Continuous
 62
     2
100
AcDbLine
 10
571.1828
 20
442.565508
 30
0.0
 11
571.1828
 21
441.815508
 31
0.0
  0
ARC
  5
5DE
330
70E
100
AcDbEntity
  8
PRO0
  6
Continuous
 62
     2
100
AcDbCircle
 10
572.884551
 20
441.315537
 30
0.0
 40
2.0
100
AcDbArc
 50
89.999801
 51
125.0
  0
LINE
  5
5DF
330
70E
100
AcDbEntity
  8
PRO0
  6
Continuous
 62
     2
100
AcDbLine
 10
571.1828
 20
442.565508
 30
0.0
 11
571.7373980000001
 21
442.953841
 31
0.0
  0
LINE
  5
5E0
330
70E
100
AcDbEntity
  8
PRO0
  6
Continuous
 62
     2
100
AcDbLine
 10
571.1828
 20
442.565508
 30
0.0
 11
583.1828
 21
442.565508
 31
0.0
  0
LINE
  5
5E1
330
70E
100
AcDbEntity
  8
PRO0
  6
Continuous
 62
     2
100
AcDbLine
 10
571.1828
 20
441.815508
 30
0.0
 11
583.1828
 21
441.815508
 31
0.0
  0
LINE
  5
5E2
330
70E
100
AcDbEntity
  8
PRO0
  6
Continuous
 62
     2
100
AcDbLine
 10
583.1828
 20
442.565508
 30
0.0
 11
583.1828
 21
441.815508
 31
0.0
  0
LINE
  5
5E3
330
70E
100
AcDbEntity
  8
PRO0
  6
Continuous
 62
     2
100
AcDbLine
 10
572.1828
 20
441.815508
 30
0.0
 11
572.1828
 21
440.815508
 31
0.0
  0
LINE
  5
5E4
330
70E
100
AcDbEntity
  8
PRO0
  6
Continuous
 62
     2
100
AcDbLine
 10
572.1828
 20
440.815508
 30
0.0
 11
582.1828
 21
440.815508
 31
0.0
  0
LINE
  5
5E5
330
70E
100
AcDbEntity
  8
PRO0
  6
Continuous
 62
     2
100
AcDbLine
 10
582.1828
 20
441.815508
 30
0.0
 11
582.1828
 21
440.815508
 31
0.0
  0
LINE
  5
5E6
330
70E
100
AcDbEntity
  8
PRO0
  6
Continuous
 62
     3
100
AcDbLine
 10
575.304121
 20
440.815508
 30
0.0
 11
576.3041209999999
 21
441.815508
 31
0.0
  0
LINE
  5
5E7
330
70E
100
AcDbEntity
  8
PRO0
  6
Continuous
 62
     3
100
AcDbLine
 10
577.425441
 20
440.815508
 30
0.0
 11
578.4254409999999
 21
441.815508
 31
0.0
  0
LINE
  5
5E8
330
70E
100
AcDbEntity
  8
PRO0
  6
Continuous
 62
     3
100
AcDbLine
 10
579.5467610000001
 20
440.815508
 30
0.0
 11
580.546761
 21
441.815508
 31
0.0
  0
LINE
  5
5E9
330
70E
100
AcDbEntity
  8
PRO0
  6
Continuous
 62
     3
100
AcDbLine
 10
581.668082
 20
440.815508
 30
0.0
 11
582.1828
 21
441.3302269999999
 31
0.0
  0
LINE
  5
5EA
330
70E
100
AcDbEntity
  8
PRO0
  6
Continuous
 62
     3
100
AcDbLine
 10
573.1828
 20
440.815508
 30
0.0
 11
574.1828
 21
441.815508
 31
0.0
  0
LINE
  5
5EB
330
70E
100
AcDbEntity
  8
PRO0
  6
Continuous
 62
     3
100
AcDbLine
 10
577.1828
 20
433.41434
 30
0.0
 11
578.7827999999999
 21
433.4613199999999
 31
0.0
  0
LINE
  5
5EC
330
70E
100
AcDbEntity
  8
PRO0
  6
Continuous
 62
     3
100
AcDbLine
 10
577.1828
 20
433.41434
 30
0.0
 11
578.7827999999999
 21
434.3081009999999
 31
0.0
  0
LINE
  5
5ED
330
70E
100
AcDbEntity
  8
PRO0
  6
Continuous
 62
     3
100
AcDbLine
 10
575.5828
 20
436.283542
 30
0.0
 11
575.5828
 21
435.248841
 31
0.0
  0
LINE
  5
5EE
330
70E
100
AcDbEntity
  8
PRO0
  6
Continuous
 62
     3
100
AcDbLine
 10
575.5828
 20
434.402061
 30
0.0
 11
575.5828
 21
428.239268
 31
0.0
  0
LINE
  5
5EF
330
70E
100
AcDbEntity
  8
PRO0
  6
Continuous
 62
     3
100
AcDbLine
 10
578.7827999999999
 20
437.224283
 30
0.0
 11
578.7827999999999
 21
436.1895819999999
 31
0.0
  0
LINE
  5
5F0
330
70E
100
AcDbEntity
  8
PRO0
  6
Continuous
 62
     3
100
AcDbLine
 10
578.7827999999999
 20
435.3428019999999
 30
0.0
 11
578.7827999999999
 21
434.3081009999999
 31
0.0
  0
LINE
  5
5F1
330
70E
100
AcDbEntity
  8
PRO0
  6
Continuous
 62
     3
100
AcDbLine
 10
578.7827999999999
 20
433.4613199999999
 30
0.0
 11
578.7827999999999
 21
428.239268
 31
0.0
  0
LINE
  5
5F2
330
70E
100
AcDbEntity
  8
PRO0
  6
Continuous
 62
     3
100
AcDbLine
 10
575.5828
 20
438.1650239999999
 30
0.0
 11
575.5828
 21
437.130323
 31
0.0
  0
LINE
  5
5F3
330
70E
100
AcDbEntity
  8
PRO0
  6
Continuous
 62
     3
100
AcDbLine
 10
578.7827999999999
 20
438.071064
 30
0.0
 11
578.7827999999999
 21
439.105765
 31
0.0
  0
LINE
  5
5F4
330
70E
100
AcDbEntity
  8
PRO0
  6
Continuous
 62
     3
100
AcDbLine
 10
575.5828
 20
436.283542
 30
0.0
 11
578.7827999999999
 21
437.224283
 31
0.0
  0
LINE
  5
5F5
330
70E
100
AcDbEntity
  8
PRO0
  6
Continuous
 62
     3
100
AcDbLine
 10
575.5828
 20
437.130323
 30
0.0
 11
578.7827999999999
 21
438.071064
 31
0.0
  0
LINE
  5
5F6
330
70E
100
AcDbEntity
  8
PRO0
  6
Continuous
 62
     3
100
AcDbLine
 10
574.849467
 20
436.7069329999999
 30
0.0
 11
579.5161339999999
 21
437.647673
 31
0.0
  0
LINE
  5
5F7
330
70E
100
AcDbEntity
  8
PRO0
  6
Continuous
 62
     3
100
AcDbLine
 10
574.849467
 20
436.7069329999999
 30
0.0
 11
575.5828
 21
436.283542
 31
0.0
  0
LINE
  5
5F8
330
70E
100
AcDbEntity
  8
PRO0
  6
Continuous
 62
     3
100
AcDbLine
 10
574.849467
 20
436.7069329999999
 30
0.0
 11
575.5828
 21
437.130323
 31
0.0
  0
LINE
  5
5F9
330
70E
100
AcDbEntity
  8
PRO0
  6
Continuous
 62
     3
100
AcDbLine
 10
579.5161339999999
 20
437.647673
 30
0.0
 11
578.7827999999999
 21
437.224283
 31
0.0
  0
LINE
  5
5FA
330
70E
100
AcDbEntity
  8
PRO0
  6
Continuous
 62
     3
100
AcDbLine
 10
578.7827999999999
 20
438.071064
 30
0.0
 11
579.5161339999999
 21
437.647673
 31
0.0
  0
LINE
  5
5FB
330
70E
100
AcDbEntity
  8
PRO0
  6
Continuous
 62
     3
100
AcDbLine
 10
575.5828
 20
440.046505
 30
0.0
 11
575.5828
 21
439.0118039999999
 31
0.0
  0
LINE
  5
5FC
330
70E
100
AcDbEntity
  8
PRO0
  6
Continuous
 62
     3
100
AcDbLine
 10
578.7827999999999
 20
440.815508
 30
0.0
 11
578.7827999999999
 21
439.952545
 31
0.0
  0
LINE
  5
5FD
330
70E
100
AcDbEntity
  8
PRO0
  6
Continuous
 62
     3
100
AcDbLine
 10
575.5828
 20
438.1650239999999
 30
0.0
 11
578.7827999999999
 21
439.105765
 31
0.0
  0
LINE
  5
5FE
330
70E
100
AcDbEntity
  8
PRO0
  6
Continuous
 62
     3
100
AcDbLine
 10
575.5828
 20
439.0118039999999
 30
0.0
 11
578.7827999999999
 21
439.952545
 31
0.0
  0
LINE
  5
5FF
330
70E
100
AcDbEntity
  8
PRO0
  6
Continuous
 62
     3
100
AcDbLine
 10
574.849467
 20
438.5884139999999
 30
0.0
 11
579.5161339999999
 21
439.529155
 31
0.0
  0
LINE
  5
600
330
70E
100
AcDbEntity
  8
PRO0
  6
Continuous
 62
     3
100
AcDbLine
 10
574.849467
 20
438.5884139999999
 30
0.0
 11
575.5828
 21
438.1650239999999
 31
0.0
  0
LINE
  5
601
330
70E
100
AcDbEntity
  8
PRO0
  6
Continuous
 62
     3
100
AcDbLine
 10
574.849467
 20
438.5884139999999
 30
0.0
 11
575.5828
 21
439.0118039999999
 31
0.0
  0
LINE
  5
602
330
70E
100
AcDbEntity
  8
PRO0
  6
Continuous
 62
     3
100
AcDbLine
 10
579.5161339999999
 20
439.529155
 30
0.0
 11
578.7827999999999
 21
439.105765
 31
0.0
  0
LINE
  5
603
330
70E
100
AcDbEntity
  8
PRO0
  6
Continuous
 62
     3
100
AcDbLine
 10
578.7827999999999
 20
439.952545
 30
0.0
 11
579.5161339999999
 21
439.529155
 31
0.0
  0
LINE
  5
604
330
70E
100
AcDbEntity
  8
PRO0
  6
Continuous
 62
     3
100
AcDbLine
 10
578.19862
 20
440.815508
 30
0.0
 11
575.5828
 21
440.046505
 31
0.0
  0
LINE
  5
605
330
70E
100
AcDbEntity
  8
PRO0
  6
Continuous
 62
     3
100
AcDbLine
 10
576.5639219999999
 20
440.815508
 30
0.0
 11
574.849467
 21
440.469896
 31
0.0
  0
LINE
  5
606
330
70E
100
AcDbEntity
  8
PRO0
  6
Continuous
 62
     3
100
AcDbLine
 10
574.849467
 20
440.469896
 30
0.0
 11
575.5828
 21
440.046505
 31
0.0
  0
LINE
  5
607
330
70E
100
AcDbEntity
  8
PRO0
  6
Continuous
 62
     3
100
AcDbLine
 10
575.448085
 20
440.815508
 30
0.0
 11
574.849467
 21
440.469896
 31
0.0
  0
LINE
  5
608
330
70E
100
AcDbEntity
  8
PRO0
  6
Continuous
 62
     2
100
AcDbLine
 10
573.1828
 20
444.335865
 30
0.0
 11
573.1828
 21
443.315508
 31
0.0
  0
ARC
  5
609
330
70E
100
AcDbEntity
  8
PRO0
  6
Continuous
 62
     2
100
AcDbCircle
 10
581.481092
 20
441.315508
 30
0.0
 40
2.0
100
AcDbArc
 50
55.0
 51
89.999801
  0
LINE
  5
60A
330
70E
100
AcDbEntity
  8
PRO0
  6
Continuous
 62
     2
100
AcDbLine
 10
572.8845579999999
 20
443.315537
 30
0.0
 11
581.4810989999999
 21
443.315508
 31
0.0
  0
LINE
  5
60B
330
70E
100
AcDbEntity
  8
PRO0
  6
Continuous
 62
     2
100
AcDbLine
 10
581.1828
 20
444.335865
 30
0.0
 11
581.1828
 21
443.315508
 31
0.0
  0
LINE
  5
60C
330
70E
100
AcDbEntity
  8
PRO0
  6
PLINE3
 62
     3
100
AcDbLine
 10
577.1828
 20
449.609375
 30
0.0
 11
577.1828
 21
423.846422
 31
0.0
  0
LINE
  5
60D
330
70E
100
AcDbEntity
  8
PRO0
  6
Continuous
 62
     3
100
AcDbLine
 10
577.1828
 20
429.351749
 30
0.0
 11
577.1828
 21
427.315508
 31
0.0
  0
LINE
  5
60E
330
70E
100
AcDbEntity
  8
PRO0
  6
Continuous
 62
     3
100
AcDbLine
 10
578.7827999999999
 20
432.9155079999999
 30
0.0
 11
575.582815
 21
432.9155079999999
 31
0.0
  0
LINE
  5
60F
330
70E
100
AcDbEntity
  8
PRO0
  6
Continuous
 62
     3
100
AcDbLine
 10
577.1828
 20
427.315508
 30
0.0
 11
575.582801
 21
428.239268
 31
0.0
  0
LINE
  5
610
330
70E
100
AcDbEntity
  8
PRO0
  6
Continuous
 62
     3
100
AcDbLine
 10
577.1828
 20
427.315508
 30
0.0
 11
578.7827999999999
 21
428.239268
 31
0.0
  0
ARC
  5
611
330
70E
100
AcDbEntity
  8
PRO0
  6
Continuous
 62
     3
100
AcDbCircle
 10
577.2078579999999
 20
427.5508379999999
 30
0.0
 40
1.764847999999999
100
AcDbArc
 50
90.813543
 51
157.040875
  0
ARC
  5
612
330
70E
100
AcDbEntity
  8
PRO0
  6
Continuous
 62
     3
100
AcDbCircle
 10
583.215212
 20
428.789992
 30
0.0
 40
6.055258999999999
100
AcDbArc
 50
137.0538
 51
175.0212219999999
  0
LINE
  5
613
330
70E
100
AcDbEntity
  8
PRO0
  6
Continuous
 62
     3
100
AcDbLine
 10
575.5828
 20
434.402061
 30
0.0
 11
578.7827999999999
 21
435.3428019999999
 31
0.0
  0
LINE
  5
614
330
70E
100
AcDbEntity
  8
PRO0
  6
Continuous
 62
     3
100
AcDbLine
 10
575.5828
 20
435.248841
 30
0.0
 11
578.7827999999999
 21
436.1895819999999
 31
0.0
  0
LINE
  5
615
330
70E
100
AcDbEntity
  8
PRO0
  6
Continuous
 62
     3
100
AcDbLine
 10
574.849467
 20
434.825451
 30
0.0
 11
579.5161339999999
 21
435.7661919999999
 31
0.0
  0
LINE
  5
616
330
70E
100
AcDbEntity
  8
PRO0
  6
Continuous
 62
     3
100
AcDbLine
 10
574.849467
 20
434.825451
 30
0.0
 11
575.5828
 21
434.402061
 31
0.0
  0
LINE
  5
617
330
70E
100
AcDbEntity
  8
PRO0
  6
Continuous
 62
     3
100
AcDbLine
 10
574.849467
 20
434.825451
 30
0.0
 11
575.5828
 21
435.248841
 31
0.0
  0
LINE
  5
618
330
70E
100
AcDbEntity
  8
PRO0
  6
Continuous
 62
     3
100
AcDbLine
 10
579.5161339999999
 20
435.7661919999999
 30
0.0
 11
578.7827999999999
 21
435.3428019999999
 31
0.0
  0
LINE
  5
619
330
70E
100
AcDbEntity
  8
PRO0
  6
Continuous
 62
     3
100
AcDbLine
 10
578.7827999999999
 20
436.1895819999999
 30
0.0
 11
579.5161339999999
 21
435.7661919999999
 31
0.0
  0
LINE
  5
61A
330
70E
100
AcDbEntity
  8
PRO0
  6
Continuous
 62
     3
100
AcDbLine
 10
577.1828
 20
433.41434
 30
0.0
 11
579.5161339999999
 21
433.8847099999999
 31
0.0
  0
LINE
  5
61B
330
70E
100
AcDbEntity
  8
PRO0
  6
Continuous
 62
     3
100
AcDbLine
 10
579.5161339999999
 20
433.8847099999999
 30
0.0
 11
578.7827999999999
 21
433.4613199999999
 31
0.0
  0
LINE
  5
61C
330
70E
100
AcDbEntity
  8
PRO0
  6
Continuous
 62
     3
100
AcDbLine
 10
578.7827999999999
 20
434.3081009999999
 30
0.0
 11
579.5161339999999
 21
433.8847099999999
 31
0.0
  0
LINE
  5
61D
330
70E
100
AcDbEntity
  8
PRO0
  6
Continuous
 62
     2
100
AcDbLine
 10
583.1828
 20
442.565508
 30
0.0
 11
582.6282449999999
 21
442.953812
 31
0.0
  0
ARC
  5
61E
330
70E
100
AcDbEntity
  8
PRO0
  6
Continuous
 62
     2
100
AcDbCircle
 10
657.0664739999999
 20
470.315138
 30
0.0
 40
6.083333
100
AcDbArc
 50
143.8313579999999
 51
216.168642
  0
ARC
  5
61F
330
70E
100
AcDbEntity
  8
PRO0
  6
Continuous
 62
     2
100
AcDbCircle
 10
652.962783
 20
473.3151379999999
 30
0.0
 40
1.0
100
AcDbArc
 50
90.0
 51
143.8313579999999
  0
ARC
  5
620
330
70E
100
AcDbEntity
  8
PRO0
  6
Continuous
 62
     2
100
AcDbCircle
 10
652.962783
 20
467.315138
 30
0.0
 40
1.0
100
AcDbArc
 50
216.168642
 51
270.0
  0
LINE
  5
621
330
70E
100
AcDbEntity
  8
PRO0
  6
Continuous
 62
     2
100
AcDbLine
 10
654.733141
 20
464.3151379999999
 30
0.0
 11
655.483141
 21
464.3151379999999
 31
0.0
  0
ARC
  5
622
330
70E
100
AcDbEntity
  8
PRO0
  6
Continuous
 62
     2
100
AcDbCircle
 10
655.9831159999999
 20
466.016881
 30
0.0
 40
2.0
100
AcDbArc
 50
179.999833
 51
215.0
  0
LINE
  5
623
330
70E
100
AcDbEntity
  8
PRO0
  6
Continuous
 62
     2
100
AcDbLine
 10
654.733141
 20
464.3151379999999
 30
0.0
 11
654.344812
 21
464.869728
 31
0.0
  0
LINE
  5
624
330
70E
100
AcDbEntity
  8
PRO0
  6
Continuous
 62
     2
100
AcDbLine
 10
654.733141
 20
464.3151379999999
 30
0.0
 11
654.733141
 21
476.315138
 31
0.0
  0
LINE
  5
625
330
70E
100
AcDbEntity
  8
PRO0
  6
Continuous
 62
     2
100
AcDbLine
 10
655.483141
 20
464.3151379999999
 30
0.0
 11
655.483141
 21
476.315138
 31
0.0
  0
LINE
  5
626
330
70E
100
AcDbEntity
  8
PRO0
  6
Continuous
 62
     2
100
AcDbLine
 10
654.733141
 20
476.315138
 30
0.0
 11
655.483141
 21
476.315138
 31
0.0
  0
LINE
  5
627
330
70E
100
AcDbEntity
  8
PRO0
  6
Continuous
 62
     2
100
AcDbLine
 10
655.483141
 20
465.3151379999999
 30
0.0
 11
656.483141
 21
465.3151379999999
 31
0.0
  0
LINE
  5
628
330
70E
100
AcDbEntity
  8
PRO0
  6
Continuous
 62
     2
100
AcDbLine
 10
656.483141
 20
465.3151379999999
 30
0.0
 11
656.483141
 21
475.315138
 31
0.0
  0
LINE
  5
629
330
70E
100
AcDbEntity
  8
PRO0
  6
Continuous
 62
     2
100
AcDbLine
 10
655.483141
 20
475.315138
 30
0.0
 11
656.483141
 21
475.315138
 31
0.0
  0
LINE
  5
62A
330
70E
100
AcDbEntity
  8
PRO0
  6
Continuous
 62
     3
100
AcDbLine
 10
655.483141
 20
469.557778
 30
0.0
 11
656.483141
 21
470.557778
 31
0.0
  0
LINE
  5
62B
330
70E
100
AcDbEntity
  8
PRO0
  6
Continuous
 62
     3
100
AcDbLine
 10
655.483141
 20
467.436458
 30
0.0
 11
656.483141
 21
468.436458
 31
0.0
  0
LINE
  5
62C
330
70E
100
AcDbEntity
  8
PRO0
  6
Continuous
 62
     3
100
AcDbLine
 10
655.4864519999999
 20
465.3151379999999
 30
0.0
 11
656.483141
 21
466.311819
 31
0.0
  0
LINE
  5
62D
330
70E
100
AcDbEntity
  8
PRO0
  6
Continuous
 62
     3
100
AcDbLine
 10
655.483141
 20
471.6790989999999
 30
0.0
 11
656.483141
 21
472.679099
 31
0.0
  0
LINE
  5
62E
330
70E
100
AcDbEntity
  8
PRO0
  6
Continuous
 62
     3
100
AcDbLine
 10
655.483141
 20
473.800419
 30
0.0
 11
656.483141
 21
474.800419
 31
0.0
  0
LINE
  5
62F
330
70E
100
AcDbEntity
  8
PRO0
  6
Continuous
 62
     3
100
AcDbLine
 10
663.884309
 20
470.315138
 30
0.0
 11
663.8373289999999
 21
471.915138
 31
0.0
  0
LINE
  5
630
330
70E
100
AcDbEntity
  8
PRO0
  6
Continuous
 62
     3
100
AcDbLine
 10
663.884309
 20
470.315138
 30
0.0
 11
662.9905479999999
 21
471.915138
 31
0.0
  0
LINE
  5
631
330
70E
100
AcDbEntity
  8
PRO0
  6
Continuous
 62
     3
100
AcDbLine
 10
661.0151059999999
 20
468.7151379999999
 30
0.0
 11
662.049807
 21
468.7151379999999
 31
0.0
  0
LINE
  5
632
330
70E
100
AcDbEntity
  8
PRO0
  6
Continuous
 62
     3
100
AcDbLine
 10
662.8965879999999
 20
468.7151379999999
 30
0.0
 11
669.05938
 21
468.7151379999999
 31
0.0
  0
LINE
  5
633
330
70E
100
AcDbEntity
  8
PRO0
  6
Continuous
 62
     3
100
AcDbLine
 10
660.074366
 20
471.915138
 30
0.0
 11
661.109067
 21
471.915138
 31
0.0
  0
LINE
  5
634
330
70E
100
AcDbEntity
  8
PRO0
  6
Continuous
 62
     3
100
AcDbLine
 10
661.9558469999999
 20
471.915138
 30
0.0
 11
662.9905479999999
 21
471.915138
 31
0.0
  0
LINE
  5
635
330
70E
100
AcDbEntity
  8
PRO0
  6
Continuous
 62
     3
100
AcDbLine
 10
663.8373289999999
 20
471.915138
 30
0.0
 11
669.05938
 21
471.915138
 31
0.0
  0
LINE
  5
636
330
70E
100
AcDbEntity
  8
PRO0
  6
Continuous
 62
     3
100
AcDbLine
 10
659.133625
 20
468.7151379999999
 30
0.0
 11
660.1683259999999
 21
468.7151379999999
 31
0.0
  0
LINE
  5
637
330
70E
100
AcDbEntity
  8
PRO0
  6
Continuous
 62
     3
100
AcDbLine
 10
659.227585
 20
471.915138
 30
0.0
 11
658.1928839999999
 21
471.915138
 31
0.0
  0
LINE
  5
638
330
70E
100
AcDbEntity
  8
PRO0
  6
Continuous
 62
     3
100
AcDbLine
 10
661.0151059999999
 20
468.7151379999999
 30
0.0
 11
660.074366
 21
471.915138
 31
0.0
  0
LINE
  5
639
330
70E
100
AcDbEntity
  8
PRO0
  6
Continuous
 62
     3
100
AcDbLine
 10
660.1683259999999
 20
468.7151379999999
 30
0.0
 11
659.227585
 21
471.915138
 31
0.0
  0
LINE
  5
63A
330
70E
100
AcDbEntity
  8
PRO0
  6
Continuous
 62
     3
100
AcDbLine
 10
660.591716
 20
467.9818039999999
 30
0.0
 11
659.650975
 21
472.648471
 31
0.0
  0
LINE
  5
63B
330
70E
100
AcDbEntity
  8
PRO0
  6
Continuous
 62
     3
100
AcDbLine
 10
660.591716
 20
467.9818039999999
 30
0.0
 11
661.0151059999999
 21
468.7151379999999
 31
0.0
  0
LINE
  5
63C
330
70E
100
AcDbEntity
  8
PRO0
  6
Continuous
 62
     3
100
AcDbLine
 10
660.591716
 20
467.9818039999999
 30
0.0
 11
660.1683259999999
 21
468.7151379999999
 31
0.0
  0
LINE
  5
63D
330
70E
100
AcDbEntity
  8
PRO0
  6
Continuous
 62
     3
100
AcDbLine
 10
659.650975
 20
472.648471
 30
0.0
 11
660.074366
 21
471.915138
 31
0.0
  0
LINE
  5
63E
330
70E
100
AcDbEntity
  8
PRO0
  6
Continuous
 62
     3
100
AcDbLine
 10
659.227585
 20
471.915138
 30
0.0
 11
659.650975
 21
472.648471
 31
0.0
  0
LINE
  5
63F
330
70E
100
AcDbEntity
  8
PRO0
  6
Continuous
 62
     3
100
AcDbLine
 10
657.2521429999999
 20
468.7151379999999
 30
0.0
 11
658.2868440000001
 21
468.7151379999999
 31
0.0
  0
LINE
  5
640
330
70E
100
AcDbEntity
  8
PRO0
  6
Continuous
 62
     3
100
AcDbLine
 10
656.483141
 20
471.915138
 30
0.0
 11
657.3461039999999
 21
471.915138
 31
0.0
  0
LINE
  5
641
330
70E
100
AcDbEntity
  8
PRO0
  6
Continuous
 62
     3
100
AcDbLine
 10
659.133625
 20
468.7151379999999
 30
0.0
 11
658.1928839999999
 21
471.915138
 31
0.0
  0
LINE
  5
642
330
70E
100
AcDbEntity
  8
PRO0
  6
Continuous
 62
     3
100
AcDbLine
 10
658.2868440000001
 20
468.7151379999999
 30
0.0
 11
657.3461039999999
 21
471.915138
 31
0.0
  0
LINE
  5
643
330
70E
100
AcDbEntity
  8
PRO0
  6
Continuous
 62
     3
100
AcDbLine
 10
658.710235
 20
467.9818039999999
 30
0.0
 11
657.769494
 21
472.648471
 31
0.0
  0
LINE
  5
644
330
70E
100
AcDbEntity
  8
PRO0
  6
Continuous
 62
     3
100
AcDbLine
 10
658.710235
 20
467.9818039999999
 30
0.0
 11
659.133625
 21
468.7151379999999
 31
0.0
  0
LINE
  5
645
330
70E
100
AcDbEntity
  8
PRO0
  6
Continuous
 62
     3
100
AcDbLine
 10
658.710235
 20
467.9818039999999
 30
0.0
 11
658.2868440000001
 21
468.7151379999999
 31
0.0
  0
LINE
  5
646
330
70E
100
AcDbEntity
  8
PRO0
  6
Continuous
 62
     3
100
AcDbLine
 10
657.769494
 20
472.648471
 30
0.0
 11
658.1928839999999
 21
471.915138
 31
0.0
  0
LINE
  5
647
330
70E
100
AcDbEntity
  8
PRO0
  6
Continuous
 62
     3
100
AcDbLine
 10
657.3461039999999
 20
471.915138
 30
0.0
 11
657.769494
 21
472.648471
 31
0.0
  0
LINE
  5
648
330
70E
100
AcDbEntity
  8
PRO0
  6
Continuous
 62
     3
100
AcDbLine
 10
656.483141
 20
471.3309579999999
 30
0.0
 11
657.2521429999999
 21
468.7151379999999
 31
0.0
  0
LINE
  5
649
330
70E
100
AcDbEntity
  8
PRO0
  6
Continuous
 62
     3
100
AcDbLine
 10
656.483141
 20
469.6962599999999
 30
0.0
 11
656.828753
 21
467.9818039999999
 31
0.0
  0
LINE
  5
64A
330
70E
100
AcDbEntity
  8
PRO0
  6
Continuous
 62
     3
100
AcDbLine
 10
656.828753
 20
467.9818039999999
 30
0.0
 11
657.2521429999999
 21
468.7151379999999
 31
0.0
  0
LINE
  5
64B
330
70E
100
AcDbEntity
  8
PRO0
  6
Continuous
 62
     3
100
AcDbLine
 10
656.483141
 20
468.580423
 30
0.0
 11
656.828753
 21
467.9818039999999
 31
0.0
  0
LINE
  5
64C
330
70E
100
AcDbEntity
  8
PRO0
  6
Continuous
 62
     2
100
AcDbLine
 10
652.962783
 20
466.315138
 30
0.0
 11
653.983141
 21
466.315138
 31
0.0
  0
ARC
  5
64D
330
70E
100
AcDbEntity
  8
PRO0
  6
Continuous
 62
     2
100
AcDbCircle
 10
655.9831410000001
 20
474.61343
 30
0.0
 40
2.0
100
AcDbArc
 50
145.0
 51
179.999833
  0
LINE
  5
64E
330
70E
100
AcDbEntity
  8
PRO0
  6
Continuous
 62
     2
100
AcDbLine
 10
653.983116
 20
466.0168869999999
 30
0.0
 11
653.983141
 21
474.613436
 31
0.0
  0
LINE
  5
64F
330
70E
100
AcDbEntity
  8
PRO0
  6
Continuous
 62
     2
100
AcDbLine
 10
652.962783
 20
474.3151379999999
 30
0.0
 11
653.983141
 21
474.3151379999999
 31
0.0
  0
LINE
  5
650
330
70E
100
AcDbEntity
  8
PRO0
  6
PLINE3
 62
     3
100
AcDbLine
 10
647.989274
 20
470.315138
 30
0.0
 11
673.452227
 21
470.315138
 31
0.0
  0
LINE
  5
651
330
70E
100
AcDbEntity
  8
PRO0
  6
Continuous
 62
     3
100
AcDbLine
 10
667.9469
 20
470.315138
 30
0.0
 11
669.983141
 21
470.315138
 31
0.0
  0
LINE
  5
652
330
70E
100
AcDbEntity
  8
PRO0
  6
Continuous
 62
     3
100
AcDbLine
 10
664.383141
 20
471.915138
 30
0.0
 11
664.383141
 21
468.715153
 31
0.0
  0
LINE
  5
653
330
70E
100
AcDbEntity
  8
PRO0
  6
Continuous
 62
     3
100
AcDbLine
 10
669.983141
 20
470.315138
 30
0.0
 11
669.0593809999999
 21
468.7151379999999
 31
0.0
  0
LINE
  5
654
330
70E
100
AcDbEntity
  8
PRO0
  6
Continuous
 62
     3
100
AcDbLine
 10
669.983141
 20
470.315138
 30
0.0
 11
669.05938
 21
471.915138
 31
0.0
  0
ARC
  5
655
330
70E
100
AcDbEntity
  8
PRO0
  6
Continuous
 62
     3
100
AcDbCircle
 10
669.747811
 20
470.3401959999999
 30
0.0
 40
1.764847999999999
100
AcDbArc
 50
180.8135429999999
 51
247.040875
  0
ARC
  5
656
330
70E
100
AcDbEntity
  8
PRO0
  6
Continuous
 62
     3
100
AcDbCircle
 10
668.5086570000001
 20
476.347549
 30
0.0
 40
6.055258999999999
100
AcDbArc
 50
227.0538
 51
265.021222
  0
LINE
  5
657
330
70E
100
AcDbEntity
  8
PRO0
  6
Continuous
 62
     3
100
AcDbLine
 10
662.8965879999999
 20
468.7151379999999
 30
0.0
 11
661.9558469999999
 21
471.915138
 31
0.0
  0
LINE
  5
658
330
70E
100
AcDbEntity
  8
PRO0
  6
Continuous
 62
     3
100
AcDbLine
 10
662.049807
 20
468.7151379999999
 30
0.0
 11
661.109067
 21
471.915138
 31
0.0
  0
LINE
  5
659
330
70E
100
AcDbEntity
  8
PRO0
  6
Continuous
 62
     3
100
AcDbLine
 10
662.4731979999999
 20
467.9818039999999
 30
0.0
 11
661.532457
 21
472.648471
 31
0.0
  0
LINE
  5
65A
330
70E
100
AcDbEntity
  8
PRO0
  6
Continuous
 62
     3
100
AcDbLine
 10
662.4731979999999
 20
467.9818039999999
 30
0.0
 11
662.8965879999999
 21
468.7151379999999
 31
0.0
  0
LINE
  5
65B
330
70E
100
AcDbEntity
  8
PRO0
  6
Continuous
 62
     3
100
AcDbLine
 10
662.4731979999999
 20
467.9818039999999
 30
0.0
 11
662.049807
 21
468.7151379999999
 31
0.0
  0
LINE
  5
65C
330
70E
100
AcDbEntity
  8
PRO0
  6
Continuous
 62
     3
100
AcDbLine
 10
661.532457
 20
472.648471
 30
0.0
 11
661.9558469999999
 21
471.915138
 31
0.0
  0
LINE
  5
65D
330
70E
100
AcDbEntity
  8
PRO0
  6
Continuous
 62
     3
100
AcDbLine
 10
661.109067
 20
471.915138
 30
0.0
 11
661.532457
 21
472.648471
 31
0.0
  0
LINE
  5
65E
330
70E
100
AcDbEntity
  8
PRO0
  6
Continuous
 62
     3
100
AcDbLine
 10
663.884309
 20
470.315138
 30
0.0
 11
663.413938
 21
472.648471
 31
0.0
  0
LINE
  5
65F
330
70E
100
AcDbEntity
  8
PRO0
  6
Continuous
 62
     3
100
AcDbLine
 10
663.413938
 20
472.648471
 30
0.0
 11
663.8373289999999
 21
471.915138
 31
0.0
  0
LINE
  5
660
330
70E
100
AcDbEntity
  8
PRO0
  6
Continuous
 62
     3
100
AcDbLine
 10
662.9905479999999
 20
471.915138
 30
0.0
 11
663.413938
 21
472.648471
 31
0.0
  0
LINE
  5
661
330
70E
100
AcDbEntity
  8
PRO0
  6
Continuous
 62
     2
100
AcDbLine
 10
654.733141
 20
476.315138
 30
0.0
 11
654.344837
 21
475.760583
 31
0.0
  0
LINE
  5
662
330
70E
100
AcDbEntity
  8
PRO0
  6
Continuous
 62
     2
100
AcDbLine
 10
670.2213019999999
 20
446.7430019999999
 30
0.0
 11
671.6828
 21
446.615138
 31
0.0
  0
LINE
  5
663
330
70E
100
AcDbEntity
  8
PRO0
  6
Continuous
 62
     2
100
AcDbLine
 10
670.2213019999999
 20
455.487273
 30
0.0
 11
671.6828
 21
455.615138
 31
0.0
  0
ARC
  5
664
330
70E
100
AcDbEntity
  8
PRO0
  6
Continuous
 62
     2
100
AcDbCircle
 10
680.3828
 20
451.115138
 30
0.0
 40
12.0
100
AcDbArc
 50
164.5060319999999
 51
195.493968
  0
ARC
  5
665
330
70E
100
AcDbEntity
  8
PRO0
  6
Continuous
 62
     2
100
AcDbCircle
 10
670.3607509999999
 20
448.3369139999999
 30
0.0
 40
1.6
100
AcDbArc
 50
195.493968
 51
265.0
  0
ARC
  5
666
330
70E
100
AcDbEntity
  8
PRO0
  6
Continuous
 62
     2
100
AcDbCircle
 10
670.3607509999999
 20
453.893362
 30
0.0
 40
1.6
100
AcDbArc
 50
95.0
 51
164.5060319999999
  0
LINE
  5
667
330
70E
100
AcDbEntity
  8
PRO0
  6
PLINE2
 62
     3
100
AcDbLine
 10
676.1828
 20
446.115138
 30
0.0
 11
676.1828
 21
456.115138
 31
0.0
  0
LINE
  5
668
330
70E
100
AcDbEntity
  8
PRO0
  6
Continuous
 62
     2
100
AcDbLine
 10
671.6828
 20
442.115138
 30
0.0
 11
673.1828
 21
442.115138
 31
0.0
  0
LINE
  5
669
330
70E
100
AcDbEntity
  8
PRO0
  6
Continuous
 62
     2
100
AcDbLine
 10
671.6828
 20
442.115138
 30
0.0
 11
671.6828
 21
460.115138
 31
0.0
  0
LINE
  5
66A
330
70E
100
AcDbEntity
  8
PRO0
  6
Continuous
 62
     2
100
AcDbLine
 10
671.6828
 20
460.115138
 30
0.0
 11
673.1828
 21
460.115138
 31
0.0
  0
LINE
  5
66B
330
70E
100
AcDbEntity
  8
PRO0
  6
PLINE2
 62
     3
100
AcDbLine
 10
691.325199
 20
457.4337389999999
 30
0.0
 11
684.521577
 21
458.426094
 31
0.0
  0
ARC
  5
66C
330
70E
100
AcDbEntity
  8
PRO0
  6
PLINE2
 62
     3
100
AcDbCircle
 10
684.4638449999999
 20
458.030282
 30
0.0
 40
0.4
100
AcDbArc
 50
81.701534
 51
171.869898
  0
LINE
  5
66D
330
70E
100
AcDbEntity
  8
PRO0
  6
PLINE2
 62
     3
100
AcDbLine
 10
684.067865
 20
458.08685
 30
0.0
 11
684.0397469999999
 21
457.890026
 31
0.0
  0
ARC
  5
66E
330
70E
100
AcDbEntity
  8
PRO0
  6
PLINE2
 62
     3
100
AcDbCircle
 10
684.4357269999999
 20
457.8334569999999
 30
0.0
 40
0.4
100
AcDbArc
 50
171.869898
 51
261.869898
  0
LINE
  5
66F
330
70E
100
AcDbEntity
  8
PRO0
  6
PLINE2
 62
     3
100
AcDbLine
 10
684.3791589999999
 20
457.4374769999999
 30
0.0
 11
690.9831789999999
 21
456.4940459999999
 31
0.0
  0
LINE
  5
670
330
70E
100
AcDbEntity
  8
PRO0
  6
PLINE2
 62
     3
100
AcDbLine
 10
691.325199
 20
457.4337389999999
 30
0.0
 11
684.521577
 21
458.426094
 31
0.0
  0
ARC
  5
671
330
70E
100
AcDbEntity
  8
PRO0
  6
PLINE2
 62
     3
100
AcDbCircle
 10
684.4638449999999
 20
458.030282
 30
0.0
 40
0.4
100
AcDbArc
 50
81.701534
 51
171.869898
  0
LINE
  5
672
330
70E
100
AcDbEntity
  8
PRO0
  6
PLINE2
 62
     3
100
AcDbLine
 10
684.067865
 20
458.08685
 30
0.0
 11
684.0397469999999
 21
457.890026
 31
0.0
  0
ARC
  5
673
330
70E
100
AcDbEntity
  8
PRO0
  6
PLINE2
 62
     3
100
AcDbCircle
 10
684.4357269999999
 20
457.8334569999999
 30
0.0
 40
0.4
100
AcDbArc
 50
171.869898
 51
261.869898
  0
LINE
  5
674
330
70E
100
AcDbEntity
  8
PRO0
  6
PLINE2
 62
     3
100
AcDbLine
 10
684.3791589999999
 20
457.4374769999999
 30
0.0
 11
690.9831789999999
 21
456.4940459999999
 31
0.0
  0
LINE
  5
675
330
70E
100
AcDbEntity
  8
PRO0
  6
PLINE2
 62
     3
100
AcDbLine
 10
691.325199
 20
444.796537
 30
0.0
 11
684.521577
 21
443.804182
 31
0.0
  0
ARC
  5
676
330
70E
100
AcDbEntity
  8
PRO0
  6
PLINE2
 62
     3
100
AcDbCircle
 10
684.4638449999999
 20
444.199994
 30
0.0
 40
0.4
100
AcDbArc
 50
188.130102
 51
278.298466
  0
LINE
  5
677
330
70E
100
AcDbEntity
  8
PRO0
  6
PLINE2
 62
     3
100
AcDbLine
 10
684.067865
 20
444.1434249999999
 30
0.0
 11
684.0397469999999
 21
444.34025
 31
0.0
  0
ARC
  5
678
330
70E
100
AcDbEntity
  8
PRO0
  6
PLINE2
 62
     3
100
AcDbCircle
 10
684.4357269999999
 20
444.3968179999999
 30
0.0
 40
0.4
100
AcDbArc
 50
98.130102
 51
188.130102
  0
LINE
  5
679
330
70E
100
AcDbEntity
  8
PRO0
  6
PLINE2
 62
     3
100
AcDbLine
 10
684.3791589999999
 20
444.7927980000001
 30
0.0
 11
690.9831789999999
 21
445.7362289999999
 31
0.0
  0
LINE
  5
67A
330
70E
100
AcDbEntity
  8
PRO0
  6
PLINE2
 62
     3
100
AcDbLine
 10
688.1828
 20
447.115138
 30
0.0
 11
684.1828
 21
447.115138
 31
0.0
  0
LINE
  5
67B
330
70E
100
AcDbEntity
  8
PRO0
  6
PLINE2
 62
     3
100
AcDbLine
 10
713.143057
 20
449.0973949999999
 30
0.0
 11
712.959881
 21
445.602192
 31
0.0
  0
LINE
  5
67C
330
70E
100
AcDbEntity
  8
PRO0
  6
PLINE2
 62
     3
100
AcDbLine
 10
712.959881
 20
445.602192
 30
0.0
 11
715.061812
 21
447.4947789999999
 31
0.0
  0
LINE
  5
67D
330
70E
100
AcDbEntity
  8
PRO0
  6
PLINE2
 62
     3
100
AcDbLine
 10
715.061812
 20
447.4947789999999
 30
0.0
 11
715.140316
 21
448.9927230000001
 31
0.0
  0
LINE
  5
67E
330
70E
100
AcDbEntity
  8
PRO0
  6
PLINE2
 62
     3
100
AcDbLine
 10
715.140316
 20
448.9927230000001
 30
0.0
 11
684.1828
 21
450.615138
 31
0.0
  0
LINE
  5
67F
330
70E
100
AcDbEntity
  8
PRO0
  6
PLINE2
 62
     3
100
AcDbLine
 10
688.1828
 20
455.115138
 30
0.0
 11
684.1828
 21
455.115138
 31
0.0
  0
LINE
  5
680
330
70E
100
AcDbEntity
  8
PRO0
  6
PLINE2
 62
     3
100
AcDbLine
 10
713.143057
 20
453.1328799999999
 30
0.0
 11
712.959881
 21
456.628084
 31
0.0
  0
LINE
  5
681
330
70E
100
AcDbEntity
  8
PRO0
  6
PLINE2
 62
     3
100
AcDbLine
 10
712.959881
 20
456.628084
 30
0.0
 11
715.061812
 21
454.7354969999999
 31
0.0
  0
LINE
  5
682
330
70E
100
AcDbEntity
  8
PRO0
  6
PLINE2
 62
     3
100
AcDbLine
 10
715.061812
 20
454.7354969999999
 30
0.0
 11
715.140316
 21
453.2375519999999
 31
0.0
  0
LINE
  5
683
330
70E
100
AcDbEntity
  8
PRO0
  6
PLINE2
 62
     3
100
AcDbLine
 10
715.140316
 20
453.2375519999999
 30
0.0
 11
684.1828
 21
451.615138
 31
0.0
  0
LINE
  5
684
330
70E
100
AcDbEntity
  8
PRO0
  6
PLINE2
 62
     3
100
AcDbLine
 10
695.9831789999999
 20
447.5560809999999
 30
0.0
 11
690.9831789999999
 21
445.7362289999999
 31
0.0
  0
LINE
  5
685
330
70E
100
AcDbEntity
  8
PRO0
  6
PLINE2
 62
     3
100
AcDbLine
 10
695.9831789999999
 20
446.491903
 30
0.0
 11
691.325199
 21
444.796537
 31
0.0
  0
LINE
  5
686
330
70E
100
AcDbEntity
  8
PRO0
  6
PLINE2
 62
     3
100
AcDbLine
 10
695.9831789999999
 20
454.674195
 30
0.0
 11
690.9831789999999
 21
456.4940459999999
 31
0.0
  0
LINE
  5
687
330
70E
100
AcDbEntity
  8
PRO0
  6
PLINE2
 62
     3
100
AcDbLine
 10
695.9831789999999
 20
455.738373
 30
0.0
 11
691.325199
 21
457.4337389999999
 31
0.0
  0
LINE
  5
688
330
70E
100
AcDbEntity
  8
PRO0
  6
PLINE2
 62
     3
100
AcDbLine
 10
688.1828
 20
447.115138
 30
0.0
 11
689.0974439999999
 21
448.8555139999999
 31
0.0
  0
LINE
  5
689
330
70E
100
AcDbEntity
  8
PRO0
  6
PLINE2
 62
     3
100
AcDbLine
 10
710.3133559999999
 20
449.2456929999999
 30
0.0
 11
712.1828
 21
451.115138
 31
0.0
  0
LINE
  5
68A
330
70E
100
AcDbEntity
  8
PRO0
  6
PLINE2
 62
     3
100
AcDbLine
 10
689.0974439999999
 20
448.8555139999999
 30
0.0
 11
691.0947029999999
 21
448.750842
 31
0.0
  0
LINE
  5
68B
330
70E
100
AcDbEntity
  8
PRO0
  6
PLINE2
 62
     3
100
AcDbLine
 10
691.0947029999999
 20
448.750842
 30
0.0
 11
690.9900309999999
 21
446.753583
 31
0.0
  0
LINE
  5
68C
330
70E
100
AcDbEntity
  8
PRO0
  6
PLINE2
 62
     3
100
AcDbLine
 10
690.9900309999999
 20
446.753583
 30
0.0
 11
692.98729
 21
446.648911
 31
0.0
  0
LINE
  5
68D
330
70E
100
AcDbEntity
  8
PRO0
  6
PLINE2
 62
     3
100
AcDbLine
 10
692.98729
 20
446.648911
 30
0.0
 11
694.090592
 21
448.5938339999999
 31
0.0
  0
LINE
  5
68E
330
70E
100
AcDbEntity
  8
PRO0
  6
PLINE2
 62
     3
100
AcDbLine
 10
694.090592
 20
448.5938339999999
 30
0.0
 11
696.087851
 21
448.4891619999999
 31
0.0
  0
LINE
  5
68F
330
70E
100
AcDbEntity
  8
PRO0
  6
PLINE2
 62
     3
100
AcDbLine
 10
696.087851
 20
448.4891619999999
 30
0.0
 11
695.9831789999999
 21
446.491903
 31
0.0
  0
LINE
  5
690
330
70E
100
AcDbEntity
  8
PRO0
  6
PLINE2
 62
     3
100
AcDbLine
 10
695.9831789999999
 20
446.491903
 30
0.0
 11
697.9804379999999
 21
446.387231
 31
0.0
  0
LINE
  5
691
330
70E
100
AcDbEntity
  8
PRO0
  6
PLINE2
 62
     3
100
AcDbLine
 10
697.9804379999999
 20
446.387231
 30
0.0
 11
699.0837389999999
 21
448.332154
 31
0.0
  0
LINE
  5
692
330
70E
100
AcDbEntity
  8
PRO0
  6
PLINE2
 62
     3
100
AcDbLine
 10
699.0837389999999
 20
448.332154
 30
0.0
 11
701.080998
 21
448.2274819999999
 31
0.0
  0
LINE
  5
693
330
70E
100
AcDbEntity
  8
PRO0
  6
PLINE2
 62
     3
100
AcDbLine
 10
701.080998
 20
448.2274819999999
 30
0.0
 11
700.9763259999999
 21
446.230223
 31
0.0
  0
LINE
  5
694
330
70E
100
AcDbEntity
  8
PRO0
  6
PLINE2
 62
     3
100
AcDbLine
 10
700.9763259999999
 20
446.230223
 30
0.0
 11
702.973586
 21
446.1255509999999
 31
0.0
  0
LINE
  5
695
330
70E
100
AcDbEntity
  8
PRO0
  6
PLINE2
 62
     3
100
AcDbLine
 10
702.973586
 20
446.1255509999999
 30
0.0
 11
704.076887
 21
448.070474
 31
0.0
  0
LINE
  5
696
330
70E
100
AcDbEntity
  8
PRO0
  6
PLINE2
 62
     3
100
AcDbLine
 10
704.076887
 20
448.070474
 30
0.0
 11
706.074146
 21
447.9658019999999
 31
0.0
  0
LINE
  5
697
330
70E
100
AcDbEntity
  8
PRO0
  6
PLINE2
 62
     3
100
AcDbLine
 10
706.074146
 20
447.9658019999999
 30
0.0
 11
705.969474
 21
445.9685429999999
 31
0.0
  0
LINE
  5
698
330
70E
100
AcDbEntity
  8
PRO0
  6
PLINE2
 62
     3
100
AcDbLine
 10
705.969474
 20
445.9685429999999
 30
0.0
 11
707.9667329999999
 21
445.863871
 31
0.0
  0
LINE
  5
699
330
70E
100
AcDbEntity
  8
PRO0
  6
PLINE2
 62
     3
100
AcDbLine
 10
707.9667329999999
 20
445.863871
 30
0.0
 11
709.0700349999999
 21
447.808795
 31
0.0
  0
LINE
  5
69A
330
70E
100
AcDbEntity
  8
PRO0
  6
PLINE2
 62
     3
100
AcDbLine
 10
709.0700349999999
 20
447.808795
 30
0.0
 11
711.067294
 21
447.704123
 31
0.0
  0
LINE
  5
69B
330
70E
100
AcDbEntity
  8
PRO0
  6
PLINE2
 62
     3
100
AcDbLine
 10
711.067294
 20
447.704123
 30
0.0
 11
710.9626219999999
 21
445.7068639999999
 31
0.0
  0
LINE
  5
69C
330
70E
100
AcDbEntity
  8
PRO0
  6
PLINE2
 62
     3
100
AcDbLine
 10
710.9626219999999
 20
445.7068639999999
 30
0.0
 11
712.959881
 21
445.602192
 31
0.0
  0
LINE
  5
69D
330
70E
100
AcDbEntity
  8
PRO0
  6
PLINE2
 62
     3
100
AcDbLine
 10
688.1828
 20
455.115138
 30
0.0
 11
689.0974439999999
 21
453.374762
 31
0.0
  0
LINE
  5
69E
330
70E
100
AcDbEntity
  8
PRO0
  6
PLINE2
 62
     3
100
AcDbLine
 10
689.0974439999999
 20
453.374762
 30
0.0
 11
691.0947029999999
 21
453.4794339999999
 31
0.0
  0
LINE
  5
69F
330
70E
100
AcDbEntity
  8
PRO0
  6
PLINE2
 62
     3
100
AcDbLine
 10
691.0947029999999
 20
453.4794339999999
 30
0.0
 11
690.9900309999999
 21
455.4766929999999
 31
0.0
  0
LINE
  5
6A0
330
70E
100
AcDbEntity
  8
PRO0
  6
PLINE2
 62
     3
100
AcDbLine
 10
690.9900309999999
 20
455.4766929999999
 30
0.0
 11
692.98729
 21
455.5813650000001
 31
0.0
  0
LINE
  5
6A1
330
70E
100
AcDbEntity
  8
PRO0
  6
PLINE2
 62
     3
100
AcDbLine
 10
692.98729
 20
455.5813650000001
 30
0.0
 11
694.090592
 21
453.6364419999999
 31
0.0
  0
LINE
  5
6A2
330
70E
100
AcDbEntity
  8
PRO0
  6
PLINE2
 62
     3
100
AcDbLine
 10
694.090592
 20
453.6364419999999
 30
0.0
 11
696.087851
 21
453.7411139999999
 31
0.0
  0
LINE
  5
6A3
330
70E
100
AcDbEntity
  8
PRO0
  6
PLINE2
 62
     3
100
AcDbLine
 10
696.087851
 20
453.7411139999999
 30
0.0
 11
695.9831789999999
 21
455.738373
 31
0.0
  0
LINE
  5
6A4
330
70E
100
AcDbEntity
  8
PRO0
  6
PLINE2
 62
     3
100
AcDbLine
 10
695.9831789999999
 20
455.738373
 30
0.0
 11
697.9804379999999
 21
455.843044
 31
0.0
  0
LINE
  5
6A5
330
70E
100
AcDbEntity
  8
PRO0
  6
PLINE2
 62
     3
100
AcDbLine
 10
697.9804379999999
 20
455.843044
 30
0.0
 11
699.0837389999999
 21
453.898121
 31
0.0
  0
LINE
  5
6A6
330
70E
100
AcDbEntity
  8
PRO0
  6
PLINE2
 62
     3
100
AcDbLine
 10
699.0837389999999
 20
453.898121
 30
0.0
 11
701.080998
 21
454.0027929999999
 31
0.0
  0
LINE
  5
6A7
330
70E
100
AcDbEntity
  8
PRO0
  6
PLINE2
 62
     3
100
AcDbLine
 10
701.080998
 20
454.0027929999999
 30
0.0
 11
700.9763259999999
 21
456.000052
 31
0.0
  0
LINE
  5
6A8
330
70E
100
AcDbEntity
  8
PRO0
  6
PLINE2
 62
     3
100
AcDbLine
 10
700.9763259999999
 20
456.000052
 30
0.0
 11
702.973586
 21
456.104724
 31
0.0
  0
LINE
  5
6A9
330
70E
100
AcDbEntity
  8
PRO0
  6
PLINE2
 62
     3
100
AcDbLine
 10
702.973586
 20
456.104724
 30
0.0
 11
704.076887
 21
454.1598009999999
 31
0.0
  0
LINE
  5
6AA
330
70E
100
AcDbEntity
  8
PRO0
  6
PLINE2
 62
     3
100
AcDbLine
 10
704.076887
 20
454.1598009999999
 30
0.0
 11
706.074146
 21
454.2644730000001
 31
0.0
  0
LINE
  5
6AB
330
70E
100
AcDbEntity
  8
PRO0
  6
PLINE2
 62
     3
100
AcDbLine
 10
706.074146
 20
454.2644730000001
 30
0.0
 11
705.969474
 21
456.261732
 31
0.0
  0
LINE
  5
6AC
330
70E
100
AcDbEntity
  8
PRO0
  6
PLINE2
 62
     3
100
AcDbLine
 10
705.969474
 20
456.261732
 30
0.0
 11
707.9667329999999
 21
456.3664039999999
 31
0.0
  0
LINE
  5
6AD
330
70E
100
AcDbEntity
  8
PRO0
  6
PLINE2
 62
     3
100
AcDbLine
 10
707.9667329999999
 20
456.3664039999999
 30
0.0
 11
709.0700349999999
 21
454.4214809999999
 31
0.0
  0
LINE
  5
6AE
330
70E
100
AcDbEntity
  8
PRO0
  6
PLINE2
 62
     3
100
AcDbLine
 10
709.0700349999999
 20
454.4214809999999
 30
0.0
 11
711.067294
 21
454.526153
 31
0.0
  0
LINE
  5
6AF
330
70E
100
AcDbEntity
  8
PRO0
  6
PLINE2
 62
     3
100
AcDbLine
 10
711.067294
 20
454.526153
 30
0.0
 11
710.9626219999999
 21
456.523412
 31
0.0
  0
LINE
  5
6B0
330
70E
100
AcDbEntity
  8
PRO0
  6
PLINE2
 62
     3
100
AcDbLine
 10
710.9626219999999
 20
456.523412
 30
0.0
 11
712.959881
 21
456.628084
 31
0.0
  0
LINE
  5
6B1
330
70E
100
AcDbEntity
  8
PRO0
  6
PLINE2
 62
     3
100
AcDbLine
 10
684.1828
 20
450.615138
 30
0.0
 11
684.1828
 21
451.115138
 31
0.0
  0
LINE
  5
6B2
330
70E
100
AcDbEntity
  8
PRO0
  6
PLINE2
 62
     3
100
AcDbLine
 10
684.1828
 20
451.615138
 30
0.0
 11
684.1828
 21
451.115138
 31
0.0
  0
LINE
  5
6B3
330
70E
100
AcDbEntity
  8
PRO0
  6
Continuous
 62
     2
100
AcDbLine
 10
673.1828
 20
442.115138
 30
0.0
 11
673.1828
 21
460.115138
 31
0.0
  0
LINE
  5
6B4
330
70E
100
AcDbEntity
  8
PRO0
  6
PLINE2
 62
     3
100
AcDbLine
 10
676.1828
 20
447.115138
 30
0.0
 11
684.1828
 21
447.115138
 31
0.0
  0
LINE
  5
6B5
330
70E
100
AcDbEntity
  8
PRO0
  6
PLINE2
 62
     3
100
AcDbLine
 10
676.1828
 20
446.115138
 30
0.0
 11
681.1828
 21
447.115138
 31
0.0
  0
LINE
  5
6B6
330
70E
100
AcDbEntity
  8
PRO0
  6
PLINE2
 62
     3
100
AcDbLine
 10
676.1828
 20
450.115138
 30
0.0
 11
681.1828
 21
451.115138
 31
0.0
  0
LINE
  5
6B7
330
70E
100
AcDbEntity
  8
PRO0
  6
PLINE2
 62
     3
100
AcDbLine
 10
676.1828
 20
452.115138
 30
0.0
 11
681.1828
 21
451.115138
 31
0.0
  0
LINE
  5
6B8
330
70E
100
AcDbEntity
  8
PRO0
  6
PLINE2
 62
     3
100
AcDbLine
 10
681.1828
 20
451.115138
 30
0.0
 11
676.1828
 21
451.115138
 31
0.0
  0
LINE
  5
6B9
330
70E
100
AcDbEntity
  8
PRO0
  6
PLINE2
 62
     3
100
AcDbLine
 10
676.1828
 20
455.115138
 30
0.0
 11
684.1828
 21
455.115138
 31
0.0
  0
LINE
  5
6BA
330
70E
100
AcDbEntity
  8
PRO0
  6
PLINE2
 62
     3
100
AcDbLine
 10
676.1828
 20
456.115138
 30
0.0
 11
681.1828
 21
455.115138
 31
0.0
  0
LINE
  5
6BB
330
70E
100
AcDbEntity
  8
PRO0
  6
PLINE3
 62
     3
100
AcDbLine
 10
720.694383
 20
451.115138
 30
0.0
 11
664.167295
 21
451.115138
 31
0.0
  0
LINE
  5
6BC
330
70E
100
AcDbEntity
  8
PRO0
  6
PLINE2
 62
     3
100
AcDbLine
 10
710.3133559999999
 20
452.984582
 30
0.0
 11
712.1828
 21
451.115138
 31
0.0
  0
ARC
  5
6BD
330
70E
100
AcDbEntity
  8
PRO0
  6
Continuous
 62
     2
100
AcDbCircle
 10
658.683141
 20
483.615138
 30
0.0
 40
1.0
100
AcDbArc
 50
90.0
 51
180.0
  0
ARC
  5
6BE
330
70E
100
AcDbEntity
  8
PRO0
  6
Continuous
 62
     2
100
AcDbCircle
 10
655.9831410000001
 20
434.815508
 30
0.0
 40
1.7
100
AcDbArc
 50
270.0
 51
0.0
  0
ARC
  5
6BF
330
70E
100
AcDbEntity
  8
PRO0
  6
Continuous
 62
     2
100
AcDbCircle
 10
658.1831409999999
 20
484.615521
 30
0.0
 40
0.5
100
AcDbArc
 50
90.0
 51
180.0
  0
LINE
  5
6C0
330
70E
100
AcDbEntity
  8
PRO0
  6
Continuous
 62
     2
100
AcDbLine
 10
657.6831409999999
 20
434.815508
 30
0.0
 11
657.6831409999999
 21
484.615521
 31
0.0
  0
LINE
  5
6C1
330
70E
100
AcDbEntity
  8
PRO0
  6
Continuous
 62
     2
100
AcDbLine
 10
659.183141
 20
484.615138
 30
0.0
 11
658.683141
 21
484.615138
 31
0.0
  0
LINE
  5
6C2
330
70E
100
AcDbEntity
  8
PRO0
  6
Continuous
 62
     2
100
AcDbLine
 10
659.183141
 20
484.615138
 30
0.0
 11
659.183141
 21
476.615138
 31
0.0
  0
ARC
  5
6C3
330
70E
100
AcDbEntity
  8
PRO0
  6
Continuous
 62
     2
100
AcDbCircle
 10
659.683141
 20
476.615138
 30
0.0
 40
0.5
100
AcDbArc
 50
180.0
 51
270.0
  0
LINE
  5
6C4
330
70E
100
AcDbEntity
  8
PRO0
  6
Continuous
 62
     2
100
AcDbLine
 10
676.1828
 20
476.115138
 30
0.0
 11
659.683141
 21
476.115138
 31
0.0
  0
ARC
  5
6C5
330
70E
100
AcDbEntity
  8
PRO0
  6
Continuous
 62
     2
100
AcDbCircle
 10
660.1831409999999
 20
473.8151379999999
 30
0.0
 40
0.5
100
AcDbArc
 50
90.0
 51
180.0
  0
LINE
  5
6C6
330
70E
100
AcDbEntity
  8
PRO0
  6
Continuous
 62
     2
100
AcDbLine
 10
659.683141
 20
465.1151379999999
 30
0.0
 11
659.683141
 21
473.8151379999999
 31
0.0
  0
ARC
  5
6C7
330
70E
100
AcDbEntity
  8
PRO0
  6
Continuous
 62
     2
100
AcDbCircle
 10
658.683141
 20
465.1151379999999
 30
0.0
 40
1.0
100
AcDbArc
 50
270.0
 51
0.0
  0
LINE
  5
6C8
330
70E
100
AcDbEntity
  8
PRO0
  6
Continuous
 62
     2
100
AcDbLine
 10
658.683141
 20
464.115138
 30
0.0
 11
657.6831409999999
 21
464.115138
 31
0.0
  0
LINE
  5
6C9
330
70E
100
AcDbEntity
  8
PRO0
  6
Continuous
 62
     2
100
AcDbLine
 10
660.1831409999999
 20
474.3151379999999
 30
0.0
 11
672.6831409999999
 21
474.3151379999999
 31
0.0
  0
ARC
  5
6CA
330
70E
100
AcDbEntity
  8
PRO0
  6
Continuous
 62
     2
100
AcDbCircle
 10
663.9331409999999
 20
432.365138
 30
0.0
 40
0.75
100
AcDbArc
 50
0.0
 51
180.0
  0
LINE
  5
6CB
330
70E
100
AcDbEntity
  8
PRO0
  6
Continuous
 62
     2
100
AcDbLine
 10
663.183141
 20
432.365138
 30
0.0
 11
663.183141
 21
421.115138
 31
0.0
  0
ARC
  5
6CC
330
70E
100
AcDbEntity
  8
PRO0
  6
Continuous
 62
     2
100
AcDbCircle
 10
664.1831409999999
 20
421.115138
 30
0.0
 40
1.0
100
AcDbArc
 50
180.0
 51
270.0
  0
LINE
  5
6CD
330
70E
100
AcDbEntity
  8
PRO0
  6
Continuous
 62
     2
100
AcDbLine
 10
675.183141
 20
420.1151379999999
 30
0.0
 11
664.1831409999999
 21
420.1151379999999
 31
0.0
  0
ARC
  5
6CE
330
70E
100
AcDbEntity
  8
PRO0
  6
Continuous
 62
     2
100
AcDbCircle
 10
665.1831409999999
 20
422.115138
 30
0.0
 40
0.5
100
AcDbArc
 50
180.0
 51
270.0
  0
LINE
  5
6CF
330
70E
100
AcDbEntity
  8
PRO0
  6
Continuous
 62
     2
100
AcDbLine
 10
664.6831409999999
 20
432.365138
 30
0.0
 11
664.6831409999999
 21
422.115138
 31
0.0
  0
LINE
  5
6D0
330
70E
100
AcDbEntity
  8
PRO0
  6
Continuous
 62
     2
100
AcDbLine
 10
672.183141
 20
421.615138
 30
0.0
 11
665.1831409999999
 21
421.615138
 31
0.0
  0
ARC
  5
6D1
330
70E
100
AcDbEntity
  8
PRO0
  6
Continuous
 62
     2
100
AcDbCircle
 10
672.183141
 20
422.615138
 30
0.0
 40
1.0
100
AcDbArc
 50
270.0
 51
0.0
  0
ARC
  5
6D2
330
70E
100
AcDbEntity
  8
PRO0
  6
Continuous
 62
     2
100
AcDbCircle
 10
672.6831409999999
 20
473.8151379999999
 30
0.0
 40
0.5
100
AcDbArc
 50
0.0
 51
90.0
  0
LINE
  5
6D3
330
70E
100
AcDbEntity
  8
PRO0
  6
Continuous
 62
     2
100
AcDbLine
 10
673.1831409999999
 20
422.615138
 30
0.0
 11
673.1831409999999
 21
450.815138
 31
0.0
  0
LINE
  5
6D4
330
70E
100
AcDbEntity
  8
PRO0
  6
Continuous
 62
     2
100
AcDbLine
 10
673.1831409999999
 20
451.415138
 30
0.0
 11
673.1831409999999
 21
473.8151379999999
 31
0.0
  0
LINE
  5
6D5
330
70E
100
AcDbEntity
  8
PRO0
  6
Continuous
 62
     2
100
AcDbLine
 10
673.483141
 20
451.115138
 30
0.0
 11
673.1831409999999
 21
450.815138
 31
0.0
  0
LINE
  5
6D6
330
70E
100
AcDbEntity
  8
PRO0
  6
Continuous
 62
     2
100
AcDbLine
 10
674.6831409999999
 20
474.6151379999999
 30
0.0
 11
675.183141
 21
474.6151379999999
 31
0.0
  0
LINE
  5
6D7
330
70E
100
AcDbEntity
  8
PRO0
  6
Continuous
 62
     2
100
AcDbLine
 10
674.6831409999999
 20
474.6151379999999
 30
0.0
 11
674.6831409999999
 21
457.6151379999999
 31
0.0
  0
LINE
  5
6D8
330
70E
100
AcDbEntity
  8
PRO0
  6
Continuous
 62
     2
100
AcDbLine
 10
674.6831409999999
 20
457.6151379999999
 30
0.0
 11
675.183141
 21
457.6151379999999
 31
0.0
  0
LINE
  5
6D9
330
70E
100
AcDbEntity
  8
PRO0
  6
Continuous
 62
     2
100
AcDbLine
 10
674.6831409999999
 20
444.6151379999999
 30
0.0
 11
675.183141
 21
444.6151379999999
 31
0.0
  0
LINE
  5
6DA
330
70E
100
AcDbEntity
  8
PRO0
  6
Continuous
 62
     2
100
AcDbLine
 10
674.6831409999999
 20
421.615138
 30
0.0
 11
675.183141
 21
421.615138
 31
0.0
  0
LINE
  5
6DB
330
70E
100
AcDbEntity
  8
PRO0
  6
Continuous
 62
     2
100
AcDbLine
 10
674.6831409999999
 20
444.6151379999999
 30
0.0
 11
674.6831409999999
 21
433.115138
 31
0.0
  0
LINE
  5
6DC
330
70E
100
AcDbEntity
  8
PRO0
  6
Continuous
 62
     2
100
AcDbLine
 10
674.6831409999999
 20
433.115138
 30
0.0
 11
675.183141
 21
433.115138
 31
0.0
  0
LINE
  5
6DD
330
70E
100
AcDbEntity
  8
PRO0
  6
Continuous
 62
     2
100
AcDbLine
 10
674.6831409999999
 20
431.6151379999999
 30
0.0
 11
675.183141
 21
431.6151379999999
 31
0.0
  0
LINE
  5
6DE
330
70E
100
AcDbEntity
  8
PRO0
  6
Continuous
 62
     2
100
AcDbLine
 10
674.6831409999999
 20
431.6151379999999
 30
0.0
 11
674.6831409999999
 21
421.615138
 31
0.0
  0
LINE
  5
6DF
330
70E
100
AcDbEntity
  8
PRO0
  6
Continuous
 62
     2
100
AcDbLine
 10
673.483141
 20
451.115138
 30
0.0
 11
673.1831409999999
 21
451.415138
 31
0.0
  0
LINE
  5
6E0
330
70E
100
AcDbEntity
  8
PRO0
  6
Continuous
 62
     2
100
AcDbLine
 10
658.683141
 20
484.615138
 30
0.0
 11
659.183141
 21
484.615138
 31
0.0
  0
LINE
  5
6E1
330
70E
100
AcDbEntity
  8
PRO0
  6
PLINE2
 62
     3
100
AcDbLine
 10
588.6828
 20
424.115508
 30
0.0
 11
588.6828
 21
422.115508
 31
0.0
  0
LINE
  5
6E2
330
70E
100
AcDbEntity
  8
PRO0
  6
PLINE2
 62
     3
100
AcDbLine
 10
603.6828
 20
424.115508
 30
0.0
 11
603.6828
 21
422.115508
 31
0.0
  0
LINE
  5
6E3
330
70E
100
AcDbEntity
  8
PRO0
  6
PLINE2
 62
     3
100
AcDbLine
 10
673.1831409999999
 20
458.615138
 30
0.0
 11
674.6831409999999
 21
458.615138
 31
0.0
  0
LINE
  5
6E4
330
70E
100
AcDbEntity
  8
PRO0
  6
PLINE2
 62
     3
100
AcDbLine
 10
673.1831409999999
 20
443.615138
 30
0.0
 11
674.6831409999999
 21
443.615138
 31
0.0
  0
LINE
  5
6E5
330
70E
100
AcDbEntity
  8
PRO0
  6
Continuous
 62
     2
100
AcDbLine
 10
563.6828
 20
439.615508
 30
0.0
 11
583.1828
 21
439.615508
 31
0.0
  0
LINE
  5
6E6
330
70E
100
AcDbEntity
  8
PRO0
  6
Continuous
 62
     2
100
AcDbLine
 10
561.1828
 20
439.115508
 30
0.0
 11
561.1828
 21
432.515508
 31
0.0
  0
ARC
  5
6E7
330
70E
100
AcDbEntity
  8
PRO0
  6
Continuous
 62
     2
100
AcDbCircle
 10
562.8827999999999
 20
432.515508
 30
0.0
 40
1.7
100
AcDbArc
 50
180.0
 51
270.0
  0
LINE
  5
6E8
330
70E
100
AcDbEntity
  8
PRO0
  6
Continuous
 62
     2
100
AcDbLine
 10
571.1828
 20
430.815508
 30
0.0
 11
562.8827999999999
 21
430.815508
 31
0.0
  0
LINE
  5
6E9
330
70E
100
AcDbEntity
  8
PRO0
  6
Continuous
 62
     2
100
AcDbLine
 10
571.1828
 20
432.015508
 30
0.0
 11
562.8827999999999
 21
432.015508
 31
0.0
  0
ARC
  5
6EA
330
70E
100
AcDbEntity
  8
PRO0
  6
Continuous
 62
     2
100
AcDbCircle
 10
562.8827999999999
 20
439.115508
 30
0.0
 40
1.7
100
AcDbArc
 50
90.0
 51
180.0
  0
LINE
  5
6EB
330
70E
100
AcDbEntity
  8
PRO0
  6
Continuous
 62
     2
100
AcDbLine
 10
562.8827999999999
 20
440.815508
 30
0.0
 11
620.4828
 21
440.815508
 31
0.0
  0
ARC
  5
6EC
330
70E
100
AcDbEntity
  8
PRO0
  6
Continuous
 62
     2
100
AcDbCircle
 10
620.4828
 20
439.115508
 30
0.0
 40
1.7
100
AcDbArc
 50
0.0
 51
90.0
  0
LINE
  5
6ED
330
70E
100
AcDbEntity
  8
PRO0
  6
Continuous
 62
     2
100
AcDbLine
 10
622.1828
 20
434.315508
 30
0.0
 11
622.1828
 21
439.115508
 31
0.0
  0
ARC
  5
6EE
330
70E
100
AcDbEntity
  8
PRO0
  6
Continuous
 62
     2
100
AcDbCircle
 10
620.4828
 20
439.115508
 30
0.0
 40
0.5
100
AcDbArc
 50
0.0
 51
90.0
  0
LINE
  5
6EF
330
70E
100
AcDbEntity
  8
PRO0
  6
Continuous
 62
     2
100
AcDbLine
 10
620.9827999999999
 20
434.315508
 30
0.0
 11
620.9827999999999
 21
439.115508
 31
0.0
  0
LINE
  5
6F0
330
70E
100
AcDbEntity
  8
PRO0
  6
Continuous
 62
     2
100
AcDbLine
 10
562.8827999999999
 20
439.615508
 30
0.0
 11
620.4828
 21
439.615508
 31
0.0
  0
ARC
  5
6F1
330
70E
100
AcDbEntity
  8
PRO0
  6
Continuous
 62
     2
100
AcDbCircle
 10
562.8827999999999
 20
439.115508
 30
0.0
 40
0.5
100
AcDbArc
 50
90.0
 51
180.0
  0
ARC
  5
6F2
330
70E
100
AcDbEntity
  8
PRO0
  6
Continuous
 62
     2
100
AcDbCircle
 10
562.8827999999999
 20
432.515508
 30
0.0
 40
0.5
100
AcDbArc
 50
180.0
 51
270.0
  0
LINE
  5
6F3
330
70E
100
AcDbEntity
  8
PRO0
  6
Continuous
 62
     2
100
AcDbLine
 10
562.3827999999999
 20
439.115508
 30
0.0
 11
562.3827999999999
 21
432.515508
 31
0.0
  0
ARC
  5
6F4
330
70E
100
AcDbEntity
  8
PRO0
  6
Continuous
 62
     2
100
AcDbCircle
 10
658.1831409999999
 20
484.615521
 30
0.0
 40
1.7
100
AcDbArc
 50
90.0
 51
180.0
  0
LINE
  5
6F5
330
70E
100
AcDbEntity
  8
PRO0
  6
Continuous
 62
     2
100
AcDbLine
 10
658.1831409999999
 20
486.315521
 30
0.0
 11
664.783141
 21
486.315521
 31
0.0
  0
ARC
  5
6F6
330
70E
100
AcDbEntity
  8
PRO0
  6
Continuous
 62
     2
100
AcDbCircle
 10
664.783141
 20
484.615521
 30
0.0
 40
1.7
100
AcDbArc
 50
0.0
 51
90.0
  0
LINE
  5
6F7
330
70E
100
AcDbEntity
  8
PRO0
  6
Continuous
 62
     2
100
AcDbLine
 10
666.483141
 20
476.115138
 30
0.0
 11
666.483141
 21
484.615521
 31
0.0
  0
ARC
  5
6F8
330
70E
100
AcDbEntity
  8
PRO0
  6
Continuous
 62
     2
100
AcDbCircle
 10
664.783141
 20
484.615521
 30
0.0
 40
0.5
100
AcDbArc
 50
0.0
 51
90.0
  0
LINE
  5
6F9
330
70E
100
AcDbEntity
  8
PRO0
  6
Continuous
 62
     2
100
AcDbLine
 10
665.283141
 20
484.615521
 30
0.0
 11
665.283141
 21
476.3155209999999
 31
0.0
  0
LINE
  5
6FA
330
70E
100
AcDbEntity
  8
PRO0
  6
Continuous
 62
     2
100
AcDbLine
 10
664.783141
 20
485.1155209999999
 30
0.0
 11
658.1831409999999
 21
485.1155209999999
 31
0.0
  0
ARC
  5
6FB
330
70E
100
AcDbEntity
  8
PRO0
  6
Continuous
 62
     2
100
AcDbCircle
 10
655.9831410000001
 20
434.815508
 30
0.0
 40
0.5
100
AcDbArc
 50
270.0
 51
0.0
  0
LINE
  5
6FC
330
70E
100
AcDbEntity
  8
PRO0
  6
Continuous
 62
     2
100
AcDbLine
 10
656.483141
 20
484.615521
 30
0.0
 11
656.483141
 21
434.815508
 31
0.0
  0
LINE
  5
6FD
330
70E
100
AcDbEntity
  8
PRO0
  6
Continuous
 62
     2
100
AcDbLine
 10
569.1828
 20
430.815508
 30
0.0
 11
569.1828
 21
421.115508
 31
0.0
  0
LINE
  5
6FE
330
70E
100
AcDbEntity
  8
PRO0
  6
Continuous
 62
     2
100
AcDbLine
 10
569.1828
 20
430.815508
 30
0.0
 11
571.1828
 21
421.115508
 31
0.0
  0
LINE
  5
6FF
330
70E
100
AcDbEntity
  8
PRO0
  6
Continuous
 62
     2
100
AcDbLine
 10
666.483141
 20
478.1151379999999
 30
0.0
 11
676.1828
 21
478.1151379999999
 31
0.0
  0
LINE
  5
700
330
70E
100
AcDbEntity
  8
PRO0
  6
Continuous
 62
     2
100
AcDbLine
 10
666.483141
 20
476.115138
 30
0.0
 11
676.1828
 21
478.1151379999999
 31
0.0
  0
DIMENSION
  5
70C
330
70E
100
AcDbEntity
  8
PRO0
  6
Continuous
 62
     3
100
AcDbDimension
  2
*D32
 10
561.1828
 20
525.707591
 30
0.0
 11
618.6827549999999
 21
527.207611
 31
0.0
 70
   128
 71
     5
 42
-1.0
100
AcDbAlignedDimension
 13
676.1828
 23
495.343812
 33
0.0
 14
561.1828
 24
437.115508
 34
0.0
100
AcDbRotatedDimension
  0
ENDSEC
  0
SECTION
  2
OBJECTS
  0
DICTIONARY
  5
C
330
0
100
AcDbDictionary
281
     1
  3
ACAD_GROUP
350
D
  3
ACAD_LAYOUT
350
72A
  3
ACAD_MLINESTYLE
350
E
  3
ACAD_PLOTSETTINGS
350
72B
  3
ACAD_PLOTSTYLENAME
350
727
  3
AcDbVariableDictionary
350
732
  0
DICTIONARY
  5
D
102
{ACAD_REACTORS
330
C
102
}
330
C
100
AcDbDictionary
281
     1
  0
DICTIONARY
  5
72A
102
{ACAD_REACTORS
330
C
102
}
330
C
100
AcDbDictionary
281
     1
  3
Model
350
72C
  3
ﾚｲｱｳﾄ1
350
72D
  0
DICTIONARY
  5
E
102
{ACAD_REACTORS
330
C
102
}
330
C
100
AcDbDictionary
281
     1
  3
STANDARD
350
1C
  0
DICTIONARY
  5
72B
102
{ACAD_REACTORS
330
C
102
}
330
C
100
AcDbDictionary
281
     1
  0
ACDBDICTIONARYWDFLT
  5
727
102
{ACAD_REACTORS
330
C
102
}
330
C
100
AcDbDictionary
281
     1
  3
Normal
350
728
100
AcDbDictionaryWithDefault
340
728
  0
DICTIONARY
  5
732
102
{ACAD_REACTORS
330
C
102
}
330
C
100
AcDbDictionary
281
     1
  3
DIMASSOC
350
733
  0
LAYOUT
  5
72C
102
{ACAD_REACTORS
330
72A
102
}
330
72A
100
AcDbPlotSettings
  1

  2
DCC4535 I 営業統括部①
  4

  6

 40
0.0
 41
0.0
 42
0.0
 43
0.0
 44
0.0
 45
0.0
 46
0.0
 47
0.0
 48
0.0
 49
0.0
140
0.0
141
0.0
142
1.0
143
1.0
 70
  1712
 72
     0
 73
     0
 74
     0
  7

 75
     0
147
1.0
148
0.0
149
0.0
100
AcDbLayout
  1
Model
 70
     1
 71
     0
 10
0.0
 20
0.0
 11
12.0
 21
9.0
 12
0.0
 22
0.0
 32
0.0
 14
0.0
 24
0.0
 34
0.0
 15
0.0
 25
0.0
 35
0.0
146
0.0
 13
0.0
 23
0.0
 33
0.0
 16
1.0
 26
0.0
 36
0.0
 17
0.0
 27
1.0
 37
0.0
 76
     0
330
70E
  0
LAYOUT
  5
72D
102
{ACAD_REACTORS
330
72A
102
}
330
72A
100
AcDbPlotSettings
  1

  2
DCC4535 I 営業統括部①
  4

  6

 40
0.0
 41
0.0
 42
0.0
 43
0.0
 44
0.0
 45
0.0
 46
0.0
 47
0.0
 48
0.0
 49
0.0
140
0.0
141
0.0
142
1.0
143
1.0
 70
   688
 72
     0
 73
     0
 74
     5
  7

 75
    16
147
1.0
148
0.0
149
0.0
100
AcDbLayout
  1
ﾚｲｱｳﾄ1
 70
     1
 71
     1
 10
0.0
 20
0.0
 11
12.0
 21
9.0
 12
0.0
 22
0.0
 32
0.0
 14
1.000000000000000E+20
 24
1.000000000000000E+20
 34
1.000000000000000E+20
 15
-1.000000000000000E+20
 25
-1.000000000000000E+20
 35
-1.000000000000000E+20
146
0.0
 13
0.0
 23
0.0
 33
0.0
 16
1.0
 26
0.0
 36
0.0
 17
0.0
 27
1.0
 37
0.0
 76
     0
330
70F
  0
MLINESTYLE
  5
1C
102
{ACAD_REACTORS
330
E
102
}
330
E
100
AcDbMlineStyle
  2
STANDARD
 70
     0
  3

 62
     0
 51
90.0
 52
90.0
 71
     2
 49
0.5
 62
   256
  6
BYLAYER
 49
-0.5
 62
   256
  6
BYLAYER
  0
ACDBPLACEHOLDER
  5
728
102
{ACAD_REACTORS
330
727
102
}
330
727
  0
DICTIONARYVAR
  5
733
102
{ACAD_REACTORS
330
732
102
}
330
732
100
DictionaryVariables
280
     0
  1
1
  0
ENDSEC
  0
EOF
