  0
SECTION
  2
HEADER
  9
$ACADVER
  1
AC1015
  9
$ACADMAINTVER
 70
    20
  9
$DWGCODEPAGE
  3
ANSI_932
  9
$INSBASE
 10
0.0
 20
0.0
 30
0.0
  9
$EXTMIN
 10
1486.632702136368
 20
473.3019706358409
 30
-0.0000000000112498
  9
$EXTMAX
 10
2611.179314115725
 20
1225.334724877233
 30
0.0000000000002956
  9
$LIMMIN
 10
0.0
 20
0.0
  9
$LIMMAX
 10
420.0
 20
297.0
  9
$ORTHOMODE
 70
     0
  9
$REGENMODE
 70
     1
  9
$FILLMODE
 70
     1
  9
$QTEXTMODE
 70
     0
  9
$MIRRTEXT
 70
     1
  9
$LTSCALE
 40
1.0
  9
$ATTMODE
 70
     1
  9
$TEXTSIZE
 40
5.0
  9
$TRACEWID
 40
0.05
  9
$TEXTSTYLE
  7
ACAD
  9
$CLAYER
  8
寸法
  9
$CELTYPE
  6
CONTINUOUS
  9
$CECOLOR
 62
   256
  9
$CELTSCALE
 40
1.0
  9
$DISPSILH
 70
     0
  9
$DIMSCALE
 40
1.0
  9
$DIMASZ
 40
2.0
  9
$DIMEXO
 40
0.0
  9
$DIMDLI
 40
0.38
  9
$DIMRND
 40
0.0
  9
$DIMDLE
 40
0.0
  9
$DIMEXE
 40
0.0
  9
$DIMTP
 40
0.0
  9
$DIMTM
 40
0.0
  9
$DIMTXT
 40
5.0
  9
$DIMCEN
 40
0.09
  9
$DIMTSZ
 40
0.0
  9
$DIMTOL
 70
     0
  9
$DIMLIM
 70
     0
  9
$DIMTIH
 70
     0
  9
$DIMTOH
 70
     1
  9
$DIMSE1
 70
     0
  9
$DIMSE2
 70
     0
  9
$DIMTAD
 70
     1
  9
$DIMZIN
 70
     0
  9
$DIMBLK
  1
Dot
  9
$DIMASO
 70
     1
  9
$DIMSHO
 70
     1
  9
$DIMPOST
  1

  9
$DIMAPOST
  1

  9
$DIMALT
 70
     0
  9
$DIMALTD
 70
     2
  9
$DIMALTF
 40
25.4
  9
$DIMLFAC
 40
1.0
  9
$DIMTOFL
 70
     0
  9
$DIMTVP
 40
0.0
  9
$DIMTIX
 70
     1
  9
$DIMSOXD
 70
     0
  9
$DIMSAH
 70
     0
  9
$DIMBLK1
  1

  9
$DIMBLK2
  1

  9
$DIMSTYLE
  2
AutoCAD
  9
$DIMCLRD
 70
     4
  9
$DIMCLRE
 70
     4
  9
$DIMCLRT
 70
     3
  9
$DIMTFAC
 40
1.0
  9
$DIMGAP
 40
1.0
  9
$DIMJUST
 70
     0
  9
$DIMSD1
 70
     0
  9
$DIMSD2
 70
     0
  9
$DIMTOLJ
 70
     1
  9
$DIMTZIN
 70
     0
  9
$DIMALTZ
 70
     0
  9
$DIMALTTZ
 70
     0
  9
$DIMUPT
 70
     0
  9
$DIMDEC
 70
     0
  9
$DIMTDEC
 70
     0
  9
$DIMALTU
 70
     2
  9
$DIMALTTD
 70
     2
  9
$DIMTXSTY
  7
ACAD
  9
$DIMAUNIT
 70
     0
  9
$DIMADEC
 70
     0
  9
$DIMALTRND
 40
0.0
  9
$DIMAZIN
 70
     0
  9
$DIMDSEP
 70
    46
  9
$DIMATFIT
 70
     0
  9
$DIMFRAC
 70
     0
  9
$DIMLDRBLK
  1
None
  9
$DIMLUNIT
 70
     2
  9
$DIMLWD
 70
    -2
  9
$DIMLWE
 70
    -2
  9
$DIMTMOVE
 70
     0
  9
$LUNITS
 70
     2
  9
$LUPREC
 70
     4
  9
$SKETCHINC
 40
0.1
  9
$FILLETRAD
 40
0.0
  9
$AUNITS
 70
     0
  9
$AUPREC
 70
     0
  9
$MENU
  1
.
  9
$ELEVATION
 40
0.0
  9
$PELEVATION
 40
0.0
  9
$THICKNESS
 40
0.0
  9
$LIMCHECK
 70
     0
  9
$CHAMFERA
 40
0.0
  9
$CHAMFERB
 40
0.0
  9
$CHAMFERC
 40
0.0
  9
$CHAMFERD
 40
0.0
  9
$SKPOLY
 70
     0
  9
$TDCREATE
 40
2454316.693457674
  9
$TDUCREATE
 40
2454316.318457674
  9
$TDUPDATE
 40
2454733.655378137
  9
$TDUUPDATE
 40
2454733.280378137
  9
$TDINDWG
 40
0.2590235764
  9
$TDUSRTIMER
 40
0.2590235764
  9
$USRTIMER
 70
     1
  9
$ANGBASE
 50
0.0
  9
$ANGDIR
 70
     0
  9
$PDMODE
 70
     0
  9
$PDSIZE
 40
0.0
  9
$PLINEWID
 40
0.0
  9
$SPLFRAME
 70
     0
  9
$SPLINETYPE
 70
     6
  9
$SPLINESEGS
 70
     8
  9
$HANDSEED
  5
769A
  9
$SURFTAB1
 70
     6
  9
$SURFTAB2
 70
     6
  9
$SURFTYPE
 70
     6
  9
$SURFU
 70
     6
  9
$SURFV
 70
     6
  9
$UCSBASE
  2

  9
$UCSNAME
  2

  9
$UCSORG
 10
0.0
 20
0.0
 30
0.0
  9
$UCSXDIR
 10
1.0
 20
0.0
 30
0.0
  9
$UCSYDIR
 10
0.0
 20
1.0
 30
0.0
  9
$UCSORTHOREF
  2

  9
$UCSORTHOVIEW
 70
     0
  9
$UCSORGTOP
 10
0.0
 20
0.0
 30
0.0
  9
$UCSORGBOTTOM
 10
0.0
 20
0.0
 30
0.0
  9
$UCSORGLEFT
 10
0.0
 20
0.0
 30
0.0
  9
$UCSORGRIGHT
 10
0.0
 20
0.0
 30
0.0
  9
$UCSORGFRONT
 10
0.0
 20
0.0
 30
0.0
  9
$UCSORGBACK
 10
0.0
 20
0.0
 30
0.0
  9
$PUCSBASE
  2

  9
$PUCSNAME
  2

  9
$PUCSORG
 10
0.0
 20
0.0
 30
0.0
  9
$PUCSXDIR
 10
1.0
 20
0.0
 30
0.0
  9
$PUCSYDIR
 10
0.0
 20
1.0
 30
0.0
  9
$PUCSORTHOREF
  2

  9
$PUCSORTHOVIEW
 70
     0
  9
$PUCSORGTOP
 10
0.0
 20
0.0
 30
0.0
  9
$PUCSORGBOTTOM
 10
0.0
 20
0.0
 30
0.0
  9
$PUCSORGLEFT
 10
0.0
 20
0.0
 30
0.0
  9
$PUCSORGRIGHT
 10
0.0
 20
0.0
 30
0.0
  9
$PUCSORGFRONT
 10
0.0
 20
0.0
 30
0.0
  9
$PUCSORGBACK
 10
0.0
 20
0.0
 30
0.0
  9
$USERI1
 70
     0
  9
$USERI2
 70
     0
  9
$USERI3
 70
     0
  9
$USERI4
 70
     0
  9
$USERI5
 70
     0
  9
$USERR1
 40
0.0
  9
$USERR2
 40
0.0
  9
$USERR3
 40
0.0
  9
$USERR4
 40
0.0
  9
$USERR5
 40
0.0
  9
$WORLDVIEW
 70
     1
  9
$SHADEDGE
 70
     3
  9
$SHADEDIF
 70
    70
  9
$TILEMODE
 70
     1
  9
$MAXACTVP
 70
    48
  9
$PINSBASE
 10
0.0
 20
0.0
 30
0.0
  9
$PLIMCHECK
 70
     0
  9
$PEXTMIN
 10
1.000000000000000E+20
 20
1.000000000000000E+20
 30
1.000000000000000E+20
  9
$PEXTMAX
 10
-1.000000000000000E+20
 20
-1.000000000000000E+20
 30
-1.000000000000000E+20
  9
$PLIMMIN
 10
0.0
 20
0.0
  9
$PLIMMAX
 10
12.0
 20
9.0
  9
$UNITMODE
 70
     0
  9
$VISRETAIN
 70
     0
  9
$PLINEGEN
 70
     0
  9
$PSLTSCALE
 70
     1
  9
$TREEDEPTH
 70
  3020
  9
$CMLSTYLE
  2
Standard
  9
$CMLJUST
 70
     0
  9
$CMLSCALE
 40
1.0
  9
$PROXYGRAPHICS
 70
     1
  9
$MEASUREMENT
 70
     0
  9
$CELWEIGHT
370
    -1
  9
$ENDCAPS
280
     0
  9
$JOINSTYLE
280
     0
  9
$LWDISPLAY
290
     0
  9
$INSUNITS
 70
     0
  9
$HYPERLINKBASE
  1

  9
$STYLESHEET
  1

  9
$XEDIT
290
     1
  9
$CEPSNTYPE
380
     0
  9
$PSTYLEMODE
290
     1
  9
$FINGERPRINTGUID
  2
{CC7D6DEE-A9F1-4F3E-AC95-C84B62CCA3FD}
  9
$VERSIONGUID
  2
{A4F5B549-D4AD-4DB5-BFFA-3794AA31149B}
  9
$EXTNAMES
290
     1
  9
$PSVPSCALE
 40
0.0
  9
$OLESTARTUP
290
     0
  0
ENDSEC
  0
SECTION
  2
CLASSES
  0
CLASS
  1
ACDBDICTIONARYWDFLT
  2
AcDbDictionaryWithDefault
  3
ObjectDBX Classes
 90
        0
280
     0
281
     0
  0
CLASS
  1
ACDBPLACEHOLDER
  2
AcDbPlaceHolder
  3
ObjectDBX Classes
 90
        0
280
     0
281
     0
  0
CLASS
  1
LAYOUT
  2
AcDbLayout
  3
ObjectDBX Classes
 90
        0
280
     0
281
     0
  0
CLASS
  1
DICTIONARYVAR
  2
AcDbDictionaryVar
  3
ObjectDBX Classes
 90
        0
280
     0
281
     0
  0
CLASS
  1
TABLESTYLE
  2
AcDbTableStyle
  3
ObjectDBX Classes
 90
     2047
280
     0
281
     0
  0
ENDSEC
  0
SECTION
  2
TABLES
  0
TABLE
  2
VPORT
  5
8
330
0
100
AcDbSymbolTable
 70
     3
  0
VPORT
  5
7694
330
8
100
AcDbSymbolTableRecord
100
AcDbViewportTableRecord
  2
*Active
 70
     0
 10
0.0
 20
0.0
 11
1.0
 21
1.0
 12
2062.513642746553
 22
846.4481685258339
 13
0.0
 23
0.0
 14
1.0
 24
1.0
 15
0.0
 25
0.0
 16
0.0
 26
0.0
 36
1.0
 17
0.0
 27
0.0
 37
0.0
 40
848.9330757800725
 41
1.542635658914728
 42
50.0
 43
0.0
 44
0.0
 50
0.0
 51
0.0
 71
     0
 72
   100
 73
     1
 74
     1
 75
     0
 76
     0
 77
     0
 78
     0
281
     0
 65
     1
110
0.0
120
0.0
130
0.0
111
1.0
121
0.0
131
0.0
112
0.0
122
1.0
132
0.0
 79
     0
146
0.0
  0
ENDTAB
  0
TABLE
  2
LTYPE
  5
5
330
0
100
AcDbSymbolTable
 70
    51
  0
LTYPE
  5
13
330
5
100
AcDbSymbolTableRecord
100
AcDbLinetypeTableRecord
  2
ByBlock
 70
     0
  3

 72
    65
 73
     0
 40
0.0
  0
LTYPE
  5
14
330
5
100
AcDbSymbolTableRecord
100
AcDbLinetypeTableRecord
  2
ByLayer
 70
     0
  3

 72
    65
 73
     0
 40
0.0
  0
LTYPE
  5
15
330
5
100
AcDbSymbolTableRecord
100
AcDbLinetypeTableRecord
  2
CONTINUOUS
 70
     0
  3
実線
 72
    65
 73
     0
 40
0.0
  0
LTYPE
  5
22
330
5
100
AcDbSymbolTableRecord
100
AcDbLinetypeTableRecord
  2
DASHED1
 70
     0
  3
--  --  --  --  --  --  --  --  
 72
    65
 73
     2
 40
2.5
 49
1.25
 74
     0
 49
-1.25
 74
     0
  0
LTYPE
  5
23
330
5
100
AcDbSymbolTableRecord
100
AcDbLinetypeTableRecord
  2
DASHED2
 70
     0
  3
----    ----    ----    ----    
 72
    65
 73
     2
 40
5.0
 49
2.5
 74
     0
 49
-2.5
 74
     0
  0
LTYPE
  5
24
330
5
100
AcDbSymbolTableRecord
100
AcDbLinetypeTableRecord
  2
DASHED3
 70
     0
  3
------  ------  ------  ------  
 72
    65
 73
     2
 40
5.0
 49
3.75
 74
     0
 49
-1.25
 74
     0
  0
LTYPE
  5
25
330
5
100
AcDbSymbolTableRecord
100
AcDbLinetypeTableRecord
  2
CENTER1
 70
     0
  3
----- - ----- - ----- - ----- - 
 72
    65
 73
     4
 40
10.0
 49
6.25
 74
     0
 49
-1.25
 74
     0
 49
1.25
 74
     0
 49
-1.25
 74
     0
  0
LTYPE
  5
26
330
5
100
AcDbSymbolTableRecord
100
AcDbLinetypeTableRecord
  2
CENTER2
 70
     0
  3
----------  --  ----------  --  
 72
    65
 73
     4
 40
20.0
 49
12.5
 74
     0
 49
-2.5
 74
     0
 49
2.5
 74
     0
 49
-2.5
 74
     0
  0
LTYPE
  5
27
330
5
100
AcDbSymbolTableRecord
100
AcDbLinetypeTableRecord
  2
PHANTOM1
 70
     0
  3
--- - - --- - - --- - - --- - - 
 72
    65
 73
     6
 40
10.0
 49
3.25
 74
     0
 49
-1.25
 74
     0
 49
1.25
 74
     0
 49
-1.25
 74
     0
 49
1.25
 74
     0
 49
-1.25
 74
     0
  0
LTYPE
  5
28
330
5
100
AcDbSymbolTableRecord
100
AcDbLinetypeTableRecord
  2
PHANTOM2
 70
     0
  3
--------  -  -  --------  -  -  
 72
    65
 73
     6
 40
20.0
 49
10.0
 74
     0
 49
-2.5
 74
     0
 49
1.25
 74
     0
 49
-2.5
 74
     0
 49
1.25
 74
     0
 49
-2.5
 74
     0
  0
LTYPE
  5
29
330
5
100
AcDbSymbolTableRecord
100
AcDbLinetypeTableRecord
  2
DOT
 70
     0
  3
-   -   -   -   -   -   -   -   
 72
    65
 73
     2
 40
2.5
 49
0.625
 74
     0
 49
-1.875
 74
     0
  0
LTYPE
  5
2A
330
5
100
AcDbSymbolTableRecord
100
AcDbLinetypeTableRecord
  2
DUMMY
 70
     0
  3
ダミー
 72
    65
 73
     0
 40
0.0
  0
LTYPE
  5
2B
330
5
100
AcDbSymbolTableRecord
100
AcDbLinetypeTableRecord
  2
RAND1
 70
     0
  3
ランダム線1
 72
    65
 73
     4
 40
10.0
 49
1.0
 74
     0
 49
-2.0
 74
     0
 49
3.0
 74
     0
 49
-4.0
 74
     0
  0
LTYPE
  5
2C
330
5
100
AcDbSymbolTableRecord
100
AcDbLinetypeTableRecord
  2
RAND2
 70
     0
  3
ランダム線2
 72
    65
 73
     4
 40
14.0
 49
2.0
 74
     0
 49
-3.0
 74
     0
 49
4.0
 74
     0
 49
-5.0
 74
     0
  0
LTYPE
  5
2D
330
5
100
AcDbSymbolTableRecord
100
AcDbLinetypeTableRecord
  2
RAND3
 70
     0
  3
ランダム線3
 72
    65
 73
     4
 40
18.0
 49
3.0
 74
     0
 49
-4.0
 74
     0
 49
5.0
 74
     0
 49
-6.0
 74
     0
  0
LTYPE
  5
2E
330
5
100
AcDbSymbolTableRecord
100
AcDbLinetypeTableRecord
  2
RAND4
 70
     0
  3
ランダム線4
 72
    65
 73
     4
 40
22.0
 49
4.0
 74
     0
 49
-5.0
 74
     0
 49
6.0
 74
     0
 49
-7.0
 74
     0
  0
LTYPE
  5
2F
330
5
100
AcDbSymbolTableRecord
100
AcDbLinetypeTableRecord
  2
RAND5
 70
     0
  3
ランダム線5
 72
    65
 73
     4
 40
26.0
 49
5.0
 74
     0
 49
-6.0
 74
     0
 49
7.0
 74
     0
 49
-8.0
 74
     0
  0
LTYPE
  5
30
330
5
100
AcDbSymbolTableRecord
100
AcDbLinetypeTableRecord
  2
LONG1
 70
     0
  3
----------  --  ----------  --  
 72
    65
 73
     4
 40
40.0
 49
32.5
 74
     0
 49
-2.5
 74
     0
 49
2.5
 74
     0
 49
-2.5
 74
     0
  0
LTYPE
  5
31
330
5
100
AcDbSymbolTableRecord
100
AcDbLinetypeTableRecord
  2
LONG2
 70
     0
  3
--------  -  -  --------  -  -  
 72
    65
 73
     6
 40
40.0
 49
30.0
 74
     0
 49
-2.5
 74
     0
 49
1.25
 74
     0
 49
-2.5
 74
     0
 49
1.25
 74
     0
 49
-2.5
 74
     0
  0
LTYPE
  5
32
330
5
100
AcDbSymbolTableRecord
100
AcDbLinetypeTableRecord
  2
LONG3
 70
     0
  3
+++++++++++++++..+++++++++++++++
 72
    65
 73
     2
 40
40.0
 49
37.5
 74
     0
 49
-2.5
 74
     0
  0
LTYPE
  5
33
330
5
100
AcDbSymbolTableRecord
100
AcDbLinetypeTableRecord
  2
LONG4
 70
     0
  3
+++++++++++++++..+++++++++++++++
 72
    65
 73
     2
 40
80.0
 49
75.0
 74
     0
 49
-5.0
 74
     0
  0
LTYPE
  5
34
330
5
100
AcDbSymbolTableRecord
100
AcDbLinetypeTableRecord
  2
LONG5
 70
     0
  3
----------  --  ----------  --  
 72
    65
 73
     4
 40
60.0
 49
37.5
 74
     0
 49
-7.5
 74
     0
 49
7.5
 74
     0
 49
-7.5
 74
     0
  0
LTYPE
  5
35
330
5
100
AcDbSymbolTableRecord
100
AcDbLinetypeTableRecord
  2
DASHED
 70
     0
  3
-------   -------------   ------
 72
    65
 73
     2
 40
7.5
 49
6.0
 74
     0
 49
-1.5
 74
     0
  0
LTYPE
  5
36
330
5
100
AcDbSymbolTableRecord
100
AcDbLinetypeTableRecord
  2
DASHED_SPACED
 70
     0
  3
----        --------        ----
 72
    65
 73
     2
 40
12.0
 49
6.0
 74
     0
 49
-6.0
 74
     0
  0
LTYPE
  5
37
330
5
100
AcDbSymbolTableRecord
100
AcDbLinetypeTableRecord
  2
LONG_DASHED_DOTTED
 70
     0
  3
------------- --- --------------
 72
    65
 73
     4
 40
15.25
 49
12.0
 74
     0
 49
-1.5
 74
     0
 49
0.25
 74
     0
 49
-1.5
 74
     0
  0
LTYPE
  5
38
330
5
100
AcDbSymbolTableRecord
100
AcDbLinetypeTableRecord
  2
LONG_DASHED_DOUBLE-DOTTED
 70
     0
  3
----------- --- --- ------------
 72
    65
 73
     6
 40
17.0
 49
12.0
 74
     0
 49
-1.5
 74
     0
 49
0.25
 74
     0
 49
-1.5
 74
     0
 49
0.25
 74
     0
 49
-1.5
 74
     0
  0
LTYPE
  5
39
330
5
100
AcDbSymbolTableRecord
100
AcDbLinetypeTableRecord
  2
LONG_DASHED_TRIPLICATE-DOTTED
 70
     0
  3
--------- --- --- --- ----------
 72
    65
 73
     8
 40
18.75
 49
12.0
 74
     0
 49
-1.5
 74
     0
 49
0.25
 74
     0
 49
-1.5
 74
     0
 49
0.25
 74
     0
 49
-1.5
 74
     0
 49
0.25
 74
     0
 49
-1.5
 74
     0
  0
LTYPE
  5
3A
330
5
100
AcDbSymbolTableRecord
100
AcDbLinetypeTableRecord
  2
DOTTED
 70
     0
  3
   -       -       -       -    
 72
    65
 73
     2
 40
1.75
 49
0.25
 74
     0
 49
-1.5
 74
     0
  0
LTYPE
  5
3B
330
5
100
AcDbSymbolTableRecord
100
AcDbLinetypeTableRecord
  2
CHAIN
 70
     0
  3
-------------- -- --------------
 72
    65
 73
     4
 40
18.5
 49
12.0
 74
     0
 49
-1.5
 74
     0
 49
3.5
 74
     0
 49
-1.5
 74
     0
  0
LTYPE
  5
3C
330
5
100
AcDbSymbolTableRecord
100
AcDbLinetypeTableRecord
  2
CHAIN_DOUBLE_DASH
 70
     0
  3
------------ -- -- -------------
 72
    65
 73
     6
 40
23.5
 49
12.0
 74
     0
 49
-1.5
 74
     0
 49
3.5
 74
     0
 49
-1.5
 74
     0
 49
3.5
 74
     0
 49
-1.5
 74
     0
  0
LTYPE
  5
3D
330
5
100
AcDbSymbolTableRecord
100
AcDbLinetypeTableRecord
  2
DASHED_DOTTED
 70
     0
  3
-----------     -     ----------
 72
    65
 73
     4
 40
9.25
 49
6.0
 74
     0
 49
-1.5
 74
     0
 49
0.25
 74
     0
 49
-1.5
 74
     0
  0
LTYPE
  5
3E
330
5
100
AcDbSymbolTableRecord
100
AcDbLinetypeTableRecord
  2
DOUBLE-DASHED_DOTTED
 70
     0
  3
------   -----------   -   -----
 72
    65
 73
     6
 40
16.75
 49
6.0
 74
     0
 49
-1.5
 74
     0
 49
6.0
 74
     0
 49
-1.5
 74
     0
 49
0.25
 74
     0
 49
-1.5
 74
     0
  0
LTYPE
  5
3F
330
5
100
AcDbSymbolTableRecord
100
AcDbLinetypeTableRecord
  2
DASHED_DOUBLE-DOTTED
 70
     0
  3
---------    -    -    ---------
 72
    65
 73
     6
 40
11.0
 49
6.0
 74
     0
 49
-1.5
 74
     0
 49
0.25
 74
     0
 49
-1.5
 74
     0
 49
0.25
 74
     0
 49
-1.5
 74
     0
  0
LTYPE
  5
40
330
5
100
AcDbSymbolTableRecord
100
AcDbLinetypeTableRecord
  2
DOUBLE-DASHED_DOUBLE-DOTTED
 70
     0
  3
-----   ---------   -   -   ----
 72
    65
 73
     8
 40
18.5
 49
6.0
 74
     0
 49
-1.5
 74
     0
 49
6.0
 74
     0
 49
-1.5
 74
     0
 49
0.25
 74
     0
 49
-1.5
 74
     0
 49
0.25
 74
     0
 49
-1.5
 74
     0
  0
LTYPE
  5
41
330
5
100
AcDbSymbolTableRecord
100
AcDbLinetypeTableRecord
  2
DASHED_TRIPLICATE-DOTTED
 70
     0
  3
-------    -    -    -    ------
 72
    65
 73
     8
 40
12.75
 49
6.0
 74
     0
 49
-1.5
 74
     0
 49
0.25
 74
     0
 49
-1.5
 74
     0
 49
0.25
 74
     0
 49
-1.5
 74
     0
 49
0.25
 74
     0
 49
-1.5
 74
     0
  0
LTYPE
  5
42
330
5
100
AcDbSymbolTableRecord
100
AcDbLinetypeTableRecord
  2
DOUBLE-DASHED_TRIPLICATE-DOTTED
 70
     0
  3
-----  ---------  -  -  -  -----
 72
    65
 73
    10
 40
20.25
 49
6.0
 74
     0
 49
-1.5
 74
     0
 49
6.0
 74
     0
 49
-1.5
 74
     0
 49
0.25
 74
     0
 49
-1.5
 74
     0
 49
0.25
 74
     0
 49
-1.5
 74
     0
 49
0.25
 74
     0
 49
-1.5
 74
     0
  0
LTYPE
  5
43
330
5
100
AcDbSymbolTableRecord
100
AcDbLinetypeTableRecord
  2
UNDEFINED
 70
     0
  3
--------------------------------
 72
    65
 73
     0
 40
0.0
  0
LTYPE
  5
44
330
5
100
AcDbSymbolTableRecord
100
AcDbLinetypeTableRecord
  2
PLINE2
 70
     0
  3
------     -----------     -----
 72
    65
 73
     2
 40
3.0
 49
2.1
 74
     0
 49
-0.9
 74
     0
  0
LTYPE
  5
45
330
5
100
AcDbSymbolTableRecord
100
AcDbLinetypeTableRecord
  2
PLINE3
 70
     0
  3
------------   ---   -----------
 72
    65
 73
     4
 40
10.0
 49
7.0
 74
     0
 49
-1.0
 74
     0
 49
1.0
 74
     0
 49
-1.0
 74
     0
  0
LTYPE
  5
46
330
5
100
AcDbSymbolTableRecord
100
AcDbLinetypeTableRecord
  2
PLINE4
 70
     0
  3
---------   ---   ---   --------
 72
    65
 73
     6
 40
10.0
 49
5.0
 74
     0
 49
-1.0
 74
     0
 49
1.0
 74
     0
 49
-1.0
 74
     0
 49
1.0
 74
     0
 49
-1.0
 74
     0
  0
LTYPE
  5
47
330
5
100
AcDbSymbolTableRecord
100
AcDbLinetypeTableRecord
  2
PLINE5
 70
     0
  3
------     -----------     -----
 72
    65
 73
     2
 40
5.0
 49
3.5
 74
     0
 49
-1.5
 74
     0
  0
LTYPE
  5
48
330
5
100
AcDbSymbolTableRecord
100
AcDbLinetypeTableRecord
  2
PLINE6
 70
     0
  3
------------   ---   -----------
 72
    65
 73
     4
 40
15.0
 49
10.5
 74
     0
 49
-1.5
 74
     0
 49
1.5
 74
     0
 49
-1.5
 74
     0
  0
LTYPE
  5
49
330
5
100
AcDbSymbolTableRecord
100
AcDbLinetypeTableRecord
  2
PLINE7
 70
     0
  3
---------   ---   ---   --------
 72
    65
 73
     6
 40
15.0
 49
7.5
 74
     0
 49
-1.5
 74
     0
 49
1.5
 74
     0
 49
-1.5
 74
     0
 49
1.5
 74
     0
 49
-1.5
 74
     0
  0
LTYPE
  5
4A
330
5
100
AcDbSymbolTableRecord
100
AcDbLinetypeTableRecord
  2
PLINE8
 70
     0
  3
------     -----------     -----
 72
    65
 73
     2
 40
7.0
 49
4.9
 74
     0
 49
-2.1
 74
     0
  0
LTYPE
  5
4B
330
5
100
AcDbSymbolTableRecord
100
AcDbLinetypeTableRecord
  2
PLINE9
 70
     0
  3
------------   ---   -----------
 72
    65
 73
     4
 40
20.0
 49
14.0
 74
     0
 49
-2.0
 74
     0
 49
2.0
 74
     0
 49
-2.0
 74
     0
  0
LTYPE
  5
4C
330
5
100
AcDbSymbolTableRecord
100
AcDbLinetypeTableRecord
  2
PLINE10
 70
     0
  3
---------   ---   ---   --------
 72
    65
 73
     6
 40
20.0
 49
10.0
 74
     0
 49
-2.0
 74
     0
 49
2.0
 74
     0
 49
-2.0
 74
     0
 49
2.0
 74
     0
 49
-2.0
 74
     0
  0
LTYPE
  5
4D
330
5
100
AcDbSymbolTableRecord
100
AcDbLinetypeTableRecord
  2
PLINE11
 70
     0
  3
------     -----------     -----
 72
    65
 73
     2
 40
9.0
 49
6.299999999999999
 74
     0
 49
-2.7
 74
     0
  0
LTYPE
  5
4E
330
5
100
AcDbSymbolTableRecord
100
AcDbLinetypeTableRecord
  2
PLINE12
 70
     0
  3
------------   ---   -----------
 72
    65
 73
     4
 40
25.0
 49
17.5
 74
     0
 49
-2.5
 74
     0
 49
2.5
 74
     0
 49
-2.5
 74
     0
  0
LTYPE
  5
4F
330
5
100
AcDbSymbolTableRecord
100
AcDbLinetypeTableRecord
  2
PLINE13
 70
     0
  3
---------   ---   ---   --------
 72
    65
 73
     6
 40
25.0
 49
12.5
 74
     0
 49
-2.5
 74
     0
 49
2.5
 74
     0
 49
-2.5
 74
     0
 49
2.5
 74
     0
 49
-2.5
 74
     0
  0
LTYPE
  5
50
330
5
100
AcDbSymbolTableRecord
100
AcDbLinetypeTableRecord
  2
PLINE14
 70
     0
  3
------     -----------     -----
 72
    65
 73
     2
 40
11.0
 49
7.7
 74
     0
 49
-3.299999999999999
 74
     0
  0
LTYPE
  5
51
330
5
100
AcDbSymbolTableRecord
100
AcDbLinetypeTableRecord
  2
PLINE15
 70
     0
  3
------------   ---   -----------
 72
    65
 73
     4
 40
30.0
 49
21.0
 74
     0
 49
-3.0
 74
     0
 49
3.0
 74
     0
 49
-3.0
 74
     0
  0
LTYPE
  5
52
330
5
100
AcDbSymbolTableRecord
100
AcDbLinetypeTableRecord
  2
PLINE16
 70
     0
  3
---------   ---   ---   --------
 72
    65
 73
     6
 40
30.0
 49
15.0
 74
     0
 49
-3.0
 74
     0
 49
3.0
 74
     0
 49
-3.0
 74
     0
 49
3.0
 74
     0
 49
-3.0
 74
     0
  0
LTYPE
  5
678A
330
5
100
AcDbSymbolTableRecord
100
AcDbLinetypeTableRecord
  2
CENTER2_22
 70
     0
  3
-------------  --  -------------
 72
    65
 73
     4
 40
13.0
 49
10.0
 74
     0
 49
-1.0
 74
     0
 49
1.0
 74
     0
 49
-1.0
 74
     0
  0
ENDTAB
  0
TABLE
  2
LAYER
  5
2
102
{ACAD_XDICTIONARY
360
175
102
}
330
0
100
AcDbSymbolTable
 70
     5
  0
LAYER
  5
10
330
2
100
AcDbSymbolTableRecord
100
AcDbLayerTableRecord
  2
0
 70
     0
 62
     7
  6
CONTINUOUS
370
    -3
390
F
  0
LAYER
  5
128
330
2
100
AcDbSymbolTableRecord
100
AcDbLayerTableRecord
  2
Defpoints
 70
     0
 62
     7
  6
CONTINUOUS
290
     0
370
    -3
390
F
  0
LAYER
  5
178
330
2
100
AcDbSymbolTableRecord
100
AcDbLayerTableRecord
  2
寸法
 70
     0
 62
     7
  6
CONTINUOUS
370
    -3
390
F
  0
LAYER
  5
179
330
2
100
AcDbSymbolTableRecord
100
AcDbLayerTableRecord
  2
躯体と製品
 70
     0
 62
     7
  6
CONTINUOUS
370
    -3
390
F
  0
LAYER
  5
4F62
330
2
100
AcDbSymbolTableRecord
100
AcDbLayerTableRecord
  2
図枠
 70
     0
 62
     7
  6
CONTINUOUS
370
    -3
390
F
  0
ENDTAB
  0
TABLE
  2
STYLE
  5
3
330
0
100
AcDbSymbolTable
 70
     5
  0
STYLE
  5
11
330
3
100
AcDbSymbolTableRecord
100
AcDbTextStyleTableRecord
  2
STANDARD
 70
     0
 40
0.0
 41
1.0
 50
0.0
 71
     0
 42
0.2
  3
txt
  4
bigfont.shx
  0
STYLE
  5
53
330
3
100
AcDbSymbolTableRecord
100
AcDbTextStyleTableRecord
  2
TATEGAKI
 70
     4
 40
0.0
 41
1.0
 50
0.0
 71
     0
 42
1.0
  3
txt
  4
bigfont.shx
  0
STYLE
  5
123
330
3
100
AcDbSymbolTableRecord
100
AcDbTextStyleTableRecord
  2
ACAD
 70
     0
 40
10.0
 41
0.8
 50
0.0
 71
     0
 42
5.0
  3
romans.shx
  4
extfont.shx
  0
STYLE
  5
3A5F
330
3
100
AcDbSymbolTableRecord
100
AcDbTextStyleTableRecord
  2
VERTXT
 70
     4
 40
0.0
 41
0.8582679999999999
 50
0.0
 71
     0
 42
3.5
  3
txt.shx
  4
BIGFONT
  0
STYLE
  5
50AD
330
3
100
AcDbSymbolTableRecord
100
AcDbTextStyleTableRecord
  2
STANDARD2
 70
     0
 40
0.0
 41
0.8582679999999999
 50
0.0
 71
     0
 42
3.5
  3
txt.shx
  4
EXTFONT
  0
ENDTAB
  0
TABLE
  2
VIEW
  5
6
330
0
100
AcDbSymbolTable
 70
     0
  0
ENDTAB
  0
TABLE
  2
UCS
  5
7
330
0
100
AcDbSymbolTable
 70
     0
  0
ENDTAB
  0
TABLE
  2
APPID
  5
9
330
0
100
AcDbSymbolTable
 70
     9
  0
APPID
  5
12
330
9
100
AcDbSymbolTableRecord
100
AcDbRegAppTableRecord
  2
ACAD
 70
     0
  0
APPID
  5
7218
330
9
100
AcDbSymbolTableRecord
100
AcDbRegAppTableRecord
  2
ACAD_DSTYLE_DIMTEXT_FILL
 70
     0
  0
APPID
  5
7219
330
9
100
AcDbSymbolTableRecord
100
AcDbRegAppTableRecord
  2
ACAD_DSTYLE_DIMEXT_LENGTH
 70
     0
  0
APPID
  5
721A
330
9
100
AcDbSymbolTableRecord
100
AcDbRegAppTableRecord
  2
ACAD_DSTYLE_DIMEXT_ENABLED
 70
     0
  0
APPID
  5
721B
330
9
100
AcDbSymbolTableRecord
100
AcDbRegAppTableRecord
  2
ACAD_DSTYLE_DIM_LINETYPE
 70
     0
  0
APPID
  5
721C
330
9
100
AcDbSymbolTableRecord
100
AcDbRegAppTableRecord
  2
ACAD_DSTYLE_DIM_EXT1_LINETYPE
 70
     0
  0
APPID
  5
721D
330
9
100
AcDbSymbolTableRecord
100
AcDbRegAppTableRecord
  2
ACAD_DSTYLE_DIM_EXT2_LINETYPE
 70
     0
  0
APPID
  5
72D9
330
9
100
AcDbSymbolTableRecord
100
AcDbRegAppTableRecord
  2
ACAD_DSTYLE_DIMJOGGED_JOGANGLE_SYMBOL
 70
     0
  0
APPID
  5
748D
330
9
100
AcDbSymbolTableRecord
100
AcDbRegAppTableRecord
  2
ACAD_DSTYLE_DIMARC_LENGTH_SYMBOL
 70
     0
  0
ENDTAB
  0
TABLE
  2
DIMSTYLE
  5
A
330
0
100
AcDbSymbolTable
 70
     3
100
AcDbDimStyleTable
 71
     1
340
126
  0
DIMSTYLE
105
11C
330
A
100
AcDbSymbolTableRecord
100
AcDbDimStyleTableRecord
  2
Standard
 70
     0
340
11
  0
DIMSTYLE
105
126
102
{ACAD_REACTORS
330
74F2
330
750C
330
7526
330
7533
330
7540
330
754C
330
7559
330
7566
330
7573
330
7580
330
758D
330
759A
330
75A7
330
75B4
330
75C1
330
75CD
330
75D9
330
75E6
330
75F2
330
75FF
330
760C
330
7619
330
7626
330
7680
102
}
330
A
100
AcDbSymbolTableRecord
100
AcDbDimStyleTableRecord
  2
AutoCAD
 70
     0
 41
2.0
 42
0.0
 44
0.0
 73
     0
 77
     1
140
5.0
147
1.0
174
     1
176
     4
177
     4
178
     3
271
     0
272
     0
289
     0
340
123
341
15B0
342
11E
1001
ACAD_DSTYLE_DIMEXT_LENGTH
1070
   378
1040
0.0
1001
ACAD_DSTYLE_DIMEXT_ENABLED
1070
   383
1070
     0
1001
ACAD_DSTYLE_DIMARC_LENGTH_SYMBOL
1070
   379
1070
     0
1001
ACAD_DSTYLE_DIMJOGGED_JOGANGLE_SYMBOL
1070
   384
1040
0.7853981633974483
  0
DIMSTYLE
105
2CBB
330
A
100
AcDbSymbolTableRecord
100
AcDbDimStyleTableRecord
  2
111
 70
     0
 41
1.0
 42
0.0
 44
0.0
 73
     0
 77
     1
140
5.0
147
1.0
174
     1
176
     4
177
     4
178
     3
271
     0
272
     0
289
     0
340
123
341
15B0
342
2CB5
  0
ENDTAB
  0
TABLE
  2
BLOCK_RECORD
  5
1
330
0
100
AcDbSymbolTable
 70
    28
  0
BLOCK_RECORD
  5
1E
102
{ACAD_XDICTIONARY
360
28B
102
}
330
1
100
AcDbSymbolTableRecord
100
AcDbBlockTableRecord
  2
*Model_Space
340
21
  0
BLOCK_RECORD
  5
1A
102
{ACAD_XDICTIONARY
360
28D
102
}
330
1
100
AcDbSymbolTableRecord
100
AcDbBlockTableRecord
  2
*Paper_Space
340
1D
  0
BLOCK_RECORD
  5
11E
330
1
100
AcDbSymbolTableRecord
100
AcDbBlockTableRecord
  2
_Dot
340
0
102
{BLKREFS
331
74F7
331
74F8
331
7511
331
7512
331
752B
331
752C
331
7538
331
7539
331
7551
331
7552
331
7585
331
7586
331
7592
331
7593
331
759F
331
75A0
331
75AC
331
75AD
331
75B9
331
75BA
331
75C5
331
75C6
331
75D1
331
75D2
331
75DE
331
75DF
331
75EA
331
75EB
331
7604
331
7605
331
761E
331
761F
331
7629
331
762A
331
7634
331
7635
331
763D
331
763E
331
764F
331
7650
331
7658
331
7659
331
7671
331
7672
331
767A
331
767B
331
7684
331
7685
102
}
  0
BLOCK_RECORD
  5
15B0
330
1
100
AcDbSymbolTableRecord
100
AcDbBlockTableRecord
  2
_None
340
0
  0
BLOCK_RECORD
  5
2CB5
330
1
100
AcDbSymbolTableRecord
100
AcDbBlockTableRecord
  2
_Open30
340
0
  0
BLOCK_RECORD
  5
35E3
330
1
100
AcDbSymbolTableRecord
100
AcDbBlockTableRecord
  2
_DotBlank
340
0
  0
BLOCK_RECORD
  5
74F3
330
1
100
AcDbSymbolTableRecord
100
AcDbBlockTableRecord
  2
*D4
340
0
  0
BLOCK_RECORD
  5
750D
330
1
100
AcDbSymbolTableRecord
100
AcDbBlockTableRecord
  2
*D5
340
0
  0
BLOCK_RECORD
  5
7527
330
1
100
AcDbSymbolTableRecord
100
AcDbBlockTableRecord
  2
*D6
340
0
  0
BLOCK_RECORD
  5
7534
330
1
100
AcDbSymbolTableRecord
100
AcDbBlockTableRecord
  2
*D7
340
0
  0
BLOCK_RECORD
  5
7541
330
1
100
AcDbSymbolTableRecord
100
AcDbBlockTableRecord
  2
*D8
340
0
  0
BLOCK_RECORD
  5
754D
330
1
100
AcDbSymbolTableRecord
100
AcDbBlockTableRecord
  2
*D9
340
0
  0
BLOCK_RECORD
  5
755A
330
1
100
AcDbSymbolTableRecord
100
AcDbBlockTableRecord
  2
*D10
340
0
  0
BLOCK_RECORD
  5
7567
330
1
100
AcDbSymbolTableRecord
100
AcDbBlockTableRecord
  2
*D11
340
0
  0
BLOCK_RECORD
  5
7574
330
1
100
AcDbSymbolTableRecord
100
AcDbBlockTableRecord
  2
*D12
340
0
  0
BLOCK_RECORD
  5
7581
330
1
100
AcDbSymbolTableRecord
100
AcDbBlockTableRecord
  2
*D13
340
0
  0
BLOCK_RECORD
  5
758E
330
1
100
AcDbSymbolTableRecord
100
AcDbBlockTableRecord
  2
*D14
340
0
  0
BLOCK_RECORD
  5
759B
330
1
100
AcDbSymbolTableRecord
100
AcDbBlockTableRecord
  2
*D15
340
0
  0
BLOCK_RECORD
  5
75A8
330
1
100
AcDbSymbolTableRecord
100
AcDbBlockTableRecord
  2
*D16
340
0
  0
BLOCK_RECORD
  5
75B5
330
1
100
AcDbSymbolTableRecord
100
AcDbBlockTableRecord
  2
*D17
340
0
  0
BLOCK_RECORD
  5
75C2
330
1
100
AcDbSymbolTableRecord
100
AcDbBlockTableRecord
  2
*D18
340
0
  0
BLOCK_RECORD
  5
75CE
330
1
100
AcDbSymbolTableRecord
100
AcDbBlockTableRecord
  2
*D19
340
0
  0
BLOCK_RECORD
  5
75DA
330
1
100
AcDbSymbolTableRecord
100
AcDbBlockTableRecord
  2
*D20
340
0
  0
BLOCK_RECORD
  5
75E7
330
1
100
AcDbSymbolTableRecord
100
AcDbBlockTableRecord
  2
*D21
340
0
  0
BLOCK_RECORD
  5
75F3
330
1
100
AcDbSymbolTableRecord
100
AcDbBlockTableRecord
  2
*D22
340
0
  0
BLOCK_RECORD
  5
7600
330
1
100
AcDbSymbolTableRecord
100
AcDbBlockTableRecord
  2
*D23
340
0
  0
BLOCK_RECORD
  5
760D
330
1
100
AcDbSymbolTableRecord
100
AcDbBlockTableRecord
  2
*D24
340
0
  0
BLOCK_RECORD
  5
761A
330
1
100
AcDbSymbolTableRecord
100
AcDbBlockTableRecord
  2
*D25
340
0
  0
BLOCK_RECORD
  5
7627
330
1
100
AcDbSymbolTableRecord
100
AcDbBlockTableRecord
  2
*D26
340
0
  0
BLOCK_RECORD
  5
7681
330
1
100
AcDbSymbolTableRecord
100
AcDbBlockTableRecord
  2
*D27
340
0
  0
ENDTAB
  0
ENDSEC
  0
SECTION
  2
BLOCKS
  0
BLOCK
  5
1F
330
1E
100
AcDbEntity
  8
0
100
AcDbBlockBegin
  2
*Model_Space
 70
     0
 10
0.0
 20
0.0
 30
0.0
  3
*Model_Space
  1

  0
ENDBLK
  5
20
330
1E
100
AcDbEntity
  8
0
100
AcDbBlockEnd
  0
BLOCK
  5
1B
330
1A
100
AcDbEntity
 67
     1
  8
0
100
AcDbBlockBegin
  2
*Paper_Space
 70
     0
 10
0.0
 20
0.0
 30
0.0
  3
*Paper_Space
  1

  0
ENDBLK
  5
1C
330
1A
100
AcDbEntity
 67
     1
  8
0
100
AcDbBlockEnd
  0
BLOCK
  5
121
330
11E
100
AcDbEntity
  8
0
100
AcDbBlockBegin
  2
_Dot
 70
     0
 10
0.0
 20
0.0
 30
0.0
  3
_Dot
  1

  0
LWPOLYLINE
  5
11F
330
11E
100
AcDbEntity
  8
0
  6
ByBlock
 62
     0
100
AcDbPolyline
 90
        2
 70
     1
 43
0.5
 10
-0.25
 20
0.0
 42
1.0
 10
0.25
 20
0.0
 42
1.0
  0
LINE
  5
120
330
11E
100
AcDbEntity
  8
0
  6
ByBlock
 62
     0
370
    -2
100
AcDbLine
 10
-0.5
 20
0.0
 30
0.0
 11
-1.0
 21
0.0
 31
0.0
  0
ENDBLK
  5
122
330
11E
100
AcDbEntity
  8
0
100
AcDbBlockEnd
  0
BLOCK
  5
15B1
330
15B0
100
AcDbEntity
  8
0
100
AcDbBlockBegin
  2
_None
 70
     0
 10
0.0
 20
0.0
 30
0.0
  3
_None
  1

  0
ENDBLK
  5
15B2
330
15B0
100
AcDbEntity
  8
0
100
AcDbBlockEnd
  0
BLOCK
  5
2CB9
330
2CB5
100
AcDbEntity
  8
0
100
AcDbBlockBegin
  2
_Open30
 70
     0
 10
0.0
 20
0.0
 30
0.0
  3
_Open30
  1

  0
LINE
  5
2CB6
330
2CB5
100
AcDbEntity
  8
0
  6
ByBlock
 62
     0
370
    -2
100
AcDbLine
 10
-1.0
 20
0.26794919
 30
0.0
 11
0.0
 21
0.0
 31
0.0
  0
LINE
  5
2CB7
330
2CB5
100
AcDbEntity
  8
0
  6
ByBlock
 62
     0
370
    -2
100
AcDbLine
 10
0.0
 20
0.0
 30
0.0
 11
-1.0
 21
-0.26794919
 31
0.0
  0
LINE
  5
2CB8
330
2CB5
100
AcDbEntity
  8
0
  6
ByBlock
 62
     0
370
    -2
100
AcDbLine
 10
0.0
 20
0.0
 30
0.0
 11
-1.0
 21
0.0
 31
0.0
  0
ENDBLK
  5
2CBA
330
2CB5
100
AcDbEntity
  8
0
100
AcDbBlockEnd
  0
BLOCK
  5
35E6
330
35E3
100
AcDbEntity
  8
0
100
AcDbBlockBegin
  2
_DotBlank
 70
     0
 10
0.0
 20
0.0
 30
0.0
  3
_DotBlank
  1

  0
CIRCLE
  5
35E4
330
35E3
100
AcDbEntity
  8
0
  6
ByBlock
 62
     0
370
    -2
100
AcDbCircle
 10
0.0
 20
0.0
 30
0.0
 40
0.5
  0
LINE
  5
35E5
330
35E3
100
AcDbEntity
  8
0
  6
ByBlock
 62
     0
370
    -2
100
AcDbLine
 10
-0.5
 20
0.0
 30
0.0
 11
-1.0
 21
0.0
 31
0.0
  0
ENDBLK
  5
35E7
330
35E3
100
AcDbEntity
  8
0
100
AcDbBlockEnd
  0
BLOCK
  5
74FD
330
74F3
100
AcDbEntity
  8
0
100
AcDbBlockBegin
  2
*D4
 70
     1
 10
0.0
 20
0.0
 30
0.0
  3
*D4
  1

  0
LINE
  5
74F4
330
74F3
100
AcDbEntity
  8
寸法
  6
Continuous
 62
     4
370
    -2
100
AcDbLine
 10
1548.737907566806
 20
1009.628655121339
 30
0.0
 11
1548.737907566806
 21
1041.879961875439
 31
0.0
  0
LINE
  5
74F5
330
74F3
100
AcDbEntity
  8
寸法
  6
Continuous
 62
     4
370
    -2
100
AcDbLine
 10
1648.737910566806
 20
1009.628655121339
 30
0.0
 11
1648.737910566806
 21
1041.879961875439
 31
0.0
  0
LINE
  5
74F6
330
74F3
100
AcDbEntity
  8
寸法
  6
Continuous
 62
     4
370
    -2
100
AcDbLine
 10
1550.737907566806
 20
1041.879961875439
 30
0.0
 11
1646.737910566806
 21
1041.879961875439
 31
0.0
  0
INSERT
  5
74F7
330
74F3
100
AcDbEntity
  8
寸法
  6
Continuous
 62
     4
370
    -2
100
AcDbBlockReference
  2
_Dot
 10
1548.737907566806
 20
1041.879961875439
 30
0.0
 41
2.0
 42
2.0
 43
2.0
 50
180.0
  0
INSERT
  5
74F8
330
74F3
100
AcDbEntity
  8
寸法
  6
Continuous
 62
     4
370
    -2
100
AcDbBlockReference
  2
_Dot
 10
1648.737910566806
 20
1041.879961875439
 30
0.0
 41
2.0
 42
2.0
 43
2.0
  0
MTEXT
  5
74F9
330
74F3
100
AcDbEntity
  8
寸法
  6
Continuous
 62
     3
100
AcDbMText
 10
1598.737909066806
 20
1047.879961875439
 30
0.0
 40
10.0
 41
0.0
 71
     5
 72
     1
  1
\A1;100
  7
ACAD
 73
     1
 44
1.0
1001
ACAD
1000
MTEXTBEGIN
1070
    73
1070
     1
1070
    44
1040
1.0
1070
    74
1070
     0
1000
MTEXTEND
  0
POINT
  5
74FA
330
74F3
100
AcDbEntity
  8
Defpoints
  6
Continuous
 62
     0
100
AcDbPoint
 10
1548.737907566806
 20
1009.628655121339
 30
0.0
  0
POINT
  5
74FB
330
74F3
100
AcDbEntity
  8
Defpoints
  6
Continuous
 62
     0
100
AcDbPoint
 10
1648.737910566806
 20
1009.628655121339
 30
0.0
  0
POINT
  5
74FC
330
74F3
100
AcDbEntity
  8
Defpoints
  6
Continuous
 62
     0
100
AcDbPoint
 10
1648.737910566806
 20
1041.879961875439
 30
0.0
  0
ENDBLK
  5
74FE
330
74F3
100
AcDbEntity
  8
0
100
AcDbBlockEnd
  0
BLOCK
  5
7517
330
750D
100
AcDbEntity
  8
0
100
AcDbBlockBegin
  2
*D5
 70
     1
 10
0.0
 20
0.0
 30
0.0
  3
*D5
  1

  0
LINE
  5
750E
330
750D
100
AcDbEntity
  8
寸法
  6
Continuous
 62
     4
370
    -2
100
AcDbLine
 10
1878.737907566706
 20
1008.450950572239
 30
0.0
 11
1878.737907566706
 21
1041.879961875439
 31
0.0
  0
LINE
  5
750F
330
750D
100
AcDbEntity
  8
寸法
  6
Continuous
 62
     4
370
    -2
100
AcDbLine
 10
1978.737907566706
 20
1009.628655121339
 30
0.0
 11
1978.737907566706
 21
1041.879961875439
 31
0.0
  0
LINE
  5
7510
330
750D
100
AcDbEntity
  8
寸法
  6
Continuous
 62
     4
370
    -2
100
AcDbLine
 10
1880.737907566706
 20
1041.879961875439
 30
0.0
 11
1976.737907566706
 21
1041.879961875439
 31
0.0
  0
INSERT
  5
7511
330
750D
100
AcDbEntity
  8
寸法
  6
Continuous
 62
     4
370
    -2
100
AcDbBlockReference
  2
_Dot
 10
1878.737907566706
 20
1041.879961875439
 30
0.0
 41
2.0
 42
2.0
 43
2.0
 50
180.0
  0
INSERT
  5
7512
330
750D
100
AcDbEntity
  8
寸法
  6
Continuous
 62
     4
370
    -2
100
AcDbBlockReference
  2
_Dot
 10
1978.737907566706
 20
1041.879961875439
 30
0.0
 41
2.0
 42
2.0
 43
2.0
  0
MTEXT
  5
7513
330
750D
100
AcDbEntity
  8
寸法
  6
Continuous
 62
     3
100
AcDbMText
 10
1928.737907566706
 20
1047.879961875439
 30
0.0
 40
10.0
 41
0.0
 71
     5
 72
     1
  1
\A1;100
  7
ACAD
 73
     1
 44
1.0
1001
ACAD
1000
MTEXTBEGIN
1070
    73
1070
     1
1070
    44
1040
1.0
1070
    74
1070
     0
1000
MTEXTEND
  0
POINT
  5
7514
330
750D
100
AcDbEntity
  8
Defpoints
  6
Continuous
 62
     0
100
AcDbPoint
 10
1878.737907566706
 20
1008.450950572239
 30
0.0
  0
POINT
  5
7515
330
750D
100
AcDbEntity
  8
Defpoints
  6
Continuous
 62
     0
100
AcDbPoint
 10
1978.737907566706
 20
1009.628655121339
 30
0.0
  0
POINT
  5
7516
330
750D
100
AcDbEntity
  8
Defpoints
  6
Continuous
 62
     0
100
AcDbPoint
 10
1978.737907566706
 20
1041.879961875439
 30
0.0
  0
ENDBLK
  5
7518
330
750D
100
AcDbEntity
  8
0
100
AcDbBlockEnd
  0
BLOCK
  5
7531
330
7527
100
AcDbEntity
  8
0
100
AcDbBlockBegin
  2
*D6
 70
     1
 10
0.0
 20
0.0
 30
0.0
  3
*D6
  1

  0
LINE
  5
7528
330
7527
100
AcDbEntity
  8
寸法
  6
Continuous
 62
     4
370
    -2
100
AcDbLine
 10
1608.737900559206
 20
1001.430696630539
 30
0.0
 11
1608.737900559206
 21
1026.879961875438
 31
0.0
  0
LINE
  5
7529
330
7527
100
AcDbEntity
  8
寸法
  6
Continuous
 62
     4
370
    -2
100
AcDbLine
 10
1918.737914574306
 20
1001.430696630539
 30
0.0
 11
1918.737914574306
 21
1026.879961875438
 31
0.0
  0
LINE
  5
752A
330
7527
100
AcDbEntity
  8
寸法
  6
Continuous
 62
     4
370
    -2
100
AcDbLine
 10
1610.737900559206
 20
1026.879961875438
 30
0.0
 11
1916.737914574306
 21
1026.879961875438
 31
0.0
  0
INSERT
  5
752B
330
7527
100
AcDbEntity
  8
寸法
  6
Continuous
 62
     4
370
    -2
100
AcDbBlockReference
  2
_Dot
 10
1608.737900559206
 20
1026.879961875438
 30
0.0
 41
2.0
 42
2.0
 43
2.0
 50
180.0
  0
INSERT
  5
752C
330
7527
100
AcDbEntity
  8
寸法
  6
Continuous
 62
     4
370
    -2
100
AcDbBlockReference
  2
_Dot
 10
1918.737914574306
 20
1026.879961875438
 30
0.0
 41
2.0
 42
2.0
 43
2.0
  0
MTEXT
  5
752D
330
7527
100
AcDbEntity
  8
寸法
  6
Continuous
 62
     3
100
AcDbMText
 10
1763.737907566756
 20
1032.879961875439
 30
0.0
 40
10.0
 41
0.0
 71
     5
 72
     1
  1
\A1;310
  7
ACAD
 73
     1
 44
1.0
1001
ACAD
1000
MTEXTBEGIN
1070
    73
1070
     1
1070
    44
1040
1.0
1070
    74
1070
     0
1000
MTEXTEND
  0
POINT
  5
752E
330
7527
100
AcDbEntity
  8
Defpoints
  6
Continuous
 62
     0
100
AcDbPoint
 10
1608.737900559206
 20
1001.430696630539
 30
0.0
  0
POINT
  5
752F
330
7527
100
AcDbEntity
  8
Defpoints
  6
Continuous
 62
     0
100
AcDbPoint
 10
1918.737914574306
 20
1001.430696630539
 30
0.0
  0
POINT
  5
7530
330
7527
100
AcDbEntity
  8
Defpoints
  6
Continuous
 62
     0
100
AcDbPoint
 10
1918.737914574306
 20
1026.879961875438
 30
0.0
  0
ENDBLK
  5
7532
330
7527
100
AcDbEntity
  8
0
100
AcDbBlockEnd
  0
BLOCK
  5
753E
330
7534
100
AcDbEntity
  8
0
100
AcDbBlockBegin
  2
*D7
 70
     1
 10
0.0
 20
0.0
 30
0.0
  3
*D7
  1

  0
LINE
  5
7535
330
7534
100
AcDbEntity
  8
寸法
  6
Continuous
 62
     4
370
    -2
100
AcDbLine
 10
1652.737938774806
 20
984.4702396306388
 30
0.0
 11
1652.737938774806
 21
947.8799608754389
 31
0.0
  0
LINE
  5
7536
330
7534
100
AcDbEntity
  8
寸法
  6
Continuous
 62
     4
370
    -2
100
AcDbLine
 10
1636.737907566805
 20
947.8799608754389
 30
0.0
 11
1634.737907566806
 21
947.8799608754389
 31
0.0
  0
LINE
  5
7537
330
7534
100
AcDbEntity
  8
寸法
  6
Continuous
 62
     4
370
    -2
100
AcDbLine
 10
1654.737938774806
 20
947.8799608754389
 30
0.0
 11
1656.737938774806
 21
947.8799608754389
 31
0.0
  0
INSERT
  5
7538
330
7534
100
AcDbEntity
  8
寸法
  6
Continuous
 62
     4
370
    -2
100
AcDbBlockReference
  2
_Dot
 10
1638.737907566806
 20
947.8799608754389
 30
0.0
 41
2.0
 42
2.0
 43
2.0
  0
INSERT
  5
7539
330
7534
100
AcDbEntity
  8
寸法
  6
Continuous
 62
     4
370
    -2
100
AcDbBlockReference
  2
_Dot
 10
1652.737938774806
 20
947.8799608754389
 30
0.0
 41
2.0
 42
2.0
 43
2.0
 50
180.0
  0
MTEXT
  5
753A
330
7534
100
AcDbEntity
  8
寸法
  6
Continuous
 62
     3
100
AcDbMText
 10
1645.737923170806
 20
953.8799608754388
 30
0.0
 40
10.0
 41
0.0
 71
     5
 72
     1
  1
\A1;14
  7
ACAD
 73
     1
 44
1.0
1001
ACAD
1000
MTEXTBEGIN
1070
    73
1070
     1
1070
    44
1040
1.0
1070
    74
1070
     0
1000
MTEXTEND
  0
POINT
  5
753B
330
7534
100
AcDbEntity
  8
Defpoints
  6
Continuous
 62
     0
100
AcDbPoint
 10
1638.737907566806
 20
947.8799608754389
 30
0.0
  0
POINT
  5
753C
330
7534
100
AcDbEntity
  8
Defpoints
  6
Continuous
 62
     0
100
AcDbPoint
 10
1652.737938774806
 20
984.4702396306388
 30
0.0
  0
POINT
  5
753D
330
7534
100
AcDbEntity
  8
Defpoints
  6
Continuous
 62
     0
100
AcDbPoint
 10
1652.737938774806
 20
947.8799608754389
 30
0.0
  0
ENDBLK
  5
753F
330
7534
100
AcDbEntity
  8
0
100
AcDbBlockEnd
  0
BLOCK
  5
754A
330
7541
100
AcDbEntity
  8
0
100
AcDbBlockBegin
  2
*D8
 70
     1
 10
0.0
 20
0.0
 30
0.0
  3
*D8
  1

  0
LINE
  5
766F
330
7541
100
AcDbEntity
  8
寸法
  6
Continuous
 62
     4
370
    -2
100
AcDbLine
 10
1874.737876358706
 20
984.4702396306388
 30
0.0
 11
1874.737876358706
 21
947.8799608754389
 31
0.0
  0
LINE
  5
7670
330
7541
100
AcDbEntity
  8
寸法
  6
Continuous
 62
     4
370
    -2
100
AcDbLine
 10
1654.737938774806
 20
947.8799608754389
 30
0.0
 11
1872.737876358706
 21
947.8799608754389
 31
0.0
  0
INSERT
  5
7671
330
7541
100
AcDbEntity
  8
寸法
  6
Continuous
 62
     4
370
    -2
100
AcDbBlockReference
  2
_Dot
 10
1652.737938774806
 20
947.8799608754389
 30
0.0
 41
2.0
 42
2.0
 43
2.0
 50
180.0
  0
INSERT
  5
7672
330
7541
100
AcDbEntity
  8
寸法
  6
Continuous
 62
     4
370
    -2
100
AcDbBlockReference
  2
_Dot
 10
1874.737876358706
 20
947.8799608754389
 30
0.0
 41
2.0
 42
2.0
 43
2.0
  0
MTEXT
  5
7673
330
7541
100
AcDbEntity
  8
寸法
  6
Continuous
 62
     3
100
AcDbMText
 10
1763.737907566756
 20
953.8799608754388
 30
0.0
 40
10.0
 41
0.0
 71
     5
 72
     1
  1
\A1;122
  7
ACAD
 73
     1
 44
1.0
1001
ACAD
1000
MTEXTBEGIN
1070
    73
1070
     1
1070
    44
1040
1.0
1070
    74
1070
     0
1000
MTEXTEND
  0
POINT
  5
7674
330
7541
100
AcDbEntity
  8
Defpoints
  6
Continuous
 62
     0
100
AcDbPoint
 10
1652.737938774806
 20
947.8799608754389
 30
0.0
  0
POINT
  5
7675
330
7541
100
AcDbEntity
  8
Defpoints
  6
Continuous
 62
     0
100
AcDbPoint
 10
1874.737876358706
 20
984.4702396306388
 30
0.0
  0
POINT
  5
7676
330
7541
100
AcDbEntity
  8
Defpoints
  6
Continuous
 62
     0
100
AcDbPoint
 10
1874.737876358706
 20
947.8799608754389
 30
0.0
  0
ENDBLK
  5
754B
330
7541
100
AcDbEntity
  8
0
100
AcDbBlockEnd
  0
BLOCK
  5
7557
330
754D
100
AcDbEntity
  8
0
100
AcDbBlockBegin
  2
*D9
 70
     1
 10
0.0
 20
0.0
 30
0.0
  3
*D9
  1

  0
LINE
  5
754E
330
754D
100
AcDbEntity
  8
寸法
  6
Continuous
 62
     4
370
    -2
100
AcDbLine
 10
1874.737876358706
 20
984.4702396306388
 30
0.0
 11
1874.737876358706
 21
947.8799608754389
 31
0.0
  0
LINE
  5
754F
330
754D
100
AcDbEntity
  8
寸法
  6
Continuous
 62
     4
370
    -2
100
AcDbLine
 10
1872.737876358706
 20
947.8799608754389
 30
0.0
 11
1870.737876358706
 21
947.8799608754389
 31
0.0
  0
LINE
  5
7550
330
754D
100
AcDbEntity
  8
寸法
  6
Continuous
 62
     4
370
    -2
100
AcDbLine
 10
1890.737907566706
 20
947.8799608754389
 30
0.0
 11
1892.737907566706
 21
947.8799608754389
 31
0.0
  0
INSERT
  5
7551
330
754D
100
AcDbEntity
  8
寸法
  6
Continuous
 62
     4
370
    -2
100
AcDbBlockReference
  2
_Dot
 10
1874.737876358706
 20
947.8799608754389
 30
0.0
 41
2.0
 42
2.0
 43
2.0
  0
INSERT
  5
7552
330
754D
100
AcDbEntity
  8
寸法
  6
Continuous
 62
     4
370
    -2
100
AcDbBlockReference
  2
_Dot
 10
1888.737907566706
 20
947.8799608754389
 30
0.0
 41
2.0
 42
2.0
 43
2.0
 50
180.0
  0
MTEXT
  5
7553
330
754D
100
AcDbEntity
  8
寸法
  6
Continuous
 62
     3
100
AcDbMText
 10
1881.737891962705
 20
953.8799608754388
 30
0.0
 40
10.0
 41
0.0
 71
     5
 72
     1
  1
\A1;14
  7
ACAD
 73
     1
 44
1.0
1001
ACAD
1000
MTEXTBEGIN
1070
    73
1070
     1
1070
    44
1040
1.0
1070
    74
1070
     0
1000
MTEXTEND
  0
POINT
  5
7554
330
754D
100
AcDbEntity
  8
Defpoints
  6
Continuous
 62
     0
100
AcDbPoint
 10
1874.737876358706
 20
984.4702396306388
 30
0.0
  0
POINT
  5
7555
330
754D
100
AcDbEntity
  8
Defpoints
  6
Continuous
 62
     0
100
AcDbPoint
 10
1888.737907566706
 20
947.8799608754389
 30
0.0
  0
POINT
  5
7556
330
754D
100
AcDbEntity
  8
Defpoints
  6
Continuous
 62
     0
100
AcDbPoint
 10
1888.737907566706
 20
947.8799608754389
 30
0.0
  0
ENDBLK
  5
7558
330
754D
100
AcDbEntity
  8
0
100
AcDbBlockEnd
  0
BLOCK
  5
7564
330
755A
100
AcDbEntity
  8
0
100
AcDbBlockBegin
  2
*D10
 70
     1
 10
0.0
 20
0.0
 30
0.0
  3
*D10
  1

  0
LINE
  5
7631
330
755A
100
AcDbEntity
  8
寸法
  6
Continuous
 62
     4
370
    -2
100
AcDbLine
 10
1580.237937774806
 20
958.2174185313387
 30
0.0
 11
1580.237937774806
 21
899.8799628754388
 31
0.0
  0
LINE
  5
7632
330
755A
100
AcDbEntity
  8
寸法
  6
Continuous
 62
     4
370
    -2
100
AcDbLine
 10
1638.737907566806
 20
917.6761663770388
 30
0.0
 11
1638.737907566806
 21
899.8799628754388
 31
0.0
  0
LINE
  5
7633
330
755A
100
AcDbEntity
  8
寸法
  6
Continuous
 62
     4
370
    -2
100
AcDbLine
 10
1582.237937774806
 20
899.8799628754388
 30
0.0
 11
1636.737907566805
 21
899.8799628754388
 31
0.0
  0
INSERT
  5
7634
330
755A
100
AcDbEntity
  8
寸法
  6
Continuous
 62
     4
370
    -2
100
AcDbBlockReference
  2
_Dot
 10
1580.237937774806
 20
899.8799628754388
 30
0.0
 41
2.0
 42
2.0
 43
2.0
 50
180.0
  0
INSERT
  5
7635
330
755A
100
AcDbEntity
  8
寸法
  6
Continuous
 62
     4
370
    -2
100
AcDbBlockReference
  2
_Dot
 10
1638.737907566806
 20
899.8799628754388
 30
0.0
 41
2.0
 42
2.0
 43
2.0
  0
MTEXT
  5
7636
330
755A
100
AcDbEntity
  8
寸法
  6
Continuous
 62
     3
100
AcDbMText
 10
1609.487922670806
 20
905.8799628754389
 30
0.0
 40
10.0
 41
0.0
 71
     5
 72
     1
  1
\A1;58.5
  7
ACAD
 73
     1
 44
1.0
1001
ACAD
1000
MTEXTBEGIN
1070
    73
1070
     1
1070
    44
1040
1.0
1070
    74
1070
     0
1000
MTEXTEND
  0
POINT
  5
7637
330
755A
100
AcDbEntity
  8
Defpoints
  6
Continuous
 62
     0
100
AcDbPoint
 10
1580.237937774806
 20
958.2174185313387
 30
0.0
  0
POINT
  5
7638
330
755A
100
AcDbEntity
  8
Defpoints
  6
Continuous
 62
     0
100
AcDbPoint
 10
1638.737907566806
 20
917.6761663770388
 30
0.0
  0
POINT
  5
7639
330
755A
100
AcDbEntity
  8
Defpoints
  6
Continuous
 62
     0
100
AcDbPoint
 10
1638.737907566806
 20
899.8799628754388
 30
0.0
  0
ENDBLK
  5
7565
330
755A
100
AcDbEntity
  8
0
100
AcDbBlockEnd
  0
BLOCK
  5
7571
330
7567
100
AcDbEntity
  8
0
100
AcDbBlockBegin
  2
*D11
 70
     1
 10
0.0
 20
0.0
 30
0.0
  3
*D11
  1

  0
LINE
  5
7677
330
7567
100
AcDbEntity
  8
寸法
  6
Continuous
 62
     4
370
    -2
100
AcDbLine
 10
1638.737907566806
 20
917.6761663770388
 30
0.0
 11
1638.737907566806
 21
899.8799628754388
 31
0.0
  0
LINE
  5
7678
330
7567
100
AcDbEntity
  8
寸法
  6
Continuous
 62
     4
370
    -2
100
AcDbLine
 10
1888.737907566706
 20
917.6761663770388
 30
0.0
 11
1888.737907566706
 21
899.8799628754388
 31
0.0
  0
LINE
  5
7679
330
7567
100
AcDbEntity
  8
寸法
  6
Continuous
 62
     4
370
    -2
100
AcDbLine
 10
1640.737907566806
 20
899.8799628754388
 30
0.0
 11
1886.737907566706
 21
899.8799628754388
 31
0.0
  0
INSERT
  5
767A
330
7567
100
AcDbEntity
  8
寸法
  6
Continuous
 62
     4
370
    -2
100
AcDbBlockReference
  2
_Dot
 10
1638.737907566806
 20
899.8799628754388
 30
0.0
 41
2.0
 42
2.0
 43
2.0
 50
180.0
  0
INSERT
  5
767B
330
7567
100
AcDbEntity
  8
寸法
  6
Continuous
 62
     4
370
    -2
100
AcDbBlockReference
  2
_Dot
 10
1888.737907566706
 20
899.8799628754388
 30
0.0
 41
2.0
 42
2.0
 43
2.0
  0
MTEXT
  5
767C
330
7567
100
AcDbEntity
  8
寸法
  6
Continuous
 62
     3
100
AcDbMText
 10
1763.737907566756
 20
905.8799628754389
 30
0.0
 40
10.0
 41
0.0
 71
     5
 72
     1
  1
\A1;150
  7
ACAD
 73
     1
 44
1.0
1001
ACAD
1000
MTEXTBEGIN
1070
    73
1070
     1
1070
    44
1040
1.0
1070
    74
1070
     0
1000
MTEXTEND
  0
POINT
  5
767D
330
7567
100
AcDbEntity
  8
Defpoints
  6
Continuous
 62
     0
100
AcDbPoint
 10
1638.737907566806
 20
917.6761663770388
 30
0.0
  0
POINT
  5
767E
330
7567
100
AcDbEntity
  8
Defpoints
  6
Continuous
 62
     0
100
AcDbPoint
 10
1888.737907566706
 20
917.6761663770388
 30
0.0
  0
POINT
  5
767F
330
7567
100
AcDbEntity
  8
Defpoints
  6
Continuous
 62
     0
100
AcDbPoint
 10
1888.737907566706
 20
899.8799628754388
 30
0.0
  0
ENDBLK
  5
7572
330
7567
100
AcDbEntity
  8
0
100
AcDbBlockEnd
  0
BLOCK
  5
757E
330
7574
100
AcDbEntity
  8
0
100
AcDbBlockBegin
  2
*D12
 70
     1
 10
0.0
 20
0.0
 30
0.0
  3
*D12
  1

  0
LINE
  5
763A
330
7574
100
AcDbEntity
  8
寸法
  6
Continuous
 62
     4
370
    -2
100
AcDbLine
 10
1947.237877358706
 20
958.2174185313387
 30
0.0
 11
1947.237877358706
 21
899.8799628754388
 31
0.0
  0
LINE
  5
763B
330
7574
100
AcDbEntity
  8
寸法
  6
Continuous
 62
     4
370
    -2
100
AcDbLine
 10
1888.737907566706
 20
917.6761663770388
 30
0.0
 11
1888.737907566706
 21
899.8799628754388
 31
0.0
  0
LINE
  5
763C
330
7574
100
AcDbEntity
  8
寸法
  6
Continuous
 62
     4
370
    -2
100
AcDbLine
 10
1945.237877358706
 20
899.8799628754388
 30
0.0
 11
1890.737907566706
 21
899.8799628754388
 31
0.0
  0
INSERT
  5
763D
330
7574
100
AcDbEntity
  8
寸法
  6
Continuous
 62
     4
370
    -2
100
AcDbBlockReference
  2
_Dot
 10
1947.237877358706
 20
899.8799628754388
 30
0.0
 41
2.0
 42
2.0
 43
2.0
  0
INSERT
  5
763E
330
7574
100
AcDbEntity
  8
寸法
  6
Continuous
 62
     4
370
    -2
100
AcDbBlockReference
  2
_Dot
 10
1888.737907566706
 20
899.8799628754388
 30
0.0
 41
2.0
 42
2.0
 43
2.0
 50
180.0
  0
MTEXT
  5
763F
330
7574
100
AcDbEntity
  8
寸法
  6
Continuous
 62
     3
100
AcDbMText
 10
1917.987892462706
 20
905.8799628754389
 30
0.0
 40
10.0
 41
0.0
 71
     5
 72
     1
  1
\A1;58.5
  7
ACAD
 73
     1
 44
1.0
1001
ACAD
1000
MTEXTBEGIN
1070
    73
1070
     1
1070
    44
1040
1.0
1070
    74
1070
     0
1000
MTEXTEND
  0
POINT
  5
7640
330
7574
100
AcDbEntity
  8
Defpoints
  6
Continuous
 62
     0
100
AcDbPoint
 10
1947.237877358706
 20
958.2174185313387
 30
0.0
  0
POINT
  5
7641
330
7574
100
AcDbEntity
  8
Defpoints
  6
Continuous
 62
     0
100
AcDbPoint
 10
1888.737907566706
 20
917.6761663770388
 30
0.0
  0
POINT
  5
7642
330
7574
100
AcDbEntity
  8
Defpoints
  6
Continuous
 62
     0
100
AcDbPoint
 10
1888.737907566706
 20
899.8799628754388
 30
0.0
  0
ENDBLK
  5
757F
330
7574
100
AcDbEntity
  8
0
100
AcDbBlockEnd
  0
BLOCK
  5
758B
330
7581
100
AcDbEntity
  8
0
100
AcDbBlockBegin
  2
*D13
 70
     1
 10
0.0
 20
0.0
 30
0.0
  3
*D13
  1

  0
LINE
  5
7582
330
7581
100
AcDbEntity
  8
寸法
  6
Continuous
 62
     4
370
    -2
100
AcDbLine
 10
2125.530374957093
 20
1005.495947959977
 30
0.0
 11
2125.530374957093
 21
1037.747254714077
 31
0.0
  0
LINE
  5
7583
330
7581
100
AcDbEntity
  8
寸法
  6
Continuous
 62
     4
370
    -2
100
AcDbLine
 10
2225.530384835893
 20
1004.318243410877
 30
0.0
 11
2225.530384835893
 21
1037.747254714077
 31
0.0
  0
LINE
  5
7584
330
7581
100
AcDbEntity
  8
寸法
  6
Continuous
 62
     4
370
    -2
100
AcDbLine
 10
2127.530374957093
 20
1037.747254714077
 30
0.0
 11
2223.530384835893
 21
1037.747254714077
 31
0.0
  0
INSERT
  5
7585
330
7581
100
AcDbEntity
  8
寸法
  6
Continuous
 62
     4
370
    -2
100
AcDbBlockReference
  2
_Dot
 10
2125.530374957093
 20
1037.747254714077
 30
0.0
 41
2.0
 42
2.0
 43
2.0
 50
180.0
  0
INSERT
  5
7586
330
7581
100
AcDbEntity
  8
寸法
  6
Continuous
 62
     4
370
    -2
100
AcDbBlockReference
  2
_Dot
 10
2225.530384835893
 20
1037.747254714077
 30
0.0
 41
2.0
 42
2.0
 43
2.0
  0
MTEXT
  5
7587
330
7581
100
AcDbEntity
  8
寸法
  6
Continuous
 62
     3
100
AcDbMText
 10
2175.530379896493
 20
1043.747254714077
 30
0.0
 40
10.0
 41
0.0
 71
     5
 72
     1
  1
\A1;100
  7
ACAD
 73
     1
 44
1.0
1001
ACAD
1000
MTEXTBEGIN
1070
    73
1070
     1
1070
    44
1040
1.0
1070
    74
1070
     0
1000
MTEXTEND
  0
POINT
  5
7588
330
7581
100
AcDbEntity
  8
Defpoints
  6
Continuous
 62
     0
100
AcDbPoint
 10
2125.530374957093
 20
1005.495947959977
 30
0.0
  0
POINT
  5
7589
330
7581
100
AcDbEntity
  8
Defpoints
  6
Continuous
 62
     0
100
AcDbPoint
 10
2225.530384835893
 20
1004.318243410877
 30
0.0
  0
POINT
  5
758A
330
7581
100
AcDbEntity
  8
Defpoints
  6
Continuous
 62
     0
100
AcDbPoint
 10
2225.530384835893
 20
1037.747254714077
 30
0.0
  0
ENDBLK
  5
758C
330
7581
100
AcDbEntity
  8
0
100
AcDbBlockEnd
  0
BLOCK
  5
7598
330
758E
100
AcDbEntity
  8
0
100
AcDbBlockBegin
  2
*D14
 70
     1
 10
0.0
 20
0.0
 30
0.0
  3
*D14
  1

  0
LINE
  5
758F
330
758E
100
AcDbEntity
  8
寸法
  6
Continuous
 62
     4
370
    -2
100
AcDbLine
 10
2225.530384835893
 20
1004.318243410877
 30
0.0
 11
2225.530384835893
 21
1037.747254714077
 31
0.0
  0
LINE
  5
7590
330
758E
100
AcDbEntity
  8
寸法
  6
Continuous
 62
     4
370
    -2
100
AcDbLine
 10
2455.530371956993
 20
1004.318243410877
 30
0.0
 11
2455.530371956993
 21
1037.747254714077
 31
0.0
  0
LINE
  5
7591
330
758E
100
AcDbEntity
  8
寸法
  6
Continuous
 62
     4
370
    -2
100
AcDbLine
 10
2227.530384835893
 20
1037.747254714077
 30
0.0
 11
2453.530371956992
 21
1037.747254714077
 31
0.0
  0
INSERT
  5
7592
330
758E
100
AcDbEntity
  8
寸法
  6
Continuous
 62
     4
370
    -2
100
AcDbBlockReference
  2
_Dot
 10
2225.530384835893
 20
1037.747254714077
 30
0.0
 41
2.0
 42
2.0
 43
2.0
 50
180.0
  0
INSERT
  5
7593
330
758E
100
AcDbEntity
  8
寸法
  6
Continuous
 62
     4
370
    -2
100
AcDbBlockReference
  2
_Dot
 10
2455.530371956993
 20
1037.747254714077
 30
0.0
 41
2.0
 42
2.0
 43
2.0
  0
MTEXT
  5
7594
330
758E
100
AcDbEntity
  8
寸法
  6
Continuous
 62
     3
100
AcDbMText
 10
2340.530378396443
 20
1043.747254714077
 30
0.0
 40
10.0
 41
0.0
 71
     5
 72
     1
  1
\A1;230
  7
ACAD
 73
     1
 44
1.0
1001
ACAD
1000
MTEXTBEGIN
1070
    73
1070
     1
1070
    44
1040
1.0
1070
    74
1070
     0
1000
MTEXTEND
  0
POINT
  5
7595
330
758E
100
AcDbEntity
  8
Defpoints
  6
Continuous
 62
     0
100
AcDbPoint
 10
2225.530384835893
 20
1004.318243410877
 30
0.0
  0
POINT
  5
7596
330
758E
100
AcDbEntity
  8
Defpoints
  6
Continuous
 62
     0
100
AcDbPoint
 10
2455.530371956993
 20
1004.318243410877
 30
0.0
  0
POINT
  5
7597
330
758E
100
AcDbEntity
  8
Defpoints
  6
Continuous
 62
     0
100
AcDbPoint
 10
2455.530371956993
 20
1037.747254714077
 30
0.0
  0
ENDBLK
  5
7599
330
758E
100
AcDbEntity
  8
0
100
AcDbBlockEnd
  0
BLOCK
  5
75A5
330
759B
100
AcDbEntity
  8
0
100
AcDbBlockBegin
  2
*D15
 70
     1
 10
0.0
 20
0.0
 30
0.0
  3
*D15
  1

  0
LINE
  5
759C
330
759B
100
AcDbEntity
  8
寸法
  6
Continuous
 62
     4
370
    -2
100
AcDbLine
 10
2455.530371956993
 20
1004.318243410877
 30
0.0
 11
2455.530371956993
 21
1037.747254714077
 31
0.0
  0
LINE
  5
759D
330
759B
100
AcDbEntity
  8
寸法
  6
Continuous
 62
     4
370
    -2
100
AcDbLine
 10
2555.530371956993
 20
1005.495947959977
 30
0.0
 11
2555.530371956993
 21
1037.747254714077
 31
0.0
  0
LINE
  5
759E
330
759B
100
AcDbEntity
  8
寸法
  6
Continuous
 62
     4
370
    -2
100
AcDbLine
 10
2457.530371956992
 20
1037.747254714077
 30
0.0
 11
2553.530371956993
 21
1037.747254714077
 31
0.0
  0
INSERT
  5
759F
330
759B
100
AcDbEntity
  8
寸法
  6
Continuous
 62
     4
370
    -2
100
AcDbBlockReference
  2
_Dot
 10
2455.530371956993
 20
1037.747254714077
 30
0.0
 41
2.0
 42
2.0
 43
2.0
 50
180.0
  0
INSERT
  5
75A0
330
759B
100
AcDbEntity
  8
寸法
  6
Continuous
 62
     4
370
    -2
100
AcDbBlockReference
  2
_Dot
 10
2555.530371956993
 20
1037.747254714077
 30
0.0
 41
2.0
 42
2.0
 43
2.0
  0
MTEXT
  5
75A1
330
759B
100
AcDbEntity
  8
寸法
  6
Continuous
 62
     3
100
AcDbMText
 10
2505.530371956993
 20
1043.747254714077
 30
0.0
 40
10.0
 41
0.0
 71
     5
 72
     1
  1
\A1;100
  7
ACAD
 73
     1
 44
1.0
1001
ACAD
1000
MTEXTBEGIN
1070
    73
1070
     1
1070
    44
1040
1.0
1070
    74
1070
     0
1000
MTEXTEND
  0
POINT
  5
75A2
330
759B
100
AcDbEntity
  8
Defpoints
  6
Continuous
 62
     0
100
AcDbPoint
 10
2455.530371956993
 20
1004.318243410877
 30
0.0
  0
POINT
  5
75A3
330
759B
100
AcDbEntity
  8
Defpoints
  6
Continuous
 62
     0
100
AcDbPoint
 10
2555.530371956993
 20
1005.495947959977
 30
0.0
  0
POINT
  5
75A4
330
759B
100
AcDbEntity
  8
Defpoints
  6
Continuous
 62
     0
100
AcDbPoint
 10
2555.530371956993
 20
1037.747254714077
 30
0.0
  0
ENDBLK
  5
75A6
330
759B
100
AcDbEntity
  8
0
100
AcDbBlockEnd
  0
BLOCK
  5
75B2
330
75A8
100
AcDbEntity
  8
0
100
AcDbBlockBegin
  2
*D16
 70
     1
 10
0.0
 20
0.0
 30
0.0
  3
*D16
  1

  0
LINE
  5
75A9
330
75A8
100
AcDbEntity
  8
寸法
  6
Continuous
 62
     4
370
    -2
100
AcDbLine
 10
2555.530371956993
 20
1005.495947959977
 30
0.0
 11
2555.530371956993
 21
1052.747254714077
 31
0.0
  0
LINE
  5
75AA
330
75A8
100
AcDbEntity
  8
寸法
  6
Continuous
 62
     4
370
    -2
100
AcDbLine
 10
2125.530374957093
 20
1005.495947959977
 30
0.0
 11
2125.530374957093
 21
1052.747254714077
 31
0.0
  0
LINE
  5
75AB
330
75A8
100
AcDbEntity
  8
寸法
  6
Continuous
 62
     4
370
    -2
100
AcDbLine
 10
2553.530371956993
 20
1052.747254714077
 30
0.0
 11
2127.530374957093
 21
1052.747254714077
 31
0.0
  0
INSERT
  5
75AC
330
75A8
100
AcDbEntity
  8
寸法
  6
Continuous
 62
     4
370
    -2
100
AcDbBlockReference
  2
_Dot
 10
2555.530371956993
 20
1052.747254714077
 30
0.0
 41
2.0
 42
2.0
 43
2.0
  0
INSERT
  5
75AD
330
75A8
100
AcDbEntity
  8
寸法
  6
Continuous
 62
     4
370
    -2
100
AcDbBlockReference
  2
_Dot
 10
2125.530374957093
 20
1052.747254714077
 30
0.0
 41
2.0
 42
2.0
 43
2.0
 50
180.0
  0
MTEXT
  5
75AE
330
75A8
100
AcDbEntity
  8
寸法
  6
Continuous
 62
     3
100
AcDbMText
 10
2340.530373457042
 20
1058.747254714077
 30
0.0
 40
10.0
 41
0.0
 71
     5
 72
     1
  1
\A1;430
  7
ACAD
 73
     1
 44
1.0
1001
ACAD
1000
MTEXTBEGIN
1070
    73
1070
     1
1070
    44
1040
1.0
1070
    74
1070
     0
1000
MTEXTEND
  0
POINT
  5
75AF
330
75A8
100
AcDbEntity
  8
Defpoints
  6
Continuous
 62
     0
100
AcDbPoint
 10
2555.530371956993
 20
1005.495947959977
 30
0.0
  0
POINT
  5
75B0
330
75A8
100
AcDbEntity
  8
Defpoints
  6
Continuous
 62
     0
100
AcDbPoint
 10
2125.530374957093
 20
1005.495947959977
 30
0.0
  0
POINT
  5
75B1
330
75A8
100
AcDbEntity
  8
Defpoints
  6
Continuous
 62
     0
100
AcDbPoint
 10
2125.530374957093
 20
1052.747254714077
 30
0.0
  0
ENDBLK
  5
75B3
330
75A8
100
AcDbEntity
  8
0
100
AcDbBlockEnd
  0
BLOCK
  5
75BF
330
75B5
100
AcDbEntity
  8
0
100
AcDbBlockBegin
  2
*D17
 70
     1
 10
0.0
 20
0.0
 30
0.0
  3
*D17
  1

  0
LINE
  5
75B6
330
75B5
100
AcDbEntity
  8
寸法
  6
Continuous
 62
     4
370
    -2
100
AcDbLine
 10
2185.530364949493
 20
998.0727347690772
 30
0.0
 11
2185.530364949493
 21
1022.747254714077
 31
0.0
  0
LINE
  5
75B7
330
75B5
100
AcDbEntity
  8
寸法
  6
Continuous
 62
     4
370
    -2
100
AcDbLine
 10
2495.530378964593
 20
998.0727347690772
 30
0.0
 11
2495.530378964593
 21
1022.747254714077
 31
0.0
  0
LINE
  5
75B8
330
75B5
100
AcDbEntity
  8
寸法
  6
Continuous
 62
     4
370
    -2
100
AcDbLine
 10
2187.530364949493
 20
1022.747254714077
 30
0.0
 11
2493.530378964593
 21
1022.747254714077
 31
0.0
  0
INSERT
  5
75B9
330
75B5
100
AcDbEntity
  8
寸法
  6
Continuous
 62
     4
370
    -2
100
AcDbBlockReference
  2
_Dot
 10
2185.530364949493
 20
1022.747254714077
 30
0.0
 41
2.0
 42
2.0
 43
2.0
 50
180.0
  0
INSERT
  5
75BA
330
75B5
100
AcDbEntity
  8
寸法
  6
Continuous
 62
     4
370
    -2
100
AcDbBlockReference
  2
_Dot
 10
2495.530378964593
 20
1022.747254714077
 30
0.0
 41
2.0
 42
2.0
 43
2.0
  0
MTEXT
  5
75BB
330
75B5
100
AcDbEntity
  8
寸法
  6
Continuous
 62
     3
100
AcDbMText
 10
2340.530371957043
 20
1028.747254714077
 30
0.0
 40
10.0
 41
0.0
 71
     5
 72
     1
  1
\A1;310
  7
ACAD
 73
     1
 44
1.0
1001
ACAD
1000
MTEXTBEGIN
1070
    73
1070
     1
1070
    44
1040
1.0
1070
    74
1070
     0
1000
MTEXTEND
  0
POINT
  5
75BC
330
75B5
100
AcDbEntity
  8
Defpoints
  6
Continuous
 62
     0
100
AcDbPoint
 10
2185.530364949493
 20
998.0727347690772
 30
0.0
  0
POINT
  5
75BD
330
75B5
100
AcDbEntity
  8
Defpoints
  6
Continuous
 62
     0
100
AcDbPoint
 10
2495.530378964593
 20
998.0727347690772
 30
0.0
  0
POINT
  5
75BE
330
75B5
100
AcDbEntity
  8
Defpoints
  6
Continuous
 62
     0
100
AcDbPoint
 10
2495.530378964593
 20
1022.747254714077
 30
0.0
  0
ENDBLK
  5
75C0
330
75B5
100
AcDbEntity
  8
0
100
AcDbBlockEnd
  0
BLOCK
  5
75CB
330
75C2
100
AcDbEntity
  8
0
100
AcDbBlockBegin
  2
*D18
 70
     1
 10
0.0
 20
0.0
 30
0.0
  3
*D18
  1

  0
LINE
  5
75C3
330
75C2
100
AcDbEntity
  8
寸法
  6
Continuous
 62
     4
370
    -2
100
AcDbLine
 10
2558.040764130693
 20
1002.747182138277
 30
0.0
 11
2575.530371956993
 21
1002.747182138277
 31
0.0
  0
LINE
  5
75C4
330
75C2
100
AcDbEntity
  8
寸法
  6
Continuous
 62
     4
370
    -2
100
AcDbLine
 10
2575.530371956993
 20
1000.747182138277
 30
0.0
 11
2575.530371956993
 21
984.7472547140773
 31
0.0
  0
INSERT
  5
75C5
330
75C2
100
AcDbEntity
  8
寸法
  6
Continuous
 62
     4
370
    -2
100
AcDbBlockReference
  2
_Dot
 10
2575.530371956993
 20
1002.747182138277
 30
0.0
 41
2.0
 42
2.0
 43
2.0
 50
90.0
  0
INSERT
  5
75C6
330
75C2
100
AcDbEntity
  8
寸法
  6
Continuous
 62
     4
370
    -2
100
AcDbBlockReference
  2
_Dot
 10
2575.530371956993
 20
982.7472547140772
 30
0.0
 41
2.0
 42
2.0
 43
2.0
 50
270.0
  0
MTEXT
  5
75C7
330
75C2
100
AcDbEntity
  8
寸法
  6
Continuous
 62
     3
100
AcDbMText
 10
2569.530371956993
 20
992.7472184261777
 30
0.0
 40
10.0
 41
0.0
 71
     5
 72
     1
  1
\A1;20
  7
ACAD
 11
0.0000000000000001
 21
1.0
 31
0.0
 73
     1
 44
1.0
1001
ACAD
1000
MTEXTBEGIN
1070
    73
1070
     1
1070
    44
1040
1.0
1070
    74
1070
     0
1000
MTEXTEND
  0
POINT
  5
75C8
330
75C2
100
AcDbEntity
  8
Defpoints
  6
Continuous
 62
     0
100
AcDbPoint
 10
2558.040764130693
 20
1002.747182138277
 30
0.0
  0
POINT
  5
75C9
330
75C2
100
AcDbEntity
  8
Defpoints
  6
Continuous
 62
     0
100
AcDbPoint
 10
2575.530371956993
 20
982.7472547140772
 30
0.0
  0
POINT
  5
75CA
330
75C2
100
AcDbEntity
  8
Defpoints
  6
Continuous
 62
     0
100
AcDbPoint
 10
2575.530371956993
 20
982.7472547140772
 30
0.0
  0
ENDBLK
  5
75CC
330
75C2
100
AcDbEntity
  8
0
100
AcDbBlockEnd
  0
BLOCK
  5
75D7
330
75CE
100
AcDbEntity
  8
0
100
AcDbBlockBegin
  2
*D19
 70
     1
 10
0.0
 20
0.0
 30
0.0
  3
*D19
  1

  0
LINE
  5
75CF
330
75CE
100
AcDbEntity
  8
寸法
  6
Continuous
 62
     4
370
    -2
100
AcDbLine
 10
2451.530341127793
 20
980.3375324692773
 30
0.0
 11
2451.530341127793
 21
943.7472537140772
 31
0.0
  0
LINE
  5
75D0
330
75CE
100
AcDbEntity
  8
寸法
  6
Continuous
 62
     4
370
    -2
100
AcDbLine
 10
2488.530371956993
 20
943.7472537140772
 30
0.0
 11
2453.530341127793
 21
943.7472537140772
 31
0.0
  0
INSERT
  5
75D1
330
75CE
100
AcDbEntity
  8
寸法
  6
Continuous
 62
     4
370
    -2
100
AcDbBlockReference
  2
_Dot
 10
2490.530371956993
 20
943.7472537140772
 30
0.0
 41
2.0
 42
2.0
 43
2.0
  0
INSERT
  5
75D2
330
75CE
100
AcDbEntity
  8
寸法
  6
Continuous
 62
     4
370
    -2
100
AcDbBlockReference
  2
_Dot
 10
2451.530341127793
 20
943.7472537140772
 30
0.0
 41
2.0
 42
2.0
 43
2.0
 50
180.0
  0
MTEXT
  5
75D3
330
75CE
100
AcDbEntity
  8
寸法
  6
Continuous
 62
     3
100
AcDbMText
 10
2471.030356542393
 20
949.7472537140772
 30
0.0
 40
10.0
 41
0.0
 71
     5
 72
     1
  1
\A1;39
  7
ACAD
 73
     1
 44
1.0
1001
ACAD
1000
MTEXTBEGIN
1070
    73
1070
     1
1070
    44
1040
1.0
1070
    74
1070
     0
1000
MTEXTEND
  0
POINT
  5
75D4
330
75CE
100
AcDbEntity
  8
Defpoints
  6
Continuous
 62
     0
100
AcDbPoint
 10
2490.530371956993
 20
943.7472537140772
 30
0.0
  0
POINT
  5
75D5
330
75CE
100
AcDbEntity
  8
Defpoints
  6
Continuous
 62
     0
100
AcDbPoint
 10
2451.530341127793
 20
980.3375324692773
 30
0.0
  0
POINT
  5
75D6
330
75CE
100
AcDbEntity
  8
Defpoints
  6
Continuous
 62
     0
100
AcDbPoint
 10
2451.530341127793
 20
943.7472537140772
 30
0.0
  0
ENDBLK
  5
75D8
330
75CE
100
AcDbEntity
  8
0
100
AcDbBlockEnd
  0
BLOCK
  5
75E4
330
75DA
100
AcDbEntity
  8
0
100
AcDbBlockBegin
  2
*D20
 70
     1
 10
0.0
 20
0.0
 30
0.0
  3
*D20
  1

  0
LINE
  5
75DB
330
75DA
100
AcDbEntity
  8
寸法
  6
Continuous
 62
     4
370
    -2
100
AcDbLine
 10
2451.530341127793
 20
980.3375324692773
 30
0.0
 11
2451.530341127793
 21
943.7472537140772
 31
0.0
  0
LINE
  5
75DC
330
75DA
100
AcDbEntity
  8
寸法
  6
Continuous
 62
     4
370
    -2
100
AcDbLine
 10
2229.530402786293
 20
980.3375324692773
 30
0.0
 11
2229.530402786293
 21
943.7472537140772
 31
0.0
  0
LINE
  5
75DD
330
75DA
100
AcDbEntity
  8
寸法
  6
Continuous
 62
     4
370
    -2
100
AcDbLine
 10
2449.530341127793
 20
943.7472537140772
 30
0.0
 11
2231.530402786292
 21
943.7472537140772
 31
0.0
  0
INSERT
  5
75DE
330
75DA
100
AcDbEntity
  8
寸法
  6
Continuous
 62
     4
370
    -2
100
AcDbBlockReference
  2
_Dot
 10
2451.530341127793
 20
943.7472537140772
 30
0.0
 41
2.0
 42
2.0
 43
2.0
  0
INSERT
  5
75DF
330
75DA
100
AcDbEntity
  8
寸法
  6
Continuous
 62
     4
370
    -2
100
AcDbBlockReference
  2
_Dot
 10
2229.530402786293
 20
943.7472537140772
 30
0.0
 41
2.0
 42
2.0
 43
2.0
 50
180.0
  0
MTEXT
  5
75E0
330
75DA
100
AcDbEntity
  8
寸法
  6
Continuous
 62
     3
100
AcDbMText
 10
2340.530371957043
 20
949.7472537140772
 30
0.0
 40
10.0
 41
0.0
 71
     5
 72
     1
  1
\A1;222
  7
ACAD
 73
     1
 44
1.0
1001
ACAD
1000
MTEXTBEGIN
1070
    73
1070
     1
1070
    44
1040
1.0
1070
    74
1070
     0
1000
MTEXTEND
  0
POINT
  5
75E1
330
75DA
100
AcDbEntity
  8
Defpoints
  6
Continuous
 62
     0
100
AcDbPoint
 10
2451.530341127793
 20
980.3375324692773
 30
0.0
  0
POINT
  5
75E2
330
75DA
100
AcDbEntity
  8
Defpoints
  6
Continuous
 62
     0
100
AcDbPoint
 10
2229.530402786293
 20
980.3375324692773
 30
0.0
  0
POINT
  5
75E3
330
75DA
100
AcDbEntity
  8
Defpoints
  6
Continuous
 62
     0
100
AcDbPoint
 10
2229.530402786293
 20
943.7472537140772
 30
0.0
  0
ENDBLK
  5
75E5
330
75DA
100
AcDbEntity
  8
0
100
AcDbBlockEnd
  0
BLOCK
  5
75F0
330
75E7
100
AcDbEntity
  8
0
100
AcDbBlockBegin
  2
*D21
 70
     1
 10
0.0
 20
0.0
 30
0.0
  3
*D21
  1

  0
LINE
  5
75E8
330
75E7
100
AcDbEntity
  8
寸法
  6
Continuous
 62
     4
370
    -2
100
AcDbLine
 10
2229.530402786293
 20
980.3375324692773
 30
0.0
 11
2229.530402786293
 21
943.7472537140772
 31
0.0
  0
LINE
  5
75E9
330
75E7
100
AcDbEntity
  8
寸法
  6
Continuous
 62
     4
370
    -2
100
AcDbLine
 10
2227.530402786292
 20
943.7472537140772
 30
0.0
 11
2192.530371957093
 21
943.7472537140772
 31
0.0
  0
INSERT
  5
75EA
330
75E7
100
AcDbEntity
  8
寸法
  6
Continuous
 62
     4
370
    -2
100
AcDbBlockReference
  2
_Dot
 10
2229.530402786293
 20
943.7472537140772
 30
0.0
 41
2.0
 42
2.0
 43
2.0
  0
INSERT
  5
75EB
330
75E7
100
AcDbEntity
  8
寸法
  6
Continuous
 62
     4
370
    -2
100
AcDbBlockReference
  2
_Dot
 10
2190.530371957092
 20
943.7472537140772
 30
0.0
 41
2.0
 42
2.0
 43
2.0
 50
180.0
  0
MTEXT
  5
75EC
330
75E7
100
AcDbEntity
  8
寸法
  6
Continuous
 62
     3
100
AcDbMText
 10
2210.030387371693
 20
949.7472537140772
 30
0.0
 40
10.0
 41
0.0
 71
     5
 72
     1
  1
\A1;39
  7
ACAD
 73
     1
 44
1.0
1001
ACAD
1000
MTEXTBEGIN
1070
    73
1070
     1
1070
    44
1040
1.0
1070
    74
1070
     0
1000
MTEXTEND
  0
POINT
  5
75ED
330
75E7
100
AcDbEntity
  8
Defpoints
  6
Continuous
 62
     0
100
AcDbPoint
 10
2229.530402786293
 20
980.3375324692773
 30
0.0
  0
POINT
  5
75EE
330
75E7
100
AcDbEntity
  8
Defpoints
  6
Continuous
 62
     0
100
AcDbPoint
 10
2190.530371957092
 20
943.7472537140772
 30
0.0
  0
POINT
  5
75EF
330
75E7
100
AcDbEntity
  8
Defpoints
  6
Continuous
 62
     0
100
AcDbPoint
 10
2190.530371957092
 20
943.7472537140772
 30
0.0
  0
ENDBLK
  5
75F1
330
75E7
100
AcDbEntity
  8
0
100
AcDbBlockEnd
  0
BLOCK
  5
75FD
330
75F3
100
AcDbEntity
  8
0
100
AcDbBlockBegin
  2
*D22
 70
     1
 10
0.0
 20
0.0
 30
0.0
  3
*D22
  1

  0
LINE
  5
764C
330
75F3
100
AcDbEntity
  8
寸法
  6
Continuous
 62
     4
370
    -2
100
AcDbLine
 10
2157.030401786293
 20
954.0847113699772
 30
0.0
 11
2157.030401786293
 21
895.7472557140773
 31
0.0
  0
LINE
  5
764D
330
75F3
100
AcDbEntity
  8
寸法
  6
Continuous
 62
     4
370
    -2
100
AcDbLine
 10
2190.530371957092
 20
913.5434592156771
 30
0.0
 11
2190.530371957092
 21
895.7472557140773
 31
0.0
  0
LINE
  5
764E
330
75F3
100
AcDbEntity
  8
寸法
  6
Continuous
 62
     4
370
    -2
100
AcDbLine
 10
2159.030401786293
 20
895.7472557140773
 30
0.0
 11
2188.530371957092
 21
895.7472557140773
 31
0.0
  0
INSERT
  5
764F
330
75F3
100
AcDbEntity
  8
寸法
  6
Continuous
 62
     4
370
    -2
100
AcDbBlockReference
  2
_Dot
 10
2157.030401786293
 20
895.7472557140773
 30
0.0
 41
2.0
 42
2.0
 43
2.0
 50
180.0
  0
INSERT
  5
7650
330
75F3
100
AcDbEntity
  8
寸法
  6
Continuous
 62
     4
370
    -2
100
AcDbBlockReference
  2
_Dot
 10
2190.530371957092
 20
895.7472557140773
 30
0.0
 41
2.0
 42
2.0
 43
2.0
  0
MTEXT
  5
7651
330
75F3
100
AcDbEntity
  8
寸法
  6
Continuous
 62
     3
100
AcDbMText
 10
2173.780386871693
 20
901.7472557140772
 30
0.0
 40
10.0
 41
0.0
 71
     5
 72
     1
  1
\A1;33.5
  7
ACAD
 73
     1
 44
1.0
1001
ACAD
1000
MTEXTBEGIN
1070
    73
1070
     1
1070
    44
1040
1.0
1070
    74
1070
     0
1000
MTEXTEND
  0
POINT
  5
7652
330
75F3
100
AcDbEntity
  8
Defpoints
  6
Continuous
 62
     0
100
AcDbPoint
 10
2157.030401786293
 20
954.0847113699772
 30
0.0
  0
POINT
  5
7653
330
75F3
100
AcDbEntity
  8
Defpoints
  6
Continuous
 62
     0
100
AcDbPoint
 10
2190.530371957092
 20
913.5434592156771
 30
0.0
  0
POINT
  5
7654
330
75F3
100
AcDbEntity
  8
Defpoints
  6
Continuous
 62
     0
100
AcDbPoint
 10
2190.530371957092
 20
895.7472557140773
 30
0.0
  0
ENDBLK
  5
75FE
330
75F3
100
AcDbEntity
  8
0
100
AcDbBlockEnd
  0
BLOCK
  5
760A
330
7600
100
AcDbEntity
  8
0
100
AcDbBlockBegin
  2
*D23
 70
     1
 10
0.0
 20
0.0
 30
0.0
  3
*D23
  1

  0
LINE
  5
7601
330
7600
100
AcDbEntity
  8
寸法
  6
Continuous
 62
     4
370
    -2
100
AcDbLine
 10
2190.530371957092
 20
913.5434592156771
 30
0.0
 11
2190.530371957092
 21
895.7472557140773
 31
0.0
  0
LINE
  5
7602
330
7600
100
AcDbEntity
  8
寸法
  6
Continuous
 62
     4
370
    -2
100
AcDbLine
 10
2490.530371956993
 20
913.5434592156771
 30
0.0
 11
2490.530371956993
 21
895.7472557140773
 31
0.0
  0
LINE
  5
7603
330
7600
100
AcDbEntity
  8
寸法
  6
Continuous
 62
     4
370
    -2
100
AcDbLine
 10
2192.530371957093
 20
895.7472557140773
 30
0.0
 11
2488.530371956993
 21
895.7472557140773
 31
0.0
  0
INSERT
  5
7604
330
7600
100
AcDbEntity
  8
寸法
  6
Continuous
 62
     4
370
    -2
100
AcDbBlockReference
  2
_Dot
 10
2190.530371957092
 20
895.7472557140773
 30
0.0
 41
2.0
 42
2.0
 43
2.0
 50
180.0
  0
INSERT
  5
7605
330
7600
100
AcDbEntity
  8
寸法
  6
Continuous
 62
     4
370
    -2
100
AcDbBlockReference
  2
_Dot
 10
2490.530371956993
 20
895.7472557140773
 30
0.0
 41
2.0
 42
2.0
 43
2.0
  0
MTEXT
  5
7606
330
7600
100
AcDbEntity
  8
寸法
  6
Continuous
 62
     3
100
AcDbMText
 10
2340.530371957043
 20
901.7472557140772
 30
0.0
 40
10.0
 41
0.0
 71
     5
 72
     1
  1
\A1;300
  7
ACAD
 73
     1
 44
1.0
1001
ACAD
1000
MTEXTBEGIN
1070
    73
1070
     1
1070
    44
1040
1.0
1070
    74
1070
     0
1000
MTEXTEND
  0
POINT
  5
7607
330
7600
100
AcDbEntity
  8
Defpoints
  6
Continuous
 62
     0
100
AcDbPoint
 10
2190.530371957092
 20
913.5434592156771
 30
0.0
  0
POINT
  5
7608
330
7600
100
AcDbEntity
  8
Defpoints
  6
Continuous
 62
     0
100
AcDbPoint
 10
2490.530371956993
 20
913.5434592156771
 30
0.0
  0
POINT
  5
7609
330
7600
100
AcDbEntity
  8
Defpoints
  6
Continuous
 62
     0
100
AcDbPoint
 10
2490.530371956993
 20
895.7472557140773
 30
0.0
  0
ENDBLK
  5
760B
330
7600
100
AcDbEntity
  8
0
100
AcDbBlockEnd
  0
BLOCK
  5
7617
330
760D
100
AcDbEntity
  8
0
100
AcDbBlockBegin
  2
*D24
 70
     1
 10
0.0
 20
0.0
 30
0.0
  3
*D24
  1

  0
LINE
  5
7655
330
760D
100
AcDbEntity
  8
寸法
  6
Continuous
 62
     4
370
    -2
100
AcDbLine
 10
2490.530371956993
 20
913.5434592156771
 30
0.0
 11
2490.530371956993
 21
895.7472557140773
 31
0.0
  0
LINE
  5
7656
330
760D
100
AcDbEntity
  8
寸法
  6
Continuous
 62
     4
370
    -2
100
AcDbLine
 10
2524.030342127793
 20
954.0847113699772
 30
0.0
 11
2524.030342127793
 21
895.7472557140773
 31
0.0
  0
LINE
  5
7657
330
760D
100
AcDbEntity
  8
寸法
  6
Continuous
 62
     4
370
    -2
100
AcDbLine
 10
2492.530371956993
 20
895.7472557140773
 30
0.0
 11
2522.030342127793
 21
895.7472557140773
 31
0.0
  0
INSERT
  5
7658
330
760D
100
AcDbEntity
  8
寸法
  6
Continuous
 62
     4
370
    -2
100
AcDbBlockReference
  2
_Dot
 10
2490.530371956993
 20
895.7472557140773
 30
0.0
 41
2.0
 42
2.0
 43
2.0
 50
180.0
  0
INSERT
  5
7659
330
760D
100
AcDbEntity
  8
寸法
  6
Continuous
 62
     4
370
    -2
100
AcDbBlockReference
  2
_Dot
 10
2524.030342127793
 20
895.7472557140773
 30
0.0
 41
2.0
 42
2.0
 43
2.0
  0
MTEXT
  5
765A
330
760D
100
AcDbEntity
  8
寸法
  6
Continuous
 62
     3
100
AcDbMText
 10
2507.280357042393
 20
901.7472557140772
 30
0.0
 40
10.0
 41
0.0
 71
     5
 72
     1
  1
\A1;33.5
  7
ACAD
 73
     1
 44
1.0
1001
ACAD
1000
MTEXTBEGIN
1070
    73
1070
     1
1070
    44
1040
1.0
1070
    74
1070
     0
1000
MTEXTEND
  0
POINT
  5
765B
330
760D
100
AcDbEntity
  8
Defpoints
  6
Continuous
 62
     0
100
AcDbPoint
 10
2490.530371956993
 20
913.5434592156771
 30
0.0
  0
POINT
  5
765C
330
760D
100
AcDbEntity
  8
Defpoints
  6
Continuous
 62
     0
100
AcDbPoint
 10
2524.030342127793
 20
954.0847113699772
 30
0.0
  0
POINT
  5
765D
330
760D
100
AcDbEntity
  8
Defpoints
  6
Continuous
 62
     0
100
AcDbPoint
 10
2524.030342127793
 20
895.7472557140773
 30
0.0
  0
ENDBLK
  5
7618
330
760D
100
AcDbEntity
  8
0
100
AcDbBlockEnd
  0
BLOCK
  5
7624
330
761A
100
AcDbEntity
  8
0
100
AcDbBlockBegin
  2
*D25
 70
     1
 10
0.0
 20
0.0
 30
0.0
  3
*D25
  1

  0
LINE
  5
761B
330
761A
100
AcDbEntity
  8
寸法
  6
Continuous
 62
     4
370
    -2
100
AcDbLine
 10
1548.737907566806
 20
1009.628655121339
 30
0.0
 11
1548.737907566806
 21
1056.879961875439
 31
0.0
  0
LINE
  5
761C
330
761A
100
AcDbEntity
  8
寸法
  6
Continuous
 62
     4
370
    -2
100
AcDbLine
 10
1978.737907566706
 20
1009.628655121339
 30
0.0
 11
1978.737907566706
 21
1056.879961875439
 31
0.0
  0
LINE
  5
761D
330
761A
100
AcDbEntity
  8
寸法
  6
Continuous
 62
     4
370
    -2
100
AcDbLine
 10
1550.737907566806
 20
1056.879961875439
 30
0.0
 11
1976.737907566706
 21
1056.879961875439
 31
0.0
  0
INSERT
  5
761E
330
761A
100
AcDbEntity
  8
寸法
  6
Continuous
 62
     4
370
    -2
100
AcDbBlockReference
  2
_Dot
 10
1548.737907566806
 20
1056.879961875439
 30
0.0
 41
2.0
 42
2.0
 43
2.0
 50
180.0
  0
INSERT
  5
761F
330
761A
100
AcDbEntity
  8
寸法
  6
Continuous
 62
     4
370
    -2
100
AcDbBlockReference
  2
_Dot
 10
1978.737907566706
 20
1056.879961875439
 30
0.0
 41
2.0
 42
2.0
 43
2.0
  0
MTEXT
  5
7620
330
761A
100
AcDbEntity
  8
寸法
  6
Continuous
 62
     3
100
AcDbMText
 10
1763.737907566756
 20
1062.879961875438
 30
0.0
 40
10.0
 41
0.0
 71
     5
 72
     1
  1
\A1;430
  7
ACAD
 73
     1
 44
1.0
1001
ACAD
1000
MTEXTBEGIN
1070
    73
1070
     1
1070
    44
1040
1.0
1070
    74
1070
     0
1000
MTEXTEND
  0
POINT
  5
7621
330
761A
100
AcDbEntity
  8
Defpoints
  6
Continuous
 62
     0
100
AcDbPoint
 10
1548.737907566806
 20
1009.628655121339
 30
0.0
  0
POINT
  5
7622
330
761A
100
AcDbEntity
  8
Defpoints
  6
Continuous
 62
     0
100
AcDbPoint
 10
1978.737907566706
 20
1009.628655121339
 30
0.0
  0
POINT
  5
7623
330
761A
100
AcDbEntity
  8
Defpoints
  6
Continuous
 62
     0
100
AcDbPoint
 10
1978.737907566706
 20
1056.879961875439
 30
0.0
  0
ENDBLK
  5
7625
330
761A
100
AcDbEntity
  8
0
100
AcDbBlockEnd
  0
BLOCK
  5
762F
330
7627
100
AcDbEntity
  8
0
100
AcDbBlockBegin
  2
*D26
 70
     1
 10
0.0
 20
0.0
 30
0.0
  3
*D26
  1

  0
LINE
  5
7628
330
7627
100
AcDbEntity
  8
寸法
  6
Continuous
 62
     4
370
    -2
100
AcDbLine
 10
1650.737910566806
 20
1041.879961875439
 30
0.0
 11
1876.737907566706
 21
1041.879961875439
 31
0.0
  0
INSERT
  5
7629
330
7627
100
AcDbEntity
  8
寸法
  6
Continuous
 62
     4
370
    -2
100
AcDbBlockReference
  2
_Dot
 10
1648.737910566806
 20
1041.879961875439
 30
0.0
 41
2.0
 42
2.0
 43
2.0
 50
180.0
  0
INSERT
  5
762A
330
7627
100
AcDbEntity
  8
寸法
  6
Continuous
 62
     4
370
    -2
100
AcDbBlockReference
  2
_Dot
 10
1878.737907566706
 20
1041.879961875439
 30
0.0
 41
2.0
 42
2.0
 43
2.0
  0
MTEXT
  5
762B
330
7627
100
AcDbEntity
  8
寸法
  6
Continuous
 62
     3
100
AcDbMText
 10
1763.737909066756
 20
1047.879961875439
 30
0.0
 40
10.0
 41
0.0
 71
     5
 72
     1
  1
\A1;230
  7
ACAD
 73
     1
 44
1.0
1001
ACAD
1000
MTEXTBEGIN
1070
    73
1070
     1
1070
    44
1040
1.0
1070
    74
1070
     0
1000
MTEXTEND
  0
POINT
  5
762C
330
7627
100
AcDbEntity
  8
Defpoints
  6
Continuous
 62
     0
100
AcDbPoint
 10
1648.737910566806
 20
1041.879961875439
 30
0.0
  0
POINT
  5
762D
330
7627
100
AcDbEntity
  8
Defpoints
  6
Continuous
 62
     0
100
AcDbPoint
 10
1878.737907566706
 20
1041.879961875439
 30
0.0
  0
POINT
  5
762E
330
7627
100
AcDbEntity
  8
Defpoints
  6
Continuous
 62
     0
100
AcDbPoint
 10
1878.737907566706
 20
1041.879961875439
 30
0.0
  0
ENDBLK
  5
7630
330
7627
100
AcDbEntity
  8
0
100
AcDbBlockEnd
  0
BLOCK
  5
768A
330
7681
100
AcDbEntity
  8
0
100
AcDbBlockBegin
  2
*D27
 70
     1
 10
0.0
 20
0.0
 30
0.0
  3
*D27
  1

  0
LINE
  5
7682
330
7681
100
AcDbEntity
  8
寸法
  6
Continuous
 62
     4
370
    -2
100
AcDbLine
 10
1981.248299740405
 20
1006.879889299639
 30
0.0
 11
1998.737907566706
 21
1006.879889299639
 31
0.0
  0
LINE
  5
7683
330
7681
100
AcDbEntity
  8
寸法
  6
Continuous
 62
     4
370
    -2
100
AcDbLine
 10
1998.737907566706
 20
1004.879889299639
 30
0.0
 11
1998.737907566706
 21
988.8799618754388
 31
0.0
  0
INSERT
  5
7684
330
7681
100
AcDbEntity
  8
寸法
  6
Continuous
 62
     4
370
    -2
100
AcDbBlockReference
  2
_Dot
 10
1998.737907566706
 20
1006.879889299639
 30
0.0
 41
2.0
 42
2.0
 43
2.0
 50
90.0
  0
INSERT
  5
7685
330
7681
100
AcDbEntity
  8
寸法
  6
Continuous
 62
     4
370
    -2
100
AcDbBlockReference
  2
_Dot
 10
1998.737907566706
 20
986.8799618754389
 30
0.0
 41
2.0
 42
2.0
 43
2.0
 50
270.0
  0
MTEXT
  5
7686
330
7681
100
AcDbEntity
  8
寸法
  6
Continuous
 62
     3
100
AcDbMText
 10
1992.737907566706
 20
996.8799255875392
 30
0.0
 40
10.0
 41
0.0
 71
     5
 72
     1
  1
\A1;20
  7
ACAD
 11
0.0000000000000001
 21
1.0
 31
0.0
 73
     1
 44
1.0
1001
ACAD
1000
MTEXTBEGIN
1070
    73
1070
     1
1070
    44
1040
1.0
1070
    74
1070
     0
1000
MTEXTEND
  0
POINT
  5
7687
330
7681
100
AcDbEntity
  8
Defpoints
  6
Continuous
 62
     0
100
AcDbPoint
 10
1981.248299740405
 20
1006.879889299639
 30
0.0
  0
POINT
  5
7688
330
7681
100
AcDbEntity
  8
Defpoints
  6
Continuous
 62
     0
100
AcDbPoint
 10
1998.737907566706
 20
986.8799618754389
 30
0.0
  0
POINT
  5
7689
330
7681
100
AcDbEntity
  8
Defpoints
  6
Continuous
 62
     0
100
AcDbPoint
 10
1998.737907566706
 20
986.8799618754389
 30
0.0
  0
ENDBLK
  5
768B
330
7681
100
AcDbEntity
  8
0
100
AcDbBlockEnd
  0
ENDSEC
  0
SECTION
  2
ENTITIES
  0
LINE
  5
6CD0
330
1E
100
AcDbEntity
  8
図枠
  6
Continuous
 62
     7
100
AcDbLine
 10
1974.011711648006
 20
565.9072084574388
 30
0.0
 11
1547.561711648006
 21
565.9072084574388
 31
0.0
  0
LINE
  5
6CD1
330
1E
100
AcDbEntity
  8
図枠
  6
Continuous
 62
     7
100
AcDbLine
 10
1974.011711648006
 20
547.9072084574388
 30
0.0
 11
1547.561711648006
 21
547.9072084574388
 31
0.0
  0
LINE
  5
6CD2
330
1E
100
AcDbEntity
  8
図枠
  6
Continuous
 62
     7
100
AcDbLine
 10
1974.011711648006
 20
583.9072084574389
 30
0.0
 11
1547.561711648006
 21
583.9072084574389
 31
0.0
  0
LINE
  5
6CD3
330
1E
100
AcDbEntity
  8
図枠
  6
Continuous
 62
     7
100
AcDbLine
 10
1974.011711648006
 20
691.9072084574388
 30
0.0
 11
1547.561711648006
 21
691.9072084574388
 31
0.0
  0
LINE
  5
6CD4
330
1E
100
AcDbEntity
  8
図枠
  6
Continuous
 62
     7
100
AcDbLine
 10
1974.011711648006
 20
673.9072084574389
 30
0.0
 11
1547.561711648006
 21
673.9072084574389
 31
0.0
  0
LINE
  5
6CD5
330
1E
100
AcDbEntity
  8
図枠
  6
Continuous
 62
     7
100
AcDbLine
 10
1974.011711648006
 20
655.9072084574389
 30
0.0
 11
1547.561711648006
 21
655.9072084574389
 31
0.0
  0
LINE
  5
6CD6
330
1E
100
AcDbEntity
  8
図枠
  6
Continuous
 62
     7
100
AcDbLine
 10
1974.011711648006
 20
637.907208457439
 30
0.0
 11
1547.561711648006
 21
637.907208457439
 31
0.0
  0
LINE
  5
6CD7
330
1E
100
AcDbEntity
  8
図枠
  6
Continuous
 62
     7
100
AcDbLine
 10
1974.011711648006
 20
619.9072084574388
 30
0.0
 11
1547.561711648006
 21
619.9072084574388
 31
0.0
  0
LINE
  5
6CD8
330
1E
100
AcDbEntity
  8
図枠
  6
Continuous
 62
     7
100
AcDbLine
 10
1974.011711648006
 20
601.9072084574388
 30
0.0
 11
1547.561711648006
 21
601.9072084574388
 31
0.0
  0
LINE
  5
6CD9
330
1E
100
AcDbEntity
  8
図枠
  6
Continuous
 62
     7
100
AcDbLine
 10
1974.011711648006
 20
724.3072084574389
 30
0.0
 11
1547.561711648006
 21
724.3072084574389
 31
0.0
  0
TEXT
  5
6CDA
330
1E
100
AcDbEntity
  8
図枠
 62
     7
100
AcDbText
 10
1630.982765648006
 20
709.9072399574388
 30
0.0
 40
9.599999999999999
  1
部材名称
100
AcDbText
  0
TEXT
  5
6CDB
330
1E
100
AcDbEntity
  8
図枠
 62
     7
100
AcDbText
 10
1924.215503648006
 20
709.9072399574388
 30
0.0
 40
9.0
  1
使用
100
AcDbText
  0
TEXT
  5
6CDC
330
1E
100
AcDbEntity
  8
図枠
 62
     7
100
AcDbText
 10
1785.705892148006
 20
709.9072399574388
 30
0.0
 40
9.599999999999999
  1
規　格
100
AcDbText
  0
TEXT
  5
6CDD
330
1E
100
AcDbEntity
  8
図枠
 62
     7
100
AcDbText
 10
1879.080859148006
 20
709.9072399574388
 30
0.0
 40
9.599999999999999
  1
定　尺
100
AcDbText
  0
TEXT
  5
6CDE
330
1E
100
AcDbEntity
  8
図枠
 62
     7
100
AcDbText
 10
1872.592354148006
 20
695.5072204574388
 30
0.0
 40
9.599999999999999
  1
（ｍｍ）
100
AcDbText
  0
TEXT
  5
6CDF
330
1E
100
AcDbEntity
  8
図枠
 62
     7
100
AcDbText
 10
1924.215503648006
 20
695.5072204574388
 30
0.0
 40
9.0
  1
数量
100
AcDbText
  0
TEXT
  5
6CE0
330
1E
100
AcDbEntity
  8
図枠
 62
     7
100
AcDbText
 10
1549.052915648006
 20
677.5898569574389
 30
0.0
 40
9.599999999999999
  1
　１
100
AcDbText
  0
TEXT
  5
6CE1
330
1E
100
AcDbEntity
  8
図枠
 62
     7
100
AcDbText
 10
1873.046380949278
 20
677.507220457439
 30
0.0
 40
9.599999999999999
  1
３０００
100
AcDbText
  0
TEXT
  5
6CE2
330
1E
100
AcDbEntity
  8
図枠
 62
     7
100
AcDbText
 10
1935.642376148006
 20
677.6571829574388
 30
0.0
 40
9.0
  1
２
100
AcDbText
  0
TEXT
  5
6CE3
330
1E
100
AcDbEntity
  8
図枠
 62
     7
100
AcDbText
 10
1958.577086648006
 20
677.507220457439
 30
0.0
 40
9.0
  1
本
100
AcDbText
  0
TEXT
  5
6CE4
330
1E
100
AcDbEntity
  8
図枠
 62
     7
100
AcDbText
 10
1558.322207648006
 20
659.5898569574388
 30
0.0
 40
9.599999999999999
  1
２
100
AcDbText
  0
TEXT
  5
6CE5
330
1E
100
AcDbEntity
  8
図枠
 62
     7
100
AcDbText
 10
1873.046380949278
 20
659.5072204574389
 30
0.0
 40
9.599999999999999
  1
３０００
100
AcDbText
  0
TEXT
  5
6CE6
330
1E
100
AcDbEntity
  8
図枠
 62
     7
100
AcDbText
 10
1935.642376148006
 20
659.6572174574388
 30
0.0
 40
9.0
  1
１
100
AcDbText
  0
TEXT
  5
6CE7
330
1E
100
AcDbEntity
  8
図枠
 62
     7
100
AcDbText
 10
1958.577086648006
 20
659.5072204574389
 30
0.0
 40
9.0
  1
〃
100
AcDbText
  0
TEXT
  5
6CE8
330
1E
100
AcDbEntity
  8
図枠
 62
     7
100
AcDbText
 10
1558.322207648006
 20
641.5898569574388
 30
0.0
 40
9.599999999999999
  1
３
100
AcDbText
  0
TEXT
  5
6CE9
330
1E
100
AcDbEntity
  8
図枠
 62
     7
100
AcDbText
 10
1935.642376148006
 20
641.6571829574388
 30
0.0
 40
9.0
  1
２
100
AcDbText
  0
TEXT
  5
6CEA
330
1E
100
AcDbEntity
  8
図枠
 62
     7
100
AcDbText
 10
1958.577086648006
 20
641.5072204574389
 30
0.0
 40
9.0
  1
〃
100
AcDbText
  0
TEXT
  5
6CEB
330
1E
100
AcDbEntity
  8
図枠
 62
     7
100
AcDbText
 10
1558.322207648006
 20
623.5898569574389
 30
0.0
 40
9.599999999999999
  1
４
100
AcDbText
  0
TEXT
  5
6CEC
330
1E
100
AcDbEntity
  8
図枠
 62
     7
100
AcDbText
 10
1558.322207648006
 20
605.5898914574388
 30
0.0
 40
9.599999999999999
  1
５
100
AcDbText
  0
TEXT
  5
6CED
330
1E
100
AcDbEntity
  8
図枠
 62
     7
100
AcDbText
 10
1558.322207648006
 20
587.5898914574388
 30
0.0
 40
9.599999999999999
  1
６
100
AcDbText
  0
TEXT
  5
6CEE
330
1E
100
AcDbEntity
  8
図枠
 62
     7
100
AcDbText
 10
1558.322207648006
 20
569.5898749574388
 30
0.0
 40
9.599999999999999
  1
７
100
AcDbText
  0
TEXT
  5
6CEF
330
1E
100
AcDbEntity
  8
図枠
 62
     7
100
AcDbText
 10
1558.322207648006
 20
551.5898749574388
 30
0.0
 40
9.599999999999999
  1
８
100
AcDbText
  0
TEXT
  5
6CF0
330
1E
100
AcDbEntity
  8
図枠
 62
     7
100
AcDbText
 10
1572.761734148006
 20
641.5072204574389
 30
0.0
 40
9.599999999999999
  1
ＵＵＨフレーム(Ｃ)
100
AcDbText
  0
TEXT
  5
6CF1
330
1E
100
AcDbEntity
  8
図枠
 62
     7
100
AcDbText
 10
1873.046380949278
 20
641.5072204574389
 30
0.0
 40
9.599999999999999
  1
３０００
100
AcDbText
  0
TEXT
  5
6CF2
330
1E
100
AcDbEntity
  8
図枠
 62
     7
100
AcDbText
 10
1572.761734148006
 20
569.5072204574388
 30
0.0
 40
9.599999999999999
  1
ステンタッピンねじ
100
AcDbText
  0
TEXT
  5
6CF3
330
1E
100
AcDbEntity
  8
図枠
 62
     7
100
AcDbText
 10
1926.373084148006
 20
569.6572009574388
 30
0.0
 40
9.0
  1
１２
100
AcDbText
  0
TEXT
  5
6CF4
330
1E
100
AcDbEntity
  8
図枠
 62
     7
100
AcDbText
 10
1958.577086648006
 20
569.5072204574388
 30
0.0
 40
9.0
  1
〃
100
AcDbText
  0
TEXT
  5
6CF5
330
1E
100
AcDbEntity
  8
図枠
 62
     7
100
AcDbText
 10
1935.642376148006
 20
605.6572174574388
 30
0.0
 40
9.0
  1
２
100
AcDbText
  0
TEXT
  5
6CF6
330
1E
100
AcDbEntity
  8
図枠
 62
     7
100
AcDbText
 10
1873.046380949278
 20
587.5072204574388
 30
0.0
 40
9.599999999999999
  1
３０１０
100
AcDbText
  0
TEXT
  5
6CF7
330
1E
100
AcDbEntity
  8
図枠
 62
     7
100
AcDbText
 10
1935.642376148006
 20
587.6572174574388
 30
0.0
 40
9.0
  1
２
100
AcDbText
  0
TEXT
  5
6CF8
330
1E
100
AcDbEntity
  8
図枠
 62
     7
100
AcDbText
 10
1958.577086648006
 20
587.5072204574388
 30
0.0
 40
9.0
  1
〃
100
AcDbText
  0
TEXT
  5
6CF9
330
1E
100
AcDbEntity
  8
図枠
 62
     7
100
AcDbText
 10
1743.761785148006
 20
569.5072204574388
 30
0.0
 40
9.599999999999999
  1
なべ４×３０
100
AcDbText
  0
TEXT
  5
6CFA
330
1E
100
AcDbEntity
  8
図枠
 62
     7
100
AcDbText
 10
1572.761750648006
 20
623.5072369574388
 30
0.0
 40
9.599999999999999
  1
アンカープラグ
100
AcDbText
  0
TEXT
  5
6CFB
330
1E
100
AcDbEntity
  8
図枠
 62
     7
100
AcDbText
 10
1743.761750648006
 20
623.5072369574388
 30
0.0
 40
9.599999999999999
  1
フィッシャープラグＳ６
100
AcDbText
  0
TEXT
  5
6CFC
330
1E
100
AcDbEntity
  8
図枠
 62
     7
100
AcDbText
 10
1926.373084148006
 20
623.6572009574388
 30
0.0
 40
9.0
  1
１２
100
AcDbText
  0
TEXT
  5
6CFD
330
1E
100
AcDbEntity
  8
図枠
 62
     7
100
AcDbText
 10
1958.269367357306
 20
717.2610260680388
 30
0.0
 40
9.0
  1
単位
 50
269.9999999999999
100
AcDbText
  0
LINE
  5
6CFE
330
1E
100
AcDbEntity
  8
躯体と製品
  6
CENTER2_22
 62
     7
100
AcDbLine
 10
1763.737907566806
 20
986.8799618754389
 30
0.0
 11
1763.737907566806
 21
1006.879961875439
 31
0.0
  0
TEXT
  5
6D03
330
1E
100
AcDbEntity
  8
図枠
 62
     7
100
AcDbText
 10
1572.761734148006
 20
677.507220457439
 30
0.0
 40
9.599999999999999
  1
ＵＵＨサイドプレート(Ｃ)Ｓ
100
AcDbText
  0
TEXT
  5
6D04
330
1E
100
AcDbEntity
  8
図枠
 62
     7
100
AcDbText
 10
1572.761734148006
 20
605.5072204574388
 30
0.0
 40
9.599999999999999
  1
ガスケットＦ
100
AcDbText
  0
TEXT
  5
6D05
330
1E
100
AcDbEntity
  8
図枠
 62
     7
100
AcDbText
 10
1873.046380949278
 20
605.5072204574388
 30
0.0
 40
9.599999999999999
  1
３０１０
100
AcDbText
  0
TEXT
  5
6D06
330
1E
100
AcDbEntity
  8
図枠
 62
     7
100
AcDbText
 10
1572.761734148006
 20
587.5072204574388
 30
0.0
 40
9.599999999999999
  1
ＵＵＨパッキンＳ
100
AcDbText
  0
LINE
  5
6D07
330
1E
100
AcDbEntity
  8
図枠
  6
Continuous
 62
     7
100
AcDbLine
 10
1974.011711648006
 20
529.9072084574389
 30
0.0
 11
1547.561711648006
 21
529.9072084574389
 31
0.0
  0
LINE
  5
6D08
330
1E
100
AcDbEntity
  8
図枠
  6
Continuous
 62
     7
100
AcDbLine
 10
1547.561711648006
 20
529.9072084574389
 30
0.0
 11
1547.561711648006
 21
724.3072084574389
 31
0.0
  0
LINE
  5
6D09
330
1E
100
AcDbEntity
  8
図枠
  6
Continuous
 62
     7
100
AcDbLine
 10
1569.161711648006
 20
529.9072084574389
 30
0.0
 11
1569.161711648006
 21
724.3072084574389
 31
0.0
  0
LINE
  5
6D0A
330
1E
100
AcDbEntity
  8
図枠
  6
Continuous
 62
     7
100
AcDbLine
 10
1740.161711648006
 20
529.9072084574389
 30
0.0
 11
1740.161711648006
 21
724.3072084574389
 31
0.0
  0
LINE
  5
6D0B
330
1E
100
AcDbEntity
  8
図枠
  6
Continuous
 62
     7
100
AcDbLine
 10
1868.411711648006
 20
529.9072084574389
 30
0.0
 11
1868.411711648006
 21
724.3072084574389
 31
0.0
  0
LINE
  5
6D0C
330
1E
100
AcDbEntity
  8
図枠
  6
Continuous
 62
     7
100
AcDbLine
 10
1871.411711648006
 20
529.9072084574389
 30
0.0
 11
1871.411711648006
 21
724.3072084574389
 31
0.0
  0
LINE
  5
6D0D
330
1E
100
AcDbEntity
  8
図枠
  6
Continuous
 62
     7
100
AcDbLine
 10
1916.411711648006
 20
529.9072084574389
 30
0.0
 11
1916.411711648006
 21
724.3072084574389
 31
0.0
  0
LINE
  5
6D0E
330
1E
100
AcDbEntity
  8
図枠
  6
Continuous
 62
     7
100
AcDbLine
 10
1952.411711648006
 20
529.9072084574389
 30
0.0
 11
1952.411711648006
 21
724.3072084574389
 31
0.0
  0
LINE
  5
6D0F
330
1E
100
AcDbEntity
  8
図枠
  6
Continuous
 62
     7
100
AcDbLine
 10
1974.011711648006
 20
529.9072084574389
 30
0.0
 11
1974.011711648006
 21
724.3072084574389
 31
0.0
  0
TEXT
  5
6D10
330
1E
100
AcDbEntity
  8
図枠
 62
     7
100
AcDbText
 10
1558.322207648006
 20
533.5898749574388
 30
0.0
 40
9.599999999999999
  1
９
100
AcDbText
  0
TEXT
  5
6D11
330
1E
100
AcDbEntity
  8
図枠
 62
     7
100
AcDbText
 10
1572.761734148006
 20
533.5072369574389
 30
0.0
 40
9.599999999999999
  1
ステンワッシャー
100
AcDbText
  0
TEXT
  5
6D12
330
1E
100
AcDbEntity
  8
図枠
 62
     7
100
AcDbText
 10
1926.373084148006
 20
533.6572339574388
 30
0.0
 40
9.0
  1
１２
100
AcDbText
  0
TEXT
  5
6D13
330
1E
100
AcDbEntity
  8
図枠
 62
     7
100
AcDbText
 10
1958.577086648006
 20
533.5072369574389
 30
0.0
 40
9.0
  1
枚
100
AcDbText
  0
TEXT
  5
6D14
330
1E
100
AcDbEntity
  8
図枠
 62
     7
100
AcDbText
 10
1572.761734148006
 20
551.5072369574388
 30
0.0
 40
9.599999999999999
  1
ステンシルタップ
100
AcDbText
  0
TEXT
  5
6D15
330
1E
100
AcDbEntity
  8
図枠
 62
     7
100
AcDbText
 10
1743.761750648006
 20
551.5072369574388
 30
0.0
 40
9.599999999999999
  1
皿４×１６
100
AcDbText
  0
TEXT
  5
6D16
330
1E
100
AcDbEntity
  8
図枠
 62
     7
100
AcDbText
 10
1926.373084148006
 20
551.6572009574389
 30
0.0
 40
9.0
  1
１２
100
AcDbText
  0
TEXT
  5
6D17
330
1E
100
AcDbEntity
  8
図枠
 62
     7
100
AcDbText
 10
1958.577086648006
 20
551.5072204574388
 30
0.0
 40
9.0
  1
〃
100
AcDbText
  0
TEXT
  5
6D18
330
1E
100
AcDbEntity
  8
図枠
 62
     7
100
AcDbText
 10
1547.561723648006
 20
508.9072174574388
 30
0.0
 40
9.599999999999999
  1
注）　ガスケットＦ及びＵＵＨパッキンＳはＵＵＨサイドプレート(Ｃ)Ｓにセット済み。
100
AcDbText
  0
TEXT
  5
6D19
330
1E
100
AcDbEntity
  8
図枠
 62
     7
100
AcDbText
 10
1743.761785148006
 20
533.5072369574389
 30
0.0
 40
9.599999999999999
  1
1.5×１８×5.5穴
100
AcDbText
  0
TEXT
  5
6D1A
330
1E
100
AcDbEntity
  8
図枠
 62
     7
100
AcDbText
 10
1958.577086648006
 20
623.507220457439
 30
0.0
 40
9.0
  1
〃
100
AcDbText
  0
TEXT
  5
6D1B
330
1E
100
AcDbEntity
  8
図枠
 62
     7
100
AcDbText
 10
1958.577086648006
 20
605.5072204574388
 30
0.0
 40
9.0
  1
〃
100
AcDbText
  0
TEXT
  5
6D1C
330
1E
100
AcDbEntity
  8
図枠
 62
     7
100
AcDbText
 10
1517.561711648006
 20
1174.307208457439
 30
0.0
 40
9.599999999999999
  1
◇内壁－内壁（２５０ＫＫＨ－Ｓ）　Ｓ＝１／３
100
AcDbText
  0
LINE
  5
6D25
330
1E
100
AcDbEntity
  8
躯体と製品
  6
Continuous
 62
     7
100
AcDbLine
 10
2012.737904566706
 20
919.8799628754388
 30
0.0
 11
1888.737907566706
 21
919.8799628754388
 31
0.0
  0
LINE
  5
6D26
330
1E
100
AcDbEntity
  8
躯体と製品
  6
Continuous
 62
     7
100
AcDbLine
 10
1888.737907566706
 20
919.8799628754388
 30
0.0
 11
1888.737907566706
 21
986.8799618754389
 31
0.0
  0
LINE
  5
6D27
330
1E
100
AcDbEntity
  8
躯体と製品
  6
Continuous
 62
     7
100
AcDbLine
 10
1983.328231864805
 20
919.8799628754388
 30
0.0
 11
2012.737904566706
 21
949.2896355773387
 31
0.0
  0
LINE
  5
6D28
330
1E
100
AcDbEntity
  8
躯体と製品
  6
Continuous
 62
     7
100
AcDbLine
 10
1980.499804740106
 20
919.8799628754388
 30
0.0
 11
2012.737904566706
 21
952.1180627020388
 31
0.0
  0
LINE
  5
6D29
330
1E
100
AcDbEntity
  8
躯体と製品
  6
Continuous
 62
     7
100
AcDbLine
 10
1977.671377615306
 20
919.8799628754388
 30
0.0
 11
2012.737904566706
 21
954.9464898268388
 31
0.0
  0
LINE
  5
6D2A
330
1E
100
AcDbEntity
  8
躯体と製品
  6
Continuous
 62
     7
100
AcDbLine
 10
1947.972892805506
 20
919.8799628754388
 30
0.0
 11
2012.737904566706
 21
984.6449746366388
 31
0.0
  0
LINE
  5
6D2B
330
1E
100
AcDbEntity
  8
躯体と製品
  6
Continuous
 62
     7
100
AcDbLine
 10
2012.144464680706
 20
986.8799618754389
 30
0.0
 11
1945.144465680706
 21
919.8799628754388
 31
0.0
  0
LINE
  5
6D2C
330
1E
100
AcDbEntity
  8
躯体と製品
  6
Continuous
 62
     7
100
AcDbLine
 10
1942.316038556006
 20
919.8799628754388
 30
0.0
 11
2009.316037556006
 21
986.8799618754389
 31
0.0
  0
LINE
  5
6D2D
330
1E
100
AcDbEntity
  8
躯体と製品
  6
Continuous
 62
     7
100
AcDbLine
 10
1979.617552746106
 20
986.8799618754389
 30
0.0
 11
1912.617553746206
 21
919.8799628754388
 31
0.0
  0
LINE
  5
6D2E
330
1E
100
AcDbEntity
  8
躯体と製品
  6
Continuous
 62
     7
100
AcDbLine
 10
1976.789125621406
 20
986.8799618754389
 30
0.0
 11
1909.789126621406
 21
919.8799628754388
 31
0.0
  0
LINE
  5
6D2F
330
1E
100
AcDbEntity
  8
躯体と製品
  6
Continuous
 62
     7
100
AcDbLine
 10
1973.960698496705
 20
986.8799618754389
 30
0.0
 11
1906.960699496706
 21
919.8799628754388
 31
0.0
  0
LINE
  5
6D30
330
1E
100
AcDbEntity
  8
躯体と製品
  6
Continuous
 62
     7
100
AcDbLine
 10
1938.605359437306
 20
986.8799618754389
 30
0.0
 11
1888.737907566706
 21
937.012510004839
 31
0.0
  0
LINE
  5
6D31
330
1E
100
AcDbEntity
  8
躯体と製品
  6
Continuous
 62
     7
100
AcDbLine
 10
1941.433786562106
 20
986.8799618754389
 30
0.0
 11
1888.737907566706
 21
934.1840828800389
 31
0.0
  0
LINE
  5
6D32
330
1E
100
AcDbEntity
  8
躯体と製品
  6
Continuous
 62
     7
100
AcDbLine
 10
1944.262213686806
 20
986.8799618754389
 30
0.0
 11
1888.737907566706
 21
931.3556557553388
 31
0.0
  0
LINE
  5
6D33
330
1E
100
AcDbEntity
  8
躯体と製品
  6
Continuous
 62
     7
100
AcDbLine
 10
1908.906874627506
 20
986.8799618754389
 30
0.0
 11
1888.737907566706
 21
966.7109948146389
 31
0.0
  0
LINE
  5
6D34
330
1E
100
AcDbEntity
  8
躯体と製品
  6
Continuous
 62
     7
100
AcDbLine
 10
1906.078447502806
 20
986.8799618754389
 30
0.0
 11
1888.737907566706
 21
969.5394219394389
 31
0.0
  0
LINE
  5
6D35
330
1E
100
AcDbEntity
  8
躯体と製品
  6
Continuous
 62
     7
100
AcDbLine
 10
1903.250020378006
 20
986.8799618754389
 30
0.0
 11
1888.737907566706
 21
972.3678490641388
 31
0.0
  0
ARC
  5
6D3B
330
1E
100
AcDbEntity
  8
躯体と製品
  6
Continuous
 62
     7
100
AcDbCircle
 10
1878.237900180406
 20
999.3799618754389
 30
0.0
 40
0.9999999999998999
100
AcDbArc
 50
180.0000434059011
 51
270.0
  0
ARC
  5
6D3C
330
1E
100
AcDbEntity
  8
躯体と製品
  6
Continuous
 62
     7
100
AcDbCircle
 10
1880.737901695506
 20
999.3799618754389
 30
0.0
 40
0.9999999999998999
100
AcDbArc
 50
270.0
 51
0.000043405901159
  0
ARC
  5
6D3D
330
1E
100
AcDbEntity
  8
躯体と製品
  6
Continuous
 62
     7
100
AcDbCircle
 10
1877.987894687906
 20
1004.129961875439
 30
0.0
 40
0.7499999999998999
100
AcDbArc
 50
0.000043405901159
 51
180.0000434062008
  0
ARC
  5
6D3E
330
1E
100
AcDbEntity
  8
躯体と製品
  6
Continuous
 62
     7
100
AcDbCircle
 10
1880.987894687906
 20
1002.629961875439
 30
0.0
 40
0.7499999999998999
100
AcDbArc
 50
0.0000000000390827
 51
180.0000434059011
  0
LINE
  5
6D3F
330
1E
100
AcDbEntity
  8
躯体と製品
  6
Continuous
 62
     7
100
AcDbLine
 10
1877.237900331906
 20
1004.129961307239
 30
0.0
 11
1877.237903930406
 21
999.3799611178388
 31
0.0
  0
LINE
  5
6D40
330
1E
100
AcDbEntity
  8
躯体と製品
  6
Continuous
 62
     7
100
AcDbLine
 10
1881.737901468206
 20
1002.629961875439
 30
0.0
 11
1881.737903930406
 21
999.3799626329389
 31
0.0
  0
LINE
  5
6D41
330
1E
100
AcDbEntity
  8
躯体と製品
  6
Continuous
 62
     7
100
AcDbLine
 10
1880.237894687906
 20
999.8799618754388
 30
0.0
 11
1878.737894687906
 21
999.8799618754388
 31
0.0
  0
LINE
  5
6D42
330
1E
100
AcDbEntity
  8
躯体と製品
  6
Continuous
 62
     7
100
AcDbLine
 10
1878.737894687906
 20
999.8799618754388
 30
0.0
 11
1878.737894687906
 21
1004.879961875439
 31
0.0
  0
ARC
  5
6D43
330
1E
100
AcDbEntity
  8
躯体と製品
  6
Continuous
 62
     7
100
AcDbCircle
 10
1880.737894687906
 20
1004.879961875439
 30
0.0
 40
2.0
100
AcDbArc
 50
90.0
 51
180.0
  0
LINE
  5
6D44
330
1E
100
AcDbEntity
  8
躯体と製品
  6
Continuous
 62
     7
100
AcDbLine
 10
1880.237894687906
 20
999.8799618754388
 30
0.0
 11
1880.237894687906
 21
1004.879961875439
 31
0.0
  0
ARC
  5
6D45
330
1E
100
AcDbEntity
  8
躯体と製品
  6
Continuous
 62
     7
100
AcDbCircle
 10
1880.737894687906
 20
1004.879961875439
 30
0.0
 40
0.5
100
AcDbArc
 50
90.0
 51
180.0
  0
ARC
  5
6D46
330
1E
100
AcDbEntity
  8
躯体と製品
  6
Continuous
 62
     7
100
AcDbCircle
 10
1976.737896960706
 20
990.8799558147389
 30
0.0
 40
0.5
100
AcDbArc
 50
270.0
 51
359.9999565940988
  0
ARC
  5
6D47
330
1E
100
AcDbEntity
  8
躯体と製品
  6
Continuous
 62
     7
100
AcDbCircle
 10
1976.737896960706
 20
990.8799558147389
 30
0.0
 40
2.0
100
AcDbArc
 50
270.0
 51
359.9999565941086
  0
LINE
  5
6D48
330
1E
100
AcDbEntity
  8
躯体と製品
  6
Continuous
 62
     7
100
AcDbLine
 10
1977.237877737506
 20
988.9434591783388
 30
0.0
 11
1977.237877737506
 21
986.8799618754389
 31
0.0
  0
LINE
  5
6D49
330
1E
100
AcDbEntity
  8
躯体と製品
  6
Continuous
 62
     7
100
AcDbLine
 10
1974.388369002206
 20
988.8799618754388
 30
0.0
 11
1972.388369002206
 21
986.8799618754389
 31
0.0
  0
LINE
  5
6D4A
330
1E
100
AcDbEntity
  8
躯体と製品
  6
Continuous
 62
     7
100
AcDbLine
 10
1977.237877737506
 20
987.4868299235387
 30
0.0
 11
1976.631009689406
 21
986.8799618754389
 31
0.0
  0
LINE
  5
6D4B
330
1E
100
AcDbEntity
  8
躯体と製品
  6
Continuous
 62
     7
100
AcDbLine
 10
1975.802582564606
 20
988.8799618754388
 30
0.0
 11
1973.802582564606
 21
986.8799618754389
 31
0.0
  0
LINE
  5
6D4C
330
1E
100
AcDbEntity
  8
躯体と製品
  6
Continuous
 62
     7
100
AcDbLine
 10
1972.974155439906
 20
988.8799618754388
 30
0.0
 11
1970.974155439906
 21
986.8799618754389
 31
0.0
  0
LINE
  5
6D4D
330
1E
100
AcDbEntity
  8
躯体と製品
  6
Continuous
 62
     7
100
AcDbLine
 10
1971.559941877506
 20
988.8799618754388
 30
0.0
 11
1969.559941877506
 21
986.8799618754389
 31
0.0
  0
LINE
  5
6D4E
330
1E
100
AcDbEntity
  8
躯体と製品
  6
Continuous
 62
     7
100
AcDbLine
 10
1977.237877737506
 20
988.9010434859388
 30
0.0
 11
1975.216796127006
 21
986.8799618754389
 31
0.0
  0
LINE
  5
6D4F
330
1E
100
AcDbEntity
  8
躯体と製品
  6
Continuous
 62
     7
100
AcDbLine
 10
1880.737894687906
 20
1006.879961875439
 30
0.0
 11
1976.737907187906
 21
1006.879961875439
 31
0.0
  0
LINE
  5
6D50
330
1E
100
AcDbEntity
  8
躯体と製品
  6
Continuous
 62
     7
100
AcDbLine
 10
1978.737907566706
 20
1004.879960360238
 30
0.0
 11
1978.737896960706
 21
990.8799542996389
 31
0.0
  0
ARC
  5
6D51
330
1E
100
AcDbEntity
  8
躯体と製品
  6
Continuous
 62
     7
100
AcDbCircle
 10
1976.737907187906
 20
1004.879961875439
 30
0.0
 40
2.0
100
AcDbArc
 50
359.9999565941021
 51
90.0
  0
LINE
  5
6D52
330
1E
100
AcDbEntity
  8
躯体と製品
  6
Continuous
 62
     7
100
AcDbLine
 10
1880.737894687906
 20
1005.379961875439
 30
0.0
 11
1976.737907187906
 21
1005.379961875439
 31
0.0
  0
LINE
  5
6D53
330
1E
100
AcDbEntity
  8
躯体と製品
  6
Continuous
 62
     7
100
AcDbLine
 10
1977.237907566706
 20
1004.879961496639
 30
0.0
 11
1977.237896960706
 21
990.8799554360388
 31
0.0
  0
ARC
  5
6D54
330
1E
100
AcDbEntity
  8
躯体と製品
  6
Continuous
 62
     7
100
AcDbCircle
 10
1976.737907187906
 20
1004.879961875439
 30
0.0
 40
0.5
100
AcDbArc
 50
359.9999565940988
 51
90.0
  0
LINE
  5
6D55
330
1E
100
AcDbEntity
  8
躯体と製品
  6
Continuous
 62
     7
100
AcDbLine
 10
1958.637877358706
 20
1006.879961875439
 30
0.0
 11
1958.637877358706
 21
1006.579961875439
 31
0.0
  0
LINE
  5
6D56
330
1E
100
AcDbEntity
  8
躯体と製品
  6
Continuous
 62
     7
100
AcDbLine
 10
1958.637877358706
 20
1006.579961875439
 30
0.0
 11
1960.971211358706
 21
1004.579963875438
 31
0.0
  0
LINE
  5
6D57
330
1E
100
AcDbEntity
  8
躯体と製品
  6
Continuous
 62
     7
100
AcDbLine
 10
1958.637877358706
 20
1006.579961875439
 30
0.0
 11
1965.837877358706
 21
1006.579961875439
 31
0.0
  0
LINE
  5
6D58
330
1E
100
AcDbEntity
  8
躯体と製品
  6
Continuous
 62
     7
100
AcDbLine
 10
1965.837877358706
 20
1006.879961875439
 30
0.0
 11
1965.837877358706
 21
1006.579961875439
 31
0.0
  0
LINE
  5
6D59
330
1E
100
AcDbEntity
  8
躯体と製品
  6
Continuous
 62
     7
100
AcDbLine
 10
1965.837877358706
 20
1006.579961875439
 30
0.0
 11
1963.504543358706
 21
1004.579963875438
 31
0.0
  0
LINE
  5
6D5A
330
1E
100
AcDbEntity
  8
躯体と製品
  6
CENTER2_22
 62
     7
100
AcDbLine
 10
1962.237877358706
 20
986.8799618754389
 30
0.0
 11
1962.237877358706
 21
1009.229862078739
 31
0.0
  0
ARC
  5
6D5B
330
1E
100
AcDbEntity
  8
躯体と製品
  6
Continuous
 62
     7
100
AcDbCircle
 10
1965.237877358706
 20
988.8799618754388
 30
0.0
 40
0.5
100
AcDbArc
 50
270.0
 51
0.0
  0
ARC
  5
6D5C
330
1E
100
AcDbEntity
  8
躯体と製品
  6
Continuous
 62
     7
100
AcDbCircle
 10
1966.737877358706
 20
1004.879961875439
 30
0.0
 40
0.5
100
AcDbArc
 50
0.0
 51
90.0
  0
LINE
  5
6D5D
330
1E
100
AcDbEntity
  8
躯体と製品
  6
Continuous
 62
     7
100
AcDbLine
 10
1967.237877358706
 20
986.8799618754389
 30
0.0
 11
1967.237877358706
 21
998.8799618754388
 31
0.0
  0
LINE
  5
6D5E
330
1E
100
AcDbEntity
  8
躯体と製品
  6
Continuous
 62
     7
100
AcDbLine
 10
1967.237877358706
 20
1000.879961277039
 30
0.0
 11
1967.237877358706
 21
1004.879961875439
 31
0.0
  0
ARC
  5
6D5F
330
1E
100
AcDbEntity
  8
躯体と製品
  6
Continuous
 62
     7
100
AcDbCircle
 10
1965.237877358706
 20
988.8799618754388
 30
0.0
 40
0.5
100
AcDbArc
 50
270.0
 51
0.0
  0
ARC
  5
6D60
330
1E
100
AcDbEntity
  8
躯体と製品
  6
Continuous
 62
     7
100
AcDbCircle
 10
1959.237877358706
 20
1003.879961875439
 30
0.0
 40
2.0
100
AcDbArc
 50
180.0
 51
270.0
  0
ARC
  5
6D61
330
1E
100
AcDbEntity
  8
躯体と製品
  6
Continuous
 62
     7
100
AcDbCircle
 10
1966.237877358706
 20
1004.879961875439
 30
0.0
 40
0.5
100
AcDbArc
 50
90.0
 51
180.0
  0
ARC
  5
6D62
330
1E
100
AcDbEntity
  8
躯体と製品
  6
Continuous
 62
     7
100
AcDbCircle
 10
1958.237877358706
 20
1004.879961875439
 30
0.0
 40
0.5
100
AcDbArc
 50
0.0
 51
90.0
  0
LINE
  5
6D63
330
1E
100
AcDbEntity
  8
躯体と製品
  6
Continuous
 62
     7
100
AcDbLine
 10
1957.237877358706
 20
1004.879961875439
 30
0.0
 11
1957.237877358706
 21
1003.879961875439
 31
0.0
  0
ARC
  5
6D64
330
1E
100
AcDbEntity
  8
躯体と製品
  6
Continuous
 62
     7
100
AcDbCircle
 10
1957.737877358706
 20
1004.879961875439
 30
0.0
 40
0.5
100
AcDbArc
 50
90.0
 51
180.0
  0
LINE
  5
6D65
330
1E
100
AcDbEntity
  8
躯体と製品
  6
Continuous
 62
     7
100
AcDbLine
 10
1965.737877358706
 20
1000.879961875439
 30
0.0
 11
1965.737877358706
 21
988.8799618754388
 31
0.0
  0
LINE
  5
6D66
330
1E
100
AcDbEntity
  8
躯体と製品
  6
Continuous
 62
     7
100
AcDbLine
 10
1964.737877358706
 20
1001.879961875439
 30
0.0
 11
1959.237877358706
 21
1001.879961875439
 31
0.0
  0
ARC
  5
6D67
330
1E
100
AcDbEntity
  8
躯体と製品
  6
Continuous
 62
     7
100
AcDbCircle
 10
1964.737877358706
 20
1000.879961875439
 30
0.0
 40
0.9999999999998999
100
AcDbArc
 50
0.0
 51
90.0
  0
LINE
  5
6D68
330
1E
100
AcDbEntity
  8
躯体と製品
  6
Continuous
 62
     7
100
AcDbLine
 10
1965.737877358706
 20
1003.879961875439
 30
0.0
 11
1962.537877358706
 21
1003.879961875439
 31
0.0
  0
LINE
  5
6D69
330
1E
100
AcDbEntity
  8
躯体と製品
  6
Continuous
 62
     7
100
AcDbLine
 10
1961.937877358706
 20
1003.879961875439
 30
0.0
 11
1958.737877358706
 21
1003.879961875439
 31
0.0
  0
LINE
  5
6D6A
330
1E
100
AcDbEntity
  8
躯体と製品
  6
Continuous
 62
     7
100
AcDbLine
 10
1965.737877358706
 20
1003.879961875439
 30
0.0
 11
1965.737877358706
 21
1004.879961875439
 31
0.0
  0
LINE
  5
6D6B
330
1E
100
AcDbEntity
  8
躯体と製品
  6
Continuous
 62
     7
100
AcDbLine
 10
1958.737877358706
 20
1004.879961875439
 30
0.0
 11
1958.737877358706
 21
1003.879961875439
 31
0.0
  0
LINE
  5
6D6C
330
1E
100
AcDbEntity
  8
躯体と製品
  6
Continuous
 62
     7
100
AcDbLine
 10
1965.237877358706
 20
988.3799618754389
 30
0.0
 11
1937.237877358706
 21
988.3799618754389
 31
0.0
  0
LINE
  5
6D6D
330
1E
100
AcDbEntity
  8
躯体と製品
  6
Continuous
 62
     7
100
AcDbLine
 10
1935.237877358706
 20
990.8799628754389
 30
0.0
 11
1934.237878358706
 21
990.8799628754389
 31
0.0
  0
ARC
  5
6D6E
330
1E
100
AcDbEntity
  8
躯体と製品
  6
Continuous
 62
     7
100
AcDbCircle
 10
1936.437877358706
 20
993.579962875439
 30
0.0
 40
0.2999999999999999
100
AcDbArc
 50
0.0
 51
90.0
  0
LINE
  5
6D6F
330
1E
100
AcDbEntity
  8
躯体と製品
  6
Continuous
 62
     7
100
AcDbLine
 10
1935.123915386306
 20
993.5380766161388
 30
0.0
 11
1934.237878358706
 21
990.8799628754389
 31
0.0
  0
LINE
  5
6D70
330
1E
100
AcDbEntity
  8
躯体と製品
  6
Continuous
 62
     7
100
AcDbLine
 10
1935.598257082706
 20
993.8799628754388
 30
0.0
 11
1936.437877358706
 21
993.8799628754388
 31
0.0
  0
ARC
  5
6D71
330
1E
100
AcDbEntity
  8
躯体と製品
  6
Continuous
 62
     7
100
AcDbCircle
 10
1935.598257082706
 20
993.3799628754389
 30
0.0
 40
0.5
100
AcDbArc
 50
90.0
 51
161.5650683658004
  0
LINE
  5
6D72
330
1E
100
AcDbEntity
  8
躯体と製品
  6
Continuous
 62
     7
100
AcDbLine
 10
1935.237877358706
 20
990.8799628754389
 30
0.0
 11
1935.237877358706
 21
988.8799618754388
 31
0.0
  0
ARC
  5
6D73
330
1E
100
AcDbEntity
  8
躯体と製品
  6
Continuous
 62
     7
100
AcDbCircle
 10
1934.737877358706
 20
988.8799618754388
 30
0.0
 40
0.5
100
AcDbArc
 50
270.0
 51
0.0
  0
LINE
  5
6D74
330
1E
100
AcDbEntity
  8
躯体と製品
  6
Continuous
 62
     7
100
AcDbLine
 10
1936.737877358706
 20
993.579962875439
 30
0.0
 11
1936.737877358706
 21
988.8799618754388
 31
0.0
  0
ARC
  5
6D75
330
1E
100
AcDbEntity
  8
躯体と製品
  6
Continuous
 62
     7
100
AcDbCircle
 10
1937.237877358706
 20
988.8799618754388
 30
0.0
 40
0.5
100
AcDbArc
 50
180.0
 51
270.0
  0
LINE
  5
6D76
330
1E
100
AcDbEntity
  8
躯体と製品
  6
Continuous
 62
     7
100
AcDbLine
 10
1934.737877358706
 20
988.3799618754389
 30
0.0
 11
1876.737876358706
 21
988.3799618754389
 31
0.0
  0
ARC
  5
6D77
330
1E
100
AcDbEntity
  8
躯体と製品
  6
Continuous
 62
     7
100
AcDbCircle
 10
1876.737876358706
 20
988.8799618754388
 30
0.0
 40
0.5
100
AcDbArc
 50
180.0
 51
270.0
  0
ARC
  5
6D78
330
1E
100
AcDbEntity
  8
躯体と製品
  6
Continuous
 62
     7
100
AcDbCircle
 10
1875.237876358706
 20
987.3799618754388
 30
0.0
 40
0.5
100
AcDbArc
 50
180.0
 51
270.0
  0
ARC
  5
6D79
330
1E
100
AcDbEntity
  8
躯体と製品
  6
Continuous
 62
     7
100
AcDbCircle
 10
1875.487876358706
 20
996.1299618754388
 30
0.0
 40
0.7499999999998999
100
AcDbArc
 50
0.0
 51
180.0
  0
LINE
  5
6D7A
330
1E
100
AcDbEntity
  8
躯体と製品
  6
Continuous
 62
     7
100
AcDbLine
 10
1874.737876358706
 20
996.1299618754388
 30
0.0
 11
1874.737876358706
 21
987.3799618754388
 31
0.0
  0
LINE
  5
6D7B
330
1E
100
AcDbEntity
  8
躯体と製品
  6
Continuous
 62
     7
100
AcDbLine
 10
1876.237876358706
 20
996.1299618754388
 30
0.0
 11
1876.237876358706
 21
988.8799618754388
 31
0.0
  0
LINE
  5
6D7D
330
1E
100
AcDbEntity
  8
躯体と製品
  6
Continuous
 62
     7
100
AcDbLine
 10
1938.237862358706
 20
989.8799618754388
 30
0.0
 11
1956.237862358706
 21
989.8799618754388
 31
0.0
  0
LINE
  5
6D7E
330
1E
100
AcDbEntity
  8
躯体と製品
  6
Continuous
 62
     7
100
AcDbLine
 10
1956.237862358706
 20
989.8799618754388
 30
0.0
 11
1956.237862358706
 21
988.3799618754389
 31
0.0
  0
LINE
  5
6D7F
330
1E
100
AcDbEntity
  8
躯体と製品
  6
Continuous
 62
     7
100
AcDbLine
 10
1938.237862358706
 20
989.8799618754388
 30
0.0
 11
1938.237862358706
 21
988.3799618754389
 31
0.0
  0
LINE
  5
6D80
330
1E
100
AcDbEntity
  8
躯体と製品
  6
Continuous
 62
     7
100
AcDbLine
 10
1947.237862358706
 20
988.0799768754389
 30
0.0
 11
1946.937862358706
 21
988.3799768754389
 31
0.0
  0
LINE
  5
6D81
330
1E
100
AcDbEntity
  8
躯体と製品
  6
Continuous
 62
     7
100
AcDbLine
 10
1947.237862358706
 20
988.0799768754389
 30
0.0
 11
1947.537847358706
 21
988.3799618754389
 31
0.0
  0
ARC
  5
6D82
330
1E
100
AcDbEntity
  8
躯体と製品
  6
Continuous
 62
     7
100
AcDbCircle
 10
1948.638361358706
 20
989.9289613679389
 30
0.0
 40
2.399999999999999
100
AcDbArc
 50
358.8301420000044
 51
54.29994099999883
  0
ARC
  5
6D83
330
1E
100
AcDbEntity
  8
躯体と製品
  6
Continuous
 62
     7
100
AcDbCircle
 10
1947.237862358706
 20
987.9799633679386
 30
0.0
 40
4.799999999999999
100
AcDbArc
 50
90.0
 51
125.7000390000026
  0
ARC
  5
6D84
330
1E
100
AcDbEntity
  8
躯体と製品
  6
Continuous
 62
     7
100
AcDbCircle
 10
1945.837363358706
 20
989.9289613679389
 30
0.0
 40
2.399999999999999
100
AcDbArc
 50
125.7000590000011
 51
181.1698579999989
  0
ARC
  5
6D85
330
1E
100
AcDbEntity
  8
躯体と製品
  6
Continuous
 62
     7
100
AcDbCircle
 10
1947.237862358706
 20
987.9799633679386
 30
0.0
 40
4.799999999999999
100
AcDbArc
 50
54.29996099999738
 51
90.0
  0
LINE
  5
6D86
330
1E
100
AcDbEntity
  8
躯体と製品
  6
CENTER2_22
 62
     7
100
AcDbLine
 10
1947.237877358706
 20
958.2174185313387
 30
0.0
 11
1947.237877358706
 21
994.7399798754387
 31
0.0
  0
LINE
  5
6D87
330
1E
100
AcDbEntity
  8
躯体と製品
  6
Continuous
 62
     7
100
AcDbLine
 10
1947.537877358706
 20
988.3799618754389
 30
0.0
 11
1947.237877358706
 21
988.0799618754387
 31
0.0
  0
LINE
  5
6D88
330
1E
100
AcDbEntity
  8
躯体と製品
  6
Continuous
 62
     7
100
AcDbLine
 10
1947.237877358706
 20
988.0799618754387
 30
0.0
 11
1946.937877358706
 21
988.3799618754389
 31
0.0
  0
LINE
  5
6D89
330
1E
100
AcDbEntity
  8
躯体と製品
  6
Continuous
 62
     7
100
AcDbLine
 10
1940.237877358706
 20
986.8799618754389
 30
0.0
 11
1940.237877358706
 21
988.3799618754389
 31
0.0
  0
LINE
  5
6D8A
330
1E
100
AcDbEntity
  8
躯体と製品
  6
Continuous
 62
     7
100
AcDbLine
 10
1954.237877358706
 20
986.8799618754389
 30
0.0
 11
1954.237877358706
 21
988.3799618754389
 31
0.0
  0
LINE
  5
6D8B
330
1E
100
AcDbEntity
  8
躯体と製品
  6
Continuous
 62
     7
100
AcDbLine
 10
1950.705289358706
 20
972.0296798754388
 30
0.0
 11
1951.976812358706
 21
975.5231648754389
 31
0.0
  0
LINE
  5
6D8C
330
1E
100
AcDbEntity
  8
躯体と製品
  6
Continuous
 62
     7
100
AcDbLine
 10
1950.980053358706
 20
966.7868738754387
 30
0.0
 11
1949.521360358706
 21
965.9593988754389
 31
0.0
  0
LINE
  5
6D8D
330
1E
100
AcDbEntity
  8
躯体と製品
  6
Continuous
 62
     7
100
AcDbLine
 10
1949.521360358706
 20
965.9593988754389
 30
0.0
 11
1949.599864358706
 21
964.4614538754387
 31
0.0
  0
LINE
  5
6D8E
330
1E
100
AcDbEntity
  8
躯体と製品
  6
Continuous
 62
     7
100
AcDbLine
 10
1949.599864358706
 20
964.4614538754387
 30
0.0
 11
1951.097809358706
 21
964.5399578754389
 31
0.0
  0
LINE
  5
6D8F
330
1E
100
AcDbEntity
  8
躯体と製品
  6
Continuous
 62
     7
100
AcDbLine
 10
1950.901549358706
 20
968.2848188754389
 30
0.0
 11
1950.980053358706
 21
966.7868738754387
 31
0.0
  0
LINE
  5
6D90
330
1E
100
AcDbEntity
  8
躯体と製品
  6
Continuous
 62
     7
100
AcDbLine
 10
1950.783793358706
 20
970.5317348754388
 30
0.0
 11
1949.325100358706
 21
969.7042568754389
 31
0.0
  0
LINE
  5
6D91
330
1E
100
AcDbEntity
  8
躯体と製品
  6
Continuous
 62
     7
100
AcDbLine
 10
1949.325100358706
 20
969.7042568754389
 30
0.0
 11
1949.403604358706
 21
968.2063148754387
 31
0.0
  0
LINE
  5
6D92
330
1E
100
AcDbEntity
  8
躯体と製品
  6
Continuous
 62
     7
100
AcDbLine
 10
1949.403604358706
 20
968.2063148754387
 30
0.0
 11
1950.901549358706
 21
968.2848188754389
 31
0.0
  0
LINE
  5
6D93
330
1E
100
AcDbEntity
  8
躯体と製品
  6
Continuous
 62
     7
100
AcDbLine
 10
1950.705289358706
 20
972.0296798754388
 30
0.0
 11
1950.783793358706
 21
970.5317348754388
 31
0.0
  0
LINE
  5
6D94
330
1E
100
AcDbEntity
  8
躯体と製品
  6
Continuous
 62
     7
100
AcDbLine
 10
1950.587533358706
 20
974.2765958754389
 30
0.0
 11
1949.128840358706
 21
973.4491178754387
 31
0.0
  0
LINE
  5
6D95
330
1E
100
AcDbEntity
  8
躯体と製品
  6
Continuous
 62
     7
100
AcDbLine
 10
1949.128840358706
 20
973.4491178754387
 30
0.0
 11
1949.207344358706
 21
971.9511758754389
 31
0.0
  0
LINE
  5
6D96
330
1E
100
AcDbEntity
  8
躯体と製品
  6
Continuous
 62
     7
100
AcDbLine
 10
1949.207344358706
 20
971.9511758754389
 30
0.0
 11
1950.705289358706
 21
972.0296798754388
 31
0.0
  0
LINE
  5
6D97
330
1E
100
AcDbEntity
  8
躯体と製品
  6
Continuous
 62
     7
100
AcDbLine
 10
1950.509029358706
 20
975.7745408754388
 30
0.0
 11
1950.587533358706
 21
974.2765958754389
 31
0.0
  0
LINE
  5
6D98
330
1E
100
AcDbEntity
  8
躯体と製品
  6
Continuous
 62
     7
100
AcDbLine
 10
1948.932580358706
 20
977.1939788754387
 30
0.0
 11
1949.011084358706
 21
975.6960368754389
 31
0.0
  0
LINE
  5
6D99
330
1E
100
AcDbEntity
  8
躯体と製品
  6
Continuous
 62
     7
100
AcDbLine
 10
1949.011084358706
 20
975.6960368754389
 30
0.0
 11
1950.509029358706
 21
975.7745408754388
 31
0.0
  0
LINE
  5
6D9A
330
1E
100
AcDbEntity
  8
躯体と製品
  6
Continuous
 62
     7
100
AcDbLine
 10
1950.987862358706
 20
986.8799618754389
 30
0.0
 11
1950.237862358706
 21
983.1299618754389
 31
0.0
  0
LINE
  5
6D9B
330
1E
100
AcDbEntity
  8
躯体と製品
  6
Continuous
 62
     7
100
AcDbLine
 10
1950.237862358706
 20
977.8799618754389
 30
0.0
 11
1948.932580358706
 21
977.1939788754387
 31
0.0
  0
LINE
  5
6D9C
330
1E
100
AcDbEntity
  8
躯体と製品
  6
Continuous
 62
     7
100
AcDbLine
 10
1947.612862358706
 20
980.8799618754388
 30
0.0
 11
1947.237862358706
 21
980.8799618754388
 31
0.0
  0
LINE
  5
6D9D
330
1E
100
AcDbEntity
  8
躯体と製品
  6
Continuous
 62
     7
100
AcDbLine
 10
1943.495671358706
 20
966.7868738754387
 30
0.0
 11
1944.954364358706
 21
965.9593988754389
 31
0.0
  0
LINE
  5
6D9E
330
1E
100
AcDbEntity
  8
躯体と製品
  6
Continuous
 62
     7
100
AcDbLine
 10
1944.954364358706
 20
965.9593988754389
 30
0.0
 11
1944.875860358706
 21
964.4614538754387
 31
0.0
  0
LINE
  5
6D9F
330
1E
100
AcDbEntity
  8
躯体と製品
  6
Continuous
 62
     7
100
AcDbLine
 10
1944.875860358706
 20
964.4614538754387
 30
0.0
 11
1943.377915358706
 21
964.5399578754389
 31
0.0
  0
LINE
  5
6DA0
330
1E
100
AcDbEntity
  8
躯体と製品
  6
Continuous
 62
     7
100
AcDbLine
 10
1943.574175358706
 20
968.2848188754389
 30
0.0
 11
1943.495671358706
 21
966.7868738754387
 31
0.0
  0
LINE
  5
6DA1
330
1E
100
AcDbEntity
  8
躯体と製品
  6
Continuous
 62
     7
100
AcDbLine
 10
1943.691931358706
 20
970.5317348754388
 30
0.0
 11
1945.150624358706
 21
969.7042568754389
 31
0.0
  0
LINE
  5
6DA2
330
1E
100
AcDbEntity
  8
躯体と製品
  6
Continuous
 62
     7
100
AcDbLine
 10
1945.150624358706
 20
969.7042568754389
 30
0.0
 11
1945.072120358705
 21
968.2063148754387
 31
0.0
  0
LINE
  5
6DA3
330
1E
100
AcDbEntity
  8
躯体と製品
  6
Continuous
 62
     7
100
AcDbLine
 10
1945.072120358705
 20
968.2063148754387
 30
0.0
 11
1943.574175358706
 21
968.2848188754389
 31
0.0
  0
LINE
  5
6DA4
330
1E
100
AcDbEntity
  8
躯体と製品
  6
Continuous
 62
     7
100
AcDbLine
 10
1943.770435358706
 20
972.0296798754388
 30
0.0
 11
1943.691931358706
 21
970.5317348754388
 31
0.0
  0
LINE
  5
6DA5
330
1E
100
AcDbEntity
  8
躯体と製品
  6
Continuous
 62
     7
100
AcDbLine
 10
1943.888191358706
 20
974.2765958754389
 30
0.0
 11
1945.346884358706
 21
973.4491178754387
 31
0.0
  0
LINE
  5
6DA6
330
1E
100
AcDbEntity
  8
躯体と製品
  6
Continuous
 62
     7
100
AcDbLine
 10
1945.346884358706
 20
973.4491178754387
 30
0.0
 11
1945.268380358706
 21
971.9511758754389
 31
0.0
  0
LINE
  5
6DA7
330
1E
100
AcDbEntity
  8
躯体と製品
  6
Continuous
 62
     7
100
AcDbLine
 10
1945.268380358706
 20
971.9511758754389
 30
0.0
 11
1943.770435358706
 21
972.0296798754388
 31
0.0
  0
LINE
  5
6DA8
330
1E
100
AcDbEntity
  8
躯体と製品
  6
Continuous
 62
     7
100
AcDbLine
 10
1943.966695358706
 20
975.7745408754388
 30
0.0
 11
1943.888191358706
 21
974.2765958754389
 31
0.0
  0
LINE
  5
6DA9
330
1E
100
AcDbEntity
  8
躯体と製品
  6
Continuous
 62
     7
100
AcDbLine
 10
1945.543144358706
 20
977.1939788754387
 30
0.0
 11
1945.464640358706
 21
975.6960368754389
 31
0.0
  0
LINE
  5
6DAA
330
1E
100
AcDbEntity
  8
躯体と製品
  6
Continuous
 62
     7
100
AcDbLine
 10
1945.464640358706
 20
975.6960368754389
 30
0.0
 11
1943.966695358706
 21
975.7745408754388
 31
0.0
  0
LINE
  5
6DAB
330
1E
100
AcDbEntity
  8
躯体と製品
  6
Continuous
 62
     7
100
AcDbLine
 10
1947.237862358706
 20
983.1299618754389
 30
0.0
 11
1947.237862358706
 21
986.8799618754389
 31
0.0
  0
LINE
  5
6DAC
330
1E
100
AcDbEntity
  8
躯体と製品
  6
Continuous
 62
     7
100
AcDbLine
 10
1947.987862358706
 20
986.8799618754389
 30
0.0
 11
1947.237862358706
 21
983.1299618754389
 31
0.0
  0
LINE
  5
6DAD
330
1E
100
AcDbEntity
  8
躯体と製品
  6
Continuous
 62
     7
100
AcDbLine
 10
1946.487862358706
 20
986.8799618754389
 30
0.0
 11
1947.237862358706
 21
983.1299618754389
 31
0.0
  0
LINE
  5
6DAE
330
1E
100
AcDbEntity
  8
躯体と製品
  6
Continuous
 62
     7
100
AcDbLine
 10
1943.487862358706
 20
986.8799618754389
 30
0.0
 11
1944.237862358706
 21
983.1299618754389
 31
0.0
  0
LINE
  5
6DAF
330
1E
100
AcDbEntity
  8
躯体と製品
  6
Continuous
 62
     7
100
AcDbLine
 10
1944.237862358706
 20
977.8799618754389
 30
0.0
 11
1945.543144358706
 21
977.1939788754387
 31
0.0
  0
LINE
  5
6DB0
330
1E
100
AcDbEntity
  8
躯体と製品
  6
Continuous
 62
     7
100
AcDbLine
 10
1946.862862358706
 20
980.8799618754388
 30
0.0
 11
1947.237862358706
 21
980.8799618754388
 31
0.0
  0
LINE
  5
6DB1
330
1E
100
AcDbEntity
  8
躯体と製品
  6
Continuous
 62
     7
100
AcDbLine
 10
1942.498912358706
 20
975.5231648754389
 30
0.0
 11
1941.754645358706
 21
980.625879875439
 31
0.0
  0
ARC
  5
6DB2
330
1E
100
AcDbEntity
  8
躯体と製品
  6
Continuous
 62
     7
100
AcDbCircle
 10
1942.051504358706
 20
980.6691788754388
 30
0.0
 40
0.2999999999999999
100
AcDbArc
 50
98.13010200002405
 51
188.2984659999999
  0
LINE
  5
6DB3
330
1E
100
AcDbEntity
  8
躯体と製品
  6
Continuous
 62
     7
100
AcDbLine
 10
1942.009078358706
 20
980.966163875439
 30
0.0
 11
1942.156696358706
 21
980.9872508754386
 31
0.0
  0
ARC
  5
6DB4
330
1E
100
AcDbEntity
  8
躯体と製品
  6
Continuous
 62
     7
100
AcDbCircle
 10
1942.199122358706
 20
980.6902688754389
 30
0.0
 40
0.2999999999999999
100
AcDbArc
 50
8.130101999991806
 51
98.13010200002405
  0
LINE
  5
6DB5
330
1E
100
AcDbEntity
  8
躯体と製品
  6
Continuous
 62
     7
100
AcDbLine
 10
1942.496107358706
 20
980.732694875439
 30
0.0
 11
1943.203681358706
 21
975.7796798754389
 31
0.0
  0
LINE
  5
6DB6
330
1E
100
AcDbEntity
  8
躯体と製品
  6
Continuous
 62
     7
100
AcDbLine
 10
1951.976812358706
 20
975.5231648754389
 30
0.0
 11
1952.721079358706
 21
980.625879875439
 31
0.0
  0
ARC
  5
6DB7
330
1E
100
AcDbEntity
  8
躯体と製品
  6
Continuous
 62
     7
100
AcDbCircle
 10
1952.424220358706
 20
980.6691788754388
 30
0.0
 40
0.2999999999999999
100
AcDbArc
 50
351.7015340000292
 51
81.8698980000151
  0
LINE
  5
6DB8
330
1E
100
AcDbEntity
  8
躯体と製品
  6
Continuous
 62
     7
100
AcDbLine
 10
1952.466646358706
 20
980.966163875439
 30
0.0
 11
1952.319028358706
 21
980.9872508754386
 31
0.0
  0
ARC
  5
6DB9
330
1E
100
AcDbEntity
  8
躯体と製品
  6
Continuous
 62
     7
100
AcDbCircle
 10
1952.276602358706
 20
980.6902688754389
 30
0.0
 40
0.2999999999999999
100
AcDbArc
 50
81.8698980000151
 51
171.8698979999985
  0
LINE
  5
6DBA
330
1E
100
AcDbEntity
  8
躯体と製品
  6
Continuous
 62
     7
100
AcDbLine
 10
1951.979617358706
 20
980.732694875439
 30
0.0
 11
1951.272043358706
 21
975.7796798754389
 31
0.0
  0
LINE
  5
6DBB
330
1E
100
AcDbEntity
  8
躯体と製品
  6
Continuous
 62
     7
100
AcDbLine
 10
1943.770435358706
 20
972.0296798754388
 30
0.0
 11
1942.498912358706
 21
975.5231648754389
 31
0.0
  0
LINE
  5
6DBC
330
1E
100
AcDbEntity
  8
躯体と製品
  6
Continuous
 62
     7
100
AcDbLine
 10
1951.294069358706
 20
960.7950968754389
 30
0.0
 11
1951.372573358706
 21
959.2971518754389
 31
0.0
  0
LINE
  5
6DBD
330
1E
100
AcDbEntity
  8
躯体と製品
  6
Continuous
 62
     7
100
AcDbLine
 10
1951.176313358706
 20
963.0420128754387
 30
0.0
 11
1949.717620358706
 21
962.2145378754389
 31
0.0
  0
LINE
  5
6DBE
330
1E
100
AcDbEntity
  8
躯体と製品
  6
Continuous
 62
     7
100
AcDbLine
 10
1949.717620358706
 20
962.2145378754389
 30
0.0
 11
1949.796124358706
 21
960.7165928754387
 31
0.0
  0
LINE
  5
6DBF
330
1E
100
AcDbEntity
  8
躯体と製品
  6
Continuous
 62
     7
100
AcDbLine
 10
1949.796124358706
 20
960.7165928754387
 30
0.0
 11
1951.294069358706
 21
960.7950968754389
 31
0.0
  0
LINE
  5
6DC0
330
1E
100
AcDbEntity
  8
躯体と製品
  6
Continuous
 62
     7
100
AcDbLine
 10
1943.181658358706
 20
960.7950968754389
 30
0.0
 11
1943.103154358706
 21
959.2971518754389
 31
0.0
  0
LINE
  5
6DC1
330
1E
100
AcDbEntity
  8
躯体と製品
  6
Continuous
 62
     7
100
AcDbLine
 10
1943.299411358706
 20
963.0420128754387
 30
0.0
 11
1944.758104358706
 21
962.2145378754389
 31
0.0
  0
LINE
  5
6DC2
330
1E
100
AcDbEntity
  8
躯体と製品
  6
Continuous
 62
     7
100
AcDbLine
 10
1944.758104358706
 20
962.2145378754389
 30
0.0
 11
1944.679600358706
 21
960.7165928754387
 31
0.0
  0
LINE
  5
6DC3
330
1E
100
AcDbEntity
  8
躯体と製品
  6
Continuous
 62
     7
100
AcDbLine
 10
1944.679600358706
 20
960.7165928754387
 30
0.0
 11
1943.181658358706
 21
960.7950968754389
 31
0.0
  0
LINE
  5
6DC4
330
1E
100
AcDbEntity
  8
躯体と製品
  6
Continuous
 62
     7
100
AcDbLine
 10
1945.835779358706
 20
961.2820448754389
 30
0.0
 11
1947.237862358706
 21
959.8799618754389
 31
0.0
  0
LINE
  5
6DC5
330
1E
100
AcDbEntity
  8
躯体と製品
  6
Continuous
 62
     7
100
AcDbLine
 10
1951.097809358706
 20
964.5399578754389
 30
0.0
 11
1951.176313358706
 21
963.0420128754387
 31
0.0
  0
LINE
  5
6DC6
330
1E
100
AcDbEntity
  8
躯体と製品
  6
Continuous
 62
     7
100
AcDbLine
 10
1948.751170358706
 20
959.1597698754389
 30
0.0
 11
1951.372573358706
 21
959.2971518754389
 31
0.0
  0
LINE
  5
6DC7
330
1E
100
AcDbEntity
  8
躯体と製品
  6
Continuous
 62
     7
100
AcDbLine
 10
1951.372573358706
 20
959.2971518754389
 30
0.0
 11
1949.953132358706
 21
957.7207028754388
 31
0.0
  0
LINE
  5
6DC8
330
1E
100
AcDbEntity
  8
躯体と製品
  6
Continuous
 62
     7
100
AcDbLine
 10
1949.953132358706
 20
957.7207028754388
 30
0.0
 11
1948.829674358706
 21
957.6618248754387
 31
0.0
  0
LINE
  5
6DC9
330
1E
100
AcDbEntity
  8
躯体と製品
  6
Continuous
 62
     7
100
AcDbLine
 10
1948.829674358706
 20
957.6618248754387
 30
0.0
 11
1947.612862358706
 21
980.8799618754388
 31
0.0
  0
LINE
  5
6DCA
330
1E
100
AcDbEntity
  8
躯体と製品
  6
Continuous
 62
     7
100
AcDbLine
 10
1943.377915358706
 20
964.5399578754389
 30
0.0
 11
1943.299411358706
 21
963.0420128754387
 31
0.0
  0
LINE
  5
6DCB
330
1E
100
AcDbEntity
  8
躯体と製品
  6
Continuous
 62
     7
100
AcDbLine
 10
1945.724554358706
 20
959.1597698754389
 30
0.0
 11
1943.103154358706
 21
959.2971518754389
 31
0.0
  0
LINE
  5
6DCC
330
1E
100
AcDbEntity
  8
躯体と製品
  6
Continuous
 62
     7
100
AcDbLine
 10
1943.103154358706
 20
959.2971518754389
 30
0.0
 11
1944.522592358706
 21
957.7207028754388
 31
0.0
  0
LINE
  5
6DCD
330
1E
100
AcDbEntity
  8
躯体と製品
  6
Continuous
 62
     7
100
AcDbLine
 10
1944.522592358706
 20
957.7207028754388
 30
0.0
 11
1945.646050358706
 21
957.6618248754387
 31
0.0
  0
LINE
  5
6DCE
330
1E
100
AcDbEntity
  8
躯体と製品
  6
Continuous
 62
     7
100
AcDbLine
 10
1945.646050358706
 20
957.6618248754387
 30
0.0
 11
1946.862862358706
 21
980.8799618754388
 31
0.0
  0
LINE
  5
6DCF
330
1E
100
AcDbEntity
  8
躯体と製品
  6
Continuous
 62
     7
100
AcDbLine
 10
1947.237862358706
 20
959.8799618754389
 30
0.0
 11
1948.639946454506
 21
961.2820459712388
 31
0.0
  0
LINE
  5
6DD0
330
1E
100
AcDbEntity
  8
躯体と製品
  6
Continuous
 62
     7
100
AcDbLine
 10
1950.237862358706
 20
986.8799618754389
 30
0.0
 11
1950.237862358706
 21
977.8799618754389
 31
0.0
  0
LINE
  5
6DD1
330
1E
100
AcDbEntity
  8
躯体と製品
  6
Continuous
 62
     7
100
AcDbLine
 10
1944.237862358706
 20
986.8799618754389
 30
0.0
 11
1944.237862358706
 21
977.8799618754389
 31
0.0
  0
LINE
  5
6DD2
330
1E
100
AcDbEntity
  8
躯体と製品
  6
Continuous
 62
     7
100
AcDbLine
 10
1944.584090743606
 20
971.9870379878386
 30
0.0
 11
1943.203681358706
 21
975.7796798754389
 31
0.0
  0
LINE
  5
6DD3
330
1E
100
AcDbEntity
  8
躯体と製品
  6
Continuous
 62
     7
100
AcDbLine
 10
1949.891633973806
 20
971.9870379878386
 30
0.0
 11
1951.272043358706
 21
975.7796798754389
 31
0.0
  0
LINE
  5
6DD4
330
1E
100
AcDbEntity
  8
躯体と製品
  6
Continuous
 62
     7
100
AcDbLine
 10
1968.237877358706
 20
998.8799618754388
 30
0.0
 11
1967.237877358706
 21
1000.879961277039
 31
0.0
  0
LINE
  5
6DD5
330
1E
100
AcDbEntity
  8
躯体と製品
  6
Continuous
 62
     7
100
AcDbLine
 10
1967.237877358706
 20
998.8799618754388
 30
0.0
 11
1968.237877358706
 21
998.8799618754388
 31
0.0
  0
LINE
  5
6DD8
330
1E
100
AcDbEntity
  8
躯体と製品
  6
Continuous
 62
     7
100
AcDbLine
 10
1963.504543358706
 20
998.0021848754388
 30
0.0
 11
1963.504543358706
 21
999.0368848754389
 31
0.0
  0
LINE
  5
6DD9
330
1E
100
AcDbEntity
  8
躯体と製品
  6
Continuous
 62
     7
100
AcDbLine
 10
1960.971211358706
 20
996.2146648754389
 30
0.0
 11
1963.504543358706
 21
997.1554048754388
 31
0.0
  0
LINE
  5
6DDA
330
1E
100
AcDbEntity
  8
躯体と製品
  6
Continuous
 62
     7
100
AcDbLine
 10
1960.971211358706
 20
997.0614448754389
 30
0.0
 11
1963.504543358706
 21
998.0021848754388
 31
0.0
  0
LINE
  5
6DDB
330
1E
100
AcDbEntity
  8
躯体と製品
  6
Continuous
 62
     7
100
AcDbLine
 10
1960.237876358706
 20
996.6380548754388
 30
0.0
 11
1964.237878358706
 21
997.5787948754387
 31
0.0
  0
LINE
  5
6DDC
330
1E
100
AcDbEntity
  8
躯体と製品
  6
Continuous
 62
     7
100
AcDbLine
 10
1960.237876358706
 20
996.6380548754388
 30
0.0
 11
1960.971211358706
 21
996.2146648754389
 31
0.0
  0
LINE
  5
6DDD
330
1E
100
AcDbEntity
  8
躯体と製品
  6
Continuous
 62
     7
100
AcDbLine
 10
1960.237876358706
 20
996.6380548754388
 30
0.0
 11
1960.971211358706
 21
997.0614448754389
 31
0.0
  0
LINE
  5
6DDE
330
1E
100
AcDbEntity
  8
躯体と製品
  6
Continuous
 62
     7
100
AcDbLine
 10
1964.237878358706
 20
997.5787948754387
 30
0.0
 11
1963.504543358706
 21
997.1554048754388
 31
0.0
  0
LINE
  5
6DDF
330
1E
100
AcDbEntity
  8
躯体と製品
  6
Continuous
 62
     7
100
AcDbLine
 10
1963.504543358706
 20
998.0021848754388
 30
0.0
 11
1964.237878358706
 21
997.5787948754387
 31
0.0
  0
LINE
  5
6DE0
330
1E
100
AcDbEntity
  8
躯体と製品
  6
Continuous
 62
     7
100
AcDbLine
 10
1960.971211358706
 20
999.9776278754389
 30
0.0
 11
1960.971211358706
 21
998.9429248754388
 31
0.0
  0
LINE
  5
6DE1
330
1E
100
AcDbEntity
  8
躯体と製品
  6
Continuous
 62
     7
100
AcDbLine
 10
1963.504543358706
 20
999.8836678754388
 30
0.0
 11
1963.504543358706
 21
1000.918367875439
 31
0.0
  0
LINE
  5
6DE2
330
1E
100
AcDbEntity
  8
躯体と製品
  6
Continuous
 62
     7
100
AcDbLine
 10
1960.971211358706
 20
998.0961448754388
 30
0.0
 11
1963.504543358706
 21
999.0368848754389
 31
0.0
  0
LINE
  5
6DE3
330
1E
100
AcDbEntity
  8
躯体と製品
  6
Continuous
 62
     7
100
AcDbLine
 10
1960.971211358706
 20
998.9429248754388
 30
0.0
 11
1963.504543358706
 21
999.8836678754388
 31
0.0
  0
LINE
  5
6DE4
330
1E
100
AcDbEntity
  8
躯体と製品
  6
Continuous
 62
     7
100
AcDbLine
 10
1960.237876358706
 20
998.5195348754386
 30
0.0
 11
1964.237878358706
 21
999.4602748754388
 31
0.0
  0
LINE
  5
6DE5
330
1E
100
AcDbEntity
  8
躯体と製品
  6
Continuous
 62
     7
100
AcDbLine
 10
1960.237876358706
 20
998.5195348754386
 30
0.0
 11
1960.971211358706
 21
998.0961448754388
 31
0.0
  0
LINE
  5
6DE6
330
1E
100
AcDbEntity
  8
躯体と製品
  6
Continuous
 62
     7
100
AcDbLine
 10
1960.237876358706
 20
998.5195348754386
 30
0.0
 11
1960.971211358706
 21
998.9429248754388
 31
0.0
  0
LINE
  5
6DE7
330
1E
100
AcDbEntity
  8
躯体と製品
  6
Continuous
 62
     7
100
AcDbLine
 10
1964.237878358706
 20
999.4602748754388
 30
0.0
 11
1963.504543358706
 21
999.0368848754389
 31
0.0
  0
LINE
  5
6DE8
330
1E
100
AcDbEntity
  8
躯体と製品
  6
Continuous
 62
     7
100
AcDbLine
 10
1963.504543358706
 20
999.8836678754388
 30
0.0
 11
1964.237878358706
 21
999.4602748754388
 31
0.0
  0
LINE
  5
6DE9
330
1E
100
AcDbEntity
  8
躯体と製品
  6
Continuous
 62
     7
100
AcDbLine
 10
1960.971211358706
 20
1001.859107875439
 30
0.0
 11
1960.971211358706
 21
1000.824407875439
 31
0.0
  0
LINE
  5
6DEA
330
1E
100
AcDbEntity
  8
躯体と製品
  6
Continuous
 62
     7
100
AcDbLine
 10
1963.504543358706
 20
1001.765147875439
 30
0.0
 11
1963.504543358706
 21
1002.799847875438
 31
0.0
  0
LINE
  5
6DEB
330
1E
100
AcDbEntity
  8
躯体と製品
  6
Continuous
 62
     7
100
AcDbLine
 10
1960.971211358706
 20
999.9776278754389
 30
0.0
 11
1963.504543358706
 21
1000.918367875439
 31
0.0
  0
LINE
  5
6DEC
330
1E
100
AcDbEntity
  8
躯体と製品
  6
Continuous
 62
     7
100
AcDbLine
 10
1960.971211358706
 20
1000.824407875439
 30
0.0
 11
1963.504543358706
 21
1001.765147875439
 31
0.0
  0
LINE
  5
6DED
330
1E
100
AcDbEntity
  8
躯体と製品
  6
Continuous
 62
     7
100
AcDbLine
 10
1960.237876358706
 20
1000.401017875439
 30
0.0
 11
1964.237878358706
 21
1001.341757875439
 31
0.0
  0
LINE
  5
6DEE
330
1E
100
AcDbEntity
  8
躯体と製品
  6
Continuous
 62
     7
100
AcDbLine
 10
1960.237876358706
 20
1000.401017875439
 30
0.0
 11
1960.971211358706
 21
999.9776278754389
 31
0.0
  0
LINE
  5
6DEF
330
1E
100
AcDbEntity
  8
躯体と製品
  6
Continuous
 62
     7
100
AcDbLine
 10
1960.237876358706
 20
1000.401017875439
 30
0.0
 11
1960.971211358706
 21
1000.824407875439
 31
0.0
  0
LINE
  5
6DF0
330
1E
100
AcDbEntity
  8
躯体と製品
  6
Continuous
 62
     7
100
AcDbLine
 10
1964.237878358706
 20
1001.341757875439
 30
0.0
 11
1963.504543358706
 21
1000.918367875439
 31
0.0
  0
LINE
  5
6DF1
330
1E
100
AcDbEntity
  8
躯体と製品
  6
Continuous
 62
     7
100
AcDbLine
 10
1963.504543358706
 20
1001.765147875439
 30
0.0
 11
1964.237878358706
 21
1001.341757875439
 31
0.0
  0
LINE
  5
6DF2
330
1E
100
AcDbEntity
  8
躯体と製品
  6
Continuous
 62
     7
100
AcDbLine
 10
1960.971211358706
 20
1002.943901875439
 30
0.0
 11
1960.971211358706
 21
1002.705887875439
 31
0.0
  0
LINE
  5
6DF3
330
1E
100
AcDbEntity
  8
躯体と製品
  6
Continuous
 62
     7
100
AcDbLine
 10
1963.504543358706
 20
1004.579963875438
 30
0.0
 11
1963.504543358706
 21
1003.646630875439
 31
0.0
  0
LINE
  5
6DF4
330
1E
100
AcDbEntity
  8
躯体と製品
  6
Continuous
 62
     7
100
AcDbLine
 10
1960.971211358706
 20
1001.859107875439
 30
0.0
 11
1963.504543358706
 21
1002.799847875438
 31
0.0
  0
LINE
  5
6DF5
330
1E
100
AcDbEntity
  8
躯体と製品
  6
Continuous
 62
     7
100
AcDbLine
 10
1960.971211358706
 20
1002.705887875439
 30
0.0
 11
1963.504543358706
 21
1003.646630875439
 31
0.0
  0
LINE
  5
6DF6
330
1E
100
AcDbEntity
  8
躯体と製品
  6
Continuous
 62
     7
100
AcDbLine
 10
1960.237876358706
 20
1002.282497875439
 30
0.0
 11
1964.237878358706
 21
1003.223237875439
 31
0.0
  0
LINE
  5
6DF7
330
1E
100
AcDbEntity
  8
躯体と製品
  6
Continuous
 62
     7
100
AcDbLine
 10
1960.237876358706
 20
1002.282497875439
 30
0.0
 11
1960.971211358706
 21
1001.859107875439
 31
0.0
  0
LINE
  5
6DF8
330
1E
100
AcDbEntity
  8
躯体と製品
  6
Continuous
 62
     7
100
AcDbLine
 10
1960.237876358706
 20
1002.282497875439
 30
0.0
 11
1960.971211358706
 21
1002.705887875439
 31
0.0
  0
LINE
  5
6DF9
330
1E
100
AcDbEntity
  8
躯体と製品
  6
Continuous
 62
     7
100
AcDbLine
 10
1963.504543358706
 20
1002.799847875438
 30
0.0
 11
1964.237878358706
 21
1003.223237875439
 31
0.0
  0
LINE
  5
6DFA
330
1E
100
AcDbEntity
  8
躯体と製品
  6
Continuous
 62
     7
100
AcDbLine
 10
1963.504543358706
 20
1003.646630875439
 30
0.0
 11
1964.237878358706
 21
1003.223237875439
 31
0.0
  0
LINE
  5
6DFB
330
1E
100
AcDbEntity
  8
躯体と製品
  6
Continuous
 62
     7
100
AcDbLine
 10
1960.971211358706
 20
1004.579963875438
 30
0.0
 11
1960.971211358706
 21
1004.319245875439
 31
0.0
  0
LINE
  5
6DFC
330
1E
100
AcDbEntity
  8
躯体と製品
  6
Continuous
 62
     7
100
AcDbLine
 10
1962.237877358706
 20
1004.366225875439
 30
0.0
 11
1960.237876358706
 21
1003.895855875439
 31
0.0
  0
LINE
  5
6DFD
330
1E
100
AcDbEntity
  8
躯体と製品
  6
Continuous
 62
     7
100
AcDbLine
 10
1960.237876358706
 20
1003.895855875439
 30
0.0
 11
1960.971211358706
 21
1003.472465875439
 31
0.0
  0
LINE
  5
6DFE
330
1E
100
AcDbEntity
  8
躯体と製品
  6
Continuous
 62
     7
100
AcDbLine
 10
1960.237876358706
 20
1003.895855875439
 30
0.0
 11
1960.971211358706
 21
1004.319245875439
 31
0.0
  0
LINE
  5
6DFF
330
1E
100
AcDbEntity
  8
躯体と製品
  6
Continuous
 62
     7
100
AcDbLine
 10
1960.971211358706
 20
1003.472465875439
 30
0.0
 11
1960.971211358706
 21
1002.943901875439
 31
0.0
  0
LINE
  5
6E00
330
1E
100
AcDbEntity
  8
躯体と製品
  6
Continuous
 62
     7
100
AcDbLine
 10
1962.237877358706
 20
992.8799638754389
 30
0.0
 11
1962.237877358706
 21
990.8799628754389
 31
0.0
  0
LINE
  5
6E01
330
1E
100
AcDbEntity
  8
躯体と製品
  6
Continuous
 62
     7
100
AcDbLine
 10
1963.504543358706
 20
995.8799638754388
 30
0.0
 11
1960.971226358706
 21
995.8799638754388
 31
0.0
  0
LINE
  5
6E02
330
1E
100
AcDbEntity
  8
躯体と製品
  6
Continuous
 62
     7
100
AcDbLine
 10
1962.237877358706
 20
990.8799628754389
 30
0.0
 11
1960.971211358706
 21
991.8037228754387
 31
0.0
  0
LINE
  5
6E03
330
1E
100
AcDbEntity
  8
躯体と製品
  6
Continuous
 62
     7
100
AcDbLine
 10
1962.237877358706
 20
990.8799628754389
 30
0.0
 11
1963.504543358706
 21
991.8037228754387
 31
0.0
  0
ARC
  5
6E04
330
1E
100
AcDbEntity
  8
躯体と製品
  6
Continuous
 62
     7
100
AcDbCircle
 10
1962.612649358706
 20
991.1553658754389
 30
0.0
 40
1.764848999999999
100
AcDbArc
 50
102.260328999995
 51
158.4463040000012
  0
ARC
  5
6E05
330
1E
100
AcDbEntity
  8
躯体と製品
  6
Continuous
 62
     7
100
AcDbCircle
 10
1968.244162358706
 20
992.1113848754389
 30
0.0
 40
6.055259999999
100
AcDbArc
 50
141.5109779999976
 51
172.7079179999991
  0
LINE
  5
6E06
330
1E
100
AcDbEntity
  8
躯体と製品
  6
Continuous
 62
     7
100
AcDbLine
 10
1960.971211358706
 20
996.2146648754389
 30
0.0
 11
1960.971211358706
 21
995.8799638754388
 31
0.0
  0
LINE
  5
6E07
330
1E
100
AcDbEntity
  8
躯体と製品
  6
Continuous
 62
     7
100
AcDbLine
 10
1960.971211358706
 20
1004.579963875438
 30
0.0
 11
1963.504543358706
 21
1004.579963875438
 31
0.0
  0
LINE
  5
6E08
330
1E
100
AcDbEntity
  8
躯体と製品
  6
Continuous
 62
     7
100
AcDbLine
 10
1960.971211358706
 20
1004.319245875439
 30
0.0
 11
1962.237877358706
 21
1004.366225875439
 31
0.0
  0
LINE
  5
6E09
330
1E
100
AcDbEntity
  8
躯体と製品
  6
Continuous
 62
     7
100
AcDbLine
 10
1960.971211358706
 20
1003.472465875439
 30
0.0
 11
1962.237877358706
 21
1004.366225875439
 31
0.0
  0
LINE
  5
6E0A
330
1E
100
AcDbEntity
  8
躯体と製品
  6
Continuous
 62
     7
100
AcDbLine
 10
1960.971211358706
 20
995.8799638754388
 30
0.0
 11
1960.971211358706
 21
991.8037228754387
 31
0.0
  0
LINE
  5
6E0B
330
1E
100
AcDbEntity
  8
躯体と製品
  6
Continuous
 62
     7
100
AcDbLine
 10
1963.504543358706
 20
997.1554048754388
 30
0.0
 11
1963.504543358706
 21
991.8037228754387
 31
0.0
  0
LINE
  5
6E0C
330
1E
100
AcDbEntity
  8
躯体と製品
  6
Continuous
 62
     7
100
AcDbLine
 10
1960.971211358706
 20
998.0961448754388
 30
0.0
 11
1960.971211358706
 21
997.0614448754389
 31
0.0
  0
LINE
  5
6E0D
330
1E
100
AcDbEntity
  8
躯体と製品
  6
Continuous
 62
     7
100
AcDbLine
 10
1962.237877358706
 20
1003.579961875439
 30
0.0
 11
1961.937877358706
 21
1003.879961875439
 31
0.0
  0
LINE
  5
6E0E
330
1E
100
AcDbEntity
  8
躯体と製品
  6
Continuous
 62
     7
100
AcDbLine
 10
1962.237877358706
 20
1003.579961875439
 30
0.0
 11
1962.537877358706
 21
1003.879961875439
 31
0.0
  0
LINE
  5
6E12
330
1E
100
AcDbEntity
  8
躯体と製品
  6
Continuous
 62
     7
100
AcDbLine
 10
1967.237877358706
 20
990.3799618754389
 30
0.0
 11
1976.737896960706
 21
990.3799618754389
 31
0.0
  0
LINE
  5
6E13
330
1E
100
AcDbEntity
  8
躯体と製品
  6
Continuous
 62
     7
100
AcDbLine
 10
1967.237877358706
 20
988.8799618754388
 30
0.0
 11
1976.737896960706
 21
988.8799618754388
 31
0.0
  0
LINE
  5
6E14
330
1E
100
AcDbEntity
  8
躯体と製品
  6
Continuous
 62
     7
100
AcDbLine
 10
1970.145728315106
 20
988.8799618754388
 30
0.0
 11
1968.145728315106
 21
986.8799618754389
 31
0.0
  0
LINE
  5
6E15
330
1E
100
AcDbEntity
  8
躯体と製品
  6
Continuous
 62
     7
100
AcDbLine
 10
1968.731514752806
 20
988.8799618754388
 30
0.0
 11
1967.237877358706
 21
987.386324481339
 31
0.0
  0
LINE
  5
6E16
330
1E
100
AcDbEntity
  8
躯体と製品
  6
Continuous
 62
     7
100
AcDbLine
 10
1967.317301190406
 20
988.8799618754388
 30
0.0
 11
1967.237877358706
 21
988.8005380437387
 31
0.0
  0
LINE
  5
6E17
330
1E
100
AcDbEntity
  8
躯体と製品
  6
Continuous
 62
     7
100
AcDbLine
 10
1875.237876358706
 20
986.8799618754389
 30
0.0
 11
2012.737904566706
 21
986.8799618754389
 31
0.0
  0
LINE
  5
6E21
330
1E
100
AcDbEntity
  8
躯体と製品
  6
Continuous
 62
     7
100
AcDbLine
 10
1638.737907566806
 20
919.8799628754388
 30
0.0
 11
1638.737907566806
 21
986.8799618754389
 31
0.0
  0
LINE
  5
6E22
330
1E
100
AcDbEntity
  8
躯体と製品
  6
Continuous
 62
     7
100
AcDbLine
 10
1609.328234864806
 20
919.8799628754388
 30
0.0
 11
1638.737907566806
 21
949.2896355773387
 31
0.0
  0
LINE
  5
6E23
330
1E
100
AcDbEntity
  8
躯体と製品
  6
Continuous
 62
     7
100
AcDbLine
 10
1606.499807740106
 20
919.8799628754388
 30
0.0
 11
1638.737907566806
 21
952.1180627021387
 31
0.0
  0
LINE
  5
6E24
330
1E
100
AcDbEntity
  8
躯体と製品
  6
Continuous
 62
     7
100
AcDbLine
 10
1603.671380615306
 20
919.8799628754388
 30
0.0
 11
1638.737907566806
 21
954.9464898268388
 31
0.0
  0
LINE
  5
6E25
330
1E
100
AcDbEntity
  8
躯体と製品
  6
Continuous
 62
     7
100
AcDbLine
 10
1573.972895805506
 20
919.8799628754388
 30
0.0
 11
1638.737907566806
 21
984.6449746366388
 31
0.0
  0
LINE
  5
6E26
330
1E
100
AcDbEntity
  8
躯体と製品
  6
Continuous
 62
     7
100
AcDbLine
 10
1638.144467680706
 20
986.8799618754389
 30
0.0
 11
1571.144468680806
 21
919.8799628754388
 31
0.0
  0
LINE
  5
6E27
330
1E
100
AcDbEntity
  8
躯体と製品
  6
Continuous
 62
     7
100
AcDbLine
 10
1568.316041556006
 20
919.8799628754388
 30
0.0
 11
1635.316040556006
 21
986.8799618754389
 31
0.0
  0
LINE
  5
6E28
330
1E
100
AcDbEntity
  8
躯体と製品
  6
Continuous
 62
     7
100
AcDbLine
 10
1605.617555746206
 20
986.8799618754389
 30
0.0
 11
1538.617556746206
 21
919.8799628754388
 31
0.0
  0
LINE
  5
6E29
330
1E
100
AcDbEntity
  8
躯体と製品
  6
Continuous
 62
     7
100
AcDbLine
 10
1602.789128621406
 20
986.8799618754389
 30
0.0
 11
1535.789129621406
 21
919.8799628754388
 31
0.0
  0
LINE
  5
6E2A
330
1E
100
AcDbEntity
  8
躯体と製品
  6
Continuous
 62
     7
100
AcDbLine
 10
1599.960701496706
 20
986.8799618754389
 30
0.0
 11
1532.960702496706
 21
919.8799628754388
 31
0.0
  0
LINE
  5
6E2B
330
1E
100
AcDbEntity
  8
躯体と製品
  6
Continuous
 62
     7
100
AcDbLine
 10
1564.605362437406
 20
986.8799618754389
 30
0.0
 11
1514.737910566776
 21
937.012510004839
 31
0.0
  0
LINE
  5
6E2C
330
1E
100
AcDbEntity
  8
躯体と製品
  6
Continuous
 62
     7
100
AcDbLine
 10
1567.433789562106
 20
986.8799618754389
 30
0.0
 11
1514.737910566776
 21
934.1840828800389
 31
0.0
  0
LINE
  5
6E2D
330
1E
100
AcDbEntity
  8
躯体と製品
  6
Continuous
 62
     7
100
AcDbLine
 10
1570.262216686806
 20
986.8799618754389
 30
0.0
 11
1514.737910566776
 21
931.3556557553388
 31
0.0
  0
LINE
  5
6E2E
330
1E
100
AcDbEntity
  8
躯体と製品
  6
Continuous
 62
     7
100
AcDbLine
 10
1534.906877627506
 20
986.8799618754389
 30
0.0
 11
1514.737910566776
 21
966.7109948146389
 31
0.0
  0
LINE
  5
6E2F
330
1E
100
AcDbEntity
  8
躯体と製品
  6
Continuous
 62
     7
100
AcDbLine
 10
1532.078450502806
 20
986.8799618754389
 30
0.0
 11
1514.737910566776
 21
969.5394219394389
 31
0.0
  0
LINE
  5
6E30
330
1E
100
AcDbEntity
  8
躯体と製品
  6
Continuous
 62
     7
100
AcDbLine
 10
1529.250023378006
 20
986.8799618754389
 30
0.0
 11
1514.737910566776
 21
972.3678490641388
 31
0.0
  0
ARC
  5
6E34
330
1E
100
AcDbEntity
  8
躯体と製品
  6
Continuous
 62
     7
100
AcDbCircle
 10
1649.237914953106
 20
999.3799618754389
 30
0.0
 40
0.9999999999998999
100
AcDbArc
 50
270.0
 51
359.9999565941086
  0
ARC
  5
6E35
330
1E
100
AcDbEntity
  8
躯体と製品
  6
Continuous
 62
     7
100
AcDbCircle
 10
1646.737913438006
 20
999.3799618754389
 30
0.0
 40
0.9999999999998999
100
AcDbArc
 50
179.9999565940988
 51
270.0
  0
ARC
  5
6E36
330
1E
100
AcDbEntity
  8
躯体と製品
  6
Continuous
 62
     7
100
AcDbCircle
 10
1649.487920445606
 20
1004.129961875439
 30
0.0
 40
0.7499999999998999
100
AcDbArc
 50
359.9999565938253
 51
179.9999565940988
  0
ARC
  5
6E37
330
1E
100
AcDbEntity
  8
躯体と製品
  6
Continuous
 62
     7
100
AcDbCircle
 10
1646.487920445606
 20
1002.629961875439
 30
0.0
 40
0.7499999999998999
100
AcDbArc
 50
359.9999565941119
 51
180.0
  0
LINE
  5
6E38
330
1E
100
AcDbEntity
  8
躯体と製品
  6
Continuous
 62
     7
100
AcDbLine
 10
1650.237914801606
 20
1004.129961307239
 30
0.0
 11
1650.237911203106
 21
999.3799611178388
 31
0.0
  0
LINE
  5
6E39
330
1E
100
AcDbEntity
  8
躯体と製品
  6
Continuous
 62
     7
100
AcDbLine
 10
1645.737913665306
 20
1002.629961875439
 30
0.0
 11
1645.737911203106
 21
999.3799626329389
 31
0.0
  0
LINE
  5
6E3A
330
1E
100
AcDbEntity
  8
躯体と製品
  6
Continuous
 62
     7
100
AcDbLine
 10
1647.237920445606
 20
999.8799618754388
 30
0.0
 11
1648.737920445606
 21
999.8799618754388
 31
0.0
  0
LINE
  5
6E3B
330
1E
100
AcDbEntity
  8
躯体と製品
  6
Continuous
 62
     7
100
AcDbLine
 10
1648.737920445606
 20
999.8799618754388
 30
0.0
 11
1648.737920445606
 21
1004.879961875439
 31
0.0
  0
ARC
  5
6E3C
330
1E
100
AcDbEntity
  8
躯体と製品
  6
Continuous
 62
     7
100
AcDbCircle
 10
1646.737920445606
 20
1004.879961875439
 30
0.0
 40
2.0
100
AcDbArc
 50
0.0
 51
90.0
  0
LINE
  5
6E3D
330
1E
100
AcDbEntity
  8
躯体と製品
  6
Continuous
 62
     7
100
AcDbLine
 10
1647.237920445606
 20
999.8799618754388
 30
0.0
 11
1647.237920445606
 21
1004.879961875439
 31
0.0
  0
ARC
  5
6E3E
330
1E
100
AcDbEntity
  8
躯体と製品
  6
Continuous
 62
     7
100
AcDbCircle
 10
1646.737920445606
 20
1004.879961875439
 30
0.0
 40
0.5
100
AcDbArc
 50
0.0
 51
90.0
  0
LINE
  5
6E3F
330
1E
100
AcDbEntity
  8
躯体と製品
  6
Continuous
 62
     7
100
AcDbLine
 10
1555.888428660706
 20
988.8799618754388
 30
0.0
 11
1553.888428660706
 21
986.8799618754389
 31
0.0
  0
LINE
  5
6E40
330
1E
100
AcDbEntity
  8
躯体と製品
  6
Continuous
 62
     7
100
AcDbLine
 10
1551.645787973606
 20
988.8799618754388
 30
0.0
 11
1550.237937396006
 21
987.4721112977388
 31
0.0
  0
LINE
  5
6E41
330
1E
100
AcDbEntity
  8
躯体と製品
  6
Continuous
 62
     7
100
AcDbLine
 10
1558.716855785506
 20
988.8799618754388
 30
0.0
 11
1556.716855785506
 21
986.8799618754389
 31
0.0
  0
LINE
  5
6E42
330
1E
100
AcDbEntity
  8
躯体と製品
  6
Continuous
 62
     7
100
AcDbLine
 10
1557.302642223106
 20
988.8799618754388
 30
0.0
 11
1555.302642223106
 21
986.8799618754389
 31
0.0
  0
LINE
  5
6E43
330
1E
100
AcDbEntity
  8
躯体と製品
  6
Continuous
 62
     7
100
AcDbLine
 10
1554.474215098406
 20
988.8799618754388
 30
0.0
 11
1552.474215098406
 21
986.8799618754389
 31
0.0
  0
LINE
  5
6E44
330
1E
100
AcDbEntity
  8
躯体と製品
  6
Continuous
 62
     7
100
AcDbLine
 10
1553.060001536006
 20
988.8799618754388
 30
0.0
 11
1551.060001536006
 21
986.8799618754389
 31
0.0
  0
ARC
  5
6E45
330
1E
100
AcDbEntity
  8
躯体と製品
  6
Continuous
 62
     7
100
AcDbCircle
 10
1550.737918172806
 20
990.8799558147389
 30
0.0
 40
0.5
100
AcDbArc
 50
180.0000434059011
 51
270.0
  0
ARC
  5
6E46
330
1E
100
AcDbEntity
  8
躯体と製品
  6
Continuous
 62
     7
100
AcDbCircle
 10
1550.737918172806
 20
990.8799558147389
 30
0.0
 40
2.0
100
AcDbArc
 50
180.0000434059011
 51
270.0
  0
LINE
  5
6E47
330
1E
100
AcDbEntity
  8
躯体と製品
  6
Continuous
 62
     7
100
AcDbLine
 10
1550.237937396006
 20
988.9434591783388
 30
0.0
 11
1550.237937396006
 21
986.8799618754389
 31
0.0
  0
LINE
  5
6E48
330
1E
100
AcDbEntity
  8
躯体と製品
  6
Continuous
 62
     7
100
AcDbLine
 10
1550.237907566806
 20
1004.879888769339
 30
0.0
 11
1550.237918172806
 21
990.8799554360388
 31
0.0
  0
LINE
  5
6E49
330
1E
100
AcDbEntity
  8
躯体と製品
  6
Continuous
 62
     7
100
AcDbLine
 10
1646.737920445606
 20
1005.379961875439
 30
0.0
 11
1550.737907566806
 21
1005.379961875439
 31
0.0
  0
ARC
  5
6E4A
330
1E
100
AcDbEntity
  8
躯体と製品
  6
Continuous
 62
     7
100
AcDbCircle
 10
1550.737907566806
 20
1004.879889148139
 30
0.0
 40
0.5
100
AcDbArc
 50
90.0
 51
180.0000434059011
  0
LINE
  5
6E4B
330
1E
100
AcDbEntity
  8
躯体と製品
  6
Continuous
 62
     7
100
AcDbLine
 10
1548.737907566806
 20
1004.879887632939
 30
0.0
 11
1548.737918172806
 21
990.8799542996389
 31
0.0
  0
LINE
  5
6E4C
330
1E
100
AcDbEntity
  8
躯体と製品
  6
Continuous
 62
     7
100
AcDbLine
 10
1646.737920445606
 20
1006.879961875439
 30
0.0
 11
1550.737907566806
 21
1006.879961875439
 31
0.0
  0
ARC
  5
6E4D
330
1E
100
AcDbEntity
  8
躯体と製品
  6
Continuous
 62
     7
100
AcDbCircle
 10
1550.737907566806
 20
1004.879889148139
 30
0.0
 40
2.0
100
AcDbArc
 50
90.0
 51
180.0000434059011
  0
LINE
  5
6E50
330
1E
100
AcDbEntity
  8
躯体と製品
  6
Continuous
 62
     7
100
AcDbLine
 10
1568.837937774806
 20
1006.879961875439
 30
0.0
 11
1568.837937774806
 21
1006.579961875439
 31
0.0
  0
LINE
  5
6E51
330
1E
100
AcDbEntity
  8
躯体と製品
  6
Continuous
 62
     7
100
AcDbLine
 10
1568.837937774806
 20
1006.579961875439
 30
0.0
 11
1566.504603774806
 21
1004.579963875438
 31
0.0
  0
LINE
  5
6E52
330
1E
100
AcDbEntity
  8
躯体と製品
  6
Continuous
 62
     7
100
AcDbLine
 10
1568.837937774806
 20
1006.579961875439
 30
0.0
 11
1561.637937774806
 21
1006.579961875439
 31
0.0
  0
LINE
  5
6E53
330
1E
100
AcDbEntity
  8
躯体と製品
  6
Continuous
 62
     7
100
AcDbLine
 10
1561.637937774806
 20
1006.879961875439
 30
0.0
 11
1561.637937774806
 21
1006.579961875439
 31
0.0
  0
LINE
  5
6E54
330
1E
100
AcDbEntity
  8
躯体と製品
  6
Continuous
 62
     7
100
AcDbLine
 10
1561.637937774806
 20
1006.579961875439
 30
0.0
 11
1563.971271774806
 21
1004.579963875438
 31
0.0
  0
LINE
  5
6E55
330
1E
100
AcDbEntity
  8
躯体と製品
  6
Continuous
 62
     7
100
AcDbLine
 10
1566.504603774806
 20
998.0021848754388
 30
0.0
 11
1566.504603774806
 21
999.0368848754389
 31
0.0
  0
LINE
  5
6E56
330
1E
100
AcDbEntity
  8
躯体と製品
  6
Continuous
 62
     7
100
AcDbLine
 10
1563.971271774806
 20
996.2146648754389
 30
0.0
 11
1566.504603774806
 21
997.1554048754388
 31
0.0
  0
LINE
  5
6E57
330
1E
100
AcDbEntity
  8
躯体と製品
  6
Continuous
 62
     7
100
AcDbLine
 10
1563.971271774806
 20
997.0614448754389
 30
0.0
 11
1566.504603774806
 21
998.0021848754388
 31
0.0
  0
LINE
  5
6E58
330
1E
100
AcDbEntity
  8
躯体と製品
  6
Continuous
 62
     7
100
AcDbLine
 10
1563.237936774806
 20
996.6380548754388
 30
0.0
 11
1567.237938774806
 21
997.5787948754387
 31
0.0
  0
LINE
  5
6E59
330
1E
100
AcDbEntity
  8
躯体と製品
  6
Continuous
 62
     7
100
AcDbLine
 10
1563.237936774806
 20
996.6380548754388
 30
0.0
 11
1563.971271774806
 21
996.2146648754389
 31
0.0
  0
LINE
  5
6E5A
330
1E
100
AcDbEntity
  8
躯体と製品
  6
Continuous
 62
     7
100
AcDbLine
 10
1563.237936774806
 20
996.6380548754388
 30
0.0
 11
1563.971271774806
 21
997.0614448754389
 31
0.0
  0
LINE
  5
6E5B
330
1E
100
AcDbEntity
  8
躯体と製品
  6
Continuous
 62
     7
100
AcDbLine
 10
1567.237938774806
 20
997.5787948754387
 30
0.0
 11
1566.504603774806
 21
997.1554048754388
 31
0.0
  0
LINE
  5
6E5C
330
1E
100
AcDbEntity
  8
躯体と製品
  6
Continuous
 62
     7
100
AcDbLine
 10
1566.504603774806
 20
998.0021848754388
 30
0.0
 11
1567.237938774806
 21
997.5787948754387
 31
0.0
  0
LINE
  5
6E5D
330
1E
100
AcDbEntity
  8
躯体と製品
  6
Continuous
 62
     7
100
AcDbLine
 10
1563.971271774806
 20
999.9776278754389
 30
0.0
 11
1563.971271774806
 21
998.9429248754388
 31
0.0
  0
LINE
  5
6E5E
330
1E
100
AcDbEntity
  8
躯体と製品
  6
Continuous
 62
     7
100
AcDbLine
 10
1566.504603774806
 20
999.8836678754388
 30
0.0
 11
1566.504603774806
 21
1000.918367875439
 31
0.0
  0
LINE
  5
6E5F
330
1E
100
AcDbEntity
  8
躯体と製品
  6
Continuous
 62
     7
100
AcDbLine
 10
1563.971271774806
 20
998.0961448754388
 30
0.0
 11
1566.504603774806
 21
999.0368848754389
 31
0.0
  0
LINE
  5
6E60
330
1E
100
AcDbEntity
  8
躯体と製品
  6
Continuous
 62
     7
100
AcDbLine
 10
1563.971271774806
 20
998.9429248754388
 30
0.0
 11
1566.504603774806
 21
999.8836678754388
 31
0.0
  0
LINE
  5
6E61
330
1E
100
AcDbEntity
  8
躯体と製品
  6
Continuous
 62
     7
100
AcDbLine
 10
1563.237936774806
 20
998.5195348754386
 30
0.0
 11
1567.237938774806
 21
999.4602748754388
 31
0.0
  0
LINE
  5
6E62
330
1E
100
AcDbEntity
  8
躯体と製品
  6
Continuous
 62
     7
100
AcDbLine
 10
1563.237936774806
 20
998.5195348754386
 30
0.0
 11
1563.971271774806
 21
998.0961448754388
 31
0.0
  0
LINE
  5
6E63
330
1E
100
AcDbEntity
  8
躯体と製品
  6
Continuous
 62
     7
100
AcDbLine
 10
1563.237936774806
 20
998.5195348754386
 30
0.0
 11
1563.971271774806
 21
998.9429248754388
 31
0.0
  0
LINE
  5
6E64
330
1E
100
AcDbEntity
  8
躯体と製品
  6
Continuous
 62
     7
100
AcDbLine
 10
1567.237938774806
 20
999.4602748754388
 30
0.0
 11
1566.504603774806
 21
999.0368848754389
 31
0.0
  0
LINE
  5
6E65
330
1E
100
AcDbEntity
  8
躯体と製品
  6
Continuous
 62
     7
100
AcDbLine
 10
1566.504603774806
 20
999.8836678754388
 30
0.0
 11
1567.237938774806
 21
999.4602748754388
 31
0.0
  0
LINE
  5
6E66
330
1E
100
AcDbEntity
  8
躯体と製品
  6
Continuous
 62
     7
100
AcDbLine
 10
1563.971271774806
 20
1001.859107875439
 30
0.0
 11
1563.971271774806
 21
1000.824407875439
 31
0.0
  0
LINE
  5
6E67
330
1E
100
AcDbEntity
  8
躯体と製品
  6
Continuous
 62
     7
100
AcDbLine
 10
1566.504603774806
 20
1001.765147875439
 30
0.0
 11
1566.504603774806
 21
1002.799847875438
 31
0.0
  0
LINE
  5
6E68
330
1E
100
AcDbEntity
  8
躯体と製品
  6
Continuous
 62
     7
100
AcDbLine
 10
1563.971271774806
 20
999.9776278754389
 30
0.0
 11
1566.504603774806
 21
1000.918367875439
 31
0.0
  0
LINE
  5
6E69
330
1E
100
AcDbEntity
  8
躯体と製品
  6
Continuous
 62
     7
100
AcDbLine
 10
1563.971271774806
 20
1000.824407875439
 30
0.0
 11
1566.504603774806
 21
1001.765147875439
 31
0.0
  0
LINE
  5
6E6A
330
1E
100
AcDbEntity
  8
躯体と製品
  6
Continuous
 62
     7
100
AcDbLine
 10
1563.237936774806
 20
1000.401017875439
 30
0.0
 11
1567.237938774806
 21
1001.341757875439
 31
0.0
  0
LINE
  5
6E6B
330
1E
100
AcDbEntity
  8
躯体と製品
  6
Continuous
 62
     7
100
AcDbLine
 10
1563.237936774806
 20
1000.401017875439
 30
0.0
 11
1563.971271774806
 21
999.9776278754389
 31
0.0
  0
LINE
  5
6E6C
330
1E
100
AcDbEntity
  8
躯体と製品
  6
Continuous
 62
     7
100
AcDbLine
 10
1563.237936774806
 20
1000.401017875439
 30
0.0
 11
1563.971271774806
 21
1000.824407875439
 31
0.0
  0
LINE
  5
6E6D
330
1E
100
AcDbEntity
  8
躯体と製品
  6
Continuous
 62
     7
100
AcDbLine
 10
1567.237938774806
 20
1001.341757875439
 30
0.0
 11
1566.504603774806
 21
1000.918367875439
 31
0.0
  0
LINE
  5
6E6E
330
1E
100
AcDbEntity
  8
躯体と製品
  6
Continuous
 62
     7
100
AcDbLine
 10
1566.504603774806
 20
1001.765147875439
 30
0.0
 11
1567.237938774806
 21
1001.341757875439
 31
0.0
  0
LINE
  5
6E6F
330
1E
100
AcDbEntity
  8
躯体と製品
  6
Continuous
 62
     7
100
AcDbLine
 10
1563.971271774806
 20
1002.943901875439
 30
0.0
 11
1563.971271774806
 21
1002.705887875439
 31
0.0
  0
LINE
  5
6E70
330
1E
100
AcDbEntity
  8
躯体と製品
  6
Continuous
 62
     7
100
AcDbLine
 10
1566.504603774806
 20
1004.579963875438
 30
0.0
 11
1566.504603774806
 21
1003.646630875439
 31
0.0
  0
LINE
  5
6E71
330
1E
100
AcDbEntity
  8
躯体と製品
  6
Continuous
 62
     7
100
AcDbLine
 10
1563.971271774806
 20
1001.859107875439
 30
0.0
 11
1566.504603774806
 21
1002.799847875438
 31
0.0
  0
LINE
  5
6E72
330
1E
100
AcDbEntity
  8
躯体と製品
  6
Continuous
 62
     7
100
AcDbLine
 10
1563.971271774806
 20
1002.705887875439
 30
0.0
 11
1566.504603774806
 21
1003.646630875439
 31
0.0
  0
LINE
  5
6E73
330
1E
100
AcDbEntity
  8
躯体と製品
  6
Continuous
 62
     7
100
AcDbLine
 10
1563.237936774806
 20
1002.282497875439
 30
0.0
 11
1567.237938774806
 21
1003.223237875439
 31
0.0
  0
LINE
  5
6E74
330
1E
100
AcDbEntity
  8
躯体と製品
  6
Continuous
 62
     7
100
AcDbLine
 10
1563.237936774806
 20
1002.282497875439
 30
0.0
 11
1563.971271774806
 21
1001.859107875439
 31
0.0
  0
LINE
  5
6E75
330
1E
100
AcDbEntity
  8
躯体と製品
  6
Continuous
 62
     7
100
AcDbLine
 10
1563.237936774806
 20
1002.282497875439
 30
0.0
 11
1563.971271774806
 21
1002.705887875439
 31
0.0
  0
LINE
  5
6E76
330
1E
100
AcDbEntity
  8
躯体と製品
  6
Continuous
 62
     7
100
AcDbLine
 10
1566.504603774806
 20
1002.799847875438
 30
0.0
 11
1567.237938774806
 21
1003.223237875439
 31
0.0
  0
LINE
  5
6E77
330
1E
100
AcDbEntity
  8
躯体と製品
  6
Continuous
 62
     7
100
AcDbLine
 10
1566.504603774806
 20
1003.646630875439
 30
0.0
 11
1567.237938774806
 21
1003.223237875439
 31
0.0
  0
LINE
  5
6E78
330
1E
100
AcDbEntity
  8
躯体と製品
  6
Continuous
 62
     7
100
AcDbLine
 10
1563.971271774806
 20
1004.579963875438
 30
0.0
 11
1563.971271774806
 21
1004.319245875439
 31
0.0
  0
LINE
  5
6E79
330
1E
100
AcDbEntity
  8
躯体と製品
  6
Continuous
 62
     7
100
AcDbLine
 10
1565.237937774806
 20
1004.366225875439
 30
0.0
 11
1563.237936774806
 21
1003.895855875439
 31
0.0
  0
LINE
  5
6E7A
330
1E
100
AcDbEntity
  8
躯体と製品
  6
Continuous
 62
     7
100
AcDbLine
 10
1563.237936774806
 20
1003.895855875439
 30
0.0
 11
1563.971271774806
 21
1003.472465875439
 31
0.0
  0
LINE
  5
6E7B
330
1E
100
AcDbEntity
  8
躯体と製品
  6
Continuous
 62
     7
100
AcDbLine
 10
1563.237936774806
 20
1003.895855875439
 30
0.0
 11
1563.971271774806
 21
1004.319245875439
 31
0.0
  0
LINE
  5
6E7C
330
1E
100
AcDbEntity
  8
躯体と製品
  6
Continuous
 62
     7
100
AcDbLine
 10
1563.971271774806
 20
1003.472465875439
 30
0.0
 11
1563.971271774806
 21
1002.943901875439
 31
0.0
  0
LINE
  5
6E7D
330
1E
100
AcDbEntity
  8
躯体と製品
  6
Continuous
 62
     7
100
AcDbLine
 10
1565.237937774806
 20
992.8799638754389
 30
0.0
 11
1565.237937774806
 21
990.8799628754389
 31
0.0
  0
LINE
  5
6E7E
330
1E
100
AcDbEntity
  8
躯体と製品
  6
Continuous
 62
     7
100
AcDbLine
 10
1566.504603774806
 20
995.8799638754388
 30
0.0
 11
1563.971286774806
 21
995.8799638754388
 31
0.0
  0
LINE
  5
6E7F
330
1E
100
AcDbEntity
  8
躯体と製品
  6
Continuous
 62
     7
100
AcDbLine
 10
1565.237937774806
 20
990.8799628754389
 30
0.0
 11
1563.971271774806
 21
991.8037228754387
 31
0.0
  0
LINE
  5
6E80
330
1E
100
AcDbEntity
  8
躯体と製品
  6
Continuous
 62
     7
100
AcDbLine
 10
1565.237937774806
 20
990.8799628754389
 30
0.0
 11
1566.504603774806
 21
991.8037228754387
 31
0.0
  0
ARC
  5
6E81
330
1E
100
AcDbEntity
  8
躯体と製品
  6
Continuous
 62
     7
100
AcDbCircle
 10
1565.612709774806
 20
991.1553658754389
 30
0.0
 40
1.764848999999999
100
AcDbArc
 50
102.260328999995
 51
158.4463040000012
  0
ARC
  5
6E82
330
1E
100
AcDbEntity
  8
躯体と製品
  6
Continuous
 62
     7
100
AcDbCircle
 10
1571.244222774806
 20
992.1113848754389
 30
0.0
 40
6.055259999999
100
AcDbArc
 50
141.5109779999976
 51
172.7079179999991
  0
LINE
  5
6E83
330
1E
100
AcDbEntity
  8
躯体と製品
  6
Continuous
 62
     7
100
AcDbLine
 10
1563.971271774806
 20
996.2146648754389
 30
0.0
 11
1563.971271774806
 21
995.8799638754388
 31
0.0
  0
LINE
  5
6E84
330
1E
100
AcDbEntity
  8
躯体と製品
  6
Continuous
 62
     7
100
AcDbLine
 10
1563.971271774806
 20
1004.579963875438
 30
0.0
 11
1566.504603774806
 21
1004.579963875438
 31
0.0
  0
LINE
  5
6E85
330
1E
100
AcDbEntity
  8
躯体と製品
  6
Continuous
 62
     7
100
AcDbLine
 10
1563.971271774806
 20
1004.319245875439
 30
0.0
 11
1565.237937774806
 21
1004.366225875439
 31
0.0
  0
LINE
  5
6E86
330
1E
100
AcDbEntity
  8
躯体と製品
  6
Continuous
 62
     7
100
AcDbLine
 10
1563.971271774806
 20
1003.472465875439
 30
0.0
 11
1565.237937774806
 21
1004.366225875439
 31
0.0
  0
LINE
  5
6E87
330
1E
100
AcDbEntity
  8
躯体と製品
  6
Continuous
 62
     7
100
AcDbLine
 10
1563.971271774806
 20
995.8799638754388
 30
0.0
 11
1563.971271774806
 21
991.8037228754387
 31
0.0
  0
LINE
  5
6E88
330
1E
100
AcDbEntity
  8
躯体と製品
  6
Continuous
 62
     7
100
AcDbLine
 10
1566.504603774806
 20
997.1554048754388
 30
0.0
 11
1566.504603774806
 21
991.8037228754387
 31
0.0
  0
LINE
  5
6E89
330
1E
100
AcDbEntity
  8
躯体と製品
  6
Continuous
 62
     7
100
AcDbLine
 10
1563.971271774806
 20
998.0961448754388
 30
0.0
 11
1563.971271774806
 21
997.0614448754389
 31
0.0
  0
LINE
  5
6E8A
330
1E
100
AcDbEntity
  8
躯体と製品
  6
CENTER2_22
 62
     7
100
AcDbLine
 10
1565.237937774806
 20
986.8799618754389
 30
0.0
 11
1565.237937774806
 21
1009.229862078739
 31
0.0
  0
ARC
  5
6E8B
330
1E
100
AcDbEntity
  8
躯体と製品
  6
Continuous
 62
     7
100
AcDbCircle
 10
1562.237937774806
 20
988.8799618754388
 30
0.0
 40
0.5
100
AcDbArc
 50
180.0
 51
270.0
  0
ARC
  5
6E8C
330
1E
100
AcDbEntity
  8
躯体と製品
  6
Continuous
 62
     7
100
AcDbCircle
 10
1560.737937774806
 20
1004.879961875439
 30
0.0
 40
0.5
100
AcDbArc
 50
90.0
 51
180.0
  0
LINE
  5
6E8D
330
1E
100
AcDbEntity
  8
躯体と製品
  6
Continuous
 62
     7
100
AcDbLine
 10
1560.237937774806
 20
986.8799618754389
 30
0.0
 11
1560.237937774806
 21
998.8799618754388
 31
0.0
  0
LINE
  5
6E8E
330
1E
100
AcDbEntity
  8
躯体と製品
  6
Continuous
 62
     7
100
AcDbLine
 10
1560.237937774806
 20
1000.879961277039
 30
0.0
 11
1560.237937774806
 21
1004.879961875439
 31
0.0
  0
ARC
  5
6E8F
330
1E
100
AcDbEntity
  8
躯体と製品
  6
Continuous
 62
     7
100
AcDbCircle
 10
1562.237937774806
 20
988.8799618754388
 30
0.0
 40
0.5
100
AcDbArc
 50
180.0
 51
270.0
  0
ARC
  5
6E90
330
1E
100
AcDbEntity
  8
躯体と製品
  6
Continuous
 62
     7
100
AcDbCircle
 10
1568.237937774806
 20
1003.879961875439
 30
0.0
 40
2.0
100
AcDbArc
 50
270.0
 51
0.0
  0
ARC
  5
6E91
330
1E
100
AcDbEntity
  8
躯体と製品
  6
Continuous
 62
     7
100
AcDbCircle
 10
1561.237937774806
 20
1004.879961875439
 30
0.0
 40
0.5
100
AcDbArc
 50
0.0
 51
90.0
  0
ARC
  5
6E92
330
1E
100
AcDbEntity
  8
躯体と製品
  6
Continuous
 62
     7
100
AcDbCircle
 10
1569.237937774806
 20
1004.879961875439
 30
0.0
 40
0.5
100
AcDbArc
 50
90.0
 51
180.0
  0
LINE
  5
6E93
330
1E
100
AcDbEntity
  8
躯体と製品
  6
Continuous
 62
     7
100
AcDbLine
 10
1570.237937774806
 20
1004.879961875439
 30
0.0
 11
1570.237937774806
 21
1003.879961875439
 31
0.0
  0
ARC
  5
6E94
330
1E
100
AcDbEntity
  8
躯体と製品
  6
Continuous
 62
     7
100
AcDbCircle
 10
1569.737937774806
 20
1004.879961875439
 30
0.0
 40
0.5
100
AcDbArc
 50
0.0
 51
90.0
  0
LINE
  5
6E95
330
1E
100
AcDbEntity
  8
躯体と製品
  6
Continuous
 62
     7
100
AcDbLine
 10
1561.737937774806
 20
1000.879961875439
 30
0.0
 11
1561.737937774806
 21
988.8799618754388
 31
0.0
  0
LINE
  5
6E96
330
1E
100
AcDbEntity
  8
躯体と製品
  6
Continuous
 62
     7
100
AcDbLine
 10
1562.737937774806
 20
1001.879961875439
 30
0.0
 11
1568.237937774806
 21
1001.879961875439
 31
0.0
  0
ARC
  5
6E97
330
1E
100
AcDbEntity
  8
躯体と製品
  6
Continuous
 62
     7
100
AcDbCircle
 10
1562.737937774806
 20
1000.879961875439
 30
0.0
 40
0.9999999999998999
100
AcDbArc
 50
90.0
 51
180.0
  0
LINE
  5
6E98
330
1E
100
AcDbEntity
  8
躯体と製品
  6
Continuous
 62
     7
100
AcDbLine
 10
1561.737937774806
 20
1003.879961875439
 30
0.0
 11
1564.937937774806
 21
1003.879961875439
 31
0.0
  0
LINE
  5
6E99
330
1E
100
AcDbEntity
  8
躯体と製品
  6
Continuous
 62
     7
100
AcDbLine
 10
1565.537937774806
 20
1003.879961875439
 30
0.0
 11
1568.737937774806
 21
1003.879961875439
 31
0.0
  0
LINE
  5
6E9A
330
1E
100
AcDbEntity
  8
躯体と製品
  6
Continuous
 62
     7
100
AcDbLine
 10
1561.737937774806
 20
1003.879961875439
 30
0.0
 11
1561.737937774806
 21
1004.879961875439
 31
0.0
  0
LINE
  5
6E9B
330
1E
100
AcDbEntity
  8
躯体と製品
  6
Continuous
 62
     7
100
AcDbLine
 10
1568.737937774806
 20
1004.879961875439
 30
0.0
 11
1568.737937774806
 21
1003.879961875439
 31
0.0
  0
LINE
  5
6E9C
330
1E
100
AcDbEntity
  8
躯体と製品
  6
Continuous
 62
     7
100
AcDbLine
 10
1565.237937774806
 20
1003.579961875439
 30
0.0
 11
1564.937937774806
 21
1003.879961875439
 31
0.0
  0
LINE
  5
6E9D
330
1E
100
AcDbEntity
  8
躯体と製品
  6
Continuous
 62
     7
100
AcDbLine
 10
1565.237937774806
 20
1003.579961875439
 30
0.0
 11
1565.537937774806
 21
1003.879961875439
 31
0.0
  0
LINE
  5
6E9E
330
1E
100
AcDbEntity
  8
躯体と製品
  6
Continuous
 62
     7
100
AcDbLine
 10
1562.237937774806
 20
988.3799618754389
 30
0.0
 11
1590.237937774806
 21
988.3799618754389
 31
0.0
  0
LINE
  5
6E9F
330
1E
100
AcDbEntity
  8
躯体と製品
  6
Continuous
 62
     7
100
AcDbLine
 10
1592.237937774806
 20
990.8799628754389
 30
0.0
 11
1593.237936774806
 21
990.8799628754389
 31
0.0
  0
ARC
  5
6EA0
330
1E
100
AcDbEntity
  8
躯体と製品
  6
Continuous
 62
     7
100
AcDbCircle
 10
1591.037937774806
 20
993.579962875439
 30
0.0
 40
0.2999999999999999
100
AcDbArc
 50
90.0
 51
180.0
  0
LINE
  5
6EA1
330
1E
100
AcDbEntity
  8
躯体と製品
  6
Continuous
 62
     7
100
AcDbLine
 10
1592.351899747206
 20
993.5380766161388
 30
0.0
 11
1593.237936774806
 21
990.8799628754389
 31
0.0
  0
LINE
  5
6EA2
330
1E
100
AcDbEntity
  8
躯体と製品
  6
Continuous
 62
     7
100
AcDbLine
 10
1591.877558050806
 20
993.8799628754388
 30
0.0
 11
1591.037937774806
 21
993.8799628754388
 31
0.0
  0
ARC
  5
6EA3
330
1E
100
AcDbEntity
  8
躯体と製品
  6
Continuous
 62
     7
100
AcDbCircle
 10
1591.877558050806
 20
993.3799628754389
 30
0.0
 40
0.5
100
AcDbArc
 50
18.43493163418103
 51
90.0
  0
LINE
  5
6EA4
330
1E
100
AcDbEntity
  8
躯体と製品
  6
Continuous
 62
     7
100
AcDbLine
 10
1592.237937774806
 20
990.8799628754389
 30
0.0
 11
1592.237937774806
 21
988.8799618754388
 31
0.0
  0
ARC
  5
6EA5
330
1E
100
AcDbEntity
  8
躯体と製品
  6
Continuous
 62
     7
100
AcDbCircle
 10
1592.737937774806
 20
988.8799618754388
 30
0.0
 40
0.5
100
AcDbArc
 50
180.0
 51
270.0
  0
LINE
  5
6EA6
330
1E
100
AcDbEntity
  8
躯体と製品
  6
Continuous
 62
     7
100
AcDbLine
 10
1590.737937774806
 20
993.579962875439
 30
0.0
 11
1590.737937774806
 21
988.8799618754388
 31
0.0
  0
ARC
  5
6EA7
330
1E
100
AcDbEntity
  8
躯体と製品
  6
Continuous
 62
     7
100
AcDbCircle
 10
1590.237937774806
 20
988.8799618754388
 30
0.0
 40
0.5
100
AcDbArc
 50
270.0
 51
0.0
  0
LINE
  5
6EA8
330
1E
100
AcDbEntity
  8
躯体と製品
  6
Continuous
 62
     7
100
AcDbLine
 10
1592.737937774806
 20
988.3799618754389
 30
0.0
 11
1650.737938774806
 21
988.3799618754389
 31
0.0
  0
ARC
  5
6EA9
330
1E
100
AcDbEntity
  8
躯体と製品
  6
Continuous
 62
     7
100
AcDbCircle
 10
1650.737938774806
 20
988.8799618754388
 30
0.0
 40
0.5
100
AcDbArc
 50
270.0
 51
0.0
  0
ARC
  5
6EAA
330
1E
100
AcDbEntity
  8
躯体と製品
  6
Continuous
 62
     7
100
AcDbCircle
 10
1652.237938774806
 20
987.3799618754388
 30
0.0
 40
0.5
100
AcDbArc
 50
270.0
 51
0.0
  0
ARC
  5
6EAB
330
1E
100
AcDbEntity
  8
躯体と製品
  6
Continuous
 62
     7
100
AcDbCircle
 10
1651.987938774806
 20
996.1299618754388
 30
0.0
 40
0.7499999999998999
100
AcDbArc
 50
0.0
 51
180.0
  0
LINE
  5
6EAC
330
1E
100
AcDbEntity
  8
躯体と製品
  6
Continuous
 62
     7
100
AcDbLine
 10
1652.737938774806
 20
996.1299618754388
 30
0.0
 11
1652.737938774806
 21
987.3799618754388
 31
0.0
  0
LINE
  5
6EAD
330
1E
100
AcDbEntity
  8
躯体と製品
  6
Continuous
 62
     7
100
AcDbLine
 10
1651.237938774806
 20
996.1299618754388
 30
0.0
 11
1651.237938774806
 21
988.8799618754388
 31
0.0
  0
LINE
  5
6EB0
330
1E
100
AcDbEntity
  8
躯体と製品
  6
Continuous
 62
     7
100
AcDbLine
 10
1589.237952774806
 20
989.8799618754388
 30
0.0
 11
1571.237952774806
 21
989.8799618754388
 31
0.0
  0
LINE
  5
6EB1
330
1E
100
AcDbEntity
  8
躯体と製品
  6
Continuous
 62
     7
100
AcDbLine
 10
1571.237952774806
 20
989.8799618754388
 30
0.0
 11
1571.237952774806
 21
988.3799618754389
 31
0.0
  0
LINE
  5
6EB2
330
1E
100
AcDbEntity
  8
躯体と製品
  6
Continuous
 62
     7
100
AcDbLine
 10
1589.237952774806
 20
989.8799618754388
 30
0.0
 11
1589.237952774806
 21
988.3799618754389
 31
0.0
  0
LINE
  5
6EB3
330
1E
100
AcDbEntity
  8
躯体と製品
  6
Continuous
 62
     7
100
AcDbLine
 10
1580.237952774806
 20
988.0799768754389
 30
0.0
 11
1580.537952774806
 21
988.3799768754389
 31
0.0
  0
LINE
  5
6EB4
330
1E
100
AcDbEntity
  8
躯体と製品
  6
Continuous
 62
     7
100
AcDbLine
 10
1580.237952774806
 20
988.0799768754389
 30
0.0
 11
1579.937967774806
 21
988.3799618754389
 31
0.0
  0
ARC
  5
6EB5
330
1E
100
AcDbEntity
  8
躯体と製品
  6
Continuous
 62
     7
100
AcDbCircle
 10
1578.837453774806
 20
989.9289613679389
 30
0.0
 40
2.399999999999999
100
AcDbArc
 50
125.7000590000011
 51
181.1698579999989
  0
ARC
  5
6EB6
330
1E
100
AcDbEntity
  8
躯体と製品
  6
Continuous
 62
     7
100
AcDbCircle
 10
1580.237952774806
 20
987.9799633679386
 30
0.0
 40
4.799999999999999
100
AcDbArc
 50
54.29996099999738
 51
90.0
  0
ARC
  5
6EB7
330
1E
100
AcDbEntity
  8
躯体と製品
  6
Continuous
 62
     7
100
AcDbCircle
 10
1581.638451774806
 20
989.9289613679389
 30
0.0
 40
2.399999999999999
100
AcDbArc
 50
358.8301420000044
 51
54.29994099999883
  0
ARC
  5
6EB8
330
1E
100
AcDbEntity
  8
躯体と製品
  6
Continuous
 62
     7
100
AcDbCircle
 10
1580.237952774806
 20
987.9799633679386
 30
0.0
 40
4.799999999999999
100
AcDbArc
 50
90.0
 51
125.7000390000026
  0
LINE
  5
6EB9
330
1E
100
AcDbEntity
  8
躯体と製品
  6
CENTER2_22
 62
     7
100
AcDbLine
 10
1580.237937774806
 20
958.2174185313387
 30
0.0
 11
1580.237937774806
 21
994.7399798754387
 31
0.0
  0
LINE
  5
6EBA
330
1E
100
AcDbEntity
  8
躯体と製品
  6
Continuous
 62
     7
100
AcDbLine
 10
1579.937937774806
 20
988.3799618754389
 30
0.0
 11
1580.237937774806
 21
988.0799618754387
 31
0.0
  0
LINE
  5
6EBB
330
1E
100
AcDbEntity
  8
躯体と製品
  6
Continuous
 62
     7
100
AcDbLine
 10
1580.237937774806
 20
988.0799618754387
 30
0.0
 11
1580.537937774806
 21
988.3799618754389
 31
0.0
  0
LINE
  5
6EBC
330
1E
100
AcDbEntity
  8
躯体と製品
  6
Continuous
 62
     7
100
AcDbLine
 10
1587.237937774806
 20
986.8799618754389
 30
0.0
 11
1587.237937774806
 21
988.3799618754389
 31
0.0
  0
LINE
  5
6EBD
330
1E
100
AcDbEntity
  8
躯体と製品
  6
Continuous
 62
     7
100
AcDbLine
 10
1573.237937774806
 20
986.8799618754389
 30
0.0
 11
1573.237937774806
 21
988.3799618754389
 31
0.0
  0
LINE
  5
6EBE
330
1E
100
AcDbEntity
  8
躯体と製品
  6
Continuous
 62
     7
100
AcDbLine
 10
1576.770525774806
 20
972.0296798754388
 30
0.0
 11
1575.499002774806
 21
975.5231648754389
 31
0.0
  0
LINE
  5
6EBF
330
1E
100
AcDbEntity
  8
躯体と製品
  6
Continuous
 62
     7
100
AcDbLine
 10
1576.495761774806
 20
966.7868738754387
 30
0.0
 11
1577.954454774806
 21
965.9593988754389
 31
0.0
  0
LINE
  5
6EC0
330
1E
100
AcDbEntity
  8
躯体と製品
  6
Continuous
 62
     7
100
AcDbLine
 10
1577.954454774806
 20
965.9593988754389
 30
0.0
 11
1577.875950774806
 21
964.4614538754387
 31
0.0
  0
LINE
  5
6EC1
330
1E
100
AcDbEntity
  8
躯体と製品
  6
Continuous
 62
     7
100
AcDbLine
 10
1577.875950774806
 20
964.4614538754387
 30
0.0
 11
1576.378005774806
 21
964.5399578754389
 31
0.0
  0
LINE
  5
6EC2
330
1E
100
AcDbEntity
  8
躯体と製品
  6
Continuous
 62
     7
100
AcDbLine
 10
1576.574265774806
 20
968.2848188754389
 30
0.0
 11
1576.495761774806
 21
966.7868738754387
 31
0.0
  0
LINE
  5
6EC3
330
1E
100
AcDbEntity
  8
躯体と製品
  6
Continuous
 62
     7
100
AcDbLine
 10
1576.692021774806
 20
970.5317348754388
 30
0.0
 11
1578.150714774806
 21
969.7042568754389
 31
0.0
  0
LINE
  5
6EC4
330
1E
100
AcDbEntity
  8
躯体と製品
  6
Continuous
 62
     7
100
AcDbLine
 10
1578.150714774806
 20
969.7042568754389
 30
0.0
 11
1578.072210774806
 21
968.2063148754387
 31
0.0
  0
LINE
  5
6EC5
330
1E
100
AcDbEntity
  8
躯体と製品
  6
Continuous
 62
     7
100
AcDbLine
 10
1578.072210774806
 20
968.2063148754387
 30
0.0
 11
1576.574265774806
 21
968.2848188754389
 31
0.0
  0
LINE
  5
6EC6
330
1E
100
AcDbEntity
  8
躯体と製品
  6
Continuous
 62
     7
100
AcDbLine
 10
1576.770525774806
 20
972.0296798754388
 30
0.0
 11
1576.692021774806
 21
970.5317348754388
 31
0.0
  0
LINE
  5
6EC7
330
1E
100
AcDbEntity
  8
躯体と製品
  6
Continuous
 62
     7
100
AcDbLine
 10
1576.888281774806
 20
974.2765958754389
 30
0.0
 11
1578.346974774806
 21
973.4491178754387
 31
0.0
  0
LINE
  5
6EC8
330
1E
100
AcDbEntity
  8
躯体と製品
  6
Continuous
 62
     7
100
AcDbLine
 10
1578.346974774806
 20
973.4491178754387
 30
0.0
 11
1578.268470774806
 21
971.9511758754389
 31
0.0
  0
LINE
  5
6EC9
330
1E
100
AcDbEntity
  8
躯体と製品
  6
Continuous
 62
     7
100
AcDbLine
 10
1578.268470774806
 20
971.9511758754389
 30
0.0
 11
1576.770525774806
 21
972.0296798754388
 31
0.0
  0
LINE
  5
6ECA
330
1E
100
AcDbEntity
  8
躯体と製品
  6
Continuous
 62
     7
100
AcDbLine
 10
1576.966785774806
 20
975.7745408754388
 30
0.0
 11
1576.888281774806
 21
974.2765958754389
 31
0.0
  0
LINE
  5
6ECB
330
1E
100
AcDbEntity
  8
躯体と製品
  6
Continuous
 62
     7
100
AcDbLine
 10
1578.543234774806
 20
977.1939788754387
 30
0.0
 11
1578.464730774806
 21
975.6960368754389
 31
0.0
  0
LINE
  5
6ECC
330
1E
100
AcDbEntity
  8
躯体と製品
  6
Continuous
 62
     7
100
AcDbLine
 10
1578.464730774806
 20
975.6960368754389
 30
0.0
 11
1576.966785774806
 21
975.7745408754388
 31
0.0
  0
LINE
  5
6ECD
330
1E
100
AcDbEntity
  8
躯体と製品
  6
Continuous
 62
     7
100
AcDbLine
 10
1576.487952774806
 20
986.8799618754389
 30
0.0
 11
1577.237952774806
 21
983.1299618754389
 31
0.0
  0
LINE
  5
6ECE
330
1E
100
AcDbEntity
  8
躯体と製品
  6
Continuous
 62
     7
100
AcDbLine
 10
1577.237952774806
 20
977.8799618754389
 30
0.0
 11
1578.543234774806
 21
977.1939788754387
 31
0.0
  0
LINE
  5
6ECF
330
1E
100
AcDbEntity
  8
躯体と製品
  6
Continuous
 62
     7
100
AcDbLine
 10
1579.862952774806
 20
980.8799618754388
 30
0.0
 11
1580.237952774806
 21
980.8799618754388
 31
0.0
  0
LINE
  5
6ED0
330
1E
100
AcDbEntity
  8
躯体と製品
  6
Continuous
 62
     7
100
AcDbLine
 10
1583.980143774806
 20
966.7868738754387
 30
0.0
 11
1582.521450774806
 21
965.9593988754389
 31
0.0
  0
LINE
  5
6ED1
330
1E
100
AcDbEntity
  8
躯体と製品
  6
Continuous
 62
     7
100
AcDbLine
 10
1582.521450774806
 20
965.9593988754389
 30
0.0
 11
1582.599954774806
 21
964.4614538754387
 31
0.0
  0
LINE
  5
6ED2
330
1E
100
AcDbEntity
  8
躯体と製品
  6
Continuous
 62
     7
100
AcDbLine
 10
1582.599954774806
 20
964.4614538754387
 30
0.0
 11
1584.097899774806
 21
964.5399578754389
 31
0.0
  0
LINE
  5
6ED3
330
1E
100
AcDbEntity
  8
躯体と製品
  6
Continuous
 62
     7
100
AcDbLine
 10
1583.901639774806
 20
968.2848188754389
 30
0.0
 11
1583.980143774806
 21
966.7868738754387
 31
0.0
  0
LINE
  5
6ED4
330
1E
100
AcDbEntity
  8
躯体と製品
  6
Continuous
 62
     7
100
AcDbLine
 10
1583.783883774806
 20
970.5317348754388
 30
0.0
 11
1582.325190774806
 21
969.7042568754389
 31
0.0
  0
LINE
  5
6ED5
330
1E
100
AcDbEntity
  8
躯体と製品
  6
Continuous
 62
     7
100
AcDbLine
 10
1582.325190774806
 20
969.7042568754389
 30
0.0
 11
1582.403694774806
 21
968.2063148754387
 31
0.0
  0
LINE
  5
6ED6
330
1E
100
AcDbEntity
  8
躯体と製品
  6
Continuous
 62
     7
100
AcDbLine
 10
1582.403694774806
 20
968.2063148754387
 30
0.0
 11
1583.901639774806
 21
968.2848188754389
 31
0.0
  0
LINE
  5
6ED7
330
1E
100
AcDbEntity
  8
躯体と製品
  6
Continuous
 62
     7
100
AcDbLine
 10
1583.705379774806
 20
972.0296798754388
 30
0.0
 11
1583.783883774806
 21
970.5317348754388
 31
0.0
  0
LINE
  5
6ED8
330
1E
100
AcDbEntity
  8
躯体と製品
  6
Continuous
 62
     7
100
AcDbLine
 10
1583.587623774806
 20
974.2765958754389
 30
0.0
 11
1582.128930774806
 21
973.4491178754387
 31
0.0
  0
LINE
  5
6ED9
330
1E
100
AcDbEntity
  8
躯体と製品
  6
Continuous
 62
     7
100
AcDbLine
 10
1582.128930774806
 20
973.4491178754387
 30
0.0
 11
1582.207434774806
 21
971.9511758754389
 31
0.0
  0
LINE
  5
6EDA
330
1E
100
AcDbEntity
  8
躯体と製品
  6
Continuous
 62
     7
100
AcDbLine
 10
1582.207434774806
 20
971.9511758754389
 30
0.0
 11
1583.705379774806
 21
972.0296798754388
 31
0.0
  0
LINE
  5
6EDB
330
1E
100
AcDbEntity
  8
躯体と製品
  6
Continuous
 62
     7
100
AcDbLine
 10
1583.509119774806
 20
975.7745408754388
 30
0.0
 11
1583.587623774806
 21
974.2765958754389
 31
0.0
  0
LINE
  5
6EDC
330
1E
100
AcDbEntity
  8
躯体と製品
  6
Continuous
 62
     7
100
AcDbLine
 10
1581.932670774806
 20
977.1939788754387
 30
0.0
 11
1582.011174774806
 21
975.6960368754389
 31
0.0
  0
LINE
  5
6EDD
330
1E
100
AcDbEntity
  8
躯体と製品
  6
Continuous
 62
     7
100
AcDbLine
 10
1582.011174774806
 20
975.6960368754389
 30
0.0
 11
1583.509119774806
 21
975.7745408754388
 31
0.0
  0
LINE
  5
6EDE
330
1E
100
AcDbEntity
  8
躯体と製品
  6
Continuous
 62
     7
100
AcDbLine
 10
1580.237952774806
 20
983.1299618754389
 30
0.0
 11
1580.237952774806
 21
986.8799618754389
 31
0.0
  0
LINE
  5
6EDF
330
1E
100
AcDbEntity
  8
躯体と製品
  6
Continuous
 62
     7
100
AcDbLine
 10
1579.487952774806
 20
986.8799618754389
 30
0.0
 11
1580.237952774806
 21
983.1299618754389
 31
0.0
  0
LINE
  5
6EE0
330
1E
100
AcDbEntity
  8
躯体と製品
  6
Continuous
 62
     7
100
AcDbLine
 10
1580.987952774806
 20
986.8799618754389
 30
0.0
 11
1580.237952774806
 21
983.1299618754389
 31
0.0
  0
LINE
  5
6EE1
330
1E
100
AcDbEntity
  8
躯体と製品
  6
Continuous
 62
     7
100
AcDbLine
 10
1583.987952774806
 20
986.8799618754389
 30
0.0
 11
1583.237952774806
 21
983.1299618754389
 31
0.0
  0
LINE
  5
6EE2
330
1E
100
AcDbEntity
  8
躯体と製品
  6
Continuous
 62
     7
100
AcDbLine
 10
1583.237952774806
 20
977.8799618754389
 30
0.0
 11
1581.932670774806
 21
977.1939788754387
 31
0.0
  0
LINE
  5
6EE3
330
1E
100
AcDbEntity
  8
躯体と製品
  6
Continuous
 62
     7
100
AcDbLine
 10
1580.612952774806
 20
980.8799618754388
 30
0.0
 11
1580.237952774806
 21
980.8799618754388
 31
0.0
  0
LINE
  5
6EE4
330
1E
100
AcDbEntity
  8
躯体と製品
  6
Continuous
 62
     7
100
AcDbLine
 10
1584.976902774806
 20
975.5231648754389
 30
0.0
 11
1585.721169774806
 21
980.625879875439
 31
0.0
  0
ARC
  5
6EE5
330
1E
100
AcDbEntity
  8
躯体と製品
  6
Continuous
 62
     7
100
AcDbCircle
 10
1585.424310774806
 20
980.6691788754388
 30
0.0
 40
0.2999999999999999
100
AcDbArc
 50
351.7015339999937
 51
81.86989800000221
  0
LINE
  5
6EE6
330
1E
100
AcDbEntity
  8
躯体と製品
  6
Continuous
 62
     7
100
AcDbLine
 10
1585.466736774806
 20
980.966163875439
 30
0.0
 11
1585.319118774806
 21
980.9872508754386
 31
0.0
  0
ARC
  5
6EE7
330
1E
100
AcDbEntity
  8
躯体と製品
  6
Continuous
 62
     7
100
AcDbCircle
 10
1585.276692774806
 20
980.6902688754389
 30
0.0
 40
0.2999999999999999
100
AcDbArc
 50
81.86989800000221
 51
171.8698979999985
  0
LINE
  5
6EE8
330
1E
100
AcDbEntity
  8
躯体と製品
  6
Continuous
 62
     7
100
AcDbLine
 10
1584.979707774806
 20
980.732694875439
 30
0.0
 11
1584.272133774806
 21
975.7796798754389
 31
0.0
  0
LINE
  5
6EE9
330
1E
100
AcDbEntity
  8
躯体と製品
  6
Continuous
 62
     7
100
AcDbLine
 10
1575.499002774806
 20
975.5231648754389
 30
0.0
 11
1574.754735774806
 21
980.625879875439
 31
0.0
  0
ARC
  5
6EEA
330
1E
100
AcDbEntity
  8
躯体と製品
  6
Continuous
 62
     7
100
AcDbCircle
 10
1575.051594774806
 20
980.6691788754388
 30
0.0
 40
0.2999999999999999
100
AcDbArc
 50
98.1301019999849
 51
188.2984659999999
  0
LINE
  5
6EEB
330
1E
100
AcDbEntity
  8
躯体と製品
  6
Continuous
 62
     7
100
AcDbLine
 10
1575.009168774806
 20
980.966163875439
 30
0.0
 11
1575.156786774806
 21
980.9872508754386
 31
0.0
  0
ARC
  5
6EEC
330
1E
100
AcDbEntity
  8
躯体と製品
  6
Continuous
 62
     7
100
AcDbCircle
 10
1575.199212774806
 20
980.6902688754389
 30
0.0
 40
0.2999999999999999
100
AcDbArc
 50
8.130101999991806
 51
98.13010200001116
  0
LINE
  5
6EED
330
1E
100
AcDbEntity
  8
躯体と製品
  6
Continuous
 62
     7
100
AcDbLine
 10
1575.496197774806
 20
980.732694875439
 30
0.0
 11
1576.203771774806
 21
975.7796798754389
 31
0.0
  0
LINE
  5
6EEE
330
1E
100
AcDbEntity
  8
躯体と製品
  6
Continuous
 62
     7
100
AcDbLine
 10
1583.705379774806
 20
972.0296798754388
 30
0.0
 11
1584.976902774806
 21
975.5231648754389
 31
0.0
  0
LINE
  5
6EEF
330
1E
100
AcDbEntity
  8
躯体と製品
  6
Continuous
 62
     7
100
AcDbLine
 10
1576.181745774806
 20
960.7950968754389
 30
0.0
 11
1576.103241774806
 21
959.2971518754389
 31
0.0
  0
LINE
  5
6EF0
330
1E
100
AcDbEntity
  8
躯体と製品
  6
Continuous
 62
     7
100
AcDbLine
 10
1576.299501774806
 20
963.0420128754387
 30
0.0
 11
1577.758194774806
 21
962.2145378754389
 31
0.0
  0
LINE
  5
6EF1
330
1E
100
AcDbEntity
  8
躯体と製品
  6
Continuous
 62
     7
100
AcDbLine
 10
1577.758194774806
 20
962.2145378754389
 30
0.0
 11
1577.679690774806
 21
960.7165928754387
 31
0.0
  0
LINE
  5
6EF2
330
1E
100
AcDbEntity
  8
躯体と製品
  6
Continuous
 62
     7
100
AcDbLine
 10
1577.679690774806
 20
960.7165928754387
 30
0.0
 11
1576.181745774806
 21
960.7950968754389
 31
0.0
  0
LINE
  5
6EF3
330
1E
100
AcDbEntity
  8
躯体と製品
  6
Continuous
 62
     7
100
AcDbLine
 10
1584.294156774806
 20
960.7950968754389
 30
0.0
 11
1584.372660774806
 21
959.2971518754389
 31
0.0
  0
LINE
  5
6EF4
330
1E
100
AcDbEntity
  8
躯体と製品
  6
Continuous
 62
     7
100
AcDbLine
 10
1584.176403774806
 20
963.0420128754387
 30
0.0
 11
1582.717710774806
 21
962.2145378754389
 31
0.0
  0
LINE
  5
6EF5
330
1E
100
AcDbEntity
  8
躯体と製品
  6
Continuous
 62
     7
100
AcDbLine
 10
1582.717710774806
 20
962.2145378754389
 30
0.0
 11
1582.796214774806
 21
960.7165928754387
 31
0.0
  0
LINE
  5
6EF6
330
1E
100
AcDbEntity
  8
躯体と製品
  6
Continuous
 62
     7
100
AcDbLine
 10
1582.796214774806
 20
960.7165928754387
 30
0.0
 11
1584.294156774806
 21
960.7950968754389
 31
0.0
  0
LINE
  5
6EF7
330
1E
100
AcDbEntity
  8
躯体と製品
  6
Continuous
 62
     7
100
AcDbLine
 10
1581.640035774806
 20
961.2820448754389
 30
0.0
 11
1580.237952774806
 21
959.8799618754389
 31
0.0
  0
LINE
  5
6EF8
330
1E
100
AcDbEntity
  8
躯体と製品
  6
Continuous
 62
     7
100
AcDbLine
 10
1576.378005774806
 20
964.5399578754389
 30
0.0
 11
1576.299501774806
 21
963.0420128754387
 31
0.0
  0
LINE
  5
6EF9
330
1E
100
AcDbEntity
  8
躯体と製品
  6
Continuous
 62
     7
100
AcDbLine
 10
1578.724644774806
 20
959.1597698754389
 30
0.0
 11
1576.103241774806
 21
959.2971518754389
 31
0.0
  0
LINE
  5
6EFA
330
1E
100
AcDbEntity
  8
躯体と製品
  6
Continuous
 62
     7
100
AcDbLine
 10
1576.103241774806
 20
959.2971518754389
 30
0.0
 11
1577.522682774806
 21
957.7207028754388
 31
0.0
  0
LINE
  5
6EFB
330
1E
100
AcDbEntity
  8
躯体と製品
  6
Continuous
 62
     7
100
AcDbLine
 10
1577.522682774806
 20
957.7207028754388
 30
0.0
 11
1578.646140774806
 21
957.6618248754387
 31
0.0
  0
LINE
  5
6EFC
330
1E
100
AcDbEntity
  8
躯体と製品
  6
Continuous
 62
     7
100
AcDbLine
 10
1578.646140774806
 20
957.6618248754387
 30
0.0
 11
1579.862952774806
 21
980.8799618754388
 31
0.0
  0
LINE
  5
6EFD
330
1E
100
AcDbEntity
  8
躯体と製品
  6
Continuous
 62
     7
100
AcDbLine
 10
1584.097899774806
 20
964.5399578754389
 30
0.0
 11
1584.176403774806
 21
963.0420128754387
 31
0.0
  0
LINE
  5
6EFE
330
1E
100
AcDbEntity
  8
躯体と製品
  6
Continuous
 62
     7
100
AcDbLine
 10
1581.751260774806
 20
959.1597698754389
 30
0.0
 11
1584.372660774806
 21
959.2971518754389
 31
0.0
  0
LINE
  5
6EFF
330
1E
100
AcDbEntity
  8
躯体と製品
  6
Continuous
 62
     7
100
AcDbLine
 10
1584.372660774806
 20
959.2971518754389
 30
0.0
 11
1582.953222774806
 21
957.7207028754388
 31
0.0
  0
LINE
  5
6F00
330
1E
100
AcDbEntity
  8
躯体と製品
  6
Continuous
 62
     7
100
AcDbLine
 10
1582.953222774806
 20
957.7207028754388
 30
0.0
 11
1581.829764774806
 21
957.6618248754387
 31
0.0
  0
LINE
  5
6F01
330
1E
100
AcDbEntity
  8
躯体と製品
  6
Continuous
 62
     7
100
AcDbLine
 10
1581.829764774806
 20
957.6618248754387
 30
0.0
 11
1580.612952774806
 21
980.8799618754388
 31
0.0
  0
LINE
  5
6F02
330
1E
100
AcDbEntity
  8
躯体と製品
  6
Continuous
 62
     7
100
AcDbLine
 10
1580.237952774806
 20
959.8799618754389
 30
0.0
 11
1578.835868679006
 21
961.2820459712388
 31
0.0
  0
LINE
  5
6F03
330
1E
100
AcDbEntity
  8
躯体と製品
  6
Continuous
 62
     7
100
AcDbLine
 10
1577.237952774806
 20
986.8799618754389
 30
0.0
 11
1577.237952774806
 21
977.8799618754389
 31
0.0
  0
LINE
  5
6F04
330
1E
100
AcDbEntity
  8
躯体と製品
  6
Continuous
 62
     7
100
AcDbLine
 10
1583.237952774806
 20
986.8799618754389
 30
0.0
 11
1583.237952774806
 21
977.8799618754389
 31
0.0
  0
LINE
  5
6F05
330
1E
100
AcDbEntity
  8
躯体と製品
  6
Continuous
 62
     7
100
AcDbLine
 10
1582.891724389906
 20
971.9870379878386
 30
0.0
 11
1584.272133774806
 21
975.7796798754389
 31
0.0
  0
LINE
  5
6F06
330
1E
100
AcDbEntity
  8
躯体と製品
  6
Continuous
 62
     7
100
AcDbLine
 10
1577.584181159706
 20
971.9870379878386
 30
0.0
 11
1576.203771774806
 21
975.7796798754389
 31
0.0
  0
LINE
  5
6F07
330
1E
100
AcDbEntity
  8
躯体と製品
  6
Continuous
 62
     7
100
AcDbLine
 10
1559.237937774806
 20
998.8799618754388
 30
0.0
 11
1560.237937774806
 21
1000.879961277039
 31
0.0
  0
LINE
  5
6F08
330
1E
100
AcDbEntity
  8
躯体と製品
  6
Continuous
 62
     7
100
AcDbLine
 10
1560.237937774806
 20
998.8799618754388
 30
0.0
 11
1559.237937774806
 21
998.8799618754388
 31
0.0
  0
LINE
  5
6F0B
330
1E
100
AcDbEntity
  8
躯体と製品
  6
Continuous
 62
     7
100
AcDbLine
 10
1560.237937774806
 20
990.3799618754389
 30
0.0
 11
1550.737918172806
 21
990.3799618754389
 31
0.0
  0
LINE
  5
6F0C
330
1E
100
AcDbEntity
  8
躯体と製品
  6
Continuous
 62
     7
100
AcDbLine
 10
1560.237937774806
 20
988.8799618754388
 30
0.0
 11
1550.737918172806
 21
988.8799618754388
 31
0.0
  0
LINE
  5
6F0D
330
1E
100
AcDbEntity
  8
躯体と製品
  6
Continuous
 62
     7
100
AcDbLine
 10
1560.131069347806
 20
988.8799618754388
 30
0.0
 11
1558.131069347806
 21
986.8799618754389
 31
0.0
  0
LINE
  5
6F0E
330
1E
100
AcDbEntity
  8
躯体と製品
  6
Continuous
 62
     7
100
AcDbLine
 10
1560.237937774806
 20
987.5726167399387
 30
0.0
 11
1559.545282910206
 21
986.8799618754389
 31
0.0
  0
LINE
  5
6F0F
330
1E
100
AcDbEntity
  8
躯体と製品
  6
Continuous
 62
     7
100
AcDbLine
 10
1514.737910566776
 20
919.8799628754388
 30
0.0
 11
1638.737907566806
 21
919.8799628754388
 31
0.0
  0
LINE
  5
6F10
330
1E
100
AcDbEntity
  8
躯体と製品
  6
Continuous
 62
     7
100
AcDbLine
 10
1652.237938774806
 20
986.8799618754389
 30
0.0
 11
1514.737910566776
 21
986.8799618754389
 31
0.0
  0
TEXT
  5
6F1C
330
1E
100
AcDbEntity
  8
図枠
 62
     7
100
AcDbText
 10
1572.761734148006
 20
659.5072204574389
 30
0.0
 40
9.599999999999999
  1
ＵＵＨセンタープレート(Ｅ)Ｓ
100
AcDbText
  0
CIRCLE
  5
6F1F
330
1E
100
AcDbEntity
  8
図枠
  6
Continuous
 62
     7
100
AcDbCircle
 10
1926.585183292506
 20
1021.981282339039
 30
0.0
 40
5.0
  0
LINE
  5
6F20
330
1E
100
AcDbEntity
  8
図枠
  6
Continuous
 62
     7
100
AcDbLine
 10
1945.118889303606
 20
989.8799618754388
 30
0.0
 11
1929.085183292506
 21
1017.651155320139
 31
0.0
  0
CIRCLE
  5
6F21
330
1E
100
AcDbEntity
  8
図枠
  6
Continuous
 62
     7
100
AcDbCircle
 10
1945.118889303606
 20
989.8799618754388
 30
0.0
 40
2.1
  0
CIRCLE
  5
6F22
330
1E
100
AcDbEntity
  8
図枠
  6
Continuous
 62
     7
100
AcDbCircle
 10
1950.184184785906
 20
1025.727974704139
 30
0.0
 40
5.0
  0
TEXT
  5
6F23
330
1E
100
AcDbEntity
  8
図枠
 62
     7
100
AcDbText
 10
1946.434184785906
 20
1021.977974704139
 30
0.0
 40
7.5
  1
８
100
AcDbText
  0
LINE
  5
6F24
330
1E
100
AcDbEntity
  8
図枠
  6
Continuous
 62
     7
100
AcDbLine
 10
1961.066090066306
 20
1006.879961875439
 30
0.0
 11
1952.684184785906
 21
1021.397847685239
 31
0.0
  0
CIRCLE
  5
6F25
330
1E
100
AcDbEntity
  8
図枠
  6
Continuous
 62
     7
100
AcDbCircle
 10
1961.066090066306
 20
1006.879961875439
 30
0.0
 40
2.1
  0
TEXT
  5
6F26
330
1E
100
AcDbEntity
  8
図枠
 62
     7
100
AcDbText
 10
1922.835183292506
 20
1018.231282339039
 30
0.0
 40
7.5
  1
９
100
AcDbText
  0
CIRCLE
  5
6F27
330
1E
100
AcDbEntity
  8
図枠
  6
Continuous
 62
     7
100
AcDbCircle
 10
1685.595005730506
 20
981.1074868545388
 30
0.0
 40
5.0
  0
LINE
  5
6F28
330
1E
100
AcDbEntity
  8
図枠
  6
Continuous
 62
     7
100
AcDbLine
 10
1676.488763031406
 20
996.8799618754388
 30
0.0
 11
1683.095005730506
 21
985.4376138734389
 31
0.0
  0
CIRCLE
  5
6F29
330
1E
100
AcDbEntity
  8
図枠
  6
Continuous
 62
     7
100
AcDbCircle
 10
1676.488763031406
 20
996.8799618754388
 30
0.0
 40
2.1
  0
TEXT
  5
6F2A
330
1E
100
AcDbEntity
  8
図枠
 62
     7
100
AcDbText
 10
1681.845005730506
 20
977.3574868545388
 30
0.0
 40
7.5
  1
２
100
AcDbText
  0
CIRCLE
  5
6F2B
330
1E
100
AcDbEntity
  8
図枠
  6
Continuous
 62
     7
100
AcDbCircle
 10
1662.100895016906
 20
963.8789531672388
 30
0.0
 40
5.0
  0
LINE
  5
6F2C
330
1E
100
AcDbEntity
  8
図枠
  6
Continuous
 62
     7
100
AcDbLine
 10
1648.821256447606
 20
986.8799618754389
 30
0.0
 11
1659.600895016906
 21
968.2090801861388
 31
0.0
  0
CIRCLE
  5
6F2D
330
1E
100
AcDbEntity
  8
図枠
  6
Continuous
 62
     7
100
AcDbCircle
 10
1648.821256447606
 20
986.8799618754389
 30
0.0
 40
2.1
  0
TEXT
  5
6F2E
330
1E
100
AcDbEntity
  8
図枠
 62
     7
100
AcDbText
 10
1658.350895016906
 20
960.1289531672389
 30
0.0
 40
7.5
  1
３
100
AcDbText
  0
CIRCLE
  5
6F2F
330
1E
100
AcDbEntity
  8
図枠
  6
Continuous
 62
     7
100
AcDbCircle
 10
1543.323418281906
 20
900.5033356575388
 30
0.0
 40
5.0
  0
LINE
  5
6F30
330
1E
100
AcDbEntity
  8
図枠
  6
Continuous
 62
     7
100
AcDbLine
 10
1576.812962274806
 20
958.5089273754388
 30
0.0
 11
1545.823418281906
 21
904.8334626764388
 31
0.0
  0
CIRCLE
  5
6F31
330
1E
100
AcDbEntity
  8
図枠
  6
Continuous
 62
     7
100
AcDbCircle
 10
1576.812962274806
 20
958.5089273754388
 30
0.0
 40
2.1
  0
TEXT
  5
6F32
330
1E
100
AcDbEntity
  8
図枠
 62
     7
100
AcDbText
 10
1539.573418281906
 20
896.7533356575389
 30
0.0
 40
7.5
  1
４
100
AcDbText
  0
CIRCLE
  5
6F33
330
1E
100
AcDbEntity
  8
図枠
  6
Continuous
 62
     7
100
AcDbCircle
 10
1536.867734042506
 20
1017.814760829739
 30
0.0
 40
5.0
  0
TEXT
  5
6F34
330
1E
100
AcDbEntity
  8
図枠
 62
     7
100
AcDbText
 10
1533.117734042506
 20
1014.064760829739
 30
0.0
 40
7.5
  1
５
100
AcDbText
  0
LINE
  5
6F35
330
1E
100
AcDbEntity
  8
図枠
  6
Continuous
 62
     7
100
AcDbLine
 10
1553.573248007706
 20
988.8799618754388
 30
0.0
 11
1539.367734042506
 21
1013.484633810839
 31
0.0
  0
CIRCLE
  5
6F36
330
1E
100
AcDbEntity
  8
図枠
  6
Continuous
 62
     7
100
AcDbCircle
 10
1553.573248007706
 20
988.8799618754388
 30
0.0
 40
2.1
  0
CIRCLE
  5
6F37
330
1E
100
AcDbEntity
  8
図枠
  6
Continuous
 62
     7
100
AcDbCircle
 10
1659.306556042706
 20
1017.462311714039
 30
0.0
 40
5.0
  0
LINE
  5
6F38
330
1E
100
AcDbEntity
  8
図枠
  6
Continuous
 62
     7
100
AcDbLine
 10
1650.237913002406
 20
1001.754961212539
 30
0.0
 11
1656.806556042706
 21
1013.132184695139
 31
0.0
  0
CIRCLE
  5
6F39
330
1E
100
AcDbEntity
  8
図枠
  6
Continuous
 62
     7
100
AcDbCircle
 10
1650.237913002406
 20
1001.754961212539
 30
0.0
 40
2.1
  0
TEXT
  5
6F3A
330
1E
100
AcDbEntity
  8
図枠
 62
     7
100
AcDbText
 10
1655.556556042706
 20
1013.712311714039
 30
0.0
 40
7.5
  1
６
100
AcDbText
  0
CIRCLE
  5
6F3B
330
1E
100
AcDbEntity
  8
図枠
  6
Continuous
 62
     7
100
AcDbCircle
 10
1598.366195095106
 20
1019.694132285139
 30
0.0
 40
5.0
  0
TEXT
  5
6F3C
330
1E
100
AcDbEntity
  8
図枠
 62
     7
100
AcDbText
 10
1594.616195095106
 20
1015.944132285139
 30
0.0
 40
7.5
  1
７
100
AcDbText
  0
LINE
  5
6F3D
330
1E
100
AcDbEntity
  8
図枠
  6
Continuous
 62
     7
100
AcDbLine
 10
1582.500203118806
 20
992.213428069739
 30
0.0
 11
1595.866195095106
 21
1015.364005266238
 31
0.0
  0
CIRCLE
  5
6F3E
330
1E
100
AcDbEntity
  8
図枠
  6
Continuous
 62
     7
100
AcDbCircle
 10
1582.500203118806
 20
992.213428069739
 30
0.0
 40
2.1
  0
CIRCLE
  5
6F3F
330
1E
100
AcDbEntity
  8
図枠
  6
Continuous
 62
     7
100
AcDbCircle
 10
1591.324945349306
 20
1032.434398980139
 30
0.0
 40
5.0
  0
TEXT
  5
6F40
330
1E
100
AcDbEntity
  8
図枠
 62
     7
100
AcDbText
 10
1589.449945349306
 20
1028.684398980138
 30
0.0
 40
7.5
  1
1
100
AcDbText
  0
LINE
  5
6F41
330
1E
100
AcDbEntity
  8
図枠
  6
Continuous
 62
     7
100
AcDbLine
 10
1576.571084207906
 20
1006.879961875439
 30
0.0
 11
1588.824945349306
 21
1028.104271961138
 31
0.0
  0
CIRCLE
  5
6F42
330
1E
100
AcDbEntity
  8
図枠
  6
Continuous
 62
     7
100
AcDbCircle
 10
1576.571084207906
 20
1006.879961875439
 30
0.0
 40
2.1
  0
LINE
  5
6F43
330
1E
100
AcDbEntity
  8
躯体と製品
  6
Continuous
 62
     7
100
AcDbLine
 10
1918.853934470506
 20
998.4469491735389
 30
0.0
 11
1927.398163104606
 21
1003.379961875439
 31
0.0
  0
ARC
  5
6F44
330
1E
100
AcDbEntity
  8
躯体と製品
  6
Continuous
 62
     7
100
AcDbCircle
 10
1918.603934470506
 20
998.8799618754388
 30
0.0
 40
0.5
100
AcDbArc
 50
270.0
 51
299.999999999986
  0
LINE
  5
6F45
330
1E
100
AcDbEntity
  8
躯体と製品
  6
Continuous
 62
     7
100
AcDbLine
 10
1608.621883663006
 20
998.4469491735389
 30
0.0
 11
1600.077655028906
 21
1003.379961875439
 31
0.0
  0
LINE
  5
6F46
330
1E
100
AcDbEntity
  8
躯体と製品
  6
Continuous
 62
     7
100
AcDbLine
 10
1918.603934470506
 20
998.3799618754389
 30
0.0
 11
1608.871883663006
 21
998.3799618754389
 31
0.0
  0
ARC
  5
6F47
330
1E
100
AcDbEntity
  8
躯体と製品
  6
Continuous
 62
     7
100
AcDbCircle
 10
1608.871883663006
 20
998.8799618754388
 30
0.0
 40
0.5
100
AcDbArc
 50
239.9999999999995
 51
270.0
  0
LINE
  5
6F48
330
1E
100
AcDbEntity
  8
躯体と製品
  6
Continuous
 62
     7
100
AcDbLine
 10
1919.603934470506
 20
997.1479110678387
 30
0.0
 11
1928.148163104606
 21
1002.080923769739
 31
0.0
  0
LINE
  5
6F49
330
1E
100
AcDbEntity
  8
躯体と製品
  6
Continuous
 62
     7
100
AcDbLine
 10
1918.603934470506
 20
996.8799618754388
 30
0.0
 11
1608.871883663006
 21
996.8799618754388
 31
0.0
  0
ARC
  5
6F4A
330
1E
100
AcDbEntity
  8
躯体と製品
  6
Continuous
 62
     7
100
AcDbCircle
 10
1918.603934470506
 20
998.8799618754388
 30
0.0
 40
2.0
100
AcDbArc
 50
270.0
 51
299.999999999986
  0
LINE
  5
6F4B
330
1E
100
AcDbEntity
  8
躯体と製品
  6
Continuous
 62
     7
100
AcDbLine
 10
1927.398163104606
 20
1003.379961875439
 30
0.0
 11
1928.148163104606
 21
1002.080923769739
 31
0.0
  0
ARC
  5
6F4C
330
1E
100
AcDbEntity
  8
躯体と製品
  6
Continuous
 62
     7
100
AcDbCircle
 10
1608.871883663006
 20
998.8799618754388
 30
0.0
 40
2.0
100
AcDbArc
 50
239.9999999999995
 51
270.0
  0
LINE
  5
6F4D
330
1E
100
AcDbEntity
  8
躯体と製品
  6
Continuous
 62
     7
100
AcDbLine
 10
1607.871883663006
 20
997.1479110678387
 30
0.0
 11
1599.327655028906
 21
1002.080923769739
 31
0.0
  0
LINE
  5
6F4E
330
1E
100
AcDbEntity
  8
躯体と製品
  6
Continuous
 62
     7
100
AcDbLine
 10
1600.077655028906
 20
1003.379961875439
 30
0.0
 11
1599.327655028906
 21
1002.080923769739
 31
0.0
  0
LINE
  5
6F4F
330
1E
100
AcDbEntity
  8
図枠
  6
Continuous
 62
     7
100
AcDbLine
 10
2611.001158014788
 20
1225.307208457439
 30
0.0
 11
1486.662057668767
 21
1225.307208457439
 31
0.0
  0
LINE
  5
6F50
330
1E
100
AcDbEntity
  8
図枠
  6
Continuous
 62
     7
100
AcDbLine
 10
2550.804176038293
 20
561.7745012960772
 30
0.0
 11
2124.354176038292
 21
561.7745012960772
 31
0.0
  0
LINE
  5
6F51
330
1E
100
AcDbEntity
  8
図枠
  6
Continuous
 62
     7
100
AcDbLine
 10
2550.804176038293
 20
579.7745012960772
 30
0.0
 11
2124.354176038292
 21
579.7745012960772
 31
0.0
  0
LINE
  5
6F52
330
1E
100
AcDbEntity
  8
図枠
  6
Continuous
 62
     7
100
AcDbLine
 10
2550.804176038293
 20
687.7745012960772
 30
0.0
 11
2124.354176038292
 21
687.7745012960772
 31
0.0
  0
LINE
  5
6F53
330
1E
100
AcDbEntity
  8
図枠
  6
Continuous
 62
     7
100
AcDbLine
 10
2550.804176038293
 20
669.7745012960772
 30
0.0
 11
2124.354176038292
 21
669.7745012960772
 31
0.0
  0
LINE
  5
6F54
330
1E
100
AcDbEntity
  8
図枠
  6
Continuous
 62
     7
100
AcDbLine
 10
2550.804176038293
 20
651.7745012960772
 30
0.0
 11
2124.354176038292
 21
651.7745012960772
 31
0.0
  0
LINE
  5
6F55
330
1E
100
AcDbEntity
  8
図枠
  6
Continuous
 62
     7
100
AcDbLine
 10
2550.804176038293
 20
633.7745012960772
 30
0.0
 11
2124.354176038292
 21
633.7745012960772
 31
0.0
  0
LINE
  5
6F56
330
1E
100
AcDbEntity
  8
図枠
  6
Continuous
 62
     7
100
AcDbLine
 10
2550.804176038293
 20
615.7745012960771
 30
0.0
 11
2124.354176038292
 21
615.7745012960771
 31
0.0
  0
LINE
  5
6F57
330
1E
100
AcDbEntity
  8
図枠
  6
Continuous
 62
     7
100
AcDbLine
 10
2550.804176038293
 20
597.7745012960772
 30
0.0
 11
2124.354176038292
 21
597.7745012960772
 31
0.0
  0
LINE
  5
6F58
330
1E
100
AcDbEntity
  8
図枠
  6
Continuous
 62
     7
100
AcDbLine
 10
2550.804176038293
 20
720.1745012960773
 30
0.0
 11
2124.354176038292
 21
720.1745012960773
 31
0.0
  0
LINE
  5
6F59
330
1E
100
AcDbEntity
  8
躯体と製品
  6
CENTER2_22
 62
     7
100
AcDbLine
 10
2340.530371957092
 20
982.7472547140772
 30
0.0
 11
2340.530371957092
 21
1002.747254714077
 31
0.0
  0
LINE
  5
6F5A
330
1E
100
AcDbEntity
  8
図枠
  6
Continuous
 62
     7
100
AcDbLine
 10
2550.804176038293
 20
525.7745012960772
 30
0.0
 11
2124.354176038292
 21
525.7745012960772
 31
0.0
  0
LINE
  5
6F5B
330
1E
100
AcDbEntity
  8
図枠
  6
Continuous
 62
     7
100
AcDbLine
 10
2550.804176038293
 20
543.7745012960772
 30
0.0
 11
2124.354176038292
 21
543.7745012960772
 31
0.0
  0
LINE
  5
6F5C
330
1E
100
AcDbEntity
  8
図枠
  6
Continuous
 62
     7
100
AcDbLine
 10
2124.354176038292
 20
525.7745012960772
 30
0.0
 11
2124.354176038292
 21
720.1745012960773
 31
0.0
  0
LINE
  5
6F5D
330
1E
100
AcDbEntity
  8
図枠
  6
Continuous
 62
     7
100
AcDbLine
 10
2145.954176038292
 20
525.7745012960772
 30
0.0
 11
2145.954176038292
 21
720.1745012960773
 31
0.0
  0
LINE
  5
6F5E
330
1E
100
AcDbEntity
  8
図枠
  6
Continuous
 62
     7
100
AcDbLine
 10
2316.954176038293
 20
525.7745012960772
 30
0.0
 11
2316.954176038293
 21
720.1745012960773
 31
0.0
  0
LINE
  5
6F5F
330
1E
100
AcDbEntity
  8
図枠
  6
Continuous
 62
     7
100
AcDbLine
 10
2550.804176038293
 20
525.7745012960772
 30
0.0
 11
2550.804176038293
 21
720.1745012960773
 31
0.0
  0
LINE
  5
6F60
330
1E
100
AcDbEntity
  8
図枠
  6
Continuous
 62
     7
100
AcDbLine
 10
2529.204176038293
 20
525.7745012960772
 30
0.0
 11
2529.204176038293
 21
720.1745012960773
 31
0.0
  0
LINE
  5
6F61
330
1E
100
AcDbEntity
  8
図枠
  6
Continuous
 62
     7
100
AcDbLine
 10
2493.204176038293
 20
525.7745012960772
 30
0.0
 11
2493.204176038293
 21
720.1745012960773
 31
0.0
  0
LINE
  5
6F62
330
1E
100
AcDbEntity
  8
図枠
  6
Continuous
 62
     7
100
AcDbLine
 10
2448.204176038293
 20
525.7745012960772
 30
0.0
 11
2448.204176038293
 21
720.1745012960773
 31
0.0
  0
LINE
  5
6F63
330
1E
100
AcDbEntity
  8
図枠
  6
Continuous
 62
     7
100
AcDbLine
 10
2445.204176038293
 20
525.7745012960772
 30
0.0
 11
2445.204176038293
 21
720.1745012960773
 31
0.0
  0
LINE
  5
6F6C
330
1E
100
AcDbEntity
  8
躯体と製品
  6
Continuous
 62
     7
100
AcDbLine
 10
2490.530371956993
 20
915.7472557140772
 30
0.0
 11
2490.530371956993
 21
982.7472547140772
 31
0.0
  0
LINE
  5
6F6D
330
1E
100
AcDbEntity
  8
躯体と製品
  6
Continuous
 62
     7
100
AcDbLine
 10
2589.530368956993
 20
915.7472557140772
 30
0.0
 11
2490.530371956993
 21
915.7472557140772
 31
0.0
  0
LINE
  5
6F6E
330
1E
100
AcDbEntity
  8
躯体と製品
  6
Continuous
 62
     7
100
AcDbLine
 10
2560.120696255092
 20
915.7472557140772
 30
0.0
 11
2589.530368956993
 21
945.1569284159772
 31
0.0
  0
LINE
  5
6F6F
330
1E
100
AcDbEntity
  8
躯体と製品
  6
Continuous
 62
     7
100
AcDbLine
 10
2557.292269130393
 20
915.7472557140772
 30
0.0
 11
2589.530368956993
 21
947.9853555407771
 31
0.0
  0
LINE
  5
6F70
330
1E
100
AcDbEntity
  8
躯体と製品
  6
Continuous
 62
     7
100
AcDbLine
 10
2554.463842005592
 20
915.7472557140772
 30
0.0
 11
2589.530368956993
 21
950.8137826654772
 31
0.0
  0
LINE
  5
6F71
330
1E
100
AcDbEntity
  8
躯体と製品
  6
Continuous
 62
     7
100
AcDbLine
 10
2524.765357195793
 20
915.7472557140772
 30
0.0
 11
2589.530368956993
 21
980.5122674752771
 31
0.0
  0
LINE
  5
6F72
330
1E
100
AcDbEntity
  8
躯体と製品
  6
Continuous
 62
     7
100
AcDbLine
 10
2588.936929070993
 20
982.7472547140772
 30
0.0
 11
2521.936930070993
 21
915.7472557140772
 31
0.0
  0
LINE
  5
6F73
330
1E
100
AcDbEntity
  8
躯体と製品
  6
Continuous
 62
     7
100
AcDbLine
 10
2519.108502946293
 20
915.7472557140772
 30
0.0
 11
2586.108501946293
 21
982.7472547140772
 31
0.0
  0
LINE
  5
6F74
330
1E
100
AcDbEntity
  8
躯体と製品
  6
Continuous
 62
     7
100
AcDbLine
 10
2515.397823827592
 20
982.7472547140772
 30
0.0
 11
2490.464097892293
 21
957.8135287787771
 31
0.0
  0
LINE
  5
6F75
330
1E
100
AcDbEntity
  8
躯体と製品
  6
Continuous
 62
     7
100
AcDbLine
 10
2518.226250952393
 20
982.7472547140772
 30
0.0
 11
2490.530371956993
 21
955.0513757186772
 31
0.0
  0
LINE
  5
6F76
330
1E
100
AcDbEntity
  8
躯体と製品
  6
Continuous
 62
     7
100
AcDbLine
 10
2521.054678077093
 20
982.7472547140772
 30
0.0
 11
2490.530371956993
 21
952.2229485939773
 31
0.0
  0
LINE
  5
6F77
330
1E
100
AcDbEntity
  8
躯体と製品
  6
Continuous
 62
     7
100
AcDbLine
 10
2550.753162886993
 20
982.7472547140772
 30
0.0
 11
2490.530371956993
 21
922.5244637841772
 31
0.0
  0
LINE
  5
6F78
330
1E
100
AcDbEntity
  8
躯体と製品
  6
Continuous
 62
     7
100
AcDbLine
 10
2553.581590011692
 20
982.7472547140772
 30
0.0
 11
2490.530371956993
 21
919.6960366593772
 31
0.0
  0
LINE
  5
6F79
330
1E
100
AcDbEntity
  8
躯体と製品
  6
Continuous
 62
     7
100
AcDbLine
 10
2556.410017136393
 20
982.7472547140772
 30
0.0
 11
2490.530371956993
 21
916.8676095346771
 31
0.0
  0
ARC
  5
6F7F
330
1E
100
AcDbEntity
  8
躯体と製品
  6
Continuous
 62
     7
100
AcDbCircle
 10
2455.030364570693
 20
995.2472547140772
 30
0.0
 40
0.9999999999998999
100
AcDbArc
 50
180.0000434059011
 51
270.0
  0
ARC
  5
6F80
330
1E
100
AcDbEntity
  8
躯体と製品
  6
Continuous
 62
     7
100
AcDbCircle
 10
2457.530366085793
 20
995.2472547140772
 30
0.0
 40
0.9999999999998999
100
AcDbArc
 50
270.0
 51
0.000043405901159
  0
ARC
  5
6F81
330
1E
100
AcDbEntity
  8
躯体と製品
  6
Continuous
 62
     7
100
AcDbCircle
 10
2454.780359078192
 20
999.9972547140773
 30
0.0
 40
0.7499999999998999
100
AcDbArc
 50
0.000043405901159
 51
180.0000434062008
  0
ARC
  5
6F82
330
1E
100
AcDbEntity
  8
躯体と製品
  6
Continuous
 62
     7
100
AcDbCircle
 10
2457.780359078193
 20
998.4972547140772
 30
0.0
 40
0.7499999999998999
100
AcDbArc
 50
0.0000000000260551
 51
180.0000434059011
  0
LINE
  5
6F83
330
1E
100
AcDbEntity
  8
躯体と製品
  6
Continuous
 62
     7
100
AcDbLine
 10
2454.030364722193
 20
999.9972541458774
 30
0.0
 11
2454.030368320692
 21
995.2472539564773
 31
0.0
  0
LINE
  5
6F84
330
1E
100
AcDbEntity
  8
躯体と製品
  6
Continuous
 62
     7
100
AcDbLine
 10
2458.530365858493
 20
998.4972547140772
 30
0.0
 11
2458.530368320693
 21
995.247255471577
 31
0.0
  0
LINE
  5
6F85
330
1E
100
AcDbEntity
  8
躯体と製品
  6
Continuous
 62
     7
100
AcDbLine
 10
2457.030359078193
 20
995.7472547140772
 30
0.0
 11
2455.530359078192
 21
995.7472547140772
 31
0.0
  0
LINE
  5
6F86
330
1E
100
AcDbEntity
  8
躯体と製品
  6
CENTER2_22
 62
     7
100
AcDbLine
 10
2540.530342127793
 20
982.7472547140772
 30
0.0
 11
2540.530342127793
 21
1005.097154917377
 31
0.0
  0
LINE
  5
6F87
330
1E
100
AcDbEntity
  8
躯体と製品
  6
Continuous
 62
     7
100
AcDbLine
 10
2455.530359078192
 20
995.7472547140772
 30
0.0
 11
2455.530359078192
 21
1000.747254714077
 31
0.0
  0
ARC
  5
6F88
330
1E
100
AcDbEntity
  8
躯体と製品
  6
Continuous
 62
     7
100
AcDbCircle
 10
2457.530359078193
 20
1000.747254714077
 30
0.0
 40
2.0
100
AcDbArc
 50
90.0
 51
180.0
  0
LINE
  5
6F89
330
1E
100
AcDbEntity
  8
躯体と製品
  6
Continuous
 62
     7
100
AcDbLine
 10
2457.030359078193
 20
995.7472547140772
 30
0.0
 11
2457.030359078193
 21
1000.747254714077
 31
0.0
  0
ARC
  5
6F8A
330
1E
100
AcDbEntity
  8
躯体と製品
  6
Continuous
 62
     7
100
AcDbCircle
 10
2457.530359078193
 20
1000.747254714077
 30
0.0
 40
0.5
100
AcDbArc
 50
90.0
 51
180.0
  0
ARC
  5
6F8B
330
1E
100
AcDbEntity
  8
躯体と製品
  6
Continuous
 62
     7
100
AcDbCircle
 10
2553.530361350992
 20
986.7472486533772
 30
0.0
 40
0.5
100
AcDbArc
 50
270.0
 51
359.9999565941184
  0
ARC
  5
6F8C
330
1E
100
AcDbEntity
  8
躯体と製品
  6
Continuous
 62
     7
100
AcDbCircle
 10
2553.530361350992
 20
986.7472486533772
 30
0.0
 40
2.0
100
AcDbArc
 50
270.0
 51
359.9999565941086
  0
LINE
  5
6F8D
330
1E
100
AcDbEntity
  8
躯体と製品
  6
Continuous
 62
     7
100
AcDbLine
 10
2554.030342127793
 20
984.8107520169772
 30
0.0
 11
2554.030342127793
 21
982.7472547140772
 31
0.0
  0
LINE
  5
6F8E
330
1E
100
AcDbEntity
  8
躯体と製品
  6
Continuous
 62
     7
100
AcDbLine
 10
2551.180833392493
 20
984.7472547140773
 30
0.0
 11
2549.180833392493
 21
982.7472547140772
 31
0.0
  0
LINE
  5
6F8F
330
1E
100
AcDbEntity
  8
躯体と製品
  6
Continuous
 62
     7
100
AcDbLine
 10
2554.030342127793
 20
983.3541227621772
 30
0.0
 11
2553.423474079693
 21
982.7472547140772
 31
0.0
  0
LINE
  5
6F90
330
1E
100
AcDbEntity
  8
躯体と製品
  6
Continuous
 62
     7
100
AcDbLine
 10
2552.595046954893
 20
984.7472547140773
 30
0.0
 11
2550.595046954893
 21
982.7472547140772
 31
0.0
  0
LINE
  5
6F91
330
1E
100
AcDbEntity
  8
躯体と製品
  6
Continuous
 62
     7
100
AcDbLine
 10
2549.766619830193
 20
984.7472547140773
 30
0.0
 11
2547.766619830193
 21
982.7472547140772
 31
0.0
  0
LINE
  5
6F92
330
1E
100
AcDbEntity
  8
躯体と製品
  6
Continuous
 62
     7
100
AcDbLine
 10
2548.352406267793
 20
984.7472547140773
 30
0.0
 11
2546.352406267793
 21
982.7472547140772
 31
0.0
  0
LINE
  5
6F93
330
1E
100
AcDbEntity
  8
躯体と製品
  6
Continuous
 62
     7
100
AcDbLine
 10
2554.030342127793
 20
984.7683363245772
 30
0.0
 11
2552.009260517293
 21
982.7472547140772
 31
0.0
  0
LINE
  5
6F94
330
1E
100
AcDbEntity
  8
躯体と製品
  6
Continuous
 62
     7
100
AcDbLine
 10
2457.530359078193
 20
1002.747254714077
 30
0.0
 11
2553.530371578193
 21
1002.747254714077
 31
0.0
  0
LINE
  5
6F95
330
1E
100
AcDbEntity
  8
躯体と製品
  6
Continuous
 62
     7
100
AcDbLine
 10
2555.530371956993
 20
1000.747253198877
 30
0.0
 11
2555.530361350993
 21
986.7472471382772
 31
0.0
  0
ARC
  5
6F96
330
1E
100
AcDbEntity
  8
躯体と製品
  6
Continuous
 62
     7
100
AcDbCircle
 10
2553.530371578193
 20
1000.747254714077
 30
0.0
 40
2.0
100
AcDbArc
 50
359.9999565941021
 51
90.0
  0
LINE
  5
6F97
330
1E
100
AcDbEntity
  8
躯体と製品
  6
Continuous
 62
     7
100
AcDbLine
 10
2457.530359078193
 20
1001.247254714077
 30
0.0
 11
2553.530371578193
 21
1001.247254714077
 31
0.0
  0
LINE
  5
6F98
330
1E
100
AcDbEntity
  8
躯体と製品
  6
Continuous
 62
     7
100
AcDbLine
 10
2554.030371956993
 20
1000.747254335277
 30
0.0
 11
2554.030361350993
 21
986.7472482746771
 31
0.0
  0
ARC
  5
6F99
330
1E
100
AcDbEntity
  8
躯体と製品
  6
Continuous
 62
     7
100
AcDbCircle
 10
2553.530371578193
 20
1000.747254714077
 30
0.0
 40
0.5
100
AcDbArc
 50
359.9999565940988
 51
90.0
  0
LINE
  5
6F9A
330
1E
100
AcDbEntity
  8
躯体と製品
  6
Continuous
 62
     7
100
AcDbLine
 10
2535.430342127793
 20
1002.747254714077
 30
0.0
 11
2535.430342127793
 21
1002.447254714077
 31
0.0
  0
LINE
  5
6F9B
330
1E
100
AcDbEntity
  8
躯体と製品
  6
Continuous
 62
     7
100
AcDbLine
 10
2535.430342127793
 20
1002.447254714077
 30
0.0
 11
2537.763676127793
 21
1000.447256714077
 31
0.0
  0
LINE
  5
6F9C
330
1E
100
AcDbEntity
  8
躯体と製品
  6
Continuous
 62
     7
100
AcDbLine
 10
2535.430342127793
 20
1002.447254714077
 30
0.0
 11
2542.630342127793
 21
1002.447254714077
 31
0.0
  0
LINE
  5
6F9D
330
1E
100
AcDbEntity
  8
躯体と製品
  6
Continuous
 62
     7
100
AcDbLine
 10
2542.630342127793
 20
1002.747254714077
 30
0.0
 11
2542.630342127793
 21
1002.447254714077
 31
0.0
  0
LINE
  5
6F9E
330
1E
100
AcDbEntity
  8
躯体と製品
  6
Continuous
 62
     7
100
AcDbLine
 10
2542.630342127793
 20
1002.447254714077
 30
0.0
 11
2540.297008127793
 21
1000.447256714077
 31
0.0
  0
ARC
  5
6F9F
330
1E
100
AcDbEntity
  8
躯体と製品
  6
Continuous
 62
     7
100
AcDbCircle
 10
2542.030342127793
 20
984.7472547140773
 30
0.0
 40
0.5
100
AcDbArc
 50
270.0
 51
0.0
  0
ARC
  5
6FA0
330
1E
100
AcDbEntity
  8
躯体と製品
  6
Continuous
 62
     7
100
AcDbCircle
 10
2543.530342127793
 20
1000.747254714077
 30
0.0
 40
0.5
100
AcDbArc
 50
0.0
 51
90.0
  0
LINE
  5
6FA1
330
1E
100
AcDbEntity
  8
躯体と製品
  6
Continuous
 62
     7
100
AcDbLine
 10
2544.030342127793
 20
982.7472547140772
 30
0.0
 11
2544.030342127793
 21
994.7472547140773
 31
0.0
  0
LINE
  5
6FA2
330
1E
100
AcDbEntity
  8
躯体と製品
  6
Continuous
 62
     7
100
AcDbLine
 10
2544.030342127793
 20
996.7472541156773
 30
0.0
 11
2544.030342127793
 21
1000.747254714077
 31
0.0
  0
ARC
  5
6FA3
330
1E
100
AcDbEntity
  8
躯体と製品
  6
Continuous
 62
     7
100
AcDbCircle
 10
2542.030342127793
 20
984.7472547140773
 30
0.0
 40
0.5
100
AcDbArc
 50
270.0
 51
0.0
  0
ARC
  5
6FA4
330
1E
100
AcDbEntity
  8
躯体と製品
  6
Continuous
 62
     7
100
AcDbCircle
 10
2536.030342127793
 20
999.7472547140771
 30
0.0
 40
2.0
100
AcDbArc
 50
180.0
 51
270.0
  0
ARC
  5
6FA5
330
1E
100
AcDbEntity
  8
躯体と製品
  6
Continuous
 62
     7
100
AcDbCircle
 10
2543.030342127793
 20
1000.747254714077
 30
0.0
 40
0.5
100
AcDbArc
 50
90.0
 51
180.0
  0
ARC
  5
6FA6
330
1E
100
AcDbEntity
  8
躯体と製品
  6
Continuous
 62
     7
100
AcDbCircle
 10
2535.030342127793
 20
1000.747254714077
 30
0.0
 40
0.5
100
AcDbArc
 50
0.0
 51
90.0
  0
LINE
  5
6FA7
330
1E
100
AcDbEntity
  8
躯体と製品
  6
Continuous
 62
     7
100
AcDbLine
 10
2534.030342127793
 20
1000.747254714077
 30
0.0
 11
2534.030342127793
 21
999.7472547140771
 31
0.0
  0
ARC
  5
6FA8
330
1E
100
AcDbEntity
  8
躯体と製品
  6
Continuous
 62
     7
100
AcDbCircle
 10
2534.530342127793
 20
1000.747254714077
 30
0.0
 40
0.5
100
AcDbArc
 50
90.0
 51
180.0
  0
LINE
  5
6FA9
330
1E
100
AcDbEntity
  8
躯体と製品
  6
Continuous
 62
     7
100
AcDbLine
 10
2542.530342127793
 20
996.7472547140772
 30
0.0
 11
2542.530342127793
 21
984.7472547140773
 31
0.0
  0
LINE
  5
6FAA
330
1E
100
AcDbEntity
  8
躯体と製品
  6
Continuous
 62
     7
100
AcDbLine
 10
2541.530342127793
 20
997.7472547140772
 30
0.0
 11
2536.030342127793
 21
997.7472547140772
 31
0.0
  0
ARC
  5
6FAB
330
1E
100
AcDbEntity
  8
躯体と製品
  6
Continuous
 62
     7
100
AcDbCircle
 10
2541.530342127793
 20
996.7472547140772
 30
0.0
 40
0.9999999999998999
100
AcDbArc
 50
0.0
 51
90.0
  0
LINE
  5
6FAC
330
1E
100
AcDbEntity
  8
躯体と製品
  6
Continuous
 62
     7
100
AcDbLine
 10
2542.530342127793
 20
999.7472547140771
 30
0.0
 11
2539.330342127792
 21
999.7472547140771
 31
0.0
  0
LINE
  5
6FAD
330
1E
100
AcDbEntity
  8
躯体と製品
  6
Continuous
 62
     7
100
AcDbLine
 10
2538.730342127792
 20
999.7472547140771
 30
0.0
 11
2535.530342127793
 21
999.7472547140771
 31
0.0
  0
LINE
  5
6FAE
330
1E
100
AcDbEntity
  8
躯体と製品
  6
Continuous
 62
     7
100
AcDbLine
 10
2542.530342127793
 20
999.7472547140771
 30
0.0
 11
2542.530342127793
 21
1000.747254714077
 31
0.0
  0
LINE
  5
6FAF
330
1E
100
AcDbEntity
  8
躯体と製品
  6
Continuous
 62
     7
100
AcDbLine
 10
2535.530342127793
 20
1000.747254714077
 30
0.0
 11
2535.530342127793
 21
999.7472547140771
 31
0.0
  0
LINE
  5
6FB0
330
1E
100
AcDbEntity
  8
躯体と製品
  6
Continuous
 62
     7
100
AcDbLine
 10
2542.030342127793
 20
984.2472547140772
 30
0.0
 11
2514.030342127793
 21
984.2472547140772
 31
0.0
  0
LINE
  5
6FB1
330
1E
100
AcDbEntity
  8
躯体と製品
  6
Continuous
 62
     7
100
AcDbLine
 10
2512.030342127792
 20
986.7472557140771
 30
0.0
 11
2511.030343127793
 21
986.7472557140771
 31
0.0
  0
ARC
  5
6FB2
330
1E
100
AcDbEntity
  8
躯体と製品
  6
Continuous
 62
     7
100
AcDbCircle
 10
2513.230342127793
 20
989.4472557140771
 30
0.0
 40
0.2999999999999999
100
AcDbArc
 50
0.0
 51
90.0
  0
LINE
  5
6FB3
330
1E
100
AcDbEntity
  8
躯体と製品
  6
Continuous
 62
     7
100
AcDbLine
 10
2511.916380155292
 20
989.4053694547771
 30
0.0
 11
2511.030343127793
 21
986.7472557140771
 31
0.0
  0
LINE
  5
6FB4
330
1E
100
AcDbEntity
  8
躯体と製品
  6
Continuous
 62
     7
100
AcDbLine
 10
2512.390721851792
 20
989.7472557140773
 30
0.0
 11
2513.230342127793
 21
989.7472557140773
 31
0.0
  0
ARC
  5
6FB5
330
1E
100
AcDbEntity
  8
躯体と製品
  6
Continuous
 62
     7
100
AcDbCircle
 10
2512.390721851792
 20
989.2472557140772
 30
0.0
 40
0.5
100
AcDbArc
 50
90.0
 51
161.5650683658004
  0
LINE
  5
6FB6
330
1E
100
AcDbEntity
  8
躯体と製品
  6
Continuous
 62
     7
100
AcDbLine
 10
2512.030342127792
 20
986.7472557140771
 30
0.0
 11
2512.030342127792
 21
984.7472547140773
 31
0.0
  0
ARC
  5
6FB7
330
1E
100
AcDbEntity
  8
躯体と製品
  6
Continuous
 62
     7
100
AcDbCircle
 10
2511.530342127792
 20
984.7472547140773
 30
0.0
 40
0.5
100
AcDbArc
 50
270.0
 51
0.0
  0
LINE
  5
6FB8
330
1E
100
AcDbEntity
  8
躯体と製品
  6
Continuous
 62
     7
100
AcDbLine
 10
2513.530342127792
 20
989.4472557140771
 30
0.0
 11
2513.530342127792
 21
984.7472547140773
 31
0.0
  0
ARC
  5
6FB9
330
1E
100
AcDbEntity
  8
躯体と製品
  6
Continuous
 62
     7
100
AcDbCircle
 10
2514.030342127793
 20
984.7472547140773
 30
0.0
 40
0.5
100
AcDbArc
 50
180.0
 51
270.0
  0
LINE
  5
6FBA
330
1E
100
AcDbEntity
  8
躯体と製品
  6
Continuous
 62
     7
100
AcDbLine
 10
2511.530342127792
 20
984.2472547140772
 30
0.0
 11
2453.530341127793
 21
984.2472547140772
 31
0.0
  0
ARC
  5
6FBB
330
1E
100
AcDbEntity
  8
躯体と製品
  6
Continuous
 62
     7
100
AcDbCircle
 10
2453.530341127793
 20
984.7472547140773
 30
0.0
 40
0.5
100
AcDbArc
 50
180.0
 51
270.0
  0
ARC
  5
6FBC
330
1E
100
AcDbEntity
  8
躯体と製品
  6
Continuous
 62
     7
100
AcDbCircle
 10
2452.030341127793
 20
983.2472547140772
 30
0.0
 40
0.5
100
AcDbArc
 50
180.0
 51
270.0
  0
ARC
  5
6FBD
330
1E
100
AcDbEntity
  8
躯体と製品
  6
Continuous
 62
     7
100
AcDbCircle
 10
2452.280341127793
 20
991.9972547140773
 30
0.0
 40
0.7499999999998999
100
AcDbArc
 50
0.0
 51
180.0
  0
LINE
  5
6FBE
330
1E
100
AcDbEntity
  8
躯体と製品
  6
Continuous
 62
     7
100
AcDbLine
 10
2451.530341127793
 20
991.9972547140773
 30
0.0
 11
2451.530341127793
 21
983.2472547140772
 31
0.0
  0
LINE
  5
6FBF
330
1E
100
AcDbEntity
  8
躯体と製品
  6
Continuous
 62
     7
100
AcDbLine
 10
2453.030341127793
 20
991.9972547140773
 30
0.0
 11
2453.030341127793
 21
984.7472547140773
 31
0.0
  0
LINE
  5
6FC0
330
1E
100
AcDbEntity
  8
躯体と製品
  6
Continuous
 62
     7
100
AcDbLine
 10
2515.030327127793
 20
985.7472547140773
 30
0.0
 11
2533.030327127793
 21
985.7472547140773
 31
0.0
  0
LINE
  5
6FC1
330
1E
100
AcDbEntity
  8
躯体と製品
  6
Continuous
 62
     7
100
AcDbLine
 10
2533.030327127793
 20
985.7472547140773
 30
0.0
 11
2533.030327127793
 21
984.2472547140772
 31
0.0
  0
LINE
  5
6FC2
330
1E
100
AcDbEntity
  8
躯体と製品
  6
Continuous
 62
     7
100
AcDbLine
 10
2515.030327127793
 20
985.7472547140773
 30
0.0
 11
2515.030327127793
 21
984.2472547140772
 31
0.0
  0
LINE
  5
6FC3
330
1E
100
AcDbEntity
  8
躯体と製品
  6
Continuous
 62
     7
100
AcDbLine
 10
2524.030327127793
 20
983.9472697140772
 30
0.0
 11
2523.730327127792
 21
984.2472697140772
 31
0.0
  0
LINE
  5
6FC4
330
1E
100
AcDbEntity
  8
躯体と製品
  6
Continuous
 62
     7
100
AcDbLine
 10
2524.030327127793
 20
983.9472697140772
 30
0.0
 11
2524.330312127792
 21
984.2472547140772
 31
0.0
  0
ARC
  5
6FC5
330
1E
100
AcDbEntity
  8
躯体と製品
  6
Continuous
 62
     7
100
AcDbCircle
 10
2525.430826127793
 20
985.7962542065772
 30
0.0
 40
2.399999999999999
100
AcDbArc
 50
358.8301420000044
 51
54.29994099999883
  0
ARC
  5
6FC6
330
1E
100
AcDbEntity
  8
躯体と製品
  6
Continuous
 62
     7
100
AcDbCircle
 10
2524.030327127793
 20
983.8472562065772
 30
0.0
 40
4.799999999999999
100
AcDbArc
 50
90.0
 51
125.7000390000026
  0
ARC
  5
6FC7
330
1E
100
AcDbEntity
  8
躯体と製品
  6
Continuous
 62
     7
100
AcDbCircle
 10
2522.629828127792
 20
985.7962542065772
 30
0.0
 40
2.399999999999999
100
AcDbArc
 50
125.7000590000011
 51
181.1698579999989
  0
ARC
  5
6FC8
330
1E
100
AcDbEntity
  8
躯体と製品
  6
Continuous
 62
     7
100
AcDbCircle
 10
2524.030327127793
 20
983.8472562065772
 30
0.0
 40
4.799999999999999
100
AcDbArc
 50
54.29996099999738
 51
90.0
  0
LINE
  5
6FC9
330
1E
100
AcDbEntity
  8
躯体と製品
  6
CENTER2_22
 62
     7
100
AcDbLine
 10
2524.030342127793
 20
954.0847113699772
 30
0.0
 11
2524.030342127793
 21
990.6072727140772
 31
0.0
  0
LINE
  5
6FCA
330
1E
100
AcDbEntity
  8
躯体と製品
  6
Continuous
 62
     7
100
AcDbLine
 10
2524.330342127793
 20
984.2472547140772
 30
0.0
 11
2524.030342127793
 21
983.9472547140772
 31
0.0
  0
LINE
  5
6FCB
330
1E
100
AcDbEntity
  8
躯体と製品
  6
Continuous
 62
     7
100
AcDbLine
 10
2524.030342127793
 20
983.9472547140772
 30
0.0
 11
2523.730342127793
 21
984.2472547140772
 31
0.0
  0
LINE
  5
6FCC
330
1E
100
AcDbEntity
  8
躯体と製品
  6
Continuous
 62
     7
100
AcDbLine
 10
2517.030342127793
 20
982.7472547140772
 30
0.0
 11
2517.030342127793
 21
984.2472547140772
 31
0.0
  0
LINE
  5
6FCD
330
1E
100
AcDbEntity
  8
躯体と製品
  6
Continuous
 62
     7
100
AcDbLine
 10
2531.030342127793
 20
982.7472547140772
 30
0.0
 11
2531.030342127793
 21
984.2472547140772
 31
0.0
  0
LINE
  5
6FCE
330
1E
100
AcDbEntity
  8
躯体と製品
  6
Continuous
 62
     7
100
AcDbLine
 10
2527.497754127793
 20
967.8969727140772
 30
0.0
 11
2528.769277127793
 21
971.3904577140771
 31
0.0
  0
LINE
  5
6FCF
330
1E
100
AcDbEntity
  8
躯体と製品
  6
Continuous
 62
     7
100
AcDbLine
 10
2527.772518127793
 20
962.6541667140772
 30
0.0
 11
2526.313825127793
 21
961.8266917140772
 31
0.0
  0
LINE
  5
6FD0
330
1E
100
AcDbEntity
  8
躯体と製品
  6
Continuous
 62
     7
100
AcDbLine
 10
2526.313825127793
 20
961.8266917140772
 30
0.0
 11
2526.392329127793
 21
960.3287467140772
 31
0.0
  0
LINE
  5
6FD1
330
1E
100
AcDbEntity
  8
躯体と製品
  6
Continuous
 62
     7
100
AcDbLine
 10
2526.392329127793
 20
960.3287467140772
 30
0.0
 11
2527.890274127793
 21
960.4072507140772
 31
0.0
  0
LINE
  5
6FD2
330
1E
100
AcDbEntity
  8
躯体と製品
  6
Continuous
 62
     7
100
AcDbLine
 10
2527.694014127793
 20
964.1521117140772
 30
0.0
 11
2527.772518127793
 21
962.6541667140772
 31
0.0
  0
LINE
  5
6FD3
330
1E
100
AcDbEntity
  8
躯体と製品
  6
Continuous
 62
     7
100
AcDbLine
 10
2527.576258127793
 20
966.3990277140772
 30
0.0
 11
2526.117565127793
 21
965.5715497140773
 31
0.0
  0
LINE
  5
6FD4
330
1E
100
AcDbEntity
  8
躯体と製品
  6
Continuous
 62
     7
100
AcDbLine
 10
2526.117565127793
 20
965.5715497140773
 30
0.0
 11
2526.196069127793
 21
964.0736077140772
 31
0.0
  0
LINE
  5
6FD5
330
1E
100
AcDbEntity
  8
躯体と製品
  6
Continuous
 62
     7
100
AcDbLine
 10
2526.196069127793
 20
964.0736077140772
 30
0.0
 11
2527.694014127793
 21
964.1521117140772
 31
0.0
  0
LINE
  5
6FD6
330
1E
100
AcDbEntity
  8
躯体と製品
  6
Continuous
 62
     7
100
AcDbLine
 10
2527.497754127793
 20
967.8969727140772
 30
0.0
 11
2527.576258127793
 21
966.3990277140772
 31
0.0
  0
LINE
  5
6FD7
330
1E
100
AcDbEntity
  8
躯体と製品
  6
Continuous
 62
     7
100
AcDbLine
 10
2527.379998127793
 20
970.1438887140772
 30
0.0
 11
2525.921305127793
 21
969.3164107140772
 31
0.0
  0
LINE
  5
6FD8
330
1E
100
AcDbEntity
  8
躯体と製品
  6
Continuous
 62
     7
100
AcDbLine
 10
2525.921305127793
 20
969.3164107140772
 30
0.0
 11
2525.999809127793
 21
967.8184687140772
 31
0.0
  0
LINE
  5
6FD9
330
1E
100
AcDbEntity
  8
躯体と製品
  6
Continuous
 62
     7
100
AcDbLine
 10
2525.999809127793
 20
967.8184687140772
 30
0.0
 11
2527.497754127793
 21
967.8969727140772
 31
0.0
  0
LINE
  5
6FDA
330
1E
100
AcDbEntity
  8
躯体と製品
  6
Continuous
 62
     7
100
AcDbLine
 10
2527.301494127792
 20
971.6418337140771
 30
0.0
 11
2527.379998127793
 21
970.1438887140772
 31
0.0
  0
LINE
  5
6FDB
330
1E
100
AcDbEntity
  8
躯体と製品
  6
Continuous
 62
     7
100
AcDbLine
 10
2525.725045127793
 20
973.0612717140772
 30
0.0
 11
2525.803549127792
 21
971.5633297140772
 31
0.0
  0
LINE
  5
6FDC
330
1E
100
AcDbEntity
  8
躯体と製品
  6
Continuous
 62
     7
100
AcDbLine
 10
2525.803549127792
 20
971.5633297140772
 30
0.0
 11
2527.301494127792
 21
971.6418337140771
 31
0.0
  0
LINE
  5
6FDD
330
1E
100
AcDbEntity
  8
躯体と製品
  6
Continuous
 62
     7
100
AcDbLine
 10
2527.780327127793
 20
982.7472547140772
 30
0.0
 11
2527.030327127793
 21
978.9972547140772
 31
0.0
  0
LINE
  5
6FDE
330
1E
100
AcDbEntity
  8
躯体と製品
  6
Continuous
 62
     7
100
AcDbLine
 10
2527.030327127793
 20
973.7472547140772
 30
0.0
 11
2525.725045127793
 21
973.0612717140772
 31
0.0
  0
LINE
  5
6FDF
330
1E
100
AcDbEntity
  8
躯体と製品
  6
Continuous
 62
     7
100
AcDbLine
 10
2524.405327127793
 20
976.7472547140773
 30
0.0
 11
2524.030327127793
 21
976.7472547140773
 31
0.0
  0
LINE
  5
6FE0
330
1E
100
AcDbEntity
  8
躯体と製品
  6
Continuous
 62
     7
100
AcDbLine
 10
2520.288136127792
 20
962.6541667140772
 30
0.0
 11
2521.746829127793
 21
961.8266917140772
 31
0.0
  0
LINE
  5
6FE1
330
1E
100
AcDbEntity
  8
躯体と製品
  6
Continuous
 62
     7
100
AcDbLine
 10
2521.746829127793
 20
961.8266917140772
 30
0.0
 11
2521.668325127793
 21
960.3287467140772
 31
0.0
  0
LINE
  5
6FE2
330
1E
100
AcDbEntity
  8
躯体と製品
  6
Continuous
 62
     7
100
AcDbLine
 10
2521.668325127793
 20
960.3287467140772
 30
0.0
 11
2520.170380127793
 21
960.4072507140772
 31
0.0
  0
LINE
  5
6FE3
330
1E
100
AcDbEntity
  8
躯体と製品
  6
Continuous
 62
     7
100
AcDbLine
 10
2520.366640127793
 20
964.1521117140772
 30
0.0
 11
2520.288136127792
 21
962.6541667140772
 31
0.0
  0
LINE
  5
6FE4
330
1E
100
AcDbEntity
  8
躯体と製品
  6
Continuous
 62
     7
100
AcDbLine
 10
2520.484396127793
 20
966.3990277140772
 30
0.0
 11
2521.943089127793
 21
965.5715497140773
 31
0.0
  0
LINE
  5
6FE5
330
1E
100
AcDbEntity
  8
躯体と製品
  6
Continuous
 62
     7
100
AcDbLine
 10
2521.943089127793
 20
965.5715497140773
 30
0.0
 11
2521.864585127793
 21
964.0736077140772
 31
0.0
  0
LINE
  5
6FE6
330
1E
100
AcDbEntity
  8
躯体と製品
  6
Continuous
 62
     7
100
AcDbLine
 10
2521.864585127793
 20
964.0736077140772
 30
0.0
 11
2520.366640127793
 21
964.1521117140772
 31
0.0
  0
LINE
  5
6FE7
330
1E
100
AcDbEntity
  8
躯体と製品
  6
Continuous
 62
     7
100
AcDbLine
 10
2520.562900127793
 20
967.8969727140772
 30
0.0
 11
2520.484396127793
 21
966.3990277140772
 31
0.0
  0
LINE
  5
6FE8
330
1E
100
AcDbEntity
  8
躯体と製品
  6
Continuous
 62
     7
100
AcDbLine
 10
2520.680656127793
 20
970.1438887140772
 30
0.0
 11
2522.139349127793
 21
969.3164107140772
 31
0.0
  0
LINE
  5
6FE9
330
1E
100
AcDbEntity
  8
躯体と製品
  6
Continuous
 62
     7
100
AcDbLine
 10
2522.139349127793
 20
969.3164107140772
 30
0.0
 11
2522.060845127793
 21
967.8184687140772
 31
0.0
  0
LINE
  5
6FEA
330
1E
100
AcDbEntity
  8
躯体と製品
  6
Continuous
 62
     7
100
AcDbLine
 10
2522.060845127793
 20
967.8184687140772
 30
0.0
 11
2520.562900127793
 21
967.8969727140772
 31
0.0
  0
LINE
  5
6FEB
330
1E
100
AcDbEntity
  8
躯体と製品
  6
Continuous
 62
     7
100
AcDbLine
 10
2520.759160127793
 20
971.6418337140771
 30
0.0
 11
2520.680656127793
 21
970.1438887140772
 31
0.0
  0
LINE
  5
6FEC
330
1E
100
AcDbEntity
  8
躯体と製品
  6
Continuous
 62
     7
100
AcDbLine
 10
2522.335609127793
 20
973.0612717140772
 30
0.0
 11
2522.257105127793
 21
971.5633297140772
 31
0.0
  0
LINE
  5
6FED
330
1E
100
AcDbEntity
  8
躯体と製品
  6
Continuous
 62
     7
100
AcDbLine
 10
2522.257105127793
 20
971.5633297140772
 30
0.0
 11
2520.759160127793
 21
971.6418337140771
 31
0.0
  0
LINE
  5
6FEE
330
1E
100
AcDbEntity
  8
躯体と製品
  6
Continuous
 62
     7
100
AcDbLine
 10
2524.030327127793
 20
978.9972547140772
 30
0.0
 11
2524.030327127793
 21
982.7472547140772
 31
0.0
  0
LINE
  5
6FEF
330
1E
100
AcDbEntity
  8
躯体と製品
  6
Continuous
 62
     7
100
AcDbLine
 10
2524.780327127793
 20
982.7472547140772
 30
0.0
 11
2524.030327127793
 21
978.9972547140772
 31
0.0
  0
LINE
  5
6FF0
330
1E
100
AcDbEntity
  8
躯体と製品
  6
Continuous
 62
     7
100
AcDbLine
 10
2523.280327127793
 20
982.7472547140772
 30
0.0
 11
2524.030327127793
 21
978.9972547140772
 31
0.0
  0
LINE
  5
6FF1
330
1E
100
AcDbEntity
  8
躯体と製品
  6
Continuous
 62
     7
100
AcDbLine
 10
2520.280327127793
 20
982.7472547140772
 30
0.0
 11
2521.030327127793
 21
978.9972547140772
 31
0.0
  0
LINE
  5
6FF2
330
1E
100
AcDbEntity
  8
躯体と製品
  6
Continuous
 62
     7
100
AcDbLine
 10
2521.030327127793
 20
973.7472547140772
 30
0.0
 11
2522.335609127793
 21
973.0612717140772
 31
0.0
  0
LINE
  5
6FF3
330
1E
100
AcDbEntity
  8
躯体と製品
  6
Continuous
 62
     7
100
AcDbLine
 10
2523.655327127793
 20
976.7472547140773
 30
0.0
 11
2524.030327127793
 21
976.7472547140773
 31
0.0
  0
LINE
  5
6FF4
330
1E
100
AcDbEntity
  8
躯体と製品
  6
Continuous
 62
     7
100
AcDbLine
 10
2519.291377127793
 20
971.3904577140771
 30
0.0
 11
2518.547110127793
 21
976.4931727140773
 31
0.0
  0
ARC
  5
6FF5
330
1E
100
AcDbEntity
  8
躯体と製品
  6
Continuous
 62
     7
100
AcDbCircle
 10
2518.843969127793
 20
976.5364717140773
 30
0.0
 40
0.2999999999999999
100
AcDbArc
 50
98.1301019999849
 51
188.2984659999999
  0
LINE
  5
6FF6
330
1E
100
AcDbEntity
  8
躯体と製品
  6
Continuous
 62
     7
100
AcDbLine
 10
2518.801543127792
 20
976.8334567140772
 30
0.0
 11
2518.949161127793
 21
976.8545437140771
 31
0.0
  0
ARC
  5
6FF7
330
1E
100
AcDbEntity
  8
躯体と製品
  6
Continuous
 62
     7
100
AcDbCircle
 10
2518.991587127793
 20
976.5575617140772
 30
0.0
 40
0.2999999999999999
100
AcDbArc
 50
8.130101999991806
 51
98.1301019999849
  0
LINE
  5
6FF8
330
1E
100
AcDbEntity
  8
躯体と製品
  6
Continuous
 62
     7
100
AcDbLine
 10
2519.288572127793
 20
976.5999877140771
 30
0.0
 11
2519.996146127793
 21
971.6469727140772
 31
0.0
  0
LINE
  5
6FF9
330
1E
100
AcDbEntity
  8
躯体と製品
  6
Continuous
 62
     7
100
AcDbLine
 10
2528.769277127793
 20
971.3904577140771
 30
0.0
 11
2529.513544127793
 21
976.4931727140773
 31
0.0
  0
ARC
  5
6FFA
330
1E
100
AcDbEntity
  8
躯体と製品
  6
Continuous
 62
     7
100
AcDbCircle
 10
2529.216685127793
 20
976.5364717140773
 30
0.0
 40
0.2999999999999999
100
AcDbArc
 50
351.7015340000001
 51
81.86989799997595
  0
LINE
  5
6FFB
330
1E
100
AcDbEntity
  8
躯体と製品
  6
Continuous
 62
     7
100
AcDbLine
 10
2529.259111127793
 20
976.8334567140772
 30
0.0
 11
2529.111493127793
 21
976.8545437140771
 31
0.0
  0
ARC
  5
6FFC
330
1E
100
AcDbEntity
  8
躯体と製品
  6
Continuous
 62
     7
100
AcDbCircle
 10
2529.069067127793
 20
976.5575617140772
 30
0.0
 40
0.2999999999999999
100
AcDbArc
 50
81.8698980000151
 51
171.8698979999985
  0
LINE
  5
6FFD
330
1E
100
AcDbEntity
  8
躯体と製品
  6
Continuous
 62
     7
100
AcDbLine
 10
2528.772082127793
 20
976.5999877140771
 30
0.0
 11
2528.064508127793
 21
971.6469727140772
 31
0.0
  0
LINE
  5
6FFE
330
1E
100
AcDbEntity
  8
躯体と製品
  6
Continuous
 62
     7
100
AcDbLine
 10
2520.562900127793
 20
967.8969727140772
 30
0.0
 11
2519.291377127793
 21
971.3904577140771
 31
0.0
  0
LINE
  5
6FFF
330
1E
100
AcDbEntity
  8
躯体と製品
  6
Continuous
 62
     7
100
AcDbLine
 10
2528.086534127793
 20
956.6623897140772
 30
0.0
 11
2528.165038127792
 21
955.1644447140771
 31
0.0
  0
LINE
  5
7000
330
1E
100
AcDbEntity
  8
躯体と製品
  6
Continuous
 62
     7
100
AcDbLine
 10
2527.968778127793
 20
958.9093057140772
 30
0.0
 11
2526.510085127793
 21
958.0818307140772
 31
0.0
  0
LINE
  5
7001
330
1E
100
AcDbEntity
  8
躯体と製品
  6
Continuous
 62
     7
100
AcDbLine
 10
2526.510085127793
 20
958.0818307140772
 30
0.0
 11
2526.588589127793
 21
956.583885714077
 31
0.0
  0
LINE
  5
7002
330
1E
100
AcDbEntity
  8
躯体と製品
  6
Continuous
 62
     7
100
AcDbLine
 10
2526.588589127793
 20
956.583885714077
 30
0.0
 11
2528.086534127793
 21
956.6623897140772
 31
0.0
  0
LINE
  5
7003
330
1E
100
AcDbEntity
  8
躯体と製品
  6
Continuous
 62
     7
100
AcDbLine
 10
2519.974123127793
 20
956.6623897140772
 30
0.0
 11
2519.895619127793
 21
955.1644447140771
 31
0.0
  0
LINE
  5
7004
330
1E
100
AcDbEntity
  8
躯体と製品
  6
Continuous
 62
     7
100
AcDbLine
 10
2520.091876127793
 20
958.9093057140772
 30
0.0
 11
2521.550569127793
 21
958.0818307140772
 31
0.0
  0
LINE
  5
7005
330
1E
100
AcDbEntity
  8
躯体と製品
  6
Continuous
 62
     7
100
AcDbLine
 10
2521.550569127793
 20
958.0818307140772
 30
0.0
 11
2521.472065127793
 21
956.583885714077
 31
0.0
  0
LINE
  5
7006
330
1E
100
AcDbEntity
  8
躯体と製品
  6
Continuous
 62
     7
100
AcDbLine
 10
2521.472065127793
 20
956.583885714077
 30
0.0
 11
2519.974123127793
 21
956.6623897140772
 31
0.0
  0
LINE
  5
7007
330
1E
100
AcDbEntity
  8
躯体と製品
  6
Continuous
 62
     7
100
AcDbLine
 10
2522.628244127793
 20
957.1493377140772
 30
0.0
 11
2524.030327127793
 21
955.7472547140772
 31
0.0
  0
LINE
  5
7008
330
1E
100
AcDbEntity
  8
躯体と製品
  6
Continuous
 62
     7
100
AcDbLine
 10
2527.890274127793
 20
960.4072507140772
 30
0.0
 11
2527.968778127793
 21
958.9093057140772
 31
0.0
  0
LINE
  5
7009
330
1E
100
AcDbEntity
  8
躯体と製品
  6
Continuous
 62
     7
100
AcDbLine
 10
2525.543635127793
 20
955.0270627140772
 30
0.0
 11
2528.165038127792
 21
955.1644447140771
 31
0.0
  0
LINE
  5
700A
330
1E
100
AcDbEntity
  8
躯体と製品
  6
Continuous
 62
     7
100
AcDbLine
 10
2528.165038127792
 20
955.1644447140771
 30
0.0
 11
2526.745597127793
 21
953.5879957140773
 31
0.0
  0
LINE
  5
700B
330
1E
100
AcDbEntity
  8
躯体と製品
  6
Continuous
 62
     7
100
AcDbLine
 10
2526.745597127793
 20
953.5879957140773
 30
0.0
 11
2525.622139127792
 21
953.5291177140772
 31
0.0
  0
LINE
  5
700C
330
1E
100
AcDbEntity
  8
躯体と製品
  6
Continuous
 62
     7
100
AcDbLine
 10
2525.622139127792
 20
953.5291177140772
 30
0.0
 11
2524.405327127793
 21
976.7472547140773
 31
0.0
  0
LINE
  5
700D
330
1E
100
AcDbEntity
  8
躯体と製品
  6
Continuous
 62
     7
100
AcDbLine
 10
2520.170380127793
 20
960.4072507140772
 30
0.0
 11
2520.091876127793
 21
958.9093057140772
 31
0.0
  0
LINE
  5
700E
330
1E
100
AcDbEntity
  8
躯体と製品
  6
Continuous
 62
     7
100
AcDbLine
 10
2522.517019127793
 20
955.0270627140772
 30
0.0
 11
2519.895619127793
 21
955.1644447140771
 31
0.0
  0
LINE
  5
700F
330
1E
100
AcDbEntity
  8
躯体と製品
  6
Continuous
 62
     7
100
AcDbLine
 10
2519.895619127793
 20
955.1644447140771
 30
0.0
 11
2521.315057127793
 21
953.5879957140773
 31
0.0
  0
LINE
  5
7010
330
1E
100
AcDbEntity
  8
躯体と製品
  6
Continuous
 62
     7
100
AcDbLine
 10
2521.315057127793
 20
953.5879957140773
 30
0.0
 11
2522.438515127792
 21
953.5291177140772
 31
0.0
  0
LINE
  5
7011
330
1E
100
AcDbEntity
  8
躯体と製品
  6
Continuous
 62
     7
100
AcDbLine
 10
2522.438515127792
 20
953.5291177140772
 30
0.0
 11
2523.655327127793
 21
976.7472547140773
 31
0.0
  0
LINE
  5
7012
330
1E
100
AcDbEntity
  8
躯体と製品
  6
Continuous
 62
     7
100
AcDbLine
 10
2524.030327127793
 20
955.7472547140772
 30
0.0
 11
2525.432411223592
 21
957.1493388098772
 31
0.0
  0
LINE
  5
7013
330
1E
100
AcDbEntity
  8
躯体と製品
  6
Continuous
 62
     7
100
AcDbLine
 10
2527.030327127793
 20
982.7472547140772
 30
0.0
 11
2527.030327127793
 21
973.7472547140772
 31
0.0
  0
LINE
  5
7014
330
1E
100
AcDbEntity
  8
躯体と製品
  6
Continuous
 62
     7
100
AcDbLine
 10
2521.030327127793
 20
982.7472547140772
 30
0.0
 11
2521.030327127793
 21
973.7472547140772
 31
0.0
  0
LINE
  5
7015
330
1E
100
AcDbEntity
  8
躯体と製品
  6
Continuous
 62
     7
100
AcDbLine
 10
2521.376555512693
 20
967.8543308264771
 30
0.0
 11
2519.996146127793
 21
971.6469727140772
 31
0.0
  0
LINE
  5
7016
330
1E
100
AcDbEntity
  8
躯体と製品
  6
Continuous
 62
     7
100
AcDbLine
 10
2526.684098742892
 20
967.8543308264771
 30
0.0
 11
2528.064508127793
 21
971.6469727140772
 31
0.0
  0
LINE
  5
7017
330
1E
100
AcDbEntity
  8
躯体と製品
  6
Continuous
 62
     7
100
AcDbLine
 10
2545.030342127793
 20
994.7472547140773
 30
0.0
 11
2544.030342127793
 21
996.7472541156773
 31
0.0
  0
LINE
  5
7018
330
1E
100
AcDbEntity
  8
躯体と製品
  6
Continuous
 62
     7
100
AcDbLine
 10
2544.030342127793
 20
994.7472547140773
 30
0.0
 11
2545.030342127793
 21
994.7472547140773
 31
0.0
  0
LINE
  5
7019
330
1E
100
AcDbEntity
  8
躯体と製品
  6
Continuous
 62
     7
100
AcDbLine
 10
2540.297008127793
 20
993.8694777140772
 30
0.0
 11
2540.297008127793
 21
994.9041777140774
 31
0.0
  0
LINE
  5
701A
330
1E
100
AcDbEntity
  8
躯体と製品
  6
Continuous
 62
     7
100
AcDbLine
 10
2537.763676127793
 20
992.0819577140772
 30
0.0
 11
2540.297008127793
 21
993.0226977140772
 31
0.0
  0
LINE
  5
701B
330
1E
100
AcDbEntity
  8
躯体と製品
  6
Continuous
 62
     7
100
AcDbLine
 10
2537.763676127793
 20
992.9287377140772
 30
0.0
 11
2540.297008127793
 21
993.8694777140772
 31
0.0
  0
LINE
  5
701C
330
1E
100
AcDbEntity
  8
躯体と製品
  6
Continuous
 62
     7
100
AcDbLine
 10
2537.030341127793
 20
992.5053477140771
 30
0.0
 11
2541.030343127792
 21
993.4460877140772
 31
0.0
  0
LINE
  5
701D
330
1E
100
AcDbEntity
  8
躯体と製品
  6
Continuous
 62
     7
100
AcDbLine
 10
2537.030341127793
 20
992.5053477140771
 30
0.0
 11
2537.763676127793
 21
992.0819577140772
 31
0.0
  0
LINE
  5
701E
330
1E
100
AcDbEntity
  8
躯体と製品
  6
Continuous
 62
     7
100
AcDbLine
 10
2537.030341127793
 20
992.5053477140771
 30
0.0
 11
2537.763676127793
 21
992.9287377140772
 31
0.0
  0
LINE
  5
701F
330
1E
100
AcDbEntity
  8
躯体と製品
  6
Continuous
 62
     7
100
AcDbLine
 10
2541.030343127792
 20
993.4460877140772
 30
0.0
 11
2540.297008127793
 21
993.0226977140772
 31
0.0
  0
LINE
  5
7020
330
1E
100
AcDbEntity
  8
躯体と製品
  6
Continuous
 62
     7
100
AcDbLine
 10
2540.297008127793
 20
993.8694777140772
 30
0.0
 11
2541.030343127792
 21
993.4460877140772
 31
0.0
  0
LINE
  5
7021
330
1E
100
AcDbEntity
  8
躯体と製品
  6
Continuous
 62
     7
100
AcDbLine
 10
2537.763676127793
 20
995.8449207140773
 30
0.0
 11
2537.763676127793
 21
994.8102177140771
 31
0.0
  0
LINE
  5
7022
330
1E
100
AcDbEntity
  8
躯体と製品
  6
Continuous
 62
     7
100
AcDbLine
 10
2540.297008127793
 20
995.7509607140773
 30
0.0
 11
2540.297008127793
 21
996.7856607140774
 31
0.0
  0
LINE
  5
7023
330
1E
100
AcDbEntity
  8
躯体と製品
  6
Continuous
 62
     7
100
AcDbLine
 10
2537.763676127793
 20
993.9634377140773
 30
0.0
 11
2540.297008127793
 21
994.9041777140774
 31
0.0
  0
LINE
  5
7024
330
1E
100
AcDbEntity
  8
躯体と製品
  6
Continuous
 62
     7
100
AcDbLine
 10
2537.763676127793
 20
994.8102177140771
 30
0.0
 11
2540.297008127793
 21
995.7509607140773
 31
0.0
  0
LINE
  5
7025
330
1E
100
AcDbEntity
  8
躯体と製品
  6
Continuous
 62
     7
100
AcDbLine
 10
2537.030341127793
 20
994.3868277140772
 30
0.0
 11
2541.030343127792
 21
995.3275677140771
 31
0.0
  0
LINE
  5
7026
330
1E
100
AcDbEntity
  8
躯体と製品
  6
Continuous
 62
     7
100
AcDbLine
 10
2537.030341127793
 20
994.3868277140772
 30
0.0
 11
2537.763676127793
 21
993.9634377140773
 31
0.0
  0
LINE
  5
7027
330
1E
100
AcDbEntity
  8
躯体と製品
  6
Continuous
 62
     7
100
AcDbLine
 10
2537.030341127793
 20
994.3868277140772
 30
0.0
 11
2537.763676127793
 21
994.8102177140771
 31
0.0
  0
LINE
  5
7028
330
1E
100
AcDbEntity
  8
躯体と製品
  6
Continuous
 62
     7
100
AcDbLine
 10
2541.030343127792
 20
995.3275677140771
 30
0.0
 11
2540.297008127793
 21
994.9041777140774
 31
0.0
  0
LINE
  5
7029
330
1E
100
AcDbEntity
  8
躯体と製品
  6
Continuous
 62
     7
100
AcDbLine
 10
2540.297008127793
 20
995.7509607140773
 30
0.0
 11
2541.030343127792
 21
995.3275677140771
 31
0.0
  0
LINE
  5
702A
330
1E
100
AcDbEntity
  8
躯体と製品
  6
Continuous
 62
     7
100
AcDbLine
 10
2537.763676127793
 20
997.7264007140771
 30
0.0
 11
2537.763676127793
 21
996.6917007140772
 31
0.0
  0
LINE
  5
702B
330
1E
100
AcDbEntity
  8
躯体と製品
  6
Continuous
 62
     7
100
AcDbLine
 10
2540.297008127793
 20
997.6324407140772
 30
0.0
 11
2540.297008127793
 21
998.6671407140772
 31
0.0
  0
LINE
  5
702C
330
1E
100
AcDbEntity
  8
躯体と製品
  6
Continuous
 62
     7
100
AcDbLine
 10
2537.763676127793
 20
995.8449207140773
 30
0.0
 11
2540.297008127793
 21
996.7856607140774
 31
0.0
  0
LINE
  5
702D
330
1E
100
AcDbEntity
  8
躯体と製品
  6
Continuous
 62
     7
100
AcDbLine
 10
2537.763676127793
 20
996.6917007140772
 30
0.0
 11
2540.297008127793
 21
997.6324407140772
 31
0.0
  0
LINE
  5
702E
330
1E
100
AcDbEntity
  8
躯体と製品
  6
Continuous
 62
     7
100
AcDbLine
 10
2537.030341127793
 20
996.2683107140771
 30
0.0
 11
2541.030343127792
 21
997.2090507140771
 31
0.0
  0
LINE
  5
702F
330
1E
100
AcDbEntity
  8
躯体と製品
  6
Continuous
 62
     7
100
AcDbLine
 10
2537.030341127793
 20
996.2683107140771
 30
0.0
 11
2537.763676127793
 21
995.8449207140773
 31
0.0
  0
LINE
  5
7030
330
1E
100
AcDbEntity
  8
躯体と製品
  6
Continuous
 62
     7
100
AcDbLine
 10
2537.030341127793
 20
996.2683107140771
 30
0.0
 11
2537.763676127793
 21
996.6917007140772
 31
0.0
  0
LINE
  5
7031
330
1E
100
AcDbEntity
  8
躯体と製品
  6
Continuous
 62
     7
100
AcDbLine
 10
2541.030343127792
 20
997.2090507140771
 30
0.0
 11
2540.297008127793
 21
996.7856607140774
 31
0.0
  0
LINE
  5
7032
330
1E
100
AcDbEntity
  8
躯体と製品
  6
Continuous
 62
     7
100
AcDbLine
 10
2540.297008127793
 20
997.6324407140772
 30
0.0
 11
2541.030343127792
 21
997.2090507140771
 31
0.0
  0
LINE
  5
7033
330
1E
100
AcDbEntity
  8
躯体と製品
  6
Continuous
 62
     7
100
AcDbLine
 10
2537.763676127793
 20
998.8111947140774
 30
0.0
 11
2537.763676127793
 21
998.5731807140773
 31
0.0
  0
LINE
  5
7034
330
1E
100
AcDbEntity
  8
躯体と製品
  6
Continuous
 62
     7
100
AcDbLine
 10
2540.297008127793
 20
1000.447256714077
 30
0.0
 11
2540.297008127793
 21
999.5139237140772
 31
0.0
  0
LINE
  5
7035
330
1E
100
AcDbEntity
  8
躯体と製品
  6
Continuous
 62
     7
100
AcDbLine
 10
2537.763676127793
 20
997.7264007140771
 30
0.0
 11
2540.297008127793
 21
998.6671407140772
 31
0.0
  0
LINE
  5
7036
330
1E
100
AcDbEntity
  8
躯体と製品
  6
Continuous
 62
     7
100
AcDbLine
 10
2537.763676127793
 20
998.5731807140773
 30
0.0
 11
2540.297008127793
 21
999.5139237140772
 31
0.0
  0
LINE
  5
7037
330
1E
100
AcDbEntity
  8
躯体と製品
  6
Continuous
 62
     7
100
AcDbLine
 10
2537.030341127793
 20
998.149790714077
 30
0.0
 11
2541.030343127792
 21
999.0905307140771
 31
0.0
  0
LINE
  5
7038
330
1E
100
AcDbEntity
  8
躯体と製品
  6
Continuous
 62
     7
100
AcDbLine
 10
2537.030341127793
 20
998.149790714077
 30
0.0
 11
2537.763676127793
 21
997.7264007140771
 31
0.0
  0
LINE
  5
7039
330
1E
100
AcDbEntity
  8
躯体と製品
  6
Continuous
 62
     7
100
AcDbLine
 10
2537.030341127793
 20
998.149790714077
 30
0.0
 11
2537.763676127793
 21
998.5731807140773
 31
0.0
  0
LINE
  5
703A
330
1E
100
AcDbEntity
  8
躯体と製品
  6
Continuous
 62
     7
100
AcDbLine
 10
2540.297008127793
 20
998.6671407140772
 30
0.0
 11
2541.030343127792
 21
999.0905307140771
 31
0.0
  0
LINE
  5
703B
330
1E
100
AcDbEntity
  8
躯体と製品
  6
Continuous
 62
     7
100
AcDbLine
 10
2540.297008127793
 20
999.5139237140772
 30
0.0
 11
2541.030343127792
 21
999.0905307140771
 31
0.0
  0
LINE
  5
703C
330
1E
100
AcDbEntity
  8
躯体と製品
  6
Continuous
 62
     7
100
AcDbLine
 10
2537.763676127793
 20
1000.447256714077
 30
0.0
 11
2537.763676127793
 21
1000.186538714077
 31
0.0
  0
LINE
  5
703D
330
1E
100
AcDbEntity
  8
躯体と製品
  6
Continuous
 62
     7
100
AcDbLine
 10
2539.030342127793
 20
1000.233518714077
 30
0.0
 11
2537.030341127793
 21
999.7631487140774
 31
0.0
  0
LINE
  5
703E
330
1E
100
AcDbEntity
  8
躯体と製品
  6
Continuous
 62
     7
100
AcDbLine
 10
2537.030341127793
 20
999.7631487140774
 30
0.0
 11
2537.763676127793
 21
999.3397587140773
 31
0.0
  0
LINE
  5
703F
330
1E
100
AcDbEntity
  8
躯体と製品
  6
Continuous
 62
     7
100
AcDbLine
 10
2537.030341127793
 20
999.7631487140774
 30
0.0
 11
2537.763676127793
 21
1000.186538714077
 31
0.0
  0
LINE
  5
7040
330
1E
100
AcDbEntity
  8
躯体と製品
  6
Continuous
 62
     7
100
AcDbLine
 10
2537.763676127793
 20
999.3397587140773
 30
0.0
 11
2537.763676127793
 21
998.8111947140774
 31
0.0
  0
LINE
  5
7041
330
1E
100
AcDbEntity
  8
躯体と製品
  6
Continuous
 62
     7
100
AcDbLine
 10
2539.030342127793
 20
988.7472567140772
 30
0.0
 11
2539.030342127793
 21
986.7472557140771
 31
0.0
  0
LINE
  5
7042
330
1E
100
AcDbEntity
  8
躯体と製品
  6
Continuous
 62
     7
100
AcDbLine
 10
2540.297008127793
 20
991.7472567140773
 30
0.0
 11
2537.763691127793
 21
991.7472567140773
 31
0.0
  0
LINE
  5
7043
330
1E
100
AcDbEntity
  8
躯体と製品
  6
Continuous
 62
     7
100
AcDbLine
 10
2539.030342127793
 20
986.7472557140771
 30
0.0
 11
2537.763676127793
 21
987.671015714077
 31
0.0
  0
LINE
  5
7044
330
1E
100
AcDbEntity
  8
躯体と製品
  6
Continuous
 62
     7
100
AcDbLine
 10
2539.030342127793
 20
986.7472557140771
 30
0.0
 11
2540.297008127793
 21
987.671015714077
 31
0.0
  0
ARC
  5
7045
330
1E
100
AcDbEntity
  8
躯体と製品
  6
Continuous
 62
     7
100
AcDbCircle
 10
2539.405114127792
 20
987.0226587140772
 30
0.0
 40
1.764848999999999
100
AcDbArc
 50
102.260328999995
 51
158.4463040000012
  0
ARC
  5
7046
330
1E
100
AcDbEntity
  8
躯体と製品
  6
Continuous
 62
     7
100
AcDbCircle
 10
2545.036627127793
 20
987.9786777140772
 30
0.0
 40
6.055259999999
100
AcDbArc
 50
141.5109779999976
 51
172.7079179999991
  0
LINE
  5
7047
330
1E
100
AcDbEntity
  8
躯体と製品
  6
Continuous
 62
     7
100
AcDbLine
 10
2537.763676127793
 20
992.0819577140772
 30
0.0
 11
2537.763676127793
 21
991.7472567140773
 31
0.0
  0
LINE
  5
7048
330
1E
100
AcDbEntity
  8
躯体と製品
  6
Continuous
 62
     7
100
AcDbLine
 10
2537.763676127793
 20
1000.447256714077
 30
0.0
 11
2540.297008127793
 21
1000.447256714077
 31
0.0
  0
LINE
  5
7049
330
1E
100
AcDbEntity
  8
躯体と製品
  6
Continuous
 62
     7
100
AcDbLine
 10
2537.763676127793
 20
1000.186538714077
 30
0.0
 11
2539.030342127793
 21
1000.233518714077
 31
0.0
  0
LINE
  5
704A
330
1E
100
AcDbEntity
  8
躯体と製品
  6
Continuous
 62
     7
100
AcDbLine
 10
2537.763676127793
 20
999.3397587140773
 30
0.0
 11
2539.030342127793
 21
1000.233518714077
 31
0.0
  0
LINE
  5
704B
330
1E
100
AcDbEntity
  8
躯体と製品
  6
Continuous
 62
     7
100
AcDbLine
 10
2537.763676127793
 20
991.7472567140773
 30
0.0
 11
2537.763676127793
 21
987.671015714077
 31
0.0
  0
LINE
  5
704C
330
1E
100
AcDbEntity
  8
躯体と製品
  6
Continuous
 62
     7
100
AcDbLine
 10
2540.297008127793
 20
993.0226977140772
 30
0.0
 11
2540.297008127793
 21
987.671015714077
 31
0.0
  0
LINE
  5
704D
330
1E
100
AcDbEntity
  8
躯体と製品
  6
Continuous
 62
     7
100
AcDbLine
 10
2537.763676127793
 20
993.9634377140773
 30
0.0
 11
2537.763676127793
 21
992.9287377140772
 31
0.0
  0
LINE
  5
704E
330
1E
100
AcDbEntity
  8
躯体と製品
  6
Continuous
 62
     7
100
AcDbLine
 10
2539.030342127793
 20
999.4472547140771
 30
0.0
 11
2538.730342127792
 21
999.7472547140771
 31
0.0
  0
LINE
  5
704F
330
1E
100
AcDbEntity
  8
躯体と製品
  6
Continuous
 62
     7
100
AcDbLine
 10
2539.030342127793
 20
999.4472547140771
 30
0.0
 11
2539.330342127792
 21
999.7472547140771
 31
0.0
  0
LINE
  5
7055
330
1E
100
AcDbEntity
  8
躯体と製品
  6
Continuous
 62
     7
100
AcDbLine
 10
2544.030342127793
 20
986.2472547140772
 30
0.0
 11
2553.530361350992
 21
986.2472547140772
 31
0.0
  0
LINE
  5
7056
330
1E
100
AcDbEntity
  8
躯体と製品
  6
Continuous
 62
     7
100
AcDbLine
 10
2544.030342127793
 20
984.7472547140773
 30
0.0
 11
2553.530361350992
 21
984.7472547140773
 31
0.0
  0
LINE
  5
7057
330
1E
100
AcDbEntity
  8
躯体と製品
  6
Continuous
 62
     7
100
AcDbLine
 10
2546.938192705393
 20
984.7472547140773
 30
0.0
 11
2544.938192705393
 21
982.7472547140772
 31
0.0
  0
LINE
  5
7058
330
1E
100
AcDbEntity
  8
躯体と製品
  6
Continuous
 62
     7
100
AcDbLine
 10
2544.109765580693
 20
984.7472547140773
 30
0.0
 11
2544.030342127793
 21
984.6678312611771
 31
0.0
  0
LINE
  5
7059
330
1E
100
AcDbEntity
  8
躯体と製品
  6
Continuous
 62
     7
100
AcDbLine
 10
2545.523979143093
 20
984.7472547140773
 30
0.0
 11
2544.030342127793
 21
983.2536176987773
 31
0.0
  0
LINE
  5
705B
330
1E
100
AcDbEntity
  8
躯体と製品
  6
Continuous
 62
     7
100
AcDbLine
 10
2452.030341127793
 20
982.7472547140772
 30
0.0
 11
2589.530368956993
 21
982.7472547140772
 31
0.0
  0
LINE
  5
7063
330
1E
100
AcDbEntity
  8
躯体と製品
  6
Continuous
 62
     7
100
AcDbLine
 10
2190.530371957092
 20
915.7472557140772
 30
0.0
 11
2190.530371957092
 21
982.7472547140772
 31
0.0
  0
LINE
  5
7064
330
1E
100
AcDbEntity
  8
躯体と製品
  6
Continuous
 62
     7
100
AcDbLine
 10
2091.530374957063
 20
915.7472557140772
 30
0.0
 11
2190.530371957092
 21
915.7472557140772
 31
0.0
  0
LINE
  5
7065
330
1E
100
AcDbEntity
  8
躯体と製品
  6
Continuous
 62
     7
100
AcDbLine
 10
2182.410020136493
 20
982.7472547140772
 30
0.0
 11
2115.410021136493
 21
915.7472557140772
 31
0.0
  0
LINE
  5
7066
330
1E
100
AcDbEntity
  8
躯体と製品
  6
Continuous
 62
     7
100
AcDbLine
 10
2179.581593011692
 20
982.7472547140772
 30
0.0
 11
2112.581594011693
 21
915.7472557140772
 31
0.0
  0
LINE
  5
7067
330
1E
100
AcDbEntity
  8
躯体と製品
  6
Continuous
 62
     7
100
AcDbLine
 10
2176.753165886992
 20
982.7472547140772
 30
0.0
 11
2109.753166886993
 21
915.7472557140772
 31
0.0
  0
LINE
  5
7068
330
1E
100
AcDbEntity
  8
躯体と製品
  6
Continuous
 62
     7
100
AcDbLine
 10
2141.397826827693
 20
982.7472547140772
 30
0.0
 11
2091.530374957063
 21
932.8798028434773
 31
0.0
  0
LINE
  5
7069
330
1E
100
AcDbEntity
  8
躯体と製品
  6
Continuous
 62
     7
100
AcDbLine
 10
2144.226253952393
 20
982.7472547140772
 30
0.0
 11
2091.530374957063
 21
930.0513757186772
 31
0.0
  0
LINE
  5
706A
330
1E
100
AcDbEntity
  8
躯体と製品
  6
Continuous
 62
     7
100
AcDbLine
 10
2147.054681077093
 20
982.7472547140772
 30
0.0
 11
2091.530374957063
 21
927.2229485939773
 31
0.0
  0
LINE
  5
706B
330
1E
100
AcDbEntity
  8
躯体と製品
  6
Continuous
 62
     7
100
AcDbLine
 10
2111.699342017792
 20
982.7472547140772
 30
0.0
 11
2091.530374957063
 21
962.5782876532772
 31
0.0
  0
LINE
  5
706C
330
1E
100
AcDbEntity
  8
躯体と製品
  6
Continuous
 62
     7
100
AcDbLine
 10
2108.870914893092
 20
982.7472547140772
 30
0.0
 11
2091.530374957063
 21
965.4067147780772
 31
0.0
  0
LINE
  5
706D
330
1E
100
AcDbEntity
  8
躯体と製品
  6
Continuous
 62
     7
100
AcDbLine
 10
2106.042487768293
 20
982.7472547140772
 30
0.0
 11
2091.530374957063
 21
968.2351419027771
 31
0.0
  0
LINE
  5
706E
330
1E
100
AcDbEntity
  8
躯体と製品
  6
Continuous
 62
     7
100
AcDbLine
 10
2145.108505946293
 20
915.7472557140772
 30
0.0
 11
2190.530371957092
 21
961.1691217247772
 31
0.0
  0
LINE
  5
706F
330
1E
100
AcDbEntity
  8
躯体と製品
  6
Continuous
 62
     7
100
AcDbLine
 10
2190.530371957092
 20
958.3406946000772
 30
0.0
 11
2147.936933071093
 21
915.7472557140772
 31
0.0
  0
LINE
  5
7070
330
1E
100
AcDbEntity
  8
躯体と製品
  6
Continuous
 62
     7
100
AcDbLine
 10
2150.765360195793
 20
915.7472557140772
 30
0.0
 11
2190.530371957092
 21
955.5122674752771
 31
0.0
  0
LINE
  5
7071
330
1E
100
AcDbEntity
  8
躯体と製品
  6
Continuous
 62
     7
100
AcDbLine
 10
2180.463845005592
 20
915.7472557140772
 30
0.0
 11
2190.530371957092
 21
925.8137826654772
 31
0.0
  0
LINE
  5
7072
330
1E
100
AcDbEntity
  8
躯体と製品
  6
Continuous
 62
     7
100
AcDbLine
 10
2183.292272130393
 20
915.7472557140772
 30
0.0
 11
2190.530371957092
 21
922.9853555407771
 31
0.0
  0
LINE
  5
7073
330
1E
100
AcDbEntity
  8
躯体と製品
  6
Continuous
 62
     7
100
AcDbLine
 10
2186.120699255093
 20
915.7472557140772
 30
0.0
 11
2190.530371957092
 21
920.1569284159772
 31
0.0
  0
ARC
  5
7077
330
1E
100
AcDbEntity
  8
躯体と製品
  6
Continuous
 62
     7
100
AcDbCircle
 10
2226.030379343392
 20
995.2472547140772
 30
0.0
 40
0.9999999999998999
100
AcDbArc
 50
270.0
 51
359.9999565941086
  0
ARC
  5
7078
330
1E
100
AcDbEntity
  8
躯体と製品
  6
Continuous
 62
     7
100
AcDbCircle
 10
2223.530377828292
 20
995.2472547140772
 30
0.0
 40
0.9999999999998999
100
AcDbArc
 50
179.9999565940988
 51
270.0
  0
ARC
  5
7079
330
1E
100
AcDbEntity
  8
躯体と製品
  6
Continuous
 62
     7
100
AcDbCircle
 10
2226.280384835893
 20
999.9972547140773
 30
0.0
 40
0.7499999999998999
100
AcDbArc
 50
359.9999565938253
 51
179.9999565940988
  0
ARC
  5
707A
330
1E
100
AcDbEntity
  8
躯体と製品
  6
Continuous
 62
     7
100
AcDbCircle
 10
2223.280384835893
 20
998.4972547140772
 30
0.0
 40
0.7499999999998999
100
AcDbArc
 50
359.9999565941119
 51
180.0
  0
LINE
  5
707B
330
1E
100
AcDbEntity
  8
躯体と製品
  6
Continuous
 62
     7
100
AcDbLine
 10
2227.030379191893
 20
999.9972541458774
 30
0.0
 11
2227.030375593393
 21
995.2472539564773
 31
0.0
  0
LINE
  5
707C
330
1E
100
AcDbEntity
  8
躯体と製品
  6
Continuous
 62
     7
100
AcDbLine
 10
2222.530378055592
 20
998.4972547140772
 30
0.0
 11
2222.530375593393
 21
995.247255471577
 31
0.0
  0
LINE
  5
707D
330
1E
100
AcDbEntity
  8
躯体と製品
  6
Continuous
 62
     7
100
AcDbLine
 10
2224.030384835893
 20
995.7472547140772
 30
0.0
 11
2225.530384835893
 21
995.7472547140772
 31
0.0
  0
LINE
  5
707E
330
1E
100
AcDbEntity
  8
躯体と製品
  6
Continuous
 62
     7
100
AcDbLine
 10
2225.530384835893
 20
995.7472547140772
 30
0.0
 11
2225.530384835893
 21
1000.747254714077
 31
0.0
  0
ARC
  5
707F
330
1E
100
AcDbEntity
  8
躯体と製品
  6
Continuous
 62
     7
100
AcDbCircle
 10
2223.530384835893
 20
1000.747254714077
 30
0.0
 40
2.0
100
AcDbArc
 50
0.0
 51
90.0
  0
LINE
  5
7080
330
1E
100
AcDbEntity
  8
躯体と製品
  6
Continuous
 62
     7
100
AcDbLine
 10
2224.030384835893
 20
995.7472547140772
 30
0.0
 11
2224.030384835893
 21
1000.747254714077
 31
0.0
  0
ARC
  5
7081
330
1E
100
AcDbEntity
  8
躯体と製品
  6
Continuous
 62
     7
100
AcDbCircle
 10
2223.530384835893
 20
1000.747254714077
 30
0.0
 40
0.5
100
AcDbArc
 50
0.0
 51
90.0
  0
LINE
  5
7082
330
1E
100
AcDbEntity
  8
躯体と製品
  6
Continuous
 62
     7
100
AcDbLine
 10
2132.680893050992
 20
984.7472547140773
 30
0.0
 11
2130.680893050993
 21
982.7472547140772
 31
0.0
  0
LINE
  5
7083
330
1E
100
AcDbEntity
  8
躯体と製品
  6
Continuous
 62
     7
100
AcDbLine
 10
2128.438252363892
 20
984.7472547140773
 30
0.0
 11
2127.030401786292
 21
983.3394041363773
 31
0.0
  0
LINE
  5
7084
330
1E
100
AcDbEntity
  8
躯体と製品
  6
Continuous
 62
     7
100
AcDbLine
 10
2135.509320175793
 20
984.7472547140773
 30
0.0
 11
2133.509320175793
 21
982.7472547140772
 31
0.0
  0
LINE
  5
7085
330
1E
100
AcDbEntity
  8
躯体と製品
  6
Continuous
 62
     7
100
AcDbLine
 10
2134.095106613393
 20
984.7472547140773
 30
0.0
 11
2132.095106613393
 21
982.7472547140772
 31
0.0
  0
LINE
  5
7086
330
1E
100
AcDbEntity
  8
躯体と製品
  6
Continuous
 62
     7
100
AcDbLine
 10
2131.266679488692
 20
984.7472547140773
 30
0.0
 11
2129.266679488693
 21
982.7472547140772
 31
0.0
  0
LINE
  5
7087
330
1E
100
AcDbEntity
  8
躯体と製品
  6
Continuous
 62
     7
100
AcDbLine
 10
2129.852465926293
 20
984.7472547140773
 30
0.0
 11
2127.852465926292
 21
982.7472547140772
 31
0.0
  0
ARC
  5
7088
330
1E
100
AcDbEntity
  8
躯体と製品
  6
Continuous
 62
     7
100
AcDbCircle
 10
2127.530382563093
 20
986.7472486533772
 30
0.0
 40
0.5
100
AcDbArc
 50
180.0000434059011
 51
270.0
  0
ARC
  5
7089
330
1E
100
AcDbEntity
  8
躯体と製品
  6
Continuous
 62
     7
100
AcDbCircle
 10
2127.530382563093
 20
986.7472486533772
 30
0.0
 40
2.0
100
AcDbArc
 50
180.0000434059011
 51
270.0
  0
LINE
  5
708A
330
1E
100
AcDbEntity
  8
躯体と製品
  6
Continuous
 62
     7
100
AcDbLine
 10
2127.030401786292
 20
984.8107520169772
 30
0.0
 11
2127.030401786292
 21
982.7472547140772
 31
0.0
  0
LINE
  5
708B
330
1E
100
AcDbEntity
  8
躯体と製品
  6
Continuous
 62
     7
100
AcDbLine
 10
2127.030371957093
 20
1000.747181607977
 30
0.0
 11
2127.030382563093
 21
986.7472482746771
 31
0.0
  0
LINE
  5
708C
330
1E
100
AcDbEntity
  8
躯体と製品
  6
Continuous
 62
     7
100
AcDbLine
 10
2223.530384835893
 20
1001.247254714077
 30
0.0
 11
2127.530371957092
 21
1001.247254714077
 31
0.0
  0
ARC
  5
708D
330
1E
100
AcDbEntity
  8
躯体と製品
  6
Continuous
 62
     7
100
AcDbCircle
 10
2127.530371957092
 20
1000.747181986777
 30
0.0
 40
0.5
100
AcDbArc
 50
90.0
 51
180.0000434059011
  0
LINE
  5
708E
330
1E
100
AcDbEntity
  8
躯体と製品
  6
Continuous
 62
     7
100
AcDbLine
 10
2125.530371957093
 20
1000.747180471577
 30
0.0
 11
2125.530382563093
 21
986.7472471382772
 31
0.0
  0
LINE
  5
708F
330
1E
100
AcDbEntity
  8
躯体と製品
  6
Continuous
 62
     7
100
AcDbLine
 10
2223.530384835893
 20
1002.747254714077
 30
0.0
 11
2127.530371957092
 21
1002.747254714077
 31
0.0
  0
ARC
  5
7090
330
1E
100
AcDbEntity
  8
躯体と製品
  6
Continuous
 62
     7
100
AcDbCircle
 10
2127.530371957092
 20
1000.747181986777
 30
0.0
 40
2.0
100
AcDbArc
 50
90.0
 51
180.0000434059011
  0
LINE
  5
7091
330
1E
100
AcDbEntity
  8
躯体と製品
  6
Continuous
 62
     7
100
AcDbLine
 10
2145.630401786293
 20
1002.747254714077
 30
0.0
 11
2145.630401786293
 21
1002.447254714077
 31
0.0
  0
LINE
  5
7092
330
1E
100
AcDbEntity
  8
躯体と製品
  6
Continuous
 62
     7
100
AcDbLine
 10
2145.630401786293
 20
1002.447254714077
 30
0.0
 11
2143.297067786292
 21
1000.447256714077
 31
0.0
  0
LINE
  5
7093
330
1E
100
AcDbEntity
  8
躯体と製品
  6
Continuous
 62
     7
100
AcDbLine
 10
2145.630401786293
 20
1002.447254714077
 30
0.0
 11
2138.430401786293
 21
1002.447254714077
 31
0.0
  0
LINE
  5
7094
330
1E
100
AcDbEntity
  8
躯体と製品
  6
Continuous
 62
     7
100
AcDbLine
 10
2138.430401786293
 20
1002.747254714077
 30
0.0
 11
2138.430401786293
 21
1002.447254714077
 31
0.0
  0
LINE
  5
7095
330
1E
100
AcDbEntity
  8
躯体と製品
  6
Continuous
 62
     7
100
AcDbLine
 10
2138.430401786293
 20
1002.447254714077
 30
0.0
 11
2140.763735786292
 21
1000.447256714077
 31
0.0
  0
LINE
  5
7096
330
1E
100
AcDbEntity
  8
躯体と製品
  6
Continuous
 62
     7
100
AcDbLine
 10
2143.297067786292
 20
993.8694777140772
 30
0.0
 11
2143.297067786292
 21
994.9041777140774
 31
0.0
  0
LINE
  5
7097
330
1E
100
AcDbEntity
  8
躯体と製品
  6
Continuous
 62
     7
100
AcDbLine
 10
2140.763735786292
 20
992.0819577140772
 30
0.0
 11
2143.297067786292
 21
993.0226977140772
 31
0.0
  0
LINE
  5
7098
330
1E
100
AcDbEntity
  8
躯体と製品
  6
Continuous
 62
     7
100
AcDbLine
 10
2140.763735786292
 20
992.9287377140772
 30
0.0
 11
2143.297067786292
 21
993.8694777140772
 31
0.0
  0
LINE
  5
7099
330
1E
100
AcDbEntity
  8
躯体と製品
  6
Continuous
 62
     7
100
AcDbLine
 10
2140.030400786293
 20
992.5053477140771
 30
0.0
 11
2144.030402786293
 21
993.4460877140772
 31
0.0
  0
LINE
  5
709A
330
1E
100
AcDbEntity
  8
躯体と製品
  6
Continuous
 62
     7
100
AcDbLine
 10
2140.030400786293
 20
992.5053477140771
 30
0.0
 11
2140.763735786292
 21
992.0819577140772
 31
0.0
  0
LINE
  5
709B
330
1E
100
AcDbEntity
  8
躯体と製品
  6
Continuous
 62
     7
100
AcDbLine
 10
2140.030400786293
 20
992.5053477140771
 30
0.0
 11
2140.763735786292
 21
992.9287377140772
 31
0.0
  0
LINE
  5
709C
330
1E
100
AcDbEntity
  8
躯体と製品
  6
Continuous
 62
     7
100
AcDbLine
 10
2144.030402786293
 20
993.4460877140772
 30
0.0
 11
2143.297067786292
 21
993.0226977140772
 31
0.0
  0
LINE
  5
709D
330
1E
100
AcDbEntity
  8
躯体と製品
  6
Continuous
 62
     7
100
AcDbLine
 10
2143.297067786292
 20
993.8694777140772
 30
0.0
 11
2144.030402786293
 21
993.4460877140772
 31
0.0
  0
LINE
  5
709E
330
1E
100
AcDbEntity
  8
躯体と製品
  6
Continuous
 62
     7
100
AcDbLine
 10
2140.763735786292
 20
995.8449207140773
 30
0.0
 11
2140.763735786292
 21
994.8102177140771
 31
0.0
  0
LINE
  5
709F
330
1E
100
AcDbEntity
  8
躯体と製品
  6
Continuous
 62
     7
100
AcDbLine
 10
2143.297067786292
 20
995.7509607140773
 30
0.0
 11
2143.297067786292
 21
996.7856607140774
 31
0.0
  0
LINE
  5
70A0
330
1E
100
AcDbEntity
  8
躯体と製品
  6
Continuous
 62
     7
100
AcDbLine
 10
2140.763735786292
 20
993.9634377140773
 30
0.0
 11
2143.297067786292
 21
994.9041777140774
 31
0.0
  0
LINE
  5
70A1
330
1E
100
AcDbEntity
  8
躯体と製品
  6
Continuous
 62
     7
100
AcDbLine
 10
2140.763735786292
 20
994.8102177140771
 30
0.0
 11
2143.297067786292
 21
995.7509607140773
 31
0.0
  0
LINE
  5
70A2
330
1E
100
AcDbEntity
  8
躯体と製品
  6
Continuous
 62
     7
100
AcDbLine
 10
2140.030400786293
 20
994.3868277140772
 30
0.0
 11
2144.030402786293
 21
995.3275677140771
 31
0.0
  0
LINE
  5
70A3
330
1E
100
AcDbEntity
  8
躯体と製品
  6
Continuous
 62
     7
100
AcDbLine
 10
2140.030400786293
 20
994.3868277140772
 30
0.0
 11
2140.763735786292
 21
993.9634377140773
 31
0.0
  0
LINE
  5
70A4
330
1E
100
AcDbEntity
  8
躯体と製品
  6
Continuous
 62
     7
100
AcDbLine
 10
2140.030400786293
 20
994.3868277140772
 30
0.0
 11
2140.763735786292
 21
994.8102177140771
 31
0.0
  0
LINE
  5
70A5
330
1E
100
AcDbEntity
  8
躯体と製品
  6
Continuous
 62
     7
100
AcDbLine
 10
2144.030402786293
 20
995.3275677140771
 30
0.0
 11
2143.297067786292
 21
994.9041777140774
 31
0.0
  0
LINE
  5
70A6
330
1E
100
AcDbEntity
  8
躯体と製品
  6
Continuous
 62
     7
100
AcDbLine
 10
2143.297067786292
 20
995.7509607140773
 30
0.0
 11
2144.030402786293
 21
995.3275677140771
 31
0.0
  0
LINE
  5
70A7
330
1E
100
AcDbEntity
  8
躯体と製品
  6
Continuous
 62
     7
100
AcDbLine
 10
2140.763735786292
 20
997.7264007140771
 30
0.0
 11
2140.763735786292
 21
996.6917007140772
 31
0.0
  0
LINE
  5
70A8
330
1E
100
AcDbEntity
  8
躯体と製品
  6
Continuous
 62
     7
100
AcDbLine
 10
2143.297067786292
 20
997.6324407140772
 30
0.0
 11
2143.297067786292
 21
998.6671407140772
 31
0.0
  0
LINE
  5
70A9
330
1E
100
AcDbEntity
  8
躯体と製品
  6
Continuous
 62
     7
100
AcDbLine
 10
2140.763735786292
 20
995.8449207140773
 30
0.0
 11
2143.297067786292
 21
996.7856607140774
 31
0.0
  0
LINE
  5
70AA
330
1E
100
AcDbEntity
  8
躯体と製品
  6
Continuous
 62
     7
100
AcDbLine
 10
2140.763735786292
 20
996.6917007140772
 30
0.0
 11
2143.297067786292
 21
997.6324407140772
 31
0.0
  0
LINE
  5
70AB
330
1E
100
AcDbEntity
  8
躯体と製品
  6
Continuous
 62
     7
100
AcDbLine
 10
2140.030400786293
 20
996.2683107140771
 30
0.0
 11
2144.030402786293
 21
997.2090507140771
 31
0.0
  0
LINE
  5
70AC
330
1E
100
AcDbEntity
  8
躯体と製品
  6
Continuous
 62
     7
100
AcDbLine
 10
2140.030400786293
 20
996.2683107140771
 30
0.0
 11
2140.763735786292
 21
995.8449207140773
 31
0.0
  0
LINE
  5
70AD
330
1E
100
AcDbEntity
  8
躯体と製品
  6
Continuous
 62
     7
100
AcDbLine
 10
2140.030400786293
 20
996.2683107140771
 30
0.0
 11
2140.763735786292
 21
996.6917007140772
 31
0.0
  0
LINE
  5
70AE
330
1E
100
AcDbEntity
  8
躯体と製品
  6
Continuous
 62
     7
100
AcDbLine
 10
2144.030402786293
 20
997.2090507140771
 30
0.0
 11
2143.297067786292
 21
996.7856607140774
 31
0.0
  0
LINE
  5
70AF
330
1E
100
AcDbEntity
  8
躯体と製品
  6
Continuous
 62
     7
100
AcDbLine
 10
2143.297067786292
 20
997.6324407140772
 30
0.0
 11
2144.030402786293
 21
997.2090507140771
 31
0.0
  0
LINE
  5
70B0
330
1E
100
AcDbEntity
  8
躯体と製品
  6
Continuous
 62
     7
100
AcDbLine
 10
2140.763735786292
 20
998.8111947140774
 30
0.0
 11
2140.763735786292
 21
998.5731807140773
 31
0.0
  0
LINE
  5
70B1
330
1E
100
AcDbEntity
  8
躯体と製品
  6
Continuous
 62
     7
100
AcDbLine
 10
2143.297067786292
 20
1000.447256714077
 30
0.0
 11
2143.297067786292
 21
999.5139237140772
 31
0.0
  0
LINE
  5
70B2
330
1E
100
AcDbEntity
  8
躯体と製品
  6
Continuous
 62
     7
100
AcDbLine
 10
2140.763735786292
 20
997.7264007140771
 30
0.0
 11
2143.297067786292
 21
998.6671407140772
 31
0.0
  0
LINE
  5
70B3
330
1E
100
AcDbEntity
  8
躯体と製品
  6
Continuous
 62
     7
100
AcDbLine
 10
2140.763735786292
 20
998.5731807140773
 30
0.0
 11
2143.297067786292
 21
999.5139237140772
 31
0.0
  0
LINE
  5
70B4
330
1E
100
AcDbEntity
  8
躯体と製品
  6
Continuous
 62
     7
100
AcDbLine
 10
2140.030400786293
 20
998.149790714077
 30
0.0
 11
2144.030402786293
 21
999.0905307140771
 31
0.0
  0
LINE
  5
70B5
330
1E
100
AcDbEntity
  8
躯体と製品
  6
Continuous
 62
     7
100
AcDbLine
 10
2140.030400786293
 20
998.149790714077
 30
0.0
 11
2140.763735786292
 21
997.7264007140771
 31
0.0
  0
LINE
  5
70B6
330
1E
100
AcDbEntity
  8
躯体と製品
  6
Continuous
 62
     7
100
AcDbLine
 10
2140.030400786293
 20
998.149790714077
 30
0.0
 11
2140.763735786292
 21
998.5731807140773
 31
0.0
  0
LINE
  5
70B7
330
1E
100
AcDbEntity
  8
躯体と製品
  6
Continuous
 62
     7
100
AcDbLine
 10
2143.297067786292
 20
998.6671407140772
 30
0.0
 11
2144.030402786293
 21
999.0905307140771
 31
0.0
  0
LINE
  5
70B8
330
1E
100
AcDbEntity
  8
躯体と製品
  6
Continuous
 62
     7
100
AcDbLine
 10
2143.297067786292
 20
999.5139237140772
 30
0.0
 11
2144.030402786293
 21
999.0905307140771
 31
0.0
  0
LINE
  5
70B9
330
1E
100
AcDbEntity
  8
躯体と製品
  6
Continuous
 62
     7
100
AcDbLine
 10
2140.763735786292
 20
1000.447256714077
 30
0.0
 11
2140.763735786292
 21
1000.186538714077
 31
0.0
  0
LINE
  5
70BA
330
1E
100
AcDbEntity
  8
躯体と製品
  6
Continuous
 62
     7
100
AcDbLine
 10
2142.030401786292
 20
1000.233518714077
 30
0.0
 11
2140.030400786293
 21
999.7631487140774
 31
0.0
  0
LINE
  5
70BB
330
1E
100
AcDbEntity
  8
躯体と製品
  6
Continuous
 62
     7
100
AcDbLine
 10
2140.030400786293
 20
999.7631487140774
 30
0.0
 11
2140.763735786292
 21
999.3397587140773
 31
0.0
  0
LINE
  5
70BC
330
1E
100
AcDbEntity
  8
躯体と製品
  6
Continuous
 62
     7
100
AcDbLine
 10
2140.030400786293
 20
999.7631487140774
 30
0.0
 11
2140.763735786292
 21
1000.186538714077
 31
0.0
  0
LINE
  5
70BD
330
1E
100
AcDbEntity
  8
躯体と製品
  6
Continuous
 62
     7
100
AcDbLine
 10
2140.763735786292
 20
999.3397587140773
 30
0.0
 11
2140.763735786292
 21
998.8111947140774
 31
0.0
  0
LINE
  5
70BE
330
1E
100
AcDbEntity
  8
躯体と製品
  6
Continuous
 62
     7
100
AcDbLine
 10
2142.030401786292
 20
988.7472567140772
 30
0.0
 11
2142.030401786292
 21
986.7472557140771
 31
0.0
  0
LINE
  5
70BF
330
1E
100
AcDbEntity
  8
躯体と製品
  6
Continuous
 62
     7
100
AcDbLine
 10
2143.297067786292
 20
991.7472567140773
 30
0.0
 11
2140.763750786293
 21
991.7472567140773
 31
0.0
  0
LINE
  5
70C0
330
1E
100
AcDbEntity
  8
躯体と製品
  6
Continuous
 62
     7
100
AcDbLine
 10
2142.030401786292
 20
986.7472557140771
 30
0.0
 11
2140.763735786292
 21
987.671015714077
 31
0.0
  0
LINE
  5
70C1
330
1E
100
AcDbEntity
  8
躯体と製品
  6
Continuous
 62
     7
100
AcDbLine
 10
2142.030401786292
 20
986.7472557140771
 30
0.0
 11
2143.297067786292
 21
987.671015714077
 31
0.0
  0
ARC
  5
70C2
330
1E
100
AcDbEntity
  8
躯体と製品
  6
Continuous
 62
     7
100
AcDbCircle
 10
2142.405173786293
 20
987.0226587140772
 30
0.0
 40
1.764848999999999
100
AcDbArc
 50
102.260328999995
 51
158.4463040000012
  0
ARC
  5
70C3
330
1E
100
AcDbEntity
  8
躯体と製品
  6
Continuous
 62
     7
100
AcDbCircle
 10
2148.036686786293
 20
987.9786777140772
 30
0.0
 40
6.055259999999
100
AcDbArc
 50
141.5109779999976
 51
172.7079179999991
  0
LINE
  5
70C4
330
1E
100
AcDbEntity
  8
躯体と製品
  6
Continuous
 62
     7
100
AcDbLine
 10
2140.763735786292
 20
992.0819577140772
 30
0.0
 11
2140.763735786292
 21
991.7472567140773
 31
0.0
  0
LINE
  5
70C5
330
1E
100
AcDbEntity
  8
躯体と製品
  6
Continuous
 62
     7
100
AcDbLine
 10
2140.763735786292
 20
1000.447256714077
 30
0.0
 11
2143.297067786292
 21
1000.447256714077
 31
0.0
  0
LINE
  5
70C6
330
1E
100
AcDbEntity
  8
躯体と製品
  6
Continuous
 62
     7
100
AcDbLine
 10
2140.763735786292
 20
1000.186538714077
 30
0.0
 11
2142.030401786292
 21
1000.233518714077
 31
0.0
  0
LINE
  5
70C7
330
1E
100
AcDbEntity
  8
躯体と製品
  6
Continuous
 62
     7
100
AcDbLine
 10
2140.763735786292
 20
999.3397587140773
 30
0.0
 11
2142.030401786292
 21
1000.233518714077
 31
0.0
  0
LINE
  5
70C8
330
1E
100
AcDbEntity
  8
躯体と製品
  6
Continuous
 62
     7
100
AcDbLine
 10
2140.763735786292
 20
991.7472567140773
 30
0.0
 11
2140.763735786292
 21
987.671015714077
 31
0.0
  0
LINE
  5
70C9
330
1E
100
AcDbEntity
  8
躯体と製品
  6
Continuous
 62
     7
100
AcDbLine
 10
2143.297067786292
 20
993.0226977140772
 30
0.0
 11
2143.297067786292
 21
987.671015714077
 31
0.0
  0
LINE
  5
70CA
330
1E
100
AcDbEntity
  8
躯体と製品
  6
Continuous
 62
     7
100
AcDbLine
 10
2140.763735786292
 20
993.9634377140773
 30
0.0
 11
2140.763735786292
 21
992.9287377140772
 31
0.0
  0
LINE
  5
70CB
330
1E
100
AcDbEntity
  8
躯体と製品
  6
CENTER2_22
 62
     7
100
AcDbLine
 10
2142.030401786292
 20
982.7472547140772
 30
0.0
 11
2142.030401786292
 21
1005.097154917377
 31
0.0
  0
ARC
  5
70CC
330
1E
100
AcDbEntity
  8
躯体と製品
  6
Continuous
 62
     7
100
AcDbCircle
 10
2139.030401786293
 20
984.7472547140773
 30
0.0
 40
0.5
100
AcDbArc
 50
180.0
 51
270.0
  0
ARC
  5
70CD
330
1E
100
AcDbEntity
  8
躯体と製品
  6
Continuous
 62
     7
100
AcDbCircle
 10
2137.530401786293
 20
1000.747254714077
 30
0.0
 40
0.5
100
AcDbArc
 50
90.0
 51
180.0
  0
LINE
  5
70CE
330
1E
100
AcDbEntity
  8
躯体と製品
  6
Continuous
 62
     7
100
AcDbLine
 10
2137.030401786292
 20
982.7472547140772
 30
0.0
 11
2137.030401786292
 21
994.7472547140773
 31
0.0
  0
LINE
  5
70CF
330
1E
100
AcDbEntity
  8
躯体と製品
  6
Continuous
 62
     7
100
AcDbLine
 10
2137.030401786292
 20
996.7472541156773
 30
0.0
 11
2137.030401786292
 21
1000.747254714077
 31
0.0
  0
ARC
  5
70D0
330
1E
100
AcDbEntity
  8
躯体と製品
  6
Continuous
 62
     7
100
AcDbCircle
 10
2139.030401786293
 20
984.7472547140773
 30
0.0
 40
0.5
100
AcDbArc
 50
180.0
 51
270.0
  0
ARC
  5
70D1
330
1E
100
AcDbEntity
  8
躯体と製品
  6
Continuous
 62
     7
100
AcDbCircle
 10
2145.030401786293
 20
999.7472547140771
 30
0.0
 40
2.0
100
AcDbArc
 50
270.0
 51
0.0
  0
ARC
  5
70D2
330
1E
100
AcDbEntity
  8
躯体と製品
  6
Continuous
 62
     7
100
AcDbCircle
 10
2138.030401786292
 20
1000.747254714077
 30
0.0
 40
0.5
100
AcDbArc
 50
0.0
 51
90.0
  0
ARC
  5
70D3
330
1E
100
AcDbEntity
  8
躯体と製品
  6
Continuous
 62
     7
100
AcDbCircle
 10
2146.030401786293
 20
1000.747254714077
 30
0.0
 40
0.5
100
AcDbArc
 50
90.0
 51
180.0
  0
LINE
  5
70D4
330
1E
100
AcDbEntity
  8
躯体と製品
  6
Continuous
 62
     7
100
AcDbLine
 10
2147.030401786293
 20
1000.747254714077
 30
0.0
 11
2147.030401786293
 21
999.7472547140771
 31
0.0
  0
ARC
  5
70D5
330
1E
100
AcDbEntity
  8
躯体と製品
  6
Continuous
 62
     7
100
AcDbCircle
 10
2146.530401786293
 20
1000.747254714077
 30
0.0
 40
0.5
100
AcDbArc
 50
0.0
 51
90.0
  0
LINE
  5
70D6
330
1E
100
AcDbEntity
  8
躯体と製品
  6
Continuous
 62
     7
100
AcDbLine
 10
2138.530401786292
 20
996.7472547140772
 30
0.0
 11
2138.530401786292
 21
984.7472547140773
 31
0.0
  0
LINE
  5
70D7
330
1E
100
AcDbEntity
  8
躯体と製品
  6
Continuous
 62
     7
100
AcDbLine
 10
2139.530401786292
 20
997.7472547140772
 30
0.0
 11
2145.030401786293
 21
997.7472547140772
 31
0.0
  0
ARC
  5
70D8
330
1E
100
AcDbEntity
  8
躯体と製品
  6
Continuous
 62
     7
100
AcDbCircle
 10
2139.530401786292
 20
996.7472547140772
 30
0.0
 40
0.9999999999998999
100
AcDbArc
 50
90.0
 51
180.0
  0
LINE
  5
70D9
330
1E
100
AcDbEntity
  8
躯体と製品
  6
Continuous
 62
     7
100
AcDbLine
 10
2138.530401786292
 20
999.7472547140771
 30
0.0
 11
2141.730401786293
 21
999.7472547140771
 31
0.0
  0
LINE
  5
70DA
330
1E
100
AcDbEntity
  8
躯体と製品
  6
Continuous
 62
     7
100
AcDbLine
 10
2142.330401786293
 20
999.7472547140771
 30
0.0
 11
2145.530401786293
 21
999.7472547140771
 31
0.0
  0
LINE
  5
70DB
330
1E
100
AcDbEntity
  8
躯体と製品
  6
Continuous
 62
     7
100
AcDbLine
 10
2138.530401786292
 20
999.7472547140771
 30
0.0
 11
2138.530401786292
 21
1000.747254714077
 31
0.0
  0
LINE
  5
70DC
330
1E
100
AcDbEntity
  8
躯体と製品
  6
Continuous
 62
     7
100
AcDbLine
 10
2145.530401786293
 20
1000.747254714077
 30
0.0
 11
2145.530401786293
 21
999.7472547140771
 31
0.0
  0
LINE
  5
70DD
330
1E
100
AcDbEntity
  8
躯体と製品
  6
Continuous
 62
     7
100
AcDbLine
 10
2142.030401786292
 20
999.4472547140771
 30
0.0
 11
2141.730401786293
 21
999.7472547140771
 31
0.0
  0
LINE
  5
70DE
330
1E
100
AcDbEntity
  8
躯体と製品
  6
Continuous
 62
     7
100
AcDbLine
 10
2142.030401786292
 20
999.4472547140771
 30
0.0
 11
2142.330401786293
 21
999.7472547140771
 31
0.0
  0
LINE
  5
70DF
330
1E
100
AcDbEntity
  8
躯体と製品
  6
Continuous
 62
     7
100
AcDbLine
 10
2139.030401786293
 20
984.2472547140772
 30
0.0
 11
2167.030401786293
 21
984.2472547140772
 31
0.0
  0
LINE
  5
70E0
330
1E
100
AcDbEntity
  8
躯体と製品
  6
Continuous
 62
     7
100
AcDbLine
 10
2169.030401786293
 20
986.7472557140771
 30
0.0
 11
2170.030400786293
 21
986.7472557140771
 31
0.0
  0
ARC
  5
70E1
330
1E
100
AcDbEntity
  8
躯体と製品
  6
Continuous
 62
     7
100
AcDbCircle
 10
2167.830401786293
 20
989.4472557140771
 30
0.0
 40
0.2999999999999999
100
AcDbArc
 50
90.0
 51
180.0
  0
LINE
  5
70E2
330
1E
100
AcDbEntity
  8
躯体と製品
  6
Continuous
 62
     7
100
AcDbLine
 10
2169.144363758793
 20
989.4053694547771
 30
0.0
 11
2170.030400786293
 21
986.7472557140771
 31
0.0
  0
LINE
  5
70E3
330
1E
100
AcDbEntity
  8
躯体と製品
  6
Continuous
 62
     7
100
AcDbLine
 10
2168.670022062292
 20
989.7472557140773
 30
0.0
 11
2167.830401786293
 21
989.7472557140773
 31
0.0
  0
ARC
  5
70E4
330
1E
100
AcDbEntity
  8
躯体と製品
  6
Continuous
 62
     7
100
AcDbCircle
 10
2168.670022062292
 20
989.2472557140772
 30
0.0
 40
0.5
100
AcDbArc
 50
18.43493163418103
 51
90.0
  0
LINE
  5
70E5
330
1E
100
AcDbEntity
  8
躯体と製品
  6
Continuous
 62
     7
100
AcDbLine
 10
2169.030401786293
 20
986.7472557140771
 30
0.0
 11
2169.030401786293
 21
984.7472547140773
 31
0.0
  0
ARC
  5
70E6
330
1E
100
AcDbEntity
  8
躯体と製品
  6
Continuous
 62
     7
100
AcDbCircle
 10
2169.530401786293
 20
984.7472547140773
 30
0.0
 40
0.5
100
AcDbArc
 50
180.0
 51
270.0
  0
LINE
  5
70E7
330
1E
100
AcDbEntity
  8
躯体と製品
  6
Continuous
 62
     7
100
AcDbLine
 10
2167.530401786293
 20
989.4472557140771
 30
0.0
 11
2167.530401786293
 21
984.7472547140773
 31
0.0
  0
ARC
  5
70E8
330
1E
100
AcDbEntity
  8
躯体と製品
  6
Continuous
 62
     7
100
AcDbCircle
 10
2167.030401786293
 20
984.7472547140773
 30
0.0
 40
0.5
100
AcDbArc
 50
270.0
 51
0.0
  0
LINE
  5
70E9
330
1E
100
AcDbEntity
  8
躯体と製品
  6
Continuous
 62
     7
100
AcDbLine
 10
2169.530401786293
 20
984.2472547140772
 30
0.0
 11
2227.530402786292
 21
984.2472547140772
 31
0.0
  0
ARC
  5
70EA
330
1E
100
AcDbEntity
  8
躯体と製品
  6
Continuous
 62
     7
100
AcDbCircle
 10
2227.530402786292
 20
984.7472547140773
 30
0.0
 40
0.5
100
AcDbArc
 50
270.0
 51
0.0
  0
ARC
  5
70EB
330
1E
100
AcDbEntity
  8
躯体と製品
  6
Continuous
 62
     7
100
AcDbCircle
 10
2229.030402786293
 20
983.2472547140772
 30
0.0
 40
0.5
100
AcDbArc
 50
270.0
 51
0.0
  0
ARC
  5
70EC
330
1E
100
AcDbEntity
  8
躯体と製品
  6
Continuous
 62
     7
100
AcDbCircle
 10
2228.780402786293
 20
991.9972547140773
 30
0.0
 40
0.7499999999998999
100
AcDbArc
 50
0.0
 51
180.0
  0
LINE
  5
70ED
330
1E
100
AcDbEntity
  8
躯体と製品
  6
Continuous
 62
     7
100
AcDbLine
 10
2229.530402786293
 20
991.9972547140773
 30
0.0
 11
2229.530402786293
 21
983.2472547140772
 31
0.0
  0
LINE
  5
70EE
330
1E
100
AcDbEntity
  8
躯体と製品
  6
Continuous
 62
     7
100
AcDbLine
 10
2228.030402786293
 20
991.9972547140773
 30
0.0
 11
2228.030402786293
 21
984.7472547140773
 31
0.0
  0
LINE
  5
70EF
330
1E
100
AcDbEntity
  8
躯体と製品
  6
Continuous
 62
     7
100
AcDbLine
 10
2166.030416786293
 20
985.7472547140773
 30
0.0
 11
2148.030416786292
 21
985.7472547140773
 31
0.0
  0
LINE
  5
70F0
330
1E
100
AcDbEntity
  8
躯体と製品
  6
Continuous
 62
     7
100
AcDbLine
 10
2148.030416786292
 20
985.7472547140773
 30
0.0
 11
2148.030416786292
 21
984.2472547140772
 31
0.0
  0
LINE
  5
70F1
330
1E
100
AcDbEntity
  8
躯体と製品
  6
Continuous
 62
     7
100
AcDbLine
 10
2166.030416786293
 20
985.7472547140773
 30
0.0
 11
2166.030416786293
 21
984.2472547140772
 31
0.0
  0
LINE
  5
70F2
330
1E
100
AcDbEntity
  8
躯体と製品
  6
Continuous
 62
     7
100
AcDbLine
 10
2157.030416786293
 20
983.9472697140772
 30
0.0
 11
2157.330416786293
 21
984.2472697140772
 31
0.0
  0
LINE
  5
70F3
330
1E
100
AcDbEntity
  8
躯体と製品
  6
Continuous
 62
     7
100
AcDbLine
 10
2157.030416786293
 20
983.9472697140772
 30
0.0
 11
2156.730431786293
 21
984.2472547140772
 31
0.0
  0
ARC
  5
70F4
330
1E
100
AcDbEntity
  8
躯体と製品
  6
Continuous
 62
     7
100
AcDbCircle
 10
2155.629917786292
 20
985.7962542065772
 30
0.0
 40
2.399999999999999
100
AcDbArc
 50
125.7000590000011
 51
181.1698579999989
  0
ARC
  5
70F5
330
1E
100
AcDbEntity
  8
躯体と製品
  6
Continuous
 62
     7
100
AcDbCircle
 10
2157.030416786293
 20
983.8472562065772
 30
0.0
 40
4.799999999999999
100
AcDbArc
 50
54.29996099999738
 51
90.0
  0
ARC
  5
70F6
330
1E
100
AcDbEntity
  8
躯体と製品
  6
Continuous
 62
     7
100
AcDbCircle
 10
2158.430915786293
 20
985.7962542065772
 30
0.0
 40
2.399999999999999
100
AcDbArc
 50
358.8301420000044
 51
54.29994099999883
  0
ARC
  5
70F7
330
1E
100
AcDbEntity
  8
躯体と製品
  6
Continuous
 62
     7
100
AcDbCircle
 10
2157.030416786293
 20
983.8472562065772
 30
0.0
 40
4.799999999999999
100
AcDbArc
 50
90.0
 51
125.7000390000026
  0
LINE
  5
70F8
330
1E
100
AcDbEntity
  8
躯体と製品
  6
CENTER2_22
 62
     7
100
AcDbLine
 10
2157.030401786293
 20
954.0847113699772
 30
0.0
 11
2157.030401786293
 21
990.6072727140772
 31
0.0
  0
LINE
  5
70F9
330
1E
100
AcDbEntity
  8
躯体と製品
  6
Continuous
 62
     7
100
AcDbLine
 10
2156.730401786293
 20
984.2472547140772
 30
0.0
 11
2157.030401786293
 21
983.9472547140772
 31
0.0
  0
LINE
  5
70FA
330
1E
100
AcDbEntity
  8
躯体と製品
  6
Continuous
 62
     7
100
AcDbLine
 10
2157.030401786293
 20
983.9472547140772
 30
0.0
 11
2157.330401786293
 21
984.2472547140772
 31
0.0
  0
LINE
  5
70FB
330
1E
100
AcDbEntity
  8
躯体と製品
  6
Continuous
 62
     7
100
AcDbLine
 10
2164.030401786293
 20
982.7472547140772
 30
0.0
 11
2164.030401786293
 21
984.2472547140772
 31
0.0
  0
LINE
  5
70FC
330
1E
100
AcDbEntity
  8
躯体と製品
  6
Continuous
 62
     7
100
AcDbLine
 10
2150.030401786293
 20
982.7472547140772
 30
0.0
 11
2150.030401786293
 21
984.2472547140772
 31
0.0
  0
LINE
  5
70FD
330
1E
100
AcDbEntity
  8
躯体と製品
  6
Continuous
 62
     7
100
AcDbLine
 10
2153.562989786293
 20
967.8969727140772
 30
0.0
 11
2152.291466786293
 21
971.3904577140771
 31
0.0
  0
LINE
  5
70FE
330
1E
100
AcDbEntity
  8
躯体と製品
  6
Continuous
 62
     7
100
AcDbLine
 10
2153.288225786293
 20
962.6541667140772
 30
0.0
 11
2154.746918786293
 21
961.8266917140772
 31
0.0
  0
LINE
  5
70FF
330
1E
100
AcDbEntity
  8
躯体と製品
  6
Continuous
 62
     7
100
AcDbLine
 10
2154.746918786293
 20
961.8266917140772
 30
0.0
 11
2154.668414786293
 21
960.3287467140772
 31
0.0
  0
LINE
  5
7100
330
1E
100
AcDbEntity
  8
躯体と製品
  6
Continuous
 62
     7
100
AcDbLine
 10
2154.668414786293
 20
960.3287467140772
 30
0.0
 11
2153.170469786292
 21
960.4072507140772
 31
0.0
  0
LINE
  5
7101
330
1E
100
AcDbEntity
  8
躯体と製品
  6
Continuous
 62
     7
100
AcDbLine
 10
2153.366729786293
 20
964.1521117140772
 30
0.0
 11
2153.288225786293
 21
962.6541667140772
 31
0.0
  0
LINE
  5
7102
330
1E
100
AcDbEntity
  8
躯体と製品
  6
Continuous
 62
     7
100
AcDbLine
 10
2153.484485786293
 20
966.3990277140772
 30
0.0
 11
2154.943178786292
 21
965.5715497140773
 31
0.0
  0
LINE
  5
7103
330
1E
100
AcDbEntity
  8
躯体と製品
  6
Continuous
 62
     7
100
AcDbLine
 10
2154.943178786292
 20
965.5715497140773
 30
0.0
 11
2154.864674786293
 21
964.0736077140772
 31
0.0
  0
LINE
  5
7104
330
1E
100
AcDbEntity
  8
躯体と製品
  6
Continuous
 62
     7
100
AcDbLine
 10
2154.864674786293
 20
964.0736077140772
 30
0.0
 11
2153.366729786293
 21
964.1521117140772
 31
0.0
  0
LINE
  5
7105
330
1E
100
AcDbEntity
  8
躯体と製品
  6
Continuous
 62
     7
100
AcDbLine
 10
2153.562989786293
 20
967.8969727140772
 30
0.0
 11
2153.484485786293
 21
966.3990277140772
 31
0.0
  0
LINE
  5
7106
330
1E
100
AcDbEntity
  8
躯体と製品
  6
Continuous
 62
     7
100
AcDbLine
 10
2153.680745786292
 20
970.1438887140772
 30
0.0
 11
2155.139438786293
 21
969.3164107140772
 31
0.0
  0
LINE
  5
7107
330
1E
100
AcDbEntity
  8
躯体と製品
  6
Continuous
 62
     7
100
AcDbLine
 10
2155.139438786293
 20
969.3164107140772
 30
0.0
 11
2155.060934786293
 21
967.8184687140772
 31
0.0
  0
LINE
  5
7108
330
1E
100
AcDbEntity
  8
躯体と製品
  6
Continuous
 62
     7
100
AcDbLine
 10
2155.060934786293
 20
967.8184687140772
 30
0.0
 11
2153.562989786293
 21
967.8969727140772
 31
0.0
  0
LINE
  5
7109
330
1E
100
AcDbEntity
  8
躯体と製品
  6
Continuous
 62
     7
100
AcDbLine
 10
2153.759249786292
 20
971.6418337140771
 30
0.0
 11
2153.680745786292
 21
970.1438887140772
 31
0.0
  0
LINE
  5
710A
330
1E
100
AcDbEntity
  8
躯体と製品
  6
Continuous
 62
     7
100
AcDbLine
 10
2155.335698786293
 20
973.0612717140772
 30
0.0
 11
2155.257194786293
 21
971.5633297140772
 31
0.0
  0
LINE
  5
710B
330
1E
100
AcDbEntity
  8
躯体と製品
  6
Continuous
 62
     7
100
AcDbLine
 10
2155.257194786293
 20
971.5633297140772
 30
0.0
 11
2153.759249786292
 21
971.6418337140771
 31
0.0
  0
LINE
  5
710C
330
1E
100
AcDbEntity
  8
躯体と製品
  6
Continuous
 62
     7
100
AcDbLine
 10
2153.280416786293
 20
982.7472547140772
 30
0.0
 11
2154.030416786293
 21
978.9972547140772
 31
0.0
  0
LINE
  5
710D
330
1E
100
AcDbEntity
  8
躯体と製品
  6
Continuous
 62
     7
100
AcDbLine
 10
2154.030416786293
 20
973.7472547140772
 30
0.0
 11
2155.335698786293
 21
973.0612717140772
 31
0.0
  0
LINE
  5
710E
330
1E
100
AcDbEntity
  8
躯体と製品
  6
Continuous
 62
     7
100
AcDbLine
 10
2156.655416786293
 20
976.7472547140773
 30
0.0
 11
2157.030416786293
 21
976.7472547140773
 31
0.0
  0
LINE
  5
710F
330
1E
100
AcDbEntity
  8
躯体と製品
  6
Continuous
 62
     7
100
AcDbLine
 10
2160.772607786293
 20
962.6541667140772
 30
0.0
 11
2159.313914786292
 21
961.8266917140772
 31
0.0
  0
LINE
  5
7110
330
1E
100
AcDbEntity
  8
躯体と製品
  6
Continuous
 62
     7
100
AcDbLine
 10
2159.313914786292
 20
961.8266917140772
 30
0.0
 11
2159.392418786293
 21
960.3287467140772
 31
0.0
  0
LINE
  5
7111
330
1E
100
AcDbEntity
  8
躯体と製品
  6
Continuous
 62
     7
100
AcDbLine
 10
2159.392418786293
 20
960.3287467140772
 30
0.0
 11
2160.890363786292
 21
960.4072507140772
 31
0.0
  0
LINE
  5
7112
330
1E
100
AcDbEntity
  8
躯体と製品
  6
Continuous
 62
     7
100
AcDbLine
 10
2160.694103786292
 20
964.1521117140772
 30
0.0
 11
2160.772607786293
 21
962.6541667140772
 31
0.0
  0
LINE
  5
7113
330
1E
100
AcDbEntity
  8
躯体と製品
  6
Continuous
 62
     7
100
AcDbLine
 10
2160.576347786293
 20
966.3990277140772
 30
0.0
 11
2159.117654786292
 21
965.5715497140773
 31
0.0
  0
LINE
  5
7114
330
1E
100
AcDbEntity
  8
躯体と製品
  6
Continuous
 62
     7
100
AcDbLine
 10
2159.117654786292
 20
965.5715497140773
 30
0.0
 11
2159.196158786293
 21
964.0736077140772
 31
0.0
  0
LINE
  5
7115
330
1E
100
AcDbEntity
  8
躯体と製品
  6
Continuous
 62
     7
100
AcDbLine
 10
2159.196158786293
 20
964.0736077140772
 30
0.0
 11
2160.694103786292
 21
964.1521117140772
 31
0.0
  0
LINE
  5
7116
330
1E
100
AcDbEntity
  8
躯体と製品
  6
Continuous
 62
     7
100
AcDbLine
 10
2160.497843786293
 20
967.8969727140772
 30
0.0
 11
2160.576347786293
 21
966.3990277140772
 31
0.0
  0
LINE
  5
7117
330
1E
100
AcDbEntity
  8
躯体と製品
  6
Continuous
 62
     7
100
AcDbLine
 10
2160.380087786292
 20
970.1438887140772
 30
0.0
 11
2158.921394786293
 21
969.3164107140772
 31
0.0
  0
LINE
  5
7118
330
1E
100
AcDbEntity
  8
躯体と製品
  6
Continuous
 62
     7
100
AcDbLine
 10
2158.921394786293
 20
969.3164107140772
 30
0.0
 11
2158.999898786293
 21
967.8184687140772
 31
0.0
  0
LINE
  5
7119
330
1E
100
AcDbEntity
  8
躯体と製品
  6
Continuous
 62
     7
100
AcDbLine
 10
2158.999898786293
 20
967.8184687140772
 30
0.0
 11
2160.497843786293
 21
967.8969727140772
 31
0.0
  0
LINE
  5
711A
330
1E
100
AcDbEntity
  8
躯体と製品
  6
Continuous
 62
     7
100
AcDbLine
 10
2160.301583786293
 20
971.6418337140771
 30
0.0
 11
2160.380087786292
 21
970.1438887140772
 31
0.0
  0
LINE
  5
711B
330
1E
100
AcDbEntity
  8
躯体と製品
  6
Continuous
 62
     7
100
AcDbLine
 10
2158.725134786292
 20
973.0612717140772
 30
0.0
 11
2158.803638786292
 21
971.5633297140772
 31
0.0
  0
LINE
  5
711C
330
1E
100
AcDbEntity
  8
躯体と製品
  6
Continuous
 62
     7
100
AcDbLine
 10
2158.803638786292
 20
971.5633297140772
 30
0.0
 11
2160.301583786293
 21
971.6418337140771
 31
0.0
  0
LINE
  5
711D
330
1E
100
AcDbEntity
  8
躯体と製品
  6
Continuous
 62
     7
100
AcDbLine
 10
2157.030416786293
 20
978.9972547140772
 30
0.0
 11
2157.030416786293
 21
982.7472547140772
 31
0.0
  0
LINE
  5
711E
330
1E
100
AcDbEntity
  8
躯体と製品
  6
Continuous
 62
     7
100
AcDbLine
 10
2156.280416786293
 20
982.7472547140772
 30
0.0
 11
2157.030416786293
 21
978.9972547140772
 31
0.0
  0
LINE
  5
711F
330
1E
100
AcDbEntity
  8
躯体と製品
  6
Continuous
 62
     7
100
AcDbLine
 10
2157.780416786292
 20
982.7472547140772
 30
0.0
 11
2157.030416786293
 21
978.9972547140772
 31
0.0
  0
LINE
  5
7120
330
1E
100
AcDbEntity
  8
躯体と製品
  6
Continuous
 62
     7
100
AcDbLine
 10
2160.780416786292
 20
982.7472547140772
 30
0.0
 11
2160.030416786292
 21
978.9972547140772
 31
0.0
  0
LINE
  5
7121
330
1E
100
AcDbEntity
  8
躯体と製品
  6
Continuous
 62
     7
100
AcDbLine
 10
2160.030416786292
 20
973.7472547140772
 30
0.0
 11
2158.725134786292
 21
973.0612717140772
 31
0.0
  0
LINE
  5
7122
330
1E
100
AcDbEntity
  8
躯体と製品
  6
Continuous
 62
     7
100
AcDbLine
 10
2157.405416786292
 20
976.7472547140773
 30
0.0
 11
2157.030416786293
 21
976.7472547140773
 31
0.0
  0
LINE
  5
7123
330
1E
100
AcDbEntity
  8
躯体と製品
  6
Continuous
 62
     7
100
AcDbLine
 10
2161.769366786292
 20
971.3904577140771
 30
0.0
 11
2162.513633786292
 21
976.4931727140773
 31
0.0
  0
ARC
  5
7124
330
1E
100
AcDbEntity
  8
躯体と製品
  6
Continuous
 62
     7
100
AcDbCircle
 10
2162.216774786292
 20
976.5364717140773
 30
0.0
 40
0.2999999999999999
100
AcDbArc
 50
351.7015339999937
 51
81.86989799998885
  0
LINE
  5
7125
330
1E
100
AcDbEntity
  8
躯体と製品
  6
Continuous
 62
     7
100
AcDbLine
 10
2162.259200786293
 20
976.8334567140772
 30
0.0
 11
2162.111582786292
 21
976.8545437140771
 31
0.0
  0
ARC
  5
7126
330
1E
100
AcDbEntity
  8
躯体と製品
  6
Continuous
 62
     7
100
AcDbCircle
 10
2162.069156786293
 20
976.5575617140772
 30
0.0
 40
0.2999999999999999
100
AcDbArc
 50
81.86989800000221
 51
171.8698979999985
  0
LINE
  5
7127
330
1E
100
AcDbEntity
  8
躯体と製品
  6
Continuous
 62
     7
100
AcDbLine
 10
2161.772171786293
 20
976.5999877140771
 30
0.0
 11
2161.064597786293
 21
971.6469727140772
 31
0.0
  0
LINE
  5
7128
330
1E
100
AcDbEntity
  8
躯体と製品
  6
Continuous
 62
     7
100
AcDbLine
 10
2152.291466786293
 20
971.3904577140771
 30
0.0
 11
2151.547199786293
 21
976.4931727140773
 31
0.0
  0
ARC
  5
7129
330
1E
100
AcDbEntity
  8
躯体と製品
  6
Continuous
 62
     7
100
AcDbCircle
 10
2151.844058786292
 20
976.5364717140773
 30
0.0
 40
0.2999999999999999
100
AcDbArc
 50
98.1301019999978
 51
188.2984659999999
  0
LINE
  5
712A
330
1E
100
AcDbEntity
  8
躯体と製品
  6
Continuous
 62
     7
100
AcDbLine
 10
2151.801632786292
 20
976.8334567140772
 30
0.0
 11
2151.949250786293
 21
976.8545437140771
 31
0.0
  0
ARC
  5
712B
330
1E
100
AcDbEntity
  8
躯体と製品
  6
Continuous
 62
     7
100
AcDbCircle
 10
2151.991676786292
 20
976.5575617140772
 30
0.0
 40
0.2999999999999999
100
AcDbArc
 50
8.130101999991806
 51
98.1301019999978
  0
LINE
  5
712C
330
1E
100
AcDbEntity
  8
躯体と製品
  6
Continuous
 62
     7
100
AcDbLine
 10
2152.288661786292
 20
976.5999877140771
 30
0.0
 11
2152.996235786293
 21
971.6469727140772
 31
0.0
  0
LINE
  5
712D
330
1E
100
AcDbEntity
  8
躯体と製品
  6
Continuous
 62
     7
100
AcDbLine
 10
2160.497843786293
 20
967.8969727140772
 30
0.0
 11
2161.769366786292
 21
971.3904577140771
 31
0.0
  0
LINE
  5
712E
330
1E
100
AcDbEntity
  8
躯体と製品
  6
Continuous
 62
     7
100
AcDbLine
 10
2152.974209786293
 20
956.6623897140772
 30
0.0
 11
2152.895705786292
 21
955.1644447140771
 31
0.0
  0
LINE
  5
712F
330
1E
100
AcDbEntity
  8
躯体と製品
  6
Continuous
 62
     7
100
AcDbLine
 10
2153.091965786293
 20
958.9093057140772
 30
0.0
 11
2154.550658786293
 21
958.0818307140772
 31
0.0
  0
LINE
  5
7130
330
1E
100
AcDbEntity
  8
躯体と製品
  6
Continuous
 62
     7
100
AcDbLine
 10
2154.550658786293
 20
958.0818307140772
 30
0.0
 11
2154.472154786292
 21
956.583885714077
 31
0.0
  0
LINE
  5
7131
330
1E
100
AcDbEntity
  8
躯体と製品
  6
Continuous
 62
     7
100
AcDbLine
 10
2154.472154786292
 20
956.583885714077
 30
0.0
 11
2152.974209786293
 21
956.6623897140772
 31
0.0
  0
LINE
  5
7132
330
1E
100
AcDbEntity
  8
躯体と製品
  6
Continuous
 62
     7
100
AcDbLine
 10
2161.086620786292
 20
956.6623897140772
 30
0.0
 11
2161.165124786293
 21
955.1644447140771
 31
0.0
  0
LINE
  5
7133
330
1E
100
AcDbEntity
  8
躯体と製品
  6
Continuous
 62
     7
100
AcDbLine
 10
2160.968867786293
 20
958.9093057140772
 30
0.0
 11
2159.510174786293
 21
958.0818307140772
 31
0.0
  0
LINE
  5
7134
330
1E
100
AcDbEntity
  8
躯体と製品
  6
Continuous
 62
     7
100
AcDbLine
 10
2159.510174786293
 20
958.0818307140772
 30
0.0
 11
2159.588678786293
 21
956.583885714077
 31
0.0
  0
LINE
  5
7135
330
1E
100
AcDbEntity
  8
躯体と製品
  6
Continuous
 62
     7
100
AcDbLine
 10
2159.588678786293
 20
956.583885714077
 30
0.0
 11
2161.086620786292
 21
956.6623897140772
 31
0.0
  0
LINE
  5
7136
330
1E
100
AcDbEntity
  8
躯体と製品
  6
Continuous
 62
     7
100
AcDbLine
 10
2158.432499786292
 20
957.1493377140772
 30
0.0
 11
2157.030416786293
 21
955.7472547140772
 31
0.0
  0
LINE
  5
7137
330
1E
100
AcDbEntity
  8
躯体と製品
  6
Continuous
 62
     7
100
AcDbLine
 10
2153.170469786292
 20
960.4072507140772
 30
0.0
 11
2153.091965786293
 21
958.9093057140772
 31
0.0
  0
LINE
  5
7138
330
1E
100
AcDbEntity
  8
躯体と製品
  6
Continuous
 62
     7
100
AcDbLine
 10
2155.517108786293
 20
955.0270627140772
 30
0.0
 11
2152.895705786292
 21
955.1644447140771
 31
0.0
  0
LINE
  5
7139
330
1E
100
AcDbEntity
  8
躯体と製品
  6
Continuous
 62
     7
100
AcDbLine
 10
2152.895705786292
 20
955.1644447140771
 30
0.0
 11
2154.315146786293
 21
953.5879957140773
 31
0.0
  0
LINE
  5
713A
330
1E
100
AcDbEntity
  8
躯体と製品
  6
Continuous
 62
     7
100
AcDbLine
 10
2154.315146786293
 20
953.5879957140773
 30
0.0
 11
2155.438604786293
 21
953.5291177140772
 31
0.0
  0
LINE
  5
713B
330
1E
100
AcDbEntity
  8
躯体と製品
  6
Continuous
 62
     7
100
AcDbLine
 10
2155.438604786293
 20
953.5291177140772
 30
0.0
 11
2156.655416786293
 21
976.7472547140773
 31
0.0
  0
LINE
  5
713C
330
1E
100
AcDbEntity
  8
躯体と製品
  6
Continuous
 62
     7
100
AcDbLine
 10
2160.890363786292
 20
960.4072507140772
 30
0.0
 11
2160.968867786293
 21
958.9093057140772
 31
0.0
  0
LINE
  5
713D
330
1E
100
AcDbEntity
  8
躯体と製品
  6
Continuous
 62
     7
100
AcDbLine
 10
2158.543724786293
 20
955.0270627140772
 30
0.0
 11
2161.165124786293
 21
955.1644447140771
 31
0.0
  0
LINE
  5
713E
330
1E
100
AcDbEntity
  8
躯体と製品
  6
Continuous
 62
     7
100
AcDbLine
 10
2161.165124786293
 20
955.1644447140771
 30
0.0
 11
2159.745686786292
 21
953.5879957140773
 31
0.0
  0
LINE
  5
713F
330
1E
100
AcDbEntity
  8
躯体と製品
  6
Continuous
 62
     7
100
AcDbLine
 10
2159.745686786292
 20
953.5879957140773
 30
0.0
 11
2158.622228786293
 21
953.5291177140772
 31
0.0
  0
LINE
  5
7140
330
1E
100
AcDbEntity
  8
躯体と製品
  6
Continuous
 62
     7
100
AcDbLine
 10
2158.622228786293
 20
953.5291177140772
 30
0.0
 11
2157.405416786292
 21
976.7472547140773
 31
0.0
  0
LINE
  5
7141
330
1E
100
AcDbEntity
  8
躯体と製品
  6
Continuous
 62
     7
100
AcDbLine
 10
2157.030416786293
 20
955.7472547140772
 30
0.0
 11
2155.628332690492
 21
957.1493388098772
 31
0.0
  0
LINE
  5
7142
330
1E
100
AcDbEntity
  8
躯体と製品
  6
Continuous
 62
     7
100
AcDbLine
 10
2154.030416786293
 20
982.7472547140772
 30
0.0
 11
2154.030416786293
 21
973.7472547140772
 31
0.0
  0
LINE
  5
7143
330
1E
100
AcDbEntity
  8
躯体と製品
  6
Continuous
 62
     7
100
AcDbLine
 10
2160.030416786292
 20
982.7472547140772
 30
0.0
 11
2160.030416786292
 21
973.7472547140772
 31
0.0
  0
LINE
  5
7144
330
1E
100
AcDbEntity
  8
躯体と製品
  6
Continuous
 62
     7
100
AcDbLine
 10
2159.684188401393
 20
967.8543308264771
 30
0.0
 11
2161.064597786293
 21
971.6469727140772
 31
0.0
  0
LINE
  5
7145
330
1E
100
AcDbEntity
  8
躯体と製品
  6
Continuous
 62
     7
100
AcDbLine
 10
2154.376645171193
 20
967.8543308264771
 30
0.0
 11
2152.996235786293
 21
971.6469727140772
 31
0.0
  0
LINE
  5
7146
330
1E
100
AcDbEntity
  8
躯体と製品
  6
Continuous
 62
     7
100
AcDbLine
 10
2136.030401786292
 20
994.7472547140773
 30
0.0
 11
2137.030401786292
 21
996.7472541156773
 31
0.0
  0
LINE
  5
7147
330
1E
100
AcDbEntity
  8
躯体と製品
  6
Continuous
 62
     7
100
AcDbLine
 10
2137.030401786292
 20
994.7472547140773
 30
0.0
 11
2136.030401786292
 21
994.7472547140773
 31
0.0
  0
LINE
  5
714C
330
1E
100
AcDbEntity
  8
躯体と製品
  6
Continuous
 62
     7
100
AcDbLine
 10
2229.030402786293
 20
982.7472547140772
 30
0.0
 11
2091.530374957063
 21
982.7472547140772
 31
0.0
  0
LINE
  5
714F
330
1E
100
AcDbEntity
  8
躯体と製品
  6
Continuous
 62
     7
100
AcDbLine
 10
2137.030401786292
 20
986.2472547140772
 30
0.0
 11
2127.530382563093
 21
986.2472547140772
 31
0.0
  0
LINE
  5
7150
330
1E
100
AcDbEntity
  8
躯体と製品
  6
Continuous
 62
     7
100
AcDbLine
 10
2137.030401786292
 20
984.7472547140773
 30
0.0
 11
2127.530382563093
 21
984.7472547140773
 31
0.0
  0
LINE
  5
7151
330
1E
100
AcDbEntity
  8
躯体と製品
  6
Continuous
 62
     7
100
AcDbLine
 10
2136.923533738093
 20
984.7472547140773
 30
0.0
 11
2134.923533738093
 21
982.7472547140772
 31
0.0
  0
LINE
  5
7152
330
1E
100
AcDbEntity
  8
躯体と製品
  6
Continuous
 62
     7
100
AcDbLine
 10
2137.030401786292
 20
983.4399091997772
 30
0.0
 11
2136.337747300493
 21
982.7472547140772
 31
0.0
  0
CIRCLE
  5
715B
330
1E
100
AcDbEntity
  8
図枠
  6
Continuous
 62
     7
100
AcDbCircle
 10
2503.377647682793
 20
1017.848575177677
 30
0.0
 40
5.0
  0
LINE
  5
715C
330
1E
100
AcDbEntity
  8
図枠
  6
Continuous
 62
     7
100
AcDbLine
 10
2521.911353693893
 20
985.7472547140773
 30
0.0
 11
2505.877647682793
 21
1013.518448158777
 31
0.0
  0
CIRCLE
  5
715D
330
1E
100
AcDbEntity
  8
図枠
  6
Continuous
 62
     7
100
AcDbCircle
 10
2521.911353693893
 20
985.7472547140773
 30
0.0
 40
2.1
  0
CIRCLE
  5
715E
330
1E
100
AcDbEntity
  8
図枠
  6
Continuous
 62
     7
100
AcDbCircle
 10
2527.391593230092
 20
1021.376047404977
 30
0.0
 40
5.0
  0
LINE
  5
715F
330
1E
100
AcDbEntity
  8
図枠
  6
Continuous
 62
     7
100
AcDbLine
 10
2538.146931704893
 20
1002.747254714077
 30
0.0
 11
2529.891593230093
 21
1017.045920386077
 31
0.0
  0
CIRCLE
  5
7160
330
1E
100
AcDbEntity
  8
図枠
  6
Continuous
 62
     7
100
AcDbCircle
 10
2538.146931704893
 20
1002.747254714077
 30
0.0
 40
2.1
  0
CIRCLE
  5
7161
330
1E
100
AcDbEntity
  8
図枠
  6
Continuous
 62
     7
100
AcDbCircle
 10
2262.387470120792
 20
976.9747796931772
 30
0.0
 40
5.0
  0
LINE
  5
7162
330
1E
100
AcDbEntity
  8
図枠
  6
Continuous
 62
     7
100
AcDbLine
 10
2253.281227421693
 20
992.7472547140773
 30
0.0
 11
2259.887470120792
 21
981.3049067120772
 31
0.0
  0
CIRCLE
  5
7163
330
1E
100
AcDbEntity
  8
図枠
  6
Continuous
 62
     7
100
AcDbCircle
 10
2253.281227421693
 20
992.7472547140773
 30
0.0
 40
2.1
  0
CIRCLE
  5
7164
330
1E
100
AcDbEntity
  8
図枠
  6
Continuous
 62
     7
100
AcDbCircle
 10
2166.159176208293
 20
1027.716450075577
 30
0.0
 40
5.0
  0
LINE
  5
7165
330
1E
100
AcDbEntity
  8
図枠
  6
Continuous
 62
     7
100
AcDbLine
 10
2151.743204544892
 20
1002.747254714077
 30
0.0
 11
2163.659176208293
 21
1023.386323056577
 31
0.0
  0
CIRCLE
  5
7166
330
1E
100
AcDbEntity
  8
図枠
  6
Continuous
 62
     7
100
AcDbCircle
 10
2151.743204544892
 20
1002.747254714077
 30
0.0
 40
2.1
  0
CIRCLE
  5
7167
330
1E
100
AcDbEntity
  8
図枠
  6
Continuous
 62
     7
100
AcDbCircle
 10
2238.190864741293
 20
959.7462460058771
 30
0.0
 40
5.0
  0
LINE
  5
7168
330
1E
100
AcDbEntity
  8
図枠
  6
Continuous
 62
     7
100
AcDbLine
 10
2224.911226171993
 20
982.7472547140772
 30
0.0
 11
2235.690864741293
 21
964.0763730247773
 31
0.0
  0
CIRCLE
  5
7169
330
1E
100
AcDbEntity
  8
図枠
  6
Continuous
 62
     7
100
AcDbCircle
 10
2224.911226171993
 20
982.7472547140772
 30
0.0
 40
2.1
  0
CIRCLE
  5
716A
330
1E
100
AcDbEntity
  8
図枠
  6
Continuous
 62
     7
100
AcDbCircle
 10
2120.115882293393
 20
896.3706284961771
 30
0.0
 40
5.0
  0
LINE
  5
716B
330
1E
100
AcDbEntity
  8
図枠
  6
Continuous
 62
     7
100
AcDbLine
 10
2153.605426286293
 20
954.3762202140772
 30
0.0
 11
2122.615882293393
 21
900.7007555150771
 31
0.0
  0
CIRCLE
  5
716C
330
1E
100
AcDbEntity
  8
図枠
  6
Continuous
 62
     7
100
AcDbCircle
 10
2153.605426286293
 20
954.3762202140772
 30
0.0
 40
2.1
  0
CIRCLE
  5
716D
330
1E
100
AcDbEntity
  8
図枠
  6
Continuous
 62
     7
100
AcDbCircle
 10
2117.206854359193
 20
1004.889281634077
 30
0.0
 40
5.0
  0
LINE
  5
716E
330
1E
100
AcDbEntity
  8
図枠
  6
Continuous
 62
     7
100
AcDbLine
 10
2128.835859023492
 20
984.7472547140773
 30
0.0
 11
2119.706854359193
 21
1000.559154615177
 31
0.0
  0
CIRCLE
  5
716F
330
1E
100
AcDbEntity
  8
図枠
  6
Continuous
 62
     7
100
AcDbCircle
 10
2128.835859023492
 20
984.7472547140773
 30
0.0
 40
2.1
  0
CIRCLE
  5
7170
330
1E
100
AcDbEntity
  8
図枠
  6
Continuous
 62
     7
100
AcDbCircle
 10
2236.099020432993
 20
1013.329604552677
 30
0.0
 40
5.0
  0
LINE
  5
7171
330
1E
100
AcDbEntity
  8
図枠
  6
Continuous
 62
     7
100
AcDbLine
 10
2227.030377392693
 20
997.6222540511773
 30
0.0
 11
2233.599020432993
 21
1008.999477533777
 31
0.0
  0
CIRCLE
  5
7172
330
1E
100
AcDbEntity
  8
図枠
  6
Continuous
 62
     7
100
AcDbCircle
 10
2227.030377392693
 20
997.6222540511773
 30
0.0
 40
2.1
  0
CIRCLE
  5
7173
330
1E
100
AcDbEntity
  8
図枠
  6
Continuous
 62
     7
100
AcDbCircle
 10
2159.098091191593
 20
988.2411154044772
 30
0.0
 40
2.1
  0
CIRCLE
  5
7174
330
1E
100
AcDbEntity
  8
図枠
  6
Continuous
 62
     7
100
AcDbCircle
 10
2174.724924984493
 20
1015.307585495377
 30
0.0
 40
5.0
  0
LINE
  5
7175
330
1E
100
AcDbEntity
  8
図枠
  6
Continuous
 62
     7
100
AcDbLine
 10
2159.098091191593
 20
988.2411154044772
 30
0.0
 11
2172.224924984493
 21
1010.977458476477
 31
0.0
  0
LINE
  5
7176
330
1E
100
AcDbEntity
  8
躯体と製品
  6
Continuous
 62
     7
100
AcDbLine
 10
2495.646400360793
 20
994.3142420121773
 30
0.0
 11
2504.190628994893
 21
999.2472547140772
 31
0.0
  0
ARC
  5
7177
330
1E
100
AcDbEntity
  8
躯体と製品
  6
Continuous
 62
     7
100
AcDbCircle
 10
2495.396400360793
 20
994.7472547140773
 30
0.0
 40
0.5
100
AcDbArc
 50
270.0
 51
299.999999999986
  0
LINE
  5
7178
330
1E
100
AcDbEntity
  8
躯体と製品
  6
Continuous
 62
     7
100
AcDbLine
 10
2185.414349553293
 20
994.3142420121773
 30
0.0
 11
2176.870120919193
 21
999.2472547140772
 31
0.0
  0
LINE
  5
7179
330
1E
100
AcDbEntity
  8
躯体と製品
  6
Continuous
 62
     7
100
AcDbLine
 10
2495.396400360793
 20
994.2472547140772
 30
0.0
 11
2185.664349553293
 21
994.2472547140772
 31
0.0
  0
ARC
  5
717A
330
1E
100
AcDbEntity
  8
躯体と製品
  6
Continuous
 62
     7
100
AcDbCircle
 10
2185.664349553293
 20
994.7472547140773
 30
0.0
 40
0.5
100
AcDbArc
 50
239.9999999999995
 51
270.0
  0
LINE
  5
717B
330
1E
100
AcDbEntity
  8
躯体と製品
  6
Continuous
 62
     7
100
AcDbLine
 10
2496.396400360793
 20
993.0152039064772
 30
0.0
 11
2504.940628994893
 21
997.9482166083773
 31
0.0
  0
LINE
  5
717C
330
1E
100
AcDbEntity
  8
躯体と製品
  6
Continuous
 62
     7
100
AcDbLine
 10
2495.396400360793
 20
992.7472547140773
 30
0.0
 11
2185.664349553293
 21
992.7472547140773
 31
0.0
  0
ARC
  5
717D
330
1E
100
AcDbEntity
  8
躯体と製品
  6
Continuous
 62
     7
100
AcDbCircle
 10
2495.396400360793
 20
994.7472547140773
 30
0.0
 40
2.0
100
AcDbArc
 50
270.0
 51
299.999999999986
  0
LINE
  5
717E
330
1E
100
AcDbEntity
  8
躯体と製品
  6
Continuous
 62
     7
100
AcDbLine
 10
2504.190628994893
 20
999.2472547140772
 30
0.0
 11
2504.940628994893
 21
997.9482166083773
 31
0.0
  0
ARC
  5
717F
330
1E
100
AcDbEntity
  8
躯体と製品
  6
Continuous
 62
     7
100
AcDbCircle
 10
2185.664349553293
 20
994.7472547140773
 30
0.0
 40
2.0
100
AcDbArc
 50
239.9999999999995
 51
270.0
  0
LINE
  5
7180
330
1E
100
AcDbEntity
  8
躯体と製品
  6
Continuous
 62
     7
100
AcDbLine
 10
2184.664349553293
 20
993.0152039064772
 30
0.0
 11
2176.120120919193
 21
997.9482166083773
 31
0.0
  0
LINE
  5
7181
330
1E
100
AcDbEntity
  8
躯体と製品
  6
Continuous
 62
     7
100
AcDbLine
 10
2176.870120919193
 20
999.2472547140772
 30
0.0
 11
2176.120120919193
 21
997.9482166083773
 31
0.0
  0
TEXT
  5
7182
330
1E
100
AcDbEntity
  8
図枠
 62
     7
100
AcDbText
 10
2206.660873443448
 20
706.4624681902698
 30
0.0
 40
9.0
  1
部材名称
100
AcDbText
  0
TEXT
  5
7183
330
1E
100
AcDbEntity
  8
図枠
 62
     7
100
AcDbText
 10
2499.893611443448
 20
706.4624681902698
 30
0.0
 40
9.0
  1
使用
100
AcDbText
  0
TEXT
  5
7184
330
1E
100
AcDbEntity
  8
図枠
 62
     7
100
AcDbText
 10
2361.383999943448
 20
706.4624681902698
 30
0.0
 40
9.0
  1
規　格
100
AcDbText
  0
TEXT
  5
7185
330
1E
100
AcDbEntity
  8
図枠
 62
     7
100
AcDbText
 10
2454.758966943448
 20
706.4624681902698
 30
0.0
 40
9.0
  1
定　尺
100
AcDbText
  0
TEXT
  5
7186
330
1E
100
AcDbEntity
  8
図枠
 62
     7
100
AcDbText
 10
2448.270461943449
 20
692.0624486902698
 30
0.0
 40
9.0
  1
（ｍｍ）
100
AcDbText
  0
TEXT
  5
7187
330
1E
100
AcDbEntity
  8
図枠
 62
     7
100
AcDbText
 10
2499.893611443448
 20
692.0624486902698
 30
0.0
 40
9.0
  1
数量
100
AcDbText
  0
TEXT
  5
7188
330
1E
100
AcDbEntity
  8
図枠
 62
     7
100
AcDbText
 10
2124.731023443448
 20
674.1450851902698
 30
0.0
 40
9.0
  1
　１
100
AcDbText
  0
TEXT
  5
7189
330
1E
100
AcDbEntity
  8
図枠
 62
     7
100
AcDbText
 10
2451.051250443449
 20
674.0624486902698
 30
0.0
 40
9.0
  1
３０００
100
AcDbText
  0
TEXT
  5
718A
330
1E
100
AcDbEntity
  8
図枠
 62
     7
100
AcDbText
 10
2511.320483943448
 20
674.2124111902698
 30
0.0
 40
9.0
  1
２
100
AcDbText
  0
TEXT
  5
718B
330
1E
100
AcDbEntity
  8
図枠
 62
     7
100
AcDbText
 10
2534.255194443448
 20
674.0624486902698
 30
0.0
 40
9.0
  1
本
100
AcDbText
  0
TEXT
  5
718C
330
1E
100
AcDbEntity
  8
図枠
 62
     7
100
AcDbText
 10
2134.000315443449
 20
656.1450851902698
 30
0.0
 40
9.0
  1
２
100
AcDbText
  0
TEXT
  5
718D
330
1E
100
AcDbEntity
  8
図枠
 62
     7
100
AcDbText
 10
2451.051250443449
 20
656.0624486902699
 30
0.0
 40
9.0
  1
３０００
100
AcDbText
  0
TEXT
  5
718E
330
1E
100
AcDbEntity
  8
図枠
 62
     7
100
AcDbText
 10
2511.320483943448
 20
656.2124456902698
 30
0.0
 40
9.0
  1
１
100
AcDbText
  0
TEXT
  5
718F
330
1E
100
AcDbEntity
  8
図枠
 62
     7
100
AcDbText
 10
2534.255194443448
 20
656.0624486902699
 30
0.0
 40
9.0
  1
〃
100
AcDbText
  0
TEXT
  5
7190
330
1E
100
AcDbEntity
  8
図枠
 62
     7
100
AcDbText
 10
2134.000315443449
 20
638.1450851902698
 30
0.0
 40
9.0
  1
３
100
AcDbText
  0
TEXT
  5
7191
330
1E
100
AcDbEntity
  8
図枠
 62
     7
100
AcDbText
 10
2511.320483943448
 20
638.2124111902697
 30
0.0
 40
9.0
  1
２
100
AcDbText
  0
TEXT
  5
7192
330
1E
100
AcDbEntity
  8
図枠
 62
     7
100
AcDbText
 10
2534.255194443448
 20
638.0624486902698
 30
0.0
 40
9.0
  1
〃
100
AcDbText
  0
TEXT
  5
7193
330
1E
100
AcDbEntity
  8
図枠
 62
     7
100
AcDbText
 10
2134.000315443449
 20
620.1450851902698
 30
0.0
 40
9.0
  1
４
100
AcDbText
  0
TEXT
  5
7194
330
1E
100
AcDbEntity
  8
図枠
 62
     7
100
AcDbText
 10
2134.000315443449
 20
602.1451196902699
 30
0.0
 40
9.0
  1
５
100
AcDbText
  0
TEXT
  5
7195
330
1E
100
AcDbEntity
  8
図枠
 62
     7
100
AcDbText
 10
2134.000315443449
 20
584.1451196902698
 30
0.0
 40
9.0
  1
６
100
AcDbText
  0
TEXT
  5
7196
330
1E
100
AcDbEntity
  8
図枠
 62
     7
100
AcDbText
 10
2134.000315443449
 20
566.1451031902698
 30
0.0
 40
9.0
  1
７
100
AcDbText
  0
TEXT
  5
7197
330
1E
100
AcDbEntity
  8
図枠
 62
     7
100
AcDbText
 10
2134.000315443449
 20
548.1451031902699
 30
0.0
 40
9.0
  1
８
100
AcDbText
  0
TEXT
  5
7198
330
1E
100
AcDbEntity
  8
図枠
 62
     7
100
AcDbText
 10
2148.439841943448
 20
638.0624486902698
 30
0.0
 40
9.0
  1
ＵＵＨフレーム(Ｃ)
100
AcDbText
  0
TEXT
  5
7199
330
1E
100
AcDbEntity
  8
図枠
 62
     7
100
AcDbText
 10
2451.051250443449
 20
638.0624486902698
 30
0.0
 40
9.0
  1
３０００
100
AcDbText
  0
TEXT
  5
719A
330
1E
100
AcDbEntity
  8
図枠
 62
     7
100
AcDbText
 10
2148.439841943448
 20
566.0624486902698
 30
0.0
 40
9.0
  1
ステンタッピンねじ
100
AcDbText
  0
TEXT
  5
719B
330
1E
100
AcDbEntity
  8
図枠
 62
     7
100
AcDbText
 10
2502.051191943448
 20
566.2124291902698
 30
0.0
 40
9.0
  1
１２
100
AcDbText
  0
TEXT
  5
719C
330
1E
100
AcDbEntity
  8
図枠
 62
     7
100
AcDbText
 10
2534.255194443448
 20
566.0624486902698
 30
0.0
 40
9.0
  1
〃
100
AcDbText
  0
TEXT
  5
719D
330
1E
100
AcDbEntity
  8
図枠
 62
     7
100
AcDbText
 10
2511.320483943448
 20
602.2124456902698
 30
0.0
 40
9.0
  1
２
100
AcDbText
  0
TEXT
  5
719E
330
1E
100
AcDbEntity
  8
図枠
 62
     7
100
AcDbText
 10
2451.051250443449
 20
584.0624486902698
 30
0.0
 40
9.0
  1
３０１０
100
AcDbText
  0
TEXT
  5
719F
330
1E
100
AcDbEntity
  8
図枠
 62
     7
100
AcDbText
 10
2511.320483943448
 20
584.2124456902698
 30
0.0
 40
9.0
  1
２
100
AcDbText
  0
TEXT
  5
71A0
330
1E
100
AcDbEntity
  8
図枠
 62
     7
100
AcDbText
 10
2534.255194443448
 20
584.0624486902698
 30
0.0
 40
9.0
  1
〃
100
AcDbText
  0
TEXT
  5
71A1
330
1E
100
AcDbEntity
  8
図枠
 62
     7
100
AcDbText
 10
2319.439892943448
 20
566.0624486902698
 30
0.0
 40
9.0
  1
なべ４×３０
100
AcDbText
  0
TEXT
  5
71A2
330
1E
100
AcDbEntity
  8
図枠
 62
     7
100
AcDbText
 10
2148.439858443448
 20
620.0624651902698
 30
0.0
 40
9.0
  1
アンカープラグ
100
AcDbText
  0
TEXT
  5
71A3
330
1E
100
AcDbEntity
  8
図枠
 62
     7
100
AcDbText
 10
2319.439858443448
 20
620.0624651902698
 30
0.0
 40
9.0
  1
フィッシャープラグＳ６
100
AcDbText
  0
TEXT
  5
71A4
330
1E
100
AcDbEntity
  8
図枠
 62
     7
100
AcDbText
 10
2502.051191943448
 20
620.2124291902698
 30
0.0
 40
9.0
  1
１２
100
AcDbText
  0
TEXT
  5
71A5
330
1E
100
AcDbEntity
  8
図枠
 62
     7
100
AcDbText
 10
2533.947475152749
 20
713.8162543008697
 30
0.0
 40
9.0
  1
単位
 50
270.0
100
AcDbText
  0
TEXT
  5
71A6
330
1E
100
AcDbEntity
  8
図枠
 62
     7
100
AcDbText
 10
2148.439841943448
 20
674.0624486902698
 30
0.0
 40
9.0
  1
ＵＵＨサイドプレート(Ｃ)Ｓ
100
AcDbText
  0
TEXT
  5
71A7
330
1E
100
AcDbEntity
  8
図枠
 62
     7
100
AcDbText
 10
2148.439841943448
 20
602.0624486902699
 30
0.0
 40
9.0
  1
ガスケットＦ
100
AcDbText
  0
TEXT
  5
71A8
330
1E
100
AcDbEntity
  8
図枠
 62
     7
100
AcDbText
 10
2148.439841943448
 20
584.0624486902698
 30
0.0
 40
9.0
  1
ＵＵＨパッキンＳ
100
AcDbText
  0
TEXT
  5
71A9
330
1E
100
AcDbEntity
  8
図枠
 62
     7
100
AcDbText
 10
2451.051250443449
 20
602.0624486902699
 30
0.0
 40
9.0
  1
３０１０
100
AcDbText
  0
TEXT
  5
71AA
330
1E
100
AcDbEntity
  8
図枠
 62
     7
100
AcDbText
 10
2134.000315443449
 20
530.1451031902699
 30
0.0
 40
9.0
  1
９
100
AcDbText
  0
TEXT
  5
71AB
330
1E
100
AcDbEntity
  8
図枠
 62
     7
100
AcDbText
 10
2148.439841943448
 20
530.0624651902698
 30
0.0
 40
9.0
  1
ステンワッシャー
100
AcDbText
  0
TEXT
  5
71AC
330
1E
100
AcDbEntity
  8
図枠
 62
     7
100
AcDbText
 10
2502.051191943448
 20
530.2124621902699
 30
0.0
 40
9.0
  1
１２
100
AcDbText
  0
TEXT
  5
71AD
330
1E
100
AcDbEntity
  8
図枠
 62
     7
100
AcDbText
 10
2534.255194443448
 20
530.0624651902698
 30
0.0
 40
9.0
  1
枚
100
AcDbText
  0
TEXT
  5
71AE
330
1E
100
AcDbEntity
  8
図枠
 62
     7
100
AcDbText
 10
2148.439841943448
 20
548.0624651902699
 30
0.0
 40
9.0
  1
ステンシルタップ
100
AcDbText
  0
TEXT
  5
71AF
330
1E
100
AcDbEntity
  8
図枠
 62
     7
100
AcDbText
 10
2319.439858443448
 20
548.0624651902699
 30
0.0
 40
9.0
  1
皿４×１６
100
AcDbText
  0
TEXT
  5
71B0
330
1E
100
AcDbEntity
  8
図枠
 62
     7
100
AcDbText
 10
2502.051191943448
 20
548.2124291902699
 30
0.0
 40
9.0
  1
１２
100
AcDbText
  0
TEXT
  5
71B1
330
1E
100
AcDbEntity
  8
図枠
 62
     7
100
AcDbText
 10
2534.255194443448
 20
548.0624486902699
 30
0.0
 40
9.0
  1
〃
100
AcDbText
  0
TEXT
  5
71B2
330
1E
100
AcDbEntity
  8
図枠
 62
     7
100
AcDbText
 10
2123.239831443449
 20
505.4624456902699
 30
0.0
 40
9.599999999999999
  1
注）　ガスケットＦ及びＵＵＨパッキンＳはＵＵＨサイドプレート(Ｃ)Ｓにセット済み。
100
AcDbText
  0
TEXT
  5
71B3
330
1E
100
AcDbEntity
  8
図枠
 62
     7
100
AcDbText
 10
2319.439892943448
 20
530.0624651902698
 30
0.0
 40
9.0
  1
1.5×１８×5.5穴
100
AcDbText
  0
TEXT
  5
71B4
330
1E
100
AcDbEntity
  8
図枠
 62
     7
100
AcDbText
 10
2534.255194443448
 20
620.0624486902698
 30
0.0
 40
9.0
  1
〃
100
AcDbText
  0
TEXT
  5
71B5
330
1E
100
AcDbEntity
  8
図枠
 62
     7
100
AcDbText
 10
2534.255194443448
 20
602.0624486902699
 30
0.0
 40
9.0
  1
〃
100
AcDbText
  0
TEXT
  5
71B6
330
1E
100
AcDbEntity
  8
図枠
 62
     7
100
AcDbText
 10
2093.239819443448
 20
1170.86243669027
 30
0.0
 40
9.599999999999999
  1
◇内壁－内壁（３００ＫＫＨ－Ｓ）　Ｓ＝１／３
100
AcDbText
  0
TEXT
  5
71B8
330
1E
100
AcDbEntity
  8
図枠
 62
     7
100
AcDbText
 10
2148.439841943448
 20
656.0624486902699
 30
0.0
 40
9.0
  1
ＵＵＨセンタープレート(Ｅ)Ｓ
100
AcDbText
  0
TEXT
  5
71C4
330
1E
100
AcDbEntity
  8
図枠
 62
     7
100
AcDbText
 10
2523.152742937338
 20
1017.632662365142
 30
0.0
 40
7.5
  1
８
100
AcDbText
  0
TEXT
  5
71C5
330
1E
100
AcDbEntity
  8
図枠
 62
     7
100
AcDbText
 10
2499.138797390039
 20
1014.105190137842
 30
0.0
 40
7.5
  1
９
100
AcDbText
  0
TEXT
  5
71C6
330
1E
100
AcDbEntity
  8
図枠
 62
     7
100
AcDbText
 10
2258.148619828038
 20
973.2313946533418
 30
0.0
 40
7.5
  1
２
100
AcDbText
  0
TEXT
  5
71C7
330
1E
100
AcDbEntity
  8
図枠
 62
     7
100
AcDbText
 10
2164.804279402777
 20
1023.973065035741
 30
0.0
 40
7.5
  1
1
100
AcDbText
  0
TEXT
  5
71C8
330
1E
100
AcDbEntity
  8
図枠
 62
     7
100
AcDbText
 10
2233.952014448538
 20
956.0028609660419
 30
0.0
 40
7.5
  1
３
100
AcDbText
  0
TEXT
  5
71C9
330
1E
100
AcDbEntity
  8
図枠
 62
     7
100
AcDbText
 10
2115.877032000638
 20
892.6272434563419
 30
0.0
 40
7.5
  1
４
100
AcDbText
  0
TEXT
  5
71CA
330
1E
100
AcDbEntity
  8
図枠
 62
     7
100
AcDbText
 10
2112.968004066438
 20
1001.145896594242
 30
0.0
 40
7.5
  1
５
100
AcDbText
  0
TEXT
  5
71CB
330
1E
100
AcDbEntity
  8
図枠
 62
     7
100
AcDbText
 10
2231.860170140238
 20
1009.586219512842
 30
0.0
 40
7.5
  1
６
100
AcDbText
  0
TEXT
  5
71CC
330
1E
100
AcDbEntity
  8
図枠
 62
     7
100
AcDbText
 10
2170.486074691738
 20
1011.564200455541
 30
0.0
 40
7.5
  1
７
100
AcDbText
  0
LINE
  5
71CE
330
1E
100
AcDbEntity
  8
図枠
  6
Continuous
 62
     7
100
AcDbLine
 10
2057.561711648006
 20
1225.307208457439
 30
0.0
 11
2057.561711648006
 21
473.3032150628901
 31
0.0
  0
LINE
  5
71CF
330
1E
100
AcDbEntity
  8
図枠
  6
Continuous
 62
     7
100
AcDbLine
 10
1486.662057668767
 20
1225.307208457439
 30
0.0
 11
1486.662057668767
 21
473.3032150628901
 31
0.0
  0
LINE
  5
71D0
330
1E
100
AcDbEntity
  8
図枠
  6
Continuous
 62
     7
100
AcDbLine
 10
2611.001158014788
 20
473.3032150628901
 30
0.0
 11
2611.001158014788
 21
1225.307208457439
 31
0.0
  0
LINE
  5
71D1
330
1E
100
AcDbEntity
  8
図枠
  6
Continuous
 62
     7
100
AcDbLine
 10
1486.662057668767
 20
473.3032150628901
 30
0.0
 11
2611.001158014788
 21
473.3032150628901
 31
0.0
  0
TEXT
  5
71D2
330
1E
100
AcDbEntity
  8
図枠
 62
     7
100
AcDbText
 10
1487.561711648006
 20
1204.307208457439
 30
0.0
 40
9.599999999999999
  1
（ステン内壁-内壁）挟み込みタイプ
100
AcDbText
  0
TEXT
  5
71D3
330
1E
100
AcDbEntity
  8
図枠
 62
     7
100
AcDbText
 10
2072.192901455938
 20
1195.806067642582
 30
0.0
 40
9.599999999999999
  1
（ステン内壁-内壁）挟み込みタイプ
100
AcDbText
  0
LINE
  5
71D4
330
1E
100
AcDbEntity
  8
図枠
  6
Continuous
 62
     7
100
AcDbLine
 10
1978.529895588633
 20
1163.350824675827
 30
0.0
 11
1968.529895588632
 21
1148.350824675827
 31
0.0
  0
LINE
  5
71D5
330
1E
100
AcDbEntity
  8
図枠
  6
Continuous
 62
     7
100
AcDbLine
 10
1978.529895588633
 20
1163.350824675827
 30
0.0
 11
1988.529895588633
 21
1148.350824675827
 31
0.0
  0
LINE
  5
71D6
330
1E
100
AcDbEntity
  8
図枠
  6
Continuous
 62
     7
100
AcDbLine
 10
1968.529895588632
 20
1148.350824675827
 30
0.0
 11
1973.529895588633
 21
1148.350824675827
 31
0.0
  0
LINE
  5
71D7
330
1E
100
AcDbEntity
  8
図枠
  6
Continuous
 62
     7
100
AcDbLine
 10
1983.529895588633
 20
1148.350824675827
 30
0.0
 11
1988.529895588633
 21
1148.350824675827
 31
0.0
  0
LINE
  5
71D8
330
1E
100
AcDbEntity
  8
図枠
  6
Continuous
 62
     7
100
AcDbLine
 10
1978.529895588633
 20
1103.350824675827
 30
0.0
 11
1968.529895588632
 21
1118.350824675827
 31
0.0
  0
LINE
  5
71D9
330
1E
100
AcDbEntity
  8
図枠
  6
Continuous
 62
     7
100
AcDbLine
 10
1978.529895588633
 20
1103.350824675827
 30
0.0
 11
1988.529895588633
 21
1118.350824675827
 31
0.0
  0
LINE
  5
71DA
330
1E
100
AcDbEntity
  8
図枠
  6
Continuous
 62
     7
100
AcDbLine
 10
1968.529895588632
 20
1118.350824675827
 30
0.0
 11
1973.529895588633
 21
1118.350824675827
 31
0.0
  0
LINE
  5
71DB
330
1E
100
AcDbEntity
  8
図枠
  6
Continuous
 62
     7
100
AcDbLine
 10
1983.529895588633
 20
1118.350824675827
 30
0.0
 11
1988.529895588633
 21
1118.350824675827
 31
0.0
  0
LINE
  5
71DC
330
1E
100
AcDbEntity
  8
図枠
  6
Continuous
 62
     7
100
AcDbLine
 10
2008.529895588633
 20
1133.350824675827
 30
0.0
 11
1993.529895588633
 21
1123.350824675827
 31
0.0
  0
LINE
  5
71DD
330
1E
100
AcDbEntity
  8
図枠
  6
Continuous
 62
     7
100
AcDbLine
 10
2008.529895588633
 20
1133.350824675827
 30
0.0
 11
1993.529895588633
 21
1143.350824675827
 31
0.0
  0
LINE
  5
71DE
330
1E
100
AcDbEntity
  8
図枠
  6
Continuous
 62
     7
100
AcDbLine
 10
1993.529895588633
 20
1123.350824675827
 30
0.0
 11
1993.529895588633
 21
1128.350824675827
 31
0.0
  0
LINE
  5
71DF
330
1E
100
AcDbEntity
  8
図枠
  6
Continuous
 62
     7
100
AcDbLine
 10
1993.529895588633
 20
1138.350824675827
 30
0.0
 11
1993.529895588633
 21
1143.350824675827
 31
0.0
  0
LINE
  5
71E0
330
1E
100
AcDbEntity
  8
図枠
  6
Continuous
 62
     7
100
AcDbLine
 10
1948.529895588633
 20
1133.350824675827
 30
0.0
 11
1963.529895588633
 21
1123.350824675827
 31
0.0
  0
LINE
  5
71E1
330
1E
100
AcDbEntity
  8
図枠
  6
Continuous
 62
     7
100
AcDbLine
 10
1948.529895588633
 20
1133.350824675827
 30
0.0
 11
1963.529895588633
 21
1143.350824675827
 31
0.0
  0
LINE
  5
71E2
330
1E
100
AcDbEntity
  8
図枠
  6
Continuous
 62
     7
100
AcDbLine
 10
1963.529895588633
 20
1123.350824675827
 30
0.0
 11
1963.529895588633
 21
1128.350824675827
 31
0.0
  0
LINE
  5
71E3
330
1E
100
AcDbEntity
  8
図枠
  6
Continuous
 62
     7
100
AcDbLine
 10
1963.529895588633
 20
1138.350824675827
 30
0.0
 11
1963.529895588633
 21
1143.350824675827
 31
0.0
  0
ARC
  5
71E4
330
1E
100
AcDbEntity
  8
図枠
  6
Continuous
 62
     7
100
AcDbCircle
 10
1978.529895588633
 20
1133.350824675827
 30
0.0
 40
10.0
100
AcDbArc
 50
120.0000000000005
 51
150.0000000000027
  0
ARC
  5
71E5
330
1E
100
AcDbEntity
  8
図枠
  6
Continuous
 62
     7
100
AcDbCircle
 10
1978.529895588633
 20
1133.350824675827
 30
0.0
 40
10.0
100
AcDbArc
 50
29.99999999999729
 51
59.99999999999946
  0
ARC
  5
71E6
330
1E
100
AcDbEntity
  8
図枠
  6
Continuous
 62
     7
100
AcDbCircle
 10
1978.529895588633
 20
1133.350824675827
 30
0.0
 40
10.0
100
AcDbArc
 50
209.9999999999973
 51
239.9999999999995
  0
ARC
  5
71E7
330
1E
100
AcDbEntity
  8
図枠
  6
Continuous
 62
     7
100
AcDbCircle
 10
1978.529895588633
 20
1133.350824675827
 30
0.0
 40
10.0
100
AcDbArc
 50
300.0000000000005
 51
330.0000000000027
  0
LINE
  5
71E8
330
1E
100
AcDbEntity
  8
図枠
  6
Continuous
 62
     7
100
AcDbLine
 10
1973.529895588633
 20
1148.350824675827
 30
0.0
 11
1973.529895588633
 21
1142.011078713727
 31
0.0
  0
LINE
  5
71E9
330
1E
100
AcDbEntity
  8
図枠
  6
Continuous
 62
     7
100
AcDbLine
 10
1983.529895588633
 20
1148.350824675827
 30
0.0
 11
1983.529895588633
 21
1142.011078713727
 31
0.0
  0
LINE
  5
71EA
330
1E
100
AcDbEntity
  8
図枠
  6
Continuous
 62
     7
100
AcDbLine
 10
1987.190149626433
 20
1138.350824675827
 30
0.0
 11
1993.529895588633
 21
1138.350824675827
 31
0.0
  0
LINE
  5
71EB
330
1E
100
AcDbEntity
  8
図枠
  6
Continuous
 62
     7
100
AcDbLine
 10
1963.529895588633
 20
1138.350824675827
 30
0.0
 11
1969.869641550733
 21
1138.350824675827
 31
0.0
  0
LINE
  5
71EC
330
1E
100
AcDbEntity
  8
図枠
  6
Continuous
 62
     7
100
AcDbLine
 10
1963.529895588633
 20
1128.350824675827
 30
0.0
 11
1969.869641550733
 21
1128.350824675827
 31
0.0
  0
LINE
  5
71ED
330
1E
100
AcDbEntity
  8
図枠
  6
Continuous
 62
     7
100
AcDbLine
 10
1973.529895588633
 20
1124.690570638027
 30
0.0
 11
1973.529895588633
 21
1118.350824675827
 31
0.0
  0
LINE
  5
71EE
330
1E
100
AcDbEntity
  8
図枠
  6
Continuous
 62
     7
100
AcDbLine
 10
1983.529895588633
 20
1124.690570638027
 30
0.0
 11
1983.529895588633
 21
1118.350824675827
 31
0.0
  0
LINE
  5
71EF
330
1E
100
AcDbEntity
  8
図枠
  6
Continuous
 62
     7
100
AcDbLine
 10
1987.190149626433
 20
1128.350824675827
 30
0.0
 11
1993.529895588633
 21
1128.350824675827
 31
0.0
  0
LINE
  5
71F0
330
1E
100
AcDbEntity
  8
図枠
  6
Continuous
 62
     7
100
AcDbLine
 10
2533.79076515385
 20
1164.785607284522
 30
0.0
 11
2523.79076515385
 21
1149.785607284522
 31
0.0
  0
LINE
  5
71F1
330
1E
100
AcDbEntity
  8
図枠
  6
Continuous
 62
     7
100
AcDbLine
 10
2533.79076515385
 20
1164.785607284522
 30
0.0
 11
2543.79076515385
 21
1149.785607284522
 31
0.0
  0
LINE
  5
71F2
330
1E
100
AcDbEntity
  8
図枠
  6
Continuous
 62
     7
100
AcDbLine
 10
2523.79076515385
 20
1149.785607284522
 30
0.0
 11
2528.79076515385
 21
1149.785607284522
 31
0.0
  0
LINE
  5
71F3
330
1E
100
AcDbEntity
  8
図枠
  6
Continuous
 62
     7
100
AcDbLine
 10
2538.79076515385
 20
1149.785607284522
 30
0.0
 11
2543.79076515385
 21
1149.785607284522
 31
0.0
  0
LINE
  5
71F4
330
1E
100
AcDbEntity
  8
図枠
  6
Continuous
 62
     7
100
AcDbLine
 10
2533.79076515385
 20
1104.785607284522
 30
0.0
 11
2523.79076515385
 21
1119.785607284522
 31
0.0
  0
LINE
  5
71F5
330
1E
100
AcDbEntity
  8
図枠
  6
Continuous
 62
     7
100
AcDbLine
 10
2533.79076515385
 20
1104.785607284522
 30
0.0
 11
2543.79076515385
 21
1119.785607284522
 31
0.0
  0
LINE
  5
71F6
330
1E
100
AcDbEntity
  8
図枠
  6
Continuous
 62
     7
100
AcDbLine
 10
2523.79076515385
 20
1119.785607284522
 30
0.0
 11
2528.79076515385
 21
1119.785607284522
 31
0.0
  0
LINE
  5
71F7
330
1E
100
AcDbEntity
  8
図枠
  6
Continuous
 62
     7
100
AcDbLine
 10
2538.79076515385
 20
1119.785607284522
 30
0.0
 11
2543.79076515385
 21
1119.785607284522
 31
0.0
  0
LINE
  5
71F8
330
1E
100
AcDbEntity
  8
図枠
  6
Continuous
 62
     7
100
AcDbLine
 10
2563.79076515385
 20
1134.785607284522
 30
0.0
 11
2548.79076515385
 21
1124.785607284522
 31
0.0
  0
LINE
  5
71F9
330
1E
100
AcDbEntity
  8
図枠
  6
Continuous
 62
     7
100
AcDbLine
 10
2563.79076515385
 20
1134.785607284522
 30
0.0
 11
2548.79076515385
 21
1144.785607284522
 31
0.0
  0
LINE
  5
71FA
330
1E
100
AcDbEntity
  8
図枠
  6
Continuous
 62
     7
100
AcDbLine
 10
2548.79076515385
 20
1124.785607284522
 30
0.0
 11
2548.79076515385
 21
1129.785607284522
 31
0.0
  0
LINE
  5
71FB
330
1E
100
AcDbEntity
  8
図枠
  6
Continuous
 62
     7
100
AcDbLine
 10
2548.79076515385
 20
1139.785607284522
 30
0.0
 11
2548.79076515385
 21
1144.785607284522
 31
0.0
  0
LINE
  5
71FC
330
1E
100
AcDbEntity
  8
図枠
  6
Continuous
 62
     7
100
AcDbLine
 10
2503.79076515385
 20
1134.785607284522
 30
0.0
 11
2518.79076515385
 21
1124.785607284522
 31
0.0
  0
LINE
  5
71FD
330
1E
100
AcDbEntity
  8
図枠
  6
Continuous
 62
     7
100
AcDbLine
 10
2503.79076515385
 20
1134.785607284522
 30
0.0
 11
2518.79076515385
 21
1144.785607284522
 31
0.0
  0
LINE
  5
71FE
330
1E
100
AcDbEntity
  8
図枠
  6
Continuous
 62
     7
100
AcDbLine
 10
2518.79076515385
 20
1124.785607284522
 30
0.0
 11
2518.79076515385
 21
1129.785607284522
 31
0.0
  0
LINE
  5
71FF
330
1E
100
AcDbEntity
  8
図枠
  6
Continuous
 62
     7
100
AcDbLine
 10
2518.79076515385
 20
1139.785607284522
 30
0.0
 11
2518.79076515385
 21
1144.785607284522
 31
0.0
  0
ARC
  5
7200
330
1E
100
AcDbEntity
  8
図枠
  6
Continuous
 62
     7
100
AcDbCircle
 10
2533.79076515385
 20
1134.785607284522
 30
0.0
 40
10.0
100
AcDbArc
 50
120.0000000000005
 51
150.0000000000027
  0
ARC
  5
7201
330
1E
100
AcDbEntity
  8
図枠
  6
Continuous
 62
     7
100
AcDbCircle
 10
2533.79076515385
 20
1134.785607284522
 30
0.0
 40
10.0
100
AcDbArc
 50
29.99999999999729
 51
59.99999999999946
  0
ARC
  5
7202
330
1E
100
AcDbEntity
  8
図枠
  6
Continuous
 62
     7
100
AcDbCircle
 10
2533.79076515385
 20
1134.785607284522
 30
0.0
 40
10.0
100
AcDbArc
 50
209.9999999999973
 51
239.9999999999995
  0
ARC
  5
7203
330
1E
100
AcDbEntity
  8
図枠
  6
Continuous
 62
     7
100
AcDbCircle
 10
2533.79076515385
 20
1134.785607284522
 30
0.0
 40
10.0
100
AcDbArc
 50
300.0000000000005
 51
330.0000000000027
  0
LINE
  5
7204
330
1E
100
AcDbEntity
  8
図枠
  6
Continuous
 62
     7
100
AcDbLine
 10
2528.79076515385
 20
1149.785607284522
 30
0.0
 11
2528.79076515385
 21
1143.445861322422
 31
0.0
  0
LINE
  5
7205
330
1E
100
AcDbEntity
  8
図枠
  6
Continuous
 62
     7
100
AcDbLine
 10
2538.79076515385
 20
1149.785607284522
 30
0.0
 11
2538.79076515385
 21
1143.445861322422
 31
0.0
  0
LINE
  5
7206
330
1E
100
AcDbEntity
  8
図枠
  6
Continuous
 62
     7
100
AcDbLine
 10
2542.451019191651
 20
1139.785607284522
 30
0.0
 11
2548.79076515385
 21
1139.785607284522
 31
0.0
  0
LINE
  5
7207
330
1E
100
AcDbEntity
  8
図枠
  6
Continuous
 62
     7
100
AcDbLine
 10
2518.79076515385
 20
1139.785607284522
 30
0.0
 11
2525.13051111595
 21
1139.785607284522
 31
0.0
  0
LINE
  5
7208
330
1E
100
AcDbEntity
  8
図枠
  6
Continuous
 62
     7
100
AcDbLine
 10
2518.79076515385
 20
1129.785607284522
 30
0.0
 11
2525.13051111595
 21
1129.785607284522
 31
0.0
  0
LINE
  5
7209
330
1E
100
AcDbEntity
  8
図枠
  6
Continuous
 62
     7
100
AcDbLine
 10
2528.79076515385
 20
1126.125353246722
 30
0.0
 11
2528.79076515385
 21
1119.785607284522
 31
0.0
  0
LINE
  5
720A
330
1E
100
AcDbEntity
  8
図枠
  6
Continuous
 62
     7
100
AcDbLine
 10
2538.79076515385
 20
1126.125353246722
 30
0.0
 11
2538.79076515385
 21
1119.785607284522
 31
0.0
  0
LINE
  5
720B
330
1E
100
AcDbEntity
  8
図枠
  6
Continuous
 62
     7
100
AcDbLine
 10
2542.451019191651
 20
1129.785607284522
 30
0.0
 11
2548.79076515385
 21
1129.785607284522
 31
0.0
  0
DIMENSION
  5
74F2
330
1E
100
AcDbEntity
  8
寸法
  6
Continuous
100
AcDbDimension
  2
*D4
 10
1648.737910566806
 20
1041.879961875439
 30
0.0
 11
1598.737909066806
 21
1047.879961875439
 31
0.0
 70
    32
 71
     5
 42
100.0000030000001
  3
AutoCAD
100
AcDbAlignedDimension
 13
1548.737907566806
 23
1009.628655121339
 33
0.0
 14
1648.737910566806
 24
1009.628655121339
 34
0.0
100
AcDbRotatedDimension
  0
DIMENSION
  5
750C
330
1E
100
AcDbEntity
  8
寸法
  6
Continuous
100
AcDbDimension
  2
*D5
 10
1978.737907566706
 20
1041.879961875439
 30
0.0
 11
1928.737907566706
 21
1047.879961875439
 31
0.0
 70
    32
 71
     5
 42
100.0
  3
AutoCAD
100
AcDbAlignedDimension
 13
1878.737907566706
 23
1008.450950572239
 33
0.0
 14
1978.737907566706
 24
1009.628655121339
 34
0.0
100
AcDbRotatedDimension
  0
DIMENSION
  5
7526
330
1E
100
AcDbEntity
  8
寸法
  6
Continuous
100
AcDbDimension
  2
*D6
 10
1918.737914574306
 20
1026.879961875438
 30
0.0
 11
1763.737907566756
 21
1032.879961875439
 31
0.0
 70
    32
 71
     5
 42
310.0000140150998
  3
AutoCAD
100
AcDbAlignedDimension
 13
1608.737900559206
 23
1001.430696630539
 33
0.0
 14
1918.737914574306
 24
1001.430696630539
 34
0.0
100
AcDbRotatedDimension
  0
DIMENSION
  5
7533
330
1E
100
AcDbEntity
  8
寸法
  6
Continuous
100
AcDbDimension
  2
*D7
 10
1652.737938774806
 20
947.8799608754389
 30
0.0
 11
1645.737923170806
 21
953.8799608754388
 31
0.0
 70
    32
 71
     5
 42
14.00003120800011
  3
AutoCAD
100
AcDbAlignedDimension
 13
1638.737907566806
 23
947.8799608754389
 33
0.0
 14
1652.737938774806
 24
984.4702396306388
 34
0.0
100
AcDbRotatedDimension
  0
DIMENSION
  5
7540
330
1E
100
AcDbEntity
  8
寸法
  6
Continuous
100
AcDbDimension
  2
*D8
 10
1874.737876358706
 20
947.8799608754389
 30
0.0
 11
1763.737907566756
 21
953.8799608754388
 31
0.0
 70
    32
  1
122
 71
     5
 42
221.9999375838999
  3
AutoCAD
100
AcDbAlignedDimension
 13
1652.737938774806
 23
947.8799608754389
 33
0.0
 14
1874.737876358706
 24
984.4702396306388
 34
0.0
100
AcDbRotatedDimension
  0
DIMENSION
  5
754C
330
1E
100
AcDbEntity
  8
寸法
  6
Continuous
100
AcDbDimension
  2
*D9
 10
1888.737907566706
 20
947.8799608754389
 30
0.0
 11
1881.737891962705
 21
953.8799608754388
 31
0.0
 70
    32
 71
     5
 42
14.00003120799988
  3
AutoCAD
100
AcDbAlignedDimension
 13
1874.737876358706
 23
984.4702396306388
 33
0.0
 14
1888.737907566706
 24
947.8799608754389
 34
0.0
100
AcDbRotatedDimension
  0
DIMENSION
  5
7559
330
1E
100
AcDbEntity
  8
寸法
  6
Continuous
100
AcDbDimension
  2
*D10
 10
1638.737907566806
 20
899.8799628754388
 30
0.0
 11
1609.487922670806
 21
905.8799628754389
 31
0.0
 70
    32
  1
58.5
 71
     5
 42
58.499969792
  3
AutoCAD
100
AcDbAlignedDimension
 13
1580.237937774806
 23
958.2174185313387
 33
0.0
 14
1638.737907566806
 24
917.6761663770388
 34
0.0
100
AcDbRotatedDimension
  0
DIMENSION
  5
7566
330
1E
100
AcDbEntity
  8
寸法
  6
Continuous
100
AcDbDimension
  2
*D11
 10
1888.737907566706
 20
899.8799628754388
 30
0.0
 11
1763.737907566756
 21
905.8799628754389
 31
0.0
 70
    32
  1
150
 71
     5
 42
249.9999999998999
  3
AutoCAD
100
AcDbAlignedDimension
 13
1638.737907566806
 23
917.6761663770388
 33
0.0
 14
1888.737907566706
 24
917.6761663770388
 34
0.0
100
AcDbRotatedDimension
  0
DIMENSION
  5
7573
330
1E
100
AcDbEntity
  8
寸法
  6
Continuous
100
AcDbDimension
  2
*D12
 10
1888.737907566706
 20
899.8799628754388
 30
0.0
 11
1917.987892462706
 21
905.8799628754389
 31
0.0
 70
    32
  1
58.5
 71
     5
 42
58.49996979200023
  3
AutoCAD
100
AcDbAlignedDimension
 13
1947.237877358706
 23
958.2174185313387
 33
0.0
 14
1888.737907566706
 24
917.6761663770388
 34
0.0
100
AcDbRotatedDimension
  0
DIMENSION
  5
7580
330
1E
100
AcDbEntity
  8
寸法
  6
Continuous
100
AcDbDimension
  2
*D13
 10
2225.530384835893
 20
1037.747254714077
 30
0.0
 11
2175.530379896493
 21
1043.747254714077
 31
0.0
 70
    32
 71
     5
 42
100.0000098788
  3
AutoCAD
100
AcDbAlignedDimension
 13
2125.530374957093
 23
1005.495947959977
 33
0.0
 14
2225.530384835893
 24
1004.318243410877
 34
0.0
100
AcDbRotatedDimension
  0
DIMENSION
  5
758D
330
1E
100
AcDbEntity
  8
寸法
  6
Continuous
100
AcDbDimension
  2
*D14
 10
2455.530371956993
 20
1037.747254714077
 30
0.0
 11
2340.530378396443
 21
1043.747254714077
 31
0.0
 70
    32
 71
     5
 42
229.9999871210998
  3
AutoCAD
100
AcDbAlignedDimension
 13
2225.530384835893
 23
1004.318243410877
 33
0.0
 14
2455.530371956993
 24
1004.318243410877
 34
0.0
100
AcDbRotatedDimension
  0
DIMENSION
  5
759A
330
1E
100
AcDbEntity
  8
寸法
  6
Continuous
100
AcDbDimension
  2
*D15
 10
2555.530371956993
 20
1037.747254714077
 30
0.0
 11
2505.530371956993
 21
1043.747254714077
 31
0.0
 70
    32
 71
     5
 42
100.0000000000004
  3
AutoCAD
100
AcDbAlignedDimension
 13
2455.530371956993
 23
1004.318243410877
 33
0.0
 14
2555.530371956993
 24
1005.495947959977
 34
0.0
100
AcDbRotatedDimension
  0
DIMENSION
  5
75A7
330
1E
100
AcDbEntity
  8
寸法
  6
Continuous
100
AcDbDimension
  2
*D16
 10
2125.530374957093
 20
1052.747254714077
 30
0.0
 11
2340.530373457042
 21
1058.747254714077
 31
0.0
 70
    32
 71
     5
 42
429.9999969999003
  3
AutoCAD
100
AcDbAlignedDimension
 13
2555.530371956993
 23
1005.495947959977
 33
0.0
 14
2125.530374957093
 24
1005.495947959977
 34
0.0
100
AcDbRotatedDimension
  0
DIMENSION
  5
75B4
330
1E
100
AcDbEntity
  8
寸法
  6
Continuous
100
AcDbDimension
  2
*D17
 10
2495.530378964593
 20
1022.747254714077
 30
0.0
 11
2340.530371957043
 21
1028.747254714077
 31
0.0
 70
    32
 71
     5
 42
310.0000140150996
  3
AutoCAD
100
AcDbAlignedDimension
 13
2185.530364949493
 23
998.0727347690772
 33
0.0
 14
2495.530378964593
 24
998.0727347690772
 34
0.0
100
AcDbRotatedDimension
  0
DIMENSION
  5
75C1
330
1E
100
AcDbEntity
  8
寸法
  6
Continuous
100
AcDbDimension
  2
*D18
 10
2575.530371956993
 20
982.7472547140772
 30
0.0
 11
2569.530371956993
 21
992.7472184261777
 31
0.0
 70
    32
 71
     5
 42
19.99992742419999
  3
AutoCAD
100
AcDbAlignedDimension
 13
2558.040764130693
 23
1002.747182138277
 33
0.0
 14
2575.530371956993
 24
982.7472547140772
 34
0.0
 50
90.0
100
AcDbRotatedDimension
  0
DIMENSION
  5
75CD
330
1E
100
AcDbEntity
  8
寸法
  6
Continuous
100
AcDbDimension
  2
*D19
 10
2451.530341127793
 20
943.7472537140772
 30
0.0
 11
2471.030356542393
 21
949.7472537140772
 31
0.0
 70
    32
 71
     5
 42
39.00003082920012
  3
AutoCAD
100
AcDbAlignedDimension
 13
2490.530371956993
 23
943.7472537140772
 33
0.0
 14
2451.530341127793
 24
980.3375324692773
 34
0.0
100
AcDbRotatedDimension
  0
DIMENSION
  5
75D9
330
1E
100
AcDbEntity
  8
寸法
  6
Continuous
100
AcDbDimension
  2
*D20
 10
2229.530402786293
 20
943.7472537140772
 30
0.0
 11
2340.530371957043
 21
949.7472537140772
 31
0.0
 70
    32
 71
     5
 42
221.9999383415002
  3
AutoCAD
100
AcDbAlignedDimension
 13
2451.530341127793
 23
980.3375324692773
 33
0.0
 14
2229.530402786293
 24
980.3375324692773
 34
0.0
100
AcDbRotatedDimension
  0
DIMENSION
  5
75E6
330
1E
100
AcDbEntity
  8
寸法
  6
Continuous
100
AcDbDimension
  2
*D21
 10
2190.530371957092
 20
943.7472537140772
 30
0.0
 11
2210.030387371693
 21
949.7472537140772
 31
0.0
 70
    32
 71
     5
 42
39.00003082920012
  3
AutoCAD
100
AcDbAlignedDimension
 13
2229.530402786293
 23
980.3375324692773
 33
0.0
 14
2190.530371957092
 24
943.7472537140772
 34
0.0
100
AcDbRotatedDimension
  0
DIMENSION
  5
75F2
330
1E
100
AcDbEntity
  8
寸法
  6
Continuous
100
AcDbDimension
  2
*D22
 10
2190.530371957092
 20
895.7472557140773
 30
0.0
 11
2173.780386871693
 21
901.7472557140772
 31
0.0
 70
    32
  1
33.5
 71
     5
 42
33.49997017079977
  3
AutoCAD
100
AcDbAlignedDimension
 13
2157.030401786293
 23
954.0847113699772
 33
0.0
 14
2190.530371957092
 24
913.5434592156771
 34
0.0
100
AcDbRotatedDimension
  0
DIMENSION
  5
75FF
330
1E
100
AcDbEntity
  8
寸法
  6
Continuous
100
AcDbDimension
  2
*D23
 10
2490.530371956993
 20
895.7472557140773
 30
0.0
 11
2340.530371957043
 21
901.7472557140772
 31
0.0
 70
    32
 71
     5
 42
299.9999999999004
  3
AutoCAD
100
AcDbAlignedDimension
 13
2190.530371957092
 23
913.5434592156771
 33
0.0
 14
2490.530371956993
 24
913.5434592156771
 34
0.0
100
AcDbRotatedDimension
  0
DIMENSION
  5
760C
330
1E
100
AcDbEntity
  8
寸法
  6
Continuous
100
AcDbDimension
  2
*D24
 10
2524.030342127793
 20
895.7472557140773
 30
0.0
 11
2507.280357042393
 21
901.7472557140772
 31
0.0
 70
    32
  1
33.5
 71
     5
 42
33.49997017079977
  3
AutoCAD
100
AcDbAlignedDimension
 13
2490.530371956993
 23
913.5434592156771
 33
0.0
 14
2524.030342127793
 24
954.0847113699772
 34
0.0
100
AcDbRotatedDimension
  0
DIMENSION
  5
7619
330
1E
100
AcDbEntity
  8
寸法
  6
Continuous
100
AcDbDimension
  2
*D25
 10
1978.737907566706
 20
1056.879961875439
 30
0.0
 11
1763.737907566756
 21
1062.879961875438
 31
0.0
 70
    32
 71
     5
 42
429.9999999998999
  3
AutoCAD
100
AcDbAlignedDimension
 13
1548.737907566806
 23
1009.628655121339
 33
0.0
 14
1978.737907566706
 24
1009.628655121339
 34
0.0
100
AcDbRotatedDimension
  0
DIMENSION
  5
7626
330
1E
100
AcDbEntity
  8
寸法
  6
Continuous
100
AcDbDimension
  2
*D26
 10
1878.737907566706
 20
1041.879961875439
 30
0.0
 11
1763.737909066756
 21
1047.879961875439
 31
0.0
 70
    32
 71
     5
 42
229.9999969998999
  3
AutoCAD
100
AcDbAlignedDimension
 13
1648.737910566806
 23
1041.879961875439
 33
0.0
 14
1878.737907566706
 24
1041.879961875439
 34
0.0
100
AcDbRotatedDimension
  0
DIMENSION
  5
7680
330
1E
100
AcDbEntity
  8
寸法
  6
Continuous
100
AcDbDimension
  2
*D27
 10
1998.737907566706
 20
986.8799618754389
 30
0.0
 11
1992.737907566706
 21
996.8799255875392
 31
0.0
 70
    32
 71
     5
 42
19.99992742419999
  3
AutoCAD
100
AcDbAlignedDimension
 13
1981.248299740405
 23
1006.879889299639
 33
0.0
 14
1998.737907566706
 24
986.8799618754389
 34
0.0
 50
90.0
100
AcDbRotatedDimension
  0
ENDSEC
  0
SECTION
  2
OBJECTS
  0
DICTIONARY
  5
C
330
0
100
AcDbDictionary
281
     1
  3
ACAD_COLOR
350
6779
  3
ACAD_GROUP
350
D
  3
ACAD_LAYOUT
350
19
  3
ACAD_MATERIAL
350
6778
  3
ACAD_MLINESTYLE
350
16
  3
ACAD_PLOTSETTINGS
350
18
  3
ACAD_PLOTSTYLENAME
350
E
  3
ACAD_TABLESTYLE
350
677A
  3
ACDBHEADERROUNDTRIPXREC
350
7695
  3
AcDbVariableDictionary
350
169
  0
DICTIONARY
  5
175
330
2
100
AcDbDictionary
280
     1
281
     1
  3
ACAD_LAYERFILTERS
360
7217
  3
ACAD_LAYERSTATES
360
176
  3
ACLYDICTIONARY
360
7216
  0
DICTIONARY
  5
28B
330
1E
100
AcDbDictionary
280
     1
281
     1
  3
ACAD_LAYOUTSELFREF
360
6771
  0
DICTIONARY
  5
28D
330
1A
100
AcDbDictionary
280
     1
281
     1
  3
ACAD_LAYOUTSELFREF
360
6770
  0
DICTIONARY
  5
6779
102
{ACAD_REACTORS
330
C
102
}
330
C
100
AcDbDictionary
281
     1
  0
DICTIONARY
  5
D
102
{ACAD_REACTORS
330
C
102
}
330
C
100
AcDbDictionary
281
     1
  0
DICTIONARY
  5
19
102
{ACAD_REACTORS
330
C
102
}
330
C
100
AcDbDictionary
281
     1
  3
Model
350
21
  3
ﾚｲｱｳﾄ1
350
1D
  0
DICTIONARY
  5
6778
102
{ACAD_REACTORS
330
C
102
}
330
C
100
AcDbDictionary
281
     1
  0
DICTIONARY
  5
16
102
{ACAD_REACTORS
330
C
102
}
330
C
100
AcDbDictionary
281
     1
  3
Standard
350
17
  0
DICTIONARY
  5
18
102
{ACAD_REACTORS
330
C
102
}
330
C
100
AcDbDictionary
281
     1
  0
ACDBDICTIONARYWDFLT
  5
E
102
{ACAD_REACTORS
330
C
102
}
330
C
100
AcDbDictionary
281
     1
  3
Normal
350
F
100
AcDbDictionaryWithDefault
340
F
1001
ACAD
1000
TREAT_AS_HARD
1070
     0
1000
TREAT_AS_HARD
1070
     0
1000
TREAT_AS_HARD
1070
     0
1000
TREAT_AS_HARD
1070
     0
1000
TREAT_AS_HARD
1070
     0
1000
TREAT_AS_HARD
1070
     0
1000
TREAT_AS_HARD
1070
     0
1000
TREAT_AS_HARD
1070
     0
1000
TREAT_AS_HARD
1070
     0
1000
TREAT_AS_HARD
1070
     0
1000
TREAT_AS_HARD
1070
     0
1000
TREAT_AS_HARD
1070
     0
1000
TREAT_AS_HARD
1070
     0
1000
TREAT_AS_HARD
1070
     0
1000
TREAT_AS_HARD
1070
     0
1000
TREAT_AS_HARD
1070
     0
1000
TREAT_AS_HARD
1070
     0
1000
TREAT_AS_HARD
1070
     0
1000
TREAT_AS_HARD
1070
     0
1000
TREAT_AS_HARD
1070
     0
1000
TREAT_AS_HARD
1070
     0
1000
TREAT_AS_HARD
1070
     0
1000
TREAT_AS_HARD
1070
     0
1000
TREAT_AS_HARD
1070
     0
1000
TREAT_AS_HARD
1070
     0
1000
TREAT_AS_HARD
1070
     0
  0
DICTIONARY
  5
677A
102
{ACAD_REACTORS
330
C
102
}
330
C
100
AcDbDictionary
281
     1
  3
Standard
350
677B
  0
DICTIONARY
  5
7695
102
{ACAD_REACTORS
330
C
102
}
330
C
100
AcDbDictionary
281
     1
  0
DICTIONARY
  5
169
102
{ACAD_REACTORS
330
C
102
}
330
C
100
AcDbDictionary
281
     1
  3
CTABLESTYLE
350
6782
  3
DIMASSOC
350
16A
  3
PROJECTNAME
350
7693
  0
DICTIONARY
  5
7217
102
{ACAD_REACTORS
330
175
102
}
330
175
100
AcDbDictionary
281
     1
  0
DICTIONARY
  5
176
102
{ACAD_REACTORS
330
175
102
}
330
175
100
AcDbDictionary
281
     1
  3
ACAD
350
177
  0
DICTIONARY
  5
7216
102
{ACAD_REACTORS
330
175
102
}
330
175
100
AcDbDictionary
281
     1
1001
ACAD
1000
<All
  0
XRECORD
  5
6771
102
{ACAD_REACTORS
330
28B
102
}
330
28B
100
AcDbXrecord
280
     1
340
1E
  0
XRECORD
  5
6770
102
{ACAD_REACTORS
330
28D
102
}
330
28D
100
AcDbXrecord
280
     1
340
1A
  0
LAYOUT
  5
21
102
{ACAD_XDICTIONARY
360
7698
102
}
102
{ACAD_REACTORS
330
19
102
}
330
19
100
AcDbPlotSettings
  1

  2
\\MEISEI-1\EPSON Stylus Photo EX3
  4

  6

 40
0.0
 41
0.0
 42
0.0
 43
0.0
 44
0.0
 45
0.0
 46
0.0
 47
0.0
 48
0.0
 49
0.0
140
0.0
141
0.0
142
1.0
143
1.0
 70
  1712
 72
     0
 73
     0
 74
     0
  7

 75
     0
147
1.0
148
0.0
149
0.0
100
AcDbLayout
  1
Model
 70
     1
 71
     0
 10
0.0
 20
0.0
 11
12.0
 21
9.0
 12
0.0
 22
0.0
 32
0.0
 14
0.0
 24
0.0
 34
0.0
 15
0.0
 25
0.0
 35
0.0
146
0.0
 13
0.0
 23
0.0
 33
0.0
 16
1.0
 26
0.0
 36
0.0
 17
0.0
 27
1.0
 37
0.0
 76
     0
330
1E
  0
LAYOUT
  5
1D
102
{ACAD_XDICTIONARY
360
7696
102
}
102
{ACAD_REACTORS
330
19
102
}
330
19
100
AcDbPlotSettings
  1

  2
\\MEISEI-1\EPSON Stylus Photo EX3
  4

  6

 40
0.0
 41
0.0
 42
0.0
 43
0.0
 44
0.0
 45
0.0
 46
0.0
 47
0.0
 48
0.0
 49
0.0
140
0.0
141
0.0
142
1.0
143
1.0
 70
   688
 72
     0
 73
     0
 74
     5
  7

 75
    16
147
1.0
148
0.0
149
0.0
100
AcDbLayout
  1
ﾚｲｱｳﾄ1
 70
     1
 71
     1
 10
0.0
 20
0.0
 11
12.0
 21
9.0
 12
0.0
 22
0.0
 32
0.0
 14
1.000000000000000E+20
 24
1.000000000000000E+20
 34
1.000000000000000E+20
 15
-1.000000000000000E+20
 25
-1.000000000000000E+20
 35
-1.000000000000000E+20
146
0.0
 13
0.0
 23
0.0
 33
0.0
 16
1.0
 26
0.0
 36
0.0
 17
0.0
 27
1.0
 37
0.0
 76
     0
330
1A
  0
MLINESTYLE
  5
17
102
{ACAD_REACTORS
330
16
102
}
330
16
100
AcDbMlineStyle
  2
STANDARD
 70
     0
  3

 62
   256
 51
90.0
 52
90.0
 71
     2
 49
0.5
 62
   256
  6
BYLAYER
 49
-0.5
 62
   256
  6
BYLAYER
  0
ACDBPLACEHOLDER
  5
F
102
{ACAD_REACTORS
330
E
102
}
330
E
  0
TABLESTYLE
  5
677B
102
{ACAD_REACTORS
330
677A
102
}
330
677A
100
AcDbTableStyle
  3
Standard
 70
     0
 71
     0
 40
0.06
 41
0.06
280
     0
281
     0
  7
STANDARD
140
0.18
170
     2
 62
     0
 63
     7
283
     0
274
    -2
284
     1
 64
     0
275
    -2
285
     1
 65
     0
276
    -2
286
     1
 66
     0
277
    -2
287
     1
 67
     0
278
    -2
288
     1
 68
     0
279
    -2
289
     1
 69
     0
  7
STANDARD
140
0.25
170
     5
 62
     0
 63
     7
283
     0
274
    -2
284
     1
 64
     0
275
    -2
285
     1
 65
     0
276
    -2
286
     1
 66
     0
277
    -2
287
     1
 67
     0
278
    -2
288
     1
 68
     0
279
    -2
289
     1
 69
     0
  7
STANDARD
140
0.18
170
     5
 62
     0
 63
     7
283
     0
274
    -2
284
     1
 64
     0
275
    -2
285
     1
 65
     0
276
    -2
286
     1
 66
     0
277
    -2
287
     1
 67
     0
278
    -2
288
     1
 68
     0
279
    -2
289
     1
 69
     0
  0
DICTIONARYVAR
  5
6782
102
{ACAD_REACTORS
330
169
102
}
330
169
100
DictionaryVariables
280
     0
  1
STANDARD
  0
DICTIONARYVAR
  5
16A
102
{ACAD_REACTORS
330
169
102
}
330
169
100
DictionaryVariables
280
     0
  1
1
  0
DICTIONARYVAR
  5
7693
102
{ACAD_REACTORS
330
169
102
}
330
169
100
DictionaryVariables
280
     0
  1

  0
XRECORD
  5
177
102
{ACAD_REACTORS
330
176
102
}
330
176
100
AcDbXrecord
280
     1
 91
      476
330
179
 90
        8
 62
     7
370
    -3
331
15
  1
Color_7
330
178
 90
        8
 62
     7
370
    -3
331
15
  1
Color_7
330
128
 90
        0
 62
     7
370
    -3
331
15
  1
Color_7
330
10
 90
        8
 62
     7
370
    -3
331
15
  1
Color_7
  0
DICTIONARY
  5
7698
330
21
100
AcDbDictionary
280
     1
281
     1
  3
ACAD_XREC_ROUNDTRIP
360
7699
  0
DICTIONARY
  5
7696
330
1D
100
AcDbDictionary
280
     1
281
     1
  3
ACAD_XREC_ROUNDTRIP
360
7697
  0
XRECORD
  5
7699
102
{ACAD_REACTORS
330
7698
102
}
330
7698
100
AcDbXrecord
280
     1
102
SHADEPLOT
 70
     0
102
SHADEPLOTRESLEVEL
 70
     2
102
SHADEPLOTCUSTOMDPI
 70
   300
  0
XRECORD
  5
7697
102
{ACAD_REACTORS
330
7696
102
}
330
7696
100
AcDbXrecord
280
     1
102
SHADEPLOT
 70
     0
102
SHADEPLOTRESLEVEL
 70
     2
102
SHADEPLOTCUSTOMDPI
 70
   300
  0
ENDSEC
  0
EOF
