  0
SECTION
  2
HEADER
  9
$ACADVER
  1
AC1015
  9
$ACADMAINTVER
 70
    13
  9
$DWGCODEPAGE
  3
ANSI_932
  9
$INSBASE
 10
0.0
 20
0.0
 30
0.0
  9
$EXTMIN
 10
23.089217
 20
21.276456
 30
0.0
  9
$EXTMAX
 10
835.8939499999999
 20
578.774161
 30
0.0
  9
$LIMMIN
 10
0.0
 20
0.0
  9
$LIMMAX
 10
891.0
 20
630.0
  9
$ORTHOMODE
 70
     0
  9
$REGENMODE
 70
     1
  9
$FILLMODE
 70
     1
  9
$QTEXTMODE
 70
     0
  9
$MIRRTEXT
 70
     1
  9
$LTSCALE
 40
3.0
  9
$ATTMODE
 70
     1
  9
$TEXTSIZE
 40
3.5
  9
$TRACEWID
 40
0.05
  9
$TEXTSTYLE
  7
STANDARD
  9
$CLAYER
  8
0
  9
$CELTYPE
  6
CONTINUOUS
  9
$CECOLOR
 62
   256
  9
$CELTSCALE
 40
1.0
  9
$DISPSILH
 70
     0
  9
$DIMSCALE
 40
1.0
  9
$DIMASZ
 40
7.5
  9
$DIMEXO
 40
3.0
  9
$DIMDLI
 40
0.38
  9
$DIMRND
 40
0.0
  9
$DIMDLE
 40
0.0
  9
$DIMEXE
 40
3.0
  9
$DIMTP
 40
0.0
  9
$DIMTM
 40
0.0
  9
$DIMTXT
 40
9.0
  9
$DIMCEN
 40
0.09
  9
$DIMTSZ
 40
0.0
  9
$DIMTOL
 70
     0
  9
$DIMLIM
 70
     0
  9
$DIMTIH
 70
     0
  9
$DIMTOH
 70
     0
  9
$DIMSE1
 70
     0
  9
$DIMSE2
 70
     0
  9
$DIMTAD
 70
     1
  9
$DIMZIN
 70
     0
  9
$DIMBLK
  1

  9
$DIMASO
 70
     1
  9
$DIMSHO
 70
     1
  9
$DIMPOST
  1

  9
$DIMAPOST
  1

  9
$DIMALT
 70
     0
  9
$DIMALTD
 70
     2
  9
$DIMALTF
 40
25.4
  9
$DIMLFAC
 40
1.0
  9
$DIMTOFL
 70
     1
  9
$DIMTVP
 40
1.0
  9
$DIMTIX
 70
     0
  9
$DIMSOXD
 70
     0
  9
$DIMSAH
 70
     0
  9
$DIMBLK1
  1

  9
$DIMBLK2
  1

  9
$DIMSTYLE
  2
Standard
  9
$DIMCLRD
 70
     3
  9
$DIMCLRE
 70
     3
  9
$DIMCLRT
 70
     7
  9
$DIMTFAC
 40
1.0
  9
$DIMGAP
 40
3.0
  9
$DIMJUST
 70
     0
  9
$DIMSD1
 70
     0
  9
$DIMSD2
 70
     0
  9
$DIMTOLJ
 70
     1
  9
$DIMTZIN
 70
     0
  9
$DIMALTZ
 70
     0
  9
$DIMALTTZ
 70
     0
  9
$DIMUPT
 70
     0
  9
$DIMDEC
 70
     4
  9
$DIMTDEC
 70
     4
  9
$DIMALTU
 70
     2
  9
$DIMALTTD
 70
     2
  9
$DIMTXSTY
  7
STANDARD
  9
$DIMAUNIT
 70
     0
  9
$DIMADEC
 70
     0
  9
$DIMALTRND
 40
0.0
  9
$DIMAZIN
 70
     0
  9
$DIMDSEP
 70
    46
  9
$DIMATFIT
 70
     3
  9
$DIMFRAC
 70
     0
  9
$DIMLDRBLK
  1

  9
$DIMLUNIT
 70
     2
  9
$DIMLWD
 70
    -2
  9
$DIMLWE
 70
    -2
  9
$DIMTMOVE
 70
     0
  9
$LUNITS
 70
     2
  9
$LUPREC
 70
     6
  9
$SKETCHINC
 40
0.1
  9
$FILLETRAD
 40
0.0
  9
$AUNITS
 70
     0
  9
$AUPREC
 70
     6
  9
$MENU
  1
.
  9
$ELEVATION
 40
0.0
  9
$PELEVATION
 40
0.0
  9
$THICKNESS
 40
0.0
  9
$LIMCHECK
 70
     0
  9
$CHAMFERA
 40
0.0
  9
$CHAMFERB
 40
0.0
  9
$CHAMFERC
 40
0.0
  9
$CHAMFERD
 40
0.0
  9
$SKPOLY
 70
     0
  9
$TDCREATE
 40
2453504.736331018
  9
$TDUCREATE
 40
2453504.361331019
  9
$TDUPDATE
 40
2454711.677496759
  9
$TDUUPDATE
 40
2454711.302496759
  9
$TDINDWG
 40
0.0006678819
  9
$TDUSRTIMER
 40
0.0006678819
  9
$USRTIMER
 70
     1
  9
$ANGBASE
 50
0.0
  9
$ANGDIR
 70
     0
  9
$PDMODE
 70
    35
  9
$PDSIZE
 40
1.5
  9
$PLINEWID
 40
0.0
  9
$SPLFRAME
 70
     0
  9
$SPLINETYPE
 70
     6
  9
$SPLINESEGS
 70
     8
  9
$HANDSEED
  5
71B
  9
$SURFTAB1
 70
     6
  9
$SURFTAB2
 70
     6
  9
$SURFTYPE
 70
     6
  9
$SURFU
 70
     6
  9
$SURFV
 70
     6
  9
$UCSBASE
  2

  9
$UCSNAME
  2

  9
$UCSORG
 10
0.0
 20
0.0
 30
0.0
  9
$UCSXDIR
 10
1.0
 20
0.0
 30
0.0
  9
$UCSYDIR
 10
0.0
 20
1.0
 30
0.0
  9
$UCSORTHOREF
  2

  9
$UCSORTHOVIEW
 70
     0
  9
$UCSORGTOP
 10
0.0
 20
0.0
 30
0.0
  9
$UCSORGBOTTOM
 10
0.0
 20
0.0
 30
0.0
  9
$UCSORGLEFT
 10
0.0
 20
0.0
 30
0.0
  9
$UCSORGRIGHT
 10
0.0
 20
0.0
 30
0.0
  9
$UCSORGFRONT
 10
0.0
 20
0.0
 30
0.0
  9
$UCSORGBACK
 10
0.0
 20
0.0
 30
0.0
  9
$PUCSBASE
  2

  9
$PUCSNAME
  2

  9
$PUCSORG
 10
0.0
 20
0.0
 30
0.0
  9
$PUCSXDIR
 10
1.0
 20
0.0
 30
0.0
  9
$PUCSYDIR
 10
0.0
 20
1.0
 30
0.0
  9
$PUCSORTHOREF
  2

  9
$PUCSORTHOVIEW
 70
     0
  9
$PUCSORGTOP
 10
0.0
 20
0.0
 30
0.0
  9
$PUCSORGBOTTOM
 10
0.0
 20
0.0
 30
0.0
  9
$PUCSORGLEFT
 10
0.0
 20
0.0
 30
0.0
  9
$PUCSORGRIGHT
 10
0.0
 20
0.0
 30
0.0
  9
$PUCSORGFRONT
 10
0.0
 20
0.0
 30
0.0
  9
$PUCSORGBACK
 10
0.0
 20
0.0
 30
0.0
  9
$USERI1
 70
     0
  9
$USERI2
 70
     0
  9
$USERI3
 70
     0
  9
$USERI4
 70
     0
  9
$USERI5
 70
     0
  9
$USERR1
 40
0.0
  9
$USERR2
 40
0.0
  9
$USERR3
 40
0.0
  9
$USERR4
 40
0.0
  9
$USERR5
 40
0.0
  9
$WORLDVIEW
 70
     1
  9
$SHADEDGE
 70
     3
  9
$SHADEDIF
 70
    70
  9
$TILEMODE
 70
     1
  9
$MAXACTVP
 70
    64
  9
$PINSBASE
 10
0.0
 20
0.0
 30
0.0
  9
$PLIMCHECK
 70
     0
  9
$PEXTMIN
 10
1.000000000000000E+20
 20
1.000000000000000E+20
 30
1.000000000000000E+20
  9
$PEXTMAX
 10
-1.000000000000000E+20
 20
-1.000000000000000E+20
 30
-1.000000000000000E+20
  9
$PLIMMIN
 10
0.0
 20
0.0
  9
$PLIMMAX
 10
12.0
 20
9.0
  9
$UNITMODE
 70
     0
  9
$VISRETAIN
 70
     1
  9
$PLINEGEN
 70
     0
  9
$PSLTSCALE
 70
     1
  9
$TREEDEPTH
 70
  3020
  9
$CMLSTYLE
  2
STANDARD
  9
$CMLJUST
 70
     0
  9
$CMLSCALE
 40
1.0
  9
$PROXYGRAPHICS
 70
     1
  9
$MEASUREMENT
 70
     1
  9
$CELWEIGHT
370
    -1
  9
$ENDCAPS
280
     0
  9
$JOINSTYLE
280
     0
  9
$LWDISPLAY
290
     0
  9
$INSUNITS
 70
     0
  9
$HYPERLINKBASE
  1

  9
$STYLESHEET
  1

  9
$XEDIT
290
     1
  9
$CEPSNTYPE
380
     0
  9
$PSTYLEMODE
290
     1
  9
$FINGERPRINTGUID
  2
{54340B21-44B4-4A5B-9472-19D1AEB0DAE6}
  9
$VERSIONGUID
  2
{2BAD3FDE-7919-418E-B861-C72A9F7B8004}
  9
$EXTNAMES
290
     1
  9
$PSVPSCALE
 40
0.0
  9
$OLESTARTUP
290
     0
  0
ENDSEC
  0
SECTION
  2
CLASSES
  0
CLASS
  1
DICTIONARYVAR
  2
AcDbDictionaryVar
  3
AutoCAD 2000
 90
        0
280
     0
281
     1
  0
CLASS
  1
HATCH
  2
AcDbHatch
  3
AutoCAD 2000
 90
    32768
280
     0
281
     1
  0
CLASS
  1
ACDBDICTIONARYWDFLT
  2
AcDbDictionaryWithDefault
  3
AutoCAD 2000
 90
        0
280
     0
281
     0
  0
CLASS
  1
ACDBPLACEHOLDER
  2
AcDbPlaceHolder
  3
AutoCAD 2000
 90
        0
280
     0
281
     0
  0
CLASS
  1
LAYOUT
  2
AcDbLayout
  3
AutoCAD 2000
 90
        0
280
     0
281
     0
  0
ENDSEC
  0
SECTION
  2
TABLES
  0
TABLE
  2
VPORT
  5
36
330
0
100
AcDbSymbolTable
 70
     3
  0
VPORT
  5
71A
330
36
100
AcDbSymbolTableRecord
100
AcDbViewportTableRecord
  2
*Active
 70
     0
 10
0.0
 20
0.0
 11
1.0
 21
1.0
 12
620.8206930046117
 22
153.0303782299438
 13
0.0
 23
0.0
 14
1.0
 24
1.0
 15
0.0
 25
0.0
 16
0.0
 26
0.0
 36
1.0
 17
0.0
 27
0.0
 37
0.0
 40
213.7101908109253
 41
1.781954887218045
 42
50.0
 43
0.0
 44
0.0
 50
0.0
 51
0.0
 71
     0
 72
   100
 73
     1
 74
     3
 75
     0
 76
     0
 77
     0
 78
     0
281
     0
 65
     1
110
0.0
120
0.0
130
0.0
111
1.0
121
0.0
131
0.0
112
0.0
122
1.0
132
0.0
 79
     0
146
0.0
  0
ENDTAB
  0
TABLE
  2
LTYPE
  5
20
330
0
100
AcDbSymbolTable
 70
    16
  0
LTYPE
  5
21
330
20
100
AcDbSymbolTableRecord
100
AcDbLinetypeTableRecord
  2
BYBLOCK
 70
     0
  3

 72
    65
 73
     0
 40
0.0
  0
LTYPE
  5
22
330
20
100
AcDbSymbolTableRecord
100
AcDbLinetypeTableRecord
  2
BYLAYER
 70
     0
  3

 72
    65
 73
     0
 40
0.0
  0
LTYPE
  5
23
330
20
100
AcDbSymbolTableRecord
100
AcDbLinetypeTableRecord
  2
CONTINUOUS
 70
     0
  3
実線
 72
    65
 73
     0
 40
0.0
  0
LTYPE
  5
24
330
20
100
AcDbSymbolTableRecord
100
AcDbLinetypeTableRecord
  2
PLINE2
 70
     0
  3
点線
 72
    65
 73
     3
 40
1.7
 49
0.5
 74
     0
 49
-0.7
 74
     0
 49
0.5
 74
     0
  0
LTYPE
  5
25
330
20
100
AcDbSymbolTableRecord
100
AcDbLinetypeTableRecord
  2
PLINE3
 70
     0
  3
１点鎖線
 72
    65
 73
     4
 40
10.0
 49
7.0
 74
     0
 49
-1.0
 74
     0
 49
1.0
 74
     0
 49
-1.0
 74
     0
  0
LTYPE
  5
26
330
20
100
AcDbSymbolTableRecord
100
AcDbLinetypeTableRecord
  2
PLINE4
 70
     0
  3
２点鎖線
 72
    65
 73
     7
 40
6.5
 49
2.0
 74
     0
 49
-0.5
 74
     0
 49
0.5
 74
     0
 49
-0.5
 74
     0
 49
0.5
 74
     0
 49
-0.5
 74
     0
 49
2.0
 74
     0
  0
LTYPE
  5
27
330
20
100
AcDbSymbolTableRecord
100
AcDbLinetypeTableRecord
  2
PLINE5
 70
     0
  3
点線1
 72
    65
 73
     2
 40
5.0
 49
3.5
 74
     0
 49
-1.5
 74
     0
  0
LTYPE
  5
28
330
20
100
AcDbSymbolTableRecord
100
AcDbLinetypeTableRecord
  2
PLINE6
 70
     0
  3
１点鎖線1
 72
    65
 73
     4
 40
15.0
 49
10.5
 74
     0
 49
-1.5
 74
     0
 49
1.5
 74
     0
 49
-1.5
 74
     0
  0
LTYPE
  5
29
330
20
100
AcDbSymbolTableRecord
100
AcDbLinetypeTableRecord
  2
PLINE7
 70
     0
  3
２点鎖線1
 72
    65
 73
     6
 40
15.0
 49
7.5
 74
     0
 49
-1.5
 74
     0
 49
1.5
 74
     0
 49
-1.5
 74
     0
 49
1.5
 74
     0
 49
-1.5
 74
     0
  0
LTYPE
  5
2A
330
20
100
AcDbSymbolTableRecord
100
AcDbLinetypeTableRecord
  2
PLINE8
 70
     0
  3
点線2
 72
    65
 73
     2
 40
7.0
 49
4.9
 74
     0
 49
-2.1
 74
     0
  0
LTYPE
  5
2B
330
20
100
AcDbSymbolTableRecord
100
AcDbLinetypeTableRecord
  2
PLINE9
 70
     0
  3
１点鎖線2
 72
    65
 73
     4
 40
20.0
 49
14.0
 74
     0
 49
-2.0
 74
     0
 49
2.0
 74
     0
 49
-2.0
 74
     0
  0
LTYPE
  5
2C
330
20
100
AcDbSymbolTableRecord
100
AcDbLinetypeTableRecord
  2
PLINE10
 70
     0
  3
２点鎖線2
 72
    65
 73
     6
 40
20.0
 49
10.0
 74
     0
 49
-2.0
 74
     0
 49
2.0
 74
     0
 49
-2.0
 74
     0
 49
2.0
 74
     0
 49
-2.0
 74
     0
  0
LTYPE
  5
2D
330
20
100
AcDbSymbolTableRecord
100
AcDbLinetypeTableRecord
  2
PLINE11
 70
     0
  3
点線3
 72
    65
 73
     2
 40
9.0
 49
6.299999999999999
 74
     0
 49
-2.7
 74
     0
  0
LTYPE
  5
2E
330
20
100
AcDbSymbolTableRecord
100
AcDbLinetypeTableRecord
  2
PLINE12
 70
     0
  3
１点鎖線3
 72
    65
 73
     4
 40
25.0
 49
17.5
 74
     0
 49
-2.5
 74
     0
 49
2.5
 74
     0
 49
-2.5
 74
     0
  0
LTYPE
  5
2F
330
20
100
AcDbSymbolTableRecord
100
AcDbLinetypeTableRecord
  2
PLINE13
 70
     0
  3
２点鎖線3
 72
    65
 73
     6
 40
25.0
 49
12.5
 74
     0
 49
-2.5
 74
     0
 49
2.5
 74
     0
 49
-2.5
 74
     0
 49
2.5
 74
     0
 49
-2.5
 74
     0
  0
LTYPE
  5
30
330
20
100
AcDbSymbolTableRecord
100
AcDbLinetypeTableRecord
  2
PLINE14
 70
     0
  3
点線4
 72
    65
 73
     2
 40
11.0
 49
7.7
 74
     0
 49
-3.299999999999999
 74
     0
  0
LTYPE
  5
31
330
20
100
AcDbSymbolTableRecord
100
AcDbLinetypeTableRecord
  2
PLINE15
 70
     0
  3
１点鎖線4
 72
    65
 73
     4
 40
30.0
 49
21.0
 74
     0
 49
-3.0
 74
     0
 49
3.0
 74
     0
 49
-3.0
 74
     0
  0
LTYPE
  5
32
330
20
100
AcDbSymbolTableRecord
100
AcDbLinetypeTableRecord
  2
PLINE16
 70
     0
  3
２点鎖線4
 72
    65
 73
     6
 40
30.0
 49
15.0
 74
     0
 49
-3.0
 74
     0
 49
3.0
 74
     0
 49
-3.0
 74
     0
 49
3.0
 74
     0
 49
-3.0
 74
     0
  0
ENDTAB
  0
TABLE
  2
LAYER
  5
33
330
0
100
AcDbSymbolTable
 70
     2
  0
LAYER
  5
34
330
33
100
AcDbSymbolTableRecord
100
AcDbLayerTableRecord
  2
0
 70
     0
 62
     7
  6
CONTINUOUS
370
    -3
390
70E
  0
LAYER
  5
35
330
33
100
AcDbSymbolTableRecord
100
AcDbLayerTableRecord
  2
PRO0
 70
     0
 62
     7
  6
CONTINUOUS
370
    -3
390
70E
  0
ENDTAB
  0
TABLE
  2
STYLE
  5
37
330
0
100
AcDbSymbolTable
 70
     4
  0
STYLE
  5
38
330
37
100
AcDbSymbolTableRecord
100
AcDbTextStyleTableRecord
  2
STANDARD
 70
     0
 40
0.0
 41
0.8582679999999999
 50
0.0
 71
     0
 42
3.5
  3
txt
  4
BIGFONT
  0
STYLE
  5
39
330
37
100
AcDbSymbolTableRecord
100
AcDbTextStyleTableRecord
  2
VERTXT
 70
     4
 40
0.0
 41
0.8582679999999999
 50
0.0
 71
     0
 42
3.5
  3

  4
BIGFONT
  0
STYLE
  5
3A
330
37
100
AcDbSymbolTableRecord
100
AcDbTextStyleTableRecord
  2
STANDARD2
 70
     0
 40
0.0
 41
0.8582679999999999
 50
0.0
 71
     0
 42
3.5
  3

  4
EXTFONT
  0
STYLE
  5
3B
330
37
100
AcDbSymbolTableRecord
100
AcDbTextStyleTableRecord
  2
VERTXT2
 70
     4
 40
0.0
 41
0.8582679999999999
 50
0.0
 71
     0
 42
3.5
  3

  4
EXTFONT
  0
ENDTAB
  0
TABLE
  2
VIEW
  5
3C
330
0
100
AcDbSymbolTable
 70
     0
  0
ENDTAB
  0
TABLE
  2
UCS
  5
3D
330
0
100
AcDbSymbolTable
 70
     0
  0
ENDTAB
  0
TABLE
  2
APPID
  5
3E
330
0
100
AcDbSymbolTable
 70
     1
  0
APPID
  5
3F
330
3E
100
AcDbSymbolTableRecord
100
AcDbRegAppTableRecord
  2
ACAD
 70
     0
  0
ENDTAB
  0
TABLE
  2
DIMSTYLE
  5
40
330
0
100
AcDbSymbolTable
 70
     1
100
AcDbDimStyleTable
 71
     0
  0
DIMSTYLE
105
70F
330
40
100
AcDbSymbolTableRecord
100
AcDbDimStyleTableRecord
  2
Standard
 70
     0
340
38
  0
ENDTAB
  0
TABLE
  2
BLOCK_RECORD
  5
6F3
330
0
100
AcDbSymbolTable
 70
    33
  0
BLOCK_RECORD
  5
6F4
330
6F3
100
AcDbSymbolTableRecord
100
AcDbBlockTableRecord
  2
*MODEL_SPACE
340
712
  0
BLOCK_RECORD
  5
6F5
330
6F3
100
AcDbSymbolTableRecord
100
AcDbBlockTableRecord
  2
*PAPER_SPACE
340
713
  0
BLOCK_RECORD
  5
4E
330
6F3
100
AcDbSymbolTableRecord
100
AcDbBlockTableRecord
  2
*D0
340
0
  0
BLOCK_RECORD
  5
59
330
6F3
100
AcDbSymbolTableRecord
100
AcDbBlockTableRecord
  2
*D1
340
0
  0
BLOCK_RECORD
  5
64
330
6F3
100
AcDbSymbolTableRecord
100
AcDbBlockTableRecord
  2
*D2
340
0
  0
BLOCK_RECORD
  5
92
330
6F3
100
AcDbSymbolTableRecord
100
AcDbBlockTableRecord
  2
*D3
340
0
  0
BLOCK_RECORD
  5
9D
330
6F3
100
AcDbSymbolTableRecord
100
AcDbBlockTableRecord
  2
*D4
340
0
  0
BLOCK_RECORD
  5
CF
330
6F3
100
AcDbSymbolTableRecord
100
AcDbBlockTableRecord
  2
*D5
340
0
  0
BLOCK_RECORD
  5
DA
330
6F3
100
AcDbSymbolTableRecord
100
AcDbBlockTableRecord
  2
*D6
340
0
  0
BLOCK_RECORD
  5
E4
330
6F3
100
AcDbSymbolTableRecord
100
AcDbBlockTableRecord
  2
*D7
340
0
  0
BLOCK_RECORD
  5
EF
330
6F3
100
AcDbSymbolTableRecord
100
AcDbBlockTableRecord
  2
*D8
340
0
  0
BLOCK_RECORD
  5
F9
330
6F3
100
AcDbSymbolTableRecord
100
AcDbBlockTableRecord
  2
*D9
340
0
  0
BLOCK_RECORD
  5
104
330
6F3
100
AcDbSymbolTableRecord
100
AcDbBlockTableRecord
  2
*D10
340
0
  0
BLOCK_RECORD
  5
10E
330
6F3
100
AcDbSymbolTableRecord
100
AcDbBlockTableRecord
  2
*D11
340
0
  0
BLOCK_RECORD
  5
119
330
6F3
100
AcDbSymbolTableRecord
100
AcDbBlockTableRecord
  2
*D12
340
0
  0
BLOCK_RECORD
  5
1C5
330
6F3
100
AcDbSymbolTableRecord
100
AcDbBlockTableRecord
  2
*D13
340
0
  0
BLOCK_RECORD
  5
1E4
330
6F3
100
AcDbSymbolTableRecord
100
AcDbBlockTableRecord
  2
*D14
340
0
  0
BLOCK_RECORD
  5
214
330
6F3
100
AcDbSymbolTableRecord
100
AcDbBlockTableRecord
  2
*D15
340
0
  0
BLOCK_RECORD
  5
233
330
6F3
100
AcDbSymbolTableRecord
100
AcDbBlockTableRecord
  2
*D16
340
0
  0
BLOCK_RECORD
  5
295
330
6F3
100
AcDbSymbolTableRecord
100
AcDbBlockTableRecord
  2
*D17
340
0
  0
BLOCK_RECORD
  5
2A1
330
6F3
100
AcDbSymbolTableRecord
100
AcDbBlockTableRecord
  2
*D18
340
0
  0
BLOCK_RECORD
  5
2AD
330
6F3
100
AcDbSymbolTableRecord
100
AcDbBlockTableRecord
  2
*D19
340
0
  0
BLOCK_RECORD
  5
2B9
330
6F3
100
AcDbSymbolTableRecord
100
AcDbBlockTableRecord
  2
*D20
340
0
  0
BLOCK_RECORD
  5
2C5
330
6F3
100
AcDbSymbolTableRecord
100
AcDbBlockTableRecord
  2
*D21
340
0
  0
BLOCK_RECORD
  5
2D1
330
6F3
100
AcDbSymbolTableRecord
100
AcDbBlockTableRecord
  2
*D22
340
0
  0
BLOCK_RECORD
  5
2DD
330
6F3
100
AcDbSymbolTableRecord
100
AcDbBlockTableRecord
  2
*D23
340
0
  0
BLOCK_RECORD
  5
3CE
330
6F3
100
AcDbSymbolTableRecord
100
AcDbBlockTableRecord
  2
*D24
340
0
  0
BLOCK_RECORD
  5
4DF
330
6F3
100
AcDbSymbolTableRecord
100
AcDbBlockTableRecord
  2
*D25
340
0
  0
BLOCK_RECORD
  5
4EB
330
6F3
100
AcDbSymbolTableRecord
100
AcDbBlockTableRecord
  2
*D26
340
0
  0
BLOCK_RECORD
  5
4F6
330
6F3
100
AcDbSymbolTableRecord
100
AcDbBlockTableRecord
  2
*D27
340
0
  0
BLOCK_RECORD
  5
501
330
6F3
100
AcDbSymbolTableRecord
100
AcDbBlockTableRecord
  2
*D28
340
0
  0
BLOCK_RECORD
  5
510
330
6F3
100
AcDbSymbolTableRecord
100
AcDbBlockTableRecord
  2
*D29
340
0
  0
BLOCK_RECORD
  5
51C
330
6F3
100
AcDbSymbolTableRecord
100
AcDbBlockTableRecord
  2
*D30
340
0
  0
BLOCK_RECORD
  5
528
330
6F3
100
AcDbSymbolTableRecord
100
AcDbBlockTableRecord
  2
*D31
340
0
  0
BLOCK_RECORD
  5
6D7
330
6F3
100
AcDbSymbolTableRecord
100
AcDbBlockTableRecord
  2
*D32
340
0
  0
ENDTAB
  0
ENDSEC
  0
SECTION
  2
BLOCKS
  0
BLOCK
  5
6F6
330
6F4
100
AcDbEntity
  8
0
100
AcDbBlockBegin
  2
*MODEL_SPACE
 70
     0
 10
0.0
 20
0.0
 30
0.0
  3
*MODEL_SPACE
  1

  0
ENDBLK
  5
6F7
330
6F4
100
AcDbEntity
  8
0
100
AcDbBlockEnd
  0
BLOCK
  5
6F8
330
6F5
100
AcDbEntity
 67
     1
  8
0
100
AcDbBlockBegin
  2
*PAPER_SPACE
 70
     0
 10
0.0
 20
0.0
 30
0.0
  3
*PAPER_SPACE
  1

  0
ENDBLK
  5
6F9
330
6F5
100
AcDbEntity
 67
     1
  8
0
100
AcDbBlockEnd
  0
BLOCK
  5
4D
330
4E
100
AcDbEntity
  8
0
100
AcDbBlockBegin
  2
*D0
 70
     1
 10
0.0
 20
0.0
 30
0.0
  3
*D0
  1

  0
LINE
  5
4F
330
4E
100
AcDbEntity
  8
PRO0
  6
Continuous
 62
     3
100
AcDbLine
 10
111.3266979999999
 20
486.8067299999999
 30
0.0
 11
191.3267839999999
 21
486.8067299999999
 31
0.0
  0
LINE
  5
50
330
4E
100
AcDbEntity
  8
PRO0
  6
Continuous
 62
     3
100
AcDbLine
 10
191.3267839999999
 20
440.615508
 30
0.0
 11
191.3267839999999
 21
489.80673
 31
0.0
  0
LINE
  5
51
330
4E
100
AcDbEntity
  8
PRO0
  6
Continuous
 62
     3
100
AcDbLine
 10
111.3266979999999
 20
486.8067299999999
 30
0.0
 11
114.3266979999999
 21
487.5567299999999
 31
0.0
  0
LINE
  5
52
330
4E
100
AcDbEntity
  8
PRO0
  6
Continuous
 62
     3
100
AcDbLine
 10
111.3266979999999
 20
486.8067299999999
 30
0.0
 11
114.3266979999999
 21
486.0567299999999
 31
0.0
  0
LINE
  5
53
330
4E
100
AcDbEntity
  8
PRO0
  6
Continuous
 62
     3
100
AcDbLine
 10
191.3267839999999
 20
486.8067299999999
 30
0.0
 11
188.326784
 21
486.0567299999999
 31
0.0
  0
LINE
  5
54
330
4E
100
AcDbEntity
  8
PRO0
  6
Continuous
 62
     3
100
AcDbLine
 10
191.3267839999999
 20
486.8067299999999
 30
0.0
 11
188.326784
 21
487.5567299999999
 31
0.0
  0
TEXT
  5
55
330
4E
100
AcDbEntity
  8
PRO0
  6
Continuous
 62
     3
100
AcDbText
 10
146.750454
 20
488.306717
 30
0.0
 40
6.0
  1
８０
 41
0.73811
 72
     1
 11
151.326736
 21
488.306717
 31
0.0
100
AcDbText
  0
ENDBLK
  5
56
330
4E
100
AcDbEntity
  8
0
100
AcDbBlockEnd
  0
BLOCK
  5
58
330
59
100
AcDbEntity
  8
0
100
AcDbBlockBegin
  2
*D1
 70
     1
 10
0.0
 20
0.0
 30
0.0
  3
*D1
  1

  0
LINE
  5
5A
330
59
100
AcDbEntity
  8
PRO0
  6
Continuous
 62
     3
100
AcDbLine
 10
191.3267839999999
 20
486.8067299999999
 30
0.0
 11
261.3266139999999
 21
486.8067299999999
 31
0.0
  0
LINE
  5
5B
330
59
100
AcDbEntity
  8
PRO0
  6
Continuous
 62
     3
100
AcDbLine
 10
261.3266139999999
 20
440.615508
 30
0.0
 11
261.3266139999999
 21
489.80673
 31
0.0
  0
LINE
  5
5C
330
59
100
AcDbEntity
  8
PRO0
  6
Continuous
 62
     3
100
AcDbLine
 10
191.3267839999999
 20
486.8067299999999
 30
0.0
 11
194.326784
 21
487.5567299999999
 31
0.0
  0
LINE
  5
5D
330
59
100
AcDbEntity
  8
PRO0
  6
Continuous
 62
     3
100
AcDbLine
 10
191.3267839999999
 20
486.8067299999999
 30
0.0
 11
194.326784
 21
486.0567299999999
 31
0.0
  0
LINE
  5
5E
330
59
100
AcDbEntity
  8
PRO0
  6
Continuous
 62
     3
100
AcDbLine
 10
261.3266139999999
 20
486.8067299999999
 30
0.0
 11
258.326614
 21
486.0567299999999
 31
0.0
  0
LINE
  5
5F
330
59
100
AcDbEntity
  8
PRO0
  6
Continuous
 62
     3
100
AcDbLine
 10
261.3266139999999
 20
486.8067299999999
 30
0.0
 11
258.326614
 21
487.5567299999999
 31
0.0
  0
TEXT
  5
60
330
59
100
AcDbEntity
  8
PRO0
  6
Continuous
 62
     3
100
AcDbText
 10
221.750409
 20
488.306717
 30
0.0
 40
6.0
  1
７０
 41
0.73811
 72
     1
 11
226.326691
 21
488.306717
 31
0.0
100
AcDbText
  0
ENDBLK
  5
61
330
59
100
AcDbEntity
  8
0
100
AcDbBlockEnd
  0
BLOCK
  5
63
330
64
100
AcDbEntity
  8
0
100
AcDbBlockBegin
  2
*D2
 70
     1
 10
0.0
 20
0.0
 30
0.0
  3
*D2
  1

  0
LINE
  5
65
330
64
100
AcDbEntity
  8
PRO0
  6
Continuous
 62
     3
100
AcDbLine
 10
261.3266139999999
 20
486.8067299999999
 30
0.0
 11
341.3267
 21
486.8067299999999
 31
0.0
  0
LINE
  5
66
330
64
100
AcDbEntity
  8
PRO0
  6
Continuous
 62
     3
100
AcDbLine
 10
261.3266139999999
 20
486.8067299999999
 30
0.0
 11
264.326614
 21
487.5567299999999
 31
0.0
  0
LINE
  5
67
330
64
100
AcDbEntity
  8
PRO0
  6
Continuous
 62
     3
100
AcDbLine
 10
261.3266139999999
 20
486.8067299999999
 30
0.0
 11
264.326614
 21
486.0567299999999
 31
0.0
  0
LINE
  5
68
330
64
100
AcDbEntity
  8
PRO0
  6
Continuous
 62
     3
100
AcDbLine
 10
341.3267
 20
486.8067299999999
 30
0.0
 11
338.3267
 21
486.0567299999999
 31
0.0
  0
LINE
  5
69
330
64
100
AcDbEntity
  8
PRO0
  6
Continuous
 62
     3
100
AcDbLine
 10
341.3267
 20
486.8067299999999
 30
0.0
 11
338.3267
 21
487.5567299999999
 31
0.0
  0
TEXT
  5
6A
330
64
100
AcDbEntity
  8
PRO0
  6
Continuous
 62
     3
100
AcDbText
 10
296.750386
 20
488.306717
 30
0.0
 40
6.0
  1
８０
 41
0.73811
 72
     1
 11
301.326668
 21
488.306717
 31
0.0
100
AcDbText
  0
ENDBLK
  5
6B
330
64
100
AcDbEntity
  8
0
100
AcDbBlockEnd
  0
BLOCK
  5
91
330
92
100
AcDbEntity
  8
0
100
AcDbBlockBegin
  2
*D3
 70
     1
 10
0.0
 20
0.0
 30
0.0
  3
*D3
  1

  0
LINE
  5
93
330
92
100
AcDbEntity
  8
PRO0
  6
Continuous
 62
     3
100
AcDbLine
 10
536.1828
 20
512.863252
 30
0.0
 11
681.483141
 21
512.863252
 31
0.0
  0
LINE
  5
94
330
92
100
AcDbEntity
  8
PRO0
  6
Continuous
 62
     3
100
AcDbLine
 10
681.483141
 20
486.1155209999999
 30
0.0
 11
681.483141
 21
515.863252
 31
0.0
  0
LINE
  5
95
330
92
100
AcDbEntity
  8
PRO0
  6
Continuous
 62
     3
100
AcDbLine
 10
536.1828
 20
512.863252
 30
0.0
 11
539.1828
 21
513.613252
 31
0.0
  0
LINE
  5
96
330
92
100
AcDbEntity
  8
PRO0
  6
Continuous
 62
     3
100
AcDbLine
 10
536.1828
 20
512.863252
 30
0.0
 11
539.1828
 21
512.1132519999999
 31
0.0
  0
LINE
  5
97
330
92
100
AcDbEntity
  8
PRO0
  6
Continuous
 62
     3
100
AcDbLine
 10
681.483141
 20
512.863252
 30
0.0
 11
678.483141
 21
512.1132519999999
 31
0.0
  0
LINE
  5
98
330
92
100
AcDbEntity
  8
PRO0
  6
Continuous
 62
     3
100
AcDbLine
 10
681.483141
 20
512.863252
 30
0.0
 11
678.483141
 21
513.613252
 31
0.0
  0
TEXT
  5
99
330
92
100
AcDbEntity
  8
PRO0
  6
Continuous
 62
     3
100
AcDbText
 10
595.694604
 20
514.363266
 30
0.0
 40
6.0
  1
１４５．３
 41
0.73811
 72
     1
 11
608.832962
 21
514.363266
 31
0.0
100
AcDbText
  0
ENDBLK
  5
9A
330
92
100
AcDbEntity
  8
0
100
AcDbBlockEnd
  0
BLOCK
  5
9C
330
9D
100
AcDbEntity
  8
0
100
AcDbBlockBegin
  2
*D4
 70
     1
 10
0.0
 20
0.0
 30
0.0
  3
*D4
  1

  0
LINE
  5
9E
330
9D
100
AcDbEntity
  8
PRO0
  6
Continuous
 62
     3
100
AcDbLine
 10
681.483141
 20
512.863252
 30
0.0
 11
701.1828
 21
512.863252
 31
0.0
  0
LINE
  5
9F
330
9D
100
AcDbEntity
  8
PRO0
  6
Continuous
 62
     3
100
AcDbLine
 10
681.483141
 20
512.863252
 30
0.0
 11
684.483141
 21
513.613252
 31
0.0
  0
LINE
  5
A0
330
9D
100
AcDbEntity
  8
PRO0
  6
Continuous
 62
     3
100
AcDbLine
 10
681.483141
 20
512.863252
 30
0.0
 11
684.483141
 21
512.1132519999999
 31
0.0
  0
LINE
  5
A1
330
9D
100
AcDbEntity
  8
PRO0
  6
Continuous
 62
     3
100
AcDbLine
 10
701.1828
 20
512.863252
 30
0.0
 11
698.1828
 21
512.1132519999999
 31
0.0
  0
LINE
  5
A2
330
9D
100
AcDbEntity
  8
PRO0
  6
Continuous
 62
     3
100
AcDbLine
 10
701.1828
 20
512.863252
 30
0.0
 11
698.1828
 21
513.613252
 31
0.0
  0
TEXT
  5
A3
330
9D
100
AcDbEntity
  8
PRO0
  6
Continuous
 62
     3
100
AcDbText
 10
680.8518
 20
514.363266
 30
0.0
 40
6.0
  1
１９．７
 41
0.73811
 72
     1
 11
691.332962
 21
514.363266
 31
0.0
100
AcDbText
  0
ENDBLK
  5
A4
330
9D
100
AcDbEntity
  8
0
100
AcDbBlockEnd
  0
BLOCK
  5
CE
330
CF
100
AcDbEntity
  8
0
100
AcDbBlockBegin
  2
*D5
 70
     1
 10
0.0
 20
0.0
 30
0.0
  3
*D5
  1

  0
LINE
  5
D0
330
CF
100
AcDbEntity
  8
PRO0
  6
Continuous
 62
     3
100
AcDbLine
 10
536.1828
 20
501.0903739999999
 30
0.0
 11
616.1828
 21
501.0903739999999
 31
0.0
  0
LINE
  5
D1
330
CF
100
AcDbEntity
  8
PRO0
  6
Continuous
 62
     3
100
AcDbLine
 10
616.1828
 20
440.615508
 30
0.0
 11
616.1828
 21
504.090374
 31
0.0
  0
LINE
  5
D2
330
CF
100
AcDbEntity
  8
PRO0
  6
Continuous
 62
     3
100
AcDbLine
 10
536.1828
 20
501.0903739999999
 30
0.0
 11
539.1828
 21
501.840374
 31
0.0
  0
LINE
  5
D3
330
CF
100
AcDbEntity
  8
PRO0
  6
Continuous
 62
     3
100
AcDbLine
 10
536.1828
 20
501.0903739999999
 30
0.0
 11
539.1828
 21
500.340374
 31
0.0
  0
LINE
  5
D4
330
CF
100
AcDbEntity
  8
PRO0
  6
Continuous
 62
     3
100
AcDbLine
 10
616.1828
 20
501.0903739999999
 30
0.0
 11
613.1828
 21
500.340374
 31
0.0
  0
LINE
  5
D5
330
CF
100
AcDbEntity
  8
PRO0
  6
Continuous
 62
     3
100
AcDbLine
 10
616.1828
 20
501.0903739999999
 30
0.0
 11
613.1828
 21
501.840374
 31
0.0
  0
TEXT
  5
D6
330
CF
100
AcDbEntity
  8
PRO0
  6
Continuous
 62
     3
100
AcDbText
 10
571.606503
 20
502.590363
 30
0.0
 40
6.0
  1
８０
 41
0.73811
 72
     1
 11
576.1827849999999
 21
502.590363
 31
0.0
100
AcDbText
  0
ENDBLK
  5
D7
330
CF
100
AcDbEntity
  8
0
100
AcDbBlockEnd
  0
BLOCK
  5
D9
330
DA
100
AcDbEntity
  8
0
100
AcDbBlockBegin
  2
*D6
 70
     1
 10
0.0
 20
0.0
 30
0.0
  3
*D6
  1

  0
LINE
  5
DB
330
DA
100
AcDbEntity
  8
PRO0
  6
Continuous
 62
     3
100
AcDbLine
 10
616.1828
 20
501.0903739999999
 30
0.0
 11
681.483141
 21
501.0903739999999
 31
0.0
  0
LINE
  5
DC
330
DA
100
AcDbEntity
  8
PRO0
  6
Continuous
 62
     3
100
AcDbLine
 10
616.1828
 20
501.0903739999999
 30
0.0
 11
619.1828
 21
501.840374
 31
0.0
  0
LINE
  5
DD
330
DA
100
AcDbEntity
  8
PRO0
  6
Continuous
 62
     3
100
AcDbLine
 10
616.1828
 20
501.0903739999999
 30
0.0
 11
619.1828
 21
500.340374
 31
0.0
  0
LINE
  5
DE
330
DA
100
AcDbEntity
  8
PRO0
  6
Continuous
 62
     3
100
AcDbLine
 10
681.483141
 20
501.0903739999999
 30
0.0
 11
678.483141
 21
500.340374
 31
0.0
  0
LINE
  5
DF
330
DA
100
AcDbEntity
  8
PRO0
  6
Continuous
 62
     3
100
AcDbLine
 10
681.483141
 20
501.0903739999999
 30
0.0
 11
678.483141
 21
501.840374
 31
0.0
  0
TEXT
  5
E0
330
DA
100
AcDbEntity
  8
PRO0
  6
Continuous
 62
     3
100
AcDbText
 10
638.794697
 20
502.590363
 30
0.0
 40
6.0
  1
６５．３
 41
0.73811
 72
     1
 11
648.8329929999999
 21
502.590363
 31
0.0
100
AcDbText
  0
ENDBLK
  5
E1
330
DA
100
AcDbEntity
  8
0
100
AcDbBlockEnd
  0
BLOCK
  5
E3
330
E4
100
AcDbEntity
  8
0
100
AcDbBlockBegin
  2
*D7
 70
     1
 10
0.0
 20
0.0
 30
0.0
  3
*D7
  1

  0
LINE
  5
E5
330
E4
100
AcDbEntity
  8
PRO0
  6
Continuous
 62
     3
100
AcDbLine
 10
681.483141
 20
501.0903739999999
 30
0.0
 11
691.483141
 21
501.0903739999999
 31
0.0
  0
LINE
  5
E6
330
E4
100
AcDbEntity
  8
PRO0
  6
Continuous
 62
     3
100
AcDbLine
 10
691.483141
 20
485.915138
 30
0.0
 11
691.483141
 21
504.090374
 31
0.0
  0
LINE
  5
E7
330
E4
100
AcDbEntity
  8
PRO0
  6
Continuous
 62
     3
100
AcDbLine
 10
681.483141
 20
501.0903739999999
 30
0.0
 11
684.483141
 21
501.840374
 31
0.0
  0
LINE
  5
E8
330
E4
100
AcDbEntity
  8
PRO0
  6
Continuous
 62
     3
100
AcDbLine
 10
681.483141
 20
501.0903739999999
 30
0.0
 11
684.483141
 21
500.340374
 31
0.0
  0
LINE
  5
E9
330
E4
100
AcDbEntity
  8
PRO0
  6
Continuous
 62
     3
100
AcDbLine
 10
691.483141
 20
501.0903739999999
 30
0.0
 11
688.483141
 21
500.340374
 31
0.0
  0
LINE
  5
EA
330
E4
100
AcDbEntity
  8
PRO0
  6
Continuous
 62
     3
100
AcDbLine
 10
691.483141
 20
501.0903739999999
 30
0.0
 11
688.483141
 21
501.840374
 31
0.0
  0
TEXT
  5
EB
330
E4
100
AcDbEntity
  8
PRO0
  6
Continuous
 62
     3
100
AcDbText
 10
681.4639909999999
 20
502.590363
 30
0.0
 40
6.0
  1
１０
 41
0.73811
 72
     1
 11
686.4831389999999
 21
502.590363
 31
0.0
100
AcDbText
  0
ENDBLK
  5
EC
330
E4
100
AcDbEntity
  8
0
100
AcDbBlockEnd
  0
BLOCK
  5
EE
330
EF
100
AcDbEntity
  8
0
100
AcDbBlockBegin
  2
*D8
 70
     1
 10
0.0
 20
0.0
 30
0.0
  3
*D8
  1

  0
LINE
  5
F0
330
EF
100
AcDbEntity
  8
PRO0
  6
Continuous
 62
     3
100
AcDbLine
 10
691.483141
 20
501.0903739999999
 30
0.0
 11
701.1828
 21
501.0903739999999
 31
0.0
  0
LINE
  5
F1
330
EF
100
AcDbEntity
  8
PRO0
  6
Continuous
 62
     3
100
AcDbLine
 10
691.483141
 20
501.0903739999999
 30
0.0
 11
694.483141
 21
501.840374
 31
0.0
  0
LINE
  5
F2
330
EF
100
AcDbEntity
  8
PRO0
  6
Continuous
 62
     3
100
AcDbLine
 10
691.483141
 20
501.0903739999999
 30
0.0
 11
694.483141
 21
500.340374
 31
0.0
  0
LINE
  5
F3
330
EF
100
AcDbEntity
  8
PRO0
  6
Continuous
 62
     3
100
AcDbLine
 10
701.1828
 20
501.0903739999999
 30
0.0
 11
698.1828
 21
500.340374
 31
0.0
  0
LINE
  5
F4
330
EF
100
AcDbEntity
  8
PRO0
  6
Continuous
 62
     3
100
AcDbLine
 10
701.1828
 20
501.0903739999999
 30
0.0
 11
698.1828
 21
501.840374
 31
0.0
  0
TEXT
  5
F5
330
EF
100
AcDbEntity
  8
PRO0
  6
Continuous
 62
     3
100
AcDbText
 10
688.9518769999999
 20
502.590363
 30
0.0
 40
6.0
  1
９．７
 41
0.73811
 72
     1
 11
696.3329769999999
 21
502.590363
 31
0.0
100
AcDbText
  0
ENDBLK
  5
F6
330
EF
100
AcDbEntity
  8
0
100
AcDbBlockEnd
  0
BLOCK
  5
F8
330
F9
100
AcDbEntity
  8
0
100
AcDbBlockBegin
  2
*D9
 70
     1
 10
0.0
 20
0.0
 30
0.0
  3
*D9
  1

  0
LINE
  5
FA
330
F9
100
AcDbEntity
  8
PRO0
  6
Continuous
 62
     3
100
AcDbLine
 10
524.7491639999999
 20
440.815508
 30
0.0
 11
524.7491639999999
 21
430.815508
 31
0.0
  0
LINE
  5
FB
330
F9
100
AcDbEntity
  8
PRO0
  6
Continuous
 62
     3
100
AcDbLine
 10
536.3827999999999
 20
430.815508
 30
0.0
 11
521.7491639999999
 21
430.815508
 31
0.0
  0
LINE
  5
FC
330
F9
100
AcDbEntity
  8
PRO0
  6
Continuous
 62
     3
100
AcDbLine
 10
524.7491639999999
 20
440.815508
 30
0.0
 11
525.4991639999999
 21
437.8155079999999
 31
0.0
  0
LINE
  5
FD
330
F9
100
AcDbEntity
  8
PRO0
  6
Continuous
 62
     3
100
AcDbLine
 10
524.7491639999999
 20
440.815508
 30
0.0
 11
523.9991639999999
 21
437.8155079999999
 31
0.0
  0
LINE
  5
FE
330
F9
100
AcDbEntity
  8
PRO0
  6
Continuous
 62
     3
100
AcDbLine
 10
524.7491639999999
 20
430.815508
 30
0.0
 11
523.9991639999999
 21
433.8155079999999
 31
0.0
  0
LINE
  5
FF
330
F9
100
AcDbEntity
  8
PRO0
  6
Continuous
 62
     3
100
AcDbLine
 10
524.7491639999999
 20
430.815508
 30
0.0
 11
525.4991639999999
 21
433.8155079999999
 31
0.0
  0
TEXT
  5
100
330
F9
100
AcDbEntity
  8
PRO0
  6
Continuous
 62
     3
100
AcDbText
 10
523.2491462628019
 20
430.796358
 30
0.0
 40
6.0
  1
１０
 50
90.00000300000001
 41
0.73811
 72
     1
 11
523.249146
 21
435.8155059999999
 31
0.0
100
AcDbText
  0
ENDBLK
  5
101
330
F9
100
AcDbEntity
  8
0
100
AcDbBlockEnd
  0
BLOCK
  5
103
330
104
100
AcDbEntity
  8
0
100
AcDbBlockBegin
  2
*D10
 70
     1
 10
0.0
 20
0.0
 30
0.0
  3
*D10
  1

  0
LINE
  5
105
330
104
100
AcDbEntity
  8
PRO0
  6
Continuous
 62
     3
100
AcDbLine
 10
524.7491639999999
 20
430.815508
 30
0.0
 11
524.7491639999999
 21
421.115508
 31
0.0
  0
LINE
  5
106
330
104
100
AcDbEntity
  8
PRO0
  6
Continuous
 62
     3
100
AcDbLine
 10
524.7491639999999
 20
430.815508
 30
0.0
 11
525.4991639999999
 21
427.815508
 31
0.0
  0
LINE
  5
107
330
104
100
AcDbEntity
  8
PRO0
  6
Continuous
 62
     3
100
AcDbLine
 10
524.7491639999999
 20
430.815508
 30
0.0
 11
523.9991639999999
 21
427.815508
 31
0.0
  0
LINE
  5
108
330
104
100
AcDbEntity
  8
PRO0
  6
Continuous
 62
     3
100
AcDbLine
 10
524.7491639999999
 20
421.115508
 30
0.0
 11
523.9991639999999
 21
424.115508
 31
0.0
  0
LINE
  5
109
330
104
100
AcDbEntity
  8
PRO0
  6
Continuous
 62
     3
100
AcDbLine
 10
524.7491639999999
 20
421.115508
 30
0.0
 11
525.4991639999999
 21
424.115508
 31
0.0
  0
TEXT
  5
10A
330
104
100
AcDbEntity
  8
PRO0
  6
Continuous
 62
     3
100
AcDbText
 10
523.2491463864735
 20
418.58443
 30
0.0
 40
6.0
  1
９．７
 50
90.00000300000001
 41
0.73811
 72
     1
 11
523.249146
 21
425.96553
 31
0.0
100
AcDbText
  0
ENDBLK
  5
10B
330
104
100
AcDbEntity
  8
0
100
AcDbBlockEnd
  0
BLOCK
  5
10D
330
10E
100
AcDbEntity
  8
0
100
AcDbBlockBegin
  2
*D11
 70
     1
 10
0.0
 20
0.0
 30
0.0
  3
*D11
  1

  0
LINE
  5
10F
330
10E
100
AcDbEntity
  8
PRO0
  6
Continuous
 62
     3
100
AcDbLine
 10
83.476575
 20
440.815508
 30
0.0
 11
83.476575
 21
430.815508
 31
0.0
  0
LINE
  5
110
330
10E
100
AcDbEntity
  8
PRO0
  6
Continuous
 62
     3
100
AcDbLine
 10
111.526699
 20
430.815508
 30
0.0
 11
80.47657499999999
 21
430.815508
 31
0.0
  0
LINE
  5
111
330
10E
100
AcDbEntity
  8
PRO0
  6
Continuous
 62
     3
100
AcDbLine
 10
83.476575
 20
440.815508
 30
0.0
 11
84.22657499999999
 21
437.8155079999999
 31
0.0
  0
LINE
  5
112
330
10E
100
AcDbEntity
  8
PRO0
  6
Continuous
 62
     3
100
AcDbLine
 10
83.476575
 20
440.815508
 30
0.0
 11
82.72657499999999
 21
437.8155079999999
 31
0.0
  0
LINE
  5
113
330
10E
100
AcDbEntity
  8
PRO0
  6
Continuous
 62
     3
100
AcDbLine
 10
83.476575
 20
430.815508
 30
0.0
 11
82.72657499999999
 21
433.8155079999999
 31
0.0
  0
LINE
  5
114
330
10E
100
AcDbEntity
  8
PRO0
  6
Continuous
 62
     3
100
AcDbLine
 10
83.476575
 20
430.815508
 30
0.0
 11
84.22657499999999
 21
433.8155079999999
 31
0.0
  0
TEXT
  5
115
330
10E
100
AcDbEntity
  8
PRO0
  6
Continuous
 62
     3
100
AcDbText
 10
81.97657626280197
 20
430.796358
 30
0.0
 40
6.0
  1
１０
 50
90.00000300000001
 41
0.73811
 72
     1
 11
81.97657599999999
 21
435.8155059999999
 31
0.0
100
AcDbText
  0
ENDBLK
  5
116
330
10E
100
AcDbEntity
  8
0
100
AcDbBlockEnd
  0
BLOCK
  5
118
330
119
100
AcDbEntity
  8
0
100
AcDbBlockBegin
  2
*D12
 70
     1
 10
0.0
 20
0.0
 30
0.0
  3
*D12
  1

  0
LINE
  5
11A
330
119
100
AcDbEntity
  8
PRO0
  6
Continuous
 62
     3
100
AcDbLine
 10
83.476575
 20
430.815508
 30
0.0
 11
83.476575
 21
421.115508
 31
0.0
  0
LINE
  5
11B
330
119
100
AcDbEntity
  8
PRO0
  6
Continuous
 62
     3
100
AcDbLine
 10
83.476575
 20
430.815508
 30
0.0
 11
84.22657499999999
 21
427.815508
 31
0.0
  0
LINE
  5
11C
330
119
100
AcDbEntity
  8
PRO0
  6
Continuous
 62
     3
100
AcDbLine
 10
83.476575
 20
430.815508
 30
0.0
 11
82.72657499999999
 21
427.815508
 31
0.0
  0
LINE
  5
11D
330
119
100
AcDbEntity
  8
PRO0
  6
Continuous
 62
     3
100
AcDbLine
 10
83.476575
 20
421.115508
 30
0.0
 11
82.72657499999999
 21
424.115508
 31
0.0
  0
LINE
  5
11E
330
119
100
AcDbEntity
  8
PRO0
  6
Continuous
 62
     3
100
AcDbLine
 10
83.476575
 20
421.115508
 30
0.0
 11
84.22657499999999
 21
424.115508
 31
0.0
  0
TEXT
  5
11F
330
119
100
AcDbEntity
  8
PRO0
  6
Continuous
 62
     3
100
AcDbText
 10
81.97657638647347
 20
418.58443
 30
0.0
 40
6.0
  1
９．７
 50
90.00000300000001
 41
0.73811
 72
     1
 11
81.97657599999999
 21
425.96553
 31
0.0
100
AcDbText
  0
ENDBLK
  5
120
330
119
100
AcDbEntity
  8
0
100
AcDbBlockEnd
  0
BLOCK
  5
1C4
330
1C5
100
AcDbEntity
  8
0
100
AcDbBlockBegin
  2
*D13
 70
     1
 10
0.0
 20
0.0
 30
0.0
  3
*D13
  1

  0
LINE
  5
1C6
330
1C5
100
AcDbEntity
  8
PRO0
  6
Continuous
 62
     3
100
AcDbLine
 10
143.28233
 20
304.251454
 30
0.0
 11
143.28233
 21
303.251954
 31
0.0
  0
LINE
  5
1C7
330
1C5
100
AcDbEntity
  8
PRO0
  6
Continuous
 62
     3
100
AcDbLine
 10
143.28233
 20
304.251454
 30
0.0
 11
142.53233
 21
307.251454
 31
0.0
  0
LINE
  5
1C8
330
1C5
100
AcDbEntity
  8
PRO0
  6
Continuous
 62
     3
100
AcDbLine
 10
143.28233
 20
304.251454
 30
0.0
 11
144.03233
 21
307.251454
 31
0.0
  0
LINE
  5
1C9
330
1C5
100
AcDbEntity
  8
PRO0
  6
Continuous
 62
     3
100
AcDbLine
 10
143.28233
 20
304.251454
 30
0.0
 11
143.28233
 21
313.251454
 31
0.0
  0
LINE
  5
1CA
330
1C5
100
AcDbEntity
  8
PRO0
  6
Continuous
 62
     3
100
AcDbLine
 10
143.28233
 20
303.251954
 30
0.0
 11
144.03233
 21
300.251954
 31
0.0
  0
LINE
  5
1CB
330
1C5
100
AcDbEntity
  8
PRO0
  6
Continuous
 62
     3
100
AcDbLine
 10
143.28233
 20
303.251954
 30
0.0
 11
142.53233
 21
300.251954
 31
0.0
  0
LINE
  5
1CC
330
1C5
100
AcDbEntity
  8
PRO0
  6
Continuous
 62
     3
100
AcDbLine
 10
143.28233
 20
303.251954
 30
0.0
 11
143.28233
 21
294.251954
 31
0.0
  0
TEXT
  5
1CD
330
1C5
100
AcDbEntity
  8
PRO0
  6
Continuous
 62
     3
100
AcDbText
 10
141.7823304019324
 20
292.577097
 30
0.0
 40
6.0
  1
φ１
 50
90.00000300000001
 41
0.73811
 72
     2
 11
141.78233
 21
300.2534409999999
 31
0.0
100
AcDbText
  0
LINE
  5
1CE
330
1C5
100
AcDbEntity
  8
PRO0
  6
Continuous
 62
     3
100
AcDbLine
 10
143.28233
 20
303.251954
 30
0.0
 11
143.28233
 21
289.5344069999999
 31
0.0
  0
ENDBLK
  5
1CF
330
1C5
100
AcDbEntity
  8
0
100
AcDbBlockEnd
  0
BLOCK
  5
1E3
330
1E4
100
AcDbEntity
  8
0
100
AcDbBlockBegin
  2
*D14
 70
     1
 10
0.0
 20
0.0
 30
0.0
  3
*D14
  1

  0
LINE
  5
1E5
330
1E4
100
AcDbEntity
  8
PRO0
  6
Continuous
 62
     3
100
AcDbLine
 10
75.57982599999999
 20
272.314389
 30
0.0
 11
325.4548259999999
 21
272.314389
 31
0.0
  0
LINE
  5
1E6
330
1E4
100
AcDbEntity
  8
PRO0
  6
Continuous
 62
     3
100
AcDbLine
 10
75.57982599999999
 20
302.252454
 30
0.0
 11
75.57982599999999
 21
269.3143889999999
 31
0.0
  0
LINE
  5
1E7
330
1E4
100
AcDbEntity
  8
PRO0
  6
Continuous
 62
     3
100
AcDbLine
 10
325.4548259999999
 20
302.252454
 30
0.0
 11
325.4548259999999
 21
269.3143889999999
 31
0.0
  0
LINE
  5
1E8
330
1E4
100
AcDbEntity
  8
PRO0
  6
Continuous
 62
     3
100
AcDbLine
 10
75.57982599999999
 20
272.314389
 30
0.0
 11
78.57982599999999
 21
273.064389
 31
0.0
  0
LINE
  5
1E9
330
1E4
100
AcDbEntity
  8
PRO0
  6
Continuous
 62
     3
100
AcDbLine
 10
75.57982599999999
 20
272.314389
 30
0.0
 11
78.57982599999999
 21
271.5643889999999
 31
0.0
  0
LINE
  5
1EA
330
1E4
100
AcDbEntity
  8
PRO0
  6
Continuous
 62
     3
100
AcDbLine
 10
325.4548259999999
 20
272.314389
 30
0.0
 11
322.4548259999999
 21
271.5643889999999
 31
0.0
  0
LINE
  5
1EB
330
1E4
100
AcDbEntity
  8
PRO0
  6
Continuous
 62
     3
100
AcDbLine
 10
325.4548259999999
 20
272.314389
 30
0.0
 11
322.4548259999999
 21
273.064389
 31
0.0
  0
TEXT
  5
1EC
330
1E4
100
AcDbEntity
  8
PRO0
  6
Continuous
 62
     3
100
AcDbText
 10
190.183794
 20
273.814362
 30
0.0
 40
6.0
  1
１０００
 41
0.73811
 72
     1
 11
200.517334
 21
273.814362
 31
0.0
100
AcDbText
  0
ENDBLK
  5
1ED
330
1E4
100
AcDbEntity
  8
0
100
AcDbBlockEnd
  0
BLOCK
  5
213
330
214
100
AcDbEntity
  8
0
100
AcDbBlockBegin
  2
*D15
 70
     1
 10
0.0
 20
0.0
 30
0.0
  3
*D15
  1

  0
LINE
  5
215
330
214
100
AcDbEntity
  8
PRO0
  6
Continuous
 62
     3
100
AcDbLine
 10
560.0349079999999
 20
304.251454
 30
0.0
 11
560.0349079999999
 21
303.251954
 31
0.0
  0
LINE
  5
216
330
214
100
AcDbEntity
  8
PRO0
  6
Continuous
 62
     3
100
AcDbLine
 10
560.0349079999999
 20
304.251454
 30
0.0
 11
559.2849079999999
 21
307.251454
 31
0.0
  0
LINE
  5
217
330
214
100
AcDbEntity
  8
PRO0
  6
Continuous
 62
     3
100
AcDbLine
 10
560.0349079999999
 20
304.251454
 30
0.0
 11
560.784908
 21
307.251454
 31
0.0
  0
LINE
  5
218
330
214
100
AcDbEntity
  8
PRO0
  6
Continuous
 62
     3
100
AcDbLine
 10
560.0349079999999
 20
304.251454
 30
0.0
 11
560.0349079999999
 21
313.251454
 31
0.0
  0
LINE
  5
219
330
214
100
AcDbEntity
  8
PRO0
  6
Continuous
 62
     3
100
AcDbLine
 10
560.0349079999999
 20
303.251954
 30
0.0
 11
560.784908
 21
300.251954
 31
0.0
  0
LINE
  5
21A
330
214
100
AcDbEntity
  8
PRO0
  6
Continuous
 62
     3
100
AcDbLine
 10
560.0349079999999
 20
303.251954
 30
0.0
 11
559.2849079999999
 21
300.251954
 31
0.0
  0
LINE
  5
21B
330
214
100
AcDbEntity
  8
PRO0
  6
Continuous
 62
     3
100
AcDbLine
 10
560.0349079999999
 20
303.251954
 30
0.0
 11
560.0349079999999
 21
294.251954
 31
0.0
  0
TEXT
  5
21C
330
214
100
AcDbEntity
  8
PRO0
  6
Continuous
 62
     3
100
AcDbText
 10
558.5348974019324
 20
292.577097
 30
0.0
 40
6.0
  1
φ１
 50
90.00000300000001
 41
0.73811
 72
     2
 11
558.534897
 21
300.2534409999999
 31
0.0
100
AcDbText
  0
LINE
  5
21D
330
214
100
AcDbEntity
  8
PRO0
  6
Continuous
 62
     3
100
AcDbLine
 10
560.0349079999999
 20
303.251954
 30
0.0
 11
560.0349079999999
 21
289.5344069999999
 31
0.0
  0
ENDBLK
  5
21E
330
214
100
AcDbEntity
  8
0
100
AcDbBlockEnd
  0
BLOCK
  5
232
330
233
100
AcDbEntity
  8
0
100
AcDbBlockBegin
  2
*D16
 70
     1
 10
0.0
 20
0.0
 30
0.0
  3
*D16
  1

  0
LINE
  5
234
330
233
100
AcDbEntity
  8
PRO0
  6
Continuous
 62
     3
100
AcDbLine
 10
492.3324029999999
 20
272.314389
 30
0.0
 11
742.207403
 21
272.314389
 31
0.0
  0
LINE
  5
235
330
233
100
AcDbEntity
  8
PRO0
  6
Continuous
 62
     3
100
AcDbLine
 10
492.3324029999999
 20
302.252454
 30
0.0
 11
492.3324029999999
 21
269.3143889999999
 31
0.0
  0
LINE
  5
236
330
233
100
AcDbEntity
  8
PRO0
  6
Continuous
 62
     3
100
AcDbLine
 10
742.207403
 20
302.252454
 30
0.0
 11
742.207403
 21
269.3143889999999
 31
0.0
  0
LINE
  5
237
330
233
100
AcDbEntity
  8
PRO0
  6
Continuous
 62
     3
100
AcDbLine
 10
492.3324029999999
 20
272.314389
 30
0.0
 11
495.332403
 21
273.064389
 31
0.0
  0
LINE
  5
238
330
233
100
AcDbEntity
  8
PRO0
  6
Continuous
 62
     3
100
AcDbLine
 10
492.3324029999999
 20
272.314389
 30
0.0
 11
495.332403
 21
271.5643889999999
 31
0.0
  0
LINE
  5
239
330
233
100
AcDbEntity
  8
PRO0
  6
Continuous
 62
     3
100
AcDbLine
 10
742.207403
 20
272.314389
 30
0.0
 11
739.2074029999999
 21
271.5643889999999
 31
0.0
  0
LINE
  5
23A
330
233
100
AcDbEntity
  8
PRO0
  6
Continuous
 62
     3
100
AcDbLine
 10
742.207403
 20
272.314389
 30
0.0
 11
739.2074029999999
 21
273.064389
 31
0.0
  0
TEXT
  5
23B
330
233
100
AcDbEntity
  8
PRO0
  6
Continuous
 62
     3
100
AcDbText
 10
606.936327
 20
273.814362
 30
0.0
 40
6.0
  1
１０００
 41
0.73811
 72
     1
 11
617.2698669999999
 21
273.814362
 31
0.0
100
AcDbText
  0
ENDBLK
  5
23C
330
233
100
AcDbEntity
  8
0
100
AcDbBlockEnd
  0
BLOCK
  5
294
330
295
100
AcDbEntity
  8
0
100
AcDbBlockBegin
  2
*D17
 70
     1
 10
0.0
 20
0.0
 30
0.0
  3
*D17
  1

  0
LINE
  5
296
330
295
100
AcDbEntity
  8
PRO0
  6
Continuous
 62
     3
100
AcDbLine
 10
127.3266989999999
 20
472.359783
 30
0.0
 11
111.3266979999999
 21
472.359783
 31
0.0
  0
LINE
  5
297
330
295
100
AcDbEntity
  8
PRO0
  6
Continuous
 62
     3
100
AcDbLine
 10
127.3266989999999
 20
450.6093749999999
 30
0.0
 11
127.3266989999999
 21
475.359783
 31
0.0
  0
LINE
  5
298
330
295
100
AcDbEntity
  8
PRO0
  6
Continuous
 62
     3
100
AcDbLine
 10
111.3266979999999
 20
453.145266
 30
0.0
 11
111.3266979999999
 21
475.359783
 31
0.0
  0
LINE
  5
299
330
295
100
AcDbEntity
  8
PRO0
  6
Continuous
 62
     3
100
AcDbLine
 10
127.3266989999999
 20
472.359783
 30
0.0
 11
124.326699
 21
471.6097829999999
 31
0.0
  0
LINE
  5
29A
330
295
100
AcDbEntity
  8
PRO0
  6
Continuous
 62
     3
100
AcDbLine
 10
127.3266989999999
 20
472.359783
 30
0.0
 11
124.326699
 21
473.109783
 31
0.0
  0
LINE
  5
29B
330
295
100
AcDbEntity
  8
PRO0
  6
Continuous
 62
     3
100
AcDbLine
 10
111.3266979999999
 20
472.359783
 30
0.0
 11
114.3266979999999
 21
473.109783
 31
0.0
  0
LINE
  5
29C
330
295
100
AcDbEntity
  8
PRO0
  6
Continuous
 62
     3
100
AcDbLine
 10
111.3266979999999
 20
472.359783
 30
0.0
 11
114.3266979999999
 21
471.6097829999999
 31
0.0
  0
TEXT
  5
29D
330
295
100
AcDbEntity
  8
PRO0
  6
Continuous
 62
     3
100
AcDbText
 10
114.1599279999999
 20
473.8597869999999
 30
0.0
 40
6.0
  1
１６
 41
0.73811
 72
     1
 11
119.3266979999999
 21
473.8597869999999
 31
0.0
100
AcDbText
  0
ENDBLK
  5
29E
330
295
100
AcDbEntity
  8
0
100
AcDbBlockEnd
  0
BLOCK
  5
2A0
330
2A1
100
AcDbEntity
  8
0
100
AcDbBlockBegin
  2
*D18
 70
     1
 10
0.0
 20
0.0
 30
0.0
  3
*D18
  1

  0
LINE
  5
2A2
330
2A1
100
AcDbEntity
  8
PRO0
  6
Continuous
 62
     3
100
AcDbLine
 10
325.326699
 20
472.359783
 30
0.0
 11
341.3267
 21
472.359783
 31
0.0
  0
LINE
  5
2A3
330
2A1
100
AcDbEntity
  8
PRO0
  6
Continuous
 62
     3
100
AcDbLine
 10
325.326699
 20
450.6093749999999
 30
0.0
 11
325.326699
 21
475.359783
 31
0.0
  0
LINE
  5
2A4
330
2A1
100
AcDbEntity
  8
PRO0
  6
Continuous
 62
     3
100
AcDbLine
 10
341.3267
 20
453.145266
 30
0.0
 11
341.3267
 21
475.359783
 31
0.0
  0
LINE
  5
2A5
330
2A1
100
AcDbEntity
  8
PRO0
  6
Continuous
 62
     3
100
AcDbLine
 10
325.326699
 20
472.359783
 30
0.0
 11
328.326699
 21
473.109783
 31
0.0
  0
LINE
  5
2A6
330
2A1
100
AcDbEntity
  8
PRO0
  6
Continuous
 62
     3
100
AcDbLine
 10
325.326699
 20
472.359783
 30
0.0
 11
328.326699
 21
471.6097829999999
 31
0.0
  0
LINE
  5
2A7
330
2A1
100
AcDbEntity
  8
PRO0
  6
Continuous
 62
     3
100
AcDbLine
 10
341.3267
 20
472.359783
 30
0.0
 11
338.3267
 21
471.6097829999999
 31
0.0
  0
LINE
  5
2A8
330
2A1
100
AcDbEntity
  8
PRO0
  6
Continuous
 62
     3
100
AcDbLine
 10
341.3267
 20
472.359783
 30
0.0
 11
338.3267
 21
473.109783
 31
0.0
  0
TEXT
  5
2A9
330
2A1
100
AcDbEntity
  8
PRO0
  6
Continuous
 62
     3
100
AcDbText
 10
328.159959
 20
473.8597869999999
 30
0.0
 40
6.0
  1
１６
 41
0.73811
 72
     1
 11
333.326729
 21
473.8597869999999
 31
0.0
100
AcDbText
  0
ENDBLK
  5
2AA
330
2A1
100
AcDbEntity
  8
0
100
AcDbBlockEnd
  0
BLOCK
  5
2AC
330
2AD
100
AcDbEntity
  8
0
100
AcDbBlockBegin
  2
*D19
 70
     1
 10
0.0
 20
0.0
 30
0.0
  3
*D19
  1

  0
LINE
  5
2AE
330
2AD
100
AcDbEntity
  8
PRO0
  6
Continuous
 62
     3
100
AcDbLine
 10
111.3266979999999
 20
500.5098299999999
 30
0.0
 11
341.3267
 21
500.5098299999999
 31
0.0
  0
LINE
  5
2AF
330
2AD
100
AcDbEntity
  8
PRO0
  6
Continuous
 62
     3
100
AcDbLine
 10
111.3266979999999
 20
440.115508
 30
0.0
 11
111.3266979999999
 21
503.5098299999999
 31
0.0
  0
LINE
  5
2B0
330
2AD
100
AcDbEntity
  8
PRO0
  6
Continuous
 62
     3
100
AcDbLine
 10
341.3267
 20
440.115508
 30
0.0
 11
341.3267
 21
503.5098299999999
 31
0.0
  0
LINE
  5
2B1
330
2AD
100
AcDbEntity
  8
PRO0
  6
Continuous
 62
     3
100
AcDbLine
 10
111.3266979999999
 20
500.5098299999999
 30
0.0
 11
114.3266979999999
 21
501.2598299999999
 31
0.0
  0
LINE
  5
2B2
330
2AD
100
AcDbEntity
  8
PRO0
  6
Continuous
 62
     3
100
AcDbLine
 10
111.3266979999999
 20
500.5098299999999
 30
0.0
 11
114.3266979999999
 21
499.7598299999999
 31
0.0
  0
LINE
  5
2B3
330
2AD
100
AcDbEntity
  8
PRO0
  6
Continuous
 62
     3
100
AcDbLine
 10
341.3267
 20
500.5098299999999
 30
0.0
 11
338.3267
 21
499.7598299999999
 31
0.0
  0
LINE
  5
2B4
330
2AD
100
AcDbEntity
  8
PRO0
  6
Continuous
 62
     3
100
AcDbLine
 10
341.3267
 20
500.5098299999999
 30
0.0
 11
338.3267
 21
501.2598299999999
 31
0.0
  0
TEXT
  5
2B5
330
2AD
100
AcDbEntity
  8
PRO0
  6
Continuous
 62
     3
100
AcDbText
 10
219.093258
 20
502.009781
 30
0.0
 40
6.0
  1
２３０
 41
0.73811
 72
     1
 11
226.3267359999999
 21
502.009781
 31
0.0
100
AcDbText
  0
ENDBLK
  5
2B6
330
2AD
100
AcDbEntity
  8
0
100
AcDbBlockEnd
  0
BLOCK
  5
2B8
330
2B9
100
AcDbEntity
  8
0
100
AcDbBlockBegin
  2
*D20
 70
     1
 10
0.0
 20
0.0
 30
0.0
  3
*D20
  1

  0
LINE
  5
2BA
330
2B9
100
AcDbEntity
  8
PRO0
  6
Continuous
 62
     3
100
AcDbLine
 10
166.3266989999999
 20
472.359783
 30
0.0
 11
286.32656
 21
472.359783
 31
0.0
  0
LINE
  5
2BB
330
2B9
100
AcDbEntity
  8
PRO0
  6
Continuous
 62
     3
100
AcDbLine
 10
166.3266989999999
 20
435.3155089999999
 30
0.0
 11
166.3266989999999
 21
475.359783
 31
0.0
  0
LINE
  5
2BC
330
2B9
100
AcDbEntity
  8
PRO0
  6
Continuous
 62
     3
100
AcDbLine
 10
286.32656
 20
435.3155089999999
 30
0.0
 11
286.32656
 21
475.359783
 31
0.0
  0
LINE
  5
2BD
330
2B9
100
AcDbEntity
  8
PRO0
  6
Continuous
 62
     3
100
AcDbLine
 10
166.3266989999999
 20
472.359783
 30
0.0
 11
169.3266989999999
 21
473.109783
 31
0.0
  0
LINE
  5
2BE
330
2B9
100
AcDbEntity
  8
PRO0
  6
Continuous
 62
     3
100
AcDbLine
 10
166.3266989999999
 20
472.359783
 30
0.0
 11
169.3266989999999
 21
471.6097829999999
 31
0.0
  0
LINE
  5
2BF
330
2B9
100
AcDbEntity
  8
PRO0
  6
Continuous
 62
     3
100
AcDbLine
 10
286.32656
 20
472.359783
 30
0.0
 11
283.32656
 21
471.6097829999999
 31
0.0
  0
LINE
  5
2C0
330
2B9
100
AcDbEntity
  8
PRO0
  6
Continuous
 62
     3
100
AcDbLine
 10
286.32656
 20
472.359783
 30
0.0
 11
283.32656
 21
473.109783
 31
0.0
  0
TEXT
  5
2C1
330
2B9
100
AcDbEntity
  8
PRO0
  6
Continuous
 62
     3
100
AcDbText
 10
218.6503239999999
 20
473.8597869999999
 30
0.0
 40
6.0
  1
１２０
 41
0.73811
 72
     1
 11
226.326668
 21
473.8597869999999
 31
0.0
100
AcDbText
  0
ENDBLK
  5
2C2
330
2B9
100
AcDbEntity
  8
0
100
AcDbBlockEnd
  0
BLOCK
  5
2C4
330
2C5
100
AcDbEntity
  8
0
100
AcDbBlockBegin
  2
*D21
 70
     1
 10
0.0
 20
0.0
 30
0.0
  3
*D21
  1

  0
LINE
  5
2C6
330
2C5
100
AcDbEntity
  8
PRO0
  6
Continuous
 62
     3
100
AcDbLine
 10
70.656063
 20
440.815508
 30
0.0
 11
70.656063
 21
421.115508
 31
0.0
  0
LINE
  5
2C7
330
2C5
100
AcDbEntity
  8
PRO0
  6
Continuous
 62
     3
100
AcDbLine
 10
112.0266989999999
 20
440.815508
 30
0.0
 11
67.656063
 21
440.815508
 31
0.0
  0
LINE
  5
2C8
330
2C5
100
AcDbEntity
  8
PRO0
  6
Continuous
 62
     3
100
AcDbLine
 10
95.326699
 20
421.115508
 30
0.0
 11
67.656063
 21
421.115508
 31
0.0
  0
LINE
  5
2C9
330
2C5
100
AcDbEntity
  8
PRO0
  6
Continuous
 62
     3
100
AcDbLine
 10
70.656063
 20
440.815508
 30
0.0
 11
71.406063
 21
437.8155079999999
 31
0.0
  0
LINE
  5
2CA
330
2C5
100
AcDbEntity
  8
PRO0
  6
Continuous
 62
     3
100
AcDbLine
 10
70.656063
 20
440.815508
 30
0.0
 11
69.906063
 21
437.8155079999999
 31
0.0
  0
LINE
  5
2CB
330
2C5
100
AcDbEntity
  8
PRO0
  6
Continuous
 62
     3
100
AcDbLine
 10
70.656063
 20
421.115508
 30
0.0
 11
69.906063
 21
424.115508
 31
0.0
  0
LINE
  5
2CC
330
2C5
100
AcDbEntity
  8
PRO0
  6
Continuous
 62
     3
100
AcDbLine
 10
70.656063
 20
421.115508
 30
0.0
 11
71.406063
 21
424.115508
 31
0.0
  0
TEXT
  5
2CD
330
2C5
100
AcDbEntity
  8
PRO0
  6
Continuous
 62
     3
100
AcDbText
 10
69.15604054879236
 20
420.484338
 30
0.0
 40
6.0
  1
１９．７
 50
90.00000300000001
 41
0.73811
 72
     1
 11
69.15604
 21
430.9655
 31
0.0
100
AcDbText
  0
ENDBLK
  5
2CE
330
2C5
100
AcDbEntity
  8
0
100
AcDbBlockEnd
  0
BLOCK
  5
2D0
330
2D1
100
AcDbEntity
  8
0
100
AcDbBlockBegin
  2
*D22
 70
     1
 10
0.0
 20
0.0
 30
0.0
  3
*D22
  1

  0
LINE
  5
2D2
330
2D1
100
AcDbEntity
  8
PRO0
  6
Continuous
 62
     3
100
AcDbLine
 10
146.3266989999999
 20
352.8275069999999
 30
0.0
 11
176.3266989999999
 21
352.8275069999999
 31
0.0
  0
LINE
  5
2D3
330
2D1
100
AcDbEntity
  8
PRO0
  6
Continuous
 62
     3
100
AcDbLine
 10
146.3266989999999
 20
375.603925
 30
0.0
 11
146.3266989999999
 21
350.8275069999999
 31
0.0
  0
LINE
  5
2D4
330
2D1
100
AcDbEntity
  8
PRO0
  6
Continuous
 62
     3
100
AcDbLine
 10
176.3266989999999
 20
360.115508
 30
0.0
 11
176.3266989999999
 21
350.8275069999999
 31
0.0
  0
LINE
  5
2D5
330
2D1
100
AcDbEntity
  8
PRO0
  6
Continuous
 62
     3
100
AcDbLine
 10
146.3266989999999
 20
352.8275069999999
 30
0.0
 11
149.3266989999999
 21
353.5775069999999
 31
0.0
  0
LINE
  5
2D6
330
2D1
100
AcDbEntity
  8
PRO0
  6
Continuous
 62
     3
100
AcDbLine
 10
146.3266989999999
 20
352.8275069999999
 30
0.0
 11
149.3266989999999
 21
352.0775069999999
 31
0.0
  0
LINE
  5
2D7
330
2D1
100
AcDbEntity
  8
PRO0
  6
Continuous
 62
     3
100
AcDbLine
 10
176.3266989999999
 20
352.8275069999999
 30
0.0
 11
173.3266989999999
 21
352.0775069999999
 31
0.0
  0
LINE
  5
2D8
330
2D1
100
AcDbEntity
  8
PRO0
  6
Continuous
 62
     3
100
AcDbLine
 10
176.3266989999999
 20
352.8275069999999
 30
0.0
 11
173.3266989999999
 21
353.5775069999999
 31
0.0
  0
TEXT
  5
2D9
330
2D1
100
AcDbEntity
  8
PRO0
  6
Continuous
 62
     3
100
AcDbText
 10
156.750451
 20
354.3274839999999
 30
0.0
 40
6.0
  1
３０
 41
0.73811
 72
     1
 11
161.326733
 21
354.3274839999999
 31
0.0
100
AcDbText
  0
ENDBLK
  5
2DA
330
2D1
100
AcDbEntity
  8
0
100
AcDbBlockEnd
  0
BLOCK
  5
2DC
330
2DD
100
AcDbEntity
  8
0
100
AcDbBlockBegin
  2
*D23
 70
     1
 10
0.0
 20
0.0
 30
0.0
  3
*D23
  1

  0
LINE
  5
2DE
330
2DD
100
AcDbEntity
  8
PRO0
  6
Continuous
 62
     3
100
AcDbLine
 10
176.3266989999999
 20
352.8275069999999
 30
0.0
 11
276.326699
 21
352.8275069999999
 31
0.0
  0
LINE
  5
2DF
330
2DD
100
AcDbEntity
  8
PRO0
  6
Continuous
 62
     3
100
AcDbLine
 10
276.326699
 20
360.115508
 30
0.0
 11
276.326699
 21
350.8275069999999
 31
0.0
  0
LINE
  5
2E0
330
2DD
100
AcDbEntity
  8
PRO0
  6
Continuous
 62
     3
100
AcDbLine
 10
176.3266989999999
 20
352.8275069999999
 30
0.0
 11
179.326699
 21
353.5775069999999
 31
0.0
  0
LINE
  5
2E1
330
2DD
100
AcDbEntity
  8
PRO0
  6
Continuous
 62
     3
100
AcDbLine
 10
176.3266989999999
 20
352.8275069999999
 30
0.0
 11
179.326699
 21
352.0775069999999
 31
0.0
  0
LINE
  5
2E2
330
2DD
100
AcDbEntity
  8
PRO0
  6
Continuous
 62
     3
100
AcDbLine
 10
276.326699
 20
352.8275069999999
 30
0.0
 11
273.326699
 21
352.0775069999999
 31
0.0
  0
LINE
  5
2E3
330
2DD
100
AcDbEntity
  8
PRO0
  6
Continuous
 62
     3
100
AcDbLine
 10
276.326699
 20
352.8275069999999
 30
0.0
 11
273.326699
 21
353.5775069999999
 31
0.0
  0
TEXT
  5
2E4
330
2DD
100
AcDbEntity
  8
PRO0
  6
Continuous
 62
     3
100
AcDbText
 10
218.6503919999999
 20
354.3274839999999
 30
0.0
 40
6.0
  1
１００
 41
0.73811
 72
     1
 11
226.3267359999999
 21
354.3274839999999
 31
0.0
100
AcDbText
  0
ENDBLK
  5
2E5
330
2DD
100
AcDbEntity
  8
0
100
AcDbBlockEnd
  0
BLOCK
  5
3CD
330
3CE
100
AcDbEntity
  8
0
100
AcDbBlockBegin
  2
*D24
 70
     1
 10
0.0
 20
0.0
 30
0.0
  3
*D24
  1

  0
LINE
  5
3CF
330
3CE
100
AcDbEntity
  8
PRO0
  6
Continuous
 62
     3
100
AcDbLine
 10
306.326699
 20
352.8275069999999
 30
0.0
 11
276.326699
 21
352.8275069999999
 31
0.0
  0
LINE
  5
3D0
330
3CE
100
AcDbEntity
  8
PRO0
  6
Continuous
 62
     3
100
AcDbLine
 10
306.326699
 20
375.603925
 30
0.0
 11
306.326699
 21
350.8275069999999
 31
0.0
  0
LINE
  5
3D1
330
3CE
100
AcDbEntity
  8
PRO0
  6
Continuous
 62
     3
100
AcDbLine
 10
276.326699
 20
360.115508
 30
0.0
 11
276.326699
 21
350.8275069999999
 31
0.0
  0
LINE
  5
3D2
330
3CE
100
AcDbEntity
  8
PRO0
  6
Continuous
 62
     3
100
AcDbLine
 10
306.326699
 20
352.8275069999999
 30
0.0
 11
303.326699
 21
352.0775069999999
 31
0.0
  0
LINE
  5
3D3
330
3CE
100
AcDbEntity
  8
PRO0
  6
Continuous
 62
     3
100
AcDbLine
 10
306.326699
 20
352.8275069999999
 30
0.0
 11
303.326699
 21
353.5775069999999
 31
0.0
  0
LINE
  5
3D4
330
3CE
100
AcDbEntity
  8
PRO0
  6
Continuous
 62
     3
100
AcDbLine
 10
276.326699
 20
352.8275069999999
 30
0.0
 11
279.326699
 21
353.5775069999999
 31
0.0
  0
LINE
  5
3D5
330
3CE
100
AcDbEntity
  8
PRO0
  6
Continuous
 62
     3
100
AcDbLine
 10
276.326699
 20
352.8275069999999
 30
0.0
 11
279.326699
 21
352.0775069999999
 31
0.0
  0
TEXT
  5
3D6
330
3CE
100
AcDbEntity
  8
PRO0
  6
Continuous
 62
     3
100
AcDbText
 10
286.750447
 20
354.3274839999999
 30
0.0
 40
6.0
  1
３０
 41
0.73811
 72
     1
 11
291.3267289999999
 21
354.3274839999999
 31
0.0
100
AcDbText
  0
ENDBLK
  5
3D7
330
3CE
100
AcDbEntity
  8
0
100
AcDbBlockEnd
  0
BLOCK
  5
4DE
330
4DF
100
AcDbEntity
  8
0
100
AcDbBlockBegin
  2
*D25
 70
     1
 10
0.0
 20
0.0
 30
0.0
  3
*D25
  1

  0
LINE
  5
4E0
330
4DF
100
AcDbEntity
  8
PRO0
  6
Continuous
 62
     3
100
AcDbLine
 10
510.685284
 20
486.315521
 30
0.0
 11
510.685284
 21
440.815508
 31
0.0
  0
LINE
  5
4E1
330
4DF
100
AcDbEntity
  8
PRO0
  6
Continuous
 62
     3
100
AcDbLine
 10
682.1831409999999
 20
486.315521
 30
0.0
 11
508.6852839999999
 21
486.315521
 31
0.0
  0
LINE
  5
4E2
330
4DF
100
AcDbEntity
  8
PRO0
  6
Continuous
 62
     3
100
AcDbLine
 10
536.8827999999999
 20
440.815508
 30
0.0
 11
508.6852839999999
 21
440.815508
 31
0.0
  0
LINE
  5
4E3
330
4DF
100
AcDbEntity
  8
PRO0
  6
Continuous
 62
     3
100
AcDbLine
 10
510.685284
 20
486.315521
 30
0.0
 11
511.4352839999999
 21
483.315521
 31
0.0
  0
LINE
  5
4E4
330
4DF
100
AcDbEntity
  8
PRO0
  6
Continuous
 62
     3
100
AcDbLine
 10
510.685284
 20
486.315521
 30
0.0
 11
509.9352839999999
 21
483.315521
 31
0.0
  0
LINE
  5
4E5
330
4DF
100
AcDbEntity
  8
PRO0
  6
Continuous
 62
     3
100
AcDbLine
 10
510.685284
 20
440.815508
 30
0.0
 11
509.9352839999999
 21
443.815508
 31
0.0
  0
LINE
  5
4E6
330
4DF
100
AcDbEntity
  8
PRO0
  6
Continuous
 62
     3
100
AcDbLine
 10
510.685284
 20
440.815508
 30
0.0
 11
511.4352839999999
 21
443.815508
 31
0.0
  0
TEXT
  5
4E7
330
4DF
100
AcDbEntity
  8
PRO0
  6
Continuous
 62
     3
100
AcDbText
 10
509.1852725256039
 20
453.5272099999999
 30
0.0
 40
6.0
  1
４５．５
 50
90.00000300000001
 41
0.73811
 72
     1
 11
509.185272
 21
463.5655059999999
 31
0.0
100
AcDbText
  0
ENDBLK
  5
4E8
330
4DF
100
AcDbEntity
  8
0
100
AcDbBlockEnd
  0
BLOCK
  5
4EA
330
4EB
100
AcDbEntity
  8
0
100
AcDbBlockBegin
  2
*D26
 70
     1
 10
0.0
 20
0.0
 30
0.0
  3
*D26
  1

  0
LINE
  5
4EC
330
4EB
100
AcDbEntity
  8
PRO0
  6
Continuous
 62
     3
100
AcDbLine
 10
510.685284
 20
440.815508
 30
0.0
 11
510.685284
 21
421.115508
 31
0.0
  0
LINE
  5
4ED
330
4EB
100
AcDbEntity
  8
PRO0
  6
Continuous
 62
     3
100
AcDbLine
 10
520.1828
 20
421.115508
 30
0.0
 11
508.6852839999999
 21
421.115508
 31
0.0
  0
LINE
  5
4EE
330
4EB
100
AcDbEntity
  8
PRO0
  6
Continuous
 62
     3
100
AcDbLine
 10
510.685284
 20
440.815508
 30
0.0
 11
511.4352839999999
 21
437.8155079999999
 31
0.0
  0
LINE
  5
4EF
330
4EB
100
AcDbEntity
  8
PRO0
  6
Continuous
 62
     3
100
AcDbLine
 10
510.685284
 20
440.815508
 30
0.0
 11
509.9352839999999
 21
437.8155079999999
 31
0.0
  0
LINE
  5
4F0
330
4EB
100
AcDbEntity
  8
PRO0
  6
Continuous
 62
     3
100
AcDbLine
 10
510.685284
 20
421.115508
 30
0.0
 11
509.9352839999999
 21
424.115508
 31
0.0
  0
LINE
  5
4F1
330
4EB
100
AcDbEntity
  8
PRO0
  6
Continuous
 62
     3
100
AcDbLine
 10
510.685284
 20
421.115508
 30
0.0
 11
511.4352839999999
 21
424.115508
 31
0.0
  0
TEXT
  5
4F2
330
4EB
100
AcDbEntity
  8
PRO0
  6
Continuous
 62
     3
100
AcDbText
 10
509.1852725487923
 20
420.484338
 30
0.0
 40
6.0
  1
１９．７
 50
90.00000300000001
 41
0.73811
 72
     1
 11
509.185272
 21
430.9655
 31
0.0
100
AcDbText
  0
ENDBLK
  5
4F3
330
4EB
100
AcDbEntity
  8
0
100
AcDbBlockEnd
  0
BLOCK
  5
4F5
330
4F6
100
AcDbEntity
  8
0
100
AcDbBlockBegin
  2
*D27
 70
     1
 10
0.0
 20
0.0
 30
0.0
  3
*D27
  1

  0
LINE
  5
4F7
330
4F6
100
AcDbEntity
  8
PRO0
  6
Continuous
 62
     3
100
AcDbLine
 10
552.1828
 20
459.440861
 30
0.0
 11
536.1828
 21
459.440861
 31
0.0
  0
LINE
  5
4F8
330
4F6
100
AcDbEntity
  8
PRO0
  6
Continuous
 62
     3
100
AcDbLine
 10
552.1828
 20
450.6093749999999
 30
0.0
 11
552.1828
 21
461.440861
 31
0.0
  0
LINE
  5
4F9
330
4F6
100
AcDbEntity
  8
PRO0
  6
Continuous
 62
     3
100
AcDbLine
 10
552.1828
 20
459.440861
 30
0.0
 11
549.1828
 21
458.690861
 31
0.0
  0
LINE
  5
4FA
330
4F6
100
AcDbEntity
  8
PRO0
  6
Continuous
 62
     3
100
AcDbLine
 10
552.1828
 20
459.440861
 30
0.0
 11
549.1828
 21
460.190861
 31
0.0
  0
LINE
  5
4FB
330
4F6
100
AcDbEntity
  8
PRO0
  6
Continuous
 62
     3
100
AcDbLine
 10
536.1828
 20
459.440861
 30
0.0
 11
539.1828
 21
460.190861
 31
0.0
  0
LINE
  5
4FC
330
4F6
100
AcDbEntity
  8
PRO0
  6
Continuous
 62
     3
100
AcDbLine
 10
536.1828
 20
459.440861
 30
0.0
 11
539.1828
 21
458.690861
 31
0.0
  0
TEXT
  5
4FD
330
4F6
100
AcDbEntity
  8
PRO0
  6
Continuous
 62
     3
100
AcDbText
 10
539.0159999999999
 20
460.9408259999999
 30
0.0
 40
6.0
  1
１６
 41
0.73811
 72
     1
 11
544.18277
 21
460.9408259999999
 31
0.0
100
AcDbText
  0
ENDBLK
  5
4FE
330
4F6
100
AcDbEntity
  8
0
100
AcDbBlockEnd
  0
BLOCK
  5
500
330
501
100
AcDbEntity
  8
0
100
AcDbBlockBegin
  2
*D28
 70
     1
 10
0.0
 20
0.0
 30
0.0
  3
*D28
  1

  0
LINE
  5
502
330
501
100
AcDbEntity
  8
PRO0
  6
Continuous
 62
     3
100
AcDbLine
 10
662.862359
 20
486.315521
 30
0.0
 11
662.862359
 21
470.315138
 31
0.0
  0
LINE
  5
503
330
501
100
AcDbEntity
  8
PRO0
  6
Continuous
 62
     3
100
AcDbLine
 10
671.989274
 20
470.315138
 30
0.0
 11
660.8623589999999
 21
470.315138
 31
0.0
  0
LINE
  5
504
330
501
100
AcDbEntity
  8
PRO0
  6
Continuous
 62
     3
100
AcDbLine
 10
662.862359
 20
486.315521
 30
0.0
 11
663.6123589999999
 21
483.315521
 31
0.0
  0
LINE
  5
505
330
501
100
AcDbEntity
  8
PRO0
  6
Continuous
 62
     3
100
AcDbLine
 10
662.862359
 20
486.315521
 30
0.0
 11
662.1123589999999
 21
483.315521
 31
0.0
  0
LINE
  5
506
330
501
100
AcDbEntity
  8
PRO0
  6
Continuous
 62
     3
100
AcDbLine
 10
662.862359
 20
470.315138
 30
0.0
 11
662.1123589999999
 21
473.3151379999999
 31
0.0
  0
LINE
  5
507
330
501
100
AcDbEntity
  8
PRO0
  6
Continuous
 62
     3
100
AcDbLine
 10
662.862359
 20
470.315138
 30
0.0
 11
663.6123589999999
 21
473.3151379999999
 31
0.0
  0
TEXT
  5
508
330
501
100
AcDbEntity
  8
PRO0
  6
Continuous
 62
     3
100
AcDbText
 10
661.3624422705314
 20
473.148568
 30
0.0
 40
6.0
  1
１６
 50
90.00000300000001
 41
0.73811
 72
     1
 11
661.3624419999999
 21
478.3153379999999
 31
0.0
100
AcDbText
  0
ENDBLK
  5
509
330
501
100
AcDbEntity
  8
0
100
AcDbBlockEnd
  0
BLOCK
  5
50F
330
510
100
AcDbEntity
  8
0
100
AcDbBlockBegin
  2
*D29
 70
     1
 10
0.0
 20
0.0
 30
0.0
  3
*D29
  1

  0
LINE
  5
511
330
510
100
AcDbEntity
  8
PRO0
  6
Continuous
 62
     3
100
AcDbLine
 10
756.947925
 20
421.115508
 30
0.0
 11
756.947925
 21
451.115138
 31
0.0
  0
LINE
  5
512
330
510
100
AcDbEntity
  8
PRO0
  6
Continuous
 62
     3
100
AcDbLine
 10
602.1828
 20
421.115508
 30
0.0
 11
758.9479250000001
 21
421.115508
 31
0.0
  0
LINE
  5
513
330
510
100
AcDbEntity
  8
PRO0
  6
Continuous
 62
     3
100
AcDbLine
 10
746.6943829999999
 20
451.115138
 30
0.0
 11
758.9479250000001
 21
451.115138
 31
0.0
  0
LINE
  5
514
330
510
100
AcDbEntity
  8
PRO0
  6
Continuous
 62
     3
100
AcDbLine
 10
756.947925
 20
421.115508
 30
0.0
 11
756.197925
 21
424.115508
 31
0.0
  0
LINE
  5
515
330
510
100
AcDbEntity
  8
PRO0
  6
Continuous
 62
     3
100
AcDbLine
 10
756.947925
 20
421.115508
 30
0.0
 11
757.697925
 21
424.115508
 31
0.0
  0
LINE
  5
516
330
510
100
AcDbEntity
  8
PRO0
  6
Continuous
 62
     3
100
AcDbLine
 10
756.947925
 20
451.115138
 30
0.0
 11
757.697925
 21
448.115138
 31
0.0
  0
LINE
  5
517
330
510
100
AcDbEntity
  8
PRO0
  6
Continuous
 62
     3
100
AcDbLine
 10
756.947925
 20
451.115138
 30
0.0
 11
756.197925
 21
448.115138
 31
0.0
  0
TEXT
  5
518
330
510
100
AcDbEntity
  8
PRO0
  6
Continuous
 62
     3
100
AcDbText
 10
755.4478912396136
 20
431.5390129999999
 30
0.0
 40
6.0
  1
３０
 50
90.00000300000001
 41
0.73811
 72
     1
 11
755.447891
 21
436.115295
 31
0.0
100
AcDbText
  0
ENDBLK
  5
519
330
510
100
AcDbEntity
  8
0
100
AcDbBlockEnd
  0
BLOCK
  5
51B
330
51C
100
AcDbEntity
  8
0
100
AcDbBlockBegin
  2
*D30
 70
     1
 10
0.0
 20
0.0
 30
0.0
  3
*D30
  1

  0
LINE
  5
51D
330
51C
100
AcDbEntity
  8
PRO0
  6
Continuous
 62
     3
100
AcDbLine
 10
571.1828
 20
350.352649
 30
0.0
 11
601.1828
 21
350.352649
 31
0.0
  0
LINE
  5
51E
330
51C
100
AcDbEntity
  8
PRO0
  6
Continuous
 62
     3
100
AcDbLine
 10
571.1828
 20
375.603925
 30
0.0
 11
571.1828
 21
348.352649
 31
0.0
  0
LINE
  5
51F
330
51C
100
AcDbEntity
  8
PRO0
  6
Continuous
 62
     3
100
AcDbLine
 10
601.1828
 20
360.115508
 30
0.0
 11
601.1828
 21
348.352649
 31
0.0
  0
LINE
  5
520
330
51C
100
AcDbEntity
  8
PRO0
  6
Continuous
 62
     3
100
AcDbLine
 10
571.1828
 20
350.352649
 30
0.0
 11
574.1828
 21
351.102649
 31
0.0
  0
LINE
  5
521
330
51C
100
AcDbEntity
  8
PRO0
  6
Continuous
 62
     3
100
AcDbLine
 10
571.1828
 20
350.352649
 30
0.0
 11
574.1828
 21
349.602649
 31
0.0
  0
LINE
  5
522
330
51C
100
AcDbEntity
  8
PRO0
  6
Continuous
 62
     3
100
AcDbLine
 10
601.1828
 20
350.352649
 30
0.0
 11
598.1828
 21
349.602649
 31
0.0
  0
LINE
  5
523
330
51C
100
AcDbEntity
  8
PRO0
  6
Continuous
 62
     3
100
AcDbLine
 10
601.1828
 20
350.352649
 30
0.0
 11
598.1828
 21
351.102649
 31
0.0
  0
TEXT
  5
524
330
51C
100
AcDbEntity
  8
PRO0
  6
Continuous
 62
     3
100
AcDbText
 10
581.606579
 20
351.852631
 30
0.0
 40
6.0
  1
３０
 41
0.73811
 72
     1
 11
586.1828609999999
 21
351.852631
 31
0.0
100
AcDbText
  0
ENDBLK
  5
525
330
51C
100
AcDbEntity
  8
0
100
AcDbBlockEnd
  0
BLOCK
  5
527
330
528
100
AcDbEntity
  8
0
100
AcDbBlockBegin
  2
*D31
 70
     1
 10
0.0
 20
0.0
 30
0.0
  3
*D31
  1

  0
LINE
  5
529
330
528
100
AcDbEntity
  8
PRO0
  6
Continuous
 62
     3
100
AcDbLine
 10
601.1828
 20
350.352649
 30
0.0
 11
701.1828
 21
350.352649
 31
0.0
  0
LINE
  5
52A
330
528
100
AcDbEntity
  8
PRO0
  6
Continuous
 62
     3
100
AcDbLine
 10
701.1828
 20
360.115508
 30
0.0
 11
701.1828
 21
348.352649
 31
0.0
  0
LINE
  5
52B
330
528
100
AcDbEntity
  8
PRO0
  6
Continuous
 62
     3
100
AcDbLine
 10
601.1828
 20
350.352649
 30
0.0
 11
604.1828
 21
351.102649
 31
0.0
  0
LINE
  5
52C
330
528
100
AcDbEntity
  8
PRO0
  6
Continuous
 62
     3
100
AcDbLine
 10
601.1828
 20
350.352649
 30
0.0
 11
604.1828
 21
349.602649
 31
0.0
  0
LINE
  5
52D
330
528
100
AcDbEntity
  8
PRO0
  6
Continuous
 62
     3
100
AcDbLine
 10
701.1828
 20
350.352649
 30
0.0
 11
698.1828
 21
349.602649
 31
0.0
  0
LINE
  5
52E
330
528
100
AcDbEntity
  8
PRO0
  6
Continuous
 62
     3
100
AcDbLine
 10
701.1828
 20
350.352649
 30
0.0
 11
698.1828
 21
351.102649
 31
0.0
  0
TEXT
  5
52F
330
528
100
AcDbEntity
  8
PRO0
  6
Continuous
 62
     3
100
AcDbText
 10
643.5064869999999
 20
351.852631
 30
0.0
 40
6.0
  1
１００
 41
0.73811
 72
     1
 11
651.1828309999999
 21
351.852631
 31
0.0
100
AcDbText
  0
ENDBLK
  5
530
330
528
100
AcDbEntity
  8
0
100
AcDbBlockEnd
  0
BLOCK
  5
6D6
330
6D7
100
AcDbEntity
  8
0
100
AcDbBlockBegin
  2
*D32
 70
     1
 10
0.0
 20
0.0
 30
0.0
  3
*D32
  1

  0
LINE
  5
6D8
330
6D7
100
AcDbEntity
  8
PRO0
  6
Continuous
 62
     3
100
AcDbLine
 10
701.1828
 20
525.5868949999999
 30
0.0
 11
536.1828
 21
525.5868949999999
 31
0.0
  0
LINE
  5
6D9
330
6D7
100
AcDbEntity
  8
PRO0
  6
Continuous
 62
     3
100
AcDbLine
 10
701.1828
 20
498.343812
 30
0.0
 11
701.1828
 21
528.586895
 31
0.0
  0
LINE
  5
6DA
330
6D7
100
AcDbEntity
  8
PRO0
  6
Continuous
 62
     3
100
AcDbLine
 10
536.1828
 20
440.115508
 30
0.0
 11
536.1828
 21
528.586895
 31
0.0
  0
LINE
  5
6DB
330
6D7
100
AcDbEntity
  8
PRO0
  6
Continuous
 62
     3
100
AcDbLine
 10
701.1828
 20
525.5868949999999
 30
0.0
 11
698.1828
 21
524.836895
 31
0.0
  0
LINE
  5
6DC
330
6D7
100
AcDbEntity
  8
PRO0
  6
Continuous
 62
     3
100
AcDbLine
 10
701.1828
 20
525.5868949999999
 30
0.0
 11
698.1828
 21
526.336895
 31
0.0
  0
LINE
  5
6DD
330
6D7
100
AcDbEntity
  8
PRO0
  6
Continuous
 62
     3
100
AcDbLine
 10
536.1828
 20
525.5868949999999
 30
0.0
 11
539.1828
 21
526.336895
 31
0.0
  0
LINE
  5
6DE
330
6D7
100
AcDbEntity
  8
PRO0
  6
Continuous
 62
     3
100
AcDbLine
 10
536.1828
 20
525.5868949999999
 30
0.0
 11
539.1828
 21
524.836895
 31
0.0
  0
TEXT
  5
6DF
330
6D7
100
AcDbEntity
  8
PRO0
  6
Continuous
 62
     3
100
AcDbText
 10
610.8588339999999
 20
527.086899
 30
0.0
 40
6.0
  1
１６５
 41
0.73811
 72
     1
 11
618.6828
 21
527.086899
 31
0.0
100
AcDbText
  0
ENDBLK
  5
6E0
330
6D7
100
AcDbEntity
  8
0
100
AcDbBlockEnd
  0
ENDSEC
  0
SECTION
  2
ENTITIES
  0
LINE
  5
41
330
6F4
100
AcDbEntity
  8
PRO0
  6
Continuous
 62
     3
100
AcDbLine
 10
116.7627729999999
 20
425.644803
 30
0.0
 11
99.29822800000001
 21
395.395323
 31
0.0
  0
LINE
  5
42
330
6F4
100
AcDbEntity
  8
PRO0
  6
Continuous
 62
     3
100
AcDbLine
 10
99.29822800000001
 20
395.395323
 30
0.0
 11
28.49114099999999
 21
395.395323
 31
0.0
  0
CIRCLE
  5
43
330
6F4
100
AcDbEntity
  8
PRO0
  6
Continuous
 62
     3
100
AcDbCircle
 10
116.7627729999999
 20
425.644803
 30
0.0
 40
0.6
  0
TEXT
  5
44
330
6F4
100
AcDbEntity
  8
PRO0
  6
Continuous
 62
     3
100
AcDbText
 10
28.491145
 20
396.8953399999999
 30
0.0
 40
7.5
  1
コーキング処理（別途）
 41
0.73811
100
AcDbText
  0
LINE
  5
45
330
6F4
100
AcDbEntity
  8
PRO0
  6
Continuous
 62
     3
100
AcDbLine
 10
541.0512999999999
 20
426.108717
 30
0.0
 11
522.247511
 21
393.5396
 31
0.0
  0
LINE
  5
46
330
6F4
100
AcDbEntity
  8
PRO0
  6
Continuous
 62
     3
100
AcDbLine
 10
522.247511
 20
393.5396
 30
0.0
 11
451.440425
 21
393.5396
 31
0.0
  0
CIRCLE
  5
47
330
6F4
100
AcDbEntity
  8
PRO0
  6
Continuous
 62
     3
100
AcDbCircle
 10
541.0512999999999
 20
426.108717
 30
0.0
 40
0.6
  0
TEXT
  5
48
330
6F4
100
AcDbEntity
  8
PRO0
  6
Continuous
 62
     3
100
AcDbText
 10
451.4404449999999
 20
395.039612
 30
0.0
 40
7.5
  1
コーキング処理（別途）
 41
0.73811
100
AcDbText
  0
LINE
  5
49
330
6F4
100
AcDbEntity
  8
PRO0
  6
Continuous
 62
     3
100
AcDbLine
 10
697.5290160000001
 20
481.703318
 30
0.0
 11
710.6890049999999
 21
504.497088
 31
0.0
  0
LINE
  5
4A
330
6F4
100
AcDbEntity
  8
PRO0
  6
Continuous
 62
     3
100
AcDbLine
 10
710.6890049999999
 20
504.497088
 30
0.0
 11
781.4960919999999
 21
504.497088
 31
0.0
  0
CIRCLE
  5
4B
330
6F4
100
AcDbEntity
  8
PRO0
  6
Continuous
 62
     3
100
AcDbCircle
 10
697.5290160000001
 20
481.703318
 30
0.0
 40
0.6
  0
TEXT
  5
4C
330
6F4
100
AcDbEntity
  8
PRO0
  6
Continuous
 62
     3
100
AcDbText
 10
710.688995
 20
505.9970859999999
 30
0.0
 40
7.5
  1
コーキング処理（別途）
 41
0.73811
100
AcDbText
  0
DIMENSION
  5
57
330
6F4
100
AcDbEntity
  8
PRO0
  6
Continuous
 62
     3
100
AcDbDimension
  2
*D0
 10
191.3267839999999
 20
486.8067299999999
 30
0.0
 11
151.326736
 21
488.306717
 31
0.0
 70
   128
 71
     5
 42
-1.0
100
AcDbAlignedDimension
 13
111.3266979999999
 23
486.8067299999999
 33
0.0
 14
191.3267839999999
 24
437.615508
 34
0.0
100
AcDbRotatedDimension
  0
DIMENSION
  5
62
330
6F4
100
AcDbEntity
  8
PRO0
  6
Continuous
 62
     3
100
AcDbDimension
  2
*D1
 10
261.3266139999999
 20
486.8067299999999
 30
0.0
 11
226.326691
 21
488.306717
 31
0.0
 70
   128
 71
     5
 42
-1.0
100
AcDbAlignedDimension
 13
191.3267839999999
 23
437.615508
 33
0.0
 14
261.3266139999999
 24
437.615508
 34
0.0
100
AcDbRotatedDimension
  0
DIMENSION
  5
6C
330
6F4
100
AcDbEntity
  8
PRO0
  6
Continuous
 62
     3
100
AcDbDimension
  2
*D2
 10
341.3267
 20
486.8067299999999
 30
0.0
 11
301.326668
 21
488.306717
 31
0.0
 70
   128
 71
     5
 42
-1.0
100
AcDbAlignedDimension
 13
261.3266139999999
 23
437.615508
 33
0.0
 14
341.3267
 24
486.8067299999999
 34
0.0
100
AcDbRotatedDimension
  0
LINE
  5
6D
330
6F4
100
AcDbEntity
  8
PRO0
  6
Continuous
 62
     3
100
AcDbLine
 10
172.113654
 20
440.815508
 30
0.0
 11
178.909564
 21
452.586369
 31
0.0
  0
CIRCLE
  5
6E
330
6F4
100
AcDbEntity
  8
PRO0
  6
Continuous
 62
     3
100
AcDbCircle
 10
181.459564
 20
457.003099
 30
0.0
 40
5.099999999999999
  0
CIRCLE
  5
6F
330
6F4
100
AcDbEntity
  8
PRO0
  6
Continuous
 62
     3
100
AcDbCircle
 10
172.113654
 20
440.815508
 30
0.0
 40
0.6
  0
TEXT
  5
70
330
6F4
100
AcDbEntity
  8
PRO0
  6
Continuous
 62
     3
100
AcDbText
 10
179.5404819999999
 20
454.003098
 30
0.0
 40
6.0
  1
１
 41
0.73811
 72
     1
 11
181.459568
 21
454.003098
 31
0.0
100
AcDbText
  0
LINE
  5
71
330
6F4
100
AcDbEntity
  8
PRO0
  6
Continuous
 62
     3
100
AcDbLine
 10
226.326699
 20
434.315515
 30
0.0
 11
235.1900029999999
 21
449.667208
 31
0.0
  0
CIRCLE
  5
72
330
6F4
100
AcDbEntity
  8
PRO0
  6
Continuous
 62
     3
100
AcDbCircle
 10
237.7400029999999
 20
454.0839369999999
 30
0.0
 40
5.099999999999999
  0
CIRCLE
  5
73
330
6F4
100
AcDbEntity
  8
PRO0
  6
Continuous
 62
     3
100
AcDbCircle
 10
226.326699
 20
434.315515
 30
0.0
 40
0.6
  0
TEXT
  5
74
330
6F4
100
AcDbEntity
  8
PRO0
  6
Continuous
 62
     3
100
AcDbText
 10
235.6732899999999
 20
451.083939
 30
0.0
 40
6.0
  1
２
 41
0.73811
 72
     1
 11
237.7399979999999
 21
451.083939
 31
0.0
100
AcDbText
  0
LINE
  5
75
330
6F4
100
AcDbEntity
  8
PRO0
  6
Continuous
 62
     3
100
AcDbLine
 10
191.3267839999999
 20
427.36238
 30
0.0
 11
201.494572
 21
444.973507
 31
0.0
  0
CIRCLE
  5
76
330
6F4
100
AcDbEntity
  8
PRO0
  6
Continuous
 62
     3
100
AcDbCircle
 10
204.044572
 20
449.3902359999999
 30
0.0
 40
5.099999999999999
  0
CIRCLE
  5
77
330
6F4
100
AcDbEntity
  8
PRO0
  6
Continuous
 62
     3
100
AcDbCircle
 10
191.3267839999999
 20
427.36238
 30
0.0
 40
0.6
  0
TEXT
  5
78
330
6F4
100
AcDbEntity
  8
PRO0
  6
Continuous
 62
     3
100
AcDbText
 10
201.977878
 20
446.390213
 30
0.0
 40
6.0
  1
３
 41
0.73811
 72
     1
 11
204.044586
 21
446.390213
 31
0.0
100
AcDbText
  0
LINE
  5
79
330
6F4
100
AcDbEntity
  8
PRO0
  6
Continuous
 62
     3
100
AcDbLine
 10
198.9806879999999
 20
385.3238909999999
 30
0.0
 11
208.1261029999999
 21
401.164214
 31
0.0
  0
CIRCLE
  5
7A
330
6F4
100
AcDbEntity
  8
PRO0
  6
Continuous
 62
     3
100
AcDbCircle
 10
210.6761029999999
 20
405.580943
 30
0.0
 40
5.099999999999999
  0
CIRCLE
  5
7B
330
6F4
100
AcDbEntity
  8
PRO0
  6
Continuous
 62
     3
100
AcDbCircle
 10
198.9806879999999
 20
385.3238909999999
 30
0.0
 40
0.6
  0
TEXT
  5
7C
330
6F4
100
AcDbEntity
  8
PRO0
  6
Continuous
 62
     3
100
AcDbText
 10
208.609386
 20
402.5809479999999
 30
0.0
 40
6.0
  1
４
 41
0.73811
 72
     1
 11
210.676094
 21
402.5809479999999
 31
0.0
100
AcDbText
  0
LINE
  5
7D
330
6F4
100
AcDbEntity
  8
PRO0
  6
Continuous
 62
     3
100
AcDbLine
 10
143.700723
 20
401.2104579999999
 30
0.0
 11
133.299816
 21
383.195558
 31
0.0
  0
CIRCLE
  5
7E
330
6F4
100
AcDbEntity
  8
PRO0
  6
Continuous
 62
     3
100
AcDbCircle
 10
130.7498159999999
 20
378.778828
 30
0.0
 40
5.099999999999999
  0
CIRCLE
  5
7F
330
6F4
100
AcDbEntity
  8
PRO0
  6
Continuous
 62
     3
100
AcDbCircle
 10
143.700723
 20
401.2104579999999
 30
0.0
 40
0.6
  0
TEXT
  5
80
330
6F4
100
AcDbEntity
  8
PRO0
  6
Continuous
 62
     3
100
AcDbText
 10
128.5354829999999
 20
375.7788389999999
 30
0.0
 40
6.0
  1
５
 41
0.73811
 72
     1
 11
130.7498129999999
 21
375.7788389999999
 31
0.0
100
AcDbText
  0
LINE
  5
81
330
6F4
100
AcDbEntity
  8
PRO0
  6
Continuous
 62
     3
100
AcDbLine
 10
146.3266989999999
 20
428.9155079999999
 30
0.0
 11
131.685443
 21
403.5561089999999
 31
0.0
  0
CIRCLE
  5
82
330
6F4
100
AcDbEntity
  8
PRO0
  6
Continuous
 62
     3
100
AcDbCircle
 10
129.1354429999999
 20
399.139379
 30
0.0
 40
5.099999999999999
  0
CIRCLE
  5
83
330
6F4
100
AcDbEntity
  8
PRO0
  6
Continuous
 62
     3
100
AcDbCircle
 10
146.3266989999999
 20
428.9155079999999
 30
0.0
 40
0.6
  0
TEXT
  5
84
330
6F4
100
AcDbEntity
  8
PRO0
  6
Continuous
 62
     3
100
AcDbText
 10
127.0687329999999
 20
396.139389
 30
0.0
 40
6.0
  1
６
 41
0.73811
 72
     1
 11
129.1354409999999
 21
396.139389
 31
0.0
100
AcDbText
  0
LINE
  5
85
330
6F4
100
AcDbEntity
  8
PRO0
  6
Continuous
 62
     3
100
AcDbLine
 10
127.3266989999999
 20
446.3155079999999
 30
0.0
 11
133.907105
 21
457.713106
 31
0.0
  0
CIRCLE
  5
86
330
6F4
100
AcDbEntity
  8
PRO0
  6
Continuous
 62
     3
100
AcDbCircle
 10
136.457105
 20
462.1298349999999
 30
0.0
 40
5.099999999999999
  0
CIRCLE
  5
87
330
6F4
100
AcDbEntity
  8
PRO0
  6
Continuous
 62
     3
100
AcDbCircle
 10
127.3266989999999
 20
446.3155079999999
 30
0.0
 40
0.6
  0
TEXT
  5
88
330
6F4
100
AcDbEntity
  8
PRO0
  6
Continuous
 62
     3
100
AcDbText
 10
134.3903999999999
 20
459.1298219999999
 30
0.0
 40
6.0
  1
７
 41
0.73811
 72
     1
 11
136.457108
 21
459.1298219999999
 31
0.0
100
AcDbText
  0
LINE
  5
89
330
6F4
100
AcDbEntity
  8
PRO0
  6
Continuous
 62
     3
100
AcDbLine
 10
153.199112
 20
425.615508
 30
0.0
 11
161.2134369999999
 21
411.7342899999999
 31
0.0
  0
CIRCLE
  5
8A
330
6F4
100
AcDbEntity
  8
PRO0
  6
Continuous
 62
     3
100
AcDbCircle
 10
163.763437
 20
407.3175599999999
 30
0.0
 40
5.099999999999999
  0
CIRCLE
  5
8B
330
6F4
100
AcDbEntity
  8
PRO0
  6
Continuous
 62
     3
100
AcDbCircle
 10
153.199112
 20
425.615508
 30
0.0
 40
0.6
  0
TEXT
  5
8C
330
6F4
100
AcDbEntity
  8
PRO0
  6
Continuous
 62
     3
100
AcDbText
 10
161.6967239999999
 20
404.317566
 30
0.0
 40
6.0
  1
８
 41
0.73811
 72
     1
 11
163.763432
 21
404.317566
 31
0.0
100
AcDbText
  0
LINE
  5
8D
330
6F4
100
AcDbEntity
  8
PRO0
  6
Continuous
 62
     3
100
AcDbLine
 10
185.837246
 20
437.425021
 30
0.0
 11
198.916989
 21
460.079801
 31
0.0
  0
CIRCLE
  5
8E
330
6F4
100
AcDbEntity
  8
PRO0
  6
Continuous
 62
     3
100
AcDbCircle
 10
201.4669889999999
 20
464.4965299999999
 30
0.0
 40
5.099999999999999
  0
CIRCLE
  5
8F
330
6F4
100
AcDbEntity
  8
PRO0
  6
Continuous
 62
     3
100
AcDbCircle
 10
185.837246
 20
437.425021
 30
0.0
 40
0.6
  0
TEXT
  5
90
330
6F4
100
AcDbEntity
  8
PRO0
  6
Continuous
 62
     3
100
AcDbText
 10
199.4002799999999
 20
461.4965519999999
 30
0.0
 40
6.0
  1
９
 41
0.73811
 72
     1
 11
201.466988
 21
461.4965519999999
 31
0.0
100
AcDbText
  0
DIMENSION
  5
9B
330
6F4
100
AcDbEntity
  8
PRO0
  6
Continuous
 62
     3
100
AcDbDimension
  2
*D3
 10
681.483141
 20
512.863252
 30
0.0
 11
608.832962
 21
514.363266
 31
0.0
 70
   128
 71
     5
 42
-1.0
100
AcDbAlignedDimension
 13
536.1828
 23
512.863252
 33
0.0
 14
681.483141
 24
483.115521
 34
0.0
100
AcDbRotatedDimension
  0
DIMENSION
  5
A5
330
6F4
100
AcDbEntity
  8
PRO0
  6
Continuous
 62
     3
100
AcDbDimension
  2
*D4
 10
701.1828
 20
512.863252
 30
0.0
 11
691.332962
 21
514.363266
 31
0.0
 70
   128
 71
     5
 42
-1.0
100
AcDbAlignedDimension
 13
681.483141
 23
483.115521
 33
0.0
 14
701.1828
 24
512.863252
 34
0.0
100
AcDbRotatedDimension
  0
LINE
  5
A6
330
6F4
100
AcDbEntity
  8
PRO0
  6
Continuous
 62
     3
100
AcDbLine
 10
581.756087
 20
440.815508
 30
0.0
 11
589.801099
 21
454.7498769999999
 31
0.0
  0
CIRCLE
  5
A7
330
6F4
100
AcDbEntity
  8
PRO0
  6
Continuous
 62
     3
100
AcDbCircle
 10
592.3510989999999
 20
459.166607
 30
0.0
 40
5.099999999999999
  0
CIRCLE
  5
A8
330
6F4
100
AcDbEntity
  8
PRO0
  6
Continuous
 62
     3
100
AcDbCircle
 10
581.756087
 20
440.815508
 30
0.0
 40
0.6
  0
TEXT
  5
A9
330
6F4
100
AcDbEntity
  8
PRO0
  6
Continuous
 62
     3
100
AcDbText
 10
590.432003
 20
456.1666259999999
 30
0.0
 40
6.0
  1
１
 41
0.73811
 72
     1
 11
592.351089
 21
456.1666259999999
 31
0.0
100
AcDbText
  0
LINE
  5
AA
330
6F4
100
AcDbEntity
  8
PRO0
  6
Continuous
 62
     3
100
AcDbLine
 10
644.2239530000001
 20
434.315516
 30
0.0
 11
652.0144219999999
 21
447.809003
 31
0.0
  0
CIRCLE
  5
AB
330
6F4
100
AcDbEntity
  8
PRO0
  6
Continuous
 62
     3
100
AcDbCircle
 10
654.5644219999999
 20
452.225733
 30
0.0
 40
5.099999999999999
  0
CIRCLE
  5
AC
330
6F4
100
AcDbEntity
  8
PRO0
  6
Continuous
 62
     3
100
AcDbCircle
 10
644.2239530000001
 20
434.315516
 30
0.0
 40
0.6
  0
TEXT
  5
AD
330
6F4
100
AcDbEntity
  8
PRO0
  6
Continuous
 62
     3
100
AcDbText
 10
652.497715
 20
449.2257389999999
 30
0.0
 40
6.0
  1
２
 41
0.73811
 72
     1
 11
654.564423
 21
449.2257389999999
 31
0.0
100
AcDbText
  0
LINE
  5
AE
330
6F4
100
AcDbEntity
  8
PRO0
  6
Continuous
 62
     3
100
AcDbLine
 10
616.1828
 20
427.8041389999999
 30
0.0
 11
627.287357
 21
447.037795
 31
0.0
  0
CIRCLE
  5
AF
330
6F4
100
AcDbEntity
  8
PRO0
  6
Continuous
 62
     3
100
AcDbCircle
 10
629.8373569999999
 20
451.454524
 30
0.0
 40
5.099999999999999
  0
CIRCLE
  5
B0
330
6F4
100
AcDbEntity
  8
PRO0
  6
Continuous
 62
     3
100
AcDbCircle
 10
616.1828
 20
427.8041389999999
 30
0.0
 40
0.6
  0
TEXT
  5
B1
330
6F4
100
AcDbEntity
  8
PRO0
  6
Continuous
 62
     3
100
AcDbText
 10
627.770649
 20
448.454544
 30
0.0
 40
6.0
  1
３
 41
0.73811
 72
     1
 11
629.8373569999999
 21
448.454544
 31
0.0
100
AcDbText
  0
LINE
  5
B2
330
6F4
100
AcDbEntity
  8
PRO0
  6
Continuous
 62
     3
100
AcDbLine
 10
698.1831409999999
 20
462.800854
 30
0.0
 11
706.5954879999999
 21
477.371467
 31
0.0
  0
CIRCLE
  5
B3
330
6F4
100
AcDbEntity
  8
PRO0
  6
Continuous
 62
     3
100
AcDbCircle
 10
709.145488
 20
481.788196
 30
0.0
 40
5.099999999999999
  0
CIRCLE
  5
B4
330
6F4
100
AcDbEntity
  8
PRO0
  6
Continuous
 62
     3
100
AcDbCircle
 10
698.1831409999999
 20
462.800854
 30
0.0
 40
0.6
  0
TEXT
  5
B5
330
6F4
100
AcDbEntity
  8
PRO0
  6
Continuous
 62
     3
100
AcDbText
 10
707.0788000000001
 20
478.788208
 30
0.0
 40
6.0
  1
４
 41
0.73811
 72
     1
 11
709.1455080000001
 21
478.788208
 31
0.0
100
AcDbText
  0
LINE
  5
B6
330
6F4
100
AcDbEntity
  8
PRO0
  6
Continuous
 62
     3
100
AcDbLine
 10
626.319382
 20
381.188672
 30
0.0
 11
633.678815
 21
393.935584
 31
0.0
  0
CIRCLE
  5
B7
330
6F4
100
AcDbEntity
  8
PRO0
  6
Continuous
 62
     3
100
AcDbCircle
 10
636.228815
 20
398.352314
 30
0.0
 40
5.099999999999999
  0
CIRCLE
  5
B8
330
6F4
100
AcDbEntity
  8
PRO0
  6
Continuous
 62
     3
100
AcDbCircle
 10
626.319382
 20
381.188672
 30
0.0
 40
0.6
  0
TEXT
  5
B9
330
6F4
100
AcDbEntity
  8
PRO0
  6
Continuous
 62
     3
100
AcDbText
 10
634.014506
 20
395.3523099999999
 30
0.0
 40
6.0
  1
５
 41
0.73811
 72
     1
 11
636.2288359999999
 21
395.3523099999999
 31
0.0
100
AcDbText
  0
LINE
  5
BA
330
6F4
100
AcDbEntity
  8
PRO0
  6
Continuous
 62
     3
100
AcDbLine
 10
566.4548929999999
 20
399.31787
 30
0.0
 11
555.356347
 21
380.0946249999999
 31
0.0
  0
CIRCLE
  5
BB
330
6F4
100
AcDbEntity
  8
PRO0
  6
Continuous
 62
     3
100
AcDbCircle
 10
552.8063469999999
 20
375.677895
 30
0.0
 40
5.099999999999999
  0
CIRCLE
  5
BC
330
6F4
100
AcDbEntity
  8
PRO0
  6
Continuous
 62
     3
100
AcDbCircle
 10
566.4548929999999
 20
399.31787
 30
0.0
 40
0.6
  0
TEXT
  5
BD
330
6F4
100
AcDbEntity
  8
PRO0
  6
Continuous
 62
     3
100
AcDbText
 10
550.739643
 20
372.677902
 30
0.0
 40
6.0
  1
６
 41
0.73811
 72
     1
 11
552.8063509999999
 21
372.677902
 31
0.0
100
AcDbText
  0
LINE
  5
BE
330
6F4
100
AcDbEntity
  8
PRO0
  6
Continuous
 62
     3
100
AcDbLine
 10
571.1828
 20
428.9155079999999
 30
0.0
 11
555.2815269999999
 21
401.373694
 31
0.0
  0
CIRCLE
  5
BF
330
6F4
100
AcDbEntity
  8
PRO0
  6
Continuous
 62
     3
100
AcDbCircle
 10
552.7315269999999
 20
396.956965
 30
0.0
 40
5.099999999999999
  0
CIRCLE
  5
C0
330
6F4
100
AcDbEntity
  8
PRO0
  6
Continuous
 62
     3
100
AcDbCircle
 10
571.1828
 20
428.9155079999999
 30
0.0
 40
0.6
  0
TEXT
  5
C1
330
6F4
100
AcDbEntity
  8
PRO0
  6
Continuous
 62
     3
100
AcDbText
 10
550.664798
 20
393.9569549999999
 30
0.0
 40
6.0
  1
７
 41
0.73811
 72
     1
 11
552.7315059999999
 21
393.9569549999999
 31
0.0
100
AcDbText
  0
LINE
  5
C2
330
6F4
100
AcDbEntity
  8
PRO0
  6
Continuous
 62
     3
100
AcDbLine
 10
552.1828
 20
446.3155079999999
 30
0.0
 11
560.2074759999999
 21
460.2146539999999
 31
0.0
  0
CIRCLE
  5
C3
330
6F4
100
AcDbEntity
  8
PRO0
  6
Continuous
 62
     3
100
AcDbCircle
 10
562.7574759999999
 20
464.631383
 30
0.0
 40
5.099999999999999
  0
CIRCLE
  5
C4
330
6F4
100
AcDbEntity
  8
PRO0
  6
Continuous
 62
     3
100
AcDbCircle
 10
552.1828
 20
446.3155079999999
 30
0.0
 40
0.6
  0
TEXT
  5
C5
330
6F4
100
AcDbEntity
  8
PRO0
  6
Continuous
 62
     3
100
AcDbText
 10
560.6907839999999
 20
461.6313629999999
 30
0.0
 40
6.0
  1
８
 41
0.73811
 72
     1
 11
562.7574919999999
 21
461.6313629999999
 31
0.0
100
AcDbText
  0
LINE
  5
C6
330
6F4
100
AcDbEntity
  8
PRO0
  6
Continuous
 62
     3
100
AcDbLine
 10
578.1061049999999
 20
425.615508
 30
0.0
 11
585.4460259999999
 21
412.9023919999999
 31
0.0
  0
CIRCLE
  5
C7
330
6F4
100
AcDbEntity
  8
PRO0
  6
Continuous
 62
     3
100
AcDbCircle
 10
587.996026
 20
408.485662
 30
0.0
 40
5.099999999999999
  0
CIRCLE
  5
C8
330
6F4
100
AcDbEntity
  8
PRO0
  6
Continuous
 62
     3
100
AcDbCircle
 10
578.1061049999999
 20
425.615508
 30
0.0
 40
0.6
  0
TEXT
  5
C9
330
6F4
100
AcDbEntity
  8
PRO0
  6
Continuous
 62
     3
100
AcDbText
 10
585.929309
 20
405.485641
 30
0.0
 40
6.0
  1
９
 41
0.73811
 72
     1
 11
587.9960169999999
 21
405.485641
 31
0.0
100
AcDbText
  0
LINE
  5
CA
330
6F4
100
AcDbEntity
  8
PRO0
  6
Continuous
 62
     3
100
AcDbLine
 10
610.199243
 20
437.6029159999999
 30
0.0
 11
625.153437
 21
463.5043399999999
 31
0.0
  0
CIRCLE
  5
CB
330
6F4
100
AcDbEntity
  8
PRO0
  6
Continuous
 62
     3
100
AcDbCircle
 10
627.7034369999999
 20
467.921069
 30
0.0
 40
5.099999999999999
  0
CIRCLE
  5
CC
330
6F4
100
AcDbEntity
  8
PRO0
  6
Continuous
 62
     3
100
AcDbCircle
 10
610.199243
 20
437.6029159999999
 30
0.0
 40
0.6
  0
TEXT
  5
CD
330
6F4
100
AcDbEntity
  8
PRO0
  6
Continuous
 62
     3
100
AcDbText
 10
623.1862118
 20
464.921082
 30
0.0
 40
6.0
  1
１０
 41
0.664299
 72
     1
 11
627.703445
 21
464.921082
 31
0.0
100
AcDbText
  0
DIMENSION
  5
D8
330
6F4
100
AcDbEntity
  8
PRO0
  6
Continuous
 62
     3
100
AcDbDimension
  2
*D5
 10
616.1828
 20
501.0903739999999
 30
0.0
 11
576.1827849999999
 21
502.590363
 31
0.0
 70
   128
 71
     5
 42
-1.0
100
AcDbAlignedDimension
 13
536.1828
 23
501.0903739999999
 33
0.0
 14
616.1828
 24
437.615508
 34
0.0
100
AcDbRotatedDimension
  0
DIMENSION
  5
E2
330
6F4
100
AcDbEntity
  8
PRO0
  6
Continuous
 62
     3
100
AcDbDimension
  2
*D6
 10
681.483141
 20
501.0903739999999
 30
0.0
 11
648.8329929999999
 21
502.590363
 31
0.0
 70
   128
 71
     5
 42
-1.0
100
AcDbAlignedDimension
 13
616.1828
 23
437.615508
 33
0.0
 14
681.483141
 24
501.0903739999999
 34
0.0
100
AcDbRotatedDimension
  0
DIMENSION
  5
ED
330
6F4
100
AcDbEntity
  8
PRO0
  6
Continuous
 62
     3
100
AcDbDimension
  2
*D7
 10
691.483141
 20
501.0903739999999
 30
0.0
 11
686.4831389999999
 21
502.590363
 31
0.0
 70
   128
 71
     5
 42
-1.0
100
AcDbAlignedDimension
 13
681.483141
 23
501.0903739999999
 33
0.0
 14
691.483141
 24
482.9151379999999
 34
0.0
100
AcDbRotatedDimension
  0
DIMENSION
  5
F7
330
6F4
100
AcDbEntity
  8
PRO0
  6
Continuous
 62
     3
100
AcDbDimension
  2
*D8
 10
701.1828
 20
501.0903739999999
 30
0.0
 11
696.3329769999999
 21
502.590363
 31
0.0
 70
   128
 71
     5
 42
-1.0
100
AcDbAlignedDimension
 13
691.483141
 23
482.9151379999999
 33
0.0
 14
701.1828
 24
501.0903739999999
 34
0.0
100
AcDbRotatedDimension
  0
DIMENSION
  5
102
330
6F4
100
AcDbEntity
  8
PRO0
  6
Continuous
 62
     3
100
AcDbDimension
  2
*D9
 10
524.7491639999999
 20
430.815508
 30
0.0
 11
523.249146
 21
435.8155059999999
 31
0.0
 70
   128
 71
     5
 42
-1.0
100
AcDbAlignedDimension
 13
524.7491639999999
 23
440.815508
 33
0.0
 14
539.3828
 24
430.815508
 34
0.0
 50
90.0
100
AcDbRotatedDimension
  0
DIMENSION
  5
10C
330
6F4
100
AcDbEntity
  8
PRO0
  6
Continuous
 62
     3
100
AcDbDimension
  2
*D10
 10
524.7491639999999
 20
421.115508
 30
0.0
 11
523.249146
 21
425.96553
 31
0.0
 70
   128
 71
     5
 42
-1.0
100
AcDbAlignedDimension
 13
539.3828
 23
430.815508
 33
0.0
 14
524.7491639999999
 24
421.115508
 34
0.0
 50
90.0
100
AcDbRotatedDimension
  0
DIMENSION
  5
117
330
6F4
100
AcDbEntity
  8
PRO0
  6
Continuous
 62
     3
100
AcDbDimension
  2
*D11
 10
83.476575
 20
430.815508
 30
0.0
 11
81.97657599999999
 21
435.8155059999999
 31
0.0
 70
   128
 71
     5
 42
-1.0
100
AcDbAlignedDimension
 13
83.476575
 23
440.815508
 33
0.0
 14
114.5266989999999
 24
430.815508
 34
0.0
 50
90.0
100
AcDbRotatedDimension
  0
DIMENSION
  5
121
330
6F4
100
AcDbEntity
  8
PRO0
  6
Continuous
 62
     3
100
AcDbDimension
  2
*D12
 10
83.476575
 20
421.115508
 30
0.0
 11
81.97657599999999
 21
425.96553
 31
0.0
 70
   128
 71
     5
 42
-1.0
100
AcDbAlignedDimension
 13
114.5266989999999
 23
430.815508
 33
0.0
 14
83.476575
 24
421.115508
 34
0.0
 50
90.0
100
AcDbRotatedDimension
  0
TEXT
  5
122
330
6F4
100
AcDbEntity
  8
PRO0
  6
Continuous
 62
     2
100
AcDbText
 10
438.1761019999999
 20
561.46376
 30
0.0
 40
8.4
  1
（ステンレス１００イプ）
 41
0.73811
100
AcDbText
  0
TEXT
  5
123
330
6F4
100
AcDbEntity
  8
PRO0
  6
Continuous
 62
     2
100
AcDbText
 10
455.735138
 20
540.9607999999999
 30
0.0
 40
10.5
  1
◇外壁コーナー（１００ＳＣＨ－Ｓ）　Ｓ＝１／３
 41
0.808712
100
AcDbText
  0
LINE
  5
124
330
6F4
100
AcDbEntity
  8
PRO0
  6
Continuous
 62
     1
100
AcDbLine
 10
23.089217
 20
21.276456
 30
0.0
 11
835.8939499999999
 21
21.276456
 31
0.0
  0
LINE
  5
125
330
6F4
100
AcDbEntity
  8
PRO0
  6
Continuous
 62
     1
100
AcDbLine
 10
835.8939499999999
 20
21.276456
 30
0.0
 11
835.8939499999999
 21
578.774161
 31
0.0
  0
LINE
  5
126
330
6F4
100
AcDbEntity
  8
PRO0
  6
Continuous
 62
     1
100
AcDbLine
 10
835.8939499999999
 20
578.774161
 30
0.0
 11
23.089217
 21
578.774161
 31
0.0
  0
LINE
  5
127
330
6F4
100
AcDbEntity
  8
PRO0
  6
Continuous
 62
     1
100
AcDbLine
 10
23.137615
 20
578.774161
 30
0.0
 11
23.137615
 21
21.276456
 31
0.0
  0
LINE
  5
128
330
6F4
100
AcDbEntity
  8
PRO0
  6
Continuous
 62
     1
100
AcDbLine
 10
429.5157829999999
 20
578.774161
 30
0.0
 11
429.5157829999999
 21
21.276456
 31
0.0
  0
TEXT
  5
129
330
6F4
100
AcDbEntity
  8
PRO0
  6
Continuous
 62
     2
100
AcDbText
 10
31.05647
 20
562.5517269999999
 30
0.0
 40
8.4
  1
（ステンレス１００タイプ）
 41
0.73811
100
AcDbText
  0
TEXT
  5
12A
330
6F4
100
AcDbEntity
  8
PRO0
  6
Continuous
 62
     2
100
AcDbText
 10
44.34130099999999
 20
543.8913570000001
 30
0.0
 40
10.5
  1
◇外壁－外壁（１００ＳＳＨ－Ｓ）　Ｓ＝１／３
 41
0.808566
100
AcDbText
  0
LINE
  5
12B
330
6F4
100
AcDbEntity
  8
PRO0
  6
Continuous
 62
     1
100
AcDbLine
 10
84.17669899999999
 20
67.18034300000001
 30
0.0
 11
84.17669899999999
 21
244.780343
 31
0.0
  0
LINE
  5
12C
330
6F4
100
AcDbEntity
  8
PRO0
  6
Continuous
 62
     1
100
AcDbLine
 10
98.57669900000001
 20
67.18034300000001
 30
0.0
 11
98.57669900000001
 21
244.780343
 31
0.0
  0
LINE
  5
12D
330
6F4
100
AcDbEntity
  8
PRO0
  6
Continuous
 62
     1
100
AcDbLine
 10
212.576699
 20
67.18034300000001
 30
0.0
 11
212.576699
 21
244.780343
 31
0.0
  0
TEXT
  5
12E
330
6F4
100
AcDbEntity
  8
PRO0
  6
Continuous
 62
     2
100
AcDbText
 10
93.2783784
 20
153.635468
 30
0.0
 40
7.2
  1
６
 41
0.73811
 51
-0.0002
 72
     2
 11
97.52989200000001
 21
153.635468
 31
0.0
100
AcDbText
  0
TEXT
  5
12F
330
6F4
100
AcDbEntity
  8
PRO0
  6
Continuous
 62
     2
100
AcDbText
 10
92.9240856
 20
105.635456
 30
0.0
 40
7.2
  1
※
 41
0.73811
 51
-0.0002
 72
     2
 11
97.52989200000001
 21
105.635456
 31
0.0
100
AcDbText
  0
LINE
  5
130
330
6F4
100
AcDbEntity
  8
PRO0
  6
Continuous
 62
     2
100
AcDbLine
 10
368.4766989999999
 20
115.1803429999999
 30
0.0
 11
84.17669899999999
 21
115.1803429999999
 31
0.0
  0
TEXT
  5
131
330
6F4
100
AcDbEntity
  8
PRO0
  6
Continuous
 62
     2
100
AcDbText
 10
93.2783784
 20
129.635456
 30
0.0
 40
7.2
  1
８
 41
0.73811
 51
-0.0002
 72
     2
 11
97.52989200000001
 21
129.635456
 31
0.0
100
AcDbText
  0
TEXT
  5
132
330
6F4
100
AcDbEntity
  8
PRO0
  6
Continuous
 62
     2
100
AcDbText
 10
93.2783784
 20
141.635456
 30
0.0
 40
7.2
  1
７
 41
0.73811
 51
-0.0002
 72
     2
 11
97.52989200000001
 21
141.635456
 31
0.0
100
AcDbText
  0
LINE
  5
133
330
6F4
100
AcDbEntity
  8
PRO0
  6
Continuous
 62
     2
100
AcDbLine
 10
368.4766989999999
 20
139.1803429999999
 30
0.0
 11
84.17669899999999
 21
139.1803429999999
 31
0.0
  0
LINE
  5
134
330
6F4
100
AcDbEntity
  8
PRO0
  6
Continuous
 62
     2
100
AcDbLine
 10
368.4766989999999
 20
127.180343
 30
0.0
 11
84.17669899999999
 21
127.180343
 31
0.0
  0
LINE
  5
135
330
6F4
100
AcDbEntity
  8
PRO0
  6
Continuous
 62
     2
100
AcDbLine
 10
368.4766989999999
 20
151.180343
 30
0.0
 11
84.17669899999999
 21
151.180343
 31
0.0
  0
TEXT
  5
136
330
6F4
100
AcDbEntity
  8
PRO0
  6
Continuous
 62
     2
100
AcDbText
 10
88.3182792
 20
213.635445
 30
0.0
 40
7.2
  1
　１
 41
0.73811
 51
-0.0002
 72
     2
 11
97.52989200000001
 21
213.635445
 31
0.0
100
AcDbText
  0
TEXT
  5
137
330
6F4
100
AcDbEntity
  8
PRO0
  6
Continuous
 62
     2
100
AcDbText
 10
93.2783784
 20
201.635445
 30
0.0
 40
7.2
  1
２
 41
0.73811
 51
-0.0002
 72
     2
 11
97.52989200000001
 21
201.635445
 31
0.0
100
AcDbText
  0
TEXT
  5
138
330
6F4
100
AcDbEntity
  8
PRO0
  6
Continuous
 62
     2
100
AcDbText
 10
93.2783784
 20
189.635445
 30
0.0
 40
7.2
  1
３
 41
0.73811
 51
-0.0002
 72
     2
 11
97.52989200000001
 21
189.635445
 31
0.0
100
AcDbText
  0
TEXT
  5
139
330
6F4
100
AcDbEntity
  8
PRO0
  6
Continuous
 62
     2
100
AcDbText
 10
93.2783784
 20
177.635456
 30
0.0
 40
7.2
  1
４
 41
0.73811
 51
-0.0002
 72
     2
 11
97.52989200000001
 21
177.635456
 31
0.0
100
AcDbText
  0
TEXT
  5
13A
330
6F4
100
AcDbEntity
  8
PRO0
  6
Continuous
 62
     2
100
AcDbText
 10
100.976715
 20
213.580353
 30
0.0
 40
7.2
  1
ＳＳＨサイドプレート（Ｂ）Ｓ
 41
0.8066489999999999
 51
-0.0002
100
AcDbText
  0
TEXT
  5
13B
330
6F4
100
AcDbEntity
  8
PRO0
  6
Continuous
 62
     2
100
AcDbText
 10
100.976715
 20
201.5803529999999
 30
0.0
 40
7.2
  1
ＳＳＨセンタープレート（Ｂ）Ｓ
 41
0.8070009999999999
 51
-0.0002
100
AcDbText
  0
TEXT
  5
13C
330
6F4
100
AcDbEntity
  8
PRO0
  6
Continuous
 62
     2
100
AcDbText
 10
100.976715
 20
189.580353
 30
0.0
 40
7.2
  1
ＳＳＨフレーム（Ｂ）
 41
0.8045399999999998
 51
-0.0002
100
AcDbText
  0
TEXT
  5
13D
330
6F4
100
AcDbEntity
  8
PRO0
  6
Continuous
 62
     2
100
AcDbText
 10
100.976715
 20
177.580364
 30
0.0
 40
7.2
  1
止水補助板
 41
0.7971590000000001
 51
-0.0002
100
AcDbText
  0
TEXT
  5
13E
330
6F4
100
AcDbEntity
  8
PRO0
  6
Continuous
 62
     2
100
AcDbText
 10
93.2783784
 20
165.6354679999999
 30
0.0
 40
7.2
  1
５
 41
0.73811
 51
-0.0002
 72
     2
 11
97.52989200000001
 21
165.6354679999999
 31
0.0
100
AcDbText
  0
LINE
  5
13F
330
6F4
100
AcDbEntity
  8
PRO0
  6
Continuous
 62
     1
100
AcDbLine
 10
368.4766989999999
 20
223.180343
 30
0.0
 11
84.17669899999999
 21
223.180343
 31
0.0
  0
LINE
  5
140
330
6F4
100
AcDbEntity
  8
PRO0
  6
Continuous
 62
     2
100
AcDbLine
 10
368.4766989999999
 20
211.180343
 30
0.0
 11
84.17669899999999
 21
211.180343
 31
0.0
  0
LINE
  5
141
330
6F4
100
AcDbEntity
  8
PRO0
  6
Continuous
 62
     2
100
AcDbLine
 10
368.4766989999999
 20
199.180343
 30
0.0
 11
84.17669899999999
 21
199.180343
 31
0.0
  0
LINE
  5
142
330
6F4
100
AcDbEntity
  8
PRO0
  6
Continuous
 62
     2
100
AcDbLine
 10
368.4766989999999
 20
187.1803429999999
 30
0.0
 11
84.17669899999999
 21
187.1803429999999
 31
0.0
  0
LINE
  5
143
330
6F4
100
AcDbEntity
  8
PRO0
  6
Continuous
 62
     2
100
AcDbLine
 10
368.4766989999999
 20
175.180343
 30
0.0
 11
84.17669899999999
 21
175.180343
 31
0.0
  0
LINE
  5
144
330
6F4
100
AcDbEntity
  8
PRO0
  6
Continuous
 62
     2
100
AcDbLine
 10
368.4766989999999
 20
163.1803429999999
 30
0.0
 11
84.17669899999999
 21
163.1803429999999
 31
0.0
  0
TEXT
  5
145
330
6F4
100
AcDbEntity
  8
PRO0
  6
Continuous
 62
     2
100
AcDbText
 10
140.1273069199999
 20
235.1803669999999
 30
0.0
 40
7.2
  1
部材名称
 41
0.793469
 51
-0.0002
 72
     1
 11
153.076721
 21
235.1803669999999
 31
0.0
100
AcDbText
  0
LINE
  5
146
330
6F4
100
AcDbEntity
  8
PRO0
  6
Continuous
 62
     1
100
AcDbLine
 10
368.4766989999999
 20
244.780343
 30
0.0
 11
84.17669899999999
 21
244.780343
 31
0.0
  0
LINE
  5
147
330
6F4
100
AcDbEntity
  8
PRO0
  6
Continuous
 62
     2
100
AcDbLine
 10
368.4766989999999
 20
103.180343
 30
0.0
 11
84.17669899999999
 21
103.180343
 31
0.0
  0
TEXT
  5
148
330
6F4
100
AcDbEntity
  8
PRO0
  6
Continuous
 62
     2
100
AcDbText
 10
100.976715
 20
69.58036400000001
 30
0.0
 40
7.2
  1
落下防止ワイヤー
 41
0.8026949999999999
 51
-0.0002
100
AcDbText
  0
TEXT
  5
149
330
6F4
100
AcDbEntity
  8
PRO0
  6
Continuous
 62
     2
100
AcDbText
 10
92.9240856
 20
93.635456
 30
0.0
 40
7.2
  1
※
 41
0.73811
 51
-0.0002
 72
     2
 11
97.52989200000001
 21
93.635456
 31
0.0
100
AcDbText
  0
LINE
  5
14A
330
6F4
100
AcDbEntity
  8
PRO0
  6
Continuous
 62
     2
100
AcDbLine
 10
368.4766989999999
 20
91.18034300000001
 30
0.0
 11
84.17669899999999
 21
91.18034300000001
 31
0.0
  0
TEXT
  5
14B
330
6F4
100
AcDbEntity
  8
PRO0
  6
Continuous
 62
     2
100
AcDbText
 10
92.9240856
 20
81.635456
 30
0.0
 40
7.2
  1
※
 41
0.73811
 51
-0.0002
 72
     2
 11
97.52989200000001
 21
81.635456
 31
0.0
100
AcDbText
  0
TEXT
  5
14C
330
6F4
100
AcDbEntity
  8
PRO0
  6
Continuous
 62
     2
100
AcDbText
 10
100.976715
 20
93.580353
 30
0.0
 40
7.2
  1
センタープレートジョイントカバー
 41
0.807308
 51
-0.0002
100
AcDbText
  0
TEXT
  5
14D
330
6F4
100
AcDbEntity
  8
PRO0
  6
Continuous
 62
     2
100
AcDbText
 10
214.9767149999999
 20
141.580364
 30
0.0
 40
7.2
  1
４×１３
 41
0.793469
 51
-0.0002
100
AcDbText
  0
TEXT
  5
14E
330
6F4
100
AcDbEntity
  8
PRO0
  6
Continuous
 62
     2
100
AcDbText
 10
344.8251464
 20
213.6803279999999
 30
0.0
 40
7.2
  1
２
 41
0.73811
 72
     2
 11
349.07666
 21
213.6803279999999
 31
0.0
100
AcDbText
  0
TEXT
  5
14F
330
6F4
100
AcDbEntity
  8
PRO0
  6
Continuous
 62
     2
100
AcDbText
 10
358.7966534
 20
177.580364
 30
0.0
 40
7.2
  1
枚
 41
0.73811
 51
-0.0002
 72
     1
 11
361.276703
 21
177.580364
 31
0.0
100
AcDbText
  0
TEXT
  5
150
330
6F4
100
AcDbEntity
  8
PRO0
  6
Continuous
 62
     2
100
AcDbText
 10
359.1509462
 20
189.580353
 30
0.0
 40
7.2
  1
〃
 41
0.73811
 51
-0.0002
 72
     1
 11
361.276703
 21
189.580353
 31
0.0
100
AcDbText
  0
TEXT
  5
151
330
6F4
100
AcDbEntity
  8
PRO0
  6
Continuous
 62
     2
100
AcDbText
 10
359.1509462
 20
141.580341
 30
0.0
 40
7.2
  1
〃
 41
0.73811
 51
-0.0002
 72
     1
 11
361.276703
 21
141.580341
 31
0.0
100
AcDbText
  0
TEXT
  5
152
330
6F4
100
AcDbEntity
  8
PRO0
  6
Continuous
 62
     2
100
AcDbText
 10
359.1509462
 20
153.580353
 30
0.0
 40
7.2
  1
〃
 41
0.73811
 51
-0.0002
 72
     1
 11
361.276703
 21
153.580353
 31
0.0
100
AcDbText
  0
TEXT
  5
153
330
6F4
100
AcDbEntity
  8
PRO0
  6
Continuous
 62
     2
100
AcDbText
 10
359.1509462
 20
201.5803529999999
 30
0.0
 40
7.2
  1
〃
 41
0.73811
 51
-0.0002
 72
     1
 11
361.276703
 21
201.5803529999999
 31
0.0
100
AcDbText
  0
TEXT
  5
154
330
6F4
100
AcDbEntity
  8
PRO0
  6
Continuous
 62
     2
100
AcDbText
 10
303.2078892
 20
201.5803529999999
 30
0.0
 40
7.2
  1
３０００
 41
0.73811
 51
-0.0002
 72
     1
 11
315.076698
 21
201.5803529999999
 31
0.0
100
AcDbText
  0
LINE
  5
155
330
6F4
100
AcDbEntity
  8
PRO0
  6
Continuous
 62
     1
100
AcDbLine
 10
368.4766989999999
 20
67.18034300000001
 30
0.0
 11
368.4766989999999
 21
244.780343
 31
0.0
  0
LINE
  5
156
330
6F4
100
AcDbEntity
  8
PRO0
  6
Continuous
 62
     1
100
AcDbLine
 10
330.076699
 20
67.18034300000001
 30
0.0
 11
330.076699
 21
244.780343
 31
0.0
  0
LINE
  5
157
330
6F4
100
AcDbEntity
  8
PRO0
  6
Continuous
 62
     1
100
AcDbLine
 10
300.076699
 20
67.18034300000001
 30
0.0
 11
300.076699
 21
244.780343
 31
0.0
  0
TEXT
  5
158
330
6F4
100
AcDbEntity
  8
PRO0
  6
Continuous
 62
     2
100
AcDbText
 10
358.7966534
 20
213.580353
 30
0.0
 40
7.2
  1
本
 41
0.73811
 51
-0.0002
 72
     1
 11
361.276703
 21
213.580353
 31
0.0
100
AcDbText
  0
TEXT
  5
159
330
6F4
100
AcDbEntity
  8
PRO0
  6
Continuous
 62
     2
100
AcDbText
 10
360.7664759999999
 20
243.1003669999999
 30
0.0
 40
7.2
  1
単位
 41
0.8599999999999999
 51
-0.0002
  7
VERTXT
 72
     1
 11
360.7664759999999
 21
235.1803669999999
 31
0.0
100
AcDbText
  0
TEXT
  5
15A
330
6F4
100
AcDbEntity
  8
PRO0
  6
Continuous
 62
     2
100
AcDbText
 10
303.2078892
 20
213.580353
 30
0.0
 40
7.2
  1
３０００
 41
0.73811
 51
-0.0002
 72
     1
 11
315.076698
 21
213.580353
 31
0.0
100
AcDbText
  0
TEXT
  5
15B
330
6F4
100
AcDbEntity
  8
PRO0
  6
Continuous
 62
     2
100
AcDbText
 10
301.42755984
 20
225.5803529999999
 30
0.0
 40
7.2
  1
（ｍｍ）
 41
0.8488269999999999
 51
-0.0002
 72
     1
 11
315.076698
 21
225.5803529999999
 31
0.0
100
AcDbText
  0
TEXT
  5
15C
330
6F4
100
AcDbEntity
  8
PRO0
  6
Continuous
 62
     2
100
AcDbText
 10
305.628882
 20
235.1803669999999
 30
0.0
 40
7.2
  1
定　尺
 41
0.7873180000000001
 51
-0.0002
 72
     1
 11
315.076698
 21
235.1803669999999
 31
0.0
100
AcDbText
  0
TEXT
  5
15D
330
6F4
100
AcDbEntity
  8
PRO0
  6
Continuous
 62
     2
100
AcDbText
 10
359.1509462
 20
93.580353
 30
0.0
 40
7.2
  1
〃
 41
0.73811
 51
-0.0002
 72
     1
 11
361.276703
 21
93.580353
 31
0.0
100
AcDbText
  0
TEXT
  5
15E
330
6F4
100
AcDbEntity
  8
PRO0
  6
Continuous
 62
     2
100
AcDbText
 10
358.7966534
 20
105.5803529999999
 30
0.0
 40
7.2
  1
個
 41
0.73811
 51
-0.0002
 72
     1
 11
361.276703
 21
105.5803529999999
 31
0.0
100
AcDbText
  0
TEXT
  5
15F
330
6F4
100
AcDbEntity
  8
PRO0
  6
Continuous
 62
     2
100
AcDbText
 10
335.84114472
 20
225.5803529999999
 30
0.0
 40
7.2
  1
数量
 41
0.811921
 51
-0.0002
 72
     1
 11
342.076698
 21
225.5803529999999
 31
0.0
100
AcDbText
  0
TEXT
  5
160
330
6F4
100
AcDbEntity
  8
PRO0
  6
Continuous
 62
     2
100
AcDbText
 10
336.03600576
 20
235.1803669999999
 30
0.0
 40
7.2
  1
使用
 41
0.811921
 51
-0.0002
 72
     1
 11
342.076698
 21
235.1803669999999
 31
0.0
100
AcDbText
  0
LINE
  5
161
330
6F4
100
AcDbEntity
  8
PRO0
  6
Continuous
 62
     1
100
AcDbLine
 10
354.076699
 20
67.18034300000001
 30
0.0
 11
354.076699
 21
244.780343
 31
0.0
  0
TEXT
  5
162
330
6F4
100
AcDbEntity
  8
PRO0
  6
Continuous
 62
     2
100
AcDbText
 10
346.2423175999999
 20
201.6803509999999
 30
0.0
 40
7.2
  1
１
 41
0.73811
 72
     2
 11
349.07666
 21
201.6803509999999
 31
0.0
100
AcDbText
  0
TEXT
  5
163
330
6F4
100
AcDbEntity
  8
PRO0
  6
Continuous
 62
     2
100
AcDbText
 10
344.8251464
 20
189.680328
 30
0.0
 40
7.2
  1
２
 41
0.73811
 72
     2
 11
349.07666
 21
189.680328
 31
0.0
100
AcDbText
  0
TEXT
  5
164
330
6F4
100
AcDbEntity
  8
PRO0
  6
Continuous
 62
     2
100
AcDbText
 10
346.2423175999999
 20
177.680351
 30
0.0
 40
7.2
  1
１
 41
0.73811
 72
     2
 11
349.07666
 21
177.680351
 31
0.0
100
AcDbText
  0
TEXT
  5
165
330
6F4
100
AcDbEntity
  8
PRO0
  6
Continuous
 62
     2
100
AcDbText
 10
338.447876
 20
141.680328
 30
0.0
 40
7.2
  1
１６
 41
0.73811
 72
     2
 11
349.07666
 21
141.680328
 31
0.0
100
AcDbText
  0
TEXT
  5
166
330
6F4
100
AcDbEntity
  8
PRO0
  6
Continuous
 62
     2
100
AcDbText
 10
346.2423175999999
 20
93.68033999999999
 30
0.0
 40
7.2
  1
１
 41
0.73811
 72
     2
 11
349.07666
 21
93.68033999999999
 31
0.0
100
AcDbText
  0
TEXT
  5
167
330
6F4
100
AcDbEntity
  8
PRO0
  6
Continuous
 62
     2
100
AcDbText
 10
344.8251464
 20
105.6803509999999
 30
0.0
 40
7.2
  1
２
 41
0.73811
 72
     2
 11
349.07666
 21
105.6803509999999
 31
0.0
100
AcDbText
  0
LINE
  5
168
330
6F4
100
AcDbEntity
  8
PRO0
  6
Continuous
 62
     3
100
AcDbLine
 10
298.076699
 20
67.18034300000001
 30
0.0
 11
298.076699
 21
244.780343
 31
0.0
  0
LINE
  5
169
330
6F4
100
AcDbEntity
  8
PRO0
  6
Continuous
 62
     1
100
AcDbLine
 10
774.8548659999999
 20
223.180343
 30
0.0
 11
490.554866
 21
223.180343
 31
0.0
  0
TEXT
  5
16A
330
6F4
100
AcDbEntity
  8
PRO0
  6
Continuous
 62
     2
100
AcDbText
 10
494.6964222
 20
213.635445
 30
0.0
 40
7.2
  1
　１
 41
0.73811
 51
-0.0002
 72
     2
 11
503.9080349999999
 21
213.635445
 31
0.0
100
AcDbText
  0
TEXT
  5
16B
330
6F4
100
AcDbEntity
  8
PRO0
  6
Continuous
 62
     2
100
AcDbText
 10
499.6565213999999
 20
201.635445
 30
0.0
 40
7.2
  1
２
 41
0.73811
 51
-0.0002
 72
     2
 11
503.9080349999999
 21
201.635445
 31
0.0
100
AcDbText
  0
TEXT
  5
16C
330
6F4
100
AcDbEntity
  8
PRO0
  6
Continuous
 62
     2
100
AcDbText
 10
499.6565213999999
 20
189.635445
 30
0.0
 40
7.2
  1
３
 41
0.73811
 51
-0.0002
 72
     2
 11
503.9080349999999
 21
189.635445
 31
0.0
100
AcDbText
  0
TEXT
  5
16D
330
6F4
100
AcDbEntity
  8
PRO0
  6
Continuous
 62
     2
100
AcDbText
 10
499.6565213999999
 20
177.635456
 30
0.0
 40
7.2
  1
４
 41
0.73811
 51
-0.0002
 72
     2
 11
503.9080349999999
 21
177.635456
 31
0.0
100
AcDbText
  0
TEXT
  5
16E
330
6F4
100
AcDbEntity
  8
PRO0
  6
Continuous
 62
     2
100
AcDbText
 10
507.3549039999999
 20
213.580353
 30
0.0
 40
7.2
  1
ＳＳＨサイドプレート（Ｂ）Ｓ
 41
0.8066489999999999
 51
-0.0002
100
AcDbText
  0
TEXT
  5
16F
330
6F4
100
AcDbEntity
  8
PRO0
  6
Continuous
 62
     2
100
AcDbText
 10
507.3549039999999
 20
201.5803529999999
 30
0.0
 40
7.2
  1
ＳＣＨセンタープレート（Ｂ）Ｓ
 41
0.8070009999999999
 51
-0.0002
100
AcDbText
  0
TEXT
  5
170
330
6F4
100
AcDbEntity
  8
PRO0
  6
Continuous
 62
     2
100
AcDbText
 10
507.3549039999999
 20
189.580353
 30
0.0
 40
7.2
  1
ＳＳＨフレーム（Ｂ）
 41
0.8045399999999998
 51
-0.0002
100
AcDbText
  0
TEXT
  5
171
330
6F4
100
AcDbEntity
  8
PRO0
  6
Continuous
 62
     2
100
AcDbText
 10
507.3549039999999
 20
177.580364
 30
0.0
 40
7.2
  1
ＳＣＨ壁フレーム
 41
0.8026949999999999
 51
-0.0002
100
AcDbText
  0
TEXT
  5
172
330
6F4
100
AcDbEntity
  8
PRO0
  6
Continuous
 62
     2
100
AcDbText
 10
507.3549039999999
 20
165.580364
 30
0.0
 40
7.2
  1
止水補助板
 41
0.7971590000000001
 51
-0.0002
100
AcDbText
  0
TEXT
  5
173
330
6F4
100
AcDbEntity
  8
PRO0
  6
Continuous
 62
     2
100
AcDbText
 10
499.6565213999999
 20
165.6354679999999
 30
0.0
 40
7.2
  1
５
 41
0.73811
 51
-0.0002
 72
     2
 11
503.9080349999999
 21
165.6354679999999
 31
0.0
100
AcDbText
  0
TEXT
  5
174
330
6F4
100
AcDbEntity
  8
PRO0
  6
Continuous
 62
     2
100
AcDbText
 10
499.6565213999999
 20
141.635456
 30
0.0
 40
7.2
  1
７
 41
0.73811
 51
-0.0002
 72
     2
 11
503.9080349999999
 21
141.635456
 31
0.0
100
AcDbText
  0
TEXT
  5
175
330
6F4
100
AcDbEntity
  8
PRO0
  6
Continuous
 62
     2
100
AcDbText
 10
499.6565213999999
 20
129.635456
 30
0.0
 40
7.2
  1
８
 41
0.73811
 51
-0.0002
 72
     2
 11
503.9080349999999
 21
129.635456
 31
0.0
100
AcDbText
  0
TEXT
  5
176
330
6F4
100
AcDbEntity
  8
PRO0
  6
Continuous
 62
     2
100
AcDbText
 10
507.3549039999999
 20
129.580353
 30
0.0
 40
7.2
  1
ステンセットシルタップ
 41
0.805211
 51
-0.0002
100
AcDbText
  0
TEXT
  5
177
330
6F4
100
AcDbEntity
  8
PRO0
  6
Continuous
 62
     2
100
AcDbText
 10
507.3549039999999
 20
117.580353
 30
0.0
 40
7.2
  1
ステンワッシャー
 41
0.8026949999999999
 51
-0.0002
100
AcDbText
  0
TEXT
  5
178
330
6F4
100
AcDbEntity
  8
PRO0
  6
Continuous
 62
     2
100
AcDbText
 10
499.6565213999999
 20
117.635456
 30
0.0
 40
7.2
  1
９
 41
0.73811
 51
-0.0002
 72
     2
 11
503.9080349999999
 21
117.635456
 31
0.0
100
AcDbText
  0
TEXT
  5
179
330
6F4
100
AcDbEntity
  8
PRO0
  6
Continuous
 62
     2
100
AcDbText
 10
499.6565213999999
 20
153.635468
 30
0.0
 40
7.2
  1
６
 41
0.73811
 51
-0.0002
 72
     2
 11
503.9080349999999
 21
153.635468
 31
0.0
100
AcDbText
  0
LINE
  5
17A
330
6F4
100
AcDbEntity
  8
PRO0
  6
Continuous
 62
     2
100
AcDbLine
 10
774.8548659999999
 20
211.180343
 30
0.0
 11
490.554866
 21
211.180343
 31
0.0
  0
LINE
  5
17B
330
6F4
100
AcDbEntity
  8
PRO0
  6
Continuous
 62
     2
100
AcDbLine
 10
774.8548659999999
 20
199.180343
 30
0.0
 11
490.554866
 21
199.180343
 31
0.0
  0
LINE
  5
17C
330
6F4
100
AcDbEntity
  8
PRO0
  6
Continuous
 62
     2
100
AcDbLine
 10
774.8548659999999
 20
187.1803429999999
 30
0.0
 11
490.554866
 21
187.1803429999999
 31
0.0
  0
LINE
  5
17D
330
6F4
100
AcDbEntity
  8
PRO0
  6
Continuous
 62
     2
100
AcDbLine
 10
774.8548659999999
 20
175.180343
 30
0.0
 11
490.554866
 21
175.180343
 31
0.0
  0
LINE
  5
17E
330
6F4
100
AcDbEntity
  8
PRO0
  6
Continuous
 62
     2
100
AcDbLine
 10
774.8548659999999
 20
163.1803429999999
 30
0.0
 11
490.554866
 21
163.1803429999999
 31
0.0
  0
LINE
  5
17F
330
6F4
100
AcDbEntity
  8
PRO0
  6
Continuous
 62
     2
100
AcDbLine
 10
774.8548659999999
 20
151.180343
 30
0.0
 11
490.554866
 21
151.180343
 31
0.0
  0
LINE
  5
180
330
6F4
100
AcDbEntity
  8
PRO0
  6
Continuous
 62
     2
100
AcDbLine
 10
774.8548659999999
 20
139.1803429999999
 30
0.0
 11
490.554866
 21
139.1803429999999
 31
0.0
  0
LINE
  5
181
330
6F4
100
AcDbEntity
  8
PRO0
  6
Continuous
 62
     2
100
AcDbLine
 10
774.8548659999999
 20
127.180343
 30
0.0
 11
490.554866
 21
127.180343
 31
0.0
  0
LINE
  5
182
330
6F4
100
AcDbEntity
  8
PRO0
  6
Continuous
 62
     2
100
AcDbLine
 10
774.8548659999999
 20
115.1803429999999
 30
0.0
 11
490.554866
 21
115.1803429999999
 31
0.0
  0
LINE
  5
183
330
6F4
100
AcDbEntity
  8
PRO0
  6
Continuous
 62
     2
100
AcDbLine
 10
774.8548659999999
 20
91.18034300000001
 30
0.0
 11
490.554866
 21
91.18034300000001
 31
0.0
  0
TEXT
  5
184
330
6F4
100
AcDbEntity
  8
PRO0
  6
Continuous
 62
     2
100
AcDbText
 10
621.354813
 20
117.580353
 30
0.0
 40
7.2
  1
１．５×１８×５．５穴
 41
0.805211
 51
-0.0002
100
AcDbText
  0
TEXT
  5
185
330
6F4
100
AcDbEntity
  8
PRO0
  6
Continuous
 62
     2
100
AcDbText
 10
621.354813
 20
129.580353
 30
0.0
 40
7.2
  1
４×１３
 41
0.793469
 51
-0.0002
100
AcDbText
  0
LINE
  5
186
330
6F4
100
AcDbEntity
  8
PRO0
  6
Continuous
 62
     1
100
AcDbLine
 10
490.554866
 20
55.180343
 30
0.0
 11
490.554866
 21
244.780343
 31
0.0
  0
LINE
  5
187
330
6F4
100
AcDbEntity
  8
PRO0
  6
Continuous
 62
     1
100
AcDbLine
 10
504.954866
 20
55.180343
 30
0.0
 11
504.954866
 21
244.780343
 31
0.0
  0
LINE
  5
188
330
6F4
100
AcDbEntity
  8
PRO0
  6
Continuous
 62
     1
100
AcDbLine
 10
618.954866
 20
55.180343
 30
0.0
 11
618.954866
 21
244.780343
 31
0.0
  0
TEXT
  5
189
330
6F4
100
AcDbEntity
  8
PRO0
  6
Continuous
 62
     2
100
AcDbText
 10
546.50540492
 20
235.180389
 30
0.0
 40
7.2
  1
部材名称
 41
0.793469
 51
-0.0002
 72
     1
 11
559.454819
 21
235.180389
 31
0.0
100
AcDbText
  0
LINE
  5
18A
330
6F4
100
AcDbEntity
  8
PRO0
  6
Continuous
 62
     1
100
AcDbLine
 10
774.8548659999999
 20
244.780343
 30
0.0
 11
490.554866
 21
244.780343
 31
0.0
  0
TEXT
  5
18B
330
6F4
100
AcDbEntity
  8
PRO0
  6
Continuous
 62
     2
100
AcDbText
 10
507.3549039999999
 20
93.580353
 30
0.0
 40
7.2
  1
サイドプレートジョイントカバー
 41
0.8070009999999999
 51
-0.0002
100
AcDbText
  0
TEXT
  5
18C
330
6F4
100
AcDbEntity
  8
PRO0
  6
Continuous
 62
     2
100
AcDbText
 10
499.3022285999999
 20
93.635456
 30
0.0
 40
7.2
  1
※
 41
0.73811
 51
-0.0002
 72
     2
 11
503.9080349999999
 21
93.635456
 31
0.0
100
AcDbText
  0
LINE
  5
18D
330
6F4
100
AcDbEntity
  8
PRO0
  6
Continuous
 62
     2
100
AcDbLine
 10
774.8548659999999
 20
67.18034300000001
 30
0.0
 11
490.554866
 21
67.18034300000001
 31
0.0
  0
TEXT
  5
18E
330
6F4
100
AcDbEntity
  8
PRO0
  6
Continuous
 62
     2
100
AcDbText
 10
621.354813
 20
165.580364
 30
0.0
 40
7.2
  1
ＦＳ２５０
 41
0.7971590000000001
 51
-0.0002
100
AcDbText
  0
TEXT
  5
18F
330
6F4
100
AcDbEntity
  8
PRO0
  6
Continuous
 62
     2
100
AcDbText
 10
507.3549039999999
 20
69.58036400000001
 30
0.0
 40
7.2
  1
ブチルテープ
 41
0.799619
 51
-0.0002
100
AcDbText
  0
TEXT
  5
190
330
6F4
100
AcDbEntity
  8
PRO0
  6
Continuous
 62
     2
100
AcDbText
 10
499.3022285999999
 20
69.635462
 30
0.0
 40
7.2
  1
※
 41
0.73811
 51
-0.0002
 72
     2
 11
503.9080349999999
 21
69.635462
 31
0.0
100
AcDbText
  0
TEXT
  5
191
330
6F4
100
AcDbEntity
  8
PRO0
  6
Continuous
 62
     2
100
AcDbText
 10
753.6204916
 20
213.6803279999999
 30
0.0
 40
7.2
  1
１
 41
0.73811
 72
     2
 11
756.4548339999999
 21
213.6803279999999
 31
0.0
100
AcDbText
  0
LINE
  5
192
330
6F4
100
AcDbEntity
  8
PRO0
  6
Continuous
 62
     3
100
AcDbLine
 10
704.454866
 20
55.180343
 30
0.0
 11
704.454866
 21
244.780343
 31
0.0
  0
LINE
  5
193
330
6F4
100
AcDbEntity
  8
PRO0
  6
Continuous
 62
     1
100
AcDbLine
 10
774.8548659999999
 20
55.180343
 30
0.0
 11
774.8548659999999
 21
244.780343
 31
0.0
  0
LINE
  5
194
330
6F4
100
AcDbEntity
  8
PRO0
  6
Continuous
 62
     1
100
AcDbLine
 10
760.454866
 20
55.180343
 30
0.0
 11
760.454866
 21
244.780343
 31
0.0
  0
LINE
  5
195
330
6F4
100
AcDbEntity
  8
PRO0
  6
Continuous
 62
     1
100
AcDbLine
 10
736.454866
 20
55.180343
 30
0.0
 11
736.454866
 21
244.780343
 31
0.0
  0
LINE
  5
196
330
6F4
100
AcDbEntity
  8
PRO0
  6
Continuous
 62
     1
100
AcDbLine
 10
706.454866
 20
55.180343
 30
0.0
 11
706.454866
 21
244.780343
 31
0.0
  0
TEXT
  5
197
330
6F4
100
AcDbEntity
  8
PRO0
  6
Continuous
 62
     2
100
AcDbText
 10
765.5290892
 20
201.5803529999999
 30
0.0
 40
7.2
  1
〃
 41
0.73811
 51
-0.0002
 72
     1
 11
767.654846
 21
201.5803529999999
 31
0.0
100
AcDbText
  0
TEXT
  5
198
330
6F4
100
AcDbEntity
  8
PRO0
  6
Continuous
 62
     2
100
AcDbText
 10
709.5859642
 20
201.5803529999999
 30
0.0
 40
7.2
  1
３０００
 41
0.73811
 51
-0.0002
 72
     1
 11
721.454773
 21
201.5803529999999
 31
0.0
100
AcDbText
  0
TEXT
  5
199
330
6F4
100
AcDbEntity
  8
PRO0
  6
Continuous
 62
     2
100
AcDbText
 10
709.5859642
 20
189.580353
 30
0.0
 40
7.2
  1
３０００
 41
0.73811
 51
-0.0002
 72
     1
 11
721.454773
 21
189.580353
 31
0.0
100
AcDbText
  0
TEXT
  5
19A
330
6F4
100
AcDbEntity
  8
PRO0
  6
Continuous
 62
     2
100
AcDbText
 10
765.1747964
 20
117.580353
 30
0.0
 40
7.2
  1
枚
 41
0.73811
 51
-0.0002
 72
     1
 11
767.654846
 21
117.580353
 31
0.0
100
AcDbText
  0
TEXT
  5
19B
330
6F4
100
AcDbEntity
  8
PRO0
  6
Continuous
 62
     2
100
AcDbText
 10
765.5290892
 20
129.580353
 30
0.0
 40
7.2
  1
〃
 41
0.73811
 51
-0.0002
 72
     1
 11
767.654846
 21
129.580353
 31
0.0
100
AcDbText
  0
TEXT
  5
19C
330
6F4
100
AcDbEntity
  8
PRO0
  6
Continuous
 62
     2
100
AcDbText
 10
765.1747964
 20
165.580364
 30
0.0
 40
7.2
  1
枚
 41
0.73811
 51
-0.0002
 72
     1
 11
767.654846
 21
165.580364
 31
0.0
100
AcDbText
  0
TEXT
  5
19D
330
6F4
100
AcDbEntity
  8
PRO0
  6
Continuous
 62
     2
100
AcDbText
 10
765.5290892
 20
177.580364
 30
0.0
 40
7.2
  1
〃
 41
0.73811
 51
-0.0002
 72
     1
 11
767.654846
 21
177.580364
 31
0.0
100
AcDbText
  0
TEXT
  5
19E
330
6F4
100
AcDbEntity
  8
PRO0
  6
Continuous
 62
     2
100
AcDbText
 10
765.5290892
 20
189.580353
 30
0.0
 40
7.2
  1
〃
 41
0.73811
 51
-0.0002
 72
     1
 11
767.654846
 21
189.580353
 31
0.0
100
AcDbText
  0
TEXT
  5
19F
330
6F4
100
AcDbEntity
  8
PRO0
  6
Continuous
 62
     2
100
AcDbText
 10
765.1747964
 20
213.580353
 30
0.0
 40
7.2
  1
本
 41
0.73811
 51
-0.0002
 72
     1
 11
767.654846
 21
213.580353
 31
0.0
100
AcDbText
  0
TEXT
  5
1A0
330
6F4
100
AcDbEntity
  8
PRO0
  6
Continuous
 62
     2
100
AcDbText
 10
709.5859642
 20
213.580353
 30
0.0
 40
7.2
  1
３０００
 41
0.73811
 51
-0.0002
 72
     1
 11
721.454773
 21
213.580353
 31
0.0
100
AcDbText
  0
TEXT
  5
1A1
330
6F4
100
AcDbEntity
  8
PRO0
  6
Continuous
 62
     2
100
AcDbText
 10
767.144573
 20
243.1003889999999
 30
0.0
 40
7.2
  1
単位
 41
0.8599999999999999
 51
-0.0002
  7
VERTXT
 72
     1
 11
767.144573
 21
235.180389
 31
0.0
100
AcDbText
  0
TEXT
  5
1A2
330
6F4
100
AcDbEntity
  8
PRO0
  6
Continuous
 62
     2
100
AcDbText
 10
707.80563484
 20
225.5803759999999
 30
0.0
 40
7.2
  1
（ｍｍ）
 41
0.8488269999999999
 51
-0.0002
 72
     1
 11
721.454773
 21
225.5803759999999
 31
0.0
100
AcDbText
  0
TEXT
  5
1A3
330
6F4
100
AcDbEntity
  8
PRO0
  6
Continuous
 62
     2
100
AcDbText
 10
712.006957
 20
235.180389
 30
0.0
 40
7.2
  1
定　尺
 41
0.7873180000000001
 51
-0.0002
 72
     1
 11
721.454773
 21
235.180389
 31
0.0
100
AcDbText
  0
TEXT
  5
1A4
330
6F4
100
AcDbEntity
  8
PRO0
  6
Continuous
 62
     2
100
AcDbText
 10
765.1747964
 20
93.580353
 30
0.0
 40
7.2
  1
個
 41
0.73811
 51
-0.0002
 72
     1
 11
767.654846
 21
93.580353
 31
0.0
100
AcDbText
  0
TEXT
  5
1A5
330
6F4
100
AcDbEntity
  8
PRO0
  6
Continuous
 62
     2
100
AcDbText
 10
765.1747964
 20
69.58036400000001
 30
0.0
 40
7.2
  1
巻
 41
0.73811
 51
-0.0002
 72
     1
 11
767.654846
 21
69.58036400000001
 31
0.0
100
AcDbText
  0
TEXT
  5
1A6
330
6F4
100
AcDbEntity
  8
PRO0
  6
Continuous
 62
     2
100
AcDbText
 10
753.6204916
 20
201.6803509999999
 30
0.0
 40
7.2
  1
１
 41
0.73811
 72
     2
 11
756.4548339999999
 21
201.6803509999999
 31
0.0
100
AcDbText
  0
TEXT
  5
1A7
330
6F4
100
AcDbEntity
  8
PRO0
  6
Continuous
 62
     2
100
AcDbText
 10
753.6204916
 20
189.680328
 30
0.0
 40
7.2
  1
１
 41
0.73811
 72
     2
 11
756.4548339999999
 21
189.680328
 31
0.0
100
AcDbText
  0
TEXT
  5
1A8
330
6F4
100
AcDbEntity
  8
PRO0
  6
Continuous
 62
     2
100
AcDbText
 10
753.6204916
 20
177.680351
 30
0.0
 40
7.2
  1
１
 41
0.73811
 72
     2
 11
756.4548339999999
 21
177.680351
 31
0.0
100
AcDbText
  0
TEXT
  5
1A9
330
6F4
100
AcDbEntity
  8
PRO0
  6
Continuous
 62
     2
100
AcDbText
 10
753.6204916
 20
165.680351
 30
0.0
 40
7.2
  1
１
 41
0.73811
 72
     2
 11
756.4548339999999
 21
165.680351
 31
0.0
100
AcDbText
  0
TEXT
  5
1AA
330
6F4
100
AcDbEntity
  8
PRO0
  6
Continuous
 62
     2
100
AcDbText
 10
745.82605
 20
129.6803509999999
 30
0.0
 40
7.2
  1
１６
 41
0.73811
 72
     2
 11
756.4548339999999
 21
129.6803509999999
 31
0.0
100
AcDbText
  0
TEXT
  5
1AB
330
6F4
100
AcDbEntity
  8
PRO0
  6
Continuous
 62
     2
100
AcDbText
 10
745.82605
 20
117.6803399999999
 30
0.0
 40
7.2
  1
１２
 41
0.73811
 72
     2
 11
756.4548339999999
 21
117.6803399999999
 31
0.0
100
AcDbText
  0
TEXT
  5
1AC
330
6F4
100
AcDbEntity
  8
PRO0
  6
Continuous
 62
     2
100
AcDbText
 10
753.6204916
 20
93.680351
 30
0.0
 40
7.2
  1
１
 41
0.73811
 72
     2
 11
756.4548339999999
 21
93.680351
 31
0.0
100
AcDbText
  0
TEXT
  5
1AD
330
6F4
100
AcDbEntity
  8
PRO0
  6
Continuous
 62
     2
100
AcDbText
 10
753.6204916
 20
69.680351
 30
0.0
 40
7.2
  1
１
 41
0.73811
 72
     2
 11
756.4548339999999
 21
69.680351
 31
0.0
100
AcDbText
  0
TEXT
  5
1AE
330
6F4
100
AcDbEntity
  8
PRO0
  6
Continuous
 62
     2
100
AcDbText
 10
742.21926572
 20
225.5803529999999
 30
0.0
 40
7.2
  1
数量
 41
0.811921
 51
-0.0002
 72
     1
 11
748.454819
 21
225.5803529999999
 31
0.0
100
AcDbText
  0
TEXT
  5
1AF
330
6F4
100
AcDbEntity
  8
PRO0
  6
Continuous
 62
     2
100
AcDbText
 10
742.41412676
 20
235.1803669999999
 30
0.0
 40
7.2
  1
使用
 41
0.811921
 51
-0.0002
 72
     1
 11
748.454819
 21
235.1803669999999
 31
0.0
100
AcDbText
  0
TEXT
  5
1B0
330
6F4
100
AcDbEntity
  8
PRO0
  6
Continuous
 62
     2
100
AcDbText
 10
214.9767149999999
 20
177.580364
 30
0.0
 40
7.2
  1
ＦＳ２５０
 41
0.7971590000000001
 51
-0.0002
100
AcDbText
  0
TEXT
  5
1B1
330
6F4
100
AcDbEntity
  8
PRO0
  6
Continuous
 62
     2
100
AcDbText
 10
100.976715
 20
141.580364
 30
0.0
 40
7.2
  1
ステンセットシルタップ
 41
0.805211
 51
-0.0002
100
AcDbText
  0
LINE
  5
1B2
330
6F4
100
AcDbEntity
  8
PRO0
  6
Continuous
 62
     2
100
AcDbLine
 10
368.4766989999999
 20
79.18034300000001
 30
0.0
 11
84.17669899999999
 21
79.18034300000001
 31
0.0
  0
TEXT
  5
1B3
330
6F4
100
AcDbEntity
  8
PRO0
  6
Continuous
 62
     2
100
AcDbText
 10
92.9240856
 20
69.635462
 30
0.0
 40
7.2
  1
※
 41
0.73811
 51
-0.0002
 72
     2
 11
97.52989200000001
 21
69.635462
 31
0.0
100
AcDbText
  0
TEXT
  5
1B4
330
6F4
100
AcDbEntity
  8
PRO0
  6
Continuous
 62
     2
100
AcDbText
 10
100.976715
 20
105.5803529999999
 30
0.0
 40
7.2
  1
サイドプレートジョイントカバー
 41
0.8070009999999999
 51
-0.0002
100
AcDbText
  0
TEXT
  5
1B6
330
6F4
100
AcDbEntity
  8
PRO0
  6
Continuous
 62
     2
100
AcDbText
 10
303.2078892
 20
177.580364
 30
0.0
 40
7.2
  1
３１００
 41
0.73811
 51
-0.0002
 72
     1
 11
315.076698
 21
177.580364
 31
0.0
100
AcDbText
  0
TEXT
  5
1B7
330
6F4
100
AcDbEntity
  8
PRO0
  6
Continuous
 62
     2
100
AcDbText
 10
358.7966534
 20
69.58036400000001
 30
0.0
 40
7.2
  1
本
 41
0.73811
 51
-0.0002
 72
     1
 11
361.276703
 21
69.58036400000001
 31
0.0
100
AcDbText
  0
TEXT
  5
1B8
330
6F4
100
AcDbEntity
  8
PRO0
  6
Continuous
 62
     2
100
AcDbText
 10
344.8251464
 20
69.680351
 30
0.0
 40
7.2
  1
２
 41
0.73811
 72
     2
 11
349.07666
 21
69.680351
 31
0.0
100
AcDbText
  0
LINE
  5
1B9
330
6F4
100
AcDbEntity
  8
PRO0
  6
Continuous
 62
     1
100
AcDbLine
 10
774.8548659999999
 20
55.180343
 30
0.0
 11
490.554866
 21
55.180343
 31
0.0
  0
TEXT
  5
1BA
330
6F4
100
AcDbEntity
  8
PRO0
  6
Continuous
 62
     2
100
AcDbText
 10
507.3549039999999
 20
57.58035899999999
 30
0.0
 40
7.2
  1
落下防止ワイヤー
 41
0.8026949999999999
 51
-0.0002
100
AcDbText
  0
TEXT
  5
1BB
330
6F4
100
AcDbEntity
  8
PRO0
  6
Continuous
 62
     2
100
AcDbText
 10
499.3022285999999
 20
57.635462
 30
0.0
 40
7.2
  1
※
 41
0.73811
 51
-0.0002
 72
     2
 11
503.9080349999999
 21
57.635462
 31
0.0
100
AcDbText
  0
TEXT
  5
1BC
330
6F4
100
AcDbEntity
  8
PRO0
  6
Continuous
 62
     2
100
AcDbText
 10
621.354813
 20
93.580353
 30
0.0
 40
7.2
  1
外ジョイント材（ステン）
 41
0.80577
 51
-0.0002
100
AcDbText
  0
TEXT
  5
1BD
330
6F4
100
AcDbEntity
  8
PRO0
  6
Continuous
 62
     2
100
AcDbText
 10
214.9767149999999
 20
105.5803529999999
 30
0.0
 40
7.2
  1
外ジョイント材（ステン）
 41
0.80577
 51
-0.0002
100
AcDbText
  0
TEXT
  5
1BE
330
6F4
100
AcDbEntity
  8
PRO0
  6
Continuous
 62
     2
100
AcDbText
 10
709.5859642
 20
165.580364
 30
0.0
 40
7.2
  1
３１００
 41
0.73811
 51
-0.0002
 72
     1
 11
721.454773
 21
165.580364
 31
0.0
100
AcDbText
  0
TEXT
  5
1BF
330
6F4
100
AcDbEntity
  8
PRO0
  6
Continuous
 62
     2
100
AcDbText
 10
709.5859642
 20
69.58036400000001
 30
0.0
 40
7.2
  1
６０００
 41
0.73811
 51
-0.0002
 72
     1
 11
721.454773
 21
69.58036400000001
 31
0.0
100
AcDbText
  0
TEXT
  5
1C0
330
6F4
100
AcDbEntity
  8
PRO0
  6
Continuous
 62
     2
100
AcDbText
 10
621.354813
 20
69.58036400000001
 30
0.0
 40
7.2
  1
ｔ１．０×ｗ３０
 41
0.8026949999999999
 51
-0.0002
100
AcDbText
  0
TEXT
  5
1C2
330
6F4
100
AcDbEntity
  8
PRO0
  6
Continuous
 62
     2
100
AcDbText
 10
765.1747964
 20
57.58035899999999
 30
0.0
 40
7.2
  1
本
 41
0.73811
 51
-0.0002
 72
     1
 11
767.654846
 21
57.58035899999999
 31
0.0
100
AcDbText
  0
TEXT
  5
1C3
330
6F4
100
AcDbEntity
  8
PRO0
  6
Continuous
 62
     2
100
AcDbText
 10
752.2033204
 20
57.680351
 30
0.0
 40
7.2
  1
２
 41
0.73811
 72
     2
 11
756.4548339999999
 21
57.680351
 31
0.0
100
AcDbText
  0
LINE
  5
1D1
330
6F4
100
AcDbEntity
  8
PRO0
  6
Continuous
 62
     3
100
AcDbLine
 10
81.70498499999998
 20
298.8830919999999
 30
0.0
 11
100.567326
 21
303.251954
 31
0.0
  0
LINE
  5
1D2
330
6F4
100
AcDbEntity
  8
PRO0
  6
Continuous
 62
     3
100
AcDbLine
 10
100.502753
 20
304.262958
 30
0.0
 11
81.47945400000001
 21
299.8568139999999
 31
0.0
  0
LINE
  5
1D3
330
6F4
100
AcDbEntity
  8
PRO0
  6
Continuous
 62
     3
100
AcDbLine
 10
100.567326
 20
302.452354
 30
0.0
 11
105.5648259999999
 21
302.452354
 31
0.0
  0
LINE
  5
1D4
330
6F4
100
AcDbEntity
  8
PRO0
  6
Continuous
 62
     3
100
AcDbLine
 10
105.5648259999999
 20
302.452354
 30
0.0
 11
105.5648259999999
 21
306.0505539999999
 31
0.0
  0
LINE
  5
1D5
330
6F4
100
AcDbEntity
  8
PRO0
  6
Continuous
 62
     3
100
AcDbLine
 10
105.5648259999999
 20
306.0505539999999
 30
0.0
 11
100.567326
 21
306.0505539999999
 31
0.0
  0
LINE
  5
1D6
330
6F4
100
AcDbEntity
  8
PRO0
  6
Continuous
 62
     3
100
AcDbLine
 10
100.567326
 20
306.0505539999999
 30
0.0
 11
100.567326
 21
302.452354
 31
0.0
  0
LINE
  5
1D7
330
6F4
100
AcDbEntity
  8
PRO0
  6
Continuous
 62
     3
100
AcDbLine
 10
81.453825
 20
308.6717399999999
 30
0.0
 11
100.567326
 21
305.266691
 31
0.0
  0
LINE
  5
1D8
330
6F4
100
AcDbEntity
  8
PRO0
  6
Continuous
 62
     3
100
AcDbLine
 10
81.27852500000001
 20
307.6877329999999
 30
0.0
 11
100.567326
 21
304.251454
 31
0.0
  0
LINE
  5
1D9
330
6F4
100
AcDbEntity
  8
PRO0
  6
Continuous
 62
     3
100
AcDbLine
 10
195.5198259999999
 20
304.251454
 30
0.0
 11
105.5648259999999
 21
304.251454
 31
0.0
  0
ARC
  5
1DA
330
6F4
100
AcDbEntity
  8
PRO0
  6
Continuous
 62
     3
100
AcDbCircle
 10
107.583201
 20
305.7507039999999
 30
0.0
 40
1.499249999999999
100
AcDbArc
 50
270.0
 51
0.0
  0
LINE
  5
1DB
330
6F4
100
AcDbEntity
  8
PRO0
  6
Continuous
 62
     3
100
AcDbLine
 10
195.5198259999999
 20
303.251954
 30
0.0
 11
105.5648259999999
 21
303.251954
 31
0.0
  0
LINE
  5
1DC
330
6F4
100
AcDbEntity
  8
PRO0
  6
Continuous
 62
     3
100
AcDbLine
 10
105.5648259999999
 20
305.2509539999999
 30
0.0
 11
107.583201
 21
305.2509539999999
 31
0.0
  0
ARC
  5
1DD
330
6F4
100
AcDbEntity
  8
PRO0
  6
Continuous
 62
     3
100
AcDbCircle
 10
107.583201
 20
305.7507039999999
 30
0.0
 40
0.4997500000000001
100
AcDbArc
 50
270.0
 51
0.0
  0
LINE
  5
1DE
330
6F4
100
AcDbEntity
  8
PRO0
  6
Continuous
 62
     3
100
AcDbLine
 10
108.082951
 20
306.0505539999999
 30
0.0
 11
108.082951
 21
305.7507039999999
 31
0.0
  0
LINE
  5
1DF
330
6F4
100
AcDbEntity
  8
PRO0
  6
Continuous
 62
     3
100
AcDbLine
 10
108.082951
 20
306.0505539999999
 30
0.0
 11
109.082451
 21
306.0505539999999
 31
0.0
  0
LINE
  5
1E0
330
6F4
100
AcDbEntity
  8
PRO0
  6
Continuous
 62
     3
100
AcDbLine
 10
109.082451
 20
306.0505539999999
 30
0.0
 11
109.082451
 21
305.7507039999999
 31
0.0
  0
ARC
  5
1E1
330
6F4
100
AcDbEntity
  8
PRO0
  6
Continuous
 62
     3
100
AcDbCircle
 10
80.57732599999999
 20
303.751704
 30
0.0
 40
3.998
100
AcDbArc
 50
79.89879000000001
 51
283.040795
  0
ARC
  5
1E2
330
6F4
100
AcDbEntity
  8
PRO0
  6
Continuous
 62
     3
100
AcDbCircle
 10
80.57732599999999
 20
303.751704
 30
0.0
 40
4.997499999999999
100
AcDbArc
 50
79.89879000000001
 51
283.040795
  0
LINE
  5
1EF
330
6F4
100
AcDbEntity
  8
PRO0
  6
Continuous
 62
     3
100
AcDbLine
 10
319.329666
 20
298.8830919999999
 30
0.0
 11
300.4673259999999
 21
303.251954
 31
0.0
  0
LINE
  5
1F0
330
6F4
100
AcDbEntity
  8
PRO0
  6
Continuous
 62
     3
100
AcDbLine
 10
300.531899
 20
304.262958
 30
0.0
 11
319.555198
 21
299.8568139999999
 31
0.0
  0
LINE
  5
1F1
330
6F4
100
AcDbEntity
  8
PRO0
  6
Continuous
 62
     3
100
AcDbLine
 10
300.4673259999999
 20
302.452354
 30
0.0
 11
295.4698259999999
 21
302.452354
 31
0.0
  0
LINE
  5
1F2
330
6F4
100
AcDbEntity
  8
PRO0
  6
Continuous
 62
     3
100
AcDbLine
 10
295.4698259999999
 20
302.452354
 30
0.0
 11
295.4698259999999
 21
306.0505539999999
 31
0.0
  0
LINE
  5
1F3
330
6F4
100
AcDbEntity
  8
PRO0
  6
Continuous
 62
     3
100
AcDbLine
 10
295.4698259999999
 20
306.0505539999999
 30
0.0
 11
300.4673259999999
 21
306.0505539999999
 31
0.0
  0
LINE
  5
1F4
330
6F4
100
AcDbEntity
  8
PRO0
  6
Continuous
 62
     3
100
AcDbLine
 10
300.4673259999999
 20
306.0505539999999
 30
0.0
 11
300.4673259999999
 21
302.452354
 31
0.0
  0
LINE
  5
1F5
330
6F4
100
AcDbEntity
  8
PRO0
  6
Continuous
 62
     3
100
AcDbLine
 10
319.580827
 20
308.6717399999999
 30
0.0
 11
300.4673259999999
 21
305.266691
 31
0.0
  0
LINE
  5
1F6
330
6F4
100
AcDbEntity
  8
PRO0
  6
Continuous
 62
     3
100
AcDbLine
 10
319.756127
 20
307.6877329999999
 30
0.0
 11
300.4673259999999
 21
304.251454
 31
0.0
  0
LINE
  5
1F7
330
6F4
100
AcDbEntity
  8
PRO0
  6
Continuous
 62
     3
100
AcDbLine
 10
205.514826
 20
304.251454
 30
0.0
 11
295.4698259999999
 21
304.251454
 31
0.0
  0
ARC
  5
1F8
330
6F4
100
AcDbEntity
  8
PRO0
  6
Continuous
 62
     3
100
AcDbCircle
 10
293.4514509999999
 20
305.7507039999999
 30
0.0
 40
1.499249999999999
100
AcDbArc
 50
180.0
 51
270.0
  0
LINE
  5
1F9
330
6F4
100
AcDbEntity
  8
PRO0
  6
Continuous
 62
     3
100
AcDbLine
 10
205.514826
 20
303.251954
 30
0.0
 11
295.4698259999999
 21
303.251954
 31
0.0
  0
LINE
  5
1FA
330
6F4
100
AcDbEntity
  8
PRO0
  6
Continuous
 62
     3
100
AcDbLine
 10
295.4698259999999
 20
305.2509539999999
 30
0.0
 11
293.4514509999999
 21
305.2509539999999
 31
0.0
  0
ARC
  5
1FB
330
6F4
100
AcDbEntity
  8
PRO0
  6
Continuous
 62
     3
100
AcDbCircle
 10
293.4514509999999
 20
305.7507039999999
 30
0.0
 40
0.4997500000000001
100
AcDbArc
 50
180.0
 51
270.0
  0
LINE
  5
1FC
330
6F4
100
AcDbEntity
  8
PRO0
  6
Continuous
 62
     3
100
AcDbLine
 10
292.9517009999999
 20
306.0505539999999
 30
0.0
 11
292.9517009999999
 21
305.7507039999999
 31
0.0
  0
LINE
  5
1FD
330
6F4
100
AcDbEntity
  8
PRO0
  6
Continuous
 62
     3
100
AcDbLine
 10
292.9517009999999
 20
306.0505539999999
 30
0.0
 11
291.952201
 21
306.0505539999999
 31
0.0
  0
LINE
  5
1FE
330
6F4
100
AcDbEntity
  8
PRO0
  6
Continuous
 62
     3
100
AcDbLine
 10
291.952201
 20
306.0505539999999
 30
0.0
 11
291.952201
 21
305.7507039999999
 31
0.0
  0
ARC
  5
1FF
330
6F4
100
AcDbEntity
  8
PRO0
  6
Continuous
 62
     3
100
AcDbCircle
 10
320.4573259999999
 20
303.751704
 30
0.0
 40
3.998
100
AcDbArc
 50
256.959205
 51
110.010381
  0
ARC
  5
200
330
6F4
100
AcDbEntity
  8
PRO0
  6
Continuous
 62
     3
100
AcDbCircle
 10
320.4573259999999
 20
303.751704
 30
0.0
 40
4.997499999999999
100
AcDbArc
 50
256.959205
 51
108.0215989999999
  0
LINE
  5
220
330
6F4
100
AcDbEntity
  8
PRO0
  6
Continuous
 62
     3
100
AcDbLine
 10
498.457563
 20
298.8830919999999
 30
0.0
 11
517.3199030000001
 21
303.251954
 31
0.0
  0
LINE
  5
221
330
6F4
100
AcDbEntity
  8
PRO0
  6
Continuous
 62
     3
100
AcDbLine
 10
517.2553299999999
 20
304.262958
 30
0.0
 11
498.2320309999999
 21
299.8568139999999
 31
0.0
  0
LINE
  5
222
330
6F4
100
AcDbEntity
  8
PRO0
  6
Continuous
 62
     3
100
AcDbLine
 10
517.3199030000001
 20
302.452354
 30
0.0
 11
522.317403
 21
302.452354
 31
0.0
  0
LINE
  5
223
330
6F4
100
AcDbEntity
  8
PRO0
  6
Continuous
 62
     3
100
AcDbLine
 10
522.317403
 20
302.452354
 30
0.0
 11
522.317403
 21
306.0505539999999
 31
0.0
  0
LINE
  5
224
330
6F4
100
AcDbEntity
  8
PRO0
  6
Continuous
 62
     3
100
AcDbLine
 10
522.317403
 20
306.0505539999999
 30
0.0
 11
517.3199030000001
 21
306.0505539999999
 31
0.0
  0
LINE
  5
225
330
6F4
100
AcDbEntity
  8
PRO0
  6
Continuous
 62
     3
100
AcDbLine
 10
517.3199030000001
 20
306.0505539999999
 30
0.0
 11
517.3199030000001
 21
302.452354
 31
0.0
  0
LINE
  5
226
330
6F4
100
AcDbEntity
  8
PRO0
  6
Continuous
 62
     3
100
AcDbLine
 10
498.206402
 20
308.6717399999999
 30
0.0
 11
517.3199030000001
 21
305.266691
 31
0.0
  0
LINE
  5
227
330
6F4
100
AcDbEntity
  8
PRO0
  6
Continuous
 62
     3
100
AcDbLine
 10
498.031103
 20
307.6877329999999
 30
0.0
 11
517.3199030000001
 21
304.251454
 31
0.0
  0
LINE
  5
228
330
6F4
100
AcDbEntity
  8
PRO0
  6
Continuous
 62
     3
100
AcDbLine
 10
612.272403
 20
304.251454
 30
0.0
 11
522.317403
 21
304.251454
 31
0.0
  0
ARC
  5
229
330
6F4
100
AcDbEntity
  8
PRO0
  6
Continuous
 62
     3
100
AcDbCircle
 10
524.335778
 20
305.7507039999999
 30
0.0
 40
1.499249999999999
100
AcDbArc
 50
270.0
 51
0.0
  0
LINE
  5
22A
330
6F4
100
AcDbEntity
  8
PRO0
  6
Continuous
 62
     3
100
AcDbLine
 10
612.272403
 20
303.251954
 30
0.0
 11
522.317403
 21
303.251954
 31
0.0
  0
LINE
  5
22B
330
6F4
100
AcDbEntity
  8
PRO0
  6
Continuous
 62
     3
100
AcDbLine
 10
522.317403
 20
305.2509539999999
 30
0.0
 11
524.335778
 21
305.2509539999999
 31
0.0
  0
ARC
  5
22C
330
6F4
100
AcDbEntity
  8
PRO0
  6
Continuous
 62
     3
100
AcDbCircle
 10
524.335778
 20
305.7507039999999
 30
0.0
 40
0.4997500000000001
100
AcDbArc
 50
270.0
 51
0.0
  0
LINE
  5
22D
330
6F4
100
AcDbEntity
  8
PRO0
  6
Continuous
 62
     3
100
AcDbLine
 10
524.8355280000001
 20
306.0505539999999
 30
0.0
 11
524.8355280000001
 21
305.7507039999999
 31
0.0
  0
LINE
  5
22E
330
6F4
100
AcDbEntity
  8
PRO0
  6
Continuous
 62
     3
100
AcDbLine
 10
524.8355280000001
 20
306.0505539999999
 30
0.0
 11
525.8350280000001
 21
306.0505539999999
 31
0.0
  0
LINE
  5
22F
330
6F4
100
AcDbEntity
  8
PRO0
  6
Continuous
 62
     3
100
AcDbLine
 10
525.8350280000001
 20
306.0505539999999
 30
0.0
 11
525.8350280000001
 21
305.7507039999999
 31
0.0
  0
ARC
  5
230
330
6F4
100
AcDbEntity
  8
PRO0
  6
Continuous
 62
     3
100
AcDbCircle
 10
497.3299029999999
 20
303.751704
 30
0.0
 40
3.998
100
AcDbArc
 50
79.89879000000001
 51
283.040795
  0
ARC
  5
231
330
6F4
100
AcDbEntity
  8
PRO0
  6
Continuous
 62
     3
100
AcDbCircle
 10
497.3299029999999
 20
303.751704
 30
0.0
 40
4.997499999999999
100
AcDbArc
 50
79.89879000000001
 51
283.040795
  0
LINE
  5
23E
330
6F4
100
AcDbEntity
  8
PRO0
  6
Continuous
 62
     3
100
AcDbLine
 10
736.082244
 20
298.8830919999999
 30
0.0
 11
717.219903
 21
303.251954
 31
0.0
  0
LINE
  5
23F
330
6F4
100
AcDbEntity
  8
PRO0
  6
Continuous
 62
     3
100
AcDbLine
 10
717.2844759999999
 20
304.262958
 30
0.0
 11
736.307776
 21
299.8568139999999
 31
0.0
  0
LINE
  5
240
330
6F4
100
AcDbEntity
  8
PRO0
  6
Continuous
 62
     3
100
AcDbLine
 10
717.219903
 20
302.452354
 30
0.0
 11
712.2224029999999
 21
302.452354
 31
0.0
  0
LINE
  5
241
330
6F4
100
AcDbEntity
  8
PRO0
  6
Continuous
 62
     3
100
AcDbLine
 10
712.2224029999999
 20
302.452354
 30
0.0
 11
712.2224029999999
 21
306.0505539999999
 31
0.0
  0
LINE
  5
242
330
6F4
100
AcDbEntity
  8
PRO0
  6
Continuous
 62
     3
100
AcDbLine
 10
712.2224029999999
 20
306.0505539999999
 30
0.0
 11
717.219903
 21
306.0505539999999
 31
0.0
  0
LINE
  5
243
330
6F4
100
AcDbEntity
  8
PRO0
  6
Continuous
 62
     3
100
AcDbLine
 10
717.219903
 20
306.0505539999999
 30
0.0
 11
717.219903
 21
302.452354
 31
0.0
  0
LINE
  5
244
330
6F4
100
AcDbEntity
  8
PRO0
  6
Continuous
 62
     3
100
AcDbLine
 10
736.3334039999999
 20
308.6717399999999
 30
0.0
 11
717.219903
 21
305.266691
 31
0.0
  0
LINE
  5
245
330
6F4
100
AcDbEntity
  8
PRO0
  6
Continuous
 62
     3
100
AcDbLine
 10
736.5087039999999
 20
307.6877329999999
 30
0.0
 11
717.219903
 21
304.251454
 31
0.0
  0
LINE
  5
246
330
6F4
100
AcDbEntity
  8
PRO0
  6
Continuous
 62
     3
100
AcDbLine
 10
622.267403
 20
304.251454
 30
0.0
 11
712.2224029999999
 21
304.251454
 31
0.0
  0
ARC
  5
247
330
6F4
100
AcDbEntity
  8
PRO0
  6
Continuous
 62
     3
100
AcDbCircle
 10
710.2040279999999
 20
305.7507039999999
 30
0.0
 40
1.499249999999999
100
AcDbArc
 50
180.0
 51
270.0
  0
LINE
  5
248
330
6F4
100
AcDbEntity
  8
PRO0
  6
Continuous
 62
     3
100
AcDbLine
 10
622.267403
 20
303.251954
 30
0.0
 11
712.2224029999999
 21
303.251954
 31
0.0
  0
LINE
  5
249
330
6F4
100
AcDbEntity
  8
PRO0
  6
Continuous
 62
     3
100
AcDbLine
 10
712.2224029999999
 20
305.2509539999999
 30
0.0
 11
710.2040279999999
 21
305.2509539999999
 31
0.0
  0
ARC
  5
24A
330
6F4
100
AcDbEntity
  8
PRO0
  6
Continuous
 62
     3
100
AcDbCircle
 10
710.2040279999999
 20
305.7507039999999
 30
0.0
 40
0.4997500000000001
100
AcDbArc
 50
180.0
 51
270.0
  0
LINE
  5
24B
330
6F4
100
AcDbEntity
  8
PRO0
  6
Continuous
 62
     3
100
AcDbLine
 10
709.704278
 20
306.0505539999999
 30
0.0
 11
709.704278
 21
305.7507039999999
 31
0.0
  0
LINE
  5
24C
330
6F4
100
AcDbEntity
  8
PRO0
  6
Continuous
 62
     3
100
AcDbLine
 10
709.704278
 20
306.0505539999999
 30
0.0
 11
708.704778
 21
306.0505539999999
 31
0.0
  0
LINE
  5
24D
330
6F4
100
AcDbEntity
  8
PRO0
  6
Continuous
 62
     3
100
AcDbLine
 10
708.704778
 20
306.0505539999999
 30
0.0
 11
708.704778
 21
305.7507039999999
 31
0.0
  0
ARC
  5
24E
330
6F4
100
AcDbEntity
  8
PRO0
  6
Continuous
 62
     3
100
AcDbCircle
 10
737.2099030000001
 20
303.751704
 30
0.0
 40
3.998
100
AcDbArc
 50
256.959205
 51
110.010381
  0
ARC
  5
24F
330
6F4
100
AcDbEntity
  8
PRO0
  6
Continuous
 62
     3
100
AcDbCircle
 10
737.2099030000001
 20
303.751704
 30
0.0
 40
4.997499999999999
100
AcDbArc
 50
256.959205
 51
108.0215989999999
  0
TEXT
  5
262
330
6F4
100
AcDbEntity
  8
PRO0
  6
Continuous
 62
     2
100
AcDbText
 10
71.800064
 20
322.9886629999999
 30
0.0
 40
7.2
  1
（落下防止ワイヤー）
 41
0.8045399999999998
 51
-0.0002
 72
     1
 11
105.5907439999999
 21
322.9886629999999
 31
0.0
100
AcDbText
  0
TEXT
  5
263
330
6F4
100
AcDbEntity
  8
PRO0
  6
Continuous
 62
     2
100
AcDbText
 10
487.5217129999999
 20
322.9886629999999
 30
0.0
 40
7.2
  1
（落下防止ワイヤー）
 41
0.8045399999999998
 51
-0.0002
 72
     1
 11
521.3123929999999
 21
322.9886629999999
 31
0.0
100
AcDbText
  0
TEXT
  5
264
330
6F4
100
AcDbEntity
  8
PRO0
  6
Continuous
 62
     2
100
AcDbText
 10
214.9767149999999
 20
165.580364
 30
0.0
 40
7.2
  1
フィッシャープラグＳ８
 41
0.805211
 51
-0.0002
100
AcDbText
  0
TEXT
  5
265
330
6F4
100
AcDbEntity
  8
PRO0
  6
Continuous
 62
     2
100
AcDbText
 10
359.1509462
 20
165.580341
 30
0.0
 40
7.2
  1
〃
 41
0.73811
 51
-0.0002
 72
     1
 11
361.276703
 21
165.580341
 31
0.0
100
AcDbText
  0
TEXT
  5
266
330
6F4
100
AcDbEntity
  8
PRO0
  6
Continuous
 62
     2
100
AcDbText
 10
338.447876
 20
165.680328
 30
0.0
 40
7.2
  1
１２
 41
0.73811
 72
     2
 11
349.07666
 21
165.680328
 31
0.0
100
AcDbText
  0
TEXT
  5
267
330
6F4
100
AcDbEntity
  8
PRO0
  6
Continuous
 62
     2
100
AcDbText
 10
100.976715
 20
165.580364
 30
0.0
 40
7.2
  1
アンカープラグ
 41
0.801377
 51
-0.0002
100
AcDbText
  0
TEXT
  5
268
330
6F4
100
AcDbEntity
  8
PRO0
  6
Continuous
 62
     2
100
AcDbText
 10
100.976715
 20
153.580353
 30
0.0
 40
7.2
  1
ステンタッピンねじ
 41
0.80372
 51
-0.0002
100
AcDbText
  0
TEXT
  5
269
330
6F4
100
AcDbEntity
  8
PRO0
  6
Continuous
 62
     2
100
AcDbText
 10
214.9767379999999
 20
153.580353
 30
0.0
 40
7.2
  1
なべ５×５０
 41
0.799619
 51
-0.0002
100
AcDbText
  0
TEXT
  5
26A
330
6F4
100
AcDbEntity
  8
PRO0
  6
Continuous
 62
     2
100
AcDbText
 10
338.447876
 20
153.68034
 30
0.0
 40
7.2
  1
１２
 41
0.73811
 72
     2
 11
349.07666
 21
153.68034
 31
0.0
100
AcDbText
  0
TEXT
  5
26B
330
6F4
100
AcDbEntity
  8
PRO0
  6
Continuous
 62
     2
100
AcDbText
 10
100.976715
 20
129.580364
 30
0.0
 40
7.2
  1
ステンワッシャー
 41
0.8026949999999999
 51
-0.0002
100
AcDbText
  0
TEXT
  5
26C
330
6F4
100
AcDbEntity
  8
PRO0
  6
Continuous
 62
     2
100
AcDbText
 10
214.9767379999999
 20
129.580364
 30
0.0
 40
7.2
  1
１．５×１８×５．５穴
 41
0.805211
 51
-0.0002
100
AcDbText
  0
TEXT
  5
26D
330
6F4
100
AcDbEntity
  8
PRO0
  6
Continuous
 62
     2
100
AcDbText
 10
358.7966534
 20
129.580364
 30
0.0
 40
7.2
  1
枚
 41
0.73811
 51
-0.0002
 72
     1
 11
361.276703
 21
129.580364
 31
0.0
100
AcDbText
  0
TEXT
  5
26E
330
6F4
100
AcDbEntity
  8
PRO0
  6
Continuous
 62
     2
100
AcDbText
 10
338.447876
 20
129.680363
 30
0.0
 40
7.2
  1
１２
 41
0.73811
 72
     2
 11
349.07666
 21
129.680363
 31
0.0
100
AcDbText
  0
TEXT
  5
26F
330
6F4
100
AcDbEntity
  8
PRO0
  6
Continuous
 62
     2
100
AcDbText
 10
100.976715
 20
81.58035899999999
 30
0.0
 40
7.2
  1
ブチルテープ
 41
0.799619
 51
-0.0002
100
AcDbText
  0
TEXT
  5
270
330
6F4
100
AcDbEntity
  8
PRO0
  6
Continuous
 62
     2
100
AcDbText
 10
358.7966534
 20
81.58035899999999
 30
0.0
 40
7.2
  1
巻
 41
0.73811
 51
-0.0002
 72
     1
 11
361.276703
 21
81.58035899999999
 31
0.0
100
AcDbText
  0
TEXT
  5
271
330
6F4
100
AcDbEntity
  8
PRO0
  6
Continuous
 62
     2
100
AcDbText
 10
346.2423175999999
 20
81.680346
 30
0.0
 40
7.2
  1
１
 41
0.73811
 72
     2
 11
349.07666
 21
81.680346
 31
0.0
100
AcDbText
  0
TEXT
  5
272
330
6F4
100
AcDbEntity
  8
PRO0
  6
Continuous
 62
     2
100
AcDbText
 10
214.9767379999999
 20
81.58035899999999
 30
0.0
 40
7.2
  1
ｔ１．０×ｗ３０
 41
0.8026949999999999
 51
-0.0002
100
AcDbText
  0
TEXT
  5
273
330
6F4
100
AcDbEntity
  8
PRO0
  6
Continuous
 62
     2
100
AcDbText
 10
303.2078892
 20
81.58037
 30
0.0
 40
7.2
  1
６０００
 41
0.73811
 51
-0.0002
 72
     1
 11
315.076698
 21
81.58037
 31
0.0
100
AcDbText
  0
TEXT
  5
274
330
6F4
100
AcDbEntity
  8
PRO0
  6
Continuous
 62
     2
100
AcDbText
 10
214.9767149999999
 20
93.580353
 30
0.0
 40
7.2
  1
外ジョイント材（ステン）
 41
0.80577
 51
-0.0002
100
AcDbText
  0
TEXT
  5
275
330
6F4
100
AcDbEntity
  8
PRO0
  6
Continuous
 62
     2
100
AcDbText
 10
243.3789049999999
 20
235.1803669999999
 30
0.0
 40
7.2
  1
規　格
 41
0.7873180000000001
 51
-0.0002
 72
     1
 11
252.826721
 21
235.1803669999999
 31
0.0
100
AcDbText
  0
LINE
  5
276
330
6F4
100
AcDbEntity
  8
PRO0
  6
Continuous
 62
     1
100
AcDbLine
 10
368.4766989999999
 20
67.18034300000001
 30
0.0
 11
84.17669899999999
 21
67.18034300000001
 31
0.0
  0
TEXT
  5
277
330
6F4
100
AcDbEntity
  8
PRO0
  6
Continuous
 62
     2
100
AcDbText
 10
93.2783784
 20
117.635456
 30
0.0
 40
7.2
  1
９
 41
0.73811
 51
-0.0002
 72
     2
 11
97.52989200000001
 21
117.635456
 31
0.0
100
AcDbText
  0
TEXT
  5
278
330
6F4
100
AcDbEntity
  8
PRO0
  6
Continuous
 62
     2
100
AcDbText
 10
100.976715
 20
117.5803639999999
 30
0.0
 40
7.2
  1
ガスケットＳＨＦ
 41
0.8026949999999999
 51
-0.0002
100
AcDbText
  0
TEXT
  5
279
330
6F4
100
AcDbEntity
  8
PRO0
  6
Continuous
 62
     2
100
AcDbText
 10
358.7966534
 20
117.5803639999999
 30
0.0
 40
7.2
  1
本
 41
0.73811
 51
-0.0002
 72
     1
 11
361.276703
 21
117.5803639999999
 31
0.0
100
AcDbText
  0
TEXT
  5
27A
330
6F4
100
AcDbEntity
  8
PRO0
  6
Continuous
 62
     2
100
AcDbText
 10
344.8251464
 20
117.6803629999999
 30
0.0
 40
7.2
  1
２
 41
0.73811
 72
     2
 11
349.07666
 21
117.6803629999999
 31
0.0
100
AcDbText
  0
TEXT
  5
27B
330
6F4
100
AcDbEntity
  8
PRO0
  6
Continuous
 62
     2
100
AcDbText
 10
303.2078892
 20
117.5803639999999
 30
0.0
 40
7.2
  1
３０００
 41
0.73811
 51
-0.0002
 72
     1
 11
315.076698
 21
117.5803639999999
 31
0.0
100
AcDbText
  0
TEXT
  5
27C
330
6F4
100
AcDbEntity
  8
PRO0
  6
Continuous
 62
     2
100
AcDbText
 10
709.5859642
 20
177.580364
 30
0.0
 40
7.2
  1
３０００
 41
0.73811
 51
-0.0002
 72
     1
 11
721.454773
 21
177.580364
 31
0.0
100
AcDbText
  0
TEXT
  5
27D
330
6F4
100
AcDbEntity
  8
PRO0
  6
Continuous
 62
     2
100
AcDbText
 10
507.3549039999999
 20
153.580364
 30
0.0
 40
7.2
  1
アンカープラグ
 41
0.801377
 51
-0.0002
100
AcDbText
  0
TEXT
  5
27E
330
6F4
100
AcDbEntity
  8
PRO0
  6
Continuous
 62
     2
100
AcDbText
 10
621.354904
 20
153.580364
 30
0.0
 40
7.2
  1
フィッシャープラグＳ８
 41
0.805211
 51
-0.0002
100
AcDbText
  0
TEXT
  5
27F
330
6F4
100
AcDbEntity
  8
PRO0
  6
Continuous
 62
     2
100
AcDbText
 10
765.1747964
 20
153.580353
 30
0.0
 40
7.2
  1
本
 41
0.73811
 51
-0.0002
 72
     1
 11
767.654846
 21
153.580353
 31
0.0
100
AcDbText
  0
TEXT
  5
280
330
6F4
100
AcDbEntity
  8
PRO0
  6
Continuous
 62
     2
100
AcDbText
 10
745.82605
 20
153.68034
 30
0.0
 40
7.2
  1
１２
 41
0.73811
 72
     2
 11
756.4548339999999
 21
153.68034
 31
0.0
100
AcDbText
  0
TEXT
  5
281
330
6F4
100
AcDbEntity
  8
PRO0
  6
Continuous
 62
     2
100
AcDbText
 10
507.3549039999999
 20
141.5803529999999
 30
0.0
 40
7.2
  1
ステンタッピンねじ
 41
0.80372
 51
-0.0002
100
AcDbText
  0
TEXT
  5
282
330
6F4
100
AcDbEntity
  8
PRO0
  6
Continuous
 62
     2
100
AcDbText
 10
621.354813
 20
141.5803529999999
 30
0.0
 40
7.2
  1
なべ５×５０
 41
0.799619
 51
-0.0002
100
AcDbText
  0
TEXT
  5
283
330
6F4
100
AcDbEntity
  8
PRO0
  6
Continuous
 62
     2
100
AcDbText
 10
765.5290892
 20
141.5803529999999
 30
0.0
 40
7.2
  1
〃
 41
0.73811
 51
-0.0002
 72
     1
 11
767.654846
 21
141.5803529999999
 31
0.0
100
AcDbText
  0
TEXT
  5
284
330
6F4
100
AcDbEntity
  8
PRO0
  6
Continuous
 62
     2
100
AcDbText
 10
745.82605
 20
141.680351
 30
0.0
 40
7.2
  1
１２
 41
0.73811
 72
     2
 11
756.4548339999999
 21
141.680351
 31
0.0
100
AcDbText
  0
LINE
  5
285
330
6F4
100
AcDbEntity
  8
PRO0
  6
Continuous
 62
     2
100
AcDbLine
 10
774.8548659999999
 20
103.180343
 30
0.0
 11
490.554866
 21
103.180343
 31
0.0
  0
TEXT
  5
286
330
6F4
100
AcDbEntity
  8
PRO0
  6
Continuous
 62
     2
100
AcDbText
 10
493.6335437999999
 20
105.635456
 30
0.0
 40
7.2
  1
１０
 41
0.73811
 51
-0.0002
 72
     2
 11
503.9080349999999
 21
105.635456
 31
0.0
100
AcDbText
  0
TEXT
  5
287
330
6F4
100
AcDbEntity
  8
PRO0
  6
Continuous
 62
     2
100
AcDbText
 10
507.354858
 20
105.5803639999999
 30
0.0
 40
7.2
  1
ガスケットＳＨＦ
 41
0.8026949999999999
 51
-0.0002
100
AcDbText
  0
TEXT
  5
288
330
6F4
100
AcDbEntity
  8
PRO0
  6
Continuous
 62
     2
100
AcDbText
 10
765.1747964
 20
105.5803639999999
 30
0.0
 40
7.2
  1
本
 41
0.73811
 51
-0.0002
 72
     1
 11
767.654846
 21
105.5803639999999
 31
0.0
100
AcDbText
  0
TEXT
  5
289
330
6F4
100
AcDbEntity
  8
PRO0
  6
Continuous
 62
     2
100
AcDbText
 10
751.2032894
 20
105.6803629999999
 30
0.0
 40
7.2
  1
２
 41
0.73811
 72
     2
 11
755.4548029999999
 21
105.6803629999999
 31
0.0
100
AcDbText
  0
TEXT
  5
28A
330
6F4
100
AcDbEntity
  8
PRO0
  6
Continuous
 62
     2
100
AcDbText
 10
709.5860562
 20
105.5803639999999
 30
0.0
 40
7.2
  1
３０００
 41
0.73811
 51
-0.0002
 72
     1
 11
721.454865
 21
105.5803639999999
 31
0.0
100
AcDbText
  0
LINE
  5
28B
330
6F4
100
AcDbEntity
  8
PRO0
  6
Continuous
 62
     2
100
AcDbLine
 10
774.8548659999999
 20
79.18034300000001
 30
0.0
 11
490.554866
 21
79.18034300000001
 31
0.0
  0
TEXT
  5
28C
330
6F4
100
AcDbEntity
  8
PRO0
  6
Continuous
 62
     2
100
AcDbText
 10
507.3549039999999
 20
81.58035299999999
 30
0.0
 40
7.2
  1
センタープレートジョイントカバー
 41
0.807308
 51
-0.0002
100
AcDbText
  0
TEXT
  5
28D
330
6F4
100
AcDbEntity
  8
PRO0
  6
Continuous
 62
     2
100
AcDbText
 10
499.3022285999999
 20
81.635456
 30
0.0
 40
7.2
  1
※
 41
0.73811
 51
-0.0002
 72
     2
 11
503.9080349999999
 21
81.635456
 31
0.0
100
AcDbText
  0
TEXT
  5
28E
330
6F4
100
AcDbEntity
  8
PRO0
  6
Continuous
 62
     2
100
AcDbText
 10
753.6204916
 20
81.680351
 30
0.0
 40
7.2
  1
１
 41
0.73811
 72
     2
 11
756.4548339999999
 21
81.680351
 31
0.0
100
AcDbText
  0
TEXT
  5
28F
330
6F4
100
AcDbEntity
  8
PRO0
  6
Continuous
 62
     2
100
AcDbText
 10
621.354813
 20
81.58035299999999
 30
0.0
 40
7.2
  1
外ジョイント材（ステン）
 41
0.80577
 51
-0.0002
100
AcDbText
  0
TEXT
  5
290
330
6F4
100
AcDbEntity
  8
PRO0
  6
Continuous
 62
     2
100
AcDbText
 10
649.757003
 20
235.180389
 30
0.0
 40
7.2
  1
規　格
 41
0.7873180000000001
 51
-0.0002
 72
     1
 11
659.204819
 21
235.180389
 31
0.0
100
AcDbText
  0
TEXT
  5
291
330
6F4
100
AcDbEntity
  8
PRO0
  6
Continuous
 62
     3
100
AcDbText
 10
84.17670200000001
 20
53.180351
 30
0.0
 40
6.0
  1
注）　ガスケットＳＨＦはＳＳＨサイドプレート（Ｂ）Ｓにセット済み。
 41
0.73811
100
AcDbText
  0
TEXT
  5
292
330
6F4
100
AcDbEntity
  8
PRO0
  6
Continuous
 62
     3
100
AcDbText
 10
489.1766969999999
 20
41.180346
 30
0.0
 40
6.0
  1
注）　ガスケットＳＨＦはＳＳＨサイドプレート（Ｂ）Ｓセット済み。
 41
0.73811
100
AcDbText
  0
TEXT
  5
293
330
6F4
100
AcDbEntity
  8
PRO0
  6
Continuous
 62
     2
100
AcDbText
 10
765.5290892
 20
81.58035299999999
 30
0.0
 40
7.2
  1
〃
 41
0.73811
 51
-0.0002
 72
     1
 11
767.654846
 21
81.58035299999999
 31
0.0
100
AcDbText
  0
DIMENSION
  5
29F
330
6F4
100
AcDbEntity
  8
PRO0
  6
Continuous
 62
     3
100
AcDbDimension
  2
*D17
 10
111.3266979999999
 20
472.359783
 30
0.0
 11
119.3266979999999
 21
473.8597869999999
 31
0.0
 70
   128
 71
     5
 42
-1.0
100
AcDbAlignedDimension
 13
127.3266989999999
 23
447.609375
 33
0.0
 14
111.3266979999999
 24
450.1452659999999
 34
0.0
100
AcDbRotatedDimension
  0
DIMENSION
  5
2AB
330
6F4
100
AcDbEntity
  8
PRO0
  6
Continuous
 62
     3
100
AcDbDimension
  2
*D18
 10
341.3267
 20
472.359783
 30
0.0
 11
333.326729
 21
473.8597869999999
 31
0.0
 70
   128
 71
     5
 42
-1.0
100
AcDbAlignedDimension
 13
325.326699
 23
447.609375
 33
0.0
 14
341.3267
 24
450.1452659999999
 34
0.0
100
AcDbRotatedDimension
  0
DIMENSION
  5
2B7
330
6F4
100
AcDbEntity
  8
PRO0
  6
Continuous
 62
     3
100
AcDbDimension
  2
*D19
 10
341.3267
 20
500.5098299999999
 30
0.0
 11
226.3267359999999
 21
502.009781
 31
0.0
 70
   128
 71
     5
 42
-1.0
100
AcDbAlignedDimension
 13
111.3266979999999
 23
437.115508
 33
0.0
 14
341.3267
 24
437.115508
 34
0.0
100
AcDbRotatedDimension
  0
DIMENSION
  5
2C3
330
6F4
100
AcDbEntity
  8
PRO0
  6
Continuous
 62
     3
100
AcDbDimension
  2
*D20
 10
286.32656
 20
472.359783
 30
0.0
 11
226.326668
 21
473.8597869999999
 31
0.0
 70
   128
 71
     5
 42
-1.0
100
AcDbAlignedDimension
 13
166.3266989999999
 23
432.3155089999999
 33
0.0
 14
286.32656
 24
432.3155089999999
 34
0.0
100
AcDbRotatedDimension
  0
DIMENSION
  5
2CF
330
6F4
100
AcDbEntity
  8
PRO0
  6
Continuous
 62
     3
100
AcDbDimension
  2
*D21
 10
70.656063
 20
421.115508
 30
0.0
 11
69.15604
 21
430.9655
 31
0.0
 70
   128
 71
     5
 42
-1.0
100
AcDbAlignedDimension
 13
115.0266989999999
 23
440.815508
 33
0.0
 14
98.326699
 24
421.115508
 34
0.0
 50
90.0
100
AcDbRotatedDimension
  0
DIMENSION
  5
2DB
330
6F4
100
AcDbEntity
  8
PRO0
  6
Continuous
 62
     3
100
AcDbDimension
  2
*D22
 10
176.3266989999999
 20
352.8275069999999
 30
0.0
 11
161.326733
 21
354.3274839999999
 31
0.0
 70
   128
 71
     5
 42
-1.0
100
AcDbAlignedDimension
 13
146.3266989999999
 23
378.6039249999999
 33
0.0
 14
176.3266989999999
 24
363.115508
 34
0.0
100
AcDbRotatedDimension
  0
DIMENSION
  5
2E6
330
6F4
100
AcDbEntity
  8
PRO0
  6
Continuous
 62
     3
100
AcDbDimension
  2
*D23
 10
276.326699
 20
352.8275069999999
 30
0.0
 11
226.3267359999999
 21
354.3274839999999
 31
0.0
 70
   128
 71
     5
 42
-1.0
100
AcDbAlignedDimension
 13
176.3266989999999
 23
363.115508
 33
0.0
 14
276.326699
 24
363.115508
 34
0.0
100
AcDbRotatedDimension
  0
ARC
  5
2E7
330
6F4
100
AcDbEntity
  8
PRO0
  6
Continuous
 62
     2
100
AcDbCircle
 10
101.7654489999999
 20
425.9655079999999
 30
0.0
 40
12.26125
100
AcDbArc
 50
336.6994009999999
 51
23.30059899999999
  0
LINE
  5
2E8
330
6F4
100
AcDbEntity
  8
PRO0
  6
Continuous
 62
     2
100
AcDbLine
 10
157.2636209999999
 20
430.0893259999999
 30
0.0
 11
157.7707629999999
 21
429.001757
 31
0.0
  0
LINE
  5
2E9
330
6F4
100
AcDbEntity
  8
PRO0
  6
Continuous
 62
     2
100
AcDbLine
 10
157.7707629999999
 20
429.001757
 30
0.0
 11
166.59273
 21
433.115508
 31
0.0
  0
LINE
  5
2EA
330
6F4
100
AcDbEntity
  8
PRO0
  6
Continuous
 62
     2
100
AcDbLine
 10
157.2636209999999
 20
430.0893259999999
 30
0.0
 11
166.3266989999999
 21
434.3155089999999
 31
0.0
  0
LINE
  5
2EB
330
6F4
100
AcDbEntity
  8
PRO0
  6
Continuous
 62
     3
100
AcDbLine
 10
113.0302979999999
 20
421.115508
 30
0.0
 11
119.326699
 21
427.4118559999999
 31
0.0
  0
LINE
  5
2EC
330
6F4
100
AcDbEntity
  8
PRO0
  6
Continuous
 62
     3
100
AcDbLine
 10
115.148019
 20
421.115508
 30
0.0
 11
119.326699
 21
425.2941879999999
 31
0.0
  0
LINE
  5
2ED
330
6F4
100
AcDbEntity
  8
PRO0
  6
Continuous
 62
     3
100
AcDbLine
 10
117.2693399999999
 20
421.115508
 30
0.0
 11
119.326699
 21
423.1728669999999
 31
0.0
  0
LINE
  5
2EE
330
6F4
100
AcDbEntity
  8
PRO0
  6
Continuous
 62
     3
100
AcDbLine
 10
113.8828729999999
 20
424.093003
 30
0.0
 11
119.326699
 21
429.5368279999999
 31
0.0
  0
LINE
  5
2EF
330
6F4
100
AcDbEntity
  8
PRO0
  6
Continuous
 62
     3
100
AcDbLine
 10
114.020604
 20
426.352054
 30
0.0
 11
118.484058
 21
430.815508
 31
0.0
  0
LINE
  5
2F0
330
6F4
100
AcDbEntity
  8
PRO0
  6
Continuous
 62
     3
100
AcDbLine
 10
113.8096379999999
 20
428.2624089999999
 30
0.0
 11
116.3627379999999
 21
430.815508
 31
0.0
  0
LINE
  5
2F1
330
6F4
100
AcDbEntity
  8
PRO0
  6
Continuous
 62
     3
100
AcDbLine
 10
113.364978
 20
429.939068
 30
0.0
 11
114.241418
 21
430.815508
 31
0.0
  0
LINE
  5
2F2
330
6F4
100
AcDbEntity
  8
PRO0
  6
Continuous
 62
     2
100
AcDbLine
 10
166.59273
 20
433.115508
 30
0.0
 11
286.060529
 21
433.115508
 31
0.0
  0
LINE
  5
2F3
330
6F4
100
AcDbEntity
  8
PRO0
  6
Continuous
 62
     2
100
AcDbLine
 10
166.3266989999999
 20
434.3155089999999
 30
0.0
 11
286.3265359999999
 21
434.3155199999999
 31
0.0
  0
LINE
  5
2F4
330
6F4
100
AcDbEntity
  8
PRO0
  6
Continuous
 62
     2
100
AcDbLine
 10
96.32669900000001
 20
421.115508
 30
0.0
 11
176.3266989999999
 21
421.115508
 31
0.0
  0
LINE
  5
2F5
330
6F4
100
AcDbEntity
  8
PRO0
  6
Continuous
 62
     2
100
AcDbLine
 10
176.3266989999999
 20
361.115508
 30
0.0
 11
176.3266989999999
 21
421.115508
 31
0.0
  0
ARC
  5
2F6
330
6F4
100
AcDbEntity
  8
PRO0
  6
Continuous
 62
     2
100
AcDbCircle
 10
190.576784
 20
432.365508
 30
0.0
 40
0.75
100
AcDbArc
 50
0.0
 51
180.0
  0
ARC
  5
2F7
330
6F4
100
AcDbEntity
  8
PRO0
  6
Continuous
 62
     2
100
AcDbCircle
 10
190.826784
 20
422.615508
 30
0.0
 40
0.5
100
AcDbArc
 50
270.0
 51
0.0
  0
LINE
  5
2F8
330
6F4
100
AcDbEntity
  8
PRO0
  6
Continuous
 62
     2
100
AcDbLine
 10
191.3267839999999
 20
432.365508
 30
0.0
 11
191.3267839999999
 21
422.615508
 31
0.0
  0
LINE
  5
2F9
330
6F4
100
AcDbEntity
  8
PRO0
  6
Continuous
 62
     2
100
AcDbLine
 10
189.826784
 20
422.615508
 30
0.0
 11
189.826784
 21
422.115508
 31
0.0
  0
LINE
  5
2FA
330
6F4
100
AcDbEntity
  8
PRO0
  6
Continuous
 62
     2
100
AcDbLine
 10
189.826784
 20
432.365508
 30
0.0
 11
189.826784
 21
424.615508
 31
0.0
  0
ARC
  5
2FB
330
6F4
100
AcDbEntity
  8
PRO0
  6
Continuous
 62
     2
100
AcDbCircle
 10
113.8266989999999
 20
438.615508
 30
0.0
 40
1.0
100
AcDbArc
 50
90.0
 51
180.0
  0
LINE
  5
2FC
330
6F4
100
AcDbEntity
  8
PRO0
  6
Continuous
 62
     2
100
AcDbLine
 10
112.8266989999999
 20
438.115508
 30
0.0
 11
112.8266989999999
 21
438.615508
 31
0.0
  0
ARC
  5
2FD
330
6F4
100
AcDbEntity
  8
PRO0
  6
Continuous
 62
     2
100
AcDbCircle
 10
120.826699
 20
437.615508
 30
0.0
 40
0.5
100
AcDbArc
 50
0.0
 51
90.0
  0
LINE
  5
2FE
330
6F4
100
AcDbEntity
  8
PRO0
  6
Continuous
 62
     2
100
AcDbLine
 10
112.8266989999999
 20
438.115508
 30
0.0
 11
120.826699
 21
438.115508
 31
0.0
  0
LINE
  5
2FF
330
6F4
100
AcDbEntity
  8
PRO0
  6
Continuous
 62
     2
100
AcDbLine
 10
121.326699
 20
422.115508
 30
0.0
 11
121.326699
 21
437.615508
 31
0.0
  0
ARC
  5
300
330
6F4
100
AcDbEntity
  8
PRO0
  6
Continuous
 62
     2
100
AcDbCircle
 10
123.626699
 20
437.115508
 30
0.0
 40
0.5
100
AcDbArc
 50
90.0
 51
180.0
  0
LINE
  5
301
330
6F4
100
AcDbEntity
  8
PRO0
  6
Continuous
 62
     2
100
AcDbLine
 10
132.326699
 20
437.615508
 30
0.0
 11
123.626699
 21
437.615508
 31
0.0
  0
ARC
  5
302
330
6F4
100
AcDbEntity
  8
PRO0
  6
Continuous
 62
     2
100
AcDbCircle
 10
132.326699
 20
438.615508
 30
0.0
 40
1.0
100
AcDbArc
 50
270.0
 51
0.0
  0
LINE
  5
303
330
6F4
100
AcDbEntity
  8
PRO0
  6
Continuous
 62
     2
100
AcDbLine
 10
133.326699
 20
439.615508
 30
0.0
 11
133.326699
 21
438.615508
 31
0.0
  0
LINE
  5
304
330
6F4
100
AcDbEntity
  8
PRO0
  6
Continuous
 62
     2
100
AcDbLine
 10
123.1266989999999
 20
437.115508
 30
0.0
 11
123.1266989999999
 21
424.615508
 31
0.0
  0
ARC
  5
305
330
6F4
100
AcDbEntity
  8
PRO0
  6
Continuous
 62
     2
100
AcDbCircle
 10
123.626699
 20
424.615508
 30
0.0
 40
0.5
100
AcDbArc
 50
180.0
 51
270.0
  0
ARC
  5
306
330
6F4
100
AcDbEntity
  8
PRO0
  6
Continuous
 62
     2
100
AcDbCircle
 10
189.326784
 20
424.615508
 30
0.0
 40
0.5
100
AcDbArc
 50
270.0
 51
0.0
  0
LINE
  5
307
330
6F4
100
AcDbEntity
  8
PRO0
  6
Continuous
 62
     2
100
AcDbLine
 10
123.626699
 20
424.115508
 30
0.0
 11
189.326784
 21
424.115508
 31
0.0
  0
LINE
  5
308
330
6F4
100
AcDbEntity
  8
PRO0
  6
Continuous
 62
     2
100
AcDbLine
 10
121.326699
 20
422.115508
 30
0.0
 11
176.892718
 21
422.115508
 31
0.0
  0
LINE
  5
309
330
6F4
100
AcDbEntity
  8
PRO0
  6
Continuous
 62
     2
100
AcDbLine
 10
136.3266989999999
 20
422.615508
 30
0.0
 11
122.826699
 21
422.615508
 31
0.0
  0
LINE
  5
30A
330
6F4
100
AcDbEntity
  8
PRO0
  6
Continuous
 62
     2
100
AcDbLine
 10
136.3266989999999
 20
422.615508
 30
0.0
 11
136.3266989999999
 21
422.115508
 31
0.0
  0
LINE
  5
30B
330
6F4
100
AcDbEntity
  8
PRO0
  6
Continuous
 62
     2
100
AcDbLine
 10
156.3266989999999
 20
422.615508
 30
0.0
 11
156.3266989999999
 21
422.115508
 31
0.0
  0
LINE
  5
30C
330
6F4
100
AcDbEntity
  8
PRO0
  6
Continuous
 62
     2
100
AcDbLine
 10
156.3266989999999
 20
422.615508
 30
0.0
 11
172.3266989999999
 21
422.615508
 31
0.0
  0
LINE
  5
30D
330
6F4
100
AcDbEntity
  8
PRO0
  6
Continuous
 62
     2
100
AcDbLine
 10
173.8266989999999
 20
422.615508
 30
0.0
 11
189.826784
 21
422.615508
 31
0.0
  0
LINE
  5
30E
330
6F4
100
AcDbEntity
  8
PRO0
  6
Continuous
 62
     2
100
AcDbLine
 10
122.826699
 20
422.615508
 30
0.0
 11
122.826699
 21
422.115508
 31
0.0
  0
LINE
  5
30F
330
6F4
100
AcDbEntity
  8
PRO0
  6
Continuous
 62
     2
100
AcDbLine
 10
121.326699
 20
421.115508
 30
0.0
 11
121.326699
 21
422.115508
 31
0.0
  0
LINE
  5
310
330
6F4
100
AcDbEntity
  8
PRO0
  6
Continuous
 62
     2
100
AcDbLine
 10
146.3266989999999
 20
423.815508
 30
0.0
 11
146.626699
 21
424.115508
 31
0.0
  0
LINE
  5
311
330
6F4
100
AcDbEntity
  8
PRO0
  6
Continuous
 62
     2
100
AcDbLine
 10
112.8266989999999
 20
438.615508
 30
0.0
 11
112.8266989999999
 21
438.115508
 31
0.0
  0
LINE
  5
312
330
6F4
100
AcDbEntity
  8
PRO0
  6
PLINE3
 62
     3
100
AcDbLine
 10
226.326699
 20
441.115508
 30
0.0
 11
226.326699
 21
361.115508
 31
0.0
  0
LINE
  5
313
330
6F4
100
AcDbEntity
  8
PRO0
  6
Continuous
 62
     2
100
AcDbLine
 10
146.3266989999999
 20
423.815508
 30
0.0
 11
146.026699
 21
424.115508
 31
0.0
  0
LINE
  5
314
330
6F4
100
AcDbEntity
  8
PRO0
  6
Continuous
 62
     2
100
AcDbLine
 10
141.9545639999999
 20
427.077007
 30
0.0
 11
141.826699
 21
425.615508
 31
0.0
  0
LINE
  5
315
330
6F4
100
AcDbEntity
  8
PRO0
  6
Continuous
 62
     2
100
AcDbLine
 10
150.698834
 20
427.077007
 30
0.0
 11
150.8266989999999
 21
425.615508
 31
0.0
  0
ARC
  5
316
330
6F4
100
AcDbEntity
  8
PRO0
  6
Continuous
 62
     2
100
AcDbCircle
 10
146.3266989999999
 20
416.915508
 30
0.0
 40
12.0
100
AcDbArc
 50
74.50603199999999
 51
105.4939679999999
  0
ARC
  5
317
330
6F4
100
AcDbEntity
  8
PRO0
  6
Continuous
 62
     2
100
AcDbCircle
 10
143.548475
 20
426.937557
 30
0.0
 40
1.6
100
AcDbArc
 50
105.4939679999999
 51
175.0
  0
ARC
  5
318
330
6F4
100
AcDbEntity
  8
PRO0
  6
Continuous
 62
     2
100
AcDbCircle
 10
149.1049229999999
 20
426.937557
 30
0.0
 40
1.6
100
AcDbArc
 50
5.0
 51
74.50603199999999
  0
LINE
  5
319
330
6F4
100
AcDbEntity
  8
PRO0
  6
PLINE2
 62
     3
100
AcDbLine
 10
141.3266989999999
 20
421.115508
 30
0.0
 11
151.3266989999999
 21
421.115508
 31
0.0
  0
LINE
  5
31A
330
6F4
100
AcDbEntity
  8
PRO0
  6
Continuous
 62
     2
100
AcDbLine
 10
137.3266989999999
 20
425.615508
 30
0.0
 11
137.3266989999999
 21
424.115508
 31
0.0
  0
LINE
  5
31B
330
6F4
100
AcDbEntity
  8
PRO0
  6
Continuous
 62
     2
100
AcDbLine
 10
137.3266989999999
 20
425.615508
 30
0.0
 11
155.326699
 21
425.615508
 31
0.0
  0
LINE
  5
31C
330
6F4
100
AcDbEntity
  8
PRO0
  6
Continuous
 62
     2
100
AcDbLine
 10
155.326699
 20
425.615508
 30
0.0
 11
155.326699
 21
424.115508
 31
0.0
  0
LINE
  5
31D
330
6F4
100
AcDbEntity
  8
PRO0
  6
PLINE2
 62
     3
100
AcDbLine
 10
152.6453
 20
405.9731089999999
 30
0.0
 11
153.6376549999999
 21
412.776731
 31
0.0
  0
ARC
  5
31E
330
6F4
100
AcDbEntity
  8
PRO0
  6
PLINE2
 62
     3
100
AcDbCircle
 10
153.2418429999999
 20
412.8344629999999
 30
0.0
 40
0.4
100
AcDbArc
 50
351.7015339999999
 51
81.86989799999999
  0
LINE
  5
31F
330
6F4
100
AcDbEntity
  8
PRO0
  6
PLINE2
 62
     3
100
AcDbLine
 10
153.298412
 20
413.230443
 30
0.0
 11
153.101587
 21
413.2585609999999
 31
0.0
  0
ARC
  5
320
330
6F4
100
AcDbEntity
  8
PRO0
  6
PLINE2
 62
     3
100
AcDbCircle
 10
153.0450189999999
 20
412.8625809999999
 30
0.0
 40
0.4
100
AcDbArc
 50
81.86989799999999
 51
171.869898
  0
LINE
  5
321
330
6F4
100
AcDbEntity
  8
PRO0
  6
PLINE2
 62
     3
100
AcDbLine
 10
152.649039
 20
412.91915
 30
0.0
 11
151.705607
 21
406.315129
 31
0.0
  0
LINE
  5
322
330
6F4
100
AcDbEntity
  8
PRO0
  6
PLINE2
 62
     3
100
AcDbLine
 10
152.6453
 20
405.9731089999999
 30
0.0
 11
153.6376549999999
 21
412.776731
 31
0.0
  0
ARC
  5
323
330
6F4
100
AcDbEntity
  8
PRO0
  6
PLINE2
 62
     3
100
AcDbCircle
 10
153.2418429999999
 20
412.8344629999999
 30
0.0
 40
0.4
100
AcDbArc
 50
351.7015339999999
 51
81.86989799999999
  0
LINE
  5
324
330
6F4
100
AcDbEntity
  8
PRO0
  6
PLINE2
 62
     3
100
AcDbLine
 10
153.298412
 20
413.230443
 30
0.0
 11
153.101587
 21
413.2585609999999
 31
0.0
  0
ARC
  5
325
330
6F4
100
AcDbEntity
  8
PRO0
  6
PLINE2
 62
     3
100
AcDbCircle
 10
153.0450189999999
 20
412.8625809999999
 30
0.0
 40
0.4
100
AcDbArc
 50
81.86989799999999
 51
171.869898
  0
LINE
  5
326
330
6F4
100
AcDbEntity
  8
PRO0
  6
PLINE2
 62
     3
100
AcDbLine
 10
152.649039
 20
412.91915
 30
0.0
 11
151.705607
 21
406.315129
 31
0.0
  0
LINE
  5
327
330
6F4
100
AcDbEntity
  8
PRO0
  6
PLINE2
 62
     3
100
AcDbLine
 10
140.008098
 20
405.9731089999999
 30
0.0
 11
139.0157429999999
 21
412.776731
 31
0.0
  0
ARC
  5
328
330
6F4
100
AcDbEntity
  8
PRO0
  6
PLINE2
 62
     3
100
AcDbCircle
 10
139.4115549999999
 20
412.8344629999999
 30
0.0
 40
0.4
100
AcDbArc
 50
98.130102
 51
188.2984659999999
  0
LINE
  5
329
330
6F4
100
AcDbEntity
  8
PRO0
  6
PLINE2
 62
     3
100
AcDbLine
 10
139.354986
 20
413.230443
 30
0.0
 11
139.551811
 21
413.2585609999999
 31
0.0
  0
ARC
  5
32A
330
6F4
100
AcDbEntity
  8
PRO0
  6
PLINE2
 62
     3
100
AcDbCircle
 10
139.60838
 20
412.8625809999999
 30
0.0
 40
0.4
100
AcDbArc
 50
8.130102
 51
98.130102
  0
LINE
  5
32B
330
6F4
100
AcDbEntity
  8
PRO0
  6
PLINE2
 62
     3
100
AcDbLine
 10
140.004359
 20
412.91915
 30
0.0
 11
140.9477909999999
 21
406.315129
 31
0.0
  0
LINE
  5
32C
330
6F4
100
AcDbEntity
  8
PRO0
  6
PLINE2
 62
     3
100
AcDbLine
 10
142.3266989999999
 20
409.115508
 30
0.0
 11
142.3266989999999
 21
413.115508
 31
0.0
  0
LINE
  5
32D
330
6F4
100
AcDbEntity
  8
PRO0
  6
PLINE2
 62
     3
100
AcDbLine
 10
144.3089559999999
 20
384.155252
 30
0.0
 11
140.8137529999999
 21
384.338427
 31
0.0
  0
LINE
  5
32E
330
6F4
100
AcDbEntity
  8
PRO0
  6
PLINE2
 62
     3
100
AcDbLine
 10
140.8137529999999
 20
384.338427
 30
0.0
 11
142.7063399999999
 21
382.2364959999999
 31
0.0
  0
LINE
  5
32F
330
6F4
100
AcDbEntity
  8
PRO0
  6
PLINE2
 62
     3
100
AcDbLine
 10
142.7063399999999
 20
382.2364959999999
 30
0.0
 11
144.204284
 21
382.1579919999999
 31
0.0
  0
LINE
  5
330
330
6F4
100
AcDbEntity
  8
PRO0
  6
PLINE2
 62
     3
100
AcDbLine
 10
144.204284
 20
382.1579919999999
 30
0.0
 11
145.826699
 21
413.115508
 31
0.0
  0
LINE
  5
331
330
6F4
100
AcDbEntity
  8
PRO0
  6
PLINE2
 62
     3
100
AcDbLine
 10
150.326699
 20
409.115508
 30
0.0
 11
150.326699
 21
413.115508
 31
0.0
  0
LINE
  5
332
330
6F4
100
AcDbEntity
  8
PRO0
  6
PLINE2
 62
     3
100
AcDbLine
 10
148.3444419999999
 20
384.155252
 30
0.0
 11
151.839645
 21
384.338427
 31
0.0
  0
LINE
  5
333
330
6F4
100
AcDbEntity
  8
PRO0
  6
PLINE2
 62
     3
100
AcDbLine
 10
151.839645
 20
384.338427
 30
0.0
 11
149.947058
 21
382.2364959999999
 31
0.0
  0
LINE
  5
334
330
6F4
100
AcDbEntity
  8
PRO0
  6
PLINE2
 62
     3
100
AcDbLine
 10
149.947058
 20
382.2364959999999
 30
0.0
 11
148.4491139999999
 21
382.1579919999999
 31
0.0
  0
LINE
  5
335
330
6F4
100
AcDbEntity
  8
PRO0
  6
PLINE2
 62
     3
100
AcDbLine
 10
148.4491139999999
 20
382.1579919999999
 30
0.0
 11
146.8266989999999
 21
413.115508
 31
0.0
  0
LINE
  5
336
330
6F4
100
AcDbEntity
  8
PRO0
  6
PLINE2
 62
     3
100
AcDbLine
 10
142.767642
 20
401.315129
 30
0.0
 11
140.9477909999999
 21
406.315129
 31
0.0
  0
LINE
  5
337
330
6F4
100
AcDbEntity
  8
PRO0
  6
PLINE2
 62
     3
100
AcDbLine
 10
141.7034639999999
 20
401.315129
 30
0.0
 11
140.008098
 21
405.9731089999999
 31
0.0
  0
LINE
  5
338
330
6F4
100
AcDbEntity
  8
PRO0
  6
PLINE2
 62
     3
100
AcDbLine
 10
149.885756
 20
401.315129
 30
0.0
 11
151.705607
 21
406.315129
 31
0.0
  0
LINE
  5
339
330
6F4
100
AcDbEntity
  8
PRO0
  6
PLINE2
 62
     3
100
AcDbLine
 10
150.949934
 20
401.315129
 30
0.0
 11
152.6453
 21
405.9731089999999
 31
0.0
  0
LINE
  5
33A
330
6F4
100
AcDbEntity
  8
PRO0
  6
PLINE2
 62
     3
100
AcDbLine
 10
142.3266989999999
 20
409.115508
 30
0.0
 11
144.0670749999999
 21
408.200864
 31
0.0
  0
LINE
  5
33B
330
6F4
100
AcDbEntity
  8
PRO0
  6
PLINE2
 62
     3
100
AcDbLine
 10
144.4572549999999
 20
386.984952
 30
0.0
 11
146.3266989999999
 21
385.115508
 31
0.0
  0
LINE
  5
33C
330
6F4
100
AcDbEntity
  8
PRO0
  6
PLINE2
 62
     3
100
AcDbLine
 10
144.0670749999999
 20
408.200864
 30
0.0
 11
143.962403
 21
406.2036049999999
 31
0.0
  0
LINE
  5
33D
330
6F4
100
AcDbEntity
  8
PRO0
  6
PLINE2
 62
     3
100
AcDbLine
 10
143.962403
 20
406.2036049999999
 30
0.0
 11
141.9651439999999
 21
406.3082769999999
 31
0.0
  0
LINE
  5
33E
330
6F4
100
AcDbEntity
  8
PRO0
  6
PLINE2
 62
     3
100
AcDbLine
 10
141.9651439999999
 20
406.3082769999999
 30
0.0
 11
141.8604719999999
 21
404.311018
 31
0.0
  0
LINE
  5
33F
330
6F4
100
AcDbEntity
  8
PRO0
  6
PLINE2
 62
     3
100
AcDbLine
 10
141.8604719999999
 20
404.311018
 30
0.0
 11
143.805395
 21
403.2077169999999
 31
0.0
  0
LINE
  5
340
330
6F4
100
AcDbEntity
  8
PRO0
  6
PLINE2
 62
     3
100
AcDbLine
 10
143.805395
 20
403.2077169999999
 30
0.0
 11
143.700723
 21
401.2104579999999
 31
0.0
  0
LINE
  5
341
330
6F4
100
AcDbEntity
  8
PRO0
  6
PLINE2
 62
     3
100
AcDbLine
 10
143.700723
 20
401.2104579999999
 30
0.0
 11
141.7034639999999
 21
401.315129
 31
0.0
  0
LINE
  5
342
330
6F4
100
AcDbEntity
  8
PRO0
  6
PLINE2
 62
     3
100
AcDbLine
 10
141.7034639999999
 20
401.315129
 30
0.0
 11
141.598792
 21
399.31787
 31
0.0
  0
LINE
  5
343
330
6F4
100
AcDbEntity
  8
PRO0
  6
PLINE2
 62
     3
100
AcDbLine
 10
141.598792
 20
399.31787
 30
0.0
 11
143.543715
 21
398.2145689999999
 31
0.0
  0
LINE
  5
344
330
6F4
100
AcDbEntity
  8
PRO0
  6
PLINE2
 62
     3
100
AcDbLine
 10
143.543715
 20
398.2145689999999
 30
0.0
 11
143.439043
 21
396.21731
 31
0.0
  0
LINE
  5
345
330
6F4
100
AcDbEntity
  8
PRO0
  6
PLINE2
 62
     3
100
AcDbLine
 10
143.439043
 20
396.21731
 30
0.0
 11
141.441784
 21
396.3219819999999
 31
0.0
  0
LINE
  5
346
330
6F4
100
AcDbEntity
  8
PRO0
  6
PLINE2
 62
     3
100
AcDbLine
 10
141.441784
 20
396.3219819999999
 30
0.0
 11
141.337112
 21
394.324723
 31
0.0
  0
LINE
  5
347
330
6F4
100
AcDbEntity
  8
PRO0
  6
PLINE2
 62
     3
100
AcDbLine
 10
141.337112
 20
394.324723
 30
0.0
 11
143.282036
 21
393.221421
 31
0.0
  0
LINE
  5
348
330
6F4
100
AcDbEntity
  8
PRO0
  6
PLINE2
 62
     3
100
AcDbLine
 10
143.282036
 20
393.221421
 30
0.0
 11
143.1773639999999
 21
391.224162
 31
0.0
  0
LINE
  5
349
330
6F4
100
AcDbEntity
  8
PRO0
  6
PLINE2
 62
     3
100
AcDbLine
 10
143.1773639999999
 20
391.224162
 30
0.0
 11
141.180105
 21
391.3288339999999
 31
0.0
  0
LINE
  5
34A
330
6F4
100
AcDbEntity
  8
PRO0
  6
PLINE2
 62
     3
100
AcDbLine
 10
141.180105
 20
391.3288339999999
 30
0.0
 11
141.075433
 21
389.3315749999999
 31
0.0
  0
LINE
  5
34B
330
6F4
100
AcDbEntity
  8
PRO0
  6
PLINE2
 62
     3
100
AcDbLine
 10
141.075433
 20
389.3315749999999
 30
0.0
 11
143.0203559999999
 21
388.2282739999999
 31
0.0
  0
LINE
  5
34C
330
6F4
100
AcDbEntity
  8
PRO0
  6
PLINE2
 62
     3
100
AcDbLine
 10
143.0203559999999
 20
388.2282739999999
 30
0.0
 11
142.915684
 21
386.231015
 31
0.0
  0
LINE
  5
34D
330
6F4
100
AcDbEntity
  8
PRO0
  6
PLINE2
 62
     3
100
AcDbLine
 10
142.915684
 20
386.231015
 30
0.0
 11
140.918425
 21
386.335686
 31
0.0
  0
LINE
  5
34E
330
6F4
100
AcDbEntity
  8
PRO0
  6
PLINE2
 62
     3
100
AcDbLine
 10
140.918425
 20
386.335686
 30
0.0
 11
140.8137529999999
 21
384.338427
 31
0.0
  0
LINE
  5
34F
330
6F4
100
AcDbEntity
  8
PRO0
  6
PLINE2
 62
     3
100
AcDbLine
 10
150.326699
 20
409.115508
 30
0.0
 11
148.5863229999999
 21
408.200864
 31
0.0
  0
LINE
  5
350
330
6F4
100
AcDbEntity
  8
PRO0
  6
PLINE2
 62
     3
100
AcDbLine
 10
148.5863229999999
 20
408.200864
 30
0.0
 11
148.6909949999999
 21
406.2036049999999
 31
0.0
  0
LINE
  5
351
330
6F4
100
AcDbEntity
  8
PRO0
  6
PLINE2
 62
     3
100
AcDbLine
 10
148.6909949999999
 20
406.2036049999999
 30
0.0
 11
150.688254
 21
406.3082769999999
 31
0.0
  0
LINE
  5
352
330
6F4
100
AcDbEntity
  8
PRO0
  6
PLINE2
 62
     3
100
AcDbLine
 10
150.688254
 20
406.3082769999999
 30
0.0
 11
150.792926
 21
404.311018
 31
0.0
  0
LINE
  5
353
330
6F4
100
AcDbEntity
  8
PRO0
  6
PLINE2
 62
     3
100
AcDbLine
 10
150.792926
 20
404.311018
 30
0.0
 11
148.848003
 21
403.2077169999999
 31
0.0
  0
LINE
  5
354
330
6F4
100
AcDbEntity
  8
PRO0
  6
PLINE2
 62
     3
100
AcDbLine
 10
148.848003
 20
403.2077169999999
 30
0.0
 11
148.952675
 21
401.2104579999999
 31
0.0
  0
LINE
  5
355
330
6F4
100
AcDbEntity
  8
PRO0
  6
PLINE2
 62
     3
100
AcDbLine
 10
148.952675
 20
401.2104579999999
 30
0.0
 11
150.949934
 21
401.315129
 31
0.0
  0
LINE
  5
356
330
6F4
100
AcDbEntity
  8
PRO0
  6
PLINE2
 62
     3
100
AcDbLine
 10
150.949934
 20
401.315129
 30
0.0
 11
151.054606
 21
399.31787
 31
0.0
  0
LINE
  5
357
330
6F4
100
AcDbEntity
  8
PRO0
  6
PLINE2
 62
     3
100
AcDbLine
 10
151.054606
 20
399.31787
 30
0.0
 11
149.109683
 21
398.2145689999999
 31
0.0
  0
LINE
  5
358
330
6F4
100
AcDbEntity
  8
PRO0
  6
PLINE2
 62
     3
100
AcDbLine
 10
149.109683
 20
398.2145689999999
 30
0.0
 11
149.214355
 21
396.21731
 31
0.0
  0
LINE
  5
359
330
6F4
100
AcDbEntity
  8
PRO0
  6
PLINE2
 62
     3
100
AcDbLine
 10
149.214355
 20
396.21731
 30
0.0
 11
151.211614
 21
396.3219819999999
 31
0.0
  0
LINE
  5
35A
330
6F4
100
AcDbEntity
  8
PRO0
  6
PLINE2
 62
     3
100
AcDbLine
 10
151.211614
 20
396.3219819999999
 30
0.0
 11
151.316286
 21
394.324723
 31
0.0
  0
LINE
  5
35B
330
6F4
100
AcDbEntity
  8
PRO0
  6
PLINE2
 62
     3
100
AcDbLine
 10
151.316286
 20
394.324723
 30
0.0
 11
149.371362
 21
393.221421
 31
0.0
  0
LINE
  5
35C
330
6F4
100
AcDbEntity
  8
PRO0
  6
PLINE2
 62
     3
100
AcDbLine
 10
149.371362
 20
393.221421
 30
0.0
 11
149.476034
 21
391.224162
 31
0.0
  0
LINE
  5
35D
330
6F4
100
AcDbEntity
  8
PRO0
  6
PLINE2
 62
     3
100
AcDbLine
 10
149.476034
 20
391.224162
 30
0.0
 11
151.4732929999999
 21
391.3288339999999
 31
0.0
  0
LINE
  5
35E
330
6F4
100
AcDbEntity
  8
PRO0
  6
PLINE2
 62
     3
100
AcDbLine
 10
151.4732929999999
 20
391.3288339999999
 30
0.0
 11
151.5779649999999
 21
389.3315749999999
 31
0.0
  0
LINE
  5
35F
330
6F4
100
AcDbEntity
  8
PRO0
  6
PLINE2
 62
     3
100
AcDbLine
 10
151.5779649999999
 20
389.3315749999999
 30
0.0
 11
149.6330419999999
 21
388.2282739999999
 31
0.0
  0
LINE
  5
360
330
6F4
100
AcDbEntity
  8
PRO0
  6
PLINE2
 62
     3
100
AcDbLine
 10
149.6330419999999
 20
388.2282739999999
 30
0.0
 11
149.7377139999999
 21
386.231015
 31
0.0
  0
LINE
  5
361
330
6F4
100
AcDbEntity
  8
PRO0
  6
PLINE2
 62
     3
100
AcDbLine
 10
149.7377139999999
 20
386.231015
 30
0.0
 11
151.734973
 21
386.335686
 31
0.0
  0
LINE
  5
362
330
6F4
100
AcDbEntity
  8
PRO0
  6
PLINE2
 62
     3
100
AcDbLine
 10
151.734973
 20
386.335686
 30
0.0
 11
151.839645
 21
384.338427
 31
0.0
  0
LINE
  5
363
330
6F4
100
AcDbEntity
  8
PRO0
  6
PLINE2
 62
     3
100
AcDbLine
 10
145.826699
 20
413.115508
 30
0.0
 11
146.3266989999999
 21
413.115508
 31
0.0
  0
LINE
  5
364
330
6F4
100
AcDbEntity
  8
PRO0
  6
PLINE2
 62
     3
100
AcDbLine
 10
146.8266989999999
 20
413.115508
 30
0.0
 11
146.3266989999999
 21
413.115508
 31
0.0
  0
LINE
  5
365
330
6F4
100
AcDbEntity
  8
PRO0
  6
Continuous
 62
     2
100
AcDbLine
 10
137.3266989999999
 20
424.115508
 30
0.0
 11
155.326699
 21
424.115508
 31
0.0
  0
LINE
  5
366
330
6F4
100
AcDbEntity
  8
PRO0
  6
PLINE2
 62
     3
100
AcDbLine
 10
142.3266989999999
 20
421.115508
 30
0.0
 11
142.3266989999999
 21
413.115508
 31
0.0
  0
LINE
  5
367
330
6F4
100
AcDbEntity
  8
PRO0
  6
PLINE2
 62
     3
100
AcDbLine
 10
141.3266989999999
 20
421.115508
 30
0.0
 11
142.3266989999999
 21
416.115508
 31
0.0
  0
LINE
  5
368
330
6F4
100
AcDbEntity
  8
PRO0
  6
PLINE2
 62
     3
100
AcDbLine
 10
145.3266989999999
 20
421.115508
 30
0.0
 11
146.3266989999999
 21
416.115508
 31
0.0
  0
LINE
  5
369
330
6F4
100
AcDbEntity
  8
PRO0
  6
PLINE2
 62
     3
100
AcDbLine
 10
147.3266989999999
 20
421.115508
 30
0.0
 11
146.3266989999999
 21
416.115508
 31
0.0
  0
LINE
  5
36A
330
6F4
100
AcDbEntity
  8
PRO0
  6
PLINE2
 62
     3
100
AcDbLine
 10
146.3266989999999
 20
416.115508
 30
0.0
 11
146.3266989999999
 21
421.115508
 31
0.0
  0
LINE
  5
36B
330
6F4
100
AcDbEntity
  8
PRO0
  6
PLINE2
 62
     3
100
AcDbLine
 10
150.326699
 20
421.115508
 30
0.0
 11
150.326699
 21
413.115508
 31
0.0
  0
LINE
  5
36C
330
6F4
100
AcDbEntity
  8
PRO0
  6
PLINE2
 62
     3
100
AcDbLine
 10
151.3266989999999
 20
421.115508
 30
0.0
 11
150.326699
 21
416.115508
 31
0.0
  0
LINE
  5
36D
330
6F4
100
AcDbEntity
  8
PRO0
  6
PLINE3
 62
     3
100
AcDbLine
 10
146.3266989999999
 20
376.6039249999999
 30
0.0
 11
146.3266989999999
 21
433.131013
 31
0.0
  0
LINE
  5
36E
330
6F4
100
AcDbEntity
  8
PRO0
  6
PLINE2
 62
     3
100
AcDbLine
 10
148.196143
 20
386.984952
 30
0.0
 11
146.3266989999999
 21
385.115508
 31
0.0
  0
ARC
  5
36F
330
6F4
100
AcDbEntity
  8
PRO0
  6
Continuous
 62
     2
100
AcDbCircle
 10
127.3266989999999
 20
440.2321749999999
 30
0.0
 40
6.083333
100
AcDbArc
 50
53.831358
 51
126.1686419999999
  0
ARC
  5
370
330
6F4
100
AcDbEntity
  8
PRO0
  6
Continuous
 62
     2
100
AcDbCircle
 10
130.326699
 20
444.335865
 30
0.0
 40
1.0
100
AcDbArc
 50
0.0
 51
53.831358
  0
ARC
  5
371
330
6F4
100
AcDbEntity
  8
PRO0
  6
Continuous
 62
     2
100
AcDbCircle
 10
124.326699
 20
444.335865
 30
0.0
 40
1.0
100
AcDbArc
 50
126.1686419999999
 51
180.0
  0
LINE
  5
372
330
6F4
100
AcDbEntity
  8
PRO0
  6
Continuous
 62
     2
100
AcDbLine
 10
121.326699
 20
442.565508
 30
0.0
 11
121.326699
 21
441.815508
 31
0.0
  0
ARC
  5
373
330
6F4
100
AcDbEntity
  8
PRO0
  6
Continuous
 62
     2
100
AcDbCircle
 10
123.02845
 20
441.315537
 30
0.0
 40
2.0
100
AcDbArc
 50
89.999801
 51
125.0
  0
LINE
  5
374
330
6F4
100
AcDbEntity
  8
PRO0
  6
Continuous
 62
     2
100
AcDbLine
 10
121.326699
 20
442.565508
 30
0.0
 11
121.881297
 21
442.953841
 31
0.0
  0
LINE
  5
375
330
6F4
100
AcDbEntity
  8
PRO0
  6
Continuous
 62
     2
100
AcDbLine
 10
121.326699
 20
442.565508
 30
0.0
 11
133.326699
 21
442.565508
 31
0.0
  0
LINE
  5
376
330
6F4
100
AcDbEntity
  8
PRO0
  6
Continuous
 62
     2
100
AcDbLine
 10
121.326699
 20
441.815508
 30
0.0
 11
133.326699
 21
441.815508
 31
0.0
  0
LINE
  5
377
330
6F4
100
AcDbEntity
  8
PRO0
  6
Continuous
 62
     2
100
AcDbLine
 10
133.326699
 20
442.565508
 30
0.0
 11
133.326699
 21
441.815508
 31
0.0
  0
LINE
  5
378
330
6F4
100
AcDbEntity
  8
PRO0
  6
Continuous
 62
     2
100
AcDbLine
 10
122.326699
 20
441.815508
 30
0.0
 11
122.326699
 21
440.815508
 31
0.0
  0
LINE
  5
379
330
6F4
100
AcDbEntity
  8
PRO0
  6
Continuous
 62
     2
100
AcDbLine
 10
122.326699
 20
440.815508
 30
0.0
 11
132.326699
 21
440.815508
 31
0.0
  0
LINE
  5
37A
330
6F4
100
AcDbEntity
  8
PRO0
  6
Continuous
 62
     2
100
AcDbLine
 10
132.326699
 20
441.815508
 30
0.0
 11
132.326699
 21
440.815508
 31
0.0
  0
LINE
  5
37B
330
6F4
100
AcDbEntity
  8
PRO0
  6
Continuous
 62
     3
100
AcDbLine
 10
125.4480189999999
 20
440.815508
 30
0.0
 11
126.448019
 21
441.815508
 31
0.0
  0
LINE
  5
37C
330
6F4
100
AcDbEntity
  8
PRO0
  6
Continuous
 62
     3
100
AcDbLine
 10
127.5693399999999
 20
440.815508
 30
0.0
 11
128.5693399999999
 21
441.815508
 31
0.0
  0
LINE
  5
37D
330
6F4
100
AcDbEntity
  8
PRO0
  6
Continuous
 62
     3
100
AcDbLine
 10
129.69066
 20
440.815508
 30
0.0
 11
130.69066
 21
441.815508
 31
0.0
  0
LINE
  5
37E
330
6F4
100
AcDbEntity
  8
PRO0
  6
Continuous
 62
     3
100
AcDbLine
 10
131.81198
 20
440.815508
 30
0.0
 11
132.326699
 21
441.3302269999999
 31
0.0
  0
LINE
  5
37F
330
6F4
100
AcDbEntity
  8
PRO0
  6
Continuous
 62
     3
100
AcDbLine
 10
123.326699
 20
440.815508
 30
0.0
 11
124.326699
 21
441.815508
 31
0.0
  0
LINE
  5
380
330
6F4
100
AcDbEntity
  8
PRO0
  6
Continuous
 62
     3
100
AcDbLine
 10
127.3266989999999
 20
433.41434
 30
0.0
 11
128.9266989999999
 21
433.4613199999999
 31
0.0
  0
LINE
  5
381
330
6F4
100
AcDbEntity
  8
PRO0
  6
Continuous
 62
     3
100
AcDbLine
 10
127.3266989999999
 20
433.41434
 30
0.0
 11
128.9266989999999
 21
434.3081009999999
 31
0.0
  0
LINE
  5
382
330
6F4
100
AcDbEntity
  8
PRO0
  6
Continuous
 62
     3
100
AcDbLine
 10
125.7266989999999
 20
436.283542
 30
0.0
 11
125.7266989999999
 21
435.248841
 31
0.0
  0
LINE
  5
383
330
6F4
100
AcDbEntity
  8
PRO0
  6
Continuous
 62
     3
100
AcDbLine
 10
125.7266989999999
 20
434.402061
 30
0.0
 11
125.7266989999999
 21
428.239268
 31
0.0
  0
LINE
  5
384
330
6F4
100
AcDbEntity
  8
PRO0
  6
Continuous
 62
     3
100
AcDbLine
 10
128.9266989999999
 20
437.224283
 30
0.0
 11
128.9266989999999
 21
436.1895819999999
 31
0.0
  0
LINE
  5
385
330
6F4
100
AcDbEntity
  8
PRO0
  6
Continuous
 62
     3
100
AcDbLine
 10
128.9266989999999
 20
435.3428019999999
 30
0.0
 11
128.9266989999999
 21
434.3081009999999
 31
0.0
  0
LINE
  5
386
330
6F4
100
AcDbEntity
  8
PRO0
  6
Continuous
 62
     3
100
AcDbLine
 10
128.9266989999999
 20
433.4613199999999
 30
0.0
 11
128.9266989999999
 21
428.239268
 31
0.0
  0
LINE
  5
387
330
6F4
100
AcDbEntity
  8
PRO0
  6
Continuous
 62
     3
100
AcDbLine
 10
125.7266989999999
 20
438.1650239999999
 30
0.0
 11
125.7266989999999
 21
437.130323
 31
0.0
  0
LINE
  5
388
330
6F4
100
AcDbEntity
  8
PRO0
  6
Continuous
 62
     3
100
AcDbLine
 10
128.9266989999999
 20
438.071064
 30
0.0
 11
128.9266989999999
 21
439.105765
 31
0.0
  0
LINE
  5
389
330
6F4
100
AcDbEntity
  8
PRO0
  6
Continuous
 62
     3
100
AcDbLine
 10
125.7266989999999
 20
436.283542
 30
0.0
 11
128.9266989999999
 21
437.224283
 31
0.0
  0
LINE
  5
38A
330
6F4
100
AcDbEntity
  8
PRO0
  6
Continuous
 62
     3
100
AcDbLine
 10
125.7266989999999
 20
437.130323
 30
0.0
 11
128.9266989999999
 21
438.071064
 31
0.0
  0
LINE
  5
38B
330
6F4
100
AcDbEntity
  8
PRO0
  6
Continuous
 62
     3
100
AcDbLine
 10
124.9933659999999
 20
436.7069329999999
 30
0.0
 11
129.660032
 21
437.647673
 31
0.0
  0
LINE
  5
38C
330
6F4
100
AcDbEntity
  8
PRO0
  6
Continuous
 62
     3
100
AcDbLine
 10
124.9933659999999
 20
436.7069329999999
 30
0.0
 11
125.7266989999999
 21
436.283542
 31
0.0
  0
LINE
  5
38D
330
6F4
100
AcDbEntity
  8
PRO0
  6
Continuous
 62
     3
100
AcDbLine
 10
124.9933659999999
 20
436.7069329999999
 30
0.0
 11
125.7266989999999
 21
437.130323
 31
0.0
  0
LINE
  5
38E
330
6F4
100
AcDbEntity
  8
PRO0
  6
Continuous
 62
     3
100
AcDbLine
 10
129.660032
 20
437.647673
 30
0.0
 11
128.9266989999999
 21
437.224283
 31
0.0
  0
LINE
  5
38F
330
6F4
100
AcDbEntity
  8
PRO0
  6
Continuous
 62
     3
100
AcDbLine
 10
128.9266989999999
 20
438.071064
 30
0.0
 11
129.660032
 21
437.647673
 31
0.0
  0
LINE
  5
390
330
6F4
100
AcDbEntity
  8
PRO0
  6
Continuous
 62
     3
100
AcDbLine
 10
125.7266989999999
 20
440.046505
 30
0.0
 11
125.7266989999999
 21
439.0118039999999
 31
0.0
  0
LINE
  5
391
330
6F4
100
AcDbEntity
  8
PRO0
  6
Continuous
 62
     3
100
AcDbLine
 10
128.9266989999999
 20
440.815508
 30
0.0
 11
128.9266989999999
 21
439.952545
 31
0.0
  0
LINE
  5
392
330
6F4
100
AcDbEntity
  8
PRO0
  6
Continuous
 62
     3
100
AcDbLine
 10
125.7266989999999
 20
438.1650239999999
 30
0.0
 11
128.9266989999999
 21
439.105765
 31
0.0
  0
LINE
  5
393
330
6F4
100
AcDbEntity
  8
PRO0
  6
Continuous
 62
     3
100
AcDbLine
 10
125.7266989999999
 20
439.0118039999999
 30
0.0
 11
128.9266989999999
 21
439.952545
 31
0.0
  0
LINE
  5
394
330
6F4
100
AcDbEntity
  8
PRO0
  6
Continuous
 62
     3
100
AcDbLine
 10
124.9933659999999
 20
438.5884139999999
 30
0.0
 11
129.660032
 21
439.529155
 31
0.0
  0
LINE
  5
395
330
6F4
100
AcDbEntity
  8
PRO0
  6
Continuous
 62
     3
100
AcDbLine
 10
124.9933659999999
 20
438.5884139999999
 30
0.0
 11
125.7266989999999
 21
438.1650239999999
 31
0.0
  0
LINE
  5
396
330
6F4
100
AcDbEntity
  8
PRO0
  6
Continuous
 62
     3
100
AcDbLine
 10
124.9933659999999
 20
438.5884139999999
 30
0.0
 11
125.7266989999999
 21
439.0118039999999
 31
0.0
  0
LINE
  5
397
330
6F4
100
AcDbEntity
  8
PRO0
  6
Continuous
 62
     3
100
AcDbLine
 10
129.660032
 20
439.529155
 30
0.0
 11
128.9266989999999
 21
439.105765
 31
0.0
  0
LINE
  5
398
330
6F4
100
AcDbEntity
  8
PRO0
  6
Continuous
 62
     3
100
AcDbLine
 10
128.9266989999999
 20
439.952545
 30
0.0
 11
129.660032
 21
439.529155
 31
0.0
  0
LINE
  5
399
330
6F4
100
AcDbEntity
  8
PRO0
  6
Continuous
 62
     3
100
AcDbLine
 10
128.3425189999999
 20
440.815508
 30
0.0
 11
125.7266989999999
 21
440.046505
 31
0.0
  0
LINE
  5
39A
330
6F4
100
AcDbEntity
  8
PRO0
  6
Continuous
 62
     3
100
AcDbLine
 10
126.7078209999999
 20
440.815508
 30
0.0
 11
124.9933659999999
 21
440.469896
 31
0.0
  0
LINE
  5
39B
330
6F4
100
AcDbEntity
  8
PRO0
  6
Continuous
 62
     3
100
AcDbLine
 10
124.9933659999999
 20
440.469896
 30
0.0
 11
125.7266989999999
 21
440.046505
 31
0.0
  0
LINE
  5
39C
330
6F4
100
AcDbEntity
  8
PRO0
  6
Continuous
 62
     3
100
AcDbLine
 10
125.591984
 20
440.815508
 30
0.0
 11
124.9933659999999
 21
440.469896
 31
0.0
  0
LINE
  5
39D
330
6F4
100
AcDbEntity
  8
PRO0
  6
Continuous
 62
     2
100
AcDbLine
 10
123.326699
 20
444.335865
 30
0.0
 11
123.326699
 21
443.315508
 31
0.0
  0
ARC
  5
39E
330
6F4
100
AcDbEntity
  8
PRO0
  6
Continuous
 62
     2
100
AcDbCircle
 10
131.624991
 20
441.315508
 30
0.0
 40
2.0
100
AcDbArc
 50
55.0
 51
89.999801
  0
LINE
  5
39F
330
6F4
100
AcDbEntity
  8
PRO0
  6
Continuous
 62
     2
100
AcDbLine
 10
123.028456
 20
443.315537
 30
0.0
 11
131.624998
 21
443.315508
 31
0.0
  0
LINE
  5
3A0
330
6F4
100
AcDbEntity
  8
PRO0
  6
Continuous
 62
     2
100
AcDbLine
 10
131.326699
 20
444.335865
 30
0.0
 11
131.326699
 21
443.315508
 31
0.0
  0
LINE
  5
3A1
330
6F4
100
AcDbEntity
  8
PRO0
  6
PLINE3
 62
     3
100
AcDbLine
 10
127.3266989999999
 20
449.609375
 30
0.0
 11
127.3266989999999
 21
423.846422
 31
0.0
  0
LINE
  5
3A2
330
6F4
100
AcDbEntity
  8
PRO0
  6
Continuous
 62
     3
100
AcDbLine
 10
127.3266989999999
 20
429.351749
 30
0.0
 11
127.3266989999999
 21
427.315508
 31
0.0
  0
LINE
  5
3A3
330
6F4
100
AcDbEntity
  8
PRO0
  6
Continuous
 62
     3
100
AcDbLine
 10
128.9266989999999
 20
432.9155079999999
 30
0.0
 11
125.7267139999999
 21
432.9155079999999
 31
0.0
  0
LINE
  5
3A4
330
6F4
100
AcDbEntity
  8
PRO0
  6
Continuous
 62
     3
100
AcDbLine
 10
127.3266989999999
 20
427.315508
 30
0.0
 11
125.7266999999999
 21
428.239268
 31
0.0
  0
LINE
  5
3A5
330
6F4
100
AcDbEntity
  8
PRO0
  6
Continuous
 62
     3
100
AcDbLine
 10
127.3266989999999
 20
427.315508
 30
0.0
 11
128.9266989999999
 21
428.239268
 31
0.0
  0
ARC
  5
3A6
330
6F4
100
AcDbEntity
  8
PRO0
  6
Continuous
 62
     3
100
AcDbCircle
 10
127.351757
 20
427.5508379999999
 30
0.0
 40
1.764847999999999
100
AcDbArc
 50
90.813543
 51
157.040875
  0
ARC
  5
3A7
330
6F4
100
AcDbEntity
  8
PRO0
  6
Continuous
 62
     3
100
AcDbCircle
 10
133.359111
 20
428.789992
 30
0.0
 40
6.055258999999999
100
AcDbArc
 50
137.0538
 51
175.0212219999999
  0
LINE
  5
3A8
330
6F4
100
AcDbEntity
  8
PRO0
  6
Continuous
 62
     3
100
AcDbLine
 10
125.7266989999999
 20
434.402061
 30
0.0
 11
128.9266989999999
 21
435.3428019999999
 31
0.0
  0
LINE
  5
3A9
330
6F4
100
AcDbEntity
  8
PRO0
  6
Continuous
 62
     3
100
AcDbLine
 10
125.7266989999999
 20
435.248841
 30
0.0
 11
128.9266989999999
 21
436.1895819999999
 31
0.0
  0
LINE
  5
3AA
330
6F4
100
AcDbEntity
  8
PRO0
  6
Continuous
 62
     3
100
AcDbLine
 10
124.9933659999999
 20
434.825451
 30
0.0
 11
129.660032
 21
435.7661919999999
 31
0.0
  0
LINE
  5
3AB
330
6F4
100
AcDbEntity
  8
PRO0
  6
Continuous
 62
     3
100
AcDbLine
 10
124.9933659999999
 20
434.825451
 30
0.0
 11
125.7266989999999
 21
434.402061
 31
0.0
  0
LINE
  5
3AC
330
6F4
100
AcDbEntity
  8
PRO0
  6
Continuous
 62
     3
100
AcDbLine
 10
124.9933659999999
 20
434.825451
 30
0.0
 11
125.7266989999999
 21
435.248841
 31
0.0
  0
LINE
  5
3AD
330
6F4
100
AcDbEntity
  8
PRO0
  6
Continuous
 62
     3
100
AcDbLine
 10
129.660032
 20
435.7661919999999
 30
0.0
 11
128.9266989999999
 21
435.3428019999999
 31
0.0
  0
LINE
  5
3AE
330
6F4
100
AcDbEntity
  8
PRO0
  6
Continuous
 62
     3
100
AcDbLine
 10
128.9266989999999
 20
436.1895819999999
 30
0.0
 11
129.660032
 21
435.7661919999999
 31
0.0
  0
LINE
  5
3AF
330
6F4
100
AcDbEntity
  8
PRO0
  6
Continuous
 62
     3
100
AcDbLine
 10
127.3266989999999
 20
433.41434
 30
0.0
 11
129.660032
 21
433.8847099999999
 31
0.0
  0
LINE
  5
3B0
330
6F4
100
AcDbEntity
  8
PRO0
  6
Continuous
 62
     3
100
AcDbLine
 10
129.660032
 20
433.8847099999999
 30
0.0
 11
128.9266989999999
 21
433.4613199999999
 31
0.0
  0
LINE
  5
3B1
330
6F4
100
AcDbEntity
  8
PRO0
  6
Continuous
 62
     3
100
AcDbLine
 10
128.9266989999999
 20
434.3081009999999
 30
0.0
 11
129.660032
 21
433.8847099999999
 31
0.0
  0
LINE
  5
3B2
330
6F4
100
AcDbEntity
  8
PRO0
  6
Continuous
 62
     2
100
AcDbLine
 10
133.326699
 20
442.565508
 30
0.0
 11
132.7721439999999
 21
442.953812
 31
0.0
  0
LINE
  5
3B3
330
6F4
100
AcDbEntity
  8
PRO0
  6
PLINE2
 62
     3
100
AcDbLine
 10
138.8266989999999
 20
424.115508
 30
0.0
 11
138.8266989999999
 21
422.115508
 31
0.0
  0
LINE
  5
3B4
330
6F4
100
AcDbEntity
  8
PRO0
  6
PLINE2
 62
     3
100
AcDbLine
 10
153.8266989999999
 20
424.115508
 30
0.0
 11
153.8266989999999
 21
422.115508
 31
0.0
  0
LINE
  5
3B5
330
6F4
100
AcDbEntity
  8
PRO0
  6
Continuous
 62
     2
100
AcDbLine
 10
113.8266989999999
 20
439.615508
 30
0.0
 11
133.326699
 21
439.615508
 31
0.0
  0
LINE
  5
3B6
330
6F4
100
AcDbEntity
  8
PRO0
  6
Continuous
 62
     2
100
AcDbLine
 10
111.3266979999999
 20
439.115508
 30
0.0
 11
111.326699
 21
432.515508
 31
0.0
  0
ARC
  5
3B7
330
6F4
100
AcDbEntity
  8
PRO0
  6
Continuous
 62
     2
100
AcDbCircle
 10
113.0266989999999
 20
432.515508
 30
0.0
 40
1.7
100
AcDbArc
 50
180.0
 51
270.0
  0
LINE
  5
3B8
330
6F4
100
AcDbEntity
  8
PRO0
  6
Continuous
 62
     2
100
AcDbLine
 10
121.326699
 20
430.815508
 30
0.0
 11
113.0266989999999
 21
430.815508
 31
0.0
  0
LINE
  5
3B9
330
6F4
100
AcDbEntity
  8
PRO0
  6
Continuous
 62
     2
100
AcDbLine
 10
121.326699
 20
432.015508
 30
0.0
 11
113.026704
 21
432.015508
 31
0.0
  0
ARC
  5
3BA
330
6F4
100
AcDbEntity
  8
PRO0
  6
Continuous
 62
     2
100
AcDbCircle
 10
113.026698
 20
439.115508
 30
0.0
 40
1.7
100
AcDbArc
 50
90.0
 51
180.0
  0
LINE
  5
3BB
330
6F4
100
AcDbEntity
  8
PRO0
  6
Continuous
 62
     2
100
AcDbLine
 10
113.026698
 20
440.815508
 30
0.0
 11
189.626784
 21
440.815508
 31
0.0
  0
ARC
  5
3BC
330
6F4
100
AcDbEntity
  8
PRO0
  6
Continuous
 62
     2
100
AcDbCircle
 10
189.626784
 20
439.115508
 30
0.0
 40
1.7
100
AcDbArc
 50
0.0
 51
90.0
  0
LINE
  5
3BD
330
6F4
100
AcDbEntity
  8
PRO0
  6
Continuous
 62
     2
100
AcDbLine
 10
191.3267839999999
 20
434.315508
 30
0.0
 11
191.3267839999999
 21
439.115508
 31
0.0
  0
ARC
  5
3BE
330
6F4
100
AcDbEntity
  8
PRO0
  6
Continuous
 62
     2
100
AcDbCircle
 10
189.626784
 20
439.115508
 30
0.0
 40
0.5
100
AcDbArc
 50
0.0
 51
90.0
  0
LINE
  5
3BF
330
6F4
100
AcDbEntity
  8
PRO0
  6
Continuous
 62
     2
100
AcDbLine
 10
190.126784
 20
434.315508
 30
0.0
 11
190.126784
 21
439.115508
 31
0.0
  0
LINE
  5
3C0
330
6F4
100
AcDbEntity
  8
PRO0
  6
Continuous
 62
     2
100
AcDbLine
 10
113.0266989999999
 20
439.615508
 30
0.0
 11
189.626784
 21
439.615508
 31
0.0
  0
ARC
  5
3C1
330
6F4
100
AcDbEntity
  8
PRO0
  6
Continuous
 62
     2
100
AcDbCircle
 10
113.0266989999999
 20
439.115508
 30
0.0
 40
0.5
100
AcDbArc
 50
90.0
 51
180.0
  0
ARC
  5
3C2
330
6F4
100
AcDbEntity
  8
PRO0
  6
Continuous
 62
     2
100
AcDbCircle
 10
113.026704
 20
432.515508
 30
0.0
 40
0.5
100
AcDbArc
 50
180.0
 51
270.0
  0
LINE
  5
3C3
330
6F4
100
AcDbEntity
  8
PRO0
  6
Continuous
 62
     2
100
AcDbLine
 10
112.5266989999999
 20
439.115508
 30
0.0
 11
112.526704
 21
432.515508
 31
0.0
  0
LINE
  5
3C4
330
6F4
100
AcDbEntity
  8
PRO0
  6
Continuous
 62
     2
100
AcDbLine
 10
119.326699
 20
430.815508
 30
0.0
 11
119.326699
 21
421.115508
 31
0.0
  0
LINE
  5
3C5
330
6F4
100
AcDbEntity
  8
PRO0
  6
Continuous
 62
     2
100
AcDbLine
 10
119.326699
 20
430.815508
 30
0.0
 11
121.326699
 21
421.115508
 31
0.0
  0
LINE
  5
3C6
330
6F4
100
AcDbEntity
  8
PRO0
  6
Continuous
 62
     2
100
AcDbLine
 10
172.3266989999999
 20
422.615508
 30
0.0
 11
172.3266989999999
 21
422.115508
 31
0.0
  0
LINE
  5
3C7
330
6F4
100
AcDbEntity
  8
PRO0
  6
Continuous
 62
     2
100
AcDbLine
 10
173.8266989999999
 20
422.615508
 30
0.0
 11
173.8266989999999
 21
422.115508
 31
0.0
  0
LINE
  5
3C8
330
6F4
100
AcDbEntity
  8
PRO0
  6
Continuous
 62
     2
100
AcDbLine
 10
189.826784
 20
422.115508
 30
0.0
 11
190.826784
 21
422.115508
 31
0.0
  0
LINE
  5
3C9
330
6F4
100
AcDbEntity
  8
PRO0
  6
Continuous
 62
     2
100
AcDbLine
 10
176.3266989999999
 20
421.115508
 30
0.0
 11
200.605922
 21
380.6739529999999
 31
0.0
  0
LINE
  5
3CA
330
6F4
100
AcDbEntity
  8
PRO0
  6
Continuous
 62
     2
100
AcDbLine
 10
201.463281
 20
381.188672
 30
0.0
 11
176.892718
 21
422.115508
 31
0.0
  0
ARC
  5
3CB
330
6F4
100
AcDbEntity
  8
PRO0
  6
Continuous
 62
     2
100
AcDbCircle
 10
226.326699
 20
396.115508
 30
0.0
 40
29.0
100
AcDbArc
 50
210.9786399999999
 51
329.02136
  0
ARC
  5
3CC
330
6F4
100
AcDbEntity
  8
PRO0
  6
Continuous
 62
     2
100
AcDbCircle
 10
226.326699
 20
396.115508
 30
0.0
 40
30.0
100
AcDbArc
 50
210.9786399999999
 51
329.02136
  0
DIMENSION
  5
3D8
330
6F4
100
AcDbEntity
  8
PRO0
  6
Continuous
 62
     3
100
AcDbDimension
  2
*D24
 10
276.326699
 20
352.8275069999999
 30
0.0
 11
291.3267289999999
 21
354.3274839999999
 31
0.0
 70
   128
 71
     5
 42
-1.0
100
AcDbAlignedDimension
 13
306.326699
 23
378.6039249999999
 33
0.0
 14
276.326699
 24
363.115508
 34
0.0
100
AcDbRotatedDimension
  0
ARC
  5
3D9
330
6F4
100
AcDbEntity
  8
PRO0
  6
Continuous
 62
     2
100
AcDbCircle
 10
350.887949
 20
425.9655079999999
 30
0.0
 40
12.26125
100
AcDbArc
 50
156.6994009999999
 51
203.3005989999999
  0
LINE
  5
3DA
330
6F4
100
AcDbEntity
  8
PRO0
  6
Continuous
 62
     2
100
AcDbLine
 10
295.3897769999999
 20
430.0893259999999
 30
0.0
 11
294.882635
 21
429.001757
 31
0.0
  0
LINE
  5
3DB
330
6F4
100
AcDbEntity
  8
PRO0
  6
Continuous
 62
     2
100
AcDbLine
 10
294.882635
 20
429.001757
 30
0.0
 11
286.060668
 21
433.115508
 31
0.0
  0
LINE
  5
3DC
330
6F4
100
AcDbEntity
  8
PRO0
  6
Continuous
 62
     2
100
AcDbLine
 10
295.3897769999999
 20
430.0893259999999
 30
0.0
 11
286.3266989999999
 21
434.3155089999999
 31
0.0
  0
LINE
  5
3DD
330
6F4
100
AcDbEntity
  8
PRO0
  6
Continuous
 62
     3
100
AcDbLine
 10
333.326699
 20
421.179469
 30
0.0
 11
338.6379529999999
 21
426.490723
 31
0.0
  0
LINE
  5
3DE
330
6F4
100
AcDbEntity
  8
PRO0
  6
Continuous
 62
     3
100
AcDbLine
 10
335.3840579999999
 20
421.115508
 30
0.0
 11
338.720479
 21
424.451929
 31
0.0
  0
LINE
  5
3DF
330
6F4
100
AcDbEntity
  8
PRO0
  6
Continuous
 62
     3
100
AcDbLine
 10
337.5053789999999
 20
421.115508
 30
0.0
 11
339.0739529999999
 21
422.6840829999999
 31
0.0
  0
LINE
  5
3E0
330
6F4
100
AcDbEntity
  8
PRO0
  6
Continuous
 62
     3
100
AcDbLine
 10
333.326699
 20
423.3007889999999
 30
0.0
 11
339.002064
 21
428.976155
 31
0.0
  0
LINE
  5
3E1
330
6F4
100
AcDbEntity
  8
PRO0
  6
Continuous
 62
     3
100
AcDbLine
 10
333.326699
 20
425.4221099999999
 30
0.0
 11
338.720097
 21
430.815508
 31
0.0
  0
LINE
  5
3E2
330
6F4
100
AcDbEntity
  8
PRO0
  6
Continuous
 62
     3
100
AcDbLine
 10
333.326699
 20
427.5434299999999
 30
0.0
 11
336.5987769999999
 21
430.815508
 31
0.0
  0
LINE
  5
3E3
330
6F4
100
AcDbEntity
  8
PRO0
  6
Continuous
 62
     3
100
AcDbLine
 10
333.326699
 20
429.66475
 30
0.0
 11
334.4774569999999
 21
430.815508
 31
0.0
  0
LINE
  5
3E4
330
6F4
100
AcDbEntity
  8
PRO0
  6
Continuous
 62
     2
100
AcDbLine
 10
356.326699
 20
421.115508
 30
0.0
 11
276.326699
 21
421.115508
 31
0.0
  0
LINE
  5
3E5
330
6F4
100
AcDbEntity
  8
PRO0
  6
Continuous
 62
     2
100
AcDbLine
 10
276.326699
 20
361.115508
 30
0.0
 11
276.326699
 21
421.115508
 31
0.0
  0
ARC
  5
3E6
330
6F4
100
AcDbEntity
  8
PRO0
  6
Continuous
 62
     2
100
AcDbCircle
 10
262.076614
 20
432.365508
 30
0.0
 40
0.75
100
AcDbArc
 50
0.0
 51
180.0
  0
ARC
  5
3E7
330
6F4
100
AcDbEntity
  8
PRO0
  6
Continuous
 62
     2
100
AcDbCircle
 10
261.826614
 20
422.615508
 30
0.0
 40
0.5
100
AcDbArc
 50
180.0
 51
270.0
  0
LINE
  5
3E8
330
6F4
100
AcDbEntity
  8
PRO0
  6
Continuous
 62
     2
100
AcDbLine
 10
261.3266139999999
 20
432.365508
 30
0.0
 11
261.3266139999999
 21
422.615508
 31
0.0
  0
LINE
  5
3E9
330
6F4
100
AcDbEntity
  8
PRO0
  6
Continuous
 62
     2
100
AcDbLine
 10
262.826614
 20
422.615508
 30
0.0
 11
262.826614
 21
422.115508
 31
0.0
  0
LINE
  5
3EA
330
6F4
100
AcDbEntity
  8
PRO0
  6
Continuous
 62
     2
100
AcDbLine
 10
262.826614
 20
432.365508
 30
0.0
 11
262.826614
 21
424.615508
 31
0.0
  0
ARC
  5
3EB
330
6F4
100
AcDbEntity
  8
PRO0
  6
Continuous
 62
     2
100
AcDbCircle
 10
338.826699
 20
438.615508
 30
0.0
 40
1.0
100
AcDbArc
 50
0.0
 51
90.0
  0
LINE
  5
3EC
330
6F4
100
AcDbEntity
  8
PRO0
  6
Continuous
 62
     2
100
AcDbLine
 10
339.826699
 20
438.115508
 30
0.0
 11
339.826699
 21
438.615508
 31
0.0
  0
ARC
  5
3ED
330
6F4
100
AcDbEntity
  8
PRO0
  6
Continuous
 62
     2
100
AcDbCircle
 10
331.826699
 20
437.615508
 30
0.0
 40
0.5
100
AcDbArc
 50
90.0
 51
180.0
  0
LINE
  5
3EE
330
6F4
100
AcDbEntity
  8
PRO0
  6
Continuous
 62
     2
100
AcDbLine
 10
339.826699
 20
438.115508
 30
0.0
 11
331.826699
 21
438.115508
 31
0.0
  0
LINE
  5
3EF
330
6F4
100
AcDbEntity
  8
PRO0
  6
Continuous
 62
     2
100
AcDbLine
 10
331.326699
 20
422.115508
 30
0.0
 11
331.326699
 21
437.615508
 31
0.0
  0
ARC
  5
3F0
330
6F4
100
AcDbEntity
  8
PRO0
  6
Continuous
 62
     2
100
AcDbCircle
 10
329.026699
 20
437.115508
 30
0.0
 40
0.5
100
AcDbArc
 50
0.0
 51
90.0
  0
LINE
  5
3F1
330
6F4
100
AcDbEntity
  8
PRO0
  6
Continuous
 62
     2
100
AcDbLine
 10
320.326699
 20
437.615508
 30
0.0
 11
329.026699
 21
437.615508
 31
0.0
  0
ARC
  5
3F2
330
6F4
100
AcDbEntity
  8
PRO0
  6
Continuous
 62
     2
100
AcDbCircle
 10
320.326699
 20
438.615508
 30
0.0
 40
1.0
100
AcDbArc
 50
180.0
 51
270.0
  0
LINE
  5
3F3
330
6F4
100
AcDbEntity
  8
PRO0
  6
Continuous
 62
     2
100
AcDbLine
 10
319.326699
 20
439.615508
 30
0.0
 11
319.326699
 21
438.615508
 31
0.0
  0
LINE
  5
3F4
330
6F4
100
AcDbEntity
  8
PRO0
  6
Continuous
 62
     2
100
AcDbLine
 10
329.526699
 20
437.115508
 30
0.0
 11
329.526699
 21
424.615508
 31
0.0
  0
ARC
  5
3F5
330
6F4
100
AcDbEntity
  8
PRO0
  6
Continuous
 62
     2
100
AcDbCircle
 10
329.026699
 20
424.615508
 30
0.0
 40
0.5
100
AcDbArc
 50
270.0
 51
0.0
  0
ARC
  5
3F6
330
6F4
100
AcDbEntity
  8
PRO0
  6
Continuous
 62
     2
100
AcDbCircle
 10
263.3266139999999
 20
424.615508
 30
0.0
 40
0.5
100
AcDbArc
 50
180.0
 51
270.0
  0
LINE
  5
3F7
330
6F4
100
AcDbEntity
  8
PRO0
  6
Continuous
 62
     2
100
AcDbLine
 10
329.026699
 20
424.115508
 30
0.0
 11
263.3266139999999
 21
424.115508
 31
0.0
  0
LINE
  5
3F8
330
6F4
100
AcDbEntity
  8
PRO0
  6
Continuous
 62
     2
100
AcDbLine
 10
331.326699
 20
422.115508
 30
0.0
 11
275.561135
 21
422.115508
 31
0.0
  0
LINE
  5
3F9
330
6F4
100
AcDbEntity
  8
PRO0
  6
Continuous
 62
     2
100
AcDbLine
 10
316.326699
 20
422.615508
 30
0.0
 11
329.826699
 21
422.615508
 31
0.0
  0
LINE
  5
3FA
330
6F4
100
AcDbEntity
  8
PRO0
  6
Continuous
 62
     2
100
AcDbLine
 10
316.326699
 20
422.615508
 30
0.0
 11
316.326699
 21
422.115508
 31
0.0
  0
LINE
  5
3FB
330
6F4
100
AcDbEntity
  8
PRO0
  6
Continuous
 62
     2
100
AcDbLine
 10
296.326699
 20
422.615508
 30
0.0
 11
296.326699
 21
422.115508
 31
0.0
  0
LINE
  5
3FC
330
6F4
100
AcDbEntity
  8
PRO0
  6
Continuous
 62
     2
100
AcDbLine
 10
296.326699
 20
422.615508
 30
0.0
 11
280.326699
 21
422.615508
 31
0.0
  0
LINE
  5
3FD
330
6F4
100
AcDbEntity
  8
PRO0
  6
Continuous
 62
     2
100
AcDbLine
 10
278.826699
 20
422.615508
 30
0.0
 11
262.826614
 21
422.615508
 31
0.0
  0
LINE
  5
3FE
330
6F4
100
AcDbEntity
  8
PRO0
  6
Continuous
 62
     2
100
AcDbLine
 10
329.826699
 20
422.615508
 30
0.0
 11
329.826699
 21
422.115508
 31
0.0
  0
LINE
  5
3FF
330
6F4
100
AcDbEntity
  8
PRO0
  6
Continuous
 62
     2
100
AcDbLine
 10
331.326699
 20
421.115508
 30
0.0
 11
331.326699
 21
422.115508
 31
0.0
  0
LINE
  5
400
330
6F4
100
AcDbEntity
  8
PRO0
  6
Continuous
 62
     2
100
AcDbLine
 10
306.326699
 20
423.815508
 30
0.0
 11
306.026699
 21
424.115508
 31
0.0
  0
LINE
  5
401
330
6F4
100
AcDbEntity
  8
PRO0
  6
Continuous
 62
     2
100
AcDbLine
 10
339.826699
 20
438.615508
 30
0.0
 11
339.826699
 21
438.115508
 31
0.0
  0
LINE
  5
402
330
6F4
100
AcDbEntity
  8
PRO0
  6
Continuous
 62
     2
100
AcDbLine
 10
306.326699
 20
423.815508
 30
0.0
 11
306.626699
 21
424.115508
 31
0.0
  0
LINE
  5
403
330
6F4
100
AcDbEntity
  8
PRO0
  6
Continuous
 62
     2
100
AcDbLine
 10
310.698834
 20
427.077007
 30
0.0
 11
310.826699
 21
425.615508
 31
0.0
  0
LINE
  5
404
330
6F4
100
AcDbEntity
  8
PRO0
  6
Continuous
 62
     2
100
AcDbLine
 10
301.954564
 20
427.077007
 30
0.0
 11
301.826699
 21
425.615508
 31
0.0
  0
ARC
  5
405
330
6F4
100
AcDbEntity
  8
PRO0
  6
Continuous
 62
     2
100
AcDbCircle
 10
306.326699
 20
416.915508
 30
0.0
 40
12.0
100
AcDbArc
 50
74.50603199999999
 51
105.4939679999999
  0
ARC
  5
406
330
6F4
100
AcDbEntity
  8
PRO0
  6
Continuous
 62
     2
100
AcDbCircle
 10
309.1049229999999
 20
426.937557
 30
0.0
 40
1.6
100
AcDbArc
 50
5.0
 51
74.50603199999999
  0
ARC
  5
407
330
6F4
100
AcDbEntity
  8
PRO0
  6
Continuous
 62
     2
100
AcDbCircle
 10
303.548475
 20
426.937557
 30
0.0
 40
1.6
100
AcDbArc
 50
105.4939679999999
 51
175.0
  0
LINE
  5
408
330
6F4
100
AcDbEntity
  8
PRO0
  6
PLINE2
 62
     3
100
AcDbLine
 10
311.326699
 20
421.115508
 30
0.0
 11
301.326699
 21
421.115508
 31
0.0
  0
LINE
  5
409
330
6F4
100
AcDbEntity
  8
PRO0
  6
Continuous
 62
     2
100
AcDbLine
 10
315.326699
 20
425.615508
 30
0.0
 11
315.326699
 21
424.115508
 31
0.0
  0
LINE
  5
40A
330
6F4
100
AcDbEntity
  8
PRO0
  6
Continuous
 62
     2
100
AcDbLine
 10
315.326699
 20
425.615508
 30
0.0
 11
297.326699
 21
425.615508
 31
0.0
  0
LINE
  5
40B
330
6F4
100
AcDbEntity
  8
PRO0
  6
Continuous
 62
     2
100
AcDbLine
 10
297.326699
 20
425.615508
 30
0.0
 11
297.326699
 21
424.115508
 31
0.0
  0
LINE
  5
40C
330
6F4
100
AcDbEntity
  8
PRO0
  6
PLINE2
 62
     3
100
AcDbLine
 10
300.008098
 20
405.9731089999999
 30
0.0
 11
299.015743
 21
412.776731
 31
0.0
  0
ARC
  5
40D
330
6F4
100
AcDbEntity
  8
PRO0
  6
PLINE2
 62
     3
100
AcDbCircle
 10
299.4115549999999
 20
412.8344629999999
 30
0.0
 40
0.4
100
AcDbArc
 50
98.130102
 51
188.2984659999999
  0
LINE
  5
40E
330
6F4
100
AcDbEntity
  8
PRO0
  6
PLINE2
 62
     3
100
AcDbLine
 10
299.3549859999999
 20
413.230443
 30
0.0
 11
299.5518109999999
 21
413.2585609999999
 31
0.0
  0
ARC
  5
40F
330
6F4
100
AcDbEntity
  8
PRO0
  6
PLINE2
 62
     3
100
AcDbCircle
 10
299.6083799999999
 20
412.8625809999999
 30
0.0
 40
0.4
100
AcDbArc
 50
8.130102
 51
98.130102
  0
LINE
  5
410
330
6F4
100
AcDbEntity
  8
PRO0
  6
PLINE2
 62
     3
100
AcDbLine
 10
300.0043589999999
 20
412.91915
 30
0.0
 11
300.947791
 21
406.315129
 31
0.0
  0
LINE
  5
411
330
6F4
100
AcDbEntity
  8
PRO0
  6
PLINE2
 62
     3
100
AcDbLine
 10
300.008098
 20
405.9731089999999
 30
0.0
 11
299.015743
 21
412.776731
 31
0.0
  0
ARC
  5
412
330
6F4
100
AcDbEntity
  8
PRO0
  6
PLINE2
 62
     3
100
AcDbCircle
 10
299.4115549999999
 20
412.8344629999999
 30
0.0
 40
0.4
100
AcDbArc
 50
98.130102
 51
188.2984659999999
  0
LINE
  5
413
330
6F4
100
AcDbEntity
  8
PRO0
  6
PLINE2
 62
     3
100
AcDbLine
 10
299.3549859999999
 20
413.230443
 30
0.0
 11
299.5518109999999
 21
413.2585609999999
 31
0.0
  0
ARC
  5
414
330
6F4
100
AcDbEntity
  8
PRO0
  6
PLINE2
 62
     3
100
AcDbCircle
 10
299.6083799999999
 20
412.8625809999999
 30
0.0
 40
0.4
100
AcDbArc
 50
8.130102
 51
98.130102
  0
LINE
  5
415
330
6F4
100
AcDbEntity
  8
PRO0
  6
PLINE2
 62
     3
100
AcDbLine
 10
300.0043589999999
 20
412.91915
 30
0.0
 11
300.947791
 21
406.315129
 31
0.0
  0
LINE
  5
416
330
6F4
100
AcDbEntity
  8
PRO0
  6
PLINE2
 62
     3
100
AcDbLine
 10
312.6453
 20
405.9731089999999
 30
0.0
 11
313.637655
 21
412.776731
 31
0.0
  0
ARC
  5
417
330
6F4
100
AcDbEntity
  8
PRO0
  6
PLINE2
 62
     3
100
AcDbCircle
 10
313.241843
 20
412.8344629999999
 30
0.0
 40
0.4
100
AcDbArc
 50
351.7015339999999
 51
81.86989799999999
  0
LINE
  5
418
330
6F4
100
AcDbEntity
  8
PRO0
  6
PLINE2
 62
     3
100
AcDbLine
 10
313.2984119999999
 20
413.230443
 30
0.0
 11
313.101587
 21
413.2585609999999
 31
0.0
  0
ARC
  5
419
330
6F4
100
AcDbEntity
  8
PRO0
  6
PLINE2
 62
     3
100
AcDbCircle
 10
313.0450189999999
 20
412.8625809999999
 30
0.0
 40
0.4
100
AcDbArc
 50
81.86989799999999
 51
171.869898
  0
LINE
  5
41A
330
6F4
100
AcDbEntity
  8
PRO0
  6
PLINE2
 62
     3
100
AcDbLine
 10
312.649039
 20
412.91915
 30
0.0
 11
311.7056069999999
 21
406.315129
 31
0.0
  0
LINE
  5
41B
330
6F4
100
AcDbEntity
  8
PRO0
  6
PLINE2
 62
     3
100
AcDbLine
 10
310.326699
 20
409.115508
 30
0.0
 11
310.326699
 21
413.115508
 31
0.0
  0
LINE
  5
41C
330
6F4
100
AcDbEntity
  8
PRO0
  6
PLINE2
 62
     3
100
AcDbLine
 10
308.344442
 20
384.155252
 30
0.0
 11
311.839645
 21
384.338427
 31
0.0
  0
LINE
  5
41D
330
6F4
100
AcDbEntity
  8
PRO0
  6
PLINE2
 62
     3
100
AcDbLine
 10
311.839645
 20
384.338427
 30
0.0
 11
309.947058
 21
382.2364959999999
 31
0.0
  0
LINE
  5
41E
330
6F4
100
AcDbEntity
  8
PRO0
  6
PLINE2
 62
     3
100
AcDbLine
 10
309.947058
 20
382.2364959999999
 30
0.0
 11
308.449114
 21
382.1579919999999
 31
0.0
  0
LINE
  5
41F
330
6F4
100
AcDbEntity
  8
PRO0
  6
PLINE2
 62
     3
100
AcDbLine
 10
308.449114
 20
382.1579919999999
 30
0.0
 11
306.826699
 21
413.115508
 31
0.0
  0
LINE
  5
420
330
6F4
100
AcDbEntity
  8
PRO0
  6
PLINE2
 62
     3
100
AcDbLine
 10
302.326699
 20
409.115508
 30
0.0
 11
302.326699
 21
413.115508
 31
0.0
  0
LINE
  5
421
330
6F4
100
AcDbEntity
  8
PRO0
  6
PLINE2
 62
     3
100
AcDbLine
 10
304.308956
 20
384.155252
 30
0.0
 11
300.8137529999999
 21
384.338427
 31
0.0
  0
LINE
  5
422
330
6F4
100
AcDbEntity
  8
PRO0
  6
PLINE2
 62
     3
100
AcDbLine
 10
300.8137529999999
 20
384.338427
 30
0.0
 11
302.70634
 21
382.2364959999999
 31
0.0
  0
LINE
  5
423
330
6F4
100
AcDbEntity
  8
PRO0
  6
PLINE2
 62
     3
100
AcDbLine
 10
302.70634
 20
382.2364959999999
 30
0.0
 11
304.2042839999999
 21
382.1579919999999
 31
0.0
  0
LINE
  5
424
330
6F4
100
AcDbEntity
  8
PRO0
  6
PLINE2
 62
     3
100
AcDbLine
 10
304.2042839999999
 20
382.1579919999999
 30
0.0
 11
305.826699
 21
413.115508
 31
0.0
  0
LINE
  5
425
330
6F4
100
AcDbEntity
  8
PRO0
  6
PLINE2
 62
     3
100
AcDbLine
 10
309.885756
 20
401.315129
 30
0.0
 11
311.7056069999999
 21
406.315129
 31
0.0
  0
LINE
  5
426
330
6F4
100
AcDbEntity
  8
PRO0
  6
PLINE2
 62
     3
100
AcDbLine
 10
310.9499339999999
 20
401.315129
 30
0.0
 11
312.6453
 21
405.9731089999999
 31
0.0
  0
LINE
  5
427
330
6F4
100
AcDbEntity
  8
PRO0
  6
PLINE2
 62
     3
100
AcDbLine
 10
302.7676419999999
 20
401.315129
 30
0.0
 11
300.947791
 21
406.315129
 31
0.0
  0
LINE
  5
428
330
6F4
100
AcDbEntity
  8
PRO0
  6
PLINE2
 62
     3
100
AcDbLine
 10
301.7034639999999
 20
401.315129
 30
0.0
 11
300.008098
 21
405.9731089999999
 31
0.0
  0
LINE
  5
429
330
6F4
100
AcDbEntity
  8
PRO0
  6
PLINE2
 62
     3
100
AcDbLine
 10
310.326699
 20
409.115508
 30
0.0
 11
308.586323
 21
408.200864
 31
0.0
  0
LINE
  5
42A
330
6F4
100
AcDbEntity
  8
PRO0
  6
PLINE2
 62
     3
100
AcDbLine
 10
308.196143
 20
386.984952
 30
0.0
 11
306.326699
 21
385.115508
 31
0.0
  0
LINE
  5
42B
330
6F4
100
AcDbEntity
  8
PRO0
  6
PLINE2
 62
     3
100
AcDbLine
 10
308.586323
 20
408.200864
 30
0.0
 11
308.690995
 21
406.2036049999999
 31
0.0
  0
LINE
  5
42C
330
6F4
100
AcDbEntity
  8
PRO0
  6
PLINE2
 62
     3
100
AcDbLine
 10
308.690995
 20
406.2036049999999
 30
0.0
 11
310.688254
 21
406.3082769999999
 31
0.0
  0
LINE
  5
42D
330
6F4
100
AcDbEntity
  8
PRO0
  6
PLINE2
 62
     3
100
AcDbLine
 10
310.688254
 20
406.3082769999999
 30
0.0
 11
310.7929259999999
 21
404.311018
 31
0.0
  0
LINE
  5
42E
330
6F4
100
AcDbEntity
  8
PRO0
  6
PLINE2
 62
     3
100
AcDbLine
 10
310.7929259999999
 20
404.311018
 30
0.0
 11
308.8480029999999
 21
403.2077169999999
 31
0.0
  0
LINE
  5
42F
330
6F4
100
AcDbEntity
  8
PRO0
  6
PLINE2
 62
     3
100
AcDbLine
 10
308.8480029999999
 20
403.2077169999999
 30
0.0
 11
308.952675
 21
401.2104579999999
 31
0.0
  0
LINE
  5
430
330
6F4
100
AcDbEntity
  8
PRO0
  6
PLINE2
 62
     3
100
AcDbLine
 10
308.952675
 20
401.2104579999999
 30
0.0
 11
310.9499339999999
 21
401.315129
 31
0.0
  0
LINE
  5
431
330
6F4
100
AcDbEntity
  8
PRO0
  6
PLINE2
 62
     3
100
AcDbLine
 10
310.9499339999999
 20
401.315129
 30
0.0
 11
311.0546059999999
 21
399.31787
 31
0.0
  0
LINE
  5
432
330
6F4
100
AcDbEntity
  8
PRO0
  6
PLINE2
 62
     3
100
AcDbLine
 10
311.0546059999999
 20
399.31787
 30
0.0
 11
309.109683
 21
398.2145689999999
 31
0.0
  0
LINE
  5
433
330
6F4
100
AcDbEntity
  8
PRO0
  6
PLINE2
 62
     3
100
AcDbLine
 10
309.109683
 20
398.2145689999999
 30
0.0
 11
309.2143549999999
 21
396.21731
 31
0.0
  0
LINE
  5
434
330
6F4
100
AcDbEntity
  8
PRO0
  6
PLINE2
 62
     3
100
AcDbLine
 10
309.2143549999999
 20
396.21731
 30
0.0
 11
311.2116139999999
 21
396.3219819999999
 31
0.0
  0
LINE
  5
435
330
6F4
100
AcDbEntity
  8
PRO0
  6
PLINE2
 62
     3
100
AcDbLine
 10
311.2116139999999
 20
396.3219819999999
 30
0.0
 11
311.316286
 21
394.324723
 31
0.0
  0
LINE
  5
436
330
6F4
100
AcDbEntity
  8
PRO0
  6
PLINE2
 62
     3
100
AcDbLine
 10
311.316286
 20
394.324723
 30
0.0
 11
309.371362
 21
393.221421
 31
0.0
  0
LINE
  5
437
330
6F4
100
AcDbEntity
  8
PRO0
  6
PLINE2
 62
     3
100
AcDbLine
 10
309.371362
 20
393.221421
 30
0.0
 11
309.4760339999999
 21
391.224162
 31
0.0
  0
LINE
  5
438
330
6F4
100
AcDbEntity
  8
PRO0
  6
PLINE2
 62
     3
100
AcDbLine
 10
309.4760339999999
 20
391.224162
 30
0.0
 11
311.473293
 21
391.3288339999999
 31
0.0
  0
LINE
  5
439
330
6F4
100
AcDbEntity
  8
PRO0
  6
PLINE2
 62
     3
100
AcDbLine
 10
311.473293
 20
391.3288339999999
 30
0.0
 11
311.577965
 21
389.3315749999999
 31
0.0
  0
LINE
  5
43A
330
6F4
100
AcDbEntity
  8
PRO0
  6
PLINE2
 62
     3
100
AcDbLine
 10
311.577965
 20
389.3315749999999
 30
0.0
 11
309.633042
 21
388.2282739999999
 31
0.0
  0
LINE
  5
43B
330
6F4
100
AcDbEntity
  8
PRO0
  6
PLINE2
 62
     3
100
AcDbLine
 10
309.633042
 20
388.2282739999999
 30
0.0
 11
309.737714
 21
386.231015
 31
0.0
  0
LINE
  5
43C
330
6F4
100
AcDbEntity
  8
PRO0
  6
PLINE2
 62
     3
100
AcDbLine
 10
309.737714
 20
386.231015
 30
0.0
 11
311.734973
 21
386.335686
 31
0.0
  0
LINE
  5
43D
330
6F4
100
AcDbEntity
  8
PRO0
  6
PLINE2
 62
     3
100
AcDbLine
 10
311.734973
 20
386.335686
 30
0.0
 11
311.839645
 21
384.338427
 31
0.0
  0
LINE
  5
43E
330
6F4
100
AcDbEntity
  8
PRO0
  6
PLINE2
 62
     3
100
AcDbLine
 10
302.326699
 20
409.115508
 30
0.0
 11
304.0670749999999
 21
408.200864
 31
0.0
  0
LINE
  5
43F
330
6F4
100
AcDbEntity
  8
PRO0
  6
PLINE2
 62
     3
100
AcDbLine
 10
304.0670749999999
 20
408.200864
 30
0.0
 11
303.962403
 21
406.2036049999999
 31
0.0
  0
LINE
  5
440
330
6F4
100
AcDbEntity
  8
PRO0
  6
PLINE2
 62
     3
100
AcDbLine
 10
303.962403
 20
406.2036049999999
 30
0.0
 11
301.965144
 21
406.3082769999999
 31
0.0
  0
LINE
  5
441
330
6F4
100
AcDbEntity
  8
PRO0
  6
PLINE2
 62
     3
100
AcDbLine
 10
301.965144
 20
406.3082769999999
 30
0.0
 11
301.860472
 21
404.311018
 31
0.0
  0
LINE
  5
442
330
6F4
100
AcDbEntity
  8
PRO0
  6
PLINE2
 62
     3
100
AcDbLine
 10
301.860472
 20
404.311018
 30
0.0
 11
303.805395
 21
403.2077169999999
 31
0.0
  0
LINE
  5
443
330
6F4
100
AcDbEntity
  8
PRO0
  6
PLINE2
 62
     3
100
AcDbLine
 10
303.805395
 20
403.2077169999999
 30
0.0
 11
303.7007229999999
 21
401.2104579999999
 31
0.0
  0
LINE
  5
444
330
6F4
100
AcDbEntity
  8
PRO0
  6
PLINE2
 62
     3
100
AcDbLine
 10
303.7007229999999
 20
401.2104579999999
 30
0.0
 11
301.7034639999999
 21
401.315129
 31
0.0
  0
LINE
  5
445
330
6F4
100
AcDbEntity
  8
PRO0
  6
PLINE2
 62
     3
100
AcDbLine
 10
301.7034639999999
 20
401.315129
 30
0.0
 11
301.598792
 21
399.31787
 31
0.0
  0
LINE
  5
446
330
6F4
100
AcDbEntity
  8
PRO0
  6
PLINE2
 62
     3
100
AcDbLine
 10
301.598792
 20
399.31787
 30
0.0
 11
303.5437149999999
 21
398.2145689999999
 31
0.0
  0
LINE
  5
447
330
6F4
100
AcDbEntity
  8
PRO0
  6
PLINE2
 62
     3
100
AcDbLine
 10
303.5437149999999
 20
398.2145689999999
 30
0.0
 11
303.439043
 21
396.21731
 31
0.0
  0
LINE
  5
448
330
6F4
100
AcDbEntity
  8
PRO0
  6
PLINE2
 62
     3
100
AcDbLine
 10
303.439043
 20
396.21731
 30
0.0
 11
301.441784
 21
396.3219819999999
 31
0.0
  0
LINE
  5
449
330
6F4
100
AcDbEntity
  8
PRO0
  6
PLINE2
 62
     3
100
AcDbLine
 10
301.441784
 20
396.3219819999999
 30
0.0
 11
301.3371119999999
 21
394.324723
 31
0.0
  0
LINE
  5
44A
330
6F4
100
AcDbEntity
  8
PRO0
  6
PLINE2
 62
     3
100
AcDbLine
 10
301.3371119999999
 20
394.324723
 30
0.0
 11
303.282036
 21
393.221421
 31
0.0
  0
LINE
  5
44B
330
6F4
100
AcDbEntity
  8
PRO0
  6
PLINE2
 62
     3
100
AcDbLine
 10
303.282036
 20
393.221421
 30
0.0
 11
303.177364
 21
391.224162
 31
0.0
  0
LINE
  5
44C
330
6F4
100
AcDbEntity
  8
PRO0
  6
PLINE2
 62
     3
100
AcDbLine
 10
303.177364
 20
391.224162
 30
0.0
 11
301.1801049999999
 21
391.3288339999999
 31
0.0
  0
LINE
  5
44D
330
6F4
100
AcDbEntity
  8
PRO0
  6
PLINE2
 62
     3
100
AcDbLine
 10
301.1801049999999
 20
391.3288339999999
 30
0.0
 11
301.075433
 21
389.3315749999999
 31
0.0
  0
LINE
  5
44E
330
6F4
100
AcDbEntity
  8
PRO0
  6
PLINE2
 62
     3
100
AcDbLine
 10
301.075433
 20
389.3315749999999
 30
0.0
 11
303.0203559999999
 21
388.2282739999999
 31
0.0
  0
LINE
  5
44F
330
6F4
100
AcDbEntity
  8
PRO0
  6
PLINE2
 62
     3
100
AcDbLine
 10
303.0203559999999
 20
388.2282739999999
 30
0.0
 11
302.915684
 21
386.231015
 31
0.0
  0
LINE
  5
450
330
6F4
100
AcDbEntity
  8
PRO0
  6
PLINE2
 62
     3
100
AcDbLine
 10
302.915684
 20
386.231015
 30
0.0
 11
300.918425
 21
386.335686
 31
0.0
  0
LINE
  5
451
330
6F4
100
AcDbEntity
  8
PRO0
  6
PLINE2
 62
     3
100
AcDbLine
 10
300.918425
 20
386.335686
 30
0.0
 11
300.8137529999999
 21
384.338427
 31
0.0
  0
LINE
  5
452
330
6F4
100
AcDbEntity
  8
PRO0
  6
PLINE2
 62
     3
100
AcDbLine
 10
306.826699
 20
413.115508
 30
0.0
 11
306.326699
 21
413.115508
 31
0.0
  0
LINE
  5
453
330
6F4
100
AcDbEntity
  8
PRO0
  6
PLINE2
 62
     3
100
AcDbLine
 10
305.826699
 20
413.115508
 30
0.0
 11
306.326699
 21
413.115508
 31
0.0
  0
LINE
  5
454
330
6F4
100
AcDbEntity
  8
PRO0
  6
Continuous
 62
     2
100
AcDbLine
 10
315.326699
 20
424.115508
 30
0.0
 11
297.326699
 21
424.115508
 31
0.0
  0
LINE
  5
455
330
6F4
100
AcDbEntity
  8
PRO0
  6
PLINE2
 62
     3
100
AcDbLine
 10
310.326699
 20
421.115508
 30
0.0
 11
310.326699
 21
413.115508
 31
0.0
  0
LINE
  5
456
330
6F4
100
AcDbEntity
  8
PRO0
  6
PLINE2
 62
     3
100
AcDbLine
 10
311.326699
 20
421.115508
 30
0.0
 11
310.326699
 21
416.115508
 31
0.0
  0
LINE
  5
457
330
6F4
100
AcDbEntity
  8
PRO0
  6
PLINE2
 62
     3
100
AcDbLine
 10
307.326699
 20
421.115508
 30
0.0
 11
306.326699
 21
416.115508
 31
0.0
  0
LINE
  5
458
330
6F4
100
AcDbEntity
  8
PRO0
  6
PLINE2
 62
     3
100
AcDbLine
 10
305.326699
 20
421.115508
 30
0.0
 11
306.326699
 21
416.115508
 31
0.0
  0
LINE
  5
459
330
6F4
100
AcDbEntity
  8
PRO0
  6
PLINE2
 62
     3
100
AcDbLine
 10
306.326699
 20
416.115508
 30
0.0
 11
306.326699
 21
421.115508
 31
0.0
  0
LINE
  5
45A
330
6F4
100
AcDbEntity
  8
PRO0
  6
PLINE2
 62
     3
100
AcDbLine
 10
302.326699
 20
421.115508
 30
0.0
 11
302.326699
 21
413.115508
 31
0.0
  0
LINE
  5
45B
330
6F4
100
AcDbEntity
  8
PRO0
  6
PLINE2
 62
     3
100
AcDbLine
 10
301.326699
 20
421.115508
 30
0.0
 11
302.326699
 21
416.115508
 31
0.0
  0
LINE
  5
45C
330
6F4
100
AcDbEntity
  8
PRO0
  6
PLINE3
 62
     3
100
AcDbLine
 10
306.326699
 20
376.6039249999999
 30
0.0
 11
306.326699
 21
433.131013
 31
0.0
  0
LINE
  5
45D
330
6F4
100
AcDbEntity
  8
PRO0
  6
PLINE2
 62
     3
100
AcDbLine
 10
304.4572549999999
 20
386.984952
 30
0.0
 11
306.326699
 21
385.115508
 31
0.0
  0
ARC
  5
45E
330
6F4
100
AcDbEntity
  8
PRO0
  6
Continuous
 62
     2
100
AcDbCircle
 10
325.326699
 20
440.2321749999999
 30
0.0
 40
6.083333
100
AcDbArc
 50
53.831358
 51
126.1686419999999
  0
ARC
  5
45F
330
6F4
100
AcDbEntity
  8
PRO0
  6
Continuous
 62
     2
100
AcDbCircle
 10
322.326699
 20
444.335865
 30
0.0
 40
1.0
100
AcDbArc
 50
126.1686419999999
 51
180.0
  0
ARC
  5
460
330
6F4
100
AcDbEntity
  8
PRO0
  6
Continuous
 62
     2
100
AcDbCircle
 10
328.326699
 20
444.335865
 30
0.0
 40
1.0
100
AcDbArc
 50
0.0
 51
53.831358
  0
LINE
  5
461
330
6F4
100
AcDbEntity
  8
PRO0
  6
Continuous
 62
     2
100
AcDbLine
 10
331.326699
 20
442.565508
 30
0.0
 11
331.326699
 21
441.815508
 31
0.0
  0
ARC
  5
462
330
6F4
100
AcDbEntity
  8
PRO0
  6
Continuous
 62
     2
100
AcDbCircle
 10
329.624949
 20
441.315537
 30
0.0
 40
2.0
100
AcDbArc
 50
55.0
 51
90.00019899999999
  0
LINE
  5
463
330
6F4
100
AcDbEntity
  8
PRO0
  6
Continuous
 62
     2
100
AcDbLine
 10
331.326699
 20
442.565508
 30
0.0
 11
330.7721009999999
 21
442.953841
 31
0.0
  0
LINE
  5
464
330
6F4
100
AcDbEntity
  8
PRO0
  6
Continuous
 62
     2
100
AcDbLine
 10
331.326699
 20
442.565508
 30
0.0
 11
319.326699
 21
442.565508
 31
0.0
  0
LINE
  5
465
330
6F4
100
AcDbEntity
  8
PRO0
  6
Continuous
 62
     2
100
AcDbLine
 10
331.326699
 20
441.815508
 30
0.0
 11
319.326699
 21
441.815508
 31
0.0
  0
LINE
  5
466
330
6F4
100
AcDbEntity
  8
PRO0
  6
Continuous
 62
     2
100
AcDbLine
 10
319.326699
 20
442.565508
 30
0.0
 11
319.326699
 21
441.815508
 31
0.0
  0
LINE
  5
467
330
6F4
100
AcDbEntity
  8
PRO0
  6
Continuous
 62
     2
100
AcDbLine
 10
330.326699
 20
441.815508
 30
0.0
 11
330.326699
 21
440.815508
 31
0.0
  0
LINE
  5
468
330
6F4
100
AcDbEntity
  8
PRO0
  6
Continuous
 62
     2
100
AcDbLine
 10
330.326699
 20
440.815508
 30
0.0
 11
320.326699
 21
440.815508
 31
0.0
  0
LINE
  5
469
330
6F4
100
AcDbEntity
  8
PRO0
  6
Continuous
 62
     2
100
AcDbLine
 10
320.326699
 20
441.815508
 30
0.0
 11
320.326699
 21
440.815508
 31
0.0
  0
LINE
  5
46A
330
6F4
100
AcDbEntity
  8
PRO0
  6
Continuous
 62
     3
100
AcDbLine
 10
325.084058
 20
440.815508
 30
0.0
 11
326.084058
 21
441.815508
 31
0.0
  0
LINE
  5
46B
330
6F4
100
AcDbEntity
  8
PRO0
  6
Continuous
 62
     3
100
AcDbLine
 10
327.205379
 20
440.815508
 30
0.0
 11
328.2053789999999
 21
441.815508
 31
0.0
  0
LINE
  5
46C
330
6F4
100
AcDbEntity
  8
PRO0
  6
Continuous
 62
     3
100
AcDbLine
 10
329.329837
 20
440.815508
 30
0.0
 11
330.326699
 21
441.812363
 31
0.0
  0
LINE
  5
46D
330
6F4
100
AcDbEntity
  8
PRO0
  6
Continuous
 62
     3
100
AcDbLine
 10
322.962738
 20
440.815508
 30
0.0
 11
323.9627379999999
 21
441.815508
 31
0.0
  0
LINE
  5
46E
330
6F4
100
AcDbEntity
  8
PRO0
  6
Continuous
 62
     3
100
AcDbLine
 10
320.841418
 20
440.815508
 30
0.0
 11
321.841418
 21
441.815508
 31
0.0
  0
LINE
  5
46F
330
6F4
100
AcDbEntity
  8
PRO0
  6
Continuous
 62
     3
100
AcDbLine
 10
325.326699
 20
433.41434
 30
0.0
 11
323.726699
 21
433.4613199999999
 31
0.0
  0
LINE
  5
470
330
6F4
100
AcDbEntity
  8
PRO0
  6
Continuous
 62
     3
100
AcDbLine
 10
325.326699
 20
433.41434
 30
0.0
 11
323.726699
 21
434.3081009999999
 31
0.0
  0
LINE
  5
471
330
6F4
100
AcDbEntity
  8
PRO0
  6
Continuous
 62
     3
100
AcDbLine
 10
326.926699
 20
436.283542
 30
0.0
 11
326.926699
 21
435.248841
 31
0.0
  0
LINE
  5
472
330
6F4
100
AcDbEntity
  8
PRO0
  6
Continuous
 62
     3
100
AcDbLine
 10
326.926699
 20
434.402061
 30
0.0
 11
326.926699
 21
428.239268
 31
0.0
  0
LINE
  5
473
330
6F4
100
AcDbEntity
  8
PRO0
  6
Continuous
 62
     3
100
AcDbLine
 10
323.726699
 20
437.224283
 30
0.0
 11
323.726699
 21
436.1895819999999
 31
0.0
  0
LINE
  5
474
330
6F4
100
AcDbEntity
  8
PRO0
  6
Continuous
 62
     3
100
AcDbLine
 10
323.726699
 20
435.3428019999999
 30
0.0
 11
323.726699
 21
434.3081009999999
 31
0.0
  0
LINE
  5
475
330
6F4
100
AcDbEntity
  8
PRO0
  6
Continuous
 62
     3
100
AcDbLine
 10
323.726699
 20
433.4613199999999
 30
0.0
 11
323.726699
 21
428.239268
 31
0.0
  0
LINE
  5
476
330
6F4
100
AcDbEntity
  8
PRO0
  6
Continuous
 62
     3
100
AcDbLine
 10
326.926699
 20
438.1650239999999
 30
0.0
 11
326.926699
 21
437.130323
 31
0.0
  0
LINE
  5
477
330
6F4
100
AcDbEntity
  8
PRO0
  6
Continuous
 62
     3
100
AcDbLine
 10
323.726699
 20
438.071064
 30
0.0
 11
323.726699
 21
439.105765
 31
0.0
  0
LINE
  5
478
330
6F4
100
AcDbEntity
  8
PRO0
  6
Continuous
 62
     3
100
AcDbLine
 10
326.926699
 20
436.283542
 30
0.0
 11
323.726699
 21
437.224283
 31
0.0
  0
LINE
  5
479
330
6F4
100
AcDbEntity
  8
PRO0
  6
Continuous
 62
     3
100
AcDbLine
 10
326.926699
 20
437.130323
 30
0.0
 11
323.726699
 21
438.071064
 31
0.0
  0
LINE
  5
47A
330
6F4
100
AcDbEntity
  8
PRO0
  6
Continuous
 62
     3
100
AcDbLine
 10
327.660032
 20
436.7069329999999
 30
0.0
 11
322.993366
 21
437.647673
 31
0.0
  0
LINE
  5
47B
330
6F4
100
AcDbEntity
  8
PRO0
  6
Continuous
 62
     3
100
AcDbLine
 10
327.660032
 20
436.7069329999999
 30
0.0
 11
326.926699
 21
436.283542
 31
0.0
  0
LINE
  5
47C
330
6F4
100
AcDbEntity
  8
PRO0
  6
Continuous
 62
     3
100
AcDbLine
 10
327.660032
 20
436.7069329999999
 30
0.0
 11
326.926699
 21
437.130323
 31
0.0
  0
LINE
  5
47D
330
6F4
100
AcDbEntity
  8
PRO0
  6
Continuous
 62
     3
100
AcDbLine
 10
322.993366
 20
437.647673
 30
0.0
 11
323.726699
 21
437.224283
 31
0.0
  0
LINE
  5
47E
330
6F4
100
AcDbEntity
  8
PRO0
  6
Continuous
 62
     3
100
AcDbLine
 10
323.726699
 20
438.071064
 30
0.0
 11
322.993366
 21
437.647673
 31
0.0
  0
LINE
  5
47F
330
6F4
100
AcDbEntity
  8
PRO0
  6
Continuous
 62
     3
100
AcDbLine
 10
326.926699
 20
440.046505
 30
0.0
 11
326.926699
 21
439.0118039999999
 31
0.0
  0
LINE
  5
480
330
6F4
100
AcDbEntity
  8
PRO0
  6
Continuous
 62
     3
100
AcDbLine
 10
323.726699
 20
440.815508
 30
0.0
 11
323.726699
 21
439.952545
 31
0.0
  0
LINE
  5
481
330
6F4
100
AcDbEntity
  8
PRO0
  6
Continuous
 62
     3
100
AcDbLine
 10
326.926699
 20
438.1650239999999
 30
0.0
 11
323.726699
 21
439.105765
 31
0.0
  0
LINE
  5
482
330
6F4
100
AcDbEntity
  8
PRO0
  6
Continuous
 62
     3
100
AcDbLine
 10
326.926699
 20
439.0118039999999
 30
0.0
 11
323.726699
 21
439.952545
 31
0.0
  0
LINE
  5
483
330
6F4
100
AcDbEntity
  8
PRO0
  6
Continuous
 62
     3
100
AcDbLine
 10
327.660032
 20
438.5884139999999
 30
0.0
 11
322.993366
 21
439.529155
 31
0.0
  0
LINE
  5
484
330
6F4
100
AcDbEntity
  8
PRO0
  6
Continuous
 62
     3
100
AcDbLine
 10
327.660032
 20
438.5884139999999
 30
0.0
 11
326.926699
 21
438.1650239999999
 31
0.0
  0
LINE
  5
485
330
6F4
100
AcDbEntity
  8
PRO0
  6
Continuous
 62
     3
100
AcDbLine
 10
327.660032
 20
438.5884139999999
 30
0.0
 11
326.926699
 21
439.0118039999999
 31
0.0
  0
LINE
  5
486
330
6F4
100
AcDbEntity
  8
PRO0
  6
Continuous
 62
     3
100
AcDbLine
 10
322.993366
 20
439.529155
 30
0.0
 11
323.726699
 21
439.105765
 31
0.0
  0
LINE
  5
487
330
6F4
100
AcDbEntity
  8
PRO0
  6
Continuous
 62
     3
100
AcDbLine
 10
323.726699
 20
439.952545
 30
0.0
 11
322.993366
 21
439.529155
 31
0.0
  0
LINE
  5
488
330
6F4
100
AcDbEntity
  8
PRO0
  6
Continuous
 62
     3
100
AcDbLine
 10
324.3108789999999
 20
440.815508
 30
0.0
 11
326.926699
 21
440.046505
 31
0.0
  0
LINE
  5
489
330
6F4
100
AcDbEntity
  8
PRO0
  6
Continuous
 62
     3
100
AcDbLine
 10
325.945577
 20
440.815508
 30
0.0
 11
327.660032
 21
440.469896
 31
0.0
  0
LINE
  5
48A
330
6F4
100
AcDbEntity
  8
PRO0
  6
Continuous
 62
     3
100
AcDbLine
 10
327.660032
 20
440.469896
 30
0.0
 11
326.926699
 21
440.046505
 31
0.0
  0
LINE
  5
48B
330
6F4
100
AcDbEntity
  8
PRO0
  6
Continuous
 62
     3
100
AcDbLine
 10
327.061414
 20
440.815508
 30
0.0
 11
327.660032
 21
440.469896
 31
0.0
  0
LINE
  5
48C
330
6F4
100
AcDbEntity
  8
PRO0
  6
Continuous
 62
     2
100
AcDbLine
 10
329.326699
 20
444.335865
 30
0.0
 11
329.326699
 21
443.315508
 31
0.0
  0
ARC
  5
48D
330
6F4
100
AcDbEntity
  8
PRO0
  6
Continuous
 62
     2
100
AcDbCircle
 10
321.0284069999999
 20
441.315508
 30
0.0
 40
2.0
100
AcDbArc
 50
90.00019899999999
 51
125.0
  0
LINE
  5
48E
330
6F4
100
AcDbEntity
  8
PRO0
  6
Continuous
 62
     2
100
AcDbLine
 10
329.6249419999999
 20
443.315537
 30
0.0
 11
321.0283999999999
 21
443.315508
 31
0.0
  0
LINE
  5
48F
330
6F4
100
AcDbEntity
  8
PRO0
  6
Continuous
 62
     2
100
AcDbLine
 10
321.326699
 20
444.335865
 30
0.0
 11
321.326699
 21
443.315508
 31
0.0
  0
LINE
  5
490
330
6F4
100
AcDbEntity
  8
PRO0
  6
PLINE3
 62
     3
100
AcDbLine
 10
325.326699
 20
449.609375
 30
0.0
 11
325.326699
 21
423.846422
 31
0.0
  0
LINE
  5
491
330
6F4
100
AcDbEntity
  8
PRO0
  6
Continuous
 62
     3
100
AcDbLine
 10
325.326699
 20
429.351749
 30
0.0
 11
325.326699
 21
427.315508
 31
0.0
  0
LINE
  5
492
330
6F4
100
AcDbEntity
  8
PRO0
  6
Continuous
 62
     3
100
AcDbLine
 10
323.726699
 20
432.9155079999999
 30
0.0
 11
326.9266839999999
 21
432.9155079999999
 31
0.0
  0
LINE
  5
493
330
6F4
100
AcDbEntity
  8
PRO0
  6
Continuous
 62
     3
100
AcDbLine
 10
325.326699
 20
427.315508
 30
0.0
 11
326.9266979999999
 21
428.239268
 31
0.0
  0
LINE
  5
494
330
6F4
100
AcDbEntity
  8
PRO0
  6
Continuous
 62
     3
100
AcDbLine
 10
325.326699
 20
427.315508
 30
0.0
 11
323.726699
 21
428.239268
 31
0.0
  0
ARC
  5
495
330
6F4
100
AcDbEntity
  8
PRO0
  6
Continuous
 62
     3
100
AcDbCircle
 10
325.301641
 20
427.5508379999999
 30
0.0
 40
1.764847999999999
100
AcDbArc
 50
22.959125
 51
89.186457
  0
ARC
  5
496
330
6F4
100
AcDbEntity
  8
PRO0
  6
Continuous
 62
     3
100
AcDbCircle
 10
319.2942869999999
 20
428.789992
 30
0.0
 40
6.055258999999999
100
AcDbArc
 50
4.978778000000001
 51
42.9462
  0
LINE
  5
497
330
6F4
100
AcDbEntity
  8
PRO0
  6
Continuous
 62
     3
100
AcDbLine
 10
326.926699
 20
434.402061
 30
0.0
 11
323.726699
 21
435.3428019999999
 31
0.0
  0
LINE
  5
498
330
6F4
100
AcDbEntity
  8
PRO0
  6
Continuous
 62
     3
100
AcDbLine
 10
326.926699
 20
435.248841
 30
0.0
 11
323.726699
 21
436.1895819999999
 31
0.0
  0
LINE
  5
499
330
6F4
100
AcDbEntity
  8
PRO0
  6
Continuous
 62
     3
100
AcDbLine
 10
327.660032
 20
434.825451
 30
0.0
 11
322.993366
 21
435.7661919999999
 31
0.0
  0
LINE
  5
49A
330
6F4
100
AcDbEntity
  8
PRO0
  6
Continuous
 62
     3
100
AcDbLine
 10
327.660032
 20
434.825451
 30
0.0
 11
326.926699
 21
434.402061
 31
0.0
  0
LINE
  5
49B
330
6F4
100
AcDbEntity
  8
PRO0
  6
Continuous
 62
     3
100
AcDbLine
 10
327.660032
 20
434.825451
 30
0.0
 11
326.926699
 21
435.248841
 31
0.0
  0
LINE
  5
49C
330
6F4
100
AcDbEntity
  8
PRO0
  6
Continuous
 62
     3
100
AcDbLine
 10
322.993366
 20
435.7661919999999
 30
0.0
 11
323.726699
 21
435.3428019999999
 31
0.0
  0
LINE
  5
49D
330
6F4
100
AcDbEntity
  8
PRO0
  6
Continuous
 62
     3
100
AcDbLine
 10
323.726699
 20
436.1895819999999
 30
0.0
 11
322.993366
 21
435.7661919999999
 31
0.0
  0
LINE
  5
49E
330
6F4
100
AcDbEntity
  8
PRO0
  6
Continuous
 62
     3
100
AcDbLine
 10
325.326699
 20
433.41434
 30
0.0
 11
322.993366
 21
433.8847099999999
 31
0.0
  0
LINE
  5
49F
330
6F4
100
AcDbEntity
  8
PRO0
  6
Continuous
 62
     3
100
AcDbLine
 10
322.993366
 20
433.8847099999999
 30
0.0
 11
323.726699
 21
433.4613199999999
 31
0.0
  0
LINE
  5
4A0
330
6F4
100
AcDbEntity
  8
PRO0
  6
Continuous
 62
     3
100
AcDbLine
 10
323.726699
 20
434.3081009999999
 30
0.0
 11
322.993366
 21
433.8847099999999
 31
0.0
  0
LINE
  5
4A1
330
6F4
100
AcDbEntity
  8
PRO0
  6
Continuous
 62
     2
100
AcDbLine
 10
319.326699
 20
442.565508
 30
0.0
 11
319.881254
 21
442.953812
 31
0.0
  0
LINE
  5
4A2
330
6F4
100
AcDbEntity
  8
PRO0
  6
PLINE2
 62
     3
100
AcDbLine
 10
313.826699
 20
424.115508
 30
0.0
 11
313.826699
 21
422.115508
 31
0.0
  0
LINE
  5
4A3
330
6F4
100
AcDbEntity
  8
PRO0
  6
PLINE2
 62
     3
100
AcDbLine
 10
298.8266989999999
 20
424.115508
 30
0.0
 11
298.8266989999999
 21
422.115508
 31
0.0
  0
LINE
  5
4A4
330
6F4
100
AcDbEntity
  8
PRO0
  6
Continuous
 62
     2
100
AcDbLine
 10
338.826699
 20
439.615508
 30
0.0
 11
319.326699
 21
439.615508
 31
0.0
  0
LINE
  5
4A5
330
6F4
100
AcDbEntity
  8
PRO0
  6
Continuous
 62
     2
100
AcDbLine
 10
341.3267
 20
439.115508
 30
0.0
 11
341.326699
 21
432.515508
 31
0.0
  0
ARC
  5
4A6
330
6F4
100
AcDbEntity
  8
PRO0
  6
Continuous
 62
     2
100
AcDbCircle
 10
339.626699
 20
432.515508
 30
0.0
 40
1.7
100
AcDbArc
 50
270.0
 51
0.0
  0
LINE
  5
4A7
330
6F4
100
AcDbEntity
  8
PRO0
  6
Continuous
 62
     2
100
AcDbLine
 10
331.326699
 20
430.815508
 30
0.0
 11
339.626699
 21
430.815508
 31
0.0
  0
LINE
  5
4A8
330
6F4
100
AcDbEntity
  8
PRO0
  6
Continuous
 62
     2
100
AcDbLine
 10
331.326699
 20
432.015508
 30
0.0
 11
339.6266939999999
 21
432.015508
 31
0.0
  0
ARC
  5
4A9
330
6F4
100
AcDbEntity
  8
PRO0
  6
Continuous
 62
     2
100
AcDbCircle
 10
339.6267
 20
439.115508
 30
0.0
 40
1.7
100
AcDbArc
 50
0.0
 51
90.0
  0
LINE
  5
4AA
330
6F4
100
AcDbEntity
  8
PRO0
  6
Continuous
 62
     2
100
AcDbLine
 10
339.6267
 20
440.815508
 30
0.0
 11
263.0266139999999
 21
440.815508
 31
0.0
  0
ARC
  5
4AB
330
6F4
100
AcDbEntity
  8
PRO0
  6
Continuous
 62
     2
100
AcDbCircle
 10
263.0266139999999
 20
439.115508
 30
0.0
 40
1.7
100
AcDbArc
 50
90.0
 51
180.0
  0
LINE
  5
4AC
330
6F4
100
AcDbEntity
  8
PRO0
  6
Continuous
 62
     2
100
AcDbLine
 10
261.3266139999999
 20
434.315508
 30
0.0
 11
261.3266139999999
 21
439.115508
 31
0.0
  0
ARC
  5
4AD
330
6F4
100
AcDbEntity
  8
PRO0
  6
Continuous
 62
     2
100
AcDbCircle
 10
263.0266139999999
 20
439.115508
 30
0.0
 40
0.5
100
AcDbArc
 50
90.0
 51
180.0
  0
LINE
  5
4AE
330
6F4
100
AcDbEntity
  8
PRO0
  6
Continuous
 62
     2
100
AcDbLine
 10
262.5266139999999
 20
434.315508
 30
0.0
 11
262.5266139999999
 21
439.115508
 31
0.0
  0
LINE
  5
4AF
330
6F4
100
AcDbEntity
  8
PRO0
  6
Continuous
 62
     2
100
AcDbLine
 10
339.626699
 20
439.615508
 30
0.0
 11
263.0266139999999
 21
439.615508
 31
0.0
  0
ARC
  5
4B0
330
6F4
100
AcDbEntity
  8
PRO0
  6
Continuous
 62
     2
100
AcDbCircle
 10
339.626699
 20
439.115508
 30
0.0
 40
0.5
100
AcDbArc
 50
0.0
 51
90.0
  0
ARC
  5
4B1
330
6F4
100
AcDbEntity
  8
PRO0
  6
Continuous
 62
     2
100
AcDbCircle
 10
339.6266939999999
 20
432.515508
 30
0.0
 40
0.5
100
AcDbArc
 50
270.0
 51
0.0
  0
LINE
  5
4B2
330
6F4
100
AcDbEntity
  8
PRO0
  6
Continuous
 62
     2
100
AcDbLine
 10
340.126699
 20
439.115508
 30
0.0
 11
340.1266939999999
 21
432.515508
 31
0.0
  0
LINE
  5
4B3
330
6F4
100
AcDbEntity
  8
PRO0
  6
Continuous
 62
     2
100
AcDbLine
 10
333.326699
 20
430.815508
 30
0.0
 11
333.326699
 21
421.115508
 31
0.0
  0
LINE
  5
4B4
330
6F4
100
AcDbEntity
  8
PRO0
  6
Continuous
 62
     2
100
AcDbLine
 10
333.326699
 20
430.815508
 30
0.0
 11
331.326699
 21
421.115508
 31
0.0
  0
LINE
  5
4B5
330
6F4
100
AcDbEntity
  8
PRO0
  6
Continuous
 62
     2
100
AcDbLine
 10
280.326699
 20
422.615508
 30
0.0
 11
280.326699
 21
422.115508
 31
0.0
  0
LINE
  5
4B6
330
6F4
100
AcDbEntity
  8
PRO0
  6
Continuous
 62
     2
100
AcDbLine
 10
278.826699
 20
422.615508
 30
0.0
 11
278.826699
 21
422.115508
 31
0.0
  0
LINE
  5
4B7
330
6F4
100
AcDbEntity
  8
PRO0
  6
Continuous
 62
     2
100
AcDbLine
 10
262.826614
 20
422.115508
 30
0.0
 11
261.826614
 21
422.115508
 31
0.0
  0
LINE
  5
4B8
330
6F4
100
AcDbEntity
  8
PRO0
  6
Continuous
 62
     2
100
AcDbLine
 10
276.326699
 20
421.115508
 30
0.0
 11
252.0474759999999
 21
380.6739529999999
 31
0.0
  0
LINE
  5
4B9
330
6F4
100
AcDbEntity
  8
PRO0
  6
Continuous
 62
     2
100
AcDbLine
 10
251.1901169999999
 20
381.188672
 30
0.0
 11
275.76068
 21
422.115508
 31
0.0
  0
LINE
  5
4BA
330
6F4
100
AcDbEntity
  8
PRO0
  6
Continuous
 62
     2
100
AcDbLine
 10
180.126784
 20
439.6155089999999
 30
0.0
 11
180.126784
 21
434.3154839999999
 31
0.0
  0
LINE
  5
4BB
330
6F4
100
AcDbEntity
  8
PRO0
  6
Continuous
 62
     3
100
AcDbLine
 10
182.248095
 20
434.3155
 30
0.0
 11
187.5481029999999
 21
439.6155089999999
 31
0.0
  0
LINE
  5
4BC
330
6F4
100
AcDbEntity
  8
PRO0
  6
Continuous
 62
     3
100
AcDbLine
 10
184.36941
 20
434.3154959999999
 30
0.0
 11
189.667743
 21
439.613828
 31
0.0
  0
LINE
  5
4BD
330
6F4
100
AcDbEntity
  8
PRO0
  6
Continuous
 62
     3
100
AcDbLine
 10
186.490726
 20
434.3154909999999
 30
0.0
 11
190.126784
 21
437.951549
 31
0.0
  0
LINE
  5
4BE
330
6F4
100
AcDbEntity
  8
PRO0
  6
Continuous
 62
     3
100
AcDbLine
 10
188.612042
 20
434.315487
 30
0.0
 11
190.126784
 21
435.830229
 31
0.0
  0
LINE
  5
4BF
330
6F4
100
AcDbEntity
  8
PRO0
  6
Continuous
 62
     3
100
AcDbLine
 10
180.129871
 20
434.315505
 30
0.0
 11
185.429912
 21
439.6155089999999
 31
0.0
  0
LINE
  5
4C0
330
6F4
100
AcDbEntity
  8
PRO0
  6
Continuous
 62
     3
100
AcDbLine
 10
180.126784
 20
436.4368299999999
 30
0.0
 11
183.305462
 21
439.6155089999999
 31
0.0
  0
LINE
  5
4C1
330
6F4
100
AcDbEntity
  8
PRO0
  6
Continuous
 62
     3
100
AcDbLine
 10
180.126784
 20
438.5581509999999
 30
0.0
 11
181.184142
 21
439.6155089999999
 31
0.0
  0
LINE
  5
4C2
330
6F4
100
AcDbEntity
  8
PRO0
  6
Continuous
 62
     2
100
AcDbLine
 10
272.526614
 20
439.6155089999999
 30
0.0
 11
272.526614
 21
434.3154839999999
 31
0.0
  0
LINE
  5
4C3
330
6F4
100
AcDbEntity
  8
PRO0
  6
Continuous
 62
     3
100
AcDbLine
 10
266.1626339999999
 20
434.3154909999999
 30
0.0
 11
271.4626519999999
 21
439.6155089999999
 31
0.0
  0
LINE
  5
4C4
330
6F4
100
AcDbEntity
  8
PRO0
  6
Continuous
 62
     3
100
AcDbLine
 10
268.2839589999999
 20
434.3154959999999
 30
0.0
 11
272.526614
 21
438.5581509999999
 31
0.0
  0
LINE
  5
4C5
330
6F4
100
AcDbEntity
  8
PRO0
  6
Continuous
 62
     3
100
AcDbLine
 10
270.405284
 20
434.3155
 30
0.0
 11
272.526614
 21
436.4368299999999
 31
0.0
  0
LINE
  5
4C6
330
6F4
100
AcDbEntity
  8
PRO0
  6
Continuous
 62
     3
100
AcDbLine
 10
264.0413099999999
 20
434.315487
 30
0.0
 11
269.341331
 21
439.6155089999999
 31
0.0
  0
LINE
  5
4C7
330
6F4
100
AcDbEntity
  8
PRO0
  6
Continuous
 62
     3
100
AcDbLine
 10
262.5266139999999
 20
434.922112
 30
0.0
 11
267.2200109999999
 21
439.6155089999999
 31
0.0
  0
LINE
  5
4C8
330
6F4
100
AcDbEntity
  8
PRO0
  6
Continuous
 62
     3
100
AcDbLine
 10
262.5266139999999
 20
437.043432
 30
0.0
 11
265.098691
 21
439.6155089999999
 31
0.0
  0
LINE
  5
4C9
330
6F4
100
AcDbEntity
  8
PRO0
  6
Continuous
 62
     3
100
AcDbLine
 10
262.52932
 20
439.167458
 30
0.0
 11
262.974664
 21
439.612803
 31
0.0
  0
ARC
  5
4CA
330
6F4
100
AcDbEntity
  8
PRO0
  6
Continuous
 62
     2
100
AcDbCircle
 10
526.6215499999999
 20
425.9655079999999
 30
0.0
 40
12.26125
100
AcDbArc
 50
336.6994009999999
 51
23.30059899999999
  0
ARC
  5
4CB
330
6F4
100
AcDbEntity
  8
PRO0
  6
Continuous
 62
     2
100
AcDbCircle
 10
696.332971
 20
495.675562
 30
0.0
 40
12.260424
100
AcDbArc
 50
246.698605
 51
293.301395
  0
LINE
  5
4CC
330
6F4
100
AcDbEntity
  8
PRO0
  6
Continuous
 62
     2
100
AcDbLine
 10
582.419722
 20
430.0893259999999
 30
0.0
 11
582.926864
 21
429.001757
 31
0.0
  0
LINE
  5
4CD
330
6F4
100
AcDbEntity
  8
PRO0
  6
Continuous
 62
     2
100
AcDbLine
 10
582.926864
 20
429.001757
 30
0.0
 11
591.748832
 21
433.115508
 31
0.0
  0
LINE
  5
4CE
330
6F4
100
AcDbEntity
  8
PRO0
  6
Continuous
 62
     2
100
AcDbLine
 10
582.419722
 20
430.0893259999999
 30
0.0
 11
591.4827999999999
 21
434.3155089999999
 31
0.0
  0
LINE
  5
4CF
330
6F4
100
AcDbEntity
  8
PRO0
  6
Continuous
 62
     2
100
AcDbLine
 10
690.283141
 20
476.3155209999999
 30
0.0
 11
691.483141
 21
476.3155209999999
 31
0.0
  0
LINE
  5
4D0
330
6F4
100
AcDbEntity
  8
PRO0
  6
Continuous
 62
     3
100
AcDbLine
 10
537.886399
 20
421.115508
 30
0.0
 11
544.1828
 21
427.4118559999999
 31
0.0
  0
LINE
  5
4D1
330
6F4
100
AcDbEntity
  8
PRO0
  6
Continuous
 62
     3
100
AcDbLine
 10
540.0041209999999
 20
421.115508
 30
0.0
 11
544.1828
 21
425.2941879999999
 31
0.0
  0
LINE
  5
4D2
330
6F4
100
AcDbEntity
  8
PRO0
  6
Continuous
 62
     3
100
AcDbLine
 10
542.125441
 20
421.115508
 30
0.0
 11
544.1828
 21
423.1728669999999
 31
0.0
  0
LINE
  5
4D3
330
6F4
100
AcDbEntity
  8
PRO0
  6
Continuous
 62
     3
100
AcDbLine
 10
538.7389749999999
 20
424.093003
 30
0.0
 11
544.1828
 21
429.5368279999999
 31
0.0
  0
LINE
  5
4D4
330
6F4
100
AcDbEntity
  8
PRO0
  6
Continuous
 62
     3
100
AcDbLine
 10
538.876706
 20
426.352054
 30
0.0
 11
543.3401599999999
 21
430.815508
 31
0.0
  0
LINE
  5
4D5
330
6F4
100
AcDbEntity
  8
PRO0
  6
Continuous
 62
     3
100
AcDbLine
 10
538.66574
 20
428.2624089999999
 30
0.0
 11
541.2188389999999
 21
430.815508
 31
0.0
  0
LINE
  5
4D6
330
6F4
100
AcDbEntity
  8
PRO0
  6
Continuous
 62
     3
100
AcDbLine
 10
538.221079
 20
429.939068
 30
0.0
 11
539.097519
 21
430.815508
 31
0.0
  0
LINE
  5
4D7
330
6F4
100
AcDbEntity
  8
PRO0
  6
Continuous
 62
     3
100
AcDbLine
 10
691.4865429999999
 20
478.1151379999999
 30
0.0
 11
696.7953
 21
483.423858
 31
0.0
  0
LINE
  5
4D8
330
6F4
100
AcDbEntity
  8
PRO0
  6
Continuous
 62
     3
100
AcDbLine
 10
693.604461
 20
478.1151379999999
 30
0.0
 11
699.2586519999999
 21
483.769329
 31
0.0
  0
LINE
  5
4D9
330
6F4
100
AcDbEntity
  8
PRO0
  6
Continuous
 62
     3
100
AcDbLine
 10
695.7257809999999
 20
478.1151379999999
 30
0.0
 11
701.1828
 21
483.5721559999999
 31
0.0
  0
LINE
  5
4DA
330
6F4
100
AcDbEntity
  8
PRO0
  6
Continuous
 62
     3
100
AcDbLine
 10
697.8471019999999
 20
478.1151379999999
 30
0.0
 11
701.1828
 21
481.450836
 31
0.0
  0
LINE
  5
4DB
330
6F4
100
AcDbEntity
  8
PRO0
  6
Continuous
 62
     3
100
AcDbLine
 10
699.9684219999998
 20
478.1151379999999
 30
0.0
 11
701.1828
 21
479.329516
 31
0.0
  0
LINE
  5
4DC
330
6F4
100
AcDbEntity
  8
PRO0
  6
Continuous
 62
     3
100
AcDbLine
 10
691.483141
 20
480.236458
 30
0.0
 11
694.762783
 21
483.5161
 31
0.0
  0
LINE
  5
4DD
330
6F4
100
AcDbEntity
  8
PRO0
  6
Continuous
 62
     3
100
AcDbLine
 10
691.483141
 20
482.357778
 30
0.0
 11
693.0017349999999
 21
483.8763730000001
 31
0.0
  0
DIMENSION
  5
4E9
330
6F4
100
AcDbEntity
  8
PRO0
  6
Continuous
 62
     3
100
AcDbDimension
  2
*D25
 10
510.685284
 20
440.815508
 30
0.0
 11
509.185272
 21
463.5655059999999
 31
0.0
 70
   128
 71
     5
 42
-1.0
100
AcDbAlignedDimension
 13
685.1831409999999
 23
486.315521
 33
0.0
 14
539.8827999999999
 24
440.815508
 34
0.0
 50
90.0
100
AcDbRotatedDimension
  0
DIMENSION
  5
4F4
330
6F4
100
AcDbEntity
  8
PRO0
  6
Continuous
 62
     3
100
AcDbDimension
  2
*D26
 10
510.685284
 20
421.115508
 30
0.0
 11
509.185272
 21
430.9655
 31
0.0
 70
   128
 71
     5
 42
-1.0
100
AcDbAlignedDimension
 13
539.8827999999999
 23
440.815508
 33
0.0
 14
523.1828
 24
421.115508
 34
0.0
 50
90.0
100
AcDbRotatedDimension
  0
DIMENSION
  5
4FF
330
6F4
100
AcDbEntity
  8
PRO0
  6
Continuous
 62
     3
100
AcDbDimension
  2
*D27
 10
536.1828
 20
459.440861
 30
0.0
 11
544.18277
 21
460.9408259999999
 31
0.0
 70
   128
 71
     5
 42
-1.0
100
AcDbAlignedDimension
 13
552.1828
 23
447.609375
 33
0.0
 14
536.1828
 24
459.440861
 34
0.0
100
AcDbRotatedDimension
  0
DIMENSION
  5
50A
330
6F4
100
AcDbEntity
  8
PRO0
  6
Continuous
 62
     3
100
AcDbDimension
  2
*D28
 10
662.862359
 20
470.315138
 30
0.0
 11
661.3624419999999
 21
478.3153379999999
 31
0.0
 70
   128
 71
     5
 42
-1.0
100
AcDbAlignedDimension
 13
662.862359
 23
486.315521
 33
0.0
 14
674.9892739999999
 24
470.315138
 34
0.0
 50
90.0
100
AcDbRotatedDimension
  0
LINE
  5
50B
330
6F4
100
AcDbEntity
  8
PRO0
  6
Continuous
 62
     2
100
AcDbLine
 10
591.748832
 20
433.115508
 30
0.0
 11
680.9831410000001
 21
433.115508
 31
0.0
  0
LINE
  5
50C
330
6F4
100
AcDbEntity
  8
PRO0
  6
Continuous
 62
     2
100
AcDbLine
 10
680.9831410000001
 20
434.315508
 30
0.0
 11
591.4827999999999
 21
434.3155089999999
 31
0.0
  0
LINE
  5
50D
330
6F4
100
AcDbEntity
  8
PRO0
  6
Continuous
 62
     2
100
AcDbLine
 10
701.1828
 20
497.3438119999999
 30
0.0
 11
701.1828
 21
361.115508
 31
0.0
  0
LINE
  5
50E
330
6F4
100
AcDbEntity
  8
PRO0
  6
Continuous
 62
     2
100
AcDbLine
 10
700.183598
 20
476.1151919999999
 30
0.0
 11
700.182573
 21
420.1153019999999
 31
0.0
  0
DIMENSION
  5
51A
330
6F4
100
AcDbEntity
  8
PRO0
  6
Continuous
 62
     3
100
AcDbDimension
  2
*D29
 10
756.947925
 20
451.115138
 30
0.0
 11
755.447891
 21
436.115295
 31
0.0
 70
   128
 71
     5
 42
-1.0
100
AcDbAlignedDimension
 13
599.1828
 23
421.115508
 33
0.0
 14
743.694383
 24
451.115138
 34
0.0
 50
90.0
100
AcDbRotatedDimension
  0
DIMENSION
  5
526
330
6F4
100
AcDbEntity
  8
PRO0
  6
Continuous
 62
     3
100
AcDbDimension
  2
*D30
 10
601.1828
 20
350.352649
 30
0.0
 11
586.1828609999999
 21
351.852631
 31
0.0
 70
   128
 71
     5
 42
-1.0
100
AcDbAlignedDimension
 13
571.1828
 23
378.6039249999999
 33
0.0
 14
601.1828
 24
363.115508
 34
0.0
100
AcDbRotatedDimension
  0
DIMENSION
  5
531
330
6F4
100
AcDbEntity
  8
PRO0
  6
Continuous
 62
     3
100
AcDbDimension
  2
*D31
 10
701.1828
 20
350.352649
 30
0.0
 11
651.1828309999999
 21
351.852631
 31
0.0
 70
   128
 71
     5
 42
-1.0
100
AcDbAlignedDimension
 13
601.1828
 23
363.115508
 33
0.0
 14
701.1828
 24
363.115508
 34
0.0
100
AcDbRotatedDimension
  0
LINE
  5
532
330
6F4
100
AcDbEntity
  8
PRO0
  6
Continuous
 62
     2
100
AcDbLine
 10
698.1832
 20
450.8152379999999
 30
0.0
 11
698.483207
 21
451.1152329999999
 31
0.0
  0
LINE
  5
533
330
6F4
100
AcDbEntity
  8
PRO0
  6
Continuous
 62
     2
100
AcDbLine
 10
698.483207
 20
451.1152329999999
 30
0.0
 11
698.183214
 21
451.4152379999999
 31
0.0
  0
LINE
  5
534
330
6F4
100
AcDbEntity
  8
PRO0
  6
Continuous
 62
     2
100
AcDbLine
 10
521.1828
 20
421.115508
 30
0.0
 11
601.1828
 21
421.115508
 31
0.0
  0
LINE
  5
535
330
6F4
100
AcDbEntity
  8
PRO0
  6
Continuous
 62
     2
100
AcDbLine
 10
601.1828
 20
361.115508
 30
0.0
 11
601.1828
 21
421.115508
 31
0.0
  0
ARC
  5
536
330
6F4
100
AcDbEntity
  8
PRO0
  6
Continuous
 62
     2
100
AcDbCircle
 10
615.4328
 20
432.365508
 30
0.0
 40
0.75
100
AcDbArc
 50
0.0
 51
180.0
  0
ARC
  5
537
330
6F4
100
AcDbEntity
  8
PRO0
  6
Continuous
 62
     2
100
AcDbCircle
 10
615.6828
 20
422.615508
 30
0.0
 40
0.5
100
AcDbArc
 50
270.0
 51
0.0
  0
LINE
  5
538
330
6F4
100
AcDbEntity
  8
PRO0
  6
Continuous
 62
     2
100
AcDbLine
 10
616.1828
 20
432.365508
 30
0.0
 11
616.1828
 21
422.615508
 31
0.0
  0
LINE
  5
539
330
6F4
100
AcDbEntity
  8
PRO0
  6
Continuous
 62
     2
100
AcDbLine
 10
614.6828
 20
422.615508
 30
0.0
 11
614.6828
 21
422.115508
 31
0.0
  0
LINE
  5
53A
330
6F4
100
AcDbEntity
  8
PRO0
  6
Continuous
 62
     2
100
AcDbLine
 10
614.6828
 20
432.365508
 30
0.0
 11
614.6828
 21
424.615508
 31
0.0
  0
ARC
  5
53B
330
6F4
100
AcDbEntity
  8
PRO0
  6
Continuous
 62
     2
100
AcDbCircle
 10
538.6828
 20
438.615508
 30
0.0
 40
1.0
100
AcDbArc
 50
90.0
 51
180.0
  0
LINE
  5
53C
330
6F4
100
AcDbEntity
  8
PRO0
  6
Continuous
 62
     2
100
AcDbLine
 10
537.6828
 20
438.115508
 30
0.0
 11
537.6828
 21
438.615508
 31
0.0
  0
ARC
  5
53D
330
6F4
100
AcDbEntity
  8
PRO0
  6
Continuous
 62
     2
100
AcDbCircle
 10
545.6828
 20
437.615508
 30
0.0
 40
0.5
100
AcDbArc
 50
0.0
 51
90.0
  0
LINE
  5
53E
330
6F4
100
AcDbEntity
  8
PRO0
  6
Continuous
 62
     2
100
AcDbLine
 10
537.6828
 20
438.115508
 30
0.0
 11
545.6828
 21
438.115508
 31
0.0
  0
LINE
  5
53F
330
6F4
100
AcDbEntity
  8
PRO0
  6
Continuous
 62
     2
100
AcDbLine
 10
546.1828
 20
422.115508
 30
0.0
 11
546.1828
 21
437.615508
 31
0.0
  0
ARC
  5
540
330
6F4
100
AcDbEntity
  8
PRO0
  6
Continuous
 62
     2
100
AcDbCircle
 10
548.4828
 20
437.115508
 30
0.0
 40
0.5
100
AcDbArc
 50
90.0
 51
180.0
  0
LINE
  5
541
330
6F4
100
AcDbEntity
  8
PRO0
  6
Continuous
 62
     2
100
AcDbLine
 10
557.1828
 20
437.615508
 30
0.0
 11
548.4828
 21
437.615508
 31
0.0
  0
ARC
  5
542
330
6F4
100
AcDbEntity
  8
PRO0
  6
Continuous
 62
     2
100
AcDbCircle
 10
557.1828
 20
438.615508
 30
0.0
 40
1.0
100
AcDbArc
 50
270.0
 51
0.0
  0
LINE
  5
543
330
6F4
100
AcDbEntity
  8
PRO0
  6
Continuous
 62
     2
100
AcDbLine
 10
558.1828
 20
439.615508
 30
0.0
 11
558.1828
 21
438.615508
 31
0.0
  0
LINE
  5
544
330
6F4
100
AcDbEntity
  8
PRO0
  6
Continuous
 62
     2
100
AcDbLine
 10
547.9828
 20
437.115508
 30
0.0
 11
547.9828
 21
424.615508
 31
0.0
  0
ARC
  5
545
330
6F4
100
AcDbEntity
  8
PRO0
  6
Continuous
 62
     2
100
AcDbCircle
 10
548.4828
 20
424.615508
 30
0.0
 40
0.5
100
AcDbArc
 50
180.0
 51
270.0
  0
ARC
  5
546
330
6F4
100
AcDbEntity
  8
PRO0
  6
Continuous
 62
     2
100
AcDbCircle
 10
614.1828
 20
424.615508
 30
0.0
 40
0.5
100
AcDbArc
 50
270.0
 51
0.0
  0
LINE
  5
547
330
6F4
100
AcDbEntity
  8
PRO0
  6
Continuous
 62
     2
100
AcDbLine
 10
548.4828
 20
424.115508
 30
0.0
 11
614.1828
 21
424.115508
 31
0.0
  0
LINE
  5
548
330
6F4
100
AcDbEntity
  8
PRO0
  6
Continuous
 62
     2
100
AcDbLine
 10
546.1828
 20
422.115508
 30
0.0
 11
601.748819
 21
422.115508
 31
0.0
  0
LINE
  5
549
330
6F4
100
AcDbEntity
  8
PRO0
  6
Continuous
 62
     2
100
AcDbLine
 10
561.1828
 20
422.615508
 30
0.0
 11
547.6828
 21
422.615508
 31
0.0
  0
LINE
  5
54A
330
6F4
100
AcDbEntity
  8
PRO0
  6
Continuous
 62
     2
100
AcDbLine
 10
561.1828
 20
422.615508
 30
0.0
 11
561.1828
 21
422.115508
 31
0.0
  0
LINE
  5
54B
330
6F4
100
AcDbEntity
  8
PRO0
  6
Continuous
 62
     2
100
AcDbLine
 10
581.1828
 20
422.615508
 30
0.0
 11
581.1828
 21
422.115508
 31
0.0
  0
LINE
  5
54C
330
6F4
100
AcDbEntity
  8
PRO0
  6
Continuous
 62
     2
100
AcDbLine
 10
581.1828
 20
422.615508
 30
0.0
 11
597.1828
 21
422.615508
 31
0.0
  0
LINE
  5
54D
330
6F4
100
AcDbEntity
  8
PRO0
  6
Continuous
 62
     2
100
AcDbLine
 10
598.6828
 20
422.615508
 30
0.0
 11
614.6828
 21
422.615508
 31
0.0
  0
LINE
  5
54E
330
6F4
100
AcDbEntity
  8
PRO0
  6
Continuous
 62
     2
100
AcDbLine
 10
547.6828
 20
422.615508
 30
0.0
 11
547.6828
 21
422.115508
 31
0.0
  0
LINE
  5
54F
330
6F4
100
AcDbEntity
  8
PRO0
  6
Continuous
 62
     2
100
AcDbLine
 10
546.1828
 20
421.115508
 30
0.0
 11
546.1828
 21
422.115508
 31
0.0
  0
LINE
  5
550
330
6F4
100
AcDbEntity
  8
PRO0
  6
Continuous
 62
     2
100
AcDbLine
 10
571.1828
 20
423.815508
 30
0.0
 11
571.4827999999999
 21
424.115508
 31
0.0
  0
LINE
  5
551
330
6F4
100
AcDbEntity
  8
PRO0
  6
Continuous
 62
     2
100
AcDbLine
 10
537.6828
 20
438.615508
 30
0.0
 11
537.6828
 21
438.115508
 31
0.0
  0
LINE
  5
552
330
6F4
100
AcDbEntity
  8
PRO0
  6
PLINE3
 62
     3
100
AcDbLine
 10
651.1828
 20
441.1155149999999
 30
0.0
 11
651.1828
 21
361.115515
 31
0.0
  0
LINE
  5
553
330
6F4
100
AcDbEntity
  8
PRO0
  6
Continuous
 62
     2
100
AcDbLine
 10
571.1828
 20
423.815508
 30
0.0
 11
570.8827999999999
 21
424.115508
 31
0.0
  0
LINE
  5
554
330
6F4
100
AcDbEntity
  8
PRO0
  6
Continuous
 62
     2
100
AcDbLine
 10
566.8106650000001
 20
427.077007
 30
0.0
 11
566.6828
 21
425.615508
 31
0.0
  0
LINE
  5
555
330
6F4
100
AcDbEntity
  8
PRO0
  6
Continuous
 62
     2
100
AcDbLine
 10
575.5549359999999
 20
427.077007
 30
0.0
 11
575.6828
 21
425.615508
 31
0.0
  0
ARC
  5
556
330
6F4
100
AcDbEntity
  8
PRO0
  6
Continuous
 62
     2
100
AcDbCircle
 10
571.1828
 20
416.915508
 30
0.0
 40
12.0
100
AcDbArc
 50
74.50603199999999
 51
105.4939679999999
  0
ARC
  5
557
330
6F4
100
AcDbEntity
  8
PRO0
  6
Continuous
 62
     2
100
AcDbCircle
 10
568.404576
 20
426.937557
 30
0.0
 40
1.6
100
AcDbArc
 50
105.4939679999999
 51
175.0
  0
ARC
  5
558
330
6F4
100
AcDbEntity
  8
PRO0
  6
Continuous
 62
     2
100
AcDbCircle
 10
573.9610240000001
 20
426.937557
 30
0.0
 40
1.6
100
AcDbArc
 50
5.0
 51
74.50603199999999
  0
LINE
  5
559
330
6F4
100
AcDbEntity
  8
PRO0
  6
PLINE2
 62
     3
100
AcDbLine
 10
566.1828
 20
421.115508
 30
0.0
 11
576.1828
 21
421.115508
 31
0.0
  0
LINE
  5
55A
330
6F4
100
AcDbEntity
  8
PRO0
  6
Continuous
 62
     2
100
AcDbLine
 10
562.1828
 20
425.615508
 30
0.0
 11
562.1828
 21
424.115508
 31
0.0
  0
LINE
  5
55B
330
6F4
100
AcDbEntity
  8
PRO0
  6
Continuous
 62
     2
100
AcDbLine
 10
562.1828
 20
425.615508
 30
0.0
 11
580.1828
 21
425.615508
 31
0.0
  0
LINE
  5
55C
330
6F4
100
AcDbEntity
  8
PRO0
  6
Continuous
 62
     2
100
AcDbLine
 10
580.1828
 20
425.615508
 30
0.0
 11
580.1828
 21
424.115508
 31
0.0
  0
LINE
  5
55D
330
6F4
100
AcDbEntity
  8
PRO0
  6
PLINE2
 62
     3
100
AcDbLine
 10
577.5014009999999
 20
405.9731089999999
 30
0.0
 11
578.4937559999999
 21
412.776731
 31
0.0
  0
ARC
  5
55E
330
6F4
100
AcDbEntity
  8
PRO0
  6
PLINE2
 62
     3
100
AcDbCircle
 10
578.0979440000001
 20
412.8344629999999
 30
0.0
 40
0.4
100
AcDbArc
 50
351.7015339999999
 51
81.86989799999999
  0
LINE
  5
55F
330
6F4
100
AcDbEntity
  8
PRO0
  6
PLINE2
 62
     3
100
AcDbLine
 10
578.1545129999999
 20
413.230443
 30
0.0
 11
577.9576879999999
 21
413.2585609999999
 31
0.0
  0
ARC
  5
560
330
6F4
100
AcDbEntity
  8
PRO0
  6
PLINE2
 62
     3
100
AcDbCircle
 10
577.90112
 20
412.8625809999999
 30
0.0
 40
0.4
100
AcDbArc
 50
81.86989799999999
 51
171.869898
  0
LINE
  5
561
330
6F4
100
AcDbEntity
  8
PRO0
  6
PLINE2
 62
     3
100
AcDbLine
 10
577.5051399999999
 20
412.91915
 30
0.0
 11
576.5617079999999
 21
406.315129
 31
0.0
  0
LINE
  5
562
330
6F4
100
AcDbEntity
  8
PRO0
  6
PLINE2
 62
     3
100
AcDbLine
 10
577.5014009999999
 20
405.9731089999999
 30
0.0
 11
578.4937559999999
 21
412.776731
 31
0.0
  0
ARC
  5
563
330
6F4
100
AcDbEntity
  8
PRO0
  6
PLINE2
 62
     3
100
AcDbCircle
 10
578.0979440000001
 20
412.8344629999999
 30
0.0
 40
0.4
100
AcDbArc
 50
351.7015339999999
 51
81.86989799999999
  0
LINE
  5
564
330
6F4
100
AcDbEntity
  8
PRO0
  6
PLINE2
 62
     3
100
AcDbLine
 10
578.1545129999999
 20
413.230443
 30
0.0
 11
577.9576879999999
 21
413.2585609999999
 31
0.0
  0
ARC
  5
565
330
6F4
100
AcDbEntity
  8
PRO0
  6
PLINE2
 62
     3
100
AcDbCircle
 10
577.90112
 20
412.8625809999999
 30
0.0
 40
0.4
100
AcDbArc
 50
81.86989799999999
 51
171.869898
  0
LINE
  5
566
330
6F4
100
AcDbEntity
  8
PRO0
  6
PLINE2
 62
     3
100
AcDbLine
 10
577.5051399999999
 20
412.91915
 30
0.0
 11
576.5617079999999
 21
406.315129
 31
0.0
  0
LINE
  5
567
330
6F4
100
AcDbEntity
  8
PRO0
  6
PLINE2
 62
     3
100
AcDbLine
 10
564.8641989999999
 20
405.9731089999999
 30
0.0
 11
563.8718439999999
 21
412.776731
 31
0.0
  0
ARC
  5
568
330
6F4
100
AcDbEntity
  8
PRO0
  6
PLINE2
 62
     3
100
AcDbCircle
 10
564.2676559999999
 20
412.8344629999999
 30
0.0
 40
0.4
100
AcDbArc
 50
98.130102
 51
188.2984659999999
  0
LINE
  5
569
330
6F4
100
AcDbEntity
  8
PRO0
  6
PLINE2
 62
     3
100
AcDbLine
 10
564.211088
 20
413.230443
 30
0.0
 11
564.4079119999999
 21
413.2585609999999
 31
0.0
  0
ARC
  5
56A
330
6F4
100
AcDbEntity
  8
PRO0
  6
PLINE2
 62
     3
100
AcDbCircle
 10
564.4644809999999
 20
412.8625809999999
 30
0.0
 40
0.4
100
AcDbArc
 50
8.130102
 51
98.130102
  0
LINE
  5
56B
330
6F4
100
AcDbEntity
  8
PRO0
  6
PLINE2
 62
     3
100
AcDbLine
 10
564.8604609999999
 20
412.91915
 30
0.0
 11
565.803892
 21
406.315129
 31
0.0
  0
LINE
  5
56C
330
6F4
100
AcDbEntity
  8
PRO0
  6
PLINE2
 62
     3
100
AcDbLine
 10
567.1828
 20
409.115508
 30
0.0
 11
567.1828
 21
413.115508
 31
0.0
  0
LINE
  5
56D
330
6F4
100
AcDbEntity
  8
PRO0
  6
PLINE2
 62
     3
100
AcDbLine
 10
569.165057
 20
384.155252
 30
0.0
 11
565.6698539999999
 21
384.338427
 31
0.0
  0
LINE
  5
56E
330
6F4
100
AcDbEntity
  8
PRO0
  6
PLINE2
 62
     3
100
AcDbLine
 10
565.6698539999999
 20
384.338427
 30
0.0
 11
567.562441
 21
382.2364959999999
 31
0.0
  0
LINE
  5
56F
330
6F4
100
AcDbEntity
  8
PRO0
  6
PLINE2
 62
     3
100
AcDbLine
 10
567.562441
 20
382.2364959999999
 30
0.0
 11
569.060386
 21
382.1579919999999
 31
0.0
  0
LINE
  5
570
330
6F4
100
AcDbEntity
  8
PRO0
  6
PLINE2
 62
     3
100
AcDbLine
 10
569.060386
 20
382.1579919999999
 30
0.0
 11
570.6828
 21
413.115508
 31
0.0
  0
LINE
  5
571
330
6F4
100
AcDbEntity
  8
PRO0
  6
PLINE2
 62
     3
100
AcDbLine
 10
575.1828
 20
409.115508
 30
0.0
 11
575.1828
 21
413.115508
 31
0.0
  0
LINE
  5
572
330
6F4
100
AcDbEntity
  8
PRO0
  6
PLINE2
 62
     3
100
AcDbLine
 10
573.2005429999999
 20
384.155252
 30
0.0
 11
576.6957459999999
 21
384.338427
 31
0.0
  0
LINE
  5
573
330
6F4
100
AcDbEntity
  8
PRO0
  6
PLINE2
 62
     3
100
AcDbLine
 10
576.6957459999999
 20
384.338427
 30
0.0
 11
574.8031589999999
 21
382.2364959999999
 31
0.0
  0
LINE
  5
574
330
6F4
100
AcDbEntity
  8
PRO0
  6
PLINE2
 62
     3
100
AcDbLine
 10
574.8031589999999
 20
382.2364959999999
 30
0.0
 11
573.305215
 21
382.1579919999999
 31
0.0
  0
LINE
  5
575
330
6F4
100
AcDbEntity
  8
PRO0
  6
PLINE2
 62
     3
100
AcDbLine
 10
573.305215
 20
382.1579919999999
 30
0.0
 11
571.6828
 21
413.115508
 31
0.0
  0
LINE
  5
576
330
6F4
100
AcDbEntity
  8
PRO0
  6
PLINE2
 62
     3
100
AcDbLine
 10
567.6237429999999
 20
401.315129
 30
0.0
 11
565.803892
 21
406.315129
 31
0.0
  0
LINE
  5
577
330
6F4
100
AcDbEntity
  8
PRO0
  6
PLINE2
 62
     3
100
AcDbLine
 10
566.559565
 20
401.315129
 30
0.0
 11
564.8641989999999
 21
405.9731089999999
 31
0.0
  0
LINE
  5
578
330
6F4
100
AcDbEntity
  8
PRO0
  6
PLINE2
 62
     3
100
AcDbLine
 10
574.7418569999999
 20
401.315129
 30
0.0
 11
576.5617079999999
 21
406.315129
 31
0.0
  0
LINE
  5
579
330
6F4
100
AcDbEntity
  8
PRO0
  6
PLINE2
 62
     3
100
AcDbLine
 10
575.806035
 20
401.315129
 30
0.0
 11
577.5014009999999
 21
405.9731089999999
 31
0.0
  0
LINE
  5
57A
330
6F4
100
AcDbEntity
  8
PRO0
  6
PLINE2
 62
     3
100
AcDbLine
 10
567.1828
 20
409.115508
 30
0.0
 11
568.923176
 21
408.200864
 31
0.0
  0
LINE
  5
57B
330
6F4
100
AcDbEntity
  8
PRO0
  6
PLINE2
 62
     3
100
AcDbLine
 10
569.3133559999999
 20
386.984952
 30
0.0
 11
571.1828
 21
385.115508
 31
0.0
  0
LINE
  5
57C
330
6F4
100
AcDbEntity
  8
PRO0
  6
PLINE2
 62
     3
100
AcDbLine
 10
568.923176
 20
408.200864
 30
0.0
 11
568.8185039999999
 21
406.2036049999999
 31
0.0
  0
LINE
  5
57D
330
6F4
100
AcDbEntity
  8
PRO0
  6
PLINE2
 62
     3
100
AcDbLine
 10
568.8185039999999
 20
406.2036049999999
 30
0.0
 11
566.8212449999999
 21
406.3082769999999
 31
0.0
  0
LINE
  5
57E
330
6F4
100
AcDbEntity
  8
PRO0
  6
PLINE2
 62
     3
100
AcDbLine
 10
566.8212449999999
 20
406.3082769999999
 30
0.0
 11
566.716573
 21
404.311018
 31
0.0
  0
LINE
  5
57F
330
6F4
100
AcDbEntity
  8
PRO0
  6
PLINE2
 62
     3
100
AcDbLine
 10
566.716573
 20
404.311018
 30
0.0
 11
568.6614959999999
 21
403.2077169999999
 31
0.0
  0
LINE
  5
580
330
6F4
100
AcDbEntity
  8
PRO0
  6
PLINE2
 62
     3
100
AcDbLine
 10
568.6614959999999
 20
403.2077169999999
 30
0.0
 11
568.556824
 21
401.2104579999999
 31
0.0
  0
LINE
  5
581
330
6F4
100
AcDbEntity
  8
PRO0
  6
PLINE2
 62
     3
100
AcDbLine
 10
568.556824
 20
401.2104579999999
 30
0.0
 11
566.559565
 21
401.315129
 31
0.0
  0
LINE
  5
582
330
6F4
100
AcDbEntity
  8
PRO0
  6
PLINE2
 62
     3
100
AcDbLine
 10
566.559565
 20
401.315129
 30
0.0
 11
566.4548929999999
 21
399.31787
 31
0.0
  0
LINE
  5
583
330
6F4
100
AcDbEntity
  8
PRO0
  6
PLINE2
 62
     3
100
AcDbLine
 10
566.4548929999999
 20
399.31787
 30
0.0
 11
568.3998169999999
 21
398.2145689999999
 31
0.0
  0
LINE
  5
584
330
6F4
100
AcDbEntity
  8
PRO0
  6
PLINE2
 62
     3
100
AcDbLine
 10
568.3998169999999
 20
398.2145689999999
 30
0.0
 11
568.295145
 21
396.21731
 31
0.0
  0
LINE
  5
585
330
6F4
100
AcDbEntity
  8
PRO0
  6
PLINE2
 62
     3
100
AcDbLine
 10
568.295145
 20
396.21731
 30
0.0
 11
566.297886
 21
396.3219819999999
 31
0.0
  0
LINE
  5
586
330
6F4
100
AcDbEntity
  8
PRO0
  6
PLINE2
 62
     3
100
AcDbLine
 10
566.297886
 20
396.3219819999999
 30
0.0
 11
566.193214
 21
394.324723
 31
0.0
  0
LINE
  5
587
330
6F4
100
AcDbEntity
  8
PRO0
  6
PLINE2
 62
     3
100
AcDbLine
 10
566.193214
 20
394.324723
 30
0.0
 11
568.138137
 21
393.221421
 31
0.0
  0
LINE
  5
588
330
6F4
100
AcDbEntity
  8
PRO0
  6
PLINE2
 62
     3
100
AcDbLine
 10
568.138137
 20
393.221421
 30
0.0
 11
568.033465
 21
391.224162
 31
0.0
  0
LINE
  5
589
330
6F4
100
AcDbEntity
  8
PRO0
  6
PLINE2
 62
     3
100
AcDbLine
 10
568.033465
 20
391.224162
 30
0.0
 11
566.0362059999999
 21
391.3288339999999
 31
0.0
  0
LINE
  5
58A
330
6F4
100
AcDbEntity
  8
PRO0
  6
PLINE2
 62
     3
100
AcDbLine
 10
566.0362059999999
 20
391.3288339999999
 30
0.0
 11
565.9315339999999
 21
389.3315749999999
 31
0.0
  0
LINE
  5
58B
330
6F4
100
AcDbEntity
  8
PRO0
  6
PLINE2
 62
     3
100
AcDbLine
 10
565.9315339999999
 20
389.3315749999999
 30
0.0
 11
567.8764570000001
 21
388.2282739999999
 31
0.0
  0
LINE
  5
58C
330
6F4
100
AcDbEntity
  8
PRO0
  6
PLINE2
 62
     3
100
AcDbLine
 10
567.8764570000001
 20
388.2282739999999
 30
0.0
 11
567.7717849999999
 21
386.231015
 31
0.0
  0
LINE
  5
58D
330
6F4
100
AcDbEntity
  8
PRO0
  6
PLINE2
 62
     3
100
AcDbLine
 10
567.7717849999999
 20
386.231015
 30
0.0
 11
565.7745259999999
 21
386.335686
 31
0.0
  0
LINE
  5
58E
330
6F4
100
AcDbEntity
  8
PRO0
  6
PLINE2
 62
     3
100
AcDbLine
 10
565.7745259999999
 20
386.335686
 30
0.0
 11
565.6698539999999
 21
384.338427
 31
0.0
  0
LINE
  5
58F
330
6F4
100
AcDbEntity
  8
PRO0
  6
PLINE2
 62
     3
100
AcDbLine
 10
575.1828
 20
409.115508
 30
0.0
 11
573.442424
 21
408.200864
 31
0.0
  0
LINE
  5
590
330
6F4
100
AcDbEntity
  8
PRO0
  6
PLINE2
 62
     3
100
AcDbLine
 10
573.442424
 20
408.200864
 30
0.0
 11
573.5470959999999
 21
406.2036049999999
 31
0.0
  0
LINE
  5
591
330
6F4
100
AcDbEntity
  8
PRO0
  6
PLINE2
 62
     3
100
AcDbLine
 10
573.5470959999999
 20
406.2036049999999
 30
0.0
 11
575.5443549999999
 21
406.3082769999999
 31
0.0
  0
LINE
  5
592
330
6F4
100
AcDbEntity
  8
PRO0
  6
PLINE2
 62
     3
100
AcDbLine
 10
575.5443549999999
 20
406.3082769999999
 30
0.0
 11
575.6490269999999
 21
404.311018
 31
0.0
  0
LINE
  5
593
330
6F4
100
AcDbEntity
  8
PRO0
  6
PLINE2
 62
     3
100
AcDbLine
 10
575.6490269999999
 20
404.311018
 30
0.0
 11
573.704104
 21
403.2077169999999
 31
0.0
  0
LINE
  5
594
330
6F4
100
AcDbEntity
  8
PRO0
  6
PLINE2
 62
     3
100
AcDbLine
 10
573.704104
 20
403.2077169999999
 30
0.0
 11
573.8087759999999
 21
401.2104579999999
 31
0.0
  0
LINE
  5
595
330
6F4
100
AcDbEntity
  8
PRO0
  6
PLINE2
 62
     3
100
AcDbLine
 10
573.8087759999999
 20
401.2104579999999
 30
0.0
 11
575.806035
 21
401.315129
 31
0.0
  0
LINE
  5
596
330
6F4
100
AcDbEntity
  8
PRO0
  6
PLINE2
 62
     3
100
AcDbLine
 10
575.806035
 20
401.315129
 30
0.0
 11
575.9107069999999
 21
399.31787
 31
0.0
  0
LINE
  5
597
330
6F4
100
AcDbEntity
  8
PRO0
  6
PLINE2
 62
     3
100
AcDbLine
 10
575.9107069999999
 20
399.31787
 30
0.0
 11
573.9657839999999
 21
398.2145689999999
 31
0.0
  0
LINE
  5
598
330
6F4
100
AcDbEntity
  8
PRO0
  6
PLINE2
 62
     3
100
AcDbLine
 10
573.9657839999999
 20
398.2145689999999
 30
0.0
 11
574.0704559999999
 21
396.21731
 31
0.0
  0
LINE
  5
599
330
6F4
100
AcDbEntity
  8
PRO0
  6
PLINE2
 62
     3
100
AcDbLine
 10
574.0704559999999
 20
396.21731
 30
0.0
 11
576.067715
 21
396.3219819999999
 31
0.0
  0
LINE
  5
59A
330
6F4
100
AcDbEntity
  8
PRO0
  6
PLINE2
 62
     3
100
AcDbLine
 10
576.067715
 20
396.3219819999999
 30
0.0
 11
576.1723869999999
 21
394.324723
 31
0.0
  0
LINE
  5
59B
330
6F4
100
AcDbEntity
  8
PRO0
  6
PLINE2
 62
     3
100
AcDbLine
 10
576.1723869999999
 20
394.324723
 30
0.0
 11
574.2274639999999
 21
393.221421
 31
0.0
  0
LINE
  5
59C
330
6F4
100
AcDbEntity
  8
PRO0
  6
PLINE2
 62
     3
100
AcDbLine
 10
574.2274639999999
 20
393.221421
 30
0.0
 11
574.332136
 21
391.224162
 31
0.0
  0
LINE
  5
59D
330
6F4
100
AcDbEntity
  8
PRO0
  6
PLINE2
 62
     3
100
AcDbLine
 10
574.332136
 20
391.224162
 30
0.0
 11
576.3293949999999
 21
391.3288339999999
 31
0.0
  0
LINE
  5
59E
330
6F4
100
AcDbEntity
  8
PRO0
  6
PLINE2
 62
     3
100
AcDbLine
 10
576.3293949999999
 20
391.3288339999999
 30
0.0
 11
576.434067
 21
389.3315749999999
 31
0.0
  0
LINE
  5
59F
330
6F4
100
AcDbEntity
  8
PRO0
  6
PLINE2
 62
     3
100
AcDbLine
 10
576.434067
 20
389.3315749999999
 30
0.0
 11
574.489143
 21
388.2282739999999
 31
0.0
  0
LINE
  5
5A0
330
6F4
100
AcDbEntity
  8
PRO0
  6
PLINE2
 62
     3
100
AcDbLine
 10
574.489143
 20
388.2282739999999
 30
0.0
 11
574.593815
 21
386.231015
 31
0.0
  0
LINE
  5
5A1
330
6F4
100
AcDbEntity
  8
PRO0
  6
PLINE2
 62
     3
100
AcDbLine
 10
574.593815
 20
386.231015
 30
0.0
 11
576.591074
 21
386.335686
 31
0.0
  0
LINE
  5
5A2
330
6F4
100
AcDbEntity
  8
PRO0
  6
PLINE2
 62
     3
100
AcDbLine
 10
576.591074
 20
386.335686
 30
0.0
 11
576.6957459999999
 21
384.338427
 31
0.0
  0
LINE
  5
5A3
330
6F4
100
AcDbEntity
  8
PRO0
  6
PLINE2
 62
     3
100
AcDbLine
 10
570.6828
 20
413.115508
 30
0.0
 11
571.1828
 21
413.115508
 31
0.0
  0
LINE
  5
5A4
330
6F4
100
AcDbEntity
  8
PRO0
  6
PLINE2
 62
     3
100
AcDbLine
 10
571.6828
 20
413.115508
 30
0.0
 11
571.1828
 21
413.115508
 31
0.0
  0
LINE
  5
5A5
330
6F4
100
AcDbEntity
  8
PRO0
  6
Continuous
 62
     2
100
AcDbLine
 10
562.1828
 20
424.115508
 30
0.0
 11
580.1828
 21
424.115508
 31
0.0
  0
LINE
  5
5A6
330
6F4
100
AcDbEntity
  8
PRO0
  6
PLINE2
 62
     3
100
AcDbLine
 10
567.1828
 20
421.115508
 30
0.0
 11
567.1828
 21
413.115508
 31
0.0
  0
LINE
  5
5A7
330
6F4
100
AcDbEntity
  8
PRO0
  6
PLINE2
 62
     3
100
AcDbLine
 10
566.1828
 20
421.115508
 30
0.0
 11
567.1828
 21
416.115508
 31
0.0
  0
LINE
  5
5A8
330
6F4
100
AcDbEntity
  8
PRO0
  6
PLINE2
 62
     3
100
AcDbLine
 10
570.1828
 20
421.115508
 30
0.0
 11
571.1828
 21
416.115508
 31
0.0
  0
LINE
  5
5A9
330
6F4
100
AcDbEntity
  8
PRO0
  6
PLINE2
 62
     3
100
AcDbLine
 10
572.1828
 20
421.115508
 30
0.0
 11
571.1828
 21
416.115508
 31
0.0
  0
LINE
  5
5AA
330
6F4
100
AcDbEntity
  8
PRO0
  6
PLINE2
 62
     3
100
AcDbLine
 10
571.1828
 20
416.115508
 30
0.0
 11
571.1828
 21
421.115508
 31
0.0
  0
LINE
  5
5AB
330
6F4
100
AcDbEntity
  8
PRO0
  6
PLINE2
 62
     3
100
AcDbLine
 10
575.1828
 20
421.115508
 30
0.0
 11
575.1828
 21
413.115508
 31
0.0
  0
LINE
  5
5AC
330
6F4
100
AcDbEntity
  8
PRO0
  6
PLINE2
 62
     3
100
AcDbLine
 10
576.1828
 20
421.115508
 30
0.0
 11
575.1828
 21
416.115508
 31
0.0
  0
LINE
  5
5AD
330
6F4
100
AcDbEntity
  8
PRO0
  6
PLINE3
 62
     3
100
AcDbLine
 10
571.1828
 20
376.6039249999999
 30
0.0
 11
571.1828
 21
433.131013
 31
0.0
  0
LINE
  5
5AE
330
6F4
100
AcDbEntity
  8
PRO0
  6
PLINE2
 62
     3
100
AcDbLine
 10
573.0522449999999
 20
386.984952
 30
0.0
 11
571.1828
 21
385.115508
 31
0.0
  0
ARC
  5
5AF
330
6F4
100
AcDbEntity
  8
PRO0
  6
Continuous
 62
     2
100
AcDbCircle
 10
552.1828
 20
440.2321749999999
 30
0.0
 40
6.083333
100
AcDbArc
 50
53.831358
 51
126.1686419999999
  0
ARC
  5
5B0
330
6F4
100
AcDbEntity
  8
PRO0
  6
Continuous
 62
     2
100
AcDbCircle
 10
555.1828
 20
444.335865
 30
0.0
 40
1.0
100
AcDbArc
 50
0.0
 51
53.831358
  0
ARC
  5
5B1
330
6F4
100
AcDbEntity
  8
PRO0
  6
Continuous
 62
     2
100
AcDbCircle
 10
549.1828
 20
444.335865
 30
0.0
 40
1.0
100
AcDbArc
 50
126.1686419999999
 51
180.0
  0
LINE
  5
5B2
330
6F4
100
AcDbEntity
  8
PRO0
  6
Continuous
 62
     2
100
AcDbLine
 10
546.1828
 20
442.565508
 30
0.0
 11
546.1828
 21
441.815508
 31
0.0
  0
ARC
  5
5B3
330
6F4
100
AcDbEntity
  8
PRO0
  6
Continuous
 62
     2
100
AcDbCircle
 10
547.884551
 20
441.315537
 30
0.0
 40
2.0
100
AcDbArc
 50
89.999801
 51
125.0
  0
LINE
  5
5B4
330
6F4
100
AcDbEntity
  8
PRO0
  6
Continuous
 62
     2
100
AcDbLine
 10
546.1828
 20
442.565508
 30
0.0
 11
546.7373980000001
 21
442.953841
 31
0.0
  0
LINE
  5
5B5
330
6F4
100
AcDbEntity
  8
PRO0
  6
Continuous
 62
     2
100
AcDbLine
 10
546.1828
 20
442.565508
 30
0.0
 11
558.1828
 21
442.565508
 31
0.0
  0
LINE
  5
5B6
330
6F4
100
AcDbEntity
  8
PRO0
  6
Continuous
 62
     2
100
AcDbLine
 10
546.1828
 20
441.815508
 30
0.0
 11
558.1828
 21
441.815508
 31
0.0
  0
LINE
  5
5B7
330
6F4
100
AcDbEntity
  8
PRO0
  6
Continuous
 62
     2
100
AcDbLine
 10
558.1828
 20
442.565508
 30
0.0
 11
558.1828
 21
441.815508
 31
0.0
  0
LINE
  5
5B8
330
6F4
100
AcDbEntity
  8
PRO0
  6
Continuous
 62
     2
100
AcDbLine
 10
547.1828
 20
441.815508
 30
0.0
 11
547.1828
 21
440.815508
 31
0.0
  0
LINE
  5
5B9
330
6F4
100
AcDbEntity
  8
PRO0
  6
Continuous
 62
     2
100
AcDbLine
 10
547.1828
 20
440.815508
 30
0.0
 11
557.1828
 21
440.815508
 31
0.0
  0
LINE
  5
5BA
330
6F4
100
AcDbEntity
  8
PRO0
  6
Continuous
 62
     2
100
AcDbLine
 10
557.1828
 20
441.815508
 30
0.0
 11
557.1828
 21
440.815508
 31
0.0
  0
LINE
  5
5BB
330
6F4
100
AcDbEntity
  8
PRO0
  6
Continuous
 62
     3
100
AcDbLine
 10
550.304121
 20
440.815508
 30
0.0
 11
551.3041209999999
 21
441.815508
 31
0.0
  0
LINE
  5
5BC
330
6F4
100
AcDbEntity
  8
PRO0
  6
Continuous
 62
     3
100
AcDbLine
 10
552.425441
 20
440.815508
 30
0.0
 11
553.4254409999999
 21
441.815508
 31
0.0
  0
LINE
  5
5BD
330
6F4
100
AcDbEntity
  8
PRO0
  6
Continuous
 62
     3
100
AcDbLine
 10
554.5467610000001
 20
440.815508
 30
0.0
 11
555.546761
 21
441.815508
 31
0.0
  0
LINE
  5
5BE
330
6F4
100
AcDbEntity
  8
PRO0
  6
Continuous
 62
     3
100
AcDbLine
 10
556.668082
 20
440.815508
 30
0.0
 11
557.1828
 21
441.3302269999999
 31
0.0
  0
LINE
  5
5BF
330
6F4
100
AcDbEntity
  8
PRO0
  6
Continuous
 62
     3
100
AcDbLine
 10
548.1828
 20
440.815508
 30
0.0
 11
549.1828
 21
441.815508
 31
0.0
  0
LINE
  5
5C0
330
6F4
100
AcDbEntity
  8
PRO0
  6
Continuous
 62
     3
100
AcDbLine
 10
552.1828
 20
433.41434
 30
0.0
 11
553.7827999999999
 21
433.4613199999999
 31
0.0
  0
LINE
  5
5C1
330
6F4
100
AcDbEntity
  8
PRO0
  6
Continuous
 62
     3
100
AcDbLine
 10
552.1828
 20
433.41434
 30
0.0
 11
553.7827999999999
 21
434.3081009999999
 31
0.0
  0
LINE
  5
5C2
330
6F4
100
AcDbEntity
  8
PRO0
  6
Continuous
 62
     3
100
AcDbLine
 10
550.5828
 20
436.283542
 30
0.0
 11
550.5828
 21
435.248841
 31
0.0
  0
LINE
  5
5C3
330
6F4
100
AcDbEntity
  8
PRO0
  6
Continuous
 62
     3
100
AcDbLine
 10
550.5828
 20
434.402061
 30
0.0
 11
550.5828
 21
428.239268
 31
0.0
  0
LINE
  5
5C4
330
6F4
100
AcDbEntity
  8
PRO0
  6
Continuous
 62
     3
100
AcDbLine
 10
553.7827999999999
 20
437.224283
 30
0.0
 11
553.7827999999999
 21
436.1895819999999
 31
0.0
  0
LINE
  5
5C5
330
6F4
100
AcDbEntity
  8
PRO0
  6
Continuous
 62
     3
100
AcDbLine
 10
553.7827999999999
 20
435.3428019999999
 30
0.0
 11
553.7827999999999
 21
434.3081009999999
 31
0.0
  0
LINE
  5
5C6
330
6F4
100
AcDbEntity
  8
PRO0
  6
Continuous
 62
     3
100
AcDbLine
 10
553.7827999999999
 20
433.4613199999999
 30
0.0
 11
553.7827999999999
 21
428.239268
 31
0.0
  0
LINE
  5
5C7
330
6F4
100
AcDbEntity
  8
PRO0
  6
Continuous
 62
     3
100
AcDbLine
 10
550.5828
 20
438.1650239999999
 30
0.0
 11
550.5828
 21
437.130323
 31
0.0
  0
LINE
  5
5C8
330
6F4
100
AcDbEntity
  8
PRO0
  6
Continuous
 62
     3
100
AcDbLine
 10
553.7827999999999
 20
438.071064
 30
0.0
 11
553.7827999999999
 21
439.105765
 31
0.0
  0
LINE
  5
5C9
330
6F4
100
AcDbEntity
  8
PRO0
  6
Continuous
 62
     3
100
AcDbLine
 10
550.5828
 20
436.283542
 30
0.0
 11
553.7827999999999
 21
437.224283
 31
0.0
  0
LINE
  5
5CA
330
6F4
100
AcDbEntity
  8
PRO0
  6
Continuous
 62
     3
100
AcDbLine
 10
550.5828
 20
437.130323
 30
0.0
 11
553.7827999999999
 21
438.071064
 31
0.0
  0
LINE
  5
5CB
330
6F4
100
AcDbEntity
  8
PRO0
  6
Continuous
 62
     3
100
AcDbLine
 10
549.849467
 20
436.7069329999999
 30
0.0
 11
554.5161339999999
 21
437.647673
 31
0.0
  0
LINE
  5
5CC
330
6F4
100
AcDbEntity
  8
PRO0
  6
Continuous
 62
     3
100
AcDbLine
 10
549.849467
 20
436.7069329999999
 30
0.0
 11
550.5828
 21
436.283542
 31
0.0
  0
LINE
  5
5CD
330
6F4
100
AcDbEntity
  8
PRO0
  6
Continuous
 62
     3
100
AcDbLine
 10
549.849467
 20
436.7069329999999
 30
0.0
 11
550.5828
 21
437.130323
 31
0.0
  0
LINE
  5
5CE
330
6F4
100
AcDbEntity
  8
PRO0
  6
Continuous
 62
     3
100
AcDbLine
 10
554.5161339999999
 20
437.647673
 30
0.0
 11
553.7827999999999
 21
437.224283
 31
0.0
  0
LINE
  5
5CF
330
6F4
100
AcDbEntity
  8
PRO0
  6
Continuous
 62
     3
100
AcDbLine
 10
553.7827999999999
 20
438.071064
 30
0.0
 11
554.5161339999999
 21
437.647673
 31
0.0
  0
LINE
  5
5D0
330
6F4
100
AcDbEntity
  8
PRO0
  6
Continuous
 62
     3
100
AcDbLine
 10
550.5828
 20
440.046505
 30
0.0
 11
550.5828
 21
439.0118039999999
 31
0.0
  0
LINE
  5
5D1
330
6F4
100
AcDbEntity
  8
PRO0
  6
Continuous
 62
     3
100
AcDbLine
 10
553.7827999999999
 20
440.815508
 30
0.0
 11
553.7827999999999
 21
439.952545
 31
0.0
  0
LINE
  5
5D2
330
6F4
100
AcDbEntity
  8
PRO0
  6
Continuous
 62
     3
100
AcDbLine
 10
550.5828
 20
438.1650239999999
 30
0.0
 11
553.7827999999999
 21
439.105765
 31
0.0
  0
LINE
  5
5D3
330
6F4
100
AcDbEntity
  8
PRO0
  6
Continuous
 62
     3
100
AcDbLine
 10
550.5828
 20
439.0118039999999
 30
0.0
 11
553.7827999999999
 21
439.952545
 31
0.0
  0
LINE
  5
5D4
330
6F4
100
AcDbEntity
  8
PRO0
  6
Continuous
 62
     3
100
AcDbLine
 10
549.849467
 20
438.5884139999999
 30
0.0
 11
554.5161339999999
 21
439.529155
 31
0.0
  0
LINE
  5
5D5
330
6F4
100
AcDbEntity
  8
PRO0
  6
Continuous
 62
     3
100
AcDbLine
 10
549.849467
 20
438.5884139999999
 30
0.0
 11
550.5828
 21
438.1650239999999
 31
0.0
  0
LINE
  5
5D6
330
6F4
100
AcDbEntity
  8
PRO0
  6
Continuous
 62
     3
100
AcDbLine
 10
549.849467
 20
438.5884139999999
 30
0.0
 11
550.5828
 21
439.0118039999999
 31
0.0
  0
LINE
  5
5D7
330
6F4
100
AcDbEntity
  8
PRO0
  6
Continuous
 62
     3
100
AcDbLine
 10
554.5161339999999
 20
439.529155
 30
0.0
 11
553.7827999999999
 21
439.105765
 31
0.0
  0
LINE
  5
5D8
330
6F4
100
AcDbEntity
  8
PRO0
  6
Continuous
 62
     3
100
AcDbLine
 10
553.7827999999999
 20
439.952545
 30
0.0
 11
554.5161339999999
 21
439.529155
 31
0.0
  0
LINE
  5
5D9
330
6F4
100
AcDbEntity
  8
PRO0
  6
Continuous
 62
     3
100
AcDbLine
 10
553.19862
 20
440.815508
 30
0.0
 11
550.5828
 21
440.046505
 31
0.0
  0
LINE
  5
5DA
330
6F4
100
AcDbEntity
  8
PRO0
  6
Continuous
 62
     3
100
AcDbLine
 10
551.5639219999999
 20
440.815508
 30
0.0
 11
549.849467
 21
440.469896
 31
0.0
  0
LINE
  5
5DB
330
6F4
100
AcDbEntity
  8
PRO0
  6
Continuous
 62
     3
100
AcDbLine
 10
549.849467
 20
440.469896
 30
0.0
 11
550.5828
 21
440.046505
 31
0.0
  0
LINE
  5
5DC
330
6F4
100
AcDbEntity
  8
PRO0
  6
Continuous
 62
     3
100
AcDbLine
 10
550.448085
 20
440.815508
 30
0.0
 11
549.849467
 21
440.469896
 31
0.0
  0
LINE
  5
5DD
330
6F4
100
AcDbEntity
  8
PRO0
  6
Continuous
 62
     2
100
AcDbLine
 10
548.1828
 20
444.335865
 30
0.0
 11
548.1828
 21
443.315508
 31
0.0
  0
ARC
  5
5DE
330
6F4
100
AcDbEntity
  8
PRO0
  6
Continuous
 62
     2
100
AcDbCircle
 10
556.481092
 20
441.315508
 30
0.0
 40
2.0
100
AcDbArc
 50
55.0
 51
89.999801
  0
LINE
  5
5DF
330
6F4
100
AcDbEntity
  8
PRO0
  6
Continuous
 62
     2
100
AcDbLine
 10
547.8845579999999
 20
443.315537
 30
0.0
 11
556.4810989999999
 21
443.315508
 31
0.0
  0
LINE
  5
5E0
330
6F4
100
AcDbEntity
  8
PRO0
  6
Continuous
 62
     2
100
AcDbLine
 10
556.1828
 20
444.335865
 30
0.0
 11
556.1828
 21
443.315508
 31
0.0
  0
LINE
  5
5E1
330
6F4
100
AcDbEntity
  8
PRO0
  6
PLINE3
 62
     3
100
AcDbLine
 10
552.1828
 20
449.609375
 30
0.0
 11
552.1828
 21
423.846422
 31
0.0
  0
LINE
  5
5E2
330
6F4
100
AcDbEntity
  8
PRO0
  6
Continuous
 62
     3
100
AcDbLine
 10
552.1828
 20
429.351749
 30
0.0
 11
552.1828
 21
427.315508
 31
0.0
  0
LINE
  5
5E3
330
6F4
100
AcDbEntity
  8
PRO0
  6
Continuous
 62
     3
100
AcDbLine
 10
553.7827999999999
 20
432.9155079999999
 30
0.0
 11
550.582815
 21
432.9155079999999
 31
0.0
  0
LINE
  5
5E4
330
6F4
100
AcDbEntity
  8
PRO0
  6
Continuous
 62
     3
100
AcDbLine
 10
552.1828
 20
427.315508
 30
0.0
 11
550.582801
 21
428.239268
 31
0.0
  0
LINE
  5
5E5
330
6F4
100
AcDbEntity
  8
PRO0
  6
Continuous
 62
     3
100
AcDbLine
 10
552.1828
 20
427.315508
 30
0.0
 11
553.7827999999999
 21
428.239268
 31
0.0
  0
ARC
  5
5E6
330
6F4
100
AcDbEntity
  8
PRO0
  6
Continuous
 62
     3
100
AcDbCircle
 10
552.2078579999999
 20
427.5508379999999
 30
0.0
 40
1.764847999999999
100
AcDbArc
 50
90.813543
 51
157.040875
  0
ARC
  5
5E7
330
6F4
100
AcDbEntity
  8
PRO0
  6
Continuous
 62
     3
100
AcDbCircle
 10
558.215212
 20
428.789992
 30
0.0
 40
6.055258999999999
100
AcDbArc
 50
137.0538
 51
175.0212219999999
  0
LINE
  5
5E8
330
6F4
100
AcDbEntity
  8
PRO0
  6
Continuous
 62
     3
100
AcDbLine
 10
550.5828
 20
434.402061
 30
0.0
 11
553.7827999999999
 21
435.3428019999999
 31
0.0
  0
LINE
  5
5E9
330
6F4
100
AcDbEntity
  8
PRO0
  6
Continuous
 62
     3
100
AcDbLine
 10
550.5828
 20
435.248841
 30
0.0
 11
553.7827999999999
 21
436.1895819999999
 31
0.0
  0
LINE
  5
5EA
330
6F4
100
AcDbEntity
  8
PRO0
  6
Continuous
 62
     3
100
AcDbLine
 10
549.849467
 20
434.825451
 30
0.0
 11
554.5161339999999
 21
435.7661919999999
 31
0.0
  0
LINE
  5
5EB
330
6F4
100
AcDbEntity
  8
PRO0
  6
Continuous
 62
     3
100
AcDbLine
 10
549.849467
 20
434.825451
 30
0.0
 11
550.5828
 21
434.402061
 31
0.0
  0
LINE
  5
5EC
330
6F4
100
AcDbEntity
  8
PRO0
  6
Continuous
 62
     3
100
AcDbLine
 10
549.849467
 20
434.825451
 30
0.0
 11
550.5828
 21
435.248841
 31
0.0
  0
LINE
  5
5ED
330
6F4
100
AcDbEntity
  8
PRO0
  6
Continuous
 62
     3
100
AcDbLine
 10
554.5161339999999
 20
435.7661919999999
 30
0.0
 11
553.7827999999999
 21
435.3428019999999
 31
0.0
  0
LINE
  5
5EE
330
6F4
100
AcDbEntity
  8
PRO0
  6
Continuous
 62
     3
100
AcDbLine
 10
553.7827999999999
 20
436.1895819999999
 30
0.0
 11
554.5161339999999
 21
435.7661919999999
 31
0.0
  0
LINE
  5
5EF
330
6F4
100
AcDbEntity
  8
PRO0
  6
Continuous
 62
     3
100
AcDbLine
 10
552.1828
 20
433.41434
 30
0.0
 11
554.5161339999999
 21
433.8847099999999
 31
0.0
  0
LINE
  5
5F0
330
6F4
100
AcDbEntity
  8
PRO0
  6
Continuous
 62
     3
100
AcDbLine
 10
554.5161339999999
 20
433.8847099999999
 30
0.0
 11
553.7827999999999
 21
433.4613199999999
 31
0.0
  0
LINE
  5
5F1
330
6F4
100
AcDbEntity
  8
PRO0
  6
Continuous
 62
     3
100
AcDbLine
 10
553.7827999999999
 20
434.3081009999999
 30
0.0
 11
554.5161339999999
 21
433.8847099999999
 31
0.0
  0
LINE
  5
5F2
330
6F4
100
AcDbEntity
  8
PRO0
  6
Continuous
 62
     2
100
AcDbLine
 10
558.1828
 20
442.565508
 30
0.0
 11
557.6282449999999
 21
442.953812
 31
0.0
  0
ARC
  5
5F3
330
6F4
100
AcDbEntity
  8
PRO0
  6
Continuous
 62
     2
100
AcDbCircle
 10
682.0664739999999
 20
470.315138
 30
0.0
 40
6.083333
100
AcDbArc
 50
143.8313579999999
 51
216.168642
  0
ARC
  5
5F4
330
6F4
100
AcDbEntity
  8
PRO0
  6
Continuous
 62
     2
100
AcDbCircle
 10
677.962783
 20
473.3151379999999
 30
0.0
 40
1.0
100
AcDbArc
 50
90.0
 51
143.8313579999999
  0
ARC
  5
5F5
330
6F4
100
AcDbEntity
  8
PRO0
  6
Continuous
 62
     2
100
AcDbCircle
 10
677.962783
 20
467.315138
 30
0.0
 40
1.0
100
AcDbArc
 50
216.168642
 51
270.0
  0
LINE
  5
5F6
330
6F4
100
AcDbEntity
  8
PRO0
  6
Continuous
 62
     2
100
AcDbLine
 10
679.733141
 20
464.3151379999999
 30
0.0
 11
680.483141
 21
464.3151379999999
 31
0.0
  0
ARC
  5
5F7
330
6F4
100
AcDbEntity
  8
PRO0
  6
Continuous
 62
     2
100
AcDbCircle
 10
680.9831159999999
 20
466.016881
 30
0.0
 40
2.0
100
AcDbArc
 50
179.999833
 51
215.0
  0
LINE
  5
5F8
330
6F4
100
AcDbEntity
  8
PRO0
  6
Continuous
 62
     2
100
AcDbLine
 10
679.733141
 20
464.3151379999999
 30
0.0
 11
679.344812
 21
464.869728
 31
0.0
  0
LINE
  5
5F9
330
6F4
100
AcDbEntity
  8
PRO0
  6
Continuous
 62
     2
100
AcDbLine
 10
679.733141
 20
464.3151379999999
 30
0.0
 11
679.733141
 21
476.315138
 31
0.0
  0
LINE
  5
5FA
330
6F4
100
AcDbEntity
  8
PRO0
  6
Continuous
 62
     2
100
AcDbLine
 10
680.483141
 20
464.3151379999999
 30
0.0
 11
680.483141
 21
476.315138
 31
0.0
  0
LINE
  5
5FB
330
6F4
100
AcDbEntity
  8
PRO0
  6
Continuous
 62
     2
100
AcDbLine
 10
679.733141
 20
476.315138
 30
0.0
 11
680.483141
 21
476.315138
 31
0.0
  0
LINE
  5
5FC
330
6F4
100
AcDbEntity
  8
PRO0
  6
Continuous
 62
     2
100
AcDbLine
 10
680.483141
 20
465.3151379999999
 30
0.0
 11
681.483141
 21
465.3151379999999
 31
0.0
  0
LINE
  5
5FD
330
6F4
100
AcDbEntity
  8
PRO0
  6
Continuous
 62
     2
100
AcDbLine
 10
681.483141
 20
465.3151379999999
 30
0.0
 11
681.483141
 21
475.315138
 31
0.0
  0
LINE
  5
5FE
330
6F4
100
AcDbEntity
  8
PRO0
  6
Continuous
 62
     2
100
AcDbLine
 10
680.483141
 20
475.315138
 30
0.0
 11
681.483141
 21
475.315138
 31
0.0
  0
LINE
  5
5FF
330
6F4
100
AcDbEntity
  8
PRO0
  6
Continuous
 62
     3
100
AcDbLine
 10
680.483141
 20
469.557778
 30
0.0
 11
681.483141
 21
470.557778
 31
0.0
  0
LINE
  5
600
330
6F4
100
AcDbEntity
  8
PRO0
  6
Continuous
 62
     3
100
AcDbLine
 10
680.483141
 20
467.436458
 30
0.0
 11
681.483141
 21
468.436458
 31
0.0
  0
LINE
  5
601
330
6F4
100
AcDbEntity
  8
PRO0
  6
Continuous
 62
     3
100
AcDbLine
 10
680.4864519999999
 20
465.3151379999999
 30
0.0
 11
681.483141
 21
466.311819
 31
0.0
  0
LINE
  5
602
330
6F4
100
AcDbEntity
  8
PRO0
  6
Continuous
 62
     3
100
AcDbLine
 10
680.483141
 20
471.6790989999999
 30
0.0
 11
681.483141
 21
472.679099
 31
0.0
  0
LINE
  5
603
330
6F4
100
AcDbEntity
  8
PRO0
  6
Continuous
 62
     3
100
AcDbLine
 10
680.483141
 20
473.800419
 30
0.0
 11
681.483141
 21
474.800419
 31
0.0
  0
LINE
  5
604
330
6F4
100
AcDbEntity
  8
PRO0
  6
Continuous
 62
     3
100
AcDbLine
 10
688.884309
 20
470.315138
 30
0.0
 11
688.8373289999999
 21
471.915138
 31
0.0
  0
LINE
  5
605
330
6F4
100
AcDbEntity
  8
PRO0
  6
Continuous
 62
     3
100
AcDbLine
 10
688.884309
 20
470.315138
 30
0.0
 11
687.9905479999999
 21
471.915138
 31
0.0
  0
LINE
  5
606
330
6F4
100
AcDbEntity
  8
PRO0
  6
Continuous
 62
     3
100
AcDbLine
 10
686.0151059999999
 20
468.7151379999999
 30
0.0
 11
687.049807
 21
468.7151379999999
 31
0.0
  0
LINE
  5
607
330
6F4
100
AcDbEntity
  8
PRO0
  6
Continuous
 62
     3
100
AcDbLine
 10
687.8965879999999
 20
468.7151379999999
 30
0.0
 11
694.05938
 21
468.7151379999999
 31
0.0
  0
LINE
  5
608
330
6F4
100
AcDbEntity
  8
PRO0
  6
Continuous
 62
     3
100
AcDbLine
 10
685.074366
 20
471.915138
 30
0.0
 11
686.109067
 21
471.915138
 31
0.0
  0
LINE
  5
609
330
6F4
100
AcDbEntity
  8
PRO0
  6
Continuous
 62
     3
100
AcDbLine
 10
686.9558469999999
 20
471.915138
 30
0.0
 11
687.9905479999999
 21
471.915138
 31
0.0
  0
LINE
  5
60A
330
6F4
100
AcDbEntity
  8
PRO0
  6
Continuous
 62
     3
100
AcDbLine
 10
688.8373289999999
 20
471.915138
 30
0.0
 11
694.05938
 21
471.915138
 31
0.0
  0
LINE
  5
60B
330
6F4
100
AcDbEntity
  8
PRO0
  6
Continuous
 62
     3
100
AcDbLine
 10
684.133625
 20
468.7151379999999
 30
0.0
 11
685.1683259999999
 21
468.7151379999999
 31
0.0
  0
LINE
  5
60C
330
6F4
100
AcDbEntity
  8
PRO0
  6
Continuous
 62
     3
100
AcDbLine
 10
684.227585
 20
471.915138
 30
0.0
 11
683.1928839999999
 21
471.915138
 31
0.0
  0
LINE
  5
60D
330
6F4
100
AcDbEntity
  8
PRO0
  6
Continuous
 62
     3
100
AcDbLine
 10
686.0151059999999
 20
468.7151379999999
 30
0.0
 11
685.074366
 21
471.915138
 31
0.0
  0
LINE
  5
60E
330
6F4
100
AcDbEntity
  8
PRO0
  6
Continuous
 62
     3
100
AcDbLine
 10
685.1683259999999
 20
468.7151379999999
 30
0.0
 11
684.227585
 21
471.915138
 31
0.0
  0
LINE
  5
60F
330
6F4
100
AcDbEntity
  8
PRO0
  6
Continuous
 62
     3
100
AcDbLine
 10
685.591716
 20
467.9818039999999
 30
0.0
 11
684.650975
 21
472.648471
 31
0.0
  0
LINE
  5
610
330
6F4
100
AcDbEntity
  8
PRO0
  6
Continuous
 62
     3
100
AcDbLine
 10
685.591716
 20
467.9818039999999
 30
0.0
 11
686.0151059999999
 21
468.7151379999999
 31
0.0
  0
LINE
  5
611
330
6F4
100
AcDbEntity
  8
PRO0
  6
Continuous
 62
     3
100
AcDbLine
 10
685.591716
 20
467.9818039999999
 30
0.0
 11
685.1683259999999
 21
468.7151379999999
 31
0.0
  0
LINE
  5
612
330
6F4
100
AcDbEntity
  8
PRO0
  6
Continuous
 62
     3
100
AcDbLine
 10
684.650975
 20
472.648471
 30
0.0
 11
685.074366
 21
471.915138
 31
0.0
  0
LINE
  5
613
330
6F4
100
AcDbEntity
  8
PRO0
  6
Continuous
 62
     3
100
AcDbLine
 10
684.227585
 20
471.915138
 30
0.0
 11
684.650975
 21
472.648471
 31
0.0
  0
LINE
  5
614
330
6F4
100
AcDbEntity
  8
PRO0
  6
Continuous
 62
     3
100
AcDbLine
 10
682.2521429999999
 20
468.7151379999999
 30
0.0
 11
683.2868440000001
 21
468.7151379999999
 31
0.0
  0
LINE
  5
615
330
6F4
100
AcDbEntity
  8
PRO0
  6
Continuous
 62
     3
100
AcDbLine
 10
681.483141
 20
471.915138
 30
0.0
 11
682.3461039999999
 21
471.915138
 31
0.0
  0
LINE
  5
616
330
6F4
100
AcDbEntity
  8
PRO0
  6
Continuous
 62
     3
100
AcDbLine
 10
684.133625
 20
468.7151379999999
 30
0.0
 11
683.1928839999999
 21
471.915138
 31
0.0
  0
LINE
  5
617
330
6F4
100
AcDbEntity
  8
PRO0
  6
Continuous
 62
     3
100
AcDbLine
 10
683.2868440000001
 20
468.7151379999999
 30
0.0
 11
682.3461039999999
 21
471.915138
 31
0.0
  0
LINE
  5
618
330
6F4
100
AcDbEntity
  8
PRO0
  6
Continuous
 62
     3
100
AcDbLine
 10
683.710235
 20
467.9818039999999
 30
0.0
 11
682.769494
 21
472.648471
 31
0.0
  0
LINE
  5
619
330
6F4
100
AcDbEntity
  8
PRO0
  6
Continuous
 62
     3
100
AcDbLine
 10
683.710235
 20
467.9818039999999
 30
0.0
 11
684.133625
 21
468.7151379999999
 31
0.0
  0
LINE
  5
61A
330
6F4
100
AcDbEntity
  8
PRO0
  6
Continuous
 62
     3
100
AcDbLine
 10
683.710235
 20
467.9818039999999
 30
0.0
 11
683.2868440000001
 21
468.7151379999999
 31
0.0
  0
LINE
  5
61B
330
6F4
100
AcDbEntity
  8
PRO0
  6
Continuous
 62
     3
100
AcDbLine
 10
682.769494
 20
472.648471
 30
0.0
 11
683.1928839999999
 21
471.915138
 31
0.0
  0
LINE
  5
61C
330
6F4
100
AcDbEntity
  8
PRO0
  6
Continuous
 62
     3
100
AcDbLine
 10
682.3461039999999
 20
471.915138
 30
0.0
 11
682.769494
 21
472.648471
 31
0.0
  0
LINE
  5
61D
330
6F4
100
AcDbEntity
  8
PRO0
  6
Continuous
 62
     3
100
AcDbLine
 10
681.483141
 20
471.3309579999999
 30
0.0
 11
682.2521429999999
 21
468.7151379999999
 31
0.0
  0
LINE
  5
61E
330
6F4
100
AcDbEntity
  8
PRO0
  6
Continuous
 62
     3
100
AcDbLine
 10
681.483141
 20
469.6962599999999
 30
0.0
 11
681.828753
 21
467.9818039999999
 31
0.0
  0
LINE
  5
61F
330
6F4
100
AcDbEntity
  8
PRO0
  6
Continuous
 62
     3
100
AcDbLine
 10
681.828753
 20
467.9818039999999
 30
0.0
 11
682.2521429999999
 21
468.7151379999999
 31
0.0
  0
LINE
  5
620
330
6F4
100
AcDbEntity
  8
PRO0
  6
Continuous
 62
     3
100
AcDbLine
 10
681.483141
 20
468.580423
 30
0.0
 11
681.828753
 21
467.9818039999999
 31
0.0
  0
LINE
  5
621
330
6F4
100
AcDbEntity
  8
PRO0
  6
Continuous
 62
     2
100
AcDbLine
 10
677.962783
 20
466.315138
 30
0.0
 11
678.983141
 21
466.315138
 31
0.0
  0
ARC
  5
622
330
6F4
100
AcDbEntity
  8
PRO0
  6
Continuous
 62
     2
100
AcDbCircle
 10
680.9831410000001
 20
474.61343
 30
0.0
 40
2.0
100
AcDbArc
 50
145.0
 51
179.999833
  0
LINE
  5
623
330
6F4
100
AcDbEntity
  8
PRO0
  6
Continuous
 62
     2
100
AcDbLine
 10
678.983116
 20
466.0168869999999
 30
0.0
 11
678.983141
 21
474.613436
 31
0.0
  0
LINE
  5
624
330
6F4
100
AcDbEntity
  8
PRO0
  6
Continuous
 62
     2
100
AcDbLine
 10
677.962783
 20
474.3151379999999
 30
0.0
 11
678.983141
 21
474.3151379999999
 31
0.0
  0
LINE
  5
625
330
6F4
100
AcDbEntity
  8
PRO0
  6
PLINE3
 62
     3
100
AcDbLine
 10
672.989274
 20
470.315138
 30
0.0
 11
698.452227
 21
470.315138
 31
0.0
  0
LINE
  5
626
330
6F4
100
AcDbEntity
  8
PRO0
  6
Continuous
 62
     3
100
AcDbLine
 10
692.9469
 20
470.315138
 30
0.0
 11
694.983141
 21
470.315138
 31
0.0
  0
LINE
  5
627
330
6F4
100
AcDbEntity
  8
PRO0
  6
Continuous
 62
     3
100
AcDbLine
 10
689.383141
 20
471.915138
 30
0.0
 11
689.383141
 21
468.715153
 31
0.0
  0
LINE
  5
628
330
6F4
100
AcDbEntity
  8
PRO0
  6
Continuous
 62
     3
100
AcDbLine
 10
694.983141
 20
470.315138
 30
0.0
 11
694.0593809999999
 21
468.7151379999999
 31
0.0
  0
LINE
  5
629
330
6F4
100
AcDbEntity
  8
PRO0
  6
Continuous
 62
     3
100
AcDbLine
 10
694.983141
 20
470.315138
 30
0.0
 11
694.05938
 21
471.915138
 31
0.0
  0
ARC
  5
62A
330
6F4
100
AcDbEntity
  8
PRO0
  6
Continuous
 62
     3
100
AcDbCircle
 10
694.747811
 20
470.3401959999999
 30
0.0
 40
1.764847999999999
100
AcDbArc
 50
180.8135429999999
 51
247.040875
  0
ARC
  5
62B
330
6F4
100
AcDbEntity
  8
PRO0
  6
Continuous
 62
     3
100
AcDbCircle
 10
693.5086570000001
 20
476.347549
 30
0.0
 40
6.055258999999999
100
AcDbArc
 50
227.0538
 51
265.021222
  0
LINE
  5
62C
330
6F4
100
AcDbEntity
  8
PRO0
  6
Continuous
 62
     3
100
AcDbLine
 10
687.8965879999999
 20
468.7151379999999
 30
0.0
 11
686.9558469999999
 21
471.915138
 31
0.0
  0
LINE
  5
62D
330
6F4
100
AcDbEntity
  8
PRO0
  6
Continuous
 62
     3
100
AcDbLine
 10
687.049807
 20
468.7151379999999
 30
0.0
 11
686.109067
 21
471.915138
 31
0.0
  0
LINE
  5
62E
330
6F4
100
AcDbEntity
  8
PRO0
  6
Continuous
 62
     3
100
AcDbLine
 10
687.4731979999999
 20
467.9818039999999
 30
0.0
 11
686.532457
 21
472.648471
 31
0.0
  0
LINE
  5
62F
330
6F4
100
AcDbEntity
  8
PRO0
  6
Continuous
 62
     3
100
AcDbLine
 10
687.4731979999999
 20
467.9818039999999
 30
0.0
 11
687.8965879999999
 21
468.7151379999999
 31
0.0
  0
LINE
  5
630
330
6F4
100
AcDbEntity
  8
PRO0
  6
Continuous
 62
     3
100
AcDbLine
 10
687.4731979999999
 20
467.9818039999999
 30
0.0
 11
687.049807
 21
468.7151379999999
 31
0.0
  0
LINE
  5
631
330
6F4
100
AcDbEntity
  8
PRO0
  6
Continuous
 62
     3
100
AcDbLine
 10
686.532457
 20
472.648471
 30
0.0
 11
686.9558469999999
 21
471.915138
 31
0.0
  0
LINE
  5
632
330
6F4
100
AcDbEntity
  8
PRO0
  6
Continuous
 62
     3
100
AcDbLine
 10
686.109067
 20
471.915138
 30
0.0
 11
686.532457
 21
472.648471
 31
0.0
  0
LINE
  5
633
330
6F4
100
AcDbEntity
  8
PRO0
  6
Continuous
 62
     3
100
AcDbLine
 10
688.884309
 20
470.315138
 30
0.0
 11
688.413938
 21
472.648471
 31
0.0
  0
LINE
  5
634
330
6F4
100
AcDbEntity
  8
PRO0
  6
Continuous
 62
     3
100
AcDbLine
 10
688.413938
 20
472.648471
 30
0.0
 11
688.8373289999999
 21
471.915138
 31
0.0
  0
LINE
  5
635
330
6F4
100
AcDbEntity
  8
PRO0
  6
Continuous
 62
     3
100
AcDbLine
 10
687.9905479999999
 20
471.915138
 30
0.0
 11
688.413938
 21
472.648471
 31
0.0
  0
LINE
  5
636
330
6F4
100
AcDbEntity
  8
PRO0
  6
Continuous
 62
     2
100
AcDbLine
 10
679.733141
 20
476.315138
 30
0.0
 11
679.344837
 21
475.760583
 31
0.0
  0
LINE
  5
637
330
6F4
100
AcDbEntity
  8
PRO0
  6
Continuous
 62
     2
100
AcDbLine
 10
695.2213019999999
 20
446.7430019999999
 30
0.0
 11
696.6828
 21
446.615138
 31
0.0
  0
LINE
  5
638
330
6F4
100
AcDbEntity
  8
PRO0
  6
Continuous
 62
     2
100
AcDbLine
 10
695.2213019999999
 20
455.487273
 30
0.0
 11
696.6828
 21
455.615138
 31
0.0
  0
ARC
  5
639
330
6F4
100
AcDbEntity
  8
PRO0
  6
Continuous
 62
     2
100
AcDbCircle
 10
705.3828
 20
451.115138
 30
0.0
 40
12.0
100
AcDbArc
 50
164.5060319999999
 51
195.493968
  0
ARC
  5
63A
330
6F4
100
AcDbEntity
  8
PRO0
  6
Continuous
 62
     2
100
AcDbCircle
 10
695.3607509999999
 20
448.3369139999999
 30
0.0
 40
1.6
100
AcDbArc
 50
195.493968
 51
265.0
  0
ARC
  5
63B
330
6F4
100
AcDbEntity
  8
PRO0
  6
Continuous
 62
     2
100
AcDbCircle
 10
695.3607509999999
 20
453.893362
 30
0.0
 40
1.6
100
AcDbArc
 50
95.0
 51
164.5060319999999
  0
LINE
  5
63C
330
6F4
100
AcDbEntity
  8
PRO0
  6
PLINE2
 62
     3
100
AcDbLine
 10
701.1828
 20
446.115138
 30
0.0
 11
701.1828
 21
456.115138
 31
0.0
  0
LINE
  5
63D
330
6F4
100
AcDbEntity
  8
PRO0
  6
Continuous
 62
     2
100
AcDbLine
 10
696.6828
 20
442.115138
 30
0.0
 11
698.1828
 21
442.115138
 31
0.0
  0
LINE
  5
63E
330
6F4
100
AcDbEntity
  8
PRO0
  6
Continuous
 62
     2
100
AcDbLine
 10
696.6828
 20
442.115138
 30
0.0
 11
696.6828
 21
460.115138
 31
0.0
  0
LINE
  5
63F
330
6F4
100
AcDbEntity
  8
PRO0
  6
Continuous
 62
     2
100
AcDbLine
 10
696.6828
 20
460.115138
 30
0.0
 11
698.1828
 21
460.115138
 31
0.0
  0
LINE
  5
640
330
6F4
100
AcDbEntity
  8
PRO0
  6
PLINE2
 62
     3
100
AcDbLine
 10
716.325199
 20
457.4337389999999
 30
0.0
 11
709.521577
 21
458.426094
 31
0.0
  0
ARC
  5
641
330
6F4
100
AcDbEntity
  8
PRO0
  6
PLINE2
 62
     3
100
AcDbCircle
 10
709.4638449999999
 20
458.030282
 30
0.0
 40
0.4
100
AcDbArc
 50
81.701534
 51
171.869898
  0
LINE
  5
642
330
6F4
100
AcDbEntity
  8
PRO0
  6
PLINE2
 62
     3
100
AcDbLine
 10
709.067865
 20
458.08685
 30
0.0
 11
709.0397469999999
 21
457.890026
 31
0.0
  0
ARC
  5
643
330
6F4
100
AcDbEntity
  8
PRO0
  6
PLINE2
 62
     3
100
AcDbCircle
 10
709.4357269999999
 20
457.8334569999999
 30
0.0
 40
0.4
100
AcDbArc
 50
171.869898
 51
261.869898
  0
LINE
  5
644
330
6F4
100
AcDbEntity
  8
PRO0
  6
PLINE2
 62
     3
100
AcDbLine
 10
709.3791589999999
 20
457.4374769999999
 30
0.0
 11
715.9831789999999
 21
456.4940459999999
 31
0.0
  0
LINE
  5
645
330
6F4
100
AcDbEntity
  8
PRO0
  6
PLINE2
 62
     3
100
AcDbLine
 10
716.325199
 20
457.4337389999999
 30
0.0
 11
709.521577
 21
458.426094
 31
0.0
  0
ARC
  5
646
330
6F4
100
AcDbEntity
  8
PRO0
  6
PLINE2
 62
     3
100
AcDbCircle
 10
709.4638449999999
 20
458.030282
 30
0.0
 40
0.4
100
AcDbArc
 50
81.701534
 51
171.869898
  0
LINE
  5
647
330
6F4
100
AcDbEntity
  8
PRO0
  6
PLINE2
 62
     3
100
AcDbLine
 10
709.067865
 20
458.08685
 30
0.0
 11
709.0397469999999
 21
457.890026
 31
0.0
  0
ARC
  5
648
330
6F4
100
AcDbEntity
  8
PRO0
  6
PLINE2
 62
     3
100
AcDbCircle
 10
709.4357269999999
 20
457.8334569999999
 30
0.0
 40
0.4
100
AcDbArc
 50
171.869898
 51
261.869898
  0
LINE
  5
649
330
6F4
100
AcDbEntity
  8
PRO0
  6
PLINE2
 62
     3
100
AcDbLine
 10
709.3791589999999
 20
457.4374769999999
 30
0.0
 11
715.9831789999999
 21
456.4940459999999
 31
0.0
  0
LINE
  5
64A
330
6F4
100
AcDbEntity
  8
PRO0
  6
PLINE2
 62
     3
100
AcDbLine
 10
716.325199
 20
444.796537
 30
0.0
 11
709.521577
 21
443.804182
 31
0.0
  0
ARC
  5
64B
330
6F4
100
AcDbEntity
  8
PRO0
  6
PLINE2
 62
     3
100
AcDbCircle
 10
709.4638449999999
 20
444.199994
 30
0.0
 40
0.4
100
AcDbArc
 50
188.130102
 51
278.298466
  0
LINE
  5
64C
330
6F4
100
AcDbEntity
  8
PRO0
  6
PLINE2
 62
     3
100
AcDbLine
 10
709.067865
 20
444.1434249999999
 30
0.0
 11
709.0397469999999
 21
444.34025
 31
0.0
  0
ARC
  5
64D
330
6F4
100
AcDbEntity
  8
PRO0
  6
PLINE2
 62
     3
100
AcDbCircle
 10
709.4357269999999
 20
444.3968179999999
 30
0.0
 40
0.4
100
AcDbArc
 50
98.130102
 51
188.130102
  0
LINE
  5
64E
330
6F4
100
AcDbEntity
  8
PRO0
  6
PLINE2
 62
     3
100
AcDbLine
 10
709.3791589999999
 20
444.7927980000001
 30
0.0
 11
715.9831789999999
 21
445.7362289999999
 31
0.0
  0
LINE
  5
64F
330
6F4
100
AcDbEntity
  8
PRO0
  6
PLINE2
 62
     3
100
AcDbLine
 10
713.1828
 20
447.115138
 30
0.0
 11
709.1828
 21
447.115138
 31
0.0
  0
LINE
  5
650
330
6F4
100
AcDbEntity
  8
PRO0
  6
PLINE2
 62
     3
100
AcDbLine
 10
738.143057
 20
449.0973949999999
 30
0.0
 11
737.959881
 21
445.602192
 31
0.0
  0
LINE
  5
651
330
6F4
100
AcDbEntity
  8
PRO0
  6
PLINE2
 62
     3
100
AcDbLine
 10
737.959881
 20
445.602192
 30
0.0
 11
740.061812
 21
447.4947789999999
 31
0.0
  0
LINE
  5
652
330
6F4
100
AcDbEntity
  8
PRO0
  6
PLINE2
 62
     3
100
AcDbLine
 10
740.061812
 20
447.4947789999999
 30
0.0
 11
740.140316
 21
448.9927230000001
 31
0.0
  0
LINE
  5
653
330
6F4
100
AcDbEntity
  8
PRO0
  6
PLINE2
 62
     3
100
AcDbLine
 10
740.140316
 20
448.9927230000001
 30
0.0
 11
709.1828
 21
450.615138
 31
0.0
  0
LINE
  5
654
330
6F4
100
AcDbEntity
  8
PRO0
  6
PLINE2
 62
     3
100
AcDbLine
 10
713.1828
 20
455.115138
 30
0.0
 11
709.1828
 21
455.115138
 31
0.0
  0
LINE
  5
655
330
6F4
100
AcDbEntity
  8
PRO0
  6
PLINE2
 62
     3
100
AcDbLine
 10
738.143057
 20
453.1328799999999
 30
0.0
 11
737.959881
 21
456.628084
 31
0.0
  0
LINE
  5
656
330
6F4
100
AcDbEntity
  8
PRO0
  6
PLINE2
 62
     3
100
AcDbLine
 10
737.959881
 20
456.628084
 30
0.0
 11
740.061812
 21
454.7354969999999
 31
0.0
  0
LINE
  5
657
330
6F4
100
AcDbEntity
  8
PRO0
  6
PLINE2
 62
     3
100
AcDbLine
 10
740.061812
 20
454.7354969999999
 30
0.0
 11
740.140316
 21
453.2375519999999
 31
0.0
  0
LINE
  5
658
330
6F4
100
AcDbEntity
  8
PRO0
  6
PLINE2
 62
     3
100
AcDbLine
 10
740.140316
 20
453.2375519999999
 30
0.0
 11
709.1828
 21
451.615138
 31
0.0
  0
LINE
  5
659
330
6F4
100
AcDbEntity
  8
PRO0
  6
PLINE2
 62
     3
100
AcDbLine
 10
720.9831789999999
 20
447.5560809999999
 30
0.0
 11
715.9831789999999
 21
445.7362289999999
 31
0.0
  0
LINE
  5
65A
330
6F4
100
AcDbEntity
  8
PRO0
  6
PLINE2
 62
     3
100
AcDbLine
 10
720.9831789999999
 20
446.491903
 30
0.0
 11
716.325199
 21
444.796537
 31
0.0
  0
LINE
  5
65B
330
6F4
100
AcDbEntity
  8
PRO0
  6
PLINE2
 62
     3
100
AcDbLine
 10
720.9831789999999
 20
454.674195
 30
0.0
 11
715.9831789999999
 21
456.4940459999999
 31
0.0
  0
LINE
  5
65C
330
6F4
100
AcDbEntity
  8
PRO0
  6
PLINE2
 62
     3
100
AcDbLine
 10
720.9831789999999
 20
455.738373
 30
0.0
 11
716.325199
 21
457.4337389999999
 31
0.0
  0
LINE
  5
65D
330
6F4
100
AcDbEntity
  8
PRO0
  6
PLINE2
 62
     3
100
AcDbLine
 10
713.1828
 20
447.115138
 30
0.0
 11
714.0974439999999
 21
448.8555139999999
 31
0.0
  0
LINE
  5
65E
330
6F4
100
AcDbEntity
  8
PRO0
  6
PLINE2
 62
     3
100
AcDbLine
 10
735.3133559999999
 20
449.2456929999999
 30
0.0
 11
737.1828
 21
451.115138
 31
0.0
  0
LINE
  5
65F
330
6F4
100
AcDbEntity
  8
PRO0
  6
PLINE2
 62
     3
100
AcDbLine
 10
714.0974439999999
 20
448.8555139999999
 30
0.0
 11
716.0947029999999
 21
448.750842
 31
0.0
  0
LINE
  5
660
330
6F4
100
AcDbEntity
  8
PRO0
  6
PLINE2
 62
     3
100
AcDbLine
 10
716.0947029999999
 20
448.750842
 30
0.0
 11
715.9900309999999
 21
446.753583
 31
0.0
  0
LINE
  5
661
330
6F4
100
AcDbEntity
  8
PRO0
  6
PLINE2
 62
     3
100
AcDbLine
 10
715.9900309999999
 20
446.753583
 30
0.0
 11
717.98729
 21
446.648911
 31
0.0
  0
LINE
  5
662
330
6F4
100
AcDbEntity
  8
PRO0
  6
PLINE2
 62
     3
100
AcDbLine
 10
717.98729
 20
446.648911
 30
0.0
 11
719.090592
 21
448.5938339999999
 31
0.0
  0
LINE
  5
663
330
6F4
100
AcDbEntity
  8
PRO0
  6
PLINE2
 62
     3
100
AcDbLine
 10
719.090592
 20
448.5938339999999
 30
0.0
 11
721.087851
 21
448.4891619999999
 31
0.0
  0
LINE
  5
664
330
6F4
100
AcDbEntity
  8
PRO0
  6
PLINE2
 62
     3
100
AcDbLine
 10
721.087851
 20
448.4891619999999
 30
0.0
 11
720.9831789999999
 21
446.491903
 31
0.0
  0
LINE
  5
665
330
6F4
100
AcDbEntity
  8
PRO0
  6
PLINE2
 62
     3
100
AcDbLine
 10
720.9831789999999
 20
446.491903
 30
0.0
 11
722.9804379999999
 21
446.387231
 31
0.0
  0
LINE
  5
666
330
6F4
100
AcDbEntity
  8
PRO0
  6
PLINE2
 62
     3
100
AcDbLine
 10
722.9804379999999
 20
446.387231
 30
0.0
 11
724.0837389999999
 21
448.332154
 31
0.0
  0
LINE
  5
667
330
6F4
100
AcDbEntity
  8
PRO0
  6
PLINE2
 62
     3
100
AcDbLine
 10
724.0837389999999
 20
448.332154
 30
0.0
 11
726.080998
 21
448.2274819999999
 31
0.0
  0
LINE
  5
668
330
6F4
100
AcDbEntity
  8
PRO0
  6
PLINE2
 62
     3
100
AcDbLine
 10
726.080998
 20
448.2274819999999
 30
0.0
 11
725.9763259999999
 21
446.230223
 31
0.0
  0
LINE
  5
669
330
6F4
100
AcDbEntity
  8
PRO0
  6
PLINE2
 62
     3
100
AcDbLine
 10
725.9763259999999
 20
446.230223
 30
0.0
 11
727.973586
 21
446.1255509999999
 31
0.0
  0
LINE
  5
66A
330
6F4
100
AcDbEntity
  8
PRO0
  6
PLINE2
 62
     3
100
AcDbLine
 10
727.973586
 20
446.1255509999999
 30
0.0
 11
729.076887
 21
448.070474
 31
0.0
  0
LINE
  5
66B
330
6F4
100
AcDbEntity
  8
PRO0
  6
PLINE2
 62
     3
100
AcDbLine
 10
729.076887
 20
448.070474
 30
0.0
 11
731.074146
 21
447.9658019999999
 31
0.0
  0
LINE
  5
66C
330
6F4
100
AcDbEntity
  8
PRO0
  6
PLINE2
 62
     3
100
AcDbLine
 10
731.074146
 20
447.9658019999999
 30
0.0
 11
730.969474
 21
445.9685429999999
 31
0.0
  0
LINE
  5
66D
330
6F4
100
AcDbEntity
  8
PRO0
  6
PLINE2
 62
     3
100
AcDbLine
 10
730.969474
 20
445.9685429999999
 30
0.0
 11
732.9667329999999
 21
445.863871
 31
0.0
  0
LINE
  5
66E
330
6F4
100
AcDbEntity
  8
PRO0
  6
PLINE2
 62
     3
100
AcDbLine
 10
732.9667329999999
 20
445.863871
 30
0.0
 11
734.0700349999999
 21
447.808795
 31
0.0
  0
LINE
  5
66F
330
6F4
100
AcDbEntity
  8
PRO0
  6
PLINE2
 62
     3
100
AcDbLine
 10
734.0700349999999
 20
447.808795
 30
0.0
 11
736.067294
 21
447.704123
 31
0.0
  0
LINE
  5
670
330
6F4
100
AcDbEntity
  8
PRO0
  6
PLINE2
 62
     3
100
AcDbLine
 10
736.067294
 20
447.704123
 30
0.0
 11
735.9626219999999
 21
445.7068639999999
 31
0.0
  0
LINE
  5
671
330
6F4
100
AcDbEntity
  8
PRO0
  6
PLINE2
 62
     3
100
AcDbLine
 10
735.9626219999999
 20
445.7068639999999
 30
0.0
 11
737.959881
 21
445.602192
 31
0.0
  0
LINE
  5
672
330
6F4
100
AcDbEntity
  8
PRO0
  6
PLINE2
 62
     3
100
AcDbLine
 10
713.1828
 20
455.115138
 30
0.0
 11
714.0974439999999
 21
453.374762
 31
0.0
  0
LINE
  5
673
330
6F4
100
AcDbEntity
  8
PRO0
  6
PLINE2
 62
     3
100
AcDbLine
 10
714.0974439999999
 20
453.374762
 30
0.0
 11
716.0947029999999
 21
453.4794339999999
 31
0.0
  0
LINE
  5
674
330
6F4
100
AcDbEntity
  8
PRO0
  6
PLINE2
 62
     3
100
AcDbLine
 10
716.0947029999999
 20
453.4794339999999
 30
0.0
 11
715.9900309999999
 21
455.4766929999999
 31
0.0
  0
LINE
  5
675
330
6F4
100
AcDbEntity
  8
PRO0
  6
PLINE2
 62
     3
100
AcDbLine
 10
715.9900309999999
 20
455.4766929999999
 30
0.0
 11
717.98729
 21
455.5813650000001
 31
0.0
  0
LINE
  5
676
330
6F4
100
AcDbEntity
  8
PRO0
  6
PLINE2
 62
     3
100
AcDbLine
 10
717.98729
 20
455.5813650000001
 30
0.0
 11
719.090592
 21
453.6364419999999
 31
0.0
  0
LINE
  5
677
330
6F4
100
AcDbEntity
  8
PRO0
  6
PLINE2
 62
     3
100
AcDbLine
 10
719.090592
 20
453.6364419999999
 30
0.0
 11
721.087851
 21
453.7411139999999
 31
0.0
  0
LINE
  5
678
330
6F4
100
AcDbEntity
  8
PRO0
  6
PLINE2
 62
     3
100
AcDbLine
 10
721.087851
 20
453.7411139999999
 30
0.0
 11
720.9831789999999
 21
455.738373
 31
0.0
  0
LINE
  5
679
330
6F4
100
AcDbEntity
  8
PRO0
  6
PLINE2
 62
     3
100
AcDbLine
 10
720.9831789999999
 20
455.738373
 30
0.0
 11
722.9804379999999
 21
455.843044
 31
0.0
  0
LINE
  5
67A
330
6F4
100
AcDbEntity
  8
PRO0
  6
PLINE2
 62
     3
100
AcDbLine
 10
722.9804379999999
 20
455.843044
 30
0.0
 11
724.0837389999999
 21
453.898121
 31
0.0
  0
LINE
  5
67B
330
6F4
100
AcDbEntity
  8
PRO0
  6
PLINE2
 62
     3
100
AcDbLine
 10
724.0837389999999
 20
453.898121
 30
0.0
 11
726.080998
 21
454.0027929999999
 31
0.0
  0
LINE
  5
67C
330
6F4
100
AcDbEntity
  8
PRO0
  6
PLINE2
 62
     3
100
AcDbLine
 10
726.080998
 20
454.0027929999999
 30
0.0
 11
725.9763259999999
 21
456.000052
 31
0.0
  0
LINE
  5
67D
330
6F4
100
AcDbEntity
  8
PRO0
  6
PLINE2
 62
     3
100
AcDbLine
 10
725.9763259999999
 20
456.000052
 30
0.0
 11
727.973586
 21
456.104724
 31
0.0
  0
LINE
  5
67E
330
6F4
100
AcDbEntity
  8
PRO0
  6
PLINE2
 62
     3
100
AcDbLine
 10
727.973586
 20
456.104724
 30
0.0
 11
729.076887
 21
454.1598009999999
 31
0.0
  0
LINE
  5
67F
330
6F4
100
AcDbEntity
  8
PRO0
  6
PLINE2
 62
     3
100
AcDbLine
 10
729.076887
 20
454.1598009999999
 30
0.0
 11
731.074146
 21
454.2644730000001
 31
0.0
  0
LINE
  5
680
330
6F4
100
AcDbEntity
  8
PRO0
  6
PLINE2
 62
     3
100
AcDbLine
 10
731.074146
 20
454.2644730000001
 30
0.0
 11
730.969474
 21
456.261732
 31
0.0
  0
LINE
  5
681
330
6F4
100
AcDbEntity
  8
PRO0
  6
PLINE2
 62
     3
100
AcDbLine
 10
730.969474
 20
456.261732
 30
0.0
 11
732.9667329999999
 21
456.3664039999999
 31
0.0
  0
LINE
  5
682
330
6F4
100
AcDbEntity
  8
PRO0
  6
PLINE2
 62
     3
100
AcDbLine
 10
732.9667329999999
 20
456.3664039999999
 30
0.0
 11
734.0700349999999
 21
454.4214809999999
 31
0.0
  0
LINE
  5
683
330
6F4
100
AcDbEntity
  8
PRO0
  6
PLINE2
 62
     3
100
AcDbLine
 10
734.0700349999999
 20
454.4214809999999
 30
0.0
 11
736.067294
 21
454.526153
 31
0.0
  0
LINE
  5
684
330
6F4
100
AcDbEntity
  8
PRO0
  6
PLINE2
 62
     3
100
AcDbLine
 10
736.067294
 20
454.526153
 30
0.0
 11
735.9626219999999
 21
456.523412
 31
0.0
  0
LINE
  5
685
330
6F4
100
AcDbEntity
  8
PRO0
  6
PLINE2
 62
     3
100
AcDbLine
 10
735.9626219999999
 20
456.523412
 30
0.0
 11
737.959881
 21
456.628084
 31
0.0
  0
LINE
  5
686
330
6F4
100
AcDbEntity
  8
PRO0
  6
PLINE2
 62
     3
100
AcDbLine
 10
709.1828
 20
450.615138
 30
0.0
 11
709.1828
 21
451.115138
 31
0.0
  0
LINE
  5
687
330
6F4
100
AcDbEntity
  8
PRO0
  6
PLINE2
 62
     3
100
AcDbLine
 10
709.1828
 20
451.615138
 30
0.0
 11
709.1828
 21
451.115138
 31
0.0
  0
LINE
  5
688
330
6F4
100
AcDbEntity
  8
PRO0
  6
Continuous
 62
     2
100
AcDbLine
 10
698.1828
 20
442.115138
 30
0.0
 11
698.1828
 21
460.115138
 31
0.0
  0
LINE
  5
689
330
6F4
100
AcDbEntity
  8
PRO0
  6
PLINE2
 62
     3
100
AcDbLine
 10
701.1828
 20
447.115138
 30
0.0
 11
709.1828
 21
447.115138
 31
0.0
  0
LINE
  5
68A
330
6F4
100
AcDbEntity
  8
PRO0
  6
PLINE2
 62
     3
100
AcDbLine
 10
701.1828
 20
446.115138
 30
0.0
 11
706.1828
 21
447.115138
 31
0.0
  0
LINE
  5
68B
330
6F4
100
AcDbEntity
  8
PRO0
  6
PLINE2
 62
     3
100
AcDbLine
 10
701.1828
 20
450.115138
 30
0.0
 11
706.1828
 21
451.115138
 31
0.0
  0
LINE
  5
68C
330
6F4
100
AcDbEntity
  8
PRO0
  6
PLINE2
 62
     3
100
AcDbLine
 10
701.1828
 20
452.115138
 30
0.0
 11
706.1828
 21
451.115138
 31
0.0
  0
LINE
  5
68D
330
6F4
100
AcDbEntity
  8
PRO0
  6
PLINE2
 62
     3
100
AcDbLine
 10
706.1828
 20
451.115138
 30
0.0
 11
701.1828
 21
451.115138
 31
0.0
  0
LINE
  5
68E
330
6F4
100
AcDbEntity
  8
PRO0
  6
PLINE2
 62
     3
100
AcDbLine
 10
701.1828
 20
455.115138
 30
0.0
 11
709.1828
 21
455.115138
 31
0.0
  0
LINE
  5
68F
330
6F4
100
AcDbEntity
  8
PRO0
  6
PLINE2
 62
     3
100
AcDbLine
 10
701.1828
 20
456.115138
 30
0.0
 11
706.1828
 21
455.115138
 31
0.0
  0
LINE
  5
690
330
6F4
100
AcDbEntity
  8
PRO0
  6
PLINE3
 62
     3
100
AcDbLine
 10
745.694383
 20
451.115138
 30
0.0
 11
689.167295
 21
451.115138
 31
0.0
  0
LINE
  5
691
330
6F4
100
AcDbEntity
  8
PRO0
  6
PLINE2
 62
     3
100
AcDbLine
 10
735.3133559999999
 20
452.984582
 30
0.0
 11
737.1828
 21
451.115138
 31
0.0
  0
ARC
  5
692
330
6F4
100
AcDbEntity
  8
PRO0
  6
Continuous
 62
     2
100
AcDbCircle
 10
683.683141
 20
483.615138
 30
0.0
 40
1.0
100
AcDbArc
 50
90.0
 51
180.0
  0
ARC
  5
693
330
6F4
100
AcDbEntity
  8
PRO0
  6
Continuous
 62
     2
100
AcDbCircle
 10
680.9831410000001
 20
434.815508
 30
0.0
 40
1.7
100
AcDbArc
 50
270.0
 51
0.0
  0
ARC
  5
694
330
6F4
100
AcDbEntity
  8
PRO0
  6
Continuous
 62
     2
100
AcDbCircle
 10
683.1831409999999
 20
484.615521
 30
0.0
 40
0.5
100
AcDbArc
 50
90.0
 51
180.0
  0
LINE
  5
695
330
6F4
100
AcDbEntity
  8
PRO0
  6
Continuous
 62
     2
100
AcDbLine
 10
682.6831409999999
 20
434.815508
 30
0.0
 11
682.6831409999999
 21
484.615521
 31
0.0
  0
LINE
  5
696
330
6F4
100
AcDbEntity
  8
PRO0
  6
Continuous
 62
     2
100
AcDbLine
 10
684.183141
 20
484.615138
 30
0.0
 11
683.683141
 21
484.615138
 31
0.0
  0
LINE
  5
697
330
6F4
100
AcDbEntity
  8
PRO0
  6
Continuous
 62
     2
100
AcDbLine
 10
684.183141
 20
484.615138
 30
0.0
 11
684.183141
 21
476.615138
 31
0.0
  0
ARC
  5
698
330
6F4
100
AcDbEntity
  8
PRO0
  6
Continuous
 62
     2
100
AcDbCircle
 10
684.683141
 20
476.615138
 30
0.0
 40
0.5
100
AcDbArc
 50
180.0
 51
270.0
  0
LINE
  5
699
330
6F4
100
AcDbEntity
  8
PRO0
  6
Continuous
 62
     2
100
AcDbLine
 10
701.1828
 20
476.115138
 30
0.0
 11
684.683141
 21
476.115138
 31
0.0
  0
ARC
  5
69A
330
6F4
100
AcDbEntity
  8
PRO0
  6
Continuous
 62
     2
100
AcDbCircle
 10
685.1831409999999
 20
473.8151379999999
 30
0.0
 40
0.5
100
AcDbArc
 50
90.0
 51
180.0
  0
LINE
  5
69B
330
6F4
100
AcDbEntity
  8
PRO0
  6
Continuous
 62
     2
100
AcDbLine
 10
684.683141
 20
465.1151379999999
 30
0.0
 11
684.683141
 21
473.8151379999999
 31
0.0
  0
ARC
  5
69C
330
6F4
100
AcDbEntity
  8
PRO0
  6
Continuous
 62
     2
100
AcDbCircle
 10
683.683141
 20
465.1151379999999
 30
0.0
 40
1.0
100
AcDbArc
 50
270.0
 51
0.0
  0
LINE
  5
69D
330
6F4
100
AcDbEntity
  8
PRO0
  6
Continuous
 62
     2
100
AcDbLine
 10
683.683141
 20
464.115138
 30
0.0
 11
682.6831409999999
 21
464.115138
 31
0.0
  0
LINE
  5
69E
330
6F4
100
AcDbEntity
  8
PRO0
  6
Continuous
 62
     2
100
AcDbLine
 10
685.1831409999999
 20
474.3151379999999
 30
0.0
 11
697.6831409999999
 21
474.3151379999999
 31
0.0
  0
ARC
  5
69F
330
6F4
100
AcDbEntity
  8
PRO0
  6
Continuous
 62
     2
100
AcDbCircle
 10
688.9331409999999
 20
432.365138
 30
0.0
 40
0.75
100
AcDbArc
 50
0.0
 51
180.0
  0
LINE
  5
6A0
330
6F4
100
AcDbEntity
  8
PRO0
  6
Continuous
 62
     2
100
AcDbLine
 10
688.183141
 20
432.365138
 30
0.0
 11
688.183141
 21
421.115138
 31
0.0
  0
ARC
  5
6A1
330
6F4
100
AcDbEntity
  8
PRO0
  6
Continuous
 62
     2
100
AcDbCircle
 10
689.1831409999999
 20
421.115138
 30
0.0
 40
1.0
100
AcDbArc
 50
180.0
 51
270.0
  0
LINE
  5
6A2
330
6F4
100
AcDbEntity
  8
PRO0
  6
Continuous
 62
     2
100
AcDbLine
 10
700.183141
 20
420.1151379999999
 30
0.0
 11
689.1831409999999
 21
420.1151379999999
 31
0.0
  0
ARC
  5
6A3
330
6F4
100
AcDbEntity
  8
PRO0
  6
Continuous
 62
     2
100
AcDbCircle
 10
690.1831409999999
 20
422.115138
 30
0.0
 40
0.5
100
AcDbArc
 50
180.0
 51
270.0
  0
LINE
  5
6A4
330
6F4
100
AcDbEntity
  8
PRO0
  6
Continuous
 62
     2
100
AcDbLine
 10
689.6831409999999
 20
432.365138
 30
0.0
 11
689.6831409999999
 21
422.115138
 31
0.0
  0
LINE
  5
6A5
330
6F4
100
AcDbEntity
  8
PRO0
  6
Continuous
 62
     2
100
AcDbLine
 10
697.183141
 20
421.615138
 30
0.0
 11
690.1831409999999
 21
421.615138
 31
0.0
  0
ARC
  5
6A6
330
6F4
100
AcDbEntity
  8
PRO0
  6
Continuous
 62
     2
100
AcDbCircle
 10
697.183141
 20
422.615138
 30
0.0
 40
1.0
100
AcDbArc
 50
270.0
 51
0.0
  0
ARC
  5
6A7
330
6F4
100
AcDbEntity
  8
PRO0
  6
Continuous
 62
     2
100
AcDbCircle
 10
697.6831409999999
 20
473.8151379999999
 30
0.0
 40
0.5
100
AcDbArc
 50
0.0
 51
90.0
  0
LINE
  5
6A8
330
6F4
100
AcDbEntity
  8
PRO0
  6
Continuous
 62
     2
100
AcDbLine
 10
698.1831409999999
 20
422.615138
 30
0.0
 11
698.1831409999999
 21
450.815138
 31
0.0
  0
LINE
  5
6A9
330
6F4
100
AcDbEntity
  8
PRO0
  6
Continuous
 62
     2
100
AcDbLine
 10
698.1831409999999
 20
451.415138
 30
0.0
 11
698.1831409999999
 21
473.8151379999999
 31
0.0
  0
LINE
  5
6AA
330
6F4
100
AcDbEntity
  8
PRO0
  6
Continuous
 62
     2
100
AcDbLine
 10
698.483141
 20
451.115138
 30
0.0
 11
698.1831409999999
 21
450.815138
 31
0.0
  0
LINE
  5
6AB
330
6F4
100
AcDbEntity
  8
PRO0
  6
Continuous
 62
     2
100
AcDbLine
 10
699.6831409999999
 20
474.6151379999999
 30
0.0
 11
700.183141
 21
474.6151379999999
 31
0.0
  0
LINE
  5
6AC
330
6F4
100
AcDbEntity
  8
PRO0
  6
Continuous
 62
     2
100
AcDbLine
 10
699.6831409999999
 20
474.6151379999999
 30
0.0
 11
699.6831409999999
 21
457.6151379999999
 31
0.0
  0
LINE
  5
6AD
330
6F4
100
AcDbEntity
  8
PRO0
  6
Continuous
 62
     2
100
AcDbLine
 10
699.6831409999999
 20
457.6151379999999
 30
0.0
 11
700.183141
 21
457.6151379999999
 31
0.0
  0
LINE
  5
6AE
330
6F4
100
AcDbEntity
  8
PRO0
  6
Continuous
 62
     2
100
AcDbLine
 10
699.6831409999999
 20
444.6151379999999
 30
0.0
 11
700.183141
 21
444.6151379999999
 31
0.0
  0
LINE
  5
6AF
330
6F4
100
AcDbEntity
  8
PRO0
  6
Continuous
 62
     2
100
AcDbLine
 10
699.6831409999999
 20
421.615138
 30
0.0
 11
700.183141
 21
421.615138
 31
0.0
  0
LINE
  5
6B0
330
6F4
100
AcDbEntity
  8
PRO0
  6
Continuous
 62
     2
100
AcDbLine
 10
699.6831409999999
 20
444.6151379999999
 30
0.0
 11
699.6831409999999
 21
433.115138
 31
0.0
  0
LINE
  5
6B1
330
6F4
100
AcDbEntity
  8
PRO0
  6
Continuous
 62
     2
100
AcDbLine
 10
699.6831409999999
 20
433.115138
 30
0.0
 11
700.183141
 21
433.115138
 31
0.0
  0
LINE
  5
6B2
330
6F4
100
AcDbEntity
  8
PRO0
  6
Continuous
 62
     2
100
AcDbLine
 10
699.6831409999999
 20
431.6151379999999
 30
0.0
 11
700.183141
 21
431.6151379999999
 31
0.0
  0
LINE
  5
6B3
330
6F4
100
AcDbEntity
  8
PRO0
  6
Continuous
 62
     2
100
AcDbLine
 10
699.6831409999999
 20
431.6151379999999
 30
0.0
 11
699.6831409999999
 21
421.615138
 31
0.0
  0
LINE
  5
6B4
330
6F4
100
AcDbEntity
  8
PRO0
  6
Continuous
 62
     2
100
AcDbLine
 10
698.483141
 20
451.115138
 30
0.0
 11
698.1831409999999
 21
451.415138
 31
0.0
  0
LINE
  5
6B5
330
6F4
100
AcDbEntity
  8
PRO0
  6
Continuous
 62
     2
100
AcDbLine
 10
683.683141
 20
484.615138
 30
0.0
 11
684.183141
 21
484.615138
 31
0.0
  0
LINE
  5
6B6
330
6F4
100
AcDbEntity
  8
PRO0
  6
PLINE2
 62
     3
100
AcDbLine
 10
563.6828
 20
424.115508
 30
0.0
 11
563.6828
 21
422.115508
 31
0.0
  0
LINE
  5
6B7
330
6F4
100
AcDbEntity
  8
PRO0
  6
PLINE2
 62
     3
100
AcDbLine
 10
578.6828
 20
424.115508
 30
0.0
 11
578.6828
 21
422.115508
 31
0.0
  0
LINE
  5
6B8
330
6F4
100
AcDbEntity
  8
PRO0
  6
PLINE2
 62
     3
100
AcDbLine
 10
698.1831409999999
 20
458.615138
 30
0.0
 11
699.6831409999999
 21
458.615138
 31
0.0
  0
LINE
  5
6B9
330
6F4
100
AcDbEntity
  8
PRO0
  6
PLINE2
 62
     3
100
AcDbLine
 10
698.1831409999999
 20
443.615138
 30
0.0
 11
699.6831409999999
 21
443.615138
 31
0.0
  0
LINE
  5
6BA
330
6F4
100
AcDbEntity
  8
PRO0
  6
Continuous
 62
     2
100
AcDbLine
 10
538.6828
 20
439.615508
 30
0.0
 11
558.1828
 21
439.615508
 31
0.0
  0
LINE
  5
6BB
330
6F4
100
AcDbEntity
  8
PRO0
  6
Continuous
 62
     2
100
AcDbLine
 10
536.1828
 20
439.115508
 30
0.0
 11
536.1828
 21
432.515508
 31
0.0
  0
ARC
  5
6BC
330
6F4
100
AcDbEntity
  8
PRO0
  6
Continuous
 62
     2
100
AcDbCircle
 10
537.8827999999999
 20
432.515508
 30
0.0
 40
1.7
100
AcDbArc
 50
180.0
 51
270.0
  0
LINE
  5
6BD
330
6F4
100
AcDbEntity
  8
PRO0
  6
Continuous
 62
     2
100
AcDbLine
 10
546.1828
 20
430.815508
 30
0.0
 11
537.8827999999999
 21
430.815508
 31
0.0
  0
LINE
  5
6BE
330
6F4
100
AcDbEntity
  8
PRO0
  6
Continuous
 62
     2
100
AcDbLine
 10
546.1828
 20
432.015508
 30
0.0
 11
537.8828009999999
 21
432.015508
 31
0.0
  0
ARC
  5
6BF
330
6F4
100
AcDbEntity
  8
PRO0
  6
Continuous
 62
     2
100
AcDbCircle
 10
537.8827999999999
 20
439.115508
 30
0.0
 40
1.7
100
AcDbArc
 50
90.0
 51
180.0
  0
LINE
  5
6C0
330
6F4
100
AcDbEntity
  8
PRO0
  6
Continuous
 62
     2
100
AcDbLine
 10
537.8827999999999
 20
440.815508
 30
0.0
 11
614.4828
 21
440.815508
 31
0.0
  0
ARC
  5
6C1
330
6F4
100
AcDbEntity
  8
PRO0
  6
Continuous
 62
     2
100
AcDbCircle
 10
614.4828
 20
439.115508
 30
0.0
 40
1.7
100
AcDbArc
 50
0.0
 51
90.0
  0
LINE
  5
6C2
330
6F4
100
AcDbEntity
  8
PRO0
  6
Continuous
 62
     2
100
AcDbLine
 10
616.1828
 20
434.315508
 30
0.0
 11
616.1828
 21
439.115508
 31
0.0
  0
ARC
  5
6C3
330
6F4
100
AcDbEntity
  8
PRO0
  6
Continuous
 62
     2
100
AcDbCircle
 10
614.4828
 20
439.115508
 30
0.0
 40
0.5
100
AcDbArc
 50
0.0
 51
90.0
  0
LINE
  5
6C4
330
6F4
100
AcDbEntity
  8
PRO0
  6
Continuous
 62
     2
100
AcDbLine
 10
614.9828
 20
434.315508
 30
0.0
 11
614.9828
 21
439.115508
 31
0.0
  0
LINE
  5
6C5
330
6F4
100
AcDbEntity
  8
PRO0
  6
Continuous
 62
     2
100
AcDbLine
 10
537.8827999999999
 20
439.615508
 30
0.0
 11
614.4828
 21
439.615508
 31
0.0
  0
ARC
  5
6C6
330
6F4
100
AcDbEntity
  8
PRO0
  6
Continuous
 62
     2
100
AcDbCircle
 10
537.8827999999999
 20
439.115508
 30
0.0
 40
0.5
100
AcDbArc
 50
90.0
 51
180.0
  0
ARC
  5
6C7
330
6F4
100
AcDbEntity
  8
PRO0
  6
Continuous
 62
     2
100
AcDbCircle
 10
537.8828009999999
 20
432.515508
 30
0.0
 40
0.5
100
AcDbArc
 50
180.0
 51
270.0
  0
LINE
  5
6C8
330
6F4
100
AcDbEntity
  8
PRO0
  6
Continuous
 62
     2
100
AcDbLine
 10
537.3827999999999
 20
439.115508
 30
0.0
 11
537.3828009999999
 21
432.515508
 31
0.0
  0
ARC
  5
6C9
330
6F4
100
AcDbEntity
  8
PRO0
  6
Continuous
 62
     2
100
AcDbCircle
 10
683.1831409999999
 20
484.615521
 30
0.0
 40
1.7
100
AcDbArc
 50
90.0
 51
180.0
  0
LINE
  5
6CA
330
6F4
100
AcDbEntity
  8
PRO0
  6
Continuous
 62
     2
100
AcDbLine
 10
683.1831409999999
 20
486.315521
 30
0.0
 11
689.783141
 21
486.315521
 31
0.0
  0
ARC
  5
6CB
330
6F4
100
AcDbEntity
  8
PRO0
  6
Continuous
 62
     2
100
AcDbCircle
 10
689.783141
 20
484.615521
 30
0.0
 40
1.7
100
AcDbArc
 50
0.0
 51
90.0
  0
LINE
  5
6CC
330
6F4
100
AcDbEntity
  8
PRO0
  6
Continuous
 62
     2
100
AcDbLine
 10
691.483141
 20
476.115138
 30
0.0
 11
691.483141
 21
484.615521
 31
0.0
  0
ARC
  5
6CD
330
6F4
100
AcDbEntity
  8
PRO0
  6
Continuous
 62
     2
100
AcDbCircle
 10
689.783141
 20
484.615521
 30
0.0
 40
0.5
100
AcDbArc
 50
0.0
 51
90.0
  0
LINE
  5
6CE
330
6F4
100
AcDbEntity
  8
PRO0
  6
Continuous
 62
     2
100
AcDbLine
 10
690.283141
 20
484.615521
 30
0.0
 11
690.283141
 21
476.3155209999999
 31
0.0
  0
LINE
  5
6CF
330
6F4
100
AcDbEntity
  8
PRO0
  6
Continuous
 62
     2
100
AcDbLine
 10
689.783141
 20
485.1155209999999
 30
0.0
 11
683.1831409999999
 21
485.1155209999999
 31
0.0
  0
ARC
  5
6D0
330
6F4
100
AcDbEntity
  8
PRO0
  6
Continuous
 62
     2
100
AcDbCircle
 10
680.9831410000001
 20
434.815508
 30
0.0
 40
0.5
100
AcDbArc
 50
270.0
 51
0.0
  0
LINE
  5
6D1
330
6F4
100
AcDbEntity
  8
PRO0
  6
Continuous
 62
     2
100
AcDbLine
 10
681.483141
 20
484.615521
 30
0.0
 11
681.483141
 21
434.815508
 31
0.0
  0
LINE
  5
6D2
330
6F4
100
AcDbEntity
  8
PRO0
  6
Continuous
 62
     2
100
AcDbLine
 10
544.1828
 20
430.815508
 30
0.0
 11
544.1828
 21
421.115508
 31
0.0
  0
LINE
  5
6D3
330
6F4
100
AcDbEntity
  8
PRO0
  6
Continuous
 62
     2
100
AcDbLine
 10
544.1828
 20
430.815508
 30
0.0
 11
546.1828
 21
421.115508
 31
0.0
  0
LINE
  5
6D4
330
6F4
100
AcDbEntity
  8
PRO0
  6
Continuous
 62
     2
100
AcDbLine
 10
691.483141
 20
478.1151379999999
 30
0.0
 11
701.1828
 21
478.1151379999999
 31
0.0
  0
LINE
  5
6D5
330
6F4
100
AcDbEntity
  8
PRO0
  6
Continuous
 62
     2
100
AcDbLine
 10
691.483141
 20
476.115138
 30
0.0
 11
701.1828
 21
478.1151379999999
 31
0.0
  0
DIMENSION
  5
6E1
330
6F4
100
AcDbEntity
  8
PRO0
  6
Continuous
 62
     3
100
AcDbDimension
  2
*D32
 10
536.1828
 20
525.5868949999999
 30
0.0
 11
618.6828
 21
527.086899
 31
0.0
 70
   128
 71
     5
 42
-1.0
100
AcDbAlignedDimension
 13
701.1828
 23
495.343812
 33
0.0
 14
536.1828
 24
437.115508
 34
0.0
100
AcDbRotatedDimension
  0
LINE
  5
6E2
330
6F4
100
AcDbEntity
  8
PRO0
  6
Continuous
 62
     2
100
AcDbLine
 10
614.6828
 20
422.115508
 30
0.0
 11
615.6828
 21
422.115508
 31
0.0
  0
LINE
  5
6E3
330
6F4
100
AcDbEntity
  8
PRO0
  6
Continuous
 62
     2
100
AcDbLine
 10
597.1828
 20
422.615508
 30
0.0
 11
597.1828
 21
422.115508
 31
0.0
  0
LINE
  5
6E4
330
6F4
100
AcDbEntity
  8
PRO0
  6
Continuous
 62
     2
100
AcDbLine
 10
598.6828
 20
422.615508
 30
0.0
 11
598.6828
 21
422.115508
 31
0.0
  0
LINE
  5
6E5
330
6F4
100
AcDbEntity
  8
PRO0
  6
Continuous
 62
     2
100
AcDbLine
 10
675.8302549999999
 20
380.834703
 30
0.0
 11
700.182573
 21
420.114223
 31
0.0
  0
LINE
  5
6E6
330
6F4
100
AcDbEntity
  8
PRO0
  6
Continuous
 62
     2
100
AcDbLine
 10
676.6801669999999
 20
380.3077789999999
 30
0.0
 11
701.1828
 21
419.8297509999999
 31
0.0
  0
LINE
  5
6E7
330
6F4
100
AcDbEntity
  8
PRO0
  6
Continuous
 62
     2
100
AcDbLine
 10
601.1828
 20
421.115508
 30
0.0
 11
625.462023
 21
380.6739529999999
 31
0.0
  0
LINE
  5
6E8
330
6F4
100
AcDbEntity
  8
PRO0
  6
Continuous
 62
     2
100
AcDbLine
 10
626.319382
 20
381.188672
 30
0.0
 11
601.748819
 21
422.115508
 31
0.0
  0
ARC
  5
6E9
330
6F4
100
AcDbEntity
  8
PRO0
  6
Continuous
 62
     2
100
AcDbCircle
 10
651.1828
 20
396.115508
 30
0.0
 40
29.0
100
AcDbArc
 50
210.9786399999999
 51
328.2021229999999
  0
ARC
  5
6EA
330
6F4
100
AcDbEntity
  8
PRO0
  6
Continuous
 62
     2
100
AcDbCircle
 10
651.1828
 20
396.115508
 30
0.0
 40
30.0
100
AcDbArc
 50
210.9786399999999
 51
328.2021229999999
  0
LINE
  5
6EB
330
6F4
100
AcDbEntity
  8
PRO0
  6
Continuous
 62
     2
100
AcDbLine
 10
604.9827999999999
 20
439.6155059999999
 30
0.0
 11
604.9827999999999
 21
434.3154809999999
 31
0.0
  0
LINE
  5
6EC
330
6F4
100
AcDbEntity
  8
PRO0
  6
Continuous
 62
     3
100
AcDbLine
 10
607.104111
 20
434.315498
 30
0.0
 11
612.404119
 21
439.6155059999999
 31
0.0
  0
LINE
  5
6ED
330
6F4
100
AcDbEntity
  8
PRO0
  6
Continuous
 62
     3
100
AcDbLine
 10
609.2254269999999
 20
434.3154929999999
 30
0.0
 11
614.523759
 21
439.6138259999999
 31
0.0
  0
LINE
  5
6EE
330
6F4
100
AcDbEntity
  8
PRO0
  6
Continuous
 62
     3
100
AcDbLine
 10
611.346743
 20
434.315489
 30
0.0
 11
614.9828
 21
437.951546
 31
0.0
  0
LINE
  5
6EF
330
6F4
100
AcDbEntity
  8
PRO0
  6
Continuous
 62
     3
100
AcDbLine
 10
613.468058
 20
434.3154839999999
 30
0.0
 11
614.9828
 21
435.830226
 31
0.0
  0
LINE
  5
6F0
330
6F4
100
AcDbEntity
  8
PRO0
  6
Continuous
 62
     3
100
AcDbLine
 10
604.985887
 20
434.315502
 30
0.0
 11
610.285929
 21
439.6155059999999
 31
0.0
  0
LINE
  5
6F1
330
6F4
100
AcDbEntity
  8
PRO0
  6
Continuous
 62
     3
100
AcDbLine
 10
604.9827999999999
 20
436.436828
 30
0.0
 11
608.1614789999999
 21
439.6155059999999
 31
0.0
  0
LINE
  5
6F2
330
6F4
100
AcDbEntity
  8
PRO0
  6
Continuous
 62
     3
100
AcDbLine
 10
604.9827999999999
 20
438.5581479999999
 30
0.0
 11
606.040158
 21
439.6155059999999
 31
0.0
  0
ENDSEC
  0
SECTION
  2
OBJECTS
  0
DICTIONARY
  5
C
330
0
100
AcDbDictionary
281
     1
  3
ACAD_GROUP
350
D
  3
ACAD_LAYOUT
350
710
  3
ACAD_MLINESTYLE
350
E
  3
ACAD_PLOTSETTINGS
350
711
  3
ACAD_PLOTSTYLENAME
350
70D
  3
AcDbVariableDictionary
350
718
  0
DICTIONARY
  5
D
102
{ACAD_REACTORS
330
C
102
}
330
C
100
AcDbDictionary
281
     1
  0
DICTIONARY
  5
710
102
{ACAD_REACTORS
330
C
102
}
330
C
100
AcDbDictionary
281
     1
  3
Model
350
712
  3
ﾚｲｱｳﾄ1
350
713
  0
DICTIONARY
  5
E
102
{ACAD_REACTORS
330
C
102
}
330
C
100
AcDbDictionary
281
     1
  3
STANDARD
350
1C
  0
DICTIONARY
  5
711
102
{ACAD_REACTORS
330
C
102
}
330
C
100
AcDbDictionary
281
     1
  0
ACDBDICTIONARYWDFLT
  5
70D
102
{ACAD_REACTORS
330
C
102
}
330
C
100
AcDbDictionary
281
     1
  3
Normal
350
70E
100
AcDbDictionaryWithDefault
340
70E
  0
DICTIONARY
  5
718
102
{ACAD_REACTORS
330
C
102
}
330
C
100
AcDbDictionary
281
     1
  3
DIMASSOC
350
719
  0
LAYOUT
  5
712
102
{ACAD_REACTORS
330
710
102
}
330
710
100
AcDbPlotSettings
  1

  2
DCC4535 I 営業統括部①
  4

  6

 40
0.0
 41
0.0
 42
0.0
 43
0.0
 44
0.0
 45
0.0
 46
0.0
 47
0.0
 48
0.0
 49
0.0
140
0.0
141
0.0
142
1.0
143
1.0
 70
  1712
 72
     0
 73
     0
 74
     0
  7

 75
     0
147
1.0
148
0.0
149
0.0
100
AcDbLayout
  1
Model
 70
     1
 71
     0
 10
0.0
 20
0.0
 11
12.0
 21
9.0
 12
0.0
 22
0.0
 32
0.0
 14
0.0
 24
0.0
 34
0.0
 15
0.0
 25
0.0
 35
0.0
146
0.0
 13
0.0
 23
0.0
 33
0.0
 16
1.0
 26
0.0
 36
0.0
 17
0.0
 27
1.0
 37
0.0
 76
     0
330
6F4
  0
LAYOUT
  5
713
102
{ACAD_REACTORS
330
710
102
}
330
710
100
AcDbPlotSettings
  1

  2
DCC4535 I 営業統括部①
  4

  6

 40
0.0
 41
0.0
 42
0.0
 43
0.0
 44
0.0
 45
0.0
 46
0.0
 47
0.0
 48
0.0
 49
0.0
140
0.0
141
0.0
142
1.0
143
1.0
 70
   688
 72
     0
 73
     0
 74
     5
  7

 75
    16
147
1.0
148
0.0
149
0.0
100
AcDbLayout
  1
ﾚｲｱｳﾄ1
 70
     1
 71
     1
 10
0.0
 20
0.0
 11
12.0
 21
9.0
 12
0.0
 22
0.0
 32
0.0
 14
1.000000000000000E+20
 24
1.000000000000000E+20
 34
1.000000000000000E+20
 15
-1.000000000000000E+20
 25
-1.000000000000000E+20
 35
-1.000000000000000E+20
146
0.0
 13
0.0
 23
0.0
 33
0.0
 16
1.0
 26
0.0
 36
0.0
 17
0.0
 27
1.0
 37
0.0
 76
     0
330
6F5
  0
MLINESTYLE
  5
1C
102
{ACAD_REACTORS
330
E
102
}
330
E
100
AcDbMlineStyle
  2
STANDARD
 70
     0
  3

 62
     0
 51
90.0
 52
90.0
 71
     2
 49
0.5
 62
   256
  6
BYLAYER
 49
-0.5
 62
   256
  6
BYLAYER
  0
ACDBPLACEHOLDER
  5
70E
102
{ACAD_REACTORS
330
70D
102
}
330
70D
  0
DICTIONARYVAR
  5
719
102
{ACAD_REACTORS
330
718
102
}
330
718
100
DictionaryVariables
280
     0
  1
1
  0
ENDSEC
  0
EOF
