  0
SECTION
  2
HEADER
  9
$ACADVER
  1
AC1015
  9
$ACADMAINTVER
 70
    20
  9
$DWGCODEPAGE
  3
ANSI_932
  9
$INSBASE
 10
0.0
 20
0.0
 30
0.0
  9
$EXTMIN
 10
1254.121699652798
 20
467.6261056655658
 30
-0.0000000349181948
  9
$EXTMAX
 10
2078.300488783339
 20
1043.738023687127
 30
0.0000000814935746
  9
$LIMMIN
 10
0.0
 20
0.0
  9
$LIMMAX
 10
420.0
 20
297.0
  9
$ORTHOMODE
 70
     0
  9
$REGENMODE
 70
     1
  9
$FILLMODE
 70
     1
  9
$QTEXTMODE
 70
     0
  9
$MIRRTEXT
 70
     1
  9
$LTSCALE
 40
1.0
  9
$ATTMODE
 70
     1
  9
$TEXTSIZE
 40
5.0
  9
$TRACEWID
 40
0.05
  9
$TEXTSTYLE
  7
ACAD
  9
$CLAYER
  8
0
  9
$CELTYPE
  6
CONTINUOUS
  9
$CECOLOR
 62
   256
  9
$CELTSCALE
 40
1.0
  9
$DISPSILH
 70
     0
  9
$DIMSCALE
 40
1.0
  9
$DIMASZ
 40
1.0
  9
$DIMEXO
 40
0.0
  9
$DIMDLI
 40
0.38
  9
$DIMRND
 40
0.0
  9
$DIMDLE
 40
0.0
  9
$DIMEXE
 40
0.0
  9
$DIMTP
 40
0.0
  9
$DIMTM
 40
0.0
  9
$DIMTXT
 40
5.0
  9
$DIMCEN
 40
0.09
  9
$DIMTSZ
 40
0.0
  9
$DIMTOL
 70
     0
  9
$DIMLIM
 70
     0
  9
$DIMTIH
 70
     0
  9
$DIMTOH
 70
     1
  9
$DIMSE1
 70
     0
  9
$DIMSE2
 70
     0
  9
$DIMTAD
 70
     1
  9
$DIMZIN
 70
     0
  9
$DIMBLK
  1
Dot
  9
$DIMASO
 70
     1
  9
$DIMSHO
 70
     1
  9
$DIMPOST
  1

  9
$DIMAPOST
  1

  9
$DIMALT
 70
     0
  9
$DIMALTD
 70
     2
  9
$DIMALTF
 40
25.4
  9
$DIMLFAC
 40
1.0
  9
$DIMTOFL
 70
     0
  9
$DIMTVP
 40
0.0
  9
$DIMTIX
 70
     1
  9
$DIMSOXD
 70
     0
  9
$DIMSAH
 70
     0
  9
$DIMBLK1
  1

  9
$DIMBLK2
  1

  9
$DIMSTYLE
  2
AutoCAD
  9
$DIMCLRD
 70
     4
  9
$DIMCLRE
 70
     4
  9
$DIMCLRT
 70
     3
  9
$DIMTFAC
 40
1.0
  9
$DIMGAP
 40
1.0
  9
$DIMJUST
 70
     0
  9
$DIMSD1
 70
     0
  9
$DIMSD2
 70
     0
  9
$DIMTOLJ
 70
     1
  9
$DIMTZIN
 70
     0
  9
$DIMALTZ
 70
     0
  9
$DIMALTTZ
 70
     0
  9
$DIMUPT
 70
     0
  9
$DIMDEC
 70
     0
  9
$DIMTDEC
 70
     0
  9
$DIMALTU
 70
     2
  9
$DIMALTTD
 70
     2
  9
$DIMTXSTY
  7
ACAD
  9
$DIMAUNIT
 70
     0
  9
$DIMADEC
 70
     0
  9
$DIMALTRND
 40
0.0
  9
$DIMAZIN
 70
     0
  9
$DIMDSEP
 70
    46
  9
$DIMATFIT
 70
     0
  9
$DIMFRAC
 70
     0
  9
$DIMLDRBLK
  1
None
  9
$DIMLUNIT
 70
     2
  9
$DIMLWD
 70
    -2
  9
$DIMLWE
 70
    -2
  9
$DIMTMOVE
 70
     0
  9
$LUNITS
 70
     2
  9
$LUPREC
 70
     4
  9
$SKETCHINC
 40
0.1
  9
$FILLETRAD
 40
0.0
  9
$AUNITS
 70
     0
  9
$AUPREC
 70
     0
  9
$MENU
  1
.
  9
$ELEVATION
 40
0.0
  9
$PELEVATION
 40
0.0
  9
$THICKNESS
 40
0.0
  9
$LIMCHECK
 70
     0
  9
$CHAMFERA
 40
0.0
  9
$CHAMFERB
 40
0.0
  9
$CHAMFERC
 40
0.0
  9
$CHAMFERD
 40
0.0
  9
$SKPOLY
 70
     0
  9
$TDCREATE
 40
2454316.693457674
  9
$TDUCREATE
 40
2454316.318457674
  9
$TDUPDATE
 40
2454736.728681169
  9
$TDUUPDATE
 40
2454736.353681169
  9
$TDINDWG
 40
0.2509815856
  9
$TDUSRTIMER
 40
0.2509815856
  9
$USRTIMER
 70
     1
  9
$ANGBASE
 50
0.0
  9
$ANGDIR
 70
     0
  9
$PDMODE
 70
     0
  9
$PDSIZE
 40
0.0
  9
$PLINEWID
 40
0.0
  9
$SPLFRAME
 70
     0
  9
$SPLINETYPE
 70
     6
  9
$SPLINESEGS
 70
     8
  9
$HANDSEED
  5
7506
  9
$SURFTAB1
 70
     6
  9
$SURFTAB2
 70
     6
  9
$SURFTYPE
 70
     6
  9
$SURFU
 70
     6
  9
$SURFV
 70
     6
  9
$UCSBASE
  2

  9
$UCSNAME
  2

  9
$UCSORG
 10
0.0
 20
0.0
 30
0.0
  9
$UCSXDIR
 10
1.0
 20
0.0
 30
0.0
  9
$UCSYDIR
 10
0.0
 20
1.0
 30
0.0
  9
$UCSORTHOREF
  2

  9
$UCSORTHOVIEW
 70
     0
  9
$UCSORGTOP
 10
0.0
 20
0.0
 30
0.0
  9
$UCSORGBOTTOM
 10
0.0
 20
0.0
 30
0.0
  9
$UCSORGLEFT
 10
0.0
 20
0.0
 30
0.0
  9
$UCSORGRIGHT
 10
0.0
 20
0.0
 30
0.0
  9
$UCSORGFRONT
 10
0.0
 20
0.0
 30
0.0
  9
$UCSORGBACK
 10
0.0
 20
0.0
 30
0.0
  9
$PUCSBASE
  2

  9
$PUCSNAME
  2

  9
$PUCSORG
 10
0.0
 20
0.0
 30
0.0
  9
$PUCSXDIR
 10
1.0
 20
0.0
 30
0.0
  9
$PUCSYDIR
 10
0.0
 20
1.0
 30
0.0
  9
$PUCSORTHOREF
  2

  9
$PUCSORTHOVIEW
 70
     0
  9
$PUCSORGTOP
 10
0.0
 20
0.0
 30
0.0
  9
$PUCSORGBOTTOM
 10
0.0
 20
0.0
 30
0.0
  9
$PUCSORGLEFT
 10
0.0
 20
0.0
 30
0.0
  9
$PUCSORGRIGHT
 10
0.0
 20
0.0
 30
0.0
  9
$PUCSORGFRONT
 10
0.0
 20
0.0
 30
0.0
  9
$PUCSORGBACK
 10
0.0
 20
0.0
 30
0.0
  9
$USERI1
 70
     0
  9
$USERI2
 70
     0
  9
$USERI3
 70
     0
  9
$USERI4
 70
     0
  9
$USERI5
 70
     0
  9
$USERR1
 40
0.0
  9
$USERR2
 40
0.0
  9
$USERR3
 40
0.0
  9
$USERR4
 40
0.0
  9
$USERR5
 40
0.0
  9
$WORLDVIEW
 70
     1
  9
$SHADEDGE
 70
     3
  9
$SHADEDIF
 70
    70
  9
$TILEMODE
 70
     1
  9
$MAXACTVP
 70
    48
  9
$PINSBASE
 10
0.0
 20
0.0
 30
0.0
  9
$PLIMCHECK
 70
     0
  9
$PEXTMIN
 10
1.000000000000000E+20
 20
1.000000000000000E+20
 30
1.000000000000000E+20
  9
$PEXTMAX
 10
-1.000000000000000E+20
 20
-1.000000000000000E+20
 30
-1.000000000000000E+20
  9
$PLIMMIN
 10
0.0
 20
0.0
  9
$PLIMMAX
 10
12.0
 20
9.0
  9
$UNITMODE
 70
     0
  9
$VISRETAIN
 70
     0
  9
$PLINEGEN
 70
     0
  9
$PSLTSCALE
 70
     1
  9
$TREEDEPTH
 70
  3020
  9
$CMLSTYLE
  2
Standard
  9
$CMLJUST
 70
     0
  9
$CMLSCALE
 40
1.0
  9
$PROXYGRAPHICS
 70
     1
  9
$MEASUREMENT
 70
     0
  9
$CELWEIGHT
370
    -1
  9
$ENDCAPS
280
     0
  9
$JOINSTYLE
280
     0
  9
$LWDISPLAY
290
     0
  9
$INSUNITS
 70
     0
  9
$HYPERLINKBASE
  1

  9
$STYLESHEET
  1

  9
$XEDIT
290
     1
  9
$CEPSNTYPE
380
     0
  9
$PSTYLEMODE
290
     1
  9
$FINGERPRINTGUID
  2
{CC7D6DEE-A9F1-4F3E-AC95-C84B62CCA3FD}
  9
$VERSIONGUID
  2
{3632B41C-C7CA-4AFD-8F0D-D19DD6FE2619}
  9
$EXTNAMES
290
     1
  9
$PSVPSCALE
 40
0.0
  9
$OLESTARTUP
290
     0
  0
ENDSEC
  0
SECTION
  2
CLASSES
  0
CLASS
  1
ACDBDICTIONARYWDFLT
  2
AcDbDictionaryWithDefault
  3
ObjectDBX Classes
 90
        0
280
     0
281
     0
  0
CLASS
  1
ACDBPLACEHOLDER
  2
AcDbPlaceHolder
  3
ObjectDBX Classes
 90
        0
280
     0
281
     0
  0
CLASS
  1
LAYOUT
  2
AcDbLayout
  3
ObjectDBX Classes
 90
        0
280
     0
281
     0
  0
CLASS
  1
DICTIONARYVAR
  2
AcDbDictionaryVar
  3
ObjectDBX Classes
 90
        0
280
     0
281
     0
  0
CLASS
  1
TABLESTYLE
  2
AcDbTableStyle
  3
ObjectDBX Classes
 90
     2047
280
     0
281
     0
  0
ENDSEC
  0
SECTION
  2
TABLES
  0
TABLE
  2
VPORT
  5
8
330
0
100
AcDbSymbolTable
 70
     2
  0
VPORT
  5
7500
330
8
100
AcDbSymbolTableRecord
100
AcDbViewportTableRecord
  2
*Active
 70
     0
 10
0.0
 20
0.0
 11
1.0
 21
1.0
 12
1718.164365979191
 22
678.3545337139047
 13
0.0
 23
0.0
 14
1.0
 24
1.0
 15
0.0
 25
0.0
 16
0.0
 26
0.0
 36
1.0
 17
0.0
 27
0.0
 37
0.0
 40
1041.893339686731
 41
1.538265306122448
 42
50.0
 43
0.0
 44
0.0
 50
0.0
 51
0.0
 71
     0
 72
   100
 73
     1
 74
     1
 75
     0
 76
     0
 77
     0
 78
     0
281
     0
 65
     1
110
0.0
120
0.0
130
0.0
111
1.0
121
0.0
131
0.0
112
0.0
122
1.0
132
0.0
 79
     0
146
0.0
  0
ENDTAB
  0
TABLE
  2
LTYPE
  5
5
330
0
100
AcDbSymbolTable
 70
    50
  0
LTYPE
  5
13
330
5
100
AcDbSymbolTableRecord
100
AcDbLinetypeTableRecord
  2
ByBlock
 70
     0
  3

 72
    65
 73
     0
 40
0.0
  0
LTYPE
  5
14
330
5
100
AcDbSymbolTableRecord
100
AcDbLinetypeTableRecord
  2
ByLayer
 70
     0
  3

 72
    65
 73
     0
 40
0.0
  0
LTYPE
  5
15
330
5
100
AcDbSymbolTableRecord
100
AcDbLinetypeTableRecord
  2
CONTINUOUS
 70
     0
  3
実線
 72
    65
 73
     0
 40
0.0
  0
LTYPE
  5
22
330
5
100
AcDbSymbolTableRecord
100
AcDbLinetypeTableRecord
  2
DASHED1
 70
     0
  3
--  --  --  --  --  --  --  --  
 72
    65
 73
     2
 40
2.5
 49
1.25
 74
     0
 49
-1.25
 74
     0
  0
LTYPE
  5
23
330
5
100
AcDbSymbolTableRecord
100
AcDbLinetypeTableRecord
  2
DASHED2
 70
     0
  3
----    ----    ----    ----    
 72
    65
 73
     2
 40
5.0
 49
2.5
 74
     0
 49
-2.5
 74
     0
  0
LTYPE
  5
24
330
5
100
AcDbSymbolTableRecord
100
AcDbLinetypeTableRecord
  2
DASHED3
 70
     0
  3
------  ------  ------  ------  
 72
    65
 73
     2
 40
5.0
 49
3.75
 74
     0
 49
-1.25
 74
     0
  0
LTYPE
  5
25
330
5
100
AcDbSymbolTableRecord
100
AcDbLinetypeTableRecord
  2
CENTER1
 70
     0
  3
----- - ----- - ----- - ----- - 
 72
    65
 73
     4
 40
10.0
 49
6.25
 74
     0
 49
-1.25
 74
     0
 49
1.25
 74
     0
 49
-1.25
 74
     0
  0
LTYPE
  5
26
330
5
100
AcDbSymbolTableRecord
100
AcDbLinetypeTableRecord
  2
CENTER2
 70
     0
  3
----------  --  ----------  --  
 72
    65
 73
     4
 40
20.0
 49
12.5
 74
     0
 49
-2.5
 74
     0
 49
2.5
 74
     0
 49
-2.5
 74
     0
  0
LTYPE
  5
27
330
5
100
AcDbSymbolTableRecord
100
AcDbLinetypeTableRecord
  2
PHANTOM1
 70
     0
  3
--- - - --- - - --- - - --- - - 
 72
    65
 73
     6
 40
10.0
 49
3.25
 74
     0
 49
-1.25
 74
     0
 49
1.25
 74
     0
 49
-1.25
 74
     0
 49
1.25
 74
     0
 49
-1.25
 74
     0
  0
LTYPE
  5
28
330
5
100
AcDbSymbolTableRecord
100
AcDbLinetypeTableRecord
  2
PHANTOM2
 70
     0
  3
--------  -  -  --------  -  -  
 72
    65
 73
     6
 40
20.0
 49
10.0
 74
     0
 49
-2.5
 74
     0
 49
1.25
 74
     0
 49
-2.5
 74
     0
 49
1.25
 74
     0
 49
-2.5
 74
     0
  0
LTYPE
  5
29
330
5
100
AcDbSymbolTableRecord
100
AcDbLinetypeTableRecord
  2
DOT
 70
     0
  3
-   -   -   -   -   -   -   -   
 72
    65
 73
     2
 40
2.5
 49
0.625
 74
     0
 49
-1.875
 74
     0
  0
LTYPE
  5
2A
330
5
100
AcDbSymbolTableRecord
100
AcDbLinetypeTableRecord
  2
DUMMY
 70
     0
  3
ダミー
 72
    65
 73
     0
 40
0.0
  0
LTYPE
  5
2B
330
5
100
AcDbSymbolTableRecord
100
AcDbLinetypeTableRecord
  2
RAND1
 70
     0
  3
ランダム線1
 72
    65
 73
     4
 40
10.0
 49
1.0
 74
     0
 49
-2.0
 74
     0
 49
3.0
 74
     0
 49
-4.0
 74
     0
  0
LTYPE
  5
2C
330
5
100
AcDbSymbolTableRecord
100
AcDbLinetypeTableRecord
  2
RAND2
 70
     0
  3
ランダム線2
 72
    65
 73
     4
 40
14.0
 49
2.0
 74
     0
 49
-3.0
 74
     0
 49
4.0
 74
     0
 49
-5.0
 74
     0
  0
LTYPE
  5
2D
330
5
100
AcDbSymbolTableRecord
100
AcDbLinetypeTableRecord
  2
RAND3
 70
     0
  3
ランダム線3
 72
    65
 73
     4
 40
18.0
 49
3.0
 74
     0
 49
-4.0
 74
     0
 49
5.0
 74
     0
 49
-6.0
 74
     0
  0
LTYPE
  5
2E
330
5
100
AcDbSymbolTableRecord
100
AcDbLinetypeTableRecord
  2
RAND4
 70
     0
  3
ランダム線4
 72
    65
 73
     4
 40
22.0
 49
4.0
 74
     0
 49
-5.0
 74
     0
 49
6.0
 74
     0
 49
-7.0
 74
     0
  0
LTYPE
  5
2F
330
5
100
AcDbSymbolTableRecord
100
AcDbLinetypeTableRecord
  2
RAND5
 70
     0
  3
ランダム線5
 72
    65
 73
     4
 40
26.0
 49
5.0
 74
     0
 49
-6.0
 74
     0
 49
7.0
 74
     0
 49
-8.0
 74
     0
  0
LTYPE
  5
30
330
5
100
AcDbSymbolTableRecord
100
AcDbLinetypeTableRecord
  2
LONG1
 70
     0
  3
----------  --  ----------  --  
 72
    65
 73
     4
 40
40.0
 49
32.5
 74
     0
 49
-2.5
 74
     0
 49
2.5
 74
     0
 49
-2.5
 74
     0
  0
LTYPE
  5
31
330
5
100
AcDbSymbolTableRecord
100
AcDbLinetypeTableRecord
  2
LONG2
 70
     0
  3
--------  -  -  --------  -  -  
 72
    65
 73
     6
 40
40.0
 49
30.0
 74
     0
 49
-2.5
 74
     0
 49
1.25
 74
     0
 49
-2.5
 74
     0
 49
1.25
 74
     0
 49
-2.5
 74
     0
  0
LTYPE
  5
32
330
5
100
AcDbSymbolTableRecord
100
AcDbLinetypeTableRecord
  2
LONG3
 70
     0
  3
+++++++++++++++..+++++++++++++++
 72
    65
 73
     2
 40
40.0
 49
37.5
 74
     0
 49
-2.5
 74
     0
  0
LTYPE
  5
33
330
5
100
AcDbSymbolTableRecord
100
AcDbLinetypeTableRecord
  2
LONG4
 70
     0
  3
+++++++++++++++..+++++++++++++++
 72
    65
 73
     2
 40
80.0
 49
75.0
 74
     0
 49
-5.0
 74
     0
  0
LTYPE
  5
34
330
5
100
AcDbSymbolTableRecord
100
AcDbLinetypeTableRecord
  2
LONG5
 70
     0
  3
----------  --  ----------  --  
 72
    65
 73
     4
 40
60.0
 49
37.5
 74
     0
 49
-7.5
 74
     0
 49
7.5
 74
     0
 49
-7.5
 74
     0
  0
LTYPE
  5
35
330
5
100
AcDbSymbolTableRecord
100
AcDbLinetypeTableRecord
  2
DASHED
 70
     0
  3
-------   -------------   ------
 72
    65
 73
     2
 40
7.5
 49
6.0
 74
     0
 49
-1.5
 74
     0
  0
LTYPE
  5
36
330
5
100
AcDbSymbolTableRecord
100
AcDbLinetypeTableRecord
  2
DASHED_SPACED
 70
     0
  3
----        --------        ----
 72
    65
 73
     2
 40
12.0
 49
6.0
 74
     0
 49
-6.0
 74
     0
  0
LTYPE
  5
37
330
5
100
AcDbSymbolTableRecord
100
AcDbLinetypeTableRecord
  2
LONG_DASHED_DOTTED
 70
     0
  3
------------- --- --------------
 72
    65
 73
     4
 40
15.25
 49
12.0
 74
     0
 49
-1.5
 74
     0
 49
0.25
 74
     0
 49
-1.5
 74
     0
  0
LTYPE
  5
38
330
5
100
AcDbSymbolTableRecord
100
AcDbLinetypeTableRecord
  2
LONG_DASHED_DOUBLE-DOTTED
 70
     0
  3
----------- --- --- ------------
 72
    65
 73
     6
 40
17.0
 49
12.0
 74
     0
 49
-1.5
 74
     0
 49
0.25
 74
     0
 49
-1.5
 74
     0
 49
0.25
 74
     0
 49
-1.5
 74
     0
  0
LTYPE
  5
39
330
5
100
AcDbSymbolTableRecord
100
AcDbLinetypeTableRecord
  2
LONG_DASHED_TRIPLICATE-DOTTED
 70
     0
  3
--------- --- --- --- ----------
 72
    65
 73
     8
 40
18.75
 49
12.0
 74
     0
 49
-1.5
 74
     0
 49
0.25
 74
     0
 49
-1.5
 74
     0
 49
0.25
 74
     0
 49
-1.5
 74
     0
 49
0.25
 74
     0
 49
-1.5
 74
     0
  0
LTYPE
  5
3A
330
5
100
AcDbSymbolTableRecord
100
AcDbLinetypeTableRecord
  2
DOTTED
 70
     0
  3
   -       -       -       -    
 72
    65
 73
     2
 40
1.75
 49
0.25
 74
     0
 49
-1.5
 74
     0
  0
LTYPE
  5
3B
330
5
100
AcDbSymbolTableRecord
100
AcDbLinetypeTableRecord
  2
CHAIN
 70
     0
  3
-------------- -- --------------
 72
    65
 73
     4
 40
18.5
 49
12.0
 74
     0
 49
-1.5
 74
     0
 49
3.5
 74
     0
 49
-1.5
 74
     0
  0
LTYPE
  5
3C
330
5
100
AcDbSymbolTableRecord
100
AcDbLinetypeTableRecord
  2
CHAIN_DOUBLE_DASH
 70
     0
  3
------------ -- -- -------------
 72
    65
 73
     6
 40
23.5
 49
12.0
 74
     0
 49
-1.5
 74
     0
 49
3.5
 74
     0
 49
-1.5
 74
     0
 49
3.5
 74
     0
 49
-1.5
 74
     0
  0
LTYPE
  5
3D
330
5
100
AcDbSymbolTableRecord
100
AcDbLinetypeTableRecord
  2
DASHED_DOTTED
 70
     0
  3
-----------     -     ----------
 72
    65
 73
     4
 40
9.25
 49
6.0
 74
     0
 49
-1.5
 74
     0
 49
0.25
 74
     0
 49
-1.5
 74
     0
  0
LTYPE
  5
3E
330
5
100
AcDbSymbolTableRecord
100
AcDbLinetypeTableRecord
  2
DOUBLE-DASHED_DOTTED
 70
     0
  3
------   -----------   -   -----
 72
    65
 73
     6
 40
16.75
 49
6.0
 74
     0
 49
-1.5
 74
     0
 49
6.0
 74
     0
 49
-1.5
 74
     0
 49
0.25
 74
     0
 49
-1.5
 74
     0
  0
LTYPE
  5
3F
330
5
100
AcDbSymbolTableRecord
100
AcDbLinetypeTableRecord
  2
DASHED_DOUBLE-DOTTED
 70
     0
  3
---------    -    -    ---------
 72
    65
 73
     6
 40
11.0
 49
6.0
 74
     0
 49
-1.5
 74
     0
 49
0.25
 74
     0
 49
-1.5
 74
     0
 49
0.25
 74
     0
 49
-1.5
 74
     0
  0
LTYPE
  5
40
330
5
100
AcDbSymbolTableRecord
100
AcDbLinetypeTableRecord
  2
DOUBLE-DASHED_DOUBLE-DOTTED
 70
     0
  3
-----   ---------   -   -   ----
 72
    65
 73
     8
 40
18.5
 49
6.0
 74
     0
 49
-1.5
 74
     0
 49
6.0
 74
     0
 49
-1.5
 74
     0
 49
0.25
 74
     0
 49
-1.5
 74
     0
 49
0.25
 74
     0
 49
-1.5
 74
     0
  0
LTYPE
  5
41
330
5
100
AcDbSymbolTableRecord
100
AcDbLinetypeTableRecord
  2
DASHED_TRIPLICATE-DOTTED
 70
     0
  3
-------    -    -    -    ------
 72
    65
 73
     8
 40
12.75
 49
6.0
 74
     0
 49
-1.5
 74
     0
 49
0.25
 74
     0
 49
-1.5
 74
     0
 49
0.25
 74
     0
 49
-1.5
 74
     0
 49
0.25
 74
     0
 49
-1.5
 74
     0
  0
LTYPE
  5
42
330
5
100
AcDbSymbolTableRecord
100
AcDbLinetypeTableRecord
  2
DOUBLE-DASHED_TRIPLICATE-DOTTED
 70
     0
  3
-----  ---------  -  -  -  -----
 72
    65
 73
    10
 40
20.25
 49
6.0
 74
     0
 49
-1.5
 74
     0
 49
6.0
 74
     0
 49
-1.5
 74
     0
 49
0.25
 74
     0
 49
-1.5
 74
     0
 49
0.25
 74
     0
 49
-1.5
 74
     0
 49
0.25
 74
     0
 49
-1.5
 74
     0
  0
LTYPE
  5
43
330
5
100
AcDbSymbolTableRecord
100
AcDbLinetypeTableRecord
  2
UNDEFINED
 70
     0
  3
--------------------------------
 72
    65
 73
     0
 40
0.0
  0
LTYPE
  5
44
330
5
100
AcDbSymbolTableRecord
100
AcDbLinetypeTableRecord
  2
PLINE2
 70
     0
  3
------     -----------     -----
 72
    65
 73
     2
 40
3.0
 49
2.1
 74
     0
 49
-0.9
 74
     0
  0
LTYPE
  5
45
330
5
100
AcDbSymbolTableRecord
100
AcDbLinetypeTableRecord
  2
PLINE3
 70
     0
  3
------------   ---   -----------
 72
    65
 73
     4
 40
10.0
 49
7.0
 74
     0
 49
-1.0
 74
     0
 49
1.0
 74
     0
 49
-1.0
 74
     0
  0
LTYPE
  5
46
330
5
100
AcDbSymbolTableRecord
100
AcDbLinetypeTableRecord
  2
PLINE4
 70
     0
  3
---------   ---   ---   --------
 72
    65
 73
     6
 40
10.0
 49
5.0
 74
     0
 49
-1.0
 74
     0
 49
1.0
 74
     0
 49
-1.0
 74
     0
 49
1.0
 74
     0
 49
-1.0
 74
     0
  0
LTYPE
  5
47
330
5
100
AcDbSymbolTableRecord
100
AcDbLinetypeTableRecord
  2
PLINE5
 70
     0
  3
------     -----------     -----
 72
    65
 73
     2
 40
5.0
 49
3.5
 74
     0
 49
-1.5
 74
     0
  0
LTYPE
  5
48
330
5
100
AcDbSymbolTableRecord
100
AcDbLinetypeTableRecord
  2
PLINE6
 70
     0
  3
------------   ---   -----------
 72
    65
 73
     4
 40
15.0
 49
10.5
 74
     0
 49
-1.5
 74
     0
 49
1.5
 74
     0
 49
-1.5
 74
     0
  0
LTYPE
  5
49
330
5
100
AcDbSymbolTableRecord
100
AcDbLinetypeTableRecord
  2
PLINE7
 70
     0
  3
---------   ---   ---   --------
 72
    65
 73
     6
 40
15.0
 49
7.5
 74
     0
 49
-1.5
 74
     0
 49
1.5
 74
     0
 49
-1.5
 74
     0
 49
1.5
 74
     0
 49
-1.5
 74
     0
  0
LTYPE
  5
4A
330
5
100
AcDbSymbolTableRecord
100
AcDbLinetypeTableRecord
  2
PLINE8
 70
     0
  3
------     -----------     -----
 72
    65
 73
     2
 40
7.0
 49
4.9
 74
     0
 49
-2.1
 74
     0
  0
LTYPE
  5
4B
330
5
100
AcDbSymbolTableRecord
100
AcDbLinetypeTableRecord
  2
PLINE9
 70
     0
  3
------------   ---   -----------
 72
    65
 73
     4
 40
20.0
 49
14.0
 74
     0
 49
-2.0
 74
     0
 49
2.0
 74
     0
 49
-2.0
 74
     0
  0
LTYPE
  5
4C
330
5
100
AcDbSymbolTableRecord
100
AcDbLinetypeTableRecord
  2
PLINE10
 70
     0
  3
---------   ---   ---   --------
 72
    65
 73
     6
 40
20.0
 49
10.0
 74
     0
 49
-2.0
 74
     0
 49
2.0
 74
     0
 49
-2.0
 74
     0
 49
2.0
 74
     0
 49
-2.0
 74
     0
  0
LTYPE
  5
4D
330
5
100
AcDbSymbolTableRecord
100
AcDbLinetypeTableRecord
  2
PLINE11
 70
     0
  3
------     -----------     -----
 72
    65
 73
     2
 40
9.0
 49
6.299999999999999
 74
     0
 49
-2.7
 74
     0
  0
LTYPE
  5
4E
330
5
100
AcDbSymbolTableRecord
100
AcDbLinetypeTableRecord
  2
PLINE12
 70
     0
  3
------------   ---   -----------
 72
    65
 73
     4
 40
25.0
 49
17.5
 74
     0
 49
-2.5
 74
     0
 49
2.5
 74
     0
 49
-2.5
 74
     0
  0
LTYPE
  5
4F
330
5
100
AcDbSymbolTableRecord
100
AcDbLinetypeTableRecord
  2
PLINE13
 70
     0
  3
---------   ---   ---   --------
 72
    65
 73
     6
 40
25.0
 49
12.5
 74
     0
 49
-2.5
 74
     0
 49
2.5
 74
     0
 49
-2.5
 74
     0
 49
2.5
 74
     0
 49
-2.5
 74
     0
  0
LTYPE
  5
50
330
5
100
AcDbSymbolTableRecord
100
AcDbLinetypeTableRecord
  2
PLINE14
 70
     0
  3
------     -----------     -----
 72
    65
 73
     2
 40
11.0
 49
7.7
 74
     0
 49
-3.299999999999999
 74
     0
  0
LTYPE
  5
51
330
5
100
AcDbSymbolTableRecord
100
AcDbLinetypeTableRecord
  2
PLINE15
 70
     0
  3
------------   ---   -----------
 72
    65
 73
     4
 40
30.0
 49
21.0
 74
     0
 49
-3.0
 74
     0
 49
3.0
 74
     0
 49
-3.0
 74
     0
  0
LTYPE
  5
52
330
5
100
AcDbSymbolTableRecord
100
AcDbLinetypeTableRecord
  2
PLINE16
 70
     0
  3
---------   ---   ---   --------
 72
    65
 73
     6
 40
30.0
 49
15.0
 74
     0
 49
-3.0
 74
     0
 49
3.0
 74
     0
 49
-3.0
 74
     0
 49
3.0
 74
     0
 49
-3.0
 74
     0
  0
ENDTAB
  0
TABLE
  2
LAYER
  5
2
102
{ACAD_XDICTIONARY
360
175
102
}
330
0
100
AcDbSymbolTable
 70
     5
  0
LAYER
  5
10
330
2
100
AcDbSymbolTableRecord
100
AcDbLayerTableRecord
  2
0
 70
     0
 62
     7
  6
CONTINUOUS
370
    -3
390
F
  0
LAYER
  5
128
330
2
100
AcDbSymbolTableRecord
100
AcDbLayerTableRecord
  2
Defpoints
 70
     0
 62
     7
  6
CONTINUOUS
290
     0
370
    -3
390
F
  0
LAYER
  5
178
330
2
100
AcDbSymbolTableRecord
100
AcDbLayerTableRecord
  2
寸法
 70
     0
 62
     7
  6
CONTINUOUS
370
    -3
390
F
  0
LAYER
  5
179
330
2
100
AcDbSymbolTableRecord
100
AcDbLayerTableRecord
  2
躯体と製品
 70
     0
 62
     7
  6
CONTINUOUS
370
    -3
390
F
  0
LAYER
  5
4F62
330
2
100
AcDbSymbolTableRecord
100
AcDbLayerTableRecord
  2
図枠
 70
     0
 62
     7
  6
CONTINUOUS
370
    -3
390
F
  0
ENDTAB
  0
TABLE
  2
STYLE
  5
3
330
0
100
AcDbSymbolTable
 70
     5
  0
STYLE
  5
11
330
3
100
AcDbSymbolTableRecord
100
AcDbTextStyleTableRecord
  2
STANDARD
 70
     0
 40
0.0
 41
1.0
 50
0.0
 71
     0
 42
0.2
  3
txt
  4
bigfont.shx
  0
STYLE
  5
53
330
3
100
AcDbSymbolTableRecord
100
AcDbTextStyleTableRecord
  2
TATEGAKI
 70
     4
 40
0.0
 41
1.0
 50
0.0
 71
     0
 42
1.0
  3
txt
  4
bigfont.shx
  0
STYLE
  5
123
330
3
100
AcDbSymbolTableRecord
100
AcDbTextStyleTableRecord
  2
ACAD
 70
     0
 40
5.0
 41
0.8
 50
0.0
 71
     0
 42
5.0
  3
romans.shx
  4
extfont.shx
  0
STYLE
  5
3A5F
330
3
100
AcDbSymbolTableRecord
100
AcDbTextStyleTableRecord
  2
VERTXT
 70
     4
 40
0.0
 41
0.8582679999999999
 50
0.0
 71
     0
 42
3.5
  3
txt.shx
  4
BIGFONT
  0
STYLE
  5
50AD
330
3
100
AcDbSymbolTableRecord
100
AcDbTextStyleTableRecord
  2
STANDARD2
 70
     0
 40
0.0
 41
0.8582679999999999
 50
0.0
 71
     0
 42
3.5
  3
txt.shx
  4
EXTFONT
  0
ENDTAB
  0
TABLE
  2
VIEW
  5
6
330
0
100
AcDbSymbolTable
 70
     0
  0
ENDTAB
  0
TABLE
  2
UCS
  5
7
330
0
100
AcDbSymbolTable
 70
     0
  0
ENDTAB
  0
TABLE
  2
APPID
  5
9
330
0
100
AcDbSymbolTable
 70
     1
  0
APPID
  5
12
330
9
100
AcDbSymbolTableRecord
100
AcDbRegAppTableRecord
  2
ACAD
 70
     0
  0
ENDTAB
  0
TABLE
  2
DIMSTYLE
  5
A
330
0
100
AcDbSymbolTable
 70
     3
100
AcDbDimStyleTable
 71
     1
340
126
  0
DIMSTYLE
105
11C
330
A
100
AcDbSymbolTableRecord
100
AcDbDimStyleTableRecord
  2
Standard
 70
     0
340
11
  0
DIMSTYLE
105
126
102
{ACAD_REACTORS
330
739A
330
73A7
330
73B4
330
73C1
330
73CD
330
73D9
330
73E5
330
73FD
330
740A
330
7415
330
7420
330
742B
102
}
330
A
100
AcDbSymbolTableRecord
100
AcDbDimStyleTableRecord
  2
AutoCAD
 70
     0
 41
1.0
 42
0.0
 44
0.0
 73
     0
 77
     1
140
5.0
147
1.0
174
     1
176
     4
177
     4
178
     3
271
     0
272
     0
289
     0
340
123
341
15B0
342
11E
  0
DIMSTYLE
105
2CBB
330
A
100
AcDbSymbolTableRecord
100
AcDbDimStyleTableRecord
  2
111
 70
     0
 41
1.0
 42
0.0
 44
0.0
 73
     0
 77
     1
140
5.0
147
1.0
174
     1
176
     4
177
     4
178
     3
271
     0
272
     0
289
     0
340
123
341
15B0
342
2CB5
  0
ENDTAB
  0
TABLE
  2
BLOCK_RECORD
  5
1
330
0
100
AcDbSymbolTable
 70
    16
  0
BLOCK_RECORD
  5
1E
102
{ACAD_XDICTIONARY
360
28B
102
}
330
1
100
AcDbSymbolTableRecord
100
AcDbBlockTableRecord
  2
*Model_Space
340
21
  0
BLOCK_RECORD
  5
1A
102
{ACAD_XDICTIONARY
360
28D
102
}
330
1
100
AcDbSymbolTableRecord
100
AcDbBlockTableRecord
  2
*Paper_Space
340
1D
  0
BLOCK_RECORD
  5
11E
330
1
100
AcDbSymbolTableRecord
100
AcDbBlockTableRecord
  2
_Dot
340
0
102
{BLKREFS
331
73AC
331
73AD
331
73DD
331
73DE
331
7418
331
7419
331
7423
331
7424
331
74B7
331
74B8
331
74C0
331
74C1
331
74C7
331
74C8
331
74CE
331
74CF
331
74D7
331
74D8
331
74DF
331
74E0
331
74E7
331
74E8
331
74EF
331
74F0
102
}
  0
BLOCK_RECORD
  5
15B0
330
1
100
AcDbSymbolTableRecord
100
AcDbBlockTableRecord
  2
_None
340
0
  0
BLOCK_RECORD
  5
2CB5
330
1
100
AcDbSymbolTableRecord
100
AcDbBlockTableRecord
  2
_Open30
340
0
  0
BLOCK_RECORD
  5
35E3
330
1
100
AcDbSymbolTableRecord
100
AcDbBlockTableRecord
  2
_DotBlank
340
0
  0
BLOCK_RECORD
  5
739B
330
1
100
AcDbSymbolTableRecord
100
AcDbBlockTableRecord
  2
*D4
340
0
  0
BLOCK_RECORD
  5
73A8
330
1
100
AcDbSymbolTableRecord
100
AcDbBlockTableRecord
  2
*D5
340
0
  0
BLOCK_RECORD
  5
73B5
330
1
100
AcDbSymbolTableRecord
100
AcDbBlockTableRecord
  2
*D6
340
0
  0
BLOCK_RECORD
  5
73C2
330
1
100
AcDbSymbolTableRecord
100
AcDbBlockTableRecord
  2
*D7
340
0
  0
BLOCK_RECORD
  5
73CE
330
1
100
AcDbSymbolTableRecord
100
AcDbBlockTableRecord
  2
*D8
340
0
  0
BLOCK_RECORD
  5
73DA
330
1
100
AcDbSymbolTableRecord
100
AcDbBlockTableRecord
  2
*D9
340
0
  0
BLOCK_RECORD
  5
73E6
330
1
100
AcDbSymbolTableRecord
100
AcDbBlockTableRecord
  2
*D10
340
0
  0
BLOCK_RECORD
  5
73FE
330
1
100
AcDbSymbolTableRecord
100
AcDbBlockTableRecord
  2
*D11
340
0
  0
BLOCK_RECORD
  5
740B
330
1
100
AcDbSymbolTableRecord
100
AcDbBlockTableRecord
  2
*D12
340
0
  0
BLOCK_RECORD
  5
7416
330
1
100
AcDbSymbolTableRecord
100
AcDbBlockTableRecord
  2
*D13
340
0
  0
BLOCK_RECORD
  5
7421
330
1
100
AcDbSymbolTableRecord
100
AcDbBlockTableRecord
  2
*D14
340
0
  0
BLOCK_RECORD
  5
742C
330
1
100
AcDbSymbolTableRecord
100
AcDbBlockTableRecord
  2
*D15
340
0
  0
ENDTAB
  0
ENDSEC
  0
SECTION
  2
BLOCKS
  0
BLOCK
  5
1F
330
1E
100
AcDbEntity
  8
0
100
AcDbBlockBegin
  2
*Model_Space
 70
     0
 10
0.0
 20
0.0
 30
0.0
  3
*Model_Space
  1

  0
ENDBLK
  5
20
330
1E
100
AcDbEntity
  8
0
100
AcDbBlockEnd
  0
BLOCK
  5
1B
330
1A
100
AcDbEntity
 67
     1
  8
0
100
AcDbBlockBegin
  2
*Paper_Space
 70
     0
 10
0.0
 20
0.0
 30
0.0
  3
*Paper_Space
  1

  0
ENDBLK
  5
1C
330
1A
100
AcDbEntity
 67
     1
  8
0
100
AcDbBlockEnd
  0
BLOCK
  5
121
330
11E
100
AcDbEntity
  8
0
100
AcDbBlockBegin
  2
_Dot
 70
     0
 10
0.0
 20
0.0
 30
0.0
  3
_Dot
  1

  0
LWPOLYLINE
  5
11F
330
11E
100
AcDbEntity
  8
0
  6
ByBlock
 62
     0
100
AcDbPolyline
 90
        2
 70
     1
 43
0.5
 10
-0.25
 20
0.0
 42
1.0
 10
0.25
 20
0.0
 42
1.0
  0
LINE
  5
120
330
11E
100
AcDbEntity
  8
0
  6
ByBlock
 62
     0
370
    -2
100
AcDbLine
 10
-0.5
 20
0.0
 30
0.0
 11
-1.0
 21
0.0
 31
0.0
  0
ENDBLK
  5
122
330
11E
100
AcDbEntity
  8
0
100
AcDbBlockEnd
  0
BLOCK
  5
15B1
330
15B0
100
AcDbEntity
  8
0
100
AcDbBlockBegin
  2
_None
 70
     0
 10
0.0
 20
0.0
 30
0.0
  3
_None
  1

  0
ENDBLK
  5
15B2
330
15B0
100
AcDbEntity
  8
0
100
AcDbBlockEnd
  0
BLOCK
  5
2CB9
330
2CB5
100
AcDbEntity
  8
0
100
AcDbBlockBegin
  2
_Open30
 70
     0
 10
0.0
 20
0.0
 30
0.0
  3
_Open30
  1

  0
LINE
  5
2CB6
330
2CB5
100
AcDbEntity
  8
0
  6
ByBlock
 62
     0
370
    -2
100
AcDbLine
 10
-1.0
 20
0.26794919
 30
0.0
 11
0.0
 21
0.0
 31
0.0
  0
LINE
  5
2CB7
330
2CB5
100
AcDbEntity
  8
0
  6
ByBlock
 62
     0
370
    -2
100
AcDbLine
 10
0.0
 20
0.0
 30
0.0
 11
-1.0
 21
-0.26794919
 31
0.0
  0
LINE
  5
2CB8
330
2CB5
100
AcDbEntity
  8
0
  6
ByBlock
 62
     0
370
    -2
100
AcDbLine
 10
0.0
 20
0.0
 30
0.0
 11
-1.0
 21
0.0
 31
0.0
  0
ENDBLK
  5
2CBA
330
2CB5
100
AcDbEntity
  8
0
100
AcDbBlockEnd
  0
BLOCK
  5
35E6
330
35E3
100
AcDbEntity
  8
0
100
AcDbBlockBegin
  2
_DotBlank
 70
     0
 10
0.0
 20
0.0
 30
0.0
  3
_DotBlank
  1

  0
CIRCLE
  5
35E4
330
35E3
100
AcDbEntity
  8
0
  6
ByBlock
 62
     0
370
    -2
100
AcDbCircle
 10
0.0
 20
0.0
 30
0.0
 40
0.5
  0
LINE
  5
35E5
330
35E3
100
AcDbEntity
  8
0
  6
ByBlock
 62
     0
370
    -2
100
AcDbLine
 10
-0.5
 20
0.0
 30
0.0
 11
-1.0
 21
0.0
 31
0.0
  0
ENDBLK
  5
35E7
330
35E3
100
AcDbEntity
  8
0
100
AcDbBlockEnd
  0
BLOCK
  5
73A5
330
739B
100
AcDbEntity
  8
0
100
AcDbBlockBegin
  2
*D4
 70
     1
 10
0.0
 20
0.0
 30
0.0
  3
*D4
  1

  0
LINE
  5
74B4
330
739B
100
AcDbEntity
  8
寸法
  6
Continuous
 62
     4
370
    -2
100
AcDbLine
 10
1366.185460711939
 20
909.2956691366101
 30
0.0
 11
1366.185460711939
 21
984.6814203229582
 31
0.0
  0
LINE
  5
74B5
330
739B
100
AcDbEntity
  8
寸法
  6
Continuous
 62
     4
370
    -2
100
AcDbLine
 10
1966.185460711938
 20
909.2956691366101
 30
0.0
 11
1966.185460711938
 21
984.6814203229582
 31
0.0
  0
LINE
  5
74B6
330
739B
100
AcDbEntity
  8
寸法
  6
Continuous
 62
     4
370
    -2
100
AcDbLine
 10
1367.185460711939
 20
984.6814203229582
 30
0.0
 11
1965.185460711938
 21
984.6814203229582
 31
0.0
  0
INSERT
  5
74B7
330
739B
100
AcDbEntity
  8
寸法
  6
Continuous
 62
     4
370
    -2
100
AcDbBlockReference
  2
_Dot
 10
1366.185460711939
 20
984.6814203229582
 30
0.0
 50
180.0
  0
INSERT
  5
74B8
330
739B
100
AcDbEntity
  8
寸法
  6
Continuous
 62
     4
370
    -2
100
AcDbBlockReference
  2
_Dot
 10
1966.185460711938
 20
984.6814203229582
 30
0.0
  0
MTEXT
  5
74B9
330
739B
100
AcDbEntity
  8
寸法
  6
Continuous
 62
     3
100
AcDbMText
 10
1666.185460711939
 20
988.1814203229582
 30
0.0
 40
5.0
 41
0.0
 71
     5
 72
     1
  1
\A1;W
  7
ACAD
 73
     1
 44
1.0
1001
ACAD
1000
MTEXTBEGIN
1070
    73
1070
     1
1070
    44
1040
1.0
1070
    74
1070
     0
1000
MTEXTEND
  0
POINT
  5
74BA
330
739B
100
AcDbEntity
  8
Defpoints
  6
Continuous
 62
     0
100
AcDbPoint
 10
1366.185460711939
 20
909.2956691366101
 30
0.0
  0
POINT
  5
74BB
330
739B
100
AcDbEntity
  8
Defpoints
  6
Continuous
 62
     0
100
AcDbPoint
 10
1966.185460711938
 20
909.2956691366101
 30
0.0
  0
POINT
  5
74BC
330
739B
100
AcDbEntity
  8
Defpoints
  6
Continuous
 62
     0
100
AcDbPoint
 10
1966.185460711938
 20
984.6814203229582
 30
0.0
  0
ENDBLK
  5
73A6
330
739B
100
AcDbEntity
  8
0
100
AcDbBlockEnd
  0
BLOCK
  5
73B2
330
73A8
100
AcDbEntity
  8
0
100
AcDbBlockBegin
  2
*D5
 70
     1
 10
0.0
 20
0.0
 30
0.0
  3
*D5
  1

  0
LINE
  5
73A9
330
73A8
100
AcDbEntity
  8
寸法
  6
Continuous
 62
     4
370
    -2
100
AcDbLine
 10
1968.185460711939
 20
907.2956691366099
 30
0.0
 11
2026.185460711939
 21
907.2956691366099
 31
0.0
  0
LINE
  5
73AA
330
73A8
100
AcDbEntity
  8
寸法
  6
Continuous
 62
     4
370
    -2
100
AcDbLine
 10
2006.185460711939
 20
817.2956691366101
 30
0.0
 11
2026.185460711939
 21
817.2956691366101
 31
0.0
  0
LINE
  5
73AB
330
73A8
100
AcDbEntity
  8
寸法
  6
Continuous
 62
     4
370
    -2
100
AcDbLine
 10
2026.185460711939
 20
906.29566913661
 30
0.0
 11
2026.185460711939
 21
818.2956691366101
 31
0.0
  0
INSERT
  5
73AC
330
73A8
100
AcDbEntity
  8
寸法
  6
Continuous
 62
     4
370
    -2
100
AcDbBlockReference
  2
_Dot
 10
2026.185460711939
 20
907.2956691366099
 30
0.0
 50
90.0
  0
INSERT
  5
73AD
330
73A8
100
AcDbEntity
  8
寸法
  6
Continuous
 62
     4
370
    -2
100
AcDbBlockReference
  2
_Dot
 10
2026.185460711939
 20
817.2956691366101
 30
0.0
 50
270.0
  0
MTEXT
  5
73AE
330
73A8
100
AcDbEntity
  8
寸法
  6
Continuous
 62
     3
100
AcDbMText
 10
2022.685460711938
 20
862.2956691366104
 30
0.0
 40
5.0
 41
0.0
 71
     5
 72
     1
  1
\A1;90
  7
ACAD
 11
0.0000000000000001
 21
1.0
 31
0.0
 73
     1
 44
1.0
1001
ACAD
1000
MTEXTBEGIN
1070
    73
1070
     1
1070
    44
1040
1.0
1070
    74
1070
     0
1000
MTEXTEND
  0
POINT
  5
73AF
330
73A8
100
AcDbEntity
  8
Defpoints
  6
Continuous
 62
     0
100
AcDbPoint
 10
1968.185460711939
 20
907.2956691366099
 30
0.0
  0
POINT
  5
73B0
330
73A8
100
AcDbEntity
  8
Defpoints
  6
Continuous
 62
     0
100
AcDbPoint
 10
2006.185460711939
 20
817.2956691366101
 30
0.0
  0
POINT
  5
73B1
330
73A8
100
AcDbEntity
  8
Defpoints
  6
Continuous
 62
     0
100
AcDbPoint
 10
2026.185460711939
 20
817.2956691366101
 30
0.0
  0
ENDBLK
  5
73B3
330
73A8
100
AcDbEntity
  8
0
100
AcDbBlockEnd
  0
BLOCK
  5
73BF
330
73B5
100
AcDbEntity
  8
0
100
AcDbBlockBegin
  2
*D6
 70
     1
 10
0.0
 20
0.0
 30
0.0
  3
*D6
  1

  0
LINE
  5
74BD
330
73B5
100
AcDbEntity
  8
寸法
  6
Continuous
 62
     4
370
    -2
100
AcDbLine
 10
1894.889187190564
 20
859.6814203229582
 30
0.0
 11
2006.185460711939
 21
859.6814203229582
 31
0.0
  0
LINE
  5
74BE
330
73B5
100
AcDbEntity
  8
寸法
  6
Continuous
 62
     4
370
    -2
100
AcDbLine
 10
1968.185460711939
 20
817.2956691366101
 30
0.0
 11
2006.185460711939
 21
817.2956691366101
 31
0.0
  0
LINE
  5
74BF
330
73B5
100
AcDbEntity
  8
寸法
  6
Continuous
 62
     4
370
    -2
100
AcDbLine
 10
2006.185460711939
 20
858.6814203229582
 30
0.0
 11
2006.185460711939
 21
818.2956691366101
 31
0.0
  0
INSERT
  5
74C0
330
73B5
100
AcDbEntity
  8
寸法
  6
Continuous
 62
     4
370
    -2
100
AcDbBlockReference
  2
_Dot
 10
2006.185460711939
 20
859.6814203229582
 30
0.0
 50
90.0
  0
INSERT
  5
74C1
330
73B5
100
AcDbEntity
  8
寸法
  6
Continuous
 62
     4
370
    -2
100
AcDbBlockReference
  2
_Dot
 10
2006.185460711939
 20
817.2956691366101
 30
0.0
 50
270.0
  0
MTEXT
  5
74C2
330
73B5
100
AcDbEntity
  8
寸法
  6
Continuous
 62
     3
100
AcDbMText
 10
2002.685460711938
 20
838.4885447297845
 30
0.0
 40
5.0
 41
0.0
 71
     5
 72
     1
  1
\A1;44
  7
ACAD
 11
0.0000000000000001
 21
1.0
 31
0.0
 73
     1
 44
1.0
1001
ACAD
1000
MTEXTBEGIN
1070
    73
1070
     1
1070
    44
1040
1.0
1070
    74
1070
     0
1000
MTEXTEND
  0
POINT
  5
74C3
330
73B5
100
AcDbEntity
  8
Defpoints
  6
Continuous
 62
     0
100
AcDbPoint
 10
1894.889187190564
 20
859.6814203229582
 30
0.0
  0
POINT
  5
74C4
330
73B5
100
AcDbEntity
  8
Defpoints
  6
Continuous
 62
     0
100
AcDbPoint
 10
1968.185460711939
 20
817.2956691366101
 30
0.0
  0
POINT
  5
74C5
330
73B5
100
AcDbEntity
  8
Defpoints
  6
Continuous
 62
     0
100
AcDbPoint
 10
2006.185460711939
 20
817.2956691366101
 30
0.0
  0
ENDBLK
  5
73C0
330
73B5
100
AcDbEntity
  8
0
100
AcDbBlockEnd
  0
BLOCK
  5
73CB
330
73C2
100
AcDbEntity
  8
0
100
AcDbBlockBegin
  2
*D7
 70
     1
 10
0.0
 20
0.0
 30
0.0
  3
*D7
  1

  0
LINE
  5
74ED
330
73C2
100
AcDbEntity
  8
寸法
  6
Continuous
 62
     4
370
    -2
100
AcDbLine
 10
1966.185460711938
 20
815.29566913661
 30
0.0
 11
1966.185460711938
 21
729.6814203229585
 31
0.0
  0
LINE
  5
74EE
330
73C2
100
AcDbEntity
  8
寸法
  6
Continuous
 62
     4
370
    -2
100
AcDbLine
 10
1965.185460711938
 20
729.6814203229585
 30
0.0
 11
1892.185460711939
 21
729.6814203229585
 31
0.0
  0
INSERT
  5
74EF
330
73C2
100
AcDbEntity
  8
寸法
  6
Continuous
 62
     4
370
    -2
100
AcDbBlockReference
  2
_Dot
 10
1966.185460711938
 20
729.6814203229585
 30
0.0
  0
INSERT
  5
74F0
330
73C2
100
AcDbEntity
  8
寸法
  6
Continuous
 62
     4
370
    -2
100
AcDbBlockReference
  2
_Dot
 10
1891.185460711939
 20
729.6814203229585
 30
0.0
 50
180.0
  0
MTEXT
  5
74F1
330
73C2
100
AcDbEntity
  8
寸法
  6
Continuous
 62
     3
100
AcDbMText
 10
1928.685460711939
 20
733.1814203229584
 30
0.0
 40
5.0
 41
0.0
 71
     5
 72
     1
  1
\A1;75≦
  7
ACAD
 73
     1
 44
1.0
1001
ACAD
1000
MTEXTBEGIN
1070
    73
1070
     1
1070
    44
1040
1.0
1070
    74
1070
     0
1000
MTEXTEND
  0
POINT
  5
74F2
330
73C2
100
AcDbEntity
  8
Defpoints
  6
Continuous
 62
     0
100
AcDbPoint
 10
1966.185460711938
 20
815.29566913661
 30
0.0
  0
POINT
  5
74F3
330
73C2
100
AcDbEntity
  8
Defpoints
  6
Continuous
 62
     0
100
AcDbPoint
 10
1891.185460711939
 20
729.6814203229585
 30
0.0
  0
POINT
  5
74F4
330
73C2
100
AcDbEntity
  8
Defpoints
  6
Continuous
 62
     0
100
AcDbPoint
 10
1891.185460711939
 20
729.6814203229585
 30
0.0
  0
ENDBLK
  5
73CC
330
73C2
100
AcDbEntity
  8
0
100
AcDbBlockEnd
  0
BLOCK
  5
73D7
330
73CE
100
AcDbEntity
  8
0
100
AcDbBlockBegin
  2
*D8
 70
     1
 10
0.0
 20
0.0
 30
0.0
  3
*D8
  1

  0
LINE
  5
74E5
330
73CE
100
AcDbEntity
  8
寸法
  6
Continuous
 62
     4
370
    -2
100
AcDbLine
 10
1891.186294045273
 20
729.9314189340657
 30
0.0
 11
1891.186294045273
 21
729.6814203229585
 31
0.0
  0
LINE
  5
74E6
330
73CE
100
AcDbEntity
  8
寸法
  6
Continuous
 62
     4
370
    -2
100
AcDbLine
 10
1890.186294045273
 20
729.6814203229585
 30
0.0
 11
1742.185460711938
 21
729.6814203229585
 31
0.0
  0
INSERT
  5
74E7
330
73CE
100
AcDbEntity
  8
寸法
  6
Continuous
 62
     4
370
    -2
100
AcDbBlockReference
  2
_Dot
 10
1891.186294045273
 20
729.6814203229585
 30
0.0
  0
INSERT
  5
74E8
330
73CE
100
AcDbEntity
  8
寸法
  6
Continuous
 62
     4
370
    -2
100
AcDbBlockReference
  2
_Dot
 10
1741.185460711938
 20
729.6814203229585
 30
0.0
 50
180.0
  0
MTEXT
  5
74E9
330
73CE
100
AcDbEntity
  8
寸法
  6
Continuous
 62
     3
100
AcDbMText
 10
1816.185877378605
 20
733.1814203229584
 30
0.0
 40
5.0
 41
0.0
 71
     5
 72
     1
  1
\A1;≦C
  7
ACAD
 73
     1
 44
1.0
1001
ACAD
1000
MTEXTBEGIN
1070
    73
1070
     1
1070
    44
1040
1.0
1070
    74
1070
     0
1000
MTEXTEND
  0
POINT
  5
74EA
330
73CE
100
AcDbEntity
  8
Defpoints
  6
Continuous
 62
     0
100
AcDbPoint
 10
1891.186294045273
 20
729.9314189340657
 30
0.0
  0
POINT
  5
74EB
330
73CE
100
AcDbEntity
  8
Defpoints
  6
Continuous
 62
     0
100
AcDbPoint
 10
1741.185460711938
 20
729.6814203229585
 30
0.0
  0
POINT
  5
74EC
330
73CE
100
AcDbEntity
  8
Defpoints
  6
Continuous
 62
     0
100
AcDbPoint
 10
1741.185460711938
 20
729.6814203229585
 30
0.0
  0
ENDBLK
  5
73D8
330
73CE
100
AcDbEntity
  8
0
100
AcDbBlockEnd
  0
BLOCK
  5
73E3
330
73DA
100
AcDbEntity
  8
0
100
AcDbBlockBegin
  2
*D9
 70
     1
 10
0.0
 20
0.0
 30
0.0
  3
*D9
  1

  0
LINE
  5
73DB
330
73DA
100
AcDbEntity
  8
寸法
  6
Continuous
 62
     4
370
    -2
100
AcDbLine
 10
1741.055399814347
 20
729.8949248028127
 30
0.0
 11
1741.055399814347
 21
729.6814203229585
 31
0.0
  0
LINE
  5
73DC
330
73DA
100
AcDbEntity
  8
寸法
  6
Continuous
 62
     4
370
    -2
100
AcDbLine
 10
1740.055399814347
 20
729.6814203229585
 30
0.0
 11
1592.185460711938
 21
729.6814203229585
 31
0.0
  0
INSERT
  5
73DD
330
73DA
100
AcDbEntity
  8
寸法
  6
Continuous
 62
     4
370
    -2
100
AcDbBlockReference
  2
_Dot
 10
1741.055399814347
 20
729.6814203229585
 30
0.0
  0
INSERT
  5
73DE
330
73DA
100
AcDbEntity
  8
寸法
  6
Continuous
 62
     4
370
    -2
100
AcDbBlockReference
  2
_Dot
 10
1591.185460711938
 20
729.6814203229585
 30
0.0
 50
180.0
  0
MTEXT
  5
73DF
330
73DA
100
AcDbEntity
  8
寸法
  6
Continuous
 62
     3
100
AcDbMText
 10
1666.120430263142
 20
733.1814203229584
 30
0.0
 40
5.0
 41
0.0
 71
     5
 72
     1
  1
\A1;150
  7
ACAD
 73
     1
 44
1.0
1001
ACAD
1000
MTEXTBEGIN
1070
    73
1070
     1
1070
    44
1040
1.0
1070
    74
1070
     0
1000
MTEXTEND
  0
POINT
  5
73E0
330
73DA
100
AcDbEntity
  8
Defpoints
  6
Continuous
 62
     0
100
AcDbPoint
 10
1741.055399814347
 20
729.8949248028127
 30
0.0
  0
POINT
  5
73E1
330
73DA
100
AcDbEntity
  8
Defpoints
  6
Continuous
 62
     0
100
AcDbPoint
 10
1591.185460711938
 20
729.6814203229585
 30
0.0
  0
POINT
  5
73E2
330
73DA
100
AcDbEntity
  8
Defpoints
  6
Continuous
 62
     0
100
AcDbPoint
 10
1591.185460711938
 20
729.6814203229585
 30
0.0
  0
ENDBLK
  5
73E4
330
73DA
100
AcDbEntity
  8
0
100
AcDbBlockEnd
  0
BLOCK
  5
73EF
330
73E6
100
AcDbEntity
  8
0
100
AcDbBlockBegin
  2
*D10
 70
     1
 10
0.0
 20
0.0
 30
0.0
  3
*D10
  1

  0
LINE
  5
74DD
330
73E6
100
AcDbEntity
  8
寸法
  6
Continuous
 62
     4
370
    -2
100
AcDbLine
 10
1591.381750956112
 20
729.8362432542131
 30
0.0
 11
1591.381750956112
 21
729.6814203229585
 31
0.0
  0
LINE
  5
74DE
330
73E6
100
AcDbEntity
  8
寸法
  6
Continuous
 62
     4
370
    -2
100
AcDbLine
 10
1590.381750956112
 20
729.6814203229585
 30
0.0
 11
1442.185460711939
 21
729.6814203229585
 31
0.0
  0
INSERT
  5
74DF
330
73E6
100
AcDbEntity
  8
寸法
  6
Continuous
 62
     4
370
    -2
100
AcDbBlockReference
  2
_Dot
 10
1591.381750956112
 20
729.6814203229585
 30
0.0
  0
INSERT
  5
74E0
330
73E6
100
AcDbEntity
  8
寸法
  6
Continuous
 62
     4
370
    -2
100
AcDbBlockReference
  2
_Dot
 10
1441.185460711939
 20
729.6814203229585
 30
0.0
 50
180.0
  0
MTEXT
  5
74E1
330
73E6
100
AcDbEntity
  8
寸法
  6
Continuous
 62
     3
100
AcDbMText
 10
1516.283605834026
 20
733.1814203229584
 30
0.0
 40
5.0
 41
0.0
 71
     5
 72
     1
  1
\A1;≦C
  7
ACAD
 73
     1
 44
1.0
1001
ACAD
1000
MTEXTBEGIN
1070
    73
1070
     1
1070
    44
1040
1.0
1070
    74
1070
     0
1000
MTEXTEND
  0
POINT
  5
74E2
330
73E6
100
AcDbEntity
  8
Defpoints
  6
Continuous
 62
     0
100
AcDbPoint
 10
1591.381750956112
 20
729.8362432542131
 30
0.0
  0
POINT
  5
74E3
330
73E6
100
AcDbEntity
  8
Defpoints
  6
Continuous
 62
     0
100
AcDbPoint
 10
1441.185460711939
 20
729.6814203229585
 30
0.0
  0
POINT
  5
74E4
330
73E6
100
AcDbEntity
  8
Defpoints
  6
Continuous
 62
     0
100
AcDbPoint
 10
1441.185460711939
 20
729.6814203229585
 30
0.0
  0
ENDBLK
  5
73F0
330
73E6
100
AcDbEntity
  8
0
100
AcDbBlockEnd
  0
BLOCK
  5
7408
330
73FE
100
AcDbEntity
  8
0
100
AcDbBlockBegin
  2
*D11
 70
     1
 10
0.0
 20
0.0
 30
0.0
  3
*D11
  1

  0
LINE
  5
74D4
330
73FE
100
AcDbEntity
  8
寸法
  6
Continuous
 62
     4
370
    -2
100
AcDbLine
 10
1440.939258773686
 20
729.724832367375
 30
0.0
 11
1440.939258773686
 21
729.6814203229585
 31
0.0
  0
LINE
  5
74D5
330
73FE
100
AcDbEntity
  8
寸法
  6
Continuous
 62
     4
370
    -2
100
AcDbLine
 10
1366.185460711939
 20
815.29566913661
 30
0.0
 11
1366.185460711939
 21
729.6814203229585
 31
0.0
  0
LINE
  5
74D6
330
73FE
100
AcDbEntity
  8
寸法
  6
Continuous
 62
     4
370
    -2
100
AcDbLine
 10
1439.939258773686
 20
729.6814203229585
 30
0.0
 11
1367.185460711939
 21
729.6814203229585
 31
0.0
  0
INSERT
  5
74D7
330
73FE
100
AcDbEntity
  8
寸法
  6
Continuous
 62
     4
370
    -2
100
AcDbBlockReference
  2
_Dot
 10
1440.939258773686
 20
729.6814203229585
 30
0.0
  0
INSERT
  5
74D8
330
73FE
100
AcDbEntity
  8
寸法
  6
Continuous
 62
     4
370
    -2
100
AcDbBlockReference
  2
_Dot
 10
1366.185460711939
 20
729.6814203229585
 30
0.0
 50
180.0
  0
MTEXT
  5
74D9
330
73FE
100
AcDbEntity
  8
寸法
  6
Continuous
 62
     3
100
AcDbMText
 10
1403.562359742813
 20
733.1814203229584
 30
0.0
 40
5.0
 41
0.0
 71
     5
 72
     1
  1
\A1;75≦
  7
ACAD
 73
     1
 44
1.0
1001
ACAD
1000
MTEXTBEGIN
1070
    73
1070
     1
1070
    44
1040
1.0
1070
    74
1070
     0
1000
MTEXTEND
  0
POINT
  5
74DA
330
73FE
100
AcDbEntity
  8
Defpoints
  6
Continuous
 62
     0
100
AcDbPoint
 10
1440.939258773686
 20
729.724832367375
 30
0.0
  0
POINT
  5
74DB
330
73FE
100
AcDbEntity
  8
Defpoints
  6
Continuous
 62
     0
100
AcDbPoint
 10
1366.185460711939
 20
815.29566913661
 30
0.0
  0
POINT
  5
74DC
330
73FE
100
AcDbEntity
  8
Defpoints
  6
Continuous
 62
     0
100
AcDbPoint
 10
1366.185460711939
 20
729.6814203229585
 30
0.0
  0
ENDBLK
  5
7409
330
73FE
100
AcDbEntity
  8
0
100
AcDbBlockEnd
  0
BLOCK
  5
7413
330
740B
100
AcDbEntity
  8
0
100
AcDbBlockBegin
  2
*D12
 70
     1
 10
0.0
 20
0.0
 30
0.0
  3
*D12
  1

  0
LINE
  5
74CD
330
740B
100
AcDbEntity
  8
寸法
  6
Continuous
 62
     4
370
    -2
100
AcDbLine
 10
1442.185460711939
 20
799.6814203229583
 30
0.0
 11
1490.185460711939
 21
799.6814203229583
 31
0.0
  0
INSERT
  5
74CE
330
740B
100
AcDbEntity
  8
寸法
  6
Continuous
 62
     4
370
    -2
100
AcDbBlockReference
  2
_Dot
 10
1441.185460711939
 20
799.6814203229583
 30
0.0
 50
180.0
  0
INSERT
  5
74CF
330
740B
100
AcDbEntity
  8
寸法
  6
Continuous
 62
     4
370
    -2
100
AcDbBlockReference
  2
_Dot
 10
1491.185460711939
 20
799.6814203229583
 30
0.0
  0
MTEXT
  5
74D0
330
740B
100
AcDbEntity
  8
寸法
  6
Continuous
 62
     3
100
AcDbMText
 10
1466.185460711939
 20
803.1814203229583
 30
0.0
 40
5.0
 41
0.0
 71
     5
 72
     1
  1
\A1;B
  7
ACAD
 73
     1
 44
1.0
1001
ACAD
1000
MTEXTBEGIN
1070
    73
1070
     1
1070
    44
1040
1.0
1070
    74
1070
     0
1000
MTEXTEND
  0
POINT
  5
74D1
330
740B
100
AcDbEntity
  8
Defpoints
  6
Continuous
 62
     0
100
AcDbPoint
 10
1441.185460711939
 20
799.6814203229583
 30
0.0
  0
POINT
  5
74D2
330
740B
100
AcDbEntity
  8
Defpoints
  6
Continuous
 62
     0
100
AcDbPoint
 10
1491.185460711939
 20
799.6814203229583
 30
0.0
  0
POINT
  5
74D3
330
740B
100
AcDbEntity
  8
Defpoints
  6
Continuous
 62
     0
100
AcDbPoint
 10
1491.185460711939
 20
799.6814203229583
 30
0.0
  0
ENDBLK
  5
7414
330
740B
100
AcDbEntity
  8
0
100
AcDbBlockEnd
  0
BLOCK
  5
741E
330
7416
100
AcDbEntity
  8
0
100
AcDbBlockBegin
  2
*D13
 70
     1
 10
0.0
 20
0.0
 30
0.0
  3
*D13
  1

  0
LINE
  5
7417
330
7416
100
AcDbEntity
  8
寸法
  6
Continuous
 62
     4
370
    -2
100
AcDbLine
 10
1562.185460711939
 20
819.6814203229585
 30
0.0
 11
1590.185460711938
 21
819.6814203229585
 31
0.0
  0
INSERT
  5
7418
330
7416
100
AcDbEntity
  8
寸法
  6
Continuous
 62
     4
370
    -2
100
AcDbBlockReference
  2
_Dot
 10
1561.185460711939
 20
819.6814203229585
 30
0.0
 50
180.0
  0
INSERT
  5
7419
330
7416
100
AcDbEntity
  8
寸法
  6
Continuous
 62
     4
370
    -2
100
AcDbBlockReference
  2
_Dot
 10
1591.185460711939
 20
819.6814203229585
 30
0.0
  0
MTEXT
  5
741A
330
7416
100
AcDbEntity
  8
寸法
  6
Continuous
 62
     3
100
AcDbMText
 10
1576.185460711939
 20
823.1814203229586
 30
0.0
 40
5.0
 41
0.0
 71
     5
 72
     1
  1
\A1;30
  7
ACAD
 73
     1
 44
1.0
1001
ACAD
1000
MTEXTBEGIN
1070
    73
1070
     1
1070
    44
1040
1.0
1070
    74
1070
     0
1000
MTEXTEND
  0
POINT
  5
741B
330
7416
100
AcDbEntity
  8
Defpoints
  6
Continuous
 62
     0
100
AcDbPoint
 10
1561.185460711939
 20
819.6814203229585
 30
0.0
  0
POINT
  5
741C
330
7416
100
AcDbEntity
  8
Defpoints
  6
Continuous
 62
     0
100
AcDbPoint
 10
1591.185460711939
 20
819.6814203229585
 30
0.0
  0
POINT
  5
741D
330
7416
100
AcDbEntity
  8
Defpoints
  6
Continuous
 62
     0
100
AcDbPoint
 10
1591.185460711939
 20
819.6814203229585
 30
0.0
  0
ENDBLK
  5
741F
330
7416
100
AcDbEntity
  8
0
100
AcDbBlockEnd
  0
BLOCK
  5
7429
330
7421
100
AcDbEntity
  8
0
100
AcDbBlockBegin
  2
*D14
 70
     1
 10
0.0
 20
0.0
 30
0.0
  3
*D14
  1

  0
LINE
  5
7422
330
7421
100
AcDbEntity
  8
寸法
  6
Continuous
 62
     4
370
    -2
100
AcDbLine
 10
1742.185460711939
 20
819.6814203229585
 30
0.0
 11
1770.185460711938
 21
819.6814203229585
 31
0.0
  0
INSERT
  5
7423
330
7421
100
AcDbEntity
  8
寸法
  6
Continuous
 62
     4
370
    -2
100
AcDbBlockReference
  2
_Dot
 10
1741.185460711939
 20
819.6814203229585
 30
0.0
 50
180.0
  0
INSERT
  5
7424
330
7421
100
AcDbEntity
  8
寸法
  6
Continuous
 62
     4
370
    -2
100
AcDbBlockReference
  2
_Dot
 10
1771.185460711938
 20
819.6814203229585
 30
0.0
  0
MTEXT
  5
7425
330
7421
100
AcDbEntity
  8
寸法
  6
Continuous
 62
     3
100
AcDbMText
 10
1756.185460711938
 20
823.1814203229586
 30
0.0
 40
5.0
 41
0.0
 71
     5
 72
     1
  1
\A1;30
  7
ACAD
 73
     1
 44
1.0
1001
ACAD
1000
MTEXTBEGIN
1070
    73
1070
     1
1070
    44
1040
1.0
1070
    74
1070
     0
1000
MTEXTEND
  0
POINT
  5
7426
330
7421
100
AcDbEntity
  8
Defpoints
  6
Continuous
 62
     0
100
AcDbPoint
 10
1741.185460711939
 20
819.6814203229585
 30
0.0
  0
POINT
  5
7427
330
7421
100
AcDbEntity
  8
Defpoints
  6
Continuous
 62
     0
100
AcDbPoint
 10
1771.185460711938
 20
819.6814203229585
 30
0.0
  0
POINT
  5
7428
330
7421
100
AcDbEntity
  8
Defpoints
  6
Continuous
 62
     0
100
AcDbPoint
 10
1771.185460711938
 20
819.6814203229585
 30
0.0
  0
ENDBLK
  5
742A
330
7421
100
AcDbEntity
  8
0
100
AcDbBlockEnd
  0
BLOCK
  5
7434
330
742C
100
AcDbEntity
  8
0
100
AcDbBlockBegin
  2
*D15
 70
     1
 10
0.0
 20
0.0
 30
0.0
  3
*D15
  1

  0
LINE
  5
74C6
330
742C
100
AcDbEntity
  8
寸法
  6
Continuous
 62
     4
370
    -2
100
AcDbLine
 10
1842.185460711939
 20
799.6814203229583
 30
0.0
 11
1890.185460711938
 21
799.6814203229583
 31
0.0
  0
INSERT
  5
74C7
330
742C
100
AcDbEntity
  8
寸法
  6
Continuous
 62
     4
370
    -2
100
AcDbBlockReference
  2
_Dot
 10
1841.185460711939
 20
799.6814203229583
 30
0.0
 50
180.0
  0
INSERT
  5
74C8
330
742C
100
AcDbEntity
  8
寸法
  6
Continuous
 62
     4
370
    -2
100
AcDbBlockReference
  2
_Dot
 10
1891.185460711939
 20
799.6814203229583
 30
0.0
  0
MTEXT
  5
74C9
330
742C
100
AcDbEntity
  8
寸法
  6
Continuous
 62
     3
100
AcDbMText
 10
1866.185460711939
 20
803.1814203229583
 30
0.0
 40
5.0
 41
0.0
 71
     5
 72
     1
  1
\A1;B
  7
ACAD
 73
     1
 44
1.0
1001
ACAD
1000
MTEXTBEGIN
1070
    73
1070
     1
1070
    44
1040
1.0
1070
    74
1070
     0
1000
MTEXTEND
  0
POINT
  5
74CA
330
742C
100
AcDbEntity
  8
Defpoints
  6
Continuous
 62
     0
100
AcDbPoint
 10
1841.185460711939
 20
799.6814203229583
 30
0.0
  0
POINT
  5
74CB
330
742C
100
AcDbEntity
  8
Defpoints
  6
Continuous
 62
     0
100
AcDbPoint
 10
1891.185460711939
 20
799.6814203229583
 30
0.0
  0
POINT
  5
74CC
330
742C
100
AcDbEntity
  8
Defpoints
  6
Continuous
 62
     0
100
AcDbPoint
 10
1891.185460711939
 20
799.6814203229583
 30
0.0
  0
ENDBLK
  5
7435
330
742C
100
AcDbEntity
  8
0
100
AcDbBlockEnd
  0
ENDSEC
  0
SECTION
  2
ENTITIES
  0
LINE
  5
6D97
330
1E
100
AcDbEntity
  8
図枠
  6
Continuous
 62
     7
100
AcDbLine
 10
2078.185460711939
 20
1043.681420322958
 30
0.0
 11
1254.185460711939
 21
1043.681420322958
 31
0.0
  0
LINE
  5
6D98
330
1E
100
AcDbEntity
  8
図枠
  6
Continuous
 62
     7
100
AcDbLine
 10
1254.185460711939
 20
1043.681420322958
 30
0.0
 11
1254.185460711939
 21
467.6814203229587
 31
0.0
  0
LINE
  5
6D99
330
1E
100
AcDbEntity
  8
図枠
  6
Continuous
 62
     7
100
AcDbLine
 10
1254.185460711939
 20
467.6814203229587
 30
0.0
 11
2078.185460711939
 21
467.6814203229587
 31
0.0
  0
LINE
  5
6D9A
330
1E
100
AcDbEntity
  8
図枠
  6
Continuous
 62
     7
100
AcDbLine
 10
2078.185460711939
 20
467.6814203229587
 30
0.0
 11
2078.185460711939
 21
1043.681420322958
 31
0.0
  0
LINE
  5
6D9B
330
1E
100
AcDbEntity
  8
躯体と製品
  6
Continuous
 62
     3
100
AcDbLine
 10
1856.185460711939
 20
860.6814203229586
 30
0.0
 11
1856.185460711939
 21
859.6814203229582
 31
0.0
  0
LINE
  5
6D9C
330
1E
100
AcDbEntity
  8
躯体と製品
  6
Continuous
 62
     3
100
AcDbLine
 10
1826.185460711938
 20
860.6814203229586
 30
0.0
 11
1856.185460711939
 21
860.6814203229586
 31
0.0
  0
LINE
  5
6D9D
330
1E
100
AcDbEntity
  8
躯体と製品
  6
Continuous
 62
     3
100
AcDbLine
 10
1826.185460711938
 20
859.6814203229582
 30
0.0
 11
1826.185460711938
 21
860.6814203229586
 31
0.0
  0
LINE
  5
6D9E
330
1E
100
AcDbEntity
  8
躯体と製品
  6
Continuous
 62
     3
100
AcDbLine
 10
1856.185460711939
 20
859.6814203229582
 30
0.0
 11
1826.185460711938
 21
859.6814203229582
 31
0.0
  0
LINE
  5
6D9F
330
1E
100
AcDbEntity
  8
躯体と製品
  6
Continuous
 62
     4
100
AcDbLine
 10
1855.30992305008
 20
859.6814203229588
 30
0.0
 11
1856.185460711938
 21
860.5569579848177
 31
0.0
  0
LINE
  5
6DA0
330
1E
100
AcDbEntity
  8
躯体と製品
  6
Continuous
 62
     4
100
AcDbLine
 10
1853.895709487706
 20
859.6814203229588
 30
0.0
 11
1854.895709487706
 21
860.6814203229586
 31
0.0
  0
LINE
  5
6DA1
330
1E
100
AcDbEntity
  8
躯体と製品
  6
Continuous
 62
     4
100
AcDbLine
 10
1852.481495925333
 20
859.6814203229586
 30
0.0
 11
1853.481495925333
 21
860.6814203229582
 31
0.0
  0
LINE
  5
6DA2
330
1E
100
AcDbEntity
  8
躯体と製品
  6
Continuous
 62
     4
100
AcDbLine
 10
1851.067282362959
 20
859.6814203229582
 30
0.0
 11
1852.06728236296
 21
860.6814203229586
 31
0.0
  0
LINE
  5
6DA3
330
1E
100
AcDbEntity
  8
躯体と製品
  6
Continuous
 62
     4
100
AcDbLine
 10
1849.653068800586
 20
859.6814203229582
 30
0.0
 11
1850.653068800586
 21
860.6814203229586
 31
0.0
  0
LINE
  5
6DA4
330
1E
100
AcDbEntity
  8
躯体と製品
  6
Continuous
 62
     4
100
AcDbLine
 10
1848.238855238213
 20
859.6814203229582
 30
0.0
 11
1849.238855238213
 21
860.6814203229586
 31
0.0
  0
LINE
  5
6DA5
330
1E
100
AcDbEntity
  8
躯体と製品
  6
Continuous
 62
     4
100
AcDbLine
 10
1846.824641675839
 20
859.6814203229586
 30
0.0
 11
1847.82464167584
 21
860.6814203229587
 31
0.0
  0
LINE
  5
6DA6
330
1E
100
AcDbEntity
  8
躯体と製品
  6
Continuous
 62
     4
100
AcDbLine
 10
1845.410428113467
 20
859.6814203229582
 30
0.0
 11
1846.410428113467
 21
860.6814203229578
 31
0.0
  0
LINE
  5
6DA7
330
1E
100
AcDbEntity
  8
躯体と製品
  6
Continuous
 62
     4
100
AcDbLine
 10
1843.996214551094
 20
859.6814203229582
 30
0.0
 11
1844.996214551094
 21
860.681420322958
 31
0.0
  0
LINE
  5
6DA8
330
1E
100
AcDbEntity
  8
躯体と製品
  6
Continuous
 62
     4
100
AcDbLine
 10
1842.582000988721
 20
859.6814203229582
 30
0.0
 11
1843.58200098872
 21
860.681420322958
 31
0.0
  0
LINE
  5
6DA9
330
1E
100
AcDbEntity
  8
躯体と製品
  6
Continuous
 62
     4
100
AcDbLine
 10
1841.167787426348
 20
859.6814203229582
 30
0.0
 11
1842.167787426348
 21
860.681420322958
 31
0.0
  0
LINE
  5
6DAA
330
1E
100
AcDbEntity
  8
躯体と製品
  6
Continuous
 62
     4
100
AcDbLine
 10
1839.753573863974
 20
859.6814203229579
 30
0.0
 11
1840.753573863974
 21
860.681420322958
 31
0.0
  0
LINE
  5
6DAB
330
1E
100
AcDbEntity
  8
躯体と製品
  6
Continuous
 62
     4
100
AcDbLine
 10
1838.339360301601
 20
859.6814203229579
 30
0.0
 11
1839.339360301601
 21
860.681420322958
 31
0.0
  0
LINE
  5
6DAC
330
1E
100
AcDbEntity
  8
躯体と製品
  6
Continuous
 62
     4
100
AcDbLine
 10
1836.925146739227
 20
859.6814203229582
 30
0.0
 11
1837.925146739228
 21
860.6814203229582
 31
0.0
  0
LINE
  5
6DAD
330
1E
100
AcDbEntity
  8
躯体と製品
  6
Continuous
 62
     4
100
AcDbLine
 10
1835.510933176854
 20
859.6814203229582
 30
0.0
 11
1836.510933176854
 21
860.6814203229586
 31
0.0
  0
LINE
  5
6DAE
330
1E
100
AcDbEntity
  8
躯体と製品
  6
Continuous
 62
     4
100
AcDbLine
 10
1834.096719614483
 20
859.6814203229586
 30
0.0
 11
1835.096719614483
 21
860.6814203229582
 31
0.0
  0
LINE
  5
6DAF
330
1E
100
AcDbEntity
  8
躯体と製品
  6
Continuous
 62
     4
100
AcDbLine
 10
1832.68250605211
 20
859.6814203229586
 30
0.0
 11
1833.68250605211
 21
860.6814203229586
 31
0.0
  0
LINE
  5
6DB0
330
1E
100
AcDbEntity
  8
躯体と製品
  6
Continuous
 62
     4
100
AcDbLine
 10
1831.268292489737
 20
859.6814203229588
 30
0.0
 11
1832.268292489736
 21
860.6814203229586
 31
0.0
  0
LINE
  5
6DB1
330
1E
100
AcDbEntity
  8
躯体と製品
  6
Continuous
 62
     4
100
AcDbLine
 10
1829.854078927364
 20
859.6814203229588
 30
0.0
 11
1830.854078927363
 21
860.6814203229586
 31
0.0
  0
LINE
  5
6DB2
330
1E
100
AcDbEntity
  8
躯体と製品
  6
Continuous
 62
     4
100
AcDbLine
 10
1828.439865364989
 20
859.6814203229582
 30
0.0
 11
1829.43986536499
 21
860.6814203229586
 31
0.0
  0
LINE
  5
6DB3
330
1E
100
AcDbEntity
  8
躯体と製品
  6
Continuous
 62
     4
100
AcDbLine
 10
1827.025651802617
 20
859.6814203229586
 30
0.0
 11
1828.025651802617
 21
860.6814203229587
 31
0.0
  0
LINE
  5
6DB4
330
1E
100
AcDbEntity
  8
躯体と製品
  6
Continuous
 62
     4
100
AcDbLine
 10
1826.185460711938
 20
860.2554427946538
 30
0.0
 11
1826.611438240244
 21
860.6814203229589
 31
0.0
  0
LINE
  5
6DB5
330
1E
100
AcDbEntity
  8
躯体と製品
  6
Continuous
 62
     3
100
AcDbLine
 10
1781.185460711938
 20
862.2814203229582
 30
0.0
 11
1781.185460711938
 21
861.2814203229582
 31
0.0
  0
LINE
  5
6DB6
330
1E
100
AcDbEntity
  8
躯体と製品
  6
Continuous
 62
     3
100
AcDbLine
 10
1751.185460711939
 20
862.2814203229582
 30
0.0
 11
1781.185460711938
 21
862.2814203229582
 31
0.0
  0
LINE
  5
6DB7
330
1E
100
AcDbEntity
  8
躯体と製品
  6
Continuous
 62
     3
100
AcDbLine
 10
1751.185460711939
 20
861.2814203229582
 30
0.0
 11
1751.185460711939
 21
862.2814203229582
 31
0.0
  0
LINE
  5
6DB8
330
1E
100
AcDbEntity
  8
躯体と製品
  6
Continuous
 62
     3
100
AcDbLine
 10
1781.185460711938
 20
861.2814203229582
 30
0.0
 11
1751.185460711939
 21
861.2814203229582
 31
0.0
  0
LINE
  5
6DB9
330
1E
100
AcDbEntity
  8
躯体と製品
  6
Continuous
 62
     4
100
AcDbLine
 10
1780.851048547032
 20
861.2814203229586
 30
0.0
 11
1781.185460711938
 21
861.615832487865
 31
0.0
  0
LINE
  5
6DBA
330
1E
100
AcDbEntity
  8
躯体と製品
  6
Continuous
 62
     4
100
AcDbLine
 10
1779.43683498466
 20
861.2814203229582
 30
0.0
 11
1780.436834984661
 21
862.2814203229586
 31
0.0
  0
LINE
  5
6DBB
330
1E
100
AcDbEntity
  8
躯体と製品
  6
Continuous
 62
     4
100
AcDbLine
 10
1778.022621422287
 20
861.2814203229582
 30
0.0
 11
1779.022621422287
 21
862.2814203229586
 31
0.0
  0
LINE
  5
6DBC
330
1E
100
AcDbEntity
  8
躯体と製品
  6
Continuous
 62
     4
100
AcDbLine
 10
1776.608407859914
 20
861.2814203229582
 30
0.0
 11
1777.608407859914
 21
862.2814203229589
 31
0.0
  0
LINE
  5
6DBD
330
1E
100
AcDbEntity
  8
躯体と製品
  6
Continuous
 62
     4
100
AcDbLine
 10
1775.19419429754
 20
861.2814203229582
 30
0.0
 11
1776.19419429754
 21
862.2814203229578
 31
0.0
  0
LINE
  5
6DBE
330
1E
100
AcDbEntity
  8
躯体と製品
  6
Continuous
 62
     4
100
AcDbLine
 10
1773.779980735167
 20
861.2814203229582
 30
0.0
 11
1774.779980735167
 21
862.2814203229578
 31
0.0
  0
LINE
  5
6DBF
330
1E
100
AcDbEntity
  8
躯体と製品
  6
Continuous
 62
     4
100
AcDbLine
 10
1772.365767172794
 20
861.2814203229582
 30
0.0
 11
1773.365767172793
 21
862.2814203229582
 31
0.0
  0
LINE
  5
6DC0
330
1E
100
AcDbEntity
  8
躯体と製品
  6
Continuous
 62
     4
100
AcDbLine
 10
1770.95155361042
 20
861.2814203229586
 30
0.0
 11
1771.95155361042
 21
862.2814203229582
 31
0.0
  0
LINE
  5
6DC1
330
1E
100
AcDbEntity
  8
躯体と製品
  6
Continuous
 62
     4
100
AcDbLine
 10
1769.537340048047
 20
861.2814203229579
 30
0.0
 11
1770.537340048047
 21
862.2814203229582
 31
0.0
  0
LINE
  5
6DC2
330
1E
100
AcDbEntity
  8
躯体と製品
  6
Continuous
 62
     4
100
AcDbLine
 10
1768.123126485676
 20
861.2814203229588
 30
0.0
 11
1769.123126485676
 21
862.2814203229589
 31
0.0
  0
LINE
  5
6DC3
330
1E
100
AcDbEntity
  8
躯体と製品
  6
Continuous
 62
     4
100
AcDbLine
 10
1766.708912923303
 20
861.2814203229589
 30
0.0
 11
1767.708912923303
 21
862.2814203229589
 31
0.0
  0
LINE
  5
6DC4
330
1E
100
AcDbEntity
  8
躯体と製品
  6
Continuous
 62
     4
100
AcDbLine
 10
1765.294699360929
 20
861.2814203229586
 30
0.0
 11
1766.294699360929
 21
862.2814203229582
 31
0.0
  0
LINE
  5
6DC5
330
1E
100
AcDbEntity
  8
躯体と製品
  6
Continuous
 62
     4
100
AcDbLine
 10
1763.880485798556
 20
861.2814203229589
 30
0.0
 11
1764.880485798556
 21
862.2814203229586
 31
0.0
  0
LINE
  5
6DC6
330
1E
100
AcDbEntity
  8
躯体と製品
  6
Continuous
 62
     4
100
AcDbLine
 10
1762.466272236182
 20
861.2814203229589
 30
0.0
 11
1763.466272236182
 21
862.2814203229586
 31
0.0
  0
LINE
  5
6DC7
330
1E
100
AcDbEntity
  8
躯体と製品
  6
Continuous
 62
     4
100
AcDbLine
 10
1761.05205867381
 20
861.2814203229589
 30
0.0
 11
1762.052058673809
 21
862.2814203229589
 31
0.0
  0
LINE
  5
6DC8
330
1E
100
AcDbEntity
  8
躯体と製品
  6
Continuous
 62
     4
100
AcDbLine
 10
1759.637845111436
 20
861.2814203229582
 30
0.0
 11
1760.637845111436
 21
862.2814203229586
 31
0.0
  0
LINE
  5
6DC9
330
1E
100
AcDbEntity
  8
躯体と製品
  6
Continuous
 62
     4
100
AcDbLine
 10
1758.223631549064
 20
861.2814203229582
 30
0.0
 11
1759.223631549064
 21
862.2814203229582
 31
0.0
  0
LINE
  5
6DCA
330
1E
100
AcDbEntity
  8
躯体と製品
  6
Continuous
 62
     4
100
AcDbLine
 10
1756.809417986691
 20
861.2814203229582
 30
0.0
 11
1757.809417986691
 21
862.2814203229582
 31
0.0
  0
LINE
  5
6DCB
330
1E
100
AcDbEntity
  8
躯体と製品
  6
Continuous
 62
     4
100
AcDbLine
 10
1755.395204424317
 20
861.2814203229582
 30
0.0
 11
1756.395204424318
 21
862.2814203229586
 31
0.0
  0
LINE
  5
6DCC
330
1E
100
AcDbEntity
  8
躯体と製品
  6
Continuous
 62
     4
100
AcDbLine
 10
1753.980990861944
 20
861.2814203229582
 30
0.0
 11
1754.980990861944
 21
862.2814203229582
 31
0.0
  0
LINE
  5
6DCD
330
1E
100
AcDbEntity
  8
躯体と製品
  6
Continuous
 62
     4
100
AcDbLine
 10
1752.566777299571
 20
861.2814203229582
 30
0.0
 11
1753.56677729957
 21
862.2814203229582
 31
0.0
  0
LINE
  5
6DCE
330
1E
100
AcDbEntity
  8
躯体と製品
  6
Continuous
 62
     4
100
AcDbLine
 10
1751.185460711938
 20
861.3143172976995
 30
0.0
 11
1752.152563737197
 21
862.2814203229582
 31
0.0
  0
LINE
  5
6DCF
330
1E
100
AcDbEntity
  8
躯体と製品
  6
DASHED1
 62
     4
100
AcDbLine
 10
1935.946274986281
 20
879.1371558322333
 30
0.0
 11
1666.185460711939
 21
893.2747210459368
 31
0.0
  0
LINE
  5
6DD0
330
1E
100
AcDbEntity
  8
躯体と製品
  6
DASHED1
 62
     7
100
AcDbLine
 10
1949.731847162523
 20
900.8509826317929
 30
0.0
 11
1963.685460711938
 21
822.7107467550663
 31
0.0
  0
LINE
  5
6DD1
330
1E
100
AcDbEntity
  8
躯体と製品
  6
Continuous
 62
     3
100
AcDbLine
 10
1830.185460711938
 20
877.9684820598683
 30
0.0
 11
1830.185460711938
 21
870.6814203229582
 31
0.0
  0
LINE
  5
6DD2
330
1E
100
AcDbEntity
  8
躯体と製品
  6
Continuous
 62
     3
100
AcDbLine
 10
1825.185460711939
 20
868.5814203229583
 30
0.0
 11
1829.685460711938
 21
868.5814203229583
 31
0.0
  0
LINE
  5
6DD3
330
1E
100
AcDbEntity
  8
躯体と製品
  6
Continuous
 62
     3
100
AcDbLine
 10
1825.185460711939
 20
868.5814203229583
 30
0.0
 11
1825.185460711939
 21
870.1814203229583
 31
0.0
  0
LINE
  5
6DD4
330
1E
100
AcDbEntity
  8
躯体と製品
  6
Continuous
 62
     3
100
AcDbLine
 10
1825.185460711939
 20
870.1814203229583
 30
0.0
 11
1829.685460711938
 21
870.1814203229583
 31
0.0
  0
ARC
  5
6DD5
330
1E
100
AcDbEntity
  8
躯体と製品
  6
Continuous
 62
     3
100
AcDbCircle
 10
1829.685460711938
 20
870.6814203229582
 30
0.0
 40
2.1
100
AcDbArc
 50
270.0
 51
0.0
  0
ARC
  5
6DD6
330
1E
100
AcDbEntity
  8
躯体と製品
  6
Continuous
 62
     3
100
AcDbCircle
 10
1829.685460711938
 20
870.6814203229582
 30
0.0
 40
0.5
100
AcDbArc
 50
270.0
 51
0.0
  0
LINE
  5
6DD7
330
1E
100
AcDbEntity
  8
躯体と製品
  6
Continuous
 62
     3
100
AcDbLine
 10
1857.185460711939
 20
868.5814203229583
 30
0.0
 11
1852.685460711938
 21
868.5814203229583
 31
0.0
  0
LINE
  5
6DD8
330
1E
100
AcDbEntity
  8
躯体と製品
  6
Continuous
 62
     3
100
AcDbLine
 10
1852.685460711938
 20
870.1814203229583
 30
0.0
 11
1857.185460711939
 21
870.1814203229583
 31
0.0
  0
LINE
  5
6DD9
330
1E
100
AcDbEntity
  8
躯体と製品
  6
Continuous
 62
     3
100
AcDbLine
 10
1857.185460711939
 20
870.1814203229583
 30
0.0
 11
1857.185460711939
 21
868.5814203229583
 31
0.0
  0
ARC
  5
6DDA
330
1E
100
AcDbEntity
  8
躯体と製品
  6
Continuous
 62
     3
100
AcDbCircle
 10
1852.685460711938
 20
870.6814203229582
 30
0.0
 40
2.1
100
AcDbArc
 50
180.0
 51
270.0
  0
ARC
  5
6DDB
330
1E
100
AcDbEntity
  8
躯体と製品
  6
Continuous
 62
     3
100
AcDbCircle
 10
1852.685460711938
 20
870.6814203229582
 30
0.0
 40
0.5
100
AcDbArc
 50
180.0
 51
270.0
  0
LINE
  5
6DDC
330
1E
100
AcDbEntity
  8
躯体と製品
  6
Continuous
 62
     3
100
AcDbLine
 10
1831.785460711939
 20
877.9684820598683
 30
0.0
 11
1831.785460711939
 21
870.6814203229582
 31
0.0
  0
ARC
  5
6DDD
330
1E
100
AcDbEntity
  8
躯体と製品
  6
Continuous
 62
     3
100
AcDbCircle
 10
1832.285460711939
 20
877.9684820598683
 30
0.0
 40
0.5
100
AcDbArc
 50
86.99999999999441
 51
180.0
  0
LINE
  5
6DDE
330
1E
100
AcDbEntity
  8
躯体と製品
  6
Continuous
 62
     3
100
AcDbLine
 10
1850.585460711939
 20
877.0356235886303
 30
0.0
 11
1850.585460711939
 21
870.6814203229582
 31
0.0
  0
ARC
  5
6DDF
330
1E
100
AcDbEntity
  8
躯体と製品
  6
Continuous
 62
     3
100
AcDbCircle
 10
1850.085460711939
 20
877.0356235886303
 30
0.0
 40
0.5
100
AcDbArc
 50
0.0
 51
86.99999999999441
  0
ARC
  5
6DE0
330
1E
100
AcDbEntity
  8
躯体と製品
  6
Continuous
 62
     3
100
AcDbCircle
 10
1832.285460711939
 20
877.9684820598683
 30
0.0
 40
2.1
100
AcDbArc
 50
86.99999999999441
 51
180.0
  0
LINE
  5
6DE1
330
1E
100
AcDbEntity
  8
躯体と製品
  6
Continuous
 62
     3
100
AcDbLine
 10
1852.185460711939
 20
877.0356235886303
 30
0.0
 11
1852.185460711939
 21
870.6814203229582
 31
0.0
  0
ARC
  5
6DE2
330
1E
100
AcDbEntity
  8
躯体と製品
  6
Continuous
 62
     3
100
AcDbCircle
 10
1850.085460711939
 20
877.0356235886303
 30
0.0
 40
2.1
100
AcDbArc
 50
0.0
 51
86.99999999999441
  0
LINE
  5
6DE3
330
1E
100
AcDbEntity
  8
躯体と製品
  6
Continuous
 62
     3
100
AcDbLine
 10
1845.590747129335
 20
875.7691230270111
 30
0.0
 11
1836.403355409593
 21
876.2506138244459
 31
0.0
  0
LINE
  5
6DE4
330
1E
100
AcDbEntity
  8
躯体と製品
  6
Continuous
 62
     3
100
AcDbLine
 10
1836.455691365836
 20
877.2492433592006
 30
0.0
 11
1836.403355409593
 21
876.2506138244459
 31
0.0
  0
ARC
  5
6DE5
330
1E
100
AcDbEntity
  8
躯体と製品
  6
Continuous
 62
     3
100
AcDbCircle
 10
1835.457061831082
 20
877.3015793154435
 30
0.0
 40
1.0
100
AcDbArc
 50
357.0000000000011
 51
86.99999999999441
  0
LINE
  5
6DE6
330
1E
100
AcDbEntity
  8
躯体と製品
  6
Continuous
 62
     3
100
AcDbLine
 10
1845.643083085578
 20
876.7677525617655
 30
0.0
 11
1845.590747129335
 21
875.7691230270111
 31
0.0
  0
ARC
  5
6DE7
330
1E
100
AcDbEntity
  8
躯体と製品
  6
Continuous
 62
     3
100
AcDbCircle
 10
1846.641712620333
 20
876.7154166055222
 30
0.0
 40
1.0
100
AcDbArc
 50
86.99999999999441
 51
177.0000000000011
  0
LINE
  5
6DE8
330
1E
100
AcDbEntity
  8
躯体と製品
  6
Continuous
 62
     3
100
AcDbLine
 10
1850.111628690061
 20
877.5349383560074
 30
0.0
 11
1832.31162869006
 21
878.4677968272458
 31
0.0
  0
LINE
  5
6DE9
330
1E
100
AcDbEntity
  8
躯体と製品
  6
Continuous
 62
     3
100
AcDbLine
 10
1850.195366220049
 20
879.132745611615
 30
0.0
 11
1832.395366220049
 21
880.0656040828528
 31
0.0
  0
LINE
  5
6DEA
330
1E
100
AcDbEntity
  8
躯体と製品
  6
DASHED1
 62
     7
100
AcDbLine
 10
1838.189572107675
 20
879.7619426195737
 30
0.0
 11
1838.0011626652
 21
876.1668762944571
 31
0.0
  0
LINE
  5
6DEB
330
1E
100
AcDbEntity
  8
躯体と製品
  6
DASHED1
 62
     7
100
AcDbLine
 10
1844.181349316203
 20
879.4479268821161
 30
0.0
 11
1843.992939873728
 21
875.8528605569997
 31
0.0
  0
LINE
  5
6DEC
330
1E
100
AcDbEntity
  8
躯体と製品
  6
Continuous
 62
     4
100
AcDbLine
 10
1827.185460711939
 20
870.1814203229583
 30
0.0
 11
1827.185460711939
 21
868.5814203229583
 31
0.0
  0
LINE
  5
6DED
330
1E
100
AcDbEntity
  8
躯体と製品
  6
Continuous
 62
     4
100
AcDbLine
 10
1855.185460711938
 20
870.1814203229583
 30
0.0
 11
1855.185460711938
 21
868.5814203229583
 31
0.0
  0
LINE
  5
6DEE
330
1E
100
AcDbEntity
  8
躯体と製品
  6
DASHED1
 62
     7
100
AcDbLine
 10
1845.235460711938
 20
861.6814203229585
 30
0.0
 11
1845.235460711938
 21
852.3814203229584
 31
0.0
  0
LINE
  5
6DEF
330
1E
100
AcDbEntity
  8
躯体と製品
  6
DASHED1
 62
     7
100
AcDbLine
 10
1837.135460711939
 20
861.6814203229585
 30
0.0
 11
1837.135460711939
 21
852.3814203229584
 31
0.0
  0
LINE
  5
6DF0
330
1E
100
AcDbEntity
  8
躯体と製品
  6
DASHED1
 62
     7
100
AcDbLine
 10
1845.935460711938
 20
851.6814203229582
 30
0.0
 11
1845.235460711938
 21
852.3814203229584
 31
0.0
  0
LINE
  5
6DF1
330
1E
100
AcDbEntity
  8
躯体と製品
  6
DASHED1
 62
     7
100
AcDbLine
 10
1845.935460711938
 20
833.0532463229584
 30
0.0
 11
1845.935460711938
 21
851.6814203229582
 31
0.0
  0
LINE
  5
6DF2
330
1E
100
AcDbEntity
  8
躯体と製品
  6
DASHED1
 62
     7
100
AcDbLine
 10
1845.685460711938
 20
821.1814203229584
 30
0.0
 11
1845.685460711938
 21
822.0447243229584
 31
0.0
  0
LINE
  5
6DF3
330
1E
100
AcDbEntity
  8
躯体と製品
  6
DASHED1
 62
     7
100
AcDbLine
 10
1847.810490711939
 20
822.4194243229582
 30
0.0
 11
1845.935460711938
 21
833.0532463229584
 31
0.0
  0
LINE
  5
6DF4
330
1E
100
AcDbEntity
  8
躯体と製品
  6
DASHED1
 62
     7
100
AcDbLine
 10
1841.685460711939
 20
832.6814203229584
 30
0.0
 11
1840.685460711939
 21
832.6814203229584
 31
0.0
  0
LINE
  5
6DF5
330
1E
100
AcDbEntity
  8
躯体と製品
  6
DASHED1
 62
     7
100
AcDbLine
 10
1836.435460711938
 20
851.6814203229582
 30
0.0
 11
1837.135460711939
 21
852.3814203229584
 31
0.0
  0
LINE
  5
6DF6
330
1E
100
AcDbEntity
  8
躯体と製品
  6
DASHED1
 62
     7
100
AcDbLine
 10
1836.435460711938
 20
833.0532463229584
 30
0.0
 11
1836.435460711938
 21
851.6814203229582
 31
0.0
  0
LINE
  5
6DF7
330
1E
100
AcDbEntity
  8
躯体と製品
  6
DASHED1
 62
     7
100
AcDbLine
 10
1837.685460711939
 20
820.1814203229584
 30
0.0
 11
1844.685460711939
 21
820.1814203229584
 31
0.0
  0
ARC
  5
6DF8
330
1E
100
AcDbEntity
  8
躯体と製品
  6
DASHED1
 62
     7
100
AcDbCircle
 10
1837.685460711939
 20
821.1814203229584
 30
0.0
 40
1.0
100
AcDbArc
 50
180.0
 51
270.0
  0
LINE
  5
6DF9
330
1E
100
AcDbEntity
  8
躯体と製品
  6
DASHED1
 62
     7
100
AcDbLine
 10
1836.685460711938
 20
821.1814203229584
 30
0.0
 11
1836.685460711938
 21
822.0447243229584
 31
0.0
  0
LINE
  5
6DFA
330
1E
100
AcDbEntity
  8
躯体と製品
  6
DASHED1
 62
     7
100
AcDbLine
 10
1834.560430711938
 20
822.4194243229582
 30
0.0
 11
1838.745863711938
 21
821.6814203229585
 31
0.0
  0
LINE
  5
6DFB
330
1E
100
AcDbEntity
  8
躯体と製品
  6
DASHED1
 62
     7
100
AcDbLine
 10
1841.685460711939
 20
832.6814203229584
 30
0.0
 11
1843.625057711939
 21
821.6814203229585
 31
0.0
  0
LINE
  5
6DFC
330
1E
100
AcDbEntity
  8
躯体と製品
  6
DASHED1
 62
     7
100
AcDbLine
 10
1840.685460711939
 20
832.6814203229584
 30
0.0
 11
1838.745863711938
 21
821.6814203229585
 31
0.0
  0
LINE
  5
6DFD
330
1E
100
AcDbEntity
  8
躯体と製品
  6
DASHED1
 62
     7
100
AcDbLine
 10
1834.560430711938
 20
822.4194243229582
 30
0.0
 11
1836.435460711938
 21
833.0532463229584
 31
0.0
  0
LINE
  5
6DFE
330
1E
100
AcDbEntity
  8
躯体と製品
  6
DASHED1
 62
     7
100
AcDbLine
 10
1845.935460711938
 20
851.6814203229582
 30
0.0
 11
1836.435460711938
 21
851.6814203229582
 31
0.0
  0
LINE
  5
6DFF
330
1E
100
AcDbEntity
  8
躯体と製品
  6
DASHED1
 62
     7
100
AcDbLine
 10
1845.235460711938
 20
852.3814203229584
 30
0.0
 11
1837.135460711939
 21
852.3814203229584
 31
0.0
  0
LINE
  5
6E00
330
1E
100
AcDbEntity
  8
躯体と製品
  6
DASHED1
 62
     7
100
AcDbLine
 10
1847.810490711939
 20
822.4194243229582
 30
0.0
 11
1843.625057711939
 21
821.6814203229585
 31
0.0
  0
ARC
  5
6E01
330
1E
100
AcDbEntity
  8
躯体と製品
  6
DASHED1
 62
     7
100
AcDbCircle
 10
1844.685460711939
 20
821.1814203229584
 30
0.0
 40
1.0
100
AcDbArc
 50
270.0
 51
0.0
  0
ARC
  5
6E02
330
1E
100
AcDbEntity
  8
躯体と製品
  6
Continuous
 62
     3
100
AcDbCircle
 10
1869.742770978522
 20
864.6814203229585
 30
0.0
 40
0.5
100
AcDbArc
 50
270.0
 51
350.0000000000025
  0
LINE
  5
6E03
330
1E
100
AcDbEntity
  8
躯体と製品
  6
Continuous
 62
     3
100
AcDbLine
 10
1869.742770978522
 20
864.1814203229582
 30
0.0
 11
1866.696491142864
 21
864.1814203229582
 31
0.0
  0
LINE
  5
6E04
330
1E
100
AcDbEntity
  8
躯体と製品
  6
Continuous
 62
     3
100
AcDbLine
 10
1870.235174855028
 20
864.5945962341249
 30
0.0
 11
1870.642369526588
 21
866.9039119719894
 31
0.0
  0
ARC
  5
6E05
330
1E
100
AcDbEntity
  8
躯体と製品
  6
Continuous
 62
     3
100
AcDbCircle
 10
1866.696491142864
 20
864.6814203229585
 30
0.0
 40
0.5
100
AcDbArc
 50
170.0000000000025
 51
270.0
  0
LINE
  5
6E06
330
1E
100
AcDbEntity
  8
躯体と製品
  6
Continuous
 62
     3
100
AcDbLine
 10
1866.204087266358
 20
864.7682444117917
 30
0.0
 11
1866.703138514539
 21
867.598504682657
 31
0.0
  0
ARC
  5
6E07
330
1E
100
AcDbEntity
  8
躯体と製品
  6
Continuous
 62
     3
100
AcDbCircle
 10
1864.15792461315
 20
864.6814203229585
 30
0.0
 40
0.5
100
AcDbArc
 50
270.0
 51
350.0000000000025
  0
LINE
  5
6E08
330
1E
100
AcDbEntity
  8
躯体と製品
  6
Continuous
 62
     3
100
AcDbLine
 10
1864.15792461315
 20
864.1814203229582
 30
0.0
 11
1860.185460711938
 21
864.1814203229582
 31
0.0
  0
LINE
  5
6E09
330
1E
100
AcDbEntity
  8
躯体と製品
  6
Continuous
 62
     3
100
AcDbLine
 10
1864.650328489656
 20
864.5945962341249
 30
0.0
 11
1865.790283462438
 21
871.0596021464473
 31
0.0
  0
LINE
  5
6E0A
330
1E
100
AcDbEntity
  8
躯体と製品
  6
Continuous
 62
     3
100
AcDbLine
 10
1866.876786692206
 20
868.5833124356692
 30
0.0
 11
1866.3843828157
 21
868.6701365245026
 31
0.0
  0
LINE
  5
6E0B
330
1E
100
AcDbEntity
  8
躯体と製品
  6
Continuous
 62
     3
100
AcDbLine
 10
1871.308421580761
 20
867.8018956361681
 30
0.0
 11
1870.816017704255
 21
867.8887197250015
 31
0.0
  0
LINE
  5
6E0C
330
1E
100
AcDbEntity
  8
躯体と製品
  6
Continuous
 62
     3
100
AcDbLine
 10
1867.050434869873
 20
869.5681201886815
 30
0.0
 11
1866.558030993367
 21
869.6549442775149
 31
0.0
  0
LINE
  5
6E0D
330
1E
100
AcDbEntity
  8
躯体と製品
  6
Continuous
 62
     3
100
AcDbLine
 10
1871.482069758428
 20
868.7867033891803
 30
0.0
 11
1870.989665881922
 21
868.8735274780137
 31
0.0
  0
LINE
  5
6E0E
330
1E
100
AcDbEntity
  8
躯体と製品
  6
Continuous
 62
     3
100
AcDbLine
 10
1871.685460711938
 20
864.1814203229582
 30
0.0
 11
1872.683937733523
 21
869.8440649027785
 31
0.0
  0
LINE
  5
6E0F
330
1E
100
AcDbEntity
  8
躯体と製品
  6
Continuous
 62
     3
100
AcDbLine
 10
1870.989665881922
 20
868.8735274780137
 30
0.0
 11
1871.206726104006
 21
870.1045371692792
 31
0.0
  0
LINE
  5
6E10
330
1E
100
AcDbEntity
  8
躯体と製品
  6
Continuous
 62
     3
100
AcDbLine
 10
1867.050434869873
 20
869.5681201886815
 30
0.0
 11
1867.267495091956
 21
870.7991298799466
 31
0.0
  0
LINE
  5
6E11
330
1E
100
AcDbEntity
  8
躯体と製品
  6
Continuous
 62
     3
100
AcDbLine
 10
1871.308421580761
 20
867.8018956361681
 30
0.0
 11
1870.642369526588
 21
866.9039119719894
 31
0.0
  0
LINE
  5
6E12
330
1E
100
AcDbEntity
  8
躯体と製品
  6
Continuous
 62
     3
100
AcDbLine
 10
1871.482069758428
 20
868.7867033891803
 30
0.0
 11
1870.816017704255
 21
867.8887197250015
 31
0.0
  0
ARC
  5
6E13
330
1E
100
AcDbEntity
  8
躯体と製品
  6
Continuous
 62
     3
100
AcDbCircle
 10
1866.528889277197
 20
870.9293660131965
 30
0.0
 40
0.7500000000000014
100
AcDbArc
 50
350.0000000000025
 51
170.0000000000025
  0
ARC
  5
6E14
330
1E
100
AcDbEntity
  8
躯体と製品
  6
Continuous
 62
     3
100
AcDbCircle
 10
1871.945331918764
 20
869.9743010360286
 30
0.0
 40
0.7499999999999977
100
AcDbArc
 50
350.0000000000025
 51
170.0000000000025
  0
LINE
  5
6E15
330
1E
100
AcDbEntity
  8
躯体と製品
  6
Continuous
 62
     3
100
AcDbLine
 10
1871.685460711938
 20
861.6814203229585
 30
0.0
 11
1871.685460711938
 21
864.1814203229582
 31
0.0
  0
LINE
  5
6E16
330
1E
100
AcDbEntity
  8
躯体と製品
  6
Continuous
 62
     3
100
AcDbLine
 10
1823.185460711938
 20
861.6814203229585
 30
0.0
 11
1824.685460711939
 21
861.6814203229585
 31
0.0
  0
LINE
  5
6E17
330
1E
100
AcDbEntity
  8
躯体と製品
  6
Continuous
 62
     3
100
AcDbLine
 10
1824.685460711939
 20
861.6814203229585
 30
0.0
 11
1824.685460711939
 21
862.1814203229583
 31
0.0
  0
LINE
  5
6E18
330
1E
100
AcDbEntity
  8
躯体と製品
  6
Continuous
 62
     3
100
AcDbLine
 10
1824.685460711939
 20
862.1814203229583
 30
0.0
 11
1836.185460711939
 21
862.1814203229583
 31
0.0
  0
LINE
  5
6E19
330
1E
100
AcDbEntity
  8
躯体と製品
  6
Continuous
 62
     3
100
AcDbLine
 10
1836.185460711939
 20
862.1814203229583
 30
0.0
 11
1836.185460711939
 21
861.6814203229585
 31
0.0
  0
ARC
  5
6E1A
330
1E
100
AcDbEntity
  8
躯体と製品
  6
Continuous
 62
     3
100
AcDbCircle
 10
1827.935460711938
 20
870.9314203229585
 30
0.0
 40
0.75
100
AcDbArc
 50
270.0
 51
90.0
  0
ARC
  5
6E1B
330
1E
100
AcDbEntity
  8
躯体と製品
  6
Continuous
 62
     3
100
AcDbCircle
 10
1826.935460711938
 20
866.9314203229586
 30
0.0
 40
0.75
100
AcDbArc
 50
270.0
 51
90.0
  0
ARC
  5
6E1C
330
1E
100
AcDbEntity
  8
躯体と製品
  6
Continuous
 62
     3
100
AcDbCircle
 10
1824.985460711938
 20
869.8814203229582
 30
0.0
 40
0.2999999999999998
100
AcDbArc
 50
90.0
 51
180.0
  0
LINE
  5
6E1D
330
1E
100
AcDbEntity
  8
躯体と製品
  6
Continuous
 62
     3
100
AcDbLine
 10
1824.985460711938
 20
870.1814203229583
 30
0.0
 11
1827.935460711938
 21
870.1814203229583
 31
0.0
  0
LINE
  5
6E1E
330
1E
100
AcDbEntity
  8
躯体と製品
  6
Continuous
 62
     3
100
AcDbLine
 10
1824.985460711938
 20
867.6814203229582
 30
0.0
 11
1826.935460711938
 21
867.6814203229582
 31
0.0
  0
ARC
  5
6E1F
330
1E
100
AcDbEntity
  8
躯体と製品
  6
Continuous
 62
     3
100
AcDbCircle
 10
1824.985460711938
 20
867.9814203229582
 30
0.0
 40
0.2999999999999998
100
AcDbArc
 50
180.0
 51
270.0
  0
LINE
  5
6E20
330
1E
100
AcDbEntity
  8
躯体と製品
  6
Continuous
 62
     3
100
AcDbLine
 10
1824.685460711939
 20
867.9814203229582
 30
0.0
 11
1824.685460711939
 21
869.8814203229582
 31
0.0
  0
ARC
  5
6E21
330
1E
100
AcDbEntity
  8
躯体と製品
  6
Continuous
 62
     3
100
AcDbCircle
 10
1824.985460711938
 20
865.8814203229583
 30
0.0
 40
0.2999999999999998
100
AcDbArc
 50
90.0
 51
180.0
  0
LINE
  5
6E22
330
1E
100
AcDbEntity
  8
躯体と製品
  6
Continuous
 62
     3
100
AcDbLine
 10
1824.985460711938
 20
866.1814203229582
 30
0.0
 11
1826.935460711938
 21
866.1814203229582
 31
0.0
  0
ARC
  5
6E23
330
1E
100
AcDbEntity
  8
躯体と製品
  6
Continuous
 62
     3
100
AcDbCircle
 10
1824.985460711938
 20
864.4814203229586
 30
0.0
 40
0.2999999999999998
100
AcDbArc
 50
180.0
 51
270.0
  0
LINE
  5
6E24
330
1E
100
AcDbEntity
  8
躯体と製品
  6
Continuous
 62
     3
100
AcDbLine
 10
1824.685460711939
 20
864.4814203229586
 30
0.0
 11
1824.685460711939
 21
865.8814203229583
 31
0.0
  0
LINE
  5
6E25
330
1E
100
AcDbEntity
  8
躯体と製品
  6
Continuous
 62
     3
100
AcDbLine
 10
1823.685460711939
 20
871.6814203229583
 30
0.0
 11
1827.935460711938
 21
871.6814203229583
 31
0.0
  0
ARC
  5
6E26
330
1E
100
AcDbEntity
  8
躯体と製品
  6
Continuous
 62
     3
100
AcDbCircle
 10
1823.685460711939
 20
871.1814203229582
 30
0.0
 40
0.5
100
AcDbArc
 50
90.0
 51
180.0
  0
LINE
  5
6E27
330
1E
100
AcDbEntity
  8
躯体と製品
  6
Continuous
 62
     3
100
AcDbLine
 10
1823.185460711938
 20
871.1814203229582
 30
0.0
 11
1823.185460711938
 21
861.6814203229585
 31
0.0
  0
LINE
  5
6E28
330
1E
100
AcDbEntity
  8
躯体と製品
  6
Continuous
 62
     3
100
AcDbLine
 10
1836.185460711939
 20
861.6814203229585
 30
0.0
 11
1846.185460711938
 21
861.6814203229585
 31
0.0
  0
LINE
  5
6E29
330
1E
100
AcDbEntity
  8
躯体と製品
  6
Continuous
 62
     3
100
AcDbLine
 10
1841.685460711939
 20
864.1814203229582
 30
0.0
 11
1857.385460711938
 21
864.1814203229582
 31
0.0
  0
LINE
  5
6E2A
330
1E
100
AcDbEntity
  8
躯体と製品
  6
Continuous
 62
     3
100
AcDbLine
 10
1824.985460711938
 20
864.1814203229582
 30
0.0
 11
1840.685460711939
 21
864.1814203229582
 31
0.0
  0
LINE
  5
6E2B
330
1E
100
AcDbEntity
  8
躯体と製品
  6
Continuous
 62
     3
100
AcDbLine
 10
1846.185460711938
 20
861.6814203229585
 30
0.0
 11
1846.185460711938
 21
862.1814203229583
 31
0.0
  0
LINE
  5
6E2C
330
1E
100
AcDbEntity
  8
躯体と製品
  6
Continuous
 62
     3
100
AcDbLine
 10
1846.185460711938
 20
862.1814203229583
 30
0.0
 11
1857.685460711939
 21
862.1814203229583
 31
0.0
  0
LINE
  5
6E2D
330
1E
100
AcDbEntity
  8
躯体と製品
  6
Continuous
 62
     3
100
AcDbLine
 10
1857.685460711939
 20
862.1814203229583
 30
0.0
 11
1857.685460711939
 21
861.6814203229585
 31
0.0
  0
LINE
  5
6E2E
330
1E
100
AcDbEntity
  8
躯体と製品
  6
Continuous
 62
     3
100
AcDbLine
 10
1857.685460711939
 20
861.6814203229585
 30
0.0
 11
1859.685460711938
 21
861.6814203229585
 31
0.0
  0
ARC
  5
6E2F
330
1E
100
AcDbEntity
  8
躯体と製品
  6
Continuous
 62
     3
100
AcDbCircle
 10
1858.685460711938
 20
879.6814203229583
 30
0.0
 40
1.0
100
AcDbArc
 50
0.0
 51
180.0
  0
LINE
  5
6E30
330
1E
100
AcDbEntity
  8
躯体と製品
  6
Continuous
 62
     3
100
AcDbLine
 10
1870.185460711939
 20
862.6814203229585
 30
0.0
 11
1870.185460711939
 21
861.6814203229585
 31
0.0
  0
LINE
  5
6E31
330
1E
100
AcDbEntity
  8
躯体と製品
  6
Continuous
 62
     3
100
AcDbLine
 10
1870.185460711939
 20
861.6814203229585
 30
0.0
 11
1871.685460711938
 21
861.6814203229585
 31
0.0
  0
LINE
  5
6E32
330
1E
100
AcDbEntity
  8
躯体と製品
  6
Continuous
 62
     3
100
AcDbLine
 10
1841.185460711939
 20
863.6814203229585
 30
0.0
 11
1841.685460711939
 21
864.1814203229582
 31
0.0
  0
LINE
  5
6E33
330
1E
100
AcDbEntity
  8
躯体と製品
  6
Continuous
 62
     3
100
AcDbLine
 10
1859.685460711938
 20
861.6814203229585
 30
0.0
 11
1859.685460711938
 21
862.6814203229585
 31
0.0
  0
LINE
  5
6E34
330
1E
100
AcDbEntity
  8
躯体と製品
  6
Continuous
 62
     3
100
AcDbLine
 10
1859.685460711938
 20
862.6814203229585
 30
0.0
 11
1870.185460711939
 21
862.6814203229585
 31
0.0
  0
LINE
  5
6E35
330
1E
100
AcDbEntity
  8
躯体と製品
  6
Continuous
 62
     3
100
AcDbLine
 10
1859.685460711938
 20
864.6814203229585
 30
0.0
 11
1859.685460711938
 21
879.6814203229583
 31
0.0
  0
ARC
  5
6E36
330
1E
100
AcDbEntity
  8
躯体と製品
  6
Continuous
 62
     3
100
AcDbCircle
 10
1860.185460711938
 20
864.6814203229585
 30
0.0
 40
0.5
100
AcDbArc
 50
180.0
 51
270.0
  0
ARC
  5
6E37
330
1E
100
AcDbEntity
  8
躯体と製品
  6
Continuous
 62
     3
100
AcDbCircle
 10
1857.385460711938
 20
864.4814203229586
 30
0.0
 40
0.2999999999999998
100
AcDbArc
 50
270.0
 51
0.0
  0
LINE
  5
6E38
330
1E
100
AcDbEntity
  8
躯体と製品
  6
Continuous
 62
     3
100
AcDbLine
 10
1857.185460711939
 20
871.6814203229583
 30
0.0
 11
1854.435460711938
 21
871.6814203229583
 31
0.0
  0
ARC
  5
6E39
330
1E
100
AcDbEntity
  8
躯体と製品
  6
Continuous
 62
     3
100
AcDbCircle
 10
1857.185460711939
 20
872.1814203229582
 30
0.0
 40
0.5
100
AcDbArc
 50
270.0
 51
0.0
  0
LINE
  5
6E3A
330
1E
100
AcDbEntity
  8
躯体と製品
  6
Continuous
 62
     3
100
AcDbLine
 10
1857.685460711939
 20
872.1814203229582
 30
0.0
 11
1857.685460711939
 21
879.6814203229583
 31
0.0
  0
ARC
  5
6E3B
330
1E
100
AcDbEntity
  8
躯体と製品
  6
Continuous
 62
     3
100
AcDbCircle
 10
1854.435460711938
 20
870.9314203229585
 30
0.0
 40
0.75
100
AcDbArc
 50
90.0
 51
270.0
  0
ARC
  5
6E3C
330
1E
100
AcDbEntity
  8
躯体と製品
  6
Continuous
 62
     3
100
AcDbCircle
 10
1855.435460711939
 20
866.9314203229586
 30
0.0
 40
0.75
100
AcDbArc
 50
90.0
 51
270.0
  0
LINE
  5
6E3D
330
1E
100
AcDbEntity
  8
躯体と製品
  6
Continuous
 62
     3
100
AcDbLine
 10
1857.385460711938
 20
866.1814203229582
 30
0.0
 11
1855.435460711939
 21
866.1814203229582
 31
0.0
  0
ARC
  5
6E3E
330
1E
100
AcDbEntity
  8
躯体と製品
  6
Continuous
 62
     3
100
AcDbCircle
 10
1857.385460711938
 20
865.8814203229583
 30
0.0
 40
0.2999999999999998
100
AcDbArc
 50
0.0
 51
90.0
  0
LINE
  5
6E3F
330
1E
100
AcDbEntity
  8
躯体と製品
  6
Continuous
 62
     3
100
AcDbLine
 10
1857.685460711939
 20
865.8814203229583
 30
0.0
 11
1857.685460711939
 21
864.4814203229586
 31
0.0
  0
LINE
  5
6E40
330
1E
100
AcDbEntity
  8
躯体と製品
  6
Continuous
 62
     3
100
AcDbLine
 10
1857.385460711938
 20
867.6814203229582
 30
0.0
 11
1855.435460711939
 21
867.6814203229582
 31
0.0
  0
ARC
  5
6E41
330
1E
100
AcDbEntity
  8
躯体と製品
  6
Continuous
 62
     3
100
AcDbCircle
 10
1857.385460711938
 20
867.9814203229582
 30
0.0
 40
0.2999999999999998
100
AcDbArc
 50
270.0
 51
0.0
  0
LINE
  5
6E42
330
1E
100
AcDbEntity
  8
躯体と製品
  6
Continuous
 62
     3
100
AcDbLine
 10
1857.685460711939
 20
869.8814203229582
 30
0.0
 11
1857.685460711939
 21
867.9814203229582
 31
0.0
  0
ARC
  5
6E43
330
1E
100
AcDbEntity
  8
躯体と製品
  6
Continuous
 62
     3
100
AcDbCircle
 10
1857.385460711938
 20
869.8814203229582
 30
0.0
 40
0.2999999999999998
100
AcDbArc
 50
0.0
 51
90.0
  0
LINE
  5
6E44
330
1E
100
AcDbEntity
  8
躯体と製品
  6
Continuous
 62
     3
100
AcDbLine
 10
1857.385460711938
 20
870.1814203229583
 30
0.0
 11
1854.435460711938
 21
870.1814203229583
 31
0.0
  0
LINE
  5
6E45
330
1E
100
AcDbEntity
  8
躯体と製品
  6
Continuous
 62
     3
100
AcDbLine
 10
1841.185460711939
 20
863.6814203229585
 30
0.0
 11
1840.685460711939
 21
864.1814203229582
 31
0.0
  0
LINE
  5
6E46
330
1E
100
AcDbEntity
  8
躯体と製品
  6
Continuous
 62
     3
100
AcDbLine
 10
1866.3843828157
 20
868.6701365245026
 30
0.0
 11
1866.703138514539
 21
867.598504682657
 31
0.0
  0
LINE
  5
6E47
330
1E
100
AcDbEntity
  8
躯体と製品
  6
Continuous
 62
     3
100
AcDbLine
 10
1866.558030993367
 20
869.6549442775149
 30
0.0
 11
1866.876786692206
 21
868.5833124356692
 31
0.0
  0
LINE
  5
6E48
330
1E
100
AcDbEntity
  8
躯体と製品
  6
DASHED1
 62
     4
100
AcDbLine
 10
1844.963491015704
 20
905.2345924628754
 30
0.0
 11
1843.717895257123
 21
881.4672095357165
 31
0.0
  0
LINE
  5
6E49
330
1E
100
AcDbEntity
  8
躯体と製品
  6
DASHED1
 62
     7
100
AcDbLine
 10
1845.531211906212
 20
905.2048394717516
 30
0.0
 11
1844.28561614763
 21
881.4374565445927
 31
0.0
  0
LINE
  5
6E4A
330
1E
100
AcDbEntity
  8
躯体と製品
  6
DASHED1
 62
     7
100
AcDbLine
 10
1839.539434697685
 20
905.5188552092095
 30
0.0
 11
1838.293838939103
 21
881.7514722820503
 31
0.0
  0
LINE
  5
6E4B
330
1E
100
AcDbEntity
  8
躯体と製品
  6
DASHED1
 62
     4
100
AcDbLine
 10
1840.107155588192
 20
905.4891022180852
 30
0.0
 11
1838.861559829611
 21
881.7217192909263
 31
0.0
  0
ARC
  5
6E4C
330
1E
100
AcDbEntity
  8
躯体と製品
  6
DASHED1
 62
     7
100
AcDbCircle
 10
1853.099095527759
 20
903.0057532744775
 30
0.0
 40
1.0
100
AcDbArc
 50
37.62684736228169
 51
86.99999999999441
  0
LINE
  5
6E4D
330
1E
100
AcDbEntity
  8
躯体と製品
  6
DASHED1
 62
     7
100
AcDbLine
 10
1831.877346354901
 20
905.9204082439251
 30
0.0
 11
1853.193300248997
 21
904.8032864370354
 31
0.0
  0
ARC
  5
6E4E
330
1E
100
AcDbEntity
  8
躯体と製品
  6
DASHED1
 62
     7
100
AcDbCircle
 10
1831.783141633663
 20
904.1228750813671
 30
0.0
 40
1.8
100
AcDbArc
 50
86.99999999999441
 51
136.3731526377175
  0
LINE
  5
6E4F
330
1E
100
AcDbEntity
  8
躯体と製品
  6
DASHED1
 62
     7
100
AcDbLine
 10
1831.835477589906
 20
905.1215046161212
 30
0.0
 11
1853.151431484002
 21
904.004382809232
 31
0.0
  0
LINE
  5
6E50
330
1E
100
AcDbEntity
  8
躯体と製品
  6
DASHED1
 62
     7
100
AcDbLine
 10
1831.059292990101
 20
904.8128338781166
 30
0.0
 11
1818.129341896343
 21
891.2477810015738
 31
0.0
  0
ARC
  5
6E51
330
1E
100
AcDbEntity
  8
躯体と製品
  6
DASHED1
 62
     7
100
AcDbCircle
 10
1831.783141633663
 20
904.1228750813671
 30
0.0
 40
1.0
100
AcDbArc
 50
86.99999999999441
 51
136.3731526377175
  0
ARC
  5
6E52
330
1E
100
AcDbEntity
  8
躯体と製品
  6
DASHED1
 62
     7
100
AcDbCircle
 10
1816.826414354435
 20
892.4897068530389
 30
0.0
 40
1.0
100
AcDbArc
 50
217.6268487328632
 51
316.3731526377176
  0
ARC
  5
6E53
330
1E
100
AcDbEntity
  8
躯体と製品
  6
DASHED1
 62
     7
100
AcDbCircle
 10
1816.826414354435
 20
892.4897068530389
 30
0.0
 40
1.8
100
AcDbArc
 50
217.6268481237226
 51
316.3731526377176
  0
LINE
  5
6E54
330
1E
100
AcDbEntity
  8
躯体と製品
  6
DASHED1
 62
     7
100
AcDbLine
 10
1869.551616126003
 20
891.354496174859
 30
0.0
 11
1867.481739719221
 21
889.1829502268265
 31
0.0
  0
LINE
  5
6E55
330
1E
100
AcDbEntity
  8
躯体と製品
  6
DASHED1
 62
     7
100
AcDbLine
 10
1870.130695040875
 20
890.8025291374819
 30
0.0
 11
1869.551616126003
 21
891.354496174859
 31
0.0
  0
LINE
  5
6E56
330
1E
100
AcDbEntity
  8
躯体と製品
  6
DASHED1
 62
     7
100
AcDbLine
 10
1870.130695040875
 20
890.8025291374819
 30
0.0
 11
1868.060818634072
 21
888.6309831894266
 31
0.0
  0
ARC
  5
6E57
330
1E
100
AcDbEntity
  8
躯体と製品
  6
DASHED1
 62
     7
100
AcDbCircle
 10
1866.757891092163
 20
889.8729090408917
 30
0.0
 40
1.0
100
AcDbArc
 50
217.6268473622817
 51
316.3731512671342
  0
ARC
  5
6E58
330
1E
100
AcDbEntity
  8
躯体と製品
  6
DASHED1
 62
     7
100
AcDbCircle
 10
1866.757891092163
 20
889.8729090408917
 30
0.0
 40
1.8
100
AcDbArc
 50
217.6268473622817
 51
316.3731518762783
  0
LINE
  5
6E59
330
1E
100
AcDbEntity
  8
躯体と製品
  6
DASHED1
 62
     7
100
AcDbLine
 10
1854.524702111616
 20
904.1046826935328
 30
0.0
 11
1865.96588744907
 21
889.2623926780261
 31
0.0
  0
LINE
  5
6E5A
330
1E
100
AcDbEntity
  8
躯体と製品
  6
DASHED1
 62
     7
100
AcDbLine
 10
1853.891099185458
 20
903.6162696183971
 30
0.0
 11
1865.332284522911
 21
888.7739796028906
 31
0.0
  0
ARC
  5
6E5B
330
1E
100
AcDbEntity
  8
躯体と製品
  6
DASHED1
 62
     7
100
AcDbCircle
 10
1853.099095527759
 20
903.0057532744775
 30
0.0
 40
1.8
100
AcDbArc
 50
37.62684736228169
 51
86.99999999999441
  0
LINE
  5
6E5C
330
1E
100
AcDbEntity
  8
躯体と製品
  6
DASHED1
 62
     7
100
AcDbLine
 10
1814.202861664953
 20
894.2552014822444
 30
0.0
 11
1816.034410711341
 21
891.8791904901738
 31
0.0
  0
LINE
  5
6E5D
330
1E
100
AcDbEntity
  8
躯体と製品
  6
DASHED1
 62
     7
100
AcDbLine
 10
1830.48021407525
 20
905.3648009155168
 30
0.0
 11
1817.550262997998
 21
891.7997480562892
 31
0.0
  0
ARC
  5
6E5E
330
1E
100
AcDbEntity
  8
躯体と製品
  6
DASHED1
 62
     7
100
AcDbCircle
 10
1841.351394554264
 20
908.5660265999292
 30
0.0
 40
0.5999999999999997
100
AcDbArc
 50
357.0000000000011
 51
100.7002330000058
  0
ARC
  5
6E5F
330
1E
100
AcDbEntity
  8
躯体と製品
  6
DASHED1
 62
     7
100
AcDbCircle
 10
1844.047694298101
 20
908.4247195180731
 30
0.0
 40
0.5999999999999997
100
AcDbArc
 50
73.29976700000166
 51
177.0000000000011
  0
LINE
  5
6E60
330
1E
100
AcDbEntity
  8
躯体と製品
  6
DASHED1
 62
     7
100
AcDbLine
 10
1843.446462652646
 20
908.4169298757275
 30
0.0
 11
1841.948518350514
 21
908.4954338100921
 31
0.0
  0
ARC
  5
6E61
330
1E
100
AcDbEntity
  8
躯体と製品
  6
DASHED1
 62
     7
100
AcDbCircle
 10
1840.722092606781
 20
905.2617493219454
 30
0.0
 40
3.45
100
AcDbArc
 50
126.3091240000008
 51
173.7621629999991
  0
ARC
  5
6E62
330
1E
100
AcDbEntity
  8
躯体と製品
  6
DASHED1
 62
     7
100
AcDbCircle
 10
1844.333428612037
 20
905.0679780419912
 30
0.0
 40
3.45
100
AcDbArc
 50
0.3127429999987237
 51
47.82048899999998
  0
ARC
  5
6E63
330
1E
100
AcDbEntity
  8
躯体と製品
  6
DASHED1
 62
     7
100
AcDbCircle
 10
1842.409717059301
 20
902.9651374556989
 30
0.0
 40
6.299999999999998
100
AcDbArc
 50
47.69686900000316
 51
126.3093710000041
  0
LINE
  5
6E64
330
1E
100
AcDbEntity
  8
躯体と製品
  6
Continuous
 62
     4
100
AcDbLine
 10
1843.729206428833
 20
870.8205266458493
 30
0.0
 11
1837.737429220306
 21
871.1345423833071
 31
0.0
  0
LINE
  5
6E65
330
1E
100
AcDbEntity
  8
躯体と製品
  6
Continuous
 62
     7
100
AcDbLine
 10
1838.293838939103
 20
881.7514722820503
 30
0.0
 11
1838.189572107675
 21
879.7619426195737
 31
0.0
  0
LINE
  5
6E66
330
1E
100
AcDbEntity
  8
躯体と製品
  6
Continuous
 62
     7
100
AcDbLine
 10
1838.0011626652
 20
876.1668762944571
 30
0.0
 11
1837.737429220306
 21
871.1345423833071
 31
0.0
  0
LINE
  5
6E67
330
1E
100
AcDbEntity
  8
躯体と製品
  6
Continuous
 62
     7
100
AcDbLine
 10
1844.28561614763
 20
881.4374565445927
 30
0.0
 11
1844.181349316202
 21
879.4479268821161
 31
0.0
  0
LINE
  5
6E68
330
1E
100
AcDbEntity
  8
躯体と製品
  6
Continuous
 62
     7
100
AcDbLine
 10
1843.992939873728
 20
875.8528605569997
 30
0.0
 11
1843.729206428833
 21
870.8205266458493
 31
0.0
  0
LINE
  5
6E69
330
1E
100
AcDbEntity
  8
躯体と製品
  6
Continuous
 62
     4
100
AcDbLine
 10
1838.861559829611
 20
881.7217192909263
 30
0.0
 11
1838.757292998183
 21
879.7321896284497
 31
0.0
  0
LINE
  5
6E6A
330
1E
100
AcDbEntity
  8
躯体と製品
  6
Continuous
 62
     4
100
AcDbLine
 10
1843.717895257123
 20
881.4672095357165
 30
0.0
 11
1843.613628425694
 21
879.4776798732403
 31
0.0
  0
POINT
  5
6E6B
330
1E
100
AcDbEntity
  8
躯体と製品
 62
     4
100
AcDbPoint
 10
1841.185460711939
 20
879.6049347508448
 30
0.0
  0
ARC
  5
6E6C
330
1E
100
AcDbEntity
  8
躯体と製品
  6
Continuous
 62
     7
100
AcDbCircle
 10
1891.15690093804
 20
858.6818282364976
 30
0.0
 40
1.0
100
AcDbArc
 50
4.999999999999459
 51
88.3634229583817
  0
LINE
  5
6E6D
330
1E
100
AcDbEntity
  8
躯体と製品
  6
DASHED1
 62
     7
100
AcDbLine
 10
1813.569258738776
 20
893.7667884071341
 30
0.0
 11
1814.202861664953
 21
894.2552014822444
 31
0.0
  0
LINE
  5
6E6E
330
1E
100
AcDbEntity
  8
躯体と製品
  6
DASHED1
 62
     7
100
AcDbLine
 10
1813.569258738776
 20
893.7667884071341
 30
0.0
 11
1815.400807785183
 21
891.3907774150379
 31
0.0
  0
ARC
  5
6E6F
330
1E
100
AcDbEntity
  8
躯体と製品
  6
Continuous
 62
     7
100
AcDbCircle
 10
1737.185460711939
 20
828.6814203229585
 30
0.0
 40
4.0
100
AcDbArc
 50
0.0
 51
119.1310602236862
  0
ARC
  5
6E70
330
1E
100
AcDbEntity
  8
躯体と製品
  6
Continuous
 62
     7
100
AcDbCircle
 10
1737.185460711939
 20
824.1814203229585
 30
0.0
 40
4.0
100
AcDbArc
 50
270.0
 51
0.0
  0
LINE
  5
6E71
330
1E
100
AcDbEntity
  8
躯体と製品
  6
DASHED1
 62
     4
100
AcDbLine
 10
1768.385460711939
 20
861.2814203229582
 30
0.0
 11
1768.385460711939
 21
860.9814203229586
 31
0.0
  0
LINE
  5
6E72
330
1E
100
AcDbEntity
  8
躯体と製品
  6
DASHED1
 62
     4
100
AcDbLine
 10
1768.385460711939
 20
861.2814203229582
 30
0.0
 11
1773.985460711938
 21
861.2814203229582
 31
0.0
  0
LINE
  5
6E73
330
1E
100
AcDbEntity
  8
躯体と製品
  6
DASHED1
 62
     4
100
AcDbLine
 10
1768.385460711939
 20
860.9814203229586
 30
0.0
 11
1773.985460711938
 21
860.9814203229586
 31
0.0
  0
LINE
  5
6E74
330
1E
100
AcDbEntity
  8
躯体と製品
  6
DASHED1
 62
     4
100
AcDbLine
 10
1769.985460711939
 20
841.1074453229582
 30
0.0
 11
1769.985460711939
 21
840.3314203229584
 31
0.0
  0
LINE
  5
6E75
330
1E
100
AcDbEntity
  8
躯体と製品
  6
DASHED1
 62
     4
100
AcDbLine
 10
1772.385460711939
 20
841.0369753229584
 30
0.0
 11
1772.385460711939
 21
841.8130003229583
 31
0.0
  0
LINE
  5
6E76
330
1E
100
AcDbEntity
  8
躯体と製品
  6
DASHED1
 62
     4
100
AcDbLine
 10
1769.985460711939
 20
839.6963353229585
 30
0.0
 11
1772.385460711939
 21
840.4018903229584
 31
0.0
  0
LINE
  5
6E77
330
1E
100
AcDbEntity
  8
躯体と製品
  6
DASHED1
 62
     4
100
AcDbLine
 10
1769.985460711939
 20
840.3314203229584
 30
0.0
 11
1772.385460711939
 21
841.0369753229584
 31
0.0
  0
LINE
  5
6E78
330
1E
100
AcDbEntity
  8
躯体と製品
  6
DASHED1
 62
     4
100
AcDbLine
 10
1769.435460711938
 20
840.0138803229584
 30
0.0
 11
1772.935460711939
 21
840.7194353229582
 31
0.0
  0
LINE
  5
6E79
330
1E
100
AcDbEntity
  8
躯体と製品
  6
DASHED1
 62
     4
100
AcDbLine
 10
1769.435460711938
 20
840.0138803229584
 30
0.0
 11
1769.985460711939
 21
839.6963353229585
 31
0.0
  0
LINE
  5
6E7A
330
1E
100
AcDbEntity
  8
躯体と製品
  6
DASHED1
 62
     4
100
AcDbLine
 10
1769.435460711938
 20
840.0138803229584
 30
0.0
 11
1769.985460711939
 21
840.3314203229584
 31
0.0
  0
LINE
  5
6E7B
330
1E
100
AcDbEntity
  8
躯体と製品
  6
DASHED1
 62
     4
100
AcDbLine
 10
1772.935460711939
 20
840.7194353229582
 30
0.0
 11
1772.385460711939
 21
840.4018903229584
 31
0.0
  0
LINE
  5
6E7C
330
1E
100
AcDbEntity
  8
躯体と製品
  6
DASHED1
 62
     4
100
AcDbLine
 10
1772.385460711939
 20
841.0369753229584
 30
0.0
 11
1772.935460711939
 21
840.7194353229582
 31
0.0
  0
LINE
  5
6E7D
330
1E
100
AcDbEntity
  8
躯体と製品
  6
DASHED1
 62
     4
100
AcDbLine
 10
1769.985460711939
 20
842.5185603229584
 30
0.0
 11
1769.985460711939
 21
841.7425303229583
 31
0.0
  0
LINE
  5
6E7E
330
1E
100
AcDbEntity
  8
躯体と製品
  6
DASHED1
 62
     4
100
AcDbLine
 10
1772.385460711939
 20
842.4480853229583
 30
0.0
 11
1772.385460711939
 21
843.2241153229583
 31
0.0
  0
LINE
  5
6E7F
330
1E
100
AcDbEntity
  8
躯体と製品
  6
DASHED1
 62
     4
100
AcDbLine
 10
1769.985460711939
 20
841.1074453229582
 30
0.0
 11
1772.385460711939
 21
841.8130003229583
 31
0.0
  0
LINE
  5
6E80
330
1E
100
AcDbEntity
  8
躯体と製品
  6
DASHED1
 62
     4
100
AcDbLine
 10
1769.985460711939
 20
841.7425303229583
 30
0.0
 11
1772.385460711939
 21
842.4480853229583
 31
0.0
  0
LINE
  5
6E81
330
1E
100
AcDbEntity
  8
躯体と製品
  6
DASHED1
 62
     4
100
AcDbLine
 10
1769.435460711938
 20
841.4249903229583
 30
0.0
 11
1772.935460711939
 21
842.1305453229583
 31
0.0
  0
LINE
  5
6E82
330
1E
100
AcDbEntity
  8
躯体と製品
  6
DASHED1
 62
     4
100
AcDbLine
 10
1769.435460711938
 20
841.4249903229583
 30
0.0
 11
1769.985460711939
 21
841.1074453229582
 31
0.0
  0
LINE
  5
6E83
330
1E
100
AcDbEntity
  8
躯体と製品
  6
DASHED1
 62
     4
100
AcDbLine
 10
1769.435460711938
 20
841.4249903229583
 30
0.0
 11
1769.985460711939
 21
841.7425303229583
 31
0.0
  0
LINE
  5
6E84
330
1E
100
AcDbEntity
  8
躯体と製品
  6
DASHED1
 62
     4
100
AcDbLine
 10
1772.935460711939
 20
842.1305453229583
 30
0.0
 11
1772.385460711939
 21
841.8130003229583
 31
0.0
  0
LINE
  5
6E85
330
1E
100
AcDbEntity
  8
躯体と製品
  6
DASHED1
 62
     4
100
AcDbLine
 10
1772.385460711939
 20
842.4480853229583
 30
0.0
 11
1772.935460711939
 21
842.1305453229583
 31
0.0
  0
LINE
  5
6E86
330
1E
100
AcDbEntity
  8
躯体と製品
  6
DASHED1
 62
     4
100
AcDbLine
 10
1769.985460711939
 20
843.9296703229583
 30
0.0
 11
1769.985460711939
 21
843.1536453229583
 31
0.0
  0
LINE
  5
6E87
330
1E
100
AcDbEntity
  8
躯体と製品
  6
DASHED1
 62
     4
100
AcDbLine
 10
1772.385460711939
 20
843.8592003229583
 30
0.0
 11
1772.385460711939
 21
844.6352253229584
 31
0.0
  0
LINE
  5
6E88
330
1E
100
AcDbEntity
  8
躯体と製品
  6
DASHED1
 62
     4
100
AcDbLine
 10
1769.985460711939
 20
842.5185603229584
 30
0.0
 11
1772.385460711939
 21
843.2241153229583
 31
0.0
  0
LINE
  5
6E89
330
1E
100
AcDbEntity
  8
躯体と製品
  6
DASHED1
 62
     4
100
AcDbLine
 10
1769.985460711939
 20
843.1536453229583
 30
0.0
 11
1772.385460711939
 21
843.8592003229583
 31
0.0
  0
LINE
  5
6E8A
330
1E
100
AcDbEntity
  8
躯体と製品
  6
DASHED1
 62
     4
100
AcDbLine
 10
1769.435460711938
 20
842.8361003229584
 30
0.0
 11
1772.935460711939
 21
843.5416553229583
 31
0.0
  0
LINE
  5
6E8B
330
1E
100
AcDbEntity
  8
躯体と製品
  6
DASHED1
 62
     4
100
AcDbLine
 10
1769.435460711938
 20
842.8361003229584
 30
0.0
 11
1769.985460711939
 21
842.5185603229584
 31
0.0
  0
LINE
  5
6E8C
330
1E
100
AcDbEntity
  8
躯体と製品
  6
DASHED1
 62
     4
100
AcDbLine
 10
1769.435460711938
 20
842.8361003229584
 30
0.0
 11
1769.985460711939
 21
843.1536453229583
 31
0.0
  0
LINE
  5
6E8D
330
1E
100
AcDbEntity
  8
躯体と製品
  6
DASHED1
 62
     4
100
AcDbLine
 10
1772.935460711939
 20
843.5416553229583
 30
0.0
 11
1772.385460711939
 21
843.2241153229583
 31
0.0
  0
LINE
  5
6E8E
330
1E
100
AcDbEntity
  8
躯体と製品
  6
DASHED1
 62
     4
100
AcDbLine
 10
1772.385460711939
 20
843.8592003229583
 30
0.0
 11
1772.935460711939
 21
843.5416553229583
 31
0.0
  0
LINE
  5
6E8F
330
1E
100
AcDbEntity
  8
躯体と製品
  6
DASHED1
 62
     4
100
AcDbLine
 10
1769.985460711939
 20
845.3407803229584
 30
0.0
 11
1769.985460711939
 21
844.5647553229584
 31
0.0
  0
LINE
  5
6E90
330
1E
100
AcDbEntity
  8
躯体と製品
  6
DASHED1
 62
     4
100
AcDbLine
 10
1772.385460711939
 20
845.2703103229584
 30
0.0
 11
1772.385460711939
 21
846.0463353229586
 31
0.0
  0
LINE
  5
6E91
330
1E
100
AcDbEntity
  8
躯体と製品
  6
DASHED1
 62
     4
100
AcDbLine
 10
1769.985460711939
 20
843.9296703229583
 30
0.0
 11
1772.385460711939
 21
844.6352253229584
 31
0.0
  0
LINE
  5
6E92
330
1E
100
AcDbEntity
  8
躯体と製品
  6
DASHED1
 62
     4
100
AcDbLine
 10
1769.985460711939
 20
844.5647553229584
 30
0.0
 11
1772.385460711939
 21
845.2703103229584
 31
0.0
  0
LINE
  5
6E93
330
1E
100
AcDbEntity
  8
躯体と製品
  6
DASHED1
 62
     4
100
AcDbLine
 10
1769.435460711938
 20
844.2472103229583
 30
0.0
 11
1772.935460711939
 21
844.9527653229585
 31
0.0
  0
LINE
  5
6E94
330
1E
100
AcDbEntity
  8
躯体と製品
  6
DASHED1
 62
     4
100
AcDbLine
 10
1769.435460711938
 20
844.2472103229583
 30
0.0
 11
1769.985460711939
 21
843.9296703229583
 31
0.0
  0
LINE
  5
6E95
330
1E
100
AcDbEntity
  8
躯体と製品
  6
DASHED1
 62
     4
100
AcDbLine
 10
1769.435460711938
 20
844.2472103229583
 30
0.0
 11
1769.985460711939
 21
844.5647553229584
 31
0.0
  0
LINE
  5
6E96
330
1E
100
AcDbEntity
  8
躯体と製品
  6
DASHED1
 62
     4
100
AcDbLine
 10
1772.935460711939
 20
844.9527653229585
 30
0.0
 11
1772.385460711939
 21
844.6352253229584
 31
0.0
  0
LINE
  5
6E97
330
1E
100
AcDbEntity
  8
躯体と製品
  6
DASHED1
 62
     4
100
AcDbLine
 10
1772.385460711939
 20
845.2703103229584
 30
0.0
 11
1772.935460711939
 21
844.9527653229585
 31
0.0
  0
LINE
  5
6E98
330
1E
100
AcDbEntity
  8
躯体と製品
  6
DASHED1
 62
     4
100
AcDbLine
 10
1769.985460711939
 20
846.7518903229585
 30
0.0
 11
1769.985460711939
 21
845.9758653229584
 31
0.0
  0
LINE
  5
6E99
330
1E
100
AcDbEntity
  8
躯体と製品
  6
DASHED1
 62
     4
100
AcDbLine
 10
1772.385460711939
 20
846.6814203229585
 30
0.0
 11
1772.385460711939
 21
847.4574453229585
 31
0.0
  0
LINE
  5
6E9A
330
1E
100
AcDbEntity
  8
躯体と製品
  6
DASHED1
 62
     4
100
AcDbLine
 10
1769.985460711939
 20
845.3407803229584
 30
0.0
 11
1772.385460711939
 21
846.0463353229586
 31
0.0
  0
LINE
  5
6E9B
330
1E
100
AcDbEntity
  8
躯体と製品
  6
DASHED1
 62
     4
100
AcDbLine
 10
1769.985460711939
 20
845.9758653229584
 30
0.0
 11
1772.385460711939
 21
846.6814203229585
 31
0.0
  0
LINE
  5
6E9C
330
1E
100
AcDbEntity
  8
躯体と製品
  6
DASHED1
 62
     4
100
AcDbLine
 10
1769.435460711938
 20
845.6583203229586
 30
0.0
 11
1772.935460711939
 21
846.3638803229583
 31
0.0
  0
LINE
  5
6E9D
330
1E
100
AcDbEntity
  8
躯体と製品
  6
DASHED1
 62
     4
100
AcDbLine
 10
1769.435460711938
 20
845.6583203229586
 30
0.0
 11
1769.985460711939
 21
845.3407803229584
 31
0.0
  0
LINE
  5
6E9E
330
1E
100
AcDbEntity
  8
躯体と製品
  6
DASHED1
 62
     4
100
AcDbLine
 10
1769.435460711938
 20
845.6583203229586
 30
0.0
 11
1769.985460711939
 21
845.9758653229584
 31
0.0
  0
LINE
  5
6E9F
330
1E
100
AcDbEntity
  8
躯体と製品
  6
DASHED1
 62
     4
100
AcDbLine
 10
1772.385460711939
 20
846.0463353229586
 30
0.0
 11
1772.935460711939
 21
846.3638803229583
 31
0.0
  0
LINE
  5
6EA0
330
1E
100
AcDbEntity
  8
躯体と製品
  6
DASHED1
 62
     4
100
AcDbLine
 10
1772.385460711939
 20
846.6814203229585
 30
0.0
 11
1772.935460711939
 21
846.3638803229583
 31
0.0
  0
LINE
  5
6EA1
330
1E
100
AcDbEntity
  8
躯体と製品
  6
DASHED1
 62
     4
100
AcDbLine
 10
1769.985460711939
 20
848.1630003229586
 30
0.0
 11
1769.985460711939
 21
847.3869753229585
 31
0.0
  0
LINE
  5
6EA2
330
1E
100
AcDbEntity
  8
躯体と製品
  6
DASHED1
 62
     4
100
AcDbLine
 10
1772.385460711939
 20
848.0925303229584
 30
0.0
 11
1772.385460711939
 21
848.8685603229585
 31
0.0
  0
LINE
  5
6EA3
330
1E
100
AcDbEntity
  8
躯体と製品
  6
DASHED1
 62
     4
100
AcDbLine
 10
1769.985460711939
 20
846.7518903229585
 30
0.0
 11
1772.385460711939
 21
847.4574453229585
 31
0.0
  0
LINE
  5
6EA4
330
1E
100
AcDbEntity
  8
躯体と製品
  6
DASHED1
 62
     4
100
AcDbLine
 10
1769.985460711939
 20
847.3869753229585
 30
0.0
 11
1772.385460711939
 21
848.0925303229584
 31
0.0
  0
LINE
  5
6EA5
330
1E
100
AcDbEntity
  8
躯体と製品
  6
DASHED1
 62
     4
100
AcDbLine
 10
1769.435460711938
 20
847.0694353229585
 30
0.0
 11
1772.935460711939
 21
847.7749903229584
 31
0.0
  0
LINE
  5
6EA6
330
1E
100
AcDbEntity
  8
躯体と製品
  6
DASHED1
 62
     4
100
AcDbLine
 10
1769.435460711938
 20
847.0694353229585
 30
0.0
 11
1769.985460711939
 21
846.7518903229585
 31
0.0
  0
LINE
  5
6EA7
330
1E
100
AcDbEntity
  8
躯体と製品
  6
DASHED1
 62
     4
100
AcDbLine
 10
1769.435460711938
 20
847.0694353229585
 30
0.0
 11
1769.985460711939
 21
847.3869753229585
 31
0.0
  0
LINE
  5
6EA8
330
1E
100
AcDbEntity
  8
躯体と製品
  6
DASHED1
 62
     4
100
AcDbLine
 10
1772.935460711939
 20
847.7749903229584
 30
0.0
 11
1772.385460711939
 21
847.4574453229585
 31
0.0
  0
LINE
  5
6EA9
330
1E
100
AcDbEntity
  8
躯体と製品
  6
DASHED1
 62
     4
100
AcDbLine
 10
1772.385460711939
 20
848.0925303229584
 30
0.0
 11
1772.935460711939
 21
847.7749903229584
 31
0.0
  0
LINE
  5
6EAA
330
1E
100
AcDbEntity
  8
躯体と製品
  6
DASHED1
 62
     4
100
AcDbLine
 10
1769.985460711939
 20
849.5741153229584
 30
0.0
 11
1769.985460711939
 21
848.7980853229585
 31
0.0
  0
LINE
  5
6EAB
330
1E
100
AcDbEntity
  8
躯体と製品
  6
DASHED1
 62
     4
100
AcDbLine
 10
1772.385460711939
 20
849.5036453229586
 30
0.0
 11
1772.385460711939
 21
850.2796703229586
 31
0.0
  0
LINE
  5
6EAC
330
1E
100
AcDbEntity
  8
躯体と製品
  6
DASHED1
 62
     4
100
AcDbLine
 10
1769.985460711939
 20
848.1630003229586
 30
0.0
 11
1772.385460711939
 21
848.8685603229585
 31
0.0
  0
LINE
  5
6EAD
330
1E
100
AcDbEntity
  8
躯体と製品
  6
DASHED1
 62
     4
100
AcDbLine
 10
1769.985460711939
 20
848.7980853229585
 30
0.0
 11
1772.385460711939
 21
849.5036453229586
 31
0.0
  0
LINE
  5
6EAE
330
1E
100
AcDbEntity
  8
躯体と製品
  6
DASHED1
 62
     4
100
AcDbLine
 10
1769.435460711938
 20
848.4805453229586
 30
0.0
 11
1772.935460711939
 21
849.1861003229585
 31
0.0
  0
LINE
  5
6EAF
330
1E
100
AcDbEntity
  8
躯体と製品
  6
DASHED1
 62
     4
100
AcDbLine
 10
1769.435460711938
 20
848.4805453229586
 30
0.0
 11
1769.985460711939
 21
848.1630003229586
 31
0.0
  0
LINE
  5
6EB0
330
1E
100
AcDbEntity
  8
躯体と製品
  6
DASHED1
 62
     4
100
AcDbLine
 10
1769.435460711938
 20
848.4805453229586
 30
0.0
 11
1769.985460711939
 21
848.7980853229585
 31
0.0
  0
LINE
  5
6EB1
330
1E
100
AcDbEntity
  8
躯体と製品
  6
DASHED1
 62
     4
100
AcDbLine
 10
1772.935460711939
 20
849.1861003229585
 30
0.0
 11
1772.385460711939
 21
848.8685603229585
 31
0.0
  0
LINE
  5
6EB2
330
1E
100
AcDbEntity
  8
躯体と製品
  6
DASHED1
 62
     4
100
AcDbLine
 10
1772.385460711939
 20
849.5036453229586
 30
0.0
 11
1772.935460711939
 21
849.1861003229585
 31
0.0
  0
LINE
  5
6EB3
330
1E
100
AcDbEntity
  8
躯体と製品
  6
DASHED1
 62
     4
100
AcDbLine
 10
1769.985460711939
 20
850.9852253229587
 30
0.0
 11
1769.985460711939
 21
850.2092003229586
 31
0.0
  0
LINE
  5
6EB4
330
1E
100
AcDbEntity
  8
躯体と製品
  6
DASHED1
 62
     4
100
AcDbLine
 10
1772.385460711939
 20
850.9147553229583
 30
0.0
 11
1772.385460711939
 21
851.6907803229582
 31
0.0
  0
LINE
  5
6EB5
330
1E
100
AcDbEntity
  8
躯体と製品
  6
DASHED1
 62
     4
100
AcDbLine
 10
1769.985460711939
 20
849.5741153229584
 30
0.0
 11
1772.385460711939
 21
850.2796703229586
 31
0.0
  0
LINE
  5
6EB6
330
1E
100
AcDbEntity
  8
躯体と製品
  6
DASHED1
 62
     4
100
AcDbLine
 10
1769.985460711939
 20
850.2092003229586
 30
0.0
 11
1772.385460711939
 21
850.9147553229583
 31
0.0
  0
LINE
  5
6EB7
330
1E
100
AcDbEntity
  8
躯体と製品
  6
DASHED1
 62
     4
100
AcDbLine
 10
1769.435460711938
 20
849.8916553229586
 30
0.0
 11
1772.935460711939
 21
850.5972103229582
 31
0.0
  0
LINE
  5
6EB8
330
1E
100
AcDbEntity
  8
躯体と製品
  6
DASHED1
 62
     4
100
AcDbLine
 10
1769.435460711938
 20
849.8916553229586
 30
0.0
 11
1769.985460711939
 21
849.5741153229584
 31
0.0
  0
LINE
  5
6EB9
330
1E
100
AcDbEntity
  8
躯体と製品
  6
DASHED1
 62
     4
100
AcDbLine
 10
1769.435460711938
 20
849.8916553229586
 30
0.0
 11
1769.985460711939
 21
850.2092003229586
 31
0.0
  0
LINE
  5
6EBA
330
1E
100
AcDbEntity
  8
躯体と製品
  6
DASHED1
 62
     4
100
AcDbLine
 10
1772.935460711939
 20
850.5972103229582
 30
0.0
 11
1772.385460711939
 21
850.2796703229586
 31
0.0
  0
LINE
  5
6EBB
330
1E
100
AcDbEntity
  8
躯体と製品
  6
DASHED1
 62
     4
100
AcDbLine
 10
1772.385460711939
 20
850.9147553229583
 30
0.0
 11
1772.935460711939
 21
850.5972103229582
 31
0.0
  0
LINE
  5
6EBC
330
1E
100
AcDbEntity
  8
躯体と製品
  6
DASHED1
 62
     4
100
AcDbLine
 10
1769.985460711939
 20
852.3963353229582
 30
0.0
 11
1769.985460711939
 21
851.6203103229582
 31
0.0
  0
LINE
  5
6EBD
330
1E
100
AcDbEntity
  8
躯体と製品
  6
DASHED1
 62
     4
100
AcDbLine
 10
1772.385460711939
 20
852.3258653229582
 30
0.0
 11
1772.385460711939
 21
853.1018903229583
 31
0.0
  0
LINE
  5
6EBE
330
1E
100
AcDbEntity
  8
躯体と製品
  6
DASHED1
 62
     4
100
AcDbLine
 10
1769.985460711939
 20
850.9852253229587
 30
0.0
 11
1772.385460711939
 21
851.6907803229582
 31
0.0
  0
LINE
  5
6EBF
330
1E
100
AcDbEntity
  8
躯体と製品
  6
DASHED1
 62
     4
100
AcDbLine
 10
1769.985460711939
 20
851.6203103229582
 30
0.0
 11
1772.385460711939
 21
852.3258653229582
 31
0.0
  0
LINE
  5
6EC0
330
1E
100
AcDbEntity
  8
躯体と製品
  6
DASHED1
 62
     4
100
AcDbLine
 10
1769.435460711938
 20
851.3027653229583
 30
0.0
 11
1772.935460711939
 21
852.0083203229583
 31
0.0
  0
LINE
  5
6EC1
330
1E
100
AcDbEntity
  8
躯体と製品
  6
DASHED1
 62
     4
100
AcDbLine
 10
1769.435460711938
 20
851.3027653229583
 30
0.0
 11
1769.985460711939
 21
850.9852253229587
 31
0.0
  0
LINE
  5
6EC2
330
1E
100
AcDbEntity
  8
躯体と製品
  6
DASHED1
 62
     4
100
AcDbLine
 10
1769.435460711938
 20
851.3027653229583
 30
0.0
 11
1769.985460711939
 21
851.6203103229582
 31
0.0
  0
LINE
  5
6EC3
330
1E
100
AcDbEntity
  8
躯体と製品
  6
DASHED1
 62
     4
100
AcDbLine
 10
1772.935460711939
 20
852.0083203229583
 30
0.0
 11
1772.385460711939
 21
851.6907803229582
 31
0.0
  0
LINE
  5
6EC4
330
1E
100
AcDbEntity
  8
躯体と製品
  6
DASHED1
 62
     4
100
AcDbLine
 10
1772.385460711939
 20
852.3258653229582
 30
0.0
 11
1772.935460711939
 21
852.0083203229583
 31
0.0
  0
LINE
  5
6EC5
330
1E
100
AcDbEntity
  8
躯体と製品
  6
DASHED1
 62
     4
100
AcDbLine
 10
1769.985460711939
 20
853.8074453229583
 30
0.0
 11
1769.985460711939
 21
853.0314203229583
 31
0.0
  0
LINE
  5
6EC6
330
1E
100
AcDbEntity
  8
躯体と製品
  6
DASHED1
 62
     4
100
AcDbLine
 10
1772.385460711939
 20
853.7369753229583
 30
0.0
 11
1772.385460711939
 21
854.5130003229585
 31
0.0
  0
LINE
  5
6EC7
330
1E
100
AcDbEntity
  8
躯体と製品
  6
DASHED1
 62
     4
100
AcDbLine
 10
1769.985460711939
 20
852.3963353229582
 30
0.0
 11
1772.385460711939
 21
853.1018903229583
 31
0.0
  0
LINE
  5
6EC8
330
1E
100
AcDbEntity
  8
躯体と製品
  6
DASHED1
 62
     4
100
AcDbLine
 10
1769.985460711939
 20
853.0314203229583
 30
0.0
 11
1772.385460711939
 21
853.7369753229583
 31
0.0
  0
LINE
  5
6EC9
330
1E
100
AcDbEntity
  8
躯体と製品
  6
DASHED1
 62
     4
100
AcDbLine
 10
1769.435460711938
 20
852.7138803229586
 30
0.0
 11
1772.935460711939
 21
853.4194353229583
 31
0.0
  0
LINE
  5
6ECA
330
1E
100
AcDbEntity
  8
躯体と製品
  6
DASHED1
 62
     4
100
AcDbLine
 10
1769.435460711938
 20
852.7138803229586
 30
0.0
 11
1769.985460711939
 21
852.3963353229582
 31
0.0
  0
LINE
  5
6ECB
330
1E
100
AcDbEntity
  8
躯体と製品
  6
DASHED1
 62
     4
100
AcDbLine
 10
1769.435460711938
 20
852.7138803229586
 30
0.0
 11
1769.985460711939
 21
853.0314203229583
 31
0.0
  0
LINE
  5
6ECC
330
1E
100
AcDbEntity
  8
躯体と製品
  6
DASHED1
 62
     4
100
AcDbLine
 10
1772.935460711939
 20
853.4194353229583
 30
0.0
 11
1772.385460711939
 21
853.1018903229583
 31
0.0
  0
LINE
  5
6ECD
330
1E
100
AcDbEntity
  8
躯体と製品
  6
DASHED1
 62
     4
100
AcDbLine
 10
1772.385460711939
 20
853.7369753229583
 30
0.0
 11
1772.935460711939
 21
853.4194353229583
 31
0.0
  0
LINE
  5
6ECE
330
1E
100
AcDbEntity
  8
躯体と製品
  6
DASHED1
 62
     4
100
AcDbLine
 10
1769.985460711939
 20
855.2185603229583
 30
0.0
 11
1769.985460711939
 21
854.4425303229584
 31
0.0
  0
LINE
  5
6ECF
330
1E
100
AcDbEntity
  8
躯体と製品
  6
DASHED1
 62
     4
100
AcDbLine
 10
1772.385460711939
 20
855.1480853229582
 30
0.0
 11
1772.385460711939
 21
855.9241153229583
 31
0.0
  0
LINE
  5
6ED0
330
1E
100
AcDbEntity
  8
躯体と製品
  6
DASHED1
 62
     4
100
AcDbLine
 10
1769.985460711939
 20
853.8074453229583
 30
0.0
 11
1772.385460711939
 21
854.5130003229585
 31
0.0
  0
LINE
  5
6ED1
330
1E
100
AcDbEntity
  8
躯体と製品
  6
DASHED1
 62
     4
100
AcDbLine
 10
1769.985460711939
 20
854.4425303229584
 30
0.0
 11
1772.385460711939
 21
855.1480853229582
 31
0.0
  0
LINE
  5
6ED2
330
1E
100
AcDbEntity
  8
躯体と製品
  6
DASHED1
 62
     4
100
AcDbLine
 10
1769.435460711938
 20
854.1249903229582
 30
0.0
 11
1772.935460711939
 21
854.8305453229582
 31
0.0
  0
LINE
  5
6ED3
330
1E
100
AcDbEntity
  8
躯体と製品
  6
DASHED1
 62
     4
100
AcDbLine
 10
1769.435460711938
 20
854.1249903229582
 30
0.0
 11
1769.985460711939
 21
853.8074453229583
 31
0.0
  0
LINE
  5
6ED4
330
1E
100
AcDbEntity
  8
躯体と製品
  6
DASHED1
 62
     4
100
AcDbLine
 10
1769.435460711938
 20
854.1249903229582
 30
0.0
 11
1769.985460711939
 21
854.4425303229584
 31
0.0
  0
LINE
  5
6ED5
330
1E
100
AcDbEntity
  8
躯体と製品
  6
DASHED1
 62
     4
100
AcDbLine
 10
1772.935460711939
 20
854.8305453229582
 30
0.0
 11
1772.385460711939
 21
854.5130003229585
 31
0.0
  0
LINE
  5
6ED6
330
1E
100
AcDbEntity
  8
躯体と製品
  6
DASHED1
 62
     4
100
AcDbLine
 10
1772.385460711939
 20
855.1480853229582
 30
0.0
 11
1772.935460711939
 21
854.8305453229582
 31
0.0
  0
LINE
  5
6ED7
330
1E
100
AcDbEntity
  8
躯体と製品
  6
DASHED1
 62
     4
100
AcDbLine
 10
1769.985460711939
 20
856.6296703229582
 30
0.0
 11
1769.985460711939
 21
855.8536453229583
 31
0.0
  0
LINE
  5
6ED8
330
1E
100
AcDbEntity
  8
躯体と製品
  6
DASHED1
 62
     4
100
AcDbLine
 10
1772.385460711939
 20
856.5592003229582
 30
0.0
 11
1772.385460711939
 21
857.3352253229582
 31
0.0
  0
LINE
  5
6ED9
330
1E
100
AcDbEntity
  8
躯体と製品
  6
DASHED1
 62
     4
100
AcDbLine
 10
1769.985460711939
 20
855.2185603229583
 30
0.0
 11
1772.385460711939
 21
855.9241153229583
 31
0.0
  0
LINE
  5
6EDA
330
1E
100
AcDbEntity
  8
躯体と製品
  6
DASHED1
 62
     4
100
AcDbLine
 10
1769.985460711939
 20
855.8536453229583
 30
0.0
 11
1772.385460711939
 21
856.5592003229582
 31
0.0
  0
LINE
  5
6EDB
330
1E
100
AcDbEntity
  8
躯体と製品
  6
DASHED1
 62
     4
100
AcDbLine
 10
1769.435460711938
 20
855.5361003229583
 30
0.0
 11
1772.935460711939
 21
856.2416553229583
 31
0.0
  0
LINE
  5
6EDC
330
1E
100
AcDbEntity
  8
躯体と製品
  6
DASHED1
 62
     4
100
AcDbLine
 10
1769.435460711938
 20
855.5361003229583
 30
0.0
 11
1769.985460711939
 21
855.2185603229583
 31
0.0
  0
LINE
  5
6EDD
330
1E
100
AcDbEntity
  8
躯体と製品
  6
DASHED1
 62
     4
100
AcDbLine
 10
1769.435460711938
 20
855.5361003229583
 30
0.0
 11
1769.985460711939
 21
855.8536453229583
 31
0.0
  0
LINE
  5
6EDE
330
1E
100
AcDbEntity
  8
躯体と製品
  6
DASHED1
 62
     4
100
AcDbLine
 10
1772.935460711939
 20
856.2416553229583
 30
0.0
 11
1772.385460711939
 21
855.9241153229583
 31
0.0
  0
LINE
  5
6EDF
330
1E
100
AcDbEntity
  8
躯体と製品
  6
DASHED1
 62
     4
100
AcDbLine
 10
1772.385460711939
 20
856.5592003229582
 30
0.0
 11
1772.935460711939
 21
856.2416553229583
 31
0.0
  0
LINE
  5
6EE0
330
1E
100
AcDbEntity
  8
躯体と製品
  6
DASHED1
 62
     4
100
AcDbLine
 10
1769.985460711939
 20
858.0407803229583
 30
0.0
 11
1772.385460711939
 21
858.7463353229583
 31
0.0
  0
LINE
  5
6EE1
330
1E
100
AcDbEntity
  8
躯体と製品
  6
DASHED1
 62
     4
100
AcDbLine
 10
1769.985460711939
 20
858.6758653229583
 30
0.0
 11
1772.385460711939
 21
859.3814203229582
 31
0.0
  0
LINE
  5
6EE2
330
1E
100
AcDbEntity
  8
躯体と製品
  6
DASHED1
 62
     4
100
AcDbLine
 10
1769.435460711938
 20
858.3583203229583
 30
0.0
 11
1772.935460711939
 21
859.0638803229582
 31
0.0
  0
LINE
  5
6EE3
330
1E
100
AcDbEntity
  8
躯体と製品
  6
DASHED1
 62
     4
100
AcDbLine
 10
1769.435460711938
 20
858.3583203229583
 30
0.0
 11
1769.985460711939
 21
858.0407803229583
 31
0.0
  0
LINE
  5
6EE4
330
1E
100
AcDbEntity
  8
躯体と製品
  6
DASHED1
 62
     4
100
AcDbLine
 10
1769.435460711938
 20
858.3583203229583
 30
0.0
 11
1769.985460711939
 21
858.6758653229583
 31
0.0
  0
LINE
  5
6EE5
330
1E
100
AcDbEntity
  8
躯体と製品
  6
DASHED1
 62
     4
100
AcDbLine
 10
1772.935460711939
 20
859.0638803229582
 30
0.0
 11
1772.385460711939
 21
858.7463353229583
 31
0.0
  0
LINE
  5
6EE6
330
1E
100
AcDbEntity
  8
躯体と製品
  6
DASHED1
 62
     4
100
AcDbLine
 10
1772.385460711939
 20
859.3814203229582
 30
0.0
 11
1772.935460711939
 21
859.0638803229582
 31
0.0
  0
LINE
  5
6EE7
330
1E
100
AcDbEntity
  8
躯体と製品
  6
DASHED1
 62
     4
100
AcDbLine
 10
1770.336350711939
 20
836.8350503229583
 30
0.0
 11
1772.067055711939
 21
837.5443853229583
 31
0.0
  0
LINE
  5
6EE8
330
1E
100
AcDbEntity
  8
躯体と製品
  6
DASHED1
 62
     4
100
AcDbLine
 10
1772.678170711939
 20
837.8972103229584
 30
0.0
 11
1769.718695711939
 21
837.1916553229585
 31
0.0
  0
LINE
  5
6EE9
330
1E
100
AcDbEntity
  8
躯体と製品
  6
DASHED1
 62
     4
100
AcDbLine
 10
1770.268695711939
 20
837.5092003229584
 30
0.0
 11
1772.128170711939
 21
838.2147553229582
 31
0.0
  0
LINE
  5
6EEA
330
1E
100
AcDbEntity
  8
躯体と製品
  6
DASHED1
 62
     4
100
AcDbLine
 10
1772.195700711939
 20
838.9554953229582
 30
0.0
 11
1770.194730711939
 21
838.2461653229587
 31
0.0
  0
LINE
  5
6EEB
330
1E
100
AcDbEntity
  8
躯体と製品
  6
DASHED1
 62
     4
100
AcDbLine
 10
1769.577075711939
 20
838.6027653229584
 30
0.0
 11
1772.806815711938
 21
839.3083203229583
 31
0.0
  0
LINE
  5
6EEC
330
1E
100
AcDbEntity
  8
躯体と製品
  6
DASHED1
 62
     4
100
AcDbLine
 10
1772.256815711938
 20
839.6258653229583
 30
0.0
 11
1770.127075711939
 21
838.9203103229583
 31
0.0
  0
LINE
  5
6EED
330
1E
100
AcDbEntity
  8
躯体と製品
  6
DASHED1
 62
     4
100
AcDbLine
 10
1772.256815711938
 20
839.6258653229583
 30
0.0
 11
1772.325965711939
 21
840.3844003229584
 31
0.0
  0
LINE
  5
6EEE
330
1E
100
AcDbEntity
  8
躯体と製品
  6
DASHED1
 62
     4
100
AcDbLine
 10
1772.128170711939
 20
838.2147553229582
 30
0.0
 11
1772.195700711939
 21
838.9554953229582
 31
0.0
  0
LINE
  5
6EEF
330
1E
100
AcDbEntity
  8
躯体と製品
  6
DASHED1
 62
     4
100
AcDbLine
 10
1770.194730711939
 20
838.2461653229587
 30
0.0
 11
1770.268695711939
 21
837.5092003229584
 31
0.0
  0
LINE
  5
6EF0
330
1E
100
AcDbEntity
  8
躯体と製品
  6
DASHED1
 62
     4
100
AcDbLine
 10
1770.047370711939
 20
839.7145353229586
 30
0.0
 11
1770.127075711939
 21
838.9203103229583
 31
0.0
  0
LINE
  5
6EF1
330
1E
100
AcDbEntity
  8
躯体と製品
  6
DASHED1
 62
     4
100
AcDbLine
 10
1769.718695711939
 20
837.1916553229585
 30
0.0
 11
1770.336350711939
 21
836.8350503229583
 31
0.0
  0
LINE
  5
6EF2
330
1E
100
AcDbEntity
  8
躯体と製品
  6
DASHED1
 62
     4
100
AcDbLine
 10
1770.268695711939
 20
837.5092003229584
 30
0.0
 11
1769.718695711939
 21
837.1916553229585
 31
0.0
  0
LINE
  5
6EF3
330
1E
100
AcDbEntity
  8
躯体と製品
  6
DASHED1
 62
     4
100
AcDbLine
 10
1769.577075711939
 20
838.6027653229584
 30
0.0
 11
1770.194730711939
 21
838.2461653229587
 31
0.0
  0
LINE
  5
6EF4
330
1E
100
AcDbEntity
  8
躯体と製品
  6
DASHED1
 62
     4
100
AcDbLine
 10
1769.577075711939
 20
838.6027653229584
 30
0.0
 11
1770.127075711939
 21
838.9203103229583
 31
0.0
  0
LINE
  5
6EF5
330
1E
100
AcDbEntity
  8
躯体と製品
  6
DASHED1
 62
     4
100
AcDbLine
 10
1772.678170711939
 20
837.8972103229584
 30
0.0
 11
1772.067055711939
 21
837.5443853229583
 31
0.0
  0
LINE
  5
6EF6
330
1E
100
AcDbEntity
  8
躯体と製品
  6
DASHED1
 62
     4
100
AcDbLine
 10
1772.128170711939
 20
838.2147553229582
 30
0.0
 11
1772.678170711939
 21
837.8972103229584
 31
0.0
  0
LINE
  5
6EF7
330
1E
100
AcDbEntity
  8
躯体と製品
  6
DASHED1
 62
     4
100
AcDbLine
 10
1772.806815711938
 20
839.3083203229583
 30
0.0
 11
1772.195700711939
 21
838.9554953229582
 31
0.0
  0
LINE
  5
6EF8
330
1E
100
AcDbEntity
  8
躯体と製品
  6
DASHED1
 62
     4
100
AcDbLine
 10
1772.256815711938
 20
839.6258653229583
 30
0.0
 11
1772.806815711938
 21
839.3083203229583
 31
0.0
  0
LINE
  5
6EF9
330
1E
100
AcDbEntity
  8
躯体と製品
  6
DASHED1
 62
     4
100
AcDbLine
 10
1769.985460711939
 20
859.3814203229582
 30
0.0
 11
1769.985460711939
 21
858.6758653229583
 31
0.0
  0
LINE
  5
6EFA
330
1E
100
AcDbEntity
  8
躯体と製品
  6
DASHED1
 62
     4
100
AcDbLine
 10
1769.985460711939
 20
858.0407803229583
 30
0.0
 11
1769.985460711939
 21
857.2647553229582
 31
0.0
  0
LINE
  5
6EFB
330
1E
100
AcDbEntity
  8
躯体と製品
  6
DASHED1
 62
     4
100
AcDbLine
 10
1772.385460711939
 20
857.9703103229585
 30
0.0
 11
1772.385460711939
 21
858.7463353229583
 31
0.0
  0
LINE
  5
6EFC
330
1E
100
AcDbEntity
  8
躯体と製品
  6
DASHED1
 62
     4
100
AcDbLine
 10
1769.985460711939
 20
856.6296703229582
 30
0.0
 11
1772.385460711939
 21
857.3352253229582
 31
0.0
  0
LINE
  5
6EFD
330
1E
100
AcDbEntity
  8
躯体と製品
  6
DASHED1
 62
     4
100
AcDbLine
 10
1769.985460711939
 20
857.2647553229582
 30
0.0
 11
1772.385460711939
 21
857.9703103229585
 31
0.0
  0
LINE
  5
6EFE
330
1E
100
AcDbEntity
  8
躯体と製品
  6
DASHED1
 62
     4
100
AcDbLine
 10
1769.435460711938
 20
856.9472103229584
 30
0.0
 11
1772.935460711939
 21
857.6527653229582
 31
0.0
  0
LINE
  5
6EFF
330
1E
100
AcDbEntity
  8
躯体と製品
  6
DASHED1
 62
     4
100
AcDbLine
 10
1769.435460711938
 20
856.9472103229584
 30
0.0
 11
1769.985460711939
 21
856.6296703229582
 31
0.0
  0
LINE
  5
6F00
330
1E
100
AcDbEntity
  8
躯体と製品
  6
DASHED1
 62
     4
100
AcDbLine
 10
1769.435460711938
 20
856.9472103229584
 30
0.0
 11
1769.985460711939
 21
857.2647553229582
 31
0.0
  0
LINE
  5
6F01
330
1E
100
AcDbEntity
  8
躯体と製品
  6
DASHED1
 62
     4
100
AcDbLine
 10
1772.935460711939
 20
857.6527653229582
 30
0.0
 11
1772.385460711939
 21
857.3352253229582
 31
0.0
  0
LINE
  5
6F02
330
1E
100
AcDbEntity
  8
躯体と製品
  6
DASHED1
 62
     4
100
AcDbLine
 10
1772.385460711939
 20
857.9703103229585
 30
0.0
 11
1772.935460711939
 21
857.6527653229582
 31
0.0
  0
LINE
  5
6F03
330
1E
100
AcDbEntity
  8
躯体と製品
  6
DASHED1
 62
     4
100
AcDbLine
 10
1771.185460711938
 20
834.3814203229582
 30
0.0
 11
1770.336350711939
 21
836.8350503229583
 31
0.0
  0
LINE
  5
6F04
330
1E
100
AcDbEntity
  8
躯体と製品
  6
DASHED1
 62
     4
100
AcDbLine
 10
1772.067055711939
 20
837.5443853229583
 30
0.0
 11
1771.185460711938
 21
834.3814203229582
 31
0.0
  0
LINE
  5
6F05
330
1E
100
AcDbEntity
  8
躯体と製品
  6
DASHED1
 62
     4
100
AcDbLine
 10
1768.385460711939
 20
860.9814203229586
 30
0.0
 11
1769.985460711939
 21
859.3814203229582
 31
0.0
  0
LINE
  5
6F06
330
1E
100
AcDbEntity
  8
躯体と製品
  6
DASHED1
 62
     4
100
AcDbLine
 10
1769.985460711939
 20
859.3814203229582
 30
0.0
 11
1772.385460711939
 21
859.3814203229582
 31
0.0
  0
LINE
  5
6F07
330
1E
100
AcDbEntity
  8
躯体と製品
  6
DASHED1
 62
     4
100
AcDbLine
 10
1773.985460711938
 20
861.2814203229582
 30
0.0
 11
1773.985460711938
 21
860.9814203229586
 31
0.0
  0
LINE
  5
6F08
330
1E
100
AcDbEntity
  8
躯体と製品
  6
DASHED1
 62
     4
100
AcDbLine
 10
1773.985460711938
 20
860.9814203229586
 30
0.0
 11
1772.385460711939
 21
859.3814203229582
 31
0.0
  0
LINE
  5
6F09
330
1E
100
AcDbEntity
  8
躯体と製品
  6
Continuous
 62
     7
100
AcDbLine
 10
1751.141264257411
 20
863.2814203229584
 30
0.0
 11
1739.806213684919
 21
862.2775212858655
 31
0.0
  0
LINE
  5
6F0A
330
1E
100
AcDbEntity
  8
躯体と製品
  6
Continuous
 62
     7
100
AcDbLine
 10
1739.894434270361
 20
861.2814203229582
 30
0.0
 11
1751.185460711939
 21
862.2814203229582
 31
0.0
  0
LINE
  5
6F0B
330
1E
100
AcDbEntity
  8
躯体と製品
  6
Continuous
 62
     7
100
AcDbLine
 10
1891.185460711939
 20
859.6814203229582
 30
0.0
 11
1741.185460711939
 21
859.6814203229582
 31
0.0
  0
LINE
  5
6F0C
330
1E
100
AcDbEntity
  8
躯体と製品
  6
Continuous
 62
     3
100
AcDbLine
 10
1502.185460711938
 20
877.9684820598683
 30
0.0
 11
1502.185460711938
 21
870.6814203229582
 31
0.0
  0
LINE
  5
6F0D
330
1E
100
AcDbEntity
  8
躯体と製品
  6
Continuous
 62
     3
100
AcDbLine
 10
1507.185460711939
 20
868.5814203229583
 30
0.0
 11
1502.685460711939
 21
868.5814203229583
 31
0.0
  0
LINE
  5
6F0E
330
1E
100
AcDbEntity
  8
躯体と製品
  6
Continuous
 62
     3
100
AcDbLine
 10
1507.185460711939
 20
868.5814203229583
 30
0.0
 11
1507.185460711939
 21
870.1814203229583
 31
0.0
  0
LINE
  5
6F0F
330
1E
100
AcDbEntity
  8
躯体と製品
  6
Continuous
 62
     3
100
AcDbLine
 10
1507.185460711939
 20
870.1814203229583
 30
0.0
 11
1502.685460711939
 21
870.1814203229583
 31
0.0
  0
ARC
  5
6F10
330
1E
100
AcDbEntity
  8
躯体と製品
  6
Continuous
 62
     3
100
AcDbCircle
 10
1502.685460711939
 20
870.6814203229582
 30
0.0
 40
2.1
100
AcDbArc
 50
180.0
 51
270.0
  0
ARC
  5
6F11
330
1E
100
AcDbEntity
  8
躯体と製品
  6
Continuous
 62
     3
100
AcDbCircle
 10
1502.685460711939
 20
870.6814203229582
 30
0.0
 40
0.5
100
AcDbArc
 50
180.0
 51
270.0
  0
LINE
  5
6F12
330
1E
100
AcDbEntity
  8
躯体と製品
  6
Continuous
 62
     3
100
AcDbLine
 10
1475.185460711939
 20
868.5814203229583
 30
0.0
 11
1479.685460711938
 21
868.5814203229583
 31
0.0
  0
LINE
  5
6F13
330
1E
100
AcDbEntity
  8
躯体と製品
  6
Continuous
 62
     3
100
AcDbLine
 10
1479.685460711938
 20
870.1814203229583
 30
0.0
 11
1475.185460711939
 21
870.1814203229583
 31
0.0
  0
LINE
  5
6F14
330
1E
100
AcDbEntity
  8
躯体と製品
  6
Continuous
 62
     3
100
AcDbLine
 10
1475.185460711939
 20
870.1814203229583
 30
0.0
 11
1475.185460711939
 21
868.5814203229583
 31
0.0
  0
ARC
  5
6F15
330
1E
100
AcDbEntity
  8
躯体と製品
  6
Continuous
 62
     3
100
AcDbCircle
 10
1479.685460711938
 20
870.6814203229582
 30
0.0
 40
2.1
100
AcDbArc
 50
270.0
 51
0.0
  0
ARC
  5
6F16
330
1E
100
AcDbEntity
  8
躯体と製品
  6
Continuous
 62
     3
100
AcDbCircle
 10
1479.685460711938
 20
870.6814203229582
 30
0.0
 40
0.5
100
AcDbArc
 50
270.0
 51
0.0
  0
LINE
  5
6F17
330
1E
100
AcDbEntity
  8
躯体と製品
  6
Continuous
 62
     3
100
AcDbLine
 10
1500.585460711939
 20
877.9684820598683
 30
0.0
 11
1500.585460711939
 21
870.6814203229582
 31
0.0
  0
ARC
  5
6F18
330
1E
100
AcDbEntity
  8
躯体と製品
  6
Continuous
 62
     3
100
AcDbCircle
 10
1500.085460711938
 20
877.9684820598683
 30
0.0
 40
0.5
100
AcDbArc
 50
0.0
 51
93.00000000000558
  0
LINE
  5
6F19
330
1E
100
AcDbEntity
  8
躯体と製品
  6
Continuous
 62
     3
100
AcDbLine
 10
1481.785460711939
 20
877.0356235886303
 30
0.0
 11
1481.785460711939
 21
870.6814203229582
 31
0.0
  0
ARC
  5
6F1A
330
1E
100
AcDbEntity
  8
躯体と製品
  6
Continuous
 62
     3
100
AcDbCircle
 10
1482.285460711939
 20
877.0356235886303
 30
0.0
 40
0.5
100
AcDbArc
 50
93.00000000000558
 51
180.0
  0
ARC
  5
6F1B
330
1E
100
AcDbEntity
  8
躯体と製品
  6
Continuous
 62
     3
100
AcDbCircle
 10
1500.085460711938
 20
877.9684820598683
 30
0.0
 40
2.1
100
AcDbArc
 50
0.0
 51
93.00000000000558
  0
LINE
  5
6F1C
330
1E
100
AcDbEntity
  8
躯体と製品
  6
Continuous
 62
     3
100
AcDbLine
 10
1480.185460711939
 20
877.0356235886303
 30
0.0
 11
1480.185460711939
 21
870.6814203229582
 31
0.0
  0
ARC
  5
6F1D
330
1E
100
AcDbEntity
  8
躯体と製品
  6
Continuous
 62
     3
100
AcDbCircle
 10
1482.285460711939
 20
877.0356235886303
 30
0.0
 40
2.1
100
AcDbArc
 50
93.00000000000558
 51
180.0
  0
LINE
  5
6F1E
330
1E
100
AcDbEntity
  8
躯体と製品
  6
Continuous
 62
     3
100
AcDbLine
 10
1486.780174294542
 20
875.7691230270111
 30
0.0
 11
1495.967566014284
 21
876.2506138244459
 31
0.0
  0
LINE
  5
6F1F
330
1E
100
AcDbEntity
  8
躯体と製品
  6
Continuous
 62
     3
100
AcDbLine
 10
1495.915230058041
 20
877.2492433592006
 30
0.0
 11
1495.967566014284
 21
876.2506138244459
 31
0.0
  0
ARC
  5
6F20
330
1E
100
AcDbEntity
  8
躯体と製品
  6
Continuous
 62
     3
100
AcDbCircle
 10
1496.913859592796
 20
877.3015793154435
 30
0.0
 40
1.0
100
AcDbArc
 50
93.00000000000558
 51
182.9999999999989
  0
LINE
  5
6F21
330
1E
100
AcDbEntity
  8
躯体と製品
  6
Continuous
 62
     3
100
AcDbLine
 10
1486.727838338299
 20
876.7677525617655
 30
0.0
 11
1486.780174294542
 21
875.7691230270111
 31
0.0
  0
ARC
  5
6F22
330
1E
100
AcDbEntity
  8
躯体と製品
  6
Continuous
 62
     3
100
AcDbCircle
 10
1485.729208803545
 20
876.7154166055222
 30
0.0
 40
1.0
100
AcDbArc
 50
2.999999999998919
 51
93.00000000000558
  0
LINE
  5
6F23
330
1E
100
AcDbEntity
  8
躯体と製品
  6
Continuous
 62
     3
100
AcDbLine
 10
1482.259292733817
 20
877.5349383560074
 30
0.0
 11
1500.059292733817
 21
878.4677968272458
 31
0.0
  0
LINE
  5
6F24
330
1E
100
AcDbEntity
  8
躯体と製品
  6
Continuous
 62
     3
100
AcDbLine
 10
1482.175555203828
 20
879.132745611615
 30
0.0
 11
1499.975555203828
 21
880.0656040828528
 31
0.0
  0
LINE
  5
6F25
330
1E
100
AcDbEntity
  8
躯体と製品
  6
DASHED1
 62
     7
100
AcDbLine
 10
1494.181349316203
 20
879.7619426195737
 30
0.0
 11
1494.369758758677
 21
876.1668762944571
 31
0.0
  0
LINE
  5
6F26
330
1E
100
AcDbEntity
  8
躯体と製品
  6
DASHED1
 62
     7
100
AcDbLine
 10
1488.189572107675
 20
879.4479268821161
 30
0.0
 11
1488.377981550149
 21
875.8528605569997
 31
0.0
  0
LINE
  5
6F27
330
1E
100
AcDbEntity
  8
躯体と製品
  6
Continuous
 62
     4
100
AcDbLine
 10
1505.185460711938
 20
870.1814203229583
 30
0.0
 11
1505.185460711938
 21
868.5814203229583
 31
0.0
  0
LINE
  5
6F28
330
1E
100
AcDbEntity
  8
躯体と製品
  6
Continuous
 62
     4
100
AcDbLine
 10
1477.185460711939
 20
870.1814203229583
 30
0.0
 11
1477.185460711939
 21
868.5814203229583
 31
0.0
  0
LINE
  5
6F29
330
1E
100
AcDbEntity
  8
躯体と製品
  6
DASHED1
 62
     7
100
AcDbLine
 10
1487.135460711939
 20
861.6814203229585
 30
0.0
 11
1487.135460711939
 21
852.3814203229584
 31
0.0
  0
LINE
  5
6F2A
330
1E
100
AcDbEntity
  8
躯体と製品
  6
DASHED1
 62
     7
100
AcDbLine
 10
1495.235460711939
 20
861.6814203229585
 30
0.0
 11
1495.235460711939
 21
852.3814203229584
 31
0.0
  0
LINE
  5
6F2B
330
1E
100
AcDbEntity
  8
躯体と製品
  6
DASHED1
 62
     7
100
AcDbLine
 10
1486.435460711939
 20
851.6814203229582
 30
0.0
 11
1487.135460711939
 21
852.3814203229584
 31
0.0
  0
LINE
  5
6F2C
330
1E
100
AcDbEntity
  8
躯体と製品
  6
DASHED1
 62
     7
100
AcDbLine
 10
1486.435460711939
 20
833.0532463229584
 30
0.0
 11
1486.435460711939
 21
851.6814203229582
 31
0.0
  0
LINE
  5
6F2D
330
1E
100
AcDbEntity
  8
躯体と製品
  6
DASHED1
 62
     7
100
AcDbLine
 10
1486.685460711939
 20
821.1814203229584
 30
0.0
 11
1486.685460711939
 21
822.0447243229584
 31
0.0
  0
LINE
  5
6F2E
330
1E
100
AcDbEntity
  8
躯体と製品
  6
DASHED1
 62
     7
100
AcDbLine
 10
1484.560430711939
 20
822.4194243229582
 30
0.0
 11
1486.435460711939
 21
833.0532463229584
 31
0.0
  0
LINE
  5
6F2F
330
1E
100
AcDbEntity
  8
躯体と製品
  6
DASHED1
 62
     7
100
AcDbLine
 10
1490.685460711939
 20
832.6814203229584
 30
0.0
 11
1491.685460711939
 21
832.6814203229584
 31
0.0
  0
LINE
  5
6F30
330
1E
100
AcDbEntity
  8
躯体と製品
  6
DASHED1
 62
     7
100
AcDbLine
 10
1495.935460711939
 20
851.6814203229582
 30
0.0
 11
1495.235460711939
 21
852.3814203229584
 31
0.0
  0
LINE
  5
6F31
330
1E
100
AcDbEntity
  8
躯体と製品
  6
DASHED1
 62
     7
100
AcDbLine
 10
1495.935460711939
 20
833.0532463229584
 30
0.0
 11
1495.935460711939
 21
851.6814203229582
 31
0.0
  0
LINE
  5
6F32
330
1E
100
AcDbEntity
  8
躯体と製品
  6
DASHED1
 62
     7
100
AcDbLine
 10
1494.685460711939
 20
820.1814203229584
 30
0.0
 11
1487.685460711938
 21
820.1814203229584
 31
0.0
  0
ARC
  5
6F33
330
1E
100
AcDbEntity
  8
躯体と製品
  6
DASHED1
 62
     7
100
AcDbCircle
 10
1494.685460711939
 20
821.1814203229584
 30
0.0
 40
1.0
100
AcDbArc
 50
270.0
 51
0.0
  0
LINE
  5
6F34
330
1E
100
AcDbEntity
  8
躯体と製品
  6
DASHED1
 62
     7
100
AcDbLine
 10
1495.685460711938
 20
821.1814203229584
 30
0.0
 11
1495.685460711938
 21
822.0447243229584
 31
0.0
  0
LINE
  5
6F35
330
1E
100
AcDbEntity
  8
躯体と製品
  6
DASHED1
 62
     7
100
AcDbLine
 10
1497.810490711939
 20
822.4194243229582
 30
0.0
 11
1493.625057711939
 21
821.6814203229585
 31
0.0
  0
LINE
  5
6F36
330
1E
100
AcDbEntity
  8
躯体と製品
  6
DASHED1
 62
     7
100
AcDbLine
 10
1490.685460711939
 20
832.6814203229584
 30
0.0
 11
1488.745863711939
 21
821.6814203229585
 31
0.0
  0
LINE
  5
6F37
330
1E
100
AcDbEntity
  8
躯体と製品
  6
DASHED1
 62
     7
100
AcDbLine
 10
1491.685460711939
 20
832.6814203229584
 30
0.0
 11
1493.625057711939
 21
821.6814203229585
 31
0.0
  0
LINE
  5
6F38
330
1E
100
AcDbEntity
  8
躯体と製品
  6
DASHED1
 62
     7
100
AcDbLine
 10
1497.810490711939
 20
822.4194243229582
 30
0.0
 11
1495.935460711939
 21
833.0532463229584
 31
0.0
  0
LINE
  5
6F39
330
1E
100
AcDbEntity
  8
躯体と製品
  6
DASHED1
 62
     7
100
AcDbLine
 10
1486.435460711939
 20
851.6814203229582
 30
0.0
 11
1495.935460711939
 21
851.6814203229582
 31
0.0
  0
LINE
  5
6F3A
330
1E
100
AcDbEntity
  8
躯体と製品
  6
DASHED1
 62
     7
100
AcDbLine
 10
1487.135460711939
 20
852.3814203229584
 30
0.0
 11
1495.235460711939
 21
852.3814203229584
 31
0.0
  0
LINE
  5
6F3B
330
1E
100
AcDbEntity
  8
躯体と製品
  6
DASHED1
 62
     7
100
AcDbLine
 10
1484.560430711939
 20
822.4194243229582
 30
0.0
 11
1488.745863711939
 21
821.6814203229585
 31
0.0
  0
ARC
  5
6F3C
330
1E
100
AcDbEntity
  8
躯体と製品
  6
DASHED1
 62
     7
100
AcDbCircle
 10
1487.685460711938
 20
821.1814203229584
 30
0.0
 40
1.0
100
AcDbArc
 50
180.0
 51
270.0
  0
ARC
  5
6F3D
330
1E
100
AcDbEntity
  8
躯体と製品
  6
Continuous
 62
     3
100
AcDbCircle
 10
1462.628150445356
 20
864.6814203229585
 30
0.0
 40
0.5
100
AcDbArc
 50
189.9999999999975
 51
270.0
  0
LINE
  5
6F3E
330
1E
100
AcDbEntity
  8
躯体と製品
  6
Continuous
 62
     3
100
AcDbLine
 10
1462.628150445356
 20
864.1814203229582
 30
0.0
 11
1465.674430281013
 21
864.1814203229582
 31
0.0
  0
LINE
  5
6F3F
330
1E
100
AcDbEntity
  8
躯体と製品
  6
Continuous
 62
     3
100
AcDbLine
 10
1462.13574656885
 20
864.5945962341249
 30
0.0
 11
1461.728551897289
 21
866.9039119719894
 31
0.0
  0
ARC
  5
6F40
330
1E
100
AcDbEntity
  8
躯体と製品
  6
Continuous
 62
     3
100
AcDbCircle
 10
1465.674430281013
 20
864.6814203229585
 30
0.0
 40
0.5
100
AcDbArc
 50
270.0
 51
9.999999999997477
  0
LINE
  5
6F41
330
1E
100
AcDbEntity
  8
躯体と製品
  6
Continuous
 62
     3
100
AcDbLine
 10
1466.166834157519
 20
864.7682444117917
 30
0.0
 11
1465.667782909338
 21
867.598504682657
 31
0.0
  0
ARC
  5
6F42
330
1E
100
AcDbEntity
  8
躯体と製品
  6
Continuous
 62
     3
100
AcDbCircle
 10
1468.212996810727
 20
864.6814203229585
 30
0.0
 40
0.5
100
AcDbArc
 50
189.9999999999975
 51
270.0
  0
LINE
  5
6F43
330
1E
100
AcDbEntity
  8
躯体と製品
  6
Continuous
 62
     3
100
AcDbLine
 10
1468.212996810727
 20
864.1814203229582
 30
0.0
 11
1472.185460711939
 21
864.1814203229582
 31
0.0
  0
LINE
  5
6F44
330
1E
100
AcDbEntity
  8
躯体と製品
  6
Continuous
 62
     3
100
AcDbLine
 10
1467.720592934222
 20
864.5945962341249
 30
0.0
 11
1466.580637961439
 21
871.0596021464473
 31
0.0
  0
LINE
  5
6F45
330
1E
100
AcDbEntity
  8
躯体と製品
  6
Continuous
 62
     3
100
AcDbLine
 10
1465.494134731671
 20
868.5833124356692
 30
0.0
 11
1465.986538608178
 21
868.6701365245026
 31
0.0
  0
LINE
  5
6F46
330
1E
100
AcDbEntity
  8
躯体と製品
  6
Continuous
 62
     3
100
AcDbLine
 10
1461.062499843117
 20
867.8018956361681
 30
0.0
 11
1461.554903719623
 21
867.8887197250015
 31
0.0
  0
LINE
  5
6F47
330
1E
100
AcDbEntity
  8
躯体と製品
  6
Continuous
 62
     3
100
AcDbLine
 10
1465.320486554005
 20
869.5681201886815
 30
0.0
 11
1465.812890430511
 21
869.6549442775149
 31
0.0
  0
LINE
  5
6F48
330
1E
100
AcDbEntity
  8
躯体と製品
  6
Continuous
 62
     3
100
AcDbLine
 10
1460.88885166545
 20
868.7867033891803
 30
0.0
 11
1461.381255541956
 21
868.8735274780137
 31
0.0
  0
LINE
  5
6F49
330
1E
100
AcDbEntity
  8
躯体と製品
  6
Continuous
 62
     3
100
AcDbLine
 10
1460.685460711939
 20
864.1814203229582
 30
0.0
 11
1459.686983690354
 21
869.8440649027785
 31
0.0
  0
LINE
  5
6F4A
330
1E
100
AcDbEntity
  8
躯体と製品
  6
Continuous
 62
     3
100
AcDbLine
 10
1461.381255541956
 20
868.8735274780137
 30
0.0
 11
1461.164195319872
 21
870.1045371692792
 31
0.0
  0
LINE
  5
6F4B
330
1E
100
AcDbEntity
  8
躯体と製品
  6
Continuous
 62
     3
100
AcDbLine
 10
1465.320486554005
 20
869.5681201886815
 30
0.0
 11
1465.103426331921
 21
870.7991298799466
 31
0.0
  0
LINE
  5
6F4C
330
1E
100
AcDbEntity
  8
躯体と製品
  6
Continuous
 62
     3
100
AcDbLine
 10
1461.062499843117
 20
867.8018956361681
 30
0.0
 11
1461.728551897289
 21
866.9039119719894
 31
0.0
  0
LINE
  5
6F4D
330
1E
100
AcDbEntity
  8
躯体と製品
  6
Continuous
 62
     3
100
AcDbLine
 10
1460.88885166545
 20
868.7867033891803
 30
0.0
 11
1461.554903719623
 21
867.8887197250015
 31
0.0
  0
ARC
  5
6F4E
330
1E
100
AcDbEntity
  8
躯体と製品
  6
Continuous
 62
     3
100
AcDbCircle
 10
1465.84203214668
 20
870.9293660131965
 30
0.0
 40
0.7500000000000014
100
AcDbArc
 50
9.999999999997477
 51
189.9999999999975
  0
ARC
  5
6F4F
330
1E
100
AcDbEntity
  8
躯体と製品
  6
Continuous
 62
     3
100
AcDbCircle
 10
1460.425589505113
 20
869.9743010360286
 30
0.0
 40
0.7499999999999975
100
AcDbArc
 50
9.999999999997477
 51
189.9999999999975
  0
LINE
  5
6F50
330
1E
100
AcDbEntity
  8
躯体と製品
  6
Continuous
 62
     3
100
AcDbLine
 10
1460.685460711939
 20
861.6814203229585
 30
0.0
 11
1460.685460711939
 21
864.1814203229582
 31
0.0
  0
LINE
  5
6F51
330
1E
100
AcDbEntity
  8
躯体と製品
  6
Continuous
 62
     3
100
AcDbLine
 10
1509.185460711939
 20
861.6814203229585
 30
0.0
 11
1507.685460711939
 21
861.6814203229585
 31
0.0
  0
LINE
  5
6F52
330
1E
100
AcDbEntity
  8
躯体と製品
  6
Continuous
 62
     3
100
AcDbLine
 10
1507.685460711939
 20
861.6814203229585
 30
0.0
 11
1507.685460711939
 21
862.1814203229583
 31
0.0
  0
LINE
  5
6F53
330
1E
100
AcDbEntity
  8
躯体と製品
  6
Continuous
 62
     3
100
AcDbLine
 10
1507.685460711939
 20
862.1814203229583
 30
0.0
 11
1496.185460711939
 21
862.1814203229583
 31
0.0
  0
LINE
  5
6F54
330
1E
100
AcDbEntity
  8
躯体と製品
  6
Continuous
 62
     3
100
AcDbLine
 10
1496.185460711939
 20
862.1814203229583
 30
0.0
 11
1496.185460711939
 21
861.6814203229585
 31
0.0
  0
ARC
  5
6F55
330
1E
100
AcDbEntity
  8
躯体と製品
  6
Continuous
 62
     3
100
AcDbCircle
 10
1504.435460711938
 20
870.9314203229585
 30
0.0
 40
0.75
100
AcDbArc
 50
90.0
 51
270.0
  0
ARC
  5
6F56
330
1E
100
AcDbEntity
  8
躯体と製品
  6
Continuous
 62
     3
100
AcDbCircle
 10
1505.435460711939
 20
866.9314203229586
 30
0.0
 40
0.75
100
AcDbArc
 50
90.0
 51
270.0
  0
ARC
  5
6F57
330
1E
100
AcDbEntity
  8
躯体と製品
  6
Continuous
 62
     3
100
AcDbCircle
 10
1507.385460711939
 20
869.8814203229582
 30
0.0
 40
0.2999999999999998
100
AcDbArc
 50
0.0
 51
90.0
  0
LINE
  5
6F58
330
1E
100
AcDbEntity
  8
躯体と製品
  6
Continuous
 62
     3
100
AcDbLine
 10
1507.385460711939
 20
870.1814203229583
 30
0.0
 11
1504.435460711938
 21
870.1814203229583
 31
0.0
  0
LINE
  5
6F59
330
1E
100
AcDbEntity
  8
躯体と製品
  6
Continuous
 62
     3
100
AcDbLine
 10
1507.385460711939
 20
867.6814203229582
 30
0.0
 11
1505.435460711939
 21
867.6814203229582
 31
0.0
  0
ARC
  5
6F5A
330
1E
100
AcDbEntity
  8
躯体と製品
  6
Continuous
 62
     3
100
AcDbCircle
 10
1507.385460711939
 20
867.9814203229582
 30
0.0
 40
0.2999999999999998
100
AcDbArc
 50
270.0
 51
0.0
  0
LINE
  5
6F5B
330
1E
100
AcDbEntity
  8
躯体と製品
  6
Continuous
 62
     3
100
AcDbLine
 10
1507.685460711939
 20
867.9814203229582
 30
0.0
 11
1507.685460711939
 21
869.8814203229582
 31
0.0
  0
ARC
  5
6F5C
330
1E
100
AcDbEntity
  8
躯体と製品
  6
Continuous
 62
     3
100
AcDbCircle
 10
1507.385460711939
 20
865.8814203229583
 30
0.0
 40
0.2999999999999998
100
AcDbArc
 50
0.0
 51
90.0
  0
LINE
  5
6F5D
330
1E
100
AcDbEntity
  8
躯体と製品
  6
Continuous
 62
     3
100
AcDbLine
 10
1507.385460711939
 20
866.1814203229582
 30
0.0
 11
1505.435460711939
 21
866.1814203229582
 31
0.0
  0
ARC
  5
6F5E
330
1E
100
AcDbEntity
  8
躯体と製品
  6
Continuous
 62
     3
100
AcDbCircle
 10
1507.385460711939
 20
864.4814203229586
 30
0.0
 40
0.2999999999999998
100
AcDbArc
 50
270.0
 51
0.0
  0
LINE
  5
6F5F
330
1E
100
AcDbEntity
  8
躯体と製品
  6
Continuous
 62
     3
100
AcDbLine
 10
1507.685460711939
 20
864.4814203229586
 30
0.0
 11
1507.685460711939
 21
865.8814203229583
 31
0.0
  0
LINE
  5
6F60
330
1E
100
AcDbEntity
  8
躯体と製品
  6
Continuous
 62
     3
100
AcDbLine
 10
1508.685460711939
 20
871.6814203229583
 30
0.0
 11
1504.435460711938
 21
871.6814203229583
 31
0.0
  0
ARC
  5
6F61
330
1E
100
AcDbEntity
  8
躯体と製品
  6
Continuous
 62
     3
100
AcDbCircle
 10
1508.685460711939
 20
871.1814203229582
 30
0.0
 40
0.5
100
AcDbArc
 50
0.0
 51
90.0
  0
LINE
  5
6F62
330
1E
100
AcDbEntity
  8
躯体と製品
  6
Continuous
 62
     3
100
AcDbLine
 10
1509.185460711939
 20
871.1814203229582
 30
0.0
 11
1509.185460711939
 21
861.6814203229585
 31
0.0
  0
LINE
  5
6F63
330
1E
100
AcDbEntity
  8
躯体と製品
  6
Continuous
 62
     3
100
AcDbLine
 10
1496.185460711939
 20
861.6814203229585
 30
0.0
 11
1486.185460711938
 21
861.6814203229585
 31
0.0
  0
LINE
  5
6F64
330
1E
100
AcDbEntity
  8
躯体と製品
  6
Continuous
 62
     3
100
AcDbLine
 10
1490.685460711939
 20
864.1814203229582
 30
0.0
 11
1474.985460711939
 21
864.1814203229582
 31
0.0
  0
LINE
  5
6F65
330
1E
100
AcDbEntity
  8
躯体と製品
  6
Continuous
 62
     3
100
AcDbLine
 10
1507.385460711939
 20
864.1814203229582
 30
0.0
 11
1491.685460711939
 21
864.1814203229582
 31
0.0
  0
LINE
  5
6F66
330
1E
100
AcDbEntity
  8
躯体と製品
  6
Continuous
 62
     3
100
AcDbLine
 10
1486.185460711938
 20
861.6814203229585
 30
0.0
 11
1486.185460711938
 21
862.1814203229583
 31
0.0
  0
LINE
  5
6F67
330
1E
100
AcDbEntity
  8
躯体と製品
  6
Continuous
 62
     3
100
AcDbLine
 10
1486.185460711938
 20
862.1814203229583
 30
0.0
 11
1474.685460711939
 21
862.1814203229583
 31
0.0
  0
LINE
  5
6F68
330
1E
100
AcDbEntity
  8
躯体と製品
  6
Continuous
 62
     3
100
AcDbLine
 10
1474.685460711939
 20
862.1814203229583
 30
0.0
 11
1474.685460711939
 21
861.6814203229585
 31
0.0
  0
LINE
  5
6F69
330
1E
100
AcDbEntity
  8
躯体と製品
  6
Continuous
 62
     3
100
AcDbLine
 10
1474.685460711939
 20
861.6814203229585
 30
0.0
 11
1472.685460711939
 21
861.6814203229585
 31
0.0
  0
ARC
  5
6F6A
330
1E
100
AcDbEntity
  8
躯体と製品
  6
Continuous
 62
     3
100
AcDbCircle
 10
1473.685460711938
 20
879.6814203229583
 30
0.0
 40
1.0
100
AcDbArc
 50
0.0
 51
180.0
  0
LINE
  5
6F6B
330
1E
100
AcDbEntity
  8
躯体と製品
  6
Continuous
 62
     3
100
AcDbLine
 10
1462.185460711939
 20
862.6814203229585
 30
0.0
 11
1462.185460711939
 21
861.6814203229585
 31
0.0
  0
LINE
  5
6F6C
330
1E
100
AcDbEntity
  8
躯体と製品
  6
Continuous
 62
     3
100
AcDbLine
 10
1462.185460711939
 20
861.6814203229585
 30
0.0
 11
1460.685460711939
 21
861.6814203229585
 31
0.0
  0
LINE
  5
6F6D
330
1E
100
AcDbEntity
  8
躯体と製品
  6
Continuous
 62
     3
100
AcDbLine
 10
1491.185460711939
 20
863.6814203229585
 30
0.0
 11
1490.685460711939
 21
864.1814203229582
 31
0.0
  0
LINE
  5
6F6E
330
1E
100
AcDbEntity
  8
躯体と製品
  6
Continuous
 62
     3
100
AcDbLine
 10
1472.685460711939
 20
861.6814203229585
 30
0.0
 11
1472.685460711939
 21
862.6814203229585
 31
0.0
  0
LINE
  5
6F6F
330
1E
100
AcDbEntity
  8
躯体と製品
  6
Continuous
 62
     3
100
AcDbLine
 10
1472.685460711939
 20
862.6814203229585
 30
0.0
 11
1462.185460711939
 21
862.6814203229585
 31
0.0
  0
LINE
  5
6F70
330
1E
100
AcDbEntity
  8
躯体と製品
  6
Continuous
 62
     3
100
AcDbLine
 10
1472.685460711939
 20
864.6814203229585
 30
0.0
 11
1472.685460711939
 21
879.6814203229583
 31
0.0
  0
ARC
  5
6F71
330
1E
100
AcDbEntity
  8
躯体と製品
  6
Continuous
 62
     3
100
AcDbCircle
 10
1472.185460711939
 20
864.6814203229585
 30
0.0
 40
0.5
100
AcDbArc
 50
270.0
 51
0.0
  0
ARC
  5
6F72
330
1E
100
AcDbEntity
  8
躯体と製品
  6
Continuous
 62
     3
100
AcDbCircle
 10
1474.985460711939
 20
864.4814203229586
 30
0.0
 40
0.2999999999999998
100
AcDbArc
 50
180.0
 51
270.0
  0
LINE
  5
6F73
330
1E
100
AcDbEntity
  8
躯体と製品
  6
Continuous
 62
     3
100
AcDbLine
 10
1475.185460711939
 20
871.6814203229583
 30
0.0
 11
1477.935460711939
 21
871.6814203229583
 31
0.0
  0
ARC
  5
6F74
330
1E
100
AcDbEntity
  8
躯体と製品
  6
Continuous
 62
     3
100
AcDbCircle
 10
1475.185460711939
 20
872.1814203229582
 30
0.0
 40
0.5
100
AcDbArc
 50
180.0
 51
270.0
  0
LINE
  5
6F75
330
1E
100
AcDbEntity
  8
躯体と製品
  6
Continuous
 62
     3
100
AcDbLine
 10
1474.685460711939
 20
872.1814203229582
 30
0.0
 11
1474.685460711939
 21
879.6814203229583
 31
0.0
  0
ARC
  5
6F76
330
1E
100
AcDbEntity
  8
躯体と製品
  6
Continuous
 62
     3
100
AcDbCircle
 10
1477.935460711939
 20
870.9314203229585
 30
0.0
 40
0.75
100
AcDbArc
 50
270.0
 51
90.0
  0
ARC
  5
6F77
330
1E
100
AcDbEntity
  8
躯体と製品
  6
Continuous
 62
     3
100
AcDbCircle
 10
1476.935460711939
 20
866.9314203229586
 30
0.0
 40
0.75
100
AcDbArc
 50
270.0
 51
90.0
  0
LINE
  5
6F78
330
1E
100
AcDbEntity
  8
躯体と製品
  6
Continuous
 62
     3
100
AcDbLine
 10
1474.985460711939
 20
866.1814203229582
 30
0.0
 11
1476.935460711939
 21
866.1814203229582
 31
0.0
  0
ARC
  5
6F79
330
1E
100
AcDbEntity
  8
躯体と製品
  6
Continuous
 62
     3
100
AcDbCircle
 10
1474.985460711939
 20
865.8814203229583
 30
0.0
 40
0.2999999999999998
100
AcDbArc
 50
90.0
 51
180.0
  0
LINE
  5
6F7A
330
1E
100
AcDbEntity
  8
躯体と製品
  6
Continuous
 62
     3
100
AcDbLine
 10
1474.685460711939
 20
865.8814203229583
 30
0.0
 11
1474.685460711939
 21
864.4814203229586
 31
0.0
  0
LINE
  5
6F7B
330
1E
100
AcDbEntity
  8
躯体と製品
  6
Continuous
 62
     3
100
AcDbLine
 10
1474.985460711939
 20
867.6814203229582
 30
0.0
 11
1476.935460711939
 21
867.6814203229582
 31
0.0
  0
ARC
  5
6F7C
330
1E
100
AcDbEntity
  8
躯体と製品
  6
Continuous
 62
     3
100
AcDbCircle
 10
1474.985460711939
 20
867.9814203229582
 30
0.0
 40
0.2999999999999998
100
AcDbArc
 50
180.0
 51
270.0
  0
LINE
  5
6F7D
330
1E
100
AcDbEntity
  8
躯体と製品
  6
Continuous
 62
     3
100
AcDbLine
 10
1474.685460711939
 20
869.8814203229582
 30
0.0
 11
1474.685460711939
 21
867.9814203229582
 31
0.0
  0
ARC
  5
6F7E
330
1E
100
AcDbEntity
  8
躯体と製品
  6
Continuous
 62
     3
100
AcDbCircle
 10
1474.985460711939
 20
869.8814203229582
 30
0.0
 40
0.2999999999999998
100
AcDbArc
 50
90.0
 51
180.0
  0
LINE
  5
6F7F
330
1E
100
AcDbEntity
  8
躯体と製品
  6
Continuous
 62
     3
100
AcDbLine
 10
1474.985460711939
 20
870.1814203229583
 30
0.0
 11
1477.935460711939
 21
870.1814203229583
 31
0.0
  0
LINE
  5
6F80
330
1E
100
AcDbEntity
  8
躯体と製品
  6
Continuous
 62
     3
100
AcDbLine
 10
1491.185460711939
 20
863.6814203229585
 30
0.0
 11
1491.685460711939
 21
864.1814203229582
 31
0.0
  0
LINE
  5
6F81
330
1E
100
AcDbEntity
  8
躯体と製品
  6
Continuous
 62
     3
100
AcDbLine
 10
1465.986538608178
 20
868.6701365245026
 30
0.0
 11
1465.667782909338
 21
867.598504682657
 31
0.0
  0
LINE
  5
6F82
330
1E
100
AcDbEntity
  8
躯体と製品
  6
Continuous
 62
     3
100
AcDbLine
 10
1465.812890430511
 20
869.6549442775149
 30
0.0
 11
1465.494134731671
 21
868.5833124356692
 31
0.0
  0
LINE
  5
6F83
330
1E
100
AcDbEntity
  8
躯体と製品
  6
DASHED1
 62
     4
100
AcDbLine
 10
1487.407430408173
 20
905.2345924628754
 30
0.0
 11
1488.653026166755
 21
881.4672095357165
 31
0.0
  0
LINE
  5
6F84
330
1E
100
AcDbEntity
  8
躯体と製品
  6
DASHED1
 62
     7
100
AcDbLine
 10
1486.839709517665
 20
905.2048394717516
 30
0.0
 11
1488.085305276247
 21
881.4374565445927
 31
0.0
  0
LINE
  5
6F85
330
1E
100
AcDbEntity
  8
躯体と製品
  6
DASHED1
 62
     7
100
AcDbLine
 10
1492.831486726192
 20
905.5188552092095
 30
0.0
 11
1494.077082484774
 21
881.7514722820503
 31
0.0
  0
LINE
  5
6F86
330
1E
100
AcDbEntity
  8
躯体と製品
  6
DASHED1
 62
     4
100
AcDbLine
 10
1492.263765835684
 20
905.4891022180852
 30
0.0
 11
1493.509361594266
 21
881.7217192909263
 31
0.0
  0
ARC
  5
6F87
330
1E
100
AcDbEntity
  8
躯体と製品
  6
DASHED1
 62
     7
100
AcDbCircle
 10
1479.271825896118
 20
903.0057532744775
 30
0.0
 40
1.0
100
AcDbArc
 50
93.00000000000558
 51
142.3731526377183
  0
LINE
  5
6F88
330
1E
100
AcDbEntity
  8
躯体と製品
  6
DASHED1
 62
     7
100
AcDbLine
 10
1500.493575068977
 20
905.9204082439251
 30
0.0
 11
1479.177621174881
 21
904.8032864370354
 31
0.0
  0
ARC
  5
6F89
330
1E
100
AcDbEntity
  8
躯体と製品
  6
DASHED1
 62
     7
100
AcDbCircle
 10
1500.587779790214
 20
904.1228750813671
 30
0.0
 40
1.8
100
AcDbArc
 50
43.62684736228245
 51
93.00000000000558
  0
LINE
  5
6F8A
330
1E
100
AcDbEntity
  8
躯体と製品
  6
DASHED1
 62
     7
100
AcDbLine
 10
1500.535443833971
 20
905.1215046161212
 30
0.0
 11
1479.219489939875
 21
904.004382809232
 31
0.0
  0
LINE
  5
6F8B
330
1E
100
AcDbEntity
  8
躯体と製品
  6
DASHED1
 62
     7
100
AcDbLine
 10
1501.311628433776
 20
904.8128338781166
 30
0.0
 11
1514.241579527535
 21
891.2477810015738
 31
0.0
  0
ARC
  5
6F8C
330
1E
100
AcDbEntity
  8
躯体と製品
  6
DASHED1
 62
     7
100
AcDbCircle
 10
1500.587779790214
 20
904.1228750813671
 30
0.0
 40
1.0
100
AcDbArc
 50
43.62684736228245
 51
93.00000000000558
  0
ARC
  5
6F8D
330
1E
100
AcDbEntity
  8
躯体と製品
  6
DASHED1
 62
     7
100
AcDbCircle
 10
1515.544507069442
 20
892.4897068530389
 30
0.0
 40
1.0
100
AcDbArc
 50
223.6268473622824
 51
322.3731512671368
  0
ARC
  5
6F8E
330
1E
100
AcDbEntity
  8
躯体と製品
  6
DASHED1
 62
     7
100
AcDbCircle
 10
1515.544507069442
 20
892.4897068530389
 30
0.0
 40
1.8
100
AcDbArc
 50
223.6268473622824
 51
322.3731518762774
  0
LINE
  5
6F8F
330
1E
100
AcDbEntity
  8
躯体と製品
  6
DASHED1
 62
     7
100
AcDbLine
 10
1462.819305297874
 20
891.354496174859
 30
0.0
 11
1464.889181704656
 21
889.1829502268265
 31
0.0
  0
LINE
  5
6F90
330
1E
100
AcDbEntity
  8
躯体と製品
  6
DASHED1
 62
     7
100
AcDbLine
 10
1462.240226383002
 20
890.8025291374819
 30
0.0
 11
1462.819305297874
 21
891.354496174859
 31
0.0
  0
LINE
  5
6F91
330
1E
100
AcDbEntity
  8
躯体と製品
  6
DASHED1
 62
     7
100
AcDbLine
 10
1462.240226383002
 20
890.8025291374819
 30
0.0
 11
1464.310102789806
 21
888.6309831894266
 31
0.0
  0
ARC
  5
6F92
330
1E
100
AcDbEntity
  8
躯体と製品
  6
DASHED1
 62
     7
100
AcDbCircle
 10
1465.613030331714
 20
889.8729090408917
 30
0.0
 40
1.0
100
AcDbArc
 50
223.6268487328658
 51
322.3731526377183
  0
ARC
  5
6F93
330
1E
100
AcDbEntity
  8
躯体と製品
  6
DASHED1
 62
     7
100
AcDbCircle
 10
1465.613030331714
 20
889.8729090408917
 30
0.0
 40
1.8
100
AcDbArc
 50
223.6268481237193
 51
322.3731526377183
  0
LINE
  5
6F94
330
1E
100
AcDbEntity
  8
躯体と製品
  6
DASHED1
 62
     7
100
AcDbLine
 10
1477.846219312261
 20
904.1046826935328
 30
0.0
 11
1466.405033974807
 21
889.2623926780261
 31
0.0
  0
LINE
  5
6F95
330
1E
100
AcDbEntity
  8
躯体と製品
  6
DASHED1
 62
     7
100
AcDbLine
 10
1478.47982223842
 20
903.6162696183971
 30
0.0
 11
1467.038636900966
 21
888.7739796028906
 31
0.0
  0
ARC
  5
6F96
330
1E
100
AcDbEntity
  8
躯体と製品
  6
DASHED1
 62
     7
100
AcDbCircle
 10
1479.271825896118
 20
903.0057532744775
 30
0.0
 40
1.8
100
AcDbArc
 50
93.00000000000558
 51
142.3731526377183
  0
LINE
  5
6F97
330
1E
100
AcDbEntity
  8
躯体と製品
  6
DASHED1
 62
     7
100
AcDbLine
 10
1518.168059758924
 20
894.2552014822444
 30
0.0
 11
1516.336510712537
 21
891.8791904901738
 31
0.0
  0
LINE
  5
6F98
330
1E
100
AcDbEntity
  8
躯体と製品
  6
DASHED1
 62
     7
100
AcDbLine
 10
1501.890707348627
 20
905.3648009155168
 30
0.0
 11
1514.82065842588
 21
891.7997480562892
 31
0.0
  0
ARC
  5
6F99
330
1E
100
AcDbEntity
  8
躯体と製品
  6
DASHED1
 62
     7
100
AcDbCircle
 10
1491.019526869613
 20
908.5660265999292
 30
0.0
 40
0.5999999999999997
100
AcDbArc
 50
79.29976699999421
 51
182.9999999999989
  0
ARC
  5
6F9A
330
1E
100
AcDbEntity
  8
躯体と製品
  6
DASHED1
 62
     7
100
AcDbCircle
 10
1488.323227125776
 20
908.4247195180731
 30
0.0
 40
0.5999999999999997
100
AcDbArc
 50
2.999999999998919
 51
106.7002329999983
  0
LINE
  5
6F9B
330
1E
100
AcDbEntity
  8
躯体と製品
  6
DASHED1
 62
     7
100
AcDbLine
 10
1488.924458771232
 20
908.4169298757275
 30
0.0
 11
1490.422403073363
 21
908.4954338100921
 31
0.0
  0
ARC
  5
6F9C
330
1E
100
AcDbEntity
  8
躯体と製品
  6
DASHED1
 62
     7
100
AcDbCircle
 10
1491.648828817096
 20
905.2617493219454
 30
0.0
 40
3.45
100
AcDbArc
 50
6.237837000000908
 51
53.69087599999915
  0
ARC
  5
6F9D
330
1E
100
AcDbEntity
  8
躯体と製品
  6
DASHED1
 62
     7
100
AcDbCircle
 10
1488.03749281184
 20
905.0679780419912
 30
0.0
 40
3.45
100
AcDbArc
 50
132.179511
 51
179.6872570000013
  0
ARC
  5
6F9E
330
1E
100
AcDbEntity
  8
躯体と製品
  6
DASHED1
 62
     7
100
AcDbCircle
 10
1489.961204364576
 20
902.9651374556989
 30
0.0
 40
6.299999999999998
100
AcDbArc
 50
53.69062899999587
 51
132.3031309999968
  0
LINE
  5
6F9F
330
1E
100
AcDbEntity
  8
躯体と製品
  6
Continuous
 62
     4
100
AcDbLine
 10
1488.641714995044
 20
870.8205266458493
 30
0.0
 11
1494.633492203571
 21
871.1345423833071
 31
0.0
  0
LINE
  5
6FA0
330
1E
100
AcDbEntity
  8
躯体と製品
  6
Continuous
 62
     7
100
AcDbLine
 10
1494.077082484774
 20
881.7514722820503
 30
0.0
 11
1494.181349316203
 21
879.7619426195737
 31
0.0
  0
LINE
  5
6FA1
330
1E
100
AcDbEntity
  8
躯体と製品
  6
Continuous
 62
     7
100
AcDbLine
 10
1494.369758758677
 20
876.1668762944571
 30
0.0
 11
1494.633492203571
 21
871.1345423833071
 31
0.0
  0
LINE
  5
6FA2
330
1E
100
AcDbEntity
  8
躯体と製品
  6
Continuous
 62
     7
100
AcDbLine
 10
1488.085305276247
 20
881.4374565445927
 30
0.0
 11
1488.189572107675
 21
879.4479268821161
 31
0.0
  0
LINE
  5
6FA3
330
1E
100
AcDbEntity
  8
躯体と製品
  6
Continuous
 62
     7
100
AcDbLine
 10
1488.37798155015
 20
875.8528605569997
 30
0.0
 11
1488.641714995044
 21
870.8205266458493
 31
0.0
  0
LINE
  5
6FA4
330
1E
100
AcDbEntity
  8
躯体と製品
  6
Continuous
 62
     4
100
AcDbLine
 10
1493.509361594266
 20
881.7217192909263
 30
0.0
 11
1493.613628425695
 21
879.7321896284497
 31
0.0
  0
LINE
  5
6FA5
330
1E
100
AcDbEntity
  8
躯体と製品
  6
Continuous
 62
     4
100
AcDbLine
 10
1488.653026166755
 20
881.4672095357165
 30
0.0
 11
1488.757292998183
 21
879.4776798732403
 31
0.0
  0
POINT
  5
6FA6
330
1E
100
AcDbEntity
  8
躯体と製品
 62
     4
100
AcDbPoint
 10
1491.185460711939
 20
879.6049347508448
 30
0.0
  0
ARC
  5
6FA7
330
1E
100
AcDbEntity
  8
躯体と製品
  6
Continuous
 62
     7
100
AcDbCircle
 10
1441.214020485837
 20
858.6818282364976
 30
0.0
 40
1.0
100
AcDbArc
 50
91.63657704161829
 51
175.0000000000005
  0
LINE
  5
6FA8
330
1E
100
AcDbEntity
  8
躯体と製品
  6
DASHED1
 62
     7
100
AcDbLine
 10
1518.801662685102
 20
893.7667884071341
 30
0.0
 11
1518.168059758924
 21
894.2552014822444
 31
0.0
  0
LINE
  5
6FA9
330
1E
100
AcDbEntity
  8
躯体と製品
  6
DASHED1
 62
     7
100
AcDbLine
 10
1518.801662685102
 20
893.7667884071341
 30
0.0
 11
1516.970113638695
 21
891.3907774150379
 31
0.0
  0
ARC
  5
6FAA
330
1E
100
AcDbEntity
  8
躯体と製品
  6
Continuous
 62
     7
100
AcDbCircle
 10
1595.185460711939
 20
828.6814203229585
 30
0.0
 40
4.0
100
AcDbArc
 50
60.86893977631383
 51
180.0
  0
ARC
  5
6FAB
330
1E
100
AcDbEntity
  8
躯体と製品
  6
Continuous
 62
     7
100
AcDbCircle
 10
1595.185460711939
 20
824.1814203229585
 30
0.0
 40
4.0
100
AcDbArc
 50
180.0
 51
270.0
  0
LINE
  5
6FAC
330
1E
100
AcDbEntity
  8
躯体と製品
  6
Continuous
 62
     7
100
AcDbLine
 10
1441.185460711939
 20
859.6814203229582
 30
0.0
 11
1591.185460711939
 21
859.6814203229582
 31
0.0
  0
ARC
  5
6FAD
330
1E
100
AcDbEntity
  8
躯体と製品
  6
Continuous
 62
     7
100
AcDbCircle
 10
1592.388266568075
 20
860.2853193600511
 30
0.0
 40
1.0
100
AcDbArc
 50
4.999999999999459
 51
84.93875308011034
  0
LINE
  5
6FAE
330
1E
100
AcDbEntity
  8
躯体と製品
  6
Continuous
 62
     7
100
AcDbLine
 10
1592.476487153517
 20
861.2814203229582
 30
0.0
 11
1581.185460711939
 21
862.2814203229582
 31
0.0
  0
LINE
  5
6FAF
330
1E
100
AcDbEntity
  8
躯体と製品
  6
Continuous
 62
     7
100
AcDbLine
 10
1593.384461266168
 20
860.3724751027991
 30
0.0
 11
1593.867989519068
 21
854.8457218822848
 31
0.0
  0
LINE
  5
6FB0
330
1E
100
AcDbEntity
  8
躯体と製品
  6
Continuous
 62
     7
100
AcDbLine
 10
1581.229657166467
 20
863.2814203229584
 30
0.0
 11
1592.564707738958
 21
862.2775212858655
 31
0.0
  0
ARC
  5
6FB1
330
1E
100
AcDbEntity
  8
躯体と製品
  6
Continuous
 62
     7
100
AcDbCircle
 10
1592.388266568075
 20
860.2853193600511
 30
0.0
 40
2.0
100
AcDbArc
 50
4.999999999999459
 51
84.93875308011034
  0
LINE
  5
6FB2
330
1E
100
AcDbEntity
  8
躯体と製品
  6
Continuous
 62
     7
100
AcDbLine
 10
1594.380655964259
 20
860.4596308455466
 30
0.0
 11
1594.858700484691
 21
854.9955569739664
 31
0.0
  0
ARC
  5
6FB3
330
1E
100
AcDbEntity
  8
躯体と製品
  6
Continuous
 62
     7
100
AcDbCircle
 10
1666.185460711939
 20
827.3618049383433
 30
0.0
 40
66.68038461538483
100
AcDbArc
 50
204.5826975257322
 51
335.4173024742677
  0
ARC
  5
6FB4
330
1E
100
AcDbEntity
  8
躯体と製品
  6
Continuous
 62
     7
100
AcDbCircle
 10
1666.185460711939
 20
827.3618049383433
 30
0.0
 40
76.68038461538483
100
AcDbArc
 50
198.6295648561286
 51
341.2245244127703
  0
ARC
  5
6FB5
330
1E
100
AcDbEntity
  8
躯体と製品
  6
Continuous
 62
     7
100
AcDbCircle
 10
1595.185460711939
 20
803.426872357288
 30
0.0
 40
1.75454796567055
100
AcDbArc
 50
90.0
 51
198.6295648561316
  0
ARC
  5
6FB6
330
1E
100
AcDbEntity
  8
躯体と製品
  6
Continuous
 62
     7
100
AcDbCircle
 10
1600.785460711939
 20
797.4432335097717
 30
0.0
 40
5.238186813186778
100
AcDbArc
 50
24.58269752573224
 51
90.0
  0
ARC
  5
6FB7
330
1E
100
AcDbEntity
  8
躯体と製品
  6
Continuous
 62
     7
100
AcDbCircle
 10
1737.185460711939
 20
803.426872357288
 30
0.0
 40
1.75454796567055
100
AcDbArc
 50
341.3704351438684
 51
90.0
  0
ARC
  5
6FB8
330
1E
100
AcDbEntity
  8
躯体と製品
  6
Continuous
 62
     7
100
AcDbCircle
 10
1731.585460711938
 20
797.4432335097717
 30
0.0
 40
5.238186813186778
100
AcDbArc
 50
90.0
 51
155.4173024742677
  0
LINE
  5
6FB9
330
1E
100
AcDbEntity
  8
躯体と製品
  6
Continuous
 62
     7
100
AcDbLine
 10
1600.785460711939
 20
822.8524176152577
 30
0.0
 11
1601.937940145862
 21
817.5222002333603
 31
0.0
  0
LINE
  5
6FBA
330
1E
100
AcDbEntity
  8
躯体と製品
  6
Continuous
 62
     7
100
AcDbLine
 10
1731.585460711938
 20
822.8524176152577
 30
0.0
 11
1730.432981278015
 21
817.5222002333603
 31
0.0
  0
LINE
  5
6FBB
330
1E
100
AcDbEntity
  8
躯体と製品
  6
Continuous
 62
     7
100
AcDbLine
 10
1594.858700484691
 20
854.9955569739664
 30
0.0
 11
1602.915354311302
 21
817.7335330258873
 31
0.0
  0
LINE
  5
6FBC
330
1E
100
AcDbEntity
  8
躯体と製品
  6
Continuous
 62
     7
100
AcDbLine
 10
1737.512220939187
 20
854.9955569739664
 30
0.0
 11
1729.455567112575
 21
817.7335330258873
 31
0.0
  0
ARC
  5
6FBD
330
1E
100
AcDbEntity
  8
躯体と製品
  6
Continuous
 62
     7
100
AcDbCircle
 10
1666.185460711939
 20
831.4135560314303
 30
0.0
 40
65.73213570847208
100
AcDbArc
 50
192.2004687273806
 51
347.7995312726194
  0
ARC
  5
6FBE
330
1E
100
AcDbEntity
  8
躯体と製品
  6
Continuous
 62
     7
100
AcDbCircle
 10
1666.185460711939
 20
831.4135560314303
 30
0.0
 40
64.73213570847208
100
AcDbArc
 50
192.2004687273806
 51
347.7995312726194
  0
ARC
  5
6FBF
330
1E
100
AcDbEntity
  8
躯体と製品
  6
Continuous
 62
     7
100
AcDbCircle
 10
1739.982654855802
 20
860.2853193600511
 30
0.0
 40
1.0
100
AcDbArc
 50
95.06124691988965
 51
175.0000000000005
  0
LINE
  5
6FC0
330
1E
100
AcDbEntity
  8
躯体と製品
  6
Continuous
 62
     7
100
AcDbLine
 10
1738.98646015771
 20
860.3724751027991
 30
0.0
 11
1738.502931904809
 21
854.8457218822848
 31
0.0
  0
ARC
  5
6FC1
330
1E
100
AcDbEntity
  8
躯体と製品
  6
Continuous
 62
     7
100
AcDbCircle
 10
1739.982654855802
 20
860.2853193600511
 30
0.0
 40
2.0
100
AcDbArc
 50
95.06124691988965
 51
175.0000000000005
  0
LINE
  5
6FC2
330
1E
100
AcDbEntity
  8
躯体と製品
  6
Continuous
 62
     7
100
AcDbLine
 10
1737.990265459618
 20
860.4596308455466
 30
0.0
 11
1737.512220939187
 21
854.9955569739664
 31
0.0
  0
LINE
  5
6FC3
330
1E
100
AcDbEntity
  8
躯体と製品
  6
Continuous
 62
     4
100
AcDbLine
 10
1922.84136746976
 20
905.3589497558313
 30
0.0
 11
1922.326878983687
 21
905.8734382419041
 31
0.0
  0
LINE
  5
6FC4
330
1E
100
AcDbEntity
  8
躯体と製品
  6
DASHED1
 62
     7
100
AcDbLine
 10
1931.005463268751
 20
880.3974651482025
 30
0.0
 11
1930.953127312508
 21
879.398835613448
 31
0.0
  0
LINE
  5
6FC5
330
1E
100
AcDbEntity
  8
躯体と製品
  6
DASHED1
 62
     7
100
AcDbLine
 10
1911.03287257366
 20
881.4441842730614
 30
0.0
 11
1931.005463268751
 21
880.3974651482025
 31
0.0
  0
LINE
  5
6FC6
330
1E
100
AcDbEntity
  8
躯体と製品
  6
DASHED1
 62
     7
100
AcDbLine
 10
1911.03287257366
 20
881.4441842730614
 30
0.0
 11
1910.980536617417
 21
880.4455547383071
 31
0.0
  0
LINE
  5
6FC7
330
1E
100
AcDbEntity
  8
躯体と製品
  6
DASHED1
 62
     7
100
AcDbLine
 10
1907.485333245776
 20
880.6287305851572
 30
0.0
 11
1910.980536617417
 21
880.4455547383071
 31
0.0
  0
ARC
  5
6FC8
330
1E
100
AcDbEntity
  8
躯体と製品
  6
DASHED1
 62
     7
100
AcDbCircle
 10
1907.563837180141
 20
882.1266748872892
 30
0.0
 40
1.5
100
AcDbArc
 50
86.99999999999441
 51
266.9999999999944
  0
LINE
  5
6FC9
330
1E
100
AcDbEntity
  8
躯体と製品
  6
Continuous
 62
     3
100
AcDbLine
 10
1946.079629516367
 20
878.0184598101007
 30
0.0
 11
1945.496436973447
 21
875.4923753803822
 31
0.0
  0
LINE
  5
6FCA
330
1E
100
AcDbEntity
  8
躯体と製品
  6
Continuous
 62
     3
100
AcDbLine
 10
1937.94353405579
 20
879.0324839197475
 30
0.0
 11
1945.618612462095
 21
878.6302501046497
 31
0.0
  0
LINE
  5
6FCB
330
1E
100
AcDbEntity
  8
躯体と製品
  6
Continuous
 62
     3
100
AcDbLine
 10
1948.859245970314
 20
878.4604156990139
 30
0.0
 11
1947.681899538247
 21
878.5221178109653
 31
0.0
  0
LINE
  5
6FCC
330
1E
100
AcDbEntity
  8
躯体と製品
  6
Continuous
 62
     3
100
AcDbLine
 10
1947.373887731939
 20
878.290014266842
 30
0.0
 11
1946.665681051189
 21
875.2224341151698
 31
0.0
  0
ARC
  5
6FCD
330
1E
100
AcDbEntity
  8
躯体と製品
  6
Continuous
 62
     3
100
AcDbCircle
 10
1937.917366077669
 20
878.5331691523703
 30
0.0
 40
0.5
100
AcDbArc
 50
86.99999999999441
 51
177.0000000000011
  0
LINE
  5
6FCE
330
1E
100
AcDbEntity
  8
躯体と製品
  6
Continuous
 62
     3
100
AcDbLine
 10
1937.418051310292
 20
878.5593371304917
 30
0.0
 11
1937.365715354049
 21
877.5607075957372
 31
0.0
  0
ARC
  5
6FCF
330
1E
100
AcDbEntity
  8
躯体と製品
  6
Continuous
 62
     3
100
AcDbCircle
 10
1938.12670990264
 20
882.5276872913887
 30
0.0
 40
0.5
100
AcDbArc
 50
177.0000000000011
 51
266.9999999999944
  0
LINE
  5
6FD0
330
1E
100
AcDbEntity
  8
躯体と製品
  6
Continuous
 62
     3
100
AcDbLine
 10
1938.100541924519
 20
882.0283725240113
 30
0.0
 11
1949.782529232052
 21
881.4161455116108
 31
0.0
  0
LINE
  5
6FD1
330
1E
100
AcDbEntity
  8
躯体と製品
  6
Continuous
 62
     3
100
AcDbLine
 10
1937.627395135263
 20
882.55385526951
 30
0.0
 11
1937.732067047749
 21
884.551114339019
 31
0.0
  0
LINE
  5
6FD2
330
1E
100
AcDbEntity
  8
躯体と製品
  6
Continuous
 62
     3
100
AcDbLine
 10
1959.130991412557
 20
830.7956691366101
 30
0.0
 11
1954.748439990824
 21
830.7956691366101
 31
0.0
  0
LINE
  5
6FD3
330
1E
100
AcDbEntity
  8
躯体と製品
  6
Continuous
 62
     3
100
AcDbLine
 10
1949.785057614805
 20
877.6696978550772
 30
0.0
 11
1959.620065212924
 21
831.399624982019
 31
0.0
  0
LINE
  5
6FD4
330
1E
100
AcDbEntity
  8
躯体と製品
  6
Continuous
 62
     3
100
AcDbLine
 10
1952.559964165525
 20
879.0439919798004
 30
0.0
 11
1964.515914268779
 21
822.7956691366101
 31
0.0
  0
ARC
  5
6FD5
330
1E
100
AcDbEntity
  8
躯体と製品
  6
Continuous
 62
     3
100
AcDbCircle
 10
1937.232752280372
 20
884.5772823171406
 30
0.0
 40
0.5
100
AcDbArc
 50
357.0000000000011
 51
86.99999999999441
  0
LINE
  5
6FD6
330
1E
100
AcDbEntity
  8
躯体と製品
  6
Continuous
 62
     3
100
AcDbLine
 10
1937.258920258493
 20
885.0765970845179
 30
0.0
 11
1936.759605491116
 21
885.1027650626395
 31
0.0
  0
ARC
  5
6FD7
330
1E
100
AcDbEntity
  8
躯体と製品
  6
Continuous
 62
     3
100
AcDbCircle
 10
1936.733437512994
 20
884.6034502952623
 30
0.0
 40
0.5
100
AcDbArc
 50
86.99999999999441
 51
177.0000000000011
  0
LINE
  5
6FD8
330
1E
100
AcDbEntity
  8
躯体と製品
  6
Continuous
 62
     3
100
AcDbLine
 10
1937.280841870476
 20
904.602208968475
 30
0.0
 11
1935.815435095674
 21
876.6405819953471
 31
0.0
  0
ARC
  5
6FD9
330
1E
100
AcDbEntity
  8
躯体と製品
  6
Continuous
 62
     3
100
AcDbCircle
 10
1949.625521363324
 20
878.4202569073471
 30
0.0
 40
3.0
100
AcDbArc
 50
11.99999999999979
 51
86.99999999999441
  0
ARC
  5
6FDA
330
1E
100
AcDbEntity
  8
躯体と製品
  6
Continuous
 62
     3
100
AcDbCircle
 10
1948.806910014071
 20
877.4617861642594
 30
0.0
 40
1.0
100
AcDbArc
 50
11.99999999999979
 51
86.99999999999441
  0
ARC
  5
6FDB
330
1E
100
AcDbEntity
  8
躯体と製品
  6
Continuous
 62
     3
100
AcDbCircle
 10
1936.866400586671
 20
877.5868755738585
 30
0.0
 40
0.5
100
AcDbArc
 50
266.9999999999944
 51
357.0000000000011
  0
LINE
  5
6FDC
330
1E
100
AcDbEntity
  8
躯体と製品
  6
Continuous
 62
     3
100
AcDbLine
 10
1936.84023260855
 20
877.0875608064814
 30
0.0
 11
1936.340917841172
 21
877.1137287846027
 31
0.0
  0
ARC
  5
6FDD
330
1E
100
AcDbEntity
  8
躯体と製品
  6
Continuous
 62
     3
100
AcDbCircle
 10
1936.367085819294
 20
877.6130435519801
 30
0.0
 40
0.5
100
AcDbArc
 50
177.0000000000011
 51
266.9999999999944
  0
ARC
  5
6FDE
330
1E
100
AcDbEntity
  8
躯体と製品
  6
Continuous
 62
     3
100
AcDbCircle
 10
1959.59861584823
 20
829.0956691366099
 30
0.0
 40
0.5
100
AcDbArc
 50
11.99999999999979
 51
90.0
  0
LINE
  5
6FDF
330
1E
100
AcDbEntity
  8
躯体と製品
  6
Continuous
 62
     3
100
AcDbLine
 10
1960.087689648598
 20
829.199624982019
 30
0.0
 11
1961.51591426878
 21
822.480356430813
 31
0.0
  0
LINE
  5
6FE0
330
1E
100
AcDbEntity
  8
躯体と製品
  6
Continuous
 62
     3
100
AcDbLine
 10
1959.59861584823
 20
829.5956691366102
 30
0.0
 11
1950.348439990824
 21
829.5956691366102
 31
0.0
  0
ARC
  5
6FE1
330
1E
100
AcDbEntity
  8
躯体と製品
  6
Continuous
 62
     3
100
AcDbCircle
 10
1959.130991412557
 20
831.29566913661
 30
0.0
 40
0.5
100
AcDbArc
 50
270.0
 51
11.99999999999979
  0
LINE
  5
6FE2
330
1E
100
AcDbEntity
  8
躯体と製品
  6
Continuous
 62
     3
100
AcDbLine
 10
1950.348439990824
 20
830.7956691366101
 30
0.0
 11
1952.748439990824
 21
830.7956691366101
 31
0.0
  0
LINE
  5
6FE3
330
1E
100
AcDbEntity
  8
躯体と製品
  6
Continuous
 62
     3
100
AcDbLine
 10
1954.748439990824
 20
831.79566913661
 30
0.0
 11
1952.748439990824
 21
830.7956691366101
 31
0.0
  0
LINE
  5
6FE4
330
1E
100
AcDbEntity
  8
躯体と製品
  6
Continuous
 62
     3
100
AcDbLine
 10
1954.748439990824
 20
830.7956691366101
 30
0.0
 11
1954.748439990824
 21
831.79566913661
 31
0.0
  0
ARC
  5
6FE5
330
1E
100
AcDbEntity
  8
躯体と製品
  6
Continuous
 62
     3
100
AcDbCircle
 10
1962.01591426878
 20
821.29566913661
 30
0.0
 40
2.5
100
AcDbArc
 50
270.0
 51
0.0
  0
LINE
  5
6FE6
330
1E
100
AcDbEntity
  8
躯体と製品
  6
Continuous
 62
     3
100
AcDbLine
 10
1962.01591426878
 20
818.79566913661
 30
0.0
 11
1961.51591426878
 21
818.79566913661
 31
0.0
  0
LINE
  5
6FE7
330
1E
100
AcDbEntity
  8
躯体と製品
  6
Continuous
 62
     3
100
AcDbLine
 10
1964.515914268779
 20
821.29566913661
 30
0.0
 11
1964.515914268779
 21
822.7956691366101
 31
0.0
  0
LINE
  5
6FE8
330
1E
100
AcDbEntity
  8
躯体と製品
  6
Continuous
 62
     3
100
AcDbLine
 10
1961.51591426878
 20
822.480356430813
 30
0.0
 11
1961.51591426878
 21
818.79566913661
 31
0.0
  0
ARC
  5
6FE9
330
1E
100
AcDbEntity
  8
躯体と製品
  6
Continuous
 62
     3
100
AcDbCircle
 10
1950.348439990824
 20
830.1956691366102
 30
0.0
 40
0.6000000000000015
100
AcDbArc
 50
90.0
 51
270.0
  0
ARC
  5
6FEA
330
1E
100
AcDbEntity
  8
躯体と製品
  6
Continuous
 62
     3
100
AcDbCircle
 10
1947.666198751374
 20
878.222528950539
 30
0.0
 40
0.2999999999999999
100
AcDbArc
 50
86.99999999999441
 51
166.9999999999997
  0
ARC
  5
6FEB
330
1E
100
AcDbEntity
  8
躯体と製品
  6
Continuous
 62
     3
100
AcDbCircle
 10
1945.592444483974
 20
878.1309353372726
 30
0.0
 40
0.5
100
AcDbArc
 50
346.9999999999997
 51
86.99999999999441
  0
ARC
  5
6FEC
330
1E
100
AcDbEntity
  8
躯体と製品
  6
Continuous
 62
     3
100
AcDbCircle
 10
1946.081059012318
 20
875.3574047477762
 30
0.0
 40
0.5999999999999984
100
AcDbArc
 50
166.9999999999997
 51
346.9999999999997
  0
LINE
  5
6FED
330
1E
100
AcDbEntity
  8
躯体と製品
  6
DASHED1
 62
     7
100
AcDbLine
 10
1930.953127312508
 20
879.398835613448
 30
0.0
 11
1935.946274986281
 21
879.1371558322333
 31
0.0
  0
LINE
  5
6FEE
330
1E
100
AcDbEntity
  8
躯体と製品
  6
DASHED1
 62
     7
100
AcDbLine
 10
1907.642341114504
 20
883.6246191894211
 30
0.0
 11
1936.103282855009
 21
882.1330444364971
 31
0.0
  0
LINE
  5
6FEF
330
1E
100
AcDbEntity
  8
躯体と製品
  6
DASHED1
 62
     4
100
AcDbLine
 10
1901.177417116721
 20
884.4641176723774
 30
0.0
 11
1901.271621837958
 21
886.2616508349358
 31
0.0
  0
LINE
  5
6FF0
330
1E
100
AcDbEntity
  8
躯体と製品
  6
DASHED1
 62
     4
100
AcDbLine
 10
1721.424100860898
 20
893.8845897961074
 30
0.0
 11
1721.518305582135
 21
895.6821229586658
 31
0.0
  0
LINE
  5
6FF1
330
1E
100
AcDbEntity
  8
躯体と製品
  6
Continuous
 62
     3
100
AcDbLine
 10
1937.280841870476
 20
904.602208968475
 30
0.0
 11
1666.185460711939
 21
918.8097158688838
 31
0.0
  0
LINE
  5
6FF2
330
1E
100
AcDbEntity
  8
躯体と製品
  6
Continuous
 62
     3
100
AcDbLine
 10
1935.815435095674
 20
876.6405819953471
 30
0.0
 11
1666.185460711939
 21
890.771290180942
 31
0.0
  0
LINE
  5
6FF3
330
1E
100
AcDbEntity
  8
躯体と製品
  6
DASHED1
 62
     4
100
AcDbLine
 10
1937.202337936112
 20
903.1042646663435
 30
0.0
 11
1666.185460711939
 21
917.3076573498869
 31
0.0
  0
LINE
  5
6FF4
330
1E
100
AcDbEntity
  8
躯体と製品
  6
Continuous
 62
     3
100
AcDbLine
 10
1937.045330067383
 20
900.1083760620796
 30
0.0
 11
1666.185460711939
 21
914.3035403118929
 31
0.0
  0
LINE
  5
6FF5
330
1E
100
AcDbEntity
  8
躯体と製品
  6
Continuous
 62
     3
100
AcDbLine
 10
1936.966826133019
 20
898.6104317599476
 30
0.0
 11
1666.185460711939
 21
912.8014817928962
 31
0.0
  0
LINE
  5
6FF6
330
1E
100
AcDbEntity
  8
躯体と製品
  6
DASHED1
 62
     4
100
AcDbLine
 10
1936.223655554369
 20
884.4298923664327
 30
0.0
 11
1666.185460711939
 21
898.5819944797256
 31
0.0
  0
LINE
  5
6FF7
330
1E
100
AcDbEntity
  8
躯体と製品
  6
DASHED1
 62
     4
100
AcDbLine
 10
1936.129450833131
 20
882.6323592038743
 30
0.0
 11
1666.185460711939
 21
896.7795242569293
 31
0.0
  0
LINE
  5
6FF8
330
1E
100
AcDbEntity
  8
躯体と製品
  6
DASHED1
 62
     4
100
AcDbLine
 10
1935.867771051916
 20
877.6392115301014
 30
0.0
 11
1666.185460711939
 21
891.7726625269397
 31
0.0
  0
ARC
  5
6FF9
330
1E
100
AcDbEntity
  8
躯体と製品
  6
Continuous
 62
     7
100
AcDbCircle
 10
1943.152641812122
 20
863.1956691366099
 30
0.0
 40
2.1
100
AcDbArc
 50
90.0
 51
175.0000000000005
  0
LINE
  5
6FFA
330
1E
100
AcDbEntity
  8
躯体と製品
  6
Continuous
 62
     7
100
AcDbLine
 10
1943.152641812122
 20
865.2956691366103
 30
0.0
 11
1943.748439990824
 21
865.2956691366103
 31
0.0
  0
ARC
  5
6FFB
330
1E
100
AcDbEntity
  8
躯体と製品
  6
Continuous
 62
     7
100
AcDbCircle
 10
1943.152641812122
 20
863.1956691366099
 30
0.0
 40
1.1
100
AcDbArc
 50
90.0
 51
175.0000000000005
  0
LINE
  5
6FFC
330
1E
100
AcDbEntity
  8
躯体と製品
  6
Continuous
 62
     7
100
AcDbLine
 10
1943.152641812122
 20
864.29566913661
 30
0.0
 11
1943.748439990824
 21
864.29566913661
 31
0.0
  0
LINE
  5
6FFD
330
1E
100
AcDbEntity
  8
躯体と製品
  6
Continuous
 62
     7
100
AcDbLine
 10
1943.748439990824
 20
867.79566913661
 30
0.0
 11
1943.748439990824
 21
865.2956691366103
 31
0.0
  0
LINE
  5
6FFE
330
1E
100
AcDbEntity
  8
躯体と製品
  6
Continuous
 62
     7
100
AcDbLine
 10
1945.248439990824
 20
863.7956691366101
 30
0.0
 11
1946.899524990824
 21
864.3190421366099
 31
0.0
  0
LINE
  5
6FFF
330
1E
100
AcDbEntity
  8
躯体と製品
  6
Continuous
 62
     7
100
AcDbLine
 10
1945.248439990824
 20
863.7956691366101
 30
0.0
 11
1945.248439990824
 21
861.7956691366101
 31
0.0
  0
LINE
  5
7000
330
1E
100
AcDbEntity
  8
躯体と製品
  6
Continuous
 62
     7
100
AcDbLine
 10
1945.248439990824
 20
865.79566913661
 30
0.0
 11
1945.248439990824
 21
867.79566913661
 31
0.0
  0
ARC
  5
7001
330
1E
100
AcDbEntity
  8
躯体と製品
  6
Continuous
 62
     7
100
AcDbCircle
 10
1944.748439990824
 20
867.79566913661
 30
0.0
 40
0.5
100
AcDbArc
 50
0.0
 51
90.0
  0
LINE
  5
7002
330
1E
100
AcDbEntity
  8
躯体と製品
  6
Continuous
 62
     7
100
AcDbLine
 10
1944.248439990824
 20
868.2956691366101
 30
0.0
 11
1944.748439990824
 21
868.2956691366101
 31
0.0
  0
LINE
  5
7003
330
1E
100
AcDbEntity
  8
躯体と製品
  6
Continuous
 62
     7
100
AcDbLine
 10
1944.248439990824
 20
861.2956691366102
 30
0.0
 11
1944.748439990824
 21
861.2956691366102
 31
0.0
  0
ARC
  5
7004
330
1E
100
AcDbEntity
  8
躯体と製品
  6
Continuous
 62
     7
100
AcDbCircle
 10
1944.748439990824
 20
861.7956691366101
 30
0.0
 40
0.5
100
AcDbArc
 50
270.0
 51
0.0
  0
ARC
  5
7005
330
1E
100
AcDbEntity
  8
躯体と製品
  6
Continuous
 62
     7
100
AcDbCircle
 10
1944.248439990824
 20
861.7956691366101
 30
0.0
 40
0.5
100
AcDbArc
 50
180.0
 51
270.0
  0
ARC
  5
7006
330
1E
100
AcDbEntity
  8
躯体と製品
  6
Continuous
 62
     7
100
AcDbCircle
 10
1944.248439990824
 20
867.79566913661
 30
0.0
 40
0.5
100
AcDbArc
 50
90.0
 51
180.0
  0
LINE
  5
7007
330
1E
100
AcDbEntity
  8
躯体と製品
  6
Continuous
 62
     7
100
AcDbLine
 10
1943.748439990824
 20
861.7956691366101
 30
0.0
 11
1943.748439990824
 21
864.29566913661
 31
0.0
  0
ARC
  5
7008
330
1E
100
AcDbEntity
  8
躯体と製品
  6
Continuous
 62
     7
100
AcDbCircle
 10
1946.748439990824
 20
864.7956691366101
 30
0.0
 40
0.5
100
AcDbArc
 50
287.587954000005
 51
72.41204599999497
  0
LINE
  5
7009
330
1E
100
AcDbEntity
  8
躯体と製品
  6
Continuous
 62
     7
100
AcDbLine
 10
1945.248439990824
 20
865.79566913661
 30
0.0
 11
1946.899524990824
 21
865.27229613661
 31
0.0
  0
ARC
  5
700A
330
1E
100
AcDbEntity
  8
躯体と製品
  6
Continuous
 62
     3
100
AcDbCircle
 10
1943.148439990824
 20
863.1956691366102
 30
0.0
 40
0.5999999999999997
100
AcDbArc
 50
0.0
 51
180.0
  0
ARC
  5
700B
330
1E
100
AcDbEntity
  8
躯体と製品
  6
Continuous
 62
     3
100
AcDbCircle
 10
1943.148439990824
 20
867.3956691366099
 30
0.0
 40
0.5999999999999997
100
AcDbArc
 50
180.0
 51
0.0
  0
LINE
  5
700C
330
1E
100
AcDbEntity
  8
躯体と製品
  6
Continuous
 62
     3
100
AcDbLine
 10
1942.548439990824
 20
863.1956691366102
 30
0.0
 11
1942.548439990824
 21
861.0956691366101
 31
0.0
  0
LINE
  5
700D
330
1E
100
AcDbEntity
  8
躯体と製品
  6
Continuous
 62
     3
100
AcDbLine
 10
1943.748439990824
 20
863.1956691366102
 30
0.0
 11
1943.748439990824
 21
861.59566913661
 31
0.0
  0
ARC
  5
700E
330
1E
100
AcDbEntity
  8
躯体と製品
  6
Continuous
 62
     3
100
AcDbCircle
 10
1944.048439990824
 20
861.59566913661
 30
0.0
 40
0.2999999999999998
100
AcDbArc
 50
180.0
 51
270.0
  0
LINE
  5
700F
330
1E
100
AcDbEntity
  8
躯体と製品
  6
Continuous
 62
     3
100
AcDbLine
 10
1943.748439990824
 20
867.3956691366099
 30
0.0
 11
1943.748439990824
 21
868.99566913661
 31
0.0
  0
ARC
  5
7010
330
1E
100
AcDbEntity
  8
躯体と製品
  6
Continuous
 62
     3
100
AcDbCircle
 10
1944.048439990824
 20
868.99566913661
 30
0.0
 40
0.2999999999999998
100
AcDbArc
 50
90.0
 51
180.0
  0
LINE
  5
7011
330
1E
100
AcDbEntity
  8
躯体と製品
  6
Continuous
 62
     3
100
AcDbLine
 10
1942.548439990824
 20
867.3956691366099
 30
0.0
 11
1942.548439990824
 21
869.4956691366101
 31
0.0
  0
LINE
  5
7012
330
1E
100
AcDbEntity
  8
躯体と製品
  6
Continuous
 62
     3
100
AcDbLine
 10
1954.748439990824
 20
831.29566913661
 30
0.0
 11
1956.369707990824
 21
831.70098613661
 31
0.0
  0
ARC
  5
7013
330
1E
100
AcDbEntity
  8
躯体と製品
  6
Continuous
 62
     3
100
AcDbCircle
 10
1956.248439990824
 20
832.18605713661
 30
0.0
 40
0.5
100
AcDbArc
 50
284.0362430000043
 51
0.0
  0
LINE
  5
7014
330
1E
100
AcDbEntity
  8
躯体と製品
  6
Continuous
 62
     3
100
AcDbLine
 10
1954.748439990824
 20
831.79566913661
 30
0.0
 11
1954.748439990824
 21
831.29566913661
 31
0.0
  0
LINE
  5
7015
330
1E
100
AcDbEntity
  8
躯体と製品
  6
Continuous
 62
     3
100
AcDbLine
 10
1956.748439990824
 20
832.49566913661
 30
0.0
 11
1956.748439990824
 21
832.18605713661
 31
0.0
  0
LINE
  5
7016
330
1E
100
AcDbEntity
  8
躯体と製品
  6
Continuous
 62
     3
100
AcDbLine
 10
1949.748439990824
 20
831.79566913661
 30
0.0
 11
1954.748439990824
 21
831.79566913661
 31
0.0
  0
ARC
  5
7017
330
1E
100
AcDbEntity
  8
躯体と製品
  6
Continuous
 62
     3
100
AcDbCircle
 10
1956.448439990824
 20
832.49566913661
 30
0.0
 40
0.2999999999999998
100
AcDbArc
 50
0.0
 51
90.0
  0
ARC
  5
7018
330
1E
100
AcDbEntity
  8
躯体と製品
  6
Continuous
 62
     3
100
AcDbCircle
 10
1949.748439990824
 20
831.29566913661
 30
0.0
 40
0.5
100
AcDbArc
 50
90.0
 51
180.0
  0
LINE
  5
7019
330
1E
100
AcDbEntity
  8
躯体と製品
  6
Continuous
 62
     3
100
AcDbLine
 10
1949.248439990824
 20
831.29566913661
 30
0.0
 11
1949.248439990824
 21
822.49566913661
 31
0.0
  0
LINE
  5
701A
330
1E
100
AcDbEntity
  8
躯体と製品
  6
Continuous
 62
     3
100
AcDbLine
 10
1949.748439990824
 20
832.7956691366102
 30
0.0
 11
1956.448439990824
 21
832.7956691366102
 31
0.0
  0
ARC
  5
701B
330
1E
100
AcDbEntity
  8
躯体と製品
  6
Continuous
 62
     3
100
AcDbCircle
 10
1949.748439990824
 20
833.2956691366101
 30
0.0
 40
0.5
100
AcDbArc
 50
180.0
 51
270.0
  0
LINE
  5
701C
330
1E
100
AcDbEntity
  8
躯体と製品
  6
Continuous
 62
     3
100
AcDbLine
 10
1954.148439990824
 20
820.2956691366102
 30
0.0
 11
1950.248439990824
 21
820.2956691366102
 31
0.0
  0
ARC
  5
701D
330
1E
100
AcDbEntity
  8
躯体と製品
  6
Continuous
 62
     3
100
AcDbCircle
 10
1950.248439990824
 20
822.7956691366101
 30
0.0
 40
2.5
100
AcDbArc
 50
180.0
 51
270.0
  0
LINE
  5
701E
330
1E
100
AcDbEntity
  8
躯体と製品
  6
Continuous
 62
     3
100
AcDbLine
 10
1949.248439990824
 20
877.54566913661
 30
0.0
 11
1949.248439990824
 21
833.2956691366101
 31
0.0
  0
LINE
  5
701F
330
1E
100
AcDbEntity
  8
躯体と製品
  6
Continuous
 62
     3
100
AcDbLine
 10
1944.048439990824
 20
869.2956691366102
 30
0.0
 11
1947.448439990824
 21
869.2956691366102
 31
0.0
  0
LINE
  5
7020
330
1E
100
AcDbEntity
  8
躯体と製品
  6
Continuous
 62
     3
100
AcDbLine
 10
1944.048439990824
 20
861.2956691366102
 30
0.0
 11
1947.448439990824
 21
861.2956691366102
 31
0.0
  0
ARC
  5
7021
330
1E
100
AcDbEntity
  8
躯体と製品
  6
Continuous
 62
     3
100
AcDbCircle
 10
1947.448439990824
 20
861.59566913661
 30
0.0
 40
0.2999999999999998
100
AcDbArc
 50
270.0
 51
0.0
  0
LINE
  5
7022
330
1E
100
AcDbEntity
  8
躯体と製品
  6
Continuous
 62
     3
100
AcDbLine
 10
1947.748439990824
 20
868.99566913661
 30
0.0
 11
1947.748439990824
 21
861.59566913661
 31
0.0
  0
ARC
  5
7023
330
1E
100
AcDbEntity
  8
躯体と製品
  6
Continuous
 62
     3
100
AcDbCircle
 10
1947.448439990824
 20
868.99566913661
 30
0.0
 40
0.2999999999999998
100
AcDbArc
 50
0.0
 51
90.0
  0
LINE
  5
7024
330
1E
100
AcDbEntity
  8
躯体と製品
  6
Continuous
 62
     3
100
AcDbLine
 10
1947.248439990824
 20
860.09566913661
 30
0.0
 11
1943.548439990824
 21
860.09566913661
 31
0.0
  0
ARC
  5
7025
330
1E
100
AcDbEntity
  8
躯体と製品
  6
Continuous
 62
     3
100
AcDbCircle
 10
1943.548439990824
 20
861.0956691366101
 30
0.0
 40
1.0
100
AcDbArc
 50
180.0
 51
270.0
  0
ARC
  5
7026
330
1E
100
AcDbEntity
  8
躯体と製品
  6
Continuous
 62
     3
100
AcDbCircle
 10
1947.248439990824
 20
859.5956691366099
 30
0.0
 40
0.5
100
AcDbArc
 50
0.0
 51
90.0
  0
LINE
  5
7027
330
1E
100
AcDbEntity
  8
躯体と製品
  6
Continuous
 62
     3
100
AcDbLine
 10
1947.248439990824
 20
870.4956691366101
 30
0.0
 11
1943.548439990824
 21
870.4956691366101
 31
0.0
  0
ARC
  5
7028
330
1E
100
AcDbEntity
  8
躯体と製品
  6
Continuous
 62
     3
100
AcDbCircle
 10
1943.548439990824
 20
869.4956691366101
 30
0.0
 40
1.0
100
AcDbArc
 50
90.0
 51
180.0
  0
ARC
  5
7029
330
1E
100
AcDbEntity
  8
躯体と製品
  6
Continuous
 62
     3
100
AcDbCircle
 10
1947.248439990824
 20
870.99566913661
 30
0.0
 40
0.5
100
AcDbArc
 50
270.0
 51
0.0
  0
LINE
  5
702A
330
1E
100
AcDbEntity
  8
躯体と製品
  6
Continuous
 62
     3
100
AcDbLine
 10
1947.748439990824
 20
870.99566913661
 30
0.0
 11
1947.748439990824
 21
877.54566913661
 31
0.0
  0
ARC
  5
702B
330
1E
100
AcDbEntity
  8
躯体と製品
  6
Continuous
 62
     3
100
AcDbCircle
 10
1948.498439990824
 20
877.54566913661
 30
0.0
 40
0.75
100
AcDbArc
 50
0.0
 51
180.0
  0
LINE
  5
702C
330
1E
100
AcDbEntity
  8
躯体と製品
  6
Continuous
 62
     3
100
AcDbLine
 10
1947.748439990824
 20
859.5956691366099
 30
0.0
 11
1947.748439990824
 21
822.7956691366101
 31
0.0
  0
ARC
  5
702D
330
1E
100
AcDbEntity
  8
躯体と製品
  6
Continuous
 62
     3
100
AcDbCircle
 10
1954.148439990824
 20
820.8956691366099
 30
0.0
 40
0.5999999999999997
100
AcDbArc
 50
270.0
 51
90.0
  0
LINE
  5
702E
330
1E
100
AcDbEntity
  8
躯体と製品
  6
Continuous
 62
     3
100
AcDbLine
 10
1954.148439990824
 20
821.4956691366101
 30
0.0
 11
1950.248439990824
 21
821.4956691366101
 31
0.0
  0
ARC
  5
702F
330
1E
100
AcDbEntity
  8
躯体と製品
  6
Continuous
 62
     3
100
AcDbCircle
 10
1950.248439990824
 20
822.49566913661
 30
0.0
 40
1.0
100
AcDbArc
 50
180.0
 51
270.0
  0
ARC
  5
7030
330
1E
100
AcDbEntity
  8
躯体と製品
  6
Continuous
 62
     3
100
AcDbCircle
 10
1369.185460711939
 20
820.2956691366102
 30
0.0
 40
1.5
100
AcDbArc
 50
180.0
 51
270.0
  0
ARC
  5
7031
330
1E
100
AcDbEntity
  8
躯体と製品
  6
Continuous
 62
     3
100
AcDbCircle
 10
1369.185460711939
 20
904.4487754364656
 30
0.0
 40
1.5
100
AcDbArc
 50
93.00000000000558
 51
180.0
  0
LINE
  5
7032
330
1E
100
AcDbEntity
  8
躯体と製品
  6
Continuous
 62
     3
100
AcDbLine
 10
1367.685460711939
 20
820.2956691366102
 30
0.0
 11
1367.685460711939
 21
904.4487754364656
 31
0.0
  0
ARC
  5
7033
330
1E
100
AcDbEntity
  8
躯体と製品
  6
Continuous
 62
     3
100
AcDbCircle
 10
1963.185460711939
 20
904.4487754364656
 30
0.0
 40
1.5
100
AcDbArc
 50
0.0
 51
86.99999999999441
  0
LINE
  5
7034
330
1E
100
AcDbEntity
  8
躯体と製品
  6
Continuous
 62
     3
100
AcDbLine
 10
1963.263964646303
 20
905.9467197385975
 30
0.0
 11
1666.21162869006
 21
921.5145729969039
 31
0.0
  0
ARC
  5
7035
330
1E
100
AcDbEntity
  8
躯体と製品
  6
Continuous
 62
     3
100
AcDbCircle
 10
1963.185460711939
 20
820.2956691366102
 30
0.0
 40
1.5
100
AcDbArc
 50
270.0
 51
0.0
  0
LINE
  5
7036
330
1E
100
AcDbEntity
  8
躯体と製品
  6
Continuous
 62
     3
100
AcDbLine
 10
1964.685460711939
 20
820.2956691366102
 30
0.0
 11
1964.685460711939
 21
904.4487754364656
 31
0.0
  0
LINE
  5
7037
330
1E
100
AcDbEntity
  8
躯体と製品
  6
Continuous
 62
     3
100
AcDbLine
 10
1963.185460711939
 20
817.2956691366101
 30
0.0
 11
1956.185460711938
 21
817.2956691366101
 31
0.0
  0
ARC
  5
7038
330
1E
100
AcDbEntity
  8
躯体と製品
  6
Continuous
 62
     3
100
AcDbCircle
 10
1963.185460711939
 20
904.4487754364656
 30
0.0
 40
3.0
100
AcDbArc
 50
0.0
 51
86.99999999999441
  0
ARC
  5
7039
330
1E
100
AcDbEntity
  8
躯体と製品
  6
Continuous
 62
     3
100
AcDbCircle
 10
1963.185460711939
 20
820.2956691366102
 30
0.0
 40
3.0
100
AcDbArc
 50
270.0
 51
0.0
  0
POINT
  5
703A
330
1E
100
AcDbEntity
  8
躯体と製品
 62
     4
100
AcDbPoint
 10
1966.185460711938
 20
907.2956691366099
 30
0.0
  0
LINE
  5
703B
330
1E
100
AcDbEntity
  8
躯体と製品
  6
Continuous
 62
     3
100
AcDbLine
 10
1966.185460711938
 20
904.4487754364656
 30
0.0
 11
1966.185460711938
 21
820.2956691366102
 31
0.0
  0
LINE
  5
703C
330
1E
100
AcDbEntity
  8
躯体と製品
  6
Continuous
 62
     3
100
AcDbLine
 10
1963.342468580668
 20
907.4446640407289
 30
0.0
 11
1666.185460711939
 21
923.0180029215226
 31
0.0
  0
LINE
  5
703D
330
1E
100
AcDbEntity
  8
躯体と製品
  6
Continuous
 62
     3
100
AcDbLine
 10
1369.185460711939
 20
817.2956691366101
 30
0.0
 11
1376.185460711939
 21
817.2956691366101
 31
0.0
  0
ARC
  5
703E
330
1E
100
AcDbEntity
  8
躯体と製品
  6
Continuous
 62
     3
100
AcDbCircle
 10
1369.185460711939
 20
904.4487754364656
 30
0.0
 40
3.0
100
AcDbArc
 50
93.00000000000558
 51
180.0
  0
ARC
  5
703F
330
1E
100
AcDbEntity
  8
躯体と製品
  6
Continuous
 62
     3
100
AcDbCircle
 10
1369.185460711939
 20
820.2956691366102
 30
0.0
 40
3.0
100
AcDbArc
 50
180.0
 51
270.0
  0
POINT
  5
7040
330
1E
100
AcDbEntity
  8
躯体と製品
 62
     4
100
AcDbPoint
 10
1366.185460711939
 20
907.2956691366099
 30
0.0
  0
LINE
  5
7041
330
1E
100
AcDbEntity
  8
躯体と製品
  6
Continuous
 62
     3
100
AcDbLine
 10
1366.185460711939
 20
904.4487754364656
 30
0.0
 11
1366.185460711939
 21
820.2956691366102
 31
0.0
  0
LINE
  5
7042
330
1E
100
AcDbEntity
  8
躯体と製品
  6
Continuous
 62
     3
100
AcDbLine
 10
1369.02845284321
 20
907.4446640407289
 30
0.0
 11
1666.185460711939
 21
923.0180029215226
 31
0.0
  0
LINE
  5
7043
330
1E
100
AcDbEntity
  8
躯体と製品
  6
Continuous
 62
     3
100
AcDbLine
 10
1369.106956777574
 20
905.9467197385975
 30
0.0
 11
1666.159292733817
 21
921.5145729969039
 31
0.0
  0
LINE
  5
7044
330
1E
100
AcDbEntity
  8
躯体と製品
  6
Continuous
 62
     3
100
AcDbLine
 10
1376.185460711939
 20
817.2956691366101
 30
0.0
 11
1376.185460711939
 21
818.79566913661
 31
0.0
  0
LINE
  5
7045
330
1E
100
AcDbEntity
  8
躯体と製品
  6
Continuous
 62
     3
100
AcDbLine
 10
1369.185460711939
 20
818.79566913661
 30
0.0
 11
1376.185460711939
 21
818.79566913661
 31
0.0
  0
LINE
  5
7046
330
1E
100
AcDbEntity
  8
躯体と製品
  6
Continuous
 62
     3
100
AcDbLine
 10
1956.185460711938
 20
817.2956691366101
 30
0.0
 11
1956.185460711938
 21
818.79566913661
 31
0.0
  0
LINE
  5
7047
330
1E
100
AcDbEntity
  8
躯体と製品
  6
Continuous
 62
     3
100
AcDbLine
 10
1963.185460711939
 20
818.79566913661
 30
0.0
 11
1956.185460711938
 21
818.79566913661
 31
0.0
  0
ARC
  5
7048
330
1E
100
AcDbEntity
  8
躯体と製品
  6
DASHED1
 62
     7
100
AcDbCircle
 10
1942.348640346209
 20
899.5325528431651
 30
0.0
 40
3.0
100
AcDbArc
 50
10.12467165539644
 51
86.99999999999441
  0
ARC
  5
7049
330
1E
100
AcDbEntity
  8
躯体と製品
  6
DASHED1
 62
     7
100
AcDbCircle
 10
1942.348640346209
 20
899.5325528431651
 30
0.0
 40
7.5
100
AcDbArc
 50
10.12467165539644
 51
86.99999999999441
  0
LINE
  5
704A
330
1E
100
AcDbEntity
  8
躯体と製品
  6
DASHED1
 62
     7
100
AcDbLine
 10
1945.301923072735
 20
900.0599247586162
 30
0.0
 11
1959.25553662215
 21
821.9196888818899
 31
0.0
  0
LINE
  5
704B
330
1E
100
AcDbEntity
  8
躯体と製品
  6
DASHED1
 62
     7
100
AcDbLine
 10
1963.685460711938
 20
822.7107467550663
 30
0.0
 11
1959.255536622214
 21
821.9196888815341
 31
0.0
  0
LINE
  5
704C
330
1E
100
AcDbEntity
  8
躯体と製品
  6
DASHED1
 62
     7
100
AcDbLine
 10
1942.505648214939
 20
902.5284414474288
 30
0.0
 11
1937.186769022319
 21
902.807192094189
 31
0.0
  0
LINE
  5
704D
330
1E
100
AcDbEntity
  8
躯体と製品
  6
DASHED1
 62
     7
100
AcDbLine
 10
1942.741160018032
 20
907.022274353825
 30
0.0
 11
1937.422280825412
 21
907.3010250005848
 31
0.0
  0
LINE
  5
704E
330
1E
100
AcDbEntity
  8
躯体と製品
  6
Continuous
 62
     7
100
AcDbLine
 10
1922.301398849158
 20
905.3872483121192
 30
0.0
 11
1922.442837804094
 21
908.0860643442289
 31
0.0
  0
LINE
  5
704F
330
1E
100
AcDbEntity
  8
躯体と製品
  6
Continuous
 62
     7
100
AcDbLine
 10
1937.280841870476
 20
904.602208968475
 30
0.0
 11
1937.422280825413
 21
907.3010250005848
 31
0.0
  0
LINE
  5
7050
330
1E
100
AcDbEntity
  8
躯体と製品
  6
Continuous
 62
     4
100
AcDbLine
 10
1925.826224313144
 20
905.2025200371915
 30
0.0
 11
1922.9703244076
 21
908.0584199427377
 31
0.0
  0
LINE
  5
7051
330
1E
100
AcDbEntity
  8
躯体と製品
  6
Continuous
 62
     4
100
AcDbLine
 10
1927.318652734838
 20
905.1243051778715
 30
0.0
 11
1924.462752829292
 21
907.9802050834176
 31
0.0
  0
LINE
  5
7052
330
1E
100
AcDbEntity
  8
躯体と製品
  6
Continuous
 62
     4
100
AcDbLine
 10
1928.811081156531
 20
905.0460903185516
 30
0.0
 11
1925.955181250986
 21
907.9019902240979
 31
0.0
  0
LINE
  5
7053
330
1E
100
AcDbEntity
  8
躯体と製品
  6
Continuous
 62
     4
100
AcDbLine
 10
1930.303509578224
 20
904.9678754592321
 30
0.0
 11
1927.447609672679
 21
907.823775364778
 31
0.0
  0
LINE
  5
7054
330
1E
100
AcDbEntity
  8
躯体と製品
  6
Continuous
 62
     4
100
AcDbLine
 10
1931.795937999917
 20
904.8896605999123
 30
0.0
 11
1928.940038094371
 21
907.7455605054582
 31
0.0
  0
LINE
  5
7055
330
1E
100
AcDbEntity
  8
躯体と製品
  6
Continuous
 62
     4
100
AcDbLine
 10
1933.288366421611
 20
904.8114457405922
 30
0.0
 11
1930.432466516065
 21
907.6673456461383
 31
0.0
  0
LINE
  5
7056
330
1E
100
AcDbEntity
  8
躯体と製品
  6
Continuous
 62
     4
100
AcDbLine
 10
1934.780794843304
 20
904.7332308812727
 30
0.0
 11
1931.924894937758
 21
907.5891307868182
 31
0.0
  0
LINE
  5
7057
330
1E
100
AcDbEntity
  8
躯体と製品
  6
Continuous
 62
     4
100
AcDbLine
 10
1936.273223264995
 20
904.6550160219531
 30
0.0
 11
1933.417323359449
 21
907.5109159274989
 31
0.0
  0
LINE
  5
7058
330
1E
100
AcDbEntity
  8
躯体と製品
  6
Continuous
 62
     4
100
AcDbLine
 10
1937.303719161613
 20
905.0387336877079
 30
0.0
 11
1934.909751781143
 21
907.4327010681791
 31
0.0
  0
LINE
  5
7059
330
1E
100
AcDbEntity
  8
躯体と製品
  6
Continuous
 62
     4
100
AcDbLine
 10
1924.333795891451
 20
905.2807348965117
 30
0.0
 11
1922.397303959343
 21
907.2172268286198
 31
0.0
  0
LINE
  5
705A
330
1E
100
AcDbEntity
  8
躯体と製品
  6
Continuous
 62
     4
100
AcDbLine
 10
1937.374144137269
 20
906.3825222744254
 30
0.0
 11
1936.402180202836
 21
907.354486208859
 31
0.0
  0
LINE
  5
705B
330
1E
100
AcDbEntity
  8
躯体と製品
  6
Continuous
 62
     7
100
AcDbLine
 10
1892.153095636131
 20
858.7689839792453
 30
0.0
 11
1893.797653775808
 21
839.9715984278174
 31
0.0
  0
LINE
  5
705C
330
1E
100
AcDbEntity
  8
躯体と製品
  6
Continuous
 62
     7
100
AcDbLine
 10
1893.149290334223
 20
858.856139721993
 30
0.0
 11
1894.793848473899
 21
840.0587541705652
 31
0.0
  0
ARC
  5
705D
330
1E
100
AcDbEntity
  8
躯体と製品
  6
Continuous
 62
     7
100
AcDbCircle
 10
1916.907125429344
 20
841.9934152175756
 30
0.0
 40
22.19774608096545
100
AcDbArc
 50
184.9999999999994
 51
355.0000000000006
  0
LINE
  5
705E
330
1E
100
AcDbEntity
  8
躯体と製品
  6
Continuous
 62
     7
100
AcDbLine
 10
1941.060632946129
 20
863.3786961963803
 30
0.0
 11
1939.020402384788
 21
840.0587541705654
 31
0.0
  0
ARC
  5
705F
330
1E
100
AcDbEntity
  8
躯体と製品
  6
Continuous
 62
     7
100
AcDbCircle
 10
1916.907125429344
 20
841.9934152175756
 30
0.0
 40
23.19774608096545
100
AcDbArc
 50
184.9999999999994
 51
355.0000000000006
  0
LINE
  5
7060
330
1E
100
AcDbEntity
  8
躯体と製品
  6
Continuous
 62
     7
100
AcDbLine
 10
1942.056827644221
 20
863.2915404536326
 30
0.0
 11
1940.01659708288
 21
839.9715984278174
 31
0.0
  0
LINE
  5
7061
330
1E
100
AcDbEntity
  8
躯体と製品
  6
DASHED1
 62
     7
100
AcDbLine
 10
1382.639074261354
 20
900.8509826317929
 30
0.0
 11
1368.685460711939
 21
822.7107467550663
 31
0.0
  0
LINE
  5
7062
330
1E
100
AcDbEntity
  8
躯体と製品
  6
DASHED1
 62
     7
100
AcDbLine
 10
1401.365458155126
 20
880.3974651482025
 30
0.0
 11
1401.417794111369
 21
879.398835613448
 31
0.0
  0
LINE
  5
7063
330
1E
100
AcDbEntity
  8
躯体と製品
  6
DASHED1
 62
     7
100
AcDbLine
 10
1421.338048850218
 20
881.4441842730614
 30
0.0
 11
1401.365458155126
 21
880.3974651482025
 31
0.0
  0
LINE
  5
7064
330
1E
100
AcDbEntity
  8
躯体と製品
  6
DASHED1
 62
     7
100
AcDbLine
 10
1421.338048850218
 20
881.4441842730614
 30
0.0
 11
1421.390384806461
 21
880.4455547383071
 31
0.0
  0
LINE
  5
7065
330
1E
100
AcDbEntity
  8
躯体と製品
  6
DASHED1
 62
     7
100
AcDbLine
 10
1424.885588178102
 20
880.6287305851572
 30
0.0
 11
1421.390384806461
 21
880.4455547383071
 31
0.0
  0
ARC
  5
7066
330
1E
100
AcDbEntity
  8
躯体と製品
  6
DASHED1
 62
     7
100
AcDbCircle
 10
1424.807084243737
 20
882.1266748872892
 30
0.0
 40
1.5
100
AcDbArc
 50
273.0000000000056
 51
93.00000000000558
  0
LINE
  5
7067
330
1E
100
AcDbEntity
  8
躯体と製品
  6
Continuous
 62
     3
100
AcDbLine
 10
1386.291291907511
 20
878.0184598101007
 30
0.0
 11
1386.87448445043
 21
875.4923753803822
 31
0.0
  0
LINE
  5
7068
330
1E
100
AcDbEntity
  8
躯体と製品
  6
Continuous
 62
     3
100
AcDbLine
 10
1394.427387368087
 20
879.0324839197475
 30
0.0
 11
1386.752308961782
 21
878.6302501046497
 31
0.0
  0
LINE
  5
7069
330
1E
100
AcDbEntity
  8
躯体と製品
  6
Continuous
 62
     3
100
AcDbLine
 10
1383.511675453563
 20
878.4604156990139
 30
0.0
 11
1384.68902188563
 21
878.5221178109653
 31
0.0
  0
LINE
  5
706A
330
1E
100
AcDbEntity
  8
躯体と製品
  6
Continuous
 62
     3
100
AcDbLine
 10
1384.997033691939
 20
878.290014266842
 30
0.0
 11
1385.705240372688
 21
875.2224341151698
 31
0.0
  0
ARC
  5
706B
330
1E
100
AcDbEntity
  8
躯体と製品
  6
Continuous
 62
     3
100
AcDbCircle
 10
1394.453555346209
 20
878.5331691523703
 30
0.0
 40
0.5
100
AcDbArc
 50
2.999999999998919
 51
93.00000000000558
  0
LINE
  5
706C
330
1E
100
AcDbEntity
  8
躯体と製品
  6
Continuous
 62
     3
100
AcDbLine
 10
1394.952870113586
 20
878.5593371304917
 30
0.0
 11
1395.005206069829
 21
877.5607075957372
 31
0.0
  0
ARC
  5
706D
330
1E
100
AcDbEntity
  8
躯体と製品
  6
Continuous
 62
     3
100
AcDbCircle
 10
1394.244211521237
 20
882.5276872913887
 30
0.0
 40
0.5
100
AcDbArc
 50
273.0000000000056
 51
2.999999999998919
  0
LINE
  5
706E
330
1E
100
AcDbEntity
  8
躯体と製品
  6
Continuous
 62
     3
100
AcDbLine
 10
1394.270379499358
 20
882.0283725240113
 30
0.0
 11
1382.588392191824
 21
881.4161455116108
 31
0.0
  0
LINE
  5
706F
330
1E
100
AcDbEntity
  8
躯体と製品
  6
Continuous
 62
     3
100
AcDbLine
 10
1394.743526288614
 20
882.55385526951
 30
0.0
 11
1394.638854376128
 21
884.551114339019
 31
0.0
  0
LINE
  5
7070
330
1E
100
AcDbEntity
  8
躯体と製品
  6
Continuous
 62
     3
100
AcDbLine
 10
1373.239930011321
 20
830.7956691366101
 30
0.0
 11
1377.622481433053
 21
830.7956691366101
 31
0.0
  0
LINE
  5
7071
330
1E
100
AcDbEntity
  8
躯体と製品
  6
Continuous
 62
     3
100
AcDbLine
 10
1382.585863809073
 20
877.6696978550772
 30
0.0
 11
1372.750856210954
 21
831.399624982019
 31
0.0
  0
LINE
  5
7072
330
1E
100
AcDbEntity
  8
躯体と製品
  6
Continuous
 62
     3
100
AcDbLine
 10
1379.810957258352
 20
879.0439919798004
 30
0.0
 11
1367.855007155098
 21
822.7956691366101
 31
0.0
  0
ARC
  5
7073
330
1E
100
AcDbEntity
  8
躯体と製品
  6
Continuous
 62
     3
100
AcDbCircle
 10
1395.138169143505
 20
884.5772823171406
 30
0.0
 40
0.5
100
AcDbArc
 50
93.00000000000558
 51
182.9999999999989
  0
LINE
  5
7074
330
1E
100
AcDbEntity
  8
躯体と製品
  6
Continuous
 62
     3
100
AcDbLine
 10
1395.112001165384
 20
885.0765970845179
 30
0.0
 11
1395.611315932761
 21
885.1027650626395
 31
0.0
  0
ARC
  5
7075
330
1E
100
AcDbEntity
  8
躯体と製品
  6
Continuous
 62
     3
100
AcDbCircle
 10
1395.637483910883
 20
884.6034502952623
 30
0.0
 40
0.5
100
AcDbArc
 50
2.999999999998919
 51
93.00000000000558
  0
LINE
  5
7076
330
1E
100
AcDbEntity
  8
躯体と製品
  6
Continuous
 62
     3
100
AcDbLine
 10
1395.090079553401
 20
904.602208968475
 30
0.0
 11
1396.555486328204
 21
876.6405819953471
 31
0.0
  0
ARC
  5
7077
330
1E
100
AcDbEntity
  8
躯体と製品
  6
Continuous
 62
     3
100
AcDbCircle
 10
1382.745400060553
 20
878.4202569073471
 30
0.0
 40
3.0
100
AcDbArc
 50
93.00000000000558
 51
168.0000000000002
  0
ARC
  5
7078
330
1E
100
AcDbEntity
  8
躯体と製品
  6
Continuous
 62
     3
100
AcDbCircle
 10
1383.564011409806
 20
877.4617861642594
 30
0.0
 40
1.0
100
AcDbArc
 50
93.00000000000558
 51
168.0000000000002
  0
ARC
  5
7079
330
1E
100
AcDbEntity
  8
躯体と製品
  6
Continuous
 62
     3
100
AcDbCircle
 10
1395.504520837206
 20
877.5868755738585
 30
0.0
 40
0.5
100
AcDbArc
 50
182.9999999999989
 51
273.0000000000056
  0
LINE
  5
707A
330
1E
100
AcDbEntity
  8
躯体と製品
  6
Continuous
 62
     3
100
AcDbLine
 10
1395.530688815328
 20
877.0875608064814
 30
0.0
 11
1396.030003582705
 21
877.1137287846027
 31
0.0
  0
ARC
  5
707B
330
1E
100
AcDbEntity
  8
躯体と製品
  6
Continuous
 62
     3
100
AcDbCircle
 10
1396.003835604584
 20
877.6130435519801
 30
0.0
 40
0.5
100
AcDbArc
 50
273.0000000000056
 51
2.999999999998919
  0
ARC
  5
707C
330
1E
100
AcDbEntity
  8
躯体と製品
  6
Continuous
 62
     3
100
AcDbCircle
 10
1372.772305575647
 20
829.0956691366099
 30
0.0
 40
0.5
100
AcDbArc
 50
90.0
 51
168.0000000000002
  0
LINE
  5
707D
330
1E
100
AcDbEntity
  8
躯体と製品
  6
Continuous
 62
     3
100
AcDbLine
 10
1372.28323177528
 20
829.199624982019
 30
0.0
 11
1370.855007155098
 21
822.480356430813
 31
0.0
  0
LINE
  5
707E
330
1E
100
AcDbEntity
  8
躯体と製品
  6
Continuous
 62
     3
100
AcDbLine
 10
1372.772305575647
 20
829.5956691366102
 30
0.0
 11
1382.022481433053
 21
829.5956691366102
 31
0.0
  0
ARC
  5
707F
330
1E
100
AcDbEntity
  8
躯体と製品
  6
Continuous
 62
     3
100
AcDbCircle
 10
1373.239930011321
 20
831.29566913661
 30
0.0
 40
0.5
100
AcDbArc
 50
168.0000000000002
 51
270.0
  0
LINE
  5
7080
330
1E
100
AcDbEntity
  8
躯体と製品
  6
Continuous
 62
     3
100
AcDbLine
 10
1382.022481433053
 20
830.7956691366101
 30
0.0
 11
1379.622481433053
 21
830.7956691366101
 31
0.0
  0
LINE
  5
7081
330
1E
100
AcDbEntity
  8
躯体と製品
  6
Continuous
 62
     3
100
AcDbLine
 10
1377.622481433053
 20
831.79566913661
 30
0.0
 11
1379.622481433053
 21
830.7956691366101
 31
0.0
  0
LINE
  5
7082
330
1E
100
AcDbEntity
  8
躯体と製品
  6
Continuous
 62
     3
100
AcDbLine
 10
1377.622481433053
 20
830.7956691366101
 30
0.0
 11
1377.622481433053
 21
831.79566913661
 31
0.0
  0
ARC
  5
7083
330
1E
100
AcDbEntity
  8
躯体と製品
  6
Continuous
 62
     3
100
AcDbCircle
 10
1370.355007155098
 20
821.29566913661
 30
0.0
 40
2.5
100
AcDbArc
 50
180.0
 51
270.0
  0
LINE
  5
7084
330
1E
100
AcDbEntity
  8
躯体と製品
  6
Continuous
 62
     3
100
AcDbLine
 10
1370.355007155098
 20
818.79566913661
 30
0.0
 11
1370.855007155098
 21
818.79566913661
 31
0.0
  0
LINE
  5
7085
330
1E
100
AcDbEntity
  8
躯体と製品
  6
Continuous
 62
     3
100
AcDbLine
 10
1367.855007155098
 20
821.29566913661
 30
0.0
 11
1367.855007155098
 21
822.7956691366101
 31
0.0
  0
LINE
  5
7086
330
1E
100
AcDbEntity
  8
躯体と製品
  6
Continuous
 62
     3
100
AcDbLine
 10
1370.855007155098
 20
822.480356430813
 30
0.0
 11
1370.855007155098
 21
818.79566913661
 31
0.0
  0
ARC
  5
7087
330
1E
100
AcDbEntity
  8
躯体と製品
  6
Continuous
 62
     3
100
AcDbCircle
 10
1382.022481433053
 20
830.1956691366102
 30
0.0
 40
0.6000000000000015
100
AcDbArc
 50
270.0
 51
90.0
  0
ARC
  5
7088
330
1E
100
AcDbEntity
  8
躯体と製品
  6
Continuous
 62
     3
100
AcDbCircle
 10
1384.704722672503
 20
878.222528950539
 30
0.0
 40
0.2999999999999998
100
AcDbArc
 50
13.00000000000027
 51
93.00000000000558
  0
ARC
  5
7089
330
1E
100
AcDbEntity
  8
躯体と製品
  6
Continuous
 62
     3
100
AcDbCircle
 10
1386.778476939903
 20
878.1309353372726
 30
0.0
 40
0.5
100
AcDbArc
 50
93.00000000000558
 51
193.0000000000002
  0
ARC
  5
708A
330
1E
100
AcDbEntity
  8
躯体と製品
  6
Continuous
 62
     3
100
AcDbCircle
 10
1386.289862411559
 20
875.3574047477762
 30
0.0
 40
0.5999999999999984
100
AcDbArc
 50
193.0000000000002
 51
13.00000000000027
  0
LINE
  5
708B
330
1E
100
AcDbEntity
  8
躯体と製品
  6
DASHED1
 62
     7
100
AcDbLine
 10
1401.417794111369
 20
879.398835613448
 30
0.0
 11
1396.424646437596
 21
879.1371558322333
 31
0.0
  0
LINE
  5
708C
330
1E
100
AcDbEntity
  8
躯体と製品
  6
DASHED1
 62
     7
100
AcDbLine
 10
1424.728580309373
 20
883.6246191894211
 30
0.0
 11
1396.267638568867
 21
882.1330444364971
 31
0.0
  0
LINE
  5
708D
330
1E
100
AcDbEntity
  8
躯体と製品
  6
DASHED1
 62
     4
100
AcDbLine
 10
1431.193504307156
 20
884.4641176723774
 30
0.0
 11
1431.099299585919
 21
886.2616508349358
 31
0.0
  0
ARC
  5
708E
330
1E
100
AcDbEntity
  8
躯体と製品
  6
Continuous
 62
     7
100
AcDbCircle
 10
1389.218279611755
 20
863.1956691366099
 30
0.0
 40
2.1
100
AcDbArc
 50
4.999999999999459
 51
90.0
  0
LINE
  5
708F
330
1E
100
AcDbEntity
  8
躯体と製品
  6
Continuous
 62
     7
100
AcDbLine
 10
1389.218279611755
 20
865.2956691366103
 30
0.0
 11
1388.622481433053
 21
865.2956691366103
 31
0.0
  0
ARC
  5
7090
330
1E
100
AcDbEntity
  8
躯体と製品
  6
Continuous
 62
     7
100
AcDbCircle
 10
1389.218279611755
 20
863.1956691366099
 30
0.0
 40
1.1
100
AcDbArc
 50
4.999999999999459
 51
90.0
  0
LINE
  5
7091
330
1E
100
AcDbEntity
  8
躯体と製品
  6
Continuous
 62
     7
100
AcDbLine
 10
1389.218279611755
 20
864.29566913661
 30
0.0
 11
1388.622481433053
 21
864.29566913661
 31
0.0
  0
LINE
  5
7092
330
1E
100
AcDbEntity
  8
躯体と製品
  6
Continuous
 62
     7
100
AcDbLine
 10
1388.622481433053
 20
867.79566913661
 30
0.0
 11
1388.622481433053
 21
865.2956691366103
 31
0.0
  0
LINE
  5
7093
330
1E
100
AcDbEntity
  8
躯体と製品
  6
Continuous
 62
     7
100
AcDbLine
 10
1387.122481433053
 20
863.7956691366101
 30
0.0
 11
1385.471396433053
 21
864.3190421366099
 31
0.0
  0
LINE
  5
7094
330
1E
100
AcDbEntity
  8
躯体と製品
  6
Continuous
 62
     7
100
AcDbLine
 10
1387.122481433053
 20
863.7956691366101
 30
0.0
 11
1387.122481433053
 21
861.7956691366101
 31
0.0
  0
LINE
  5
7095
330
1E
100
AcDbEntity
  8
躯体と製品
  6
Continuous
 62
     7
100
AcDbLine
 10
1387.122481433053
 20
865.79566913661
 30
0.0
 11
1387.122481433053
 21
867.79566913661
 31
0.0
  0
ARC
  5
7096
330
1E
100
AcDbEntity
  8
躯体と製品
  6
Continuous
 62
     7
100
AcDbCircle
 10
1387.622481433053
 20
867.79566913661
 30
0.0
 40
0.5
100
AcDbArc
 50
90.0
 51
180.0
  0
LINE
  5
7097
330
1E
100
AcDbEntity
  8
躯体と製品
  6
Continuous
 62
     7
100
AcDbLine
 10
1388.122481433053
 20
868.2956691366101
 30
0.0
 11
1387.622481433053
 21
868.2956691366101
 31
0.0
  0
LINE
  5
7098
330
1E
100
AcDbEntity
  8
躯体と製品
  6
Continuous
 62
     7
100
AcDbLine
 10
1388.122481433053
 20
861.2956691366102
 30
0.0
 11
1387.622481433053
 21
861.2956691366102
 31
0.0
  0
ARC
  5
7099
330
1E
100
AcDbEntity
  8
躯体と製品
  6
Continuous
 62
     7
100
AcDbCircle
 10
1387.622481433053
 20
861.7956691366101
 30
0.0
 40
0.5
100
AcDbArc
 50
180.0
 51
270.0
  0
ARC
  5
709A
330
1E
100
AcDbEntity
  8
躯体と製品
  6
Continuous
 62
     7
100
AcDbCircle
 10
1388.122481433053
 20
861.7956691366101
 30
0.0
 40
0.5
100
AcDbArc
 50
270.0
 51
0.0
  0
ARC
  5
709B
330
1E
100
AcDbEntity
  8
躯体と製品
  6
Continuous
 62
     7
100
AcDbCircle
 10
1388.122481433053
 20
867.79566913661
 30
0.0
 40
0.5
100
AcDbArc
 50
0.0
 51
90.0
  0
LINE
  5
709C
330
1E
100
AcDbEntity
  8
躯体と製品
  6
Continuous
 62
     7
100
AcDbLine
 10
1388.622481433053
 20
861.7956691366101
 30
0.0
 11
1388.622481433053
 21
864.29566913661
 31
0.0
  0
ARC
  5
709D
330
1E
100
AcDbEntity
  8
躯体と製品
  6
Continuous
 62
     7
100
AcDbCircle
 10
1385.622481433053
 20
864.7956691366101
 30
0.0
 40
0.5
100
AcDbArc
 50
107.587954000005
 51
252.412045999995
  0
LINE
  5
709E
330
1E
100
AcDbEntity
  8
躯体と製品
  6
Continuous
 62
     7
100
AcDbLine
 10
1387.122481433053
 20
865.79566913661
 30
0.0
 11
1385.471396433053
 21
865.27229613661
 31
0.0
  0
ARC
  5
709F
330
1E
100
AcDbEntity
  8
躯体と製品
  6
Continuous
 62
     3
100
AcDbCircle
 10
1389.222481433053
 20
863.1956691366102
 30
0.0
 40
0.5999999999999997
100
AcDbArc
 50
0.0
 51
180.0
  0
ARC
  5
70A0
330
1E
100
AcDbEntity
  8
躯体と製品
  6
Continuous
 62
     3
100
AcDbCircle
 10
1389.222481433053
 20
867.3956691366099
 30
0.0
 40
0.5999999999999997
100
AcDbArc
 50
180.0
 51
0.0
  0
LINE
  5
70A1
330
1E
100
AcDbEntity
  8
躯体と製品
  6
Continuous
 62
     3
100
AcDbLine
 10
1389.822481433053
 20
863.1956691366102
 30
0.0
 11
1389.822481433053
 21
861.0956691366101
 31
0.0
  0
LINE
  5
70A2
330
1E
100
AcDbEntity
  8
躯体と製品
  6
Continuous
 62
     3
100
AcDbLine
 10
1388.622481433053
 20
863.1956691366102
 30
0.0
 11
1388.622481433053
 21
861.59566913661
 31
0.0
  0
ARC
  5
70A3
330
1E
100
AcDbEntity
  8
躯体と製品
  6
Continuous
 62
     3
100
AcDbCircle
 10
1388.322481433053
 20
861.59566913661
 30
0.0
 40
0.2999999999999998
100
AcDbArc
 50
270.0
 51
0.0
  0
LINE
  5
70A4
330
1E
100
AcDbEntity
  8
躯体と製品
  6
Continuous
 62
     3
100
AcDbLine
 10
1388.622481433053
 20
867.3956691366099
 30
0.0
 11
1388.622481433053
 21
868.99566913661
 31
0.0
  0
ARC
  5
70A5
330
1E
100
AcDbEntity
  8
躯体と製品
  6
Continuous
 62
     3
100
AcDbCircle
 10
1388.322481433053
 20
868.99566913661
 30
0.0
 40
0.2999999999999998
100
AcDbArc
 50
0.0
 51
90.0
  0
LINE
  5
70A6
330
1E
100
AcDbEntity
  8
躯体と製品
  6
Continuous
 62
     3
100
AcDbLine
 10
1389.822481433053
 20
867.3956691366099
 30
0.0
 11
1389.822481433053
 21
869.4956691366101
 31
0.0
  0
LINE
  5
70A7
330
1E
100
AcDbEntity
  8
躯体と製品
  6
Continuous
 62
     3
100
AcDbLine
 10
1377.622481433053
 20
831.29566913661
 30
0.0
 11
1376.001213433053
 21
831.70098613661
 31
0.0
  0
ARC
  5
70A8
330
1E
100
AcDbEntity
  8
躯体と製品
  6
Continuous
 62
     3
100
AcDbCircle
 10
1376.122481433053
 20
832.18605713661
 30
0.0
 40
0.5
100
AcDbArc
 50
180.0
 51
255.9637569999957
  0
LINE
  5
70A9
330
1E
100
AcDbEntity
  8
躯体と製品
  6
Continuous
 62
     3
100
AcDbLine
 10
1377.622481433053
 20
831.79566913661
 30
0.0
 11
1377.622481433053
 21
831.29566913661
 31
0.0
  0
LINE
  5
70AA
330
1E
100
AcDbEntity
  8
躯体と製品
  6
Continuous
 62
     3
100
AcDbLine
 10
1375.622481433053
 20
832.49566913661
 30
0.0
 11
1375.622481433053
 21
832.18605713661
 31
0.0
  0
LINE
  5
70AB
330
1E
100
AcDbEntity
  8
躯体と製品
  6
Continuous
 62
     3
100
AcDbLine
 10
1382.622481433053
 20
831.79566913661
 30
0.0
 11
1377.622481433053
 21
831.79566913661
 31
0.0
  0
ARC
  5
70AC
330
1E
100
AcDbEntity
  8
躯体と製品
  6
Continuous
 62
     3
100
AcDbCircle
 10
1375.922481433053
 20
832.49566913661
 30
0.0
 40
0.2999999999999998
100
AcDbArc
 50
90.0
 51
180.0
  0
ARC
  5
70AD
330
1E
100
AcDbEntity
  8
躯体と製品
  6
Continuous
 62
     3
100
AcDbCircle
 10
1382.622481433053
 20
831.29566913661
 30
0.0
 40
0.5
100
AcDbArc
 50
0.0
 51
90.0
  0
LINE
  5
70AE
330
1E
100
AcDbEntity
  8
躯体と製品
  6
Continuous
 62
     3
100
AcDbLine
 10
1383.122481433053
 20
831.29566913661
 30
0.0
 11
1383.122481433053
 21
822.49566913661
 31
0.0
  0
LINE
  5
70AF
330
1E
100
AcDbEntity
  8
躯体と製品
  6
Continuous
 62
     3
100
AcDbLine
 10
1382.622481433053
 20
832.7956691366102
 30
0.0
 11
1375.922481433053
 21
832.7956691366102
 31
0.0
  0
ARC
  5
70B0
330
1E
100
AcDbEntity
  8
躯体と製品
  6
Continuous
 62
     3
100
AcDbCircle
 10
1382.622481433053
 20
833.2956691366101
 30
0.0
 40
0.5
100
AcDbArc
 50
270.0
 51
0.0
  0
LINE
  5
70B1
330
1E
100
AcDbEntity
  8
躯体と製品
  6
Continuous
 62
     3
100
AcDbLine
 10
1378.222481433053
 20
820.2956691366102
 30
0.0
 11
1382.122481433053
 21
820.2956691366102
 31
0.0
  0
ARC
  5
70B2
330
1E
100
AcDbEntity
  8
躯体と製品
  6
Continuous
 62
     3
100
AcDbCircle
 10
1382.122481433053
 20
822.7956691366101
 30
0.0
 40
2.5
100
AcDbArc
 50
270.0
 51
0.0
  0
LINE
  5
70B3
330
1E
100
AcDbEntity
  8
躯体と製品
  6
Continuous
 62
     3
100
AcDbLine
 10
1383.122481433053
 20
877.54566913661
 30
0.0
 11
1383.122481433053
 21
833.2956691366101
 31
0.0
  0
LINE
  5
70B4
330
1E
100
AcDbEntity
  8
躯体と製品
  6
Continuous
 62
     3
100
AcDbLine
 10
1388.322481433053
 20
869.2956691366102
 30
0.0
 11
1384.922481433053
 21
869.2956691366102
 31
0.0
  0
LINE
  5
70B5
330
1E
100
AcDbEntity
  8
躯体と製品
  6
Continuous
 62
     3
100
AcDbLine
 10
1388.322481433053
 20
861.2956691366102
 30
0.0
 11
1384.922481433053
 21
861.2956691366102
 31
0.0
  0
ARC
  5
70B6
330
1E
100
AcDbEntity
  8
躯体と製品
  6
Continuous
 62
     3
100
AcDbCircle
 10
1384.922481433053
 20
861.59566913661
 30
0.0
 40
0.2999999999999998
100
AcDbArc
 50
180.0
 51
270.0
  0
LINE
  5
70B7
330
1E
100
AcDbEntity
  8
躯体と製品
  6
Continuous
 62
     3
100
AcDbLine
 10
1384.622481433053
 20
868.99566913661
 30
0.0
 11
1384.622481433053
 21
861.59566913661
 31
0.0
  0
ARC
  5
70B8
330
1E
100
AcDbEntity
  8
躯体と製品
  6
Continuous
 62
     3
100
AcDbCircle
 10
1384.922481433053
 20
868.99566913661
 30
0.0
 40
0.2999999999999998
100
AcDbArc
 50
90.0
 51
180.0
  0
LINE
  5
70B9
330
1E
100
AcDbEntity
  8
躯体と製品
  6
Continuous
 62
     3
100
AcDbLine
 10
1385.122481433053
 20
860.09566913661
 30
0.0
 11
1388.822481433053
 21
860.09566913661
 31
0.0
  0
ARC
  5
70BA
330
1E
100
AcDbEntity
  8
躯体と製品
  6
Continuous
 62
     3
100
AcDbCircle
 10
1388.822481433053
 20
861.0956691366101
 30
0.0
 40
1.0
100
AcDbArc
 50
270.0
 51
0.0
  0
ARC
  5
70BB
330
1E
100
AcDbEntity
  8
躯体と製品
  6
Continuous
 62
     3
100
AcDbCircle
 10
1385.122481433053
 20
859.5956691366099
 30
0.0
 40
0.5
100
AcDbArc
 50
90.0
 51
180.0
  0
LINE
  5
70BC
330
1E
100
AcDbEntity
  8
躯体と製品
  6
Continuous
 62
     3
100
AcDbLine
 10
1385.122481433053
 20
870.4956691366101
 30
0.0
 11
1388.822481433053
 21
870.4956691366101
 31
0.0
  0
ARC
  5
70BD
330
1E
100
AcDbEntity
  8
躯体と製品
  6
Continuous
 62
     3
100
AcDbCircle
 10
1388.822481433053
 20
869.4956691366101
 30
0.0
 40
1.0
100
AcDbArc
 50
0.0
 51
90.0
  0
ARC
  5
70BE
330
1E
100
AcDbEntity
  8
躯体と製品
  6
Continuous
 62
     3
100
AcDbCircle
 10
1385.122481433053
 20
870.99566913661
 30
0.0
 40
0.5
100
AcDbArc
 50
180.0
 51
270.0
  0
LINE
  5
70BF
330
1E
100
AcDbEntity
  8
躯体と製品
  6
Continuous
 62
     3
100
AcDbLine
 10
1384.622481433053
 20
870.99566913661
 30
0.0
 11
1384.622481433053
 21
877.54566913661
 31
0.0
  0
ARC
  5
70C0
330
1E
100
AcDbEntity
  8
躯体と製品
  6
Continuous
 62
     3
100
AcDbCircle
 10
1383.872481433053
 20
877.54566913661
 30
0.0
 40
0.7499999999999999
100
AcDbArc
 50
0.0
 51
180.0
  0
LINE
  5
70C1
330
1E
100
AcDbEntity
  8
躯体と製品
  6
Continuous
 62
     3
100
AcDbLine
 10
1384.622481433053
 20
859.5956691366099
 30
0.0
 11
1384.622481433053
 21
822.7956691366101
 31
0.0
  0
ARC
  5
70C2
330
1E
100
AcDbEntity
  8
躯体と製品
  6
Continuous
 62
     3
100
AcDbCircle
 10
1378.222481433053
 20
820.8956691366099
 30
0.0
 40
0.5999999999999997
100
AcDbArc
 50
90.0
 51
270.0
  0
LINE
  5
70C3
330
1E
100
AcDbEntity
  8
躯体と製品
  6
Continuous
 62
     3
100
AcDbLine
 10
1378.222481433053
 20
821.4956691366101
 30
0.0
 11
1382.122481433053
 21
821.4956691366101
 31
0.0
  0
ARC
  5
70C4
330
1E
100
AcDbEntity
  8
躯体と製品
  6
Continuous
 62
     3
100
AcDbCircle
 10
1382.122481433053
 20
822.49566913661
 30
0.0
 40
1.0
100
AcDbArc
 50
270.0
 51
0.0
  0
ARC
  5
70C5
330
1E
100
AcDbEntity
  8
躯体と製品
  6
DASHED1
 62
     7
100
AcDbCircle
 10
1390.022281077668
 20
899.5325528431651
 30
0.0
 40
3.0
100
AcDbArc
 50
93.00000000000558
 51
169.8753283446035
  0
ARC
  5
70C6
330
1E
100
AcDbEntity
  8
躯体と製品
  6
DASHED1
 62
     7
100
AcDbCircle
 10
1390.022281077668
 20
899.5325528431651
 30
0.0
 40
7.5
100
AcDbArc
 50
93.00000000000558
 51
169.8753283446035
  0
LINE
  5
70C7
330
1E
100
AcDbEntity
  8
躯体と製品
  6
DASHED1
 62
     7
100
AcDbLine
 10
1387.068998351142
 20
900.0599247586162
 30
0.0
 11
1373.115384801727
 21
821.9196888818899
 31
0.0
  0
LINE
  5
70C8
330
1E
100
AcDbEntity
  8
躯体と製品
  6
DASHED1
 62
     7
100
AcDbLine
 10
1368.685460711939
 20
822.7107467550663
 30
0.0
 11
1373.115384801663
 21
821.9196888815341
 31
0.0
  0
LINE
  5
70C9
330
1E
100
AcDbEntity
  8
躯体と製品
  6
DASHED1
 62
     7
100
AcDbLine
 10
1389.865273208939
 20
902.5284414474288
 30
0.0
 11
1395.184152401558
 21
902.807192094189
 31
0.0
  0
LINE
  5
70CA
330
1E
100
AcDbEntity
  8
躯体と製品
  6
DASHED1
 62
     7
100
AcDbLine
 10
1389.629761405846
 20
907.022274353825
 30
0.0
 11
1394.948640598465
 21
907.3010250005848
 31
0.0
  0
LINE
  5
70CB
330
1E
100
AcDbEntity
  8
躯体と製品
  6
Continuous
 62
     7
100
AcDbLine
 10
1440.217825787746
 20
858.7689839792453
 30
0.0
 11
1438.57326764807
 21
839.9715984278174
 31
0.0
  0
LINE
  5
70CC
330
1E
100
AcDbEntity
  8
躯体と製品
  6
Continuous
 62
     7
100
AcDbLine
 10
1439.221631089654
 20
858.856139721993
 30
0.0
 11
1437.577072949978
 21
840.0587541705652
 31
0.0
  0
ARC
  5
70CD
330
1E
100
AcDbEntity
  8
躯体と製品
  6
Continuous
 62
     7
100
AcDbCircle
 10
1415.463795994534
 20
841.9934152175756
 30
0.0
 40
22.19774608096545
100
AcDbArc
 50
184.9999999999994
 51
355.0000000000006
  0
LINE
  5
70CE
330
1E
100
AcDbEntity
  8
躯体と製品
  6
Continuous
 62
     7
100
AcDbLine
 10
1391.310288477748
 20
863.3786961963803
 30
0.0
 11
1393.350519039089
 21
840.0587541705654
 31
0.0
  0
ARC
  5
70CF
330
1E
100
AcDbEntity
  8
躯体と製品
  6
Continuous
 62
     7
100
AcDbCircle
 10
1415.463795994534
 20
841.9934152175756
 30
0.0
 40
23.19774608096545
100
AcDbArc
 50
184.9999999999994
 51
355.0000000000006
  0
LINE
  5
70D0
330
1E
100
AcDbEntity
  8
躯体と製品
  6
Continuous
 62
     7
100
AcDbLine
 10
1390.314093779656
 20
863.2915404536326
 30
0.0
 11
1392.354324340997
 21
839.9715984278174
 31
0.0
  0
LINE
  5
70D1
330
1E
100
AcDbEntity
  8
躯体と製品
  6
Continuous
 62
     3
100
AcDbLine
 10
1395.090079553401
 20
904.602208968475
 30
0.0
 11
1666.185460711939
 21
918.8097158688838
 31
0.0
  0
LINE
  5
70D2
330
1E
100
AcDbEntity
  8
躯体と製品
  6
DASHED1
 62
     4
100
AcDbLine
 10
1395.168583487766
 20
903.1042646663435
 30
0.0
 11
1666.185460711939
 21
917.3076573498869
 31
0.0
  0
LINE
  5
70D3
330
1E
100
AcDbEntity
  8
躯体と製品
  6
Continuous
 62
     3
100
AcDbLine
 10
1395.325591356495
 20
900.1083760620796
 30
0.0
 11
1666.185460711939
 21
914.3035403118929
 31
0.0
  0
LINE
  5
70D4
330
1E
100
AcDbEntity
  8
躯体と製品
  6
Continuous
 62
     3
100
AcDbLine
 10
1395.404095290859
 20
898.6104317599476
 30
0.0
 11
1666.185460711939
 21
912.8014817928962
 31
0.0
  0
LINE
  5
70D5
330
1E
100
AcDbEntity
  8
躯体と製品
  6
DASHED1
 62
     4
100
AcDbLine
 10
1396.241470590746
 20
882.6323592038743
 30
0.0
 11
1666.185460711939
 21
896.7795242569293
 31
0.0
  0
LINE
  5
70D6
330
1E
100
AcDbEntity
  8
躯体と製品
  6
DASHED1
 62
     4
100
AcDbLine
 10
1396.503150371961
 20
877.6392115301014
 30
0.0
 11
1666.185460711939
 21
891.7726625269397
 31
0.0
  0
LINE
  5
70D7
330
1E
100
AcDbEntity
  8
躯体と製品
  6
DASHED1
 62
     4
100
AcDbLine
 10
1396.424646437596
 20
879.1371558322333
 30
0.0
 11
1666.185460711939
 21
893.2747210459368
 31
0.0
  0
LINE
  5
70D8
330
1E
100
AcDbEntity
  8
躯体と製品
  6
Continuous
 62
     3
100
AcDbLine
 10
1396.555486328204
 20
876.6405819953471
 30
0.0
 11
1666.185460711939
 21
890.771290180942
 31
0.0
  0
LINE
  5
70D9
330
1E
100
AcDbEntity
  8
躯体と製品
  6
DASHED1
 62
     4
100
AcDbLine
 10
1396.147265869509
 20
884.4298923664327
 30
0.0
 11
1666.185460711939
 21
898.5819944797256
 31
0.0
  0
LINE
  5
70DA
330
1E
100
AcDbEntity
  8
躯体と製品
  6
DASHED1
 62
     4
100
AcDbLine
 10
1610.946820562979
 20
893.8845897961074
 30
0.0
 11
1610.852615841742
 21
895.6821229586658
 31
0.0
  0
LINE
  5
70DB
330
1E
100
AcDbEntity
  8
躯体と製品
  6
Continuous
 62
     7
100
AcDbLine
 10
1658.695739201279
 20
917.9165100240625
 30
0.0
 11
1658.905083026251
 21
913.9219918850441
 31
0.0
  0
LINE
  5
70DC
330
1E
100
AcDbEntity
  8
躯体と製品
  6
Continuous
 62
     7
100
AcDbLine
 10
1658.695739201279
 20
917.9165100240625
 30
0.0
 11
1666.185460711939
 21
918.3090296958846
 31
0.0
  0
LINE
  5
70DD
330
1E
100
AcDbEntity
  8
躯体と製品
  6
Continuous
 62
     7
100
AcDbLine
 10
1673.675182222598
 20
917.9165100240625
 30
0.0
 11
1673.465838397626
 21
913.9219918850441
 31
0.0
  0
LINE
  5
70DE
330
1E
100
AcDbEntity
  8
躯体と製品
  6
Continuous
 62
     7
100
AcDbLine
 10
1673.675182222598
 20
917.9165100240625
 30
0.0
 11
1666.185460711939
 21
918.3090296958846
 31
0.0
  0
LINE
  5
70DF
330
1E
100
AcDbEntity
  8
躯体と製品
  6
Continuous
 62
     4
100
AcDbLine
 10
1673.62811524734
 20
917.0184186357017
 30
0.0
 11
1672.677750687224
 21
917.9687831958181
 31
0.0
  0
LINE
  5
70E0
330
1E
100
AcDbEntity
  8
躯体と製品
  6
Continuous
 62
     4
100
AcDbLine
 10
1673.557690271685
 20
915.6746300489841
 30
0.0
 11
1671.185322265531
 21
918.0469980551377
 31
0.0
  0
LINE
  5
70E1
330
1E
100
AcDbEntity
  8
躯体と製品
  6
Continuous
 62
     4
100
AcDbLine
 10
1673.487265296029
 20
914.3308414622664
 30
0.0
 11
1669.692893843838
 21
918.1252129144574
 31
0.0
  0
LINE
  5
70E2
330
1E
100
AcDbEntity
  8
躯体と製品
  6
Continuous
 62
     4
100
AcDbLine
 10
1672.427483433078
 20
913.9764097628439
 30
0.0
 11
1668.200465422145
 21
918.2034277737773
 31
0.0
  0
LINE
  5
70E3
330
1E
100
AcDbEntity
  8
躯体と製品
  6
Continuous
 62
     4
100
AcDbLine
 10
1670.935055011385
 20
914.0546246221633
 30
0.0
 11
1666.708037000451
 21
918.2816426330976
 31
0.0
  0
LINE
  5
70E4
330
1E
100
AcDbEntity
  8
躯体と製品
  6
Continuous
 62
     4
100
AcDbLine
 10
1669.442626589692
 20
914.1328394814834
 30
0.0
 11
1665.312201928852
 21
918.2632641423234
 31
0.0
  0
LINE
  5
70E5
330
1E
100
AcDbEntity
  8
躯体と製品
  6
Continuous
 62
     4
100
AcDbLine
 10
1667.950198167999
 20
914.2110543408032
 30
0.0
 11
1663.968413342134
 21
918.1928391666678
 31
0.0
  0
LINE
  5
70E6
330
1E
100
AcDbEntity
  8
躯体と製品
  6
Continuous
 62
     4
100
AcDbLine
 10
1666.457769746307
 20
914.2892692001234
 30
0.0
 11
1662.624624755418
 21
918.1224141910123
 31
0.0
  0
LINE
  5
70E7
330
1E
100
AcDbEntity
  8
躯体と製品
  6
Continuous
 62
     4
100
AcDbLine
 10
1665.086860281065
 20
914.2459651029916
 30
0.0
 11
1661.2808361687
 21
918.0519892153565
 31
0.0
  0
LINE
  5
70E8
330
1E
100
AcDbEntity
  8
躯体と製品
  6
Continuous
 62
     4
100
AcDbLine
 10
1659.461294567938
 20
918.457317253746
 30
0.0
 11
1658.872708880559
 21
919.0459029411247
 31
0.0
  0
LINE
  5
70E9
330
1E
100
AcDbEntity
  8
躯体と製品
  6
Continuous
 62
     4
100
AcDbLine
 10
1663.743071694348
 20
914.1755401273357
 30
0.0
 11
1659.937047581983
 21
917.9815642397006
 31
0.0
  0
LINE
  5
70EA
330
1E
100
AcDbEntity
  8
躯体と製品
  6
Continuous
 62
     4
100
AcDbLine
 10
1662.39928310763
 20
914.10511515168
 30
0.0
 11
1658.701704034569
 21
917.8026942247413
 31
0.0
  0
LINE
  5
70EB
330
1E
100
AcDbEntity
  8
躯体と製品
  6
Continuous
 62
     4
100
AcDbLine
 10
1661.055494520913
 20
914.034690176024
 30
0.0
 11
1658.779918893889
 21
916.3102658030481
 31
0.0
  0
LINE
  5
70EC
330
1E
100
AcDbEntity
  8
躯体と製品
  6
Continuous
 62
     4
100
AcDbLine
 10
1659.711705934195
 20
913.9642652003686
 30
0.0
 11
1658.858133753209
 21
914.8178373813548
 31
0.0
  0
POINT
  5
70ED
330
1E
100
AcDbEntity
  8
躯体と製品
 62
     4
100
AcDbPoint
 10
1666.185460711939
 20
923.0180029215226
 30
0.0
  0
LINE
  5
70EE
330
1E
100
AcDbEntity
  8
躯体と製品
  6
Continuous
 62
     4
100
AcDbLine
 10
1667.672088170778
 20
918.7318050251443
 30
0.0
 11
1664.952562263177
 21
921.4513309327443
 31
0.0
  0
LINE
  5
70EF
330
1E
100
AcDbEntity
  8
躯体と製品
  6
Continuous
 62
     7
100
AcDbLine
 10
1658.763644071315
 20
921.1269834741447
 30
0.0
 11
1658.905083026251
 21
918.4281674420349
 31
0.0
  0
LINE
  5
70F0
330
1E
100
AcDbEntity
  8
躯体と製品
  6
Continuous
 62
     4
100
AcDbLine
 10
1666.180237501523
 20
918.8094421320252
 30
0.0
 11
1663.60877367646
 21
921.3809059570886
 31
0.0
  0
LINE
  5
70F1
330
1E
100
AcDbEntity
  8
躯体と製品
  6
Continuous
 62
     4
100
AcDbLine
 10
1664.836448914806
 20
918.7390171563691
 30
0.0
 11
1662.264985089742
 21
921.310480981433
 31
0.0
  0
LINE
  5
70F2
330
1E
100
AcDbEntity
  8
躯体と製品
  6
Continuous
 62
     4
100
AcDbLine
 10
1663.492660328089
 20
918.6685921807134
 30
0.0
 11
1660.921196503025
 21
921.2400560057771
 31
0.0
  0
LINE
  5
70F3
330
1E
100
AcDbEntity
  8
躯体と製品
  6
Continuous
 62
     4
100
AcDbLine
 10
1662.148871741373
 20
918.598167205058
 30
0.0
 11
1659.577407916309
 21
921.1696310301213
 31
0.0
  0
LINE
  5
70F4
330
1E
100
AcDbEntity
  8
躯体と製品
  6
Continuous
 62
     4
100
AcDbLine
 10
1660.805083154655
 20
918.5277422294019
 30
0.0
 11
1658.794494021239
 21
920.5383313628173
 31
0.0
  0
LINE
  5
70F5
330
1E
100
AcDbEntity
  8
躯体と製品
  6
Continuous
 62
     7
100
AcDbLine
 10
1673.607277352562
 20
921.1269834741447
 30
0.0
 11
1673.465838397626
 21
918.4281674420349
 31
0.0
  0
LINE
  5
70F6
330
1E
100
AcDbEntity
  8
躯体と製品
  6
Continuous
 62
     4
100
AcDbLine
 10
1669.164516592471
 20
918.6535901658242
 30
0.0
 11
1666.308616686924
 21
921.5094900713713
 31
0.0
  0
LINE
  5
70F7
330
1E
100
AcDbEntity
  8
躯体と製品
  6
Continuous
 62
     4
100
AcDbLine
 10
1673.544566768072
 20
919.930394239715
 30
0.0
 11
1672.278330373696
 21
921.196630634092
 31
0.0
  0
LINE
  5
70F8
330
1E
100
AcDbEntity
  8
躯体と製品
  6
Continuous
 62
     4
100
AcDbLine
 10
1673.474141792416
 20
918.5866056529986
 30
0.0
 11
1670.785901952003
 21
921.2748454934118
 31
0.0
  0
LINE
  5
70F9
330
1E
100
AcDbEntity
  8
躯体と製品
  6
Continuous
 62
     4
100
AcDbLine
 10
1672.149373435857
 20
918.4971604471853
 30
0.0
 11
1669.29347353031
 21
921.3530603527315
 31
0.0
  0
LINE
  5
70FA
330
1E
100
AcDbEntity
  8
躯体と製品
  6
Continuous
 62
     4
100
AcDbLine
 10
1670.656945014164
 20
918.5753753065046
 30
0.0
 11
1667.801045108617
 21
921.4312752120511
 31
0.0
  0
POINT
  5
70FB
330
1E
100
AcDbEntity
  8
躯体と製品
 62
     4
100
AcDbPoint
 10
1366.185460711939
 20
817.2956691366101
 30
0.0
  0
POINT
  5
70FC
330
1E
100
AcDbEntity
  8
躯体と製品
 62
     4
100
AcDbPoint
 10
1966.185460711938
 20
817.2956691366101
 30
0.0
  0
LINE
  5
70FD
330
1E
100
AcDbEntity
  8
躯体と製品
  6
DASHED1
 62
     4
100
AcDbLine
 10
1558.385460711939
 20
861.2814203229582
 30
0.0
 11
1558.385460711939
 21
860.9814203229586
 31
0.0
  0
LINE
  5
70FE
330
1E
100
AcDbEntity
  8
躯体と製品
  6
DASHED1
 62
     4
100
AcDbLine
 10
1558.385460711939
 20
861.2814203229582
 30
0.0
 11
1563.985460711939
 21
861.2814203229582
 31
0.0
  0
LINE
  5
70FF
330
1E
100
AcDbEntity
  8
躯体と製品
  6
DASHED1
 62
     4
100
AcDbLine
 10
1558.385460711939
 20
860.9814203229586
 30
0.0
 11
1563.985460711939
 21
860.9814203229586
 31
0.0
  0
LINE
  5
7100
330
1E
100
AcDbEntity
  8
躯体と製品
  6
DASHED1
 62
     4
100
AcDbLine
 10
1559.985460711939
 20
841.1074453229582
 30
0.0
 11
1559.985460711939
 21
840.3314203229584
 31
0.0
  0
LINE
  5
7101
330
1E
100
AcDbEntity
  8
躯体と製品
  6
DASHED1
 62
     4
100
AcDbLine
 10
1562.385460711938
 20
841.0369753229584
 30
0.0
 11
1562.385460711938
 21
841.8130003229583
 31
0.0
  0
LINE
  5
7102
330
1E
100
AcDbEntity
  8
躯体と製品
  6
DASHED1
 62
     4
100
AcDbLine
 10
1559.985460711939
 20
839.6963353229585
 30
0.0
 11
1562.385460711938
 21
840.4018903229584
 31
0.0
  0
LINE
  5
7103
330
1E
100
AcDbEntity
  8
躯体と製品
  6
DASHED1
 62
     4
100
AcDbLine
 10
1559.985460711939
 20
840.3314203229584
 30
0.0
 11
1562.385460711938
 21
841.0369753229584
 31
0.0
  0
LINE
  5
7104
330
1E
100
AcDbEntity
  8
躯体と製品
  6
DASHED1
 62
     4
100
AcDbLine
 10
1559.435460711938
 20
840.0138803229584
 30
0.0
 11
1562.935460711939
 21
840.7194353229582
 31
0.0
  0
LINE
  5
7105
330
1E
100
AcDbEntity
  8
躯体と製品
  6
DASHED1
 62
     4
100
AcDbLine
 10
1559.435460711938
 20
840.0138803229584
 30
0.0
 11
1559.985460711939
 21
839.6963353229585
 31
0.0
  0
LINE
  5
7106
330
1E
100
AcDbEntity
  8
躯体と製品
  6
DASHED1
 62
     4
100
AcDbLine
 10
1559.435460711938
 20
840.0138803229584
 30
0.0
 11
1559.985460711939
 21
840.3314203229584
 31
0.0
  0
LINE
  5
7107
330
1E
100
AcDbEntity
  8
躯体と製品
  6
DASHED1
 62
     4
100
AcDbLine
 10
1562.935460711939
 20
840.7194353229582
 30
0.0
 11
1562.385460711938
 21
840.4018903229584
 31
0.0
  0
LINE
  5
7108
330
1E
100
AcDbEntity
  8
躯体と製品
  6
DASHED1
 62
     4
100
AcDbLine
 10
1562.385460711938
 20
841.0369753229584
 30
0.0
 11
1562.935460711939
 21
840.7194353229582
 31
0.0
  0
LINE
  5
7109
330
1E
100
AcDbEntity
  8
躯体と製品
  6
DASHED1
 62
     4
100
AcDbLine
 10
1559.985460711939
 20
842.5185603229584
 30
0.0
 11
1559.985460711939
 21
841.7425303229583
 31
0.0
  0
LINE
  5
710A
330
1E
100
AcDbEntity
  8
躯体と製品
  6
DASHED1
 62
     4
100
AcDbLine
 10
1562.385460711938
 20
842.4480853229583
 30
0.0
 11
1562.385460711938
 21
843.2241153229583
 31
0.0
  0
LINE
  5
710B
330
1E
100
AcDbEntity
  8
躯体と製品
  6
DASHED1
 62
     4
100
AcDbLine
 10
1559.985460711939
 20
841.1074453229582
 30
0.0
 11
1562.385460711938
 21
841.8130003229583
 31
0.0
  0
LINE
  5
710C
330
1E
100
AcDbEntity
  8
躯体と製品
  6
DASHED1
 62
     4
100
AcDbLine
 10
1559.985460711939
 20
841.7425303229583
 30
0.0
 11
1562.385460711938
 21
842.4480853229583
 31
0.0
  0
LINE
  5
710D
330
1E
100
AcDbEntity
  8
躯体と製品
  6
DASHED1
 62
     4
100
AcDbLine
 10
1559.435460711938
 20
841.4249903229583
 30
0.0
 11
1562.935460711939
 21
842.1305453229583
 31
0.0
  0
LINE
  5
710E
330
1E
100
AcDbEntity
  8
躯体と製品
  6
DASHED1
 62
     4
100
AcDbLine
 10
1559.435460711938
 20
841.4249903229583
 30
0.0
 11
1559.985460711939
 21
841.1074453229582
 31
0.0
  0
LINE
  5
710F
330
1E
100
AcDbEntity
  8
躯体と製品
  6
DASHED1
 62
     4
100
AcDbLine
 10
1559.435460711938
 20
841.4249903229583
 30
0.0
 11
1559.985460711939
 21
841.7425303229583
 31
0.0
  0
LINE
  5
7110
330
1E
100
AcDbEntity
  8
躯体と製品
  6
DASHED1
 62
     4
100
AcDbLine
 10
1562.935460711939
 20
842.1305453229583
 30
0.0
 11
1562.385460711938
 21
841.8130003229583
 31
0.0
  0
LINE
  5
7111
330
1E
100
AcDbEntity
  8
躯体と製品
  6
DASHED1
 62
     4
100
AcDbLine
 10
1562.385460711938
 20
842.4480853229583
 30
0.0
 11
1562.935460711939
 21
842.1305453229583
 31
0.0
  0
LINE
  5
7112
330
1E
100
AcDbEntity
  8
躯体と製品
  6
DASHED1
 62
     4
100
AcDbLine
 10
1559.985460711939
 20
843.9296703229583
 30
0.0
 11
1559.985460711939
 21
843.1536453229583
 31
0.0
  0
LINE
  5
7113
330
1E
100
AcDbEntity
  8
躯体と製品
  6
DASHED1
 62
     4
100
AcDbLine
 10
1562.385460711938
 20
843.8592003229583
 30
0.0
 11
1562.385460711938
 21
844.6352253229584
 31
0.0
  0
LINE
  5
7114
330
1E
100
AcDbEntity
  8
躯体と製品
  6
DASHED1
 62
     4
100
AcDbLine
 10
1559.985460711939
 20
842.5185603229584
 30
0.0
 11
1562.385460711938
 21
843.2241153229583
 31
0.0
  0
LINE
  5
7115
330
1E
100
AcDbEntity
  8
躯体と製品
  6
DASHED1
 62
     4
100
AcDbLine
 10
1559.985460711939
 20
843.1536453229583
 30
0.0
 11
1562.385460711938
 21
843.8592003229583
 31
0.0
  0
LINE
  5
7116
330
1E
100
AcDbEntity
  8
躯体と製品
  6
DASHED1
 62
     4
100
AcDbLine
 10
1559.435460711938
 20
842.8361003229584
 30
0.0
 11
1562.935460711939
 21
843.5416553229583
 31
0.0
  0
LINE
  5
7117
330
1E
100
AcDbEntity
  8
躯体と製品
  6
DASHED1
 62
     4
100
AcDbLine
 10
1559.435460711938
 20
842.8361003229584
 30
0.0
 11
1559.985460711939
 21
842.5185603229584
 31
0.0
  0
LINE
  5
7118
330
1E
100
AcDbEntity
  8
躯体と製品
  6
DASHED1
 62
     4
100
AcDbLine
 10
1559.435460711938
 20
842.8361003229584
 30
0.0
 11
1559.985460711939
 21
843.1536453229583
 31
0.0
  0
LINE
  5
7119
330
1E
100
AcDbEntity
  8
躯体と製品
  6
DASHED1
 62
     4
100
AcDbLine
 10
1562.935460711939
 20
843.5416553229583
 30
0.0
 11
1562.385460711938
 21
843.2241153229583
 31
0.0
  0
LINE
  5
711A
330
1E
100
AcDbEntity
  8
躯体と製品
  6
DASHED1
 62
     4
100
AcDbLine
 10
1562.385460711938
 20
843.8592003229583
 30
0.0
 11
1562.935460711939
 21
843.5416553229583
 31
0.0
  0
LINE
  5
711B
330
1E
100
AcDbEntity
  8
躯体と製品
  6
DASHED1
 62
     4
100
AcDbLine
 10
1559.985460711939
 20
845.3407803229584
 30
0.0
 11
1559.985460711939
 21
844.5647553229584
 31
0.0
  0
LINE
  5
711C
330
1E
100
AcDbEntity
  8
躯体と製品
  6
DASHED1
 62
     4
100
AcDbLine
 10
1562.385460711938
 20
845.2703103229584
 30
0.0
 11
1562.385460711938
 21
846.0463353229586
 31
0.0
  0
LINE
  5
711D
330
1E
100
AcDbEntity
  8
躯体と製品
  6
DASHED1
 62
     4
100
AcDbLine
 10
1559.985460711939
 20
843.9296703229583
 30
0.0
 11
1562.385460711938
 21
844.6352253229584
 31
0.0
  0
LINE
  5
711E
330
1E
100
AcDbEntity
  8
躯体と製品
  6
DASHED1
 62
     4
100
AcDbLine
 10
1559.985460711939
 20
844.5647553229584
 30
0.0
 11
1562.385460711938
 21
845.2703103229584
 31
0.0
  0
LINE
  5
711F
330
1E
100
AcDbEntity
  8
躯体と製品
  6
DASHED1
 62
     4
100
AcDbLine
 10
1559.435460711938
 20
844.2472103229583
 30
0.0
 11
1562.935460711939
 21
844.9527653229585
 31
0.0
  0
LINE
  5
7120
330
1E
100
AcDbEntity
  8
躯体と製品
  6
DASHED1
 62
     4
100
AcDbLine
 10
1559.435460711938
 20
844.2472103229583
 30
0.0
 11
1559.985460711939
 21
843.9296703229583
 31
0.0
  0
LINE
  5
7121
330
1E
100
AcDbEntity
  8
躯体と製品
  6
DASHED1
 62
     4
100
AcDbLine
 10
1559.435460711938
 20
844.2472103229583
 30
0.0
 11
1559.985460711939
 21
844.5647553229584
 31
0.0
  0
LINE
  5
7122
330
1E
100
AcDbEntity
  8
躯体と製品
  6
DASHED1
 62
     4
100
AcDbLine
 10
1562.935460711939
 20
844.9527653229585
 30
0.0
 11
1562.385460711938
 21
844.6352253229584
 31
0.0
  0
LINE
  5
7123
330
1E
100
AcDbEntity
  8
躯体と製品
  6
DASHED1
 62
     4
100
AcDbLine
 10
1562.385460711938
 20
845.2703103229584
 30
0.0
 11
1562.935460711939
 21
844.9527653229585
 31
0.0
  0
LINE
  5
7124
330
1E
100
AcDbEntity
  8
躯体と製品
  6
DASHED1
 62
     4
100
AcDbLine
 10
1559.985460711939
 20
846.7518903229585
 30
0.0
 11
1559.985460711939
 21
845.9758653229584
 31
0.0
  0
LINE
  5
7125
330
1E
100
AcDbEntity
  8
躯体と製品
  6
DASHED1
 62
     4
100
AcDbLine
 10
1562.385460711938
 20
846.6814203229585
 30
0.0
 11
1562.385460711938
 21
847.4574453229585
 31
0.0
  0
LINE
  5
7126
330
1E
100
AcDbEntity
  8
躯体と製品
  6
DASHED1
 62
     4
100
AcDbLine
 10
1559.985460711939
 20
845.3407803229584
 30
0.0
 11
1562.385460711938
 21
846.0463353229586
 31
0.0
  0
LINE
  5
7127
330
1E
100
AcDbEntity
  8
躯体と製品
  6
DASHED1
 62
     4
100
AcDbLine
 10
1559.985460711939
 20
845.9758653229584
 30
0.0
 11
1562.385460711938
 21
846.6814203229585
 31
0.0
  0
LINE
  5
7128
330
1E
100
AcDbEntity
  8
躯体と製品
  6
DASHED1
 62
     4
100
AcDbLine
 10
1559.435460711938
 20
845.6583203229586
 30
0.0
 11
1562.935460711939
 21
846.3638803229583
 31
0.0
  0
LINE
  5
7129
330
1E
100
AcDbEntity
  8
躯体と製品
  6
DASHED1
 62
     4
100
AcDbLine
 10
1559.435460711938
 20
845.6583203229586
 30
0.0
 11
1559.985460711939
 21
845.3407803229584
 31
0.0
  0
LINE
  5
712A
330
1E
100
AcDbEntity
  8
躯体と製品
  6
DASHED1
 62
     4
100
AcDbLine
 10
1559.435460711938
 20
845.6583203229586
 30
0.0
 11
1559.985460711939
 21
845.9758653229584
 31
0.0
  0
LINE
  5
712B
330
1E
100
AcDbEntity
  8
躯体と製品
  6
DASHED1
 62
     4
100
AcDbLine
 10
1562.385460711938
 20
846.0463353229586
 30
0.0
 11
1562.935460711939
 21
846.3638803229583
 31
0.0
  0
LINE
  5
712C
330
1E
100
AcDbEntity
  8
躯体と製品
  6
DASHED1
 62
     4
100
AcDbLine
 10
1562.385460711938
 20
846.6814203229585
 30
0.0
 11
1562.935460711939
 21
846.3638803229583
 31
0.0
  0
LINE
  5
712D
330
1E
100
AcDbEntity
  8
躯体と製品
  6
DASHED1
 62
     4
100
AcDbLine
 10
1559.985460711939
 20
848.1630003229586
 30
0.0
 11
1559.985460711939
 21
847.3869753229585
 31
0.0
  0
LINE
  5
712E
330
1E
100
AcDbEntity
  8
躯体と製品
  6
DASHED1
 62
     4
100
AcDbLine
 10
1562.385460711938
 20
848.0925303229584
 30
0.0
 11
1562.385460711938
 21
848.8685603229585
 31
0.0
  0
LINE
  5
712F
330
1E
100
AcDbEntity
  8
躯体と製品
  6
DASHED1
 62
     4
100
AcDbLine
 10
1559.985460711939
 20
846.7518903229585
 30
0.0
 11
1562.385460711938
 21
847.4574453229585
 31
0.0
  0
LINE
  5
7130
330
1E
100
AcDbEntity
  8
躯体と製品
  6
DASHED1
 62
     4
100
AcDbLine
 10
1559.985460711939
 20
847.3869753229585
 30
0.0
 11
1562.385460711938
 21
848.0925303229584
 31
0.0
  0
LINE
  5
7131
330
1E
100
AcDbEntity
  8
躯体と製品
  6
DASHED1
 62
     4
100
AcDbLine
 10
1559.435460711938
 20
847.0694353229585
 30
0.0
 11
1562.935460711939
 21
847.7749903229584
 31
0.0
  0
LINE
  5
7132
330
1E
100
AcDbEntity
  8
躯体と製品
  6
DASHED1
 62
     4
100
AcDbLine
 10
1559.435460711938
 20
847.0694353229585
 30
0.0
 11
1559.985460711939
 21
846.7518903229585
 31
0.0
  0
LINE
  5
7133
330
1E
100
AcDbEntity
  8
躯体と製品
  6
DASHED1
 62
     4
100
AcDbLine
 10
1559.435460711938
 20
847.0694353229585
 30
0.0
 11
1559.985460711939
 21
847.3869753229585
 31
0.0
  0
LINE
  5
7134
330
1E
100
AcDbEntity
  8
躯体と製品
  6
DASHED1
 62
     4
100
AcDbLine
 10
1562.935460711939
 20
847.7749903229584
 30
0.0
 11
1562.385460711938
 21
847.4574453229585
 31
0.0
  0
LINE
  5
7135
330
1E
100
AcDbEntity
  8
躯体と製品
  6
DASHED1
 62
     4
100
AcDbLine
 10
1562.385460711938
 20
848.0925303229584
 30
0.0
 11
1562.935460711939
 21
847.7749903229584
 31
0.0
  0
LINE
  5
7136
330
1E
100
AcDbEntity
  8
躯体と製品
  6
DASHED1
 62
     4
100
AcDbLine
 10
1559.985460711939
 20
849.5741153229584
 30
0.0
 11
1559.985460711939
 21
848.7980853229585
 31
0.0
  0
LINE
  5
7137
330
1E
100
AcDbEntity
  8
躯体と製品
  6
DASHED1
 62
     4
100
AcDbLine
 10
1562.385460711938
 20
849.5036453229586
 30
0.0
 11
1562.385460711938
 21
850.2796703229586
 31
0.0
  0
LINE
  5
7138
330
1E
100
AcDbEntity
  8
躯体と製品
  6
DASHED1
 62
     4
100
AcDbLine
 10
1559.985460711939
 20
848.1630003229586
 30
0.0
 11
1562.385460711938
 21
848.8685603229585
 31
0.0
  0
LINE
  5
7139
330
1E
100
AcDbEntity
  8
躯体と製品
  6
DASHED1
 62
     4
100
AcDbLine
 10
1559.985460711939
 20
848.7980853229585
 30
0.0
 11
1562.385460711938
 21
849.5036453229586
 31
0.0
  0
LINE
  5
713A
330
1E
100
AcDbEntity
  8
躯体と製品
  6
DASHED1
 62
     4
100
AcDbLine
 10
1559.435460711938
 20
848.4805453229586
 30
0.0
 11
1562.935460711939
 21
849.1861003229585
 31
0.0
  0
LINE
  5
713B
330
1E
100
AcDbEntity
  8
躯体と製品
  6
DASHED1
 62
     4
100
AcDbLine
 10
1559.435460711938
 20
848.4805453229586
 30
0.0
 11
1559.985460711939
 21
848.1630003229586
 31
0.0
  0
LINE
  5
713C
330
1E
100
AcDbEntity
  8
躯体と製品
  6
DASHED1
 62
     4
100
AcDbLine
 10
1559.435460711938
 20
848.4805453229586
 30
0.0
 11
1559.985460711939
 21
848.7980853229585
 31
0.0
  0
LINE
  5
713D
330
1E
100
AcDbEntity
  8
躯体と製品
  6
DASHED1
 62
     4
100
AcDbLine
 10
1562.935460711939
 20
849.1861003229585
 30
0.0
 11
1562.385460711938
 21
848.8685603229585
 31
0.0
  0
LINE
  5
713E
330
1E
100
AcDbEntity
  8
躯体と製品
  6
DASHED1
 62
     4
100
AcDbLine
 10
1562.385460711938
 20
849.5036453229586
 30
0.0
 11
1562.935460711939
 21
849.1861003229585
 31
0.0
  0
LINE
  5
713F
330
1E
100
AcDbEntity
  8
躯体と製品
  6
DASHED1
 62
     4
100
AcDbLine
 10
1559.985460711939
 20
850.9852253229587
 30
0.0
 11
1559.985460711939
 21
850.2092003229586
 31
0.0
  0
LINE
  5
7140
330
1E
100
AcDbEntity
  8
躯体と製品
  6
DASHED1
 62
     4
100
AcDbLine
 10
1562.385460711938
 20
850.9147553229583
 30
0.0
 11
1562.385460711938
 21
851.6907803229582
 31
0.0
  0
LINE
  5
7141
330
1E
100
AcDbEntity
  8
躯体と製品
  6
DASHED1
 62
     4
100
AcDbLine
 10
1559.985460711939
 20
849.5741153229584
 30
0.0
 11
1562.385460711938
 21
850.2796703229586
 31
0.0
  0
LINE
  5
7142
330
1E
100
AcDbEntity
  8
躯体と製品
  6
DASHED1
 62
     4
100
AcDbLine
 10
1559.985460711939
 20
850.2092003229586
 30
0.0
 11
1562.385460711938
 21
850.9147553229583
 31
0.0
  0
LINE
  5
7143
330
1E
100
AcDbEntity
  8
躯体と製品
  6
DASHED1
 62
     4
100
AcDbLine
 10
1559.435460711938
 20
849.8916553229586
 30
0.0
 11
1562.935460711939
 21
850.5972103229582
 31
0.0
  0
LINE
  5
7144
330
1E
100
AcDbEntity
  8
躯体と製品
  6
DASHED1
 62
     4
100
AcDbLine
 10
1559.435460711938
 20
849.8916553229586
 30
0.0
 11
1559.985460711939
 21
849.5741153229584
 31
0.0
  0
LINE
  5
7145
330
1E
100
AcDbEntity
  8
躯体と製品
  6
DASHED1
 62
     4
100
AcDbLine
 10
1559.435460711938
 20
849.8916553229586
 30
0.0
 11
1559.985460711939
 21
850.2092003229586
 31
0.0
  0
LINE
  5
7146
330
1E
100
AcDbEntity
  8
躯体と製品
  6
DASHED1
 62
     4
100
AcDbLine
 10
1562.935460711939
 20
850.5972103229582
 30
0.0
 11
1562.385460711938
 21
850.2796703229586
 31
0.0
  0
LINE
  5
7147
330
1E
100
AcDbEntity
  8
躯体と製品
  6
DASHED1
 62
     4
100
AcDbLine
 10
1562.385460711938
 20
850.9147553229583
 30
0.0
 11
1562.935460711939
 21
850.5972103229582
 31
0.0
  0
LINE
  5
7148
330
1E
100
AcDbEntity
  8
躯体と製品
  6
DASHED1
 62
     4
100
AcDbLine
 10
1559.985460711939
 20
852.3963353229582
 30
0.0
 11
1559.985460711939
 21
851.6203103229582
 31
0.0
  0
LINE
  5
7149
330
1E
100
AcDbEntity
  8
躯体と製品
  6
DASHED1
 62
     4
100
AcDbLine
 10
1562.385460711938
 20
852.3258653229582
 30
0.0
 11
1562.385460711938
 21
853.1018903229583
 31
0.0
  0
LINE
  5
714A
330
1E
100
AcDbEntity
  8
躯体と製品
  6
DASHED1
 62
     4
100
AcDbLine
 10
1559.985460711939
 20
850.9852253229587
 30
0.0
 11
1562.385460711938
 21
851.6907803229582
 31
0.0
  0
LINE
  5
714B
330
1E
100
AcDbEntity
  8
躯体と製品
  6
DASHED1
 62
     4
100
AcDbLine
 10
1559.985460711939
 20
851.6203103229582
 30
0.0
 11
1562.385460711938
 21
852.3258653229582
 31
0.0
  0
LINE
  5
714C
330
1E
100
AcDbEntity
  8
躯体と製品
  6
DASHED1
 62
     4
100
AcDbLine
 10
1559.435460711938
 20
851.3027653229583
 30
0.0
 11
1562.935460711939
 21
852.0083203229583
 31
0.0
  0
LINE
  5
714D
330
1E
100
AcDbEntity
  8
躯体と製品
  6
DASHED1
 62
     4
100
AcDbLine
 10
1559.435460711938
 20
851.3027653229583
 30
0.0
 11
1559.985460711939
 21
850.9852253229587
 31
0.0
  0
LINE
  5
714E
330
1E
100
AcDbEntity
  8
躯体と製品
  6
DASHED1
 62
     4
100
AcDbLine
 10
1559.435460711938
 20
851.3027653229583
 30
0.0
 11
1559.985460711939
 21
851.6203103229582
 31
0.0
  0
LINE
  5
714F
330
1E
100
AcDbEntity
  8
躯体と製品
  6
DASHED1
 62
     4
100
AcDbLine
 10
1562.935460711939
 20
852.0083203229583
 30
0.0
 11
1562.385460711938
 21
851.6907803229582
 31
0.0
  0
LINE
  5
7150
330
1E
100
AcDbEntity
  8
躯体と製品
  6
DASHED1
 62
     4
100
AcDbLine
 10
1562.385460711938
 20
852.3258653229582
 30
0.0
 11
1562.935460711939
 21
852.0083203229583
 31
0.0
  0
LINE
  5
7151
330
1E
100
AcDbEntity
  8
躯体と製品
  6
DASHED1
 62
     4
100
AcDbLine
 10
1559.985460711939
 20
853.8074453229583
 30
0.0
 11
1559.985460711939
 21
853.0314203229583
 31
0.0
  0
LINE
  5
7152
330
1E
100
AcDbEntity
  8
躯体と製品
  6
DASHED1
 62
     4
100
AcDbLine
 10
1562.385460711938
 20
853.7369753229583
 30
0.0
 11
1562.385460711938
 21
854.5130003229585
 31
0.0
  0
LINE
  5
7153
330
1E
100
AcDbEntity
  8
躯体と製品
  6
DASHED1
 62
     4
100
AcDbLine
 10
1559.985460711939
 20
852.3963353229582
 30
0.0
 11
1562.385460711938
 21
853.1018903229583
 31
0.0
  0
LINE
  5
7154
330
1E
100
AcDbEntity
  8
躯体と製品
  6
DASHED1
 62
     4
100
AcDbLine
 10
1559.985460711939
 20
853.0314203229583
 30
0.0
 11
1562.385460711938
 21
853.7369753229583
 31
0.0
  0
LINE
  5
7155
330
1E
100
AcDbEntity
  8
躯体と製品
  6
DASHED1
 62
     4
100
AcDbLine
 10
1559.435460711938
 20
852.7138803229586
 30
0.0
 11
1562.935460711939
 21
853.4194353229583
 31
0.0
  0
LINE
  5
7156
330
1E
100
AcDbEntity
  8
躯体と製品
  6
DASHED1
 62
     4
100
AcDbLine
 10
1559.435460711938
 20
852.7138803229586
 30
0.0
 11
1559.985460711939
 21
852.3963353229582
 31
0.0
  0
LINE
  5
7157
330
1E
100
AcDbEntity
  8
躯体と製品
  6
DASHED1
 62
     4
100
AcDbLine
 10
1559.435460711938
 20
852.7138803229586
 30
0.0
 11
1559.985460711939
 21
853.0314203229583
 31
0.0
  0
LINE
  5
7158
330
1E
100
AcDbEntity
  8
躯体と製品
  6
DASHED1
 62
     4
100
AcDbLine
 10
1562.935460711939
 20
853.4194353229583
 30
0.0
 11
1562.385460711938
 21
853.1018903229583
 31
0.0
  0
LINE
  5
7159
330
1E
100
AcDbEntity
  8
躯体と製品
  6
DASHED1
 62
     4
100
AcDbLine
 10
1562.385460711938
 20
853.7369753229583
 30
0.0
 11
1562.935460711939
 21
853.4194353229583
 31
0.0
  0
LINE
  5
715A
330
1E
100
AcDbEntity
  8
躯体と製品
  6
DASHED1
 62
     4
100
AcDbLine
 10
1559.985460711939
 20
855.2185603229583
 30
0.0
 11
1559.985460711939
 21
854.4425303229584
 31
0.0
  0
LINE
  5
715B
330
1E
100
AcDbEntity
  8
躯体と製品
  6
DASHED1
 62
     4
100
AcDbLine
 10
1562.385460711938
 20
855.1480853229582
 30
0.0
 11
1562.385460711938
 21
855.9241153229583
 31
0.0
  0
LINE
  5
715C
330
1E
100
AcDbEntity
  8
躯体と製品
  6
DASHED1
 62
     4
100
AcDbLine
 10
1559.985460711939
 20
853.8074453229583
 30
0.0
 11
1562.385460711938
 21
854.5130003229585
 31
0.0
  0
LINE
  5
715D
330
1E
100
AcDbEntity
  8
躯体と製品
  6
DASHED1
 62
     4
100
AcDbLine
 10
1559.985460711939
 20
854.4425303229584
 30
0.0
 11
1562.385460711938
 21
855.1480853229582
 31
0.0
  0
LINE
  5
715E
330
1E
100
AcDbEntity
  8
躯体と製品
  6
DASHED1
 62
     4
100
AcDbLine
 10
1559.435460711938
 20
854.1249903229582
 30
0.0
 11
1562.935460711939
 21
854.8305453229582
 31
0.0
  0
LINE
  5
715F
330
1E
100
AcDbEntity
  8
躯体と製品
  6
DASHED1
 62
     4
100
AcDbLine
 10
1559.435460711938
 20
854.1249903229582
 30
0.0
 11
1559.985460711939
 21
853.8074453229583
 31
0.0
  0
LINE
  5
7160
330
1E
100
AcDbEntity
  8
躯体と製品
  6
DASHED1
 62
     4
100
AcDbLine
 10
1559.435460711938
 20
854.1249903229582
 30
0.0
 11
1559.985460711939
 21
854.4425303229584
 31
0.0
  0
LINE
  5
7161
330
1E
100
AcDbEntity
  8
躯体と製品
  6
DASHED1
 62
     4
100
AcDbLine
 10
1562.935460711939
 20
854.8305453229582
 30
0.0
 11
1562.385460711938
 21
854.5130003229585
 31
0.0
  0
LINE
  5
7162
330
1E
100
AcDbEntity
  8
躯体と製品
  6
DASHED1
 62
     4
100
AcDbLine
 10
1562.385460711938
 20
855.1480853229582
 30
0.0
 11
1562.935460711939
 21
854.8305453229582
 31
0.0
  0
LINE
  5
7163
330
1E
100
AcDbEntity
  8
躯体と製品
  6
DASHED1
 62
     4
100
AcDbLine
 10
1559.985460711939
 20
856.6296703229582
 30
0.0
 11
1559.985460711939
 21
855.8536453229583
 31
0.0
  0
LINE
  5
7164
330
1E
100
AcDbEntity
  8
躯体と製品
  6
DASHED1
 62
     4
100
AcDbLine
 10
1562.385460711938
 20
856.5592003229582
 30
0.0
 11
1562.385460711938
 21
857.3352253229582
 31
0.0
  0
LINE
  5
7165
330
1E
100
AcDbEntity
  8
躯体と製品
  6
DASHED1
 62
     4
100
AcDbLine
 10
1559.985460711939
 20
855.2185603229583
 30
0.0
 11
1562.385460711938
 21
855.9241153229583
 31
0.0
  0
LINE
  5
7166
330
1E
100
AcDbEntity
  8
躯体と製品
  6
DASHED1
 62
     4
100
AcDbLine
 10
1559.985460711939
 20
855.8536453229583
 30
0.0
 11
1562.385460711938
 21
856.5592003229582
 31
0.0
  0
LINE
  5
7167
330
1E
100
AcDbEntity
  8
躯体と製品
  6
DASHED1
 62
     4
100
AcDbLine
 10
1559.435460711938
 20
855.5361003229583
 30
0.0
 11
1562.935460711939
 21
856.2416553229583
 31
0.0
  0
LINE
  5
7168
330
1E
100
AcDbEntity
  8
躯体と製品
  6
DASHED1
 62
     4
100
AcDbLine
 10
1559.435460711938
 20
855.5361003229583
 30
0.0
 11
1559.985460711939
 21
855.2185603229583
 31
0.0
  0
LINE
  5
7169
330
1E
100
AcDbEntity
  8
躯体と製品
  6
DASHED1
 62
     4
100
AcDbLine
 10
1559.435460711938
 20
855.5361003229583
 30
0.0
 11
1559.985460711939
 21
855.8536453229583
 31
0.0
  0
LINE
  5
716A
330
1E
100
AcDbEntity
  8
躯体と製品
  6
DASHED1
 62
     4
100
AcDbLine
 10
1562.935460711939
 20
856.2416553229583
 30
0.0
 11
1562.385460711938
 21
855.9241153229583
 31
0.0
  0
LINE
  5
716B
330
1E
100
AcDbEntity
  8
躯体と製品
  6
DASHED1
 62
     4
100
AcDbLine
 10
1562.385460711938
 20
856.5592003229582
 30
0.0
 11
1562.935460711939
 21
856.2416553229583
 31
0.0
  0
LINE
  5
716C
330
1E
100
AcDbEntity
  8
躯体と製品
  6
DASHED1
 62
     4
100
AcDbLine
 10
1559.985460711939
 20
858.0407803229583
 30
0.0
 11
1562.385460711938
 21
858.7463353229583
 31
0.0
  0
LINE
  5
716D
330
1E
100
AcDbEntity
  8
躯体と製品
  6
DASHED1
 62
     4
100
AcDbLine
 10
1559.985460711939
 20
858.6758653229583
 30
0.0
 11
1562.385460711938
 21
859.3814203229582
 31
0.0
  0
LINE
  5
716E
330
1E
100
AcDbEntity
  8
躯体と製品
  6
DASHED1
 62
     4
100
AcDbLine
 10
1559.435460711938
 20
858.3583203229583
 30
0.0
 11
1562.935460711939
 21
859.0638803229582
 31
0.0
  0
LINE
  5
716F
330
1E
100
AcDbEntity
  8
躯体と製品
  6
DASHED1
 62
     4
100
AcDbLine
 10
1559.435460711938
 20
858.3583203229583
 30
0.0
 11
1559.985460711939
 21
858.0407803229583
 31
0.0
  0
LINE
  5
7170
330
1E
100
AcDbEntity
  8
躯体と製品
  6
DASHED1
 62
     4
100
AcDbLine
 10
1559.435460711938
 20
858.3583203229583
 30
0.0
 11
1559.985460711939
 21
858.6758653229583
 31
0.0
  0
LINE
  5
7171
330
1E
100
AcDbEntity
  8
躯体と製品
  6
DASHED1
 62
     4
100
AcDbLine
 10
1562.935460711939
 20
859.0638803229582
 30
0.0
 11
1562.385460711938
 21
858.7463353229583
 31
0.0
  0
LINE
  5
7172
330
1E
100
AcDbEntity
  8
躯体と製品
  6
DASHED1
 62
     4
100
AcDbLine
 10
1562.385460711938
 20
859.3814203229582
 30
0.0
 11
1562.935460711939
 21
859.0638803229582
 31
0.0
  0
LINE
  5
7173
330
1E
100
AcDbEntity
  8
躯体と製品
  6
DASHED1
 62
     4
100
AcDbLine
 10
1560.336350711939
 20
836.8350503229583
 30
0.0
 11
1562.067055711939
 21
837.5443853229583
 31
0.0
  0
LINE
  5
7174
330
1E
100
AcDbEntity
  8
躯体と製品
  6
DASHED1
 62
     4
100
AcDbLine
 10
1562.678170711938
 20
837.8972103229584
 30
0.0
 11
1559.718695711939
 21
837.1916553229585
 31
0.0
  0
LINE
  5
7175
330
1E
100
AcDbEntity
  8
躯体と製品
  6
DASHED1
 62
     4
100
AcDbLine
 10
1560.268695711939
 20
837.5092003229584
 30
0.0
 11
1562.128170711939
 21
838.2147553229582
 31
0.0
  0
LINE
  5
7176
330
1E
100
AcDbEntity
  8
躯体と製品
  6
DASHED1
 62
     4
100
AcDbLine
 10
1562.195700711939
 20
838.9554953229582
 30
0.0
 11
1560.194730711939
 21
838.2461653229587
 31
0.0
  0
LINE
  5
7177
330
1E
100
AcDbEntity
  8
躯体と製品
  6
DASHED1
 62
     4
100
AcDbLine
 10
1559.577075711939
 20
838.6027653229584
 30
0.0
 11
1562.806815711939
 21
839.3083203229583
 31
0.0
  0
LINE
  5
7178
330
1E
100
AcDbEntity
  8
躯体と製品
  6
DASHED1
 62
     4
100
AcDbLine
 10
1562.256815711939
 20
839.6258653229583
 30
0.0
 11
1560.127075711939
 21
838.9203103229583
 31
0.0
  0
LINE
  5
7179
330
1E
100
AcDbEntity
  8
躯体と製品
  6
DASHED1
 62
     4
100
AcDbLine
 10
1562.256815711939
 20
839.6258653229583
 30
0.0
 11
1562.325965711939
 21
840.3844003229584
 31
0.0
  0
LINE
  5
717A
330
1E
100
AcDbEntity
  8
躯体と製品
  6
DASHED1
 62
     4
100
AcDbLine
 10
1562.128170711939
 20
838.2147553229582
 30
0.0
 11
1562.195700711939
 21
838.9554953229582
 31
0.0
  0
LINE
  5
717B
330
1E
100
AcDbEntity
  8
躯体と製品
  6
DASHED1
 62
     4
100
AcDbLine
 10
1560.194730711939
 20
838.2461653229587
 30
0.0
 11
1560.268695711939
 21
837.5092003229584
 31
0.0
  0
LINE
  5
717C
330
1E
100
AcDbEntity
  8
躯体と製品
  6
DASHED1
 62
     4
100
AcDbLine
 10
1560.047370711939
 20
839.7145353229586
 30
0.0
 11
1560.127075711939
 21
838.9203103229583
 31
0.0
  0
LINE
  5
717D
330
1E
100
AcDbEntity
  8
躯体と製品
  6
DASHED1
 62
     4
100
AcDbLine
 10
1559.718695711939
 20
837.1916553229585
 30
0.0
 11
1560.336350711939
 21
836.8350503229583
 31
0.0
  0
LINE
  5
717E
330
1E
100
AcDbEntity
  8
躯体と製品
  6
DASHED1
 62
     4
100
AcDbLine
 10
1560.268695711939
 20
837.5092003229584
 30
0.0
 11
1559.718695711939
 21
837.1916553229585
 31
0.0
  0
LINE
  5
717F
330
1E
100
AcDbEntity
  8
躯体と製品
  6
DASHED1
 62
     4
100
AcDbLine
 10
1559.577075711939
 20
838.6027653229584
 30
0.0
 11
1560.194730711939
 21
838.2461653229587
 31
0.0
  0
LINE
  5
7180
330
1E
100
AcDbEntity
  8
躯体と製品
  6
DASHED1
 62
     4
100
AcDbLine
 10
1559.577075711939
 20
838.6027653229584
 30
0.0
 11
1560.127075711939
 21
838.9203103229583
 31
0.0
  0
LINE
  5
7181
330
1E
100
AcDbEntity
  8
躯体と製品
  6
DASHED1
 62
     4
100
AcDbLine
 10
1562.678170711938
 20
837.8972103229584
 30
0.0
 11
1562.067055711939
 21
837.5443853229583
 31
0.0
  0
LINE
  5
7182
330
1E
100
AcDbEntity
  8
躯体と製品
  6
DASHED1
 62
     4
100
AcDbLine
 10
1562.128170711939
 20
838.2147553229582
 30
0.0
 11
1562.678170711938
 21
837.8972103229584
 31
0.0
  0
LINE
  5
7183
330
1E
100
AcDbEntity
  8
躯体と製品
  6
DASHED1
 62
     4
100
AcDbLine
 10
1562.806815711939
 20
839.3083203229583
 30
0.0
 11
1562.195700711939
 21
838.9554953229582
 31
0.0
  0
LINE
  5
7184
330
1E
100
AcDbEntity
  8
躯体と製品
  6
DASHED1
 62
     4
100
AcDbLine
 10
1562.256815711939
 20
839.6258653229583
 30
0.0
 11
1562.806815711939
 21
839.3083203229583
 31
0.0
  0
LINE
  5
7185
330
1E
100
AcDbEntity
  8
躯体と製品
  6
DASHED1
 62
     4
100
AcDbLine
 10
1559.985460711939
 20
859.3814203229582
 30
0.0
 11
1559.985460711939
 21
858.6758653229583
 31
0.0
  0
LINE
  5
7186
330
1E
100
AcDbEntity
  8
躯体と製品
  6
DASHED1
 62
     4
100
AcDbLine
 10
1559.985460711939
 20
858.0407803229583
 30
0.0
 11
1559.985460711939
 21
857.2647553229582
 31
0.0
  0
LINE
  5
7187
330
1E
100
AcDbEntity
  8
躯体と製品
  6
DASHED1
 62
     4
100
AcDbLine
 10
1562.385460711938
 20
857.9703103229585
 30
0.0
 11
1562.385460711938
 21
858.7463353229583
 31
0.0
  0
LINE
  5
7188
330
1E
100
AcDbEntity
  8
躯体と製品
  6
DASHED1
 62
     4
100
AcDbLine
 10
1559.985460711939
 20
856.6296703229582
 30
0.0
 11
1562.385460711938
 21
857.3352253229582
 31
0.0
  0
LINE
  5
7189
330
1E
100
AcDbEntity
  8
躯体と製品
  6
DASHED1
 62
     4
100
AcDbLine
 10
1559.985460711939
 20
857.2647553229582
 30
0.0
 11
1562.385460711938
 21
857.9703103229585
 31
0.0
  0
LINE
  5
718A
330
1E
100
AcDbEntity
  8
躯体と製品
  6
DASHED1
 62
     4
100
AcDbLine
 10
1559.435460711938
 20
856.9472103229584
 30
0.0
 11
1562.935460711939
 21
857.6527653229582
 31
0.0
  0
LINE
  5
718B
330
1E
100
AcDbEntity
  8
躯体と製品
  6
DASHED1
 62
     4
100
AcDbLine
 10
1559.435460711938
 20
856.9472103229584
 30
0.0
 11
1559.985460711939
 21
856.6296703229582
 31
0.0
  0
LINE
  5
718C
330
1E
100
AcDbEntity
  8
躯体と製品
  6
DASHED1
 62
     4
100
AcDbLine
 10
1559.435460711938
 20
856.9472103229584
 30
0.0
 11
1559.985460711939
 21
857.2647553229582
 31
0.0
  0
LINE
  5
718D
330
1E
100
AcDbEntity
  8
躯体と製品
  6
DASHED1
 62
     4
100
AcDbLine
 10
1562.935460711939
 20
857.6527653229582
 30
0.0
 11
1562.385460711938
 21
857.3352253229582
 31
0.0
  0
LINE
  5
718E
330
1E
100
AcDbEntity
  8
躯体と製品
  6
DASHED1
 62
     4
100
AcDbLine
 10
1562.385460711938
 20
857.9703103229585
 30
0.0
 11
1562.935460711939
 21
857.6527653229582
 31
0.0
  0
LINE
  5
718F
330
1E
100
AcDbEntity
  8
躯体と製品
  6
DASHED1
 62
     4
100
AcDbLine
 10
1561.185460711939
 20
834.3814203229582
 30
0.0
 11
1560.336350711939
 21
836.8350503229583
 31
0.0
  0
LINE
  5
7190
330
1E
100
AcDbEntity
  8
躯体と製品
  6
DASHED1
 62
     4
100
AcDbLine
 10
1562.067055711939
 20
837.5443853229583
 30
0.0
 11
1561.185460711939
 21
834.3814203229582
 31
0.0
  0
LINE
  5
7191
330
1E
100
AcDbEntity
  8
躯体と製品
  6
DASHED1
 62
     4
100
AcDbLine
 10
1558.385460711939
 20
860.9814203229586
 30
0.0
 11
1559.985460711939
 21
859.3814203229582
 31
0.0
  0
LINE
  5
7192
330
1E
100
AcDbEntity
  8
躯体と製品
  6
DASHED1
 62
     4
100
AcDbLine
 10
1559.985460711939
 20
859.3814203229582
 30
0.0
 11
1562.385460711938
 21
859.3814203229582
 31
0.0
  0
LINE
  5
7193
330
1E
100
AcDbEntity
  8
躯体と製品
  6
DASHED1
 62
     4
100
AcDbLine
 10
1563.985460711939
 20
861.2814203229582
 30
0.0
 11
1563.985460711939
 21
860.9814203229586
 31
0.0
  0
LINE
  5
7194
330
1E
100
AcDbEntity
  8
躯体と製品
  6
DASHED1
 62
     4
100
AcDbLine
 10
1563.985460711939
 20
860.9814203229586
 30
0.0
 11
1562.385460711938
 21
859.3814203229582
 31
0.0
  0
LINE
  5
7195
330
1E
100
AcDbEntity
  8
躯体と製品
  6
Continuous
 62
     4
100
AcDbLine
 10
1581.185460711939
 20
861.3143172976995
 30
0.0
 11
1580.21835768668
 21
862.2814203229582
 31
0.0
  0
LINE
  5
7196
330
1E
100
AcDbEntity
  8
躯体と製品
  6
Continuous
 62
     4
100
AcDbLine
 10
1579.804144124307
 20
861.2814203229582
 30
0.0
 11
1578.804144124307
 21
862.2814203229582
 31
0.0
  0
LINE
  5
7197
330
1E
100
AcDbEntity
  8
躯体と製品
  6
Continuous
 62
     4
100
AcDbLine
 10
1578.389930561933
 20
861.2814203229582
 30
0.0
 11
1577.389930561934
 21
862.2814203229582
 31
0.0
  0
LINE
  5
7198
330
1E
100
AcDbEntity
  8
躯体と製品
  6
Continuous
 62
     4
100
AcDbLine
 10
1576.97571699956
 20
861.2814203229582
 30
0.0
 11
1575.97571699956
 21
862.2814203229586
 31
0.0
  0
LINE
  5
7199
330
1E
100
AcDbEntity
  8
躯体と製品
  6
Continuous
 62
     4
100
AcDbLine
 10
1575.561503437187
 20
861.2814203229582
 30
0.0
 11
1574.561503437187
 21
862.2814203229582
 31
0.0
  0
LINE
  5
719A
330
1E
100
AcDbEntity
  8
躯体と製品
  6
Continuous
 62
     4
100
AcDbLine
 10
1574.147289874814
 20
861.2814203229582
 30
0.0
 11
1573.147289874814
 21
862.2814203229582
 31
0.0
  0
LINE
  5
719B
330
1E
100
AcDbEntity
  8
躯体と製品
  6
Continuous
 62
     4
100
AcDbLine
 10
1572.733076312442
 20
861.2814203229582
 30
0.0
 11
1571.733076312441
 21
862.2814203229586
 31
0.0
  0
LINE
  5
719C
330
1E
100
AcDbEntity
  8
躯体と製品
  6
Continuous
 62
     4
100
AcDbLine
 10
1571.318862750068
 20
861.2814203229589
 30
0.0
 11
1570.318862750068
 21
862.2814203229589
 31
0.0
  0
LINE
  5
719D
330
1E
100
AcDbEntity
  8
躯体と製品
  6
Continuous
 62
     4
100
AcDbLine
 10
1569.904649187695
 20
861.2814203229589
 30
0.0
 11
1568.904649187695
 21
862.2814203229586
 31
0.0
  0
LINE
  5
719E
330
1E
100
AcDbEntity
  8
躯体と製品
  6
Continuous
 62
     4
100
AcDbLine
 10
1568.490435625321
 20
861.2814203229589
 30
0.0
 11
1567.490435625322
 21
862.2814203229586
 31
0.0
  0
LINE
  5
719F
330
1E
100
AcDbEntity
  8
躯体と製品
  6
Continuous
 62
     4
100
AcDbLine
 10
1567.076222062948
 20
861.2814203229586
 30
0.0
 11
1566.076222062949
 21
862.2814203229582
 31
0.0
  0
LINE
  5
71A0
330
1E
100
AcDbEntity
  8
躯体と製品
  6
Continuous
 62
     4
100
AcDbLine
 10
1565.662008500575
 20
861.2814203229589
 30
0.0
 11
1564.662008500575
 21
862.2814203229589
 31
0.0
  0
LINE
  5
71A1
330
1E
100
AcDbEntity
  8
躯体と製品
  6
Continuous
 62
     4
100
AcDbLine
 10
1564.247794938201
 20
861.2814203229588
 30
0.0
 11
1563.247794938201
 21
862.2814203229589
 31
0.0
  0
LINE
  5
71A2
330
1E
100
AcDbEntity
  8
躯体と製品
  6
Continuous
 62
     4
100
AcDbLine
 10
1562.833581375831
 20
861.2814203229579
 30
0.0
 11
1561.833581375831
 21
862.2814203229582
 31
0.0
  0
LINE
  5
71A3
330
1E
100
AcDbEntity
  8
躯体と製品
  6
Continuous
 62
     4
100
AcDbLine
 10
1561.419367813457
 20
861.2814203229586
 30
0.0
 11
1560.419367813457
 21
862.2814203229582
 31
0.0
  0
LINE
  5
71A4
330
1E
100
AcDbEntity
  8
躯体と製品
  6
Continuous
 62
     4
100
AcDbLine
 10
1560.005154251084
 20
861.2814203229582
 30
0.0
 11
1559.005154251084
 21
862.2814203229582
 31
0.0
  0
LINE
  5
71A5
330
1E
100
AcDbEntity
  8
躯体と製品
  6
Continuous
 62
     4
100
AcDbLine
 10
1558.59094068871
 20
861.2814203229582
 30
0.0
 11
1557.590940688711
 21
862.2814203229578
 31
0.0
  0
LINE
  5
71A6
330
1E
100
AcDbEntity
  8
躯体と製品
  6
Continuous
 62
     4
100
AcDbLine
 10
1557.176727126337
 20
861.2814203229582
 30
0.0
 11
1556.176727126337
 21
862.2814203229578
 31
0.0
  0
LINE
  5
71A7
330
1E
100
AcDbEntity
  8
躯体と製品
  6
Continuous
 62
     4
100
AcDbLine
 10
1555.762513563964
 20
861.2814203229582
 30
0.0
 11
1554.762513563963
 21
862.2814203229589
 31
0.0
  0
LINE
  5
71A8
330
1E
100
AcDbEntity
  8
躯体と製品
  6
Continuous
 62
     4
100
AcDbLine
 10
1554.34830000159
 20
861.2814203229582
 30
0.0
 11
1553.34830000159
 21
862.2814203229586
 31
0.0
  0
LINE
  5
71A9
330
1E
100
AcDbEntity
  8
躯体と製品
  6
Continuous
 62
     4
100
AcDbLine
 10
1552.934086439217
 20
861.2814203229582
 30
0.0
 11
1551.934086439217
 21
862.2814203229586
 31
0.0
  0
LINE
  5
71AA
330
1E
100
AcDbEntity
  8
躯体と製品
  6
Continuous
 62
     4
100
AcDbLine
 10
1551.519872876845
 20
861.2814203229586
 30
0.0
 11
1551.185460711939
 21
861.615832487865
 31
0.0
  0
LINE
  5
71AB
330
1E
100
AcDbEntity
  8
躯体と製品
  6
Continuous
 62
     3
100
AcDbLine
 10
1551.185460711939
 20
861.2814203229582
 30
0.0
 11
1581.185460711939
 21
861.2814203229582
 31
0.0
  0
LINE
  5
71AC
330
1E
100
AcDbEntity
  8
躯体と製品
  6
Continuous
 62
     3
100
AcDbLine
 10
1581.185460711939
 20
861.2814203229582
 30
0.0
 11
1581.185460711939
 21
862.2814203229582
 31
0.0
  0
LINE
  5
71AD
330
1E
100
AcDbEntity
  8
躯体と製品
  6
Continuous
 62
     3
100
AcDbLine
 10
1581.185460711939
 20
862.2814203229582
 30
0.0
 11
1551.185460711939
 21
862.2814203229582
 31
0.0
  0
LINE
  5
71AE
330
1E
100
AcDbEntity
  8
躯体と製品
  6
Continuous
 62
     3
100
AcDbLine
 10
1551.185460711939
 20
862.2814203229582
 30
0.0
 11
1551.185460711939
 21
861.2814203229582
 31
0.0
  0
LINE
  5
71AF
330
1E
100
AcDbEntity
  8
躯体と製品
  6
Continuous
 62
     4
100
AcDbLine
 10
1506.185460711939
 20
860.2554427946538
 30
0.0
 11
1505.759483183634
 21
860.6814203229589
 31
0.0
  0
LINE
  5
71B0
330
1E
100
AcDbEntity
  8
躯体と製品
  6
Continuous
 62
     4
100
AcDbLine
 10
1505.345269621261
 20
859.6814203229586
 30
0.0
 11
1504.345269621261
 21
860.6814203229587
 31
0.0
  0
LINE
  5
71B1
330
1E
100
AcDbEntity
  8
躯体と製品
  6
Continuous
 62
     4
100
AcDbLine
 10
1503.931056058888
 20
859.6814203229582
 30
0.0
 11
1502.931056058887
 21
860.6814203229586
 31
0.0
  0
LINE
  5
71B2
330
1E
100
AcDbEntity
  8
躯体と製品
  6
Continuous
 62
     4
100
AcDbLine
 10
1502.516842496514
 20
859.6814203229588
 30
0.0
 11
1501.516842496514
 21
860.6814203229586
 31
0.0
  0
LINE
  5
71B3
330
1E
100
AcDbEntity
  8
躯体と製品
  6
Continuous
 62
     4
100
AcDbLine
 10
1501.102628934141
 20
859.6814203229588
 30
0.0
 11
1500.102628934141
 21
860.6814203229586
 31
0.0
  0
LINE
  5
71B4
330
1E
100
AcDbEntity
  8
躯体と製品
  6
Continuous
 62
     4
100
AcDbLine
 10
1499.688415371768
 20
859.6814203229586
 30
0.0
 11
1498.688415371768
 21
860.6814203229586
 31
0.0
  0
LINE
  5
71B5
330
1E
100
AcDbEntity
  8
躯体と製品
  6
Continuous
 62
     4
100
AcDbLine
 10
1498.274201809394
 20
859.6814203229586
 30
0.0
 11
1497.274201809394
 21
860.6814203229582
 31
0.0
  0
LINE
  5
71B6
330
1E
100
AcDbEntity
  8
躯体と製品
  6
Continuous
 62
     4
100
AcDbLine
 10
1496.859988247023
 20
859.6814203229582
 30
0.0
 11
1495.859988247023
 21
860.6814203229586
 31
0.0
  0
LINE
  5
71B7
330
1E
100
AcDbEntity
  8
躯体と製品
  6
Continuous
 62
     4
100
AcDbLine
 10
1495.44577468465
 20
859.6814203229582
 30
0.0
 11
1494.44577468465
 21
860.6814203229582
 31
0.0
  0
LINE
  5
71B8
330
1E
100
AcDbEntity
  8
躯体と製品
  6
Continuous
 62
     4
100
AcDbLine
 10
1494.031561122277
 20
859.6814203229579
 30
0.0
 11
1493.031561122277
 21
860.681420322958
 31
0.0
  0
LINE
  5
71B9
330
1E
100
AcDbEntity
  8
躯体と製品
  6
Continuous
 62
     4
100
AcDbLine
 10
1492.617347559904
 20
859.6814203229579
 30
0.0
 11
1491.617347559903
 21
860.681420322958
 31
0.0
  0
LINE
  5
71BA
330
1E
100
AcDbEntity
  8
躯体と製品
  6
Continuous
 62
     4
100
AcDbLine
 10
1491.20313399753
 20
859.6814203229582
 30
0.0
 11
1490.20313399753
 21
860.681420322958
 31
0.0
  0
LINE
  5
71BB
330
1E
100
AcDbEntity
  8
躯体と製品
  6
Continuous
 62
     4
100
AcDbLine
 10
1489.788920435156
 20
859.6814203229582
 30
0.0
 11
1488.788920435157
 21
860.681420322958
 31
0.0
  0
LINE
  5
71BC
330
1E
100
AcDbEntity
  8
躯体と製品
  6
Continuous
 62
     4
100
AcDbLine
 10
1488.374706872783
 20
859.6814203229582
 30
0.0
 11
1487.374706872783
 21
860.681420322958
 31
0.0
  0
LINE
  5
71BD
330
1E
100
AcDbEntity
  8
躯体と製品
  6
Continuous
 62
     4
100
AcDbLine
 10
1486.96049331041
 20
859.6814203229582
 30
0.0
 11
1485.96049331041
 21
860.6814203229578
 31
0.0
  0
LINE
  5
71BE
330
1E
100
AcDbEntity
  8
躯体と製品
  6
Continuous
 62
     4
100
AcDbLine
 10
1485.546279748038
 20
859.6814203229586
 30
0.0
 11
1484.546279748038
 21
860.6814203229587
 31
0.0
  0
LINE
  5
71BF
330
1E
100
AcDbEntity
  8
躯体と製品
  6
Continuous
 62
     4
100
AcDbLine
 10
1484.132066185665
 20
859.6814203229582
 30
0.0
 11
1483.132066185664
 21
860.6814203229586
 31
0.0
  0
LINE
  5
71C0
330
1E
100
AcDbEntity
  8
躯体と製品
  6
Continuous
 62
     4
100
AcDbLine
 10
1482.717852623291
 20
859.6814203229582
 30
0.0
 11
1481.717852623291
 21
860.6814203229586
 31
0.0
  0
LINE
  5
71C1
330
1E
100
AcDbEntity
  8
躯体と製品
  6
Continuous
 62
     4
100
AcDbLine
 10
1481.303639060918
 20
859.6814203229582
 30
0.0
 11
1480.303639060918
 21
860.6814203229586
 31
0.0
  0
LINE
  5
71C2
330
1E
100
AcDbEntity
  8
躯体と製品
  6
Continuous
 62
     4
100
AcDbLine
 10
1479.889425498545
 20
859.6814203229586
 30
0.0
 11
1478.889425498545
 21
860.6814203229582
 31
0.0
  0
LINE
  5
71C3
330
1E
100
AcDbEntity
  8
躯体と製品
  6
Continuous
 62
     4
100
AcDbLine
 10
1478.475211936171
 20
859.6814203229588
 30
0.0
 11
1477.475211936171
 21
860.6814203229586
 31
0.0
  0
LINE
  5
71C4
330
1E
100
AcDbEntity
  8
躯体と製品
  6
Continuous
 62
     4
100
AcDbLine
 10
1477.060998373797
 20
859.6814203229588
 30
0.0
 11
1476.185460711939
 21
860.5569579848177
 31
0.0
  0
LINE
  5
71C5
330
1E
100
AcDbEntity
  8
躯体と製品
  6
Continuous
 62
     3
100
AcDbLine
 10
1476.185460711938
 20
859.6814203229582
 30
0.0
 11
1506.185460711939
 21
859.6814203229582
 31
0.0
  0
LINE
  5
71C6
330
1E
100
AcDbEntity
  8
躯体と製品
  6
Continuous
 62
     3
100
AcDbLine
 10
1506.185460711939
 20
859.6814203229582
 30
0.0
 11
1506.185460711939
 21
860.6814203229586
 31
0.0
  0
LINE
  5
71C7
330
1E
100
AcDbEntity
  8
躯体と製品
  6
Continuous
 62
     3
100
AcDbLine
 10
1506.185460711939
 20
860.6814203229586
 30
0.0
 11
1476.185460711938
 21
860.6814203229586
 31
0.0
  0
LINE
  5
71C8
330
1E
100
AcDbEntity
  8
躯体と製品
  6
Continuous
 62
     3
100
AcDbLine
 10
1476.185460711938
 20
860.6814203229586
 30
0.0
 11
1476.185460711938
 21
859.6814203229582
 31
0.0
  0
LINE
  5
71C9
330
1E
100
AcDbEntity
  8
躯体と製品
  6
Continuous
 62
     4
100
AcDbLine
 10
1409.529553954117
 20
905.3589497558313
 30
0.0
 11
1410.04404244019
 21
905.8734382419041
 31
0.0
  0
LINE
  5
71CA
330
1E
100
AcDbEntity
  8
躯体と製品
  6
Continuous
 62
     7
100
AcDbLine
 10
1410.06952257472
 20
905.3872483121192
 30
0.0
 11
1409.928083619784
 21
908.0860643442289
 31
0.0
  0
LINE
  5
71CB
330
1E
100
AcDbEntity
  8
躯体と製品
  6
Continuous
 62
     7
100
AcDbLine
 10
1395.090079553401
 20
904.602208968475
 30
0.0
 11
1394.948640598465
 21
907.3010250005848
 31
0.0
  0
LINE
  5
71CC
330
1E
100
AcDbEntity
  8
躯体と製品
  6
Continuous
 62
     4
100
AcDbLine
 10
1406.544697110732
 20
905.2025200371915
 30
0.0
 11
1409.400597016278
 21
908.0584199427377
 31
0.0
  0
LINE
  5
71CD
330
1E
100
AcDbEntity
  8
躯体と製品
  6
Continuous
 62
     4
100
AcDbLine
 10
1405.052268689039
 20
905.1243051778715
 30
0.0
 11
1407.908168594585
 21
907.9802050834176
 31
0.0
  0
LINE
  5
71CE
330
1E
100
AcDbEntity
  8
躯体と製品
  6
Continuous
 62
     4
100
AcDbLine
 10
1403.559840267346
 20
905.0460903185516
 30
0.0
 11
1406.415740172892
 21
907.9019902240979
 31
0.0
  0
LINE
  5
71CF
330
1E
100
AcDbEntity
  8
躯体と製品
  6
Continuous
 62
     4
100
AcDbLine
 10
1402.067411845653
 20
904.9678754592321
 30
0.0
 11
1404.923311751199
 21
907.823775364778
 31
0.0
  0
LINE
  5
71D0
330
1E
100
AcDbEntity
  8
躯体と製品
  6
Continuous
 62
     4
100
AcDbLine
 10
1400.57498342396
 20
904.8896605999123
 30
0.0
 11
1403.430883329506
 21
907.7455605054582
 31
0.0
  0
LINE
  5
71D1
330
1E
100
AcDbEntity
  8
躯体と製品
  6
Continuous
 62
     4
100
AcDbLine
 10
1399.082555002266
 20
904.8114457405922
 30
0.0
 11
1401.938454907813
 21
907.6673456461383
 31
0.0
  0
LINE
  5
71D2
330
1E
100
AcDbEntity
  8
躯体と製品
  6
Continuous
 62
     4
100
AcDbLine
 10
1397.590126580573
 20
904.7332308812727
 30
0.0
 11
1400.446026486119
 21
907.5891307868182
 31
0.0
  0
LINE
  5
71D3
330
1E
100
AcDbEntity
  8
躯体と製品
  6
Continuous
 62
     4
100
AcDbLine
 10
1396.097698158882
 20
904.6550160219531
 30
0.0
 11
1398.953598064428
 21
907.5109159274989
 31
0.0
  0
LINE
  5
71D4
330
1E
100
AcDbEntity
  8
躯体と製品
  6
Continuous
 62
     4
100
AcDbLine
 10
1395.067202262264
 20
905.0387336877079
 30
0.0
 11
1397.461169642735
 21
907.4327010681791
 31
0.0
  0
LINE
  5
71D5
330
1E
100
AcDbEntity
  8
躯体と製品
  6
Continuous
 62
     4
100
AcDbLine
 10
1408.037125532426
 20
905.2807348965117
 30
0.0
 11
1409.973617464534
 21
907.2172268286198
 31
0.0
  0
LINE
  5
71D6
330
1E
100
AcDbEntity
  8
躯体と製品
  6
Continuous
 62
     4
100
AcDbLine
 10
1394.996777286608
 20
906.3825222744254
 30
0.0
 11
1395.968741221042
 21
907.354486208859
 31
0.0
  0
LINE
  5
71E9
330
1E
100
AcDbEntity
  8
躯体と製品
  6
Continuous
 62
     7
100
AcDbLine
 10
1441.185460711939
 20
859.6814203229582
 30
0.0
 11
1441.185460711939
 21
709.6814203229585
 31
0.0
  0
LINE
  5
71EA
330
1E
100
AcDbEntity
  8
躯体と製品
  6
Continuous
 62
     7
100
AcDbLine
 10
1891.185460711939
 20
859.6814203229582
 30
0.0
 11
1891.185460711939
 21
709.6814203229585
 31
0.0
  0
LINE
  5
71EB
330
1E
100
AcDbEntity
  8
躯体と製品
  6
Continuous
 62
     7
100
AcDbLine
 10
1741.185460711939
 20
859.6814203229582
 30
0.0
 11
1741.185460711939
 21
709.6814203229585
 31
0.0
  0
LINE
  5
71EC
330
1E
100
AcDbEntity
  8
躯体と製品
  6
Continuous
 62
     7
100
AcDbLine
 10
1591.185460711939
 20
859.6814203229582
 30
0.0
 11
1591.185460711939
 21
709.6814203229585
 31
0.0
  0
LINE
  5
71ED
330
1E
100
AcDbEntity
  8
躯体と製品
  6
Continuous
 62
     3
100
AcDbLine
 10
1739.89443427036
 20
861.2814203229582
 30
0.0
 11
1731.585460711938
 21
822.8524176152577
 31
0.0
  0
LINE
  5
71EE
330
1E
100
AcDbEntity
  8
躯体と製品
  6
Continuous
 62
     3
100
AcDbLine
 10
1781.185460711938
 20
861.2814203229582
 30
0.0
 11
1781.185460711938
 21
859.6814203229582
 31
0.0
  0
LINE
  5
71EF
330
1E
100
AcDbEntity
  8
躯体と製品
  6
Continuous
 62
     3
100
AcDbLine
 10
1781.185460711938
 20
861.2814203229582
 30
0.0
 11
1739.89443427036
 21
861.2814203229582
 31
0.0
  0
LINE
  5
71F0
330
1E
100
AcDbEntity
  8
躯体と製品
  6
Continuous
 62
     3
100
AcDbLine
 10
1781.185460711938
 20
859.6814203229582
 30
0.0
 11
1741.185460711939
 21
859.6814203229582
 31
0.0
  0
LINE
  5
71F1
330
1E
100
AcDbEntity
  8
躯体と製品
  6
Continuous
 62
     3
100
AcDbLine
 10
1741.185460711939
 20
859.6814203229582
 30
0.0
 11
1733.185460711939
 21
822.6814203229585
 31
0.0
  0
LINE
  5
71F2
330
1E
100
AcDbEntity
  8
躯体と製品
  6
Continuous
 62
     3
100
AcDbLine
 10
1731.585460711938
 20
822.8524176152577
 30
0.0
 11
1731.585460711938
 21
802.6814203229584
 31
0.0
  0
LINE
  5
71F3
330
1E
100
AcDbEntity
  8
躯体と製品
  6
Continuous
 62
     3
100
AcDbLine
 10
1733.185460711939
 20
802.6814203229584
 30
0.0
 11
1731.585460711938
 21
802.6814203229584
 31
0.0
  0
LINE
  5
71F4
330
1E
100
AcDbEntity
  8
躯体と製品
  6
Continuous
 62
     3
100
AcDbLine
 10
1733.185460711939
 20
822.6814203229585
 30
0.0
 11
1733.185460711939
 21
802.6814203229584
 31
0.0
  0
LINE
  5
71F5
330
1E
100
AcDbEntity
  8
躯体と製品
  6
Continuous
 62
     3
100
AcDbLine
 10
1737.185460711939
 20
820.1814203229584
 30
0.0
 11
1737.185460711939
 21
805.1814203229584
 31
0.0
  0
LINE
  5
71F6
330
1E
100
AcDbEntity
  8
躯体と製品
  6
Continuous
 62
     3
100
AcDbLine
 10
1737.185460711939
 20
805.1814203229584
 30
0.0
 11
1738.785460711939
 21
805.1814203229584
 31
0.0
  0
LINE
  5
71F7
330
1E
100
AcDbEntity
  8
躯体と製品
  6
Continuous
 62
     3
100
AcDbLine
 10
1738.785460711939
 20
805.1814203229584
 30
0.0
 11
1738.785460711939
 21
820.1814203229584
 31
0.0
  0
LINE
  5
71F8
330
1E
100
AcDbEntity
  8
躯体と製品
  6
Continuous
 62
     3
100
AcDbLine
 10
1738.785460711939
 20
820.1814203229584
 30
0.0
 11
1737.185460711939
 21
820.1814203229584
 31
0.0
  0
LINE
  5
71F9
330
1E
100
AcDbEntity
  8
躯体と製品
  6
Continuous
 62
     3
100
AcDbLine
 10
1738.785460711939
 20
817.6814203229584
 30
0.0
 11
1739.285460711939
 21
817.6814203229584
 31
0.0
  0
ARC
  5
71FA
330
1E
100
AcDbEntity
  8
躯体と製品
  6
Continuous
 62
     3
100
AcDbCircle
 10
1739.285460711939
 20
817.1814203229583
 30
0.0
 40
0.5
100
AcDbArc
 50
0.0
 51
90.0
  0
ARC
  5
71FB
330
1E
100
AcDbEntity
  8
躯体と製品
  6
Continuous
 62
     3
100
AcDbCircle
 10
1739.285460711939
 20
808.1814203229583
 30
0.0
 40
0.5
100
AcDbArc
 50
270.0
 51
0.0
  0
LINE
  5
71FC
330
1E
100
AcDbEntity
  8
躯体と製品
  6
Continuous
 62
     3
100
AcDbLine
 10
1739.785460711939
 20
817.1814203229583
 30
0.0
 11
1739.785460711939
 21
808.1814203229583
 31
0.0
  0
LINE
  5
71FD
330
1E
100
AcDbEntity
  8
躯体と製品
  6
Continuous
 62
     3
100
AcDbLine
 10
1738.785460711939
 20
807.6814203229584
 30
0.0
 11
1739.285460711939
 21
807.6814203229584
 31
0.0
  0
LINE
  5
71FE
330
1E
100
AcDbEntity
  8
躯体と製品
  6
Continuous
 62
     3
100
AcDbLine
 10
1592.476487153517
 20
861.2814203229582
 30
0.0
 11
1600.785460711939
 21
822.8524176152577
 31
0.0
  0
LINE
  5
71FF
330
1E
100
AcDbEntity
  8
躯体と製品
  6
Continuous
 62
     3
100
AcDbLine
 10
1551.185460711939
 20
861.2814203229582
 30
0.0
 11
1551.185460711939
 21
859.6814203229582
 31
0.0
  0
LINE
  5
7200
330
1E
100
AcDbEntity
  8
躯体と製品
  6
Continuous
 62
     3
100
AcDbLine
 10
1551.185460711939
 20
861.2814203229582
 30
0.0
 11
1592.476487153517
 21
861.2814203229582
 31
0.0
  0
LINE
  5
7201
330
1E
100
AcDbEntity
  8
躯体と製品
  6
Continuous
 62
     3
100
AcDbLine
 10
1551.185460711939
 20
859.6814203229582
 30
0.0
 11
1591.185460711939
 21
859.6814203229582
 31
0.0
  0
LINE
  5
7202
330
1E
100
AcDbEntity
  8
躯体と製品
  6
Continuous
 62
     3
100
AcDbLine
 10
1591.185460711939
 20
859.6814203229582
 30
0.0
 11
1599.185460711939
 21
822.6814203229585
 31
0.0
  0
LINE
  5
7203
330
1E
100
AcDbEntity
  8
躯体と製品
  6
Continuous
 62
     3
100
AcDbLine
 10
1600.785460711939
 20
822.8524176152577
 30
0.0
 11
1600.785460711939
 21
802.6814203229584
 31
0.0
  0
LINE
  5
7204
330
1E
100
AcDbEntity
  8
躯体と製品
  6
Continuous
 62
     3
100
AcDbLine
 10
1599.185460711939
 20
802.6814203229584
 30
0.0
 11
1600.785460711939
 21
802.6814203229584
 31
0.0
  0
LINE
  5
7205
330
1E
100
AcDbEntity
  8
躯体と製品
  6
Continuous
 62
     3
100
AcDbLine
 10
1599.185460711939
 20
822.6814203229585
 30
0.0
 11
1599.185460711939
 21
802.6814203229584
 31
0.0
  0
LINE
  5
7206
330
1E
100
AcDbEntity
  8
躯体と製品
  6
Continuous
 62
     3
100
AcDbLine
 10
1595.185460711939
 20
820.1814203229584
 30
0.0
 11
1595.185460711939
 21
805.1814203229584
 31
0.0
  0
LINE
  5
7207
330
1E
100
AcDbEntity
  8
躯体と製品
  6
Continuous
 62
     3
100
AcDbLine
 10
1595.185460711939
 20
805.1814203229584
 30
0.0
 11
1593.585460711939
 21
805.1814203229584
 31
0.0
  0
LINE
  5
7208
330
1E
100
AcDbEntity
  8
躯体と製品
  6
Continuous
 62
     3
100
AcDbLine
 10
1593.585460711939
 20
805.1814203229584
 30
0.0
 11
1593.585460711939
 21
820.1814203229584
 31
0.0
  0
LINE
  5
7209
330
1E
100
AcDbEntity
  8
躯体と製品
  6
Continuous
 62
     3
100
AcDbLine
 10
1593.585460711939
 20
820.1814203229584
 30
0.0
 11
1595.185460711939
 21
820.1814203229584
 31
0.0
  0
LINE
  5
720A
330
1E
100
AcDbEntity
  8
躯体と製品
  6
Continuous
 62
     3
100
AcDbLine
 10
1593.585460711939
 20
817.6814203229584
 30
0.0
 11
1593.085460711939
 21
817.6814203229584
 31
0.0
  0
ARC
  5
720B
330
1E
100
AcDbEntity
  8
躯体と製品
  6
Continuous
 62
     3
100
AcDbCircle
 10
1593.085460711939
 20
817.1814203229583
 30
0.0
 40
0.5
100
AcDbArc
 50
90.0
 51
180.0
  0
ARC
  5
720C
330
1E
100
AcDbEntity
  8
躯体と製品
  6
Continuous
 62
     3
100
AcDbCircle
 10
1593.085460711939
 20
808.1814203229583
 30
0.0
 40
0.5
100
AcDbArc
 50
180.0
 51
270.0
  0
LINE
  5
720D
330
1E
100
AcDbEntity
  8
躯体と製品
  6
Continuous
 62
     3
100
AcDbLine
 10
1592.585460711939
 20
817.1814203229583
 30
0.0
 11
1592.585460711939
 21
808.1814203229583
 31
0.0
  0
LINE
  5
720E
330
1E
100
AcDbEntity
  8
躯体と製品
  6
Continuous
 62
     3
100
AcDbLine
 10
1593.585460711939
 20
807.6814203229584
 30
0.0
 11
1593.085460711939
 21
807.6814203229584
 31
0.0
  0
LINE
  5
720F
330
1E
100
AcDbEntity
  8
躯体と製品
  6
Continuous
 62
     3
100
AcDbLine
 10
1600.785460711939
 20
815.1814203229584
 30
0.0
 11
1601.285460711939
 21
815.1814203229584
 31
0.0
  0
ARC
  5
7210
330
1E
100
AcDbEntity
  8
躯体と製品
  6
Continuous
 62
     3
100
AcDbCircle
 10
1601.285460711939
 20
814.1814203229584
 30
0.0
 40
1.0
100
AcDbArc
 50
0.0
 51
90.0
  0
LINE
  5
7211
330
1E
100
AcDbEntity
  8
躯体と製品
  6
Continuous
 62
     3
100
AcDbLine
 10
1602.285460711938
 20
814.1814203229584
 30
0.0
 11
1602.285460711938
 21
811.1814203229583
 31
0.0
  0
ARC
  5
7212
330
1E
100
AcDbEntity
  8
躯体と製品
  6
Continuous
 62
     3
100
AcDbCircle
 10
1601.285460711939
 20
811.1814203229583
 30
0.0
 40
1.0
100
AcDbArc
 50
270.0
 51
0.0
  0
LINE
  5
7213
330
1E
100
AcDbEntity
  8
躯体と製品
  6
Continuous
 62
     3
100
AcDbLine
 10
1601.285460711939
 20
810.1814203229583
 30
0.0
 11
1600.785460711939
 21
810.1814203229583
 31
0.0
  0
LINE
  5
7214
330
1E
100
AcDbEntity
  8
躯体と製品
  6
Continuous
 62
     3
100
AcDbLine
 10
1731.585460711938
 20
815.1814203229584
 30
0.0
 11
1731.085460711939
 21
815.1814203229584
 31
0.0
  0
ARC
  5
7215
330
1E
100
AcDbEntity
  8
躯体と製品
  6
Continuous
 62
     3
100
AcDbCircle
 10
1731.085460711939
 20
814.1814203229584
 30
0.0
 40
1.0
100
AcDbArc
 50
90.0
 51
180.0
  0
LINE
  5
7216
330
1E
100
AcDbEntity
  8
躯体と製品
  6
Continuous
 62
     3
100
AcDbLine
 10
1730.085460711938
 20
814.1814203229584
 30
0.0
 11
1730.085460711938
 21
811.1814203229583
 31
0.0
  0
ARC
  5
7217
330
1E
100
AcDbEntity
  8
躯体と製品
  6
Continuous
 62
     3
100
AcDbCircle
 10
1731.085460711939
 20
811.1814203229583
 30
0.0
 40
1.0
100
AcDbArc
 50
180.0
 51
270.0
  0
LINE
  5
7218
330
1E
100
AcDbEntity
  8
躯体と製品
  6
Continuous
 62
     3
100
AcDbLine
 10
1731.085460711939
 20
810.1814203229583
 30
0.0
 11
1731.585460711938
 21
810.1814203229583
 31
0.0
  0
LINE
  5
7219
330
1E
100
AcDbEntity
  8
図枠
  6
Continuous
 62
     7
100
AcDbLine
 10
1698.185460711939
 20
492.6814203229585
 30
0.0
 11
1698.185460711939
 21
684.6814203229585
 31
0.0
  0
LINE
  5
721A
330
1E
100
AcDbEntity
  8
図枠
  6
Continuous
 62
     7
100
AcDbLine
 10
1680.185460711939
 20
492.6814203229585
 30
0.0
 11
1680.185460711939
 21
684.6814203229585
 31
0.0
  0
LINE
  5
721B
330
1E
100
AcDbEntity
  8
図枠
  6
Continuous
 62
     7
100
AcDbLine
 10
1645.185460711939
 20
492.6814203229585
 30
0.0
 11
1645.185460711939
 21
684.6814203229585
 31
0.0
  0
TEXT
  5
721C
330
1E
100
AcDbEntity
  8
図枠
 62
     7
100
AcDbText
 10
1586.685460711939
 20
675.6814203229585
 30
0.0
 40
5.0
  1
規　格
100
AcDbText
  0
TEXT
  5
721D
330
1E
100
AcDbEntity
  8
図枠
 62
     7
100
AcDbText
 10
1485.685460711939
 20
675.6814203229585
 30
0.0
 40
5.0
  1
部材名称
100
AcDbText
  0
LINE
  5
721E
330
1E
100
AcDbEntity
  8
図枠
  6
Continuous
 62
     7
100
AcDbLine
 10
1644.185460711939
 20
492.6814203229585
 30
0.0
 11
1644.185460711939
 21
684.6814203229585
 31
0.0
  0
TEXT
  5
721F
330
1E
100
AcDbEntity
  8
図枠
 62
     7
100
AcDbText
 10
1554.185460711939
 20
543.6814203229586
 30
0.0
 40
5.0
  1
Ｍ6×40
100
AcDbText
  0
TEXT
  5
7220
330
1E
100
AcDbEntity
  8
図枠
 62
     7
100
AcDbText
 10
1554.185460711939
 20
495.6814203229586
 30
0.0
 40
5.0
  1
ｔ1.0×ｗ30
100
AcDbText
  0
TEXT
  5
7221
330
1E
100
AcDbEntity
  8
図枠
 62
     7
100
AcDbText
 10
1554.185460711939
 20
519.6814203229584
 30
0.0
 40
5.0
  1
1.5×18×6.5穴
100
AcDbText
  0
TEXT
  5
7222
330
1E
100
AcDbEntity
  8
図枠
 62
     7
100
AcDbText
 10
1554.185460711939
 20
531.6814203229585
 30
0.0
 40
5.0
  1
ＡＧ－660
100
AcDbText
  0
TEXT
  5
7223
330
1E
100
AcDbEntity
  8
図枠
 62
     7
100
AcDbText
 10
1554.185460711939
 20
579.6814203229586
 30
0.0
 40
5.0
  1
ＰＳ
100
AcDbText
  0
LINE
  5
7224
330
1E
100
AcDbEntity
  8
図枠
  6
Continuous
 62
     7
100
AcDbLine
 10
1549.185460711939
 20
492.6814203229585
 30
0.0
 11
1549.185460711939
 21
684.6814203229585
 31
0.0
  0
TEXT
  5
7225
330
1E
100
AcDbEntity
  8
図枠
 62
     7
100
AcDbText
 10
1454.185460711939
 20
495.6814203229586
 30
0.0
 40
5.0
  1
ブチルテープ
100
AcDbText
  0
TEXT
  5
7226
330
1E
100
AcDbEntity
  8
図枠
 62
     7
100
AcDbText
 10
1454.185460711939
 20
507.6814203229585
 30
0.0
 40
5.0
  1
耐火帯
100
AcDbText
  0
TEXT
  5
7227
330
1E
100
AcDbEntity
  8
図枠
 62
     7
100
AcDbText
 10
1454.185460711939
 20
519.6814203229584
 30
0.0
 40
5.0
  1
ステンワッシャー
100
AcDbText
  0
TEXT
  5
7228
330
1E
100
AcDbEntity
  8
図枠
 62
     7
100
AcDbText
 10
1454.185460711939
 20
531.6814203229585
 30
0.0
 40
5.0
  1
アジャストアンカー
100
AcDbText
  0
TEXT
  5
7229
330
1E
100
AcDbEntity
  8
図枠
 62
     7
100
AcDbText
 10
1454.185460711939
 20
543.6814203229586
 30
0.0
 40
5.0
  1
ステン六角ボルト
100
AcDbText
  0
TEXT
  5
722A
330
1E
100
AcDbEntity
  8
図枠
 62
     7
100
AcDbText
 10
1454.185460711939
 20
555.6814203229586
 30
0.0
 40
5.0
  1
ステン小ネジ
100
AcDbText
  0
TEXT
  5
722B
330
1E
100
AcDbEntity
  8
図枠
 62
     7
100
AcDbText
 10
1454.185460711939
 20
567.6814203229586
 30
0.0
 40
5.0
  1
止水補助板
100
AcDbText
  0
TEXT
  5
722C
330
1E
100
AcDbEntity
  8
図枠
 62
     7
100
AcDbText
 10
1454.185460711939
 20
579.6814203229586
 30
0.0
 40
5.0
  1
止水補助板
100
AcDbText
  0
TEXT
  5
722D
330
1E
100
AcDbEntity
  8
図枠
 62
     7
100
AcDbText
 10
1454.185460711939
 20
591.6814203229584
 30
0.0
 40
5.0
  1
ＦＹＹ水切ジョイント
100
AcDbText
  0
TEXT
  5
722E
330
1E
100
AcDbEntity
  8
図枠
 62
     7
100
AcDbText
 10
1454.185460711939
 20
603.6814203229586
 30
0.0
 40
5.0
  1
ＦＹＹフレームナット
100
AcDbText
  0
TEXT
  5
722F
330
1E
100
AcDbEntity
  8
図枠
 62
     7
100
AcDbText
 10
1454.185460711939
 20
627.6814203229587
 30
0.0
 40
5.0
  1
ＦＹＹホルダー
100
AcDbText
  0
TEXT
  5
7230
330
1E
100
AcDbEntity
  8
図枠
 62
     7
100
AcDbText
 10
1454.185460711939
 20
651.6814203229586
 30
0.0
 40
5.0
  1
ＦＹＹフレーム
100
AcDbText
  0
LINE
  5
7231
330
1E
100
AcDbEntity
  8
図枠
  6
Continuous
 62
     7
100
AcDbLine
 10
1449.185460711938
 20
492.6814203229585
 30
0.0
 11
1449.185460711938
 21
684.6814203229585
 31
0.0
  0
TEXT
  5
7232
330
1E
100
AcDbEntity
  8
図枠
 62
     7
100
AcDbText
 10
1454.185460711939
 20
663.6814203229585
 30
0.0
 40
5.0
  1
ＦＹＹキヤップＳ
100
AcDbText
  0
TEXT
  5
7233
330
1E
100
AcDbEntity
  8
図枠
 62
     7
100
AcDbText
 10
1454.185460711939
 20
615.6814203229584
 30
0.0
 40
5.0
  1
ＦＹＹホルダースプリング
100
AcDbText
  0
TEXT
  5
7234
330
1E
100
AcDbEntity
  8
図枠
 62
     7
100
AcDbText
 10
1554.185460711939
 20
555.6814203229586
 30
0.0
 40
5.0
  1
ナベＭ6×35
100
AcDbText
  0
LINE
  5
7235
330
1E
100
AcDbEntity
  8
図枠
  6
Continuous
 62
     7
100
AcDbLine
 10
1645.185460711939
 20
504.6814203229586
 30
0.0
 11
1712.185460711939
 21
504.6814203229586
 31
0.0
  0
LINE
  5
7236
330
1E
100
AcDbEntity
  8
図枠
  6
Continuous
 62
     7
100
AcDbLine
 10
1645.185460711939
 20
516.6814203229586
 30
0.0
 11
1712.185460711939
 21
516.6814203229586
 31
0.0
  0
LINE
  5
7237
330
1E
100
AcDbEntity
  8
図枠
  6
Continuous
 62
     7
100
AcDbLine
 10
1645.185460711939
 20
528.6814203229584
 30
0.0
 11
1712.185460711939
 21
528.6814203229584
 31
0.0
  0
LINE
  5
7238
330
1E
100
AcDbEntity
  8
図枠
  6
Continuous
 62
     7
100
AcDbLine
 10
1645.185460711939
 20
552.6814203229585
 30
0.0
 11
1712.185460711939
 21
552.6814203229585
 31
0.0
  0
LINE
  5
7239
330
1E
100
AcDbEntity
  8
図枠
  6
Continuous
 62
     7
100
AcDbLine
 10
1645.185460711939
 20
564.6814203229585
 30
0.0
 11
1712.185460711939
 21
564.6814203229585
 31
0.0
  0
LINE
  5
723A
330
1E
100
AcDbEntity
  8
図枠
  6
Continuous
 62
     7
100
AcDbLine
 10
1645.185460711939
 20
600.6814203229586
 30
0.0
 11
1712.185460711939
 21
600.6814203229586
 31
0.0
  0
LINE
  5
723B
330
1E
100
AcDbEntity
  8
図枠
  6
Continuous
 62
     7
100
AcDbLine
 10
1645.185460711939
 20
612.6814203229585
 30
0.0
 11
1712.185460711939
 21
612.6814203229585
 31
0.0
  0
LINE
  5
723C
330
1E
100
AcDbEntity
  8
図枠
  6
Continuous
 62
     7
100
AcDbLine
 10
1645.185460711939
 20
576.6814203229586
 30
0.0
 11
1712.185460711939
 21
576.6814203229586
 31
0.0
  0
LINE
  5
723D
330
1E
100
AcDbEntity
  8
図枠
  6
Continuous
 62
     7
100
AcDbLine
 10
1645.185460711939
 20
540.6814203229584
 30
0.0
 11
1712.185460711939
 21
540.6814203229584
 31
0.0
  0
LINE
  5
723E
330
1E
100
AcDbEntity
  8
図枠
  6
Continuous
 62
     7
100
AcDbLine
 10
1645.185460711939
 20
624.6814203229587
 30
0.0
 11
1712.185460711939
 21
624.6814203229587
 31
0.0
  0
LINE
  5
723F
330
1E
100
AcDbEntity
  8
図枠
  6
Continuous
 62
     7
100
AcDbLine
 10
1645.185460711939
 20
636.6814203229587
 30
0.0
 11
1712.185460711939
 21
636.6814203229587
 31
0.0
  0
LINE
  5
7240
330
1E
100
AcDbEntity
  8
図枠
  6
Continuous
 62
     7
100
AcDbLine
 10
1645.185460711939
 20
648.6814203229587
 30
0.0
 11
1712.185460711939
 21
648.6814203229587
 31
0.0
  0
LINE
  5
7241
330
1E
100
AcDbEntity
  8
図枠
  6
Continuous
 62
     7
100
AcDbLine
 10
1645.185460711939
 20
660.6814203229585
 30
0.0
 11
1712.185460711939
 21
660.6814203229585
 31
0.0
  0
LINE
  5
7242
330
1E
100
AcDbEntity
  8
図枠
  6
Continuous
 62
     7
100
AcDbLine
 10
1645.185460711939
 20
672.6814203229585
 30
0.0
 11
1712.185460711939
 21
672.6814203229585
 31
0.0
  0
LINE
  5
7243
330
1E
100
AcDbEntity
  8
図枠
  6
Continuous
 62
     7
100
AcDbLine
 10
1645.185460711939
 20
588.6814203229585
 30
0.0
 11
1712.185460711939
 21
588.6814203229585
 31
0.0
  0
LINE
  5
7244
330
1E
100
AcDbEntity
  8
図枠
  6
Continuous
 62
     7
100
AcDbLine
 10
1645.185460711939
 20
492.6814203229585
 30
0.0
 11
1712.185460711939
 21
492.6814203229585
 31
0.0
  0
LINE
  5
7245
330
1E
100
AcDbEntity
  8
図枠
  6
Continuous
 62
     7
100
AcDbLine
 10
1645.185460711939
 20
684.6814203229585
 30
0.0
 11
1712.185460711939
 21
684.6814203229585
 31
0.0
  0
LINE
  5
7246
330
1E
100
AcDbEntity
  8
図枠
  6
Continuous
 62
     7
100
AcDbLine
 10
1712.185460711939
 20
492.6814203229585
 30
0.0
 11
1712.185460711939
 21
684.6814203229585
 31
0.0
  0
TEXT
  5
7247
330
1E
100
AcDbEntity
  8
図枠
 62
     7
100
AcDbText
 10
1702.185460711939
 20
495.6814203229586
 30
0.0
 40
5.0
  1
巻
100
AcDbText
  0
TEXT
  5
7248
330
1E
100
AcDbEntity
  8
図枠
 62
     7
100
AcDbText
 10
1702.185460711939
 20
507.6814203229585
 30
0.0
 40
5.0
  1
本
100
AcDbText
  0
TEXT
  5
7249
330
1E
100
AcDbEntity
  8
図枠
 62
     7
100
AcDbText
 10
1702.185460711939
 20
519.6814203229584
 30
0.0
 40
5.0
  1
枚
100
AcDbText
  0
TEXT
  5
724A
330
1E
100
AcDbEntity
  8
図枠
 62
     7
100
AcDbText
 10
1702.185460711939
 20
531.6814203229585
 30
0.0
 40
5.0
  1
〃
100
AcDbText
  0
TEXT
  5
724B
330
1E
100
AcDbEntity
  8
図枠
 62
     7
100
AcDbText
 10
1702.185460711939
 20
543.6814203229586
 30
0.0
 40
5.0
  1
〃
100
AcDbText
  0
TEXT
  5
724C
330
1E
100
AcDbEntity
  8
図枠
 62
     7
100
AcDbText
 10
1702.185460711939
 20
555.6814203229586
 30
0.0
 40
5.0
  1
本
100
AcDbText
  0
TEXT
  5
724D
330
1E
100
AcDbEntity
  8
図枠
 62
     7
100
AcDbText
 10
1702.185460711939
 20
567.6814203229586
 30
0.0
 40
5.0
  1
〃
100
AcDbText
  0
TEXT
  5
724E
330
1E
100
AcDbEntity
  8
図枠
 62
     7
100
AcDbText
 10
1702.185460711939
 20
579.6814203229586
 30
0.0
 40
5.0
  1
枚
100
AcDbText
  0
TEXT
  5
724F
330
1E
100
AcDbEntity
  8
図枠
 62
     7
100
AcDbText
 10
1702.185460711939
 20
591.6814203229584
 30
0.0
 40
5.0
  1
〃
100
AcDbText
  0
TEXT
  5
7250
330
1E
100
AcDbEntity
  8
図枠
 62
     7
100
AcDbText
 10
1702.185460711939
 20
603.6814203229586
 30
0.0
 40
5.0
  1
〃
100
AcDbText
  0
TEXT
  5
7251
330
1E
100
AcDbEntity
  8
図枠
 62
     7
100
AcDbText
 10
1702.185460711939
 20
615.6814203229584
 30
0.0
 40
5.0
  1
〃
100
AcDbText
  0
TEXT
  5
7252
330
1E
100
AcDbEntity
  8
図枠
 62
     7
100
AcDbText
 10
1702.185460711939
 20
627.6814203229587
 30
0.0
 40
5.0
  1
個
100
AcDbText
  0
TEXT
  5
7253
330
1E
100
AcDbEntity
  8
図枠
 62
     7
100
AcDbText
 10
1702.185460711939
 20
639.6814203229586
 30
0.0
 40
5.0
  1
〃
100
AcDbText
  0
TEXT
  5
7254
330
1E
100
AcDbEntity
  8
図枠
 62
     7
100
AcDbText
 10
1702.185460711939
 20
651.6814203229586
 30
0.0
 40
5.0
  1
〃
100
AcDbText
  0
TEXT
  5
7255
330
1E
100
AcDbEntity
  8
図枠
 62
     7
100
AcDbText
 10
1702.185460711939
 20
663.6814203229585
 30
0.0
 40
5.0
  1
本
100
AcDbText
  0
TEXT
  5
7256
330
1E
100
AcDbEntity
  8
図枠
 62
     7
100
AcDbText
 10
1698.685460711939
 20
675.6814203229585
 30
0.0
 40
5.0
  1
単位
100
AcDbText
  0
LINE
  5
7257
330
1E
100
AcDbEntity
  8
図枠
  6
Continuous
 62
     7
100
AcDbLine
 10
1644.185460711939
 20
504.6814203229586
 30
0.0
 11
1435.185460711938
 21
504.6814203229586
 31
0.0
  0
LINE
  5
7258
330
1E
100
AcDbEntity
  8
図枠
  6
Continuous
 62
     7
100
AcDbLine
 10
1644.185460711939
 20
636.6814203229587
 30
0.0
 11
1435.185460711938
 21
636.6814203229587
 31
0.0
  0
LINE
  5
7259
330
1E
100
AcDbEntity
  8
図枠
  6
Continuous
 62
     7
100
AcDbLine
 10
1644.185460711939
 20
648.6814203229587
 30
0.0
 11
1435.185460711938
 21
648.6814203229587
 31
0.0
  0
LINE
  5
725A
330
1E
100
AcDbEntity
  8
図枠
  6
Continuous
 62
     7
100
AcDbLine
 10
1644.185460711939
 20
660.6814203229585
 30
0.0
 11
1435.185460711938
 21
660.6814203229585
 31
0.0
  0
LINE
  5
725B
330
1E
100
AcDbEntity
  8
図枠
  6
Continuous
 62
     7
100
AcDbLine
 10
1644.185460711939
 20
672.6814203229585
 30
0.0
 11
1435.185460711938
 21
672.6814203229585
 31
0.0
  0
LINE
  5
725C
330
1E
100
AcDbEntity
  8
図枠
  6
Continuous
 62
     7
100
AcDbLine
 10
1644.185460711939
 20
552.6814203229585
 30
0.0
 11
1435.185460711938
 21
552.6814203229585
 31
0.0
  0
LINE
  5
725D
330
1E
100
AcDbEntity
  8
図枠
  6
Continuous
 62
     7
100
AcDbLine
 10
1644.185460711939
 20
564.6814203229585
 30
0.0
 11
1435.185460711938
 21
564.6814203229585
 31
0.0
  0
LINE
  5
725E
330
1E
100
AcDbEntity
  8
図枠
  6
Continuous
 62
     7
100
AcDbLine
 10
1644.185460711939
 20
588.6814203229585
 30
0.0
 11
1435.185460711938
 21
588.6814203229585
 31
0.0
  0
LINE
  5
725F
330
1E
100
AcDbEntity
  8
図枠
  6
Continuous
 62
     7
100
AcDbLine
 10
1644.185460711939
 20
600.6814203229586
 30
0.0
 11
1435.185460711938
 21
600.6814203229586
 31
0.0
  0
LINE
  5
7260
330
1E
100
AcDbEntity
  8
図枠
  6
Continuous
 62
     7
100
AcDbLine
 10
1644.185460711939
 20
612.6814203229585
 30
0.0
 11
1435.185460711938
 21
612.6814203229585
 31
0.0
  0
LINE
  5
7261
330
1E
100
AcDbEntity
  8
図枠
  6
Continuous
 62
     7
100
AcDbLine
 10
1644.185460711939
 20
624.6814203229587
 30
0.0
 11
1435.185460711938
 21
624.6814203229587
 31
0.0
  0
LINE
  5
7262
330
1E
100
AcDbEntity
  8
図枠
  6
Continuous
 62
     7
100
AcDbLine
 10
1644.185460711939
 20
576.6814203229586
 30
0.0
 11
1435.185460711938
 21
576.6814203229586
 31
0.0
  0
LINE
  5
7263
330
1E
100
AcDbEntity
  8
図枠
  6
Continuous
 62
     7
100
AcDbLine
 10
1644.185460711939
 20
516.6814203229586
 30
0.0
 11
1435.185460711938
 21
516.6814203229586
 31
0.0
  0
LINE
  5
7264
330
1E
100
AcDbEntity
  8
図枠
  6
Continuous
 62
     7
100
AcDbLine
 10
1644.185460711939
 20
528.6814203229584
 30
0.0
 11
1435.185460711938
 21
528.6814203229584
 31
0.0
  0
LINE
  5
7265
330
1E
100
AcDbEntity
  8
図枠
  6
Continuous
 62
     7
100
AcDbLine
 10
1644.185460711939
 20
540.6814203229584
 30
0.0
 11
1435.185460711938
 21
540.6814203229584
 31
0.0
  0
LINE
  5
7266
330
1E
100
AcDbEntity
  8
図枠
  6
Continuous
 62
     7
100
AcDbLine
 10
1644.185460711939
 20
492.6814203229585
 30
0.0
 11
1435.185460711938
 21
492.6814203229585
 31
0.0
  0
LINE
  5
7267
330
1E
100
AcDbEntity
  8
図枠
  6
Continuous
 62
     7
100
AcDbLine
 10
1644.185460711939
 20
684.6814203229585
 30
0.0
 11
1435.185460711938
 21
684.6814203229585
 31
0.0
  0
LINE
  5
7268
330
1E
100
AcDbEntity
  8
図枠
  6
Continuous
 62
     7
100
AcDbLine
 10
1435.185460711938
 20
492.6814203229585
 30
0.0
 11
1435.185460711938
 21
684.6814203229585
 31
0.0
  0
TEXT
  5
7269
330
1E
100
AcDbEntity
  8
図枠
 62
     7
100
AcDbText
 10
1437.185460711939
 20
675.6814203229585
 30
0.0
 40
5.0
  1
No.
100
AcDbText
  0
TEXT
  5
726A
330
1E
100
AcDbEntity
  8
図枠
 62
     7
100
AcDbText
 10
1438.935460711938
 20
663.6814203229585
 30
0.0
 40
5.0
  1
 1
100
AcDbText
  0
TEXT
  5
726B
330
1E
100
AcDbEntity
  8
図枠
 62
     7
100
AcDbText
 10
1438.935460711938
 20
507.6814203229585
 30
0.0
 40
5.0
  1
14
100
AcDbText
  0
TEXT
  5
726C
330
1E
100
AcDbEntity
  8
図枠
 62
     7
100
AcDbText
 10
1438.935460711938
 20
519.6814203229584
 30
0.0
 40
5.0
  1
13
100
AcDbText
  0
TEXT
  5
726D
330
1E
100
AcDbEntity
  8
図枠
 62
     7
100
AcDbText
 10
1438.935460711938
 20
531.6814203229585
 30
0.0
 40
5.0
  1
12
100
AcDbText
  0
TEXT
  5
726E
330
1E
100
AcDbEntity
  8
図枠
 62
     7
100
AcDbText
 10
1438.935460711938
 20
543.6814203229586
 30
0.0
 40
5.0
  1
11
100
AcDbText
  0
TEXT
  5
726F
330
1E
100
AcDbEntity
  8
図枠
 62
     7
100
AcDbText
 10
1438.935460711938
 20
555.6814203229586
 30
0.0
 40
5.0
  1
10
100
AcDbText
  0
TEXT
  5
7270
330
1E
100
AcDbEntity
  8
図枠
 62
     7
100
AcDbText
 10
1438.935460711938
 20
567.6814203229586
 30
0.0
 40
5.0
  1
 9
100
AcDbText
  0
TEXT
  5
7271
330
1E
100
AcDbEntity
  8
図枠
 62
     7
100
AcDbText
 10
1438.935460711938
 20
579.6814203229586
 30
0.0
 40
5.0
  1
 8
100
AcDbText
  0
TEXT
  5
7272
330
1E
100
AcDbEntity
  8
図枠
 62
     7
100
AcDbText
 10
1438.935460711938
 20
591.6814203229584
 30
0.0
 40
5.0
  1
 7
100
AcDbText
  0
TEXT
  5
7273
330
1E
100
AcDbEntity
  8
図枠
 62
     7
100
AcDbText
 10
1438.935460711938
 20
603.6814203229586
 30
0.0
 40
5.0
  1
 6
100
AcDbText
  0
TEXT
  5
7274
330
1E
100
AcDbEntity
  8
図枠
 62
     7
100
AcDbText
 10
1438.935460711938
 20
615.6814203229584
 30
0.0
 40
5.0
  1
 5
100
AcDbText
  0
TEXT
  5
7275
330
1E
100
AcDbEntity
  8
図枠
 62
     7
100
AcDbText
 10
1438.935460711938
 20
627.6814203229587
 30
0.0
 40
5.0
  1
 4
100
AcDbText
  0
TEXT
  5
7276
330
1E
100
AcDbEntity
  8
図枠
 62
     7
100
AcDbText
 10
1438.935460711938
 20
639.6814203229586
 30
0.0
 40
5.0
  1
 3
100
AcDbText
  0
TEXT
  5
7277
330
1E
100
AcDbEntity
  8
図枠
 62
     7
100
AcDbText
 10
1438.935460711938
 20
651.6814203229586
 30
0.0
 40
5.0
  1
 2
100
AcDbText
  0
TEXT
  5
7278
330
1E
100
AcDbEntity
  8
図枠
 62
     7
100
AcDbText
 10
1439.185460711939
 20
495.6814203229586
 30
0.0
 40
5.0
  1
※
100
AcDbText
  0
TEXT
  5
7279
330
1E
100
AcDbEntity
  8
図枠
 62
     7
100
AcDbText
 10
1655.935460711939
 20
495.6814203229586
 30
0.0
 40
5.0
  1
6000
100
AcDbText
  0
TEXT
  5
727A
330
1E
100
AcDbEntity
  8
図枠
 62
     7
100
AcDbText
 10
1655.935460711939
 20
507.6814203229585
 30
0.0
 40
5.0
  1
2000
100
AcDbText
  0
TEXT
  5
727B
330
1E
100
AcDbEntity
  8
図枠
 62
     7
100
AcDbText
 10
1655.935460711939
 20
567.6814203229586
 30
0.0
 40
5.0
  1
2100
100
AcDbText
  0
TEXT
  5
727C
330
1E
100
AcDbEntity
  8
図枠
 62
     7
100
AcDbText
 10
1655.935460711939
 20
579.6814203229586
 30
0.0
 40
5.0
  1
2060
100
AcDbText
  0
TEXT
  5
727D
330
1E
100
AcDbEntity
  8
図枠
 62
     7
100
AcDbText
 10
1655.935460711939
 20
639.6814203229586
 30
0.0
 40
5.0
  1
2010
100
AcDbText
  0
TEXT
  5
727E
330
1E
100
AcDbEntity
  8
図枠
 62
     7
100
AcDbText
 10
1655.935460711939
 20
651.6814203229586
 30
0.0
 40
5.0
  1
2000
100
AcDbText
  0
TEXT
  5
727F
330
1E
100
AcDbEntity
  8
図枠
 62
     7
100
AcDbText
 10
1655.935460711939
 20
663.6814203229585
 30
0.0
 40
5.0
  1
2000
100
AcDbText
  0
TEXT
  5
7280
330
1E
100
AcDbEntity
  8
図枠
 62
     7
100
AcDbText
 10
1648.935460711939
 20
675.6814203229585
 30
0.0
 40
5.0
  1
定尺(mm)
100
AcDbText
  0
TEXT
  5
7281
330
1E
100
AcDbEntity
  8
図枠
 62
     7
100
AcDbText
 10
1685.935460711939
 20
495.6814203229586
 30
0.0
 40
5.0
  1
 1
100
AcDbText
  0
TEXT
  5
7282
330
1E
100
AcDbEntity
  8
図枠
 62
     7
100
AcDbText
 10
1685.935460711939
 20
507.6814203229585
 30
0.0
 40
5.0
  1
 1
100
AcDbText
  0
TEXT
  5
7283
330
1E
100
AcDbEntity
  8
図枠
 62
     7
100
AcDbText
 10
1685.935460711939
 20
519.6814203229584
 30
0.0
 40
5.0
  1
10
100
AcDbText
  0
TEXT
  5
7284
330
1E
100
AcDbEntity
  8
図枠
 62
     7
100
AcDbText
 10
1685.935460711939
 20
531.6814203229585
 30
0.0
 40
5.0
  1
10
100
AcDbText
  0
TEXT
  5
7285
330
1E
100
AcDbEntity
  8
図枠
 62
     7
100
AcDbText
 10
1685.935460711939
 20
543.6814203229586
 30
0.0
 40
5.0
  1
10
100
AcDbText
  0
TEXT
  5
7286
330
1E
100
AcDbEntity
  8
図枠
 62
     7
100
AcDbText
 10
1685.935460711939
 20
567.6814203229586
 30
0.0
 40
5.0
  1
 1
100
AcDbText
  0
TEXT
  5
7287
330
1E
100
AcDbEntity
  8
図枠
 62
     7
100
AcDbText
 10
1685.935460711939
 20
579.6814203229586
 30
0.0
 40
5.0
  1
 2
100
AcDbText
  0
TEXT
  5
7288
330
1E
100
AcDbEntity
  8
図枠
 62
     7
100
AcDbText
 10
1685.935460711939
 20
591.6814203229584
 30
0.0
 40
5.0
  1
 1
100
AcDbText
  0
TEXT
  5
7289
330
1E
100
AcDbEntity
  8
図枠
 62
     7
100
AcDbText
 10
1685.935460711939
 20
603.6814203229586
 30
0.0
 40
5.0
  1
 8
100
AcDbText
  0
TEXT
  5
728A
330
1E
100
AcDbEntity
  8
図枠
 62
     7
100
AcDbText
 10
1685.935460711939
 20
615.6814203229584
 30
0.0
 40
5.0
  1
 8
100
AcDbText
  0
TEXT
  5
728B
330
1E
100
AcDbEntity
  8
図枠
 62
     7
100
AcDbText
 10
1685.935460711939
 20
627.6814203229587
 30
0.0
 40
5.0
  1
 4
100
AcDbText
  0
TEXT
  5
728C
330
1E
100
AcDbEntity
  8
図枠
 62
     7
100
AcDbText
 10
1685.935460711939
 20
639.6814203229586
 30
0.0
 40
5.0
  1
 2
100
AcDbText
  0
TEXT
  5
728D
330
1E
100
AcDbEntity
  8
図枠
 62
     7
100
AcDbText
 10
1685.935460711939
 20
651.6814203229586
 30
0.0
 40
5.0
  1
 2
100
AcDbText
  0
TEXT
  5
728E
330
1E
100
AcDbEntity
  8
図枠
 62
     7
100
AcDbText
 10
1685.935460711939
 20
663.6814203229585
 30
0.0
 40
5.0
  1
 1
100
AcDbText
  0
TEXT
  5
728F
330
1E
100
AcDbEntity
  8
図枠
 62
     7
100
AcDbText
 10
1685.935460711939
 20
555.6814203229586
 30
0.0
 40
5.0
  1
10
100
AcDbText
  0
TEXT
  5
7290
330
1E
100
AcDbEntity
  8
図枠
 62
     7
100
AcDbText
 10
1682.685460711939
 20
675.6814203229585
 30
0.0
 40
5.0
  1
入数
100
AcDbText
  0
TEXT
  5
7291
330
1E
100
AcDbEntity
  8
図枠
 62
     7
100
AcDbText
 10
1554.185460711939
 20
567.6814203229586
 30
0.0
 40
5.0
  1
ＦＳ400～700
100
AcDbText
  0
LINE
  5
7292
330
1E
100
AcDbEntity
  8
図枠
  6
Continuous
 62
     7
100
AcDbLine
 10
1897.185460711939
 20
684.6814203229585
 30
0.0
 11
1732.185460711939
 21
684.6814203229585
 31
0.0
  0
LINE
  5
7293
330
1E
100
AcDbEntity
  8
図枠
  6
Continuous
 62
     7
100
AcDbLine
 10
1897.185460711939
 20
564.6814203229585
 30
0.0
 11
1732.185460711939
 21
564.6814203229585
 31
0.0
  0
LINE
  5
7294
330
1E
100
AcDbEntity
  8
図枠
  6
Continuous
 62
     7
100
AcDbLine
 10
1897.185460711939
 20
576.6814203229586
 30
0.0
 11
1732.185460711939
 21
576.6814203229586
 31
0.0
  0
LINE
  5
7295
330
1E
100
AcDbEntity
  8
図枠
  6
Continuous
 62
     7
100
AcDbLine
 10
1897.185460711939
 20
588.6814203229585
 30
0.0
 11
1732.185460711939
 21
588.6814203229585
 31
0.0
  0
LINE
  5
7296
330
1E
100
AcDbEntity
  8
図枠
  6
Continuous
 62
     7
100
AcDbLine
 10
1897.185460711939
 20
600.6814203229586
 30
0.0
 11
1732.185460711939
 21
600.6814203229586
 31
0.0
  0
LINE
  5
7297
330
1E
100
AcDbEntity
  8
図枠
  6
Continuous
 62
     7
100
AcDbLine
 10
1897.185460711939
 20
612.6814203229585
 30
0.0
 11
1732.185460711939
 21
612.6814203229585
 31
0.0
  0
LINE
  5
7298
330
1E
100
AcDbEntity
  8
図枠
  6
Continuous
 62
     7
100
AcDbLine
 10
1897.185460711939
 20
624.6814203229587
 30
0.0
 11
1732.185460711939
 21
624.6814203229587
 31
0.0
  0
LINE
  5
7299
330
1E
100
AcDbEntity
  8
図枠
  6
Continuous
 62
     7
100
AcDbLine
 10
1897.185460711939
 20
636.6814203229587
 30
0.0
 11
1732.185460711939
 21
636.6814203229587
 31
0.0
  0
LINE
  5
729A
330
1E
100
AcDbEntity
  8
図枠
  6
Continuous
 62
     7
100
AcDbLine
 10
1897.185460711939
 20
648.6814203229587
 30
0.0
 11
1732.185460711939
 21
648.6814203229587
 31
0.0
  0
LINE
  5
729B
330
1E
100
AcDbEntity
  8
図枠
  6
Continuous
 62
     7
100
AcDbLine
 10
1897.185460711939
 20
660.6814203229585
 30
0.0
 11
1732.185460711939
 21
660.6814203229585
 31
0.0
  0
LINE
  5
729C
330
1E
100
AcDbEntity
  8
図枠
  6
Continuous
 62
     7
100
AcDbLine
 10
1897.185460711939
 20
672.6814203229585
 30
0.0
 11
1732.185460711939
 21
672.6814203229585
 31
0.0
  0
LINE
  5
729D
330
1E
100
AcDbEntity
  8
図枠
  6
Continuous
 62
     7
100
AcDbLine
 10
1732.185460711939
 20
684.6814203229585
 30
0.0
 11
1732.185460711939
 21
564.6814203229585
 31
0.0
  0
LINE
  5
729E
330
1E
100
AcDbEntity
  8
図枠
  6
Continuous
 62
     7
100
AcDbLine
 10
1897.185460711939
 20
684.6814203229585
 30
0.0
 11
1897.185460711939
 21
564.6814203229585
 31
0.0
  0
LINE
  5
729F
330
1E
100
AcDbEntity
  8
図枠
  6
Continuous
 62
     7
100
AcDbLine
 10
1837.185460711939
 20
684.6814203229585
 30
0.0
 11
1837.185460711939
 21
564.6814203229585
 31
0.0
  0
LINE
  5
72A0
330
1E
100
AcDbEntity
  8
図枠
  6
Continuous
 62
     7
100
AcDbLine
 10
1807.185460711939
 20
684.6814203229585
 30
0.0
 11
1807.185460711939
 21
564.6814203229585
 31
0.0
  0
LINE
  5
72A1
330
1E
100
AcDbEntity
  8
図枠
  6
Continuous
 62
     7
100
AcDbLine
 10
1867.185460711939
 20
684.6814203229585
 30
0.0
 11
1867.185460711939
 21
564.6814203229585
 31
0.0
  0
TEXT
  5
72A2
330
1E
100
AcDbEntity
  8
図枠
 62
     7
100
AcDbText
 10
1819.185460711939
 20
675.6814203229585
 30
0.0
 40
5.0
  1
Ｗ
100
AcDbText
  0
TEXT
  5
72A3
330
1E
100
AcDbEntity
  8
図枠
 62
     7
100
AcDbText
 10
1755.185460211939
 20
675.6814203229585
 30
0.0
 40
5.0
  1
タ　イ　プ
100
AcDbText
  0
TEXT
  5
72A4
330
1E
100
AcDbEntity
  8
図枠
 62
     7
100
AcDbText
 10
1877.185460711939
 20
567.6814203229586
 30
0.0
 40
5.0
  1
300
100
AcDbText
  0
TEXT
  5
72A5
330
1E
100
AcDbEntity
  8
図枠
 62
     7
100
AcDbText
 10
1877.185460711939
 20
579.6814203229586
 30
0.0
 40
5.0
  1
275
100
AcDbText
  0
TEXT
  5
72A6
330
1E
100
AcDbEntity
  8
図枠
 62
     7
100
AcDbText
 10
1877.185460711939
 20
591.6814203229584
 30
0.0
 40
5.0
  1
250
100
AcDbText
  0
TEXT
  5
72A7
330
1E
100
AcDbEntity
  8
図枠
 62
     7
100
AcDbText
 10
1877.185460711939
 20
603.6814203229586
 30
0.0
 40
5.0
  1
225
100
AcDbText
  0
TEXT
  5
72A8
330
1E
100
AcDbEntity
  8
図枠
 62
     7
100
AcDbText
 10
1877.185460711939
 20
615.6814203229584
 30
0.0
 40
5.0
  1
200
100
AcDbText
  0
TEXT
  5
72A9
330
1E
100
AcDbEntity
  8
図枠
 62
     7
100
AcDbText
 10
1877.185460711939
 20
627.6814203229587
 30
0.0
 40
5.0
  1
175
100
AcDbText
  0
TEXT
  5
72AA
330
1E
100
AcDbEntity
  8
図枠
 62
     7
100
AcDbText
 10
1877.185460711939
 20
639.6814203229586
 30
0.0
 40
5.0
  1
150
100
AcDbText
  0
TEXT
  5
72AB
330
1E
100
AcDbEntity
  8
図枠
 62
     7
100
AcDbText
 10
1877.185460711939
 20
651.6814203229586
 30
0.0
 40
5.0
  1
125
100
AcDbText
  0
TEXT
  5
72AC
330
1E
100
AcDbEntity
  8
図枠
 62
     7
100
AcDbText
 10
1877.185460711939
 20
663.6814203229585
 30
0.0
 40
5.0
  1
100
100
AcDbText
  0
TEXT
  5
72AD
330
1E
100
AcDbEntity
  8
図枠
 62
     7
100
AcDbText
 10
1879.185460711939
 20
675.6814203229585
 30
0.0
 40
5.0
  1
Ｃ
100
AcDbText
  0
TEXT
  5
72AE
330
1E
100
AcDbEntity
  8
図枠
 62
     7
100
AcDbText
 10
1849.185460711939
 20
675.6814203229585
 30
0.0
 40
5.0
  1
Ｂ
100
AcDbText
  0
TEXT
  5
72AF
330
1E
100
AcDbEntity
  8
図枠
 62
     7
100
AcDbText
 10
1848.935460711939
 20
663.6814203229585
 30
0.0
 40
5.0
  1
40
100
AcDbText
  0
TEXT
  5
72B0
330
1E
100
AcDbEntity
  8
図枠
 62
     7
100
AcDbText
 10
1848.935460711939
 20
651.6814203229586
 30
0.0
 40
5.0
  1
50
100
AcDbText
  0
TEXT
  5
72B1
330
1E
100
AcDbEntity
  8
図枠
 62
     7
100
AcDbText
 10
1849.185460711939
 20
639.6814203229586
 30
0.0
 40
5.0
  1
〃
100
AcDbText
  0
TEXT
  5
72B2
330
1E
100
AcDbEntity
  8
図枠
 62
     7
100
AcDbText
 10
1849.185460711939
 20
627.6814203229587
 30
0.0
 40
5.0
  1
〃
100
AcDbText
  0
TEXT
  5
72B3
330
1E
100
AcDbEntity
  8
図枠
 62
     7
100
AcDbText
 10
1849.185460711939
 20
615.6814203229584
 30
0.0
 40
5.0
  1
〃
100
AcDbText
  0
TEXT
  5
72B4
330
1E
100
AcDbEntity
  8
図枠
 62
     7
100
AcDbText
 10
1849.185460711939
 20
603.6814203229586
 30
0.0
 40
5.0
  1
〃
100
AcDbText
  0
TEXT
  5
72B5
330
1E
100
AcDbEntity
  8
図枠
 62
     7
100
AcDbText
 10
1849.185460711939
 20
591.6814203229584
 30
0.0
 40
5.0
  1
〃
100
AcDbText
  0
TEXT
  5
72B6
330
1E
100
AcDbEntity
  8
図枠
 62
     7
100
AcDbText
 10
1849.185460711939
 20
579.6814203229586
 30
0.0
 40
5.0
  1
〃
100
AcDbText
  0
TEXT
  5
72B7
330
1E
100
AcDbEntity
  8
図枠
 62
     7
100
AcDbText
 10
1849.185460711939
 20
567.6814203229586
 30
0.0
 40
5.0
  1
〃
100
AcDbText
  0
TEXT
  5
72B8
330
1E
100
AcDbEntity
  8
図枠
 62
     7
100
AcDbText
 10
1817.185460711939
 20
663.6814203229585
 30
0.0
 40
5.0
  1
500
100
AcDbText
  0
TEXT
  5
72B9
330
1E
100
AcDbEntity
  8
図枠
 62
     7
100
AcDbText
 10
1817.185460711939
 20
567.6814203229586
 30
0.0
 40
5.0
  1
900
100
AcDbText
  0
TEXT
  5
72BA
330
1E
100
AcDbEntity
  8
図枠
 62
     7
100
AcDbText
 10
1817.185460711939
 20
579.6814203229586
 30
0.0
 40
5.0
  1
850
100
AcDbText
  0
TEXT
  5
72BB
330
1E
100
AcDbEntity
  8
図枠
 62
     7
100
AcDbText
 10
1817.185460711939
 20
591.6814203229584
 30
0.0
 40
5.0
  1
800
100
AcDbText
  0
TEXT
  5
72BC
330
1E
100
AcDbEntity
  8
図枠
 62
     7
100
AcDbText
 10
1817.185460711939
 20
603.6814203229586
 30
0.0
 40
5.0
  1
750
100
AcDbText
  0
TEXT
  5
72BD
330
1E
100
AcDbEntity
  8
図枠
 62
     7
100
AcDbText
 10
1817.185460711939
 20
615.6814203229584
 30
0.0
 40
5.0
  1
700
100
AcDbText
  0
TEXT
  5
72BE
330
1E
100
AcDbEntity
  8
図枠
 62
     7
100
AcDbText
 10
1817.185460711939
 20
627.6814203229587
 30
0.0
 40
5.0
  1
650
100
AcDbText
  0
TEXT
  5
72BF
330
1E
100
AcDbEntity
  8
図枠
 62
     7
100
AcDbText
 10
1817.185460711939
 20
639.6814203229586
 30
0.0
 40
5.0
  1
600
100
AcDbText
  0
TEXT
  5
72C0
330
1E
100
AcDbEntity
  8
図枠
 62
     7
100
AcDbText
 10
1817.185460711939
 20
651.6814203229586
 30
0.0
 40
5.0
  1
550
100
AcDbText
  0
TEXT
  5
72C1
330
1E
100
AcDbEntity
  8
図枠
 62
     7
100
AcDbText
 10
1741.935460711939
 20
651.6814203229586
 30
0.0
 40
5.0
  1
 　　〃　　　550
100
AcDbText
  0
TEXT
  5
72C2
330
1E
100
AcDbEntity
  8
図枠
 62
     7
100
AcDbText
 10
1741.935460711939
 20
639.6814203229586
 30
0.0
 40
5.0
  1
 　　〃　　　600
100
AcDbText
  0
TEXT
  5
72C3
330
1E
100
AcDbEntity
  8
図枠
 62
     7
100
AcDbText
 10
1741.935460711939
 20
627.6814203229587
 30
0.0
 40
5.0
  1
 　　〃　　　650
100
AcDbText
  0
TEXT
  5
72C4
330
1E
100
AcDbEntity
  8
図枠
 62
     7
100
AcDbText
 10
1741.935460711939
 20
615.6814203229584
 30
0.0
 40
5.0
  1
 　　〃　　　700
100
AcDbText
  0
TEXT
  5
72C5
330
1E
100
AcDbEntity
  8
図枠
 62
     7
100
AcDbText
 10
1741.935460711939
 20
603.6814203229586
 30
0.0
 40
5.0
  1
 　　〃　　　750
100
AcDbText
  0
TEXT
  5
72C6
330
1E
100
AcDbEntity
  8
図枠
 62
     7
100
AcDbText
 10
1741.935460711939
 20
591.6814203229584
 30
0.0
 40
5.0
  1
 　　〃　　　800
100
AcDbText
  0
TEXT
  5
72C7
330
1E
100
AcDbEntity
  8
図枠
 62
     7
100
AcDbText
 10
1741.935460711939
 20
579.6814203229586
 30
0.0
 40
5.0
  1
 　　〃　　　850
100
AcDbText
  0
TEXT
  5
72C8
330
1E
100
AcDbEntity
  8
図枠
 62
     7
100
AcDbText
 10
1741.935460711939
 20
567.6814203229586
 30
0.0
 40
5.0
  1
 　　〃　　　900
100
AcDbText
  0
TEXT
  5
72C9
330
1E
100
AcDbEntity
  8
図枠
 62
     7
100
AcDbText
 10
1741.935460711939
 20
663.6814203229585
 30
0.0
 40
5.0
  1
150ＦＹＹ－Ｓ500
100
AcDbText
  0
TEXT
  5
72CA
330
1E
100
AcDbEntity
  8
図枠
 62
     7
100
AcDbText
 10
1554.185460711939
 20
663.6814203229585
 30
0.0
 40
5.0
  1
150ＦＹＹ－Ｓ500～900
100
AcDbText
  0
TEXT
  5
72CB
330
1E
100
AcDbEntity
  8
図枠
 62
     7
100
AcDbText
 10
1554.185460711939
 20
627.6814203229587
 30
0.0
 40
5.0
  1
150ＦＹＹＨ－500～900
100
AcDbText
  0
TEXT
  5
72CC
330
1E
100
AcDbEntity
  8
図枠
 62
     7
100
AcDbText
 10
1554.185460711939
 20
507.6814203229585
 30
0.0
 40
5.0
  1
01－02－15
100
AcDbText
  0
TEXT
  5
72CD
330
1E
100
AcDbEntity
  8
図枠
 62
     7
100
AcDbText
 10
1554.185460711939
 20
591.6814203229584
 30
0.0
 40
5.0
  1
150ＦＹＹＪ－500～900
100
AcDbText
  0
TEXT
  5
72CE
330
1E
100
AcDbEntity
  8
図枠
 62
     7
100
AcDbText
 10
1577.685460711939
 20
925.3887527227561
 30
0.0
 40
5.0
  1
勾配３度
100
AcDbText
  0
LINE
  5
7300
330
1E
100
AcDbEntity
  8
躯体と製品
  6
Continuous
 62
     7
100
AcDbLine
 10
1841.185460711939
 20
860.6814203229586
 30
0.0
 11
1841.185460711939
 21
861.6814203229585
 31
0.0
  0
ARC
  5
7301
330
1E
100
AcDbEntity
  8
躯体と製品
  6
Continuous
 62
     7
100
AcDbCircle
 10
1820.185460711939
 20
869.9314203229585
 30
0.0
 40
9.25
100
AcDbArc
 50
270.0
 51
288.9246444160544
  0
ARC
  5
7302
330
1E
100
AcDbEntity
  8
躯体と製品
  6
Continuous
 62
     7
100
AcDbCircle
 10
1826.185460711938
 20
852.4314203229582
 30
0.0
 40
9.25
100
AcDbArc
 50
90.0
 51
108.9246444160544
  0
ARC
  5
7303
330
1E
100
AcDbEntity
  8
躯体と製品
  6
Continuous
 62
     7
100
AcDbCircle
 10
1826.185460711938
 20
852.4314203229582
 30
0.0
 40
8.25
100
AcDbArc
 50
90.0
 51
108.9246444160544
  0
ARC
  5
7304
330
1E
100
AcDbEntity
  8
躯体と製品
  6
Continuous
 62
     7
100
AcDbCircle
 10
1820.185460711939
 20
869.9314203229585
 30
0.0
 40
10.25
100
AcDbArc
 50
270.0
 51
288.9246444160544
  0
LINE
  5
7305
330
1E
100
AcDbEntity
  8
躯体と製品
  6
Continuous
 62
     7
100
AcDbLine
 10
1856.185460711938
 20
861.6814203229585
 30
0.0
 11
1826.185460711938
 21
861.6814203229585
 31
0.0
  0
ARC
  5
7306
330
1E
100
AcDbEntity
  8
躯体と製品
  6
Continuous
 62
     7
100
AcDbCircle
 10
1856.185460711938
 20
852.4314203229582
 30
0.0
 40
9.25
100
AcDbArc
 50
71.07535558394559
 51
90.0
  0
ARC
  5
7307
330
1E
100
AcDbEntity
  8
躯体と製品
  6
Continuous
 62
     7
100
AcDbCircle
 10
1862.185460711939
 20
869.9314203229585
 30
0.0
 40
9.25
100
AcDbArc
 50
251.0753555839456
 51
270.0
  0
ARC
  5
7308
330
1E
100
AcDbEntity
  8
躯体と製品
  6
Continuous
 62
     7
100
AcDbCircle
 10
1856.185460711938
 20
852.4314203229582
 30
0.0
 40
8.25
100
AcDbArc
 50
71.07535558394559
 51
90.0
  0
ARC
  5
7309
330
1E
100
AcDbEntity
  8
躯体と製品
  6
Continuous
 62
     7
100
AcDbCircle
 10
1862.185460711939
 20
869.9314203229585
 30
0.0
 40
10.25
100
AcDbArc
 50
251.0753555839456
 51
270.0
  0
ARC
  5
730A
330
1E
100
AcDbEntity
  8
躯体と製品
  6
Continuous
 62
     7
100
AcDbCircle
 10
1791.185460711939
 20
870.9468049383428
 30
0.0
 40
10.26538461538453
100
AcDbArc
 50
240.8515676039189
 51
270.0
  0
LINE
  5
730B
330
1E
100
AcDbEntity
  8
躯体と製品
  6
Continuous
 62
     7
100
AcDbLine
 10
1820.185460711939
 20
860.6814203229586
 30
0.0
 11
1791.185460711939
 21
860.6814203229586
 31
0.0
  0
ARC
  5
730C
330
1E
100
AcDbEntity
  8
躯体と製品
  6
Continuous
 62
     7
100
AcDbCircle
 10
1781.185460711938
 20
853.016035707574
 30
0.0
 40
9.265384615384535
100
AcDbArc
 50
60.85156760391886
 51
90.0
  0
ARC
  5
730D
330
1E
100
AcDbEntity
  8
躯体と製品
  6
Continuous
 62
     7
100
AcDbCircle
 10
1791.185460711939
 20
870.9468049383428
 30
0.0
 40
11.26538461538453
100
AcDbArc
 50
240.8515676039189
 51
270.0
  0
LINE
  5
730E
330
1E
100
AcDbEntity
  8
躯体と製品
  6
Continuous
 62
     7
100
AcDbLine
 10
1751.141264257411
 20
863.2814203229584
 30
0.0
 11
1781.185460711938
 21
863.2814203229584
 31
0.0
  0
ARC
  5
730F
330
1E
100
AcDbEntity
  8
躯体と製品
  6
Continuous
 62
     7
100
AcDbCircle
 10
1781.185460711938
 20
853.016035707574
 30
0.0
 40
10.26538461538453
100
AcDbArc
 50
60.85156760391886
 51
90.0
  0
LINE
  5
7310
330
1E
100
AcDbEntity
  8
躯体と製品
  6
Continuous
 62
     7
100
AcDbLine
 10
1862.185460711939
 20
860.6814203229586
 30
0.0
 11
1891.197292617426
 21
860.6814203229586
 31
0.0
  0
ARC
  5
7311
330
1E
100
AcDbEntity
  8
躯体と製品
  6
Continuous
 62
     7
100
AcDbCircle
 10
1891.15690093804
 20
858.6818282364976
 30
0.0
 40
2.0
100
AcDbArc
 50
4.999999999999459
 51
88.84278494683243
  0
LINE
  5
7312
330
1E
100
AcDbEntity
  8
躯体と製品
  6
Continuous
 62
     7
100
AcDbLine
 10
1491.185460711939
 20
860.6814203229586
 30
0.0
 11
1491.185460711939
 21
861.6814203229585
 31
0.0
  0
ARC
  5
7313
330
1E
100
AcDbEntity
  8
躯体と製品
  6
Continuous
 62
     7
100
AcDbCircle
 10
1512.185460711939
 20
869.9314203229585
 30
0.0
 40
9.25
100
AcDbArc
 50
251.0753555839456
 51
270.0
  0
ARC
  5
7314
330
1E
100
AcDbEntity
  8
躯体と製品
  6
Continuous
 62
     7
100
AcDbCircle
 10
1506.185460711939
 20
852.4314203229582
 30
0.0
 40
9.25
100
AcDbArc
 50
71.07535558394559
 51
90.0
  0
ARC
  5
7315
330
1E
100
AcDbEntity
  8
躯体と製品
  6
Continuous
 62
     7
100
AcDbCircle
 10
1506.185460711939
 20
852.4314203229582
 30
0.0
 40
8.25
100
AcDbArc
 50
71.07535558394559
 51
90.0
  0
ARC
  5
7316
330
1E
100
AcDbEntity
  8
躯体と製品
  6
Continuous
 62
     7
100
AcDbCircle
 10
1512.185460711939
 20
869.9314203229585
 30
0.0
 40
10.25
100
AcDbArc
 50
251.0753555839456
 51
270.0
  0
LINE
  5
7317
330
1E
100
AcDbEntity
  8
躯体と製品
  6
Continuous
 62
     7
100
AcDbLine
 10
1476.185460711939
 20
861.6814203229585
 30
0.0
 11
1506.185460711939
 21
861.6814203229585
 31
0.0
  0
ARC
  5
7318
330
1E
100
AcDbEntity
  8
躯体と製品
  6
Continuous
 62
     7
100
AcDbCircle
 10
1476.185460711939
 20
852.4314203229582
 30
0.0
 40
9.25
100
AcDbArc
 50
90.0
 51
108.9246444160544
  0
ARC
  5
7319
330
1E
100
AcDbEntity
  8
躯体と製品
  6
Continuous
 62
     7
100
AcDbCircle
 10
1470.185460711939
 20
869.9314203229585
 30
0.0
 40
9.25
100
AcDbArc
 50
270.0
 51
288.9246444160544
  0
ARC
  5
731A
330
1E
100
AcDbEntity
  8
躯体と製品
  6
Continuous
 62
     7
100
AcDbCircle
 10
1476.185460711939
 20
852.4314203229582
 30
0.0
 40
8.25
100
AcDbArc
 50
90.0
 51
108.9246444160544
  0
ARC
  5
731B
330
1E
100
AcDbEntity
  8
躯体と製品
  6
Continuous
 62
     7
100
AcDbCircle
 10
1470.185460711939
 20
869.9314203229585
 30
0.0
 40
10.25
100
AcDbArc
 50
270.0
 51
288.9246444160544
  0
ARC
  5
731C
330
1E
100
AcDbEntity
  8
躯体と製品
  6
Continuous
 62
     7
100
AcDbCircle
 10
1541.185460711939
 20
870.9468049383428
 30
0.0
 40
10.26538461538453
100
AcDbArc
 50
270.0
 51
299.1484323960811
  0
LINE
  5
731D
330
1E
100
AcDbEntity
  8
躯体と製品
  6
Continuous
 62
     7
100
AcDbLine
 10
1512.185460711939
 20
860.6814203229586
 30
0.0
 11
1541.185460711939
 21
860.6814203229586
 31
0.0
  0
ARC
  5
731E
330
1E
100
AcDbEntity
  8
躯体と製品
  6
Continuous
 62
     7
100
AcDbCircle
 10
1551.185460711939
 20
853.016035707574
 30
0.0
 40
9.265384615384535
100
AcDbArc
 50
90.0
 51
119.1484323960811
  0
ARC
  5
731F
330
1E
100
AcDbEntity
  8
躯体と製品
  6
Continuous
 62
     7
100
AcDbCircle
 10
1541.185460711939
 20
870.9468049383428
 30
0.0
 40
11.26538461538453
100
AcDbArc
 50
270.0
 51
299.1484323960811
  0
ARC
  5
7320
330
1E
100
AcDbEntity
  8
躯体と製品
  6
Continuous
 62
     7
100
AcDbCircle
 10
1551.185460711939
 20
853.016035707574
 30
0.0
 40
10.26538461538453
100
AcDbArc
 50
90.0
 51
119.1484323960811
  0
LINE
  5
7321
330
1E
100
AcDbEntity
  8
躯体と製品
  6
Continuous
 62
     7
100
AcDbLine
 10
1581.229657166467
 20
863.2814203229584
 30
0.0
 11
1551.185460711939
 21
863.2814203229584
 31
0.0
  0
ARC
  5
7322
330
1E
100
AcDbEntity
  8
躯体と製品
  6
Continuous
 62
     7
100
AcDbCircle
 10
1441.214020485837
 20
858.6818282364976
 30
0.0
 40
2.0
100
AcDbArc
 50
91.15721505315454
 51
175.0000000000005
  0
LINE
  5
7323
330
1E
100
AcDbEntity
  8
躯体と製品
  6
Continuous
 62
     7
100
AcDbLine
 10
1470.185460711939
 20
860.6814203229586
 30
0.0
 11
1441.173628806451
 21
860.6814203229586
 31
0.0
  0
TEXT
  5
7324
330
1E
100
AcDbEntity
  8
図枠
 62
     7
100
AcDbText
 10
1856.185460711939
 20
685.4864476127086
 30
0.0
 40
5.0
  1
（単位：mm）
100
AcDbText
  0
LINE
  5
7325
330
1E
100
AcDbEntity
  8
図枠
  6
Continuous
 62
     4
100
AcDbLine
 10
1616.185460711939
 20
925.4044756873598
 30
0.0
 11
1566.185460711938
 21
925.4044756873598
 31
0.0
  0
LINE
  5
7326
330
1E
100
AcDbEntity
  8
図枠
  6
Continuous
 62
     4
100
AcDbLine
 10
1616.185460711939
 20
925.4044756873598
 30
0.0
 11
1566.185460711938
 21
922.7840867232078
 31
0.0
  0
LINE
  5
7327
330
1E
100
AcDbEntity
  8
図枠
  6
Continuous
 62
     4
100
AcDbLine
 10
1566.185460711938
 20
922.7840867232078
 30
0.0
 11
1566.185460711938
 21
925.4044756873598
 31
0.0
  0
LINE
  5
7328
330
1E
100
AcDbEntity
  8
躯体と製品
  6
CENTER1
 62
     4
100
AcDbLine
 10
1489.460820850201
 20
912.5130236897598
 30
0.0
 11
1491.813492186854
 21
867.6213803337899
 31
0.0
  0
LINE
  5
7329
330
1E
100
AcDbEntity
  8
躯体と製品
  6
CENTER1
 62
     4
100
AcDbLine
 10
1491.185460711939
 20
884.6049347508449
 30
0.0
 11
1491.185460711939
 21
795.6814203229583
 31
0.0
  0
LINE
  5
732A
330
1E
100
AcDbEntity
  8
躯体と製品
  6
CENTER1
 62
     4
100
AcDbLine
 10
1561.185460711939
 20
868.7202694807947
 30
0.0
 11
1561.185460711939
 21
815.6814203229583
 31
0.0
  0
LINE
  5
732B
330
1E
100
AcDbEntity
  8
躯体と製品
  6
CENTER1
 62
     4
100
AcDbLine
 10
1586.190265764968
 20
812.6814203229583
 30
0.0
 11
1607.592110896058
 21
812.6814203229583
 31
0.0
  0
LINE
  5
732C
330
1E
100
AcDbEntity
  8
躯体と製品
  6
CENTER1
 62
     4
100
AcDbLine
 10
1746.180655658909
 20
812.6814203229583
 30
0.0
 11
1724.778810527819
 21
812.6814203229583
 31
0.0
  0
LINE
  5
732D
330
1E
100
AcDbEntity
  8
躯体と製品
  6
CENTER1
 62
     4
100
AcDbLine
 10
1771.185460711938
 20
868.7202694807947
 30
0.0
 11
1771.185460711938
 21
815.6814203229583
 31
0.0
  0
LINE
  5
732E
330
1E
100
AcDbEntity
  8
躯体と製品
  6
CENTER1
 62
     4
100
AcDbLine
 10
1842.910100573676
 20
912.5130236897598
 30
0.0
 11
1840.557429237023
 21
867.6213803337899
 31
0.0
  0
LINE
  5
732F
330
1E
100
AcDbEntity
  8
躯体と製品
  6
CENTER1
 62
     4
100
AcDbLine
 10
1841.185460711939
 20
884.6049347508449
 30
0.0
 11
1841.185460711939
 21
795.6814203229583
 31
0.0
  0
LINE
  5
7330
330
1E
100
AcDbEntity
  8
躯体と製品
  6
Continuous
 62
     7
100
AcDbLine
 10
1832.185460711938
 20
865.6814203229583
 30
0.0
 11
1850.185460711938
 21
865.6814203229583
 31
0.0
  0
LINE
  5
7331
330
1E
100
AcDbEntity
  8
躯体と製品
  6
Continuous
 62
     7
100
AcDbLine
 10
1850.185460711938
 20
865.6814203229583
 30
0.0
 11
1850.185460711938
 21
864.1814203229582
 31
0.0
  0
LINE
  5
7332
330
1E
100
AcDbEntity
  8
躯体と製品
  6
Continuous
 62
     7
100
AcDbLine
 10
1832.185460711938
 20
865.6814203229583
 30
0.0
 11
1832.185460711938
 21
864.1814203229582
 31
0.0
  0
ARC
  5
7333
330
1E
100
AcDbEntity
  8
躯体と製品
  6
Continuous
 62
     7
100
AcDbCircle
 10
1841.185460711939
 20
861.0702672834026
 30
0.0
 40
9.553418012635715
100
AcDbArc
 50
72.41204622604974
 51
107.5879537739502
  0
ARC
  5
7334
330
1E
100
AcDbEntity
  8
躯体と製品
  6
Continuous
 62
     7
100
AcDbCircle
 10
1836.855333693017
 20
868.0678625476099
 30
0.0
 40
2.555822748428199
100
AcDbArc
 50
55.61575253203897
 51
124.384247467961
  0
ARC
  5
7335
330
1E
100
AcDbEntity
  8
躯体と製品
  6
Continuous
 62
     7
100
AcDbCircle
 10
1845.515587730861
 20
868.0678625476099
 30
0.0
 40
2.555822748428199
100
AcDbArc
 50
55.61575253203897
 51
124.384247467961
  0
LINE
  5
7336
330
1E
100
AcDbEntity
  8
躯体と製品
  6
Continuous
 62
     7
100
AcDbLine
 10
1835.411958020042
 20
870.1771033086542
 30
0.0
 11
1835.411958020042
 21
865.6814203229583
 31
0.0
  0
LINE
  5
7337
330
1E
100
AcDbEntity
  8
躯体と製品
  6
Continuous
 62
     7
100
AcDbLine
 10
1836.285460711939
 20
870.6814203229582
 30
0.0
 11
1835.411958020042
 21
870.1771033086542
 31
0.0
  0
LINE
  5
7338
330
1E
100
AcDbEntity
  8
躯体と製品
  6
Continuous
 62
     7
100
AcDbLine
 10
1836.285460711939
 20
870.6814203229582
 30
0.0
 11
1846.085460711939
 21
870.6814203229582
 31
0.0
  0
LINE
  5
7339
330
1E
100
AcDbEntity
  8
躯体と製品
  6
Continuous
 62
     7
100
AcDbLine
 10
1846.085460711939
 20
870.6814203229582
 30
0.0
 11
1846.958963403835
 21
870.1771033086542
 31
0.0
  0
LINE
  5
733A
330
1E
100
AcDbEntity
  8
躯体と製品
  6
Continuous
 62
     7
100
AcDbLine
 10
1838.298709365991
 20
870.1771033086542
 30
0.0
 11
1838.298709365991
 21
865.6814203229583
 31
0.0
  0
LINE
  5
733B
330
1E
100
AcDbEntity
  8
躯体と製品
  6
Continuous
 62
     7
100
AcDbLine
 10
1844.072212057887
 20
870.1771033086542
 30
0.0
 11
1844.072212057887
 21
865.6814203229583
 31
0.0
  0
LINE
  5
733C
330
1E
100
AcDbEntity
  8
躯体と製品
  6
Continuous
 62
     7
100
AcDbLine
 10
1846.958963403835
 20
870.1771033086542
 30
0.0
 11
1846.958963403835
 21
865.6814203229583
 31
0.0
  0
LINE
  5
733D
330
1E
100
AcDbEntity
  8
躯体と製品
  6
Continuous
 62
     7
100
AcDbLine
 10
1482.185460711939
 20
865.6814203229583
 30
0.0
 11
1500.185460711939
 21
865.6814203229583
 31
0.0
  0
LINE
  5
733E
330
1E
100
AcDbEntity
  8
躯体と製品
  6
Continuous
 62
     7
100
AcDbLine
 10
1500.185460711939
 20
865.6814203229583
 30
0.0
 11
1500.185460711939
 21
864.1814203229582
 31
0.0
  0
LINE
  5
733F
330
1E
100
AcDbEntity
  8
躯体と製品
  6
Continuous
 62
     7
100
AcDbLine
 10
1482.185460711939
 20
865.6814203229583
 30
0.0
 11
1482.185460711939
 21
864.1814203229582
 31
0.0
  0
ARC
  5
7340
330
1E
100
AcDbEntity
  8
躯体と製品
  6
Continuous
 62
     7
100
AcDbCircle
 10
1491.185460711939
 20
861.0702672834026
 30
0.0
 40
9.553418012635715
100
AcDbArc
 50
72.41204622604974
 51
107.5879537739502
  0
ARC
  5
7341
330
1E
100
AcDbEntity
  8
躯体と製品
  6
Continuous
 62
     7
100
AcDbCircle
 10
1486.855333693016
 20
868.0678625476099
 30
0.0
 40
2.555822748428199
100
AcDbArc
 50
55.61575253203897
 51
124.384247467961
  0
ARC
  5
7342
330
1E
100
AcDbEntity
  8
躯体と製品
  6
Continuous
 62
     7
100
AcDbCircle
 10
1495.515587730861
 20
868.0678625476099
 30
0.0
 40
2.555822748428199
100
AcDbArc
 50
55.61575253203897
 51
124.384247467961
  0
LINE
  5
7343
330
1E
100
AcDbEntity
  8
躯体と製品
  6
Continuous
 62
     7
100
AcDbLine
 10
1485.411958020043
 20
870.1771033086542
 30
0.0
 11
1485.411958020043
 21
865.6814203229583
 31
0.0
  0
LINE
  5
7344
330
1E
100
AcDbEntity
  8
躯体と製品
  6
Continuous
 62
     7
100
AcDbLine
 10
1486.285460711939
 20
870.6814203229582
 30
0.0
 11
1485.411958020043
 21
870.1771033086542
 31
0.0
  0
LINE
  5
7345
330
1E
100
AcDbEntity
  8
躯体と製品
  6
Continuous
 62
     7
100
AcDbLine
 10
1486.285460711939
 20
870.6814203229582
 30
0.0
 11
1496.085460711939
 21
870.6814203229582
 31
0.0
  0
LINE
  5
7346
330
1E
100
AcDbEntity
  8
躯体と製品
  6
Continuous
 62
     7
100
AcDbLine
 10
1496.085460711939
 20
870.6814203229582
 30
0.0
 11
1496.958963403835
 21
870.1771033086542
 31
0.0
  0
LINE
  5
7347
330
1E
100
AcDbEntity
  8
躯体と製品
  6
Continuous
 62
     7
100
AcDbLine
 10
1488.298709365991
 20
870.1771033086542
 30
0.0
 11
1488.298709365991
 21
865.6814203229583
 31
0.0
  0
LINE
  5
7348
330
1E
100
AcDbEntity
  8
躯体と製品
  6
Continuous
 62
     7
100
AcDbLine
 10
1494.072212057887
 20
870.1771033086542
 30
0.0
 11
1494.072212057887
 21
865.6814203229583
 31
0.0
  0
LINE
  5
7349
330
1E
100
AcDbEntity
  8
躯体と製品
  6
Continuous
 62
     7
100
AcDbLine
 10
1496.958963403835
 20
870.1771033086542
 30
0.0
 11
1496.958963403835
 21
865.6814203229583
 31
0.0
  0
TEXT
  5
734A
330
1E
100
AcDbEntity
  8
図枠
 62
     7
100
AcDbText
 10
1454.185460711939
 20
639.6814203229586
 30
0.0
 40
5.0
  1
止水補助板ホルダーＡＬ
100
AcDbText
  0
CIRCLE
  5
734B
330
1E
100
AcDbEntity
  8
図枠
  6
Continuous
 62
     4
100
AcDbCircle
 10
1891.158801450698
 20
893.279614423063
 30
0.0
 40
0.9
  0
CIRCLE
  5
734C
330
1E
100
AcDbEntity
  8
図枠
  6
Continuous
 62
     4
100
AcDbCircle
 10
1843.239905749372
 20
895.144590010226
 30
0.0
 40
0.9
  0
CIRCLE
  5
734D
330
1E
100
AcDbEntity
  8
図枠
  6
Continuous
 62
     4
100
AcDbCircle
 10
1839.059449735936
 20
834.5987589248117
 30
0.0
 40
0.9
  0
CIRCLE
  5
734E
330
1E
100
AcDbEntity
  8
図枠
  6
Continuous
 62
     4
100
AcDbCircle
 10
1858.789289740328
 20
897.8668426536573
 30
0.0
 40
0.9
  0
CIRCLE
  5
734F
330
1E
100
AcDbEntity
  8
図枠
  6
Continuous
 62
     4
100
AcDbCircle
 10
1845.522871540634
 20
867.7819924702166
 30
0.0
 40
0.9
  0
CIRCLE
  5
7350
330
1E
100
AcDbEntity
  8
図枠
  6
Continuous
 62
     4
100
AcDbCircle
 10
1851.362943440082
 20
875.1700352345791
 30
0.0
 40
0.9
  0
CIRCLE
  5
7351
330
1E
100
AcDbEntity
  8
図枠
  6
Continuous
 62
     4
100
AcDbCircle
 10
1908.084116562308
 20
922.595120130485
 30
0.0
 40
6.0
  0
LINE
  5
7352
330
1E
100
AcDbEntity
  8
図枠
  6
Continuous
 62
     4
100
AcDbLine
 10
1891.158801450698
 20
893.279614423063
 30
0.0
 11
1905.084116562308
 21
917.3989677077782
 31
0.0
  0
CIRCLE
  5
7353
330
1E
100
AcDbEntity
  8
図枠
  6
Continuous
 62
     4
100
AcDbCircle
 10
1858.707152296117
 20
873.432757308914
 30
0.0
 40
0.9
  0
CIRCLE
  5
7354
330
1E
100
AcDbEntity
  8
図枠
  6
Continuous
 62
     4
100
AcDbCircle
 10
1886.520206551567
 20
921.6063803930232
 30
0.0
 40
6.0
  0
LINE
  5
7355
330
1E
100
AcDbEntity
  8
図枠
  6
Continuous
 62
     4
100
AcDbLine
 10
1858.707152296117
 20
873.432757308914
 30
0.0
 11
1883.520206551567
 21
916.4102279703165
 31
0.0
  0
CIRCLE
  5
7356
330
1E
100
AcDbEntity
  8
図枠
  6
Continuous
 62
     4
100
AcDbCircle
 10
1880.076379512704
 20
934.7371636846926
 30
0.0
 40
6.0
  0
LINE
  5
7357
330
1E
100
AcDbEntity
  8
図枠
  6
Continuous
 62
     4
100
AcDbLine
 10
1858.789289740328
 20
897.8668426536573
 30
0.0
 11
1877.076379512703
 21
929.5410112619858
 31
0.0
  0
CIRCLE
  5
7358
330
1E
100
AcDbEntity
  8
図枠
  6
Continuous
 62
     4
100
AcDbCircle
 10
1864.065438288403
 20
931.2154704625086
 30
0.0
 40
6.0
  0
LINE
  5
7359
330
1E
100
AcDbEntity
  8
図枠
  6
Continuous
 62
     4
100
AcDbLine
 10
1843.239905749372
 20
895.144590010226
 30
0.0
 11
1861.065438288403
 21
926.0193180398019
 31
0.0
  0
CIRCLE
  5
735A
330
1E
100
AcDbEntity
  8
図枠
  6
Continuous
 62
     4
100
AcDbCircle
 10
1866.144629571851
 20
849.5674038328198
 30
0.0
 40
6.0
  0
LINE
  5
735B
330
1E
100
AcDbEntity
  8
図枠
  6
Continuous
 62
     4
100
AcDbLine
 10
1851.362943440082
 20
875.1700352345791
 30
0.0
 11
1863.144629571851
 21
854.7635562555262
 31
0.0
  0
CIRCLE
  5
735C
330
1E
100
AcDbEntity
  8
図枠
  6
Continuous
 62
     4
100
AcDbCircle
 10
1864.945257205491
 20
834.1414336944879
 30
0.0
 40
6.0
  0
LINE
  5
735D
330
1E
100
AcDbEntity
  8
図枠
  6
Continuous
 62
     4
100
AcDbLine
 10
1845.522871540634
 20
867.7819924702166
 30
0.0
 11
1861.945257205491
 21
839.3375861171943
 31
0.0
  0
CIRCLE
  5
735E
330
1E
100
AcDbEntity
  8
図枠
  6
Continuous
 62
     4
100
AcDbCircle
 10
1826.01783554119
 20
812.0100205267991
 30
0.0
 40
6.0
  0
LINE
  5
735F
330
1E
100
AcDbEntity
  8
図枠
  6
Continuous
 62
     4
100
AcDbLine
 10
1839.059449735936
 20
834.5987589248117
 30
0.0
 11
1829.01783554119
 21
817.2061729495057
 31
0.0
  0
CIRCLE
  5
7360
330
1E
100
AcDbEntity
  8
図枠
  6
Continuous
 62
     4
100
AcDbCircle
 10
1834.063708958917
 20
864.9175772555361
 30
0.0
 40
0.9
  0
CIRCLE
  5
7361
330
1E
100
AcDbEntity
  8
図枠
  6
Continuous
 62
     4
100
AcDbCircle
 10
1821.366455327038
 20
842.9252888485326
 30
0.0
 40
6.0
  0
LINE
  5
7362
330
1E
100
AcDbEntity
  8
図枠
  6
Continuous
 62
     4
100
AcDbLine
 10
1834.063708958917
 20
864.9175772555361
 30
0.0
 11
1824.366455327038
 21
848.121441271239
 31
0.0
  0
TEXT
  5
7363
330
1E
100
AcDbEntity
  8
図枠
 62
     7
100
AcDbText
 10
1973.24465203732
 20
932.4067849004032
 30
0.0
 40
5.0
  1
７
100
AcDbText
  0
TEXT
  5
7364
330
1E
100
AcDbEntity
  8
図枠
 62
     7
100
AcDbText
 10
1877.076379512703
 20
931.7371636846926
 30
0.0
 40
5.0
  1
５
100
AcDbText
  0
TEXT
  5
7365
330
1E
100
AcDbEntity
  8
図枠
 62
     7
100
AcDbText
 10
1860.815438288403
 20
928.2154704625083
 30
0.0
 40
5.0
  1
10
100
AcDbText
  0
TEXT
  5
7366
330
1E
100
AcDbEntity
  8
図枠
 62
     7
100
AcDbText
 10
1905.084116562308
 20
919.5951201304849
 30
0.0
 40
5.0
  1
４
100
AcDbText
  0
TEXT
  5
7367
330
1E
100
AcDbEntity
  8
図枠
 62
     7
100
AcDbText
 10
1883.520206551567
 20
918.6063803930233
 30
0.0
 40
5.0
  1
２
100
AcDbText
  0
TEXT
  5
7368
330
1E
100
AcDbEntity
  8
図枠
 62
     7
100
AcDbText
 10
1863.144629571851
 20
846.5674038328197
 30
0.0
 40
5.0
  1
６
100
AcDbText
  0
TEXT
  5
7369
330
1E
100
AcDbEntity
  8
図枠
 62
     7
100
AcDbText
 10
1818.116455327038
 20
839.9252888485326
 30
0.0
 40
5.0
  1
13
100
AcDbText
  0
CIRCLE
  5
736A
330
1E
100
AcDbEntity
  8
図枠
  6
Continuous
 62
     4
100
AcDbCircle
 10
1949.608170893918
 20
889.2710462251805
 30
0.0
 40
0.9
  0
LINE
  5
736B
330
1E
100
AcDbEntity
  8
図枠
  6
Continuous
 62
     4
100
AcDbLine
 10
1949.608170893918
 20
889.2710462251805
 30
0.0
 11
1973.24465203732
 21
930.2106324776962
 31
0.0
  0
TEXT
  5
736C
330
1E
100
AcDbEntity
  8
図枠
 62
     7
100
AcDbText
 10
1861.695257205491
 20
831.1414336944878
 30
0.0
 40
5.0
  1
11
100
AcDbText
  0
CIRCLE
  5
736D
330
1E
100
AcDbEntity
  8
図枠
  6
Continuous
 62
     4
100
AcDbCircle
 10
1976.24465203732
 20
935.4067849004033
 30
0.0
 40
6.0
  0
TEXT
  5
736E
330
1E
100
AcDbEntity
  8
図枠
 62
     7
100
AcDbText
 10
1635.245767383707
 20
810.296250178562
 30
0.0
 40
5.0
  1
９
100
AcDbText
  0
TEXT
  5
736F
330
1E
100
AcDbEntity
  8
図枠
 62
     7
100
AcDbText
 10
1822.76783554119
 20
809.0100205267992
 30
0.0
 40
5.0
  1
12
100
AcDbText
  0
CIRCLE
  5
7370
330
1E
100
AcDbEntity
  8
図枠
  6
Continuous
 62
     4
100
AcDbCircle
 10
1621.362480197285
 20
784.0535389729031
 30
0.0
 40
0.9
  0
LINE
  5
7371
330
1E
100
AcDbEntity
  8
図枠
  6
Continuous
 62
     4
100
AcDbLine
 10
1621.362480197285
 20
784.0535389729031
 30
0.0
 11
1635.245767383707
 21
808.1000977558556
 31
0.0
  0
CIRCLE
  5
7372
330
1E
100
AcDbEntity
  8
図枠
  6
Continuous
 62
     4
100
AcDbCircle
 10
1638.245767383707
 20
813.2962501785621
 30
0.0
 40
6.0
  0
CIRCLE
  5
7373
330
1E
100
AcDbEntity
  8
図枠
  6
Continuous
 62
     4
100
AcDbCircle
 10
1632.740591897949
 20
764.3559477491732
 30
0.0
 40
0.9
  0
LINE
  5
7374
330
1E
100
AcDbEntity
  8
図枠
  6
Continuous
 62
     4
100
AcDbLine
 10
1632.740591897949
 20
764.3559477491732
 30
0.0
 11
1644.56644262039
 21
784.8389220431666
 31
0.0
  0
CIRCLE
  5
7375
330
1E
100
AcDbEntity
  8
図枠
  6
Continuous
 62
     4
100
AcDbCircle
 10
1647.56644262039
 20
790.0350744658733
 30
0.0
 40
6.0
  0
TEXT
  5
7376
330
1E
100
AcDbEntity
  8
図枠
 62
     7
100
AcDbText
 10
1644.31644262039
 20
787.0350744658733
 30
0.0
 40
5.0
  1
14
100
AcDbText
  0
CIRCLE
  5
7377
330
1E
100
AcDbEntity
  8
図枠
  6
Continuous
 62
     4
100
AcDbCircle
 10
1930.715731027341
 20
823.954553072736
 30
0.0
 40
0.9
  0
LINE
  5
7378
330
1E
100
AcDbEntity
  8
図枠
  6
Continuous
 62
     4
100
AcDbLine
 10
1930.715731027341
 20
823.954553072736
 30
0.0
 11
1941.173178563971
 21
805.8417226218061
 31
0.0
  0
TEXT
  5
7379
330
1E
100
AcDbEntity
  8
図枠
 62
     7
100
AcDbText
 10
1385.197742859906
 20
797.6455701990994
 30
0.0
 40
5.0
  1
８
100
AcDbText
  0
TEXT
  5
737A
330
1E
100
AcDbEntity
  8
図枠
 62
     7
100
AcDbText
 10
1941.173178563971
 20
797.6455701990994
 30
0.0
 40
5.0
  1
８
100
AcDbText
  0
CIRCLE
  5
737B
330
1E
100
AcDbEntity
  8
図枠
  6
Continuous
 62
     4
100
AcDbCircle
 10
1401.655190396536
 20
823.954553072736
 30
0.0
 40
0.9
  0
LINE
  5
737C
330
1E
100
AcDbEntity
  8
図枠
  6
Continuous
 62
     4
100
AcDbLine
 10
1401.655190396536
 20
823.954553072736
 30
0.0
 11
1391.197742859906
 21
805.8417226218061
 31
0.0
  0
CIRCLE
  5
737D
330
1E
100
AcDbEntity
  8
図枠
  6
Continuous
 62
     4
100
AcDbCircle
 10
1388.197742859906
 20
800.6455701990997
 30
0.0
 40
6.0
  0
CIRCLE
  5
737E
330
1E
100
AcDbEntity
  8
図枠
  6
Continuous
 62
     4
100
AcDbCircle
 10
1944.173178563971
 20
800.6455701990997
 30
0.0
 40
6.0
  0
CIRCLE
  5
737F
330
1E
100
AcDbEntity
  8
図枠
  6
Continuous
 62
     4
100
AcDbCircle
 10
1948.500030087276
 20
841.6895885500933
 30
0.0
 40
0.9
  0
LINE
  5
7380
330
1E
100
AcDbEntity
  8
図枠
  6
Continuous
 62
     4
100
AcDbLine
 10
1948.500030087276
 20
841.6895885500933
 30
0.0
 11
1973.468043903633
 21
884.9354570441036
 31
0.0
  0
TEXT
  5
7381
330
1E
100
AcDbEntity
  8
図枠
 62
     7
100
AcDbText
 10
1973.468043903633
 20
887.1316094668106
 30
0.0
 40
5.0
  1
３
100
AcDbText
  0
CIRCLE
  5
7382
330
1E
100
AcDbEntity
  8
図枠
  6
Continuous
 62
     4
100
AcDbCircle
 10
1976.468043903633
 20
890.1316094668107
 30
0.0
 40
6.0
  0
CIRCLE
  5
7383
330
1E
100
AcDbEntity
  8
図枠
  6
Continuous
 62
     4
100
AcDbCircle
 10
1949.394816683817
 20
907.4094007021246
 30
0.0
 40
0.9
  0
LINE
  5
7384
330
1E
100
AcDbEntity
  8
図枠
  6
Continuous
 62
     4
100
AcDbLine
 10
1949.394816683817
 20
907.4094007021246
 30
0.0
 11
1974.531297827219
 21
950.9470631659937
 31
0.0
  0
TEXT
  5
7385
330
1E
100
AcDbEntity
  8
図枠
 62
     7
100
AcDbText
 10
1974.531297827219
 20
953.1432155887003
 30
0.0
 40
5.0
  1
１
100
AcDbText
  0
CIRCLE
  5
7386
330
1E
100
AcDbEntity
  8
図枠
  6
Continuous
 62
     4
100
AcDbCircle
 10
1977.531297827219
 20
956.1432155887004
 30
0.0
 40
6.0
  0
LINE
  5
7387
330
1E
100
AcDbEntity
  8
躯体と製品
  6
CENTER1
 62
     4
100
AcDbLine
 10
1666.185460711939
 20
931.2522034253118
 30
0.0
 11
1666.185460711939
 21
740.6814203229584
 31
0.0
  0
LINE
  5
7388
330
1E
100
AcDbEntity
  8
躯体と製品
  6
Continuous
 62
     7
100
AcDbLine
 10
1488.641714995044
 20
870.8205266458493
 30
0.0
 11
1488.796208218138
 21
870.6814203229582
 31
0.0
  0
LINE
  5
7389
330
1E
100
AcDbEntity
  8
躯体と製品
  6
Continuous
 62
     4
100
AcDbLine
 10
1488.945702440658
 20
875.8826135481237
 30
0.0
 11
1489.218285427211
 21
870.6814203229582
 31
0.0
  0
LINE
  5
738A
330
1E
100
AcDbEntity
  8
躯体と製品
  6
Continuous
 62
     4
100
AcDbLine
 10
1493.802037868169
 20
876.1371233033333
 30
0.0
 11
1494.087959145798
 21
870.6814203229582
 31
0.0
  0
LINE
  5
738B
330
1E
100
AcDbEntity
  8
躯体と製品
  6
Continuous
 62
     7
100
AcDbLine
 10
1494.225499267872
 20
870.6814203229582
 30
0.0
 11
1494.633492203571
 21
871.1345423833071
 31
0.0
  0
LINE
  5
738C
330
1E
100
AcDbEntity
  8
躯体と製品
  6
Continuous
 62
     7
100
AcDbLine
 10
1838.145422156005
 20
870.6814203229582
 30
0.0
 11
1837.737429220306
 21
871.1345423833071
 31
0.0
  0
LINE
  5
738D
330
1E
100
AcDbEntity
  8
躯体と製品
  6
Continuous
 62
     4
100
AcDbLine
 10
1838.568883555708
 20
876.1371233033333
 30
0.0
 11
1838.282962278079
 21
870.6814203229582
 31
0.0
  0
LINE
  5
738E
330
1E
100
AcDbEntity
  8
躯体と製品
  6
Continuous
 62
     4
100
AcDbLine
 10
1843.42521898322
 20
875.8826135481237
 30
0.0
 11
1843.152635996667
 21
870.6814203229582
 31
0.0
  0
LINE
  5
738F
330
1E
100
AcDbEntity
  8
躯体と製品
  6
Continuous
 62
     7
100
AcDbLine
 10
1843.729206428833
 20
870.8205266458493
 30
0.0
 11
1843.574713205739
 21
870.6814203229582
 31
0.0
  0
TEXT
  5
7390
330
1E
100
AcDbEntity
  8
図枠
 62
     6
100
AcDbText
 10
1273.731969421073
 20
1025.151052479711
 30
0.0
 40
10.0
  1
◇ステンレス１５０タイプ（１５０ＦＹＹ－Ｓ）
100
AcDbText
  0
TEXT
  5
7391
330
1E
100
AcDbEntity
  8
図枠
 62
     6
100
AcDbText
 10
1274.115105830221
 20
990.3072559056814
 30
0.0
 40
10.0
  1
　　耐火帯付　Ｓ＝１／２
100
AcDbText
  0
TEXT
  5
7392
330
1E
100
AcDbEntity
  8
図枠
 62
     6
100
AcDbText
 10
1274.115105830221
 20
1006.55846363515
 30
0.0
 40
10.0
  1
　　屋根－屋根
100
AcDbText
  0
DIMENSION
  5
739A
330
1E
100
AcDbEntity
  8
寸法
  6
Continuous
100
AcDbDimension
  2
*D4
 10
1966.185460711938
 20
984.6814203229582
 30
0.0
 11
1666.185460711939
 21
988.1814203229582
 31
0.0
 70
    32
  1
W
 71
     5
 42
599.9999999999995
  3
AutoCAD
100
AcDbAlignedDimension
 13
1366.185460711939
 23
909.2956691366101
 33
0.0
 14
1966.185460711938
 24
909.2956691366101
 34
0.0
100
AcDbRotatedDimension
1001
ACAD
1000
DSTYLE
1002
{
1070
   280
1070
     0
1002
}
  0
DIMENSION
  5
73A7
330
1E
100
AcDbEntity
  8
寸法
  6
Continuous
100
AcDbDimension
  2
*D5
 10
2026.185460711939
 20
817.2956691366101
 30
0.0
 11
2022.685460711938
 21
862.2956691366104
 31
0.0
 70
    32
 71
     5
 42
90.0
  3
AutoCAD
100
AcDbAlignedDimension
 13
1968.185460711939
 23
907.2956691366099
 33
0.0
 14
2006.185460711939
 24
817.2956691366101
 34
0.0
 50
90.0
100
AcDbRotatedDimension
  0
DIMENSION
  5
73B4
330
1E
100
AcDbEntity
  8
寸法
  6
Continuous
100
AcDbDimension
  2
*D6
 10
2006.185460711939
 20
817.2956691366101
 30
0.0
 11
2002.685460711938
 21
838.4885447297845
 31
0.0
 70
    32
  1
44
 71
     5
 42
42.38575118634821
  3
AutoCAD
100
AcDbAlignedDimension
 13
1894.889187190564
 23
859.6814203229582
 33
0.0
 14
1968.185460711939
 24
817.2956691366101
 34
0.0
 50
90.0
100
AcDbRotatedDimension
  0
DIMENSION
  5
73C1
330
1E
100
AcDbEntity
  8
寸法
  6
Continuous
100
AcDbDimension
  2
*D7
 10
1891.185460711939
 20
729.6814203229585
 30
0.0
 11
1928.685460711939
 21
733.1814203229584
 31
0.0
 70
    32
  1
75≦
 71
     5
 42
74.99999999999909
  3
AutoCAD
100
AcDbAlignedDimension
 13
1966.185460711938
 23
815.29566913661
 33
0.0
 14
1891.185460711939
 24
729.6814203229585
 34
0.0
100
AcDbRotatedDimension
  0
DIMENSION
  5
73CD
330
1E
100
AcDbEntity
  8
寸法
  6
Continuous
100
AcDbDimension
  2
*D8
 10
1741.185460711938
 20
729.6814203229585
 30
0.0
 11
1816.185877378605
 21
733.1814203229584
 31
0.0
 70
    32
  1
≦C
 71
     5
 42
150.0008333333346
  3
AutoCAD
100
AcDbAlignedDimension
 13
1891.186294045273
 23
729.9314189340657
 33
0.0
 14
1741.185460711938
 24
729.6814203229585
 34
0.0
100
AcDbRotatedDimension
  0
DIMENSION
  5
73D9
330
1E
100
AcDbEntity
  8
寸法
  6
Continuous
100
AcDbDimension
  2
*D9
 10
1591.185460711938
 20
729.6814203229585
 30
0.0
 11
1666.120430263142
 21
733.1814203229584
 31
0.0
 70
    32
 71
     5
 42
149.8699391024088
  3
AutoCAD
100
AcDbAlignedDimension
 13
1741.055399814347
 23
729.8949248028127
 33
0.0
 14
1591.185460711938
 24
729.6814203229585
 34
0.0
100
AcDbRotatedDimension
  0
DIMENSION
  5
73E5
330
1E
100
AcDbEntity
  8
寸法
  6
Continuous
100
AcDbDimension
  2
*D10
 10
1441.185460711939
 20
729.6814203229585
 30
0.0
 11
1516.283605834026
 21
733.1814203229584
 31
0.0
 70
    32
  1
≦C
 71
     5
 42
150.1962902441723
  3
AutoCAD
100
AcDbAlignedDimension
 13
1591.381750956112
 23
729.8362432542131
 33
0.0
 14
1441.185460711939
 24
729.6814203229585
 34
0.0
100
AcDbRotatedDimension
  0
DIMENSION
  5
73FD
330
1E
100
AcDbEntity
  8
寸法
  6
Continuous
100
AcDbDimension
  2
*D11
 10
1366.185460711939
 20
729.6814203229585
 30
0.0
 11
1403.562359742813
 21
733.1814203229584
 31
0.0
 70
    32
  1
75≦
 71
     5
 42
74.7537980617476
  3
AutoCAD
100
AcDbAlignedDimension
 13
1440.939258773686
 23
729.724832367375
 33
0.0
 14
1366.185460711939
 24
815.29566913661
 34
0.0
100
AcDbRotatedDimension
  0
DIMENSION
  5
740A
330
1E
100
AcDbEntity
  8
寸法
  6
Continuous
100
AcDbDimension
  2
*D12
 10
1491.185460711939
 20
799.6814203229583
 30
0.0
 11
1466.185460711939
 21
803.1814203229583
 31
0.0
 70
    32
  1
B
 71
     5
 42
49.99999999999977
  3
AutoCAD
100
AcDbAlignedDimension
 13
1441.185460711939
 23
799.6814203229583
 33
0.0
 14
1491.185460711939
 24
799.6814203229583
 34
0.0
100
AcDbRotatedDimension
  0
DIMENSION
  5
7415
330
1E
100
AcDbEntity
  8
寸法
  6
Continuous
100
AcDbDimension
  2
*D13
 10
1591.185460711939
 20
819.6814203229585
 30
0.0
 11
1576.185460711939
 21
823.1814203229586
 31
0.0
 70
    32
 71
     5
 42
29.99999999999977
  3
AutoCAD
100
AcDbAlignedDimension
 13
1561.185460711939
 23
819.6814203229585
 33
0.0
 14
1591.185460711939
 24
819.6814203229585
 34
0.0
100
AcDbRotatedDimension
  0
DIMENSION
  5
7420
330
1E
100
AcDbEntity
  8
寸法
  6
Continuous
100
AcDbDimension
  2
*D14
 10
1771.185460711938
 20
819.6814203229585
 30
0.0
 11
1756.185460711938
 21
823.1814203229586
 31
0.0
 70
    32
 71
     5
 42
29.99999999999955
  3
AutoCAD
100
AcDbAlignedDimension
 13
1741.185460711939
 23
819.6814203229585
 33
0.0
 14
1771.185460711938
 24
819.6814203229585
 34
0.0
100
AcDbRotatedDimension
  0
DIMENSION
  5
742B
330
1E
100
AcDbEntity
  8
寸法
  6
Continuous
100
AcDbDimension
  2
*D15
 10
1891.185460711939
 20
799.6814203229583
 30
0.0
 11
1866.185460711939
 21
803.1814203229583
 31
0.0
 70
    32
  1
B
 71
     5
 42
50.0
  3
AutoCAD
100
AcDbAlignedDimension
 13
1841.185460711939
 23
799.6814203229583
 33
0.0
 14
1891.185460711939
 24
799.6814203229583
 34
0.0
100
AcDbRotatedDimension
  0
ENDSEC
  0
SECTION
  2
OBJECTS
  0
DICTIONARY
  5
C
330
0
100
AcDbDictionary
281
     1
  3
ACAD_COLOR
350
6779
  3
ACAD_GROUP
350
D
  3
ACAD_LAYOUT
350
19
  3
ACAD_MATERIAL
350
6778
  3
ACAD_MLINESTYLE
350
16
  3
ACAD_PLOTSETTINGS
350
18
  3
ACAD_PLOTSTYLENAME
350
E
  3
ACAD_TABLESTYLE
350
677A
  3
ACDBHEADERROUNDTRIPXREC
350
7501
  3
AcDbVariableDictionary
350
169
  0
DICTIONARY
  5
175
330
2
100
AcDbDictionary
280
     1
281
     1
  3
ACAD_LAYERFILTERS
360
7397
  3
ACAD_LAYERSTATES
360
176
  3
ACLYDICTIONARY
360
7396
  0
DICTIONARY
  5
28B
330
1E
100
AcDbDictionary
280
     1
281
     1
  3
ACAD_LAYOUTSELFREF
360
6771
  0
DICTIONARY
  5
28D
330
1A
100
AcDbDictionary
280
     1
281
     1
  3
ACAD_LAYOUTSELFREF
360
6770
  0
DICTIONARY
  5
6779
102
{ACAD_REACTORS
330
C
102
}
330
C
100
AcDbDictionary
281
     1
  0
DICTIONARY
  5
D
102
{ACAD_REACTORS
330
C
102
}
330
C
100
AcDbDictionary
281
     1
  0
DICTIONARY
  5
19
102
{ACAD_REACTORS
330
C
102
}
330
C
100
AcDbDictionary
281
     1
  3
Model
350
21
  3
ﾚｲｱｳﾄ1
350
1D
  0
DICTIONARY
  5
6778
102
{ACAD_REACTORS
330
C
102
}
330
C
100
AcDbDictionary
281
     1
  0
DICTIONARY
  5
16
102
{ACAD_REACTORS
330
C
102
}
330
C
100
AcDbDictionary
281
     1
  3
Standard
350
17
  0
DICTIONARY
  5
18
102
{ACAD_REACTORS
330
C
102
}
330
C
100
AcDbDictionary
281
     1
  0
ACDBDICTIONARYWDFLT
  5
E
102
{ACAD_REACTORS
330
C
102
}
330
C
100
AcDbDictionary
281
     1
  3
Normal
350
F
100
AcDbDictionaryWithDefault
340
F
1001
ACAD
1000
TREAT_AS_HARD
1070
     0
1000
TREAT_AS_HARD
1070
     0
1000
TREAT_AS_HARD
1070
     0
1000
TREAT_AS_HARD
1070
     0
1000
TREAT_AS_HARD
1070
     0
1000
TREAT_AS_HARD
1070
     0
1000
TREAT_AS_HARD
1070
     0
1000
TREAT_AS_HARD
1070
     0
1000
TREAT_AS_HARD
1070
     0
1000
TREAT_AS_HARD
1070
     0
1000
TREAT_AS_HARD
1070
     0
1000
TREAT_AS_HARD
1070
     0
1000
TREAT_AS_HARD
1070
     0
1000
TREAT_AS_HARD
1070
     0
1000
TREAT_AS_HARD
1070
     0
1000
TREAT_AS_HARD
1070
     0
1000
TREAT_AS_HARD
1070
     0
1000
TREAT_AS_HARD
1070
     0
1000
TREAT_AS_HARD
1070
     0
1000
TREAT_AS_HARD
1070
     0
1000
TREAT_AS_HARD
1070
     0
1000
TREAT_AS_HARD
1070
     0
1000
TREAT_AS_HARD
1070
     0
1000
TREAT_AS_HARD
1070
     0
1000
TREAT_AS_HARD
1070
     0
1000
TREAT_AS_HARD
1070
     0
  0
DICTIONARY
  5
677A
102
{ACAD_REACTORS
330
C
102
}
330
C
100
AcDbDictionary
281
     1
  3
Standard
350
677B
  0
DICTIONARY
  5
7501
102
{ACAD_REACTORS
330
C
102
}
330
C
100
AcDbDictionary
281
     1
  0
DICTIONARY
  5
169
102
{ACAD_REACTORS
330
C
102
}
330
C
100
AcDbDictionary
281
     1
  3
CTABLESTYLE
350
6782
  3
DIMASSOC
350
16A
  3
PROJECTNAME
350
74FF
  0
DICTIONARY
  5
7397
102
{ACAD_REACTORS
330
175
102
}
330
175
100
AcDbDictionary
281
     1
  0
DICTIONARY
  5
176
102
{ACAD_REACTORS
330
175
102
}
330
175
100
AcDbDictionary
281
     1
  3
ACAD
350
177
  0
DICTIONARY
  5
7396
102
{ACAD_REACTORS
330
175
102
}
330
175
100
AcDbDictionary
281
     1
1001
ACAD
1000
<All
  0
XRECORD
  5
6771
102
{ACAD_REACTORS
330
28B
102
}
330
28B
100
AcDbXrecord
280
     1
340
1E
  0
XRECORD
  5
6770
102
{ACAD_REACTORS
330
28D
102
}
330
28D
100
AcDbXrecord
280
     1
340
1A
  0
LAYOUT
  5
21
102
{ACAD_XDICTIONARY
360
7504
102
}
102
{ACAD_REACTORS
330
19
102
}
330
19
100
AcDbPlotSettings
  1

  2
\\MEISEI-1\EPSON Stylus Photo EX3
  4

  6

 40
0.0
 41
0.0
 42
0.0
 43
0.0
 44
0.0
 45
0.0
 46
0.0
 47
0.0
 48
0.0
 49
0.0
140
0.0
141
0.0
142
1.0
143
1.0
 70
  1712
 72
     0
 73
     0
 74
     0
  7

 75
     0
147
1.0
148
0.0
149
0.0
100
AcDbLayout
  1
Model
 70
     1
 71
     0
 10
0.0
 20
0.0
 11
12.0
 21
9.0
 12
0.0
 22
0.0
 32
0.0
 14
0.0
 24
0.0
 34
0.0
 15
0.0
 25
0.0
 35
0.0
146
0.0
 13
0.0
 23
0.0
 33
0.0
 16
1.0
 26
0.0
 36
0.0
 17
0.0
 27
1.0
 37
0.0
 76
     0
330
1E
  0
LAYOUT
  5
1D
102
{ACAD_XDICTIONARY
360
7502
102
}
102
{ACAD_REACTORS
330
19
102
}
330
19
100
AcDbPlotSettings
  1

  2
\\MEISEI-1\EPSON Stylus Photo EX3
  4

  6

 40
0.0
 41
0.0
 42
0.0
 43
0.0
 44
0.0
 45
0.0
 46
0.0
 47
0.0
 48
0.0
 49
0.0
140
0.0
141
0.0
142
1.0
143
1.0
 70
   688
 72
     0
 73
     0
 74
     5
  7

 75
    16
147
1.0
148
0.0
149
0.0
100
AcDbLayout
  1
ﾚｲｱｳﾄ1
 70
     1
 71
     1
 10
0.0
 20
0.0
 11
12.0
 21
9.0
 12
0.0
 22
0.0
 32
0.0
 14
1.000000000000000E+20
 24
1.000000000000000E+20
 34
1.000000000000000E+20
 15
-1.000000000000000E+20
 25
-1.000000000000000E+20
 35
-1.000000000000000E+20
146
0.0
 13
0.0
 23
0.0
 33
0.0
 16
1.0
 26
0.0
 36
0.0
 17
0.0
 27
1.0
 37
0.0
 76
     0
330
1A
  0
MLINESTYLE
  5
17
102
{ACAD_REACTORS
330
16
102
}
330
16
100
AcDbMlineStyle
  2
STANDARD
 70
     0
  3

 62
   256
 51
90.0
 52
90.0
 71
     2
 49
0.5
 62
   256
  6
BYLAYER
 49
-0.5
 62
   256
  6
BYLAYER
  0
ACDBPLACEHOLDER
  5
F
102
{ACAD_REACTORS
330
E
102
}
330
E
  0
TABLESTYLE
  5
677B
102
{ACAD_REACTORS
330
677A
102
}
330
677A
100
AcDbTableStyle
  3
Standard
 70
     0
 71
     0
 40
0.06
 41
0.06
280
     0
281
     0
  7
STANDARD
140
0.18
170
     2
 62
     0
 63
     7
283
     0
274
    -2
284
     1
 64
     0
275
    -2
285
     1
 65
     0
276
    -2
286
     1
 66
     0
277
    -2
287
     1
 67
     0
278
    -2
288
     1
 68
     0
279
    -2
289
     1
 69
     0
  7
STANDARD
140
0.25
170
     5
 62
     0
 63
     7
283
     0
274
    -2
284
     1
 64
     0
275
    -2
285
     1
 65
     0
276
    -2
286
     1
 66
     0
277
    -2
287
     1
 67
     0
278
    -2
288
     1
 68
     0
279
    -2
289
     1
 69
     0
  7
STANDARD
140
0.18
170
     5
 62
     0
 63
     7
283
     0
274
    -2
284
     1
 64
     0
275
    -2
285
     1
 65
     0
276
    -2
286
     1
 66
     0
277
    -2
287
     1
 67
     0
278
    -2
288
     1
 68
     0
279
    -2
289
     1
 69
     0
  0
DICTIONARYVAR
  5
6782
102
{ACAD_REACTORS
330
169
102
}
330
169
100
DictionaryVariables
280
     0
  1
STANDARD
  0
DICTIONARYVAR
  5
16A
102
{ACAD_REACTORS
330
169
102
}
330
169
100
DictionaryVariables
280
     0
  1
1
  0
DICTIONARYVAR
  5
74FF
102
{ACAD_REACTORS
330
169
102
}
330
169
100
DictionaryVariables
280
     0
  1

  0
XRECORD
  5
177
102
{ACAD_REACTORS
330
176
102
}
330
176
100
AcDbXrecord
280
     1
 91
      476
330
179
 90
        8
 62
     7
370
    -3
331
15
  1
Color_7
330
178
 90
        8
 62
     7
370
    -3
331
15
  1
Color_7
330
128
 90
        0
 62
     7
370
    -3
331
15
  1
Color_7
330
10
 90
        8
 62
     7
370
    -3
331
15
  1
Color_7
  0
DICTIONARY
  5
7504
330
21
100
AcDbDictionary
280
     1
281
     1
  3
ACAD_XREC_ROUNDTRIP
360
7505
  0
DICTIONARY
  5
7502
330
1D
100
AcDbDictionary
280
     1
281
     1
  3
ACAD_XREC_ROUNDTRIP
360
7503
  0
XRECORD
  5
7505
102
{ACAD_REACTORS
330
7504
102
}
330
7504
100
AcDbXrecord
280
     1
102
SHADEPLOT
 70
     0
102
SHADEPLOTRESLEVEL
 70
     2
102
SHADEPLOTCUSTOMDPI
 70
   300
  0
XRECORD
  5
7503
102
{ACAD_REACTORS
330
7502
102
}
330
7502
100
AcDbXrecord
280
     1
102
SHADEPLOT
 70
     0
102
SHADEPLOTRESLEVEL
 70
     2
102
SHADEPLOTCUSTOMDPI
 70
   300
  0
ENDSEC
  0
EOF
