  0
SECTION
  2
HEADER
  9
$ACADVER
  1
AC1015
  9
$ACADMAINTVER
 70
    20
  9
$DWGCODEPAGE
  3
ANSI_932
  9
$INSBASE
 10
0.0
 20
0.0
 30
0.0
  9
$EXTMIN
 10
1351.959066853372
 20
428.3022137281646
 30
-0.0000000349181948
  9
$EXTMAX
 10
2176.057102375918
 20
1004.367767380097
 30
0.0000000814935746
  9
$LIMMIN
 10
0.0
 20
0.0
  9
$LIMMAX
 10
420.0
 20
297.0
  9
$ORTHOMODE
 70
     0
  9
$REGENMODE
 70
     1
  9
$FILLMODE
 70
     1
  9
$QTEXTMODE
 70
     0
  9
$MIRRTEXT
 70
     1
  9
$LTSCALE
 40
1.0
  9
$ATTMODE
 70
     1
  9
$TEXTSIZE
 40
5.0
  9
$TRACEWID
 40
0.05
  9
$TEXTSTYLE
  7
ACAD
  9
$CLAYER
  8
0
  9
$CELTYPE
  6
CONTINUOUS
  9
$CECOLOR
 62
   256
  9
$CELTSCALE
 40
1.0
  9
$DISPSILH
 70
     0
  9
$DIMSCALE
 40
1.0
  9
$DIMASZ
 40
1.0
  9
$DIMEXO
 40
0.0
  9
$DIMDLI
 40
0.38
  9
$DIMRND
 40
0.0
  9
$DIMDLE
 40
0.0
  9
$DIMEXE
 40
0.0
  9
$DIMTP
 40
0.0
  9
$DIMTM
 40
0.0
  9
$DIMTXT
 40
5.0
  9
$DIMCEN
 40
0.09
  9
$DIMTSZ
 40
0.0
  9
$DIMTOL
 70
     0
  9
$DIMLIM
 70
     0
  9
$DIMTIH
 70
     0
  9
$DIMTOH
 70
     1
  9
$DIMSE1
 70
     0
  9
$DIMSE2
 70
     0
  9
$DIMTAD
 70
     1
  9
$DIMZIN
 70
     0
  9
$DIMBLK
  1
Dot
  9
$DIMASO
 70
     1
  9
$DIMSHO
 70
     1
  9
$DIMPOST
  1

  9
$DIMAPOST
  1

  9
$DIMALT
 70
     0
  9
$DIMALTD
 70
     2
  9
$DIMALTF
 40
25.4
  9
$DIMLFAC
 40
1.0
  9
$DIMTOFL
 70
     0
  9
$DIMTVP
 40
0.0
  9
$DIMTIX
 70
     1
  9
$DIMSOXD
 70
     0
  9
$DIMSAH
 70
     0
  9
$DIMBLK1
  1

  9
$DIMBLK2
  1

  9
$DIMSTYLE
  2
AutoCAD
  9
$DIMCLRD
 70
     4
  9
$DIMCLRE
 70
     4
  9
$DIMCLRT
 70
     3
  9
$DIMTFAC
 40
1.0
  9
$DIMGAP
 40
1.0
  9
$DIMJUST
 70
     0
  9
$DIMSD1
 70
     0
  9
$DIMSD2
 70
     0
  9
$DIMTOLJ
 70
     1
  9
$DIMTZIN
 70
     0
  9
$DIMALTZ
 70
     0
  9
$DIMALTTZ
 70
     0
  9
$DIMUPT
 70
     0
  9
$DIMDEC
 70
     0
  9
$DIMTDEC
 70
     0
  9
$DIMALTU
 70
     2
  9
$DIMALTTD
 70
     2
  9
$DIMTXSTY
  7
ACAD
  9
$DIMAUNIT
 70
     0
  9
$DIMADEC
 70
     0
  9
$DIMALTRND
 40
0.0
  9
$DIMAZIN
 70
     0
  9
$DIMDSEP
 70
    46
  9
$DIMATFIT
 70
     0
  9
$DIMFRAC
 70
     0
  9
$DIMLDRBLK
  1
None
  9
$DIMLUNIT
 70
     2
  9
$DIMLWD
 70
    -2
  9
$DIMLWE
 70
    -2
  9
$DIMTMOVE
 70
     0
  9
$LUNITS
 70
     2
  9
$LUPREC
 70
     4
  9
$SKETCHINC
 40
0.1
  9
$FILLETRAD
 40
0.0
  9
$AUNITS
 70
     0
  9
$AUPREC
 70
     0
  9
$MENU
  1
.
  9
$ELEVATION
 40
0.0
  9
$PELEVATION
 40
0.0
  9
$THICKNESS
 40
0.0
  9
$LIMCHECK
 70
     0
  9
$CHAMFERA
 40
0.0
  9
$CHAMFERB
 40
0.0
  9
$CHAMFERC
 40
0.0
  9
$CHAMFERD
 40
0.0
  9
$SKPOLY
 70
     0
  9
$TDCREATE
 40
2454316.693457674
  9
$TDUCREATE
 40
2454316.318457674
  9
$TDUPDATE
 40
2454733.676403889
  9
$TDUUPDATE
 40
2454733.301403889
  9
$TDINDWG
 40
0.2456352662
  9
$TDUSRTIMER
 40
0.2456352662
  9
$USRTIMER
 70
     1
  9
$ANGBASE
 50
0.0
  9
$ANGDIR
 70
     0
  9
$PDMODE
 70
     0
  9
$PDSIZE
 40
0.0
  9
$PLINEWID
 40
0.0
  9
$SPLFRAME
 70
     0
  9
$SPLINETYPE
 70
     6
  9
$SPLINESEGS
 70
     8
  9
$HANDSEED
  5
709F
  9
$SURFTAB1
 70
     6
  9
$SURFTAB2
 70
     6
  9
$SURFTYPE
 70
     6
  9
$SURFU
 70
     6
  9
$SURFV
 70
     6
  9
$UCSBASE
  2

  9
$UCSNAME
  2

  9
$UCSORG
 10
0.0
 20
0.0
 30
0.0
  9
$UCSXDIR
 10
1.0
 20
0.0
 30
0.0
  9
$UCSYDIR
 10
0.0
 20
1.0
 30
0.0
  9
$UCSORTHOREF
  2

  9
$UCSORTHOVIEW
 70
     0
  9
$UCSORGTOP
 10
0.0
 20
0.0
 30
0.0
  9
$UCSORGBOTTOM
 10
0.0
 20
0.0
 30
0.0
  9
$UCSORGLEFT
 10
0.0
 20
0.0
 30
0.0
  9
$UCSORGRIGHT
 10
0.0
 20
0.0
 30
0.0
  9
$UCSORGFRONT
 10
0.0
 20
0.0
 30
0.0
  9
$UCSORGBACK
 10
0.0
 20
0.0
 30
0.0
  9
$PUCSBASE
  2

  9
$PUCSNAME
  2

  9
$PUCSORG
 10
0.0
 20
0.0
 30
0.0
  9
$PUCSXDIR
 10
1.0
 20
0.0
 30
0.0
  9
$PUCSYDIR
 10
0.0
 20
1.0
 30
0.0
  9
$PUCSORTHOREF
  2

  9
$PUCSORTHOVIEW
 70
     0
  9
$PUCSORGTOP
 10
0.0
 20
0.0
 30
0.0
  9
$PUCSORGBOTTOM
 10
0.0
 20
0.0
 30
0.0
  9
$PUCSORGLEFT
 10
0.0
 20
0.0
 30
0.0
  9
$PUCSORGRIGHT
 10
0.0
 20
0.0
 30
0.0
  9
$PUCSORGFRONT
 10
0.0
 20
0.0
 30
0.0
  9
$PUCSORGBACK
 10
0.0
 20
0.0
 30
0.0
  9
$USERI1
 70
     0
  9
$USERI2
 70
     0
  9
$USERI3
 70
     0
  9
$USERI4
 70
     0
  9
$USERI5
 70
     0
  9
$USERR1
 40
0.0
  9
$USERR2
 40
0.0
  9
$USERR3
 40
0.0
  9
$USERR4
 40
0.0
  9
$USERR5
 40
0.0
  9
$WORLDVIEW
 70
     1
  9
$SHADEDGE
 70
     3
  9
$SHADEDIF
 70
    70
  9
$TILEMODE
 70
     1
  9
$MAXACTVP
 70
    48
  9
$PINSBASE
 10
0.0
 20
0.0
 30
0.0
  9
$PLIMCHECK
 70
     0
  9
$PEXTMIN
 10
1.000000000000000E+20
 20
1.000000000000000E+20
 30
1.000000000000000E+20
  9
$PEXTMAX
 10
-1.000000000000000E+20
 20
-1.000000000000000E+20
 30
-1.000000000000000E+20
  9
$PLIMMIN
 10
0.0
 20
0.0
  9
$PLIMMAX
 10
12.0
 20
9.0
  9
$UNITMODE
 70
     0
  9
$VISRETAIN
 70
     0
  9
$PLINEGEN
 70
     0
  9
$PSLTSCALE
 70
     1
  9
$TREEDEPTH
 70
  3020
  9
$CMLSTYLE
  2
Standard
  9
$CMLJUST
 70
     0
  9
$CMLSCALE
 40
1.0
  9
$PROXYGRAPHICS
 70
     1
  9
$MEASUREMENT
 70
     0
  9
$CELWEIGHT
370
    -1
  9
$ENDCAPS
280
     0
  9
$JOINSTYLE
280
     0
  9
$LWDISPLAY
290
     0
  9
$INSUNITS
 70
     0
  9
$HYPERLINKBASE
  1

  9
$STYLESHEET
  1

  9
$XEDIT
290
     1
  9
$CEPSNTYPE
380
     0
  9
$PSTYLEMODE
290
     1
  9
$FINGERPRINTGUID
  2
{CC7D6DEE-A9F1-4F3E-AC95-C84B62CCA3FD}
  9
$VERSIONGUID
  2
{2E56E1B3-49DA-4B28-AA45-223F67F6D85F}
  9
$EXTNAMES
290
     1
  9
$PSVPSCALE
 40
0.0
  9
$OLESTARTUP
290
     0
  0
ENDSEC
  0
SECTION
  2
CLASSES
  0
CLASS
  1
ACDBDICTIONARYWDFLT
  2
AcDbDictionaryWithDefault
  3
ObjectDBX Classes
 90
        0
280
     0
281
     0
  0
CLASS
  1
ACDBPLACEHOLDER
  2
AcDbPlaceHolder
  3
ObjectDBX Classes
 90
        0
280
     0
281
     0
  0
CLASS
  1
LAYOUT
  2
AcDbLayout
  3
ObjectDBX Classes
 90
        0
280
     0
281
     0
  0
CLASS
  1
DICTIONARYVAR
  2
AcDbDictionaryVar
  3
ObjectDBX Classes
 90
        0
280
     0
281
     0
  0
CLASS
  1
TABLESTYLE
  2
AcDbTableStyle
  3
ObjectDBX Classes
 90
     2047
280
     0
281
     0
  0
ENDSEC
  0
SECTION
  2
TABLES
  0
TABLE
  2
VPORT
  5
8
330
0
100
AcDbSymbolTable
 70
     2
  0
VPORT
  5
7099
330
8
100
AcDbSymbolTableRecord
100
AcDbViewportTableRecord
  2
*Active
 70
     0
 10
0.0
 20
0.0
 11
1.0
 21
1.0
 12
1698.383131528321
 22
734.5154364665031
 13
0.0
 23
0.0
 14
1.0
 24
1.0
 15
0.0
 25
0.0
 16
0.0
 26
0.0
 36
1.0
 17
0.0
 27
0.0
 37
0.0
 40
650.2922915200425
 41
1.542635658914728
 42
50.0
 43
0.0
 44
0.0
 50
0.0
 51
0.0
 71
     0
 72
   100
 73
     1
 74
     1
 75
     0
 76
     0
 77
     0
 78
     0
281
     0
 65
     1
110
0.0
120
0.0
130
0.0
111
1.0
121
0.0
131
0.0
112
0.0
122
1.0
132
0.0
 79
     0
146
0.0
  0
ENDTAB
  0
TABLE
  2
LTYPE
  5
5
330
0
100
AcDbSymbolTable
 70
    50
  0
LTYPE
  5
13
330
5
100
AcDbSymbolTableRecord
100
AcDbLinetypeTableRecord
  2
ByBlock
 70
     0
  3

 72
    65
 73
     0
 40
0.0
  0
LTYPE
  5
14
330
5
100
AcDbSymbolTableRecord
100
AcDbLinetypeTableRecord
  2
ByLayer
 70
     0
  3

 72
    65
 73
     0
 40
0.0
  0
LTYPE
  5
15
330
5
100
AcDbSymbolTableRecord
100
AcDbLinetypeTableRecord
  2
CONTINUOUS
 70
     0
  3
実線
 72
    65
 73
     0
 40
0.0
  0
LTYPE
  5
22
330
5
100
AcDbSymbolTableRecord
100
AcDbLinetypeTableRecord
  2
DASHED1
 70
     0
  3
--  --  --  --  --  --  --  --  
 72
    65
 73
     2
 40
2.5
 49
1.25
 74
     0
 49
-1.25
 74
     0
  0
LTYPE
  5
23
330
5
100
AcDbSymbolTableRecord
100
AcDbLinetypeTableRecord
  2
DASHED2
 70
     0
  3
----    ----    ----    ----    
 72
    65
 73
     2
 40
5.0
 49
2.5
 74
     0
 49
-2.5
 74
     0
  0
LTYPE
  5
24
330
5
100
AcDbSymbolTableRecord
100
AcDbLinetypeTableRecord
  2
DASHED3
 70
     0
  3
------  ------  ------  ------  
 72
    65
 73
     2
 40
5.0
 49
3.75
 74
     0
 49
-1.25
 74
     0
  0
LTYPE
  5
25
330
5
100
AcDbSymbolTableRecord
100
AcDbLinetypeTableRecord
  2
CENTER1
 70
     0
  3
----- - ----- - ----- - ----- - 
 72
    65
 73
     4
 40
10.0
 49
6.25
 74
     0
 49
-1.25
 74
     0
 49
1.25
 74
     0
 49
-1.25
 74
     0
  0
LTYPE
  5
26
330
5
100
AcDbSymbolTableRecord
100
AcDbLinetypeTableRecord
  2
CENTER2
 70
     0
  3
----------  --  ----------  --  
 72
    65
 73
     4
 40
20.0
 49
12.5
 74
     0
 49
-2.5
 74
     0
 49
2.5
 74
     0
 49
-2.5
 74
     0
  0
LTYPE
  5
27
330
5
100
AcDbSymbolTableRecord
100
AcDbLinetypeTableRecord
  2
PHANTOM1
 70
     0
  3
--- - - --- - - --- - - --- - - 
 72
    65
 73
     6
 40
10.0
 49
3.25
 74
     0
 49
-1.25
 74
     0
 49
1.25
 74
     0
 49
-1.25
 74
     0
 49
1.25
 74
     0
 49
-1.25
 74
     0
  0
LTYPE
  5
28
330
5
100
AcDbSymbolTableRecord
100
AcDbLinetypeTableRecord
  2
PHANTOM2
 70
     0
  3
--------  -  -  --------  -  -  
 72
    65
 73
     6
 40
20.0
 49
10.0
 74
     0
 49
-2.5
 74
     0
 49
1.25
 74
     0
 49
-2.5
 74
     0
 49
1.25
 74
     0
 49
-2.5
 74
     0
  0
LTYPE
  5
29
330
5
100
AcDbSymbolTableRecord
100
AcDbLinetypeTableRecord
  2
DOT
 70
     0
  3
-   -   -   -   -   -   -   -   
 72
    65
 73
     2
 40
2.5
 49
0.625
 74
     0
 49
-1.875
 74
     0
  0
LTYPE
  5
2A
330
5
100
AcDbSymbolTableRecord
100
AcDbLinetypeTableRecord
  2
DUMMY
 70
     0
  3
ダミー
 72
    65
 73
     0
 40
0.0
  0
LTYPE
  5
2B
330
5
100
AcDbSymbolTableRecord
100
AcDbLinetypeTableRecord
  2
RAND1
 70
     0
  3
ランダム線1
 72
    65
 73
     4
 40
10.0
 49
1.0
 74
     0
 49
-2.0
 74
     0
 49
3.0
 74
     0
 49
-4.0
 74
     0
  0
LTYPE
  5
2C
330
5
100
AcDbSymbolTableRecord
100
AcDbLinetypeTableRecord
  2
RAND2
 70
     0
  3
ランダム線2
 72
    65
 73
     4
 40
14.0
 49
2.0
 74
     0
 49
-3.0
 74
     0
 49
4.0
 74
     0
 49
-5.0
 74
     0
  0
LTYPE
  5
2D
330
5
100
AcDbSymbolTableRecord
100
AcDbLinetypeTableRecord
  2
RAND3
 70
     0
  3
ランダム線3
 72
    65
 73
     4
 40
18.0
 49
3.0
 74
     0
 49
-4.0
 74
     0
 49
5.0
 74
     0
 49
-6.0
 74
     0
  0
LTYPE
  5
2E
330
5
100
AcDbSymbolTableRecord
100
AcDbLinetypeTableRecord
  2
RAND4
 70
     0
  3
ランダム線4
 72
    65
 73
     4
 40
22.0
 49
4.0
 74
     0
 49
-5.0
 74
     0
 49
6.0
 74
     0
 49
-7.0
 74
     0
  0
LTYPE
  5
2F
330
5
100
AcDbSymbolTableRecord
100
AcDbLinetypeTableRecord
  2
RAND5
 70
     0
  3
ランダム線5
 72
    65
 73
     4
 40
26.0
 49
5.0
 74
     0
 49
-6.0
 74
     0
 49
7.0
 74
     0
 49
-8.0
 74
     0
  0
LTYPE
  5
30
330
5
100
AcDbSymbolTableRecord
100
AcDbLinetypeTableRecord
  2
LONG1
 70
     0
  3
----------  --  ----------  --  
 72
    65
 73
     4
 40
40.0
 49
32.5
 74
     0
 49
-2.5
 74
     0
 49
2.5
 74
     0
 49
-2.5
 74
     0
  0
LTYPE
  5
31
330
5
100
AcDbSymbolTableRecord
100
AcDbLinetypeTableRecord
  2
LONG2
 70
     0
  3
--------  -  -  --------  -  -  
 72
    65
 73
     6
 40
40.0
 49
30.0
 74
     0
 49
-2.5
 74
     0
 49
1.25
 74
     0
 49
-2.5
 74
     0
 49
1.25
 74
     0
 49
-2.5
 74
     0
  0
LTYPE
  5
32
330
5
100
AcDbSymbolTableRecord
100
AcDbLinetypeTableRecord
  2
LONG3
 70
     0
  3
+++++++++++++++..+++++++++++++++
 72
    65
 73
     2
 40
40.0
 49
37.5
 74
     0
 49
-2.5
 74
     0
  0
LTYPE
  5
33
330
5
100
AcDbSymbolTableRecord
100
AcDbLinetypeTableRecord
  2
LONG4
 70
     0
  3
+++++++++++++++..+++++++++++++++
 72
    65
 73
     2
 40
80.0
 49
75.0
 74
     0
 49
-5.0
 74
     0
  0
LTYPE
  5
34
330
5
100
AcDbSymbolTableRecord
100
AcDbLinetypeTableRecord
  2
LONG5
 70
     0
  3
----------  --  ----------  --  
 72
    65
 73
     4
 40
60.0
 49
37.5
 74
     0
 49
-7.5
 74
     0
 49
7.5
 74
     0
 49
-7.5
 74
     0
  0
LTYPE
  5
35
330
5
100
AcDbSymbolTableRecord
100
AcDbLinetypeTableRecord
  2
DASHED
 70
     0
  3
-------   -------------   ------
 72
    65
 73
     2
 40
7.5
 49
6.0
 74
     0
 49
-1.5
 74
     0
  0
LTYPE
  5
36
330
5
100
AcDbSymbolTableRecord
100
AcDbLinetypeTableRecord
  2
DASHED_SPACED
 70
     0
  3
----        --------        ----
 72
    65
 73
     2
 40
12.0
 49
6.0
 74
     0
 49
-6.0
 74
     0
  0
LTYPE
  5
37
330
5
100
AcDbSymbolTableRecord
100
AcDbLinetypeTableRecord
  2
LONG_DASHED_DOTTED
 70
     0
  3
------------- --- --------------
 72
    65
 73
     4
 40
15.25
 49
12.0
 74
     0
 49
-1.5
 74
     0
 49
0.25
 74
     0
 49
-1.5
 74
     0
  0
LTYPE
  5
38
330
5
100
AcDbSymbolTableRecord
100
AcDbLinetypeTableRecord
  2
LONG_DASHED_DOUBLE-DOTTED
 70
     0
  3
----------- --- --- ------------
 72
    65
 73
     6
 40
17.0
 49
12.0
 74
     0
 49
-1.5
 74
     0
 49
0.25
 74
     0
 49
-1.5
 74
     0
 49
0.25
 74
     0
 49
-1.5
 74
     0
  0
LTYPE
  5
39
330
5
100
AcDbSymbolTableRecord
100
AcDbLinetypeTableRecord
  2
LONG_DASHED_TRIPLICATE-DOTTED
 70
     0
  3
--------- --- --- --- ----------
 72
    65
 73
     8
 40
18.75
 49
12.0
 74
     0
 49
-1.5
 74
     0
 49
0.25
 74
     0
 49
-1.5
 74
     0
 49
0.25
 74
     0
 49
-1.5
 74
     0
 49
0.25
 74
     0
 49
-1.5
 74
     0
  0
LTYPE
  5
3A
330
5
100
AcDbSymbolTableRecord
100
AcDbLinetypeTableRecord
  2
DOTTED
 70
     0
  3
   -       -       -       -    
 72
    65
 73
     2
 40
1.75
 49
0.25
 74
     0
 49
-1.5
 74
     0
  0
LTYPE
  5
3B
330
5
100
AcDbSymbolTableRecord
100
AcDbLinetypeTableRecord
  2
CHAIN
 70
     0
  3
-------------- -- --------------
 72
    65
 73
     4
 40
18.5
 49
12.0
 74
     0
 49
-1.5
 74
     0
 49
3.5
 74
     0
 49
-1.5
 74
     0
  0
LTYPE
  5
3C
330
5
100
AcDbSymbolTableRecord
100
AcDbLinetypeTableRecord
  2
CHAIN_DOUBLE_DASH
 70
     0
  3
------------ -- -- -------------
 72
    65
 73
     6
 40
23.5
 49
12.0
 74
     0
 49
-1.5
 74
     0
 49
3.5
 74
     0
 49
-1.5
 74
     0
 49
3.5
 74
     0
 49
-1.5
 74
     0
  0
LTYPE
  5
3D
330
5
100
AcDbSymbolTableRecord
100
AcDbLinetypeTableRecord
  2
DASHED_DOTTED
 70
     0
  3
-----------     -     ----------
 72
    65
 73
     4
 40
9.25
 49
6.0
 74
     0
 49
-1.5
 74
     0
 49
0.25
 74
     0
 49
-1.5
 74
     0
  0
LTYPE
  5
3E
330
5
100
AcDbSymbolTableRecord
100
AcDbLinetypeTableRecord
  2
DOUBLE-DASHED_DOTTED
 70
     0
  3
------   -----------   -   -----
 72
    65
 73
     6
 40
16.75
 49
6.0
 74
     0
 49
-1.5
 74
     0
 49
6.0
 74
     0
 49
-1.5
 74
     0
 49
0.25
 74
     0
 49
-1.5
 74
     0
  0
LTYPE
  5
3F
330
5
100
AcDbSymbolTableRecord
100
AcDbLinetypeTableRecord
  2
DASHED_DOUBLE-DOTTED
 70
     0
  3
---------    -    -    ---------
 72
    65
 73
     6
 40
11.0
 49
6.0
 74
     0
 49
-1.5
 74
     0
 49
0.25
 74
     0
 49
-1.5
 74
     0
 49
0.25
 74
     0
 49
-1.5
 74
     0
  0
LTYPE
  5
40
330
5
100
AcDbSymbolTableRecord
100
AcDbLinetypeTableRecord
  2
DOUBLE-DASHED_DOUBLE-DOTTED
 70
     0
  3
-----   ---------   -   -   ----
 72
    65
 73
     8
 40
18.5
 49
6.0
 74
     0
 49
-1.5
 74
     0
 49
6.0
 74
     0
 49
-1.5
 74
     0
 49
0.25
 74
     0
 49
-1.5
 74
     0
 49
0.25
 74
     0
 49
-1.5
 74
     0
  0
LTYPE
  5
41
330
5
100
AcDbSymbolTableRecord
100
AcDbLinetypeTableRecord
  2
DASHED_TRIPLICATE-DOTTED
 70
     0
  3
-------    -    -    -    ------
 72
    65
 73
     8
 40
12.75
 49
6.0
 74
     0
 49
-1.5
 74
     0
 49
0.25
 74
     0
 49
-1.5
 74
     0
 49
0.25
 74
     0
 49
-1.5
 74
     0
 49
0.25
 74
     0
 49
-1.5
 74
     0
  0
LTYPE
  5
42
330
5
100
AcDbSymbolTableRecord
100
AcDbLinetypeTableRecord
  2
DOUBLE-DASHED_TRIPLICATE-DOTTED
 70
     0
  3
-----  ---------  -  -  -  -----
 72
    65
 73
    10
 40
20.25
 49
6.0
 74
     0
 49
-1.5
 74
     0
 49
6.0
 74
     0
 49
-1.5
 74
     0
 49
0.25
 74
     0
 49
-1.5
 74
     0
 49
0.25
 74
     0
 49
-1.5
 74
     0
 49
0.25
 74
     0
 49
-1.5
 74
     0
  0
LTYPE
  5
43
330
5
100
AcDbSymbolTableRecord
100
AcDbLinetypeTableRecord
  2
UNDEFINED
 70
     0
  3
--------------------------------
 72
    65
 73
     0
 40
0.0
  0
LTYPE
  5
44
330
5
100
AcDbSymbolTableRecord
100
AcDbLinetypeTableRecord
  2
PLINE2
 70
     0
  3
------     -----------     -----
 72
    65
 73
     2
 40
3.0
 49
2.1
 74
     0
 49
-0.9
 74
     0
  0
LTYPE
  5
45
330
5
100
AcDbSymbolTableRecord
100
AcDbLinetypeTableRecord
  2
PLINE3
 70
     0
  3
------------   ---   -----------
 72
    65
 73
     4
 40
10.0
 49
7.0
 74
     0
 49
-1.0
 74
     0
 49
1.0
 74
     0
 49
-1.0
 74
     0
  0
LTYPE
  5
46
330
5
100
AcDbSymbolTableRecord
100
AcDbLinetypeTableRecord
  2
PLINE4
 70
     0
  3
---------   ---   ---   --------
 72
    65
 73
     6
 40
10.0
 49
5.0
 74
     0
 49
-1.0
 74
     0
 49
1.0
 74
     0
 49
-1.0
 74
     0
 49
1.0
 74
     0
 49
-1.0
 74
     0
  0
LTYPE
  5
47
330
5
100
AcDbSymbolTableRecord
100
AcDbLinetypeTableRecord
  2
PLINE5
 70
     0
  3
------     -----------     -----
 72
    65
 73
     2
 40
5.0
 49
3.5
 74
     0
 49
-1.5
 74
     0
  0
LTYPE
  5
48
330
5
100
AcDbSymbolTableRecord
100
AcDbLinetypeTableRecord
  2
PLINE6
 70
     0
  3
------------   ---   -----------
 72
    65
 73
     4
 40
15.0
 49
10.5
 74
     0
 49
-1.5
 74
     0
 49
1.5
 74
     0
 49
-1.5
 74
     0
  0
LTYPE
  5
49
330
5
100
AcDbSymbolTableRecord
100
AcDbLinetypeTableRecord
  2
PLINE7
 70
     0
  3
---------   ---   ---   --------
 72
    65
 73
     6
 40
15.0
 49
7.5
 74
     0
 49
-1.5
 74
     0
 49
1.5
 74
     0
 49
-1.5
 74
     0
 49
1.5
 74
     0
 49
-1.5
 74
     0
  0
LTYPE
  5
4A
330
5
100
AcDbSymbolTableRecord
100
AcDbLinetypeTableRecord
  2
PLINE8
 70
     0
  3
------     -----------     -----
 72
    65
 73
     2
 40
7.0
 49
4.9
 74
     0
 49
-2.1
 74
     0
  0
LTYPE
  5
4B
330
5
100
AcDbSymbolTableRecord
100
AcDbLinetypeTableRecord
  2
PLINE9
 70
     0
  3
------------   ---   -----------
 72
    65
 73
     4
 40
20.0
 49
14.0
 74
     0
 49
-2.0
 74
     0
 49
2.0
 74
     0
 49
-2.0
 74
     0
  0
LTYPE
  5
4C
330
5
100
AcDbSymbolTableRecord
100
AcDbLinetypeTableRecord
  2
PLINE10
 70
     0
  3
---------   ---   ---   --------
 72
    65
 73
     6
 40
20.0
 49
10.0
 74
     0
 49
-2.0
 74
     0
 49
2.0
 74
     0
 49
-2.0
 74
     0
 49
2.0
 74
     0
 49
-2.0
 74
     0
  0
LTYPE
  5
4D
330
5
100
AcDbSymbolTableRecord
100
AcDbLinetypeTableRecord
  2
PLINE11
 70
     0
  3
------     -----------     -----
 72
    65
 73
     2
 40
9.0
 49
6.299999999999999
 74
     0
 49
-2.7
 74
     0
  0
LTYPE
  5
4E
330
5
100
AcDbSymbolTableRecord
100
AcDbLinetypeTableRecord
  2
PLINE12
 70
     0
  3
------------   ---   -----------
 72
    65
 73
     4
 40
25.0
 49
17.5
 74
     0
 49
-2.5
 74
     0
 49
2.5
 74
     0
 49
-2.5
 74
     0
  0
LTYPE
  5
4F
330
5
100
AcDbSymbolTableRecord
100
AcDbLinetypeTableRecord
  2
PLINE13
 70
     0
  3
---------   ---   ---   --------
 72
    65
 73
     6
 40
25.0
 49
12.5
 74
     0
 49
-2.5
 74
     0
 49
2.5
 74
     0
 49
-2.5
 74
     0
 49
2.5
 74
     0
 49
-2.5
 74
     0
  0
LTYPE
  5
50
330
5
100
AcDbSymbolTableRecord
100
AcDbLinetypeTableRecord
  2
PLINE14
 70
     0
  3
------     -----------     -----
 72
    65
 73
     2
 40
11.0
 49
7.7
 74
     0
 49
-3.299999999999999
 74
     0
  0
LTYPE
  5
51
330
5
100
AcDbSymbolTableRecord
100
AcDbLinetypeTableRecord
  2
PLINE15
 70
     0
  3
------------   ---   -----------
 72
    65
 73
     4
 40
30.0
 49
21.0
 74
     0
 49
-3.0
 74
     0
 49
3.0
 74
     0
 49
-3.0
 74
     0
  0
LTYPE
  5
52
330
5
100
AcDbSymbolTableRecord
100
AcDbLinetypeTableRecord
  2
PLINE16
 70
     0
  3
---------   ---   ---   --------
 72
    65
 73
     6
 40
30.0
 49
15.0
 74
     0
 49
-3.0
 74
     0
 49
3.0
 74
     0
 49
-3.0
 74
     0
 49
3.0
 74
     0
 49
-3.0
 74
     0
  0
ENDTAB
  0
TABLE
  2
LAYER
  5
2
102
{ACAD_XDICTIONARY
360
175
102
}
330
0
100
AcDbSymbolTable
 70
     5
  0
LAYER
  5
10
330
2
100
AcDbSymbolTableRecord
100
AcDbLayerTableRecord
  2
0
 70
     0
 62
     7
  6
CONTINUOUS
370
    -3
390
F
  0
LAYER
  5
128
330
2
100
AcDbSymbolTableRecord
100
AcDbLayerTableRecord
  2
Defpoints
 70
     0
 62
     7
  6
CONTINUOUS
290
     0
370
    -3
390
F
  0
LAYER
  5
178
330
2
100
AcDbSymbolTableRecord
100
AcDbLayerTableRecord
  2
寸法
 70
     0
 62
     7
  6
CONTINUOUS
370
    -3
390
F
  0
LAYER
  5
179
330
2
100
AcDbSymbolTableRecord
100
AcDbLayerTableRecord
  2
躯体と製品
 70
     0
 62
     7
  6
CONTINUOUS
370
    -3
390
F
  0
LAYER
  5
4F62
330
2
100
AcDbSymbolTableRecord
100
AcDbLayerTableRecord
  2
図枠
 70
     0
 62
     7
  6
CONTINUOUS
370
    -3
390
F
  0
ENDTAB
  0
TABLE
  2
STYLE
  5
3
330
0
100
AcDbSymbolTable
 70
     5
  0
STYLE
  5
11
330
3
100
AcDbSymbolTableRecord
100
AcDbTextStyleTableRecord
  2
STANDARD
 70
     0
 40
0.0
 41
1.0
 50
0.0
 71
     0
 42
0.2
  3
txt
  4
bigfont.shx
  0
STYLE
  5
53
330
3
100
AcDbSymbolTableRecord
100
AcDbTextStyleTableRecord
  2
TATEGAKI
 70
     4
 40
0.0
 41
1.0
 50
0.0
 71
     0
 42
1.0
  3
txt
  4
bigfont.shx
  0
STYLE
  5
123
330
3
100
AcDbSymbolTableRecord
100
AcDbTextStyleTableRecord
  2
ACAD
 70
     0
 40
5.0
 41
0.8
 50
0.0
 71
     0
 42
5.0
  3
romans.shx
  4
extfont.shx
  0
STYLE
  5
3A5F
330
3
100
AcDbSymbolTableRecord
100
AcDbTextStyleTableRecord
  2
VERTXT
 70
     4
 40
0.0
 41
0.8582679999999999
 50
0.0
 71
     0
 42
3.5
  3
txt.shx
  4
BIGFONT
  0
STYLE
  5
50AD
330
3
100
AcDbSymbolTableRecord
100
AcDbTextStyleTableRecord
  2
STANDARD2
 70
     0
 40
0.0
 41
0.8582679999999999
 50
0.0
 71
     0
 42
3.5
  3
txt.shx
  4
EXTFONT
  0
ENDTAB
  0
TABLE
  2
VIEW
  5
6
330
0
100
AcDbSymbolTable
 70
     0
  0
ENDTAB
  0
TABLE
  2
UCS
  5
7
330
0
100
AcDbSymbolTable
 70
     0
  0
ENDTAB
  0
TABLE
  2
APPID
  5
9
330
0
100
AcDbSymbolTable
 70
     1
  0
APPID
  5
12
330
9
100
AcDbSymbolTableRecord
100
AcDbRegAppTableRecord
  2
ACAD
 70
     0
  0
ENDTAB
  0
TABLE
  2
DIMSTYLE
  5
A
330
0
100
AcDbSymbolTable
 70
     3
100
AcDbDimStyleTable
 71
     1
340
126
  0
DIMSTYLE
105
11C
330
A
100
AcDbSymbolTableRecord
100
AcDbDimStyleTableRecord
  2
Standard
 70
     0
340
11
  0
DIMSTYLE
105
126
102
{ACAD_REACTORS
330
6FE4
330
6FF1
330
6FFE
330
700B
330
7016
330
7021
330
702D
330
7038
330
7043
330
704E
102
}
330
A
100
AcDbSymbolTableRecord
100
AcDbDimStyleTableRecord
  2
AutoCAD
 70
     0
 41
1.0
 42
0.0
 44
0.0
 73
     0
 77
     1
140
5.0
147
1.0
174
     1
176
     4
177
     4
178
     3
271
     0
272
     0
289
     0
340
123
341
15B0
342
11E
  0
DIMSTYLE
105
2CBB
330
A
100
AcDbSymbolTableRecord
100
AcDbDimStyleTableRecord
  2
111
 70
     0
 41
1.0
 42
0.0
 44
0.0
 73
     0
 77
     1
140
5.0
147
1.0
174
     1
176
     4
177
     4
178
     3
271
     0
272
     0
289
     0
340
123
341
15B0
342
2CB5
  0
ENDTAB
  0
TABLE
  2
BLOCK_RECORD
  5
1
330
0
100
AcDbSymbolTable
 70
    14
  0
BLOCK_RECORD
  5
1E
102
{ACAD_XDICTIONARY
360
28B
102
}
330
1
100
AcDbSymbolTableRecord
100
AcDbBlockTableRecord
  2
*Model_Space
340
21
  0
BLOCK_RECORD
  5
1A
102
{ACAD_XDICTIONARY
360
28D
102
}
330
1
100
AcDbSymbolTableRecord
100
AcDbBlockTableRecord
  2
*Paper_Space
340
1D
  0
BLOCK_RECORD
  5
11E
330
1
100
AcDbSymbolTableRecord
100
AcDbBlockTableRecord
  2
_Dot
340
0
102
{BLKREFS
331
6FF6
331
6FF7
331
700E
331
700F
331
7019
331
701A
331
703B
331
703C
331
705D
331
705E
331
7066
331
7067
331
706E
331
706F
331
7076
331
7077
331
707D
331
707E
331
7084
331
7085
102
}
  0
BLOCK_RECORD
  5
15B0
330
1
100
AcDbSymbolTableRecord
100
AcDbBlockTableRecord
  2
_None
340
0
  0
BLOCK_RECORD
  5
2CB5
330
1
100
AcDbSymbolTableRecord
100
AcDbBlockTableRecord
  2
_Open30
340
0
  0
BLOCK_RECORD
  5
35E3
330
1
100
AcDbSymbolTableRecord
100
AcDbBlockTableRecord
  2
_DotBlank
340
0
  0
BLOCK_RECORD
  5
6FE5
330
1
100
AcDbSymbolTableRecord
100
AcDbBlockTableRecord
  2
*D4
340
0
  0
BLOCK_RECORD
  5
6FF2
330
1
100
AcDbSymbolTableRecord
100
AcDbBlockTableRecord
  2
*D5
340
0
  0
BLOCK_RECORD
  5
6FFF
330
1
100
AcDbSymbolTableRecord
100
AcDbBlockTableRecord
  2
*D6
340
0
  0
BLOCK_RECORD
  5
700C
330
1
100
AcDbSymbolTableRecord
100
AcDbBlockTableRecord
  2
*D7
340
0
  0
BLOCK_RECORD
  5
7017
330
1
100
AcDbSymbolTableRecord
100
AcDbBlockTableRecord
  2
*D8
340
0
  0
BLOCK_RECORD
  5
7022
330
1
100
AcDbSymbolTableRecord
100
AcDbBlockTableRecord
  2
*D9
340
0
  0
BLOCK_RECORD
  5
702E
330
1
100
AcDbSymbolTableRecord
100
AcDbBlockTableRecord
  2
*D10
340
0
  0
BLOCK_RECORD
  5
7039
330
1
100
AcDbSymbolTableRecord
100
AcDbBlockTableRecord
  2
*D11
340
0
  0
BLOCK_RECORD
  5
7044
330
1
100
AcDbSymbolTableRecord
100
AcDbBlockTableRecord
  2
*D12
340
0
  0
BLOCK_RECORD
  5
704F
330
1
100
AcDbSymbolTableRecord
100
AcDbBlockTableRecord
  2
*D13
340
0
  0
ENDTAB
  0
ENDSEC
  0
SECTION
  2
BLOCKS
  0
BLOCK
  5
1F
330
1E
100
AcDbEntity
  8
0
100
AcDbBlockBegin
  2
*Model_Space
 70
     0
 10
0.0
 20
0.0
 30
0.0
  3
*Model_Space
  1

  0
ENDBLK
  5
20
330
1E
100
AcDbEntity
  8
0
100
AcDbBlockEnd
  0
BLOCK
  5
1B
330
1A
100
AcDbEntity
 67
     1
  8
0
100
AcDbBlockBegin
  2
*Paper_Space
 70
     0
 10
0.0
 20
0.0
 30
0.0
  3
*Paper_Space
  1

  0
ENDBLK
  5
1C
330
1A
100
AcDbEntity
 67
     1
  8
0
100
AcDbBlockEnd
  0
BLOCK
  5
121
330
11E
100
AcDbEntity
  8
0
100
AcDbBlockBegin
  2
_Dot
 70
     0
 10
0.0
 20
0.0
 30
0.0
  3
_Dot
  1

  0
LWPOLYLINE
  5
11F
330
11E
100
AcDbEntity
  8
0
  6
ByBlock
 62
     0
100
AcDbPolyline
 90
        2
 70
     1
 43
0.5
 10
-0.25
 20
0.0
 42
1.0
 10
0.25
 20
0.0
 42
1.0
  0
LINE
  5
120
330
11E
100
AcDbEntity
  8
0
  6
ByBlock
 62
     0
370
    -2
100
AcDbLine
 10
-0.5
 20
0.0
 30
0.0
 11
-1.0
 21
0.0
 31
0.0
  0
ENDBLK
  5
122
330
11E
100
AcDbEntity
  8
0
100
AcDbBlockEnd
  0
BLOCK
  5
15B1
330
15B0
100
AcDbEntity
  8
0
100
AcDbBlockBegin
  2
_None
 70
     0
 10
0.0
 20
0.0
 30
0.0
  3
_None
  1

  0
ENDBLK
  5
15B2
330
15B0
100
AcDbEntity
  8
0
100
AcDbBlockEnd
  0
BLOCK
  5
2CB9
330
2CB5
100
AcDbEntity
  8
0
100
AcDbBlockBegin
  2
_Open30
 70
     0
 10
0.0
 20
0.0
 30
0.0
  3
_Open30
  1

  0
LINE
  5
2CB6
330
2CB5
100
AcDbEntity
  8
0
  6
ByBlock
 62
     0
370
    -2
100
AcDbLine
 10
-1.0
 20
0.26794919
 30
0.0
 11
0.0
 21
0.0
 31
0.0
  0
LINE
  5
2CB7
330
2CB5
100
AcDbEntity
  8
0
  6
ByBlock
 62
     0
370
    -2
100
AcDbLine
 10
0.0
 20
0.0
 30
0.0
 11
-1.0
 21
-0.26794919
 31
0.0
  0
LINE
  5
2CB8
330
2CB5
100
AcDbEntity
  8
0
  6
ByBlock
 62
     0
370
    -2
100
AcDbLine
 10
0.0
 20
0.0
 30
0.0
 11
-1.0
 21
0.0
 31
0.0
  0
ENDBLK
  5
2CBA
330
2CB5
100
AcDbEntity
  8
0
100
AcDbBlockEnd
  0
BLOCK
  5
35E6
330
35E3
100
AcDbEntity
  8
0
100
AcDbBlockBegin
  2
_DotBlank
 70
     0
 10
0.0
 20
0.0
 30
0.0
  3
_DotBlank
  1

  0
CIRCLE
  5
35E4
330
35E3
100
AcDbEntity
  8
0
  6
ByBlock
 62
     0
370
    -2
100
AcDbCircle
 10
0.0
 20
0.0
 30
0.0
 40
0.5
  0
LINE
  5
35E5
330
35E3
100
AcDbEntity
  8
0
  6
ByBlock
 62
     0
370
    -2
100
AcDbLine
 10
-0.5
 20
0.0
 30
0.0
 11
-1.0
 21
0.0
 31
0.0
  0
ENDBLK
  5
35E7
330
35E3
100
AcDbEntity
  8
0
100
AcDbBlockEnd
  0
BLOCK
  5
6FEF
330
6FE5
100
AcDbEntity
  8
0
100
AcDbBlockBegin
  2
*D4
 70
     1
 10
0.0
 20
0.0
 30
0.0
  3
*D4
  1

  0
LINE
  5
705A
330
6FE5
100
AcDbEntity
  8
寸法
  6
Continuous
 62
     4
370
    -2
100
AcDbLine
 10
1394.36642314354
 20
869.9376584082552
 30
0.0
 11
1394.36642314354
 21
945.3198184425987
 31
0.0
  0
LINE
  5
705B
330
6FE5
100
AcDbEntity
  8
寸法
  6
Continuous
 62
     4
370
    -2
100
AcDbLine
 10
2094.366423143541
 20
869.9376584082552
 30
0.0
 11
2094.366423143541
 21
945.3198184425987
 31
0.0
  0
LINE
  5
705C
330
6FE5
100
AcDbEntity
  8
寸法
  6
Continuous
 62
     4
370
    -2
100
AcDbLine
 10
1395.36642314354
 20
945.3198184425987
 30
0.0
 11
2093.366423143541
 21
945.3198184425987
 31
0.0
  0
INSERT
  5
705D
330
6FE5
100
AcDbEntity
  8
寸法
  6
Continuous
 62
     4
370
    -2
100
AcDbBlockReference
  2
_Dot
 10
1394.36642314354
 20
945.3198184425987
 30
0.0
 50
180.0
  0
INSERT
  5
705E
330
6FE5
100
AcDbEntity
  8
寸法
  6
Continuous
 62
     4
370
    -2
100
AcDbBlockReference
  2
_Dot
 10
2094.366423143541
 20
945.3198184425987
 30
0.0
  0
MTEXT
  5
705F
330
6FE5
100
AcDbEntity
  8
寸法
  6
Continuous
 62
     3
100
AcDbMText
 10
1744.36642314354
 20
948.8198184425987
 30
0.0
 40
5.0
 41
0.0
 71
     5
 72
     1
  1
\A1;W
  7
ACAD
 73
     1
 44
1.0
1001
ACAD
1000
MTEXTBEGIN
1070
    73
1070
     1
1070
    44
1040
1.0
1070
    74
1070
     0
1000
MTEXTEND
  0
POINT
  5
7060
330
6FE5
100
AcDbEntity
  8
Defpoints
  6
Continuous
 62
     0
100
AcDbPoint
 10
1394.36642314354
 20
869.9376584082552
 30
0.0
  0
POINT
  5
7061
330
6FE5
100
AcDbEntity
  8
Defpoints
  6
Continuous
 62
     0
100
AcDbPoint
 10
2094.366423143541
 20
869.9376584082552
 30
0.0
  0
POINT
  5
7062
330
6FE5
100
AcDbEntity
  8
Defpoints
  6
Continuous
 62
     0
100
AcDbPoint
 10
2094.366423143541
 20
945.3198184425987
 30
0.0
  0
ENDBLK
  5
6FF0
330
6FE5
100
AcDbEntity
  8
0
100
AcDbBlockEnd
  0
BLOCK
  5
6FFC
330
6FF2
100
AcDbEntity
  8
0
100
AcDbBlockBegin
  2
*D5
 70
     1
 10
0.0
 20
0.0
 30
0.0
  3
*D5
  1

  0
LINE
  5
6FF3
330
6FF2
100
AcDbEntity
  8
寸法
  6
Continuous
 62
     4
370
    -2
100
AcDbLine
 10
2096.366423143541
 20
867.9376584082552
 30
0.0
 11
2154.366423143541
 21
867.9376584082552
 31
0.0
  0
LINE
  5
6FF4
330
6FF2
100
AcDbEntity
  8
寸法
  6
Continuous
 62
     4
370
    -2
100
AcDbLine
 10
2096.366423143541
 20
777.9376584082552
 30
0.0
 11
2154.366423143541
 21
777.9376584082552
 31
0.0
  0
LINE
  5
6FF5
330
6FF2
100
AcDbEntity
  8
寸法
  6
Continuous
 62
     4
370
    -2
100
AcDbLine
 10
2154.366423143541
 20
866.9376584082552
 30
0.0
 11
2154.366423143541
 21
778.9376584082551
 31
0.0
  0
INSERT
  5
6FF6
330
6FF2
100
AcDbEntity
  8
寸法
  6
Continuous
 62
     4
370
    -2
100
AcDbBlockReference
  2
_Dot
 10
2154.366423143541
 20
867.9376584082552
 30
0.0
 50
90.0
  0
INSERT
  5
6FF7
330
6FF2
100
AcDbEntity
  8
寸法
  6
Continuous
 62
     4
370
    -2
100
AcDbBlockReference
  2
_Dot
 10
2154.366423143541
 20
777.9376584082552
 30
0.0
 50
270.0
  0
MTEXT
  5
6FF8
330
6FF2
100
AcDbEntity
  8
寸法
  6
Continuous
 62
     3
100
AcDbMText
 10
2150.86642314354
 20
822.9376584082555
 30
0.0
 40
5.0
 41
0.0
 71
     5
 72
     1
  1
\A1;90
  7
ACAD
 11
0.0000000000000001
 21
1.0
 31
0.0
 73
     1
 44
1.0
1001
ACAD
1000
MTEXTBEGIN
1070
    73
1070
     1
1070
    44
1040
1.0
1070
    74
1070
     0
1000
MTEXTEND
  0
POINT
  5
6FF9
330
6FF2
100
AcDbEntity
  8
Defpoints
  6
Continuous
 62
     0
100
AcDbPoint
 10
2096.366423143541
 20
867.9376584082552
 30
0.0
  0
POINT
  5
6FFA
330
6FF2
100
AcDbEntity
  8
Defpoints
  6
Continuous
 62
     0
100
AcDbPoint
 10
2096.366423143541
 20
777.9376584082552
 30
0.0
  0
POINT
  5
6FFB
330
6FF2
100
AcDbEntity
  8
Defpoints
  6
Continuous
 62
     0
100
AcDbPoint
 10
2154.366423143541
 20
777.9376584082552
 30
0.0
  0
ENDBLK
  5
6FFD
330
6FF2
100
AcDbEntity
  8
0
100
AcDbBlockEnd
  0
BLOCK
  5
7009
330
6FFF
100
AcDbEntity
  8
0
100
AcDbBlockBegin
  2
*D6
 70
     1
 10
0.0
 20
0.0
 30
0.0
  3
*D6
  1

  0
LINE
  5
7063
330
6FFF
100
AcDbEntity
  8
寸法
  6
Continuous
 62
     4
370
    -2
100
AcDbLine
 10
2023.070149622165
 20
820.3198184425987
 30
0.0
 11
2134.366423143541
 21
820.3198184425987
 31
0.0
  0
LINE
  5
7064
330
6FFF
100
AcDbEntity
  8
寸法
  6
Continuous
 62
     4
370
    -2
100
AcDbLine
 10
2096.366423143541
 20
777.9376584082552
 30
0.0
 11
2134.366423143541
 21
777.9376584082552
 31
0.0
  0
LINE
  5
7065
330
6FFF
100
AcDbEntity
  8
寸法
  6
Continuous
 62
     4
370
    -2
100
AcDbLine
 10
2134.366423143541
 20
819.3198184425988
 30
0.0
 11
2134.366423143541
 21
778.9376584082551
 31
0.0
  0
INSERT
  5
7066
330
6FFF
100
AcDbEntity
  8
寸法
  6
Continuous
 62
     4
370
    -2
100
AcDbBlockReference
  2
_Dot
 10
2134.366423143541
 20
820.3198184425987
 30
0.0
 50
90.0
  0
INSERT
  5
7067
330
6FFF
100
AcDbEntity
  8
寸法
  6
Continuous
 62
     4
370
    -2
100
AcDbBlockReference
  2
_Dot
 10
2134.366423143541
 20
777.9376584082552
 30
0.0
 50
270.0
  0
MTEXT
  5
7068
330
6FFF
100
AcDbEntity
  8
寸法
  6
Continuous
 62
     3
100
AcDbMText
 10
2130.86642314354
 20
799.1287384254272
 30
0.0
 40
5.0
 41
0.0
 71
     5
 72
     1
  1
\A1;44
  7
ACAD
 11
0.0000000000000001
 21
1.0
 31
0.0
 73
     1
 44
1.0
1001
ACAD
1000
MTEXTBEGIN
1070
    73
1070
     1
1070
    44
1040
1.0
1070
    74
1070
     0
1000
MTEXTEND
  0
POINT
  5
7069
330
6FFF
100
AcDbEntity
  8
Defpoints
  6
Continuous
 62
     0
100
AcDbPoint
 10
2023.070149622165
 20
820.3198184425987
 30
0.0
  0
POINT
  5
706A
330
6FFF
100
AcDbEntity
  8
Defpoints
  6
Continuous
 62
     0
100
AcDbPoint
 10
2096.366423143541
 20
777.9376584082552
 30
0.0
  0
POINT
  5
706B
330
6FFF
100
AcDbEntity
  8
Defpoints
  6
Continuous
 62
     0
100
AcDbPoint
 10
2134.366423143541
 20
777.9376584082552
 30
0.0
  0
ENDBLK
  5
700A
330
6FFF
100
AcDbEntity
  8
0
100
AcDbBlockEnd
  0
BLOCK
  5
7014
330
700C
100
AcDbEntity
  8
0
100
AcDbBlockBegin
  2
*D7
 70
     1
 10
0.0
 20
0.0
 30
0.0
  3
*D7
  1

  0
LINE
  5
700D
330
700C
100
AcDbEntity
  8
寸法
  6
Continuous
 62
     4
370
    -2
100
AcDbLine
 10
2018.36642314354
 20
760.3198184425987
 30
0.0
 11
1970.36642314354
 21
760.3198184425987
 31
0.0
  0
INSERT
  5
700E
330
700C
100
AcDbEntity
  8
寸法
  6
Continuous
 62
     4
370
    -2
100
AcDbBlockReference
  2
_Dot
 10
2019.36642314354
 20
760.3198184425987
 30
0.0
  0
INSERT
  5
700F
330
700C
100
AcDbEntity
  8
寸法
  6
Continuous
 62
     4
370
    -2
100
AcDbBlockReference
  2
_Dot
 10
1969.36642314354
 20
760.3198184425987
 30
0.0
 50
180.0
  0
MTEXT
  5
7010
330
700C
100
AcDbEntity
  8
寸法
  6
Continuous
 62
     3
100
AcDbMText
 10
1994.36642314354
 20
763.8198184425987
 30
0.0
 40
5.0
 41
0.0
 71
     5
 72
     1
  1
\A1;50
  7
ACAD
 73
     1
 44
1.0
1001
ACAD
1000
MTEXTBEGIN
1070
    73
1070
     1
1070
    44
1040
1.0
1070
    74
1070
     0
1000
MTEXTEND
  0
POINT
  5
7011
330
700C
100
AcDbEntity
  8
Defpoints
  6
Continuous
 62
     0
100
AcDbPoint
 10
2019.36642314354
 20
760.3198184425987
 30
0.0
  0
POINT
  5
7012
330
700C
100
AcDbEntity
  8
Defpoints
  6
Continuous
 62
     0
100
AcDbPoint
 10
1969.36642314354
 20
760.3198184425987
 30
0.0
  0
POINT
  5
7013
330
700C
100
AcDbEntity
  8
Defpoints
  6
Continuous
 62
     0
100
AcDbPoint
 10
1969.36642314354
 20
760.3198184425987
 30
0.0
  0
ENDBLK
  5
7015
330
700C
100
AcDbEntity
  8
0
100
AcDbBlockEnd
  0
BLOCK
  5
701F
330
7017
100
AcDbEntity
  8
0
100
AcDbBlockBegin
  2
*D8
 70
     1
 10
0.0
 20
0.0
 30
0.0
  3
*D8
  1

  0
LINE
  5
7018
330
7017
100
AcDbEntity
  8
寸法
  6
Continuous
 62
     4
370
    -2
100
AcDbLine
 10
1470.36642314354
 20
760.3198184425987
 30
0.0
 11
1518.36642314354
 21
760.3198184425987
 31
0.0
  0
INSERT
  5
7019
330
7017
100
AcDbEntity
  8
寸法
  6
Continuous
 62
     4
370
    -2
100
AcDbBlockReference
  2
_Dot
 10
1469.36642314354
 20
760.3198184425987
 30
0.0
 50
180.0
  0
INSERT
  5
701A
330
7017
100
AcDbEntity
  8
寸法
  6
Continuous
 62
     4
370
    -2
100
AcDbBlockReference
  2
_Dot
 10
1519.36642314354
 20
760.3198184425987
 30
0.0
  0
MTEXT
  5
701B
330
7017
100
AcDbEntity
  8
寸法
  6
Continuous
 62
     3
100
AcDbMText
 10
1494.36642314354
 20
763.8198184425987
 30
0.0
 40
5.0
 41
0.0
 71
     5
 72
     1
  1
\A1;50
  7
ACAD
 73
     1
 44
1.0
1001
ACAD
1000
MTEXTBEGIN
1070
    73
1070
     1
1070
    44
1040
1.0
1070
    74
1070
     0
1000
MTEXTEND
  0
POINT
  5
701C
330
7017
100
AcDbEntity
  8
Defpoints
  6
Continuous
 62
     0
100
AcDbPoint
 10
1469.36642314354
 20
760.3198184425987
 30
0.0
  0
POINT
  5
701D
330
7017
100
AcDbEntity
  8
Defpoints
  6
Continuous
 62
     0
100
AcDbPoint
 10
1519.36642314354
 20
760.3198184425987
 30
0.0
  0
POINT
  5
701E
330
7017
100
AcDbEntity
  8
Defpoints
  6
Continuous
 62
     0
100
AcDbPoint
 10
1519.36642314354
 20
760.3198184425987
 30
0.0
  0
ENDBLK
  5
7020
330
7017
100
AcDbEntity
  8
0
100
AcDbBlockEnd
  0
BLOCK
  5
702B
330
7022
100
AcDbEntity
  8
0
100
AcDbBlockBegin
  2
*D9
 70
     1
 10
0.0
 20
0.0
 30
0.0
  3
*D9
  1

  0
LINE
  5
7074
330
7022
100
AcDbEntity
  8
寸法
  6
Continuous
 62
     4
370
    -2
100
AcDbLine
 10
1394.36642314354
 20
775.9376584082554
 30
0.0
 11
1394.36642314354
 21
680.3198184425987
 31
0.0
  0
LINE
  5
7075
330
7022
100
AcDbEntity
  8
寸法
  6
Continuous
 62
     4
370
    -2
100
AcDbLine
 10
1395.36642314354
 20
680.3198184425987
 30
0.0
 11
1468.36642314354
 21
680.3198184425987
 31
0.0
  0
INSERT
  5
7076
330
7022
100
AcDbEntity
  8
寸法
  6
Continuous
 62
     4
370
    -2
100
AcDbBlockReference
  2
_Dot
 10
1394.36642314354
 20
680.3198184425987
 30
0.0
 50
180.0
  0
INSERT
  5
7077
330
7022
100
AcDbEntity
  8
寸法
  6
Continuous
 62
     4
370
    -2
100
AcDbBlockReference
  2
_Dot
 10
1469.36642314354
 20
680.3198184425987
 30
0.0
  0
MTEXT
  5
7078
330
7022
100
AcDbEntity
  8
寸法
  6
Continuous
 62
     3
100
AcDbMText
 10
1431.86642314354
 20
683.8198184425987
 30
0.0
 40
5.0
 41
0.0
 71
     5
 72
     1
  1
\A1;75≦
  7
ACAD
 73
     1
 44
1.0
1001
ACAD
1000
MTEXTBEGIN
1070
    73
1070
     1
1070
    44
1040
1.0
1070
    74
1070
     0
1000
MTEXTEND
  0
POINT
  5
7079
330
7022
100
AcDbEntity
  8
Defpoints
  6
Continuous
 62
     0
100
AcDbPoint
 10
1394.36642314354
 20
775.9376584082554
 30
0.0
  0
POINT
  5
707A
330
7022
100
AcDbEntity
  8
Defpoints
  6
Continuous
 62
     0
100
AcDbPoint
 10
1469.36642314354
 20
680.3198184425987
 30
0.0
  0
POINT
  5
707B
330
7022
100
AcDbEntity
  8
Defpoints
  6
Continuous
 62
     0
100
AcDbPoint
 10
1469.36642314354
 20
680.3198184425987
 30
0.0
  0
ENDBLK
  5
702C
330
7022
100
AcDbEntity
  8
0
100
AcDbBlockEnd
  0
BLOCK
  5
7036
330
702E
100
AcDbEntity
  8
0
100
AcDbBlockBegin
  2
*D10
 70
     1
 10
0.0
 20
0.0
 30
0.0
  3
*D10
  1

  0
LINE
  5
707C
330
702E
100
AcDbEntity
  8
寸法
  6
Continuous
 62
     4
370
    -2
100
AcDbLine
 10
1470.36642314354
 20
680.3198184425987
 30
0.0
 11
1643.36642314354
 21
680.3198184425987
 31
0.0
  0
INSERT
  5
707D
330
702E
100
AcDbEntity
  8
寸法
  6
Continuous
 62
     4
370
    -2
100
AcDbBlockReference
  2
_Dot
 10
1469.36642314354
 20
680.3198184425987
 30
0.0
 50
180.0
  0
INSERT
  5
707E
330
702E
100
AcDbEntity
  8
寸法
  6
Continuous
 62
     4
370
    -2
100
AcDbBlockReference
  2
_Dot
 10
1644.36642314354
 20
680.3198184425987
 30
0.0
  0
MTEXT
  5
707F
330
702E
100
AcDbEntity
  8
寸法
  6
Continuous
 62
     3
100
AcDbMText
 10
1556.86642314354
 20
683.8198184425987
 30
0.0
 40
5.0
 41
0.0
 71
     5
 72
     1
  1
\A1;≦Ｃ
  7
ACAD
 73
     1
 44
1.0
1001
ACAD
1000
MTEXTBEGIN
1070
    73
1070
     1
1070
    44
1040
1.0
1070
    74
1070
     0
1000
MTEXTEND
  0
POINT
  5
7080
330
702E
100
AcDbEntity
  8
Defpoints
  6
Continuous
 62
     0
100
AcDbPoint
 10
1469.36642314354
 20
680.3198184425987
 30
0.0
  0
POINT
  5
7081
330
702E
100
AcDbEntity
  8
Defpoints
  6
Continuous
 62
     0
100
AcDbPoint
 10
1644.36642314354
 20
680.3198184425987
 30
0.0
  0
POINT
  5
7082
330
702E
100
AcDbEntity
  8
Defpoints
  6
Continuous
 62
     0
100
AcDbPoint
 10
1644.36642314354
 20
680.3198184425987
 30
0.0
  0
ENDBLK
  5
7037
330
702E
100
AcDbEntity
  8
0
100
AcDbBlockEnd
  0
BLOCK
  5
7041
330
7039
100
AcDbEntity
  8
0
100
AcDbBlockBegin
  2
*D11
 70
     1
 10
0.0
 20
0.0
 30
0.0
  3
*D11
  1

  0
LINE
  5
703A
330
7039
100
AcDbEntity
  8
寸法
  6
Continuous
 62
     4
370
    -2
100
AcDbLine
 10
1645.36642314354
 20
680.3198184425987
 30
0.0
 11
1843.36642314354
 21
680.3198184425987
 31
0.0
  0
INSERT
  5
703B
330
7039
100
AcDbEntity
  8
寸法
  6
Continuous
 62
     4
370
    -2
100
AcDbBlockReference
  2
_Dot
 10
1644.36642314354
 20
680.3198184425987
 30
0.0
 50
180.0
  0
INSERT
  5
703C
330
7039
100
AcDbEntity
  8
寸法
  6
Continuous
 62
     4
370
    -2
100
AcDbBlockReference
  2
_Dot
 10
1844.366423143539
 20
680.3198184425987
 30
0.0
  0
MTEXT
  5
703D
330
7039
100
AcDbEntity
  8
寸法
  6
Continuous
 62
     3
100
AcDbMText
 10
1744.36642314354
 20
683.8198184425987
 30
0.0
 40
5.0
 41
0.0
 71
     5
 72
     1
  1
\A1;200
  7
ACAD
 73
     1
 44
1.0
1001
ACAD
1000
MTEXTBEGIN
1070
    73
1070
     1
1070
    44
1040
1.0
1070
    74
1070
     0
1000
MTEXTEND
  0
POINT
  5
703E
330
7039
100
AcDbEntity
  8
Defpoints
  6
Continuous
 62
     0
100
AcDbPoint
 10
1644.36642314354
 20
680.3198184425987
 30
0.0
  0
POINT
  5
703F
330
7039
100
AcDbEntity
  8
Defpoints
  6
Continuous
 62
     0
100
AcDbPoint
 10
1844.366423143539
 20
680.3198184425987
 30
0.0
  0
POINT
  5
7040
330
7039
100
AcDbEntity
  8
Defpoints
  6
Continuous
 62
     0
100
AcDbPoint
 10
1844.366423143539
 20
680.3198184425987
 30
0.0
  0
ENDBLK
  5
7042
330
7039
100
AcDbEntity
  8
0
100
AcDbBlockEnd
  0
BLOCK
  5
704C
330
7044
100
AcDbEntity
  8
0
100
AcDbBlockBegin
  2
*D12
 70
     1
 10
0.0
 20
0.0
 30
0.0
  3
*D12
  1

  0
LINE
  5
7083
330
7044
100
AcDbEntity
  8
寸法
  6
Continuous
 62
     4
370
    -2
100
AcDbLine
 10
1845.36642314354
 20
680.3198184425987
 30
0.0
 11
2018.36642314354
 21
680.3198184425987
 31
0.0
  0
INSERT
  5
7084
330
7044
100
AcDbEntity
  8
寸法
  6
Continuous
 62
     4
370
    -2
100
AcDbBlockReference
  2
_Dot
 10
1844.366423143539
 20
680.3198184425987
 30
0.0
 50
180.0
  0
INSERT
  5
7085
330
7044
100
AcDbEntity
  8
寸法
  6
Continuous
 62
     4
370
    -2
100
AcDbBlockReference
  2
_Dot
 10
2019.366423143541
 20
680.3198184425987
 30
0.0
  0
MTEXT
  5
7086
330
7044
100
AcDbEntity
  8
寸法
  6
Continuous
 62
     3
100
AcDbMText
 10
1931.86642314354
 20
683.8198184425987
 30
0.0
 40
5.0
 41
0.0
 71
     5
 72
     1
  1
\A1;≦Ｃ
  7
ACAD
 73
     1
 44
1.0
1001
ACAD
1000
MTEXTBEGIN
1070
    73
1070
     1
1070
    44
1040
1.0
1070
    74
1070
     0
1000
MTEXTEND
  0
POINT
  5
7087
330
7044
100
AcDbEntity
  8
Defpoints
  6
Continuous
 62
     0
100
AcDbPoint
 10
1844.366423143539
 20
680.3198184425987
 30
0.0
  0
POINT
  5
7088
330
7044
100
AcDbEntity
  8
Defpoints
  6
Continuous
 62
     0
100
AcDbPoint
 10
2019.366423143541
 20
680.3198184425987
 30
0.0
  0
POINT
  5
7089
330
7044
100
AcDbEntity
  8
Defpoints
  6
Continuous
 62
     0
100
AcDbPoint
 10
2019.366423143541
 20
680.3198184425987
 30
0.0
  0
ENDBLK
  5
704D
330
7044
100
AcDbEntity
  8
0
100
AcDbBlockEnd
  0
BLOCK
  5
7058
330
704F
100
AcDbEntity
  8
0
100
AcDbBlockBegin
  2
*D13
 70
     1
 10
0.0
 20
0.0
 30
0.0
  3
*D13
  1

  0
LINE
  5
706C
330
704F
100
AcDbEntity
  8
寸法
  6
Continuous
 62
     4
370
    -2
100
AcDbLine
 10
2094.366423143541
 20
775.9376584082554
 30
0.0
 11
2094.366423143541
 21
680.3198184425987
 31
0.0
  0
LINE
  5
706D
330
704F
100
AcDbEntity
  8
寸法
  6
Continuous
 62
     4
370
    -2
100
AcDbLine
 10
2020.36642314354
 20
680.3198184425987
 30
0.0
 11
2093.366423143541
 21
680.3198184425987
 31
0.0
  0
INSERT
  5
706E
330
704F
100
AcDbEntity
  8
寸法
  6
Continuous
 62
     4
370
    -2
100
AcDbBlockReference
  2
_Dot
 10
2019.366423143541
 20
680.3198184425987
 30
0.0
 50
180.0
  0
INSERT
  5
706F
330
704F
100
AcDbEntity
  8
寸法
  6
Continuous
 62
     4
370
    -2
100
AcDbBlockReference
  2
_Dot
 10
2094.366423143541
 20
680.3198184425987
 30
0.0
  0
MTEXT
  5
7070
330
704F
100
AcDbEntity
  8
寸法
  6
Continuous
 62
     3
100
AcDbMText
 10
2056.86642314354
 20
683.8198184425987
 30
0.0
 40
5.0
 41
0.0
 71
     5
 72
     1
  1
\A1;75≦
  7
ACAD
 73
     1
 44
1.0
1001
ACAD
1000
MTEXTBEGIN
1070
    73
1070
     1
1070
    44
1040
1.0
1070
    74
1070
     0
1000
MTEXTEND
  0
POINT
  5
7071
330
704F
100
AcDbEntity
  8
Defpoints
  6
Continuous
 62
     0
100
AcDbPoint
 10
2019.366423143541
 20
680.3198184425987
 30
0.0
  0
POINT
  5
7072
330
704F
100
AcDbEntity
  8
Defpoints
  6
Continuous
 62
     0
100
AcDbPoint
 10
2094.366423143541
 20
775.9376584082554
 30
0.0
  0
POINT
  5
7073
330
704F
100
AcDbEntity
  8
Defpoints
  6
Continuous
 62
     0
100
AcDbPoint
 10
2094.366423143541
 20
680.3198184425987
 30
0.0
  0
ENDBLK
  5
7059
330
704F
100
AcDbEntity
  8
0
100
AcDbBlockEnd
  0
ENDSEC
  0
SECTION
  2
ENTITIES
  0
LINE
  5
6BBF
330
1E
100
AcDbEntity
  8
図枠
  6
Continuous
 62
     7
100
AcDbLine
 10
1756.96642314354
 20
633.3198184425987
 30
0.0
 11
1547.96642314354
 21
633.3198184425987
 31
0.0
  0
ARC
  5
6BC0
330
1E
100
AcDbEntity
  8
躯体と製品
  6
Continuous
 62
     7
100
AcDbCircle
 10
1744.36642314354
 20
798.0888910014154
 30
0.0
 40
95.76907255881668
100
AcDbArc
 50
184.9999999999994
 51
355.0000000000006
  0
LINE
  5
6BC1
330
1E
100
AcDbEntity
  8
躯体と製品
  6
Continuous
 62
     7
100
AcDbLine
 10
1842.374033747357
 20
819.4941299280939
 30
0.0
 11
1839.771065467797
 21
789.7420663502973
 31
0.0
  0
ARC
  5
6BC2
330
1E
100
AcDbEntity
  8
躯体と製品
  6
Continuous
 62
     7
100
AcDbCircle
 10
1744.36642314354
 20
798.0888910014154
 30
0.0
 40
96.76907255881673
100
AcDbArc
 50
184.9999999999994
 51
355.0000000000006
  0
LINE
  5
6BC3
330
1E
100
AcDbEntity
  8
躯体と製品
  6
Continuous
 62
     7
100
AcDbLine
 10
1843.370228445448
 20
819.4069741853464
 30
0.0
 11
1840.767260165889
 21
789.6549106075497
 31
0.0
  0
LINE
  5
6BC4
330
1E
100
AcDbEntity
  8
躯体と製品
  6
Continuous
 62
     7
100
AcDbLine
 10
1645.362617841632
 20
819.4069741853464
 30
0.0
 11
1647.965586121191
 21
789.6549106075497
 31
0.0
  0
LINE
  5
6BC5
330
1E
100
AcDbEntity
  8
躯体と製品
  6
Continuous
 62
     7
100
AcDbLine
 10
1646.358812539723
 20
819.4941299280939
 30
0.0
 11
1648.961780819283
 21
789.7420663502973
 31
0.0
  0
ARC
  5
6BC6
330
1E
100
AcDbEntity
  8
躯体と製品
  6
Continuous
 62
     7
100
AcDbCircle
 10
1844.36642314354
 20
819.3198184425988
 30
0.0
 40
1.0
100
AcDbArc
 50
90.0
 51
175.0000000000005
  0
ARC
  5
6BC7
330
1E
100
AcDbEntity
  8
躯体と製品
  6
Continuous
 62
     7
100
AcDbCircle
 10
1644.36642314354
 20
819.3198184425988
 30
0.0
 40
1.0
100
AcDbArc
 50
4.999999999999459
 51
90.0
  0
LINE
  5
6BC8
330
1E
100
AcDbEntity
  8
躯体と製品
  6
Continuous
 62
     3
100
AcDbLine
 10
1397.36642314354
 20
777.9376584082552
 30
0.0
 11
1404.36642314354
 21
777.9376584082552
 31
0.0
  0
LINE
  5
6BC9
330
1E
100
AcDbEntity
  8
躯体と製品
  6
Continuous
 62
     3
100
AcDbLine
 10
1958.36642314354
 20
838.6068801795087
 30
0.0
 11
1958.36642314354
 21
831.3198184425987
 31
0.0
  0
LINE
  5
6BCA
330
1E
100
AcDbEntity
  8
躯体と製品
  6
Continuous
 62
     3
100
AcDbLine
 10
1953.36642314354
 20
829.2198184425986
 30
0.0
 11
1957.86642314354
 21
829.2198184425986
 31
0.0
  0
LINE
  5
6BCB
330
1E
100
AcDbEntity
  8
躯体と製品
  6
Continuous
 62
     3
100
AcDbLine
 10
1953.36642314354
 20
829.2198184425986
 30
0.0
 11
1953.36642314354
 21
830.8198184425986
 31
0.0
  0
LINE
  5
6BCC
330
1E
100
AcDbEntity
  8
躯体と製品
  6
Continuous
 62
     3
100
AcDbLine
 10
1953.36642314354
 20
830.8198184425986
 30
0.0
 11
1957.86642314354
 21
830.8198184425986
 31
0.0
  0
ARC
  5
6BCD
330
1E
100
AcDbEntity
  8
躯体と製品
  6
Continuous
 62
     3
100
AcDbCircle
 10
1957.86642314354
 20
831.3198184425987
 30
0.0
 40
2.1
100
AcDbArc
 50
270.0
 51
0.0
  0
ARC
  5
6BCE
330
1E
100
AcDbEntity
  8
躯体と製品
  6
Continuous
 62
     3
100
AcDbCircle
 10
1957.86642314354
 20
831.3198184425987
 30
0.0
 40
0.5
100
AcDbArc
 50
270.0
 51
0.0
  0
LINE
  5
6BCF
330
1E
100
AcDbEntity
  8
躯体と製品
  6
Continuous
 62
     3
100
AcDbLine
 10
1985.36642314354
 20
829.2198184425986
 30
0.0
 11
1980.86642314354
 21
829.2198184425986
 31
0.0
  0
LINE
  5
6BD0
330
1E
100
AcDbEntity
  8
躯体と製品
  6
Continuous
 62
     3
100
AcDbLine
 10
1980.86642314354
 20
830.8198184425986
 30
0.0
 11
1985.36642314354
 21
830.8198184425986
 31
0.0
  0
LINE
  5
6BD1
330
1E
100
AcDbEntity
  8
躯体と製品
  6
Continuous
 62
     3
100
AcDbLine
 10
1985.36642314354
 20
830.8198184425986
 30
0.0
 11
1985.36642314354
 21
829.2198184425986
 31
0.0
  0
ARC
  5
6BD2
330
1E
100
AcDbEntity
  8
躯体と製品
  6
Continuous
 62
     3
100
AcDbCircle
 10
1980.86642314354
 20
831.3198184425987
 30
0.0
 40
2.1
100
AcDbArc
 50
180.0
 51
270.0
  0
ARC
  5
6BD3
330
1E
100
AcDbEntity
  8
躯体と製品
  6
Continuous
 62
     3
100
AcDbCircle
 10
1980.86642314354
 20
831.3198184425987
 30
0.0
 40
0.5
100
AcDbArc
 50
180.0
 51
270.0
  0
LINE
  5
6BD4
330
1E
100
AcDbEntity
  8
躯体と製品
  6
Continuous
 62
     3
100
AcDbLine
 10
1959.96642314354
 20
838.6068801795087
 30
0.0
 11
1959.96642314354
 21
831.3198184425987
 31
0.0
  0
ARC
  5
6BD5
330
1E
100
AcDbEntity
  8
躯体と製品
  6
Continuous
 62
     3
100
AcDbCircle
 10
1960.46642314354
 20
838.6068801795087
 30
0.0
 40
0.5
100
AcDbArc
 50
86.99999999999441
 51
180.0
  0
LINE
  5
6BD6
330
1E
100
AcDbEntity
  8
躯体と製品
  6
Continuous
 62
     3
100
AcDbLine
 10
1978.76642314354
 20
837.6740217082703
 30
0.0
 11
1978.76642314354
 21
831.3198184425987
 31
0.0
  0
ARC
  5
6BD7
330
1E
100
AcDbEntity
  8
躯体と製品
  6
Continuous
 62
     3
100
AcDbCircle
 10
1978.26642314354
 20
837.6740217082703
 30
0.0
 40
0.5
100
AcDbArc
 50
0.0
 51
86.99999999999441
  0
ARC
  5
6BD8
330
1E
100
AcDbEntity
  8
躯体と製品
  6
Continuous
 62
     3
100
AcDbCircle
 10
1960.46642314354
 20
838.6068801795087
 30
0.0
 40
2.1
100
AcDbArc
 50
86.99999999999441
 51
180.0
  0
LINE
  5
6BD9
330
1E
100
AcDbEntity
  8
躯体と製品
  6
Continuous
 62
     3
100
AcDbLine
 10
1980.36642314354
 20
837.6740217082703
 30
0.0
 11
1980.36642314354
 21
831.3198184425987
 31
0.0
  0
ARC
  5
6BDA
330
1E
100
AcDbEntity
  8
躯体と製品
  6
Continuous
 62
     3
100
AcDbCircle
 10
1978.26642314354
 20
837.6740217082703
 30
0.0
 40
2.1
100
AcDbArc
 50
0.0
 51
86.99999999999441
  0
LINE
  5
6BDB
330
1E
100
AcDbEntity
  8
躯体と製品
  6
Continuous
 62
     3
100
AcDbLine
 10
1973.771709560936
 20
836.4075211466511
 30
0.0
 11
1964.584317841195
 21
836.8890119440864
 31
0.0
  0
LINE
  5
6BDC
330
1E
100
AcDbEntity
  8
躯体と製品
  6
Continuous
 62
     3
100
AcDbLine
 10
1964.636653797438
 20
837.8876414788409
 30
0.0
 11
1964.584317841195
 21
836.8890119440864
 31
0.0
  0
ARC
  5
6BDD
330
1E
100
AcDbEntity
  8
躯体と製品
  6
Continuous
 62
     3
100
AcDbCircle
 10
1963.638024262682
 20
837.9399774350837
 30
0.0
 40
1.0
100
AcDbArc
 50
357.0000000000011
 51
86.99999999999441
  0
LINE
  5
6BDE
330
1E
100
AcDbEntity
  8
躯体と製品
  6
Continuous
 62
     3
100
AcDbLine
 10
1973.82404551718
 20
837.406150681406
 30
0.0
 11
1973.771709560936
 21
836.4075211466511
 31
0.0
  0
ARC
  5
6BDF
330
1E
100
AcDbEntity
  8
躯体と製品
  6
Continuous
 62
     3
100
AcDbCircle
 10
1974.822675051934
 20
837.3538147251627
 30
0.0
 40
1.0
100
AcDbArc
 50
86.99999999999441
 51
177.0000000000011
  0
LINE
  5
6BE0
330
1E
100
AcDbEntity
  8
躯体と製品
  6
Continuous
 62
     3
100
AcDbLine
 10
1978.292591121661
 20
838.1733364756478
 30
0.0
 11
1960.492591121661
 21
839.1061949468857
 31
0.0
  0
LINE
  5
6BE1
330
1E
100
AcDbEntity
  8
躯体と製品
  6
Continuous
 62
     3
100
AcDbLine
 10
1978.37632865165
 20
839.7711437312553
 30
0.0
 11
1960.57632865165
 21
840.7040022024933
 31
0.0
  0
LINE
  5
6BE2
330
1E
100
AcDbEntity
  8
躯体と製品
  6
DASHED1
 62
     7
100
AcDbLine
 10
1966.370534539276
 20
840.400340739214
 30
0.0
 11
1966.182125096802
 21
836.8052744140975
 31
0.0
  0
LINE
  5
6BE3
330
1E
100
AcDbEntity
  8
躯体と製品
  6
DASHED1
 62
     7
100
AcDbLine
 10
1972.362311747804
 20
840.0863250017561
 30
0.0
 11
1972.173902305329
 21
836.4912586766399
 31
0.0
  0
LINE
  5
6BE4
330
1E
100
AcDbEntity
  8
躯体と製品
  6
Continuous
 62
     4
100
AcDbLine
 10
1955.36642314354
 20
830.8198184425986
 30
0.0
 11
1955.36642314354
 21
829.2198184425986
 31
0.0
  0
LINE
  5
6BE5
330
1E
100
AcDbEntity
  8
躯体と製品
  6
Continuous
 62
     4
100
AcDbLine
 10
1983.36642314354
 20
830.8198184425986
 30
0.0
 11
1983.36642314354
 21
829.2198184425986
 31
0.0
  0
LINE
  5
6BE6
330
1E
100
AcDbEntity
  8
躯体と製品
  6
DASHED1
 62
     7
100
AcDbLine
 10
1973.41642314354
 20
822.3198184425987
 30
0.0
 11
1973.41642314354
 21
813.0198184425987
 31
0.0
  0
LINE
  5
6BE7
330
1E
100
AcDbEntity
  8
躯体と製品
  6
DASHED1
 62
     7
100
AcDbLine
 10
1965.31642314354
 20
822.3198184425987
 30
0.0
 11
1965.31642314354
 21
813.0198184425987
 31
0.0
  0
LINE
  5
6BE8
330
1E
100
AcDbEntity
  8
躯体と製品
  6
DASHED1
 62
     7
100
AcDbLine
 10
1974.11642314354
 20
812.3198184425987
 30
0.0
 11
1973.41642314354
 21
813.0198184425987
 31
0.0
  0
LINE
  5
6BE9
330
1E
100
AcDbEntity
  8
躯体と製品
  6
DASHED1
 62
     7
100
AcDbLine
 10
1974.11642314354
 20
793.6916444425987
 30
0.0
 11
1974.11642314354
 21
812.3198184425987
 31
0.0
  0
LINE
  5
6BEA
330
1E
100
AcDbEntity
  8
躯体と製品
  6
DASHED1
 62
     7
100
AcDbLine
 10
1973.86642314354
 20
781.8198184425987
 30
0.0
 11
1973.86642314354
 21
782.6831224425987
 31
0.0
  0
LINE
  5
6BEB
330
1E
100
AcDbEntity
  8
躯体と製品
  6
DASHED1
 62
     7
100
AcDbLine
 10
1975.99145314354
 20
783.0578224425988
 30
0.0
 11
1974.11642314354
 21
793.6916444425987
 31
0.0
  0
LINE
  5
6BEC
330
1E
100
AcDbEntity
  8
躯体と製品
  6
DASHED1
 62
     7
100
AcDbLine
 10
1969.86642314354
 20
793.3198184425987
 30
0.0
 11
1968.86642314354
 21
793.3198184425987
 31
0.0
  0
LINE
  5
6BED
330
1E
100
AcDbEntity
  8
躯体と製品
  6
DASHED1
 62
     7
100
AcDbLine
 10
1964.61642314354
 20
812.3198184425987
 30
0.0
 11
1965.31642314354
 21
813.0198184425987
 31
0.0
  0
LINE
  5
6BEE
330
1E
100
AcDbEntity
  8
躯体と製品
  6
DASHED1
 62
     7
100
AcDbLine
 10
1964.61642314354
 20
793.6916444425987
 30
0.0
 11
1964.61642314354
 21
812.3198184425987
 31
0.0
  0
LINE
  5
6BEF
330
1E
100
AcDbEntity
  8
躯体と製品
  6
DASHED1
 62
     7
100
AcDbLine
 10
1965.86642314354
 20
780.8198184425987
 30
0.0
 11
1972.86642314354
 21
780.8198184425987
 31
0.0
  0
ARC
  5
6BF0
330
1E
100
AcDbEntity
  8
躯体と製品
  6
DASHED1
 62
     7
100
AcDbCircle
 10
1965.86642314354
 20
781.8198184425987
 30
0.0
 40
1.0
100
AcDbArc
 50
180.0
 51
270.0
  0
LINE
  5
6BF1
330
1E
100
AcDbEntity
  8
躯体と製品
  6
DASHED1
 62
     7
100
AcDbLine
 10
1964.86642314354
 20
781.8198184425987
 30
0.0
 11
1964.86642314354
 21
782.6831224425987
 31
0.0
  0
LINE
  5
6BF2
330
1E
100
AcDbEntity
  8
躯体と製品
  6
DASHED1
 62
     7
100
AcDbLine
 10
1962.74139314354
 20
783.0578224425988
 30
0.0
 11
1966.92682614354
 21
782.3198184425987
 31
0.0
  0
LINE
  5
6BF3
330
1E
100
AcDbEntity
  8
躯体と製品
  6
DASHED1
 62
     7
100
AcDbLine
 10
1969.86642314354
 20
793.3198184425987
 30
0.0
 11
1971.80602014354
 21
782.3198184425987
 31
0.0
  0
LINE
  5
6BF4
330
1E
100
AcDbEntity
  8
躯体と製品
  6
DASHED1
 62
     7
100
AcDbLine
 10
1968.86642314354
 20
793.3198184425987
 30
0.0
 11
1966.92682614354
 21
782.3198184425987
 31
0.0
  0
LINE
  5
6BF5
330
1E
100
AcDbEntity
  8
躯体と製品
  6
DASHED1
 62
     7
100
AcDbLine
 10
1962.74139314354
 20
783.0578224425988
 30
0.0
 11
1964.61642314354
 21
793.6916444425987
 31
0.0
  0
LINE
  5
6BF6
330
1E
100
AcDbEntity
  8
躯体と製品
  6
DASHED1
 62
     7
100
AcDbLine
 10
1974.11642314354
 20
812.3198184425987
 30
0.0
 11
1964.61642314354
 21
812.3198184425987
 31
0.0
  0
LINE
  5
6BF7
330
1E
100
AcDbEntity
  8
躯体と製品
  6
DASHED1
 62
     7
100
AcDbLine
 10
1973.41642314354
 20
813.0198184425987
 30
0.0
 11
1965.31642314354
 21
813.0198184425987
 31
0.0
  0
LINE
  5
6BF8
330
1E
100
AcDbEntity
  8
躯体と製品
  6
DASHED1
 62
     7
100
AcDbLine
 10
1975.99145314354
 20
783.0578224425988
 30
0.0
 11
1971.80602014354
 21
782.3198184425987
 31
0.0
  0
ARC
  5
6BF9
330
1E
100
AcDbEntity
  8
躯体と製品
  6
DASHED1
 62
     7
100
AcDbCircle
 10
1972.86642314354
 20
781.8198184425987
 30
0.0
 40
1.0
100
AcDbArc
 50
270.0
 51
0.0
  0
ARC
  5
6BFA
330
1E
100
AcDbEntity
  8
躯体と製品
  6
Continuous
 62
     3
100
AcDbCircle
 10
1997.923733410123
 20
825.3198184425986
 30
0.0
 40
0.5
100
AcDbArc
 50
270.0
 51
350.0000000000025
  0
LINE
  5
6BFB
330
1E
100
AcDbEntity
  8
躯体と製品
  6
Continuous
 62
     3
100
AcDbLine
 10
1997.923733410123
 20
824.8198184425987
 30
0.0
 11
1994.877453574465
 21
824.8198184425987
 31
0.0
  0
LINE
  5
6BFC
330
1E
100
AcDbEntity
  8
躯体と製品
  6
Continuous
 62
     3
100
AcDbLine
 10
1998.416137286629
 20
825.2329943537654
 30
0.0
 11
1998.823331958189
 21
827.5423100916297
 31
0.0
  0
ARC
  5
6BFD
330
1E
100
AcDbEntity
  8
躯体と製品
  6
Continuous
 62
     3
100
AcDbCircle
 10
1994.877453574465
 20
825.3198184425986
 30
0.0
 40
0.5
100
AcDbArc
 50
170.0000000000025
 51
270.0
  0
LINE
  5
6BFE
330
1E
100
AcDbEntity
  8
躯体と製品
  6
Continuous
 62
     3
100
AcDbLine
 10
1994.385049697959
 20
825.4066425314322
 30
0.0
 11
1994.88410094614
 21
828.2369028022971
 31
0.0
  0
ARC
  5
6BFF
330
1E
100
AcDbEntity
  8
躯体と製品
  6
Continuous
 62
     3
100
AcDbCircle
 10
1992.338887044751
 20
825.3198184425986
 30
0.0
 40
0.5
100
AcDbArc
 50
270.0
 51
350.0000000000025
  0
LINE
  5
6C00
330
1E
100
AcDbEntity
  8
躯体と製品
  6
Continuous
 62
     3
100
AcDbLine
 10
1992.338887044751
 20
824.8198184425987
 30
0.0
 11
1988.36642314354
 21
824.8198184425987
 31
0.0
  0
LINE
  5
6C01
330
1E
100
AcDbEntity
  8
躯体と製品
  6
Continuous
 62
     3
100
AcDbLine
 10
1992.831290921257
 20
825.2329943537654
 30
0.0
 11
1993.971245894039
 21
831.6980002660875
 31
0.0
  0
LINE
  5
6C02
330
1E
100
AcDbEntity
  8
躯体と製品
  6
Continuous
 62
     3
100
AcDbLine
 10
1995.057749123807
 20
829.2217105553095
 30
0.0
 11
1994.565345247301
 21
829.3085346441431
 31
0.0
  0
LINE
  5
6C03
330
1E
100
AcDbEntity
  8
躯体と製品
  6
Continuous
 62
     3
100
AcDbLine
 10
1999.489384012362
 20
828.4402937558084
 30
0.0
 11
1998.996980135856
 21
828.5271178446416
 31
0.0
  0
LINE
  5
6C04
330
1E
100
AcDbEntity
  8
躯体と製品
  6
Continuous
 62
     3
100
AcDbLine
 10
1995.231397301474
 20
830.2065183083216
 30
0.0
 11
1994.738993424968
 21
830.2933423971554
 31
0.0
  0
LINE
  5
6C05
330
1E
100
AcDbEntity
  8
躯体と製品
  6
Continuous
 62
     3
100
AcDbLine
 10
1999.663032190029
 20
829.4251015088207
 30
0.0
 11
1999.170628313523
 21
829.5119255976542
 31
0.0
  0
LINE
  5
6C06
330
1E
100
AcDbEntity
  8
躯体と製品
  6
Continuous
 62
     3
100
AcDbLine
 10
1999.86642314354
 20
824.8198184425987
 30
0.0
 11
2000.864900165125
 21
830.4824630224189
 31
0.0
  0
LINE
  5
6C07
330
1E
100
AcDbEntity
  8
躯体と製品
  6
Continuous
 62
     3
100
AcDbLine
 10
1999.170628313523
 20
829.5119255976542
 30
0.0
 11
1999.387688535606
 21
830.7429352889192
 31
0.0
  0
LINE
  5
6C08
330
1E
100
AcDbEntity
  8
躯体と製品
  6
Continuous
 62
     3
100
AcDbLine
 10
1995.231397301474
 20
830.2065183083216
 30
0.0
 11
1995.448457523557
 21
831.4375279995871
 31
0.0
  0
LINE
  5
6C09
330
1E
100
AcDbEntity
  8
躯体と製品
  6
Continuous
 62
     3
100
AcDbLine
 10
1999.489384012362
 20
828.4402937558084
 30
0.0
 11
1998.823331958189
 21
827.5423100916297
 31
0.0
  0
LINE
  5
6C0A
330
1E
100
AcDbEntity
  8
躯体と製品
  6
Continuous
 62
     3
100
AcDbLine
 10
1999.663032190029
 20
829.4251015088207
 30
0.0
 11
1998.996980135856
 21
828.5271178446416
 31
0.0
  0
ARC
  5
6C0B
330
1E
100
AcDbEntity
  8
躯体と製品
  6
Continuous
 62
     3
100
AcDbCircle
 10
1994.709851708798
 20
831.5677641328372
 30
0.0
 40
0.7500000000000014
100
AcDbArc
 50
350.0000000000025
 51
170.0000000000025
  0
ARC
  5
6C0C
330
1E
100
AcDbEntity
  8
躯体と製品
  6
Continuous
 62
     3
100
AcDbCircle
 10
2000.126294350366
 20
830.6126991556689
 30
0.0
 40
0.7499999999999977
100
AcDbArc
 50
350.0000000000025
 51
170.0000000000025
  0
LINE
  5
6C0D
330
1E
100
AcDbEntity
  8
躯体と製品
  6
Continuous
 62
     3
100
AcDbLine
 10
1999.86642314354
 20
822.3198184425987
 30
0.0
 11
1999.86642314354
 21
824.8198184425987
 31
0.0
  0
LINE
  5
6C0E
330
1E
100
AcDbEntity
  8
躯体と製品
  6
Continuous
 62
     3
100
AcDbLine
 10
1951.36642314354
 20
822.3198184425987
 30
0.0
 11
1952.86642314354
 21
822.3198184425987
 31
0.0
  0
LINE
  5
6C0F
330
1E
100
AcDbEntity
  8
躯体と製品
  6
Continuous
 62
     3
100
AcDbLine
 10
1952.86642314354
 20
822.3198184425987
 30
0.0
 11
1952.86642314354
 21
822.8198184425988
 31
0.0
  0
LINE
  5
6C10
330
1E
100
AcDbEntity
  8
躯体と製品
  6
Continuous
 62
     3
100
AcDbLine
 10
1952.86642314354
 20
822.8198184425988
 30
0.0
 11
1964.36642314354
 21
822.8198184425988
 31
0.0
  0
LINE
  5
6C11
330
1E
100
AcDbEntity
  8
躯体と製品
  6
Continuous
 62
     3
100
AcDbLine
 10
1964.36642314354
 20
822.8198184425988
 30
0.0
 11
1964.36642314354
 21
822.3198184425987
 31
0.0
  0
ARC
  5
6C12
330
1E
100
AcDbEntity
  8
躯体と製品
  6
Continuous
 62
     3
100
AcDbCircle
 10
1956.11642314354
 20
831.5698184425986
 30
0.0
 40
0.75
100
AcDbArc
 50
270.0
 51
90.0
  0
ARC
  5
6C13
330
1E
100
AcDbEntity
  8
躯体と製品
  6
Continuous
 62
     3
100
AcDbCircle
 10
1955.11642314354
 20
827.5698184425987
 30
0.0
 40
0.75
100
AcDbArc
 50
270.0
 51
90.0
  0
ARC
  5
6C14
330
1E
100
AcDbEntity
  8
躯体と製品
  6
Continuous
 62
     3
100
AcDbCircle
 10
1953.16642314354
 20
830.5198184425988
 30
0.0
 40
0.2999999999999998
100
AcDbArc
 50
90.0
 51
180.0
  0
LINE
  5
6C15
330
1E
100
AcDbEntity
  8
躯体と製品
  6
Continuous
 62
     3
100
AcDbLine
 10
1953.16642314354
 20
830.8198184425986
 30
0.0
 11
1956.11642314354
 21
830.8198184425986
 31
0.0
  0
LINE
  5
6C16
330
1E
100
AcDbEntity
  8
躯体と製品
  6
Continuous
 62
     3
100
AcDbLine
 10
1953.16642314354
 20
828.3198184425987
 30
0.0
 11
1955.11642314354
 21
828.3198184425987
 31
0.0
  0
ARC
  5
6C17
330
1E
100
AcDbEntity
  8
躯体と製品
  6
Continuous
 62
     3
100
AcDbCircle
 10
1953.16642314354
 20
828.6198184425986
 30
0.0
 40
0.2999999999999998
100
AcDbArc
 50
180.0
 51
270.0
  0
LINE
  5
6C18
330
1E
100
AcDbEntity
  8
躯体と製品
  6
Continuous
 62
     3
100
AcDbLine
 10
1952.86642314354
 20
828.6198184425986
 30
0.0
 11
1952.86642314354
 21
830.5198184425988
 31
0.0
  0
ARC
  5
6C19
330
1E
100
AcDbEntity
  8
躯体と製品
  6
Continuous
 62
     3
100
AcDbCircle
 10
1953.16642314354
 20
826.5198184425987
 30
0.0
 40
0.2999999999999998
100
AcDbArc
 50
90.0
 51
180.0
  0
LINE
  5
6C1A
330
1E
100
AcDbEntity
  8
躯体と製品
  6
Continuous
 62
     3
100
AcDbLine
 10
1953.16642314354
 20
826.8198184425987
 30
0.0
 11
1955.11642314354
 21
826.8198184425987
 31
0.0
  0
ARC
  5
6C1B
330
1E
100
AcDbEntity
  8
躯体と製品
  6
Continuous
 62
     3
100
AcDbCircle
 10
1953.16642314354
 20
825.1198184425986
 30
0.0
 40
0.2999999999999998
100
AcDbArc
 50
180.0
 51
270.0
  0
LINE
  5
6C1C
330
1E
100
AcDbEntity
  8
躯体と製品
  6
Continuous
 62
     3
100
AcDbLine
 10
1952.86642314354
 20
825.1198184425986
 30
0.0
 11
1952.86642314354
 21
826.5198184425987
 31
0.0
  0
LINE
  5
6C1D
330
1E
100
AcDbEntity
  8
躯体と製品
  6
Continuous
 62
     3
100
AcDbLine
 10
1951.86642314354
 20
832.3198184425987
 30
0.0
 11
1956.11642314354
 21
832.3198184425987
 31
0.0
  0
ARC
  5
6C1E
330
1E
100
AcDbEntity
  8
躯体と製品
  6
Continuous
 62
     3
100
AcDbCircle
 10
1951.86642314354
 20
831.8198184425988
 30
0.0
 40
0.5
100
AcDbArc
 50
90.0
 51
180.0
  0
LINE
  5
6C1F
330
1E
100
AcDbEntity
  8
躯体と製品
  6
Continuous
 62
     3
100
AcDbLine
 10
1951.36642314354
 20
831.8198184425988
 30
0.0
 11
1951.36642314354
 21
822.3198184425987
 31
0.0
  0
LINE
  5
6C20
330
1E
100
AcDbEntity
  8
躯体と製品
  6
Continuous
 62
     3
100
AcDbLine
 10
1964.36642314354
 20
822.3198184425987
 30
0.0
 11
1974.36642314354
 21
822.3198184425987
 31
0.0
  0
LINE
  5
6C21
330
1E
100
AcDbEntity
  8
躯体と製品
  6
Continuous
 62
     3
100
AcDbLine
 10
1969.86642314354
 20
824.8198184425987
 30
0.0
 11
1985.56642314354
 21
824.8198184425987
 31
0.0
  0
LINE
  5
6C22
330
1E
100
AcDbEntity
  8
躯体と製品
  6
Continuous
 62
     3
100
AcDbLine
 10
1953.16642314354
 20
824.8198184425987
 30
0.0
 11
1968.86642314354
 21
824.8198184425987
 31
0.0
  0
LINE
  5
6C23
330
1E
100
AcDbEntity
  8
躯体と製品
  6
Continuous
 62
     3
100
AcDbLine
 10
1974.36642314354
 20
822.3198184425987
 30
0.0
 11
1974.36642314354
 21
822.8198184425988
 31
0.0
  0
LINE
  5
6C24
330
1E
100
AcDbEntity
  8
躯体と製品
  6
Continuous
 62
     3
100
AcDbLine
 10
1974.36642314354
 20
822.8198184425988
 30
0.0
 11
1985.86642314354
 21
822.8198184425988
 31
0.0
  0
LINE
  5
6C25
330
1E
100
AcDbEntity
  8
躯体と製品
  6
Continuous
 62
     3
100
AcDbLine
 10
1985.86642314354
 20
822.8198184425988
 30
0.0
 11
1985.86642314354
 21
822.3198184425987
 31
0.0
  0
LINE
  5
6C26
330
1E
100
AcDbEntity
  8
躯体と製品
  6
Continuous
 62
     3
100
AcDbLine
 10
1985.86642314354
 20
822.3198184425987
 30
0.0
 11
1987.86642314354
 21
822.3198184425987
 31
0.0
  0
ARC
  5
6C27
330
1E
100
AcDbEntity
  8
躯体と製品
  6
Continuous
 62
     3
100
AcDbCircle
 10
1986.86642314354
 20
840.3198184425987
 30
0.0
 40
1.0
100
AcDbArc
 50
0.0
 51
180.0
  0
LINE
  5
6C28
330
1E
100
AcDbEntity
  8
躯体と製品
  6
Continuous
 62
     3
100
AcDbLine
 10
1998.36642314354
 20
823.3198184425987
 30
0.0
 11
1998.36642314354
 21
822.3198184425987
 31
0.0
  0
LINE
  5
6C29
330
1E
100
AcDbEntity
  8
躯体と製品
  6
Continuous
 62
     3
100
AcDbLine
 10
1998.36642314354
 20
822.3198184425987
 30
0.0
 11
1999.86642314354
 21
822.3198184425987
 31
0.0
  0
LINE
  5
6C2A
330
1E
100
AcDbEntity
  8
躯体と製品
  6
Continuous
 62
     3
100
AcDbLine
 10
1969.36642314354
 20
824.3198184425986
 30
0.0
 11
1969.86642314354
 21
824.8198184425987
 31
0.0
  0
LINE
  5
6C2B
330
1E
100
AcDbEntity
  8
躯体と製品
  6
Continuous
 62
     3
100
AcDbLine
 10
1987.86642314354
 20
822.3198184425987
 30
0.0
 11
1987.86642314354
 21
823.3198184425987
 31
0.0
  0
LINE
  5
6C2C
330
1E
100
AcDbEntity
  8
躯体と製品
  6
Continuous
 62
     3
100
AcDbLine
 10
1987.86642314354
 20
823.3198184425987
 30
0.0
 11
1998.36642314354
 21
823.3198184425987
 31
0.0
  0
LINE
  5
6C2D
330
1E
100
AcDbEntity
  8
躯体と製品
  6
Continuous
 62
     3
100
AcDbLine
 10
1987.86642314354
 20
825.3198184425986
 30
0.0
 11
1987.86642314354
 21
840.3198184425987
 31
0.0
  0
ARC
  5
6C2E
330
1E
100
AcDbEntity
  8
躯体と製品
  6
Continuous
 62
     3
100
AcDbCircle
 10
1988.36642314354
 20
825.3198184425986
 30
0.0
 40
0.5
100
AcDbArc
 50
180.0
 51
270.0
  0
ARC
  5
6C2F
330
1E
100
AcDbEntity
  8
躯体と製品
  6
Continuous
 62
     3
100
AcDbCircle
 10
1985.56642314354
 20
825.1198184425986
 30
0.0
 40
0.2999999999999998
100
AcDbArc
 50
270.0
 51
0.0
  0
LINE
  5
6C30
330
1E
100
AcDbEntity
  8
躯体と製品
  6
Continuous
 62
     3
100
AcDbLine
 10
1985.36642314354
 20
832.3198184425987
 30
0.0
 11
1982.61642314354
 21
832.3198184425987
 31
0.0
  0
ARC
  5
6C31
330
1E
100
AcDbEntity
  8
躯体と製品
  6
Continuous
 62
     3
100
AcDbCircle
 10
1985.36642314354
 20
832.8198184425987
 30
0.0
 40
0.5
100
AcDbArc
 50
270.0
 51
0.0
  0
LINE
  5
6C32
330
1E
100
AcDbEntity
  8
躯体と製品
  6
Continuous
 62
     3
100
AcDbLine
 10
1985.86642314354
 20
832.8198184425987
 30
0.0
 11
1985.86642314354
 21
840.3198184425987
 31
0.0
  0
ARC
  5
6C33
330
1E
100
AcDbEntity
  8
躯体と製品
  6
Continuous
 62
     3
100
AcDbCircle
 10
1982.61642314354
 20
831.5698184425986
 30
0.0
 40
0.75
100
AcDbArc
 50
90.0
 51
270.0
  0
ARC
  5
6C34
330
1E
100
AcDbEntity
  8
躯体と製品
  6
Continuous
 62
     3
100
AcDbCircle
 10
1983.61642314354
 20
827.5698184425987
 30
0.0
 40
0.75
100
AcDbArc
 50
90.0
 51
270.0
  0
LINE
  5
6C35
330
1E
100
AcDbEntity
  8
躯体と製品
  6
Continuous
 62
     3
100
AcDbLine
 10
1985.56642314354
 20
826.8198184425987
 30
0.0
 11
1983.61642314354
 21
826.8198184425987
 31
0.0
  0
ARC
  5
6C36
330
1E
100
AcDbEntity
  8
躯体と製品
  6
Continuous
 62
     3
100
AcDbCircle
 10
1985.56642314354
 20
826.5198184425987
 30
0.0
 40
0.2999999999999998
100
AcDbArc
 50
0.0
 51
90.0
  0
LINE
  5
6C37
330
1E
100
AcDbEntity
  8
躯体と製品
  6
Continuous
 62
     3
100
AcDbLine
 10
1985.86642314354
 20
826.5198184425987
 30
0.0
 11
1985.86642314354
 21
825.1198184425986
 31
0.0
  0
LINE
  5
6C38
330
1E
100
AcDbEntity
  8
躯体と製品
  6
Continuous
 62
     3
100
AcDbLine
 10
1985.56642314354
 20
828.3198184425987
 30
0.0
 11
1983.61642314354
 21
828.3198184425987
 31
0.0
  0
ARC
  5
6C39
330
1E
100
AcDbEntity
  8
躯体と製品
  6
Continuous
 62
     3
100
AcDbCircle
 10
1985.56642314354
 20
828.6198184425986
 30
0.0
 40
0.2999999999999998
100
AcDbArc
 50
270.0
 51
0.0
  0
LINE
  5
6C3A
330
1E
100
AcDbEntity
  8
躯体と製品
  6
Continuous
 62
     3
100
AcDbLine
 10
1985.86642314354
 20
830.5198184425988
 30
0.0
 11
1985.86642314354
 21
828.6198184425986
 31
0.0
  0
ARC
  5
6C3B
330
1E
100
AcDbEntity
  8
躯体と製品
  6
Continuous
 62
     3
100
AcDbCircle
 10
1985.56642314354
 20
830.5198184425988
 30
0.0
 40
0.2999999999999998
100
AcDbArc
 50
0.0
 51
90.0
  0
LINE
  5
6C3C
330
1E
100
AcDbEntity
  8
躯体と製品
  6
Continuous
 62
     3
100
AcDbLine
 10
1985.56642314354
 20
830.8198184425986
 30
0.0
 11
1982.61642314354
 21
830.8198184425986
 31
0.0
  0
LINE
  5
6C3D
330
1E
100
AcDbEntity
  8
躯体と製品
  6
Continuous
 62
     3
100
AcDbLine
 10
1969.36642314354
 20
824.3198184425986
 30
0.0
 11
1968.86642314354
 21
824.8198184425987
 31
0.0
  0
LINE
  5
6C3E
330
1E
100
AcDbEntity
  8
躯体と製品
  6
Continuous
 62
     3
100
AcDbLine
 10
1994.565345247301
 20
829.3085346441431
 30
0.0
 11
1994.88410094614
 21
828.2369028022971
 31
0.0
  0
LINE
  5
6C3F
330
1E
100
AcDbEntity
  8
躯体と製品
  6
Continuous
 62
     3
100
AcDbLine
 10
1994.738993424968
 20
830.2933423971554
 30
0.0
 11
1995.057749123807
 21
829.2217105553095
 31
0.0
  0
LINE
  5
6C40
330
1E
100
AcDbEntity
  8
躯体と製品
  6
DASHED1
 62
     4
100
AcDbLine
 10
1973.144453447306
 20
865.8729905825159
 30
0.0
 11
1971.898857688724
 21
842.1056076553572
 31
0.0
  0
LINE
  5
6C41
330
1E
100
AcDbEntity
  8
躯体と製品
  6
DASHED1
 62
     7
100
AcDbLine
 10
1973.712174337814
 20
865.8432375913919
 30
0.0
 11
1972.466578579232
 21
842.0758546642328
 31
0.0
  0
LINE
  5
6C42
330
1E
100
AcDbEntity
  8
躯体と製品
  6
DASHED1
 62
     7
100
AcDbLine
 10
1967.720397129286
 20
866.1572533288495
 30
0.0
 11
1966.474801370704
 21
842.3898704016906
 31
0.0
  0
LINE
  5
6C43
330
1E
100
AcDbEntity
  8
躯体と製品
  6
DASHED1
 62
     4
100
AcDbLine
 10
1968.288118019794
 20
866.1275003377252
 30
0.0
 11
1967.042522261212
 21
842.3601174105662
 31
0.0
  0
ARC
  5
6C44
330
1E
100
AcDbEntity
  8
躯体と製品
  6
DASHED1
 62
     7
100
AcDbCircle
 10
1981.280057959361
 20
863.6441513941178
 30
0.0
 40
1.0
100
AcDbArc
 50
37.62684736228169
 51
86.99999999999441
  0
LINE
  5
6C45
330
1E
100
AcDbEntity
  8
躯体と製品
  6
DASHED1
 62
     7
100
AcDbLine
 10
1960.058308786502
 20
866.5588063635652
 30
0.0
 11
1981.374262680598
 21
865.4416845566759
 31
0.0
  0
ARC
  5
6C46
330
1E
100
AcDbEntity
  8
躯体と製品
  6
DASHED1
 62
     7
100
AcDbCircle
 10
1959.964104065265
 20
864.7612732010072
 30
0.0
 40
1.8
100
AcDbArc
 50
86.99999999999441
 51
136.3731526377175
  0
LINE
  5
6C47
330
1E
100
AcDbEntity
  8
躯体と製品
  6
DASHED1
 62
     7
100
AcDbLine
 10
1960.016440021507
 20
865.7599027357617
 30
0.0
 11
1981.332393915604
 21
864.6427809288724
 31
0.0
  0
LINE
  5
6C48
330
1E
100
AcDbEntity
  8
躯体と製品
  6
DASHED1
 62
     7
100
AcDbLine
 10
1959.240255421702
 20
865.4512319977568
 30
0.0
 11
1946.310304327944
 21
851.8861791212144
 31
0.0
  0
ARC
  5
6C49
330
1E
100
AcDbEntity
  8
躯体と製品
  6
DASHED1
 62
     7
100
AcDbCircle
 10
1959.964104065265
 20
864.7612732010072
 30
0.0
 40
1.0
100
AcDbArc
 50
86.99999999999441
 51
136.3731526377175
  0
ARC
  5
6C4A
330
1E
100
AcDbEntity
  8
躯体と製品
  6
DASHED1
 62
     7
100
AcDbCircle
 10
1945.007376786036
 20
853.1281049726793
 30
0.0
 40
1.0
100
AcDbArc
 50
217.6268487328632
 51
316.3731526377176
  0
ARC
  5
6C4B
330
1E
100
AcDbEntity
  8
躯体と製品
  6
DASHED1
 62
     7
100
AcDbCircle
 10
1945.007376786036
 20
853.1281049726793
 30
0.0
 40
1.8
100
AcDbArc
 50
217.6268481237226
 51
316.3731526377176
  0
LINE
  5
6C4C
330
1E
100
AcDbEntity
  8
躯体と製品
  6
DASHED1
 62
     7
100
AcDbLine
 10
1997.732578557604
 20
851.9928942944989
 30
0.0
 11
1995.662702150822
 21
849.8213483464667
 31
0.0
  0
LINE
  5
6C4D
330
1E
100
AcDbEntity
  8
躯体と製品
  6
DASHED1
 62
     7
100
AcDbLine
 10
1998.311657472477
 20
851.4409272571223
 30
0.0
 11
1997.732578557604
 21
851.9928942944989
 31
0.0
  0
LINE
  5
6C4E
330
1E
100
AcDbEntity
  8
躯体と製品
  6
DASHED1
 62
     7
100
AcDbLine
 10
1998.311657472477
 20
851.4409272571223
 30
0.0
 11
1996.241781065673
 21
849.2693813090667
 31
0.0
  0
ARC
  5
6C4F
330
1E
100
AcDbEntity
  8
躯体と製品
  6
DASHED1
 62
     7
100
AcDbCircle
 10
1994.938853523765
 20
850.5113071605322
 30
0.0
 40
1.0
100
AcDbArc
 50
217.6268473622817
 51
316.3731512671342
  0
ARC
  5
6C50
330
1E
100
AcDbEntity
  8
躯体と製品
  6
DASHED1
 62
     7
100
AcDbCircle
 10
1994.938853523765
 20
850.5113071605322
 30
0.0
 40
1.8
100
AcDbArc
 50
217.6268473622817
 51
316.3731518762783
  0
LINE
  5
6C51
330
1E
100
AcDbEntity
  8
躯体と製品
  6
DASHED1
 62
     7
100
AcDbLine
 10
1982.705664543217
 20
864.7430808131732
 30
0.0
 11
1994.146849880671
 21
849.9007907976666
 31
0.0
  0
LINE
  5
6C52
330
1E
100
AcDbEntity
  8
躯体と製品
  6
DASHED1
 62
     7
100
AcDbLine
 10
1982.072061617059
 20
864.2546677380373
 30
0.0
 11
1993.513246954513
 21
849.4123777225308
 31
0.0
  0
ARC
  5
6C53
330
1E
100
AcDbEntity
  8
躯体と製品
  6
DASHED1
 62
     7
100
AcDbCircle
 10
1981.280057959361
 20
863.6441513941178
 30
0.0
 40
1.8
100
AcDbArc
 50
37.62684736228169
 51
86.99999999999441
  0
LINE
  5
6C54
330
1E
100
AcDbEntity
  8
躯体と製品
  6
DASHED1
 62
     7
100
AcDbLine
 10
1942.383824096555
 20
854.8935996018848
 30
0.0
 11
1944.215373142942
 21
852.5175886098141
 31
0.0
  0
LINE
  5
6C55
330
1E
100
AcDbEntity
  8
躯体と製品
  6
DASHED1
 62
     7
100
AcDbLine
 10
1958.661176506852
 20
866.0031990351567
 30
0.0
 11
1945.731225429599
 21
852.4381461759293
 31
0.0
  0
ARC
  5
6C56
330
1E
100
AcDbEntity
  8
躯体と製品
  6
DASHED1
 62
     7
100
AcDbCircle
 10
1969.532356985865
 20
869.2044247195694
 30
0.0
 40
0.5999999999999997
100
AcDbArc
 50
357.0000000000011
 51
100.7002330000058
  0
ARC
  5
6C57
330
1E
100
AcDbEntity
  8
躯体と製品
  6
DASHED1
 62
     7
100
AcDbCircle
 10
1972.228656729702
 20
869.0631176377133
 30
0.0
 40
0.5999999999999997
100
AcDbArc
 50
73.29976700000166
 51
177.0000000000011
  0
LINE
  5
6C58
330
1E
100
AcDbEntity
  8
躯体と製品
  6
DASHED1
 62
     7
100
AcDbLine
 10
1971.627425084247
 20
869.0553279953675
 30
0.0
 11
1970.129480782116
 21
869.1338319297322
 31
0.0
  0
ARC
  5
6C59
330
1E
100
AcDbEntity
  8
躯体と製品
  6
DASHED1
 62
     7
100
AcDbCircle
 10
1968.903055038382
 20
865.9001474415857
 30
0.0
 40
3.45
100
AcDbArc
 50
126.3091240000008
 51
173.7621629999991
  0
ARC
  5
6C5A
330
1E
100
AcDbEntity
  8
躯体と製品
  6
DASHED1
 62
     7
100
AcDbCircle
 10
1972.514391043638
 20
865.7063761616315
 30
0.0
 40
3.45
100
AcDbArc
 50
0.3127429999987237
 51
47.82048899999998
  0
ARC
  5
6C5B
330
1E
100
AcDbEntity
  8
躯体と製品
  6
DASHED1
 62
     7
100
AcDbCircle
 10
1970.590679490903
 20
863.6035355753392
 30
0.0
 40
6.299999999999998
100
AcDbArc
 50
47.69686900000316
 51
126.3093710000041
  0
LINE
  5
6C5C
330
1E
100
AcDbEntity
  8
躯体と製品
  6
Continuous
 62
     4
100
AcDbLine
 10
1971.910168860435
 20
831.4589247654899
 30
0.0
 11
1965.918391651907
 21
831.7729405029472
 31
0.0
  0
LINE
  5
6C5D
330
1E
100
AcDbEntity
  8
躯体と製品
  6
Continuous
 62
     7
100
AcDbLine
 10
1966.474801370704
 20
842.3898704016906
 30
0.0
 11
1966.370534539276
 21
840.400340739214
 31
0.0
  0
LINE
  5
6C5E
330
1E
100
AcDbEntity
  8
躯体と製品
  6
Continuous
 62
     7
100
AcDbLine
 10
1966.182125096802
 20
836.8052744140975
 30
0.0
 11
1965.918391651907
 21
831.7729405029472
 31
0.0
  0
LINE
  5
6C5F
330
1E
100
AcDbEntity
  8
躯体と製品
  6
Continuous
 62
     7
100
AcDbLine
 10
1972.466578579232
 20
842.0758546642328
 30
0.0
 11
1972.362311747804
 21
840.0863250017565
 31
0.0
  0
LINE
  5
6C60
330
1E
100
AcDbEntity
  8
躯体と製品
  6
Continuous
 62
     7
100
AcDbLine
 10
1972.173902305329
 20
836.4912586766399
 30
0.0
 11
1971.910168860435
 21
831.4589247654899
 31
0.0
  0
LINE
  5
6C61
330
1E
100
AcDbEntity
  8
躯体と製品
  6
Continuous
 62
     4
100
AcDbLine
 10
1967.042522261212
 20
842.3601174105662
 30
0.0
 11
1966.938255429784
 21
840.3705877480899
 31
0.0
  0
LINE
  5
6C62
330
1E
100
AcDbEntity
  8
躯体と製品
  6
Continuous
 62
     4
100
AcDbLine
 10
1971.898857688724
 20
842.1056076553572
 30
0.0
 11
1971.794590857296
 21
840.1160779928805
 31
0.0
  0
POINT
  5
6C63
330
1E
100
AcDbEntity
  8
躯体と製品
 62
     4
100
AcDbPoint
 10
1969.36642314354
 20
840.2433328704852
 30
0.0
  0
ARC
  5
6C64
330
1E
100
AcDbEntity
  8
躯体と製品
  6
Continuous
 62
     7
100
AcDbCircle
 10
2019.337863369642
 20
819.320226356138
 30
0.0
 40
1.0
100
AcDbArc
 50
4.999999999999459
 51
88.3634229583817
  0
LINE
  5
6C65
330
1E
100
AcDbEntity
  8
躯体と製品
  6
DASHED1
 62
     7
100
AcDbLine
 10
1941.750221170377
 20
854.4051865267743
 30
0.0
 11
1942.383824096555
 21
854.8935996018848
 31
0.0
  0
LINE
  5
6C66
330
1E
100
AcDbEntity
  8
躯体と製品
  6
DASHED1
 62
     7
100
AcDbLine
 10
1941.750221170377
 20
854.4051865267743
 30
0.0
 11
1943.581770216784
 21
852.029175534678
 31
0.0
  0
LINE
  5
6C67
330
1E
100
AcDbEntity
  8
躯体と製品
  6
Continuous
 62
     3
100
AcDbLine
 10
1530.36642314354
 20
838.6068801795087
 30
0.0
 11
1530.36642314354
 21
831.3198184425987
 31
0.0
  0
LINE
  5
6C68
330
1E
100
AcDbEntity
  8
躯体と製品
  6
Continuous
 62
     3
100
AcDbLine
 10
1535.36642314354
 20
829.2198184425986
 30
0.0
 11
1530.86642314354
 21
829.2198184425986
 31
0.0
  0
LINE
  5
6C69
330
1E
100
AcDbEntity
  8
躯体と製品
  6
Continuous
 62
     3
100
AcDbLine
 10
1535.36642314354
 20
829.2198184425986
 30
0.0
 11
1535.36642314354
 21
830.8198184425986
 31
0.0
  0
LINE
  5
6C6A
330
1E
100
AcDbEntity
  8
躯体と製品
  6
Continuous
 62
     3
100
AcDbLine
 10
1535.36642314354
 20
830.8198184425986
 30
0.0
 11
1530.86642314354
 21
830.8198184425986
 31
0.0
  0
ARC
  5
6C6B
330
1E
100
AcDbEntity
  8
躯体と製品
  6
Continuous
 62
     3
100
AcDbCircle
 10
1530.86642314354
 20
831.3198184425987
 30
0.0
 40
2.1
100
AcDbArc
 50
180.0
 51
270.0
  0
ARC
  5
6C6C
330
1E
100
AcDbEntity
  8
躯体と製品
  6
Continuous
 62
     3
100
AcDbCircle
 10
1530.86642314354
 20
831.3198184425987
 30
0.0
 40
0.5
100
AcDbArc
 50
180.0
 51
270.0
  0
LINE
  5
6C6D
330
1E
100
AcDbEntity
  8
躯体と製品
  6
Continuous
 62
     3
100
AcDbLine
 10
1503.36642314354
 20
829.2198184425986
 30
0.0
 11
1507.86642314354
 21
829.2198184425986
 31
0.0
  0
LINE
  5
6C6E
330
1E
100
AcDbEntity
  8
躯体と製品
  6
Continuous
 62
     3
100
AcDbLine
 10
1507.86642314354
 20
830.8198184425986
 30
0.0
 11
1503.36642314354
 21
830.8198184425986
 31
0.0
  0
LINE
  5
6C6F
330
1E
100
AcDbEntity
  8
躯体と製品
  6
Continuous
 62
     3
100
AcDbLine
 10
1503.36642314354
 20
830.8198184425986
 30
0.0
 11
1503.36642314354
 21
829.2198184425986
 31
0.0
  0
ARC
  5
6C70
330
1E
100
AcDbEntity
  8
躯体と製品
  6
Continuous
 62
     3
100
AcDbCircle
 10
1507.86642314354
 20
831.3198184425987
 30
0.0
 40
2.1
100
AcDbArc
 50
270.0
 51
0.0
  0
ARC
  5
6C71
330
1E
100
AcDbEntity
  8
躯体と製品
  6
Continuous
 62
     3
100
AcDbCircle
 10
1507.86642314354
 20
831.3198184425987
 30
0.0
 40
0.5
100
AcDbArc
 50
270.0
 51
0.0
  0
LINE
  5
6C72
330
1E
100
AcDbEntity
  8
躯体と製品
  6
Continuous
 62
     3
100
AcDbLine
 10
1528.76642314354
 20
838.6068801795087
 30
0.0
 11
1528.76642314354
 21
831.3198184425987
 31
0.0
  0
ARC
  5
6C73
330
1E
100
AcDbEntity
  8
躯体と製品
  6
Continuous
 62
     3
100
AcDbCircle
 10
1528.26642314354
 20
838.6068801795087
 30
0.0
 40
0.5
100
AcDbArc
 50
0.0
 51
93.00000000000558
  0
LINE
  5
6C74
330
1E
100
AcDbEntity
  8
躯体と製品
  6
Continuous
 62
     3
100
AcDbLine
 10
1509.96642314354
 20
837.6740217082703
 30
0.0
 11
1509.96642314354
 21
831.3198184425987
 31
0.0
  0
ARC
  5
6C75
330
1E
100
AcDbEntity
  8
躯体と製品
  6
Continuous
 62
     3
100
AcDbCircle
 10
1510.46642314354
 20
837.6740217082703
 30
0.0
 40
0.5
100
AcDbArc
 50
93.00000000000558
 51
180.0
  0
ARC
  5
6C76
330
1E
100
AcDbEntity
  8
躯体と製品
  6
Continuous
 62
     3
100
AcDbCircle
 10
1528.26642314354
 20
838.6068801795087
 30
0.0
 40
2.1
100
AcDbArc
 50
0.0
 51
93.00000000000558
  0
LINE
  5
6C77
330
1E
100
AcDbEntity
  8
躯体と製品
  6
Continuous
 62
     3
100
AcDbLine
 10
1508.36642314354
 20
837.6740217082703
 30
0.0
 11
1508.36642314354
 21
831.3198184425987
 31
0.0
  0
ARC
  5
6C78
330
1E
100
AcDbEntity
  8
躯体と製品
  6
Continuous
 62
     3
100
AcDbCircle
 10
1510.46642314354
 20
837.6740217082703
 30
0.0
 40
2.1
100
AcDbArc
 50
93.00000000000558
 51
180.0
  0
LINE
  5
6C79
330
1E
100
AcDbEntity
  8
躯体と製品
  6
Continuous
 62
     3
100
AcDbLine
 10
1514.961136726143
 20
836.4075211466511
 30
0.0
 11
1524.148528445885
 21
836.8890119440864
 31
0.0
  0
LINE
  5
6C7A
330
1E
100
AcDbEntity
  8
躯体と製品
  6
Continuous
 62
     3
100
AcDbLine
 10
1524.096192489643
 20
837.8876414788409
 30
0.0
 11
1524.148528445885
 21
836.8890119440864
 31
0.0
  0
ARC
  5
6C7B
330
1E
100
AcDbEntity
  8
躯体と製品
  6
Continuous
 62
     3
100
AcDbCircle
 10
1525.094822024397
 20
837.9399774350837
 30
0.0
 40
1.0
100
AcDbArc
 50
93.00000000000558
 51
182.9999999999989
  0
LINE
  5
6C7C
330
1E
100
AcDbEntity
  8
躯体と製品
  6
Continuous
 62
     3
100
AcDbLine
 10
1514.908800769901
 20
837.406150681406
 30
0.0
 11
1514.961136726143
 21
836.4075211466511
 31
0.0
  0
ARC
  5
6C7D
330
1E
100
AcDbEntity
  8
躯体と製品
  6
Continuous
 62
     3
100
AcDbCircle
 10
1513.910171235146
 20
837.3538147251627
 30
0.0
 40
1.0
100
AcDbArc
 50
2.999999999998919
 51
93.00000000000558
  0
LINE
  5
6C7E
330
1E
100
AcDbEntity
  8
躯体と製品
  6
Continuous
 62
     3
100
AcDbLine
 10
1510.440255165418
 20
838.1733364756478
 30
0.0
 11
1528.240255165419
 21
839.1061949468857
 31
0.0
  0
LINE
  5
6C7F
330
1E
100
AcDbEntity
  8
躯体と製品
  6
Continuous
 62
     3
100
AcDbLine
 10
1510.35651763543
 20
839.7711437312553
 30
0.0
 11
1528.156517635429
 21
840.7040022024933
 31
0.0
  0
LINE
  5
6C80
330
1E
100
AcDbEntity
  8
躯体と製品
  6
DASHED1
 62
     7
100
AcDbLine
 10
1522.362311747803
 20
840.400340739214
 30
0.0
 11
1522.550721190278
 21
836.8052744140975
 31
0.0
  0
LINE
  5
6C81
330
1E
100
AcDbEntity
  8
躯体と製品
  6
DASHED1
 62
     7
100
AcDbLine
 10
1516.370534539276
 20
840.0863250017561
 30
0.0
 11
1516.558943981751
 21
836.4912586766399
 31
0.0
  0
LINE
  5
6C82
330
1E
100
AcDbEntity
  8
躯体と製品
  6
Continuous
 62
     4
100
AcDbLine
 10
1533.36642314354
 20
830.8198184425986
 30
0.0
 11
1533.36642314354
 21
829.2198184425986
 31
0.0
  0
LINE
  5
6C83
330
1E
100
AcDbEntity
  8
躯体と製品
  6
Continuous
 62
     4
100
AcDbLine
 10
1505.36642314354
 20
830.8198184425986
 30
0.0
 11
1505.36642314354
 21
829.2198184425986
 31
0.0
  0
LINE
  5
6C84
330
1E
100
AcDbEntity
  8
躯体と製品
  6
DASHED1
 62
     7
100
AcDbLine
 10
1515.31642314354
 20
822.3198184425987
 30
0.0
 11
1515.31642314354
 21
813.0198184425987
 31
0.0
  0
LINE
  5
6C85
330
1E
100
AcDbEntity
  8
躯体と製品
  6
DASHED1
 62
     7
100
AcDbLine
 10
1523.41642314354
 20
822.3198184425987
 30
0.0
 11
1523.41642314354
 21
813.0198184425987
 31
0.0
  0
LINE
  5
6C86
330
1E
100
AcDbEntity
  8
躯体と製品
  6
DASHED1
 62
     7
100
AcDbLine
 10
1514.61642314354
 20
812.3198184425987
 30
0.0
 11
1515.31642314354
 21
813.0198184425987
 31
0.0
  0
LINE
  5
6C87
330
1E
100
AcDbEntity
  8
躯体と製品
  6
DASHED1
 62
     7
100
AcDbLine
 10
1514.61642314354
 20
793.6916444425987
 30
0.0
 11
1514.61642314354
 21
812.3198184425987
 31
0.0
  0
LINE
  5
6C88
330
1E
100
AcDbEntity
  8
躯体と製品
  6
DASHED1
 62
     7
100
AcDbLine
 10
1514.86642314354
 20
781.8198184425987
 30
0.0
 11
1514.86642314354
 21
782.6831224425987
 31
0.0
  0
LINE
  5
6C89
330
1E
100
AcDbEntity
  8
躯体と製品
  6
DASHED1
 62
     7
100
AcDbLine
 10
1512.74139314354
 20
783.0578224425988
 30
0.0
 11
1514.61642314354
 21
793.6916444425987
 31
0.0
  0
LINE
  5
6C8A
330
1E
100
AcDbEntity
  8
躯体と製品
  6
DASHED1
 62
     7
100
AcDbLine
 10
1518.86642314354
 20
793.3198184425987
 30
0.0
 11
1519.86642314354
 21
793.3198184425987
 31
0.0
  0
LINE
  5
6C8B
330
1E
100
AcDbEntity
  8
躯体と製品
  6
DASHED1
 62
     7
100
AcDbLine
 10
1524.11642314354
 20
812.3198184425987
 30
0.0
 11
1523.41642314354
 21
813.0198184425987
 31
0.0
  0
LINE
  5
6C8C
330
1E
100
AcDbEntity
  8
躯体と製品
  6
DASHED1
 62
     7
100
AcDbLine
 10
1524.11642314354
 20
793.6916444425987
 30
0.0
 11
1524.11642314354
 21
812.3198184425987
 31
0.0
  0
LINE
  5
6C8D
330
1E
100
AcDbEntity
  8
躯体と製品
  6
DASHED1
 62
     7
100
AcDbLine
 10
1522.86642314354
 20
780.8198184425987
 30
0.0
 11
1515.86642314354
 21
780.8198184425987
 31
0.0
  0
ARC
  5
6C8E
330
1E
100
AcDbEntity
  8
躯体と製品
  6
DASHED1
 62
     7
100
AcDbCircle
 10
1522.86642314354
 20
781.8198184425987
 30
0.0
 40
1.0
100
AcDbArc
 50
270.0
 51
0.0
  0
LINE
  5
6C8F
330
1E
100
AcDbEntity
  8
躯体と製品
  6
DASHED1
 62
     7
100
AcDbLine
 10
1523.86642314354
 20
781.8198184425987
 30
0.0
 11
1523.86642314354
 21
782.6831224425987
 31
0.0
  0
LINE
  5
6C90
330
1E
100
AcDbEntity
  8
躯体と製品
  6
DASHED1
 62
     7
100
AcDbLine
 10
1525.99145314354
 20
783.0578224425988
 30
0.0
 11
1521.80602014354
 21
782.3198184425987
 31
0.0
  0
LINE
  5
6C91
330
1E
100
AcDbEntity
  8
躯体と製品
  6
DASHED1
 62
     7
100
AcDbLine
 10
1518.86642314354
 20
793.3198184425987
 30
0.0
 11
1516.92682614354
 21
782.3198184425987
 31
0.0
  0
LINE
  5
6C92
330
1E
100
AcDbEntity
  8
躯体と製品
  6
DASHED1
 62
     7
100
AcDbLine
 10
1519.86642314354
 20
793.3198184425987
 30
0.0
 11
1521.80602014354
 21
782.3198184425987
 31
0.0
  0
LINE
  5
6C93
330
1E
100
AcDbEntity
  8
躯体と製品
  6
DASHED1
 62
     7
100
AcDbLine
 10
1525.99145314354
 20
783.0578224425988
 30
0.0
 11
1524.11642314354
 21
793.6916444425987
 31
0.0
  0
LINE
  5
6C94
330
1E
100
AcDbEntity
  8
躯体と製品
  6
DASHED1
 62
     7
100
AcDbLine
 10
1514.61642314354
 20
812.3198184425987
 30
0.0
 11
1524.11642314354
 21
812.3198184425987
 31
0.0
  0
LINE
  5
6C95
330
1E
100
AcDbEntity
  8
躯体と製品
  6
DASHED1
 62
     7
100
AcDbLine
 10
1515.31642314354
 20
813.0198184425987
 30
0.0
 11
1523.41642314354
 21
813.0198184425987
 31
0.0
  0
LINE
  5
6C96
330
1E
100
AcDbEntity
  8
躯体と製品
  6
DASHED1
 62
     7
100
AcDbLine
 10
1512.74139314354
 20
783.0578224425988
 30
0.0
 11
1516.92682614354
 21
782.3198184425987
 31
0.0
  0
ARC
  5
6C97
330
1E
100
AcDbEntity
  8
躯体と製品
  6
DASHED1
 62
     7
100
AcDbCircle
 10
1515.86642314354
 20
781.8198184425987
 30
0.0
 40
1.0
100
AcDbArc
 50
180.0
 51
270.0
  0
ARC
  5
6C98
330
1E
100
AcDbEntity
  8
躯体と製品
  6
Continuous
 62
     3
100
AcDbCircle
 10
1490.809112876957
 20
825.3198184425986
 30
0.0
 40
0.5
100
AcDbArc
 50
189.9999999999975
 51
270.0
  0
LINE
  5
6C99
330
1E
100
AcDbEntity
  8
躯体と製品
  6
Continuous
 62
     3
100
AcDbLine
 10
1490.809112876957
 20
824.8198184425987
 30
0.0
 11
1493.855392712614
 21
824.8198184425987
 31
0.0
  0
LINE
  5
6C9A
330
1E
100
AcDbEntity
  8
躯体と製品
  6
Continuous
 62
     3
100
AcDbLine
 10
1490.316709000451
 20
825.2329943537654
 30
0.0
 11
1489.909514328891
 21
827.5423100916297
 31
0.0
  0
ARC
  5
6C9B
330
1E
100
AcDbEntity
  8
躯体と製品
  6
Continuous
 62
     3
100
AcDbCircle
 10
1493.855392712614
 20
825.3198184425986
 30
0.0
 40
0.5
100
AcDbArc
 50
270.0
 51
9.999999999997477
  0
LINE
  5
6C9C
330
1E
100
AcDbEntity
  8
躯体と製品
  6
Continuous
 62
     3
100
AcDbLine
 10
1494.347796589121
 20
825.4066425314322
 30
0.0
 11
1493.84874534094
 21
828.2369028022971
 31
0.0
  0
ARC
  5
6C9D
330
1E
100
AcDbEntity
  8
躯体と製品
  6
Continuous
 62
     3
100
AcDbCircle
 10
1496.393959242328
 20
825.3198184425986
 30
0.0
 40
0.5
100
AcDbArc
 50
189.9999999999975
 51
270.0
  0
LINE
  5
6C9E
330
1E
100
AcDbEntity
  8
躯体と製品
  6
Continuous
 62
     3
100
AcDbLine
 10
1496.393959242328
 20
824.8198184425987
 30
0.0
 11
1500.36642314354
 21
824.8198184425987
 31
0.0
  0
LINE
  5
6C9F
330
1E
100
AcDbEntity
  8
躯体と製品
  6
Continuous
 62
     3
100
AcDbLine
 10
1495.901555365823
 20
825.2329943537654
 30
0.0
 11
1494.76160039304
 21
831.6980002660875
 31
0.0
  0
LINE
  5
6CA0
330
1E
100
AcDbEntity
  8
躯体と製品
  6
Continuous
 62
     3
100
AcDbLine
 10
1493.675097163273
 20
829.2217105553095
 30
0.0
 11
1494.167501039779
 21
829.3085346441431
 31
0.0
  0
LINE
  5
6CA1
330
1E
100
AcDbEntity
  8
躯体と製品
  6
Continuous
 62
     3
100
AcDbLine
 10
1489.243462274718
 20
828.4402937558084
 30
0.0
 11
1489.735866151224
 21
828.5271178446416
 31
0.0
  0
LINE
  5
6CA2
330
1E
100
AcDbEntity
  8
躯体と製品
  6
Continuous
 62
     3
100
AcDbLine
 10
1493.501448985606
 20
830.2065183083216
 30
0.0
 11
1493.993852862112
 21
830.2933423971554
 31
0.0
  0
LINE
  5
6CA3
330
1E
100
AcDbEntity
  8
躯体と製品
  6
Continuous
 62
     3
100
AcDbLine
 10
1489.069814097051
 20
829.4251015088207
 30
0.0
 11
1489.562217973557
 21
829.5119255976542
 31
0.0
  0
LINE
  5
6CA4
330
1E
100
AcDbEntity
  8
躯体と製品
  6
Continuous
 62
     3
100
AcDbLine
 10
1488.86642314354
 20
824.8198184425987
 30
0.0
 11
1487.867946121955
 21
830.4824630224189
 31
0.0
  0
LINE
  5
6CA5
330
1E
100
AcDbEntity
  8
躯体と製品
  6
Continuous
 62
     3
100
AcDbLine
 10
1489.562217973557
 20
829.5119255976542
 30
0.0
 11
1489.345157751473
 21
830.7429352889192
 31
0.0
  0
LINE
  5
6CA6
330
1E
100
AcDbEntity
  8
躯体と製品
  6
Continuous
 62
     3
100
AcDbLine
 10
1493.501448985606
 20
830.2065183083216
 30
0.0
 11
1493.284388763522
 21
831.4375279995871
 31
0.0
  0
LINE
  5
6CA7
330
1E
100
AcDbEntity
  8
躯体と製品
  6
Continuous
 62
     3
100
AcDbLine
 10
1489.243462274718
 20
828.4402937558084
 30
0.0
 11
1489.909514328891
 21
827.5423100916297
 31
0.0
  0
LINE
  5
6CA8
330
1E
100
AcDbEntity
  8
躯体と製品
  6
Continuous
 62
     3
100
AcDbLine
 10
1489.069814097051
 20
829.4251015088207
 30
0.0
 11
1489.735866151224
 21
828.5271178446416
 31
0.0
  0
ARC
  5
6CA9
330
1E
100
AcDbEntity
  8
躯体と製品
  6
Continuous
 62
     3
100
AcDbCircle
 10
1494.022994578281
 20
831.5677641328372
 30
0.0
 40
0.7500000000000014
100
AcDbArc
 50
9.999999999997477
 51
189.9999999999975
  0
ARC
  5
6CAA
330
1E
100
AcDbEntity
  8
躯体と製品
  6
Continuous
 62
     3
100
AcDbCircle
 10
1488.606551936714
 20
830.6126991556689
 30
0.0
 40
0.7499999999999975
100
AcDbArc
 50
9.999999999997477
 51
189.9999999999975
  0
LINE
  5
6CAB
330
1E
100
AcDbEntity
  8
躯体と製品
  6
Continuous
 62
     3
100
AcDbLine
 10
1488.86642314354
 20
822.3198184425987
 30
0.0
 11
1488.86642314354
 21
824.8198184425987
 31
0.0
  0
LINE
  5
6CAC
330
1E
100
AcDbEntity
  8
躯体と製品
  6
Continuous
 62
     3
100
AcDbLine
 10
1537.36642314354
 20
822.3198184425987
 30
0.0
 11
1535.86642314354
 21
822.3198184425987
 31
0.0
  0
LINE
  5
6CAD
330
1E
100
AcDbEntity
  8
躯体と製品
  6
Continuous
 62
     3
100
AcDbLine
 10
1535.86642314354
 20
822.3198184425987
 30
0.0
 11
1535.86642314354
 21
822.8198184425988
 31
0.0
  0
LINE
  5
6CAE
330
1E
100
AcDbEntity
  8
躯体と製品
  6
Continuous
 62
     3
100
AcDbLine
 10
1535.86642314354
 20
822.8198184425988
 30
0.0
 11
1524.36642314354
 21
822.8198184425988
 31
0.0
  0
LINE
  5
6CAF
330
1E
100
AcDbEntity
  8
躯体と製品
  6
Continuous
 62
     3
100
AcDbLine
 10
1524.36642314354
 20
822.8198184425988
 30
0.0
 11
1524.36642314354
 21
822.3198184425987
 31
0.0
  0
ARC
  5
6CB0
330
1E
100
AcDbEntity
  8
躯体と製品
  6
Continuous
 62
     3
100
AcDbCircle
 10
1532.61642314354
 20
831.5698184425986
 30
0.0
 40
0.75
100
AcDbArc
 50
90.0
 51
270.0
  0
ARC
  5
6CB1
330
1E
100
AcDbEntity
  8
躯体と製品
  6
Continuous
 62
     3
100
AcDbCircle
 10
1533.61642314354
 20
827.5698184425987
 30
0.0
 40
0.75
100
AcDbArc
 50
90.0
 51
270.0
  0
ARC
  5
6CB2
330
1E
100
AcDbEntity
  8
躯体と製品
  6
Continuous
 62
     3
100
AcDbCircle
 10
1535.56642314354
 20
830.5198184425988
 30
0.0
 40
0.2999999999999998
100
AcDbArc
 50
0.0
 51
90.0
  0
LINE
  5
6CB3
330
1E
100
AcDbEntity
  8
躯体と製品
  6
Continuous
 62
     3
100
AcDbLine
 10
1535.56642314354
 20
830.8198184425986
 30
0.0
 11
1532.61642314354
 21
830.8198184425986
 31
0.0
  0
LINE
  5
6CB4
330
1E
100
AcDbEntity
  8
躯体と製品
  6
Continuous
 62
     3
100
AcDbLine
 10
1535.56642314354
 20
828.3198184425987
 30
0.0
 11
1533.61642314354
 21
828.3198184425987
 31
0.0
  0
ARC
  5
6CB5
330
1E
100
AcDbEntity
  8
躯体と製品
  6
Continuous
 62
     3
100
AcDbCircle
 10
1535.56642314354
 20
828.6198184425986
 30
0.0
 40
0.2999999999999998
100
AcDbArc
 50
270.0
 51
0.0
  0
LINE
  5
6CB6
330
1E
100
AcDbEntity
  8
躯体と製品
  6
Continuous
 62
     3
100
AcDbLine
 10
1535.86642314354
 20
828.6198184425986
 30
0.0
 11
1535.86642314354
 21
830.5198184425988
 31
0.0
  0
ARC
  5
6CB7
330
1E
100
AcDbEntity
  8
躯体と製品
  6
Continuous
 62
     3
100
AcDbCircle
 10
1535.56642314354
 20
826.5198184425987
 30
0.0
 40
0.2999999999999998
100
AcDbArc
 50
0.0
 51
90.0
  0
LINE
  5
6CB8
330
1E
100
AcDbEntity
  8
躯体と製品
  6
Continuous
 62
     3
100
AcDbLine
 10
1535.56642314354
 20
826.8198184425987
 30
0.0
 11
1533.61642314354
 21
826.8198184425987
 31
0.0
  0
ARC
  5
6CB9
330
1E
100
AcDbEntity
  8
躯体と製品
  6
Continuous
 62
     3
100
AcDbCircle
 10
1535.56642314354
 20
825.1198184425986
 30
0.0
 40
0.2999999999999998
100
AcDbArc
 50
270.0
 51
0.0
  0
LINE
  5
6CBA
330
1E
100
AcDbEntity
  8
躯体と製品
  6
Continuous
 62
     3
100
AcDbLine
 10
1535.86642314354
 20
825.1198184425986
 30
0.0
 11
1535.86642314354
 21
826.5198184425987
 31
0.0
  0
LINE
  5
6CBB
330
1E
100
AcDbEntity
  8
躯体と製品
  6
Continuous
 62
     3
100
AcDbLine
 10
1536.86642314354
 20
832.3198184425987
 30
0.0
 11
1532.61642314354
 21
832.3198184425987
 31
0.0
  0
ARC
  5
6CBC
330
1E
100
AcDbEntity
  8
躯体と製品
  6
Continuous
 62
     3
100
AcDbCircle
 10
1536.86642314354
 20
831.8198184425988
 30
0.0
 40
0.5
100
AcDbArc
 50
0.0
 51
90.0
  0
LINE
  5
6CBD
330
1E
100
AcDbEntity
  8
躯体と製品
  6
Continuous
 62
     3
100
AcDbLine
 10
1537.36642314354
 20
831.8198184425988
 30
0.0
 11
1537.36642314354
 21
822.3198184425987
 31
0.0
  0
LINE
  5
6CBE
330
1E
100
AcDbEntity
  8
躯体と製品
  6
Continuous
 62
     3
100
AcDbLine
 10
1524.36642314354
 20
822.3198184425987
 30
0.0
 11
1514.36642314354
 21
822.3198184425987
 31
0.0
  0
LINE
  5
6CBF
330
1E
100
AcDbEntity
  8
躯体と製品
  6
Continuous
 62
     3
100
AcDbLine
 10
1518.86642314354
 20
824.8198184425987
 30
0.0
 11
1503.16642314354
 21
824.8198184425987
 31
0.0
  0
LINE
  5
6CC0
330
1E
100
AcDbEntity
  8
躯体と製品
  6
Continuous
 62
     3
100
AcDbLine
 10
1535.56642314354
 20
824.8198184425987
 30
0.0
 11
1519.86642314354
 21
824.8198184425987
 31
0.0
  0
LINE
  5
6CC1
330
1E
100
AcDbEntity
  8
躯体と製品
  6
Continuous
 62
     3
100
AcDbLine
 10
1514.36642314354
 20
822.3198184425987
 30
0.0
 11
1514.36642314354
 21
822.8198184425988
 31
0.0
  0
LINE
  5
6CC2
330
1E
100
AcDbEntity
  8
躯体と製品
  6
Continuous
 62
     3
100
AcDbLine
 10
1514.36642314354
 20
822.8198184425988
 30
0.0
 11
1502.86642314354
 21
822.8198184425988
 31
0.0
  0
LINE
  5
6CC3
330
1E
100
AcDbEntity
  8
躯体と製品
  6
Continuous
 62
     3
100
AcDbLine
 10
1502.86642314354
 20
822.8198184425988
 30
0.0
 11
1502.86642314354
 21
822.3198184425987
 31
0.0
  0
LINE
  5
6CC4
330
1E
100
AcDbEntity
  8
躯体と製品
  6
Continuous
 62
     3
100
AcDbLine
 10
1502.86642314354
 20
822.3198184425987
 30
0.0
 11
1500.86642314354
 21
822.3198184425987
 31
0.0
  0
ARC
  5
6CC5
330
1E
100
AcDbEntity
  8
躯体と製品
  6
Continuous
 62
     3
100
AcDbCircle
 10
1501.86642314354
 20
840.3198184425987
 30
0.0
 40
1.0
100
AcDbArc
 50
0.0
 51
180.0
  0
LINE
  5
6CC6
330
1E
100
AcDbEntity
  8
躯体と製品
  6
Continuous
 62
     3
100
AcDbLine
 10
1490.36642314354
 20
823.3198184425987
 30
0.0
 11
1490.36642314354
 21
822.3198184425987
 31
0.0
  0
LINE
  5
6CC7
330
1E
100
AcDbEntity
  8
躯体と製品
  6
Continuous
 62
     3
100
AcDbLine
 10
1490.36642314354
 20
822.3198184425987
 30
0.0
 11
1488.86642314354
 21
822.3198184425987
 31
0.0
  0
LINE
  5
6CC8
330
1E
100
AcDbEntity
  8
躯体と製品
  6
Continuous
 62
     3
100
AcDbLine
 10
1519.36642314354
 20
824.3198184425986
 30
0.0
 11
1518.86642314354
 21
824.8198184425987
 31
0.0
  0
LINE
  5
6CC9
330
1E
100
AcDbEntity
  8
躯体と製品
  6
Continuous
 62
     3
100
AcDbLine
 10
1500.86642314354
 20
822.3198184425987
 30
0.0
 11
1500.86642314354
 21
823.3198184425987
 31
0.0
  0
LINE
  5
6CCA
330
1E
100
AcDbEntity
  8
躯体と製品
  6
Continuous
 62
     3
100
AcDbLine
 10
1500.86642314354
 20
823.3198184425987
 30
0.0
 11
1490.36642314354
 21
823.3198184425987
 31
0.0
  0
LINE
  5
6CCB
330
1E
100
AcDbEntity
  8
躯体と製品
  6
Continuous
 62
     3
100
AcDbLine
 10
1500.86642314354
 20
825.3198184425986
 30
0.0
 11
1500.86642314354
 21
840.3198184425987
 31
0.0
  0
ARC
  5
6CCC
330
1E
100
AcDbEntity
  8
躯体と製品
  6
Continuous
 62
     3
100
AcDbCircle
 10
1500.36642314354
 20
825.3198184425986
 30
0.0
 40
0.5
100
AcDbArc
 50
270.0
 51
0.0
  0
ARC
  5
6CCD
330
1E
100
AcDbEntity
  8
躯体と製品
  6
Continuous
 62
     3
100
AcDbCircle
 10
1503.16642314354
 20
825.1198184425986
 30
0.0
 40
0.2999999999999998
100
AcDbArc
 50
180.0
 51
270.0
  0
LINE
  5
6CCE
330
1E
100
AcDbEntity
  8
躯体と製品
  6
Continuous
 62
     3
100
AcDbLine
 10
1503.36642314354
 20
832.3198184425987
 30
0.0
 11
1506.11642314354
 21
832.3198184425987
 31
0.0
  0
ARC
  5
6CCF
330
1E
100
AcDbEntity
  8
躯体と製品
  6
Continuous
 62
     3
100
AcDbCircle
 10
1503.36642314354
 20
832.8198184425987
 30
0.0
 40
0.5
100
AcDbArc
 50
180.0
 51
270.0
  0
LINE
  5
6CD0
330
1E
100
AcDbEntity
  8
躯体と製品
  6
Continuous
 62
     3
100
AcDbLine
 10
1502.86642314354
 20
832.8198184425987
 30
0.0
 11
1502.86642314354
 21
840.3198184425987
 31
0.0
  0
ARC
  5
6CD1
330
1E
100
AcDbEntity
  8
躯体と製品
  6
Continuous
 62
     3
100
AcDbCircle
 10
1506.11642314354
 20
831.5698184425986
 30
0.0
 40
0.75
100
AcDbArc
 50
270.0
 51
90.0
  0
ARC
  5
6CD2
330
1E
100
AcDbEntity
  8
躯体と製品
  6
Continuous
 62
     3
100
AcDbCircle
 10
1505.11642314354
 20
827.5698184425987
 30
0.0
 40
0.75
100
AcDbArc
 50
270.0
 51
90.0
  0
LINE
  5
6CD3
330
1E
100
AcDbEntity
  8
躯体と製品
  6
Continuous
 62
     3
100
AcDbLine
 10
1503.16642314354
 20
826.8198184425987
 30
0.0
 11
1505.11642314354
 21
826.8198184425987
 31
0.0
  0
ARC
  5
6CD4
330
1E
100
AcDbEntity
  8
躯体と製品
  6
Continuous
 62
     3
100
AcDbCircle
 10
1503.16642314354
 20
826.5198184425987
 30
0.0
 40
0.2999999999999998
100
AcDbArc
 50
90.0
 51
180.0
  0
LINE
  5
6CD5
330
1E
100
AcDbEntity
  8
躯体と製品
  6
Continuous
 62
     3
100
AcDbLine
 10
1502.86642314354
 20
826.5198184425987
 30
0.0
 11
1502.86642314354
 21
825.1198184425986
 31
0.0
  0
LINE
  5
6CD6
330
1E
100
AcDbEntity
  8
躯体と製品
  6
Continuous
 62
     3
100
AcDbLine
 10
1503.16642314354
 20
828.3198184425987
 30
0.0
 11
1505.11642314354
 21
828.3198184425987
 31
0.0
  0
ARC
  5
6CD7
330
1E
100
AcDbEntity
  8
躯体と製品
  6
Continuous
 62
     3
100
AcDbCircle
 10
1503.16642314354
 20
828.6198184425986
 30
0.0
 40
0.2999999999999998
100
AcDbArc
 50
180.0
 51
270.0
  0
LINE
  5
6CD8
330
1E
100
AcDbEntity
  8
躯体と製品
  6
Continuous
 62
     3
100
AcDbLine
 10
1502.86642314354
 20
830.5198184425988
 30
0.0
 11
1502.86642314354
 21
828.6198184425986
 31
0.0
  0
ARC
  5
6CD9
330
1E
100
AcDbEntity
  8
躯体と製品
  6
Continuous
 62
     3
100
AcDbCircle
 10
1503.16642314354
 20
830.5198184425988
 30
0.0
 40
0.2999999999999998
100
AcDbArc
 50
90.0
 51
180.0
  0
LINE
  5
6CDA
330
1E
100
AcDbEntity
  8
躯体と製品
  6
Continuous
 62
     3
100
AcDbLine
 10
1503.16642314354
 20
830.8198184425986
 30
0.0
 11
1506.11642314354
 21
830.8198184425986
 31
0.0
  0
LINE
  5
6CDB
330
1E
100
AcDbEntity
  8
躯体と製品
  6
Continuous
 62
     3
100
AcDbLine
 10
1519.36642314354
 20
824.3198184425986
 30
0.0
 11
1519.86642314354
 21
824.8198184425987
 31
0.0
  0
LINE
  5
6CDC
330
1E
100
AcDbEntity
  8
躯体と製品
  6
Continuous
 62
     3
100
AcDbLine
 10
1494.167501039779
 20
829.3085346441431
 30
0.0
 11
1493.84874534094
 21
828.2369028022971
 31
0.0
  0
LINE
  5
6CDD
330
1E
100
AcDbEntity
  8
躯体と製品
  6
Continuous
 62
     3
100
AcDbLine
 10
1493.993852862112
 20
830.2933423971554
 30
0.0
 11
1493.675097163273
 21
829.2217105553095
 31
0.0
  0
LINE
  5
6CDE
330
1E
100
AcDbEntity
  8
躯体と製品
  6
DASHED1
 62
     4
100
AcDbLine
 10
1515.588392839774
 20
865.8729905825159
 30
0.0
 11
1516.833988598356
 21
842.1056076553572
 31
0.0
  0
LINE
  5
6CDF
330
1E
100
AcDbEntity
  8
躯体と製品
  6
DASHED1
 62
     7
100
AcDbLine
 10
1515.020671949266
 20
865.8432375913919
 30
0.0
 11
1516.266267707848
 21
842.0758546642328
 31
0.0
  0
LINE
  5
6CE0
330
1E
100
AcDbEntity
  8
躯体と製品
  6
DASHED1
 62
     7
100
AcDbLine
 10
1521.012449157794
 20
866.1572533288495
 30
0.0
 11
1522.258044916376
 21
842.3898704016906
 31
0.0
  0
LINE
  5
6CE1
330
1E
100
AcDbEntity
  8
躯体と製品
  6
DASHED1
 62
     4
100
AcDbLine
 10
1520.444728267286
 20
866.1275003377252
 30
0.0
 11
1521.690324025868
 21
842.3601174105662
 31
0.0
  0
ARC
  5
6CE2
330
1E
100
AcDbEntity
  8
躯体と製品
  6
DASHED1
 62
     7
100
AcDbCircle
 10
1507.452788327719
 20
863.6441513941178
 30
0.0
 40
1.0
100
AcDbArc
 50
93.00000000000558
 51
142.3731526377183
  0
LINE
  5
6CE3
330
1E
100
AcDbEntity
  8
躯体と製品
  6
DASHED1
 62
     7
100
AcDbLine
 10
1528.674537500578
 20
866.5588063635652
 30
0.0
 11
1507.358583606482
 21
865.4416845566759
 31
0.0
  0
ARC
  5
6CE4
330
1E
100
AcDbEntity
  8
躯体と製品
  6
DASHED1
 62
     7
100
AcDbCircle
 10
1528.768742221815
 20
864.7612732010072
 30
0.0
 40
1.8
100
AcDbArc
 50
43.62684736228245
 51
93.00000000000558
  0
LINE
  5
6CE5
330
1E
100
AcDbEntity
  8
躯体と製品
  6
DASHED1
 62
     7
100
AcDbLine
 10
1528.716406265572
 20
865.7599027357617
 30
0.0
 11
1507.400452371476
 21
864.6427809288724
 31
0.0
  0
LINE
  5
6CE6
330
1E
100
AcDbEntity
  8
躯体と製品
  6
DASHED1
 62
     7
100
AcDbLine
 10
1529.492590865378
 20
865.4512319977568
 30
0.0
 11
1542.422541959136
 21
851.8861791212144
 31
0.0
  0
ARC
  5
6CE7
330
1E
100
AcDbEntity
  8
躯体と製品
  6
DASHED1
 62
     7
100
AcDbCircle
 10
1528.768742221815
 20
864.7612732010072
 30
0.0
 40
1.0
100
AcDbArc
 50
43.62684736228245
 51
93.00000000000558
  0
ARC
  5
6CE8
330
1E
100
AcDbEntity
  8
躯体と製品
  6
DASHED1
 62
     7
100
AcDbCircle
 10
1543.725469501044
 20
853.1281049726793
 30
0.0
 40
1.0
100
AcDbArc
 50
223.6268473622824
 51
322.3731512671368
  0
ARC
  5
6CE9
330
1E
100
AcDbEntity
  8
躯体と製品
  6
DASHED1
 62
     7
100
AcDbCircle
 10
1543.725469501044
 20
853.1281049726793
 30
0.0
 40
1.8
100
AcDbArc
 50
223.6268473622824
 51
322.3731518762774
  0
LINE
  5
6CEA
330
1E
100
AcDbEntity
  8
躯体と製品
  6
DASHED1
 62
     7
100
AcDbLine
 10
1491.000267729475
 20
851.9928942944989
 30
0.0
 11
1493.070144136257
 21
849.8213483464667
 31
0.0
  0
LINE
  5
6CEB
330
1E
100
AcDbEntity
  8
躯体と製品
  6
DASHED1
 62
     7
100
AcDbLine
 10
1490.421188814603
 20
851.4409272571223
 30
0.0
 11
1491.000267729475
 21
851.9928942944989
 31
0.0
  0
LINE
  5
6CEC
330
1E
100
AcDbEntity
  8
躯体と製品
  6
DASHED1
 62
     7
100
AcDbLine
 10
1490.421188814603
 20
851.4409272571223
 30
0.0
 11
1492.491065221407
 21
849.2693813090667
 31
0.0
  0
ARC
  5
6CED
330
1E
100
AcDbEntity
  8
躯体と製品
  6
DASHED1
 62
     7
100
AcDbCircle
 10
1493.793992763315
 20
850.5113071605322
 30
0.0
 40
1.0
100
AcDbArc
 50
223.6268487328658
 51
322.3731526377183
  0
ARC
  5
6CEE
330
1E
100
AcDbEntity
  8
躯体と製品
  6
DASHED1
 62
     7
100
AcDbCircle
 10
1493.793992763315
 20
850.5113071605322
 30
0.0
 40
1.8
100
AcDbArc
 50
223.6268481237193
 51
322.3731526377183
  0
LINE
  5
6CEF
330
1E
100
AcDbEntity
  8
躯体と製品
  6
DASHED1
 62
     7
100
AcDbLine
 10
1506.027181743863
 20
864.7430808131732
 30
0.0
 11
1494.585996406409
 21
849.9007907976666
 31
0.0
  0
LINE
  5
6CF0
330
1E
100
AcDbEntity
  8
躯体と製品
  6
DASHED1
 62
     7
100
AcDbLine
 10
1506.660784670021
 20
864.2546677380373
 30
0.0
 11
1495.219599332567
 21
849.4123777225308
 31
0.0
  0
ARC
  5
6CF1
330
1E
100
AcDbEntity
  8
躯体と製品
  6
DASHED1
 62
     7
100
AcDbCircle
 10
1507.452788327719
 20
863.6441513941178
 30
0.0
 40
1.8
100
AcDbArc
 50
93.00000000000558
 51
142.3731526377183
  0
LINE
  5
6CF2
330
1E
100
AcDbEntity
  8
躯体と製品
  6
DASHED1
 62
     7
100
AcDbLine
 10
1546.349022190526
 20
854.8935996018848
 30
0.0
 11
1544.517473144137
 21
852.5175886098141
 31
0.0
  0
LINE
  5
6CF3
330
1E
100
AcDbEntity
  8
躯体と製品
  6
DASHED1
 62
     7
100
AcDbLine
 10
1530.071669780228
 20
866.0031990351567
 30
0.0
 11
1543.001620857481
 21
852.4381461759293
 31
0.0
  0
ARC
  5
6CF4
330
1E
100
AcDbEntity
  8
躯体と製品
  6
DASHED1
 62
     7
100
AcDbCircle
 10
1519.200489301215
 20
869.2044247195694
 30
0.0
 40
0.5999999999999997
100
AcDbArc
 50
79.29976699999421
 51
182.9999999999989
  0
ARC
  5
6CF5
330
1E
100
AcDbEntity
  8
躯体と製品
  6
DASHED1
 62
     7
100
AcDbCircle
 10
1516.504189557377
 20
869.0631176377133
 30
0.0
 40
0.5999999999999997
100
AcDbArc
 50
2.999999999998919
 51
106.7002329999983
  0
LINE
  5
6CF6
330
1E
100
AcDbEntity
  8
躯体と製品
  6
DASHED1
 62
     7
100
AcDbLine
 10
1517.105421202833
 20
869.0553279953675
 30
0.0
 11
1518.603365504964
 21
869.1338319297322
 31
0.0
  0
ARC
  5
6CF7
330
1E
100
AcDbEntity
  8
躯体と製品
  6
DASHED1
 62
     7
100
AcDbCircle
 10
1519.829791248698
 20
865.9001474415857
 30
0.0
 40
3.45
100
AcDbArc
 50
6.237837000000908
 51
53.69087599999915
  0
ARC
  5
6CF8
330
1E
100
AcDbEntity
  8
躯体と製品
  6
DASHED1
 62
     7
100
AcDbCircle
 10
1516.218455243442
 20
865.7063761616315
 30
0.0
 40
3.45
100
AcDbArc
 50
132.179511
 51
179.6872570000013
  0
ARC
  5
6CF9
330
1E
100
AcDbEntity
  8
躯体と製品
  6
DASHED1
 62
     7
100
AcDbCircle
 10
1518.142166796177
 20
863.6035355753392
 30
0.0
 40
6.299999999999998
100
AcDbArc
 50
53.69062899999587
 51
132.3031309999968
  0
LINE
  5
6CFA
330
1E
100
AcDbEntity
  8
躯体と製品
  6
Continuous
 62
     4
100
AcDbLine
 10
1516.822677426645
 20
831.4589247654899
 30
0.0
 11
1522.814454635172
 21
831.7729405029472
 31
0.0
  0
LINE
  5
6CFB
330
1E
100
AcDbEntity
  8
躯体と製品
  6
Continuous
 62
     7
100
AcDbLine
 10
1522.258044916376
 20
842.3898704016906
 30
0.0
 11
1522.362311747804
 21
840.400340739214
 31
0.0
  0
LINE
  5
6CFC
330
1E
100
AcDbEntity
  8
躯体と製品
  6
Continuous
 62
     7
100
AcDbLine
 10
1522.550721190278
 20
836.8052744140975
 30
0.0
 11
1522.814454635172
 21
831.7729405029472
 31
0.0
  0
LINE
  5
6CFD
330
1E
100
AcDbEntity
  8
躯体と製品
  6
Continuous
 62
     7
100
AcDbLine
 10
1516.266267707848
 20
842.0758546642328
 30
0.0
 11
1516.370534539276
 21
840.0863250017565
 31
0.0
  0
LINE
  5
6CFE
330
1E
100
AcDbEntity
  8
躯体と製品
  6
Continuous
 62
     7
100
AcDbLine
 10
1516.558943981751
 20
836.4912586766399
 30
0.0
 11
1516.822677426645
 21
831.4589247654899
 31
0.0
  0
LINE
  5
6CFF
330
1E
100
AcDbEntity
  8
躯体と製品
  6
Continuous
 62
     4
100
AcDbLine
 10
1521.690324025868
 20
842.3601174105662
 30
0.0
 11
1521.794590857296
 21
840.3705877480899
 31
0.0
  0
LINE
  5
6D00
330
1E
100
AcDbEntity
  8
躯体と製品
  6
Continuous
 62
     4
100
AcDbLine
 10
1516.833988598356
 20
842.1056076553572
 30
0.0
 11
1516.938255429784
 21
840.1160779928805
 31
0.0
  0
POINT
  5
6D01
330
1E
100
AcDbEntity
  8
躯体と製品
 62
     4
100
AcDbPoint
 10
1519.36642314354
 20
840.2433328704852
 30
0.0
  0
ARC
  5
6D02
330
1E
100
AcDbEntity
  8
躯体と製品
  6
Continuous
 62
     7
100
AcDbCircle
 10
1469.394982917439
 20
819.320226356138
 30
0.0
 40
1.0
100
AcDbArc
 50
91.63657704161829
 51
175.0000000000005
  0
LINE
  5
6D03
330
1E
100
AcDbEntity
  8
躯体と製品
  6
DASHED1
 62
     7
100
AcDbLine
 10
1546.982625116703
 20
854.4051865267743
 30
0.0
 11
1546.349022190526
 21
854.8935996018848
 31
0.0
  0
LINE
  5
6D04
330
1E
100
AcDbEntity
  8
躯体と製品
  6
DASHED1
 62
     7
100
AcDbLine
 10
1546.982625116703
 20
854.4051865267743
 30
0.0
 11
1545.151076070296
 21
852.029175534678
 31
0.0
  0
LINE
  5
6D05
330
1E
100
AcDbEntity
  8
躯体と製品
  6
Continuous
 62
     7
100
AcDbLine
 10
1469.36642314354
 20
820.3198184425987
 30
0.0
 11
1644.36642314354
 21
820.3198184425987
 31
0.0
  0
LINE
  5
6D06
330
1E
100
AcDbEntity
  8
躯体と製品
  6
Continuous
 62
     7
100
AcDbLine
 10
2019.36642314354
 20
820.3198184425987
 30
0.0
 11
1844.36642314354
 21
820.3198184425987
 31
0.0
  0
LINE
  5
6D07
330
1E
100
AcDbEntity
  8
躯体と製品
  6
DASHED1
 62
     4
100
AcDbLine
 10
2029.289856286052
 20
845.1061069440223
 30
0.0
 11
2029.384061007289
 21
846.9036401065807
 31
0.0
  0
LINE
  5
6D08
330
1E
100
AcDbEntity
  8
躯体と製品
  6
DASHED1
 62
     4
100
AcDbLine
 10
1849.536540030228
 20
854.5265790677524
 30
0.0
 11
1849.630744751465
 21
856.3241122303109
 31
0.0
  0
LINE
  5
6D09
330
1E
100
AcDbEntity
  8
躯体と製品
  6
DASHED1
 62
     7
100
AcDbLine
 10
2035.754780283835
 20
844.2666084610662
 30
0.0
 11
2064.21572202434
 21
842.7750337081421
 31
0.0
  0
LINE
  5
6D0A
330
1E
100
AcDbEntity
  8
躯体と製品
  6
DASHED1
 62
     7
100
AcDbLine
 10
2059.065566481838
 20
840.0408248850931
 30
0.0
 11
2064.058714155611
 21
839.7791451038782
 31
0.0
  0
LINE
  5
6D0B
330
1E
100
AcDbEntity
  8
躯体と製品
  6
Continuous
 62
     3
100
AcDbLine
 10
2063.927874265004
 20
837.2825712669918
 30
0.0
 11
2065.393281039806
 21
865.2441982401201
 31
0.0
  0
ARC
  5
6D0C
330
1E
100
AcDbEntity
  8
躯体と製品
  6
Continuous
 62
     3
100
AcDbCircle
 10
2074.193498181648
 20
835.9993940194213
 30
0.0
 40
0.5999999999999984
100
AcDbArc
 50
166.9999999999997
 51
346.9999999999997
  0
ARC
  5
6D0D
330
1E
100
AcDbEntity
  8
躯体と製品
  6
Continuous
 62
     3
100
AcDbCircle
 10
2073.704883653304
 20
838.7729246089177
 30
0.0
 40
0.5
100
AcDbArc
 50
346.9999999999997
 51
86.99999999999441
  0
ARC
  5
6D0E
330
1E
100
AcDbEntity
  8
躯体と製品
  6
Continuous
 62
     3
100
AcDbCircle
 10
2075.778637920705
 20
838.8645182221839
 30
0.0
 40
0.2999999999999999
100
AcDbArc
 50
86.99999999999441
 51
166.9999999999997
  0
ARC
  5
6D0F
330
1E
100
AcDbEntity
  8
躯体と製品
  6
Continuous
 62
     3
100
AcDbCircle
 10
2078.460879160154
 20
790.8376584082552
 30
0.0
 40
0.6000000000000015
100
AcDbArc
 50
90.0
 51
270.0
  0
LINE
  5
6D10
330
1E
100
AcDbEntity
  8
躯体と製品
  6
Continuous
 62
     3
100
AcDbLine
 10
2089.62835343811
 20
783.1223457024582
 30
0.0
 11
2089.62835343811
 21
779.4376584082551
 31
0.0
  0
LINE
  5
6D11
330
1E
100
AcDbEntity
  8
躯体と製品
  6
Continuous
 62
     3
100
AcDbLine
 10
2092.62835343811
 20
781.9376584082553
 30
0.0
 11
2092.62835343811
 21
783.4376584082551
 31
0.0
  0
LINE
  5
6D12
330
1E
100
AcDbEntity
  8
躯体と製品
  6
Continuous
 62
     3
100
AcDbLine
 10
2090.12835343811
 20
779.4376584082551
 30
0.0
 11
2089.62835343811
 21
779.4376584082551
 31
0.0
  0
ARC
  5
6D13
330
1E
100
AcDbEntity
  8
躯体と製品
  6
Continuous
 62
     3
100
AcDbCircle
 10
2090.12835343811
 20
781.9376584082553
 30
0.0
 40
2.5
100
AcDbArc
 50
270.0
 51
0.0
  0
LINE
  5
6D14
330
1E
100
AcDbEntity
  8
躯体と製品
  6
Continuous
 62
     3
100
AcDbLine
 10
2082.860879160155
 20
791.4376584082552
 30
0.0
 11
2082.860879160155
 21
792.4376584082552
 31
0.0
  0
LINE
  5
6D15
330
1E
100
AcDbEntity
  8
躯体と製品
  6
Continuous
 62
     3
100
AcDbLine
 10
2082.860879160155
 20
792.4376584082552
 30
0.0
 11
2080.860879160155
 21
791.4376584082552
 31
0.0
  0
LINE
  5
6D16
330
1E
100
AcDbEntity
  8
躯体と製品
  6
Continuous
 62
     3
100
AcDbLine
 10
2078.460879160154
 20
791.4376584082552
 30
0.0
 11
2080.860879160155
 21
791.4376584082552
 31
0.0
  0
ARC
  5
6D17
330
1E
100
AcDbEntity
  8
躯体と製品
  6
Continuous
 62
     3
100
AcDbCircle
 10
2087.243430581887
 20
791.9376584082551
 30
0.0
 40
0.5
100
AcDbArc
 50
270.0
 51
11.99999999999979
  0
LINE
  5
6D18
330
1E
100
AcDbEntity
  8
躯体と製品
  6
Continuous
 62
     3
100
AcDbLine
 10
2087.71105501756
 20
790.2376584082551
 30
0.0
 11
2078.460879160154
 21
790.2376584082551
 31
0.0
  0
LINE
  5
6D19
330
1E
100
AcDbEntity
  8
躯体と製品
  6
Continuous
 62
     3
100
AcDbLine
 10
2088.200128817927
 20
789.8416142536639
 30
0.0
 11
2089.62835343811
 21
783.1223457024582
 31
0.0
  0
ARC
  5
6D1A
330
1E
100
AcDbEntity
  8
躯体と製品
  6
Continuous
 62
     3
100
AcDbCircle
 10
2087.71105501756
 20
789.7376584082551
 30
0.0
 40
0.5
100
AcDbArc
 50
11.99999999999979
 51
90.0
  0
ARC
  5
6D1B
330
1E
100
AcDbEntity
  8
躯体と製品
  6
Continuous
 62
     3
100
AcDbCircle
 10
2064.479524988624
 20
838.2550328236252
 30
0.0
 40
0.5
100
AcDbArc
 50
177.0000000000011
 51
266.9999999999944
  0
LINE
  5
6D1C
330
1E
100
AcDbEntity
  8
躯体と製品
  6
Continuous
 62
     3
100
AcDbLine
 10
2064.95267177788
 20
837.7295500781263
 30
0.0
 11
2064.453357010502
 21
837.7557180562478
 31
0.0
  0
ARC
  5
6D1D
330
1E
100
AcDbEntity
  8
躯体と製品
  6
Continuous
 62
     3
100
AcDbCircle
 10
2064.978839756001
 20
838.2288648455039
 30
0.0
 40
0.5
100
AcDbArc
 50
266.9999999999944
 51
357.0000000000011
  0
ARC
  5
6D1E
330
1E
100
AcDbEntity
  8
躯体と製品
  6
Continuous
 62
     3
100
AcDbCircle
 10
2076.919349183401
 20
838.1037754359047
 30
0.0
 40
1.0
100
AcDbArc
 50
11.99999999999979
 51
86.99999999999441
  0
ARC
  5
6D1F
330
1E
100
AcDbEntity
  8
躯体と製品
  6
Continuous
 62
     3
100
AcDbCircle
 10
2077.737960532654
 20
839.0622461789922
 30
0.0
 40
3.0
100
AcDbArc
 50
11.99999999999979
 51
86.99999999999441
  0
ARC
  5
6D20
330
1E
100
AcDbEntity
  8
躯体と製品
  6
Continuous
 62
     3
100
AcDbCircle
 10
2064.845876682325
 20
845.2454395669073
 30
0.0
 40
0.5
100
AcDbArc
 50
86.99999999999441
 51
177.0000000000011
  0
LINE
  5
6D21
330
1E
100
AcDbEntity
  8
躯体と製品
  6
Continuous
 62
     3
100
AcDbLine
 10
2065.371359427823
 20
845.718586356163
 30
0.0
 11
2064.872044660446
 21
845.7447543342846
 31
0.0
  0
ARC
  5
6D22
330
1E
100
AcDbEntity
  8
躯体と製品
  6
Continuous
 62
     3
100
AcDbCircle
 10
2065.345191449702
 20
845.2192715887857
 30
0.0
 40
0.5
100
AcDbArc
 50
357.0000000000011
 51
86.99999999999441
  0
LINE
  5
6D23
330
1E
100
AcDbEntity
  8
躯体と製品
  6
Continuous
 62
     3
100
AcDbLine
 10
2080.672403334856
 20
839.6859812514453
 30
0.0
 11
2092.62835343811
 21
783.4376584082551
 31
0.0
  0
LINE
  5
6D24
330
1E
100
AcDbEntity
  8
躯体と製品
  6
Continuous
 62
     3
100
AcDbLine
 10
2077.897496784135
 20
838.3116871267223
 30
0.0
 11
2087.732504382254
 21
792.0416142536639
 31
0.0
  0
LINE
  5
6D25
330
1E
100
AcDbEntity
  8
躯体と製品
  6
Continuous
 62
     3
100
AcDbLine
 10
2087.243430581887
 20
791.4376584082552
 30
0.0
 11
2082.860879160155
 21
791.4376584082552
 31
0.0
  0
LINE
  5
6D26
330
1E
100
AcDbEntity
  8
躯体と製品
  6
Continuous
 62
     3
100
AcDbLine
 10
2065.739834304594
 20
843.1958445411552
 30
0.0
 11
2065.84450621708
 21
845.1931036106643
 31
0.0
  0
LINE
  5
6D27
330
1E
100
AcDbEntity
  8
躯体と製品
  6
Continuous
 62
     3
100
AcDbLine
 10
2066.212981093849
 20
842.6703617956563
 30
0.0
 11
2077.894968401383
 21
842.0581347832557
 31
0.0
  0
ARC
  5
6D28
330
1E
100
AcDbEntity
  8
躯体と製品
  6
Continuous
 62
     3
100
AcDbCircle
 10
2066.239149071971
 20
843.1696765630336
 30
0.0
 40
0.5
100
AcDbArc
 50
177.0000000000011
 51
266.9999999999944
  0
LINE
  5
6D29
330
1E
100
AcDbEntity
  8
躯体と製品
  6
Continuous
 62
     3
100
AcDbLine
 10
2065.530490479622
 20
839.2013264021366
 30
0.0
 11
2065.478154523379
 21
838.2026968673821
 31
0.0
  0
ARC
  5
6D2A
330
1E
100
AcDbEntity
  8
躯体と製品
  6
Continuous
 62
     3
100
AcDbCircle
 10
2066.029805246999
 20
839.1751584240152
 30
0.0
 40
0.5
100
AcDbArc
 50
86.99999999999441
 51
177.0000000000011
  0
LINE
  5
6D2B
330
1E
100
AcDbEntity
  8
躯体と製品
  6
Continuous
 62
     3
100
AcDbLine
 10
2075.486326901269
 20
838.9320035384871
 30
0.0
 11
2074.778120220519
 21
835.8644233868149
 31
0.0
  0
LINE
  5
6D2C
330
1E
100
AcDbEntity
  8
躯体と製品
  6
Continuous
 62
     3
100
AcDbLine
 10
2076.971685139644
 20
839.1024049706592
 30
0.0
 11
2075.794338707578
 21
839.1641070826103
 31
0.0
  0
LINE
  5
6D2D
330
1E
100
AcDbEntity
  8
躯体と製品
  6
Continuous
 62
     3
100
AcDbLine
 10
2066.05597322512
 20
839.6744731913926
 30
0.0
 11
2073.731051631426
 21
839.2722393762952
 31
0.0
  0
LINE
  5
6D2E
330
1E
100
AcDbEntity
  8
躯体と製品
  6
Continuous
 62
     3
100
AcDbLine
 10
2074.192068685697
 20
838.6604490817457
 30
0.0
 11
2073.608876142778
 21
836.1343646520277
 31
0.0
  0
ARC
  5
6D2F
330
1E
100
AcDbEntity
  8
躯体と製品
  6
DASHED1
 62
     7
100
AcDbCircle
 10
2035.67627634947
 20
842.7686641589342
 30
0.0
 40
1.5
100
AcDbArc
 50
86.99999999999441
 51
266.9999999999944
  0
LINE
  5
6D30
330
1E
100
AcDbEntity
  8
躯体と製品
  6
DASHED1
 62
     7
100
AcDbLine
 10
2035.597772415107
 20
841.2707198568023
 30
0.0
 11
2039.092975786747
 21
841.0875440099523
 31
0.0
  0
LINE
  5
6D31
330
1E
100
AcDbEntity
  8
躯体と製品
  6
DASHED1
 62
     7
100
AcDbLine
 10
2039.14531174299
 20
842.086173544707
 30
0.0
 11
2039.092975786747
 21
841.0875440099523
 31
0.0
  0
LINE
  5
6D32
330
1E
100
AcDbEntity
  8
躯体と製品
  6
DASHED1
 62
     7
100
AcDbLine
 10
2039.14531174299
 20
842.086173544707
 30
0.0
 11
2059.117902438082
 21
841.0394544198474
 31
0.0
  0
LINE
  5
6D33
330
1E
100
AcDbEntity
  8
躯体と製品
  6
DASHED1
 62
     7
100
AcDbLine
 10
2059.117902438082
 20
841.0394544198474
 30
0.0
 11
2059.065566481838
 21
840.0408248850931
 31
0.0
  0
LINE
  5
6D34
330
1E
100
AcDbEntity
  8
躯体と製品
  6
Continuous
 62
     4
100
AcDbLine
 10
2050.953806639091
 20
866.0009390274764
 30
0.0
 11
2050.439318153018
 21
866.5154275135494
 31
0.0
  0
LINE
  5
6D35
330
1E
100
AcDbEntity
  8
躯体と製品
  6
Continuous
 62
     3
100
AcDbLine
 10
2065.393281039806
 20
865.2441982401201
 30
0.0
 11
1744.36642314354
 21
882.068502952676
 31
0.0
  0
LINE
  5
6D36
330
1E
100
AcDbEntity
  8
躯体と製品
  6
Continuous
 62
     3
100
AcDbLine
 10
2063.927874265004
 20
837.2825712669918
 30
0.0
 11
1744.36642314354
 21
854.030077264734
 31
0.0
  0
LINE
  5
6D37
330
1E
100
AcDbEntity
  8
躯体と製品
  6
DASHED1
 62
     4
100
AcDbLine
 10
2065.314777105442
 20
863.7462539379884
 30
0.0
 11
1744.36642314354
 21
880.5664444336791
 31
0.0
  0
LINE
  5
6D38
330
1E
100
AcDbEntity
  8
躯体と製品
  6
Continuous
 62
     3
100
AcDbLine
 10
2065.157769236713
 20
860.7503653337246
 30
0.0
 11
1744.36642314354
 21
877.5623273956854
 31
0.0
  0
LINE
  5
6D39
330
1E
100
AcDbEntity
  8
躯体と製品
  6
Continuous
 62
     3
100
AcDbLine
 10
2065.079265302349
 20
859.2524210315927
 30
0.0
 11
1744.36642314354
 21
876.0602688766887
 31
0.0
  0
LINE
  5
6D3A
330
1E
100
AcDbEntity
  8
躯体と製品
  6
DASHED1
 62
     4
100
AcDbLine
 10
2064.336094723699
 20
845.0718816380776
 30
0.0
 11
1744.36642314354
 21
861.840781563518
 31
0.0
  0
LINE
  5
6D3B
330
1E
100
AcDbEntity
  8
躯体と製品
  6
DASHED1
 62
     4
100
AcDbLine
 10
2064.241890002461
 20
843.2743484755194
 30
0.0
 11
1744.36642314354
 21
860.0383113407215
 31
0.0
  0
LINE
  5
6D3C
330
1E
100
AcDbEntity
  8
躯体と製品
  6
DASHED1
 62
     4
100
AcDbLine
 10
2064.058714155611
 20
839.7791451038782
 30
0.0
 11
1744.36642314354
 21
856.5335081297288
 31
0.0
  0
LINE
  5
6D3D
330
1E
100
AcDbEntity
  8
躯体と製品
  6
DASHED1
 62
     4
100
AcDbLine
 10
2063.980210221247
 20
838.2812008017467
 30
0.0
 11
1744.36642314354
 21
855.031449610732
 31
0.0
  0
ARC
  5
6D3E
330
1E
100
AcDbEntity
  8
躯体と製品
  6
Continuous
 62
     7
100
AcDbCircle
 10
2071.265080981453
 20
823.8376584082553
 30
0.0
 40
2.1
100
AcDbArc
 50
90.0
 51
175.0000000000005
  0
LINE
  5
6D3F
330
1E
100
AcDbEntity
  8
躯体と製品
  6
Continuous
 62
     7
100
AcDbLine
 10
2071.265080981453
 20
825.9376584082552
 30
0.0
 11
2071.860879160154
 21
825.9376584082552
 31
0.0
  0
ARC
  5
6D40
330
1E
100
AcDbEntity
  8
躯体と製品
  6
Continuous
 62
     7
100
AcDbCircle
 10
2071.265080981453
 20
823.8376584082553
 30
0.0
 40
1.1
100
AcDbArc
 50
90.0
 51
175.0000000000005
  0
LINE
  5
6D41
330
1E
100
AcDbEntity
  8
躯体と製品
  6
Continuous
 62
     7
100
AcDbLine
 10
2071.265080981453
 20
824.9376584082551
 30
0.0
 11
2071.860879160154
 21
824.9376584082551
 31
0.0
  0
LINE
  5
6D42
330
1E
100
AcDbEntity
  8
躯体と製品
  6
Continuous
 62
     7
100
AcDbLine
 10
2071.860879160154
 20
828.4376584082552
 30
0.0
 11
2071.860879160154
 21
825.9376584082552
 31
0.0
  0
LINE
  5
6D43
330
1E
100
AcDbEntity
  8
躯体と製品
  6
Continuous
 62
     7
100
AcDbLine
 10
2073.360879160155
 20
824.4376584082553
 30
0.0
 11
2075.011964160154
 21
824.9610314082552
 31
0.0
  0
LINE
  5
6D44
330
1E
100
AcDbEntity
  8
躯体と製品
  6
Continuous
 62
     7
100
AcDbLine
 10
2073.360879160155
 20
824.4376584082553
 30
0.0
 11
2073.360879160155
 21
822.4376584082552
 31
0.0
  0
LINE
  5
6D45
330
1E
100
AcDbEntity
  8
躯体と製品
  6
Continuous
 62
     7
100
AcDbLine
 10
2073.360879160155
 20
826.4376584082553
 30
0.0
 11
2073.360879160155
 21
828.4376584082552
 31
0.0
  0
ARC
  5
6D46
330
1E
100
AcDbEntity
  8
躯体と製品
  6
Continuous
 62
     7
100
AcDbCircle
 10
2072.860879160154
 20
828.4376584082552
 30
0.0
 40
0.5
100
AcDbArc
 50
0.0
 51
90.0
  0
LINE
  5
6D47
330
1E
100
AcDbEntity
  8
躯体と製品
  6
Continuous
 62
     7
100
AcDbLine
 10
2072.360879160155
 20
828.9376584082551
 30
0.0
 11
2072.860879160154
 21
828.9376584082551
 31
0.0
  0
LINE
  5
6D48
330
1E
100
AcDbEntity
  8
躯体と製品
  6
Continuous
 62
     7
100
AcDbLine
 10
2072.360879160155
 20
821.9376584082551
 30
0.0
 11
2072.860879160154
 21
821.9376584082551
 31
0.0
  0
ARC
  5
6D49
330
1E
100
AcDbEntity
  8
躯体と製品
  6
Continuous
 62
     7
100
AcDbCircle
 10
2072.860879160154
 20
822.4376584082552
 30
0.0
 40
0.5
100
AcDbArc
 50
270.0
 51
0.0
  0
ARC
  5
6D4A
330
1E
100
AcDbEntity
  8
躯体と製品
  6
Continuous
 62
     7
100
AcDbCircle
 10
2072.360879160155
 20
822.4376584082552
 30
0.0
 40
0.5
100
AcDbArc
 50
180.0
 51
270.0
  0
ARC
  5
6D4B
330
1E
100
AcDbEntity
  8
躯体と製品
  6
Continuous
 62
     7
100
AcDbCircle
 10
2072.360879160155
 20
828.4376584082552
 30
0.0
 40
0.5
100
AcDbArc
 50
90.0
 51
180.0
  0
LINE
  5
6D4C
330
1E
100
AcDbEntity
  8
躯体と製品
  6
Continuous
 62
     7
100
AcDbLine
 10
2071.860879160154
 20
822.4376584082552
 30
0.0
 11
2071.860879160154
 21
824.9376584082551
 31
0.0
  0
ARC
  5
6D4D
330
1E
100
AcDbEntity
  8
躯体と製品
  6
Continuous
 62
     7
100
AcDbCircle
 10
2074.860879160154
 20
825.4376584082551
 30
0.0
 40
0.5
100
AcDbArc
 50
287.587954000005
 51
72.41204599999497
  0
LINE
  5
6D4E
330
1E
100
AcDbEntity
  8
躯体と製品
  6
Continuous
 62
     7
100
AcDbLine
 10
2073.360879160155
 20
826.4376584082553
 30
0.0
 11
2075.011964160154
 21
825.9142854082551
 31
0.0
  0
ARC
  5
6D4F
330
1E
100
AcDbEntity
  8
躯体と製品
  6
Continuous
 62
     3
100
AcDbCircle
 10
2071.260879160154
 20
823.8376584082553
 30
0.0
 40
0.5999999999999997
100
AcDbArc
 50
0.0
 51
180.0
  0
ARC
  5
6D50
330
1E
100
AcDbEntity
  8
躯体と製品
  6
Continuous
 62
     3
100
AcDbCircle
 10
2071.260879160154
 20
828.0376584082551
 30
0.0
 40
0.5999999999999997
100
AcDbArc
 50
180.0
 51
0.0
  0
LINE
  5
6D51
330
1E
100
AcDbEntity
  8
躯体と製品
  6
Continuous
 62
     3
100
AcDbLine
 10
2070.660879160154
 20
823.8376584082553
 30
0.0
 11
2070.660879160154
 21
821.7376584082551
 31
0.0
  0
LINE
  5
6D52
330
1E
100
AcDbEntity
  8
躯体と製品
  6
Continuous
 62
     3
100
AcDbLine
 10
2071.860879160154
 20
823.8376584082553
 30
0.0
 11
2071.860879160154
 21
822.2376584082551
 31
0.0
  0
ARC
  5
6D53
330
1E
100
AcDbEntity
  8
躯体と製品
  6
Continuous
 62
     3
100
AcDbCircle
 10
2072.160879160154
 20
822.2376584082551
 30
0.0
 40
0.2999999999999998
100
AcDbArc
 50
180.0
 51
270.0
  0
LINE
  5
6D54
330
1E
100
AcDbEntity
  8
躯体と製品
  6
Continuous
 62
     3
100
AcDbLine
 10
2071.860879160154
 20
828.0376584082551
 30
0.0
 11
2071.860879160154
 21
829.6376584082551
 31
0.0
  0
ARC
  5
6D55
330
1E
100
AcDbEntity
  8
躯体と製品
  6
Continuous
 62
     3
100
AcDbCircle
 10
2072.160879160154
 20
829.6376584082551
 30
0.0
 40
0.2999999999999998
100
AcDbArc
 50
90.0
 51
180.0
  0
LINE
  5
6D56
330
1E
100
AcDbEntity
  8
躯体と製品
  6
Continuous
 62
     3
100
AcDbLine
 10
2070.660879160154
 20
828.0376584082551
 30
0.0
 11
2070.660879160154
 21
830.1376584082552
 31
0.0
  0
LINE
  5
6D57
330
1E
100
AcDbEntity
  8
躯体と製品
  6
Continuous
 62
     3
100
AcDbLine
 10
2082.860879160155
 20
791.9376584082551
 30
0.0
 11
2084.482147160155
 21
792.3429754082551
 31
0.0
  0
ARC
  5
6D58
330
1E
100
AcDbEntity
  8
躯体と製品
  6
Continuous
 62
     3
100
AcDbCircle
 10
2084.360879160154
 20
792.8280464082553
 30
0.0
 40
0.5
100
AcDbArc
 50
284.0362430000043
 51
0.0
  0
LINE
  5
6D59
330
1E
100
AcDbEntity
  8
躯体と製品
  6
Continuous
 62
     3
100
AcDbLine
 10
2082.860879160155
 20
792.4376584082552
 30
0.0
 11
2082.860879160155
 21
791.9376584082551
 31
0.0
  0
LINE
  5
6D5A
330
1E
100
AcDbEntity
  8
躯体と製品
  6
Continuous
 62
     3
100
AcDbLine
 10
2084.860879160155
 20
793.1376584082552
 30
0.0
 11
2084.860879160155
 21
792.8280464082553
 31
0.0
  0
LINE
  5
6D5B
330
1E
100
AcDbEntity
  8
躯体と製品
  6
Continuous
 62
     3
100
AcDbLine
 10
2077.860879160155
 20
792.4376584082552
 30
0.0
 11
2082.860879160155
 21
792.4376584082552
 31
0.0
  0
ARC
  5
6D5C
330
1E
100
AcDbEntity
  8
躯体と製品
  6
Continuous
 62
     3
100
AcDbCircle
 10
2084.560879160155
 20
793.1376584082552
 30
0.0
 40
0.2999999999999998
100
AcDbArc
 50
0.0
 51
90.0
  0
ARC
  5
6D5D
330
1E
100
AcDbEntity
  8
躯体と製品
  6
Continuous
 62
     3
100
AcDbCircle
 10
2077.860879160155
 20
791.9376584082551
 30
0.0
 40
0.5
100
AcDbArc
 50
90.0
 51
180.0
  0
LINE
  5
6D5E
330
1E
100
AcDbEntity
  8
躯体と製品
  6
Continuous
 62
     3
100
AcDbLine
 10
2077.360879160154
 20
791.9376584082551
 30
0.0
 11
2077.360879160154
 21
783.1376584082552
 31
0.0
  0
LINE
  5
6D5F
330
1E
100
AcDbEntity
  8
躯体と製品
  6
Continuous
 62
     3
100
AcDbLine
 10
2077.860879160155
 20
793.4376584082553
 30
0.0
 11
2084.560879160155
 21
793.4376584082553
 31
0.0
  0
ARC
  5
6D60
330
1E
100
AcDbEntity
  8
躯体と製品
  6
Continuous
 62
     3
100
AcDbCircle
 10
2077.860879160155
 20
793.9376584082552
 30
0.0
 40
0.5
100
AcDbArc
 50
180.0
 51
270.0
  0
LINE
  5
6D61
330
1E
100
AcDbEntity
  8
躯体と製品
  6
Continuous
 62
     3
100
AcDbLine
 10
2082.260879160155
 20
780.9376584082553
 30
0.0
 11
2078.360879160155
 21
780.9376584082553
 31
0.0
  0
ARC
  5
6D62
330
1E
100
AcDbEntity
  8
躯体と製品
  6
Continuous
 62
     3
100
AcDbCircle
 10
2078.360879160155
 20
783.4376584082551
 30
0.0
 40
2.5
100
AcDbArc
 50
180.0
 51
270.0
  0
LINE
  5
6D63
330
1E
100
AcDbEntity
  8
躯体と製品
  6
Continuous
 62
     3
100
AcDbLine
 10
2077.360879160154
 20
838.1876584082553
 30
0.0
 11
2077.360879160154
 21
793.9376584082552
 31
0.0
  0
LINE
  5
6D64
330
1E
100
AcDbEntity
  8
躯体と製品
  6
Continuous
 62
     3
100
AcDbLine
 10
2072.160879160154
 20
829.9376584082551
 30
0.0
 11
2075.560879160155
 21
829.9376584082551
 31
0.0
  0
LINE
  5
6D65
330
1E
100
AcDbEntity
  8
躯体と製品
  6
Continuous
 62
     3
100
AcDbLine
 10
2072.160879160154
 20
821.9376584082551
 30
0.0
 11
2075.560879160155
 21
821.9376584082551
 31
0.0
  0
ARC
  5
6D66
330
1E
100
AcDbEntity
  8
躯体と製品
  6
Continuous
 62
     3
100
AcDbCircle
 10
2075.560879160155
 20
822.2376584082551
 30
0.0
 40
0.2999999999999998
100
AcDbArc
 50
270.0
 51
0.0
  0
LINE
  5
6D67
330
1E
100
AcDbEntity
  8
躯体と製品
  6
Continuous
 62
     3
100
AcDbLine
 10
2075.860879160154
 20
829.6376584082551
 30
0.0
 11
2075.860879160154
 21
822.2376584082551
 31
0.0
  0
ARC
  5
6D68
330
1E
100
AcDbEntity
  8
躯体と製品
  6
Continuous
 62
     3
100
AcDbCircle
 10
2075.560879160155
 20
829.6376584082551
 30
0.0
 40
0.2999999999999998
100
AcDbArc
 50
0.0
 51
90.0
  0
LINE
  5
6D69
330
1E
100
AcDbEntity
  8
躯体と製品
  6
Continuous
 62
     3
100
AcDbLine
 10
2075.360879160154
 20
820.7376584082551
 30
0.0
 11
2071.660879160154
 21
820.7376584082551
 31
0.0
  0
ARC
  5
6D6A
330
1E
100
AcDbEntity
  8
躯体と製品
  6
Continuous
 62
     3
100
AcDbCircle
 10
2071.660879160154
 20
821.7376584082551
 30
0.0
 40
1.0
100
AcDbArc
 50
180.0
 51
270.0
  0
ARC
  5
6D6B
330
1E
100
AcDbEntity
  8
躯体と製品
  6
Continuous
 62
     3
100
AcDbCircle
 10
2075.360879160154
 20
820.2376584082552
 30
0.0
 40
0.5
100
AcDbArc
 50
0.0
 51
90.0
  0
LINE
  5
6D6C
330
1E
100
AcDbEntity
  8
躯体と製品
  6
Continuous
 62
     3
100
AcDbLine
 10
2075.360879160154
 20
831.1376584082552
 30
0.0
 11
2071.660879160154
 21
831.1376584082552
 31
0.0
  0
ARC
  5
6D6D
330
1E
100
AcDbEntity
  8
躯体と製品
  6
Continuous
 62
     3
100
AcDbCircle
 10
2071.660879160154
 20
830.1376584082552
 30
0.0
 40
1.0
100
AcDbArc
 50
90.0
 51
180.0
  0
ARC
  5
6D6E
330
1E
100
AcDbEntity
  8
躯体と製品
  6
Continuous
 62
     3
100
AcDbCircle
 10
2075.360879160154
 20
831.6376584082552
 30
0.0
 40
0.5
100
AcDbArc
 50
270.0
 51
0.0
  0
LINE
  5
6D6F
330
1E
100
AcDbEntity
  8
躯体と製品
  6
Continuous
 62
     3
100
AcDbLine
 10
2075.860879160154
 20
831.6376584082552
 30
0.0
 11
2075.860879160154
 21
838.1876584082553
 31
0.0
  0
ARC
  5
6D70
330
1E
100
AcDbEntity
  8
躯体と製品
  6
Continuous
 62
     3
100
AcDbCircle
 10
2076.610879160154
 20
838.1876584082553
 30
0.0
 40
0.75
100
AcDbArc
 50
0.0
 51
180.0
  0
LINE
  5
6D71
330
1E
100
AcDbEntity
  8
躯体と製品
  6
Continuous
 62
     3
100
AcDbLine
 10
2075.860879160154
 20
820.2376584082552
 30
0.0
 11
2075.860879160154
 21
783.4376584082551
 31
0.0
  0
ARC
  5
6D72
330
1E
100
AcDbEntity
  8
躯体と製品
  6
Continuous
 62
     3
100
AcDbCircle
 10
2082.260879160155
 20
781.5376584082551
 30
0.0
 40
0.5999999999999997
100
AcDbArc
 50
270.0
 51
90.0
  0
LINE
  5
6D73
330
1E
100
AcDbEntity
  8
躯体と製品
  6
Continuous
 62
     3
100
AcDbLine
 10
2082.260879160155
 20
782.1376584082551
 30
0.0
 11
2078.360879160155
 21
782.1376584082551
 31
0.0
  0
ARC
  5
6D74
330
1E
100
AcDbEntity
  8
躯体と製品
  6
Continuous
 62
     3
100
AcDbCircle
 10
2078.360879160155
 20
783.1376584082552
 30
0.0
 40
1.0
100
AcDbArc
 50
180.0
 51
270.0
  0
ARC
  5
6D75
330
1E
100
AcDbEntity
  8
躯体と製品
  6
DASHED1
 62
     7
100
AcDbCircle
 10
2070.529602777811
 20
860.1745421148105
 30
0.0
 40
3.0
100
AcDbArc
 50
10.12467165539644
 51
86.99999999999441
  0
ARC
  5
6D76
330
1E
100
AcDbEntity
  8
躯体と製品
  6
DASHED1
 62
     7
100
AcDbCircle
 10
2070.529602777811
 20
860.1745421148105
 30
0.0
 40
7.5
100
AcDbArc
 50
10.12467165539644
 51
86.99999999999441
  0
LINE
  5
6D77
330
1E
100
AcDbEntity
  8
躯体と製品
  6
DASHED1
 62
     7
100
AcDbLine
 10
2073.482885504336
 20
860.7019140302613
 30
0.0
 11
2087.436499053752
 21
782.5616781535349
 31
0.0
  0
LINE
  5
6D78
330
1E
100
AcDbEntity
  8
躯体と製品
  6
DASHED1
 62
     7
100
AcDbLine
 10
2091.866423143541
 20
783.3527360267114
 30
0.0
 11
2087.436499053815
 21
782.5616781531792
 31
0.0
  0
LINE
  5
6D79
330
1E
100
AcDbEntity
  8
躯体と製品
  6
DASHED1
 62
     7
100
AcDbLine
 10
2077.912809594124
 20
861.4929719034378
 30
0.0
 11
2091.866423143541
 21
783.3527360267114
 31
0.0
  0
LINE
  5
6D7A
330
1E
100
AcDbEntity
  8
躯体と製品
  6
DASHED1
 62
     7
100
AcDbLine
 10
2070.922122449633
 20
867.6642636254698
 30
0.0
 11
2065.534907683543
 21
867.9465955878811
 31
0.0
  0
LINE
  5
6D7B
330
1E
100
AcDbEntity
  8
躯体と製品
  6
DASHED1
 62
     7
100
AcDbLine
 10
2070.68661064654
 20
863.1704307190739
 30
0.0
 11
2065.29939588045
 21
863.4527626814856
 31
0.0
  0
LINE
  5
6D7C
330
1E
100
AcDbEntity
  8
躯体と製品
  6
Continuous
 62
     7
100
AcDbLine
 10
2050.413838018487
 20
866.0292375837643
 30
0.0
 11
2050.555464662224
 21
868.7316349315256
 31
0.0
  0
LINE
  5
6D7D
330
1E
100
AcDbEntity
  8
躯体と製品
  6
Continuous
 62
     7
100
AcDbLine
 10
2065.393281039806
 20
865.2441982401201
 30
0.0
 11
2065.534907683543
 21
867.9465955878811
 31
0.0
  0
LINE
  5
6D7E
330
1E
100
AcDbEntity
  8
躯体と製品
  6
Continuous
 62
     4
100
AcDbLine
 10
2065.416158330944
 20
865.6807229593526
 30
0.0
 11
2063.018401185291
 21
868.0784801050061
 31
0.0
  0
LINE
  5
6D7F
330
1E
100
AcDbEntity
  8
躯体と製品
  6
Continuous
 62
     4
100
AcDbLine
 10
2064.385662434325
 20
865.297005293598
 30
0.0
 11
2061.525972763598
 21
868.1566949643263
 31
0.0
  0
LINE
  5
6D80
330
1E
100
AcDbEntity
  8
躯体と製品
  6
Continuous
 62
     4
100
AcDbLine
 10
2062.893234012634
 20
865.3752201529179
 30
0.0
 11
2060.033544341906
 21
868.2349098236457
 31
0.0
  0
LINE
  5
6D81
330
1E
100
AcDbEntity
  8
躯体と製品
  6
Continuous
 62
     4
100
AcDbLine
 10
2061.400805590941
 20
865.4534350122373
 30
0.0
 11
2058.541115920213
 21
868.3131246829654
 31
0.0
  0
LINE
  5
6D82
330
1E
100
AcDbEntity
  8
躯体と製品
  6
Continuous
 62
     4
100
AcDbLine
 10
2059.908377169248
 20
865.5316498715574
 30
0.0
 11
2057.04868749852
 21
868.3913395422854
 31
0.0
  0
LINE
  5
6D83
330
1E
100
AcDbEntity
  8
躯体と製品
  6
Continuous
 62
     4
100
AcDbLine
 10
2058.415948747555
 20
865.6098647308771
 30
0.0
 11
2055.556259076826
 21
868.4695544016053
 31
0.0
  0
LINE
  5
6D84
330
1E
100
AcDbEntity
  8
躯体と製品
  6
Continuous
 62
     4
100
AcDbLine
 10
2056.923520325862
 20
865.6880795901967
 30
0.0
 11
2054.063830655134
 21
868.5477692609252
 31
0.0
  0
LINE
  5
6D85
330
1E
100
AcDbEntity
  8
躯体と製品
  6
Continuous
 62
     4
100
AcDbLine
 10
2055.431091904169
 20
865.7662944495166
 30
0.0
 11
2052.571402233441
 21
868.6259841202449
 31
0.0
  0
LINE
  5
6D86
330
1E
100
AcDbEntity
  8
躯体と製品
  6
Continuous
 62
     4
100
AcDbLine
 10
2053.938663482476
 20
865.8445093088367
 30
0.0
 11
2051.078973811748
 21
868.7041989795647
 31
0.0
  0
LINE
  5
6D87
330
1E
100
AcDbEntity
  8
躯体と製品
  6
Continuous
 62
     4
100
AcDbLine
 10
2052.446235060782
 20
865.9227241681566
 30
0.0
 11
2050.509743128673
 21
867.8592161002654
 31
0.0
  0
LINE
  5
6D88
330
1E
100
AcDbEntity
  8
躯体と製品
  6
Continuous
 62
     4
100
AcDbLine
 10
2065.4865833066
 20
867.0245115460707
 30
0.0
 11
2064.510829606984
 21
868.0002652456863
 31
0.0
  0
LINE
  5
6D89
330
1E
100
AcDbEntity
  8
躯体と製品
  6
Continuous
 62
     7
100
AcDbLine
 10
2069.173072115459
 20
824.0206854680252
 30
0.0
 11
2067.129869147727
 21
800.6667686816854
 31
0.0
  0
ARC
  5
6D8A
330
1E
100
AcDbEntity
  8
躯体と製品
  6
Continuous
 62
     7
100
AcDbCircle
 10
2045.053669137265
 20
802.5981859163312
 30
0.0
 40
22.16052750807614
100
AcDbArc
 50
184.9999999999994
 51
355.0000000000006
  0
LINE
  5
6D8B
330
1E
100
AcDbEntity
  8
躯体と製品
  6
Continuous
 62
     7
100
AcDbLine
 10
2070.169266813551
 20
823.9335297252777
 30
0.0
 11
2068.126063845819
 21
800.5796129389374
 31
0.0
  0
ARC
  5
6D8C
330
1E
100
AcDbEntity
  8
躯体と製品
  6
Continuous
 62
     3
100
AcDbCircle
 10
1397.36642314354
 20
780.9376584082553
 30
0.0
 40
1.5
100
AcDbArc
 50
180.0
 51
270.0
  0
ARC
  5
6D8D
330
1E
100
AcDbEntity
  8
躯体と製品
  6
Continuous
 62
     3
100
AcDbCircle
 10
1397.36642314354
 20
865.0907647081108
 30
0.0
 40
1.5
100
AcDbArc
 50
93.00000000000558
 51
180.0
  0
LINE
  5
6D8E
330
1E
100
AcDbEntity
  8
躯体と製品
  6
Continuous
 62
     3
100
AcDbLine
 10
1395.86642314354
 20
780.9376584082553
 30
0.0
 11
1395.86642314354
 21
865.0907647081108
 31
0.0
  0
ARC
  5
6D8F
330
1E
100
AcDbEntity
  8
躯体と製品
  6
Continuous
 62
     3
100
AcDbCircle
 10
2091.36642314354
 20
865.0907647081108
 30
0.0
 40
1.5
100
AcDbArc
 50
0.0
 51
86.99999999999441
  0
LINE
  5
6D90
330
1E
100
AcDbEntity
  8
躯体と製品
  6
Continuous
 62
     3
100
AcDbLine
 10
2091.444927077905
 20
866.5887090102424
 30
0.0
 11
1744.392591121662
 21
884.7769512327014
 31
0.0
  0
ARC
  5
6D91
330
1E
100
AcDbEntity
  8
躯体と製品
  6
Continuous
 62
     3
100
AcDbCircle
 10
2091.36642314354
 20
780.9376584082553
 30
0.0
 40
1.5
100
AcDbArc
 50
270.0
 51
0.0
  0
LINE
  5
6D92
330
1E
100
AcDbEntity
  8
躯体と製品
  6
Continuous
 62
     3
100
AcDbLine
 10
2092.86642314354
 20
780.9376584082553
 30
0.0
 11
2092.86642314354
 21
865.0907647081108
 31
0.0
  0
LINE
  5
6D93
330
1E
100
AcDbEntity
  8
躯体と製品
  6
Continuous
 62
     3
100
AcDbLine
 10
2091.36642314354
 20
777.9376584082552
 30
0.0
 11
2084.36642314354
 21
777.9376584082552
 31
0.0
  0
ARC
  5
6D94
330
1E
100
AcDbEntity
  8
躯体と製品
  6
Continuous
 62
     3
100
AcDbCircle
 10
2091.36642314354
 20
865.0907647081108
 30
0.0
 40
3.0
100
AcDbArc
 50
0.0
 51
86.99999999999441
  0
ARC
  5
6D95
330
1E
100
AcDbEntity
  8
躯体と製品
  6
Continuous
 62
     3
100
AcDbCircle
 10
2091.36642314354
 20
780.9376584082553
 30
0.0
 40
3.0
100
AcDbArc
 50
270.0
 51
0.0
  0
POINT
  5
6D96
330
1E
100
AcDbEntity
  8
躯体と製品
 62
     4
100
AcDbPoint
 10
2094.366423143541
 20
867.9376584082552
 30
0.0
  0
LINE
  5
6D97
330
1E
100
AcDbEntity
  8
躯体と製品
  6
Continuous
 62
     3
100
AcDbLine
 10
2094.366423143541
 20
865.0907647081108
 30
0.0
 11
2094.366423143541
 21
780.9376584082553
 31
0.0
  0
LINE
  5
6D98
330
1E
100
AcDbEntity
  8
躯体と製品
  6
Continuous
 62
     3
100
AcDbLine
 10
2091.523431012269
 20
868.0866533123742
 30
0.0
 11
1744.36642314354
 21
886.2803811573193
 31
0.0
  0
ARC
  5
6D99
330
1E
100
AcDbEntity
  8
躯体と製品
  6
Continuous
 62
     3
100
AcDbCircle
 10
1397.36642314354
 20
865.0907647081108
 30
0.0
 40
3.0
100
AcDbArc
 50
93.00000000000558
 51
180.0
  0
ARC
  5
6D9A
330
1E
100
AcDbEntity
  8
躯体と製品
  6
Continuous
 62
     3
100
AcDbCircle
 10
1397.36642314354
 20
780.9376584082553
 30
0.0
 40
3.0
100
AcDbArc
 50
180.0
 51
270.0
  0
POINT
  5
6D9B
330
1E
100
AcDbEntity
  8
躯体と製品
 62
     4
100
AcDbPoint
 10
1394.36642314354
 20
867.9376584082552
 30
0.0
  0
LINE
  5
6D9C
330
1E
100
AcDbEntity
  8
躯体と製品
  6
Continuous
 62
     3
100
AcDbLine
 10
1394.36642314354
 20
865.0907647081108
 30
0.0
 11
1394.36642314354
 21
780.9376584082553
 31
0.0
  0
LINE
  5
6D9D
330
1E
100
AcDbEntity
  8
躯体と製品
  6
Continuous
 62
     3
100
AcDbLine
 10
1397.209415274811
 20
868.0866533123742
 30
0.0
 11
1744.36642314354
 21
886.2803811573193
 31
0.0
  0
LINE
  5
6D9E
330
1E
100
AcDbEntity
  8
躯体と製品
  6
Continuous
 62
     3
100
AcDbLine
 10
1397.287919209175
 20
866.5887090102424
 30
0.0
 11
1744.340255165418
 21
884.7769512327014
 31
0.0
  0
LINE
  5
6D9F
330
1E
100
AcDbEntity
  8
躯体と製品
  6
Continuous
 62
     3
100
AcDbLine
 10
1404.36642314354
 20
777.9376584082552
 30
0.0
 11
1404.36642314354
 21
779.4376584082551
 31
0.0
  0
LINE
  5
6DA0
330
1E
100
AcDbEntity
  8
躯体と製品
  6
Continuous
 62
     3
100
AcDbLine
 10
1397.36642314354
 20
779.4376584082551
 30
0.0
 11
1404.36642314354
 21
779.4376584082551
 31
0.0
  0
LINE
  5
6DA1
330
1E
100
AcDbEntity
  8
躯体と製品
  6
Continuous
 62
     3
100
AcDbLine
 10
2084.36642314354
 20
777.9376584082552
 30
0.0
 11
2084.36642314354
 21
779.4376584082551
 31
0.0
  0
LINE
  5
6DA2
330
1E
100
AcDbEntity
  8
躯体と製品
  6
Continuous
 62
     3
100
AcDbLine
 10
2091.36642314354
 20
779.4376584082551
 30
0.0
 11
2084.36642314354
 21
779.4376584082551
 31
0.0
  0
ARC
  5
6DA3
330
1E
100
AcDbEntity
  8
躯体と製品
  6
Continuous
 62
     7
100
AcDbCircle
 10
1443.679177149815
 20
802.5981859163312
 30
0.0
 40
23.16052750807612
100
AcDbArc
 50
184.9999999999994
 51
355.0000000000006
  0
LINE
  5
6DA4
330
1E
100
AcDbEntity
  8
躯体と製品
  6
Continuous
 62
     7
100
AcDbLine
 10
1418.563579473529
 20
823.9335297252777
 30
0.0
 11
1420.606782441262
 21
800.5796129389374
 31
0.0
  0
ARC
  5
6DA5
330
1E
100
AcDbEntity
  8
躯体と製品
  6
Continuous
 62
     7
100
AcDbCircle
 10
1443.679177149815
 20
802.5981859163312
 30
0.0
 40
22.16052750807614
100
AcDbArc
 50
184.9999999999994
 51
355.0000000000006
  0
LINE
  5
6DA6
330
1E
100
AcDbEntity
  8
躯体と製品
  6
Continuous
 62
     7
100
AcDbLine
 10
1419.559774171621
 20
824.0206854680252
 30
0.0
 11
1421.602977139353
 21
800.6667686816854
 31
0.0
  0
LINE
  5
6DA7
330
1E
100
AcDbEntity
  8
躯体と製品
  6
Continuous
 62
     7
100
AcDbLine
 10
1467.402593521256
 20
819.4945378416335
 30
0.0
 11
1465.755377160277
 21
800.6667686816852
 31
0.0
  0
LINE
  5
6DA8
330
1E
100
AcDbEntity
  8
躯体と製品
  6
Continuous
 62
     7
100
AcDbLine
 10
1468.398788219347
 20
819.4073820988856
 30
0.0
 11
1466.751571858369
 21
800.5796129389374
 31
0.0
  0
LINE
  5
6DA9
330
1E
100
AcDbEntity
  8
躯体と製品
  6
DASHED1
 62
     7
100
AcDbLine
 10
1418.04623564054
 20
863.1704307190739
 30
0.0
 11
1423.433450406631
 21
863.4527626814856
 31
0.0
  0
LINE
  5
6DAA
330
1E
100
AcDbEntity
  8
躯体と製品
  6
DASHED1
 62
     7
100
AcDbLine
 10
1417.810723837447
 20
867.6642636254698
 30
0.0
 11
1423.197938603537
 21
867.9465955878811
 31
0.0
  0
LINE
  5
6DAB
330
1E
100
AcDbEntity
  8
躯体と製品
  6
DASHED1
 62
     7
100
AcDbLine
 10
1410.820036692955
 20
861.4929719034378
 30
0.0
 11
1396.86642314354
 21
783.3527360267114
 31
0.0
  0
LINE
  5
6DAC
330
1E
100
AcDbEntity
  8
躯体と製品
  6
DASHED1
 62
     7
100
AcDbLine
 10
1396.86642314354
 20
783.3527360267114
 30
0.0
 11
1401.296347233265
 21
782.5616781531792
 31
0.0
  0
LINE
  5
6DAD
330
1E
100
AcDbEntity
  8
躯体と製品
  6
DASHED1
 62
     7
100
AcDbLine
 10
1415.249960782744
 20
860.7019140302613
 30
0.0
 11
1401.296347233328
 21
782.5616781535349
 31
0.0
  0
ARC
  5
6DAE
330
1E
100
AcDbEntity
  8
躯体と製品
  6
DASHED1
 62
     7
100
AcDbCircle
 10
1418.203243509269
 20
860.1745421148105
 30
0.0
 40
7.5
100
AcDbArc
 50
93.00000000000558
 51
169.8753283446035
  0
ARC
  5
6DAF
330
1E
100
AcDbEntity
  8
躯体と製品
  6
DASHED1
 62
     7
100
AcDbCircle
 10
1418.203243509269
 20
860.1745421148105
 30
0.0
 40
3.0
100
AcDbArc
 50
93.00000000000558
 51
169.8753283446035
  0
ARC
  5
6DB0
330
1E
100
AcDbEntity
  8
躯体と製品
  6
Continuous
 62
     3
100
AcDbCircle
 10
1410.371967126926
 20
783.1376584082552
 30
0.0
 40
1.0
100
AcDbArc
 50
270.0
 51
0.0
  0
LINE
  5
6DB1
330
1E
100
AcDbEntity
  8
躯体と製品
  6
Continuous
 62
     3
100
AcDbLine
 10
1406.471967126926
 20
782.1376584082551
 30
0.0
 11
1410.371967126926
 21
782.1376584082551
 31
0.0
  0
ARC
  5
6DB2
330
1E
100
AcDbEntity
  8
躯体と製品
  6
Continuous
 62
     3
100
AcDbCircle
 10
1406.471967126926
 20
781.5376584082551
 30
0.0
 40
0.5999999999999997
100
AcDbArc
 50
90.0
 51
270.0
  0
LINE
  5
6DB3
330
1E
100
AcDbEntity
  8
躯体と製品
  6
Continuous
 62
     3
100
AcDbLine
 10
1412.871967126926
 20
820.2376584082552
 30
0.0
 11
1412.871967126926
 21
783.4376584082551
 31
0.0
  0
ARC
  5
6DB4
330
1E
100
AcDbEntity
  8
躯体と製品
  6
Continuous
 62
     3
100
AcDbCircle
 10
1412.121967126926
 20
838.1876584082553
 30
0.0
 40
0.7499999999999999
100
AcDbArc
 50
0.0
 51
180.0
  0
LINE
  5
6DB5
330
1E
100
AcDbEntity
  8
躯体と製品
  6
Continuous
 62
     3
100
AcDbLine
 10
1412.871967126926
 20
831.6376584082552
 30
0.0
 11
1412.871967126926
 21
838.1876584082553
 31
0.0
  0
ARC
  5
6DB6
330
1E
100
AcDbEntity
  8
躯体と製品
  6
Continuous
 62
     3
100
AcDbCircle
 10
1413.371967126926
 20
831.6376584082552
 30
0.0
 40
0.5
100
AcDbArc
 50
180.0
 51
270.0
  0
ARC
  5
6DB7
330
1E
100
AcDbEntity
  8
躯体と製品
  6
Continuous
 62
     3
100
AcDbCircle
 10
1417.071967126926
 20
830.1376584082552
 30
0.0
 40
1.0
100
AcDbArc
 50
0.0
 51
90.0
  0
LINE
  5
6DB8
330
1E
100
AcDbEntity
  8
躯体と製品
  6
Continuous
 62
     3
100
AcDbLine
 10
1413.371967126926
 20
831.1376584082552
 30
0.0
 11
1417.071967126926
 21
831.1376584082552
 31
0.0
  0
ARC
  5
6DB9
330
1E
100
AcDbEntity
  8
躯体と製品
  6
Continuous
 62
     3
100
AcDbCircle
 10
1413.371967126926
 20
820.2376584082552
 30
0.0
 40
0.5
100
AcDbArc
 50
90.0
 51
180.0
  0
ARC
  5
6DBA
330
1E
100
AcDbEntity
  8
躯体と製品
  6
Continuous
 62
     3
100
AcDbCircle
 10
1417.071967126926
 20
821.7376584082551
 30
0.0
 40
1.0
100
AcDbArc
 50
270.0
 51
0.0
  0
LINE
  5
6DBB
330
1E
100
AcDbEntity
  8
躯体と製品
  6
Continuous
 62
     3
100
AcDbLine
 10
1413.371967126926
 20
820.7376584082551
 30
0.0
 11
1417.071967126926
 21
820.7376584082551
 31
0.0
  0
ARC
  5
6DBC
330
1E
100
AcDbEntity
  8
躯体と製品
  6
Continuous
 62
     3
100
AcDbCircle
 10
1413.171967126926
 20
829.6376584082551
 30
0.0
 40
0.2999999999999998
100
AcDbArc
 50
90.0
 51
180.0
  0
LINE
  5
6DBD
330
1E
100
AcDbEntity
  8
躯体と製品
  6
Continuous
 62
     3
100
AcDbLine
 10
1412.871967126926
 20
829.6376584082551
 30
0.0
 11
1412.871967126926
 21
822.2376584082551
 31
0.0
  0
ARC
  5
6DBE
330
1E
100
AcDbEntity
  8
躯体と製品
  6
Continuous
 62
     3
100
AcDbCircle
 10
1413.171967126926
 20
822.2376584082551
 30
0.0
 40
0.2999999999999998
100
AcDbArc
 50
180.0
 51
270.0
  0
LINE
  5
6DBF
330
1E
100
AcDbEntity
  8
躯体と製品
  6
Continuous
 62
     3
100
AcDbLine
 10
1416.571967126926
 20
821.9376584082551
 30
0.0
 11
1413.171967126926
 21
821.9376584082551
 31
0.0
  0
LINE
  5
6DC0
330
1E
100
AcDbEntity
  8
躯体と製品
  6
Continuous
 62
     3
100
AcDbLine
 10
1416.571967126926
 20
829.9376584082551
 30
0.0
 11
1413.171967126926
 21
829.9376584082551
 31
0.0
  0
LINE
  5
6DC1
330
1E
100
AcDbEntity
  8
躯体と製品
  6
Continuous
 62
     3
100
AcDbLine
 10
1411.371967126926
 20
838.1876584082553
 30
0.0
 11
1411.371967126926
 21
793.9376584082552
 31
0.0
  0
ARC
  5
6DC2
330
1E
100
AcDbEntity
  8
躯体と製品
  6
Continuous
 62
     3
100
AcDbCircle
 10
1410.371967126926
 20
783.4376584082551
 30
0.0
 40
2.5
100
AcDbArc
 50
270.0
 51
0.0
  0
LINE
  5
6DC3
330
1E
100
AcDbEntity
  8
躯体と製品
  6
Continuous
 62
     3
100
AcDbLine
 10
1406.471967126926
 20
780.9376584082553
 30
0.0
 11
1410.371967126926
 21
780.9376584082553
 31
0.0
  0
ARC
  5
6DC4
330
1E
100
AcDbEntity
  8
躯体と製品
  6
Continuous
 62
     3
100
AcDbCircle
 10
1410.871967126926
 20
793.9376584082552
 30
0.0
 40
0.5
100
AcDbArc
 50
270.0
 51
0.0
  0
LINE
  5
6DC5
330
1E
100
AcDbEntity
  8
躯体と製品
  6
Continuous
 62
     3
100
AcDbLine
 10
1410.871967126926
 20
793.4376584082553
 30
0.0
 11
1404.171967126926
 21
793.4376584082553
 31
0.0
  0
LINE
  5
6DC6
330
1E
100
AcDbEntity
  8
躯体と製品
  6
Continuous
 62
     3
100
AcDbLine
 10
1411.371967126926
 20
791.9376584082551
 30
0.0
 11
1411.371967126926
 21
783.1376584082552
 31
0.0
  0
ARC
  5
6DC7
330
1E
100
AcDbEntity
  8
躯体と製品
  6
Continuous
 62
     3
100
AcDbCircle
 10
1410.871967126926
 20
791.9376584082551
 30
0.0
 40
0.5
100
AcDbArc
 50
0.0
 51
90.0
  0
ARC
  5
6DC8
330
1E
100
AcDbEntity
  8
躯体と製品
  6
Continuous
 62
     3
100
AcDbCircle
 10
1404.171967126926
 20
793.1376584082552
 30
0.0
 40
0.2999999999999998
100
AcDbArc
 50
90.0
 51
180.0
  0
LINE
  5
6DC9
330
1E
100
AcDbEntity
  8
躯体と製品
  6
Continuous
 62
     3
100
AcDbLine
 10
1410.871967126926
 20
792.4376584082552
 30
0.0
 11
1405.871967126926
 21
792.4376584082552
 31
0.0
  0
LINE
  5
6DCA
330
1E
100
AcDbEntity
  8
躯体と製品
  6
Continuous
 62
     3
100
AcDbLine
 10
1403.871967126926
 20
793.1376584082552
 30
0.0
 11
1403.871967126926
 21
792.8280464082553
 31
0.0
  0
LINE
  5
6DCB
330
1E
100
AcDbEntity
  8
躯体と製品
  6
Continuous
 62
     3
100
AcDbLine
 10
1405.871967126926
 20
792.4376584082552
 30
0.0
 11
1405.871967126926
 21
791.9376584082551
 31
0.0
  0
ARC
  5
6DCC
330
1E
100
AcDbEntity
  8
躯体と製品
  6
Continuous
 62
     3
100
AcDbCircle
 10
1404.371967126926
 20
792.8280464082553
 30
0.0
 40
0.5
100
AcDbArc
 50
180.0
 51
255.9637569999957
  0
LINE
  5
6DCD
330
1E
100
AcDbEntity
  8
躯体と製品
  6
Continuous
 62
     3
100
AcDbLine
 10
1405.871967126926
 20
791.9376584082551
 30
0.0
 11
1404.250699126926
 21
792.3429754082551
 31
0.0
  0
LINE
  5
6DCE
330
1E
100
AcDbEntity
  8
躯体と製品
  6
Continuous
 62
     3
100
AcDbLine
 10
1418.071967126926
 20
828.0376584082551
 30
0.0
 11
1418.071967126926
 21
830.1376584082552
 31
0.0
  0
ARC
  5
6DCF
330
1E
100
AcDbEntity
  8
躯体と製品
  6
Continuous
 62
     3
100
AcDbCircle
 10
1416.571967126926
 20
829.6376584082551
 30
0.0
 40
0.2999999999999998
100
AcDbArc
 50
0.0
 51
90.0
  0
LINE
  5
6DD0
330
1E
100
AcDbEntity
  8
躯体と製品
  6
Continuous
 62
     3
100
AcDbLine
 10
1416.871967126926
 20
828.0376584082551
 30
0.0
 11
1416.871967126926
 21
829.6376584082551
 31
0.0
  0
ARC
  5
6DD1
330
1E
100
AcDbEntity
  8
躯体と製品
  6
Continuous
 62
     3
100
AcDbCircle
 10
1416.571967126926
 20
822.2376584082551
 30
0.0
 40
0.2999999999999998
100
AcDbArc
 50
270.0
 51
0.0
  0
LINE
  5
6DD2
330
1E
100
AcDbEntity
  8
躯体と製品
  6
Continuous
 62
     3
100
AcDbLine
 10
1416.871967126926
 20
823.8376584082553
 30
0.0
 11
1416.871967126926
 21
822.2376584082551
 31
0.0
  0
LINE
  5
6DD3
330
1E
100
AcDbEntity
  8
躯体と製品
  6
Continuous
 62
     3
100
AcDbLine
 10
1418.071967126926
 20
823.8376584082553
 30
0.0
 11
1418.071967126926
 21
821.7376584082551
 31
0.0
  0
ARC
  5
6DD4
330
1E
100
AcDbEntity
  8
躯体と製品
  6
Continuous
 62
     3
100
AcDbCircle
 10
1417.471967126926
 20
828.0376584082551
 30
0.0
 40
0.5999999999999997
100
AcDbArc
 50
180.0
 51
0.0
  0
ARC
  5
6DD5
330
1E
100
AcDbEntity
  8
躯体と製品
  6
Continuous
 62
     3
100
AcDbCircle
 10
1417.471967126926
 20
823.8376584082553
 30
0.0
 40
0.5999999999999997
100
AcDbArc
 50
0.0
 51
180.0
  0
LINE
  5
6DD6
330
1E
100
AcDbEntity
  8
躯体と製品
  6
Continuous
 62
     7
100
AcDbLine
 10
1415.371967126926
 20
826.4376584082553
 30
0.0
 11
1413.720882126926
 21
825.9142854082551
 31
0.0
  0
ARC
  5
6DD7
330
1E
100
AcDbEntity
  8
躯体と製品
  6
Continuous
 62
     7
100
AcDbCircle
 10
1413.871967126926
 20
825.4376584082551
 30
0.0
 40
0.5
100
AcDbArc
 50
107.587954000005
 51
252.412045999995
  0
LINE
  5
6DD8
330
1E
100
AcDbEntity
  8
躯体と製品
  6
Continuous
 62
     7
100
AcDbLine
 10
1416.871967126926
 20
822.4376584082552
 30
0.0
 11
1416.871967126926
 21
824.9376584082551
 31
0.0
  0
ARC
  5
6DD9
330
1E
100
AcDbEntity
  8
躯体と製品
  6
Continuous
 62
     7
100
AcDbCircle
 10
1416.371967126926
 20
828.4376584082552
 30
0.0
 40
0.5
100
AcDbArc
 50
0.0
 51
90.0
  0
ARC
  5
6DDA
330
1E
100
AcDbEntity
  8
躯体と製品
  6
Continuous
 62
     7
100
AcDbCircle
 10
1416.371967126926
 20
822.4376584082552
 30
0.0
 40
0.5
100
AcDbArc
 50
270.0
 51
0.0
  0
ARC
  5
6DDB
330
1E
100
AcDbEntity
  8
躯体と製品
  6
Continuous
 62
     7
100
AcDbCircle
 10
1415.871967126926
 20
822.4376584082552
 30
0.0
 40
0.5
100
AcDbArc
 50
180.0
 51
270.0
  0
LINE
  5
6DDC
330
1E
100
AcDbEntity
  8
躯体と製品
  6
Continuous
 62
     7
100
AcDbLine
 10
1416.371967126926
 20
821.9376584082551
 30
0.0
 11
1415.871967126926
 21
821.9376584082551
 31
0.0
  0
LINE
  5
6DDD
330
1E
100
AcDbEntity
  8
躯体と製品
  6
Continuous
 62
     7
100
AcDbLine
 10
1416.371967126926
 20
828.9376584082551
 30
0.0
 11
1415.871967126926
 21
828.9376584082551
 31
0.0
  0
ARC
  5
6DDE
330
1E
100
AcDbEntity
  8
躯体と製品
  6
Continuous
 62
     7
100
AcDbCircle
 10
1415.871967126926
 20
828.4376584082552
 30
0.0
 40
0.5
100
AcDbArc
 50
90.0
 51
180.0
  0
LINE
  5
6DDF
330
1E
100
AcDbEntity
  8
躯体と製品
  6
Continuous
 62
     7
100
AcDbLine
 10
1415.371967126926
 20
826.4376584082553
 30
0.0
 11
1415.371967126926
 21
828.4376584082552
 31
0.0
  0
LINE
  5
6DE0
330
1E
100
AcDbEntity
  8
躯体と製品
  6
Continuous
 62
     7
100
AcDbLine
 10
1415.371967126926
 20
824.4376584082553
 30
0.0
 11
1415.371967126926
 21
822.4376584082552
 31
0.0
  0
LINE
  5
6DE1
330
1E
100
AcDbEntity
  8
躯体と製品
  6
Continuous
 62
     7
100
AcDbLine
 10
1415.371967126926
 20
824.4376584082553
 30
0.0
 11
1413.720882126926
 21
824.9610314082552
 31
0.0
  0
LINE
  5
6DE2
330
1E
100
AcDbEntity
  8
躯体と製品
  6
Continuous
 62
     7
100
AcDbLine
 10
1416.871967126926
 20
828.4376584082552
 30
0.0
 11
1416.871967126926
 21
825.9376584082552
 31
0.0
  0
LINE
  5
6DE3
330
1E
100
AcDbEntity
  8
躯体と製品
  6
Continuous
 62
     7
100
AcDbLine
 10
1417.467765305628
 20
824.9376584082551
 30
0.0
 11
1416.871967126926
 21
824.9376584082551
 31
0.0
  0
ARC
  5
6DE4
330
1E
100
AcDbEntity
  8
躯体と製品
  6
Continuous
 62
     7
100
AcDbCircle
 10
1417.467765305628
 20
823.8376584082553
 30
0.0
 40
1.1
100
AcDbArc
 50
4.999999999999459
 51
90.0
  0
LINE
  5
6DE5
330
1E
100
AcDbEntity
  8
躯体と製品
  6
Continuous
 62
     7
100
AcDbLine
 10
1417.467765305628
 20
825.9376584082552
 30
0.0
 11
1416.871967126926
 21
825.9376584082552
 31
0.0
  0
ARC
  5
6DE6
330
1E
100
AcDbEntity
  8
躯体と製品
  6
Continuous
 62
     7
100
AcDbCircle
 10
1417.467765305628
 20
823.8376584082553
 30
0.0
 40
2.1
100
AcDbArc
 50
4.999999999999459
 51
90.0
  0
LINE
  5
6DE7
330
1E
100
AcDbEntity
  8
躯体と製品
  6
DASHED1
 62
     4
100
AcDbLine
 10
1424.752636065834
 20
838.2812008017467
 30
0.0
 11
1744.36642314354
 21
855.031449610732
 31
0.0
  0
LINE
  5
6DE8
330
1E
100
AcDbEntity
  8
躯体と製品
  6
DASHED1
 62
     4
100
AcDbLine
 10
1424.674132131469
 20
839.7791451038782
 30
0.0
 11
1744.36642314354
 21
856.5335081297288
 31
0.0
  0
LINE
  5
6DE9
330
1E
100
AcDbEntity
  8
躯体と製品
  6
DASHED1
 62
     4
100
AcDbLine
 10
1424.490956284619
 20
843.2743484755194
 30
0.0
 11
1744.36642314354
 21
860.0383113407215
 31
0.0
  0
LINE
  5
6DEA
330
1E
100
AcDbEntity
  8
躯体と製品
  6
DASHED1
 62
     4
100
AcDbLine
 10
1424.396751563382
 20
845.0718816380776
 30
0.0
 11
1744.36642314354
 21
861.840781563518
 31
0.0
  0
LINE
  5
6DEB
330
1E
100
AcDbEntity
  8
躯体と製品
  6
Continuous
 62
     3
100
AcDbLine
 10
1423.653580984732
 20
859.2524210315927
 30
0.0
 11
1744.36642314354
 21
876.0602688766887
 31
0.0
  0
LINE
  5
6DEC
330
1E
100
AcDbEntity
  8
躯体と製品
  6
Continuous
 62
     3
100
AcDbLine
 10
1423.575077050367
 20
860.7503653337246
 30
0.0
 11
1744.36642314354
 21
877.5623273956854
 31
0.0
  0
LINE
  5
6DED
330
1E
100
AcDbEntity
  8
躯体と製品
  6
DASHED1
 62
     4
100
AcDbLine
 10
1423.418069181639
 20
863.7462539379884
 30
0.0
 11
1744.36642314354
 21
880.5664444336791
 31
0.0
  0
LINE
  5
6DEE
330
1E
100
AcDbEntity
  8
躯体と製品
  6
Continuous
 62
     3
100
AcDbLine
 10
1424.804972022076
 20
837.2825712669918
 30
0.0
 11
1744.36642314354
 21
854.030077264734
 31
0.0
  0
LINE
  5
6DEF
330
1E
100
AcDbEntity
  8
躯体と製品
  6
Continuous
 62
     3
100
AcDbLine
 10
1423.339565247274
 20
865.2441982401201
 30
0.0
 11
1744.36642314354
 21
882.068502952676
 31
0.0
  0
LINE
  5
6DF0
330
1E
100
AcDbEntity
  8
躯体と製品
  6
DASHED1
 62
     7
100
AcDbLine
 10
1429.614943848999
 20
841.0394544198474
 30
0.0
 11
1429.667279805242
 21
840.0408248850931
 31
0.0
  0
LINE
  5
6DF1
330
1E
100
AcDbEntity
  8
躯体と製品
  6
DASHED1
 62
     7
100
AcDbLine
 10
1449.58753454409
 20
842.086173544707
 30
0.0
 11
1429.614943848999
 21
841.0394544198474
 31
0.0
  0
LINE
  5
6DF2
330
1E
100
AcDbEntity
  8
躯体と製品
  6
DASHED1
 62
     7
100
AcDbLine
 10
1449.58753454409
 20
842.086173544707
 30
0.0
 11
1449.639870500333
 21
841.0875440099523
 31
0.0
  0
LINE
  5
6DF3
330
1E
100
AcDbEntity
  8
躯体と製品
  6
DASHED1
 62
     7
100
AcDbLine
 10
1453.135073871975
 20
841.2707198568023
 30
0.0
 11
1449.639870500333
 21
841.0875440099523
 31
0.0
  0
ARC
  5
6DF4
330
1E
100
AcDbEntity
  8
躯体と製品
  6
DASHED1
 62
     7
100
AcDbCircle
 10
1453.05656993761
 20
842.7686641589342
 30
0.0
 40
1.5
100
AcDbArc
 50
273.0000000000056
 51
93.00000000000558
  0
LINE
  5
6DF5
330
1E
100
AcDbEntity
  8
躯体と製品
  6
Continuous
 62
     3
100
AcDbLine
 10
1414.540777601383
 20
838.6604490817457
 30
0.0
 11
1415.123970144303
 21
836.1343646520277
 31
0.0
  0
LINE
  5
6DF6
330
1E
100
AcDbEntity
  8
躯体と製品
  6
Continuous
 62
     3
100
AcDbLine
 10
1422.67687306196
 20
839.6744731913926
 30
0.0
 11
1415.001794655654
 21
839.2722393762952
 31
0.0
  0
LINE
  5
6DF7
330
1E
100
AcDbEntity
  8
躯体と製品
  6
Continuous
 62
     3
100
AcDbLine
 10
1411.761161147436
 20
839.1024049706592
 30
0.0
 11
1412.938507579503
 21
839.1641070826103
 31
0.0
  0
LINE
  5
6DF8
330
1E
100
AcDbEntity
  8
躯体と製品
  6
Continuous
 62
     3
100
AcDbLine
 10
1413.246519385811
 20
838.9320035384871
 30
0.0
 11
1413.954726066561
 21
835.8644233868149
 31
0.0
  0
ARC
  5
6DF9
330
1E
100
AcDbEntity
  8
躯体と製品
  6
Continuous
 62
     3
100
AcDbCircle
 10
1422.703041040082
 20
839.1751584240152
 30
0.0
 40
0.5
100
AcDbArc
 50
2.999999999998919
 51
93.00000000000558
  0
LINE
  5
6DFA
330
1E
100
AcDbEntity
  8
躯体と製品
  6
Continuous
 62
     3
100
AcDbLine
 10
1423.202355807459
 20
839.2013264021366
 30
0.0
 11
1423.254691763702
 21
838.2026968673821
 31
0.0
  0
ARC
  5
6DFB
330
1E
100
AcDbEntity
  8
躯体と製品
  6
Continuous
 62
     3
100
AcDbCircle
 10
1422.49369721511
 20
843.1696765630336
 30
0.0
 40
0.5
100
AcDbArc
 50
273.0000000000056
 51
2.999999999998919
  0
LINE
  5
6DFC
330
1E
100
AcDbEntity
  8
躯体と製品
  6
Continuous
 62
     3
100
AcDbLine
 10
1422.519865193231
 20
842.6703617956563
 30
0.0
 11
1410.837877885697
 21
842.0581347832557
 31
0.0
  0
LINE
  5
6DFD
330
1E
100
AcDbEntity
  8
躯体と製品
  6
Continuous
 62
     3
100
AcDbLine
 10
1422.993011982487
 20
843.1958445411552
 30
0.0
 11
1422.888340070001
 21
845.1931036106643
 31
0.0
  0
LINE
  5
6DFE
330
1E
100
AcDbEntity
  8
躯体と製品
  6
Continuous
 62
     3
100
AcDbLine
 10
1401.489415705193
 20
791.4376584082552
 30
0.0
 11
1405.871967126926
 21
791.4376584082552
 31
0.0
  0
LINE
  5
6DFF
330
1E
100
AcDbEntity
  8
躯体と製品
  6
Continuous
 62
     3
100
AcDbLine
 10
1410.835349502945
 20
838.3116871267223
 30
0.0
 11
1401.000341904827
 21
792.0416142536639
 31
0.0
  0
LINE
  5
6E00
330
1E
100
AcDbEntity
  8
躯体と製品
  6
Continuous
 62
     3
100
AcDbLine
 10
1408.060442952225
 20
839.6859812514453
 30
0.0
 11
1396.10449284897
 21
783.4376584082551
 31
0.0
  0
ARC
  5
6E01
330
1E
100
AcDbEntity
  8
躯体と製品
  6
Continuous
 62
     3
100
AcDbCircle
 10
1423.387654837378
 20
845.2192715887857
 30
0.0
 40
0.5
100
AcDbArc
 50
93.00000000000558
 51
182.9999999999989
  0
LINE
  5
6E02
330
1E
100
AcDbEntity
  8
躯体と製品
  6
Continuous
 62
     3
100
AcDbLine
 10
1423.361486859257
 20
845.718586356163
 30
0.0
 11
1423.860801626634
 21
845.7447543342846
 31
0.0
  0
ARC
  5
6E03
330
1E
100
AcDbEntity
  8
躯体と製品
  6
Continuous
 62
     3
100
AcDbCircle
 10
1423.886969604756
 20
845.2454395669073
 30
0.0
 40
0.5
100
AcDbArc
 50
2.999999999998919
 51
93.00000000000558
  0
LINE
  5
6E04
330
1E
100
AcDbEntity
  8
躯体と製品
  6
Continuous
 62
     3
100
AcDbLine
 10
1423.339565247274
 20
865.2441982401201
 30
0.0
 11
1424.804972022076
 21
837.2825712669918
 31
0.0
  0
ARC
  5
6E05
330
1E
100
AcDbEntity
  8
躯体と製品
  6
Continuous
 62
     3
100
AcDbCircle
 10
1410.994885754426
 20
839.0622461789922
 30
0.0
 40
3.0
100
AcDbArc
 50
93.00000000000558
 51
168.0000000000002
  0
ARC
  5
6E06
330
1E
100
AcDbEntity
  8
躯体と製品
  6
Continuous
 62
     3
100
AcDbCircle
 10
1411.813497103679
 20
838.1037754359047
 30
0.0
 40
1.0
100
AcDbArc
 50
93.00000000000558
 51
168.0000000000002
  0
ARC
  5
6E07
330
1E
100
AcDbEntity
  8
躯体と製品
  6
Continuous
 62
     3
100
AcDbCircle
 10
1423.754006531079
 20
838.2288648455039
 30
0.0
 40
0.5
100
AcDbArc
 50
182.9999999999989
 51
273.0000000000056
  0
LINE
  5
6E08
330
1E
100
AcDbEntity
  8
躯体と製品
  6
Continuous
 62
     3
100
AcDbLine
 10
1423.7801745092
 20
837.7295500781263
 30
0.0
 11
1424.279489276577
 21
837.7557180562478
 31
0.0
  0
ARC
  5
6E09
330
1E
100
AcDbEntity
  8
躯体と製品
  6
Continuous
 62
     3
100
AcDbCircle
 10
1424.253321298456
 20
838.2550328236252
 30
0.0
 40
0.5
100
AcDbArc
 50
273.0000000000056
 51
2.999999999998919
  0
ARC
  5
6E0A
330
1E
100
AcDbEntity
  8
躯体と製品
  6
Continuous
 62
     3
100
AcDbCircle
 10
1401.02179126952
 20
789.7376584082551
 30
0.0
 40
0.5
100
AcDbArc
 50
90.0
 51
168.0000000000002
  0
LINE
  5
6E0B
330
1E
100
AcDbEntity
  8
躯体と製品
  6
Continuous
 62
     3
100
AcDbLine
 10
1400.532717469152
 20
789.8416142536639
 30
0.0
 11
1399.104492848971
 21
783.1223457024582
 31
0.0
  0
LINE
  5
6E0C
330
1E
100
AcDbEntity
  8
躯体と製品
  6
Continuous
 62
     3
100
AcDbLine
 10
1401.02179126952
 20
790.2376584082551
 30
0.0
 11
1410.271967126926
 21
790.2376584082551
 31
0.0
  0
ARC
  5
6E0D
330
1E
100
AcDbEntity
  8
躯体と製品
  6
Continuous
 62
     3
100
AcDbCircle
 10
1401.489415705193
 20
791.9376584082551
 30
0.0
 40
0.5
100
AcDbArc
 50
168.0000000000002
 51
270.0
  0
LINE
  5
6E0E
330
1E
100
AcDbEntity
  8
躯体と製品
  6
Continuous
 62
     3
100
AcDbLine
 10
1410.271967126926
 20
791.4376584082552
 30
0.0
 11
1407.871967126926
 21
791.4376584082552
 31
0.0
  0
LINE
  5
6E0F
330
1E
100
AcDbEntity
  8
躯体と製品
  6
Continuous
 62
     3
100
AcDbLine
 10
1405.871967126926
 20
792.4376584082552
 30
0.0
 11
1407.871967126926
 21
791.4376584082552
 31
0.0
  0
LINE
  5
6E10
330
1E
100
AcDbEntity
  8
躯体と製品
  6
Continuous
 62
     3
100
AcDbLine
 10
1405.871967126926
 20
791.4376584082552
 30
0.0
 11
1405.871967126926
 21
792.4376584082552
 31
0.0
  0
ARC
  5
6E11
330
1E
100
AcDbEntity
  8
躯体と製品
  6
Continuous
 62
     3
100
AcDbCircle
 10
1398.604492848971
 20
781.9376584082553
 30
0.0
 40
2.5
100
AcDbArc
 50
180.0
 51
270.0
  0
LINE
  5
6E12
330
1E
100
AcDbEntity
  8
躯体と製品
  6
Continuous
 62
     3
100
AcDbLine
 10
1398.604492848971
 20
779.4376584082551
 30
0.0
 11
1399.104492848971
 21
779.4376584082551
 31
0.0
  0
LINE
  5
6E13
330
1E
100
AcDbEntity
  8
躯体と製品
  6
Continuous
 62
     3
100
AcDbLine
 10
1396.10449284897
 20
781.9376584082553
 30
0.0
 11
1396.10449284897
 21
783.4376584082551
 31
0.0
  0
LINE
  5
6E14
330
1E
100
AcDbEntity
  8
躯体と製品
  6
Continuous
 62
     3
100
AcDbLine
 10
1399.104492848971
 20
783.1223457024582
 30
0.0
 11
1399.104492848971
 21
779.4376584082551
 31
0.0
  0
ARC
  5
6E15
330
1E
100
AcDbEntity
  8
躯体と製品
  6
Continuous
 62
     3
100
AcDbCircle
 10
1410.271967126926
 20
790.8376584082552
 30
0.0
 40
0.6000000000000015
100
AcDbArc
 50
270.0
 51
90.0
  0
ARC
  5
6E16
330
1E
100
AcDbEntity
  8
躯体と製品
  6
Continuous
 62
     3
100
AcDbCircle
 10
1412.954208366375
 20
838.8645182221839
 30
0.0
 40
0.2999999999999998
100
AcDbArc
 50
13.00000000000027
 51
93.00000000000558
  0
ARC
  5
6E17
330
1E
100
AcDbEntity
  8
躯体と製品
  6
Continuous
 62
     3
100
AcDbCircle
 10
1415.027962633776
 20
838.7729246089177
 30
0.0
 40
0.5
100
AcDbArc
 50
93.00000000000558
 51
193.0000000000002
  0
ARC
  5
6E18
330
1E
100
AcDbEntity
  8
躯体と製品
  6
Continuous
 62
     3
100
AcDbCircle
 10
1414.539348105432
 20
835.9993940194213
 30
0.0
 40
0.5999999999999984
100
AcDbArc
 50
193.0000000000002
 51
13.00000000000027
  0
LINE
  5
6E19
330
1E
100
AcDbEntity
  8
躯体と製品
  6
DASHED1
 62
     7
100
AcDbLine
 10
1429.667279805242
 20
840.0408248850931
 30
0.0
 11
1424.674132131469
 21
839.7791451038782
 31
0.0
  0
LINE
  5
6E1A
330
1E
100
AcDbEntity
  8
躯体と製品
  6
DASHED1
 62
     7
100
AcDbLine
 10
1452.978066003245
 20
844.2666084610662
 30
0.0
 11
1424.51712426274
 21
842.7750337081421
 31
0.0
  0
LINE
  5
6E1B
330
1E
100
AcDbEntity
  8
躯体と製品
  6
DASHED1
 62
     4
100
AcDbLine
 10
1639.196306256852
 20
854.5265790677524
 30
0.0
 11
1639.102101535615
 21
856.3241122303109
 31
0.0
  0
LINE
  5
6E1C
330
1E
100
AcDbEntity
  8
躯体と製品
  6
DASHED1
 62
     4
100
AcDbLine
 10
1459.442990001029
 20
845.1061069440223
 30
0.0
 11
1459.348785279791
 21
846.9036401065807
 31
0.0
  0
ARC
  5
6E1D
330
1E
100
AcDbEntity
  8
躯体と製品
  6
Continuous
 62
     7
100
AcDbCircle
 10
2045.053669137265
 20
802.5981859163312
 30
0.0
 40
23.16052750807612
100
AcDbArc
 50
184.9999999999994
 51
355.0000000000006
  0
LINE
  5
6E1E
330
1E
100
AcDbEntity
  8
躯体と製品
  6
Continuous
 62
     7
100
AcDbLine
 10
2021.330252765825
 20
819.4945378416335
 30
0.0
 11
2022.977469126803
 21
800.6667686816852
 31
0.0
  0
LINE
  5
6E1F
330
1E
100
AcDbEntity
  8
躯体と製品
  6
Continuous
 62
     7
100
AcDbLine
 10
2020.334058067733
 20
819.4073820988856
 30
0.0
 11
2021.981274428712
 21
800.5796129389374
 31
0.0
  0
POINT
  5
6E20
330
1E
100
AcDbEntity
  8
躯体と製品
 62
     4
100
AcDbPoint
 10
1394.36642314354
 20
777.9376584082552
 30
0.0
  0
POINT
  5
6E21
330
1E
100
AcDbEntity
  8
躯体と製品
 62
     4
100
AcDbPoint
 10
2094.366423143541
 20
777.9376584082552
 30
0.0
  0
LINE
  5
6E22
330
1E
100
AcDbEntity
  8
躯体と製品
  6
Continuous
 62
     3
100
AcDbLine
 10
1984.36642314354
 20
821.3198184425987
 30
0.0
 11
1984.36642314354
 21
820.3198184425987
 31
0.0
  0
LINE
  5
6E23
330
1E
100
AcDbEntity
  8
躯体と製品
  6
Continuous
 62
     3
100
AcDbLine
 10
1954.36642314354
 20
821.3198184425987
 30
0.0
 11
1984.36642314354
 21
821.3198184425987
 31
0.0
  0
LINE
  5
6E24
330
1E
100
AcDbEntity
  8
躯体と製品
  6
Continuous
 62
     3
100
AcDbLine
 10
1954.36642314354
 20
820.3198184425987
 30
0.0
 11
1954.36642314354
 21
821.3198184425987
 31
0.0
  0
LINE
  5
6E25
330
1E
100
AcDbEntity
  8
躯体と製品
  6
Continuous
 62
     3
100
AcDbLine
 10
1984.36642314354
 20
820.3198184425987
 30
0.0
 11
1954.36642314354
 21
820.3198184425987
 31
0.0
  0
LINE
  5
6E26
330
1E
100
AcDbEntity
  8
躯体と製品
  6
Continuous
 62
     4
100
AcDbLine
 10
1983.490885481681
 20
820.3198184425991
 30
0.0
 11
1984.36642314354
 21
821.195356104458
 31
0.0
  0
LINE
  5
6E27
330
1E
100
AcDbEntity
  8
躯体と製品
  6
Continuous
 62
     4
100
AcDbLine
 10
1982.076671919308
 20
820.3198184425991
 30
0.0
 11
1983.076671919307
 21
821.3198184425987
 31
0.0
  0
LINE
  5
6E28
330
1E
100
AcDbEntity
  8
躯体と製品
  6
Continuous
 62
     4
100
AcDbLine
 10
1980.662458356934
 20
820.3198184425987
 30
0.0
 11
1981.662458356933
 21
821.3198184425987
 31
0.0
  0
LINE
  5
6E29
330
1E
100
AcDbEntity
  8
躯体と製品
  6
Continuous
 62
     4
100
AcDbLine
 10
1979.24824479456
 20
820.3198184425984
 30
0.0
 11
1980.248244794561
 21
821.3198184425987
 31
0.0
  0
LINE
  5
6E2A
330
1E
100
AcDbEntity
  8
躯体と製品
  6
Continuous
 62
     4
100
AcDbLine
 10
1977.834031232187
 20
820.3198184425987
 30
0.0
 11
1978.834031232187
 21
821.3198184425987
 31
0.0
  0
LINE
  5
6E2B
330
1E
100
AcDbEntity
  8
躯体と製品
  6
Continuous
 62
     4
100
AcDbLine
 10
1976.419817669814
 20
820.3198184425987
 30
0.0
 11
1977.419817669814
 21
821.3198184425987
 31
0.0
  0
LINE
  5
6E2C
330
1E
100
AcDbEntity
  8
躯体と製品
  6
Continuous
 62
     4
100
AcDbLine
 10
1975.005604107441
 20
820.3198184425987
 30
0.0
 11
1976.005604107441
 21
821.3198184425991
 31
0.0
  0
LINE
  5
6E2D
330
1E
100
AcDbEntity
  8
躯体と製品
  6
Continuous
 62
     4
100
AcDbLine
 10
1973.591390545069
 20
820.3198184425984
 30
0.0
 11
1974.591390545069
 21
821.319818442598
 31
0.0
  0
LINE
  5
6E2E
330
1E
100
AcDbEntity
  8
躯体と製品
  6
Continuous
 62
     4
100
AcDbLine
 10
1972.177176982696
 20
820.3198184425984
 30
0.0
 11
1973.177176982695
 21
821.319818442598
 31
0.0
  0
LINE
  5
6E2F
330
1E
100
AcDbEntity
  8
躯体と製品
  6
Continuous
 62
     4
100
AcDbLine
 10
1970.762963420322
 20
820.3198184425987
 30
0.0
 11
1971.762963420322
 21
821.3198184425984
 31
0.0
  0
LINE
  5
6E30
330
1E
100
AcDbEntity
  8
躯体と製品
  6
Continuous
 62
     4
100
AcDbLine
 10
1969.34874985795
 20
820.3198184425987
 30
0.0
 11
1970.348749857949
 21
821.3198184425985
 31
0.0
  0
LINE
  5
6E31
330
1E
100
AcDbEntity
  8
躯体と製品
  6
Continuous
 62
     4
100
AcDbLine
 10
1967.934536295575
 20
820.3198184425978
 30
0.0
 11
1968.934536295576
 21
821.3198184425984
 31
0.0
  0
LINE
  5
6E32
330
1E
100
AcDbEntity
  8
躯体と製品
  6
Continuous
 62
     4
100
AcDbLine
 10
1966.520322733202
 20
820.319818442598
 30
0.0
 11
1967.520322733203
 21
821.3198184425985
 31
0.0
  0
LINE
  5
6E33
330
1E
100
AcDbEntity
  8
躯体と製品
  6
Continuous
 62
     4
100
AcDbLine
 10
1965.106109170829
 20
820.3198184425984
 30
0.0
 11
1966.106109170829
 21
821.3198184425987
 31
0.0
  0
LINE
  5
6E34
330
1E
100
AcDbEntity
  8
躯体と製品
  6
Continuous
 62
     4
100
AcDbLine
 10
1963.691895608456
 20
820.3198184425984
 30
0.0
 11
1964.691895608456
 21
821.3198184425987
 31
0.0
  0
LINE
  5
6E35
330
1E
100
AcDbEntity
  8
躯体と製品
  6
Continuous
 62
     4
100
AcDbLine
 10
1962.277682046085
 20
820.3198184425987
 30
0.0
 11
1963.277682046084
 21
821.3198184425987
 31
0.0
  0
LINE
  5
6E36
330
1E
100
AcDbEntity
  8
躯体と製品
  6
Continuous
 62
     4
100
AcDbLine
 10
1960.863468483711
 20
820.3198184425987
 30
0.0
 11
1961.863468483711
 21
821.3198184425987
 31
0.0
  0
LINE
  5
6E37
330
1E
100
AcDbEntity
  8
躯体と製品
  6
Continuous
 62
     4
100
AcDbLine
 10
1959.449254921338
 20
820.3198184425991
 30
0.0
 11
1960.449254921338
 21
821.3198184425987
 31
0.0
  0
LINE
  5
6E38
330
1E
100
AcDbEntity
  8
躯体と製品
  6
Continuous
 62
     4
100
AcDbLine
 10
1958.035041358965
 20
820.3198184425991
 30
0.0
 11
1959.035041358965
 21
821.3198184425987
 31
0.0
  0
LINE
  5
6E39
330
1E
100
AcDbEntity
  8
躯体と製品
  6
Continuous
 62
     4
100
AcDbLine
 10
1956.620827796591
 20
820.3198184425987
 30
0.0
 11
1957.620827796591
 21
821.3198184425987
 31
0.0
  0
LINE
  5
6E3A
330
1E
100
AcDbEntity
  8
躯体と製品
  6
Continuous
 62
     4
100
AcDbLine
 10
1955.206614234218
 20
820.3198184425987
 30
0.0
 11
1956.206614234218
 21
821.3198184425991
 31
0.0
  0
LINE
  5
6E3B
330
1E
100
AcDbEntity
  8
躯体と製品
  6
Continuous
 62
     4
100
AcDbLine
 10
1954.36642314354
 20
820.8938409142943
 30
0.0
 11
1954.792400671845
 21
821.3198184425991
 31
0.0
  0
LINE
  5
6E3C
330
1E
100
AcDbEntity
  8
躯体と製品
  6
Continuous
 62
     3
100
AcDbLine
 10
1504.36642314354
 20
821.3198184425987
 30
0.0
 11
1504.36642314354
 21
820.3198184425987
 31
0.0
  0
LINE
  5
6E3D
330
1E
100
AcDbEntity
  8
躯体と製品
  6
Continuous
 62
     3
100
AcDbLine
 10
1534.36642314354
 20
821.3198184425987
 30
0.0
 11
1504.36642314354
 21
821.3198184425987
 31
0.0
  0
LINE
  5
6E3E
330
1E
100
AcDbEntity
  8
躯体と製品
  6
Continuous
 62
     3
100
AcDbLine
 10
1534.36642314354
 20
820.3198184425987
 30
0.0
 11
1534.36642314354
 21
821.3198184425987
 31
0.0
  0
LINE
  5
6E3F
330
1E
100
AcDbEntity
  8
躯体と製品
  6
Continuous
 62
     3
100
AcDbLine
 10
1504.36642314354
 20
820.3198184425987
 30
0.0
 11
1534.36642314354
 21
820.3198184425987
 31
0.0
  0
LINE
  5
6E40
330
1E
100
AcDbEntity
  8
躯体と製品
  6
Continuous
 62
     4
100
AcDbLine
 10
1505.241960805399
 20
820.3198184425991
 30
0.0
 11
1504.36642314354
 21
821.195356104458
 31
0.0
  0
LINE
  5
6E41
330
1E
100
AcDbEntity
  8
躯体と製品
  6
Continuous
 62
     4
100
AcDbLine
 10
1506.656174367772
 20
820.3198184425991
 30
0.0
 11
1505.656174367772
 21
821.3198184425987
 31
0.0
  0
LINE
  5
6E42
330
1E
100
AcDbEntity
  8
躯体と製品
  6
Continuous
 62
     4
100
AcDbLine
 10
1508.070387930146
 20
820.3198184425987
 30
0.0
 11
1507.070387930146
 21
821.3198184425987
 31
0.0
  0
LINE
  5
6E43
330
1E
100
AcDbEntity
  8
躯体と製品
  6
Continuous
 62
     4
100
AcDbLine
 10
1509.484601492519
 20
820.3198184425984
 30
0.0
 11
1508.484601492519
 21
821.3198184425987
 31
0.0
  0
LINE
  5
6E44
330
1E
100
AcDbEntity
  8
躯体と製品
  6
Continuous
 62
     4
100
AcDbLine
 10
1510.898815054893
 20
820.3198184425987
 30
0.0
 11
1509.898815054892
 21
821.3198184425987
 31
0.0
  0
LINE
  5
6E45
330
1E
100
AcDbEntity
  8
躯体と製品
  6
Continuous
 62
     4
100
AcDbLine
 10
1512.313028617266
 20
820.3198184425987
 30
0.0
 11
1511.313028617266
 21
821.3198184425987
 31
0.0
  0
LINE
  5
6E46
330
1E
100
AcDbEntity
  8
躯体と製品
  6
Continuous
 62
     4
100
AcDbLine
 10
1513.727242179639
 20
820.3198184425987
 30
0.0
 11
1512.727242179639
 21
821.3198184425991
 31
0.0
  0
LINE
  5
6E47
330
1E
100
AcDbEntity
  8
躯体と製品
  6
Continuous
 62
     4
100
AcDbLine
 10
1515.141455742011
 20
820.3198184425984
 30
0.0
 11
1514.141455742011
 21
821.319818442598
 31
0.0
  0
LINE
  5
6E48
330
1E
100
AcDbEntity
  8
躯体と製品
  6
Continuous
 62
     4
100
AcDbLine
 10
1516.555669304384
 20
820.3198184425984
 30
0.0
 11
1515.555669304385
 21
821.319818442598
 31
0.0
  0
LINE
  5
6E49
330
1E
100
AcDbEntity
  8
躯体と製品
  6
Continuous
 62
     4
100
AcDbLine
 10
1517.969882866758
 20
820.3198184425987
 30
0.0
 11
1516.969882866758
 21
821.3198184425984
 31
0.0
  0
LINE
  5
6E4A
330
1E
100
AcDbEntity
  8
躯体と製品
  6
Continuous
 62
     4
100
AcDbLine
 10
1519.384096429131
 20
820.3198184425987
 30
0.0
 11
1518.384096429131
 21
821.3198184425985
 31
0.0
  0
LINE
  5
6E4B
330
1E
100
AcDbEntity
  8
躯体と製品
  6
Continuous
 62
     4
100
AcDbLine
 10
1520.798309991505
 20
820.3198184425978
 30
0.0
 11
1519.798309991504
 21
821.3198184425984
 31
0.0
  0
LINE
  5
6E4C
330
1E
100
AcDbEntity
  8
躯体と製品
  6
Continuous
 62
     4
100
AcDbLine
 10
1522.212523553878
 20
820.319818442598
 30
0.0
 11
1521.212523553877
 21
821.3198184425985
 31
0.0
  0
LINE
  5
6E4D
330
1E
100
AcDbEntity
  8
躯体と製品
  6
Continuous
 62
     4
100
AcDbLine
 10
1523.626737116251
 20
820.3198184425984
 30
0.0
 11
1522.626737116251
 21
821.3198184425987
 31
0.0
  0
LINE
  5
6E4E
330
1E
100
AcDbEntity
  8
躯体と製品
  6
Continuous
 62
     4
100
AcDbLine
 10
1525.040950678624
 20
820.3198184425984
 30
0.0
 11
1524.040950678624
 21
821.3198184425987
 31
0.0
  0
LINE
  5
6E4F
330
1E
100
AcDbEntity
  8
躯体と製品
  6
Continuous
 62
     4
100
AcDbLine
 10
1526.455164240995
 20
820.3198184425987
 30
0.0
 11
1525.455164240996
 21
821.3198184425987
 31
0.0
  0
LINE
  5
6E50
330
1E
100
AcDbEntity
  8
躯体と製品
  6
Continuous
 62
     4
100
AcDbLine
 10
1527.869377803369
 20
820.3198184425987
 30
0.0
 11
1526.869377803369
 21
821.3198184425987
 31
0.0
  0
LINE
  5
6E51
330
1E
100
AcDbEntity
  8
躯体と製品
  6
Continuous
 62
     4
100
AcDbLine
 10
1529.283591365742
 20
820.3198184425991
 30
0.0
 11
1528.283591365742
 21
821.3198184425987
 31
0.0
  0
LINE
  5
6E52
330
1E
100
AcDbEntity
  8
躯体と製品
  6
Continuous
 62
     4
100
AcDbLine
 10
1530.697804928115
 20
820.3198184425991
 30
0.0
 11
1529.697804928115
 21
821.3198184425987
 31
0.0
  0
LINE
  5
6E53
330
1E
100
AcDbEntity
  8
躯体と製品
  6
Continuous
 62
     4
100
AcDbLine
 10
1532.112018490489
 20
820.3198184425987
 30
0.0
 11
1531.112018490489
 21
821.3198184425987
 31
0.0
  0
LINE
  5
6E54
330
1E
100
AcDbEntity
  8
躯体と製品
  6
Continuous
 62
     4
100
AcDbLine
 10
1533.526232052862
 20
820.3198184425987
 30
0.0
 11
1532.526232052862
 21
821.3198184425991
 31
0.0
  0
LINE
  5
6E55
330
1E
100
AcDbEntity
  8
躯体と製品
  6
Continuous
 62
     4
100
AcDbLine
 10
1534.36642314354
 20
820.8938409142943
 30
0.0
 11
1533.940445615235
 21
821.3198184425991
 31
0.0
  0
LINE
  5
6E56
330
1E
100
AcDbEntity
  8
躯体と製品
  6
Continuous
 62
     4
100
AcDbLine
 10
1437.779039647989
 20
866.0009390274764
 30
0.0
 11
1438.293528134062
 21
866.5154275135494
 31
0.0
  0
LINE
  5
6E57
330
1E
100
AcDbEntity
  8
躯体と製品
  6
Continuous
 62
     7
100
AcDbLine
 10
1438.319008268593
 20
866.0292375837643
 30
0.0
 11
1438.177381624856
 21
868.7316349315256
 31
0.0
  0
LINE
  5
6E58
330
1E
100
AcDbEntity
  8
躯体と製品
  6
Continuous
 62
     7
100
AcDbLine
 10
1423.339565247274
 20
865.2441982401201
 30
0.0
 11
1423.197938603537
 21
867.9465955878811
 31
0.0
  0
LINE
  5
6E59
330
1E
100
AcDbEntity
  8
躯体と製品
  6
Continuous
 62
     4
100
AcDbLine
 10
1423.316687956136
 20
865.6807229593526
 30
0.0
 11
1425.71444510179
 21
868.0784801050061
 31
0.0
  0
LINE
  5
6E5A
330
1E
100
AcDbEntity
  8
躯体と製品
  6
Continuous
 62
     4
100
AcDbLine
 10
1424.347183852755
 20
865.297005293598
 30
0.0
 11
1427.206873523483
 21
868.1566949643263
 31
0.0
  0
LINE
  5
6E5B
330
1E
100
AcDbEntity
  8
躯体と製品
  6
Continuous
 62
     4
100
AcDbLine
 10
1425.839612274446
 20
865.3752201529179
 30
0.0
 11
1428.699301945174
 21
868.2349098236457
 31
0.0
  0
LINE
  5
6E5C
330
1E
100
AcDbEntity
  8
躯体と製品
  6
Continuous
 62
     4
100
AcDbLine
 10
1427.332040696139
 20
865.4534350122373
 30
0.0
 11
1430.191730366867
 21
868.3131246829654
 31
0.0
  0
LINE
  5
6E5D
330
1E
100
AcDbEntity
  8
躯体と製品
  6
Continuous
 62
     4
100
AcDbLine
 10
1428.824469117833
 20
865.5316498715574
 30
0.0
 11
1431.68415878856
 21
868.3913395422854
 31
0.0
  0
LINE
  5
6E5E
330
1E
100
AcDbEntity
  8
躯体と製品
  6
Continuous
 62
     4
100
AcDbLine
 10
1430.316897539525
 20
865.6098647308771
 30
0.0
 11
1433.176587210253
 21
868.4695544016053
 31
0.0
  0
LINE
  5
6E5F
330
1E
100
AcDbEntity
  8
躯体と製品
  6
Continuous
 62
     4
100
AcDbLine
 10
1431.809325961218
 20
865.6880795901967
 30
0.0
 11
1434.669015631946
 21
868.5477692609252
 31
0.0
  0
LINE
  5
6E60
330
1E
100
AcDbEntity
  8
躯体と製品
  6
Continuous
 62
     4
100
AcDbLine
 10
1433.301754382912
 20
865.7662944495166
 30
0.0
 11
1436.161444053639
 21
868.6259841202449
 31
0.0
  0
LINE
  5
6E61
330
1E
100
AcDbEntity
  8
躯体と製品
  6
Continuous
 62
     4
100
AcDbLine
 10
1434.794182804605
 20
865.8445093088367
 30
0.0
 11
1437.653872475333
 21
868.7041989795647
 31
0.0
  0
LINE
  5
6E62
330
1E
100
AcDbEntity
  8
躯体と製品
  6
Continuous
 62
     4
100
AcDbLine
 10
1436.286611226299
 20
865.9227241681566
 30
0.0
 11
1438.223103158407
 21
867.8592161002654
 31
0.0
  0
LINE
  5
6E63
330
1E
100
AcDbEntity
  8
躯体と製品
  6
Continuous
 62
     4
100
AcDbLine
 10
1423.246262980481
 20
867.0245115460707
 30
0.0
 11
1424.222016680096
 21
868.0002652456863
 31
0.0
  0
LINE
  5
6E64
330
1E
100
AcDbEntity
  8
躯体と製品
  6
Continuous
 62
     7
100
AcDbLine
 10
1736.876701632881
 20
881.1752971078547
 30
0.0
 11
1737.086045457852
 21
877.1807789688365
 31
0.0
  0
LINE
  5
6E65
330
1E
100
AcDbEntity
  8
躯体と製品
  6
Continuous
 62
     7
100
AcDbLine
 10
1736.876701632881
 20
881.1752971078547
 30
0.0
 11
1744.36642314354
 21
881.567816779677
 31
0.0
  0
LINE
  5
6E66
330
1E
100
AcDbEntity
  8
躯体と製品
  6
Continuous
 62
     7
100
AcDbLine
 10
1751.856144654199
 20
881.1752971078547
 30
0.0
 11
1751.646800829227
 21
877.1807789688365
 31
0.0
  0
LINE
  5
6E67
330
1E
100
AcDbEntity
  8
躯体と製品
  6
Continuous
 62
     7
100
AcDbLine
 10
1751.856144654199
 20
881.1752971078547
 30
0.0
 11
1744.36642314354
 21
881.567816779677
 31
0.0
  0
LINE
  5
6E68
330
1E
100
AcDbEntity
  8
躯体と製品
  6
Continuous
 62
     4
100
AcDbLine
 10
1751.809077678942
 20
880.2772057194935
 30
0.0
 11
1750.858713118825
 21
881.2275702796105
 31
0.0
  0
LINE
  5
6E69
330
1E
100
AcDbEntity
  8
躯体と製品
  6
Continuous
 62
     4
100
AcDbLine
 10
1751.738652703286
 20
878.9334171327764
 30
0.0
 11
1749.366284697132
 21
881.3057851389302
 31
0.0
  0
LINE
  5
6E6A
330
1E
100
AcDbEntity
  8
躯体と製品
  6
Continuous
 62
     4
100
AcDbLine
 10
1751.66822772763
 20
877.5896285460584
 30
0.0
 11
1747.873856275439
 21
881.38399999825
 31
0.0
  0
LINE
  5
6E6B
330
1E
100
AcDbEntity
  8
躯体と製品
  6
Continuous
 62
     4
100
AcDbLine
 10
1750.608445864679
 20
877.2351968466358
 30
0.0
 11
1746.381427853746
 21
881.4622148575697
 31
0.0
  0
LINE
  5
6E6C
330
1E
100
AcDbEntity
  8
躯体と製品
  6
Continuous
 62
     4
100
AcDbLine
 10
1749.116017442986
 20
877.3134117059557
 30
0.0
 11
1744.888999432052
 21
881.5404297168901
 31
0.0
  0
LINE
  5
6E6D
330
1E
100
AcDbEntity
  8
躯体と製品
  6
Continuous
 62
     4
100
AcDbLine
 10
1747.623589021293
 20
877.3916265652758
 30
0.0
 11
1743.493164360453
 21
881.5220512261156
 31
0.0
  0
LINE
  5
6E6E
330
1E
100
AcDbEntity
  8
躯体と製品
  6
Continuous
 62
     4
100
AcDbLine
 10
1746.1311605996
 20
877.4698414245955
 30
0.0
 11
1742.149375773735
 21
881.4516262504604
 31
0.0
  0
LINE
  5
6E6F
330
1E
100
AcDbEntity
  8
躯体と製品
  6
Continuous
 62
     4
100
AcDbLine
 10
1744.638732177908
 20
877.5480562839156
 30
0.0
 11
1740.805587187019
 21
881.3812012748046
 31
0.0
  0
LINE
  5
6E70
330
1E
100
AcDbEntity
  8
躯体と製品
  6
Continuous
 62
     4
100
AcDbLine
 10
1743.267822712666
 20
877.5047521867842
 30
0.0
 11
1739.461798600301
 21
881.3107762991489
 31
0.0
  0
LINE
  5
6E71
330
1E
100
AcDbEntity
  8
躯体と製品
  6
Continuous
 62
     4
100
AcDbLine
 10
1737.642256999539
 20
881.7161043375381
 30
0.0
 11
1737.05367131216
 21
882.3046900249169
 31
0.0
  0
LINE
  5
6E72
330
1E
100
AcDbEntity
  8
躯体と製品
  6
Continuous
 62
     4
100
AcDbLine
 10
1741.924034125949
 20
877.4343272111281
 30
0.0
 11
1738.118010013584
 21
881.2403513234928
 31
0.0
  0
LINE
  5
6E73
330
1E
100
AcDbEntity
  8
躯体と製品
  6
Continuous
 62
     4
100
AcDbLine
 10
1740.580245539231
 20
877.3639022354723
 30
0.0
 11
1736.88266646617
 21
881.0614813085337
 31
0.0
  0
LINE
  5
6E74
330
1E
100
AcDbEntity
  8
躯体と製品
  6
Continuous
 62
     4
100
AcDbLine
 10
1739.236456952514
 20
877.2934772598164
 30
0.0
 11
1736.96088132549
 21
879.5690528868405
 31
0.0
  0
LINE
  5
6E75
330
1E
100
AcDbEntity
  8
躯体と製品
  6
Continuous
 62
     4
100
AcDbLine
 10
1737.892668365796
 20
877.223052284161
 30
0.0
 11
1737.03909618481
 21
878.0766244651472
 31
0.0
  0
LINE
  5
6E76
330
1E
100
AcDbEntity
  8
躯体と製品
  6
Continuous
 62
     4
100
AcDbLine
 10
1745.853050602379
 20
881.9905921089366
 30
0.0
 11
1743.130112374882
 21
884.7135303364337
 31
0.0
  0
LINE
  5
6E77
330
1E
100
AcDbEntity
  8
躯体と製品
  6
Continuous
 62
     4
100
AcDbLine
 10
1740.329834172974
 20
881.8569542888504
 30
0.0
 11
1737.754958028013
 21
884.4318304338107
 31
0.0
  0
LINE
  5
6E78
330
1E
100
AcDbEntity
  8
躯体と製品
  6
Continuous
 62
     4
100
AcDbLine
 10
1744.361199933124
 20
882.0682292158176
 30
0.0
 11
1741.786323788164
 21
884.6431053607782
 31
0.0
  0
LINE
  5
6E79
330
1E
100
AcDbEntity
  8
躯体と製品
  6
Continuous
 62
     4
100
AcDbLine
 10
1743.017411346407
 20
881.9978042401615
 30
0.0
 11
1740.442535201446
 21
884.5726803851222
 31
0.0
  0
LINE
  5
6E7A
330
1E
100
AcDbEntity
  8
躯体と製品
  6
Continuous
 62
     4
100
AcDbLine
 10
1741.67362275969
 20
881.9273792645057
 30
0.0
 11
1739.098746614729
 21
884.5022554094661
 31
0.0
  0
LINE
  5
6E7B
330
1E
100
AcDbEntity
  8
躯体と製品
  6
Continuous
 62
     7
100
AcDbLine
 10
1736.944418814116
 20
884.3893518735884
 30
0.0
 11
1737.086045457852
 21
881.6869545258272
 31
0.0
  0
LINE
  5
6E7C
330
1E
100
AcDbEntity
  8
躯体と製品
  6
Continuous
 62
     4
100
AcDbLine
 10
1738.986045586256
 20
881.7865293131943
 30
0.0
 11
1736.975456452841
 21
883.7971184466098
 31
0.0
  0
LINE
  5
6E7D
330
1E
100
AcDbEntity
  8
躯体と製品
  6
Continuous
 62
     7
100
AcDbLine
 10
1751.788427472964
 20
884.3893518735884
 30
0.0
 11
1751.646800829227
 21
881.6869545258272
 31
0.0
  0
LINE
  5
6E7E
330
1E
100
AcDbEntity
  8
躯体と製品
  6
Continuous
 62
     4
100
AcDbLine
 10
1747.345479024072
 20
881.9123772496165
 30
0.0
 11
1744.485789353343
 21
884.7720669203454
 31
0.0
  0
LINE
  5
6E7F
330
1E
100
AcDbEntity
  8
躯体と製品
  6
Continuous
 62
     4
100
AcDbLine
 10
1751.725529199673
 20
883.1891813235072
 30
0.0
 11
1750.455503040114
 21
884.4592074830664
 31
0.0
  0
LINE
  5
6E80
330
1E
100
AcDbEntity
  8
躯体と製品
  6
Continuous
 62
     4
100
AcDbLine
 10
1751.655104224018
 20
881.8453927367912
 30
0.0
 11
1748.963074618423
 21
884.5374223423862
 31
0.0
  0
LINE
  5
6E81
330
1E
100
AcDbEntity
  8
躯体と製品
  6
Continuous
 62
     4
100
AcDbLine
 10
1750.330335867458
 20
881.7559475309773
 30
0.0
 11
1747.470646196729
 21
884.6156372017061
 31
0.0
  0
LINE
  5
6E82
330
1E
100
AcDbEntity
  8
躯体と製品
  6
Continuous
 62
     4
100
AcDbLine
 10
1748.837907445765
 20
881.8341623902972
 30
0.0
 11
1745.978217775036
 21
884.6938520610256
 31
0.0
  0
POINT
  5
6E83
330
1E
100
AcDbEntity
  8
躯体と製品
 62
     4
100
AcDbPoint
 10
1744.36642314354
 20
886.2803811573193
 30
0.0
  0
LINE
  5
6E96
330
1E
100
AcDbEntity
  8
躯体と製品
  6
Continuous
 62
     7
100
AcDbLine
 10
2019.36642314354
 20
820.3198184425987
 30
0.0
 11
2019.36642314354
 21
660.3198184425987
 31
0.0
  0
LINE
  5
6E97
330
1E
100
AcDbEntity
  8
躯体と製品
  6
Continuous
 62
     7
100
AcDbLine
 10
1469.36642314354
 20
820.3198184425987
 30
0.0
 11
1469.36642314354
 21
660.3198184425987
 31
0.0
  0
LINE
  5
6E98
330
1E
100
AcDbEntity
  8
躯体と製品
  6
Continuous
 62
     7
100
AcDbLine
 10
1644.36642314354
 20
820.3198184425987
 30
0.0
 11
1644.36642314354
 21
660.3198184425987
 31
0.0
  0
LINE
  5
6E99
330
1E
100
AcDbEntity
  8
躯体と製品
  6
Continuous
 62
     7
100
AcDbLine
 10
1844.36642314354
 20
820.3198184425987
 30
0.0
 11
1844.36642314354
 21
660.3198184425987
 31
0.0
  0
LINE
  5
6E9A
330
1E
100
AcDbEntity
  8
図枠
  6
Continuous
 62
     7
100
AcDbLine
 10
2175.96642314354
 20
1004.319818442598
 30
0.0
 11
1351.96642314354
 21
1004.319818442598
 31
0.0
  0
LINE
  5
6E9B
330
1E
100
AcDbEntity
  8
図枠
  6
Continuous
 62
     7
100
AcDbLine
 10
1351.96642314354
 20
1004.319818442598
 30
0.0
 11
1351.96642314354
 21
428.3198184425989
 31
0.0
  0
LINE
  5
6E9C
330
1E
100
AcDbEntity
  8
図枠
  6
Continuous
 62
     7
100
AcDbLine
 10
2175.96642314354
 20
428.3198184425989
 30
0.0
 11
2175.96642314354
 21
1004.319818442598
 31
0.0
  0
LINE
  5
6E9D
330
1E
100
AcDbEntity
  8
図枠
  6
Continuous
 62
     7
100
AcDbLine
 10
1351.96642314354
 20
428.3198184425989
 30
0.0
 11
2175.96642314354
 21
428.3198184425989
 31
0.0
  0
TEXT
  5
6E9E
330
1E
100
AcDbEntity
  8
図枠
 62
     7
100
AcDbText
 10
1931.96642314354
 20
636.3198184425987
 30
0.0
 40
5.0
  1
Ｗ
100
AcDbText
  0
TEXT
  5
6E9F
330
1E
100
AcDbEntity
  8
図枠
 62
     7
100
AcDbText
 10
1867.96642264354
 20
636.3198184425987
 30
0.0
 40
5.0
  1
タ　イ　プ
100
AcDbText
  0
TEXT
  5
6EA0
330
1E
100
AcDbEntity
  8
図枠
 62
     7
100
AcDbText
 10
1929.96642314354
 20
624.3198184425986
 30
0.0
 40
5.0
  1
550
100
AcDbText
  0
TEXT
  5
6EA1
330
1E
100
AcDbEntity
  8
図枠
 62
     7
100
AcDbText
 10
1929.96642314354
 20
540.3198184425987
 30
0.0
 40
5.0
  1
900
100
AcDbText
  0
TEXT
  5
6EA2
330
1E
100
AcDbEntity
  8
図枠
 62
     7
100
AcDbText
 10
1929.96642314354
 20
552.3198184425988
 30
0.0
 40
5.0
  1
850
100
AcDbText
  0
TEXT
  5
6EA3
330
1E
100
AcDbEntity
  8
図枠
 62
     7
100
AcDbText
 10
1929.96642314354
 20
564.3198184425988
 30
0.0
 40
5.0
  1
800
100
AcDbText
  0
TEXT
  5
6EA4
330
1E
100
AcDbEntity
  8
図枠
 62
     7
100
AcDbText
 10
1929.96642314354
 20
576.3198184425989
 30
0.0
 40
5.0
  1
750
100
AcDbText
  0
TEXT
  5
6EA5
330
1E
100
AcDbEntity
  8
図枠
 62
     7
100
AcDbText
 10
1929.96642314354
 20
588.3198184425988
 30
0.0
 40
5.0
  1
700
100
AcDbText
  0
TEXT
  5
6EA6
330
1E
100
AcDbEntity
  8
図枠
 62
     7
100
AcDbText
 10
1929.96642314354
 20
600.3198184425988
 30
0.0
 40
5.0
  1
650
100
AcDbText
  0
TEXT
  5
6EA7
330
1E
100
AcDbEntity
  8
図枠
 62
     7
100
AcDbText
 10
1929.96642314354
 20
612.3198184425988
 30
0.0
 40
5.0
  1
600
100
AcDbText
  0
TEXT
  5
6EA8
330
1E
100
AcDbEntity
  8
図枠
 62
     7
100
AcDbText
 10
1854.71642314354
 20
612.3198184425988
 30
0.0
 40
5.0
  1
 　　〃　　　600
100
AcDbText
  0
TEXT
  5
6EA9
330
1E
100
AcDbEntity
  8
図枠
 62
     7
100
AcDbText
 10
1854.71642314354
 20
600.3198184425988
 30
0.0
 40
5.0
  1
 　　〃　　　650
100
AcDbText
  0
TEXT
  5
6EAA
330
1E
100
AcDbEntity
  8
図枠
 62
     7
100
AcDbText
 10
1854.71642314354
 20
588.3198184425988
 30
0.0
 40
5.0
  1
 　　〃　　　700
100
AcDbText
  0
TEXT
  5
6EAB
330
1E
100
AcDbEntity
  8
図枠
 62
     7
100
AcDbText
 10
1854.71642314354
 20
576.3198184425989
 30
0.0
 40
5.0
  1
 　　〃　　　750
100
AcDbText
  0
TEXT
  5
6EAC
330
1E
100
AcDbEntity
  8
図枠
 62
     7
100
AcDbText
 10
1854.71642314354
 20
564.3198184425988
 30
0.0
 40
5.0
  1
 　　〃　　　800
100
AcDbText
  0
TEXT
  5
6EAD
330
1E
100
AcDbEntity
  8
図枠
 62
     7
100
AcDbText
 10
1854.71642314354
 20
552.3198184425988
 30
0.0
 40
5.0
  1
 　　〃　　　850
100
AcDbText
  0
TEXT
  5
6EAE
330
1E
100
AcDbEntity
  8
図枠
 62
     7
100
AcDbText
 10
1854.71642314354
 20
540.3198184425987
 30
0.0
 40
5.0
  1
 　　〃　　　900
100
AcDbText
  0
LINE
  5
6EAF
330
1E
100
AcDbEntity
  8
図枠
  6
Continuous
 62
     7
100
AcDbLine
 10
1844.96642314354
 20
645.3198184425986
 30
0.0
 11
1844.96642314354
 21
537.3198184425988
 31
0.0
  0
LINE
  5
6EB0
330
1E
100
AcDbEntity
  8
図枠
  6
Continuous
 62
     7
100
AcDbLine
 10
1919.96642314354
 20
645.3198184425986
 30
0.0
 11
1919.96642314354
 21
537.3198184425988
 31
0.0
  0
TEXT
  5
6EB1
330
1E
100
AcDbEntity
  8
図枠
 62
     7
100
AcDbText
 10
1854.71642314354
 20
624.3198184425986
 30
0.0
 40
5.0
  1
200ＦＹＹ－Ｓ550
100
AcDbText
  0
LINE
  5
6EB2
330
1E
100
AcDbEntity
  8
図枠
  6
Continuous
 62
     7
100
AcDbLine
 10
1979.96642314354
 20
645.3198184425986
 30
0.0
 11
1844.96642314354
 21
645.3198184425986
 31
0.0
  0
LINE
  5
6EB3
330
1E
100
AcDbEntity
  8
図枠
  6
Continuous
 62
     7
100
AcDbLine
 10
1979.96642314354
 20
537.3198184425988
 30
0.0
 11
1844.96642314354
 21
537.3198184425988
 31
0.0
  0
LINE
  5
6EB4
330
1E
100
AcDbEntity
  8
図枠
  6
Continuous
 62
     7
100
AcDbLine
 10
1979.96642314354
 20
549.3198184425988
 30
0.0
 11
1844.96642314354
 21
549.3198184425988
 31
0.0
  0
LINE
  5
6EB5
330
1E
100
AcDbEntity
  8
図枠
  6
Continuous
 62
     7
100
AcDbLine
 10
1979.96642314354
 20
561.3198184425988
 30
0.0
 11
1844.96642314354
 21
561.3198184425988
 31
0.0
  0
LINE
  5
6EB6
330
1E
100
AcDbEntity
  8
図枠
  6
Continuous
 62
     7
100
AcDbLine
 10
1979.96642314354
 20
573.3198184425988
 30
0.0
 11
1844.96642314354
 21
573.3198184425988
 31
0.0
  0
LINE
  5
6EB7
330
1E
100
AcDbEntity
  8
図枠
  6
Continuous
 62
     7
100
AcDbLine
 10
1979.96642314354
 20
585.3198184425988
 30
0.0
 11
1844.96642314354
 21
585.3198184425988
 31
0.0
  0
LINE
  5
6EB8
330
1E
100
AcDbEntity
  8
図枠
  6
Continuous
 62
     7
100
AcDbLine
 10
1979.96642314354
 20
597.3198184425988
 30
0.0
 11
1844.96642314354
 21
597.3198184425988
 31
0.0
  0
LINE
  5
6EB9
330
1E
100
AcDbEntity
  8
図枠
  6
Continuous
 62
     7
100
AcDbLine
 10
1979.96642314354
 20
609.3198184425988
 30
0.0
 11
1844.96642314354
 21
609.3198184425988
 31
0.0
  0
LINE
  5
6EBA
330
1E
100
AcDbEntity
  8
図枠
  6
Continuous
 62
     7
100
AcDbLine
 10
1979.96642314354
 20
621.3198184425987
 30
0.0
 11
1844.96642314354
 21
621.3198184425987
 31
0.0
  0
LINE
  5
6EBB
330
1E
100
AcDbEntity
  8
図枠
  6
Continuous
 62
     7
100
AcDbLine
 10
1979.96642314354
 20
633.3198184425987
 30
0.0
 11
1844.96642314354
 21
633.3198184425987
 31
0.0
  0
TEXT
  5
6EBC
330
1E
100
AcDbEntity
  8
図枠
 62
     7
100
AcDbText
 10
1959.96642314354
 20
540.3198184425987
 30
0.0
 40
5.0
  1
275
100
AcDbText
  0
TEXT
  5
6EBD
330
1E
100
AcDbEntity
  8
図枠
 62
     7
100
AcDbText
 10
1959.96642314354
 20
552.3198184425988
 30
0.0
 40
5.0
  1
250
100
AcDbText
  0
TEXT
  5
6EBE
330
1E
100
AcDbEntity
  8
図枠
 62
     7
100
AcDbText
 10
1959.96642314354
 20
564.3198184425988
 30
0.0
 40
5.0
  1
225
100
AcDbText
  0
TEXT
  5
6EBF
330
1E
100
AcDbEntity
  8
図枠
 62
     7
100
AcDbText
 10
1959.96642314354
 20
576.3198184425989
 30
0.0
 40
5.0
  1
200
100
AcDbText
  0
TEXT
  5
6EC0
330
1E
100
AcDbEntity
  8
図枠
 62
     7
100
AcDbText
 10
1959.96642314354
 20
588.3198184425988
 30
0.0
 40
5.0
  1
175
100
AcDbText
  0
TEXT
  5
6EC1
330
1E
100
AcDbEntity
  8
図枠
 62
     7
100
AcDbText
 10
1959.96642314354
 20
600.3198184425988
 30
0.0
 40
5.0
  1
150
100
AcDbText
  0
TEXT
  5
6EC2
330
1E
100
AcDbEntity
  8
図枠
 62
     7
100
AcDbText
 10
1959.96642314354
 20
612.3198184425988
 30
0.0
 40
5.0
  1
125
100
AcDbText
  0
TEXT
  5
6EC3
330
1E
100
AcDbEntity
  8
図枠
 62
     7
100
AcDbText
 10
1959.96642314354
 20
624.3198184425986
 30
0.0
 40
5.0
  1
100
100
AcDbText
  0
TEXT
  5
6EC4
330
1E
100
AcDbEntity
  8
図枠
 62
     7
100
AcDbText
 10
1961.96642314354
 20
636.3198184425987
 30
0.0
 40
5.0
  1
Ｃ
100
AcDbText
  0
LINE
  5
6EC5
330
1E
100
AcDbEntity
  8
図枠
  6
Continuous
 62
     7
100
AcDbLine
 10
1979.96642314354
 20
645.3198184425986
 30
0.0
 11
1979.96642314354
 21
537.3198184425988
 31
0.0
  0
LINE
  5
6EC6
330
1E
100
AcDbEntity
  8
図枠
  6
Continuous
 62
     7
100
AcDbLine
 10
1949.96642314354
 20
645.3198184425986
 30
0.0
 11
1949.96642314354
 21
537.3198184425988
 31
0.0
  0
LINE
  5
6EC7
330
1E
100
AcDbEntity
  8
図枠
  6
Continuous
 62
     7
100
AcDbLine
 10
1810.96642314354
 20
465.3198184425987
 30
0.0
 11
1810.96642314354
 21
645.3198184425986
 31
0.0
  0
LINE
  5
6EC8
330
1E
100
AcDbEntity
  8
図枠
  6
Continuous
 62
     7
100
AcDbLine
 10
1792.96642314354
 20
465.3198184425987
 30
0.0
 11
1792.96642314354
 21
645.3198184425986
 31
0.0
  0
LINE
  5
6EC9
330
1E
100
AcDbEntity
  8
図枠
  6
Continuous
 62
     7
100
AcDbLine
 10
1757.96642314354
 20
465.3198184425987
 30
0.0
 11
1757.96642314354
 21
645.3198184425986
 31
0.0
  0
TEXT
  5
6ECA
330
1E
100
AcDbEntity
  8
図枠
 62
     7
100
AcDbText
 10
1699.46642314354
 20
636.3198184425987
 30
0.0
 40
5.0
  1
規　格
100
AcDbText
  0
TEXT
  5
6ECB
330
1E
100
AcDbEntity
  8
図枠
 62
     7
100
AcDbText
 10
1598.46642314354
 20
636.3198184425987
 30
0.0
 40
5.0
  1
部材名称
100
AcDbText
  0
TEXT
  5
6ECC
330
1E
100
AcDbEntity
  8
図枠
 62
     7
100
AcDbText
 10
1666.96642314354
 20
504.3198184425988
 30
0.0
 40
5.0
  1
Ｍ6×40
100
AcDbText
  0
TEXT
  5
6ECD
330
1E
100
AcDbEntity
  8
図枠
 62
     7
100
AcDbText
 10
1666.96642314354
 20
480.3198184425988
 30
0.0
 40
5.0
  1
1.5×18×6.5穴
100
AcDbText
  0
TEXT
  5
6ECE
330
1E
100
AcDbEntity
  8
図枠
 62
     7
100
AcDbText
 10
1666.96642314354
 20
492.3198184425988
 30
0.0
 40
5.0
  1
ＡＧ－660
100
AcDbText
  0
TEXT
  5
6ECF
330
1E
100
AcDbEntity
  8
図枠
 62
     7
100
AcDbText
 10
1666.96642314354
 20
540.3198184425987
 30
0.0
 40
5.0
  1
ＰＳ
100
AcDbText
  0
TEXT
  5
6ED0
330
1E
100
AcDbEntity
  8
図枠
 62
     7
100
AcDbText
 10
1566.96642314354
 20
480.3198184425988
 30
0.0
 40
5.0
  1
ステンワッシャー
100
AcDbText
  0
TEXT
  5
6ED1
330
1E
100
AcDbEntity
  8
図枠
 62
     7
100
AcDbText
 10
1566.96642314354
 20
492.3198184425988
 30
0.0
 40
5.0
  1
アジャストアンカー
100
AcDbText
  0
TEXT
  5
6ED2
330
1E
100
AcDbEntity
  8
図枠
 62
     7
100
AcDbText
 10
1566.96642314354
 20
504.3198184425988
 30
0.0
 40
5.0
  1
ステン六角ボルト
100
AcDbText
  0
TEXT
  5
6ED3
330
1E
100
AcDbEntity
  8
図枠
 62
     7
100
AcDbText
 10
1566.96642314354
 20
516.3198184425988
 30
0.0
 40
5.0
  1
ステン小ネジ
100
AcDbText
  0
TEXT
  5
6ED4
330
1E
100
AcDbEntity
  8
図枠
 62
     7
100
AcDbText
 10
1566.96642314354
 20
528.3198184425988
 30
0.0
 40
5.0
  1
止水補助板
100
AcDbText
  0
TEXT
  5
6ED5
330
1E
100
AcDbEntity
  8
図枠
 62
     7
100
AcDbText
 10
1566.96642314354
 20
540.3198184425987
 30
0.0
 40
5.0
  1
止水補助板
100
AcDbText
  0
TEXT
  5
6ED6
330
1E
100
AcDbEntity
  8
図枠
 62
     7
100
AcDbText
 10
1566.96642314354
 20
552.3198184425988
 30
0.0
 40
5.0
  1
ＦＹＹ水切ジョイント
100
AcDbText
  0
TEXT
  5
6ED7
330
1E
100
AcDbEntity
  8
図枠
 62
     7
100
AcDbText
 10
1566.96642314354
 20
564.3198184425988
 30
0.0
 40
5.0
  1
ＦＹＹフレームナット
100
AcDbText
  0
TEXT
  5
6ED8
330
1E
100
AcDbEntity
  8
図枠
 62
     7
100
AcDbText
 10
1566.96642314354
 20
588.3198184425988
 30
0.0
 40
5.0
  1
ＦＹＹホルダー
100
AcDbText
  0
TEXT
  5
6ED9
330
1E
100
AcDbEntity
  8
図枠
 62
     7
100
AcDbText
 10
1566.96642314354
 20
612.3198184425988
 30
0.0
 40
5.0
  1
ＦＹＹフレーム
100
AcDbText
  0
LINE
  5
6EDA
330
1E
100
AcDbEntity
  8
図枠
  6
Continuous
 62
     7
100
AcDbLine
 10
1756.96642314354
 20
465.3198184425987
 30
0.0
 11
1756.96642314354
 21
645.3198184425986
 31
0.0
  0
TEXT
  5
6EDB
330
1E
100
AcDbEntity
  8
図枠
 62
     7
100
AcDbText
 10
1666.96642314354
 20
468.3198184425988
 30
0.0
 40
5.0
  1
ｔ1.0×ｗ30
100
AcDbText
  0
LINE
  5
6EDC
330
1E
100
AcDbEntity
  8
図枠
  6
Continuous
 62
     7
100
AcDbLine
 10
1661.96642314354
 20
465.3198184425987
 30
0.0
 11
1661.96642314354
 21
645.3198184425986
 31
0.0
  0
TEXT
  5
6EDD
330
1E
100
AcDbEntity
  8
図枠
 62
     7
100
AcDbText
 10
1566.96642314354
 20
468.3198184425988
 30
0.0
 40
5.0
  1
ブチルテープ
100
AcDbText
  0
LINE
  5
6EDE
330
1E
100
AcDbEntity
  8
図枠
  6
Continuous
 62
     7
100
AcDbLine
 10
1561.96642314354
 20
465.3198184425987
 30
0.0
 11
1561.96642314354
 21
645.3198184425986
 31
0.0
  0
TEXT
  5
6EDF
330
1E
100
AcDbEntity
  8
図枠
 62
     7
100
AcDbText
 10
1566.96642314354
 20
624.3198184425986
 30
0.0
 40
5.0
  1
ＦＹＹキヤップＳ
100
AcDbText
  0
TEXT
  5
6EE0
330
1E
100
AcDbEntity
  8
図枠
 62
     7
100
AcDbText
 10
1566.96642314354
 20
576.3198184425989
 30
0.0
 40
5.0
  1
ＦＹＹホルダースプリング
100
AcDbText
  0
TEXT
  5
6EE1
330
1E
100
AcDbEntity
  8
図枠
 62
     7
100
AcDbText
 10
1666.96642314354
 20
516.3198184425988
 30
0.0
 40
5.0
  1
ナベＭ6×35
100
AcDbText
  0
LINE
  5
6EE2
330
1E
100
AcDbEntity
  8
図枠
  6
Continuous
 62
     7
100
AcDbLine
 10
1757.96642314354
 20
477.3198184425988
 30
0.0
 11
1824.96642314354
 21
477.3198184425988
 31
0.0
  0
LINE
  5
6EE3
330
1E
100
AcDbEntity
  8
図枠
  6
Continuous
 62
     7
100
AcDbLine
 10
1757.96642314354
 20
489.3198184425988
 30
0.0
 11
1824.96642314354
 21
489.3198184425988
 31
0.0
  0
LINE
  5
6EE4
330
1E
100
AcDbEntity
  8
図枠
  6
Continuous
 62
     7
100
AcDbLine
 10
1757.96642314354
 20
513.3198184425988
 30
0.0
 11
1824.96642314354
 21
513.3198184425988
 31
0.0
  0
LINE
  5
6EE5
330
1E
100
AcDbEntity
  8
図枠
  6
Continuous
 62
     7
100
AcDbLine
 10
1757.96642314354
 20
525.3198184425988
 30
0.0
 11
1824.96642314354
 21
525.3198184425988
 31
0.0
  0
LINE
  5
6EE6
330
1E
100
AcDbEntity
  8
図枠
  6
Continuous
 62
     7
100
AcDbLine
 10
1757.96642314354
 20
561.3198184425988
 30
0.0
 11
1824.96642314354
 21
561.3198184425988
 31
0.0
  0
LINE
  5
6EE7
330
1E
100
AcDbEntity
  8
図枠
  6
Continuous
 62
     7
100
AcDbLine
 10
1757.96642314354
 20
573.3198184425988
 30
0.0
 11
1824.96642314354
 21
573.3198184425988
 31
0.0
  0
LINE
  5
6EE8
330
1E
100
AcDbEntity
  8
図枠
  6
Continuous
 62
     7
100
AcDbLine
 10
1757.96642314354
 20
537.3198184425988
 30
0.0
 11
1824.96642314354
 21
537.3198184425988
 31
0.0
  0
LINE
  5
6EE9
330
1E
100
AcDbEntity
  8
図枠
  6
Continuous
 62
     7
100
AcDbLine
 10
1757.96642314354
 20
501.3198184425988
 30
0.0
 11
1824.96642314354
 21
501.3198184425988
 31
0.0
  0
LINE
  5
6EEA
330
1E
100
AcDbEntity
  8
図枠
  6
Continuous
 62
     7
100
AcDbLine
 10
1757.96642314354
 20
585.3198184425988
 30
0.0
 11
1824.96642314354
 21
585.3198184425988
 31
0.0
  0
LINE
  5
6EEB
330
1E
100
AcDbEntity
  8
図枠
  6
Continuous
 62
     7
100
AcDbLine
 10
1757.96642314354
 20
597.3198184425988
 30
0.0
 11
1824.96642314354
 21
597.3198184425988
 31
0.0
  0
LINE
  5
6EEC
330
1E
100
AcDbEntity
  8
図枠
  6
Continuous
 62
     7
100
AcDbLine
 10
1757.96642314354
 20
609.3198184425988
 30
0.0
 11
1824.96642314354
 21
609.3198184425988
 31
0.0
  0
LINE
  5
6EED
330
1E
100
AcDbEntity
  8
図枠
  6
Continuous
 62
     7
100
AcDbLine
 10
1757.96642314354
 20
621.3198184425987
 30
0.0
 11
1824.96642314354
 21
621.3198184425987
 31
0.0
  0
LINE
  5
6EEE
330
1E
100
AcDbEntity
  8
図枠
  6
Continuous
 62
     7
100
AcDbLine
 10
1757.96642314354
 20
633.3198184425987
 30
0.0
 11
1824.96642314354
 21
633.3198184425987
 31
0.0
  0
LINE
  5
6EEF
330
1E
100
AcDbEntity
  8
図枠
  6
Continuous
 62
     7
100
AcDbLine
 10
1757.96642314354
 20
549.3198184425988
 30
0.0
 11
1824.96642314354
 21
549.3198184425988
 31
0.0
  0
LINE
  5
6EF0
330
1E
100
AcDbEntity
  8
図枠
  6
Continuous
 62
     7
100
AcDbLine
 10
1757.96642314354
 20
645.3198184425986
 30
0.0
 11
1824.96642314354
 21
645.3198184425986
 31
0.0
  0
LINE
  5
6EF1
330
1E
100
AcDbEntity
  8
図枠
  6
Continuous
 62
     7
100
AcDbLine
 10
1757.96642314354
 20
465.3198184425987
 30
0.0
 11
1824.96642314354
 21
465.3198184425987
 31
0.0
  0
LINE
  5
6EF2
330
1E
100
AcDbEntity
  8
図枠
  6
Continuous
 62
     7
100
AcDbLine
 10
1824.96642314354
 20
465.3198184425987
 30
0.0
 11
1824.96642314354
 21
645.3198184425986
 31
0.0
  0
TEXT
  5
6EF3
330
1E
100
AcDbEntity
  8
図枠
 62
     7
100
AcDbText
 10
1814.96642314354
 20
480.3198184425988
 30
0.0
 40
5.0
  1
枚
100
AcDbText
  0
TEXT
  5
6EF4
330
1E
100
AcDbEntity
  8
図枠
 62
     7
100
AcDbText
 10
1814.96642314354
 20
492.3198184425988
 30
0.0
 40
5.0
  1
〃
100
AcDbText
  0
TEXT
  5
6EF5
330
1E
100
AcDbEntity
  8
図枠
 62
     7
100
AcDbText
 10
1814.96642314354
 20
504.3198184425988
 30
0.0
 40
5.0
  1
〃
100
AcDbText
  0
TEXT
  5
6EF6
330
1E
100
AcDbEntity
  8
図枠
 62
     7
100
AcDbText
 10
1814.96642314354
 20
516.3198184425988
 30
0.0
 40
5.0
  1
本
100
AcDbText
  0
TEXT
  5
6EF7
330
1E
100
AcDbEntity
  8
図枠
 62
     7
100
AcDbText
 10
1814.96642314354
 20
528.3198184425988
 30
0.0
 40
5.0
  1
〃
100
AcDbText
  0
TEXT
  5
6EF8
330
1E
100
AcDbEntity
  8
図枠
 62
     7
100
AcDbText
 10
1814.96642314354
 20
540.3198184425987
 30
0.0
 40
5.0
  1
枚
100
AcDbText
  0
TEXT
  5
6EF9
330
1E
100
AcDbEntity
  8
図枠
 62
     7
100
AcDbText
 10
1814.96642314354
 20
552.3198184425988
 30
0.0
 40
5.0
  1
〃
100
AcDbText
  0
TEXT
  5
6EFA
330
1E
100
AcDbEntity
  8
図枠
 62
     7
100
AcDbText
 10
1814.96642314354
 20
564.3198184425988
 30
0.0
 40
5.0
  1
〃
100
AcDbText
  0
TEXT
  5
6EFB
330
1E
100
AcDbEntity
  8
図枠
 62
     7
100
AcDbText
 10
1814.96642314354
 20
576.3198184425989
 30
0.0
 40
5.0
  1
〃
100
AcDbText
  0
TEXT
  5
6EFC
330
1E
100
AcDbEntity
  8
図枠
 62
     7
100
AcDbText
 10
1814.96642314354
 20
588.3198184425988
 30
0.0
 40
5.0
  1
個
100
AcDbText
  0
TEXT
  5
6EFD
330
1E
100
AcDbEntity
  8
図枠
 62
     7
100
AcDbText
 10
1814.96642314354
 20
600.3198184425988
 30
0.0
 40
5.0
  1
〃
100
AcDbText
  0
TEXT
  5
6EFE
330
1E
100
AcDbEntity
  8
図枠
 62
     7
100
AcDbText
 10
1814.96642314354
 20
612.3198184425988
 30
0.0
 40
5.0
  1
〃
100
AcDbText
  0
TEXT
  5
6EFF
330
1E
100
AcDbEntity
  8
図枠
 62
     7
100
AcDbText
 10
1814.96642314354
 20
624.3198184425986
 30
0.0
 40
5.0
  1
本
100
AcDbText
  0
TEXT
  5
6F00
330
1E
100
AcDbEntity
  8
図枠
 62
     7
100
AcDbText
 10
1811.46642314354
 20
636.3198184425987
 30
0.0
 40
5.0
  1
単位
100
AcDbText
  0
TEXT
  5
6F01
330
1E
100
AcDbEntity
  8
図枠
 62
     7
100
AcDbText
 10
1814.96642314354
 20
468.3198184425988
 30
0.0
 40
5.0
  1
巻
100
AcDbText
  0
LINE
  5
6F02
330
1E
100
AcDbEntity
  8
図枠
  6
Continuous
 62
     7
100
AcDbLine
 10
1756.96642314354
 20
597.3198184425988
 30
0.0
 11
1547.96642314354
 21
597.3198184425988
 31
0.0
  0
LINE
  5
6F03
330
1E
100
AcDbEntity
  8
図枠
  6
Continuous
 62
     7
100
AcDbLine
 10
1756.96642314354
 20
609.3198184425988
 30
0.0
 11
1547.96642314354
 21
609.3198184425988
 31
0.0
  0
LINE
  5
6F04
330
1E
100
AcDbEntity
  8
図枠
  6
Continuous
 62
     7
100
AcDbLine
 10
1756.96642314354
 20
621.3198184425987
 30
0.0
 11
1547.96642314354
 21
621.3198184425987
 31
0.0
  0
LINE
  5
6F05
330
1E
100
AcDbEntity
  8
図枠
  6
Continuous
 62
     7
100
AcDbLine
 10
1756.96642314354
 20
513.3198184425988
 30
0.0
 11
1547.96642314354
 21
513.3198184425988
 31
0.0
  0
LINE
  5
6F06
330
1E
100
AcDbEntity
  8
図枠
  6
Continuous
 62
     7
100
AcDbLine
 10
1756.96642314354
 20
525.3198184425988
 30
0.0
 11
1547.96642314354
 21
525.3198184425988
 31
0.0
  0
LINE
  5
6F07
330
1E
100
AcDbEntity
  8
図枠
  6
Continuous
 62
     7
100
AcDbLine
 10
1756.96642314354
 20
549.3198184425988
 30
0.0
 11
1547.96642314354
 21
549.3198184425988
 31
0.0
  0
LINE
  5
6F08
330
1E
100
AcDbEntity
  8
図枠
  6
Continuous
 62
     7
100
AcDbLine
 10
1756.96642314354
 20
561.3198184425988
 30
0.0
 11
1547.96642314354
 21
561.3198184425988
 31
0.0
  0
LINE
  5
6F09
330
1E
100
AcDbEntity
  8
図枠
  6
Continuous
 62
     7
100
AcDbLine
 10
1756.96642314354
 20
573.3198184425988
 30
0.0
 11
1547.96642314354
 21
573.3198184425988
 31
0.0
  0
LINE
  5
6F0A
330
1E
100
AcDbEntity
  8
図枠
  6
Continuous
 62
     7
100
AcDbLine
 10
1756.96642314354
 20
585.3198184425988
 30
0.0
 11
1547.96642314354
 21
585.3198184425988
 31
0.0
  0
LINE
  5
6F0B
330
1E
100
AcDbEntity
  8
図枠
  6
Continuous
 62
     7
100
AcDbLine
 10
1756.96642314354
 20
537.3198184425988
 30
0.0
 11
1547.96642314354
 21
537.3198184425988
 31
0.0
  0
LINE
  5
6F0C
330
1E
100
AcDbEntity
  8
図枠
  6
Continuous
 62
     7
100
AcDbLine
 10
1756.96642314354
 20
477.3198184425988
 30
0.0
 11
1547.96642314354
 21
477.3198184425988
 31
0.0
  0
LINE
  5
6F0D
330
1E
100
AcDbEntity
  8
図枠
  6
Continuous
 62
     7
100
AcDbLine
 10
1756.96642314354
 20
489.3198184425988
 30
0.0
 11
1547.96642314354
 21
489.3198184425988
 31
0.0
  0
LINE
  5
6F0E
330
1E
100
AcDbEntity
  8
図枠
  6
Continuous
 62
     7
100
AcDbLine
 10
1756.96642314354
 20
501.3198184425988
 30
0.0
 11
1547.96642314354
 21
501.3198184425988
 31
0.0
  0
LINE
  5
6F0F
330
1E
100
AcDbEntity
  8
図枠
  6
Continuous
 62
     7
100
AcDbLine
 10
1756.96642314354
 20
645.3198184425986
 30
0.0
 11
1547.96642314354
 21
645.3198184425986
 31
0.0
  0
LINE
  5
6F10
330
1E
100
AcDbEntity
  8
図枠
  6
Continuous
 62
     7
100
AcDbLine
 10
1756.96642314354
 20
465.3198184425987
 30
0.0
 11
1547.96642314354
 21
465.3198184425987
 31
0.0
  0
LINE
  5
6F11
330
1E
100
AcDbEntity
  8
図枠
  6
Continuous
 62
     7
100
AcDbLine
 10
1547.96642314354
 20
465.3198184425987
 30
0.0
 11
1547.96642314354
 21
645.3198184425986
 31
0.0
  0
TEXT
  5
6F12
330
1E
100
AcDbEntity
  8
図枠
 62
     7
100
AcDbText
 10
1551.71642314354
 20
480.3198184425988
 30
0.0
 40
5.0
  1
13
100
AcDbText
  0
TEXT
  5
6F13
330
1E
100
AcDbEntity
  8
図枠
 62
     7
100
AcDbText
 10
1551.71642314354
 20
492.3198184425988
 30
0.0
 40
5.0
  1
12
100
AcDbText
  0
TEXT
  5
6F14
330
1E
100
AcDbEntity
  8
図枠
 62
     7
100
AcDbText
 10
1551.71642314354
 20
504.3198184425988
 30
0.0
 40
5.0
  1
11
100
AcDbText
  0
TEXT
  5
6F15
330
1E
100
AcDbEntity
  8
図枠
 62
     7
100
AcDbText
 10
1551.71642314354
 20
516.3198184425988
 30
0.0
 40
5.0
  1
10
100
AcDbText
  0
TEXT
  5
6F16
330
1E
100
AcDbEntity
  8
図枠
 62
     7
100
AcDbText
 10
1551.71642314354
 20
528.3198184425988
 30
0.0
 40
5.0
  1
 9
100
AcDbText
  0
TEXT
  5
6F17
330
1E
100
AcDbEntity
  8
図枠
 62
     7
100
AcDbText
 10
1551.71642314354
 20
540.3198184425987
 30
0.0
 40
5.0
  1
 8
100
AcDbText
  0
TEXT
  5
6F18
330
1E
100
AcDbEntity
  8
図枠
 62
     7
100
AcDbText
 10
1551.71642314354
 20
552.3198184425988
 30
0.0
 40
5.0
  1
 7
100
AcDbText
  0
TEXT
  5
6F19
330
1E
100
AcDbEntity
  8
図枠
 62
     7
100
AcDbText
 10
1551.71642314354
 20
564.3198184425988
 30
0.0
 40
5.0
  1
 6
100
AcDbText
  0
TEXT
  5
6F1A
330
1E
100
AcDbEntity
  8
図枠
 62
     7
100
AcDbText
 10
1551.71642314354
 20
576.3198184425989
 30
0.0
 40
5.0
  1
 5
100
AcDbText
  0
TEXT
  5
6F1B
330
1E
100
AcDbEntity
  8
図枠
 62
     7
100
AcDbText
 10
1551.71642314354
 20
588.3198184425988
 30
0.0
 40
5.0
  1
 4
100
AcDbText
  0
TEXT
  5
6F1C
330
1E
100
AcDbEntity
  8
図枠
 62
     7
100
AcDbText
 10
1551.71642314354
 20
600.3198184425988
 30
0.0
 40
5.0
  1
 3
100
AcDbText
  0
TEXT
  5
6F1D
330
1E
100
AcDbEntity
  8
図枠
 62
     7
100
AcDbText
 10
1551.71642314354
 20
612.3198184425988
 30
0.0
 40
5.0
  1
 2
100
AcDbText
  0
TEXT
  5
6F1E
330
1E
100
AcDbEntity
  8
図枠
 62
     7
100
AcDbText
 10
1551.96642314354
 20
468.3198184425988
 30
0.0
 40
5.0
  1
※
100
AcDbText
  0
TEXT
  5
6F1F
330
1E
100
AcDbEntity
  8
図枠
 62
     7
100
AcDbText
 10
1768.71642314354
 20
528.3198184425988
 30
0.0
 40
5.0
  1
2100
100
AcDbText
  0
TEXT
  5
6F20
330
1E
100
AcDbEntity
  8
図枠
 62
     7
100
AcDbText
 10
1768.71642314354
 20
540.3198184425987
 30
0.0
 40
5.0
  1
2060
100
AcDbText
  0
TEXT
  5
6F21
330
1E
100
AcDbEntity
  8
図枠
 62
     7
100
AcDbText
 10
1768.71642314354
 20
600.3198184425988
 30
0.0
 40
5.0
  1
2010
100
AcDbText
  0
TEXT
  5
6F22
330
1E
100
AcDbEntity
  8
図枠
 62
     7
100
AcDbText
 10
1768.71642314354
 20
612.3198184425988
 30
0.0
 40
5.0
  1
2000
100
AcDbText
  0
TEXT
  5
6F23
330
1E
100
AcDbEntity
  8
図枠
 62
     7
100
AcDbText
 10
1768.71642314354
 20
624.3198184425986
 30
0.0
 40
5.0
  1
2000
100
AcDbText
  0
TEXT
  5
6F24
330
1E
100
AcDbEntity
  8
図枠
 62
     7
100
AcDbText
 10
1761.71642314354
 20
636.3198184425987
 30
0.0
 40
5.0
  1
定尺(mm)
100
AcDbText
  0
TEXT
  5
6F25
330
1E
100
AcDbEntity
  8
図枠
 62
     7
100
AcDbText
 10
1768.71642314354
 20
468.3198184425988
 30
0.0
 40
5.0
  1
6000
100
AcDbText
  0
TEXT
  5
6F26
330
1E
100
AcDbEntity
  8
図枠
 62
     7
100
AcDbText
 10
1798.71642314354
 20
480.3198184425988
 30
0.0
 40
5.0
  1
10
100
AcDbText
  0
TEXT
  5
6F27
330
1E
100
AcDbEntity
  8
図枠
 62
     7
100
AcDbText
 10
1798.71642314354
 20
492.3198184425988
 30
0.0
 40
5.0
  1
10
100
AcDbText
  0
TEXT
  5
6F28
330
1E
100
AcDbEntity
  8
図枠
 62
     7
100
AcDbText
 10
1798.71642314354
 20
528.3198184425988
 30
0.0
 40
5.0
  1
 1
100
AcDbText
  0
TEXT
  5
6F29
330
1E
100
AcDbEntity
  8
図枠
 62
     7
100
AcDbText
 10
1798.71642314354
 20
540.3198184425987
 30
0.0
 40
5.0
  1
 2
100
AcDbText
  0
TEXT
  5
6F2A
330
1E
100
AcDbEntity
  8
図枠
 62
     7
100
AcDbText
 10
1798.71642314354
 20
552.3198184425988
 30
0.0
 40
5.0
  1
 1
100
AcDbText
  0
TEXT
  5
6F2B
330
1E
100
AcDbEntity
  8
図枠
 62
     7
100
AcDbText
 10
1798.71642314354
 20
564.3198184425988
 30
0.0
 40
5.0
  1
 8
100
AcDbText
  0
TEXT
  5
6F2C
330
1E
100
AcDbEntity
  8
図枠
 62
     7
100
AcDbText
 10
1798.71642314354
 20
576.3198184425989
 30
0.0
 40
5.0
  1
 8
100
AcDbText
  0
TEXT
  5
6F2D
330
1E
100
AcDbEntity
  8
図枠
 62
     7
100
AcDbText
 10
1798.71642314354
 20
588.3198184425988
 30
0.0
 40
5.0
  1
 4
100
AcDbText
  0
TEXT
  5
6F2E
330
1E
100
AcDbEntity
  8
図枠
 62
     7
100
AcDbText
 10
1798.71642314354
 20
600.3198184425988
 30
0.0
 40
5.0
  1
 2
100
AcDbText
  0
TEXT
  5
6F2F
330
1E
100
AcDbEntity
  8
図枠
 62
     7
100
AcDbText
 10
1798.71642314354
 20
612.3198184425988
 30
0.0
 40
5.0
  1
 2
100
AcDbText
  0
TEXT
  5
6F30
330
1E
100
AcDbEntity
  8
図枠
 62
     7
100
AcDbText
 10
1798.71642314354
 20
624.3198184425986
 30
0.0
 40
5.0
  1
 1
100
AcDbText
  0
TEXT
  5
6F31
330
1E
100
AcDbEntity
  8
図枠
 62
     7
100
AcDbText
 10
1795.46642314354
 20
636.3198184425987
 30
0.0
 40
5.0
  1
入数
100
AcDbText
  0
TEXT
  5
6F32
330
1E
100
AcDbEntity
  8
図枠
 62
     7
100
AcDbText
 10
1798.71642314354
 20
468.3198184425988
 30
0.0
 40
5.0
  1
 1
100
AcDbText
  0
TEXT
  5
6F33
330
1E
100
AcDbEntity
  8
図枠
 62
     7
100
AcDbText
 10
1798.71642314354
 20
504.3198184425988
 30
0.0
 40
5.0
  1
10
100
AcDbText
  0
TEXT
  5
6F34
330
1E
100
AcDbEntity
  8
図枠
 62
     7
100
AcDbText
 10
1798.71642314354
 20
516.3198184425988
 30
0.0
 40
5.0
  1
10
100
AcDbText
  0
TEXT
  5
6F35
330
1E
100
AcDbEntity
  8
図枠
 62
     7
100
AcDbText
 10
1551.71642314354
 20
624.3198184425986
 30
0.0
 40
5.0
  1
 1
100
AcDbText
  0
TEXT
  5
6F36
330
1E
100
AcDbEntity
  8
図枠
 62
     7
100
AcDbText
 10
1549.96642314354
 20
636.3198184425987
 30
0.0
 40
5.0
  1
No.
100
AcDbText
  0
TEXT
  5
6F37
330
1E
100
AcDbEntity
  8
図枠
 62
     7
100
AcDbText
 10
1666.96642314354
 20
528.3198184425988
 30
0.0
 40
5.0
  1
ＦＳ400～700
100
AcDbText
  0
TEXT
  5
6F38
330
1E
100
AcDbEntity
  8
図枠
 62
     7
100
AcDbText
 10
1666.96642314354
 20
624.3198184425986
 30
0.0
 40
5.0
  1
200ＦＹＹ－Ｓ550～900
100
AcDbText
  0
TEXT
  5
6F39
330
1E
100
AcDbEntity
  8
図枠
 62
     7
100
AcDbText
 10
1666.96642314354
 20
588.3198184425988
 30
0.0
 40
5.0
  1
200ＦＹＹＨ－550～900
100
AcDbText
  0
TEXT
  5
6F3A
330
1E
100
AcDbEntity
  8
図枠
 62
     7
100
AcDbText
 10
1666.96642314354
 20
552.3198184425988
 30
0.0
 40
5.0
  1
200ＦＹＹＪ－550～900
100
AcDbText
  0
TEXT
  5
6F3B
330
1E
100
AcDbEntity
  8
図枠
 62
     7
100
AcDbText
 10
1655.86642314354
 20
888.8876713810587
 30
0.0
 40
5.0
  1
勾配３度
100
AcDbText
  0
LINE
  5
6F61
330
1E
100
AcDbEntity
  8
躯体と製品
  6
Continuous
 62
     7
100
AcDbLine
 10
1969.36642314354
 20
821.3198184425987
 30
0.0
 11
1969.36642314354
 21
822.3198184425987
 31
0.0
  0
ARC
  5
6F62
330
1E
100
AcDbEntity
  8
躯体と製品
  6
Continuous
 62
     7
100
AcDbCircle
 10
1984.36642314354
 20
813.0698184425988
 30
0.0
 40
8.25
100
AcDbArc
 50
71.07535558394559
 51
90.0
  0
ARC
  5
6F63
330
1E
100
AcDbEntity
  8
躯体と製品
  6
Continuous
 62
     7
100
AcDbCircle
 10
1990.36642314354
 20
830.5698184425986
 30
0.0
 40
10.25
100
AcDbArc
 50
251.0753555839456
 51
270.0
  0
ARC
  5
6F64
330
1E
100
AcDbEntity
  8
躯体と製品
  6
Continuous
 62
     7
100
AcDbCircle
 10
1954.36642314354
 20
813.0698184425988
 30
0.0
 40
8.25
100
AcDbArc
 50
90.0
 51
108.9246444160544
  0
ARC
  5
6F65
330
1E
100
AcDbEntity
  8
躯体と製品
  6
Continuous
 62
     7
100
AcDbCircle
 10
1948.366423143541
 20
830.5698184425986
 30
0.0
 40
10.25
100
AcDbArc
 50
270.0
 51
288.9246444160544
  0
ARC
  5
6F66
330
1E
100
AcDbEntity
  8
躯体と製品
  6
Continuous
 62
     7
100
AcDbCircle
 10
1954.36642314354
 20
813.0698184425988
 30
0.0
 40
9.25
100
AcDbArc
 50
90.0
 51
108.9246444160544
  0
LINE
  5
6F67
330
1E
100
AcDbEntity
  8
躯体と製品
  6
Continuous
 62
     7
100
AcDbLine
 10
1984.36642314354
 20
822.3198184425987
 30
0.0
 11
1954.36642314354
 21
822.3198184425987
 31
0.0
  0
ARC
  5
6F68
330
1E
100
AcDbEntity
  8
躯体と製品
  6
Continuous
 62
     7
100
AcDbCircle
 10
1984.36642314354
 20
813.0698184425988
 30
0.0
 40
9.25
100
AcDbArc
 50
71.07535558394559
 51
90.0
  0
ARC
  5
6F69
330
1E
100
AcDbEntity
  8
躯体と製品
  6
Continuous
 62
     7
100
AcDbCircle
 10
1990.36642314354
 20
830.5698184425986
 30
0.0
 40
9.25
100
AcDbArc
 50
251.0753555839456
 51
270.0
  0
ARC
  5
6F6A
330
1E
100
AcDbEntity
  8
躯体と製品
  6
Continuous
 62
     7
100
AcDbCircle
 10
1948.366423143541
 20
830.5698184425986
 30
0.0
 40
9.25
100
AcDbArc
 50
270.0
 51
288.9246444160544
  0
ARC
  5
6F6B
330
1E
100
AcDbEntity
  8
躯体と製品
  6
Continuous
 62
     7
100
AcDbCircle
 10
1844.36642314354
 20
819.3198184425988
 30
0.0
 40
2.0
100
AcDbArc
 50
90.0
 51
175.0000000000005
  0
LINE
  5
6F6C
330
1E
100
AcDbEntity
  8
躯体と製品
  6
Continuous
 62
     7
100
AcDbLine
 10
1948.366423143541
 20
821.3198184425987
 30
0.0
 11
1844.36642314354
 21
821.3198184425987
 31
0.0
  0
LINE
  5
6F6D
330
1E
100
AcDbEntity
  8
躯体と製品
  6
Continuous
 62
     7
100
AcDbLine
 10
1990.36642314354
 20
821.3198184425987
 30
0.0
 11
2019.378255049028
 21
821.3198184425987
 31
0.0
  0
ARC
  5
6F6E
330
1E
100
AcDbEntity
  8
躯体と製品
  6
Continuous
 62
     7
100
AcDbCircle
 10
2019.337863369642
 20
819.320226356138
 30
0.0
 40
2.0
100
AcDbArc
 50
4.999999999999459
 51
88.84278494683243
  0
LINE
  5
6F6F
330
1E
100
AcDbEntity
  8
躯体と製品
  6
Continuous
 62
     7
100
AcDbLine
 10
1519.36642314354
 20
821.3198184425987
 30
0.0
 11
1519.36642314354
 21
822.3198184425987
 31
0.0
  0
ARC
  5
6F70
330
1E
100
AcDbEntity
  8
躯体と製品
  6
Continuous
 62
     7
100
AcDbCircle
 10
1504.36642314354
 20
813.0698184425988
 30
0.0
 40
8.25
100
AcDbArc
 50
90.0
 51
108.9246444160544
  0
ARC
  5
6F71
330
1E
100
AcDbEntity
  8
躯体と製品
  6
Continuous
 62
     7
100
AcDbCircle
 10
1498.36642314354
 20
830.5698184425986
 30
0.0
 40
10.25
100
AcDbArc
 50
270.0
 51
288.9246444160544
  0
ARC
  5
6F72
330
1E
100
AcDbEntity
  8
躯体と製品
  6
Continuous
 62
     7
100
AcDbCircle
 10
1534.36642314354
 20
813.0698184425988
 30
0.0
 40
8.25
100
AcDbArc
 50
71.07535558394559
 51
90.0
  0
ARC
  5
6F73
330
1E
100
AcDbEntity
  8
躯体と製品
  6
Continuous
 62
     7
100
AcDbCircle
 10
1540.36642314354
 20
830.5698184425986
 30
0.0
 40
10.25
100
AcDbArc
 50
251.0753555839456
 51
270.0
  0
ARC
  5
6F74
330
1E
100
AcDbEntity
  8
躯体と製品
  6
Continuous
 62
     7
100
AcDbCircle
 10
1534.36642314354
 20
813.0698184425988
 30
0.0
 40
9.25
100
AcDbArc
 50
71.07535558394559
 51
90.0
  0
LINE
  5
6F75
330
1E
100
AcDbEntity
  8
躯体と製品
  6
Continuous
 62
     7
100
AcDbLine
 10
1504.36642314354
 20
822.3198184425987
 30
0.0
 11
1534.36642314354
 21
822.3198184425987
 31
0.0
  0
ARC
  5
6F76
330
1E
100
AcDbEntity
  8
躯体と製品
  6
Continuous
 62
     7
100
AcDbCircle
 10
1504.36642314354
 20
813.0698184425988
 30
0.0
 40
9.25
100
AcDbArc
 50
90.0
 51
108.9246444160544
  0
ARC
  5
6F77
330
1E
100
AcDbEntity
  8
躯体と製品
  6
Continuous
 62
     7
100
AcDbCircle
 10
1498.36642314354
 20
830.5698184425986
 30
0.0
 40
9.25
100
AcDbArc
 50
270.0
 51
288.9246444160544
  0
ARC
  5
6F78
330
1E
100
AcDbEntity
  8
躯体と製品
  6
Continuous
 62
     7
100
AcDbCircle
 10
1540.36642314354
 20
830.5698184425986
 30
0.0
 40
9.25
100
AcDbArc
 50
251.0753555839456
 51
270.0
  0
ARC
  5
6F79
330
1E
100
AcDbEntity
  8
躯体と製品
  6
Continuous
 62
     7
100
AcDbCircle
 10
1469.394982917439
 20
819.320226356138
 30
0.0
 40
2.0
100
AcDbArc
 50
91.15721505316756
 51
175.0000000000005
  0
LINE
  5
6F7A
330
1E
100
AcDbEntity
  8
躯体と製品
  6
Continuous
 62
     7
100
AcDbLine
 10
1498.36642314354
 20
821.3198184425987
 30
0.0
 11
1469.354591238052
 21
821.3198184425987
 31
0.0
  0
LINE
  5
6F7B
330
1E
100
AcDbEntity
  8
躯体と製品
  6
Continuous
 62
     7
100
AcDbLine
 10
1540.36642314354
 20
821.3198184425987
 30
0.0
 11
1644.36642314354
 21
821.3198184425987
 31
0.0
  0
ARC
  5
6F7C
330
1E
100
AcDbEntity
  8
躯体と製品
  6
Continuous
 62
     7
100
AcDbCircle
 10
1644.36642314354
 20
819.3198184425988
 30
0.0
 40
2.0
100
AcDbArc
 50
4.999999999999459
 51
90.0
  0
TEXT
  5
6F7D
330
1E
100
AcDbEntity
  8
図枠
 62
     7
100
AcDbText
 10
1938.96642314354
 20
646.0964001593149
 30
0.0
 40
5.0
  1
（単位：mm）
100
AcDbText
  0
LINE
  5
6F7E
330
1E
100
AcDbEntity
  8
図枠
  6
Continuous
 62
     4
100
AcDbLine
 10
1694.36642314354
 20
888.6668539231568
 30
0.0
 11
1644.36642314354
 21
888.6668539231568
 31
0.0
  0
LINE
  5
6F7F
330
1E
100
AcDbEntity
  8
図枠
  6
Continuous
 62
     4
100
AcDbLine
 10
1694.36642314354
 20
888.6668539231568
 30
0.0
 11
1644.36642314354
 21
886.0464649590049
 31
0.0
  0
LINE
  5
6F80
330
1E
100
AcDbEntity
  8
図枠
  6
Continuous
 62
     4
100
AcDbLine
 10
1644.36642314354
 20
886.0464649590049
 30
0.0
 11
1644.36642314354
 21
888.6668539231568
 31
0.0
  0
LINE
  5
6F81
330
1E
100
AcDbEntity
  8
躯体と製品
  6
CENTER1
 62
     4
100
AcDbLine
 10
1517.641783281803
 20
873.1514218093998
 30
0.0
 11
1519.994454618455
 21
828.2597784534303
 31
0.0
  0
LINE
  5
6F82
330
1E
100
AcDbEntity
  8
躯体と製品
  6
CENTER1
 62
     4
100
AcDbLine
 10
1519.36642314354
 20
845.243332870485
 30
0.0
 11
1519.36642314354
 21
756.3198184425987
 31
0.0
  0
LINE
  5
6F83
330
1E
100
AcDbEntity
  8
躯体と製品
  6
CENTER1
 62
     4
100
AcDbLine
 10
1744.36642314354
 20
916.3657276852589
 30
0.0
 11
1744.36642314354
 21
691.3198184425986
 31
0.0
  0
LINE
  5
6F84
330
1E
100
AcDbEntity
  8
躯体と製品
  6
CENTER1
 62
     4
100
AcDbLine
 10
1969.36642314354
 20
845.243332870485
 30
0.0
 11
1969.36642314354
 21
756.3198184425987
 31
0.0
  0
LINE
  5
6F85
330
1E
100
AcDbEntity
  8
躯体と製品
  6
CENTER1
 62
     4
100
AcDbLine
 10
1971.091063005277
 20
873.1514218093998
 30
0.0
 11
1968.738391668625
 21
828.2597784534303
 31
0.0
  0
LINE
  5
6F86
330
1E
100
AcDbEntity
  8
躯体と製品
  6
Continuous
 62
     7
100
AcDbLine
 10
1960.36642314354
 20
826.3198184425986
 30
0.0
 11
1978.36642314354
 21
826.3198184425986
 31
0.0
  0
LINE
  5
6F87
330
1E
100
AcDbEntity
  8
躯体と製品
  6
Continuous
 62
     7
100
AcDbLine
 10
1978.36642314354
 20
826.3198184425986
 30
0.0
 11
1978.36642314354
 21
824.8198184425987
 31
0.0
  0
LINE
  5
6F88
330
1E
100
AcDbEntity
  8
躯体と製品
  6
Continuous
 62
     7
100
AcDbLine
 10
1960.36642314354
 20
826.3198184425986
 30
0.0
 11
1960.36642314354
 21
824.8198184425987
 31
0.0
  0
ARC
  5
6F89
330
1E
100
AcDbEntity
  8
躯体と製品
  6
Continuous
 62
     7
100
AcDbCircle
 10
1969.36642314354
 20
821.7086654030429
 30
0.0
 40
9.553418012635715
100
AcDbArc
 50
72.41204622604974
 51
107.5879537739502
  0
ARC
  5
6F8A
330
1E
100
AcDbEntity
  8
躯体と製品
  6
Continuous
 62
     7
100
AcDbCircle
 10
1965.036296124618
 20
828.7062606672504
 30
0.0
 40
2.555822748428199
100
AcDbArc
 50
55.61575253203897
 51
124.384247467961
  0
ARC
  5
6F8B
330
1E
100
AcDbEntity
  8
躯体と製品
  6
Continuous
 62
     7
100
AcDbCircle
 10
1973.696550162462
 20
828.7062606672504
 30
0.0
 40
2.555822748428199
100
AcDbArc
 50
55.61575253203897
 51
124.384247467961
  0
LINE
  5
6F8C
330
1E
100
AcDbEntity
  8
躯体と製品
  6
Continuous
 62
     7
100
AcDbLine
 10
1963.592920451644
 20
830.8155014282945
 30
0.0
 11
1963.592920451644
 21
826.3198184425986
 31
0.0
  0
LINE
  5
6F8D
330
1E
100
AcDbEntity
  8
躯体と製品
  6
Continuous
 62
     7
100
AcDbLine
 10
1964.46642314354
 20
831.3198184425987
 30
0.0
 11
1963.592920451644
 21
830.8155014282945
 31
0.0
  0
LINE
  5
6F8E
330
1E
100
AcDbEntity
  8
躯体と製品
  6
Continuous
 62
     7
100
AcDbLine
 10
1964.46642314354
 20
831.3198184425987
 30
0.0
 11
1974.26642314354
 21
831.3198184425987
 31
0.0
  0
LINE
  5
6F8F
330
1E
100
AcDbEntity
  8
躯体と製品
  6
Continuous
 62
     7
100
AcDbLine
 10
1974.26642314354
 20
831.3198184425987
 30
0.0
 11
1975.139925835436
 21
830.8155014282945
 31
0.0
  0
LINE
  5
6F90
330
1E
100
AcDbEntity
  8
躯体と製品
  6
Continuous
 62
     7
100
AcDbLine
 10
1966.479671797592
 20
830.8155014282945
 30
0.0
 11
1966.479671797592
 21
826.3198184425986
 31
0.0
  0
LINE
  5
6F91
330
1E
100
AcDbEntity
  8
躯体と製品
  6
Continuous
 62
     7
100
AcDbLine
 10
1972.253174489488
 20
830.8155014282945
 30
0.0
 11
1972.253174489488
 21
826.3198184425986
 31
0.0
  0
LINE
  5
6F92
330
1E
100
AcDbEntity
  8
躯体と製品
  6
Continuous
 62
     7
100
AcDbLine
 10
1975.139925835436
 20
830.8155014282945
 30
0.0
 11
1975.139925835436
 21
826.3198184425986
 31
0.0
  0
LINE
  5
6F93
330
1E
100
AcDbEntity
  8
躯体と製品
  6
Continuous
 62
     7
100
AcDbLine
 10
1510.36642314354
 20
826.3198184425986
 30
0.0
 11
1528.36642314354
 21
826.3198184425986
 31
0.0
  0
LINE
  5
6F94
330
1E
100
AcDbEntity
  8
躯体と製品
  6
Continuous
 62
     7
100
AcDbLine
 10
1528.36642314354
 20
826.3198184425986
 30
0.0
 11
1528.36642314354
 21
824.8198184425987
 31
0.0
  0
LINE
  5
6F95
330
1E
100
AcDbEntity
  8
躯体と製品
  6
Continuous
 62
     7
100
AcDbLine
 10
1510.36642314354
 20
826.3198184425986
 30
0.0
 11
1510.36642314354
 21
824.8198184425987
 31
0.0
  0
ARC
  5
6F96
330
1E
100
AcDbEntity
  8
躯体と製品
  6
Continuous
 62
     7
100
AcDbCircle
 10
1519.36642314354
 20
821.7086654030429
 30
0.0
 40
9.553418012635715
100
AcDbArc
 50
72.41204622604974
 51
107.5879537739502
  0
ARC
  5
6F97
330
1E
100
AcDbEntity
  8
躯体と製品
  6
Continuous
 62
     7
100
AcDbCircle
 10
1515.036296124618
 20
828.7062606672504
 30
0.0
 40
2.555822748428199
100
AcDbArc
 50
55.61575253203897
 51
124.384247467961
  0
ARC
  5
6F98
330
1E
100
AcDbEntity
  8
躯体と製品
  6
Continuous
 62
     7
100
AcDbCircle
 10
1523.696550162462
 20
828.7062606672504
 30
0.0
 40
2.555822748428199
100
AcDbArc
 50
55.61575253203897
 51
124.384247467961
  0
LINE
  5
6F99
330
1E
100
AcDbEntity
  8
躯体と製品
  6
Continuous
 62
     7
100
AcDbLine
 10
1513.592920451644
 20
830.8155014282945
 30
0.0
 11
1513.592920451644
 21
826.3198184425986
 31
0.0
  0
LINE
  5
6F9A
330
1E
100
AcDbEntity
  8
躯体と製品
  6
Continuous
 62
     7
100
AcDbLine
 10
1514.46642314354
 20
831.3198184425987
 30
0.0
 11
1513.592920451644
 21
830.8155014282945
 31
0.0
  0
LINE
  5
6F9B
330
1E
100
AcDbEntity
  8
躯体と製品
  6
Continuous
 62
     7
100
AcDbLine
 10
1514.46642314354
 20
831.3198184425987
 30
0.0
 11
1524.26642314354
 21
831.3198184425987
 31
0.0
  0
LINE
  5
6F9C
330
1E
100
AcDbEntity
  8
躯体と製品
  6
Continuous
 62
     7
100
AcDbLine
 10
1524.26642314354
 20
831.3198184425987
 30
0.0
 11
1525.139925835436
 21
830.8155014282945
 31
0.0
  0
LINE
  5
6F9D
330
1E
100
AcDbEntity
  8
躯体と製品
  6
Continuous
 62
     7
100
AcDbLine
 10
1516.479671797592
 20
830.8155014282945
 30
0.0
 11
1516.479671797592
 21
826.3198184425986
 31
0.0
  0
LINE
  5
6F9E
330
1E
100
AcDbEntity
  8
躯体と製品
  6
Continuous
 62
     7
100
AcDbLine
 10
1522.253174489488
 20
830.8155014282945
 30
0.0
 11
1522.253174489488
 21
826.3198184425986
 31
0.0
  0
LINE
  5
6F9F
330
1E
100
AcDbEntity
  8
躯体と製品
  6
Continuous
 62
     7
100
AcDbLine
 10
1525.139925835436
 20
830.8155014282945
 30
0.0
 11
1525.139925835436
 21
826.3198184425986
 31
0.0
  0
LINE
  5
6FA0
330
1E
100
AcDbEntity
  8
躯体と製品
  6
Continuous
 62
     7
100
AcDbLine
 10
1516.822677426645
 20
831.4589247654899
 30
0.0
 11
1516.97717064974
 21
831.3198184425987
 31
0.0
  0
LINE
  5
6FA1
330
1E
100
AcDbEntity
  8
躯体と製品
  6
Continuous
 62
     4
100
AcDbLine
 10
1517.126664872259
 20
836.5210116677641
 30
0.0
 11
1517.399247858812
 21
831.3198184425987
 31
0.0
  0
LINE
  5
6FA2
330
1E
100
AcDbEntity
  8
躯体と製品
  6
Continuous
 62
     4
100
AcDbLine
 10
1521.98300029977
 20
836.7755214229735
 30
0.0
 11
1522.2689215774
 21
831.3198184425987
 31
0.0
  0
LINE
  5
6FA3
330
1E
100
AcDbEntity
  8
躯体と製品
  6
Continuous
 62
     7
100
AcDbLine
 10
1522.406461699474
 20
831.3198184425987
 30
0.0
 11
1522.814454635172
 21
831.7729405029472
 31
0.0
  0
LINE
  5
6FA4
330
1E
100
AcDbEntity
  8
躯体と製品
  6
Continuous
 62
     7
100
AcDbLine
 10
1966.326384587606
 20
831.3198184425987
 30
0.0
 11
1965.918391651907
 21
831.7729405029472
 31
0.0
  0
LINE
  5
6FA5
330
1E
100
AcDbEntity
  8
躯体と製品
  6
Continuous
 62
     4
100
AcDbLine
 10
1966.749845987309
 20
836.7755214229735
 30
0.0
 11
1966.46392470968
 21
831.3198184425987
 31
0.0
  0
LINE
  5
6FA6
330
1E
100
AcDbEntity
  8
躯体と製品
  6
Continuous
 62
     4
100
AcDbLine
 10
1971.606181414821
 20
836.5210116677641
 30
0.0
 11
1971.333598428268
 21
831.3198184425987
 31
0.0
  0
LINE
  5
6FA7
330
1E
100
AcDbEntity
  8
躯体と製品
  6
Continuous
 62
     7
100
AcDbLine
 10
1971.910168860435
 20
831.4589247654899
 30
0.0
 11
1971.75567563734
 21
831.3198184425987
 31
0.0
  0
TEXT
  5
6FA8
330
1E
100
AcDbEntity
  8
図枠
 62
     7
100
AcDbText
 10
1566.96642314354
 20
600.3198184425988
 30
0.0
 40
5.0
  1
止水補助板ホルダーＡＬ
100
AcDbText
  0
CIRCLE
  5
6FA9
330
1E
100
AcDbEntity
  8
図枠
  6
Continuous
 62
     4
100
AcDbCircle
 10
2019.3397638823
 20
853.9180125427034
 30
0.0
 40
0.9
  0
CIRCLE
  5
6FAA
330
1E
100
AcDbEntity
  8
図枠
  6
Continuous
 62
     4
100
AcDbCircle
 10
1971.420868180972
 20
855.7829881298662
 30
0.0
 40
0.9
  0
CIRCLE
  5
6FAB
330
1E
100
AcDbEntity
  8
図枠
  6
Continuous
 62
     4
100
AcDbCircle
 10
1967.240412167537
 20
795.2371570444518
 30
0.0
 40
0.9
  0
CIRCLE
  5
6FAC
330
1E
100
AcDbEntity
  8
図枠
  6
Continuous
 62
     4
100
AcDbCircle
 10
1986.970252171929
 20
858.5052407732979
 30
0.0
 40
0.9
  0
CIRCLE
  5
6FAD
330
1E
100
AcDbEntity
  8
図枠
  6
Continuous
 62
     4
100
AcDbCircle
 10
1973.703833972235
 20
828.4203905898571
 30
0.0
 40
0.9
  0
CIRCLE
  5
6FAE
330
1E
100
AcDbEntity
  8
図枠
  6
Continuous
 62
     4
100
AcDbCircle
 10
1979.543905871684
 20
835.8084333542192
 30
0.0
 40
0.9
  0
CIRCLE
  5
6FAF
330
1E
100
AcDbEntity
  8
図枠
  6
Continuous
 62
     4
100
AcDbCircle
 10
2036.26507899391
 20
883.233518250125
 30
0.0
 40
6.0
  0
LINE
  5
6FB0
330
1E
100
AcDbEntity
  8
図枠
  6
Continuous
 62
     4
100
AcDbLine
 10
2019.3397638823
 20
853.9180125427034
 30
0.0
 11
2033.26507899391
 21
878.0373658274186
 31
0.0
  0
CIRCLE
  5
6FB1
330
1E
100
AcDbEntity
  8
図枠
  6
Continuous
 62
     4
100
AcDbCircle
 10
1986.888114727718
 20
834.0711554285544
 30
0.0
 40
0.9
  0
CIRCLE
  5
6FB2
330
1E
100
AcDbEntity
  8
図枠
  6
Continuous
 62
     4
100
AcDbCircle
 10
2014.701168983169
 20
882.2447785126634
 30
0.0
 40
6.0
  0
LINE
  5
6FB3
330
1E
100
AcDbEntity
  8
図枠
  6
Continuous
 62
     4
100
AcDbLine
 10
1986.888114727718
 20
834.0711554285544
 30
0.0
 11
2011.701168983169
 21
877.0486260899568
 31
0.0
  0
CIRCLE
  5
6FB4
330
1E
100
AcDbEntity
  8
図枠
  6
Continuous
 62
     4
100
AcDbCircle
 10
2008.257341944306
 20
895.3755618043325
 30
0.0
 40
6.0
  0
LINE
  5
6FB5
330
1E
100
AcDbEntity
  8
図枠
  6
Continuous
 62
     4
100
AcDbLine
 10
1986.970252171929
 20
858.5052407732979
 30
0.0
 11
2005.257341944306
 21
890.1794093816263
 31
0.0
  0
CIRCLE
  5
6FB6
330
1E
100
AcDbEntity
  8
図枠
  6
Continuous
 62
     4
100
AcDbCircle
 10
1992.246400720005
 20
891.8538685821486
 30
0.0
 40
6.0
  0
LINE
  5
6FB7
330
1E
100
AcDbEntity
  8
図枠
  6
Continuous
 62
     4
100
AcDbLine
 10
1971.420868180972
 20
855.7829881298662
 30
0.0
 11
1989.246400720005
 21
886.657716159442
 31
0.0
  0
CIRCLE
  5
6FB8
330
1E
100
AcDbEntity
  8
図枠
  6
Continuous
 62
     4
100
AcDbCircle
 10
1994.325592003452
 20
810.20580195246
 30
0.0
 40
6.0
  0
LINE
  5
6FB9
330
1E
100
AcDbEntity
  8
図枠
  6
Continuous
 62
     4
100
AcDbLine
 10
1979.543905871684
 20
835.8084333542192
 30
0.0
 11
1991.325592003452
 21
815.4019543751667
 31
0.0
  0
CIRCLE
  5
6FBA
330
1E
100
AcDbEntity
  8
図枠
  6
Continuous
 62
     4
100
AcDbCircle
 10
1993.126219637092
 20
794.7798318141281
 30
0.0
 40
6.0
  0
LINE
  5
6FBB
330
1E
100
AcDbEntity
  8
図枠
  6
Continuous
 62
     4
100
AcDbLine
 10
1973.703833972235
 20
828.4203905898571
 30
0.0
 11
1990.126219637092
 21
799.9759842368346
 31
0.0
  0
CIRCLE
  5
6FBC
330
1E
100
AcDbEntity
  8
図枠
  6
Continuous
 62
     4
100
AcDbCircle
 10
1954.198797972791
 20
772.6484186464397
 30
0.0
 40
6.0
  0
LINE
  5
6FBD
330
1E
100
AcDbEntity
  8
図枠
  6
Continuous
 62
     4
100
AcDbLine
 10
1967.240412167537
 20
795.2371570444518
 30
0.0
 11
1957.198797972791
 21
777.8445710691462
 31
0.0
  0
CIRCLE
  5
6FBE
330
1E
100
AcDbEntity
  8
図枠
  6
Continuous
 62
     4
100
AcDbCircle
 10
1962.244671390519
 20
825.5559753751761
 30
0.0
 40
0.9
  0
CIRCLE
  5
6FBF
330
1E
100
AcDbEntity
  8
図枠
  6
Continuous
 62
     4
100
AcDbCircle
 10
1949.547417758639
 20
803.5636869681727
 30
0.0
 40
6.0
  0
LINE
  5
6FC0
330
1E
100
AcDbEntity
  8
図枠
  6
Continuous
 62
     4
100
AcDbLine
 10
1962.244671390519
 20
825.5559753751761
 30
0.0
 11
1952.547417758639
 21
808.7598393908793
 31
0.0
  0
TEXT
  5
6FC1
330
1E
100
AcDbEntity
  8
図枠
 62
     7
100
AcDbText
 10
2005.257341944306
 20
892.3755618043326
 30
0.0
 40
5.0
  1
５
100
AcDbText
  0
TEXT
  5
6FC2
330
1E
100
AcDbEntity
  8
図枠
 62
     7
100
AcDbText
 10
1988.996400720004
 20
888.8538685821487
 30
0.0
 40
5.0
  1
10
100
AcDbText
  0
TEXT
  5
6FC3
330
1E
100
AcDbEntity
  8
図枠
 62
     7
100
AcDbText
 10
2033.26507899391
 20
880.2335182501249
 30
0.0
 40
5.0
  1
４
100
AcDbText
  0
TEXT
  5
6FC4
330
1E
100
AcDbEntity
  8
図枠
 62
     7
100
AcDbText
 10
2011.701168983169
 20
879.2447785126634
 30
0.0
 40
5.0
  1
２
100
AcDbText
  0
TEXT
  5
6FC5
330
1E
100
AcDbEntity
  8
図枠
 62
     7
100
AcDbText
 10
1991.325592003452
 20
807.2058019524602
 30
0.0
 40
5.0
  1
６
100
AcDbText
  0
TEXT
  5
6FC6
330
1E
100
AcDbEntity
  8
図枠
 62
     7
100
AcDbText
 10
1946.297417758639
 20
800.5636869681728
 30
0.0
 40
5.0
  1
13
100
AcDbText
  0
TEXT
  5
6FC7
330
1E
100
AcDbEntity
  8
図枠
 62
     7
100
AcDbText
 10
1989.876219637092
 20
791.779831814128
 30
0.0
 40
5.0
  1
11
100
AcDbText
  0
TEXT
  5
6FC8
330
1E
100
AcDbEntity
  8
図枠
 62
     7
100
AcDbText
 10
1950.948797972791
 20
769.6484186464394
 30
0.0
 40
5.0
  1
12
100
AcDbText
  0
CIRCLE
  5
6FC9
330
1E
100
AcDbEntity
  8
図枠
  6
Continuous
 62
     4
100
AcDbCircle
 10
2077.789133325519
 20
849.9094443448207
 30
0.0
 40
0.9
  0
LINE
  5
6FCA
330
1E
100
AcDbEntity
  8
図枠
  6
Continuous
 62
     4
100
AcDbLine
 10
2077.789133325519
 20
849.9094443448207
 30
0.0
 11
2101.425614468921
 21
890.8490305973366
 31
0.0
  0
TEXT
  5
6FCB
330
1E
100
AcDbEntity
  8
図枠
 62
     7
100
AcDbText
 10
2101.425614468921
 20
893.0451830200436
 30
0.0
 40
5.0
  1
７
100
AcDbText
  0
CIRCLE
  5
6FCC
330
1E
100
AcDbEntity
  8
図枠
  6
Continuous
 62
     4
100
AcDbCircle
 10
2104.425614468921
 20
896.0451830200435
 30
0.0
 40
6.0
  0
CIRCLE
  5
6FCD
330
1E
100
AcDbEntity
  8
図枠
  6
Continuous
 62
     4
100
AcDbCircle
 10
1690.711256387185
 20
718.1903756953745
 30
0.0
 40
0.9
  0
LINE
  5
6FCE
330
1E
100
AcDbEntity
  8
図枠
  6
Continuous
 62
     4
100
AcDbLine
 10
1690.711256387185
 20
718.1903756953745
 30
0.0
 11
1704.594543573606
 21
742.2369344783269
 31
0.0
  0
TEXT
  5
6FCF
330
1E
100
AcDbEntity
  8
図枠
 62
     7
100
AcDbText
 10
1704.594543573606
 20
744.4330869010335
 30
0.0
 40
5.0
  1
９
100
AcDbText
  0
CIRCLE
  5
6FD0
330
1E
100
AcDbEntity
  8
図枠
  6
Continuous
 62
     4
100
AcDbCircle
 10
1707.594543573607
 20
747.4330869010335
 30
0.0
 40
6.0
  0
CIRCLE
  5
6FD1
330
1E
100
AcDbEntity
  8
図枠
  6
Continuous
 62
     4
100
AcDbCircle
 10
2058.896693458942
 20
784.6596713812657
 30
0.0
 40
0.9
  0
LINE
  5
6FD2
330
1E
100
AcDbEntity
  8
図枠
  6
Continuous
 62
     4
100
AcDbLine
 10
2058.896693458942
 20
784.6596713812657
 30
0.0
 11
2069.354140995573
 21
766.5468409303359
 31
0.0
  0
CIRCLE
  5
6FD3
330
1E
100
AcDbEntity
  8
図枠
  6
Continuous
 62
     4
100
AcDbCircle
 10
2072.354140995573
 20
761.3506885076292
 30
0.0
 40
6.0
  0
TEXT
  5
6FD4
330
1E
100
AcDbEntity
  8
図枠
 62
     7
100
AcDbText
 10
2069.354140995573
 20
758.3506885076292
 30
0.0
 40
5.0
  1
８
100
AcDbText
  0
CIRCLE
  5
6FD5
330
1E
100
AcDbEntity
  8
図枠
  6
Continuous
 62
     4
100
AcDbCircle
 10
1429.836152828138
 20
784.6596713812657
 30
0.0
 40
0.9
  0
LINE
  5
6FD6
330
1E
100
AcDbEntity
  8
図枠
  6
Continuous
 62
     4
100
AcDbLine
 10
1429.836152828138
 20
784.6596713812657
 30
0.0
 11
1419.378705291507
 21
766.5468409303359
 31
0.0
  0
CIRCLE
  5
6FD7
330
1E
100
AcDbEntity
  8
図枠
  6
Continuous
 62
     4
100
AcDbCircle
 10
1416.378705291507
 20
761.3506885076292
 30
0.0
 40
6.0
  0
TEXT
  5
6FD8
330
1E
100
AcDbEntity
  8
図枠
 62
     7
100
AcDbText
 10
1413.378705291507
 20
758.3506885076292
 30
0.0
 40
5.0
  1
８
100
AcDbText
  0
CIRCLE
  5
6FD9
330
1E
100
AcDbEntity
  8
図枠
  6
Continuous
 62
     4
100
AcDbCircle
 10
2076.632178855271
 20
802.3279866697334
 30
0.0
 40
0.9
  0
LINE
  5
6FDA
330
1E
100
AcDbEntity
  8
図枠
  6
Continuous
 62
     4
100
AcDbLine
 10
2076.632178855271
 20
802.3279866697334
 30
0.0
 11
2101.600192671627
 21
845.5738551637443
 31
0.0
  0
TEXT
  5
6FDB
330
1E
100
AcDbEntity
  8
図枠
 62
     7
100
AcDbText
 10
2101.600192671627
 20
847.7700075864509
 30
0.0
 40
5.0
  1
３
100
AcDbText
  0
CIRCLE
  5
6FDC
330
1E
100
AcDbEntity
  8
図枠
  6
Continuous
 62
     4
100
AcDbCircle
 10
2104.600192671627
 20
850.7700075864509
 30
0.0
 40
6.0
  0
CIRCLE
  5
6FDD
330
1E
100
AcDbEntity
  8
図枠
  6
Continuous
 62
     4
100
AcDbCircle
 10
2077.575779115418
 20
868.0882328015945
 30
0.0
 40
0.9
  0
LINE
  5
6FDE
330
1E
100
AcDbEntity
  8
図枠
  6
Continuous
 62
     4
100
AcDbLine
 10
2077.575779115418
 20
868.0882328015945
 30
0.0
 11
2102.712260258821
 21
911.6258952654639
 31
0.0
  0
TEXT
  5
6FDF
330
1E
100
AcDbEntity
  8
図枠
 62
     7
100
AcDbText
 10
2102.712260258821
 20
913.8220476881707
 30
0.0
 40
5.0
  1
１
100
AcDbText
  0
CIRCLE
  5
6FE0
330
1E
100
AcDbEntity
  8
図枠
  6
Continuous
 62
     4
100
AcDbCircle
 10
2105.712260258821
 20
916.8220476881707
 30
0.0
 40
6.0
  0
TEXT
  5
6FE1
330
1E
100
AcDbEntity
  8
図枠
 62
     6
100
AcDbText
 10
1371.512931852675
 20
985.7894505993508
 30
0.0
 40
10.0
  1
◇ステンレス２００タイプ（２００ＦＹＹ－Ｓ）
100
AcDbText
  0
TEXT
  5
6FE2
330
1E
100
AcDbEntity
  8
図枠
 62
     6
100
AcDbText
 10
1371.905999519239
 20
955.0190494120355
 30
0.0
 40
10.0
  1
　　Ｓ＝１／２
100
AcDbText
  0
TEXT
  5
6FE3
330
1E
100
AcDbEntity
  8
図枠
 62
     6
100
AcDbText
 10
1371.905999519239
 20
971.2702571415041
 30
0.0
 40
10.0
  1
　　屋根－屋根
100
AcDbText
  0
DIMENSION
  5
6FE4
330
1E
100
AcDbEntity
  8
寸法
  6
Continuous
100
AcDbDimension
  2
*D4
 10
2094.366423143541
 20
945.3198184425987
 30
0.0
 11
1744.36642314354
 21
948.8198184425987
 31
0.0
 70
    32
  1
W
 71
     5
 42
700.0000000000004
  3
AutoCAD
100
AcDbAlignedDimension
 13
1394.36642314354
 23
869.9376584082552
 33
0.0
 14
2094.366423143541
 24
869.9376584082552
 34
0.0
100
AcDbRotatedDimension
  0
DIMENSION
  5
6FF1
330
1E
100
AcDbEntity
  8
寸法
  6
Continuous
100
AcDbDimension
  2
*D5
 10
2154.366423143541
 20
777.9376584082552
 30
0.0
 11
2150.86642314354
 21
822.9376584082555
 31
0.0
 70
    32
 71
     5
 42
90.0
  3
AutoCAD
100
AcDbAlignedDimension
 13
2096.366423143541
 23
867.9376584082552
 33
0.0
 14
2096.366423143541
 24
777.9376584082552
 34
0.0
 50
90.0
100
AcDbRotatedDimension
  0
DIMENSION
  5
6FFE
330
1E
100
AcDbEntity
  8
寸法
  6
Continuous
100
AcDbDimension
  2
*D6
 10
2134.366423143541
 20
777.9376584082552
 30
0.0
 11
2130.86642314354
 21
799.1287384254272
 31
0.0
 70
    32
  1
44
 71
     5
 42
42.38216003434354
  3
AutoCAD
100
AcDbAlignedDimension
 13
2023.070149622165
 23
820.3198184425987
 33
0.0
 14
2096.366423143541
 24
777.9376584082552
 34
0.0
 50
90.0
100
AcDbRotatedDimension
  0
DIMENSION
  5
700B
330
1E
100
AcDbEntity
  8
寸法
  6
Continuous
100
AcDbDimension
  2
*D7
 10
1969.36642314354
 20
760.3198184425987
 30
0.0
 11
1994.36642314354
 21
763.8198184425987
 31
0.0
 70
    32
 71
     5
 42
50.0
  3
AutoCAD
100
AcDbAlignedDimension
 13
2019.36642314354
 23
760.3198184425987
 33
0.0
 14
1969.36642314354
 24
760.3198184425987
 34
0.0
100
AcDbRotatedDimension
  0
DIMENSION
  5
7016
330
1E
100
AcDbEntity
  8
寸法
  6
Continuous
100
AcDbDimension
  2
*D8
 10
1519.36642314354
 20
760.3198184425987
 30
0.0
 11
1494.36642314354
 21
763.8198184425987
 31
0.0
 70
    32
 71
     5
 42
49.99999999999977
  3
AutoCAD
100
AcDbAlignedDimension
 13
1469.36642314354
 23
760.3198184425987
 33
0.0
 14
1519.36642314354
 24
760.3198184425987
 34
0.0
100
AcDbRotatedDimension
  0
DIMENSION
  5
7021
330
1E
100
AcDbEntity
  8
寸法
  6
Continuous
100
AcDbDimension
  2
*D9
 10
1469.36642314354
 20
680.3198184425987
 30
0.0
 11
1431.86642314354
 21
683.8198184425987
 31
0.0
 70
    32
  1
75≦
 71
     5
 42
75.00000000000023
  3
AutoCAD
100
AcDbAlignedDimension
 13
1394.36642314354
 23
775.9376584082554
 33
0.0
 14
1469.36642314354
 24
680.3198184425987
 34
0.0
100
AcDbRotatedDimension
  0
DIMENSION
  5
702D
330
1E
100
AcDbEntity
  8
寸法
  6
Continuous
100
AcDbDimension
  2
*D10
 10
1644.36642314354
 20
680.3198184425987
 30
0.0
 11
1556.86642314354
 21
683.8198184425987
 31
0.0
 70
    32
  1
≦Ｃ
 71
     5
 42
175.0
  3
AutoCAD
100
AcDbAlignedDimension
 13
1469.36642314354
 23
680.3198184425987
 33
0.0
 14
1644.36642314354
 24
680.3198184425987
 34
0.0
100
AcDbRotatedDimension
1001
ACAD
1000
DSTYLE
1002
{
1070
   279
1070
     1
1002
}
  0
DIMENSION
  5
7038
330
1E
100
AcDbEntity
  8
寸法
  6
Continuous
100
AcDbDimension
  2
*D11
 10
1844.366423143539
 20
680.3198184425987
 30
0.0
 11
1744.36642314354
 21
683.8198184425987
 31
0.0
 70
    32
 71
     5
 42
199.9999999999993
  3
AutoCAD
100
AcDbAlignedDimension
 13
1644.36642314354
 23
680.3198184425987
 33
0.0
 14
1844.366423143539
 24
680.3198184425987
 34
0.0
100
AcDbRotatedDimension
1001
ACAD
1000
DSTYLE
1002
{
1070
   279
1070
     1
1002
}
  0
DIMENSION
  5
7043
330
1E
100
AcDbEntity
  8
寸法
  6
Continuous
100
AcDbDimension
  2
*D12
 10
2019.366423143541
 20
680.3198184425987
 30
0.0
 11
1931.86642314354
 21
683.8198184425987
 31
0.0
 70
    32
  1
≦Ｃ
 71
     5
 42
175.0000000000009
  3
AutoCAD
100
AcDbAlignedDimension
 13
1844.366423143539
 23
680.3198184425987
 33
0.0
 14
2019.366423143541
 24
680.3198184425987
 34
0.0
100
AcDbRotatedDimension
1001
ACAD
1000
DSTYLE
1002
{
1070
   279
1070
     1
1002
}
  0
DIMENSION
  5
704E
330
1E
100
AcDbEntity
  8
寸法
  6
Continuous
100
AcDbDimension
  2
*D13
 10
2094.366423143541
 20
680.3198184425987
 30
0.0
 11
2056.86642314354
 21
683.8198184425987
 31
0.0
 70
    32
  1
75≦
 71
     5
 42
75.0
  3
AutoCAD
100
AcDbAlignedDimension
 13
2019.366423143541
 23
680.3198184425987
 33
0.0
 14
2094.366423143541
 24
775.9376584082554
 34
0.0
100
AcDbRotatedDimension
1001
ACAD
1000
DSTYLE
1002
{
1070
   279
1070
     1
1002
}
  0
ENDSEC
  0
SECTION
  2
OBJECTS
  0
DICTIONARY
  5
C
330
0
100
AcDbDictionary
281
     1
  3
ACAD_COLOR
350
6779
  3
ACAD_GROUP
350
D
  3
ACAD_LAYOUT
350
19
  3
ACAD_MATERIAL
350
6778
  3
ACAD_MLINESTYLE
350
16
  3
ACAD_PLOTSETTINGS
350
18
  3
ACAD_PLOTSTYLENAME
350
E
  3
ACAD_TABLESTYLE
350
677A
  3
ACDBHEADERROUNDTRIPXREC
350
709A
  3
AcDbVariableDictionary
350
169
  0
DICTIONARY
  5
175
330
2
100
AcDbDictionary
280
     1
281
     1
  3
ACAD_LAYERFILTERS
360
708F
  3
ACAD_LAYERSTATES
360
176
  3
ACLYDICTIONARY
360
708E
  0
DICTIONARY
  5
28B
330
1E
100
AcDbDictionary
280
     1
281
     1
  3
ACAD_LAYOUTSELFREF
360
6771
  0
DICTIONARY
  5
28D
330
1A
100
AcDbDictionary
280
     1
281
     1
  3
ACAD_LAYOUTSELFREF
360
6770
  0
DICTIONARY
  5
6779
102
{ACAD_REACTORS
330
C
102
}
330
C
100
AcDbDictionary
281
     1
  0
DICTIONARY
  5
D
102
{ACAD_REACTORS
330
C
102
}
330
C
100
AcDbDictionary
281
     1
  0
DICTIONARY
  5
19
102
{ACAD_REACTORS
330
C
102
}
330
C
100
AcDbDictionary
281
     1
  3
Model
350
21
  3
ﾚｲｱｳﾄ1
350
1D
  0
DICTIONARY
  5
6778
102
{ACAD_REACTORS
330
C
102
}
330
C
100
AcDbDictionary
281
     1
  0
DICTIONARY
  5
16
102
{ACAD_REACTORS
330
C
102
}
330
C
100
AcDbDictionary
281
     1
  3
Standard
350
17
  0
DICTIONARY
  5
18
102
{ACAD_REACTORS
330
C
102
}
330
C
100
AcDbDictionary
281
     1
  0
ACDBDICTIONARYWDFLT
  5
E
102
{ACAD_REACTORS
330
C
102
}
330
C
100
AcDbDictionary
281
     1
  3
Normal
350
F
100
AcDbDictionaryWithDefault
340
F
1001
ACAD
1000
TREAT_AS_HARD
1070
     0
1000
TREAT_AS_HARD
1070
     0
1000
TREAT_AS_HARD
1070
     0
1000
TREAT_AS_HARD
1070
     0
1000
TREAT_AS_HARD
1070
     0
1000
TREAT_AS_HARD
1070
     0
1000
TREAT_AS_HARD
1070
     0
1000
TREAT_AS_HARD
1070
     0
1000
TREAT_AS_HARD
1070
     0
1000
TREAT_AS_HARD
1070
     0
1000
TREAT_AS_HARD
1070
     0
1000
TREAT_AS_HARD
1070
     0
1000
TREAT_AS_HARD
1070
     0
1000
TREAT_AS_HARD
1070
     0
1000
TREAT_AS_HARD
1070
     0
1000
TREAT_AS_HARD
1070
     0
1000
TREAT_AS_HARD
1070
     0
1000
TREAT_AS_HARD
1070
     0
1000
TREAT_AS_HARD
1070
     0
1000
TREAT_AS_HARD
1070
     0
1000
TREAT_AS_HARD
1070
     0
1000
TREAT_AS_HARD
1070
     0
1000
TREAT_AS_HARD
1070
     0
1000
TREAT_AS_HARD
1070
     0
1000
TREAT_AS_HARD
1070
     0
1000
TREAT_AS_HARD
1070
     0
  0
DICTIONARY
  5
677A
102
{ACAD_REACTORS
330
C
102
}
330
C
100
AcDbDictionary
281
     1
  3
Standard
350
677B
  0
DICTIONARY
  5
709A
102
{ACAD_REACTORS
330
C
102
}
330
C
100
AcDbDictionary
281
     1
  0
DICTIONARY
  5
169
102
{ACAD_REACTORS
330
C
102
}
330
C
100
AcDbDictionary
281
     1
  3
CTABLESTYLE
350
6782
  3
DIMASSOC
350
16A
  3
PROJECTNAME
350
7098
  0
DICTIONARY
  5
708F
102
{ACAD_REACTORS
330
175
102
}
330
175
100
AcDbDictionary
281
     1
  0
DICTIONARY
  5
176
102
{ACAD_REACTORS
330
175
102
}
330
175
100
AcDbDictionary
281
     1
  3
ACAD
350
177
  0
DICTIONARY
  5
708E
102
{ACAD_REACTORS
330
175
102
}
330
175
100
AcDbDictionary
281
     1
1001
ACAD
1000
<All
  0
XRECORD
  5
6771
102
{ACAD_REACTORS
330
28B
102
}
330
28B
100
AcDbXrecord
280
     1
340
1E
  0
XRECORD
  5
6770
102
{ACAD_REACTORS
330
28D
102
}
330
28D
100
AcDbXrecord
280
     1
340
1A
  0
LAYOUT
  5
21
102
{ACAD_XDICTIONARY
360
709D
102
}
102
{ACAD_REACTORS
330
19
102
}
330
19
100
AcDbPlotSettings
  1

  2
\\MEISEI-1\EPSON Stylus Photo EX3
  4

  6

 40
0.0
 41
0.0
 42
0.0
 43
0.0
 44
0.0
 45
0.0
 46
0.0
 47
0.0
 48
0.0
 49
0.0
140
0.0
141
0.0
142
1.0
143
1.0
 70
  1712
 72
     0
 73
     0
 74
     0
  7

 75
     0
147
1.0
148
0.0
149
0.0
100
AcDbLayout
  1
Model
 70
     1
 71
     0
 10
0.0
 20
0.0
 11
12.0
 21
9.0
 12
0.0
 22
0.0
 32
0.0
 14
0.0
 24
0.0
 34
0.0
 15
0.0
 25
0.0
 35
0.0
146
0.0
 13
0.0
 23
0.0
 33
0.0
 16
1.0
 26
0.0
 36
0.0
 17
0.0
 27
1.0
 37
0.0
 76
     0
330
1E
  0
LAYOUT
  5
1D
102
{ACAD_XDICTIONARY
360
709B
102
}
102
{ACAD_REACTORS
330
19
102
}
330
19
100
AcDbPlotSettings
  1

  2
\\MEISEI-1\EPSON Stylus Photo EX3
  4

  6

 40
0.0
 41
0.0
 42
0.0
 43
0.0
 44
0.0
 45
0.0
 46
0.0
 47
0.0
 48
0.0
 49
0.0
140
0.0
141
0.0
142
1.0
143
1.0
 70
   688
 72
     0
 73
     0
 74
     5
  7

 75
    16
147
1.0
148
0.0
149
0.0
100
AcDbLayout
  1
ﾚｲｱｳﾄ1
 70
     1
 71
     1
 10
0.0
 20
0.0
 11
12.0
 21
9.0
 12
0.0
 22
0.0
 32
0.0
 14
1.000000000000000E+20
 24
1.000000000000000E+20
 34
1.000000000000000E+20
 15
-1.000000000000000E+20
 25
-1.000000000000000E+20
 35
-1.000000000000000E+20
146
0.0
 13
0.0
 23
0.0
 33
0.0
 16
1.0
 26
0.0
 36
0.0
 17
0.0
 27
1.0
 37
0.0
 76
     0
330
1A
  0
MLINESTYLE
  5
17
102
{ACAD_REACTORS
330
16
102
}
330
16
100
AcDbMlineStyle
  2
STANDARD
 70
     0
  3

 62
   256
 51
90.0
 52
90.0
 71
     2
 49
0.5
 62
   256
  6
BYLAYER
 49
-0.5
 62
   256
  6
BYLAYER
  0
ACDBPLACEHOLDER
  5
F
102
{ACAD_REACTORS
330
E
102
}
330
E
  0
TABLESTYLE
  5
677B
102
{ACAD_REACTORS
330
677A
102
}
330
677A
100
AcDbTableStyle
  3
Standard
 70
     0
 71
     0
 40
0.06
 41
0.06
280
     0
281
     0
  7
STANDARD
140
0.18
170
     2
 62
     0
 63
     7
283
     0
274
    -2
284
     1
 64
     0
275
    -2
285
     1
 65
     0
276
    -2
286
     1
 66
     0
277
    -2
287
     1
 67
     0
278
    -2
288
     1
 68
     0
279
    -2
289
     1
 69
     0
  7
STANDARD
140
0.25
170
     5
 62
     0
 63
     7
283
     0
274
    -2
284
     1
 64
     0
275
    -2
285
     1
 65
     0
276
    -2
286
     1
 66
     0
277
    -2
287
     1
 67
     0
278
    -2
288
     1
 68
     0
279
    -2
289
     1
 69
     0
  7
STANDARD
140
0.18
170
     5
 62
     0
 63
     7
283
     0
274
    -2
284
     1
 64
     0
275
    -2
285
     1
 65
     0
276
    -2
286
     1
 66
     0
277
    -2
287
     1
 67
     0
278
    -2
288
     1
 68
     0
279
    -2
289
     1
 69
     0
  0
DICTIONARYVAR
  5
6782
102
{ACAD_REACTORS
330
169
102
}
330
169
100
DictionaryVariables
280
     0
  1
STANDARD
  0
DICTIONARYVAR
  5
16A
102
{ACAD_REACTORS
330
169
102
}
330
169
100
DictionaryVariables
280
     0
  1
1
  0
DICTIONARYVAR
  5
7098
102
{ACAD_REACTORS
330
169
102
}
330
169
100
DictionaryVariables
280
     0
  1

  0
XRECORD
  5
177
102
{ACAD_REACTORS
330
176
102
}
330
176
100
AcDbXrecord
280
     1
 91
      476
330
179
 90
        8
 62
     7
370
    -3
331
15
  1
Color_7
330
178
 90
        8
 62
     7
370
    -3
331
15
  1
Color_7
330
128
 90
        0
 62
     7
370
    -3
331
15
  1
Color_7
330
10
 90
        8
 62
     7
370
    -3
331
15
  1
Color_7
  0
DICTIONARY
  5
709D
330
21
100
AcDbDictionary
280
     1
281
     1
  3
ACAD_XREC_ROUNDTRIP
360
709E
  0
DICTIONARY
  5
709B
330
1D
100
AcDbDictionary
280
     1
281
     1
  3
ACAD_XREC_ROUNDTRIP
360
709C
  0
XRECORD
  5
709E
102
{ACAD_REACTORS
330
709D
102
}
330
709D
100
AcDbXrecord
280
     1
102
SHADEPLOT
 70
     0
102
SHADEPLOTRESLEVEL
 70
     2
102
SHADEPLOTCUSTOMDPI
 70
   300
  0
XRECORD
  5
709C
102
{ACAD_REACTORS
330
709B
102
}
330
709B
100
AcDbXrecord
280
     1
102
SHADEPLOT
 70
     0
102
SHADEPLOTRESLEVEL
 70
     2
102
SHADEPLOTCUSTOMDPI
 70
   300
  0
ENDSEC
  0
EOF
