  0
SECTION
  2
HEADER
  9
$ACADVER
  1
AC1015
  9
$ACADMAINTVER
 70
    20
  9
$DWGCODEPAGE
  3
ANSI_932
  9
$INSBASE
 10
0.0
 20
0.0
 30
0.0
  9
$EXTMIN
 10
1301.50167276254
 20
379.992984147465
 30
-0.0000000349181948
  9
$EXTMAX
 10
2125.643351387076
 20
956.0803162684823
 30
0.0000000814935746
  9
$LIMMIN
 10
0.0
 20
0.0
  9
$LIMMAX
 10
420.0
 20
297.0
  9
$ORTHOMODE
 70
     0
  9
$REGENMODE
 70
     1
  9
$FILLMODE
 70
     1
  9
$QTEXTMODE
 70
     0
  9
$MIRRTEXT
 70
     1
  9
$LTSCALE
 40
1.0
  9
$ATTMODE
 70
     1
  9
$TEXTSIZE
 40
5.0
  9
$TRACEWID
 40
0.05
  9
$TEXTSTYLE
  7
ACAD
  9
$CLAYER
  8
0
  9
$CELTYPE
  6
CONTINUOUS
  9
$CECOLOR
 62
   256
  9
$CELTSCALE
 40
1.0
  9
$DISPSILH
 70
     0
  9
$DIMSCALE
 40
1.0
  9
$DIMASZ
 40
1.0
  9
$DIMEXO
 40
0.0
  9
$DIMDLI
 40
0.38
  9
$DIMRND
 40
0.0
  9
$DIMDLE
 40
0.0
  9
$DIMEXE
 40
0.0
  9
$DIMTP
 40
0.0
  9
$DIMTM
 40
0.0
  9
$DIMTXT
 40
5.0
  9
$DIMCEN
 40
0.09
  9
$DIMTSZ
 40
0.0
  9
$DIMTOL
 70
     0
  9
$DIMLIM
 70
     0
  9
$DIMTIH
 70
     0
  9
$DIMTOH
 70
     1
  9
$DIMSE1
 70
     0
  9
$DIMSE2
 70
     0
  9
$DIMTAD
 70
     1
  9
$DIMZIN
 70
     0
  9
$DIMBLK
  1
Dot
  9
$DIMASO
 70
     1
  9
$DIMSHO
 70
     1
  9
$DIMPOST
  1

  9
$DIMAPOST
  1

  9
$DIMALT
 70
     0
  9
$DIMALTD
 70
     2
  9
$DIMALTF
 40
25.4
  9
$DIMLFAC
 40
1.0
  9
$DIMTOFL
 70
     0
  9
$DIMTVP
 40
0.0
  9
$DIMTIX
 70
     1
  9
$DIMSOXD
 70
     0
  9
$DIMSAH
 70
     0
  9
$DIMBLK1
  1

  9
$DIMBLK2
  1

  9
$DIMSTYLE
  2
AutoCAD
  9
$DIMCLRD
 70
     4
  9
$DIMCLRE
 70
     4
  9
$DIMCLRT
 70
     3
  9
$DIMTFAC
 40
1.0
  9
$DIMGAP
 40
1.0
  9
$DIMJUST
 70
     0
  9
$DIMSD1
 70
     0
  9
$DIMSD2
 70
     0
  9
$DIMTOLJ
 70
     1
  9
$DIMTZIN
 70
     0
  9
$DIMALTZ
 70
     0
  9
$DIMALTTZ
 70
     0
  9
$DIMUPT
 70
     0
  9
$DIMDEC
 70
     0
  9
$DIMTDEC
 70
     0
  9
$DIMALTU
 70
     2
  9
$DIMALTTD
 70
     2
  9
$DIMTXSTY
  7
ACAD
  9
$DIMAUNIT
 70
     0
  9
$DIMADEC
 70
     0
  9
$DIMALTRND
 40
0.0
  9
$DIMAZIN
 70
     0
  9
$DIMDSEP
 70
    46
  9
$DIMATFIT
 70
     0
  9
$DIMFRAC
 70
     0
  9
$DIMLDRBLK
  1
None
  9
$DIMLUNIT
 70
     2
  9
$DIMLWD
 70
    -2
  9
$DIMLWE
 70
    -2
  9
$DIMTMOVE
 70
     0
  9
$LUNITS
 70
     2
  9
$LUPREC
 70
     4
  9
$SKETCHINC
 40
0.1
  9
$FILLETRAD
 40
0.0
  9
$AUNITS
 70
     0
  9
$AUPREC
 70
     0
  9
$MENU
  1
.
  9
$ELEVATION
 40
0.0
  9
$PELEVATION
 40
0.0
  9
$THICKNESS
 40
0.0
  9
$LIMCHECK
 70
     0
  9
$CHAMFERA
 40
0.0
  9
$CHAMFERB
 40
0.0
  9
$CHAMFERC
 40
0.0
  9
$CHAMFERD
 40
0.0
  9
$SKPOLY
 70
     0
  9
$TDCREATE
 40
2454316.693457674
  9
$TDUCREATE
 40
2454316.318457674
  9
$TDUPDATE
 40
2454733.675068901
  9
$TDUUPDATE
 40
2454733.300068900
  9
$TDINDWG
 40
0.2460555556
  9
$TDUSRTIMER
 40
0.2460555556
  9
$USRTIMER
 70
     1
  9
$ANGBASE
 50
0.0
  9
$ANGDIR
 70
     0
  9
$PDMODE
 70
     0
  9
$PDSIZE
 40
0.0
  9
$PLINEWID
 40
0.0
  9
$SPLFRAME
 70
     0
  9
$SPLINETYPE
 70
     6
  9
$SPLINESEGS
 70
     8
  9
$HANDSEED
  5
70AB
  9
$SURFTAB1
 70
     6
  9
$SURFTAB2
 70
     6
  9
$SURFTYPE
 70
     6
  9
$SURFU
 70
     6
  9
$SURFV
 70
     6
  9
$UCSBASE
  2

  9
$UCSNAME
  2

  9
$UCSORG
 10
0.0
 20
0.0
 30
0.0
  9
$UCSXDIR
 10
1.0
 20
0.0
 30
0.0
  9
$UCSYDIR
 10
0.0
 20
1.0
 30
0.0
  9
$UCSORTHOREF
  2

  9
$UCSORTHOVIEW
 70
     0
  9
$UCSORGTOP
 10
0.0
 20
0.0
 30
0.0
  9
$UCSORGBOTTOM
 10
0.0
 20
0.0
 30
0.0
  9
$UCSORGLEFT
 10
0.0
 20
0.0
 30
0.0
  9
$UCSORGRIGHT
 10
0.0
 20
0.0
 30
0.0
  9
$UCSORGFRONT
 10
0.0
 20
0.0
 30
0.0
  9
$UCSORGBACK
 10
0.0
 20
0.0
 30
0.0
  9
$PUCSBASE
  2

  9
$PUCSNAME
  2

  9
$PUCSORG
 10
0.0
 20
0.0
 30
0.0
  9
$PUCSXDIR
 10
1.0
 20
0.0
 30
0.0
  9
$PUCSYDIR
 10
0.0
 20
1.0
 30
0.0
  9
$PUCSORTHOREF
  2

  9
$PUCSORTHOVIEW
 70
     0
  9
$PUCSORGTOP
 10
0.0
 20
0.0
 30
0.0
  9
$PUCSORGBOTTOM
 10
0.0
 20
0.0
 30
0.0
  9
$PUCSORGLEFT
 10
0.0
 20
0.0
 30
0.0
  9
$PUCSORGRIGHT
 10
0.0
 20
0.0
 30
0.0
  9
$PUCSORGFRONT
 10
0.0
 20
0.0
 30
0.0
  9
$PUCSORGBACK
 10
0.0
 20
0.0
 30
0.0
  9
$USERI1
 70
     0
  9
$USERI2
 70
     0
  9
$USERI3
 70
     0
  9
$USERI4
 70
     0
  9
$USERI5
 70
     0
  9
$USERR1
 40
0.0
  9
$USERR2
 40
0.0
  9
$USERR3
 40
0.0
  9
$USERR4
 40
0.0
  9
$USERR5
 40
0.0
  9
$WORLDVIEW
 70
     1
  9
$SHADEDGE
 70
     3
  9
$SHADEDIF
 70
    70
  9
$TILEMODE
 70
     1
  9
$MAXACTVP
 70
    48
  9
$PINSBASE
 10
0.0
 20
0.0
 30
0.0
  9
$PLIMCHECK
 70
     0
  9
$PEXTMIN
 10
1.000000000000000E+20
 20
1.000000000000000E+20
 30
1.000000000000000E+20
  9
$PEXTMAX
 10
-1.000000000000000E+20
 20
-1.000000000000000E+20
 30
-1.000000000000000E+20
  9
$PLIMMIN
 10
0.0
 20
0.0
  9
$PLIMMAX
 10
12.0
 20
9.0
  9
$UNITMODE
 70
     0
  9
$VISRETAIN
 70
     0
  9
$PLINEGEN
 70
     0
  9
$PSLTSCALE
 70
     1
  9
$TREEDEPTH
 70
  3020
  9
$CMLSTYLE
  2
Standard
  9
$CMLJUST
 70
     0
  9
$CMLSCALE
 40
1.0
  9
$PROXYGRAPHICS
 70
     1
  9
$MEASUREMENT
 70
     0
  9
$CELWEIGHT
370
    -1
  9
$ENDCAPS
280
     0
  9
$JOINSTYLE
280
     0
  9
$LWDISPLAY
290
     0
  9
$INSUNITS
 70
     0
  9
$HYPERLINKBASE
  1

  9
$STYLESHEET
  1

  9
$XEDIT
290
     1
  9
$CEPSNTYPE
380
     0
  9
$PSTYLEMODE
290
     1
  9
$FINGERPRINTGUID
  2
{CC7D6DEE-A9F1-4F3E-AC95-C84B62CCA3FD}
  9
$VERSIONGUID
  2
{370B444F-7F0A-4640-9E57-F2B32D925CC4}
  9
$EXTNAMES
290
     1
  9
$PSVPSCALE
 40
0.0
  9
$OLESTARTUP
290
     0
  0
ENDSEC
  0
SECTION
  2
CLASSES
  0
CLASS
  1
ACDBDICTIONARYWDFLT
  2
AcDbDictionaryWithDefault
  3
ObjectDBX Classes
 90
        0
280
     0
281
     0
  0
CLASS
  1
ACDBPLACEHOLDER
  2
AcDbPlaceHolder
  3
ObjectDBX Classes
 90
        0
280
     0
281
     0
  0
CLASS
  1
LAYOUT
  2
AcDbLayout
  3
ObjectDBX Classes
 90
        0
280
     0
281
     0
  0
CLASS
  1
DICTIONARYVAR
  2
AcDbDictionaryVar
  3
ObjectDBX Classes
 90
        0
280
     0
281
     0
  0
CLASS
  1
TABLESTYLE
  2
AcDbTableStyle
  3
ObjectDBX Classes
 90
     2047
280
     0
281
     0
  0
ENDSEC
  0
SECTION
  2
TABLES
  0
TABLE
  2
VPORT
  5
8
330
0
100
AcDbSymbolTable
 70
     2
  0
VPORT
  5
70A5
330
8
100
AcDbSymbolTableRecord
100
AcDbViewportTableRecord
  2
*Active
 70
     0
 10
0.0
 20
0.0
 11
1.0
 21
1.0
 12
1705.765272479629
 22
656.0604932330586
 13
0.0
 23
0.0
 14
1.0
 24
1.0
 15
0.0
 25
0.0
 16
0.0
 26
0.0
 36
1.0
 17
0.0
 27
0.0
 37
0.0
 40
728.4712055182277
 41
1.542635658914728
 42
50.0
 43
0.0
 44
0.0
 50
0.0
 51
0.0
 71
     0
 72
   100
 73
     1
 74
     1
 75
     0
 76
     0
 77
     0
 78
     0
281
     0
 65
     1
110
0.0
120
0.0
130
0.0
111
1.0
121
0.0
131
0.0
112
0.0
122
1.0
132
0.0
 79
     0
146
0.0
  0
ENDTAB
  0
TABLE
  2
LTYPE
  5
5
330
0
100
AcDbSymbolTable
 70
    50
  0
LTYPE
  5
13
330
5
100
AcDbSymbolTableRecord
100
AcDbLinetypeTableRecord
  2
ByBlock
 70
     0
  3

 72
    65
 73
     0
 40
0.0
  0
LTYPE
  5
14
330
5
100
AcDbSymbolTableRecord
100
AcDbLinetypeTableRecord
  2
ByLayer
 70
     0
  3

 72
    65
 73
     0
 40
0.0
  0
LTYPE
  5
15
330
5
100
AcDbSymbolTableRecord
100
AcDbLinetypeTableRecord
  2
CONTINUOUS
 70
     0
  3
実線
 72
    65
 73
     0
 40
0.0
  0
LTYPE
  5
22
330
5
100
AcDbSymbolTableRecord
100
AcDbLinetypeTableRecord
  2
DASHED1
 70
     0
  3
--  --  --  --  --  --  --  --  
 72
    65
 73
     2
 40
2.5
 49
1.25
 74
     0
 49
-1.25
 74
     0
  0
LTYPE
  5
23
330
5
100
AcDbSymbolTableRecord
100
AcDbLinetypeTableRecord
  2
DASHED2
 70
     0
  3
----    ----    ----    ----    
 72
    65
 73
     2
 40
5.0
 49
2.5
 74
     0
 49
-2.5
 74
     0
  0
LTYPE
  5
24
330
5
100
AcDbSymbolTableRecord
100
AcDbLinetypeTableRecord
  2
DASHED3
 70
     0
  3
------  ------  ------  ------  
 72
    65
 73
     2
 40
5.0
 49
3.75
 74
     0
 49
-1.25
 74
     0
  0
LTYPE
  5
25
330
5
100
AcDbSymbolTableRecord
100
AcDbLinetypeTableRecord
  2
CENTER1
 70
     0
  3
----- - ----- - ----- - ----- - 
 72
    65
 73
     4
 40
10.0
 49
6.25
 74
     0
 49
-1.25
 74
     0
 49
1.25
 74
     0
 49
-1.25
 74
     0
  0
LTYPE
  5
26
330
5
100
AcDbSymbolTableRecord
100
AcDbLinetypeTableRecord
  2
CENTER2
 70
     0
  3
----------  --  ----------  --  
 72
    65
 73
     4
 40
20.0
 49
12.5
 74
     0
 49
-2.5
 74
     0
 49
2.5
 74
     0
 49
-2.5
 74
     0
  0
LTYPE
  5
27
330
5
100
AcDbSymbolTableRecord
100
AcDbLinetypeTableRecord
  2
PHANTOM1
 70
     0
  3
--- - - --- - - --- - - --- - - 
 72
    65
 73
     6
 40
10.0
 49
3.25
 74
     0
 49
-1.25
 74
     0
 49
1.25
 74
     0
 49
-1.25
 74
     0
 49
1.25
 74
     0
 49
-1.25
 74
     0
  0
LTYPE
  5
28
330
5
100
AcDbSymbolTableRecord
100
AcDbLinetypeTableRecord
  2
PHANTOM2
 70
     0
  3
--------  -  -  --------  -  -  
 72
    65
 73
     6
 40
20.0
 49
10.0
 74
     0
 49
-2.5
 74
     0
 49
1.25
 74
     0
 49
-2.5
 74
     0
 49
1.25
 74
     0
 49
-2.5
 74
     0
  0
LTYPE
  5
29
330
5
100
AcDbSymbolTableRecord
100
AcDbLinetypeTableRecord
  2
DOT
 70
     0
  3
-   -   -   -   -   -   -   -   
 72
    65
 73
     2
 40
2.5
 49
0.625
 74
     0
 49
-1.875
 74
     0
  0
LTYPE
  5
2A
330
5
100
AcDbSymbolTableRecord
100
AcDbLinetypeTableRecord
  2
DUMMY
 70
     0
  3
ダミー
 72
    65
 73
     0
 40
0.0
  0
LTYPE
  5
2B
330
5
100
AcDbSymbolTableRecord
100
AcDbLinetypeTableRecord
  2
RAND1
 70
     0
  3
ランダム線1
 72
    65
 73
     4
 40
10.0
 49
1.0
 74
     0
 49
-2.0
 74
     0
 49
3.0
 74
     0
 49
-4.0
 74
     0
  0
LTYPE
  5
2C
330
5
100
AcDbSymbolTableRecord
100
AcDbLinetypeTableRecord
  2
RAND2
 70
     0
  3
ランダム線2
 72
    65
 73
     4
 40
14.0
 49
2.0
 74
     0
 49
-3.0
 74
     0
 49
4.0
 74
     0
 49
-5.0
 74
     0
  0
LTYPE
  5
2D
330
5
100
AcDbSymbolTableRecord
100
AcDbLinetypeTableRecord
  2
RAND3
 70
     0
  3
ランダム線3
 72
    65
 73
     4
 40
18.0
 49
3.0
 74
     0
 49
-4.0
 74
     0
 49
5.0
 74
     0
 49
-6.0
 74
     0
  0
LTYPE
  5
2E
330
5
100
AcDbSymbolTableRecord
100
AcDbLinetypeTableRecord
  2
RAND4
 70
     0
  3
ランダム線4
 72
    65
 73
     4
 40
22.0
 49
4.0
 74
     0
 49
-5.0
 74
     0
 49
6.0
 74
     0
 49
-7.0
 74
     0
  0
LTYPE
  5
2F
330
5
100
AcDbSymbolTableRecord
100
AcDbLinetypeTableRecord
  2
RAND5
 70
     0
  3
ランダム線5
 72
    65
 73
     4
 40
26.0
 49
5.0
 74
     0
 49
-6.0
 74
     0
 49
7.0
 74
     0
 49
-8.0
 74
     0
  0
LTYPE
  5
30
330
5
100
AcDbSymbolTableRecord
100
AcDbLinetypeTableRecord
  2
LONG1
 70
     0
  3
----------  --  ----------  --  
 72
    65
 73
     4
 40
40.0
 49
32.5
 74
     0
 49
-2.5
 74
     0
 49
2.5
 74
     0
 49
-2.5
 74
     0
  0
LTYPE
  5
31
330
5
100
AcDbSymbolTableRecord
100
AcDbLinetypeTableRecord
  2
LONG2
 70
     0
  3
--------  -  -  --------  -  -  
 72
    65
 73
     6
 40
40.0
 49
30.0
 74
     0
 49
-2.5
 74
     0
 49
1.25
 74
     0
 49
-2.5
 74
     0
 49
1.25
 74
     0
 49
-2.5
 74
     0
  0
LTYPE
  5
32
330
5
100
AcDbSymbolTableRecord
100
AcDbLinetypeTableRecord
  2
LONG3
 70
     0
  3
+++++++++++++++..+++++++++++++++
 72
    65
 73
     2
 40
40.0
 49
37.5
 74
     0
 49
-2.5
 74
     0
  0
LTYPE
  5
33
330
5
100
AcDbSymbolTableRecord
100
AcDbLinetypeTableRecord
  2
LONG4
 70
     0
  3
+++++++++++++++..+++++++++++++++
 72
    65
 73
     2
 40
80.0
 49
75.0
 74
     0
 49
-5.0
 74
     0
  0
LTYPE
  5
34
330
5
100
AcDbSymbolTableRecord
100
AcDbLinetypeTableRecord
  2
LONG5
 70
     0
  3
----------  --  ----------  --  
 72
    65
 73
     4
 40
60.0
 49
37.5
 74
     0
 49
-7.5
 74
     0
 49
7.5
 74
     0
 49
-7.5
 74
     0
  0
LTYPE
  5
35
330
5
100
AcDbSymbolTableRecord
100
AcDbLinetypeTableRecord
  2
DASHED
 70
     0
  3
-------   -------------   ------
 72
    65
 73
     2
 40
7.5
 49
6.0
 74
     0
 49
-1.5
 74
     0
  0
LTYPE
  5
36
330
5
100
AcDbSymbolTableRecord
100
AcDbLinetypeTableRecord
  2
DASHED_SPACED
 70
     0
  3
----        --------        ----
 72
    65
 73
     2
 40
12.0
 49
6.0
 74
     0
 49
-6.0
 74
     0
  0
LTYPE
  5
37
330
5
100
AcDbSymbolTableRecord
100
AcDbLinetypeTableRecord
  2
LONG_DASHED_DOTTED
 70
     0
  3
------------- --- --------------
 72
    65
 73
     4
 40
15.25
 49
12.0
 74
     0
 49
-1.5
 74
     0
 49
0.25
 74
     0
 49
-1.5
 74
     0
  0
LTYPE
  5
38
330
5
100
AcDbSymbolTableRecord
100
AcDbLinetypeTableRecord
  2
LONG_DASHED_DOUBLE-DOTTED
 70
     0
  3
----------- --- --- ------------
 72
    65
 73
     6
 40
17.0
 49
12.0
 74
     0
 49
-1.5
 74
     0
 49
0.25
 74
     0
 49
-1.5
 74
     0
 49
0.25
 74
     0
 49
-1.5
 74
     0
  0
LTYPE
  5
39
330
5
100
AcDbSymbolTableRecord
100
AcDbLinetypeTableRecord
  2
LONG_DASHED_TRIPLICATE-DOTTED
 70
     0
  3
--------- --- --- --- ----------
 72
    65
 73
     8
 40
18.75
 49
12.0
 74
     0
 49
-1.5
 74
     0
 49
0.25
 74
     0
 49
-1.5
 74
     0
 49
0.25
 74
     0
 49
-1.5
 74
     0
 49
0.25
 74
     0
 49
-1.5
 74
     0
  0
LTYPE
  5
3A
330
5
100
AcDbSymbolTableRecord
100
AcDbLinetypeTableRecord
  2
DOTTED
 70
     0
  3
   -       -       -       -    
 72
    65
 73
     2
 40
1.75
 49
0.25
 74
     0
 49
-1.5
 74
     0
  0
LTYPE
  5
3B
330
5
100
AcDbSymbolTableRecord
100
AcDbLinetypeTableRecord
  2
CHAIN
 70
     0
  3
-------------- -- --------------
 72
    65
 73
     4
 40
18.5
 49
12.0
 74
     0
 49
-1.5
 74
     0
 49
3.5
 74
     0
 49
-1.5
 74
     0
  0
LTYPE
  5
3C
330
5
100
AcDbSymbolTableRecord
100
AcDbLinetypeTableRecord
  2
CHAIN_DOUBLE_DASH
 70
     0
  3
------------ -- -- -------------
 72
    65
 73
     6
 40
23.5
 49
12.0
 74
     0
 49
-1.5
 74
     0
 49
3.5
 74
     0
 49
-1.5
 74
     0
 49
3.5
 74
     0
 49
-1.5
 74
     0
  0
LTYPE
  5
3D
330
5
100
AcDbSymbolTableRecord
100
AcDbLinetypeTableRecord
  2
DASHED_DOTTED
 70
     0
  3
-----------     -     ----------
 72
    65
 73
     4
 40
9.25
 49
6.0
 74
     0
 49
-1.5
 74
     0
 49
0.25
 74
     0
 49
-1.5
 74
     0
  0
LTYPE
  5
3E
330
5
100
AcDbSymbolTableRecord
100
AcDbLinetypeTableRecord
  2
DOUBLE-DASHED_DOTTED
 70
     0
  3
------   -----------   -   -----
 72
    65
 73
     6
 40
16.75
 49
6.0
 74
     0
 49
-1.5
 74
     0
 49
6.0
 74
     0
 49
-1.5
 74
     0
 49
0.25
 74
     0
 49
-1.5
 74
     0
  0
LTYPE
  5
3F
330
5
100
AcDbSymbolTableRecord
100
AcDbLinetypeTableRecord
  2
DASHED_DOUBLE-DOTTED
 70
     0
  3
---------    -    -    ---------
 72
    65
 73
     6
 40
11.0
 49
6.0
 74
     0
 49
-1.5
 74
     0
 49
0.25
 74
     0
 49
-1.5
 74
     0
 49
0.25
 74
     0
 49
-1.5
 74
     0
  0
LTYPE
  5
40
330
5
100
AcDbSymbolTableRecord
100
AcDbLinetypeTableRecord
  2
DOUBLE-DASHED_DOUBLE-DOTTED
 70
     0
  3
-----   ---------   -   -   ----
 72
    65
 73
     8
 40
18.5
 49
6.0
 74
     0
 49
-1.5
 74
     0
 49
6.0
 74
     0
 49
-1.5
 74
     0
 49
0.25
 74
     0
 49
-1.5
 74
     0
 49
0.25
 74
     0
 49
-1.5
 74
     0
  0
LTYPE
  5
41
330
5
100
AcDbSymbolTableRecord
100
AcDbLinetypeTableRecord
  2
DASHED_TRIPLICATE-DOTTED
 70
     0
  3
-------    -    -    -    ------
 72
    65
 73
     8
 40
12.75
 49
6.0
 74
     0
 49
-1.5
 74
     0
 49
0.25
 74
     0
 49
-1.5
 74
     0
 49
0.25
 74
     0
 49
-1.5
 74
     0
 49
0.25
 74
     0
 49
-1.5
 74
     0
  0
LTYPE
  5
42
330
5
100
AcDbSymbolTableRecord
100
AcDbLinetypeTableRecord
  2
DOUBLE-DASHED_TRIPLICATE-DOTTED
 70
     0
  3
-----  ---------  -  -  -  -----
 72
    65
 73
    10
 40
20.25
 49
6.0
 74
     0
 49
-1.5
 74
     0
 49
6.0
 74
     0
 49
-1.5
 74
     0
 49
0.25
 74
     0
 49
-1.5
 74
     0
 49
0.25
 74
     0
 49
-1.5
 74
     0
 49
0.25
 74
     0
 49
-1.5
 74
     0
  0
LTYPE
  5
43
330
5
100
AcDbSymbolTableRecord
100
AcDbLinetypeTableRecord
  2
UNDEFINED
 70
     0
  3
--------------------------------
 72
    65
 73
     0
 40
0.0
  0
LTYPE
  5
44
330
5
100
AcDbSymbolTableRecord
100
AcDbLinetypeTableRecord
  2
PLINE2
 70
     0
  3
------     -----------     -----
 72
    65
 73
     2
 40
3.0
 49
2.1
 74
     0
 49
-0.9
 74
     0
  0
LTYPE
  5
45
330
5
100
AcDbSymbolTableRecord
100
AcDbLinetypeTableRecord
  2
PLINE3
 70
     0
  3
------------   ---   -----------
 72
    65
 73
     4
 40
10.0
 49
7.0
 74
     0
 49
-1.0
 74
     0
 49
1.0
 74
     0
 49
-1.0
 74
     0
  0
LTYPE
  5
46
330
5
100
AcDbSymbolTableRecord
100
AcDbLinetypeTableRecord
  2
PLINE4
 70
     0
  3
---------   ---   ---   --------
 72
    65
 73
     6
 40
10.0
 49
5.0
 74
     0
 49
-1.0
 74
     0
 49
1.0
 74
     0
 49
-1.0
 74
     0
 49
1.0
 74
     0
 49
-1.0
 74
     0
  0
LTYPE
  5
47
330
5
100
AcDbSymbolTableRecord
100
AcDbLinetypeTableRecord
  2
PLINE5
 70
     0
  3
------     -----------     -----
 72
    65
 73
     2
 40
5.0
 49
3.5
 74
     0
 49
-1.5
 74
     0
  0
LTYPE
  5
48
330
5
100
AcDbSymbolTableRecord
100
AcDbLinetypeTableRecord
  2
PLINE6
 70
     0
  3
------------   ---   -----------
 72
    65
 73
     4
 40
15.0
 49
10.5
 74
     0
 49
-1.5
 74
     0
 49
1.5
 74
     0
 49
-1.5
 74
     0
  0
LTYPE
  5
49
330
5
100
AcDbSymbolTableRecord
100
AcDbLinetypeTableRecord
  2
PLINE7
 70
     0
  3
---------   ---   ---   --------
 72
    65
 73
     6
 40
15.0
 49
7.5
 74
     0
 49
-1.5
 74
     0
 49
1.5
 74
     0
 49
-1.5
 74
     0
 49
1.5
 74
     0
 49
-1.5
 74
     0
  0
LTYPE
  5
4A
330
5
100
AcDbSymbolTableRecord
100
AcDbLinetypeTableRecord
  2
PLINE8
 70
     0
  3
------     -----------     -----
 72
    65
 73
     2
 40
7.0
 49
4.9
 74
     0
 49
-2.1
 74
     0
  0
LTYPE
  5
4B
330
5
100
AcDbSymbolTableRecord
100
AcDbLinetypeTableRecord
  2
PLINE9
 70
     0
  3
------------   ---   -----------
 72
    65
 73
     4
 40
20.0
 49
14.0
 74
     0
 49
-2.0
 74
     0
 49
2.0
 74
     0
 49
-2.0
 74
     0
  0
LTYPE
  5
4C
330
5
100
AcDbSymbolTableRecord
100
AcDbLinetypeTableRecord
  2
PLINE10
 70
     0
  3
---------   ---   ---   --------
 72
    65
 73
     6
 40
20.0
 49
10.0
 74
     0
 49
-2.0
 74
     0
 49
2.0
 74
     0
 49
-2.0
 74
     0
 49
2.0
 74
     0
 49
-2.0
 74
     0
  0
LTYPE
  5
4D
330
5
100
AcDbSymbolTableRecord
100
AcDbLinetypeTableRecord
  2
PLINE11
 70
     0
  3
------     -----------     -----
 72
    65
 73
     2
 40
9.0
 49
6.299999999999999
 74
     0
 49
-2.7
 74
     0
  0
LTYPE
  5
4E
330
5
100
AcDbSymbolTableRecord
100
AcDbLinetypeTableRecord
  2
PLINE12
 70
     0
  3
------------   ---   -----------
 72
    65
 73
     4
 40
25.0
 49
17.5
 74
     0
 49
-2.5
 74
     0
 49
2.5
 74
     0
 49
-2.5
 74
     0
  0
LTYPE
  5
4F
330
5
100
AcDbSymbolTableRecord
100
AcDbLinetypeTableRecord
  2
PLINE13
 70
     0
  3
---------   ---   ---   --------
 72
    65
 73
     6
 40
25.0
 49
12.5
 74
     0
 49
-2.5
 74
     0
 49
2.5
 74
     0
 49
-2.5
 74
     0
 49
2.5
 74
     0
 49
-2.5
 74
     0
  0
LTYPE
  5
50
330
5
100
AcDbSymbolTableRecord
100
AcDbLinetypeTableRecord
  2
PLINE14
 70
     0
  3
------     -----------     -----
 72
    65
 73
     2
 40
11.0
 49
7.7
 74
     0
 49
-3.299999999999999
 74
     0
  0
LTYPE
  5
51
330
5
100
AcDbSymbolTableRecord
100
AcDbLinetypeTableRecord
  2
PLINE15
 70
     0
  3
------------   ---   -----------
 72
    65
 73
     4
 40
30.0
 49
21.0
 74
     0
 49
-3.0
 74
     0
 49
3.0
 74
     0
 49
-3.0
 74
     0
  0
LTYPE
  5
52
330
5
100
AcDbSymbolTableRecord
100
AcDbLinetypeTableRecord
  2
PLINE16
 70
     0
  3
---------   ---   ---   --------
 72
    65
 73
     6
 40
30.0
 49
15.0
 74
     0
 49
-3.0
 74
     0
 49
3.0
 74
     0
 49
-3.0
 74
     0
 49
3.0
 74
     0
 49
-3.0
 74
     0
  0
ENDTAB
  0
TABLE
  2
LAYER
  5
2
102
{ACAD_XDICTIONARY
360
175
102
}
330
0
100
AcDbSymbolTable
 70
     5
  0
LAYER
  5
10
330
2
100
AcDbSymbolTableRecord
100
AcDbLayerTableRecord
  2
0
 70
     0
 62
     7
  6
CONTINUOUS
370
    -3
390
F
  0
LAYER
  5
128
330
2
100
AcDbSymbolTableRecord
100
AcDbLayerTableRecord
  2
Defpoints
 70
     0
 62
     7
  6
CONTINUOUS
290
     0
370
    -3
390
F
  0
LAYER
  5
178
330
2
100
AcDbSymbolTableRecord
100
AcDbLayerTableRecord
  2
寸法
 70
     0
 62
     7
  6
CONTINUOUS
370
    -3
390
F
  0
LAYER
  5
179
330
2
100
AcDbSymbolTableRecord
100
AcDbLayerTableRecord
  2
躯体と製品
 70
     0
 62
     7
  6
CONTINUOUS
370
    -3
390
F
  0
LAYER
  5
4F62
330
2
100
AcDbSymbolTableRecord
100
AcDbLayerTableRecord
  2
図枠
 70
     0
 62
     7
  6
CONTINUOUS
370
    -3
390
F
  0
ENDTAB
  0
TABLE
  2
STYLE
  5
3
330
0
100
AcDbSymbolTable
 70
     5
  0
STYLE
  5
11
330
3
100
AcDbSymbolTableRecord
100
AcDbTextStyleTableRecord
  2
STANDARD
 70
     0
 40
0.0
 41
1.0
 50
0.0
 71
     0
 42
0.2
  3
txt
  4
bigfont.shx
  0
STYLE
  5
53
330
3
100
AcDbSymbolTableRecord
100
AcDbTextStyleTableRecord
  2
TATEGAKI
 70
     4
 40
0.0
 41
1.0
 50
0.0
 71
     0
 42
1.0
  3
txt
  4
bigfont.shx
  0
STYLE
  5
123
330
3
100
AcDbSymbolTableRecord
100
AcDbTextStyleTableRecord
  2
ACAD
 70
     0
 40
5.0
 41
0.8
 50
0.0
 71
     0
 42
5.0
  3
romans.shx
  4
extfont.shx
  0
STYLE
  5
3A5F
330
3
100
AcDbSymbolTableRecord
100
AcDbTextStyleTableRecord
  2
VERTXT
 70
     4
 40
0.0
 41
0.8582679999999999
 50
0.0
 71
     0
 42
3.5
  3
txt.shx
  4
BIGFONT
  0
STYLE
  5
50AD
330
3
100
AcDbSymbolTableRecord
100
AcDbTextStyleTableRecord
  2
STANDARD2
 70
     0
 40
0.0
 41
0.8582679999999999
 50
0.0
 71
     0
 42
3.5
  3
txt.shx
  4
EXTFONT
  0
ENDTAB
  0
TABLE
  2
VIEW
  5
6
330
0
100
AcDbSymbolTable
 70
     0
  0
ENDTAB
  0
TABLE
  2
UCS
  5
7
330
0
100
AcDbSymbolTable
 70
     0
  0
ENDTAB
  0
TABLE
  2
APPID
  5
9
330
0
100
AcDbSymbolTable
 70
     1
  0
APPID
  5
12
330
9
100
AcDbSymbolTableRecord
100
AcDbRegAppTableRecord
  2
ACAD
 70
     0
  0
ENDTAB
  0
TABLE
  2
DIMSTYLE
  5
A
330
0
100
AcDbSymbolTable
 70
     3
100
AcDbDimStyleTable
 71
     1
340
126
  0
DIMSTYLE
105
11C
330
A
100
AcDbSymbolTableRecord
100
AcDbDimStyleTableRecord
  2
Standard
 70
     0
340
11
  0
DIMSTYLE
105
126
102
{ACAD_REACTORS
330
6FF6
330
7003
330
7010
330
701D
330
7029
330
7034
330
703F
330
704A
330
7056
330
7061
102
}
330
A
100
AcDbSymbolTableRecord
100
AcDbDimStyleTableRecord
  2
AutoCAD
 70
     0
 41
1.0
 42
0.0
 44
0.0
 73
     0
 77
     1
140
5.0
147
1.0
174
     1
176
     4
177
     4
178
     3
271
     0
272
     0
289
     0
340
123
341
15B0
342
11E
  0
DIMSTYLE
105
2CBB
330
A
100
AcDbSymbolTableRecord
100
AcDbDimStyleTableRecord
  2
111
 70
     0
 41
1.0
 42
0.0
 44
0.0
 73
     0
 77
     1
140
5.0
147
1.0
174
     1
176
     4
177
     4
178
     3
271
     0
272
     0
289
     0
340
123
341
15B0
342
2CB5
  0
ENDTAB
  0
TABLE
  2
BLOCK_RECORD
  5
1
330
0
100
AcDbSymbolTable
 70
    14
  0
BLOCK_RECORD
  5
1E
102
{ACAD_XDICTIONARY
360
28B
102
}
330
1
100
AcDbSymbolTableRecord
100
AcDbBlockTableRecord
  2
*Model_Space
340
21
  0
BLOCK_RECORD
  5
1A
102
{ACAD_XDICTIONARY
360
28D
102
}
330
1
100
AcDbSymbolTableRecord
100
AcDbBlockTableRecord
  2
*Paper_Space
340
1D
  0
BLOCK_RECORD
  5
11E
330
1
100
AcDbSymbolTableRecord
100
AcDbBlockTableRecord
  2
_Dot
340
0
102
{BLKREFS
331
7008
331
7009
331
7037
331
7038
331
7059
331
705A
331
7064
331
7065
331
706F
331
7070
331
7078
331
7079
331
7080
331
7081
331
7088
331
7089
331
708F
331
7090
331
7096
331
7097
102
}
  0
BLOCK_RECORD
  5
15B0
330
1
100
AcDbSymbolTableRecord
100
AcDbBlockTableRecord
  2
_None
340
0
  0
BLOCK_RECORD
  5
2CB5
330
1
100
AcDbSymbolTableRecord
100
AcDbBlockTableRecord
  2
_Open30
340
0
  0
BLOCK_RECORD
  5
35E3
330
1
100
AcDbSymbolTableRecord
100
AcDbBlockTableRecord
  2
_DotBlank
340
0
  0
BLOCK_RECORD
  5
6FF7
330
1
100
AcDbSymbolTableRecord
100
AcDbBlockTableRecord
  2
*D4
340
0
  0
BLOCK_RECORD
  5
7004
330
1
100
AcDbSymbolTableRecord
100
AcDbBlockTableRecord
  2
*D5
340
0
  0
BLOCK_RECORD
  5
7011
330
1
100
AcDbSymbolTableRecord
100
AcDbBlockTableRecord
  2
*D6
340
0
  0
BLOCK_RECORD
  5
701E
330
1
100
AcDbSymbolTableRecord
100
AcDbBlockTableRecord
  2
*D7
340
0
  0
BLOCK_RECORD
  5
702A
330
1
100
AcDbSymbolTableRecord
100
AcDbBlockTableRecord
  2
*D8
340
0
  0
BLOCK_RECORD
  5
7035
330
1
100
AcDbSymbolTableRecord
100
AcDbBlockTableRecord
  2
*D9
340
0
  0
BLOCK_RECORD
  5
7040
330
1
100
AcDbSymbolTableRecord
100
AcDbBlockTableRecord
  2
*D10
340
0
  0
BLOCK_RECORD
  5
704B
330
1
100
AcDbSymbolTableRecord
100
AcDbBlockTableRecord
  2
*D11
340
0
  0
BLOCK_RECORD
  5
7057
330
1
100
AcDbSymbolTableRecord
100
AcDbBlockTableRecord
  2
*D12
340
0
  0
BLOCK_RECORD
  5
7062
330
1
100
AcDbSymbolTableRecord
100
AcDbBlockTableRecord
  2
*D13
340
0
  0
ENDTAB
  0
ENDSEC
  0
SECTION
  2
BLOCKS
  0
BLOCK
  5
1F
330
1E
100
AcDbEntity
  8
0
100
AcDbBlockBegin
  2
*Model_Space
 70
     0
 10
0.0
 20
0.0
 30
0.0
  3
*Model_Space
  1

  0
ENDBLK
  5
20
330
1E
100
AcDbEntity
  8
0
100
AcDbBlockEnd
  0
BLOCK
  5
1B
330
1A
100
AcDbEntity
 67
     1
  8
0
100
AcDbBlockBegin
  2
*Paper_Space
 70
     0
 10
0.0
 20
0.0
 30
0.0
  3
*Paper_Space
  1

  0
ENDBLK
  5
1C
330
1A
100
AcDbEntity
 67
     1
  8
0
100
AcDbBlockEnd
  0
BLOCK
  5
121
330
11E
100
AcDbEntity
  8
0
100
AcDbBlockBegin
  2
_Dot
 70
     0
 10
0.0
 20
0.0
 30
0.0
  3
_Dot
  1

  0
LWPOLYLINE
  5
11F
330
11E
100
AcDbEntity
  8
0
  6
ByBlock
 62
     0
100
AcDbPolyline
 90
        2
 70
     1
 43
0.5
 10
-0.25
 20
0.0
 42
1.0
 10
0.25
 20
0.0
 42
1.0
  0
LINE
  5
120
330
11E
100
AcDbEntity
  8
0
  6
ByBlock
 62
     0
370
    -2
100
AcDbLine
 10
-0.5
 20
0.0
 30
0.0
 11
-1.0
 21
0.0
 31
0.0
  0
ENDBLK
  5
122
330
11E
100
AcDbEntity
  8
0
100
AcDbBlockEnd
  0
BLOCK
  5
15B1
330
15B0
100
AcDbEntity
  8
0
100
AcDbBlockBegin
  2
_None
 70
     0
 10
0.0
 20
0.0
 30
0.0
  3
_None
  1

  0
ENDBLK
  5
15B2
330
15B0
100
AcDbEntity
  8
0
100
AcDbBlockEnd
  0
BLOCK
  5
2CB9
330
2CB5
100
AcDbEntity
  8
0
100
AcDbBlockBegin
  2
_Open30
 70
     0
 10
0.0
 20
0.0
 30
0.0
  3
_Open30
  1

  0
LINE
  5
2CB6
330
2CB5
100
AcDbEntity
  8
0
  6
ByBlock
 62
     0
370
    -2
100
AcDbLine
 10
-1.0
 20
0.26794919
 30
0.0
 11
0.0
 21
0.0
 31
0.0
  0
LINE
  5
2CB7
330
2CB5
100
AcDbEntity
  8
0
  6
ByBlock
 62
     0
370
    -2
100
AcDbLine
 10
0.0
 20
0.0
 30
0.0
 11
-1.0
 21
-0.26794919
 31
0.0
  0
LINE
  5
2CB8
330
2CB5
100
AcDbEntity
  8
0
  6
ByBlock
 62
     0
370
    -2
100
AcDbLine
 10
0.0
 20
0.0
 30
0.0
 11
-1.0
 21
0.0
 31
0.0
  0
ENDBLK
  5
2CBA
330
2CB5
100
AcDbEntity
  8
0
100
AcDbBlockEnd
  0
BLOCK
  5
35E6
330
35E3
100
AcDbEntity
  8
0
100
AcDbBlockBegin
  2
_DotBlank
 70
     0
 10
0.0
 20
0.0
 30
0.0
  3
_DotBlank
  1

  0
CIRCLE
  5
35E4
330
35E3
100
AcDbEntity
  8
0
  6
ByBlock
 62
     0
370
    -2
100
AcDbCircle
 10
0.0
 20
0.0
 30
0.0
 40
0.5
  0
LINE
  5
35E5
330
35E3
100
AcDbEntity
  8
0
  6
ByBlock
 62
     0
370
    -2
100
AcDbLine
 10
-0.5
 20
0.0
 30
0.0
 11
-1.0
 21
0.0
 31
0.0
  0
ENDBLK
  5
35E7
330
35E3
100
AcDbEntity
  8
0
100
AcDbBlockEnd
  0
BLOCK
  5
7001
330
6FF7
100
AcDbEntity
  8
0
100
AcDbBlockBegin
  2
*D4
 70
     1
 10
0.0
 20
0.0
 30
0.0
  3
*D4
  1

  0
LINE
  5
7075
330
6FF7
100
AcDbEntity
  8
寸法
  6
Continuous
 62
     4
370
    -2
100
AcDbLine
 10
1413.522957269357
 20
821.6590546130305
 30
0.0
 11
1413.522957269357
 21
897.0448057993788
 31
0.0
  0
LINE
  5
7076
330
6FF7
100
AcDbEntity
  8
寸法
  6
Continuous
 62
     4
370
    -2
100
AcDbLine
 10
2013.522957269358
 20
821.6590546130305
 30
0.0
 11
2013.522957269358
 21
897.0448057993788
 31
0.0
  0
LINE
  5
7077
330
6FF7
100
AcDbEntity
  8
寸法
  6
Continuous
 62
     4
370
    -2
100
AcDbLine
 10
1414.522957269357
 20
897.0448057993788
 30
0.0
 11
2012.522957269357
 21
897.0448057993788
 31
0.0
  0
INSERT
  5
7078
330
6FF7
100
AcDbEntity
  8
寸法
  6
Continuous
 62
     4
370
    -2
100
AcDbBlockReference
  2
_Dot
 10
1413.522957269357
 20
897.0448057993788
 30
0.0
 50
180.0
  0
INSERT
  5
7079
330
6FF7
100
AcDbEntity
  8
寸法
  6
Continuous
 62
     4
370
    -2
100
AcDbBlockReference
  2
_Dot
 10
2013.522957269358
 20
897.0448057993788
 30
0.0
  0
MTEXT
  5
707A
330
6FF7
100
AcDbEntity
  8
寸法
  6
Continuous
 62
     3
100
AcDbMText
 10
1713.522957269357
 20
900.5448057993787
 30
0.0
 40
5.0
 41
0.0
 71
     5
 72
     1
  1
\A1;W
  7
ACAD
 73
     1
 44
1.0
1001
ACAD
1000
MTEXTBEGIN
1070
    73
1070
     1
1070
    44
1040
1.0
1070
    74
1070
     0
1000
MTEXTEND
  0
POINT
  5
707B
330
6FF7
100
AcDbEntity
  8
Defpoints
  6
Continuous
 62
     0
100
AcDbPoint
 10
1413.522957269357
 20
821.6590546130305
 30
0.0
  0
POINT
  5
707C
330
6FF7
100
AcDbEntity
  8
Defpoints
  6
Continuous
 62
     0
100
AcDbPoint
 10
2013.522957269358
 20
821.6590546130305
 30
0.0
  0
POINT
  5
707D
330
6FF7
100
AcDbEntity
  8
Defpoints
  6
Continuous
 62
     0
100
AcDbPoint
 10
2013.522957269358
 20
897.0448057993788
 30
0.0
  0
ENDBLK
  5
7002
330
6FF7
100
AcDbEntity
  8
0
100
AcDbBlockEnd
  0
BLOCK
  5
700E
330
7004
100
AcDbEntity
  8
0
100
AcDbBlockBegin
  2
*D5
 70
     1
 10
0.0
 20
0.0
 30
0.0
  3
*D5
  1

  0
LINE
  5
7005
330
7004
100
AcDbEntity
  8
寸法
  6
Continuous
 62
     4
370
    -2
100
AcDbLine
 10
2015.522957269357
 20
819.6590546130305
 30
0.0
 11
2073.522957269358
 21
819.6590546130305
 31
0.0
  0
LINE
  5
7006
330
7004
100
AcDbEntity
  8
寸法
  6
Continuous
 62
     4
370
    -2
100
AcDbLine
 10
2015.522957269357
 20
729.6590546130305
 30
0.0
 11
2073.522957269358
 21
729.6590546130305
 31
0.0
  0
LINE
  5
7007
330
7004
100
AcDbEntity
  8
寸法
  6
Continuous
 62
     4
370
    -2
100
AcDbLine
 10
2073.522957269358
 20
818.6590546130306
 30
0.0
 11
2073.522957269358
 21
730.6590546130305
 31
0.0
  0
INSERT
  5
7008
330
7004
100
AcDbEntity
  8
寸法
  6
Continuous
 62
     4
370
    -2
100
AcDbBlockReference
  2
_Dot
 10
2073.522957269358
 20
819.6590546130305
 30
0.0
 50
90.0
  0
INSERT
  5
7009
330
7004
100
AcDbEntity
  8
寸法
  6
Continuous
 62
     4
370
    -2
100
AcDbBlockReference
  2
_Dot
 10
2073.522957269358
 20
729.6590546130305
 30
0.0
 50
270.0
  0
MTEXT
  5
700A
330
7004
100
AcDbEntity
  8
寸法
  6
Continuous
 62
     3
100
AcDbMText
 10
2070.022957269358
 20
774.6590546130309
 30
0.0
 40
5.0
 41
0.0
 71
     5
 72
     1
  1
\A1;90
  7
ACAD
 11
0.0000000000000001
 21
1.0
 31
0.0
 73
     1
 44
1.0
1001
ACAD
1000
MTEXTBEGIN
1070
    73
1070
     1
1070
    44
1040
1.0
1070
    74
1070
     0
1000
MTEXTEND
  0
POINT
  5
700B
330
7004
100
AcDbEntity
  8
Defpoints
  6
Continuous
 62
     0
100
AcDbPoint
 10
2015.522957269357
 20
819.6590546130305
 30
0.0
  0
POINT
  5
700C
330
7004
100
AcDbEntity
  8
Defpoints
  6
Continuous
 62
     0
100
AcDbPoint
 10
2015.522957269357
 20
729.6590546130305
 30
0.0
  0
POINT
  5
700D
330
7004
100
AcDbEntity
  8
Defpoints
  6
Continuous
 62
     0
100
AcDbPoint
 10
2073.522957269358
 20
729.6590546130305
 30
0.0
  0
ENDBLK
  5
700F
330
7004
100
AcDbEntity
  8
0
100
AcDbBlockEnd
  0
BLOCK
  5
701B
330
7011
100
AcDbEntity
  8
0
100
AcDbBlockBegin
  2
*D6
 70
     1
 10
0.0
 20
0.0
 30
0.0
  3
*D6
  1

  0
LINE
  5
706C
330
7011
100
AcDbEntity
  8
寸法
  6
Continuous
 62
     4
370
    -2
100
AcDbLine
 10
1942.486786891642
 20
772.0448057993785
 30
0.0
 11
2053.522957269358
 21
772.0448057993785
 31
0.0
  0
LINE
  5
706D
330
7011
100
AcDbEntity
  8
寸法
  6
Continuous
 62
     4
370
    -2
100
AcDbLine
 10
2015.522957269357
 20
729.6590546130305
 30
0.0
 11
2053.522957269358
 21
729.6590546130305
 31
0.0
  0
LINE
  5
706E
330
7011
100
AcDbEntity
  8
寸法
  6
Continuous
 62
     4
370
    -2
100
AcDbLine
 10
2053.522957269358
 20
771.0448057993785
 30
0.0
 11
2053.522957269358
 21
730.6590546130305
 31
0.0
  0
INSERT
  5
706F
330
7011
100
AcDbEntity
  8
寸法
  6
Continuous
 62
     4
370
    -2
100
AcDbBlockReference
  2
_Dot
 10
2053.522957269358
 20
772.0448057993785
 30
0.0
 50
90.0
  0
INSERT
  5
7070
330
7011
100
AcDbEntity
  8
寸法
  6
Continuous
 62
     4
370
    -2
100
AcDbBlockReference
  2
_Dot
 10
2053.522957269358
 20
729.6590546130305
 30
0.0
 50
270.0
  0
MTEXT
  5
7071
330
7011
100
AcDbEntity
  8
寸法
  6
Continuous
 62
     3
100
AcDbMText
 10
2050.022957269357
 20
750.8519302062048
 30
0.0
 40
5.0
 41
0.0
 71
     5
 72
     1
  1
\A1;44
  7
ACAD
 11
0.0000000000000001
 21
1.0
 31
0.0
 73
     1
 44
1.0
1001
ACAD
1000
MTEXTBEGIN
1070
    73
1070
     1
1070
    44
1040
1.0
1070
    74
1070
     0
1000
MTEXTEND
  0
POINT
  5
7072
330
7011
100
AcDbEntity
  8
Defpoints
  6
Continuous
 62
     0
100
AcDbPoint
 10
1942.486786891642
 20
772.0448057993785
 30
0.0
  0
POINT
  5
7073
330
7011
100
AcDbEntity
  8
Defpoints
  6
Continuous
 62
     0
100
AcDbPoint
 10
2015.522957269357
 20
729.6590546130305
 30
0.0
  0
POINT
  5
7074
330
7011
100
AcDbEntity
  8
Defpoints
  6
Continuous
 62
     0
100
AcDbPoint
 10
2053.522957269358
 20
729.6590546130305
 30
0.0
  0
ENDBLK
  5
701C
330
7011
100
AcDbEntity
  8
0
100
AcDbBlockEnd
  0
BLOCK
  5
7027
330
701E
100
AcDbEntity
  8
0
100
AcDbBlockBegin
  2
*D7
 70
     1
 10
0.0
 20
0.0
 30
0.0
  3
*D7
  1

  0
LINE
  5
7086
330
701E
100
AcDbEntity
  8
寸法
  6
Continuous
 62
     4
370
    -2
100
AcDbLine
 10
2013.522957269358
 20
727.6590546130305
 30
0.0
 11
2013.522957269358
 21
642.0448057993788
 31
0.0
  0
LINE
  5
7087
330
701E
100
AcDbEntity
  8
寸法
  6
Continuous
 62
     4
370
    -2
100
AcDbLine
 10
2012.522957269357
 20
642.0448057993788
 30
0.0
 11
1939.522957269358
 21
642.0448057993788
 31
0.0
  0
INSERT
  5
7088
330
701E
100
AcDbEntity
  8
寸法
  6
Continuous
 62
     4
370
    -2
100
AcDbBlockReference
  2
_Dot
 10
2013.522957269358
 20
642.0448057993788
 30
0.0
  0
INSERT
  5
7089
330
701E
100
AcDbEntity
  8
寸法
  6
Continuous
 62
     4
370
    -2
100
AcDbBlockReference
  2
_Dot
 10
1938.522957269358
 20
642.0448057993788
 30
0.0
 50
180.0
  0
MTEXT
  5
708A
330
701E
100
AcDbEntity
  8
寸法
  6
Continuous
 62
     3
100
AcDbMText
 10
1976.022957269358
 20
645.5448057993788
 30
0.0
 40
5.0
 41
0.0
 71
     5
 72
     1
  1
\A1;75≦
  7
ACAD
 73
     1
 44
1.0
1001
ACAD
1000
MTEXTBEGIN
1070
    73
1070
     1
1070
    44
1040
1.0
1070
    74
1070
     0
1000
MTEXTEND
  0
POINT
  5
708B
330
701E
100
AcDbEntity
  8
Defpoints
  6
Continuous
 62
     0
100
AcDbPoint
 10
2013.522957269358
 20
727.6590546130305
 30
0.0
  0
POINT
  5
708C
330
701E
100
AcDbEntity
  8
Defpoints
  6
Continuous
 62
     0
100
AcDbPoint
 10
1938.522957269358
 20
642.0448057993788
 30
0.0
  0
POINT
  5
708D
330
701E
100
AcDbEntity
  8
Defpoints
  6
Continuous
 62
     0
100
AcDbPoint
 10
1938.522957269358
 20
642.0448057993788
 30
0.0
  0
ENDBLK
  5
7028
330
701E
100
AcDbEntity
  8
0
100
AcDbBlockEnd
  0
BLOCK
  5
7032
330
702A
100
AcDbEntity
  8
0
100
AcDbBlockBegin
  2
*D8
 70
     1
 10
0.0
 20
0.0
 30
0.0
  3
*D8
  1

  0
LINE
  5
708E
330
702A
100
AcDbEntity
  8
寸法
  6
Continuous
 62
     4
370
    -2
100
AcDbLine
 10
1937.522957269358
 20
642.0448057993788
 30
0.0
 11
1789.522957269356
 21
642.0448057993788
 31
0.0
  0
INSERT
  5
708F
330
702A
100
AcDbEntity
  8
寸法
  6
Continuous
 62
     4
370
    -2
100
AcDbBlockReference
  2
_Dot
 10
1938.522957269358
 20
642.0448057993788
 30
0.0
  0
INSERT
  5
7090
330
702A
100
AcDbEntity
  8
寸法
  6
Continuous
 62
     4
370
    -2
100
AcDbBlockReference
  2
_Dot
 10
1788.522957269355
 20
642.0448057993788
 30
0.0
 50
180.0
  0
MTEXT
  5
7091
330
702A
100
AcDbEntity
  8
寸法
  6
Continuous
 62
     3
100
AcDbMText
 10
1863.522957269357
 20
645.5448057993788
 30
0.0
 40
5.0
 41
0.0
 71
     5
 72
     1
  1
\A1;≦Ｃ
  7
ACAD
 73
     1
 44
1.0
1001
ACAD
1000
MTEXTBEGIN
1070
    73
1070
     1
1070
    44
1040
1.0
1070
    74
1070
     0
1000
MTEXTEND
  0
POINT
  5
7092
330
702A
100
AcDbEntity
  8
Defpoints
  6
Continuous
 62
     0
100
AcDbPoint
 10
1938.522957269358
 20
642.0448057993788
 30
0.0
  0
POINT
  5
7093
330
702A
100
AcDbEntity
  8
Defpoints
  6
Continuous
 62
     0
100
AcDbPoint
 10
1788.522957269355
 20
642.0448057993788
 30
0.0
  0
POINT
  5
7094
330
702A
100
AcDbEntity
  8
Defpoints
  6
Continuous
 62
     0
100
AcDbPoint
 10
1788.522957269355
 20
642.0448057993788
 30
0.0
  0
ENDBLK
  5
7033
330
702A
100
AcDbEntity
  8
0
100
AcDbBlockEnd
  0
BLOCK
  5
703D
330
7035
100
AcDbEntity
  8
0
100
AcDbBlockBegin
  2
*D9
 70
     1
 10
0.0
 20
0.0
 30
0.0
  3
*D9
  1

  0
LINE
  5
7036
330
7035
100
AcDbEntity
  8
寸法
  6
Continuous
 62
     4
370
    -2
100
AcDbLine
 10
1787.522957269356
 20
642.0448057993788
 30
0.0
 11
1639.522957269356
 21
642.0448057993788
 31
0.0
  0
INSERT
  5
7037
330
7035
100
AcDbEntity
  8
寸法
  6
Continuous
 62
     4
370
    -2
100
AcDbBlockReference
  2
_Dot
 10
1788.522957269355
 20
642.0448057993788
 30
0.0
  0
INSERT
  5
7038
330
7035
100
AcDbEntity
  8
寸法
  6
Continuous
 62
     4
370
    -2
100
AcDbBlockReference
  2
_Dot
 10
1638.522957269356
 20
642.0448057993788
 30
0.0
 50
180.0
  0
MTEXT
  5
7039
330
7035
100
AcDbEntity
  8
寸法
  6
Continuous
 62
     3
100
AcDbMText
 10
1713.522957269356
 20
645.5448057993788
 30
0.0
 40
5.0
 41
0.0
 71
     5
 72
     1
  1
\A1;150
  7
ACAD
 73
     1
 44
1.0
1001
ACAD
1000
MTEXTBEGIN
1070
    73
1070
     1
1070
    44
1040
1.0
1070
    74
1070
     0
1000
MTEXTEND
  0
POINT
  5
703A
330
7035
100
AcDbEntity
  8
Defpoints
  6
Continuous
 62
     0
100
AcDbPoint
 10
1788.522957269355
 20
642.0448057993788
 30
0.0
  0
POINT
  5
703B
330
7035
100
AcDbEntity
  8
Defpoints
  6
Continuous
 62
     0
100
AcDbPoint
 10
1638.522957269356
 20
642.0448057993788
 30
0.0
  0
POINT
  5
703C
330
7035
100
AcDbEntity
  8
Defpoints
  6
Continuous
 62
     0
100
AcDbPoint
 10
1638.522957269356
 20
642.0448057993788
 30
0.0
  0
ENDBLK
  5
703E
330
7035
100
AcDbEntity
  8
0
100
AcDbBlockEnd
  0
BLOCK
  5
7048
330
7040
100
AcDbEntity
  8
0
100
AcDbBlockBegin
  2
*D10
 70
     1
 10
0.0
 20
0.0
 30
0.0
  3
*D10
  1

  0
LINE
  5
7095
330
7040
100
AcDbEntity
  8
寸法
  6
Continuous
 62
     4
370
    -2
100
AcDbLine
 10
1637.522957269356
 20
642.0448057993788
 30
0.0
 11
1489.522957269358
 21
642.0448057993788
 31
0.0
  0
INSERT
  5
7096
330
7040
100
AcDbEntity
  8
寸法
  6
Continuous
 62
     4
370
    -2
100
AcDbBlockReference
  2
_Dot
 10
1638.522957269356
 20
642.0448057993788
 30
0.0
  0
INSERT
  5
7097
330
7040
100
AcDbEntity
  8
寸法
  6
Continuous
 62
     4
370
    -2
100
AcDbBlockReference
  2
_Dot
 10
1488.522957269358
 20
642.0448057993788
 30
0.0
 50
180.0
  0
MTEXT
  5
7098
330
7040
100
AcDbEntity
  8
寸法
  6
Continuous
 62
     3
100
AcDbMText
 10
1563.522957269357
 20
645.5448057993788
 30
0.0
 40
5.0
 41
0.0
 71
     5
 72
     1
  1
\A1;≦Ｃ
  7
ACAD
 73
     1
 44
1.0
1001
ACAD
1000
MTEXTBEGIN
1070
    73
1070
     1
1070
    44
1040
1.0
1070
    74
1070
     0
1000
MTEXTEND
  0
POINT
  5
7099
330
7040
100
AcDbEntity
  8
Defpoints
  6
Continuous
 62
     0
100
AcDbPoint
 10
1638.522957269356
 20
642.0448057993788
 30
0.0
  0
POINT
  5
709A
330
7040
100
AcDbEntity
  8
Defpoints
  6
Continuous
 62
     0
100
AcDbPoint
 10
1488.522957269358
 20
642.0448057993788
 30
0.0
  0
POINT
  5
709B
330
7040
100
AcDbEntity
  8
Defpoints
  6
Continuous
 62
     0
100
AcDbPoint
 10
1488.522957269358
 20
642.0448057993788
 30
0.0
  0
ENDBLK
  5
7049
330
7040
100
AcDbEntity
  8
0
100
AcDbBlockEnd
  0
BLOCK
  5
7054
330
704B
100
AcDbEntity
  8
0
100
AcDbBlockBegin
  2
*D11
 70
     1
 10
0.0
 20
0.0
 30
0.0
  3
*D11
  1

  0
LINE
  5
707E
330
704B
100
AcDbEntity
  8
寸法
  6
Continuous
 62
     4
370
    -2
100
AcDbLine
 10
1413.522957269357
 20
727.6590546130305
 30
0.0
 11
1413.522957269357
 21
642.0448057993788
 31
0.0
  0
LINE
  5
707F
330
704B
100
AcDbEntity
  8
寸法
  6
Continuous
 62
     4
370
    -2
100
AcDbLine
 10
1487.522957269358
 20
642.0448057993788
 30
0.0
 11
1414.522957269357
 21
642.0448057993788
 31
0.0
  0
INSERT
  5
7080
330
704B
100
AcDbEntity
  8
寸法
  6
Continuous
 62
     4
370
    -2
100
AcDbBlockReference
  2
_Dot
 10
1488.522957269358
 20
642.0448057993788
 30
0.0
  0
INSERT
  5
7081
330
704B
100
AcDbEntity
  8
寸法
  6
Continuous
 62
     4
370
    -2
100
AcDbBlockReference
  2
_Dot
 10
1413.522957269357
 20
642.0448057993788
 30
0.0
 50
180.0
  0
MTEXT
  5
7082
330
704B
100
AcDbEntity
  8
寸法
  6
Continuous
 62
     3
100
AcDbMText
 10
1451.022957269357
 20
645.5448057993788
 30
0.0
 40
5.0
 41
0.0
 71
     5
 72
     1
  1
\A1;75≦
  7
ACAD
 73
     1
 44
1.0
1001
ACAD
1000
MTEXTBEGIN
1070
    73
1070
     1
1070
    44
1040
1.0
1070
    74
1070
     0
1000
MTEXTEND
  0
POINT
  5
7083
330
704B
100
AcDbEntity
  8
Defpoints
  6
Continuous
 62
     0
100
AcDbPoint
 10
1488.522957269358
 20
642.0448057993788
 30
0.0
  0
POINT
  5
7084
330
704B
100
AcDbEntity
  8
Defpoints
  6
Continuous
 62
     0
100
AcDbPoint
 10
1413.522957269357
 20
727.6590546130305
 30
0.0
  0
POINT
  5
7085
330
704B
100
AcDbEntity
  8
Defpoints
  6
Continuous
 62
     0
100
AcDbPoint
 10
1413.522957269357
 20
642.0448057993788
 30
0.0
  0
ENDBLK
  5
7055
330
704B
100
AcDbEntity
  8
0
100
AcDbBlockEnd
  0
BLOCK
  5
705F
330
7057
100
AcDbEntity
  8
0
100
AcDbBlockBegin
  2
*D12
 70
     1
 10
0.0
 20
0.0
 30
0.0
  3
*D12
  1

  0
LINE
  5
7058
330
7057
100
AcDbEntity
  8
寸法
  6
Continuous
 62
     4
370
    -2
100
AcDbLine
 10
1489.522957269357
 20
712.0448057993788
 30
0.0
 11
1537.522957269357
 21
712.0448057993788
 31
0.0
  0
INSERT
  5
7059
330
7057
100
AcDbEntity
  8
寸法
  6
Continuous
 62
     4
370
    -2
100
AcDbBlockReference
  2
_Dot
 10
1488.522957269357
 20
712.0448057993788
 30
0.0
 50
180.0
  0
INSERT
  5
705A
330
7057
100
AcDbEntity
  8
寸法
  6
Continuous
 62
     4
370
    -2
100
AcDbBlockReference
  2
_Dot
 10
1538.522957269357
 20
712.0448057993788
 30
0.0
  0
MTEXT
  5
705B
330
7057
100
AcDbEntity
  8
寸法
  6
Continuous
 62
     3
100
AcDbMText
 10
1513.522957269357
 20
715.5448057993789
 30
0.0
 40
5.0
 41
0.0
 71
     5
 72
     1
  1
\A1;50
  7
ACAD
 73
     1
 44
1.0
1001
ACAD
1000
MTEXTBEGIN
1070
    73
1070
     1
1070
    44
1040
1.0
1070
    74
1070
     0
1000
MTEXTEND
  0
POINT
  5
705C
330
7057
100
AcDbEntity
  8
Defpoints
  6
Continuous
 62
     0
100
AcDbPoint
 10
1488.522957269357
 20
712.0448057993788
 30
0.0
  0
POINT
  5
705D
330
7057
100
AcDbEntity
  8
Defpoints
  6
Continuous
 62
     0
100
AcDbPoint
 10
1538.522957269357
 20
712.0448057993788
 30
0.0
  0
POINT
  5
705E
330
7057
100
AcDbEntity
  8
Defpoints
  6
Continuous
 62
     0
100
AcDbPoint
 10
1538.522957269357
 20
712.0448057993788
 30
0.0
  0
ENDBLK
  5
7060
330
7057
100
AcDbEntity
  8
0
100
AcDbBlockEnd
  0
BLOCK
  5
706A
330
7062
100
AcDbEntity
  8
0
100
AcDbBlockBegin
  2
*D13
 70
     1
 10
0.0
 20
0.0
 30
0.0
  3
*D13
  1

  0
LINE
  5
7063
330
7062
100
AcDbEntity
  8
寸法
  6
Continuous
 62
     4
370
    -2
100
AcDbLine
 10
1889.522957269357
 20
712.0448057993788
 30
0.0
 11
1937.522957269357
 21
712.0448057993788
 31
0.0
  0
INSERT
  5
7064
330
7062
100
AcDbEntity
  8
寸法
  6
Continuous
 62
     4
370
    -2
100
AcDbBlockReference
  2
_Dot
 10
1888.522957269357
 20
712.0448057993788
 30
0.0
 50
180.0
  0
INSERT
  5
7065
330
7062
100
AcDbEntity
  8
寸法
  6
Continuous
 62
     4
370
    -2
100
AcDbBlockReference
  2
_Dot
 10
1938.522957269357
 20
712.0448057993788
 30
0.0
  0
MTEXT
  5
7066
330
7062
100
AcDbEntity
  8
寸法
  6
Continuous
 62
     3
100
AcDbMText
 10
1913.522957269357
 20
715.5448057993789
 30
0.0
 40
5.0
 41
0.0
 71
     5
 72
     1
  1
\A1;50
  7
ACAD
 73
     1
 44
1.0
1001
ACAD
1000
MTEXTBEGIN
1070
    73
1070
     1
1070
    44
1040
1.0
1070
    74
1070
     0
1000
MTEXTEND
  0
POINT
  5
7067
330
7062
100
AcDbEntity
  8
Defpoints
  6
Continuous
 62
     0
100
AcDbPoint
 10
1888.522957269357
 20
712.0448057993788
 30
0.0
  0
POINT
  5
7068
330
7062
100
AcDbEntity
  8
Defpoints
  6
Continuous
 62
     0
100
AcDbPoint
 10
1938.522957269357
 20
712.0448057993788
 30
0.0
  0
POINT
  5
7069
330
7062
100
AcDbEntity
  8
Defpoints
  6
Continuous
 62
     0
100
AcDbPoint
 10
1938.522957269357
 20
712.0448057993788
 30
0.0
  0
ENDBLK
  5
706B
330
7062
100
AcDbEntity
  8
0
100
AcDbBlockEnd
  0
ENDSEC
  0
SECTION
  2
ENTITIES
  0
LINE
  5
6BC3
330
1E
100
AcDbEntity
  8
図枠
  6
Continuous
 62
     7
100
AcDbLine
 10
2125.522957269357
 20
956.0448057993786
 30
0.0
 11
1301.522957269357
 21
956.0448057993786
 31
0.0
  0
LINE
  5
6BC4
330
1E
100
AcDbEntity
  8
図枠
  6
Continuous
 62
     7
100
AcDbLine
 10
1301.522957269357
 20
956.0448057993786
 30
0.0
 11
1301.522957269357
 21
380.0448057993788
 31
0.0
  0
LINE
  5
6BC5
330
1E
100
AcDbEntity
  8
図枠
  6
Continuous
 62
     7
100
AcDbLine
 10
2125.522957269357
 20
380.0448057993788
 30
0.0
 11
2125.522957269357
 21
956.0448057993786
 31
0.0
  0
LINE
  5
6BC6
330
1E
100
AcDbEntity
  8
図枠
  6
Continuous
 62
     7
100
AcDbLine
 10
1301.522957269357
 20
380.0448057993788
 30
0.0
 11
2125.522957269357
 21
380.0448057993788
 31
0.0
  0
LINE
  5
6BC7
330
1E
100
AcDbEntity
  8
躯体と製品
  6
Continuous
 62
     3
100
AcDbLine
 10
1416.522957269357
 20
729.6590546130305
 30
0.0
 11
1423.522957269357
 21
729.6590546130305
 31
0.0
  0
LINE
  5
6BC8
330
1E
100
AcDbEntity
  8
躯体と製品
  6
Continuous
 62
     3
100
AcDbLine
 10
2013.522957269358
 20
816.8121609128856
 30
0.0
 11
2013.522957269358
 21
732.6590546130305
 31
0.0
  0
LINE
  5
6BC9
330
1E
100
AcDbEntity
  8
躯体と製品
  6
Continuous
 62
     7
100
AcDbLine
 10
1488.522957269357
 20
772.0448057993785
 30
0.0
 11
1638.522957269357
 21
772.0448057993785
 31
0.0
  0
LINE
  5
6BCA
330
1E
100
AcDbEntity
  8
躯体と製品
  6
DASHED1
 62
     7
100
AcDbLine
 10
1566.13915924252
 20
806.1301738835545
 30
0.0
 11
1564.307610196113
 21
803.7541628914581
 31
0.0
  0
LINE
  5
6BCB
330
1E
100
AcDbEntity
  8
躯体と製品
  6
DASHED1
 62
     7
100
AcDbLine
 10
1566.13915924252
 20
806.1301738835545
 30
0.0
 11
1565.505556316342
 21
806.618586958665
 31
0.0
  0
ARC
  5
6BCC
330
1E
100
AcDbEntity
  8
躯体と製品
  6
Continuous
 62
     7
100
AcDbCircle
 10
1488.551517043256
 20
771.045213712918
 30
0.0
 40
1.0
100
AcDbArc
 50
91.63657704161829
 51
175.0000000000005
  0
POINT
  5
6BCD
330
1E
100
AcDbEntity
  8
躯体と製品
 62
     4
100
AcDbPoint
 10
1538.522957269357
 20
791.9683202272653
 30
0.0
  0
LINE
  5
6BCE
330
1E
100
AcDbEntity
  8
躯体と製品
  6
Continuous
 62
     4
100
AcDbLine
 10
1535.990522724173
 20
793.8305950121371
 30
0.0
 11
1536.094789555601
 21
791.8410653496605
 31
0.0
  0
LINE
  5
6BCF
330
1E
100
AcDbEntity
  8
躯体と製品
  6
Continuous
 62
     4
100
AcDbLine
 10
1540.846858151685
 20
794.0851047673466
 30
0.0
 11
1540.951124983113
 21
792.09557510487
 31
0.0
  0
LINE
  5
6BD0
330
1E
100
AcDbEntity
  8
躯体と製品
  6
Continuous
 62
     7
100
AcDbLine
 10
1535.715478107568
 20
788.21624603342
 30
0.0
 11
1535.979211552462
 21
783.1839121222697
 31
0.0
  0
LINE
  5
6BD1
330
1E
100
AcDbEntity
  8
躯体と製品
  6
Continuous
 62
     7
100
AcDbLine
 10
1535.422801833665
 20
793.8008420210133
 30
0.0
 11
1535.527068665093
 21
791.8113123585364
 31
0.0
  0
LINE
  5
6BD2
330
1E
100
AcDbEntity
  8
躯体と製品
  6
Continuous
 62
     7
100
AcDbLine
 10
1541.707255316095
 20
788.5302617708776
 30
0.0
 11
1541.970988760989
 21
783.4979278597274
 31
0.0
  0
LINE
  5
6BD3
330
1E
100
AcDbEntity
  8
躯体と製品
  6
Continuous
 62
     7
100
AcDbLine
 10
1541.414579042192
 20
794.1148577584706
 30
0.0
 11
1541.518845873621
 21
792.1253280959943
 31
0.0
  0
LINE
  5
6BD4
330
1E
100
AcDbEntity
  8
躯体と製品
  6
Continuous
 62
     4
100
AcDbLine
 10
1535.979211552462
 20
783.1839121222697
 30
0.0
 11
1541.970988760989
 21
783.4979278597274
 31
0.0
  0
ARC
  5
6BD5
330
1E
100
AcDbEntity
  8
躯体と製品
  6
DASHED1
 62
     7
100
AcDbCircle
 10
1537.298700921994
 20
815.3285229321195
 30
0.0
 40
6.299999999999998
100
AcDbArc
 50
53.69062899999587
 51
132.3031309999968
  0
ARC
  5
6BD6
330
1E
100
AcDbEntity
  8
躯体と製品
  6
DASHED1
 62
     7
100
AcDbCircle
 10
1535.374989369259
 20
817.4313635184114
 30
0.0
 40
3.45
100
AcDbArc
 50
132.179511
 51
179.6872570000013
  0
ARC
  5
6BD7
330
1E
100
AcDbEntity
  8
躯体と製品
  6
DASHED1
 62
     7
100
AcDbCircle
 10
1538.986325374515
 20
817.6251347983656
 30
0.0
 40
3.45
100
AcDbArc
 50
6.237837000000908
 51
53.69087599999915
  0
LINE
  5
6BD8
330
1E
100
AcDbEntity
  8
躯体と製品
  6
DASHED1
 62
     7
100
AcDbLine
 10
1536.26195532865
 20
820.7803153521478
 30
0.0
 11
1537.759899630781
 21
820.8588192865121
 31
0.0
  0
ARC
  5
6BD9
330
1E
100
AcDbEntity
  8
躯体と製品
  6
DASHED1
 62
     7
100
AcDbCircle
 10
1535.660723683194
 20
820.7881049944937
 30
0.0
 40
0.5999999999999997
100
AcDbArc
 50
2.999999999998919
 51
106.7002329999983
  0
ARC
  5
6BDA
330
1E
100
AcDbEntity
  8
躯体と製品
  6
DASHED1
 62
     7
100
AcDbCircle
 10
1538.357023427031
 20
820.9294120763495
 30
0.0
 40
0.5999999999999997
100
AcDbArc
 50
79.29976699999421
 51
182.9999999999989
  0
LINE
  5
6BDB
330
1E
100
AcDbEntity
  8
躯体と製品
  6
DASHED1
 62
     7
100
AcDbLine
 10
1526.515117732299
 20
817.1666719134559
 30
0.0
 11
1547.831071626395
 21
818.2837937203455
 31
0.0
  0
LINE
  5
6BDC
330
1E
100
AcDbEntity
  8
躯体と製品
  6
DASHED1
 62
     7
100
AcDbLine
 10
1549.228203906045
 20
817.728186391937
 30
0.0
 11
1562.158154983298
 21
804.1631335327096
 31
0.0
  0
LINE
  5
6BDD
330
1E
100
AcDbEntity
  8
躯体と製品
  6
DASHED1
 62
     7
100
AcDbLine
 10
1565.505556316342
 20
806.618586958665
 30
0.0
 11
1563.674007269955
 21
804.2425759665938
 31
0.0
  0
LINE
  5
6BDE
330
1E
100
AcDbEntity
  8
躯体と製品
  6
DASHED1
 62
     7
100
AcDbLine
 10
1526.556986497293
 20
816.3677682856523
 30
0.0
 11
1547.872940391389
 21
817.4848900925416
 31
0.0
  0
ARC
  5
6BDF
330
1E
100
AcDbEntity
  8
躯体と製品
  6
DASHED1
 62
     7
100
AcDbCircle
 10
1526.609322453536
 20
815.3691387508978
 30
0.0
 40
1.8
100
AcDbArc
 50
93.00000000000558
 51
142.3731526377183
  0
LINE
  5
6BE0
330
1E
100
AcDbEntity
  8
躯体と製品
  6
DASHED1
 62
     7
100
AcDbLine
 10
1525.817318795838
 20
815.9796550948174
 30
0.0
 11
1514.376133458384
 21
801.1373650793112
 31
0.0
  0
LINE
  5
6BE1
330
1E
100
AcDbEntity
  8
躯体と製品
  6
DASHED1
 62
     7
100
AcDbLine
 10
1525.183715869679
 20
816.4680681699534
 30
0.0
 11
1513.742530532226
 21
801.6257781544465
 31
0.0
  0
ARC
  5
6BE2
330
1E
100
AcDbEntity
  8
躯体と製品
  6
DASHED1
 62
     7
100
AcDbCircle
 10
1512.950526889132
 20
802.2362945173123
 30
0.0
 40
1.8
100
AcDbArc
 50
223.6268481237193
 51
322.3731526377183
  0
ARC
  5
6BE3
330
1E
100
AcDbEntity
  8
躯体と製品
  6
DASHED1
 62
     7
100
AcDbCircle
 10
1512.950526889132
 20
802.2362945173123
 30
0.0
 40
1.0
100
AcDbArc
 50
223.6268487328658
 51
322.3731526377183
  0
LINE
  5
6BE4
330
1E
100
AcDbEntity
  8
躯体と製品
  6
DASHED1
 62
     7
100
AcDbLine
 10
1509.57772294042
 20
803.1659146139022
 30
0.0
 11
1511.647599347224
 21
800.994368665847
 31
0.0
  0
LINE
  5
6BE5
330
1E
100
AcDbEntity
  8
躯体と製品
  6
DASHED1
 62
     7
100
AcDbLine
 10
1509.57772294042
 20
803.1659146139022
 30
0.0
 11
1510.156801855292
 21
803.7178816512788
 31
0.0
  0
LINE
  5
6BE6
330
1E
100
AcDbEntity
  8
躯体と製品
  6
DASHED1
 62
     7
100
AcDbLine
 10
1510.156801855292
 20
803.7178816512788
 30
0.0
 11
1512.226678262074
 21
801.5463357032469
 31
0.0
  0
ARC
  5
6BE7
330
1E
100
AcDbEntity
  8
躯体と製品
  6
DASHED1
 62
     7
100
AcDbCircle
 10
1562.882003626861
 20
804.8530923294594
 30
0.0
 40
1.8
100
AcDbArc
 50
223.6268473622824
 51
322.3731518762774
  0
ARC
  5
6BE8
330
1E
100
AcDbEntity
  8
躯体と製品
  6
DASHED1
 62
     7
100
AcDbCircle
 10
1562.882003626861
 20
804.8530923294594
 30
0.0
 40
1.0
100
AcDbArc
 50
223.6268473622824
 51
322.3731512671368
  0
ARC
  5
6BE9
330
1E
100
AcDbEntity
  8
躯体と製品
  6
DASHED1
 62
     7
100
AcDbCircle
 10
1547.925276347632
 20
816.4862605577871
 30
0.0
 40
1.0
100
AcDbArc
 50
43.62684736228245
 51
93.00000000000558
  0
LINE
  5
6BEA
330
1E
100
AcDbEntity
  8
躯体と製品
  6
DASHED1
 62
     7
100
AcDbLine
 10
1548.649124991194
 20
817.1762193545369
 30
0.0
 11
1561.579076084953
 21
803.6111664779941
 31
0.0
  0
ARC
  5
6BEB
330
1E
100
AcDbEntity
  8
躯体と製品
  6
DASHED1
 62
     7
100
AcDbCircle
 10
1547.925276347632
 20
816.4862605577871
 30
0.0
 40
1.8
100
AcDbArc
 50
43.62684736228245
 51
93.00000000000558
  0
ARC
  5
6BEC
330
1E
100
AcDbEntity
  8
躯体と製品
  6
DASHED1
 62
     7
100
AcDbCircle
 10
1526.609322453536
 20
815.3691387508978
 30
0.0
 40
1.0
100
AcDbArc
 50
93.00000000000558
 51
142.3731526377183
  0
LINE
  5
6BED
330
1E
100
AcDbEntity
  8
躯体と製品
  6
DASHED1
 62
     4
100
AcDbLine
 10
1539.601262393103
 20
817.8524876945052
 30
0.0
 11
1540.846858151685
 21
794.0851047673466
 31
0.0
  0
LINE
  5
6BEE
330
1E
100
AcDbEntity
  8
躯体と製品
  6
DASHED1
 62
     7
100
AcDbLine
 10
1540.16898328361
 20
817.8822406856298
 30
0.0
 11
1541.414579042192
 21
794.1148577584706
 31
0.0
  0
LINE
  5
6BEF
330
1E
100
AcDbEntity
  8
躯体と製品
  6
DASHED1
 62
     7
100
AcDbLine
 10
1534.177206075083
 20
817.5682249481718
 30
0.0
 11
1535.422801833665
 21
793.8008420210133
 31
0.0
  0
LINE
  5
6BF0
330
1E
100
AcDbEntity
  8
躯体と製品
  6
DASHED1
 62
     4
100
AcDbLine
 10
1534.744926965591
 20
817.597977939296
 30
0.0
 11
1535.990522724173
 21
793.8305950121371
 31
0.0
  0
LINE
  5
6BF1
330
1E
100
AcDbEntity
  8
躯体と製品
  6
Continuous
 62
     3
100
AcDbLine
 10
1513.150386987929
 20
782.0183297539356
 30
0.0
 11
1512.831631289089
 21
780.9466979120898
 31
0.0
  0
LINE
  5
6BF2
330
1E
100
AcDbEntity
  8
躯体と製品
  6
Continuous
 62
     3
100
AcDbLine
 10
1513.324035165596
 20
781.0335220009228
 30
0.0
 11
1513.005279466757
 21
779.9618901590772
 31
0.0
  0
LINE
  5
6BF3
330
1E
100
AcDbEntity
  8
躯体と製品
  6
Continuous
 62
     3
100
AcDbLine
 10
1538.522957269357
 20
776.0448057993785
 30
0.0
 11
1539.022957269357
 21
776.5448057993785
 31
0.0
  0
LINE
  5
6BF4
330
1E
100
AcDbEntity
  8
躯体と製品
  6
Continuous
 62
     3
100
AcDbLine
 10
1522.322957269357
 20
782.5448057993785
 30
0.0
 11
1525.272957269357
 21
782.5448057993785
 31
0.0
  0
ARC
  5
6BF5
330
1E
100
AcDbEntity
  8
躯体と製品
  6
Continuous
 62
     3
100
AcDbCircle
 10
1522.322957269357
 20
782.2448057993786
 30
0.0
 40
0.2999999999999998
100
AcDbArc
 50
90.0
 51
180.0
  0
LINE
  5
6BF6
330
1E
100
AcDbEntity
  8
躯体と製品
  6
Continuous
 62
     3
100
AcDbLine
 10
1522.022957269357
 20
782.2448057993786
 30
0.0
 11
1522.022957269357
 21
780.3448057993788
 31
0.0
  0
ARC
  5
6BF7
330
1E
100
AcDbEntity
  8
躯体と製品
  6
Continuous
 62
     3
100
AcDbCircle
 10
1522.322957269357
 20
780.3448057993788
 30
0.0
 40
0.2999999999999998
100
AcDbArc
 50
180.0
 51
270.0
  0
LINE
  5
6BF8
330
1E
100
AcDbEntity
  8
躯体と製品
  6
Continuous
 62
     3
100
AcDbLine
 10
1522.322957269357
 20
780.0448057993785
 30
0.0
 11
1524.272957269357
 21
780.0448057993785
 31
0.0
  0
LINE
  5
6BF9
330
1E
100
AcDbEntity
  8
躯体と製品
  6
Continuous
 62
     3
100
AcDbLine
 10
1522.022957269357
 20
778.2448057993786
 30
0.0
 11
1522.022957269357
 21
776.8448057993787
 31
0.0
  0
ARC
  5
6BFA
330
1E
100
AcDbEntity
  8
躯体と製品
  6
Continuous
 62
     3
100
AcDbCircle
 10
1522.322957269357
 20
778.2448057993786
 30
0.0
 40
0.2999999999999998
100
AcDbArc
 50
90.0
 51
180.0
  0
LINE
  5
6BFB
330
1E
100
AcDbEntity
  8
躯体と製品
  6
Continuous
 62
     3
100
AcDbLine
 10
1522.322957269357
 20
778.5448057993785
 30
0.0
 11
1524.272957269357
 21
778.5448057993785
 31
0.0
  0
ARC
  5
6BFC
330
1E
100
AcDbEntity
  8
躯体と製品
  6
Continuous
 62
     3
100
AcDbCircle
 10
1524.272957269357
 20
779.2948057993785
 30
0.0
 40
0.75
100
AcDbArc
 50
270.0
 51
90.0
  0
ARC
  5
6BFD
330
1E
100
AcDbEntity
  8
躯体と製品
  6
Continuous
 62
     3
100
AcDbCircle
 10
1525.272957269357
 20
783.2948057993785
 30
0.0
 40
0.75
100
AcDbArc
 50
270.0
 51
90.0
  0
LINE
  5
6BFE
330
1E
100
AcDbEntity
  8
躯体と製品
  6
Continuous
 62
     3
100
AcDbLine
 10
1522.022957269357
 20
784.5448057993785
 30
0.0
 11
1522.022957269357
 21
792.0448057993785
 31
0.0
  0
ARC
  5
6BFF
330
1E
100
AcDbEntity
  8
躯体と製品
  6
Continuous
 62
     3
100
AcDbCircle
 10
1522.522957269357
 20
784.5448057993785
 30
0.0
 40
0.5
100
AcDbArc
 50
180.0
 51
270.0
  0
LINE
  5
6C00
330
1E
100
AcDbEntity
  8
躯体と製品
  6
Continuous
 62
     3
100
AcDbLine
 10
1522.522957269357
 20
784.0448057993785
 30
0.0
 11
1525.272957269357
 21
784.0448057993785
 31
0.0
  0
ARC
  5
6C01
330
1E
100
AcDbEntity
  8
躯体と製品
  6
Continuous
 62
     3
100
AcDbCircle
 10
1522.322957269357
 20
776.8448057993787
 30
0.0
 40
0.2999999999999998
100
AcDbArc
 50
180.0
 51
270.0
  0
ARC
  5
6C02
330
1E
100
AcDbEntity
  8
躯体と製品
  6
Continuous
 62
     3
100
AcDbCircle
 10
1519.522957269357
 20
777.0448057993785
 30
0.0
 40
0.5
100
AcDbArc
 50
270.0
 51
0.0
  0
LINE
  5
6C03
330
1E
100
AcDbEntity
  8
躯体と製品
  6
Continuous
 62
     3
100
AcDbLine
 10
1520.022957269357
 20
777.0448057993785
 30
0.0
 11
1520.022957269357
 21
792.0448057993785
 31
0.0
  0
LINE
  5
6C04
330
1E
100
AcDbEntity
  8
躯体と製品
  6
Continuous
 62
     3
100
AcDbLine
 10
1520.022957269357
 20
775.0448057993785
 30
0.0
 11
1509.522957269357
 21
775.0448057993785
 31
0.0
  0
LINE
  5
6C05
330
1E
100
AcDbEntity
  8
躯体と製品
  6
Continuous
 62
     3
100
AcDbLine
 10
1520.022957269357
 20
774.0448057993785
 30
0.0
 11
1520.022957269357
 21
775.0448057993785
 31
0.0
  0
LINE
  5
6C06
330
1E
100
AcDbEntity
  8
躯体と製品
  6
Continuous
 62
     3
100
AcDbLine
 10
1538.522957269357
 20
776.0448057993785
 30
0.0
 11
1538.022957269357
 21
776.5448057993785
 31
0.0
  0
LINE
  5
6C07
330
1E
100
AcDbEntity
  8
躯体と製品
  6
Continuous
 62
     3
100
AcDbLine
 10
1509.522957269357
 20
774.0448057993785
 30
0.0
 11
1508.022957269357
 21
774.0448057993785
 31
0.0
  0
LINE
  5
6C08
330
1E
100
AcDbEntity
  8
躯体と製品
  6
Continuous
 62
     3
100
AcDbLine
 10
1509.522957269357
 20
775.0448057993785
 30
0.0
 11
1509.522957269357
 21
774.0448057993785
 31
0.0
  0
ARC
  5
6C09
330
1E
100
AcDbEntity
  8
躯体と製品
  6
Continuous
 62
     3
100
AcDbCircle
 10
1521.022957269357
 20
792.0448057993785
 30
0.0
 40
1.0
100
AcDbArc
 50
0.0
 51
180.0
  0
LINE
  5
6C0A
330
1E
100
AcDbEntity
  8
躯体と製品
  6
Continuous
 62
     3
100
AcDbLine
 10
1522.022957269357
 20
774.0448057993785
 30
0.0
 11
1520.022957269357
 21
774.0448057993785
 31
0.0
  0
LINE
  5
6C0B
330
1E
100
AcDbEntity
  8
躯体と製品
  6
Continuous
 62
     3
100
AcDbLine
 10
1522.022957269357
 20
774.5448057993785
 30
0.0
 11
1522.022957269357
 21
774.0448057993785
 31
0.0
  0
LINE
  5
6C0C
330
1E
100
AcDbEntity
  8
躯体と製品
  6
Continuous
 62
     3
100
AcDbLine
 10
1533.522957269357
 20
774.5448057993785
 30
0.0
 11
1522.022957269357
 21
774.5448057993785
 31
0.0
  0
LINE
  5
6C0D
330
1E
100
AcDbEntity
  8
躯体と製品
  6
Continuous
 62
     3
100
AcDbLine
 10
1533.522957269357
 20
774.0448057993785
 30
0.0
 11
1533.522957269357
 21
774.5448057993785
 31
0.0
  0
LINE
  5
6C0E
330
1E
100
AcDbEntity
  8
躯体と製品
  6
Continuous
 62
     3
100
AcDbLine
 10
1554.722957269357
 20
776.5448057993785
 30
0.0
 11
1539.022957269357
 21
776.5448057993785
 31
0.0
  0
LINE
  5
6C0F
330
1E
100
AcDbEntity
  8
躯体と製品
  6
Continuous
 62
     3
100
AcDbLine
 10
1538.022957269357
 20
776.5448057993785
 30
0.0
 11
1522.322957269357
 21
776.5448057993785
 31
0.0
  0
LINE
  5
6C10
330
1E
100
AcDbEntity
  8
躯体と製品
  6
Continuous
 62
     3
100
AcDbLine
 10
1543.522957269357
 20
774.0448057993785
 30
0.0
 11
1533.522957269357
 21
774.0448057993785
 31
0.0
  0
LINE
  5
6C11
330
1E
100
AcDbEntity
  8
躯体と製品
  6
Continuous
 62
     3
100
AcDbLine
 10
1556.522957269357
 20
783.5448057993785
 30
0.0
 11
1556.522957269357
 21
774.0448057993785
 31
0.0
  0
ARC
  5
6C12
330
1E
100
AcDbEntity
  8
躯体と製品
  6
Continuous
 62
     3
100
AcDbCircle
 10
1556.022957269357
 20
783.5448057993785
 30
0.0
 40
0.5
100
AcDbArc
 50
0.0
 51
90.0
  0
LINE
  5
6C13
330
1E
100
AcDbEntity
  8
躯体と製品
  6
Continuous
 62
     3
100
AcDbLine
 10
1556.022957269357
 20
784.0448057993785
 30
0.0
 11
1551.772957269357
 21
784.0448057993785
 31
0.0
  0
LINE
  5
6C14
330
1E
100
AcDbEntity
  8
躯体と製品
  6
Continuous
 62
     3
100
AcDbLine
 10
1555.022957269357
 20
776.8448057993787
 30
0.0
 11
1555.022957269357
 21
778.2448057993786
 31
0.0
  0
ARC
  5
6C15
330
1E
100
AcDbEntity
  8
躯体と製品
  6
Continuous
 62
     3
100
AcDbCircle
 10
1554.722957269357
 20
776.8448057993787
 30
0.0
 40
0.2999999999999998
100
AcDbArc
 50
270.0
 51
0.0
  0
LINE
  5
6C16
330
1E
100
AcDbEntity
  8
躯体と製品
  6
Continuous
 62
     3
100
AcDbLine
 10
1554.722957269357
 20
778.5448057993785
 30
0.0
 11
1552.772957269357
 21
778.5448057993785
 31
0.0
  0
ARC
  5
6C17
330
1E
100
AcDbEntity
  8
躯体と製品
  6
Continuous
 62
     3
100
AcDbCircle
 10
1554.722957269357
 20
778.2448057993786
 30
0.0
 40
0.2999999999999998
100
AcDbArc
 50
0.0
 51
90.0
  0
LINE
  5
6C18
330
1E
100
AcDbEntity
  8
躯体と製品
  6
Continuous
 62
     3
100
AcDbLine
 10
1555.022957269357
 20
780.3448057993788
 30
0.0
 11
1555.022957269357
 21
782.2448057993786
 31
0.0
  0
ARC
  5
6C19
330
1E
100
AcDbEntity
  8
躯体と製品
  6
Continuous
 62
     3
100
AcDbCircle
 10
1554.722957269357
 20
780.3448057993788
 30
0.0
 40
0.2999999999999998
100
AcDbArc
 50
270.0
 51
0.0
  0
LINE
  5
6C1A
330
1E
100
AcDbEntity
  8
躯体と製品
  6
Continuous
 62
     3
100
AcDbLine
 10
1554.722957269357
 20
780.0448057993785
 30
0.0
 11
1552.772957269357
 21
780.0448057993785
 31
0.0
  0
LINE
  5
6C1B
330
1E
100
AcDbEntity
  8
躯体と製品
  6
Continuous
 62
     3
100
AcDbLine
 10
1554.722957269357
 20
782.5448057993785
 30
0.0
 11
1551.772957269357
 21
782.5448057993785
 31
0.0
  0
ARC
  5
6C1C
330
1E
100
AcDbEntity
  8
躯体と製品
  6
Continuous
 62
     3
100
AcDbCircle
 10
1554.722957269357
 20
782.2448057993786
 30
0.0
 40
0.2999999999999998
100
AcDbArc
 50
0.0
 51
90.0
  0
ARC
  5
6C1D
330
1E
100
AcDbEntity
  8
躯体と製品
  6
Continuous
 62
     3
100
AcDbCircle
 10
1552.772957269357
 20
779.2948057993785
 30
0.0
 40
0.75
100
AcDbArc
 50
90.0
 51
270.0
  0
ARC
  5
6C1E
330
1E
100
AcDbEntity
  8
躯体と製品
  6
Continuous
 62
     3
100
AcDbCircle
 10
1551.772957269357
 20
783.2948057993785
 30
0.0
 40
0.75
100
AcDbArc
 50
90.0
 51
270.0
  0
LINE
  5
6C1F
330
1E
100
AcDbEntity
  8
躯体と製品
  6
Continuous
 62
     3
100
AcDbLine
 10
1543.522957269357
 20
774.5448057993785
 30
0.0
 11
1543.522957269357
 21
774.0448057993785
 31
0.0
  0
LINE
  5
6C20
330
1E
100
AcDbEntity
  8
躯体と製品
  6
Continuous
 62
     3
100
AcDbLine
 10
1555.022957269357
 20
774.5448057993785
 30
0.0
 11
1543.522957269357
 21
774.5448057993785
 31
0.0
  0
LINE
  5
6C21
330
1E
100
AcDbEntity
  8
躯体と製品
  6
Continuous
 62
     3
100
AcDbLine
 10
1555.022957269357
 20
774.0448057993785
 30
0.0
 11
1555.022957269357
 21
774.5448057993785
 31
0.0
  0
LINE
  5
6C22
330
1E
100
AcDbEntity
  8
躯体と製品
  6
Continuous
 62
     3
100
AcDbLine
 10
1556.522957269357
 20
774.0448057993785
 30
0.0
 11
1555.022957269357
 21
774.0448057993785
 31
0.0
  0
LINE
  5
6C23
330
1E
100
AcDbEntity
  8
躯体と製品
  6
Continuous
 62
     3
100
AcDbLine
 10
1508.022957269357
 20
774.0448057993785
 30
0.0
 11
1508.022957269357
 21
776.5448057993785
 31
0.0
  0
ARC
  5
6C24
330
1E
100
AcDbEntity
  8
躯体と製品
  6
Continuous
 62
     3
100
AcDbCircle
 10
1507.763086062531
 20
782.3376865124489
 30
0.0
 40
0.7499999999999975
100
AcDbArc
 50
9.999999999997477
 51
189.9999999999975
  0
ARC
  5
6C25
330
1E
100
AcDbEntity
  8
躯体と製品
  6
Continuous
 62
     3
100
AcDbCircle
 10
1513.179528704098
 20
783.292751489617
 30
0.0
 40
0.7500000000000014
100
AcDbArc
 50
9.999999999997477
 51
189.9999999999975
  0
LINE
  5
6C26
330
1E
100
AcDbEntity
  8
躯体と製品
  6
Continuous
 62
     3
100
AcDbLine
 10
1508.226348222868
 20
781.1500888656005
 30
0.0
 11
1508.892400277041
 21
780.2521052014218
 31
0.0
  0
LINE
  5
6C27
330
1E
100
AcDbEntity
  8
躯体と製品
  6
Continuous
 62
     3
100
AcDbLine
 10
1508.399996400535
 20
780.1652811125882
 30
0.0
 11
1509.066048454708
 21
779.2672974484097
 31
0.0
  0
LINE
  5
6C28
330
1E
100
AcDbEntity
  8
躯体と製品
  6
Continuous
 62
     3
100
AcDbLine
 10
1512.657983111423
 20
781.9315056651019
 30
0.0
 11
1512.440922889339
 21
783.1625153563668
 31
0.0
  0
LINE
  5
6C29
330
1E
100
AcDbEntity
  8
躯体と製品
  6
Continuous
 62
     3
100
AcDbLine
 10
1508.718752099374
 20
781.2369129544342
 30
0.0
 11
1508.50169187729
 21
782.4679226456994
 31
0.0
  0
LINE
  5
6C2A
330
1E
100
AcDbEntity
  8
躯体と製品
  6
Continuous
 62
     3
100
AcDbLine
 10
1508.022957269357
 20
776.5448057993785
 30
0.0
 11
1507.024480247772
 21
782.2074503791991
 31
0.0
  0
LINE
  5
6C2B
330
1E
100
AcDbEntity
  8
躯体と製品
  6
Continuous
 62
     3
100
AcDbLine
 10
1508.226348222868
 20
781.1500888656005
 30
0.0
 11
1508.718752099374
 21
781.2369129544342
 31
0.0
  0
LINE
  5
6C2C
330
1E
100
AcDbEntity
  8
躯体と製品
  6
Continuous
 62
     3
100
AcDbLine
 10
1512.657983111423
 20
781.9315056651019
 30
0.0
 11
1513.150386987929
 21
782.0183297539356
 31
0.0
  0
LINE
  5
6C2D
330
1E
100
AcDbEntity
  8
躯体と製品
  6
Continuous
 62
     3
100
AcDbLine
 10
1508.399996400535
 20
780.1652811125882
 30
0.0
 11
1508.892400277041
 21
780.2521052014218
 31
0.0
  0
LINE
  5
6C2E
330
1E
100
AcDbEntity
  8
躯体と製品
  6
Continuous
 62
     3
100
AcDbLine
 10
1512.831631289089
 20
780.9466979120898
 30
0.0
 11
1513.324035165596
 21
781.0335220009228
 31
0.0
  0
LINE
  5
6C2F
330
1E
100
AcDbEntity
  8
躯体と製品
  6
Continuous
 62
     3
100
AcDbLine
 10
1515.05808949164
 20
776.9579817105454
 30
0.0
 11
1513.918134518857
 21
783.4229876228675
 31
0.0
  0
LINE
  5
6C30
330
1E
100
AcDbEntity
  8
躯体と製品
  6
Continuous
 62
     3
100
AcDbLine
 10
1515.550493368145
 20
776.5448057993785
 30
0.0
 11
1519.522957269357
 21
776.5448057993785
 31
0.0
  0
ARC
  5
6C31
330
1E
100
AcDbEntity
  8
躯体と製品
  6
Continuous
 62
     3
100
AcDbCircle
 10
1515.550493368145
 20
777.0448057993785
 30
0.0
 40
0.5
100
AcDbArc
 50
189.9999999999975
 51
270.0
  0
LINE
  5
6C32
330
1E
100
AcDbEntity
  8
躯体と製品
  6
Continuous
 62
     3
100
AcDbLine
 10
1513.504330714937
 20
777.1316298882121
 30
0.0
 11
1513.005279466757
 21
779.9618901590772
 31
0.0
  0
ARC
  5
6C33
330
1E
100
AcDbEntity
  8
躯体と製品
  6
Continuous
 62
     3
100
AcDbCircle
 10
1513.011926838431
 20
777.0448057993785
 30
0.0
 40
0.5
100
AcDbArc
 50
270.0
 51
9.999999999997477
  0
LINE
  5
6C34
330
1E
100
AcDbEntity
  8
躯体と製品
  6
Continuous
 62
     3
100
AcDbLine
 10
1509.473243126268
 20
776.9579817105454
 30
0.0
 11
1509.066048454708
 21
779.2672974484097
 31
0.0
  0
LINE
  5
6C35
330
1E
100
AcDbEntity
  8
躯体と製品
  6
Continuous
 62
     3
100
AcDbLine
 10
1509.965647002774
 20
776.5448057993785
 30
0.0
 11
1513.011926838431
 21
776.5448057993785
 31
0.0
  0
ARC
  5
6C36
330
1E
100
AcDbEntity
  8
躯体と製品
  6
Continuous
 62
     3
100
AcDbCircle
 10
1509.965647002774
 20
777.0448057993785
 30
0.0
 40
0.5
100
AcDbArc
 50
189.9999999999975
 51
270.0
  0
ARC
  5
6C37
330
1E
100
AcDbEntity
  8
躯体と製品
  6
DASHED1
 62
     7
100
AcDbCircle
 10
1535.022957269357
 20
733.5448057993785
 30
0.0
 40
1.0
100
AcDbArc
 50
180.0
 51
270.0
  0
LINE
  5
6C38
330
1E
100
AcDbEntity
  8
躯体と製品
  6
DASHED1
 62
     7
100
AcDbLine
 10
1531.897927269357
 20
734.7828097993786
 30
0.0
 11
1536.083360269357
 21
734.0448057993785
 31
0.0
  0
LINE
  5
6C39
330
1E
100
AcDbEntity
  8
躯体と製品
  6
DASHED1
 62
     7
100
AcDbLine
 10
1534.472957269357
 20
764.7448057993785
 30
0.0
 11
1542.572957269357
 21
764.7448057993785
 31
0.0
  0
LINE
  5
6C3A
330
1E
100
AcDbEntity
  8
躯体と製品
  6
DASHED1
 62
     7
100
AcDbLine
 10
1533.772957269357
 20
764.0448057993785
 30
0.0
 11
1543.272957269357
 21
764.0448057993785
 31
0.0
  0
LINE
  5
6C3B
330
1E
100
AcDbEntity
  8
躯体と製品
  6
DASHED1
 62
     7
100
AcDbLine
 10
1545.147987269357
 20
734.7828097993786
 30
0.0
 11
1543.272957269357
 21
745.4166317993785
 31
0.0
  0
LINE
  5
6C3C
330
1E
100
AcDbEntity
  8
躯体と製品
  6
DASHED1
 62
     7
100
AcDbLine
 10
1539.022957269357
 20
745.0448057993785
 30
0.0
 11
1540.962554269357
 21
734.0448057993785
 31
0.0
  0
LINE
  5
6C3D
330
1E
100
AcDbEntity
  8
躯体と製品
  6
DASHED1
 62
     7
100
AcDbLine
 10
1538.022957269357
 20
745.0448057993785
 30
0.0
 11
1536.083360269357
 21
734.0448057993785
 31
0.0
  0
LINE
  5
6C3E
330
1E
100
AcDbEntity
  8
躯体と製品
  6
DASHED1
 62
     7
100
AcDbLine
 10
1545.147987269357
 20
734.7828097993786
 30
0.0
 11
1540.962554269357
 21
734.0448057993785
 31
0.0
  0
LINE
  5
6C3F
330
1E
100
AcDbEntity
  8
躯体と製品
  6
DASHED1
 62
     7
100
AcDbLine
 10
1543.022957269357
 20
733.5448057993785
 30
0.0
 11
1543.022957269357
 21
734.4081097993787
 31
0.0
  0
ARC
  5
6C40
330
1E
100
AcDbEntity
  8
躯体と製品
  6
DASHED1
 62
     7
100
AcDbCircle
 10
1542.022957269357
 20
733.5448057993785
 30
0.0
 40
1.0
100
AcDbArc
 50
270.0
 51
0.0
  0
LINE
  5
6C41
330
1E
100
AcDbEntity
  8
躯体と製品
  6
DASHED1
 62
     7
100
AcDbLine
 10
1542.022957269357
 20
732.5448057993785
 30
0.0
 11
1535.022957269357
 21
732.5448057993785
 31
0.0
  0
LINE
  5
6C42
330
1E
100
AcDbEntity
  8
躯体と製品
  6
DASHED1
 62
     7
100
AcDbLine
 10
1543.272957269357
 20
745.4166317993785
 30
0.0
 11
1543.272957269357
 21
764.0448057993785
 31
0.0
  0
LINE
  5
6C43
330
1E
100
AcDbEntity
  8
躯体と製品
  6
DASHED1
 62
     7
100
AcDbLine
 10
1543.272957269357
 20
764.0448057993785
 30
0.0
 11
1542.572957269357
 21
764.7448057993785
 31
0.0
  0
LINE
  5
6C44
330
1E
100
AcDbEntity
  8
躯体と製品
  6
DASHED1
 62
     7
100
AcDbLine
 10
1538.022957269357
 20
745.0448057993785
 30
0.0
 11
1539.022957269357
 21
745.0448057993785
 31
0.0
  0
LINE
  5
6C45
330
1E
100
AcDbEntity
  8
躯体と製品
  6
DASHED1
 62
     7
100
AcDbLine
 10
1531.897927269357
 20
734.7828097993786
 30
0.0
 11
1533.772957269357
 21
745.4166317993785
 31
0.0
  0
LINE
  5
6C46
330
1E
100
AcDbEntity
  8
躯体と製品
  6
DASHED1
 62
     7
100
AcDbLine
 10
1534.022957269357
 20
733.5448057993785
 30
0.0
 11
1534.022957269357
 21
734.4081097993787
 31
0.0
  0
LINE
  5
6C47
330
1E
100
AcDbEntity
  8
躯体と製品
  6
DASHED1
 62
     7
100
AcDbLine
 10
1533.772957269357
 20
745.4166317993785
 30
0.0
 11
1533.772957269357
 21
764.0448057993785
 31
0.0
  0
LINE
  5
6C48
330
1E
100
AcDbEntity
  8
躯体と製品
  6
DASHED1
 62
     7
100
AcDbLine
 10
1533.772957269357
 20
764.0448057993785
 30
0.0
 11
1534.472957269357
 21
764.7448057993785
 31
0.0
  0
LINE
  5
6C49
330
1E
100
AcDbEntity
  8
躯体と製品
  6
DASHED1
 62
     7
100
AcDbLine
 10
1542.572957269357
 20
774.0448057993785
 30
0.0
 11
1542.572957269357
 21
764.7448057993785
 31
0.0
  0
LINE
  5
6C4A
330
1E
100
AcDbEntity
  8
躯体と製品
  6
DASHED1
 62
     7
100
AcDbLine
 10
1534.472957269357
 20
774.0448057993785
 30
0.0
 11
1534.472957269357
 21
764.7448057993785
 31
0.0
  0
LINE
  5
6C4B
330
1E
100
AcDbEntity
  8
躯体と製品
  6
Continuous
 62
     4
100
AcDbLine
 10
1524.522957269357
 20
782.5448057993785
 30
0.0
 11
1524.522957269357
 21
780.9448057993786
 31
0.0
  0
LINE
  5
6C4C
330
1E
100
AcDbEntity
  8
躯体と製品
  6
Continuous
 62
     4
100
AcDbLine
 10
1552.522957269357
 20
782.5448057993785
 30
0.0
 11
1552.522957269357
 21
780.9448057993786
 31
0.0
  0
LINE
  5
6C4D
330
1E
100
AcDbEntity
  8
躯体と製品
  6
DASHED1
 62
     7
100
AcDbLine
 10
1535.527068665093
 20
791.8113123585361
 30
0.0
 11
1535.715478107567
 21
788.21624603342
 31
0.0
  0
LINE
  5
6C4E
330
1E
100
AcDbEntity
  8
躯体と製品
  6
DASHED1
 62
     7
100
AcDbLine
 10
1541.518845873621
 20
792.1253280959943
 30
0.0
 11
1541.707255316095
 21
788.5302617708776
 31
0.0
  0
LINE
  5
6C4F
330
1E
100
AcDbEntity
  8
躯体と製品
  6
Continuous
 62
     3
100
AcDbLine
 10
1529.513051761246
 20
791.4961310880351
 30
0.0
 11
1547.313051761246
 21
792.4289895592734
 31
0.0
  0
LINE
  5
6C50
330
1E
100
AcDbEntity
  8
躯体と製品
  6
Continuous
 62
     3
100
AcDbLine
 10
1529.596789291235
 20
789.8983238324278
 30
0.0
 11
1547.396789291235
 21
790.8311823036658
 31
0.0
  0
ARC
  5
6C51
330
1E
100
AcDbEntity
  8
躯体と製品
  6
Continuous
 62
     3
100
AcDbCircle
 10
1533.066705360963
 20
789.0788020819427
 30
0.0
 40
1.0
100
AcDbArc
 50
2.999999999998919
 51
93.00000000000558
  0
LINE
  5
6C52
330
1E
100
AcDbEntity
  8
躯体と製品
  6
Continuous
 62
     3
100
AcDbLine
 10
1534.065334895717
 20
789.1311380381858
 30
0.0
 11
1534.117670851961
 21
788.1325085034314
 31
0.0
  0
ARC
  5
6C53
330
1E
100
AcDbEntity
  8
躯体と製品
  6
Continuous
 62
     3
100
AcDbCircle
 10
1544.251356150214
 20
789.6649647918638
 30
0.0
 40
1.0
100
AcDbArc
 50
93.00000000000558
 51
182.9999999999989
  0
LINE
  5
6C54
330
1E
100
AcDbEntity
  8
躯体と製品
  6
Continuous
 62
     3
100
AcDbLine
 10
1543.252726615459
 20
789.612628835621
 30
0.0
 11
1543.305062571702
 21
788.6139993008664
 31
0.0
  0
LINE
  5
6C55
330
1E
100
AcDbEntity
  8
躯体と製品
  6
Continuous
 62
     3
100
AcDbLine
 10
1534.117670851961
 20
788.1325085034314
 30
0.0
 11
1543.305062571702
 21
788.6139993008664
 31
0.0
  0
ARC
  5
6C56
330
1E
100
AcDbEntity
  8
躯体と製品
  6
Continuous
 62
     3
100
AcDbCircle
 10
1529.622957269357
 20
789.3990090650505
 30
0.0
 40
2.1
100
AcDbArc
 50
93.00000000000558
 51
180.0
  0
LINE
  5
6C57
330
1E
100
AcDbEntity
  8
躯体と製品
  6
Continuous
 62
     3
100
AcDbLine
 10
1527.522957269357
 20
789.3990090650505
 30
0.0
 11
1527.522957269357
 21
783.0448057993785
 31
0.0
  0
ARC
  5
6C58
330
1E
100
AcDbEntity
  8
躯体と製品
  6
Continuous
 62
     3
100
AcDbCircle
 10
1547.422957269357
 20
790.3318675362888
 30
0.0
 40
2.1
100
AcDbArc
 50
0.0
 51
93.00000000000558
  0
ARC
  5
6C59
330
1E
100
AcDbEntity
  8
躯体と製品
  6
Continuous
 62
     3
100
AcDbCircle
 10
1529.622957269357
 20
789.3990090650505
 30
0.0
 40
0.5
100
AcDbArc
 50
93.00000000000558
 51
180.0
  0
LINE
  5
6C5A
330
1E
100
AcDbEntity
  8
躯体と製品
  6
Continuous
 62
     3
100
AcDbLine
 10
1529.122957269357
 20
789.3990090650505
 30
0.0
 11
1529.122957269357
 21
783.0448057993785
 31
0.0
  0
ARC
  5
6C5B
330
1E
100
AcDbEntity
  8
躯体と製品
  6
Continuous
 62
     3
100
AcDbCircle
 10
1547.422957269357
 20
790.3318675362888
 30
0.0
 40
0.5
100
AcDbArc
 50
0.0
 51
93.00000000000558
  0
LINE
  5
6C5C
330
1E
100
AcDbEntity
  8
躯体と製品
  6
Continuous
 62
     3
100
AcDbLine
 10
1547.922957269357
 20
790.3318675362888
 30
0.0
 11
1547.922957269357
 21
783.0448057993785
 31
0.0
  0
ARC
  5
6C5D
330
1E
100
AcDbEntity
  8
躯体と製品
  6
Continuous
 62
     3
100
AcDbCircle
 10
1527.022957269357
 20
783.0448057993785
 30
0.0
 40
0.5
100
AcDbArc
 50
270.0
 51
0.0
  0
ARC
  5
6C5E
330
1E
100
AcDbEntity
  8
躯体と製品
  6
Continuous
 62
     3
100
AcDbCircle
 10
1527.022957269357
 20
783.0448057993785
 30
0.0
 40
2.1
100
AcDbArc
 50
270.0
 51
0.0
  0
LINE
  5
6C5F
330
1E
100
AcDbEntity
  8
躯体と製品
  6
Continuous
 62
     3
100
AcDbLine
 10
1522.522957269357
 20
782.5448057993785
 30
0.0
 11
1522.522957269357
 21
780.9448057993786
 31
0.0
  0
LINE
  5
6C60
330
1E
100
AcDbEntity
  8
躯体と製品
  6
Continuous
 62
     3
100
AcDbLine
 10
1527.022957269357
 20
782.5448057993785
 30
0.0
 11
1522.522957269357
 21
782.5448057993785
 31
0.0
  0
LINE
  5
6C61
330
1E
100
AcDbEntity
  8
躯体と製品
  6
Continuous
 62
     3
100
AcDbLine
 10
1522.522957269357
 20
780.9448057993786
 30
0.0
 11
1527.022957269357
 21
780.9448057993786
 31
0.0
  0
ARC
  5
6C62
330
1E
100
AcDbEntity
  8
躯体と製品
  6
Continuous
 62
     3
100
AcDbCircle
 10
1550.022957269357
 20
783.0448057993785
 30
0.0
 40
0.5
100
AcDbArc
 50
180.0
 51
270.0
  0
ARC
  5
6C63
330
1E
100
AcDbEntity
  8
躯体と製品
  6
Continuous
 62
     3
100
AcDbCircle
 10
1550.022957269357
 20
783.0448057993785
 30
0.0
 40
2.1
100
AcDbArc
 50
180.0
 51
270.0
  0
LINE
  5
6C64
330
1E
100
AcDbEntity
  8
躯体と製品
  6
Continuous
 62
     3
100
AcDbLine
 10
1554.522957269357
 20
782.5448057993785
 30
0.0
 11
1550.022957269357
 21
782.5448057993785
 31
0.0
  0
LINE
  5
6C65
330
1E
100
AcDbEntity
  8
躯体と製品
  6
Continuous
 62
     3
100
AcDbLine
 10
1554.522957269357
 20
780.9448057993786
 30
0.0
 11
1554.522957269357
 21
782.5448057993785
 31
0.0
  0
LINE
  5
6C66
330
1E
100
AcDbEntity
  8
躯体と製品
  6
Continuous
 62
     3
100
AcDbLine
 10
1554.522957269357
 20
780.9448057993786
 30
0.0
 11
1550.022957269357
 21
780.9448057993786
 31
0.0
  0
LINE
  5
6C67
330
1E
100
AcDbEntity
  8
躯体と製品
  6
Continuous
 62
     3
100
AcDbLine
 10
1549.522957269357
 20
790.3318675362888
 30
0.0
 11
1549.522957269357
 21
783.0448057993785
 31
0.0
  0
LINE
  5
6C68
330
1E
100
AcDbEntity
  8
躯体と製品
  6
Continuous
 62
     7
100
AcDbLine
 10
1938.522957269357
 20
772.0448057993785
 30
0.0
 11
1788.522957269357
 21
772.0448057993785
 31
0.0
  0
LINE
  5
6C69
330
1E
100
AcDbEntity
  8
躯体と製品
  6
DASHED1
 62
     7
100
AcDbLine
 10
1860.906755296194
 20
806.1301738835545
 30
0.0
 11
1862.738304342601
 21
803.7541628914581
 31
0.0
  0
LINE
  5
6C6A
330
1E
100
AcDbEntity
  8
躯体と製品
  6
DASHED1
 62
     7
100
AcDbLine
 10
1860.906755296194
 20
806.1301738835545
 30
0.0
 11
1861.540358222371
 21
806.618586958665
 31
0.0
  0
ARC
  5
6C6B
330
1E
100
AcDbEntity
  8
躯体と製品
  6
Continuous
 62
     7
100
AcDbCircle
 10
1938.494397495458
 20
771.045213712918
 30
0.0
 40
1.0
100
AcDbArc
 50
4.999999999999459
 51
88.3634229583817
  0
POINT
  5
6C6C
330
1E
100
AcDbEntity
  8
躯体と製品
 62
     4
100
AcDbPoint
 10
1888.522957269357
 20
791.9683202272653
 30
0.0
  0
LINE
  5
6C6D
330
1E
100
AcDbEntity
  8
躯体と製品
  6
Continuous
 62
     4
100
AcDbLine
 10
1891.055391814541
 20
793.8305950121371
 30
0.0
 11
1890.951124983112
 21
791.8410653496605
 31
0.0
  0
LINE
  5
6C6E
330
1E
100
AcDbEntity
  8
躯体と製品
  6
Continuous
 62
     4
100
AcDbLine
 10
1886.199056387029
 20
794.0851047673466
 30
0.0
 11
1886.094789555601
 21
792.09557510487
 31
0.0
  0
LINE
  5
6C6F
330
1E
100
AcDbEntity
  8
躯体と製品
  6
Continuous
 62
     7
100
AcDbLine
 10
1891.330436431146
 20
788.21624603342
 30
0.0
 11
1891.066702986252
 21
783.1839121222697
 31
0.0
  0
LINE
  5
6C70
330
1E
100
AcDbEntity
  8
躯体と製品
  6
Continuous
 62
     7
100
AcDbLine
 10
1891.623112705049
 20
793.8008420210133
 30
0.0
 11
1891.51884587362
 21
791.8113123585364
 31
0.0
  0
LINE
  5
6C71
330
1E
100
AcDbEntity
  8
躯体と製品
  6
Continuous
 62
     7
100
AcDbLine
 10
1885.338659222618
 20
788.5302617708776
 30
0.0
 11
1885.074925777725
 21
783.4979278597274
 31
0.0
  0
LINE
  5
6C72
330
1E
100
AcDbEntity
  8
躯体と製品
  6
Continuous
 62
     7
100
AcDbLine
 10
1885.631335496521
 20
794.1148577584706
 30
0.0
 11
1885.527068665093
 21
792.1253280959943
 31
0.0
  0
LINE
  5
6C73
330
1E
100
AcDbEntity
  8
躯体と製品
  6
Continuous
 62
     4
100
AcDbLine
 10
1891.066702986252
 20
783.1839121222697
 30
0.0
 11
1885.074925777725
 21
783.4979278597274
 31
0.0
  0
ARC
  5
6C74
330
1E
100
AcDbEntity
  8
躯体と製品
  6
DASHED1
 62
     7
100
AcDbCircle
 10
1889.74721361672
 20
815.3285229321195
 30
0.0
 40
6.299999999999998
100
AcDbArc
 50
47.69686900000316
 51
126.3093710000041
  0
ARC
  5
6C75
330
1E
100
AcDbEntity
  8
躯体と製品
  6
DASHED1
 62
     7
100
AcDbCircle
 10
1891.670925169455
 20
817.4313635184114
 30
0.0
 40
3.45
100
AcDbArc
 50
0.3127429999987237
 51
47.82048899999998
  0
ARC
  5
6C76
330
1E
100
AcDbEntity
  8
躯体と製品
  6
DASHED1
 62
     7
100
AcDbCircle
 10
1888.059589164199
 20
817.6251347983656
 30
0.0
 40
3.45
100
AcDbArc
 50
126.3091240000008
 51
173.7621629999991
  0
LINE
  5
6C77
330
1E
100
AcDbEntity
  8
躯体と製品
  6
DASHED1
 62
     7
100
AcDbLine
 10
1890.783959210064
 20
820.7803153521478
 30
0.0
 11
1889.286014907932
 21
820.8588192865121
 31
0.0
  0
ARC
  5
6C78
330
1E
100
AcDbEntity
  8
躯体と製品
  6
DASHED1
 62
     7
100
AcDbCircle
 10
1891.385190855519
 20
820.7881049944937
 30
0.0
 40
0.5999999999999997
100
AcDbArc
 50
73.29976700000166
 51
177.0000000000011
  0
ARC
  5
6C79
330
1E
100
AcDbEntity
  8
躯体と製品
  6
DASHED1
 62
     7
100
AcDbCircle
 10
1888.688891111682
 20
820.9294120763495
 30
0.0
 40
0.5999999999999997
100
AcDbArc
 50
357.0000000000011
 51
100.7002330000058
  0
LINE
  5
6C7A
330
1E
100
AcDbEntity
  8
躯体と製品
  6
DASHED1
 62
     7
100
AcDbLine
 10
1900.530796806415
 20
817.1666719134559
 30
0.0
 11
1879.214842912319
 21
818.2837937203455
 31
0.0
  0
LINE
  5
6C7B
330
1E
100
AcDbEntity
  8
躯体と製品
  6
DASHED1
 62
     7
100
AcDbLine
 10
1877.817710632669
 20
817.728186391937
 30
0.0
 11
1864.887759555416
 21
804.1631335327096
 31
0.0
  0
LINE
  5
6C7C
330
1E
100
AcDbEntity
  8
躯体と製品
  6
DASHED1
 62
     7
100
AcDbLine
 10
1861.540358222371
 20
806.618586958665
 30
0.0
 11
1863.371907268759
 21
804.2425759665938
 31
0.0
  0
LINE
  5
6C7D
330
1E
100
AcDbEntity
  8
躯体と製品
  6
DASHED1
 62
     7
100
AcDbLine
 10
1900.48892804142
 20
816.3677682856523
 30
0.0
 11
1879.172974147324
 21
817.4848900925416
 31
0.0
  0
ARC
  5
6C7E
330
1E
100
AcDbEntity
  8
躯体と製品
  6
DASHED1
 62
     7
100
AcDbCircle
 10
1900.436592085178
 20
815.3691387508978
 30
0.0
 40
1.8
100
AcDbArc
 50
37.62684736228169
 51
86.99999999999441
  0
LINE
  5
6C7F
330
1E
100
AcDbEntity
  8
躯体と製品
  6
DASHED1
 62
     7
100
AcDbLine
 10
1901.228595742876
 20
815.9796550948174
 30
0.0
 11
1912.66978108033
 21
801.1373650793112
 31
0.0
  0
LINE
  5
6C80
330
1E
100
AcDbEntity
  8
躯体と製品
  6
DASHED1
 62
     7
100
AcDbLine
 10
1901.862198669034
 20
816.4680681699534
 30
0.0
 11
1913.303384006488
 21
801.6257781544465
 31
0.0
  0
ARC
  5
6C81
330
1E
100
AcDbEntity
  8
躯体と製品
  6
DASHED1
 62
     7
100
AcDbCircle
 10
1914.095387649582
 20
802.2362945173123
 30
0.0
 40
1.8
100
AcDbArc
 50
217.6268473622817
 51
316.3731518762783
  0
ARC
  5
6C82
330
1E
100
AcDbEntity
  8
躯体と製品
  6
DASHED1
 62
     7
100
AcDbCircle
 10
1914.095387649582
 20
802.2362945173123
 30
0.0
 40
1.0
100
AcDbArc
 50
217.6268473622817
 51
316.3731512671342
  0
LINE
  5
6C83
330
1E
100
AcDbEntity
  8
躯体と製品
  6
DASHED1
 62
     7
100
AcDbLine
 10
1917.468191598294
 20
803.1659146139022
 30
0.0
 11
1915.39831519149
 21
800.994368665847
 31
0.0
  0
LINE
  5
6C84
330
1E
100
AcDbEntity
  8
躯体と製品
  6
DASHED1
 62
     7
100
AcDbLine
 10
1917.468191598294
 20
803.1659146139022
 30
0.0
 11
1916.889112683421
 21
803.7178816512788
 31
0.0
  0
LINE
  5
6C85
330
1E
100
AcDbEntity
  8
躯体と製品
  6
DASHED1
 62
     7
100
AcDbLine
 10
1916.889112683421
 20
803.7178816512788
 30
0.0
 11
1914.81923627664
 21
801.5463357032469
 31
0.0
  0
ARC
  5
6C86
330
1E
100
AcDbEntity
  8
躯体と製品
  6
DASHED1
 62
     7
100
AcDbCircle
 10
1864.163910911853
 20
804.8530923294594
 30
0.0
 40
1.8
100
AcDbArc
 50
217.6268481237226
 51
316.3731526377176
  0
ARC
  5
6C87
330
1E
100
AcDbEntity
  8
躯体と製品
  6
DASHED1
 62
     7
100
AcDbCircle
 10
1864.163910911853
 20
804.8530923294594
 30
0.0
 40
1.0
100
AcDbArc
 50
217.6268487328632
 51
316.3731526377176
  0
ARC
  5
6C88
330
1E
100
AcDbEntity
  8
躯体と製品
  6
DASHED1
 62
     7
100
AcDbCircle
 10
1879.120638191082
 20
816.4862605577871
 30
0.0
 40
1.0
100
AcDbArc
 50
86.99999999999441
 51
136.3731526377175
  0
LINE
  5
6C89
330
1E
100
AcDbEntity
  8
躯体と製品
  6
DASHED1
 62
     7
100
AcDbLine
 10
1878.396789547519
 20
817.1762193545369
 30
0.0
 11
1865.466838453761
 21
803.6111664779941
 31
0.0
  0
ARC
  5
6C8A
330
1E
100
AcDbEntity
  8
躯体と製品
  6
DASHED1
 62
     7
100
AcDbCircle
 10
1879.120638191082
 20
816.4862605577871
 30
0.0
 40
1.8
100
AcDbArc
 50
86.99999999999441
 51
136.3731526377175
  0
ARC
  5
6C8B
330
1E
100
AcDbEntity
  8
躯体と製品
  6
DASHED1
 62
     7
100
AcDbCircle
 10
1900.436592085178
 20
815.3691387508978
 30
0.0
 40
1.0
100
AcDbArc
 50
37.62684736228169
 51
86.99999999999441
  0
LINE
  5
6C8C
330
1E
100
AcDbEntity
  8
躯体と製品
  6
DASHED1
 62
     4
100
AcDbLine
 10
1887.444652145611
 20
817.8524876945052
 30
0.0
 11
1886.199056387029
 21
794.0851047673466
 31
0.0
  0
LINE
  5
6C8D
330
1E
100
AcDbEntity
  8
躯体と製品
  6
DASHED1
 62
     7
100
AcDbLine
 10
1886.876931255103
 20
817.8822406856298
 30
0.0
 11
1885.631335496521
 21
794.1148577584706
 31
0.0
  0
LINE
  5
6C8E
330
1E
100
AcDbEntity
  8
躯体と製品
  6
DASHED1
 62
     7
100
AcDbLine
 10
1892.868708463631
 20
817.5682249481718
 30
0.0
 11
1891.623112705049
 21
793.8008420210133
 31
0.0
  0
LINE
  5
6C8F
330
1E
100
AcDbEntity
  8
躯体と製品
  6
DASHED1
 62
     4
100
AcDbLine
 10
1892.300987573123
 20
817.597977939296
 30
0.0
 11
1891.055391814541
 21
793.8305950121371
 31
0.0
  0
LINE
  5
6C90
330
1E
100
AcDbEntity
  8
躯体と製品
  6
Continuous
 62
     3
100
AcDbLine
 10
1913.895527550785
 20
782.0183297539356
 30
0.0
 11
1914.214283249624
 21
780.9466979120898
 31
0.0
  0
LINE
  5
6C91
330
1E
100
AcDbEntity
  8
躯体と製品
  6
Continuous
 62
     3
100
AcDbLine
 10
1913.721879373118
 20
781.0335220009228
 30
0.0
 11
1914.040635071957
 21
779.9618901590772
 31
0.0
  0
LINE
  5
6C92
330
1E
100
AcDbEntity
  8
躯体と製品
  6
Continuous
 62
     3
100
AcDbLine
 10
1888.522957269357
 20
776.0448057993785
 30
0.0
 11
1888.022957269357
 21
776.5448057993785
 31
0.0
  0
LINE
  5
6C93
330
1E
100
AcDbEntity
  8
躯体と製品
  6
Continuous
 62
     3
100
AcDbLine
 10
1904.722957269356
 20
782.5448057993785
 30
0.0
 11
1901.772957269357
 21
782.5448057993785
 31
0.0
  0
ARC
  5
6C94
330
1E
100
AcDbEntity
  8
躯体と製品
  6
Continuous
 62
     3
100
AcDbCircle
 10
1904.722957269356
 20
782.2448057993786
 30
0.0
 40
0.2999999999999998
100
AcDbArc
 50
0.0
 51
90.0
  0
LINE
  5
6C95
330
1E
100
AcDbEntity
  8
躯体と製品
  6
Continuous
 62
     3
100
AcDbLine
 10
1905.022957269357
 20
782.2448057993786
 30
0.0
 11
1905.022957269357
 21
780.3448057993788
 31
0.0
  0
ARC
  5
6C96
330
1E
100
AcDbEntity
  8
躯体と製品
  6
Continuous
 62
     3
100
AcDbCircle
 10
1904.722957269356
 20
780.3448057993788
 30
0.0
 40
0.2999999999999998
100
AcDbArc
 50
270.0
 51
0.0
  0
LINE
  5
6C97
330
1E
100
AcDbEntity
  8
躯体と製品
  6
Continuous
 62
     3
100
AcDbLine
 10
1904.722957269356
 20
780.0448057993785
 30
0.0
 11
1902.772957269357
 21
780.0448057993785
 31
0.0
  0
LINE
  5
6C98
330
1E
100
AcDbEntity
  8
躯体と製品
  6
Continuous
 62
     3
100
AcDbLine
 10
1905.022957269357
 20
778.2448057993786
 30
0.0
 11
1905.022957269357
 21
776.8448057993787
 31
0.0
  0
ARC
  5
6C99
330
1E
100
AcDbEntity
  8
躯体と製品
  6
Continuous
 62
     3
100
AcDbCircle
 10
1904.722957269356
 20
778.2448057993786
 30
0.0
 40
0.2999999999999998
100
AcDbArc
 50
0.0
 51
90.0
  0
LINE
  5
6C9A
330
1E
100
AcDbEntity
  8
躯体と製品
  6
Continuous
 62
     3
100
AcDbLine
 10
1904.722957269356
 20
778.5448057993785
 30
0.0
 11
1902.772957269357
 21
778.5448057993785
 31
0.0
  0
ARC
  5
6C9B
330
1E
100
AcDbEntity
  8
躯体と製品
  6
Continuous
 62
     3
100
AcDbCircle
 10
1902.772957269357
 20
779.2948057993785
 30
0.0
 40
0.75
100
AcDbArc
 50
90.0
 51
270.0
  0
ARC
  5
6C9C
330
1E
100
AcDbEntity
  8
躯体と製品
  6
Continuous
 62
     3
100
AcDbCircle
 10
1901.772957269357
 20
783.2948057993785
 30
0.0
 40
0.75
100
AcDbArc
 50
90.0
 51
270.0
  0
LINE
  5
6C9D
330
1E
100
AcDbEntity
  8
躯体と製品
  6
Continuous
 62
     3
100
AcDbLine
 10
1905.022957269357
 20
784.5448057993785
 30
0.0
 11
1905.022957269357
 21
792.0448057993785
 31
0.0
  0
ARC
  5
6C9E
330
1E
100
AcDbEntity
  8
躯体と製品
  6
Continuous
 62
     3
100
AcDbCircle
 10
1904.522957269357
 20
784.5448057993785
 30
0.0
 40
0.5
100
AcDbArc
 50
270.0
 51
0.0
  0
LINE
  5
6C9F
330
1E
100
AcDbEntity
  8
躯体と製品
  6
Continuous
 62
     3
100
AcDbLine
 10
1904.522957269357
 20
784.0448057993785
 30
0.0
 11
1901.772957269357
 21
784.0448057993785
 31
0.0
  0
ARC
  5
6CA0
330
1E
100
AcDbEntity
  8
躯体と製品
  6
Continuous
 62
     3
100
AcDbCircle
 10
1904.722957269356
 20
776.8448057993787
 30
0.0
 40
0.2999999999999998
100
AcDbArc
 50
270.0
 51
0.0
  0
ARC
  5
6CA1
330
1E
100
AcDbEntity
  8
躯体と製品
  6
Continuous
 62
     3
100
AcDbCircle
 10
1907.522957269357
 20
777.0448057993785
 30
0.0
 40
0.5
100
AcDbArc
 50
180.0
 51
270.0
  0
LINE
  5
6CA2
330
1E
100
AcDbEntity
  8
躯体と製品
  6
Continuous
 62
     3
100
AcDbLine
 10
1907.022957269357
 20
777.0448057993785
 30
0.0
 11
1907.022957269357
 21
792.0448057993785
 31
0.0
  0
LINE
  5
6CA3
330
1E
100
AcDbEntity
  8
躯体と製品
  6
Continuous
 62
     3
100
AcDbLine
 10
1907.022957269357
 20
775.0448057993785
 30
0.0
 11
1917.522957269357
 21
775.0448057993785
 31
0.0
  0
LINE
  5
6CA4
330
1E
100
AcDbEntity
  8
躯体と製品
  6
Continuous
 62
     3
100
AcDbLine
 10
1907.022957269357
 20
774.0448057993785
 30
0.0
 11
1907.022957269357
 21
775.0448057993785
 31
0.0
  0
LINE
  5
6CA5
330
1E
100
AcDbEntity
  8
躯体と製品
  6
Continuous
 62
     3
100
AcDbLine
 10
1888.522957269357
 20
776.0448057993785
 30
0.0
 11
1889.022957269357
 21
776.5448057993785
 31
0.0
  0
LINE
  5
6CA6
330
1E
100
AcDbEntity
  8
躯体と製品
  6
Continuous
 62
     3
100
AcDbLine
 10
1917.522957269357
 20
774.0448057993785
 30
0.0
 11
1919.022957269357
 21
774.0448057993785
 31
0.0
  0
LINE
  5
6CA7
330
1E
100
AcDbEntity
  8
躯体と製品
  6
Continuous
 62
     3
100
AcDbLine
 10
1917.522957269357
 20
775.0448057993785
 30
0.0
 11
1917.522957269357
 21
774.0448057993785
 31
0.0
  0
ARC
  5
6CA8
330
1E
100
AcDbEntity
  8
躯体と製品
  6
Continuous
 62
     3
100
AcDbCircle
 10
1906.022957269357
 20
792.0448057993785
 30
0.0
 40
1.0
100
AcDbArc
 50
0.0
 51
180.0
  0
LINE
  5
6CA9
330
1E
100
AcDbEntity
  8
躯体と製品
  6
Continuous
 62
     3
100
AcDbLine
 10
1905.022957269357
 20
774.0448057993785
 30
0.0
 11
1907.022957269357
 21
774.0448057993785
 31
0.0
  0
LINE
  5
6CAA
330
1E
100
AcDbEntity
  8
躯体と製品
  6
Continuous
 62
     3
100
AcDbLine
 10
1905.022957269357
 20
774.5448057993785
 30
0.0
 11
1905.022957269357
 21
774.0448057993785
 31
0.0
  0
LINE
  5
6CAB
330
1E
100
AcDbEntity
  8
躯体と製品
  6
Continuous
 62
     3
100
AcDbLine
 10
1893.522957269357
 20
774.5448057993785
 30
0.0
 11
1905.022957269357
 21
774.5448057993785
 31
0.0
  0
LINE
  5
6CAC
330
1E
100
AcDbEntity
  8
躯体と製品
  6
Continuous
 62
     3
100
AcDbLine
 10
1893.522957269357
 20
774.0448057993785
 30
0.0
 11
1893.522957269357
 21
774.5448057993785
 31
0.0
  0
LINE
  5
6CAD
330
1E
100
AcDbEntity
  8
躯体と製品
  6
Continuous
 62
     3
100
AcDbLine
 10
1872.322957269357
 20
776.5448057993785
 30
0.0
 11
1888.022957269357
 21
776.5448057993785
 31
0.0
  0
LINE
  5
6CAE
330
1E
100
AcDbEntity
  8
躯体と製品
  6
Continuous
 62
     3
100
AcDbLine
 10
1889.022957269357
 20
776.5448057993785
 30
0.0
 11
1904.722957269356
 21
776.5448057993785
 31
0.0
  0
LINE
  5
6CAF
330
1E
100
AcDbEntity
  8
躯体と製品
  6
Continuous
 62
     3
100
AcDbLine
 10
1883.522957269357
 20
774.0448057993785
 30
0.0
 11
1893.522957269357
 21
774.0448057993785
 31
0.0
  0
LINE
  5
6CB0
330
1E
100
AcDbEntity
  8
躯体と製品
  6
Continuous
 62
     3
100
AcDbLine
 10
1870.522957269357
 20
783.5448057993785
 30
0.0
 11
1870.522957269357
 21
774.0448057993785
 31
0.0
  0
ARC
  5
6CB1
330
1E
100
AcDbEntity
  8
躯体と製品
  6
Continuous
 62
     3
100
AcDbCircle
 10
1871.022957269357
 20
783.5448057993785
 30
0.0
 40
0.5
100
AcDbArc
 50
90.0
 51
180.0
  0
LINE
  5
6CB2
330
1E
100
AcDbEntity
  8
躯体と製品
  6
Continuous
 62
     3
100
AcDbLine
 10
1871.022957269357
 20
784.0448057993785
 30
0.0
 11
1875.272957269357
 21
784.0448057993785
 31
0.0
  0
LINE
  5
6CB3
330
1E
100
AcDbEntity
  8
躯体と製品
  6
Continuous
 62
     3
100
AcDbLine
 10
1872.022957269357
 20
776.8448057993787
 30
0.0
 11
1872.022957269357
 21
778.2448057993786
 31
0.0
  0
ARC
  5
6CB4
330
1E
100
AcDbEntity
  8
躯体と製品
  6
Continuous
 62
     3
100
AcDbCircle
 10
1872.322957269357
 20
776.8448057993787
 30
0.0
 40
0.2999999999999998
100
AcDbArc
 50
180.0
 51
270.0
  0
LINE
  5
6CB5
330
1E
100
AcDbEntity
  8
躯体と製品
  6
Continuous
 62
     3
100
AcDbLine
 10
1872.322957269357
 20
778.5448057993785
 30
0.0
 11
1874.272957269357
 21
778.5448057993785
 31
0.0
  0
ARC
  5
6CB6
330
1E
100
AcDbEntity
  8
躯体と製品
  6
Continuous
 62
     3
100
AcDbCircle
 10
1872.322957269357
 20
778.2448057993786
 30
0.0
 40
0.2999999999999998
100
AcDbArc
 50
90.0
 51
180.0
  0
LINE
  5
6CB7
330
1E
100
AcDbEntity
  8
躯体と製品
  6
Continuous
 62
     3
100
AcDbLine
 10
1872.022957269357
 20
780.3448057993788
 30
0.0
 11
1872.022957269357
 21
782.2448057993786
 31
0.0
  0
ARC
  5
6CB8
330
1E
100
AcDbEntity
  8
躯体と製品
  6
Continuous
 62
     3
100
AcDbCircle
 10
1872.322957269357
 20
780.3448057993788
 30
0.0
 40
0.2999999999999998
100
AcDbArc
 50
180.0
 51
270.0
  0
LINE
  5
6CB9
330
1E
100
AcDbEntity
  8
躯体と製品
  6
Continuous
 62
     3
100
AcDbLine
 10
1872.322957269357
 20
780.0448057993785
 30
0.0
 11
1874.272957269357
 21
780.0448057993785
 31
0.0
  0
LINE
  5
6CBA
330
1E
100
AcDbEntity
  8
躯体と製品
  6
Continuous
 62
     3
100
AcDbLine
 10
1872.322957269357
 20
782.5448057993785
 30
0.0
 11
1875.272957269357
 21
782.5448057993785
 31
0.0
  0
ARC
  5
6CBB
330
1E
100
AcDbEntity
  8
躯体と製品
  6
Continuous
 62
     3
100
AcDbCircle
 10
1872.322957269357
 20
782.2448057993786
 30
0.0
 40
0.2999999999999998
100
AcDbArc
 50
90.0
 51
180.0
  0
ARC
  5
6CBC
330
1E
100
AcDbEntity
  8
躯体と製品
  6
Continuous
 62
     3
100
AcDbCircle
 10
1874.272957269357
 20
779.2948057993785
 30
0.0
 40
0.75
100
AcDbArc
 50
270.0
 51
90.0
  0
ARC
  5
6CBD
330
1E
100
AcDbEntity
  8
躯体と製品
  6
Continuous
 62
     3
100
AcDbCircle
 10
1875.272957269357
 20
783.2948057993785
 30
0.0
 40
0.75
100
AcDbArc
 50
270.0
 51
90.0
  0
LINE
  5
6CBE
330
1E
100
AcDbEntity
  8
躯体と製品
  6
Continuous
 62
     3
100
AcDbLine
 10
1883.522957269357
 20
774.5448057993785
 30
0.0
 11
1883.522957269357
 21
774.0448057993785
 31
0.0
  0
LINE
  5
6CBF
330
1E
100
AcDbEntity
  8
躯体と製品
  6
Continuous
 62
     3
100
AcDbLine
 10
1872.022957269357
 20
774.5448057993785
 30
0.0
 11
1883.522957269357
 21
774.5448057993785
 31
0.0
  0
LINE
  5
6CC0
330
1E
100
AcDbEntity
  8
躯体と製品
  6
Continuous
 62
     3
100
AcDbLine
 10
1872.022957269357
 20
774.0448057993785
 30
0.0
 11
1872.022957269357
 21
774.5448057993785
 31
0.0
  0
LINE
  5
6CC1
330
1E
100
AcDbEntity
  8
躯体と製品
  6
Continuous
 62
     3
100
AcDbLine
 10
1870.522957269357
 20
774.0448057993785
 30
0.0
 11
1872.022957269357
 21
774.0448057993785
 31
0.0
  0
LINE
  5
6CC2
330
1E
100
AcDbEntity
  8
躯体と製品
  6
Continuous
 62
     3
100
AcDbLine
 10
1919.022957269357
 20
774.0448057993785
 30
0.0
 11
1919.022957269357
 21
776.5448057993785
 31
0.0
  0
ARC
  5
6CC3
330
1E
100
AcDbEntity
  8
躯体と製品
  6
Continuous
 62
     3
100
AcDbCircle
 10
1919.282828476182
 20
782.3376865124489
 30
0.0
 40
0.7499999999999977
100
AcDbArc
 50
350.0000000000025
 51
170.0000000000025
  0
ARC
  5
6CC4
330
1E
100
AcDbEntity
  8
躯体と製品
  6
Continuous
 62
     3
100
AcDbCircle
 10
1913.866385834615
 20
783.292751489617
 30
0.0
 40
0.7500000000000014
100
AcDbArc
 50
350.0000000000025
 51
170.0000000000025
  0
LINE
  5
6CC5
330
1E
100
AcDbEntity
  8
躯体と製品
  6
Continuous
 62
     3
100
AcDbLine
 10
1918.819566315846
 20
781.1500888656005
 30
0.0
 11
1918.153514261673
 21
780.2521052014218
 31
0.0
  0
LINE
  5
6CC6
330
1E
100
AcDbEntity
  8
躯体と製品
  6
Continuous
 62
     3
100
AcDbLine
 10
1918.645918138179
 20
780.1652811125882
 30
0.0
 11
1917.979866084006
 21
779.2672974484097
 31
0.0
  0
LINE
  5
6CC7
330
1E
100
AcDbEntity
  8
躯体と製品
  6
Continuous
 62
     3
100
AcDbLine
 10
1914.387931427291
 20
781.9315056651019
 30
0.0
 11
1914.604991649374
 21
783.1625153563668
 31
0.0
  0
LINE
  5
6CC8
330
1E
100
AcDbEntity
  8
躯体と製品
  6
Continuous
 62
     3
100
AcDbLine
 10
1918.32716243934
 20
781.2369129544342
 30
0.0
 11
1918.544222661424
 21
782.4679226456994
 31
0.0
  0
LINE
  5
6CC9
330
1E
100
AcDbEntity
  8
躯体と製品
  6
Continuous
 62
     3
100
AcDbLine
 10
1919.022957269357
 20
776.5448057993785
 30
0.0
 11
1920.021434290942
 21
782.2074503791991
 31
0.0
  0
LINE
  5
6CCA
330
1E
100
AcDbEntity
  8
躯体と製品
  6
Continuous
 62
     3
100
AcDbLine
 10
1918.819566315846
 20
781.1500888656005
 30
0.0
 11
1918.32716243934
 21
781.2369129544342
 31
0.0
  0
LINE
  5
6CCB
330
1E
100
AcDbEntity
  8
躯体と製品
  6
Continuous
 62
     3
100
AcDbLine
 10
1914.387931427291
 20
781.9315056651019
 30
0.0
 11
1913.895527550785
 21
782.0183297539356
 31
0.0
  0
LINE
  5
6CCC
330
1E
100
AcDbEntity
  8
躯体と製品
  6
Continuous
 62
     3
100
AcDbLine
 10
1918.645918138179
 20
780.1652811125882
 30
0.0
 11
1918.153514261673
 21
780.2521052014218
 31
0.0
  0
LINE
  5
6CCD
330
1E
100
AcDbEntity
  8
躯体と製品
  6
Continuous
 62
     3
100
AcDbLine
 10
1914.214283249624
 20
780.9466979120898
 30
0.0
 11
1913.721879373118
 21
781.0335220009228
 31
0.0
  0
LINE
  5
6CCE
330
1E
100
AcDbEntity
  8
躯体と製品
  6
Continuous
 62
     3
100
AcDbLine
 10
1911.987825047074
 20
776.9579817105454
 30
0.0
 11
1913.127780019856
 21
783.4229876228675
 31
0.0
  0
LINE
  5
6CCF
330
1E
100
AcDbEntity
  8
躯体と製品
  6
Continuous
 62
     3
100
AcDbLine
 10
1911.495421170568
 20
776.5448057993785
 30
0.0
 11
1907.522957269357
 21
776.5448057993785
 31
0.0
  0
ARC
  5
6CD0
330
1E
100
AcDbEntity
  8
躯体と製品
  6
Continuous
 62
     3
100
AcDbCircle
 10
1911.495421170568
 20
777.0448057993785
 30
0.0
 40
0.5
100
AcDbArc
 50
270.0
 51
350.0000000000025
  0
LINE
  5
6CD1
330
1E
100
AcDbEntity
  8
躯体と製品
  6
Continuous
 62
     3
100
AcDbLine
 10
1913.541583823776
 20
777.1316298882121
 30
0.0
 11
1914.040635071957
 21
779.9618901590772
 31
0.0
  0
ARC
  5
6CD2
330
1E
100
AcDbEntity
  8
躯体と製品
  6
Continuous
 62
     3
100
AcDbCircle
 10
1914.033987700283
 20
777.0448057993785
 30
0.0
 40
0.5
100
AcDbArc
 50
170.0000000000025
 51
270.0
  0
LINE
  5
6CD3
330
1E
100
AcDbEntity
  8
躯体と製品
  6
Continuous
 62
     3
100
AcDbLine
 10
1917.572671412446
 20
776.9579817105454
 30
0.0
 11
1917.979866084006
 21
779.2672974484097
 31
0.0
  0
LINE
  5
6CD4
330
1E
100
AcDbEntity
  8
躯体と製品
  6
Continuous
 62
     3
100
AcDbLine
 10
1917.08026753594
 20
776.5448057993785
 30
0.0
 11
1914.033987700283
 21
776.5448057993785
 31
0.0
  0
ARC
  5
6CD5
330
1E
100
AcDbEntity
  8
躯体と製品
  6
Continuous
 62
     3
100
AcDbCircle
 10
1917.08026753594
 20
777.0448057993785
 30
0.0
 40
0.5
100
AcDbArc
 50
270.0
 51
350.0000000000025
  0
ARC
  5
6CD6
330
1E
100
AcDbEntity
  8
躯体と製品
  6
DASHED1
 62
     7
100
AcDbCircle
 10
1892.022957269357
 20
733.5448057993785
 30
0.0
 40
1.0
100
AcDbArc
 50
270.0
 51
0.0
  0
LINE
  5
6CD7
330
1E
100
AcDbEntity
  8
躯体と製品
  6
DASHED1
 62
     7
100
AcDbLine
 10
1895.147987269357
 20
734.7828097993786
 30
0.0
 11
1890.962554269357
 21
734.0448057993785
 31
0.0
  0
LINE
  5
6CD8
330
1E
100
AcDbEntity
  8
躯体と製品
  6
DASHED1
 62
     7
100
AcDbLine
 10
1892.572957269357
 20
764.7448057993785
 30
0.0
 11
1884.472957269357
 21
764.7448057993785
 31
0.0
  0
LINE
  5
6CD9
330
1E
100
AcDbEntity
  8
躯体と製品
  6
DASHED1
 62
     7
100
AcDbLine
 10
1893.272957269357
 20
764.0448057993785
 30
0.0
 11
1883.772957269357
 21
764.0448057993785
 31
0.0
  0
LINE
  5
6CDA
330
1E
100
AcDbEntity
  8
躯体と製品
  6
DASHED1
 62
     7
100
AcDbLine
 10
1881.897927269357
 20
734.7828097993786
 30
0.0
 11
1883.772957269357
 21
745.4166317993785
 31
0.0
  0
LINE
  5
6CDB
330
1E
100
AcDbEntity
  8
躯体と製品
  6
DASHED1
 62
     7
100
AcDbLine
 10
1888.022957269357
 20
745.0448057993785
 30
0.0
 11
1886.083360269357
 21
734.0448057993785
 31
0.0
  0
LINE
  5
6CDC
330
1E
100
AcDbEntity
  8
躯体と製品
  6
DASHED1
 62
     7
100
AcDbLine
 10
1889.022957269357
 20
745.0448057993785
 30
0.0
 11
1890.962554269357
 21
734.0448057993785
 31
0.0
  0
LINE
  5
6CDD
330
1E
100
AcDbEntity
  8
躯体と製品
  6
DASHED1
 62
     7
100
AcDbLine
 10
1881.897927269357
 20
734.7828097993786
 30
0.0
 11
1886.083360269357
 21
734.0448057993785
 31
0.0
  0
LINE
  5
6CDE
330
1E
100
AcDbEntity
  8
躯体と製品
  6
DASHED1
 62
     7
100
AcDbLine
 10
1884.022957269357
 20
733.5448057993785
 30
0.0
 11
1884.022957269357
 21
734.4081097993787
 31
0.0
  0
ARC
  5
6CDF
330
1E
100
AcDbEntity
  8
躯体と製品
  6
DASHED1
 62
     7
100
AcDbCircle
 10
1885.022957269357
 20
733.5448057993785
 30
0.0
 40
1.0
100
AcDbArc
 50
180.0
 51
270.0
  0
LINE
  5
6CE0
330
1E
100
AcDbEntity
  8
躯体と製品
  6
DASHED1
 62
     7
100
AcDbLine
 10
1885.022957269357
 20
732.5448057993785
 30
0.0
 11
1892.022957269357
 21
732.5448057993785
 31
0.0
  0
LINE
  5
6CE1
330
1E
100
AcDbEntity
  8
躯体と製品
  6
DASHED1
 62
     7
100
AcDbLine
 10
1883.772957269357
 20
745.4166317993785
 30
0.0
 11
1883.772957269357
 21
764.0448057993785
 31
0.0
  0
LINE
  5
6CE2
330
1E
100
AcDbEntity
  8
躯体と製品
  6
DASHED1
 62
     7
100
AcDbLine
 10
1883.772957269357
 20
764.0448057993785
 30
0.0
 11
1884.472957269357
 21
764.7448057993785
 31
0.0
  0
LINE
  5
6CE3
330
1E
100
AcDbEntity
  8
躯体と製品
  6
DASHED1
 62
     7
100
AcDbLine
 10
1889.022957269357
 20
745.0448057993785
 30
0.0
 11
1888.022957269357
 21
745.0448057993785
 31
0.0
  0
LINE
  5
6CE4
330
1E
100
AcDbEntity
  8
躯体と製品
  6
DASHED1
 62
     7
100
AcDbLine
 10
1895.147987269357
 20
734.7828097993786
 30
0.0
 11
1893.272957269357
 21
745.4166317993785
 31
0.0
  0
LINE
  5
6CE5
330
1E
100
AcDbEntity
  8
躯体と製品
  6
DASHED1
 62
     7
100
AcDbLine
 10
1893.022957269357
 20
733.5448057993785
 30
0.0
 11
1893.022957269357
 21
734.4081097993787
 31
0.0
  0
LINE
  5
6CE6
330
1E
100
AcDbEntity
  8
躯体と製品
  6
DASHED1
 62
     7
100
AcDbLine
 10
1893.272957269357
 20
745.4166317993785
 30
0.0
 11
1893.272957269357
 21
764.0448057993785
 31
0.0
  0
LINE
  5
6CE7
330
1E
100
AcDbEntity
  8
躯体と製品
  6
DASHED1
 62
     7
100
AcDbLine
 10
1893.272957269357
 20
764.0448057993785
 30
0.0
 11
1892.572957269357
 21
764.7448057993785
 31
0.0
  0
LINE
  5
6CE8
330
1E
100
AcDbEntity
  8
躯体と製品
  6
DASHED1
 62
     7
100
AcDbLine
 10
1884.472957269357
 20
774.0448057993785
 30
0.0
 11
1884.472957269357
 21
764.7448057993785
 31
0.0
  0
LINE
  5
6CE9
330
1E
100
AcDbEntity
  8
躯体と製品
  6
DASHED1
 62
     7
100
AcDbLine
 10
1892.572957269357
 20
774.0448057993785
 30
0.0
 11
1892.572957269357
 21
764.7448057993785
 31
0.0
  0
LINE
  5
6CEA
330
1E
100
AcDbEntity
  8
躯体と製品
  6
Continuous
 62
     4
100
AcDbLine
 10
1902.522957269357
 20
782.5448057993785
 30
0.0
 11
1902.522957269357
 21
780.9448057993786
 31
0.0
  0
LINE
  5
6CEB
330
1E
100
AcDbEntity
  8
躯体と製品
  6
Continuous
 62
     4
100
AcDbLine
 10
1874.522957269357
 20
782.5448057993785
 30
0.0
 11
1874.522957269357
 21
780.9448057993786
 31
0.0
  0
LINE
  5
6CEC
330
1E
100
AcDbEntity
  8
躯体と製品
  6
DASHED1
 62
     7
100
AcDbLine
 10
1891.518845873621
 20
791.8113123585361
 30
0.0
 11
1891.330436431146
 21
788.21624603342
 31
0.0
  0
LINE
  5
6CED
330
1E
100
AcDbEntity
  8
躯体と製品
  6
DASHED1
 62
     7
100
AcDbLine
 10
1885.527068665093
 20
792.1253280959943
 30
0.0
 11
1885.338659222619
 21
788.5302617708776
 31
0.0
  0
LINE
  5
6CEE
330
1E
100
AcDbEntity
  8
躯体と製品
  6
Continuous
 62
     3
100
AcDbLine
 10
1897.532862777467
 20
791.4961310880351
 30
0.0
 11
1879.732862777467
 21
792.4289895592734
 31
0.0
  0
LINE
  5
6CEF
330
1E
100
AcDbEntity
  8
躯体と製品
  6
Continuous
 62
     3
100
AcDbLine
 10
1897.449125247479
 20
789.8983238324278
 30
0.0
 11
1879.649125247478
 21
790.8311823036658
 31
0.0
  0
ARC
  5
6CF0
330
1E
100
AcDbEntity
  8
躯体と製品
  6
Continuous
 62
     3
100
AcDbCircle
 10
1893.979209177751
 20
789.0788020819427
 30
0.0
 40
1.0
100
AcDbArc
 50
86.99999999999441
 51
177.0000000000011
  0
LINE
  5
6CF1
330
1E
100
AcDbEntity
  8
躯体と製品
  6
Continuous
 62
     3
100
AcDbLine
 10
1892.980579642996
 20
789.1311380381858
 30
0.0
 11
1892.928243686753
 21
788.1325085034314
 31
0.0
  0
ARC
  5
6CF2
330
1E
100
AcDbEntity
  8
躯体と製品
  6
Continuous
 62
     3
100
AcDbCircle
 10
1882.7945583885
 20
789.6649647918638
 30
0.0
 40
1.0
100
AcDbArc
 50
357.0000000000011
 51
86.99999999999441
  0
LINE
  5
6CF3
330
1E
100
AcDbEntity
  8
躯体と製品
  6
Continuous
 62
     3
100
AcDbLine
 10
1883.793187923254
 20
789.612628835621
 30
0.0
 11
1883.740851967012
 21
788.6139993008664
 31
0.0
  0
LINE
  5
6CF4
330
1E
100
AcDbEntity
  8
躯体と製品
  6
Continuous
 62
     3
100
AcDbLine
 10
1892.928243686753
 20
788.1325085034314
 30
0.0
 11
1883.740851967012
 21
788.6139993008664
 31
0.0
  0
ARC
  5
6CF5
330
1E
100
AcDbEntity
  8
躯体と製品
  6
Continuous
 62
     3
100
AcDbCircle
 10
1897.422957269357
 20
789.3990090650505
 30
0.0
 40
2.1
100
AcDbArc
 50
0.0
 51
86.99999999999441
  0
LINE
  5
6CF6
330
1E
100
AcDbEntity
  8
躯体と製品
  6
Continuous
 62
     3
100
AcDbLine
 10
1899.522957269357
 20
789.3990090650505
 30
0.0
 11
1899.522957269357
 21
783.0448057993785
 31
0.0
  0
ARC
  5
6CF7
330
1E
100
AcDbEntity
  8
躯体と製品
  6
Continuous
 62
     3
100
AcDbCircle
 10
1879.622957269357
 20
790.3318675362888
 30
0.0
 40
2.1
100
AcDbArc
 50
86.99999999999441
 51
180.0
  0
ARC
  5
6CF8
330
1E
100
AcDbEntity
  8
躯体と製品
  6
Continuous
 62
     3
100
AcDbCircle
 10
1897.422957269357
 20
789.3990090650505
 30
0.0
 40
0.5
100
AcDbArc
 50
0.0
 51
86.99999999999441
  0
LINE
  5
6CF9
330
1E
100
AcDbEntity
  8
躯体と製品
  6
Continuous
 62
     3
100
AcDbLine
 10
1897.922957269357
 20
789.3990090650505
 30
0.0
 11
1897.922957269357
 21
783.0448057993785
 31
0.0
  0
ARC
  5
6CFA
330
1E
100
AcDbEntity
  8
躯体と製品
  6
Continuous
 62
     3
100
AcDbCircle
 10
1879.622957269357
 20
790.3318675362888
 30
0.0
 40
0.5
100
AcDbArc
 50
86.99999999999441
 51
180.0
  0
LINE
  5
6CFB
330
1E
100
AcDbEntity
  8
躯体と製品
  6
Continuous
 62
     3
100
AcDbLine
 10
1879.122957269357
 20
790.3318675362888
 30
0.0
 11
1879.122957269357
 21
783.0448057993785
 31
0.0
  0
ARC
  5
6CFC
330
1E
100
AcDbEntity
  8
躯体と製品
  6
Continuous
 62
     3
100
AcDbCircle
 10
1900.022957269357
 20
783.0448057993785
 30
0.0
 40
0.5
100
AcDbArc
 50
180.0
 51
270.0
  0
ARC
  5
6CFD
330
1E
100
AcDbEntity
  8
躯体と製品
  6
Continuous
 62
     3
100
AcDbCircle
 10
1900.022957269357
 20
783.0448057993785
 30
0.0
 40
2.1
100
AcDbArc
 50
180.0
 51
270.0
  0
LINE
  5
6CFE
330
1E
100
AcDbEntity
  8
躯体と製品
  6
Continuous
 62
     3
100
AcDbLine
 10
1904.522957269357
 20
782.5448057993785
 30
0.0
 11
1904.522957269357
 21
780.9448057993786
 31
0.0
  0
LINE
  5
6CFF
330
1E
100
AcDbEntity
  8
躯体と製品
  6
Continuous
 62
     3
100
AcDbLine
 10
1900.022957269357
 20
782.5448057993785
 30
0.0
 11
1904.522957269357
 21
782.5448057993785
 31
0.0
  0
LINE
  5
6D00
330
1E
100
AcDbEntity
  8
躯体と製品
  6
Continuous
 62
     3
100
AcDbLine
 10
1904.522957269357
 20
780.9448057993786
 30
0.0
 11
1900.022957269357
 21
780.9448057993786
 31
0.0
  0
ARC
  5
6D01
330
1E
100
AcDbEntity
  8
躯体と製品
  6
Continuous
 62
     3
100
AcDbCircle
 10
1877.022957269357
 20
783.0448057993785
 30
0.0
 40
0.5
100
AcDbArc
 50
270.0
 51
0.0
  0
ARC
  5
6D02
330
1E
100
AcDbEntity
  8
躯体と製品
  6
Continuous
 62
     3
100
AcDbCircle
 10
1877.022957269357
 20
783.0448057993785
 30
0.0
 40
2.1
100
AcDbArc
 50
270.0
 51
0.0
  0
LINE
  5
6D03
330
1E
100
AcDbEntity
  8
躯体と製品
  6
Continuous
 62
     3
100
AcDbLine
 10
1872.522957269357
 20
782.5448057993785
 30
0.0
 11
1877.022957269357
 21
782.5448057993785
 31
0.0
  0
LINE
  5
6D04
330
1E
100
AcDbEntity
  8
躯体と製品
  6
Continuous
 62
     3
100
AcDbLine
 10
1872.522957269357
 20
780.9448057993786
 30
0.0
 11
1872.522957269357
 21
782.5448057993785
 31
0.0
  0
LINE
  5
6D05
330
1E
100
AcDbEntity
  8
躯体と製品
  6
Continuous
 62
     3
100
AcDbLine
 10
1872.522957269357
 20
780.9448057993786
 30
0.0
 11
1877.022957269357
 21
780.9448057993786
 31
0.0
  0
LINE
  5
6D06
330
1E
100
AcDbEntity
  8
躯体と製品
  6
Continuous
 62
     3
100
AcDbLine
 10
1877.522957269357
 20
790.3318675362888
 30
0.0
 11
1877.522957269357
 21
783.0448057993785
 31
0.0
  0
LINE
  5
6D07
330
1E
100
AcDbEntity
  8
躯体と製品
  6
DASHED1
 62
     4
100
AcDbLine
 10
1983.283771543699
 20
791.5005413086537
 30
0.0
 11
1713.522957269357
 21
805.638106522357
 31
0.0
  0
LINE
  5
6D08
330
1E
100
AcDbEntity
  8
躯体と製品
  6
DASHED1
 62
     7
100
AcDbLine
 10
1997.069343719941
 20
813.214368108213
 30
0.0
 11
2011.022957269357
 21
735.0741322314868
 31
0.0
  0
LINE
  5
6D09
330
1E
100
AcDbEntity
  8
躯体と製品
  6
Continuous
 62
     4
100
AcDbLine
 10
1970.178864027179
 20
817.7223352322513
 30
0.0
 11
1969.664375541106
 21
818.2368237183244
 31
0.0
  0
LINE
  5
6D0A
330
1E
100
AcDbEntity
  8
躯体と製品
  6
DASHED1
 62
     7
100
AcDbLine
 10
1978.342959826169
 20
792.7608506246229
 30
0.0
 11
1978.290623869926
 21
791.7622210898684
 31
0.0
  0
LINE
  5
6D0B
330
1E
100
AcDbEntity
  8
躯体と製品
  6
DASHED1
 62
     7
100
AcDbLine
 10
1958.370369131078
 20
793.8075697494818
 30
0.0
 11
1978.342959826169
 21
792.7608506246229
 31
0.0
  0
LINE
  5
6D0C
330
1E
100
AcDbEntity
  8
躯体と製品
  6
DASHED1
 62
     7
100
AcDbLine
 10
1958.370369131078
 20
793.8075697494818
 30
0.0
 11
1958.318033174835
 21
792.8089402147273
 31
0.0
  0
LINE
  5
6D0D
330
1E
100
AcDbEntity
  8
躯体と製品
  6
DASHED1
 62
     7
100
AcDbLine
 10
1954.822829803194
 20
792.9921160615775
 30
0.0
 11
1958.318033174835
 21
792.8089402147273
 31
0.0
  0
ARC
  5
6D0E
330
1E
100
AcDbEntity
  8
躯体と製品
  6
DASHED1
 62
     7
100
AcDbCircle
 10
1954.901333737558
 20
794.4900603637097
 30
0.0
 40
1.5
100
AcDbArc
 50
86.99999999999441
 51
266.9999999999944
  0
LINE
  5
6D0F
330
1E
100
AcDbEntity
  8
躯体と製品
  6
Continuous
 62
     3
100
AcDbLine
 10
1993.417126073785
 20
790.3818452865209
 30
0.0
 11
1992.833933530866
 21
787.8557608568026
 31
0.0
  0
LINE
  5
6D10
330
1E
100
AcDbEntity
  8
躯体と製品
  6
Continuous
 62
     3
100
AcDbLine
 10
1985.281030613208
 20
791.3958693961679
 30
0.0
 11
1992.956109019514
 21
790.9936355810702
 31
0.0
  0
LINE
  5
6D11
330
1E
100
AcDbEntity
  8
躯体と製品
  6
Continuous
 62
     3
100
AcDbLine
 10
1996.196742527732
 20
790.8238011754343
 30
0.0
 11
1995.019396095665
 21
790.885503287386
 31
0.0
  0
LINE
  5
6D12
330
1E
100
AcDbEntity
  8
躯体と製品
  6
Continuous
 62
     3
100
AcDbLine
 10
1994.711384289357
 20
790.6533997432624
 30
0.0
 11
1994.003177608608
 21
787.5858195915899
 31
0.0
  0
ARC
  5
6D13
330
1E
100
AcDbEntity
  8
躯体と製品
  6
Continuous
 62
     3
100
AcDbCircle
 10
1985.254862635087
 20
790.8965546287908
 30
0.0
 40
0.5
100
AcDbArc
 50
86.99999999999441
 51
177.0000000000011
  0
LINE
  5
6D14
330
1E
100
AcDbEntity
  8
躯体と製品
  6
Continuous
 62
     3
100
AcDbLine
 10
1984.75554786771
 20
790.9227226069121
 30
0.0
 11
1984.703211911467
 21
789.9240930721575
 31
0.0
  0
ARC
  5
6D15
330
1E
100
AcDbEntity
  8
躯体と製品
  6
Continuous
 62
     3
100
AcDbCircle
 10
1985.464206460059
 20
794.8910727678089
 30
0.0
 40
0.5
100
AcDbArc
 50
177.0000000000011
 51
266.9999999999944
  0
LINE
  5
6D16
330
1E
100
AcDbEntity
  8
躯体と製品
  6
Continuous
 62
     3
100
AcDbLine
 10
1985.438038481937
 20
794.3917580004316
 30
0.0
 11
1997.120025789471
 21
793.7795309880309
 31
0.0
  0
LINE
  5
6D17
330
1E
100
AcDbEntity
  8
躯体と製品
  6
Continuous
 62
     3
100
AcDbLine
 10
1984.964891692681
 20
794.9172407459302
 30
0.0
 11
1985.069563605167
 21
796.9144998154393
 31
0.0
  0
LINE
  5
6D18
330
1E
100
AcDbEntity
  8
躯体と製品
  6
Continuous
 62
     3
100
AcDbLine
 10
2006.468487969975
 20
743.1590546130305
 30
0.0
 11
2002.085936548242
 21
743.1590546130305
 31
0.0
  0
LINE
  5
6D19
330
1E
100
AcDbEntity
  8
躯体と製品
  6
Continuous
 62
     3
100
AcDbLine
 10
1997.122554172223
 20
790.0330833314974
 30
0.0
 11
2006.957561770342
 21
743.7630104584393
 31
0.0
  0
LINE
  5
6D1A
330
1E
100
AcDbEntity
  8
躯体と製品
  6
Continuous
 62
     3
100
AcDbLine
 10
1999.897460722943
 20
791.4073774562207
 30
0.0
 11
2011.853410826198
 21
735.1590546130305
 31
0.0
  0
ARC
  5
6D1B
330
1E
100
AcDbEntity
  8
躯体と製品
  6
Continuous
 62
     3
100
AcDbCircle
 10
1984.57024883779
 20
796.940667793561
 30
0.0
 40
0.5
100
AcDbArc
 50
357.0000000000011
 51
86.99999999999441
  0
LINE
  5
6D1C
330
1E
100
AcDbEntity
  8
躯体と製品
  6
Continuous
 62
     3
100
AcDbLine
 10
1984.596416815912
 20
797.4399825609384
 30
0.0
 11
1984.097102048534
 21
797.4661505390596
 31
0.0
  0
ARC
  5
6D1D
330
1E
100
AcDbEntity
  8
躯体と製品
  6
Continuous
 62
     3
100
AcDbCircle
 10
1984.070934070413
 20
796.9668357716824
 30
0.0
 40
0.5
100
AcDbArc
 50
86.99999999999441
 51
177.0000000000011
  0
LINE
  5
6D1E
330
1E
100
AcDbEntity
  8
躯体と製品
  6
Continuous
 62
     3
100
AcDbLine
 10
1984.618338427894
 20
816.9655944448955
 30
0.0
 11
1983.152931653092
 21
789.0039674717674
 31
0.0
  0
ARC
  5
6D1F
330
1E
100
AcDbEntity
  8
躯体と製品
  6
Continuous
 62
     3
100
AcDbCircle
 10
1996.963017920742
 20
790.7836423837675
 30
0.0
 40
3.0
100
AcDbArc
 50
11.99999999999979
 51
86.99999999999441
  0
ARC
  5
6D20
330
1E
100
AcDbEntity
  8
躯体と製品
  6
Continuous
 62
     3
100
AcDbCircle
 10
1996.14440657149
 20
789.8251716406796
 30
0.0
 40
1.0
100
AcDbArc
 50
11.99999999999979
 51
86.99999999999441
  0
ARC
  5
6D21
330
1E
100
AcDbEntity
  8
躯体と製品
  6
Continuous
 62
     3
100
AcDbCircle
 10
1984.203897144089
 20
789.9502610502791
 30
0.0
 40
0.5
100
AcDbArc
 50
266.9999999999944
 51
357.0000000000011
  0
LINE
  5
6D22
330
1E
100
AcDbEntity
  8
躯体と製品
  6
Continuous
 62
     3
100
AcDbLine
 10
1984.177729165968
 20
789.4509462829018
 30
0.0
 11
1983.67841439859
 21
789.477114261023
 31
0.0
  0
ARC
  5
6D23
330
1E
100
AcDbEntity
  8
躯体と製品
  6
Continuous
 62
     3
100
AcDbCircle
 10
1983.704582376712
 20
789.9764290284003
 30
0.0
 40
0.5
100
AcDbArc
 50
177.0000000000011
 51
266.9999999999944
  0
ARC
  5
6D24
330
1E
100
AcDbEntity
  8
躯体と製品
  6
Continuous
 62
     3
100
AcDbCircle
 10
2006.936112405648
 20
741.4590546130304
 30
0.0
 40
0.5
100
AcDbArc
 50
11.99999999999979
 51
90.0
  0
LINE
  5
6D25
330
1E
100
AcDbEntity
  8
躯体と製品
  6
Continuous
 62
     3
100
AcDbLine
 10
2007.425186206016
 20
741.5630104584392
 30
0.0
 11
2008.853410826198
 21
734.8437419072333
 31
0.0
  0
LINE
  5
6D26
330
1E
100
AcDbEntity
  8
躯体と製品
  6
Continuous
 62
     3
100
AcDbLine
 10
2006.936112405648
 20
741.9590546130304
 30
0.0
 11
1997.685936548242
 21
741.9590546130304
 31
0.0
  0
ARC
  5
6D27
330
1E
100
AcDbEntity
  8
躯体と製品
  6
Continuous
 62
     3
100
AcDbCircle
 10
2006.468487969975
 20
743.6590546130305
 30
0.0
 40
0.5
100
AcDbArc
 50
270.0
 51
11.99999999999979
  0
LINE
  5
6D28
330
1E
100
AcDbEntity
  8
躯体と製品
  6
Continuous
 62
     3
100
AcDbLine
 10
1997.685936548242
 20
743.1590546130305
 30
0.0
 11
2000.085936548243
 21
743.1590546130305
 31
0.0
  0
LINE
  5
6D29
330
1E
100
AcDbEntity
  8
躯体と製品
  6
Continuous
 62
     3
100
AcDbLine
 10
2002.085936548242
 20
744.1590546130306
 30
0.0
 11
2000.085936548243
 21
743.1590546130305
 31
0.0
  0
LINE
  5
6D2A
330
1E
100
AcDbEntity
  8
躯体と製品
  6
Continuous
 62
     3
100
AcDbLine
 10
2002.085936548242
 20
743.1590546130305
 30
0.0
 11
2002.085936548242
 21
744.1590546130306
 31
0.0
  0
ARC
  5
6D2B
330
1E
100
AcDbEntity
  8
躯体と製品
  6
Continuous
 62
     3
100
AcDbCircle
 10
2009.353410826198
 20
733.6590546130305
 30
0.0
 40
2.5
100
AcDbArc
 50
270.0
 51
0.0
  0
LINE
  5
6D2C
330
1E
100
AcDbEntity
  8
躯体と製品
  6
Continuous
 62
     3
100
AcDbLine
 10
2009.353410826198
 20
731.1590546130305
 30
0.0
 11
2008.853410826198
 21
731.1590546130305
 31
0.0
  0
LINE
  5
6D2D
330
1E
100
AcDbEntity
  8
躯体と製品
  6
Continuous
 62
     3
100
AcDbLine
 10
2011.853410826198
 20
733.6590546130305
 30
0.0
 11
2011.853410826198
 21
735.1590546130305
 31
0.0
  0
LINE
  5
6D2E
330
1E
100
AcDbEntity
  8
躯体と製品
  6
Continuous
 62
     3
100
AcDbLine
 10
2008.853410826198
 20
734.8437419072333
 30
0.0
 11
2008.853410826198
 21
731.1590546130305
 31
0.0
  0
ARC
  5
6D2F
330
1E
100
AcDbEntity
  8
躯体と製品
  6
Continuous
 62
     3
100
AcDbCircle
 10
1997.685936548242
 20
742.5590546130306
 30
0.0
 40
0.6000000000000015
100
AcDbArc
 50
90.0
 51
270.0
  0
ARC
  5
6D30
330
1E
100
AcDbEntity
  8
躯体と製品
  6
Continuous
 62
     3
100
AcDbCircle
 10
1995.003695308792
 20
790.5859144269591
 30
0.0
 40
0.2999999999999999
100
AcDbArc
 50
86.99999999999441
 51
166.9999999999997
  0
ARC
  5
6D31
330
1E
100
AcDbEntity
  8
躯体と製品
  6
Continuous
 62
     3
100
AcDbCircle
 10
1992.929941041392
 20
790.4943208136927
 30
0.0
 40
0.5
100
AcDbArc
 50
346.9999999999997
 51
86.99999999999441
  0
ARC
  5
6D32
330
1E
100
AcDbEntity
  8
躯体と製品
  6
Continuous
 62
     3
100
AcDbCircle
 10
1993.418555569736
 20
787.7207902241964
 30
0.0
 40
0.5999999999999984
100
AcDbArc
 50
166.9999999999997
 51
346.9999999999997
  0
LINE
  5
6D33
330
1E
100
AcDbEntity
  8
躯体と製品
  6
DASHED1
 62
     7
100
AcDbLine
 10
1978.290623869926
 20
791.7622210898684
 30
0.0
 11
1983.283771543699
 21
791.5005413086537
 31
0.0
  0
LINE
  5
6D34
330
1E
100
AcDbEntity
  8
躯体と製品
  6
DASHED1
 62
     7
100
AcDbLine
 10
1954.979837671922
 20
795.9880046658413
 30
0.0
 11
1983.440779412428
 21
794.4964299129176
 31
0.0
  0
LINE
  5
6D35
330
1E
100
AcDbEntity
  8
躯体と製品
  6
DASHED1
 62
     4
100
AcDbLine
 10
1948.51491367414
 20
796.8275031487978
 30
0.0
 11
1948.609118395377
 21
798.6250363113561
 31
0.0
  0
LINE
  5
6D36
330
1E
100
AcDbEntity
  8
躯体と製品
  6
DASHED1
 62
     4
100
AcDbLine
 10
1768.761597418316
 20
806.2479752725277
 30
0.0
 11
1768.855802139553
 21
808.0455084350861
 31
0.0
  0
LINE
  5
6D37
330
1E
100
AcDbEntity
  8
躯体と製品
  6
Continuous
 62
     3
100
AcDbLine
 10
1984.618338427894
 20
816.9655944448955
 30
0.0
 11
1713.522957269357
 21
831.1731013453039
 31
0.0
  0
LINE
  5
6D38
330
1E
100
AcDbEntity
  8
躯体と製品
  6
Continuous
 62
     3
100
AcDbLine
 10
1983.152931653092
 20
789.0039674717674
 30
0.0
 11
1713.522957269357
 21
803.134675657362
 31
0.0
  0
LINE
  5
6D39
330
1E
100
AcDbEntity
  8
躯体と製品
  6
DASHED1
 62
     4
100
AcDbLine
 10
1984.53983449353
 20
815.4676501427637
 30
0.0
 11
1713.522957269357
 21
829.671042826307
 31
0.0
  0
LINE
  5
6D3A
330
1E
100
AcDbEntity
  8
躯体と製品
  6
Continuous
 62
     3
100
AcDbLine
 10
1984.3828266248
 20
812.4717615384998
 30
0.0
 11
1713.522957269357
 21
826.6669257883132
 31
0.0
  0
LINE
  5
6D3B
330
1E
100
AcDbEntity
  8
躯体と製品
  6
Continuous
 62
     3
100
AcDbLine
 10
1984.304322690437
 20
810.9738172363682
 30
0.0
 11
1713.522957269357
 21
825.1648672693166
 31
0.0
  0
LINE
  5
6D3C
330
1E
100
AcDbEntity
  8
躯体と製品
  6
DASHED1
 62
     4
100
AcDbLine
 10
1983.561152111786
 20
796.7932778428528
 30
0.0
 11
1713.522957269357
 21
810.945379956146
 31
0.0
  0
LINE
  5
6D3D
330
1E
100
AcDbEntity
  8
躯体と製品
  6
DASHED1
 62
     4
100
AcDbLine
 10
1983.466947390549
 20
794.9957446802946
 30
0.0
 11
1713.522957269357
 21
809.1429097333499
 31
0.0
  0
LINE
  5
6D3E
330
1E
100
AcDbEntity
  8
躯体と製品
  6
DASHED1
 62
     4
100
AcDbLine
 10
1983.205267609334
 20
790.0025970065216
 30
0.0
 11
1713.522957269357
 21
804.1360480033601
 31
0.0
  0
ARC
  5
6D3F
330
1E
100
AcDbEntity
  8
躯体と製品
  6
Continuous
 62
     7
100
AcDbCircle
 10
1990.49013836954
 20
775.5590546130304
 30
0.0
 40
2.1
100
AcDbArc
 50
90.0
 51
175.0000000000005
  0
LINE
  5
6D40
330
1E
100
AcDbEntity
  8
躯体と製品
  6
Continuous
 62
     7
100
AcDbLine
 10
1990.49013836954
 20
777.6590546130305
 30
0.0
 11
1991.085936548243
 21
777.6590546130305
 31
0.0
  0
ARC
  5
6D41
330
1E
100
AcDbEntity
  8
躯体と製品
  6
Continuous
 62
     7
100
AcDbCircle
 10
1990.49013836954
 20
775.5590546130304
 30
0.0
 40
1.1
100
AcDbArc
 50
90.0
 51
175.0000000000005
  0
LINE
  5
6D42
330
1E
100
AcDbEntity
  8
躯体と製品
  6
Continuous
 62
     7
100
AcDbLine
 10
1990.49013836954
 20
776.6590546130305
 30
0.0
 11
1991.085936548243
 21
776.6590546130305
 31
0.0
  0
LINE
  5
6D43
330
1E
100
AcDbEntity
  8
躯体と製品
  6
Continuous
 62
     7
100
AcDbLine
 10
1991.085936548243
 20
780.1590546130305
 30
0.0
 11
1991.085936548243
 21
777.6590546130305
 31
0.0
  0
LINE
  5
6D44
330
1E
100
AcDbEntity
  8
躯体と製品
  6
Continuous
 62
     7
100
AcDbLine
 10
1992.585936548242
 20
776.1590546130305
 30
0.0
 11
1994.237021548243
 21
776.6824276130305
 31
0.0
  0
LINE
  5
6D45
330
1E
100
AcDbEntity
  8
躯体と製品
  6
Continuous
 62
     7
100
AcDbLine
 10
1992.585936548242
 20
776.1590546130305
 30
0.0
 11
1992.585936548242
 21
774.1590546130305
 31
0.0
  0
LINE
  5
6D46
330
1E
100
AcDbEntity
  8
躯体と製品
  6
Continuous
 62
     7
100
AcDbLine
 10
1992.585936548242
 20
778.1590546130305
 30
0.0
 11
1992.585936548242
 21
780.1590546130305
 31
0.0
  0
ARC
  5
6D47
330
1E
100
AcDbEntity
  8
躯体と製品
  6
Continuous
 62
     7
100
AcDbCircle
 10
1992.085936548242
 20
780.1590546130305
 30
0.0
 40
0.5
100
AcDbArc
 50
0.0
 51
90.0
  0
LINE
  5
6D48
330
1E
100
AcDbEntity
  8
躯体と製品
  6
Continuous
 62
     7
100
AcDbLine
 10
1991.585936548242
 20
780.6590546130305
 30
0.0
 11
1992.085936548242
 21
780.6590546130305
 31
0.0
  0
LINE
  5
6D49
330
1E
100
AcDbEntity
  8
躯体と製品
  6
Continuous
 62
     7
100
AcDbLine
 10
1991.585936548242
 20
773.6590546130305
 30
0.0
 11
1992.085936548242
 21
773.6590546130305
 31
0.0
  0
ARC
  5
6D4A
330
1E
100
AcDbEntity
  8
躯体と製品
  6
Continuous
 62
     7
100
AcDbCircle
 10
1992.085936548242
 20
774.1590546130305
 30
0.0
 40
0.5
100
AcDbArc
 50
270.0
 51
0.0
  0
ARC
  5
6D4B
330
1E
100
AcDbEntity
  8
躯体と製品
  6
Continuous
 62
     7
100
AcDbCircle
 10
1991.585936548242
 20
774.1590546130305
 30
0.0
 40
0.5
100
AcDbArc
 50
180.0
 51
270.0
  0
ARC
  5
6D4C
330
1E
100
AcDbEntity
  8
躯体と製品
  6
Continuous
 62
     7
100
AcDbCircle
 10
1991.585936548242
 20
780.1590546130305
 30
0.0
 40
0.5
100
AcDbArc
 50
90.0
 51
180.0
  0
LINE
  5
6D4D
330
1E
100
AcDbEntity
  8
躯体と製品
  6
Continuous
 62
     7
100
AcDbLine
 10
1991.085936548243
 20
774.1590546130305
 30
0.0
 11
1991.085936548243
 21
776.6590546130305
 31
0.0
  0
ARC
  5
6D4E
330
1E
100
AcDbEntity
  8
躯体と製品
  6
Continuous
 62
     7
100
AcDbCircle
 10
1994.085936548242
 20
777.1590546130306
 30
0.0
 40
0.5
100
AcDbArc
 50
287.587954000005
 51
72.41204599999497
  0
LINE
  5
6D4F
330
1E
100
AcDbEntity
  8
躯体と製品
  6
Continuous
 62
     7
100
AcDbLine
 10
1992.585936548242
 20
778.1590546130305
 30
0.0
 11
1994.237021548243
 21
777.6356816130305
 31
0.0
  0
ARC
  5
6D50
330
1E
100
AcDbEntity
  8
躯体と製品
  6
Continuous
 62
     3
100
AcDbCircle
 10
1990.485936548242
 20
775.5590546130304
 30
0.0
 40
0.5999999999999997
100
AcDbArc
 50
0.0
 51
180.0
  0
ARC
  5
6D51
330
1E
100
AcDbEntity
  8
躯体と製品
  6
Continuous
 62
     3
100
AcDbCircle
 10
1990.485936548242
 20
779.7590546130305
 30
0.0
 40
0.5999999999999997
100
AcDbArc
 50
180.0
 51
0.0
  0
LINE
  5
6D52
330
1E
100
AcDbEntity
  8
躯体と製品
  6
Continuous
 62
     3
100
AcDbLine
 10
1989.885936548242
 20
775.5590546130304
 30
0.0
 11
1989.885936548242
 21
773.4590546130305
 31
0.0
  0
LINE
  5
6D53
330
1E
100
AcDbEntity
  8
躯体と製品
  6
Continuous
 62
     3
100
AcDbLine
 10
1991.085936548243
 20
775.5590546130304
 30
0.0
 11
1991.085936548243
 21
773.9590546130305
 31
0.0
  0
ARC
  5
6D54
330
1E
100
AcDbEntity
  8
躯体と製品
  6
Continuous
 62
     3
100
AcDbCircle
 10
1991.385936548242
 20
773.9590546130305
 30
0.0
 40
0.2999999999999998
100
AcDbArc
 50
180.0
 51
270.0
  0
LINE
  5
6D55
330
1E
100
AcDbEntity
  8
躯体と製品
  6
Continuous
 62
     3
100
AcDbLine
 10
1991.085936548243
 20
779.7590546130305
 30
0.0
 11
1991.085936548243
 21
781.3590546130305
 31
0.0
  0
ARC
  5
6D56
330
1E
100
AcDbEntity
  8
躯体と製品
  6
Continuous
 62
     3
100
AcDbCircle
 10
1991.385936548242
 20
781.3590546130305
 30
0.0
 40
0.2999999999999998
100
AcDbArc
 50
90.0
 51
180.0
  0
LINE
  5
6D57
330
1E
100
AcDbEntity
  8
躯体と製品
  6
Continuous
 62
     3
100
AcDbLine
 10
1989.885936548242
 20
779.7590546130305
 30
0.0
 11
1989.885936548242
 21
781.8590546130305
 31
0.0
  0
LINE
  5
6D58
330
1E
100
AcDbEntity
  8
躯体と製品
  6
Continuous
 62
     3
100
AcDbLine
 10
2002.085936548242
 20
743.6590546130305
 30
0.0
 11
2003.707204548243
 21
744.0643716130304
 31
0.0
  0
ARC
  5
6D59
330
1E
100
AcDbEntity
  8
躯体と製品
  6
Continuous
 62
     3
100
AcDbCircle
 10
2003.585936548243
 20
744.5494426130306
 30
0.0
 40
0.5
100
AcDbArc
 50
284.0362430000043
 51
0.0
  0
LINE
  5
6D5A
330
1E
100
AcDbEntity
  8
躯体と製品
  6
Continuous
 62
     3
100
AcDbLine
 10
2002.085936548242
 20
744.1590546130306
 30
0.0
 11
2002.085936548242
 21
743.6590546130305
 31
0.0
  0
LINE
  5
6D5B
330
1E
100
AcDbEntity
  8
躯体と製品
  6
Continuous
 62
     3
100
AcDbLine
 10
2004.085936548243
 20
744.8590546130305
 30
0.0
 11
2004.085936548243
 21
744.5494426130306
 31
0.0
  0
LINE
  5
6D5C
330
1E
100
AcDbEntity
  8
躯体と製品
  6
Continuous
 62
     3
100
AcDbLine
 10
1997.085936548242
 20
744.1590546130306
 30
0.0
 11
2002.085936548242
 21
744.1590546130306
 31
0.0
  0
ARC
  5
6D5D
330
1E
100
AcDbEntity
  8
躯体と製品
  6
Continuous
 62
     3
100
AcDbCircle
 10
2003.785936548242
 20
744.8590546130305
 30
0.0
 40
0.2999999999999998
100
AcDbArc
 50
0.0
 51
90.0
  0
ARC
  5
6D5E
330
1E
100
AcDbEntity
  8
躯体と製品
  6
Continuous
 62
     3
100
AcDbCircle
 10
1997.085936548242
 20
743.6590546130305
 30
0.0
 40
0.5
100
AcDbArc
 50
90.0
 51
180.0
  0
LINE
  5
6D5F
330
1E
100
AcDbEntity
  8
躯体と製品
  6
Continuous
 62
     3
100
AcDbLine
 10
1996.585936548243
 20
743.6590546130305
 30
0.0
 11
1996.585936548243
 21
734.8590546130306
 31
0.0
  0
LINE
  5
6D60
330
1E
100
AcDbEntity
  8
躯体と製品
  6
Continuous
 62
     3
100
AcDbLine
 10
1997.085936548242
 20
745.1590546130305
 30
0.0
 11
2003.785936548242
 21
745.1590546130305
 31
0.0
  0
ARC
  5
6D61
330
1E
100
AcDbEntity
  8
躯体と製品
  6
Continuous
 62
     3
100
AcDbCircle
 10
1997.085936548242
 20
745.6590546130305
 30
0.0
 40
0.5
100
AcDbArc
 50
180.0
 51
270.0
  0
LINE
  5
6D62
330
1E
100
AcDbEntity
  8
躯体と製品
  6
Continuous
 62
     3
100
AcDbLine
 10
2001.485936548242
 20
732.6590546130305
 30
0.0
 11
1997.585936548242
 21
732.6590546130305
 31
0.0
  0
ARC
  5
6D63
330
1E
100
AcDbEntity
  8
躯体と製品
  6
Continuous
 62
     3
100
AcDbCircle
 10
1997.585936548242
 20
735.1590546130305
 30
0.0
 40
2.5
100
AcDbArc
 50
180.0
 51
270.0
  0
LINE
  5
6D64
330
1E
100
AcDbEntity
  8
躯体と製品
  6
Continuous
 62
     3
100
AcDbLine
 10
1996.585936548243
 20
789.9090546130305
 30
0.0
 11
1996.585936548243
 21
745.6590546130305
 31
0.0
  0
LINE
  5
6D65
330
1E
100
AcDbEntity
  8
躯体と製品
  6
Continuous
 62
     3
100
AcDbLine
 10
1991.385936548242
 20
781.6590546130306
 30
0.0
 11
1994.785936548242
 21
781.6590546130306
 31
0.0
  0
LINE
  5
6D66
330
1E
100
AcDbEntity
  8
躯体と製品
  6
Continuous
 62
     3
100
AcDbLine
 10
1991.385936548242
 20
773.6590546130305
 30
0.0
 11
1994.785936548242
 21
773.6590546130305
 31
0.0
  0
ARC
  5
6D67
330
1E
100
AcDbEntity
  8
躯体と製品
  6
Continuous
 62
     3
100
AcDbCircle
 10
1994.785936548242
 20
773.9590546130305
 30
0.0
 40
0.2999999999999998
100
AcDbArc
 50
270.0
 51
0.0
  0
LINE
  5
6D68
330
1E
100
AcDbEntity
  8
躯体と製品
  6
Continuous
 62
     3
100
AcDbLine
 10
1995.085936548242
 20
781.3590546130305
 30
0.0
 11
1995.085936548242
 21
773.9590546130305
 31
0.0
  0
ARC
  5
6D69
330
1E
100
AcDbEntity
  8
躯体と製品
  6
Continuous
 62
     3
100
AcDbCircle
 10
1994.785936548242
 20
781.3590546130305
 30
0.0
 40
0.2999999999999998
100
AcDbArc
 50
0.0
 51
90.0
  0
LINE
  5
6D6A
330
1E
100
AcDbEntity
  8
躯体と製品
  6
Continuous
 62
     3
100
AcDbLine
 10
1994.585936548243
 20
772.4590546130305
 30
0.0
 11
1990.885936548243
 21
772.4590546130305
 31
0.0
  0
ARC
  5
6D6B
330
1E
100
AcDbEntity
  8
躯体と製品
  6
Continuous
 62
     3
100
AcDbCircle
 10
1990.885936548243
 20
773.4590546130305
 30
0.0
 40
1.0
100
AcDbArc
 50
180.0
 51
270.0
  0
ARC
  5
6D6C
330
1E
100
AcDbEntity
  8
躯体と製品
  6
Continuous
 62
     3
100
AcDbCircle
 10
1994.585936548243
 20
771.9590546130305
 30
0.0
 40
0.5
100
AcDbArc
 50
0.0
 51
90.0
  0
LINE
  5
6D6D
330
1E
100
AcDbEntity
  8
躯体と製品
  6
Continuous
 62
     3
100
AcDbLine
 10
1994.585936548243
 20
782.8590546130306
 30
0.0
 11
1990.885936548243
 21
782.8590546130306
 31
0.0
  0
ARC
  5
6D6E
330
1E
100
AcDbEntity
  8
躯体と製品
  6
Continuous
 62
     3
100
AcDbCircle
 10
1990.885936548243
 20
781.8590546130305
 30
0.0
 40
1.0
100
AcDbArc
 50
90.0
 51
180.0
  0
ARC
  5
6D6F
330
1E
100
AcDbEntity
  8
躯体と製品
  6
Continuous
 62
     3
100
AcDbCircle
 10
1994.585936548243
 20
783.3590546130306
 30
0.0
 40
0.5
100
AcDbArc
 50
270.0
 51
0.0
  0
LINE
  5
6D70
330
1E
100
AcDbEntity
  8
躯体と製品
  6
Continuous
 62
     3
100
AcDbLine
 10
1995.085936548242
 20
783.3590546130306
 30
0.0
 11
1995.085936548242
 21
789.9090546130305
 31
0.0
  0
ARC
  5
6D71
330
1E
100
AcDbEntity
  8
躯体と製品
  6
Continuous
 62
     3
100
AcDbCircle
 10
1995.835936548242
 20
789.9090546130305
 30
0.0
 40
0.75
100
AcDbArc
 50
0.0
 51
180.0
  0
LINE
  5
6D72
330
1E
100
AcDbEntity
  8
躯体と製品
  6
Continuous
 62
     3
100
AcDbLine
 10
1995.085936548242
 20
771.9590546130305
 30
0.0
 11
1995.085936548242
 21
735.1590546130305
 31
0.0
  0
ARC
  5
6D73
330
1E
100
AcDbEntity
  8
躯体と製品
  6
Continuous
 62
     3
100
AcDbCircle
 10
2001.485936548242
 20
733.2590546130306
 30
0.0
 40
0.5999999999999997
100
AcDbArc
 50
270.0
 51
90.0
  0
LINE
  5
6D74
330
1E
100
AcDbEntity
  8
躯体と製品
  6
Continuous
 62
     3
100
AcDbLine
 10
2001.485936548242
 20
733.8590546130306
 30
0.0
 11
1997.585936548242
 21
733.8590546130306
 31
0.0
  0
ARC
  5
6D75
330
1E
100
AcDbEntity
  8
躯体と製品
  6
Continuous
 62
     3
100
AcDbCircle
 10
1997.585936548242
 20
734.8590546130306
 30
0.0
 40
1.0
100
AcDbArc
 50
180.0
 51
270.0
  0
ARC
  5
6D76
330
1E
100
AcDbEntity
  8
躯体と製品
  6
Continuous
 62
     3
100
AcDbCircle
 10
1416.522957269357
 20
732.6590546130305
 30
0.0
 40
1.5
100
AcDbArc
 50
180.0
 51
270.0
  0
ARC
  5
6D77
330
1E
100
AcDbEntity
  8
躯体と製品
  6
Continuous
 62
     3
100
AcDbCircle
 10
1416.522957269357
 20
816.8121609128856
 30
0.0
 40
1.5
100
AcDbArc
 50
93.00000000000558
 51
180.0
  0
LINE
  5
6D78
330
1E
100
AcDbEntity
  8
躯体と製品
  6
Continuous
 62
     3
100
AcDbLine
 10
1415.022957269357
 20
732.6590546130305
 30
0.0
 11
1415.022957269357
 21
816.8121609128856
 31
0.0
  0
ARC
  5
6D79
330
1E
100
AcDbEntity
  8
躯体と製品
  6
Continuous
 62
     3
100
AcDbCircle
 10
2010.522957269357
 20
816.8121609128856
 30
0.0
 40
1.5
100
AcDbArc
 50
0.0
 51
86.99999999999441
  0
LINE
  5
6D7A
330
1E
100
AcDbEntity
  8
躯体と製品
  6
Continuous
 62
     3
100
AcDbLine
 10
2010.601461203721
 20
818.3101052150176
 30
0.0
 11
1713.549125247478
 21
833.8779584733241
 31
0.0
  0
ARC
  5
6D7B
330
1E
100
AcDbEntity
  8
躯体と製品
  6
Continuous
 62
     3
100
AcDbCircle
 10
2010.522957269357
 20
732.6590546130305
 30
0.0
 40
1.5
100
AcDbArc
 50
270.0
 51
0.0
  0
LINE
  5
6D7C
330
1E
100
AcDbEntity
  8
躯体と製品
  6
Continuous
 62
     3
100
AcDbLine
 10
2012.022957269357
 20
732.6590546130305
 30
0.0
 11
2012.022957269357
 21
816.8121609128856
 31
0.0
  0
LINE
  5
6D7D
330
1E
100
AcDbEntity
  8
躯体と製品
  6
Continuous
 62
     3
100
AcDbLine
 10
2010.522957269357
 20
729.6590546130305
 30
0.0
 11
2003.522957269357
 21
729.6590546130305
 31
0.0
  0
ARC
  5
6D7E
330
1E
100
AcDbEntity
  8
躯体と製品
  6
Continuous
 62
     3
100
AcDbCircle
 10
2010.522957269357
 20
816.8121609128856
 30
0.0
 40
3.0
100
AcDbArc
 50
0.0
 51
86.99999999999441
  0
ARC
  5
6D7F
330
1E
100
AcDbEntity
  8
躯体と製品
  6
Continuous
 62
     3
100
AcDbCircle
 10
2010.522957269357
 20
732.6590546130305
 30
0.0
 40
3.0
100
AcDbArc
 50
270.0
 51
0.0
  0
POINT
  5
6D80
330
1E
100
AcDbEntity
  8
躯体と製品
 62
     4
100
AcDbPoint
 10
2013.522957269358
 20
819.6590546130305
 30
0.0
  0
LINE
  5
6D81
330
1E
100
AcDbEntity
  8
躯体と製品
  6
Continuous
 62
     3
100
AcDbLine
 10
2010.679965138086
 20
819.8080495171494
 30
0.0
 11
1713.522957269357
 21
835.3813883979425
 31
0.0
  0
ARC
  5
6D82
330
1E
100
AcDbEntity
  8
躯体と製品
  6
Continuous
 62
     3
100
AcDbCircle
 10
1416.522957269357
 20
816.8121609128856
 30
0.0
 40
3.0
100
AcDbArc
 50
93.00000000000558
 51
180.0
  0
ARC
  5
6D83
330
1E
100
AcDbEntity
  8
躯体と製品
  6
Continuous
 62
     3
100
AcDbCircle
 10
1416.522957269357
 20
732.6590546130305
 30
0.0
 40
3.0
100
AcDbArc
 50
180.0
 51
270.0
  0
POINT
  5
6D84
330
1E
100
AcDbEntity
  8
躯体と製品
 62
     4
100
AcDbPoint
 10
1413.522957269357
 20
819.6590546130305
 30
0.0
  0
LINE
  5
6D85
330
1E
100
AcDbEntity
  8
躯体と製品
  6
Continuous
 62
     3
100
AcDbLine
 10
1413.522957269357
 20
816.8121609128856
 30
0.0
 11
1413.522957269357
 21
732.6590546130305
 31
0.0
  0
LINE
  5
6D86
330
1E
100
AcDbEntity
  8
躯体と製品
  6
Continuous
 62
     3
100
AcDbLine
 10
1416.365949400628
 20
819.8080495171494
 30
0.0
 11
1713.522957269357
 21
835.3813883979425
 31
0.0
  0
LINE
  5
6D87
330
1E
100
AcDbEntity
  8
躯体と製品
  6
Continuous
 62
     3
100
AcDbLine
 10
1416.444453334992
 20
818.3101052150176
 30
0.0
 11
1713.496789291235
 21
833.8779584733241
 31
0.0
  0
LINE
  5
6D88
330
1E
100
AcDbEntity
  8
躯体と製品
  6
Continuous
 62
     3
100
AcDbLine
 10
1423.522957269357
 20
729.6590546130305
 30
0.0
 11
1423.522957269357
 21
731.1590546130305
 31
0.0
  0
LINE
  5
6D89
330
1E
100
AcDbEntity
  8
躯体と製品
  6
Continuous
 62
     3
100
AcDbLine
 10
1416.522957269357
 20
731.1590546130305
 30
0.0
 11
1423.522957269357
 21
731.1590546130305
 31
0.0
  0
LINE
  5
6D8A
330
1E
100
AcDbEntity
  8
躯体と製品
  6
Continuous
 62
     3
100
AcDbLine
 10
2003.522957269357
 20
729.6590546130305
 30
0.0
 11
2003.522957269357
 21
731.1590546130305
 31
0.0
  0
LINE
  5
6D8B
330
1E
100
AcDbEntity
  8
躯体と製品
  6
Continuous
 62
     3
100
AcDbLine
 10
2010.522957269357
 20
731.1590546130305
 30
0.0
 11
2003.522957269357
 21
731.1590546130305
 31
0.0
  0
ARC
  5
6D8C
330
1E
100
AcDbEntity
  8
躯体と製品
  6
DASHED1
 62
     7
100
AcDbCircle
 10
1989.686136903628
 20
811.8959383195859
 30
0.0
 40
3.0
100
AcDbArc
 50
10.12467165539644
 51
86.99999999999441
  0
ARC
  5
6D8D
330
1E
100
AcDbEntity
  8
躯体と製品
  6
DASHED1
 62
     7
100
AcDbCircle
 10
1989.686136903628
 20
811.8959383195859
 30
0.0
 40
7.5
100
AcDbArc
 50
10.12467165539644
 51
86.99999999999441
  0
LINE
  5
6D8E
330
1E
100
AcDbEntity
  8
躯体と製品
  6
DASHED1
 62
     7
100
AcDbLine
 10
1992.639419630153
 20
812.4233102350366
 30
0.0
 11
2006.593033179569
 21
734.2830743583102
 31
0.0
  0
LINE
  5
6D8F
330
1E
100
AcDbEntity
  8
躯体と製品
  6
DASHED1
 62
     7
100
AcDbLine
 10
2011.022957269357
 20
735.0741322314868
 30
0.0
 11
2006.593033179632
 21
734.2830743579542
 31
0.0
  0
LINE
  5
6D90
330
1E
100
AcDbEntity
  8
躯体と製品
  6
DASHED1
 62
     7
100
AcDbLine
 10
1989.843144772357
 20
814.8918269238492
 30
0.0
 11
1984.524265579737
 21
815.1705775706091
 31
0.0
  0
LINE
  5
6D91
330
1E
100
AcDbEntity
  8
躯体と製品
  6
DASHED1
 62
     7
100
AcDbLine
 10
1990.07865657545
 20
819.3856598302453
 30
0.0
 11
1984.759777382831
 21
819.6644104770051
 31
0.0
  0
LINE
  5
6D92
330
1E
100
AcDbEntity
  8
躯体と製品
  6
Continuous
 62
     7
100
AcDbLine
 10
1969.638895406576
 20
817.7506337885397
 30
0.0
 11
1969.780334361512
 21
820.4494498206491
 31
0.0
  0
LINE
  5
6D93
330
1E
100
AcDbEntity
  8
躯体と製品
  6
Continuous
 62
     7
100
AcDbLine
 10
1984.618338427894
 20
816.9655944448955
 30
0.0
 11
1984.759777382831
 21
819.6644104770051
 31
0.0
  0
LINE
  5
6D94
330
1E
100
AcDbEntity
  8
躯体と製品
  6
Continuous
 62
     4
100
AcDbLine
 10
1973.163720870563
 20
817.5659055136119
 30
0.0
 11
1970.307820965018
 21
820.421805419158
 31
0.0
  0
LINE
  5
6D95
330
1E
100
AcDbEntity
  8
躯体と製品
  6
Continuous
 62
     4
100
AcDbLine
 10
1974.656149292257
 20
817.4876906542916
 30
0.0
 11
1971.800249386711
 21
820.3435905598379
 31
0.0
  0
LINE
  5
6D96
330
1E
100
AcDbEntity
  8
躯体と製品
  6
Continuous
 62
     4
100
AcDbLine
 10
1976.148577713949
 20
817.4094757949722
 30
0.0
 11
1973.292677808403
 21
820.2653757005181
 31
0.0
  0
LINE
  5
6D97
330
1E
100
AcDbEntity
  8
躯体と製品
  6
Continuous
 62
     4
100
AcDbLine
 10
1977.641006135643
 20
817.3312609356523
 30
0.0
 11
1974.785106230097
 21
820.1871608411984
 31
0.0
  0
LINE
  5
6D98
330
1E
100
AcDbEntity
  8
躯体と製品
  6
Continuous
 62
     4
100
AcDbLine
 10
1979.133434557335
 20
817.2530460763326
 30
0.0
 11
1976.27753465179
 21
820.1089459818785
 31
0.0
  0
LINE
  5
6D99
330
1E
100
AcDbEntity
  8
躯体と製品
  6
Continuous
 62
     4
100
AcDbLine
 10
1980.625862979029
 20
817.1748312170125
 30
0.0
 11
1977.769963073483
 21
820.0307311225586
 31
0.0
  0
LINE
  5
6D9A
330
1E
100
AcDbEntity
  8
躯体と製品
  6
Continuous
 62
     4
100
AcDbLine
 10
1982.118291400722
 20
817.0966163576931
 30
0.0
 11
1979.262391495176
 21
819.9525162632387
 31
0.0
  0
LINE
  5
6D9B
330
1E
100
AcDbEntity
  8
躯体と製品
  6
Continuous
 62
     4
100
AcDbLine
 10
1983.610719822413
 20
817.0184014983734
 30
0.0
 11
1980.754819916867
 21
819.8743014039191
 31
0.0
  0
LINE
  5
6D9C
330
1E
100
AcDbEntity
  8
躯体と製品
  6
Continuous
 62
     4
100
AcDbLine
 10
1984.641215719032
 20
817.4021191641282
 30
0.0
 11
1982.247248338561
 21
819.7960865445994
 31
0.0
  0
LINE
  5
6D9D
330
1E
100
AcDbEntity
  8
躯体と製品
  6
Continuous
 62
     4
100
AcDbLine
 10
1971.67129244887
 20
817.6441203729321
 30
0.0
 11
1969.734800516761
 21
819.5806123050406
 31
0.0
  0
LINE
  5
6D9E
330
1E
100
AcDbEntity
  8
躯体と製品
  6
Continuous
 62
     4
100
AcDbLine
 10
1984.711640694687
 20
818.7459077508458
 30
0.0
 11
1983.739676760254
 21
819.7178716852794
 31
0.0
  0
LINE
  5
6D9F
330
1E
100
AcDbEntity
  8
躯体と製品
  6
Continuous
 62
     7
100
AcDbLine
 10
1988.398129503547
 20
775.7420816728004
 30
0.0
 11
1986.357898942207
 21
752.4221396469856
 31
0.0
  0
LINE
  5
6DA0
330
1E
100
AcDbEntity
  8
躯体と製品
  6
Continuous
 62
     7
100
AcDbLine
 10
1989.394324201639
 20
775.654925930053
 30
0.0
 11
1987.354093640299
 21
752.3349839042378
 31
0.0
  0
LINE
  5
6DA1
330
1E
100
AcDbEntity
  8
躯体と製品
  6
DASHED1
 62
     7
100
AcDbLine
 10
1429.976570818772
 20
813.214368108213
 30
0.0
 11
1416.022957269357
 21
735.0741322314868
 31
0.0
  0
LINE
  5
6DA2
330
1E
100
AcDbEntity
  8
躯体と製品
  6
DASHED1
 62
     7
100
AcDbLine
 10
1448.702954712544
 20
792.7608506246229
 30
0.0
 11
1448.755290668787
 21
791.7622210898684
 31
0.0
  0
LINE
  5
6DA3
330
1E
100
AcDbEntity
  8
躯体と製品
  6
DASHED1
 62
     7
100
AcDbLine
 10
1468.675545407636
 20
793.8075697494818
 30
0.0
 11
1448.702954712544
 21
792.7608506246229
 31
0.0
  0
LINE
  5
6DA4
330
1E
100
AcDbEntity
  8
躯体と製品
  6
DASHED1
 62
     7
100
AcDbLine
 10
1468.675545407636
 20
793.8075697494818
 30
0.0
 11
1468.727881363879
 21
792.8089402147273
 31
0.0
  0
LINE
  5
6DA5
330
1E
100
AcDbEntity
  8
躯体と製品
  6
DASHED1
 62
     7
100
AcDbLine
 10
1472.22308473552
 20
792.9921160615775
 30
0.0
 11
1468.727881363879
 21
792.8089402147273
 31
0.0
  0
ARC
  5
6DA6
330
1E
100
AcDbEntity
  8
躯体と製品
  6
DASHED1
 62
     7
100
AcDbCircle
 10
1472.144580801155
 20
794.4900603637097
 30
0.0
 40
1.5
100
AcDbArc
 50
273.0000000000056
 51
93.00000000000558
  0
LINE
  5
6DA7
330
1E
100
AcDbEntity
  8
躯体と製品
  6
Continuous
 62
     3
100
AcDbLine
 10
1433.628788464929
 20
790.3818452865209
 30
0.0
 11
1434.211981007848
 21
787.8557608568026
 31
0.0
  0
LINE
  5
6DA8
330
1E
100
AcDbEntity
  8
躯体と製品
  6
Continuous
 62
     3
100
AcDbLine
 10
1441.764883925505
 20
791.3958693961679
 30
0.0
 11
1434.0898055192
 21
790.9936355810702
 31
0.0
  0
LINE
  5
6DA9
330
1E
100
AcDbEntity
  8
躯体と製品
  6
Continuous
 62
     3
100
AcDbLine
 10
1430.849172010981
 20
790.8238011754343
 30
0.0
 11
1432.026518443048
 21
790.885503287386
 31
0.0
  0
LINE
  5
6DAA
330
1E
100
AcDbEntity
  8
躯体と製品
  6
Continuous
 62
     3
100
AcDbLine
 10
1432.334530249357
 20
790.6533997432624
 30
0.0
 11
1433.042736930106
 21
787.5858195915899
 31
0.0
  0
ARC
  5
6DAB
330
1E
100
AcDbEntity
  8
躯体と製品
  6
Continuous
 62
     3
100
AcDbCircle
 10
1441.791051903627
 20
790.8965546287908
 30
0.0
 40
0.5
100
AcDbArc
 50
2.999999999998919
 51
93.00000000000558
  0
LINE
  5
6DAC
330
1E
100
AcDbEntity
  8
躯体と製品
  6
Continuous
 62
     3
100
AcDbLine
 10
1442.290366671004
 20
790.9227226069121
 30
0.0
 11
1442.342702627247
 21
789.9240930721575
 31
0.0
  0
ARC
  5
6DAD
330
1E
100
AcDbEntity
  8
躯体と製品
  6
Continuous
 62
     3
100
AcDbCircle
 10
1441.581708078655
 20
794.8910727678089
 30
0.0
 40
0.5
100
AcDbArc
 50
273.0000000000056
 51
2.999999999998919
  0
LINE
  5
6DAE
330
1E
100
AcDbEntity
  8
躯体と製品
  6
Continuous
 62
     3
100
AcDbLine
 10
1441.607876056776
 20
794.3917580004316
 30
0.0
 11
1429.925888749242
 21
793.7795309880309
 31
0.0
  0
LINE
  5
6DAF
330
1E
100
AcDbEntity
  8
躯体と製品
  6
Continuous
 62
     3
100
AcDbLine
 10
1442.081022846032
 20
794.9172407459302
 30
0.0
 11
1441.976350933547
 21
796.9144998154393
 31
0.0
  0
LINE
  5
6DB0
330
1E
100
AcDbEntity
  8
躯体と製品
  6
Continuous
 62
     3
100
AcDbLine
 10
1420.577426568739
 20
743.1590546130305
 30
0.0
 11
1424.959977990471
 21
743.1590546130305
 31
0.0
  0
LINE
  5
6DB1
330
1E
100
AcDbEntity
  8
躯体と製品
  6
Continuous
 62
     3
100
AcDbLine
 10
1429.923360366491
 20
790.0330833314974
 30
0.0
 11
1420.088352768372
 21
743.7630104584393
 31
0.0
  0
LINE
  5
6DB2
330
1E
100
AcDbEntity
  8
躯体と製品
  6
Continuous
 62
     3
100
AcDbLine
 10
1427.14845381577
 20
791.4073774562207
 30
0.0
 11
1415.192503712516
 21
735.1590546130305
 31
0.0
  0
ARC
  5
6DB3
330
1E
100
AcDbEntity
  8
躯体と製品
  6
Continuous
 62
     3
100
AcDbCircle
 10
1442.475665700923
 20
796.940667793561
 30
0.0
 40
0.5
100
AcDbArc
 50
93.00000000000558
 51
182.9999999999989
  0
LINE
  5
6DB4
330
1E
100
AcDbEntity
  8
躯体と製品
  6
Continuous
 62
     3
100
AcDbLine
 10
1442.449497722802
 20
797.4399825609384
 30
0.0
 11
1442.948812490179
 21
797.4661505390596
 31
0.0
  0
ARC
  5
6DB5
330
1E
100
AcDbEntity
  8
躯体と製品
  6
Continuous
 62
     3
100
AcDbCircle
 10
1442.974980468301
 20
796.9668357716824
 30
0.0
 40
0.5
100
AcDbArc
 50
2.999999999998919
 51
93.00000000000558
  0
LINE
  5
6DB6
330
1E
100
AcDbEntity
  8
躯体と製品
  6
Continuous
 62
     3
100
AcDbLine
 10
1442.427576110819
 20
816.9655944448955
 30
0.0
 11
1443.892982885622
 21
789.0039674717674
 31
0.0
  0
ARC
  5
6DB7
330
1E
100
AcDbEntity
  8
躯体と製品
  6
Continuous
 62
     3
100
AcDbCircle
 10
1430.082896617971
 20
790.7836423837675
 30
0.0
 40
3.0
100
AcDbArc
 50
93.00000000000558
 51
168.0000000000002
  0
ARC
  5
6DB8
330
1E
100
AcDbEntity
  8
躯体と製品
  6
Continuous
 62
     3
100
AcDbCircle
 10
1430.901507967224
 20
789.8251716406796
 30
0.0
 40
1.0
100
AcDbArc
 50
93.00000000000558
 51
168.0000000000002
  0
ARC
  5
6DB9
330
1E
100
AcDbEntity
  8
躯体と製品
  6
Continuous
 62
     3
100
AcDbCircle
 10
1442.842017394624
 20
789.9502610502791
 30
0.0
 40
0.5
100
AcDbArc
 50
182.9999999999989
 51
273.0000000000056
  0
LINE
  5
6DBA
330
1E
100
AcDbEntity
  8
躯体と製品
  6
Continuous
 62
     3
100
AcDbLine
 10
1442.868185372746
 20
789.4509462829018
 30
0.0
 11
1443.367500140123
 21
789.477114261023
 31
0.0
  0
ARC
  5
6DBB
330
1E
100
AcDbEntity
  8
躯体と製品
  6
Continuous
 62
     3
100
AcDbCircle
 10
1443.341332162002
 20
789.9764290284003
 30
0.0
 40
0.5
100
AcDbArc
 50
273.0000000000056
 51
2.999999999998919
  0
ARC
  5
6DBC
330
1E
100
AcDbEntity
  8
躯体と製品
  6
Continuous
 62
     3
100
AcDbCircle
 10
1420.109802133065
 20
741.4590546130304
 30
0.0
 40
0.5
100
AcDbArc
 50
90.0
 51
168.0000000000002
  0
LINE
  5
6DBD
330
1E
100
AcDbEntity
  8
躯体と製品
  6
Continuous
 62
     3
100
AcDbLine
 10
1419.620728332698
 20
741.5630104584392
 30
0.0
 11
1418.192503712516
 21
734.8437419072333
 31
0.0
  0
LINE
  5
6DBE
330
1E
100
AcDbEntity
  8
躯体と製品
  6
Continuous
 62
     3
100
AcDbLine
 10
1420.109802133065
 20
741.9590546130304
 30
0.0
 11
1429.359977990471
 21
741.9590546130304
 31
0.0
  0
ARC
  5
6DBF
330
1E
100
AcDbEntity
  8
躯体と製品
  6
Continuous
 62
     3
100
AcDbCircle
 10
1420.577426568739
 20
743.6590546130305
 30
0.0
 40
0.5
100
AcDbArc
 50
168.0000000000002
 51
270.0
  0
LINE
  5
6DC0
330
1E
100
AcDbEntity
  8
躯体と製品
  6
Continuous
 62
     3
100
AcDbLine
 10
1429.359977990471
 20
743.1590546130305
 30
0.0
 11
1426.959977990471
 21
743.1590546130305
 31
0.0
  0
LINE
  5
6DC1
330
1E
100
AcDbEntity
  8
躯体と製品
  6
Continuous
 62
     3
100
AcDbLine
 10
1424.959977990471
 20
744.1590546130306
 30
0.0
 11
1426.959977990471
 21
743.1590546130305
 31
0.0
  0
LINE
  5
6DC2
330
1E
100
AcDbEntity
  8
躯体と製品
  6
Continuous
 62
     3
100
AcDbLine
 10
1424.959977990471
 20
743.1590546130305
 30
0.0
 11
1424.959977990471
 21
744.1590546130306
 31
0.0
  0
ARC
  5
6DC3
330
1E
100
AcDbEntity
  8
躯体と製品
  6
Continuous
 62
     3
100
AcDbCircle
 10
1417.692503712516
 20
733.6590546130305
 30
0.0
 40
2.5
100
AcDbArc
 50
180.0
 51
270.0
  0
LINE
  5
6DC4
330
1E
100
AcDbEntity
  8
躯体と製品
  6
Continuous
 62
     3
100
AcDbLine
 10
1417.692503712516
 20
731.1590546130305
 30
0.0
 11
1418.192503712516
 21
731.1590546130305
 31
0.0
  0
LINE
  5
6DC5
330
1E
100
AcDbEntity
  8
躯体と製品
  6
Continuous
 62
     3
100
AcDbLine
 10
1415.192503712516
 20
733.6590546130305
 30
0.0
 11
1415.192503712516
 21
735.1590546130305
 31
0.0
  0
LINE
  5
6DC6
330
1E
100
AcDbEntity
  8
躯体と製品
  6
Continuous
 62
     3
100
AcDbLine
 10
1418.192503712516
 20
734.8437419072333
 30
0.0
 11
1418.192503712516
 21
731.1590546130305
 31
0.0
  0
ARC
  5
6DC7
330
1E
100
AcDbEntity
  8
躯体と製品
  6
Continuous
 62
     3
100
AcDbCircle
 10
1429.359977990471
 20
742.5590546130306
 30
0.0
 40
0.6000000000000015
100
AcDbArc
 50
270.0
 51
90.0
  0
ARC
  5
6DC8
330
1E
100
AcDbEntity
  8
躯体と製品
  6
Continuous
 62
     3
100
AcDbCircle
 10
1432.042219229921
 20
790.5859144269591
 30
0.0
 40
0.2999999999999998
100
AcDbArc
 50
13.00000000000027
 51
93.00000000000558
  0
ARC
  5
6DC9
330
1E
100
AcDbEntity
  8
躯体と製品
  6
Continuous
 62
     3
100
AcDbCircle
 10
1434.115973497322
 20
790.4943208136927
 30
0.0
 40
0.5
100
AcDbArc
 50
93.00000000000558
 51
193.0000000000002
  0
ARC
  5
6DCA
330
1E
100
AcDbEntity
  8
躯体と製品
  6
Continuous
 62
     3
100
AcDbCircle
 10
1433.627358968977
 20
787.7207902241964
 30
0.0
 40
0.5999999999999984
100
AcDbArc
 50
193.0000000000002
 51
13.00000000000027
  0
LINE
  5
6DCB
330
1E
100
AcDbEntity
  8
躯体と製品
  6
DASHED1
 62
     7
100
AcDbLine
 10
1448.755290668787
 20
791.7622210898684
 30
0.0
 11
1443.762142995014
 21
791.5005413086537
 31
0.0
  0
LINE
  5
6DCC
330
1E
100
AcDbEntity
  8
躯体と製品
  6
DASHED1
 62
     7
100
AcDbLine
 10
1472.066076866791
 20
795.9880046658413
 30
0.0
 11
1443.605135126285
 21
794.4964299129176
 31
0.0
  0
LINE
  5
6DCD
330
1E
100
AcDbEntity
  8
躯体と製品
  6
DASHED1
 62
     4
100
AcDbLine
 10
1478.531000864574
 20
796.8275031487978
 30
0.0
 11
1478.436796143337
 21
798.6250363113561
 31
0.0
  0
ARC
  5
6DCE
330
1E
100
AcDbEntity
  8
躯体と製品
  6
Continuous
 62
     7
100
AcDbCircle
 10
1436.555776169174
 20
775.5590546130304
 30
0.0
 40
2.1
100
AcDbArc
 50
4.999999999999459
 51
90.0
  0
LINE
  5
6DCF
330
1E
100
AcDbEntity
  8
躯体と製品
  6
Continuous
 62
     7
100
AcDbLine
 10
1436.555776169174
 20
777.6590546130305
 30
0.0
 11
1435.959977990471
 21
777.6590546130305
 31
0.0
  0
ARC
  5
6DD0
330
1E
100
AcDbEntity
  8
躯体と製品
  6
Continuous
 62
     7
100
AcDbCircle
 10
1436.555776169174
 20
775.5590546130304
 30
0.0
 40
1.1
100
AcDbArc
 50
4.999999999999459
 51
90.0
  0
LINE
  5
6DD1
330
1E
100
AcDbEntity
  8
躯体と製品
  6
Continuous
 62
     7
100
AcDbLine
 10
1436.555776169174
 20
776.6590546130305
 30
0.0
 11
1435.959977990471
 21
776.6590546130305
 31
0.0
  0
LINE
  5
6DD2
330
1E
100
AcDbEntity
  8
躯体と製品
  6
Continuous
 62
     7
100
AcDbLine
 10
1435.959977990471
 20
780.1590546130305
 30
0.0
 11
1435.959977990471
 21
777.6590546130305
 31
0.0
  0
LINE
  5
6DD3
330
1E
100
AcDbEntity
  8
躯体と製品
  6
Continuous
 62
     7
100
AcDbLine
 10
1434.459977990471
 20
776.1590546130305
 30
0.0
 11
1432.808892990471
 21
776.6824276130305
 31
0.0
  0
LINE
  5
6DD4
330
1E
100
AcDbEntity
  8
躯体と製品
  6
Continuous
 62
     7
100
AcDbLine
 10
1434.459977990471
 20
776.1590546130305
 30
0.0
 11
1434.459977990471
 21
774.1590546130305
 31
0.0
  0
LINE
  5
6DD5
330
1E
100
AcDbEntity
  8
躯体と製品
  6
Continuous
 62
     7
100
AcDbLine
 10
1434.459977990471
 20
778.1590546130305
 30
0.0
 11
1434.459977990471
 21
780.1590546130305
 31
0.0
  0
ARC
  5
6DD6
330
1E
100
AcDbEntity
  8
躯体と製品
  6
Continuous
 62
     7
100
AcDbCircle
 10
1434.959977990471
 20
780.1590546130305
 30
0.0
 40
0.5
100
AcDbArc
 50
90.0
 51
180.0
  0
LINE
  5
6DD7
330
1E
100
AcDbEntity
  8
躯体と製品
  6
Continuous
 62
     7
100
AcDbLine
 10
1435.459977990471
 20
780.6590546130305
 30
0.0
 11
1434.959977990471
 21
780.6590546130305
 31
0.0
  0
LINE
  5
6DD8
330
1E
100
AcDbEntity
  8
躯体と製品
  6
Continuous
 62
     7
100
AcDbLine
 10
1435.459977990471
 20
773.6590546130305
 30
0.0
 11
1434.959977990471
 21
773.6590546130305
 31
0.0
  0
ARC
  5
6DD9
330
1E
100
AcDbEntity
  8
躯体と製品
  6
Continuous
 62
     7
100
AcDbCircle
 10
1434.959977990471
 20
774.1590546130305
 30
0.0
 40
0.5
100
AcDbArc
 50
180.0
 51
270.0
  0
ARC
  5
6DDA
330
1E
100
AcDbEntity
  8
躯体と製品
  6
Continuous
 62
     7
100
AcDbCircle
 10
1435.459977990471
 20
774.1590546130305
 30
0.0
 40
0.5
100
AcDbArc
 50
270.0
 51
0.0
  0
ARC
  5
6DDB
330
1E
100
AcDbEntity
  8
躯体と製品
  6
Continuous
 62
     7
100
AcDbCircle
 10
1435.459977990471
 20
780.1590546130305
 30
0.0
 40
0.5
100
AcDbArc
 50
0.0
 51
90.0
  0
LINE
  5
6DDC
330
1E
100
AcDbEntity
  8
躯体と製品
  6
Continuous
 62
     7
100
AcDbLine
 10
1435.959977990471
 20
774.1590546130305
 30
0.0
 11
1435.959977990471
 21
776.6590546130305
 31
0.0
  0
ARC
  5
6DDD
330
1E
100
AcDbEntity
  8
躯体と製品
  6
Continuous
 62
     7
100
AcDbCircle
 10
1432.959977990471
 20
777.1590546130306
 30
0.0
 40
0.5
100
AcDbArc
 50
107.587954000005
 51
252.412045999995
  0
LINE
  5
6DDE
330
1E
100
AcDbEntity
  8
躯体と製品
  6
Continuous
 62
     7
100
AcDbLine
 10
1434.459977990471
 20
778.1590546130305
 30
0.0
 11
1432.808892990471
 21
777.6356816130305
 31
0.0
  0
ARC
  5
6DDF
330
1E
100
AcDbEntity
  8
躯体と製品
  6
Continuous
 62
     3
100
AcDbCircle
 10
1436.559977990471
 20
775.5590546130304
 30
0.0
 40
0.5999999999999997
100
AcDbArc
 50
0.0
 51
180.0
  0
ARC
  5
6DE0
330
1E
100
AcDbEntity
  8
躯体と製品
  6
Continuous
 62
     3
100
AcDbCircle
 10
1436.559977990471
 20
779.7590546130305
 30
0.0
 40
0.5999999999999997
100
AcDbArc
 50
180.0
 51
0.0
  0
LINE
  5
6DE1
330
1E
100
AcDbEntity
  8
躯体と製品
  6
Continuous
 62
     3
100
AcDbLine
 10
1437.159977990471
 20
775.5590546130304
 30
0.0
 11
1437.159977990471
 21
773.4590546130305
 31
0.0
  0
LINE
  5
6DE2
330
1E
100
AcDbEntity
  8
躯体と製品
  6
Continuous
 62
     3
100
AcDbLine
 10
1435.959977990471
 20
775.5590546130304
 30
0.0
 11
1435.959977990471
 21
773.9590546130305
 31
0.0
  0
ARC
  5
6DE3
330
1E
100
AcDbEntity
  8
躯体と製品
  6
Continuous
 62
     3
100
AcDbCircle
 10
1435.659977990471
 20
773.9590546130305
 30
0.0
 40
0.2999999999999998
100
AcDbArc
 50
270.0
 51
0.0
  0
LINE
  5
6DE4
330
1E
100
AcDbEntity
  8
躯体と製品
  6
Continuous
 62
     3
100
AcDbLine
 10
1435.959977990471
 20
779.7590546130305
 30
0.0
 11
1435.959977990471
 21
781.3590546130305
 31
0.0
  0
ARC
  5
6DE5
330
1E
100
AcDbEntity
  8
躯体と製品
  6
Continuous
 62
     3
100
AcDbCircle
 10
1435.659977990471
 20
781.3590546130305
 30
0.0
 40
0.2999999999999998
100
AcDbArc
 50
0.0
 51
90.0
  0
LINE
  5
6DE6
330
1E
100
AcDbEntity
  8
躯体と製品
  6
Continuous
 62
     3
100
AcDbLine
 10
1437.159977990471
 20
779.7590546130305
 30
0.0
 11
1437.159977990471
 21
781.8590546130305
 31
0.0
  0
LINE
  5
6DE7
330
1E
100
AcDbEntity
  8
躯体と製品
  6
Continuous
 62
     3
100
AcDbLine
 10
1424.959977990471
 20
743.6590546130305
 30
0.0
 11
1423.338709990471
 21
744.0643716130304
 31
0.0
  0
ARC
  5
6DE8
330
1E
100
AcDbEntity
  8
躯体と製品
  6
Continuous
 62
     3
100
AcDbCircle
 10
1423.459977990471
 20
744.5494426130306
 30
0.0
 40
0.5
100
AcDbArc
 50
180.0
 51
255.9637569999957
  0
LINE
  5
6DE9
330
1E
100
AcDbEntity
  8
躯体と製品
  6
Continuous
 62
     3
100
AcDbLine
 10
1424.959977990471
 20
744.1590546130306
 30
0.0
 11
1424.959977990471
 21
743.6590546130305
 31
0.0
  0
LINE
  5
6DEA
330
1E
100
AcDbEntity
  8
躯体と製品
  6
Continuous
 62
     3
100
AcDbLine
 10
1422.959977990471
 20
744.8590546130305
 30
0.0
 11
1422.959977990471
 21
744.5494426130306
 31
0.0
  0
LINE
  5
6DEB
330
1E
100
AcDbEntity
  8
躯体と製品
  6
Continuous
 62
     3
100
AcDbLine
 10
1429.959977990471
 20
744.1590546130306
 30
0.0
 11
1424.959977990471
 21
744.1590546130306
 31
0.0
  0
ARC
  5
6DEC
330
1E
100
AcDbEntity
  8
躯体と製品
  6
Continuous
 62
     3
100
AcDbCircle
 10
1423.259977990471
 20
744.8590546130305
 30
0.0
 40
0.2999999999999998
100
AcDbArc
 50
90.0
 51
180.0
  0
ARC
  5
6DED
330
1E
100
AcDbEntity
  8
躯体と製品
  6
Continuous
 62
     3
100
AcDbCircle
 10
1429.959977990471
 20
743.6590546130305
 30
0.0
 40
0.5
100
AcDbArc
 50
0.0
 51
90.0
  0
LINE
  5
6DEE
330
1E
100
AcDbEntity
  8
躯体と製品
  6
Continuous
 62
     3
100
AcDbLine
 10
1430.459977990471
 20
743.6590546130305
 30
0.0
 11
1430.459977990471
 21
734.8590546130306
 31
0.0
  0
LINE
  5
6DEF
330
1E
100
AcDbEntity
  8
躯体と製品
  6
Continuous
 62
     3
100
AcDbLine
 10
1429.959977990471
 20
745.1590546130305
 30
0.0
 11
1423.259977990471
 21
745.1590546130305
 31
0.0
  0
ARC
  5
6DF0
330
1E
100
AcDbEntity
  8
躯体と製品
  6
Continuous
 62
     3
100
AcDbCircle
 10
1429.959977990471
 20
745.6590546130305
 30
0.0
 40
0.5
100
AcDbArc
 50
270.0
 51
0.0
  0
LINE
  5
6DF1
330
1E
100
AcDbEntity
  8
躯体と製品
  6
Continuous
 62
     3
100
AcDbLine
 10
1425.559977990471
 20
732.6590546130305
 30
0.0
 11
1429.459977990471
 21
732.6590546130305
 31
0.0
  0
ARC
  5
6DF2
330
1E
100
AcDbEntity
  8
躯体と製品
  6
Continuous
 62
     3
100
AcDbCircle
 10
1429.459977990471
 20
735.1590546130305
 30
0.0
 40
2.5
100
AcDbArc
 50
270.0
 51
0.0
  0
LINE
  5
6DF3
330
1E
100
AcDbEntity
  8
躯体と製品
  6
Continuous
 62
     3
100
AcDbLine
 10
1430.459977990471
 20
789.9090546130305
 30
0.0
 11
1430.459977990471
 21
745.6590546130305
 31
0.0
  0
LINE
  5
6DF4
330
1E
100
AcDbEntity
  8
躯体と製品
  6
Continuous
 62
     3
100
AcDbLine
 10
1435.659977990471
 20
781.6590546130306
 30
0.0
 11
1432.259977990471
 21
781.6590546130306
 31
0.0
  0
LINE
  5
6DF5
330
1E
100
AcDbEntity
  8
躯体と製品
  6
Continuous
 62
     3
100
AcDbLine
 10
1435.659977990471
 20
773.6590546130305
 30
0.0
 11
1432.259977990471
 21
773.6590546130305
 31
0.0
  0
ARC
  5
6DF6
330
1E
100
AcDbEntity
  8
躯体と製品
  6
Continuous
 62
     3
100
AcDbCircle
 10
1432.259977990471
 20
773.9590546130305
 30
0.0
 40
0.2999999999999998
100
AcDbArc
 50
180.0
 51
270.0
  0
LINE
  5
6DF7
330
1E
100
AcDbEntity
  8
躯体と製品
  6
Continuous
 62
     3
100
AcDbLine
 10
1431.959977990471
 20
781.3590546130305
 30
0.0
 11
1431.959977990471
 21
773.9590546130305
 31
0.0
  0
ARC
  5
6DF8
330
1E
100
AcDbEntity
  8
躯体と製品
  6
Continuous
 62
     3
100
AcDbCircle
 10
1432.259977990471
 20
781.3590546130305
 30
0.0
 40
0.2999999999999998
100
AcDbArc
 50
90.0
 51
180.0
  0
LINE
  5
6DF9
330
1E
100
AcDbEntity
  8
躯体と製品
  6
Continuous
 62
     3
100
AcDbLine
 10
1432.459977990471
 20
772.4590546130305
 30
0.0
 11
1436.159977990471
 21
772.4590546130305
 31
0.0
  0
ARC
  5
6DFA
330
1E
100
AcDbEntity
  8
躯体と製品
  6
Continuous
 62
     3
100
AcDbCircle
 10
1436.159977990471
 20
773.4590546130305
 30
0.0
 40
1.0
100
AcDbArc
 50
270.0
 51
0.0
  0
ARC
  5
6DFB
330
1E
100
AcDbEntity
  8
躯体と製品
  6
Continuous
 62
     3
100
AcDbCircle
 10
1432.459977990471
 20
771.9590546130305
 30
0.0
 40
0.5
100
AcDbArc
 50
90.0
 51
180.0
  0
LINE
  5
6DFC
330
1E
100
AcDbEntity
  8
躯体と製品
  6
Continuous
 62
     3
100
AcDbLine
 10
1432.459977990471
 20
782.8590546130306
 30
0.0
 11
1436.159977990471
 21
782.8590546130306
 31
0.0
  0
ARC
  5
6DFD
330
1E
100
AcDbEntity
  8
躯体と製品
  6
Continuous
 62
     3
100
AcDbCircle
 10
1436.159977990471
 20
781.8590546130305
 30
0.0
 40
1.0
100
AcDbArc
 50
0.0
 51
90.0
  0
ARC
  5
6DFE
330
1E
100
AcDbEntity
  8
躯体と製品
  6
Continuous
 62
     3
100
AcDbCircle
 10
1432.459977990471
 20
783.3590546130306
 30
0.0
 40
0.5
100
AcDbArc
 50
180.0
 51
270.0
  0
LINE
  5
6DFF
330
1E
100
AcDbEntity
  8
躯体と製品
  6
Continuous
 62
     3
100
AcDbLine
 10
1431.959977990471
 20
783.3590546130306
 30
0.0
 11
1431.959977990471
 21
789.9090546130305
 31
0.0
  0
ARC
  5
6E00
330
1E
100
AcDbEntity
  8
躯体と製品
  6
Continuous
 62
     3
100
AcDbCircle
 10
1431.209977990471
 20
789.9090546130305
 30
0.0
 40
0.7499999999999999
100
AcDbArc
 50
0.0
 51
180.0
  0
LINE
  5
6E01
330
1E
100
AcDbEntity
  8
躯体と製品
  6
Continuous
 62
     3
100
AcDbLine
 10
1431.959977990471
 20
771.9590546130305
 30
0.0
 11
1431.959977990471
 21
735.1590546130305
 31
0.0
  0
ARC
  5
6E02
330
1E
100
AcDbEntity
  8
躯体と製品
  6
Continuous
 62
     3
100
AcDbCircle
 10
1425.559977990471
 20
733.2590546130306
 30
0.0
 40
0.5999999999999997
100
AcDbArc
 50
90.0
 51
270.0
  0
LINE
  5
6E03
330
1E
100
AcDbEntity
  8
躯体と製品
  6
Continuous
 62
     3
100
AcDbLine
 10
1425.559977990471
 20
733.8590546130306
 30
0.0
 11
1429.459977990471
 21
733.8590546130306
 31
0.0
  0
ARC
  5
6E04
330
1E
100
AcDbEntity
  8
躯体と製品
  6
Continuous
 62
     3
100
AcDbCircle
 10
1429.459977990471
 20
734.8590546130306
 30
0.0
 40
1.0
100
AcDbArc
 50
270.0
 51
0.0
  0
ARC
  5
6E05
330
1E
100
AcDbEntity
  8
躯体と製品
  6
DASHED1
 62
     7
100
AcDbCircle
 10
1437.359777635086
 20
811.8959383195859
 30
0.0
 40
3.0
100
AcDbArc
 50
93.00000000000558
 51
169.8753283446035
  0
ARC
  5
6E06
330
1E
100
AcDbEntity
  8
躯体と製品
  6
DASHED1
 62
     7
100
AcDbCircle
 10
1437.359777635086
 20
811.8959383195859
 30
0.0
 40
7.5
100
AcDbArc
 50
93.00000000000558
 51
169.8753283446035
  0
LINE
  5
6E07
330
1E
100
AcDbEntity
  8
躯体と製品
  6
DASHED1
 62
     7
100
AcDbLine
 10
1434.40649490856
 20
812.4233102350366
 30
0.0
 11
1420.452881359145
 21
734.2830743583102
 31
0.0
  0
LINE
  5
6E08
330
1E
100
AcDbEntity
  8
躯体と製品
  6
DASHED1
 62
     7
100
AcDbLine
 10
1416.022957269357
 20
735.0741322314868
 30
0.0
 11
1420.452881359081
 21
734.2830743579542
 31
0.0
  0
LINE
  5
6E09
330
1E
100
AcDbEntity
  8
躯体と製品
  6
DASHED1
 62
     7
100
AcDbLine
 10
1437.202769766357
 20
814.8918269238492
 30
0.0
 11
1442.521648958976
 21
815.1705775706091
 31
0.0
  0
LINE
  5
6E0A
330
1E
100
AcDbEntity
  8
躯体と製品
  6
DASHED1
 62
     7
100
AcDbLine
 10
1436.967257963264
 20
819.3856598302453
 30
0.0
 11
1442.286137155883
 21
819.6644104770051
 31
0.0
  0
LINE
  5
6E0B
330
1E
100
AcDbEntity
  8
躯体と製品
  6
Continuous
 62
     7
100
AcDbLine
 10
1487.555322345164
 20
771.1323694556657
 30
0.0
 11
1485.910764205488
 21
752.3349839042378
 31
0.0
  0
LINE
  5
6E0C
330
1E
100
AcDbEntity
  8
躯体と製品
  6
Continuous
 62
     7
100
AcDbLine
 10
1486.559127647072
 20
771.2195251984134
 30
0.0
 11
1484.914569507396
 21
752.4221396469854
 31
0.0
  0
ARC
  5
6E0D
330
1E
100
AcDbEntity
  8
躯体と製品
  6
Continuous
 62
     7
100
AcDbCircle
 10
1462.801292551952
 20
754.3568006939961
 30
0.0
 40
22.19774608096545
100
AcDbArc
 50
184.9999999999994
 51
355.0000000000006
  0
LINE
  5
6E0E
330
1E
100
AcDbEntity
  8
躯体と製品
  6
Continuous
 62
     7
100
AcDbLine
 10
1438.647785035167
 20
775.7420816728004
 30
0.0
 11
1440.688015596507
 21
752.4221396469856
 31
0.0
  0
ARC
  5
6E0F
330
1E
100
AcDbEntity
  8
躯体と製品
  6
Continuous
 62
     7
100
AcDbCircle
 10
1462.801292551952
 20
754.3568006939961
 30
0.0
 40
23.19774608096545
100
AcDbArc
 50
184.9999999999994
 51
355.0000000000006
  0
LINE
  5
6E10
330
1E
100
AcDbEntity
  8
躯体と製品
  6
Continuous
 62
     7
100
AcDbLine
 10
1437.651590337075
 20
775.654925930053
 30
0.0
 11
1439.691820898415
 21
752.3349839042378
 31
0.0
  0
LINE
  5
6E11
330
1E
100
AcDbEntity
  8
躯体と製品
  6
Continuous
 62
     3
100
AcDbLine
 10
1442.427576110819
 20
816.9655944448955
 30
0.0
 11
1713.522957269357
 21
831.1731013453039
 31
0.0
  0
LINE
  5
6E12
330
1E
100
AcDbEntity
  8
躯体と製品
  6
DASHED1
 62
     4
100
AcDbLine
 10
1442.506080045184
 20
815.4676501427637
 30
0.0
 11
1713.522957269357
 21
829.671042826307
 31
0.0
  0
LINE
  5
6E13
330
1E
100
AcDbEntity
  8
躯体と製品
  6
Continuous
 62
     3
100
AcDbLine
 10
1442.663087913913
 20
812.4717615384998
 30
0.0
 11
1713.522957269357
 21
826.6669257883132
 31
0.0
  0
LINE
  5
6E14
330
1E
100
AcDbEntity
  8
躯体と製品
  6
Continuous
 62
     3
100
AcDbLine
 10
1442.741591848277
 20
810.9738172363682
 30
0.0
 11
1713.522957269357
 21
825.1648672693166
 31
0.0
  0
LINE
  5
6E15
330
1E
100
AcDbEntity
  8
躯体と製品
  6
DASHED1
 62
     4
100
AcDbLine
 10
1443.578967148164
 20
794.9957446802946
 30
0.0
 11
1713.522957269357
 21
809.1429097333499
 31
0.0
  0
LINE
  5
6E16
330
1E
100
AcDbEntity
  8
躯体と製品
  6
DASHED1
 62
     4
100
AcDbLine
 10
1443.840646929379
 20
790.0025970065216
 30
0.0
 11
1713.522957269357
 21
804.1360480033601
 31
0.0
  0
LINE
  5
6E17
330
1E
100
AcDbEntity
  8
躯体と製品
  6
DASHED1
 62
     4
100
AcDbLine
 10
1443.762142995015
 20
791.5005413086537
 30
0.0
 11
1713.522957269357
 21
805.638106522357
 31
0.0
  0
LINE
  5
6E18
330
1E
100
AcDbEntity
  8
躯体と製品
  6
Continuous
 62
     3
100
AcDbLine
 10
1443.892982885622
 20
789.0039674717674
 30
0.0
 11
1713.522957269357
 21
803.134675657362
 31
0.0
  0
LINE
  5
6E19
330
1E
100
AcDbEntity
  8
躯体と製品
  6
DASHED1
 62
     4
100
AcDbLine
 10
1443.484762426927
 20
796.7932778428528
 30
0.0
 11
1713.522957269357
 21
810.945379956146
 31
0.0
  0
LINE
  5
6E1A
330
1E
100
AcDbEntity
  8
躯体と製品
  6
DASHED1
 62
     4
100
AcDbLine
 10
1658.284317120397
 20
806.2479752725277
 30
0.0
 11
1658.19011239916
 21
808.0455084350861
 31
0.0
  0
ARC
  5
6E1B
330
1E
100
AcDbEntity
  8
躯体と製品
  6
Continuous
 62
     7
100
AcDbCircle
 10
1964.244621986762
 20
754.3568006939961
 30
0.0
 40
22.19774608096545
100
AcDbArc
 50
184.9999999999994
 51
355.0000000000006
  0
ARC
  5
6E1C
330
1E
100
AcDbEntity
  8
躯体と製品
  6
Continuous
 62
     7
100
AcDbCircle
 10
1964.244621986762
 20
754.3568006939961
 30
0.0
 40
23.19774608096545
100
AcDbArc
 50
184.9999999999994
 51
355.0000000000006
  0
LINE
  5
6E1D
330
1E
100
AcDbEntity
  8
躯体と製品
  6
Continuous
 62
     7
100
AcDbLine
 10
1939.49059219355
 20
771.1323694556657
 30
0.0
 11
1941.135150333226
 21
752.3349839042378
 31
0.0
  0
LINE
  5
6E1E
330
1E
100
AcDbEntity
  8
躯体と製品
  6
Continuous
 62
     7
100
AcDbLine
 10
1940.486786891641
 20
771.2195251984134
 30
0.0
 11
1942.131345031317
 21
752.4221396469854
 31
0.0
  0
LINE
  5
6E1F
330
1E
100
AcDbEntity
  8
躯体と製品
  6
Continuous
 62
     7
100
AcDbLine
 10
1706.033235758697
 20
830.2798955004828
 30
0.0
 11
1706.242579583669
 21
826.2853773614645
 31
0.0
  0
LINE
  5
6E20
330
1E
100
AcDbEntity
  8
躯体と製品
  6
Continuous
 62
     7
100
AcDbLine
 10
1706.033235758697
 20
830.2798955004828
 30
0.0
 11
1713.522957269357
 21
830.6724151723051
 31
0.0
  0
LINE
  5
6E21
330
1E
100
AcDbEntity
  8
躯体と製品
  6
Continuous
 62
     7
100
AcDbLine
 10
1721.012678780016
 20
830.2798955004828
 30
0.0
 11
1720.803334955044
 21
826.2853773614645
 31
0.0
  0
LINE
  5
6E22
330
1E
100
AcDbEntity
  8
躯体と製品
  6
Continuous
 62
     7
100
AcDbLine
 10
1721.012678780016
 20
830.2798955004828
 30
0.0
 11
1713.522957269357
 21
830.6724151723051
 31
0.0
  0
LINE
  5
6E23
330
1E
100
AcDbEntity
  8
躯体と製品
  6
Continuous
 62
     4
100
AcDbLine
 10
1720.965611804758
 20
829.3818041121216
 30
0.0
 11
1720.015247244642
 21
830.3321686722386
 31
0.0
  0
LINE
  5
6E24
330
1E
100
AcDbEntity
  8
躯体と製品
  6
Continuous
 62
     4
100
AcDbLine
 10
1720.895186829103
 20
828.0380155254043
 30
0.0
 11
1718.522818822949
 21
830.4103835315579
 31
0.0
  0
LINE
  5
6E25
330
1E
100
AcDbEntity
  8
躯体と製品
  6
Continuous
 62
     4
100
AcDbLine
 10
1720.824761853447
 20
826.6942269386865
 30
0.0
 11
1717.030390401256
 21
830.4885983908778
 31
0.0
  0
LINE
  5
6E26
330
1E
100
AcDbEntity
  8
躯体と製品
  6
Continuous
 62
     4
100
AcDbLine
 10
1719.764979990496
 20
826.339795239264
 30
0.0
 11
1715.537961979563
 21
830.5668132501976
 31
0.0
  0
LINE
  5
6E27
330
1E
100
AcDbEntity
  8
躯体と製品
  6
Continuous
 62
     4
100
AcDbLine
 10
1718.272551568803
 20
826.4180100985837
 30
0.0
 11
1714.045533557869
 21
830.6450281095179
 31
0.0
  0
LINE
  5
6E28
330
1E
100
AcDbEntity
  8
躯体と製品
  6
Continuous
 62
     4
100
AcDbLine
 10
1716.78012314711
 20
826.4962249579038
 30
0.0
 11
1712.64969848627
 21
830.6266496187435
 31
0.0
  0
LINE
  5
6E29
330
1E
100
AcDbEntity
  8
躯体と製品
  6
Continuous
 62
     4
100
AcDbLine
 10
1715.287694725417
 20
826.5744398172234
 30
0.0
 11
1711.305909899552
 21
830.5562246430882
 31
0.0
  0
LINE
  5
6E2A
330
1E
100
AcDbEntity
  8
躯体と製品
  6
Continuous
 62
     4
100
AcDbLine
 10
1713.795266303725
 20
826.6526546765437
 30
0.0
 11
1709.962121312836
 21
830.4857996674329
 31
0.0
  0
LINE
  5
6E2B
330
1E
100
AcDbEntity
  8
躯体と製品
  6
Continuous
 62
     4
100
AcDbLine
 10
1712.424356838483
 20
826.6093505794122
 30
0.0
 11
1708.618332726119
 21
830.4153746917771
 31
0.0
  0
LINE
  5
6E2C
330
1E
100
AcDbEntity
  8
躯体と製品
  6
Continuous
 62
     4
100
AcDbLine
 10
1706.798791125356
 20
830.8207027301666
 30
0.0
 11
1706.210205437977
 21
831.4092884175448
 31
0.0
  0
LINE
  5
6E2D
330
1E
100
AcDbEntity
  8
躯体と製品
  6
Continuous
 62
     4
100
AcDbLine
 10
1711.080568251766
 20
826.5389256037561
 30
0.0
 11
1707.274544139401
 21
830.3449497161212
 31
0.0
  0
LINE
  5
6E2E
330
1E
100
AcDbEntity
  8
躯体と製品
  6
Continuous
 62
     4
100
AcDbLine
 10
1709.736779665049
 20
826.4685006281002
 30
0.0
 11
1706.039200591987
 21
830.1660797011617
 31
0.0
  0
LINE
  5
6E2F
330
1E
100
AcDbEntity
  8
躯体と製品
  6
Continuous
 62
     4
100
AcDbLine
 10
1708.392991078331
 20
826.3980756524441
 30
0.0
 11
1706.117415451307
 21
828.6736512794684
 31
0.0
  0
LINE
  5
6E30
330
1E
100
AcDbEntity
  8
躯体と製品
  6
Continuous
 62
     4
100
AcDbLine
 10
1707.049202491613
 20
826.3276506767889
 30
0.0
 11
1706.195630310627
 21
827.1812228577752
 31
0.0
  0
POINT
  5
6E31
330
1E
100
AcDbEntity
  8
躯体と製品
 62
     4
100
AcDbPoint
 10
1713.522957269357
 20
835.3813883979425
 30
0.0
  0
LINE
  5
6E32
330
1E
100
AcDbEntity
  8
躯体と製品
  6
Continuous
 62
     4
100
AcDbLine
 10
1715.009584728196
 20
831.0951905015649
 30
0.0
 11
1712.290058820595
 21
833.8147164091651
 31
0.0
  0
LINE
  5
6E33
330
1E
100
AcDbEntity
  8
躯体と製品
  6
Continuous
 62
     7
100
AcDbLine
 10
1706.101140628733
 20
833.4903689505651
 30
0.0
 11
1706.242579583669
 21
830.7915529184553
 31
0.0
  0
LINE
  5
6E34
330
1E
100
AcDbEntity
  8
躯体と製品
  6
Continuous
 62
     4
100
AcDbLine
 10
1713.517734058942
 20
831.1728276084455
 30
0.0
 11
1710.946270233878
 21
833.7442914335092
 31
0.0
  0
LINE
  5
6E35
330
1E
100
AcDbEntity
  8
躯体と製品
  6
Continuous
 62
     4
100
AcDbLine
 10
1712.173945472224
 20
831.1024026327897
 30
0.0
 11
1709.602481647161
 21
833.6738664578531
 31
0.0
  0
LINE
  5
6E36
330
1E
100
AcDbEntity
  8
躯体と製品
  6
Continuous
 62
     4
100
AcDbLine
 10
1710.830156885507
 20
831.0319776571336
 30
0.0
 11
1708.258693060443
 21
833.6034414821977
 31
0.0
  0
LINE
  5
6E37
330
1E
100
AcDbEntity
  8
躯体と製品
  6
Continuous
 62
     4
100
AcDbLine
 10
1709.48636829879
 20
830.9615526814784
 30
0.0
 11
1706.914904473727
 21
833.5330165065418
 31
0.0
  0
LINE
  5
6E38
330
1E
100
AcDbEntity
  8
躯体と製品
  6
Continuous
 62
     4
100
AcDbLine
 10
1708.142579712073
 20
830.8911277058223
 30
0.0
 11
1706.131990578658
 21
832.9017168392377
 31
0.0
  0
LINE
  5
6E39
330
1E
100
AcDbEntity
  8
躯体と製品
  6
Continuous
 62
     7
100
AcDbLine
 10
1720.944773909981
 20
833.4903689505651
 30
0.0
 11
1720.803334955044
 21
830.7915529184553
 31
0.0
  0
LINE
  5
6E3A
330
1E
100
AcDbEntity
  8
躯体と製品
  6
Continuous
 62
     4
100
AcDbLine
 10
1716.502013149889
 20
831.0169756422446
 30
0.0
 11
1713.646113244342
 21
833.8728755477916
 31
0.0
  0
LINE
  5
6E3B
330
1E
100
AcDbEntity
  8
躯体と製品
  6
Continuous
 62
     4
100
AcDbLine
 10
1720.88206332549
 20
832.2937797161351
 30
0.0
 11
1719.615826931114
 21
833.5600161105123
 31
0.0
  0
LINE
  5
6E3C
330
1E
100
AcDbEntity
  8
躯体と製品
  6
Continuous
 62
     4
100
AcDbLine
 10
1720.811638349834
 20
830.949991129419
 30
0.0
 11
1718.123398509422
 21
833.6382309698318
 31
0.0
  0
LINE
  5
6E3D
330
1E
100
AcDbEntity
  8
躯体と製品
  6
Continuous
 62
     4
100
AcDbLine
 10
1719.486869993275
 20
830.8605459236053
 30
0.0
 11
1716.630970087728
 21
833.7164458291519
 31
0.0
  0
LINE
  5
6E3E
330
1E
100
AcDbEntity
  8
躯体と製品
  6
Continuous
 62
     4
100
AcDbLine
 10
1717.994441571582
 20
830.9387607829249
 30
0.0
 11
1715.138541666036
 21
833.7946606884715
 31
0.0
  0
POINT
  5
6E3F
330
1E
100
AcDbEntity
  8
躯体と製品
 62
     4
100
AcDbPoint
 10
1413.522957269357
 20
729.6590546130305
 30
0.0
  0
POINT
  5
6E40
330
1E
100
AcDbEntity
  8
躯体と製品
 62
     4
100
AcDbPoint
 10
2013.522957269358
 20
729.6590546130305
 30
0.0
  0
LINE
  5
6E41
330
1E
100
AcDbEntity
  8
躯体と製品
  6
Continuous
 62
     4
100
AcDbLine
 10
1553.522957269357
 20
772.6188282710743
 30
0.0
 11
1553.096979741052
 21
773.0448057993791
 31
0.0
  0
LINE
  5
6E42
330
1E
100
AcDbEntity
  8
躯体と製品
  6
Continuous
 62
     4
100
AcDbLine
 10
1552.682766178679
 20
772.0448057993787
 30
0.0
 11
1551.682766178679
 21
773.0448057993791
 31
0.0
  0
LINE
  5
6E43
330
1E
100
AcDbEntity
  8
躯体と製品
  6
Continuous
 62
     4
100
AcDbLine
 10
1551.268552616306
 20
772.0448057993785
 30
0.0
 11
1550.268552616306
 21
773.044805799379
 31
0.0
  0
LINE
  5
6E44
330
1E
100
AcDbEntity
  8
躯体と製品
  6
Continuous
 62
     4
100
AcDbLine
 10
1549.854339053932
 20
772.0448057993791
 30
0.0
 11
1548.854339053932
 21
773.0448057993787
 31
0.0
  0
LINE
  5
6E45
330
1E
100
AcDbEntity
  8
躯体と製品
  6
Continuous
 62
     4
100
AcDbLine
 10
1548.440125491559
 20
772.044805799379
 30
0.0
 11
1547.440125491559
 21
773.0448057993787
 31
0.0
  0
LINE
  5
6E46
330
1E
100
AcDbEntity
  8
躯体と製品
  6
Continuous
 62
     4
100
AcDbLine
 10
1547.025911929186
 20
772.044805799379
 30
0.0
 11
1546.025911929186
 21
773.0448057993785
 31
0.0
  0
LINE
  5
6E47
330
1E
100
AcDbEntity
  8
躯体と製品
  6
Continuous
 62
     4
100
AcDbLine
 10
1545.611698366812
 20
772.044805799379
 30
0.0
 11
1544.611698366813
 21
773.0448057993785
 31
0.0
  0
LINE
  5
6E48
330
1E
100
AcDbEntity
  8
躯体と製品
  6
Continuous
 62
     4
100
AcDbLine
 10
1544.197484804441
 20
772.0448057993785
 30
0.0
 11
1543.197484804441
 21
773.0448057993785
 31
0.0
  0
LINE
  5
6E49
330
1E
100
AcDbEntity
  8
躯体と製品
  6
Continuous
 62
     4
100
AcDbLine
 10
1542.783271242068
 20
772.0448057993785
 30
0.0
 11
1541.783271242068
 21
773.0448057993785
 31
0.0
  0
LINE
  5
6E4A
330
1E
100
AcDbEntity
  8
躯体と製品
  6
Continuous
 62
     4
100
AcDbLine
 10
1541.369057679695
 20
772.044805799378
 30
0.0
 11
1540.369057679695
 21
773.0448057993785
 31
0.0
  0
LINE
  5
6E4B
330
1E
100
AcDbEntity
  8
躯体と製品
  6
Continuous
 62
     4
100
AcDbLine
 10
1539.954844117322
 20
772.0448057993778
 30
0.0
 11
1538.954844117321
 21
773.0448057993785
 31
0.0
  0
LINE
  5
6E4C
330
1E
100
AcDbEntity
  8
躯体と製品
  6
Continuous
 62
     4
100
AcDbLine
 10
1538.540630554948
 20
772.0448057993785
 30
0.0
 11
1537.540630554948
 21
773.0448057993785
 31
0.0
  0
LINE
  5
6E4D
330
1E
100
AcDbEntity
  8
躯体と製品
  6
Continuous
 62
     4
100
AcDbLine
 10
1537.126416992574
 20
772.0448057993785
 30
0.0
 11
1536.126416992575
 21
773.0448057993785
 31
0.0
  0
LINE
  5
6E4E
330
1E
100
AcDbEntity
  8
躯体と製品
  6
Continuous
 62
     4
100
AcDbLine
 10
1535.712203430201
 20
772.0448057993785
 30
0.0
 11
1534.712203430201
 21
773.0448057993781
 31
0.0
  0
LINE
  5
6E4F
330
1E
100
AcDbEntity
  8
躯体と製品
  6
Continuous
 62
     4
100
AcDbLine
 10
1534.297989867828
 20
772.0448057993785
 30
0.0
 11
1533.297989867828
 21
773.0448057993781
 31
0.0
  0
LINE
  5
6E50
330
1E
100
AcDbEntity
  8
躯体と製品
  6
Continuous
 62
     4
100
AcDbLine
 10
1532.883776305456
 20
772.0448057993787
 30
0.0
 11
1531.883776305456
 21
773.044805799379
 31
0.0
  0
LINE
  5
6E51
330
1E
100
AcDbEntity
  8
躯体と製品
  6
Continuous
 62
     4
100
AcDbLine
 10
1531.469562743083
 20
772.0448057993785
 30
0.0
 11
1530.469562743082
 21
773.044805799379
 31
0.0
  0
LINE
  5
6E52
330
1E
100
AcDbEntity
  8
躯体と製品
  6
Continuous
 62
     4
100
AcDbLine
 10
1530.05534918071
 20
772.0448057993785
 30
0.0
 11
1529.055349180709
 21
773.0448057993787
 31
0.0
  0
LINE
  5
6E53
330
1E
100
AcDbEntity
  8
躯体と製品
  6
Continuous
 62
     4
100
AcDbLine
 10
1528.641135618336
 20
772.0448057993785
 30
0.0
 11
1527.641135618336
 21
773.0448057993785
 31
0.0
  0
LINE
  5
6E54
330
1E
100
AcDbEntity
  8
躯体と製品
  6
Continuous
 62
     4
100
AcDbLine
 10
1527.226922055963
 20
772.0448057993787
 30
0.0
 11
1526.226922055963
 21
773.0448057993785
 31
0.0
  0
LINE
  5
6E55
330
1E
100
AcDbEntity
  8
躯体と製品
  6
Continuous
 62
     4
100
AcDbLine
 10
1525.812708493589
 20
772.0448057993791
 30
0.0
 11
1524.812708493589
 21
773.044805799379
 31
0.0
  0
LINE
  5
6E56
330
1E
100
AcDbEntity
  8
躯体と製品
  6
Continuous
 62
     4
100
AcDbLine
 10
1524.398494931216
 20
772.044805799379
 30
0.0
 11
1523.522957269357
 21
772.9203434612379
 31
0.0
  0
LINE
  5
6E57
330
1E
100
AcDbEntity
  8
躯体と製品
  6
Continuous
 62
     3
100
AcDbLine
 10
1523.522957269357
 20
772.0448057993785
 30
0.0
 11
1553.522957269357
 21
772.0448057993785
 31
0.0
  0
LINE
  5
6E58
330
1E
100
AcDbEntity
  8
躯体と製品
  6
Continuous
 62
     3
100
AcDbLine
 10
1553.522957269357
 20
772.0448057993785
 30
0.0
 11
1553.522957269357
 21
773.0448057993785
 31
0.0
  0
LINE
  5
6E59
330
1E
100
AcDbEntity
  8
躯体と製品
  6
Continuous
 62
     3
100
AcDbLine
 10
1553.522957269357
 20
773.0448057993785
 30
0.0
 11
1523.522957269357
 21
773.0448057993785
 31
0.0
  0
LINE
  5
6E5A
330
1E
100
AcDbEntity
  8
躯体と製品
  6
Continuous
 62
     3
100
AcDbLine
 10
1523.522957269357
 20
773.0448057993785
 30
0.0
 11
1523.522957269357
 21
772.0448057993785
 31
0.0
  0
LINE
  5
6E5B
330
1E
100
AcDbEntity
  8
躯体と製品
  6
Continuous
 62
     4
100
AcDbLine
 10
1873.522957269356
 20
772.6188282710743
 30
0.0
 11
1873.948934797662
 21
773.0448057993791
 31
0.0
  0
LINE
  5
6E5C
330
1E
100
AcDbEntity
  8
躯体と製品
  6
Continuous
 62
     4
100
AcDbLine
 10
1874.363148360035
 20
772.0448057993787
 30
0.0
 11
1875.363148360035
 21
773.0448057993791
 31
0.0
  0
LINE
  5
6E5D
330
1E
100
AcDbEntity
  8
躯体と製品
  6
Continuous
 62
     4
100
AcDbLine
 10
1875.777361922408
 20
772.0448057993785
 30
0.0
 11
1876.777361922409
 21
773.044805799379
 31
0.0
  0
LINE
  5
6E5E
330
1E
100
AcDbEntity
  8
躯体と製品
  6
Continuous
 62
     4
100
AcDbLine
 10
1877.191575484782
 20
772.0448057993791
 30
0.0
 11
1878.191575484781
 21
773.0448057993787
 31
0.0
  0
LINE
  5
6E5F
330
1E
100
AcDbEntity
  8
躯体と製品
  6
Continuous
 62
     4
100
AcDbLine
 10
1878.605789047155
 20
772.044805799379
 30
0.0
 11
1879.605789047155
 21
773.0448057993787
 31
0.0
  0
LINE
  5
6E60
330
1E
100
AcDbEntity
  8
躯体と製品
  6
Continuous
 62
     4
100
AcDbLine
 10
1880.020002609528
 20
772.044805799379
 30
0.0
 11
1881.020002609528
 21
773.0448057993785
 31
0.0
  0
LINE
  5
6E61
330
1E
100
AcDbEntity
  8
躯体と製品
  6
Continuous
 62
     4
100
AcDbLine
 10
1881.434216171901
 20
772.044805799379
 30
0.0
 11
1882.434216171901
 21
773.0448057993785
 31
0.0
  0
LINE
  5
6E62
330
1E
100
AcDbEntity
  8
躯体と製品
  6
Continuous
 62
     4
100
AcDbLine
 10
1882.848429734273
 20
772.0448057993785
 30
0.0
 11
1883.848429734273
 21
773.0448057993785
 31
0.0
  0
LINE
  5
6E63
330
1E
100
AcDbEntity
  8
躯体と製品
  6
Continuous
 62
     4
100
AcDbLine
 10
1884.262643296646
 20
772.0448057993785
 30
0.0
 11
1885.262643296646
 21
773.0448057993785
 31
0.0
  0
LINE
  5
6E64
330
1E
100
AcDbEntity
  8
躯体と製品
  6
Continuous
 62
     4
100
AcDbLine
 10
1885.676856859019
 20
772.044805799378
 30
0.0
 11
1886.676856859019
 21
773.0448057993785
 31
0.0
  0
LINE
  5
6E65
330
1E
100
AcDbEntity
  8
躯体と製品
  6
Continuous
 62
     4
100
AcDbLine
 10
1887.091070421392
 20
772.0448057993778
 30
0.0
 11
1888.091070421392
 21
773.0448057993785
 31
0.0
  0
LINE
  5
6E66
330
1E
100
AcDbEntity
  8
躯体と製品
  6
Continuous
 62
     4
100
AcDbLine
 10
1888.505283983766
 20
772.0448057993785
 30
0.0
 11
1889.505283983766
 21
773.0448057993785
 31
0.0
  0
LINE
  5
6E67
330
1E
100
AcDbEntity
  8
躯体と製品
  6
Continuous
 62
     4
100
AcDbLine
 10
1889.919497546139
 20
772.0448057993785
 30
0.0
 11
1890.919497546139
 21
773.0448057993785
 31
0.0
  0
LINE
  5
6E68
330
1E
100
AcDbEntity
  8
躯体と製品
  6
Continuous
 62
     4
100
AcDbLine
 10
1891.333711108512
 20
772.0448057993785
 30
0.0
 11
1892.333711108512
 21
773.0448057993781
 31
0.0
  0
LINE
  5
6E69
330
1E
100
AcDbEntity
  8
躯体と製品
  6
Continuous
 62
     4
100
AcDbLine
 10
1892.747924670886
 20
772.0448057993785
 30
0.0
 11
1893.747924670885
 21
773.0448057993781
 31
0.0
  0
LINE
  5
6E6A
330
1E
100
AcDbEntity
  8
躯体と製品
  6
Continuous
 62
     4
100
AcDbLine
 10
1894.162138233258
 20
772.0448057993787
 30
0.0
 11
1895.162138233258
 21
773.044805799379
 31
0.0
  0
LINE
  5
6E6B
330
1E
100
AcDbEntity
  8
躯体と製品
  6
Continuous
 62
     4
100
AcDbLine
 10
1895.576351795631
 20
772.0448057993785
 30
0.0
 11
1896.576351795631
 21
773.044805799379
 31
0.0
  0
LINE
  5
6E6C
330
1E
100
AcDbEntity
  8
躯体と製品
  6
Continuous
 62
     4
100
AcDbLine
 10
1896.990565358004
 20
772.0448057993785
 30
0.0
 11
1897.990565358004
 21
773.0448057993787
 31
0.0
  0
LINE
  5
6E6D
330
1E
100
AcDbEntity
  8
躯体と製品
  6
Continuous
 62
     4
100
AcDbLine
 10
1898.404778920377
 20
772.0448057993785
 30
0.0
 11
1899.404778920377
 21
773.0448057993785
 31
0.0
  0
LINE
  5
6E6E
330
1E
100
AcDbEntity
  8
躯体と製品
  6
Continuous
 62
     4
100
AcDbLine
 10
1899.818992482751
 20
772.0448057993787
 30
0.0
 11
1900.818992482751
 21
773.0448057993785
 31
0.0
  0
LINE
  5
6E6F
330
1E
100
AcDbEntity
  8
躯体と製品
  6
Continuous
 62
     4
100
AcDbLine
 10
1901.233206045125
 20
772.0448057993791
 30
0.0
 11
1902.233206045124
 21
773.044805799379
 31
0.0
  0
LINE
  5
6E70
330
1E
100
AcDbEntity
  8
躯体と製品
  6
Continuous
 62
     4
100
AcDbLine
 10
1902.647419607498
 20
772.044805799379
 30
0.0
 11
1903.522957269357
 21
772.9203434612379
 31
0.0
  0
LINE
  5
6E71
330
1E
100
AcDbEntity
  8
躯体と製品
  6
Continuous
 62
     3
100
AcDbLine
 10
1903.522957269357
 20
772.0448057993785
 30
0.0
 11
1873.522957269357
 21
772.0448057993785
 31
0.0
  0
LINE
  5
6E72
330
1E
100
AcDbEntity
  8
躯体と製品
  6
Continuous
 62
     3
100
AcDbLine
 10
1873.522957269357
 20
772.0448057993785
 30
0.0
 11
1873.522957269357
 21
773.0448057993785
 31
0.0
  0
LINE
  5
6E73
330
1E
100
AcDbEntity
  8
躯体と製品
  6
Continuous
 62
     3
100
AcDbLine
 10
1873.522957269357
 20
773.0448057993785
 30
0.0
 11
1903.522957269357
 21
773.0448057993785
 31
0.0
  0
LINE
  5
6E74
330
1E
100
AcDbEntity
  8
躯体と製品
  6
Continuous
 62
     3
100
AcDbLine
 10
1903.522957269357
 20
773.0448057993785
 30
0.0
 11
1903.522957269357
 21
772.0448057993785
 31
0.0
  0
LINE
  5
6E75
330
1E
100
AcDbEntity
  8
躯体と製品
  6
Continuous
 62
     4
100
AcDbLine
 10
1456.867050511535
 20
817.7223352322513
 30
0.0
 11
1457.381538997608
 21
818.2368237183244
 31
0.0
  0
LINE
  5
6E76
330
1E
100
AcDbEntity
  8
躯体と製品
  6
Continuous
 62
     7
100
AcDbLine
 10
1457.407019132138
 20
817.7506337885397
 30
0.0
 11
1457.265580177202
 21
820.4494498206491
 31
0.0
  0
LINE
  5
6E77
330
1E
100
AcDbEntity
  8
躯体と製品
  6
Continuous
 62
     7
100
AcDbLine
 10
1442.427576110819
 20
816.9655944448955
 30
0.0
 11
1442.286137155883
 21
819.6644104770051
 31
0.0
  0
LINE
  5
6E78
330
1E
100
AcDbEntity
  8
躯体と製品
  6
Continuous
 62
     4
100
AcDbLine
 10
1453.88219366815
 20
817.5659055136119
 30
0.0
 11
1456.738093573696
 21
820.421805419158
 31
0.0
  0
LINE
  5
6E79
330
1E
100
AcDbEntity
  8
躯体と製品
  6
Continuous
 62
     4
100
AcDbLine
 10
1452.389765246457
 20
817.4876906542916
 30
0.0
 11
1455.245665152003
 21
820.3435905598379
 31
0.0
  0
LINE
  5
6E7A
330
1E
100
AcDbEntity
  8
躯体と製品
  6
Continuous
 62
     4
100
AcDbLine
 10
1450.897336824764
 20
817.4094757949722
 30
0.0
 11
1453.75323673031
 21
820.2653757005181
 31
0.0
  0
LINE
  5
6E7B
330
1E
100
AcDbEntity
  8
躯体と製品
  6
Continuous
 62
     4
100
AcDbLine
 10
1449.404908403071
 20
817.3312609356523
 30
0.0
 11
1452.260808308617
 21
820.1871608411984
 31
0.0
  0
LINE
  5
6E7C
330
1E
100
AcDbEntity
  8
躯体と製品
  6
Continuous
 62
     4
100
AcDbLine
 10
1447.912479981378
 20
817.2530460763326
 30
0.0
 11
1450.768379886924
 21
820.1089459818785
 31
0.0
  0
LINE
  5
6E7D
330
1E
100
AcDbEntity
  8
躯体と製品
  6
Continuous
 62
     4
100
AcDbLine
 10
1446.420051559685
 20
817.1748312170125
 30
0.0
 11
1449.275951465231
 21
820.0307311225586
 31
0.0
  0
LINE
  5
6E7E
330
1E
100
AcDbEntity
  8
躯体と製品
  6
Continuous
 62
     4
100
AcDbLine
 10
1444.927623137991
 20
817.0966163576931
 30
0.0
 11
1447.783523043537
 21
819.9525162632387
 31
0.0
  0
LINE
  5
6E7F
330
1E
100
AcDbEntity
  8
躯体と製品
  6
Continuous
 62
     4
100
AcDbLine
 10
1443.435194716301
 20
817.0184014983734
 30
0.0
 11
1446.291094621846
 21
819.8743014039191
 31
0.0
  0
LINE
  5
6E80
330
1E
100
AcDbEntity
  8
躯体と製品
  6
Continuous
 62
     4
100
AcDbLine
 10
1442.404698819682
 20
817.4021191641282
 30
0.0
 11
1444.798666200153
 21
819.7960865445994
 31
0.0
  0
LINE
  5
6E81
330
1E
100
AcDbEntity
  8
躯体と製品
  6
Continuous
 62
     4
100
AcDbLine
 10
1455.374622089844
 20
817.6441203729321
 30
0.0
 11
1457.311114021952
 21
819.5806123050406
 31
0.0
  0
LINE
  5
6E82
330
1E
100
AcDbEntity
  8
躯体と製品
  6
Continuous
 62
     4
100
AcDbLine
 10
1442.334273844026
 20
818.7459077508458
 30
0.0
 11
1443.30623777846
 21
819.7178716852794
 31
0.0
  0
LINE
  5
6E95
330
1E
100
AcDbEntity
  8
躯体と製品
  6
Continuous
 62
     7
100
AcDbLine
 10
1938.522957269357
 20
772.0448057993785
 30
0.0
 11
1938.522957269357
 21
622.0448057993788
 31
0.0
  0
LINE
  5
6E96
330
1E
100
AcDbEntity
  8
躯体と製品
  6
Continuous
 62
     7
100
AcDbLine
 10
1638.522957269357
 20
772.0448057993785
 30
0.0
 11
1638.522957269357
 21
622.0448057993788
 31
0.0
  0
LINE
  5
6E97
330
1E
100
AcDbEntity
  8
躯体と製品
  6
Continuous
 62
     7
100
AcDbLine
 10
1488.522957269357
 20
772.0448057993785
 30
0.0
 11
1488.522957269357
 21
622.0448057993788
 31
0.0
  0
LINE
  5
6E98
330
1E
100
AcDbEntity
  8
躯体と製品
  6
Continuous
 62
     7
100
AcDbLine
 10
1788.522957269357
 20
772.0448057993785
 30
0.0
 11
1788.522957269357
 21
622.0448057993788
 31
0.0
  0
LINE
  5
6E99
330
1E
100
AcDbEntity
  8
図枠
  6
Continuous
 62
     7
100
AcDbLine
 10
1760.522957269357
 20
417.0448057993787
 30
0.0
 11
1760.522957269357
 21
597.0448057993787
 31
0.0
  0
LINE
  5
6E9A
330
1E
100
AcDbEntity
  8
図枠
  6
Continuous
 62
     7
100
AcDbLine
 10
1742.522957269357
 20
417.0448057993787
 30
0.0
 11
1742.522957269357
 21
597.0448057993787
 31
0.0
  0
LINE
  5
6E9B
330
1E
100
AcDbEntity
  8
図枠
  6
Continuous
 62
     7
100
AcDbLine
 10
1707.522957269357
 20
417.0448057993787
 30
0.0
 11
1707.522957269357
 21
597.0448057993787
 31
0.0
  0
TEXT
  5
6E9C
330
1E
100
AcDbEntity
  8
図枠
 62
     7
100
AcDbText
 10
1649.022957269357
 20
588.0448057993787
 30
0.0
 40
5.0
  1
規　格
100
AcDbText
  0
TEXT
  5
6E9D
330
1E
100
AcDbEntity
  8
図枠
 62
     7
100
AcDbText
 10
1548.022957269357
 20
588.0448057993787
 30
0.0
 40
5.0
  1
部材名称
100
AcDbText
  0
TEXT
  5
6E9E
330
1E
100
AcDbEntity
  8
図枠
 62
     7
100
AcDbText
 10
1616.522957269357
 20
456.0448057993789
 30
0.0
 40
5.0
  1
Ｍ6×40
100
AcDbText
  0
TEXT
  5
6E9F
330
1E
100
AcDbEntity
  8
図枠
 62
     7
100
AcDbText
 10
1616.522957269357
 20
432.0448057993788
 30
0.0
 40
5.0
  1
1.5×18×6.5穴
100
AcDbText
  0
TEXT
  5
6EA0
330
1E
100
AcDbEntity
  8
図枠
 62
     7
100
AcDbText
 10
1616.522957269357
 20
444.0448057993788
 30
0.0
 40
5.0
  1
ＡＧ－660
100
AcDbText
  0
TEXT
  5
6EA1
330
1E
100
AcDbEntity
  8
図枠
 62
     7
100
AcDbText
 10
1616.522957269357
 20
492.0448057993787
 30
0.0
 40
5.0
  1
ＰＳ
100
AcDbText
  0
TEXT
  5
6EA2
330
1E
100
AcDbEntity
  8
図枠
 62
     7
100
AcDbText
 10
1516.522957269357
 20
432.0448057993788
 30
0.0
 40
5.0
  1
ステンワッシャー
100
AcDbText
  0
TEXT
  5
6EA3
330
1E
100
AcDbEntity
  8
図枠
 62
     7
100
AcDbText
 10
1516.522957269357
 20
444.0448057993788
 30
0.0
 40
5.0
  1
アジャストアンカー
100
AcDbText
  0
TEXT
  5
6EA4
330
1E
100
AcDbEntity
  8
図枠
 62
     7
100
AcDbText
 10
1516.522957269357
 20
456.0448057993789
 30
0.0
 40
5.0
  1
ステン六角ボルト
100
AcDbText
  0
TEXT
  5
6EA5
330
1E
100
AcDbEntity
  8
図枠
 62
     7
100
AcDbText
 10
1516.522957269357
 20
468.0448057993788
 30
0.0
 40
5.0
  1
ステン小ネジ
100
AcDbText
  0
TEXT
  5
6EA6
330
1E
100
AcDbEntity
  8
図枠
 62
     7
100
AcDbText
 10
1516.522957269357
 20
480.0448057993788
 30
0.0
 40
5.0
  1
止水補助板
100
AcDbText
  0
TEXT
  5
6EA7
330
1E
100
AcDbEntity
  8
図枠
 62
     7
100
AcDbText
 10
1516.522957269357
 20
492.0448057993787
 30
0.0
 40
5.0
  1
止水補助板
100
AcDbText
  0
TEXT
  5
6EA8
330
1E
100
AcDbEntity
  8
図枠
 62
     7
100
AcDbText
 10
1516.522957269357
 20
504.0448057993789
 30
0.0
 40
5.0
  1
ＦＹＹ水切ジョイント
100
AcDbText
  0
TEXT
  5
6EA9
330
1E
100
AcDbEntity
  8
図枠
 62
     7
100
AcDbText
 10
1516.522957269357
 20
516.0448057993788
 30
0.0
 40
5.0
  1
ＦＹＹフレームナット
100
AcDbText
  0
TEXT
  5
6EAA
330
1E
100
AcDbEntity
  8
図枠
 62
     7
100
AcDbText
 10
1516.522957269357
 20
540.0448057993787
 30
0.0
 40
5.0
  1
ＦＹＹホルダー
100
AcDbText
  0
TEXT
  5
6EAB
330
1E
100
AcDbEntity
  8
図枠
 62
     7
100
AcDbText
 10
1516.522957269357
 20
564.0448057993787
 30
0.0
 40
5.0
  1
ＦＹＹフレーム
100
AcDbText
  0
LINE
  5
6EAC
330
1E
100
AcDbEntity
  8
図枠
  6
Continuous
 62
     7
100
AcDbLine
 10
1706.522957269356
 20
417.0448057993787
 30
0.0
 11
1706.522957269356
 21
597.0448057993787
 31
0.0
  0
TEXT
  5
6EAD
330
1E
100
AcDbEntity
  8
図枠
 62
     7
100
AcDbText
 10
1616.522957269357
 20
420.0448057993788
 30
0.0
 40
5.0
  1
ｔ1.0×ｗ30
100
AcDbText
  0
LINE
  5
6EAE
330
1E
100
AcDbEntity
  8
図枠
  6
Continuous
 62
     7
100
AcDbLine
 10
1611.522957269357
 20
417.0448057993787
 30
0.0
 11
1611.522957269357
 21
597.0448057993787
 31
0.0
  0
TEXT
  5
6EAF
330
1E
100
AcDbEntity
  8
図枠
 62
     7
100
AcDbText
 10
1516.522957269357
 20
420.0448057993788
 30
0.0
 40
5.0
  1
ブチルテープ
100
AcDbText
  0
LINE
  5
6EB0
330
1E
100
AcDbEntity
  8
図枠
  6
Continuous
 62
     7
100
AcDbLine
 10
1511.522957269357
 20
417.0448057993787
 30
0.0
 11
1511.522957269357
 21
597.0448057993787
 31
0.0
  0
TEXT
  5
6EB1
330
1E
100
AcDbEntity
  8
図枠
 62
     7
100
AcDbText
 10
1516.522957269357
 20
576.0448057993787
 30
0.0
 40
5.0
  1
ＦＹＹキヤップＳ
100
AcDbText
  0
TEXT
  5
6EB2
330
1E
100
AcDbEntity
  8
図枠
 62
     7
100
AcDbText
 10
1516.522957269357
 20
528.044805799379
 30
0.0
 40
5.0
  1
ＦＹＹホルダースプリング
100
AcDbText
  0
TEXT
  5
6EB3
330
1E
100
AcDbEntity
  8
図枠
 62
     7
100
AcDbText
 10
1616.522957269357
 20
468.0448057993788
 30
0.0
 40
5.0
  1
ナベＭ6×35
100
AcDbText
  0
LINE
  5
6EB4
330
1E
100
AcDbEntity
  8
図枠
  6
Continuous
 62
     7
100
AcDbLine
 10
1707.522957269357
 20
429.0448057993789
 30
0.0
 11
1774.522957269357
 21
429.0448057993789
 31
0.0
  0
LINE
  5
6EB5
330
1E
100
AcDbEntity
  8
図枠
  6
Continuous
 62
     7
100
AcDbLine
 10
1707.522957269357
 20
441.0448057993788
 30
0.0
 11
1774.522957269357
 21
441.0448057993788
 31
0.0
  0
LINE
  5
6EB6
330
1E
100
AcDbEntity
  8
図枠
  6
Continuous
 62
     7
100
AcDbLine
 10
1707.522957269357
 20
465.0448057993788
 30
0.0
 11
1774.522957269357
 21
465.0448057993788
 31
0.0
  0
LINE
  5
6EB7
330
1E
100
AcDbEntity
  8
図枠
  6
Continuous
 62
     7
100
AcDbLine
 10
1707.522957269357
 20
477.0448057993789
 30
0.0
 11
1774.522957269357
 21
477.0448057993789
 31
0.0
  0
LINE
  5
6EB8
330
1E
100
AcDbEntity
  8
図枠
  6
Continuous
 62
     7
100
AcDbLine
 10
1707.522957269357
 20
513.0448057993787
 30
0.0
 11
1774.522957269357
 21
513.0448057993787
 31
0.0
  0
LINE
  5
6EB9
330
1E
100
AcDbEntity
  8
図枠
  6
Continuous
 62
     7
100
AcDbLine
 10
1707.522957269357
 20
525.0448057993787
 30
0.0
 11
1774.522957269357
 21
525.0448057993787
 31
0.0
  0
LINE
  5
6EBA
330
1E
100
AcDbEntity
  8
図枠
  6
Continuous
 62
     7
100
AcDbLine
 10
1707.522957269357
 20
489.0448057993788
 30
0.0
 11
1774.522957269357
 21
489.0448057993788
 31
0.0
  0
LINE
  5
6EBB
330
1E
100
AcDbEntity
  8
図枠
  6
Continuous
 62
     7
100
AcDbLine
 10
1707.522957269357
 20
453.0448057993788
 30
0.0
 11
1774.522957269357
 21
453.0448057993788
 31
0.0
  0
LINE
  5
6EBC
330
1E
100
AcDbEntity
  8
図枠
  6
Continuous
 62
     7
100
AcDbLine
 10
1707.522957269357
 20
537.0448057993788
 30
0.0
 11
1774.522957269357
 21
537.0448057993788
 31
0.0
  0
LINE
  5
6EBD
330
1E
100
AcDbEntity
  8
図枠
  6
Continuous
 62
     7
100
AcDbLine
 10
1707.522957269357
 20
549.0448057993787
 30
0.0
 11
1774.522957269357
 21
549.0448057993787
 31
0.0
  0
LINE
  5
6EBE
330
1E
100
AcDbEntity
  8
図枠
  6
Continuous
 62
     7
100
AcDbLine
 10
1707.522957269357
 20
561.0448057993787
 30
0.0
 11
1774.522957269357
 21
561.0448057993787
 31
0.0
  0
LINE
  5
6EBF
330
1E
100
AcDbEntity
  8
図枠
  6
Continuous
 62
     7
100
AcDbLine
 10
1707.522957269357
 20
573.0448057993787
 30
0.0
 11
1774.522957269357
 21
573.0448057993787
 31
0.0
  0
LINE
  5
6EC0
330
1E
100
AcDbEntity
  8
図枠
  6
Continuous
 62
     7
100
AcDbLine
 10
1707.522957269357
 20
585.0448057993787
 30
0.0
 11
1774.522957269357
 21
585.0448057993787
 31
0.0
  0
LINE
  5
6EC1
330
1E
100
AcDbEntity
  8
図枠
  6
Continuous
 62
     7
100
AcDbLine
 10
1707.522957269357
 20
501.0448057993788
 30
0.0
 11
1774.522957269357
 21
501.0448057993788
 31
0.0
  0
LINE
  5
6EC2
330
1E
100
AcDbEntity
  8
図枠
  6
Continuous
 62
     7
100
AcDbLine
 10
1707.522957269357
 20
597.0448057993787
 30
0.0
 11
1774.522957269357
 21
597.0448057993787
 31
0.0
  0
LINE
  5
6EC3
330
1E
100
AcDbEntity
  8
図枠
  6
Continuous
 62
     7
100
AcDbLine
 10
1707.522957269357
 20
417.0448057993787
 30
0.0
 11
1774.522957269357
 21
417.0448057993787
 31
0.0
  0
LINE
  5
6EC4
330
1E
100
AcDbEntity
  8
図枠
  6
Continuous
 62
     7
100
AcDbLine
 10
1774.522957269357
 20
417.0448057993787
 30
0.0
 11
1774.522957269357
 21
597.0448057993787
 31
0.0
  0
TEXT
  5
6EC5
330
1E
100
AcDbEntity
  8
図枠
 62
     7
100
AcDbText
 10
1764.522957269357
 20
432.0448057993788
 30
0.0
 40
5.0
  1
枚
100
AcDbText
  0
TEXT
  5
6EC6
330
1E
100
AcDbEntity
  8
図枠
 62
     7
100
AcDbText
 10
1764.522957269357
 20
444.0448057993788
 30
0.0
 40
5.0
  1
〃
100
AcDbText
  0
TEXT
  5
6EC7
330
1E
100
AcDbEntity
  8
図枠
 62
     7
100
AcDbText
 10
1764.522957269357
 20
456.0448057993789
 30
0.0
 40
5.0
  1
〃
100
AcDbText
  0
TEXT
  5
6EC8
330
1E
100
AcDbEntity
  8
図枠
 62
     7
100
AcDbText
 10
1764.522957269357
 20
468.0448057993788
 30
0.0
 40
5.0
  1
本
100
AcDbText
  0
TEXT
  5
6EC9
330
1E
100
AcDbEntity
  8
図枠
 62
     7
100
AcDbText
 10
1764.522957269357
 20
480.0448057993788
 30
0.0
 40
5.0
  1
〃
100
AcDbText
  0
TEXT
  5
6ECA
330
1E
100
AcDbEntity
  8
図枠
 62
     7
100
AcDbText
 10
1764.522957269357
 20
492.0448057993787
 30
0.0
 40
5.0
  1
枚
100
AcDbText
  0
TEXT
  5
6ECB
330
1E
100
AcDbEntity
  8
図枠
 62
     7
100
AcDbText
 10
1764.522957269357
 20
504.0448057993789
 30
0.0
 40
5.0
  1
〃
100
AcDbText
  0
TEXT
  5
6ECC
330
1E
100
AcDbEntity
  8
図枠
 62
     7
100
AcDbText
 10
1764.522957269357
 20
516.0448057993788
 30
0.0
 40
5.0
  1
〃
100
AcDbText
  0
TEXT
  5
6ECD
330
1E
100
AcDbEntity
  8
図枠
 62
     7
100
AcDbText
 10
1764.522957269357
 20
528.044805799379
 30
0.0
 40
5.0
  1
〃
100
AcDbText
  0
TEXT
  5
6ECE
330
1E
100
AcDbEntity
  8
図枠
 62
     7
100
AcDbText
 10
1764.522957269357
 20
540.0448057993787
 30
0.0
 40
5.0
  1
個
100
AcDbText
  0
TEXT
  5
6ECF
330
1E
100
AcDbEntity
  8
図枠
 62
     7
100
AcDbText
 10
1764.522957269357
 20
552.0448057993787
 30
0.0
 40
5.0
  1
〃
100
AcDbText
  0
TEXT
  5
6ED0
330
1E
100
AcDbEntity
  8
図枠
 62
     7
100
AcDbText
 10
1764.522957269357
 20
564.0448057993787
 30
0.0
 40
5.0
  1
〃
100
AcDbText
  0
TEXT
  5
6ED1
330
1E
100
AcDbEntity
  8
図枠
 62
     7
100
AcDbText
 10
1764.522957269357
 20
576.0448057993787
 30
0.0
 40
5.0
  1
本
100
AcDbText
  0
TEXT
  5
6ED2
330
1E
100
AcDbEntity
  8
図枠
 62
     7
100
AcDbText
 10
1761.022957269357
 20
588.0448057993787
 30
0.0
 40
5.0
  1
単位
100
AcDbText
  0
TEXT
  5
6ED3
330
1E
100
AcDbEntity
  8
図枠
 62
     7
100
AcDbText
 10
1764.522957269357
 20
420.0448057993788
 30
0.0
 40
5.0
  1
巻
100
AcDbText
  0
LINE
  5
6ED4
330
1E
100
AcDbEntity
  8
図枠
  6
Continuous
 62
     7
100
AcDbLine
 10
1706.522957269356
 20
549.0448057993787
 30
0.0
 11
1497.522957269357
 21
549.0448057993787
 31
0.0
  0
LINE
  5
6ED5
330
1E
100
AcDbEntity
  8
図枠
  6
Continuous
 62
     7
100
AcDbLine
 10
1706.522957269356
 20
561.0448057993787
 30
0.0
 11
1497.522957269357
 21
561.0448057993787
 31
0.0
  0
LINE
  5
6ED6
330
1E
100
AcDbEntity
  8
図枠
  6
Continuous
 62
     7
100
AcDbLine
 10
1706.522957269356
 20
573.0448057993787
 30
0.0
 11
1497.522957269357
 21
573.0448057993787
 31
0.0
  0
LINE
  5
6ED7
330
1E
100
AcDbEntity
  8
図枠
  6
Continuous
 62
     7
100
AcDbLine
 10
1706.522957269356
 20
585.0448057993787
 30
0.0
 11
1497.522957269357
 21
585.0448057993787
 31
0.0
  0
LINE
  5
6ED8
330
1E
100
AcDbEntity
  8
図枠
  6
Continuous
 62
     7
100
AcDbLine
 10
1706.522957269356
 20
465.0448057993788
 30
0.0
 11
1497.522957269357
 21
465.0448057993788
 31
0.0
  0
LINE
  5
6ED9
330
1E
100
AcDbEntity
  8
図枠
  6
Continuous
 62
     7
100
AcDbLine
 10
1706.522957269356
 20
477.0448057993789
 30
0.0
 11
1497.522957269357
 21
477.0448057993789
 31
0.0
  0
LINE
  5
6EDA
330
1E
100
AcDbEntity
  8
図枠
  6
Continuous
 62
     7
100
AcDbLine
 10
1706.522957269356
 20
501.0448057993788
 30
0.0
 11
1497.522957269357
 21
501.0448057993788
 31
0.0
  0
LINE
  5
6EDB
330
1E
100
AcDbEntity
  8
図枠
  6
Continuous
 62
     7
100
AcDbLine
 10
1706.522957269356
 20
513.0448057993787
 30
0.0
 11
1497.522957269357
 21
513.0448057993787
 31
0.0
  0
LINE
  5
6EDC
330
1E
100
AcDbEntity
  8
図枠
  6
Continuous
 62
     7
100
AcDbLine
 10
1706.522957269356
 20
525.0448057993787
 30
0.0
 11
1497.522957269357
 21
525.0448057993787
 31
0.0
  0
LINE
  5
6EDD
330
1E
100
AcDbEntity
  8
図枠
  6
Continuous
 62
     7
100
AcDbLine
 10
1706.522957269356
 20
537.0448057993788
 30
0.0
 11
1497.522957269357
 21
537.0448057993788
 31
0.0
  0
LINE
  5
6EDE
330
1E
100
AcDbEntity
  8
図枠
  6
Continuous
 62
     7
100
AcDbLine
 10
1706.522957269356
 20
489.0448057993788
 30
0.0
 11
1497.522957269357
 21
489.0448057993788
 31
0.0
  0
LINE
  5
6EDF
330
1E
100
AcDbEntity
  8
図枠
  6
Continuous
 62
     7
100
AcDbLine
 10
1706.522957269356
 20
429.0448057993789
 30
0.0
 11
1497.522957269357
 21
429.0448057993789
 31
0.0
  0
LINE
  5
6EE0
330
1E
100
AcDbEntity
  8
図枠
  6
Continuous
 62
     7
100
AcDbLine
 10
1706.522957269356
 20
441.0448057993788
 30
0.0
 11
1497.522957269357
 21
441.0448057993788
 31
0.0
  0
LINE
  5
6EE1
330
1E
100
AcDbEntity
  8
図枠
  6
Continuous
 62
     7
100
AcDbLine
 10
1706.522957269356
 20
453.0448057993788
 30
0.0
 11
1497.522957269357
 21
453.0448057993788
 31
0.0
  0
LINE
  5
6EE2
330
1E
100
AcDbEntity
  8
図枠
  6
Continuous
 62
     7
100
AcDbLine
 10
1706.522957269356
 20
597.0448057993787
 30
0.0
 11
1497.522957269357
 21
597.0448057993787
 31
0.0
  0
LINE
  5
6EE3
330
1E
100
AcDbEntity
  8
図枠
  6
Continuous
 62
     7
100
AcDbLine
 10
1706.522957269356
 20
417.0448057993787
 30
0.0
 11
1497.522957269357
 21
417.0448057993787
 31
0.0
  0
LINE
  5
6EE4
330
1E
100
AcDbEntity
  8
図枠
  6
Continuous
 62
     7
100
AcDbLine
 10
1497.522957269357
 20
417.0448057993787
 30
0.0
 11
1497.522957269357
 21
597.0448057993787
 31
0.0
  0
TEXT
  5
6EE5
330
1E
100
AcDbEntity
  8
図枠
 62
     7
100
AcDbText
 10
1501.272957269357
 20
432.0448057993788
 30
0.0
 40
5.0
  1
13
100
AcDbText
  0
TEXT
  5
6EE6
330
1E
100
AcDbEntity
  8
図枠
 62
     7
100
AcDbText
 10
1501.272957269357
 20
444.0448057993788
 30
0.0
 40
5.0
  1
12
100
AcDbText
  0
TEXT
  5
6EE7
330
1E
100
AcDbEntity
  8
図枠
 62
     7
100
AcDbText
 10
1501.272957269357
 20
456.0448057993789
 30
0.0
 40
5.0
  1
11
100
AcDbText
  0
TEXT
  5
6EE8
330
1E
100
AcDbEntity
  8
図枠
 62
     7
100
AcDbText
 10
1501.272957269357
 20
468.0448057993788
 30
0.0
 40
5.0
  1
10
100
AcDbText
  0
TEXT
  5
6EE9
330
1E
100
AcDbEntity
  8
図枠
 62
     7
100
AcDbText
 10
1501.272957269357
 20
480.0448057993788
 30
0.0
 40
5.0
  1
 9
100
AcDbText
  0
TEXT
  5
6EEA
330
1E
100
AcDbEntity
  8
図枠
 62
     7
100
AcDbText
 10
1501.272957269357
 20
492.0448057993787
 30
0.0
 40
5.0
  1
 8
100
AcDbText
  0
TEXT
  5
6EEB
330
1E
100
AcDbEntity
  8
図枠
 62
     7
100
AcDbText
 10
1501.272957269357
 20
504.0448057993789
 30
0.0
 40
5.0
  1
 7
100
AcDbText
  0
TEXT
  5
6EEC
330
1E
100
AcDbEntity
  8
図枠
 62
     7
100
AcDbText
 10
1501.272957269357
 20
516.0448057993788
 30
0.0
 40
5.0
  1
 6
100
AcDbText
  0
TEXT
  5
6EED
330
1E
100
AcDbEntity
  8
図枠
 62
     7
100
AcDbText
 10
1501.272957269357
 20
528.044805799379
 30
0.0
 40
5.0
  1
 5
100
AcDbText
  0
TEXT
  5
6EEE
330
1E
100
AcDbEntity
  8
図枠
 62
     7
100
AcDbText
 10
1501.272957269357
 20
540.0448057993787
 30
0.0
 40
5.0
  1
 4
100
AcDbText
  0
TEXT
  5
6EEF
330
1E
100
AcDbEntity
  8
図枠
 62
     7
100
AcDbText
 10
1501.272957269357
 20
552.0448057993787
 30
0.0
 40
5.0
  1
 3
100
AcDbText
  0
TEXT
  5
6EF0
330
1E
100
AcDbEntity
  8
図枠
 62
     7
100
AcDbText
 10
1501.272957269357
 20
564.0448057993787
 30
0.0
 40
5.0
  1
 2
100
AcDbText
  0
TEXT
  5
6EF1
330
1E
100
AcDbEntity
  8
図枠
 62
     7
100
AcDbText
 10
1501.522957269357
 20
420.0448057993788
 30
0.0
 40
5.0
  1
※
100
AcDbText
  0
TEXT
  5
6EF2
330
1E
100
AcDbEntity
  8
図枠
 62
     7
100
AcDbText
 10
1718.272957269357
 20
480.0448057993788
 30
0.0
 40
5.0
  1
2100
100
AcDbText
  0
TEXT
  5
6EF3
330
1E
100
AcDbEntity
  8
図枠
 62
     7
100
AcDbText
 10
1718.272957269357
 20
492.0448057993787
 30
0.0
 40
5.0
  1
2060
100
AcDbText
  0
TEXT
  5
6EF4
330
1E
100
AcDbEntity
  8
図枠
 62
     7
100
AcDbText
 10
1718.272957269357
 20
552.0448057993787
 30
0.0
 40
5.0
  1
2010
100
AcDbText
  0
TEXT
  5
6EF5
330
1E
100
AcDbEntity
  8
図枠
 62
     7
100
AcDbText
 10
1718.272957269357
 20
564.0448057993787
 30
0.0
 40
5.0
  1
2000
100
AcDbText
  0
TEXT
  5
6EF6
330
1E
100
AcDbEntity
  8
図枠
 62
     7
100
AcDbText
 10
1718.272957269357
 20
576.0448057993787
 30
0.0
 40
5.0
  1
2000
100
AcDbText
  0
TEXT
  5
6EF7
330
1E
100
AcDbEntity
  8
図枠
 62
     7
100
AcDbText
 10
1711.272957269357
 20
588.0448057993787
 30
0.0
 40
5.0
  1
定尺(mm)
100
AcDbText
  0
TEXT
  5
6EF8
330
1E
100
AcDbEntity
  8
図枠
 62
     7
100
AcDbText
 10
1718.272957269357
 20
420.0448057993788
 30
0.0
 40
5.0
  1
6000
100
AcDbText
  0
TEXT
  5
6EF9
330
1E
100
AcDbEntity
  8
図枠
 62
     7
100
AcDbText
 10
1748.272957269357
 20
432.0448057993788
 30
0.0
 40
5.0
  1
10
100
AcDbText
  0
TEXT
  5
6EFA
330
1E
100
AcDbEntity
  8
図枠
 62
     7
100
AcDbText
 10
1748.272957269357
 20
444.0448057993788
 30
0.0
 40
5.0
  1
10
100
AcDbText
  0
TEXT
  5
6EFB
330
1E
100
AcDbEntity
  8
図枠
 62
     7
100
AcDbText
 10
1748.272957269357
 20
480.0448057993788
 30
0.0
 40
5.0
  1
 1
100
AcDbText
  0
TEXT
  5
6EFC
330
1E
100
AcDbEntity
  8
図枠
 62
     7
100
AcDbText
 10
1748.272957269357
 20
492.0448057993787
 30
0.0
 40
5.0
  1
 2
100
AcDbText
  0
TEXT
  5
6EFD
330
1E
100
AcDbEntity
  8
図枠
 62
     7
100
AcDbText
 10
1748.272957269357
 20
504.0448057993789
 30
0.0
 40
5.0
  1
 1
100
AcDbText
  0
TEXT
  5
6EFE
330
1E
100
AcDbEntity
  8
図枠
 62
     7
100
AcDbText
 10
1748.272957269357
 20
516.0448057993788
 30
0.0
 40
5.0
  1
 8
100
AcDbText
  0
TEXT
  5
6EFF
330
1E
100
AcDbEntity
  8
図枠
 62
     7
100
AcDbText
 10
1748.272957269357
 20
528.044805799379
 30
0.0
 40
5.0
  1
 8
100
AcDbText
  0
TEXT
  5
6F00
330
1E
100
AcDbEntity
  8
図枠
 62
     7
100
AcDbText
 10
1748.272957269357
 20
540.0448057993787
 30
0.0
 40
5.0
  1
 4
100
AcDbText
  0
TEXT
  5
6F01
330
1E
100
AcDbEntity
  8
図枠
 62
     7
100
AcDbText
 10
1748.272957269357
 20
552.0448057993787
 30
0.0
 40
5.0
  1
 2
100
AcDbText
  0
TEXT
  5
6F02
330
1E
100
AcDbEntity
  8
図枠
 62
     7
100
AcDbText
 10
1748.272957269357
 20
564.0448057993787
 30
0.0
 40
5.0
  1
 2
100
AcDbText
  0
TEXT
  5
6F03
330
1E
100
AcDbEntity
  8
図枠
 62
     7
100
AcDbText
 10
1748.272957269357
 20
576.0448057993787
 30
0.0
 40
5.0
  1
 1
100
AcDbText
  0
TEXT
  5
6F04
330
1E
100
AcDbEntity
  8
図枠
 62
     7
100
AcDbText
 10
1745.022957269357
 20
588.0448057993787
 30
0.0
 40
5.0
  1
入数
100
AcDbText
  0
TEXT
  5
6F05
330
1E
100
AcDbEntity
  8
図枠
 62
     7
100
AcDbText
 10
1748.272957269357
 20
420.0448057993788
 30
0.0
 40
5.0
  1
 1
100
AcDbText
  0
TEXT
  5
6F06
330
1E
100
AcDbEntity
  8
図枠
 62
     7
100
AcDbText
 10
1748.272957269357
 20
456.0448057993789
 30
0.0
 40
5.0
  1
10
100
AcDbText
  0
TEXT
  5
6F07
330
1E
100
AcDbEntity
  8
図枠
 62
     7
100
AcDbText
 10
1748.272957269357
 20
468.0448057993788
 30
0.0
 40
5.0
  1
10
100
AcDbText
  0
TEXT
  5
6F08
330
1E
100
AcDbEntity
  8
図枠
 62
     7
100
AcDbText
 10
1501.272957269357
 20
576.0448057993787
 30
0.0
 40
5.0
  1
 1
100
AcDbText
  0
TEXT
  5
6F09
330
1E
100
AcDbEntity
  8
図枠
 62
     7
100
AcDbText
 10
1499.522957269357
 20
588.0448057993787
 30
0.0
 40
5.0
  1
No.
100
AcDbText
  0
LINE
  5
6F0A
330
1E
100
AcDbEntity
  8
図枠
  6
Continuous
 62
     7
100
AcDbLine
 10
1929.522957269357
 20
597.0448057993787
 30
0.0
 11
1929.522957269357
 21
477.0448057993789
 31
0.0
  0
LINE
  5
6F0B
330
1E
100
AcDbEntity
  8
図枠
  6
Continuous
 62
     7
100
AcDbLine
 10
1869.522957269357
 20
597.0448057993787
 30
0.0
 11
1869.522957269357
 21
477.0448057993789
 31
0.0
  0
LINE
  5
6F0C
330
1E
100
AcDbEntity
  8
図枠
  6
Continuous
 62
     7
100
AcDbLine
 10
1899.522957269357
 20
597.0448057993787
 30
0.0
 11
1899.522957269357
 21
477.0448057993789
 31
0.0
  0
LINE
  5
6F0D
330
1E
100
AcDbEntity
  8
図枠
  6
Continuous
 62
     7
100
AcDbLine
 10
1794.522957269357
 20
597.0448057993787
 30
0.0
 11
1794.522957269357
 21
477.0448057993789
 31
0.0
  0
LINE
  5
6F0E
330
1E
100
AcDbEntity
  8
図枠
  6
Continuous
 62
     7
100
AcDbLine
 10
1929.522957269357
 20
597.0448057993787
 30
0.0
 11
1794.522957269357
 21
597.0448057993787
 31
0.0
  0
LINE
  5
6F0F
330
1E
100
AcDbEntity
  8
図枠
  6
Continuous
 62
     7
100
AcDbLine
 10
1929.522957269357
 20
477.0448057993789
 30
0.0
 11
1794.522957269357
 21
477.0448057993789
 31
0.0
  0
LINE
  5
6F10
330
1E
100
AcDbEntity
  8
図枠
  6
Continuous
 62
     7
100
AcDbLine
 10
1929.522957269357
 20
585.0448057993787
 30
0.0
 11
1794.522957269357
 21
585.0448057993787
 31
0.0
  0
LINE
  5
6F11
330
1E
100
AcDbEntity
  8
図枠
  6
Continuous
 62
     7
100
AcDbLine
 10
1929.522957269357
 20
573.0448057993787
 30
0.0
 11
1794.522957269357
 21
573.0448057993787
 31
0.0
  0
LINE
  5
6F12
330
1E
100
AcDbEntity
  8
図枠
  6
Continuous
 62
     7
100
AcDbLine
 10
1929.522957269357
 20
561.0448057993787
 30
0.0
 11
1794.522957269357
 21
561.0448057993787
 31
0.0
  0
LINE
  5
6F13
330
1E
100
AcDbEntity
  8
図枠
  6
Continuous
 62
     7
100
AcDbLine
 10
1929.522957269357
 20
549.0448057993787
 30
0.0
 11
1794.522957269357
 21
549.0448057993787
 31
0.0
  0
LINE
  5
6F14
330
1E
100
AcDbEntity
  8
図枠
  6
Continuous
 62
     7
100
AcDbLine
 10
1929.522957269357
 20
537.0448057993788
 30
0.0
 11
1794.522957269357
 21
537.0448057993788
 31
0.0
  0
LINE
  5
6F15
330
1E
100
AcDbEntity
  8
図枠
  6
Continuous
 62
     7
100
AcDbLine
 10
1929.522957269357
 20
525.0448057993787
 30
0.0
 11
1794.522957269357
 21
525.0448057993787
 31
0.0
  0
LINE
  5
6F16
330
1E
100
AcDbEntity
  8
図枠
  6
Continuous
 62
     7
100
AcDbLine
 10
1929.522957269357
 20
513.0448057993787
 30
0.0
 11
1794.522957269357
 21
513.0448057993787
 31
0.0
  0
LINE
  5
6F17
330
1E
100
AcDbEntity
  8
図枠
  6
Continuous
 62
     7
100
AcDbLine
 10
1929.522957269357
 20
501.0448057993788
 30
0.0
 11
1794.522957269357
 21
501.0448057993788
 31
0.0
  0
LINE
  5
6F18
330
1E
100
AcDbEntity
  8
図枠
  6
Continuous
 62
     7
100
AcDbLine
 10
1929.522957269357
 20
489.0448057993788
 30
0.0
 11
1794.522957269357
 21
489.0448057993788
 31
0.0
  0
TEXT
  5
6F19
330
1E
100
AcDbEntity
  8
図枠
 62
     7
100
AcDbText
 10
1804.272957269357
 20
480.0448057993788
 30
0.0
 40
5.0
  1
 　　〃　　　900
100
AcDbText
  0
TEXT
  5
6F1A
330
1E
100
AcDbEntity
  8
図枠
 62
     7
100
AcDbText
 10
1804.272957269357
 20
492.0448057993787
 30
0.0
 40
5.0
  1
 　　〃　　　850
100
AcDbText
  0
TEXT
  5
6F1B
330
1E
100
AcDbEntity
  8
図枠
 62
     7
100
AcDbText
 10
1804.272957269357
 20
504.0448057993789
 30
0.0
 40
5.0
  1
 　　〃　　　800
100
AcDbText
  0
TEXT
  5
6F1C
330
1E
100
AcDbEntity
  8
図枠
 62
     7
100
AcDbText
 10
1804.272957269357
 20
516.0448057993788
 30
0.0
 40
5.0
  1
 　　〃　　　750
100
AcDbText
  0
TEXT
  5
6F1D
330
1E
100
AcDbEntity
  8
図枠
 62
     7
100
AcDbText
 10
1804.272957269357
 20
528.044805799379
 30
0.0
 40
5.0
  1
 　　〃　　　700
100
AcDbText
  0
TEXT
  5
6F1E
330
1E
100
AcDbEntity
  8
図枠
 62
     7
100
AcDbText
 10
1804.272957269357
 20
540.0448057993787
 30
0.0
 40
5.0
  1
 　　〃　　　650
100
AcDbText
  0
TEXT
  5
6F1F
330
1E
100
AcDbEntity
  8
図枠
 62
     7
100
AcDbText
 10
1804.272957269357
 20
552.0448057993787
 30
0.0
 40
5.0
  1
 　　〃　　　600
100
AcDbText
  0
TEXT
  5
6F20
330
1E
100
AcDbEntity
  8
図枠
 62
     7
100
AcDbText
 10
1804.272957269357
 20
564.0448057993787
 30
0.0
 40
5.0
  1
 　　〃　　　550
100
AcDbText
  0
TEXT
  5
6F21
330
1E
100
AcDbEntity
  8
図枠
 62
     7
100
AcDbText
 10
1879.522957269357
 20
564.0448057993787
 30
0.0
 40
5.0
  1
550
100
AcDbText
  0
TEXT
  5
6F22
330
1E
100
AcDbEntity
  8
図枠
 62
     7
100
AcDbText
 10
1879.522957269357
 20
552.0448057993787
 30
0.0
 40
5.0
  1
600
100
AcDbText
  0
TEXT
  5
6F23
330
1E
100
AcDbEntity
  8
図枠
 62
     7
100
AcDbText
 10
1879.522957269357
 20
540.0448057993787
 30
0.0
 40
5.0
  1
650
100
AcDbText
  0
TEXT
  5
6F24
330
1E
100
AcDbEntity
  8
図枠
 62
     7
100
AcDbText
 10
1879.522957269357
 20
528.044805799379
 30
0.0
 40
5.0
  1
700
100
AcDbText
  0
TEXT
  5
6F25
330
1E
100
AcDbEntity
  8
図枠
 62
     7
100
AcDbText
 10
1879.522957269357
 20
516.0448057993788
 30
0.0
 40
5.0
  1
750
100
AcDbText
  0
TEXT
  5
6F26
330
1E
100
AcDbEntity
  8
図枠
 62
     7
100
AcDbText
 10
1879.522957269357
 20
504.0448057993789
 30
0.0
 40
5.0
  1
800
100
AcDbText
  0
TEXT
  5
6F27
330
1E
100
AcDbEntity
  8
図枠
 62
     7
100
AcDbText
 10
1879.522957269357
 20
492.0448057993787
 30
0.0
 40
5.0
  1
850
100
AcDbText
  0
TEXT
  5
6F28
330
1E
100
AcDbEntity
  8
図枠
 62
     7
100
AcDbText
 10
1879.522957269357
 20
480.0448057993788
 30
0.0
 40
5.0
  1
900
100
AcDbText
  0
TEXT
  5
6F29
330
1E
100
AcDbEntity
  8
図枠
 62
     7
100
AcDbText
 10
1879.522957269357
 20
576.0448057993787
 30
0.0
 40
5.0
  1
500
100
AcDbText
  0
TEXT
  5
6F2A
330
1E
100
AcDbEntity
  8
図枠
 62
     7
100
AcDbText
 10
1817.522956769357
 20
588.0448057993787
 30
0.0
 40
5.0
  1
タ　イ　プ
100
AcDbText
  0
TEXT
  5
6F2B
330
1E
100
AcDbEntity
  8
図枠
 62
     7
100
AcDbText
 10
1881.522957269357
 20
588.0448057993787
 30
0.0
 40
5.0
  1
Ｗ
100
AcDbText
  0
TEXT
  5
6F2C
330
1E
100
AcDbEntity
  8
図枠
 62
     7
100
AcDbText
 10
1911.522957269357
 20
588.0448057993787
 30
0.0
 40
5.0
  1
Ｃ
100
AcDbText
  0
TEXT
  5
6F2D
330
1E
100
AcDbEntity
  8
図枠
 62
     7
100
AcDbText
 10
1909.522957269357
 20
576.0448057993787
 30
0.0
 40
5.0
  1
100
100
AcDbText
  0
TEXT
  5
6F2E
330
1E
100
AcDbEntity
  8
図枠
 62
     7
100
AcDbText
 10
1909.522957269357
 20
564.0448057993787
 30
0.0
 40
5.0
  1
125
100
AcDbText
  0
TEXT
  5
6F2F
330
1E
100
AcDbEntity
  8
図枠
 62
     7
100
AcDbText
 10
1909.522957269357
 20
552.0448057993787
 30
0.0
 40
5.0
  1
150
100
AcDbText
  0
TEXT
  5
6F30
330
1E
100
AcDbEntity
  8
図枠
 62
     7
100
AcDbText
 10
1909.522957269357
 20
540.0448057993787
 30
0.0
 40
5.0
  1
175
100
AcDbText
  0
TEXT
  5
6F31
330
1E
100
AcDbEntity
  8
図枠
 62
     7
100
AcDbText
 10
1909.522957269357
 20
528.044805799379
 30
0.0
 40
5.0
  1
200
100
AcDbText
  0
TEXT
  5
6F32
330
1E
100
AcDbEntity
  8
図枠
 62
     7
100
AcDbText
 10
1909.522957269357
 20
516.0448057993788
 30
0.0
 40
5.0
  1
225
100
AcDbText
  0
TEXT
  5
6F33
330
1E
100
AcDbEntity
  8
図枠
 62
     7
100
AcDbText
 10
1909.522957269357
 20
504.0448057993789
 30
0.0
 40
5.0
  1
250
100
AcDbText
  0
TEXT
  5
6F34
330
1E
100
AcDbEntity
  8
図枠
 62
     7
100
AcDbText
 10
1909.522957269357
 20
492.0448057993787
 30
0.0
 40
5.0
  1
275
100
AcDbText
  0
TEXT
  5
6F35
330
1E
100
AcDbEntity
  8
図枠
 62
     7
100
AcDbText
 10
1909.522957269357
 20
480.0448057993788
 30
0.0
 40
5.0
  1
300
100
AcDbText
  0
TEXT
  5
6F36
330
1E
100
AcDbEntity
  8
図枠
 62
     7
100
AcDbText
 10
1804.272957269357
 20
576.0448057993787
 30
0.0
 40
5.0
  1
150ＦＹＹ－Ｓ500
100
AcDbText
  0
TEXT
  5
6F37
330
1E
100
AcDbEntity
  8
図枠
 62
     7
100
AcDbText
 10
1616.522957269357
 20
480.0448057993788
 30
0.0
 40
5.0
  1
ＦＳ400～700
100
AcDbText
  0
TEXT
  5
6F38
330
1E
100
AcDbEntity
  8
図枠
 62
     7
100
AcDbText
 10
1616.522957269357
 20
576.0448057993787
 30
0.0
 40
5.0
  1
150ＦＹＹ－Ｓ500～900
100
AcDbText
  0
TEXT
  5
6F39
330
1E
100
AcDbEntity
  8
図枠
 62
     7
100
AcDbText
 10
1616.522957269357
 20
540.0448057993787
 30
0.0
 40
5.0
  1
150ＦＹＹＨ－500～900
100
AcDbText
  0
TEXT
  5
6F3A
330
1E
100
AcDbEntity
  8
図枠
 62
     7
100
AcDbText
 10
1616.522957269357
 20
504.0448057993789
 30
0.0
 40
5.0
  1
150ＦＹＹＪ－500～900
100
AcDbText
  0
TEXT
  5
6F3B
330
1E
100
AcDbEntity
  8
図枠
 62
     7
100
AcDbText
 10
1625.022957269356
 20
837.7521381991764
 30
0.0
 40
5.0
  1
勾配３度
100
AcDbText
  0
LINE
  5
6F3C
330
1E
100
AcDbEntity
  8
躯体と製品
  6
Continuous
 62
     7
100
AcDbLine
 10
1639.519151967449
 20
771.1319615421266
 30
0.0
 11
1643.349875785924
 21
727.346587939513
 31
0.0
  0
LINE
  5
6F3D
330
1E
100
AcDbEntity
  8
躯体と製品
  6
Continuous
 62
     7
100
AcDbLine
 10
1640.51534666554
 20
771.2191172848738
 30
0.0
 11
1644.346070484016
 21
727.4337436822602
 31
0.0
  0
ARC
  5
6F3E
330
1E
100
AcDbEntity
  8
躯体と製品
  6
Continuous
 62
     7
100
AcDbCircle
 10
1638.522957269357
 20
771.0448057993785
 30
0.0
 40
1.0
100
AcDbArc
 50
4.999999999999459
 51
90.0
  0
ARC
  5
6F3F
330
1E
100
AcDbEntity
  8
躯体と製品
  6
Continuous
 62
     7
100
AcDbCircle
 10
1713.522957269357
 20
733.4859370539938
 30
0.0
 40
69.4411312546151
100
AcDbArc
 50
184.9999999999994
 51
355.0000000000006
  0
ARC
  5
6F40
330
1E
100
AcDbEntity
  8
躯体と製品
  6
Continuous
 62
     7
100
AcDbCircle
 10
1713.522957269357
 20
733.4859370539938
 30
0.0
 40
70.4411312546151
100
AcDbArc
 50
184.9999999999994
 51
355.0000000000006
  0
LINE
  5
6F41
330
1E
100
AcDbEntity
  8
躯体と製品
  6
Continuous
 62
     7
100
AcDbLine
 10
1786.530567873173
 20
771.2191172848738
 30
0.0
 11
1782.699844054697
 21
727.4337436822606
 31
0.0
  0
LINE
  5
6F42
330
1E
100
AcDbEntity
  8
躯体と製品
  6
Continuous
 62
     7
100
AcDbLine
 10
1787.526762571265
 20
771.1319615421266
 30
0.0
 11
1783.696038752789
 21
727.3465879395122
 31
0.0
  0
ARC
  5
6F43
330
1E
100
AcDbEntity
  8
躯体と製品
  6
Continuous
 62
     7
100
AcDbCircle
 10
1788.522957269357
 20
771.0448057993785
 30
0.0
 40
1.0
100
AcDbArc
 50
90.0
 51
175.0000000000005
  0
LINE
  5
6F69
330
1E
100
AcDbEntity
  8
躯体と製品
  6
Continuous
 62
     7
100
AcDbLine
 10
1888.522957269357
 20
773.0448057993785
 30
0.0
 11
1888.522957269357
 21
774.0448057993785
 31
0.0
  0
ARC
  5
6F6A
330
1E
100
AcDbEntity
  8
躯体と製品
  6
Continuous
 62
     7
100
AcDbCircle
 10
1903.522957269357
 20
764.7948057993785
 30
0.0
 40
8.25
100
AcDbArc
 50
71.07535558394559
 51
90.0
  0
ARC
  5
6F6B
330
1E
100
AcDbEntity
  8
躯体と製品
  6
Continuous
 62
     7
100
AcDbCircle
 10
1909.522957269357
 20
782.2948057993785
 30
0.0
 40
10.25
100
AcDbArc
 50
251.0753555839456
 51
270.0
  0
ARC
  5
6F6C
330
1E
100
AcDbEntity
  8
躯体と製品
  6
Continuous
 62
     7
100
AcDbCircle
 10
1873.522957269358
 20
764.7948057993785
 30
0.0
 40
8.25
100
AcDbArc
 50
90.0
 51
108.9246444160544
  0
ARC
  5
6F6D
330
1E
100
AcDbEntity
  8
躯体と製品
  6
Continuous
 62
     7
100
AcDbCircle
 10
1867.522957269357
 20
782.2948057993785
 30
0.0
 40
10.25
100
AcDbArc
 50
270.0
 51
288.9246444160544
  0
ARC
  5
6F6E
330
1E
100
AcDbEntity
  8
躯体と製品
  6
Continuous
 62
     7
100
AcDbCircle
 10
1873.522957269358
 20
764.7948057993785
 30
0.0
 40
9.25
100
AcDbArc
 50
90.0
 51
108.9246444160544
  0
LINE
  5
6F6F
330
1E
100
AcDbEntity
  8
躯体と製品
  6
Continuous
 62
     7
100
AcDbLine
 10
1903.522957269357
 20
774.0448057993785
 30
0.0
 11
1873.522957269358
 21
774.0448057993785
 31
0.0
  0
ARC
  5
6F70
330
1E
100
AcDbEntity
  8
躯体と製品
  6
Continuous
 62
     7
100
AcDbCircle
 10
1903.522957269357
 20
764.7948057993785
 30
0.0
 40
9.25
100
AcDbArc
 50
71.07535558394559
 51
90.0
  0
ARC
  5
6F71
330
1E
100
AcDbEntity
  8
躯体と製品
  6
Continuous
 62
     7
100
AcDbCircle
 10
1909.522957269357
 20
782.2948057993785
 30
0.0
 40
9.25
100
AcDbArc
 50
251.0753555839456
 51
270.0
  0
ARC
  5
6F72
330
1E
100
AcDbEntity
  8
躯体と製品
  6
Continuous
 62
     7
100
AcDbCircle
 10
1867.522957269357
 20
782.2948057993785
 30
0.0
 40
9.25
100
AcDbArc
 50
270.0
 51
288.9246444160544
  0
LINE
  5
6F73
330
1E
100
AcDbEntity
  8
躯体と製品
  6
Continuous
 62
     7
100
AcDbLine
 10
1538.522957269357
 20
773.0448057993785
 30
0.0
 11
1538.522957269357
 21
774.0448057993785
 31
0.0
  0
ARC
  5
6F74
330
1E
100
AcDbEntity
  8
躯体と製品
  6
Continuous
 62
     7
100
AcDbCircle
 10
1553.522957269357
 20
764.7948057993785
 30
0.0
 40
8.25
100
AcDbArc
 50
71.07535558394559
 51
90.0
  0
ARC
  5
6F75
330
1E
100
AcDbEntity
  8
躯体と製品
  6
Continuous
 62
     7
100
AcDbCircle
 10
1559.522957269357
 20
782.2948057993785
 30
0.0
 40
10.25
100
AcDbArc
 50
251.0753555839456
 51
270.0
  0
ARC
  5
6F76
330
1E
100
AcDbEntity
  8
躯体と製品
  6
Continuous
 62
     7
100
AcDbCircle
 10
1523.522957269357
 20
764.7948057993785
 30
0.0
 40
8.25
100
AcDbArc
 50
90.0
 51
108.9246444160544
  0
ARC
  5
6F77
330
1E
100
AcDbEntity
  8
躯体と製品
  6
Continuous
 62
     7
100
AcDbCircle
 10
1517.522957269357
 20
782.2948057993785
 30
0.0
 40
10.25
100
AcDbArc
 50
270.0
 51
288.9246444160544
  0
ARC
  5
6F78
330
1E
100
AcDbEntity
  8
躯体と製品
  6
Continuous
 62
     7
100
AcDbCircle
 10
1523.522957269357
 20
764.7948057993785
 30
0.0
 40
9.25
100
AcDbArc
 50
90.0
 51
108.9246444160544
  0
LINE
  5
6F79
330
1E
100
AcDbEntity
  8
躯体と製品
  6
Continuous
 62
     7
100
AcDbLine
 10
1553.522957269357
 20
774.0448057993785
 30
0.0
 11
1523.522957269357
 21
774.0448057993785
 31
0.0
  0
ARC
  5
6F7A
330
1E
100
AcDbEntity
  8
躯体と製品
  6
Continuous
 62
     7
100
AcDbCircle
 10
1553.522957269357
 20
764.7948057993785
 30
0.0
 40
9.25
100
AcDbArc
 50
71.07535558394559
 51
90.0
  0
ARC
  5
6F7B
330
1E
100
AcDbEntity
  8
躯体と製品
  6
Continuous
 62
     7
100
AcDbCircle
 10
1559.522957269357
 20
782.2948057993785
 30
0.0
 40
9.25
100
AcDbArc
 50
251.0753555839456
 51
270.0
  0
ARC
  5
6F7C
330
1E
100
AcDbEntity
  8
躯体と製品
  6
Continuous
 62
     7
100
AcDbCircle
 10
1517.522957269357
 20
782.2948057993785
 30
0.0
 40
9.25
100
AcDbArc
 50
270.0
 51
288.9246444160544
  0
ARC
  5
6F7D
330
1E
100
AcDbEntity
  8
躯体と製品
  6
Continuous
 62
     7
100
AcDbCircle
 10
1488.551517043256
 20
771.045213712918
 30
0.0
 40
2.0
100
AcDbArc
 50
91.15721505311539
 51
175.0000000000005
  0
LINE
  5
6F7E
330
1E
100
AcDbEntity
  8
躯体と製品
  6
Continuous
 62
     7
100
AcDbLine
 10
1517.522957269357
 20
773.0448057993785
 30
0.0
 11
1488.511125363871
 21
773.0448057993787
 31
0.0
  0
LINE
  5
6F7F
330
1E
100
AcDbEntity
  8
躯体と製品
  6
Continuous
 62
     7
100
AcDbLine
 10
1559.522957269357
 20
773.0448057993785
 30
0.0
 11
1638.522957269357
 21
773.0448057993785
 31
0.0
  0
ARC
  5
6F80
330
1E
100
AcDbEntity
  8
躯体と製品
  6
Continuous
 62
     7
100
AcDbCircle
 10
1638.522957269357
 20
771.0448057993785
 30
0.0
 40
2.0
100
AcDbArc
 50
4.999999999999459
 51
90.0
  0
ARC
  5
6F81
330
1E
100
AcDbEntity
  8
躯体と製品
  6
Continuous
 62
     7
100
AcDbCircle
 10
1788.522957269357
 20
771.0448057993785
 30
0.0
 40
2.0
100
AcDbArc
 50
90.0
 51
175.0000000000005
  0
LINE
  5
6F82
330
1E
100
AcDbEntity
  8
躯体と製品
  6
Continuous
 62
     7
100
AcDbLine
 10
1867.522957269357
 20
773.0448057993785
 30
0.0
 11
1788.522957269357
 21
773.0448057993787
 31
0.0
  0
LINE
  5
6F83
330
1E
100
AcDbEntity
  8
躯体と製品
  6
Continuous
 62
     7
100
AcDbLine
 10
1909.522957269357
 20
773.0448057993785
 30
0.0
 11
1938.534789174845
 21
773.0448057993785
 31
0.0
  0
ARC
  5
6F84
330
1E
100
AcDbEntity
  8
躯体と製品
  6
Continuous
 62
     7
100
AcDbCircle
 10
1938.494397495458
 20
771.045213712918
 30
0.0
 40
2.0
100
AcDbArc
 50
4.999999999999459
 51
88.84278494683243
  0
TEXT
  5
6F85
330
1E
100
AcDbEntity
  8
図枠
 62
     7
100
AcDbText
 10
1888.522957269357
 20
597.6374177772338
 30
0.0
 40
5.0
  1
（単位：mm）
100
AcDbText
  0
LINE
  5
6F86
330
1E
100
AcDbEntity
  8
躯体と製品
  6
Continuous
 62
     7
100
AcDbLine
 10
1879.522957269357
 20
778.0448057993785
 30
0.0
 11
1897.522957269357
 21
778.0448057993785
 31
0.0
  0
LINE
  5
6F87
330
1E
100
AcDbEntity
  8
躯体と製品
  6
Continuous
 62
     7
100
AcDbLine
 10
1897.522957269357
 20
778.0448057993785
 30
0.0
 11
1897.522957269357
 21
776.5448057993785
 31
0.0
  0
LINE
  5
6F88
330
1E
100
AcDbEntity
  8
躯体と製品
  6
Continuous
 62
     7
100
AcDbLine
 10
1879.522957269357
 20
778.0448057993785
 30
0.0
 11
1879.522957269357
 21
776.5448057993785
 31
0.0
  0
ARC
  5
6F89
330
1E
100
AcDbEntity
  8
躯体と製品
  6
Continuous
 62
     7
100
AcDbCircle
 10
1888.522957269357
 20
773.4336527598229
 30
0.0
 40
9.553418012635715
100
AcDbArc
 50
72.41204622604974
 51
107.5879537739502
  0
ARC
  5
6F8A
330
1E
100
AcDbEntity
  8
躯体と製品
  6
Continuous
 62
     7
100
AcDbCircle
 10
1884.192830250435
 20
780.4312480240306
 30
0.0
 40
2.555822748428199
100
AcDbArc
 50
55.61575253203897
 51
124.384247467961
  0
ARC
  5
6F8B
330
1E
100
AcDbEntity
  8
躯体と製品
  6
Continuous
 62
     7
100
AcDbCircle
 10
1892.853084288279
 20
780.4312480240306
 30
0.0
 40
2.555822748428199
100
AcDbArc
 50
55.61575253203897
 51
124.384247467961
  0
LINE
  5
6F8C
330
1E
100
AcDbEntity
  8
躯体と製品
  6
Continuous
 62
     7
100
AcDbLine
 10
1882.749454577461
 20
782.5404887850745
 30
0.0
 11
1882.749454577461
 21
778.0448057993785
 31
0.0
  0
LINE
  5
6F8D
330
1E
100
AcDbEntity
  8
躯体と製品
  6
Continuous
 62
     7
100
AcDbLine
 10
1883.622957269357
 20
783.0448057993785
 30
0.0
 11
1882.749454577461
 21
782.5404887850745
 31
0.0
  0
LINE
  5
6F8E
330
1E
100
AcDbEntity
  8
躯体と製品
  6
Continuous
 62
     7
100
AcDbLine
 10
1883.622957269357
 20
783.0448057993785
 30
0.0
 11
1893.422957269357
 21
783.0448057993785
 31
0.0
  0
LINE
  5
6F8F
330
1E
100
AcDbEntity
  8
躯体と製品
  6
Continuous
 62
     7
100
AcDbLine
 10
1893.422957269357
 20
783.0448057993785
 30
0.0
 11
1894.296459961253
 21
782.5404887850745
 31
0.0
  0
LINE
  5
6F90
330
1E
100
AcDbEntity
  8
躯体と製品
  6
Continuous
 62
     7
100
AcDbLine
 10
1885.636205923409
 20
782.5404887850745
 30
0.0
 11
1885.636205923409
 21
778.0448057993785
 31
0.0
  0
LINE
  5
6F91
330
1E
100
AcDbEntity
  8
躯体と製品
  6
Continuous
 62
     7
100
AcDbLine
 10
1891.409708615305
 20
782.5404887850745
 30
0.0
 11
1891.409708615305
 21
778.0448057993785
 31
0.0
  0
LINE
  5
6F92
330
1E
100
AcDbEntity
  8
躯体と製品
  6
Continuous
 62
     7
100
AcDbLine
 10
1894.296459961253
 20
782.5404887850745
 30
0.0
 11
1894.296459961253
 21
778.0448057993785
 31
0.0
  0
CIRCLE
  5
6F93
330
1E
100
AcDbEntity
  8
図枠
  6
Continuous
 62
     4
100
AcDbCircle
 10
1938.496298008117
 20
805.6429998994833
 30
0.0
 40
0.9
  0
CIRCLE
  5
6F94
330
1E
100
AcDbEntity
  8
図枠
  6
Continuous
 62
     4
100
AcDbCircle
 10
1890.577402306789
 20
807.5079754866465
 30
0.0
 40
0.9
  0
CIRCLE
  5
6F95
330
1E
100
AcDbEntity
  8
図枠
  6
Continuous
 62
     4
100
AcDbCircle
 10
1886.396946293355
 20
746.9621444012321
 30
0.0
 40
0.9
  0
CIRCLE
  5
6F96
330
1E
100
AcDbEntity
  8
図枠
  6
Continuous
 62
     4
100
AcDbCircle
 10
1906.126786297746
 20
810.2302281300776
 30
0.0
 40
0.9
  0
CIRCLE
  5
6F97
330
1E
100
AcDbEntity
  8
図枠
  6
Continuous
 62
     4
100
AcDbCircle
 10
1892.860368098052
 20
780.1453779466371
 30
0.0
 40
0.9
  0
CIRCLE
  5
6F98
330
1E
100
AcDbEntity
  8
図枠
  6
Continuous
 62
     4
100
AcDbCircle
 10
1898.7004399975
 20
787.5334207109994
 30
0.0
 40
0.9
  0
CIRCLE
  5
6F99
330
1E
100
AcDbEntity
  8
図枠
  6
Continuous
 62
     4
100
AcDbCircle
 10
1955.421613119727
 20
834.9585056069049
 30
0.0
 40
6.0
  0
LINE
  5
6F9A
330
1E
100
AcDbEntity
  8
図枠
  6
Continuous
 62
     4
100
AcDbLine
 10
1938.496298008117
 20
805.6429998994833
 30
0.0
 11
1952.421613119727
 21
829.7623531841985
 31
0.0
  0
CIRCLE
  5
6F9B
330
1E
100
AcDbEntity
  8
図枠
  6
Continuous
 62
     4
100
AcDbCircle
 10
1906.044648853535
 20
785.7961427853345
 30
0.0
 40
0.9
  0
CIRCLE
  5
6F9C
330
1E
100
AcDbEntity
  8
図枠
  6
Continuous
 62
     4
100
AcDbCircle
 10
1933.857703108986
 20
833.9697658694435
 30
0.0
 40
6.0
  0
LINE
  5
6F9D
330
1E
100
AcDbEntity
  8
図枠
  6
Continuous
 62
     4
100
AcDbLine
 10
1906.044648853535
 20
785.7961427853345
 30
0.0
 11
1930.857703108985
 21
828.7736134467367
 31
0.0
  0
CIRCLE
  5
6F9E
330
1E
100
AcDbEntity
  8
図枠
  6
Continuous
 62
     4
100
AcDbCircle
 10
1927.413876070122
 20
847.1005491611128
 30
0.0
 40
6.0
  0
LINE
  5
6F9F
330
1E
100
AcDbEntity
  8
図枠
  6
Continuous
 62
     4
100
AcDbLine
 10
1906.126786297746
 20
810.2302281300776
 30
0.0
 11
1924.413876070122
 21
841.9043967384062
 31
0.0
  0
CIRCLE
  5
6FA0
330
1E
100
AcDbEntity
  8
図枠
  6
Continuous
 62
     4
100
AcDbCircle
 10
1911.402934845821
 20
843.5788559389289
 30
0.0
 40
6.0
  0
LINE
  5
6FA1
330
1E
100
AcDbEntity
  8
図枠
  6
Continuous
 62
     4
100
AcDbLine
 10
1890.577402306789
 20
807.5079754866465
 30
0.0
 11
1908.402934845821
 21
838.3827035162221
 31
0.0
  0
CIRCLE
  5
6FA2
330
1E
100
AcDbEntity
  8
図枠
  6
Continuous
 62
     4
100
AcDbCircle
 10
1913.482126129269
 20
761.9307893092402
 30
0.0
 40
6.0
  0
LINE
  5
6FA3
330
1E
100
AcDbEntity
  8
図枠
  6
Continuous
 62
     4
100
AcDbLine
 10
1898.7004399975
 20
787.5334207109994
 30
0.0
 11
1910.482126129269
 21
767.1269417319467
 31
0.0
  0
CIRCLE
  5
6FA4
330
1E
100
AcDbEntity
  8
図枠
  6
Continuous
 62
     4
100
AcDbCircle
 10
1912.282753762909
 20
746.5048191709082
 30
0.0
 40
6.0
  0
LINE
  5
6FA5
330
1E
100
AcDbEntity
  8
図枠
  6
Continuous
 62
     4
100
AcDbLine
 10
1892.860368098052
 20
780.1453779466371
 30
0.0
 11
1909.282753762909
 21
751.7009715936147
 31
0.0
  0
CIRCLE
  5
6FA6
330
1E
100
AcDbEntity
  8
図枠
  6
Continuous
 62
     4
100
AcDbCircle
 10
1873.355332098608
 20
724.3734060032196
 30
0.0
 40
6.0
  0
LINE
  5
6FA7
330
1E
100
AcDbEntity
  8
図枠
  6
Continuous
 62
     4
100
AcDbLine
 10
1886.396946293355
 20
746.9621444012321
 30
0.0
 11
1876.355332098608
 21
729.5695584259261
 31
0.0
  0
CIRCLE
  5
6FA8
330
1E
100
AcDbEntity
  8
図枠
  6
Continuous
 62
     4
100
AcDbCircle
 10
1881.401205516336
 20
777.2809627319561
 30
0.0
 40
0.9
  0
CIRCLE
  5
6FA9
330
1E
100
AcDbEntity
  8
図枠
  6
Continuous
 62
     4
100
AcDbCircle
 10
1868.703951884456
 20
755.288674324953
 30
0.0
 40
6.0
  0
LINE
  5
6FAA
330
1E
100
AcDbEntity
  8
図枠
  6
Continuous
 62
     4
100
AcDbLine
 10
1881.401205516336
 20
777.2809627319561
 30
0.0
 11
1871.703951884456
 21
760.4848267476594
 31
0.0
  0
TEXT
  5
6FAB
330
1E
100
AcDbEntity
  8
図枠
 62
     7
100
AcDbText
 10
1924.413876070122
 20
844.1005491611129
 30
0.0
 40
5.0
  1
５
100
AcDbText
  0
TEXT
  5
6FAC
330
1E
100
AcDbEntity
  8
図枠
 62
     7
100
AcDbText
 10
1908.152934845821
 20
840.5788559389289
 30
0.0
 40
5.0
  1
10
100
AcDbText
  0
TEXT
  5
6FAD
330
1E
100
AcDbEntity
  8
図枠
 62
     7
100
AcDbText
 10
1952.421613119727
 20
831.9585056069051
 30
0.0
 40
5.0
  1
４
100
AcDbText
  0
TEXT
  5
6FAE
330
1E
100
AcDbEntity
  8
図枠
 62
     7
100
AcDbText
 10
1930.857703108985
 20
830.9697658694433
 30
0.0
 40
5.0
  1
２
100
AcDbText
  0
TEXT
  5
6FAF
330
1E
100
AcDbEntity
  8
図枠
 62
     7
100
AcDbText
 10
1910.482126129269
 20
758.9307893092402
 30
0.0
 40
5.0
  1
６
100
AcDbText
  0
TEXT
  5
6FB0
330
1E
100
AcDbEntity
  8
図枠
 62
     7
100
AcDbText
 10
1865.453951884456
 20
752.288674324953
 30
0.0
 40
5.0
  1
13
100
AcDbText
  0
TEXT
  5
6FB1
330
1E
100
AcDbEntity
  8
図枠
 62
     7
100
AcDbText
 10
1909.032753762909
 20
743.5048191709082
 30
0.0
 40
5.0
  1
11
100
AcDbText
  0
TEXT
  5
6FB2
330
1E
100
AcDbEntity
  8
図枠
 62
     7
100
AcDbText
 10
1870.105332098608
 20
721.3734060032194
 30
0.0
 40
5.0
  1
12
100
AcDbText
  0
CIRCLE
  5
6FB3
330
1E
100
AcDbEntity
  8
図枠
  6
Continuous
 62
     4
100
AcDbCircle
 10
1996.945667451336
 20
801.634431701601
 30
0.0
 40
0.9
  0
LINE
  5
6FB4
330
1E
100
AcDbEntity
  8
図枠
  6
Continuous
 62
     4
100
AcDbLine
 10
1996.945667451336
 20
801.634431701601
 30
0.0
 11
2020.582148594738
 21
842.5740179541167
 31
0.0
  0
TEXT
  5
6FB5
330
1E
100
AcDbEntity
  8
図枠
 62
     7
100
AcDbText
 10
2020.582148594738
 20
844.7701703768235
 30
0.0
 40
5.0
  1
７
100
AcDbText
  0
CIRCLE
  5
6FB6
330
1E
100
AcDbEntity
  8
図枠
  6
Continuous
 62
     4
100
AcDbCircle
 10
2023.582148594738
 20
847.7701703768238
 30
0.0
 40
6.0
  0
LINE
  5
6FB7
330
1E
100
AcDbEntity
  8
躯体と製品
  6
Continuous
 62
     7
100
AcDbLine
 10
1529.522957269357
 20
778.0448057993785
 30
0.0
 11
1547.522957269357
 21
778.0448057993785
 31
0.0
  0
LINE
  5
6FB8
330
1E
100
AcDbEntity
  8
躯体と製品
  6
Continuous
 62
     7
100
AcDbLine
 10
1547.522957269357
 20
778.0448057993785
 30
0.0
 11
1547.522957269357
 21
776.5448057993785
 31
0.0
  0
LINE
  5
6FB9
330
1E
100
AcDbEntity
  8
躯体と製品
  6
Continuous
 62
     7
100
AcDbLine
 10
1529.522957269357
 20
778.0448057993785
 30
0.0
 11
1529.522957269357
 21
776.5448057993785
 31
0.0
  0
ARC
  5
6FBA
330
1E
100
AcDbEntity
  8
躯体と製品
  6
Continuous
 62
     7
100
AcDbCircle
 10
1538.522957269357
 20
773.4336527598229
 30
0.0
 40
9.553418012635715
100
AcDbArc
 50
72.41204622604974
 51
107.5879537739502
  0
ARC
  5
6FBB
330
1E
100
AcDbEntity
  8
躯体と製品
  6
Continuous
 62
     7
100
AcDbCircle
 10
1534.192830250435
 20
780.4312480240306
 30
0.0
 40
2.555822748428199
100
AcDbArc
 50
55.61575253203897
 51
124.384247467961
  0
ARC
  5
6FBC
330
1E
100
AcDbEntity
  8
躯体と製品
  6
Continuous
 62
     7
100
AcDbCircle
 10
1542.853084288279
 20
780.4312480240306
 30
0.0
 40
2.555822748428199
100
AcDbArc
 50
55.61575253203897
 51
124.384247467961
  0
LINE
  5
6FBD
330
1E
100
AcDbEntity
  8
躯体と製品
  6
Continuous
 62
     7
100
AcDbLine
 10
1532.749454577461
 20
782.5404887850745
 30
0.0
 11
1532.749454577461
 21
778.0448057993785
 31
0.0
  0
LINE
  5
6FBE
330
1E
100
AcDbEntity
  8
躯体と製品
  6
Continuous
 62
     7
100
AcDbLine
 10
1533.622957269357
 20
783.0448057993785
 30
0.0
 11
1532.749454577461
 21
782.5404887850745
 31
0.0
  0
LINE
  5
6FBF
330
1E
100
AcDbEntity
  8
躯体と製品
  6
Continuous
 62
     7
100
AcDbLine
 10
1533.622957269357
 20
783.0448057993785
 30
0.0
 11
1543.422957269357
 21
783.0448057993785
 31
0.0
  0
LINE
  5
6FC0
330
1E
100
AcDbEntity
  8
躯体と製品
  6
Continuous
 62
     7
100
AcDbLine
 10
1543.422957269357
 20
783.0448057993785
 30
0.0
 11
1544.296459961253
 21
782.5404887850745
 31
0.0
  0
LINE
  5
6FC1
330
1E
100
AcDbEntity
  8
躯体と製品
  6
Continuous
 62
     7
100
AcDbLine
 10
1535.636205923409
 20
782.5404887850745
 30
0.0
 11
1535.636205923409
 21
778.0448057993785
 31
0.0
  0
LINE
  5
6FC2
330
1E
100
AcDbEntity
  8
躯体と製品
  6
Continuous
 62
     7
100
AcDbLine
 10
1541.409708615305
 20
782.5404887850745
 30
0.0
 11
1541.409708615305
 21
778.0448057993785
 31
0.0
  0
LINE
  5
6FC3
330
1E
100
AcDbEntity
  8
躯体と製品
  6
Continuous
 62
     7
100
AcDbLine
 10
1544.296459961253
 20
782.5404887850745
 30
0.0
 11
1544.296459961253
 21
778.0448057993785
 31
0.0
  0
CIRCLE
  5
6FC4
330
1E
100
AcDbEntity
  8
図枠
  6
Continuous
 62
     4
100
AcDbCircle
 10
1664.671249488918
 20
683.4509276462378
 30
0.0
 40
0.9
  0
LINE
  5
6FC5
330
1E
100
AcDbEntity
  8
図枠
  6
Continuous
 62
     4
100
AcDbLine
 10
1664.671249488918
 20
683.4509276462378
 30
0.0
 11
1678.55453667534
 21
707.4974864291905
 31
0.0
  0
CIRCLE
  5
6FC6
330
1E
100
AcDbEntity
  8
図枠
  6
Continuous
 62
     4
100
AcDbCircle
 10
1681.554536675339
 20
712.693638851897
 30
0.0
 40
6.0
  0
TEXT
  5
6FC7
330
1E
100
AcDbEntity
  8
図枠
 62
     7
100
AcDbText
 10
1678.55453667534
 20
709.693638851897
 30
0.0
 40
5.0
  1
９
100
AcDbText
  0
CIRCLE
  5
6FC8
330
1E
100
AcDbEntity
  8
図枠
  6
Continuous
 62
     4
100
AcDbCircle
 10
1978.053227584759
 20
736.3777591573552
 30
0.0
 40
0.9
  0
LINE
  5
6FC9
330
1E
100
AcDbEntity
  8
図枠
  6
Continuous
 62
     4
100
AcDbLine
 10
1978.053227584759
 20
736.3777591573552
 30
0.0
 11
1988.510675121389
 21
718.2649287064252
 31
0.0
  0
CIRCLE
  5
6FCA
330
1E
100
AcDbEntity
  8
図枠
  6
Continuous
 62
     4
100
AcDbCircle
 10
1991.510675121389
 20
713.0687762837188
 30
0.0
 40
6.0
  0
TEXT
  5
6FCB
330
1E
100
AcDbEntity
  8
図枠
 62
     7
100
AcDbText
 10
1988.510675121389
 20
710.0687762837187
 30
0.0
 40
5.0
  1
８
100
AcDbText
  0
CIRCLE
  5
6FCC
330
1E
100
AcDbEntity
  8
図枠
  6
Continuous
 62
     4
100
AcDbCircle
 10
1448.992686953954
 20
736.3777591573552
 30
0.0
 40
0.9
  0
LINE
  5
6FCD
330
1E
100
AcDbEntity
  8
図枠
  6
Continuous
 62
     4
100
AcDbLine
 10
1448.992686953954
 20
736.3777591573552
 30
0.0
 11
1438.535239417324
 21
718.2649287064252
 31
0.0
  0
CIRCLE
  5
6FCE
330
1E
100
AcDbEntity
  8
図枠
  6
Continuous
 62
     4
100
AcDbCircle
 10
1435.535239417324
 20
713.0687762837188
 30
0.0
 40
6.0
  0
TEXT
  5
6FCF
330
1E
100
AcDbEntity
  8
図枠
 62
     7
100
AcDbText
 10
1432.535239417324
 20
710.0687762837187
 30
0.0
 40
5.0
  1
８
100
AcDbText
  0
CIRCLE
  5
6FD0
330
1E
100
AcDbEntity
  8
図枠
  6
Continuous
 62
     4
100
AcDbCircle
 10
1996.732313241235
 20
819.7733466301395
 30
0.0
 40
0.9
  0
LINE
  5
6FD1
330
1E
100
AcDbEntity
  8
図枠
  6
Continuous
 62
     4
100
AcDbLine
 10
1996.732313241235
 20
819.7733466301395
 30
0.0
 11
2021.868794384637
 21
863.3110090940085
 31
0.0
  0
TEXT
  5
6FD2
330
1E
100
AcDbEntity
  8
図枠
 62
     7
100
AcDbText
 10
2021.868794384637
 20
865.5071615167155
 30
0.0
 40
5.0
  1
１
100
AcDbText
  0
CIRCLE
  5
6FD3
330
1E
100
AcDbEntity
  8
図枠
  6
Continuous
 62
     4
100
AcDbCircle
 10
2024.868794384637
 20
868.5071615167155
 30
0.0
 40
6.0
  0
CIRCLE
  5
6FD4
330
1E
100
AcDbEntity
  8
図枠
  6
Continuous
 62
     4
100
AcDbCircle
 10
1995.814367323918
 20
754.0529740265135
 30
0.0
 40
0.9
  0
LINE
  5
6FD5
330
1E
100
AcDbEntity
  8
図枠
  6
Continuous
 62
     4
100
AcDbLine
 10
1995.814367323918
 20
754.0529740265135
 30
0.0
 11
2020.782381140274
 21
797.2988425205244
 31
0.0
  0
TEXT
  5
6FD6
330
1E
100
AcDbEntity
  8
図枠
 62
     7
100
AcDbText
 10
2020.782381140274
 20
799.4949949432307
 30
0.0
 40
5.0
  1
３
100
AcDbText
  0
CIRCLE
  5
6FD7
330
1E
100
AcDbEntity
  8
図枠
  6
Continuous
 62
     4
100
AcDbCircle
 10
2023.782381140275
 20
802.4949949432308
 30
0.0
 40
6.0
  0
TEXT
  5
6FD8
330
1E
100
AcDbEntity
  8
図枠
 62
     7
100
AcDbText
 10
1516.522957269357
 20
552.0448057993787
 30
0.0
 40
5.0
  1
止水補助板ホルダーＡＬ
100
AcDbText
  0
LINE
  5
6FD9
330
1E
100
AcDbEntity
  8
図枠
  6
Continuous
 62
     4
100
AcDbLine
 10
1663.522957269357
 20
837.7678611637801
 30
0.0
 11
1613.522957269357
 21
837.7678611637801
 31
0.0
  0
LINE
  5
6FDA
330
1E
100
AcDbEntity
  8
図枠
  6
Continuous
 62
     4
100
AcDbLine
 10
1663.522957269357
 20
837.7678611637801
 30
0.0
 11
1613.522957269357
 21
835.1474721996282
 31
0.0
  0
LINE
  5
6FDB
330
1E
100
AcDbEntity
  8
図枠
  6
Continuous
 62
     4
100
AcDbLine
 10
1613.522957269357
 20
835.1474721996282
 30
0.0
 11
1613.522957269357
 21
837.7678611637801
 31
0.0
  0
LINE
  5
6FDC
330
1E
100
AcDbEntity
  8
躯体と製品
  6
CENTER1
 62
     4
100
AcDbLine
 10
1536.798317407619
 20
824.8764091661799
 30
0.0
 11
1539.150988744272
 21
779.9847658102105
 31
0.0
  0
LINE
  5
6FDD
330
1E
100
AcDbEntity
  8
躯体と製品
  6
CENTER1
 62
     4
100
AcDbLine
 10
1538.522957269357
 20
796.9683202272654
 30
0.0
 11
1538.522957269357
 21
708.0448057993788
 31
0.0
  0
LINE
  5
6FDE
330
1E
100
AcDbEntity
  8
躯体と製品
  6
CENTER1
 62
     4
100
AcDbLine
 10
1713.522957269357
 20
843.6155889017323
 30
0.0
 11
1713.522957269357
 21
653.0448057993789
 31
0.0
  0
LINE
  5
6FDF
330
1E
100
AcDbEntity
  8
躯体と製品
  6
CENTER1
 62
     4
100
AcDbLine
 10
1890.247597131094
 20
824.8764091661799
 30
0.0
 11
1887.894925794441
 21
779.9847658102105
 31
0.0
  0
LINE
  5
6FE0
330
1E
100
AcDbEntity
  8
躯体と製品
  6
CENTER1
 62
     4
100
AcDbLine
 10
1888.522957269357
 20
796.9683202272654
 30
0.0
 11
1888.522957269357
 21
708.0448057993788
 31
0.0
  0
LINE
  5
6FE1
330
1E
100
AcDbEntity
  8
躯体と製品
  6
Continuous
 62
     7
100
AcDbLine
 10
1535.979211552462
 20
783.1839121222697
 30
0.0
 11
1536.133704775556
 21
783.0448057993785
 31
0.0
  0
LINE
  5
6FE2
330
1E
100
AcDbEntity
  8
躯体と製品
  6
Continuous
 62
     4
100
AcDbLine
 10
1536.283198998076
 20
788.2459990245442
 30
0.0
 11
1536.555781984628
 21
783.0448057993785
 31
0.0
  0
LINE
  5
6FE3
330
1E
100
AcDbEntity
  8
躯体と製品
  6
Continuous
 62
     4
100
AcDbLine
 10
1541.139534425587
 20
788.5005087797536
 30
0.0
 11
1541.425455703216
 21
783.0448057993785
 31
0.0
  0
LINE
  5
6FE4
330
1E
100
AcDbEntity
  8
躯体と製品
  6
Continuous
 62
     7
100
AcDbLine
 10
1541.562995825291
 20
783.0448057993785
 30
0.0
 11
1541.970988760989
 21
783.4979278597274
 31
0.0
  0
LINE
  5
6FE5
330
1E
100
AcDbEntity
  8
躯体と製品
  6
Continuous
 62
     7
100
AcDbLine
 10
1885.482918713423
 20
783.0448057993785
 30
0.0
 11
1885.074925777725
 21
783.4979278597274
 31
0.0
  0
LINE
  5
6FE6
330
1E
100
AcDbEntity
  8
躯体と製品
  6
Continuous
 62
     4
100
AcDbLine
 10
1885.906380113127
 20
788.5005087797536
 30
0.0
 11
1885.620458835497
 21
783.0448057993785
 31
0.0
  0
LINE
  5
6FE7
330
1E
100
AcDbEntity
  8
躯体と製品
  6
Continuous
 62
     4
100
AcDbLine
 10
1890.762715540638
 20
788.2459990245442
 30
0.0
 11
1890.490132554085
 21
783.0448057993785
 31
0.0
  0
LINE
  5
6FE8
330
1E
100
AcDbEntity
  8
躯体と製品
  6
Continuous
 62
     7
100
AcDbLine
 10
1891.066702986252
 20
783.1839121222697
 30
0.0
 11
1890.912209763157
 21
783.0448057993785
 31
0.0
  0
TEXT
  5
6FE9
330
1E
100
AcDbEntity
  8
図枠
 62
     6
100
AcDbText
 10
1321.069465978491
 20
937.5144379561312
 30
0.0
 40
10.0
  1
◇ステンレス１５０タイプ（１５０ＦＹＹ－Ｓ）
100
AcDbText
  0
TEXT
  5
6FEA
330
1E
100
AcDbEntity
  8
図枠
 62
     6
100
AcDbText
 10
1321.468496343294
 20
904.7019433408578
 30
0.0
 40
10.0
  1
　　Ｓ＝１／２
100
AcDbText
  0
TEXT
  5
6FEB
330
1E
100
AcDbEntity
  8
図枠
 62
     6
100
AcDbText
 10
1321.468496343294
 20
919.9374505872345
 30
0.0
 40
10.0
  1
　　屋根－屋根
100
AcDbText
  0
DIMENSION
  5
6FF6
330
1E
100
AcDbEntity
  8
寸法
  6
Continuous
100
AcDbDimension
  2
*D4
 10
2013.522957269358
 20
897.0448057993788
 30
0.0
 11
1713.522957269357
 21
900.5448057993787
 31
0.0
 70
    32
  1
W
 71
     5
 42
600.0000000000004
  3
AutoCAD
100
AcDbAlignedDimension
 13
1413.522957269357
 23
821.6590546130305
 33
0.0
 14
2013.522957269358
 24
821.6590546130305
 34
0.0
100
AcDbRotatedDimension
  0
DIMENSION
  5
7003
330
1E
100
AcDbEntity
  8
寸法
  6
Continuous
100
AcDbDimension
  2
*D5
 10
2073.522957269358
 20
729.6590546130305
 30
0.0
 11
2070.022957269358
 21
774.6590546130309
 31
0.0
 70
    32
 71
     5
 42
90.0
  3
AutoCAD
100
AcDbAlignedDimension
 13
2015.522957269357
 23
819.6590546130305
 33
0.0
 14
2015.522957269357
 24
729.6590546130305
 34
0.0
 50
90.0
100
AcDbRotatedDimension
  0
DIMENSION
  5
7010
330
1E
100
AcDbEntity
  8
寸法
  6
Continuous
100
AcDbDimension
  2
*D6
 10
2053.522957269358
 20
729.6590546130305
 30
0.0
 11
2050.022957269357
 21
750.8519302062048
 31
0.0
 70
    32
  1
44
 71
     5
 42
42.38575118634798
  3
AutoCAD
100
AcDbAlignedDimension
 13
1942.486786891642
 23
772.0448057993785
 33
0.0
 14
2015.522957269357
 24
729.6590546130305
 34
0.0
 50
90.0
100
AcDbRotatedDimension
  0
DIMENSION
  5
701D
330
1E
100
AcDbEntity
  8
寸法
  6
Continuous
100
AcDbDimension
  2
*D7
 10
1938.522957269358
 20
642.0448057993788
 30
0.0
 11
1976.022957269358
 21
645.5448057993788
 31
0.0
 70
    32
  1
75≦
 71
     5
 42
74.99999999999932
  3
AutoCAD
100
AcDbAlignedDimension
 13
2013.522957269358
 23
727.6590546130305
 33
0.0
 14
1938.522957269358
 24
642.0448057993788
 34
0.0
100
AcDbRotatedDimension
  0
DIMENSION
  5
7029
330
1E
100
AcDbEntity
  8
寸法
  6
Continuous
100
AcDbDimension
  2
*D8
 10
1788.522957269355
 20
642.0448057993788
 30
0.0
 11
1863.522957269357
 21
645.5448057993788
 31
0.0
 70
    32
  1
≦Ｃ
 71
     5
 42
150.0000000000023
  3
AutoCAD
100
AcDbAlignedDimension
 13
1938.522957269358
 23
642.0448057993788
 33
0.0
 14
1788.522957269355
 24
642.0448057993788
 34
0.0
100
AcDbRotatedDimension
1001
ACAD
1000
DSTYLE
1002
{
1070
   279
1070
     1
1002
}
  0
DIMENSION
  5
7034
330
1E
100
AcDbEntity
  8
寸法
  6
Continuous
100
AcDbDimension
  2
*D9
 10
1638.522957269356
 20
642.0448057993788
 30
0.0
 11
1713.522957269356
 21
645.5448057993788
 31
0.0
 70
    32
 71
     5
 42
149.9999999999998
  3
AutoCAD
100
AcDbAlignedDimension
 13
1788.522957269355
 23
642.0448057993788
 33
0.0
 14
1638.522957269356
 24
642.0448057993788
 34
0.0
100
AcDbRotatedDimension
1001
ACAD
1000
DSTYLE
1002
{
1070
   279
1070
     1
1002
}
  0
DIMENSION
  5
703F
330
1E
100
AcDbEntity
  8
寸法
  6
Continuous
100
AcDbDimension
  2
*D10
 10
1488.522957269358
 20
642.0448057993788
 30
0.0
 11
1563.522957269357
 21
645.5448057993788
 31
0.0
 70
    32
  1
≦Ｃ
 71
     5
 42
149.9999999999982
  3
AutoCAD
100
AcDbAlignedDimension
 13
1638.522957269356
 23
642.0448057993788
 33
0.0
 14
1488.522957269358
 24
642.0448057993788
 34
0.0
100
AcDbRotatedDimension
1001
ACAD
1000
DSTYLE
1002
{
1070
   279
1070
     1
1002
}
  0
DIMENSION
  5
704A
330
1E
100
AcDbEntity
  8
寸法
  6
Continuous
100
AcDbDimension
  2
*D11
 10
1413.522957269357
 20
642.0448057993788
 30
0.0
 11
1451.022957269357
 21
645.5448057993788
 31
0.0
 70
    32
  1
75≦
 71
     5
 42
75.00000000000091
  3
AutoCAD
100
AcDbAlignedDimension
 13
1488.522957269358
 23
642.0448057993788
 33
0.0
 14
1413.522957269357
 24
727.6590546130305
 34
0.0
100
AcDbRotatedDimension
1001
ACAD
1000
DSTYLE
1002
{
1070
   279
1070
     1
1002
}
  0
DIMENSION
  5
7056
330
1E
100
AcDbEntity
  8
寸法
  6
Continuous
100
AcDbDimension
  2
*D12
 10
1538.522957269357
 20
712.0448057993788
 30
0.0
 11
1513.522957269357
 21
715.5448057993789
 31
0.0
 70
    32
 71
     5
 42
50.0
  3
AutoCAD
100
AcDbAlignedDimension
 13
1488.522957269357
 23
712.0448057993788
 33
0.0
 14
1538.522957269357
 24
712.0448057993788
 34
0.0
100
AcDbRotatedDimension
  0
DIMENSION
  5
7061
330
1E
100
AcDbEntity
  8
寸法
  6
Continuous
100
AcDbDimension
  2
*D13
 10
1938.522957269357
 20
712.0448057993788
 30
0.0
 11
1913.522957269357
 21
715.5448057993789
 31
0.0
 70
    32
 71
     5
 42
50.0
  3
AutoCAD
100
AcDbAlignedDimension
 13
1888.522957269357
 23
712.0448057993788
 33
0.0
 14
1938.522957269357
 24
712.0448057993788
 34
0.0
100
AcDbRotatedDimension
  0
ENDSEC
  0
SECTION
  2
OBJECTS
  0
DICTIONARY
  5
C
330
0
100
AcDbDictionary
281
     1
  3
ACAD_COLOR
350
6779
  3
ACAD_GROUP
350
D
  3
ACAD_LAYOUT
350
19
  3
ACAD_MATERIAL
350
6778
  3
ACAD_MLINESTYLE
350
16
  3
ACAD_PLOTSETTINGS
350
18
  3
ACAD_PLOTSTYLENAME
350
E
  3
ACAD_TABLESTYLE
350
677A
  3
ACDBHEADERROUNDTRIPXREC
350
70A6
  3
AcDbVariableDictionary
350
169
  0
DICTIONARY
  5
175
330
2
100
AcDbDictionary
280
     1
281
     1
  3
ACAD_LAYERFILTERS
360
6FF5
  3
ACAD_LAYERSTATES
360
176
  3
ACLYDICTIONARY
360
6FF4
  0
DICTIONARY
  5
28B
330
1E
100
AcDbDictionary
280
     1
281
     1
  3
ACAD_LAYOUTSELFREF
360
6771
  0
DICTIONARY
  5
28D
330
1A
100
AcDbDictionary
280
     1
281
     1
  3
ACAD_LAYOUTSELFREF
360
6770
  0
DICTIONARY
  5
6779
102
{ACAD_REACTORS
330
C
102
}
330
C
100
AcDbDictionary
281
     1
  0
DICTIONARY
  5
D
102
{ACAD_REACTORS
330
C
102
}
330
C
100
AcDbDictionary
281
     1
  0
DICTIONARY
  5
19
102
{ACAD_REACTORS
330
C
102
}
330
C
100
AcDbDictionary
281
     1
  3
Model
350
21
  3
ﾚｲｱｳﾄ1
350
1D
  0
DICTIONARY
  5
6778
102
{ACAD_REACTORS
330
C
102
}
330
C
100
AcDbDictionary
281
     1
  0
DICTIONARY
  5
16
102
{ACAD_REACTORS
330
C
102
}
330
C
100
AcDbDictionary
281
     1
  3
Standard
350
17
  0
DICTIONARY
  5
18
102
{ACAD_REACTORS
330
C
102
}
330
C
100
AcDbDictionary
281
     1
  0
ACDBDICTIONARYWDFLT
  5
E
102
{ACAD_REACTORS
330
C
102
}
330
C
100
AcDbDictionary
281
     1
  3
Normal
350
F
100
AcDbDictionaryWithDefault
340
F
1001
ACAD
1000
TREAT_AS_HARD
1070
     0
1000
TREAT_AS_HARD
1070
     0
1000
TREAT_AS_HARD
1070
     0
1000
TREAT_AS_HARD
1070
     0
1000
TREAT_AS_HARD
1070
     0
1000
TREAT_AS_HARD
1070
     0
1000
TREAT_AS_HARD
1070
     0
1000
TREAT_AS_HARD
1070
     0
1000
TREAT_AS_HARD
1070
     0
1000
TREAT_AS_HARD
1070
     0
1000
TREAT_AS_HARD
1070
     0
1000
TREAT_AS_HARD
1070
     0
1000
TREAT_AS_HARD
1070
     0
1000
TREAT_AS_HARD
1070
     0
1000
TREAT_AS_HARD
1070
     0
1000
TREAT_AS_HARD
1070
     0
1000
TREAT_AS_HARD
1070
     0
1000
TREAT_AS_HARD
1070
     0
1000
TREAT_AS_HARD
1070
     0
1000
TREAT_AS_HARD
1070
     0
1000
TREAT_AS_HARD
1070
     0
1000
TREAT_AS_HARD
1070
     0
1000
TREAT_AS_HARD
1070
     0
1000
TREAT_AS_HARD
1070
     0
1000
TREAT_AS_HARD
1070
     0
1000
TREAT_AS_HARD
1070
     0
  0
DICTIONARY
  5
677A
102
{ACAD_REACTORS
330
C
102
}
330
C
100
AcDbDictionary
281
     1
  3
Standard
350
677B
  0
DICTIONARY
  5
70A6
102
{ACAD_REACTORS
330
C
102
}
330
C
100
AcDbDictionary
281
     1
  0
DICTIONARY
  5
169
102
{ACAD_REACTORS
330
C
102
}
330
C
100
AcDbDictionary
281
     1
  3
CTABLESTYLE
350
6782
  3
DIMASSOC
350
16A
  3
PROJECTNAME
350
70A4
  0
DICTIONARY
  5
6FF5
102
{ACAD_REACTORS
330
175
102
}
330
175
100
AcDbDictionary
281
     1
  0
DICTIONARY
  5
176
102
{ACAD_REACTORS
330
175
102
}
330
175
100
AcDbDictionary
281
     1
  3
ACAD
350
177
  0
DICTIONARY
  5
6FF4
102
{ACAD_REACTORS
330
175
102
}
330
175
100
AcDbDictionary
281
     1
1001
ACAD
1000
<All
  0
XRECORD
  5
6771
102
{ACAD_REACTORS
330
28B
102
}
330
28B
100
AcDbXrecord
280
     1
340
1E
  0
XRECORD
  5
6770
102
{ACAD_REACTORS
330
28D
102
}
330
28D
100
AcDbXrecord
280
     1
340
1A
  0
LAYOUT
  5
21
102
{ACAD_XDICTIONARY
360
70A9
102
}
102
{ACAD_REACTORS
330
19
102
}
330
19
100
AcDbPlotSettings
  1

  2
\\MEISEI-1\EPSON Stylus Photo EX3
  4

  6

 40
0.0
 41
0.0
 42
0.0
 43
0.0
 44
0.0
 45
0.0
 46
0.0
 47
0.0
 48
0.0
 49
0.0
140
0.0
141
0.0
142
1.0
143
1.0
 70
  1712
 72
     0
 73
     0
 74
     0
  7

 75
     0
147
1.0
148
0.0
149
0.0
100
AcDbLayout
  1
Model
 70
     1
 71
     0
 10
0.0
 20
0.0
 11
12.0
 21
9.0
 12
0.0
 22
0.0
 32
0.0
 14
0.0
 24
0.0
 34
0.0
 15
0.0
 25
0.0
 35
0.0
146
0.0
 13
0.0
 23
0.0
 33
0.0
 16
1.0
 26
0.0
 36
0.0
 17
0.0
 27
1.0
 37
0.0
 76
     0
330
1E
  0
LAYOUT
  5
1D
102
{ACAD_XDICTIONARY
360
70A7
102
}
102
{ACAD_REACTORS
330
19
102
}
330
19
100
AcDbPlotSettings
  1

  2
\\MEISEI-1\EPSON Stylus Photo EX3
  4

  6

 40
0.0
 41
0.0
 42
0.0
 43
0.0
 44
0.0
 45
0.0
 46
0.0
 47
0.0
 48
0.0
 49
0.0
140
0.0
141
0.0
142
1.0
143
1.0
 70
   688
 72
     0
 73
     0
 74
     5
  7

 75
    16
147
1.0
148
0.0
149
0.0
100
AcDbLayout
  1
ﾚｲｱｳﾄ1
 70
     1
 71
     1
 10
0.0
 20
0.0
 11
12.0
 21
9.0
 12
0.0
 22
0.0
 32
0.0
 14
1.000000000000000E+20
 24
1.000000000000000E+20
 34
1.000000000000000E+20
 15
-1.000000000000000E+20
 25
-1.000000000000000E+20
 35
-1.000000000000000E+20
146
0.0
 13
0.0
 23
0.0
 33
0.0
 16
1.0
 26
0.0
 36
0.0
 17
0.0
 27
1.0
 37
0.0
 76
     0
330
1A
  0
MLINESTYLE
  5
17
102
{ACAD_REACTORS
330
16
102
}
330
16
100
AcDbMlineStyle
  2
STANDARD
 70
     0
  3

 62
   256
 51
90.0
 52
90.0
 71
     2
 49
0.5
 62
   256
  6
BYLAYER
 49
-0.5
 62
   256
  6
BYLAYER
  0
ACDBPLACEHOLDER
  5
F
102
{ACAD_REACTORS
330
E
102
}
330
E
  0
TABLESTYLE
  5
677B
102
{ACAD_REACTORS
330
677A
102
}
330
677A
100
AcDbTableStyle
  3
Standard
 70
     0
 71
     0
 40
0.06
 41
0.06
280
     0
281
     0
  7
STANDARD
140
0.18
170
     2
 62
     0
 63
     7
283
     0
274
    -2
284
     1
 64
     0
275
    -2
285
     1
 65
     0
276
    -2
286
     1
 66
     0
277
    -2
287
     1
 67
     0
278
    -2
288
     1
 68
     0
279
    -2
289
     1
 69
     0
  7
STANDARD
140
0.25
170
     5
 62
     0
 63
     7
283
     0
274
    -2
284
     1
 64
     0
275
    -2
285
     1
 65
     0
276
    -2
286
     1
 66
     0
277
    -2
287
     1
 67
     0
278
    -2
288
     1
 68
     0
279
    -2
289
     1
 69
     0
  7
STANDARD
140
0.18
170
     5
 62
     0
 63
     7
283
     0
274
    -2
284
     1
 64
     0
275
    -2
285
     1
 65
     0
276
    -2
286
     1
 66
     0
277
    -2
287
     1
 67
     0
278
    -2
288
     1
 68
     0
279
    -2
289
     1
 69
     0
  0
DICTIONARYVAR
  5
6782
102
{ACAD_REACTORS
330
169
102
}
330
169
100
DictionaryVariables
280
     0
  1
STANDARD
  0
DICTIONARYVAR
  5
16A
102
{ACAD_REACTORS
330
169
102
}
330
169
100
DictionaryVariables
280
     0
  1
1
  0
DICTIONARYVAR
  5
70A4
102
{ACAD_REACTORS
330
169
102
}
330
169
100
DictionaryVariables
280
     0
  1

  0
XRECORD
  5
177
102
{ACAD_REACTORS
330
176
102
}
330
176
100
AcDbXrecord
280
     1
 91
      476
330
179
 90
        8
 62
     7
370
    -3
331
15
  1
Color_7
330
178
 90
        8
 62
     7
370
    -3
331
15
  1
Color_7
330
128
 90
        0
 62
     7
370
    -3
331
15
  1
Color_7
330
10
 90
        8
 62
     7
370
    -3
331
15
  1
Color_7
  0
DICTIONARY
  5
70A9
330
21
100
AcDbDictionary
280
     1
281
     1
  3
ACAD_XREC_ROUNDTRIP
360
70AA
  0
DICTIONARY
  5
70A7
330
1D
100
AcDbDictionary
280
     1
281
     1
  3
ACAD_XREC_ROUNDTRIP
360
70A8
  0
XRECORD
  5
70AA
102
{ACAD_REACTORS
330
70A9
102
}
330
70A9
100
AcDbXrecord
280
     1
102
SHADEPLOT
 70
     0
102
SHADEPLOTRESLEVEL
 70
     2
102
SHADEPLOTCUSTOMDPI
 70
   300
  0
XRECORD
  5
70A8
102
{ACAD_REACTORS
330
70A7
102
}
330
70A7
100
AcDbXrecord
280
     1
102
SHADEPLOT
 70
     0
102
SHADEPLOTRESLEVEL
 70
     2
102
SHADEPLOTCUSTOMDPI
 70
   300
  0
ENDSEC
  0
EOF
