  0
SECTION
  2
HEADER
  9
$ACADVER
  1
AC1015
  9
$ACADMAINTVER
 70
    20
  9
$DWGCODEPAGE
  3
ANSI_932
  9
$INSBASE
 10
0.0
 20
0.0
 30
0.0
  9
$EXTMIN
 10
1318.538876082705
 20
368.1798627195135
 30
-0.0000000349181948
  9
$EXTMAX
 10
2142.78914487059
 20
944.3028891680892
 30
0.0000000814935746
  9
$LIMMIN
 10
0.0
 20
0.0
  9
$LIMMAX
 10
420.0
 20
297.0
  9
$ORTHOMODE
 70
     0
  9
$REGENMODE
 70
     1
  9
$FILLMODE
 70
     1
  9
$QTEXTMODE
 70
     0
  9
$MIRRTEXT
 70
     1
  9
$LTSCALE
 40
1.0
  9
$ATTMODE
 70
     1
  9
$TEXTSIZE
 40
5.0
  9
$TRACEWID
 40
0.05
  9
$TEXTSTYLE
  7
ACAD
  9
$CLAYER
  8
0
  9
$CELTYPE
  6
CONTINUOUS
  9
$CECOLOR
 62
   256
  9
$CELTSCALE
 40
1.0
  9
$DISPSILH
 70
     0
  9
$DIMSCALE
 40
1.0
  9
$DIMASZ
 40
1.0
  9
$DIMEXO
 40
0.0
  9
$DIMDLI
 40
0.38
  9
$DIMRND
 40
0.0
  9
$DIMDLE
 40
0.0
  9
$DIMEXE
 40
0.0
  9
$DIMTP
 40
0.0
  9
$DIMTM
 40
0.0
  9
$DIMTXT
 40
5.0
  9
$DIMCEN
 40
0.09
  9
$DIMTSZ
 40
0.0
  9
$DIMTOL
 70
     0
  9
$DIMLIM
 70
     0
  9
$DIMTIH
 70
     0
  9
$DIMTOH
 70
     1
  9
$DIMSE1
 70
     0
  9
$DIMSE2
 70
     0
  9
$DIMTAD
 70
     1
  9
$DIMZIN
 70
     0
  9
$DIMBLK
  1
Dot
  9
$DIMASO
 70
     1
  9
$DIMSHO
 70
     1
  9
$DIMPOST
  1

  9
$DIMAPOST
  1

  9
$DIMALT
 70
     0
  9
$DIMALTD
 70
     2
  9
$DIMALTF
 40
25.4
  9
$DIMLFAC
 40
1.0
  9
$DIMTOFL
 70
     0
  9
$DIMTVP
 40
0.0
  9
$DIMTIX
 70
     1
  9
$DIMSOXD
 70
     0
  9
$DIMSAH
 70
     0
  9
$DIMBLK1
  1

  9
$DIMBLK2
  1

  9
$DIMSTYLE
  2
AutoCAD
  9
$DIMCLRD
 70
     4
  9
$DIMCLRE
 70
     4
  9
$DIMCLRT
 70
     3
  9
$DIMTFAC
 40
1.0
  9
$DIMGAP
 40
1.0
  9
$DIMJUST
 70
     0
  9
$DIMSD1
 70
     0
  9
$DIMSD2
 70
     0
  9
$DIMTOLJ
 70
     1
  9
$DIMTZIN
 70
     0
  9
$DIMALTZ
 70
     0
  9
$DIMALTTZ
 70
     0
  9
$DIMUPT
 70
     0
  9
$DIMDEC
 70
     0
  9
$DIMTDEC
 70
     0
  9
$DIMALTU
 70
     2
  9
$DIMALTTD
 70
     2
  9
$DIMTXSTY
  7
ACAD
  9
$DIMAUNIT
 70
     0
  9
$DIMADEC
 70
     0
  9
$DIMALTRND
 40
0.0
  9
$DIMAZIN
 70
     0
  9
$DIMDSEP
 70
    46
  9
$DIMATFIT
 70
     0
  9
$DIMFRAC
 70
     0
  9
$DIMLDRBLK
  1
None
  9
$DIMLUNIT
 70
     2
  9
$DIMLWD
 70
    -2
  9
$DIMLWE
 70
    -2
  9
$DIMTMOVE
 70
     0
  9
$LUNITS
 70
     2
  9
$LUPREC
 70
     4
  9
$SKETCHINC
 40
0.1
  9
$FILLETRAD
 40
0.0
  9
$AUNITS
 70
     0
  9
$AUPREC
 70
     0
  9
$MENU
  1
.
  9
$ELEVATION
 40
0.0
  9
$PELEVATION
 40
0.0
  9
$THICKNESS
 40
0.0
  9
$LIMCHECK
 70
     0
  9
$CHAMFERA
 40
0.0
  9
$CHAMFERB
 40
0.0
  9
$CHAMFERC
 40
0.0
  9
$CHAMFERD
 40
0.0
  9
$SKPOLY
 70
     0
  9
$TDCREATE
 40
2454316.693457674
  9
$TDUCREATE
 40
2454316.318457674
  9
$TDUPDATE
 40
2454733.673669156
  9
$TDUUPDATE
 40
2454733.298669155
  9
$TDINDWG
 40
0.2468098495
  9
$TDUSRTIMER
 40
0.2468098495
  9
$USRTIMER
 70
     1
  9
$ANGBASE
 50
0.0
  9
$ANGDIR
 70
     0
  9
$PDMODE
 70
     0
  9
$PDSIZE
 40
0.0
  9
$PLINEWID
 40
0.0
  9
$SPLFRAME
 70
     0
  9
$SPLINETYPE
 70
     6
  9
$SPLINESEGS
 70
     8
  9
$HANDSEED
  5
70AF
  9
$SURFTAB1
 70
     6
  9
$SURFTAB2
 70
     6
  9
$SURFTYPE
 70
     6
  9
$SURFU
 70
     6
  9
$SURFV
 70
     6
  9
$UCSBASE
  2

  9
$UCSNAME
  2

  9
$UCSORG
 10
0.0
 20
0.0
 30
0.0
  9
$UCSXDIR
 10
1.0
 20
0.0
 30
0.0
  9
$UCSYDIR
 10
0.0
 20
1.0
 30
0.0
  9
$UCSORTHOREF
  2

  9
$UCSORTHOVIEW
 70
     0
  9
$UCSORGTOP
 10
0.0
 20
0.0
 30
0.0
  9
$UCSORGBOTTOM
 10
0.0
 20
0.0
 30
0.0
  9
$UCSORGLEFT
 10
0.0
 20
0.0
 30
0.0
  9
$UCSORGRIGHT
 10
0.0
 20
0.0
 30
0.0
  9
$UCSORGFRONT
 10
0.0
 20
0.0
 30
0.0
  9
$UCSORGBACK
 10
0.0
 20
0.0
 30
0.0
  9
$PUCSBASE
  2

  9
$PUCSNAME
  2

  9
$PUCSORG
 10
0.0
 20
0.0
 30
0.0
  9
$PUCSXDIR
 10
1.0
 20
0.0
 30
0.0
  9
$PUCSYDIR
 10
0.0
 20
1.0
 30
0.0
  9
$PUCSORTHOREF
  2

  9
$PUCSORTHOVIEW
 70
     0
  9
$PUCSORGTOP
 10
0.0
 20
0.0
 30
0.0
  9
$PUCSORGBOTTOM
 10
0.0
 20
0.0
 30
0.0
  9
$PUCSORGLEFT
 10
0.0
 20
0.0
 30
0.0
  9
$PUCSORGRIGHT
 10
0.0
 20
0.0
 30
0.0
  9
$PUCSORGFRONT
 10
0.0
 20
0.0
 30
0.0
  9
$PUCSORGBACK
 10
0.0
 20
0.0
 30
0.0
  9
$USERI1
 70
     0
  9
$USERI2
 70
     0
  9
$USERI3
 70
     0
  9
$USERI4
 70
     0
  9
$USERI5
 70
     0
  9
$USERR1
 40
0.0
  9
$USERR2
 40
0.0
  9
$USERR3
 40
0.0
  9
$USERR4
 40
0.0
  9
$USERR5
 40
0.0
  9
$WORLDVIEW
 70
     1
  9
$SHADEDGE
 70
     3
  9
$SHADEDIF
 70
    70
  9
$TILEMODE
 70
     1
  9
$MAXACTVP
 70
    48
  9
$PINSBASE
 10
0.0
 20
0.0
 30
0.0
  9
$PLIMCHECK
 70
     0
  9
$PEXTMIN
 10
1.000000000000000E+20
 20
1.000000000000000E+20
 30
1.000000000000000E+20
  9
$PEXTMAX
 10
-1.000000000000000E+20
 20
-1.000000000000000E+20
 30
-1.000000000000000E+20
  9
$PLIMMIN
 10
0.0
 20
0.0
  9
$PLIMMAX
 10
12.0
 20
9.0
  9
$UNITMODE
 70
     0
  9
$VISRETAIN
 70
     0
  9
$PLINEGEN
 70
     0
  9
$PSLTSCALE
 70
     1
  9
$TREEDEPTH
 70
  3020
  9
$CMLSTYLE
  2
Standard
  9
$CMLJUST
 70
     0
  9
$CMLSCALE
 40
1.0
  9
$PROXYGRAPHICS
 70
     1
  9
$MEASUREMENT
 70
     0
  9
$CELWEIGHT
370
    -1
  9
$ENDCAPS
280
     0
  9
$JOINSTYLE
280
     0
  9
$LWDISPLAY
290
     0
  9
$INSUNITS
 70
     0
  9
$HYPERLINKBASE
  1

  9
$STYLESHEET
  1

  9
$XEDIT
290
     1
  9
$CEPSNTYPE
380
     0
  9
$PSTYLEMODE
290
     1
  9
$FINGERPRINTGUID
  2
{CC7D6DEE-A9F1-4F3E-AC95-C84B62CCA3FD}
  9
$VERSIONGUID
  2
{09861668-E0CB-49B0-AF7D-A5C6F405FC3F}
  9
$EXTNAMES
290
     1
  9
$PSVPSCALE
 40
0.0
  9
$OLESTARTUP
290
     0
  0
ENDSEC
  0
SECTION
  2
CLASSES
  0
CLASS
  1
ACDBDICTIONARYWDFLT
  2
AcDbDictionaryWithDefault
  3
ObjectDBX Classes
 90
        0
280
     0
281
     0
  0
CLASS
  1
ACDBPLACEHOLDER
  2
AcDbPlaceHolder
  3
ObjectDBX Classes
 90
        0
280
     0
281
     0
  0
CLASS
  1
LAYOUT
  2
AcDbLayout
  3
ObjectDBX Classes
 90
        0
280
     0
281
     0
  0
CLASS
  1
DICTIONARYVAR
  2
AcDbDictionaryVar
  3
ObjectDBX Classes
 90
        0
280
     0
281
     0
  0
CLASS
  1
TABLESTYLE
  2
AcDbTableStyle
  3
ObjectDBX Classes
 90
     2047
280
     0
281
     0
  0
ENDSEC
  0
SECTION
  2
TABLES
  0
TABLE
  2
VPORT
  5
8
330
0
100
AcDbSymbolTable
 70
     2
  0
VPORT
  5
70A9
330
8
100
AcDbSymbolTableRecord
100
AcDbViewportTableRecord
  2
*Active
 70
     0
 10
0.0
 20
0.0
 11
1.0
 21
1.0
 12
1732.230595608105
 22
643.6817832814116
 13
0.0
 23
0.0
 14
1.0
 24
1.0
 15
0.0
 25
0.0
 16
0.0
 26
0.0
 36
1.0
 17
0.0
 27
0.0
 37
0.0
 40
650.3571681635503
 41
1.542635658914728
 42
50.0
 43
0.0
 44
0.0
 50
0.0
 51
0.0
 71
     0
 72
   100
 73
     1
 74
     1
 75
     0
 76
     0
 77
     0
 78
     0
281
     0
 65
     1
110
0.0
120
0.0
130
0.0
111
1.0
121
0.0
131
0.0
112
0.0
122
1.0
132
0.0
 79
     0
146
0.0
  0
ENDTAB
  0
TABLE
  2
LTYPE
  5
5
330
0
100
AcDbSymbolTable
 70
    50
  0
LTYPE
  5
13
330
5
100
AcDbSymbolTableRecord
100
AcDbLinetypeTableRecord
  2
ByBlock
 70
     0
  3

 72
    65
 73
     0
 40
0.0
  0
LTYPE
  5
14
330
5
100
AcDbSymbolTableRecord
100
AcDbLinetypeTableRecord
  2
ByLayer
 70
     0
  3

 72
    65
 73
     0
 40
0.0
  0
LTYPE
  5
15
330
5
100
AcDbSymbolTableRecord
100
AcDbLinetypeTableRecord
  2
CONTINUOUS
 70
     0
  3
実線
 72
    65
 73
     0
 40
0.0
  0
LTYPE
  5
22
330
5
100
AcDbSymbolTableRecord
100
AcDbLinetypeTableRecord
  2
DASHED1
 70
     0
  3
--  --  --  --  --  --  --  --  
 72
    65
 73
     2
 40
2.5
 49
1.25
 74
     0
 49
-1.25
 74
     0
  0
LTYPE
  5
23
330
5
100
AcDbSymbolTableRecord
100
AcDbLinetypeTableRecord
  2
DASHED2
 70
     0
  3
----    ----    ----    ----    
 72
    65
 73
     2
 40
5.0
 49
2.5
 74
     0
 49
-2.5
 74
     0
  0
LTYPE
  5
24
330
5
100
AcDbSymbolTableRecord
100
AcDbLinetypeTableRecord
  2
DASHED3
 70
     0
  3
------  ------  ------  ------  
 72
    65
 73
     2
 40
5.0
 49
3.75
 74
     0
 49
-1.25
 74
     0
  0
LTYPE
  5
25
330
5
100
AcDbSymbolTableRecord
100
AcDbLinetypeTableRecord
  2
CENTER1
 70
     0
  3
----- - ----- - ----- - ----- - 
 72
    65
 73
     4
 40
10.0
 49
6.25
 74
     0
 49
-1.25
 74
     0
 49
1.25
 74
     0
 49
-1.25
 74
     0
  0
LTYPE
  5
26
330
5
100
AcDbSymbolTableRecord
100
AcDbLinetypeTableRecord
  2
CENTER2
 70
     0
  3
----------  --  ----------  --  
 72
    65
 73
     4
 40
20.0
 49
12.5
 74
     0
 49
-2.5
 74
     0
 49
2.5
 74
     0
 49
-2.5
 74
     0
  0
LTYPE
  5
27
330
5
100
AcDbSymbolTableRecord
100
AcDbLinetypeTableRecord
  2
PHANTOM1
 70
     0
  3
--- - - --- - - --- - - --- - - 
 72
    65
 73
     6
 40
10.0
 49
3.25
 74
     0
 49
-1.25
 74
     0
 49
1.25
 74
     0
 49
-1.25
 74
     0
 49
1.25
 74
     0
 49
-1.25
 74
     0
  0
LTYPE
  5
28
330
5
100
AcDbSymbolTableRecord
100
AcDbLinetypeTableRecord
  2
PHANTOM2
 70
     0
  3
--------  -  -  --------  -  -  
 72
    65
 73
     6
 40
20.0
 49
10.0
 74
     0
 49
-2.5
 74
     0
 49
1.25
 74
     0
 49
-2.5
 74
     0
 49
1.25
 74
     0
 49
-2.5
 74
     0
  0
LTYPE
  5
29
330
5
100
AcDbSymbolTableRecord
100
AcDbLinetypeTableRecord
  2
DOT
 70
     0
  3
-   -   -   -   -   -   -   -   
 72
    65
 73
     2
 40
2.5
 49
0.625
 74
     0
 49
-1.875
 74
     0
  0
LTYPE
  5
2A
330
5
100
AcDbSymbolTableRecord
100
AcDbLinetypeTableRecord
  2
DUMMY
 70
     0
  3
ダミー
 72
    65
 73
     0
 40
0.0
  0
LTYPE
  5
2B
330
5
100
AcDbSymbolTableRecord
100
AcDbLinetypeTableRecord
  2
RAND1
 70
     0
  3
ランダム線1
 72
    65
 73
     4
 40
10.0
 49
1.0
 74
     0
 49
-2.0
 74
     0
 49
3.0
 74
     0
 49
-4.0
 74
     0
  0
LTYPE
  5
2C
330
5
100
AcDbSymbolTableRecord
100
AcDbLinetypeTableRecord
  2
RAND2
 70
     0
  3
ランダム線2
 72
    65
 73
     4
 40
14.0
 49
2.0
 74
     0
 49
-3.0
 74
     0
 49
4.0
 74
     0
 49
-5.0
 74
     0
  0
LTYPE
  5
2D
330
5
100
AcDbSymbolTableRecord
100
AcDbLinetypeTableRecord
  2
RAND3
 70
     0
  3
ランダム線3
 72
    65
 73
     4
 40
18.0
 49
3.0
 74
     0
 49
-4.0
 74
     0
 49
5.0
 74
     0
 49
-6.0
 74
     0
  0
LTYPE
  5
2E
330
5
100
AcDbSymbolTableRecord
100
AcDbLinetypeTableRecord
  2
RAND4
 70
     0
  3
ランダム線4
 72
    65
 73
     4
 40
22.0
 49
4.0
 74
     0
 49
-5.0
 74
     0
 49
6.0
 74
     0
 49
-7.0
 74
     0
  0
LTYPE
  5
2F
330
5
100
AcDbSymbolTableRecord
100
AcDbLinetypeTableRecord
  2
RAND5
 70
     0
  3
ランダム線5
 72
    65
 73
     4
 40
26.0
 49
5.0
 74
     0
 49
-6.0
 74
     0
 49
7.0
 74
     0
 49
-8.0
 74
     0
  0
LTYPE
  5
30
330
5
100
AcDbSymbolTableRecord
100
AcDbLinetypeTableRecord
  2
LONG1
 70
     0
  3
----------  --  ----------  --  
 72
    65
 73
     4
 40
40.0
 49
32.5
 74
     0
 49
-2.5
 74
     0
 49
2.5
 74
     0
 49
-2.5
 74
     0
  0
LTYPE
  5
31
330
5
100
AcDbSymbolTableRecord
100
AcDbLinetypeTableRecord
  2
LONG2
 70
     0
  3
--------  -  -  --------  -  -  
 72
    65
 73
     6
 40
40.0
 49
30.0
 74
     0
 49
-2.5
 74
     0
 49
1.25
 74
     0
 49
-2.5
 74
     0
 49
1.25
 74
     0
 49
-2.5
 74
     0
  0
LTYPE
  5
32
330
5
100
AcDbSymbolTableRecord
100
AcDbLinetypeTableRecord
  2
LONG3
 70
     0
  3
+++++++++++++++..+++++++++++++++
 72
    65
 73
     2
 40
40.0
 49
37.5
 74
     0
 49
-2.5
 74
     0
  0
LTYPE
  5
33
330
5
100
AcDbSymbolTableRecord
100
AcDbLinetypeTableRecord
  2
LONG4
 70
     0
  3
+++++++++++++++..+++++++++++++++
 72
    65
 73
     2
 40
80.0
 49
75.0
 74
     0
 49
-5.0
 74
     0
  0
LTYPE
  5
34
330
5
100
AcDbSymbolTableRecord
100
AcDbLinetypeTableRecord
  2
LONG5
 70
     0
  3
----------  --  ----------  --  
 72
    65
 73
     4
 40
60.0
 49
37.5
 74
     0
 49
-7.5
 74
     0
 49
7.5
 74
     0
 49
-7.5
 74
     0
  0
LTYPE
  5
35
330
5
100
AcDbSymbolTableRecord
100
AcDbLinetypeTableRecord
  2
DASHED
 70
     0
  3
-------   -------------   ------
 72
    65
 73
     2
 40
7.5
 49
6.0
 74
     0
 49
-1.5
 74
     0
  0
LTYPE
  5
36
330
5
100
AcDbSymbolTableRecord
100
AcDbLinetypeTableRecord
  2
DASHED_SPACED
 70
     0
  3
----        --------        ----
 72
    65
 73
     2
 40
12.0
 49
6.0
 74
     0
 49
-6.0
 74
     0
  0
LTYPE
  5
37
330
5
100
AcDbSymbolTableRecord
100
AcDbLinetypeTableRecord
  2
LONG_DASHED_DOTTED
 70
     0
  3
------------- --- --------------
 72
    65
 73
     4
 40
15.25
 49
12.0
 74
     0
 49
-1.5
 74
     0
 49
0.25
 74
     0
 49
-1.5
 74
     0
  0
LTYPE
  5
38
330
5
100
AcDbSymbolTableRecord
100
AcDbLinetypeTableRecord
  2
LONG_DASHED_DOUBLE-DOTTED
 70
     0
  3
----------- --- --- ------------
 72
    65
 73
     6
 40
17.0
 49
12.0
 74
     0
 49
-1.5
 74
     0
 49
0.25
 74
     0
 49
-1.5
 74
     0
 49
0.25
 74
     0
 49
-1.5
 74
     0
  0
LTYPE
  5
39
330
5
100
AcDbSymbolTableRecord
100
AcDbLinetypeTableRecord
  2
LONG_DASHED_TRIPLICATE-DOTTED
 70
     0
  3
--------- --- --- --- ----------
 72
    65
 73
     8
 40
18.75
 49
12.0
 74
     0
 49
-1.5
 74
     0
 49
0.25
 74
     0
 49
-1.5
 74
     0
 49
0.25
 74
     0
 49
-1.5
 74
     0
 49
0.25
 74
     0
 49
-1.5
 74
     0
  0
LTYPE
  5
3A
330
5
100
AcDbSymbolTableRecord
100
AcDbLinetypeTableRecord
  2
DOTTED
 70
     0
  3
   -       -       -       -    
 72
    65
 73
     2
 40
1.75
 49
0.25
 74
     0
 49
-1.5
 74
     0
  0
LTYPE
  5
3B
330
5
100
AcDbSymbolTableRecord
100
AcDbLinetypeTableRecord
  2
CHAIN
 70
     0
  3
-------------- -- --------------
 72
    65
 73
     4
 40
18.5
 49
12.0
 74
     0
 49
-1.5
 74
     0
 49
3.5
 74
     0
 49
-1.5
 74
     0
  0
LTYPE
  5
3C
330
5
100
AcDbSymbolTableRecord
100
AcDbLinetypeTableRecord
  2
CHAIN_DOUBLE_DASH
 70
     0
  3
------------ -- -- -------------
 72
    65
 73
     6
 40
23.5
 49
12.0
 74
     0
 49
-1.5
 74
     0
 49
3.5
 74
     0
 49
-1.5
 74
     0
 49
3.5
 74
     0
 49
-1.5
 74
     0
  0
LTYPE
  5
3D
330
5
100
AcDbSymbolTableRecord
100
AcDbLinetypeTableRecord
  2
DASHED_DOTTED
 70
     0
  3
-----------     -     ----------
 72
    65
 73
     4
 40
9.25
 49
6.0
 74
     0
 49
-1.5
 74
     0
 49
0.25
 74
     0
 49
-1.5
 74
     0
  0
LTYPE
  5
3E
330
5
100
AcDbSymbolTableRecord
100
AcDbLinetypeTableRecord
  2
DOUBLE-DASHED_DOTTED
 70
     0
  3
------   -----------   -   -----
 72
    65
 73
     6
 40
16.75
 49
6.0
 74
     0
 49
-1.5
 74
     0
 49
6.0
 74
     0
 49
-1.5
 74
     0
 49
0.25
 74
     0
 49
-1.5
 74
     0
  0
LTYPE
  5
3F
330
5
100
AcDbSymbolTableRecord
100
AcDbLinetypeTableRecord
  2
DASHED_DOUBLE-DOTTED
 70
     0
  3
---------    -    -    ---------
 72
    65
 73
     6
 40
11.0
 49
6.0
 74
     0
 49
-1.5
 74
     0
 49
0.25
 74
     0
 49
-1.5
 74
     0
 49
0.25
 74
     0
 49
-1.5
 74
     0
  0
LTYPE
  5
40
330
5
100
AcDbSymbolTableRecord
100
AcDbLinetypeTableRecord
  2
DOUBLE-DASHED_DOUBLE-DOTTED
 70
     0
  3
-----   ---------   -   -   ----
 72
    65
 73
     8
 40
18.5
 49
6.0
 74
     0
 49
-1.5
 74
     0
 49
6.0
 74
     0
 49
-1.5
 74
     0
 49
0.25
 74
     0
 49
-1.5
 74
     0
 49
0.25
 74
     0
 49
-1.5
 74
     0
  0
LTYPE
  5
41
330
5
100
AcDbSymbolTableRecord
100
AcDbLinetypeTableRecord
  2
DASHED_TRIPLICATE-DOTTED
 70
     0
  3
-------    -    -    -    ------
 72
    65
 73
     8
 40
12.75
 49
6.0
 74
     0
 49
-1.5
 74
     0
 49
0.25
 74
     0
 49
-1.5
 74
     0
 49
0.25
 74
     0
 49
-1.5
 74
     0
 49
0.25
 74
     0
 49
-1.5
 74
     0
  0
LTYPE
  5
42
330
5
100
AcDbSymbolTableRecord
100
AcDbLinetypeTableRecord
  2
DOUBLE-DASHED_TRIPLICATE-DOTTED
 70
     0
  3
-----  ---------  -  -  -  -----
 72
    65
 73
    10
 40
20.25
 49
6.0
 74
     0
 49
-1.5
 74
     0
 49
6.0
 74
     0
 49
-1.5
 74
     0
 49
0.25
 74
     0
 49
-1.5
 74
     0
 49
0.25
 74
     0
 49
-1.5
 74
     0
 49
0.25
 74
     0
 49
-1.5
 74
     0
  0
LTYPE
  5
43
330
5
100
AcDbSymbolTableRecord
100
AcDbLinetypeTableRecord
  2
UNDEFINED
 70
     0
  3
--------------------------------
 72
    65
 73
     0
 40
0.0
  0
LTYPE
  5
44
330
5
100
AcDbSymbolTableRecord
100
AcDbLinetypeTableRecord
  2
PLINE2
 70
     0
  3
------     -----------     -----
 72
    65
 73
     2
 40
3.0
 49
2.1
 74
     0
 49
-0.9
 74
     0
  0
LTYPE
  5
45
330
5
100
AcDbSymbolTableRecord
100
AcDbLinetypeTableRecord
  2
PLINE3
 70
     0
  3
------------   ---   -----------
 72
    65
 73
     4
 40
10.0
 49
7.0
 74
     0
 49
-1.0
 74
     0
 49
1.0
 74
     0
 49
-1.0
 74
     0
  0
LTYPE
  5
46
330
5
100
AcDbSymbolTableRecord
100
AcDbLinetypeTableRecord
  2
PLINE4
 70
     0
  3
---------   ---   ---   --------
 72
    65
 73
     6
 40
10.0
 49
5.0
 74
     0
 49
-1.0
 74
     0
 49
1.0
 74
     0
 49
-1.0
 74
     0
 49
1.0
 74
     0
 49
-1.0
 74
     0
  0
LTYPE
  5
47
330
5
100
AcDbSymbolTableRecord
100
AcDbLinetypeTableRecord
  2
PLINE5
 70
     0
  3
------     -----------     -----
 72
    65
 73
     2
 40
5.0
 49
3.5
 74
     0
 49
-1.5
 74
     0
  0
LTYPE
  5
48
330
5
100
AcDbSymbolTableRecord
100
AcDbLinetypeTableRecord
  2
PLINE6
 70
     0
  3
------------   ---   -----------
 72
    65
 73
     4
 40
15.0
 49
10.5
 74
     0
 49
-1.5
 74
     0
 49
1.5
 74
     0
 49
-1.5
 74
     0
  0
LTYPE
  5
49
330
5
100
AcDbSymbolTableRecord
100
AcDbLinetypeTableRecord
  2
PLINE7
 70
     0
  3
---------   ---   ---   --------
 72
    65
 73
     6
 40
15.0
 49
7.5
 74
     0
 49
-1.5
 74
     0
 49
1.5
 74
     0
 49
-1.5
 74
     0
 49
1.5
 74
     0
 49
-1.5
 74
     0
  0
LTYPE
  5
4A
330
5
100
AcDbSymbolTableRecord
100
AcDbLinetypeTableRecord
  2
PLINE8
 70
     0
  3
------     -----------     -----
 72
    65
 73
     2
 40
7.0
 49
4.9
 74
     0
 49
-2.1
 74
     0
  0
LTYPE
  5
4B
330
5
100
AcDbSymbolTableRecord
100
AcDbLinetypeTableRecord
  2
PLINE9
 70
     0
  3
------------   ---   -----------
 72
    65
 73
     4
 40
20.0
 49
14.0
 74
     0
 49
-2.0
 74
     0
 49
2.0
 74
     0
 49
-2.0
 74
     0
  0
LTYPE
  5
4C
330
5
100
AcDbSymbolTableRecord
100
AcDbLinetypeTableRecord
  2
PLINE10
 70
     0
  3
---------   ---   ---   --------
 72
    65
 73
     6
 40
20.0
 49
10.0
 74
     0
 49
-2.0
 74
     0
 49
2.0
 74
     0
 49
-2.0
 74
     0
 49
2.0
 74
     0
 49
-2.0
 74
     0
  0
LTYPE
  5
4D
330
5
100
AcDbSymbolTableRecord
100
AcDbLinetypeTableRecord
  2
PLINE11
 70
     0
  3
------     -----------     -----
 72
    65
 73
     2
 40
9.0
 49
6.299999999999999
 74
     0
 49
-2.7
 74
     0
  0
LTYPE
  5
4E
330
5
100
AcDbSymbolTableRecord
100
AcDbLinetypeTableRecord
  2
PLINE12
 70
     0
  3
------------   ---   -----------
 72
    65
 73
     4
 40
25.0
 49
17.5
 74
     0
 49
-2.5
 74
     0
 49
2.5
 74
     0
 49
-2.5
 74
     0
  0
LTYPE
  5
4F
330
5
100
AcDbSymbolTableRecord
100
AcDbLinetypeTableRecord
  2
PLINE13
 70
     0
  3
---------   ---   ---   --------
 72
    65
 73
     6
 40
25.0
 49
12.5
 74
     0
 49
-2.5
 74
     0
 49
2.5
 74
     0
 49
-2.5
 74
     0
 49
2.5
 74
     0
 49
-2.5
 74
     0
  0
LTYPE
  5
50
330
5
100
AcDbSymbolTableRecord
100
AcDbLinetypeTableRecord
  2
PLINE14
 70
     0
  3
------     -----------     -----
 72
    65
 73
     2
 40
11.0
 49
7.7
 74
     0
 49
-3.299999999999999
 74
     0
  0
LTYPE
  5
51
330
5
100
AcDbSymbolTableRecord
100
AcDbLinetypeTableRecord
  2
PLINE15
 70
     0
  3
------------   ---   -----------
 72
    65
 73
     4
 40
30.0
 49
21.0
 74
     0
 49
-3.0
 74
     0
 49
3.0
 74
     0
 49
-3.0
 74
     0
  0
LTYPE
  5
52
330
5
100
AcDbSymbolTableRecord
100
AcDbLinetypeTableRecord
  2
PLINE16
 70
     0
  3
---------   ---   ---   --------
 72
    65
 73
     6
 40
30.0
 49
15.0
 74
     0
 49
-3.0
 74
     0
 49
3.0
 74
     0
 49
-3.0
 74
     0
 49
3.0
 74
     0
 49
-3.0
 74
     0
  0
ENDTAB
  0
TABLE
  2
LAYER
  5
2
102
{ACAD_XDICTIONARY
360
175
102
}
330
0
100
AcDbSymbolTable
 70
     5
  0
LAYER
  5
10
330
2
100
AcDbSymbolTableRecord
100
AcDbLayerTableRecord
  2
0
 70
     0
 62
     7
  6
CONTINUOUS
370
    -3
390
F
  0
LAYER
  5
128
330
2
100
AcDbSymbolTableRecord
100
AcDbLayerTableRecord
  2
Defpoints
 70
     0
 62
     7
  6
CONTINUOUS
290
     0
370
    -3
390
F
  0
LAYER
  5
178
330
2
100
AcDbSymbolTableRecord
100
AcDbLayerTableRecord
  2
寸法
 70
     0
 62
     7
  6
CONTINUOUS
370
    -3
390
F
  0
LAYER
  5
179
330
2
100
AcDbSymbolTableRecord
100
AcDbLayerTableRecord
  2
躯体と製品
 70
     0
 62
     7
  6
CONTINUOUS
370
    -3
390
F
  0
LAYER
  5
4F62
330
2
100
AcDbSymbolTableRecord
100
AcDbLayerTableRecord
  2
図枠
 70
     0
 62
     7
  6
CONTINUOUS
370
    -3
390
F
  0
ENDTAB
  0
TABLE
  2
STYLE
  5
3
330
0
100
AcDbSymbolTable
 70
     5
  0
STYLE
  5
11
330
3
100
AcDbSymbolTableRecord
100
AcDbTextStyleTableRecord
  2
STANDARD
 70
     0
 40
0.0
 41
1.0
 50
0.0
 71
     0
 42
0.2
  3
txt
  4
bigfont.shx
  0
STYLE
  5
53
330
3
100
AcDbSymbolTableRecord
100
AcDbTextStyleTableRecord
  2
TATEGAKI
 70
     4
 40
0.0
 41
1.0
 50
0.0
 71
     0
 42
1.0
  3
txt
  4
bigfont.shx
  0
STYLE
  5
123
330
3
100
AcDbSymbolTableRecord
100
AcDbTextStyleTableRecord
  2
ACAD
 70
     0
 40
5.0
 41
0.8
 50
0.0
 71
     0
 42
5.0
  3
romans.shx
  4
extfont.shx
  0
STYLE
  5
3A5F
330
3
100
AcDbSymbolTableRecord
100
AcDbTextStyleTableRecord
  2
VERTXT
 70
     4
 40
0.0
 41
0.8582679999999999
 50
0.0
 71
     0
 42
3.5
  3
txt.shx
  4
BIGFONT
  0
STYLE
  5
50AD
330
3
100
AcDbSymbolTableRecord
100
AcDbTextStyleTableRecord
  2
STANDARD2
 70
     0
 40
0.0
 41
0.8582679999999999
 50
0.0
 71
     0
 42
3.5
  3
txt.shx
  4
EXTFONT
  0
ENDTAB
  0
TABLE
  2
VIEW
  5
6
330
0
100
AcDbSymbolTable
 70
     0
  0
ENDTAB
  0
TABLE
  2
UCS
  5
7
330
0
100
AcDbSymbolTable
 70
     0
  0
ENDTAB
  0
TABLE
  2
APPID
  5
9
330
0
100
AcDbSymbolTable
 70
     1
  0
APPID
  5
12
330
9
100
AcDbSymbolTableRecord
100
AcDbRegAppTableRecord
  2
ACAD
 70
     0
  0
ENDTAB
  0
TABLE
  2
DIMSTYLE
  5
A
330
0
100
AcDbSymbolTable
 70
     3
100
AcDbDimStyleTable
 71
     1
340
126
  0
DIMSTYLE
105
11C
330
A
100
AcDbSymbolTableRecord
100
AcDbDimStyleTableRecord
  2
Standard
 70
     0
340
11
  0
DIMSTYLE
105
126
102
{ACAD_REACTORS
330
6FFA
330
7007
330
7014
330
7021
330
702D
330
7038
330
7043
330
704E
330
705A
330
7065
102
}
330
A
100
AcDbSymbolTableRecord
100
AcDbDimStyleTableRecord
  2
AutoCAD
 70
     0
 41
1.0
 42
0.0
 44
0.0
 73
     0
 77
     1
140
5.0
147
1.0
174
     1
176
     4
177
     4
178
     3
271
     0
272
     0
289
     0
340
123
341
15B0
342
11E
  0
DIMSTYLE
105
2CBB
330
A
100
AcDbSymbolTableRecord
100
AcDbDimStyleTableRecord
  2
111
 70
     0
 41
1.0
 42
0.0
 44
0.0
 73
     0
 77
     1
140
5.0
147
1.0
174
     1
176
     4
177
     4
178
     3
271
     0
272
     0
289
     0
340
123
341
15B0
342
2CB5
  0
ENDTAB
  0
TABLE
  2
BLOCK_RECORD
  5
1
330
0
100
AcDbSymbolTable
 70
    14
  0
BLOCK_RECORD
  5
1E
102
{ACAD_XDICTIONARY
360
28B
102
}
330
1
100
AcDbSymbolTableRecord
100
AcDbBlockTableRecord
  2
*Model_Space
340
21
  0
BLOCK_RECORD
  5
1A
102
{ACAD_XDICTIONARY
360
28D
102
}
330
1
100
AcDbSymbolTableRecord
100
AcDbBlockTableRecord
  2
*Paper_Space
340
1D
  0
BLOCK_RECORD
  5
11E
330
1
100
AcDbSymbolTableRecord
100
AcDbBlockTableRecord
  2
_Dot
340
0
102
{BLKREFS
331
700C
331
700D
331
703B
331
703C
331
705D
331
705E
331
7068
331
7069
331
7073
331
7074
331
707C
331
707D
331
7084
331
7085
331
708C
331
708D
331
7093
331
7094
331
709A
331
709B
102
}
  0
BLOCK_RECORD
  5
15B0
330
1
100
AcDbSymbolTableRecord
100
AcDbBlockTableRecord
  2
_None
340
0
  0
BLOCK_RECORD
  5
2CB5
330
1
100
AcDbSymbolTableRecord
100
AcDbBlockTableRecord
  2
_Open30
340
0
  0
BLOCK_RECORD
  5
35E3
330
1
100
AcDbSymbolTableRecord
100
AcDbBlockTableRecord
  2
_DotBlank
340
0
  0
BLOCK_RECORD
  5
6FFB
330
1
100
AcDbSymbolTableRecord
100
AcDbBlockTableRecord
  2
*D4
340
0
  0
BLOCK_RECORD
  5
7008
330
1
100
AcDbSymbolTableRecord
100
AcDbBlockTableRecord
  2
*D5
340
0
  0
BLOCK_RECORD
  5
7015
330
1
100
AcDbSymbolTableRecord
100
AcDbBlockTableRecord
  2
*D6
340
0
  0
BLOCK_RECORD
  5
7022
330
1
100
AcDbSymbolTableRecord
100
AcDbBlockTableRecord
  2
*D7
340
0
  0
BLOCK_RECORD
  5
702E
330
1
100
AcDbSymbolTableRecord
100
AcDbBlockTableRecord
  2
*D8
340
0
  0
BLOCK_RECORD
  5
7039
330
1
100
AcDbSymbolTableRecord
100
AcDbBlockTableRecord
  2
*D9
340
0
  0
BLOCK_RECORD
  5
7044
330
1
100
AcDbSymbolTableRecord
100
AcDbBlockTableRecord
  2
*D10
340
0
  0
BLOCK_RECORD
  5
704F
330
1
100
AcDbSymbolTableRecord
100
AcDbBlockTableRecord
  2
*D11
340
0
  0
BLOCK_RECORD
  5
705B
330
1
100
AcDbSymbolTableRecord
100
AcDbBlockTableRecord
  2
*D12
340
0
  0
BLOCK_RECORD
  5
7066
330
1
100
AcDbSymbolTableRecord
100
AcDbBlockTableRecord
  2
*D13
340
0
  0
ENDTAB
  0
ENDSEC
  0
SECTION
  2
BLOCKS
  0
BLOCK
  5
1F
330
1E
100
AcDbEntity
  8
0
100
AcDbBlockBegin
  2
*Model_Space
 70
     0
 10
0.0
 20
0.0
 30
0.0
  3
*Model_Space
  1

  0
ENDBLK
  5
20
330
1E
100
AcDbEntity
  8
0
100
AcDbBlockEnd
  0
BLOCK
  5
1B
330
1A
100
AcDbEntity
 67
     1
  8
0
100
AcDbBlockBegin
  2
*Paper_Space
 70
     0
 10
0.0
 20
0.0
 30
0.0
  3
*Paper_Space
  1

  0
ENDBLK
  5
1C
330
1A
100
AcDbEntity
 67
     1
  8
0
100
AcDbBlockEnd
  0
BLOCK
  5
121
330
11E
100
AcDbEntity
  8
0
100
AcDbBlockBegin
  2
_Dot
 70
     0
 10
0.0
 20
0.0
 30
0.0
  3
_Dot
  1

  0
LWPOLYLINE
  5
11F
330
11E
100
AcDbEntity
  8
0
  6
ByBlock
 62
     0
100
AcDbPolyline
 90
        2
 70
     1
 43
0.5
 10
-0.25
 20
0.0
 42
1.0
 10
0.25
 20
0.0
 42
1.0
  0
LINE
  5
120
330
11E
100
AcDbEntity
  8
0
  6
ByBlock
 62
     0
370
    -2
100
AcDbLine
 10
-0.5
 20
0.0
 30
0.0
 11
-1.0
 21
0.0
 31
0.0
  0
ENDBLK
  5
122
330
11E
100
AcDbEntity
  8
0
100
AcDbBlockEnd
  0
BLOCK
  5
15B1
330
15B0
100
AcDbEntity
  8
0
100
AcDbBlockBegin
  2
_None
 70
     0
 10
0.0
 20
0.0
 30
0.0
  3
_None
  1

  0
ENDBLK
  5
15B2
330
15B0
100
AcDbEntity
  8
0
100
AcDbBlockEnd
  0
BLOCK
  5
2CB9
330
2CB5
100
AcDbEntity
  8
0
100
AcDbBlockBegin
  2
_Open30
 70
     0
 10
0.0
 20
0.0
 30
0.0
  3
_Open30
  1

  0
LINE
  5
2CB6
330
2CB5
100
AcDbEntity
  8
0
  6
ByBlock
 62
     0
370
    -2
100
AcDbLine
 10
-1.0
 20
0.26794919
 30
0.0
 11
0.0
 21
0.0
 31
0.0
  0
LINE
  5
2CB7
330
2CB5
100
AcDbEntity
  8
0
  6
ByBlock
 62
     0
370
    -2
100
AcDbLine
 10
0.0
 20
0.0
 30
0.0
 11
-1.0
 21
-0.26794919
 31
0.0
  0
LINE
  5
2CB8
330
2CB5
100
AcDbEntity
  8
0
  6
ByBlock
 62
     0
370
    -2
100
AcDbLine
 10
0.0
 20
0.0
 30
0.0
 11
-1.0
 21
0.0
 31
0.0
  0
ENDBLK
  5
2CBA
330
2CB5
100
AcDbEntity
  8
0
100
AcDbBlockEnd
  0
BLOCK
  5
35E6
330
35E3
100
AcDbEntity
  8
0
100
AcDbBlockBegin
  2
_DotBlank
 70
     0
 10
0.0
 20
0.0
 30
0.0
  3
_DotBlank
  1

  0
CIRCLE
  5
35E4
330
35E3
100
AcDbEntity
  8
0
  6
ByBlock
 62
     0
370
    -2
100
AcDbCircle
 10
0.0
 20
0.0
 30
0.0
 40
0.5
  0
LINE
  5
35E5
330
35E3
100
AcDbEntity
  8
0
  6
ByBlock
 62
     0
370
    -2
100
AcDbLine
 10
-0.5
 20
0.0
 30
0.0
 11
-1.0
 21
0.0
 31
0.0
  0
ENDBLK
  5
35E7
330
35E3
100
AcDbEntity
  8
0
100
AcDbBlockEnd
  0
BLOCK
  5
7005
330
6FFB
100
AcDbEntity
  8
0
100
AcDbBlockBegin
  2
*D4
 70
     1
 10
0.0
 20
0.0
 30
0.0
  3
*D4
  1

  0
LINE
  5
7070
330
6FFB
100
AcDbEntity
  8
寸法
  6
Continuous
 62
     4
370
    -2
100
AcDbLine
 10
1480.695202452604
 20
809.8549055716349
 30
0.0
 11
1480.695202452604
 21
885.2442479099881
 31
0.0
  0
LINE
  5
7071
330
6FFB
100
AcDbEntity
  8
寸法
  6
Continuous
 62
     4
370
    -2
100
AcDbLine
 10
1980.695202452604
 20
809.8549055716349
 30
0.0
 11
1980.695202452604
 21
885.2442479099881
 31
0.0
  0
LINE
  5
7072
330
6FFB
100
AcDbEntity
  8
寸法
  6
Continuous
 62
     4
370
    -2
100
AcDbLine
 10
1481.695202452604
 20
885.2442479099881
 30
0.0
 11
1979.695202452604
 21
885.2442479099881
 31
0.0
  0
INSERT
  5
7073
330
6FFB
100
AcDbEntity
  8
寸法
  6
Continuous
 62
     4
370
    -2
100
AcDbBlockReference
  2
_Dot
 10
1480.695202452604
 20
885.2442479099881
 30
0.0
 50
180.0
  0
INSERT
  5
7074
330
6FFB
100
AcDbEntity
  8
寸法
  6
Continuous
 62
     4
370
    -2
100
AcDbBlockReference
  2
_Dot
 10
1980.695202452604
 20
885.2442479099881
 30
0.0
  0
MTEXT
  5
7075
330
6FFB
100
AcDbEntity
  8
寸法
  6
Continuous
 62
     3
100
AcDbMText
 10
1730.695202452604
 20
888.7442479099881
 30
0.0
 40
5.0
 41
0.0
 71
     5
 72
     1
  1
\A1;W
  7
ACAD
 73
     1
 44
1.0
1001
ACAD
1000
MTEXTBEGIN
1070
    73
1070
     1
1070
    44
1040
1.0
1070
    74
1070
     0
1000
MTEXTEND
  0
POINT
  5
7076
330
6FFB
100
AcDbEntity
  8
Defpoints
  6
Continuous
 62
     0
100
AcDbPoint
 10
1480.695202452604
 20
809.8549055716349
 30
0.0
  0
POINT
  5
7077
330
6FFB
100
AcDbEntity
  8
Defpoints
  6
Continuous
 62
     0
100
AcDbPoint
 10
1980.695202452604
 20
809.8549055716349
 30
0.0
  0
POINT
  5
7078
330
6FFB
100
AcDbEntity
  8
Defpoints
  6
Continuous
 62
     0
100
AcDbPoint
 10
1980.695202452604
 20
885.2442479099881
 30
0.0
  0
ENDBLK
  5
7006
330
6FFB
100
AcDbEntity
  8
0
100
AcDbBlockEnd
  0
BLOCK
  5
7012
330
7008
100
AcDbEntity
  8
0
100
AcDbBlockBegin
  2
*D5
 70
     1
 10
0.0
 20
0.0
 30
0.0
  3
*D5
  1

  0
LINE
  5
7009
330
7008
100
AcDbEntity
  8
寸法
  6
Continuous
 62
     4
370
    -2
100
AcDbLine
 10
1982.695202452604
 20
807.8549055716347
 30
0.0
 11
2040.695202452605
 21
807.8549055716347
 31
0.0
  0
LINE
  5
700A
330
7008
100
AcDbEntity
  8
寸法
  6
Continuous
 62
     4
370
    -2
100
AcDbLine
 10
1982.695202452604
 20
717.854905571635
 30
0.0
 11
2040.695202452605
 21
717.854905571635
 31
0.0
  0
LINE
  5
700B
330
7008
100
AcDbEntity
  8
寸法
  6
Continuous
 62
     4
370
    -2
100
AcDbLine
 10
2040.695202452605
 20
806.8549055716347
 30
0.0
 11
2040.695202452605
 21
718.8549055716349
 31
0.0
  0
INSERT
  5
700C
330
7008
100
AcDbEntity
  8
寸法
  6
Continuous
 62
     4
370
    -2
100
AcDbBlockReference
  2
_Dot
 10
2040.695202452605
 20
807.8549055716347
 30
0.0
 50
90.0
  0
INSERT
  5
700D
330
7008
100
AcDbEntity
  8
寸法
  6
Continuous
 62
     4
370
    -2
100
AcDbBlockReference
  2
_Dot
 10
2040.695202452605
 20
717.854905571635
 30
0.0
 50
270.0
  0
MTEXT
  5
700E
330
7008
100
AcDbEntity
  8
寸法
  6
Continuous
 62
     3
100
AcDbMText
 10
2037.195202452604
 20
762.8549055716352
 30
0.0
 40
5.0
 41
0.0
 71
     5
 72
     1
  1
\A1;90
  7
ACAD
 11
0.0000000000000001
 21
1.0
 31
0.0
 73
     1
 44
1.0
1001
ACAD
1000
MTEXTBEGIN
1070
    73
1070
     1
1070
    44
1040
1.0
1070
    74
1070
     0
1000
MTEXTEND
  0
POINT
  5
700F
330
7008
100
AcDbEntity
  8
Defpoints
  6
Continuous
 62
     0
100
AcDbPoint
 10
1982.695202452604
 20
807.8549055716347
 30
0.0
  0
POINT
  5
7010
330
7008
100
AcDbEntity
  8
Defpoints
  6
Continuous
 62
     0
100
AcDbPoint
 10
1982.695202452604
 20
717.854905571635
 30
0.0
  0
POINT
  5
7011
330
7008
100
AcDbEntity
  8
Defpoints
  6
Continuous
 62
     0
100
AcDbPoint
 10
2040.695202452605
 20
717.854905571635
 30
0.0
  0
ENDBLK
  5
7013
330
7008
100
AcDbEntity
  8
0
100
AcDbBlockEnd
  0
BLOCK
  5
701F
330
7015
100
AcDbEntity
  8
0
100
AcDbBlockBegin
  2
*D6
 70
     1
 10
0.0
 20
0.0
 30
0.0
  3
*D6
  1

  0
LINE
  5
7079
330
7015
100
AcDbEntity
  8
寸法
  6
Continuous
 62
     4
370
    -2
100
AcDbLine
 10
1909.39892893123
 20
760.2442479099882
 30
0.0
 11
2020.695202452605
 21
760.2442479099882
 31
0.0
  0
LINE
  5
707A
330
7015
100
AcDbEntity
  8
寸法
  6
Continuous
 62
     4
370
    -2
100
AcDbLine
 10
1982.695202452604
 20
717.854905571635
 30
0.0
 11
2020.695202452605
 21
717.854905571635
 31
0.0
  0
LINE
  5
707B
330
7015
100
AcDbEntity
  8
寸法
  6
Continuous
 62
     4
370
    -2
100
AcDbLine
 10
2020.695202452605
 20
759.2442479099881
 30
0.0
 11
2020.695202452605
 21
718.8549055716349
 31
0.0
  0
INSERT
  5
707C
330
7015
100
AcDbEntity
  8
寸法
  6
Continuous
 62
     4
370
    -2
100
AcDbBlockReference
  2
_Dot
 10
2020.695202452605
 20
760.2442479099882
 30
0.0
 50
90.0
  0
INSERT
  5
707D
330
7015
100
AcDbEntity
  8
寸法
  6
Continuous
 62
     4
370
    -2
100
AcDbBlockReference
  2
_Dot
 10
2020.695202452605
 20
717.854905571635
 30
0.0
 50
270.0
  0
MTEXT
  5
707E
330
7015
100
AcDbEntity
  8
寸法
  6
Continuous
 62
     3
100
AcDbMText
 10
2017.195202452604
 20
739.0495767408118
 30
0.0
 40
5.0
 41
0.0
 71
     5
 72
     1
  1
\A1;44
  7
ACAD
 11
0.0000000000000001
 21
1.0
 31
0.0
 73
     1
 44
1.0
1001
ACAD
1000
MTEXTBEGIN
1070
    73
1070
     1
1070
    44
1040
1.0
1070
    74
1070
     0
1000
MTEXTEND
  0
POINT
  5
707F
330
7015
100
AcDbEntity
  8
Defpoints
  6
Continuous
 62
     0
100
AcDbPoint
 10
1909.39892893123
 20
760.2442479099882
 30
0.0
  0
POINT
  5
7080
330
7015
100
AcDbEntity
  8
Defpoints
  6
Continuous
 62
     0
100
AcDbPoint
 10
1982.695202452604
 20
717.854905571635
 30
0.0
  0
POINT
  5
7081
330
7015
100
AcDbEntity
  8
Defpoints
  6
Continuous
 62
     0
100
AcDbPoint
 10
2020.695202452605
 20
717.854905571635
 30
0.0
  0
ENDBLK
  5
7020
330
7015
100
AcDbEntity
  8
0
100
AcDbBlockEnd
  0
BLOCK
  5
702B
330
7022
100
AcDbEntity
  8
0
100
AcDbBlockBegin
  2
*D7
 70
     1
 10
0.0
 20
0.0
 30
0.0
  3
*D7
  1

  0
LINE
  5
7082
330
7022
100
AcDbEntity
  8
寸法
  6
Continuous
 62
     4
370
    -2
100
AcDbLine
 10
1980.695202452604
 20
715.8549055716352
 30
0.0
 11
1980.695202452604
 21
630.2442479099881
 31
0.0
  0
LINE
  5
7083
330
7022
100
AcDbEntity
  8
寸法
  6
Continuous
 62
     4
370
    -2
100
AcDbLine
 10
1979.695202452604
 20
630.2442479099881
 30
0.0
 11
1906.695202452605
 21
630.2442479099881
 31
0.0
  0
INSERT
  5
7084
330
7022
100
AcDbEntity
  8
寸法
  6
Continuous
 62
     4
370
    -2
100
AcDbBlockReference
  2
_Dot
 10
1980.695202452604
 20
630.2442479099881
 30
0.0
  0
INSERT
  5
7085
330
7022
100
AcDbEntity
  8
寸法
  6
Continuous
 62
     4
370
    -2
100
AcDbBlockReference
  2
_Dot
 10
1905.695202452605
 20
630.2442479099881
 30
0.0
 50
180.0
  0
MTEXT
  5
7086
330
7022
100
AcDbEntity
  8
寸法
  6
Continuous
 62
     3
100
AcDbMText
 10
1943.195202452605
 20
633.7442479099881
 30
0.0
 40
5.0
 41
0.0
 71
     5
 72
     1
  1
\A1;75≦
  7
ACAD
 73
     1
 44
1.0
1001
ACAD
1000
MTEXTBEGIN
1070
    73
1070
     1
1070
    44
1040
1.0
1070
    74
1070
     0
1000
MTEXTEND
  0
POINT
  5
7087
330
7022
100
AcDbEntity
  8
Defpoints
  6
Continuous
 62
     0
100
AcDbPoint
 10
1980.695202452604
 20
715.8549055716352
 30
0.0
  0
POINT
  5
7088
330
7022
100
AcDbEntity
  8
Defpoints
  6
Continuous
 62
     0
100
AcDbPoint
 10
1905.695202452605
 20
630.2442479099881
 30
0.0
  0
POINT
  5
7089
330
7022
100
AcDbEntity
  8
Defpoints
  6
Continuous
 62
     0
100
AcDbPoint
 10
1905.695202452605
 20
630.2442479099881
 30
0.0
  0
ENDBLK
  5
702C
330
7022
100
AcDbEntity
  8
0
100
AcDbBlockEnd
  0
BLOCK
  5
7036
330
702E
100
AcDbEntity
  8
0
100
AcDbBlockBegin
  2
*D8
 70
     1
 10
0.0
 20
0.0
 30
0.0
  3
*D8
  1

  0
LINE
  5
7099
330
702E
100
AcDbEntity
  8
寸法
  6
Continuous
 62
     4
370
    -2
100
AcDbLine
 10
1904.695202452605
 20
630.2442479099881
 30
0.0
 11
1781.695202452605
 21
630.2442479099881
 31
0.0
  0
INSERT
  5
709A
330
702E
100
AcDbEntity
  8
寸法
  6
Continuous
 62
     4
370
    -2
100
AcDbBlockReference
  2
_Dot
 10
1905.695202452605
 20
630.2442479099881
 30
0.0
  0
INSERT
  5
709B
330
702E
100
AcDbEntity
  8
寸法
  6
Continuous
 62
     4
370
    -2
100
AcDbBlockReference
  2
_Dot
 10
1780.695202452605
 20
630.2442479099881
 30
0.0
 50
180.0
  0
MTEXT
  5
709C
330
702E
100
AcDbEntity
  8
寸法
  6
Continuous
 62
     3
100
AcDbMText
 10
1843.195202452605
 20
633.7442479099881
 30
0.0
 40
5.0
 41
0.0
 71
     5
 72
     1
  1
\A1;≦Ｃ
  7
ACAD
 73
     1
 44
1.0
1001
ACAD
1000
MTEXTBEGIN
1070
    73
1070
     1
1070
    44
1040
1.0
1070
    74
1070
     0
1000
MTEXTEND
  0
POINT
  5
709D
330
702E
100
AcDbEntity
  8
Defpoints
  6
Continuous
 62
     0
100
AcDbPoint
 10
1905.695202452605
 20
630.2442479099881
 30
0.0
  0
POINT
  5
709E
330
702E
100
AcDbEntity
  8
Defpoints
  6
Continuous
 62
     0
100
AcDbPoint
 10
1780.695202452605
 20
630.2442479099881
 30
0.0
  0
POINT
  5
709F
330
702E
100
AcDbEntity
  8
Defpoints
  6
Continuous
 62
     0
100
AcDbPoint
 10
1780.695202452605
 20
630.2442479099881
 30
0.0
  0
ENDBLK
  5
7037
330
702E
100
AcDbEntity
  8
0
100
AcDbBlockEnd
  0
BLOCK
  5
7041
330
7039
100
AcDbEntity
  8
0
100
AcDbBlockBegin
  2
*D9
 70
     1
 10
0.0
 20
0.0
 30
0.0
  3
*D9
  1

  0
LINE
  5
703A
330
7039
100
AcDbEntity
  8
寸法
  6
Continuous
 62
     4
370
    -2
100
AcDbLine
 10
1779.695202452605
 20
630.2442479099881
 30
0.0
 11
1681.695202452605
 21
630.2442479099881
 31
0.0
  0
INSERT
  5
703B
330
7039
100
AcDbEntity
  8
寸法
  6
Continuous
 62
     4
370
    -2
100
AcDbBlockReference
  2
_Dot
 10
1780.695202452605
 20
630.2442479099881
 30
0.0
  0
INSERT
  5
703C
330
7039
100
AcDbEntity
  8
寸法
  6
Continuous
 62
     4
370
    -2
100
AcDbBlockReference
  2
_Dot
 10
1680.695202452605
 20
630.2442479099881
 30
0.0
 50
180.0
  0
MTEXT
  5
703D
330
7039
100
AcDbEntity
  8
寸法
  6
Continuous
 62
     3
100
AcDbMText
 10
1730.695202452605
 20
633.7442479099881
 30
0.0
 40
5.0
 41
0.0
 71
     5
 72
     1
  1
\A1;100
  7
ACAD
 73
     1
 44
1.0
1001
ACAD
1000
MTEXTBEGIN
1070
    73
1070
     1
1070
    44
1040
1.0
1070
    74
1070
     0
1000
MTEXTEND
  0
POINT
  5
703E
330
7039
100
AcDbEntity
  8
Defpoints
  6
Continuous
 62
     0
100
AcDbPoint
 10
1780.695202452605
 20
630.2442479099881
 30
0.0
  0
POINT
  5
703F
330
7039
100
AcDbEntity
  8
Defpoints
  6
Continuous
 62
     0
100
AcDbPoint
 10
1680.695202452605
 20
630.2442479099881
 30
0.0
  0
POINT
  5
7040
330
7039
100
AcDbEntity
  8
Defpoints
  6
Continuous
 62
     0
100
AcDbPoint
 10
1680.695202452605
 20
630.2442479099881
 30
0.0
  0
ENDBLK
  5
7042
330
7039
100
AcDbEntity
  8
0
100
AcDbBlockEnd
  0
BLOCK
  5
704C
330
7044
100
AcDbEntity
  8
0
100
AcDbBlockBegin
  2
*D10
 70
     1
 10
0.0
 20
0.0
 30
0.0
  3
*D10
  1

  0
LINE
  5
7092
330
7044
100
AcDbEntity
  8
寸法
  6
Continuous
 62
     4
370
    -2
100
AcDbLine
 10
1679.695202452605
 20
630.2442479099881
 30
0.0
 11
1556.695202452603
 21
630.2442479099881
 31
0.0
  0
INSERT
  5
7093
330
7044
100
AcDbEntity
  8
寸法
  6
Continuous
 62
     4
370
    -2
100
AcDbBlockReference
  2
_Dot
 10
1680.695202452605
 20
630.2442479099881
 30
0.0
  0
INSERT
  5
7094
330
7044
100
AcDbEntity
  8
寸法
  6
Continuous
 62
     4
370
    -2
100
AcDbBlockReference
  2
_Dot
 10
1555.695202452603
 20
630.2442479099881
 30
0.0
 50
180.0
  0
MTEXT
  5
7095
330
7044
100
AcDbEntity
  8
寸法
  6
Continuous
 62
     3
100
AcDbMText
 10
1618.195202452604
 20
633.7442479099881
 30
0.0
 40
5.0
 41
0.0
 71
     5
 72
     1
  1
\A1;≦Ｃ
  7
ACAD
 73
     1
 44
1.0
1001
ACAD
1000
MTEXTBEGIN
1070
    73
1070
     1
1070
    44
1040
1.0
1070
    74
1070
     0
1000
MTEXTEND
  0
POINT
  5
7096
330
7044
100
AcDbEntity
  8
Defpoints
  6
Continuous
 62
     0
100
AcDbPoint
 10
1680.695202452605
 20
630.2442479099881
 30
0.0
  0
POINT
  5
7097
330
7044
100
AcDbEntity
  8
Defpoints
  6
Continuous
 62
     0
100
AcDbPoint
 10
1555.695202452603
 20
630.2442479099881
 30
0.0
  0
POINT
  5
7098
330
7044
100
AcDbEntity
  8
Defpoints
  6
Continuous
 62
     0
100
AcDbPoint
 10
1555.695202452603
 20
630.2442479099881
 30
0.0
  0
ENDBLK
  5
704D
330
7044
100
AcDbEntity
  8
0
100
AcDbBlockEnd
  0
BLOCK
  5
7058
330
704F
100
AcDbEntity
  8
0
100
AcDbBlockBegin
  2
*D11
 70
     1
 10
0.0
 20
0.0
 30
0.0
  3
*D11
  1

  0
LINE
  5
708A
330
704F
100
AcDbEntity
  8
寸法
  6
Continuous
 62
     4
370
    -2
100
AcDbLine
 10
1480.695202452604
 20
715.8549055716352
 30
0.0
 11
1480.695202452604
 21
630.2442479099881
 31
0.0
  0
LINE
  5
708B
330
704F
100
AcDbEntity
  8
寸法
  6
Continuous
 62
     4
370
    -2
100
AcDbLine
 10
1554.695202452603
 20
630.2442479099881
 30
0.0
 11
1481.695202452604
 21
630.2442479099881
 31
0.0
  0
INSERT
  5
708C
330
704F
100
AcDbEntity
  8
寸法
  6
Continuous
 62
     4
370
    -2
100
AcDbBlockReference
  2
_Dot
 10
1555.695202452603
 20
630.2442479099881
 30
0.0
  0
INSERT
  5
708D
330
704F
100
AcDbEntity
  8
寸法
  6
Continuous
 62
     4
370
    -2
100
AcDbBlockReference
  2
_Dot
 10
1480.695202452604
 20
630.2442479099881
 30
0.0
 50
180.0
  0
MTEXT
  5
708E
330
704F
100
AcDbEntity
  8
寸法
  6
Continuous
 62
     3
100
AcDbMText
 10
1518.195202452604
 20
633.7442479099881
 30
0.0
 40
5.0
 41
0.0
 71
     5
 72
     1
  1
\A1;75≦
  7
ACAD
 73
     1
 44
1.0
1001
ACAD
1000
MTEXTBEGIN
1070
    73
1070
     1
1070
    44
1040
1.0
1070
    74
1070
     0
1000
MTEXTEND
  0
POINT
  5
708F
330
704F
100
AcDbEntity
  8
Defpoints
  6
Continuous
 62
     0
100
AcDbPoint
 10
1555.695202452603
 20
630.2442479099881
 30
0.0
  0
POINT
  5
7090
330
704F
100
AcDbEntity
  8
Defpoints
  6
Continuous
 62
     0
100
AcDbPoint
 10
1480.695202452604
 20
715.8549055716352
 30
0.0
  0
POINT
  5
7091
330
704F
100
AcDbEntity
  8
Defpoints
  6
Continuous
 62
     0
100
AcDbPoint
 10
1480.695202452604
 20
630.2442479099881
 30
0.0
  0
ENDBLK
  5
7059
330
704F
100
AcDbEntity
  8
0
100
AcDbBlockEnd
  0
BLOCK
  5
7063
330
705B
100
AcDbEntity
  8
0
100
AcDbBlockBegin
  2
*D12
 70
     1
 10
0.0
 20
0.0
 30
0.0
  3
*D12
  1

  0
LINE
  5
705C
330
705B
100
AcDbEntity
  8
寸法
  6
Continuous
 62
     4
370
    -2
100
AcDbLine
 10
1556.695202452604
 20
700.2442479099881
 30
0.0
 11
1604.695202452604
 21
700.2442479099881
 31
0.0
  0
INSERT
  5
705D
330
705B
100
AcDbEntity
  8
寸法
  6
Continuous
 62
     4
370
    -2
100
AcDbBlockReference
  2
_Dot
 10
1555.695202452604
 20
700.2442479099881
 30
0.0
 50
180.0
  0
INSERT
  5
705E
330
705B
100
AcDbEntity
  8
寸法
  6
Continuous
 62
     4
370
    -2
100
AcDbBlockReference
  2
_Dot
 10
1605.695202452604
 20
700.2442479099881
 30
0.0
  0
MTEXT
  5
705F
330
705B
100
AcDbEntity
  8
寸法
  6
Continuous
 62
     3
100
AcDbMText
 10
1580.695202452604
 20
703.7442479099881
 30
0.0
 40
5.0
 41
0.0
 71
     5
 72
     1
  1
\A1;50
  7
ACAD
 73
     1
 44
1.0
1001
ACAD
1000
MTEXTBEGIN
1070
    73
1070
     1
1070
    44
1040
1.0
1070
    74
1070
     0
1000
MTEXTEND
  0
POINT
  5
7060
330
705B
100
AcDbEntity
  8
Defpoints
  6
Continuous
 62
     0
100
AcDbPoint
 10
1555.695202452604
 20
700.2442479099881
 30
0.0
  0
POINT
  5
7061
330
705B
100
AcDbEntity
  8
Defpoints
  6
Continuous
 62
     0
100
AcDbPoint
 10
1605.695202452604
 20
700.2442479099881
 30
0.0
  0
POINT
  5
7062
330
705B
100
AcDbEntity
  8
Defpoints
  6
Continuous
 62
     0
100
AcDbPoint
 10
1605.695202452604
 20
700.2442479099881
 30
0.0
  0
ENDBLK
  5
7064
330
705B
100
AcDbEntity
  8
0
100
AcDbBlockEnd
  0
BLOCK
  5
706E
330
7066
100
AcDbEntity
  8
0
100
AcDbBlockBegin
  2
*D13
 70
     1
 10
0.0
 20
0.0
 30
0.0
  3
*D13
  1

  0
LINE
  5
7067
330
7066
100
AcDbEntity
  8
寸法
  6
Continuous
 62
     4
370
    -2
100
AcDbLine
 10
1856.695202452604
 20
700.2442479099881
 30
0.0
 11
1904.695202452604
 21
700.2442479099881
 31
0.0
  0
INSERT
  5
7068
330
7066
100
AcDbEntity
  8
寸法
  6
Continuous
 62
     4
370
    -2
100
AcDbBlockReference
  2
_Dot
 10
1855.695202452604
 20
700.2442479099881
 30
0.0
 50
180.0
  0
INSERT
  5
7069
330
7066
100
AcDbEntity
  8
寸法
  6
Continuous
 62
     4
370
    -2
100
AcDbBlockReference
  2
_Dot
 10
1905.695202452604
 20
700.2442479099881
 30
0.0
  0
MTEXT
  5
706A
330
7066
100
AcDbEntity
  8
寸法
  6
Continuous
 62
     3
100
AcDbMText
 10
1880.695202452604
 20
703.7442479099881
 30
0.0
 40
5.0
 41
0.0
 71
     5
 72
     1
  1
\A1;50
  7
ACAD
 73
     1
 44
1.0
1001
ACAD
1000
MTEXTBEGIN
1070
    73
1070
     1
1070
    44
1040
1.0
1070
    74
1070
     0
1000
MTEXTEND
  0
POINT
  5
706B
330
7066
100
AcDbEntity
  8
Defpoints
  6
Continuous
 62
     0
100
AcDbPoint
 10
1855.695202452604
 20
700.2442479099881
 30
0.0
  0
POINT
  5
706C
330
7066
100
AcDbEntity
  8
Defpoints
  6
Continuous
 62
     0
100
AcDbPoint
 10
1905.695202452604
 20
700.2442479099881
 30
0.0
  0
POINT
  5
706D
330
7066
100
AcDbEntity
  8
Defpoints
  6
Continuous
 62
     0
100
AcDbPoint
 10
1905.695202452604
 20
700.2442479099881
 30
0.0
  0
ENDBLK
  5
706F
330
7066
100
AcDbEntity
  8
0
100
AcDbBlockEnd
  0
ENDSEC
  0
SECTION
  2
ENTITIES
  0
LINE
  5
6BC8
330
1E
100
AcDbEntity
  8
図枠
  6
Continuous
 62
     7
100
AcDbLine
 10
2142.695202452605
 20
944.2442479099881
 30
0.0
 11
1318.695202452604
 21
944.2442479099881
 31
0.0
  0
LINE
  5
6BC9
330
1E
100
AcDbEntity
  8
図枠
  6
Continuous
 62
     7
100
AcDbLine
 10
1318.695202452604
 20
944.2442479099881
 30
0.0
 11
1318.695202452604
 21
368.2442479099882
 31
0.0
  0
LINE
  5
6BCA
330
1E
100
AcDbEntity
  8
図枠
  6
Continuous
 62
     7
100
AcDbLine
 10
2142.695202452605
 20
368.2442479099882
 30
0.0
 11
2142.695202452605
 21
944.2442479099881
 31
0.0
  0
LINE
  5
6BCB
330
1E
100
AcDbEntity
  8
図枠
  6
Continuous
 62
     7
100
AcDbLine
 10
1318.695202452604
 20
368.2442479099882
 30
0.0
 11
2142.695202452605
 21
368.2442479099882
 31
0.0
  0
LINE
  5
6BCC
330
1E
100
AcDbEntity
  8
躯体と製品
  6
Continuous
 62
     3
100
AcDbLine
 10
1977.852210321333
 20
808.0039004757542
 30
0.0
 11
1730.695202452604
 21
820.9568503923952
 31
0.0
  0
LINE
  5
6BCD
330
1E
100
AcDbEntity
  8
躯体と製品
  6
Continuous
 62
     3
100
AcDbLine
 10
1616.695202452604
 20
778.5313096468983
 30
0.0
 11
1616.695202452604
 21
771.2442479099881
 31
0.0
  0
LINE
  5
6BCE
330
1E
100
AcDbEntity
  8
躯体と製品
  6
Continuous
 62
     3
100
AcDbLine
 10
1621.695202452604
 20
769.144247909988
 30
0.0
 11
1617.195202452604
 21
769.144247909988
 31
0.0
  0
LINE
  5
6BCF
330
1E
100
AcDbEntity
  8
躯体と製品
  6
Continuous
 62
     3
100
AcDbLine
 10
1621.695202452604
 20
769.144247909988
 30
0.0
 11
1621.695202452604
 21
770.7442479099881
 31
0.0
  0
LINE
  5
6BD0
330
1E
100
AcDbEntity
  8
躯体と製品
  6
Continuous
 62
     3
100
AcDbLine
 10
1621.695202452604
 20
770.7442479099881
 30
0.0
 11
1617.195202452604
 21
770.7442479099881
 31
0.0
  0
ARC
  5
6BD1
330
1E
100
AcDbEntity
  8
躯体と製品
  6
Continuous
 62
     3
100
AcDbCircle
 10
1617.195202452604
 20
771.2442479099881
 30
0.0
 40
2.1
100
AcDbArc
 50
180.0
 51
270.0
  0
ARC
  5
6BD2
330
1E
100
AcDbEntity
  8
躯体と製品
  6
Continuous
 62
     3
100
AcDbCircle
 10
1617.195202452604
 20
771.2442479099881
 30
0.0
 40
0.5
100
AcDbArc
 50
180.0
 51
270.0
  0
LINE
  5
6BD3
330
1E
100
AcDbEntity
  8
躯体と製品
  6
Continuous
 62
     3
100
AcDbLine
 10
1589.695202452604
 20
769.144247909988
 30
0.0
 11
1594.195202452604
 21
769.144247909988
 31
0.0
  0
LINE
  5
6BD4
330
1E
100
AcDbEntity
  8
躯体と製品
  6
Continuous
 62
     3
100
AcDbLine
 10
1594.195202452604
 20
770.7442479099881
 30
0.0
 11
1589.695202452604
 21
770.7442479099881
 31
0.0
  0
LINE
  5
6BD5
330
1E
100
AcDbEntity
  8
躯体と製品
  6
Continuous
 62
     3
100
AcDbLine
 10
1589.695202452604
 20
770.7442479099881
 30
0.0
 11
1589.695202452604
 21
769.144247909988
 31
0.0
  0
ARC
  5
6BD6
330
1E
100
AcDbEntity
  8
躯体と製品
  6
Continuous
 62
     3
100
AcDbCircle
 10
1594.195202452604
 20
771.2442479099881
 30
0.0
 40
2.1
100
AcDbArc
 50
270.0
 51
0.0
  0
ARC
  5
6BD7
330
1E
100
AcDbEntity
  8
躯体と製品
  6
Continuous
 62
     3
100
AcDbCircle
 10
1594.195202452604
 20
771.2442479099881
 30
0.0
 40
0.5
100
AcDbArc
 50
270.0
 51
0.0
  0
LINE
  5
6BD8
330
1E
100
AcDbEntity
  8
躯体と製品
  6
Continuous
 62
     3
100
AcDbLine
 10
1615.095202452604
 20
778.5313096468983
 30
0.0
 11
1615.095202452604
 21
771.2442479099881
 31
0.0
  0
ARC
  5
6BD9
330
1E
100
AcDbEntity
  8
躯体と製品
  6
Continuous
 62
     3
100
AcDbCircle
 10
1614.595202452604
 20
778.5313096468983
 30
0.0
 40
0.5
100
AcDbArc
 50
0.0
 51
93.00000000000558
  0
LINE
  5
6BDA
330
1E
100
AcDbEntity
  8
躯体と製品
  6
Continuous
 62
     3
100
AcDbLine
 10
1596.295202452604
 20
777.59845117566
 30
0.0
 11
1596.295202452604
 21
771.2442479099881
 31
0.0
  0
ARC
  5
6BDB
330
1E
100
AcDbEntity
  8
躯体と製品
  6
Continuous
 62
     3
100
AcDbCircle
 10
1596.795202452604
 20
777.59845117566
 30
0.0
 40
0.5
100
AcDbArc
 50
93.00000000000558
 51
180.0
  0
ARC
  5
6BDC
330
1E
100
AcDbEntity
  8
躯体と製品
  6
Continuous
 62
     3
100
AcDbCircle
 10
1614.595202452604
 20
778.5313096468983
 30
0.0
 40
2.1
100
AcDbArc
 50
0.0
 51
93.00000000000558
  0
LINE
  5
6BDD
330
1E
100
AcDbEntity
  8
躯体と製品
  6
Continuous
 62
     3
100
AcDbLine
 10
1594.695202452604
 20
777.59845117566
 30
0.0
 11
1594.695202452604
 21
771.2442479099881
 31
0.0
  0
ARC
  5
6BDE
330
1E
100
AcDbEntity
  8
躯体と製品
  6
Continuous
 62
     3
100
AcDbCircle
 10
1596.795202452604
 20
777.59845117566
 30
0.0
 40
2.1
100
AcDbArc
 50
93.00000000000558
 51
180.0
  0
LINE
  5
6BDF
330
1E
100
AcDbEntity
  8
躯体と製品
  6
Continuous
 62
     3
100
AcDbLine
 10
1601.289916035208
 20
776.3319506140407
 30
0.0
 11
1610.47730775495
 21
776.8134414114754
 31
0.0
  0
LINE
  5
6BE0
330
1E
100
AcDbEntity
  8
躯体と製品
  6
Continuous
 62
     3
100
AcDbLine
 10
1610.424971798707
 20
777.8120709462304
 30
0.0
 11
1610.47730775495
 21
776.8134414114754
 31
0.0
  0
ARC
  5
6BE1
330
1E
100
AcDbEntity
  8
躯体と製品
  6
Continuous
 62
     3
100
AcDbCircle
 10
1611.423601333461
 20
777.8644069024733
 30
0.0
 40
1.0
100
AcDbArc
 50
93.00000000000558
 51
182.9999999999989
  0
LINE
  5
6BE2
330
1E
100
AcDbEntity
  8
躯体と製品
  6
Continuous
 62
     3
100
AcDbLine
 10
1601.237580078965
 20
777.3305801487952
 30
0.0
 11
1601.289916035208
 21
776.3319506140407
 31
0.0
  0
ARC
  5
6BE3
330
1E
100
AcDbEntity
  8
躯体と製品
  6
Continuous
 62
     3
100
AcDbCircle
 10
1600.23895054421
 20
777.2782441925524
 30
0.0
 40
1.0
100
AcDbArc
 50
2.999999999998919
 51
93.00000000000558
  0
LINE
  5
6BE4
330
1E
100
AcDbEntity
  8
躯体と製品
  6
Continuous
 62
     3
100
AcDbLine
 10
1596.769034474483
 20
778.0977659430373
 30
0.0
 11
1614.569034474483
 21
779.0306244142753
 31
0.0
  0
LINE
  5
6BE5
330
1E
100
AcDbEntity
  8
躯体と製品
  6
Continuous
 62
     3
100
AcDbLine
 10
1596.685296944494
 20
779.6955731986447
 30
0.0
 11
1614.485296944494
 21
780.6284316698827
 31
0.0
  0
LINE
  5
6BE6
330
1E
100
AcDbEntity
  8
躯体と製品
  6
DASHED1
 62
     7
100
AcDbLine
 10
1608.691091056868
 20
780.3247702066036
 30
0.0
 11
1608.879500499342
 21
776.7297038814872
 31
0.0
  0
LINE
  5
6BE7
330
1E
100
AcDbEntity
  8
躯体と製品
  6
DASHED1
 62
     7
100
AcDbLine
 10
1602.69931384834
 20
780.0107544691456
 30
0.0
 11
1602.887723290815
 21
776.4156881440292
 31
0.0
  0
LINE
  5
6BE8
330
1E
100
AcDbEntity
  8
躯体と製品
  6
Continuous
 62
     4
100
AcDbLine
 10
1619.695202452604
 20
770.7442479099881
 30
0.0
 11
1619.695202452604
 21
769.144247909988
 31
0.0
  0
LINE
  5
6BE9
330
1E
100
AcDbEntity
  8
躯体と製品
  6
Continuous
 62
     4
100
AcDbLine
 10
1591.695202452604
 20
770.7442479099881
 30
0.0
 11
1591.695202452604
 21
769.144247909988
 31
0.0
  0
LINE
  5
6BEA
330
1E
100
AcDbEntity
  8
躯体と製品
  6
DASHED1
 62
     7
100
AcDbLine
 10
1601.645202452604
 20
762.2442479099881
 30
0.0
 11
1601.645202452604
 21
752.944247909988
 31
0.0
  0
LINE
  5
6BEB
330
1E
100
AcDbEntity
  8
躯体と製品
  6
DASHED1
 62
     7
100
AcDbLine
 10
1609.745202452604
 20
762.2442479099881
 30
0.0
 11
1609.745202452604
 21
752.944247909988
 31
0.0
  0
LINE
  5
6BEC
330
1E
100
AcDbEntity
  8
躯体と製品
  6
DASHED1
 62
     7
100
AcDbLine
 10
1600.945202452604
 20
752.2442479099882
 30
0.0
 11
1601.645202452604
 21
752.944247909988
 31
0.0
  0
LINE
  5
6BED
330
1E
100
AcDbEntity
  8
躯体と製品
  6
DASHED1
 62
     7
100
AcDbLine
 10
1600.945202452604
 20
733.6160739099881
 30
0.0
 11
1600.945202452604
 21
752.2442479099882
 31
0.0
  0
LINE
  5
6BEE
330
1E
100
AcDbEntity
  8
躯体と製品
  6
DASHED1
 62
     7
100
AcDbLine
 10
1601.195202452604
 20
721.7442479099881
 30
0.0
 11
1601.195202452604
 21
722.6075519099881
 31
0.0
  0
LINE
  5
6BEF
330
1E
100
AcDbEntity
  8
躯体と製品
  6
DASHED1
 62
     7
100
AcDbLine
 10
1599.070172452604
 20
722.9822519099882
 30
0.0
 11
1600.945202452604
 21
733.6160739099881
 31
0.0
  0
LINE
  5
6BF0
330
1E
100
AcDbEntity
  8
躯体と製品
  6
DASHED1
 62
     7
100
AcDbLine
 10
1605.195202452604
 20
733.2442479099881
 30
0.0
 11
1606.195202452604
 21
733.2442479099881
 31
0.0
  0
LINE
  5
6BF1
330
1E
100
AcDbEntity
  8
躯体と製品
  6
DASHED1
 62
     7
100
AcDbLine
 10
1610.445202452604
 20
752.2442479099882
 30
0.0
 11
1609.745202452604
 21
752.944247909988
 31
0.0
  0
LINE
  5
6BF2
330
1E
100
AcDbEntity
  8
躯体と製品
  6
DASHED1
 62
     7
100
AcDbLine
 10
1610.445202452604
 20
733.6160739099881
 30
0.0
 11
1610.445202452604
 21
752.2442479099882
 31
0.0
  0
LINE
  5
6BF3
330
1E
100
AcDbEntity
  8
躯体と製品
  6
DASHED1
 62
     7
100
AcDbLine
 10
1609.195202452604
 20
720.7442479099881
 30
0.0
 11
1602.195202452604
 21
720.7442479099881
 31
0.0
  0
ARC
  5
6BF4
330
1E
100
AcDbEntity
  8
躯体と製品
  6
DASHED1
 62
     7
100
AcDbCircle
 10
1609.195202452604
 20
721.7442479099881
 30
0.0
 40
1.0
100
AcDbArc
 50
270.0
 51
0.0
  0
LINE
  5
6BF5
330
1E
100
AcDbEntity
  8
躯体と製品
  6
DASHED1
 62
     7
100
AcDbLine
 10
1610.195202452604
 20
721.7442479099881
 30
0.0
 11
1610.195202452604
 21
722.6075519099881
 31
0.0
  0
LINE
  5
6BF6
330
1E
100
AcDbEntity
  8
躯体と製品
  6
DASHED1
 62
     7
100
AcDbLine
 10
1612.320232452604
 20
722.9822519099882
 30
0.0
 11
1608.134799452604
 21
722.2442479099882
 31
0.0
  0
LINE
  5
6BF7
330
1E
100
AcDbEntity
  8
躯体と製品
  6
DASHED1
 62
     7
100
AcDbLine
 10
1605.195202452604
 20
733.2442479099881
 30
0.0
 11
1603.255605452604
 21
722.2442479099882
 31
0.0
  0
LINE
  5
6BF8
330
1E
100
AcDbEntity
  8
躯体と製品
  6
DASHED1
 62
     7
100
AcDbLine
 10
1606.195202452604
 20
733.2442479099881
 30
0.0
 11
1608.134799452604
 21
722.2442479099882
 31
0.0
  0
LINE
  5
6BF9
330
1E
100
AcDbEntity
  8
躯体と製品
  6
DASHED1
 62
     7
100
AcDbLine
 10
1612.320232452604
 20
722.9822519099882
 30
0.0
 11
1610.445202452604
 21
733.6160739099881
 31
0.0
  0
LINE
  5
6BFA
330
1E
100
AcDbEntity
  8
躯体と製品
  6
DASHED1
 62
     7
100
AcDbLine
 10
1600.945202452604
 20
752.2442479099882
 30
0.0
 11
1610.445202452604
 21
752.2442479099882
 31
0.0
  0
LINE
  5
6BFB
330
1E
100
AcDbEntity
  8
躯体と製品
  6
DASHED1
 62
     7
100
AcDbLine
 10
1601.645202452604
 20
752.944247909988
 30
0.0
 11
1609.745202452604
 21
752.944247909988
 31
0.0
  0
LINE
  5
6BFC
330
1E
100
AcDbEntity
  8
躯体と製品
  6
DASHED1
 62
     7
100
AcDbLine
 10
1599.070172452604
 20
722.9822519099882
 30
0.0
 11
1603.255605452604
 21
722.2442479099882
 31
0.0
  0
ARC
  5
6BFD
330
1E
100
AcDbEntity
  8
躯体と製品
  6
DASHED1
 62
     7
100
AcDbCircle
 10
1602.195202452604
 20
721.7442479099881
 30
0.0
 40
1.0
100
AcDbArc
 50
180.0
 51
270.0
  0
ARC
  5
6BFE
330
1E
100
AcDbEntity
  8
躯体と製品
  6
Continuous
 62
     3
100
AcDbCircle
 10
1577.137892186021
 20
765.2442479099882
 30
0.0
 40
0.5
100
AcDbArc
 50
189.9999999999975
 51
270.0
  0
LINE
  5
6BFF
330
1E
100
AcDbEntity
  8
躯体と製品
  6
Continuous
 62
     3
100
AcDbLine
 10
1577.137892186021
 20
764.7442479099882
 30
0.0
 11
1580.184172021678
 21
764.7442479099882
 31
0.0
  0
LINE
  5
6C00
330
1E
100
AcDbEntity
  8
躯体と製品
  6
Continuous
 62
     3
100
AcDbLine
 10
1576.645488309515
 20
765.1574238211549
 30
0.0
 11
1576.238293637955
 21
767.4667395590192
 31
0.0
  0
ARC
  5
6C01
330
1E
100
AcDbEntity
  8
躯体と製品
  6
Continuous
 62
     3
100
AcDbCircle
 10
1580.184172021678
 20
765.2442479099882
 30
0.0
 40
0.5
100
AcDbArc
 50
270.0
 51
9.999999999997477
  0
LINE
  5
6C02
330
1E
100
AcDbEntity
  8
躯体と製品
  6
Continuous
 62
     3
100
AcDbLine
 10
1580.676575898185
 20
765.3310719988215
 30
0.0
 11
1580.177524650004
 21
768.1613322696867
 31
0.0
  0
ARC
  5
6C03
330
1E
100
AcDbEntity
  8
躯体と製品
  6
Continuous
 62
     3
100
AcDbCircle
 10
1582.722738551393
 20
765.2442479099882
 30
0.0
 40
0.5
100
AcDbArc
 50
189.9999999999975
 51
270.0
  0
LINE
  5
6C04
330
1E
100
AcDbEntity
  8
躯体と製品
  6
Continuous
 62
     3
100
AcDbLine
 10
1582.722738551393
 20
764.7442479099882
 30
0.0
 11
1586.695202452604
 21
764.7442479099882
 31
0.0
  0
LINE
  5
6C05
330
1E
100
AcDbEntity
  8
躯体と製品
  6
Continuous
 62
     3
100
AcDbLine
 10
1582.230334674887
 20
765.1574238211549
 30
0.0
 11
1581.090379702105
 21
771.6224297334769
 31
0.0
  0
LINE
  5
6C06
330
1E
100
AcDbEntity
  8
躯体と製品
  6
Continuous
 62
     3
100
AcDbLine
 10
1580.003876472337
 20
769.1461400226992
 30
0.0
 11
1580.496280348843
 21
769.2329641115325
 31
0.0
  0
LINE
  5
6C07
330
1E
100
AcDbEntity
  8
躯体と製品
  6
Continuous
 62
     3
100
AcDbLine
 10
1575.572241583782
 20
768.3647232231977
 30
0.0
 11
1576.064645460288
 21
768.4515473120312
 31
0.0
  0
LINE
  5
6C08
330
1E
100
AcDbEntity
  8
躯体と製品
  6
Continuous
 62
     3
100
AcDbLine
 10
1579.83022829467
 20
770.1309477757112
 30
0.0
 11
1580.322632171176
 21
770.2177718645446
 31
0.0
  0
LINE
  5
6C09
330
1E
100
AcDbEntity
  8
躯体と製品
  6
Continuous
 62
     3
100
AcDbLine
 10
1575.398593406115
 20
769.3495309762099
 30
0.0
 11
1575.890997282621
 21
769.4363550650437
 31
0.0
  0
LINE
  5
6C0A
330
1E
100
AcDbEntity
  8
躯体と製品
  6
Continuous
 62
     3
100
AcDbLine
 10
1575.195202452604
 20
764.7442479099882
 30
0.0
 11
1574.196725431019
 21
770.4068924898083
 31
0.0
  0
LINE
  5
6C0B
330
1E
100
AcDbEntity
  8
躯体と製品
  6
Continuous
 62
     3
100
AcDbLine
 10
1575.890997282621
 20
769.4363550650437
 30
0.0
 11
1575.673937060537
 21
770.6673647563087
 31
0.0
  0
LINE
  5
6C0C
330
1E
100
AcDbEntity
  8
躯体と製品
  6
Continuous
 62
     3
100
AcDbLine
 10
1579.83022829467
 20
770.1309477757112
 30
0.0
 11
1579.613168072586
 21
771.3619574669767
 31
0.0
  0
LINE
  5
6C0D
330
1E
100
AcDbEntity
  8
躯体と製品
  6
Continuous
 62
     3
100
AcDbLine
 10
1575.572241583782
 20
768.3647232231977
 30
0.0
 11
1576.238293637955
 21
767.4667395590192
 31
0.0
  0
LINE
  5
6C0E
330
1E
100
AcDbEntity
  8
躯体と製品
  6
Continuous
 62
     3
100
AcDbLine
 10
1575.398593406115
 20
769.3495309762099
 30
0.0
 11
1576.064645460288
 21
768.4515473120312
 31
0.0
  0
ARC
  5
6C0F
330
1E
100
AcDbEntity
  8
躯体と製品
  6
Continuous
 62
     3
100
AcDbCircle
 10
1580.351773887345
 20
771.4921936002268
 30
0.0
 40
0.7500000000000014
100
AcDbArc
 50
9.999999999997477
 51
189.9999999999975
  0
ARC
  5
6C10
330
1E
100
AcDbEntity
  8
躯体と製品
  6
Continuous
 62
     3
100
AcDbCircle
 10
1574.935331245779
 20
770.5371286230586
 30
0.0
 40
0.7499999999999977
100
AcDbArc
 50
9.999999999997477
 51
189.9999999999975
  0
LINE
  5
6C11
330
1E
100
AcDbEntity
  8
躯体と製品
  6
Continuous
 62
     3
100
AcDbLine
 10
1575.195202452604
 20
762.2442479099881
 30
0.0
 11
1575.195202452604
 21
764.7442479099882
 31
0.0
  0
LINE
  5
6C12
330
1E
100
AcDbEntity
  8
躯体と製品
  6
Continuous
 62
     3
100
AcDbLine
 10
1623.695202452604
 20
762.2442479099881
 30
0.0
 11
1622.195202452604
 21
762.2442479099881
 31
0.0
  0
LINE
  5
6C13
330
1E
100
AcDbEntity
  8
躯体と製品
  6
Continuous
 62
     3
100
AcDbLine
 10
1622.195202452604
 20
762.2442479099881
 30
0.0
 11
1622.195202452604
 21
762.7442479099881
 31
0.0
  0
LINE
  5
6C14
330
1E
100
AcDbEntity
  8
躯体と製品
  6
Continuous
 62
     3
100
AcDbLine
 10
1622.195202452604
 20
762.7442479099881
 30
0.0
 11
1610.695202452604
 21
762.7442479099881
 31
0.0
  0
LINE
  5
6C15
330
1E
100
AcDbEntity
  8
躯体と製品
  6
Continuous
 62
     3
100
AcDbLine
 10
1610.695202452604
 20
762.7442479099881
 30
0.0
 11
1610.695202452604
 21
762.2442479099881
 31
0.0
  0
ARC
  5
6C16
330
1E
100
AcDbEntity
  8
躯体と製品
  6
Continuous
 62
     3
100
AcDbCircle
 10
1618.945202452604
 20
771.4942479099882
 30
0.0
 40
0.75
100
AcDbArc
 50
90.0
 51
270.0
  0
ARC
  5
6C17
330
1E
100
AcDbEntity
  8
躯体と製品
  6
Continuous
 62
     3
100
AcDbCircle
 10
1619.945202452604
 20
767.4942479099882
 30
0.0
 40
0.75
100
AcDbArc
 50
90.0
 51
270.0
  0
ARC
  5
6C18
330
1E
100
AcDbEntity
  8
躯体と製品
  6
Continuous
 62
     3
100
AcDbCircle
 10
1621.895202452604
 20
770.444247909988
 30
0.0
 40
0.2999999999999998
100
AcDbArc
 50
0.0
 51
90.0
  0
LINE
  5
6C19
330
1E
100
AcDbEntity
  8
躯体と製品
  6
Continuous
 62
     3
100
AcDbLine
 10
1621.895202452604
 20
770.7442479099881
 30
0.0
 11
1618.945202452604
 21
770.7442479099881
 31
0.0
  0
LINE
  5
6C1A
330
1E
100
AcDbEntity
  8
躯体と製品
  6
Continuous
 62
     3
100
AcDbLine
 10
1621.895202452604
 20
768.2442479099882
 30
0.0
 11
1619.945202452604
 21
768.2442479099882
 31
0.0
  0
ARC
  5
6C1B
330
1E
100
AcDbEntity
  8
躯体と製品
  6
Continuous
 62
     3
100
AcDbCircle
 10
1621.895202452604
 20
768.5442479099884
 30
0.0
 40
0.2999999999999998
100
AcDbArc
 50
270.0
 51
0.0
  0
LINE
  5
6C1C
330
1E
100
AcDbEntity
  8
躯体と製品
  6
Continuous
 62
     3
100
AcDbLine
 10
1622.195202452604
 20
768.5442479099884
 30
0.0
 11
1622.195202452604
 21
770.444247909988
 31
0.0
  0
ARC
  5
6C1D
330
1E
100
AcDbEntity
  8
躯体と製品
  6
Continuous
 62
     3
100
AcDbCircle
 10
1621.895202452604
 20
766.4442479099879
 30
0.0
 40
0.2999999999999998
100
AcDbArc
 50
0.0
 51
90.0
  0
LINE
  5
6C1E
330
1E
100
AcDbEntity
  8
躯体と製品
  6
Continuous
 62
     3
100
AcDbLine
 10
1621.895202452604
 20
766.7442479099881
 30
0.0
 11
1619.945202452604
 21
766.7442479099881
 31
0.0
  0
ARC
  5
6C1F
330
1E
100
AcDbEntity
  8
躯体と製品
  6
Continuous
 62
     3
100
AcDbCircle
 10
1621.895202452604
 20
765.0442479099884
 30
0.0
 40
0.2999999999999998
100
AcDbArc
 50
270.0
 51
0.0
  0
LINE
  5
6C20
330
1E
100
AcDbEntity
  8
躯体と製品
  6
Continuous
 62
     3
100
AcDbLine
 10
1622.195202452604
 20
765.0442479099884
 30
0.0
 11
1622.195202452604
 21
766.4442479099879
 31
0.0
  0
LINE
  5
6C21
330
1E
100
AcDbEntity
  8
躯体と製品
  6
Continuous
 62
     3
100
AcDbLine
 10
1623.195202452604
 20
772.2442479099882
 30
0.0
 11
1618.945202452604
 21
772.2442479099882
 31
0.0
  0
ARC
  5
6C22
330
1E
100
AcDbEntity
  8
躯体と製品
  6
Continuous
 62
     3
100
AcDbCircle
 10
1623.195202452604
 20
771.7442479099881
 30
0.0
 40
0.5
100
AcDbArc
 50
0.0
 51
90.0
  0
LINE
  5
6C23
330
1E
100
AcDbEntity
  8
躯体と製品
  6
Continuous
 62
     3
100
AcDbLine
 10
1623.695202452604
 20
771.7442479099881
 30
0.0
 11
1623.695202452604
 21
762.2442479099881
 31
0.0
  0
LINE
  5
6C24
330
1E
100
AcDbEntity
  8
躯体と製品
  6
Continuous
 62
     3
100
AcDbLine
 10
1610.695202452604
 20
762.2442479099881
 30
0.0
 11
1600.695202452604
 21
762.2442479099881
 31
0.0
  0
LINE
  5
6C25
330
1E
100
AcDbEntity
  8
躯体と製品
  6
Continuous
 62
     3
100
AcDbLine
 10
1605.195202452604
 20
764.7442479099882
 30
0.0
 11
1589.495202452604
 21
764.7442479099882
 31
0.0
  0
LINE
  5
6C26
330
1E
100
AcDbEntity
  8
躯体と製品
  6
Continuous
 62
     3
100
AcDbLine
 10
1621.895202452604
 20
764.7442479099882
 30
0.0
 11
1606.195202452604
 21
764.7442479099882
 31
0.0
  0
LINE
  5
6C27
330
1E
100
AcDbEntity
  8
躯体と製品
  6
Continuous
 62
     3
100
AcDbLine
 10
1600.695202452604
 20
762.2442479099881
 30
0.0
 11
1600.695202452604
 21
762.7442479099881
 31
0.0
  0
LINE
  5
6C28
330
1E
100
AcDbEntity
  8
躯体と製品
  6
Continuous
 62
     3
100
AcDbLine
 10
1600.695202452604
 20
762.7442479099881
 30
0.0
 11
1589.195202452604
 21
762.7442479099881
 31
0.0
  0
LINE
  5
6C29
330
1E
100
AcDbEntity
  8
躯体と製品
  6
Continuous
 62
     3
100
AcDbLine
 10
1589.195202452604
 20
762.7442479099881
 30
0.0
 11
1589.195202452604
 21
762.2442479099881
 31
0.0
  0
LINE
  5
6C2A
330
1E
100
AcDbEntity
  8
躯体と製品
  6
Continuous
 62
     3
100
AcDbLine
 10
1589.195202452604
 20
762.2442479099881
 30
0.0
 11
1587.195202452604
 21
762.2442479099881
 31
0.0
  0
ARC
  5
6C2B
330
1E
100
AcDbEntity
  8
躯体と製品
  6
Continuous
 62
     3
100
AcDbCircle
 10
1588.195202452604
 20
780.2442479099881
 30
0.0
 40
1.0
100
AcDbArc
 50
0.0
 51
180.0
  0
LINE
  5
6C2C
330
1E
100
AcDbEntity
  8
躯体と製品
  6
Continuous
 62
     3
100
AcDbLine
 10
1576.695202452604
 20
763.2442479099881
 30
0.0
 11
1576.695202452604
 21
762.2442479099881
 31
0.0
  0
LINE
  5
6C2D
330
1E
100
AcDbEntity
  8
躯体と製品
  6
Continuous
 62
     3
100
AcDbLine
 10
1576.695202452604
 20
762.2442479099881
 30
0.0
 11
1575.195202452604
 21
762.2442479099881
 31
0.0
  0
LINE
  5
6C2E
330
1E
100
AcDbEntity
  8
躯体と製品
  6
Continuous
 62
     3
100
AcDbLine
 10
1605.695202452604
 20
764.2442479099882
 30
0.0
 11
1605.195202452604
 21
764.7442479099882
 31
0.0
  0
LINE
  5
6C2F
330
1E
100
AcDbEntity
  8
躯体と製品
  6
Continuous
 62
     3
100
AcDbLine
 10
1587.195202452604
 20
762.2442479099881
 30
0.0
 11
1587.195202452604
 21
763.2442479099881
 31
0.0
  0
LINE
  5
6C30
330
1E
100
AcDbEntity
  8
躯体と製品
  6
Continuous
 62
     3
100
AcDbLine
 10
1587.195202452604
 20
763.2442479099881
 30
0.0
 11
1576.695202452604
 21
763.2442479099881
 31
0.0
  0
LINE
  5
6C31
330
1E
100
AcDbEntity
  8
躯体と製品
  6
Continuous
 62
     3
100
AcDbLine
 10
1587.195202452604
 20
765.2442479099882
 30
0.0
 11
1587.195202452604
 21
780.2442479099881
 31
0.0
  0
ARC
  5
6C32
330
1E
100
AcDbEntity
  8
躯体と製品
  6
Continuous
 62
     3
100
AcDbCircle
 10
1586.695202452604
 20
765.2442479099882
 30
0.0
 40
0.5
100
AcDbArc
 50
270.0
 51
0.0
  0
ARC
  5
6C33
330
1E
100
AcDbEntity
  8
躯体と製品
  6
Continuous
 62
     3
100
AcDbCircle
 10
1589.495202452604
 20
765.0442479099884
 30
0.0
 40
0.2999999999999998
100
AcDbArc
 50
180.0
 51
270.0
  0
LINE
  5
6C34
330
1E
100
AcDbEntity
  8
躯体と製品
  6
Continuous
 62
     3
100
AcDbLine
 10
1589.695202452604
 20
772.2442479099882
 30
0.0
 11
1592.445202452604
 21
772.2442479099882
 31
0.0
  0
ARC
  5
6C35
330
1E
100
AcDbEntity
  8
躯体と製品
  6
Continuous
 62
     3
100
AcDbCircle
 10
1589.695202452604
 20
772.7442479099882
 30
0.0
 40
0.5
100
AcDbArc
 50
180.0
 51
270.0
  0
LINE
  5
6C36
330
1E
100
AcDbEntity
  8
躯体と製品
  6
Continuous
 62
     3
100
AcDbLine
 10
1589.195202452604
 20
772.7442479099882
 30
0.0
 11
1589.195202452604
 21
780.2442479099881
 31
0.0
  0
ARC
  5
6C37
330
1E
100
AcDbEntity
  8
躯体と製品
  6
Continuous
 62
     3
100
AcDbCircle
 10
1592.445202452604
 20
771.4942479099882
 30
0.0
 40
0.75
100
AcDbArc
 50
270.0
 51
90.0
  0
ARC
  5
6C38
330
1E
100
AcDbEntity
  8
躯体と製品
  6
Continuous
 62
     3
100
AcDbCircle
 10
1591.445202452604
 20
767.4942479099882
 30
0.0
 40
0.75
100
AcDbArc
 50
270.0
 51
90.0
  0
LINE
  5
6C39
330
1E
100
AcDbEntity
  8
躯体と製品
  6
Continuous
 62
     3
100
AcDbLine
 10
1589.495202452604
 20
766.7442479099881
 30
0.0
 11
1591.445202452604
 21
766.7442479099881
 31
0.0
  0
ARC
  5
6C3A
330
1E
100
AcDbEntity
  8
躯体と製品
  6
Continuous
 62
     3
100
AcDbCircle
 10
1589.495202452604
 20
766.4442479099879
 30
0.0
 40
0.2999999999999998
100
AcDbArc
 50
90.0
 51
180.0
  0
LINE
  5
6C3B
330
1E
100
AcDbEntity
  8
躯体と製品
  6
Continuous
 62
     3
100
AcDbLine
 10
1589.195202452604
 20
766.4442479099879
 30
0.0
 11
1589.195202452604
 21
765.0442479099884
 31
0.0
  0
LINE
  5
6C3C
330
1E
100
AcDbEntity
  8
躯体と製品
  6
Continuous
 62
     3
100
AcDbLine
 10
1589.495202452604
 20
768.2442479099882
 30
0.0
 11
1591.445202452604
 21
768.2442479099882
 31
0.0
  0
ARC
  5
6C3D
330
1E
100
AcDbEntity
  8
躯体と製品
  6
Continuous
 62
     3
100
AcDbCircle
 10
1589.495202452604
 20
768.5442479099884
 30
0.0
 40
0.2999999999999998
100
AcDbArc
 50
180.0
 51
270.0
  0
LINE
  5
6C3E
330
1E
100
AcDbEntity
  8
躯体と製品
  6
Continuous
 62
     3
100
AcDbLine
 10
1589.195202452604
 20
770.444247909988
 30
0.0
 11
1589.195202452604
 21
768.5442479099884
 31
0.0
  0
ARC
  5
6C3F
330
1E
100
AcDbEntity
  8
躯体と製品
  6
Continuous
 62
     3
100
AcDbCircle
 10
1589.495202452604
 20
770.444247909988
 30
0.0
 40
0.2999999999999998
100
AcDbArc
 50
90.0
 51
180.0
  0
LINE
  5
6C40
330
1E
100
AcDbEntity
  8
躯体と製品
  6
Continuous
 62
     3
100
AcDbLine
 10
1589.495202452604
 20
770.7442479099881
 30
0.0
 11
1592.445202452604
 21
770.7442479099881
 31
0.0
  0
LINE
  5
6C41
330
1E
100
AcDbEntity
  8
躯体と製品
  6
Continuous
 62
     3
100
AcDbLine
 10
1605.695202452604
 20
764.2442479099882
 30
0.0
 11
1606.195202452604
 21
764.7442479099882
 31
0.0
  0
LINE
  5
6C42
330
1E
100
AcDbEntity
  8
躯体と製品
  6
Continuous
 62
     3
100
AcDbLine
 10
1580.496280348843
 20
769.2329641115325
 30
0.0
 11
1580.177524650004
 21
768.1613322696867
 31
0.0
  0
LINE
  5
6C43
330
1E
100
AcDbEntity
  8
躯体と製品
  6
Continuous
 62
     3
100
AcDbLine
 10
1580.322632171176
 20
770.2177718645446
 30
0.0
 11
1580.003876472337
 21
769.1461400226992
 31
0.0
  0
LINE
  5
6C44
330
1E
100
AcDbEntity
  8
躯体と製品
  6
DASHED1
 62
     4
100
AcDbLine
 10
1601.917172148838
 20
805.7974200499051
 30
0.0
 11
1603.16276790742
 21
782.0300371227467
 31
0.0
  0
LINE
  5
6C45
330
1E
100
AcDbEntity
  8
躯体と製品
  6
DASHED1
 62
     7
100
AcDbLine
 10
1601.34945125833
 20
805.7676670587815
 30
0.0
 11
1602.595047016912
 21
782.0002841316226
 31
0.0
  0
LINE
  5
6C46
330
1E
100
AcDbEntity
  8
躯体と製品
  6
DASHED1
 62
     7
100
AcDbLine
 10
1607.341228466858
 20
806.0816827962392
 30
0.0
 11
1608.58682422544
 21
782.31429986908
 31
0.0
  0
LINE
  5
6C47
330
1E
100
AcDbEntity
  8
躯体と製品
  6
DASHED1
 62
     4
100
AcDbLine
 10
1606.77350757635
 20
806.0519298051147
 30
0.0
 11
1608.019103334932
 21
782.2845468779559
 31
0.0
  0
ARC
  5
6C48
330
1E
100
AcDbEntity
  8
躯体と製品
  6
DASHED1
 62
     7
100
AcDbCircle
 10
1593.781567636783
 20
803.568580861507
 30
0.0
 40
1.0
100
AcDbArc
 50
93.00000000000558
 51
142.3731526377183
  0
LINE
  5
6C49
330
1E
100
AcDbEntity
  8
躯体と製品
  6
DASHED1
 62
     7
100
AcDbLine
 10
1615.003316809642
 20
806.4832358309546
 30
0.0
 11
1593.687362915546
 21
805.3661140240654
 31
0.0
  0
ARC
  5
6C4A
330
1E
100
AcDbEntity
  8
躯体と製品
  6
DASHED1
 62
     7
100
AcDbCircle
 10
1615.097521530879
 20
804.6857026683968
 30
0.0
 40
1.8
100
AcDbArc
 50
43.62684736228245
 51
93.00000000000558
  0
LINE
  5
6C4B
330
1E
100
AcDbEntity
  8
躯体と製品
  6
DASHED1
 62
     7
100
AcDbLine
 10
1615.045185574637
 20
805.6843322031511
 30
0.0
 11
1593.72923168054
 21
804.5672103962619
 31
0.0
  0
LINE
  5
6C4C
330
1E
100
AcDbEntity
  8
躯体と製品
  6
DASHED1
 62
     7
100
AcDbLine
 10
1615.821370174442
 20
805.3756614651463
 30
0.0
 11
1628.7513212682
 21
791.8106085886037
 31
0.0
  0
ARC
  5
6C4D
330
1E
100
AcDbEntity
  8
躯体と製品
  6
DASHED1
 62
     7
100
AcDbCircle
 10
1615.097521530879
 20
804.6857026683968
 30
0.0
 40
1.0
100
AcDbArc
 50
43.62684736228245
 51
93.00000000000558
  0
LINE
  5
6C4E
330
1E
100
AcDbEntity
  8
躯体と製品
  6
DASHED1
 62
     7
100
AcDbLine
 10
1633.311404425767
 20
794.3296159941635
 30
0.0
 11
1632.67780149959
 21
794.8180290692744
 31
0.0
  0
LINE
  5
6C4F
330
1E
100
AcDbEntity
  8
躯体と製品
  6
DASHED1
 62
     7
100
AcDbLine
 10
1633.311404425767
 20
794.3296159941635
 30
0.0
 11
1631.47985537936
 21
791.9536050020676
 31
0.0
  0
ARC
  5
6C50
330
1E
100
AcDbEntity
  8
躯体と製品
  6
DASHED1
 62
     7
100
AcDbCircle
 10
1630.054248810108
 20
793.0525344400686
 30
0.0
 40
1.0
100
AcDbArc
 50
223.6268473622824
 51
322.3731512671368
  0
ARC
  5
6C51
330
1E
100
AcDbEntity
  8
躯体と製品
  6
DASHED1
 62
     7
100
AcDbCircle
 10
1630.054248810108
 20
793.0525344400686
 30
0.0
 40
1.8
100
AcDbArc
 50
223.6268473622824
 51
322.3731518762774
  0
LINE
  5
6C52
330
1E
100
AcDbEntity
  8
躯体と製品
  6
DASHED1
 62
     7
100
AcDbLine
 10
1577.32904703854
 20
791.9173237618886
 30
0.0
 11
1579.398923445321
 21
789.7457778138563
 31
0.0
  0
LINE
  5
6C53
330
1E
100
AcDbEntity
  8
躯体と製品
  6
DASHED1
 62
     7
100
AcDbLine
 10
1576.749968123668
 20
791.3653567245114
 30
0.0
 11
1577.32904703854
 21
791.9173237618886
 31
0.0
  0
LINE
  5
6C54
330
1E
100
AcDbEntity
  8
躯体と製品
  6
DASHED1
 62
     7
100
AcDbLine
 10
1576.749968123668
 20
791.3653567245114
 30
0.0
 11
1578.819844530471
 21
789.1938107764566
 31
0.0
  0
ARC
  5
6C55
330
1E
100
AcDbEntity
  8
躯体と製品
  6
DASHED1
 62
     7
100
AcDbCircle
 10
1580.122772072379
 20
790.4357366279216
 30
0.0
 40
1.0
100
AcDbArc
 50
223.6268487328658
 51
322.3731526377183
  0
ARC
  5
6C56
330
1E
100
AcDbEntity
  8
躯体と製品
  6
DASHED1
 62
     7
100
AcDbCircle
 10
1580.122772072379
 20
790.4357366279216
 30
0.0
 40
1.8
100
AcDbArc
 50
223.6268481237193
 51
322.3731526377183
  0
LINE
  5
6C57
330
1E
100
AcDbEntity
  8
躯体と製品
  6
DASHED1
 62
     7
100
AcDbLine
 10
1592.355961052927
 20
804.6675102805627
 30
0.0
 11
1580.914775715473
 21
789.8252202650561
 31
0.0
  0
LINE
  5
6C58
330
1E
100
AcDbEntity
  8
躯体と製品
  6
DASHED1
 62
     7
100
AcDbLine
 10
1592.989563979085
 20
804.1790972054268
 30
0.0
 11
1581.548378641632
 21
789.3368071899202
 31
0.0
  0
ARC
  5
6C59
330
1E
100
AcDbEntity
  8
躯体と製品
  6
DASHED1
 62
     7
100
AcDbCircle
 10
1593.781567636783
 20
803.568580861507
 30
0.0
 40
1.8
100
AcDbArc
 50
93.00000000000558
 51
142.3731526377183
  0
LINE
  5
6C5A
330
1E
100
AcDbEntity
  8
躯体と製品
  6
DASHED1
 62
     7
100
AcDbLine
 10
1632.67780149959
 20
794.8180290692744
 30
0.0
 11
1630.846252453202
 21
792.4420180772033
 31
0.0
  0
LINE
  5
6C5B
330
1E
100
AcDbEntity
  8
躯体と製品
  6
DASHED1
 62
     7
100
AcDbLine
 10
1616.400449089292
 20
805.9276285025461
 30
0.0
 11
1629.330400166545
 21
792.3625756433189
 31
0.0
  0
ARC
  5
6C5C
330
1E
100
AcDbEntity
  8
躯体と製品
  6
DASHED1
 62
     7
100
AcDbCircle
 10
1605.529268610279
 20
809.1288541869587
 30
0.0
 40
0.5999999999999997
100
AcDbArc
 50
79.29976699999421
 51
182.9999999999989
  0
ARC
  5
6C5D
330
1E
100
AcDbEntity
  8
躯体と製品
  6
DASHED1
 62
     7
100
AcDbCircle
 10
1602.832968866441
 20
808.987547105103
 30
0.0
 40
0.5999999999999997
100
AcDbArc
 50
2.999999999998919
 51
106.7002329999983
  0
LINE
  5
6C5E
330
1E
100
AcDbEntity
  8
躯体と製品
  6
DASHED1
 62
     7
100
AcDbLine
 10
1603.434200511897
 20
808.9797574627574
 30
0.0
 11
1604.932144814029
 21
809.0582613971218
 31
0.0
  0
ARC
  5
6C5F
330
1E
100
AcDbEntity
  8
躯体と製品
  6
DASHED1
 62
     7
100
AcDbCircle
 10
1606.158570557762
 20
805.8245769089753
 30
0.0
 40
3.45
100
AcDbArc
 50
6.237837000000908
 51
53.69087599999915
  0
ARC
  5
6C60
330
1E
100
AcDbEntity
  8
躯体と製品
  6
DASHED1
 62
     7
100
AcDbCircle
 10
1602.547234552506
 20
805.6308056290209
 30
0.0
 40
3.45
100
AcDbArc
 50
132.179511
 51
179.6872570000013
  0
ARC
  5
6C61
330
1E
100
AcDbEntity
  8
躯体と製品
  6
DASHED1
 62
     7
100
AcDbCircle
 10
1604.470946105241
 20
803.5279650427288
 30
0.0
 40
6.299999999999998
100
AcDbArc
 50
53.69062899999587
 51
132.3031309999968
  0
LINE
  5
6C62
330
1E
100
AcDbEntity
  8
躯体と製品
  6
Continuous
 62
     4
100
AcDbLine
 10
1603.151456735709
 20
771.3833542328792
 30
0.0
 11
1609.143233944237
 21
771.6973699703368
 31
0.0
  0
LINE
  5
6C63
330
1E
100
AcDbEntity
  8
躯体と製品
  6
Continuous
 62
     7
100
AcDbLine
 10
1608.58682422544
 20
782.31429986908
 30
0.0
 11
1608.691091056868
 21
780.3247702066036
 31
0.0
  0
LINE
  5
6C64
330
1E
100
AcDbEntity
  8
躯体と製品
  6
Continuous
 62
     7
100
AcDbLine
 10
1608.879500499342
 20
776.7297038814872
 30
0.0
 11
1609.143233944237
 21
771.6973699703368
 31
0.0
  0
LINE
  5
6C65
330
1E
100
AcDbEntity
  8
躯体と製品
  6
Continuous
 62
     7
100
AcDbLine
 10
1602.595047016912
 20
782.0002841316226
 30
0.0
 11
1602.69931384834
 21
780.0107544691459
 31
0.0
  0
LINE
  5
6C66
330
1E
100
AcDbEntity
  8
躯体と製品
  6
Continuous
 62
     7
100
AcDbLine
 10
1602.887723290815
 20
776.4156881440292
 30
0.0
 11
1603.151456735709
 21
771.3833542328792
 31
0.0
  0
LINE
  5
6C67
330
1E
100
AcDbEntity
  8
躯体と製品
  6
Continuous
 62
     4
100
AcDbLine
 10
1608.019103334932
 20
782.2845468779559
 30
0.0
 11
1608.12337016636
 21
780.2950172154793
 31
0.0
  0
LINE
  5
6C68
330
1E
100
AcDbEntity
  8
躯体と製品
  6
Continuous
 62
     4
100
AcDbLine
 10
1603.16276790742
 20
782.0300371227467
 30
0.0
 11
1603.267034738849
 21
780.0405074602703
 31
0.0
  0
POINT
  5
6C69
330
1E
100
AcDbEntity
  8
躯体と製品
 62
     4
100
AcDbPoint
 10
1605.695202452604
 20
780.1677623378747
 30
0.0
  0
LINE
  5
6C6A
330
1E
100
AcDbEntity
  8
躯体と製品
  6
Continuous
 62
     7
100
AcDbLine
 10
1555.695202452604
 20
760.2442479099882
 30
0.0
 11
1680.695202452604
 21
760.2442479099882
 31
0.0
  0
LINE
  5
6C6B
330
1E
100
AcDbEntity
  8
躯体と製品
  6
Continuous
 62
     3
100
AcDbLine
 10
1844.695202452604
 20
778.5313096468983
 30
0.0
 11
1844.695202452604
 21
771.2442479099881
 31
0.0
  0
LINE
  5
6C6C
330
1E
100
AcDbEntity
  8
躯体と製品
  6
Continuous
 62
     3
100
AcDbLine
 10
1839.695202452604
 20
769.144247909988
 30
0.0
 11
1844.195202452604
 21
769.144247909988
 31
0.0
  0
LINE
  5
6C6D
330
1E
100
AcDbEntity
  8
躯体と製品
  6
Continuous
 62
     3
100
AcDbLine
 10
1839.695202452604
 20
769.144247909988
 30
0.0
 11
1839.695202452604
 21
770.7442479099881
 31
0.0
  0
LINE
  5
6C6E
330
1E
100
AcDbEntity
  8
躯体と製品
  6
Continuous
 62
     3
100
AcDbLine
 10
1839.695202452604
 20
770.7442479099881
 30
0.0
 11
1844.195202452604
 21
770.7442479099881
 31
0.0
  0
ARC
  5
6C6F
330
1E
100
AcDbEntity
  8
躯体と製品
  6
Continuous
 62
     3
100
AcDbCircle
 10
1844.195202452604
 20
771.2442479099881
 30
0.0
 40
2.1
100
AcDbArc
 50
270.0
 51
0.0
  0
ARC
  5
6C70
330
1E
100
AcDbEntity
  8
躯体と製品
  6
Continuous
 62
     3
100
AcDbCircle
 10
1844.195202452604
 20
771.2442479099881
 30
0.0
 40
0.5
100
AcDbArc
 50
270.0
 51
0.0
  0
LINE
  5
6C71
330
1E
100
AcDbEntity
  8
躯体と製品
  6
Continuous
 62
     3
100
AcDbLine
 10
1871.695202452604
 20
769.144247909988
 30
0.0
 11
1867.195202452604
 21
769.144247909988
 31
0.0
  0
LINE
  5
6C72
330
1E
100
AcDbEntity
  8
躯体と製品
  6
Continuous
 62
     3
100
AcDbLine
 10
1867.195202452604
 20
770.7442479099881
 30
0.0
 11
1871.695202452604
 21
770.7442479099881
 31
0.0
  0
LINE
  5
6C73
330
1E
100
AcDbEntity
  8
躯体と製品
  6
Continuous
 62
     3
100
AcDbLine
 10
1871.695202452604
 20
770.7442479099881
 30
0.0
 11
1871.695202452604
 21
769.144247909988
 31
0.0
  0
ARC
  5
6C74
330
1E
100
AcDbEntity
  8
躯体と製品
  6
Continuous
 62
     3
100
AcDbCircle
 10
1867.195202452604
 20
771.2442479099881
 30
0.0
 40
2.1
100
AcDbArc
 50
180.0
 51
270.0
  0
ARC
  5
6C75
330
1E
100
AcDbEntity
  8
躯体と製品
  6
Continuous
 62
     3
100
AcDbCircle
 10
1867.195202452604
 20
771.2442479099881
 30
0.0
 40
0.5
100
AcDbArc
 50
180.0
 51
270.0
  0
LINE
  5
6C76
330
1E
100
AcDbEntity
  8
躯体と製品
  6
Continuous
 62
     3
100
AcDbLine
 10
1846.295202452604
 20
778.5313096468983
 30
0.0
 11
1846.295202452604
 21
771.2442479099881
 31
0.0
  0
ARC
  5
6C77
330
1E
100
AcDbEntity
  8
躯体と製品
  6
Continuous
 62
     3
100
AcDbCircle
 10
1846.795202452604
 20
778.5313096468983
 30
0.0
 40
0.5
100
AcDbArc
 50
86.99999999999441
 51
180.0
  0
LINE
  5
6C78
330
1E
100
AcDbEntity
  8
躯体と製品
  6
Continuous
 62
     3
100
AcDbLine
 10
1865.095202452604
 20
777.59845117566
 30
0.0
 11
1865.095202452604
 21
771.2442479099881
 31
0.0
  0
ARC
  5
6C79
330
1E
100
AcDbEntity
  8
躯体と製品
  6
Continuous
 62
     3
100
AcDbCircle
 10
1864.595202452604
 20
777.59845117566
 30
0.0
 40
0.5
100
AcDbArc
 50
0.0
 51
86.99999999999441
  0
ARC
  5
6C7A
330
1E
100
AcDbEntity
  8
躯体と製品
  6
Continuous
 62
     3
100
AcDbCircle
 10
1846.795202452604
 20
778.5313096468983
 30
0.0
 40
2.1
100
AcDbArc
 50
86.99999999999441
 51
180.0
  0
LINE
  5
6C7B
330
1E
100
AcDbEntity
  8
躯体と製品
  6
Continuous
 62
     3
100
AcDbLine
 10
1866.695202452604
 20
777.59845117566
 30
0.0
 11
1866.695202452604
 21
771.2442479099881
 31
0.0
  0
ARC
  5
6C7C
330
1E
100
AcDbEntity
  8
躯体と製品
  6
Continuous
 62
     3
100
AcDbCircle
 10
1864.595202452604
 20
777.59845117566
 30
0.0
 40
2.1
100
AcDbArc
 50
0.0
 51
86.99999999999441
  0
LINE
  5
6C7D
330
1E
100
AcDbEntity
  8
躯体と製品
  6
Continuous
 62
     3
100
AcDbLine
 10
1860.100488870001
 20
776.3319506140407
 30
0.0
 11
1850.913097150258
 21
776.8134414114754
 31
0.0
  0
LINE
  5
6C7E
330
1E
100
AcDbEntity
  8
躯体と製品
  6
Continuous
 62
     3
100
AcDbLine
 10
1850.965433106502
 20
777.8120709462304
 30
0.0
 11
1850.913097150258
 21
776.8134414114754
 31
0.0
  0
ARC
  5
6C7F
330
1E
100
AcDbEntity
  8
躯体と製品
  6
Continuous
 62
     3
100
AcDbCircle
 10
1849.966803571747
 20
777.8644069024733
 30
0.0
 40
1.0
100
AcDbArc
 50
357.0000000000011
 51
86.99999999999441
  0
LINE
  5
6C80
330
1E
100
AcDbEntity
  8
躯体と製品
  6
Continuous
 62
     3
100
AcDbLine
 10
1860.152824826244
 20
777.3305801487952
 30
0.0
 11
1860.100488870001
 21
776.3319506140407
 31
0.0
  0
ARC
  5
6C81
330
1E
100
AcDbEntity
  8
躯体と製品
  6
Continuous
 62
     3
100
AcDbCircle
 10
1861.151454360998
 20
777.2782441925524
 30
0.0
 40
1.0
100
AcDbArc
 50
86.99999999999441
 51
177.0000000000011
  0
LINE
  5
6C82
330
1E
100
AcDbEntity
  8
躯体と製品
  6
Continuous
 62
     3
100
AcDbLine
 10
1864.621370430725
 20
778.0977659430373
 30
0.0
 11
1846.821370430726
 21
779.0306244142753
 31
0.0
  0
LINE
  5
6C83
330
1E
100
AcDbEntity
  8
躯体と製品
  6
Continuous
 62
     3
100
AcDbLine
 10
1864.705107960714
 20
779.6955731986447
 30
0.0
 11
1846.905107960715
 21
780.6284316698827
 31
0.0
  0
LINE
  5
6C84
330
1E
100
AcDbEntity
  8
躯体と製品
  6
DASHED1
 62
     7
100
AcDbLine
 10
1852.69931384834
 20
780.3247702066036
 30
0.0
 11
1852.510904405866
 21
776.7297038814872
 31
0.0
  0
LINE
  5
6C85
330
1E
100
AcDbEntity
  8
躯体と製品
  6
DASHED1
 62
     7
100
AcDbLine
 10
1858.691091056868
 20
780.0107544691456
 30
0.0
 11
1858.502681614393
 21
776.4156881440292
 31
0.0
  0
LINE
  5
6C86
330
1E
100
AcDbEntity
  8
躯体と製品
  6
Continuous
 62
     4
100
AcDbLine
 10
1841.695202452604
 20
770.7442479099881
 30
0.0
 11
1841.695202452604
 21
769.144247909988
 31
0.0
  0
LINE
  5
6C87
330
1E
100
AcDbEntity
  8
躯体と製品
  6
Continuous
 62
     4
100
AcDbLine
 10
1869.695202452604
 20
770.7442479099881
 30
0.0
 11
1869.695202452604
 21
769.144247909988
 31
0.0
  0
LINE
  5
6C88
330
1E
100
AcDbEntity
  8
躯体と製品
  6
DASHED1
 62
     7
100
AcDbLine
 10
1859.745202452604
 20
762.2442479099881
 30
0.0
 11
1859.745202452604
 21
752.944247909988
 31
0.0
  0
LINE
  5
6C89
330
1E
100
AcDbEntity
  8
躯体と製品
  6
DASHED1
 62
     7
100
AcDbLine
 10
1851.645202452604
 20
762.2442479099881
 30
0.0
 11
1851.645202452604
 21
752.944247909988
 31
0.0
  0
LINE
  5
6C8A
330
1E
100
AcDbEntity
  8
躯体と製品
  6
DASHED1
 62
     7
100
AcDbLine
 10
1860.445202452604
 20
752.2442479099882
 30
0.0
 11
1859.745202452604
 21
752.944247909988
 31
0.0
  0
LINE
  5
6C8B
330
1E
100
AcDbEntity
  8
躯体と製品
  6
DASHED1
 62
     7
100
AcDbLine
 10
1860.445202452604
 20
733.6160739099881
 30
0.0
 11
1860.445202452604
 21
752.2442479099882
 31
0.0
  0
LINE
  5
6C8C
330
1E
100
AcDbEntity
  8
躯体と製品
  6
DASHED1
 62
     7
100
AcDbLine
 10
1860.195202452604
 20
721.7442479099881
 30
0.0
 11
1860.195202452604
 21
722.6075519099881
 31
0.0
  0
LINE
  5
6C8D
330
1E
100
AcDbEntity
  8
躯体と製品
  6
DASHED1
 62
     7
100
AcDbLine
 10
1862.320232452605
 20
722.9822519099882
 30
0.0
 11
1860.445202452604
 21
733.6160739099881
 31
0.0
  0
LINE
  5
6C8E
330
1E
100
AcDbEntity
  8
躯体と製品
  6
DASHED1
 62
     7
100
AcDbLine
 10
1856.195202452604
 20
733.2442479099881
 30
0.0
 11
1855.195202452604
 21
733.2442479099881
 31
0.0
  0
LINE
  5
6C8F
330
1E
100
AcDbEntity
  8
躯体と製品
  6
DASHED1
 62
     7
100
AcDbLine
 10
1850.945202452604
 20
752.2442479099882
 30
0.0
 11
1851.645202452604
 21
752.944247909988
 31
0.0
  0
LINE
  5
6C90
330
1E
100
AcDbEntity
  8
躯体と製品
  6
DASHED1
 62
     7
100
AcDbLine
 10
1850.945202452604
 20
733.6160739099881
 30
0.0
 11
1850.945202452604
 21
752.2442479099882
 31
0.0
  0
LINE
  5
6C91
330
1E
100
AcDbEntity
  8
躯体と製品
  6
DASHED1
 62
     7
100
AcDbLine
 10
1852.195202452604
 20
720.7442479099881
 30
0.0
 11
1859.195202452604
 21
720.7442479099881
 31
0.0
  0
ARC
  5
6C92
330
1E
100
AcDbEntity
  8
躯体と製品
  6
DASHED1
 62
     7
100
AcDbCircle
 10
1852.195202452604
 20
721.7442479099881
 30
0.0
 40
1.0
100
AcDbArc
 50
180.0
 51
270.0
  0
LINE
  5
6C93
330
1E
100
AcDbEntity
  8
躯体と製品
  6
DASHED1
 62
     7
100
AcDbLine
 10
1851.195202452604
 20
721.7442479099881
 30
0.0
 11
1851.195202452604
 21
722.6075519099881
 31
0.0
  0
LINE
  5
6C94
330
1E
100
AcDbEntity
  8
躯体と製品
  6
DASHED1
 62
     7
100
AcDbLine
 10
1849.070172452604
 20
722.9822519099882
 30
0.0
 11
1853.255605452604
 21
722.2442479099882
 31
0.0
  0
LINE
  5
6C95
330
1E
100
AcDbEntity
  8
躯体と製品
  6
DASHED1
 62
     7
100
AcDbLine
 10
1856.195202452604
 20
733.2442479099881
 30
0.0
 11
1858.134799452604
 21
722.2442479099882
 31
0.0
  0
LINE
  5
6C96
330
1E
100
AcDbEntity
  8
躯体と製品
  6
DASHED1
 62
     7
100
AcDbLine
 10
1855.195202452604
 20
733.2442479099881
 30
0.0
 11
1853.255605452604
 21
722.2442479099882
 31
0.0
  0
LINE
  5
6C97
330
1E
100
AcDbEntity
  8
躯体と製品
  6
DASHED1
 62
     7
100
AcDbLine
 10
1849.070172452604
 20
722.9822519099882
 30
0.0
 11
1850.945202452604
 21
733.6160739099881
 31
0.0
  0
LINE
  5
6C98
330
1E
100
AcDbEntity
  8
躯体と製品
  6
DASHED1
 62
     7
100
AcDbLine
 10
1860.445202452604
 20
752.2442479099882
 30
0.0
 11
1850.945202452604
 21
752.2442479099882
 31
0.0
  0
LINE
  5
6C99
330
1E
100
AcDbEntity
  8
躯体と製品
  6
DASHED1
 62
     7
100
AcDbLine
 10
1859.745202452604
 20
752.944247909988
 30
0.0
 11
1851.645202452604
 21
752.944247909988
 31
0.0
  0
LINE
  5
6C9A
330
1E
100
AcDbEntity
  8
躯体と製品
  6
DASHED1
 62
     7
100
AcDbLine
 10
1862.320232452605
 20
722.9822519099882
 30
0.0
 11
1858.134799452604
 21
722.2442479099882
 31
0.0
  0
ARC
  5
6C9B
330
1E
100
AcDbEntity
  8
躯体と製品
  6
DASHED1
 62
     7
100
AcDbCircle
 10
1859.195202452604
 20
721.7442479099881
 30
0.0
 40
1.0
100
AcDbArc
 50
270.0
 51
0.0
  0
ARC
  5
6C9C
330
1E
100
AcDbEntity
  8
躯体と製品
  6
Continuous
 62
     3
100
AcDbCircle
 10
1884.252512719187
 20
765.2442479099882
 30
0.0
 40
0.5
100
AcDbArc
 50
270.0
 51
350.0000000000025
  0
LINE
  5
6C9D
330
1E
100
AcDbEntity
  8
躯体と製品
  6
Continuous
 62
     3
100
AcDbLine
 10
1884.252512719187
 20
764.7442479099882
 30
0.0
 11
1881.206232883529
 21
764.7442479099882
 31
0.0
  0
LINE
  5
6C9E
330
1E
100
AcDbEntity
  8
躯体と製品
  6
Continuous
 62
     3
100
AcDbLine
 10
1884.744916595693
 20
765.1574238211549
 30
0.0
 11
1885.152111267253
 21
767.4667395590192
 31
0.0
  0
ARC
  5
6C9F
330
1E
100
AcDbEntity
  8
躯体と製品
  6
Continuous
 62
     3
100
AcDbCircle
 10
1881.206232883529
 20
765.2442479099882
 30
0.0
 40
0.5
100
AcDbArc
 50
170.0000000000025
 51
270.0
  0
LINE
  5
6CA0
330
1E
100
AcDbEntity
  8
躯体と製品
  6
Continuous
 62
     3
100
AcDbLine
 10
1880.713829007024
 20
765.3310719988215
 30
0.0
 11
1881.212880255204
 21
768.1613322696867
 31
0.0
  0
ARC
  5
6CA1
330
1E
100
AcDbEntity
  8
躯体と製品
  6
Continuous
 62
     3
100
AcDbCircle
 10
1878.667666353815
 20
765.2442479099882
 30
0.0
 40
0.5
100
AcDbArc
 50
270.0
 51
350.0000000000025
  0
LINE
  5
6CA2
330
1E
100
AcDbEntity
  8
躯体と製品
  6
Continuous
 62
     3
100
AcDbLine
 10
1878.667666353815
 20
764.7442479099882
 30
0.0
 11
1874.695202452604
 21
764.7442479099882
 31
0.0
  0
LINE
  5
6CA3
330
1E
100
AcDbEntity
  8
躯体と製品
  6
Continuous
 62
     3
100
AcDbLine
 10
1879.160070230321
 20
765.1574238211549
 30
0.0
 11
1880.300025203103
 21
771.6224297334769
 31
0.0
  0
LINE
  5
6CA4
330
1E
100
AcDbEntity
  8
躯体と製品
  6
Continuous
 62
     3
100
AcDbLine
 10
1881.386528432871
 20
769.1461400226992
 30
0.0
 11
1880.894124556365
 21
769.2329641115325
 31
0.0
  0
LINE
  5
6CA5
330
1E
100
AcDbEntity
  8
躯体と製品
  6
Continuous
 62
     3
100
AcDbLine
 10
1885.818163321426
 20
768.3647232231977
 30
0.0
 11
1885.32575944492
 21
768.4515473120312
 31
0.0
  0
LINE
  5
6CA6
330
1E
100
AcDbEntity
  8
躯体と製品
  6
Continuous
 62
     3
100
AcDbLine
 10
1881.560176610538
 20
770.1309477757112
 30
0.0
 11
1881.067772734032
 21
770.2177718645446
 31
0.0
  0
LINE
  5
6CA7
330
1E
100
AcDbEntity
  8
躯体と製品
  6
Continuous
 62
     3
100
AcDbLine
 10
1885.991811499093
 20
769.3495309762099
 30
0.0
 11
1885.499407622587
 21
769.4363550650437
 31
0.0
  0
LINE
  5
6CA8
330
1E
100
AcDbEntity
  8
躯体と製品
  6
Continuous
 62
     3
100
AcDbLine
 10
1886.195202452604
 20
764.7442479099882
 30
0.0
 11
1887.193679474189
 21
770.4068924898083
 31
0.0
  0
LINE
  5
6CA9
330
1E
100
AcDbEntity
  8
躯体と製品
  6
Continuous
 62
     3
100
AcDbLine
 10
1885.499407622587
 20
769.4363550650437
 30
0.0
 11
1885.716467844671
 21
770.6673647563087
 31
0.0
  0
LINE
  5
6CAA
330
1E
100
AcDbEntity
  8
躯体と製品
  6
Continuous
 62
     3
100
AcDbLine
 10
1881.560176610538
 20
770.1309477757112
 30
0.0
 11
1881.777236832622
 21
771.3619574669767
 31
0.0
  0
LINE
  5
6CAB
330
1E
100
AcDbEntity
  8
躯体と製品
  6
Continuous
 62
     3
100
AcDbLine
 10
1885.818163321426
 20
768.3647232231977
 30
0.0
 11
1885.152111267253
 21
767.4667395590192
 31
0.0
  0
LINE
  5
6CAC
330
1E
100
AcDbEntity
  8
躯体と製品
  6
Continuous
 62
     3
100
AcDbLine
 10
1885.991811499093
 20
769.3495309762099
 30
0.0
 11
1885.32575944492
 21
768.4515473120312
 31
0.0
  0
ARC
  5
6CAD
330
1E
100
AcDbEntity
  8
躯体と製品
  6
Continuous
 62
     3
100
AcDbCircle
 10
1881.038631017863
 20
771.4921936002268
 30
0.0
 40
0.7500000000000014
100
AcDbArc
 50
350.0000000000025
 51
170.0000000000025
  0
ARC
  5
6CAE
330
1E
100
AcDbEntity
  8
躯体と製品
  6
Continuous
 62
     3
100
AcDbCircle
 10
1886.455073659429
 20
770.5371286230586
 30
0.0
 40
0.7499999999999977
100
AcDbArc
 50
350.0000000000025
 51
170.0000000000025
  0
LINE
  5
6CAF
330
1E
100
AcDbEntity
  8
躯体と製品
  6
Continuous
 62
     3
100
AcDbLine
 10
1886.195202452604
 20
762.2442479099881
 30
0.0
 11
1886.195202452604
 21
764.7442479099882
 31
0.0
  0
LINE
  5
6CB0
330
1E
100
AcDbEntity
  8
躯体と製品
  6
Continuous
 62
     3
100
AcDbLine
 10
1837.695202452604
 20
762.2442479099881
 30
0.0
 11
1839.195202452604
 21
762.2442479099881
 31
0.0
  0
LINE
  5
6CB1
330
1E
100
AcDbEntity
  8
躯体と製品
  6
Continuous
 62
     3
100
AcDbLine
 10
1839.195202452604
 20
762.2442479099881
 30
0.0
 11
1839.195202452604
 21
762.7442479099881
 31
0.0
  0
LINE
  5
6CB2
330
1E
100
AcDbEntity
  8
躯体と製品
  6
Continuous
 62
     3
100
AcDbLine
 10
1839.195202452604
 20
762.7442479099881
 30
0.0
 11
1850.695202452604
 21
762.7442479099881
 31
0.0
  0
LINE
  5
6CB3
330
1E
100
AcDbEntity
  8
躯体と製品
  6
Continuous
 62
     3
100
AcDbLine
 10
1850.695202452604
 20
762.7442479099881
 30
0.0
 11
1850.695202452604
 21
762.2442479099881
 31
0.0
  0
ARC
  5
6CB4
330
1E
100
AcDbEntity
  8
躯体と製品
  6
Continuous
 62
     3
100
AcDbCircle
 10
1842.445202452604
 20
771.4942479099882
 30
0.0
 40
0.75
100
AcDbArc
 50
270.0
 51
90.0
  0
ARC
  5
6CB5
330
1E
100
AcDbEntity
  8
躯体と製品
  6
Continuous
 62
     3
100
AcDbCircle
 10
1841.445202452604
 20
767.4942479099882
 30
0.0
 40
0.75
100
AcDbArc
 50
270.0
 51
90.0
  0
ARC
  5
6CB6
330
1E
100
AcDbEntity
  8
躯体と製品
  6
Continuous
 62
     3
100
AcDbCircle
 10
1839.495202452604
 20
770.444247909988
 30
0.0
 40
0.2999999999999998
100
AcDbArc
 50
90.0
 51
180.0
  0
LINE
  5
6CB7
330
1E
100
AcDbEntity
  8
躯体と製品
  6
Continuous
 62
     3
100
AcDbLine
 10
1839.495202452604
 20
770.7442479099881
 30
0.0
 11
1842.445202452604
 21
770.7442479099881
 31
0.0
  0
LINE
  5
6CB8
330
1E
100
AcDbEntity
  8
躯体と製品
  6
Continuous
 62
     3
100
AcDbLine
 10
1839.495202452604
 20
768.2442479099882
 30
0.0
 11
1841.445202452604
 21
768.2442479099882
 31
0.0
  0
ARC
  5
6CB9
330
1E
100
AcDbEntity
  8
躯体と製品
  6
Continuous
 62
     3
100
AcDbCircle
 10
1839.495202452604
 20
768.5442479099884
 30
0.0
 40
0.2999999999999998
100
AcDbArc
 50
180.0
 51
270.0
  0
LINE
  5
6CBA
330
1E
100
AcDbEntity
  8
躯体と製品
  6
Continuous
 62
     3
100
AcDbLine
 10
1839.195202452604
 20
768.5442479099884
 30
0.0
 11
1839.195202452604
 21
770.444247909988
 31
0.0
  0
ARC
  5
6CBB
330
1E
100
AcDbEntity
  8
躯体と製品
  6
Continuous
 62
     3
100
AcDbCircle
 10
1839.495202452604
 20
766.4442479099879
 30
0.0
 40
0.2999999999999998
100
AcDbArc
 50
90.0
 51
180.0
  0
LINE
  5
6CBC
330
1E
100
AcDbEntity
  8
躯体と製品
  6
Continuous
 62
     3
100
AcDbLine
 10
1839.495202452604
 20
766.7442479099881
 30
0.0
 11
1841.445202452604
 21
766.7442479099881
 31
0.0
  0
ARC
  5
6CBD
330
1E
100
AcDbEntity
  8
躯体と製品
  6
Continuous
 62
     3
100
AcDbCircle
 10
1839.495202452604
 20
765.0442479099884
 30
0.0
 40
0.2999999999999998
100
AcDbArc
 50
180.0
 51
270.0
  0
LINE
  5
6CBE
330
1E
100
AcDbEntity
  8
躯体と製品
  6
Continuous
 62
     3
100
AcDbLine
 10
1839.195202452604
 20
765.0442479099884
 30
0.0
 11
1839.195202452604
 21
766.4442479099879
 31
0.0
  0
LINE
  5
6CBF
330
1E
100
AcDbEntity
  8
躯体と製品
  6
Continuous
 62
     3
100
AcDbLine
 10
1838.195202452604
 20
772.2442479099882
 30
0.0
 11
1842.445202452604
 21
772.2442479099882
 31
0.0
  0
ARC
  5
6CC0
330
1E
100
AcDbEntity
  8
躯体と製品
  6
Continuous
 62
     3
100
AcDbCircle
 10
1838.195202452604
 20
771.7442479099881
 30
0.0
 40
0.5
100
AcDbArc
 50
90.0
 51
180.0
  0
LINE
  5
6CC1
330
1E
100
AcDbEntity
  8
躯体と製品
  6
Continuous
 62
     3
100
AcDbLine
 10
1837.695202452604
 20
771.7442479099881
 30
0.0
 11
1837.695202452604
 21
762.2442479099881
 31
0.0
  0
LINE
  5
6CC2
330
1E
100
AcDbEntity
  8
躯体と製品
  6
Continuous
 62
     3
100
AcDbLine
 10
1850.695202452604
 20
762.2442479099881
 30
0.0
 11
1860.695202452604
 21
762.2442479099881
 31
0.0
  0
LINE
  5
6CC3
330
1E
100
AcDbEntity
  8
躯体と製品
  6
Continuous
 62
     3
100
AcDbLine
 10
1856.195202452604
 20
764.7442479099882
 30
0.0
 11
1871.895202452605
 21
764.7442479099882
 31
0.0
  0
LINE
  5
6CC4
330
1E
100
AcDbEntity
  8
躯体と製品
  6
Continuous
 62
     3
100
AcDbLine
 10
1839.495202452604
 20
764.7442479099882
 30
0.0
 11
1855.195202452604
 21
764.7442479099882
 31
0.0
  0
LINE
  5
6CC5
330
1E
100
AcDbEntity
  8
躯体と製品
  6
Continuous
 62
     3
100
AcDbLine
 10
1860.695202452604
 20
762.2442479099881
 30
0.0
 11
1860.695202452604
 21
762.7442479099881
 31
0.0
  0
LINE
  5
6CC6
330
1E
100
AcDbEntity
  8
躯体と製品
  6
Continuous
 62
     3
100
AcDbLine
 10
1860.695202452604
 20
762.7442479099881
 30
0.0
 11
1872.195202452604
 21
762.7442479099881
 31
0.0
  0
LINE
  5
6CC7
330
1E
100
AcDbEntity
  8
躯体と製品
  6
Continuous
 62
     3
100
AcDbLine
 10
1872.195202452604
 20
762.7442479099881
 30
0.0
 11
1872.195202452604
 21
762.2442479099881
 31
0.0
  0
LINE
  5
6CC8
330
1E
100
AcDbEntity
  8
躯体と製品
  6
Continuous
 62
     3
100
AcDbLine
 10
1872.195202452604
 20
762.2442479099881
 30
0.0
 11
1874.195202452605
 21
762.2442479099881
 31
0.0
  0
ARC
  5
6CC9
330
1E
100
AcDbEntity
  8
躯体と製品
  6
Continuous
 62
     3
100
AcDbCircle
 10
1873.195202452604
 20
780.2442479099881
 30
0.0
 40
1.0
100
AcDbArc
 50
0.0
 51
180.0
  0
LINE
  5
6CCA
330
1E
100
AcDbEntity
  8
躯体と製品
  6
Continuous
 62
     3
100
AcDbLine
 10
1884.695202452604
 20
763.2442479099881
 30
0.0
 11
1884.695202452604
 21
762.2442479099881
 31
0.0
  0
LINE
  5
6CCB
330
1E
100
AcDbEntity
  8
躯体と製品
  6
Continuous
 62
     3
100
AcDbLine
 10
1884.695202452604
 20
762.2442479099881
 30
0.0
 11
1886.195202452604
 21
762.2442479099881
 31
0.0
  0
LINE
  5
6CCC
330
1E
100
AcDbEntity
  8
躯体と製品
  6
Continuous
 62
     3
100
AcDbLine
 10
1855.695202452604
 20
764.2442479099882
 30
0.0
 11
1856.195202452604
 21
764.7442479099882
 31
0.0
  0
LINE
  5
6CCD
330
1E
100
AcDbEntity
  8
躯体と製品
  6
Continuous
 62
     3
100
AcDbLine
 10
1874.195202452605
 20
762.2442479099881
 30
0.0
 11
1874.195202452605
 21
763.2442479099881
 31
0.0
  0
LINE
  5
6CCE
330
1E
100
AcDbEntity
  8
躯体と製品
  6
Continuous
 62
     3
100
AcDbLine
 10
1874.195202452605
 20
763.2442479099881
 30
0.0
 11
1884.695202452604
 21
763.2442479099881
 31
0.0
  0
LINE
  5
6CCF
330
1E
100
AcDbEntity
  8
躯体と製品
  6
Continuous
 62
     3
100
AcDbLine
 10
1874.195202452605
 20
765.2442479099882
 30
0.0
 11
1874.195202452605
 21
780.2442479099881
 31
0.0
  0
ARC
  5
6CD0
330
1E
100
AcDbEntity
  8
躯体と製品
  6
Continuous
 62
     3
100
AcDbCircle
 10
1874.695202452604
 20
765.2442479099882
 30
0.0
 40
0.5
100
AcDbArc
 50
180.0
 51
270.0
  0
ARC
  5
6CD1
330
1E
100
AcDbEntity
  8
躯体と製品
  6
Continuous
 62
     3
100
AcDbCircle
 10
1871.895202452605
 20
765.0442479099884
 30
0.0
 40
0.2999999999999998
100
AcDbArc
 50
270.0
 51
0.0
  0
LINE
  5
6CD2
330
1E
100
AcDbEntity
  8
躯体と製品
  6
Continuous
 62
     3
100
AcDbLine
 10
1871.695202452604
 20
772.2442479099882
 30
0.0
 11
1868.945202452604
 21
772.2442479099882
 31
0.0
  0
ARC
  5
6CD3
330
1E
100
AcDbEntity
  8
躯体と製品
  6
Continuous
 62
     3
100
AcDbCircle
 10
1871.695202452604
 20
772.7442479099882
 30
0.0
 40
0.5
100
AcDbArc
 50
270.0
 51
0.0
  0
LINE
  5
6CD4
330
1E
100
AcDbEntity
  8
躯体と製品
  6
Continuous
 62
     3
100
AcDbLine
 10
1872.195202452604
 20
772.7442479099882
 30
0.0
 11
1872.195202452604
 21
780.2442479099881
 31
0.0
  0
ARC
  5
6CD5
330
1E
100
AcDbEntity
  8
躯体と製品
  6
Continuous
 62
     3
100
AcDbCircle
 10
1868.945202452604
 20
771.4942479099882
 30
0.0
 40
0.75
100
AcDbArc
 50
90.0
 51
270.0
  0
ARC
  5
6CD6
330
1E
100
AcDbEntity
  8
躯体と製品
  6
Continuous
 62
     3
100
AcDbCircle
 10
1869.945202452604
 20
767.4942479099882
 30
0.0
 40
0.75
100
AcDbArc
 50
90.0
 51
270.0
  0
LINE
  5
6CD7
330
1E
100
AcDbEntity
  8
躯体と製品
  6
Continuous
 62
     3
100
AcDbLine
 10
1871.895202452605
 20
766.7442479099881
 30
0.0
 11
1869.945202452604
 21
766.7442479099881
 31
0.0
  0
ARC
  5
6CD8
330
1E
100
AcDbEntity
  8
躯体と製品
  6
Continuous
 62
     3
100
AcDbCircle
 10
1871.895202452605
 20
766.4442479099879
 30
0.0
 40
0.2999999999999998
100
AcDbArc
 50
0.0
 51
90.0
  0
LINE
  5
6CD9
330
1E
100
AcDbEntity
  8
躯体と製品
  6
Continuous
 62
     3
100
AcDbLine
 10
1872.195202452604
 20
766.4442479099879
 30
0.0
 11
1872.195202452604
 21
765.0442479099884
 31
0.0
  0
LINE
  5
6CDA
330
1E
100
AcDbEntity
  8
躯体と製品
  6
Continuous
 62
     3
100
AcDbLine
 10
1871.895202452605
 20
768.2442479099882
 30
0.0
 11
1869.945202452604
 21
768.2442479099882
 31
0.0
  0
ARC
  5
6CDB
330
1E
100
AcDbEntity
  8
躯体と製品
  6
Continuous
 62
     3
100
AcDbCircle
 10
1871.895202452605
 20
768.5442479099884
 30
0.0
 40
0.2999999999999998
100
AcDbArc
 50
270.0
 51
0.0
  0
LINE
  5
6CDC
330
1E
100
AcDbEntity
  8
躯体と製品
  6
Continuous
 62
     3
100
AcDbLine
 10
1872.195202452604
 20
770.444247909988
 30
0.0
 11
1872.195202452604
 21
768.5442479099884
 31
0.0
  0
ARC
  5
6CDD
330
1E
100
AcDbEntity
  8
躯体と製品
  6
Continuous
 62
     3
100
AcDbCircle
 10
1871.895202452605
 20
770.444247909988
 30
0.0
 40
0.2999999999999998
100
AcDbArc
 50
0.0
 51
90.0
  0
LINE
  5
6CDE
330
1E
100
AcDbEntity
  8
躯体と製品
  6
Continuous
 62
     3
100
AcDbLine
 10
1871.895202452605
 20
770.7442479099881
 30
0.0
 11
1868.945202452604
 21
770.7442479099881
 31
0.0
  0
LINE
  5
6CDF
330
1E
100
AcDbEntity
  8
躯体と製品
  6
Continuous
 62
     3
100
AcDbLine
 10
1855.695202452604
 20
764.2442479099882
 30
0.0
 11
1855.195202452604
 21
764.7442479099882
 31
0.0
  0
LINE
  5
6CE0
330
1E
100
AcDbEntity
  8
躯体と製品
  6
Continuous
 62
     3
100
AcDbLine
 10
1880.894124556365
 20
769.2329641115325
 30
0.0
 11
1881.212880255204
 21
768.1613322696867
 31
0.0
  0
LINE
  5
6CE1
330
1E
100
AcDbEntity
  8
躯体と製品
  6
Continuous
 62
     3
100
AcDbLine
 10
1881.067772734032
 20
770.2177718645446
 30
0.0
 11
1881.386528432871
 21
769.1461400226992
 31
0.0
  0
LINE
  5
6CE2
330
1E
100
AcDbEntity
  8
躯体と製品
  6
DASHED1
 62
     4
100
AcDbLine
 10
1859.47323275637
 20
805.7974200499051
 30
0.0
 11
1858.227636997788
 21
782.0300371227467
 31
0.0
  0
LINE
  5
6CE3
330
1E
100
AcDbEntity
  8
躯体と製品
  6
DASHED1
 62
     7
100
AcDbLine
 10
1860.040953646878
 20
805.7676670587815
 30
0.0
 11
1858.795357888296
 21
782.0002841316226
 31
0.0
  0
LINE
  5
6CE4
330
1E
100
AcDbEntity
  8
躯体と製品
  6
DASHED1
 62
     7
100
AcDbLine
 10
1854.049176438351
 20
806.0816827962392
 30
0.0
 11
1852.803580679769
 21
782.31429986908
 31
0.0
  0
LINE
  5
6CE5
330
1E
100
AcDbEntity
  8
躯体と製品
  6
DASHED1
 62
     4
100
AcDbLine
 10
1854.616897328858
 20
806.0519298051147
 30
0.0
 11
1853.371301570276
 21
782.2845468779559
 31
0.0
  0
ARC
  5
6CE6
330
1E
100
AcDbEntity
  8
躯体と製品
  6
DASHED1
 62
     7
100
AcDbCircle
 10
1867.608837268425
 20
803.568580861507
 30
0.0
 40
1.0
100
AcDbArc
 50
37.62684736228169
 51
86.99999999999441
  0
LINE
  5
6CE7
330
1E
100
AcDbEntity
  8
躯体と製品
  6
DASHED1
 62
     7
100
AcDbLine
 10
1846.387088095566
 20
806.4832358309546
 30
0.0
 11
1867.703041989662
 21
805.3661140240654
 31
0.0
  0
ARC
  5
6CE8
330
1E
100
AcDbEntity
  8
躯体と製品
  6
DASHED1
 62
     7
100
AcDbCircle
 10
1846.292883374329
 20
804.6857026683968
 30
0.0
 40
1.8
100
AcDbArc
 50
86.99999999999441
 51
136.3731526377175
  0
LINE
  5
6CE9
330
1E
100
AcDbEntity
  8
躯体と製品
  6
DASHED1
 62
     7
100
AcDbLine
 10
1846.345219330572
 20
805.6843322031511
 30
0.0
 11
1867.661173224668
 21
804.5672103962619
 31
0.0
  0
LINE
  5
6CEA
330
1E
100
AcDbEntity
  8
躯体と製品
  6
DASHED1
 62
     7
100
AcDbLine
 10
1845.569034730766
 20
805.3756614651463
 30
0.0
 11
1832.639083637008
 21
791.8106085886037
 31
0.0
  0
ARC
  5
6CEB
330
1E
100
AcDbEntity
  8
躯体と製品
  6
DASHED1
 62
     7
100
AcDbCircle
 10
1846.292883374329
 20
804.6857026683968
 30
0.0
 40
1.0
100
AcDbArc
 50
86.99999999999441
 51
136.3731526377175
  0
LINE
  5
6CEC
330
1E
100
AcDbEntity
  8
躯体と製品
  6
DASHED1
 62
     7
100
AcDbLine
 10
1828.079000479441
 20
794.3296159941635
 30
0.0
 11
1828.712603405618
 21
794.8180290692744
 31
0.0
  0
LINE
  5
6CED
330
1E
100
AcDbEntity
  8
躯体と製品
  6
DASHED1
 62
     7
100
AcDbLine
 10
1828.079000479441
 20
794.3296159941635
 30
0.0
 11
1829.910549525848
 21
791.9536050020676
 31
0.0
  0
ARC
  5
6CEE
330
1E
100
AcDbEntity
  8
躯体と製品
  6
DASHED1
 62
     7
100
AcDbCircle
 10
1831.3361560951
 20
793.0525344400686
 30
0.0
 40
1.0
100
AcDbArc
 50
217.6268487328632
 51
316.3731526377176
  0
ARC
  5
6CEF
330
1E
100
AcDbEntity
  8
躯体と製品
  6
DASHED1
 62
     7
100
AcDbCircle
 10
1831.3361560951
 20
793.0525344400686
 30
0.0
 40
1.8
100
AcDbArc
 50
217.6268481237226
 51
316.3731526377176
  0
LINE
  5
6CF0
330
1E
100
AcDbEntity
  8
躯体と製品
  6
DASHED1
 62
     7
100
AcDbLine
 10
1884.061357866668
 20
791.9173237618886
 30
0.0
 11
1881.991481459887
 21
789.7457778138563
 31
0.0
  0
LINE
  5
6CF1
330
1E
100
AcDbEntity
  8
躯体と製品
  6
DASHED1
 62
     7
100
AcDbLine
 10
1884.64043678154
 20
791.3653567245114
 30
0.0
 11
1884.061357866668
 21
791.9173237618886
 31
0.0
  0
LINE
  5
6CF2
330
1E
100
AcDbEntity
  8
躯体と製品
  6
DASHED1
 62
     7
100
AcDbLine
 10
1884.64043678154
 20
791.3653567245114
 30
0.0
 11
1882.570560374737
 21
789.1938107764566
 31
0.0
  0
ARC
  5
6CF3
330
1E
100
AcDbEntity
  8
躯体と製品
  6
DASHED1
 62
     7
100
AcDbCircle
 10
1881.267632832829
 20
790.4357366279216
 30
0.0
 40
1.0
100
AcDbArc
 50
217.6268473622817
 51
316.3731512671342
  0
ARC
  5
6CF4
330
1E
100
AcDbEntity
  8
躯体と製品
  6
DASHED1
 62
     7
100
AcDbCircle
 10
1881.267632832829
 20
790.4357366279216
 30
0.0
 40
1.8
100
AcDbArc
 50
217.6268473622817
 51
316.3731518762783
  0
LINE
  5
6CF5
330
1E
100
AcDbEntity
  8
躯体と製品
  6
DASHED1
 62
     7
100
AcDbLine
 10
1869.034443852281
 20
804.6675102805627
 30
0.0
 11
1880.475629189735
 21
789.8252202650561
 31
0.0
  0
LINE
  5
6CF6
330
1E
100
AcDbEntity
  8
躯体と製品
  6
DASHED1
 62
     7
100
AcDbLine
 10
1868.400840926123
 20
804.1790972054268
 30
0.0
 11
1879.842026263577
 21
789.3368071899202
 31
0.0
  0
ARC
  5
6CF7
330
1E
100
AcDbEntity
  8
躯体と製品
  6
DASHED1
 62
     7
100
AcDbCircle
 10
1867.608837268425
 20
803.568580861507
 30
0.0
 40
1.8
100
AcDbArc
 50
37.62684736228169
 51
86.99999999999441
  0
LINE
  5
6CF8
330
1E
100
AcDbEntity
  8
躯体と製品
  6
DASHED1
 62
     7
100
AcDbLine
 10
1828.712603405618
 20
794.8180290692744
 30
0.0
 11
1830.544152452007
 21
792.4420180772033
 31
0.0
  0
LINE
  5
6CF9
330
1E
100
AcDbEntity
  8
躯体と製品
  6
DASHED1
 62
     7
100
AcDbLine
 10
1844.989955815916
 20
805.9276285025461
 30
0.0
 11
1832.060004738663
 21
792.3625756433189
 31
0.0
  0
ARC
  5
6CFA
330
1E
100
AcDbEntity
  8
躯体と製品
  6
DASHED1
 62
     7
100
AcDbCircle
 10
1855.86113629493
 20
809.1288541869587
 30
0.0
 40
0.5999999999999997
100
AcDbArc
 50
357.0000000000011
 51
100.7002330000058
  0
ARC
  5
6CFB
330
1E
100
AcDbEntity
  8
躯体と製品
  6
DASHED1
 62
     7
100
AcDbCircle
 10
1858.557436038767
 20
808.987547105103
 30
0.0
 40
0.5999999999999997
100
AcDbArc
 50
73.29976700000166
 51
177.0000000000011
  0
LINE
  5
6CFC
330
1E
100
AcDbEntity
  8
躯体と製品
  6
DASHED1
 62
     7
100
AcDbLine
 10
1857.956204393311
 20
808.9797574627574
 30
0.0
 11
1856.458260091179
 21
809.0582613971218
 31
0.0
  0
ARC
  5
6CFD
330
1E
100
AcDbEntity
  8
躯体と製品
  6
DASHED1
 62
     7
100
AcDbCircle
 10
1855.231834347446
 20
805.8245769089753
 30
0.0
 40
3.45
100
AcDbArc
 50
126.3091240000008
 51
173.7621629999991
  0
ARC
  5
6CFE
330
1E
100
AcDbEntity
  8
躯体と製品
  6
DASHED1
 62
     7
100
AcDbCircle
 10
1858.843170352702
 20
805.6308056290209
 30
0.0
 40
3.45
100
AcDbArc
 50
0.3127429999987237
 51
47.82048899999998
  0
ARC
  5
6CFF
330
1E
100
AcDbEntity
  8
躯体と製品
  6
DASHED1
 62
     7
100
AcDbCircle
 10
1856.919458799967
 20
803.5279650427288
 30
0.0
 40
6.299999999999998
100
AcDbArc
 50
47.69686900000316
 51
126.3093710000041
  0
LINE
  5
6D00
330
1E
100
AcDbEntity
  8
躯体と製品
  6
Continuous
 62
     4
100
AcDbLine
 10
1858.238948169499
 20
771.3833542328792
 30
0.0
 11
1852.247170960971
 21
771.6973699703368
 31
0.0
  0
LINE
  5
6D01
330
1E
100
AcDbEntity
  8
躯体と製品
  6
Continuous
 62
     7
100
AcDbLine
 10
1852.803580679769
 20
782.31429986908
 30
0.0
 11
1852.69931384834
 21
780.3247702066036
 31
0.0
  0
LINE
  5
6D02
330
1E
100
AcDbEntity
  8
躯体と製品
  6
Continuous
 62
     7
100
AcDbLine
 10
1852.510904405866
 20
776.7297038814872
 30
0.0
 11
1852.247170960971
 21
771.6973699703368
 31
0.0
  0
LINE
  5
6D03
330
1E
100
AcDbEntity
  8
躯体と製品
  6
Continuous
 62
     7
100
AcDbLine
 10
1858.795357888296
 20
782.0002841316226
 30
0.0
 11
1858.691091056868
 21
780.0107544691459
 31
0.0
  0
LINE
  5
6D04
330
1E
100
AcDbEntity
  8
躯体と製品
  6
Continuous
 62
     7
100
AcDbLine
 10
1858.502681614393
 20
776.4156881440292
 30
0.0
 11
1858.238948169499
 21
771.3833542328792
 31
0.0
  0
LINE
  5
6D05
330
1E
100
AcDbEntity
  8
躯体と製品
  6
Continuous
 62
     4
100
AcDbLine
 10
1853.371301570276
 20
782.2845468779559
 30
0.0
 11
1853.267034738848
 21
780.2950172154793
 31
0.0
  0
LINE
  5
6D06
330
1E
100
AcDbEntity
  8
躯体と製品
  6
Continuous
 62
     4
100
AcDbLine
 10
1858.227636997788
 20
782.0300371227467
 30
0.0
 11
1858.123370166359
 21
780.0405074602703
 31
0.0
  0
POINT
  5
6D07
330
1E
100
AcDbEntity
  8
躯体と製品
 62
     4
100
AcDbPoint
 10
1855.695202452604
 20
780.1677623378747
 30
0.0
  0
LINE
  5
6D08
330
1E
100
AcDbEntity
  8
躯体と製品
  6
Continuous
 62
     7
100
AcDbLine
 10
1905.695202452604
 20
760.2442479099882
 30
0.0
 11
1780.695202452604
 21
760.2442479099882
 31
0.0
  0
ARC
  5
6D09
330
1E
100
AcDbEntity
  8
躯体と製品
  6
Continuous
 62
     7
100
AcDbCircle
 10
1555.723762226503
 20
759.2446558235276
 30
0.0
 40
1.0
100
AcDbArc
 50
91.63657704161829
 51
175.0000000000005
  0
ARC
  5
6D0A
330
1E
100
AcDbEntity
  8
躯体と製品
  6
Continuous
 62
     7
100
AcDbCircle
 10
1905.666642678705
 20
759.2446558235276
 30
0.0
 40
1.0
100
AcDbArc
 50
4.999999999999459
 51
88.3634229583817
  0
LINE
  5
6D0B
330
1E
100
AcDbEntity
  8
躯体と製品
  6
Continuous
 62
     4
100
AcDbLine
 10
1937.419632472697
 20
805.9181861908562
 30
0.0
 11
1936.905143986624
 21
806.4326746769287
 31
0.0
  0
LINE
  5
6D0C
330
1E
100
AcDbEntity
  8
躯体と製品
  6
DASHED1
 62
     7
100
AcDbLine
 10
1945.531392315445
 20
779.9580720484732
 30
0.0
 11
1950.524539989218
 21
779.6963922672583
 31
0.0
  0
LINE
  5
6D0D
330
1E
100
AcDbEntity
  8
躯体と製品
  6
DASHED1
 62
     7
100
AcDbLine
 10
1945.583728271688
 20
780.9567015832276
 30
0.0
 11
1945.531392315445
 21
779.9580720484732
 31
0.0
  0
LINE
  5
6D0E
330
1E
100
AcDbEntity
  8
躯体と製品
  6
DASHED1
 62
     7
100
AcDbLine
 10
1925.611137576596
 20
782.0034207080866
 30
0.0
 11
1945.583728271688
 21
780.9567015832276
 31
0.0
  0
LINE
  5
6D0F
330
1E
100
AcDbEntity
  8
躯体と製品
  6
DASHED1
 62
     7
100
AcDbLine
 10
1925.611137576596
 20
782.0034207080866
 30
0.0
 11
1925.558801620353
 21
781.0047911733319
 31
0.0
  0
LINE
  5
6D10
330
1E
100
AcDbEntity
  8
躯体と製品
  6
DASHED1
 62
     7
100
AcDbLine
 10
1922.063598248712
 20
781.1879670201823
 30
0.0
 11
1925.558801620353
 21
781.0047911733319
 31
0.0
  0
ARC
  5
6D11
330
1E
100
AcDbEntity
  8
躯体と製品
  6
DASHED1
 62
     7
100
AcDbCircle
 10
1922.142102183077
 20
782.685911322314
 30
0.0
 40
1.5
100
AcDbArc
 50
86.99999999999441
 51
266.9999999999944
  0
LINE
  5
6D12
330
1E
100
AcDbEntity
  8
躯体と製品
  6
DASHED1
 62
     7
100
AcDbLine
 10
1922.220606117441
 20
784.1838556244463
 30
0.0
 11
1950.681547857947
 21
782.6922808715221
 31
0.0
  0
LINE
  5
6D13
330
1E
100
AcDbEntity
  8
躯体と製品
  6
Continuous
 62
     3
100
AcDbLine
 10
1950.39370009861
 20
777.1998184303719
 30
0.0
 11
1951.859106873413
 21
805.1614454034998
 31
0.0
  0
LINE
  5
6D14
330
1E
100
AcDbEntity
  8
躯体と製品
  6
Continuous
 62
     3
100
AcDbLine
 10
1960.657894519303
 20
778.5776962451254
 30
0.0
 11
1960.074701976384
 21
776.0516118154073
 31
0.0
  0
LINE
  5
6D15
330
1E
100
AcDbEntity
  8
躯体と製品
  6
Continuous
 62
     3
100
AcDbLine
 10
1952.521799058727
 20
779.5917203547726
 30
0.0
 11
1960.196877465032
 21
779.1894865396748
 31
0.0
  0
LINE
  5
6D16
330
1E
100
AcDbEntity
  8
躯体と製品
  6
Continuous
 62
     3
100
AcDbLine
 10
1963.437510973251
 20
779.0196521340386
 30
0.0
 11
1962.260164541184
 21
779.08135424599
 31
0.0
  0
LINE
  5
6D17
330
1E
100
AcDbEntity
  8
躯体と製品
  6
Continuous
 62
     3
100
AcDbLine
 10
1961.952152734875
 20
778.8492507018668
 30
0.0
 11
1961.243946054126
 21
775.7816705501948
 31
0.0
  0
ARC
  5
6D18
330
1E
100
AcDbEntity
  8
躯体と製品
  6
Continuous
 62
     3
100
AcDbCircle
 10
1952.495631080606
 20
779.0924055873952
 30
0.0
 40
0.5
100
AcDbArc
 50
86.99999999999441
 51
177.0000000000011
  0
LINE
  5
6D19
330
1E
100
AcDbEntity
  8
躯体と製品
  6
Continuous
 62
     3
100
AcDbLine
 10
1951.996316313228
 20
779.1185735655167
 30
0.0
 11
1951.943980356985
 21
778.1199440307623
 31
0.0
  0
ARC
  5
6D1A
330
1E
100
AcDbEntity
  8
躯体と製品
  6
Continuous
 62
     3
100
AcDbCircle
 10
1952.704974905577
 20
783.0869237264132
 30
0.0
 40
0.5
100
AcDbArc
 50
177.0000000000011
 51
266.9999999999944
  0
LINE
  5
6D1B
330
1E
100
AcDbEntity
  8
躯体と製品
  6
Continuous
 62
     3
100
AcDbLine
 10
1952.678806927456
 20
782.587608959036
 30
0.0
 11
1964.36079423499
 21
781.9753819466354
 31
0.0
  0
LINE
  5
6D1C
330
1E
100
AcDbEntity
  8
躯体と製品
  6
Continuous
 62
     3
100
AcDbLine
 10
1952.2056601382
 20
783.1130917045348
 30
0.0
 11
1952.310332050686
 21
785.110350774044
 31
0.0
  0
LINE
  5
6D1D
330
1E
100
AcDbEntity
  8
躯体と製品
  6
Continuous
 62
     3
100
AcDbLine
 10
1973.709256415493
 20
731.3549055716353
 30
0.0
 11
1969.326704993761
 21
731.3549055716353
 31
0.0
  0
LINE
  5
6D1E
330
1E
100
AcDbEntity
  8
躯体と製品
  6
Continuous
 62
     3
100
AcDbLine
 10
1964.363322617742
 20
778.2289342901018
 30
0.0
 11
1974.19833021586
 21
731.9588614170438
 31
0.0
  0
LINE
  5
6D1F
330
1E
100
AcDbEntity
  8
躯体と製品
  6
Continuous
 62
     3
100
AcDbLine
 10
1967.138229168462
 20
779.6032284148253
 30
0.0
 11
1979.094179271716
 21
723.3549055716353
 31
0.0
  0
ARC
  5
6D20
330
1E
100
AcDbEntity
  8
躯体と製品
  6
Continuous
 62
     3
100
AcDbCircle
 10
1951.811017283309
 20
785.1365187521655
 30
0.0
 40
0.5
100
AcDbArc
 50
357.0000000000011
 51
86.99999999999441
  0
LINE
  5
6D21
330
1E
100
AcDbEntity
  8
躯体と製品
  6
Continuous
 62
     3
100
AcDbLine
 10
1951.83718526143
 20
785.6358335195429
 30
0.0
 11
1951.337870494053
 21
785.6620014976644
 31
0.0
  0
ARC
  5
6D22
330
1E
100
AcDbEntity
  8
躯体と製品
  6
Continuous
 62
     3
100
AcDbCircle
 10
1951.311702515931
 20
785.1626867302867
 30
0.0
 40
0.5
100
AcDbArc
 50
86.99999999999441
 51
177.0000000000011
  0
ARC
  5
6D23
330
1E
100
AcDbEntity
  8
躯体と製品
  6
Continuous
 62
     3
100
AcDbCircle
 10
1964.203786366261
 20
778.9794933423718
 30
0.0
 40
3.0
100
AcDbArc
 50
11.99999999999979
 51
86.99999999999441
  0
ARC
  5
6D24
330
1E
100
AcDbEntity
  8
躯体と製品
  6
Continuous
 62
     3
100
AcDbCircle
 10
1963.385175017007
 20
778.0210225992844
 30
0.0
 40
1.0
100
AcDbArc
 50
11.99999999999979
 51
86.99999999999441
  0
ARC
  5
6D25
330
1E
100
AcDbEntity
  8
躯体と製品
  6
Continuous
 62
     3
100
AcDbCircle
 10
1951.444665589608
 20
778.1461120088835
 30
0.0
 40
0.5
100
AcDbArc
 50
266.9999999999944
 51
357.0000000000011
  0
LINE
  5
6D26
330
1E
100
AcDbEntity
  8
躯体と製品
  6
Continuous
 62
     3
100
AcDbLine
 10
1951.418497611487
 20
777.6467972415063
 30
0.0
 11
1950.919182844109
 21
777.6729652196276
 31
0.0
  0
ARC
  5
6D27
330
1E
100
AcDbEntity
  8
躯体と製品
  6
Continuous
 62
     3
100
AcDbCircle
 10
1950.94535082223
 20
778.1722799870051
 30
0.0
 40
0.5
100
AcDbArc
 50
177.0000000000011
 51
266.9999999999944
  0
ARC
  5
6D28
330
1E
100
AcDbEntity
  8
躯体と製品
  6
Continuous
 62
     3
100
AcDbCircle
 10
1974.176880851167
 20
729.6549055716353
 30
0.0
 40
0.5
100
AcDbArc
 50
11.99999999999979
 51
90.0
  0
LINE
  5
6D29
330
1E
100
AcDbEntity
  8
躯体と製品
  6
Continuous
 62
     3
100
AcDbLine
 10
1974.665954651534
 20
729.7588614170438
 30
0.0
 11
1976.094179271716
 21
723.0395928658379
 31
0.0
  0
LINE
  5
6D2A
330
1E
100
AcDbEntity
  8
躯体と製品
  6
Continuous
 62
     3
100
AcDbLine
 10
1974.176880851167
 20
730.1549055716352
 30
0.0
 11
1964.926704993761
 21
730.1549055716352
 31
0.0
  0
ARC
  5
6D2B
330
1E
100
AcDbEntity
  8
躯体と製品
  6
Continuous
 62
     3
100
AcDbCircle
 10
1973.709256415493
 20
731.8549055716353
 30
0.0
 40
0.5
100
AcDbArc
 50
270.0
 51
11.99999999999979
  0
LINE
  5
6D2C
330
1E
100
AcDbEntity
  8
躯体と製品
  6
Continuous
 62
     3
100
AcDbLine
 10
1964.926704993761
 20
731.3549055716353
 30
0.0
 11
1967.326704993761
 21
731.3549055716353
 31
0.0
  0
LINE
  5
6D2D
330
1E
100
AcDbEntity
  8
躯体と製品
  6
Continuous
 62
     3
100
AcDbLine
 10
1969.326704993761
 20
732.3549055716349
 30
0.0
 11
1967.326704993761
 21
731.3549055716353
 31
0.0
  0
LINE
  5
6D2E
330
1E
100
AcDbEntity
  8
躯体と製品
  6
Continuous
 62
     3
100
AcDbLine
 10
1969.326704993761
 20
731.3549055716353
 30
0.0
 11
1969.326704993761
 21
732.3549055716349
 31
0.0
  0
ARC
  5
6D2F
330
1E
100
AcDbEntity
  8
躯体と製品
  6
Continuous
 62
     3
100
AcDbCircle
 10
1976.594179271716
 20
721.854905571635
 30
0.0
 40
2.5
100
AcDbArc
 50
270.0
 51
0.0
  0
LINE
  5
6D30
330
1E
100
AcDbEntity
  8
躯体と製品
  6
Continuous
 62
     3
100
AcDbLine
 10
1976.594179271716
 20
719.3549055716352
 30
0.0
 11
1976.094179271716
 21
719.3549055716352
 31
0.0
  0
LINE
  5
6D31
330
1E
100
AcDbEntity
  8
躯体と製品
  6
Continuous
 62
     3
100
AcDbLine
 10
1979.094179271716
 20
721.854905571635
 30
0.0
 11
1979.094179271716
 21
723.3549055716353
 31
0.0
  0
LINE
  5
6D32
330
1E
100
AcDbEntity
  8
躯体と製品
  6
Continuous
 62
     3
100
AcDbLine
 10
1976.094179271716
 20
723.0395928658379
 30
0.0
 11
1976.094179271716
 21
719.3549055716352
 31
0.0
  0
ARC
  5
6D33
330
1E
100
AcDbEntity
  8
躯体と製品
  6
Continuous
 62
     3
100
AcDbCircle
 10
1964.926704993761
 20
730.7549055716349
 30
0.0
 40
0.6000000000000015
100
AcDbArc
 50
90.0
 51
270.0
  0
ARC
  5
6D34
330
1E
100
AcDbEntity
  8
躯体と製品
  6
Continuous
 62
     3
100
AcDbCircle
 10
1962.244463754311
 20
778.7817653855638
 30
0.0
 40
0.2999999999999999
100
AcDbArc
 50
86.99999999999441
 51
166.9999999999997
  0
ARC
  5
6D35
330
1E
100
AcDbEntity
  8
躯体と製品
  6
Continuous
 62
     3
100
AcDbCircle
 10
1960.170709486911
 20
778.6901717722976
 30
0.0
 40
0.5
100
AcDbArc
 50
346.9999999999997
 51
86.99999999999441
  0
ARC
  5
6D36
330
1E
100
AcDbEntity
  8
躯体と製品
  6
Continuous
 62
     3
100
AcDbCircle
 10
1960.659324015255
 20
775.9166411828012
 30
0.0
 40
0.5999999999999984
100
AcDbArc
 50
166.9999999999997
 51
346.9999999999997
  0
LINE
  5
6D37
330
1E
100
AcDbEntity
  8
躯体と製品
  6
DASHED1
 62
     4
100
AcDbLine
 10
1910.762534445885
 20
785.2850338886169
 30
0.0
 11
1910.856739167122
 21
787.0825670511752
 31
0.0
  0
LINE
  5
6D38
330
1E
100
AcDbEntity
  8
躯体と製品
  6
DASHED1
 62
     4
100
AcDbLine
 10
1810.899580970428
 20
790.5186295129115
 30
0.0
 11
1810.993785691665
 21
792.3161626754697
 31
0.0
  0
LINE
  5
6D39
330
1E
100
AcDbEntity
  8
躯体と製品
  6
Continuous
 62
     3
100
AcDbLine
 10
1951.859106873413
 20
805.1614454034998
 30
0.0
 11
1730.695202452604
 21
816.7521544917613
 31
0.0
  0
LINE
  5
6D3A
330
1E
100
AcDbEntity
  8
躯体と製品
  6
Continuous
 62
     3
100
AcDbLine
 10
1950.39370009861
 20
777.1998184303719
 30
0.0
 11
1730.695202452604
 21
788.7137288038196
 31
0.0
  0
LINE
  5
6D3B
330
1E
100
AcDbEntity
  8
躯体と製品
  6
DASHED1
 62
     4
100
AcDbLine
 10
1951.780602939048
 20
803.6635011013682
 30
0.0
 11
1730.61669851824
 21
815.2542101896296
 31
0.0
  0
LINE
  5
6D3C
330
1E
100
AcDbEntity
  8
躯体と製品
  6
DASHED1
 62
     4
100
AcDbLine
 10
1950.801920557305
 20
784.9891288014576
 30
0.0
 11
1730.695202452604
 21
796.5244331026033
 31
0.0
  0
LINE
  5
6D3D
330
1E
100
AcDbEntity
  8
躯体と製品
  6
DASHED1
 62
     4
100
AcDbLine
 10
1950.707715836068
 20
783.1915956388993
 30
0.0
 11
1730.695202452604
 21
794.721962879807
 31
0.0
  0
LINE
  5
6D3E
330
1E
100
AcDbEntity
  8
躯体と製品
  6
DASHED1
 62
     4
100
AcDbLine
 10
1950.524539989218
 20
779.6963922672583
 30
0.0
 11
1730.695202452604
 21
791.2171596688142
 31
0.0
  0
LINE
  5
6D3F
330
1E
100
AcDbEntity
  8
躯体と製品
  6
DASHED1
 62
     4
100
AcDbLine
 10
1950.446036054853
 20
778.1984479651264
 30
0.0
 11
1730.695202452604
 21
789.7151011498172
 31
0.0
  0
LINE
  5
6D40
330
1E
100
AcDbEntity
  8
躯体と製品
  6
Continuous
 62
     3
100
AcDbLine
 10
1951.623595070319
 20
800.6676124971043
 30
0.0
 11
1730.695202452604
 21
812.2459789347708
 31
0.0
  0
LINE
  5
6D41
330
1E
100
AcDbEntity
  8
躯体と製品
  6
Continuous
 62
     3
100
AcDbLine
 10
1951.545091135955
 20
799.1696681949727
 30
0.0
 11
1730.695202452604
 21
810.7439204157738
 31
0.0
  0
ARC
  5
6D42
330
1E
100
AcDbEntity
  8
躯体と製品
  6
Continuous
 62
     7
100
AcDbCircle
 10
1957.730906815059
 20
763.7549055716347
 30
0.0
 40
2.1
100
AcDbArc
 50
90.0
 51
175.0000000000005
  0
LINE
  5
6D43
330
1E
100
AcDbEntity
  8
躯体と製品
  6
Continuous
 62
     7
100
AcDbLine
 10
1957.730906815059
 20
765.8549055716353
 30
0.0
 11
1958.326704993761
 21
765.8549055716353
 31
0.0
  0
ARC
  5
6D44
330
1E
100
AcDbEntity
  8
躯体と製品
  6
Continuous
 62
     7
100
AcDbCircle
 10
1957.730906815059
 20
763.7549055716347
 30
0.0
 40
1.1
100
AcDbArc
 50
90.0
 51
175.0000000000005
  0
LINE
  5
6D45
330
1E
100
AcDbEntity
  8
躯体と製品
  6
Continuous
 62
     7
100
AcDbLine
 10
1957.730906815059
 20
764.8549055716351
 30
0.0
 11
1958.326704993761
 21
764.8549055716351
 31
0.0
  0
LINE
  5
6D46
330
1E
100
AcDbEntity
  8
躯体と製品
  6
Continuous
 62
     7
100
AcDbLine
 10
1958.326704993761
 20
768.3549055716349
 30
0.0
 11
1958.326704993761
 21
765.8549055716353
 31
0.0
  0
LINE
  5
6D47
330
1E
100
AcDbEntity
  8
躯体と製品
  6
Continuous
 62
     7
100
AcDbLine
 10
1959.826704993761
 20
764.3549055716349
 30
0.0
 11
1961.477789993761
 21
764.878278571635
 31
0.0
  0
LINE
  5
6D48
330
1E
100
AcDbEntity
  8
躯体と製品
  6
Continuous
 62
     7
100
AcDbLine
 10
1959.826704993761
 20
764.3549055716349
 30
0.0
 11
1959.826704993761
 21
762.3549055716352
 31
0.0
  0
LINE
  5
6D49
330
1E
100
AcDbEntity
  8
躯体と製品
  6
Continuous
 62
     7
100
AcDbLine
 10
1959.826704993761
 20
766.3549055716353
 30
0.0
 11
1959.826704993761
 21
768.3549055716349
 31
0.0
  0
ARC
  5
6D4A
330
1E
100
AcDbEntity
  8
躯体と製品
  6
Continuous
 62
     7
100
AcDbCircle
 10
1959.326704993761
 20
768.3549055716349
 30
0.0
 40
0.5
100
AcDbArc
 50
0.0
 51
90.0
  0
LINE
  5
6D4B
330
1E
100
AcDbEntity
  8
躯体と製品
  6
Continuous
 62
     7
100
AcDbLine
 10
1958.826704993761
 20
768.8549055716348
 30
0.0
 11
1959.326704993761
 21
768.8549055716348
 31
0.0
  0
LINE
  5
6D4C
330
1E
100
AcDbEntity
  8
躯体と製品
  6
Continuous
 62
     7
100
AcDbLine
 10
1958.826704993761
 20
761.8549055716352
 30
0.0
 11
1959.326704993761
 21
761.8549055716352
 31
0.0
  0
ARC
  5
6D4D
330
1E
100
AcDbEntity
  8
躯体と製品
  6
Continuous
 62
     7
100
AcDbCircle
 10
1959.326704993761
 20
762.3549055716352
 30
0.0
 40
0.5
100
AcDbArc
 50
270.0
 51
0.0
  0
ARC
  5
6D4E
330
1E
100
AcDbEntity
  8
躯体と製品
  6
Continuous
 62
     7
100
AcDbCircle
 10
1958.826704993761
 20
762.3549055716352
 30
0.0
 40
0.5
100
AcDbArc
 50
180.0
 51
270.0
  0
ARC
  5
6D4F
330
1E
100
AcDbEntity
  8
躯体と製品
  6
Continuous
 62
     7
100
AcDbCircle
 10
1958.826704993761
 20
768.3549055716349
 30
0.0
 40
0.5
100
AcDbArc
 50
90.0
 51
180.0
  0
LINE
  5
6D50
330
1E
100
AcDbEntity
  8
躯体と製品
  6
Continuous
 62
     7
100
AcDbLine
 10
1958.326704993761
 20
762.3549055716352
 30
0.0
 11
1958.326704993761
 21
764.8549055716351
 31
0.0
  0
ARC
  5
6D51
330
1E
100
AcDbEntity
  8
躯体と製品
  6
Continuous
 62
     7
100
AcDbCircle
 10
1961.326704993761
 20
765.3549055716353
 30
0.0
 40
0.5
100
AcDbArc
 50
287.587954000005
 51
72.41204599999497
  0
LINE
  5
6D52
330
1E
100
AcDbEntity
  8
躯体と製品
  6
Continuous
 62
     7
100
AcDbLine
 10
1959.826704993761
 20
766.3549055716353
 30
0.0
 11
1961.477789993761
 21
765.8315325716353
 31
0.0
  0
ARC
  5
6D53
330
1E
100
AcDbEntity
  8
躯体と製品
  6
Continuous
 62
     3
100
AcDbCircle
 10
1957.726704993761
 20
763.7549055716348
 30
0.0
 40
0.5999999999999997
100
AcDbArc
 50
0.0
 51
180.0
  0
ARC
  5
6D54
330
1E
100
AcDbEntity
  8
躯体と製品
  6
Continuous
 62
     3
100
AcDbCircle
 10
1957.726704993761
 20
767.9549055716347
 30
0.0
 40
0.5999999999999997
100
AcDbArc
 50
180.0
 51
0.0
  0
LINE
  5
6D55
330
1E
100
AcDbEntity
  8
躯体と製品
  6
Continuous
 62
     3
100
AcDbLine
 10
1957.126704993761
 20
763.7549055716348
 30
0.0
 11
1957.126704993761
 21
761.6549055716352
 31
0.0
  0
LINE
  5
6D56
330
1E
100
AcDbEntity
  8
躯体と製品
  6
Continuous
 62
     3
100
AcDbLine
 10
1958.326704993761
 20
763.7549055716348
 30
0.0
 11
1958.326704993761
 21
762.1549055716352
 31
0.0
  0
ARC
  5
6D57
330
1E
100
AcDbEntity
  8
躯体と製品
  6
Continuous
 62
     3
100
AcDbCircle
 10
1958.626704993761
 20
762.1549055716352
 30
0.0
 40
0.2999999999999998
100
AcDbArc
 50
180.0
 51
270.0
  0
LINE
  5
6D58
330
1E
100
AcDbEntity
  8
躯体と製品
  6
Continuous
 62
     3
100
AcDbLine
 10
1958.326704993761
 20
767.9549055716347
 30
0.0
 11
1958.326704993761
 21
769.5549055716349
 31
0.0
  0
ARC
  5
6D59
330
1E
100
AcDbEntity
  8
躯体と製品
  6
Continuous
 62
     3
100
AcDbCircle
 10
1958.626704993761
 20
769.5549055716349
 30
0.0
 40
0.2999999999999998
100
AcDbArc
 50
90.0
 51
180.0
  0
LINE
  5
6D5A
330
1E
100
AcDbEntity
  8
躯体と製品
  6
Continuous
 62
     3
100
AcDbLine
 10
1957.126704993761
 20
767.9549055716347
 30
0.0
 11
1957.126704993761
 21
770.0549055716349
 31
0.0
  0
LINE
  5
6D5B
330
1E
100
AcDbEntity
  8
躯体と製品
  6
Continuous
 62
     3
100
AcDbLine
 10
1969.326704993761
 20
731.8549055716353
 30
0.0
 11
1970.947972993761
 21
732.2602225716348
 31
0.0
  0
ARC
  5
6D5C
330
1E
100
AcDbEntity
  8
躯体と製品
  6
Continuous
 62
     3
100
AcDbCircle
 10
1970.826704993761
 20
732.7452935716348
 30
0.0
 40
0.5
100
AcDbArc
 50
284.0362430000043
 51
0.0
  0
LINE
  5
6D5D
330
1E
100
AcDbEntity
  8
躯体と製品
  6
Continuous
 62
     3
100
AcDbLine
 10
1969.326704993761
 20
732.3549055716349
 30
0.0
 11
1969.326704993761
 21
731.8549055716353
 31
0.0
  0
LINE
  5
6D5E
330
1E
100
AcDbEntity
  8
躯体と製品
  6
Continuous
 62
     3
100
AcDbLine
 10
1971.326704993761
 20
733.0549055716349
 30
0.0
 11
1971.326704993761
 21
732.7452935716348
 31
0.0
  0
LINE
  5
6D5F
330
1E
100
AcDbEntity
  8
躯体と製品
  6
Continuous
 62
     3
100
AcDbLine
 10
1964.326704993761
 20
732.3549055716349
 30
0.0
 11
1969.326704993761
 21
732.3549055716349
 31
0.0
  0
ARC
  5
6D60
330
1E
100
AcDbEntity
  8
躯体と製品
  6
Continuous
 62
     3
100
AcDbCircle
 10
1971.026704993761
 20
733.0549055716349
 30
0.0
 40
0.2999999999999998
100
AcDbArc
 50
0.0
 51
90.0
  0
ARC
  5
6D61
330
1E
100
AcDbEntity
  8
躯体と製品
  6
Continuous
 62
     3
100
AcDbCircle
 10
1964.326704993761
 20
731.8549055716353
 30
0.0
 40
0.5
100
AcDbArc
 50
90.0
 51
180.0
  0
LINE
  5
6D62
330
1E
100
AcDbEntity
  8
躯体と製品
  6
Continuous
 62
     3
100
AcDbLine
 10
1963.826704993761
 20
731.8549055716353
 30
0.0
 11
1963.826704993761
 21
723.0549055716348
 31
0.0
  0
LINE
  5
6D63
330
1E
100
AcDbEntity
  8
躯体と製品
  6
Continuous
 62
     3
100
AcDbLine
 10
1964.326704993761
 20
733.3549055716352
 30
0.0
 11
1971.026704993761
 21
733.3549055716352
 31
0.0
  0
ARC
  5
6D64
330
1E
100
AcDbEntity
  8
躯体と製品
  6
Continuous
 62
     3
100
AcDbCircle
 10
1964.326704993761
 20
733.8549055716352
 30
0.0
 40
0.5
100
AcDbArc
 50
180.0
 51
270.0
  0
LINE
  5
6D65
330
1E
100
AcDbEntity
  8
躯体と製品
  6
Continuous
 62
     3
100
AcDbLine
 10
1968.726704993761
 20
720.8549055716352
 30
0.0
 11
1964.826704993761
 21
720.8549055716352
 31
0.0
  0
ARC
  5
6D66
330
1E
100
AcDbEntity
  8
躯体と製品
  6
Continuous
 62
     3
100
AcDbCircle
 10
1964.826704993761
 20
723.3549055716353
 30
0.0
 40
2.5
100
AcDbArc
 50
180.0
 51
270.0
  0
LINE
  5
6D67
330
1E
100
AcDbEntity
  8
躯体と製品
  6
Continuous
 62
     3
100
AcDbLine
 10
1963.826704993761
 20
778.1049055716352
 30
0.0
 11
1963.826704993761
 21
733.8549055716352
 31
0.0
  0
LINE
  5
6D68
330
1E
100
AcDbEntity
  8
躯体と製品
  6
Continuous
 62
     3
100
AcDbLine
 10
1958.626704993761
 20
769.8549055716353
 30
0.0
 11
1962.026704993761
 21
769.8549055716353
 31
0.0
  0
LINE
  5
6D69
330
1E
100
AcDbEntity
  8
躯体と製品
  6
Continuous
 62
     3
100
AcDbLine
 10
1958.626704993761
 20
761.8549055716352
 30
0.0
 11
1962.026704993761
 21
761.8549055716352
 31
0.0
  0
ARC
  5
6D6A
330
1E
100
AcDbEntity
  8
躯体と製品
  6
Continuous
 62
     3
100
AcDbCircle
 10
1962.026704993761
 20
762.1549055716352
 30
0.0
 40
0.2999999999999998
100
AcDbArc
 50
270.0
 51
0.0
  0
LINE
  5
6D6B
330
1E
100
AcDbEntity
  8
躯体と製品
  6
Continuous
 62
     3
100
AcDbLine
 10
1962.326704993761
 20
769.5549055716349
 30
0.0
 11
1962.326704993761
 21
762.1549055716352
 31
0.0
  0
ARC
  5
6D6C
330
1E
100
AcDbEntity
  8
躯体と製品
  6
Continuous
 62
     3
100
AcDbCircle
 10
1962.026704993761
 20
769.5549055716349
 30
0.0
 40
0.2999999999999998
100
AcDbArc
 50
0.0
 51
90.0
  0
LINE
  5
6D6D
330
1E
100
AcDbEntity
  8
躯体と製品
  6
Continuous
 62
     3
100
AcDbLine
 10
1961.826704993761
 20
760.6549055716352
 30
0.0
 11
1958.126704993761
 21
760.6549055716352
 31
0.0
  0
ARC
  5
6D6E
330
1E
100
AcDbEntity
  8
躯体と製品
  6
Continuous
 62
     3
100
AcDbCircle
 10
1958.126704993761
 20
761.6549055716352
 30
0.0
 40
1.0
100
AcDbArc
 50
180.0
 51
270.0
  0
ARC
  5
6D6F
330
1E
100
AcDbEntity
  8
躯体と製品
  6
Continuous
 62
     3
100
AcDbCircle
 10
1961.826704993761
 20
760.1549055716352
 30
0.0
 40
0.5
100
AcDbArc
 50
0.0
 51
90.0
  0
LINE
  5
6D70
330
1E
100
AcDbEntity
  8
躯体と製品
  6
Continuous
 62
     3
100
AcDbLine
 10
1961.826704993761
 20
771.0549055716349
 30
0.0
 11
1958.126704993761
 21
771.0549055716349
 31
0.0
  0
ARC
  5
6D71
330
1E
100
AcDbEntity
  8
躯体と製品
  6
Continuous
 62
     3
100
AcDbCircle
 10
1958.126704993761
 20
770.0549055716349
 30
0.0
 40
1.0
100
AcDbArc
 50
90.0
 51
180.0
  0
ARC
  5
6D72
330
1E
100
AcDbEntity
  8
躯体と製品
  6
Continuous
 62
     3
100
AcDbCircle
 10
1961.826704993761
 20
771.5549055716349
 30
0.0
 40
0.5
100
AcDbArc
 50
270.0
 51
0.0
  0
LINE
  5
6D73
330
1E
100
AcDbEntity
  8
躯体と製品
  6
Continuous
 62
     3
100
AcDbLine
 10
1962.326704993761
 20
771.5549055716349
 30
0.0
 11
1962.326704993761
 21
778.1049055716352
 31
0.0
  0
ARC
  5
6D74
330
1E
100
AcDbEntity
  8
躯体と製品
  6
Continuous
 62
     3
100
AcDbCircle
 10
1963.076704993761
 20
778.1049055716352
 30
0.0
 40
0.75
100
AcDbArc
 50
0.0
 51
180.0
  0
LINE
  5
6D75
330
1E
100
AcDbEntity
  8
躯体と製品
  6
Continuous
 62
     3
100
AcDbLine
 10
1962.326704993761
 20
760.1549055716352
 30
0.0
 11
1962.326704993761
 21
723.3549055716353
 31
0.0
  0
ARC
  5
6D76
330
1E
100
AcDbEntity
  8
躯体と製品
  6
Continuous
 62
     3
100
AcDbCircle
 10
1968.726704993761
 20
721.4549055716348
 30
0.0
 40
0.5999999999999997
100
AcDbArc
 50
270.0
 51
90.0
  0
LINE
  5
6D77
330
1E
100
AcDbEntity
  8
躯体と製品
  6
Continuous
 62
     3
100
AcDbLine
 10
1968.726704993761
 20
722.0549055716348
 30
0.0
 11
1964.826704993761
 21
722.0549055716348
 31
0.0
  0
ARC
  5
6D78
330
1E
100
AcDbEntity
  8
躯体と製品
  6
Continuous
 62
     3
100
AcDbCircle
 10
1964.826704993761
 20
723.0549055716348
 30
0.0
 40
1.0
100
AcDbArc
 50
180.0
 51
270.0
  0
LINE
  5
6D79
330
1E
100
AcDbEntity
  8
躯体と製品
  6
Continuous
 62
     3
100
AcDbLine
 10
1482.195202452604
 20
720.8549055716352
 30
0.0
 11
1482.195202452604
 21
805.0080118714904
 31
0.0
  0
ARC
  5
6D7A
330
1E
100
AcDbEntity
  8
躯体と製品
  6
Continuous
 62
     3
100
AcDbCircle
 10
1483.695202452604
 20
720.8549055716352
 30
0.0
 40
1.5
100
AcDbArc
 50
180.0
 51
270.0
  0
LINE
  5
6D7B
330
1E
100
AcDbEntity
  8
躯体と製品
  6
Continuous
 62
     3
100
AcDbLine
 10
1483.61669851824
 20
806.5059561736219
 30
0.0
 11
1730.669034474483
 21
819.4534204677767
 31
0.0
  0
ARC
  5
6D7C
330
1E
100
AcDbEntity
  8
躯体と製品
  6
Continuous
 62
     3
100
AcDbCircle
 10
1483.695202452604
 20
805.0080118714904
 30
0.0
 40
1.5
100
AcDbArc
 50
93.00000000000558
 51
180.0
  0
ARC
  5
6D7D
330
1E
100
AcDbEntity
  8
躯体と製品
  6
Continuous
 62
     3
100
AcDbCircle
 10
1977.695202452604
 20
805.0080118714904
 30
0.0
 40
1.5
100
AcDbArc
 50
0.0
 51
86.99999999999441
  0
LINE
  5
6D7E
330
1E
100
AcDbEntity
  8
躯体と製品
  6
Continuous
 62
     3
100
AcDbLine
 10
1977.773706386969
 20
806.5059561736219
 30
0.0
 11
1730.721370430725
 21
819.4534204677767
 31
0.0
  0
ARC
  5
6D7F
330
1E
100
AcDbEntity
  8
躯体と製品
  6
Continuous
 62
     3
100
AcDbCircle
 10
1977.695202452604
 20
720.8549055716352
 30
0.0
 40
1.5
100
AcDbArc
 50
270.0
 51
0.0
  0
LINE
  5
6D80
330
1E
100
AcDbEntity
  8
躯体と製品
  6
Continuous
 62
     3
100
AcDbLine
 10
1979.195202452604
 20
720.8549055716352
 30
0.0
 11
1979.195202452604
 21
805.0080118714904
 31
0.0
  0
LINE
  5
6D81
330
1E
100
AcDbEntity
  8
躯体と製品
  6
Continuous
 62
     3
100
AcDbLine
 10
1483.695202452604
 20
717.854905571635
 30
0.0
 11
1490.695202452604
 21
717.854905571635
 31
0.0
  0
ARC
  5
6D82
330
1E
100
AcDbEntity
  8
躯体と製品
  6
Continuous
 62
     3
100
AcDbCircle
 10
1483.695202452604
 20
805.0080118714904
 30
0.0
 40
3.0
100
AcDbArc
 50
93.00000000000558
 51
180.0
  0
ARC
  5
6D83
330
1E
100
AcDbEntity
  8
躯体と製品
  6
Continuous
 62
     3
100
AcDbCircle
 10
1483.695202452604
 20
720.8549055716352
 30
0.0
 40
3.0
100
AcDbArc
 50
180.0
 51
270.0
  0
POINT
  5
6D84
330
1E
100
AcDbEntity
  8
躯体と製品
 62
     4
100
AcDbPoint
 10
1480.695202452604
 20
807.8549055716347
 30
0.0
  0
LINE
  5
6D85
330
1E
100
AcDbEntity
  8
躯体と製品
  6
Continuous
 62
     3
100
AcDbLine
 10
1480.695202452604
 20
805.0080118714904
 30
0.0
 11
1480.695202452604
 21
720.8549055716352
 31
0.0
  0
LINE
  5
6D86
330
1E
100
AcDbEntity
  8
躯体と製品
  6
Continuous
 62
     3
100
AcDbLine
 10
1483.538194583875
 20
808.0039004757542
 30
0.0
 11
1730.695202452604
 21
820.9568503923952
 31
0.0
  0
LINE
  5
6D87
330
1E
100
AcDbEntity
  8
躯体と製品
  6
Continuous
 62
     3
100
AcDbLine
 10
1977.695202452604
 20
717.854905571635
 30
0.0
 11
1970.695202452604
 21
717.854905571635
 31
0.0
  0
ARC
  5
6D88
330
1E
100
AcDbEntity
  8
躯体と製品
  6
Continuous
 62
     3
100
AcDbCircle
 10
1977.695202452604
 20
805.0080118714904
 30
0.0
 40
3.0
100
AcDbArc
 50
0.0
 51
86.99999999999441
  0
ARC
  5
6D89
330
1E
100
AcDbEntity
  8
躯体と製品
  6
Continuous
 62
     3
100
AcDbCircle
 10
1977.695202452604
 20
720.8549055716352
 30
0.0
 40
3.0
100
AcDbArc
 50
270.0
 51
0.0
  0
POINT
  5
6D8A
330
1E
100
AcDbEntity
  8
躯体と製品
 62
     4
100
AcDbPoint
 10
1980.695202452604
 20
807.8549055716347
 30
0.0
  0
LINE
  5
6D8B
330
1E
100
AcDbEntity
  8
躯体と製品
  6
Continuous
 62
     3
100
AcDbLine
 10
1980.695202452604
 20
805.0080118714904
 30
0.0
 11
1980.695202452604
 21
720.8549055716352
 31
0.0
  0
LINE
  5
6D8C
330
1E
100
AcDbEntity
  8
躯体と製品
  6
Continuous
 62
     3
100
AcDbLine
 10
1490.695202452604
 20
717.854905571635
 30
0.0
 11
1490.695202452604
 21
719.3549055716352
 31
0.0
  0
LINE
  5
6D8D
330
1E
100
AcDbEntity
  8
躯体と製品
  6
Continuous
 62
     3
100
AcDbLine
 10
1483.695202452604
 20
719.3549055716352
 30
0.0
 11
1490.695202452604
 21
719.3549055716352
 31
0.0
  0
LINE
  5
6D8E
330
1E
100
AcDbEntity
  8
躯体と製品
  6
Continuous
 62
     3
100
AcDbLine
 10
1977.695202452604
 20
719.3549055716352
 30
0.0
 11
1970.695202452604
 21
719.3549055716352
 31
0.0
  0
LINE
  5
6D8F
330
1E
100
AcDbEntity
  8
躯体と製品
  6
Continuous
 62
     3
100
AcDbLine
 10
1970.695202452604
 20
717.854905571635
 30
0.0
 11
1970.695202452604
 21
719.3549055716352
 31
0.0
  0
ARC
  5
6D90
330
1E
100
AcDbEntity
  8
躯体と製品
  6
DASHED1
 62
     7
100
AcDbCircle
 10
1956.858382086875
 20
800.0917892781901
 30
0.0
 40
3.0
100
AcDbArc
 50
10.12467165539644
 51
86.99999999999441
  0
ARC
  5
6D91
330
1E
100
AcDbEntity
  8
躯体と製品
  6
DASHED1
 62
     7
100
AcDbCircle
 10
1956.858382086875
 20
800.0917892781901
 30
0.0
 40
7.5
100
AcDbArc
 50
10.12467165539644
 51
86.99999999999441
  0
LINE
  5
6D92
330
1E
100
AcDbEntity
  8
躯体と製品
  6
DASHED1
 62
     7
100
AcDbLine
 10
1959.811664813401
 20
800.619161193641
 30
0.0
 11
1973.765278362816
 21
722.4789253169149
 31
0.0
  0
LINE
  5
6D93
330
1E
100
AcDbEntity
  8
躯体と製品
  6
DASHED1
 62
     7
100
AcDbLine
 10
1978.195202452604
 20
723.2699831900912
 30
0.0
 11
1973.76527836288
 21
722.4789253165589
 31
0.0
  0
LINE
  5
6D94
330
1E
100
AcDbEntity
  8
躯体と製品
  6
DASHED1
 62
     7
100
AcDbLine
 10
1964.241588903188
 20
801.4102190668177
 30
0.0
 11
1978.195202452604
 21
723.2699831900912
 31
0.0
  0
LINE
  5
6D95
330
1E
100
AcDbEntity
  8
躯体と製品
  6
DASHED1
 62
     7
100
AcDbLine
 10
1957.250901758697
 20
807.5815107888496
 30
0.0
 11
1952.000358139549
 21
807.8566801199579
 31
0.0
  0
LINE
  5
6D96
330
1E
100
AcDbEntity
  8
躯体と製品
  6
DASHED1
 62
     7
100
AcDbLine
 10
1957.015389955604
 20
803.0876778824538
 30
0.0
 11
1951.764846336455
 21
803.3628472135625
 31
0.0
  0
LINE
  5
6D97
330
1E
100
AcDbEntity
  8
躯体と製品
  6
Continuous
 62
     7
100
AcDbLine
 10
1951.859106873413
 20
805.1614454034998
 30
0.0
 11
1952.000358139549
 21
807.8566801199579
 31
0.0
  0
LINE
  5
6D98
330
1E
100
AcDbEntity
  8
躯体と製品
  6
Continuous
 62
     4
100
AcDbLine
 10
1940.404489316082
 20
805.7617564722166
 30
0.0
 11
1937.552379175718
 21
808.6138666125803
 31
0.0
  0
LINE
  5
6D99
330
1E
100
AcDbEntity
  8
躯体と製品
  6
Continuous
 62
     4
100
AcDbLine
 10
1941.896917737775
 20
805.6835416128961
 30
0.0
 11
1939.044807597412
 21
808.5356517532604
 31
0.0
  0
LINE
  5
6D9A
330
1E
100
AcDbEntity
  8
躯体と製品
  6
Continuous
 62
     4
100
AcDbLine
 10
1943.389346159468
 20
805.6053267535768
 30
0.0
 11
1940.537236019104
 21
808.4574368939406
 31
0.0
  0
LINE
  5
6D9B
330
1E
100
AcDbEntity
  8
躯体と製品
  6
Continuous
 62
     4
100
AcDbLine
 10
1944.881774581162
 20
805.5271118942568
 30
0.0
 11
1942.029664440797
 21
808.3792220346207
 31
0.0
  0
LINE
  5
6D9C
330
1E
100
AcDbEntity
  8
躯体と製品
  6
Continuous
 62
     4
100
AcDbLine
 10
1946.374203002854
 20
805.4488970349373
 30
0.0
 11
1943.52209286249
 21
808.3010071753008
 31
0.0
  0
LINE
  5
6D9D
330
1E
100
AcDbEntity
  8
躯体と製品
  6
Continuous
 62
     4
100
AcDbLine
 10
1947.866631424547
 20
805.3706821756176
 30
0.0
 11
1945.014521284184
 21
808.2227923159814
 31
0.0
  0
LINE
  5
6D9E
330
1E
100
AcDbEntity
  8
躯体と製品
  6
Continuous
 62
     4
100
AcDbLine
 10
1949.359059846241
 20
805.2924673162975
 30
0.0
 11
1946.506949705877
 21
808.1445774566615
 31
0.0
  0
LINE
  5
6D9F
330
1E
100
AcDbEntity
  8
躯体と製品
  6
Continuous
 62
     4
100
AcDbLine
 10
1950.851488267932
 20
805.2142524569783
 30
0.0
 11
1947.999378127568
 21
808.0663625973416
 31
0.0
  0
LINE
  5
6DA0
330
1E
100
AcDbEntity
  8
躯体と製品
  6
Continuous
 62
     4
100
AcDbLine
 10
1951.88198416455
 20
805.5979701227327
 30
0.0
 11
1949.491806549261
 21
807.9881477380219
 31
0.0
  0
LINE
  5
6DA1
330
1E
100
AcDbEntity
  8
躯体と製品
  6
Continuous
 62
     7
100
AcDbLine
 10
1936.879663852095
 20
805.946484747144
 30
0.0
 11
1937.02091511823
 21
808.641719463602
 31
0.0
  0
LINE
  5
6DA2
330
1E
100
AcDbEntity
  8
躯体と製品
  6
Continuous
 62
     4
100
AcDbLine
 10
1938.912060894388
 20
805.8399713315365
 30
0.0
 11
1936.97556896228
 21
807.7764632636451
 31
0.0
  0
LINE
  5
6DA3
330
1E
100
AcDbEntity
  8
躯体と製品
  6
Continuous
 62
     7
100
AcDbLine
 10
1906.662837376797
 20
759.3318115662752
 30
0.0
 11
1908.30473729517
 21
740.5648096233676
 31
0.0
  0
LINE
  5
6DA4
330
1E
100
AcDbEntity
  8
躯体と製品
  6
Continuous
 62
     7
100
AcDbLine
 10
1907.659032074889
 20
759.4189673090229
 30
0.0
 11
1909.300931993262
 21
740.6519653661153
 31
0.0
  0
LINE
  5
6DA5
330
1E
100
AcDbEntity
  8
躯体と製品
  6
Continuous
 62
     7
100
AcDbLine
 10
1955.638897949066
 20
763.9379326314051
 30
0.0
 11
1953.601639794117
 21
740.6519653661153
 31
0.0
  0
ARC
  5
6DA6
330
1E
100
AcDbEntity
  8
躯体と製品
  6
Continuous
 62
     7
100
AcDbCircle
 10
1931.45128589369
 20
742.5898702254897
 30
0.0
 40
22.23496465385484
100
AcDbArc
 50
184.9999999999994
 51
355.0000000000006
  0
LINE
  5
6DA7
330
1E
100
AcDbEntity
  8
躯体と製品
  6
Continuous
 62
     7
100
AcDbLine
 10
1956.635092647158
 20
763.8507768886573
 30
0.0
 11
1954.597834492209
 21
740.5648096233676
 31
0.0
  0
ARC
  5
6DA8
330
1E
100
AcDbEntity
  8
躯体と製品
  6
Continuous
 62
     7
100
AcDbCircle
 10
1931.45128589369
 20
742.5898702254897
 30
0.0
 40
23.23496465385484
100
AcDbArc
 50
184.9999999999994
 51
355.0000000000006
  0
LINE
  5
6DA9
330
1E
100
AcDbEntity
  8
躯体と製品
  6
DASHED1
 62
     7
100
AcDbLine
 10
1515.859012589763
 20
779.9580720484732
 30
0.0
 11
1510.86586491599
 21
779.6963922672583
 31
0.0
  0
LINE
  5
6DAA
330
1E
100
AcDbEntity
  8
躯体と製品
  6
DASHED1
 62
     7
100
AcDbLine
 10
1515.80667663352
 20
780.9567015832276
 30
0.0
 11
1515.859012589763
 21
779.9580720484732
 31
0.0
  0
LINE
  5
6DAB
330
1E
100
AcDbEntity
  8
躯体と製品
  6
DASHED1
 62
     7
100
AcDbLine
 10
1535.779267328612
 20
782.0034207080866
 30
0.0
 11
1515.80667663352
 21
780.9567015832276
 31
0.0
  0
LINE
  5
6DAC
330
1E
100
AcDbEntity
  8
躯体と製品
  6
DASHED1
 62
     7
100
AcDbLine
 10
1535.779267328612
 20
782.0034207080866
 30
0.0
 11
1535.831603284855
 21
781.0047911733319
 31
0.0
  0
LINE
  5
6DAD
330
1E
100
AcDbEntity
  8
躯体と製品
  6
DASHED1
 62
     7
100
AcDbLine
 10
1539.326806656496
 20
781.1879670201823
 30
0.0
 11
1535.831603284855
 21
781.0047911733319
 31
0.0
  0
ARC
  5
6DAE
330
1E
100
AcDbEntity
  8
躯体と製品
  6
DASHED1
 62
     7
100
AcDbCircle
 10
1539.248302722131
 20
782.685911322314
 30
0.0
 40
1.5
100
AcDbArc
 50
273.0000000000056
 51
93.00000000000558
  0
LINE
  5
6DAF
330
1E
100
AcDbEntity
  8
躯体と製品
  6
DASHED1
 62
     7
100
AcDbLine
 10
1539.169798787767
 20
784.1838556244463
 30
0.0
 11
1510.708857047262
 21
782.6922808715221
 31
0.0
  0
LINE
  5
6DB0
330
1E
100
AcDbEntity
  8
躯体と製品
  6
Continuous
 62
     3
100
AcDbLine
 10
1510.996704806598
 20
777.1998184303719
 30
0.0
 11
1509.531298031795
 21
805.1614454034998
 31
0.0
  0
LINE
  5
6DB1
330
1E
100
AcDbEntity
  8
躯体と製品
  6
Continuous
 62
     3
100
AcDbLine
 10
1500.732510385905
 20
778.5776962451254
 30
0.0
 11
1501.315702928824
 21
776.0516118154073
 31
0.0
  0
LINE
  5
6DB2
330
1E
100
AcDbEntity
  8
躯体と製品
  6
Continuous
 62
     3
100
AcDbLine
 10
1508.868605846481
 20
779.5917203547726
 30
0.0
 11
1501.193527440176
 21
779.1894865396748
 31
0.0
  0
LINE
  5
6DB3
330
1E
100
AcDbEntity
  8
躯体と製品
  6
Continuous
 62
     3
100
AcDbLine
 10
1497.952893931957
 20
779.0196521340386
 30
0.0
 11
1499.130240364024
 21
779.08135424599
 31
0.0
  0
LINE
  5
6DB4
330
1E
100
AcDbEntity
  8
躯体と製品
  6
Continuous
 62
     3
100
AcDbLine
 10
1499.438252170333
 20
778.8492507018668
 30
0.0
 11
1500.146458851082
 21
775.7816705501948
 31
0.0
  0
ARC
  5
6DB5
330
1E
100
AcDbEntity
  8
躯体と製品
  6
Continuous
 62
     3
100
AcDbCircle
 10
1508.894773824603
 20
779.0924055873952
 30
0.0
 40
0.5
100
AcDbArc
 50
2.999999999998919
 51
93.00000000000558
  0
LINE
  5
6DB6
330
1E
100
AcDbEntity
  8
躯体と製品
  6
Continuous
 62
     3
100
AcDbLine
 10
1509.39408859198
 20
779.1185735655167
 30
0.0
 11
1509.446424548223
 21
778.1199440307623
 31
0.0
  0
ARC
  5
6DB7
330
1E
100
AcDbEntity
  8
躯体と製品
  6
Continuous
 62
     3
100
AcDbCircle
 10
1508.685429999631
 20
783.0869237264132
 30
0.0
 40
0.5
100
AcDbArc
 50
273.0000000000056
 51
2.999999999998919
  0
LINE
  5
6DB8
330
1E
100
AcDbEntity
  8
躯体と製品
  6
Continuous
 62
     3
100
AcDbLine
 10
1508.711597977753
 20
782.587608959036
 30
0.0
 11
1497.029610670219
 21
781.9753819466354
 31
0.0
  0
LINE
  5
6DB9
330
1E
100
AcDbEntity
  8
躯体と製品
  6
Continuous
 62
     3
100
AcDbLine
 10
1509.184744767009
 20
783.1130917045348
 30
0.0
 11
1509.080072854522
 21
785.110350774044
 31
0.0
  0
LINE
  5
6DBA
330
1E
100
AcDbEntity
  8
躯体と製品
  6
Continuous
 62
     3
100
AcDbLine
 10
1487.681148489715
 20
731.3549055716353
 30
0.0
 11
1492.063699911448
 21
731.3549055716353
 31
0.0
  0
LINE
  5
6DBB
330
1E
100
AcDbEntity
  8
躯体と製品
  6
Continuous
 62
     3
100
AcDbLine
 10
1497.027082287466
 20
778.2289342901018
 30
0.0
 11
1487.192074689348
 21
731.9588614170438
 31
0.0
  0
LINE
  5
6DBC
330
1E
100
AcDbEntity
  8
躯体と製品
  6
Continuous
 62
     3
100
AcDbLine
 10
1494.252175736746
 20
779.6032284148253
 30
0.0
 11
1482.296225633492
 21
723.3549055716353
 31
0.0
  0
ARC
  5
6DBD
330
1E
100
AcDbEntity
  8
躯体と製品
  6
Continuous
 62
     3
100
AcDbCircle
 10
1509.5793876219
 20
785.1365187521655
 30
0.0
 40
0.5
100
AcDbArc
 50
93.00000000000558
 51
182.9999999999989
  0
LINE
  5
6DBE
330
1E
100
AcDbEntity
  8
躯体と製品
  6
Continuous
 62
     3
100
AcDbLine
 10
1509.553219643778
 20
785.6358335195429
 30
0.0
 11
1510.052534411155
 21
785.6620014976644
 31
0.0
  0
ARC
  5
6DBF
330
1E
100
AcDbEntity
  8
躯体と製品
  6
Continuous
 62
     3
100
AcDbCircle
 10
1510.078702389277
 20
785.1626867302867
 30
0.0
 40
0.5
100
AcDbArc
 50
2.999999999998919
 51
93.00000000000558
  0
ARC
  5
6DC0
330
1E
100
AcDbEntity
  8
躯体と製品
  6
Continuous
 62
     3
100
AcDbCircle
 10
1497.186618538948
 20
778.9794933423718
 30
0.0
 40
3.0
100
AcDbArc
 50
93.00000000000558
 51
168.0000000000002
  0
ARC
  5
6DC1
330
1E
100
AcDbEntity
  8
躯体と製品
  6
Continuous
 62
     3
100
AcDbCircle
 10
1498.0052298882
 20
778.0210225992844
 30
0.0
 40
1.0
100
AcDbArc
 50
93.00000000000558
 51
168.0000000000002
  0
ARC
  5
6DC2
330
1E
100
AcDbEntity
  8
躯体と製品
  6
Continuous
 62
     3
100
AcDbCircle
 10
1509.9457393156
 20
778.1461120088835
 30
0.0
 40
0.5
100
AcDbArc
 50
182.9999999999989
 51
273.0000000000056
  0
LINE
  5
6DC3
330
1E
100
AcDbEntity
  8
躯体と製品
  6
Continuous
 62
     3
100
AcDbLine
 10
1509.971907293722
 20
777.6467972415063
 30
0.0
 11
1510.471222061099
 21
777.6729652196276
 31
0.0
  0
ARC
  5
6DC4
330
1E
100
AcDbEntity
  8
躯体と製品
  6
Continuous
 62
     3
100
AcDbCircle
 10
1510.445054082978
 20
778.1722799870051
 30
0.0
 40
0.5
100
AcDbArc
 50
273.0000000000056
 51
2.999999999998919
  0
ARC
  5
6DC5
330
1E
100
AcDbEntity
  8
躯体と製品
  6
Continuous
 62
     3
100
AcDbCircle
 10
1487.213524054041
 20
729.6549055716353
 30
0.0
 40
0.5
100
AcDbArc
 50
90.0
 51
168.0000000000002
  0
LINE
  5
6DC6
330
1E
100
AcDbEntity
  8
躯体と製品
  6
Continuous
 62
     3
100
AcDbLine
 10
1486.724450253674
 20
729.7588614170438
 30
0.0
 11
1485.296225633492
 21
723.0395928658379
 31
0.0
  0
LINE
  5
6DC7
330
1E
100
AcDbEntity
  8
躯体と製品
  6
Continuous
 62
     3
100
AcDbLine
 10
1487.213524054041
 20
730.1549055716352
 30
0.0
 11
1496.463699911448
 21
730.1549055716352
 31
0.0
  0
ARC
  5
6DC8
330
1E
100
AcDbEntity
  8
躯体と製品
  6
Continuous
 62
     3
100
AcDbCircle
 10
1487.681148489715
 20
731.8549055716353
 30
0.0
 40
0.5
100
AcDbArc
 50
168.0000000000002
 51
270.0
  0
LINE
  5
6DC9
330
1E
100
AcDbEntity
  8
躯体と製品
  6
Continuous
 62
     3
100
AcDbLine
 10
1496.463699911448
 20
731.3549055716353
 30
0.0
 11
1494.063699911447
 21
731.3549055716353
 31
0.0
  0
LINE
  5
6DCA
330
1E
100
AcDbEntity
  8
躯体と製品
  6
Continuous
 62
     3
100
AcDbLine
 10
1492.063699911448
 20
732.3549055716349
 30
0.0
 11
1494.063699911447
 21
731.3549055716353
 31
0.0
  0
LINE
  5
6DCB
330
1E
100
AcDbEntity
  8
躯体と製品
  6
Continuous
 62
     3
100
AcDbLine
 10
1492.063699911448
 20
731.3549055716353
 30
0.0
 11
1492.063699911448
 21
732.3549055716349
 31
0.0
  0
ARC
  5
6DCC
330
1E
100
AcDbEntity
  8
躯体と製品
  6
Continuous
 62
     3
100
AcDbCircle
 10
1484.796225633492
 20
721.854905571635
 30
0.0
 40
2.5
100
AcDbArc
 50
180.0
 51
270.0
  0
LINE
  5
6DCD
330
1E
100
AcDbEntity
  8
躯体と製品
  6
Continuous
 62
     3
100
AcDbLine
 10
1484.796225633492
 20
719.3549055716352
 30
0.0
 11
1485.296225633492
 21
719.3549055716352
 31
0.0
  0
LINE
  5
6DCE
330
1E
100
AcDbEntity
  8
躯体と製品
  6
Continuous
 62
     3
100
AcDbLine
 10
1482.296225633492
 20
721.854905571635
 30
0.0
 11
1482.296225633492
 21
723.3549055716353
 31
0.0
  0
LINE
  5
6DCF
330
1E
100
AcDbEntity
  8
躯体と製品
  6
Continuous
 62
     3
100
AcDbLine
 10
1485.296225633492
 20
723.0395928658379
 30
0.0
 11
1485.296225633492
 21
719.3549055716352
 31
0.0
  0
ARC
  5
6DD0
330
1E
100
AcDbEntity
  8
躯体と製品
  6
Continuous
 62
     3
100
AcDbCircle
 10
1496.463699911448
 20
730.7549055716349
 30
0.0
 40
0.6000000000000015
100
AcDbArc
 50
270.0
 51
90.0
  0
ARC
  5
6DD1
330
1E
100
AcDbEntity
  8
躯体と製品
  6
Continuous
 62
     3
100
AcDbCircle
 10
1499.145941150897
 20
778.7817653855638
 30
0.0
 40
0.2999999999999998
100
AcDbArc
 50
13.00000000000027
 51
93.00000000000558
  0
ARC
  5
6DD2
330
1E
100
AcDbEntity
  8
躯体と製品
  6
Continuous
 62
     3
100
AcDbCircle
 10
1501.219695418298
 20
778.6901717722976
 30
0.0
 40
0.5
100
AcDbArc
 50
93.00000000000558
 51
193.0000000000002
  0
ARC
  5
6DD3
330
1E
100
AcDbEntity
  8
躯体と製品
  6
Continuous
 62
     3
100
AcDbCircle
 10
1500.731080889953
 20
775.9166411828012
 30
0.0
 40
0.5999999999999984
100
AcDbArc
 50
193.0000000000002
 51
13.00000000000027
  0
ARC
  5
6DD4
330
1E
100
AcDbEntity
  8
躯体と製品
  6
Continuous
 62
     7
100
AcDbCircle
 10
1503.65949809015
 20
763.7549055716347
 30
0.0
 40
2.1
100
AcDbArc
 50
4.999999999999459
 51
90.0
  0
LINE
  5
6DD5
330
1E
100
AcDbEntity
  8
躯体と製品
  6
Continuous
 62
     7
100
AcDbLine
 10
1503.65949809015
 20
765.8549055716353
 30
0.0
 11
1503.063699911448
 21
765.8549055716353
 31
0.0
  0
ARC
  5
6DD6
330
1E
100
AcDbEntity
  8
躯体と製品
  6
Continuous
 62
     7
100
AcDbCircle
 10
1503.65949809015
 20
763.7549055716347
 30
0.0
 40
1.1
100
AcDbArc
 50
4.999999999999459
 51
90.0
  0
LINE
  5
6DD7
330
1E
100
AcDbEntity
  8
躯体と製品
  6
Continuous
 62
     7
100
AcDbLine
 10
1503.65949809015
 20
764.8549055716351
 30
0.0
 11
1503.063699911448
 21
764.8549055716351
 31
0.0
  0
LINE
  5
6DD8
330
1E
100
AcDbEntity
  8
躯体と製品
  6
Continuous
 62
     7
100
AcDbLine
 10
1503.063699911448
 20
768.3549055716349
 30
0.0
 11
1503.063699911448
 21
765.8549055716353
 31
0.0
  0
LINE
  5
6DD9
330
1E
100
AcDbEntity
  8
躯体と製品
  6
Continuous
 62
     7
100
AcDbLine
 10
1501.563699911448
 20
764.3549055716349
 30
0.0
 11
1499.912614911447
 21
764.878278571635
 31
0.0
  0
LINE
  5
6DDA
330
1E
100
AcDbEntity
  8
躯体と製品
  6
Continuous
 62
     7
100
AcDbLine
 10
1501.563699911448
 20
764.3549055716349
 30
0.0
 11
1501.563699911448
 21
762.3549055716352
 31
0.0
  0
LINE
  5
6DDB
330
1E
100
AcDbEntity
  8
躯体と製品
  6
Continuous
 62
     7
100
AcDbLine
 10
1501.563699911448
 20
766.3549055716353
 30
0.0
 11
1501.563699911448
 21
768.3549055716349
 31
0.0
  0
ARC
  5
6DDC
330
1E
100
AcDbEntity
  8
躯体と製品
  6
Continuous
 62
     7
100
AcDbCircle
 10
1502.063699911447
 20
768.3549055716349
 30
0.0
 40
0.5
100
AcDbArc
 50
90.0
 51
180.0
  0
LINE
  5
6DDD
330
1E
100
AcDbEntity
  8
躯体と製品
  6
Continuous
 62
     7
100
AcDbLine
 10
1502.563699911448
 20
768.8549055716348
 30
0.0
 11
1502.063699911447
 21
768.8549055716348
 31
0.0
  0
LINE
  5
6DDE
330
1E
100
AcDbEntity
  8
躯体と製品
  6
Continuous
 62
     7
100
AcDbLine
 10
1502.563699911448
 20
761.8549055716352
 30
0.0
 11
1502.063699911447
 21
761.8549055716352
 31
0.0
  0
ARC
  5
6DDF
330
1E
100
AcDbEntity
  8
躯体と製品
  6
Continuous
 62
     7
100
AcDbCircle
 10
1502.063699911447
 20
762.3549055716352
 30
0.0
 40
0.5
100
AcDbArc
 50
180.0
 51
270.0
  0
ARC
  5
6DE0
330
1E
100
AcDbEntity
  8
躯体と製品
  6
Continuous
 62
     7
100
AcDbCircle
 10
1502.563699911448
 20
762.3549055716352
 30
0.0
 40
0.5
100
AcDbArc
 50
270.0
 51
0.0
  0
ARC
  5
6DE1
330
1E
100
AcDbEntity
  8
躯体と製品
  6
Continuous
 62
     7
100
AcDbCircle
 10
1502.563699911448
 20
768.3549055716349
 30
0.0
 40
0.5
100
AcDbArc
 50
0.0
 51
90.0
  0
LINE
  5
6DE2
330
1E
100
AcDbEntity
  8
躯体と製品
  6
Continuous
 62
     7
100
AcDbLine
 10
1503.063699911448
 20
762.3549055716352
 30
0.0
 11
1503.063699911448
 21
764.8549055716351
 31
0.0
  0
ARC
  5
6DE3
330
1E
100
AcDbEntity
  8
躯体と製品
  6
Continuous
 62
     7
100
AcDbCircle
 10
1500.063699911448
 20
765.3549055716353
 30
0.0
 40
0.5
100
AcDbArc
 50
107.587954000005
 51
252.412045999995
  0
LINE
  5
6DE4
330
1E
100
AcDbEntity
  8
躯体と製品
  6
Continuous
 62
     7
100
AcDbLine
 10
1501.563699911448
 20
766.3549055716353
 30
0.0
 11
1499.912614911447
 21
765.8315325716353
 31
0.0
  0
ARC
  5
6DE5
330
1E
100
AcDbEntity
  8
躯体と製品
  6
Continuous
 62
     3
100
AcDbCircle
 10
1503.663699911447
 20
763.7549055716348
 30
0.0
 40
0.5999999999999997
100
AcDbArc
 50
0.0
 51
180.0
  0
ARC
  5
6DE6
330
1E
100
AcDbEntity
  8
躯体と製品
  6
Continuous
 62
     3
100
AcDbCircle
 10
1503.663699911447
 20
767.9549055716347
 30
0.0
 40
0.5999999999999997
100
AcDbArc
 50
180.0
 51
0.0
  0
LINE
  5
6DE7
330
1E
100
AcDbEntity
  8
躯体と製品
  6
Continuous
 62
     3
100
AcDbLine
 10
1504.263699911447
 20
763.7549055716348
 30
0.0
 11
1504.263699911447
 21
761.6549055716352
 31
0.0
  0
LINE
  5
6DE8
330
1E
100
AcDbEntity
  8
躯体と製品
  6
Continuous
 62
     3
100
AcDbLine
 10
1503.063699911448
 20
763.7549055716348
 30
0.0
 11
1503.063699911448
 21
762.1549055716352
 31
0.0
  0
ARC
  5
6DE9
330
1E
100
AcDbEntity
  8
躯体と製品
  6
Continuous
 62
     3
100
AcDbCircle
 10
1502.763699911447
 20
762.1549055716352
 30
0.0
 40
0.2999999999999998
100
AcDbArc
 50
270.0
 51
0.0
  0
LINE
  5
6DEA
330
1E
100
AcDbEntity
  8
躯体と製品
  6
Continuous
 62
     3
100
AcDbLine
 10
1503.063699911448
 20
767.9549055716347
 30
0.0
 11
1503.063699911448
 21
769.5549055716349
 31
0.0
  0
ARC
  5
6DEB
330
1E
100
AcDbEntity
  8
躯体と製品
  6
Continuous
 62
     3
100
AcDbCircle
 10
1502.763699911447
 20
769.5549055716349
 30
0.0
 40
0.2999999999999998
100
AcDbArc
 50
0.0
 51
90.0
  0
LINE
  5
6DEC
330
1E
100
AcDbEntity
  8
躯体と製品
  6
Continuous
 62
     3
100
AcDbLine
 10
1504.263699911447
 20
767.9549055716347
 30
0.0
 11
1504.263699911447
 21
770.0549055716349
 31
0.0
  0
LINE
  5
6DED
330
1E
100
AcDbEntity
  8
躯体と製品
  6
Continuous
 62
     3
100
AcDbLine
 10
1492.063699911448
 20
731.8549055716353
 30
0.0
 11
1490.442431911447
 21
732.2602225716348
 31
0.0
  0
ARC
  5
6DEE
330
1E
100
AcDbEntity
  8
躯体と製品
  6
Continuous
 62
     3
100
AcDbCircle
 10
1490.563699911447
 20
732.7452935716348
 30
0.0
 40
0.5
100
AcDbArc
 50
180.0
 51
255.9637569999957
  0
LINE
  5
6DEF
330
1E
100
AcDbEntity
  8
躯体と製品
  6
Continuous
 62
     3
100
AcDbLine
 10
1492.063699911448
 20
732.3549055716349
 30
0.0
 11
1492.063699911448
 21
731.8549055716353
 31
0.0
  0
LINE
  5
6DF0
330
1E
100
AcDbEntity
  8
躯体と製品
  6
Continuous
 62
     3
100
AcDbLine
 10
1490.063699911448
 20
733.0549055716349
 30
0.0
 11
1490.063699911448
 21
732.7452935716348
 31
0.0
  0
LINE
  5
6DF1
330
1E
100
AcDbEntity
  8
躯体と製品
  6
Continuous
 62
     3
100
AcDbLine
 10
1497.063699911447
 20
732.3549055716349
 30
0.0
 11
1492.063699911448
 21
732.3549055716349
 31
0.0
  0
ARC
  5
6DF2
330
1E
100
AcDbEntity
  8
躯体と製品
  6
Continuous
 62
     3
100
AcDbCircle
 10
1490.363699911447
 20
733.0549055716349
 30
0.0
 40
0.2999999999999998
100
AcDbArc
 50
90.0
 51
180.0
  0
ARC
  5
6DF3
330
1E
100
AcDbEntity
  8
躯体と製品
  6
Continuous
 62
     3
100
AcDbCircle
 10
1497.063699911447
 20
731.8549055716353
 30
0.0
 40
0.5
100
AcDbArc
 50
0.0
 51
90.0
  0
LINE
  5
6DF4
330
1E
100
AcDbEntity
  8
躯体と製品
  6
Continuous
 62
     3
100
AcDbLine
 10
1497.563699911447
 20
731.8549055716353
 30
0.0
 11
1497.563699911447
 21
723.0549055716348
 31
0.0
  0
LINE
  5
6DF5
330
1E
100
AcDbEntity
  8
躯体と製品
  6
Continuous
 62
     3
100
AcDbLine
 10
1497.063699911447
 20
733.3549055716352
 30
0.0
 11
1490.363699911447
 21
733.3549055716352
 31
0.0
  0
ARC
  5
6DF6
330
1E
100
AcDbEntity
  8
躯体と製品
  6
Continuous
 62
     3
100
AcDbCircle
 10
1497.063699911447
 20
733.8549055716352
 30
0.0
 40
0.5
100
AcDbArc
 50
270.0
 51
0.0
  0
LINE
  5
6DF7
330
1E
100
AcDbEntity
  8
躯体と製品
  6
Continuous
 62
     3
100
AcDbLine
 10
1492.663699911448
 20
720.8549055716352
 30
0.0
 11
1496.563699911447
 21
720.8549055716352
 31
0.0
  0
ARC
  5
6DF8
330
1E
100
AcDbEntity
  8
躯体と製品
  6
Continuous
 62
     3
100
AcDbCircle
 10
1496.563699911447
 20
723.3549055716353
 30
0.0
 40
2.5
100
AcDbArc
 50
270.0
 51
0.0
  0
LINE
  5
6DF9
330
1E
100
AcDbEntity
  8
躯体と製品
  6
Continuous
 62
     3
100
AcDbLine
 10
1497.563699911447
 20
778.1049055716352
 30
0.0
 11
1497.563699911447
 21
733.8549055716352
 31
0.0
  0
LINE
  5
6DFA
330
1E
100
AcDbEntity
  8
躯体と製品
  6
Continuous
 62
     3
100
AcDbLine
 10
1502.763699911447
 20
769.8549055716353
 30
0.0
 11
1499.363699911447
 21
769.8549055716353
 31
0.0
  0
LINE
  5
6DFB
330
1E
100
AcDbEntity
  8
躯体と製品
  6
Continuous
 62
     3
100
AcDbLine
 10
1502.763699911447
 20
761.8549055716352
 30
0.0
 11
1499.363699911447
 21
761.8549055716352
 31
0.0
  0
ARC
  5
6DFC
330
1E
100
AcDbEntity
  8
躯体と製品
  6
Continuous
 62
     3
100
AcDbCircle
 10
1499.363699911447
 20
762.1549055716352
 30
0.0
 40
0.2999999999999998
100
AcDbArc
 50
180.0
 51
270.0
  0
LINE
  5
6DFD
330
1E
100
AcDbEntity
  8
躯体と製品
  6
Continuous
 62
     3
100
AcDbLine
 10
1499.063699911447
 20
769.5549055716349
 30
0.0
 11
1499.063699911447
 21
762.1549055716352
 31
0.0
  0
ARC
  5
6DFE
330
1E
100
AcDbEntity
  8
躯体と製品
  6
Continuous
 62
     3
100
AcDbCircle
 10
1499.363699911447
 20
769.5549055716349
 30
0.0
 40
0.2999999999999998
100
AcDbArc
 50
90.0
 51
180.0
  0
LINE
  5
6DFF
330
1E
100
AcDbEntity
  8
躯体と製品
  6
Continuous
 62
     3
100
AcDbLine
 10
1499.563699911447
 20
760.6549055716352
 30
0.0
 11
1503.263699911447
 21
760.6549055716352
 31
0.0
  0
ARC
  5
6E00
330
1E
100
AcDbEntity
  8
躯体と製品
  6
Continuous
 62
     3
100
AcDbCircle
 10
1503.263699911447
 20
761.6549055716352
 30
0.0
 40
1.0
100
AcDbArc
 50
270.0
 51
0.0
  0
ARC
  5
6E01
330
1E
100
AcDbEntity
  8
躯体と製品
  6
Continuous
 62
     3
100
AcDbCircle
 10
1499.563699911447
 20
760.1549055716352
 30
0.0
 40
0.5
100
AcDbArc
 50
90.0
 51
180.0
  0
LINE
  5
6E02
330
1E
100
AcDbEntity
  8
躯体と製品
  6
Continuous
 62
     3
100
AcDbLine
 10
1499.563699911447
 20
771.0549055716349
 30
0.0
 11
1503.263699911447
 21
771.0549055716349
 31
0.0
  0
ARC
  5
6E03
330
1E
100
AcDbEntity
  8
躯体と製品
  6
Continuous
 62
     3
100
AcDbCircle
 10
1503.263699911447
 20
770.0549055716349
 30
0.0
 40
1.0
100
AcDbArc
 50
0.0
 51
90.0
  0
ARC
  5
6E04
330
1E
100
AcDbEntity
  8
躯体と製品
  6
Continuous
 62
     3
100
AcDbCircle
 10
1499.563699911447
 20
771.5549055716349
 30
0.0
 40
0.5
100
AcDbArc
 50
180.0
 51
270.0
  0
LINE
  5
6E05
330
1E
100
AcDbEntity
  8
躯体と製品
  6
Continuous
 62
     3
100
AcDbLine
 10
1499.063699911447
 20
771.5549055716349
 30
0.0
 11
1499.063699911447
 21
778.1049055716352
 31
0.0
  0
ARC
  5
6E06
330
1E
100
AcDbEntity
  8
躯体と製品
  6
Continuous
 62
     3
100
AcDbCircle
 10
1498.313699911447
 20
778.1049055716352
 30
0.0
 40
0.7499999999999999
100
AcDbArc
 50
0.0
 51
180.0
  0
LINE
  5
6E07
330
1E
100
AcDbEntity
  8
躯体と製品
  6
Continuous
 62
     3
100
AcDbLine
 10
1499.063699911447
 20
760.1549055716352
 30
0.0
 11
1499.063699911447
 21
723.3549055716353
 31
0.0
  0
ARC
  5
6E08
330
1E
100
AcDbEntity
  8
躯体と製品
  6
Continuous
 62
     3
100
AcDbCircle
 10
1492.663699911448
 20
721.4549055716348
 30
0.0
 40
0.5999999999999997
100
AcDbArc
 50
90.0
 51
270.0
  0
LINE
  5
6E09
330
1E
100
AcDbEntity
  8
躯体と製品
  6
Continuous
 62
     3
100
AcDbLine
 10
1492.663699911448
 20
722.0549055716348
 30
0.0
 11
1496.563699911447
 21
722.0549055716348
 31
0.0
  0
ARC
  5
6E0A
330
1E
100
AcDbEntity
  8
躯体と製品
  6
Continuous
 62
     3
100
AcDbCircle
 10
1496.563699911447
 20
723.0549055716348
 30
0.0
 40
1.0
100
AcDbArc
 50
270.0
 51
0.0
  0
ARC
  5
6E0B
330
1E
100
AcDbEntity
  8
躯体と製品
  6
DASHED1
 62
     7
100
AcDbCircle
 10
1504.532022818333
 20
800.0917892781901
 30
0.0
 40
3.0
100
AcDbArc
 50
93.00000000000558
 51
169.8753283446035
  0
ARC
  5
6E0C
330
1E
100
AcDbEntity
  8
躯体と製品
  6
DASHED1
 62
     7
100
AcDbCircle
 10
1504.532022818333
 20
800.0917892781901
 30
0.0
 40
7.5
100
AcDbArc
 50
93.00000000000558
 51
169.8753283446035
  0
LINE
  5
6E0D
330
1E
100
AcDbEntity
  8
躯体と製品
  6
DASHED1
 62
     7
100
AcDbLine
 10
1501.578740091808
 20
800.619161193641
 30
0.0
 11
1487.625126542392
 21
722.4789253169149
 31
0.0
  0
LINE
  5
6E0E
330
1E
100
AcDbEntity
  8
躯体と製品
  6
DASHED1
 62
     7
100
AcDbLine
 10
1483.195202452604
 20
723.2699831900912
 30
0.0
 11
1487.625126542329
 21
722.4789253165589
 31
0.0
  0
LINE
  5
6E0F
330
1E
100
AcDbEntity
  8
躯体と製品
  6
DASHED1
 62
     7
100
AcDbLine
 10
1497.14881600202
 20
801.4102190668177
 30
0.0
 11
1483.195202452604
 21
723.2699831900912
 31
0.0
  0
LINE
  5
6E10
330
1E
100
AcDbEntity
  8
躯体と製品
  6
DASHED1
 62
     7
100
AcDbLine
 10
1504.139503146511
 20
807.5815107888496
 30
0.0
 11
1509.390046765659
 21
807.8566801199579
 31
0.0
  0
LINE
  5
6E11
330
1E
100
AcDbEntity
  8
躯体と製品
  6
DASHED1
 62
     7
100
AcDbLine
 10
1504.375014949604
 20
803.0876778824538
 30
0.0
 11
1509.625558568752
 21
803.3628472135625
 31
0.0
  0
LINE
  5
6E12
330
1E
100
AcDbEntity
  8
躯体と製品
  6
Continuous
 62
     7
100
AcDbLine
 10
1509.531298031795
 20
805.1614454034998
 30
0.0
 11
1509.390046765659
 21
807.8566801199579
 31
0.0
  0
LINE
  5
6E13
330
1E
100
AcDbEntity
  8
躯体と製品
  6
Continuous
 62
     7
100
AcDbLine
 10
1524.510741053114
 20
805.946484747144
 30
0.0
 11
1524.369489786978
 21
808.641719463602
 31
0.0
  0
LINE
  5
6E14
330
1E
100
AcDbEntity
  8
躯体と製品
  6
Continuous
 62
     7
100
AcDbLine
 10
1505.751506956143
 20
763.9379326314051
 30
0.0
 11
1507.788765111091
 21
740.6519653661153
 31
0.0
  0
LINE
  5
6E15
330
1E
100
AcDbEntity
  8
躯体と製品
  6
Continuous
 62
     7
100
AcDbLine
 10
1504.755312258051
 20
763.8507768886573
 30
0.0
 11
1506.792570412999
 21
740.5648096233676
 31
0.0
  0
ARC
  5
6E16
330
1E
100
AcDbEntity
  8
躯体と製品
  6
Continuous
 62
     7
100
AcDbCircle
 10
1529.939119011519
 20
742.5898702254897
 30
0.0
 40
23.23496465385484
100
AcDbArc
 50
184.9999999999994
 51
355.0000000000006
  0
ARC
  5
6E17
330
1E
100
AcDbEntity
  8
躯体と製品
  6
Continuous
 62
     7
100
AcDbCircle
 10
1529.939119011519
 20
742.5898702254897
 30
0.0
 40
22.23496465385484
100
AcDbArc
 50
184.9999999999994
 51
355.0000000000006
  0
LINE
  5
6E18
330
1E
100
AcDbEntity
  8
躯体と製品
  6
Continuous
 62
     7
100
AcDbLine
 10
1554.727567528411
 20
759.3318115662752
 30
0.0
 11
1553.085667610038
 21
740.5648096233676
 31
0.0
  0
LINE
  5
6E19
330
1E
100
AcDbEntity
  8
躯体と製品
  6
Continuous
 62
     7
100
AcDbLine
 10
1553.731372830319
 20
759.4189673090229
 30
0.0
 11
1552.089472911946
 21
740.6519653661153
 31
0.0
  0
LINE
  5
6E1A
330
1E
100
AcDbEntity
  8
躯体と製品
  6
Continuous
 62
     3
100
AcDbLine
 10
1509.531298031795
 20
805.1614454034998
 30
0.0
 11
1730.695202452604
 21
816.7521544917613
 31
0.0
  0
LINE
  5
6E1B
330
1E
100
AcDbEntity
  8
躯体と製品
  6
DASHED1
 62
     4
100
AcDbLine
 10
1509.60980196616
 20
803.6635011013682
 30
0.0
 11
1730.773706386968
 21
815.2542101896296
 31
0.0
  0
LINE
  5
6E1C
330
1E
100
AcDbEntity
  8
躯体と製品
  6
Continuous
 62
     3
100
AcDbLine
 10
1509.766809834889
 20
800.6676124971043
 30
0.0
 11
1730.695202452604
 21
812.2459789347708
 31
0.0
  0
LINE
  5
6E1D
330
1E
100
AcDbEntity
  8
躯体と製品
  6
Continuous
 62
     3
100
AcDbLine
 10
1509.845313769253
 20
799.1696681949727
 30
0.0
 11
1730.695202452604
 21
810.7439204157738
 31
0.0
  0
LINE
  5
6E1E
330
1E
100
AcDbEntity
  8
躯体と製品
  6
DASHED1
 62
     4
100
AcDbLine
 10
1510.588484347903
 20
784.9891288014576
 30
0.0
 11
1730.695202452604
 21
796.5244331026033
 31
0.0
  0
LINE
  5
6E1F
330
1E
100
AcDbEntity
  8
躯体と製品
  6
DASHED1
 62
     4
100
AcDbLine
 10
1510.68268906914
 20
783.1915956388993
 30
0.0
 11
1730.695202452604
 21
794.721962879807
 31
0.0
  0
LINE
  5
6E20
330
1E
100
AcDbEntity
  8
躯体と製品
  6
DASHED1
 62
     4
100
AcDbLine
 10
1510.86586491599
 20
779.6963922672583
 30
0.0
 11
1730.695202452604
 21
791.2171596688142
 31
0.0
  0
LINE
  5
6E21
330
1E
100
AcDbEntity
  8
躯体と製品
  6
DASHED1
 62
     4
100
AcDbLine
 10
1510.944368850355
 20
778.1984479651264
 30
0.0
 11
1730.695202452604
 21
789.7151011498172
 31
0.0
  0
LINE
  5
6E22
330
1E
100
AcDbEntity
  8
躯体と製品
  6
Continuous
 62
     3
100
AcDbLine
 10
1510.996704806598
 20
777.1998184303719
 30
0.0
 11
1730.695202452604
 21
788.7137288038196
 31
0.0
  0
LINE
  5
6E23
330
1E
100
AcDbEntity
  8
躯体と製品
  6
DASHED1
 62
     4
100
AcDbLine
 10
1550.627870459323
 20
785.2850338886169
 30
0.0
 11
1550.533665738086
 21
787.0825670511752
 31
0.0
  0
LINE
  5
6E24
330
1E
100
AcDbEntity
  8
躯体と製品
  6
DASHED1
 62
     4
100
AcDbLine
 10
1650.490823934781
 20
790.5186295129115
 30
0.0
 11
1650.396619213543
 21
792.3161626754697
 31
0.0
  0
LINE
  5
6E25
330
1E
100
AcDbEntity
  8
躯体と製品
  6
Continuous
 62
     4
100
AcDbLine
 10
1951.952409140206
 20
806.9417587094505
 30
0.0
 11
1950.984234970954
 21
807.9099328787023
 31
0.0
  0
LINE
  5
6E26
330
1E
100
AcDbEntity
  8
躯体と製品
  6
Continuous
 62
     4
100
AcDbLine
 10
1509.516234684896
 20
805.4488711846774
 30
0.0
 11
1509.790097367603
 21
805.1750085019698
 31
0.0
  0
LINE
  5
6E27
330
1E
100
AcDbEntity
  8
躯体と製品
  6
Continuous
 62
     4
100
AcDbLine
 10
1509.438019825576
 20
806.9412996063705
 30
0.0
 11
1511.133885954321
 21
805.2454334776255
 31
0.0
  0
LINE
  5
6E28
330
1E
100
AcDbEntity
  8
躯体と製品
  6
Continuous
 62
     4
100
AcDbLine
 10
1509.909623035871
 20
807.8839099584483
 30
0.0
 11
1512.477674541039
 21
805.3158584532804
 31
0.0
  0
LINE
  5
6E29
330
1E
100
AcDbEntity
  8
躯体と製品
  6
Continuous
 62
     4
100
AcDbLine
 10
1511.253411622589
 20
807.954334934104
 30
0.0
 11
1513.821463127757
 21
805.3862834289359
 31
0.0
  0
LINE
  5
6E2A
330
1E
100
AcDbEntity
  8
躯体と製品
  6
Continuous
 62
     4
100
AcDbLine
 10
1512.597200209306
 20
808.0247599097599
 30
0.0
 11
1515.165251714474
 21
805.456708404592
 31
0.0
  0
LINE
  5
6E2B
330
1E
100
AcDbEntity
  8
躯体と製品
  6
Continuous
 62
     4
100
AcDbLine
 10
1513.940988796024
 20
808.0951848854159
 30
0.0
 11
1516.509040301192
 21
805.5271333802478
 31
0.0
  0
LINE
  5
6E2C
330
1E
100
AcDbEntity
  8
躯体と製品
  6
Continuous
 62
     4
100
AcDbLine
 10
1515.284777382738
 20
808.1656098610714
 30
0.0
 11
1517.852828887905
 21
805.5975583559039
 31
0.0
  0
LINE
  5
6E2D
330
1E
100
AcDbEntity
  8
躯体と製品
  6
Continuous
 62
     4
100
AcDbLine
 10
1516.628565969455
 20
808.2360348367274
 30
0.0
 11
1519.196617474623
 21
805.6679833315598
 31
0.0
  0
LINE
  5
6E2E
330
1E
100
AcDbEntity
  8
躯体と製品
  6
Continuous
 62
     4
100
AcDbLine
 10
1517.972354556173
 20
808.3064598123828
 30
0.0
 11
1520.54040606134
 21
805.7384083072156
 31
0.0
  0
LINE
  5
6E2F
330
1E
100
AcDbEntity
  8
躯体と製品
  6
Continuous
 62
     4
100
AcDbLine
 10
1519.316143142891
 20
808.3768847880383
 30
0.0
 11
1521.884194648058
 21
805.8088332828715
 31
0.0
  0
LINE
  5
6E30
330
1E
100
AcDbEntity
  8
躯体と製品
  6
Continuous
 62
     4
100
AcDbLine
 10
1520.659931729609
 20
808.4473097636935
 30
0.0
 11
1523.227983234775
 21
805.8792582585272
 31
0.0
  0
LINE
  5
6E31
330
1E
100
AcDbEntity
  8
躯体と製品
  6
Continuous
 62
     4
100
AcDbLine
 10
1522.003720316327
 20
808.5177347393496
 30
0.0
 11
1524.50718877338
 21
806.0142662822959
 31
0.0
  0
LINE
  5
6E32
330
1E
100
AcDbEntity
  8
躯体と製品
  6
Continuous
 62
     4
100
AcDbLine
 10
1523.347508903044
 20
808.5881597150052
 30
0.0
 11
1524.42897391406
 21
807.5066947039895
 31
0.0
  0
LINE
  5
6E33
330
1E
100
AcDbEntity
  8
躯体と製品
  6
Continuous
 62
     7
100
AcDbLine
 10
1723.205480941945
 20
815.8589486469404
 30
0.0
 11
1723.414824766917
 21
811.8644305079222
 31
0.0
  0
LINE
  5
6E34
330
1E
100
AcDbEntity
  8
躯体と製品
  6
Continuous
 62
     7
100
AcDbLine
 10
1723.205480941945
 20
815.8589486469404
 30
0.0
 11
1730.695202452604
 21
816.2514683187623
 31
0.0
  0
LINE
  5
6E35
330
1E
100
AcDbEntity
  8
躯体と製品
  6
Continuous
 62
     7
100
AcDbLine
 10
1738.184923963264
 20
815.8589486469404
 30
0.0
 11
1737.975580138291
 21
811.8644305079222
 31
0.0
  0
LINE
  5
6E36
330
1E
100
AcDbEntity
  8
躯体と製品
  6
Continuous
 62
     7
100
AcDbLine
 10
1738.184923963264
 20
815.8589486469404
 30
0.0
 11
1730.695202452604
 21
816.2514683187623
 31
0.0
  0
LINE
  5
6E37
330
1E
100
AcDbEntity
  8
躯体と製品
  6
Continuous
 62
     4
100
AcDbLine
 10
1738.137856988006
 20
814.960857258579
 30
0.0
 11
1737.187492427889
 21
815.9112218186958
 31
0.0
  0
LINE
  5
6E38
330
1E
100
AcDbEntity
  8
躯体と製品
  6
Continuous
 62
     4
100
AcDbLine
 10
1738.06743201235
 20
813.6170686718617
 30
0.0
 11
1735.695064006196
 21
815.9894366780156
 31
0.0
  0
LINE
  5
6E39
330
1E
100
AcDbEntity
  8
躯体と製品
  6
Continuous
 62
     4
100
AcDbLine
 10
1737.997007036694
 20
812.2732800851437
 30
0.0
 11
1734.202635584503
 21
816.0676515373353
 31
0.0
  0
LINE
  5
6E3A
330
1E
100
AcDbEntity
  8
躯体と製品
  6
Continuous
 62
     4
100
AcDbLine
 10
1736.937225173744
 20
811.9188483857215
 30
0.0
 11
1732.71020716281
 21
816.1458663966548
 31
0.0
  0
LINE
  5
6E3B
330
1E
100
AcDbEntity
  8
躯体と製品
  6
Continuous
 62
     4
100
AcDbLine
 10
1735.444796752051
 20
811.9970632450414
 30
0.0
 11
1731.217778741117
 21
816.2240812559753
 31
0.0
  0
LINE
  5
6E3C
330
1E
100
AcDbEntity
  8
躯体と製品
  6
Continuous
 62
     4
100
AcDbLine
 10
1733.952368330357
 20
812.0752781043613
 30
0.0
 11
1729.821943669517
 21
816.2057027652013
 31
0.0
  0
LINE
  5
6E3D
330
1E
100
AcDbEntity
  8
躯体と製品
  6
Continuous
 62
     4
100
AcDbLine
 10
1732.459939908664
 20
812.1534929636808
 30
0.0
 11
1728.4781550828
 21
816.1352777895457
 31
0.0
  0
LINE
  5
6E3E
330
1E
100
AcDbEntity
  8
躯体と製品
  6
Continuous
 62
     4
100
AcDbLine
 10
1730.967511486972
 20
812.2317078230015
 30
0.0
 11
1727.134366496083
 21
816.0648528138903
 31
0.0
  0
LINE
  5
6E3F
330
1E
100
AcDbEntity
  8
躯体と製品
  6
Continuous
 62
     4
100
AcDbLine
 10
1729.596602021731
 20
812.1884037258693
 30
0.0
 11
1725.790577909366
 21
815.9944278382342
 31
0.0
  0
LINE
  5
6E40
330
1E
100
AcDbEntity
  8
躯体と製品
  6
Continuous
 62
     4
100
AcDbLine
 10
1723.971036308603
 20
816.3997558766237
 30
0.0
 11
1723.382450621225
 21
816.9883415640022
 31
0.0
  0
LINE
  5
6E41
330
1E
100
AcDbEntity
  8
躯体と製品
  6
Continuous
 62
     4
100
AcDbLine
 10
1728.252813435014
 20
812.1179787502136
 30
0.0
 11
1724.446789322649
 21
815.9240028625784
 31
0.0
  0
LINE
  5
6E42
330
1E
100
AcDbEntity
  8
躯体と製品
  6
Continuous
 62
     4
100
AcDbLine
 10
1726.909024848296
 20
812.0475537745576
 30
0.0
 11
1723.211445775235
 21
815.7451328476192
 31
0.0
  0
LINE
  5
6E43
330
1E
100
AcDbEntity
  8
躯体と製品
  6
Continuous
 62
     4
100
AcDbLine
 10
1725.565236261578
 20
811.9771287989017
 30
0.0
 11
1723.289660634555
 21
814.2527044259262
 31
0.0
  0
LINE
  5
6E44
330
1E
100
AcDbEntity
  8
躯体と製品
  6
Continuous
 62
     4
100
AcDbLine
 10
1724.221447674861
 20
811.9067038232465
 30
0.0
 11
1723.367875493874
 21
812.7602760042327
 31
0.0
  0
LINE
  5
6E45
330
1E
100
AcDbEntity
  8
躯体と製品
  6
Continuous
 62
     4
100
AcDbLine
 10
1732.181829911443
 20
816.6742436480223
 30
0.0
 11
1729.46571632374
 21
819.3903572357253
 31
0.0
  0
LINE
  5
6E46
330
1E
100
AcDbEntity
  8
躯体と製品
  6
Continuous
 62
     7
100
AcDbLine
 10
1723.27357350078
 20
819.0658407813707
 30
0.0
 11
1723.414824766917
 21
816.3706060649126
 31
0.0
  0
LINE
  5
6E47
330
1E
100
AcDbEntity
  8
躯体と製品
  6
Continuous
 62
     4
100
AcDbLine
 10
1730.689979242189
 20
816.7518807549029
 30
0.0
 11
1728.121927737022
 21
819.3199322600696
 31
0.0
  0
LINE
  5
6E48
330
1E
100
AcDbEntity
  8
躯体と製品
  6
Continuous
 62
     4
100
AcDbLine
 10
1729.346190655472
 20
816.6814557792472
 30
0.0
 11
1726.778139150304
 21
819.2495072844137
 31
0.0
  0
LINE
  5
6E49
330
1E
100
AcDbEntity
  8
躯体と製品
  6
Continuous
 62
     4
100
AcDbLine
 10
1728.002402068754
 20
816.6110308035912
 30
0.0
 11
1725.434350563587
 21
819.1790823087583
 31
0.0
  0
LINE
  5
6E4A
330
1E
100
AcDbEntity
  8
躯体と製品
  6
Continuous
 62
     4
100
AcDbLine
 10
1726.658613482038
 20
816.5406058279357
 30
0.0
 11
1724.090561976871
 21
819.1086573331023
 31
0.0
  0
LINE
  5
6E4B
330
1E
100
AcDbEntity
  8
躯体と製品
  6
Continuous
 62
     4
100
AcDbLine
 10
1725.31482489532
 20
816.4701808522799
 30
0.0
 11
1723.304235761905
 21
818.4807699856948
 31
0.0
  0
LINE
  5
6E4C
330
1E
100
AcDbEntity
  8
躯体と製品
  6
Continuous
 62
     7
100
AcDbLine
 10
1738.116831404428
 20
819.0658407813707
 30
0.0
 11
1737.975580138291
 21
816.3706060649126
 31
0.0
  0
LINE
  5
6E4D
330
1E
100
AcDbEntity
  8
躯体と製品
  6
Continuous
 62
     4
100
AcDbLine
 10
1733.674258333136
 20
816.596028788702
 30
0.0
 11
1730.822148192772
 21
819.4481389290666
 31
0.0
  0
LINE
  5
6E4E
330
1E
100
AcDbEntity
  8
躯体と製品
  6
Continuous
 62
     4
100
AcDbLine
 10
1738.054308508738
 20
817.8728328625926
 30
0.0
 11
1736.791861879543
 21
819.1352794917875
 31
0.0
  0
LINE
  5
6E4F
330
1E
100
AcDbEntity
  8
躯体と製品
  6
Continuous
 62
     4
100
AcDbLine
 10
1737.983883533082
 20
816.5290442758765
 30
0.0
 11
1735.299433457851
 21
819.2134943511073
 31
0.0
  0
LINE
  5
6E50
330
1E
100
AcDbEntity
  8
躯体と製品
  6
Continuous
 62
     4
100
AcDbLine
 10
1736.659115176522
 20
816.4395990700628
 30
0.0
 11
1733.807005036158
 21
819.2917092104272
 31
0.0
  0
LINE
  5
6E51
330
1E
100
AcDbEntity
  8
躯体と製品
  6
Continuous
 62
     4
100
AcDbLine
 10
1735.166686754829
 20
816.5178139293823
 30
0.0
 11
1732.314576614465
 21
819.3699240697467
 31
0.0
  0
POINT
  5
6E52
330
1E
100
AcDbEntity
  8
躯体と製品
 62
     4
100
AcDbPoint
 10
1730.695202452604
 20
820.9568503923952
 30
0.0
  0
POINT
  5
6E53
330
1E
100
AcDbEntity
  8
躯体と製品
 62
     4
100
AcDbPoint
 10
1480.695202452604
 20
717.854905571635
 30
0.0
  0
POINT
  5
6E54
330
1E
100
AcDbEntity
  8
躯体と製品
 62
     4
100
AcDbPoint
 10
1980.695202452604
 20
717.854905571635
 30
0.0
  0
LINE
  5
6E55
330
1E
100
AcDbEntity
  8
躯体と製品
  6
Continuous
 62
     4
100
AcDbLine
 10
1840.695202452604
 20
760.8182703816837
 30
0.0
 11
1841.121179980909
 21
761.2442479099887
 31
0.0
  0
LINE
  5
6E56
330
1E
100
AcDbEntity
  8
躯体と製品
  6
Continuous
 62
     4
100
AcDbLine
 10
1841.535393543282
 20
760.2442479099882
 30
0.0
 11
1842.535393543282
 21
761.2442479099886
 31
0.0
  0
LINE
  5
6E57
330
1E
100
AcDbEntity
  8
躯体と製品
  6
Continuous
 62
     4
100
AcDbLine
 10
1842.949607105655
 20
760.2442479099882
 30
0.0
 11
1843.949607105655
 21
761.2442479099886
 31
0.0
  0
LINE
  5
6E58
330
1E
100
AcDbEntity
  8
躯体と製品
  6
Continuous
 62
     4
100
AcDbLine
 10
1844.363820668029
 20
760.2442479099886
 30
0.0
 11
1845.363820668029
 21
761.2442479099883
 31
0.0
  0
LINE
  5
6E59
330
1E
100
AcDbEntity
  8
躯体と製品
  6
Continuous
 62
     4
100
AcDbLine
 10
1845.778034230402
 20
760.2442479099886
 30
0.0
 11
1846.778034230402
 21
761.2442479099883
 31
0.0
  0
LINE
  5
6E5A
330
1E
100
AcDbEntity
  8
躯体と製品
  6
Continuous
 62
     4
100
AcDbLine
 10
1847.192247792775
 20
760.2442479099886
 30
0.0
 11
1848.192247792775
 21
761.2442479099882
 31
0.0
  0
LINE
  5
6E5B
330
1E
100
AcDbEntity
  8
躯体と製品
  6
Continuous
 62
     4
100
AcDbLine
 10
1848.606461355149
 20
760.2442479099886
 30
0.0
 11
1849.606461355148
 21
761.2442479099882
 31
0.0
  0
LINE
  5
6E5C
330
1E
100
AcDbEntity
  8
躯体と製品
  6
Continuous
 62
     4
100
AcDbLine
 10
1850.02067491752
 20
760.2442479099878
 30
0.0
 11
1851.02067491752
 21
761.2442479099882
 31
0.0
  0
LINE
  5
6E5D
330
1E
100
AcDbEntity
  8
躯体と製品
  6
Continuous
 62
     4
100
AcDbLine
 10
1851.434888479893
 20
760.2442479099878
 30
0.0
 11
1852.434888479893
 21
761.2442479099882
 31
0.0
  0
LINE
  5
6E5E
330
1E
100
AcDbEntity
  8
躯体と製品
  6
Continuous
 62
     4
100
AcDbLine
 10
1852.849102042266
 20
760.2442479099876
 30
0.0
 11
1853.849102042266
 21
761.2442479099878
 31
0.0
  0
LINE
  5
6E5F
330
1E
100
AcDbEntity
  8
躯体と製品
  6
Continuous
 62
     4
100
AcDbLine
 10
1854.263315604639
 20
760.2442479099875
 30
0.0
 11
1855.26331560464
 21
761.2442479099878
 31
0.0
  0
LINE
  5
6E60
330
1E
100
AcDbEntity
  8
躯体と製品
  6
Continuous
 62
     4
100
AcDbLine
 10
1855.677529167013
 20
760.2442479099882
 30
0.0
 11
1856.677529167013
 21
761.2442479099878
 31
0.0
  0
LINE
  5
6E61
330
1E
100
AcDbEntity
  8
躯体と製品
  6
Continuous
 62
     4
100
AcDbLine
 10
1857.091742729387
 20
760.2442479099882
 30
0.0
 11
1858.091742729386
 21
761.2442479099878
 31
0.0
  0
LINE
  5
6E62
330
1E
100
AcDbEntity
  8
躯体と製品
  6
Continuous
 62
     4
100
AcDbLine
 10
1858.50595629176
 20
760.2442479099878
 30
0.0
 11
1859.50595629176
 21
761.2442479099875
 31
0.0
  0
LINE
  5
6E63
330
1E
100
AcDbEntity
  8
躯体と製品
  6
Continuous
 62
     4
100
AcDbLine
 10
1859.920169854133
 20
760.2442479099878
 30
0.0
 11
1860.920169854133
 21
761.2442479099875
 31
0.0
  0
LINE
  5
6E64
330
1E
100
AcDbEntity
  8
躯体と製品
  6
Continuous
 62
     4
100
AcDbLine
 10
1861.334383416505
 20
760.2442479099882
 30
0.0
 11
1862.334383416505
 21
761.2442479099886
 31
0.0
  0
LINE
  5
6E65
330
1E
100
AcDbEntity
  8
躯体と製品
  6
Continuous
 62
     4
100
AcDbLine
 10
1862.748596978878
 20
760.2442479099882
 30
0.0
 11
1863.748596978879
 21
761.2442479099886
 31
0.0
  0
LINE
  5
6E66
330
1E
100
AcDbEntity
  8
躯体と製品
  6
Continuous
 62
     4
100
AcDbLine
 10
1864.162810541252
 20
760.2442479099882
 30
0.0
 11
1865.162810541252
 21
761.2442479099883
 31
0.0
  0
LINE
  5
6E67
330
1E
100
AcDbEntity
  8
躯体と製品
  6
Continuous
 62
     4
100
AcDbLine
 10
1865.577024103624
 20
760.2442479099878
 30
0.0
 11
1866.577024103625
 21
761.2442479099882
 31
0.0
  0
LINE
  5
6E68
330
1E
100
AcDbEntity
  8
躯体と製品
  6
Continuous
 62
     4
100
AcDbLine
 10
1866.991237665998
 20
760.2442479099882
 30
0.0
 11
1867.991237665998
 21
761.2442479099882
 31
0.0
  0
LINE
  5
6E69
330
1E
100
AcDbEntity
  8
躯体と製品
  6
Continuous
 62
     4
100
AcDbLine
 10
1868.405451228372
 20
760.2442479099886
 30
0.0
 11
1869.405451228372
 21
761.2442479099886
 31
0.0
  0
LINE
  5
6E6A
330
1E
100
AcDbEntity
  8
躯体と製品
  6
Continuous
 62
     4
100
AcDbLine
 10
1869.819664790745
 20
760.2442479099886
 30
0.0
 11
1870.695202452604
 21
761.1197855718475
 31
0.0
  0
LINE
  5
6E6B
330
1E
100
AcDbEntity
  8
躯体と製品
  6
Continuous
 62
     3
100
AcDbLine
 10
1870.695202452604
 20
760.2442479099882
 30
0.0
 11
1840.695202452604
 21
760.2442479099882
 31
0.0
  0
LINE
  5
6E6C
330
1E
100
AcDbEntity
  8
躯体と製品
  6
Continuous
 62
     3
100
AcDbLine
 10
1840.695202452604
 20
760.2442479099882
 30
0.0
 11
1840.695202452604
 21
761.2442479099882
 31
0.0
  0
LINE
  5
6E6D
330
1E
100
AcDbEntity
  8
躯体と製品
  6
Continuous
 62
     3
100
AcDbLine
 10
1840.695202452604
 20
761.2442479099882
 30
0.0
 11
1870.695202452604
 21
761.2442479099882
 31
0.0
  0
LINE
  5
6E6E
330
1E
100
AcDbEntity
  8
躯体と製品
  6
Continuous
 62
     3
100
AcDbLine
 10
1870.695202452604
 20
761.2442479099882
 30
0.0
 11
1870.695202452604
 21
760.2442479099882
 31
0.0
  0
LINE
  5
6E6F
330
1E
100
AcDbEntity
  8
躯体と製品
  6
Continuous
 62
     4
100
AcDbLine
 10
1620.695202452604
 20
760.8182703816837
 30
0.0
 11
1620.269224924299
 21
761.2442479099887
 31
0.0
  0
LINE
  5
6E70
330
1E
100
AcDbEntity
  8
躯体と製品
  6
Continuous
 62
     4
100
AcDbLine
 10
1619.855011361926
 20
760.2442479099882
 30
0.0
 11
1618.855011361926
 21
761.2442479099886
 31
0.0
  0
LINE
  5
6E71
330
1E
100
AcDbEntity
  8
躯体と製品
  6
Continuous
 62
     4
100
AcDbLine
 10
1618.440797799553
 20
760.2442479099882
 30
0.0
 11
1617.440797799553
 21
761.2442479099886
 31
0.0
  0
LINE
  5
6E72
330
1E
100
AcDbEntity
  8
躯体と製品
  6
Continuous
 62
     4
100
AcDbLine
 10
1617.02658423718
 20
760.2442479099886
 30
0.0
 11
1616.02658423718
 21
761.2442479099883
 31
0.0
  0
LINE
  5
6E73
330
1E
100
AcDbEntity
  8
躯体と製品
  6
Continuous
 62
     4
100
AcDbLine
 10
1615.612370674806
 20
760.2442479099886
 30
0.0
 11
1614.612370674806
 21
761.2442479099883
 31
0.0
  0
LINE
  5
6E74
330
1E
100
AcDbEntity
  8
躯体と製品
  6
Continuous
 62
     4
100
AcDbLine
 10
1614.198157112433
 20
760.2442479099886
 30
0.0
 11
1613.198157112433
 21
761.2442479099882
 31
0.0
  0
LINE
  5
6E75
330
1E
100
AcDbEntity
  8
躯体と製品
  6
Continuous
 62
     4
100
AcDbLine
 10
1612.783943550059
 20
760.2442479099886
 30
0.0
 11
1611.78394355006
 21
761.2442479099882
 31
0.0
  0
LINE
  5
6E76
330
1E
100
AcDbEntity
  8
躯体と製品
  6
Continuous
 62
     4
100
AcDbLine
 10
1611.369729987689
 20
760.2442479099878
 30
0.0
 11
1610.369729987688
 21
761.2442479099882
 31
0.0
  0
LINE
  5
6E77
330
1E
100
AcDbEntity
  8
躯体と製品
  6
Continuous
 62
     4
100
AcDbLine
 10
1609.955516425315
 20
760.2442479099878
 30
0.0
 11
1608.955516425315
 21
761.2442479099882
 31
0.0
  0
LINE
  5
6E78
330
1E
100
AcDbEntity
  8
躯体と製品
  6
Continuous
 62
     4
100
AcDbLine
 10
1608.541302862942
 20
760.2442479099876
 30
0.0
 11
1607.541302862942
 21
761.2442479099878
 31
0.0
  0
LINE
  5
6E79
330
1E
100
AcDbEntity
  8
躯体と製品
  6
Continuous
 62
     4
100
AcDbLine
 10
1607.127089300569
 20
760.2442479099875
 30
0.0
 11
1606.127089300569
 21
761.2442479099878
 31
0.0
  0
LINE
  5
6E7A
330
1E
100
AcDbEntity
  8
躯体と製品
  6
Continuous
 62
     4
100
AcDbLine
 10
1605.712875738195
 20
760.2442479099882
 30
0.0
 11
1604.712875738195
 21
761.2442479099878
 31
0.0
  0
LINE
  5
6E7B
330
1E
100
AcDbEntity
  8
躯体と製品
  6
Continuous
 62
     4
100
AcDbLine
 10
1604.298662175821
 20
760.2442479099882
 30
0.0
 11
1603.298662175822
 21
761.2442479099878
 31
0.0
  0
LINE
  5
6E7C
330
1E
100
AcDbEntity
  8
躯体と製品
  6
Continuous
 62
     4
100
AcDbLine
 10
1602.884448613449
 20
760.2442479099878
 30
0.0
 11
1601.884448613449
 21
761.2442479099875
 31
0.0
  0
LINE
  5
6E7D
330
1E
100
AcDbEntity
  8
躯体と製品
  6
Continuous
 62
     4
100
AcDbLine
 10
1601.470235051075
 20
760.2442479099878
 30
0.0
 11
1600.470235051076
 21
761.2442479099875
 31
0.0
  0
LINE
  5
6E7E
330
1E
100
AcDbEntity
  8
躯体と製品
  6
Continuous
 62
     4
100
AcDbLine
 10
1600.056021488703
 20
760.2442479099882
 30
0.0
 11
1599.056021488703
 21
761.2442479099886
 31
0.0
  0
LINE
  5
6E7F
330
1E
100
AcDbEntity
  8
躯体と製品
  6
Continuous
 62
     4
100
AcDbLine
 10
1598.64180792633
 20
760.2442479099882
 30
0.0
 11
1597.64180792633
 21
761.2442479099886
 31
0.0
  0
LINE
  5
6E80
330
1E
100
AcDbEntity
  8
躯体と製品
  6
Continuous
 62
     4
100
AcDbLine
 10
1597.227594363957
 20
760.2442479099882
 30
0.0
 11
1596.227594363957
 21
761.2442479099883
 31
0.0
  0
LINE
  5
6E81
330
1E
100
AcDbEntity
  8
躯体と製品
  6
Continuous
 62
     4
100
AcDbLine
 10
1595.813380801583
 20
760.2442479099878
 30
0.0
 11
1594.813380801584
 21
761.2442479099882
 31
0.0
  0
LINE
  5
6E82
330
1E
100
AcDbEntity
  8
躯体と製品
  6
Continuous
 62
     4
100
AcDbLine
 10
1594.39916723921
 20
760.2442479099882
 30
0.0
 11
1593.39916723921
 21
761.2442479099882
 31
0.0
  0
LINE
  5
6E83
330
1E
100
AcDbEntity
  8
躯体と製品
  6
Continuous
 62
     4
100
AcDbLine
 10
1592.984953676836
 20
760.2442479099886
 30
0.0
 11
1591.984953676837
 21
761.2442479099886
 31
0.0
  0
LINE
  5
6E84
330
1E
100
AcDbEntity
  8
躯体と製品
  6
Continuous
 62
     4
100
AcDbLine
 10
1591.570740114463
 20
760.2442479099886
 30
0.0
 11
1590.695202452604
 21
761.1197855718475
 31
0.0
  0
LINE
  5
6E85
330
1E
100
AcDbEntity
  8
躯体と製品
  6
Continuous
 62
     3
100
AcDbLine
 10
1590.695202452604
 20
760.2442479099882
 30
0.0
 11
1620.695202452604
 21
760.2442479099882
 31
0.0
  0
LINE
  5
6E86
330
1E
100
AcDbEntity
  8
躯体と製品
  6
Continuous
 62
     3
100
AcDbLine
 10
1620.695202452604
 20
761.2442479099882
 30
0.0
 11
1590.695202452604
 21
761.2442479099882
 31
0.0
  0
LINE
  5
6E87
330
1E
100
AcDbEntity
  8
躯体と製品
  6
Continuous
 62
     3
100
AcDbLine
 10
1590.695202452604
 20
761.2442479099882
 30
0.0
 11
1590.695202452604
 21
760.2442479099882
 31
0.0
  0
LINE
  5
6E88
330
1E
100
AcDbEntity
  8
躯体と製品
  6
Continuous
 62
     3
100
AcDbLine
 10
1620.695202452604
 20
760.2442479099882
 30
0.0
 11
1620.695202452604
 21
761.2442479099882
 31
0.0
  0
LINE
  5
6E9B
330
1E
100
AcDbEntity
  8
躯体と製品
  6
Continuous
 62
     7
100
AcDbLine
 10
1555.695202452604
 20
760.2442479099882
 30
0.0
 11
1555.695202452604
 21
610.2442479099882
 31
0.0
  0
LINE
  5
6E9C
330
1E
100
AcDbEntity
  8
躯体と製品
  6
Continuous
 62
     7
100
AcDbLine
 10
1680.695202452604
 20
760.2442479099882
 30
0.0
 11
1680.695202452604
 21
610.2442479099882
 31
0.0
  0
LINE
  5
6E9D
330
1E
100
AcDbEntity
  8
躯体と製品
  6
Continuous
 62
     7
100
AcDbLine
 10
1780.695202452604
 20
760.2442479099882
 30
0.0
 11
1780.695202452604
 21
610.2442479099882
 31
0.0
  0
LINE
  5
6E9E
330
1E
100
AcDbEntity
  8
躯体と製品
  6
Continuous
 62
     7
100
AcDbLine
 10
1905.695202452604
 20
760.2442479099882
 30
0.0
 11
1905.695202452604
 21
610.2442479099882
 31
0.0
  0
LINE
  5
6E9F
330
1E
100
AcDbEntity
  8
図枠
  6
Continuous
 62
     7
100
AcDbLine
 10
1777.695202452604
 20
405.2442479099883
 30
0.0
 11
1777.695202452604
 21
585.2442479099882
 31
0.0
  0
LINE
  5
6EA0
330
1E
100
AcDbEntity
  8
図枠
  6
Continuous
 62
     7
100
AcDbLine
 10
1759.695202452604
 20
405.2442479099883
 30
0.0
 11
1759.695202452604
 21
585.2442479099882
 31
0.0
  0
LINE
  5
6EA1
330
1E
100
AcDbEntity
  8
図枠
  6
Continuous
 62
     7
100
AcDbLine
 10
1724.695202452604
 20
405.2442479099883
 30
0.0
 11
1724.695202452604
 21
585.2442479099882
 31
0.0
  0
TEXT
  5
6EA2
330
1E
100
AcDbEntity
  8
図枠
 62
     7
100
AcDbText
 10
1666.195202452604
 20
576.2442479099879
 30
0.0
 40
5.0
  1
規　格
100
AcDbText
  0
TEXT
  5
6EA3
330
1E
100
AcDbEntity
  8
図枠
 62
     7
100
AcDbText
 10
1565.195202452604
 20
576.2442479099879
 30
0.0
 40
5.0
  1
部材名称
100
AcDbText
  0
TEXT
  5
6EA4
330
1E
100
AcDbEntity
  8
図枠
 62
     7
100
AcDbText
 10
1633.695202452604
 20
444.2442479099883
 30
0.0
 40
5.0
  1
Ｍ6×40
100
AcDbText
  0
TEXT
  5
6EA5
330
1E
100
AcDbEntity
  8
図枠
 62
     7
100
AcDbText
 10
1633.695202452604
 20
420.2442479099882
 30
0.0
 40
5.0
  1
1.5×18×6.5穴
100
AcDbText
  0
TEXT
  5
6EA6
330
1E
100
AcDbEntity
  8
図枠
 62
     7
100
AcDbText
 10
1633.695202452604
 20
432.2442479099882
 30
0.0
 40
5.0
  1
ＡＧ－660
100
AcDbText
  0
TEXT
  5
6EA7
330
1E
100
AcDbEntity
  8
図枠
 62
     7
100
AcDbText
 10
1633.695202452604
 20
480.2442479099882
 30
0.0
 40
5.0
  1
ＰＳ
100
AcDbText
  0
TEXT
  5
6EA8
330
1E
100
AcDbEntity
  8
図枠
 62
     7
100
AcDbText
 10
1533.695202452604
 20
420.2442479099882
 30
0.0
 40
5.0
  1
ステンワッシャー
100
AcDbText
  0
TEXT
  5
6EA9
330
1E
100
AcDbEntity
  8
図枠
 62
     7
100
AcDbText
 10
1533.695202452604
 20
432.2442479099882
 30
0.0
 40
5.0
  1
アジャストアンカー
100
AcDbText
  0
TEXT
  5
6EAA
330
1E
100
AcDbEntity
  8
図枠
 62
     7
100
AcDbText
 10
1533.695202452604
 20
444.2442479099883
 30
0.0
 40
5.0
  1
ステン六角ボルト
100
AcDbText
  0
TEXT
  5
6EAB
330
1E
100
AcDbEntity
  8
図枠
 62
     7
100
AcDbText
 10
1533.695202452604
 20
456.2442479099882
 30
0.0
 40
5.0
  1
ステン小ネジ
100
AcDbText
  0
TEXT
  5
6EAC
330
1E
100
AcDbEntity
  8
図枠
 62
     7
100
AcDbText
 10
1533.695202452604
 20
468.2442479099882
 30
0.0
 40
5.0
  1
止水補助板
100
AcDbText
  0
TEXT
  5
6EAD
330
1E
100
AcDbEntity
  8
図枠
 62
     7
100
AcDbText
 10
1533.695202452604
 20
480.2442479099882
 30
0.0
 40
5.0
  1
止水補助板
100
AcDbText
  0
TEXT
  5
6EAE
330
1E
100
AcDbEntity
  8
図枠
 62
     7
100
AcDbText
 10
1533.695202452604
 20
492.2442479099881
 30
0.0
 40
5.0
  1
ＦＹＹ水切ジョイント
100
AcDbText
  0
TEXT
  5
6EAF
330
1E
100
AcDbEntity
  8
図枠
 62
     7
100
AcDbText
 10
1533.695202452604
 20
504.2442479099882
 30
0.0
 40
5.0
  1
ＦＹＹフレームナット
100
AcDbText
  0
TEXT
  5
6EB0
330
1E
100
AcDbEntity
  8
図枠
 62
     7
100
AcDbText
 10
1533.695202452604
 20
528.2442479099882
 30
0.0
 40
5.0
  1
ＦＹＹホルダー
100
AcDbText
  0
TEXT
  5
6EB1
330
1E
100
AcDbEntity
  8
図枠
 62
     7
100
AcDbText
 10
1533.695202452604
 20
552.2442479099883
 30
0.0
 40
5.0
  1
ＦＹＹフレーム
100
AcDbText
  0
LINE
  5
6EB2
330
1E
100
AcDbEntity
  8
図枠
  6
Continuous
 62
     7
100
AcDbLine
 10
1723.695202452604
 20
405.2442479099883
 30
0.0
 11
1723.695202452604
 21
585.2442479099882
 31
0.0
  0
TEXT
  5
6EB3
330
1E
100
AcDbEntity
  8
図枠
 62
     7
100
AcDbText
 10
1633.695202452604
 20
408.2442479099881
 30
0.0
 40
5.0
  1
ｔ1.0×ｗ30
100
AcDbText
  0
LINE
  5
6EB4
330
1E
100
AcDbEntity
  8
図枠
  6
Continuous
 62
     7
100
AcDbLine
 10
1628.695202452604
 20
405.2442479099883
 30
0.0
 11
1628.695202452604
 21
585.2442479099882
 31
0.0
  0
TEXT
  5
6EB5
330
1E
100
AcDbEntity
  8
図枠
 62
     7
100
AcDbText
 10
1533.695202452604
 20
408.2442479099881
 30
0.0
 40
5.0
  1
ブチルテープ
100
AcDbText
  0
LINE
  5
6EB6
330
1E
100
AcDbEntity
  8
図枠
  6
Continuous
 62
     7
100
AcDbLine
 10
1528.695202452604
 20
405.2442479099883
 30
0.0
 11
1528.695202452604
 21
585.2442479099882
 31
0.0
  0
TEXT
  5
6EB7
330
1E
100
AcDbEntity
  8
図枠
 62
     7
100
AcDbText
 10
1533.695202452604
 20
564.2442479099882
 30
0.0
 40
5.0
  1
ＦＹＹキヤップＳ
100
AcDbText
  0
TEXT
  5
6EB8
330
1E
100
AcDbEntity
  8
図枠
 62
     7
100
AcDbText
 10
1533.695202452604
 20
516.2442479099882
 30
0.0
 40
5.0
  1
ＦＹＹホルダースプリング
100
AcDbText
  0
TEXT
  5
6EB9
330
1E
100
AcDbEntity
  8
図枠
 62
     7
100
AcDbText
 10
1633.695202452604
 20
456.2442479099882
 30
0.0
 40
5.0
  1
ナベＭ6×35
100
AcDbText
  0
LINE
  5
6EBA
330
1E
100
AcDbEntity
  8
図枠
  6
Continuous
 62
     7
100
AcDbLine
 10
1724.695202452604
 20
417.2442479099883
 30
0.0
 11
1791.695202452604
 21
417.2442479099883
 31
0.0
  0
LINE
  5
6EBB
330
1E
100
AcDbEntity
  8
図枠
  6
Continuous
 62
     7
100
AcDbLine
 10
1724.695202452604
 20
429.2442479099881
 30
0.0
 11
1791.695202452604
 21
429.2442479099881
 31
0.0
  0
LINE
  5
6EBC
330
1E
100
AcDbEntity
  8
図枠
  6
Continuous
 62
     7
100
AcDbLine
 10
1724.695202452604
 20
453.2442479099882
 30
0.0
 11
1791.695202452604
 21
453.2442479099882
 31
0.0
  0
LINE
  5
6EBD
330
1E
100
AcDbEntity
  8
図枠
  6
Continuous
 62
     7
100
AcDbLine
 10
1724.695202452604
 20
465.2442479099882
 30
0.0
 11
1791.695202452604
 21
465.2442479099882
 31
0.0
  0
LINE
  5
6EBE
330
1E
100
AcDbEntity
  8
図枠
  6
Continuous
 62
     7
100
AcDbLine
 10
1724.695202452604
 20
501.2442479099883
 30
0.0
 11
1791.695202452604
 21
501.2442479099883
 31
0.0
  0
LINE
  5
6EBF
330
1E
100
AcDbEntity
  8
図枠
  6
Continuous
 62
     7
100
AcDbLine
 10
1724.695202452604
 20
513.2442479099883
 30
0.0
 11
1791.695202452604
 21
513.2442479099883
 31
0.0
  0
LINE
  5
6EC0
330
1E
100
AcDbEntity
  8
図枠
  6
Continuous
 62
     7
100
AcDbLine
 10
1724.695202452604
 20
477.2442479099882
 30
0.0
 11
1791.695202452604
 21
477.2442479099882
 31
0.0
  0
LINE
  5
6EC1
330
1E
100
AcDbEntity
  8
図枠
  6
Continuous
 62
     7
100
AcDbLine
 10
1724.695202452604
 20
441.2442479099881
 30
0.0
 11
1791.695202452604
 21
441.2442479099881
 31
0.0
  0
LINE
  5
6EC2
330
1E
100
AcDbEntity
  8
図枠
  6
Continuous
 62
     7
100
AcDbLine
 10
1724.695202452604
 20
525.2442479099882
 30
0.0
 11
1791.695202452604
 21
525.2442479099882
 31
0.0
  0
LINE
  5
6EC3
330
1E
100
AcDbEntity
  8
図枠
  6
Continuous
 62
     7
100
AcDbLine
 10
1724.695202452604
 20
537.2442479099882
 30
0.0
 11
1791.695202452604
 21
537.2442479099882
 31
0.0
  0
LINE
  5
6EC4
330
1E
100
AcDbEntity
  8
図枠
  6
Continuous
 62
     7
100
AcDbLine
 10
1724.695202452604
 20
549.2442479099882
 30
0.0
 11
1791.695202452604
 21
549.2442479099882
 31
0.0
  0
LINE
  5
6EC5
330
1E
100
AcDbEntity
  8
図枠
  6
Continuous
 62
     7
100
AcDbLine
 10
1724.695202452604
 20
561.2442479099883
 30
0.0
 11
1791.695202452604
 21
561.2442479099883
 31
0.0
  0
LINE
  5
6EC6
330
1E
100
AcDbEntity
  8
図枠
  6
Continuous
 62
     7
100
AcDbLine
 10
1724.695202452604
 20
573.2442479099879
 30
0.0
 11
1791.695202452604
 21
573.2442479099879
 31
0.0
  0
LINE
  5
6EC7
330
1E
100
AcDbEntity
  8
図枠
  6
Continuous
 62
     7
100
AcDbLine
 10
1724.695202452604
 20
489.2442479099883
 30
0.0
 11
1791.695202452604
 21
489.2442479099883
 31
0.0
  0
LINE
  5
6EC8
330
1E
100
AcDbEntity
  8
図枠
  6
Continuous
 62
     7
100
AcDbLine
 10
1724.695202452604
 20
585.2442479099882
 30
0.0
 11
1791.695202452604
 21
585.2442479099882
 31
0.0
  0
LINE
  5
6EC9
330
1E
100
AcDbEntity
  8
図枠
  6
Continuous
 62
     7
100
AcDbLine
 10
1724.695202452604
 20
405.2442479099883
 30
0.0
 11
1791.695202452604
 21
405.2442479099883
 31
0.0
  0
LINE
  5
6ECA
330
1E
100
AcDbEntity
  8
図枠
  6
Continuous
 62
     7
100
AcDbLine
 10
1791.695202452604
 20
405.2442479099883
 30
0.0
 11
1791.695202452604
 21
585.2442479099882
 31
0.0
  0
TEXT
  5
6ECB
330
1E
100
AcDbEntity
  8
図枠
 62
     7
100
AcDbText
 10
1781.695202452604
 20
420.2442479099882
 30
0.0
 40
5.0
  1
枚
100
AcDbText
  0
TEXT
  5
6ECC
330
1E
100
AcDbEntity
  8
図枠
 62
     7
100
AcDbText
 10
1781.695202452604
 20
432.2442479099882
 30
0.0
 40
5.0
  1
〃
100
AcDbText
  0
TEXT
  5
6ECD
330
1E
100
AcDbEntity
  8
図枠
 62
     7
100
AcDbText
 10
1781.695202452604
 20
444.2442479099883
 30
0.0
 40
5.0
  1
〃
100
AcDbText
  0
TEXT
  5
6ECE
330
1E
100
AcDbEntity
  8
図枠
 62
     7
100
AcDbText
 10
1781.695202452604
 20
456.2442479099882
 30
0.0
 40
5.0
  1
本
100
AcDbText
  0
TEXT
  5
6ECF
330
1E
100
AcDbEntity
  8
図枠
 62
     7
100
AcDbText
 10
1781.695202452604
 20
468.2442479099882
 30
0.0
 40
5.0
  1
〃
100
AcDbText
  0
TEXT
  5
6ED0
330
1E
100
AcDbEntity
  8
図枠
 62
     7
100
AcDbText
 10
1781.695202452604
 20
480.2442479099882
 30
0.0
 40
5.0
  1
枚
100
AcDbText
  0
TEXT
  5
6ED1
330
1E
100
AcDbEntity
  8
図枠
 62
     7
100
AcDbText
 10
1781.695202452604
 20
492.2442479099881
 30
0.0
 40
5.0
  1
〃
100
AcDbText
  0
TEXT
  5
6ED2
330
1E
100
AcDbEntity
  8
図枠
 62
     7
100
AcDbText
 10
1781.695202452604
 20
504.2442479099882
 30
0.0
 40
5.0
  1
〃
100
AcDbText
  0
TEXT
  5
6ED3
330
1E
100
AcDbEntity
  8
図枠
 62
     7
100
AcDbText
 10
1781.695202452604
 20
516.2442479099882
 30
0.0
 40
5.0
  1
〃
100
AcDbText
  0
TEXT
  5
6ED4
330
1E
100
AcDbEntity
  8
図枠
 62
     7
100
AcDbText
 10
1781.695202452604
 20
528.2442479099882
 30
0.0
 40
5.0
  1
個
100
AcDbText
  0
TEXT
  5
6ED5
330
1E
100
AcDbEntity
  8
図枠
 62
     7
100
AcDbText
 10
1781.695202452604
 20
540.2442479099883
 30
0.0
 40
5.0
  1
〃
100
AcDbText
  0
TEXT
  5
6ED6
330
1E
100
AcDbEntity
  8
図枠
 62
     7
100
AcDbText
 10
1781.695202452604
 20
552.2442479099883
 30
0.0
 40
5.0
  1
〃
100
AcDbText
  0
TEXT
  5
6ED7
330
1E
100
AcDbEntity
  8
図枠
 62
     7
100
AcDbText
 10
1781.695202452604
 20
564.2442479099882
 30
0.0
 40
5.0
  1
本
100
AcDbText
  0
TEXT
  5
6ED8
330
1E
100
AcDbEntity
  8
図枠
 62
     7
100
AcDbText
 10
1778.195202452604
 20
576.2442479099879
 30
0.0
 40
5.0
  1
単位
100
AcDbText
  0
TEXT
  5
6ED9
330
1E
100
AcDbEntity
  8
図枠
 62
     7
100
AcDbText
 10
1781.695202452604
 20
408.2442479099881
 30
0.0
 40
5.0
  1
巻
100
AcDbText
  0
LINE
  5
6EDA
330
1E
100
AcDbEntity
  8
図枠
  6
Continuous
 62
     7
100
AcDbLine
 10
1723.695202452604
 20
537.2442479099882
 30
0.0
 11
1514.695202452604
 21
537.2442479099882
 31
0.0
  0
LINE
  5
6EDB
330
1E
100
AcDbEntity
  8
図枠
  6
Continuous
 62
     7
100
AcDbLine
 10
1723.695202452604
 20
549.2442479099882
 30
0.0
 11
1514.695202452604
 21
549.2442479099882
 31
0.0
  0
LINE
  5
6EDC
330
1E
100
AcDbEntity
  8
図枠
  6
Continuous
 62
     7
100
AcDbLine
 10
1723.695202452604
 20
561.2442479099883
 30
0.0
 11
1514.695202452604
 21
561.2442479099883
 31
0.0
  0
LINE
  5
6EDD
330
1E
100
AcDbEntity
  8
図枠
  6
Continuous
 62
     7
100
AcDbLine
 10
1723.695202452604
 20
573.2442479099879
 30
0.0
 11
1514.695202452604
 21
573.2442479099879
 31
0.0
  0
LINE
  5
6EDE
330
1E
100
AcDbEntity
  8
図枠
  6
Continuous
 62
     7
100
AcDbLine
 10
1723.695202452604
 20
453.2442479099882
 30
0.0
 11
1514.695202452604
 21
453.2442479099882
 31
0.0
  0
LINE
  5
6EDF
330
1E
100
AcDbEntity
  8
図枠
  6
Continuous
 62
     7
100
AcDbLine
 10
1723.695202452604
 20
465.2442479099882
 30
0.0
 11
1514.695202452604
 21
465.2442479099882
 31
0.0
  0
LINE
  5
6EE0
330
1E
100
AcDbEntity
  8
図枠
  6
Continuous
 62
     7
100
AcDbLine
 10
1723.695202452604
 20
489.2442479099883
 30
0.0
 11
1514.695202452604
 21
489.2442479099883
 31
0.0
  0
LINE
  5
6EE1
330
1E
100
AcDbEntity
  8
図枠
  6
Continuous
 62
     7
100
AcDbLine
 10
1723.695202452604
 20
501.2442479099883
 30
0.0
 11
1514.695202452604
 21
501.2442479099883
 31
0.0
  0
LINE
  5
6EE2
330
1E
100
AcDbEntity
  8
図枠
  6
Continuous
 62
     7
100
AcDbLine
 10
1723.695202452604
 20
513.2442479099883
 30
0.0
 11
1514.695202452604
 21
513.2442479099883
 31
0.0
  0
LINE
  5
6EE3
330
1E
100
AcDbEntity
  8
図枠
  6
Continuous
 62
     7
100
AcDbLine
 10
1723.695202452604
 20
525.2442479099882
 30
0.0
 11
1514.695202452604
 21
525.2442479099882
 31
0.0
  0
LINE
  5
6EE4
330
1E
100
AcDbEntity
  8
図枠
  6
Continuous
 62
     7
100
AcDbLine
 10
1723.695202452604
 20
477.2442479099882
 30
0.0
 11
1514.695202452604
 21
477.2442479099882
 31
0.0
  0
LINE
  5
6EE5
330
1E
100
AcDbEntity
  8
図枠
  6
Continuous
 62
     7
100
AcDbLine
 10
1723.695202452604
 20
417.2442479099883
 30
0.0
 11
1514.695202452604
 21
417.2442479099883
 31
0.0
  0
LINE
  5
6EE6
330
1E
100
AcDbEntity
  8
図枠
  6
Continuous
 62
     7
100
AcDbLine
 10
1723.695202452604
 20
429.2442479099881
 30
0.0
 11
1514.695202452604
 21
429.2442479099881
 31
0.0
  0
LINE
  5
6EE7
330
1E
100
AcDbEntity
  8
図枠
  6
Continuous
 62
     7
100
AcDbLine
 10
1723.695202452604
 20
441.2442479099881
 30
0.0
 11
1514.695202452604
 21
441.2442479099881
 31
0.0
  0
LINE
  5
6EE8
330
1E
100
AcDbEntity
  8
図枠
  6
Continuous
 62
     7
100
AcDbLine
 10
1723.695202452604
 20
585.2442479099882
 30
0.0
 11
1514.695202452604
 21
585.2442479099882
 31
0.0
  0
LINE
  5
6EE9
330
1E
100
AcDbEntity
  8
図枠
  6
Continuous
 62
     7
100
AcDbLine
 10
1723.695202452604
 20
405.2442479099883
 30
0.0
 11
1514.695202452604
 21
405.2442479099883
 31
0.0
  0
LINE
  5
6EEA
330
1E
100
AcDbEntity
  8
図枠
  6
Continuous
 62
     7
100
AcDbLine
 10
1514.695202452604
 20
405.2442479099883
 30
0.0
 11
1514.695202452604
 21
585.2442479099882
 31
0.0
  0
TEXT
  5
6EEB
330
1E
100
AcDbEntity
  8
図枠
 62
     7
100
AcDbText
 10
1518.445202452604
 20
420.2442479099882
 30
0.0
 40
5.0
  1
13
100
AcDbText
  0
TEXT
  5
6EEC
330
1E
100
AcDbEntity
  8
図枠
 62
     7
100
AcDbText
 10
1518.445202452604
 20
432.2442479099882
 30
0.0
 40
5.0
  1
12
100
AcDbText
  0
TEXT
  5
6EED
330
1E
100
AcDbEntity
  8
図枠
 62
     7
100
AcDbText
 10
1518.445202452604
 20
444.2442479099883
 30
0.0
 40
5.0
  1
11
100
AcDbText
  0
TEXT
  5
6EEE
330
1E
100
AcDbEntity
  8
図枠
 62
     7
100
AcDbText
 10
1518.445202452604
 20
456.2442479099882
 30
0.0
 40
5.0
  1
10
100
AcDbText
  0
TEXT
  5
6EEF
330
1E
100
AcDbEntity
  8
図枠
 62
     7
100
AcDbText
 10
1518.445202452604
 20
468.2442479099882
 30
0.0
 40
5.0
  1
 9
100
AcDbText
  0
TEXT
  5
6EF0
330
1E
100
AcDbEntity
  8
図枠
 62
     7
100
AcDbText
 10
1518.445202452604
 20
480.2442479099882
 30
0.0
 40
5.0
  1
 8
100
AcDbText
  0
TEXT
  5
6EF1
330
1E
100
AcDbEntity
  8
図枠
 62
     7
100
AcDbText
 10
1518.445202452604
 20
492.2442479099881
 30
0.0
 40
5.0
  1
 7
100
AcDbText
  0
TEXT
  5
6EF2
330
1E
100
AcDbEntity
  8
図枠
 62
     7
100
AcDbText
 10
1518.445202452604
 20
504.2442479099882
 30
0.0
 40
5.0
  1
 6
100
AcDbText
  0
TEXT
  5
6EF3
330
1E
100
AcDbEntity
  8
図枠
 62
     7
100
AcDbText
 10
1518.445202452604
 20
516.2442479099882
 30
0.0
 40
5.0
  1
 5
100
AcDbText
  0
TEXT
  5
6EF4
330
1E
100
AcDbEntity
  8
図枠
 62
     7
100
AcDbText
 10
1518.445202452604
 20
528.2442479099882
 30
0.0
 40
5.0
  1
 4
100
AcDbText
  0
TEXT
  5
6EF5
330
1E
100
AcDbEntity
  8
図枠
 62
     7
100
AcDbText
 10
1518.445202452604
 20
540.2442479099883
 30
0.0
 40
5.0
  1
 3
100
AcDbText
  0
TEXT
  5
6EF6
330
1E
100
AcDbEntity
  8
図枠
 62
     7
100
AcDbText
 10
1518.445202452604
 20
552.2442479099883
 30
0.0
 40
5.0
  1
 2
100
AcDbText
  0
TEXT
  5
6EF7
330
1E
100
AcDbEntity
  8
図枠
 62
     7
100
AcDbText
 10
1518.695202452604
 20
408.2442479099881
 30
0.0
 40
5.0
  1
※
100
AcDbText
  0
TEXT
  5
6EF8
330
1E
100
AcDbEntity
  8
図枠
 62
     7
100
AcDbText
 10
1735.445202452604
 20
468.2442479099882
 30
0.0
 40
5.0
  1
2100
100
AcDbText
  0
TEXT
  5
6EF9
330
1E
100
AcDbEntity
  8
図枠
 62
     7
100
AcDbText
 10
1735.445202452604
 20
480.2442479099882
 30
0.0
 40
5.0
  1
2060
100
AcDbText
  0
TEXT
  5
6EFA
330
1E
100
AcDbEntity
  8
図枠
 62
     7
100
AcDbText
 10
1735.445202452604
 20
540.2442479099883
 30
0.0
 40
5.0
  1
2010
100
AcDbText
  0
TEXT
  5
6EFB
330
1E
100
AcDbEntity
  8
図枠
 62
     7
100
AcDbText
 10
1735.445202452604
 20
552.2442479099883
 30
0.0
 40
5.0
  1
2000
100
AcDbText
  0
TEXT
  5
6EFC
330
1E
100
AcDbEntity
  8
図枠
 62
     7
100
AcDbText
 10
1735.445202452604
 20
564.2442479099882
 30
0.0
 40
5.0
  1
2000
100
AcDbText
  0
TEXT
  5
6EFD
330
1E
100
AcDbEntity
  8
図枠
 62
     7
100
AcDbText
 10
1728.445202452604
 20
576.2442479099879
 30
0.0
 40
5.0
  1
定尺(mm)
100
AcDbText
  0
TEXT
  5
6EFE
330
1E
100
AcDbEntity
  8
図枠
 62
     7
100
AcDbText
 10
1735.445202452604
 20
408.2442479099881
 30
0.0
 40
5.0
  1
6000
100
AcDbText
  0
TEXT
  5
6EFF
330
1E
100
AcDbEntity
  8
図枠
 62
     7
100
AcDbText
 10
1765.445202452604
 20
420.2442479099882
 30
0.0
 40
5.0
  1
10
100
AcDbText
  0
TEXT
  5
6F00
330
1E
100
AcDbEntity
  8
図枠
 62
     7
100
AcDbText
 10
1765.445202452604
 20
432.2442479099882
 30
0.0
 40
5.0
  1
10
100
AcDbText
  0
TEXT
  5
6F01
330
1E
100
AcDbEntity
  8
図枠
 62
     7
100
AcDbText
 10
1765.445202452604
 20
468.2442479099882
 30
0.0
 40
5.0
  1
 1
100
AcDbText
  0
TEXT
  5
6F02
330
1E
100
AcDbEntity
  8
図枠
 62
     7
100
AcDbText
 10
1765.445202452604
 20
480.2442479099882
 30
0.0
 40
5.0
  1
 2
100
AcDbText
  0
TEXT
  5
6F03
330
1E
100
AcDbEntity
  8
図枠
 62
     7
100
AcDbText
 10
1765.445202452604
 20
492.2442479099881
 30
0.0
 40
5.0
  1
 1
100
AcDbText
  0
TEXT
  5
6F04
330
1E
100
AcDbEntity
  8
図枠
 62
     7
100
AcDbText
 10
1765.445202452604
 20
504.2442479099882
 30
0.0
 40
5.0
  1
 8
100
AcDbText
  0
TEXT
  5
6F05
330
1E
100
AcDbEntity
  8
図枠
 62
     7
100
AcDbText
 10
1765.445202452604
 20
516.2442479099882
 30
0.0
 40
5.0
  1
 8
100
AcDbText
  0
TEXT
  5
6F06
330
1E
100
AcDbEntity
  8
図枠
 62
     7
100
AcDbText
 10
1765.445202452604
 20
528.2442479099882
 30
0.0
 40
5.0
  1
 4
100
AcDbText
  0
TEXT
  5
6F07
330
1E
100
AcDbEntity
  8
図枠
 62
     7
100
AcDbText
 10
1765.445202452604
 20
540.2442479099883
 30
0.0
 40
5.0
  1
 2
100
AcDbText
  0
TEXT
  5
6F08
330
1E
100
AcDbEntity
  8
図枠
 62
     7
100
AcDbText
 10
1765.445202452604
 20
552.2442479099883
 30
0.0
 40
5.0
  1
 2
100
AcDbText
  0
TEXT
  5
6F09
330
1E
100
AcDbEntity
  8
図枠
 62
     7
100
AcDbText
 10
1765.445202452604
 20
564.2442479099882
 30
0.0
 40
5.0
  1
 1
100
AcDbText
  0
TEXT
  5
6F0A
330
1E
100
AcDbEntity
  8
図枠
 62
     7
100
AcDbText
 10
1762.195202452604
 20
576.2442479099879
 30
0.0
 40
5.0
  1
入数
100
AcDbText
  0
TEXT
  5
6F0B
330
1E
100
AcDbEntity
  8
図枠
 62
     7
100
AcDbText
 10
1765.445202452604
 20
408.2442479099881
 30
0.0
 40
5.0
  1
 1
100
AcDbText
  0
TEXT
  5
6F0C
330
1E
100
AcDbEntity
  8
図枠
 62
     7
100
AcDbText
 10
1765.445202452604
 20
444.2442479099883
 30
0.0
 40
5.0
  1
10
100
AcDbText
  0
TEXT
  5
6F0D
330
1E
100
AcDbEntity
  8
図枠
 62
     7
100
AcDbText
 10
1765.445202452604
 20
456.2442479099882
 30
0.0
 40
5.0
  1
10
100
AcDbText
  0
TEXT
  5
6F0E
330
1E
100
AcDbEntity
  8
図枠
 62
     7
100
AcDbText
 10
1518.445202452604
 20
564.2442479099882
 30
0.0
 40
5.0
  1
 1
100
AcDbText
  0
TEXT
  5
6F0F
330
1E
100
AcDbEntity
  8
図枠
 62
     7
100
AcDbText
 10
1516.695202452604
 20
576.2442479099879
 30
0.0
 40
5.0
  1
No.
100
AcDbText
  0
TEXT
  5
6F10
330
1E
100
AcDbEntity
  8
図枠
 62
     7
100
AcDbText
 10
1898.695202452604
 20
576.2442479099881
 30
0.0
 40
5.0
  1
Ｗ
100
AcDbText
  0
TEXT
  5
6F11
330
1E
100
AcDbEntity
  8
図枠
 62
     7
100
AcDbText
 10
1834.695201952604
 20
576.2442479099881
 30
0.0
 40
5.0
  1
タ　イ　プ
100
AcDbText
  0
TEXT
  5
6F12
330
1E
100
AcDbEntity
  8
図枠
 62
     7
100
AcDbText
 10
1896.695202452604
 20
564.2442479099882
 30
0.0
 40
5.0
  1
450
100
AcDbText
  0
TEXT
  5
6F13
330
1E
100
AcDbEntity
  8
図枠
 62
     7
100
AcDbText
 10
1896.695202452604
 20
456.2442479099882
 30
0.0
 40
5.0
  1
900
100
AcDbText
  0
TEXT
  5
6F14
330
1E
100
AcDbEntity
  8
図枠
 62
     7
100
AcDbText
 10
1896.695202452604
 20
468.2442479099882
 30
0.0
 40
5.0
  1
850
100
AcDbText
  0
TEXT
  5
6F15
330
1E
100
AcDbEntity
  8
図枠
 62
     7
100
AcDbText
 10
1896.695202452604
 20
480.2442479099882
 30
0.0
 40
5.0
  1
800
100
AcDbText
  0
TEXT
  5
6F16
330
1E
100
AcDbEntity
  8
図枠
 62
     7
100
AcDbText
 10
1896.695202452604
 20
492.2442479099881
 30
0.0
 40
5.0
  1
750
100
AcDbText
  0
TEXT
  5
6F17
330
1E
100
AcDbEntity
  8
図枠
 62
     7
100
AcDbText
 10
1896.695202452604
 20
504.2442479099882
 30
0.0
 40
5.0
  1
700
100
AcDbText
  0
TEXT
  5
6F18
330
1E
100
AcDbEntity
  8
図枠
 62
     7
100
AcDbText
 10
1896.695202452604
 20
516.2442479099882
 30
0.0
 40
5.0
  1
650
100
AcDbText
  0
TEXT
  5
6F19
330
1E
100
AcDbEntity
  8
図枠
 62
     7
100
AcDbText
 10
1896.695202452604
 20
528.2442479099882
 30
0.0
 40
5.0
  1
600
100
AcDbText
  0
TEXT
  5
6F1A
330
1E
100
AcDbEntity
  8
図枠
 62
     7
100
AcDbText
 10
1896.695202452604
 20
540.2442479099883
 30
0.0
 40
5.0
  1
550
100
AcDbText
  0
TEXT
  5
6F1B
330
1E
100
AcDbEntity
  8
図枠
 62
     7
100
AcDbText
 10
1896.695202452604
 20
552.2442479099883
 30
0.0
 40
5.0
  1
500
100
AcDbText
  0
LINE
  5
6F1C
330
1E
100
AcDbEntity
  8
図枠
  6
Continuous
 62
     7
100
AcDbLine
 10
1811.695202452604
 20
585.2442479099882
 30
0.0
 11
1811.695202452604
 21
453.2442479099882
 31
0.0
  0
LINE
  5
6F1D
330
1E
100
AcDbEntity
  8
図枠
  6
Continuous
 62
     7
100
AcDbLine
 10
1886.695202452605
 20
585.2442479099882
 30
0.0
 11
1886.695202452605
 21
453.2442479099882
 31
0.0
  0
TEXT
  5
6F1E
330
1E
100
AcDbEntity
  8
図枠
 62
     7
100
AcDbText
 10
1821.445202452604
 20
552.2442479099883
 30
0.0
 40
5.0
  1
 　　〃　　　500
100
AcDbText
  0
TEXT
  5
6F1F
330
1E
100
AcDbEntity
  8
図枠
 62
     7
100
AcDbText
 10
1821.445202452604
 20
540.2442479099883
 30
0.0
 40
5.0
  1
 　　〃　　　550
100
AcDbText
  0
TEXT
  5
6F20
330
1E
100
AcDbEntity
  8
図枠
 62
     7
100
AcDbText
 10
1821.445202452604
 20
528.2442479099882
 30
0.0
 40
5.0
  1
 　　〃　　　600
100
AcDbText
  0
TEXT
  5
6F21
330
1E
100
AcDbEntity
  8
図枠
 62
     7
100
AcDbText
 10
1821.445202452604
 20
516.2442479099882
 30
0.0
 40
5.0
  1
 　　〃　　　650
100
AcDbText
  0
TEXT
  5
6F22
330
1E
100
AcDbEntity
  8
図枠
 62
     7
100
AcDbText
 10
1821.445202452604
 20
504.2442479099882
 30
0.0
 40
5.0
  1
 　　〃　　　700
100
AcDbText
  0
TEXT
  5
6F23
330
1E
100
AcDbEntity
  8
図枠
 62
     7
100
AcDbText
 10
1821.445202452604
 20
492.2442479099881
 30
0.0
 40
5.0
  1
 　　〃　　　750
100
AcDbText
  0
TEXT
  5
6F24
330
1E
100
AcDbEntity
  8
図枠
 62
     7
100
AcDbText
 10
1821.445202452604
 20
480.2442479099882
 30
0.0
 40
5.0
  1
 　　〃　　　800
100
AcDbText
  0
TEXT
  5
6F25
330
1E
100
AcDbEntity
  8
図枠
 62
     7
100
AcDbText
 10
1821.445202452604
 20
468.2442479099882
 30
0.0
 40
5.0
  1
 　　〃　　　850
100
AcDbText
  0
TEXT
  5
6F26
330
1E
100
AcDbEntity
  8
図枠
 62
     7
100
AcDbText
 10
1821.445202452604
 20
456.2442479099882
 30
0.0
 40
5.0
  1
 　　〃　　　900
100
AcDbText
  0
TEXT
  5
6F27
330
1E
100
AcDbEntity
  8
図枠
 62
     7
100
AcDbText
 10
1821.445202452604
 20
564.2442479099882
 30
0.0
 40
5.0
  1
100ＦＹＹ－Ｓ450
100
AcDbText
  0
LINE
  5
6F28
330
1E
100
AcDbEntity
  8
図枠
  6
Continuous
 62
     7
100
AcDbLine
 10
1946.695202452604
 20
585.2442479099882
 30
0.0
 11
1811.695202452604
 21
585.2442479099882
 31
0.0
  0
LINE
  5
6F29
330
1E
100
AcDbEntity
  8
図枠
  6
Continuous
 62
     7
100
AcDbLine
 10
1946.695202452604
 20
453.2442479099882
 30
0.0
 11
1811.695202452604
 21
453.2442479099882
 31
0.0
  0
LINE
  5
6F2A
330
1E
100
AcDbEntity
  8
図枠
  6
Continuous
 62
     7
100
AcDbLine
 10
1946.695202452604
 20
465.2442479099882
 30
0.0
 11
1811.695202452604
 21
465.2442479099882
 31
0.0
  0
LINE
  5
6F2B
330
1E
100
AcDbEntity
  8
図枠
  6
Continuous
 62
     7
100
AcDbLine
 10
1946.695202452604
 20
477.2442479099882
 30
0.0
 11
1811.695202452604
 21
477.2442479099882
 31
0.0
  0
LINE
  5
6F2C
330
1E
100
AcDbEntity
  8
図枠
  6
Continuous
 62
     7
100
AcDbLine
 10
1946.695202452604
 20
489.2442479099883
 30
0.0
 11
1811.695202452604
 21
489.2442479099883
 31
0.0
  0
LINE
  5
6F2D
330
1E
100
AcDbEntity
  8
図枠
  6
Continuous
 62
     7
100
AcDbLine
 10
1946.695202452604
 20
501.2442479099883
 30
0.0
 11
1811.695202452604
 21
501.2442479099883
 31
0.0
  0
LINE
  5
6F2E
330
1E
100
AcDbEntity
  8
図枠
  6
Continuous
 62
     7
100
AcDbLine
 10
1946.695202452604
 20
513.2442479099883
 30
0.0
 11
1811.695202452604
 21
513.2442479099883
 31
0.0
  0
LINE
  5
6F2F
330
1E
100
AcDbEntity
  8
図枠
  6
Continuous
 62
     7
100
AcDbLine
 10
1946.695202452604
 20
525.2442479099882
 30
0.0
 11
1811.695202452604
 21
525.2442479099882
 31
0.0
  0
LINE
  5
6F30
330
1E
100
AcDbEntity
  8
図枠
  6
Continuous
 62
     7
100
AcDbLine
 10
1946.695202452604
 20
537.2442479099882
 30
0.0
 11
1811.695202452604
 21
537.2442479099882
 31
0.0
  0
LINE
  5
6F31
330
1E
100
AcDbEntity
  8
図枠
  6
Continuous
 62
     7
100
AcDbLine
 10
1946.695202452604
 20
549.2442479099882
 30
0.0
 11
1811.695202452604
 21
549.2442479099882
 31
0.0
  0
LINE
  5
6F32
330
1E
100
AcDbEntity
  8
図枠
  6
Continuous
 62
     7
100
AcDbLine
 10
1946.695202452604
 20
561.2442479099883
 30
0.0
 11
1811.695202452604
 21
561.2442479099883
 31
0.0
  0
LINE
  5
6F33
330
1E
100
AcDbEntity
  8
図枠
  6
Continuous
 62
     7
100
AcDbLine
 10
1946.695202452604
 20
573.2442479099882
 30
0.0
 11
1811.695202452604
 21
573.2442479099882
 31
0.0
  0
TEXT
  5
6F34
330
1E
100
AcDbEntity
  8
図枠
 62
     7
100
AcDbText
 10
1926.695202452604
 20
456.2442479099882
 30
0.0
 40
5.0
  1
325
100
AcDbText
  0
TEXT
  5
6F35
330
1E
100
AcDbEntity
  8
図枠
 62
     7
100
AcDbText
 10
1926.695202452604
 20
468.2442479099882
 30
0.0
 40
5.0
  1
300
100
AcDbText
  0
TEXT
  5
6F36
330
1E
100
AcDbEntity
  8
図枠
 62
     7
100
AcDbText
 10
1926.695202452604
 20
480.2442479099882
 30
0.0
 40
5.0
  1
275
100
AcDbText
  0
TEXT
  5
6F37
330
1E
100
AcDbEntity
  8
図枠
 62
     7
100
AcDbText
 10
1926.695202452604
 20
492.2442479099881
 30
0.0
 40
5.0
  1
250
100
AcDbText
  0
TEXT
  5
6F38
330
1E
100
AcDbEntity
  8
図枠
 62
     7
100
AcDbText
 10
1926.695202452604
 20
504.2442479099882
 30
0.0
 40
5.0
  1
225
100
AcDbText
  0
TEXT
  5
6F39
330
1E
100
AcDbEntity
  8
図枠
 62
     7
100
AcDbText
 10
1926.695202452604
 20
516.2442479099882
 30
0.0
 40
5.0
  1
200
100
AcDbText
  0
TEXT
  5
6F3A
330
1E
100
AcDbEntity
  8
図枠
 62
     7
100
AcDbText
 10
1926.695202452604
 20
528.2442479099882
 30
0.0
 40
5.0
  1
175
100
AcDbText
  0
TEXT
  5
6F3B
330
1E
100
AcDbEntity
  8
図枠
 62
     7
100
AcDbText
 10
1926.695202452604
 20
540.2442479099883
 30
0.0
 40
5.0
  1
150
100
AcDbText
  0
TEXT
  5
6F3C
330
1E
100
AcDbEntity
  8
図枠
 62
     7
100
AcDbText
 10
1926.695202452604
 20
552.2442479099883
 30
0.0
 40
5.0
  1
125
100
AcDbText
  0
TEXT
  5
6F3D
330
1E
100
AcDbEntity
  8
図枠
 62
     7
100
AcDbText
 10
1926.695202452604
 20
564.2442479099882
 30
0.0
 40
5.0
  1
100
100
AcDbText
  0
TEXT
  5
6F3E
330
1E
100
AcDbEntity
  8
図枠
 62
     7
100
AcDbText
 10
1928.695202452604
 20
576.2442479099881
 30
0.0
 40
5.0
  1
Ｃ
100
AcDbText
  0
LINE
  5
6F3F
330
1E
100
AcDbEntity
  8
図枠
  6
Continuous
 62
     7
100
AcDbLine
 10
1946.695202452604
 20
585.2442479099882
 30
0.0
 11
1946.695202452604
 21
453.2442479099882
 31
0.0
  0
LINE
  5
6F40
330
1E
100
AcDbEntity
  8
図枠
  6
Continuous
 62
     7
100
AcDbLine
 10
1916.695202452604
 20
585.2442479099882
 30
0.0
 11
1916.695202452604
 21
453.2442479099882
 31
0.0
  0
TEXT
  5
6F41
330
1E
100
AcDbEntity
  8
図枠
 62
     7
100
AcDbText
 10
1633.695202452604
 20
564.2442479099882
 30
0.0
 40
5.0
  1
100ＦＹＹ－Ｓ450～900
100
AcDbText
  0
TEXT
  5
6F42
330
1E
100
AcDbEntity
  8
図枠
 62
     7
100
AcDbText
 10
1633.695202452604
 20
528.2442479099882
 30
0.0
 40
5.0
  1
100ＦＹＹＨ－450～900
100
AcDbText
  0
TEXT
  5
6F43
330
1E
100
AcDbEntity
  8
図枠
 62
     7
100
AcDbText
 10
1633.695202452604
 20
492.2442479099881
 30
0.0
 40
5.0
  1
100ＦＹＹＪ－450～900
100
AcDbText
  0
TEXT
  5
6F44
330
1E
100
AcDbEntity
  8
図枠
 62
     7
100
AcDbText
 10
1633.695202452604
 20
468.2442479099882
 30
0.0
 40
5.0
  1
ＦＳ400～700
100
AcDbText
  0
TEXT
  5
6F45
330
1E
100
AcDbEntity
  8
図枠
 62
     7
100
AcDbText
 10
1642.195202452604
 20
823.3276001936294
 30
0.0
 40
5.0
  1
勾配３度
100
AcDbText
  0
LINE
  5
6F46
330
1E
100
AcDbEntity
  8
躯体と製品
  6
Continuous
 62
     7
100
AcDbLine
 10
1682.670927496454
 20
759.4186982554439
 30
0.0
 11
1687.727967667339
 21
701.6164646050518
 31
0.0
  0
LINE
  5
6F47
330
1E
100
AcDbEntity
  8
躯体と製品
  6
Continuous
 62
     7
100
AcDbLine
 10
1681.674732798362
 20
759.3315425126964
 30
0.0
 11
1686.731772969248
 21
701.5293088623042
 31
0.0
  0
ARC
  5
6F48
330
1E
100
AcDbEntity
  8
躯体と製品
  6
Continuous
 62
     7
100
AcDbCircle
 10
1730.695202452604
 20
705.3756105518194
 30
0.0
 40
44.13136264183103
100
AcDbArc
 50
184.9999999999994
 51
355.0000000000006
  0
ARC
  5
6F49
330
1E
100
AcDbEntity
  8
躯体と製品
  6
Continuous
 62
     7
100
AcDbCircle
 10
1730.695202452604
 20
705.3756105518194
 30
0.0
 40
43.13136264183103
100
AcDbArc
 50
184.9999999999994
 51
355.0000000000006
  0
LINE
  5
6F4A
330
1E
100
AcDbEntity
  8
躯体と製品
  6
Continuous
 62
     7
100
AcDbLine
 10
1778.719477408755
 20
759.4186982554439
 30
0.0
 11
1773.662437237869
 21
701.6164646050518
 31
0.0
  0
LINE
  5
6F4B
330
1E
100
AcDbEntity
  8
躯体と製品
  6
Continuous
 62
     7
100
AcDbLine
 10
1779.715672106846
 20
759.3315425126964
 30
0.0
 11
1774.65863193596
 21
701.5293088623042
 31
0.0
  0
ARC
  5
6F4C
330
1E
100
AcDbEntity
  8
躯体と製品
  6
Continuous
 62
     7
100
AcDbCircle
 10
1680.67853810027
 20
759.2443867699487
 30
0.0
 40
1.0
100
AcDbArc
 50
4.999999999999459
 51
89.0451587461321
  0
ARC
  5
6F4D
330
1E
100
AcDbEntity
  8
躯体と製品
  6
Continuous
 62
     7
100
AcDbCircle
 10
1780.711866804938
 20
759.2443867699487
 30
0.0
 40
1.0
100
AcDbArc
 50
90.95484125386787
 51
175.0000000000005
  0
LINE
  5
6F72
330
1E
100
AcDbEntity
  8
躯体と製品
  6
Continuous
 62
     7
100
AcDbLine
 10
1855.695202452604
 20
761.2442479099882
 30
0.0
 11
1855.695202452604
 21
762.2442479099881
 31
0.0
  0
ARC
  5
6F73
330
1E
100
AcDbEntity
  8
躯体と製品
  6
Continuous
 62
     7
100
AcDbCircle
 10
1870.695202452604
 20
752.9942479099881
 30
0.0
 40
8.25
100
AcDbArc
 50
71.07535558394559
 51
90.0
  0
ARC
  5
6F74
330
1E
100
AcDbEntity
  8
躯体と製品
  6
Continuous
 62
     7
100
AcDbCircle
 10
1876.695202452604
 20
770.4942479099882
 30
0.0
 40
10.25
100
AcDbArc
 50
251.0753555839456
 51
270.0
  0
ARC
  5
6F75
330
1E
100
AcDbEntity
  8
躯体と製品
  6
Continuous
 62
     7
100
AcDbCircle
 10
1840.695202452604
 20
752.9942479099881
 30
0.0
 40
8.25
100
AcDbArc
 50
90.0
 51
108.9246444160544
  0
ARC
  5
6F76
330
1E
100
AcDbEntity
  8
躯体と製品
  6
Continuous
 62
     7
100
AcDbCircle
 10
1834.695202452604
 20
770.4942479099882
 30
0.0
 40
10.25
100
AcDbArc
 50
270.0
 51
288.9246444160544
  0
ARC
  5
6F77
330
1E
100
AcDbEntity
  8
躯体と製品
  6
Continuous
 62
     7
100
AcDbCircle
 10
1840.695202452604
 20
752.9942479099881
 30
0.0
 40
9.25
100
AcDbArc
 50
90.0
 51
108.9246444160544
  0
LINE
  5
6F78
330
1E
100
AcDbEntity
  8
躯体と製品
  6
Continuous
 62
     7
100
AcDbLine
 10
1870.695202452604
 20
762.2442479099881
 30
0.0
 11
1840.695202452604
 21
762.2442479099881
 31
0.0
  0
ARC
  5
6F79
330
1E
100
AcDbEntity
  8
躯体と製品
  6
Continuous
 62
     7
100
AcDbCircle
 10
1870.695202452604
 20
752.9942479099881
 30
0.0
 40
9.25
100
AcDbArc
 50
71.07535558394559
 51
90.0
  0
ARC
  5
6F7A
330
1E
100
AcDbEntity
  8
躯体と製品
  6
Continuous
 62
     7
100
AcDbCircle
 10
1876.695202452604
 20
770.4942479099882
 30
0.0
 40
9.25
100
AcDbArc
 50
251.0753555839456
 51
270.0
  0
ARC
  5
6F7B
330
1E
100
AcDbEntity
  8
躯体と製品
  6
Continuous
 62
     7
100
AcDbCircle
 10
1834.695202452604
 20
770.4942479099882
 30
0.0
 40
9.25
100
AcDbArc
 50
270.0
 51
288.9246444160544
  0
LINE
  5
6F7C
330
1E
100
AcDbEntity
  8
躯体と製品
  6
Continuous
 62
     7
100
AcDbLine
 10
1605.695202452604
 20
761.2442479099882
 30
0.0
 11
1605.695202452604
 21
762.2442479099881
 31
0.0
  0
ARC
  5
6F7D
330
1E
100
AcDbEntity
  8
躯体と製品
  6
Continuous
 62
     7
100
AcDbCircle
 10
1620.695202452604
 20
752.9942479099881
 30
0.0
 40
8.25
100
AcDbArc
 50
71.07535558394559
 51
90.0
  0
ARC
  5
6F7E
330
1E
100
AcDbEntity
  8
躯体と製品
  6
Continuous
 62
     7
100
AcDbCircle
 10
1626.695202452604
 20
770.4942479099882
 30
0.0
 40
10.25
100
AcDbArc
 50
251.0753555839456
 51
270.0
  0
ARC
  5
6F7F
330
1E
100
AcDbEntity
  8
躯体と製品
  6
Continuous
 62
     7
100
AcDbCircle
 10
1590.695202452604
 20
752.9942479099881
 30
0.0
 40
8.25
100
AcDbArc
 50
90.0
 51
108.9246444160544
  0
ARC
  5
6F80
330
1E
100
AcDbEntity
  8
躯体と製品
  6
Continuous
 62
     7
100
AcDbCircle
 10
1584.695202452604
 20
770.4942479099882
 30
0.0
 40
10.25
100
AcDbArc
 50
270.0
 51
288.9246444160544
  0
ARC
  5
6F81
330
1E
100
AcDbEntity
  8
躯体と製品
  6
Continuous
 62
     7
100
AcDbCircle
 10
1590.695202452604
 20
752.9942479099881
 30
0.0
 40
9.25
100
AcDbArc
 50
90.0
 51
108.9246444160544
  0
LINE
  5
6F82
330
1E
100
AcDbEntity
  8
躯体と製品
  6
Continuous
 62
     7
100
AcDbLine
 10
1620.695202452604
 20
762.2442479099881
 30
0.0
 11
1590.695202452604
 21
762.2442479099881
 31
0.0
  0
ARC
  5
6F83
330
1E
100
AcDbEntity
  8
躯体と製品
  6
Continuous
 62
     7
100
AcDbCircle
 10
1620.695202452604
 20
752.9942479099881
 30
0.0
 40
9.25
100
AcDbArc
 50
71.07535558394559
 51
90.0
  0
ARC
  5
6F84
330
1E
100
AcDbEntity
  8
躯体と製品
  6
Continuous
 62
     7
100
AcDbCircle
 10
1626.695202452604
 20
770.4942479099882
 30
0.0
 40
9.25
100
AcDbArc
 50
251.0753555839456
 51
270.0
  0
ARC
  5
6F85
330
1E
100
AcDbEntity
  8
躯体と製品
  6
Continuous
 62
     7
100
AcDbCircle
 10
1584.695202452604
 20
770.4942479099882
 30
0.0
 40
9.25
100
AcDbArc
 50
270.0
 51
288.9246444160544
  0
ARC
  5
6F86
330
1E
100
AcDbEntity
  8
躯体と製品
  6
Continuous
 62
     7
100
AcDbCircle
 10
1555.723762226503
 20
759.2446558235276
 30
0.0
 40
2.0
100
AcDbArc
 50
91.15721505311539
 51
175.0000000000005
  0
LINE
  5
6F87
330
1E
100
AcDbEntity
  8
躯体と製品
  6
Continuous
 62
     7
100
AcDbLine
 10
1584.695202452604
 20
761.2442479099882
 30
0.0
 11
1555.683370547118
 21
761.2442479099882
 31
0.0
  0
LINE
  5
6F88
330
1E
100
AcDbEntity
  8
躯体と製品
  6
Continuous
 62
     7
100
AcDbLine
 10
1626.695202452604
 20
761.2442479099882
 30
0.0
 11
1680.70210546244
 21
761.2442479099882
 31
0.0
  0
ARC
  5
6F89
330
1E
100
AcDbEntity
  8
躯体と製品
  6
Continuous
 62
     7
100
AcDbCircle
 10
1680.67853810027
 20
759.2443867699487
 30
0.0
 40
2.0
100
AcDbArc
 50
4.999999999999459
 51
89.3248291809412
  0
ARC
  5
6F8A
330
1E
100
AcDbEntity
  8
躯体と製品
  6
Continuous
 62
     7
100
AcDbCircle
 10
1780.711866804938
 20
759.2443867699487
 30
0.0
 40
2.0
100
AcDbArc
 50
90.67517081888942
 51
175.0000000000005
  0
LINE
  5
6F8B
330
1E
100
AcDbEntity
  8
躯体と製品
  6
Continuous
 62
     7
100
AcDbLine
 10
1834.695202452604
 20
761.2442479099882
 30
0.0
 11
1780.688299442774
 21
761.2442479099882
 31
0.0
  0
LINE
  5
6F8C
330
1E
100
AcDbEntity
  8
躯体と製品
  6
Continuous
 62
     7
100
AcDbLine
 10
1876.695202452604
 20
761.2442479099882
 30
0.0
 11
1905.707034358092
 21
761.2442479099882
 31
0.0
  0
ARC
  5
6F8D
330
1E
100
AcDbEntity
  8
躯体と製品
  6
Continuous
 62
     7
100
AcDbCircle
 10
1905.666642678705
 20
759.2446558235276
 30
0.0
 40
2.0
100
AcDbArc
 50
4.999999999999459
 51
88.84278494683243
  0
TEXT
  5
6F8E
330
1E
100
AcDbEntity
  8
図枠
 62
     7
100
AcDbText
 10
1905.695202452604
 20
586.0797680681125
 30
0.0
 40
5.0
  1
（単位：mm）
100
AcDbText
  0
LINE
  5
6F8F
330
1E
100
AcDbEntity
  8
躯体と製品
  6
Continuous
 62
     7
100
AcDbLine
 10
1846.695202452604
 20
766.2442479099881
 30
0.0
 11
1864.695202452604
 21
766.2442479099881
 31
0.0
  0
LINE
  5
6F90
330
1E
100
AcDbEntity
  8
躯体と製品
  6
Continuous
 62
     7
100
AcDbLine
 10
1864.695202452604
 20
766.2442479099881
 30
0.0
 11
1864.695202452604
 21
764.7442479099882
 31
0.0
  0
LINE
  5
6F91
330
1E
100
AcDbEntity
  8
躯体と製品
  6
Continuous
 62
     7
100
AcDbLine
 10
1846.695202452604
 20
766.2442479099881
 30
0.0
 11
1846.695202452604
 21
764.7442479099882
 31
0.0
  0
ARC
  5
6F92
330
1E
100
AcDbEntity
  8
躯体と製品
  6
Continuous
 62
     7
100
AcDbCircle
 10
1855.695202452604
 20
761.6330948704323
 30
0.0
 40
9.553418012635715
100
AcDbArc
 50
72.41204622604974
 51
107.5879537739502
  0
ARC
  5
6F93
330
1E
100
AcDbEntity
  8
躯体と製品
  6
Continuous
 62
     7
100
AcDbCircle
 10
1851.365075433682
 20
768.6306901346398
 30
0.0
 40
2.555822748428199
100
AcDbArc
 50
55.61575253203897
 51
124.384247467961
  0
ARC
  5
6F94
330
1E
100
AcDbEntity
  8
躯体と製品
  6
Continuous
 62
     7
100
AcDbCircle
 10
1860.025329471526
 20
768.6306901346398
 30
0.0
 40
2.555822748428199
100
AcDbArc
 50
55.61575253203897
 51
124.384247467961
  0
LINE
  5
6F95
330
1E
100
AcDbEntity
  8
躯体と製品
  6
Continuous
 62
     7
100
AcDbLine
 10
1849.921699760708
 20
770.7399308956838
 30
0.0
 11
1849.921699760708
 21
766.2442479099881
 31
0.0
  0
LINE
  5
6F96
330
1E
100
AcDbEntity
  8
躯体と製品
  6
Continuous
 62
     7
100
AcDbLine
 10
1850.795202452604
 20
771.2442479099881
 30
0.0
 11
1849.921699760708
 21
770.7399308956838
 31
0.0
  0
LINE
  5
6F97
330
1E
100
AcDbEntity
  8
躯体と製品
  6
Continuous
 62
     7
100
AcDbLine
 10
1850.795202452604
 20
771.2442479099881
 30
0.0
 11
1860.595202452604
 21
771.2442479099881
 31
0.0
  0
LINE
  5
6F98
330
1E
100
AcDbEntity
  8
躯体と製品
  6
Continuous
 62
     7
100
AcDbLine
 10
1860.595202452604
 20
771.2442479099881
 30
0.0
 11
1861.4687051445
 21
770.7399308956838
 31
0.0
  0
LINE
  5
6F99
330
1E
100
AcDbEntity
  8
躯体と製品
  6
Continuous
 62
     7
100
AcDbLine
 10
1852.808451106656
 20
770.7399308956838
 30
0.0
 11
1852.808451106656
 21
766.2442479099881
 31
0.0
  0
LINE
  5
6F9A
330
1E
100
AcDbEntity
  8
躯体と製品
  6
Continuous
 62
     7
100
AcDbLine
 10
1858.581953798552
 20
770.7399308956838
 30
0.0
 11
1858.581953798552
 21
766.2442479099881
 31
0.0
  0
LINE
  5
6F9B
330
1E
100
AcDbEntity
  8
躯体と製品
  6
Continuous
 62
     7
100
AcDbLine
 10
1861.4687051445
 20
770.7399308956838
 30
0.0
 11
1861.4687051445
 21
766.2442479099881
 31
0.0
  0
CIRCLE
  5
6F9C
330
1E
100
AcDbEntity
  8
図枠
  6
Continuous
 62
     4
100
AcDbCircle
 10
1905.668543191364
 20
793.8424420100926
 30
0.0
 40
0.9
  0
CIRCLE
  5
6F9D
330
1E
100
AcDbEntity
  8
図枠
  6
Continuous
 62
     4
100
AcDbCircle
 10
1857.749647490036
 20
795.7074175972556
 30
0.0
 40
0.9
  0
CIRCLE
  5
6F9E
330
1E
100
AcDbEntity
  8
図枠
  6
Continuous
 62
     4
100
AcDbCircle
 10
1853.569191476602
 20
735.1615865118414
 30
0.0
 40
0.9
  0
CIRCLE
  5
6F9F
330
1E
100
AcDbEntity
  8
図枠
  6
Continuous
 62
     4
100
AcDbCircle
 10
1873.299031480993
 20
798.4296702406873
 30
0.0
 40
0.9
  0
CIRCLE
  5
6FA0
330
1E
100
AcDbEntity
  8
図枠
  6
Continuous
 62
     4
100
AcDbCircle
 10
1860.0326132813
 20
768.3448200572463
 30
0.0
 40
0.9
  0
CIRCLE
  5
6FA1
330
1E
100
AcDbEntity
  8
図枠
  6
Continuous
 62
     4
100
AcDbCircle
 10
1865.872685180748
 20
775.7328628216087
 30
0.0
 40
0.9
  0
CIRCLE
  5
6FA2
330
1E
100
AcDbEntity
  8
図枠
  6
Continuous
 62
     4
100
AcDbCircle
 10
1922.593858302974
 20
823.1579477175143
 30
0.0
 40
6.0
  0
LINE
  5
6FA3
330
1E
100
AcDbEntity
  8
図枠
  6
Continuous
 62
     4
100
AcDbLine
 10
1905.668543191364
 20
793.8424420100926
 30
0.0
 11
1919.593858302974
 21
817.9617952948078
 31
0.0
  0
CIRCLE
  5
6FA4
330
1E
100
AcDbEntity
  8
図枠
  6
Continuous
 62
     4
100
AcDbCircle
 10
1873.216894036783
 20
773.9955848959439
 30
0.0
 40
0.9
  0
CIRCLE
  5
6FA5
330
1E
100
AcDbEntity
  8
図枠
  6
Continuous
 62
     4
100
AcDbCircle
 10
1901.029948292233
 20
822.1692079800527
 30
0.0
 40
6.0
  0
LINE
  5
6FA6
330
1E
100
AcDbEntity
  8
図枠
  6
Continuous
 62
     4
100
AcDbLine
 10
1873.216894036783
 20
773.9955848959439
 30
0.0
 11
1898.029948292233
 21
816.9730555573462
 31
0.0
  0
CIRCLE
  5
6FA7
330
1E
100
AcDbEntity
  8
図枠
  6
Continuous
 62
     4
100
AcDbCircle
 10
1894.586121253369
 20
835.2999912717223
 30
0.0
 40
6.0
  0
LINE
  5
6FA8
330
1E
100
AcDbEntity
  8
図枠
  6
Continuous
 62
     4
100
AcDbLine
 10
1873.299031480993
 20
798.4296702406873
 30
0.0
 11
1891.586121253369
 21
830.1038388490153
 31
0.0
  0
CIRCLE
  5
6FA9
330
1E
100
AcDbEntity
  8
図枠
  6
Continuous
 62
     4
100
AcDbCircle
 10
1878.575180029068
 20
831.7782980495383
 30
0.0
 40
6.0
  0
LINE
  5
6FAA
330
1E
100
AcDbEntity
  8
図枠
  6
Continuous
 62
     4
100
AcDbLine
 10
1857.749647490036
 20
795.7074175972556
 30
0.0
 11
1875.575180029068
 21
826.5821456268318
 31
0.0
  0
CIRCLE
  5
6FAB
330
1E
100
AcDbEntity
  8
図枠
  6
Continuous
 62
     4
100
AcDbCircle
 10
1880.654371312516
 20
750.1302314198494
 30
0.0
 40
6.0
  0
LINE
  5
6FAC
330
1E
100
AcDbEntity
  8
図枠
  6
Continuous
 62
     4
100
AcDbLine
 10
1865.872685180748
 20
775.7328628216087
 30
0.0
 11
1877.654371312516
 21
755.3263838425564
 31
0.0
  0
CIRCLE
  5
6FAD
330
1E
100
AcDbEntity
  8
図枠
  6
Continuous
 62
     4
100
AcDbCircle
 10
1879.454998946156
 20
734.7042612815175
 30
0.0
 40
6.0
  0
LINE
  5
6FAE
330
1E
100
AcDbEntity
  8
図枠
  6
Continuous
 62
     4
100
AcDbLine
 10
1860.0326132813
 20
768.3448200572463
 30
0.0
 11
1876.454998946156
 21
739.9004137042241
 31
0.0
  0
CIRCLE
  5
6FAF
330
1E
100
AcDbEntity
  8
図枠
  6
Continuous
 62
     4
100
AcDbCircle
 10
1840.527577281855
 20
712.5728481138289
 30
0.0
 40
6.0
  0
LINE
  5
6FB0
330
1E
100
AcDbEntity
  8
図枠
  6
Continuous
 62
     4
100
AcDbLine
 10
1853.569191476602
 20
735.1615865118414
 30
0.0
 11
1843.527577281855
 21
717.7690005365356
 31
0.0
  0
CIRCLE
  5
6FB1
330
1E
100
AcDbEntity
  8
図枠
  6
Continuous
 62
     4
100
AcDbCircle
 10
1848.573450699583
 20
765.4804048425658
 30
0.0
 40
0.9
  0
CIRCLE
  5
6FB2
330
1E
100
AcDbEntity
  8
図枠
  6
Continuous
 62
     4
100
AcDbCircle
 10
1835.876197067703
 20
743.4881164355622
 30
0.0
 40
6.0
  0
LINE
  5
6FB3
330
1E
100
AcDbEntity
  8
図枠
  6
Continuous
 62
     4
100
AcDbLine
 10
1848.573450699583
 20
765.4804048425658
 30
0.0
 11
1838.876197067703
 21
748.6842688582687
 31
0.0
  0
TEXT
  5
6FB4
330
1E
100
AcDbEntity
  8
図枠
 62
     7
100
AcDbText
 10
1891.586121253369
 20
832.2999912717223
 30
0.0
 40
5.0
  1
５
100
AcDbText
  0
TEXT
  5
6FB5
330
1E
100
AcDbEntity
  8
図枠
 62
     7
100
AcDbText
 10
1875.325180029069
 20
828.7782980495382
 30
0.0
 40
5.0
  1
10
100
AcDbText
  0
TEXT
  5
6FB6
330
1E
100
AcDbEntity
  8
図枠
 62
     7
100
AcDbText
 10
1919.593858302974
 20
820.1579477175144
 30
0.0
 40
5.0
  1
４
100
AcDbText
  0
TEXT
  5
6FB7
330
1E
100
AcDbEntity
  8
図枠
 62
     7
100
AcDbText
 10
1898.029948292233
 20
819.1692079800528
 30
0.0
 40
5.0
  1
２
100
AcDbText
  0
TEXT
  5
6FB8
330
1E
100
AcDbEntity
  8
図枠
 62
     7
100
AcDbText
 10
1877.654371312516
 20
747.1302314198494
 30
0.0
 40
5.0
  1
６
100
AcDbText
  0
TEXT
  5
6FB9
330
1E
100
AcDbEntity
  8
図枠
 62
     7
100
AcDbText
 10
1832.626197067703
 20
740.4881164355624
 30
0.0
 40
5.0
  1
13
100
AcDbText
  0
TEXT
  5
6FBA
330
1E
100
AcDbEntity
  8
図枠
 62
     7
100
AcDbText
 10
1876.204998946156
 20
731.7042612815176
 30
0.0
 40
5.0
  1
11
100
AcDbText
  0
TEXT
  5
6FBB
330
1E
100
AcDbEntity
  8
図枠
 62
     7
100
AcDbText
 10
1837.277577281855
 20
709.5728481138289
 30
0.0
 40
5.0
  1
12
100
AcDbText
  0
LINE
  5
6FBC
330
1E
100
AcDbEntity
  8
躯体と製品
  6
Continuous
 62
     7
100
AcDbLine
 10
1614.695202452604
 20
766.2442479099881
 30
0.0
 11
1596.695202452604
 21
766.2442479099881
 31
0.0
  0
LINE
  5
6FBD
330
1E
100
AcDbEntity
  8
躯体と製品
  6
Continuous
 62
     7
100
AcDbLine
 10
1596.695202452604
 20
766.2442479099881
 30
0.0
 11
1596.695202452604
 21
764.7442479099882
 31
0.0
  0
LINE
  5
6FBE
330
1E
100
AcDbEntity
  8
躯体と製品
  6
Continuous
 62
     7
100
AcDbLine
 10
1614.695202452604
 20
766.2442479099881
 30
0.0
 11
1614.695202452604
 21
764.7442479099882
 31
0.0
  0
ARC
  5
6FBF
330
1E
100
AcDbEntity
  8
躯体と製品
  6
Continuous
 62
     7
100
AcDbCircle
 10
1605.695202452604
 20
761.6330948704323
 30
0.0
 40
9.553418012635715
100
AcDbArc
 50
72.41204622604974
 51
107.5879537739502
  0
ARC
  5
6FC0
330
1E
100
AcDbEntity
  8
躯体と製品
  6
Continuous
 62
     7
100
AcDbCircle
 10
1610.025329471526
 20
768.6306901346398
 30
0.0
 40
2.555822748428199
100
AcDbArc
 50
55.61575253203897
 51
124.384247467961
  0
ARC
  5
6FC1
330
1E
100
AcDbEntity
  8
躯体と製品
  6
Continuous
 62
     7
100
AcDbCircle
 10
1601.365075433682
 20
768.6306901346398
 30
0.0
 40
2.555822748428199
100
AcDbArc
 50
55.61575253203897
 51
124.384247467961
  0
LINE
  5
6FC2
330
1E
100
AcDbEntity
  8
躯体と製品
  6
Continuous
 62
     7
100
AcDbLine
 10
1611.4687051445
 20
770.7399308956838
 30
0.0
 11
1611.4687051445
 21
766.2442479099881
 31
0.0
  0
LINE
  5
6FC3
330
1E
100
AcDbEntity
  8
躯体と製品
  6
Continuous
 62
     7
100
AcDbLine
 10
1610.595202452604
 20
771.2442479099881
 30
0.0
 11
1611.4687051445
 21
770.7399308956838
 31
0.0
  0
LINE
  5
6FC4
330
1E
100
AcDbEntity
  8
躯体と製品
  6
Continuous
 62
     7
100
AcDbLine
 10
1610.595202452604
 20
771.2442479099881
 30
0.0
 11
1600.795202452604
 21
771.2442479099881
 31
0.0
  0
LINE
  5
6FC5
330
1E
100
AcDbEntity
  8
躯体と製品
  6
Continuous
 62
     7
100
AcDbLine
 10
1600.795202452604
 20
771.2442479099881
 30
0.0
 11
1599.921699760708
 21
770.7399308956838
 31
0.0
  0
LINE
  5
6FC6
330
1E
100
AcDbEntity
  8
躯体と製品
  6
Continuous
 62
     7
100
AcDbLine
 10
1608.581953798552
 20
770.7399308956838
 30
0.0
 11
1608.581953798552
 21
766.2442479099881
 31
0.0
  0
LINE
  5
6FC7
330
1E
100
AcDbEntity
  8
躯体と製品
  6
Continuous
 62
     7
100
AcDbLine
 10
1602.808451106656
 20
770.7399308956838
 30
0.0
 11
1602.808451106656
 21
766.2442479099881
 31
0.0
  0
LINE
  5
6FC8
330
1E
100
AcDbEntity
  8
躯体と製品
  6
Continuous
 62
     7
100
AcDbLine
 10
1599.921699760708
 20
770.7399308956838
 30
0.0
 11
1599.921699760708
 21
766.2442479099881
 31
0.0
  0
CIRCLE
  5
6FC9
330
1E
100
AcDbEntity
  8
図枠
  6
Continuous
 62
     4
100
AcDbCircle
 10
1964.117912634583
 20
789.8338738122104
 30
0.0
 40
0.9
  0
LINE
  5
6FCA
330
1E
100
AcDbEntity
  8
図枠
  6
Continuous
 62
     4
100
AcDbLine
 10
1964.117912634583
 20
789.8338738122104
 30
0.0
 11
1987.754393777985
 21
830.7734600647261
 31
0.0
  0
TEXT
  5
6FCB
330
1E
100
AcDbEntity
  8
図枠
 62
     7
100
AcDbText
 10
1987.754393777985
 20
832.9696124874327
 30
0.0
 40
5.0
  1
７
100
AcDbText
  0
CIRCLE
  5
6FCC
330
1E
100
AcDbEntity
  8
図枠
  6
Continuous
 62
     4
100
AcDbCircle
 10
1990.754393777985
 20
835.9696124874327
 30
0.0
 40
6.0
  0
CIRCLE
  5
6FCD
330
1E
100
AcDbEntity
  8
図枠
  6
Continuous
 62
     4
100
AcDbCircle
 10
1699.958429327443
 20
674.3668480739999
 30
0.0
 40
0.9
  0
LINE
  5
6FCE
330
1E
100
AcDbEntity
  8
図枠
  6
Continuous
 62
     4
100
AcDbLine
 10
1699.958429327443
 20
674.3668480739999
 30
0.0
 11
1713.841716513865
 21
698.4134068569524
 31
0.0
  0
TEXT
  5
6FCF
330
1E
100
AcDbEntity
  8
図枠
 62
     7
100
AcDbText
 10
1713.841716513865
 20
700.6095592796589
 30
0.0
 40
5.0
  1
９
100
AcDbText
  0
CIRCLE
  5
6FD0
330
1E
100
AcDbEntity
  8
図枠
  6
Continuous
 62
     4
100
AcDbCircle
 10
1716.841716513865
 20
703.6095592796589
 30
0.0
 40
6.0
  0
LINE
  5
6FD1
330
1E
100
AcDbEntity
  8
躯体と製品
  6
Continuous
 62
     7
100
AcDbLine
 10
1852.65516389667
 20
771.2442479099881
 30
0.0
 11
1852.247170960971
 21
771.6973699703368
 31
0.0
  0
LINE
  5
6FD2
330
1E
100
AcDbEntity
  8
躯体と製品
  6
Continuous
 62
     4
100
AcDbLine
 10
1853.078625296373
 20
776.6999508903627
 30
0.0
 11
1852.792704018744
 21
771.2442479099881
 31
0.0
  0
LINE
  5
6FD3
330
1E
100
AcDbEntity
  8
躯体と製品
  6
Continuous
 62
     4
100
AcDbLine
 10
1857.934960723885
 20
776.4454411351534
 30
0.0
 11
1857.662377737333
 21
771.2442479099881
 31
0.0
  0
LINE
  5
6FD4
330
1E
100
AcDbEntity
  8
躯体と製品
  6
Continuous
 62
     7
100
AcDbLine
 10
1858.238948169499
 20
771.3833542328792
 30
0.0
 11
1858.084454946405
 21
771.2442479099881
 31
0.0
  0
LINE
  5
6FD5
330
1E
100
AcDbEntity
  8
躯体と製品
  6
Continuous
 62
     7
100
AcDbLine
 10
1603.151456735709
 20
771.3833542328792
 30
0.0
 11
1603.305949958804
 21
771.2442479099881
 31
0.0
  0
LINE
  5
6FD6
330
1E
100
AcDbEntity
  8
躯体と製品
  6
Continuous
 62
     4
100
AcDbLine
 10
1603.455444181323
 20
776.4454411351534
 30
0.0
 11
1603.728027167876
 21
771.2442479099881
 31
0.0
  0
LINE
  5
6FD7
330
1E
100
AcDbEntity
  8
躯体と製品
  6
Continuous
 62
     4
100
AcDbLine
 10
1608.311779608835
 20
776.6999508903627
 30
0.0
 11
1608.597700886464
 21
771.2442479099881
 31
0.0
  0
LINE
  5
6FD8
330
1E
100
AcDbEntity
  8
躯体と製品
  6
Continuous
 62
     7
100
AcDbLine
 10
1608.735241008538
 20
771.2442479099881
 30
0.0
 11
1609.143233944237
 21
771.6973699703368
 31
0.0
  0
CIRCLE
  5
6FD9
330
1E
100
AcDbEntity
  8
図枠
  6
Continuous
 62
     4
100
AcDbCircle
 10
1945.225472768006
 20
724.5119742538818
 30
0.0
 40
0.9
  0
LINE
  5
6FDA
330
1E
100
AcDbEntity
  8
図枠
  6
Continuous
 62
     4
100
AcDbLine
 10
1945.225472768006
 20
724.5119742538818
 30
0.0
 11
1955.682920304637
 21
706.3991438029519
 31
0.0
  0
CIRCLE
  5
6FDB
330
1E
100
AcDbEntity
  8
図枠
  6
Continuous
 62
     4
100
AcDbCircle
 10
1958.682920304637
 20
701.2029913802454
 30
0.0
 40
6.0
  0
TEXT
  5
6FDC
330
1E
100
AcDbEntity
  8
図枠
 62
     7
100
AcDbText
 10
1955.682920304637
 20
698.2029913802453
 30
0.0
 40
5.0
  1
８
100
AcDbText
  0
CIRCLE
  5
6FDD
330
1E
100
AcDbEntity
  8
図枠
  6
Continuous
 62
     4
100
AcDbCircle
 10
1516.164932137202
 20
724.5119742538818
 30
0.0
 40
0.9
  0
LINE
  5
6FDE
330
1E
100
AcDbEntity
  8
図枠
  6
Continuous
 62
     4
100
AcDbLine
 10
1516.164932137202
 20
724.5119742538818
 30
0.0
 11
1505.707484600572
 21
706.3991438029519
 31
0.0
  0
CIRCLE
  5
6FDF
330
1E
100
AcDbEntity
  8
図枠
  6
Continuous
 62
     4
100
AcDbCircle
 10
1502.707484600572
 20
701.2029913802454
 30
0.0
 40
6.0
  0
TEXT
  5
6FE0
330
1E
100
AcDbEntity
  8
図枠
 62
     7
100
AcDbText
 10
1499.707484600572
 20
698.2029913802453
 30
0.0
 40
5.0
  1
８
100
AcDbText
  0
CIRCLE
  5
6FE1
330
1E
100
AcDbEntity
  8
図枠
  6
Continuous
 62
     4
100
AcDbCircle
 10
1963.904558424482
 20
807.9803495204959
 30
0.0
 40
0.9
  0
LINE
  5
6FE2
330
1E
100
AcDbEntity
  8
図枠
  6
Continuous
 62
     4
100
AcDbLine
 10
1963.904558424482
 20
807.9803495204959
 30
0.0
 11
1989.041039567884
 21
851.5180119843652
 31
0.0
  0
TEXT
  5
6FE3
330
1E
100
AcDbEntity
  8
図枠
 62
     7
100
AcDbText
 10
1989.041039567884
 20
853.7141644070716
 30
0.0
 40
5.0
  1
１
100
AcDbText
  0
CIRCLE
  5
6FE4
330
1E
100
AcDbEntity
  8
図枠
  6
Continuous
 62
     4
100
AcDbCircle
 10
1992.041039567884
 20
856.7141644070716
 30
0.0
 40
6.0
  0
CIRCLE
  5
6FE5
330
1E
100
AcDbEntity
  8
図枠
  6
Continuous
 62
     4
100
AcDbCircle
 10
1963.086620092748
 20
742.2524161371227
 30
0.0
 40
0.9
  0
LINE
  5
6FE6
330
1E
100
AcDbEntity
  8
図枠
  6
Continuous
 62
     4
100
AcDbLine
 10
1963.086620092748
 20
742.2524161371227
 30
0.0
 11
1988.054633909104
 21
785.4982846311336
 31
0.0
  0
TEXT
  5
6FE7
330
1E
100
AcDbEntity
  8
図枠
 62
     7
100
AcDbText
 10
1988.054633909104
 20
787.6944370538407
 30
0.0
 40
5.0
  1
３
100
AcDbText
  0
CIRCLE
  5
6FE8
330
1E
100
AcDbEntity
  8
図枠
  6
Continuous
 62
     4
100
AcDbCircle
 10
1991.054633909104
 20
790.6944370538407
 30
0.0
 40
6.0
  0
LINE
  5
6FE9
330
1E
100
AcDbEntity
  8
図枠
  6
Continuous
 62
     4
100
AcDbLine
 10
1680.695202452604
 20
823.3433231582326
 30
0.0
 11
1630.695202452604
 21
823.3433231582326
 31
0.0
  0
LINE
  5
6FEA
330
1E
100
AcDbEntity
  8
図枠
  6
Continuous
 62
     4
100
AcDbLine
 10
1680.695202452604
 20
823.3433231582326
 30
0.0
 11
1630.695202452604
 21
820.7229341940807
 31
0.0
  0
LINE
  5
6FEB
330
1E
100
AcDbEntity
  8
図枠
  6
Continuous
 62
     4
100
AcDbLine
 10
1630.695202452604
 20
820.7229341940807
 30
0.0
 11
1630.695202452604
 21
823.3433231582326
 31
0.0
  0
LINE
  5
6FEC
330
1E
100
AcDbEntity
  8
躯体と製品
  6
CENTER1
 62
     4
100
AcDbLine
 10
1605.695202452604
 20
785.1677623378748
 30
0.0
 11
1605.695202452604
 21
696.2442479099881
 31
0.0
  0
LINE
  5
6FED
330
1E
100
AcDbEntity
  8
躯体と製品
  6
CENTER1
 62
     4
100
AcDbLine
 10
1603.970562590867
 20
813.0758512767895
 30
0.0
 11
1606.323233927519
 21
768.1842079208197
 31
0.0
  0
LINE
  5
6FEE
330
1E
100
AcDbEntity
  8
躯体と製品
  6
CENTER1
 62
     4
100
AcDbLine
 10
1730.695202452604
 20
831.8150310123415
 30
0.0
 11
1730.695202452604
 21
650.2442479099881
 31
0.0
  0
LINE
  5
6FEF
330
1E
100
AcDbEntity
  8
躯体と製品
  6
CENTER1
 62
     4
100
AcDbLine
 10
1855.695202452604
 20
785.1677623378748
 30
0.0
 11
1855.695202452604
 21
696.2442479099881
 31
0.0
  0
LINE
  5
6FF0
330
1E
100
AcDbEntity
  8
躯体と製品
  6
CENTER1
 62
     4
100
AcDbLine
 10
1857.419842314342
 20
813.0758512767895
 30
0.0
 11
1855.067170977689
 21
768.1842079208197
 31
0.0
  0
TEXT
  5
6FF1
330
1E
100
AcDbEntity
  8
図枠
 62
     7
100
AcDbText
 10
1533.695202452604
 20
540.2442479099883
 30
0.0
 40
5.0
  1
止水補助板ホルダーＡＬ
100
AcDbText
  0
TEXT
  5
6FF3
330
1E
100
AcDbEntity
  8
図枠
 62
     6
100
AcDbText
 10
1338.241711161739
 20
925.7138800667405
 30
0.0
 40
10.0
  1
◇ステンレス１００タイプ（１００ＦＹＹ－Ｓ）
100
AcDbText
  0
TEXT
  5
6FF4
330
1E
100
AcDbEntity
  8
図枠
 62
     6
100
AcDbText
 10
1338.627578482595
 20
896.9581011799151
 30
0.0
 40
10.0
  1
　　Ｓ＝１／２
100
AcDbText
  0
TEXT
  5
6FF5
330
1E
100
AcDbEntity
  8
図枠
 62
     6
100
AcDbText
 10
1338.627578482595
 20
912.193608426292
 30
0.0
 40
10.0
  1
　　屋根－屋根
100
AcDbText
  0
DIMENSION
  5
6FFA
330
1E
100
AcDbEntity
  8
寸法
  6
Continuous
100
AcDbDimension
  2
*D4
 10
1980.695202452604
 20
885.2442479099881
 30
0.0
 11
1730.695202452604
 21
888.7442479099881
 31
0.0
 70
    32
  1
W
 71
     5
 42
500.0
  3
AutoCAD
100
AcDbAlignedDimension
 13
1480.695202452604
 23
809.8549055716349
 33
0.0
 14
1980.695202452604
 24
809.8549055716349
 34
0.0
100
AcDbRotatedDimension
  0
DIMENSION
  5
7007
330
1E
100
AcDbEntity
  8
寸法
  6
Continuous
100
AcDbDimension
  2
*D5
 10
2040.695202452605
 20
717.854905571635
 30
0.0
 11
2037.195202452604
 21
762.8549055716352
 31
0.0
 70
    32
 71
     5
 42
89.99999999999989
  3
AutoCAD
100
AcDbAlignedDimension
 13
1982.695202452604
 23
807.8549055716347
 33
0.0
 14
1982.695202452604
 24
717.854905571635
 34
0.0
 50
90.0
100
AcDbRotatedDimension
  0
DIMENSION
  5
7014
330
1E
100
AcDbEntity
  8
寸法
  6
Continuous
100
AcDbDimension
  2
*D6
 10
2020.695202452605
 20
717.854905571635
 30
0.0
 11
2017.195202452604
 21
739.0495767408118
 31
0.0
 70
    32
  1
44
 71
     5
 42
42.38934233835323
  3
AutoCAD
100
AcDbAlignedDimension
 13
1909.39892893123
 23
760.2442479099882
 33
0.0
 14
1982.695202452604
 24
717.854905571635
 34
0.0
 50
90.0
100
AcDbRotatedDimension
  0
DIMENSION
  5
7021
330
1E
100
AcDbEntity
  8
寸法
  6
Continuous
100
AcDbDimension
  2
*D7
 10
1905.695202452605
 20
630.2442479099881
 30
0.0
 11
1943.195202452605
 21
633.7442479099881
 31
0.0
 70
    32
  1
75≦
 71
     5
 42
74.99999999999932
  3
AutoCAD
100
AcDbAlignedDimension
 13
1980.695202452604
 23
715.8549055716352
 33
0.0
 14
1905.695202452605
 24
630.2442479099881
 34
0.0
100
AcDbRotatedDimension
  0
DIMENSION
  5
702D
330
1E
100
AcDbEntity
  8
寸法
  6
Continuous
100
AcDbDimension
  2
*D8
 10
1780.695202452605
 20
630.2442479099881
 30
0.0
 11
1843.195202452605
 21
633.7442479099881
 31
0.0
 70
    32
  1
≦Ｃ
 71
     5
 42
125.0
  3
AutoCAD
100
AcDbAlignedDimension
 13
1905.695202452605
 23
630.2442479099881
 33
0.0
 14
1780.695202452605
 24
630.2442479099881
 34
0.0
100
AcDbRotatedDimension
1001
ACAD
1000
DSTYLE
1002
{
1070
   279
1070
     1
1002
}
  0
DIMENSION
  5
7038
330
1E
100
AcDbEntity
  8
寸法
  6
Continuous
100
AcDbDimension
  2
*D9
 10
1680.695202452605
 20
630.2442479099881
 30
0.0
 11
1730.695202452605
 21
633.7442479099881
 31
0.0
 70
    32
 71
     5
 42
100.0
  3
AutoCAD
100
AcDbAlignedDimension
 13
1780.695202452605
 23
630.2442479099881
 33
0.0
 14
1680.695202452605
 24
630.2442479099881
 34
0.0
100
AcDbRotatedDimension
1001
ACAD
1000
DSTYLE
1002
{
1070
   279
1070
     1
1002
}
  0
DIMENSION
  5
7043
330
1E
100
AcDbEntity
  8
寸法
  6
Continuous
100
AcDbDimension
  2
*D10
 10
1555.695202452603
 20
630.2442479099881
 30
0.0
 11
1618.195202452604
 21
633.7442479099881
 31
0.0
 70
    32
  1
≦Ｃ
 71
     5
 42
125.0000000000016
  3
AutoCAD
100
AcDbAlignedDimension
 13
1680.695202452605
 23
630.2442479099881
 33
0.0
 14
1555.695202452603
 24
630.2442479099881
 34
0.0
100
AcDbRotatedDimension
1001
ACAD
1000
DSTYLE
1002
{
1070
   279
1070
     1
1002
}
  0
DIMENSION
  5
704E
330
1E
100
AcDbEntity
  8
寸法
  6
Continuous
100
AcDbDimension
  2
*D11
 10
1480.695202452604
 20
630.2442479099881
 30
0.0
 11
1518.195202452604
 21
633.7442479099881
 31
0.0
 70
    32
  1
75≦
 71
     5
 42
74.99999999999909
  3
AutoCAD
100
AcDbAlignedDimension
 13
1555.695202452603
 23
630.2442479099881
 33
0.0
 14
1480.695202452604
 24
715.8549055716352
 34
0.0
100
AcDbRotatedDimension
1001
ACAD
1000
DSTYLE
1002
{
1070
   279
1070
     1
1002
}
  0
DIMENSION
  5
705A
330
1E
100
AcDbEntity
  8
寸法
  6
Continuous
100
AcDbDimension
  2
*D12
 10
1605.695202452604
 20
700.2442479099881
 30
0.0
 11
1580.695202452604
 21
703.7442479099881
 31
0.0
 70
    32
 71
     5
 42
50.0
  3
AutoCAD
100
AcDbAlignedDimension
 13
1555.695202452604
 23
700.2442479099881
 33
0.0
 14
1605.695202452604
 24
700.2442479099881
 34
0.0
100
AcDbRotatedDimension
  0
DIMENSION
  5
7065
330
1E
100
AcDbEntity
  8
寸法
  6
Continuous
100
AcDbDimension
  2
*D13
 10
1905.695202452604
 20
700.2442479099881
 30
0.0
 11
1880.695202452604
 21
703.7442479099881
 31
0.0
 70
    32
 71
     5
 42
50.00000000000046
  3
AutoCAD
100
AcDbAlignedDimension
 13
1855.695202452604
 23
700.2442479099881
 33
0.0
 14
1905.695202452604
 24
700.2442479099881
 34
0.0
100
AcDbRotatedDimension
  0
ENDSEC
  0
SECTION
  2
OBJECTS
  0
DICTIONARY
  5
C
330
0
100
AcDbDictionary
281
     1
  3
ACAD_COLOR
350
6779
  3
ACAD_GROUP
350
D
  3
ACAD_LAYOUT
350
19
  3
ACAD_MATERIAL
350
6778
  3
ACAD_MLINESTYLE
350
16
  3
ACAD_PLOTSETTINGS
350
18
  3
ACAD_PLOTSTYLENAME
350
E
  3
ACAD_TABLESTYLE
350
677A
  3
ACDBHEADERROUNDTRIPXREC
350
70AA
  3
AcDbVariableDictionary
350
169
  0
DICTIONARY
  5
175
330
2
100
AcDbDictionary
280
     1
281
     1
  3
ACAD_LAYERFILTERS
360
6FF9
  3
ACAD_LAYERSTATES
360
176
  3
ACLYDICTIONARY
360
6FF8
  0
DICTIONARY
  5
28B
330
1E
100
AcDbDictionary
280
     1
281
     1
  3
ACAD_LAYOUTSELFREF
360
6771
  0
DICTIONARY
  5
28D
330
1A
100
AcDbDictionary
280
     1
281
     1
  3
ACAD_LAYOUTSELFREF
360
6770
  0
DICTIONARY
  5
6779
102
{ACAD_REACTORS
330
C
102
}
330
C
100
AcDbDictionary
281
     1
  0
DICTIONARY
  5
D
102
{ACAD_REACTORS
330
C
102
}
330
C
100
AcDbDictionary
281
     1
  0
DICTIONARY
  5
19
102
{ACAD_REACTORS
330
C
102
}
330
C
100
AcDbDictionary
281
     1
  3
Model
350
21
  3
ﾚｲｱｳﾄ1
350
1D
  0
DICTIONARY
  5
6778
102
{ACAD_REACTORS
330
C
102
}
330
C
100
AcDbDictionary
281
     1
  0
DICTIONARY
  5
16
102
{ACAD_REACTORS
330
C
102
}
330
C
100
AcDbDictionary
281
     1
  3
Standard
350
17
  0
DICTIONARY
  5
18
102
{ACAD_REACTORS
330
C
102
}
330
C
100
AcDbDictionary
281
     1
  0
ACDBDICTIONARYWDFLT
  5
E
102
{ACAD_REACTORS
330
C
102
}
330
C
100
AcDbDictionary
281
     1
  3
Normal
350
F
100
AcDbDictionaryWithDefault
340
F
1001
ACAD
1000
TREAT_AS_HARD
1070
     0
1000
TREAT_AS_HARD
1070
     0
1000
TREAT_AS_HARD
1070
     0
1000
TREAT_AS_HARD
1070
     0
1000
TREAT_AS_HARD
1070
     0
1000
TREAT_AS_HARD
1070
     0
1000
TREAT_AS_HARD
1070
     0
1000
TREAT_AS_HARD
1070
     0
1000
TREAT_AS_HARD
1070
     0
1000
TREAT_AS_HARD
1070
     0
1000
TREAT_AS_HARD
1070
     0
1000
TREAT_AS_HARD
1070
     0
1000
TREAT_AS_HARD
1070
     0
1000
TREAT_AS_HARD
1070
     0
1000
TREAT_AS_HARD
1070
     0
1000
TREAT_AS_HARD
1070
     0
1000
TREAT_AS_HARD
1070
     0
1000
TREAT_AS_HARD
1070
     0
1000
TREAT_AS_HARD
1070
     0
1000
TREAT_AS_HARD
1070
     0
1000
TREAT_AS_HARD
1070
     0
1000
TREAT_AS_HARD
1070
     0
1000
TREAT_AS_HARD
1070
     0
1000
TREAT_AS_HARD
1070
     0
1000
TREAT_AS_HARD
1070
     0
1000
TREAT_AS_HARD
1070
     0
  0
DICTIONARY
  5
677A
102
{ACAD_REACTORS
330
C
102
}
330
C
100
AcDbDictionary
281
     1
  3
Standard
350
677B
  0
DICTIONARY
  5
70AA
102
{ACAD_REACTORS
330
C
102
}
330
C
100
AcDbDictionary
281
     1
  0
DICTIONARY
  5
169
102
{ACAD_REACTORS
330
C
102
}
330
C
100
AcDbDictionary
281
     1
  3
CTABLESTYLE
350
6782
  3
DIMASSOC
350
16A
  3
PROJECTNAME
350
70A8
  0
DICTIONARY
  5
6FF9
102
{ACAD_REACTORS
330
175
102
}
330
175
100
AcDbDictionary
281
     1
  0
DICTIONARY
  5
176
102
{ACAD_REACTORS
330
175
102
}
330
175
100
AcDbDictionary
281
     1
  3
ACAD
350
177
  0
DICTIONARY
  5
6FF8
102
{ACAD_REACTORS
330
175
102
}
330
175
100
AcDbDictionary
281
     1
1001
ACAD
1000
<All
  0
XRECORD
  5
6771
102
{ACAD_REACTORS
330
28B
102
}
330
28B
100
AcDbXrecord
280
     1
340
1E
  0
XRECORD
  5
6770
102
{ACAD_REACTORS
330
28D
102
}
330
28D
100
AcDbXrecord
280
     1
340
1A
  0
LAYOUT
  5
21
102
{ACAD_XDICTIONARY
360
70AD
102
}
102
{ACAD_REACTORS
330
19
102
}
330
19
100
AcDbPlotSettings
  1

  2
\\MEISEI-1\EPSON Stylus Photo EX3
  4

  6

 40
0.0
 41
0.0
 42
0.0
 43
0.0
 44
0.0
 45
0.0
 46
0.0
 47
0.0
 48
0.0
 49
0.0
140
0.0
141
0.0
142
1.0
143
1.0
 70
  1712
 72
     0
 73
     0
 74
     0
  7

 75
     0
147
1.0
148
0.0
149
0.0
100
AcDbLayout
  1
Model
 70
     1
 71
     0
 10
0.0
 20
0.0
 11
12.0
 21
9.0
 12
0.0
 22
0.0
 32
0.0
 14
0.0
 24
0.0
 34
0.0
 15
0.0
 25
0.0
 35
0.0
146
0.0
 13
0.0
 23
0.0
 33
0.0
 16
1.0
 26
0.0
 36
0.0
 17
0.0
 27
1.0
 37
0.0
 76
     0
330
1E
  0
LAYOUT
  5
1D
102
{ACAD_XDICTIONARY
360
70AB
102
}
102
{ACAD_REACTORS
330
19
102
}
330
19
100
AcDbPlotSettings
  1

  2
\\MEISEI-1\EPSON Stylus Photo EX3
  4

  6

 40
0.0
 41
0.0
 42
0.0
 43
0.0
 44
0.0
 45
0.0
 46
0.0
 47
0.0
 48
0.0
 49
0.0
140
0.0
141
0.0
142
1.0
143
1.0
 70
   688
 72
     0
 73
     0
 74
     5
  7

 75
    16
147
1.0
148
0.0
149
0.0
100
AcDbLayout
  1
ﾚｲｱｳﾄ1
 70
     1
 71
     1
 10
0.0
 20
0.0
 11
12.0
 21
9.0
 12
0.0
 22
0.0
 32
0.0
 14
1.000000000000000E+20
 24
1.000000000000000E+20
 34
1.000000000000000E+20
 15
-1.000000000000000E+20
 25
-1.000000000000000E+20
 35
-1.000000000000000E+20
146
0.0
 13
0.0
 23
0.0
 33
0.0
 16
1.0
 26
0.0
 36
0.0
 17
0.0
 27
1.0
 37
0.0
 76
     0
330
1A
  0
MLINESTYLE
  5
17
102
{ACAD_REACTORS
330
16
102
}
330
16
100
AcDbMlineStyle
  2
STANDARD
 70
     0
  3

 62
   256
 51
90.0
 52
90.0
 71
     2
 49
0.5
 62
   256
  6
BYLAYER
 49
-0.5
 62
   256
  6
BYLAYER
  0
ACDBPLACEHOLDER
  5
F
102
{ACAD_REACTORS
330
E
102
}
330
E
  0
TABLESTYLE
  5
677B
102
{ACAD_REACTORS
330
677A
102
}
330
677A
100
AcDbTableStyle
  3
Standard
 70
     0
 71
     0
 40
0.06
 41
0.06
280
     0
281
     0
  7
STANDARD
140
0.18
170
     2
 62
     0
 63
     7
283
     0
274
    -2
284
     1
 64
     0
275
    -2
285
     1
 65
     0
276
    -2
286
     1
 66
     0
277
    -2
287
     1
 67
     0
278
    -2
288
     1
 68
     0
279
    -2
289
     1
 69
     0
  7
STANDARD
140
0.25
170
     5
 62
     0
 63
     7
283
     0
274
    -2
284
     1
 64
     0
275
    -2
285
     1
 65
     0
276
    -2
286
     1
 66
     0
277
    -2
287
     1
 67
     0
278
    -2
288
     1
 68
     0
279
    -2
289
     1
 69
     0
  7
STANDARD
140
0.18
170
     5
 62
     0
 63
     7
283
     0
274
    -2
284
     1
 64
     0
275
    -2
285
     1
 65
     0
276
    -2
286
     1
 66
     0
277
    -2
287
     1
 67
     0
278
    -2
288
     1
 68
     0
279
    -2
289
     1
 69
     0
  0
DICTIONARYVAR
  5
6782
102
{ACAD_REACTORS
330
169
102
}
330
169
100
DictionaryVariables
280
     0
  1
STANDARD
  0
DICTIONARYVAR
  5
16A
102
{ACAD_REACTORS
330
169
102
}
330
169
100
DictionaryVariables
280
     0
  1
1
  0
DICTIONARYVAR
  5
70A8
102
{ACAD_REACTORS
330
169
102
}
330
169
100
DictionaryVariables
280
     0
  1

  0
XRECORD
  5
177
102
{ACAD_REACTORS
330
176
102
}
330
176
100
AcDbXrecord
280
     1
 91
      476
330
179
 90
        8
 62
     7
370
    -3
331
15
  1
Color_7
330
178
 90
        8
 62
     7
370
    -3
331
15
  1
Color_7
330
128
 90
        0
 62
     7
370
    -3
331
15
  1
Color_7
330
10
 90
        8
 62
     7
370
    -3
331
15
  1
Color_7
  0
DICTIONARY
  5
70AD
330
21
100
AcDbDictionary
280
     1
281
     1
  3
ACAD_XREC_ROUNDTRIP
360
70AE
  0
DICTIONARY
  5
70AB
330
1D
100
AcDbDictionary
280
     1
281
     1
  3
ACAD_XREC_ROUNDTRIP
360
70AC
  0
XRECORD
  5
70AE
102
{ACAD_REACTORS
330
70AD
102
}
330
70AD
100
AcDbXrecord
280
     1
102
SHADEPLOT
 70
     0
102
SHADEPLOTRESLEVEL
 70
     2
102
SHADEPLOTCUSTOMDPI
 70
   300
  0
XRECORD
  5
70AC
102
{ACAD_REACTORS
330
70AB
102
}
330
70AB
100
AcDbXrecord
280
     1
102
SHADEPLOT
 70
     0
102
SHADEPLOTRESLEVEL
 70
     2
102
SHADEPLOTCUSTOMDPI
 70
   300
  0
ENDSEC
  0
EOF
