  0
SECTION
  2
HEADER
  9
$ACADVER
  1
AC1015
  9
$ACADMAINTVER
 70
    20
  9
$DWGCODEPAGE
  3
ANSI_932
  9
$INSBASE
 10
0.0
 20
0.0
 30
0.0
  9
$EXTMIN
 10
1341.178082242542
 20
467.9369870414175
 30
-0.0000000349181948
  9
$EXTMAX
 10
2165.351881504916
 20
1044.076333132733
 30
0.0000000814935746
  9
$LIMMIN
 10
0.0
 20
0.0
  9
$LIMMAX
 10
420.0
 20
297.0
  9
$ORTHOMODE
 70
     0
  9
$REGENMODE
 70
     1
  9
$FILLMODE
 70
     1
  9
$QTEXTMODE
 70
     0
  9
$MIRRTEXT
 70
     1
  9
$LTSCALE
 40
1.0
  9
$ATTMODE
 70
     1
  9
$TEXTSIZE
 40
5.0
  9
$TRACEWID
 40
0.05
  9
$TEXTSTYLE
  7
ACAD
  9
$CLAYER
  8
0
  9
$CELTYPE
  6
CONTINUOUS
  9
$CECOLOR
 62
   256
  9
$CELTSCALE
 40
1.0
  9
$DISPSILH
 70
     0
  9
$DIMSCALE
 40
1.0
  9
$DIMASZ
 40
1.0
  9
$DIMEXO
 40
0.0
  9
$DIMDLI
 40
0.38
  9
$DIMRND
 40
0.0
  9
$DIMDLE
 40
0.0
  9
$DIMEXE
 40
0.0
  9
$DIMTP
 40
0.0
  9
$DIMTM
 40
0.0
  9
$DIMTXT
 40
5.0
  9
$DIMCEN
 40
0.09
  9
$DIMTSZ
 40
0.0
  9
$DIMTOL
 70
     0
  9
$DIMLIM
 70
     0
  9
$DIMTIH
 70
     0
  9
$DIMTOH
 70
     1
  9
$DIMSE1
 70
     0
  9
$DIMSE2
 70
     0
  9
$DIMTAD
 70
     1
  9
$DIMZIN
 70
     0
  9
$DIMBLK
  1
Dot
  9
$DIMASO
 70
     1
  9
$DIMSHO
 70
     1
  9
$DIMPOST
  1

  9
$DIMAPOST
  1

  9
$DIMALT
 70
     0
  9
$DIMALTD
 70
     2
  9
$DIMALTF
 40
25.4
  9
$DIMLFAC
 40
1.0
  9
$DIMTOFL
 70
     0
  9
$DIMTVP
 40
0.0
  9
$DIMTIX
 70
     1
  9
$DIMSOXD
 70
     0
  9
$DIMSAH
 70
     0
  9
$DIMBLK1
  1

  9
$DIMBLK2
  1

  9
$DIMSTYLE
  2
AutoCAD
  9
$DIMCLRD
 70
     4
  9
$DIMCLRE
 70
     4
  9
$DIMCLRT
 70
     3
  9
$DIMTFAC
 40
1.0
  9
$DIMGAP
 40
1.0
  9
$DIMJUST
 70
     0
  9
$DIMSD1
 70
     0
  9
$DIMSD2
 70
     0
  9
$DIMTOLJ
 70
     1
  9
$DIMTZIN
 70
     0
  9
$DIMALTZ
 70
     0
  9
$DIMALTTZ
 70
     0
  9
$DIMUPT
 70
     0
  9
$DIMDEC
 70
     0
  9
$DIMTDEC
 70
     0
  9
$DIMALTU
 70
     2
  9
$DIMALTTD
 70
     2
  9
$DIMTXSTY
  7
ACAD
  9
$DIMAUNIT
 70
     0
  9
$DIMADEC
 70
     0
  9
$DIMALTRND
 40
0.0
  9
$DIMAZIN
 70
     0
  9
$DIMDSEP
 70
    46
  9
$DIMATFIT
 70
     0
  9
$DIMFRAC
 70
     0
  9
$DIMLDRBLK
  1
None
  9
$DIMLUNIT
 70
     2
  9
$DIMLWD
 70
    -2
  9
$DIMLWE
 70
    -2
  9
$DIMTMOVE
 70
     0
  9
$LUNITS
 70
     2
  9
$LUPREC
 70
     4
  9
$SKETCHINC
 40
0.1
  9
$FILLETRAD
 40
0.0
  9
$AUNITS
 70
     0
  9
$AUPREC
 70
     0
  9
$MENU
  1
.
  9
$ELEVATION
 40
0.0
  9
$PELEVATION
 40
0.0
  9
$THICKNESS
 40
0.0
  9
$LIMCHECK
 70
     0
  9
$CHAMFERA
 40
0.0
  9
$CHAMFERB
 40
0.0
  9
$CHAMFERC
 40
0.0
  9
$CHAMFERD
 40
0.0
  9
$SKPOLY
 70
     0
  9
$TDCREATE
 40
2454316.693457674
  9
$TDUCREATE
 40
2454316.318457674
  9
$TDUPDATE
 40
2454733.671716574
  9
$TDUUPDATE
 40
2454733.296716574
  9
$TDINDWG
 40
0.2596241667
  9
$TDUSRTIMER
 40
0.2596241667
  9
$USRTIMER
 70
     1
  9
$ANGBASE
 50
0.0
  9
$ANGDIR
 70
     0
  9
$PDMODE
 70
     0
  9
$PDSIZE
 40
0.0
  9
$PLINEWID
 40
0.0
  9
$SPLFRAME
 70
     0
  9
$SPLINETYPE
 70
     6
  9
$SPLINESEGS
 70
     8
  9
$HANDSEED
  5
7176
  9
$SURFTAB1
 70
     6
  9
$SURFTAB2
 70
     6
  9
$SURFTYPE
 70
     6
  9
$SURFU
 70
     6
  9
$SURFV
 70
     6
  9
$UCSBASE
  2

  9
$UCSNAME
  2

  9
$UCSORG
 10
0.0
 20
0.0
 30
0.0
  9
$UCSXDIR
 10
1.0
 20
0.0
 30
0.0
  9
$UCSYDIR
 10
0.0
 20
1.0
 30
0.0
  9
$UCSORTHOREF
  2

  9
$UCSORTHOVIEW
 70
     0
  9
$UCSORGTOP
 10
0.0
 20
0.0
 30
0.0
  9
$UCSORGBOTTOM
 10
0.0
 20
0.0
 30
0.0
  9
$UCSORGLEFT
 10
0.0
 20
0.0
 30
0.0
  9
$UCSORGRIGHT
 10
0.0
 20
0.0
 30
0.0
  9
$UCSORGFRONT
 10
0.0
 20
0.0
 30
0.0
  9
$UCSORGBACK
 10
0.0
 20
0.0
 30
0.0
  9
$PUCSBASE
  2

  9
$PUCSNAME
  2

  9
$PUCSORG
 10
0.0
 20
0.0
 30
0.0
  9
$PUCSXDIR
 10
1.0
 20
0.0
 30
0.0
  9
$PUCSYDIR
 10
0.0
 20
1.0
 30
0.0
  9
$PUCSORTHOREF
  2

  9
$PUCSORTHOVIEW
 70
     0
  9
$PUCSORGTOP
 10
0.0
 20
0.0
 30
0.0
  9
$PUCSORGBOTTOM
 10
0.0
 20
0.0
 30
0.0
  9
$PUCSORGLEFT
 10
0.0
 20
0.0
 30
0.0
  9
$PUCSORGRIGHT
 10
0.0
 20
0.0
 30
0.0
  9
$PUCSORGFRONT
 10
0.0
 20
0.0
 30
0.0
  9
$PUCSORGBACK
 10
0.0
 20
0.0
 30
0.0
  9
$USERI1
 70
     0
  9
$USERI2
 70
     0
  9
$USERI3
 70
     0
  9
$USERI4
 70
     0
  9
$USERI5
 70
     0
  9
$USERR1
 40
0.0
  9
$USERR2
 40
0.0
  9
$USERR3
 40
0.0
  9
$USERR4
 40
0.0
  9
$USERR5
 40
0.0
  9
$WORLDVIEW
 70
     1
  9
$SHADEDGE
 70
     3
  9
$SHADEDIF
 70
    70
  9
$TILEMODE
 70
     1
  9
$MAXACTVP
 70
    48
  9
$PINSBASE
 10
0.0
 20
0.0
 30
0.0
  9
$PLIMCHECK
 70
     0
  9
$PEXTMIN
 10
1.000000000000000E+20
 20
1.000000000000000E+20
 30
1.000000000000000E+20
  9
$PEXTMAX
 10
-1.000000000000000E+20
 20
-1.000000000000000E+20
 30
-1.000000000000000E+20
  9
$PLIMMIN
 10
0.0
 20
0.0
  9
$PLIMMAX
 10
12.0
 20
9.0
  9
$UNITMODE
 70
     0
  9
$VISRETAIN
 70
     0
  9
$PLINEGEN
 70
     0
  9
$PSLTSCALE
 70
     1
  9
$TREEDEPTH
 70
  3020
  9
$CMLSTYLE
  2
Standard
  9
$CMLJUST
 70
     0
  9
$CMLSCALE
 40
1.0
  9
$PROXYGRAPHICS
 70
     1
  9
$MEASUREMENT
 70
     0
  9
$CELWEIGHT
370
    -1
  9
$ENDCAPS
280
     0
  9
$JOINSTYLE
280
     0
  9
$LWDISPLAY
290
     0
  9
$INSUNITS
 70
     0
  9
$HYPERLINKBASE
  1

  9
$STYLESHEET
  1

  9
$XEDIT
290
     1
  9
$CEPSNTYPE
380
     0
  9
$PSTYLEMODE
290
     1
  9
$FINGERPRINTGUID
  2
{CC7D6DEE-A9F1-4F3E-AC95-C84B62CCA3FD}
  9
$VERSIONGUID
  2
{349494A4-9311-44DD-8818-E9F6D112AE00}
  9
$EXTNAMES
290
     1
  9
$PSVPSCALE
 40
0.0
  9
$OLESTARTUP
290
     0
  0
ENDSEC
  0
SECTION
  2
CLASSES
  0
CLASS
  1
ACDBDICTIONARYWDFLT
  2
AcDbDictionaryWithDefault
  3
ObjectDBX Classes
 90
        0
280
     0
281
     0
  0
CLASS
  1
ACDBPLACEHOLDER
  2
AcDbPlaceHolder
  3
ObjectDBX Classes
 90
        0
280
     0
281
     0
  0
CLASS
  1
LAYOUT
  2
AcDbLayout
  3
ObjectDBX Classes
 90
        0
280
     0
281
     0
  0
CLASS
  1
DICTIONARYVAR
  2
AcDbDictionaryVar
  3
ObjectDBX Classes
 90
        0
280
     0
281
     0
  0
CLASS
  1
TABLESTYLE
  2
AcDbTableStyle
  3
ObjectDBX Classes
 90
     2047
280
     0
281
     0
  0
ENDSEC
  0
SECTION
  2
TABLES
  0
TABLE
  2
VPORT
  5
8
330
0
100
AcDbSymbolTable
 70
     2
  0
VPORT
  5
7170
330
8
100
AcDbSymbolTableRecord
100
AcDbViewportTableRecord
  2
*Active
 70
     0
 10
0.0
 20
0.0
 11
1.0
 21
1.0
 12
1756.032823194872
 22
751.3990817939291
 13
0.0
 23
0.0
 14
1.0
 24
1.0
 15
0.0
 25
0.0
 16
0.0
 26
0.0
 36
1.0
 17
0.0
 27
0.0
 37
0.0
 40
650.3755879866454
 41
1.542635658914728
 42
50.0
 43
0.0
 44
0.0
 50
0.0
 51
0.0
 71
     0
 72
   100
 73
     1
 74
     1
 75
     0
 76
     0
 77
     0
 78
     0
281
     0
 65
     1
110
0.0
120
0.0
130
0.0
111
1.0
121
0.0
131
0.0
112
0.0
122
1.0
132
0.0
 79
     0
146
0.0
  0
ENDTAB
  0
TABLE
  2
LTYPE
  5
5
330
0
100
AcDbSymbolTable
 70
    50
  0
LTYPE
  5
13
330
5
100
AcDbSymbolTableRecord
100
AcDbLinetypeTableRecord
  2
ByBlock
 70
     0
  3

 72
    65
 73
     0
 40
0.0
  0
LTYPE
  5
14
330
5
100
AcDbSymbolTableRecord
100
AcDbLinetypeTableRecord
  2
ByLayer
 70
     0
  3

 72
    65
 73
     0
 40
0.0
  0
LTYPE
  5
15
330
5
100
AcDbSymbolTableRecord
100
AcDbLinetypeTableRecord
  2
CONTINUOUS
 70
     0
  3
実線
 72
    65
 73
     0
 40
0.0
  0
LTYPE
  5
22
330
5
100
AcDbSymbolTableRecord
100
AcDbLinetypeTableRecord
  2
DASHED1
 70
     0
  3
--  --  --  --  --  --  --  --  
 72
    65
 73
     2
 40
2.5
 49
1.25
 74
     0
 49
-1.25
 74
     0
  0
LTYPE
  5
23
330
5
100
AcDbSymbolTableRecord
100
AcDbLinetypeTableRecord
  2
DASHED2
 70
     0
  3
----    ----    ----    ----    
 72
    65
 73
     2
 40
5.0
 49
2.5
 74
     0
 49
-2.5
 74
     0
  0
LTYPE
  5
24
330
5
100
AcDbSymbolTableRecord
100
AcDbLinetypeTableRecord
  2
DASHED3
 70
     0
  3
------  ------  ------  ------  
 72
    65
 73
     2
 40
5.0
 49
3.75
 74
     0
 49
-1.25
 74
     0
  0
LTYPE
  5
25
330
5
100
AcDbSymbolTableRecord
100
AcDbLinetypeTableRecord
  2
CENTER1
 70
     0
  3
----- - ----- - ----- - ----- - 
 72
    65
 73
     4
 40
10.0
 49
6.25
 74
     0
 49
-1.25
 74
     0
 49
1.25
 74
     0
 49
-1.25
 74
     0
  0
LTYPE
  5
26
330
5
100
AcDbSymbolTableRecord
100
AcDbLinetypeTableRecord
  2
CENTER2
 70
     0
  3
----------  --  ----------  --  
 72
    65
 73
     4
 40
20.0
 49
12.5
 74
     0
 49
-2.5
 74
     0
 49
2.5
 74
     0
 49
-2.5
 74
     0
  0
LTYPE
  5
27
330
5
100
AcDbSymbolTableRecord
100
AcDbLinetypeTableRecord
  2
PHANTOM1
 70
     0
  3
--- - - --- - - --- - - --- - - 
 72
    65
 73
     6
 40
10.0
 49
3.25
 74
     0
 49
-1.25
 74
     0
 49
1.25
 74
     0
 49
-1.25
 74
     0
 49
1.25
 74
     0
 49
-1.25
 74
     0
  0
LTYPE
  5
28
330
5
100
AcDbSymbolTableRecord
100
AcDbLinetypeTableRecord
  2
PHANTOM2
 70
     0
  3
--------  -  -  --------  -  -  
 72
    65
 73
     6
 40
20.0
 49
10.0
 74
     0
 49
-2.5
 74
     0
 49
1.25
 74
     0
 49
-2.5
 74
     0
 49
1.25
 74
     0
 49
-2.5
 74
     0
  0
LTYPE
  5
29
330
5
100
AcDbSymbolTableRecord
100
AcDbLinetypeTableRecord
  2
DOT
 70
     0
  3
-   -   -   -   -   -   -   -   
 72
    65
 73
     2
 40
2.5
 49
0.625
 74
     0
 49
-1.875
 74
     0
  0
LTYPE
  5
2A
330
5
100
AcDbSymbolTableRecord
100
AcDbLinetypeTableRecord
  2
DUMMY
 70
     0
  3
ダミー
 72
    65
 73
     0
 40
0.0
  0
LTYPE
  5
2B
330
5
100
AcDbSymbolTableRecord
100
AcDbLinetypeTableRecord
  2
RAND1
 70
     0
  3
ランダム線1
 72
    65
 73
     4
 40
10.0
 49
1.0
 74
     0
 49
-2.0
 74
     0
 49
3.0
 74
     0
 49
-4.0
 74
     0
  0
LTYPE
  5
2C
330
5
100
AcDbSymbolTableRecord
100
AcDbLinetypeTableRecord
  2
RAND2
 70
     0
  3
ランダム線2
 72
    65
 73
     4
 40
14.0
 49
2.0
 74
     0
 49
-3.0
 74
     0
 49
4.0
 74
     0
 49
-5.0
 74
     0
  0
LTYPE
  5
2D
330
5
100
AcDbSymbolTableRecord
100
AcDbLinetypeTableRecord
  2
RAND3
 70
     0
  3
ランダム線3
 72
    65
 73
     4
 40
18.0
 49
3.0
 74
     0
 49
-4.0
 74
     0
 49
5.0
 74
     0
 49
-6.0
 74
     0
  0
LTYPE
  5
2E
330
5
100
AcDbSymbolTableRecord
100
AcDbLinetypeTableRecord
  2
RAND4
 70
     0
  3
ランダム線4
 72
    65
 73
     4
 40
22.0
 49
4.0
 74
     0
 49
-5.0
 74
     0
 49
6.0
 74
     0
 49
-7.0
 74
     0
  0
LTYPE
  5
2F
330
5
100
AcDbSymbolTableRecord
100
AcDbLinetypeTableRecord
  2
RAND5
 70
     0
  3
ランダム線5
 72
    65
 73
     4
 40
26.0
 49
5.0
 74
     0
 49
-6.0
 74
     0
 49
7.0
 74
     0
 49
-8.0
 74
     0
  0
LTYPE
  5
30
330
5
100
AcDbSymbolTableRecord
100
AcDbLinetypeTableRecord
  2
LONG1
 70
     0
  3
----------  --  ----------  --  
 72
    65
 73
     4
 40
40.0
 49
32.5
 74
     0
 49
-2.5
 74
     0
 49
2.5
 74
     0
 49
-2.5
 74
     0
  0
LTYPE
  5
31
330
5
100
AcDbSymbolTableRecord
100
AcDbLinetypeTableRecord
  2
LONG2
 70
     0
  3
--------  -  -  --------  -  -  
 72
    65
 73
     6
 40
40.0
 49
30.0
 74
     0
 49
-2.5
 74
     0
 49
1.25
 74
     0
 49
-2.5
 74
     0
 49
1.25
 74
     0
 49
-2.5
 74
     0
  0
LTYPE
  5
32
330
5
100
AcDbSymbolTableRecord
100
AcDbLinetypeTableRecord
  2
LONG3
 70
     0
  3
+++++++++++++++..+++++++++++++++
 72
    65
 73
     2
 40
40.0
 49
37.5
 74
     0
 49
-2.5
 74
     0
  0
LTYPE
  5
33
330
5
100
AcDbSymbolTableRecord
100
AcDbLinetypeTableRecord
  2
LONG4
 70
     0
  3
+++++++++++++++..+++++++++++++++
 72
    65
 73
     2
 40
80.0
 49
75.0
 74
     0
 49
-5.0
 74
     0
  0
LTYPE
  5
34
330
5
100
AcDbSymbolTableRecord
100
AcDbLinetypeTableRecord
  2
LONG5
 70
     0
  3
----------  --  ----------  --  
 72
    65
 73
     4
 40
60.0
 49
37.5
 74
     0
 49
-7.5
 74
     0
 49
7.5
 74
     0
 49
-7.5
 74
     0
  0
LTYPE
  5
35
330
5
100
AcDbSymbolTableRecord
100
AcDbLinetypeTableRecord
  2
DASHED
 70
     0
  3
-------   -------------   ------
 72
    65
 73
     2
 40
7.5
 49
6.0
 74
     0
 49
-1.5
 74
     0
  0
LTYPE
  5
36
330
5
100
AcDbSymbolTableRecord
100
AcDbLinetypeTableRecord
  2
DASHED_SPACED
 70
     0
  3
----        --------        ----
 72
    65
 73
     2
 40
12.0
 49
6.0
 74
     0
 49
-6.0
 74
     0
  0
LTYPE
  5
37
330
5
100
AcDbSymbolTableRecord
100
AcDbLinetypeTableRecord
  2
LONG_DASHED_DOTTED
 70
     0
  3
------------- --- --------------
 72
    65
 73
     4
 40
15.25
 49
12.0
 74
     0
 49
-1.5
 74
     0
 49
0.25
 74
     0
 49
-1.5
 74
     0
  0
LTYPE
  5
38
330
5
100
AcDbSymbolTableRecord
100
AcDbLinetypeTableRecord
  2
LONG_DASHED_DOUBLE-DOTTED
 70
     0
  3
----------- --- --- ------------
 72
    65
 73
     6
 40
17.0
 49
12.0
 74
     0
 49
-1.5
 74
     0
 49
0.25
 74
     0
 49
-1.5
 74
     0
 49
0.25
 74
     0
 49
-1.5
 74
     0
  0
LTYPE
  5
39
330
5
100
AcDbSymbolTableRecord
100
AcDbLinetypeTableRecord
  2
LONG_DASHED_TRIPLICATE-DOTTED
 70
     0
  3
--------- --- --- --- ----------
 72
    65
 73
     8
 40
18.75
 49
12.0
 74
     0
 49
-1.5
 74
     0
 49
0.25
 74
     0
 49
-1.5
 74
     0
 49
0.25
 74
     0
 49
-1.5
 74
     0
 49
0.25
 74
     0
 49
-1.5
 74
     0
  0
LTYPE
  5
3A
330
5
100
AcDbSymbolTableRecord
100
AcDbLinetypeTableRecord
  2
DOTTED
 70
     0
  3
   -       -       -       -    
 72
    65
 73
     2
 40
1.75
 49
0.25
 74
     0
 49
-1.5
 74
     0
  0
LTYPE
  5
3B
330
5
100
AcDbSymbolTableRecord
100
AcDbLinetypeTableRecord
  2
CHAIN
 70
     0
  3
-------------- -- --------------
 72
    65
 73
     4
 40
18.5
 49
12.0
 74
     0
 49
-1.5
 74
     0
 49
3.5
 74
     0
 49
-1.5
 74
     0
  0
LTYPE
  5
3C
330
5
100
AcDbSymbolTableRecord
100
AcDbLinetypeTableRecord
  2
CHAIN_DOUBLE_DASH
 70
     0
  3
------------ -- -- -------------
 72
    65
 73
     6
 40
23.5
 49
12.0
 74
     0
 49
-1.5
 74
     0
 49
3.5
 74
     0
 49
-1.5
 74
     0
 49
3.5
 74
     0
 49
-1.5
 74
     0
  0
LTYPE
  5
3D
330
5
100
AcDbSymbolTableRecord
100
AcDbLinetypeTableRecord
  2
DASHED_DOTTED
 70
     0
  3
-----------     -     ----------
 72
    65
 73
     4
 40
9.25
 49
6.0
 74
     0
 49
-1.5
 74
     0
 49
0.25
 74
     0
 49
-1.5
 74
     0
  0
LTYPE
  5
3E
330
5
100
AcDbSymbolTableRecord
100
AcDbLinetypeTableRecord
  2
DOUBLE-DASHED_DOTTED
 70
     0
  3
------   -----------   -   -----
 72
    65
 73
     6
 40
16.75
 49
6.0
 74
     0
 49
-1.5
 74
     0
 49
6.0
 74
     0
 49
-1.5
 74
     0
 49
0.25
 74
     0
 49
-1.5
 74
     0
  0
LTYPE
  5
3F
330
5
100
AcDbSymbolTableRecord
100
AcDbLinetypeTableRecord
  2
DASHED_DOUBLE-DOTTED
 70
     0
  3
---------    -    -    ---------
 72
    65
 73
     6
 40
11.0
 49
6.0
 74
     0
 49
-1.5
 74
     0
 49
0.25
 74
     0
 49
-1.5
 74
     0
 49
0.25
 74
     0
 49
-1.5
 74
     0
  0
LTYPE
  5
40
330
5
100
AcDbSymbolTableRecord
100
AcDbLinetypeTableRecord
  2
DOUBLE-DASHED_DOUBLE-DOTTED
 70
     0
  3
-----   ---------   -   -   ----
 72
    65
 73
     8
 40
18.5
 49
6.0
 74
     0
 49
-1.5
 74
     0
 49
6.0
 74
     0
 49
-1.5
 74
     0
 49
0.25
 74
     0
 49
-1.5
 74
     0
 49
0.25
 74
     0
 49
-1.5
 74
     0
  0
LTYPE
  5
41
330
5
100
AcDbSymbolTableRecord
100
AcDbLinetypeTableRecord
  2
DASHED_TRIPLICATE-DOTTED
 70
     0
  3
-------    -    -    -    ------
 72
    65
 73
     8
 40
12.75
 49
6.0
 74
     0
 49
-1.5
 74
     0
 49
0.25
 74
     0
 49
-1.5
 74
     0
 49
0.25
 74
     0
 49
-1.5
 74
     0
 49
0.25
 74
     0
 49
-1.5
 74
     0
  0
LTYPE
  5
42
330
5
100
AcDbSymbolTableRecord
100
AcDbLinetypeTableRecord
  2
DOUBLE-DASHED_TRIPLICATE-DOTTED
 70
     0
  3
-----  ---------  -  -  -  -----
 72
    65
 73
    10
 40
20.25
 49
6.0
 74
     0
 49
-1.5
 74
     0
 49
6.0
 74
     0
 49
-1.5
 74
     0
 49
0.25
 74
     0
 49
-1.5
 74
     0
 49
0.25
 74
     0
 49
-1.5
 74
     0
 49
0.25
 74
     0
 49
-1.5
 74
     0
  0
LTYPE
  5
43
330
5
100
AcDbSymbolTableRecord
100
AcDbLinetypeTableRecord
  2
UNDEFINED
 70
     0
  3
--------------------------------
 72
    65
 73
     0
 40
0.0
  0
LTYPE
  5
44
330
5
100
AcDbSymbolTableRecord
100
AcDbLinetypeTableRecord
  2
PLINE2
 70
     0
  3
------     -----------     -----
 72
    65
 73
     2
 40
3.0
 49
2.1
 74
     0
 49
-0.9
 74
     0
  0
LTYPE
  5
45
330
5
100
AcDbSymbolTableRecord
100
AcDbLinetypeTableRecord
  2
PLINE3
 70
     0
  3
------------   ---   -----------
 72
    65
 73
     4
 40
10.0
 49
7.0
 74
     0
 49
-1.0
 74
     0
 49
1.0
 74
     0
 49
-1.0
 74
     0
  0
LTYPE
  5
46
330
5
100
AcDbSymbolTableRecord
100
AcDbLinetypeTableRecord
  2
PLINE4
 70
     0
  3
---------   ---   ---   --------
 72
    65
 73
     6
 40
10.0
 49
5.0
 74
     0
 49
-1.0
 74
     0
 49
1.0
 74
     0
 49
-1.0
 74
     0
 49
1.0
 74
     0
 49
-1.0
 74
     0
  0
LTYPE
  5
47
330
5
100
AcDbSymbolTableRecord
100
AcDbLinetypeTableRecord
  2
PLINE5
 70
     0
  3
------     -----------     -----
 72
    65
 73
     2
 40
5.0
 49
3.5
 74
     0
 49
-1.5
 74
     0
  0
LTYPE
  5
48
330
5
100
AcDbSymbolTableRecord
100
AcDbLinetypeTableRecord
  2
PLINE6
 70
     0
  3
------------   ---   -----------
 72
    65
 73
     4
 40
15.0
 49
10.5
 74
     0
 49
-1.5
 74
     0
 49
1.5
 74
     0
 49
-1.5
 74
     0
  0
LTYPE
  5
49
330
5
100
AcDbSymbolTableRecord
100
AcDbLinetypeTableRecord
  2
PLINE7
 70
     0
  3
---------   ---   ---   --------
 72
    65
 73
     6
 40
15.0
 49
7.5
 74
     0
 49
-1.5
 74
     0
 49
1.5
 74
     0
 49
-1.5
 74
     0
 49
1.5
 74
     0
 49
-1.5
 74
     0
  0
LTYPE
  5
4A
330
5
100
AcDbSymbolTableRecord
100
AcDbLinetypeTableRecord
  2
PLINE8
 70
     0
  3
------     -----------     -----
 72
    65
 73
     2
 40
7.0
 49
4.9
 74
     0
 49
-2.1
 74
     0
  0
LTYPE
  5
4B
330
5
100
AcDbSymbolTableRecord
100
AcDbLinetypeTableRecord
  2
PLINE9
 70
     0
  3
------------   ---   -----------
 72
    65
 73
     4
 40
20.0
 49
14.0
 74
     0
 49
-2.0
 74
     0
 49
2.0
 74
     0
 49
-2.0
 74
     0
  0
LTYPE
  5
4C
330
5
100
AcDbSymbolTableRecord
100
AcDbLinetypeTableRecord
  2
PLINE10
 70
     0
  3
---------   ---   ---   --------
 72
    65
 73
     6
 40
20.0
 49
10.0
 74
     0
 49
-2.0
 74
     0
 49
2.0
 74
     0
 49
-2.0
 74
     0
 49
2.0
 74
     0
 49
-2.0
 74
     0
  0
LTYPE
  5
4D
330
5
100
AcDbSymbolTableRecord
100
AcDbLinetypeTableRecord
  2
PLINE11
 70
     0
  3
------     -----------     -----
 72
    65
 73
     2
 40
9.0
 49
6.299999999999999
 74
     0
 49
-2.7
 74
     0
  0
LTYPE
  5
4E
330
5
100
AcDbSymbolTableRecord
100
AcDbLinetypeTableRecord
  2
PLINE12
 70
     0
  3
------------   ---   -----------
 72
    65
 73
     4
 40
25.0
 49
17.5
 74
     0
 49
-2.5
 74
     0
 49
2.5
 74
     0
 49
-2.5
 74
     0
  0
LTYPE
  5
4F
330
5
100
AcDbSymbolTableRecord
100
AcDbLinetypeTableRecord
  2
PLINE13
 70
     0
  3
---------   ---   ---   --------
 72
    65
 73
     6
 40
25.0
 49
12.5
 74
     0
 49
-2.5
 74
     0
 49
2.5
 74
     0
 49
-2.5
 74
     0
 49
2.5
 74
     0
 49
-2.5
 74
     0
  0
LTYPE
  5
50
330
5
100
AcDbSymbolTableRecord
100
AcDbLinetypeTableRecord
  2
PLINE14
 70
     0
  3
------     -----------     -----
 72
    65
 73
     2
 40
11.0
 49
7.7
 74
     0
 49
-3.299999999999999
 74
     0
  0
LTYPE
  5
51
330
5
100
AcDbSymbolTableRecord
100
AcDbLinetypeTableRecord
  2
PLINE15
 70
     0
  3
------------   ---   -----------
 72
    65
 73
     4
 40
30.0
 49
21.0
 74
     0
 49
-3.0
 74
     0
 49
3.0
 74
     0
 49
-3.0
 74
     0
  0
LTYPE
  5
52
330
5
100
AcDbSymbolTableRecord
100
AcDbLinetypeTableRecord
  2
PLINE16
 70
     0
  3
---------   ---   ---   --------
 72
    65
 73
     6
 40
30.0
 49
15.0
 74
     0
 49
-3.0
 74
     0
 49
3.0
 74
     0
 49
-3.0
 74
     0
 49
3.0
 74
     0
 49
-3.0
 74
     0
  0
ENDTAB
  0
TABLE
  2
LAYER
  5
2
102
{ACAD_XDICTIONARY
360
175
102
}
330
0
100
AcDbSymbolTable
 70
     5
  0
LAYER
  5
10
330
2
100
AcDbSymbolTableRecord
100
AcDbLayerTableRecord
  2
0
 70
     0
 62
     7
  6
CONTINUOUS
370
    -3
390
F
  0
LAYER
  5
128
330
2
100
AcDbSymbolTableRecord
100
AcDbLayerTableRecord
  2
Defpoints
 70
     0
 62
     7
  6
CONTINUOUS
290
     0
370
    -3
390
F
  0
LAYER
  5
178
330
2
100
AcDbSymbolTableRecord
100
AcDbLayerTableRecord
  2
寸法
 70
     0
 62
     7
  6
CONTINUOUS
370
    -3
390
F
  0
LAYER
  5
179
330
2
100
AcDbSymbolTableRecord
100
AcDbLayerTableRecord
  2
躯体と製品
 70
     0
 62
     7
  6
CONTINUOUS
370
    -3
390
F
  0
LAYER
  5
4F62
330
2
100
AcDbSymbolTableRecord
100
AcDbLayerTableRecord
  2
図枠
 70
     0
 62
     7
  6
CONTINUOUS
370
    -3
390
F
  0
ENDTAB
  0
TABLE
  2
STYLE
  5
3
330
0
100
AcDbSymbolTable
 70
     5
  0
STYLE
  5
11
330
3
100
AcDbSymbolTableRecord
100
AcDbTextStyleTableRecord
  2
STANDARD
 70
     0
 40
0.0
 41
1.0
 50
0.0
 71
     0
 42
0.2
  3
txt
  4
bigfont.shx
  0
STYLE
  5
53
330
3
100
AcDbSymbolTableRecord
100
AcDbTextStyleTableRecord
  2
TATEGAKI
 70
     4
 40
0.0
 41
1.0
 50
0.0
 71
     0
 42
1.0
  3
txt
  4
bigfont.shx
  0
STYLE
  5
123
330
3
100
AcDbSymbolTableRecord
100
AcDbTextStyleTableRecord
  2
ACAD
 70
     0
 40
5.0
 41
0.8
 50
0.0
 71
     0
 42
5.0
  3
romans.shx
  4
extfont.shx
  0
STYLE
  5
3A5F
330
3
100
AcDbSymbolTableRecord
100
AcDbTextStyleTableRecord
  2
VERTXT
 70
     4
 40
0.0
 41
0.8582679999999999
 50
0.0
 71
     0
 42
3.5
  3
txt.shx
  4
BIGFONT
  0
STYLE
  5
50AD
330
3
100
AcDbSymbolTableRecord
100
AcDbTextStyleTableRecord
  2
STANDARD2
 70
     0
 40
0.0
 41
0.8582679999999999
 50
0.0
 71
     0
 42
3.5
  3
txt.shx
  4
EXTFONT
  0
ENDTAB
  0
TABLE
  2
VIEW
  5
6
330
0
100
AcDbSymbolTable
 70
     0
  0
ENDTAB
  0
TABLE
  2
UCS
  5
7
330
0
100
AcDbSymbolTable
 70
     0
  0
ENDTAB
  0
TABLE
  2
APPID
  5
9
330
0
100
AcDbSymbolTable
 70
     7
  0
APPID
  5
12
330
9
100
AcDbSymbolTableRecord
100
AcDbRegAppTableRecord
  2
ACAD
 70
     0
  0
APPID
  5
7012
330
9
100
AcDbSymbolTableRecord
100
AcDbRegAppTableRecord
  2
ACAD_DSTYLE_DIMTEXT_FILL
 70
     0
  0
APPID
  5
7013
330
9
100
AcDbSymbolTableRecord
100
AcDbRegAppTableRecord
  2
ACAD_DSTYLE_DIMEXT_LENGTH
 70
     0
  0
APPID
  5
7014
330
9
100
AcDbSymbolTableRecord
100
AcDbRegAppTableRecord
  2
ACAD_DSTYLE_DIMEXT_ENABLED
 70
     0
  0
APPID
  5
7015
330
9
100
AcDbSymbolTableRecord
100
AcDbRegAppTableRecord
  2
ACAD_DSTYLE_DIM_LINETYPE
 70
     0
  0
APPID
  5
7016
330
9
100
AcDbSymbolTableRecord
100
AcDbRegAppTableRecord
  2
ACAD_DSTYLE_DIM_EXT1_LINETYPE
 70
     0
  0
APPID
  5
7017
330
9
100
AcDbSymbolTableRecord
100
AcDbRegAppTableRecord
  2
ACAD_DSTYLE_DIM_EXT2_LINETYPE
 70
     0
  0
ENDTAB
  0
TABLE
  2
DIMSTYLE
  5
A
330
0
100
AcDbSymbolTable
 70
     3
100
AcDbDimStyleTable
 71
     1
340
126
  0
DIMSTYLE
105
11C
330
A
100
AcDbSymbolTableRecord
100
AcDbDimStyleTableRecord
  2
Standard
 70
     0
340
11
  0
DIMSTYLE
105
126
102
{ACAD_REACTORS
330
70A2
330
70C1
330
70CC
330
70E4
330
70F1
330
70FE
330
710A
330
7115
330
7120
330
712B
102
}
330
A
100
AcDbSymbolTableRecord
100
AcDbDimStyleTableRecord
  2
AutoCAD
 70
     0
 41
1.0
 42
0.0
 44
0.0
 73
     0
 77
     1
140
5.0
147
1.0
174
     1
176
     4
177
     4
178
     3
271
     0
272
     0
289
     0
340
123
341
15B0
342
11E
  0
DIMSTYLE
105
2CBB
330
A
100
AcDbSymbolTableRecord
100
AcDbDimStyleTableRecord
  2
111
 70
     0
 41
1.0
 42
0.0
 44
0.0
 73
     0
 77
     1
140
5.0
147
1.0
174
     1
176
     4
177
     4
178
     3
271
     0
272
     0
289
     0
340
123
341
15B0
342
2CB5
  0
ENDTAB
  0
TABLE
  2
BLOCK_RECORD
  5
1
330
0
100
AcDbSymbolTable
 70
    14
  0
BLOCK_RECORD
  5
1E
102
{ACAD_XDICTIONARY
360
28B
102
}
330
1
100
AcDbSymbolTableRecord
100
AcDbBlockTableRecord
  2
*Model_Space
340
21
  0
BLOCK_RECORD
  5
1A
102
{ACAD_XDICTIONARY
360
28D
102
}
330
1
100
AcDbSymbolTableRecord
100
AcDbBlockTableRecord
  2
*Paper_Space
340
1D
  0
BLOCK_RECORD
  5
11E
330
1
100
AcDbSymbolTableRecord
100
AcDbBlockTableRecord
  2
_Dot
340
0
102
{BLKREFS
331
70BB
331
70BC
331
70C4
331
70C5
331
70CF
331
70D0
331
70F6
331
70F7
331
7118
331
7119
331
7143
331
7144
331
714B
331
714C
331
7152
331
7153
331
7159
331
715A
331
7161
331
7162
102
}
  0
BLOCK_RECORD
  5
15B0
330
1
100
AcDbSymbolTableRecord
100
AcDbBlockTableRecord
  2
_None
340
0
  0
BLOCK_RECORD
  5
2CB5
330
1
100
AcDbSymbolTableRecord
100
AcDbBlockTableRecord
  2
_Open30
340
0
  0
BLOCK_RECORD
  5
35E3
330
1
100
AcDbSymbolTableRecord
100
AcDbBlockTableRecord
  2
_DotBlank
340
0
  0
BLOCK_RECORD
  5
70A3
330
1
100
AcDbSymbolTableRecord
100
AcDbBlockTableRecord
  2
*D4
340
0
  0
BLOCK_RECORD
  5
70C2
330
1
100
AcDbSymbolTableRecord
100
AcDbBlockTableRecord
  2
*D5
340
0
  0
BLOCK_RECORD
  5
70CD
330
1
100
AcDbSymbolTableRecord
100
AcDbBlockTableRecord
  2
*D6
340
0
  0
BLOCK_RECORD
  5
70E5
330
1
100
AcDbSymbolTableRecord
100
AcDbBlockTableRecord
  2
*D7
340
0
  0
BLOCK_RECORD
  5
70F2
330
1
100
AcDbSymbolTableRecord
100
AcDbBlockTableRecord
  2
*D8
340
0
  0
BLOCK_RECORD
  5
70FF
330
1
100
AcDbSymbolTableRecord
100
AcDbBlockTableRecord
  2
*D9
340
0
  0
BLOCK_RECORD
  5
710B
330
1
100
AcDbSymbolTableRecord
100
AcDbBlockTableRecord
  2
*D10
340
0
  0
BLOCK_RECORD
  5
7116
330
1
100
AcDbSymbolTableRecord
100
AcDbBlockTableRecord
  2
*D11
340
0
  0
BLOCK_RECORD
  5
7121
330
1
100
AcDbSymbolTableRecord
100
AcDbBlockTableRecord
  2
*D12
340
0
  0
BLOCK_RECORD
  5
712C
330
1
100
AcDbSymbolTableRecord
100
AcDbBlockTableRecord
  2
*D13
340
0
  0
ENDTAB
  0
ENDSEC
  0
SECTION
  2
BLOCKS
  0
BLOCK
  5
1F
330
1E
100
AcDbEntity
  8
0
100
AcDbBlockBegin
  2
*Model_Space
 70
     0
 10
0.0
 20
0.0
 30
0.0
  3
*Model_Space
  1

  0
ENDBLK
  5
20
330
1E
100
AcDbEntity
  8
0
100
AcDbBlockEnd
  0
BLOCK
  5
1B
330
1A
100
AcDbEntity
 67
     1
  8
0
100
AcDbBlockBegin
  2
*Paper_Space
 70
     0
 10
0.0
 20
0.0
 30
0.0
  3
*Paper_Space
  1

  0
ENDBLK
  5
1C
330
1A
100
AcDbEntity
 67
     1
  8
0
100
AcDbBlockEnd
  0
BLOCK
  5
121
330
11E
100
AcDbEntity
  8
0
100
AcDbBlockBegin
  2
_Dot
 70
     0
 10
0.0
 20
0.0
 30
0.0
  3
_Dot
  1

  0
LWPOLYLINE
  5
11F
330
11E
100
AcDbEntity
  8
0
  6
ByBlock
 62
     0
100
AcDbPolyline
 90
        2
 70
     1
 43
0.5
 10
-0.25
 20
0.0
 42
1.0
 10
0.25
 20
0.0
 42
1.0
  0
LINE
  5
120
330
11E
100
AcDbEntity
  8
0
  6
ByBlock
 62
     0
370
    -2
100
AcDbLine
 10
-0.5
 20
0.0
 30
0.0
 11
-1.0
 21
0.0
 31
0.0
  0
ENDBLK
  5
122
330
11E
100
AcDbEntity
  8
0
100
AcDbBlockEnd
  0
BLOCK
  5
15B1
330
15B0
100
AcDbEntity
  8
0
100
AcDbBlockBegin
  2
_None
 70
     0
 10
0.0
 20
0.0
 30
0.0
  3
_None
  1

  0
ENDBLK
  5
15B2
330
15B0
100
AcDbEntity
  8
0
100
AcDbBlockEnd
  0
BLOCK
  5
2CB9
330
2CB5
100
AcDbEntity
  8
0
100
AcDbBlockBegin
  2
_Open30
 70
     0
 10
0.0
 20
0.0
 30
0.0
  3
_Open30
  1

  0
LINE
  5
2CB6
330
2CB5
100
AcDbEntity
  8
0
  6
ByBlock
 62
     0
370
    -2
100
AcDbLine
 10
-1.0
 20
0.26794919
 30
0.0
 11
0.0
 21
0.0
 31
0.0
  0
LINE
  5
2CB7
330
2CB5
100
AcDbEntity
  8
0
  6
ByBlock
 62
     0
370
    -2
100
AcDbLine
 10
0.0
 20
0.0
 30
0.0
 11
-1.0
 21
-0.26794919
 31
0.0
  0
LINE
  5
2CB8
330
2CB5
100
AcDbEntity
  8
0
  6
ByBlock
 62
     0
370
    -2
100
AcDbLine
 10
0.0
 20
0.0
 30
0.0
 11
-1.0
 21
0.0
 31
0.0
  0
ENDBLK
  5
2CBA
330
2CB5
100
AcDbEntity
  8
0
100
AcDbBlockEnd
  0
BLOCK
  5
35E6
330
35E3
100
AcDbEntity
  8
0
100
AcDbBlockBegin
  2
_DotBlank
 70
     0
 10
0.0
 20
0.0
 30
0.0
  3
_DotBlank
  1

  0
CIRCLE
  5
35E4
330
35E3
100
AcDbEntity
  8
0
  6
ByBlock
 62
     0
370
    -2
100
AcDbCircle
 10
0.0
 20
0.0
 30
0.0
 40
0.5
  0
LINE
  5
35E5
330
35E3
100
AcDbEntity
  8
0
  6
ByBlock
 62
     0
370
    -2
100
AcDbLine
 10
-0.5
 20
0.0
 30
0.0
 11
-1.0
 21
0.0
 31
0.0
  0
ENDBLK
  5
35E7
330
35E3
100
AcDbEntity
  8
0
100
AcDbBlockEnd
  0
BLOCK
  5
70AD
330
70A3
100
AcDbEntity
  8
0
100
AcDbBlockBegin
  2
*D4
 70
     1
 10
0.0
 20
0.0
 30
0.0
  3
*D4
  1

  0
LINE
  5
70B8
330
70A3
100
AcDbEntity
  8
寸法
  6
Continuous
 62
     4
370
    -2
100
AcDbLine
 10
1578.219714881733
 20
910.928071241828
 30
0.0
 11
1578.219714881733
 21
985.0126058261128
 31
0.0
  0
LINE
  5
70B9
330
70A3
100
AcDbEntity
  8
寸法
  6
Continuous
 62
     4
370
    -2
100
AcDbLine
 10
1928.219714881733
 20
910.928071241828
 30
0.0
 11
1928.219714881733
 21
985.0126058261128
 31
0.0
  0
LINE
  5
70BA
330
70A3
100
AcDbEntity
  8
寸法
  6
Continuous
 62
     4
370
    -2
100
AcDbLine
 10
1579.219714881733
 20
985.0126058261128
 30
0.0
 11
1927.219714881734
 21
985.0126058261128
 31
0.0
  0
INSERT
  5
70BB
330
70A3
100
AcDbEntity
  8
寸法
  6
Continuous
 62
     4
370
    -2
100
AcDbBlockReference
  2
_Dot
 10
1578.219714881733
 20
985.0126058261128
 30
0.0
 50
180.0
  0
INSERT
  5
70BC
330
70A3
100
AcDbEntity
  8
寸法
  6
Continuous
 62
     4
370
    -2
100
AcDbBlockReference
  2
_Dot
 10
1928.219714881733
 20
985.0126058261128
 30
0.0
  0
MTEXT
  5
70BD
330
70A3
100
AcDbEntity
  8
寸法
  6
Continuous
 62
     3
100
AcDbMText
 10
1753.219714881733
 20
988.5126058261128
 30
0.0
 40
5.0
 41
0.0
 71
     5
 72
     1
  1
\A1;W
  7
ACAD
 73
     1
 44
1.0
1001
ACAD
1000
MTEXTBEGIN
1070
    73
1070
     1
1070
    44
1040
1.0
1070
    74
1070
     0
1000
MTEXTEND
  0
POINT
  5
70BE
330
70A3
100
AcDbEntity
  8
Defpoints
  6
Continuous
 62
     0
100
AcDbPoint
 10
1578.219714881733
 20
910.928071241828
 30
0.0
  0
POINT
  5
70BF
330
70A3
100
AcDbEntity
  8
Defpoints
  6
Continuous
 62
     0
100
AcDbPoint
 10
1928.219714881733
 20
910.928071241828
 30
0.0
  0
POINT
  5
70C0
330
70A3
100
AcDbEntity
  8
Defpoints
  6
Continuous
 62
     0
100
AcDbPoint
 10
1928.219714881733
 20
985.0126058261128
 30
0.0
  0
ENDBLK
  5
70AE
330
70A3
100
AcDbEntity
  8
0
100
AcDbBlockEnd
  0
BLOCK
  5
70CA
330
70C2
100
AcDbEntity
  8
0
100
AcDbBlockBegin
  2
*D5
 70
     1
 10
0.0
 20
0.0
 30
0.0
  3
*D5
  1

  0
LINE
  5
70C3
330
70C2
100
AcDbEntity
  8
寸法
  6
Continuous
 62
     4
370
    -2
100
AcDbLine
 10
1629.219714881734
 20
800.0126058261127
 30
0.0
 11
1677.219714881734
 21
800.0126058261127
 31
0.0
  0
INSERT
  5
70C4
330
70C2
100
AcDbEntity
  8
寸法
  6
Continuous
 62
     4
370
    -2
100
AcDbBlockReference
  2
_Dot
 10
1628.219714881733
 20
800.0126058261127
 30
0.0
 50
180.0
  0
INSERT
  5
70C5
330
70C2
100
AcDbEntity
  8
寸法
  6
Continuous
 62
     4
370
    -2
100
AcDbBlockReference
  2
_Dot
 10
1678.219714881733
 20
800.0126058261127
 30
0.0
  0
MTEXT
  5
70C6
330
70C2
100
AcDbEntity
  8
寸法
  6
Continuous
 62
     3
100
AcDbMText
 10
1653.219714881733
 20
803.5126058261127
 30
0.0
 40
5.0
 41
0.0
 71
     5
 72
     1
  1
\A1;50
  7
ACAD
 73
     1
 44
1.0
1001
ACAD
1000
MTEXTBEGIN
1070
    73
1070
     1
1070
    44
1040
1.0
1070
    74
1070
     0
1000
MTEXTEND
  0
POINT
  5
70C7
330
70C2
100
AcDbEntity
  8
Defpoints
  6
Continuous
 62
     0
100
AcDbPoint
 10
1628.219714881733
 20
800.0126058261127
 30
0.0
  0
POINT
  5
70C8
330
70C2
100
AcDbEntity
  8
Defpoints
  6
Continuous
 62
     0
100
AcDbPoint
 10
1678.219714881733
 20
800.0126058261127
 30
0.0
  0
POINT
  5
70C9
330
70C2
100
AcDbEntity
  8
Defpoints
  6
Continuous
 62
     0
100
AcDbPoint
 10
1678.219714881733
 20
800.0126058261127
 30
0.0
  0
ENDBLK
  5
70CB
330
70C2
100
AcDbEntity
  8
0
100
AcDbBlockEnd
  0
BLOCK
  5
70D5
330
70CD
100
AcDbEntity
  8
0
100
AcDbBlockBegin
  2
*D6
 70
     1
 10
0.0
 20
0.0
 30
0.0
  3
*D6
  1

  0
LINE
  5
70CE
330
70CD
100
AcDbEntity
  8
寸法
  6
Continuous
 62
     4
370
    -2
100
AcDbLine
 10
1829.219714881734
 20
800.0126058261127
 30
0.0
 11
1877.219714881734
 21
800.0126058261127
 31
0.0
  0
INSERT
  5
70CF
330
70CD
100
AcDbEntity
  8
寸法
  6
Continuous
 62
     4
370
    -2
100
AcDbBlockReference
  2
_Dot
 10
1828.219714881733
 20
800.0126058261127
 30
0.0
 50
180.0
  0
INSERT
  5
70D0
330
70CD
100
AcDbEntity
  8
寸法
  6
Continuous
 62
     4
370
    -2
100
AcDbBlockReference
  2
_Dot
 10
1878.219714881733
 20
800.0126058261127
 30
0.0
  0
MTEXT
  5
70D1
330
70CD
100
AcDbEntity
  8
寸法
  6
Continuous
 62
     3
100
AcDbMText
 10
1853.219714881733
 20
803.5126058261127
 30
0.0
 40
5.0
 41
0.0
 71
     5
 72
     1
  1
\A1;50
  7
ACAD
 73
     1
 44
1.0
1001
ACAD
1000
MTEXTBEGIN
1070
    73
1070
     1
1070
    44
1040
1.0
1070
    74
1070
     0
1000
MTEXTEND
  0
POINT
  5
70D2
330
70CD
100
AcDbEntity
  8
Defpoints
  6
Continuous
 62
     0
100
AcDbPoint
 10
1828.219714881733
 20
800.0126058261127
 30
0.0
  0
POINT
  5
70D3
330
70CD
100
AcDbEntity
  8
Defpoints
  6
Continuous
 62
     0
100
AcDbPoint
 10
1878.219714881733
 20
800.0126058261127
 30
0.0
  0
POINT
  5
70D4
330
70CD
100
AcDbEntity
  8
Defpoints
  6
Continuous
 62
     0
100
AcDbPoint
 10
1878.219714881733
 20
800.0126058261127
 30
0.0
  0
ENDBLK
  5
70D6
330
70CD
100
AcDbEntity
  8
0
100
AcDbBlockEnd
  0
BLOCK
  5
70EF
330
70E5
100
AcDbEntity
  8
0
100
AcDbBlockBegin
  2
*D7
 70
     1
 10
0.0
 20
0.0
 30
0.0
  3
*D7
  1

  0
LINE
  5
7140
330
70E5
100
AcDbEntity
  8
寸法
  6
Continuous
 62
     4
370
    -2
100
AcDbLine
 10
1880.971393620271
 20
860.0126058261128
 30
0.0
 11
1968.219714881733
 21
860.0126058261128
 31
0.0
  0
LINE
  5
7141
330
70E5
100
AcDbEntity
  8
寸法
  6
Continuous
 62
     4
370
    -2
100
AcDbLine
 10
1930.219714881733
 20
818.928071241828
 30
0.0
 11
1968.219714881733
 21
818.928071241828
 31
0.0
  0
LINE
  5
7142
330
70E5
100
AcDbEntity
  8
寸法
  6
Continuous
 62
     4
370
    -2
100
AcDbLine
 10
1968.219714881733
 20
859.0126058261128
 30
0.0
 11
1968.219714881733
 21
819.928071241828
 31
0.0
  0
INSERT
  5
7143
330
70E5
100
AcDbEntity
  8
寸法
  6
Continuous
 62
     4
370
    -2
100
AcDbBlockReference
  2
_Dot
 10
1968.219714881733
 20
860.0126058261128
 30
0.0
 50
90.0
  0
INSERT
  5
7144
330
70E5
100
AcDbEntity
  8
寸法
  6
Continuous
 62
     4
370
    -2
100
AcDbBlockReference
  2
_Dot
 10
1968.219714881733
 20
818.928071241828
 30
0.0
 50
270.0
  0
MTEXT
  5
7145
330
70E5
100
AcDbEntity
  8
寸法
  6
Continuous
 62
     3
100
AcDbMText
 10
1964.719714881733
 20
839.4703385339708
 30
0.0
 40
5.0
 41
0.0
 71
     5
 72
     1
  1
\A1;44
  7
ACAD
 11
0.0000000000000001
 21
1.0
 31
0.0
 73
     1
 44
1.0
1001
ACAD
1000
MTEXTBEGIN
1070
    73
1070
     1
1070
    44
1040
1.0
1070
    74
1070
     0
1000
MTEXTEND
  0
POINT
  5
7146
330
70E5
100
AcDbEntity
  8
Defpoints
  6
Continuous
 62
     0
100
AcDbPoint
 10
1880.971393620271
 20
860.0126058261128
 30
0.0
  0
POINT
  5
7147
330
70E5
100
AcDbEntity
  8
Defpoints
  6
Continuous
 62
     0
100
AcDbPoint
 10
1930.219714881733
 20
818.928071241828
 30
0.0
  0
POINT
  5
7148
330
70E5
100
AcDbEntity
  8
Defpoints
  6
Continuous
 62
     0
100
AcDbPoint
 10
1968.219714881733
 20
818.928071241828
 30
0.0
  0
ENDBLK
  5
70F0
330
70E5
100
AcDbEntity
  8
0
100
AcDbBlockEnd
  0
BLOCK
  5
70FC
330
70F2
100
AcDbEntity
  8
0
100
AcDbBlockBegin
  2
*D8
 70
     1
 10
0.0
 20
0.0
 30
0.0
  3
*D8
  1

  0
LINE
  5
70F3
330
70F2
100
AcDbEntity
  8
寸法
  6
Continuous
 62
     4
370
    -2
100
AcDbLine
 10
1930.219714881733
 20
908.9280712418283
 30
0.0
 11
1988.219714881734
 21
908.9280712418283
 31
0.0
  0
LINE
  5
70F4
330
70F2
100
AcDbEntity
  8
寸法
  6
Continuous
 62
     4
370
    -2
100
AcDbLine
 10
1930.219714881733
 20
818.928071241828
 30
0.0
 11
1988.219714881734
 21
818.928071241828
 31
0.0
  0
LINE
  5
70F5
330
70F2
100
AcDbEntity
  8
寸法
  6
Continuous
 62
     4
370
    -2
100
AcDbLine
 10
1988.219714881734
 20
907.9280712418283
 30
0.0
 11
1988.219714881734
 21
819.928071241828
 31
0.0
  0
INSERT
  5
70F6
330
70F2
100
AcDbEntity
  8
寸法
  6
Continuous
 62
     4
370
    -2
100
AcDbBlockReference
  2
_Dot
 10
1988.219714881734
 20
908.9280712418283
 30
0.0
 50
90.0
  0
INSERT
  5
70F7
330
70F2
100
AcDbEntity
  8
寸法
  6
Continuous
 62
     4
370
    -2
100
AcDbBlockReference
  2
_Dot
 10
1988.219714881734
 20
818.928071241828
 30
0.0
 50
270.0
  0
MTEXT
  5
70F8
330
70F2
100
AcDbEntity
  8
寸法
  6
Continuous
 62
     3
100
AcDbMText
 10
1984.719714881734
 20
863.9280712418285
 30
0.0
 40
5.0
 41
0.0
 71
     5
 72
     1
  1
\A1;90
  7
ACAD
 11
0.0000000000000001
 21
1.0
 31
0.0
 73
     1
 44
1.0
1001
ACAD
1000
MTEXTBEGIN
1070
    73
1070
     1
1070
    44
1040
1.0
1070
    74
1070
     0
1000
MTEXTEND
  0
POINT
  5
70F9
330
70F2
100
AcDbEntity
  8
Defpoints
  6
Continuous
 62
     0
100
AcDbPoint
 10
1930.219714881733
 20
908.9280712418283
 30
0.0
  0
POINT
  5
70FA
330
70F2
100
AcDbEntity
  8
Defpoints
  6
Continuous
 62
     0
100
AcDbPoint
 10
1930.219714881733
 20
818.928071241828
 30
0.0
  0
POINT
  5
70FB
330
70F2
100
AcDbEntity
  8
Defpoints
  6
Continuous
 62
     0
100
AcDbPoint
 10
1988.219714881734
 20
818.928071241828
 30
0.0
  0
ENDBLK
  5
70FD
330
70F2
100
AcDbEntity
  8
0
100
AcDbBlockEnd
  0
BLOCK
  5
7108
330
70FF
100
AcDbEntity
  8
0
100
AcDbBlockBegin
  2
*D9
 70
     1
 10
0.0
 20
0.0
 30
0.0
  3
*D9
  1

  0
LINE
  5
715F
330
70FF
100
AcDbEntity
  8
寸法
  6
Continuous
 62
     4
370
    -2
100
AcDbLine
 10
1578.219714881733
 20
816.9280712418281
 30
0.0
 11
1578.219714881733
 21
740.0126058261128
 31
0.0
  0
LINE
  5
7160
330
70FF
100
AcDbEntity
  8
寸法
  6
Continuous
 62
     4
370
    -2
100
AcDbLine
 10
1579.219714881733
 20
740.0126058261128
 30
0.0
 11
1627.219714881734
 21
740.0126058261128
 31
0.0
  0
INSERT
  5
7161
330
70FF
100
AcDbEntity
  8
寸法
  6
Continuous
 62
     4
370
    -2
100
AcDbBlockReference
  2
_Dot
 10
1578.219714881733
 20
740.0126058261128
 30
0.0
 50
180.0
  0
INSERT
  5
7162
330
70FF
100
AcDbEntity
  8
寸法
  6
Continuous
 62
     4
370
    -2
100
AcDbBlockReference
  2
_Dot
 10
1628.219714881733
 20
740.0126058261128
 30
0.0
  0
MTEXT
  5
7163
330
70FF
100
AcDbEntity
  8
寸法
  6
Continuous
 62
     3
100
AcDbMText
 10
1603.219714881733
 20
743.5126058261127
 30
0.0
 40
5.0
 41
0.0
 71
     5
 72
     1
  1
\A1;50≦
  7
ACAD
 73
     1
 44
1.0
1001
ACAD
1000
MTEXTBEGIN
1070
    73
1070
     1
1070
    44
1040
1.0
1070
    74
1070
     0
1000
MTEXTEND
  0
POINT
  5
7164
330
70FF
100
AcDbEntity
  8
Defpoints
  6
Continuous
 62
     0
100
AcDbPoint
 10
1578.219714881733
 20
816.9280712418281
 30
0.0
  0
POINT
  5
7165
330
70FF
100
AcDbEntity
  8
Defpoints
  6
Continuous
 62
     0
100
AcDbPoint
 10
1628.219714881733
 20
740.0126058261128
 30
0.0
  0
POINT
  5
7166
330
70FF
100
AcDbEntity
  8
Defpoints
  6
Continuous
 62
     0
100
AcDbPoint
 10
1628.219714881733
 20
740.0126058261128
 30
0.0
  0
ENDBLK
  5
7109
330
70FF
100
AcDbEntity
  8
0
100
AcDbBlockEnd
  0
BLOCK
  5
7113
330
710B
100
AcDbEntity
  8
0
100
AcDbBlockBegin
  2
*D10
 70
     1
 10
0.0
 20
0.0
 30
0.0
  3
*D10
  1

  0
LINE
  5
7158
330
710B
100
AcDbEntity
  8
寸法
  6
Continuous
 62
     4
370
    -2
100
AcDbLine
 10
1629.219714881734
 20
740.0126058261128
 30
0.0
 11
1727.219714881734
 21
740.0126058261128
 31
0.0
  0
INSERT
  5
7159
330
710B
100
AcDbEntity
  8
寸法
  6
Continuous
 62
     4
370
    -2
100
AcDbBlockReference
  2
_Dot
 10
1628.219714881733
 20
740.0126058261128
 30
0.0
 50
180.0
  0
INSERT
  5
715A
330
710B
100
AcDbEntity
  8
寸法
  6
Continuous
 62
     4
370
    -2
100
AcDbBlockReference
  2
_Dot
 10
1728.219714881733
 20
740.0126058261128
 30
0.0
  0
MTEXT
  5
715B
330
710B
100
AcDbEntity
  8
寸法
  6
Continuous
 62
     3
100
AcDbMText
 10
1678.219714881733
 20
743.5126058261127
 30
0.0
 40
5.0
 41
0.0
 71
     5
 72
     1
  1
\A1;≦Ｃ
  7
ACAD
 73
     1
 44
1.0
1001
ACAD
1000
MTEXTBEGIN
1070
    73
1070
     1
1070
    44
1040
1.0
1070
    74
1070
     0
1000
MTEXTEND
  0
POINT
  5
715C
330
710B
100
AcDbEntity
  8
Defpoints
  6
Continuous
 62
     0
100
AcDbPoint
 10
1628.219714881733
 20
740.0126058261128
 30
0.0
  0
POINT
  5
715D
330
710B
100
AcDbEntity
  8
Defpoints
  6
Continuous
 62
     0
100
AcDbPoint
 10
1728.219714881733
 20
740.0126058261128
 30
0.0
  0
POINT
  5
715E
330
710B
100
AcDbEntity
  8
Defpoints
  6
Continuous
 62
     0
100
AcDbPoint
 10
1728.219714881733
 20
740.0126058261128
 30
0.0
  0
ENDBLK
  5
7114
330
710B
100
AcDbEntity
  8
0
100
AcDbBlockEnd
  0
BLOCK
  5
711E
330
7116
100
AcDbEntity
  8
0
100
AcDbBlockBegin
  2
*D11
 70
     1
 10
0.0
 20
0.0
 30
0.0
  3
*D11
  1

  0
LINE
  5
7117
330
7116
100
AcDbEntity
  8
寸法
  6
Continuous
 62
     4
370
    -2
100
AcDbLine
 10
1729.219714881734
 20
740.0126058261128
 30
0.0
 11
1777.219714881734
 21
740.0126058261128
 31
0.0
  0
INSERT
  5
7118
330
7116
100
AcDbEntity
  8
寸法
  6
Continuous
 62
     4
370
    -2
100
AcDbBlockReference
  2
_Dot
 10
1728.219714881733
 20
740.0126058261128
 30
0.0
 50
180.0
  0
INSERT
  5
7119
330
7116
100
AcDbEntity
  8
寸法
  6
Continuous
 62
     4
370
    -2
100
AcDbBlockReference
  2
_Dot
 10
1778.219714881733
 20
740.0126058261128
 30
0.0
  0
MTEXT
  5
711A
330
7116
100
AcDbEntity
  8
寸法
  6
Continuous
 62
     3
100
AcDbMText
 10
1753.219714881733
 20
743.5126058261127
 30
0.0
 40
5.0
 41
0.0
 71
     5
 72
     1
  1
\A1;50
  7
ACAD
 73
     1
 44
1.0
1001
ACAD
1000
MTEXTBEGIN
1070
    73
1070
     1
1070
    44
1040
1.0
1070
    74
1070
     0
1000
MTEXTEND
  0
POINT
  5
711B
330
7116
100
AcDbEntity
  8
Defpoints
  6
Continuous
 62
     0
100
AcDbPoint
 10
1728.219714881733
 20
740.0126058261128
 30
0.0
  0
POINT
  5
711C
330
7116
100
AcDbEntity
  8
Defpoints
  6
Continuous
 62
     0
100
AcDbPoint
 10
1778.219714881733
 20
740.0126058261128
 30
0.0
  0
POINT
  5
711D
330
7116
100
AcDbEntity
  8
Defpoints
  6
Continuous
 62
     0
100
AcDbPoint
 10
1778.219714881733
 20
740.0126058261128
 30
0.0
  0
ENDBLK
  5
711F
330
7116
100
AcDbEntity
  8
0
100
AcDbBlockEnd
  0
BLOCK
  5
7129
330
7121
100
AcDbEntity
  8
0
100
AcDbBlockBegin
  2
*D12
 70
     1
 10
0.0
 20
0.0
 30
0.0
  3
*D12
  1

  0
LINE
  5
7151
330
7121
100
AcDbEntity
  8
寸法
  6
Continuous
 62
     4
370
    -2
100
AcDbLine
 10
1779.219714881733
 20
740.0126058261128
 30
0.0
 11
1877.219714881734
 21
740.0126058261128
 31
0.0
  0
INSERT
  5
7152
330
7121
100
AcDbEntity
  8
寸法
  6
Continuous
 62
     4
370
    -2
100
AcDbBlockReference
  2
_Dot
 10
1778.219714881733
 20
740.0126058261128
 30
0.0
 50
180.0
  0
INSERT
  5
7153
330
7121
100
AcDbEntity
  8
寸法
  6
Continuous
 62
     4
370
    -2
100
AcDbBlockReference
  2
_Dot
 10
1878.219714881734
 20
740.0126058261128
 30
0.0
  0
MTEXT
  5
7154
330
7121
100
AcDbEntity
  8
寸法
  6
Continuous
 62
     3
100
AcDbMText
 10
1828.219714881733
 20
743.5126058261127
 30
0.0
 40
5.0
 41
0.0
 71
     5
 72
     1
  1
\A1;≦Ｃ
  7
ACAD
 73
     1
 44
1.0
1001
ACAD
1000
MTEXTBEGIN
1070
    73
1070
     1
1070
    44
1040
1.0
1070
    74
1070
     0
1000
MTEXTEND
  0
POINT
  5
7155
330
7121
100
AcDbEntity
  8
Defpoints
  6
Continuous
 62
     0
100
AcDbPoint
 10
1778.219714881733
 20
740.0126058261128
 30
0.0
  0
POINT
  5
7156
330
7121
100
AcDbEntity
  8
Defpoints
  6
Continuous
 62
     0
100
AcDbPoint
 10
1878.219714881734
 20
740.0126058261128
 30
0.0
  0
POINT
  5
7157
330
7121
100
AcDbEntity
  8
Defpoints
  6
Continuous
 62
     0
100
AcDbPoint
 10
1878.219714881734
 20
740.0126058261128
 30
0.0
  0
ENDBLK
  5
712A
330
7121
100
AcDbEntity
  8
0
100
AcDbBlockEnd
  0
BLOCK
  5
7135
330
712C
100
AcDbEntity
  8
0
100
AcDbBlockBegin
  2
*D13
 70
     1
 10
0.0
 20
0.0
 30
0.0
  3
*D13
  1

  0
LINE
  5
7149
330
712C
100
AcDbEntity
  8
寸法
  6
Continuous
 62
     4
370
    -2
100
AcDbLine
 10
1928.219714881733
 20
816.9280712418281
 30
0.0
 11
1928.219714881733
 21
740.0126058261128
 31
0.0
  0
LINE
  5
714A
330
712C
100
AcDbEntity
  8
寸法
  6
Continuous
 62
     4
370
    -2
100
AcDbLine
 10
1879.219714881734
 20
740.0126058261128
 30
0.0
 11
1927.219714881734
 21
740.0126058261128
 31
0.0
  0
INSERT
  5
714B
330
712C
100
AcDbEntity
  8
寸法
  6
Continuous
 62
     4
370
    -2
100
AcDbBlockReference
  2
_Dot
 10
1878.219714881734
 20
740.0126058261128
 30
0.0
 50
180.0
  0
INSERT
  5
714C
330
712C
100
AcDbEntity
  8
寸法
  6
Continuous
 62
     4
370
    -2
100
AcDbBlockReference
  2
_Dot
 10
1928.219714881733
 20
740.0126058261128
 30
0.0
  0
MTEXT
  5
714D
330
712C
100
AcDbEntity
  8
寸法
  6
Continuous
 62
     3
100
AcDbMText
 10
1903.219714881733
 20
743.5126058261127
 30
0.0
 40
5.0
 41
0.0
 71
     5
 72
     1
  1
\A1;50≦
  7
ACAD
 73
     1
 44
1.0
1001
ACAD
1000
MTEXTBEGIN
1070
    73
1070
     1
1070
    44
1040
1.0
1070
    74
1070
     0
1000
MTEXTEND
  0
POINT
  5
714E
330
712C
100
AcDbEntity
  8
Defpoints
  6
Continuous
 62
     0
100
AcDbPoint
 10
1878.219714881734
 20
740.0126058261128
 30
0.0
  0
POINT
  5
714F
330
712C
100
AcDbEntity
  8
Defpoints
  6
Continuous
 62
     0
100
AcDbPoint
 10
1928.219714881733
 20
816.9280712418281
 30
0.0
  0
POINT
  5
7150
330
712C
100
AcDbEntity
  8
Defpoints
  6
Continuous
 62
     0
100
AcDbPoint
 10
1928.219714881733
 20
740.0126058261128
 30
0.0
  0
ENDBLK
  5
7136
330
712C
100
AcDbEntity
  8
0
100
AcDbBlockEnd
  0
ENDSEC
  0
SECTION
  2
ENTITIES
  0
ARC
  5
6BD3
330
1E
100
AcDbEntity
  8
躯体と製品
  6
Continuous
 62
     7
100
AcDbCircle
 10
1728.191155107835
 20
859.0130137396522
 30
0.0
 40
1.0
100
AcDbArc
 50
4.999999999999459
 51
88.3634229583817
  0
LINE
  5
6BD4
330
1E
100
AcDbEntity
  8
躯体と製品
  6
Continuous
 62
     7
100
AcDbLine
 10
1729.187349805926
 20
859.1001694823997
 30
0.0
 11
1735.471134352136
 21
787.2761834599418
 31
0.0
  0
ARC
  5
6BD5
330
1E
100
AcDbEntity
  8
躯体と製品
  6
Continuous
 62
     7
100
AcDbCircle
 10
1778.248274655632
 20
859.0130137396522
 30
0.0
 40
1.0
100
AcDbArc
 50
91.63657704161829
 51
175.0000000000005
  0
LINE
  5
6BD6
330
1E
100
AcDbEntity
  8
躯体と製品
  6
Continuous
 62
     7
100
AcDbLine
 10
1777.25207995754
 20
859.1001694823997
 30
0.0
 11
1770.968295411331
 21
787.2761834599418
 31
0.0
  0
LINE
  5
6BD7
330
1E
100
AcDbEntity
  8
躯体と製品
  6
Continuous
 62
     3
100
AcDbLine
 10
1813.219714881734
 20
860.0126058261128
 30
0.0
 11
1843.219714881733
 21
860.0126058261128
 31
0.0
  0
LINE
  5
6BD8
330
1E
100
AcDbEntity
  8
躯体と製品
  6
Continuous
 62
     3
100
AcDbLine
 10
1843.219714881733
 20
860.0126058261128
 30
0.0
 11
1843.219714881733
 21
861.0126058261128
 31
0.0
  0
LINE
  5
6BD9
330
1E
100
AcDbEntity
  8
躯体と製品
  6
Continuous
 62
     3
100
AcDbLine
 10
1843.219714881733
 20
861.0126058261128
 30
0.0
 11
1813.219714881734
 21
861.0126058261128
 31
0.0
  0
LINE
  5
6BDA
330
1E
100
AcDbEntity
  8
躯体と製品
  6
Continuous
 62
     3
100
AcDbLine
 10
1813.219714881734
 20
861.0126058261128
 30
0.0
 11
1813.219714881734
 21
860.0126058261128
 31
0.0
  0
LINE
  5
6BDB
330
1E
100
AcDbEntity
  8
躯体と製品
  6
Continuous
 62
     4
100
AcDbLine
 10
1843.063399780611
 20
860.0126058261132
 30
0.0
 11
1843.219714881733
 21
860.1689209272356
 31
0.0
  0
LINE
  5
6BDC
330
1E
100
AcDbEntity
  8
躯体と製品
  6
Continuous
 62
     4
100
AcDbLine
 10
1841.649186218239
 20
860.0126058261123
 30
0.0
 11
1842.649186218238
 21
861.0126058261123
 31
0.0
  0
LINE
  5
6BDD
330
1E
100
AcDbEntity
  8
躯体と製品
  6
Continuous
 62
     4
100
AcDbLine
 10
1840.234972655865
 20
860.0126058261123
 30
0.0
 11
1841.234972655865
 21
861.0126058261128
 31
0.0
  0
LINE
  5
6BDE
330
1E
100
AcDbEntity
  8
躯体と製品
  6
Continuous
 62
     4
100
AcDbLine
 10
1838.820759093492
 20
860.0126058261128
 30
0.0
 11
1839.820759093493
 21
861.0126058261132
 31
0.0
  0
LINE
  5
6BDF
330
1E
100
AcDbEntity
  8
躯体と製品
  6
Continuous
 62
     4
100
AcDbLine
 10
1837.406545531119
 20
860.0126058261128
 30
0.0
 11
1838.406545531119
 21
861.0126058261132
 31
0.0
  0
LINE
  5
6BE0
330
1E
100
AcDbEntity
  8
躯体と製品
  6
Continuous
 62
     4
100
AcDbLine
 10
1835.992331968745
 20
860.0126058261128
 30
0.0
 11
1836.992331968745
 21
861.0126058261123
 31
0.0
  0
LINE
  5
6BE1
330
1E
100
AcDbEntity
  8
躯体と製品
  6
Continuous
 62
     4
100
AcDbLine
 10
1834.578118406372
 20
860.0126058261132
 30
0.0
 11
1835.578118406372
 21
861.0126058261128
 31
0.0
  0
LINE
  5
6BE2
330
1E
100
AcDbEntity
  8
躯体と製品
  6
Continuous
 62
     4
100
AcDbLine
 10
1833.163904843999
 20
860.0126058261132
 30
0.0
 11
1834.163904843999
 21
861.0126058261128
 31
0.0
  0
LINE
  5
6BE3
330
1E
100
AcDbEntity
  8
躯体と製品
  6
Continuous
 62
     4
100
AcDbLine
 10
1831.749691281626
 20
860.0126058261128
 30
0.0
 11
1832.749691281625
 21
861.0126058261123
 31
0.0
  0
LINE
  5
6BE4
330
1E
100
AcDbEntity
  8
躯体と製品
  6
Continuous
 62
     4
100
AcDbLine
 10
1830.335477719254
 20
860.0126058261132
 30
0.0
 11
1831.335477719254
 21
861.0126058261132
 31
0.0
  0
LINE
  5
6BE5
330
1E
100
AcDbEntity
  8
躯体と製品
  6
Continuous
 62
     4
100
AcDbLine
 10
1828.921264156881
 20
860.0126058261132
 30
0.0
 11
1829.921264156881
 21
861.0126058261135
 31
0.0
  0
LINE
  5
6BE6
330
1E
100
AcDbEntity
  8
躯体と製品
  6
Continuous
 62
     4
100
AcDbLine
 10
1827.507050594508
 20
860.0126058261132
 30
0.0
 11
1828.507050594507
 21
861.0126058261128
 31
0.0
  0
LINE
  5
6BE7
330
1E
100
AcDbEntity
  8
躯体と製品
  6
Continuous
 62
     4
100
AcDbLine
 10
1826.092837032135
 20
860.0126058261132
 30
0.0
 11
1827.092837032134
 21
861.0126058261132
 31
0.0
  0
LINE
  5
6BE8
330
1E
100
AcDbEntity
  8
躯体と製品
  6
Continuous
 62
     4
100
AcDbLine
 10
1824.678623469761
 20
860.0126058261132
 30
0.0
 11
1825.678623469761
 21
861.0126058261132
 31
0.0
  0
LINE
  5
6BE9
330
1E
100
AcDbEntity
  8
躯体と製品
  6
Continuous
 62
     4
100
AcDbLine
 10
1823.264409907388
 20
860.0126058261135
 30
0.0
 11
1824.264409907388
 21
861.0126058261132
 31
0.0
  0
LINE
  5
6BEA
330
1E
100
AcDbEntity
  8
躯体と製品
  6
Continuous
 62
     4
100
AcDbLine
 10
1821.850196345015
 20
860.0126058261135
 30
0.0
 11
1822.850196345014
 21
861.0126058261132
 31
0.0
  0
LINE
  5
6BEB
330
1E
100
AcDbEntity
  8
躯体と製品
  6
Continuous
 62
     4
100
AcDbLine
 10
1820.435982782641
 20
860.0126058261132
 30
0.0
 11
1821.435982782641
 21
861.0126058261132
 31
0.0
  0
LINE
  5
6BEC
330
1E
100
AcDbEntity
  8
躯体と製品
  6
Continuous
 62
     4
100
AcDbLine
 10
1819.021769220269
 20
860.0126058261128
 30
0.0
 11
1820.021769220269
 21
861.0126058261132
 31
0.0
  0
LINE
  5
6BED
330
1E
100
AcDbEntity
  8
躯体と製品
  6
Continuous
 62
     4
100
AcDbLine
 10
1817.607555657896
 20
860.0126058261128
 30
0.0
 11
1818.607555657896
 21
861.0126058261132
 31
0.0
  0
LINE
  5
6BEE
330
1E
100
AcDbEntity
  8
躯体と製品
  6
Continuous
 62
     4
100
AcDbLine
 10
1816.193342095522
 20
860.0126058261123
 30
0.0
 11
1817.193342095522
 21
861.0126058261128
 31
0.0
  0
LINE
  5
6BEF
330
1E
100
AcDbEntity
  8
躯体と製品
  6
Continuous
 62
     4
100
AcDbLine
 10
1814.779128533149
 20
860.0126058261128
 30
0.0
 11
1815.779128533149
 21
861.0126058261123
 31
0.0
  0
LINE
  5
6BF0
330
1E
100
AcDbEntity
  8
躯体と製品
  6
Continuous
 62
     4
100
AcDbLine
 10
1813.364914970776
 20
860.0126058261128
 30
0.0
 11
1814.364914970775
 21
861.0126058261123
 31
0.0
  0
LINE
  5
6BF1
330
1E
100
AcDbEntity
  8
躯体と製品
  6
Continuous
 62
     3
100
AcDbLine
 10
1925.376722750462
 20
909.0770661459472
 30
0.0
 11
1753.219714881733
 21
918.0994326163604
 31
0.0
  0
LINE
  5
6BF2
330
1E
100
AcDbEntity
  8
躯体と製品
  6
Continuous
 62
     3
100
AcDbLine
 10
1928.219714881733
 20
906.0811775416837
 30
0.0
 11
1928.219714881733
 21
821.9280712418283
 31
0.0
  0
LINE
  5
6BF3
330
1E
100
AcDbEntity
  8
躯体と製品
  6
Continuous
 62
     4
100
AcDbLine
 10
1899.509281487087
 20
906.6711357929259
 30
0.0
 11
1897.12478851957
 21
909.0556287604419
 31
0.0
  0
LINE
  5
6BF4
330
1E
100
AcDbEntity
  8
躯体と製品
  6
DASHED1
 62
     7
100
AcDbLine
 10
1681.215603485997
 20
880.0931281227281
 30
0.0
 11
1681.404012928472
 21
876.4980617976119
 31
0.0
  0
LINE
  5
6BF5
330
1E
100
AcDbEntity
  8
躯体と製品
  6
DASHED1
 62
     7
100
AcDbLine
 10
1675.22382627747
 20
879.7791123852702
 30
0.0
 11
1675.412235719944
 21
876.184046060154
 31
0.0
  0
LINE
  5
6BF6
330
1E
100
AcDbEntity
  8
躯体と製品
  6
DASHED1
 62
     7
100
AcDbLine
 10
1825.22382627747
 20
880.0931281227281
 30
0.0
 11
1825.035416834995
 21
876.4980617976119
 31
0.0
  0
LINE
  5
6BF7
330
1E
100
AcDbEntity
  8
躯体と製品
  6
DASHED1
 62
     7
100
AcDbLine
 10
1831.215603485997
 20
879.7791123852702
 30
0.0
 11
1831.027194043523
 21
876.184046060154
 31
0.0
  0
LINE
  5
6BF8
330
1E
100
AcDbEntity
  8
躯体と製品
  6
Continuous
 62
     4
100
AcDbLine
 10
1664.219714881733
 20
870.512605826113
 30
0.0
 11
1664.219714881733
 21
868.9126058261127
 31
0.0
  0
LINE
  5
6BF9
330
1E
100
AcDbEntity
  8
躯体と製品
  6
Continuous
 62
     4
100
AcDbLine
 10
1692.219714881733
 20
870.512605826113
 30
0.0
 11
1692.219714881733
 21
868.9126058261127
 31
0.0
  0
LINE
  5
6BFA
330
1E
100
AcDbEntity
  8
躯体と製品
  6
Continuous
 62
     4
100
AcDbLine
 10
1842.219714881733
 20
870.512605826113
 30
0.0
 11
1842.219714881733
 21
868.9126058261127
 31
0.0
  0
LINE
  5
6BFB
330
1E
100
AcDbEntity
  8
躯体と製品
  6
Continuous
 62
     4
100
AcDbLine
 10
1814.219714881733
 20
870.512605826113
 30
0.0
 11
1814.219714881733
 21
868.9126058261127
 31
0.0
  0
LINE
  5
6BFC
330
1E
100
AcDbEntity
  8
躯体と製品
  6
Continuous
 62
     3
100
AcDbLine
 10
1837.229620389843
 20
879.463931114769
 30
0.0
 11
1819.429620389843
 21
880.3967895860074
 31
0.0
  0
LINE
  5
6BFD
330
1E
100
AcDbEntity
  8
躯体と製品
  6
Continuous
 62
     3
100
AcDbLine
 10
1837.145882859855
 20
877.8661238591618
 30
0.0
 11
1819.345882859855
 21
878.7989823304
 31
0.0
  0
ARC
  5
6BFE
330
1E
100
AcDbEntity
  8
躯体と製品
  6
Continuous
 62
     3
100
AcDbCircle
 10
1833.675966790127
 20
877.046602108677
 30
0.0
 40
1.0
100
AcDbArc
 50
86.99999999999441
 51
177.0000000000011
  0
LINE
  5
6BFF
330
1E
100
AcDbEntity
  8
躯体と製品
  6
Continuous
 62
     3
100
AcDbLine
 10
1832.677337255373
 20
877.0989380649197
 30
0.0
 11
1832.62500129913
 21
876.1003085301654
 31
0.0
  0
ARC
  5
6C00
330
1E
100
AcDbEntity
  8
躯体と製品
  6
Continuous
 62
     3
100
AcDbCircle
 10
1822.491316000876
 20
877.6327648185981
 30
0.0
 40
1.0
100
AcDbArc
 50
357.0000000000011
 51
86.99999999999441
  0
LINE
  5
6C01
330
1E
100
AcDbEntity
  8
躯体と製品
  6
Continuous
 62
     3
100
AcDbLine
 10
1823.489945535631
 20
877.580428862355
 30
0.0
 11
1823.437609579388
 21
876.5817993276002
 31
0.0
  0
LINE
  5
6C02
330
1E
100
AcDbEntity
  8
躯体と製品
  6
Continuous
 62
     3
100
AcDbLine
 10
1832.62500129913
 20
876.1003085301654
 30
0.0
 11
1823.437609579388
 21
876.5817993276002
 31
0.0
  0
ARC
  5
6C03
330
1E
100
AcDbEntity
  8
躯体と製品
  6
Continuous
 62
     3
100
AcDbCircle
 10
1837.119714881733
 20
877.3668090917846
 30
0.0
 40
2.1
100
AcDbArc
 50
0.0
 51
86.99999999999441
  0
LINE
  5
6C04
330
1E
100
AcDbEntity
  8
躯体と製品
  6
Continuous
 62
     3
100
AcDbLine
 10
1839.219714881733
 20
877.3668090917846
 30
0.0
 11
1839.219714881733
 21
871.0126058261129
 31
0.0
  0
ARC
  5
6C05
330
1E
100
AcDbEntity
  8
躯体と製品
  6
Continuous
 62
     3
100
AcDbCircle
 10
1819.319714881734
 20
878.2996675630228
 30
0.0
 40
2.1
100
AcDbArc
 50
86.99999999999441
 51
180.0
  0
ARC
  5
6C06
330
1E
100
AcDbEntity
  8
躯体と製品
  6
Continuous
 62
     3
100
AcDbCircle
 10
1837.119714881733
 20
877.3668090917846
 30
0.0
 40
0.5
100
AcDbArc
 50
0.0
 51
86.99999999999441
  0
LINE
  5
6C07
330
1E
100
AcDbEntity
  8
躯体と製品
  6
Continuous
 62
     3
100
AcDbLine
 10
1837.619714881734
 20
877.3668090917846
 30
0.0
 11
1837.619714881734
 21
871.0126058261129
 31
0.0
  0
ARC
  5
6C08
330
1E
100
AcDbEntity
  8
躯体と製品
  6
Continuous
 62
     3
100
AcDbCircle
 10
1819.319714881734
 20
878.2996675630228
 30
0.0
 40
0.5
100
AcDbArc
 50
86.99999999999441
 51
180.0
  0
LINE
  5
6C09
330
1E
100
AcDbEntity
  8
躯体と製品
  6
Continuous
 62
     3
100
AcDbLine
 10
1818.819714881733
 20
878.2996675630228
 30
0.0
 11
1818.819714881733
 21
871.0126058261129
 31
0.0
  0
ARC
  5
6C0A
330
1E
100
AcDbEntity
  8
躯体と製品
  6
Continuous
 62
     3
100
AcDbCircle
 10
1839.719714881734
 20
871.0126058261129
 30
0.0
 40
0.5
100
AcDbArc
 50
180.0
 51
270.0
  0
ARC
  5
6C0B
330
1E
100
AcDbEntity
  8
躯体と製品
  6
Continuous
 62
     3
100
AcDbCircle
 10
1839.719714881734
 20
871.0126058261129
 30
0.0
 40
2.1
100
AcDbArc
 50
180.0
 51
270.0
  0
LINE
  5
6C0C
330
1E
100
AcDbEntity
  8
躯体と製品
  6
Continuous
 62
     3
100
AcDbLine
 10
1844.219714881733
 20
870.512605826113
 30
0.0
 11
1844.219714881733
 21
868.9126058261127
 31
0.0
  0
LINE
  5
6C0D
330
1E
100
AcDbEntity
  8
躯体と製品
  6
Continuous
 62
     3
100
AcDbLine
 10
1839.719714881734
 20
870.512605826113
 30
0.0
 11
1844.219714881733
 21
870.512605826113
 31
0.0
  0
LINE
  5
6C0E
330
1E
100
AcDbEntity
  8
躯体と製品
  6
Continuous
 62
     3
100
AcDbLine
 10
1844.219714881733
 20
868.9126058261127
 30
0.0
 11
1839.719714881734
 21
868.9126058261127
 31
0.0
  0
ARC
  5
6C0F
330
1E
100
AcDbEntity
  8
躯体と製品
  6
Continuous
 62
     3
100
AcDbCircle
 10
1816.719714881734
 20
871.0126058261129
 30
0.0
 40
0.5
100
AcDbArc
 50
270.0
 51
0.0
  0
ARC
  5
6C10
330
1E
100
AcDbEntity
  8
躯体と製品
  6
Continuous
 62
     3
100
AcDbCircle
 10
1816.719714881734
 20
871.0126058261129
 30
0.0
 40
2.1
100
AcDbArc
 50
270.0
 51
0.0
  0
LINE
  5
6C11
330
1E
100
AcDbEntity
  8
躯体と製品
  6
Continuous
 62
     3
100
AcDbLine
 10
1812.219714881733
 20
870.512605826113
 30
0.0
 11
1816.719714881734
 21
870.512605826113
 31
0.0
  0
LINE
  5
6C12
330
1E
100
AcDbEntity
  8
躯体と製品
  6
Continuous
 62
     3
100
AcDbLine
 10
1812.219714881733
 20
868.9126058261127
 30
0.0
 11
1812.219714881733
 21
870.512605826113
 31
0.0
  0
LINE
  5
6C13
330
1E
100
AcDbEntity
  8
躯体と製品
  6
Continuous
 62
     3
100
AcDbLine
 10
1812.219714881733
 20
868.9126058261127
 30
0.0
 11
1816.719714881734
 21
868.9126058261127
 31
0.0
  0
LINE
  5
6C14
330
1E
100
AcDbEntity
  8
躯体と製品
  6
Continuous
 62
     3
100
AcDbLine
 10
1817.219714881733
 20
878.2996675630228
 30
0.0
 11
1817.219714881733
 21
871.0126058261129
 31
0.0
  0
LINE
  5
6C15
330
1E
100
AcDbEntity
  8
躯体と製品
  6
Continuous
 62
     3
100
AcDbLine
 10
1689.219714881733
 20
878.2996675630228
 30
0.0
 11
1689.219714881733
 21
871.0126058261129
 31
0.0
  0
LINE
  5
6C16
330
1E
100
AcDbEntity
  8
躯体と製品
  6
Continuous
 62
     3
100
AcDbLine
 10
1694.219714881734
 20
868.9126058261127
 30
0.0
 11
1689.719714881734
 21
868.9126058261127
 31
0.0
  0
LINE
  5
6C17
330
1E
100
AcDbEntity
  8
躯体と製品
  6
Continuous
 62
     3
100
AcDbLine
 10
1694.219714881734
 20
868.9126058261127
 30
0.0
 11
1694.219714881734
 21
870.512605826113
 31
0.0
  0
LINE
  5
6C18
330
1E
100
AcDbEntity
  8
躯体と製品
  6
Continuous
 62
     3
100
AcDbLine
 10
1694.219714881734
 20
870.512605826113
 30
0.0
 11
1689.719714881734
 21
870.512605826113
 31
0.0
  0
ARC
  5
6C19
330
1E
100
AcDbEntity
  8
躯体と製品
  6
Continuous
 62
     3
100
AcDbCircle
 10
1689.719714881734
 20
871.0126058261129
 30
0.0
 40
2.1
100
AcDbArc
 50
180.0
 51
270.0
  0
ARC
  5
6C1A
330
1E
100
AcDbEntity
  8
躯体と製品
  6
Continuous
 62
     3
100
AcDbCircle
 10
1689.719714881734
 20
871.0126058261129
 30
0.0
 40
0.5
100
AcDbArc
 50
180.0
 51
270.0
  0
LINE
  5
6C1B
330
1E
100
AcDbEntity
  8
躯体と製品
  6
Continuous
 62
     3
100
AcDbLine
 10
1662.219714881733
 20
868.9126058261127
 30
0.0
 11
1666.719714881734
 21
868.9126058261127
 31
0.0
  0
LINE
  5
6C1C
330
1E
100
AcDbEntity
  8
躯体と製品
  6
Continuous
 62
     3
100
AcDbLine
 10
1666.719714881734
 20
870.512605826113
 30
0.0
 11
1662.219714881733
 21
870.512605826113
 31
0.0
  0
LINE
  5
6C1D
330
1E
100
AcDbEntity
  8
躯体と製品
  6
Continuous
 62
     3
100
AcDbLine
 10
1662.219714881733
 20
870.512605826113
 30
0.0
 11
1662.219714881733
 21
868.9126058261127
 31
0.0
  0
ARC
  5
6C1E
330
1E
100
AcDbEntity
  8
躯体と製品
  6
Continuous
 62
     3
100
AcDbCircle
 10
1666.719714881734
 20
871.0126058261129
 30
0.0
 40
2.1
100
AcDbArc
 50
270.0
 51
0.0
  0
ARC
  5
6C1F
330
1E
100
AcDbEntity
  8
躯体と製品
  6
Continuous
 62
     3
100
AcDbCircle
 10
1666.719714881734
 20
871.0126058261129
 30
0.0
 40
0.5
100
AcDbArc
 50
270.0
 51
0.0
  0
LINE
  5
6C20
330
1E
100
AcDbEntity
  8
躯体と製品
  6
Continuous
 62
     3
100
AcDbLine
 10
1687.619714881734
 20
878.2996675630228
 30
0.0
 11
1687.619714881734
 21
871.0126058261129
 31
0.0
  0
ARC
  5
6C21
330
1E
100
AcDbEntity
  8
躯体と製品
  6
Continuous
 62
     3
100
AcDbCircle
 10
1687.119714881734
 20
878.2996675630228
 30
0.0
 40
0.5
100
AcDbArc
 50
0.0
 51
93.00000000000558
  0
LINE
  5
6C22
330
1E
100
AcDbEntity
  8
躯体と製品
  6
Continuous
 62
     3
100
AcDbLine
 10
1668.819714881733
 20
877.3668090917846
 30
0.0
 11
1668.819714881733
 21
871.0126058261129
 31
0.0
  0
ARC
  5
6C23
330
1E
100
AcDbEntity
  8
躯体と製品
  6
Continuous
 62
     3
100
AcDbCircle
 10
1669.319714881734
 20
877.3668090917846
 30
0.0
 40
0.5
100
AcDbArc
 50
93.00000000000558
 51
180.0
  0
ARC
  5
6C24
330
1E
100
AcDbEntity
  8
躯体と製品
  6
Continuous
 62
     3
100
AcDbCircle
 10
1687.119714881734
 20
878.2996675630228
 30
0.0
 40
2.1
100
AcDbArc
 50
0.0
 51
93.00000000000558
  0
LINE
  5
6C25
330
1E
100
AcDbEntity
  8
躯体と製品
  6
Continuous
 62
     3
100
AcDbLine
 10
1667.219714881733
 20
877.3668090917846
 30
0.0
 11
1667.219714881733
 21
871.0126058261129
 31
0.0
  0
ARC
  5
6C26
330
1E
100
AcDbEntity
  8
躯体と製品
  6
Continuous
 62
     3
100
AcDbCircle
 10
1669.319714881734
 20
877.3668090917846
 30
0.0
 40
2.1
100
AcDbArc
 50
93.00000000000558
 51
180.0
  0
LINE
  5
6C27
330
1E
100
AcDbEntity
  8
躯体と製品
  6
Continuous
 62
     3
100
AcDbLine
 10
1673.814428464337
 20
876.1003085301654
 30
0.0
 11
1683.001820184079
 21
876.5817993276002
 31
0.0
  0
LINE
  5
6C28
330
1E
100
AcDbEntity
  8
躯体と製品
  6
Continuous
 62
     3
100
AcDbLine
 10
1682.949484227836
 20
877.580428862355
 30
0.0
 11
1683.001820184079
 21
876.5817993276002
 31
0.0
  0
ARC
  5
6C29
330
1E
100
AcDbEntity
  8
躯体と製品
  6
Continuous
 62
     3
100
AcDbCircle
 10
1683.94811376259
 20
877.6327648185981
 30
0.0
 40
1.0
100
AcDbArc
 50
93.00000000000558
 51
182.9999999999989
  0
LINE
  5
6C2A
330
1E
100
AcDbEntity
  8
躯体と製品
  6
Continuous
 62
     3
100
AcDbLine
 10
1673.762092508094
 20
877.0989380649197
 30
0.0
 11
1673.814428464337
 21
876.1003085301654
 31
0.0
  0
ARC
  5
6C2B
330
1E
100
AcDbEntity
  8
躯体と製品
  6
Continuous
 62
     3
100
AcDbCircle
 10
1672.76346297334
 20
877.046602108677
 30
0.0
 40
1.0
100
AcDbArc
 50
2.999999999998919
 51
93.00000000000558
  0
LINE
  5
6C2C
330
1E
100
AcDbEntity
  8
躯体と製品
  6
Continuous
 62
     3
100
AcDbLine
 10
1669.293546903612
 20
877.8661238591618
 30
0.0
 11
1687.093546903612
 21
878.7989823304
 31
0.0
  0
LINE
  5
6C2D
330
1E
100
AcDbEntity
  8
躯体と製品
  6
Continuous
 62
     3
100
AcDbLine
 10
1669.209809373623
 20
879.463931114769
 30
0.0
 11
1687.009809373624
 21
880.3967895860074
 31
0.0
  0
LINE
  5
6C2E
330
1E
100
AcDbEntity
  8
躯体と製品
  6
Continuous
 62
     7
100
AcDbLine
 10
1878.219714881733
 20
860.0126058261128
 30
0.0
 11
1778.219714881733
 21
860.0126058261128
 31
0.0
  0
LINE
  5
6C2F
330
1E
100
AcDbEntity
  8
躯体と製品
  6
Continuous
 62
     7
100
AcDbLine
 10
1628.219714881733
 20
860.0126058261128
 30
0.0
 11
1728.219714881733
 21
860.0126058261128
 31
0.0
  0
LINE
  5
6C30
330
1E
100
AcDbEntity
  8
躯体と製品
  6
DASHED1
 62
     7
100
AcDbLine
 10
1824.169714881733
 20
862.012605826113
 30
0.0
 11
1824.169714881733
 21
852.7126058261128
 31
0.0
  0
LINE
  5
6C31
330
1E
100
AcDbEntity
  8
躯体と製品
  6
DASHED1
 62
     7
100
AcDbLine
 10
1832.269714881734
 20
862.012605826113
 30
0.0
 11
1832.269714881734
 21
852.7126058261128
 31
0.0
  0
LINE
  5
6C32
330
1E
100
AcDbEntity
  8
躯体と製品
  6
DASHED1
 62
     7
100
AcDbLine
 10
1823.469714881733
 20
852.0126058261128
 30
0.0
 11
1824.169714881733
 21
852.7126058261128
 31
0.0
  0
LINE
  5
6C33
330
1E
100
AcDbEntity
  8
躯体と製品
  6
DASHED1
 62
     7
100
AcDbLine
 10
1823.469714881733
 20
833.384431826113
 30
0.0
 11
1823.469714881733
 21
852.0126058261128
 31
0.0
  0
LINE
  5
6C34
330
1E
100
AcDbEntity
  8
躯体と製品
  6
DASHED1
 62
     7
100
AcDbLine
 10
1823.719714881734
 20
821.5126058261128
 30
0.0
 11
1823.719714881734
 21
822.3759098261128
 31
0.0
  0
LINE
  5
6C35
330
1E
100
AcDbEntity
  8
躯体と製品
  6
DASHED1
 62
     7
100
AcDbLine
 10
1821.594684881733
 20
822.7506098261128
 30
0.0
 11
1823.469714881733
 21
833.384431826113
 31
0.0
  0
LINE
  5
6C36
330
1E
100
AcDbEntity
  8
躯体と製品
  6
DASHED1
 62
     7
100
AcDbLine
 10
1827.719714881733
 20
833.0126058261127
 30
0.0
 11
1828.719714881733
 21
833.0126058261127
 31
0.0
  0
LINE
  5
6C37
330
1E
100
AcDbEntity
  8
躯体と製品
  6
DASHED1
 62
     7
100
AcDbLine
 10
1832.969714881733
 20
852.0126058261128
 30
0.0
 11
1832.269714881734
 21
852.7126058261128
 31
0.0
  0
LINE
  5
6C38
330
1E
100
AcDbEntity
  8
躯体と製品
  6
DASHED1
 62
     7
100
AcDbLine
 10
1832.969714881733
 20
833.384431826113
 30
0.0
 11
1832.969714881733
 21
852.0126058261128
 31
0.0
  0
LINE
  5
6C39
330
1E
100
AcDbEntity
  8
躯体と製品
  6
DASHED1
 62
     7
100
AcDbLine
 10
1831.719714881733
 20
820.5126058261127
 30
0.0
 11
1824.719714881733
 21
820.5126058261127
 31
0.0
  0
ARC
  5
6C3A
330
1E
100
AcDbEntity
  8
躯体と製品
  6
DASHED1
 62
     7
100
AcDbCircle
 10
1831.719714881733
 20
821.5126058261128
 30
0.0
 40
1.0
100
AcDbArc
 50
270.0
 51
0.0
  0
LINE
  5
6C3B
330
1E
100
AcDbEntity
  8
躯体と製品
  6
DASHED1
 62
     7
100
AcDbLine
 10
1832.719714881734
 20
821.5126058261128
 30
0.0
 11
1832.719714881734
 21
822.3759098261128
 31
0.0
  0
LINE
  5
6C3C
330
1E
100
AcDbEntity
  8
躯体と製品
  6
DASHED1
 62
     7
100
AcDbLine
 10
1834.844744881733
 20
822.7506098261128
 30
0.0
 11
1830.659311881733
 21
822.0126058261127
 31
0.0
  0
LINE
  5
6C3D
330
1E
100
AcDbEntity
  8
躯体と製品
  6
DASHED1
 62
     7
100
AcDbLine
 10
1827.719714881733
 20
833.0126058261127
 30
0.0
 11
1825.780117881733
 21
822.0126058261127
 31
0.0
  0
LINE
  5
6C3E
330
1E
100
AcDbEntity
  8
躯体と製品
  6
DASHED1
 62
     7
100
AcDbLine
 10
1828.719714881733
 20
833.0126058261127
 30
0.0
 11
1830.659311881733
 21
822.0126058261127
 31
0.0
  0
LINE
  5
6C3F
330
1E
100
AcDbEntity
  8
躯体と製品
  6
DASHED1
 62
     7
100
AcDbLine
 10
1834.844744881733
 20
822.7506098261128
 30
0.0
 11
1832.969714881733
 21
833.384431826113
 31
0.0
  0
LINE
  5
6C40
330
1E
100
AcDbEntity
  8
躯体と製品
  6
DASHED1
 62
     7
100
AcDbLine
 10
1823.469714881733
 20
852.0126058261128
 30
0.0
 11
1832.969714881733
 21
852.0126058261128
 31
0.0
  0
LINE
  5
6C41
330
1E
100
AcDbEntity
  8
躯体と製品
  6
DASHED1
 62
     7
100
AcDbLine
 10
1824.169714881733
 20
852.7126058261128
 30
0.0
 11
1832.269714881734
 21
852.7126058261128
 31
0.0
  0
LINE
  5
6C42
330
1E
100
AcDbEntity
  8
躯体と製品
  6
DASHED1
 62
     7
100
AcDbLine
 10
1821.594684881733
 20
822.7506098261128
 30
0.0
 11
1825.780117881733
 21
822.0126058261127
 31
0.0
  0
ARC
  5
6C43
330
1E
100
AcDbEntity
  8
躯体と製品
  6
DASHED1
 62
     7
100
AcDbCircle
 10
1824.719714881733
 20
821.5126058261128
 30
0.0
 40
1.0
100
AcDbArc
 50
180.0
 51
270.0
  0
ARC
  5
6C44
330
1E
100
AcDbEntity
  8
躯体と製品
  6
DASHED1
 62
     7
100
AcDbCircle
 10
1681.719714881733
 20
821.5126058261128
 30
0.0
 40
1.0
100
AcDbArc
 50
270.0
 51
0.0
  0
LINE
  5
6C45
330
1E
100
AcDbEntity
  8
躯体と製品
  6
DASHED1
 62
     7
100
AcDbLine
 10
1684.844744881734
 20
822.7506098261128
 30
0.0
 11
1680.659311881733
 21
822.0126058261127
 31
0.0
  0
LINE
  5
6C46
330
1E
100
AcDbEntity
  8
躯体と製品
  6
DASHED1
 62
     7
100
AcDbLine
 10
1682.269714881734
 20
852.7126058261128
 30
0.0
 11
1674.169714881734
 21
852.7126058261128
 31
0.0
  0
LINE
  5
6C47
330
1E
100
AcDbEntity
  8
躯体と製品
  6
DASHED1
 62
     7
100
AcDbLine
 10
1682.969714881733
 20
852.0126058261128
 30
0.0
 11
1673.469714881733
 21
852.0126058261128
 31
0.0
  0
LINE
  5
6C48
330
1E
100
AcDbEntity
  8
躯体と製品
  6
DASHED1
 62
     7
100
AcDbLine
 10
1671.594684881733
 20
822.7506098261128
 30
0.0
 11
1673.469714881733
 21
833.384431826113
 31
0.0
  0
LINE
  5
6C49
330
1E
100
AcDbEntity
  8
躯体と製品
  6
DASHED1
 62
     7
100
AcDbLine
 10
1677.719714881733
 20
833.0126058261127
 30
0.0
 11
1675.780117881734
 21
822.0126058261127
 31
0.0
  0
LINE
  5
6C4A
330
1E
100
AcDbEntity
  8
躯体と製品
  6
DASHED1
 62
     7
100
AcDbLine
 10
1678.719714881733
 20
833.0126058261127
 30
0.0
 11
1680.659311881733
 21
822.0126058261127
 31
0.0
  0
LINE
  5
6C4B
330
1E
100
AcDbEntity
  8
躯体と製品
  6
DASHED1
 62
     7
100
AcDbLine
 10
1671.594684881733
 20
822.7506098261128
 30
0.0
 11
1675.780117881734
 21
822.0126058261127
 31
0.0
  0
LINE
  5
6C4C
330
1E
100
AcDbEntity
  8
躯体と製品
  6
DASHED1
 62
     7
100
AcDbLine
 10
1673.719714881733
 20
821.5126058261128
 30
0.0
 11
1673.719714881733
 21
822.3759098261128
 31
0.0
  0
ARC
  5
6C4D
330
1E
100
AcDbEntity
  8
躯体と製品
  6
DASHED1
 62
     7
100
AcDbCircle
 10
1674.719714881733
 20
821.5126058261128
 30
0.0
 40
1.0
100
AcDbArc
 50
180.0
 51
270.0
  0
LINE
  5
6C4E
330
1E
100
AcDbEntity
  8
躯体と製品
  6
DASHED1
 62
     7
100
AcDbLine
 10
1674.719714881733
 20
820.5126058261127
 30
0.0
 11
1681.719714881733
 21
820.5126058261127
 31
0.0
  0
LINE
  5
6C4F
330
1E
100
AcDbEntity
  8
躯体と製品
  6
DASHED1
 62
     7
100
AcDbLine
 10
1673.469714881733
 20
833.384431826113
 30
0.0
 11
1673.469714881733
 21
852.0126058261128
 31
0.0
  0
LINE
  5
6C50
330
1E
100
AcDbEntity
  8
躯体と製品
  6
DASHED1
 62
     7
100
AcDbLine
 10
1673.469714881733
 20
852.0126058261128
 30
0.0
 11
1674.169714881734
 21
852.7126058261128
 31
0.0
  0
LINE
  5
6C51
330
1E
100
AcDbEntity
  8
躯体と製品
  6
DASHED1
 62
     7
100
AcDbLine
 10
1678.719714881733
 20
833.0126058261127
 30
0.0
 11
1677.719714881733
 21
833.0126058261127
 31
0.0
  0
LINE
  5
6C52
330
1E
100
AcDbEntity
  8
躯体と製品
  6
DASHED1
 62
     7
100
AcDbLine
 10
1684.844744881734
 20
822.7506098261128
 30
0.0
 11
1682.969714881733
 21
833.384431826113
 31
0.0
  0
LINE
  5
6C53
330
1E
100
AcDbEntity
  8
躯体と製品
  6
DASHED1
 62
     7
100
AcDbLine
 10
1682.719714881734
 20
821.5126058261128
 30
0.0
 11
1682.719714881734
 21
822.3759098261128
 31
0.0
  0
LINE
  5
6C54
330
1E
100
AcDbEntity
  8
躯体と製品
  6
DASHED1
 62
     7
100
AcDbLine
 10
1682.969714881733
 20
833.384431826113
 30
0.0
 11
1682.969714881733
 21
852.0126058261128
 31
0.0
  0
LINE
  5
6C55
330
1E
100
AcDbEntity
  8
躯体と製品
  6
DASHED1
 62
     7
100
AcDbLine
 10
1682.969714881733
 20
852.0126058261128
 30
0.0
 11
1682.269714881734
 21
852.7126058261128
 31
0.0
  0
LINE
  5
6C56
330
1E
100
AcDbEntity
  8
躯体と製品
  6
DASHED1
 62
     7
100
AcDbLine
 10
1674.169714881734
 20
862.012605826113
 30
0.0
 11
1674.169714881734
 21
852.7126058261128
 31
0.0
  0
LINE
  5
6C57
330
1E
100
AcDbEntity
  8
躯体と製品
  6
DASHED1
 62
     7
100
AcDbLine
 10
1682.269714881734
 20
862.012605826113
 30
0.0
 11
1682.269714881734
 21
852.7126058261128
 31
0.0
  0
LINE
  5
6C58
330
1E
100
AcDbEntity
  8
躯体と製品
  6
Continuous
 62
     3
100
AcDbLine
 10
1853.592285163161
 20
869.9861297806693
 30
0.0
 11
1853.911040862001
 21
868.9144979388238
 31
0.0
  0
LINE
  5
6C59
330
1E
100
AcDbEntity
  8
躯体と製品
  6
Continuous
 62
     3
100
AcDbLine
 10
1853.418636985495
 20
869.001322027657
 30
0.0
 11
1853.737392684334
 21
867.9296901858112
 31
0.0
  0
LINE
  5
6C5A
330
1E
100
AcDbEntity
  8
躯体と製品
  6
Continuous
 62
     3
100
AcDbLine
 10
1828.219714881733
 20
864.0126058261127
 30
0.0
 11
1827.719714881733
 21
864.5126058261128
 31
0.0
  0
LINE
  5
6C5B
330
1E
100
AcDbEntity
  8
躯体と製品
  6
Continuous
 62
     3
100
AcDbLine
 10
1844.419714881734
 20
870.512605826113
 30
0.0
 11
1841.469714881733
 21
870.512605826113
 31
0.0
  0
ARC
  5
6C5C
330
1E
100
AcDbEntity
  8
躯体と製品
  6
Continuous
 62
     3
100
AcDbCircle
 10
1844.419714881734
 20
870.2126058261127
 30
0.0
 40
0.2999999999999998
100
AcDbArc
 50
0.0
 51
90.0
  0
LINE
  5
6C5D
330
1E
100
AcDbEntity
  8
躯体と製品
  6
Continuous
 62
     3
100
AcDbLine
 10
1844.719714881733
 20
870.2126058261127
 30
0.0
 11
1844.719714881733
 21
868.3126058261127
 31
0.0
  0
ARC
  5
6C5E
330
1E
100
AcDbEntity
  8
躯体と製品
  6
Continuous
 62
     3
100
AcDbCircle
 10
1844.419714881734
 20
868.3126058261127
 30
0.0
 40
0.2999999999999998
100
AcDbArc
 50
270.0
 51
0.0
  0
LINE
  5
6C5F
330
1E
100
AcDbEntity
  8
躯体と製品
  6
Continuous
 62
     3
100
AcDbLine
 10
1844.419714881734
 20
868.0126058261128
 30
0.0
 11
1842.469714881733
 21
868.0126058261128
 31
0.0
  0
LINE
  5
6C60
330
1E
100
AcDbEntity
  8
躯体と製品
  6
Continuous
 62
     3
100
AcDbLine
 10
1844.719714881733
 20
866.2126058261128
 30
0.0
 11
1844.719714881733
 21
864.8126058261127
 31
0.0
  0
ARC
  5
6C61
330
1E
100
AcDbEntity
  8
躯体と製品
  6
Continuous
 62
     3
100
AcDbCircle
 10
1844.419714881734
 20
866.2126058261128
 30
0.0
 40
0.2999999999999998
100
AcDbArc
 50
0.0
 51
90.0
  0
LINE
  5
6C62
330
1E
100
AcDbEntity
  8
躯体と製品
  6
Continuous
 62
     3
100
AcDbLine
 10
1844.419714881734
 20
866.512605826113
 30
0.0
 11
1842.469714881733
 21
866.512605826113
 31
0.0
  0
ARC
  5
6C63
330
1E
100
AcDbEntity
  8
躯体と製品
  6
Continuous
 62
     3
100
AcDbCircle
 10
1842.469714881733
 20
867.2626058261128
 30
0.0
 40
0.75
100
AcDbArc
 50
90.0
 51
270.0
  0
ARC
  5
6C64
330
1E
100
AcDbEntity
  8
躯体と製品
  6
Continuous
 62
     3
100
AcDbCircle
 10
1841.469714881733
 20
871.2626058261127
 30
0.0
 40
0.75
100
AcDbArc
 50
90.0
 51
270.0
  0
LINE
  5
6C65
330
1E
100
AcDbEntity
  8
躯体と製品
  6
Continuous
 62
     3
100
AcDbLine
 10
1844.719714881733
 20
872.5126058261128
 30
0.0
 11
1844.719714881733
 21
880.0126058261129
 31
0.0
  0
ARC
  5
6C66
330
1E
100
AcDbEntity
  8
躯体と製品
  6
Continuous
 62
     3
100
AcDbCircle
 10
1844.219714881733
 20
872.5126058261128
 30
0.0
 40
0.5
100
AcDbArc
 50
270.0
 51
0.0
  0
LINE
  5
6C67
330
1E
100
AcDbEntity
  8
躯体と製品
  6
Continuous
 62
     3
100
AcDbLine
 10
1844.219714881733
 20
872.0126058261127
 30
0.0
 11
1841.469714881733
 21
872.0126058261127
 31
0.0
  0
ARC
  5
6C68
330
1E
100
AcDbEntity
  8
躯体と製品
  6
Continuous
 62
     3
100
AcDbCircle
 10
1844.419714881734
 20
864.8126058261127
 30
0.0
 40
0.2999999999999998
100
AcDbArc
 50
270.0
 51
0.0
  0
ARC
  5
6C69
330
1E
100
AcDbEntity
  8
躯体と製品
  6
Continuous
 62
     3
100
AcDbCircle
 10
1847.219714881734
 20
865.0126058261127
 30
0.0
 40
0.5
100
AcDbArc
 50
180.0
 51
270.0
  0
LINE
  5
6C6A
330
1E
100
AcDbEntity
  8
躯体と製品
  6
Continuous
 62
     3
100
AcDbLine
 10
1846.719714881734
 20
865.0126058261127
 30
0.0
 11
1846.719714881734
 21
880.0126058261129
 31
0.0
  0
LINE
  5
6C6B
330
1E
100
AcDbEntity
  8
躯体と製品
  6
Continuous
 62
     3
100
AcDbLine
 10
1846.719714881734
 20
863.0126058261129
 30
0.0
 11
1857.219714881733
 21
863.0126058261129
 31
0.0
  0
LINE
  5
6C6C
330
1E
100
AcDbEntity
  8
躯体と製品
  6
Continuous
 62
     3
100
AcDbLine
 10
1846.719714881734
 20
862.012605826113
 30
0.0
 11
1846.719714881734
 21
863.0126058261129
 31
0.0
  0
LINE
  5
6C6D
330
1E
100
AcDbEntity
  8
躯体と製品
  6
Continuous
 62
     3
100
AcDbLine
 10
1828.219714881733
 20
864.0126058261127
 30
0.0
 11
1828.719714881733
 21
864.5126058261128
 31
0.0
  0
LINE
  5
6C6E
330
1E
100
AcDbEntity
  8
躯体と製品
  6
Continuous
 62
     3
100
AcDbLine
 10
1857.219714881733
 20
862.012605826113
 30
0.0
 11
1858.719714881734
 21
862.012605826113
 31
0.0
  0
LINE
  5
6C6F
330
1E
100
AcDbEntity
  8
躯体と製品
  6
Continuous
 62
     3
100
AcDbLine
 10
1857.219714881733
 20
863.0126058261129
 30
0.0
 11
1857.219714881733
 21
862.012605826113
 31
0.0
  0
ARC
  5
6C70
330
1E
100
AcDbEntity
  8
躯体と製品
  6
Continuous
 62
     3
100
AcDbCircle
 10
1845.719714881734
 20
880.0126058261129
 30
0.0
 40
1.0
100
AcDbArc
 50
0.0
 51
180.0
  0
LINE
  5
6C71
330
1E
100
AcDbEntity
  8
躯体と製品
  6
Continuous
 62
     3
100
AcDbLine
 10
1844.719714881733
 20
862.012605826113
 30
0.0
 11
1846.719714881734
 21
862.012605826113
 31
0.0
  0
LINE
  5
6C72
330
1E
100
AcDbEntity
  8
躯体と製品
  6
Continuous
 62
     3
100
AcDbLine
 10
1844.719714881733
 20
862.512605826113
 30
0.0
 11
1844.719714881733
 21
862.012605826113
 31
0.0
  0
LINE
  5
6C73
330
1E
100
AcDbEntity
  8
躯体と製品
  6
Continuous
 62
     3
100
AcDbLine
 10
1833.219714881733
 20
862.512605826113
 30
0.0
 11
1844.719714881733
 21
862.512605826113
 31
0.0
  0
LINE
  5
6C74
330
1E
100
AcDbEntity
  8
躯体と製品
  6
Continuous
 62
     3
100
AcDbLine
 10
1833.219714881733
 20
862.012605826113
 30
0.0
 11
1833.219714881733
 21
862.512605826113
 31
0.0
  0
LINE
  5
6C75
330
1E
100
AcDbEntity
  8
躯体と製品
  6
Continuous
 62
     3
100
AcDbLine
 10
1812.019714881733
 20
864.5126058261128
 30
0.0
 11
1827.719714881733
 21
864.5126058261128
 31
0.0
  0
LINE
  5
6C76
330
1E
100
AcDbEntity
  8
躯体と製品
  6
Continuous
 62
     3
100
AcDbLine
 10
1828.719714881733
 20
864.5126058261128
 30
0.0
 11
1844.419714881734
 21
864.5126058261128
 31
0.0
  0
LINE
  5
6C77
330
1E
100
AcDbEntity
  8
躯体と製品
  6
Continuous
 62
     3
100
AcDbLine
 10
1823.219714881733
 20
862.012605826113
 30
0.0
 11
1833.219714881733
 21
862.012605826113
 31
0.0
  0
LINE
  5
6C78
330
1E
100
AcDbEntity
  8
躯体と製品
  6
Continuous
 62
     3
100
AcDbLine
 10
1810.219714881733
 20
871.512605826113
 30
0.0
 11
1810.219714881733
 21
862.012605826113
 31
0.0
  0
ARC
  5
6C79
330
1E
100
AcDbEntity
  8
躯体と製品
  6
Continuous
 62
     3
100
AcDbCircle
 10
1810.719714881733
 20
871.512605826113
 30
0.0
 40
0.5
100
AcDbArc
 50
90.0
 51
180.0
  0
LINE
  5
6C7A
330
1E
100
AcDbEntity
  8
躯体と製品
  6
Continuous
 62
     3
100
AcDbLine
 10
1810.719714881733
 20
872.0126058261127
 30
0.0
 11
1814.969714881733
 21
872.0126058261127
 31
0.0
  0
LINE
  5
6C7B
330
1E
100
AcDbEntity
  8
躯体と製品
  6
Continuous
 62
     3
100
AcDbLine
 10
1811.719714881733
 20
864.8126058261127
 30
0.0
 11
1811.719714881733
 21
866.2126058261128
 31
0.0
  0
ARC
  5
6C7C
330
1E
100
AcDbEntity
  8
躯体と製品
  6
Continuous
 62
     3
100
AcDbCircle
 10
1812.019714881733
 20
864.8126058261127
 30
0.0
 40
0.2999999999999998
100
AcDbArc
 50
180.0
 51
270.0
  0
LINE
  5
6C7D
330
1E
100
AcDbEntity
  8
躯体と製品
  6
Continuous
 62
     3
100
AcDbLine
 10
1812.019714881733
 20
866.512605826113
 30
0.0
 11
1813.969714881734
 21
866.512605826113
 31
0.0
  0
ARC
  5
6C7E
330
1E
100
AcDbEntity
  8
躯体と製品
  6
Continuous
 62
     3
100
AcDbCircle
 10
1812.019714881733
 20
866.2126058261128
 30
0.0
 40
0.2999999999999998
100
AcDbArc
 50
90.0
 51
180.0
  0
LINE
  5
6C7F
330
1E
100
AcDbEntity
  8
躯体と製品
  6
Continuous
 62
     3
100
AcDbLine
 10
1811.719714881733
 20
868.3126058261127
 30
0.0
 11
1811.719714881733
 21
870.2126058261127
 31
0.0
  0
ARC
  5
6C80
330
1E
100
AcDbEntity
  8
躯体と製品
  6
Continuous
 62
     3
100
AcDbCircle
 10
1812.019714881733
 20
868.3126058261127
 30
0.0
 40
0.2999999999999998
100
AcDbArc
 50
180.0
 51
270.0
  0
LINE
  5
6C81
330
1E
100
AcDbEntity
  8
躯体と製品
  6
Continuous
 62
     3
100
AcDbLine
 10
1812.019714881733
 20
868.0126058261128
 30
0.0
 11
1813.969714881734
 21
868.0126058261128
 31
0.0
  0
LINE
  5
6C82
330
1E
100
AcDbEntity
  8
躯体と製品
  6
Continuous
 62
     3
100
AcDbLine
 10
1812.019714881733
 20
870.512605826113
 30
0.0
 11
1814.969714881733
 21
870.512605826113
 31
0.0
  0
ARC
  5
6C83
330
1E
100
AcDbEntity
  8
躯体と製品
  6
Continuous
 62
     3
100
AcDbCircle
 10
1812.019714881733
 20
870.2126058261127
 30
0.0
 40
0.2999999999999998
100
AcDbArc
 50
90.0
 51
180.0
  0
ARC
  5
6C84
330
1E
100
AcDbEntity
  8
躯体と製品
  6
Continuous
 62
     3
100
AcDbCircle
 10
1813.969714881734
 20
867.2626058261128
 30
0.0
 40
0.75
100
AcDbArc
 50
270.0
 51
90.0
  0
ARC
  5
6C85
330
1E
100
AcDbEntity
  8
躯体と製品
  6
Continuous
 62
     3
100
AcDbCircle
 10
1814.969714881733
 20
871.2626058261127
 30
0.0
 40
0.75
100
AcDbArc
 50
270.0
 51
90.0
  0
LINE
  5
6C86
330
1E
100
AcDbEntity
  8
躯体と製品
  6
Continuous
 62
     3
100
AcDbLine
 10
1823.219714881733
 20
862.512605826113
 30
0.0
 11
1823.219714881733
 21
862.012605826113
 31
0.0
  0
LINE
  5
6C87
330
1E
100
AcDbEntity
  8
躯体と製品
  6
Continuous
 62
     3
100
AcDbLine
 10
1811.719714881733
 20
862.512605826113
 30
0.0
 11
1823.219714881733
 21
862.512605826113
 31
0.0
  0
LINE
  5
6C88
330
1E
100
AcDbEntity
  8
躯体と製品
  6
Continuous
 62
     3
100
AcDbLine
 10
1811.719714881733
 20
862.012605826113
 30
0.0
 11
1811.719714881733
 21
862.512605826113
 31
0.0
  0
LINE
  5
6C89
330
1E
100
AcDbEntity
  8
躯体と製品
  6
Continuous
 62
     3
100
AcDbLine
 10
1810.219714881733
 20
862.012605826113
 30
0.0
 11
1811.719714881733
 21
862.012605826113
 31
0.0
  0
LINE
  5
6C8A
330
1E
100
AcDbEntity
  8
躯体と製品
  6
Continuous
 62
     3
100
AcDbLine
 10
1858.719714881734
 20
862.012605826113
 30
0.0
 11
1858.719714881734
 21
864.5126058261128
 31
0.0
  0
ARC
  5
6C8B
330
1E
100
AcDbEntity
  8
躯体と製品
  6
Continuous
 62
     3
100
AcDbCircle
 10
1858.979586088559
 20
870.305486539183
 30
0.0
 40
0.7499999999999977
100
AcDbArc
 50
350.0000000000025
 51
170.0000000000025
  0
ARC
  5
6C8C
330
1E
100
AcDbEntity
  8
躯体と製品
  6
Continuous
 62
     3
100
AcDbCircle
 10
1853.563143446992
 20
871.2605515163513
 30
0.0
 40
0.7500000000000016
100
AcDbArc
 50
350.0000000000025
 51
170.0000000000025
  0
LINE
  5
6C8D
330
1E
100
AcDbEntity
  8
躯体と製品
  6
Continuous
 62
     3
100
AcDbLine
 10
1858.516323928222
 20
869.1178888923348
 30
0.0
 11
1857.850271874049
 21
868.2199052281559
 31
0.0
  0
LINE
  5
6C8E
330
1E
100
AcDbEntity
  8
躯体と製品
  6
Continuous
 62
     3
100
AcDbLine
 10
1858.342675750556
 20
868.1330811393225
 30
0.0
 11
1857.676623696383
 21
867.2350974751434
 31
0.0
  0
LINE
  5
6C8F
330
1E
100
AcDbEntity
  8
躯体と製品
  6
Continuous
 62
     3
100
AcDbLine
 10
1854.084689039667
 20
869.8993056918357
 30
0.0
 11
1854.301749261751
 21
871.1303153831011
 31
0.0
  0
LINE
  5
6C90
330
1E
100
AcDbEntity
  8
躯体と製品
  6
Continuous
 62
     3
100
AcDbLine
 10
1858.023920051716
 20
869.2047129811681
 30
0.0
 11
1858.2409802738
 21
870.4357226724333
 31
0.0
  0
LINE
  5
6C91
330
1E
100
AcDbEntity
  8
躯体と製品
  6
Continuous
 62
     3
100
AcDbLine
 10
1858.719714881734
 20
864.5126058261128
 30
0.0
 11
1859.718191903318
 21
870.1752504059333
 31
0.0
  0
LINE
  5
6C92
330
1E
100
AcDbEntity
  8
躯体と製品
  6
Continuous
 62
     3
100
AcDbLine
 10
1858.516323928222
 20
869.1178888923348
 30
0.0
 11
1858.023920051716
 21
869.2047129811681
 31
0.0
  0
LINE
  5
6C93
330
1E
100
AcDbEntity
  8
躯体と製品
  6
Continuous
 62
     3
100
AcDbLine
 10
1854.084689039667
 20
869.8993056918357
 30
0.0
 11
1853.592285163161
 21
869.9861297806693
 31
0.0
  0
LINE
  5
6C94
330
1E
100
AcDbEntity
  8
躯体と製品
  6
Continuous
 62
     3
100
AcDbLine
 10
1858.342675750556
 20
868.1330811393225
 30
0.0
 11
1857.850271874049
 21
868.2199052281559
 31
0.0
  0
LINE
  5
6C95
330
1E
100
AcDbEntity
  8
躯体と製品
  6
Continuous
 62
     3
100
AcDbLine
 10
1853.911040862001
 20
868.9144979388238
 30
0.0
 11
1853.418636985495
 21
869.001322027657
 31
0.0
  0
LINE
  5
6C96
330
1E
100
AcDbEntity
  8
躯体と製品
  6
Continuous
 62
     3
100
AcDbLine
 10
1851.684582659451
 20
864.9257817372793
 30
0.0
 11
1852.824537632233
 21
871.3907876496016
 31
0.0
  0
LINE
  5
6C97
330
1E
100
AcDbEntity
  8
躯体と製品
  6
Continuous
 62
     3
100
AcDbLine
 10
1851.192178782945
 20
864.5126058261128
 30
0.0
 11
1847.219714881734
 21
864.5126058261128
 31
0.0
  0
ARC
  5
6C98
330
1E
100
AcDbEntity
  8
躯体と製品
  6
Continuous
 62
     3
100
AcDbCircle
 10
1851.192178782945
 20
865.0126058261127
 30
0.0
 40
0.5
100
AcDbArc
 50
270.0
 51
350.0000000000025
  0
LINE
  5
6C99
330
1E
100
AcDbEntity
  8
躯体と製品
  6
Continuous
 62
     3
100
AcDbLine
 10
1853.238341436153
 20
865.0994299149461
 30
0.0
 11
1853.737392684334
 21
867.9296901858112
 31
0.0
  0
ARC
  5
6C9A
330
1E
100
AcDbEntity
  8
躯体と製品
  6
Continuous
 62
     3
100
AcDbCircle
 10
1853.730745312659
 20
865.0126058261127
 30
0.0
 40
0.5
100
AcDbArc
 50
170.0000000000025
 51
270.0
  0
LINE
  5
6C9B
330
1E
100
AcDbEntity
  8
躯体と製品
  6
Continuous
 62
     3
100
AcDbLine
 10
1857.269429024822
 20
864.9257817372793
 30
0.0
 11
1857.676623696383
 21
867.2350974751434
 31
0.0
  0
LINE
  5
6C9C
330
1E
100
AcDbEntity
  8
躯体と製品
  6
Continuous
 62
     3
100
AcDbLine
 10
1856.777025148316
 20
864.5126058261128
 30
0.0
 11
1853.730745312659
 21
864.5126058261128
 31
0.0
  0
ARC
  5
6C9D
330
1E
100
AcDbEntity
  8
躯体と製品
  6
Continuous
 62
     3
100
AcDbCircle
 10
1856.777025148316
 20
865.0126058261127
 30
0.0
 40
0.5
100
AcDbArc
 50
270.0
 51
350.0000000000025
  0
ARC
  5
6C9E
330
1E
100
AcDbEntity
  8
躯体と製品
  6
Continuous
 62
     3
100
AcDbCircle
 10
1649.662404615151
 20
865.0126058261127
 30
0.0
 40
0.5
100
AcDbArc
 50
189.9999999999975
 51
270.0
  0
LINE
  5
6C9F
330
1E
100
AcDbEntity
  8
躯体と製品
  6
Continuous
 62
     3
100
AcDbLine
 10
1649.662404615151
 20
864.5126058261128
 30
0.0
 11
1652.708684450808
 21
864.5126058261128
 31
0.0
  0
LINE
  5
6CA0
330
1E
100
AcDbEntity
  8
躯体と製品
  6
Continuous
 62
     3
100
AcDbLine
 10
1649.170000738645
 20
864.9257817372793
 30
0.0
 11
1648.762806067084
 21
867.2350974751434
 31
0.0
  0
ARC
  5
6CA1
330
1E
100
AcDbEntity
  8
躯体と製品
  6
Continuous
 62
     3
100
AcDbCircle
 10
1652.708684450808
 20
865.0126058261127
 30
0.0
 40
0.5
100
AcDbArc
 50
270.0
 51
9.999999999997477
  0
LINE
  5
6CA2
330
1E
100
AcDbEntity
  8
躯体と製品
  6
Continuous
 62
     3
100
AcDbLine
 10
1653.201088327314
 20
865.0994299149463
 30
0.0
 11
1652.702037079134
 21
867.9296901858112
 31
0.0
  0
ARC
  5
6CA3
330
1E
100
AcDbEntity
  8
躯体と製品
  6
Continuous
 62
     3
100
AcDbCircle
 10
1655.247250980522
 20
865.0126058261127
 30
0.0
 40
0.5
100
AcDbArc
 50
189.9999999999975
 51
270.0
  0
LINE
  5
6CA4
330
1E
100
AcDbEntity
  8
躯体と製品
  6
Continuous
 62
     3
100
AcDbLine
 10
1655.247250980522
 20
864.5126058261128
 30
0.0
 11
1659.219714881734
 21
864.5126058261128
 31
0.0
  0
LINE
  5
6CA5
330
1E
100
AcDbEntity
  8
躯体と製品
  6
Continuous
 62
     3
100
AcDbLine
 10
1654.754847104016
 20
864.9257817372793
 30
0.0
 11
1653.614892131234
 21
871.3907876496016
 31
0.0
  0
LINE
  5
6CA6
330
1E
100
AcDbEntity
  8
躯体と製品
  6
Continuous
 62
     3
100
AcDbLine
 10
1652.528388901466
 20
868.9144979388238
 30
0.0
 11
1653.020792777972
 21
869.001322027657
 31
0.0
  0
LINE
  5
6CA7
330
1E
100
AcDbEntity
  8
躯体と製品
  6
Continuous
 62
     3
100
AcDbLine
 10
1648.096754012912
 20
868.1330811393225
 30
0.0
 11
1648.589157889418
 21
868.2199052281559
 31
0.0
  0
LINE
  5
6CA8
330
1E
100
AcDbEntity
  8
躯体と製品
  6
Continuous
 62
     3
100
AcDbLine
 10
1652.3547407238
 20
869.8993056918357
 30
0.0
 11
1652.847144600306
 21
869.9861297806693
 31
0.0
  0
LINE
  5
6CA9
330
1E
100
AcDbEntity
  8
躯体と製品
  6
Continuous
 62
     3
100
AcDbLine
 10
1647.923105835245
 20
869.1178888923348
 30
0.0
 11
1648.415509711751
 21
869.2047129811681
 31
0.0
  0
LINE
  5
6CAA
330
1E
100
AcDbEntity
  8
躯体と製品
  6
Continuous
 62
     3
100
AcDbLine
 10
1647.719714881733
 20
864.5126058261128
 30
0.0
 11
1646.721237860148
 21
870.1752504059333
 31
0.0
  0
LINE
  5
6CAB
330
1E
100
AcDbEntity
  8
躯体と製品
  6
Continuous
 62
     3
100
AcDbLine
 10
1648.415509711751
 20
869.2047129811681
 30
0.0
 11
1648.198449489667
 21
870.4357226724333
 31
0.0
  0
LINE
  5
6CAC
330
1E
100
AcDbEntity
  8
躯体と製品
  6
Continuous
 62
     3
100
AcDbLine
 10
1652.3547407238
 20
869.8993056918357
 30
0.0
 11
1652.137680501716
 21
871.1303153831011
 31
0.0
  0
LINE
  5
6CAD
330
1E
100
AcDbEntity
  8
躯体と製品
  6
Continuous
 62
     3
100
AcDbLine
 10
1648.096754012912
 20
868.1330811393225
 30
0.0
 11
1648.762806067084
 21
867.2350974751434
 31
0.0
  0
LINE
  5
6CAE
330
1E
100
AcDbEntity
  8
躯体と製品
  6
Continuous
 62
     3
100
AcDbLine
 10
1647.923105835245
 20
869.1178888923348
 30
0.0
 11
1648.589157889418
 21
868.2199052281559
 31
0.0
  0
ARC
  5
6CAF
330
1E
100
AcDbEntity
  8
躯体と製品
  6
Continuous
 62
     3
100
AcDbCircle
 10
1652.876286316475
 20
871.2605515163513
 30
0.0
 40
0.7500000000000014
100
AcDbArc
 50
9.999999999997477
 51
189.9999999999975
  0
ARC
  5
6CB0
330
1E
100
AcDbEntity
  8
躯体と製品
  6
Continuous
 62
     3
100
AcDbCircle
 10
1647.459843674908
 20
870.305486539183
 30
0.0
 40
0.7499999999999977
100
AcDbArc
 50
9.999999999997477
 51
189.9999999999975
  0
LINE
  5
6CB1
330
1E
100
AcDbEntity
  8
躯体と製品
  6
Continuous
 62
     3
100
AcDbLine
 10
1647.719714881733
 20
862.012605826113
 30
0.0
 11
1647.719714881733
 21
864.5126058261128
 31
0.0
  0
LINE
  5
6CB2
330
1E
100
AcDbEntity
  8
躯体と製品
  6
Continuous
 62
     3
100
AcDbLine
 10
1696.219714881734
 20
862.012605826113
 30
0.0
 11
1694.719714881734
 21
862.012605826113
 31
0.0
  0
LINE
  5
6CB3
330
1E
100
AcDbEntity
  8
躯体と製品
  6
Continuous
 62
     3
100
AcDbLine
 10
1694.719714881734
 20
862.012605826113
 30
0.0
 11
1694.719714881734
 21
862.512605826113
 31
0.0
  0
LINE
  5
6CB4
330
1E
100
AcDbEntity
  8
躯体と製品
  6
Continuous
 62
     3
100
AcDbLine
 10
1694.719714881734
 20
862.512605826113
 30
0.0
 11
1683.219714881733
 21
862.512605826113
 31
0.0
  0
LINE
  5
6CB5
330
1E
100
AcDbEntity
  8
躯体と製品
  6
Continuous
 62
     3
100
AcDbLine
 10
1683.219714881733
 20
862.512605826113
 30
0.0
 11
1683.219714881733
 21
862.012605826113
 31
0.0
  0
ARC
  5
6CB6
330
1E
100
AcDbEntity
  8
躯体と製品
  6
Continuous
 62
     3
100
AcDbCircle
 10
1691.469714881733
 20
871.2626058261127
 30
0.0
 40
0.75
100
AcDbArc
 50
90.0
 51
270.0
  0
ARC
  5
6CB7
330
1E
100
AcDbEntity
  8
躯体と製品
  6
Continuous
 62
     3
100
AcDbCircle
 10
1692.469714881734
 20
867.2626058261128
 30
0.0
 40
0.75
100
AcDbArc
 50
90.0
 51
270.0
  0
ARC
  5
6CB8
330
1E
100
AcDbEntity
  8
躯体と製品
  6
Continuous
 62
     3
100
AcDbCircle
 10
1694.419714881734
 20
870.2126058261127
 30
0.0
 40
0.2999999999999998
100
AcDbArc
 50
0.0
 51
90.0
  0
LINE
  5
6CB9
330
1E
100
AcDbEntity
  8
躯体と製品
  6
Continuous
 62
     3
100
AcDbLine
 10
1694.419714881734
 20
870.512605826113
 30
0.0
 11
1691.469714881733
 21
870.512605826113
 31
0.0
  0
LINE
  5
6CBA
330
1E
100
AcDbEntity
  8
躯体と製品
  6
Continuous
 62
     3
100
AcDbLine
 10
1694.419714881734
 20
868.0126058261128
 30
0.0
 11
1692.469714881734
 21
868.0126058261128
 31
0.0
  0
ARC
  5
6CBB
330
1E
100
AcDbEntity
  8
躯体と製品
  6
Continuous
 62
     3
100
AcDbCircle
 10
1694.419714881734
 20
868.3126058261127
 30
0.0
 40
0.2999999999999998
100
AcDbArc
 50
270.0
 51
0.0
  0
LINE
  5
6CBC
330
1E
100
AcDbEntity
  8
躯体と製品
  6
Continuous
 62
     3
100
AcDbLine
 10
1694.719714881734
 20
868.3126058261127
 30
0.0
 11
1694.719714881734
 21
870.2126058261127
 31
0.0
  0
ARC
  5
6CBD
330
1E
100
AcDbEntity
  8
躯体と製品
  6
Continuous
 62
     3
100
AcDbCircle
 10
1694.419714881734
 20
866.2126058261129
 30
0.0
 40
0.2999999999999998
100
AcDbArc
 50
0.0
 51
90.0
  0
LINE
  5
6CBE
330
1E
100
AcDbEntity
  8
躯体と製品
  6
Continuous
 62
     3
100
AcDbLine
 10
1694.419714881734
 20
866.512605826113
 30
0.0
 11
1692.469714881734
 21
866.512605826113
 31
0.0
  0
ARC
  5
6CBF
330
1E
100
AcDbEntity
  8
躯体と製品
  6
Continuous
 62
     3
100
AcDbCircle
 10
1694.419714881734
 20
864.8126058261127
 30
0.0
 40
0.2999999999999998
100
AcDbArc
 50
270.0
 51
0.0
  0
LINE
  5
6CC0
330
1E
100
AcDbEntity
  8
躯体と製品
  6
Continuous
 62
     3
100
AcDbLine
 10
1694.719714881734
 20
864.8126058261127
 30
0.0
 11
1694.719714881734
 21
866.2126058261129
 31
0.0
  0
LINE
  5
6CC1
330
1E
100
AcDbEntity
  8
躯体と製品
  6
Continuous
 62
     3
100
AcDbLine
 10
1695.719714881734
 20
872.0126058261127
 30
0.0
 11
1691.469714881733
 21
872.0126058261127
 31
0.0
  0
ARC
  5
6CC2
330
1E
100
AcDbEntity
  8
躯体と製品
  6
Continuous
 62
     3
100
AcDbCircle
 10
1695.719714881734
 20
871.512605826113
 30
0.0
 40
0.5
100
AcDbArc
 50
0.0
 51
90.0
  0
LINE
  5
6CC3
330
1E
100
AcDbEntity
  8
躯体と製品
  6
Continuous
 62
     3
100
AcDbLine
 10
1696.219714881734
 20
871.512605826113
 30
0.0
 11
1696.219714881734
 21
862.012605826113
 31
0.0
  0
LINE
  5
6CC4
330
1E
100
AcDbEntity
  8
躯体と製品
  6
Continuous
 62
     3
100
AcDbLine
 10
1683.219714881733
 20
862.012605826113
 30
0.0
 11
1673.219714881733
 21
862.012605826113
 31
0.0
  0
LINE
  5
6CC5
330
1E
100
AcDbEntity
  8
躯体と製品
  6
Continuous
 62
     3
100
AcDbLine
 10
1677.719714881733
 20
864.5126058261128
 30
0.0
 11
1662.019714881733
 21
864.5126058261128
 31
0.0
  0
LINE
  5
6CC6
330
1E
100
AcDbEntity
  8
躯体と製品
  6
Continuous
 62
     3
100
AcDbLine
 10
1694.419714881734
 20
864.5126058261128
 30
0.0
 11
1678.719714881733
 21
864.5126058261128
 31
0.0
  0
LINE
  5
6CC7
330
1E
100
AcDbEntity
  8
躯体と製品
  6
Continuous
 62
     3
100
AcDbLine
 10
1673.219714881733
 20
862.012605826113
 30
0.0
 11
1673.219714881733
 21
862.512605826113
 31
0.0
  0
LINE
  5
6CC8
330
1E
100
AcDbEntity
  8
躯体と製品
  6
Continuous
 62
     3
100
AcDbLine
 10
1673.219714881733
 20
862.512605826113
 30
0.0
 11
1661.719714881733
 21
862.512605826113
 31
0.0
  0
LINE
  5
6CC9
330
1E
100
AcDbEntity
  8
躯体と製品
  6
Continuous
 62
     3
100
AcDbLine
 10
1661.719714881733
 20
862.512605826113
 30
0.0
 11
1661.719714881733
 21
862.012605826113
 31
0.0
  0
LINE
  5
6CCA
330
1E
100
AcDbEntity
  8
躯体と製品
  6
Continuous
 62
     3
100
AcDbLine
 10
1661.719714881733
 20
862.012605826113
 30
0.0
 11
1659.719714881734
 21
862.012605826113
 31
0.0
  0
ARC
  5
6CCB
330
1E
100
AcDbEntity
  8
躯体と製品
  6
Continuous
 62
     3
100
AcDbCircle
 10
1660.719714881733
 20
880.0126058261129
 30
0.0
 40
1.0
100
AcDbArc
 50
0.0
 51
180.0
  0
LINE
  5
6CCC
330
1E
100
AcDbEntity
  8
躯体と製品
  6
Continuous
 62
     3
100
AcDbLine
 10
1649.219714881733
 20
863.0126058261129
 30
0.0
 11
1649.219714881733
 21
862.012605826113
 31
0.0
  0
LINE
  5
6CCD
330
1E
100
AcDbEntity
  8
躯体と製品
  6
Continuous
 62
     3
100
AcDbLine
 10
1649.219714881733
 20
862.012605826113
 30
0.0
 11
1647.719714881733
 21
862.012605826113
 31
0.0
  0
LINE
  5
6CCE
330
1E
100
AcDbEntity
  8
躯体と製品
  6
Continuous
 62
     3
100
AcDbLine
 10
1678.219714881733
 20
864.0126058261127
 30
0.0
 11
1677.719714881733
 21
864.5126058261128
 31
0.0
  0
LINE
  5
6CCF
330
1E
100
AcDbEntity
  8
躯体と製品
  6
Continuous
 62
     3
100
AcDbLine
 10
1659.719714881734
 20
862.012605826113
 30
0.0
 11
1659.719714881734
 21
863.0126058261129
 31
0.0
  0
LINE
  5
6CD0
330
1E
100
AcDbEntity
  8
躯体と製品
  6
Continuous
 62
     3
100
AcDbLine
 10
1659.719714881734
 20
863.0126058261129
 30
0.0
 11
1649.219714881733
 21
863.0126058261129
 31
0.0
  0
LINE
  5
6CD1
330
1E
100
AcDbEntity
  8
躯体と製品
  6
Continuous
 62
     3
100
AcDbLine
 10
1659.719714881734
 20
865.0126058261127
 30
0.0
 11
1659.719714881734
 21
880.0126058261129
 31
0.0
  0
ARC
  5
6CD2
330
1E
100
AcDbEntity
  8
躯体と製品
  6
Continuous
 62
     3
100
AcDbCircle
 10
1659.219714881734
 20
865.0126058261127
 30
0.0
 40
0.5
100
AcDbArc
 50
270.0
 51
0.0
  0
ARC
  5
6CD3
330
1E
100
AcDbEntity
  8
躯体と製品
  6
Continuous
 62
     3
100
AcDbCircle
 10
1662.019714881733
 20
864.8126058261127
 30
0.0
 40
0.2999999999999998
100
AcDbArc
 50
180.0
 51
270.0
  0
LINE
  5
6CD4
330
1E
100
AcDbEntity
  8
躯体と製品
  6
Continuous
 62
     3
100
AcDbLine
 10
1662.219714881733
 20
872.0126058261127
 30
0.0
 11
1664.969714881733
 21
872.0126058261127
 31
0.0
  0
ARC
  5
6CD5
330
1E
100
AcDbEntity
  8
躯体と製品
  6
Continuous
 62
     3
100
AcDbCircle
 10
1662.219714881733
 20
872.5126058261128
 30
0.0
 40
0.5
100
AcDbArc
 50
180.0
 51
270.0
  0
LINE
  5
6CD6
330
1E
100
AcDbEntity
  8
躯体と製品
  6
Continuous
 62
     3
100
AcDbLine
 10
1661.719714881733
 20
872.5126058261128
 30
0.0
 11
1661.719714881733
 21
880.0126058261129
 31
0.0
  0
ARC
  5
6CD7
330
1E
100
AcDbEntity
  8
躯体と製品
  6
Continuous
 62
     3
100
AcDbCircle
 10
1664.969714881733
 20
871.2626058261127
 30
0.0
 40
0.75
100
AcDbArc
 50
270.0
 51
90.0
  0
ARC
  5
6CD8
330
1E
100
AcDbEntity
  8
躯体と製品
  6
Continuous
 62
     3
100
AcDbCircle
 10
1663.969714881734
 20
867.2626058261128
 30
0.0
 40
0.75
100
AcDbArc
 50
270.0
 51
90.0
  0
LINE
  5
6CD9
330
1E
100
AcDbEntity
  8
躯体と製品
  6
Continuous
 62
     3
100
AcDbLine
 10
1662.019714881733
 20
866.512605826113
 30
0.0
 11
1663.969714881734
 21
866.512605826113
 31
0.0
  0
ARC
  5
6CDA
330
1E
100
AcDbEntity
  8
躯体と製品
  6
Continuous
 62
     3
100
AcDbCircle
 10
1662.019714881733
 20
866.2126058261129
 30
0.0
 40
0.2999999999999998
100
AcDbArc
 50
90.0
 51
180.0
  0
LINE
  5
6CDB
330
1E
100
AcDbEntity
  8
躯体と製品
  6
Continuous
 62
     3
100
AcDbLine
 10
1661.719714881733
 20
866.2126058261129
 30
0.0
 11
1661.719714881733
 21
864.8126058261127
 31
0.0
  0
LINE
  5
6CDC
330
1E
100
AcDbEntity
  8
躯体と製品
  6
Continuous
 62
     3
100
AcDbLine
 10
1662.019714881733
 20
868.0126058261128
 30
0.0
 11
1663.969714881734
 21
868.0126058261128
 31
0.0
  0
ARC
  5
6CDD
330
1E
100
AcDbEntity
  8
躯体と製品
  6
Continuous
 62
     3
100
AcDbCircle
 10
1662.019714881733
 20
868.3126058261127
 30
0.0
 40
0.2999999999999998
100
AcDbArc
 50
180.0
 51
270.0
  0
LINE
  5
6CDE
330
1E
100
AcDbEntity
  8
躯体と製品
  6
Continuous
 62
     3
100
AcDbLine
 10
1661.719714881733
 20
870.2126058261127
 30
0.0
 11
1661.719714881733
 21
868.3126058261127
 31
0.0
  0
ARC
  5
6CDF
330
1E
100
AcDbEntity
  8
躯体と製品
  6
Continuous
 62
     3
100
AcDbCircle
 10
1662.019714881733
 20
870.2126058261127
 30
0.0
 40
0.2999999999999998
100
AcDbArc
 50
90.0
 51
180.0
  0
LINE
  5
6CE0
330
1E
100
AcDbEntity
  8
躯体と製品
  6
Continuous
 62
     3
100
AcDbLine
 10
1662.019714881733
 20
870.512605826113
 30
0.0
 11
1664.969714881733
 21
870.512605826113
 31
0.0
  0
LINE
  5
6CE1
330
1E
100
AcDbEntity
  8
躯体と製品
  6
Continuous
 62
     3
100
AcDbLine
 10
1678.219714881733
 20
864.0126058261127
 30
0.0
 11
1678.719714881733
 21
864.5126058261128
 31
0.0
  0
LINE
  5
6CE2
330
1E
100
AcDbEntity
  8
躯体と製品
  6
Continuous
 62
     3
100
AcDbLine
 10
1653.020792777972
 20
869.001322027657
 30
0.0
 11
1652.702037079134
 21
867.9296901858112
 31
0.0
  0
LINE
  5
6CE3
330
1E
100
AcDbEntity
  8
躯体と製品
  6
Continuous
 62
     3
100
AcDbLine
 10
1652.847144600306
 20
869.9861297806693
 30
0.0
 11
1652.528388901466
 21
868.9144979388238
 31
0.0
  0
ARC
  5
6CE4
330
1E
100
AcDbEntity
  8
躯体と製品
  6
DASHED1
 62
     7
100
AcDbCircle
 10
1840.133349697554
 20
903.3369387776318
 30
0.0
 40
1.0
100
AcDbArc
 50
37.62684736228169
 51
86.99999999999441
  0
LINE
  5
6CE5
330
1E
100
AcDbEntity
  8
躯体と製品
  6
DASHED1
 62
     7
100
AcDbLine
 10
1818.911600524695
 20
906.2515937470793
 30
0.0
 11
1840.227554418791
 21
905.1344719401901
 31
0.0
  0
ARC
  5
6CE6
330
1E
100
AcDbEntity
  8
躯体と製品
  6
DASHED1
 62
     7
100
AcDbCircle
 10
1818.817395803458
 20
904.4540605845213
 30
0.0
 40
1.8
100
AcDbArc
 50
86.99999999999441
 51
136.3731526377175
  0
LINE
  5
6CE7
330
1E
100
AcDbEntity
  8
躯体と製品
  6
DASHED1
 62
     7
100
AcDbLine
 10
1818.869731759701
 20
905.4526901192756
 30
0.0
 11
1840.185685653797
 21
904.3355683123866
 31
0.0
  0
LINE
  5
6CE8
330
1E
100
AcDbEntity
  8
躯体と製品
  6
DASHED1
 62
     7
100
AcDbLine
 10
1818.093547159895
 20
905.1440193812711
 30
0.0
 11
1805.163596066137
 21
891.5789665047283
 31
0.0
  0
ARC
  5
6CE9
330
1E
100
AcDbEntity
  8
躯体と製品
  6
DASHED1
 62
     7
100
AcDbCircle
 10
1818.817395803458
 20
904.4540605845213
 30
0.0
 40
1.0
100
AcDbArc
 50
86.99999999999441
 51
136.3731526377175
  0
LINE
  5
6CEA
330
1E
100
AcDbEntity
  8
躯体と製品
  6
DASHED1
 62
     7
100
AcDbLine
 10
1800.60351290857
 20
894.0979739102886
 30
0.0
 11
1801.237115834748
 21
894.586386985399
 31
0.0
  0
LINE
  5
6CEB
330
1E
100
AcDbEntity
  8
躯体と製品
  6
DASHED1
 62
     7
100
AcDbLine
 10
1800.60351290857
 20
894.0979739102886
 30
0.0
 11
1802.435061954977
 21
891.721962918192
 31
0.0
  0
ARC
  5
6CEC
330
1E
100
AcDbEntity
  8
躯体と製品
  6
DASHED1
 62
     7
100
AcDbCircle
 10
1803.860668524229
 20
892.8208923561935
 30
0.0
 40
1.0
100
AcDbArc
 50
217.6268487328632
 51
316.3731526377176
  0
ARC
  5
6CED
330
1E
100
AcDbEntity
  8
躯体と製品
  6
DASHED1
 62
     7
100
AcDbCircle
 10
1803.860668524229
 20
892.8208923561935
 30
0.0
 40
1.8
100
AcDbArc
 50
217.6268481237226
 51
316.3731526377176
  0
LINE
  5
6CEE
330
1E
100
AcDbEntity
  8
躯体と製品
  6
DASHED1
 62
     7
100
AcDbLine
 10
1856.585870295798
 20
891.6856816780132
 30
0.0
 11
1854.515993889016
 21
889.5141357299809
 31
0.0
  0
LINE
  5
6CEF
330
1E
100
AcDbEntity
  8
躯体と製品
  6
DASHED1
 62
     7
100
AcDbLine
 10
1857.16494921067
 20
891.1337146406363
 30
0.0
 11
1856.585870295798
 21
891.6856816780132
 31
0.0
  0
LINE
  5
6CF0
330
1E
100
AcDbEntity
  8
躯体と製品
  6
DASHED1
 62
     7
100
AcDbLine
 10
1857.16494921067
 20
891.1337146406363
 30
0.0
 11
1855.095072803866
 21
888.9621686925812
 31
0.0
  0
ARC
  5
6CF1
330
1E
100
AcDbEntity
  8
躯体と製品
  6
DASHED1
 62
     7
100
AcDbCircle
 10
1853.792145261958
 20
890.2040945440461
 30
0.0
 40
1.0
100
AcDbArc
 50
217.6268473622817
 51
316.3731512671342
  0
ARC
  5
6CF2
330
1E
100
AcDbEntity
  8
躯体と製品
  6
DASHED1
 62
     7
100
AcDbCircle
 10
1853.792145261958
 20
890.2040945440461
 30
0.0
 40
1.8
100
AcDbArc
 50
217.6268473622817
 51
316.3731518762783
  0
LINE
  5
6CF3
330
1E
100
AcDbEntity
  8
躯体と製品
  6
DASHED1
 62
     7
100
AcDbLine
 10
1841.558956281411
 20
904.4358681966873
 30
0.0
 11
1853.000141618864
 21
889.5935781811806
 31
0.0
  0
LINE
  5
6CF4
330
1E
100
AcDbEntity
  8
躯体と製品
  6
DASHED1
 62
     7
100
AcDbLine
 10
1840.925353355252
 20
903.9474551215514
 30
0.0
 11
1852.366538692706
 21
889.1051651060452
 31
0.0
  0
ARC
  5
6CF5
330
1E
100
AcDbEntity
  8
躯体と製品
  6
DASHED1
 62
     7
100
AcDbCircle
 10
1840.133349697554
 20
903.3369387776318
 30
0.0
 40
1.8
100
AcDbArc
 50
37.62684736228169
 51
86.99999999999441
  0
LINE
  5
6CF6
330
1E
100
AcDbEntity
  8
躯体と製品
  6
DASHED1
 62
     7
100
AcDbLine
 10
1801.237115834748
 20
894.586386985399
 30
0.0
 11
1803.068664881136
 21
892.2103759933278
 31
0.0
  0
LINE
  5
6CF7
330
1E
100
AcDbEntity
  8
躯体と製品
  6
DASHED1
 62
     7
100
AcDbLine
 10
1817.514468245046
 20
905.695986418671
 30
0.0
 11
1804.584517167792
 21
892.1309335594434
 31
0.0
  0
ARC
  5
6CF8
330
1E
100
AcDbEntity
  8
躯体と製品
  6
DASHED1
 62
     7
100
AcDbCircle
 10
1666.306080065913
 20
903.3369387776318
 30
0.0
 40
1.0
100
AcDbArc
 50
93.00000000000558
 51
142.3731526377183
  0
LINE
  5
6CF9
330
1E
100
AcDbEntity
  8
躯体と製品
  6
DASHED1
 62
     7
100
AcDbLine
 10
1687.527829238772
 20
906.2515937470793
 30
0.0
 11
1666.211875344676
 21
905.1344719401901
 31
0.0
  0
ARC
  5
6CFA
330
1E
100
AcDbEntity
  8
躯体と製品
  6
DASHED1
 62
     7
100
AcDbCircle
 10
1687.622033960009
 20
904.4540605845213
 30
0.0
 40
1.8
100
AcDbArc
 50
43.62684736228245
 51
93.00000000000558
  0
LINE
  5
6CFB
330
1E
100
AcDbEntity
  8
躯体と製品
  6
DASHED1
 62
     7
100
AcDbLine
 10
1687.569698003766
 20
905.4526901192756
 30
0.0
 11
1666.25374410967
 21
904.3355683123866
 31
0.0
  0
LINE
  5
6CFC
330
1E
100
AcDbEntity
  8
躯体と製品
  6
DASHED1
 62
     7
100
AcDbLine
 10
1688.345882603571
 20
905.1440193812711
 30
0.0
 11
1701.27583369733
 21
891.5789665047283
 31
0.0
  0
ARC
  5
6CFD
330
1E
100
AcDbEntity
  8
躯体と製品
  6
DASHED1
 62
     7
100
AcDbCircle
 10
1687.622033960009
 20
904.4540605845213
 30
0.0
 40
1.0
100
AcDbArc
 50
43.62684736228245
 51
93.00000000000558
  0
LINE
  5
6CFE
330
1E
100
AcDbEntity
  8
躯体と製品
  6
DASHED1
 62
     7
100
AcDbLine
 10
1705.835916854897
 20
894.0979739102886
 30
0.0
 11
1705.202313928719
 21
894.586386985399
 31
0.0
  0
LINE
  5
6CFF
330
1E
100
AcDbEntity
  8
躯体と製品
  6
DASHED1
 62
     7
100
AcDbLine
 10
1705.835916854897
 20
894.0979739102886
 30
0.0
 11
1704.00436780849
 21
891.721962918192
 31
0.0
  0
ARC
  5
6D00
330
1E
100
AcDbEntity
  8
躯体と製品
  6
DASHED1
 62
     7
100
AcDbCircle
 10
1702.578761239237
 20
892.8208923561935
 30
0.0
 40
1.0
100
AcDbArc
 50
223.6268473622824
 51
322.3731512671368
  0
ARC
  5
6D01
330
1E
100
AcDbEntity
  8
躯体と製品
  6
DASHED1
 62
     7
100
AcDbCircle
 10
1702.578761239237
 20
892.8208923561935
 30
0.0
 40
1.8
100
AcDbArc
 50
223.6268473622824
 51
322.3731518762774
  0
LINE
  5
6D02
330
1E
100
AcDbEntity
  8
躯体と製品
  6
DASHED1
 62
     7
100
AcDbLine
 10
1649.853559467669
 20
891.6856816780132
 30
0.0
 11
1651.923435874451
 21
889.5141357299809
 31
0.0
  0
LINE
  5
6D03
330
1E
100
AcDbEntity
  8
躯体と製品
  6
DASHED1
 62
     7
100
AcDbLine
 10
1649.274480552797
 20
891.1337146406363
 30
0.0
 11
1649.853559467669
 21
891.6856816780132
 31
0.0
  0
LINE
  5
6D04
330
1E
100
AcDbEntity
  8
躯体と製品
  6
DASHED1
 62
     7
100
AcDbLine
 10
1649.274480552797
 20
891.1337146406363
 30
0.0
 11
1651.344356959601
 21
888.9621686925812
 31
0.0
  0
ARC
  5
6D05
330
1E
100
AcDbEntity
  8
躯体と製品
  6
DASHED1
 62
     7
100
AcDbCircle
 10
1652.647284501509
 20
890.2040945440461
 30
0.0
 40
1.0
100
AcDbArc
 50
223.6268487328658
 51
322.3731526377183
  0
ARC
  5
6D06
330
1E
100
AcDbEntity
  8
躯体と製品
  6
DASHED1
 62
     7
100
AcDbCircle
 10
1652.647284501509
 20
890.2040945440461
 30
0.0
 40
1.8
100
AcDbArc
 50
223.6268481237193
 51
322.3731526377183
  0
LINE
  5
6D07
330
1E
100
AcDbEntity
  8
躯体と製品
  6
DASHED1
 62
     7
100
AcDbLine
 10
1664.880473482057
 20
904.4358681966873
 30
0.0
 11
1653.439288144603
 21
889.5935781811806
 31
0.0
  0
LINE
  5
6D08
330
1E
100
AcDbEntity
  8
躯体と製品
  6
DASHED1
 62
     7
100
AcDbLine
 10
1665.514076408215
 20
903.9474551215514
 30
0.0
 11
1654.072891070761
 21
889.1051651060452
 31
0.0
  0
ARC
  5
6D09
330
1E
100
AcDbEntity
  8
躯体と製品
  6
DASHED1
 62
     7
100
AcDbCircle
 10
1666.306080065913
 20
903.3369387776318
 30
0.0
 40
1.8
100
AcDbArc
 50
93.00000000000558
 51
142.3731526377183
  0
LINE
  5
6D0A
330
1E
100
AcDbEntity
  8
躯体と製品
  6
DASHED1
 62
     7
100
AcDbLine
 10
1705.202313928719
 20
894.586386985399
 30
0.0
 11
1703.370764882332
 21
892.2103759933278
 31
0.0
  0
LINE
  5
6D0B
330
1E
100
AcDbEntity
  8
躯体と製品
  6
DASHED1
 62
     7
100
AcDbLine
 10
1688.924961518422
 20
905.695986418671
 30
0.0
 11
1701.854912595675
 21
892.1309335594434
 31
0.0
  0
LINE
  5
6D0C
330
1E
100
AcDbEntity
  8
躯体と製品
  6
DASHED1
 62
     4
100
AcDbLine
 10
1831.997745185499
 20
905.5657779660299
 30
0.0
 11
1830.752149426917
 21
881.7983950388711
 31
0.0
  0
LINE
  5
6D0D
330
1E
100
AcDbEntity
  8
躯体と製品
  6
DASHED1
 62
     7
100
AcDbLine
 10
1832.565466076007
 20
905.536024974906
 30
0.0
 11
1831.319870317425
 21
881.7686420477471
 31
0.0
  0
LINE
  5
6D0E
330
1E
100
AcDbEntity
  8
躯体と製品
  6
DASHED1
 62
     7
100
AcDbLine
 10
1826.57368886748
 20
905.8500407123633
 30
0.0
 11
1825.328093108898
 21
882.0826577852047
 31
0.0
  0
LINE
  5
6D0F
330
1E
100
AcDbEntity
  8
躯体と製品
  6
DASHED1
 62
     4
100
AcDbLine
 10
1827.141409757988
 20
905.8202877212393
 30
0.0
 11
1825.895813999406
 21
882.0529047940805
 31
0.0
  0
ARC
  5
6D10
330
1E
100
AcDbEntity
  8
躯体と製品
  6
DASHED1
 62
     7
100
AcDbCircle
 10
1828.385648724059
 20
908.8972121030833
 30
0.0
 40
0.5999999999999997
100
AcDbArc
 50
357.0000000000011
 51
100.7002330000058
  0
ARC
  5
6D11
330
1E
100
AcDbEntity
  8
躯体と製品
  6
DASHED1
 62
     7
100
AcDbCircle
 10
1831.081948467896
 20
908.7559050212274
 30
0.0
 40
0.5999999999999997
100
AcDbArc
 50
73.29976700000166
 51
177.0000000000011
  0
LINE
  5
6D12
330
1E
100
AcDbEntity
  8
躯体と製品
  6
DASHED1
 62
     7
100
AcDbLine
 10
1830.48071682244
 20
908.748115378882
 30
0.0
 11
1828.982772520309
 21
908.8266193132463
 31
0.0
  0
ARC
  5
6D13
330
1E
100
AcDbEntity
  8
躯体と製品
  6
DASHED1
 62
     7
100
AcDbCircle
 10
1827.756346776576
 20
905.5929348251
 30
0.0
 40
3.45
100
AcDbArc
 50
126.3091240000008
 51
173.7621629999991
  0
ARC
  5
6D14
330
1E
100
AcDbEntity
  8
躯体と製品
  6
DASHED1
 62
     7
100
AcDbCircle
 10
1831.367682781831
 20
905.3991635451454
 30
0.0
 40
3.45
100
AcDbArc
 50
0.3127429999987237
 51
47.82048899999998
  0
ARC
  5
6D15
330
1E
100
AcDbEntity
  8
躯体と製品
  6
DASHED1
 62
     7
100
AcDbCircle
 10
1829.443971229096
 20
903.2963229588533
 30
0.0
 40
6.299999999999998
100
AcDbArc
 50
47.69686900000316
 51
126.3093710000041
  0
LINE
  5
6D16
330
1E
100
AcDbEntity
  8
躯体と製品
  6
Continuous
 62
     4
100
AcDbLine
 10
1830.763460598628
 20
871.1517121490038
 30
0.0
 11
1824.771683390101
 21
871.4657278864615
 31
0.0
  0
LINE
  5
6D17
330
1E
100
AcDbEntity
  8
躯体と製品
  6
Continuous
 62
     7
100
AcDbLine
 10
1825.035416834995
 20
876.4980617976119
 30
0.0
 11
1824.771683390101
 21
871.4657278864615
 31
0.0
  0
LINE
  5
6D18
330
1E
100
AcDbEntity
  8
躯体と製品
  6
Continuous
 62
     7
100
AcDbLine
 10
1831.027194043522
 20
876.184046060154
 30
0.0
 11
1830.763460598628
 21
871.1517121490038
 31
0.0
  0
LINE
  5
6D19
330
1E
100
AcDbEntity
  8
躯体と製品
  6
Continuous
 62
     7
100
AcDbLine
 10
1831.319870317425
 20
881.7686420477471
 30
0.0
 11
1831.215603485997
 21
879.7791123852704
 31
0.0
  0
LINE
  5
6D1A
330
1E
100
AcDbEntity
  8
躯体と製品
  6
Continuous
 62
     4
100
AcDbLine
 10
1830.752149426917
 20
881.7983950388711
 30
0.0
 11
1830.647882595489
 21
879.8088653763947
 31
0.0
  0
LINE
  5
6D1B
330
1E
100
AcDbEntity
  8
躯体と製品
  6
Continuous
 62
     4
100
AcDbLine
 10
1825.895813999406
 20
882.0529047940805
 30
0.0
 11
1825.791547167978
 21
880.0633751316039
 31
0.0
  0
LINE
  5
6D1C
330
1E
100
AcDbEntity
  8
躯体と製品
  6
Continuous
 62
     7
100
AcDbLine
 10
1825.328093108898
 20
882.0826577852047
 30
0.0
 11
1825.22382627747
 21
880.0931281227281
 31
0.0
  0
LINE
  5
6D1D
330
1E
100
AcDbEntity
  8
躯体と製品
  6
DASHED1
 62
     4
100
AcDbLine
 10
1674.441684577967
 20
905.5657779660299
 30
0.0
 11
1675.687280336549
 21
881.7983950388711
 31
0.0
  0
LINE
  5
6D1E
330
1E
100
AcDbEntity
  8
躯体と製品
  6
DASHED1
 62
     7
100
AcDbLine
 10
1673.87396368746
 20
905.536024974906
 30
0.0
 11
1675.119559446042
 21
881.7686420477471
 31
0.0
  0
LINE
  5
6D1F
330
1E
100
AcDbEntity
  8
躯体と製品
  6
DASHED1
 62
     7
100
AcDbLine
 10
1679.865740895987
 20
905.8500407123633
 30
0.0
 11
1681.111336654569
 21
882.0826577852047
 31
0.0
  0
LINE
  5
6D20
330
1E
100
AcDbEntity
  8
躯体と製品
  6
DASHED1
 62
     4
100
AcDbLine
 10
1679.298020005479
 20
905.8202877212393
 30
0.0
 11
1680.543615764061
 21
882.0529047940805
 31
0.0
  0
ARC
  5
6D21
330
1E
100
AcDbEntity
  8
躯体と製品
  6
DASHED1
 62
     7
100
AcDbCircle
 10
1678.053781039408
 20
908.8972121030833
 30
0.0
 40
0.5999999999999997
100
AcDbArc
 50
79.29976699999421
 51
182.9999999999989
  0
ARC
  5
6D22
330
1E
100
AcDbEntity
  8
躯体と製品
  6
DASHED1
 62
     7
100
AcDbCircle
 10
1675.357481295571
 20
908.7559050212274
 30
0.0
 40
0.5999999999999997
100
AcDbArc
 50
2.999999999998919
 51
106.7002329999983
  0
LINE
  5
6D23
330
1E
100
AcDbEntity
  8
躯体と製品
  6
DASHED1
 62
     7
100
AcDbLine
 10
1675.958712941026
 20
908.748115378882
 30
0.0
 11
1677.456657243158
 21
908.8266193132463
 31
0.0
  0
ARC
  5
6D24
330
1E
100
AcDbEntity
  8
躯体と製品
  6
DASHED1
 62
     7
100
AcDbCircle
 10
1678.683082986891
 20
905.5929348251
 30
0.0
 40
3.45
100
AcDbArc
 50
6.237837000000908
 51
53.69087599999915
  0
ARC
  5
6D25
330
1E
100
AcDbEntity
  8
躯体と製品
  6
DASHED1
 62
     7
100
AcDbCircle
 10
1675.071746981635
 20
905.3991635451454
 30
0.0
 40
3.45
100
AcDbArc
 50
132.179511
 51
179.6872570000013
  0
ARC
  5
6D26
330
1E
100
AcDbEntity
  8
躯体と製品
  6
DASHED1
 62
     7
100
AcDbCircle
 10
1676.995458534371
 20
903.2963229588533
 30
0.0
 40
6.299999999999998
100
AcDbArc
 50
53.69062899999587
 51
132.3031309999968
  0
LINE
  5
6D27
330
1E
100
AcDbEntity
  8
躯体と製品
  6
Continuous
 62
     4
100
AcDbLine
 10
1675.675969164839
 20
871.1517121490038
 30
0.0
 11
1681.667746373365
 21
871.4657278864615
 31
0.0
  0
LINE
  5
6D28
330
1E
100
AcDbEntity
  8
躯体と製品
  6
Continuous
 62
     7
100
AcDbLine
 10
1681.404012928472
 20
876.4980617976119
 30
0.0
 11
1681.667746373365
 21
871.4657278864615
 31
0.0
  0
LINE
  5
6D29
330
1E
100
AcDbEntity
  8
躯体と製品
  6
Continuous
 62
     7
100
AcDbLine
 10
1675.412235719944
 20
876.184046060154
 30
0.0
 11
1675.675969164839
 21
871.1517121490038
 31
0.0
  0
LINE
  5
6D2A
330
1E
100
AcDbEntity
  8
躯体と製品
  6
Continuous
 62
     7
100
AcDbLine
 10
1675.119559446042
 20
881.7686420477471
 30
0.0
 11
1675.22382627747
 21
879.7791123852704
 31
0.0
  0
LINE
  5
6D2B
330
1E
100
AcDbEntity
  8
躯体と製品
  6
Continuous
 62
     4
100
AcDbLine
 10
1675.687280336549
 20
881.7983950388711
 30
0.0
 11
1675.791547167978
 21
879.8088653763947
 31
0.0
  0
LINE
  5
6D2C
330
1E
100
AcDbEntity
  8
躯体と製品
  6
Continuous
 62
     4
100
AcDbLine
 10
1680.543615764061
 20
882.0529047940805
 30
0.0
 11
1680.64788259549
 21
880.0633751316039
 31
0.0
  0
LINE
  5
6D2D
330
1E
100
AcDbEntity
  8
躯体と製品
  6
Continuous
 62
     7
100
AcDbLine
 10
1681.111336654569
 20
882.0826577852047
 30
0.0
 11
1681.215603485997
 21
880.0931281227281
 31
0.0
  0
POINT
  5
6D2E
330
1E
100
AcDbEntity
  8
躯体と製品
 62
     4
100
AcDbPoint
 10
1828.219714881733
 20
879.9361202539992
 30
0.0
  0
POINT
  5
6D2F
330
1E
100
AcDbEntity
  8
躯体と製品
 62
     4
100
AcDbPoint
 10
1678.219714881733
 20
879.9361202539992
 30
0.0
  0
ARC
  5
6D30
330
1E
100
AcDbEntity
  8
躯体と製品
  6
Continuous
 62
     7
100
AcDbCircle
 10
1628.248274655632
 20
859.0130137396522
 30
0.0
 40
1.0
100
AcDbArc
 50
91.63657704161829
 51
175.0000000000005
  0
ARC
  5
6D31
330
1E
100
AcDbEntity
  8
躯体と製品
  6
Continuous
 62
     7
100
AcDbCircle
 10
1878.191155107835
 20
859.0130137396522
 30
0.0
 40
1.0
100
AcDbArc
 50
4.999999999999459
 51
88.3634229583817
  0
LINE
  5
6D32
330
1E
100
AcDbEntity
  8
躯体と製品
  6
DASHED1
 62
     4
100
AcDbLine
 10
1863.382979442194
 20
886.0965197775955
 30
0.0
 11
1863.477184163431
 21
887.8940529401541
 31
0.0
  0
LINE
  5
6D33
330
1E
100
AcDbEntity
  8
躯体と製品
  6
Continuous
 62
     4
100
AcDbLine
 10
1885.046929795234
 20
906.9913518610492
 30
0.0
 11
1884.532441309161
 21
907.5058403471222
 31
0.0
  0
LINE
  5
6D34
330
1E
100
AcDbEntity
  8
躯体と製品
  6
DASHED1
 62
     7
100
AcDbLine
 10
1869.847903439977
 20
885.2570212946393
 30
0.0
 11
1898.308845180483
 21
883.7654465417156
 31
0.0
  0
ARC
  5
6D35
330
1E
100
AcDbEntity
  8
躯体と製品
  6
DASHED1
 62
     7
100
AcDbCircle
 10
1869.769399505613
 20
883.7590769925073
 30
0.0
 40
1.5
100
AcDbArc
 50
86.99999999999441
 51
266.9999999999944
  0
LINE
  5
6D36
330
1E
100
AcDbEntity
  8
躯体と製品
  6
DASHED1
 62
     7
100
AcDbLine
 10
1869.690895571248
 20
882.2611326903754
 30
0.0
 11
1873.186098942889
 21
882.077956843525
 31
0.0
  0
LINE
  5
6D37
330
1E
100
AcDbEntity
  8
躯体と製品
  6
DASHED1
 62
     7
100
AcDbLine
 10
1873.238434899133
 20
883.0765863782797
 30
0.0
 11
1873.186098942889
 21
882.077956843525
 31
0.0
  0
LINE
  5
6D38
330
1E
100
AcDbEntity
  8
躯体と製品
  6
DASHED1
 62
     7
100
AcDbLine
 10
1873.238434899133
 20
883.0765863782797
 30
0.0
 11
1893.211025594224
 21
882.029867253421
 31
0.0
  0
LINE
  5
6D39
330
1E
100
AcDbEntity
  8
躯体と製品
  6
DASHED1
 62
     7
100
AcDbLine
 10
1893.211025594224
 20
882.029867253421
 30
0.0
 11
1893.158689637981
 21
881.0312377186662
 31
0.0
  0
LINE
  5
6D3A
330
1E
100
AcDbEntity
  8
躯体と製品
  6
DASHED1
 62
     7
100
AcDbLine
 10
1893.158689637981
 20
881.0312377186662
 30
0.0
 11
1898.151837311754
 21
880.7695579374518
 31
0.0
  0
LINE
  5
6D3B
330
1E
100
AcDbEntity
  8
躯体と製品
  6
Continuous
 62
     3
100
AcDbLine
 10
1898.020997421147
 20
878.272984100565
 30
0.0
 11
1899.486404195949
 21
906.2346110736932
 31
0.0
  0
ARC
  5
6D3C
330
1E
100
AcDbEntity
  8
躯体と製品
  6
Continuous
 62
     3
100
AcDbCircle
 10
1908.286621337791
 20
876.9898068529943
 30
0.0
 40
0.5999999999999984
100
AcDbArc
 50
166.9999999999997
 51
346.9999999999997
  0
ARC
  5
6D3D
330
1E
100
AcDbEntity
  8
躯体と製品
  6
Continuous
 62
     3
100
AcDbCircle
 10
1907.798006809447
 20
879.7633374424908
 30
0.0
 40
0.5
100
AcDbArc
 50
346.9999999999997
 51
86.99999999999441
  0
ARC
  5
6D3E
330
1E
100
AcDbEntity
  8
躯体と製品
  6
Continuous
 62
     3
100
AcDbCircle
 10
1909.871761076848
 20
879.8549310557573
 30
0.0
 40
0.2999999999999999
100
AcDbArc
 50
86.99999999999441
 51
166.9999999999997
  0
ARC
  5
6D3F
330
1E
100
AcDbEntity
  8
躯体と製品
  6
Continuous
 62
     3
100
AcDbCircle
 10
1912.554002316297
 20
831.8280712418282
 30
0.0
 40
0.6000000000000015
100
AcDbArc
 50
90.0
 51
270.0
  0
LINE
  5
6D40
330
1E
100
AcDbEntity
  8
躯体と製品
  6
Continuous
 62
     3
100
AcDbLine
 10
1923.721476594252
 20
824.1127585360315
 30
0.0
 11
1923.721476594252
 21
820.4280712418281
 31
0.0
  0
LINE
  5
6D41
330
1E
100
AcDbEntity
  8
躯体と製品
  6
Continuous
 62
     3
100
AcDbLine
 10
1926.721476594252
 20
822.9280712418281
 30
0.0
 11
1926.721476594252
 21
824.4280712418284
 31
0.0
  0
LINE
  5
6D42
330
1E
100
AcDbEntity
  8
躯体と製品
  6
Continuous
 62
     3
100
AcDbLine
 10
1924.221476594252
 20
820.4280712418281
 30
0.0
 11
1923.721476594252
 21
820.4280712418281
 31
0.0
  0
ARC
  5
6D43
330
1E
100
AcDbEntity
  8
躯体と製品
  6
Continuous
 62
     3
100
AcDbCircle
 10
1924.221476594252
 20
822.9280712418281
 30
0.0
 40
2.5
100
AcDbArc
 50
270.0
 51
0.0
  0
LINE
  5
6D44
330
1E
100
AcDbEntity
  8
躯体と製品
  6
Continuous
 62
     3
100
AcDbLine
 10
1916.954002316297
 20
832.4280712418282
 30
0.0
 11
1916.954002316297
 21
833.428071241828
 31
0.0
  0
LINE
  5
6D45
330
1E
100
AcDbEntity
  8
躯体と製品
  6
Continuous
 62
     3
100
AcDbLine
 10
1916.954002316297
 20
833.428071241828
 30
0.0
 11
1914.954002316297
 21
832.4280712418282
 31
0.0
  0
LINE
  5
6D46
330
1E
100
AcDbEntity
  8
躯体と製品
  6
Continuous
 62
     3
100
AcDbLine
 10
1912.554002316297
 20
832.4280712418282
 30
0.0
 11
1914.954002316297
 21
832.4280712418282
 31
0.0
  0
ARC
  5
6D47
330
1E
100
AcDbEntity
  8
躯体と製品
  6
Continuous
 62
     3
100
AcDbCircle
 10
1921.336553738029
 20
832.9280712418281
 30
0.0
 40
0.5
100
AcDbArc
 50
270.0
 51
11.99999999999979
  0
LINE
  5
6D48
330
1E
100
AcDbEntity
  8
躯体と製品
  6
Continuous
 62
     3
100
AcDbLine
 10
1921.804178173703
 20
831.2280712418285
 30
0.0
 11
1912.554002316297
 21
831.2280712418285
 31
0.0
  0
LINE
  5
6D49
330
1E
100
AcDbEntity
  8
躯体と製品
  6
Continuous
 62
     3
100
AcDbLine
 10
1922.29325197407
 20
830.8320270872371
 30
0.0
 11
1923.721476594252
 21
824.1127585360315
 31
0.0
  0
ARC
  5
6D4A
330
1E
100
AcDbEntity
  8
躯体と製品
  6
Continuous
 62
     3
100
AcDbCircle
 10
1921.804178173703
 20
830.7280712418284
 30
0.0
 40
0.5
100
AcDbArc
 50
11.99999999999979
 51
90.0
  0
LINE
  5
6D4B
330
1E
100
AcDbEntity
  8
躯体と製品
  6
Continuous
 62
     3
100
AcDbLine
 10
1898.073333377389
 20
879.2716136353197
 30
0.0
 11
1898.151837311754
 21
880.7695579374518
 31
0.0
  0
ARC
  5
6D4C
330
1E
100
AcDbEntity
  8
躯体と製品
  6
Continuous
 62
     3
100
AcDbCircle
 10
1898.572648144767
 20
879.2454456571984
 30
0.0
 40
0.5
100
AcDbArc
 50
177.0000000000011
 51
266.9999999999944
  0
LINE
  5
6D4D
330
1E
100
AcDbEntity
  8
躯体と製品
  6
Continuous
 62
     3
100
AcDbLine
 10
1899.045794934023
 20
878.7199629116996
 30
0.0
 11
1898.546480166645
 21
878.746130889821
 31
0.0
  0
ARC
  5
6D4E
330
1E
100
AcDbEntity
  8
躯体と製品
  6
Continuous
 62
     3
100
AcDbCircle
 10
1899.071962912145
 20
879.2192776790766
 30
0.0
 40
0.5
100
AcDbArc
 50
266.9999999999944
 51
357.0000000000011
  0
ARC
  5
6D4F
330
1E
100
AcDbEntity
  8
躯体と製品
  6
Continuous
 62
     3
100
AcDbCircle
 10
1911.012472339544
 20
879.0941882694776
 30
0.0
 40
1.0
100
AcDbArc
 50
11.99999999999979
 51
86.99999999999441
  0
ARC
  5
6D50
330
1E
100
AcDbEntity
  8
躯体と製品
  6
Continuous
 62
     3
100
AcDbCircle
 10
1911.831083688797
 20
880.0526590125651
 30
0.0
 40
3.0
100
AcDbArc
 50
11.99999999999979
 51
86.99999999999441
  0
LINE
  5
6D51
330
1E
100
AcDbEntity
  8
躯体と製品
  6
Continuous
 62
     3
100
AcDbLine
 10
1898.43968507109
 20
886.2620203786018
 30
0.0
 11
1898.308845180483
 21
883.7654465417156
 31
0.0
  0
ARC
  5
6D52
330
1E
100
AcDbEntity
  8
躯体と製品
  6
Continuous
 62
     3
100
AcDbCircle
 10
1898.938999838467
 20
886.2358524004802
 30
0.0
 40
0.5
100
AcDbArc
 50
86.99999999999441
 51
177.0000000000011
  0
LINE
  5
6D53
330
1E
100
AcDbEntity
  8
躯体と製品
  6
Continuous
 62
     3
100
AcDbLine
 10
1899.464482583966
 20
886.7089991897362
 30
0.0
 11
1898.965167816589
 21
886.7351671678576
 31
0.0
  0
ARC
  5
6D54
330
1E
100
AcDbEntity
  8
躯体と製品
  6
Continuous
 62
     3
100
AcDbCircle
 10
1899.438314605845
 20
886.2096844223589
 30
0.0
 40
0.5
100
AcDbArc
 50
357.0000000000011
 51
86.99999999999441
  0
LINE
  5
6D55
330
1E
100
AcDbEntity
  8
躯体と製品
  6
Continuous
 62
     3
100
AcDbLine
 10
1914.765526490998
 20
880.6763940850185
 30
0.0
 11
1926.721476594252
 21
824.4280712418284
 31
0.0
  0
LINE
  5
6D56
330
1E
100
AcDbEntity
  8
躯体と製品
  6
Continuous
 62
     3
100
AcDbLine
 10
1911.990619940278
 20
879.3020999602953
 30
0.0
 11
1921.825627538396
 21
833.0320270872372
 31
0.0
  0
LINE
  5
6D57
330
1E
100
AcDbEntity
  8
躯体と製品
  6
Continuous
 62
     3
100
AcDbLine
 10
1921.336553738029
 20
832.4280712418282
 30
0.0
 11
1916.954002316297
 21
832.4280712418282
 31
0.0
  0
LINE
  5
6D58
330
1E
100
AcDbEntity
  8
躯体と製品
  6
Continuous
 62
     3
100
AcDbLine
 10
1899.832957460736
 20
884.1862573747281
 30
0.0
 11
1899.937629373222
 21
886.1835164442373
 31
0.0
  0
LINE
  5
6D59
330
1E
100
AcDbEntity
  8
躯体と製品
  6
Continuous
 62
     3
100
AcDbLine
 10
1900.306104249992
 20
883.6607746292296
 30
0.0
 11
1911.988091557526
 21
883.048547616829
 31
0.0
  0
ARC
  5
6D5A
330
1E
100
AcDbEntity
  8
躯体と製品
  6
Continuous
 62
     3
100
AcDbCircle
 10
1900.332272228114
 20
884.1600893966067
 30
0.0
 40
0.5
100
AcDbArc
 50
177.0000000000011
 51
266.9999999999944
  0
LINE
  5
6D5B
330
1E
100
AcDbEntity
  8
躯体と製品
  6
Continuous
 62
     3
100
AcDbLine
 10
1899.623613635764
 20
880.1917392357097
 30
0.0
 11
1899.571277679521
 21
879.1931097009554
 31
0.0
  0
ARC
  5
6D5C
330
1E
100
AcDbEntity
  8
躯体と製品
  6
Continuous
 62
     3
100
AcDbCircle
 10
1900.122928403142
 20
880.1655712575882
 30
0.0
 40
0.5
100
AcDbArc
 50
86.99999999999441
 51
177.0000000000011
  0
LINE
  5
6D5D
330
1E
100
AcDbEntity
  8
躯体と製品
  6
Continuous
 62
     3
100
AcDbLine
 10
1909.579450057412
 20
879.9224163720605
 30
0.0
 11
1908.871243376663
 21
876.854836220388
 31
0.0
  0
LINE
  5
6D5E
330
1E
100
AcDbEntity
  8
躯体と製品
  6
Continuous
 62
     3
100
AcDbLine
 10
1911.064808295787
 20
880.0928178042322
 30
0.0
 11
1909.88746186372
 21
880.1545199161834
 31
0.0
  0
LINE
  5
6D5F
330
1E
100
AcDbEntity
  8
躯体と製品
  6
Continuous
 62
     3
100
AcDbLine
 10
1900.149096381263
 20
880.6648860249657
 30
0.0
 11
1907.824174787569
 21
880.2626522098679
 31
0.0
  0
LINE
  5
6D60
330
1E
100
AcDbEntity
  8
躯体と製品
  6
Continuous
 62
     3
100
AcDbLine
 10
1908.285191841839
 20
879.6508619153188
 30
0.0
 11
1907.70199929892
 21
877.1247774856005
 31
0.0
  0
LINE
  5
6D61
330
1E
100
AcDbEntity
  8
躯体と製品
  6
DASHED1
 62
     4
100
AcDbLine
 10
1793.478912009374
 20
889.7600367146019
 30
0.0
 11
1793.573116730611
 21
891.5575698771599
 31
0.0
  0
LINE
  5
6D62
330
1E
100
AcDbEntity
  8
躯体と製品
  6
Continuous
 62
     3
100
AcDbLine
 10
1899.486404195949
 20
906.2346110736932
 30
0.0
 11
1753.219714881733
 21
913.9001234437339
 31
0.0
  0
LINE
  5
6D63
330
1E
100
AcDbEntity
  8
躯体と製品
  6
Continuous
 62
     3
100
AcDbLine
 10
1898.020997421147
 20
878.272984100565
 30
0.0
 11
1753.219714881733
 21
885.861697755792
 31
0.0
  0
LINE
  5
6D64
330
1E
100
AcDbEntity
  8
躯体と製品
  6
DASHED1
 62
     4
100
AcDbLine
 10
1898.429217879842
 20
886.0622944716508
 30
0.0
 11
1753.219714881733
 21
893.6724020545758
 31
0.0
  0
LINE
  5
6D65
330
1E
100
AcDbEntity
  8
躯体と製品
  6
DASHED1
 62
     4
100
AcDbLine
 10
1898.335013158604
 20
884.2647613090926
 30
0.0
 11
1753.219714881733
 21
891.8699318317795
 31
0.0
  0
LINE
  5
6D66
330
1E
100
AcDbEntity
  8
躯体と製品
  6
DASHED1
 62
     4
100
AcDbLine
 10
1898.151837311754
 20
880.7695579374518
 30
0.0
 11
1753.219714881733
 21
888.3651286207868
 31
0.0
  0
LINE
  5
6D67
330
1E
100
AcDbEntity
  8
躯体と製品
  6
DASHED1
 62
     4
100
AcDbLine
 10
1898.073333377389
 20
879.2716136353197
 30
0.0
 11
1753.219714881733
 21
886.8630701017901
 31
0.0
  0
LINE
  5
6D68
330
1E
100
AcDbEntity
  8
躯体と製品
  6
DASHED1
 62
     4
100
AcDbLine
 10
1899.407900261585
 20
904.7366667715612
 30
0.0
 11
1753.141210947369
 21
912.4021791416021
 31
0.0
  0
LINE
  5
6D69
330
1E
100
AcDbEntity
  8
躯体と製品
  6
Continuous
 62
     3
100
AcDbLine
 10
1899.250892392856
 20
901.7407781672977
 30
0.0
 11
1753.219714881733
 21
909.3939478867429
 31
0.0
  0
LINE
  5
6D6A
330
1E
100
AcDbEntity
  8
躯体と製品
  6
Continuous
 62
     3
100
AcDbLine
 10
1899.172388458491
 20
900.2428338651657
 30
0.0
 11
1753.219714881733
 21
907.8918893677462
 31
0.0
  0
LINE
  5
6D6B
330
1E
100
AcDbEntity
  8
躯体と製品
  6
Continuous
 62
     7
100
AcDbLine
 10
1907.454002316297
 20
867.4280712418283
 30
0.0
 11
1909.105087316297
 21
866.9046982418281
 31
0.0
  0
ARC
  5
6D6C
330
1E
100
AcDbEntity
  8
躯体と製品
  6
Continuous
 62
     7
100
AcDbCircle
 10
1908.954002316297
 20
866.4280712418284
 30
0.0
 40
0.5
100
AcDbArc
 50
287.587954000005
 51
72.41204599999497
  0
LINE
  5
6D6D
330
1E
100
AcDbEntity
  8
躯体と製品
  6
Continuous
 62
     7
100
AcDbLine
 10
1905.954002316297
 20
863.4280712418282
 30
0.0
 11
1905.954002316297
 21
865.9280712418281
 31
0.0
  0
ARC
  5
6D6E
330
1E
100
AcDbEntity
  8
躯体と製品
  6
Continuous
 62
     7
100
AcDbCircle
 10
1906.454002316297
 20
869.4280712418281
 30
0.0
 40
0.5
100
AcDbArc
 50
90.0
 51
180.0
  0
ARC
  5
6D6F
330
1E
100
AcDbEntity
  8
躯体と製品
  6
Continuous
 62
     7
100
AcDbCircle
 10
1906.454002316297
 20
863.4280712418282
 30
0.0
 40
0.5
100
AcDbArc
 50
180.0
 51
270.0
  0
ARC
  5
6D70
330
1E
100
AcDbEntity
  8
躯体と製品
  6
Continuous
 62
     7
100
AcDbCircle
 10
1906.954002316297
 20
863.4280712418282
 30
0.0
 40
0.5
100
AcDbArc
 50
270.0
 51
0.0
  0
LINE
  5
6D71
330
1E
100
AcDbEntity
  8
躯体と製品
  6
Continuous
 62
     7
100
AcDbLine
 10
1906.454002316297
 20
862.9280712418283
 30
0.0
 11
1906.954002316297
 21
862.9280712418283
 31
0.0
  0
LINE
  5
6D72
330
1E
100
AcDbEntity
  8
躯体と製品
  6
Continuous
 62
     7
100
AcDbLine
 10
1906.454002316297
 20
869.928071241828
 30
0.0
 11
1906.954002316297
 21
869.928071241828
 31
0.0
  0
ARC
  5
6D73
330
1E
100
AcDbEntity
  8
躯体と製品
  6
Continuous
 62
     7
100
AcDbCircle
 10
1906.954002316297
 20
869.4280712418281
 30
0.0
 40
0.5
100
AcDbArc
 50
0.0
 51
90.0
  0
LINE
  5
6D74
330
1E
100
AcDbEntity
  8
躯体と製品
  6
Continuous
 62
     7
100
AcDbLine
 10
1907.454002316297
 20
867.4280712418283
 30
0.0
 11
1907.454002316297
 21
869.4280712418281
 31
0.0
  0
LINE
  5
6D75
330
1E
100
AcDbEntity
  8
躯体と製品
  6
Continuous
 62
     7
100
AcDbLine
 10
1907.454002316297
 20
865.428071241828
 30
0.0
 11
1907.454002316297
 21
863.4280712418282
 31
0.0
  0
LINE
  5
6D76
330
1E
100
AcDbEntity
  8
躯体と製品
  6
Continuous
 62
     7
100
AcDbLine
 10
1907.454002316297
 20
865.428071241828
 30
0.0
 11
1909.105087316297
 21
865.9514442418283
 31
0.0
  0
LINE
  5
6D77
330
1E
100
AcDbEntity
  8
躯体と製品
  6
Continuous
 62
     7
100
AcDbLine
 10
1905.954002316297
 20
869.4280712418281
 30
0.0
 11
1905.954002316297
 21
866.9280712418283
 31
0.0
  0
LINE
  5
6D78
330
1E
100
AcDbEntity
  8
躯体と製品
  6
Continuous
 62
     7
100
AcDbLine
 10
1905.358204137595
 20
865.9280712418281
 30
0.0
 11
1905.954002316297
 21
865.9280712418281
 31
0.0
  0
ARC
  5
6D79
330
1E
100
AcDbEntity
  8
躯体と製品
  6
Continuous
 62
     7
100
AcDbCircle
 10
1905.358204137595
 20
864.828071241828
 30
0.0
 40
1.1
100
AcDbArc
 50
90.0
 51
175.0000000000005
  0
LINE
  5
6D7A
330
1E
100
AcDbEntity
  8
躯体と製品
  6
Continuous
 62
     7
100
AcDbLine
 10
1905.358204137595
 20
866.9280712418283
 30
0.0
 11
1905.954002316297
 21
866.9280712418283
 31
0.0
  0
ARC
  5
6D7B
330
1E
100
AcDbEntity
  8
躯体と製品
  6
Continuous
 62
     7
100
AcDbCircle
 10
1905.358204137595
 20
864.828071241828
 30
0.0
 40
2.1
100
AcDbArc
 50
90.0
 51
175.0000000000005
  0
ARC
  5
6D7C
330
1E
100
AcDbEntity
  8
躯体と製品
  6
Continuous
 62
     3
100
AcDbCircle
 10
1912.454002316297
 20
824.1280712418282
 30
0.0
 40
1.0
100
AcDbArc
 50
180.0
 51
270.0
  0
LINE
  5
6D7D
330
1E
100
AcDbEntity
  8
躯体と製品
  6
Continuous
 62
     3
100
AcDbLine
 10
1916.354002316297
 20
823.1280712418284
 30
0.0
 11
1912.454002316297
 21
823.1280712418284
 31
0.0
  0
ARC
  5
6D7E
330
1E
100
AcDbEntity
  8
躯体と製品
  6
Continuous
 62
     3
100
AcDbCircle
 10
1916.354002316297
 20
822.5280712418284
 30
0.0
 40
0.5999999999999997
100
AcDbArc
 50
270.0
 51
90.0
  0
LINE
  5
6D7F
330
1E
100
AcDbEntity
  8
躯体と製品
  6
Continuous
 62
     3
100
AcDbLine
 10
1909.954002316297
 20
861.228071241828
 30
0.0
 11
1909.954002316297
 21
824.4280712418284
 31
0.0
  0
ARC
  5
6D80
330
1E
100
AcDbEntity
  8
躯体と製品
  6
Continuous
 62
     3
100
AcDbCircle
 10
1910.704002316297
 20
879.1780712418281
 30
0.0
 40
0.75
100
AcDbArc
 50
0.0
 51
180.0
  0
LINE
  5
6D81
330
1E
100
AcDbEntity
  8
躯体と製品
  6
Continuous
 62
     3
100
AcDbLine
 10
1909.954002316297
 20
872.6280712418281
 30
0.0
 11
1909.954002316297
 21
879.1780712418281
 31
0.0
  0
ARC
  5
6D82
330
1E
100
AcDbEntity
  8
躯体と製品
  6
Continuous
 62
     3
100
AcDbCircle
 10
1909.454002316297
 20
872.6280712418281
 30
0.0
 40
0.5
100
AcDbArc
 50
270.0
 51
0.0
  0
ARC
  5
6D83
330
1E
100
AcDbEntity
  8
躯体と製品
  6
Continuous
 62
     3
100
AcDbCircle
 10
1905.754002316297
 20
871.1280712418284
 30
0.0
 40
1.0
100
AcDbArc
 50
90.0
 51
180.0
  0
LINE
  5
6D84
330
1E
100
AcDbEntity
  8
躯体と製品
  6
Continuous
 62
     3
100
AcDbLine
 10
1909.454002316297
 20
872.128071241828
 30
0.0
 11
1905.754002316297
 21
872.128071241828
 31
0.0
  0
ARC
  5
6D85
330
1E
100
AcDbEntity
  8
躯体と製品
  6
Continuous
 62
     3
100
AcDbCircle
 10
1909.454002316297
 20
861.228071241828
 30
0.0
 40
0.5
100
AcDbArc
 50
0.0
 51
90.0
  0
ARC
  5
6D86
330
1E
100
AcDbEntity
  8
躯体と製品
  6
Continuous
 62
     3
100
AcDbCircle
 10
1905.754002316297
 20
862.7280712418285
 30
0.0
 40
1.0
100
AcDbArc
 50
180.0
 51
270.0
  0
LINE
  5
6D87
330
1E
100
AcDbEntity
  8
躯体と製品
  6
Continuous
 62
     3
100
AcDbLine
 10
1909.454002316297
 20
861.7280712418281
 30
0.0
 11
1905.754002316297
 21
861.7280712418281
 31
0.0
  0
ARC
  5
6D88
330
1E
100
AcDbEntity
  8
躯体と製品
  6
Continuous
 62
     3
100
AcDbCircle
 10
1909.654002316297
 20
870.6280712418283
 30
0.0
 40
0.2999999999999998
100
AcDbArc
 50
0.0
 51
90.0
  0
LINE
  5
6D89
330
1E
100
AcDbEntity
  8
躯体と製品
  6
Continuous
 62
     3
100
AcDbLine
 10
1909.954002316297
 20
870.6280712418283
 30
0.0
 11
1909.954002316297
 21
863.2280712418282
 31
0.0
  0
ARC
  5
6D8A
330
1E
100
AcDbEntity
  8
躯体と製品
  6
Continuous
 62
     3
100
AcDbCircle
 10
1909.654002316297
 20
863.2280712418282
 30
0.0
 40
0.2999999999999998
100
AcDbArc
 50
270.0
 51
0.0
  0
LINE
  5
6D8B
330
1E
100
AcDbEntity
  8
躯体と製品
  6
Continuous
 62
     3
100
AcDbLine
 10
1906.254002316297
 20
862.9280712418283
 30
0.0
 11
1909.654002316297
 21
862.9280712418283
 31
0.0
  0
LINE
  5
6D8C
330
1E
100
AcDbEntity
  8
躯体と製品
  6
Continuous
 62
     3
100
AcDbLine
 10
1906.254002316297
 20
870.9280712418284
 30
0.0
 11
1909.654002316297
 21
870.9280712418284
 31
0.0
  0
LINE
  5
6D8D
330
1E
100
AcDbEntity
  8
躯体と製品
  6
Continuous
 62
     3
100
AcDbLine
 10
1911.454002316297
 20
879.1780712418281
 30
0.0
 11
1911.454002316297
 21
834.9280712418281
 31
0.0
  0
ARC
  5
6D8E
330
1E
100
AcDbEntity
  8
躯体と製品
  6
Continuous
 62
     3
100
AcDbCircle
 10
1912.454002316297
 20
824.4280712418284
 30
0.0
 40
2.5
100
AcDbArc
 50
180.0
 51
270.0
  0
LINE
  5
6D8F
330
1E
100
AcDbEntity
  8
躯体と製品
  6
Continuous
 62
     3
100
AcDbLine
 10
1916.354002316297
 20
821.9280712418283
 30
0.0
 11
1912.454002316297
 21
821.9280712418283
 31
0.0
  0
ARC
  5
6D90
330
1E
100
AcDbEntity
  8
躯体と製品
  6
Continuous
 62
     3
100
AcDbCircle
 10
1911.954002316297
 20
834.9280712418281
 30
0.0
 40
0.5
100
AcDbArc
 50
180.0
 51
270.0
  0
LINE
  5
6D91
330
1E
100
AcDbEntity
  8
躯体と製品
  6
Continuous
 62
     3
100
AcDbLine
 10
1911.954002316297
 20
834.4280712418283
 30
0.0
 11
1918.654002316297
 21
834.4280712418283
 31
0.0
  0
LINE
  5
6D92
330
1E
100
AcDbEntity
  8
躯体と製品
  6
Continuous
 62
     3
100
AcDbLine
 10
1911.454002316297
 20
832.9280712418281
 30
0.0
 11
1911.454002316297
 21
824.1280712418282
 31
0.0
  0
ARC
  5
6D93
330
1E
100
AcDbEntity
  8
躯体と製品
  6
Continuous
 62
     3
100
AcDbCircle
 10
1911.954002316297
 20
832.9280712418281
 30
0.0
 40
0.5
100
AcDbArc
 50
90.0
 51
180.0
  0
ARC
  5
6D94
330
1E
100
AcDbEntity
  8
躯体と製品
  6
Continuous
 62
     3
100
AcDbCircle
 10
1918.654002316297
 20
834.1280712418281
 30
0.0
 40
0.2999999999999998
100
AcDbArc
 50
0.0
 51
90.0
  0
LINE
  5
6D95
330
1E
100
AcDbEntity
  8
躯体と製品
  6
Continuous
 62
     3
100
AcDbLine
 10
1911.954002316297
 20
833.428071241828
 30
0.0
 11
1916.954002316297
 21
833.428071241828
 31
0.0
  0
LINE
  5
6D96
330
1E
100
AcDbEntity
  8
躯体と製品
  6
Continuous
 62
     3
100
AcDbLine
 10
1918.954002316297
 20
834.1280712418281
 30
0.0
 11
1918.954002316297
 21
833.8184592418281
 31
0.0
  0
LINE
  5
6D97
330
1E
100
AcDbEntity
  8
躯体と製品
  6
Continuous
 62
     3
100
AcDbLine
 10
1916.954002316297
 20
833.428071241828
 30
0.0
 11
1916.954002316297
 21
832.9280712418281
 31
0.0
  0
ARC
  5
6D98
330
1E
100
AcDbEntity
  8
躯体と製品
  6
Continuous
 62
     3
100
AcDbCircle
 10
1918.454002316297
 20
833.8184592418281
 30
0.0
 40
0.5
100
AcDbArc
 50
284.0362430000043
 51
0.0
  0
LINE
  5
6D99
330
1E
100
AcDbEntity
  8
躯体と製品
  6
Continuous
 62
     3
100
AcDbLine
 10
1916.954002316297
 20
832.9280712418281
 30
0.0
 11
1918.575270316297
 21
833.3333882418285
 31
0.0
  0
LINE
  5
6D9A
330
1E
100
AcDbEntity
  8
躯体と製品
  6
Continuous
 62
     3
100
AcDbLine
 10
1904.754002316297
 20
869.0280712418283
 30
0.0
 11
1904.754002316297
 21
871.1280712418284
 31
0.0
  0
ARC
  5
6D9B
330
1E
100
AcDbEntity
  8
躯体と製品
  6
Continuous
 62
     3
100
AcDbCircle
 10
1906.254002316297
 20
870.6280712418283
 30
0.0
 40
0.2999999999999998
100
AcDbArc
 50
90.0
 51
180.0
  0
LINE
  5
6D9C
330
1E
100
AcDbEntity
  8
躯体と製品
  6
Continuous
 62
     3
100
AcDbLine
 10
1905.954002316297
 20
869.0280712418283
 30
0.0
 11
1905.954002316297
 21
870.6280712418283
 31
0.0
  0
ARC
  5
6D9D
330
1E
100
AcDbEntity
  8
躯体と製品
  6
Continuous
 62
     3
100
AcDbCircle
 10
1906.254002316297
 20
863.2280712418282
 30
0.0
 40
0.2999999999999998
100
AcDbArc
 50
180.0
 51
270.0
  0
LINE
  5
6D9E
330
1E
100
AcDbEntity
  8
躯体と製品
  6
Continuous
 62
     3
100
AcDbLine
 10
1905.954002316297
 20
864.828071241828
 30
0.0
 11
1905.954002316297
 21
863.2280712418282
 31
0.0
  0
LINE
  5
6D9F
330
1E
100
AcDbEntity
  8
躯体と製品
  6
Continuous
 62
     3
100
AcDbLine
 10
1904.754002316297
 20
864.828071241828
 30
0.0
 11
1904.754002316297
 21
862.7280712418285
 31
0.0
  0
ARC
  5
6DA0
330
1E
100
AcDbEntity
  8
躯体と製品
  6
Continuous
 62
     3
100
AcDbCircle
 10
1905.354002316297
 20
869.0280712418283
 30
0.0
 40
0.5999999999999997
100
AcDbArc
 50
180.0
 51
0.0
  0
ARC
  5
6DA1
330
1E
100
AcDbEntity
  8
躯体と製品
  6
Continuous
 62
     3
100
AcDbCircle
 10
1905.354002316297
 20
864.828071241828
 30
0.0
 40
0.5999999999999997
100
AcDbArc
 50
0.0
 51
180.0
  0
LINE
  5
6DA2
330
1E
100
AcDbEntity
  8
躯体と製品
  6
Continuous
 62
     3
100
AcDbLine
 10
1579.719714881733
 20
821.9280712418283
 30
0.0
 11
1579.719714881733
 21
906.0811775416837
 31
0.0
  0
ARC
  5
6DA3
330
1E
100
AcDbEntity
  8
躯体と製品
  6
Continuous
 62
     3
100
AcDbCircle
 10
1581.219714881734
 20
821.9280712418283
 30
0.0
 40
1.5
100
AcDbArc
 50
180.0
 51
270.0
  0
LINE
  5
6DA4
330
1E
100
AcDbEntity
  8
躯体と製品
  6
Continuous
 62
     3
100
AcDbLine
 10
1581.141210947369
 20
907.5791218438155
 30
0.0
 11
1753.219714881733
 21
916.5973740973635
 31
0.0
  0
ARC
  5
6DA5
330
1E
100
AcDbEntity
  8
躯体と製品
  6
Continuous
 62
     3
100
AcDbCircle
 10
1581.219714881734
 20
906.0811775416837
 30
0.0
 40
1.5
100
AcDbArc
 50
93.00000000000558
 51
180.0
  0
ARC
  5
6DA6
330
1E
100
AcDbEntity
  8
躯体と製品
  6
Continuous
 62
     3
100
AcDbCircle
 10
1925.219714881734
 20
821.9280712418283
 30
0.0
 40
1.5
100
AcDbArc
 50
270.0
 51
0.0
  0
LINE
  5
6DA7
330
1E
100
AcDbEntity
  8
躯体と製品
  6
Continuous
 62
     3
100
AcDbLine
 10
1926.719714881733
 20
821.9280712418283
 30
0.0
 11
1926.719714881733
 21
906.0811775416837
 31
0.0
  0
ARC
  5
6DA8
330
1E
100
AcDbEntity
  8
躯体と製品
  6
Continuous
 62
     3
100
AcDbCircle
 10
1925.219714881734
 20
821.9280712418283
 30
0.0
 40
3.0
100
AcDbArc
 50
270.0
 51
0.0
  0
ARC
  5
6DA9
330
1E
100
AcDbEntity
  8
躯体と製品
  6
Continuous
 62
     3
100
AcDbCircle
 10
1925.219714881734
 20
906.0811775416837
 30
0.0
 40
3.0
100
AcDbArc
 50
0.0
 51
86.99999999999441
  0
LINE
  5
6DAA
330
1E
100
AcDbEntity
  8
躯体と製品
  6
Continuous
 62
     3
100
AcDbLine
 10
1925.219714881734
 20
818.928071241828
 30
0.0
 11
1918.219714881734
 21
818.928071241828
 31
0.0
  0
LINE
  5
6DAB
330
1E
100
AcDbEntity
  8
躯体と製品
  6
Continuous
 62
     3
100
AcDbLine
 10
1581.062707013004
 20
909.0770661459472
 30
0.0
 11
1753.219714881733
 21
918.0994326163604
 31
0.0
  0
ARC
  5
6DAC
330
1E
100
AcDbEntity
  8
躯体と製品
  6
Continuous
 62
     3
100
AcDbCircle
 10
1581.219714881734
 20
821.9280712418283
 30
0.0
 40
3.0
100
AcDbArc
 50
180.0
 51
270.0
  0
LINE
  5
6DAD
330
1E
100
AcDbEntity
  8
躯体と製品
  6
Continuous
 62
     3
100
AcDbLine
 10
1578.219714881733
 20
906.0811775416837
 30
0.0
 11
1578.219714881733
 21
821.9280712418283
 31
0.0
  0
ARC
  5
6DAE
330
1E
100
AcDbEntity
  8
躯体と製品
  6
Continuous
 62
     3
100
AcDbCircle
 10
1581.219714881734
 20
906.0811775416837
 30
0.0
 40
3.0
100
AcDbArc
 50
93.00000000000558
 51
180.0
  0
LINE
  5
6DAF
330
1E
100
AcDbEntity
  8
躯体と製品
  6
Continuous
 62
     3
100
AcDbLine
 10
1581.219714881734
 20
818.928071241828
 30
0.0
 11
1588.219714881734
 21
818.928071241828
 31
0.0
  0
ARC
  5
6DB0
330
1E
100
AcDbEntity
  8
躯体と製品
  6
Continuous
 62
     3
100
AcDbCircle
 10
1925.219714881734
 20
906.0811775416837
 30
0.0
 40
1.5
100
AcDbArc
 50
0.0
 51
86.99999999999441
  0
LINE
  5
6DB1
330
1E
100
AcDbEntity
  8
躯体と製品
  6
Continuous
 62
     3
100
AcDbLine
 10
1925.298218816098
 20
907.5791218438155
 30
0.0
 11
1753.219714881733
 21
916.5973740973635
 31
0.0
  0
LINE
  5
6DB2
330
1E
100
AcDbEntity
  8
躯体と製品
  6
Continuous
 62
     3
100
AcDbLine
 10
1588.219714881734
 20
818.928071241828
 30
0.0
 11
1588.219714881734
 21
820.4280712418281
 31
0.0
  0
LINE
  5
6DB3
330
1E
100
AcDbEntity
  8
躯体と製品
  6
Continuous
 62
     3
100
AcDbLine
 10
1581.219714881734
 20
820.4280712418281
 30
0.0
 11
1588.219714881734
 21
820.4280712418281
 31
0.0
  0
LINE
  5
6DB4
330
1E
100
AcDbEntity
  8
躯体と製品
  6
Continuous
 62
     3
100
AcDbLine
 10
1918.219714881734
 20
818.928071241828
 30
0.0
 11
1918.219714881734
 21
820.4280712418281
 31
0.0
  0
LINE
  5
6DB5
330
1E
100
AcDbEntity
  8
躯体と製品
  6
Continuous
 62
     3
100
AcDbLine
 10
1925.219714881734
 20
820.4280712418281
 30
0.0
 11
1918.219714881734
 21
820.4280712418281
 31
0.0
  0
LINE
  5
6DB6
330
1E
100
AcDbEntity
  8
躯体と製品
  6
Continuous
 62
     7
100
AcDbLine
 10
1879.187349805926
 20
859.1001694823997
 30
0.0
 11
1881.795086804678
 21
829.293599194816
 31
0.0
  0
LINE
  5
6DB7
330
1E
100
AcDbEntity
  8
躯体と製品
  6
Continuous
 62
     7
100
AcDbLine
 10
1880.183544504018
 20
859.1873252251472
 30
0.0
 11
1882.79128150277
 21
829.3807549375639
 31
0.0
  0
ARC
  5
6DB8
330
1E
100
AcDbEntity
  8
躯体と製品
  6
Continuous
 62
     7
100
AcDbCircle
 10
1891.470112826241
 20
830.1400542910213
 30
0.0
 40
8.711983049193065
100
AcDbArc
 50
184.9999999999994
 51
355.0000000000006
  0
LINE
  5
6DB9
330
1E
100
AcDbEntity
  8
躯体と製品
  6
Continuous
 62
     7
100
AcDbLine
 10
1903.266195271602
 20
865.0110983015983
 30
0.0
 11
1900.148944149713
 21
829.3807549375639
 31
0.0
  0
ARC
  5
6DBA
330
1E
100
AcDbEntity
  8
躯体と製品
  6
Continuous
 62
     7
100
AcDbCircle
 10
1891.470112826241
 20
830.1400542910213
 30
0.0
 40
9.711983049193063
100
AcDbArc
 50
184.9999999999994
 51
355.0000000000006
  0
LINE
  5
6DBB
330
1E
100
AcDbEntity
  8
躯体と製品
  6
Continuous
 62
     7
100
AcDbLine
 10
1904.262389969694
 20
864.9239425588508
 30
0.0
 11
1901.145138847804
 21
829.293599194816
 31
0.0
  0
LINE
  5
6DBC
330
1E
100
AcDbEntity
  8
躯体と製品
  6
DASHED1
 62
     7
100
AcDbLine
 10
1907.33617724253
 20
901.6923268638347
 30
0.0
 11
1921.289790791945
 21
823.5520909871084
 31
0.0
  0
ARC
  5
6DBD
330
1E
100
AcDbEntity
  8
躯体と製品
  6
DASHED1
 62
     7
100
AcDbCircle
 10
1904.382894516005
 20
901.1649549483836
 30
0.0
 40
3.0
100
AcDbArc
 50
10.12467165539644
 51
86.99999999999441
  0
LINE
  5
6DBE
330
1E
100
AcDbEntity
  8
躯体と製品
  6
DASHED1
 62
     7
100
AcDbLine
 10
1925.719714881734
 20
824.3431488602844
 30
0.0
 11
1921.289790792009
 21
823.5520909867522
 31
0.0
  0
LINE
  5
6DBF
330
1E
100
AcDbEntity
  8
躯体と製品
  6
DASHED1
 62
     7
100
AcDbLine
 10
1904.539902384733
 20
904.1608435526473
 30
0.0
 11
1899.391862125792
 21
904.4306409102782
 31
0.0
  0
LINE
  5
6DC0
330
1E
100
AcDbEntity
  8
躯体と製品
  6
DASHED1
 62
     7
100
AcDbLine
 10
1904.775414187827
 20
908.654676459043
 30
0.0
 11
1899.627373928885
 21
908.9244738166739
 31
0.0
  0
LINE
  5
6DC1
330
1E
100
AcDbEntity
  8
躯体と製品
  6
Continuous
 62
     7
100
AcDbLine
 10
1899.486404195949
 20
906.2346110736932
 30
0.0
 11
1899.627373928885
 21
908.9244738166739
 31
0.0
  0
LINE
  5
6DC2
330
1E
100
AcDbEntity
  8
躯体と製品
  6
Continuous
 62
     4
100
AcDbLine
 10
1898.478785590468
 20
906.2874181271713
 30
0.0
 11
1895.632360097877
 21
909.133843619762
 31
0.0
  0
LINE
  5
6DC3
330
1E
100
AcDbEntity
  8
躯体と製品
  6
Continuous
 62
     4
100
AcDbLine
 10
1896.986357168777
 20
906.3656329864906
 30
0.0
 11
1894.139931676187
 21
909.2120584790816
 31
0.0
  0
LINE
  5
6DC4
330
1E
100
AcDbEntity
  8
躯体と製品
  6
Continuous
 62
     4
100
AcDbLine
 10
1895.493928747084
 20
906.4438478458109
 30
0.0
 11
1892.647503254493
 21
909.2902733384015
 31
0.0
  0
LINE
  5
6DC5
330
1E
100
AcDbEntity
  8
躯体と製品
  6
Continuous
 62
     4
100
AcDbLine
 10
1894.00150032539
 20
906.5220627051308
 30
0.0
 11
1891.1550748328
 21
909.368488197721
 31
0.0
  0
LINE
  5
6DC6
330
1E
100
AcDbEntity
  8
躯体と製品
  6
Continuous
 62
     4
100
AcDbLine
 10
1892.509071903697
 20
906.6002775644502
 30
0.0
 11
1889.662646411107
 21
909.4467030570411
 31
0.0
  0
LINE
  5
6DC7
330
1E
100
AcDbEntity
  8
躯体と製品
  6
Continuous
 62
     4
100
AcDbLine
 10
1891.016643482004
 20
906.6784924237698
 30
0.0
 11
1888.170217989413
 21
909.524917916361
 31
0.0
  0
LINE
  5
6DC8
330
1E
100
AcDbEntity
  8
躯体と製品
  6
Continuous
 62
     4
100
AcDbLine
 10
1889.524215060312
 20
906.7567072830895
 30
0.0
 11
1886.67778956772
 21
909.6031327756806
 31
0.0
  0
LINE
  5
6DC9
330
1E
100
AcDbEntity
  8
躯体と製品
  6
Continuous
 62
     4
100
AcDbLine
 10
1888.031786638618
 20
906.8349221424098
 30
0.0
 11
1885.185361146027
 21
909.6813476350005
 31
0.0
  0
LINE
  5
6DCA
330
1E
100
AcDbEntity
  8
躯体と製品
  6
Continuous
 62
     7
100
AcDbLine
 10
1884.506961174631
 20
907.0196504173374
 30
0.0
 11
1884.647930907567
 21
909.7095131603181
 31
0.0
  0
LINE
  5
6DCB
330
1E
100
AcDbEntity
  8
躯体と製品
  6
Continuous
 62
     4
100
AcDbLine
 10
1886.539358216924
 20
906.91313700173
 30
0.0
 11
1884.602866284816
 21
908.8496289338381
 31
0.0
  0
LINE
  5
6DCC
330
1E
100
AcDbEntity
  8
躯体と製品
  6
Continuous
 62
     4
100
AcDbLine
 10
1899.579706462742
 20
908.0149243796435
 30
0.0
 11
1898.617216941264
 21
908.9774139011222
 31
0.0
  0
LINE
  5
6DCD
330
1E
100
AcDbEntity
  8
躯体と製品
  6
DASHED1
 62
     4
100
AcDbLine
 10
1643.056450321273
 20
886.0965197775955
 30
0.0
 11
1642.962245600035
 21
887.8940529401541
 31
0.0
  0
LINE
  5
6DCE
330
1E
100
AcDbEntity
  8
躯体と製品
  6
DASHED1
 62
     7
100
AcDbLine
 10
1636.591526323489
 20
885.2570212946393
 30
0.0
 11
1608.130584582984
 21
883.7654465417156
 31
0.0
  0
ARC
  5
6DCF
330
1E
100
AcDbEntity
  8
躯体と製品
  6
DASHED1
 62
     7
100
AcDbCircle
 10
1636.670030257854
 20
883.7590769925073
 30
0.0
 40
1.5
100
AcDbArc
 50
273.0000000000056
 51
93.00000000000558
  0
LINE
  5
6DD0
330
1E
100
AcDbEntity
  8
躯体と製品
  6
DASHED1
 62
     7
100
AcDbLine
 10
1636.748534192218
 20
882.2611326903754
 30
0.0
 11
1633.253330820577
 21
882.077956843525
 31
0.0
  0
LINE
  5
6DD1
330
1E
100
AcDbEntity
  8
躯体と製品
  6
DASHED1
 62
     7
100
AcDbLine
 10
1633.200994864334
 20
883.0765863782797
 30
0.0
 11
1633.253330820577
 21
882.077956843525
 31
0.0
  0
LINE
  5
6DD2
330
1E
100
AcDbEntity
  8
躯体と製品
  6
DASHED1
 62
     7
100
AcDbLine
 10
1633.200994864334
 20
883.0765863782797
 30
0.0
 11
1613.228404169243
 21
882.029867253421
 31
0.0
  0
LINE
  5
6DD3
330
1E
100
AcDbEntity
  8
躯体と製品
  6
DASHED1
 62
     7
100
AcDbLine
 10
1613.228404169243
 20
882.029867253421
 30
0.0
 11
1613.280740125486
 21
881.0312377186662
 31
0.0
  0
LINE
  5
6DD4
330
1E
100
AcDbEntity
  8
躯体と製品
  6
DASHED1
 62
     7
100
AcDbLine
 10
1613.280740125486
 20
881.0312377186662
 30
0.0
 11
1608.287592451713
 21
880.7695579374518
 31
0.0
  0
LINE
  5
6DD5
330
1E
100
AcDbEntity
  8
躯体と製品
  6
Continuous
 62
     3
100
AcDbLine
 10
1608.41843234232
 20
878.272984100565
 30
0.0
 11
1606.953025567518
 21
906.2346110736932
 31
0.0
  0
ARC
  5
6DD6
330
1E
100
AcDbEntity
  8
躯体と製品
  6
Continuous
 62
     3
100
AcDbCircle
 10
1598.152808425675
 20
876.9898068529943
 30
0.0
 40
0.5999999999999984
100
AcDbArc
 50
193.0000000000002
 51
13.00000000000027
  0
ARC
  5
6DD7
330
1E
100
AcDbEntity
  8
躯体と製品
  6
Continuous
 62
     3
100
AcDbCircle
 10
1598.64142295402
 20
879.7633374424908
 30
0.0
 40
0.5
100
AcDbArc
 50
93.00000000000558
 51
193.0000000000002
  0
ARC
  5
6DD8
330
1E
100
AcDbEntity
  8
躯体と製品
  6
Continuous
 62
     3
100
AcDbCircle
 10
1596.567668686619
 20
879.8549310557573
 30
0.0
 40
0.2999999999999998
100
AcDbArc
 50
13.00000000000027
 51
93.00000000000558
  0
ARC
  5
6DD9
330
1E
100
AcDbEntity
  8
躯体と製品
  6
Continuous
 62
     3
100
AcDbCircle
 10
1593.88542744717
 20
831.8280712418282
 30
0.0
 40
0.6000000000000015
100
AcDbArc
 50
270.0
 51
90.0
  0
LINE
  5
6DDA
330
1E
100
AcDbEntity
  8
躯体と製品
  6
Continuous
 62
     3
100
AcDbLine
 10
1582.717953169214
 20
824.1127585360315
 30
0.0
 11
1582.717953169214
 21
820.4280712418281
 31
0.0
  0
LINE
  5
6DDB
330
1E
100
AcDbEntity
  8
躯体と製品
  6
Continuous
 62
     3
100
AcDbLine
 10
1579.717953169214
 20
822.9280712418281
 30
0.0
 11
1579.717953169214
 21
824.4280712418284
 31
0.0
  0
LINE
  5
6DDC
330
1E
100
AcDbEntity
  8
躯体と製品
  6
Continuous
 62
     3
100
AcDbLine
 10
1582.217953169214
 20
820.4280712418281
 30
0.0
 11
1582.717953169214
 21
820.4280712418281
 31
0.0
  0
ARC
  5
6DDD
330
1E
100
AcDbEntity
  8
躯体と製品
  6
Continuous
 62
     3
100
AcDbCircle
 10
1582.217953169214
 20
822.9280712418281
 30
0.0
 40
2.5
100
AcDbArc
 50
180.0
 51
270.0
  0
LINE
  5
6DDE
330
1E
100
AcDbEntity
  8
躯体と製品
  6
Continuous
 62
     3
100
AcDbLine
 10
1589.48542744717
 20
832.4280712418282
 30
0.0
 11
1589.48542744717
 21
833.428071241828
 31
0.0
  0
LINE
  5
6DDF
330
1E
100
AcDbEntity
  8
躯体と製品
  6
Continuous
 62
     3
100
AcDbLine
 10
1589.48542744717
 20
833.428071241828
 30
0.0
 11
1591.485427447169
 21
832.4280712418282
 31
0.0
  0
LINE
  5
6DE0
330
1E
100
AcDbEntity
  8
躯体と製品
  6
Continuous
 62
     3
100
AcDbLine
 10
1593.88542744717
 20
832.4280712418282
 30
0.0
 11
1591.485427447169
 21
832.4280712418282
 31
0.0
  0
ARC
  5
6DE1
330
1E
100
AcDbEntity
  8
躯体と製品
  6
Continuous
 62
     3
100
AcDbCircle
 10
1585.102876025437
 20
832.9280712418281
 30
0.0
 40
0.5
100
AcDbArc
 50
168.0000000000002
 51
270.0
  0
LINE
  5
6DE2
330
1E
100
AcDbEntity
  8
躯体と製品
  6
Continuous
 62
     3
100
AcDbLine
 10
1584.635251589763
 20
831.2280712418285
 30
0.0
 11
1593.88542744717
 21
831.2280712418285
 31
0.0
  0
LINE
  5
6DE3
330
1E
100
AcDbEntity
  8
躯体と製品
  6
Continuous
 62
     3
100
AcDbLine
 10
1584.146177789396
 20
830.8320270872371
 30
0.0
 11
1582.717953169214
 21
824.1127585360315
 31
0.0
  0
ARC
  5
6DE4
330
1E
100
AcDbEntity
  8
躯体と製品
  6
Continuous
 62
     3
100
AcDbCircle
 10
1584.635251589763
 20
830.7280712418284
 30
0.0
 40
0.5
100
AcDbArc
 50
90.0
 51
168.0000000000002
  0
LINE
  5
6DE5
330
1E
100
AcDbEntity
  8
躯体と製品
  6
Continuous
 62
     3
100
AcDbLine
 10
1608.366096386077
 20
879.2716136353197
 30
0.0
 11
1608.287592451713
 21
880.7695579374518
 31
0.0
  0
ARC
  5
6DE6
330
1E
100
AcDbEntity
  8
躯体と製品
  6
Continuous
 62
     3
100
AcDbCircle
 10
1607.8667816187
 20
879.2454456571984
 30
0.0
 40
0.5
100
AcDbArc
 50
273.0000000000056
 51
2.999999999998919
  0
LINE
  5
6DE7
330
1E
100
AcDbEntity
  8
躯体と製品
  6
Continuous
 62
     3
100
AcDbLine
 10
1607.393634829444
 20
878.7199629116996
 30
0.0
 11
1607.892949596822
 21
878.746130889821
 31
0.0
  0
ARC
  5
6DE8
330
1E
100
AcDbEntity
  8
躯体と製品
  6
Continuous
 62
     3
100
AcDbCircle
 10
1607.367466851323
 20
879.2192776790766
 30
0.0
 40
0.5
100
AcDbArc
 50
182.9999999999989
 51
273.0000000000056
  0
ARC
  5
6DE9
330
1E
100
AcDbEntity
  8
躯体と製品
  6
Continuous
 62
     3
100
AcDbCircle
 10
1595.426957423923
 20
879.0941882694776
 30
0.0
 40
1.0
100
AcDbArc
 50
93.00000000000558
 51
168.0000000000002
  0
ARC
  5
6DEA
330
1E
100
AcDbEntity
  8
躯体と製品
  6
Continuous
 62
     3
100
AcDbCircle
 10
1594.60834607467
 20
880.0526590125651
 30
0.0
 40
3.0
100
AcDbArc
 50
93.00000000000558
 51
168.0000000000002
  0
LINE
  5
6DEB
330
1E
100
AcDbEntity
  8
躯体と製品
  6
Continuous
 62
     3
100
AcDbLine
 10
1607.999744692376
 20
886.2620203786018
 30
0.0
 11
1608.130584582984
 21
883.7654465417156
 31
0.0
  0
ARC
  5
6DEC
330
1E
100
AcDbEntity
  8
躯体と製品
  6
Continuous
 62
     3
100
AcDbCircle
 10
1607.500429924999
 20
886.2358524004802
 30
0.0
 40
0.5
100
AcDbArc
 50
2.999999999998919
 51
93.00000000000558
  0
LINE
  5
6DED
330
1E
100
AcDbEntity
  8
躯体と製品
  6
Continuous
 62
     3
100
AcDbLine
 10
1606.974947179501
 20
886.7089991897362
 30
0.0
 11
1607.474261946878
 21
886.7351671678576
 31
0.0
  0
ARC
  5
6DEE
330
1E
100
AcDbEntity
  8
躯体と製品
  6
Continuous
 62
     3
100
AcDbCircle
 10
1607.001115157622
 20
886.2096844223589
 30
0.0
 40
0.5
100
AcDbArc
 50
93.00000000000558
 51
182.9999999999989
  0
LINE
  5
6DEF
330
1E
100
AcDbEntity
  8
躯体と製品
  6
Continuous
 62
     3
100
AcDbLine
 10
1591.673903272468
 20
880.6763940850185
 30
0.0
 11
1579.717953169214
 21
824.4280712418284
 31
0.0
  0
LINE
  5
6DF0
330
1E
100
AcDbEntity
  8
躯体と製品
  6
Continuous
 62
     3
100
AcDbLine
 10
1594.448809823189
 20
879.3020999602953
 30
0.0
 11
1584.61380222507
 21
833.0320270872372
 31
0.0
  0
LINE
  5
6DF1
330
1E
100
AcDbEntity
  8
躯体と製品
  6
Continuous
 62
     3
100
AcDbLine
 10
1585.102876025437
 20
832.4280712418282
 30
0.0
 11
1589.48542744717
 21
832.4280712418282
 31
0.0
  0
LINE
  5
6DF2
330
1E
100
AcDbEntity
  8
躯体と製品
  6
Continuous
 62
     3
100
AcDbLine
 10
1606.60647230273
 20
884.1862573747281
 30
0.0
 11
1606.501800390245
 21
886.1835164442373
 31
0.0
  0
LINE
  5
6DF3
330
1E
100
AcDbEntity
  8
躯体と製品
  6
Continuous
 62
     3
100
AcDbLine
 10
1606.133325513475
 20
883.6607746292296
 30
0.0
 11
1594.451338205941
 21
883.048547616829
 31
0.0
  0
ARC
  5
6DF4
330
1E
100
AcDbEntity
  8
躯体と製品
  6
Continuous
 62
     3
100
AcDbCircle
 10
1606.107157535353
 20
884.1600893966067
 30
0.0
 40
0.5
100
AcDbArc
 50
273.0000000000056
 51
2.999999999998919
  0
LINE
  5
6DF5
330
1E
100
AcDbEntity
  8
躯体と製品
  6
Continuous
 62
     3
100
AcDbLine
 10
1606.815816127702
 20
880.1917392357097
 30
0.0
 11
1606.868152083945
 21
879.1931097009554
 31
0.0
  0
ARC
  5
6DF6
330
1E
100
AcDbEntity
  8
躯体と製品
  6
Continuous
 62
     3
100
AcDbCircle
 10
1606.316501360325
 20
880.1655712575882
 30
0.0
 40
0.5
100
AcDbArc
 50
2.999999999998919
 51
93.00000000000558
  0
LINE
  5
6DF7
330
1E
100
AcDbEntity
  8
躯体と製品
  6
Continuous
 62
     3
100
AcDbLine
 10
1596.859979706055
 20
879.9224163720605
 30
0.0
 11
1597.568186386804
 21
876.854836220388
 31
0.0
  0
LINE
  5
6DF8
330
1E
100
AcDbEntity
  8
躯体と製品
  6
Continuous
 62
     3
100
AcDbLine
 10
1595.37462146768
 20
880.0928178042322
 30
0.0
 11
1596.551967899747
 21
880.1545199161834
 31
0.0
  0
LINE
  5
6DF9
330
1E
100
AcDbEntity
  8
躯体と製品
  6
Continuous
 62
     3
100
AcDbLine
 10
1606.290333382204
 20
880.6648860249657
 30
0.0
 11
1598.615254975898
 21
880.2626522098679
 31
0.0
  0
LINE
  5
6DFA
330
1E
100
AcDbEntity
  8
躯体と製品
  6
Continuous
 62
     3
100
AcDbLine
 10
1598.154237921627
 20
879.6508619153188
 30
0.0
 11
1598.737430464546
 21
877.1247774856005
 31
0.0
  0
LINE
  5
6DFB
330
1E
100
AcDbEntity
  8
躯体と製品
  6
DASHED1
 62
     4
100
AcDbLine
 10
1712.960517754093
 20
889.7600367146019
 30
0.0
 11
1712.866313032856
 21
891.5575698771599
 31
0.0
  0
LINE
  5
6DFC
330
1E
100
AcDbEntity
  8
躯体と製品
  6
Continuous
 62
     3
100
AcDbLine
 10
1606.953025567518
 20
906.2346110736932
 30
0.0
 11
1753.219714881733
 21
913.9001234437339
 31
0.0
  0
LINE
  5
6DFD
330
1E
100
AcDbEntity
  8
躯体と製品
  6
Continuous
 62
     3
100
AcDbLine
 10
1608.41843234232
 20
878.272984100565
 30
0.0
 11
1753.219714881733
 21
885.861697755792
 31
0.0
  0
LINE
  5
6DFE
330
1E
100
AcDbEntity
  8
躯体と製品
  6
DASHED1
 62
     4
100
AcDbLine
 10
1608.010211883625
 20
886.0622944716508
 30
0.0
 11
1753.219714881733
 21
893.6724020545758
 31
0.0
  0
LINE
  5
6DFF
330
1E
100
AcDbEntity
  8
躯体と製品
  6
DASHED1
 62
     4
100
AcDbLine
 10
1608.104416604863
 20
884.2647613090926
 30
0.0
 11
1753.219714881733
 21
891.8699318317795
 31
0.0
  0
LINE
  5
6E00
330
1E
100
AcDbEntity
  8
躯体と製品
  6
DASHED1
 62
     4
100
AcDbLine
 10
1608.287592451713
 20
880.7695579374518
 30
0.0
 11
1753.219714881733
 21
888.3651286207868
 31
0.0
  0
LINE
  5
6E01
330
1E
100
AcDbEntity
  8
躯体と製品
  6
DASHED1
 62
     4
100
AcDbLine
 10
1608.366096386077
 20
879.2716136353197
 30
0.0
 11
1753.219714881733
 21
886.8630701017901
 31
0.0
  0
LINE
  5
6E02
330
1E
100
AcDbEntity
  8
躯体と製品
  6
DASHED1
 62
     4
100
AcDbLine
 10
1607.031529501882
 20
904.7366667715612
 30
0.0
 11
1753.298218816098
 21
912.4021791416021
 31
0.0
  0
LINE
  5
6E03
330
1E
100
AcDbEntity
  8
躯体と製品
  6
Continuous
 62
     3
100
AcDbLine
 10
1607.188537370611
 20
901.7407781672977
 30
0.0
 11
1753.219714881733
 21
909.3939478867429
 31
0.0
  0
LINE
  5
6E04
330
1E
100
AcDbEntity
  8
躯体と製品
  6
Continuous
 62
     3
100
AcDbLine
 10
1607.267041304975
 20
900.2428338651657
 30
0.0
 11
1753.219714881733
 21
907.8918893677462
 31
0.0
  0
LINE
  5
6E05
330
1E
100
AcDbEntity
  8
躯体と製品
  6
Continuous
 62
     7
100
AcDbLine
 10
1598.98542744717
 20
867.4280712418283
 30
0.0
 11
1597.33434244717
 21
866.9046982418281
 31
0.0
  0
ARC
  5
6E06
330
1E
100
AcDbEntity
  8
躯体と製品
  6
Continuous
 62
     7
100
AcDbCircle
 10
1597.48542744717
 20
866.4280712418284
 30
0.0
 40
0.5
100
AcDbArc
 50
107.587954000005
 51
252.412045999995
  0
LINE
  5
6E07
330
1E
100
AcDbEntity
  8
躯体と製品
  6
Continuous
 62
     7
100
AcDbLine
 10
1600.48542744717
 20
863.4280712418282
 30
0.0
 11
1600.48542744717
 21
865.9280712418281
 31
0.0
  0
ARC
  5
6E08
330
1E
100
AcDbEntity
  8
躯体と製品
  6
Continuous
 62
     7
100
AcDbCircle
 10
1599.98542744717
 20
869.4280712418281
 30
0.0
 40
0.5
100
AcDbArc
 50
0.0
 51
90.0
  0
ARC
  5
6E09
330
1E
100
AcDbEntity
  8
躯体と製品
  6
Continuous
 62
     7
100
AcDbCircle
 10
1599.98542744717
 20
863.4280712418282
 30
0.0
 40
0.5
100
AcDbArc
 50
270.0
 51
0.0
  0
ARC
  5
6E0A
330
1E
100
AcDbEntity
  8
躯体と製品
  6
Continuous
 62
     7
100
AcDbCircle
 10
1599.485427447169
 20
863.4280712418282
 30
0.0
 40
0.5
100
AcDbArc
 50
180.0
 51
270.0
  0
LINE
  5
6E0B
330
1E
100
AcDbEntity
  8
躯体と製品
  6
Continuous
 62
     7
100
AcDbLine
 10
1599.98542744717
 20
862.9280712418283
 30
0.0
 11
1599.485427447169
 21
862.9280712418283
 31
0.0
  0
LINE
  5
6E0C
330
1E
100
AcDbEntity
  8
躯体と製品
  6
Continuous
 62
     7
100
AcDbLine
 10
1599.98542744717
 20
869.928071241828
 30
0.0
 11
1599.485427447169
 21
869.928071241828
 31
0.0
  0
ARC
  5
6E0D
330
1E
100
AcDbEntity
  8
躯体と製品
  6
Continuous
 62
     7
100
AcDbCircle
 10
1599.485427447169
 20
869.4280712418281
 30
0.0
 40
0.5
100
AcDbArc
 50
90.0
 51
180.0
  0
LINE
  5
6E0E
330
1E
100
AcDbEntity
  8
躯体と製品
  6
Continuous
 62
     7
100
AcDbLine
 10
1598.98542744717
 20
867.4280712418283
 30
0.0
 11
1598.98542744717
 21
869.4280712418281
 31
0.0
  0
LINE
  5
6E0F
330
1E
100
AcDbEntity
  8
躯体と製品
  6
Continuous
 62
     7
100
AcDbLine
 10
1598.98542744717
 20
865.428071241828
 30
0.0
 11
1598.98542744717
 21
863.4280712418282
 31
0.0
  0
LINE
  5
6E10
330
1E
100
AcDbEntity
  8
躯体と製品
  6
Continuous
 62
     7
100
AcDbLine
 10
1598.98542744717
 20
865.428071241828
 30
0.0
 11
1597.33434244717
 21
865.9514442418283
 31
0.0
  0
LINE
  5
6E11
330
1E
100
AcDbEntity
  8
躯体と製品
  6
Continuous
 62
     7
100
AcDbLine
 10
1600.48542744717
 20
869.4280712418281
 30
0.0
 11
1600.48542744717
 21
866.9280712418283
 31
0.0
  0
LINE
  5
6E12
330
1E
100
AcDbEntity
  8
躯体と製品
  6
Continuous
 62
     7
100
AcDbLine
 10
1601.081225625872
 20
865.9280712418281
 30
0.0
 11
1600.48542744717
 21
865.9280712418281
 31
0.0
  0
ARC
  5
6E13
330
1E
100
AcDbEntity
  8
躯体と製品
  6
Continuous
 62
     7
100
AcDbCircle
 10
1601.081225625872
 20
864.828071241828
 30
0.0
 40
1.1
100
AcDbArc
 50
4.999999999999459
 51
90.0
  0
LINE
  5
6E14
330
1E
100
AcDbEntity
  8
躯体と製品
  6
Continuous
 62
     7
100
AcDbLine
 10
1601.081225625872
 20
866.9280712418283
 30
0.0
 11
1600.48542744717
 21
866.9280712418283
 31
0.0
  0
ARC
  5
6E15
330
1E
100
AcDbEntity
  8
躯体と製品
  6
Continuous
 62
     7
100
AcDbCircle
 10
1601.081225625872
 20
864.828071241828
 30
0.0
 40
2.1
100
AcDbArc
 50
4.999999999999459
 51
90.0
  0
ARC
  5
6E16
330
1E
100
AcDbEntity
  8
躯体と製品
  6
Continuous
 62
     3
100
AcDbCircle
 10
1593.98542744717
 20
824.1280712418282
 30
0.0
 40
1.0
100
AcDbArc
 50
270.0
 51
0.0
  0
LINE
  5
6E17
330
1E
100
AcDbEntity
  8
躯体と製品
  6
Continuous
 62
     3
100
AcDbLine
 10
1590.08542744717
 20
823.1280712418284
 30
0.0
 11
1593.98542744717
 21
823.1280712418284
 31
0.0
  0
ARC
  5
6E18
330
1E
100
AcDbEntity
  8
躯体と製品
  6
Continuous
 62
     3
100
AcDbCircle
 10
1590.08542744717
 20
822.5280712418284
 30
0.0
 40
0.5999999999999997
100
AcDbArc
 50
90.0
 51
270.0
  0
LINE
  5
6E19
330
1E
100
AcDbEntity
  8
躯体と製品
  6
Continuous
 62
     3
100
AcDbLine
 10
1596.48542744717
 20
861.228071241828
 30
0.0
 11
1596.48542744717
 21
824.4280712418284
 31
0.0
  0
ARC
  5
6E1A
330
1E
100
AcDbEntity
  8
躯体と製品
  6
Continuous
 62
     3
100
AcDbCircle
 10
1595.73542744717
 20
879.1780712418281
 30
0.0
 40
0.75
100
AcDbArc
 50
0.0
 51
180.0
  0
LINE
  5
6E1B
330
1E
100
AcDbEntity
  8
躯体と製品
  6
Continuous
 62
     3
100
AcDbLine
 10
1596.48542744717
 20
872.6280712418281
 30
0.0
 11
1596.48542744717
 21
879.1780712418281
 31
0.0
  0
ARC
  5
6E1C
330
1E
100
AcDbEntity
  8
躯体と製品
  6
Continuous
 62
     3
100
AcDbCircle
 10
1596.98542744717
 20
872.6280712418281
 30
0.0
 40
0.5
100
AcDbArc
 50
180.0
 51
270.0
  0
ARC
  5
6E1D
330
1E
100
AcDbEntity
  8
躯体と製品
  6
Continuous
 62
     3
100
AcDbCircle
 10
1600.68542744717
 20
871.1280712418284
 30
0.0
 40
1.0
100
AcDbArc
 50
0.0
 51
90.0
  0
LINE
  5
6E1E
330
1E
100
AcDbEntity
  8
躯体と製品
  6
Continuous
 62
     3
100
AcDbLine
 10
1596.98542744717
 20
872.128071241828
 30
0.0
 11
1600.68542744717
 21
872.128071241828
 31
0.0
  0
ARC
  5
6E1F
330
1E
100
AcDbEntity
  8
躯体と製品
  6
Continuous
 62
     3
100
AcDbCircle
 10
1596.98542744717
 20
861.228071241828
 30
0.0
 40
0.5
100
AcDbArc
 50
90.0
 51
180.0
  0
ARC
  5
6E20
330
1E
100
AcDbEntity
  8
躯体と製品
  6
Continuous
 62
     3
100
AcDbCircle
 10
1600.68542744717
 20
862.7280712418285
 30
0.0
 40
1.0
100
AcDbArc
 50
270.0
 51
0.0
  0
LINE
  5
6E21
330
1E
100
AcDbEntity
  8
躯体と製品
  6
Continuous
 62
     3
100
AcDbLine
 10
1596.98542744717
 20
861.7280712418281
 30
0.0
 11
1600.68542744717
 21
861.7280712418281
 31
0.0
  0
ARC
  5
6E22
330
1E
100
AcDbEntity
  8
躯体と製品
  6
Continuous
 62
     3
100
AcDbCircle
 10
1596.785427447169
 20
870.6280712418283
 30
0.0
 40
0.2999999999999998
100
AcDbArc
 50
90.0
 51
180.0
  0
LINE
  5
6E23
330
1E
100
AcDbEntity
  8
躯体と製品
  6
Continuous
 62
     3
100
AcDbLine
 10
1596.48542744717
 20
870.6280712418283
 30
0.0
 11
1596.48542744717
 21
863.2280712418282
 31
0.0
  0
ARC
  5
6E24
330
1E
100
AcDbEntity
  8
躯体と製品
  6
Continuous
 62
     3
100
AcDbCircle
 10
1596.785427447169
 20
863.2280712418282
 30
0.0
 40
0.2999999999999998
100
AcDbArc
 50
180.0
 51
270.0
  0
LINE
  5
6E25
330
1E
100
AcDbEntity
  8
躯体と製品
  6
Continuous
 62
     3
100
AcDbLine
 10
1600.18542744717
 20
862.9280712418283
 30
0.0
 11
1596.785427447169
 21
862.9280712418283
 31
0.0
  0
LINE
  5
6E26
330
1E
100
AcDbEntity
  8
躯体と製品
  6
Continuous
 62
     3
100
AcDbLine
 10
1600.18542744717
 20
870.9280712418284
 30
0.0
 11
1596.785427447169
 21
870.9280712418284
 31
0.0
  0
LINE
  5
6E27
330
1E
100
AcDbEntity
  8
躯体と製品
  6
Continuous
 62
     3
100
AcDbLine
 10
1594.985427447169
 20
879.1780712418281
 30
0.0
 11
1594.985427447169
 21
834.9280712418281
 31
0.0
  0
ARC
  5
6E28
330
1E
100
AcDbEntity
  8
躯体と製品
  6
Continuous
 62
     3
100
AcDbCircle
 10
1593.98542744717
 20
824.4280712418284
 30
0.0
 40
2.5
100
AcDbArc
 50
270.0
 51
0.0
  0
LINE
  5
6E29
330
1E
100
AcDbEntity
  8
躯体と製品
  6
Continuous
 62
     3
100
AcDbLine
 10
1590.08542744717
 20
821.9280712418283
 30
0.0
 11
1593.98542744717
 21
821.9280712418283
 31
0.0
  0
ARC
  5
6E2A
330
1E
100
AcDbEntity
  8
躯体と製品
  6
Continuous
 62
     3
100
AcDbCircle
 10
1594.485427447169
 20
834.9280712418281
 30
0.0
 40
0.5
100
AcDbArc
 50
270.0
 51
0.0
  0
LINE
  5
6E2B
330
1E
100
AcDbEntity
  8
躯体と製品
  6
Continuous
 62
     3
100
AcDbLine
 10
1594.485427447169
 20
834.4280712418283
 30
0.0
 11
1587.78542744717
 21
834.4280712418283
 31
0.0
  0
LINE
  5
6E2C
330
1E
100
AcDbEntity
  8
躯体と製品
  6
Continuous
 62
     3
100
AcDbLine
 10
1594.985427447169
 20
832.9280712418281
 30
0.0
 11
1594.985427447169
 21
824.1280712418282
 31
0.0
  0
ARC
  5
6E2D
330
1E
100
AcDbEntity
  8
躯体と製品
  6
Continuous
 62
     3
100
AcDbCircle
 10
1594.485427447169
 20
832.9280712418281
 30
0.0
 40
0.5
100
AcDbArc
 50
0.0
 51
90.0
  0
ARC
  5
6E2E
330
1E
100
AcDbEntity
  8
躯体と製品
  6
Continuous
 62
     3
100
AcDbCircle
 10
1587.78542744717
 20
834.1280712418281
 30
0.0
 40
0.2999999999999998
100
AcDbArc
 50
90.0
 51
180.0
  0
LINE
  5
6E2F
330
1E
100
AcDbEntity
  8
躯体と製品
  6
Continuous
 62
     3
100
AcDbLine
 10
1594.485427447169
 20
833.428071241828
 30
0.0
 11
1589.48542744717
 21
833.428071241828
 31
0.0
  0
LINE
  5
6E30
330
1E
100
AcDbEntity
  8
躯体と製品
  6
Continuous
 62
     3
100
AcDbLine
 10
1587.48542744717
 20
834.1280712418281
 30
0.0
 11
1587.48542744717
 21
833.8184592418281
 31
0.0
  0
LINE
  5
6E31
330
1E
100
AcDbEntity
  8
躯体と製品
  6
Continuous
 62
     3
100
AcDbLine
 10
1589.48542744717
 20
833.428071241828
 30
0.0
 11
1589.48542744717
 21
832.9280712418281
 31
0.0
  0
ARC
  5
6E32
330
1E
100
AcDbEntity
  8
躯体と製品
  6
Continuous
 62
     3
100
AcDbCircle
 10
1587.98542744717
 20
833.8184592418281
 30
0.0
 40
0.5
100
AcDbArc
 50
180.0
 51
255.9637569999957
  0
LINE
  5
6E33
330
1E
100
AcDbEntity
  8
躯体と製品
  6
Continuous
 62
     3
100
AcDbLine
 10
1589.48542744717
 20
832.9280712418281
 30
0.0
 11
1587.86415944717
 21
833.3333882418285
 31
0.0
  0
LINE
  5
6E34
330
1E
100
AcDbEntity
  8
躯体と製品
  6
Continuous
 62
     3
100
AcDbLine
 10
1601.68542744717
 20
869.0280712418283
 30
0.0
 11
1601.68542744717
 21
871.1280712418284
 31
0.0
  0
ARC
  5
6E35
330
1E
100
AcDbEntity
  8
躯体と製品
  6
Continuous
 62
     3
100
AcDbCircle
 10
1600.18542744717
 20
870.6280712418283
 30
0.0
 40
0.2999999999999998
100
AcDbArc
 50
0.0
 51
90.0
  0
LINE
  5
6E36
330
1E
100
AcDbEntity
  8
躯体と製品
  6
Continuous
 62
     3
100
AcDbLine
 10
1600.48542744717
 20
869.0280712418283
 30
0.0
 11
1600.48542744717
 21
870.6280712418283
 31
0.0
  0
ARC
  5
6E37
330
1E
100
AcDbEntity
  8
躯体と製品
  6
Continuous
 62
     3
100
AcDbCircle
 10
1600.18542744717
 20
863.2280712418282
 30
0.0
 40
0.2999999999999998
100
AcDbArc
 50
270.0
 51
0.0
  0
LINE
  5
6E38
330
1E
100
AcDbEntity
  8
躯体と製品
  6
Continuous
 62
     3
100
AcDbLine
 10
1600.48542744717
 20
864.828071241828
 30
0.0
 11
1600.48542744717
 21
863.2280712418282
 31
0.0
  0
LINE
  5
6E39
330
1E
100
AcDbEntity
  8
躯体と製品
  6
Continuous
 62
     3
100
AcDbLine
 10
1601.68542744717
 20
864.828071241828
 30
0.0
 11
1601.68542744717
 21
862.7280712418285
 31
0.0
  0
ARC
  5
6E3A
330
1E
100
AcDbEntity
  8
躯体と製品
  6
Continuous
 62
     3
100
AcDbCircle
 10
1601.08542744717
 20
869.0280712418283
 30
0.0
 40
0.5999999999999997
100
AcDbArc
 50
180.0
 51
0.0
  0
ARC
  5
6E3B
330
1E
100
AcDbEntity
  8
躯体と製品
  6
Continuous
 62
     3
100
AcDbCircle
 10
1601.08542744717
 20
864.828071241828
 30
0.0
 40
0.5999999999999997
100
AcDbArc
 50
0.0
 51
180.0
  0
LINE
  5
6E3C
330
1E
100
AcDbEntity
  8
躯体と製品
  6
Continuous
 62
     7
100
AcDbLine
 10
1603.173234491865
 20
865.0110983015983
 30
0.0
 11
1606.290485613754
 21
829.3807549375639
 31
0.0
  0
LINE
  5
6E3D
330
1E
100
AcDbEntity
  8
躯体と製品
  6
Continuous
 62
     7
100
AcDbLine
 10
1602.177039793773
 20
864.9239425588508
 30
0.0
 11
1605.294290915663
 21
829.293599194816
 31
0.0
  0
LINE
  5
6E3E
330
1E
100
AcDbEntity
  8
躯体と製品
  6
DASHED1
 62
     7
100
AcDbLine
 10
1599.103252520937
 20
901.6923268638347
 30
0.0
 11
1585.149638971521
 21
823.5520909871084
 31
0.0
  0
ARC
  5
6E3F
330
1E
100
AcDbEntity
  8
躯体と製品
  6
DASHED1
 62
     7
100
AcDbCircle
 10
1602.056535247462
 20
901.1649549483836
 30
0.0
 40
3.0
100
AcDbArc
 50
93.00000000000558
 51
169.8753283446035
  0
LINE
  5
6E40
330
1E
100
AcDbEntity
  8
躯体と製品
  6
DASHED1
 62
     7
100
AcDbLine
 10
1594.673328431149
 20
902.4833847370111
 30
0.0
 11
1580.719714881733
 21
824.3431488602844
 31
0.0
  0
ARC
  5
6E41
330
1E
100
AcDbEntity
  8
躯体と製品
  6
DASHED1
 62
     7
100
AcDbCircle
 10
1602.056535247462
 20
901.1649549483836
 30
0.0
 40
7.5
100
AcDbArc
 50
93.00000000000558
 51
169.8753283446035
  0
LINE
  5
6E42
330
1E
100
AcDbEntity
  8
躯体と製品
  6
DASHED1
 62
     7
100
AcDbLine
 10
1580.719714881733
 20
824.3431488602844
 30
0.0
 11
1585.149638971458
 21
823.5520909867522
 31
0.0
  0
LINE
  5
6E43
330
1E
100
AcDbEntity
  8
躯体と製品
  6
DASHED1
 62
     7
100
AcDbLine
 10
1601.899527378733
 20
904.1608435526473
 30
0.0
 11
1607.047567637675
 21
904.4306409102782
 31
0.0
  0
LINE
  5
6E44
330
1E
100
AcDbEntity
  8
躯体と製品
  6
DASHED1
 62
     7
100
AcDbLine
 10
1601.66401557564
 20
908.654676459043
 30
0.0
 11
1606.812055834582
 21
908.9244738166739
 31
0.0
  0
LINE
  5
6E45
330
1E
100
AcDbEntity
  8
躯体と製品
  6
Continuous
 62
     7
100
AcDbLine
 10
1626.255885259449
 20
859.1873252251472
 30
0.0
 11
1623.648148260697
 21
829.3807549375639
 31
0.0
  0
ARC
  5
6E46
330
1E
100
AcDbEntity
  8
躯体と製品
  6
Continuous
 62
     7
100
AcDbCircle
 10
1614.969316937225
 20
830.1400542910213
 30
0.0
 40
8.711983049193065
100
AcDbArc
 50
184.9999999999994
 51
355.0000000000006
  0
LINE
  5
6E47
330
1E
100
AcDbEntity
  8
躯体と製品
  6
Continuous
 62
     7
100
AcDbLine
 10
1627.25207995754
 20
859.1001694823997
 30
0.0
 11
1624.644342958788
 21
829.293599194816
 31
0.0
  0
ARC
  5
6E48
330
1E
100
AcDbEntity
  8
躯体と製品
  6
Continuous
 62
     7
100
AcDbCircle
 10
1614.969316937225
 20
830.1400542910213
 30
0.0
 40
9.711983049193063
100
AcDbArc
 50
184.9999999999994
 51
355.0000000000006
  0
POINT
  5
6E49
330
1E
100
AcDbEntity
  8
躯体と製品
 62
     4
100
AcDbPoint
 10
1928.219714881733
 20
908.9280712418283
 30
0.0
  0
ARC
  5
6E4A
330
1E
100
AcDbEntity
  8
躯体と製品
  6
DASHED1
 62
     7
100
AcDbCircle
 10
1904.382894516005
 20
901.1649549483836
 30
0.0
 40
7.5
100
AcDbArc
 50
10.12467165539644
 51
86.99999999999441
  0
LINE
  5
6E4B
330
1E
100
AcDbEntity
  8
躯体と製品
  6
DASHED1
 62
     7
100
AcDbLine
 10
1911.766101332318
 20
902.4833847370111
 30
0.0
 11
1925.719714881734
 21
824.3431488602844
 31
0.0
  0
POINT
  5
6E4C
330
1E
100
AcDbEntity
  8
躯体と製品
 62
     4
100
AcDbPoint
 10
1578.219714881733
 20
908.9280712418283
 30
0.0
  0
LINE
  5
6E4D
330
1E
100
AcDbEntity
  8
躯体と製品
  6
Continuous
 62
     4
100
AcDbLine
 10
1746.74596010399
 20
909.054672775219
 30
0.0
 11
1745.892387923004
 21
909.908244956205
 31
0.0
  0
LINE
  5
6E4E
330
1E
100
AcDbEntity
  8
躯体と製品
  6
Continuous
 62
     4
100
AcDbLine
 10
1748.089748690708
 20
909.1250977508742
 30
0.0
 11
1745.814173063683
 21
911.4006733778982
 31
0.0
  0
LINE
  5
6E4F
330
1E
100
AcDbEntity
  8
躯体と製品
  6
Continuous
 62
     4
100
AcDbLine
 10
1749.433537277425
 20
909.1955227265302
 30
0.0
 11
1745.735958204363
 21
912.8931017995919
 31
0.0
  0
LINE
  5
6E50
330
1E
100
AcDbEntity
  8
躯体と製品
  6
Continuous
 62
     4
100
AcDbLine
 10
1750.777325864143
 20
909.2659477021859
 30
0.0
 11
1746.971301751777
 21
913.071971814551
 31
0.0
  0
LINE
  5
6E51
330
1E
100
AcDbEntity
  8
躯体と製品
  6
Continuous
 62
     4
100
AcDbLine
 10
1746.495548737733
 20
913.5477248285964
 30
0.0
 11
1745.906963050354
 21
914.1363105159749
 31
0.0
  0
LINE
  5
6E52
330
1E
100
AcDbEntity
  8
躯体と製品
  6
Continuous
 62
     4
100
AcDbLine
 10
1752.12111445086
 20
909.336372677842
 30
0.0
 11
1748.315090338495
 21
913.1423967902069
 31
0.0
  0
LINE
  5
6E53
330
1E
100
AcDbEntity
  8
躯体と製品
  6
Continuous
 62
     4
100
AcDbLine
 10
1753.492023916102
 20
909.3796767749738
 30
0.0
 11
1749.658878925213
 21
913.2128217658628
 31
0.0
  0
LINE
  5
6E54
330
1E
100
AcDbEntity
  8
躯体と製品
  6
Continuous
 62
     4
100
AcDbLine
 10
1754.984452337794
 20
909.3014619156534
 30
0.0
 11
1751.002667511929
 21
913.2832467415182
 31
0.0
  0
LINE
  5
6E55
330
1E
100
AcDbEntity
  8
躯体と製品
  6
Continuous
 62
     4
100
AcDbLine
 10
1756.476880759487
 20
909.2232470563338
 30
0.0
 11
1752.346456098647
 21
913.3536717171738
 31
0.0
  0
LINE
  5
6E56
330
1E
100
AcDbEntity
  8
躯体と製品
  6
Continuous
 62
     4
100
AcDbLine
 10
1757.96930918118
 20
909.1450321970139
 30
0.0
 11
1753.742291170246
 21
913.3720502079478
 31
0.0
  0
LINE
  5
6E57
330
1E
100
AcDbEntity
  8
躯体と製品
  6
Continuous
 62
     4
100
AcDbLine
 10
1759.461737602873
 20
909.0668173376938
 30
0.0
 11
1755.234719591939
 21
913.2938353486279
 31
0.0
  0
LINE
  5
6E58
330
1E
100
AcDbEntity
  8
躯体と製品
  6
Continuous
 62
     4
100
AcDbLine
 10
1760.521519465824
 20
909.4212490371162
 30
0.0
 11
1756.727148013633
 21
913.2156204893076
 31
0.0
  0
LINE
  5
6E59
330
1E
100
AcDbEntity
  8
躯体と製品
  6
Continuous
 62
     4
100
AcDbLine
 10
1760.59194444148
 20
910.7650376238343
 30
0.0
 11
1758.219576435326
 21
913.1374056299879
 31
0.0
  0
LINE
  5
6E5A
330
1E
100
AcDbEntity
  8
躯体と製品
  6
Continuous
 62
     4
100
AcDbLine
 10
1760.662369417135
 20
912.1088262105518
 30
0.0
 11
1759.712004857019
 21
913.0591907706685
 31
0.0
  0
LINE
  5
6E5B
330
1E
100
AcDbEntity
  8
躯体と製品
  6
Continuous
 62
     7
100
AcDbLine
 10
1760.709436392393
 20
913.0069175989126
 30
0.0
 11
1753.219714881733
 21
913.399437270735
 31
0.0
  0
LINE
  5
6E5C
330
1E
100
AcDbEntity
  8
躯体と製品
  6
Continuous
 62
     7
100
AcDbLine
 10
1760.709436392393
 20
913.0069175989126
 30
0.0
 11
1760.500092567421
 21
909.0123994598945
 31
0.0
  0
LINE
  5
6E5D
330
1E
100
AcDbEntity
  8
躯体と製品
  6
Continuous
 62
     7
100
AcDbLine
 10
1745.729993371074
 20
913.0069175989126
 30
0.0
 11
1753.219714881733
 21
913.399437270735
 31
0.0
  0
LINE
  5
6E5E
330
1E
100
AcDbEntity
  8
躯体と製品
  6
Continuous
 62
     7
100
AcDbLine
 10
1745.729993371074
 20
913.0069175989126
 30
0.0
 11
1745.939337196046
 21
909.0123994598945
 31
0.0
  0
LINE
  5
6E5F
330
1E
100
AcDbEntity
  8
躯体と製品
  6
Continuous
 62
     4
100
AcDbLine
 10
1754.706342340572
 20
913.8222125999948
 30
0.0
 11
1751.995347232715
 21
916.5332077078526
 31
0.0
  0
LINE
  5
6E60
330
1E
100
AcDbEntity
  8
躯体と製品
  6
Continuous
 62
     4
100
AcDbLine
 10
1749.183125911167
 20
913.6885747799082
 30
0.0
 11
1746.620192885846
 21
916.2515078052294
 31
0.0
  0
LINE
  5
6E61
330
1E
100
AcDbEntity
  8
躯体と製品
  6
Continuous
 62
     4
100
AcDbLine
 10
1750.526914497883
 20
913.7589997555636
 30
0.0
 11
1747.963981472562
 21
916.321932780885
 31
0.0
  0
LINE
  5
6E62
330
1E
100
AcDbEntity
  8
躯体と製品
  6
Continuous
 62
     4
100
AcDbLine
 10
1751.870703084601
 20
913.8294247312195
 30
0.0
 11
1749.307770059279
 21
916.3923577565411
 31
0.0
  0
LINE
  5
6E63
330
1E
100
AcDbEntity
  8
躯体と製品
  6
Continuous
 62
     4
100
AcDbLine
 10
1753.214491671318
 20
913.8998497068753
 30
0.0
 11
1750.651558645997
 21
916.4627827321966
 31
0.0
  0
LINE
  5
6E64
330
1E
100
AcDbEntity
  8
躯体と製品
  6
Continuous
 62
     7
100
AcDbLine
 10
1745.79836746311
 20
916.2084377598656
 30
0.0
 11
1745.939337196046
 21
913.5185750168851
 31
0.0
  0
LINE
  5
6E65
330
1E
100
AcDbEntity
  8
躯体と製品
  6
Continuous
 62
     4
100
AcDbLine
 10
1747.83933732445
 20
913.6181498042521
 30
0.0
 11
1745.828748191035
 21
915.6287389376677
 31
0.0
  0
LINE
  5
6E66
330
1E
100
AcDbEntity
  8
躯体と製品
  6
Continuous
 62
     7
100
AcDbLine
 10
1760.641062300357
 20
916.2084377598656
 30
0.0
 11
1760.500092567421
 21
913.5185750168851
 31
0.0
  0
LINE
  5
6E67
330
1E
100
AcDbEntity
  8
躯体と製品
  6
Continuous
 62
     4
100
AcDbLine
 10
1756.198770762265
 20
913.7439977406746
 30
0.0
 11
1753.352345269674
 21
916.5904232332662
 31
0.0
  0
LINE
  5
6E68
330
1E
100
AcDbEntity
  8
躯体と製品
  6
Continuous
 62
     4
100
AcDbLine
 10
1757.691199183958
 20
913.6657828813547
 30
0.0
 11
1754.844773691367
 21
916.5122083739463
 31
0.0
  0
LINE
  5
6E69
330
1E
100
AcDbEntity
  8
躯体と製品
  6
Continuous
 62
     4
100
AcDbLine
 10
1759.183627605652
 20
913.5875680220356
 30
0.0
 11
1756.33720211306
 21
916.4339935146266
 31
0.0
  0
LINE
  5
6E6A
330
1E
100
AcDbEntity
  8
躯体と製品
  6
Continuous
 62
     4
100
AcDbLine
 10
1760.508395962211
 20
913.6770132278494
 30
0.0
 11
1757.829630534754
 21
916.3557786553068
 31
0.0
  0
LINE
  5
6E6B
330
1E
100
AcDbEntity
  8
躯体と製品
  6
Continuous
 62
     4
100
AcDbLine
 10
1760.578820937867
 20
915.0208018145651
 30
0.0
 11
1759.322058956445
 21
916.2775637959869
 31
0.0
  0
POINT
  5
6E6C
330
1E
100
AcDbEntity
  8
躯体と製品
 62
     4
100
AcDbPoint
 10
1753.219714881733
 20
918.0994326163604
 30
0.0
  0
POINT
  5
6E6D
330
1E
100
AcDbEntity
  8
躯体と製品
 62
     4
100
AcDbPoint
 10
1578.219714881733
 20
818.928071241828
 30
0.0
  0
POINT
  5
6E6E
330
1E
100
AcDbEntity
  8
躯体と製品
 62
     4
100
AcDbPoint
 10
1928.219714881733
 20
818.928071241828
 30
0.0
  0
LINE
  5
6E6F
330
1E
100
AcDbEntity
  8
躯体と製品
  6
Continuous
 62
     4
100
AcDbLine
 10
1606.93014827638
 20
906.6711357929259
 30
0.0
 11
1609.314641243896
 21
909.0556287604419
 31
0.0
  0
LINE
  5
6E70
330
1E
100
AcDbEntity
  8
躯体と製品
  6
Continuous
 62
     4
100
AcDbLine
 10
1621.392499968233
 20
906.9913518610492
 30
0.0
 11
1621.906988454306
 21
907.5058403471222
 31
0.0
  0
LINE
  5
6E71
330
1E
100
AcDbEntity
  8
躯体と製品
  6
Continuous
 62
     7
100
AcDbLine
 10
1606.953025567517
 20
906.2346110736932
 30
0.0
 11
1606.812055834582
 21
908.9244738166739
 31
0.0
  0
LINE
  5
6E72
330
1E
100
AcDbEntity
  8
躯体と製品
  6
Continuous
 62
     4
100
AcDbLine
 10
1607.960644172999
 20
906.2874181271713
 30
0.0
 11
1610.80706966559
 21
909.133843619762
 31
0.0
  0
LINE
  5
6E73
330
1E
100
AcDbEntity
  8
躯体と製品
  6
Continuous
 62
     4
100
AcDbLine
 10
1609.45307259469
 20
906.3656329864906
 30
0.0
 11
1612.299498087281
 21
909.2120584790816
 31
0.0
  0
LINE
  5
6E74
330
1E
100
AcDbEntity
  8
躯体と製品
  6
Continuous
 62
     4
100
AcDbLine
 10
1610.945501016383
 20
906.4438478458109
 30
0.0
 11
1613.791926508974
 21
909.2902733384015
 31
0.0
  0
LINE
  5
6E75
330
1E
100
AcDbEntity
  8
躯体と製品
  6
Continuous
 62
     4
100
AcDbLine
 10
1612.437929438076
 20
906.5220627051308
 30
0.0
 11
1615.284354930667
 21
909.368488197721
 31
0.0
  0
LINE
  5
6E76
330
1E
100
AcDbEntity
  8
躯体と製品
  6
Continuous
 62
     4
100
AcDbLine
 10
1613.930357859769
 20
906.6002775644502
 30
0.0
 11
1616.77678335236
 21
909.4467030570411
 31
0.0
  0
LINE
  5
6E77
330
1E
100
AcDbEntity
  8
躯体と製品
  6
Continuous
 62
     4
100
AcDbLine
 10
1615.422786281462
 20
906.6784924237698
 30
0.0
 11
1618.269211774054
 21
909.524917916361
 31
0.0
  0
LINE
  5
6E78
330
1E
100
AcDbEntity
  8
躯体と製品
  6
Continuous
 62
     4
100
AcDbLine
 10
1616.915214703155
 20
906.7567072830895
 30
0.0
 11
1619.761640195747
 21
909.6031327756806
 31
0.0
  0
LINE
  5
6E79
330
1E
100
AcDbEntity
  8
躯体と製品
  6
Continuous
 62
     4
100
AcDbLine
 10
1618.407643124849
 20
906.8349221424098
 30
0.0
 11
1621.25406861744
 21
909.6813476350005
 31
0.0
  0
LINE
  5
6E7A
330
1E
100
AcDbEntity
  8
躯体と製品
  6
Continuous
 62
     7
100
AcDbLine
 10
1621.932468588836
 20
907.0196504173374
 30
0.0
 11
1621.7914988559
 21
909.7095131603181
 31
0.0
  0
LINE
  5
6E7B
330
1E
100
AcDbEntity
  8
躯体と製品
  6
Continuous
 62
     4
100
AcDbLine
 10
1619.900071546543
 20
906.91313700173
 30
0.0
 11
1621.836563478651
 21
908.8496289338381
 31
0.0
  0
LINE
  5
6E7C
330
1E
100
AcDbEntity
  8
躯体と製品
  6
Continuous
 62
     4
100
AcDbLine
 10
1606.859723300725
 20
908.0149243796435
 30
0.0
 11
1607.822212822203
 21
908.9774139011222
 31
0.0
  0
LINE
  5
6E7D
330
1E
100
AcDbEntity
  8
躯体と製品
  6
Continuous
 62
     3
100
AcDbLine
 10
1693.219714881734
 20
860.0126058261128
 30
0.0
 11
1663.219714881733
 21
860.0126058261128
 31
0.0
  0
LINE
  5
6E7E
330
1E
100
AcDbEntity
  8
躯体と製品
  6
Continuous
 62
     3
100
AcDbLine
 10
1663.219714881733
 20
860.0126058261128
 30
0.0
 11
1663.219714881733
 21
861.0126058261128
 31
0.0
  0
LINE
  5
6E7F
330
1E
100
AcDbEntity
  8
躯体と製品
  6
Continuous
 62
     3
100
AcDbLine
 10
1663.219714881733
 20
861.0126058261128
 30
0.0
 11
1693.219714881734
 21
861.0126058261128
 31
0.0
  0
LINE
  5
6E80
330
1E
100
AcDbEntity
  8
躯体と製品
  6
Continuous
 62
     3
100
AcDbLine
 10
1693.219714881734
 20
861.0126058261128
 30
0.0
 11
1693.219714881734
 21
860.0126058261128
 31
0.0
  0
LINE
  5
6E81
330
1E
100
AcDbEntity
  8
躯体と製品
  6
Continuous
 62
     4
100
AcDbLine
 10
1663.376029982856
 20
860.0126058261132
 30
0.0
 11
1663.219714881734
 21
860.1689209272356
 31
0.0
  0
LINE
  5
6E82
330
1E
100
AcDbEntity
  8
躯体と製品
  6
Continuous
 62
     4
100
AcDbLine
 10
1664.790243545229
 20
860.0126058261123
 30
0.0
 11
1663.790243545228
 21
861.0126058261123
 31
0.0
  0
LINE
  5
6E83
330
1E
100
AcDbEntity
  8
躯体と製品
  6
Continuous
 62
     4
100
AcDbLine
 10
1666.204457107602
 20
860.0126058261123
 30
0.0
 11
1665.204457107602
 21
861.0126058261128
 31
0.0
  0
LINE
  5
6E84
330
1E
100
AcDbEntity
  8
躯体と製品
  6
Continuous
 62
     4
100
AcDbLine
 10
1667.618670669975
 20
860.0126058261128
 30
0.0
 11
1666.618670669975
 21
861.0126058261132
 31
0.0
  0
LINE
  5
6E85
330
1E
100
AcDbEntity
  8
躯体と製品
  6
Continuous
 62
     4
100
AcDbLine
 10
1669.032884232348
 20
860.0126058261128
 30
0.0
 11
1668.032884232348
 21
861.0126058261132
 31
0.0
  0
LINE
  5
6E86
330
1E
100
AcDbEntity
  8
躯体と製品
  6
Continuous
 62
     4
100
AcDbLine
 10
1670.447097794722
 20
860.0126058261128
 30
0.0
 11
1669.447097794722
 21
861.0126058261123
 31
0.0
  0
LINE
  5
6E87
330
1E
100
AcDbEntity
  8
躯体と製品
  6
Continuous
 62
     4
100
AcDbLine
 10
1671.861311357095
 20
860.0126058261132
 30
0.0
 11
1670.861311357095
 21
861.0126058261128
 31
0.0
  0
LINE
  5
6E88
330
1E
100
AcDbEntity
  8
躯体と製品
  6
Continuous
 62
     4
100
AcDbLine
 10
1673.275524919468
 20
860.0126058261132
 30
0.0
 11
1672.275524919468
 21
861.0126058261128
 31
0.0
  0
LINE
  5
6E89
330
1E
100
AcDbEntity
  8
躯体と製品
  6
Continuous
 62
     4
100
AcDbLine
 10
1674.689738481841
 20
860.0126058261128
 30
0.0
 11
1673.689738481842
 21
861.0126058261123
 31
0.0
  0
LINE
  5
6E8A
330
1E
100
AcDbEntity
  8
躯体と製品
  6
Continuous
 62
     4
100
AcDbLine
 10
1676.103952044213
 20
860.0126058261132
 30
0.0
 11
1675.103952044213
 21
861.0126058261132
 31
0.0
  0
LINE
  5
6E8B
330
1E
100
AcDbEntity
  8
躯体と製品
  6
Continuous
 62
     4
100
AcDbLine
 10
1677.518165606586
 20
860.0126058261132
 30
0.0
 11
1676.518165606585
 21
861.0126058261135
 31
0.0
  0
LINE
  5
6E8C
330
1E
100
AcDbEntity
  8
躯体と製品
  6
Continuous
 62
     4
100
AcDbLine
 10
1678.932379168959
 20
860.0126058261132
 30
0.0
 11
1677.93237916896
 21
861.0126058261128
 31
0.0
  0
LINE
  5
6E8D
330
1E
100
AcDbEntity
  8
躯体と製品
  6
Continuous
 62
     4
100
AcDbLine
 10
1680.346592731333
 20
860.0126058261132
 30
0.0
 11
1679.346592731333
 21
861.0126058261132
 31
0.0
  0
LINE
  5
6E8E
330
1E
100
AcDbEntity
  8
躯体と製品
  6
Continuous
 62
     4
100
AcDbLine
 10
1681.760806293706
 20
860.0126058261132
 30
0.0
 11
1680.760806293706
 21
861.0126058261132
 31
0.0
  0
LINE
  5
6E8F
330
1E
100
AcDbEntity
  8
躯体と製品
  6
Continuous
 62
     4
100
AcDbLine
 10
1683.175019856079
 20
860.0126058261135
 30
0.0
 11
1682.175019856079
 21
861.0126058261132
 31
0.0
  0
LINE
  5
6E90
330
1E
100
AcDbEntity
  8
躯体と製品
  6
Continuous
 62
     4
100
AcDbLine
 10
1684.589233418452
 20
860.0126058261135
 30
0.0
 11
1683.589233418453
 21
861.0126058261132
 31
0.0
  0
LINE
  5
6E91
330
1E
100
AcDbEntity
  8
躯体と製品
  6
Continuous
 62
     4
100
AcDbLine
 10
1686.003446980826
 20
860.0126058261132
 30
0.0
 11
1685.003446980826
 21
861.0126058261132
 31
0.0
  0
LINE
  5
6E92
330
1E
100
AcDbEntity
  8
躯体と製品
  6
Continuous
 62
     4
100
AcDbLine
 10
1687.417660543198
 20
860.0126058261128
 30
0.0
 11
1686.417660543198
 21
861.0126058261132
 31
0.0
  0
LINE
  5
6E93
330
1E
100
AcDbEntity
  8
躯体と製品
  6
Continuous
 62
     4
100
AcDbLine
 10
1688.831874105571
 20
860.0126058261128
 30
0.0
 11
1687.831874105571
 21
861.0126058261132
 31
0.0
  0
LINE
  5
6E94
330
1E
100
AcDbEntity
  8
躯体と製品
  6
Continuous
 62
     4
100
AcDbLine
 10
1690.246087667945
 20
860.0126058261123
 30
0.0
 11
1689.246087667944
 21
861.0126058261128
 31
0.0
  0
LINE
  5
6E95
330
1E
100
AcDbEntity
  8
躯体と製品
  6
Continuous
 62
     4
100
AcDbLine
 10
1691.660301230318
 20
860.0126058261128
 30
0.0
 11
1690.660301230318
 21
861.0126058261123
 31
0.0
  0
LINE
  5
6E96
330
1E
100
AcDbEntity
  8
躯体と製品
  6
Continuous
 62
     4
100
AcDbLine
 10
1693.074514792691
 20
860.0126058261128
 30
0.0
 11
1692.074514792691
 21
861.0126058261123
 31
0.0
  0
LINE
  5
6EA9
330
1E
100
AcDbEntity
  8
図枠
  6
Continuous
 62
     7
100
AcDbLine
 10
2165.219714881733
 20
1044.012605826112
 30
0.0
 11
1341.219714881734
 21
1044.012605826112
 31
0.0
  0
LINE
  5
6EAA
330
1E
100
AcDbEntity
  8
図枠
  6
Continuous
 62
     7
100
AcDbLine
 10
1341.219714881734
 20
1044.012605826112
 30
0.0
 11
1341.219714881734
 21
468.0126058261129
 31
0.0
  0
LINE
  5
6EAB
330
1E
100
AcDbEntity
  8
図枠
  6
Continuous
 62
     7
100
AcDbLine
 10
2165.219714881733
 20
468.0126058261129
 30
0.0
 11
2165.219714881733
 21
1044.012605826112
 31
0.0
  0
LINE
  5
6EAC
330
1E
100
AcDbEntity
  8
図枠
  6
Continuous
 62
     7
100
AcDbLine
 10
1341.219714881734
 20
468.0126058261129
 30
0.0
 11
2165.219714881733
 21
468.0126058261129
 31
0.0
  0
LINE
  5
6EAD
330
1E
100
AcDbEntity
  8
図枠
  6
Continuous
 62
     7
100
AcDbLine
 10
1800.219714881734
 20
505.012605826113
 30
0.0
 11
1800.219714881734
 21
685.0126058261127
 31
0.0
  0
LINE
  5
6EAE
330
1E
100
AcDbEntity
  8
図枠
  6
Continuous
 62
     7
100
AcDbLine
 10
1782.219714881733
 20
505.012605826113
 30
0.0
 11
1782.219714881733
 21
685.0126058261127
 31
0.0
  0
LINE
  5
6EAF
330
1E
100
AcDbEntity
  8
図枠
  6
Continuous
 62
     7
100
AcDbLine
 10
1747.219714881733
 20
505.012605826113
 30
0.0
 11
1747.219714881733
 21
685.0126058261127
 31
0.0
  0
TEXT
  5
6EB0
330
1E
100
AcDbEntity
  8
図枠
 62
     7
100
AcDbText
 10
1656.219714881733
 20
568.012605826113
 30
0.0
 40
5.0
  1
ＦＳ300～700
100
AcDbText
  0
TEXT
  5
6EB1
330
1E
100
AcDbEntity
  8
図枠
 62
     7
100
AcDbText
 10
1688.719714881733
 20
676.0126058261128
 30
0.0
 40
5.0
  1
規　格
100
AcDbText
  0
TEXT
  5
6EB2
330
1E
100
AcDbEntity
  8
図枠
 62
     7
100
AcDbText
 10
1587.719714881733
 20
676.0126058261128
 30
0.0
 40
5.0
  1
部材名称
100
AcDbText
  0
TEXT
  5
6EB3
330
1E
100
AcDbEntity
  8
図枠
 62
     7
100
AcDbText
 10
1656.219714881733
 20
544.012605826113
 30
0.0
 40
5.0
  1
Ｍ6×40
100
AcDbText
  0
TEXT
  5
6EB4
330
1E
100
AcDbEntity
  8
図枠
 62
     7
100
AcDbText
 10
1656.219714881733
 20
520.012605826113
 30
0.0
 40
5.0
  1
1.5×18×6.5穴
100
AcDbText
  0
TEXT
  5
6EB5
330
1E
100
AcDbEntity
  8
図枠
 62
     7
100
AcDbText
 10
1656.219714881733
 20
532.012605826113
 30
0.0
 40
5.0
  1
ＡＧ－660
100
AcDbText
  0
TEXT
  5
6EB6
330
1E
100
AcDbEntity
  8
図枠
 62
     7
100
AcDbText
 10
1656.219714881733
 20
580.012605826113
 30
0.0
 40
5.0
  1
ＰＳ
100
AcDbText
  0
TEXT
  5
6EB7
330
1E
100
AcDbEntity
  8
図枠
 62
     7
100
AcDbText
 10
1656.219714881733
 20
592.012605826113
 30
0.0
 40
5.0
  1
50ＦＹＹＪ－350～900
100
AcDbText
  0
TEXT
  5
6EB8
330
1E
100
AcDbEntity
  8
図枠
 62
     7
100
AcDbText
 10
1656.219714881733
 20
628.0126058261129
 30
0.0
 40
5.0
  1
50ＦＹＹＨ－350～900
100
AcDbText
  0
TEXT
  5
6EB9
330
1E
100
AcDbEntity
  8
図枠
 62
     7
100
AcDbText
 10
1556.219714881734
 20
520.012605826113
 30
0.0
 40
5.0
  1
ステンワッシャー
100
AcDbText
  0
TEXT
  5
6EBA
330
1E
100
AcDbEntity
  8
図枠
 62
     7
100
AcDbText
 10
1556.219714881734
 20
532.012605826113
 30
0.0
 40
5.0
  1
アジャストアンカー
100
AcDbText
  0
TEXT
  5
6EBB
330
1E
100
AcDbEntity
  8
図枠
 62
     7
100
AcDbText
 10
1556.219714881734
 20
544.012605826113
 30
0.0
 40
5.0
  1
ステン六角ボルト
100
AcDbText
  0
TEXT
  5
6EBC
330
1E
100
AcDbEntity
  8
図枠
 62
     7
100
AcDbText
 10
1556.219714881734
 20
556.012605826113
 30
0.0
 40
5.0
  1
ステン小ネジ
100
AcDbText
  0
TEXT
  5
6EBD
330
1E
100
AcDbEntity
  8
図枠
 62
     7
100
AcDbText
 10
1556.219714881734
 20
568.012605826113
 30
0.0
 40
5.0
  1
止水補助板
100
AcDbText
  0
TEXT
  5
6EBE
330
1E
100
AcDbEntity
  8
図枠
 62
     7
100
AcDbText
 10
1556.219714881734
 20
580.012605826113
 30
0.0
 40
5.0
  1
止水補助板
100
AcDbText
  0
TEXT
  5
6EBF
330
1E
100
AcDbEntity
  8
図枠
 62
     7
100
AcDbText
 10
1556.219714881734
 20
592.012605826113
 30
0.0
 40
5.0
  1
ＦＹＹ水切ジョイント
100
AcDbText
  0
TEXT
  5
6EC0
330
1E
100
AcDbEntity
  8
図枠
 62
     7
100
AcDbText
 10
1556.219714881734
 20
604.012605826113
 30
0.0
 40
5.0
  1
ＦＹＹフレームナット
100
AcDbText
  0
TEXT
  5
6EC1
330
1E
100
AcDbEntity
  8
図枠
 62
     7
100
AcDbText
 10
1556.219714881734
 20
628.0126058261129
 30
0.0
 40
5.0
  1
ＦＹＹホルダー
100
AcDbText
  0
TEXT
  5
6EC2
330
1E
100
AcDbEntity
  8
図枠
 62
     7
100
AcDbText
 10
1556.219714881734
 20
652.0126058261129
 30
0.0
 40
5.0
  1
ＦＹＹフレーム
100
AcDbText
  0
LINE
  5
6EC3
330
1E
100
AcDbEntity
  8
図枠
  6
Continuous
 62
     7
100
AcDbLine
 10
1746.219714881733
 20
505.012605826113
 30
0.0
 11
1746.219714881733
 21
685.0126058261127
 31
0.0
  0
TEXT
  5
6EC4
330
1E
100
AcDbEntity
  8
図枠
 62
     7
100
AcDbText
 10
1656.219714881733
 20
508.0126058261129
 30
0.0
 40
5.0
  1
ｔ1.0×ｗ30
100
AcDbText
  0
LINE
  5
6EC5
330
1E
100
AcDbEntity
  8
図枠
  6
Continuous
 62
     7
100
AcDbLine
 10
1651.219714881733
 20
505.012605826113
 30
0.0
 11
1651.219714881733
 21
685.0126058261127
 31
0.0
  0
TEXT
  5
6EC6
330
1E
100
AcDbEntity
  8
図枠
 62
     7
100
AcDbText
 10
1556.219714881734
 20
508.0126058261129
 30
0.0
 40
5.0
  1
ブチルテープ
100
AcDbText
  0
LINE
  5
6EC7
330
1E
100
AcDbEntity
  8
図枠
  6
Continuous
 62
     7
100
AcDbLine
 10
1551.219714881733
 20
505.012605826113
 30
0.0
 11
1551.219714881733
 21
685.0126058261127
 31
0.0
  0
TEXT
  5
6EC8
330
1E
100
AcDbEntity
  8
図枠
 62
     7
100
AcDbText
 10
1656.219714881733
 20
664.0126058261127
 30
0.0
 40
5.0
  1
50ＦＹＹ－Ｓ350～900
100
AcDbText
  0
TEXT
  5
6EC9
330
1E
100
AcDbEntity
  8
図枠
 62
     7
100
AcDbText
 10
1556.219714881734
 20
664.0126058261127
 30
0.0
 40
5.0
  1
ＦＹＹキヤップＳ
100
AcDbText
  0
TEXT
  5
6ECA
330
1E
100
AcDbEntity
  8
図枠
 62
     7
100
AcDbText
 10
1556.219714881734
 20
616.012605826113
 30
0.0
 40
5.0
  1
ＦＹＹホルダースプリング
100
AcDbText
  0
TEXT
  5
6ECB
330
1E
100
AcDbEntity
  8
図枠
 62
     7
100
AcDbText
 10
1656.219714881733
 20
556.012605826113
 30
0.0
 40
5.0
  1
ナベＭ6×35
100
AcDbText
  0
LINE
  5
6ECC
330
1E
100
AcDbEntity
  8
図枠
  6
Continuous
 62
     7
100
AcDbLine
 10
1747.219714881733
 20
517.012605826113
 30
0.0
 11
1814.219714881733
 21
517.012605826113
 31
0.0
  0
LINE
  5
6ECD
330
1E
100
AcDbEntity
  8
図枠
  6
Continuous
 62
     7
100
AcDbLine
 10
1747.219714881733
 20
529.012605826113
 30
0.0
 11
1814.219714881733
 21
529.012605826113
 31
0.0
  0
LINE
  5
6ECE
330
1E
100
AcDbEntity
  8
図枠
  6
Continuous
 62
     7
100
AcDbLine
 10
1747.219714881733
 20
553.012605826113
 30
0.0
 11
1814.219714881733
 21
553.012605826113
 31
0.0
  0
LINE
  5
6ECF
330
1E
100
AcDbEntity
  8
図枠
  6
Continuous
 62
     7
100
AcDbLine
 10
1747.219714881733
 20
565.012605826113
 30
0.0
 11
1814.219714881733
 21
565.012605826113
 31
0.0
  0
LINE
  5
6ED0
330
1E
100
AcDbEntity
  8
図枠
  6
Continuous
 62
     7
100
AcDbLine
 10
1747.219714881733
 20
601.012605826113
 30
0.0
 11
1814.219714881733
 21
601.012605826113
 31
0.0
  0
LINE
  5
6ED1
330
1E
100
AcDbEntity
  8
図枠
  6
Continuous
 62
     7
100
AcDbLine
 10
1747.219714881733
 20
613.012605826113
 30
0.0
 11
1814.219714881733
 21
613.012605826113
 31
0.0
  0
LINE
  5
6ED2
330
1E
100
AcDbEntity
  8
図枠
  6
Continuous
 62
     7
100
AcDbLine
 10
1747.219714881733
 20
577.012605826113
 30
0.0
 11
1814.219714881733
 21
577.012605826113
 31
0.0
  0
LINE
  5
6ED3
330
1E
100
AcDbEntity
  8
図枠
  6
Continuous
 62
     7
100
AcDbLine
 10
1747.219714881733
 20
541.012605826113
 30
0.0
 11
1814.219714881733
 21
541.012605826113
 31
0.0
  0
LINE
  5
6ED4
330
1E
100
AcDbEntity
  8
図枠
  6
Continuous
 62
     7
100
AcDbLine
 10
1747.219714881733
 20
625.012605826113
 30
0.0
 11
1814.219714881733
 21
625.012605826113
 31
0.0
  0
LINE
  5
6ED5
330
1E
100
AcDbEntity
  8
図枠
  6
Continuous
 62
     7
100
AcDbLine
 10
1747.219714881733
 20
637.012605826113
 30
0.0
 11
1814.219714881733
 21
637.012605826113
 31
0.0
  0
LINE
  5
6ED6
330
1E
100
AcDbEntity
  8
図枠
  6
Continuous
 62
     7
100
AcDbLine
 10
1747.219714881733
 20
649.0126058261128
 30
0.0
 11
1814.219714881733
 21
649.0126058261128
 31
0.0
  0
LINE
  5
6ED7
330
1E
100
AcDbEntity
  8
図枠
  6
Continuous
 62
     7
100
AcDbLine
 10
1747.219714881733
 20
661.0126058261128
 30
0.0
 11
1814.219714881733
 21
661.0126058261128
 31
0.0
  0
LINE
  5
6ED8
330
1E
100
AcDbEntity
  8
図枠
  6
Continuous
 62
     7
100
AcDbLine
 10
1747.219714881733
 20
673.0126058261127
 30
0.0
 11
1814.219714881733
 21
673.0126058261127
 31
0.0
  0
LINE
  5
6ED9
330
1E
100
AcDbEntity
  8
図枠
  6
Continuous
 62
     7
100
AcDbLine
 10
1747.219714881733
 20
589.012605826113
 30
0.0
 11
1814.219714881733
 21
589.012605826113
 31
0.0
  0
LINE
  5
6EDA
330
1E
100
AcDbEntity
  8
図枠
  6
Continuous
 62
     7
100
AcDbLine
 10
1747.219714881733
 20
685.0126058261127
 30
0.0
 11
1814.219714881733
 21
685.0126058261127
 31
0.0
  0
LINE
  5
6EDB
330
1E
100
AcDbEntity
  8
図枠
  6
Continuous
 62
     7
100
AcDbLine
 10
1747.219714881733
 20
505.012605826113
 30
0.0
 11
1814.219714881733
 21
505.012605826113
 31
0.0
  0
LINE
  5
6EDC
330
1E
100
AcDbEntity
  8
図枠
  6
Continuous
 62
     7
100
AcDbLine
 10
1814.219714881733
 20
505.012605826113
 30
0.0
 11
1814.219714881733
 21
685.0126058261127
 31
0.0
  0
TEXT
  5
6EDD
330
1E
100
AcDbEntity
  8
図枠
 62
     7
100
AcDbText
 10
1804.219714881734
 20
520.012605826113
 30
0.0
 40
5.0
  1
枚
100
AcDbText
  0
TEXT
  5
6EDE
330
1E
100
AcDbEntity
  8
図枠
 62
     7
100
AcDbText
 10
1804.219714881734
 20
532.012605826113
 30
0.0
 40
5.0
  1
〃
100
AcDbText
  0
TEXT
  5
6EDF
330
1E
100
AcDbEntity
  8
図枠
 62
     7
100
AcDbText
 10
1804.219714881734
 20
544.012605826113
 30
0.0
 40
5.0
  1
〃
100
AcDbText
  0
TEXT
  5
6EE0
330
1E
100
AcDbEntity
  8
図枠
 62
     7
100
AcDbText
 10
1804.219714881734
 20
556.012605826113
 30
0.0
 40
5.0
  1
本
100
AcDbText
  0
TEXT
  5
6EE1
330
1E
100
AcDbEntity
  8
図枠
 62
     7
100
AcDbText
 10
1804.219714881734
 20
568.012605826113
 30
0.0
 40
5.0
  1
〃
100
AcDbText
  0
TEXT
  5
6EE2
330
1E
100
AcDbEntity
  8
図枠
 62
     7
100
AcDbText
 10
1804.219714881734
 20
580.012605826113
 30
0.0
 40
5.0
  1
枚
100
AcDbText
  0
TEXT
  5
6EE3
330
1E
100
AcDbEntity
  8
図枠
 62
     7
100
AcDbText
 10
1804.219714881734
 20
592.012605826113
 30
0.0
 40
5.0
  1
〃
100
AcDbText
  0
TEXT
  5
6EE4
330
1E
100
AcDbEntity
  8
図枠
 62
     7
100
AcDbText
 10
1804.219714881734
 20
604.012605826113
 30
0.0
 40
5.0
  1
〃
100
AcDbText
  0
TEXT
  5
6EE5
330
1E
100
AcDbEntity
  8
図枠
 62
     7
100
AcDbText
 10
1804.219714881734
 20
616.012605826113
 30
0.0
 40
5.0
  1
〃
100
AcDbText
  0
TEXT
  5
6EE6
330
1E
100
AcDbEntity
  8
図枠
 62
     7
100
AcDbText
 10
1804.219714881734
 20
628.0126058261129
 30
0.0
 40
5.0
  1
個
100
AcDbText
  0
TEXT
  5
6EE7
330
1E
100
AcDbEntity
  8
図枠
 62
     7
100
AcDbText
 10
1804.219714881734
 20
640.0126058261129
 30
0.0
 40
5.0
  1
〃
100
AcDbText
  0
TEXT
  5
6EE8
330
1E
100
AcDbEntity
  8
図枠
 62
     7
100
AcDbText
 10
1804.219714881734
 20
652.0126058261129
 30
0.0
 40
5.0
  1
〃
100
AcDbText
  0
TEXT
  5
6EE9
330
1E
100
AcDbEntity
  8
図枠
 62
     7
100
AcDbText
 10
1804.219714881734
 20
664.0126058261127
 30
0.0
 40
5.0
  1
本
100
AcDbText
  0
TEXT
  5
6EEA
330
1E
100
AcDbEntity
  8
図枠
 62
     7
100
AcDbText
 10
1800.719714881734
 20
676.0126058261128
 30
0.0
 40
5.0
  1
単位
100
AcDbText
  0
TEXT
  5
6EEB
330
1E
100
AcDbEntity
  8
図枠
 62
     7
100
AcDbText
 10
1804.219714881734
 20
508.0126058261129
 30
0.0
 40
5.0
  1
巻
100
AcDbText
  0
TEXT
  5
6EEC
330
1E
100
AcDbEntity
  8
図枠
 62
     7
100
AcDbText
 10
1845.719714881734
 20
592.012605826113
 30
0.0
 40
5.0
  1
　　 〃　 　650
100
AcDbText
  0
TEXT
  5
6EED
330
1E
100
AcDbEntity
  8
図枠
 62
     7
100
AcDbText
 10
1845.719714881734
 20
604.012605826113
 30
0.0
 40
5.0
  1
　　 〃　 　600
100
AcDbText
  0
TEXT
  5
6EEE
330
1E
100
AcDbEntity
  8
図枠
 62
     7
100
AcDbText
 10
1845.719714881734
 20
616.012605826113
 30
0.0
 40
5.0
  1
　　 〃　 　550
100
AcDbText
  0
TEXT
  5
6EEF
330
1E
100
AcDbEntity
  8
図枠
 62
     7
100
AcDbText
 10
1845.719714881734
 20
628.0126058261129
 30
0.0
 40
5.0
  1
　　 〃　 　500
100
AcDbText
  0
TEXT
  5
6EF0
330
1E
100
AcDbEntity
  8
図枠
 62
     7
100
AcDbText
 10
1845.719714881734
 20
640.0126058261129
 30
0.0
 40
5.0
  1
　　 〃　 　450
100
AcDbText
  0
TEXT
  5
6EF1
330
1E
100
AcDbEntity
  8
図枠
 62
     7
100
AcDbText
 10
1845.719714881734
 20
652.0126058261129
 30
0.0
 40
5.0
  1
　　 〃　 　400
100
AcDbText
  0
TEXT
  5
6EF2
330
1E
100
AcDbEntity
  8
図枠
 62
     7
100
AcDbText
 10
1919.219714881733
 20
532.012605826113
 30
0.0
 40
5.0
  1
900
100
AcDbText
  0
TEXT
  5
6EF3
330
1E
100
AcDbEntity
  8
図枠
 62
     7
100
AcDbText
 10
1919.219714881733
 20
544.012605826113
 30
0.0
 40
5.0
  1
850
100
AcDbText
  0
TEXT
  5
6EF4
330
1E
100
AcDbEntity
  8
図枠
 62
     7
100
AcDbText
 10
1919.219714881733
 20
556.012605826113
 30
0.0
 40
5.0
  1
800
100
AcDbText
  0
TEXT
  5
6EF5
330
1E
100
AcDbEntity
  8
図枠
 62
     7
100
AcDbText
 10
1919.219714881733
 20
568.012605826113
 30
0.0
 40
5.0
  1
750
100
AcDbText
  0
TEXT
  5
6EF6
330
1E
100
AcDbEntity
  8
図枠
 62
     7
100
AcDbText
 10
1919.219714881733
 20
580.012605826113
 30
0.0
 40
5.0
  1
700
100
AcDbText
  0
TEXT
  5
6EF7
330
1E
100
AcDbEntity
  8
図枠
 62
     7
100
AcDbText
 10
1919.219714881733
 20
592.012605826113
 30
0.0
 40
5.0
  1
650
100
AcDbText
  0
TEXT
  5
6EF8
330
1E
100
AcDbEntity
  8
図枠
 62
     7
100
AcDbText
 10
1919.219714881733
 20
604.012605826113
 30
0.0
 40
5.0
  1
600
100
AcDbText
  0
TEXT
  5
6EF9
330
1E
100
AcDbEntity
  8
図枠
 62
     7
100
AcDbText
 10
1919.219714881733
 20
616.012605826113
 30
0.0
 40
5.0
  1
550
100
AcDbText
  0
TEXT
  5
6EFA
330
1E
100
AcDbEntity
  8
図枠
 62
     7
100
AcDbText
 10
1919.219714881733
 20
628.0126058261129
 30
0.0
 40
5.0
  1
500
100
AcDbText
  0
TEXT
  5
6EFB
330
1E
100
AcDbEntity
  8
図枠
 62
     7
100
AcDbText
 10
1919.219714881733
 20
640.0126058261129
 30
0.0
 40
5.0
  1
450
100
AcDbText
  0
TEXT
  5
6EFC
330
1E
100
AcDbEntity
  8
図枠
 62
     7
100
AcDbText
 10
1919.219714881733
 20
652.0126058261129
 30
0.0
 40
5.0
  1
400
100
AcDbText
  0
TEXT
  5
6EFD
330
1E
100
AcDbEntity
  8
図枠
 62
     7
100
AcDbText
 10
1919.219714881733
 20
664.0126058261127
 30
0.0
 40
5.0
  1
350
100
AcDbText
  0
LINE
  5
6EFE
330
1E
100
AcDbEntity
  8
図枠
  6
Continuous
 62
     7
100
AcDbLine
 10
1939.219714881733
 20
685.0126058261127
 30
0.0
 11
1939.219714881733
 21
529.012605826113
 31
0.0
  0
TEXT
  5
6EFF
330
1E
100
AcDbEntity
  8
図枠
 62
     7
100
AcDbText
 10
1921.219714881734
 20
676.0126058261128
 30
0.0
 40
5.0
  1
Ｗ
100
AcDbText
  0
LINE
  5
6F00
330
1E
100
AcDbEntity
  8
図枠
  6
Continuous
 62
     7
100
AcDbLine
 10
1909.219714881734
 20
685.0126058261127
 30
0.0
 11
1909.219714881734
 21
529.012605826113
 31
0.0
  0
TEXT
  5
6F01
330
1E
100
AcDbEntity
  8
図枠
 62
     7
100
AcDbText
 10
1857.219714381734
 20
676.0126058261128
 30
0.0
 40
5.0
  1
タ　イ　プ
100
AcDbText
  0
LINE
  5
6F02
330
1E
100
AcDbEntity
  8
図枠
  6
Continuous
 62
     7
100
AcDbLine
 10
1834.219714881734
 20
685.0126058261127
 30
0.0
 11
1834.219714881734
 21
529.012605826113
 31
0.0
  0
TEXT
  5
6F03
330
1E
100
AcDbEntity
  8
図枠
 62
     7
100
AcDbText
 10
1949.219714881733
 20
532.012605826113
 30
0.0
 40
5.0
  1
375
100
AcDbText
  0
TEXT
  5
6F04
330
1E
100
AcDbEntity
  8
図枠
 62
     7
100
AcDbText
 10
1949.219714881733
 20
544.012605826113
 30
0.0
 40
5.0
  1
350
100
AcDbText
  0
TEXT
  5
6F05
330
1E
100
AcDbEntity
  8
図枠
 62
     7
100
AcDbText
 10
1949.219714881733
 20
556.012605826113
 30
0.0
 40
5.0
  1
325
100
AcDbText
  0
TEXT
  5
6F06
330
1E
100
AcDbEntity
  8
図枠
 62
     7
100
AcDbText
 10
1949.219714881733
 20
568.012605826113
 30
0.0
 40
5.0
  1
300
100
AcDbText
  0
TEXT
  5
6F07
330
1E
100
AcDbEntity
  8
図枠
 62
     7
100
AcDbText
 10
1949.219714881733
 20
580.012605826113
 30
0.0
 40
5.0
  1
275
100
AcDbText
  0
TEXT
  5
6F08
330
1E
100
AcDbEntity
  8
図枠
 62
     7
100
AcDbText
 10
1949.219714881733
 20
592.012605826113
 30
0.0
 40
5.0
  1
250
100
AcDbText
  0
TEXT
  5
6F09
330
1E
100
AcDbEntity
  8
図枠
 62
     7
100
AcDbText
 10
1949.219714881733
 20
604.012605826113
 30
0.0
 40
5.0
  1
225
100
AcDbText
  0
TEXT
  5
6F0A
330
1E
100
AcDbEntity
  8
図枠
 62
     7
100
AcDbText
 10
1949.219714881733
 20
616.012605826113
 30
0.0
 40
5.0
  1
200
100
AcDbText
  0
TEXT
  5
6F0B
330
1E
100
AcDbEntity
  8
図枠
 62
     7
100
AcDbText
 10
1949.219714881733
 20
628.0126058261129
 30
0.0
 40
5.0
  1
175
100
AcDbText
  0
TEXT
  5
6F0C
330
1E
100
AcDbEntity
  8
図枠
 62
     7
100
AcDbText
 10
1949.219714881733
 20
640.0126058261129
 30
0.0
 40
5.0
  1
150
100
AcDbText
  0
TEXT
  5
6F0D
330
1E
100
AcDbEntity
  8
図枠
 62
     7
100
AcDbText
 10
1949.219714881733
 20
652.0126058261129
 30
0.0
 40
5.0
  1
125
100
AcDbText
  0
TEXT
  5
6F0E
330
1E
100
AcDbEntity
  8
図枠
 62
     7
100
AcDbText
 10
1949.219714881733
 20
664.0126058261127
 30
0.0
 40
5.0
  1
100
100
AcDbText
  0
LINE
  5
6F0F
330
1E
100
AcDbEntity
  8
図枠
  6
Continuous
 62
     7
100
AcDbLine
 10
1969.219714881733
 20
685.0126058261127
 30
0.0
 11
1969.219714881733
 21
529.012605826113
 31
0.0
  0
LINE
  5
6F10
330
1E
100
AcDbEntity
  8
図枠
  6
Continuous
 62
     7
100
AcDbLine
 10
1969.219714881733
 20
529.012605826113
 30
0.0
 11
1834.219714881734
 21
529.012605826113
 31
0.0
  0
TEXT
  5
6F11
330
1E
100
AcDbEntity
  8
図枠
 62
     7
100
AcDbText
 10
1951.219714881733
 20
676.0126058261128
 30
0.0
 40
5.0
  1
Ｃ
100
AcDbText
  0
LINE
  5
6F12
330
1E
100
AcDbEntity
  8
図枠
  6
Continuous
 62
     7
100
AcDbLine
 10
1969.219714881733
 20
541.012605826113
 30
0.0
 11
1834.219714881734
 21
541.012605826113
 31
0.0
  0
LINE
  5
6F13
330
1E
100
AcDbEntity
  8
図枠
  6
Continuous
 62
     7
100
AcDbLine
 10
1969.219714881733
 20
553.012605826113
 30
0.0
 11
1834.219714881734
 21
553.012605826113
 31
0.0
  0
LINE
  5
6F14
330
1E
100
AcDbEntity
  8
図枠
  6
Continuous
 62
     7
100
AcDbLine
 10
1969.219714881733
 20
565.012605826113
 30
0.0
 11
1834.219714881734
 21
565.012605826113
 31
0.0
  0
LINE
  5
6F15
330
1E
100
AcDbEntity
  8
図枠
  6
Continuous
 62
     7
100
AcDbLine
 10
1969.219714881733
 20
577.012605826113
 30
0.0
 11
1834.219714881734
 21
577.012605826113
 31
0.0
  0
LINE
  5
6F16
330
1E
100
AcDbEntity
  8
図枠
  6
Continuous
 62
     7
100
AcDbLine
 10
1969.219714881733
 20
589.012605826113
 30
0.0
 11
1834.219714881734
 21
589.012605826113
 31
0.0
  0
LINE
  5
6F17
330
1E
100
AcDbEntity
  8
図枠
  6
Continuous
 62
     7
100
AcDbLine
 10
1969.219714881733
 20
601.012605826113
 30
0.0
 11
1834.219714881734
 21
601.012605826113
 31
0.0
  0
LINE
  5
6F18
330
1E
100
AcDbEntity
  8
図枠
  6
Continuous
 62
     7
100
AcDbLine
 10
1969.219714881733
 20
613.012605826113
 30
0.0
 11
1834.219714881734
 21
613.012605826113
 31
0.0
  0
LINE
  5
6F19
330
1E
100
AcDbEntity
  8
図枠
  6
Continuous
 62
     7
100
AcDbLine
 10
1969.219714881733
 20
625.012605826113
 30
0.0
 11
1834.219714881734
 21
625.012605826113
 31
0.0
  0
LINE
  5
6F1A
330
1E
100
AcDbEntity
  8
図枠
  6
Continuous
 62
     7
100
AcDbLine
 10
1969.219714881733
 20
637.012605826113
 30
0.0
 11
1834.219714881734
 21
637.012605826113
 31
0.0
  0
LINE
  5
6F1B
330
1E
100
AcDbEntity
  8
図枠
  6
Continuous
 62
     7
100
AcDbLine
 10
1969.219714881733
 20
649.0126058261128
 30
0.0
 11
1834.219714881734
 21
649.0126058261128
 31
0.0
  0
LINE
  5
6F1C
330
1E
100
AcDbEntity
  8
図枠
  6
Continuous
 62
     7
100
AcDbLine
 10
1969.219714881733
 20
661.0126058261128
 30
0.0
 11
1834.219714881734
 21
661.0126058261128
 31
0.0
  0
LINE
  5
6F1D
330
1E
100
AcDbEntity
  8
図枠
  6
Continuous
 62
     7
100
AcDbLine
 10
1969.219714881733
 20
673.0126058261127
 30
0.0
 11
1834.219714881734
 21
673.0126058261127
 31
0.0
  0
LINE
  5
6F1E
330
1E
100
AcDbEntity
  8
図枠
  6
Continuous
 62
     7
100
AcDbLine
 10
1969.219714881733
 20
685.0126058261127
 30
0.0
 11
1834.219714881734
 21
685.0126058261127
 31
0.0
  0
TEXT
  5
6F1F
330
1E
100
AcDbEntity
  8
図枠
 62
     7
100
AcDbText
 10
1845.719714881734
 20
580.012605826113
 30
0.0
 40
5.0
  1
　　 〃　 　700
100
AcDbText
  0
TEXT
  5
6F20
330
1E
100
AcDbEntity
  8
図枠
 62
     7
100
AcDbText
 10
1845.719714881734
 20
568.012605826113
 30
0.0
 40
5.0
  1
　　 〃　 　750
100
AcDbText
  0
TEXT
  5
6F21
330
1E
100
AcDbEntity
  8
図枠
 62
     7
100
AcDbText
 10
1845.719714881734
 20
556.012605826113
 30
0.0
 40
5.0
  1
　　 〃　 　800
100
AcDbText
  0
TEXT
  5
6F22
330
1E
100
AcDbEntity
  8
図枠
 62
     7
100
AcDbText
 10
1845.719714881734
 20
544.012605826113
 30
0.0
 40
5.0
  1
　　 〃　 　850
100
AcDbText
  0
TEXT
  5
6F23
330
1E
100
AcDbEntity
  8
図枠
 62
     7
100
AcDbText
 10
1845.719714881734
 20
532.012605826113
 30
0.0
 40
5.0
  1
　　 〃　 　900
100
AcDbText
  0
TEXT
  5
6F24
330
1E
100
AcDbEntity
  8
図枠
 62
     7
100
AcDbText
 10
1845.719714881734
 20
664.0126058261127
 30
0.0
 40
5.0
  1
50ＦＹＹ－Ｓ350
100
AcDbText
  0
LINE
  5
6F25
330
1E
100
AcDbEntity
  8
図枠
  6
Continuous
 62
     7
100
AcDbLine
 10
1746.219714881733
 20
637.012605826113
 30
0.0
 11
1537.219714881733
 21
637.012605826113
 31
0.0
  0
LINE
  5
6F26
330
1E
100
AcDbEntity
  8
図枠
  6
Continuous
 62
     7
100
AcDbLine
 10
1746.219714881733
 20
649.0126058261128
 30
0.0
 11
1537.219714881733
 21
649.0126058261128
 31
0.0
  0
LINE
  5
6F27
330
1E
100
AcDbEntity
  8
図枠
  6
Continuous
 62
     7
100
AcDbLine
 10
1746.219714881733
 20
661.0126058261128
 30
0.0
 11
1537.219714881733
 21
661.0126058261128
 31
0.0
  0
LINE
  5
6F28
330
1E
100
AcDbEntity
  8
図枠
  6
Continuous
 62
     7
100
AcDbLine
 10
1746.219714881733
 20
673.0126058261127
 30
0.0
 11
1537.219714881733
 21
673.0126058261127
 31
0.0
  0
LINE
  5
6F29
330
1E
100
AcDbEntity
  8
図枠
  6
Continuous
 62
     7
100
AcDbLine
 10
1746.219714881733
 20
553.012605826113
 30
0.0
 11
1537.219714881733
 21
553.012605826113
 31
0.0
  0
LINE
  5
6F2A
330
1E
100
AcDbEntity
  8
図枠
  6
Continuous
 62
     7
100
AcDbLine
 10
1746.219714881733
 20
565.012605826113
 30
0.0
 11
1537.219714881733
 21
565.012605826113
 31
0.0
  0
LINE
  5
6F2B
330
1E
100
AcDbEntity
  8
図枠
  6
Continuous
 62
     7
100
AcDbLine
 10
1746.219714881733
 20
589.012605826113
 30
0.0
 11
1537.219714881733
 21
589.012605826113
 31
0.0
  0
LINE
  5
6F2C
330
1E
100
AcDbEntity
  8
図枠
  6
Continuous
 62
     7
100
AcDbLine
 10
1746.219714881733
 20
601.012605826113
 30
0.0
 11
1537.219714881733
 21
601.012605826113
 31
0.0
  0
LINE
  5
6F2D
330
1E
100
AcDbEntity
  8
図枠
  6
Continuous
 62
     7
100
AcDbLine
 10
1746.219714881733
 20
613.012605826113
 30
0.0
 11
1537.219714881733
 21
613.012605826113
 31
0.0
  0
LINE
  5
6F2E
330
1E
100
AcDbEntity
  8
図枠
  6
Continuous
 62
     7
100
AcDbLine
 10
1746.219714881733
 20
625.012605826113
 30
0.0
 11
1537.219714881733
 21
625.012605826113
 31
0.0
  0
LINE
  5
6F2F
330
1E
100
AcDbEntity
  8
図枠
  6
Continuous
 62
     7
100
AcDbLine
 10
1746.219714881733
 20
577.012605826113
 30
0.0
 11
1537.219714881733
 21
577.012605826113
 31
0.0
  0
LINE
  5
6F30
330
1E
100
AcDbEntity
  8
図枠
  6
Continuous
 62
     7
100
AcDbLine
 10
1746.219714881733
 20
517.012605826113
 30
0.0
 11
1537.219714881733
 21
517.012605826113
 31
0.0
  0
LINE
  5
6F31
330
1E
100
AcDbEntity
  8
図枠
  6
Continuous
 62
     7
100
AcDbLine
 10
1746.219714881733
 20
529.012605826113
 30
0.0
 11
1537.219714881733
 21
529.012605826113
 31
0.0
  0
LINE
  5
6F32
330
1E
100
AcDbEntity
  8
図枠
  6
Continuous
 62
     7
100
AcDbLine
 10
1746.219714881733
 20
541.012605826113
 30
0.0
 11
1537.219714881733
 21
541.012605826113
 31
0.0
  0
LINE
  5
6F33
330
1E
100
AcDbEntity
  8
図枠
  6
Continuous
 62
     7
100
AcDbLine
 10
1746.219714881733
 20
685.0126058261127
 30
0.0
 11
1537.219714881733
 21
685.0126058261127
 31
0.0
  0
LINE
  5
6F34
330
1E
100
AcDbEntity
  8
図枠
  6
Continuous
 62
     7
100
AcDbLine
 10
1746.219714881733
 20
505.012605826113
 30
0.0
 11
1537.219714881733
 21
505.012605826113
 31
0.0
  0
LINE
  5
6F35
330
1E
100
AcDbEntity
  8
図枠
  6
Continuous
 62
     7
100
AcDbLine
 10
1537.219714881733
 20
505.012605826113
 30
0.0
 11
1537.219714881733
 21
685.0126058261127
 31
0.0
  0
TEXT
  5
6F36
330
1E
100
AcDbEntity
  8
図枠
 62
     7
100
AcDbText
 10
1540.969714881734
 20
520.012605826113
 30
0.0
 40
5.0
  1
13
100
AcDbText
  0
TEXT
  5
6F37
330
1E
100
AcDbEntity
  8
図枠
 62
     7
100
AcDbText
 10
1540.969714881734
 20
532.012605826113
 30
0.0
 40
5.0
  1
12
100
AcDbText
  0
TEXT
  5
6F38
330
1E
100
AcDbEntity
  8
図枠
 62
     7
100
AcDbText
 10
1540.969714881734
 20
544.012605826113
 30
0.0
 40
5.0
  1
11
100
AcDbText
  0
TEXT
  5
6F39
330
1E
100
AcDbEntity
  8
図枠
 62
     7
100
AcDbText
 10
1540.969714881734
 20
556.012605826113
 30
0.0
 40
5.0
  1
10
100
AcDbText
  0
TEXT
  5
6F3A
330
1E
100
AcDbEntity
  8
図枠
 62
     7
100
AcDbText
 10
1540.969714881734
 20
568.012605826113
 30
0.0
 40
5.0
  1
 9
100
AcDbText
  0
TEXT
  5
6F3B
330
1E
100
AcDbEntity
  8
図枠
 62
     7
100
AcDbText
 10
1540.969714881734
 20
580.012605826113
 30
0.0
 40
5.0
  1
 8
100
AcDbText
  0
TEXT
  5
6F3C
330
1E
100
AcDbEntity
  8
図枠
 62
     7
100
AcDbText
 10
1540.969714881734
 20
592.012605826113
 30
0.0
 40
5.0
  1
 7
100
AcDbText
  0
TEXT
  5
6F3D
330
1E
100
AcDbEntity
  8
図枠
 62
     7
100
AcDbText
 10
1540.969714881734
 20
604.012605826113
 30
0.0
 40
5.0
  1
 6
100
AcDbText
  0
TEXT
  5
6F3E
330
1E
100
AcDbEntity
  8
図枠
 62
     7
100
AcDbText
 10
1540.969714881734
 20
616.012605826113
 30
0.0
 40
5.0
  1
 5
100
AcDbText
  0
TEXT
  5
6F3F
330
1E
100
AcDbEntity
  8
図枠
 62
     7
100
AcDbText
 10
1540.969714881734
 20
628.0126058261129
 30
0.0
 40
5.0
  1
 4
100
AcDbText
  0
TEXT
  5
6F40
330
1E
100
AcDbEntity
  8
図枠
 62
     7
100
AcDbText
 10
1540.969714881734
 20
640.0126058261129
 30
0.0
 40
5.0
  1
 3
100
AcDbText
  0
TEXT
  5
6F41
330
1E
100
AcDbEntity
  8
図枠
 62
     7
100
AcDbText
 10
1540.969714881734
 20
652.0126058261129
 30
0.0
 40
5.0
  1
 2
100
AcDbText
  0
TEXT
  5
6F42
330
1E
100
AcDbEntity
  8
図枠
 62
     7
100
AcDbText
 10
1541.219714881733
 20
508.0126058261129
 30
0.0
 40
5.0
  1
※
100
AcDbText
  0
TEXT
  5
6F43
330
1E
100
AcDbEntity
  8
図枠
 62
     7
100
AcDbText
 10
1757.969714881733
 20
568.012605826113
 30
0.0
 40
5.0
  1
2100
100
AcDbText
  0
TEXT
  5
6F44
330
1E
100
AcDbEntity
  8
図枠
 62
     7
100
AcDbText
 10
1757.969714881733
 20
580.012605826113
 30
0.0
 40
5.0
  1
2060
100
AcDbText
  0
TEXT
  5
6F45
330
1E
100
AcDbEntity
  8
図枠
 62
     7
100
AcDbText
 10
1757.969714881733
 20
640.0126058261129
 30
0.0
 40
5.0
  1
2010
100
AcDbText
  0
TEXT
  5
6F46
330
1E
100
AcDbEntity
  8
図枠
 62
     7
100
AcDbText
 10
1757.969714881733
 20
652.0126058261129
 30
0.0
 40
5.0
  1
2000
100
AcDbText
  0
TEXT
  5
6F47
330
1E
100
AcDbEntity
  8
図枠
 62
     7
100
AcDbText
 10
1757.969714881733
 20
664.0126058261127
 30
0.0
 40
5.0
  1
2000
100
AcDbText
  0
TEXT
  5
6F48
330
1E
100
AcDbEntity
  8
図枠
 62
     7
100
AcDbText
 10
1750.969714881733
 20
676.0126058261128
 30
0.0
 40
5.0
  1
定尺(mm)
100
AcDbText
  0
TEXT
  5
6F49
330
1E
100
AcDbEntity
  8
図枠
 62
     7
100
AcDbText
 10
1757.969714881733
 20
508.0126058261129
 30
0.0
 40
5.0
  1
6000
100
AcDbText
  0
TEXT
  5
6F4A
330
1E
100
AcDbEntity
  8
図枠
 62
     7
100
AcDbText
 10
1787.969714881733
 20
520.012605826113
 30
0.0
 40
5.0
  1
10
100
AcDbText
  0
TEXT
  5
6F4B
330
1E
100
AcDbEntity
  8
図枠
 62
     7
100
AcDbText
 10
1787.969714881733
 20
532.012605826113
 30
0.0
 40
5.0
  1
10
100
AcDbText
  0
TEXT
  5
6F4C
330
1E
100
AcDbEntity
  8
図枠
 62
     7
100
AcDbText
 10
1787.969714881733
 20
568.012605826113
 30
0.0
 40
5.0
  1
 1
100
AcDbText
  0
TEXT
  5
6F4D
330
1E
100
AcDbEntity
  8
図枠
 62
     7
100
AcDbText
 10
1787.969714881733
 20
580.012605826113
 30
0.0
 40
5.0
  1
 2
100
AcDbText
  0
TEXT
  5
6F4E
330
1E
100
AcDbEntity
  8
図枠
 62
     7
100
AcDbText
 10
1787.969714881733
 20
592.012605826113
 30
0.0
 40
5.0
  1
 1
100
AcDbText
  0
TEXT
  5
6F4F
330
1E
100
AcDbEntity
  8
図枠
 62
     7
100
AcDbText
 10
1787.969714881733
 20
604.012605826113
 30
0.0
 40
5.0
  1
 8
100
AcDbText
  0
TEXT
  5
6F50
330
1E
100
AcDbEntity
  8
図枠
 62
     7
100
AcDbText
 10
1787.969714881733
 20
616.012605826113
 30
0.0
 40
5.0
  1
 8
100
AcDbText
  0
TEXT
  5
6F51
330
1E
100
AcDbEntity
  8
図枠
 62
     7
100
AcDbText
 10
1787.969714881733
 20
628.0126058261129
 30
0.0
 40
5.0
  1
 4
100
AcDbText
  0
TEXT
  5
6F52
330
1E
100
AcDbEntity
  8
図枠
 62
     7
100
AcDbText
 10
1787.969714881733
 20
640.0126058261129
 30
0.0
 40
5.0
  1
 2
100
AcDbText
  0
TEXT
  5
6F53
330
1E
100
AcDbEntity
  8
図枠
 62
     7
100
AcDbText
 10
1787.969714881733
 20
652.0126058261129
 30
0.0
 40
5.0
  1
 2
100
AcDbText
  0
TEXT
  5
6F54
330
1E
100
AcDbEntity
  8
図枠
 62
     7
100
AcDbText
 10
1787.969714881733
 20
664.0126058261127
 30
0.0
 40
5.0
  1
 1
100
AcDbText
  0
TEXT
  5
6F55
330
1E
100
AcDbEntity
  8
図枠
 62
     7
100
AcDbText
 10
1784.719714881734
 20
676.0126058261128
 30
0.0
 40
5.0
  1
入数
100
AcDbText
  0
TEXT
  5
6F56
330
1E
100
AcDbEntity
  8
図枠
 62
     7
100
AcDbText
 10
1787.969714881733
 20
508.0126058261129
 30
0.0
 40
5.0
  1
 1
100
AcDbText
  0
TEXT
  5
6F57
330
1E
100
AcDbEntity
  8
図枠
 62
     7
100
AcDbText
 10
1787.969714881733
 20
544.012605826113
 30
0.0
 40
5.0
  1
10
100
AcDbText
  0
TEXT
  5
6F58
330
1E
100
AcDbEntity
  8
図枠
 62
     7
100
AcDbText
 10
1787.969714881733
 20
556.012605826113
 30
0.0
 40
5.0
  1
10
100
AcDbText
  0
TEXT
  5
6F59
330
1E
100
AcDbEntity
  8
図枠
 62
     7
100
AcDbText
 10
1540.969714881734
 20
664.0126058261127
 30
0.0
 40
5.0
  1
 1
100
AcDbText
  0
TEXT
  5
6F5A
330
1E
100
AcDbEntity
  8
図枠
 62
     7
100
AcDbText
 10
1539.219714881733
 20
676.0126058261128
 30
0.0
 40
5.0
  1
No.
100
AcDbText
  0
TEXT
  5
6F5B
330
1E
100
AcDbEntity
  8
図枠
 62
     7
100
AcDbText
 10
1664.719714881734
 20
920.4701824175945
 30
0.0
 40
5.0
  1
勾配３度
100
AcDbText
  0
ARC
  5
6F5C
330
1E
100
AcDbEntity
  8
躯体と製品
  6
Continuous
 62
     7
100
AcDbCircle
 10
1753.219714881733
 20
788.8289830499585
 30
0.0
 40
16.81637722384573
100
AcDbArc
 50
184.9999999999994
 51
355.0000000000006
  0
ARC
  5
6F5D
330
1E
100
AcDbEntity
  8
躯体と製品
  6
Continuous
 62
     7
100
AcDbCircle
 10
1753.219714881733
 20
788.8289830499585
 30
0.0
 40
17.81637722384573
100
AcDbArc
 50
184.9999999999994
 51
355.0000000000006
  0
LINE
  5
6F5E
330
1E
100
AcDbEntity
  8
躯体と製品
  6
Continuous
 62
     7
100
AcDbLine
 10
1776.255885259449
 20
859.1873252251472
 30
0.0
 11
1769.972100713239
 21
787.3633392026893
 31
0.0
  0
LINE
  5
6F5F
330
1E
100
AcDbEntity
  8
躯体と製品
  6
Continuous
 62
     7
100
AcDbLine
 10
1730.183544504018
 20
859.1873252251472
 30
0.0
 11
1736.467329050228
 21
787.3633392026893
 31
0.0
  0
LINE
  5
6F62
330
1E
100
AcDbEntity
  8
躯体と製品
  6
Continuous
 62
     7
100
AcDbLine
 10
1628.219714881733
 20
860.0126058261128
 30
0.0
 11
1628.219714881733
 21
720.0126058261128
 31
0.0
  0
LINE
  5
6F63
330
1E
100
AcDbEntity
  8
躯体と製品
  6
Continuous
 62
     7
100
AcDbLine
 10
1728.219714881733
 20
860.0126058261128
 30
0.0
 11
1728.219714881733
 21
720.0126058261128
 31
0.0
  0
LINE
  5
6F64
330
1E
100
AcDbEntity
  8
躯体と製品
  6
Continuous
 62
     7
100
AcDbLine
 10
1778.219714881733
 20
860.0126058261128
 30
0.0
 11
1778.219714881733
 21
720.0126058261128
 31
0.0
  0
LINE
  5
6F65
330
1E
100
AcDbEntity
  8
躯体と製品
  6
Continuous
 62
     7
100
AcDbLine
 10
1878.219714881733
 20
860.0126058261128
 30
0.0
 11
1878.219714881733
 21
720.0126058261128
 31
0.0
  0
LINE
  5
6F89
330
1E
100
AcDbEntity
  8
躯体と製品
  6
Continuous
 62
     7
100
AcDbLine
 10
1828.219714881733
 20
861.0126058261128
 30
0.0
 11
1828.219714881733
 21
862.012605826113
 31
0.0
  0
ARC
  5
6F8A
330
1E
100
AcDbEntity
  8
躯体と製品
  6
Continuous
 62
     7
100
AcDbCircle
 10
1843.219714881733
 20
852.7626058261128
 30
0.0
 40
8.25
100
AcDbArc
 50
71.07535558394559
 51
90.0
  0
ARC
  5
6F8B
330
1E
100
AcDbEntity
  8
躯体と製品
  6
Continuous
 62
     7
100
AcDbCircle
 10
1849.219714881733
 20
870.2626058261127
 30
0.0
 40
10.25
100
AcDbArc
 50
251.0753555839456
 51
270.0
  0
ARC
  5
6F8C
330
1E
100
AcDbEntity
  8
躯体と製品
  6
Continuous
 62
     7
100
AcDbCircle
 10
1813.219714881734
 20
852.7626058261128
 30
0.0
 40
8.25
100
AcDbArc
 50
90.0
 51
108.9246444160544
  0
ARC
  5
6F8D
330
1E
100
AcDbEntity
  8
躯体と製品
  6
Continuous
 62
     7
100
AcDbCircle
 10
1807.219714881734
 20
870.2626058261127
 30
0.0
 40
10.25
100
AcDbArc
 50
270.0
 51
288.9246444160544
  0
ARC
  5
6F8E
330
1E
100
AcDbEntity
  8
躯体と製品
  6
Continuous
 62
     7
100
AcDbCircle
 10
1813.219714881734
 20
852.7626058261128
 30
0.0
 40
9.25
100
AcDbArc
 50
90.0
 51
108.9246444160544
  0
LINE
  5
6F8F
330
1E
100
AcDbEntity
  8
躯体と製品
  6
Continuous
 62
     7
100
AcDbLine
 10
1843.219714881733
 20
862.012605826113
 30
0.0
 11
1813.219714881734
 21
862.012605826113
 31
0.0
  0
ARC
  5
6F90
330
1E
100
AcDbEntity
  8
躯体と製品
  6
Continuous
 62
     7
100
AcDbCircle
 10
1843.219714881733
 20
852.7626058261128
 30
0.0
 40
9.25
100
AcDbArc
 50
71.07535558394559
 51
90.0
  0
ARC
  5
6F91
330
1E
100
AcDbEntity
  8
躯体と製品
  6
Continuous
 62
     7
100
AcDbCircle
 10
1849.219714881733
 20
870.2626058261127
 30
0.0
 40
9.25
100
AcDbArc
 50
251.0753555839456
 51
270.0
  0
ARC
  5
6F92
330
1E
100
AcDbEntity
  8
躯体と製品
  6
Continuous
 62
     7
100
AcDbCircle
 10
1807.219714881734
 20
870.2626058261127
 30
0.0
 40
9.25
100
AcDbArc
 50
270.0
 51
288.9246444160544
  0
LINE
  5
6F93
330
1E
100
AcDbEntity
  8
躯体と製品
  6
Continuous
 62
     7
100
AcDbLine
 10
1678.219714881733
 20
861.0126058261128
 30
0.0
 11
1678.219714881733
 21
862.012605826113
 31
0.0
  0
ARC
  5
6F94
330
1E
100
AcDbEntity
  8
躯体と製品
  6
Continuous
 62
     7
100
AcDbCircle
 10
1693.219714881734
 20
852.7626058261128
 30
0.0
 40
8.25
100
AcDbArc
 50
71.07535558394559
 51
90.0
  0
ARC
  5
6F95
330
1E
100
AcDbEntity
  8
躯体と製品
  6
Continuous
 62
     7
100
AcDbCircle
 10
1699.219714881733
 20
870.2626058261127
 30
0.0
 40
10.25
100
AcDbArc
 50
251.0753555839456
 51
270.0
  0
ARC
  5
6F96
330
1E
100
AcDbEntity
  8
躯体と製品
  6
Continuous
 62
     7
100
AcDbCircle
 10
1663.219714881734
 20
852.7626058261128
 30
0.0
 40
8.25
100
AcDbArc
 50
90.0
 51
108.9246444160544
  0
ARC
  5
6F97
330
1E
100
AcDbEntity
  8
躯体と製品
  6
Continuous
 62
     7
100
AcDbCircle
 10
1657.219714881734
 20
870.2626058261127
 30
0.0
 40
10.25
100
AcDbArc
 50
270.0
 51
288.9246444160544
  0
ARC
  5
6F98
330
1E
100
AcDbEntity
  8
躯体と製品
  6
Continuous
 62
     7
100
AcDbCircle
 10
1663.219714881734
 20
852.7626058261128
 30
0.0
 40
9.25
100
AcDbArc
 50
90.0
 51
108.9246444160544
  0
LINE
  5
6F99
330
1E
100
AcDbEntity
  8
躯体と製品
  6
Continuous
 62
     7
100
AcDbLine
 10
1693.219714881734
 20
862.012605826113
 30
0.0
 11
1663.219714881734
 21
862.012605826113
 31
0.0
  0
ARC
  5
6F9A
330
1E
100
AcDbEntity
  8
躯体と製品
  6
Continuous
 62
     7
100
AcDbCircle
 10
1693.219714881734
 20
852.7626058261128
 30
0.0
 40
9.25
100
AcDbArc
 50
71.07535558394559
 51
90.0
  0
ARC
  5
6F9B
330
1E
100
AcDbEntity
  8
躯体と製品
  6
Continuous
 62
     7
100
AcDbCircle
 10
1699.219714881733
 20
870.2626058261127
 30
0.0
 40
9.25
100
AcDbArc
 50
251.0753555839456
 51
270.0
  0
ARC
  5
6F9C
330
1E
100
AcDbEntity
  8
躯体と製品
  6
Continuous
 62
     7
100
AcDbCircle
 10
1657.219714881734
 20
870.2626058261127
 30
0.0
 40
9.25
100
AcDbArc
 50
270.0
 51
288.9246444160544
  0
ARC
  5
6F9D
330
1E
100
AcDbEntity
  8
躯体と製品
  6
Continuous
 62
     7
100
AcDbCircle
 10
1628.248274655632
 20
859.0130137396522
 30
0.0
 40
2.0
100
AcDbArc
 50
91.15721505311539
 51
175.0000000000005
  0
LINE
  5
6F9E
330
1E
100
AcDbEntity
  8
躯体と製品
  6
Continuous
 62
     7
100
AcDbLine
 10
1657.219714881734
 20
861.0126058261128
 30
0.0
 11
1628.207882976248
 21
861.0126058261128
 31
0.0
  0
LINE
  5
6F9F
330
1E
100
AcDbEntity
  8
躯体と製品
  6
Continuous
 62
     7
100
AcDbLine
 10
1699.219714881733
 20
861.0126058261128
 30
0.0
 11
1728.231546787224
 21
861.0126058261128
 31
0.0
  0
ARC
  5
6FA0
330
1E
100
AcDbEntity
  8
躯体と製品
  6
Continuous
 62
     7
100
AcDbCircle
 10
1728.191155107835
 20
859.0130137396522
 30
0.0
 40
2.0
100
AcDbArc
 50
4.999999999999459
 51
88.84278494675429
  0
ARC
  5
6FA1
330
1E
100
AcDbEntity
  8
躯体と製品
  6
Continuous
 62
     7
100
AcDbCircle
 10
1778.248274655632
 20
859.0130137396522
 30
0.0
 40
2.0
100
AcDbArc
 50
91.15721505319362
 51
175.0000000000005
  0
LINE
  5
6FA2
330
1E
100
AcDbEntity
  8
躯体と製品
  6
Continuous
 62
     7
100
AcDbLine
 10
1807.219714881734
 20
861.0126058261128
 30
0.0
 11
1778.207882976245
 21
861.0126058261128
 31
0.0
  0
LINE
  5
6FA3
330
1E
100
AcDbEntity
  8
躯体と製品
  6
Continuous
 62
     7
100
AcDbLine
 10
1849.219714881733
 20
861.0126058261128
 30
0.0
 11
1878.231546787221
 21
861.0126058261128
 31
0.0
  0
ARC
  5
6FA4
330
1E
100
AcDbEntity
  8
躯体と製品
  6
Continuous
 62
     7
100
AcDbCircle
 10
1878.191155107835
 20
859.0130137396522
 30
0.0
 40
2.0
100
AcDbArc
 50
4.999999999999459
 51
88.84278494684552
  0
TEXT
  5
6FA5
330
1E
100
AcDbEntity
  8
図枠
 62
     7
100
AcDbText
 10
1928.219714881733
 20
685.5954074142555
 30
0.0
 40
5.0
  1
（単位：mm）
100
AcDbText
  0
LINE
  5
6FA6
330
1E
100
AcDbEntity
  8
図枠
  6
Continuous
 62
     4
100
AcDbLine
 10
1703.219714881733
 20
920.485905382198
 30
0.0
 11
1653.219714881733
 21
920.485905382198
 31
0.0
  0
LINE
  5
6FA7
330
1E
100
AcDbEntity
  8
図枠
  6
Continuous
 62
     4
100
AcDbLine
 10
1653.219714881733
 20
917.8655164180462
 30
0.0
 11
1653.219714881733
 21
920.485905382198
 31
0.0
  0
LINE
  5
6FA8
330
1E
100
AcDbEntity
  8
図枠
  6
Continuous
 62
     4
100
AcDbLine
 10
1703.219714881733
 20
920.485905382198
 30
0.0
 11
1653.219714881733
 21
917.8655164180462
 31
0.0
  0
LINE
  5
6FA9
330
1E
100
AcDbEntity
  8
躯体と製品
  6
CENTER1
 62
     4
100
AcDbLine
 10
1676.495075019996
 20
912.8442091929141
 30
0.0
 11
1678.847746356649
 21
867.9525658369446
 31
0.0
  0
LINE
  5
6FAA
330
1E
100
AcDbEntity
  8
躯体と製品
  6
CENTER1
 62
     4
100
AcDbLine
 10
1678.219714881733
 20
884.9361202539993
 30
0.0
 11
1678.219714881733
 21
796.0126058261128
 31
0.0
  0
LINE
  5
6FAB
330
1E
100
AcDbEntity
  8
躯体と製品
  6
CENTER1
 62
     4
100
AcDbLine
 10
1829.944354743471
 20
912.8442091929141
 30
0.0
 11
1827.591683406818
 21
867.9525658369446
 31
0.0
  0
LINE
  5
6FAC
330
1E
100
AcDbEntity
  8
躯体と製品
  6
CENTER1
 62
     4
100
AcDbLine
 10
1828.219714881733
 20
884.9361202539993
 30
0.0
 11
1828.219714881733
 21
796.0126058261128
 31
0.0
  0
LINE
  5
6FAD
330
1E
100
AcDbEntity
  8
躯体と製品
  6
CENTER1
 62
     4
100
AcDbLine
 10
1753.219714881733
 20
934.8494263530703
 30
0.0
 11
1753.219714881733
 21
761.0126058261128
 31
0.0
  0
TEXT
  5
6FAE
330
1E
100
AcDbEntity
  8
図枠
 62
     7
100
AcDbText
 10
1556.219714881734
 20
640.0126058261129
 30
0.0
 40
5.0
  1
止水補助板ホルダーＡＬ
100
AcDbText
  0
LINE
  5
6FAF
330
1E
100
AcDbEntity
  8
躯体と製品
  6
Continuous
 62
     7
100
AcDbLine
 10
1669.219714881733
 20
866.0126058261131
 30
0.0
 11
1687.219714881733
 21
866.0126058261131
 31
0.0
  0
LINE
  5
6FB0
330
1E
100
AcDbEntity
  8
躯体と製品
  6
Continuous
 62
     7
100
AcDbLine
 10
1687.219714881733
 20
866.0126058261131
 30
0.0
 11
1687.219714881733
 21
864.5126058261128
 31
0.0
  0
LINE
  5
6FB1
330
1E
100
AcDbEntity
  8
躯体と製品
  6
Continuous
 62
     7
100
AcDbLine
 10
1669.219714881733
 20
866.0126058261131
 30
0.0
 11
1669.219714881733
 21
864.5126058261128
 31
0.0
  0
ARC
  5
6FB2
330
1E
100
AcDbEntity
  8
躯体と製品
  6
Continuous
 62
     7
100
AcDbCircle
 10
1678.219714881733
 20
861.401452786557
 30
0.0
 40
9.553418012635715
100
AcDbArc
 50
72.41204622604974
 51
107.5879537739502
  0
ARC
  5
6FB3
330
1E
100
AcDbEntity
  8
躯体と製品
  6
Continuous
 62
     7
100
AcDbCircle
 10
1673.889587862811
 20
868.3990480507643
 30
0.0
 40
2.555822748428199
100
AcDbArc
 50
55.61575253203897
 51
124.384247467961
  0
ARC
  5
6FB4
330
1E
100
AcDbEntity
  8
躯体と製品
  6
Continuous
 62
     7
100
AcDbCircle
 10
1682.549841900656
 20
868.3990480507643
 30
0.0
 40
2.555822748428199
100
AcDbArc
 50
55.61575253203897
 51
124.384247467961
  0
LINE
  5
6FB5
330
1E
100
AcDbEntity
  8
躯体と製品
  6
Continuous
 62
     7
100
AcDbLine
 10
1672.446212189838
 20
870.5082888118086
 30
0.0
 11
1672.446212189838
 21
866.0126058261131
 31
0.0
  0
LINE
  5
6FB6
330
1E
100
AcDbEntity
  8
躯体と製品
  6
Continuous
 62
     7
100
AcDbLine
 10
1673.319714881734
 20
871.0126058261129
 30
0.0
 11
1672.446212189838
 21
870.5082888118086
 31
0.0
  0
LINE
  5
6FB7
330
1E
100
AcDbEntity
  8
躯体と製品
  6
Continuous
 62
     7
100
AcDbLine
 10
1673.319714881734
 20
871.0126058261129
 30
0.0
 11
1683.119714881734
 21
871.0126058261129
 31
0.0
  0
LINE
  5
6FB8
330
1E
100
AcDbEntity
  8
躯体と製品
  6
Continuous
 62
     7
100
AcDbLine
 10
1683.119714881734
 20
871.0126058261129
 30
0.0
 11
1683.99321757363
 21
870.5082888118086
 31
0.0
  0
LINE
  5
6FB9
330
1E
100
AcDbEntity
  8
躯体と製品
  6
Continuous
 62
     7
100
AcDbLine
 10
1675.332963535785
 20
870.5082888118086
 30
0.0
 11
1675.332963535785
 21
866.0126058261131
 31
0.0
  0
LINE
  5
6FBA
330
1E
100
AcDbEntity
  8
躯体と製品
  6
Continuous
 62
     7
100
AcDbLine
 10
1681.106466227682
 20
870.5082888118086
 30
0.0
 11
1681.106466227682
 21
866.0126058261131
 31
0.0
  0
LINE
  5
6FBB
330
1E
100
AcDbEntity
  8
躯体と製品
  6
Continuous
 62
     7
100
AcDbLine
 10
1683.99321757363
 20
870.5082888118086
 30
0.0
 11
1683.99321757363
 21
866.0126058261131
 31
0.0
  0
LINE
  5
6FBC
330
1E
100
AcDbEntity
  8
躯体と製品
  6
Continuous
 62
     7
100
AcDbLine
 10
1819.219714881733
 20
866.0126058261131
 30
0.0
 11
1837.219714881733
 21
866.0126058261131
 31
0.0
  0
LINE
  5
6FBD
330
1E
100
AcDbEntity
  8
躯体と製品
  6
Continuous
 62
     7
100
AcDbLine
 10
1837.219714881733
 20
866.0126058261131
 30
0.0
 11
1837.219714881733
 21
864.5126058261128
 31
0.0
  0
LINE
  5
6FBE
330
1E
100
AcDbEntity
  8
躯体と製品
  6
Continuous
 62
     7
100
AcDbLine
 10
1819.219714881733
 20
866.0126058261131
 30
0.0
 11
1819.219714881733
 21
864.5126058261128
 31
0.0
  0
ARC
  5
6FBF
330
1E
100
AcDbEntity
  8
躯体と製品
  6
Continuous
 62
     7
100
AcDbCircle
 10
1828.219714881733
 20
861.401452786557
 30
0.0
 40
9.553418012635715
100
AcDbArc
 50
72.41204622604974
 51
107.5879537739502
  0
ARC
  5
6FC0
330
1E
100
AcDbEntity
  8
躯体と製品
  6
Continuous
 62
     7
100
AcDbCircle
 10
1823.889587862811
 20
868.3990480507643
 30
0.0
 40
2.555822748428199
100
AcDbArc
 50
55.61575253203897
 51
124.384247467961
  0
ARC
  5
6FC1
330
1E
100
AcDbEntity
  8
躯体と製品
  6
Continuous
 62
     7
100
AcDbCircle
 10
1832.549841900656
 20
868.3990480507643
 30
0.0
 40
2.555822748428199
100
AcDbArc
 50
55.61575253203897
 51
124.384247467961
  0
LINE
  5
6FC2
330
1E
100
AcDbEntity
  8
躯体と製品
  6
Continuous
 62
     7
100
AcDbLine
 10
1822.446212189837
 20
870.5082888118086
 30
0.0
 11
1822.446212189837
 21
866.0126058261131
 31
0.0
  0
LINE
  5
6FC3
330
1E
100
AcDbEntity
  8
躯体と製品
  6
Continuous
 62
     7
100
AcDbLine
 10
1823.319714881733
 20
871.0126058261129
 30
0.0
 11
1822.446212189837
 21
870.5082888118086
 31
0.0
  0
LINE
  5
6FC4
330
1E
100
AcDbEntity
  8
躯体と製品
  6
Continuous
 62
     7
100
AcDbLine
 10
1823.319714881733
 20
871.0126058261129
 30
0.0
 11
1833.119714881734
 21
871.0126058261129
 31
0.0
  0
LINE
  5
6FC5
330
1E
100
AcDbEntity
  8
躯体と製品
  6
Continuous
 62
     7
100
AcDbLine
 10
1833.119714881734
 20
871.0126058261129
 30
0.0
 11
1833.993217573629
 21
870.5082888118086
 31
0.0
  0
LINE
  5
6FC6
330
1E
100
AcDbEntity
  8
躯体と製品
  6
Continuous
 62
     7
100
AcDbLine
 10
1825.332963535785
 20
870.5082888118086
 30
0.0
 11
1825.332963535785
 21
866.0126058261131
 31
0.0
  0
LINE
  5
6FC7
330
1E
100
AcDbEntity
  8
躯体と製品
  6
Continuous
 62
     7
100
AcDbLine
 10
1831.106466227682
 20
870.5082888118086
 30
0.0
 11
1831.106466227682
 21
866.0126058261131
 31
0.0
  0
LINE
  5
6FC8
330
1E
100
AcDbEntity
  8
躯体と製品
  6
Continuous
 62
     7
100
AcDbLine
 10
1833.993217573629
 20
870.5082888118086
 30
0.0
 11
1833.993217573629
 21
866.0126058261131
 31
0.0
  0
CIRCLE
  5
6FC9
330
1E
100
AcDbEntity
  8
図枠
  6
Continuous
 62
     4
100
AcDbCircle
 10
1878.193055620493
 20
893.6107999262175
 30
0.0
 40
0.9
  0
CIRCLE
  5
6FCA
330
1E
100
AcDbEntity
  8
図枠
  6
Continuous
 62
     4
100
AcDbCircle
 10
1830.274159919166
 20
895.4757755133805
 30
0.0
 40
0.9
  0
CIRCLE
  5
6FCB
330
1E
100
AcDbEntity
  8
図枠
  6
Continuous
 62
     4
100
AcDbCircle
 10
1826.093703905731
 20
834.9299444279662
 30
0.0
 40
0.9
  0
CIRCLE
  5
6FCC
330
1E
100
AcDbEntity
  8
図枠
  6
Continuous
 62
     4
100
AcDbCircle
 10
1845.823543910123
 20
898.1980281568118
 30
0.0
 40
0.9
  0
CIRCLE
  5
6FCD
330
1E
100
AcDbEntity
  8
図枠
  6
Continuous
 62
     4
100
AcDbCircle
 10
1832.557125710429
 20
868.1131779733712
 30
0.0
 40
0.9
  0
CIRCLE
  5
6FCE
330
1E
100
AcDbEntity
  8
図枠
  6
Continuous
 62
     4
100
AcDbCircle
 10
1838.397197609877
 20
875.5012207377333
 30
0.0
 40
0.9
  0
CIRCLE
  5
6FCF
330
1E
100
AcDbEntity
  8
図枠
  6
Continuous
 62
     4
100
AcDbCircle
 10
1895.118370732103
 20
922.9263056336391
 30
0.0
 40
6.0
  0
LINE
  5
6FD0
330
1E
100
AcDbEntity
  8
図枠
  6
Continuous
 62
     4
100
AcDbLine
 10
1878.193055620493
 20
893.6107999262175
 30
0.0
 11
1892.118370732103
 21
917.7301532109325
 31
0.0
  0
CIRCLE
  5
6FD1
330
1E
100
AcDbEntity
  8
図枠
  6
Continuous
 62
     4
100
AcDbCircle
 10
1845.741406465912
 20
873.7639428120685
 30
0.0
 40
0.9
  0
CIRCLE
  5
6FD2
330
1E
100
AcDbEntity
  8
図枠
  6
Continuous
 62
     4
100
AcDbCircle
 10
1873.554460721362
 20
921.9375658961777
 30
0.0
 40
6.0
  0
LINE
  5
6FD3
330
1E
100
AcDbEntity
  8
図枠
  6
Continuous
 62
     4
100
AcDbLine
 10
1845.741406465912
 20
873.7639428120685
 30
0.0
 11
1870.554460721362
 21
916.7414134734709
 31
0.0
  0
CIRCLE
  5
6FD4
330
1E
100
AcDbEntity
  8
図枠
  6
Continuous
 62
     4
100
AcDbCircle
 10
1867.110633682498
 20
935.0683491878468
 30
0.0
 40
6.0
  0
LINE
  5
6FD5
330
1E
100
AcDbEntity
  8
図枠
  6
Continuous
 62
     4
100
AcDbLine
 10
1845.823543910123
 20
898.1980281568118
 30
0.0
 11
1864.110633682498
 21
929.8721967651403
 31
0.0
  0
CIRCLE
  5
6FD6
330
1E
100
AcDbEntity
  8
図枠
  6
Continuous
 62
     4
100
AcDbCircle
 10
1851.099692458198
 20
931.5466559656629
 30
0.0
 40
6.0
  0
LINE
  5
6FD7
330
1E
100
AcDbEntity
  8
図枠
  6
Continuous
 62
     4
100
AcDbLine
 10
1830.274159919166
 20
895.4757755133805
 30
0.0
 11
1848.099692458198
 21
926.3505035429563
 31
0.0
  0
CIRCLE
  5
6FD8
330
1E
100
AcDbEntity
  8
図枠
  6
Continuous
 62
     4
100
AcDbCircle
 10
1853.178883741646
 20
849.8985893359741
 30
0.0
 40
6.0
  0
LINE
  5
6FD9
330
1E
100
AcDbEntity
  8
図枠
  6
Continuous
 62
     4
100
AcDbLine
 10
1838.397197609877
 20
875.5012207377333
 30
0.0
 11
1850.178883741645
 21
855.094741758681
 31
0.0
  0
CIRCLE
  5
6FDA
330
1E
100
AcDbEntity
  8
図枠
  6
Continuous
 62
     4
100
AcDbCircle
 10
1851.979511375285
 20
834.4726191976421
 30
0.0
 40
6.0
  0
LINE
  5
6FDB
330
1E
100
AcDbEntity
  8
図枠
  6
Continuous
 62
     4
100
AcDbLine
 10
1832.557125710429
 20
868.1131779733712
 30
0.0
 11
1848.979511375285
 21
839.6687716203487
 31
0.0
  0
CIRCLE
  5
6FDC
330
1E
100
AcDbEntity
  8
図枠
  6
Continuous
 62
     4
100
AcDbCircle
 10
1813.052089710985
 20
812.3412060299536
 30
0.0
 40
6.0
  0
LINE
  5
6FDD
330
1E
100
AcDbEntity
  8
図枠
  6
Continuous
 62
     4
100
AcDbLine
 10
1826.093703905731
 20
834.9299444279662
 30
0.0
 11
1816.052089710985
 21
817.5373584526605
 31
0.0
  0
CIRCLE
  5
6FDE
330
1E
100
AcDbEntity
  8
図枠
  6
Continuous
 62
     4
100
AcDbCircle
 10
1821.097963128712
 20
865.2487627586904
 30
0.0
 40
0.9
  0
CIRCLE
  5
6FDF
330
1E
100
AcDbEntity
  8
図枠
  6
Continuous
 62
     4
100
AcDbCircle
 10
1808.400709496832
 20
843.2564743516868
 30
0.0
 40
6.0
  0
LINE
  5
6FE0
330
1E
100
AcDbEntity
  8
図枠
  6
Continuous
 62
     4
100
AcDbLine
 10
1821.097963128712
 20
865.2487627586904
 30
0.0
 11
1811.400709496832
 21
848.4526267743934
 31
0.0
  0
TEXT
  5
6FE1
330
1E
100
AcDbEntity
  8
図枠
 62
     7
100
AcDbText
 10
1864.110633682498
 20
932.0683491878471
 30
0.0
 40
5.0
  1
５
100
AcDbText
  0
TEXT
  5
6FE2
330
1E
100
AcDbEntity
  8
図枠
 62
     7
100
AcDbText
 10
1847.849692458198
 20
928.5466559656629
 30
0.0
 40
5.0
  1
10
100
AcDbText
  0
TEXT
  5
6FE3
330
1E
100
AcDbEntity
  8
図枠
 62
     7
100
AcDbText
 10
1892.118370732103
 20
919.9263056336391
 30
0.0
 40
5.0
  1
４
100
AcDbText
  0
TEXT
  5
6FE4
330
1E
100
AcDbEntity
  8
図枠
 62
     7
100
AcDbText
 10
1870.554460721362
 20
918.9375658961775
 30
0.0
 40
5.0
  1
２
100
AcDbText
  0
TEXT
  5
6FE5
330
1E
100
AcDbEntity
  8
図枠
 62
     7
100
AcDbText
 10
1850.178883741645
 20
846.8985893359741
 30
0.0
 40
5.0
  1
６
100
AcDbText
  0
TEXT
  5
6FE6
330
1E
100
AcDbEntity
  8
図枠
 62
     7
100
AcDbText
 10
1805.150709496832
 20
840.2564743516869
 30
0.0
 40
5.0
  1
13
100
AcDbText
  0
TEXT
  5
6FE7
330
1E
100
AcDbEntity
  8
図枠
 62
     7
100
AcDbText
 10
1848.729511375285
 20
831.4726191976422
 30
0.0
 40
5.0
  1
11
100
AcDbText
  0
TEXT
  5
6FE8
330
1E
100
AcDbEntity
  8
図枠
 62
     7
100
AcDbText
 10
1809.802089710984
 20
809.3412060299536
 30
0.0
 40
5.0
  1
12
100
AcDbText
  0
CIRCLE
  5
6FE9
330
1E
100
AcDbEntity
  8
図枠
  6
Continuous
 62
     4
100
AcDbCircle
 10
1892.749985197136
 20
821.0510378631639
 30
0.0
 40
0.9
  0
LINE
  5
6FEA
330
1E
100
AcDbEntity
  8
図枠
  6
Continuous
 62
     4
100
AcDbLine
 10
1892.749985197136
 20
821.0510378631639
 30
0.0
 11
1903.207432733766
 21
802.9382074122342
 31
0.0
  0
CIRCLE
  5
6FEB
330
1E
100
AcDbEntity
  8
図枠
  6
Continuous
 62
     4
100
AcDbCircle
 10
1906.207432733766
 20
797.7420549895273
 30
0.0
 40
6.0
  0
CIRCLE
  5
6FEC
330
1E
100
AcDbEntity
  8
図枠
  6
Continuous
 62
     4
100
AcDbCircle
 10
1911.753237081127
 20
890.9070394824036
 30
0.0
 40
0.9
  0
LINE
  5
6FED
330
1E
100
AcDbEntity
  8
図枠
  6
Continuous
 62
     4
100
AcDbLine
 10
1911.753237081127
 20
890.9070394824036
 30
0.0
 11
1935.389718224529
 21
931.8466257349196
 31
0.0
  0
CIRCLE
  5
6FEE
330
1E
100
AcDbEntity
  8
図枠
  6
Continuous
 62
     4
100
AcDbCircle
 10
1938.389718224529
 20
937.042778157626
 30
0.0
 40
6.0
  0
TEXT
  5
6FEF
330
1E
100
AcDbEntity
  8
図枠
 62
     7
100
AcDbText
 10
1935.389718224529
 20
934.0427781576261
 30
0.0
 40
5.0
  1
７
100
AcDbText
  0
TEXT
  5
6FF0
330
1E
100
AcDbEntity
  8
図枠
 62
     7
100
AcDbText
 10
1903.207432733766
 20
794.7420549895273
 30
0.0
 40
5.0
  1
８
100
AcDbText
  0
CIRCLE
  5
6FF1
330
1E
100
AcDbEntity
  8
図枠
  6
Continuous
 62
     4
100
AcDbCircle
 10
1746.566381805248
 20
809.8196953108461
 30
0.0
 40
6.0
  0
TEXT
  5
6FF2
330
1E
100
AcDbEntity
  8
図枠
 62
     7
100
AcDbText
 10
1743.566381805248
 20
806.8196953108461
 30
0.0
 40
5.0
  1
９
100
AcDbText
  0
LINE
  5
6FF3
330
1E
100
AcDbEntity
  8
図枠
  6
Continuous
 62
     4
100
AcDbLine
 10
1735.65430242665
 20
790.9194194108888
 30
0.0
 11
1743.566381805248
 21
804.6235428881391
 31
0.0
  0
CIRCLE
  5
6FF4
330
1E
100
AcDbEntity
  8
図枠
  6
Continuous
 62
     4
100
AcDbCircle
 10
1735.65430242665
 20
790.9194194108888
 30
0.0
 40
0.9
  0
CIRCLE
  5
6FF5
330
1E
100
AcDbEntity
  8
図枠
  6
Continuous
 62
     4
100
AcDbCircle
 10
1613.689444566331
 20
821.0510378631639
 30
0.0
 40
0.9
  0
LINE
  5
6FF6
330
1E
100
AcDbEntity
  8
図枠
  6
Continuous
 62
     4
100
AcDbLine
 10
1613.689444566331
 20
821.0510378631639
 30
0.0
 11
1603.231997029701
 21
802.9382074122342
 31
0.0
  0
CIRCLE
  5
6FF7
330
1E
100
AcDbEntity
  8
図枠
  6
Continuous
 62
     4
100
AcDbCircle
 10
1600.231997029701
 20
797.7420549895273
 30
0.0
 40
6.0
  0
TEXT
  5
6FF8
330
1E
100
AcDbEntity
  8
図枠
 62
     7
100
AcDbText
 10
1597.231997029701
 20
794.7420549895273
 30
0.0
 40
5.0
  1
８
100
AcDbText
  0
LINE
  5
6FF9
330
1E
100
AcDbEntity
  8
躯体と製品
  6
Continuous
 62
     4
100
AcDbLine
 10
1830.459473153015
 20
876.2137990512782
 30
0.0
 11
1830.186890166461
 21
871.0126058261129
 31
0.0
  0
LINE
  5
6FFA
330
1E
100
AcDbEntity
  8
躯体と製品
  6
Continuous
 62
     7
100
AcDbLine
 10
1830.763460598628
 20
871.1517121490038
 30
0.0
 11
1830.608967375534
 21
871.0126058261129
 31
0.0
  0
LINE
  5
6FFB
330
1E
100
AcDbEntity
  8
躯体と製品
  6
Continuous
 62
     7
100
AcDbLine
 10
1825.179676325799
 20
871.0126058261129
 30
0.0
 11
1824.771683390101
 21
871.4657278864615
 31
0.0
  0
LINE
  5
6FFC
330
1E
100
AcDbEntity
  8
躯体と製品
  6
Continuous
 62
     4
100
AcDbLine
 10
1825.603137725503
 20
876.4683088064874
 30
0.0
 11
1825.317216447874
 21
871.0126058261129
 31
0.0
  0
LINE
  5
6FFD
330
1E
100
AcDbEntity
  8
躯体と製品
  6
Continuous
 62
     4
100
AcDbLine
 10
1680.836292037964
 20
876.4683088064874
 30
0.0
 11
1681.122213315593
 21
871.0126058261129
 31
0.0
  0
LINE
  5
6FFE
330
1E
100
AcDbEntity
  8
躯体と製品
  6
Continuous
 62
     7
100
AcDbLine
 10
1681.259753437668
 20
871.0126058261129
 30
0.0
 11
1681.667746373365
 21
871.4657278864615
 31
0.0
  0
LINE
  5
6FFF
330
1E
100
AcDbEntity
  8
躯体と製品
  6
Continuous
 62
     7
100
AcDbLine
 10
1675.675969164839
 20
871.1517121490038
 30
0.0
 11
1675.830462387933
 21
871.0126058261129
 31
0.0
  0
LINE
  5
7000
330
1E
100
AcDbEntity
  8
躯体と製品
  6
Continuous
 62
     4
100
AcDbLine
 10
1675.979956610452
 20
876.2137990512782
 30
0.0
 11
1676.252539597005
 21
871.0126058261129
 31
0.0
  0
CIRCLE
  5
7001
330
1E
100
AcDbEntity
  8
図枠
  6
Continuous
 62
     4
100
AcDbCircle
 10
1910.705937068554
 20
843.3255818073162
 30
0.0
 40
0.9
  0
LINE
  5
7002
330
1E
100
AcDbEntity
  8
図枠
  6
Continuous
 62
     4
100
AcDbLine
 10
1910.705937068554
 20
843.3255818073162
 30
0.0
 11
1935.673950884911
 21
886.571450301327
 31
0.0
  0
TEXT
  5
7003
330
1E
100
AcDbEntity
  8
図枠
 62
     7
100
AcDbText
 10
1935.673950884911
 20
888.7676027240337
 30
0.0
 40
5.0
  1
３
100
AcDbText
  0
CIRCLE
  5
7004
330
1E
100
AcDbEntity
  8
図枠
  6
Continuous
 62
     4
100
AcDbCircle
 10
1938.673950884911
 20
891.7676027240338
 30
0.0
 40
6.0
  0
CIRCLE
  5
7005
330
1E
100
AcDbEntity
  8
図枠
  6
Continuous
 62
     4
100
AcDbCircle
 10
1911.429070853612
 20
909.0347027699221
 30
0.0
 40
0.9
  0
LINE
  5
7006
330
1E
100
AcDbEntity
  8
図枠
  6
Continuous
 62
     4
100
AcDbLine
 10
1911.429070853612
 20
909.0347027699221
 30
0.0
 11
1936.565551997014
 21
952.5723652337912
 31
0.0
  0
TEXT
  5
7007
330
1E
100
AcDbEntity
  8
図枠
 62
     7
100
AcDbText
 10
1936.565551997014
 20
954.768517656498
 30
0.0
 40
5.0
  1
１
100
AcDbText
  0
CIRCLE
  5
7008
330
1E
100
AcDbEntity
  8
図枠
  6
Continuous
 62
     4
100
AcDbCircle
 10
1939.565551997014
 20
957.768517656498
 30
0.0
 40
6.0
  0
TEXT
  5
7009
330
1E
100
AcDbEntity
  8
図枠
 62
     6
100
AcDbText
 10
1360.766223590868
 20
1025.482237982865
 30
0.0
 40
10.0
  1
◇ステンレス５０タイプ（５０ＦＹＹ－Ｓ）
100
AcDbText
  0
TEXT
  5
700A
330
1E
100
AcDbEntity
  8
図枠
 62
     6
100
AcDbText
 10
1362.178450202079
 20
977.430014617027
 30
0.0
 40
10.0
  1
　　Ｓ＝１／２
100
AcDbText
  0
TEXT
  5
700B
330
1E
100
AcDbEntity
  8
図枠
 62
     6
100
AcDbText
 10
1361.162749718987
 20
1002.822526694322
 30
0.0
 40
10.0
  1
　　屋根－屋根
100
AcDbText
  0
DIMENSION
  5
70A2
330
1E
100
AcDbEntity
  8
寸法
  6
Continuous
100
AcDbDimension
  2
*D4
 10
1928.219714881733
 20
985.0126058261128
 30
0.0
 11
1753.219714881733
 21
988.5126058261128
 31
0.0
 70
    32
  1
W
 71
     5
 42
350.0
  3
AutoCAD
100
AcDbAlignedDimension
 13
1578.219714881733
 23
910.928071241828
 33
0.0
 14
1928.219714881733
 24
910.928071241828
 34
0.0
100
AcDbRotatedDimension
  0
DIMENSION
  5
70C1
330
1E
100
AcDbEntity
  8
寸法
  6
Continuous
100
AcDbDimension
  2
*D5
 10
1678.219714881733
 20
800.0126058261127
 30
0.0
 11
1653.219714881733
 21
803.5126058261127
 31
0.0
 70
    32
 71
     5
 42
50.0
  3
AutoCAD
100
AcDbAlignedDimension
 13
1628.219714881733
 23
800.0126058261127
 33
0.0
 14
1678.219714881733
 24
800.0126058261127
 34
0.0
100
AcDbRotatedDimension
  0
DIMENSION
  5
70CC
330
1E
100
AcDbEntity
  8
寸法
  6
Continuous
100
AcDbDimension
  2
*D6
 10
1878.219714881733
 20
800.0126058261127
 30
0.0
 11
1853.219714881733
 21
803.5126058261127
 31
0.0
 70
    32
 71
     5
 42
50.0
  3
AutoCAD
100
AcDbAlignedDimension
 13
1828.219714881733
 23
800.0126058261127
 33
0.0
 14
1878.219714881733
 24
800.0126058261127
 34
0.0
100
AcDbRotatedDimension
  0
DIMENSION
  5
70E4
330
1E
100
AcDbEntity
  8
寸法
  6
Continuous
100
AcDbDimension
  2
*D7
 10
1968.219714881733
 20
818.928071241828
 30
0.0
 11
1964.719714881733
 21
839.4703385339708
 31
0.0
 70
    32
  1
44
 71
     5
 42
41.08453458428471
  3
AutoCAD
100
AcDbAlignedDimension
 13
1880.971393620271
 23
860.0126058261128
 33
0.0
 14
1930.219714881733
 24
818.928071241828
 34
0.0
 50
90.0
100
AcDbRotatedDimension
  0
DIMENSION
  5
70F1
330
1E
100
AcDbEntity
  8
寸法
  6
Continuous
100
AcDbDimension
  2
*D8
 10
1988.219714881734
 20
818.928071241828
 30
0.0
 11
1984.719714881734
 21
863.9280712418285
 31
0.0
 70
    32
 71
     5
 42
90.00000000000023
  3
AutoCAD
100
AcDbAlignedDimension
 13
1930.219714881733
 23
908.9280712418283
 33
0.0
 14
1930.219714881733
 24
818.928071241828
 34
0.0
 50
90.0
100
AcDbRotatedDimension
  0
DIMENSION
  5
70FE
330
1E
100
AcDbEntity
  8
寸法
  6
Continuous
100
AcDbDimension
  2
*D9
 10
1628.219714881733
 20
740.0126058261128
 30
0.0
 11
1603.219714881733
 21
743.5126058261127
 31
0.0
 70
    32
  1
50≦
 71
     5
 42
50.0
  3
AutoCAD
100
AcDbAlignedDimension
 13
1578.219714881733
 23
816.9280712418281
 33
0.0
 14
1628.219714881733
 24
740.0126058261128
 34
0.0
100
AcDbRotatedDimension
  0
DIMENSION
  5
710A
330
1E
100
AcDbEntity
  8
寸法
  6
Continuous
100
AcDbDimension
  2
*D10
 10
1728.219714881733
 20
740.0126058261128
 30
0.0
 11
1678.219714881733
 21
743.5126058261127
 31
0.0
 70
    32
  1
≦Ｃ
 71
     5
 42
100.0
  3
AutoCAD
100
AcDbAlignedDimension
 13
1628.219714881733
 23
740.0126058261128
 33
0.0
 14
1728.219714881733
 24
740.0126058261128
 34
0.0
100
AcDbRotatedDimension
1001
ACAD
1000
DSTYLE
1002
{
1070
   279
1070
     1
1002
}
  0
DIMENSION
  5
7115
330
1E
100
AcDbEntity
  8
寸法
  6
Continuous
100
AcDbDimension
  2
*D11
 10
1778.219714881733
 20
740.0126058261128
 30
0.0
 11
1753.219714881733
 21
743.5126058261127
 31
0.0
 70
    32
 71
     5
 42
50.0
  3
AutoCAD
100
AcDbAlignedDimension
 13
1728.219714881733
 23
740.0126058261128
 33
0.0
 14
1778.219714881733
 24
740.0126058261128
 34
0.0
100
AcDbRotatedDimension
1001
ACAD
1000
DSTYLE
1002
{
1070
   279
1070
     1
1002
}
  0
DIMENSION
  5
7120
330
1E
100
AcDbEntity
  8
寸法
  6
Continuous
100
AcDbDimension
  2
*D12
 10
1878.219714881734
 20
740.0126058261128
 30
0.0
 11
1828.219714881733
 21
743.5126058261127
 31
0.0
 70
    32
  1
≦Ｃ
 71
     5
 42
100.0000000000002
  3
AutoCAD
100
AcDbAlignedDimension
 13
1778.219714881733
 23
740.0126058261128
 33
0.0
 14
1878.219714881734
 24
740.0126058261128
 34
0.0
100
AcDbRotatedDimension
1001
ACAD
1000
DSTYLE
1002
{
1070
   279
1070
     1
1002
}
  0
DIMENSION
  5
712B
330
1E
100
AcDbEntity
  8
寸法
  6
Continuous
100
AcDbDimension
  2
*D13
 10
1928.219714881733
 20
740.0126058261128
 30
0.0
 11
1903.219714881733
 21
743.5126058261127
 31
0.0
 70
    32
  1
50≦
 71
     5
 42
49.99999999999977
  3
AutoCAD
100
AcDbAlignedDimension
 13
1878.219714881734
 23
740.0126058261128
 33
0.0
 14
1928.219714881733
 24
816.9280712418281
 34
0.0
100
AcDbRotatedDimension
1001
ACAD
1000
DSTYLE
1002
{
1070
   279
1070
     1
1002
}
  0
ENDSEC
  0
SECTION
  2
OBJECTS
  0
DICTIONARY
  5
C
330
0
100
AcDbDictionary
281
     1
  3
ACAD_COLOR
350
6779
  3
ACAD_GROUP
350
D
  3
ACAD_LAYOUT
350
19
  3
ACAD_MATERIAL
350
6778
  3
ACAD_MLINESTYLE
350
16
  3
ACAD_PLOTSETTINGS
350
18
  3
ACAD_PLOTSTYLENAME
350
E
  3
ACAD_TABLESTYLE
350
677A
  3
ACDBHEADERROUNDTRIPXREC
350
7171
  3
AcDbVariableDictionary
350
169
  0
DICTIONARY
  5
175
330
2
100
AcDbDictionary
280
     1
281
     1
  3
ACAD_LAYERFILTERS
360
7011
  3
ACAD_LAYERSTATES
360
176
  3
ACLYDICTIONARY
360
7010
  0
DICTIONARY
  5
28B
330
1E
100
AcDbDictionary
280
     1
281
     1
  3
ACAD_LAYOUTSELFREF
360
6771
  0
DICTIONARY
  5
28D
330
1A
100
AcDbDictionary
280
     1
281
     1
  3
ACAD_LAYOUTSELFREF
360
6770
  0
DICTIONARY
  5
6779
102
{ACAD_REACTORS
330
C
102
}
330
C
100
AcDbDictionary
281
     1
  0
DICTIONARY
  5
D
102
{ACAD_REACTORS
330
C
102
}
330
C
100
AcDbDictionary
281
     1
  0
DICTIONARY
  5
19
102
{ACAD_REACTORS
330
C
102
}
330
C
100
AcDbDictionary
281
     1
  3
Model
350
21
  3
ﾚｲｱｳﾄ1
350
1D
  0
DICTIONARY
  5
6778
102
{ACAD_REACTORS
330
C
102
}
330
C
100
AcDbDictionary
281
     1
  0
DICTIONARY
  5
16
102
{ACAD_REACTORS
330
C
102
}
330
C
100
AcDbDictionary
281
     1
  3
Standard
350
17
  0
DICTIONARY
  5
18
102
{ACAD_REACTORS
330
C
102
}
330
C
100
AcDbDictionary
281
     1
  0
ACDBDICTIONARYWDFLT
  5
E
102
{ACAD_REACTORS
330
C
102
}
330
C
100
AcDbDictionary
281
     1
  3
Normal
350
F
100
AcDbDictionaryWithDefault
340
F
1001
ACAD
1000
TREAT_AS_HARD
1070
     0
1000
TREAT_AS_HARD
1070
     0
1000
TREAT_AS_HARD
1070
     0
1000
TREAT_AS_HARD
1070
     0
1000
TREAT_AS_HARD
1070
     0
1000
TREAT_AS_HARD
1070
     0
1000
TREAT_AS_HARD
1070
     0
1000
TREAT_AS_HARD
1070
     0
1000
TREAT_AS_HARD
1070
     0
1000
TREAT_AS_HARD
1070
     0
1000
TREAT_AS_HARD
1070
     0
1000
TREAT_AS_HARD
1070
     0
1000
TREAT_AS_HARD
1070
     0
1000
TREAT_AS_HARD
1070
     0
1000
TREAT_AS_HARD
1070
     0
1000
TREAT_AS_HARD
1070
     0
1000
TREAT_AS_HARD
1070
     0
1000
TREAT_AS_HARD
1070
     0
1000
TREAT_AS_HARD
1070
     0
1000
TREAT_AS_HARD
1070
     0
1000
TREAT_AS_HARD
1070
     0
1000
TREAT_AS_HARD
1070
     0
1000
TREAT_AS_HARD
1070
     0
1000
TREAT_AS_HARD
1070
     0
1000
TREAT_AS_HARD
1070
     0
1000
TREAT_AS_HARD
1070
     0
  0
DICTIONARY
  5
677A
102
{ACAD_REACTORS
330
C
102
}
330
C
100
AcDbDictionary
281
     1
  3
Standard
350
677B
  0
DICTIONARY
  5
7171
102
{ACAD_REACTORS
330
C
102
}
330
C
100
AcDbDictionary
281
     1
  0
DICTIONARY
  5
169
102
{ACAD_REACTORS
330
C
102
}
330
C
100
AcDbDictionary
281
     1
  3
CTABLESTYLE
350
6782
  3
DIMASSOC
350
16A
  3
PROJECTNAME
350
716F
  0
DICTIONARY
  5
7011
102
{ACAD_REACTORS
330
175
102
}
330
175
100
AcDbDictionary
281
     1
  0
DICTIONARY
  5
176
102
{ACAD_REACTORS
330
175
102
}
330
175
100
AcDbDictionary
281
     1
  3
ACAD
350
177
  0
DICTIONARY
  5
7010
102
{ACAD_REACTORS
330
175
102
}
330
175
100
AcDbDictionary
281
     1
1001
ACAD
1000
<All
  0
XRECORD
  5
6771
102
{ACAD_REACTORS
330
28B
102
}
330
28B
100
AcDbXrecord
280
     1
340
1E
  0
XRECORD
  5
6770
102
{ACAD_REACTORS
330
28D
102
}
330
28D
100
AcDbXrecord
280
     1
340
1A
  0
LAYOUT
  5
21
102
{ACAD_XDICTIONARY
360
7174
102
}
102
{ACAD_REACTORS
330
19
102
}
330
19
100
AcDbPlotSettings
  1

  2
\\MEISEI-1\EPSON Stylus Photo EX3
  4

  6

 40
0.0
 41
0.0
 42
0.0
 43
0.0
 44
0.0
 45
0.0
 46
0.0
 47
0.0
 48
0.0
 49
0.0
140
0.0
141
0.0
142
1.0
143
1.0
 70
  1712
 72
     0
 73
     0
 74
     0
  7

 75
     0
147
1.0
148
0.0
149
0.0
100
AcDbLayout
  1
Model
 70
     1
 71
     0
 10
0.0
 20
0.0
 11
12.0
 21
9.0
 12
0.0
 22
0.0
 32
0.0
 14
0.0
 24
0.0
 34
0.0
 15
0.0
 25
0.0
 35
0.0
146
0.0
 13
0.0
 23
0.0
 33
0.0
 16
1.0
 26
0.0
 36
0.0
 17
0.0
 27
1.0
 37
0.0
 76
     0
330
1E
  0
LAYOUT
  5
1D
102
{ACAD_XDICTIONARY
360
7172
102
}
102
{ACAD_REACTORS
330
19
102
}
330
19
100
AcDbPlotSettings
  1

  2
\\MEISEI-1\EPSON Stylus Photo EX3
  4

  6

 40
0.0
 41
0.0
 42
0.0
 43
0.0
 44
0.0
 45
0.0
 46
0.0
 47
0.0
 48
0.0
 49
0.0
140
0.0
141
0.0
142
1.0
143
1.0
 70
   688
 72
     0
 73
     0
 74
     5
  7

 75
    16
147
1.0
148
0.0
149
0.0
100
AcDbLayout
  1
ﾚｲｱｳﾄ1
 70
     1
 71
     1
 10
0.0
 20
0.0
 11
12.0
 21
9.0
 12
0.0
 22
0.0
 32
0.0
 14
1.000000000000000E+20
 24
1.000000000000000E+20
 34
1.000000000000000E+20
 15
-1.000000000000000E+20
 25
-1.000000000000000E+20
 35
-1.000000000000000E+20
146
0.0
 13
0.0
 23
0.0
 33
0.0
 16
1.0
 26
0.0
 36
0.0
 17
0.0
 27
1.0
 37
0.0
 76
     0
330
1A
  0
MLINESTYLE
  5
17
102
{ACAD_REACTORS
330
16
102
}
330
16
100
AcDbMlineStyle
  2
STANDARD
 70
     0
  3

 62
   256
 51
90.0
 52
90.0
 71
     2
 49
0.5
 62
   256
  6
BYLAYER
 49
-0.5
 62
   256
  6
BYLAYER
  0
ACDBPLACEHOLDER
  5
F
102
{ACAD_REACTORS
330
E
102
}
330
E
  0
TABLESTYLE
  5
677B
102
{ACAD_REACTORS
330
677A
102
}
330
677A
100
AcDbTableStyle
  3
Standard
 70
     0
 71
     0
 40
0.06
 41
0.06
280
     0
281
     0
  7
STANDARD
140
0.18
170
     2
 62
     0
 63
     7
283
     0
274
    -2
284
     1
 64
     0
275
    -2
285
     1
 65
     0
276
    -2
286
     1
 66
     0
277
    -2
287
     1
 67
     0
278
    -2
288
     1
 68
     0
279
    -2
289
     1
 69
     0
  7
STANDARD
140
0.25
170
     5
 62
     0
 63
     7
283
     0
274
    -2
284
     1
 64
     0
275
    -2
285
     1
 65
     0
276
    -2
286
     1
 66
     0
277
    -2
287
     1
 67
     0
278
    -2
288
     1
 68
     0
279
    -2
289
     1
 69
     0
  7
STANDARD
140
0.18
170
     5
 62
     0
 63
     7
283
     0
274
    -2
284
     1
 64
     0
275
    -2
285
     1
 65
     0
276
    -2
286
     1
 66
     0
277
    -2
287
     1
 67
     0
278
    -2
288
     1
 68
     0
279
    -2
289
     1
 69
     0
  0
DICTIONARYVAR
  5
6782
102
{ACAD_REACTORS
330
169
102
}
330
169
100
DictionaryVariables
280
     0
  1
STANDARD
  0
DICTIONARYVAR
  5
16A
102
{ACAD_REACTORS
330
169
102
}
330
169
100
DictionaryVariables
280
     0
  1
1
  0
DICTIONARYVAR
  5
716F
102
{ACAD_REACTORS
330
169
102
}
330
169
100
DictionaryVariables
280
     0
  1

  0
XRECORD
  5
177
102
{ACAD_REACTORS
330
176
102
}
330
176
100
AcDbXrecord
280
     1
 91
      476
330
179
 90
        8
 62
     7
370
    -3
331
15
  1
Color_7
330
178
 90
        8
 62
     7
370
    -3
331
15
  1
Color_7
330
128
 90
        0
 62
     7
370
    -3
331
15
  1
Color_7
330
10
 90
        8
 62
     7
370
    -3
331
15
  1
Color_7
  0
DICTIONARY
  5
7174
330
21
100
AcDbDictionary
280
     1
281
     1
  3
ACAD_XREC_ROUNDTRIP
360
7175
  0
DICTIONARY
  5
7172
330
1D
100
AcDbDictionary
280
     1
281
     1
  3
ACAD_XREC_ROUNDTRIP
360
7173
  0
XRECORD
  5
7175
102
{ACAD_REACTORS
330
7174
102
}
330
7174
100
AcDbXrecord
280
     1
102
SHADEPLOT
 70
     0
102
SHADEPLOTRESLEVEL
 70
     2
102
SHADEPLOTCUSTOMDPI
 70
   300
  0
XRECORD
  5
7173
102
{ACAD_REACTORS
330
7172
102
}
330
7172
100
AcDbXrecord
280
     1
102
SHADEPLOT
 70
     0
102
SHADEPLOTRESLEVEL
 70
     2
102
SHADEPLOTCUSTOMDPI
 70
   300
  0
ENDSEC
  0
EOF
