  0
SECTION
  2
HEADER
  9
$ACADVER
  1
AC1015
  9
$ACADMAINTVER
 70
    20
  9
$DWGCODEPAGE
  3
ANSI_932
  9
$INSBASE
 10
0.0
 20
0.0
 30
0.0
  9
$EXTMIN
 10
1358.344548757151
 20
436.829969892723
 30
-0.0000000349181948
  9
$EXTMAX
 10
2182.416227427811
 20
1012.948464267526
 30
0.0000000814935746
  9
$LIMMIN
 10
0.0
 20
0.0
  9
$LIMMAX
 10
420.0
 20
297.0
  9
$ORTHOMODE
 70
     0
  9
$REGENMODE
 70
     1
  9
$FILLMODE
 70
     1
  9
$QTEXTMODE
 70
     0
  9
$MIRRTEXT
 70
     1
  9
$LTSCALE
 40
1.0
  9
$ATTMODE
 70
     1
  9
$TEXTSIZE
 40
5.0
  9
$TRACEWID
 40
0.05
  9
$TEXTSTYLE
  7
ACAD
  9
$CLAYER
  8
0
  9
$CELTYPE
  6
CONTINUOUS
  9
$CECOLOR
 62
   256
  9
$CELTSCALE
 40
1.0
  9
$DISPSILH
 70
     0
  9
$DIMSCALE
 40
1.0
  9
$DIMASZ
 40
1.0
  9
$DIMEXO
 40
0.0
  9
$DIMDLI
 40
0.38
  9
$DIMRND
 40
0.0
  9
$DIMDLE
 40
0.0
  9
$DIMEXE
 40
0.0
  9
$DIMTP
 40
0.0
  9
$DIMTM
 40
0.0
  9
$DIMTXT
 40
5.0
  9
$DIMCEN
 40
0.09
  9
$DIMTSZ
 40
0.0
  9
$DIMTOL
 70
     0
  9
$DIMLIM
 70
     0
  9
$DIMTIH
 70
     0
  9
$DIMTOH
 70
     1
  9
$DIMSE1
 70
     0
  9
$DIMSE2
 70
     0
  9
$DIMTAD
 70
     1
  9
$DIMZIN
 70
     0
  9
$DIMBLK
  1
Dot
  9
$DIMASO
 70
     1
  9
$DIMSHO
 70
     1
  9
$DIMPOST
  1

  9
$DIMAPOST
  1

  9
$DIMALT
 70
     0
  9
$DIMALTD
 70
     2
  9
$DIMALTF
 40
25.4
  9
$DIMLFAC
 40
1.0
  9
$DIMTOFL
 70
     0
  9
$DIMTVP
 40
0.0
  9
$DIMTIX
 70
     1
  9
$DIMSOXD
 70
     0
  9
$DIMSAH
 70
     0
  9
$DIMBLK1
  1

  9
$DIMBLK2
  1

  9
$DIMSTYLE
  2
AutoCAD
  9
$DIMCLRD
 70
     4
  9
$DIMCLRE
 70
     4
  9
$DIMCLRT
 70
     3
  9
$DIMTFAC
 40
1.0
  9
$DIMGAP
 40
1.0
  9
$DIMJUST
 70
     0
  9
$DIMSD1
 70
     0
  9
$DIMSD2
 70
     0
  9
$DIMTOLJ
 70
     1
  9
$DIMTZIN
 70
     0
  9
$DIMALTZ
 70
     0
  9
$DIMALTTZ
 70
     0
  9
$DIMUPT
 70
     0
  9
$DIMDEC
 70
     0
  9
$DIMTDEC
 70
     0
  9
$DIMALTU
 70
     2
  9
$DIMALTTD
 70
     2
  9
$DIMTXSTY
  7
ACAD
  9
$DIMAUNIT
 70
     0
  9
$DIMADEC
 70
     0
  9
$DIMALTRND
 40
0.0
  9
$DIMAZIN
 70
     0
  9
$DIMDSEP
 70
    46
  9
$DIMATFIT
 70
     0
  9
$DIMFRAC
 70
     0
  9
$DIMLDRBLK
  1
None
  9
$DIMLUNIT
 70
     2
  9
$DIMLWD
 70
    -2
  9
$DIMLWE
 70
    -2
  9
$DIMTMOVE
 70
     0
  9
$LUNITS
 70
     2
  9
$LUPREC
 70
     4
  9
$SKETCHINC
 40
0.1
  9
$FILLETRAD
 40
0.0
  9
$AUNITS
 70
     0
  9
$AUPREC
 70
     0
  9
$MENU
  1
.
  9
$ELEVATION
 40
0.0
  9
$PELEVATION
 40
0.0
  9
$THICKNESS
 40
0.0
  9
$LIMCHECK
 70
     0
  9
$CHAMFERA
 40
0.0
  9
$CHAMFERB
 40
0.0
  9
$CHAMFERC
 40
0.0
  9
$CHAMFERD
 40
0.0
  9
$SKPOLY
 70
     0
  9
$TDCREATE
 40
2454316.693457674
  9
$TDUCREATE
 40
2454316.318457674
  9
$TDUPDATE
 40
2454734.822989908
  9
$TDUUPDATE
 40
2454734.447989908
  9
$TDINDWG
 40
0.2483331134
  9
$TDUSRTIMER
 40
0.2483331134
  9
$USRTIMER
 70
     1
  9
$ANGBASE
 50
0.0
  9
$ANGDIR
 70
     0
  9
$PDMODE
 70
     0
  9
$PDSIZE
 40
0.0
  9
$PLINEWID
 40
0.0
  9
$SPLFRAME
 70
     0
  9
$SPLINETYPE
 70
     6
  9
$SPLINESEGS
 70
     8
  9
$HANDSEED
  5
7355
  9
$SURFTAB1
 70
     6
  9
$SURFTAB2
 70
     6
  9
$SURFTYPE
 70
     6
  9
$SURFU
 70
     6
  9
$SURFV
 70
     6
  9
$UCSBASE
  2

  9
$UCSNAME
  2

  9
$UCSORG
 10
0.0
 20
0.0
 30
0.0
  9
$UCSXDIR
 10
1.0
 20
0.0
 30
0.0
  9
$UCSYDIR
 10
0.0
 20
1.0
 30
0.0
  9
$UCSORTHOREF
  2

  9
$UCSORTHOVIEW
 70
     0
  9
$UCSORGTOP
 10
0.0
 20
0.0
 30
0.0
  9
$UCSORGBOTTOM
 10
0.0
 20
0.0
 30
0.0
  9
$UCSORGLEFT
 10
0.0
 20
0.0
 30
0.0
  9
$UCSORGRIGHT
 10
0.0
 20
0.0
 30
0.0
  9
$UCSORGFRONT
 10
0.0
 20
0.0
 30
0.0
  9
$UCSORGBACK
 10
0.0
 20
0.0
 30
0.0
  9
$PUCSBASE
  2

  9
$PUCSNAME
  2

  9
$PUCSORG
 10
0.0
 20
0.0
 30
0.0
  9
$PUCSXDIR
 10
1.0
 20
0.0
 30
0.0
  9
$PUCSYDIR
 10
0.0
 20
1.0
 30
0.0
  9
$PUCSORTHOREF
  2

  9
$PUCSORTHOVIEW
 70
     0
  9
$PUCSORGTOP
 10
0.0
 20
0.0
 30
0.0
  9
$PUCSORGBOTTOM
 10
0.0
 20
0.0
 30
0.0
  9
$PUCSORGLEFT
 10
0.0
 20
0.0
 30
0.0
  9
$PUCSORGRIGHT
 10
0.0
 20
0.0
 30
0.0
  9
$PUCSORGFRONT
 10
0.0
 20
0.0
 30
0.0
  9
$PUCSORGBACK
 10
0.0
 20
0.0
 30
0.0
  9
$USERI1
 70
     0
  9
$USERI2
 70
     0
  9
$USERI3
 70
     0
  9
$USERI4
 70
     0
  9
$USERI5
 70
     0
  9
$USERR1
 40
0.0
  9
$USERR2
 40
0.0
  9
$USERR3
 40
0.0
  9
$USERR4
 40
0.0
  9
$USERR5
 40
0.0
  9
$WORLDVIEW
 70
     1
  9
$SHADEDGE
 70
     3
  9
$SHADEDIF
 70
    70
  9
$TILEMODE
 70
     1
  9
$MAXACTVP
 70
    48
  9
$PINSBASE
 10
0.0
 20
0.0
 30
0.0
  9
$PLIMCHECK
 70
     0
  9
$PEXTMIN
 10
1.000000000000000E+20
 20
1.000000000000000E+20
 30
1.000000000000000E+20
  9
$PEXTMAX
 10
-1.000000000000000E+20
 20
-1.000000000000000E+20
 30
-1.000000000000000E+20
  9
$PLIMMIN
 10
0.0
 20
0.0
  9
$PLIMMAX
 10
12.0
 20
9.0
  9
$UNITMODE
 70
     0
  9
$VISRETAIN
 70
     0
  9
$PLINEGEN
 70
     0
  9
$PSLTSCALE
 70
     1
  9
$TREEDEPTH
 70
  3020
  9
$CMLSTYLE
  2
Standard
  9
$CMLJUST
 70
     0
  9
$CMLSCALE
 40
1.0
  9
$PROXYGRAPHICS
 70
     1
  9
$MEASUREMENT
 70
     0
  9
$CELWEIGHT
370
    -1
  9
$ENDCAPS
280
     0
  9
$JOINSTYLE
280
     0
  9
$LWDISPLAY
290
     0
  9
$INSUNITS
 70
     0
  9
$HYPERLINKBASE
  1

  9
$STYLESHEET
  1

  9
$XEDIT
290
     1
  9
$CEPSNTYPE
380
     0
  9
$PSTYLEMODE
290
     1
  9
$FINGERPRINTGUID
  2
{CC7D6DEE-A9F1-4F3E-AC95-C84B62CCA3FD}
  9
$VERSIONGUID
  2
{EEB1C8D1-A73F-4B6E-B16F-C7B977905644}
  9
$EXTNAMES
290
     1
  9
$PSVPSCALE
 40
0.0
  9
$OLESTARTUP
290
     0
  0
ENDSEC
  0
SECTION
  2
CLASSES
  0
CLASS
  1
ACDBDICTIONARYWDFLT
  2
AcDbDictionaryWithDefault
  3
ObjectDBX Classes
 90
        0
280
     0
281
     0
  0
CLASS
  1
ACDBPLACEHOLDER
  2
AcDbPlaceHolder
  3
ObjectDBX Classes
 90
        0
280
     0
281
     0
  0
CLASS
  1
LAYOUT
  2
AcDbLayout
  3
ObjectDBX Classes
 90
        0
280
     0
281
     0
  0
CLASS
  1
DICTIONARYVAR
  2
AcDbDictionaryVar
  3
ObjectDBX Classes
 90
        0
280
     0
281
     0
  0
CLASS
  1
TABLESTYLE
  2
AcDbTableStyle
  3
ObjectDBX Classes
 90
     2047
280
     0
281
     0
  0
ENDSEC
  0
SECTION
  2
TABLES
  0
TABLE
  2
VPORT
  5
8
330
0
100
AcDbSymbolTable
 70
     2
  0
VPORT
  5
734F
330
8
100
AcDbSymbolTableRecord
100
AcDbViewportTableRecord
  2
*Active
 70
     0
 10
0.0
 20
0.0
 11
1.0
 21
1.0
 12
1781.405530318232
 22
720.5871264125098
 13
0.0
 23
0.0
 14
1.0
 24
1.0
 15
0.0
 25
0.0
 16
0.0
 26
0.0
 36
1.0
 17
0.0
 27
0.0
 37
0.0
 40
650.3520532573267
 41
1.542635658914728
 42
50.0
 43
0.0
 44
0.0
 50
0.0
 51
0.0
 71
     0
 72
   100
 73
     1
 74
     1
 75
     0
 76
     0
 77
     0
 78
     0
281
     0
 65
     1
110
0.0
120
0.0
130
0.0
111
1.0
121
0.0
131
0.0
112
0.0
122
1.0
132
0.0
 79
     0
146
0.0
  0
ENDTAB
  0
TABLE
  2
LTYPE
  5
5
330
0
100
AcDbSymbolTable
 70
    50
  0
LTYPE
  5
13
330
5
100
AcDbSymbolTableRecord
100
AcDbLinetypeTableRecord
  2
ByBlock
 70
     0
  3

 72
    65
 73
     0
 40
0.0
  0
LTYPE
  5
14
330
5
100
AcDbSymbolTableRecord
100
AcDbLinetypeTableRecord
  2
ByLayer
 70
     0
  3

 72
    65
 73
     0
 40
0.0
  0
LTYPE
  5
15
330
5
100
AcDbSymbolTableRecord
100
AcDbLinetypeTableRecord
  2
CONTINUOUS
 70
     0
  3
実線
 72
    65
 73
     0
 40
0.0
  0
LTYPE
  5
22
330
5
100
AcDbSymbolTableRecord
100
AcDbLinetypeTableRecord
  2
DASHED1
 70
     0
  3
--  --  --  --  --  --  --  --  
 72
    65
 73
     2
 40
2.5
 49
1.25
 74
     0
 49
-1.25
 74
     0
  0
LTYPE
  5
23
330
5
100
AcDbSymbolTableRecord
100
AcDbLinetypeTableRecord
  2
DASHED2
 70
     0
  3
----    ----    ----    ----    
 72
    65
 73
     2
 40
5.0
 49
2.5
 74
     0
 49
-2.5
 74
     0
  0
LTYPE
  5
24
330
5
100
AcDbSymbolTableRecord
100
AcDbLinetypeTableRecord
  2
DASHED3
 70
     0
  3
------  ------  ------  ------  
 72
    65
 73
     2
 40
5.0
 49
3.75
 74
     0
 49
-1.25
 74
     0
  0
LTYPE
  5
25
330
5
100
AcDbSymbolTableRecord
100
AcDbLinetypeTableRecord
  2
CENTER1
 70
     0
  3
----- - ----- - ----- - ----- - 
 72
    65
 73
     4
 40
10.0
 49
6.25
 74
     0
 49
-1.25
 74
     0
 49
1.25
 74
     0
 49
-1.25
 74
     0
  0
LTYPE
  5
26
330
5
100
AcDbSymbolTableRecord
100
AcDbLinetypeTableRecord
  2
CENTER2
 70
     0
  3
----------  --  ----------  --  
 72
    65
 73
     4
 40
20.0
 49
12.5
 74
     0
 49
-2.5
 74
     0
 49
2.5
 74
     0
 49
-2.5
 74
     0
  0
LTYPE
  5
27
330
5
100
AcDbSymbolTableRecord
100
AcDbLinetypeTableRecord
  2
PHANTOM1
 70
     0
  3
--- - - --- - - --- - - --- - - 
 72
    65
 73
     6
 40
10.0
 49
3.25
 74
     0
 49
-1.25
 74
     0
 49
1.25
 74
     0
 49
-1.25
 74
     0
 49
1.25
 74
     0
 49
-1.25
 74
     0
  0
LTYPE
  5
28
330
5
100
AcDbSymbolTableRecord
100
AcDbLinetypeTableRecord
  2
PHANTOM2
 70
     0
  3
--------  -  -  --------  -  -  
 72
    65
 73
     6
 40
20.0
 49
10.0
 74
     0
 49
-2.5
 74
     0
 49
1.25
 74
     0
 49
-2.5
 74
     0
 49
1.25
 74
     0
 49
-2.5
 74
     0
  0
LTYPE
  5
29
330
5
100
AcDbSymbolTableRecord
100
AcDbLinetypeTableRecord
  2
DOT
 70
     0
  3
-   -   -   -   -   -   -   -   
 72
    65
 73
     2
 40
2.5
 49
0.625
 74
     0
 49
-1.875
 74
     0
  0
LTYPE
  5
2A
330
5
100
AcDbSymbolTableRecord
100
AcDbLinetypeTableRecord
  2
DUMMY
 70
     0
  3
ダミー
 72
    65
 73
     0
 40
0.0
  0
LTYPE
  5
2B
330
5
100
AcDbSymbolTableRecord
100
AcDbLinetypeTableRecord
  2
RAND1
 70
     0
  3
ランダム線1
 72
    65
 73
     4
 40
10.0
 49
1.0
 74
     0
 49
-2.0
 74
     0
 49
3.0
 74
     0
 49
-4.0
 74
     0
  0
LTYPE
  5
2C
330
5
100
AcDbSymbolTableRecord
100
AcDbLinetypeTableRecord
  2
RAND2
 70
     0
  3
ランダム線2
 72
    65
 73
     4
 40
14.0
 49
2.0
 74
     0
 49
-3.0
 74
     0
 49
4.0
 74
     0
 49
-5.0
 74
     0
  0
LTYPE
  5
2D
330
5
100
AcDbSymbolTableRecord
100
AcDbLinetypeTableRecord
  2
RAND3
 70
     0
  3
ランダム線3
 72
    65
 73
     4
 40
18.0
 49
3.0
 74
     0
 49
-4.0
 74
     0
 49
5.0
 74
     0
 49
-6.0
 74
     0
  0
LTYPE
  5
2E
330
5
100
AcDbSymbolTableRecord
100
AcDbLinetypeTableRecord
  2
RAND4
 70
     0
  3
ランダム線4
 72
    65
 73
     4
 40
22.0
 49
4.0
 74
     0
 49
-5.0
 74
     0
 49
6.0
 74
     0
 49
-7.0
 74
     0
  0
LTYPE
  5
2F
330
5
100
AcDbSymbolTableRecord
100
AcDbLinetypeTableRecord
  2
RAND5
 70
     0
  3
ランダム線5
 72
    65
 73
     4
 40
26.0
 49
5.0
 74
     0
 49
-6.0
 74
     0
 49
7.0
 74
     0
 49
-8.0
 74
     0
  0
LTYPE
  5
30
330
5
100
AcDbSymbolTableRecord
100
AcDbLinetypeTableRecord
  2
LONG1
 70
     0
  3
----------  --  ----------  --  
 72
    65
 73
     4
 40
40.0
 49
32.5
 74
     0
 49
-2.5
 74
     0
 49
2.5
 74
     0
 49
-2.5
 74
     0
  0
LTYPE
  5
31
330
5
100
AcDbSymbolTableRecord
100
AcDbLinetypeTableRecord
  2
LONG2
 70
     0
  3
--------  -  -  --------  -  -  
 72
    65
 73
     6
 40
40.0
 49
30.0
 74
     0
 49
-2.5
 74
     0
 49
1.25
 74
     0
 49
-2.5
 74
     0
 49
1.25
 74
     0
 49
-2.5
 74
     0
  0
LTYPE
  5
32
330
5
100
AcDbSymbolTableRecord
100
AcDbLinetypeTableRecord
  2
LONG3
 70
     0
  3
+++++++++++++++..+++++++++++++++
 72
    65
 73
     2
 40
40.0
 49
37.5
 74
     0
 49
-2.5
 74
     0
  0
LTYPE
  5
33
330
5
100
AcDbSymbolTableRecord
100
AcDbLinetypeTableRecord
  2
LONG4
 70
     0
  3
+++++++++++++++..+++++++++++++++
 72
    65
 73
     2
 40
80.0
 49
75.0
 74
     0
 49
-5.0
 74
     0
  0
LTYPE
  5
34
330
5
100
AcDbSymbolTableRecord
100
AcDbLinetypeTableRecord
  2
LONG5
 70
     0
  3
----------  --  ----------  --  
 72
    65
 73
     4
 40
60.0
 49
37.5
 74
     0
 49
-7.5
 74
     0
 49
7.5
 74
     0
 49
-7.5
 74
     0
  0
LTYPE
  5
35
330
5
100
AcDbSymbolTableRecord
100
AcDbLinetypeTableRecord
  2
DASHED
 70
     0
  3
-------   -------------   ------
 72
    65
 73
     2
 40
7.5
 49
6.0
 74
     0
 49
-1.5
 74
     0
  0
LTYPE
  5
36
330
5
100
AcDbSymbolTableRecord
100
AcDbLinetypeTableRecord
  2
DASHED_SPACED
 70
     0
  3
----        --------        ----
 72
    65
 73
     2
 40
12.0
 49
6.0
 74
     0
 49
-6.0
 74
     0
  0
LTYPE
  5
37
330
5
100
AcDbSymbolTableRecord
100
AcDbLinetypeTableRecord
  2
LONG_DASHED_DOTTED
 70
     0
  3
------------- --- --------------
 72
    65
 73
     4
 40
15.25
 49
12.0
 74
     0
 49
-1.5
 74
     0
 49
0.25
 74
     0
 49
-1.5
 74
     0
  0
LTYPE
  5
38
330
5
100
AcDbSymbolTableRecord
100
AcDbLinetypeTableRecord
  2
LONG_DASHED_DOUBLE-DOTTED
 70
     0
  3
----------- --- --- ------------
 72
    65
 73
     6
 40
17.0
 49
12.0
 74
     0
 49
-1.5
 74
     0
 49
0.25
 74
     0
 49
-1.5
 74
     0
 49
0.25
 74
     0
 49
-1.5
 74
     0
  0
LTYPE
  5
39
330
5
100
AcDbSymbolTableRecord
100
AcDbLinetypeTableRecord
  2
LONG_DASHED_TRIPLICATE-DOTTED
 70
     0
  3
--------- --- --- --- ----------
 72
    65
 73
     8
 40
18.75
 49
12.0
 74
     0
 49
-1.5
 74
     0
 49
0.25
 74
     0
 49
-1.5
 74
     0
 49
0.25
 74
     0
 49
-1.5
 74
     0
 49
0.25
 74
     0
 49
-1.5
 74
     0
  0
LTYPE
  5
3A
330
5
100
AcDbSymbolTableRecord
100
AcDbLinetypeTableRecord
  2
DOTTED
 70
     0
  3
   -       -       -       -    
 72
    65
 73
     2
 40
1.75
 49
0.25
 74
     0
 49
-1.5
 74
     0
  0
LTYPE
  5
3B
330
5
100
AcDbSymbolTableRecord
100
AcDbLinetypeTableRecord
  2
CHAIN
 70
     0
  3
-------------- -- --------------
 72
    65
 73
     4
 40
18.5
 49
12.0
 74
     0
 49
-1.5
 74
     0
 49
3.5
 74
     0
 49
-1.5
 74
     0
  0
LTYPE
  5
3C
330
5
100
AcDbSymbolTableRecord
100
AcDbLinetypeTableRecord
  2
CHAIN_DOUBLE_DASH
 70
     0
  3
------------ -- -- -------------
 72
    65
 73
     6
 40
23.5
 49
12.0
 74
     0
 49
-1.5
 74
     0
 49
3.5
 74
     0
 49
-1.5
 74
     0
 49
3.5
 74
     0
 49
-1.5
 74
     0
  0
LTYPE
  5
3D
330
5
100
AcDbSymbolTableRecord
100
AcDbLinetypeTableRecord
  2
DASHED_DOTTED
 70
     0
  3
-----------     -     ----------
 72
    65
 73
     4
 40
9.25
 49
6.0
 74
     0
 49
-1.5
 74
     0
 49
0.25
 74
     0
 49
-1.5
 74
     0
  0
LTYPE
  5
3E
330
5
100
AcDbSymbolTableRecord
100
AcDbLinetypeTableRecord
  2
DOUBLE-DASHED_DOTTED
 70
     0
  3
------   -----------   -   -----
 72
    65
 73
     6
 40
16.75
 49
6.0
 74
     0
 49
-1.5
 74
     0
 49
6.0
 74
     0
 49
-1.5
 74
     0
 49
0.25
 74
     0
 49
-1.5
 74
     0
  0
LTYPE
  5
3F
330
5
100
AcDbSymbolTableRecord
100
AcDbLinetypeTableRecord
  2
DASHED_DOUBLE-DOTTED
 70
     0
  3
---------    -    -    ---------
 72
    65
 73
     6
 40
11.0
 49
6.0
 74
     0
 49
-1.5
 74
     0
 49
0.25
 74
     0
 49
-1.5
 74
     0
 49
0.25
 74
     0
 49
-1.5
 74
     0
  0
LTYPE
  5
40
330
5
100
AcDbSymbolTableRecord
100
AcDbLinetypeTableRecord
  2
DOUBLE-DASHED_DOUBLE-DOTTED
 70
     0
  3
-----   ---------   -   -   ----
 72
    65
 73
     8
 40
18.5
 49
6.0
 74
     0
 49
-1.5
 74
     0
 49
6.0
 74
     0
 49
-1.5
 74
     0
 49
0.25
 74
     0
 49
-1.5
 74
     0
 49
0.25
 74
     0
 49
-1.5
 74
     0
  0
LTYPE
  5
41
330
5
100
AcDbSymbolTableRecord
100
AcDbLinetypeTableRecord
  2
DASHED_TRIPLICATE-DOTTED
 70
     0
  3
-------    -    -    -    ------
 72
    65
 73
     8
 40
12.75
 49
6.0
 74
     0
 49
-1.5
 74
     0
 49
0.25
 74
     0
 49
-1.5
 74
     0
 49
0.25
 74
     0
 49
-1.5
 74
     0
 49
0.25
 74
     0
 49
-1.5
 74
     0
  0
LTYPE
  5
42
330
5
100
AcDbSymbolTableRecord
100
AcDbLinetypeTableRecord
  2
DOUBLE-DASHED_TRIPLICATE-DOTTED
 70
     0
  3
-----  ---------  -  -  -  -----
 72
    65
 73
    10
 40
20.25
 49
6.0
 74
     0
 49
-1.5
 74
     0
 49
6.0
 74
     0
 49
-1.5
 74
     0
 49
0.25
 74
     0
 49
-1.5
 74
     0
 49
0.25
 74
     0
 49
-1.5
 74
     0
 49
0.25
 74
     0
 49
-1.5
 74
     0
  0
LTYPE
  5
43
330
5
100
AcDbSymbolTableRecord
100
AcDbLinetypeTableRecord
  2
UNDEFINED
 70
     0
  3
--------------------------------
 72
    65
 73
     0
 40
0.0
  0
LTYPE
  5
44
330
5
100
AcDbSymbolTableRecord
100
AcDbLinetypeTableRecord
  2
PLINE2
 70
     0
  3
------     -----------     -----
 72
    65
 73
     2
 40
3.0
 49
2.1
 74
     0
 49
-0.9
 74
     0
  0
LTYPE
  5
45
330
5
100
AcDbSymbolTableRecord
100
AcDbLinetypeTableRecord
  2
PLINE3
 70
     0
  3
------------   ---   -----------
 72
    65
 73
     4
 40
10.0
 49
7.0
 74
     0
 49
-1.0
 74
     0
 49
1.0
 74
     0
 49
-1.0
 74
     0
  0
LTYPE
  5
46
330
5
100
AcDbSymbolTableRecord
100
AcDbLinetypeTableRecord
  2
PLINE4
 70
     0
  3
---------   ---   ---   --------
 72
    65
 73
     6
 40
10.0
 49
5.0
 74
     0
 49
-1.0
 74
     0
 49
1.0
 74
     0
 49
-1.0
 74
     0
 49
1.0
 74
     0
 49
-1.0
 74
     0
  0
LTYPE
  5
47
330
5
100
AcDbSymbolTableRecord
100
AcDbLinetypeTableRecord
  2
PLINE5
 70
     0
  3
------     -----------     -----
 72
    65
 73
     2
 40
5.0
 49
3.5
 74
     0
 49
-1.5
 74
     0
  0
LTYPE
  5
48
330
5
100
AcDbSymbolTableRecord
100
AcDbLinetypeTableRecord
  2
PLINE6
 70
     0
  3
------------   ---   -----------
 72
    65
 73
     4
 40
15.0
 49
10.5
 74
     0
 49
-1.5
 74
     0
 49
1.5
 74
     0
 49
-1.5
 74
     0
  0
LTYPE
  5
49
330
5
100
AcDbSymbolTableRecord
100
AcDbLinetypeTableRecord
  2
PLINE7
 70
     0
  3
---------   ---   ---   --------
 72
    65
 73
     6
 40
15.0
 49
7.5
 74
     0
 49
-1.5
 74
     0
 49
1.5
 74
     0
 49
-1.5
 74
     0
 49
1.5
 74
     0
 49
-1.5
 74
     0
  0
LTYPE
  5
4A
330
5
100
AcDbSymbolTableRecord
100
AcDbLinetypeTableRecord
  2
PLINE8
 70
     0
  3
------     -----------     -----
 72
    65
 73
     2
 40
7.0
 49
4.9
 74
     0
 49
-2.1
 74
     0
  0
LTYPE
  5
4B
330
5
100
AcDbSymbolTableRecord
100
AcDbLinetypeTableRecord
  2
PLINE9
 70
     0
  3
------------   ---   -----------
 72
    65
 73
     4
 40
20.0
 49
14.0
 74
     0
 49
-2.0
 74
     0
 49
2.0
 74
     0
 49
-2.0
 74
     0
  0
LTYPE
  5
4C
330
5
100
AcDbSymbolTableRecord
100
AcDbLinetypeTableRecord
  2
PLINE10
 70
     0
  3
---------   ---   ---   --------
 72
    65
 73
     6
 40
20.0
 49
10.0
 74
     0
 49
-2.0
 74
     0
 49
2.0
 74
     0
 49
-2.0
 74
     0
 49
2.0
 74
     0
 49
-2.0
 74
     0
  0
LTYPE
  5
4D
330
5
100
AcDbSymbolTableRecord
100
AcDbLinetypeTableRecord
  2
PLINE11
 70
     0
  3
------     -----------     -----
 72
    65
 73
     2
 40
9.0
 49
6.299999999999999
 74
     0
 49
-2.7
 74
     0
  0
LTYPE
  5
4E
330
5
100
AcDbSymbolTableRecord
100
AcDbLinetypeTableRecord
  2
PLINE12
 70
     0
  3
------------   ---   -----------
 72
    65
 73
     4
 40
25.0
 49
17.5
 74
     0
 49
-2.5
 74
     0
 49
2.5
 74
     0
 49
-2.5
 74
     0
  0
LTYPE
  5
4F
330
5
100
AcDbSymbolTableRecord
100
AcDbLinetypeTableRecord
  2
PLINE13
 70
     0
  3
---------   ---   ---   --------
 72
    65
 73
     6
 40
25.0
 49
12.5
 74
     0
 49
-2.5
 74
     0
 49
2.5
 74
     0
 49
-2.5
 74
     0
 49
2.5
 74
     0
 49
-2.5
 74
     0
  0
LTYPE
  5
50
330
5
100
AcDbSymbolTableRecord
100
AcDbLinetypeTableRecord
  2
PLINE14
 70
     0
  3
------     -----------     -----
 72
    65
 73
     2
 40
11.0
 49
7.7
 74
     0
 49
-3.299999999999999
 74
     0
  0
LTYPE
  5
51
330
5
100
AcDbSymbolTableRecord
100
AcDbLinetypeTableRecord
  2
PLINE15
 70
     0
  3
------------   ---   -----------
 72
    65
 73
     4
 40
30.0
 49
21.0
 74
     0
 49
-3.0
 74
     0
 49
3.0
 74
     0
 49
-3.0
 74
     0
  0
LTYPE
  5
52
330
5
100
AcDbSymbolTableRecord
100
AcDbLinetypeTableRecord
  2
PLINE16
 70
     0
  3
---------   ---   ---   --------
 72
    65
 73
     6
 40
30.0
 49
15.0
 74
     0
 49
-3.0
 74
     0
 49
3.0
 74
     0
 49
-3.0
 74
     0
 49
3.0
 74
     0
 49
-3.0
 74
     0
  0
ENDTAB
  0
TABLE
  2
LAYER
  5
2
102
{ACAD_XDICTIONARY
360
175
102
}
330
0
100
AcDbSymbolTable
 70
     5
  0
LAYER
  5
10
330
2
100
AcDbSymbolTableRecord
100
AcDbLayerTableRecord
  2
0
 70
     0
 62
     7
  6
CONTINUOUS
370
    -3
390
F
  0
LAYER
  5
128
330
2
100
AcDbSymbolTableRecord
100
AcDbLayerTableRecord
  2
Defpoints
 70
     0
 62
     7
  6
CONTINUOUS
290
     0
370
    -3
390
F
  0
LAYER
  5
178
330
2
100
AcDbSymbolTableRecord
100
AcDbLayerTableRecord
  2
寸法
 70
     0
 62
     7
  6
CONTINUOUS
370
    -3
390
F
  0
LAYER
  5
179
330
2
100
AcDbSymbolTableRecord
100
AcDbLayerTableRecord
  2
躯体と製品
 70
     0
 62
     7
  6
CONTINUOUS
370
    -3
390
F
  0
LAYER
  5
4F62
330
2
100
AcDbSymbolTableRecord
100
AcDbLayerTableRecord
  2
図枠
 70
     0
 62
     7
  6
CONTINUOUS
370
    -3
390
F
  0
ENDTAB
  0
TABLE
  2
STYLE
  5
3
330
0
100
AcDbSymbolTable
 70
     5
  0
STYLE
  5
11
330
3
100
AcDbSymbolTableRecord
100
AcDbTextStyleTableRecord
  2
STANDARD
 70
     0
 40
0.0
 41
1.0
 50
0.0
 71
     0
 42
0.2
  3
txt
  4
bigfont.shx
  0
STYLE
  5
53
330
3
100
AcDbSymbolTableRecord
100
AcDbTextStyleTableRecord
  2
TATEGAKI
 70
     4
 40
0.0
 41
1.0
 50
0.0
 71
     0
 42
1.0
  3
txt
  4
bigfont.shx
  0
STYLE
  5
123
330
3
100
AcDbSymbolTableRecord
100
AcDbTextStyleTableRecord
  2
ACAD
 70
     0
 40
5.0
 41
0.8
 50
0.0
 71
     0
 42
5.0
  3
romans.shx
  4
extfont.shx
  0
STYLE
  5
3A5F
330
3
100
AcDbSymbolTableRecord
100
AcDbTextStyleTableRecord
  2
VERTXT
 70
     4
 40
0.0
 41
0.8582679999999999
 50
0.0
 71
     0
 42
3.5
  3
txt.shx
  4
BIGFONT
  0
STYLE
  5
50AD
330
3
100
AcDbSymbolTableRecord
100
AcDbTextStyleTableRecord
  2
STANDARD2
 70
     0
 40
0.0
 41
0.8582679999999999
 50
0.0
 71
     0
 42
3.5
  3
txt.shx
  4
EXTFONT
  0
ENDTAB
  0
TABLE
  2
VIEW
  5
6
330
0
100
AcDbSymbolTable
 70
     0
  0
ENDTAB
  0
TABLE
  2
UCS
  5
7
330
0
100
AcDbSymbolTable
 70
     0
  0
ENDTAB
  0
TABLE
  2
APPID
  5
9
330
0
100
AcDbSymbolTable
 70
     1
  0
APPID
  5
12
330
9
100
AcDbSymbolTableRecord
100
AcDbRegAppTableRecord
  2
ACAD
 70
     0
  0
ENDTAB
  0
TABLE
  2
DIMSTYLE
  5
A
330
0
100
AcDbSymbolTable
 70
     3
100
AcDbDimStyleTable
 71
     1
340
126
  0
DIMSTYLE
105
11C
330
A
100
AcDbSymbolTableRecord
100
AcDbDimStyleTableRecord
  2
Standard
 70
     0
340
11
  0
DIMSTYLE
105
126
102
{ACAD_REACTORS
330
71C5
330
71D2
330
71DF
330
71EC
330
71F9
330
7211
330
721E
330
722B
330
7237
330
7242
330
724D
330
7258
330
7264
330
732F
102
}
330
A
100
AcDbSymbolTableRecord
100
AcDbDimStyleTableRecord
  2
AutoCAD
 70
     0
 41
1.0
 42
0.0
 44
0.0
 73
     0
 77
     1
140
5.0
147
1.0
174
     1
176
     4
177
     4
178
     3
271
     0
272
     0
289
     0
340
123
341
15B0
342
11E
  0
DIMSTYLE
105
2CBB
330
A
100
AcDbSymbolTableRecord
100
AcDbDimStyleTableRecord
  2
111
 70
     0
 41
1.0
 42
0.0
 44
0.0
 73
     0
 77
     1
140
5.0
147
1.0
174
     1
176
     4
177
     4
178
     3
271
     0
272
     0
289
     0
340
123
341
15B0
342
2CB5
  0
ENDTAB
  0
TABLE
  2
BLOCK_RECORD
  5
1
330
0
100
AcDbSymbolTable
 70
    19
  0
BLOCK_RECORD
  5
1E
102
{ACAD_XDICTIONARY
360
28B
102
}
330
1
100
AcDbSymbolTableRecord
100
AcDbBlockTableRecord
  2
*Model_Space
340
21
  0
BLOCK_RECORD
  5
1A
102
{ACAD_XDICTIONARY
360
28D
102
}
330
1
100
AcDbSymbolTableRecord
100
AcDbBlockTableRecord
  2
*Paper_Space
340
1D
  0
BLOCK_RECORD
  5
11E
330
1
100
AcDbSymbolTableRecord
100
AcDbBlockTableRecord
  2
_Dot
340
0
102
{BLKREFS
331
72B6
331
72B7
331
72BF
331
72C0
331
72C8
331
72C9
331
72D1
331
72D2
331
72D9
331
72DA
331
72E0
331
72E1
331
72E7
331
72E8
331
72EF
331
72F0
331
72F6
331
72F7
331
72FF
331
7300
331
7308
331
7309
331
730F
331
7310
331
7318
331
7319
331
7321
331
7322
331
7348
331
7349
102
}
  0
BLOCK_RECORD
  5
15B0
330
1
100
AcDbSymbolTableRecord
100
AcDbBlockTableRecord
  2
_None
340
0
  0
BLOCK_RECORD
  5
2CB5
330
1
100
AcDbSymbolTableRecord
100
AcDbBlockTableRecord
  2
_Open30
340
0
  0
BLOCK_RECORD
  5
35E3
330
1
100
AcDbSymbolTableRecord
100
AcDbBlockTableRecord
  2
_DotBlank
340
0
  0
BLOCK_RECORD
  5
71C6
330
1
100
AcDbSymbolTableRecord
100
AcDbBlockTableRecord
  2
*D4
340
0
  0
BLOCK_RECORD
  5
71D3
330
1
100
AcDbSymbolTableRecord
100
AcDbBlockTableRecord
  2
*D5
340
0
  0
BLOCK_RECORD
  5
71E0
330
1
100
AcDbSymbolTableRecord
100
AcDbBlockTableRecord
  2
*D6
340
0
  0
BLOCK_RECORD
  5
71ED
330
1
100
AcDbSymbolTableRecord
100
AcDbBlockTableRecord
  2
*D7
340
0
  0
BLOCK_RECORD
  5
71FA
330
1
100
AcDbSymbolTableRecord
100
AcDbBlockTableRecord
  2
*D8
340
0
  0
BLOCK_RECORD
  5
7207
330
1
100
AcDbSymbolTableRecord
100
AcDbBlockTableRecord
  2
*D9
340
0
  0
BLOCK_RECORD
  5
7212
330
1
100
AcDbSymbolTableRecord
100
AcDbBlockTableRecord
  2
*D10
340
0
  0
BLOCK_RECORD
  5
721F
330
1
100
AcDbSymbolTableRecord
100
AcDbBlockTableRecord
  2
*D11
340
0
  0
BLOCK_RECORD
  5
722C
330
1
100
AcDbSymbolTableRecord
100
AcDbBlockTableRecord
  2
*D12
340
0
  0
BLOCK_RECORD
  5
7238
330
1
100
AcDbSymbolTableRecord
100
AcDbBlockTableRecord
  2
*D13
340
0
  0
BLOCK_RECORD
  5
7243
330
1
100
AcDbSymbolTableRecord
100
AcDbBlockTableRecord
  2
*D14
340
0
  0
BLOCK_RECORD
  5
724E
330
1
100
AcDbSymbolTableRecord
100
AcDbBlockTableRecord
  2
*D15
340
0
  0
BLOCK_RECORD
  5
7259
330
1
100
AcDbSymbolTableRecord
100
AcDbBlockTableRecord
  2
*D16
340
0
  0
BLOCK_RECORD
  5
7265
330
1
100
AcDbSymbolTableRecord
100
AcDbBlockTableRecord
  2
*D17
340
0
  0
BLOCK_RECORD
  5
7330
330
1
100
AcDbSymbolTableRecord
100
AcDbBlockTableRecord
  2
*D18
340
0
  0
ENDTAB
  0
ENDSEC
  0
SECTION
  2
BLOCKS
  0
BLOCK
  5
1F
330
1E
100
AcDbEntity
  8
0
100
AcDbBlockBegin
  2
*Model_Space
 70
     0
 10
0.0
 20
0.0
 30
0.0
  3
*Model_Space
  1

  0
ENDBLK
  5
20
330
1E
100
AcDbEntity
  8
0
100
AcDbBlockEnd
  0
BLOCK
  5
1B
330
1A
100
AcDbEntity
 67
     1
  8
0
100
AcDbBlockBegin
  2
*Paper_Space
 70
     0
 10
0.0
 20
0.0
 30
0.0
  3
*Paper_Space
  1

  0
ENDBLK
  5
1C
330
1A
100
AcDbEntity
 67
     1
  8
0
100
AcDbBlockEnd
  0
BLOCK
  5
121
330
11E
100
AcDbEntity
  8
0
100
AcDbBlockBegin
  2
_Dot
 70
     0
 10
0.0
 20
0.0
 30
0.0
  3
_Dot
  1

  0
LWPOLYLINE
  5
11F
330
11E
100
AcDbEntity
  8
0
  6
ByBlock
 62
     0
100
AcDbPolyline
 90
        2
 70
     1
 43
0.5
 10
-0.25
 20
0.0
 42
1.0
 10
0.25
 20
0.0
 42
1.0
  0
LINE
  5
120
330
11E
100
AcDbEntity
  8
0
  6
ByBlock
 62
     0
370
    -2
100
AcDbLine
 10
-0.5
 20
0.0
 30
0.0
 11
-1.0
 21
0.0
 31
0.0
  0
ENDBLK
  5
122
330
11E
100
AcDbEntity
  8
0
100
AcDbBlockEnd
  0
BLOCK
  5
15B1
330
15B0
100
AcDbEntity
  8
0
100
AcDbBlockBegin
  2
_None
 70
     0
 10
0.0
 20
0.0
 30
0.0
  3
_None
  1

  0
ENDBLK
  5
15B2
330
15B0
100
AcDbEntity
  8
0
100
AcDbBlockEnd
  0
BLOCK
  5
2CB9
330
2CB5
100
AcDbEntity
  8
0
100
AcDbBlockBegin
  2
_Open30
 70
     0
 10
0.0
 20
0.0
 30
0.0
  3
_Open30
  1

  0
LINE
  5
2CB6
330
2CB5
100
AcDbEntity
  8
0
  6
ByBlock
 62
     0
370
    -2
100
AcDbLine
 10
-1.0
 20
0.26794919
 30
0.0
 11
0.0
 21
0.0
 31
0.0
  0
LINE
  5
2CB7
330
2CB5
100
AcDbEntity
  8
0
  6
ByBlock
 62
     0
370
    -2
100
AcDbLine
 10
0.0
 20
0.0
 30
0.0
 11
-1.0
 21
-0.26794919
 31
0.0
  0
LINE
  5
2CB8
330
2CB5
100
AcDbEntity
  8
0
  6
ByBlock
 62
     0
370
    -2
100
AcDbLine
 10
0.0
 20
0.0
 30
0.0
 11
-1.0
 21
0.0
 31
0.0
  0
ENDBLK
  5
2CBA
330
2CB5
100
AcDbEntity
  8
0
100
AcDbBlockEnd
  0
BLOCK
  5
35E6
330
35E3
100
AcDbEntity
  8
0
100
AcDbBlockBegin
  2
_DotBlank
 70
     0
 10
0.0
 20
0.0
 30
0.0
  3
_DotBlank
  1

  0
CIRCLE
  5
35E4
330
35E3
100
AcDbEntity
  8
0
  6
ByBlock
 62
     0
370
    -2
100
AcDbCircle
 10
0.0
 20
0.0
 30
0.0
 40
0.5
  0
LINE
  5
35E5
330
35E3
100
AcDbEntity
  8
0
  6
ByBlock
 62
     0
370
    -2
100
AcDbLine
 10
-0.5
 20
0.0
 30
0.0
 11
-1.0
 21
0.0
 31
0.0
  0
ENDBLK
  5
35E7
330
35E3
100
AcDbEntity
  8
0
100
AcDbBlockEnd
  0
BLOCK
  5
71D0
330
71C6
100
AcDbEntity
  8
0
100
AcDbBlockBegin
  2
*D4
 70
     1
 10
0.0
 20
0.0
 30
0.0
  3
*D4
  1

  0
LINE
  5
72BC
330
71C6
100
AcDbEntity
  8
寸法
  6
Continuous
 62
     4
370
    -2
100
AcDbLine
 10
1545.406013078955
 20
924.7348597586094
 30
0.0
 11
1545.406013078955
 21
972.7348597586093
 31
0.0
  0
LINE
  5
72BD
330
71C6
100
AcDbEntity
  8
寸法
  6
Continuous
 62
     4
370
    -2
100
AcDbLine
 10
1578.606013078955
 20
925.1880654885274
 30
0.0
 11
1578.606013078955
 21
972.7348597586093
 31
0.0
  0
LINE
  5
72BE
330
71C6
100
AcDbEntity
  8
寸法
  6
Continuous
 62
     4
370
    -2
100
AcDbLine
 10
1546.406013078955
 20
972.7348597586093
 30
0.0
 11
1577.606013078955
 21
972.7348597586093
 31
0.0
  0
INSERT
  5
72BF
330
71C6
100
AcDbEntity
  8
寸法
  6
Continuous
 62
     4
370
    -2
100
AcDbBlockReference
  2
_Dot
 10
1545.406013078955
 20
972.7348597586093
 30
0.0
 50
180.0
  0
INSERT
  5
72C0
330
71C6
100
AcDbEntity
  8
寸法
  6
Continuous
 62
     4
370
    -2
100
AcDbBlockReference
  2
_Dot
 10
1578.606013078955
 20
972.7348597586093
 30
0.0
  0
MTEXT
  5
72C1
330
71C6
100
AcDbEntity
  8
寸法
  6
Continuous
 62
     3
100
AcDbMText
 10
1562.006013078955
 20
976.2348597586093
 30
0.0
 40
5.0
 41
0.0
 71
     5
 72
     1
  1
\A1;33.2
  7
ACAD
 73
     1
 44
1.0
1001
ACAD
1000
MTEXTBEGIN
1070
    73
1070
     1
1070
    44
1040
1.0
1070
    74
1070
     0
1000
MTEXTEND
  0
POINT
  5
72C2
330
71C6
100
AcDbEntity
  8
Defpoints
  6
Continuous
 62
     0
100
AcDbPoint
 10
1545.406013078955
 20
924.7348597586094
 30
0.0
  0
POINT
  5
72C3
330
71C6
100
AcDbEntity
  8
Defpoints
  6
Continuous
 62
     0
100
AcDbPoint
 10
1578.606013078955
 20
925.1880654885274
 30
0.0
  0
POINT
  5
72C4
330
71C6
100
AcDbEntity
  8
Defpoints
  6
Continuous
 62
     0
100
AcDbPoint
 10
1578.606013078955
 20
972.7348597586093
 30
0.0
  0
ENDBLK
  5
71D1
330
71C6
100
AcDbEntity
  8
0
100
AcDbBlockEnd
  0
BLOCK
  5
71DD
330
71D3
100
AcDbEntity
  8
0
100
AcDbBlockBegin
  2
*D5
 70
     1
 10
0.0
 20
0.0
 30
0.0
  3
*D5
  1

  0
LINE
  5
72C5
330
71D3
100
AcDbEntity
  8
寸法
  6
Continuous
 62
     4
370
    -2
100
AcDbLine
 10
1558.606013078955
 20
939.7348597586093
 30
0.0
 11
1558.606013078955
 21
962.7348597586093
 31
0.0
  0
LINE
  5
72C6
330
71D3
100
AcDbEntity
  8
寸法
  6
Continuous
 62
     4
370
    -2
100
AcDbLine
 10
1578.606013078955
 20
925.1880654885274
 30
0.0
 11
1578.606013078955
 21
962.7348597586093
 31
0.0
  0
LINE
  5
72C7
330
71D3
100
AcDbEntity
  8
寸法
  6
Continuous
 62
     4
370
    -2
100
AcDbLine
 10
1559.606013078955
 20
962.7348597586093
 30
0.0
 11
1577.606013078955
 21
962.7348597586093
 31
0.0
  0
INSERT
  5
72C8
330
71D3
100
AcDbEntity
  8
寸法
  6
Continuous
 62
     4
370
    -2
100
AcDbBlockReference
  2
_Dot
 10
1558.606013078955
 20
962.7348597586093
 30
0.0
 50
180.0
  0
INSERT
  5
72C9
330
71D3
100
AcDbEntity
  8
寸法
  6
Continuous
 62
     4
370
    -2
100
AcDbBlockReference
  2
_Dot
 10
1578.606013078955
 20
962.7348597586093
 30
0.0
  0
MTEXT
  5
72CA
330
71D3
100
AcDbEntity
  8
寸法
  6
Continuous
 62
     3
100
AcDbMText
 10
1568.606013078955
 20
966.2348597586094
 30
0.0
 40
5.0
 41
0.0
 71
     5
 72
     1
  1
\A1;20
  7
ACAD
 73
     1
 44
1.0
1001
ACAD
1000
MTEXTBEGIN
1070
    73
1070
     1
1070
    44
1040
1.0
1070
    74
1070
     0
1000
MTEXTEND
  0
POINT
  5
72CB
330
71D3
100
AcDbEntity
  8
Defpoints
  6
Continuous
 62
     0
100
AcDbPoint
 10
1558.606013078955
 20
939.7348597586093
 30
0.0
  0
POINT
  5
72CC
330
71D3
100
AcDbEntity
  8
Defpoints
  6
Continuous
 62
     0
100
AcDbPoint
 10
1578.606013078955
 20
925.1880654885274
 30
0.0
  0
POINT
  5
72CD
330
71D3
100
AcDbEntity
  8
Defpoints
  6
Continuous
 62
     0
100
AcDbPoint
 10
1578.606013078955
 20
962.7348597586093
 30
0.0
  0
ENDBLK
  5
71DE
330
71D3
100
AcDbEntity
  8
0
100
AcDbBlockEnd
  0
BLOCK
  5
71EA
330
71E0
100
AcDbEntity
  8
0
100
AcDbBlockBegin
  2
*D6
 70
     1
 10
0.0
 20
0.0
 30
0.0
  3
*D6
  1

  0
LINE
  5
72B3
330
71E0
100
AcDbEntity
  8
寸法
  6
Continuous
 62
     4
370
    -2
100
AcDbLine
 10
1545.406013078955
 20
924.7348597586094
 30
0.0
 11
1545.406013078955
 21
987.7348597586093
 31
0.0
  0
LINE
  5
72B4
330
71E0
100
AcDbEntity
  8
寸法
  6
Continuous
 62
     4
370
    -2
100
AcDbLine
 10
1995.406013078955
 20
861.8677738740307
 30
0.0
 11
1995.406013078955
 21
987.7348597586093
 31
0.0
  0
LINE
  5
72B5
330
71E0
100
AcDbEntity
  8
寸法
  6
Continuous
 62
     4
370
    -2
100
AcDbLine
 10
1546.406013078955
 20
987.7348597586093
 30
0.0
 11
1994.406013078955
 21
987.7348597586093
 31
0.0
  0
INSERT
  5
72B6
330
71E0
100
AcDbEntity
  8
寸法
  6
Continuous
 62
     4
370
    -2
100
AcDbBlockReference
  2
_Dot
 10
1545.406013078955
 20
987.7348597586093
 30
0.0
 50
180.0
  0
INSERT
  5
72B7
330
71E0
100
AcDbEntity
  8
寸法
  6
Continuous
 62
     4
370
    -2
100
AcDbBlockReference
  2
_Dot
 10
1995.406013078955
 20
987.7348597586093
 30
0.0
  0
MTEXT
  5
72B8
330
71E0
100
AcDbEntity
  8
寸法
  6
Continuous
 62
     3
100
AcDbMText
 10
1770.406013078955
 20
991.2348597586094
 30
0.0
 40
5.0
 41
0.0
 71
     5
 72
     1
  1
\A1;W
  7
ACAD
 73
     1
 44
1.0
1001
ACAD
1000
MTEXTBEGIN
1070
    73
1070
     1
1070
    44
1040
1.0
1070
    74
1070
     0
1000
MTEXTEND
  0
POINT
  5
72B9
330
71E0
100
AcDbEntity
  8
Defpoints
  6
Continuous
 62
     0
100
AcDbPoint
 10
1545.406013078955
 20
924.7348597586094
 30
0.0
  0
POINT
  5
72BA
330
71E0
100
AcDbEntity
  8
Defpoints
  6
Continuous
 62
     0
100
AcDbPoint
 10
1995.406013078955
 20
861.8677738740307
 30
0.0
  0
POINT
  5
72BB
330
71E0
100
AcDbEntity
  8
Defpoints
  6
Continuous
 62
     0
100
AcDbPoint
 10
1995.406013078955
 20
987.7348597586093
 30
0.0
  0
ENDBLK
  5
71EB
330
71E0
100
AcDbEntity
  8
0
100
AcDbBlockEnd
  0
BLOCK
  5
71F7
330
71ED
100
AcDbEntity
  8
0
100
AcDbBlockBegin
  2
*D7
 70
     1
 10
0.0
 20
0.0
 30
0.0
  3
*D7
  1

  0
LINE
  5
731E
330
71ED
100
AcDbEntity
  8
寸法
  6
Continuous
 62
     4
370
    -2
100
AcDbLine
 10
1571.406013078955
 20
937.7348597586093
 30
0.0
 11
1613.606013078955
 21
937.7348597586093
 31
0.0
  0
LINE
  5
731F
330
71ED
100
AcDbEntity
  8
寸法
  6
Continuous
 62
     4
370
    -2
100
AcDbLine
 10
1580.606013078955
 20
922.7348597586095
 30
0.0
 11
1613.606013078955
 21
922.7348597586095
 31
0.0
  0
LINE
  5
7320
330
71ED
100
AcDbEntity
  8
寸法
  6
Continuous
 62
     4
370
    -2
100
AcDbLine
 10
1613.606013078955
 20
936.7348597586094
 30
0.0
 11
1613.606013078955
 21
923.7348597586095
 31
0.0
  0
INSERT
  5
7321
330
71ED
100
AcDbEntity
  8
寸法
  6
Continuous
 62
     4
370
    -2
100
AcDbBlockReference
  2
_Dot
 10
1613.606013078955
 20
937.7348597586093
 30
0.0
 50
90.0
  0
INSERT
  5
7322
330
71ED
100
AcDbEntity
  8
寸法
  6
Continuous
 62
     4
370
    -2
100
AcDbBlockReference
  2
_Dot
 10
1613.606013078955
 20
922.7348597586095
 30
0.0
 50
270.0
  0
MTEXT
  5
7323
330
71ED
100
AcDbEntity
  8
寸法
  6
Continuous
 62
     3
100
AcDbMText
 10
1610.106013078955
 20
930.2348597586096
 30
0.0
 40
5.0
 41
0.0
 71
     5
 72
     1
  1
\A1;15
  7
ACAD
 11
0.0000000000000001
 21
1.0
 31
0.0
 73
     1
 44
1.0
1001
ACAD
1000
MTEXTBEGIN
1070
    73
1070
     1
1070
    44
1040
1.0
1070
    74
1070
     0
1000
MTEXTEND
  0
POINT
  5
7324
330
71ED
100
AcDbEntity
  8
Defpoints
  6
Continuous
 62
     0
100
AcDbPoint
 10
1571.406013078955
 20
937.7348597586093
 30
0.0
  0
POINT
  5
7325
330
71ED
100
AcDbEntity
  8
Defpoints
  6
Continuous
 62
     0
100
AcDbPoint
 10
1580.606013078955
 20
922.7348597586095
 30
0.0
  0
POINT
  5
7326
330
71ED
100
AcDbEntity
  8
Defpoints
  6
Continuous
 62
     0
100
AcDbPoint
 10
1613.606013078955
 20
922.7348597586095
 30
0.0
  0
ENDBLK
  5
71F8
330
71ED
100
AcDbEntity
  8
0
100
AcDbBlockEnd
  0
BLOCK
  5
7204
330
71FA
100
AcDbEntity
  8
0
100
AcDbBlockBegin
  2
*D8
 70
     1
 10
0.0
 20
0.0
 30
0.0
  3
*D8
  1

  0
LINE
  5
7315
330
71FA
100
AcDbEntity
  8
寸法
  6
Continuous
 62
     4
370
    -2
100
AcDbLine
 10
1580.606013078955
 20
922.7348597586095
 30
0.0
 11
1613.606013078955
 21
922.7348597586095
 31
0.0
  0
LINE
  5
7316
330
71FA
100
AcDbEntity
  8
寸法
  6
Continuous
 62
     4
370
    -2
100
AcDbLine
 10
1580.606013078955
 20
886.7348597586094
 30
0.0
 11
1613.606013078955
 21
886.7348597586094
 31
0.0
  0
LINE
  5
7317
330
71FA
100
AcDbEntity
  8
寸法
  6
Continuous
 62
     4
370
    -2
100
AcDbLine
 10
1613.606013078955
 20
921.7348597586093
 30
0.0
 11
1613.606013078955
 21
887.7348597586093
 31
0.0
  0
INSERT
  5
7318
330
71FA
100
AcDbEntity
  8
寸法
  6
Continuous
 62
     4
370
    -2
100
AcDbBlockReference
  2
_Dot
 10
1613.606013078955
 20
922.7348597586095
 30
0.0
 50
90.0
  0
INSERT
  5
7319
330
71FA
100
AcDbEntity
  8
寸法
  6
Continuous
 62
     4
370
    -2
100
AcDbBlockReference
  2
_Dot
 10
1613.606013078955
 20
886.7348597586094
 30
0.0
 50
270.0
  0
MTEXT
  5
731A
330
71FA
100
AcDbEntity
  8
寸法
  6
Continuous
 62
     3
100
AcDbMText
 10
1610.106013078955
 20
904.7348597586097
 30
0.0
 40
5.0
 41
0.0
 71
     5
 72
     1
  1
\A1;36
  7
ACAD
 11
0.0000000000000001
 21
1.0
 31
0.0
 73
     1
 44
1.0
1001
ACAD
1000
MTEXTBEGIN
1070
    73
1070
     1
1070
    44
1040
1.0
1070
    74
1070
     0
1000
MTEXTEND
  0
POINT
  5
731B
330
71FA
100
AcDbEntity
  8
Defpoints
  6
Continuous
 62
     0
100
AcDbPoint
 10
1580.606013078955
 20
922.7348597586095
 30
0.0
  0
POINT
  5
731C
330
71FA
100
AcDbEntity
  8
Defpoints
  6
Continuous
 62
     0
100
AcDbPoint
 10
1580.606013078955
 20
886.7348597586094
 30
0.0
  0
POINT
  5
731D
330
71FA
100
AcDbEntity
  8
Defpoints
  6
Continuous
 62
     0
100
AcDbPoint
 10
1613.606013078955
 20
886.7348597586094
 30
0.0
  0
ENDBLK
  5
7205
330
71FA
100
AcDbEntity
  8
0
100
AcDbBlockEnd
  0
BLOCK
  5
720F
330
7207
100
AcDbEntity
  8
0
100
AcDbBlockBegin
  2
*D9
 70
     1
 10
0.0
 20
0.0
 30
0.0
  3
*D9
  1

  0
LINE
  5
730E
330
7207
100
AcDbEntity
  8
寸法
  6
Continuous
 62
     4
370
    -2
100
AcDbLine
 10
1561.406013078955
 20
915.7348597586095
 30
0.0
 11
1994.406013078955
 21
915.7348597586095
 31
0.0
  0
INSERT
  5
730F
330
7207
100
AcDbEntity
  8
寸法
  6
Continuous
 62
     4
370
    -2
100
AcDbBlockReference
  2
_Dot
 10
1560.406013078955
 20
915.7348597586095
 30
0.0
 50
180.0
  0
INSERT
  5
7310
330
7207
100
AcDbEntity
  8
寸法
  6
Continuous
 62
     4
370
    -2
100
AcDbBlockReference
  2
_Dot
 10
1995.406013078955
 20
915.7348597586095
 30
0.0
  0
MTEXT
  5
7311
330
7207
100
AcDbEntity
  8
寸法
  6
Continuous
 62
     3
100
AcDbMText
 10
1777.906013078955
 20
919.2348597586095
 30
0.0
 40
5.0
 41
0.0
 71
     5
 72
     1
  1
\A1;A
  7
ACAD
 73
     1
 44
1.0
1001
ACAD
1000
MTEXTBEGIN
1070
    73
1070
     1
1070
    44
1040
1.0
1070
    74
1070
     0
1000
MTEXTEND
  0
POINT
  5
7312
330
7207
100
AcDbEntity
  8
Defpoints
  6
Continuous
 62
     0
100
AcDbPoint
 10
1560.406013078955
 20
915.7348597586095
 30
0.0
  0
POINT
  5
7313
330
7207
100
AcDbEntity
  8
Defpoints
  6
Continuous
 62
     0
100
AcDbPoint
 10
1995.406013078955
 20
915.7348597586095
 30
0.0
  0
POINT
  5
7314
330
7207
100
AcDbEntity
  8
Defpoints
  6
Continuous
 62
     0
100
AcDbPoint
 10
1995.406013078955
 20
915.7348597586095
 30
0.0
  0
ENDBLK
  5
7210
330
7207
100
AcDbEntity
  8
0
100
AcDbBlockEnd
  0
BLOCK
  5
721C
330
7212
100
AcDbEntity
  8
0
100
AcDbBlockBegin
  2
*D10
 70
     1
 10
0.0
 20
0.0
 30
0.0
  3
*D10
  1

  0
LINE
  5
7305
330
7212
100
AcDbEntity
  8
寸法
  6
Continuous
 62
     4
370
    -2
100
AcDbLine
 10
1997.406013078955
 20
859.867773874031
 30
0.0
 11
2055.406013078955
 21
859.867773874031
 31
0.0
  0
LINE
  5
7306
330
7212
100
AcDbEntity
  8
寸法
  6
Continuous
 62
     4
370
    -2
100
AcDbLine
 10
1997.406013078955
 20
769.8677738740307
 30
0.0
 11
2055.406013078955
 21
769.8677738740307
 31
0.0
  0
LINE
  5
7307
330
7212
100
AcDbEntity
  8
寸法
  6
Continuous
 62
     4
370
    -2
100
AcDbLine
 10
2055.406013078955
 20
858.867773874031
 30
0.0
 11
2055.406013078955
 21
770.8677738740306
 31
0.0
  0
INSERT
  5
7308
330
7212
100
AcDbEntity
  8
寸法
  6
Continuous
 62
     4
370
    -2
100
AcDbBlockReference
  2
_Dot
 10
2055.406013078955
 20
859.867773874031
 30
0.0
 50
90.0
  0
INSERT
  5
7309
330
7212
100
AcDbEntity
  8
寸法
  6
Continuous
 62
     4
370
    -2
100
AcDbBlockReference
  2
_Dot
 10
2055.406013078955
 20
769.8677738740307
 30
0.0
 50
270.0
  0
MTEXT
  5
730A
330
7212
100
AcDbEntity
  8
寸法
  6
Continuous
 62
     3
100
AcDbMText
 10
2051.906013078955
 20
814.8677738740312
 30
0.0
 40
5.0
 41
0.0
 71
     5
 72
     1
  1
\A1;90
  7
ACAD
 11
0.0000000000000001
 21
1.0
 31
0.0
 73
     1
 44
1.0
1001
ACAD
1000
MTEXTBEGIN
1070
    73
1070
     1
1070
    44
1040
1.0
1070
    74
1070
     0
1000
MTEXTEND
  0
POINT
  5
730B
330
7212
100
AcDbEntity
  8
Defpoints
  6
Continuous
 62
     0
100
AcDbPoint
 10
1997.406013078955
 20
859.867773874031
 30
0.0
  0
POINT
  5
730C
330
7212
100
AcDbEntity
  8
Defpoints
  6
Continuous
 62
     0
100
AcDbPoint
 10
1997.406013078955
 20
769.8677738740307
 30
0.0
  0
POINT
  5
730D
330
7212
100
AcDbEntity
  8
Defpoints
  6
Continuous
 62
     0
100
AcDbPoint
 10
2055.406013078955
 20
769.8677738740307
 30
0.0
  0
ENDBLK
  5
721D
330
7212
100
AcDbEntity
  8
0
100
AcDbBlockEnd
  0
BLOCK
  5
7229
330
721F
100
AcDbEntity
  8
0
100
AcDbBlockBegin
  2
*D11
 70
     1
 10
0.0
 20
0.0
 30
0.0
  3
*D11
  1

  0
LINE
  5
72FC
330
721F
100
AcDbEntity
  8
寸法
  6
Continuous
 62
     4
370
    -2
100
AcDbLine
 10
1923.371090331672
 20
812.2816540286912
 30
0.0
 11
2035.406013078955
 21
812.2816540286912
 31
0.0
  0
LINE
  5
72FD
330
721F
100
AcDbEntity
  8
寸法
  6
Continuous
 62
     4
370
    -2
100
AcDbLine
 10
1997.406013078955
 20
769.8677738740307
 30
0.0
 11
2035.406013078955
 21
769.8677738740307
 31
0.0
  0
LINE
  5
72FE
330
721F
100
AcDbEntity
  8
寸法
  6
Continuous
 62
     4
370
    -2
100
AcDbLine
 10
2035.406013078955
 20
811.2816540286912
 30
0.0
 11
2035.406013078955
 21
770.8677738740306
 31
0.0
  0
INSERT
  5
72FF
330
721F
100
AcDbEntity
  8
寸法
  6
Continuous
 62
     4
370
    -2
100
AcDbBlockReference
  2
_Dot
 10
2035.406013078955
 20
812.2816540286912
 30
0.0
 50
90.0
  0
INSERT
  5
7300
330
721F
100
AcDbEntity
  8
寸法
  6
Continuous
 62
     4
370
    -2
100
AcDbBlockReference
  2
_Dot
 10
2035.406013078955
 20
769.8677738740307
 30
0.0
 50
270.0
  0
MTEXT
  5
7301
330
721F
100
AcDbEntity
  8
寸法
  6
Continuous
 62
     3
100
AcDbMText
 10
2031.906013078955
 20
791.0747139513613
 30
0.0
 40
5.0
 41
0.0
 71
     5
 72
     1
  1
\A1;44
  7
ACAD
 11
0.0000000000000001
 21
1.0
 31
0.0
 73
     1
 44
1.0
1001
ACAD
1000
MTEXTBEGIN
1070
    73
1070
     1
1070
    44
1040
1.0
1070
    74
1070
     0
1000
MTEXTEND
  0
POINT
  5
7302
330
721F
100
AcDbEntity
  8
Defpoints
  6
Continuous
 62
     0
100
AcDbPoint
 10
1923.371090331672
 20
812.2816540286912
 30
0.0
  0
POINT
  5
7303
330
721F
100
AcDbEntity
  8
Defpoints
  6
Continuous
 62
     0
100
AcDbPoint
 10
1997.406013078955
 20
769.8677738740307
 30
0.0
  0
POINT
  5
7304
330
721F
100
AcDbEntity
  8
Defpoints
  6
Continuous
 62
     0
100
AcDbPoint
 10
2035.406013078955
 20
769.8677738740307
 30
0.0
  0
ENDBLK
  5
722A
330
721F
100
AcDbEntity
  8
0
100
AcDbBlockEnd
  0
BLOCK
  5
7235
330
722C
100
AcDbEntity
  8
0
100
AcDbBlockBegin
  2
*D12
 70
     1
 10
0.0
 20
0.0
 30
0.0
  3
*D12
  1

  0
LINE
  5
72ED
330
722C
100
AcDbEntity
  8
寸法
  6
Continuous
 62
     4
370
    -2
100
AcDbLine
 10
1995.406013078955
 20
767.8677738740307
 30
0.0
 11
1995.406013078955
 21
697.2816540286914
 31
0.0
  0
LINE
  5
72EE
330
722C
100
AcDbEntity
  8
寸法
  6
Continuous
 62
     4
370
    -2
100
AcDbLine
 10
1994.406013078955
 20
697.2816540286914
 30
0.0
 11
1920.406013078955
 21
697.2816540286914
 31
0.0
  0
INSERT
  5
72EF
330
722C
100
AcDbEntity
  8
寸法
  6
Continuous
 62
     4
370
    -2
100
AcDbBlockReference
  2
_Dot
 10
1995.406013078955
 20
697.2816540286914
 30
0.0
  0
INSERT
  5
72F0
330
722C
100
AcDbEntity
  8
寸法
  6
Continuous
 62
     4
370
    -2
100
AcDbBlockReference
  2
_Dot
 10
1919.406013078955
 20
697.2816540286914
 30
0.0
 50
180.0
  0
MTEXT
  5
72F1
330
722C
100
AcDbEntity
  8
寸法
  6
Continuous
 62
     3
100
AcDbMText
 10
1957.406013078955
 20
700.7816540286914
 30
0.0
 40
5.0
 41
0.0
 71
     5
 72
     1
  1
\A1;75≦
  7
ACAD
 73
     1
 44
1.0
1001
ACAD
1000
MTEXTBEGIN
1070
    73
1070
     1
1070
    44
1040
1.0
1070
    74
1070
     0
1000
MTEXTEND
  0
POINT
  5
72F2
330
722C
100
AcDbEntity
  8
Defpoints
  6
Continuous
 62
     0
100
AcDbPoint
 10
1995.406013078955
 20
767.8677738740307
 30
0.0
  0
POINT
  5
72F3
330
722C
100
AcDbEntity
  8
Defpoints
  6
Continuous
 62
     0
100
AcDbPoint
 10
1919.406013078955
 20
697.2816540286914
 30
0.0
  0
POINT
  5
72F4
330
722C
100
AcDbEntity
  8
Defpoints
  6
Continuous
 62
     0
100
AcDbPoint
 10
1919.406013078955
 20
697.2816540286914
 30
0.0
  0
ENDBLK
  5
7236
330
722C
100
AcDbEntity
  8
0
100
AcDbBlockEnd
  0
BLOCK
  5
7240
330
7238
100
AcDbEntity
  8
0
100
AcDbBlockBegin
  2
*D13
 70
     1
 10
0.0
 20
0.0
 30
0.0
  3
*D13
  1

  0
LINE
  5
72E6
330
7238
100
AcDbEntity
  8
寸法
  6
Continuous
 62
     4
370
    -2
100
AcDbLine
 10
1918.406013078955
 20
697.2816540286914
 30
0.0
 11
1745.406013078955
 21
697.2816540286914
 31
0.0
  0
INSERT
  5
72E7
330
7238
100
AcDbEntity
  8
寸法
  6
Continuous
 62
     4
370
    -2
100
AcDbBlockReference
  2
_Dot
 10
1919.406013078955
 20
697.2816540286914
 30
0.0
  0
INSERT
  5
72E8
330
7238
100
AcDbEntity
  8
寸法
  6
Continuous
 62
     4
370
    -2
100
AcDbBlockReference
  2
_Dot
 10
1744.406013078955
 20
697.2816540286914
 30
0.0
 50
180.0
  0
MTEXT
  5
72E9
330
7238
100
AcDbEntity
  8
寸法
  6
Continuous
 62
     3
100
AcDbMText
 10
1831.906013078955
 20
700.7816540286914
 30
0.0
 40
5.0
 41
0.0
 71
     5
 72
     1
  1
\A1;≦Ｃ
  7
ACAD
 73
     1
 44
1.0
1001
ACAD
1000
MTEXTBEGIN
1070
    73
1070
     1
1070
    44
1040
1.0
1070
    74
1070
     0
1000
MTEXTEND
  0
POINT
  5
72EA
330
7238
100
AcDbEntity
  8
Defpoints
  6
Continuous
 62
     0
100
AcDbPoint
 10
1919.406013078955
 20
697.2816540286914
 30
0.0
  0
POINT
  5
72EB
330
7238
100
AcDbEntity
  8
Defpoints
  6
Continuous
 62
     0
100
AcDbPoint
 10
1744.406013078955
 20
697.2816540286914
 30
0.0
  0
POINT
  5
72EC
330
7238
100
AcDbEntity
  8
Defpoints
  6
Continuous
 62
     0
100
AcDbPoint
 10
1744.406013078955
 20
697.2816540286914
 30
0.0
  0
ENDBLK
  5
7241
330
7238
100
AcDbEntity
  8
0
100
AcDbBlockEnd
  0
BLOCK
  5
724B
330
7243
100
AcDbEntity
  8
0
100
AcDbBlockBegin
  2
*D14
 70
     1
 10
0.0
 20
0.0
 30
0.0
  3
*D14
  1

  0
LINE
  5
72DF
330
7243
100
AcDbEntity
  8
寸法
  6
Continuous
 62
     4
370
    -2
100
AcDbLine
 10
1743.406013078955
 20
697.2816540286914
 30
0.0
 11
1545.406013078955
 21
697.2816540286914
 31
0.0
  0
INSERT
  5
72E0
330
7243
100
AcDbEntity
  8
寸法
  6
Continuous
 62
     4
370
    -2
100
AcDbBlockReference
  2
_Dot
 10
1744.406013078955
 20
697.2816540286914
 30
0.0
  0
INSERT
  5
72E1
330
7243
100
AcDbEntity
  8
寸法
  6
Continuous
 62
     4
370
    -2
100
AcDbBlockReference
  2
_Dot
 10
1544.406013078955
 20
697.2816540286914
 30
0.0
 50
180.0
  0
MTEXT
  5
72E2
330
7243
100
AcDbEntity
  8
寸法
  6
Continuous
 62
     3
100
AcDbMText
 10
1644.406013078955
 20
700.7816540286914
 30
0.0
 40
5.0
 41
0.0
 71
     5
 72
     1
  1
\A1;200
  7
ACAD
 73
     1
 44
1.0
1001
ACAD
1000
MTEXTBEGIN
1070
    73
1070
     1
1070
    44
1040
1.0
1070
    74
1070
     0
1000
MTEXTEND
  0
POINT
  5
72E3
330
7243
100
AcDbEntity
  8
Defpoints
  6
Continuous
 62
     0
100
AcDbPoint
 10
1744.406013078955
 20
697.2816540286914
 30
0.0
  0
POINT
  5
72E4
330
7243
100
AcDbEntity
  8
Defpoints
  6
Continuous
 62
     0
100
AcDbPoint
 10
1544.406013078955
 20
697.2816540286914
 30
0.0
  0
POINT
  5
72E5
330
7243
100
AcDbEntity
  8
Defpoints
  6
Continuous
 62
     0
100
AcDbPoint
 10
1544.406013078955
 20
697.2816540286914
 30
0.0
  0
ENDBLK
  5
724C
330
7243
100
AcDbEntity
  8
0
100
AcDbBlockEnd
  0
BLOCK
  5
7256
330
724E
100
AcDbEntity
  8
0
100
AcDbBlockBegin
  2
*D15
 70
     1
 10
0.0
 20
0.0
 30
0.0
  3
*D15
  1

  0
LINE
  5
72F5
330
724E
100
AcDbEntity
  8
寸法
  6
Continuous
 62
     4
370
    -2
100
AcDbLine
 10
1870.406013078955
 20
752.2816540286915
 30
0.0
 11
1918.406013078955
 21
752.2816540286915
 31
0.0
  0
INSERT
  5
72F6
330
724E
100
AcDbEntity
  8
寸法
  6
Continuous
 62
     4
370
    -2
100
AcDbBlockReference
  2
_Dot
 10
1869.406013078955
 20
752.2816540286915
 30
0.0
 50
180.0
  0
INSERT
  5
72F7
330
724E
100
AcDbEntity
  8
寸法
  6
Continuous
 62
     4
370
    -2
100
AcDbBlockReference
  2
_Dot
 10
1919.406013078955
 20
752.2816540286915
 30
0.0
  0
MTEXT
  5
72F8
330
724E
100
AcDbEntity
  8
寸法
  6
Continuous
 62
     3
100
AcDbMText
 10
1894.406013078955
 20
755.7816540286914
 30
0.0
 40
5.0
 41
0.0
 71
     5
 72
     1
  1
\A1;50
  7
ACAD
 73
     1
 44
1.0
1001
ACAD
1000
MTEXTBEGIN
1070
    73
1070
     1
1070
    44
1040
1.0
1070
    74
1070
     0
1000
MTEXTEND
  0
POINT
  5
72F9
330
724E
100
AcDbEntity
  8
Defpoints
  6
Continuous
 62
     0
100
AcDbPoint
 10
1869.406013078955
 20
752.2816540286915
 30
0.0
  0
POINT
  5
72FA
330
724E
100
AcDbEntity
  8
Defpoints
  6
Continuous
 62
     0
100
AcDbPoint
 10
1919.406013078955
 20
752.2816540286915
 30
0.0
  0
POINT
  5
72FB
330
724E
100
AcDbEntity
  8
Defpoints
  6
Continuous
 62
     0
100
AcDbPoint
 10
1919.406013078955
 20
752.2816540286915
 30
0.0
  0
ENDBLK
  5
7257
330
724E
100
AcDbEntity
  8
0
100
AcDbBlockEnd
  0
BLOCK
  5
7262
330
7259
100
AcDbEntity
  8
0
100
AcDbBlockBegin
  2
*D16
 70
     1
 10
0.0
 20
0.0
 30
0.0
  3
*D16
  1

  0
LINE
  5
72D7
330
7259
100
AcDbEntity
  8
寸法
  6
Continuous
 62
     4
370
    -2
100
AcDbLine
 10
1740.413623682772
 20
812.2816540286912
 30
0.0
 11
1489.406013078955
 21
812.2816540286912
 31
0.0
  0
LINE
  5
72D8
330
7259
100
AcDbEntity
  8
寸法
  6
Continuous
 62
     4
370
    -2
100
AcDbLine
 10
1489.406013078955
 20
813.2816540286912
 30
0.0
 11
1489.406013078955
 21
878.0348597586094
 31
0.0
  0
INSERT
  5
72D9
330
7259
100
AcDbEntity
  8
寸法
  6
Continuous
 62
     4
370
    -2
100
AcDbBlockReference
  2
_Dot
 10
1489.406013078955
 20
812.2816540286912
 30
0.0
 50
270.0
  0
INSERT
  5
72DA
330
7259
100
AcDbEntity
  8
寸法
  6
Continuous
 62
     4
370
    -2
100
AcDbBlockReference
  2
_Dot
 10
1489.406013078955
 20
879.0348597586094
 30
0.0
 50
90.0
  0
MTEXT
  5
72DB
330
7259
100
AcDbEntity
  8
寸法
  6
Continuous
 62
     3
100
AcDbMText
 10
1485.906013078954
 20
845.6582568936505
 30
0.0
 40
5.0
 41
0.0
 71
     5
 72
     1
  1
\A1;D
  7
ACAD
 11
0.0000000000000001
 21
1.0
 31
0.0
 73
     1
 44
1.0
1001
ACAD
1000
MTEXTBEGIN
1070
    73
1070
     1
1070
    44
1040
1.0
1070
    74
1070
     0
1000
MTEXTEND
  0
POINT
  5
72DC
330
7259
100
AcDbEntity
  8
Defpoints
  6
Continuous
 62
     0
100
AcDbPoint
 10
1740.413623682772
 20
812.2816540286912
 30
0.0
  0
POINT
  5
72DD
330
7259
100
AcDbEntity
  8
Defpoints
  6
Continuous
 62
     0
100
AcDbPoint
 10
1489.406013078955
 20
879.0348597586094
 30
0.0
  0
POINT
  5
72DE
330
7259
100
AcDbEntity
  8
Defpoints
  6
Continuous
 62
     0
100
AcDbPoint
 10
1489.406013078955
 20
879.0348597586094
 30
0.0
  0
ENDBLK
  5
7263
330
7259
100
AcDbEntity
  8
0
100
AcDbBlockEnd
  0
BLOCK
  5
726F
330
7265
100
AcDbEntity
  8
0
100
AcDbBlockBegin
  2
*D17
 70
     1
 10
0.0
 20
0.0
 30
0.0
  3
*D17
  1

  0
LINE
  5
72CE
330
7265
100
AcDbEntity
  8
寸法
  6
Continuous
 62
     4
370
    -2
100
AcDbLine
 10
1542.406013078955
 20
937.7348597586093
 30
0.0
 11
1469.406013078955
 21
937.7348597586093
 31
0.0
  0
LINE
  5
72CF
330
7265
100
AcDbEntity
  8
寸法
  6
Continuous
 62
     4
370
    -2
100
AcDbLine
 10
1602.909818380863
 20
812.2816540286912
 30
0.0
 11
1469.406013078955
 21
812.2816540286912
 31
0.0
  0
LINE
  5
72D0
330
7265
100
AcDbEntity
  8
寸法
  6
Continuous
 62
     4
370
    -2
100
AcDbLine
 10
1469.406013078955
 20
936.7348597586094
 30
0.0
 11
1469.406013078955
 21
813.2816540286912
 31
0.0
  0
INSERT
  5
72D1
330
7265
100
AcDbEntity
  8
寸法
  6
Continuous
 62
     4
370
    -2
100
AcDbBlockReference
  2
_Dot
 10
1469.406013078955
 20
937.7348597586093
 30
0.0
 50
90.0
  0
INSERT
  5
72D2
330
7265
100
AcDbEntity
  8
寸法
  6
Continuous
 62
     4
370
    -2
100
AcDbBlockReference
  2
_Dot
 10
1469.406013078955
 20
812.2816540286912
 30
0.0
 50
270.0
  0
MTEXT
  5
72D3
330
7265
100
AcDbEntity
  8
寸法
  6
Continuous
 62
     3
100
AcDbMText
 10
1465.906013078955
 20
875.0082568936505
 30
0.0
 40
5.0
 41
0.0
 71
     5
 72
     1
  1
\A1;E
  7
ACAD
 11
0.0000000000000001
 21
1.0
 31
0.0
 73
     1
 44
1.0
1001
ACAD
1000
MTEXTBEGIN
1070
    73
1070
     1
1070
    44
1040
1.0
1070
    74
1070
     0
1000
MTEXTEND
  0
POINT
  5
72D4
330
7265
100
AcDbEntity
  8
Defpoints
  6
Continuous
 62
     0
100
AcDbPoint
 10
1542.406013078955
 20
937.7348597586093
 30
0.0
  0
POINT
  5
72D5
330
7265
100
AcDbEntity
  8
Defpoints
  6
Continuous
 62
     0
100
AcDbPoint
 10
1602.909818380863
 20
812.2816540286912
 30
0.0
  0
POINT
  5
72D6
330
7265
100
AcDbEntity
  8
Defpoints
  6
Continuous
 62
     0
100
AcDbPoint
 10
1469.406013078955
 20
812.2816540286912
 30
0.0
  0
ENDBLK
  5
7270
330
7265
100
AcDbEntity
  8
0
100
AcDbBlockEnd
  0
BLOCK
  5
733A
330
7330
100
AcDbEntity
  8
0
100
AcDbBlockBegin
  2
*D18
 70
     1
 10
0.0
 20
0.0
 30
0.0
  3
*D18
  1

  0
LINE
  5
7345
330
7330
100
AcDbEntity
  8
寸法
  6
Continuous
 62
     4
370
    -2
100
AcDbLine
 10
1560.406013078955
 20
896.6651578621538
 30
0.0
 11
1560.406013078955
 21
915.7348597586095
 31
0.0
  0
LINE
  5
7346
330
7330
100
AcDbEntity
  8
寸法
  6
Continuous
 62
     4
370
    -2
100
AcDbLine
 10
1995.406013078955
 20
896.6651578621538
 30
0.0
 11
1995.406013078955
 21
915.7348597586095
 31
0.0
  0
LINE
  5
7347
330
7330
100
AcDbEntity
  8
寸法
  6
Continuous
 62
     4
370
    -2
100
AcDbLine
 10
1561.406013078955
 20
915.7348597586095
 30
0.0
 11
1994.406013078955
 21
915.7348597586095
 31
0.0
  0
INSERT
  5
7348
330
7330
100
AcDbEntity
  8
寸法
  6
Continuous
 62
     4
370
    -2
100
AcDbBlockReference
  2
_Dot
 10
1560.406013078955
 20
915.7348597586095
 30
0.0
 50
180.0
  0
INSERT
  5
7349
330
7330
100
AcDbEntity
  8
寸法
  6
Continuous
 62
     4
370
    -2
100
AcDbBlockReference
  2
_Dot
 10
1995.406013078955
 20
915.7348597586095
 30
0.0
  0
MTEXT
  5
734A
330
7330
100
AcDbEntity
  8
寸法
  6
Continuous
 62
     3
100
AcDbMText
 10
1777.906013078955
 20
919.2348597586095
 30
0.0
 40
5.0
 41
0.0
 71
     5
 72
     1
  1
\A1;A
  7
ACAD
 73
     1
 44
1.0
1001
ACAD
1000
MTEXTBEGIN
1070
    73
1070
     1
1070
    44
1040
1.0
1070
    74
1070
     0
1000
MTEXTEND
  0
POINT
  5
734B
330
7330
100
AcDbEntity
  8
Defpoints
  6
Continuous
 62
     0
100
AcDbPoint
 10
1560.406013078955
 20
896.6651578621538
 30
0.0
  0
POINT
  5
734C
330
7330
100
AcDbEntity
  8
Defpoints
  6
Continuous
 62
     0
100
AcDbPoint
 10
1995.406013078955
 20
896.6651578621538
 30
0.0
  0
POINT
  5
734D
330
7330
100
AcDbEntity
  8
Defpoints
  6
Continuous
 62
     0
100
AcDbPoint
 10
1995.406013078955
 20
915.7348597586095
 30
0.0
  0
ENDBLK
  5
733B
330
7330
100
AcDbEntity
  8
0
100
AcDbBlockEnd
  0
ENDSEC
  0
SECTION
  2
ENTITIES
  0
LINE
  5
6CAA
330
1E
100
AcDbEntity
  8
図枠
  6
Continuous
 62
     7
100
AcDbLine
 10
1358.406013078955
 20
436.9020429928434
 30
0.0
 11
2182.406013078955
 21
436.9020429928434
 31
0.0
  0
LINE
  5
6CAB
330
1E
100
AcDbEntity
  8
図枠
  6
Continuous
 62
     7
100
AcDbLine
 10
2182.406013078955
 20
436.9020429928434
 30
0.0
 11
2182.406013078955
 21
1012.902042992843
 31
0.0
  0
LINE
  5
6CAC
330
1E
100
AcDbEntity
  8
図枠
  6
Continuous
 62
     7
100
AcDbLine
 10
2182.406013078955
 20
1012.902042992843
 30
0.0
 11
1358.406013078955
 21
1012.902042992843
 31
0.0
  0
LINE
  5
6CAD
330
1E
100
AcDbEntity
  8
図枠
  6
Continuous
 62
     7
100
AcDbLine
 10
1358.406013078955
 20
1012.902042992843
 30
0.0
 11
1358.406013078955
 21
436.9020429928434
 31
0.0
  0
TEXT
  5
6CAE
330
1E
100
AcDbEntity
  8
図枠
 62
     7
100
AcDbText
 10
1377.952521788089
 20
974.3716751495957
 30
0.0
 40
5.0
  1
　　Ｓ＝１／２
100
AcDbText
  0
TEXT
  5
6CAF
330
1E
100
AcDbEntity
  8
図枠
 62
     7
100
AcDbText
 10
1525.906013078955
 20
657.4020429928435
 30
0.0
 40
5.0
  1
部材名称
100
AcDbText
  0
TEXT
  5
6CB0
330
1E
100
AcDbEntity
  8
図枠
 62
     7
100
AcDbText
 10
1626.906013078954
 20
657.4020429928435
 30
0.0
 40
5.0
  1
規　格
100
AcDbText
  0
TEXT
  5
6CB1
330
1E
100
AcDbEntity
  8
図枠
 62
     7
100
AcDbText
 10
1494.406013078955
 20
630.4020429928433
 30
0.0
 40
5.0
  1
ＦＹＹフレーム
100
AcDbText
  0
TEXT
  5
6CB2
330
1E
100
AcDbEntity
  8
図枠
 62
     7
100
AcDbText
 10
1494.406013078955
 20
621.4020429928434
 30
0.0
 40
5.0
  1
ＦＹＫ壁フレーム
100
AcDbText
  0
TEXT
  5
6CB3
330
1E
100
AcDbEntity
  8
図枠
 62
     7
100
AcDbText
 10
1494.406013078955
 20
603.4020429928435
 30
0.0
 40
5.0
  1
ＦＹＫホルダー
100
AcDbText
  0
TEXT
  5
6CB4
330
1E
100
AcDbEntity
  8
図枠
 62
     7
100
AcDbText
 10
1494.406013078955
 20
594.4020429928435
 30
0.0
 40
5.0
  1
ＦＹＹホルダースプリング
100
AcDbText
  0
TEXT
  5
6CB5
330
1E
100
AcDbEntity
  8
図枠
 62
     7
100
AcDbText
 10
1494.406013078955
 20
585.4020429928434
 30
0.0
 40
5.0
  1
ＦＹＹフレームナット
100
AcDbText
  0
TEXT
  5
6CB6
330
1E
100
AcDbEntity
  8
図枠
 62
     7
100
AcDbText
 10
1494.406013078955
 20
576.4020429928434
 30
0.0
 40
5.0
  1
ＦＹＫ水切ジョイント
100
AcDbText
  0
TEXT
  5
6CB7
330
1E
100
AcDbEntity
  8
図枠
 62
     7
100
AcDbText
 10
1494.406013078955
 20
567.4020429928434
 30
0.0
 40
5.0
  1
ＦＹＫｻｲﾄﾞｷｬｯﾌﾟ ｼﾞｮｲﾝﾄ
100
AcDbText
  0
TEXT
  5
6CB8
330
1E
100
AcDbEntity
  8
図枠
 62
     7
100
AcDbText
 10
1494.406013078955
 20
558.4020429928434
 30
0.0
 40
5.0
  1
止水補助板
100
AcDbText
  0
TEXT
  5
6CB9
330
1E
100
AcDbEntity
  8
図枠
 62
     7
100
AcDbText
 10
1594.406013078955
 20
558.4020429928434
 30
0.0
 40
5.0
  1
ＰＳ
100
AcDbText
  0
TEXT
  5
6CBA
330
1E
100
AcDbEntity
  8
図枠
 62
     7
100
AcDbText
 10
1494.406013078955
 20
549.4020429928434
 30
0.0
 40
5.0
  1
止水補助板
100
AcDbText
  0
TEXT
  5
6CBB
330
1E
100
AcDbEntity
  8
図枠
 62
     7
100
AcDbText
 10
1494.406013078955
 20
540.4020429928435
 30
0.0
 40
5.0
  1
ガスケットＮ
100
AcDbText
  0
TEXT
  5
6CBC
330
1E
100
AcDbEntity
  8
図枠
 62
     7
100
AcDbText
 10
1494.406013078955
 20
531.4020429928434
 30
0.0
 40
5.0
  1
ステン小ネジ
100
AcDbText
  0
TEXT
  5
6CBD
330
1E
100
AcDbEntity
  8
図枠
 62
     7
100
AcDbText
 10
1594.406013078955
 20
531.4020429928434
 30
0.0
 40
5.0
  1
ナベＭ6×35
100
AcDbText
  0
TEXT
  5
6CBE
330
1E
100
AcDbEntity
  8
図枠
 62
     7
100
AcDbText
 10
1494.406013078955
 20
522.4020429928434
 30
0.0
 40
5.0
  1
ステン小ネジ
100
AcDbText
  0
TEXT
  5
6CBF
330
1E
100
AcDbEntity
  8
図枠
 62
     7
100
AcDbText
 10
1594.406013078955
 20
522.4020429928434
 30
0.0
 40
5.0
  1
ナベＭ4×10
100
AcDbText
  0
TEXT
  5
6CC0
330
1E
100
AcDbEntity
  8
図枠
 62
     7
100
AcDbText
 10
1494.406013078955
 20
513.4020429928434
 30
0.0
 40
5.0
  1
ステン六角ボルト
100
AcDbText
  0
TEXT
  5
6CC1
330
1E
100
AcDbEntity
  8
図枠
 62
     7
100
AcDbText
 10
1594.406013078955
 20
513.4020429928434
 30
0.0
 40
5.0
  1
Ｍ6×40
100
AcDbText
  0
TEXT
  5
6CC2
330
1E
100
AcDbEntity
  8
図枠
 62
     7
100
AcDbText
 10
1494.406013078955
 20
504.4020429928435
 30
0.0
 40
5.0
  1
アジャストアンカー
100
AcDbText
  0
TEXT
  5
6CC3
330
1E
100
AcDbEntity
  8
図枠
 62
     7
100
AcDbText
 10
1594.406013078955
 20
504.4020429928435
 30
0.0
 40
5.0
  1
ＡＧ－660
100
AcDbText
  0
TEXT
  5
6CC4
330
1E
100
AcDbEntity
  8
図枠
 62
     7
100
AcDbText
 10
1494.406013078955
 20
495.4020429928434
 30
0.0
 40
5.0
  1
アンカープラグ
100
AcDbText
  0
TEXT
  5
6CC5
330
1E
100
AcDbEntity
  8
図枠
 62
     7
100
AcDbText
 10
1594.406013078955
 20
495.4020429928434
 30
0.0
 40
5.0
  1
フィッシャープラグ　Ｓ8
100
AcDbText
  0
TEXT
  5
6CC6
330
1E
100
AcDbEntity
  8
図枠
 62
     7
100
AcDbText
 10
1494.406013078955
 20
486.4020429928435
 30
0.0
 40
5.0
  1
ステンタッピンねじ
100
AcDbText
  0
TEXT
  5
6CC7
330
1E
100
AcDbEntity
  8
図枠
 62
     7
100
AcDbText
 10
1594.406013078955
 20
486.4020429928435
 30
0.0
 40
5.0
  1
ナベ 5×50
100
AcDbText
  0
TEXT
  5
6CC8
330
1E
100
AcDbEntity
  8
図枠
 62
     7
100
AcDbText
 10
1494.406013078955
 20
477.4020429928435
 30
0.0
 40
5.0
  1
ステスワッシャー
100
AcDbText
  0
TEXT
  5
6CC9
330
1E
100
AcDbEntity
  8
図枠
 62
     7
100
AcDbText
 10
1594.406013078955
 20
477.4020429928435
 30
0.0
 40
5.0
  1
1.5×18×6.5穴
100
AcDbText
  0
TEXT
  5
6CCA
330
1E
100
AcDbEntity
  8
図枠
 62
     7
100
AcDbText
 10
1494.406013078955
 20
468.4020429928434
 30
0.0
 40
5.0
  1
ステンワッシャー
100
AcDbText
  0
TEXT
  5
6CCB
330
1E
100
AcDbEntity
  8
図枠
 62
     7
100
AcDbText
 10
1594.406013078955
 20
468.4020429928434
 30
0.0
 40
5.0
  1
1.5×18×5.5穴
100
AcDbText
  0
TEXT
  5
6CCC
330
1E
100
AcDbEntity
  8
図枠
 62
     7
100
AcDbText
 10
1494.406013078955
 20
459.4020429928434
 30
0.0
 40
5.0
  1
ブチルテープ
100
AcDbText
  0
LINE
  5
6CCD
330
1E
100
AcDbEntity
  8
図枠
  6
Continuous
 62
     7
100
AcDbLine
 10
1489.406013078955
 20
457.9020429928434
 30
0.0
 11
1489.406013078955
 21
664.9020429928434
 31
0.0
  0
LINE
  5
6CCE
330
1E
100
AcDbEntity
  8
図枠
  6
Continuous
 62
     7
100
AcDbLine
 10
1589.406013078955
 20
457.9020429928434
 30
0.0
 11
1589.406013078955
 21
664.9020429928434
 31
0.0
  0
LINE
  5
6CCF
330
1E
100
AcDbEntity
  8
図枠
  6
Continuous
 62
     7
100
AcDbLine
 10
1684.406013078955
 20
457.9020429928434
 30
0.0
 11
1684.406013078955
 21
664.9020429928434
 31
0.0
  0
LINE
  5
6CD0
330
1E
100
AcDbEntity
  8
図枠
  6
Continuous
 62
     7
100
AcDbLine
 10
1684.406013078955
 20
664.9020429928434
 30
0.0
 11
1475.406013078955
 21
664.9020429928434
 31
0.0
  0
LINE
  5
6CD1
330
1E
100
AcDbEntity
  8
図枠
  6
Continuous
 62
     7
100
AcDbLine
 10
1684.406013078955
 20
655.9020429928434
 30
0.0
 11
1475.406013078955
 21
655.9020429928434
 31
0.0
  0
LINE
  5
6CD2
330
1E
100
AcDbEntity
  8
図枠
  6
Continuous
 62
     7
100
AcDbLine
 10
1684.406013078955
 20
646.9020429928434
 30
0.0
 11
1475.406013078955
 21
646.9020429928434
 31
0.0
  0
LINE
  5
6CD3
330
1E
100
AcDbEntity
  8
図枠
  6
Continuous
 62
     7
100
AcDbLine
 10
1684.406013078955
 20
637.9020429928434
 30
0.0
 11
1475.406013078955
 21
637.9020429928434
 31
0.0
  0
LINE
  5
6CD4
330
1E
100
AcDbEntity
  8
図枠
  6
Continuous
 62
     7
100
AcDbLine
 10
1684.406013078955
 20
628.9020429928434
 30
0.0
 11
1475.406013078955
 21
628.9020429928434
 31
0.0
  0
LINE
  5
6CD5
330
1E
100
AcDbEntity
  8
図枠
  6
Continuous
 62
     7
100
AcDbLine
 10
1684.406013078955
 20
619.9020429928435
 30
0.0
 11
1475.406013078955
 21
619.9020429928435
 31
0.0
  0
LINE
  5
6CD6
330
1E
100
AcDbEntity
  8
図枠
  6
Continuous
 62
     7
100
AcDbLine
 10
1684.406013078955
 20
610.9020429928435
 30
0.0
 11
1475.406013078955
 21
610.9020429928435
 31
0.0
  0
LINE
  5
6CD7
330
1E
100
AcDbEntity
  8
図枠
  6
Continuous
 62
     7
100
AcDbLine
 10
1684.406013078955
 20
601.9020429928434
 30
0.0
 11
1475.406013078955
 21
601.9020429928434
 31
0.0
  0
LINE
  5
6CD8
330
1E
100
AcDbEntity
  8
図枠
  6
Continuous
 62
     7
100
AcDbLine
 10
1684.406013078955
 20
592.9020429928434
 30
0.0
 11
1475.406013078955
 21
592.9020429928434
 31
0.0
  0
LINE
  5
6CD9
330
1E
100
AcDbEntity
  8
図枠
  6
Continuous
 62
     7
100
AcDbLine
 10
1684.406013078955
 20
583.9020429928434
 30
0.0
 11
1475.406013078955
 21
583.9020429928434
 31
0.0
  0
LINE
  5
6CDA
330
1E
100
AcDbEntity
  8
図枠
  6
Continuous
 62
     7
100
AcDbLine
 10
1684.406013078955
 20
574.9020429928434
 30
0.0
 11
1475.406013078955
 21
574.9020429928434
 31
0.0
  0
LINE
  5
6CDB
330
1E
100
AcDbEntity
  8
図枠
  6
Continuous
 62
     7
100
AcDbLine
 10
1684.406013078955
 20
565.9020429928435
 30
0.0
 11
1475.406013078955
 21
565.9020429928435
 31
0.0
  0
LINE
  5
6CDC
330
1E
100
AcDbEntity
  8
図枠
  6
Continuous
 62
     7
100
AcDbLine
 10
1684.406013078955
 20
556.9020429928435
 30
0.0
 11
1475.406013078955
 21
556.9020429928435
 31
0.0
  0
LINE
  5
6CDD
330
1E
100
AcDbEntity
  8
図枠
  6
Continuous
 62
     7
100
AcDbLine
 10
1684.406013078955
 20
547.9020429928434
 30
0.0
 11
1475.406013078955
 21
547.9020429928434
 31
0.0
  0
LINE
  5
6CDE
330
1E
100
AcDbEntity
  8
図枠
  6
Continuous
 62
     7
100
AcDbLine
 10
1684.406013078955
 20
538.9020429928434
 30
0.0
 11
1475.406013078955
 21
538.9020429928434
 31
0.0
  0
LINE
  5
6CDF
330
1E
100
AcDbEntity
  8
図枠
  6
Continuous
 62
     7
100
AcDbLine
 10
1684.406013078955
 20
529.9020429928434
 30
0.0
 11
1475.406013078955
 21
529.9020429928434
 31
0.0
  0
LINE
  5
6CE0
330
1E
100
AcDbEntity
  8
図枠
  6
Continuous
 62
     7
100
AcDbLine
 10
1684.406013078955
 20
520.9020429928434
 30
0.0
 11
1475.406013078955
 21
520.9020429928434
 31
0.0
  0
LINE
  5
6CE1
330
1E
100
AcDbEntity
  8
図枠
  6
Continuous
 62
     7
100
AcDbLine
 10
1684.406013078955
 20
511.9020429928434
 30
0.0
 11
1475.406013078955
 21
511.9020429928434
 31
0.0
  0
LINE
  5
6CE2
330
1E
100
AcDbEntity
  8
図枠
  6
Continuous
 62
     7
100
AcDbLine
 10
1684.406013078955
 20
502.9020429928435
 30
0.0
 11
1475.406013078955
 21
502.9020429928435
 31
0.0
  0
LINE
  5
6CE3
330
1E
100
AcDbEntity
  8
図枠
  6
Continuous
 62
     7
100
AcDbLine
 10
1684.406013078955
 20
493.9020429928435
 30
0.0
 11
1475.406013078955
 21
493.9020429928435
 31
0.0
  0
LINE
  5
6CE4
330
1E
100
AcDbEntity
  8
図枠
  6
Continuous
 62
     7
100
AcDbLine
 10
1684.406013078955
 20
484.9020429928436
 30
0.0
 11
1475.406013078955
 21
484.9020429928436
 31
0.0
  0
LINE
  5
6CE5
330
1E
100
AcDbEntity
  8
図枠
  6
Continuous
 62
     7
100
AcDbLine
 10
1684.406013078955
 20
475.9020429928435
 30
0.0
 11
1475.406013078955
 21
475.9020429928435
 31
0.0
  0
LINE
  5
6CE6
330
1E
100
AcDbEntity
  8
図枠
  6
Continuous
 62
     7
100
AcDbLine
 10
1684.406013078955
 20
466.9020429928434
 30
0.0
 11
1475.406013078955
 21
466.9020429928434
 31
0.0
  0
LINE
  5
6CE7
330
1E
100
AcDbEntity
  8
図枠
  6
Continuous
 62
     7
100
AcDbLine
 10
1684.406013078955
 20
457.9020429928434
 30
0.0
 11
1475.406013078955
 21
457.9020429928434
 31
0.0
  0
LINE
  5
6CE8
330
1E
100
AcDbEntity
  8
図枠
  6
Continuous
 62
     7
100
AcDbLine
 10
1475.406013078955
 20
457.9020429928434
 30
0.0
 11
1475.406013078955
 21
664.9020429928434
 31
0.0
  0
TEXT
  5
6CE9
330
1E
100
AcDbEntity
  8
図枠
 62
     7
100
AcDbText
 10
1477.406013078955
 20
657.4020429928435
 30
0.0
 40
5.0
  1
No.
100
AcDbText
  0
TEXT
  5
6CEA
330
1E
100
AcDbEntity
  8
図枠
 62
     7
100
AcDbText
 10
1479.156013078955
 20
648.4020429928435
 30
0.0
 40
5.0
  1
 1
100
AcDbText
  0
TEXT
  5
6CEB
330
1E
100
AcDbEntity
  8
図枠
 62
     7
100
AcDbText
 10
1479.156013078955
 20
639.4020429928434
 30
0.0
 40
5.0
  1
 2
100
AcDbText
  0
TEXT
  5
6CEC
330
1E
100
AcDbEntity
  8
図枠
 62
     7
100
AcDbText
 10
1479.156013078955
 20
630.4020429928433
 30
0.0
 40
5.0
  1
 3
100
AcDbText
  0
TEXT
  5
6CED
330
1E
100
AcDbEntity
  8
図枠
 62
     7
100
AcDbText
 10
1479.156013078955
 20
621.4020429928434
 30
0.0
 40
5.0
  1
 4
100
AcDbText
  0
TEXT
  5
6CEE
330
1E
100
AcDbEntity
  8
図枠
 62
     7
100
AcDbText
 10
1479.156013078955
 20
612.4020429928434
 30
0.0
 40
5.0
  1
 5
100
AcDbText
  0
TEXT
  5
6CEF
330
1E
100
AcDbEntity
  8
図枠
 62
     7
100
AcDbText
 10
1479.156013078955
 20
603.4020429928435
 30
0.0
 40
5.0
  1
 6
100
AcDbText
  0
TEXT
  5
6CF0
330
1E
100
AcDbEntity
  8
図枠
 62
     7
100
AcDbText
 10
1479.156013078955
 20
594.4020429928435
 30
0.0
 40
5.0
  1
 7
100
AcDbText
  0
TEXT
  5
6CF1
330
1E
100
AcDbEntity
  8
図枠
 62
     7
100
AcDbText
 10
1479.156013078955
 20
585.4020429928434
 30
0.0
 40
5.0
  1
 8
100
AcDbText
  0
TEXT
  5
6CF2
330
1E
100
AcDbEntity
  8
図枠
 62
     7
100
AcDbText
 10
1479.156013078955
 20
576.4020429928434
 30
0.0
 40
5.0
  1
 9
100
AcDbText
  0
TEXT
  5
6CF3
330
1E
100
AcDbEntity
  8
図枠
 62
     7
100
AcDbText
 10
1479.156013078955
 20
567.4020429928434
 30
0.0
 40
5.0
  1
10
100
AcDbText
  0
TEXT
  5
6CF4
330
1E
100
AcDbEntity
  8
図枠
 62
     7
100
AcDbText
 10
1479.156013078955
 20
558.4020429928434
 30
0.0
 40
5.0
  1
11
100
AcDbText
  0
TEXT
  5
6CF5
330
1E
100
AcDbEntity
  8
図枠
 62
     7
100
AcDbText
 10
1479.156013078955
 20
549.4020429928434
 30
0.0
 40
5.0
  1
12
100
AcDbText
  0
TEXT
  5
6CF6
330
1E
100
AcDbEntity
  8
図枠
 62
     7
100
AcDbText
 10
1479.156013078955
 20
540.4020429928435
 30
0.0
 40
5.0
  1
13
100
AcDbText
  0
TEXT
  5
6CF7
330
1E
100
AcDbEntity
  8
図枠
 62
     7
100
AcDbText
 10
1479.156013078955
 20
531.4020429928434
 30
0.0
 40
5.0
  1
14
100
AcDbText
  0
TEXT
  5
6CF8
330
1E
100
AcDbEntity
  8
図枠
 62
     7
100
AcDbText
 10
1479.156013078955
 20
522.4020429928434
 30
0.0
 40
5.0
  1
15
100
AcDbText
  0
TEXT
  5
6CF9
330
1E
100
AcDbEntity
  8
図枠
 62
     7
100
AcDbText
 10
1479.156013078955
 20
513.4020429928434
 30
0.0
 40
5.0
  1
16
100
AcDbText
  0
TEXT
  5
6CFA
330
1E
100
AcDbEntity
  8
図枠
 62
     7
100
AcDbText
 10
1479.156013078955
 20
504.4020429928435
 30
0.0
 40
5.0
  1
17
100
AcDbText
  0
TEXT
  5
6CFB
330
1E
100
AcDbEntity
  8
図枠
 62
     7
100
AcDbText
 10
1479.156013078955
 20
495.4020429928434
 30
0.0
 40
5.0
  1
18
100
AcDbText
  0
TEXT
  5
6CFC
330
1E
100
AcDbEntity
  8
図枠
 62
     7
100
AcDbText
 10
1479.156013078955
 20
486.4020429928435
 30
0.0
 40
5.0
  1
19
100
AcDbText
  0
TEXT
  5
6CFD
330
1E
100
AcDbEntity
  8
図枠
 62
     7
100
AcDbText
 10
1479.156013078955
 20
477.4020429928435
 30
0.0
 40
5.0
  1
20
100
AcDbText
  0
TEXT
  5
6CFE
330
1E
100
AcDbEntity
  8
図枠
 62
     7
100
AcDbText
 10
1479.156013078955
 20
468.4020429928434
 30
0.0
 40
5.0
  1
21
100
AcDbText
  0
TEXT
  5
6CFF
330
1E
100
AcDbEntity
  8
図枠
 62
     7
100
AcDbText
 10
1479.406013078954
 20
459.4020429928434
 30
0.0
 40
5.0
  1
※
100
AcDbText
  0
TEXT
  5
6D00
330
1E
100
AcDbEntity
  8
図枠
 62
     7
100
AcDbText
 10
1594.406013078955
 20
459.4020429928434
 30
0.0
 40
5.0
  1
ｔ1.0×ｗ30
100
AcDbText
  0
TEXT
  5
6D01
330
1E
100
AcDbEntity
  8
図枠
 62
     7
100
AcDbText
 10
1377.952521788089
 20
984.3716751495957
 30
0.0
 40
5.0
  1
　　屋根－壁（ストレート壁）
100
AcDbText
  0
TEXT
  5
6D02
330
1E
100
AcDbEntity
  8
図枠
 62
     7
100
AcDbText
 10
1594.406013078955
 20
603.4020429928435
 30
0.0
 40
5.0
  1
200ＦＹＫＨ－375～550
100
AcDbText
  0
TEXT
  5
6D03
330
1E
100
AcDbEntity
  8
図枠
 62
     7
100
AcDbText
 10
1594.406013078955
 20
576.4020429928434
 30
0.0
 40
5.0
  1
200ＦＹＫＪ－375～550
100
AcDbText
  0
TEXT
  5
6D04
330
1E
100
AcDbEntity
  8
図枠
 62
     7
100
AcDbText
 10
1594.406013078955
 20
549.4020429928434
 30
0.0
 40
5.0
  1
ＦＳ500～700
100
AcDbText
  0
TEXT
  5
6D05
330
1E
100
AcDbEntity
  8
図枠
 62
     7
100
AcDbText
 10
1377.952521788089
 20
994.3716751495957
 30
0.0
 40
5.0
  1
◇ステンレス２００タイプ（２００ＦＹＫ－Ｓ）
100
AcDbText
  0
TEXT
  5
6D06
330
1E
100
AcDbEntity
  8
図枠
 62
     7
100
AcDbText
 10
1494.406013078955
 20
648.4020429928435
 30
0.0
 40
5.0
  1
ＦＹＫキャップＳ
100
AcDbText
  0
TEXT
  5
6D07
330
1E
100
AcDbEntity
  8
図枠
 62
     7
100
AcDbText
 10
1494.406013078955
 20
639.4020429928434
 30
0.0
 40
5.0
  1
ＦＹＫサイドキャップＳ
100
AcDbText
  0
TEXT
  5
6D08
330
1E
100
AcDbEntity
  8
図枠
 62
     7
100
AcDbText
 10
1594.406013078955
 20
648.4020429928435
 30
0.0
 40
5.0
  1
200ＦＹＫ－Ｓ375～550
100
AcDbText
  0
LINE
  5
6D09
330
1E
100
AcDbEntity
  8
図枠
  6
Continuous
 62
     7
100
AcDbLine
 10
1685.406013078955
 20
664.9020429928434
 30
0.0
 11
1752.406013078955
 21
664.9020429928434
 31
0.0
  0
LINE
  5
6D0A
330
1E
100
AcDbEntity
  8
図枠
  6
Continuous
 62
     7
100
AcDbLine
 10
1685.406013078955
 20
457.9020429928434
 30
0.0
 11
1685.406013078955
 21
664.9020429928434
 31
0.0
  0
LINE
  5
6D0B
330
1E
100
AcDbEntity
  8
図枠
  6
Continuous
 62
     7
100
AcDbLine
 10
1720.406013078955
 20
457.9020429928434
 30
0.0
 11
1720.406013078955
 21
664.9020429928434
 31
0.0
  0
LINE
  5
6D0C
330
1E
100
AcDbEntity
  8
図枠
  6
Continuous
 62
     7
100
AcDbLine
 10
1738.406013078955
 20
457.9020429928434
 30
0.0
 11
1738.406013078955
 21
664.9020429928434
 31
0.0
  0
LINE
  5
6D0D
330
1E
100
AcDbEntity
  8
図枠
  6
Continuous
 62
     7
100
AcDbLine
 10
1685.406013078955
 20
655.9020429928434
 30
0.0
 11
1752.406013078955
 21
655.9020429928434
 31
0.0
  0
LINE
  5
6D0E
330
1E
100
AcDbEntity
  8
図枠
  6
Continuous
 62
     7
100
AcDbLine
 10
1685.406013078955
 20
646.9020429928434
 30
0.0
 11
1752.406013078955
 21
646.9020429928434
 31
0.0
  0
LINE
  5
6D0F
330
1E
100
AcDbEntity
  8
図枠
  6
Continuous
 62
     7
100
AcDbLine
 10
1685.406013078955
 20
637.9020429928434
 30
0.0
 11
1752.406013078955
 21
637.9020429928434
 31
0.0
  0
LINE
  5
6D10
330
1E
100
AcDbEntity
  8
図枠
  6
Continuous
 62
     7
100
AcDbLine
 10
1685.406013078955
 20
628.9020429928434
 30
0.0
 11
1752.406013078955
 21
628.9020429928434
 31
0.0
  0
LINE
  5
6D11
330
1E
100
AcDbEntity
  8
図枠
  6
Continuous
 62
     7
100
AcDbLine
 10
1685.406013078955
 20
619.9020429928435
 30
0.0
 11
1752.406013078955
 21
619.9020429928435
 31
0.0
  0
LINE
  5
6D12
330
1E
100
AcDbEntity
  8
図枠
  6
Continuous
 62
     7
100
AcDbLine
 10
1685.406013078955
 20
610.9020429928435
 30
0.0
 11
1752.406013078955
 21
610.9020429928435
 31
0.0
  0
LINE
  5
6D13
330
1E
100
AcDbEntity
  8
図枠
  6
Continuous
 62
     7
100
AcDbLine
 10
1685.406013078955
 20
601.9020429928434
 30
0.0
 11
1752.406013078955
 21
601.9020429928434
 31
0.0
  0
LINE
  5
6D14
330
1E
100
AcDbEntity
  8
図枠
  6
Continuous
 62
     7
100
AcDbLine
 10
1685.406013078955
 20
592.9020429928434
 30
0.0
 11
1752.406013078955
 21
592.9020429928434
 31
0.0
  0
LINE
  5
6D15
330
1E
100
AcDbEntity
  8
図枠
  6
Continuous
 62
     7
100
AcDbLine
 10
1685.406013078955
 20
583.9020429928434
 30
0.0
 11
1752.406013078955
 21
583.9020429928434
 31
0.0
  0
LINE
  5
6D16
330
1E
100
AcDbEntity
  8
図枠
  6
Continuous
 62
     7
100
AcDbLine
 10
1685.406013078955
 20
574.9020429928434
 30
0.0
 11
1752.406013078955
 21
574.9020429928434
 31
0.0
  0
LINE
  5
6D17
330
1E
100
AcDbEntity
  8
図枠
  6
Continuous
 62
     7
100
AcDbLine
 10
1685.406013078955
 20
565.9020429928435
 30
0.0
 11
1752.406013078955
 21
565.9020429928435
 31
0.0
  0
LINE
  5
6D18
330
1E
100
AcDbEntity
  8
図枠
  6
Continuous
 62
     7
100
AcDbLine
 10
1685.406013078955
 20
556.9020429928435
 30
0.0
 11
1752.406013078955
 21
556.9020429928435
 31
0.0
  0
LINE
  5
6D19
330
1E
100
AcDbEntity
  8
図枠
  6
Continuous
 62
     7
100
AcDbLine
 10
1685.406013078955
 20
547.9020429928434
 30
0.0
 11
1752.406013078955
 21
547.9020429928434
 31
0.0
  0
LINE
  5
6D1A
330
1E
100
AcDbEntity
  8
図枠
  6
Continuous
 62
     7
100
AcDbLine
 10
1685.406013078955
 20
538.9020429928434
 30
0.0
 11
1752.406013078955
 21
538.9020429928434
 31
0.0
  0
LINE
  5
6D1B
330
1E
100
AcDbEntity
  8
図枠
  6
Continuous
 62
     7
100
AcDbLine
 10
1685.406013078955
 20
529.9020429928434
 30
0.0
 11
1752.406013078955
 21
529.9020429928434
 31
0.0
  0
LINE
  5
6D1C
330
1E
100
AcDbEntity
  8
図枠
  6
Continuous
 62
     7
100
AcDbLine
 10
1685.406013078955
 20
520.9020429928434
 30
0.0
 11
1752.406013078955
 21
520.9020429928434
 31
0.0
  0
LINE
  5
6D1D
330
1E
100
AcDbEntity
  8
図枠
  6
Continuous
 62
     7
100
AcDbLine
 10
1685.406013078955
 20
511.9020429928434
 30
0.0
 11
1752.406013078955
 21
511.9020429928434
 31
0.0
  0
LINE
  5
6D1E
330
1E
100
AcDbEntity
  8
図枠
  6
Continuous
 62
     7
100
AcDbLine
 10
1685.406013078955
 20
502.9020429928435
 30
0.0
 11
1752.406013078955
 21
502.9020429928435
 31
0.0
  0
LINE
  5
6D1F
330
1E
100
AcDbEntity
  8
図枠
  6
Continuous
 62
     7
100
AcDbLine
 10
1685.406013078955
 20
493.9020429928435
 30
0.0
 11
1752.406013078955
 21
493.9020429928435
 31
0.0
  0
LINE
  5
6D20
330
1E
100
AcDbEntity
  8
図枠
  6
Continuous
 62
     7
100
AcDbLine
 10
1685.406013078955
 20
484.9020429928436
 30
0.0
 11
1752.406013078955
 21
484.9020429928436
 31
0.0
  0
LINE
  5
6D21
330
1E
100
AcDbEntity
  8
図枠
  6
Continuous
 62
     7
100
AcDbLine
 10
1685.406013078955
 20
475.9020429928435
 30
0.0
 11
1752.406013078955
 21
475.9020429928435
 31
0.0
  0
LINE
  5
6D22
330
1E
100
AcDbEntity
  8
図枠
  6
Continuous
 62
     7
100
AcDbLine
 10
1685.406013078955
 20
466.9020429928434
 30
0.0
 11
1752.406013078955
 21
466.9020429928434
 31
0.0
  0
LINE
  5
6D23
330
1E
100
AcDbEntity
  8
図枠
  6
Continuous
 62
     7
100
AcDbLine
 10
1685.406013078955
 20
457.9020429928434
 30
0.0
 11
1752.406013078955
 21
457.9020429928434
 31
0.0
  0
LINE
  5
6D24
330
1E
100
AcDbEntity
  8
図枠
  6
Continuous
 62
     7
100
AcDbLine
 10
1752.406013078955
 20
457.9020429928434
 30
0.0
 11
1752.406013078955
 21
664.9020429928434
 31
0.0
  0
TEXT
  5
6D25
330
1E
100
AcDbEntity
  8
図枠
 62
     7
100
AcDbText
 10
1689.156013078955
 20
657.4020429928435
 30
0.0
 40
5.0
  1
定尺(mm)
100
AcDbText
  0
TEXT
  5
6D26
330
1E
100
AcDbEntity
  8
図枠
 62
     7
100
AcDbText
 10
1696.156013078955
 20
648.4020429928435
 30
0.0
 40
5.0
  1
2000
100
AcDbText
  0
TEXT
  5
6D27
330
1E
100
AcDbEntity
  8
図枠
 62
     7
100
AcDbText
 10
1696.156013078955
 20
639.4020429928434
 30
0.0
 40
5.0
  1
2000
100
AcDbText
  0
TEXT
  5
6D28
330
1E
100
AcDbEntity
  8
図枠
 62
     7
100
AcDbText
 10
1696.156013078955
 20
630.4020429928433
 30
0.0
 40
5.0
  1
2000
100
AcDbText
  0
TEXT
  5
6D29
330
1E
100
AcDbEntity
  8
図枠
 62
     7
100
AcDbText
 10
1696.156013078955
 20
621.4020429928434
 30
0.0
 40
5.0
  1
2000
100
AcDbText
  0
TEXT
  5
6D2A
330
1E
100
AcDbEntity
  8
図枠
 62
     7
100
AcDbText
 10
1696.156013078955
 20
612.4020429928434
 30
0.0
 40
5.0
  1
2010
100
AcDbText
  0
TEXT
  5
6D2B
330
1E
100
AcDbEntity
  8
図枠
 62
     7
100
AcDbText
 10
1696.156013078955
 20
558.4020429928434
 30
0.0
 40
5.0
  1
2060
100
AcDbText
  0
TEXT
  5
6D2C
330
1E
100
AcDbEntity
  8
図枠
 62
     7
100
AcDbText
 10
1696.156013078955
 20
549.4020429928434
 30
0.0
 40
5.0
  1
2100
100
AcDbText
  0
TEXT
  5
6D2D
330
1E
100
AcDbEntity
  8
図枠
 62
     7
100
AcDbText
 10
1696.156013078955
 20
540.4020429928435
 30
0.0
 40
5.0
  1
2000
100
AcDbText
  0
TEXT
  5
6D2E
330
1E
100
AcDbEntity
  8
図枠
 62
     7
100
AcDbText
 10
1696.156013078955
 20
459.4020429928434
 30
0.0
 40
5.0
  1
6000
100
AcDbText
  0
TEXT
  5
6D2F
330
1E
100
AcDbEntity
  8
図枠
 62
     7
100
AcDbText
 10
1722.906013078955
 20
657.4020429928435
 30
0.0
 40
5.0
  1
入数
100
AcDbText
  0
TEXT
  5
6D30
330
1E
100
AcDbEntity
  8
図枠
 62
     7
100
AcDbText
 10
1726.156013078955
 20
648.4020429928435
 30
0.0
 40
5.0
  1
 1
100
AcDbText
  0
TEXT
  5
6D31
330
1E
100
AcDbEntity
  8
図枠
 62
     7
100
AcDbText
 10
1726.156013078955
 20
639.4020429928434
 30
0.0
 40
5.0
  1
 1
100
AcDbText
  0
TEXT
  5
6D32
330
1E
100
AcDbEntity
  8
図枠
 62
     7
100
AcDbText
 10
1726.156013078955
 20
630.4020429928433
 30
0.0
 40
5.0
  1
 1
100
AcDbText
  0
TEXT
  5
6D33
330
1E
100
AcDbEntity
  8
図枠
 62
     7
100
AcDbText
 10
1726.156013078955
 20
621.4020429928434
 30
0.0
 40
5.0
  1
 1
100
AcDbText
  0
TEXT
  5
6D34
330
1E
100
AcDbEntity
  8
図枠
 62
     7
100
AcDbText
 10
1726.156013078955
 20
612.4020429928434
 30
0.0
 40
5.0
  1
 1
100
AcDbText
  0
TEXT
  5
6D35
330
1E
100
AcDbEntity
  8
図枠
 62
     7
100
AcDbText
 10
1726.156013078955
 20
603.4020429928435
 30
0.0
 40
5.0
  1
 4
100
AcDbText
  0
TEXT
  5
6D36
330
1E
100
AcDbEntity
  8
図枠
 62
     7
100
AcDbText
 10
1726.156013078955
 20
594.4020429928435
 30
0.0
 40
5.0
  1
 4
100
AcDbText
  0
TEXT
  5
6D37
330
1E
100
AcDbEntity
  8
図枠
 62
     7
100
AcDbText
 10
1726.156013078955
 20
585.4020429928434
 30
0.0
 40
5.0
  1
 4
100
AcDbText
  0
TEXT
  5
6D38
330
1E
100
AcDbEntity
  8
図枠
 62
     7
100
AcDbText
 10
1726.156013078955
 20
576.4020429928434
 30
0.0
 40
5.0
  1
 1
100
AcDbText
  0
TEXT
  5
6D39
330
1E
100
AcDbEntity
  8
図枠
 62
     7
100
AcDbText
 10
1726.156013078955
 20
567.4020429928434
 30
0.0
 40
5.0
  1
 1
100
AcDbText
  0
TEXT
  5
6D3A
330
1E
100
AcDbEntity
  8
図枠
 62
     7
100
AcDbText
 10
1726.156013078955
 20
558.4020429928434
 30
0.0
 40
5.0
  1
 1
100
AcDbText
  0
TEXT
  5
6D3B
330
1E
100
AcDbEntity
  8
図枠
 62
     7
100
AcDbText
 10
1726.156013078955
 20
549.4020429928434
 30
0.0
 40
5.0
  1
 1
100
AcDbText
  0
TEXT
  5
6D3C
330
1E
100
AcDbEntity
  8
図枠
 62
     7
100
AcDbText
 10
1726.156013078955
 20
540.4020429928435
 30
0.0
 40
5.0
  1
 1
100
AcDbText
  0
TEXT
  5
6D3D
330
1E
100
AcDbEntity
  8
図枠
 62
     7
100
AcDbText
 10
1726.156013078955
 20
531.4020429928434
 30
0.0
 40
5.0
  1
 4
100
AcDbText
  0
TEXT
  5
6D3E
330
1E
100
AcDbEntity
  8
図枠
 62
     7
100
AcDbText
 10
1726.156013078955
 20
522.4020429928434
 30
0.0
 40
5.0
  1
 5
100
AcDbText
  0
TEXT
  5
6D3F
330
1E
100
AcDbEntity
  8
図枠
 62
     7
100
AcDbText
 10
1726.156013078955
 20
513.4020429928434
 30
0.0
 40
5.0
  1
 5
100
AcDbText
  0
TEXT
  5
6D40
330
1E
100
AcDbEntity
  8
図枠
 62
     7
100
AcDbText
 10
1726.156013078955
 20
504.4020429928435
 30
0.0
 40
5.0
  1
 5
100
AcDbText
  0
TEXT
  5
6D41
330
1E
100
AcDbEntity
  8
図枠
 62
     7
100
AcDbText
 10
1726.156013078955
 20
495.4020429928434
 30
0.0
 40
5.0
  1
 5
100
AcDbText
  0
TEXT
  5
6D42
330
1E
100
AcDbEntity
  8
図枠
 62
     7
100
AcDbText
 10
1726.156013078955
 20
486.4020429928435
 30
0.0
 40
5.0
  1
 5
100
AcDbText
  0
TEXT
  5
6D43
330
1E
100
AcDbEntity
  8
図枠
 62
     7
100
AcDbText
 10
1726.156013078955
 20
477.4020429928435
 30
0.0
 40
5.0
  1
 5
100
AcDbText
  0
TEXT
  5
6D44
330
1E
100
AcDbEntity
  8
図枠
 62
     7
100
AcDbText
 10
1726.156013078955
 20
468.4020429928434
 30
0.0
 40
5.0
  1
 5
100
AcDbText
  0
TEXT
  5
6D45
330
1E
100
AcDbEntity
  8
図枠
 62
     7
100
AcDbText
 10
1726.156013078955
 20
459.4020429928434
 30
0.0
 40
5.0
  1
 1
100
AcDbText
  0
TEXT
  5
6D46
330
1E
100
AcDbEntity
  8
図枠
 62
     7
100
AcDbText
 10
1742.406013078955
 20
648.4020429928435
 30
0.0
 40
5.0
  1
本
100
AcDbText
  0
TEXT
  5
6D47
330
1E
100
AcDbEntity
  8
図枠
 62
     7
100
AcDbText
 10
1742.406013078955
 20
639.4020429928434
 30
0.0
 40
5.0
  1
〃
100
AcDbText
  0
TEXT
  5
6D48
330
1E
100
AcDbEntity
  8
図枠
 62
     7
100
AcDbText
 10
1742.406013078955
 20
630.4020429928433
 30
0.0
 40
5.0
  1
〃
100
AcDbText
  0
TEXT
  5
6D49
330
1E
100
AcDbEntity
  8
図枠
 62
     7
100
AcDbText
 10
1742.406013078955
 20
621.4020429928434
 30
0.0
 40
5.0
  1
〃
100
AcDbText
  0
TEXT
  5
6D4A
330
1E
100
AcDbEntity
  8
図枠
 62
     7
100
AcDbText
 10
1742.406013078955
 20
612.4020429928434
 30
0.0
 40
5.0
  1
〃
100
AcDbText
  0
TEXT
  5
6D4B
330
1E
100
AcDbEntity
  8
図枠
 62
     7
100
AcDbText
 10
1742.406013078955
 20
603.4020429928435
 30
0.0
 40
5.0
  1
〃
100
AcDbText
  0
TEXT
  5
6D4C
330
1E
100
AcDbEntity
  8
図枠
 62
     7
100
AcDbText
 10
1742.406013078955
 20
594.4020429928435
 30
0.0
 40
5.0
  1
〃
100
AcDbText
  0
TEXT
  5
6D4D
330
1E
100
AcDbEntity
  8
図枠
 62
     7
100
AcDbText
 10
1742.406013078955
 20
585.4020429928434
 30
0.0
 40
5.0
  1
〃
100
AcDbText
  0
TEXT
  5
6D4E
330
1E
100
AcDbEntity
  8
図枠
 62
     7
100
AcDbText
 10
1742.406013078955
 20
576.4020429928434
 30
0.0
 40
5.0
  1
〃
100
AcDbText
  0
TEXT
  5
6D4F
330
1E
100
AcDbEntity
  8
図枠
 62
     7
100
AcDbText
 10
1742.406013078955
 20
567.4020429928434
 30
0.0
 40
5.0
  1
〃
100
AcDbText
  0
TEXT
  5
6D50
330
1E
100
AcDbEntity
  8
図枠
 62
     7
100
AcDbText
 10
1742.406013078955
 20
558.4020429928434
 30
0.0
 40
5.0
  1
枚
100
AcDbText
  0
TEXT
  5
6D51
330
1E
100
AcDbEntity
  8
図枠
 62
     7
100
AcDbText
 10
1742.406013078955
 20
549.4020429928434
 30
0.0
 40
5.0
  1
〃
100
AcDbText
  0
TEXT
  5
6D52
330
1E
100
AcDbEntity
  8
図枠
 62
     7
100
AcDbText
 10
1742.406013078955
 20
540.4020429928435
 30
0.0
 40
5.0
  1
本
100
AcDbText
  0
TEXT
  5
6D53
330
1E
100
AcDbEntity
  8
図枠
 62
     7
100
AcDbText
 10
1742.406013078955
 20
531.4020429928434
 30
0.0
 40
5.0
  1
〃
100
AcDbText
  0
TEXT
  5
6D54
330
1E
100
AcDbEntity
  8
図枠
 62
     7
100
AcDbText
 10
1742.406013078955
 20
522.4020429928434
 30
0.0
 40
5.0
  1
〃
100
AcDbText
  0
TEXT
  5
6D55
330
1E
100
AcDbEntity
  8
図枠
 62
     7
100
AcDbText
 10
1742.406013078955
 20
513.4020429928434
 30
0.0
 40
5.0
  1
〃
100
AcDbText
  0
TEXT
  5
6D56
330
1E
100
AcDbEntity
  8
図枠
 62
     7
100
AcDbText
 10
1742.406013078955
 20
504.4020429928435
 30
0.0
 40
5.0
  1
〃
100
AcDbText
  0
TEXT
  5
6D57
330
1E
100
AcDbEntity
  8
図枠
 62
     7
100
AcDbText
 10
1742.406013078955
 20
495.4020429928434
 30
0.0
 40
5.0
  1
〃
100
AcDbText
  0
TEXT
  5
6D58
330
1E
100
AcDbEntity
  8
図枠
 62
     7
100
AcDbText
 10
1742.406013078955
 20
486.4020429928435
 30
0.0
 40
5.0
  1
〃
100
AcDbText
  0
TEXT
  5
6D59
330
1E
100
AcDbEntity
  8
図枠
 62
     7
100
AcDbText
 10
1742.406013078955
 20
477.4020429928435
 30
0.0
 40
5.0
  1
枚
100
AcDbText
  0
TEXT
  5
6D5A
330
1E
100
AcDbEntity
  8
図枠
 62
     7
100
AcDbText
 10
1742.406013078955
 20
468.4020429928434
 30
0.0
 40
5.0
  1
〃
100
AcDbText
  0
TEXT
  5
6D5B
330
1E
100
AcDbEntity
  8
図枠
 62
     7
100
AcDbText
 10
1742.406013078955
 20
459.4020429928434
 30
0.0
 40
5.0
  1
巻
100
AcDbText
  0
TEXT
  5
6D5C
330
1E
100
AcDbEntity
  8
図枠
 62
     7
100
AcDbText
 10
1738.906013078955
 20
657.4020429928435
 30
0.0
 40
5.0
  1
単位
100
AcDbText
  0
TEXT
  5
6D5D
330
1E
100
AcDbEntity
  8
図枠
 62
     7
100
AcDbText
 10
1792.906013078955
 20
657.4020429928435
 30
0.0
 40
5.0
  1
タ　イ　プ
100
AcDbText
  0
TEXT
  5
6D5E
330
1E
100
AcDbEntity
  8
図枠
 62
     7
100
AcDbText
 10
1889.406013078955
 20
657.4020429928435
 30
0.0
 40
5.0
  1
Ａ
100
AcDbText
  0
TEXT
  5
6D5F
330
1E
100
AcDbEntity
  8
図枠
 62
     7
100
AcDbText
 10
1859.406013078955
 20
657.4020429928435
 30
0.0
 40
5.0
  1
Ｗ
100
AcDbText
  0
LINE
  5
6D60
330
1E
100
AcDbEntity
  8
図枠
  6
Continuous
 62
     7
100
AcDbLine
 10
1997.406013078955
 20
628.9020429928434
 30
0.0
 11
1772.406013078955
 21
628.9020429928434
 31
0.0
  0
LINE
  5
6D61
330
1E
100
AcDbEntity
  8
図枠
  6
Continuous
 62
     7
100
AcDbLine
 10
1997.406013078955
 20
646.9020429928434
 30
0.0
 11
1772.406013078955
 21
646.9020429928434
 31
0.0
  0
LINE
  5
6D62
330
1E
100
AcDbEntity
  8
図枠
  6
Continuous
 62
     7
100
AcDbLine
 10
1997.406013078955
 20
664.9020429928434
 30
0.0
 11
1772.406013078955
 21
664.9020429928434
 31
0.0
  0
LINE
  5
6D63
330
1E
100
AcDbEntity
  8
図枠
  6
Continuous
 62
     7
100
AcDbLine
 10
1997.406013078955
 20
655.9020429928434
 30
0.0
 11
1772.406013078955
 21
655.9020429928434
 31
0.0
  0
LINE
  5
6D64
330
1E
100
AcDbEntity
  8
図枠
  6
Continuous
 62
     7
100
AcDbLine
 10
1997.406013078955
 20
637.9020429928434
 30
0.0
 11
1772.406013078955
 21
637.9020429928434
 31
0.0
  0
LINE
  5
6D65
330
1E
100
AcDbEntity
  8
図枠
  6
Continuous
 62
     7
100
AcDbLine
 10
1997.406013078955
 20
619.9020429928435
 30
0.0
 11
1772.406013078955
 21
619.9020429928435
 31
0.0
  0
LINE
  5
6D66
330
1E
100
AcDbEntity
  8
図枠
  6
Continuous
 62
     7
100
AcDbLine
 10
1997.406013078955
 20
610.9020429928435
 30
0.0
 11
1772.406013078955
 21
610.9020429928435
 31
0.0
  0
LINE
  5
6D67
330
1E
100
AcDbEntity
  8
図枠
  6
Continuous
 62
     7
100
AcDbLine
 10
1997.406013078955
 20
601.9020429928434
 30
0.0
 11
1772.406013078955
 21
601.9020429928434
 31
0.0
  0
LINE
  5
6D68
330
1E
100
AcDbEntity
  8
図枠
  6
Continuous
 62
     7
100
AcDbLine
 10
1997.406013078955
 20
592.9020429928434
 30
0.0
 11
1772.406013078955
 21
592.9020429928434
 31
0.0
  0
LINE
  5
6D69
330
1E
100
AcDbEntity
  8
図枠
  6
Continuous
 62
     7
100
AcDbLine
 10
1997.406013078955
 20
583.9020429928434
 30
0.0
 11
1772.406013078955
 21
583.9020429928434
 31
0.0
  0
TEXT
  5
6D6A
330
1E
100
AcDbEntity
  8
図枠
 62
     7
100
AcDbText
 10
1919.406013078955
 20
657.4020429928435
 30
0.0
 40
5.0
  1
Ｃ
100
AcDbText
  0
TEXT
  5
6D6B
330
1E
100
AcDbEntity
  8
図枠
 62
     7
100
AcDbText
 10
1949.406013078955
 20
657.4020429928435
 30
0.0
 40
5.0
  1
Ｄ
100
AcDbText
  0
TEXT
  5
6D6C
330
1E
100
AcDbEntity
  8
図枠
 62
     7
100
AcDbText
 10
1979.406013078955
 20
657.4020429928435
 30
0.0
 40
5.0
  1
Ｅ
100
AcDbText
  0
TEXT
  5
6D6D
330
1E
100
AcDbEntity
  8
図枠
 62
     7
100
AcDbText
 10
1917.406013078955
 20
648.4020429928435
 30
0.0
 40
5.0
  1
100
100
AcDbText
  0
TEXT
  5
6D6E
330
1E
100
AcDbEntity
  8
図枠
 62
     7
100
AcDbText
 10
1917.406013078955
 20
639.4020429928434
 30
0.0
 40
5.0
  1
125
100
AcDbText
  0
TEXT
  5
6D6F
330
1E
100
AcDbEntity
  8
図枠
 62
     7
100
AcDbText
 10
1917.406013078955
 20
630.4020429928433
 30
0.0
 40
5.0
  1
150
100
AcDbText
  0
TEXT
  5
6D70
330
1E
100
AcDbEntity
  8
図枠
 62
     7
100
AcDbText
 10
1917.406013078955
 20
621.4020429928434
 30
0.0
 40
5.0
  1
175
100
AcDbText
  0
TEXT
  5
6D71
330
1E
100
AcDbEntity
  8
図枠
 62
     7
100
AcDbText
 10
1917.406013078955
 20
612.4020429928434
 30
0.0
 40
5.0
  1
200
100
AcDbText
  0
TEXT
  5
6D72
330
1E
100
AcDbEntity
  8
図枠
 62
     7
100
AcDbText
 10
1917.406013078955
 20
603.4020429928435
 30
0.0
 40
5.0
  1
225
100
AcDbText
  0
TEXT
  5
6D73
330
1E
100
AcDbEntity
  8
図枠
 62
     7
100
AcDbText
 10
1917.406013078955
 20
594.4020429928435
 30
0.0
 40
5.0
  1
250
100
AcDbText
  0
TEXT
  5
6D74
330
1E
100
AcDbEntity
  8
図枠
 62
     7
100
AcDbText
 10
1917.406013078955
 20
585.4020429928434
 30
0.0
 40
5.0
  1
275
100
AcDbText
  0
TEXT
  5
6D75
330
1E
100
AcDbEntity
  8
図枠
 62
     7
100
AcDbText
 10
1782.156013078955
 20
630.4020429928433
 30
0.0
 40
5.0
  1
　　  〃　 　425
100
AcDbText
  0
TEXT
  5
6D76
330
1E
100
AcDbEntity
  8
図枠
 62
     7
100
AcDbText
 10
1782.156013078955
 20
621.4020429928434
 30
0.0
 40
5.0
  1
　　  〃　 　450
100
AcDbText
  0
TEXT
  5
6D77
330
1E
100
AcDbEntity
  8
図枠
 62
     7
100
AcDbText
 10
1782.156013078955
 20
612.4020429928434
 30
0.0
 40
5.0
  1
　　  〃　 　475
100
AcDbText
  0
TEXT
  5
6D78
330
1E
100
AcDbEntity
  8
図枠
 62
     7
100
AcDbText
 10
1782.156013078955
 20
603.4020429928435
 30
0.0
 40
5.0
  1
　　  〃　 　500
100
AcDbText
  0
TEXT
  5
6D79
330
1E
100
AcDbEntity
  8
図枠
 62
     7
100
AcDbText
 10
1782.156013078955
 20
594.4020429928435
 30
0.0
 40
5.0
  1
　　  〃　 　525
100
AcDbText
  0
TEXT
  5
6D7A
330
1E
100
AcDbEntity
  8
図枠
 62
     7
100
AcDbText
 10
1782.156013078955
 20
585.4020429928434
 30
0.0
 40
5.0
  1
　　  〃　 　550
100
AcDbText
  0
TEXT
  5
6D7B
330
1E
100
AcDbEntity
  8
図枠
 62
     7
100
AcDbText
 10
1857.406013078955
 20
648.4020429928435
 30
0.0
 40
5.0
  1
375
100
AcDbText
  0
TEXT
  5
6D7C
330
1E
100
AcDbEntity
  8
図枠
 62
     7
100
AcDbText
 10
1887.406013078955
 20
648.4020429928435
 30
0.0
 40
5.0
  1
360
100
AcDbText
  0
TEXT
  5
6D7D
330
1E
100
AcDbEntity
  8
図枠
 62
     7
100
AcDbText
 10
1857.406013078955
 20
639.4020429928434
 30
0.0
 40
5.0
  1
400
100
AcDbText
  0
TEXT
  5
6D7E
330
1E
100
AcDbEntity
  8
図枠
 62
     7
100
AcDbText
 10
1857.406013078955
 20
630.4020429928433
 30
0.0
 40
5.0
  1
425
100
AcDbText
  0
TEXT
  5
6D7F
330
1E
100
AcDbEntity
  8
図枠
 62
     7
100
AcDbText
 10
1857.406013078955
 20
621.4020429928434
 30
0.0
 40
5.0
  1
450
100
AcDbText
  0
TEXT
  5
6D80
330
1E
100
AcDbEntity
  8
図枠
 62
     7
100
AcDbText
 10
1857.406013078955
 20
612.4020429928434
 30
0.0
 40
5.0
  1
475
100
AcDbText
  0
TEXT
  5
6D81
330
1E
100
AcDbEntity
  8
図枠
 62
     7
100
AcDbText
 10
1857.406013078955
 20
603.4020429928435
 30
0.0
 40
5.0
  1
500
100
AcDbText
  0
TEXT
  5
6D82
330
1E
100
AcDbEntity
  8
図枠
 62
     7
100
AcDbText
 10
1857.406013078955
 20
594.4020429928435
 30
0.0
 40
5.0
  1
525
100
AcDbText
  0
TEXT
  5
6D83
330
1E
100
AcDbEntity
  8
図枠
 62
     7
100
AcDbText
 10
1887.406013078955
 20
639.4020429928434
 30
0.0
 40
5.0
  1
385
100
AcDbText
  0
TEXT
  5
6D84
330
1E
100
AcDbEntity
  8
図枠
 62
     7
100
AcDbText
 10
1887.406013078955
 20
630.4020429928433
 30
0.0
 40
5.0
  1
410
100
AcDbText
  0
TEXT
  5
6D85
330
1E
100
AcDbEntity
  8
図枠
 62
     7
100
AcDbText
 10
1887.406013078955
 20
621.4020429928434
 30
0.0
 40
5.0
  1
435
100
AcDbText
  0
TEXT
  5
6D86
330
1E
100
AcDbEntity
  8
図枠
 62
     7
100
AcDbText
 10
1887.406013078955
 20
612.4020429928434
 30
0.0
 40
5.0
  1
460
100
AcDbText
  0
TEXT
  5
6D87
330
1E
100
AcDbEntity
  8
図枠
 62
     7
100
AcDbText
 10
1887.406013078955
 20
603.4020429928435
 30
0.0
 40
5.0
  1
485
100
AcDbText
  0
TEXT
  5
6D88
330
1E
100
AcDbEntity
  8
図枠
 62
     7
100
AcDbText
 10
1887.406013078955
 20
594.4020429928435
 30
0.0
 40
5.0
  1
510
100
AcDbText
  0
TEXT
  5
6D89
330
1E
100
AcDbEntity
  8
図枠
 62
     7
100
AcDbText
 10
1857.406013078955
 20
585.4020429928434
 30
0.0
 40
5.0
  1
550
100
AcDbText
  0
TEXT
  5
6D8A
330
1E
100
AcDbEntity
  8
図枠
 62
     7
100
AcDbText
 10
1887.406013078955
 20
585.4020429928434
 30
0.0
 40
5.0
  1
535
100
AcDbText
  0
TEXT
  5
6D8B
330
1E
100
AcDbEntity
  8
図枠
 62
     7
100
AcDbText
 10
1949.156013078955
 20
648.4020429928435
 30
0.0
 40
5.0
  1
62
100
AcDbText
  0
TEXT
  5
6D8C
330
1E
100
AcDbEntity
  8
図枠
 62
     7
100
AcDbText
 10
1949.156013078955
 20
639.4020429928434
 30
0.0
 40
5.0
  1
63
100
AcDbText
  0
TEXT
  5
6D8D
330
1E
100
AcDbEntity
  8
図枠
 62
     7
100
AcDbText
 10
1949.156013078955
 20
630.4020429928433
 30
0.0
 40
5.0
  1
64
100
AcDbText
  0
TEXT
  5
6D8E
330
1E
100
AcDbEntity
  8
図枠
 62
     7
100
AcDbText
 10
1949.156013078955
 20
621.4020429928434
 30
0.0
 40
5.0
  1
66
100
AcDbText
  0
TEXT
  5
6D8F
330
1E
100
AcDbEntity
  8
図枠
 62
     7
100
AcDbText
 10
1949.156013078955
 20
612.4020429928434
 30
0.0
 40
5.0
  1
67
100
AcDbText
  0
TEXT
  5
6D90
330
1E
100
AcDbEntity
  8
図枠
 62
     7
100
AcDbText
 10
1949.156013078955
 20
603.4020429928435
 30
0.0
 40
5.0
  1
68
100
AcDbText
  0
TEXT
  5
6D91
330
1E
100
AcDbEntity
  8
図枠
 62
     7
100
AcDbText
 10
1949.156013078955
 20
594.4020429928435
 30
0.0
 40
5.0
  1
70
100
AcDbText
  0
TEXT
  5
6D92
330
1E
100
AcDbEntity
  8
図枠
 62
     7
100
AcDbText
 10
1977.406013078955
 20
648.4020429928435
 30
0.0
 40
5.0
  1
121
100
AcDbText
  0
TEXT
  5
6D93
330
1E
100
AcDbEntity
  8
図枠
 62
     7
100
AcDbText
 10
1977.406013078955
 20
639.4020429928434
 30
0.0
 40
5.0
  1
122
100
AcDbText
  0
TEXT
  5
6D94
330
1E
100
AcDbEntity
  8
図枠
 62
     7
100
AcDbText
 10
1977.406013078955
 20
630.4020429928433
 30
0.0
 40
5.0
  1
123
100
AcDbText
  0
TEXT
  5
6D95
330
1E
100
AcDbEntity
  8
図枠
 62
     7
100
AcDbText
 10
1977.406013078955
 20
612.4020429928434
 30
0.0
 40
5.0
  1
126
100
AcDbText
  0
TEXT
  5
6D96
330
1E
100
AcDbEntity
  8
図枠
 62
     7
100
AcDbText
 10
1977.406013078955
 20
603.4020429928435
 30
0.0
 40
5.0
  1
127
100
AcDbText
  0
TEXT
  5
6D97
330
1E
100
AcDbEntity
  8
図枠
 62
     7
100
AcDbText
 10
1977.406013078955
 20
594.4020429928435
 30
0.0
 40
5.0
  1
128
100
AcDbText
  0
TEXT
  5
6D98
330
1E
100
AcDbEntity
  8
図枠
 62
     7
100
AcDbText
 10
1949.156013078955
 20
585.4020429928434
 30
0.0
 40
5.0
  1
71
100
AcDbText
  0
TEXT
  5
6D99
330
1E
100
AcDbEntity
  8
図枠
 62
     7
100
AcDbText
 10
1977.406013078955
 20
585.4020429928434
 30
0.0
 40
5.0
  1
130
100
AcDbText
  0
LINE
  5
6D9A
330
1E
100
AcDbEntity
  8
図枠
  6
Continuous
 62
     7
100
AcDbLine
 10
1772.406013078955
 20
664.9020429928434
 30
0.0
 11
1772.406013078955
 21
583.9020429928434
 31
0.0
  0
LINE
  5
6D9B
330
1E
100
AcDbEntity
  8
図枠
  6
Continuous
 62
     7
100
AcDbLine
 10
1997.406013078955
 20
664.9020429928434
 30
0.0
 11
1997.406013078955
 21
583.9020429928434
 31
0.0
  0
LINE
  5
6D9C
330
1E
100
AcDbEntity
  8
図枠
  6
Continuous
 62
     7
100
AcDbLine
 10
1877.406013078955
 20
664.9020429928434
 30
0.0
 11
1877.406013078955
 21
583.9020429928434
 31
0.0
  0
LINE
  5
6D9D
330
1E
100
AcDbEntity
  8
図枠
  6
Continuous
 62
     7
100
AcDbLine
 10
1847.406013078955
 20
664.9020429928434
 30
0.0
 11
1847.406013078955
 21
583.9020429928434
 31
0.0
  0
LINE
  5
6D9E
330
1E
100
AcDbEntity
  8
図枠
  6
Continuous
 62
     7
100
AcDbLine
 10
1907.406013078954
 20
664.9020429928434
 30
0.0
 11
1907.406013078954
 21
583.9020429928434
 31
0.0
  0
LINE
  5
6D9F
330
1E
100
AcDbEntity
  8
図枠
  6
Continuous
 62
     7
100
AcDbLine
 10
1937.406013078955
 20
664.9020429928434
 30
0.0
 11
1937.406013078955
 21
583.9020429928434
 31
0.0
  0
LINE
  5
6DA0
330
1E
100
AcDbEntity
  8
図枠
  6
Continuous
 62
     7
100
AcDbLine
 10
1967.406013078955
 20
664.9020429928434
 30
0.0
 11
1967.406013078955
 21
583.9020429928434
 31
0.0
  0
LINE
  5
6DA1
330
1E
100
AcDbEntity
  8
躯体と製品
  6
Continuous
 62
     7
100
AcDbLine
 10
1569.261996034796
 20
884.1909756366478
 30
0.0
 11
1568.088661549124
 21
885.0396393117753
 31
0.0
  0
ARC
  5
6DA2
330
1E
100
AcDbEntity
  8
躯体と製品
  6
Continuous
 62
     7
100
AcDbCircle
 10
1572.897408230229
 20
886.0160009661202
 30
0.0
 40
4.0
100
AcDbArc
 50
210.5960053709603
 51
324.5776591452897
  0
LINE
  5
6DA3
330
1E
100
AcDbEntity
  8
躯体と製品
  6
Continuous
 62
     3
100
AcDbLine
 10
1575.107201597655
 20
849.6237096675159
 30
0.0
 11
1576.572608372458
 21
877.5853366406439
 31
0.0
  0
LINE
  5
6DA4
330
1E
100
AcDbEntity
  8
躯体と製品
  6
Continuous
 62
     7
100
AcDbLine
 10
1576.546440394336
 20
877.0860218732666
 30
0.0
 11
1591.525883415654
 21
876.3009825296226
 31
0.0
  0
LINE
  5
6DA5
330
1E
100
AcDbEntity
  8
躯体と製品
  6
Continuous
 62
     7
100
AcDbLine
 10
1591.316539590683
 20
872.306464390604
 30
0.0
 11
1591.525883415654
 21
876.3009825296226
 31
0.0
  0
LINE
  5
6DA6
330
1E
100
AcDbEntity
  8
躯体と製品
  6
Continuous
 62
     3
100
AcDbLine
 10
1551.406013078955
 20
863.5348597586094
 30
0.0
 11
1551.406013078955
 21
861.2848597586094
 31
0.0
  0
ARC
  5
6DA7
330
1E
100
AcDbEntity
  8
躯体と製品
  6
Continuous
 62
     3
100
AcDbCircle
 10
1552.406013078955
 20
863.5348597586094
 30
0.0
 40
1.0
100
AcDbArc
 50
90.0
 51
180.0
  0
ARC
  5
6DA8
330
1E
100
AcDbEntity
  8
躯体と製品
  6
Continuous
 62
     3
100
AcDbCircle
 10
1552.156013078955
 20
861.2848597586094
 30
0.0
 40
0.75
100
AcDbArc
 50
180.0
 51
0.0
  0
LINE
  5
6DA9
330
1E
100
AcDbEntity
  8
躯体と製品
  6
Continuous
 62
     3
100
AcDbLine
 10
1552.906013078955
 20
862.5348597586095
 30
0.0
 11
1552.906013078955
 21
861.2848597586094
 31
0.0
  0
ARC
  5
6DAA
330
1E
100
AcDbEntity
  8
躯体と製品
  6
Continuous
 62
     3
100
AcDbCircle
 10
1553.406013078955
 20
862.5348597586095
 30
0.0
 40
0.5
100
AcDbArc
 50
90.0
 51
180.0
  0
ARC
  5
6DAB
330
1E
100
AcDbEntity
  8
躯体と製品
  6
Continuous
 62
     3
100
AcDbCircle
 10
1555.906013078955
 20
895.0348597586094
 30
0.0
 40
1.5
100
AcDbArc
 50
90.0
 51
180.0
  0
LINE
  5
6DAC
330
1E
100
AcDbEntity
  8
躯体と製品
  6
Continuous
 62
     3
100
AcDbLine
 10
1554.406013078955
 20
865.0348597586093
 30
0.0
 11
1554.406013078955
 21
895.0348597586094
 31
0.0
  0
ARC
  5
6DAD
330
1E
100
AcDbEntity
  8
躯体と製品
  6
Continuous
 62
     3
100
AcDbCircle
 10
1553.906013078955
 20
865.0348597586093
 30
0.0
 40
0.5
100
AcDbArc
 50
270.0
 51
0.0
  0
LINE
  5
6DAE
330
1E
100
AcDbEntity
  8
躯体と製品
  6
Continuous
 62
     3
100
AcDbLine
 10
1553.906013078955
 20
864.5348597586094
 30
0.0
 11
1552.406013078955
 21
864.5348597586094
 31
0.0
  0
LINE
  5
6DAF
330
1E
100
AcDbEntity
  8
躯体と製品
  6
Continuous
 62
     3
100
AcDbLine
 10
1556.406013078955
 20
866.5348597586094
 30
0.0
 11
1556.406013078955
 21
894.5348597586093
 31
0.0
  0
ARC
  5
6DB0
330
1E
100
AcDbEntity
  8
躯体と製品
  6
Continuous
 62
     3
100
AcDbCircle
 10
1556.906013078955
 20
894.5348597586093
 30
0.0
 40
0.5
100
AcDbArc
 50
90.0
 51
180.0
  0
ARC
  5
6DB1
330
1E
100
AcDbEntity
  8
躯体と製品
  6
Continuous
 62
     3
100
AcDbCircle
 10
1557.406013078955
 20
866.5348597586094
 30
0.0
 40
1.0
100
AcDbArc
 50
180.0
 51
270.0
  0
ARC
  5
6DB2
330
1E
100
AcDbEntity
  8
躯体と製品
  6
Continuous
 62
     3
100
AcDbCircle
 10
1560.906013078955
 20
901.0348597586094
 30
0.0
 40
0.5
100
AcDbArc
 50
0.0
 51
90.0
  0
LINE
  5
6DB3
330
1E
100
AcDbEntity
  8
躯体と製品
  6
Continuous
 62
     3
100
AcDbLine
 10
1561.406013078955
 20
897.5348597586094
 30
0.0
 11
1561.406013078955
 21
901.0348597586094
 31
0.0
  0
ARC
  5
6DB4
330
1E
100
AcDbEntity
  8
躯体と製品
  6
Continuous
 62
     3
100
AcDbCircle
 10
1561.906013078955
 20
902.0348597586094
 30
0.0
 40
1.0
100
AcDbArc
 50
0.0
 51
90.0
  0
ARC
  5
6DB5
330
1E
100
AcDbEntity
  8
躯体と製品
  6
Continuous
 62
     3
100
AcDbCircle
 10
1561.406013078955
 20
889.0348597586093
 30
0.0
 40
1.0
100
AcDbArc
 50
90.0
 51
270.0
  0
ARC
  5
6DB6
330
1E
100
AcDbEntity
  8
躯体と製品
  6
Continuous
 62
     3
100
AcDbCircle
 10
1560.906013078955
 20
894.5348597586093
 30
0.0
 40
0.5
100
AcDbArc
 50
0.0
 51
90.0
  0
LINE
  5
6DB7
330
1E
100
AcDbEntity
  8
躯体と製品
  6
Continuous
 62
     3
100
AcDbLine
 10
1561.406013078955
 20
894.5348597586093
 30
0.0
 11
1561.406013078955
 21
890.0348597586093
 31
0.0
  0
ARC
  5
6DB8
330
1E
100
AcDbEntity
  8
躯体と製品
  6
Continuous
 62
     3
100
AcDbCircle
 10
1562.406013078955
 20
888.5348597586094
 30
0.0
 40
0.5
100
AcDbArc
 50
270.0
 51
0.0
  0
LINE
  5
6DB9
330
1E
100
AcDbEntity
  8
躯体と製品
  6
Continuous
 62
     3
100
AcDbLine
 10
1562.406013078955
 20
888.0348597586094
 30
0.0
 11
1561.406013078955
 21
888.0348597586094
 31
0.0
  0
ARC
  5
6DBA
330
1E
100
AcDbEntity
  8
躯体と製品
  6
Continuous
 62
     3
100
AcDbCircle
 10
1563.906013078955
 20
862.0348597586094
 30
0.0
 40
1.0
100
AcDbArc
 50
0.0
 51
90.0
  0
ARC
  5
6DBB
330
1E
100
AcDbEntity
  8
躯体と製品
  6
Continuous
 62
     3
100
AcDbCircle
 10
1565.406013078955
 20
863.5348597586094
 30
0.0
 40
2.0
100
AcDbArc
 50
0.0
 51
90.0
  0
LINE
  5
6DBC
330
1E
100
AcDbEntity
  8
躯体と製品
  6
Continuous
 62
     3
100
AcDbLine
 10
1556.906013078955
 20
895.0348597586094
 30
0.0
 11
1560.906013078955
 21
895.0348597586094
 31
0.0
  0
LINE
  5
6DBD
330
1E
100
AcDbEntity
  8
躯体と製品
  6
Continuous
 62
     3
100
AcDbLine
 10
1565.406013078955
 20
865.5348597586094
 30
0.0
 11
1557.406013078955
 21
865.5348597586094
 31
0.0
  0
LINE
  5
6DBE
330
1E
100
AcDbEntity
  8
躯体と製品
  6
Continuous
 62
     3
100
AcDbLine
 10
1560.406013078955
 20
896.5348597586094
 30
0.0
 11
1555.906013078955
 21
896.5348597586094
 31
0.0
  0
LINE
  5
6DBF
330
1E
100
AcDbEntity
  8
躯体と製品
  6
Continuous
 62
     3
100
AcDbLine
 10
1563.906013078955
 20
863.0348597586094
 30
0.0
 11
1553.406013078955
 21
863.0348597586094
 31
0.0
  0
ARC
  5
6DC0
330
1E
100
AcDbEntity
  8
躯体と製品
  6
Continuous
 62
     3
100
AcDbCircle
 10
1560.406013078955
 20
897.5348597586094
 30
0.0
 40
1.0
100
AcDbArc
 50
270.0
 51
0.0
  0
LINE
  5
6DC1
330
1E
100
AcDbEntity
  8
躯体と製品
  6
Continuous
 62
     3
100
AcDbLine
 10
1562.906013078955
 20
888.5348597586094
 30
0.0
 11
1562.906013078955
 21
902.0348597586094
 31
0.0
  0
ARC
  5
6DC2
330
1E
100
AcDbEntity
  8
躯体と製品
  6
Continuous
 62
     3
100
AcDbCircle
 10
1554.306013078955
 20
900.1348597586094
 30
0.0
 40
0.5999999999999998
100
AcDbArc
 50
180.0
 51
0.0
  0
ARC
  5
6DC3
330
1E
100
AcDbEntity
  8
躯体と製品
  6
Continuous
 62
     3
100
AcDbCircle
 10
1550.056013078955
 20
908.2848597586094
 30
0.0
 40
0.75
100
AcDbArc
 50
0.0
 51
180.0
  0
LINE
  5
6DC4
330
1E
100
AcDbEntity
  8
躯体と製品
  6
Continuous
 62
     3
100
AcDbLine
 10
1550.806013078955
 20
908.2848597586094
 30
0.0
 11
1550.806013078955
 21
905.0348597586094
 31
0.0
  0
LINE
  5
6DC5
330
1E
100
AcDbEntity
  8
躯体と製品
  6
Continuous
 62
     3
100
AcDbLine
 10
1550.806013078955
 20
905.0348597586094
 30
0.0
 11
1554.306013078955
 21
903.0348597586094
 31
0.0
  0
LINE
  5
6DC6
330
1E
100
AcDbEntity
  8
躯体と製品
  6
Continuous
 62
     3
100
AcDbLine
 10
1554.906013078955
 20
901.0348597586094
 30
0.0
 11
1554.906013078955
 21
900.1348597586094
 31
0.0
  0
ARC
  5
6DC7
330
1E
100
AcDbEntity
  8
躯体と製品
  6
Continuous
 62
     3
100
AcDbCircle
 10
1555.406013078955
 20
901.0348597586094
 30
0.0
 40
0.5
100
AcDbArc
 50
90.0
 51
180.0
  0
LINE
  5
6DC8
330
1E
100
AcDbEntity
  8
躯体と製品
  6
Continuous
 62
     3
100
AcDbLine
 10
1561.906013078955
 20
903.0348597586094
 30
0.0
 11
1554.306013078955
 21
903.0348597586094
 31
0.0
  0
LINE
  5
6DC9
330
1E
100
AcDbEntity
  8
躯体と製品
  6
Continuous
 62
     3
100
AcDbLine
 10
1555.406013078955
 20
901.5348597586093
 30
0.0
 11
1560.906013078955
 21
901.5348597586093
 31
0.0
  0
ARC
  5
6DCA
330
1E
100
AcDbEntity
  8
躯体と製品
  6
Continuous
 62
     3
100
AcDbCircle
 10
1575.026574480222
 20
857.6389139236736
 30
0.0
 40
0.5
100
AcDbArc
 50
357.0000000000011
 51
86.99999999999441
  0
LINE
  5
6DCB
330
1E
100
AcDbEntity
  8
躯体と製品
  6
Continuous
 62
     3
100
AcDbLine
 10
1574.553427690966
 20
858.1643966691725
 30
0.0
 11
1575.052742458343
 21
858.138228691051
 31
0.0
  0
ARC
  5
6DCC
330
1E
100
AcDbEntity
  8
躯体と製品
  6
Continuous
 62
     3
100
AcDbCircle
 10
1574.527259712844
 20
857.6650819017952
 30
0.0
 40
0.5
100
AcDbArc
 50
86.99999999999441
 51
177.0000000000011
  0
LINE
  5
6DCD
330
1E
100
AcDbEntity
  8
躯体と製品
  6
Continuous
 62
     3
100
AcDbLine
 10
1573.923273032981
 20
855.6939908104077
 30
0.0
 11
1574.027944945467
 21
857.6912498799165
 31
0.0
  0
ARC
  5
6DCE
330
1E
100
AcDbEntity
  8
躯体と製品
  6
Continuous
 62
     3
100
AcDbCircle
 10
1573.423958265604
 20
855.7201587885289
 30
0.0
 40
0.5
100
AcDbArc
 50
266.9999999999944
 51
357.0000000000011
  0
ARC
  5
6DCF
330
1E
100
AcDbEntity
  8
躯体と製品
  6
Continuous
 62
     3
100
AcDbCircle
 10
1574.660222786521
 20
850.6485071803918
 30
0.0
 40
0.5
100
AcDbArc
 50
266.9999999999944
 51
357.0000000000011
  0
LINE
  5
6DD0
330
1E
100
AcDbEntity
  8
躯体と製品
  6
Continuous
 62
     3
100
AcDbLine
 10
1574.134740041022
 20
850.1753603911359
 30
0.0
 11
1574.634054808399
 21
850.1491924130146
 31
0.0
  0
ARC
  5
6DD1
330
1E
100
AcDbEntity
  8
躯体と製品
  6
Continuous
 62
     3
100
AcDbCircle
 10
1574.160908019144
 20
850.6746751585133
 30
0.0
 40
0.5
100
AcDbArc
 50
177.0000000000011
 51
266.9999999999944
  0
LINE
  5
6DD2
330
1E
100
AcDbEntity
  8
躯体と製品
  6
Continuous
 62
     3
100
AcDbLine
 10
1573.713929208009
 20
851.6994726713893
 30
0.0
 11
1573.661593251766
 21
850.7008431366347
 31
0.0
  0
ARC
  5
6DD3
330
1E
100
AcDbEntity
  8
躯体と製品
  6
Continuous
 62
     3
100
AcDbCircle
 10
1573.214614440632
 20
851.7256406495109
 30
0.0
 40
0.5
100
AcDbArc
 50
357.0000000000011
 51
86.99999999999441
  0
LINE
  5
6DD4
330
1E
100
AcDbEntity
  8
躯体と製品
  6
Continuous
 62
     3
100
AcDbLine
 10
1567.406013078955
 20
856.4838243253243
 30
0.0
 11
1567.406013078955
 21
863.5348597586094
 31
0.0
  0
LINE
  5
6DD5
330
1E
100
AcDbEntity
  8
躯体と製品
  6
Continuous
 62
     3
100
AcDbLine
 10
1568.353677122712
 20
855.4851947905698
 30
0.0
 11
1573.397790287482
 21
855.2208440211519
 31
0.0
  0
ARC
  5
6DD6
330
1E
100
AcDbEntity
  8
躯体と製品
  6
Continuous
 62
     3
100
AcDbCircle
 10
1568.406013078955
 20
856.4838243253243
 30
0.0
 40
1.0
100
AcDbArc
 50
180.0
 51
266.9999999999944
  0
LINE
  5
6DD7
330
1E
100
AcDbEntity
  8
躯体と製品
  6
Continuous
 62
     3
100
AcDbLine
 10
1564.906013078955
 20
854.559691302253
 30
0.0
 11
1564.906013078955
 21
862.0348597586094
 31
0.0
  0
LINE
  5
6DD8
330
1E
100
AcDbEntity
  8
躯体と製品
  6
Continuous
 62
     3
100
AcDbLine
 10
1566.801341166469
 20
852.5624322327439
 30
0.0
 11
1573.240782418753
 21
852.224955416888
 31
0.0
  0
ARC
  5
6DD9
330
1E
100
AcDbEntity
  8
躯体と製品
  6
Continuous
 62
     3
100
AcDbCircle
 10
1566.906013078955
 20
854.559691302253
 30
0.0
 40
2.0
100
AcDbArc
 50
180.0
 51
266.9999999999944
  0
LINE
  5
6DDA
330
1E
100
AcDbEntity
  8
躯体と製品
  6
Continuous
 62
     3
100
AcDbLine
 10
1549.306013078955
 20
905.0348597586094
 30
0.0
 11
1549.306013078955
 21
908.2848597586094
 31
0.0
  0
ARC
  5
6DDB
330
1E
100
AcDbEntity
  8
躯体と製品
  6
Continuous
 62
     3
100
AcDbCircle
 10
1550.806013078955
 20
905.0348597586094
 30
0.0
 40
1.5
100
AcDbArc
 50
180.0
 51
240.2551187030594
  0
LINE
  5
6DDC
330
1E
100
AcDbEntity
  8
躯体と製品
  6
Continuous
 62
     3
100
AcDbLine
 10
1550.061804671419
 20
903.7324950454229
 30
0.0
 11
1553.706013078955
 21
901.6500902411168
 31
0.0
  0
LINE
  5
6DDD
330
1E
100
AcDbEntity
  8
躯体と製品
  6
Continuous
 62
     3
100
AcDbLine
 10
1553.706013078955
 20
901.6500902411168
 30
0.0
 11
1553.706013078955
 21
900.1348597586094
 31
0.0
  0
LINE
  5
6DDE
330
1E
100
AcDbEntity
  8
躯体と製品
  6
DASHED1
 62
     7
100
AcDbLine
 10
1575.395049356991
 20
855.1161721086659
 30
0.0
 11
1603.855991097496
 21
853.624597355742
 31
0.0
  0
ARC
  5
6DDF
330
1E
100
AcDbEntity
  8
躯体と製品
  6
DASHED1
 62
     7
100
AcDbCircle
 10
1603.777487163132
 20
852.1266530536102
 30
0.0
 40
1.500000000000001
100
AcDbArc
 50
266.9999999999944
 51
86.99999999999441
  0
LINE
  5
6DE0
330
1E
100
AcDbEntity
  8
躯体と製品
  6
DASHED1
 62
     7
100
AcDbLine
 10
1600.203779857127
 20
850.8118845983284
 30
0.0
 11
1603.698983228768
 21
850.6287087514783
 31
0.0
  0
LINE
  5
6DE1
330
1E
100
AcDbEntity
  8
躯体と製品
  6
DASHED1
 62
     7
100
AcDbLine
 10
1600.203779857127
 20
850.8118845983284
 30
0.0
 11
1600.25611581337
 21
851.8105141330829
 31
0.0
  0
LINE
  5
6DE2
330
1E
100
AcDbEntity
  8
躯体と製品
  6
DASHED1
 62
     7
100
AcDbLine
 10
1580.283525118278
 20
852.8572332579418
 30
0.0
 11
1600.25611581337
 21
851.8105141330829
 31
0.0
  0
LINE
  5
6DE3
330
1E
100
AcDbEntity
  8
躯体と製品
  6
DASHED1
 62
     7
100
AcDbLine
 10
1580.231189162035
 20
851.8586037231873
 30
0.0
 11
1580.283525118278
 21
852.8572332579418
 31
0.0
  0
LINE
  5
6DE4
330
1E
100
AcDbEntity
  8
躯体と製品
  6
DASHED1
 62
     7
100
AcDbLine
 10
1575.238041488263
 20
852.120283504402
 30
0.0
 11
1580.231189162035
 21
851.8586037231873
 31
0.0
  0
LINE
  5
6DE5
330
1E
100
AcDbEntity
  8
躯体と製品
  6
Continuous
 62
     4
100
AcDbLine
 10
1577.11257699306
 20
877.5570380843559
 30
0.0
 11
1576.598088506987
 21
878.0715265704289
 31
0.0
  0
LINE
  5
6DE6
330
1E
100
AcDbEntity
  8
躯体と製品
  6
Continuous
 62
     4
100
AcDbLine
 10
1576.877065189967
 20
873.0632051779606
 30
0.0
 11
1576.362576703894
 21
873.5776936640332
 31
0.0
  0
LINE
  5
6DE7
330
1E
100
AcDbEntity
  8
躯体と製品
  6
Continuous
 62
     4
100
AcDbLine
 10
1578.369493611658
 20
872.9849903186408
 30
0.0
 11
1576.43300167955
 21
874.9214822507493
 31
0.0
  0
LINE
  5
6DE8
330
1E
100
AcDbEntity
  8
躯体と製品
  6
Continuous
 62
     4
100
AcDbLine
 10
1579.861922033352
 20
872.9067754593208
 30
0.0
 11
1576.503426655206
 21
876.265270837467
 31
0.0
  0
LINE
  5
6DE9
330
1E
100
AcDbEntity
  8
躯体と製品
  6
Continuous
 62
     4
100
AcDbLine
 10
1581.354350455045
 20
872.8285606000007
 30
0.0
 11
1577.127332444111
 21
877.0555786109348
 31
0.0
  0
LINE
  5
6DEA
330
1E
100
AcDbEntity
  8
躯体と製品
  6
Continuous
 62
     4
100
AcDbLine
 10
1582.846778876738
 20
872.7503457406807
 30
0.0
 11
1578.619760865804
 21
876.9773637516149
 31
0.0
  0
LINE
  5
6DEB
330
1E
100
AcDbEntity
  8
躯体と製品
  6
Continuous
 62
     4
100
AcDbLine
 10
1584.339207298431
 20
872.672130881361
 30
0.0
 11
1580.112189287497
 21
876.8991488922951
 31
0.0
  0
LINE
  5
6DEC
330
1E
100
AcDbEntity
  8
躯体と製品
  6
Continuous
 62
     4
100
AcDbLine
 10
1585.831635720124
 20
872.5939160220415
 30
0.0
 11
1581.60461770919
 21
876.8209340329754
 31
0.0
  0
LINE
  5
6DED
330
1E
100
AcDbEntity
  8
躯体と製品
  6
Continuous
 62
     4
100
AcDbLine
 10
1587.324064141817
 20
872.5157011627214
 30
0.0
 11
1583.097046130883
 21
876.7427191736556
 31
0.0
  0
LINE
  5
6DEE
330
1E
100
AcDbEntity
  8
躯体と製品
  6
Continuous
 62
     4
100
AcDbLine
 10
1588.81649256351
 20
872.437486303402
 30
0.0
 11
1584.589474552577
 21
876.6645043143356
 31
0.0
  0
LINE
  5
6DEF
330
1E
100
AcDbEntity
  8
躯体と製品
  6
Continuous
 62
     4
100
AcDbLine
 10
1590.308920985201
 20
872.3592714440822
 30
0.0
 11
1586.081902974268
 21
876.5862894550156
 31
0.0
  0
LINE
  5
6DF0
330
1E
100
AcDbEntity
  8
躯体と製品
  6
Continuous
 62
     4
100
AcDbLine
 10
1591.33941688182
 20
872.7429891098369
 30
0.0
 11
1587.574331395961
 21
876.5080745956961
 31
0.0
  0
LINE
  5
6DF1
330
1E
100
AcDbEntity
  8
躯体と製品
  6
Continuous
 62
     4
100
AcDbLine
 10
1591.480266833131
 20
875.4305662832724
 30
0.0
 11
1590.559188239347
 21
876.3516448770564
 31
0.0
  0
LINE
  5
6DF2
330
1E
100
AcDbEntity
  8
躯体と製品
  6
Continuous
 62
     4
100
AcDbLine
 10
1591.409841857475
 20
874.0867776965549
 30
0.0
 11
1589.066759817654
 21
876.4298597363763
 31
0.0
  0
LINE
  5
6DF3
330
1E
100
AcDbEntity
  8
躯体と製品
  6
DASHED1
 62
     7
100
AcDbLine
 10
1514.514667078955
 20
882.1841937586093
 30
0.0
 11
1514.619337078955
 21
884.1814527586095
 31
0.0
  0
LINE
  5
6DF4
330
1E
100
AcDbEntity
  8
躯体と製品
  6
DASHED1
 62
     7
100
AcDbLine
 10
1532.406013078955
 20
883.0348587586096
 30
0.0
 11
1544.406013078955
 21
883.0348587586096
 31
0.0
  0
LINE
  5
6DF5
330
1E
100
AcDbEntity
  8
躯体と製品
  6
DASHED1
 62
     7
100
AcDbLine
 10
1524.605632078955
 20
874.4116227586093
 30
0.0
 11
1529.263612078955
 21
872.7162567586095
 31
0.0
  0
LINE
  5
6DF6
330
1E
100
AcDbEntity
  8
躯体と製品
  6
DASHED1
 62
     7
100
AcDbLine
 10
1536.209653078955
 20
885.3571977586094
 30
0.0
 11
1529.605633078955
 21
884.4137667586094
 31
0.0
  0
LINE
  5
6DF7
330
1E
100
AcDbEntity
  8
躯体と製品
  6
DASHED1
 62
     7
100
AcDbLine
 10
1510.275457078955
 20
877.1654127586096
 30
0.0
 11
1508.406013078955
 21
879.0348597586094
 31
0.0
  0
LINE
  5
6DF8
330
1E
100
AcDbEntity
  8
躯体と製品
  6
DASHED1
 62
     7
100
AcDbLine
 10
1509.626191078955
 20
873.6265827586096
 30
0.0
 11
1507.628932078955
 21
873.5219127586095
 31
0.0
  0
LINE
  5
6DF9
330
1E
100
AcDbEntity
  8
躯体と製品
  6
DASHED1
 62
     7
100
AcDbLine
 10
1509.521518078955
 20
875.6238417586097
 30
0.0
 11
1509.626191078955
 21
873.6265827586096
 31
0.0
  0
LINE
  5
6DFA
330
1E
100
AcDbEntity
  8
躯体と製品
  6
DASHED1
 62
     7
100
AcDbLine
 10
1511.518777078955
 20
875.7285147586093
 30
0.0
 11
1509.521518078955
 21
875.6238417586097
 31
0.0
  0
LINE
  5
6DFB
330
1E
100
AcDbEntity
  8
躯体と製品
  6
DASHED1
 62
     7
100
AcDbLine
 10
1512.622078078955
 20
873.7835907586093
 30
0.0
 11
1511.518777078955
 21
875.7285147586093
 31
0.0
  0
LINE
  5
6DFC
330
1E
100
AcDbEntity
  8
躯体と製品
  6
DASHED1
 62
     7
100
AcDbLine
 10
1514.619337078955
 20
873.8882637586094
 30
0.0
 11
1512.622078078955
 21
873.7835907586093
 31
0.0
  0
LINE
  5
6DFD
330
1E
100
AcDbEntity
  8
躯体と製品
  6
DASHED1
 62
     7
100
AcDbLine
 10
1514.514667078955
 20
875.8855227586094
 30
0.0
 11
1514.619337078955
 21
873.8882637586094
 31
0.0
  0
LINE
  5
6DFE
330
1E
100
AcDbEntity
  8
躯体と製品
  6
DASHED1
 62
     7
100
AcDbLine
 10
1516.511926078955
 20
875.9901957586096
 30
0.0
 11
1514.514667078955
 21
875.8855227586094
 31
0.0
  0
LINE
  5
6DFF
330
1E
100
AcDbEntity
  8
躯体と製品
  6
DASHED1
 62
     7
100
AcDbLine
 10
1517.615227078955
 20
874.0452717586093
 30
0.0
 11
1516.511926078955
 21
875.9901957586096
 31
0.0
  0
LINE
  5
6E00
330
1E
100
AcDbEntity
  8
躯体と製品
  6
DASHED1
 62
     7
100
AcDbLine
 10
1519.612486078955
 20
874.1499447586093
 30
0.0
 11
1517.615227078955
 21
874.0452717586093
 31
0.0
  0
LINE
  5
6E01
330
1E
100
AcDbEntity
  8
躯体と製品
  6
DASHED1
 62
     7
100
AcDbLine
 10
1519.507813078955
 20
876.1472037586093
 30
0.0
 11
1519.612486078955
 21
874.1499447586093
 31
0.0
  0
LINE
  5
6E02
330
1E
100
AcDbEntity
  8
躯体と製品
  6
DASHED1
 62
     7
100
AcDbLine
 10
1521.505072078955
 20
876.2518737586095
 30
0.0
 11
1519.507813078955
 21
876.1472037586093
 31
0.0
  0
LINE
  5
6E03
330
1E
100
AcDbEntity
  8
躯体と製品
  6
DASHED1
 62
     7
100
AcDbLine
 10
1522.608373078955
 20
874.3069527586097
 30
0.0
 11
1521.505072078955
 21
876.2518737586095
 31
0.0
  0
LINE
  5
6E04
330
1E
100
AcDbEntity
  8
躯体と製品
  6
DASHED1
 62
     7
100
AcDbLine
 10
1524.605632078955
 20
874.4116227586093
 30
0.0
 11
1522.608373078955
 21
874.3069527586097
 31
0.0
  0
LINE
  5
6E05
330
1E
100
AcDbEntity
  8
躯体と製品
  6
DASHED1
 62
     7
100
AcDbLine
 10
1524.500962078955
 20
876.4088817586095
 30
0.0
 11
1524.605632078955
 21
874.4116227586093
 31
0.0
  0
LINE
  5
6E06
330
1E
100
AcDbEntity
  8
躯体と製品
  6
DASHED1
 62
     7
100
AcDbLine
 10
1526.498221078955
 20
876.5135547586098
 30
0.0
 11
1524.500962078955
 21
876.4088817586095
 31
0.0
  0
LINE
  5
6E07
330
1E
100
AcDbEntity
  8
躯体と製品
  6
DASHED1
 62
     7
100
AcDbLine
 10
1527.601522078955
 20
874.5686307586096
 30
0.0
 11
1526.498221078955
 21
876.5135547586098
 31
0.0
  0
LINE
  5
6E08
330
1E
100
AcDbEntity
  8
躯体と製品
  6
DASHED1
 62
     7
100
AcDbLine
 10
1505.448496078955
 20
876.9124437586095
 30
0.0
 11
1536.406012078955
 21
878.5348587586096
 31
0.0
  0
LINE
  5
6E09
330
1E
100
AcDbEntity
  8
躯体と製品
  6
DASHED1
 62
     7
100
AcDbLine
 10
1505.527000078955
 20
875.4144987586094
 30
0.0
 11
1505.448496078955
 21
876.9124437586095
 31
0.0
  0
LINE
  5
6E0A
330
1E
100
AcDbEntity
  8
躯体と製品
  6
DASHED1
 62
     7
100
AcDbLine
 10
1507.628932078955
 20
873.5219127586095
 30
0.0
 11
1505.527000078955
 21
875.4144987586094
 31
0.0
  0
LINE
  5
6E0B
330
1E
100
AcDbEntity
  8
躯体と製品
  6
DASHED1
 62
     7
100
AcDbLine
 10
1507.445755078955
 20
877.0171167586097
 30
0.0
 11
1507.628932078955
 21
873.5219127586095
 31
0.0
  0
LINE
  5
6E0C
330
1E
100
AcDbEntity
  8
躯体と製品
  6
DASHED1
 62
     7
100
AcDbLine
 10
1529.598781078955
 20
874.6733037586093
 30
0.0
 11
1527.601522078955
 21
874.5686307586096
 31
0.0
  0
LINE
  5
6E0D
330
1E
100
AcDbEntity
  8
躯体と製品
  6
DASHED1
 62
     7
100
AcDbLine
 10
1529.494108078955
 20
876.6705627586095
 30
0.0
 11
1529.598781078955
 21
874.6733037586093
 31
0.0
  0
LINE
  5
6E0E
330
1E
100
AcDbEntity
  8
躯体と製品
  6
DASHED1
 62
     7
100
AcDbLine
 10
1531.491367078955
 20
876.7752327586093
 30
0.0
 11
1529.494108078955
 21
876.6705627586095
 31
0.0
  0
LINE
  5
6E0F
330
1E
100
AcDbEntity
  8
躯体と製品
  6
DASHED1
 62
     7
100
AcDbLine
 10
1544.406013078955
 20
874.0348587586096
 30
0.0
 11
1539.406012078955
 21
875.0348577586096
 31
0.0
  0
LINE
  5
6E10
330
1E
100
AcDbEntity
  8
躯体と製品
  6
DASHED1
 62
     7
100
AcDbLine
 10
1536.406012078955
 20
878.5348587586096
 30
0.0
 11
1536.406012078955
 21
879.5348577586096
 31
0.0
  0
LINE
  5
6E11
330
1E
100
AcDbEntity
  8
躯体と製品
  6
DASHED1
 62
     7
100
AcDbLine
 10
1509.626191078955
 20
884.4431337586096
 30
0.0
 11
1507.628932078955
 21
884.5478037586094
 31
0.0
  0
LINE
  5
6E12
330
1E
100
AcDbEntity
  8
躯体と製品
  6
DASHED1
 62
     7
100
AcDbLine
 10
1509.521518078955
 20
882.4458747586096
 30
0.0
 11
1509.626191078955
 21
884.4431337586096
 31
0.0
  0
LINE
  5
6E13
330
1E
100
AcDbEntity
  8
躯体と製品
  6
DASHED1
 62
     7
100
AcDbLine
 10
1511.518777078955
 20
882.3412017586095
 30
0.0
 11
1509.521518078955
 21
882.4458747586096
 31
0.0
  0
LINE
  5
6E14
330
1E
100
AcDbEntity
  8
躯体と製品
  6
DASHED1
 62
     7
100
AcDbLine
 10
1512.622078078955
 20
884.2861257586095
 30
0.0
 11
1511.518777078955
 21
882.3412017586095
 31
0.0
  0
LINE
  5
6E15
330
1E
100
AcDbEntity
  8
躯体と製品
  6
DASHED1
 62
     7
100
AcDbLine
 10
1514.619337078955
 20
884.1814527586095
 30
0.0
 11
1512.622078078955
 21
884.2861257586095
 31
0.0
  0
LINE
  5
6E16
330
1E
100
AcDbEntity
  8
躯体と製品
  6
DASHED1
 62
     7
100
AcDbLine
 10
1516.511926078955
 20
882.0795207586094
 30
0.0
 11
1514.514667078955
 21
882.1841937586093
 31
0.0
  0
LINE
  5
6E17
330
1E
100
AcDbEntity
  8
躯体と製品
  6
DASHED1
 62
     7
100
AcDbLine
 10
1517.615227078955
 20
884.0244447586094
 30
0.0
 11
1516.511926078955
 21
882.0795207586094
 31
0.0
  0
LINE
  5
6E18
330
1E
100
AcDbEntity
  8
躯体と製品
  6
DASHED1
 62
     7
100
AcDbLine
 10
1519.612486078955
 20
883.9197717586095
 30
0.0
 11
1517.615227078955
 21
884.0244447586094
 31
0.0
  0
LINE
  5
6E19
330
1E
100
AcDbEntity
  8
躯体と製品
  6
DASHED1
 62
     7
100
AcDbLine
 10
1519.507813078955
 20
881.9225127586097
 30
0.0
 11
1519.612486078955
 21
883.9197717586095
 31
0.0
  0
LINE
  5
6E1A
330
1E
100
AcDbEntity
  8
躯体と製品
  6
DASHED1
 62
     7
100
AcDbLine
 10
1521.505072078955
 20
881.8178427586094
 30
0.0
 11
1519.507813078955
 21
881.9225127586097
 31
0.0
  0
LINE
  5
6E1B
330
1E
100
AcDbEntity
  8
躯体と製品
  6
DASHED1
 62
     7
100
AcDbLine
 10
1522.608373078955
 20
883.7627637586095
 30
0.0
 11
1521.505072078955
 21
881.8178427586094
 31
0.0
  0
LINE
  5
6E1C
330
1E
100
AcDbEntity
  8
躯体と製品
  6
DASHED1
 62
     7
100
AcDbLine
 10
1524.605632078955
 20
883.6580937586093
 30
0.0
 11
1522.608373078955
 21
883.7627637586095
 31
0.0
  0
LINE
  5
6E1D
330
1E
100
AcDbEntity
  8
躯体と製品
  6
DASHED1
 62
     7
100
AcDbLine
 10
1524.500962078955
 20
881.6608347586095
 30
0.0
 11
1524.605632078955
 21
883.6580937586093
 31
0.0
  0
LINE
  5
6E1E
330
1E
100
AcDbEntity
  8
躯体と製品
  6
DASHED1
 62
     7
100
AcDbLine
 10
1526.498221078955
 20
881.5561617586094
 30
0.0
 11
1524.500962078955
 21
881.6608347586095
 31
0.0
  0
LINE
  5
6E1F
330
1E
100
AcDbEntity
  8
躯体と製品
  6
DASHED1
 62
     7
100
AcDbLine
 10
1527.601522078955
 20
883.5010857586096
 30
0.0
 11
1526.498221078955
 21
881.5561617586094
 31
0.0
  0
LINE
  5
6E20
330
1E
100
AcDbEntity
  8
躯体と製品
  6
DASHED1
 62
     7
100
AcDbLine
 10
1505.448496078955
 20
881.1572727586094
 30
0.0
 11
1536.406012078955
 21
879.5348577586096
 31
0.0
  0
LINE
  5
6E21
330
1E
100
AcDbEntity
  8
躯体と製品
  6
DASHED1
 62
     7
100
AcDbLine
 10
1505.527000078955
 20
882.6552177586098
 30
0.0
 11
1505.448496078955
 21
881.1572727586094
 31
0.0
  0
LINE
  5
6E22
330
1E
100
AcDbEntity
  8
躯体と製品
  6
DASHED1
 62
     7
100
AcDbLine
 10
1507.628932078955
 20
884.5478037586094
 30
0.0
 11
1505.527000078955
 21
882.6552177586098
 31
0.0
  0
LINE
  5
6E23
330
1E
100
AcDbEntity
  8
躯体と製品
  6
DASHED1
 62
     7
100
AcDbLine
 10
1507.445755078955
 20
881.0525997586097
 30
0.0
 11
1507.628932078955
 21
884.5478037586094
 31
0.0
  0
LINE
  5
6E24
330
1E
100
AcDbEntity
  8
躯体と製品
  6
DASHED1
 62
     7
100
AcDbLine
 10
1529.598781078955
 20
883.3964127586094
 30
0.0
 11
1527.601522078955
 21
883.5010857586096
 31
0.0
  0
LINE
  5
6E25
330
1E
100
AcDbEntity
  8
躯体と製品
  6
DASHED1
 62
     7
100
AcDbLine
 10
1529.494108078955
 20
881.3991537586096
 30
0.0
 11
1529.598781078955
 21
883.3964127586094
 31
0.0
  0
LINE
  5
6E26
330
1E
100
AcDbEntity
  8
躯体と製品
  6
DASHED1
 62
     7
100
AcDbLine
 10
1531.491367078955
 20
881.2944837586094
 30
0.0
 11
1529.494108078955
 21
881.3991537586096
 31
0.0
  0
LINE
  5
6E27
330
1E
100
AcDbEntity
  8
躯体と製品
  6
DASHED1
 62
     7
100
AcDbLine
 10
1510.275457078955
 20
880.9043037586095
 30
0.0
 11
1508.406013078955
 21
879.0348597586094
 31
0.0
  0
LINE
  5
6E28
330
1E
100
AcDbEntity
  8
躯体と製品
  6
DASHED1
 62
     7
100
AcDbLine
 10
1539.406012078955
 20
879.0348597586094
 30
0.0
 11
1544.406013078955
 21
879.0348597586094
 31
0.0
  0
LINE
  5
6E29
330
1E
100
AcDbEntity
  8
躯体と製品
  6
DASHED1
 62
     7
100
AcDbLine
 10
1544.406013078955
 20
878.0348577586098
 30
0.0
 11
1539.406012078955
 21
879.0348597586094
 31
0.0
  0
LINE
  5
6E2A
330
1E
100
AcDbEntity
  8
躯体と製品
  6
DASHED1
 62
     7
100
AcDbLine
 10
1544.406013078955
 20
880.0348587586093
 30
0.0
 11
1539.406012078955
 21
879.0348597586094
 31
0.0
  0
LINE
  5
6E2B
330
1E
100
AcDbEntity
  8
躯体と製品
  6
DASHED1
 62
     7
100
AcDbLine
 10
1544.406013078955
 20
884.0348577586096
 30
0.0
 11
1539.406012078955
 21
883.0348587586096
 31
0.0
  0
LINE
  5
6E2C
330
1E
100
AcDbEntity
  8
躯体と製品
  6
DASHED1
 62
     7
100
AcDbLine
 10
1532.406013078955
 20
883.0348587586096
 30
0.0
 11
1531.491367078955
 21
881.2944837586094
 31
0.0
  0
ARC
  5
6E2D
330
1E
100
AcDbEntity
  8
躯体と製品
  6
DASHED1
 62
     7
100
AcDbCircle
 10
1536.153085078955
 20
885.7531767586094
 30
0.0
 40
0.3999990000000001
100
AcDbArc
 50
278.1301019999978
 51
8.130102000001478
  0
LINE
  5
6E2E
330
1E
100
AcDbEntity
  8
躯体と製品
  6
DASHED1
 62
     7
100
AcDbLine
 10
1536.520948078955
 20
886.0065717586094
 30
0.0
 11
1536.549064078955
 21
885.8097477586094
 31
0.0
  0
ARC
  5
6E2F
330
1E
100
AcDbEntity
  8
躯体と製品
  6
DASHED1
 62
     7
100
AcDbCircle
 10
1536.124966078955
 20
885.9500037586094
 30
0.0
 40
0.3999990000000001
100
AcDbArc
 50
8.130102000001478
 51
98.29846599999713
  0
LINE
  5
6E30
330
1E
100
AcDbEntity
  8
躯体と製品
  6
DASHED1
 62
     7
100
AcDbLine
 10
1529.263612078955
 20
885.3534597586094
 30
0.0
 11
1536.067234078955
 21
886.3458147586095
 31
0.0
  0
LINE
  5
6E31
330
1E
100
AcDbEntity
  8
躯体と製品
  6
DASHED1
 62
     7
100
AcDbLine
 10
1536.209653078955
 20
872.7125187586095
 30
0.0
 11
1529.605633078955
 21
873.6559497586094
 31
0.0
  0
ARC
  5
6E32
330
1E
100
AcDbEntity
  8
躯体と製品
  6
DASHED1
 62
     7
100
AcDbCircle
 10
1536.153085078955
 20
872.3165397586095
 30
0.0
 40
0.3999990000000001
100
AcDbArc
 50
351.8698979999985
 51
81.86989800000221
  0
LINE
  5
6E33
330
1E
100
AcDbEntity
  8
躯体と製品
  6
DASHED1
 62
     7
100
AcDbLine
 10
1536.520948078955
 20
872.0631447586095
 30
0.0
 11
1536.549064078955
 21
872.2599717586094
 31
0.0
  0
ARC
  5
6E34
330
1E
100
AcDbEntity
  8
躯体と製品
  6
DASHED1
 62
     7
100
AcDbCircle
 10
1536.124966078955
 20
872.1197127586092
 30
0.0
 40
0.3999990000000001
100
AcDbArc
 50
261.7015340000029
 51
351.8698979999985
  0
LINE
  5
6E35
330
1E
100
AcDbEntity
  8
躯体と製品
  6
DASHED1
 62
     7
100
AcDbLine
 10
1529.263612078955
 20
872.7162567586095
 30
0.0
 11
1536.067234078955
 21
871.7239017586093
 31
0.0
  0
LINE
  5
6E36
330
1E
100
AcDbEntity
  8
躯体と製品
  6
DASHED1
 62
     7
100
AcDbLine
 10
1524.605632078955
 20
875.4758007586094
 30
0.0
 11
1529.605633078955
 21
873.6559497586094
 31
0.0
  0
LINE
  5
6E37
330
1E
100
AcDbEntity
  8
躯体と製品
  6
DASHED1
 62
     7
100
AcDbLine
 10
1524.605632078955
 20
883.6580937586093
 30
0.0
 11
1529.263612078955
 21
885.3534597586094
 31
0.0
  0
LINE
  5
6E38
330
1E
100
AcDbEntity
  8
躯体と製品
  6
DASHED1
 62
     7
100
AcDbLine
 10
1524.605632078955
 20
882.5939157586095
 30
0.0
 11
1529.605633078955
 21
884.4137667586094
 31
0.0
  0
LINE
  5
6E39
330
1E
100
AcDbEntity
  8
躯体と製品
  6
DASHED1
 62
     7
100
AcDbLine
 10
1532.406013078955
 20
875.0348577586096
 30
0.0
 11
1544.406013078955
 21
875.0348577586096
 31
0.0
  0
LINE
  5
6E3A
330
1E
100
AcDbEntity
  8
躯体と製品
  6
DASHED1
 62
     7
100
AcDbLine
 10
1531.491367078955
 20
876.7752327586093
 30
0.0
 11
1532.406013078955
 21
875.0348577586096
 31
0.0
  0
LINE
  5
6E3B
330
1E
100
AcDbEntity
  8
躯体と製品
  6
Continuous
 62
     3
100
AcDbLine
 10
1546.406013078955
 20
884.0348597586094
 30
0.0
 11
1546.906013078955
 21
884.0348597586094
 31
0.0
  0
LINE
  5
6E3C
330
1E
100
AcDbEntity
  8
躯体と製品
  6
Continuous
 62
     3
100
AcDbLine
 10
1546.406013078955
 20
874.0348597586093
 30
0.0
 11
1546.906013078955
 21
874.0348597586093
 31
0.0
  0
LINE
  5
6E3D
330
1E
100
AcDbEntity
  8
躯体と製品
  6
Continuous
 62
     3
100
AcDbLine
 10
1548.906013078955
 20
879.5348597586094
 30
0.0
 11
1548.406013078955
 21
879.0348597586094
 31
0.0
  0
LINE
  5
6E3E
330
1E
100
AcDbEntity
  8
躯体と製品
  6
Continuous
 62
     3
100
AcDbLine
 10
1548.906013078955
 20
878.5348597586093
 30
0.0
 11
1548.406013078955
 21
879.0348597586094
 31
0.0
  0
LINE
  5
6E3F
330
1E
100
AcDbEntity
  8
躯体と製品
  6
Continuous
 62
     3
100
AcDbLine
 10
1546.406013078955
 20
884.0348597586094
 30
0.0
 11
1546.406013078955
 21
874.0348597586093
 31
0.0
  0
LINE
  5
6E40
330
1E
100
AcDbEntity
  8
躯体と製品
  6
Continuous
 62
     3
100
AcDbLine
 10
1546.406013078955
 20
925.5348597586094
 30
0.0
 11
1546.906013078955
 21
925.5348597586094
 31
0.0
  0
LINE
  5
6E41
330
1E
100
AcDbEntity
  8
躯体と製品
  6
Continuous
 62
     3
100
AcDbLine
 10
1546.906013078955
 20
925.5348597586094
 30
0.0
 11
1546.906013078955
 21
912.5348597586095
 31
0.0
  0
LINE
  5
6E42
330
1E
100
AcDbEntity
  8
躯体と製品
  6
Continuous
 62
     3
100
AcDbLine
 10
1546.906013078955
 20
912.5348597586095
 30
0.0
 11
1546.406013078955
 21
912.5348597586095
 31
0.0
  0
LINE
  5
6E43
330
1E
100
AcDbEntity
  8
躯体と製品
  6
Continuous
 62
     3
100
AcDbLine
 10
1546.406013078955
 20
911.0348597586094
 30
0.0
 11
1546.906013078955
 21
911.0348597586094
 31
0.0
  0
ARC
  5
6E44
330
1E
100
AcDbEntity
  8
躯体と製品
  6
Continuous
 62
     3
100
AcDbCircle
 10
1556.406013078955
 20
920.8348597586093
 30
0.0
 40
0.2999999999999999
100
AcDbArc
 50
180.0
 51
270.0
  0
LINE
  5
6E45
330
1E
100
AcDbEntity
  8
躯体と製品
  6
Continuous
 62
     3
100
AcDbLine
 10
1556.406013078955
 20
920.5348597586093
 30
0.0
 11
1561.006013078955
 21
920.5348597586093
 31
0.0
  0
LINE
  5
6E46
330
1E
100
AcDbEntity
  8
躯体と製品
  6
Continuous
 62
     3
100
AcDbLine
 10
1554.906013078955
 20
920.3348597586094
 30
0.0
 11
1554.906013078955
 21
925.0348597586095
 31
0.0
  0
ARC
  5
6E47
330
1E
100
AcDbEntity
  8
躯体と製品
  6
Continuous
 62
     3
100
AcDbCircle
 10
1555.906013078955
 20
920.3348597586094
 30
0.0
 40
1.0
100
AcDbArc
 50
180.0
 51
270.0
  0
LINE
  5
6E48
330
1E
100
AcDbEntity
  8
躯体と製品
  6
Continuous
 62
     3
100
AcDbLine
 10
1555.906013078955
 20
919.3348597586092
 30
0.0
 11
1561.006013078955
 21
919.3348597586092
 31
0.0
  0
ARC
  5
6E49
330
1E
100
AcDbEntity
  8
躯体と製品
  6
Continuous
 62
     3
100
AcDbCircle
 10
1554.406013078955
 20
925.0348597586095
 30
0.0
 40
0.5
100
AcDbArc
 50
0.0
 51
90.0
  0
LINE
  5
6E4A
330
1E
100
AcDbEntity
  8
躯体と製品
  6
Continuous
 62
     3
100
AcDbLine
 10
1554.406013078955
 20
925.5348597586094
 30
0.0
 11
1549.406013078955
 21
925.5348597586094
 31
0.0
  0
ARC
  5
6E4B
330
1E
100
AcDbEntity
  8
躯体と製品
  6
Continuous
 62
     3
100
AcDbCircle
 10
1549.406013078955
 20
925.0348597586095
 30
0.0
 40
0.5
100
AcDbArc
 50
90.0
 51
180.0
  0
LINE
  5
6E4C
330
1E
100
AcDbEntity
  8
躯体と製品
  6
Continuous
 62
     3
100
AcDbLine
 10
1548.906013078955
 20
925.0348597586095
 30
0.0
 11
1548.906013078955
 21
913.0348597586094
 31
0.0
  0
ARC
  5
6E4D
330
1E
100
AcDbEntity
  8
躯体と製品
  6
Continuous
 62
     3
100
AcDbCircle
 10
1561.006013078955
 20
919.9348597586093
 30
0.0
 40
0.5999999999999999
100
AcDbArc
 50
270.0
 51
90.0
  0
ARC
  5
6E4E
330
1E
100
AcDbEntity
  8
躯体と製品
  6
Continuous
 62
     3
100
AcDbCircle
 10
1549.406013078955
 20
910.5348597586093
 30
0.0
 40
0.5
100
AcDbArc
 50
90.0
 51
180.0
  0
ARC
  5
6E4F
330
1E
100
AcDbEntity
  8
躯体と製品
  6
Continuous
 62
     3
100
AcDbCircle
 10
1549.406013078955
 20
913.0348597586094
 30
0.0
 40
0.5
100
AcDbArc
 50
180.0
 51
270.0
  0
LINE
  5
6E50
330
1E
100
AcDbEntity
  8
躯体と製品
  6
Continuous
 62
     3
100
AcDbLine
 10
1554.906013078955
 20
912.5348597586095
 30
0.0
 11
1549.406013078955
 21
912.5348597586095
 31
0.0
  0
ARC
  5
6E51
330
1E
100
AcDbEntity
  8
躯体と製品
  6
Continuous
 62
     3
100
AcDbCircle
 10
1554.906013078955
 20
912.0348597586094
 30
0.0
 40
0.5
100
AcDbArc
 50
0.0
 51
90.0
  0
LINE
  5
6E52
330
1E
100
AcDbEntity
  8
躯体と製品
  6
Continuous
 62
     3
100
AcDbLine
 10
1555.406013078955
 20
906.0348597586093
 30
0.0
 11
1555.406013078955
 21
912.0348597586094
 31
0.0
  0
ARC
  5
6E53
330
1E
100
AcDbEntity
  8
躯体と製品
  6
Continuous
 62
     3
100
AcDbCircle
 10
1554.406013078955
 20
906.0348597586093
 30
0.0
 40
1.0
100
AcDbArc
 50
270.0
 51
0.0
  0
LINE
  5
6E54
330
1E
100
AcDbEntity
  8
躯体と製品
  6
Continuous
 62
     3
100
AcDbLine
 10
1554.406013078955
 20
905.0348597586094
 30
0.0
 11
1552.506013078955
 21
905.0348597586094
 31
0.0
  0
LINE
  5
6E55
330
1E
100
AcDbEntity
  8
躯体と製品
  6
Continuous
 62
     3
100
AcDbLine
 10
1553.906013078955
 20
910.5348597586093
 30
0.0
 11
1553.906013078955
 21
906.7348597586095
 31
0.0
  0
ARC
  5
6E56
330
1E
100
AcDbEntity
  8
躯体と製品
  6
Continuous
 62
     3
100
AcDbCircle
 10
1553.406013078955
 20
910.5348597586093
 30
0.0
 40
0.5
100
AcDbArc
 50
0.0
 51
90.0
  0
LINE
  5
6E57
330
1E
100
AcDbEntity
  8
躯体と製品
  6
Continuous
 62
     3
100
AcDbLine
 10
1553.406013078955
 20
911.0348597586094
 30
0.0
 11
1549.406013078955
 21
911.0348597586094
 31
0.0
  0
LINE
  5
6E58
330
1E
100
AcDbEntity
  8
躯体と製品
  6
Continuous
 62
     3
100
AcDbLine
 10
1553.406013078955
 20
906.2348597586096
 30
0.0
 11
1552.506013078955
 21
906.2348597586096
 31
0.0
  0
ARC
  5
6E59
330
1E
100
AcDbEntity
  8
躯体と製品
  6
Continuous
 62
     3
100
AcDbCircle
 10
1553.406013078955
 20
906.7348597586095
 30
0.0
 40
0.5
100
AcDbArc
 50
270.0
 51
0.0
  0
ARC
  5
6E5A
330
1E
100
AcDbEntity
  8
躯体と製品
  6
Continuous
 62
     3
100
AcDbCircle
 10
1552.506013078955
 20
905.6348597586094
 30
0.0
 40
0.5999999999999999
100
AcDbArc
 50
90.0
 51
270.0
  0
LINE
  5
6E5B
330
1E
100
AcDbEntity
  8
躯体と製品
  6
Continuous
 62
     3
100
AcDbLine
 10
1547.906013078955
 20
927.8348597586093
 30
0.0
 11
1547.906013078955
 21
931.2348597586096
 31
0.0
  0
ARC
  5
6E5C
330
1E
100
AcDbEntity
  8
躯体と製品
  6
Continuous
 62
     3
100
AcDbCircle
 10
1548.206013078955
 20
927.8348597586093
 30
0.0
 40
0.2999999999999999
100
AcDbArc
 50
180.0
 51
270.0
  0
LINE
  5
6E5D
330
1E
100
AcDbEntity
  8
躯体と製品
  6
Continuous
 62
     3
100
AcDbLine
 10
1548.206013078955
 20
927.5348597586093
 30
0.0
 11
1549.406013078955
 21
927.5348597586093
 31
0.0
  0
LINE
  5
6E5E
330
1E
100
AcDbEntity
  8
躯体と製品
  6
Continuous
 62
     3
100
AcDbLine
 10
1548.206013078955
 20
931.5348597586094
 30
0.0
 11
1549.406013078955
 21
931.5348597586094
 31
0.0
  0
ARC
  5
6E5F
330
1E
100
AcDbEntity
  8
躯体と製品
  6
Continuous
 62
     3
100
AcDbCircle
 10
1548.206013078955
 20
931.2348597586096
 30
0.0
 40
0.2999999999999999
100
AcDbArc
 50
90.0
 51
180.0
  0
LINE
  5
6E60
330
1E
100
AcDbEntity
  8
躯体と製品
  6
Continuous
 62
     3
100
AcDbLine
 10
1554.406013078955
 20
931.5348597586094
 30
0.0
 11
1556.906013078955
 21
931.5348597586094
 31
0.0
  0
LINE
  5
6E61
330
1E
100
AcDbEntity
  8
躯体と製品
  6
Continuous
 62
     3
100
AcDbLine
 10
1554.406013078955
 20
927.5348597586093
 30
0.0
 11
1556.906013078955
 21
927.5348597586093
 31
0.0
  0
LINE
  5
6E62
330
1E
100
AcDbEntity
  8
躯体と製品
  6
Continuous
 62
     3
100
AcDbLine
 10
1554.406013078955
 20
931.5348597586094
 30
0.0
 11
1553.906013078955
 21
931.0348597586093
 31
0.0
  0
LINE
  5
6E63
330
1E
100
AcDbEntity
  8
躯体と製品
  6
Continuous
 62
     3
100
AcDbLine
 10
1553.906013078955
 20
931.0348597586093
 30
0.0
 11
1553.406013078955
 21
931.5348597586094
 31
0.0
  0
LINE
  5
6E64
330
1E
100
AcDbEntity
  8
躯体と製品
  6
Continuous
 62
     3
100
AcDbLine
 10
1553.406013078955
 20
931.5348597586094
 30
0.0
 11
1552.906013078955
 21
931.0348597586093
 31
0.0
  0
LINE
  5
6E65
330
1E
100
AcDbEntity
  8
躯体と製品
  6
Continuous
 62
     3
100
AcDbLine
 10
1552.906013078955
 20
931.0348597586093
 30
0.0
 11
1552.406013078955
 21
931.5348597586094
 31
0.0
  0
LINE
  5
6E66
330
1E
100
AcDbEntity
  8
躯体と製品
  6
Continuous
 62
     3
100
AcDbLine
 10
1552.406013078955
 20
931.5348597586094
 30
0.0
 11
1551.906013078955
 21
931.0348597586093
 31
0.0
  0
LINE
  5
6E67
330
1E
100
AcDbEntity
  8
躯体と製品
  6
Continuous
 62
     3
100
AcDbLine
 10
1551.906013078955
 20
931.0348597586093
 30
0.0
 11
1551.406013078955
 21
931.5348597586094
 31
0.0
  0
LINE
  5
6E68
330
1E
100
AcDbEntity
  8
躯体と製品
  6
Continuous
 62
     3
100
AcDbLine
 10
1551.406013078955
 20
931.5348597586094
 30
0.0
 11
1550.906013078955
 21
931.0348597586093
 31
0.0
  0
LINE
  5
6E69
330
1E
100
AcDbEntity
  8
躯体と製品
  6
Continuous
 62
     3
100
AcDbLine
 10
1550.906013078955
 20
931.0348597586093
 30
0.0
 11
1550.406013078955
 21
931.5348597586094
 31
0.0
  0
LINE
  5
6E6A
330
1E
100
AcDbEntity
  8
躯体と製品
  6
Continuous
 62
     3
100
AcDbLine
 10
1550.406013078955
 20
931.5348597586094
 30
0.0
 11
1549.906013078954
 21
931.0348597586093
 31
0.0
  0
LINE
  5
6E6B
330
1E
100
AcDbEntity
  8
躯体と製品
  6
Continuous
 62
     3
100
AcDbLine
 10
1549.906013078954
 20
931.0348597586093
 30
0.0
 11
1549.406013078955
 21
931.5348597586094
 31
0.0
  0
LINE
  5
6E6C
330
1E
100
AcDbEntity
  8
躯体と製品
  6
Continuous
 62
     3
100
AcDbLine
 10
1554.406013078955
 20
927.5348597586093
 30
0.0
 11
1553.906013078955
 21
928.0348597586094
 31
0.0
  0
LINE
  5
6E6D
330
1E
100
AcDbEntity
  8
躯体と製品
  6
Continuous
 62
     3
100
AcDbLine
 10
1553.906013078955
 20
928.0348597586094
 30
0.0
 11
1553.406013078955
 21
927.5348597586093
 31
0.0
  0
LINE
  5
6E6E
330
1E
100
AcDbEntity
  8
躯体と製品
  6
Continuous
 62
     3
100
AcDbLine
 10
1553.406013078955
 20
927.5348597586093
 30
0.0
 11
1552.906013078955
 21
928.0348597586094
 31
0.0
  0
LINE
  5
6E6F
330
1E
100
AcDbEntity
  8
躯体と製品
  6
Continuous
 62
     3
100
AcDbLine
 10
1552.906013078955
 20
928.0348597586094
 30
0.0
 11
1552.406013078955
 21
927.5348597586093
 31
0.0
  0
LINE
  5
6E70
330
1E
100
AcDbEntity
  8
躯体と製品
  6
Continuous
 62
     3
100
AcDbLine
 10
1552.406013078955
 20
927.5348597586093
 30
0.0
 11
1551.906013078955
 21
928.0348597586094
 31
0.0
  0
LINE
  5
6E71
330
1E
100
AcDbEntity
  8
躯体と製品
  6
Continuous
 62
     3
100
AcDbLine
 10
1551.906013078955
 20
928.0348597586094
 30
0.0
 11
1551.406013078955
 21
927.5348597586093
 31
0.0
  0
LINE
  5
6E72
330
1E
100
AcDbEntity
  8
躯体と製品
  6
Continuous
 62
     3
100
AcDbLine
 10
1551.406013078955
 20
927.5348597586093
 30
0.0
 11
1550.906013078955
 21
928.0348597586094
 31
0.0
  0
LINE
  5
6E73
330
1E
100
AcDbEntity
  8
躯体と製品
  6
Continuous
 62
     3
100
AcDbLine
 10
1550.906013078955
 20
928.0348597586094
 30
0.0
 11
1550.406013078955
 21
927.5348597586093
 31
0.0
  0
LINE
  5
6E74
330
1E
100
AcDbEntity
  8
躯体と製品
  6
Continuous
 62
     3
100
AcDbLine
 10
1550.406013078955
 20
927.5348597586093
 30
0.0
 11
1549.906013078954
 21
928.0348597586094
 31
0.0
  0
LINE
  5
6E75
330
1E
100
AcDbEntity
  8
躯体と製品
  6
Continuous
 62
     3
100
AcDbLine
 10
1549.906013078954
 20
928.0348597586094
 30
0.0
 11
1549.406013078955
 21
927.5348597586093
 31
0.0
  0
LINE
  5
6E76
330
1E
100
AcDbEntity
  8
躯体と製品
  6
Continuous
 62
     3
100
AcDbLine
 10
1546.906013078955
 20
933.5348597586094
 30
0.0
 11
1555.406013078955
 21
933.5348597586094
 31
0.0
  0
ARC
  5
6E77
330
1E
100
AcDbEntity
  8
躯体と製品
  6
Continuous
 62
     3
100
AcDbCircle
 10
1546.906013078955
 20
933.0348597586093
 30
0.0
 40
0.5
100
AcDbArc
 50
90.0
 51
180.0
  0
LINE
  5
6E78
330
1E
100
AcDbEntity
  8
躯体と製品
  6
Continuous
 62
     3
100
AcDbLine
 10
1546.406013078955
 20
933.0348597586093
 30
0.0
 11
1546.406013078955
 21
925.5348597586094
 31
0.0
  0
LINE
  5
6E79
330
1E
100
AcDbEntity
  8
躯体と製品
  6
Continuous
 62
     3
100
AcDbLine
 10
1555.406013078955
 20
933.5348597586094
 30
0.0
 11
1555.406013078955
 21
932.7348597586095
 31
0.0
  0
LINE
  5
6E7A
330
1E
100
AcDbEntity
  8
躯体と製品
  6
Continuous
 62
     3
100
AcDbLine
 10
1556.106013078955
 20
926.3348597586093
 30
0.0
 11
1556.806013078955
 21
926.3348597586093
 31
0.0
  0
LINE
  5
6E7B
330
1E
100
AcDbEntity
  8
躯体と製品
  6
Continuous
 62
     3
100
AcDbLine
 10
1556.106013078955
 20
920.8348597586093
 30
0.0
 11
1556.106013078955
 21
926.3348597586093
 31
0.0
  0
LINE
  5
6E7C
330
1E
100
AcDbEntity
  8
躯体と製品
  6
Continuous
 62
     3
100
AcDbLine
 10
1555.406013078955
 20
932.7348597586095
 30
0.0
 11
1556.806013078955
 21
932.7348597586095
 31
0.0
  0
LINE
  5
6E7D
330
1E
100
AcDbEntity
  8
躯体と製品
  6
Continuous
 62
     3
100
AcDbLine
 10
1546.406013078955
 20
912.5348597586095
 30
0.0
 11
1546.406013078955
 21
911.0348597586094
 31
0.0
  0
ARC
  5
6E7E
330
1E
100
AcDbEntity
  8
躯体と製品
  6
Continuous
 62
     3
100
AcDbCircle
 10
1556.806013078955
 20
926.9348597586093
 30
0.0
 40
0.5999999999999999
100
AcDbArc
 50
270.0
 51
90.0
  0
ARC
  5
6E7F
330
1E
100
AcDbEntity
  8
躯体と製品
  6
Continuous
 62
     3
100
AcDbCircle
 10
1556.806013078955
 20
932.1348597586094
 30
0.0
 40
0.5999999999999999
100
AcDbArc
 50
270.0
 51
90.0
  0
LINE
  5
6E80
330
1E
100
AcDbEntity
  8
躯体と製品
  6
Continuous
 62
     3
100
AcDbLine
 10
1546.906013078955
 20
911.0348597586094
 30
0.0
 11
1546.906013078955
 21
899.5348597586094
 31
0.0
  0
LINE
  5
6E81
330
1E
100
AcDbEntity
  8
躯体と製品
  6
Continuous
 62
     3
100
AcDbLine
 10
1548.906013078955
 20
900.0348597586095
 30
0.0
 11
1548.906013078955
 21
910.5348597586093
 31
0.0
  0
LINE
  5
6E82
330
1E
100
AcDbEntity
  8
躯体と製品
  6
Continuous
 62
     3
100
AcDbLine
 10
1546.906013078955
 20
899.5348597586094
 30
0.0
 11
1546.406013078955
 21
899.5348597586094
 31
0.0
  0
LINE
  5
6E83
330
1E
100
AcDbEntity
  8
躯体と製品
  6
Continuous
 62
     3
100
AcDbLine
 10
1546.406013078955
 20
898.0348597586093
 30
0.0
 11
1546.906013078955
 21
898.0348597586093
 31
0.0
  0
LINE
  5
6E84
330
1E
100
AcDbEntity
  8
躯体と製品
  6
Continuous
 62
     3
100
AcDbLine
 10
1546.906013078955
 20
898.0348597586093
 30
0.0
 11
1546.906013078955
 21
884.0348597586094
 31
0.0
  0
LINE
  5
6E85
330
1E
100
AcDbEntity
  8
躯体と製品
  6
Continuous
 62
     3
100
AcDbLine
 10
1546.906013078955
 20
874.0348597586093
 30
0.0
 11
1546.906013078955
 21
860.0348597586094
 31
0.0
  0
LINE
  5
6E86
330
1E
100
AcDbEntity
  8
躯体と製品
  6
Continuous
 62
     3
100
AcDbLine
 10
1546.906013078955
 20
860.0348597586094
 30
0.0
 11
1546.406013078955
 21
860.0348597586094
 31
0.0
  0
ARC
  5
6E87
330
1E
100
AcDbEntity
  8
躯体と製品
  6
Continuous
 62
     3
100
AcDbCircle
 10
1549.406013078955
 20
900.0348597586095
 30
0.0
 40
0.5
100
AcDbArc
 50
180.0
 51
270.0
  0
LINE
  5
6E88
330
1E
100
AcDbEntity
  8
躯体と製品
  6
Continuous
 62
     3
100
AcDbLine
 10
1549.406013078955
 20
899.5348597586094
 30
0.0
 11
1558.406013078955
 21
899.5348597586094
 31
0.0
  0
LINE
  5
6E89
330
1E
100
AcDbEntity
  8
躯体と製品
  6
Continuous
 62
     3
100
AcDbLine
 10
1549.406013078955
 20
853.5348597586093
 30
0.0
 11
1555.156013078955
 21
853.5348597586093
 31
0.0
  0
ARC
  5
6E8A
330
1E
100
AcDbEntity
  8
躯体と製品
  6
Continuous
 62
     3
100
AcDbCircle
 10
1549.406013078955
 20
854.0348597586094
 30
0.0
 40
0.5
100
AcDbArc
 50
180.0
 51
270.0
  0
ARC
  5
6E8B
330
1E
100
AcDbEntity
  8
躯体と製品
  6
Continuous
 62
     3
100
AcDbCircle
 10
1549.406013078955
 20
851.5348597586093
 30
0.0
 40
0.5
100
AcDbArc
 50
90.0
 51
180.0
  0
LINE
  5
6E8C
330
1E
100
AcDbEntity
  8
躯体と製品
  6
Continuous
 62
     3
100
AcDbLine
 10
1549.406013078955
 20
852.0348597586094
 30
0.0
 11
1551.906013078955
 21
852.0348597586094
 31
0.0
  0
LINE
  5
6E8D
330
1E
100
AcDbEntity
  8
躯体と製品
  6
Continuous
 62
     3
100
AcDbLine
 10
1551.906013078955
 20
852.0348597586094
 30
0.0
 11
1552.906013078955
 21
852.5348597586093
 31
0.0
  0
LINE
  5
6E8E
330
1E
100
AcDbEntity
  8
躯体と製品
  6
Continuous
 62
     3
100
AcDbLine
 10
1552.906013078955
 20
852.5348597586093
 30
0.0
 11
1552.906013078955
 21
852.0348597586094
 31
0.0
  0
LINE
  5
6E8F
330
1E
100
AcDbEntity
  8
躯体と製品
  6
Continuous
 62
     3
100
AcDbLine
 10
1552.906013078955
 20
852.0348597586094
 30
0.0
 11
1553.906013078955
 21
852.5348597586093
 31
0.0
  0
LINE
  5
6E90
330
1E
100
AcDbEntity
  8
躯体と製品
  6
Continuous
 62
     3
100
AcDbLine
 10
1553.906013078955
 20
852.5348597586093
 30
0.0
 11
1553.906013078955
 21
852.0348597586094
 31
0.0
  0
ARC
  5
6E91
330
1E
100
AcDbEntity
  8
躯体と製品
  6
Continuous
 62
     3
100
AcDbCircle
 10
1555.156013078955
 20
852.7848597586093
 30
0.0
 40
0.75
100
AcDbArc
 50
270.0
 51
90.0
  0
ARC
  5
6E92
330
1E
100
AcDbEntity
  8
躯体と製品
  6
Continuous
 62
     3
100
AcDbCircle
 10
1549.406013078955
 20
897.5348597586094
 30
0.0
 40
0.5
100
AcDbArc
 50
90.0
 51
180.0
  0
ARC
  5
6E93
330
1E
100
AcDbEntity
  8
躯体と製品
  6
Continuous
 62
     3
100
AcDbCircle
 10
1558.406013078955
 20
899.0348597586093
 30
0.0
 40
0.5
100
AcDbArc
 50
0.0
 51
90.0
  0
LINE
  5
6E94
330
1E
100
AcDbEntity
  8
躯体と製品
  6
Continuous
 62
     3
100
AcDbLine
 10
1558.406013078955
 20
898.0348597586093
 30
0.0
 11
1549.406013078955
 21
898.0348597586093
 31
0.0
  0
ARC
  5
6E95
330
1E
100
AcDbEntity
  8
躯体と製品
  6
Continuous
 62
     3
100
AcDbCircle
 10
1558.406013078955
 20
898.5348597586094
 30
0.0
 40
0.5
100
AcDbArc
 50
270.0
 51
0.0
  0
LINE
  5
6E96
330
1E
100
AcDbEntity
  8
躯体と製品
  6
Continuous
 62
     3
100
AcDbLine
 10
1558.906013078955
 20
898.5348597586094
 30
0.0
 11
1558.906013078955
 21
899.0348597586093
 31
0.0
  0
LINE
  5
6E97
330
1E
100
AcDbEntity
  8
躯体と製品
  6
Continuous
 62
     3
100
AcDbLine
 10
1548.906013078955
 20
858.0348597586093
 30
0.0
 11
1548.906013078955
 21
854.0348597586094
 31
0.0
  0
ARC
  5
6E98
330
1E
100
AcDbEntity
  8
躯体と製品
  6
Continuous
 62
     3
100
AcDbCircle
 10
1549.406013078955
 20
858.0348597586093
 30
0.0
 40
0.5
100
AcDbArc
 50
90.0
 51
180.0
  0
LINE
  5
6E99
330
1E
100
AcDbEntity
  8
躯体と製品
  6
Continuous
 62
     3
100
AcDbLine
 10
1549.406013078955
 20
858.5348597586094
 30
0.0
 11
1560.156013078955
 21
858.5348597586094
 31
0.0
  0
LINE
  5
6E9A
330
1E
100
AcDbEntity
  8
躯体と製品
  6
Continuous
 62
     3
100
AcDbLine
 10
1548.906013078955
 20
860.5348597586093
 30
0.0
 11
1548.906013078955
 21
878.5348597586093
 31
0.0
  0
ARC
  5
6E9B
330
1E
100
AcDbEntity
  8
躯体と製品
  6
Continuous
 62
     3
100
AcDbCircle
 10
1549.406013078955
 20
860.5348597586093
 30
0.0
 40
0.5
100
AcDbArc
 50
180.0
 51
270.0
  0
LINE
  5
6E9C
330
1E
100
AcDbEntity
  8
躯体と製品
  6
Continuous
 62
     3
100
AcDbLine
 10
1549.406013078955
 20
860.0348597586094
 30
0.0
 11
1560.156013078955
 21
860.0348597586094
 31
0.0
  0
ARC
  5
6E9D
330
1E
100
AcDbEntity
  8
躯体と製品
  6
Continuous
 62
     3
100
AcDbCircle
 10
1560.156013078955
 20
859.2848597586094
 30
0.0
 40
0.75
100
AcDbArc
 50
270.0
 51
90.0
  0
ARC
  5
6E9E
330
1E
100
AcDbEntity
  8
躯体と製品
  6
Continuous
 62
     3
100
AcDbCircle
 10
1549.406013078955
 20
848.5348597586094
 30
0.0
 40
0.5
100
AcDbArc
 50
180.0
 51
270.0
  0
LINE
  5
6E9F
330
1E
100
AcDbEntity
  8
躯体と製品
  6
Continuous
 62
     3
100
AcDbLine
 10
1549.406013078955
 20
848.0348597586093
 30
0.0
 11
1551.906013078955
 21
848.0348597586093
 31
0.0
  0
ARC
  5
6EA0
330
1E
100
AcDbEntity
  8
躯体と製品
  6
Continuous
 62
     3
100
AcDbCircle
 10
1555.156013078955
 20
847.2848597586093
 30
0.0
 40
0.75
100
AcDbArc
 50
270.0
 51
90.0
  0
LINE
  5
6EA1
330
1E
100
AcDbEntity
  8
躯体と製品
  6
Continuous
 62
     3
100
AcDbLine
 10
1551.906013078955
 20
848.0348597586093
 30
0.0
 11
1552.906013078955
 21
847.5348597586094
 31
0.0
  0
LINE
  5
6EA2
330
1E
100
AcDbEntity
  8
躯体と製品
  6
Continuous
 62
     3
100
AcDbLine
 10
1552.906013078955
 20
848.0348597586093
 30
0.0
 11
1552.906013078955
 21
847.5348597586094
 31
0.0
  0
LINE
  5
6EA3
330
1E
100
AcDbEntity
  8
躯体と製品
  6
Continuous
 62
     3
100
AcDbLine
 10
1552.906013078955
 20
848.0348597586093
 30
0.0
 11
1553.906013078955
 21
847.5348597586094
 31
0.0
  0
LINE
  5
6EA4
330
1E
100
AcDbEntity
  8
躯体と製品
  6
Continuous
 62
     3
100
AcDbLine
 10
1553.906013078955
 20
848.0348597586093
 30
0.0
 11
1553.906013078955
 21
847.5348597586094
 31
0.0
  0
LINE
  5
6EA5
330
1E
100
AcDbEntity
  8
躯体と製品
  6
Continuous
 62
     3
100
AcDbLine
 10
1548.906013078955
 20
848.5348597586094
 30
0.0
 11
1548.906013078955
 21
851.5348597586093
 31
0.0
  0
LINE
  5
6EA6
330
1E
100
AcDbEntity
  8
躯体と製品
  6
Continuous
 62
     3
100
AcDbLine
 10
1547.406013078955
 20
848.5348597586094
 30
0.0
 11
1547.406013078955
 21
858.0348597586093
 31
0.0
  0
ARC
  5
6EA7
330
1E
100
AcDbEntity
  8
躯体と製品
  6
Continuous
 62
     3
100
AcDbCircle
 10
1546.906013078955
 20
848.5348597586094
 30
0.0
 40
0.5
100
AcDbArc
 50
270.0
 51
0.0
  0
LINE
  5
6EA8
330
1E
100
AcDbEntity
  8
躯体と製品
  6
Continuous
 62
     3
100
AcDbLine
 10
1546.906013078955
 20
848.0348597586093
 30
0.0
 11
1546.406013078955
 21
848.0348597586093
 31
0.0
  0
LINE
  5
6EA9
330
1E
100
AcDbEntity
  8
躯体と製品
  6
Continuous
 62
     3
100
AcDbLine
 10
1546.406013078955
 20
846.5348597586094
 30
0.0
 11
1546.406013078955
 21
848.0348597586093
 31
0.0
  0
LINE
  5
6EAA
330
1E
100
AcDbEntity
  8
躯体と製品
  6
Continuous
 62
     3
100
AcDbLine
 10
1555.156013078955
 20
846.5348597586094
 30
0.0
 11
1546.406013078955
 21
846.5348597586094
 31
0.0
  0
LINE
  5
6EAB
330
1E
100
AcDbEntity
  8
躯体と製品
  6
Continuous
 62
     3
100
AcDbLine
 10
1546.906013078955
 20
858.5348597586094
 30
0.0
 11
1546.406013078955
 21
858.5348597586094
 31
0.0
  0
ARC
  5
6EAC
330
1E
100
AcDbEntity
  8
躯体と製品
  6
Continuous
 62
     3
100
AcDbCircle
 10
1546.906013078955
 20
858.0348597586093
 30
0.0
 40
0.5
100
AcDbArc
 50
0.0
 51
90.0
  0
LINE
  5
6EAD
330
1E
100
AcDbEntity
  8
躯体と製品
  6
Continuous
 62
     3
100
AcDbLine
 10
1555.156013078955
 20
848.0348597586093
 30
0.0
 11
1553.906013078955
 21
848.0348597586093
 31
0.0
  0
LINE
  5
6EAE
330
1E
100
AcDbEntity
  8
躯体と製品
  6
Continuous
 62
     3
100
AcDbLine
 10
1555.156013078955
 20
852.0348597586094
 30
0.0
 11
1553.906013078955
 21
852.0348597586094
 31
0.0
  0
LINE
  5
6EAF
330
1E
100
AcDbEntity
  8
躯体と製品
  6
Continuous
 62
     3
100
AcDbLine
 10
1546.406013078955
 20
860.0348597586094
 30
0.0
 11
1546.406013078955
 21
858.5348597586094
 31
0.0
  0
LINE
  5
6EB0
330
1E
100
AcDbEntity
  8
躯体と製品
  6
Continuous
 62
     3
100
AcDbLine
 10
1546.406013078955
 20
899.5348597586094
 30
0.0
 11
1546.406013078955
 21
898.0348597586093
 31
0.0
  0
LINE
  5
6EB1
330
1E
100
AcDbEntity
  8
躯体と製品
  6
Continuous
 62
     3
100
AcDbLine
 10
1548.906013078955
 20
879.5348597586094
 30
0.0
 11
1548.906013078955
 21
897.5348597586094
 31
0.0
  0
LINE
  5
6EB2
330
1E
100
AcDbEntity
  8
躯体と製品
  6
Continuous
 62
     3
100
AcDbLine
 10
1964.572720151939
 20
829.2126867327677
 30
0.0
 11
1966.038126926742
 21
857.1743137058957
 31
0.0
  0
LINE
  5
6EB3
330
1E
100
AcDbEntity
  8
躯体と製品
  6
Continuous
 62
     3
100
AcDbLine
 10
1964.572720151939
 20
829.2126867327677
 30
0.0
 11
1575.107201597655
 21
849.6237096675157
 31
0.0
  0
LINE
  5
6EB4
330
1E
100
AcDbEntity
  8
躯体と製品
  6
Continuous
 62
     4
100
AcDbLine
 10
1951.598652526026
 20
857.9310544932521
 30
0.0
 11
1951.084164039953
 21
858.445542979325
 31
0.0
  0
LINE
  5
6EB5
330
1E
100
AcDbEntity
  8
躯体と製品
  6
DASHED1
 62
     7
100
AcDbLine
 10
1959.710412368773
 20
831.9709403508689
 30
0.0
 11
1964.703560042547
 21
831.709260569654
 31
0.0
  0
LINE
  5
6EB6
330
1E
100
AcDbEntity
  8
躯体と製品
  6
DASHED1
 62
     7
100
AcDbLine
 10
1959.762748325017
 20
832.9695698856232
 30
0.0
 11
1959.710412368773
 21
831.9709403508689
 31
0.0
  0
LINE
  5
6EB7
330
1E
100
AcDbEntity
  8
躯体と製品
  6
DASHED1
 62
     7
100
AcDbLine
 10
1939.790157629925
 20
834.0162890104823
 30
0.0
 11
1959.762748325017
 21
832.9695698856232
 31
0.0
  0
LINE
  5
6EB8
330
1E
100
AcDbEntity
  8
躯体と製品
  6
DASHED1
 62
     7
100
AcDbLine
 10
1939.790157629925
 20
834.0162890104823
 30
0.0
 11
1939.737821673682
 21
833.0176594757276
 31
0.0
  0
LINE
  5
6EB9
330
1E
100
AcDbEntity
  8
躯体と製品
  6
DASHED1
 62
     7
100
AcDbLine
 10
1936.242618302041
 20
833.2008353225779
 30
0.0
 11
1939.737821673682
 21
833.0176594757276
 31
0.0
  0
ARC
  5
6EBA
330
1E
100
AcDbEntity
  8
躯体と製品
  6
DASHED1
 62
     7
100
AcDbCircle
 10
1936.321122236406
 20
834.6987796247098
 30
0.0
 40
1.5
100
AcDbArc
 50
86.99999999999441
 51
266.9999999999944
  0
LINE
  5
6EBB
330
1E
100
AcDbEntity
  8
躯体と製品
  6
DASHED1
 62
     7
100
AcDbLine
 10
1936.39962617077
 20
836.1967239268418
 30
0.0
 11
1964.860567911276
 21
834.7051491739177
 31
0.0
  0
LINE
  5
6EBC
330
1E
100
AcDbEntity
  8
躯体と製品
  6
Continuous
 62
     3
100
AcDbLine
 10
1974.836914572632
 20
830.5905645475212
 30
0.0
 11
1974.253722029713
 21
828.0644801178032
 31
0.0
  0
LINE
  5
6EBD
330
1E
100
AcDbEntity
  8
躯体と製品
  6
Continuous
 62
     3
100
AcDbLine
 10
1966.700819112056
 20
831.6045886571682
 30
0.0
 11
1974.375897518361
 21
831.2023548420706
 31
0.0
  0
LINE
  5
6EBE
330
1E
100
AcDbEntity
  8
躯体と製品
  6
Continuous
 62
     3
100
AcDbLine
 10
1977.616531026579
 20
831.0325204364346
 30
0.0
 11
1976.439184594513
 21
831.0942225483859
 31
0.0
  0
LINE
  5
6EBF
330
1E
100
AcDbEntity
  8
躯体と製品
  6
Continuous
 62
     3
100
AcDbLine
 10
1976.131172788204
 20
830.8621190042629
 30
0.0
 11
1975.422966107455
 21
827.7945388525903
 31
0.0
  0
ARC
  5
6EC0
330
1E
100
AcDbEntity
  8
躯体と製品
  6
Continuous
 62
     3
100
AcDbCircle
 10
1966.674651133934
 20
831.1052738897908
 30
0.0
 40
0.5
100
AcDbArc
 50
86.99999999999441
 51
177.0000000000011
  0
LINE
  5
6EC1
330
1E
100
AcDbEntity
  8
躯体と製品
  6
Continuous
 62
     3
100
AcDbLine
 10
1966.175336366557
 20
831.1314418679124
 30
0.0
 11
1966.123000410314
 21
830.1328123331577
 31
0.0
  0
ARC
  5
6EC2
330
1E
100
AcDbEntity
  8
躯体と製品
  6
Continuous
 62
     3
100
AcDbCircle
 10
1966.883994958906
 20
835.0997920288092
 30
0.0
 40
0.5
100
AcDbArc
 50
177.0000000000011
 51
266.9999999999944
  0
LINE
  5
6EC3
330
1E
100
AcDbEntity
  8
躯体と製品
  6
Continuous
 62
     3
100
AcDbLine
 10
1966.857826980784
 20
834.6004772614321
 30
0.0
 11
1978.539814288318
 21
833.9882502490315
 31
0.0
  0
LINE
  5
6EC4
330
1E
100
AcDbEntity
  8
躯体と製品
  6
Continuous
 62
     3
100
AcDbLine
 10
1966.384680191529
 20
835.1259600069308
 30
0.0
 11
1966.489352104015
 21
837.1232190764398
 31
0.0
  0
LINE
  5
6EC5
330
1E
100
AcDbEntity
  8
躯体と製品
  6
Continuous
 62
     3
100
AcDbLine
 10
1987.888276468822
 20
783.3677738740308
 30
0.0
 11
1983.50572504709
 21
783.3677738740308
 31
0.0
  0
LINE
  5
6EC6
330
1E
100
AcDbEntity
  8
躯体と製品
  6
Continuous
 62
     3
100
AcDbLine
 10
1978.54234267107
 20
830.2418025924978
 30
0.0
 11
1988.377350269189
 21
783.9717297194395
 31
0.0
  0
LINE
  5
6EC7
330
1E
100
AcDbEntity
  8
躯体と製品
  6
Continuous
 62
     3
100
AcDbLine
 10
1981.317249221791
 20
831.6160967172207
 30
0.0
 11
1993.273199325045
 21
775.3677738740308
 31
0.0
  0
ARC
  5
6EC8
330
1E
100
AcDbEntity
  8
躯体と製品
  6
Continuous
 62
     3
100
AcDbCircle
 10
1965.990037336637
 20
837.1493870545611
 30
0.0
 40
0.5
100
AcDbArc
 50
357.0000000000011
 51
86.99999999999441
  0
LINE
  5
6EC9
330
1E
100
AcDbEntity
  8
躯体と製品
  6
Continuous
 62
     3
100
AcDbLine
 10
1966.016205314759
 20
837.6487018219389
 30
0.0
 11
1965.516890547382
 21
837.6748698000602
 31
0.0
  0
ARC
  5
6ECA
330
1E
100
AcDbEntity
  8
躯体と製品
  6
Continuous
 62
     3
100
AcDbCircle
 10
1965.49072256926
 20
837.1755550326827
 30
0.0
 40
0.5
100
AcDbArc
 50
86.99999999999441
 51
177.0000000000011
  0
ARC
  5
6ECB
330
1E
100
AcDbEntity
  8
躯体と製品
  6
Continuous
 62
     3
100
AcDbCircle
 10
1978.38280641959
 20
830.9923616447678
 30
0.0
 40
3.0
100
AcDbArc
 50
11.99999999999979
 51
86.99999999999441
  0
ARC
  5
6ECC
330
1E
100
AcDbEntity
  8
躯体と製品
  6
Continuous
 62
     3
100
AcDbCircle
 10
1977.564195070337
 20
830.0338909016801
 30
0.0
 40
1.0
100
AcDbArc
 50
11.99999999999979
 51
86.99999999999441
  0
ARC
  5
6ECD
330
1E
100
AcDbEntity
  8
躯体と製品
  6
Continuous
 62
     3
100
AcDbCircle
 10
1965.623685642937
 20
830.1589803112792
 30
0.0
 40
0.5
100
AcDbArc
 50
266.9999999999944
 51
357.0000000000011
  0
LINE
  5
6ECE
330
1E
100
AcDbEntity
  8
躯体と製品
  6
Continuous
 62
     3
100
AcDbLine
 10
1965.597517664815
 20
829.6596655439021
 30
0.0
 11
1965.098202897438
 21
829.6858335220234
 31
0.0
  0
ARC
  5
6ECF
330
1E
100
AcDbEntity
  8
躯体と製品
  6
Continuous
 62
     3
100
AcDbCircle
 10
1965.124370875559
 20
830.1851482894008
 30
0.0
 40
0.5
100
AcDbArc
 50
177.0000000000011
 51
266.9999999999944
  0
ARC
  5
6ED0
330
1E
100
AcDbEntity
  8
躯体と製品
  6
Continuous
 62
     3
100
AcDbCircle
 10
1988.355900904496
 20
781.6677738740306
 30
0.0
 40
0.5
100
AcDbArc
 50
11.99999999999979
 51
90.0
  0
LINE
  5
6ED1
330
1E
100
AcDbEntity
  8
躯体と製品
  6
Continuous
 62
     3
100
AcDbLine
 10
1988.844974704863
 20
781.7717297194394
 30
0.0
 11
1990.273199325045
 21
775.0524611682338
 31
0.0
  0
LINE
  5
6ED2
330
1E
100
AcDbEntity
  8
躯体と製品
  6
Continuous
 62
     3
100
AcDbLine
 10
1988.355900904496
 20
782.1677738740306
 30
0.0
 11
1979.105725047089
 21
782.1677738740306
 31
0.0
  0
ARC
  5
6ED3
330
1E
100
AcDbEntity
  8
躯体と製品
  6
Continuous
 62
     3
100
AcDbCircle
 10
1987.888276468822
 20
783.8677738740308
 30
0.0
 40
0.5
100
AcDbArc
 50
270.0
 51
11.99999999999979
  0
LINE
  5
6ED4
330
1E
100
AcDbEntity
  8
躯体と製品
  6
Continuous
 62
     3
100
AcDbLine
 10
1979.105725047089
 20
783.3677738740308
 30
0.0
 11
1981.50572504709
 21
783.3677738740308
 31
0.0
  0
LINE
  5
6ED5
330
1E
100
AcDbEntity
  8
躯体と製品
  6
Continuous
 62
     3
100
AcDbLine
 10
1983.50572504709
 20
784.3677738740308
 30
0.0
 11
1981.50572504709
 21
783.3677738740308
 31
0.0
  0
LINE
  5
6ED6
330
1E
100
AcDbEntity
  8
躯体と製品
  6
Continuous
 62
     3
100
AcDbLine
 10
1983.50572504709
 20
783.3677738740308
 30
0.0
 11
1983.50572504709
 21
784.3677738740308
 31
0.0
  0
ARC
  5
6ED7
330
1E
100
AcDbEntity
  8
躯体と製品
  6
Continuous
 62
     3
100
AcDbCircle
 10
1990.773199325045
 20
773.8677738740308
 30
0.0
 40
2.5
100
AcDbArc
 50
270.0
 51
0.0
  0
LINE
  5
6ED8
330
1E
100
AcDbEntity
  8
躯体と製品
  6
Continuous
 62
     3
100
AcDbLine
 10
1990.773199325045
 20
771.3677738740307
 30
0.0
 11
1990.273199325045
 21
771.3677738740307
 31
0.0
  0
LINE
  5
6ED9
330
1E
100
AcDbEntity
  8
躯体と製品
  6
Continuous
 62
     3
100
AcDbLine
 10
1993.273199325045
 20
773.8677738740308
 30
0.0
 11
1993.273199325045
 21
775.3677738740308
 31
0.0
  0
LINE
  5
6EDA
330
1E
100
AcDbEntity
  8
躯体と製品
  6
Continuous
 62
     3
100
AcDbLine
 10
1990.273199325045
 20
775.0524611682338
 30
0.0
 11
1990.273199325045
 21
771.3677738740307
 31
0.0
  0
ARC
  5
6EDB
330
1E
100
AcDbEntity
  8
躯体と製品
  6
Continuous
 62
     3
100
AcDbCircle
 10
1979.105725047089
 20
782.7677738740308
 30
0.0
 40
0.6000000000000015
100
AcDbArc
 50
90.0
 51
270.0
  0
ARC
  5
6EDC
330
1E
100
AcDbEntity
  8
躯体と製品
  6
Continuous
 62
     3
100
AcDbCircle
 10
1976.42348380764
 20
830.7946336879597
 30
0.0
 40
0.2999999999999999
100
AcDbArc
 50
86.99999999999441
 51
166.9999999999997
  0
ARC
  5
6EDD
330
1E
100
AcDbEntity
  8
躯体と製品
  6
Continuous
 62
     3
100
AcDbCircle
 10
1974.34972954024
 20
830.7030400746933
 30
0.0
 40
0.5
100
AcDbArc
 50
346.9999999999997
 51
86.99999999999441
  0
ARC
  5
6EDE
330
1E
100
AcDbEntity
  8
躯体と製品
  6
Continuous
 62
     3
100
AcDbCircle
 10
1974.838344068584
 20
827.9295094851969
 30
0.0
 40
0.5999999999999984
100
AcDbArc
 50
166.9999999999997
 51
346.9999999999997
  0
LINE
  5
6EDF
330
1E
100
AcDbEntity
  8
躯体と製品
  6
Continuous
 62
     4
100
AcDbLine
 10
1951.363140722933
 20
853.4372215868563
 30
0.0
 11
1950.84865223686
 21
853.9517100729293
 31
0.0
  0
LINE
  5
6EE0
330
1E
100
AcDbEntity
  8
躯体と製品
  6
Continuous
 62
     7
100
AcDbLine
 10
1966.01195894862
 20
856.6749989385185
 30
0.0
 11
1951.032515927302
 21
857.4600382821627
 31
0.0
  0
LINE
  5
6EE1
330
1E
100
AcDbEntity
  8
躯体と製品
  6
Continuous
 62
     7
100
AcDbLine
 10
1950.82317210233
 20
853.4655201431444
 30
0.0
 11
1951.032515927302
 21
857.4600382821627
 31
0.0
  0
LINE
  5
6EE2
330
1E
100
AcDbEntity
  8
躯体と製品
  6
Continuous
 62
     4
100
AcDbLine
 10
1952.855569144624
 20
853.3590067275369
 30
0.0
 11
1950.919077212516
 21
855.2954986596454
 31
0.0
  0
LINE
  5
6EE3
330
1E
100
AcDbEntity
  8
躯体と製品
  6
Continuous
 62
     4
100
AcDbLine
 10
1954.347997566318
 20
853.2807918682168
 30
0.0
 11
1950.989502188171
 21
856.639287246363
 31
0.0
  0
LINE
  5
6EE4
330
1E
100
AcDbEntity
  8
躯体と製品
  6
Continuous
 62
     4
100
AcDbLine
 10
1955.840425988011
 20
853.2025770088965
 30
0.0
 11
1951.613407977077
 21
857.4295950198308
 31
0.0
  0
LINE
  5
6EE5
330
1E
100
AcDbEntity
  8
躯体と製品
  6
Continuous
 62
     4
100
AcDbLine
 10
1957.332854409704
 20
853.124362149577
 30
0.0
 11
1953.10583639877
 21
857.3513801605111
 31
0.0
  0
LINE
  5
6EE6
330
1E
100
AcDbEntity
  8
躯体と製品
  6
Continuous
 62
     4
100
AcDbLine
 10
1958.825282831397
 20
853.0461472902572
 30
0.0
 11
1954.598264820463
 21
857.2731653011912
 31
0.0
  0
LINE
  5
6EE7
330
1E
100
AcDbEntity
  8
躯体と製品
  6
Continuous
 62
     4
100
AcDbLine
 10
1960.31771125309
 20
852.9679324309377
 30
0.0
 11
1956.090693242156
 21
857.1949504418713
 31
0.0
  0
LINE
  5
6EE8
330
1E
100
AcDbEntity
  8
躯体と製品
  6
Continuous
 62
     4
100
AcDbLine
 10
1961.810139674783
 20
852.8897175716176
 30
0.0
 11
1957.583121663849
 21
857.1167355825517
 31
0.0
  0
LINE
  5
6EE9
330
1E
100
AcDbEntity
  8
躯体と製品
  6
Continuous
 62
     4
100
AcDbLine
 10
1963.302568096476
 20
852.8115027122979
 30
0.0
 11
1959.075550085543
 21
857.0385207232318
 31
0.0
  0
LINE
  5
6EEA
330
1E
100
AcDbEntity
  8
躯体と製品
  6
Continuous
 62
     4
100
AcDbLine
 10
1964.794996518168
 20
852.7332878529785
 30
0.0
 11
1960.567978507233
 21
856.960305863912
 31
0.0
  0
LINE
  5
6EEB
330
1E
100
AcDbEntity
  8
躯体と製品
  6
Continuous
 62
     4
100
AcDbLine
 10
1965.825492414786
 20
853.1170055187329
 30
0.0
 11
1962.060406928927
 21
856.882091004592
 31
0.0
  0
LINE
  5
6EEC
330
1E
100
AcDbEntity
  8
躯体と製品
  6
Continuous
 62
     4
100
AcDbLine
 10
1965.966342366097
 20
855.8045826921683
 30
0.0
 11
1965.045263772313
 21
856.7256612859525
 31
0.0
  0
LINE
  5
6EED
330
1E
100
AcDbEntity
  8
躯体と製品
  6
Continuous
 62
     4
100
AcDbLine
 10
1965.895917390441
 20
854.4607941054509
 30
0.0
 11
1963.55283535062
 21
856.8038761452722
 31
0.0
  0
ARC
  5
6EEE
330
1E
100
AcDbEntity
  8
躯体と製品
  6
Continuous
 62
     3
100
AcDbCircle
 10
1979.00572504709
 20
775.0677738740307
 30
0.0
 40
1.0
100
AcDbArc
 50
180.0
 51
270.0
  0
LINE
  5
6EEF
330
1E
100
AcDbEntity
  8
躯体と製品
  6
Continuous
 62
     3
100
AcDbLine
 10
1982.90572504709
 20
774.0677738740307
 30
0.0
 11
1979.00572504709
 21
774.0677738740307
 31
0.0
  0
ARC
  5
6EF0
330
1E
100
AcDbEntity
  8
躯体と製品
  6
Continuous
 62
     3
100
AcDbCircle
 10
1982.90572504709
 20
773.4677738740307
 30
0.0
 40
0.5999999999999998
100
AcDbArc
 50
270.0
 51
90.0
  0
LINE
  5
6EF1
330
1E
100
AcDbEntity
  8
躯体と製品
  6
Continuous
 62
     3
100
AcDbLine
 10
1976.50572504709
 20
812.1677738740306
 30
0.0
 11
1976.50572504709
 21
775.3677738740308
 31
0.0
  0
ARC
  5
6EF2
330
1E
100
AcDbEntity
  8
躯体と製品
  6
Continuous
 62
     3
100
AcDbCircle
 10
1977.25572504709
 20
830.1177738740307
 30
0.0
 40
0.75
100
AcDbArc
 50
0.0
 51
180.0
  0
LINE
  5
6EF3
330
1E
100
AcDbEntity
  8
躯体と製品
  6
Continuous
 62
     3
100
AcDbLine
 10
1976.50572504709
 20
823.5677738740307
 30
0.0
 11
1976.50572504709
 21
830.1177738740307
 31
0.0
  0
ARC
  5
6EF4
330
1E
100
AcDbEntity
  8
躯体と製品
  6
Continuous
 62
     3
100
AcDbCircle
 10
1976.00572504709
 20
823.5677738740307
 30
0.0
 40
0.5
100
AcDbArc
 50
270.0
 51
0.0
  0
ARC
  5
6EF5
330
1E
100
AcDbEntity
  8
躯体と製品
  6
Continuous
 62
     3
100
AcDbCircle
 10
1972.30572504709
 20
822.0677738740308
 30
0.0
 40
1.0
100
AcDbArc
 50
90.0
 51
180.0
  0
LINE
  5
6EF6
330
1E
100
AcDbEntity
  8
躯体と製品
  6
Continuous
 62
     3
100
AcDbLine
 10
1976.00572504709
 20
823.0677738740308
 30
0.0
 11
1972.30572504709
 21
823.0677738740308
 31
0.0
  0
ARC
  5
6EF7
330
1E
100
AcDbEntity
  8
躯体と製品
  6
Continuous
 62
     3
100
AcDbCircle
 10
1976.00572504709
 20
812.1677738740306
 30
0.0
 40
0.5
100
AcDbArc
 50
0.0
 51
90.0
  0
ARC
  5
6EF8
330
1E
100
AcDbEntity
  8
躯体と製品
  6
Continuous
 62
     3
100
AcDbCircle
 10
1972.30572504709
 20
813.6677738740306
 30
0.0
 40
1.0
100
AcDbArc
 50
180.0
 51
270.0
  0
LINE
  5
6EF9
330
1E
100
AcDbEntity
  8
躯体と製品
  6
Continuous
 62
     3
100
AcDbLine
 10
1976.00572504709
 20
812.6677738740307
 30
0.0
 11
1972.30572504709
 21
812.6677738740307
 31
0.0
  0
ARC
  5
6EFA
330
1E
100
AcDbEntity
  8
躯体と製品
  6
Continuous
 62
     3
100
AcDbCircle
 10
1976.20572504709
 20
821.5677738740307
 30
0.0
 40
0.2999999999999998
100
AcDbArc
 50
0.0
 51
90.0
  0
LINE
  5
6EFB
330
1E
100
AcDbEntity
  8
躯体と製品
  6
Continuous
 62
     3
100
AcDbLine
 10
1976.50572504709
 20
821.5677738740307
 30
0.0
 11
1976.50572504709
 21
814.1677738740307
 31
0.0
  0
ARC
  5
6EFC
330
1E
100
AcDbEntity
  8
躯体と製品
  6
Continuous
 62
     3
100
AcDbCircle
 10
1976.20572504709
 20
814.1677738740307
 30
0.0
 40
0.2999999999999998
100
AcDbArc
 50
270.0
 51
0.0
  0
LINE
  5
6EFD
330
1E
100
AcDbEntity
  8
躯体と製品
  6
Continuous
 62
     3
100
AcDbLine
 10
1972.80572504709
 20
813.8677738740309
 30
0.0
 11
1976.20572504709
 21
813.8677738740309
 31
0.0
  0
LINE
  5
6EFE
330
1E
100
AcDbEntity
  8
躯体と製品
  6
Continuous
 62
     3
100
AcDbLine
 10
1972.80572504709
 20
821.8677738740309
 30
0.0
 11
1976.20572504709
 21
821.8677738740309
 31
0.0
  0
LINE
  5
6EFF
330
1E
100
AcDbEntity
  8
躯体と製品
  6
Continuous
 62
     3
100
AcDbLine
 10
1978.00572504709
 20
830.1177738740307
 30
0.0
 11
1978.00572504709
 21
785.8677738740308
 31
0.0
  0
ARC
  5
6F00
330
1E
100
AcDbEntity
  8
躯体と製品
  6
Continuous
 62
     3
100
AcDbCircle
 10
1979.00572504709
 20
775.3677738740308
 30
0.0
 40
2.5
100
AcDbArc
 50
180.0
 51
270.0
  0
LINE
  5
6F01
330
1E
100
AcDbEntity
  8
躯体と製品
  6
Continuous
 62
     3
100
AcDbLine
 10
1982.90572504709
 20
772.8677738740308
 30
0.0
 11
1979.00572504709
 21
772.8677738740308
 31
0.0
  0
ARC
  5
6F02
330
1E
100
AcDbEntity
  8
躯体と製品
  6
Continuous
 62
     3
100
AcDbCircle
 10
1978.50572504709
 20
785.8677738740308
 30
0.0
 40
0.5
100
AcDbArc
 50
180.0
 51
270.0
  0
LINE
  5
6F03
330
1E
100
AcDbEntity
  8
躯体と製品
  6
Continuous
 62
     3
100
AcDbLine
 10
1978.50572504709
 20
785.3677738740308
 30
0.0
 11
1985.20572504709
 21
785.3677738740308
 31
0.0
  0
LINE
  5
6F04
330
1E
100
AcDbEntity
  8
躯体と製品
  6
Continuous
 62
     3
100
AcDbLine
 10
1978.00572504709
 20
783.8677738740308
 30
0.0
 11
1978.00572504709
 21
775.0677738740307
 31
0.0
  0
ARC
  5
6F05
330
1E
100
AcDbEntity
  8
躯体と製品
  6
Continuous
 62
     3
100
AcDbCircle
 10
1978.50572504709
 20
783.8677738740308
 30
0.0
 40
0.5
100
AcDbArc
 50
90.0
 51
180.0
  0
ARC
  5
6F06
330
1E
100
AcDbEntity
  8
躯体と製品
  6
Continuous
 62
     3
100
AcDbCircle
 10
1985.20572504709
 20
785.0677738740308
 30
0.0
 40
0.2999999999999998
100
AcDbArc
 50
0.0
 51
90.0
  0
LINE
  5
6F07
330
1E
100
AcDbEntity
  8
躯体と製品
  6
Continuous
 62
     3
100
AcDbLine
 10
1978.50572504709
 20
784.3677738740308
 30
0.0
 11
1983.50572504709
 21
784.3677738740308
 31
0.0
  0
LINE
  5
6F08
330
1E
100
AcDbEntity
  8
躯体と製品
  6
Continuous
 62
     3
100
AcDbLine
 10
1985.50572504709
 20
785.0677738740308
 30
0.0
 11
1985.50572504709
 21
784.7581618740308
 31
0.0
  0
LINE
  5
6F09
330
1E
100
AcDbEntity
  8
躯体と製品
  6
Continuous
 62
     3
100
AcDbLine
 10
1983.50572504709
 20
784.3677738740308
 30
0.0
 11
1983.50572504709
 21
783.8677738740308
 31
0.0
  0
ARC
  5
6F0A
330
1E
100
AcDbEntity
  8
躯体と製品
  6
Continuous
 62
     3
100
AcDbCircle
 10
1985.00572504709
 20
784.7581618740308
 30
0.0
 40
0.5
100
AcDbArc
 50
284.0362430000043
 51
0.0
  0
LINE
  5
6F0B
330
1E
100
AcDbEntity
  8
躯体と製品
  6
Continuous
 62
     3
100
AcDbLine
 10
1983.50572504709
 20
783.8677738740308
 30
0.0
 11
1985.12699304709
 21
784.2730908740308
 31
0.0
  0
LINE
  5
6F0C
330
1E
100
AcDbEntity
  8
躯体と製品
  6
Continuous
 62
     3
100
AcDbLine
 10
1971.30572504709
 20
819.9677738740309
 30
0.0
 11
1971.30572504709
 21
822.0677738740308
 31
0.0
  0
ARC
  5
6F0D
330
1E
100
AcDbEntity
  8
躯体と製品
  6
Continuous
 62
     3
100
AcDbCircle
 10
1972.80572504709
 20
821.5677738740307
 30
0.0
 40
0.2999999999999998
100
AcDbArc
 50
90.0
 51
180.0
  0
LINE
  5
6F0E
330
1E
100
AcDbEntity
  8
躯体と製品
  6
Continuous
 62
     3
100
AcDbLine
 10
1972.50572504709
 20
819.9677738740309
 30
0.0
 11
1972.50572504709
 21
821.5677738740307
 31
0.0
  0
ARC
  5
6F0F
330
1E
100
AcDbEntity
  8
躯体と製品
  6
Continuous
 62
     3
100
AcDbCircle
 10
1972.80572504709
 20
814.1677738740307
 30
0.0
 40
0.2999999999999998
100
AcDbArc
 50
180.0
 51
270.0
  0
LINE
  5
6F10
330
1E
100
AcDbEntity
  8
躯体と製品
  6
Continuous
 62
     3
100
AcDbLine
 10
1972.50572504709
 20
815.7677738740307
 30
0.0
 11
1972.50572504709
 21
814.1677738740307
 31
0.0
  0
LINE
  5
6F11
330
1E
100
AcDbEntity
  8
躯体と製品
  6
Continuous
 62
     3
100
AcDbLine
 10
1971.30572504709
 20
815.7677738740307
 30
0.0
 11
1971.30572504709
 21
813.6677738740306
 31
0.0
  0
ARC
  5
6F12
330
1E
100
AcDbEntity
  8
躯体と製品
  6
Continuous
 62
     3
100
AcDbCircle
 10
1971.90572504709
 20
819.9677738740309
 30
0.0
 40
0.5999999999999998
100
AcDbArc
 50
180.0
 51
0.0
  0
ARC
  5
6F13
330
1E
100
AcDbEntity
  8
躯体と製品
  6
Continuous
 62
     3
100
AcDbCircle
 10
1971.90572504709
 20
815.7677738740307
 30
0.0
 40
0.5999999999999998
100
AcDbArc
 50
0.0
 51
180.0
  0
LINE
  5
6F14
330
1E
100
AcDbEntity
  8
躯体と製品
  6
Continuous
 62
     7
100
AcDbLine
 10
1974.00572504709
 20
818.3677738740309
 30
0.0
 11
1975.65681004709
 21
817.844400874031
 31
0.0
  0
ARC
  5
6F15
330
1E
100
AcDbEntity
  8
躯体と製品
  6
Continuous
 62
     7
100
AcDbCircle
 10
1975.50572504709
 20
817.3677738740309
 30
0.0
 40
0.5
100
AcDbArc
 50
287.587954000005
 51
72.41204599999497
  0
LINE
  5
6F16
330
1E
100
AcDbEntity
  8
躯体と製品
  6
Continuous
 62
     7
100
AcDbLine
 10
1972.50572504709
 20
814.367773874031
 30
0.0
 11
1972.50572504709
 21
816.8677738740306
 31
0.0
  0
ARC
  5
6F17
330
1E
100
AcDbEntity
  8
躯体と製品
  6
Continuous
 62
     7
100
AcDbCircle
 10
1973.00572504709
 20
820.3677738740308
 30
0.0
 40
0.5
100
AcDbArc
 50
90.0
 51
180.0
  0
ARC
  5
6F18
330
1E
100
AcDbEntity
  8
躯体と製品
  6
Continuous
 62
     7
100
AcDbCircle
 10
1973.00572504709
 20
814.367773874031
 30
0.0
 40
0.5
100
AcDbArc
 50
180.0
 51
270.0
  0
ARC
  5
6F19
330
1E
100
AcDbEntity
  8
躯体と製品
  6
Continuous
 62
     7
100
AcDbCircle
 10
1973.50572504709
 20
814.367773874031
 30
0.0
 40
0.5
100
AcDbArc
 50
270.0
 51
0.0
  0
LINE
  5
6F1A
330
1E
100
AcDbEntity
  8
躯体と製品
  6
Continuous
 62
     7
100
AcDbLine
 10
1973.00572504709
 20
813.8677738740309
 30
0.0
 11
1973.50572504709
 21
813.8677738740309
 31
0.0
  0
LINE
  5
6F1B
330
1E
100
AcDbEntity
  8
躯体と製品
  6
Continuous
 62
     7
100
AcDbLine
 10
1973.00572504709
 20
820.8677738740309
 30
0.0
 11
1973.50572504709
 21
820.8677738740309
 31
0.0
  0
ARC
  5
6F1C
330
1E
100
AcDbEntity
  8
躯体と製品
  6
Continuous
 62
     7
100
AcDbCircle
 10
1973.50572504709
 20
820.3677738740308
 30
0.0
 40
0.5
100
AcDbArc
 50
0.0
 51
90.0
  0
LINE
  5
6F1D
330
1E
100
AcDbEntity
  8
躯体と製品
  6
Continuous
 62
     7
100
AcDbLine
 10
1974.00572504709
 20
818.3677738740309
 30
0.0
 11
1974.00572504709
 21
820.3677738740308
 31
0.0
  0
LINE
  5
6F1E
330
1E
100
AcDbEntity
  8
躯体と製品
  6
Continuous
 62
     7
100
AcDbLine
 10
1974.00572504709
 20
816.3677738740309
 30
0.0
 11
1974.00572504709
 21
814.367773874031
 31
0.0
  0
LINE
  5
6F1F
330
1E
100
AcDbEntity
  8
躯体と製品
  6
Continuous
 62
     7
100
AcDbLine
 10
1974.00572504709
 20
816.3677738740309
 30
0.0
 11
1975.65681004709
 21
816.891146874031
 31
0.0
  0
LINE
  5
6F20
330
1E
100
AcDbEntity
  8
躯体と製品
  6
Continuous
 62
     7
100
AcDbLine
 10
1972.50572504709
 20
820.3677738740308
 30
0.0
 11
1972.50572504709
 21
817.867773874031
 31
0.0
  0
LINE
  5
6F21
330
1E
100
AcDbEntity
  8
躯体と製品
  6
Continuous
 62
     7
100
AcDbLine
 10
1971.909926868388
 20
816.8677738740306
 30
0.0
 11
1972.50572504709
 21
816.8677738740306
 31
0.0
  0
ARC
  5
6F22
330
1E
100
AcDbEntity
  8
躯体と製品
  6
Continuous
 62
     7
100
AcDbCircle
 10
1971.909926868388
 20
815.7677738740305
 30
0.0
 40
1.1
100
AcDbArc
 50
90.0
 51
175.0000000000005
  0
LINE
  5
6F23
330
1E
100
AcDbEntity
  8
躯体と製品
  6
Continuous
 62
     7
100
AcDbLine
 10
1971.909926868388
 20
817.867773874031
 30
0.0
 11
1972.50572504709
 21
817.867773874031
 31
0.0
  0
ARC
  5
6F24
330
1E
100
AcDbEntity
  8
躯体と製品
  6
Continuous
 62
     7
100
AcDbCircle
 10
1971.909926868388
 20
815.7677738740305
 30
0.0
 40
2.1
100
AcDbArc
 50
90.0
 51
175.0000000000005
  0
LINE
  5
6F25
330
1E
100
AcDbEntity
  8
躯体と製品
  6
DASHED1
 62
     4
100
AcDbLine
 10
1929.934702172987
 20
837.0362224097977
 30
0.0
 11
1930.028906894224
 21
838.8337555723563
 31
0.0
  0
LINE
  5
6F26
330
1E
100
AcDbEntity
  8
躯体と製品
  6
Continuous
 62
     3
100
AcDbLine
 10
1966.038126926742
 20
857.1743137058957
 30
0.0
 11
1576.572608372458
 21
877.5853366406439
 31
0.0
  0
LINE
  5
6F27
330
1E
100
AcDbEntity
  8
躯体と製品
  6
Continuous
 62
     3
100
AcDbLine
 10
1965.802615123648
 20
852.6804807995004
 30
0.0
 11
1576.337096569364
 21
873.0915037342484
 31
0.0
  0
LINE
  5
6F28
330
1E
100
AcDbEntity
  8
躯体と製品
  6
Continuous
 62
     3
100
AcDbLine
 10
1965.724111189284
 20
851.1825364973683
 30
0.0
 11
1576.258592635
 21
871.5935594321164
 31
0.0
  0
LINE
  5
6F29
330
1E
100
AcDbEntity
  8
躯体と製品
  6
DASHED1
 62
     4
100
AcDbLine
 10
1964.980940610634
 20
837.001997103853
 30
0.0
 11
1575.51542205635
 21
857.4130200386017
 31
0.0
  0
LINE
  5
6F2A
330
1E
100
AcDbEntity
  8
躯体と製品
  6
DASHED1
 62
     4
100
AcDbLine
 10
1964.886735889397
 20
835.2044639412948
 30
0.0
 11
1575.421217335113
 21
855.6154868760433
 31
0.0
  0
LINE
  5
6F2B
330
1E
100
AcDbEntity
  8
躯体と製品
  6
DASHED1
 62
     4
100
AcDbLine
 10
1964.703560042546
 20
831.709260569654
 30
0.0
 11
1575.238041488263
 21
852.120283504402
 31
0.0
  0
LINE
  5
6F2C
330
1E
100
AcDbEntity
  8
躯体と製品
  6
DASHED1
 62
     4
100
AcDbLine
 10
1964.625056108182
 20
830.2113162675221
 30
0.0
 11
1575.159537553898
 21
850.6223392022704
 31
0.0
  0
LINE
  5
6F2D
330
1E
100
AcDbEntity
  8
躯体と製品
  6
DASHED1
 62
     4
100
AcDbLine
 10
1750.181385917163
 20
846.4566945335285
 30
0.0
 11
1750.275590638401
 21
848.2542276960867
 31
0.0
  0
LINE
  5
6F2E
330
1E
100
AcDbEntity
  8
躯体と製品
  6
DASHED1
 62
     4
100
AcDbLine
 10
1950.980179971059
 20
856.4614087474081
 30
0.0
 11
1591.473547459411
 21
875.3023529948679
 31
0.0
  0
LINE
  5
6F2F
330
1E
100
AcDbEntity
  8
躯体と製品
  6
Continuous
 62
     7
100
AcDbLine
 10
1919.406013078955
 20
812.2816540286912
 30
0.0
 11
1919.406013078955
 21
672.2816540286914
 31
0.0
  0
LINE
  5
6F30
330
1E
100
AcDbEntity
  8
躯体と製品
  6
Continuous
 62
     3
100
AcDbLine
 10
1854.406013078955
 20
812.2816540286912
 30
0.0
 11
1854.406013078955
 21
813.2816540286915
 31
0.0
  0
LINE
  5
6F31
330
1E
100
AcDbEntity
  8
躯体と製品
  6
Continuous
 62
     3
100
AcDbLine
 10
1884.406013078955
 20
813.2816540286915
 30
0.0
 11
1884.406013078955
 21
812.2816540286912
 31
0.0
  0
LINE
  5
6F32
330
1E
100
AcDbEntity
  8
躯体と製品
  6
Continuous
 62
     3
100
AcDbLine
 10
1854.406013078955
 20
813.2816540286915
 30
0.0
 11
1884.406013078955
 21
813.2816540286915
 31
0.0
  0
LINE
  5
6F33
330
1E
100
AcDbEntity
  8
躯体と製品
  6
Continuous
 62
     3
100
AcDbLine
 10
1884.406013078955
 20
812.2816540286912
 30
0.0
 11
1854.406013078955
 21
812.2816540286912
 31
0.0
  0
LINE
  5
6F34
330
1E
100
AcDbEntity
  8
躯体と製品
  6
Continuous
 62
     4
100
AcDbLine
 10
1883.530475417096
 20
812.2816540286917
 30
0.0
 11
1884.406013078955
 21
813.1571916905508
 31
0.0
  0
LINE
  5
6F35
330
1E
100
AcDbEntity
  8
躯体と製品
  6
Continuous
 62
     4
100
AcDbLine
 10
1882.116261854722
 20
812.2816540286919
 30
0.0
 11
1883.116261854722
 21
813.2816540286917
 31
0.0
  0
LINE
  5
6F36
330
1E
100
AcDbEntity
  8
躯体と製品
  6
Continuous
 62
     4
100
AcDbLine
 10
1880.702048292349
 20
812.2816540286915
 30
0.0
 11
1881.702048292349
 21
813.2816540286912
 31
0.0
  0
LINE
  5
6F37
330
1E
100
AcDbEntity
  8
躯体と製品
  6
Continuous
 62
     4
100
AcDbLine
 10
1879.287834729975
 20
812.2816540286912
 30
0.0
 11
1880.287834729976
 21
813.2816540286915
 31
0.0
  0
LINE
  5
6F38
330
1E
100
AcDbEntity
  8
躯体と製品
  6
Continuous
 62
     4
100
AcDbLine
 10
1877.873621167602
 20
812.2816540286912
 30
0.0
 11
1878.873621167602
 21
813.2816540286915
 31
0.0
  0
LINE
  5
6F39
330
1E
100
AcDbEntity
  8
躯体と製品
  6
Continuous
 62
     4
100
AcDbLine
 10
1876.459407605229
 20
812.2816540286912
 30
0.0
 11
1877.459407605229
 21
813.2816540286917
 31
0.0
  0
LINE
  5
6F3A
330
1E
100
AcDbEntity
  8
躯体と製品
  6
Continuous
 62
     4
100
AcDbLine
 10
1875.045194042856
 20
812.2816540286915
 30
0.0
 11
1876.045194042856
 21
813.2816540286917
 31
0.0
  0
LINE
  5
6F3B
330
1E
100
AcDbEntity
  8
躯体と製品
  6
Continuous
 62
     4
100
AcDbLine
 10
1873.630980480484
 20
812.2816540286912
 30
0.0
 11
1874.630980480483
 21
813.2816540286908
 31
0.0
  0
LINE
  5
6F3C
330
1E
100
AcDbEntity
  8
躯体と製品
  6
Continuous
 62
     4
100
AcDbLine
 10
1872.216766918111
 20
812.2816540286912
 30
0.0
 11
1873.21676691811
 21
813.2816540286912
 31
0.0
  0
LINE
  5
6F3D
330
1E
100
AcDbEntity
  8
躯体と製品
  6
Continuous
 62
     4
100
AcDbLine
 10
1870.802553355737
 20
812.2816540286912
 30
0.0
 11
1871.802553355737
 21
813.2816540286912
 31
0.0
  0
LINE
  5
6F3E
330
1E
100
AcDbEntity
  8
躯体と製品
  6
Continuous
 62
     4
100
AcDbLine
 10
1869.388339793364
 20
812.2816540286912
 30
0.0
 11
1870.388339793364
 21
813.2816540286912
 31
0.0
  0
LINE
  5
6F3F
330
1E
100
AcDbEntity
  8
躯体と製品
  6
Continuous
 62
     4
100
AcDbLine
 10
1867.97412623099
 20
812.2816540286908
 30
0.0
 11
1868.97412623099
 21
813.2816540286912
 31
0.0
  0
LINE
  5
6F40
330
1E
100
AcDbEntity
  8
躯体と製品
  6
Continuous
 62
     4
100
AcDbLine
 10
1866.559912668617
 20
812.281654028691
 30
0.0
 11
1867.559912668617
 21
813.2816540286912
 31
0.0
  0
LINE
  5
6F41
330
1E
100
AcDbEntity
  8
躯体と製品
  6
Continuous
 62
     4
100
AcDbLine
 10
1865.145699106244
 20
812.2816540286912
 30
0.0
 11
1866.145699106244
 21
813.2816540286912
 31
0.0
  0
LINE
  5
6F42
330
1E
100
AcDbEntity
  8
躯体と製品
  6
Continuous
 62
     4
100
AcDbLine
 10
1863.731485543871
 20
812.2816540286912
 30
0.0
 11
1864.731485543871
 21
813.2816540286915
 31
0.0
  0
LINE
  5
6F43
330
1E
100
AcDbEntity
  8
躯体と製品
  6
Continuous
 62
     4
100
AcDbLine
 10
1862.317271981499
 20
812.2816540286917
 30
0.0
 11
1863.317271981499
 21
813.2816540286912
 31
0.0
  0
LINE
  5
6F44
330
1E
100
AcDbEntity
  8
躯体と製品
  6
Continuous
 62
     4
100
AcDbLine
 10
1860.903058419126
 20
812.2816540286917
 30
0.0
 11
1861.903058419126
 21
813.2816540286915
 31
0.0
  0
LINE
  5
6F45
330
1E
100
AcDbEntity
  8
躯体と製品
  6
Continuous
 62
     4
100
AcDbLine
 10
1859.488844856753
 20
812.2816540286917
 30
0.0
 11
1860.488844856753
 21
813.2816540286915
 31
0.0
  0
LINE
  5
6F46
330
1E
100
AcDbEntity
  8
躯体と製品
  6
Continuous
 62
     4
100
AcDbLine
 10
1858.07463129438
 20
812.2816540286919
 30
0.0
 11
1859.074631294379
 21
813.2816540286915
 31
0.0
  0
LINE
  5
6F47
330
1E
100
AcDbEntity
  8
躯体と製品
  6
Continuous
 62
     4
100
AcDbLine
 10
1856.660417732006
 20
812.2816540286912
 30
0.0
 11
1857.660417732006
 21
813.2816540286917
 31
0.0
  0
LINE
  5
6F48
330
1E
100
AcDbEntity
  8
躯体と製品
  6
Continuous
 62
     4
100
AcDbLine
 10
1855.246204169633
 20
812.2816540286915
 30
0.0
 11
1856.246204169633
 21
813.2816540286919
 31
0.0
  0
LINE
  5
6F49
330
1E
100
AcDbEntity
  8
躯体と製品
  6
Continuous
 62
     4
100
AcDbLine
 10
1854.406013078955
 20
812.8556765003869
 30
0.0
 11
1854.83199060726
 21
813.2816540286921
 31
0.0
  0
LINE
  5
6F4A
330
1E
100
AcDbEntity
  8
躯体と製品
  6
DASHED1
 62
     7
100
AcDbLine
 10
1865.356013078955
 20
814.2816540286915
 30
0.0
 11
1865.356013078955
 21
804.9816540286913
 31
0.0
  0
LINE
  5
6F4B
330
1E
100
AcDbEntity
  8
躯体と製品
  6
DASHED1
 62
     7
100
AcDbLine
 10
1873.456013078955
 20
814.2816540286915
 30
0.0
 11
1873.456013078955
 21
804.9816540286913
 31
0.0
  0
LINE
  5
6F4C
330
1E
100
AcDbEntity
  8
躯体と製品
  6
DASHED1
 62
     7
100
AcDbLine
 10
1864.656013078955
 20
804.2816540286915
 30
0.0
 11
1865.356013078955
 21
804.9816540286913
 31
0.0
  0
LINE
  5
6F4D
330
1E
100
AcDbEntity
  8
躯体と製品
  6
DASHED1
 62
     7
100
AcDbLine
 10
1864.656013078955
 20
785.6534800286913
 30
0.0
 11
1864.656013078955
 21
804.2816540286915
 31
0.0
  0
LINE
  5
6F4E
330
1E
100
AcDbEntity
  8
躯体と製品
  6
DASHED1
 62
     7
100
AcDbLine
 10
1864.906013078955
 20
773.7816540286915
 30
0.0
 11
1864.906013078955
 21
774.6449580286914
 31
0.0
  0
LINE
  5
6F4F
330
1E
100
AcDbEntity
  8
躯体と製品
  6
DASHED1
 62
     7
100
AcDbLine
 10
1862.780983078955
 20
775.0196580286913
 30
0.0
 11
1864.656013078955
 21
785.6534800286913
 31
0.0
  0
LINE
  5
6F50
330
1E
100
AcDbEntity
  8
躯体と製品
  6
DASHED1
 62
     7
100
AcDbLine
 10
1868.906013078955
 20
785.2816540286912
 30
0.0
 11
1869.906013078955
 21
785.2816540286912
 31
0.0
  0
LINE
  5
6F51
330
1E
100
AcDbEntity
  8
躯体と製品
  6
DASHED1
 62
     7
100
AcDbLine
 10
1874.156013078955
 20
804.2816540286915
 30
0.0
 11
1873.456013078955
 21
804.9816540286913
 31
0.0
  0
LINE
  5
6F52
330
1E
100
AcDbEntity
  8
躯体と製品
  6
DASHED1
 62
     7
100
AcDbLine
 10
1874.156013078955
 20
785.6534800286913
 30
0.0
 11
1874.156013078955
 21
804.2816540286915
 31
0.0
  0
LINE
  5
6F53
330
1E
100
AcDbEntity
  8
躯体と製品
  6
DASHED1
 62
     7
100
AcDbLine
 10
1872.906013078955
 20
772.7816540286912
 30
0.0
 11
1865.906013078955
 21
772.7816540286912
 31
0.0
  0
ARC
  5
6F54
330
1E
100
AcDbEntity
  8
躯体と製品
  6
DASHED1
 62
     7
100
AcDbCircle
 10
1872.906013078955
 20
773.7816540286915
 30
0.0
 40
1.0
100
AcDbArc
 50
270.0
 51
0.0
  0
LINE
  5
6F55
330
1E
100
AcDbEntity
  8
躯体と製品
  6
DASHED1
 62
     7
100
AcDbLine
 10
1873.906013078955
 20
773.7816540286915
 30
0.0
 11
1873.906013078955
 21
774.6449580286914
 31
0.0
  0
LINE
  5
6F56
330
1E
100
AcDbEntity
  8
躯体と製品
  6
DASHED1
 62
     7
100
AcDbLine
 10
1876.031043078955
 20
775.0196580286913
 30
0.0
 11
1871.845610078955
 21
774.2816540286915
 31
0.0
  0
LINE
  5
6F57
330
1E
100
AcDbEntity
  8
躯体と製品
  6
DASHED1
 62
     7
100
AcDbLine
 10
1868.906013078955
 20
785.2816540286912
 30
0.0
 11
1866.966416078955
 21
774.2816540286915
 31
0.0
  0
LINE
  5
6F58
330
1E
100
AcDbEntity
  8
躯体と製品
  6
DASHED1
 62
     7
100
AcDbLine
 10
1869.906013078955
 20
785.2816540286912
 30
0.0
 11
1871.845610078955
 21
774.2816540286915
 31
0.0
  0
LINE
  5
6F59
330
1E
100
AcDbEntity
  8
躯体と製品
  6
DASHED1
 62
     7
100
AcDbLine
 10
1876.031043078955
 20
775.0196580286913
 30
0.0
 11
1874.156013078955
 21
785.6534800286913
 31
0.0
  0
LINE
  5
6F5A
330
1E
100
AcDbEntity
  8
躯体と製品
  6
DASHED1
 62
     7
100
AcDbLine
 10
1864.656013078955
 20
804.2816540286915
 30
0.0
 11
1874.156013078955
 21
804.2816540286915
 31
0.0
  0
LINE
  5
6F5B
330
1E
100
AcDbEntity
  8
躯体と製品
  6
DASHED1
 62
     7
100
AcDbLine
 10
1865.356013078955
 20
804.9816540286913
 30
0.0
 11
1873.456013078955
 21
804.9816540286913
 31
0.0
  0
LINE
  5
6F5C
330
1E
100
AcDbEntity
  8
躯体と製品
  6
DASHED1
 62
     7
100
AcDbLine
 10
1862.780983078955
 20
775.0196580286913
 30
0.0
 11
1866.966416078955
 21
774.2816540286915
 31
0.0
  0
ARC
  5
6F5D
330
1E
100
AcDbEntity
  8
躯体と製品
  6
DASHED1
 62
     7
100
AcDbCircle
 10
1865.906013078955
 20
773.7816540286915
 30
0.0
 40
1.0
100
AcDbArc
 50
180.0
 51
270.0
  0
ARC
  5
6F5E
330
1E
100
AcDbEntity
  8
躯体と製品
  6
Continuous
 62
     3
100
AcDbCircle
 10
1897.963323345537
 20
817.2816540286914
 30
0.0
 40
0.5
100
AcDbArc
 50
270.0
 51
350.0000000000025
  0
LINE
  5
6F5F
330
1E
100
AcDbEntity
  8
躯体と製品
  6
Continuous
 62
     3
100
AcDbLine
 10
1897.963323345537
 20
816.7816540286915
 30
0.0
 11
1894.91704350988
 21
816.7816540286915
 31
0.0
  0
LINE
  5
6F60
330
1E
100
AcDbEntity
  8
躯体と製品
  6
Continuous
 62
     3
100
AcDbLine
 10
1898.455727222044
 20
817.1948299398579
 30
0.0
 11
1898.862921893604
 21
819.5041456777223
 31
0.0
  0
ARC
  5
6F61
330
1E
100
AcDbEntity
  8
躯体と製品
  6
Continuous
 62
     3
100
AcDbCircle
 10
1894.91704350988
 20
817.2816540286914
 30
0.0
 40
0.5
100
AcDbArc
 50
170.0000000000025
 51
270.0
  0
LINE
  5
6F62
330
1E
100
AcDbEntity
  8
躯体と製品
  6
Continuous
 62
     3
100
AcDbLine
 10
1894.424639633374
 20
817.3684781175248
 30
0.0
 11
1894.923690881555
 21
820.1987383883899
 31
0.0
  0
ARC
  5
6F63
330
1E
100
AcDbEntity
  8
躯体と製品
  6
Continuous
 62
     3
100
AcDbCircle
 10
1892.378476980166
 20
817.2816540286914
 30
0.0
 40
0.5
100
AcDbArc
 50
270.0
 51
350.0000000000025
  0
LINE
  5
6F64
330
1E
100
AcDbEntity
  8
躯体と製品
  6
Continuous
 62
     3
100
AcDbLine
 10
1892.378476980166
 20
816.7816540286915
 30
0.0
 11
1888.406013078955
 21
816.7816540286915
 31
0.0
  0
LINE
  5
6F65
330
1E
100
AcDbEntity
  8
躯体と製品
  6
Continuous
 62
     3
100
AcDbLine
 10
1892.870880856672
 20
817.1948299398579
 30
0.0
 11
1894.010835829454
 21
823.6598358521801
 31
0.0
  0
LINE
  5
6F66
330
1E
100
AcDbEntity
  8
躯体と製品
  6
Continuous
 62
     3
100
AcDbLine
 10
1895.097339059222
 20
821.1835461414024
 30
0.0
 11
1894.604935182715
 21
821.2703702302357
 31
0.0
  0
LINE
  5
6F67
330
1E
100
AcDbEntity
  8
躯体と製品
  6
Continuous
 62
     3
100
AcDbLine
 10
1899.528973947777
 20
820.4021293419009
 30
0.0
 11
1899.036570071271
 21
820.4889534307346
 31
0.0
  0
LINE
  5
6F68
330
1E
100
AcDbEntity
  8
躯体と製品
  6
Continuous
 62
     3
100
AcDbLine
 10
1895.270987236889
 20
822.1683538944144
 30
0.0
 11
1894.778583360382
 21
822.255177983248
 31
0.0
  0
LINE
  5
6F69
330
1E
100
AcDbEntity
  8
躯体と製品
  6
Continuous
 62
     3
100
AcDbLine
 10
1899.702622125444
 20
821.3869370949133
 30
0.0
 11
1899.210218248938
 21
821.473761183747
 31
0.0
  0
LINE
  5
6F6A
330
1E
100
AcDbEntity
  8
躯体と製品
  6
Continuous
 62
     3
100
AcDbLine
 10
1899.906013078955
 20
816.7816540286915
 30
0.0
 11
1900.90449010054
 21
822.4442986085117
 31
0.0
  0
LINE
  5
6F6B
330
1E
100
AcDbEntity
  8
躯体と製品
  6
Continuous
 62
     3
100
AcDbLine
 10
1899.210218248938
 20
821.473761183747
 30
0.0
 11
1899.427278471021
 21
822.7047708750118
 31
0.0
  0
LINE
  5
6F6C
330
1E
100
AcDbEntity
  8
躯体と製品
  6
Continuous
 62
     3
100
AcDbLine
 10
1895.270987236889
 20
822.1683538944144
 30
0.0
 11
1895.488047458973
 21
823.3993635856798
 31
0.0
  0
LINE
  5
6F6D
330
1E
100
AcDbEntity
  8
躯体と製品
  6
Continuous
 62
     3
100
AcDbLine
 10
1899.528973947777
 20
820.4021293419009
 30
0.0
 11
1898.862921893604
 21
819.5041456777223
 31
0.0
  0
LINE
  5
6F6E
330
1E
100
AcDbEntity
  8
躯体と製品
  6
Continuous
 62
     3
100
AcDbLine
 10
1899.702622125444
 20
821.3869370949133
 30
0.0
 11
1899.036570071271
 21
820.4889534307346
 31
0.0
  0
ARC
  5
6F6F
330
1E
100
AcDbEntity
  8
躯体と製品
  6
Continuous
 62
     3
100
AcDbCircle
 10
1894.749441644213
 20
823.52959971893
 30
0.0
 40
0.7500000000000016
100
AcDbArc
 50
350.0000000000025
 51
170.0000000000025
  0
ARC
  5
6F70
330
1E
100
AcDbEntity
  8
躯体と製品
  6
Continuous
 62
     3
100
AcDbCircle
 10
1900.165884285781
 20
822.5745347417616
 30
0.0
 40
0.7499999999999977
100
AcDbArc
 50
350.0000000000025
 51
170.0000000000025
  0
LINE
  5
6F71
330
1E
100
AcDbEntity
  8
躯体と製品
  6
Continuous
 62
     3
100
AcDbLine
 10
1899.906013078955
 20
814.2816540286915
 30
0.0
 11
1899.906013078955
 21
816.7816540286915
 31
0.0
  0
LINE
  5
6F72
330
1E
100
AcDbEntity
  8
躯体と製品
  6
Continuous
 62
     3
100
AcDbLine
 10
1851.406013078955
 20
814.2816540286915
 30
0.0
 11
1852.906013078955
 21
814.2816540286915
 31
0.0
  0
LINE
  5
6F73
330
1E
100
AcDbEntity
  8
躯体と製品
  6
Continuous
 62
     3
100
AcDbLine
 10
1852.906013078955
 20
814.2816540286915
 30
0.0
 11
1852.906013078955
 21
814.7816540286914
 31
0.0
  0
LINE
  5
6F74
330
1E
100
AcDbEntity
  8
躯体と製品
  6
Continuous
 62
     3
100
AcDbLine
 10
1852.906013078955
 20
814.7816540286914
 30
0.0
 11
1864.406013078955
 21
814.7816540286914
 31
0.0
  0
LINE
  5
6F75
330
1E
100
AcDbEntity
  8
躯体と製品
  6
Continuous
 62
     3
100
AcDbLine
 10
1864.406013078955
 20
814.7816540286914
 30
0.0
 11
1864.406013078955
 21
814.2816540286915
 31
0.0
  0
ARC
  5
6F76
330
1E
100
AcDbEntity
  8
躯体と製品
  6
Continuous
 62
     3
100
AcDbCircle
 10
1856.156013078955
 20
823.5316540286914
 30
0.0
 40
0.75
100
AcDbArc
 50
270.0
 51
90.0
  0
ARC
  5
6F77
330
1E
100
AcDbEntity
  8
躯体と製品
  6
Continuous
 62
     3
100
AcDbCircle
 10
1855.156013078955
 20
819.5316540286915
 30
0.0
 40
0.75
100
AcDbArc
 50
270.0
 51
90.0
  0
ARC
  5
6F78
330
1E
100
AcDbEntity
  8
躯体と製品
  6
Continuous
 62
     3
100
AcDbCircle
 10
1853.206013078955
 20
822.4816540286912
 30
0.0
 40
0.2999999999999998
100
AcDbArc
 50
90.0
 51
180.0
  0
LINE
  5
6F79
330
1E
100
AcDbEntity
  8
躯体と製品
  6
Continuous
 62
     3
100
AcDbLine
 10
1853.206013078955
 20
822.7816540286912
 30
0.0
 11
1856.156013078955
 21
822.7816540286912
 31
0.0
  0
LINE
  5
6F7A
330
1E
100
AcDbEntity
  8
躯体と製品
  6
Continuous
 62
     3
100
AcDbLine
 10
1853.206013078955
 20
820.2816540286914
 30
0.0
 11
1855.156013078955
 21
820.2816540286914
 31
0.0
  0
ARC
  5
6F7B
330
1E
100
AcDbEntity
  8
躯体と製品
  6
Continuous
 62
     3
100
AcDbCircle
 10
1853.206013078955
 20
820.5816540286914
 30
0.0
 40
0.2999999999999998
100
AcDbArc
 50
180.0
 51
270.0
  0
LINE
  5
6F7C
330
1E
100
AcDbEntity
  8
躯体と製品
  6
Continuous
 62
     3
100
AcDbLine
 10
1852.906013078955
 20
820.5816540286914
 30
0.0
 11
1852.906013078955
 21
822.4816540286912
 31
0.0
  0
ARC
  5
6F7D
330
1E
100
AcDbEntity
  8
躯体と製品
  6
Continuous
 62
     3
100
AcDbCircle
 10
1853.206013078955
 20
818.4816540286913
 30
0.0
 40
0.2999999999999998
100
AcDbArc
 50
90.0
 51
180.0
  0
LINE
  5
6F7E
330
1E
100
AcDbEntity
  8
躯体と製品
  6
Continuous
 62
     3
100
AcDbLine
 10
1853.206013078955
 20
818.7816540286915
 30
0.0
 11
1855.156013078955
 21
818.7816540286915
 31
0.0
  0
ARC
  5
6F7F
330
1E
100
AcDbEntity
  8
躯体と製品
  6
Continuous
 62
     3
100
AcDbCircle
 10
1853.206013078955
 20
817.0816540286914
 30
0.0
 40
0.2999999999999998
100
AcDbArc
 50
180.0
 51
270.0
  0
LINE
  5
6F80
330
1E
100
AcDbEntity
  8
躯体と製品
  6
Continuous
 62
     3
100
AcDbLine
 10
1852.906013078955
 20
817.0816540286914
 30
0.0
 11
1852.906013078955
 21
818.4816540286913
 31
0.0
  0
LINE
  5
6F81
330
1E
100
AcDbEntity
  8
躯体と製品
  6
Continuous
 62
     3
100
AcDbLine
 10
1851.906013078955
 20
824.2816540286915
 30
0.0
 11
1856.156013078955
 21
824.2816540286915
 31
0.0
  0
ARC
  5
6F82
330
1E
100
AcDbEntity
  8
躯体と製品
  6
Continuous
 62
     3
100
AcDbCircle
 10
1851.906013078955
 20
823.7816540286914
 30
0.0
 40
0.5
100
AcDbArc
 50
90.0
 51
180.0
  0
LINE
  5
6F83
330
1E
100
AcDbEntity
  8
躯体と製品
  6
Continuous
 62
     3
100
AcDbLine
 10
1851.406013078955
 20
823.7816540286914
 30
0.0
 11
1851.406013078955
 21
814.2816540286915
 31
0.0
  0
LINE
  5
6F84
330
1E
100
AcDbEntity
  8
躯体と製品
  6
Continuous
 62
     3
100
AcDbLine
 10
1864.406013078955
 20
814.2816540286915
 30
0.0
 11
1874.406013078955
 21
814.2816540286915
 31
0.0
  0
LINE
  5
6F85
330
1E
100
AcDbEntity
  8
躯体と製品
  6
Continuous
 62
     3
100
AcDbLine
 10
1869.906013078955
 20
816.7816540286915
 30
0.0
 11
1885.606013078955
 21
816.7816540286915
 31
0.0
  0
LINE
  5
6F86
330
1E
100
AcDbEntity
  8
躯体と製品
  6
Continuous
 62
     3
100
AcDbLine
 10
1853.206013078955
 20
816.7816540286915
 30
0.0
 11
1868.906013078955
 21
816.7816540286915
 31
0.0
  0
LINE
  5
6F87
330
1E
100
AcDbEntity
  8
躯体と製品
  6
Continuous
 62
     3
100
AcDbLine
 10
1874.406013078955
 20
814.2816540286915
 30
0.0
 11
1874.406013078955
 21
814.7816540286914
 31
0.0
  0
LINE
  5
6F88
330
1E
100
AcDbEntity
  8
躯体と製品
  6
Continuous
 62
     3
100
AcDbLine
 10
1874.406013078955
 20
814.7816540286914
 30
0.0
 11
1885.906013078955
 21
814.7816540286914
 31
0.0
  0
LINE
  5
6F89
330
1E
100
AcDbEntity
  8
躯体と製品
  6
Continuous
 62
     3
100
AcDbLine
 10
1885.906013078955
 20
814.7816540286914
 30
0.0
 11
1885.906013078955
 21
814.2816540286915
 31
0.0
  0
LINE
  5
6F8A
330
1E
100
AcDbEntity
  8
躯体と製品
  6
Continuous
 62
     3
100
AcDbLine
 10
1885.906013078955
 20
814.2816540286915
 30
0.0
 11
1887.906013078955
 21
814.2816540286915
 31
0.0
  0
ARC
  5
6F8B
330
1E
100
AcDbEntity
  8
躯体と製品
  6
Continuous
 62
     3
100
AcDbCircle
 10
1886.906013078955
 20
832.2816540286915
 30
0.0
 40
1.0
100
AcDbArc
 50
0.0
 51
180.0
  0
LINE
  5
6F8C
330
1E
100
AcDbEntity
  8
躯体と製品
  6
Continuous
 62
     3
100
AcDbLine
 10
1898.406013078955
 20
815.2816540286915
 30
0.0
 11
1898.406013078955
 21
814.2816540286915
 31
0.0
  0
LINE
  5
6F8D
330
1E
100
AcDbEntity
  8
躯体と製品
  6
Continuous
 62
     3
100
AcDbLine
 10
1898.406013078955
 20
814.2816540286915
 30
0.0
 11
1899.906013078955
 21
814.2816540286915
 31
0.0
  0
LINE
  5
6F8E
330
1E
100
AcDbEntity
  8
躯体と製品
  6
Continuous
 62
     3
100
AcDbLine
 10
1869.406013078955
 20
816.2816540286915
 30
0.0
 11
1869.906013078955
 21
816.7816540286915
 31
0.0
  0
LINE
  5
6F8F
330
1E
100
AcDbEntity
  8
躯体と製品
  6
Continuous
 62
     3
100
AcDbLine
 10
1887.906013078955
 20
814.2816540286915
 30
0.0
 11
1887.906013078955
 21
815.2816540286915
 31
0.0
  0
LINE
  5
6F90
330
1E
100
AcDbEntity
  8
躯体と製品
  6
Continuous
 62
     3
100
AcDbLine
 10
1887.906013078955
 20
815.2816540286915
 30
0.0
 11
1898.406013078955
 21
815.2816540286915
 31
0.0
  0
LINE
  5
6F91
330
1E
100
AcDbEntity
  8
躯体と製品
  6
Continuous
 62
     3
100
AcDbLine
 10
1887.906013078955
 20
817.2816540286914
 30
0.0
 11
1887.906013078955
 21
832.2816540286915
 31
0.0
  0
ARC
  5
6F92
330
1E
100
AcDbEntity
  8
躯体と製品
  6
Continuous
 62
     3
100
AcDbCircle
 10
1888.406013078955
 20
817.2816540286914
 30
0.0
 40
0.5
100
AcDbArc
 50
180.0
 51
270.0
  0
ARC
  5
6F93
330
1E
100
AcDbEntity
  8
躯体と製品
  6
Continuous
 62
     3
100
AcDbCircle
 10
1885.606013078955
 20
817.0816540286914
 30
0.0
 40
0.2999999999999998
100
AcDbArc
 50
270.0
 51
0.0
  0
LINE
  5
6F94
330
1E
100
AcDbEntity
  8
躯体と製品
  6
Continuous
 62
     3
100
AcDbLine
 10
1885.406013078955
 20
824.2816540286915
 30
0.0
 11
1882.656013078955
 21
824.2816540286915
 31
0.0
  0
ARC
  5
6F95
330
1E
100
AcDbEntity
  8
躯体と製品
  6
Continuous
 62
     3
100
AcDbCircle
 10
1885.406013078955
 20
824.7816540286912
 30
0.0
 40
0.5
100
AcDbArc
 50
270.0
 51
0.0
  0
LINE
  5
6F96
330
1E
100
AcDbEntity
  8
躯体と製品
  6
Continuous
 62
     3
100
AcDbLine
 10
1885.906013078955
 20
824.7816540286912
 30
0.0
 11
1885.906013078955
 21
832.2816540286915
 31
0.0
  0
ARC
  5
6F97
330
1E
100
AcDbEntity
  8
躯体と製品
  6
Continuous
 62
     3
100
AcDbCircle
 10
1882.656013078955
 20
823.5316540286914
 30
0.0
 40
0.75
100
AcDbArc
 50
90.0
 51
270.0
  0
ARC
  5
6F98
330
1E
100
AcDbEntity
  8
躯体と製品
  6
Continuous
 62
     3
100
AcDbCircle
 10
1883.656013078955
 20
819.5316540286915
 30
0.0
 40
0.75
100
AcDbArc
 50
90.0
 51
270.0
  0
LINE
  5
6F99
330
1E
100
AcDbEntity
  8
躯体と製品
  6
Continuous
 62
     3
100
AcDbLine
 10
1885.606013078955
 20
818.7816540286915
 30
0.0
 11
1883.656013078955
 21
818.7816540286915
 31
0.0
  0
ARC
  5
6F9A
330
1E
100
AcDbEntity
  8
躯体と製品
  6
Continuous
 62
     3
100
AcDbCircle
 10
1885.606013078955
 20
818.4816540286913
 30
0.0
 40
0.2999999999999998
100
AcDbArc
 50
0.0
 51
90.0
  0
LINE
  5
6F9B
330
1E
100
AcDbEntity
  8
躯体と製品
  6
Continuous
 62
     3
100
AcDbLine
 10
1885.906013078955
 20
818.4816540286913
 30
0.0
 11
1885.906013078955
 21
817.0816540286914
 31
0.0
  0
LINE
  5
6F9C
330
1E
100
AcDbEntity
  8
躯体と製品
  6
Continuous
 62
     3
100
AcDbLine
 10
1885.606013078955
 20
820.2816540286914
 30
0.0
 11
1883.656013078955
 21
820.2816540286914
 31
0.0
  0
ARC
  5
6F9D
330
1E
100
AcDbEntity
  8
躯体と製品
  6
Continuous
 62
     3
100
AcDbCircle
 10
1885.606013078955
 20
820.5816540286914
 30
0.0
 40
0.2999999999999998
100
AcDbArc
 50
270.0
 51
0.0
  0
LINE
  5
6F9E
330
1E
100
AcDbEntity
  8
躯体と製品
  6
Continuous
 62
     3
100
AcDbLine
 10
1885.906013078955
 20
822.4816540286912
 30
0.0
 11
1885.906013078955
 21
820.5816540286914
 31
0.0
  0
ARC
  5
6F9F
330
1E
100
AcDbEntity
  8
躯体と製品
  6
Continuous
 62
     3
100
AcDbCircle
 10
1885.606013078955
 20
822.4816540286912
 30
0.0
 40
0.2999999999999998
100
AcDbArc
 50
0.0
 51
90.0
  0
LINE
  5
6FA0
330
1E
100
AcDbEntity
  8
躯体と製品
  6
Continuous
 62
     3
100
AcDbLine
 10
1885.606013078955
 20
822.7816540286912
 30
0.0
 11
1882.656013078955
 21
822.7816540286912
 31
0.0
  0
LINE
  5
6FA1
330
1E
100
AcDbEntity
  8
躯体と製品
  6
Continuous
 62
     3
100
AcDbLine
 10
1869.406013078955
 20
816.2816540286915
 30
0.0
 11
1868.906013078955
 21
816.7816540286915
 31
0.0
  0
LINE
  5
6FA2
330
1E
100
AcDbEntity
  8
躯体と製品
  6
Continuous
 62
     3
100
AcDbLine
 10
1894.604935182715
 20
821.2703702302357
 30
0.0
 11
1894.923690881555
 21
820.1987383883899
 31
0.0
  0
LINE
  5
6FA3
330
1E
100
AcDbEntity
  8
躯体と製品
  6
Continuous
 62
     3
100
AcDbLine
 10
1894.778583360382
 20
822.255177983248
 30
0.0
 11
1895.097339059222
 21
821.1835461414024
 31
0.0
  0
LINE
  5
6FA4
330
1E
100
AcDbEntity
  8
躯体と製品
  6
Continuous
 62
     3
100
AcDbLine
 10
1858.406013078955
 20
830.5687157656013
 30
0.0
 11
1858.406013078955
 21
823.2816540286915
 31
0.0
  0
LINE
  5
6FA5
330
1E
100
AcDbEntity
  8
躯体と製品
  6
Continuous
 62
     3
100
AcDbLine
 10
1853.406013078955
 20
821.1816540286914
 30
0.0
 11
1857.906013078955
 21
821.1816540286914
 31
0.0
  0
LINE
  5
6FA6
330
1E
100
AcDbEntity
  8
躯体と製品
  6
Continuous
 62
     3
100
AcDbLine
 10
1853.406013078955
 20
821.1816540286914
 30
0.0
 11
1853.406013078955
 21
822.7816540286912
 31
0.0
  0
LINE
  5
6FA7
330
1E
100
AcDbEntity
  8
躯体と製品
  6
Continuous
 62
     3
100
AcDbLine
 10
1853.406013078955
 20
822.7816540286912
 30
0.0
 11
1857.906013078955
 21
822.7816540286912
 31
0.0
  0
ARC
  5
6FA8
330
1E
100
AcDbEntity
  8
躯体と製品
  6
Continuous
 62
     3
100
AcDbCircle
 10
1857.906013078955
 20
823.2816540286915
 30
0.0
 40
2.1
100
AcDbArc
 50
270.0
 51
0.0
  0
ARC
  5
6FA9
330
1E
100
AcDbEntity
  8
躯体と製品
  6
Continuous
 62
     3
100
AcDbCircle
 10
1857.906013078955
 20
823.2816540286915
 30
0.0
 40
0.5
100
AcDbArc
 50
270.0
 51
0.0
  0
LINE
  5
6FAA
330
1E
100
AcDbEntity
  8
躯体と製品
  6
Continuous
 62
     3
100
AcDbLine
 10
1885.406013078955
 20
821.1816540286914
 30
0.0
 11
1880.906013078955
 21
821.1816540286914
 31
0.0
  0
LINE
  5
6FAB
330
1E
100
AcDbEntity
  8
躯体と製品
  6
Continuous
 62
     3
100
AcDbLine
 10
1880.906013078955
 20
822.7816540286912
 30
0.0
 11
1885.406013078955
 21
822.7816540286912
 31
0.0
  0
LINE
  5
6FAC
330
1E
100
AcDbEntity
  8
躯体と製品
  6
Continuous
 62
     3
100
AcDbLine
 10
1885.406013078955
 20
822.7816540286912
 30
0.0
 11
1885.406013078955
 21
821.1816540286914
 31
0.0
  0
ARC
  5
6FAD
330
1E
100
AcDbEntity
  8
躯体と製品
  6
Continuous
 62
     3
100
AcDbCircle
 10
1880.906013078955
 20
823.2816540286915
 30
0.0
 40
2.1
100
AcDbArc
 50
180.0
 51
270.0
  0
ARC
  5
6FAE
330
1E
100
AcDbEntity
  8
躯体と製品
  6
Continuous
 62
     3
100
AcDbCircle
 10
1880.906013078955
 20
823.2816540286915
 30
0.0
 40
0.5
100
AcDbArc
 50
180.0
 51
270.0
  0
LINE
  5
6FAF
330
1E
100
AcDbEntity
  8
躯体と製品
  6
Continuous
 62
     3
100
AcDbLine
 10
1860.006013078955
 20
830.5687157656013
 30
0.0
 11
1860.006013078955
 21
823.2816540286915
 31
0.0
  0
ARC
  5
6FB0
330
1E
100
AcDbEntity
  8
躯体と製品
  6
Continuous
 62
     3
100
AcDbCircle
 10
1860.506013078955
 20
830.5687157656013
 30
0.0
 40
0.5
100
AcDbArc
 50
86.99999999999441
 51
180.0
  0
LINE
  5
6FB1
330
1E
100
AcDbEntity
  8
躯体と製品
  6
Continuous
 62
     3
100
AcDbLine
 10
1878.806013078955
 20
829.6358572943631
 30
0.0
 11
1878.806013078955
 21
823.2816540286915
 31
0.0
  0
ARC
  5
6FB2
330
1E
100
AcDbEntity
  8
躯体と製品
  6
Continuous
 62
     3
100
AcDbCircle
 10
1878.306013078955
 20
829.6358572943631
 30
0.0
 40
0.5
100
AcDbArc
 50
0.0
 51
86.99999999999441
  0
ARC
  5
6FB3
330
1E
100
AcDbEntity
  8
躯体と製品
  6
Continuous
 62
     3
100
AcDbCircle
 10
1860.506013078955
 20
830.5687157656013
 30
0.0
 40
2.1
100
AcDbArc
 50
86.99999999999441
 51
180.0
  0
LINE
  5
6FB4
330
1E
100
AcDbEntity
  8
躯体と製品
  6
Continuous
 62
     3
100
AcDbLine
 10
1880.406013078955
 20
829.6358572943631
 30
0.0
 11
1880.406013078955
 21
823.2816540286915
 31
0.0
  0
ARC
  5
6FB5
330
1E
100
AcDbEntity
  8
躯体と製品
  6
Continuous
 62
     3
100
AcDbCircle
 10
1878.306013078955
 20
829.6358572943631
 30
0.0
 40
2.1
100
AcDbArc
 50
0.0
 51
86.99999999999441
  0
LINE
  5
6FB6
330
1E
100
AcDbEntity
  8
躯体と製品
  6
Continuous
 62
     3
100
AcDbLine
 10
1873.811299496351
 20
828.3693567327441
 30
0.0
 11
1864.623907776609
 21
828.8508475301789
 31
0.0
  0
LINE
  5
6FB7
330
1E
100
AcDbEntity
  8
躯体と製品
  6
Continuous
 62
     3
100
AcDbLine
 10
1864.676243732852
 20
829.8494770649337
 30
0.0
 11
1864.623907776609
 21
828.8508475301789
 31
0.0
  0
ARC
  5
6FB8
330
1E
100
AcDbEntity
  8
躯体と製品
  6
Continuous
 62
     3
100
AcDbCircle
 10
1863.677614198097
 20
829.9018130211766
 30
0.0
 40
1.0
100
AcDbArc
 50
357.0000000000011
 51
86.99999999999441
  0
LINE
  5
6FB9
330
1E
100
AcDbEntity
  8
躯体と製品
  6
Continuous
 62
     3
100
AcDbLine
 10
1873.863635452594
 20
829.3679862674984
 30
0.0
 11
1873.811299496351
 21
828.3693567327441
 31
0.0
  0
ARC
  5
6FBA
330
1E
100
AcDbEntity
  8
躯体と製品
  6
Continuous
 62
     3
100
AcDbCircle
 10
1874.862264987348
 20
829.3156503112554
 30
0.0
 40
1.0
100
AcDbArc
 50
86.99999999999441
 51
177.0000000000011
  0
LINE
  5
6FBB
330
1E
100
AcDbEntity
  8
躯体と製品
  6
Continuous
 62
     3
100
AcDbLine
 10
1878.332181057076
 20
830.1351720617406
 30
0.0
 11
1860.532181057076
 21
831.0680305329785
 31
0.0
  0
LINE
  5
6FBC
330
1E
100
AcDbEntity
  8
躯体と製品
  6
Continuous
 62
     3
100
AcDbLine
 10
1878.415918587065
 20
831.7329793173479
 30
0.0
 11
1860.615918587065
 21
832.6658377885859
 31
0.0
  0
LINE
  5
6FBD
330
1E
100
AcDbEntity
  8
躯体と製品
  6
DASHED1
 62
     7
100
AcDbLine
 10
1866.410124474691
 20
832.3621763253068
 30
0.0
 11
1866.221715032216
 21
828.7671100001903
 31
0.0
  0
LINE
  5
6FBE
330
1E
100
AcDbEntity
  8
躯体と製品
  6
DASHED1
 62
     7
100
AcDbLine
 10
1872.401901683218
 20
832.0481605878489
 30
0.0
 11
1872.213492240744
 21
828.4530942627327
 31
0.0
  0
LINE
  5
6FBF
330
1E
100
AcDbEntity
  8
躯体と製品
  6
Continuous
 62
     4
100
AcDbLine
 10
1883.406013078955
 20
822.7816540286912
 30
0.0
 11
1883.406013078955
 21
821.1816540286914
 31
0.0
  0
LINE
  5
6FC0
330
1E
100
AcDbEntity
  8
躯体と製品
  6
Continuous
 62
     4
100
AcDbLine
 10
1855.406013078955
 20
822.7816540286912
 30
0.0
 11
1855.406013078955
 21
821.1816540286914
 31
0.0
  0
ARC
  5
6FC1
330
1E
100
AcDbEntity
  8
躯体と製品
  6
DASHED1
 62
     7
100
AcDbCircle
 10
1881.319647894776
 20
855.6059869802107
 30
0.0
 40
1.0
100
AcDbArc
 50
37.62684736228169
 51
86.99999999999441
  0
LINE
  5
6FC2
330
1E
100
AcDbEntity
  8
躯体と製品
  6
DASHED1
 62
     7
100
AcDbLine
 10
1860.097898721917
 20
858.5206419496582
 30
0.0
 11
1881.413852616013
 21
857.4035201427689
 31
0.0
  0
ARC
  5
6FC3
330
1E
100
AcDbEntity
  8
躯体と製品
  6
DASHED1
 62
     7
100
AcDbCircle
 10
1860.00369400068
 20
856.7231087870998
 30
0.0
 40
1.8
100
AcDbArc
 50
86.99999999999441
 51
136.3731526377175
  0
LINE
  5
6FC4
330
1E
100
AcDbEntity
  8
躯体と製品
  6
DASHED1
 62
     7
100
AcDbLine
 10
1860.056029956922
 20
857.7217383218544
 30
0.0
 11
1881.371983851019
 21
856.6046165149654
 31
0.0
  0
LINE
  5
6FC5
330
1E
100
AcDbEntity
  8
躯体と製品
  6
DASHED1
 62
     7
100
AcDbLine
 10
1859.279845357117
 20
857.4130675838498
 30
0.0
 11
1846.349894263359
 21
843.8480147073068
 31
0.0
  0
ARC
  5
6FC6
330
1E
100
AcDbEntity
  8
躯体と製品
  6
DASHED1
 62
     7
100
AcDbCircle
 10
1860.00369400068
 20
856.7231087870998
 30
0.0
 40
1.0
100
AcDbArc
 50
86.99999999999441
 51
136.3731526377175
  0
ARC
  5
6FC7
330
1E
100
AcDbEntity
  8
躯体と製品
  6
DASHED1
 62
     7
100
AcDbCircle
 10
1845.046966721451
 20
845.0899405587723
 30
0.0
 40
1.0
100
AcDbArc
 50
217.6268487328632
 51
316.3731526377176
  0
ARC
  5
6FC8
330
1E
100
AcDbEntity
  8
躯体と製品
  6
DASHED1
 62
     7
100
AcDbCircle
 10
1845.046966721451
 20
845.0899405587723
 30
0.0
 40
1.8
100
AcDbArc
 50
217.6268481237226
 51
316.3731526377176
  0
LINE
  5
6FC9
330
1E
100
AcDbEntity
  8
躯体と製品
  6
DASHED1
 62
     7
100
AcDbLine
 10
1897.772168493019
 20
843.9547298805916
 30
0.0
 11
1895.702292086238
 21
841.7831839325597
 31
0.0
  0
LINE
  5
6FCA
330
1E
100
AcDbEntity
  8
躯体と製品
  6
DASHED1
 62
     7
100
AcDbLine
 10
1898.351247407892
 20
843.4027628432152
 30
0.0
 11
1897.772168493019
 21
843.9547298805916
 31
0.0
  0
LINE
  5
6FCB
330
1E
100
AcDbEntity
  8
躯体と製品
  6
DASHED1
 62
     7
100
AcDbLine
 10
1898.351247407892
 20
843.4027628432152
 30
0.0
 11
1896.281371001087
 21
841.2312168951597
 31
0.0
  0
ARC
  5
6FCC
330
1E
100
AcDbEntity
  8
躯体と製品
  6
DASHED1
 62
     7
100
AcDbCircle
 10
1894.978443459179
 20
842.473142746625
 30
0.0
 40
1.0
100
AcDbArc
 50
217.6268473622817
 51
316.3731512671342
  0
ARC
  5
6FCD
330
1E
100
AcDbEntity
  8
躯体と製品
  6
DASHED1
 62
     7
100
AcDbCircle
 10
1894.978443459179
 20
842.473142746625
 30
0.0
 40
1.8
100
AcDbArc
 50
217.6268473622817
 51
316.3731518762783
  0
LINE
  5
6FCE
330
1E
100
AcDbEntity
  8
躯体と製品
  6
DASHED1
 62
     7
100
AcDbLine
 10
1882.745254478632
 20
856.7049163992662
 30
0.0
 11
1894.186439816086
 21
841.8626263837595
 31
0.0
  0
LINE
  5
6FCF
330
1E
100
AcDbEntity
  8
躯体と製品
  6
DASHED1
 62
     7
100
AcDbLine
 10
1882.111651552474
 20
856.2165033241303
 30
0.0
 11
1893.552836889927
 21
841.3742133086238
 31
0.0
  0
ARC
  5
6FD0
330
1E
100
AcDbEntity
  8
躯体と製品
  6
DASHED1
 62
     7
100
AcDbCircle
 10
1881.319647894776
 20
855.6059869802107
 30
0.0
 40
1.8
100
AcDbArc
 50
37.62684736228169
 51
86.99999999999441
  0
LINE
  5
6FD1
330
1E
100
AcDbEntity
  8
躯体と製品
  6
DASHED1
 62
     7
100
AcDbLine
 10
1858.700766442266
 20
857.9650346212497
 30
0.0
 11
1845.770815365014
 21
844.3999817620223
 31
0.0
  0
ARC
  5
6FD2
330
1E
100
AcDbEntity
  8
躯体と製品
  6
DASHED1
 62
     7
100
AcDbCircle
 10
1869.57194692128
 20
861.1662603056622
 30
0.0
 40
0.5999999999999998
100
AcDbArc
 50
357.0000000000011
 51
100.7002330000058
  0
ARC
  5
6FD3
330
1E
100
AcDbEntity
  8
躯体と製品
  6
DASHED1
 62
     7
100
AcDbCircle
 10
1872.268246665117
 20
861.0249532238062
 30
0.0
 40
0.5999999999999998
100
AcDbArc
 50
73.29976700000166
 51
177.0000000000011
  0
LINE
  5
6FD4
330
1E
100
AcDbEntity
  8
躯体と製品
  6
DASHED1
 62
     7
100
AcDbLine
 10
1871.667015019662
 20
861.0171635814607
 30
0.0
 11
1870.16907071753
 21
861.0956675158252
 31
0.0
  0
ARC
  5
6FD5
330
1E
100
AcDbEntity
  8
躯体と製品
  6
DASHED1
 62
     7
100
AcDbCircle
 10
1868.942644973797
 20
857.8619830276785
 30
0.0
 40
3.45
100
AcDbArc
 50
126.3091240000008
 51
173.7621629999991
  0
ARC
  5
6FD6
330
1E
100
AcDbEntity
  8
躯体と製品
  6
DASHED1
 62
     7
100
AcDbCircle
 10
1872.553980979053
 20
857.6682117477243
 30
0.0
 40
3.45
100
AcDbArc
 50
0.3127429999987237
 51
47.82048899999998
  0
ARC
  5
6FD7
330
1E
100
AcDbEntity
  8
躯体と製品
  6
DASHED1
 62
     7
100
AcDbCircle
 10
1870.630269426317
 20
855.565371161432
 30
0.0
 40
6.299999999999998
100
AcDbArc
 50
47.69686900000316
 51
126.3093710000041
  0
LINE
  5
6FD8
330
1E
100
AcDbEntity
  8
躯体と製品
  6
Continuous
 62
     4
100
AcDbLine
 10
1871.94975879585
 20
823.4207603515823
 30
0.0
 11
1865.957981587322
 21
823.7347760890402
 31
0.0
  0
POINT
  5
6FD9
330
1E
100
AcDbEntity
  8
躯体と製品
 62
     4
100
AcDbPoint
 10
1869.406013078955
 20
832.205168456578
 30
0.0
  0
LINE
  5
6FDA
330
1E
100
AcDbEntity
  8
躯体と製品
  6
DASHED1
 62
     7
100
AcDbLine
 10
1873.751764273229
 20
857.8050731774848
 30
0.0
 11
1872.506168514647
 21
834.0376902503258
 31
0.0
  0
LINE
  5
6FDB
330
1E
100
AcDbEntity
  8
躯体と製品
  6
DASHED1
 62
     4
100
AcDbLine
 10
1873.184043382721
 20
857.8348261686087
 30
0.0
 11
1871.938447624138
 21
834.0674432414498
 31
0.0
  0
LINE
  5
6FDC
330
1E
100
AcDbEntity
  8
躯体と製品
  6
DASHED1
 62
     7
100
AcDbLine
 10
1867.759987064701
 20
858.1190889149425
 30
0.0
 11
1866.514391306119
 21
834.3517059877834
 31
0.0
  0
LINE
  5
6FDD
330
1E
100
AcDbEntity
  8
躯体と製品
  6
DASHED1
 62
     4
100
AcDbLine
 10
1868.327707955209
 20
858.0893359238181
 30
0.0
 11
1867.082112196627
 21
834.3219529966592
 31
0.0
  0
LINE
  5
6FDE
330
1E
100
AcDbEntity
  8
躯体と製品
  6
Continuous
 62
     7
100
AcDbLine
 10
1866.514391306119
 20
834.3517059877834
 30
0.0
 11
1866.410124474691
 21
832.3621763253068
 31
0.0
  0
LINE
  5
6FDF
330
1E
100
AcDbEntity
  8
躯体と製品
  6
Continuous
 62
     4
100
AcDbLine
 10
1867.082112196627
 20
834.3219529966592
 30
0.0
 11
1866.977845365199
 21
832.3324233341827
 31
0.0
  0
LINE
  5
6FE0
330
1E
100
AcDbEntity
  8
躯体と製品
  6
Continuous
 62
     4
100
AcDbLine
 10
1871.938447624138
 20
834.0674432414498
 30
0.0
 11
1871.83418079271
 21
832.0779135789733
 31
0.0
  0
LINE
  5
6FE1
330
1E
100
AcDbEntity
  8
躯体と製品
  6
Continuous
 62
     7
100
AcDbLine
 10
1872.506168514647
 20
834.0376902503258
 30
0.0
 11
1872.401901683218
 21
832.0481605878493
 31
0.0
  0
LINE
  5
6FE2
330
1E
100
AcDbEntity
  8
躯体と製品
  6
Continuous
 62
     7
100
AcDbLine
 10
1866.221715032216
 20
828.7671100001903
 30
0.0
 11
1865.957981587322
 21
823.7347760890402
 31
0.0
  0
LINE
  5
6FE3
330
1E
100
AcDbEntity
  8
躯体と製品
  6
Continuous
 62
     7
100
AcDbLine
 10
1872.213492240744
 20
828.4530942627325
 30
0.0
 11
1871.94975879585
 21
823.4207603515823
 31
0.0
  0
POINT
  5
6FE4
330
1E
100
AcDbEntity
  8
躯体と製品
 62
     4
100
AcDbPoint
 10
1886.958349035198
 20
833.2802835634462
 30
0.0
  0
LINE
  5
6FE5
330
1E
100
AcDbEntity
  8
躯体と製品
  6
DASHED1
 62
     7
100
AcDbLine
 10
1841.789811105791
 20
846.3670221128673
 30
0.0
 11
1843.621360152199
 21
843.9910111207709
 31
0.0
  0
LINE
  5
6FE6
330
1E
100
AcDbEntity
  8
躯体と製品
  6
DASHED1
 62
     7
100
AcDbLine
 10
1842.423414031969
 20
846.8554351879777
 30
0.0
 11
1844.254963078357
 21
844.4794241959069
 31
0.0
  0
LINE
  5
6FE7
330
1E
100
AcDbEntity
  8
躯体と製品
  6
DASHED1
 62
     7
100
AcDbLine
 10
1841.789811105791
 20
846.3670221128673
 30
0.0
 11
1842.423414031969
 21
846.8554351879777
 31
0.0
  0
ARC
  5
6FE8
330
1E
100
AcDbEntity
  8
躯体と製品
  6
Continuous
 62
     7
100
AcDbCircle
 10
1919.378700935489
 20
811.282026295647
 30
0.0
 40
1.0
100
AcDbArc
 50
4.999999999999459
 51
88.3634229583817
  0
LINE
  5
6FE9
330
1E
100
AcDbEntity
  8
躯体と製品
  6
Continuous
 62
     7
100
AcDbLine
 10
1744.406013078955
 20
812.2816540286912
 30
0.0
 11
1744.406013078955
 21
672.2816540286914
 31
0.0
  0
LINE
  5
6FEA
330
1E
100
AcDbEntity
  8
躯体と製品
  6
Continuous
 62
     7
100
AcDbLine
 10
1744.406013078955
 20
812.2816540286912
 30
0.0
 11
1919.406013078955
 21
812.2816540286912
 31
0.0
  0
ARC
  5
6FEB
330
1E
100
AcDbEntity
  8
躯体と製品
  6
Continuous
 62
     7
100
AcDbCircle
 10
1744.406013078955
 20
811.2816540286914
 30
0.0
 40
1.0
100
AcDbArc
 50
90.0
 51
175.0000000000005
  0
LINE
  5
6FEC
330
1E
100
AcDbEntity
  8
躯体と製品
  6
Continuous
 62
     7
100
AcDbLine
 10
1920.37489563358
 20
811.3691820383946
 30
0.0
 11
1921.99868342916
 21
792.8092026063277
 31
0.0
  0
LINE
  5
6FED
330
1E
100
AcDbEntity
  8
躯体と製品
  6
Continuous
 62
     7
100
AcDbLine
 10
1921.371090331672
 20
811.4563377811421
 30
0.0
 11
1922.994878127253
 21
792.8963583490753
 31
0.0
  0
LINE
  5
6FEE
330
1E
100
AcDbEntity
  8
躯体と製品
  6
Continuous
 62
     7
100
AcDbLine
 10
1970.814112700486
 20
815.8636451910533
 30
0.0
 11
1968.797110330413
 21
792.8092026063275
 31
0.0
  0
ARC
  5
6FEF
330
1E
100
AcDbEntity
  8
躯体と製品
  6
Continuous
 62
     7
100
AcDbCircle
 10
1945.397896879787
 20
794.8563685186806
 30
0.0
 40
23.48859464465
100
AcDbArc
 50
184.9999999999994
 51
355.0000000000006
  0
LINE
  5
6FF0
330
1E
100
AcDbEntity
  8
躯体と製品
  6
Continuous
 62
     7
100
AcDbLine
 10
1969.817918002394
 20
815.9508009338008
 30
0.0
 11
1967.800915632322
 21
792.8963583490753
 31
0.0
  0
ARC
  5
6FF1
330
1E
100
AcDbEntity
  8
躯体と製品
  6
Continuous
 62
     7
100
AcDbCircle
 10
1945.397896879787
 20
794.8563685186806
 30
0.0
 40
22.48859464465
100
AcDbArc
 50
184.9999999999994
 51
355.0000000000006
  0
LINE
  5
6FF2
330
1E
100
AcDbEntity
  8
躯体と製品
  6
Continuous
 62
     7
100
AcDbLine
 10
1545.406013078955
 20
846.4911988157009
 30
0.0
 11
1552.071888846757
 21
770.2998901460082
 31
0.0
  0
LINE
  5
6FF3
330
1E
100
AcDbEntity
  8
躯体と製品
  6
Continuous
 62
     7
100
AcDbLine
 10
1546.406013078955
 20
846.5348597586094
 30
0.0
 11
1553.068083544849
 21
770.3870458887559
 31
0.0
  0
LINE
  5
6FF4
330
1E
100
AcDbEntity
  8
躯体と製品
  6
Continuous
 62
     7
100
AcDbLine
 10
1742.413623682772
 20
811.4559655141869
 30
0.0
 11
1738.820558792289
 21
770.3870458887561
 31
0.0
  0
ARC
  5
6FF5
330
1E
100
AcDbEntity
  8
躯体と製品
  6
Continuous
 62
     7
100
AcDbCircle
 10
1645.944321168569
 20
778.5126637917711
 30
0.0
 40
93.23100976307975
100
AcDbArc
 50
184.9999999999994
 51
355.0000000000006
  0
LINE
  5
6FF6
330
1E
100
AcDbEntity
  8
躯体と製品
  6
Continuous
 62
     7
100
AcDbLine
 10
1743.409818380863
 20
811.3688097714391
 30
0.0
 11
1739.81675349038
 21
770.2998901460078
 31
0.0
  0
ARC
  5
6FF7
330
1E
100
AcDbEntity
  8
躯体と製品
  6
Continuous
 62
     7
100
AcDbCircle
 10
1645.944321168569
 20
778.5126637917711
 30
0.0
 40
94.23100976307976
100
AcDbArc
 50
184.9999999999994
 51
355.0000000000006
  0
ARC
  5
7004
330
1E
100
AcDbEntity
  8
躯体と製品
  6
Continuous
 62
     7
100
AcDbCircle
 10
1558.606013078955
 20
931.0134311871809
 30
0.0
 40
2.021428571428586
100
AcDbArc
 50
42.74124453868362
 51
90.0
  0
LINE
  5
7005
330
1E
100
AcDbEntity
  8
躯体と製品
  6
Continuous
 62
     3
100
AcDbLine
 10
1576.406013078955
 20
886.7348597586094
 30
0.0
 11
1568.606013078955
 21
886.7348597586094
 31
0.0
  0
LINE
  5
7006
330
1E
100
AcDbEntity
  8
躯体と製品
  6
Continuous
 62
     3
100
AcDbLine
 10
1578.606013078955
 20
888.9348597586094
 30
0.0
 11
1578.606013078955
 21
920.5348597586093
 31
0.0
  0
LINE
  5
7007
330
1E
100
AcDbEntity
  8
躯体と製品
  6
Continuous
 62
     3
100
AcDbLine
 10
1576.406013078955
 20
922.7348597586095
 30
0.0
 11
1559.606013078955
 21
922.7348597586095
 31
0.0
  0
POINT
  5
7008
330
1E
100
AcDbEntity
  8
躯体と製品
 62
     4
100
AcDbPoint
 10
1578.606013078955
 20
886.7348597586094
 30
0.0
  0
LINE
  5
7009
330
1E
100
AcDbEntity
  8
躯体と製品
  6
Continuous
 62
     7
100
AcDbLine
 10
1556.906014078955
 20
921.8348617586091
 30
0.0
 11
1556.906014078955
 21
925.3348597586091
 31
0.0
  0
ARC
  5
700A
330
1E
100
AcDbEntity
  8
躯体と製品
  6
Continuous
 62
     7
100
AcDbCircle
 10
1557.406015078955
 20
921.8348617586091
 30
0.0
 40
0.5000010000000002
100
AcDbArc
 50
180.0
 51
270.0
  0
ARC
  5
700B
330
1E
100
AcDbEntity
  8
躯体と製品
  6
Continuous
 62
     7
100
AcDbCircle
 10
1557.406015078955
 20
921.8348617586091
 30
0.0
 40
1.299998999999999
100
AcDbArc
 50
180.0
 51
270.0
  0
LINE
  5
700C
330
1E
100
AcDbEntity
  8
躯体と製品
  6
Continuous
 62
     7
100
AcDbLine
 10
1556.106013078955
 20
925.3348597586091
 30
0.0
 11
1556.906014078955
 21
925.3348597586091
 31
0.0
  0
LINE
  5
700D
330
1E
100
AcDbEntity
  8
躯体と製品
  6
Continuous
 62
     7
100
AcDbLine
 10
1575.806014078955
 20
921.3348607586089
 30
0.0
 11
1557.406015078955
 21
921.3348607586089
 31
0.0
  0
ARC
  5
700E
330
1E
100
AcDbEntity
  8
躯体と製品
  6
Continuous
 62
     7
100
AcDbCircle
 10
1575.806014078955
 20
920.0348617586092
 30
0.0
 40
1.299998999999999
100
AcDbArc
 50
0.0
 51
90.0
  0
ARC
  5
700F
330
1E
100
AcDbEntity
  8
躯体と製品
  6
Continuous
 62
     7
100
AcDbCircle
 10
1575.806014078955
 20
920.0348617586092
 30
0.0
 40
0.5000010000000002
100
AcDbArc
 50
0.0
 51
90.0
  0
LINE
  5
7010
330
1E
100
AcDbEntity
  8
躯体と製品
  6
Continuous
 62
     7
100
AcDbLine
 10
1576.306015078955
 20
920.0348617586092
 30
0.0
 11
1576.306015078955
 21
891.334860758609
 31
0.0
  0
LINE
  5
7011
330
1E
100
AcDbEntity
  8
躯体と製品
  6
Continuous
 62
     7
100
AcDbLine
 10
1577.106013078955
 20
920.0348617586092
 30
0.0
 11
1577.106013078955
 21
891.334860758609
 31
0.0
  0
LINE
  5
7012
330
1E
100
AcDbEntity
  8
躯体と製品
  6
Continuous
 62
     7
100
AcDbLine
 10
1576.306015078955
 20
891.334860758609
 30
0.0
 11
1577.106013078955
 21
891.334860758609
 31
0.0
  0
LINE
  5
7013
330
1E
100
AcDbEntity
  8
躯体と製品
  6
Continuous
 62
     7
100
AcDbLine
 10
1575.806014078955
 20
920.5348597586091
 30
0.0
 11
1557.406015078955
 21
920.5348597586091
 31
0.0
  0
LINE
  5
7014
330
1E
100
AcDbEntity
  8
躯体と製品
  6
Continuous
 62
     7
100
AcDbLine
 10
1556.106013078955
 20
925.3348597586091
 30
0.0
 11
1556.106016078955
 21
921.8348617586091
 31
0.0
  0
LINE
  5
7015
330
1E
100
AcDbEntity
  8
躯体と製品
  6
Continuous
 62
     4
100
AcDbLine
 10
1576.306015078954
 20
891.5844039206232
 30
0.0
 11
1577.106013078955
 21
892.384401920624
 31
0.0
  0
LINE
  5
7016
330
1E
100
AcDbEntity
  8
躯体と製品
  6
Continuous
 62
     4
100
AcDbLine
 10
1576.306015078954
 20
892.9986174829965
 30
0.0
 11
1577.106013078955
 21
893.7986154829971
 31
0.0
  0
LINE
  5
7017
330
1E
100
AcDbEntity
  8
躯体と製品
  6
Continuous
 62
     4
100
AcDbLine
 10
1576.306015078955
 20
894.4128310453709
 30
0.0
 11
1577.106013078955
 21
895.2128290453703
 31
0.0
  0
LINE
  5
7018
330
1E
100
AcDbEntity
  8
躯体と製品
  6
Continuous
 62
     4
100
AcDbLine
 10
1576.306015078955
 20
895.827044607744
 30
0.0
 11
1577.106013078955
 21
896.6270426077437
 31
0.0
  0
LINE
  5
7019
330
1E
100
AcDbEntity
  8
躯体と製品
  6
Continuous
 62
     4
100
AcDbLine
 10
1576.306015078955
 20
897.2412581701172
 30
0.0
 11
1577.106013078955
 21
898.0412561701168
 31
0.0
  0
LINE
  5
701A
330
1E
100
AcDbEntity
  8
躯体と製品
  6
Continuous
 62
     4
100
AcDbLine
 10
1576.306015078955
 20
898.6554717324905
 30
0.0
 11
1577.106013078955
 21
899.4554697324899
 31
0.0
  0
LINE
  5
701B
330
1E
100
AcDbEntity
  8
躯体と製品
  6
Continuous
 62
     4
100
AcDbLine
 10
1576.306015078955
 20
900.0696852948637
 30
0.0
 11
1577.106013078955
 21
900.8696832948633
 31
0.0
  0
LINE
  5
701C
330
1E
100
AcDbEntity
  8
躯体と製品
  6
Continuous
 62
     4
100
AcDbLine
 10
1576.306015078955
 20
901.4838988572369
 30
0.0
 11
1577.106013078954
 21
902.2838968572367
 31
0.0
  0
LINE
  5
701D
330
1E
100
AcDbEntity
  8
躯体と製品
  6
Continuous
 62
     4
100
AcDbLine
 10
1576.306015078955
 20
902.8981124196103
 30
0.0
 11
1577.106013078954
 21
903.6981104196097
 31
0.0
  0
LINE
  5
701E
330
1E
100
AcDbEntity
  8
躯体と製品
  6
Continuous
 62
     4
100
AcDbLine
 10
1576.306015078955
 20
904.3123259819834
 30
0.0
 11
1577.106013078954
 21
905.112323981983
 31
0.0
  0
LINE
  5
701F
330
1E
100
AcDbEntity
  8
躯体と製品
  6
Continuous
 62
     4
100
AcDbLine
 10
1576.306015078954
 20
905.7265395443565
 30
0.0
 11
1577.106013078955
 21
906.5265375443573
 31
0.0
  0
LINE
  5
7020
330
1E
100
AcDbEntity
  8
躯体と製品
  6
Continuous
 62
     4
100
AcDbLine
 10
1576.306015078954
 20
907.1407531067301
 30
0.0
 11
1577.106013078955
 21
907.9407511067307
 31
0.0
  0
LINE
  5
7021
330
1E
100
AcDbEntity
  8
躯体と製品
  6
Continuous
 62
     4
100
AcDbLine
 10
1576.306015078954
 20
908.5549666691029
 30
0.0
 11
1577.106013078955
 21
909.3549646691037
 31
0.0
  0
LINE
  5
7022
330
1E
100
AcDbEntity
  8
躯体と製品
  6
Continuous
 62
     4
100
AcDbLine
 10
1576.306015078954
 20
909.9691802314763
 30
0.0
 11
1577.106013078955
 21
910.7691782314772
 31
0.0
  0
LINE
  5
7023
330
1E
100
AcDbEntity
  8
躯体と製品
  6
Continuous
 62
     4
100
AcDbLine
 10
1576.306015078954
 20
911.3833937938498
 30
0.0
 11
1577.106013078955
 21
912.1833917938504
 31
0.0
  0
LINE
  5
7024
330
1E
100
AcDbEntity
  8
躯体と製品
  6
Continuous
 62
     4
100
AcDbLine
 10
1576.306015078954
 20
912.7976073562187
 30
0.0
 11
1577.106013078954
 21
913.5976053562194
 31
0.0
  0
LINE
  5
7025
330
1E
100
AcDbEntity
  8
躯体と製品
  6
Continuous
 62
     4
100
AcDbLine
 10
1576.306015078954
 20
914.2118209185921
 30
0.0
 11
1577.106013078955
 21
915.011818918593
 31
0.0
  0
LINE
  5
7026
330
1E
100
AcDbEntity
  8
躯体と製品
  6
Continuous
 62
     4
100
AcDbLine
 10
1576.306015078956
 20
915.6260344809673
 30
0.0
 11
1577.106013078955
 21
916.4260324809673
 31
0.0
  0
LINE
  5
7027
330
1E
100
AcDbEntity
  8
躯体と製品
  6
Continuous
 62
     4
100
AcDbLine
 10
1576.306015078956
 20
917.0402480433406
 30
0.0
 11
1577.106013078955
 21
917.8402460433405
 31
0.0
  0
LINE
  5
7028
330
1E
100
AcDbEntity
  8
躯体と製品
  6
Continuous
 62
     4
100
AcDbLine
 10
1576.306015078956
 20
918.454461605714
 30
0.0
 11
1577.106013078955
 21
919.2544596057137
 31
0.0
  0
LINE
  5
7029
330
1E
100
AcDbEntity
  8
躯体と製品
  6
Continuous
 62
     4
100
AcDbLine
 10
1576.306015078955
 20
919.8686751680872
 30
0.0
 11
1576.995873433489
 21
920.5585335226212
 31
0.0
  0
LINE
  5
702A
330
1E
100
AcDbEntity
  8
躯体と製品
  6
Continuous
 62
     4
100
AcDbLine
 10
1575.557986107105
 20
920.5348597586096
 30
0.0
 11
1576.271711153918
 21
921.2485848054228
 31
0.0
  0
LINE
  5
702B
330
1E
100
AcDbEntity
  8
躯体と製品
  6
Continuous
 62
     4
100
AcDbLine
 10
1574.14377254473
 20
920.5348597586089
 30
0.0
 11
1574.94377354473
 21
921.3348607586086
 31
0.0
  0
LINE
  5
702C
330
1E
100
AcDbEntity
  8
躯体と製品
  6
Continuous
 62
     4
100
AcDbLine
 10
1572.729558982357
 20
920.5348597586091
 30
0.0
 11
1573.529559982357
 21
921.3348607586086
 31
0.0
  0
LINE
  5
702D
330
1E
100
AcDbEntity
  8
躯体と製品
  6
Continuous
 62
     4
100
AcDbLine
 10
1571.315345419984
 20
920.5348597586093
 30
0.0
 11
1572.115346419984
 21
921.3348607586087
 31
0.0
  0
LINE
  5
702E
330
1E
100
AcDbEntity
  8
躯体と製品
  6
Continuous
 62
     4
100
AcDbLine
 10
1569.901131857611
 20
920.5348597586096
 30
0.0
 11
1570.701132857611
 21
921.3348607586091
 31
0.0
  0
LINE
  5
702F
330
1E
100
AcDbEntity
  8
躯体と製品
  6
Continuous
 62
     4
100
AcDbLine
 10
1568.486918295237
 20
920.5348597586086
 30
0.0
 11
1569.286919295237
 21
921.3348607586095
 31
0.0
  0
LINE
  5
7030
330
1E
100
AcDbEntity
  8
躯体と製品
  6
Continuous
 62
     4
100
AcDbLine
 10
1567.072704732864
 20
920.5348597586089
 30
0.0
 11
1567.872705732864
 21
921.3348607586095
 31
0.0
  0
LINE
  5
7031
330
1E
100
AcDbEntity
  8
躯体と製品
  6
Continuous
 62
     4
100
AcDbLine
 10
1565.65849117049
 20
920.5348597586084
 30
0.0
 11
1566.458492170491
 21
921.3348607586091
 31
0.0
  0
LINE
  5
7032
330
1E
100
AcDbEntity
  8
躯体と製品
  6
Continuous
 62
     4
100
AcDbLine
 10
1564.244277608117
 20
920.5348597586086
 30
0.0
 11
1565.044278608117
 21
921.3348607586086
 31
0.0
  0
LINE
  5
7033
330
1E
100
AcDbEntity
  8
躯体と製品
  6
Continuous
 62
     4
100
AcDbLine
 10
1562.830064045743
 20
920.5348597586089
 30
0.0
 11
1563.630065045743
 21
921.3348607586086
 31
0.0
  0
LINE
  5
7034
330
1E
100
AcDbEntity
  8
躯体と製品
  6
Continuous
 62
     4
100
AcDbLine
 10
1561.415850483371
 20
920.5348597586089
 30
0.0
 11
1562.21585148337
 21
921.3348607586086
 31
0.0
  0
LINE
  5
7035
330
1E
100
AcDbEntity
  8
躯体と製品
  6
Continuous
 62
     4
100
AcDbLine
 10
1560.001636921001
 20
920.5348597586093
 30
0.0
 11
1560.801637921001
 21
921.3348607586089
 31
0.0
  0
LINE
  5
7036
330
1E
100
AcDbEntity
  8
躯体と製品
  6
Continuous
 62
     4
100
AcDbLine
 10
1558.587423358628
 20
920.5348597586096
 30
0.0
 11
1559.387424358628
 21
921.3348607586091
 31
0.0
  0
LINE
  5
7037
330
1E
100
AcDbEntity
  8
躯体と製品
  6
Continuous
 62
     4
100
AcDbLine
 10
1557.191100584238
 20
920.5527505465932
 30
0.0
 11
1557.973210796254
 21
921.3348607586093
 31
0.0
  0
LINE
  5
7038
330
1E
100
AcDbEntity
  8
躯体と製品
  6
Continuous
 62
     4
100
AcDbLine
 10
1556.329792123847
 20
921.1056556485752
 30
0.0
 11
1556.924455804591
 21
921.7003193293193
 31
0.0
  0
LINE
  5
7039
330
1E
100
AcDbEntity
  8
躯体と製品
  6
Continuous
 62
     4
100
AcDbLine
 10
1556.106015683614
 20
922.2960927707152
 30
0.0
 11
1556.906014078955
 21
923.0960911660558
 31
0.0
  0
LINE
  5
703A
330
1E
100
AcDbEntity
  8
躯体と製品
  6
Continuous
 62
     4
100
AcDbLine
 10
1556.106014471431
 20
923.7103051209057
 30
0.0
 11
1556.906014078955
 21
924.5103047284294
 31
0.0
  0
LINE
  5
703B
330
1E
100
AcDbEntity
  8
躯体と製品
  6
Continuous
 62
     4
100
AcDbLine
 10
1556.106013259249
 20
925.1245174710968
 30
0.0
 11
1556.316355546761
 21
925.3348597586086
 31
0.0
  0
LINE
  5
703C
330
1E
100
AcDbEntity
  8
躯体と製品
  6
Continuous
 62
     7
100
AcDbLine
 10
1548.906013078955
 20
928.0348597586094
 30
0.0
 11
1549.406013078955
 21
927.5348597586093
 31
0.0
  0
LINE
  5
703D
330
1E
100
AcDbEntity
  8
躯体と製品
  6
Continuous
 62
     7
100
AcDbLine
 10
1548.906013078955
 20
931.0348597586093
 30
0.0
 11
1549.406013078955
 21
931.5348597586094
 31
0.0
  0
LINE
  5
703E
330
1E
100
AcDbEntity
  8
躯体と製品
  6
Continuous
 62
     7
100
AcDbLine
 10
1548.906013078955
 20
931.0348597586093
 30
0.0
 11
1548.906013078955
 21
928.0348597586094
 31
0.0
  0
LINE
  5
703F
330
1E
100
AcDbEntity
  8
躯体と製品
  6
Continuous
 62
     4
100
AcDbLine
 10
1549.406013078955
 20
931.5348597586094
 30
0.0
 11
1549.406013078955
 21
927.5348597586093
 31
0.0
  0
LINE
  5
7040
330
1E
100
AcDbEntity
  8
躯体と製品
  6
Continuous
 62
     7
100
AcDbLine
 10
1557.406013078955
 20
931.5348597586094
 30
0.0
 11
1554.406013078955
 21
931.5348597586094
 31
0.0
  0
LINE
  5
7041
330
1E
100
AcDbEntity
  8
躯体と製品
  6
Continuous
 62
     4
100
AcDbLine
 10
1557.406013078955
 20
931.0348597586093
 30
0.0
 11
1548.906013078955
 21
931.0348597586093
 31
0.0
  0
LINE
  5
7042
330
1E
100
AcDbEntity
  8
躯体と製品
  6
Continuous
 62
     4
100
AcDbLine
 10
1557.406013078955
 20
928.0348597586094
 30
0.0
 11
1548.906013078955
 21
928.0348597586094
 31
0.0
  0
LINE
  5
7043
330
1E
100
AcDbEntity
  8
躯体と製品
  6
Continuous
 62
     7
100
AcDbLine
 10
1557.406013078955
 20
927.5348597586093
 30
0.0
 11
1554.406013078955
 21
927.5348597586093
 31
0.0
  0
LINE
  5
7044
330
1E
100
AcDbEntity
  8
躯体と製品
  6
Continuous
 62
     3
100
AcDbLine
 10
1548.606013078955
 20
934.7225157586095
 30
0.0
 11
1548.618357078955
 21
934.7348597586094
 31
0.0
  0
ARC
  5
7045
330
1E
100
AcDbEntity
  8
躯体と製品
  6
Continuous
 62
     3
100
AcDbCircle
 10
1556.406013078955
 20
932.5348597586094
 30
0.0
 40
1.0
100
AcDbArc
 50
0.0
 51
90.0
  0
LINE
  5
7046
330
1E
100
AcDbEntity
  8
躯体と製品
  6
Continuous
 62
     3
100
AcDbLine
 10
1556.406013078955
 20
934.7348597586094
 30
0.0
 11
1548.606013078955
 21
934.7348597586094
 31
0.0
  0
ARC
  5
7047
330
1E
100
AcDbEntity
  8
躯体と製品
  6
Continuous
 62
     3
100
AcDbCircle
 10
1556.406013078955
 20
932.5348597586094
 30
0.0
 40
2.2
100
AcDbArc
 50
0.0
 51
90.0
  0
LINE
  5
7048
330
1E
100
AcDbEntity
  8
躯体と製品
  6
Continuous
 62
     3
100
AcDbLine
 10
1557.406013078955
 20
923.7348597586095
 30
0.0
 11
1557.406013078955
 21
932.5348597586094
 31
0.0
  0
ARC
  5
7049
330
1E
100
AcDbEntity
  8
躯体と製品
  6
Continuous
 62
     3
100
AcDbCircle
 10
1559.606013078955
 20
923.7348597586095
 30
0.0
 40
1.0
100
AcDbArc
 50
180.0
 51
270.0
  0
ARC
  5
704A
330
1E
100
AcDbEntity
  8
躯体と製品
  6
Continuous
 62
     3
100
AcDbCircle
 10
1576.406013078955
 20
920.5348597586093
 30
0.0
 40
1.0
100
AcDbArc
 50
0.0
 51
90.0
  0
ARC
  5
704B
330
1E
100
AcDbEntity
  8
躯体と製品
  6
Continuous
 62
     3
100
AcDbCircle
 10
1559.606013078955
 20
923.7348597586095
 30
0.0
 40
2.2
100
AcDbArc
 50
180.0
 51
270.0
  0
ARC
  5
704C
330
1E
100
AcDbEntity
  8
躯体と製品
  6
Continuous
 62
     3
100
AcDbCircle
 10
1576.406013078955
 20
920.5348597586093
 30
0.0
 40
2.2
100
AcDbArc
 50
0.0
 51
90.0
  0
LINE
  5
704D
330
1E
100
AcDbEntity
  8
躯体と製品
  6
Continuous
 62
     3
100
AcDbLine
 10
1548.606013078955
 20
933.5348597586094
 30
0.0
 11
1556.406013078955
 21
933.5348597586094
 31
0.0
  0
LINE
  5
704E
330
1E
100
AcDbEntity
  8
躯体と製品
  6
Continuous
 62
     3
100
AcDbLine
 10
1548.606013078955
 20
934.7348597586094
 30
0.0
 11
1548.606013078955
 21
933.5348597586094
 31
0.0
  0
LINE
  5
704F
330
1E
100
AcDbEntity
  8
躯体と製品
  6
Continuous
 62
     3
100
AcDbLine
 10
1559.606013078955
 20
921.5348597586094
 30
0.0
 11
1576.406013078955
 21
921.5348597586094
 31
0.0
  0
LINE
  5
7050
330
1E
100
AcDbEntity
  8
躯体と製品
  6
Continuous
 62
     3
100
AcDbLine
 10
1568.606013078955
 20
887.9348597586094
 30
0.0
 11
1568.606013078955
 21
886.7348597586094
 31
0.0
  0
ARC
  5
7051
330
1E
100
AcDbEntity
  8
躯体と製品
  6
Continuous
 62
     3
100
AcDbCircle
 10
1576.406013078955
 20
888.9348597586094
 30
0.0
 40
2.2
100
AcDbArc
 50
270.0
 51
0.0
  0
LINE
  5
7052
330
1E
100
AcDbEntity
  8
躯体と製品
  6
Continuous
 62
     3
100
AcDbLine
 10
1576.406013078955
 20
887.9348597586094
 30
0.0
 11
1568.606013078955
 21
887.9348597586094
 31
0.0
  0
ARC
  5
7053
330
1E
100
AcDbEntity
  8
躯体と製品
  6
Continuous
 62
     3
100
AcDbCircle
 10
1576.406013078955
 20
888.9348597586094
 30
0.0
 40
1.0
100
AcDbArc
 50
270.0
 51
0.0
  0
LINE
  5
7054
330
1E
100
AcDbEntity
  8
躯体と製品
  6
Continuous
 62
     3
100
AcDbLine
 10
1577.406013078955
 20
888.9348597586094
 30
0.0
 11
1577.406013078955
 21
920.5348597586093
 31
0.0
  0
LINE
  5
7055
330
1E
100
AcDbEntity
  8
躯体と製品
  6
DASHED1
 62
     4
100
AcDbLine
 10
1557.406013078955
 20
931.5348597586094
 30
0.0
 11
1558.606013078955
 21
931.5348597586094
 31
0.0
  0
LINE
  5
7056
330
1E
100
AcDbEntity
  8
躯体と製品
  6
DASHED1
 62
     4
100
AcDbLine
 10
1557.406013078955
 20
927.5348597586093
 30
0.0
 11
1558.606013078955
 21
927.5348597586093
 31
0.0
  0
POINT
  5
7057
330
1E
100
AcDbEntity
  8
躯体と製品
 62
     4
100
AcDbPoint
 10
1578.606013078955
 20
922.7348597586095
 30
0.0
  0
LINE
  5
7058
330
1E
100
AcDbEntity
  8
躯体と製品
  6
Continuous
 62
     7
100
AcDbLine
 10
1568.606013078955
 20
885.7348597586094
 30
0.0
 11
1577.606013078955
 21
885.7348597586094
 31
0.0
  0
ARC
  5
7059
330
1E
100
AcDbEntity
  8
躯体と製品
  6
Continuous
 62
     7
100
AcDbCircle
 10
1577.106013078955
 20
886.2348597586095
 30
0.0
 40
0.5
100
AcDbArc
 50
0.0
 51
90.0
  0
LINE
  5
705A
330
1E
100
AcDbEntity
  8
躯体と製品
  6
Continuous
 62
     7
100
AcDbLine
 10
1577.606013078955
 20
886.2348597586095
 30
0.0
 11
1577.606013078955
 21
885.7348597586094
 31
0.0
  0
LINE
  5
705B
330
1E
100
AcDbEntity
  8
躯体と製品
  6
Continuous
 62
     7
100
AcDbLine
 10
1568.906013078955
 20
886.7348597586094
 30
0.0
 11
1577.106013078955
 21
886.7348597586094
 31
0.0
  0
ARC
  5
705C
330
1E
100
AcDbEntity
  8
躯体と製品
  6
Continuous
 62
     7
100
AcDbCircle
 10
1568.606013078955
 20
886.7348597586094
 30
0.0
 40
1.0
100
AcDbArc
 50
180.0
 51
270.0
  0
ARC
  5
705D
330
1E
100
AcDbEntity
  8
躯体と製品
  6
Continuous
 62
     7
100
AcDbCircle
 10
1574.211286998346
 20
889.4745252286796
 30
0.0
 40
0.5
100
AcDbArc
 50
265.252681745971
 51
355.2526817422747
  0
ARC
  5
705E
330
1E
100
AcDbEntity
  8
躯体と製品
  6
Continuous
 62
     7
100
AcDbCircle
 10
1575.249237157021
 20
889.8900483544396
 30
0.0
 40
0.4999999999354556
100
AcDbArc
 50
355.2526817459748
 51
175.2526817459747
  0
LINE
  5
705F
330
1E
100
AcDbEntity
  8
躯体と製品
  6
Continuous
 62
     7
100
AcDbLine
 10
1575.664760282773
 20
888.8520981956679
 30
0.0
 11
1575.74752184572
 21
889.8486675729957
 31
0.0
  0
ARC
  5
7060
330
1E
100
AcDbEntity
  8
躯体と製品
  6
Continuous
 62
     7
100
AcDbCircle
 10
1574.66819090551
 20
888.9348597586094
 30
0.0
 40
1.0
100
AcDbArc
 50
265.252681745971
 51
355.2526817422747
  0
LINE
  5
7061
330
1E
100
AcDbEntity
  8
躯体と製品
  6
Continuous
 62
     7
100
AcDbLine
 10
1574.709571686978
 20
889.433144447209
 30
0.0
 11
1574.750952468451
 21
889.9314291358731
 31
0.0
  0
LINE
  5
7062
330
1E
100
AcDbEntity
  8
躯体と製品
  6
Continuous
 62
     7
100
AcDbLine
 10
1567.606013078955
 20
888.4348597586093
 30
0.0
 11
1567.606013078955
 21
886.7348597586094
 31
0.0
  0
LINE
  5
7063
330
1E
100
AcDbEntity
  8
躯体と製品
  6
Continuous
 62
     7
100
AcDbLine
 10
1568.688774641832
 20
889.4314291358785
 30
0.0
 11
1574.169906216907
 21
888.9762405400453
 31
0.0
  0
ARC
  5
7064
330
1E
100
AcDbEntity
  8
躯体と製品
  6
Continuous
 62
     7
100
AcDbCircle
 10
1568.606013078955
 20
888.4348597586093
 30
0.0
 40
1.0
100
AcDbArc
 50
85.25268174597099
 51
180.0
  0
LINE
  5
7065
330
1E
100
AcDbEntity
  8
躯体と製品
  6
Continuous
 62
     7
100
AcDbLine
 10
1568.606013078955
 20
888.1089130896949
 30
0.0
 11
1568.606013078955
 21
887.0348597586094
 31
0.0
  0
LINE
  5
7066
330
1E
100
AcDbEntity
  8
躯体と製品
  6
Continuous
 62
     7
100
AcDbLine
 10
1568.930841547818
 20
888.4078839028754
 30
0.0
 11
1574.585429342632
 21
887.9382903813406
 31
0.0
  0
ARC
  5
7067
330
1E
100
AcDbEntity
  8
躯体と製品
  6
Continuous
 62
     7
100
AcDbCircle
 10
1568.906013078955
 20
888.1089130896949
 30
0.0
 40
0.2999999999999999
100
AcDbArc
 50
85.25268174597099
 51
180.0
  0
ARC
  5
7068
330
1E
100
AcDbEntity
  8
躯体と製品
  6
Continuous
 62
     7
100
AcDbCircle
 10
1560.671732653609
 20
928.6143810352051
 30
0.0
 40
0.4204787234042585
100
AcDbArc
 50
345.9042107558272
 51
90.0
  0
ARC
  5
7069
330
1E
100
AcDbEntity
  8
躯体と製品
  6
Continuous
 62
     7
100
AcDbCircle
 10
1558.606013078955
 20
928.0562883300381
 30
0.0
 40
2.021428571428568
100
AcDbArc
 50
270.0
 51
317.2587554613163
  0
LINE
  5
706A
330
1E
100
AcDbEntity
  8
躯体と製品
  6
Continuous
 62
     7
100
AcDbLine
 10
1558.606013078955
 20
926.0348597586094
 30
0.0
 11
1558.606013078955
 21
933.0348597586093
 31
0.0
  0
ARC
  5
706B
330
1E
100
AcDbEntity
  8
躯体と製品
  6
Continuous
 62
     7
100
AcDbCircle
 10
1560.671732653609
 20
930.4553384820136
 30
0.0
 40
0.4204787234042585
100
AcDbArc
 50
270.0
 51
14.0957892441728
  0
LINE
  5
706C
330
1E
100
AcDbEntity
  8
躯体と製品
  6
Continuous
 62
     7
100
AcDbLine
 10
1560.671732653609
 20
930.0348597586094
 30
0.0
 11
1560.671732653609
 21
929.0348597586094
 31
0.0
  0
ARC
  5
706D
330
1E
100
AcDbEntity
  8
躯体と製品
  6
Continuous
 62
     7
100
AcDbCircle
 10
1557.006013078955
 20
929.5348597586094
 30
0.0
 40
4.2
100
AcDbArc
 50
317.2587554613163
 51
345.9042107558272
  0
ARC
  5
706E
330
1E
100
AcDbEntity
  8
躯体と製品
  6
Continuous
 62
     7
100
AcDbCircle
 10
1557.006013078955
 20
929.5348597586094
 30
0.0
 40
4.2
100
AcDbArc
 50
14.0957892441728
 51
42.74124453868362
  0
LINE
  5
706F
330
1E
100
AcDbEntity
  8
躯体と製品
  6
Continuous
 62
     7
100
AcDbLine
 10
1559.606013078955
 20
922.7348597586095
 30
0.0
 11
1561.606013078955
 21
922.7348597586095
 31
0.0
  0
ARC
  5
7070
330
1E
100
AcDbEntity
  8
躯体と製品
  6
Continuous
 62
     7
100
AcDbCircle
 10
1561.606013078955
 20
923.7348597586095
 30
0.0
 40
1.0
100
AcDbArc
 50
270.0
 51
0.0
  0
ARC
  5
7071
330
1E
100
AcDbEntity
  8
躯体と製品
  6
Continuous
 62
     7
100
AcDbCircle
 10
1559.606013078955
 20
923.7348597586095
 30
0.0
 40
1.0
100
AcDbArc
 50
180.0
 51
270.0
  0
LINE
  5
7072
330
1E
100
AcDbEntity
  8
躯体と製品
  6
Continuous
 62
     3
100
AcDbLine
 10
1558.606013078955
 20
932.5348597586094
 30
0.0
 11
1558.606013078955
 21
923.7348597586095
 31
0.0
  0
LINE
  5
7073
330
1E
100
AcDbEntity
  8
躯体と製品
  6
Continuous
 62
     3
100
AcDbLine
 10
1560.406013078955
 20
883.6141224288683
 30
0.0
 11
1560.406013078955
 21
894.6651578621539
 31
0.0
  0
ARC
  5
7074
330
1E
100
AcDbEntity
  8
躯体と製品
  6
Continuous
 62
     3
100
AcDbCircle
 10
1561.406013078955
 20
883.6141224288683
 30
0.0
 40
1.0
100
AcDbArc
 50
180.0
 51
266.9999999999944
  0
LINE
  5
7075
330
1E
100
AcDbEntity
  8
躯体と製品
  6
Continuous
 62
     3
100
AcDbLine
 10
1992.406013078955
 20
769.8677738740307
 30
0.0
 11
1985.406013078955
 21
769.8677738740307
 31
0.0
  0
ARC
  5
7076
330
1E
100
AcDbEntity
  8
躯体と製品
  6
Continuous
 62
     3
100
AcDbCircle
 10
1992.406013078955
 20
857.0208801738861
 30
0.0
 40
3.0
100
AcDbArc
 50
0.0
 51
86.99999999999441
  0
ARC
  5
7077
330
1E
100
AcDbEntity
  8
躯体と製品
  6
Continuous
 62
     3
100
AcDbCircle
 10
1992.406013078955
 20
772.8677738740308
 30
0.0
 40
3.0
100
AcDbArc
 50
270.0
 51
0.0
  0
LINE
  5
7078
330
1E
100
AcDbEntity
  8
躯体と製品
  6
Continuous
 62
     3
100
AcDbLine
 10
1995.406013078955
 20
857.0208801738861
 30
0.0
 11
1995.406013078955
 21
772.8677738740308
 31
0.0
  0
POINT
  5
7079
330
1E
100
AcDbEntity
  8
躯体と製品
 62
     4
100
AcDbPoint
 10
1995.406013078955
 20
859.867773874031
 30
0.0
  0
POINT
  5
707A
330
1E
100
AcDbEntity
  8
躯体と製品
 62
     4
100
AcDbPoint
 10
1995.406013078955
 20
769.8677738740307
 30
0.0
  0
LINE
  5
707B
330
1E
100
AcDbEntity
  8
躯体と製品
  6
Continuous
 62
     3
100
AcDbLine
 10
1561.353677122712
 20
882.6154928941138
 30
0.0
 11
1992.563020947684
 21
860.01676877815
 31
0.0
  0
ARC
  5
707C
330
1E
100
AcDbEntity
  8
躯体と製品
  6
Continuous
 62
     3
100
AcDbCircle
 10
1561.406013078955
 20
883.6141224288684
 30
0.0
 40
2.5
100
AcDbArc
 50
180.0
 51
266.9999999999944
  0
LINE
  5
707D
330
1E
100
AcDbEntity
  8
躯体と製品
  6
Continuous
 62
     3
100
AcDbLine
 10
1561.275173188348
 20
881.117548591982
 30
0.0
 11
1992.484517013319
 21
858.5188244760178
 31
0.0
  0
ARC
  5
707E
330
1E
100
AcDbEntity
  8
躯体と製品
  6
Continuous
 62
     3
100
AcDbCircle
 10
1992.406013078955
 20
857.0208801738861
 30
0.0
 40
1.5
100
AcDbArc
 50
0.0
 51
86.99999999999441
  0
LINE
  5
707F
330
1E
100
AcDbEntity
  8
躯体と製品
  6
Continuous
 62
     3
100
AcDbLine
 10
1993.906013078955
 20
772.8677738740308
 30
0.0
 11
1993.906013078955
 21
857.0208801738861
 31
0.0
  0
ARC
  5
7080
330
1E
100
AcDbEntity
  8
躯体と製品
  6
Continuous
 62
     3
100
AcDbCircle
 10
1992.406013078955
 20
772.8677738740308
 30
0.0
 40
1.5
100
AcDbArc
 50
270.0
 51
0.0
  0
LINE
  5
7081
330
1E
100
AcDbEntity
  8
躯体と製品
  6
Continuous
 62
     3
100
AcDbLine
 10
1985.406013078955
 20
769.8677738740307
 30
0.0
 11
1985.406013078955
 21
771.3677738740307
 31
0.0
  0
LINE
  5
7082
330
1E
100
AcDbEntity
  8
躯体と製品
  6
Continuous
 62
     3
100
AcDbLine
 10
1992.406013078955
 20
771.3677738740307
 30
0.0
 11
1985.406013078955
 21
771.3677738740307
 31
0.0
  0
LINE
  5
7083
330
1E
100
AcDbEntity
  8
躯体と製品
  6
Continuous
 62
     3
100
AcDbLine
 10
1558.906013078955
 20
894.6651578621539
 30
0.0
 11
1560.406013078955
 21
894.6651578621539
 31
0.0
  0
LINE
  5
7084
330
1E
100
AcDbEntity
  8
躯体と製品
  6
Continuous
 62
     3
100
AcDbLine
 10
1558.906013078955
 20
883.6141224288684
 30
0.0
 11
1558.906013078955
 21
894.6651578621539
 31
0.0
  0
LINE
  5
7086
330
1E
100
AcDbEntity
  8
躯体と製品
  6
Continuous
 62
     7
100
AcDbLine
 10
1576.572608372458
 20
877.5853366406439
 30
0.0
 11
1576.715316240794
 21
880.3083649827909
 31
0.0
  0
LINE
  5
7087
330
1E
100
AcDbEntity
  8
躯体と製品
  6
Continuous
 62
     7
100
AcDbLine
 10
1966.038126926742
 20
857.1743137058957
 30
0.0
 11
1966.180834795078
 21
859.897342048043
 31
0.0
  0
LINE
  5
7088
330
1E
100
AcDbEntity
  8
躯体と製品
  6
Continuous
 62
     7
100
AcDbLine
 10
1591.552051393776
 20
876.8002972969997
 30
0.0
 11
1591.694759262113
 21
879.5233256391465
 31
0.0
  0
LINE
  5
7089
330
1E
100
AcDbEntity
  8
躯体と製品
  6
Continuous
 62
     4
100
AcDbLine
 10
1580.097433836445
 20
877.4006083657162
 30
0.0
 11
1577.215912349759
 21
880.2821298524023
 31
0.0
  0
LINE
  5
708A
330
1E
100
AcDbEntity
  8
躯体と製品
  6
Continuous
 62
     4
100
AcDbLine
 10
1581.589862258138
 20
877.3223935063962
 30
0.0
 11
1578.708340771452
 21
880.2039149930823
 31
0.0
  0
LINE
  5
708B
330
1E
100
AcDbEntity
  8
躯体と製品
  6
Continuous
 62
     4
100
AcDbLine
 10
1583.082290679832
 20
877.2441786470764
 30
0.0
 11
1580.200769193145
 21
880.1257001337626
 31
0.0
  0
LINE
  5
708C
330
1E
100
AcDbEntity
  8
躯体と製品
  6
Continuous
 62
     4
100
AcDbLine
 10
1584.574719101524
 20
877.1659637877567
 30
0.0
 11
1581.693197614838
 21
880.0474852744427
 31
0.0
  0
LINE
  5
708D
330
1E
100
AcDbEntity
  8
躯体と製品
  6
Continuous
 62
     4
100
AcDbLine
 10
1586.067147523217
 20
877.0877489284369
 30
0.0
 11
1583.185626036531
 21
879.969270415123
 31
0.0
  0
LINE
  5
708E
330
1E
100
AcDbEntity
  8
躯体と製品
  6
Continuous
 62
     4
100
AcDbLine
 10
1587.559575944911
 20
877.0095340691169
 30
0.0
 11
1584.678054458225
 21
879.891055555803
 31
0.0
  0
LINE
  5
708F
330
1E
100
AcDbEntity
  8
躯体と製品
  6
Continuous
 62
     4
100
AcDbLine
 10
1589.052004366604
 20
876.9313192097973
 30
0.0
 11
1586.170482879918
 21
879.8128406964833
 31
0.0
  0
LINE
  5
7090
330
1E
100
AcDbEntity
  8
躯体と製品
  6
Continuous
 62
     4
100
AcDbLine
 10
1590.544432788295
 20
876.8531043504777
 30
0.0
 11
1587.662911301609
 21
879.7346258371636
 31
0.0
  0
LINE
  5
7091
330
1E
100
AcDbEntity
  8
躯体と製品
  6
Continuous
 62
     4
100
AcDbLine
 10
1591.574928684913
 20
877.2368220162324
 30
0.0
 11
1589.155339723302
 21
879.6564109778437
 31
0.0
  0
LINE
  5
7092
330
1E
100
AcDbEntity
  8
躯体と製品
  6
Continuous
 62
     7
100
AcDbLine
 10
1951.058683905423
 20
857.9593530495399
 30
0.0
 11
1951.20139177376
 21
860.6823813916872
 31
0.0
  0
LINE
  5
7093
330
1E
100
AcDbEntity
  8
躯体と製品
  6
Continuous
 62
     4
100
AcDbLine
 10
1954.583509369411
 20
857.7746247746125
 30
0.0
 11
1951.701987882725
 21
860.6561462612985
 31
0.0
  0
LINE
  5
7094
330
1E
100
AcDbEntity
  8
躯体と製品
  6
Continuous
 62
     4
100
AcDbLine
 10
1956.075937791104
 20
857.6964099152922
 30
0.0
 11
1953.194416304418
 21
860.5779314019784
 31
0.0
  0
LINE
  5
7095
330
1E
100
AcDbEntity
  8
躯体と製品
  6
Continuous
 62
     4
100
AcDbLine
 10
1957.568366212797
 20
857.6181950559726
 30
0.0
 11
1954.686844726111
 21
860.4997165426588
 31
0.0
  0
LINE
  5
7096
330
1E
100
AcDbEntity
  8
躯体と製品
  6
Continuous
 62
     4
100
AcDbLine
 10
1959.06079463449
 20
857.5399801966529
 30
0.0
 11
1956.179273147804
 21
860.4215016833389
 31
0.0
  0
LINE
  5
7097
330
1E
100
AcDbEntity
  8
躯体と製品
  6
Continuous
 62
     4
100
AcDbLine
 10
1960.553223056183
 20
857.4617653373332
 30
0.0
 11
1957.671701569497
 21
860.3432868240192
 31
0.0
  0
LINE
  5
7098
330
1E
100
AcDbEntity
  8
躯体と製品
  6
Continuous
 62
     4
100
AcDbLine
 10
1962.045651477876
 20
857.3835504780131
 30
0.0
 11
1959.16412999119
 21
860.2650719646993
 31
0.0
  0
LINE
  5
7099
330
1E
100
AcDbEntity
  8
躯体と製品
  6
Continuous
 62
     4
100
AcDbLine
 10
1963.53807989957
 20
857.3053356186933
 30
0.0
 11
1960.656558412884
 21
860.1868571053794
 31
0.0
  0
LINE
  5
709A
330
1E
100
AcDbEntity
  8
躯体と製品
  6
Continuous
 62
     4
100
AcDbLine
 10
1965.030508321261
 20
857.2271207593738
 30
0.0
 11
1962.148986834575
 21
860.1086422460598
 31
0.0
  0
LINE
  5
709B
330
1E
100
AcDbEntity
  8
躯体と製品
  6
Continuous
 62
     4
100
AcDbLine
 10
1966.061004217879
 20
857.6108384251284
 30
0.0
 11
1963.641415256267
 21
860.0304273867397
 31
0.0
  0
LINE
  5
709C
330
1E
100
AcDbEntity
  8
躯体と製品
  6
Continuous
 62
     4
100
AcDbLine
 10
1953.091080947717
 20
857.8528396339326
 30
0.0
 11
1951.154589015609
 21
859.7893315660408
 31
0.0
  0
LINE
  5
709D
330
1E
100
AcDbEntity
  8
躯体と製品
  6
Continuous
 62
     4
100
AcDbLine
 10
1966.131429193534
 20
858.9546270118459
 30
0.0
 11
1965.13384367796
 21
859.9522125274202
 31
0.0
  0
LINE
  5
709E
330
1E
100
AcDbEntity
  8
躯体と製品
  6
Continuous
 62
     4
100
AcDbLine
 10
1578.605005414751
 20
877.4788232250363
 30
0.0
 11
1576.668513482643
 21
879.4153151571448
 31
0.0
  0
LINE
  5
709F
330
1E
100
AcDbEntity
  8
躯体と製品
  6
Continuous
 62
     4
100
AcDbLine
 10
1591.645353660569
 20
878.5806106029498
 30
0.0
 11
1590.647768144995
 21
879.5781961185237
 31
0.0
  0
ARC
  5
70A0
330
1E
100
AcDbEntity
  8
躯体と製品
  6
DASHED1
 62
     7
100
AcDbCircle
 10
1556.406013078955
 20
884.3768474982816
 30
0.0
 40
7.5
100
AcDbArc
 50
180.0
 51
266.9999999999944
  0
ARC
  5
70A1
330
1E
100
AcDbEntity
  8
躯体と製品
  6
DASHED1
 62
     7
100
AcDbCircle
 10
1556.406013078955
 20
884.3768474982821
 30
0.0
 40
3.0
100
AcDbArc
 50
180.0
 51
266.9999999999944
  0
LINE
  5
70A2
330
1E
100
AcDbEntity
  8
躯体と製品
  6
DASHED1
 62
     7
100
AcDbLine
 10
1548.906013078955
 20
884.3768474982816
 30
0.0
 11
1548.906013078955
 21
896.5299537981373
 31
0.0
  0
LINE
  5
70A3
330
1E
100
AcDbEntity
  8
躯体と製品
  6
DASHED1
 62
     7
100
AcDbLine
 10
1553.406013078955
 20
896.5299537981373
 30
0.0
 11
1548.906013078955
 21
896.5299537981373
 31
0.0
  0
LINE
  5
70A4
330
1E
100
AcDbEntity
  8
躯体と製品
  6
DASHED1
 62
     7
100
AcDbLine
 10
1553.406013078955
 20
884.3768474982821
 30
0.0
 11
1553.406013078955
 21
896.5299537981373
 31
0.0
  0
ARC
  5
70A5
330
1E
100
AcDbEntity
  8
躯体と製品
  6
DASHED1
 62
     7
100
AcDbCircle
 10
1972.069192713226
 20
852.0784536909445
 30
0.0
 40
3.0
100
AcDbArc
 50
10.12467165539644
 51
86.99999999999441
  0
LINE
  5
70A6
330
1E
100
AcDbEntity
  8
躯体と製品
  6
DASHED1
 62
     7
100
AcDbLine
 10
1975.022475439751
 20
852.6058256063953
 30
0.0
 11
1988.976088989167
 21
774.4655897296689
 31
0.0
  0
LINE
  5
70A7
330
1E
100
AcDbEntity
  8
躯体と製品
  6
DASHED1
 62
     7
100
AcDbLine
 10
1993.406013078955
 20
775.2566476028454
 30
0.0
 11
1988.97608898923
 21
774.4655897293132
 31
0.0
  0
LINE
  5
70A8
330
1E
100
AcDbEntity
  8
躯体と製品
  6
DASHED1
 62
     7
100
AcDbLine
 10
1979.452399529539
 20
853.3968834795718
 30
0.0
 11
1993.406013078955
 21
775.2566476028454
 31
0.0
  0
ARC
  5
70A9
330
1E
100
AcDbEntity
  8
躯体と製品
  6
DASHED1
 62
     7
100
AcDbCircle
 10
1972.069192713226
 20
852.0784536909445
 30
0.0
 40
7.5
100
AcDbArc
 50
10.12467165539644
 51
86.99999999999441
  0
LINE
  5
70AA
330
1E
100
AcDbEntity
  8
躯体と製品
  6
DASHED1
 62
     7
100
AcDbLine
 10
1966.180834795078
 20
859.897342048043
 30
0.0
 11
1972.461712385048
 21
859.5681752016037
 31
0.0
  0
LINE
  5
70AB
330
1E
100
AcDbEntity
  8
躯体と製品
  6
DASHED1
 62
     7
100
AcDbLine
 10
1965.945322991985
 20
855.4035091416469
 30
0.0
 11
1972.226200581955
 21
855.0743422952081
 31
0.0
  0
LINE
  5
70AC
330
1E
100
AcDbEntity
  8
躯体と製品
  6
DASHED1
 62
     7
100
AcDbLine
 10
1556.013493407133
 20
876.8871259876222
 30
0.0
 11
1576.479804437701
 21
875.8145320763944
 31
0.0
  0
LINE
  5
70AD
330
1E
100
AcDbEntity
  8
躯体と製品
  6
DASHED1
 62
     7
100
AcDbLine
 10
1556.249005210226
 20
881.3809588940184
 30
0.0
 11
1576.715316240794
 21
880.3083649827904
 31
0.0
  0
LINE
  5
70AE
330
1E
100
AcDbEntity
  8
躯体と製品
  6
Continuous
 62
     7
100
AcDbLine
 10
1577.606013078955
 20
885.7348597586094
 30
0.0
 11
1576.157015668634
 21
883.6976051096064
 31
0.0
  0
LINE
  5
70AF
330
1E
100
AcDbEntity
  8
躯体と製品
  6
Continuous
 62
     7
100
AcDbLine
 10
1576.62509543449
 20
885.73597844144
 30
0.0
 11
1575.505094180953
 21
884.1612842809093
 31
0.0
  0
LINE
  5
70B0
330
1E
100
AcDbEntity
  8
躯体と製品
  6
Continuous
 62
     7
100
AcDbLine
 10
1569.73084417767
 20
884.8391896591158
 30
0.0
 11
1568.557509691998
 21
885.6878533342433
 31
0.0
  0
ARC
  5
70B1
330
1E
100
AcDbEntity
  8
躯体と製品
  6
Continuous
 62
     7
100
AcDbCircle
 10
1572.897408230229
 20
886.0160009661202
 30
0.0
 40
3.2
100
AcDbArc
 50
210.5960053709603
 51
324.5776591452897
  0
ARC
  5
70B2
330
1E
100
AcDbEntity
  8
躯体と製品
  6
Continuous
 62
     7
100
AcDbCircle
 10
1568.851753909782
 20
883.6237883669884
 30
0.0
 40
1.5
100
AcDbArc
 50
30.59600537096697
 51
54.12207787282607
  0
ARC
  5
70B3
330
1E
100
AcDbEntity
  8
躯体と製品
  6
Continuous
 62
     7
100
AcDbCircle
 10
1568.851753909782
 20
883.6237883669884
 30
0.0
 40
0.6999999999999999
100
AcDbArc
 50
30.59600537096697
 51
54.12207787282607
  0
ARC
  5
70B4
330
1E
100
AcDbEntity
  8
躯体と製品
  6
Continuous
 62
     7
100
AcDbCircle
 10
1568.323085620564
 20
885.3637463230075
 30
0.0
 40
0.4
100
AcDbArc
 50
54.12207787282607
 51
234.1220778728261
  0
ARC
  5
70DA
330
1E
100
AcDbEntity
  8
躯体と製品
  6
Continuous
 62
     7
100
AcDbCircle
 10
1854.406013078955
 20
805.0316540286914
 30
0.0
 40
9.25
100
AcDbArc
 50
90.0
 51
108.9246444160544
  0
ARC
  5
70DB
330
1E
100
AcDbEntity
  8
躯体と製品
  6
Continuous
 62
     7
100
AcDbCircle
 10
1884.406013078955
 20
805.0316540286914
 30
0.0
 40
9.25
100
AcDbArc
 50
71.07535558394559
 51
90.0
  0
ARC
  5
70DC
330
1E
100
AcDbEntity
  8
躯体と製品
  6
Continuous
 62
     7
100
AcDbCircle
 10
1890.406013078955
 20
822.5316540286915
 30
0.0
 40
9.25
100
AcDbArc
 50
251.0753555839456
 51
270.0
  0
LINE
  5
70DD
330
1E
100
AcDbEntity
  8
躯体と製品
  6
Continuous
 62
     7
100
AcDbLine
 10
1869.406013078955
 20
813.2816540286915
 30
0.0
 11
1869.406013078955
 21
814.2816540286915
 31
0.0
  0
ARC
  5
70DE
330
1E
100
AcDbEntity
  8
躯体と製品
  6
Continuous
 62
     7
100
AcDbCircle
 10
1884.406013078955
 20
805.0316540286914
 30
0.0
 40
8.25
100
AcDbArc
 50
71.07535558394559
 51
90.0
  0
ARC
  5
70DF
330
1E
100
AcDbEntity
  8
躯体と製品
  6
Continuous
 62
     7
100
AcDbCircle
 10
1890.406013078955
 20
822.5316540286915
 30
0.0
 40
10.25
100
AcDbArc
 50
251.0753555839456
 51
270.0
  0
ARC
  5
70E0
330
1E
100
AcDbEntity
  8
躯体と製品
  6
Continuous
 62
     7
100
AcDbCircle
 10
1854.406013078955
 20
805.0316540286914
 30
0.0
 40
8.25
100
AcDbArc
 50
90.0
 51
108.9246444160544
  0
ARC
  5
70E1
330
1E
100
AcDbEntity
  8
躯体と製品
  6
Continuous
 62
     7
100
AcDbCircle
 10
1848.406013078955
 20
822.5316540286915
 30
0.0
 40
10.25
100
AcDbArc
 50
270.0
 51
288.9246444160544
  0
LINE
  5
70E2
330
1E
100
AcDbEntity
  8
躯体と製品
  6
Continuous
 62
     7
100
AcDbLine
 10
1884.406013078955
 20
814.2816540286915
 30
0.0
 11
1854.406013078955
 21
814.2816540286915
 31
0.0
  0
ARC
  5
70E3
330
1E
100
AcDbEntity
  8
躯体と製品
  6
Continuous
 62
     7
100
AcDbCircle
 10
1848.406013078955
 20
822.5316540286915
 30
0.0
 40
9.25
100
AcDbArc
 50
270.0
 51
288.9246444160544
  0
LINE
  5
70E4
330
1E
100
AcDbEntity
  8
躯体と製品
  6
Continuous
 62
     7
100
AcDbLine
 10
1919.417287581357
 20
813.2816540286915
 30
0.0
 11
1890.406013078955
 21
813.2816540286915
 31
0.0
  0
ARC
  5
70E5
330
1E
100
AcDbEntity
  8
躯体と製品
  6
Continuous
 62
     7
100
AcDbCircle
 10
1919.378700935489
 20
811.282026295647
 30
0.0
 40
2.0
100
AcDbArc
 50
4.999999999999459
 51
88.8945054323914
  0
LINE
  5
70E6
330
1E
100
AcDbEntity
  8
躯体と製品
  6
Continuous
 62
     7
100
AcDbLine
 10
1744.406013078955
 20
813.2816540286915
 30
0.0
 11
1848.406013078955
 21
813.2816540286915
 31
0.0
  0
ARC
  5
70E7
330
1E
100
AcDbEntity
  8
躯体と製品
  6
Continuous
 62
     7
100
AcDbCircle
 10
1744.406013078955
 20
811.2816540286914
 30
0.0
 40
2.0
100
AcDbArc
 50
90.0
 51
175.0000000000005
  0
LINE
  5
70E8
330
1E
100
AcDbEntity
  8
躯体と製品
  6
Continuous
 62
     7
100
AcDbLine
 10
1545.406013078955
 20
881.5348597586094
 30
0.0
 11
1544.406013078955
 21
881.5348597586094
 31
0.0
  0
LINE
  5
70E9
330
1E
100
AcDbEntity
  8
躯体と製品
  6
Continuous
 62
     7
100
AcDbLine
 10
1545.406013078955
 20
876.5348597586093
 30
0.0
 11
1544.406013078955
 21
876.5348597586093
 31
0.0
  0
TEXT
  5
70EA
330
1E
100
AcDbEntity
  8
図枠
 62
     7
100
AcDbText
 10
1956.406013078955
 20
664.9020429928434
 30
0.0
 40
5.0
  1
（単位：mm）
100
AcDbText
  0
LINE
  5
70EB
330
1E
100
AcDbEntity
  8
図枠
  6
Continuous
 62
     4
100
AcDbLine
 10
1628.606013078955
 20
884.0978090450398
 30
0.0
 11
1678.606013078955
 21
884.0978090450398
 31
0.0
  0
LINE
  5
70EC
330
1E
100
AcDbEntity
  8
図枠
  6
Continuous
 62
     4
100
AcDbLine
 10
1678.606013078955
 20
881.4774200808878
 30
0.0
 11
1678.606013078955
 21
884.0978090450398
 31
0.0
  0
LINE
  5
70ED
330
1E
100
AcDbEntity
  8
図枠
  6
Continuous
 62
     4
100
AcDbLine
 10
1628.606013078955
 20
884.0978090450398
 30
0.0
 11
1678.606013078955
 21
881.4774200808878
 31
0.0
  0
TEXT
  5
70EE
330
1E
100
AcDbEntity
  8
図枠
 62
     7
100
AcDbText
 10
1640.106013078955
 20
884.0820860804361
 30
0.0
 40
5.0
  1
勾配３度
100
AcDbText
  0
LINE
  5
70EF
330
1E
100
AcDbEntity
  8
躯体と製品
  6
CENTER1
 62
     4
100
AcDbLine
 10
1871.130652940692
 20
865.1132573954928
 30
0.0
 11
1868.77798160404
 21
820.2216140395233
 31
0.0
  0
LINE
  5
70F0
330
1E
100
AcDbEntity
  8
躯体と製品
  6
CENTER1
 62
     4
100
AcDbLine
 10
1869.406013078955
 20
837.205168456578
 30
0.0
 11
1869.406013078955
 21
748.2816540286915
 31
0.0
  0
LINE
  5
70F1
330
1E
100
AcDbEntity
  8
躯体と製品
  6
CENTER1
 62
     4
100
AcDbLine
 10
1559.106015078955
 20
879.0348597586094
 30
0.0
 11
1485.406013078955
 21
879.0348597586094
 31
0.0
  0
LINE
  5
70F2
330
1E
100
AcDbEntity
  8
躯体と製品
  6
CENTER1
 62
     4
100
AcDbLine
 10
1547.283290396389
 20
929.5348597586094
 30
0.0
 11
1564.151324078955
 21
929.5348597586094
 31
0.0
  0
ARC
  5
70F3
330
1E
100
AcDbEntity
  8
躯体と製品
  6
Continuous
 62
     7
100
AcDbCircle
 10
1550.277304078955
 20
877.5320967586095
 30
0.0
 40
3.0
100
AcDbArc
 50
272.4589259999963
 51
321.3853620000019
  0
ARC
  5
70F4
330
1E
100
AcDbEntity
  8
躯体と製品
  6
Continuous
 62
     7
100
AcDbCircle
 10
1548.406015078955
 20
879.0348597586094
 30
0.0
 40
5.4
100
AcDbArc
 50
321.3178130000017
 51
0.0
  0
ARC
  5
70F5
330
1E
100
AcDbEntity
  8
躯体と製品
  6
Continuous
 62
     7
100
AcDbCircle
 10
1548.406015078955
 20
879.0348597586094
 30
0.0
 40
5.4
100
AcDbArc
 50
0.0
 51
38.85106200000375
  0
ARC
  5
70F6
330
1E
100
AcDbEntity
  8
躯体と製品
  6
Continuous
 62
     7
100
AcDbCircle
 10
1550.277304078955
 20
880.5376197586095
 30
0.0
 40
3.0
100
AcDbArc
 50
38.61463799999811
 51
87.54107400000371
  0
LINE
  5
70F7
330
1E
100
AcDbEntity
  8
躯体と製品
  6
Continuous
 62
     7
100
AcDbLine
 10
1550.406013078955
 20
870.0348597586094
 30
0.0
 11
1550.406013078955
 21
888.0348597586094
 31
0.0
  0
LINE
  5
70F8
330
1E
100
AcDbEntity
  8
躯体と製品
  6
Continuous
 62
     7
100
AcDbLine
 10
1550.406013078955
 20
888.0348597586094
 30
0.0
 11
1548.906013078955
 21
888.0348597586094
 31
0.0
  0
LINE
  5
70F9
330
1E
100
AcDbEntity
  8
躯体と製品
  6
Continuous
 62
     7
100
AcDbLine
 10
1550.406013078955
 20
870.0348597586094
 30
0.0
 11
1548.906013078955
 21
870.0348597586094
 31
0.0
  0
LINE
  5
70FA
330
1E
100
AcDbEntity
  8
躯体と製品
  6
Continuous
 62
     7
100
AcDbLine
 10
1860.406013078955
 20
818.2816540286912
 30
0.0
 11
1878.406013078955
 21
818.2816540286912
 31
0.0
  0
LINE
  5
70FB
330
1E
100
AcDbEntity
  8
躯体と製品
  6
Continuous
 62
     7
100
AcDbLine
 10
1878.406013078955
 20
818.2816540286912
 30
0.0
 11
1878.406013078955
 21
816.7816540286915
 31
0.0
  0
LINE
  5
70FC
330
1E
100
AcDbEntity
  8
躯体と製品
  6
Continuous
 62
     7
100
AcDbLine
 10
1860.406013078955
 20
818.2816540286912
 30
0.0
 11
1860.406013078955
 21
816.7816540286915
 31
0.0
  0
ARC
  5
70FD
330
1E
100
AcDbEntity
  8
躯体と製品
  6
Continuous
 62
     7
100
AcDbCircle
 10
1869.406013078955
 20
813.6705009891356
 30
0.0
 40
9.553418012635715
100
AcDbArc
 50
72.41204622604974
 51
107.5879537739502
  0
ARC
  5
70FE
330
1E
100
AcDbEntity
  8
躯体と製品
  6
Continuous
 62
     7
100
AcDbCircle
 10
1865.075886060033
 20
820.6680962533432
 30
0.0
 40
2.555822748428199
100
AcDbArc
 50
55.61575253203897
 51
124.384247467961
  0
ARC
  5
70FF
330
1E
100
AcDbEntity
  8
躯体と製品
  6
Continuous
 62
     7
100
AcDbCircle
 10
1873.736140097877
 20
820.6680962533432
 30
0.0
 40
2.555822748428199
100
AcDbArc
 50
55.61575253203897
 51
124.384247467961
  0
LINE
  5
7100
330
1E
100
AcDbEntity
  8
躯体と製品
  6
Continuous
 62
     7
100
AcDbLine
 10
1863.632510387059
 20
822.7773370143873
 30
0.0
 11
1863.632510387059
 21
818.2816540286912
 31
0.0
  0
LINE
  5
7101
330
1E
100
AcDbEntity
  8
躯体と製品
  6
Continuous
 62
     7
100
AcDbLine
 10
1864.506013078955
 20
823.2816540286915
 30
0.0
 11
1863.632510387059
 21
822.7773370143873
 31
0.0
  0
LINE
  5
7102
330
1E
100
AcDbEntity
  8
躯体と製品
  6
Continuous
 62
     7
100
AcDbLine
 10
1864.506013078955
 20
823.2816540286915
 30
0.0
 11
1874.306013078955
 21
823.2816540286915
 31
0.0
  0
LINE
  5
7103
330
1E
100
AcDbEntity
  8
躯体と製品
  6
Continuous
 62
     7
100
AcDbLine
 10
1874.306013078955
 20
823.2816540286915
 30
0.0
 11
1875.179515770851
 21
822.7773370143873
 31
0.0
  0
LINE
  5
7104
330
1E
100
AcDbEntity
  8
躯体と製品
  6
Continuous
 62
     7
100
AcDbLine
 10
1866.519261733007
 20
822.7773370143873
 30
0.0
 11
1866.519261733007
 21
818.2816540286912
 31
0.0
  0
LINE
  5
7105
330
1E
100
AcDbEntity
  8
躯体と製品
  6
Continuous
 62
     7
100
AcDbLine
 10
1872.292764424903
 20
822.7773370143873
 30
0.0
 11
1872.292764424903
 21
818.2816540286912
 31
0.0
  0
LINE
  5
7106
330
1E
100
AcDbEntity
  8
躯体と製品
  6
Continuous
 62
     7
100
AcDbLine
 10
1875.179515770851
 20
822.7773370143873
 30
0.0
 11
1875.179515770851
 21
818.2816540286912
 31
0.0
  0
LINE
  5
7107
330
1E
100
AcDbEntity
  8
躯体と製品
  6
Continuous
 62
     7
100
AcDbLine
 10
1866.365974523021
 20
823.2816540286915
 30
0.0
 11
1865.957981587322
 21
823.7347760890402
 31
0.0
  0
LINE
  5
7108
330
1E
100
AcDbEntity
  8
躯体と製品
  6
Continuous
 62
     4
100
AcDbLine
 10
1866.789435922725
 20
828.7373570090661
 30
0.0
 11
1866.503514645095
 21
823.2816540286915
 31
0.0
  0
LINE
  5
7109
330
1E
100
AcDbEntity
  8
躯体と製品
  6
Continuous
 62
     4
100
AcDbLine
 10
1871.645771350236
 20
828.4828472538571
 30
0.0
 11
1871.373188363683
 21
823.2816540286915
 31
0.0
  0
LINE
  5
710A
330
1E
100
AcDbEntity
  8
躯体と製品
  6
Continuous
 62
     7
100
AcDbLine
 10
1871.94975879585
 20
823.4207603515823
 30
0.0
 11
1871.795265572755
 21
823.2816540286915
 31
0.0
  0
TEXT
  5
710B
330
1E
100
AcDbEntity
  8
図枠
 62
     7
100
AcDbText
 10
1977.406013078955
 20
621.4020429928434
 30
0.0
 40
5.0
  1
124
100
AcDbText
  0
TEXT
  5
710C
330
1E
100
AcDbEntity
  8
図枠
 62
     7
100
AcDbText
 10
1782.156013078955
 20
648.4020429928435
 30
0.0
 40
5.0
  1
200ＦＹＫ－Ｓ375
100
AcDbText
  0
TEXT
  5
710D
330
1E
100
AcDbEntity
  8
図枠
 62
     7
100
AcDbText
 10
1782.156013078955
 20
639.4020429928434
 30
0.0
 40
5.0
  1
　　  〃　 　400
100
AcDbText
  0
TEXT
  5
710E
330
1E
100
AcDbEntity
  8
図枠
 62
     7
100
AcDbText
 10
1494.406013078955
 20
612.4020429928434
 30
0.0
 40
5.0
  1
止水補助板ホルダーＡＬ
100
AcDbText
  0
CIRCLE
  5
710F
330
1E
100
AcDbEntity
  8
図枠
  6
Continuous
 62
     4
100
AcDbCircle
 10
1551.376425544959
 20
911.772246730786
 30
0.0
 40
0.9
  0
CIRCLE
  5
7110
330
1E
100
AcDbEntity
  8
図枠
  6
Continuous
 62
     4
100
AcDbCircle
 10
1576.623712217095
 20
903.4945524947712
 30
0.0
 40
0.9
  0
CIRCLE
  5
7111
330
1E
100
AcDbEntity
  8
図枠
  6
Continuous
 62
     4
100
AcDbCircle
 10
1576.126907327541
 20
884.4363262857251
 30
0.0
 40
0.9
  0
CIRCLE
  5
7112
330
1E
100
AcDbEntity
  8
図枠
  6
Continuous
 62
     4
100
AcDbCircle
 10
1555.547922852361
 20
930.2910891486781
 30
0.0
 40
0.9
  0
CIRCLE
  5
7113
330
1E
100
AcDbEntity
  8
図枠
  6
Continuous
 62
     4
100
AcDbCircle
 10
1603.018515024371
 20
837.858695457605
 30
0.0
 40
6.0
  0
TEXT
  5
7114
330
1E
100
AcDbEntity
  8
図枠
 62
     7
100
AcDbText
 10
1599.768515024371
 20
834.8586954576051
 30
0.0
 40
5.0
  1
13
100
AcDbText
  0
LINE
  5
7115
330
1E
100
AcDbEntity
  8
図枠
  6
Continuous
 62
     4
100
AcDbLine
 10
1576.126907327541
 20
884.4363262857251
 30
0.0
 11
1600.018515024371
 21
843.0548478803116
 31
0.0
  0
TEXT
  5
7116
330
1E
100
AcDbEntity
  8
図枠
 62
     7
100
AcDbText
 10
1597.842568603371
 20
942.8758549589085
 30
0.0
 40
5.0
  1
10
100
AcDbText
  0
CIRCLE
  5
7117
330
1E
100
AcDbEntity
  8
図枠
  6
Continuous
 62
     4
100
AcDbCircle
 10
1601.092568603371
 20
945.8758549589084
 30
0.0
 40
6.0
  0
LINE
  5
7118
330
1E
100
AcDbEntity
  8
図枠
  6
Continuous
 62
     4
100
AcDbLine
 10
1576.623712217095
 20
903.4945524947712
 30
0.0
 11
1598.092568603371
 21
940.6797025362019
 31
0.0
  0
CIRCLE
  5
7119
330
1E
100
AcDbEntity
  8
図枠
  6
Continuous
 62
     4
100
AcDbCircle
 10
1532.73790663461
 20
969.799196159294
 30
0.0
 40
6.0
  0
TEXT
  5
711A
330
1E
100
AcDbEntity
  8
図枠
 62
     7
100
AcDbText
 10
1529.48790663461
 20
966.7991961592941
 30
0.0
 40
5.0
  1
15
100
AcDbText
  0
LINE
  5
711B
330
1E
100
AcDbEntity
  8
図枠
  6
Continuous
 62
     4
100
AcDbLine
 10
1555.547922852361
 20
930.2910891486781
 30
0.0
 11
1535.73790663461
 21
964.6030437365872
 31
0.0
  0
CIRCLE
  5
711C
330
1E
100
AcDbEntity
  8
図枠
  6
Continuous
 62
     4
100
AcDbCircle
 10
1530.257310302286
 20
948.3516273419983
 30
0.0
 40
6.0
  0
TEXT
  5
711D
330
1E
100
AcDbEntity
  8
図枠
 62
     7
100
AcDbText
 10
1527.257310302286
 20
945.3516273419984
 30
0.0
 40
5.0
  1
４
100
AcDbText
  0
LINE
  5
711E
330
1E
100
AcDbEntity
  8
図枠
  6
Continuous
 62
     4
100
AcDbLine
 10
1551.376425544959
 20
911.772246730786
 30
0.0
 11
1533.257310302286
 21
943.1554749192914
 31
0.0
  0
CIRCLE
  5
711F
330
1E
100
AcDbEntity
  8
図枠
  6
Continuous
 62
     4
100
AcDbCircle
 10
1551.769016923198
 20
880.9540941631425
 30
0.0
 40
0.9
  0
CIRCLE
  5
7120
330
1E
100
AcDbEntity
  8
図枠
  6
Continuous
 62
     4
100
AcDbCircle
 10
1512.472373436112
 20
881.9364315794109
 30
0.0
 40
0.9
  0
TEXT
  5
7121
330
1E
100
AcDbEntity
  8
図枠
 62
     7
100
AcDbText
 10
1496.724249329026
 20
900.5838175321857
 30
0.0
 40
5.0
  1
18
100
AcDbText
  0
LINE
  5
7122
330
1E
100
AcDbEntity
  8
図枠
  6
Continuous
 62
     4
100
AcDbLine
 10
1512.472373436112
 20
881.9364315794109
 30
0.0
 11
1502.974249329026
 21
898.387665109479
 31
0.0
  0
CIRCLE
  5
7123
330
1E
100
AcDbEntity
  8
図枠
  6
Continuous
 62
     4
100
AcDbCircle
 10
1499.974249329026
 20
903.5838175321858
 30
0.0
 40
6.0
  0
CIRCLE
  5
7124
330
1E
100
AcDbEntity
  8
図枠
  6
Continuous
 62
     4
100
AcDbCircle
 10
1528.040553341376
 20
904.6825577449649
 30
0.0
 40
6.0
  0
LINE
  5
7125
330
1E
100
AcDbEntity
  8
図枠
  6
Continuous
 62
     4
100
AcDbLine
 10
1551.769016923198
 20
880.9540941631425
 30
0.0
 11
1532.283194028495
 21
900.4399170578455
 31
0.0
  0
TEXT
  5
7126
330
1E
100
AcDbEntity
  8
図枠
 62
     7
100
AcDbText
 10
1524.790553341376
 20
901.6825577449649
 30
0.0
 40
5.0
  1
19
100
AcDbText
  0
CIRCLE
  5
7127
330
1E
100
AcDbEntity
  8
図枠
  6
Continuous
 62
     4
100
AcDbCircle
 10
1549.689815966804
 20
872.4185315304216
 30
0.0
 40
0.9
  0
LINE
  5
7128
330
1E
100
AcDbEntity
  8
図枠
  6
Continuous
 62
     4
100
AcDbLine
 10
1549.689815966804
 20
872.4185315304216
 30
0.0
 11
1534.460165891817
 21
863.6256889599641
 31
0.0
  0
TEXT
  5
7129
330
1E
100
AcDbEntity
  8
図枠
 62
     7
100
AcDbText
 10
1526.014013469111
 20
857.625688959964
 30
0.0
 40
5.0
  1
21
100
AcDbText
  0
CIRCLE
  5
712A
330
1E
100
AcDbEntity
  8
図枠
  6
Continuous
 62
     4
100
AcDbCircle
 10
1529.264013469111
 20
860.6256889599642
 30
0.0
 40
6.0
  0
CIRCLE
  5
712B
330
1E
100
AcDbEntity
  8
図枠
  6
Continuous
 62
     4
100
AcDbCircle
 10
1558.713394546278
 20
744.2841852004709
 30
0.0
 40
0.9
  0
LINE
  5
712C
330
1E
100
AcDbEntity
  8
図枠
  6
Continuous
 62
     4
100
AcDbLine
 10
1558.713394546278
 20
744.2841852004709
 30
0.0
 11
1572.5966817327
 21
768.3307439834232
 31
0.0
  0
TEXT
  5
712D
330
1E
100
AcDbEntity
  8
図枠
 62
     7
100
AcDbText
 10
1572.3466817327
 20
770.5268964061297
 30
0.0
 40
5.0
  1
12
100
AcDbText
  0
CIRCLE
  5
712E
330
1E
100
AcDbEntity
  8
図枠
  6
Continuous
 62
     4
100
AcDbCircle
 10
1575.5966817327
 20
773.5268964061298
 30
0.0
 40
6.0
  0
TEXT
  5
712F
330
1E
100
AcDbEntity
  8
図枠
 62
     7
100
AcDbText
 10
1905.29693187972
 20
884.3373973904256
 30
0.0
 40
5.0
  1
７
100
AcDbText
  0
TEXT
  5
7130
330
1E
100
AcDbEntity
  8
図枠
 62
     7
100
AcDbText
 10
1889.035990655419
 20
880.8157041682417
 30
0.0
 40
5.0
  1
14
100
AcDbText
  0
CIRCLE
  5
7131
330
1E
100
AcDbEntity
  8
図枠
  6
Continuous
 62
     4
100
AcDbCircle
 10
1919.379353817715
 20
845.879848128796
 30
0.0
 40
0.9
  0
CIRCLE
  5
7132
330
1E
100
AcDbEntity
  8
図枠
  6
Continuous
 62
     4
100
AcDbCircle
 10
1871.460458116387
 20
847.7448237159592
 30
0.0
 40
0.9
  0
CIRCLE
  5
7133
330
1E
100
AcDbEntity
  8
図枠
  6
Continuous
 62
     4
100
AcDbCircle
 10
1867.280002102953
 20
787.1989926305446
 30
0.0
 40
0.9
  0
CIRCLE
  5
7134
330
1E
100
AcDbEntity
  8
図枠
  6
Continuous
 62
     4
100
AcDbCircle
 10
1887.009842107344
 20
850.4670763593903
 30
0.0
 40
0.9
  0
CIRCLE
  5
7135
330
1E
100
AcDbEntity
  8
図枠
  6
Continuous
 62
     4
100
AcDbCircle
 10
1873.74342390765
 20
820.3822261759496
 30
0.0
 40
0.9
  0
CIRCLE
  5
7136
330
1E
100
AcDbEntity
  8
図枠
  6
Continuous
 62
     4
100
AcDbCircle
 10
1879.583495807098
 20
827.770268940312
 30
0.0
 40
0.9
  0
CIRCLE
  5
7137
330
1E
100
AcDbEntity
  8
図枠
  6
Continuous
 62
     4
100
AcDbCircle
 10
1936.304668929325
 20
875.195353836218
 30
0.0
 40
6.0
  0
TEXT
  5
7138
330
1E
100
AcDbEntity
  8
図枠
 62
     7
100
AcDbText
 10
1933.304668929325
 20
872.1953538362178
 30
0.0
 40
5.0
  1
６
100
AcDbText
  0
LINE
  5
7139
330
1E
100
AcDbEntity
  8
図枠
  6
Continuous
 62
     4
100
AcDbLine
 10
1919.379353817715
 20
845.879848128796
 30
0.0
 11
1933.304668929325
 21
869.9992014135112
 31
0.0
  0
CIRCLE
  5
713A
330
1E
100
AcDbEntity
  8
図枠
  6
Continuous
 62
     4
100
AcDbCircle
 10
1886.927704663133
 20
826.0329910146472
 30
0.0
 40
0.9
  0
CIRCLE
  5
713B
330
1E
100
AcDbEntity
  8
図枠
  6
Continuous
 62
     4
100
AcDbCircle
 10
1914.740758918583
 20
874.2066140987562
 30
0.0
 40
6.0
  0
TEXT
  5
713C
330
1E
100
AcDbEntity
  8
図枠
 62
     7
100
AcDbText
 10
1911.740758918584
 20
871.2066140987563
 30
0.0
 40
5.0
  1
３
100
AcDbText
  0
LINE
  5
713D
330
1E
100
AcDbEntity
  8
図枠
  6
Continuous
 62
     4
100
AcDbLine
 10
1886.927704663133
 20
826.0329910146472
 30
0.0
 11
1911.740758918584
 21
869.0104616760494
 31
0.0
  0
CIRCLE
  5
713E
330
1E
100
AcDbEntity
  8
図枠
  6
Continuous
 62
     4
100
AcDbCircle
 10
1908.29693187972
 20
887.3373973904255
 30
0.0
 40
6.0
  0
LINE
  5
713F
330
1E
100
AcDbEntity
  8
図枠
  6
Continuous
 62
     4
100
AcDbLine
 10
1887.009842107344
 20
850.4670763593903
 30
0.0
 11
1905.29693187972
 21
882.1412449677188
 31
0.0
  0
CIRCLE
  5
7140
330
1E
100
AcDbEntity
  8
図枠
  6
Continuous
 62
     4
100
AcDbCircle
 10
1892.285990655419
 20
883.8157041682416
 30
0.0
 40
6.0
  0
TEXT
  5
7141
330
1E
100
AcDbEntity
  8
図枠
 62
     7
100
AcDbText
 10
1891.365181938867
 20
799.1676375385529
 30
0.0
 40
5.0
  1
８
100
AcDbText
  0
LINE
  5
7142
330
1E
100
AcDbEntity
  8
図枠
  6
Continuous
 62
     4
100
AcDbLine
 10
1871.460458116387
 20
847.7448237159592
 30
0.0
 11
1889.285990655419
 21
878.6195517455348
 31
0.0
  0
CIRCLE
  5
7143
330
1E
100
AcDbEntity
  8
図枠
  6
Continuous
 62
     4
100
AcDbCircle
 10
1894.365181938867
 20
802.167637538553
 30
0.0
 40
6.0
  0
TEXT
  5
7144
330
1E
100
AcDbEntity
  8
図枠
 62
     7
100
AcDbText
 10
1846.337007694054
 20
792.5255225542655
 30
0.0
 40
5.0
  1
20
100
AcDbText
  0
LINE
  5
7145
330
1E
100
AcDbEntity
  8
図枠
  6
Continuous
 62
     4
100
AcDbLine
 10
1879.583495807098
 20
827.770268940312
 30
0.0
 11
1891.365181938867
 21
807.3637899612595
 31
0.0
  0
CIRCLE
  5
7146
330
1E
100
AcDbEntity
  8
図枠
  6
Continuous
 62
     4
100
AcDbCircle
 10
1893.165809572507
 20
786.7416674002206
 30
0.0
 40
6.0
  0
TEXT
  5
7147
330
1E
100
AcDbEntity
  8
図枠
 62
     7
100
AcDbText
 10
1889.915809572507
 20
783.7416674002207
 30
0.0
 40
5.0
  1
16
100
AcDbText
  0
LINE
  5
7148
330
1E
100
AcDbEntity
  8
図枠
  6
Continuous
 62
     4
100
AcDbLine
 10
1873.74342390765
 20
820.3822261759496
 30
0.0
 11
1890.165809572507
 21
791.9378198229273
 31
0.0
  0
CIRCLE
  5
7149
330
1E
100
AcDbEntity
  8
図枠
  6
Continuous
 62
     4
100
AcDbCircle
 10
1854.238387908206
 20
764.6102542325323
 30
0.0
 40
6.0
  0
TEXT
  5
714A
330
1E
100
AcDbEntity
  8
図枠
 62
     7
100
AcDbText
 10
1850.988387908206
 20
761.6102542325323
 30
0.0
 40
5.0
  1
17
100
AcDbText
  0
LINE
  5
714B
330
1E
100
AcDbEntity
  8
図枠
  6
Continuous
 62
     4
100
AcDbLine
 10
1867.280002102953
 20
787.1989926305446
 30
0.0
 11
1857.238387908206
 21
769.8064066552388
 31
0.0
  0
CIRCLE
  5
714C
330
1E
100
AcDbEntity
  8
図枠
  6
Continuous
 62
     4
100
AcDbCircle
 10
1862.284261325933
 20
817.5178109612689
 30
0.0
 40
0.9
  0
CIRCLE
  5
714D
330
1E
100
AcDbEntity
  8
図枠
  6
Continuous
 62
     4
100
AcDbCircle
 10
1849.587007694054
 20
795.5255225542655
 30
0.0
 40
6.0
  0
LINE
  5
714E
330
1E
100
AcDbEntity
  8
図枠
  6
Continuous
 62
     4
100
AcDbLine
 10
1862.284261325933
 20
817.5178109612689
 30
0.0
 11
1852.587007694054
 21
800.7216749769721
 31
0.0
  0
CIRCLE
  5
714F
330
1E
100
AcDbEntity
  8
図枠
  6
Continuous
 62
     4
100
AcDbCircle
 10
1979.159595789201
 20
841.8098006804703
 30
0.0
 40
0.9
  0
CIRCLE
  5
7150
330
1E
100
AcDbEntity
  8
図枠
  6
Continuous
 62
     4
100
AcDbCircle
 10
2005.796076932603
 20
887.9455393556929
 30
0.0
 40
6.0
  0
TEXT
  5
7151
330
1E
100
AcDbEntity
  8
図枠
 62
     7
100
AcDbText
 10
2002.796076932604
 20
884.9455393556928
 30
0.0
 40
5.0
  1
９
100
AcDbText
  0
LINE
  5
7152
330
1E
100
AcDbEntity
  8
図枠
  6
Continuous
 62
     4
100
AcDbLine
 10
1979.159595789201
 20
841.8098006804703
 30
0.0
 11
2002.796076932604
 21
882.7493869329861
 31
0.0
  0
CIRCLE
  5
7153
330
1E
100
AcDbEntity
  8
図枠
  6
Continuous
 62
     4
100
AcDbCircle
 10
1954.38368747151
 20
773.7230298567956
 30
0.0
 40
0.9
  0
LINE
  5
7154
330
1E
100
AcDbEntity
  8
図枠
  6
Continuous
 62
     4
100
AcDbLine
 10
1954.38368747151
 20
773.7230298567956
 30
0.0
 11
1964.841135008141
 21
755.6101994058657
 31
0.0
  0
CIRCLE
  5
7155
330
1E
100
AcDbEntity
  8
図枠
  6
Continuous
 62
     4
100
AcDbCircle
 10
1967.841135008142
 20
750.4140469831591
 30
0.0
 40
6.0
  0
TEXT
  5
7156
330
1E
100
AcDbEntity
  8
図枠
 62
     7
100
AcDbText
 10
1964.591135008141
 20
747.4140469831592
 30
0.0
 40
5.0
  1
11
100
AcDbText
  0
CIRCLE
  5
7157
330
1E
100
AcDbEntity
  8
図枠
  6
Continuous
 62
     4
100
AcDbCircle
 10
1977.274264133711
 20
794.2283430053828
 30
0.0
 40
0.9
  0
LINE
  5
7158
330
1E
100
AcDbEntity
  8
図枠
  6
Continuous
 62
     4
100
AcDbLine
 10
1977.274264133711
 20
794.2283430053828
 30
0.0
 11
2002.242277950068
 21
837.4742114993935
 31
0.0
  0
CIRCLE
  5
7159
330
1E
100
AcDbEntity
  8
図枠
  6
Continuous
 62
     4
100
AcDbCircle
 10
2005.242277950068
 20
842.6703639221003
 30
0.0
 40
6.0
  0
TEXT
  5
715A
330
1E
100
AcDbEntity
  8
図枠
 62
     7
100
AcDbText
 10
2002.242277950068
 20
839.6703639221001
 30
0.0
 40
5.0
  1
５
100
AcDbText
  0
CIRCLE
  5
715B
330
1E
100
AcDbEntity
  8
図枠
  6
Continuous
 62
     4
100
AcDbCircle
 10
1978.615369050833
 20
859.9904066399345
 30
0.0
 40
0.9
  0
LINE
  5
715C
330
1E
100
AcDbEntity
  8
図枠
  6
Continuous
 62
     4
100
AcDbLine
 10
1978.615369050833
 20
859.9904066399345
 30
0.0
 11
2003.751850194235
 21
903.5280691038037
 31
0.0
  0
CIRCLE
  5
715D
330
1E
100
AcDbEntity
  8
図枠
  6
Continuous
 62
     4
100
AcDbCircle
 10
2006.751850194235
 20
908.7242215265105
 30
0.0
 40
6.0
  0
TEXT
  5
715E
330
1E
100
AcDbEntity
  8
図枠
 62
     7
100
AcDbText
 10
2003.751850194235
 20
905.7242215265103
 30
0.0
 40
5.0
  1
１
100
AcDbText
  0
CIRCLE
  5
715F
330
1E
100
AcDbEntity
  8
図枠
  6
Continuous
 62
     4
100
AcDbCircle
 10
1571.927155958223
 20
922.1717441341953
 30
0.0
 40
0.9
  0
LINE
  5
7160
330
1E
100
AcDbEntity
  8
図枠
  6
Continuous
 62
     4
100
AcDbLine
 10
1571.927155958223
 20
922.1717441341953
 30
0.0
 11
1590.163977463054
 21
953.758845549126
 31
0.0
  0
TEXT
  5
7161
330
1E
100
AcDbEntity
  8
図枠
 62
     7
100
AcDbText
 10
1590.163977463054
 20
955.9549979718324
 30
0.0
 40
5.0
  1
２
100
AcDbText
  0
CIRCLE
  5
7162
330
1E
100
AcDbEntity
  8
図枠
  6
Continuous
 62
     4
100
AcDbCircle
 10
1593.163977463054
 20
958.9549979718324
 30
0.0
 40
6.0
  0
LINE
  5
7163
330
1E
100
AcDbEntity
  8
躯体と製品
  6
Continuous
 62
     7
100
AcDbLine
 10
1544.406013078955
 20
937.7348597586093
 30
0.0
 11
1569.406013078955
 21
937.7348597586093
 31
0.0
  0
LINE
  5
7164
330
1E
100
AcDbEntity
  8
躯体と製品
  6
Continuous
 62
     7
100
AcDbLine
 10
1544.406013078955
 20
937.7348597586093
 30
0.0
 11
1544.406013078955
 21
672.2816540286914
 31
0.0
  0
LINE
  5
7165
330
1E
100
AcDbEntity
  8
躯体と製品
  6
Continuous
 62
     7
100
AcDbLine
 10
1561.606013078955
 20
937.7348597586093
 30
0.0
 11
1559.606013078955
 21
937.7348597586093
 31
0.0
  0
ARC
  5
7166
330
1E
100
AcDbEntity
  8
躯体と製品
  6
Continuous
 62
     7
100
AcDbCircle
 10
1561.606013078955
 20
936.7348597586094
 30
0.0
 40
1.0
100
AcDbArc
 50
0.0
 51
90.0
  0
LINE
  5
7167
330
1E
100
AcDbEntity
  8
躯体と製品
  6
Continuous
 62
     7
100
AcDbLine
 10
1562.606013078955
 20
923.7348597586095
 30
0.0
 11
1562.606013078955
 21
936.7348597586094
 31
0.0
  0
ARC
  5
7168
330
1E
100
AcDbEntity
  8
躯体と製品
  6
Continuous
 62
     7
100
AcDbCircle
 10
1559.606013078955
 20
936.7348597586094
 30
0.0
 40
1.0
100
AcDbArc
 50
90.0
 51
180.0
  0
LINE
  5
7169
330
1E
100
AcDbEntity
  8
躯体と製品
  6
Continuous
 62
     7
100
AcDbLine
 10
1558.606013078955
 20
933.0348597586093
 30
0.0
 11
1558.606013078955
 21
936.7348597586094
 31
0.0
  0
TEXT
  5
7176
330
1E
100
AcDbEntity
  8
寸法
 62
     7
100
AcDbText
 10
1753.906013078954
 20
909.1881717694247
 30
0.0
 40
5.0
  1
（キャップ幅）
100
AcDbText
  0
LINE
  5
7179
330
1E
100
AcDbEntity
  8
躯体と製品
  6
Continuous
 62
     3
100
AcDbLine
 10
1545.406013078955
 20
922.7348597586095
 30
0.0
 11
1544.406013078955
 21
922.7348597586095
 31
0.0
  0
LINE
  5
717A
330
1E
100
AcDbEntity
  8
躯体と製品
  6
Continuous
 62
     3
100
AcDbLine
 10
1545.406013078955
 20
892.7348597586094
 30
0.0
 11
1545.406013078955
 21
922.7348597586095
 31
0.0
  0
LINE
  5
717B
330
1E
100
AcDbEntity
  8
躯体と製品
  6
Continuous
 62
     3
100
AcDbLine
 10
1544.406013078955
 20
892.7348597586094
 30
0.0
 11
1545.406013078955
 21
892.7348597586094
 31
0.0
  0
LINE
  5
717C
330
1E
100
AcDbEntity
  8
躯体と製品
  6
Continuous
 62
     3
100
AcDbLine
 10
1544.406013078955
 20
922.7348597586095
 30
0.0
 11
1544.406013078955
 21
892.7348597586094
 31
0.0
  0
LINE
  5
717D
330
1E
100
AcDbEntity
  8
躯体と製品
  6
Continuous
 62
     4
100
AcDbLine
 10
1544.406013078955
 20
894.074322557399
 30
0.0
 11
1545.406013078955
 21
893.0743225573992
 31
0.0
  0
LINE
  5
717E
330
1E
100
AcDbEntity
  8
躯体と製品
  6
Continuous
 62
     4
100
AcDbLine
 10
1544.406013078955
 20
895.4885361197721
 30
0.0
 11
1545.406013078955
 21
894.4885361197723
 31
0.0
  0
LINE
  5
717F
330
1E
100
AcDbEntity
  8
躯体と製品
  6
Continuous
 62
     4
100
AcDbLine
 10
1544.406013078954
 20
896.9027496821464
 30
0.0
 11
1545.406013078954
 21
895.9027496821461
 31
0.0
  0
LINE
  5
7180
330
1E
100
AcDbEntity
  8
躯体と製品
  6
Continuous
 62
     4
100
AcDbLine
 10
1544.406013078955
 20
898.316963244517
 30
0.0
 11
1545.406013078955
 21
897.3169632445165
 31
0.0
  0
LINE
  5
7181
330
1E
100
AcDbEntity
  8
躯体と製品
  6
Continuous
 62
     4
100
AcDbLine
 10
1544.406013078955
 20
899.7311768068902
 30
0.0
 11
1545.406013078955
 21
898.73117680689
 31
0.0
  0
LINE
  5
7182
330
1E
100
AcDbEntity
  8
躯体と製品
  6
Continuous
 62
     4
100
AcDbLine
 10
1544.406013078955
 20
901.1453903692638
 30
0.0
 11
1545.406013078955
 21
900.1453903692638
 31
0.0
  0
LINE
  5
7183
330
1E
100
AcDbEntity
  8
躯体と製品
  6
Continuous
 62
     4
100
AcDbLine
 10
1544.406013078955
 20
902.5596039316367
 30
0.0
 11
1545.406013078955
 21
901.5596039316369
 31
0.0
  0
LINE
  5
7184
330
1E
100
AcDbEntity
  8
躯体と製品
  6
Continuous
 62
     4
100
AcDbLine
 10
1544.406013078955
 20
903.9738174940101
 30
0.0
 11
1545.406013078955
 21
902.9738174940101
 31
0.0
  0
LINE
  5
7185
330
1E
100
AcDbEntity
  8
躯体と製品
  6
Continuous
 62
     4
100
AcDbLine
 10
1544.406013078955
 20
905.388031056383
 30
0.0
 11
1545.406013078955
 21
904.3880310563832
 31
0.0
  0
LINE
  5
7186
330
1E
100
AcDbEntity
  8
躯体と製品
  6
Continuous
 62
     4
100
AcDbLine
 10
1544.406013078955
 20
906.8022446187571
 30
0.0
 11
1545.406013078955
 21
905.8022446187569
 31
0.0
  0
LINE
  5
7187
330
1E
100
AcDbEntity
  8
躯体と製品
  6
Continuous
 62
     4
100
AcDbLine
 10
1544.406013078955
 20
908.2164581811289
 30
0.0
 11
1545.406013078955
 21
907.2164581811286
 31
0.0
  0
LINE
  5
7188
330
1E
100
AcDbEntity
  8
躯体と製品
  6
Continuous
 62
     4
100
AcDbLine
 10
1544.406013078955
 20
909.6306717435021
 30
0.0
 11
1545.406013078955
 21
908.6306717435018
 31
0.0
  0
LINE
  5
7189
330
1E
100
AcDbEntity
  8
躯体と製品
  6
Continuous
 62
     4
100
AcDbLine
 10
1544.406013078955
 20
911.0448853058754
 30
0.0
 11
1545.406013078955
 21
910.044885305875
 31
0.0
  0
LINE
  5
718A
330
1E
100
AcDbEntity
  8
躯体と製品
  6
Continuous
 62
     4
100
AcDbLine
 10
1544.406013078955
 20
912.459098868249
 30
0.0
 11
1545.406013078954
 21
911.4590988682492
 31
0.0
  0
LINE
  5
718B
330
1E
100
AcDbEntity
  8
躯体と製品
  6
Continuous
 62
     4
100
AcDbLine
 10
1544.406013078955
 20
913.8733124306222
 30
0.0
 11
1545.406013078954
 21
912.8733124306224
 31
0.0
  0
LINE
  5
718C
330
1E
100
AcDbEntity
  8
躯体と製品
  6
Continuous
 62
     4
100
AcDbLine
 10
1544.406013078955
 20
915.2875259929952
 30
0.0
 11
1545.406013078954
 21
914.2875259929954
 31
0.0
  0
LINE
  5
718D
330
1E
100
AcDbEntity
  8
躯体と製品
  6
Continuous
 62
     4
100
AcDbLine
 10
1544.406013078955
 20
916.7017395553687
 30
0.0
 11
1545.406013078954
 21
915.7017395553689
 31
0.0
  0
LINE
  5
718E
330
1E
100
AcDbEntity
  8
躯体と製品
  6
Continuous
 62
     4
100
AcDbLine
 10
1544.406013078954
 20
918.1159531177424
 30
0.0
 11
1545.406013078954
 21
917.1159531177421
 31
0.0
  0
LINE
  5
718F
330
1E
100
AcDbEntity
  8
躯体と製品
  6
Continuous
 62
     4
100
AcDbLine
 10
1544.406013078955
 20
919.530166680113
 30
0.0
 11
1545.406013078955
 21
918.5301666801128
 31
0.0
  0
LINE
  5
7190
330
1E
100
AcDbEntity
  8
躯体と製品
  6
Continuous
 62
     4
100
AcDbLine
 10
1544.406013078955
 20
920.9443802424869
 30
0.0
 11
1545.406013078955
 21
919.9443802424866
 31
0.0
  0
LINE
  5
7191
330
1E
100
AcDbEntity
  8
躯体と製品
  6
Continuous
 62
     4
100
AcDbLine
 10
1544.406013078955
 20
922.35859380486
 30
0.0
 11
1545.406013078955
 21
921.3585938048604
 31
0.0
  0
LINE
  5
7192
330
1E
100
AcDbEntity
  8
躯体と製品
  6
Continuous
 62
     7
100
AcDbLine
 10
1545.406013078955
 20
922.7348597586095
 30
0.0
 11
1546.406013078955
 21
922.7348597586095
 31
0.0
  0
LINE
  5
7193
330
1E
100
AcDbEntity
  8
躯体と製品
  6
Continuous
 62
     7
100
AcDbLine
 10
1546.406013078955
 20
846.5348597586094
 30
0.0
 11
1546.406013078955
 21
922.7348597586095
 31
0.0
  0
LINE
  5
7194
330
1E
100
AcDbEntity
  8
躯体と製品
  6
Continuous
 62
     7
100
AcDbLine
 10
1545.406013078955
 20
846.4911988157009
 30
0.0
 11
1545.406013078955
 21
892.7348597586094
 31
0.0
  0
LINE
  5
71A3
330
1E
100
AcDbEntity
  8
躯体と製品
  6
Continuous
 62
     7
100
AcDbLine
 10
1569.406013078955
 20
1002.734859758609
 30
0.0
 11
1569.406013078955
 21
937.7348597586093
 31
0.0
  0
LINE
  5
71AE
330
1E
100
AcDbEntity
  8
躯体と製品
  6
Continuous
 62
     4
100
AcDbLine
 10
1558.746403032732
 20
937.2458104102712
 30
0.0
 11
1560.015057097385
 21
932.4628339688512
 31
0.0
  0
LINE
  5
71AF
330
1E
100
AcDbEntity
  8
躯体と製品
  6
Continuous
 62
     4
100
AcDbLine
 10
1561.071432585463
 20
928.4801729633448
 30
0.0
 11
1562.465623125177
 21
923.2239091069477
 31
0.0
  0
LINE
  5
71B0
330
1E
100
AcDbEntity
  8
躯体と製品
  6
Continuous
 62
     4
100
AcDbLine
 10
1562.606013078955
 20
936.3438134615178
 30
0.0
 11
1563.997059376047
 21
937.7348597586093
 31
0.0
  0
LINE
  5
71B1
330
1E
100
AcDbEntity
  8
躯体と製品
  6
Continuous
 62
     4
100
AcDbLine
 10
1562.606013078955
 20
933.5153863367709
 30
0.0
 11
1566.825486500793
 21
937.7348597586093
 31
0.0
  0
LINE
  5
71B2
330
1E
100
AcDbEntity
  8
躯体と製品
  6
Continuous
 62
     4
100
AcDbLine
 10
1562.606013078955
 20
930.6869592120243
 30
0.0
 11
1569.316652146841
 21
937.3975982799109
 31
0.0
  0
LINE
  5
71B3
330
1E
100
AcDbEntity
  8
躯体と製品
  6
Continuous
 62
     4
100
AcDbLine
 10
1562.606013078955
 20
927.8585320872776
 30
0.0
 11
1568.640757499049
 21
933.8932765073721
 31
0.0
  0
LINE
  5
71B4
330
1E
100
AcDbEntity
  8
躯体と製品
  6
Continuous
 62
     4
100
AcDbLine
 10
1562.606013078955
 20
925.0301049625308
 30
0.0
 11
1568.412334874946
 21
930.8364267585222
 31
0.0
  0
LINE
  5
71B5
330
1E
100
AcDbEntity
  8
躯体と製品
  6
Continuous
 62
     4
100
AcDbLine
 10
1563.13919499978
 20
922.7348597586095
 30
0.0
 11
1568.487032593126
 21
928.0826973519552
 31
0.0
  0
LINE
  5
71B6
330
1E
100
AcDbEntity
  8
躯体と製品
  6
Continuous
 62
     4
100
AcDbLine
 10
1565.967622124526
 20
922.7348597586095
 30
0.0
 11
1568.79067354513
 21
925.5579111792133
 31
0.0
  0
ARC
  5
71B7
330
1E
100
AcDbEntity
  8
躯体と製品
  6
Continuous
 62
     7
100
AcDbCircle
 10
1597.031013078955
 20
930.2348597586094
 30
0.0
 40
28.625
100
AcDbArc
 50
164.8107132628193
 51
195.1892867371807
  0
DIMENSION
  5
71C5
330
1E
100
AcDbEntity
  8
寸法
  6
Continuous
100
AcDbDimension
  2
*D4
 10
1578.606013078955
 20
972.7348597586093
 30
0.0
 11
1562.006013078955
 21
976.2348597586093
 31
0.0
 70
    32
  1
33.2
 71
     5
 42
33.20000000000005
  3
AutoCAD
100
AcDbAlignedDimension
 13
1545.406013078955
 23
924.7348597586094
 33
0.0
 14
1578.606013078955
 24
925.1880654885274
 34
0.0
100
AcDbRotatedDimension
  0
DIMENSION
  5
71D2
330
1E
100
AcDbEntity
  8
寸法
  6
Continuous
100
AcDbDimension
  2
*D5
 10
1578.606013078955
 20
962.7348597586093
 30
0.0
 11
1568.606013078955
 21
966.2348597586094
 31
0.0
 70
    32
 71
     5
 42
20.0
  3
AutoCAD
100
AcDbAlignedDimension
 13
1558.606013078955
 23
939.7348597586093
 33
0.0
 14
1578.606013078955
 24
925.1880654885274
 34
0.0
100
AcDbRotatedDimension
  0
DIMENSION
  5
71DF
330
1E
100
AcDbEntity
  8
寸法
  6
Continuous
100
AcDbDimension
  2
*D6
 10
1995.406013078955
 20
987.7348597586093
 30
0.0
 11
1770.406013078955
 21
991.2348597586094
 31
0.0
 70
    32
  1
W
 71
     5
 42
450.0
  3
AutoCAD
100
AcDbAlignedDimension
 13
1545.406013078955
 23
924.7348597586094
 33
0.0
 14
1995.406013078955
 24
861.8677738740307
 34
0.0
100
AcDbRotatedDimension
  0
DIMENSION
  5
71EC
330
1E
100
AcDbEntity
  8
寸法
  6
Continuous
100
AcDbDimension
  2
*D7
 10
1613.606013078955
 20
922.7348597586095
 30
0.0
 11
1610.106013078955
 21
930.2348597586096
 31
0.0
 70
    32
 71
     5
 42
15.0
  3
AutoCAD
100
AcDbAlignedDimension
 13
1571.406013078955
 23
937.7348597586093
 33
0.0
 14
1580.606013078955
 24
922.7348597586095
 34
0.0
 50
90.0
100
AcDbRotatedDimension
  0
DIMENSION
  5
71F9
330
1E
100
AcDbEntity
  8
寸法
  6
Continuous
100
AcDbDimension
  2
*D8
 10
1613.606013078955
 20
886.7348597586094
 30
0.0
 11
1610.106013078955
 21
904.7348597586097
 31
0.0
 70
    32
 71
     5
 42
36.0
  3
AutoCAD
100
AcDbAlignedDimension
 13
1580.606013078955
 23
922.7348597586095
 33
0.0
 14
1580.606013078955
 24
886.7348597586094
 34
0.0
 50
90.0
100
AcDbRotatedDimension
  0
DIMENSION
  5
7211
330
1E
100
AcDbEntity
  8
寸法
  6
Continuous
100
AcDbDimension
  2
*D10
 10
2055.406013078955
 20
769.8677738740307
 30
0.0
 11
2051.906013078955
 21
814.8677738740312
 31
0.0
 70
    32
 71
     5
 42
90.00000000000023
  3
AutoCAD
100
AcDbAlignedDimension
 13
1997.406013078955
 23
859.867773874031
 33
0.0
 14
1997.406013078955
 24
769.8677738740307
 34
0.0
 50
90.0
100
AcDbRotatedDimension
  0
DIMENSION
  5
721E
330
1E
100
AcDbEntity
  8
寸法
  6
Continuous
100
AcDbDimension
  2
*D11
 10
2035.406013078955
 20
769.8677738740307
 30
0.0
 11
2031.906013078955
 21
791.0747139513613
 31
0.0
 70
    32
  1
44
 71
     5
 42
42.41388015466054
  3
AutoCAD
100
AcDbAlignedDimension
 13
1923.371090331672
 23
812.2816540286912
 33
0.0
 14
1997.406013078955
 24
769.8677738740307
 34
0.0
 50
90.0
100
AcDbRotatedDimension
  0
DIMENSION
  5
722B
330
1E
100
AcDbEntity
  8
寸法
  6
Continuous
100
AcDbDimension
  2
*D12
 10
1919.406013078955
 20
697.2816540286914
 30
0.0
 11
1957.406013078955
 21
700.7816540286914
 31
0.0
 70
    32
  1
75≦
 71
     5
 42
75.99999999999977
  3
AutoCAD
100
AcDbAlignedDimension
 13
1995.406013078955
 23
767.8677738740307
 33
0.0
 14
1919.406013078955
 24
697.2816540286914
 34
0.0
100
AcDbRotatedDimension
  0
DIMENSION
  5
7237
330
1E
100
AcDbEntity
  8
寸法
  6
Continuous
100
AcDbDimension
  2
*D13
 10
1744.406013078955
 20
697.2816540286914
 30
0.0
 11
1831.906013078955
 21
700.7816540286914
 31
0.0
 70
    32
  1
≦Ｃ
 71
     5
 42
175.0000000000002
  3
AutoCAD
100
AcDbAlignedDimension
 13
1919.406013078955
 23
697.2816540286914
 33
0.0
 14
1744.406013078955
 24
697.2816540286914
 34
0.0
100
AcDbRotatedDimension
1001
ACAD
1000
DSTYLE
1002
{
1070
   279
1070
     1
1002
}
  0
DIMENSION
  5
7242
330
1E
100
AcDbEntity
  8
寸法
  6
Continuous
100
AcDbDimension
  2
*D14
 10
1544.406013078955
 20
697.2816540286914
 30
0.0
 11
1644.406013078955
 21
700.7816540286914
 31
0.0
 70
    32
 71
     5
 42
200.0
  3
AutoCAD
100
AcDbAlignedDimension
 13
1744.406013078955
 23
697.2816540286914
 33
0.0
 14
1544.406013078955
 24
697.2816540286914
 34
0.0
100
AcDbRotatedDimension
1001
ACAD
1000
DSTYLE
1002
{
1070
   279
1070
     1
1002
}
  0
DIMENSION
  5
724D
330
1E
100
AcDbEntity
  8
寸法
  6
Continuous
100
AcDbDimension
  2
*D15
 10
1919.406013078955
 20
752.2816540286915
 30
0.0
 11
1894.406013078955
 21
755.7816540286914
 31
0.0
 70
    32
 71
     5
 42
50.0
  3
AutoCAD
100
AcDbAlignedDimension
 13
1869.406013078955
 23
752.2816540286915
 33
0.0
 14
1919.406013078955
 24
752.2816540286915
 34
0.0
100
AcDbRotatedDimension
  0
DIMENSION
  5
7258
330
1E
100
AcDbEntity
  8
寸法
  6
Continuous
100
AcDbDimension
  2
*D16
 10
1489.406013078955
 20
879.0348597586094
 30
0.0
 11
1485.906013078954
 21
845.6582568936505
 31
0.0
 70
    32
  1
D
 71
     5
 42
66.75320572991814
  3
AutoCAD
100
AcDbAlignedDimension
 13
1740.413623682772
 23
812.2816540286912
 33
0.0
 14
1489.406013078955
 24
879.0348597586094
 34
0.0
 50
90.0
100
AcDbRotatedDimension
  0
DIMENSION
  5
7264
330
1E
100
AcDbEntity
  8
寸法
  6
Continuous
100
AcDbDimension
  2
*D17
 10
1469.406013078955
 20
812.2816540286912
 30
0.0
 11
1465.906013078955
 21
875.0082568936505
 31
0.0
 70
    32
  1
E
 71
     5
 42
125.4532057299182
  3
AutoCAD
100
AcDbAlignedDimension
 13
1542.406013078955
 23
937.7348597586093
 33
0.0
 14
1602.909818380863
 24
812.2816540286912
 34
0.0
 50
90.0
100
AcDbRotatedDimension
  0
DIMENSION
  5
732F
330
1E
100
AcDbEntity
  8
寸法
  6
Continuous
100
AcDbDimension
  2
*D18
 10
1995.406013078955
 20
915.7348597586095
 30
0.0
 11
1777.906013078955
 21
919.2348597586095
 31
0.0
 70
    32
  1
A
 71
     5
 42
435.0
  3
AutoCAD
100
AcDbAlignedDimension
 13
1560.406013078955
 23
896.6651578621538
 33
0.0
 14
1995.406013078955
 24
896.6651578621538
 34
0.0
100
AcDbRotatedDimension
  0
ENDSEC
  0
SECTION
  2
OBJECTS
  0
DICTIONARY
  5
C
330
0
100
AcDbDictionary
281
     1
  3
ACAD_COLOR
350
6779
  3
ACAD_GROUP
350
D
  3
ACAD_LAYOUT
350
19
  3
ACAD_MATERIAL
350
6778
  3
ACAD_MLINESTYLE
350
16
  3
ACAD_PLOTSETTINGS
350
18
  3
ACAD_PLOTSTYLENAME
350
E
  3
ACAD_TABLESTYLE
350
677A
  3
ACDBHEADERROUNDTRIPXREC
350
7350
  3
AcDbVariableDictionary
350
169
  0
DICTIONARY
  5
175
330
2
100
AcDbDictionary
280
     1
281
     1
  3
ACAD_LAYERFILTERS
360
71C4
  3
ACAD_LAYERSTATES
360
176
  3
ACLYDICTIONARY
360
71C3
  0
DICTIONARY
  5
28B
330
1E
100
AcDbDictionary
280
     1
281
     1
  3
ACAD_LAYOUTSELFREF
360
6771
  0
DICTIONARY
  5
28D
330
1A
100
AcDbDictionary
280
     1
281
     1
  3
ACAD_LAYOUTSELFREF
360
6770
  0
DICTIONARY
  5
6779
102
{ACAD_REACTORS
330
C
102
}
330
C
100
AcDbDictionary
281
     1
  0
DICTIONARY
  5
D
102
{ACAD_REACTORS
330
C
102
}
330
C
100
AcDbDictionary
281
     1
  0
DICTIONARY
  5
19
102
{ACAD_REACTORS
330
C
102
}
330
C
100
AcDbDictionary
281
     1
  3
Model
350
21
  3
ﾚｲｱｳﾄ1
350
1D
  0
DICTIONARY
  5
6778
102
{ACAD_REACTORS
330
C
102
}
330
C
100
AcDbDictionary
281
     1
  0
DICTIONARY
  5
16
102
{ACAD_REACTORS
330
C
102
}
330
C
100
AcDbDictionary
281
     1
  3
Standard
350
17
  0
DICTIONARY
  5
18
102
{ACAD_REACTORS
330
C
102
}
330
C
100
AcDbDictionary
281
     1
  0
ACDBDICTIONARYWDFLT
  5
E
102
{ACAD_REACTORS
330
C
102
}
330
C
100
AcDbDictionary
281
     1
  3
Normal
350
F
100
AcDbDictionaryWithDefault
340
F
1001
ACAD
1000
TREAT_AS_HARD
1070
     0
1000
TREAT_AS_HARD
1070
     0
1000
TREAT_AS_HARD
1070
     0
1000
TREAT_AS_HARD
1070
     0
1000
TREAT_AS_HARD
1070
     0
1000
TREAT_AS_HARD
1070
     0
1000
TREAT_AS_HARD
1070
     0
1000
TREAT_AS_HARD
1070
     0
1000
TREAT_AS_HARD
1070
     0
1000
TREAT_AS_HARD
1070
     0
1000
TREAT_AS_HARD
1070
     0
1000
TREAT_AS_HARD
1070
     0
1000
TREAT_AS_HARD
1070
     0
1000
TREAT_AS_HARD
1070
     0
1000
TREAT_AS_HARD
1070
     0
1000
TREAT_AS_HARD
1070
     0
1000
TREAT_AS_HARD
1070
     0
1000
TREAT_AS_HARD
1070
     0
1000
TREAT_AS_HARD
1070
     0
1000
TREAT_AS_HARD
1070
     0
1000
TREAT_AS_HARD
1070
     0
1000
TREAT_AS_HARD
1070
     0
1000
TREAT_AS_HARD
1070
     0
1000
TREAT_AS_HARD
1070
     0
1000
TREAT_AS_HARD
1070
     0
1000
TREAT_AS_HARD
1070
     0
  0
DICTIONARY
  5
677A
102
{ACAD_REACTORS
330
C
102
}
330
C
100
AcDbDictionary
281
     1
  3
Standard
350
677B
  0
DICTIONARY
  5
7350
102
{ACAD_REACTORS
330
C
102
}
330
C
100
AcDbDictionary
281
     1
  0
DICTIONARY
  5
169
102
{ACAD_REACTORS
330
C
102
}
330
C
100
AcDbDictionary
281
     1
  3
CTABLESTYLE
350
6782
  3
DIMASSOC
350
16A
  3
PROJECTNAME
350
734E
  0
DICTIONARY
  5
71C4
102
{ACAD_REACTORS
330
175
102
}
330
175
100
AcDbDictionary
281
     1
  0
DICTIONARY
  5
176
102
{ACAD_REACTORS
330
175
102
}
330
175
100
AcDbDictionary
281
     1
  3
ACAD
350
177
  0
DICTIONARY
  5
71C3
102
{ACAD_REACTORS
330
175
102
}
330
175
100
AcDbDictionary
281
     1
1001
ACAD
1000
<All
  0
XRECORD
  5
6771
102
{ACAD_REACTORS
330
28B
102
}
330
28B
100
AcDbXrecord
280
     1
340
1E
  0
XRECORD
  5
6770
102
{ACAD_REACTORS
330
28D
102
}
330
28D
100
AcDbXrecord
280
     1
340
1A
  0
LAYOUT
  5
21
102
{ACAD_XDICTIONARY
360
7353
102
}
102
{ACAD_REACTORS
330
19
102
}
330
19
100
AcDbPlotSettings
  1

  2
\\MEISEI-1\EPSON Stylus Photo EX3
  4

  6

 40
0.0
 41
0.0
 42
0.0
 43
0.0
 44
0.0
 45
0.0
 46
0.0
 47
0.0
 48
0.0
 49
0.0
140
0.0
141
0.0
142
1.0
143
1.0
 70
  1712
 72
     0
 73
     0
 74
     0
  7

 75
     0
147
1.0
148
0.0
149
0.0
100
AcDbLayout
  1
Model
 70
     1
 71
     0
 10
0.0
 20
0.0
 11
12.0
 21
9.0
 12
0.0
 22
0.0
 32
0.0
 14
0.0
 24
0.0
 34
0.0
 15
0.0
 25
0.0
 35
0.0
146
0.0
 13
0.0
 23
0.0
 33
0.0
 16
1.0
 26
0.0
 36
0.0
 17
0.0
 27
1.0
 37
0.0
 76
     0
330
1E
  0
LAYOUT
  5
1D
102
{ACAD_XDICTIONARY
360
7351
102
}
102
{ACAD_REACTORS
330
19
102
}
330
19
100
AcDbPlotSettings
  1

  2
\\MEISEI-1\EPSON Stylus Photo EX3
  4

  6

 40
0.0
 41
0.0
 42
0.0
 43
0.0
 44
0.0
 45
0.0
 46
0.0
 47
0.0
 48
0.0
 49
0.0
140
0.0
141
0.0
142
1.0
143
1.0
 70
   688
 72
     0
 73
     0
 74
     5
  7

 75
    16
147
1.0
148
0.0
149
0.0
100
AcDbLayout
  1
ﾚｲｱｳﾄ1
 70
     1
 71
     1
 10
0.0
 20
0.0
 11
12.0
 21
9.0
 12
0.0
 22
0.0
 32
0.0
 14
1.000000000000000E+20
 24
1.000000000000000E+20
 34
1.000000000000000E+20
 15
-1.000000000000000E+20
 25
-1.000000000000000E+20
 35
-1.000000000000000E+20
146
0.0
 13
0.0
 23
0.0
 33
0.0
 16
1.0
 26
0.0
 36
0.0
 17
0.0
 27
1.0
 37
0.0
 76
     0
330
1A
  0
MLINESTYLE
  5
17
102
{ACAD_REACTORS
330
16
102
}
330
16
100
AcDbMlineStyle
  2
STANDARD
 70
     0
  3

 62
   256
 51
90.0
 52
90.0
 71
     2
 49
0.5
 62
   256
  6
BYLAYER
 49
-0.5
 62
   256
  6
BYLAYER
  0
ACDBPLACEHOLDER
  5
F
102
{ACAD_REACTORS
330
E
102
}
330
E
  0
TABLESTYLE
  5
677B
102
{ACAD_REACTORS
330
677A
102
}
330
677A
100
AcDbTableStyle
  3
Standard
 70
     0
 71
     0
 40
0.06
 41
0.06
280
     0
281
     0
  7
STANDARD
140
0.18
170
     2
 62
     0
 63
     7
283
     0
274
    -2
284
     1
 64
     0
275
    -2
285
     1
 65
     0
276
    -2
286
     1
 66
     0
277
    -2
287
     1
 67
     0
278
    -2
288
     1
 68
     0
279
    -2
289
     1
 69
     0
  7
STANDARD
140
0.25
170
     5
 62
     0
 63
     7
283
     0
274
    -2
284
     1
 64
     0
275
    -2
285
     1
 65
     0
276
    -2
286
     1
 66
     0
277
    -2
287
     1
 67
     0
278
    -2
288
     1
 68
     0
279
    -2
289
     1
 69
     0
  7
STANDARD
140
0.18
170
     5
 62
     0
 63
     7
283
     0
274
    -2
284
     1
 64
     0
275
    -2
285
     1
 65
     0
276
    -2
286
     1
 66
     0
277
    -2
287
     1
 67
     0
278
    -2
288
     1
 68
     0
279
    -2
289
     1
 69
     0
  0
DICTIONARYVAR
  5
6782
102
{ACAD_REACTORS
330
169
102
}
330
169
100
DictionaryVariables
280
     0
  1
STANDARD
  0
DICTIONARYVAR
  5
16A
102
{ACAD_REACTORS
330
169
102
}
330
169
100
DictionaryVariables
280
     0
  1
1
  0
DICTIONARYVAR
  5
734E
102
{ACAD_REACTORS
330
169
102
}
330
169
100
DictionaryVariables
280
     0
  1

  0
XRECORD
  5
177
102
{ACAD_REACTORS
330
176
102
}
330
176
100
AcDbXrecord
280
     1
 91
      476
330
179
 90
        8
 62
     7
370
    -3
331
15
  1
Color_7
330
178
 90
        8
 62
     7
370
    -3
331
15
  1
Color_7
330
128
 90
        0
 62
     7
370
    -3
331
15
  1
Color_7
330
10
 90
        8
 62
     7
370
    -3
331
15
  1
Color_7
  0
DICTIONARY
  5
7353
330
21
100
AcDbDictionary
280
     1
281
     1
  3
ACAD_XREC_ROUNDTRIP
360
7354
  0
DICTIONARY
  5
7351
330
1D
100
AcDbDictionary
280
     1
281
     1
  3
ACAD_XREC_ROUNDTRIP
360
7352
  0
XRECORD
  5
7354
102
{ACAD_REACTORS
330
7353
102
}
330
7353
100
AcDbXrecord
280
     1
102
SHADEPLOT
 70
     0
102
SHADEPLOTRESLEVEL
 70
     2
102
SHADEPLOTCUSTOMDPI
 70
   300
  0
XRECORD
  5
7352
102
{ACAD_REACTORS
330
7351
102
}
330
7351
100
AcDbXrecord
280
     1
102
SHADEPLOT
 70
     0
102
SHADEPLOTRESLEVEL
 70
     2
102
SHADEPLOTCUSTOMDPI
 70
   300
  0
ENDSEC
  0
EOF
