  0
SECTION
  2
HEADER
  9
$ACADVER
  1
AC1015
  9
$ACADMAINTVER
 70
    20
  9
$DWGCODEPAGE
  3
ANSI_932
  9
$INSBASE
 10
0.0
 20
0.0
 30
0.0
  9
$EXTMIN
 10
1288.631563678266
 20
375.6962347249414
 30
-0.0000000000112498
  9
$EXTMAX
 10
2112.784509450772
 20
951.7744407632472
 30
0.0000000000002956
  9
$LIMMIN
 10
0.0
 20
0.0
  9
$LIMMAX
 10
420.0
 20
297.0
  9
$ORTHOMODE
 70
     0
  9
$REGENMODE
 70
     1
  9
$FILLMODE
 70
     1
  9
$QTEXTMODE
 70
     0
  9
$MIRRTEXT
 70
     1
  9
$LTSCALE
 40
1.0
  9
$ATTMODE
 70
     1
  9
$TEXTSIZE
 40
5.0
  9
$TRACEWID
 40
0.05
  9
$TEXTSTYLE
  7
ACAD
  9
$CLAYER
  8
0
  9
$CELTYPE
  6
CONTINUOUS
  9
$CECOLOR
 62
   256
  9
$CELTSCALE
 40
1.0
  9
$DISPSILH
 70
     0
  9
$DIMSCALE
 40
1.0
  9
$DIMASZ
 40
1.0
  9
$DIMEXO
 40
0.0
  9
$DIMDLI
 40
0.38
  9
$DIMRND
 40
0.0
  9
$DIMDLE
 40
0.0
  9
$DIMEXE
 40
0.0
  9
$DIMTP
 40
0.0
  9
$DIMTM
 40
0.0
  9
$DIMTXT
 40
5.0
  9
$DIMCEN
 40
0.09
  9
$DIMTSZ
 40
0.0
  9
$DIMTOL
 70
     0
  9
$DIMLIM
 70
     0
  9
$DIMTIH
 70
     0
  9
$DIMTOH
 70
     1
  9
$DIMSE1
 70
     0
  9
$DIMSE2
 70
     0
  9
$DIMTAD
 70
     1
  9
$DIMZIN
 70
     0
  9
$DIMBLK
  1
Dot
  9
$DIMASO
 70
     1
  9
$DIMSHO
 70
     1
  9
$DIMPOST
  1

  9
$DIMAPOST
  1

  9
$DIMALT
 70
     0
  9
$DIMALTD
 70
     2
  9
$DIMALTF
 40
25.4
  9
$DIMLFAC
 40
1.0
  9
$DIMTOFL
 70
     0
  9
$DIMTVP
 40
0.0
  9
$DIMTIX
 70
     1
  9
$DIMSOXD
 70
     0
  9
$DIMSAH
 70
     0
  9
$DIMBLK1
  1

  9
$DIMBLK2
  1

  9
$DIMSTYLE
  2
AutoCAD
  9
$DIMCLRD
 70
     4
  9
$DIMCLRE
 70
     4
  9
$DIMCLRT
 70
     3
  9
$DIMTFAC
 40
1.0
  9
$DIMGAP
 40
1.0
  9
$DIMJUST
 70
     0
  9
$DIMSD1
 70
     0
  9
$DIMSD2
 70
     0
  9
$DIMTOLJ
 70
     1
  9
$DIMTZIN
 70
     0
  9
$DIMALTZ
 70
     0
  9
$DIMALTTZ
 70
     0
  9
$DIMUPT
 70
     0
  9
$DIMDEC
 70
     0
  9
$DIMTDEC
 70
     0
  9
$DIMALTU
 70
     2
  9
$DIMALTTD
 70
     2
  9
$DIMTXSTY
  7
ACAD
  9
$DIMAUNIT
 70
     0
  9
$DIMADEC
 70
     0
  9
$DIMALTRND
 40
0.0
  9
$DIMAZIN
 70
     0
  9
$DIMDSEP
 70
    46
  9
$DIMATFIT
 70
     0
  9
$DIMFRAC
 70
     0
  9
$DIMLDRBLK
  1
None
  9
$DIMLUNIT
 70
     2
  9
$DIMLWD
 70
    -2
  9
$DIMLWE
 70
    -2
  9
$DIMTMOVE
 70
     0
  9
$LUNITS
 70
     2
  9
$LUPREC
 70
     4
  9
$SKETCHINC
 40
0.1
  9
$FILLETRAD
 40
0.0
  9
$AUNITS
 70
     0
  9
$AUPREC
 70
     0
  9
$MENU
  1
.
  9
$ELEVATION
 40
0.0
  9
$PELEVATION
 40
0.0
  9
$THICKNESS
 40
0.0
  9
$LIMCHECK
 70
     0
  9
$CHAMFERA
 40
0.0
  9
$CHAMFERB
 40
0.0
  9
$CHAMFERC
 40
0.0
  9
$CHAMFERD
 40
0.0
  9
$SKPOLY
 70
     0
  9
$TDCREATE
 40
2454316.693457674
  9
$TDUCREATE
 40
2454316.318457674
  9
$TDUPDATE
 40
2454734.824929283
  9
$TDUUPDATE
 40
2454734.449929283
  9
$TDINDWG
 40
0.2589950116
  9
$TDUSRTIMER
 40
0.2589950116
  9
$USRTIMER
 70
     1
  9
$ANGBASE
 50
0.0
  9
$ANGDIR
 70
     0
  9
$PDMODE
 70
     0
  9
$PDSIZE
 40
0.0
  9
$PLINEWID
 40
0.0
  9
$SPLFRAME
 70
     0
  9
$SPLINETYPE
 70
     6
  9
$SPLINESEGS
 70
     8
  9
$HANDSEED
  5
72F3
  9
$SURFTAB1
 70
     6
  9
$SURFTAB2
 70
     6
  9
$SURFTYPE
 70
     6
  9
$SURFU
 70
     6
  9
$SURFV
 70
     6
  9
$UCSBASE
  2

  9
$UCSNAME
  2

  9
$UCSORG
 10
0.0
 20
0.0
 30
0.0
  9
$UCSXDIR
 10
1.0
 20
0.0
 30
0.0
  9
$UCSYDIR
 10
0.0
 20
1.0
 30
0.0
  9
$UCSORTHOREF
  2

  9
$UCSORTHOVIEW
 70
     0
  9
$UCSORGTOP
 10
0.0
 20
0.0
 30
0.0
  9
$UCSORGBOTTOM
 10
0.0
 20
0.0
 30
0.0
  9
$UCSORGLEFT
 10
0.0
 20
0.0
 30
0.0
  9
$UCSORGRIGHT
 10
0.0
 20
0.0
 30
0.0
  9
$UCSORGFRONT
 10
0.0
 20
0.0
 30
0.0
  9
$UCSORGBACK
 10
0.0
 20
0.0
 30
0.0
  9
$PUCSBASE
  2

  9
$PUCSNAME
  2

  9
$PUCSORG
 10
0.0
 20
0.0
 30
0.0
  9
$PUCSXDIR
 10
1.0
 20
0.0
 30
0.0
  9
$PUCSYDIR
 10
0.0
 20
1.0
 30
0.0
  9
$PUCSORTHOREF
  2

  9
$PUCSORTHOVIEW
 70
     0
  9
$PUCSORGTOP
 10
0.0
 20
0.0
 30
0.0
  9
$PUCSORGBOTTOM
 10
0.0
 20
0.0
 30
0.0
  9
$PUCSORGLEFT
 10
0.0
 20
0.0
 30
0.0
  9
$PUCSORGRIGHT
 10
0.0
 20
0.0
 30
0.0
  9
$PUCSORGFRONT
 10
0.0
 20
0.0
 30
0.0
  9
$PUCSORGBACK
 10
0.0
 20
0.0
 30
0.0
  9
$USERI1
 70
     0
  9
$USERI2
 70
     0
  9
$USERI3
 70
     0
  9
$USERI4
 70
     0
  9
$USERI5
 70
     0
  9
$USERR1
 40
0.0
  9
$USERR2
 40
0.0
  9
$USERR3
 40
0.0
  9
$USERR4
 40
0.0
  9
$USERR5
 40
0.0
  9
$WORLDVIEW
 70
     1
  9
$SHADEDGE
 70
     3
  9
$SHADEDIF
 70
    70
  9
$TILEMODE
 70
     1
  9
$MAXACTVP
 70
    48
  9
$PINSBASE
 10
0.0
 20
0.0
 30
0.0
  9
$PLIMCHECK
 70
     0
  9
$PEXTMIN
 10
1.000000000000000E+20
 20
1.000000000000000E+20
 30
1.000000000000000E+20
  9
$PEXTMAX
 10
-1.000000000000000E+20
 20
-1.000000000000000E+20
 30
-1.000000000000000E+20
  9
$PLIMMIN
 10
0.0
 20
0.0
  9
$PLIMMAX
 10
12.0
 20
9.0
  9
$UNITMODE
 70
     0
  9
$VISRETAIN
 70
     0
  9
$PLINEGEN
 70
     0
  9
$PSLTSCALE
 70
     1
  9
$TREEDEPTH
 70
  3020
  9
$CMLSTYLE
  2
Standard
  9
$CMLJUST
 70
     0
  9
$CMLSCALE
 40
1.0
  9
$PROXYGRAPHICS
 70
     1
  9
$MEASUREMENT
 70
     0
  9
$CELWEIGHT
370
    -1
  9
$ENDCAPS
280
     0
  9
$JOINSTYLE
280
     0
  9
$LWDISPLAY
290
     0
  9
$INSUNITS
 70
     0
  9
$HYPERLINKBASE
  1

  9
$STYLESHEET
  1

  9
$XEDIT
290
     1
  9
$CEPSNTYPE
380
     0
  9
$PSTYLEMODE
290
     1
  9
$FINGERPRINTGUID
  2
{CC7D6DEE-A9F1-4F3E-AC95-C84B62CCA3FD}
  9
$VERSIONGUID
  2
{A9EA726F-6C52-4370-AAB5-0B95416725FE}
  9
$EXTNAMES
290
     1
  9
$PSVPSCALE
 40
0.0
  9
$OLESTARTUP
290
     0
  0
ENDSEC
  0
SECTION
  2
CLASSES
  0
CLASS
  1
ACDBDICTIONARYWDFLT
  2
AcDbDictionaryWithDefault
  3
ObjectDBX Classes
 90
        0
280
     0
281
     0
  0
CLASS
  1
ACDBPLACEHOLDER
  2
AcDbPlaceHolder
  3
ObjectDBX Classes
 90
        0
280
     0
281
     0
  0
CLASS
  1
LAYOUT
  2
AcDbLayout
  3
ObjectDBX Classes
 90
        0
280
     0
281
     0
  0
CLASS
  1
DICTIONARYVAR
  2
AcDbDictionaryVar
  3
ObjectDBX Classes
 90
        0
280
     0
281
     0
  0
CLASS
  1
TABLESTYLE
  2
AcDbTableStyle
  3
ObjectDBX Classes
 90
     2047
280
     0
281
     0
  0
ENDSEC
  0
SECTION
  2
TABLES
  0
TABLE
  2
VPORT
  5
8
330
0
100
AcDbSymbolTable
 70
     2
  0
VPORT
  5
72ED
330
8
100
AcDbSymbolTableRecord
100
AcDbViewportTableRecord
  2
*Active
 70
     0
 10
0.0
 20
0.0
 11
1.0
 21
1.0
 12
1707.528614057421
 22
653.7296548559112
 13
0.0
 23
0.0
 14
1.0
 24
1.0
 15
0.0
 25
0.0
 16
0.0
 26
0.0
 36
1.0
 17
0.0
 27
0.0
 37
0.0
 40
650.3065707307046
 41
1.542635658914728
 42
50.0
 43
0.0
 44
0.0
 50
0.0
 51
0.0
 71
     0
 72
   100
 73
     1
 74
     1
 75
     0
 76
     0
 77
     0
 78
     0
281
     0
 65
     1
110
0.0
120
0.0
130
0.0
111
1.0
121
0.0
131
0.0
112
0.0
122
1.0
132
0.0
 79
     0
146
0.0
  0
ENDTAB
  0
TABLE
  2
LTYPE
  5
5
330
0
100
AcDbSymbolTable
 70
    50
  0
LTYPE
  5
13
330
5
100
AcDbSymbolTableRecord
100
AcDbLinetypeTableRecord
  2
ByBlock
 70
     0
  3

 72
    65
 73
     0
 40
0.0
  0
LTYPE
  5
14
330
5
100
AcDbSymbolTableRecord
100
AcDbLinetypeTableRecord
  2
ByLayer
 70
     0
  3

 72
    65
 73
     0
 40
0.0
  0
LTYPE
  5
15
330
5
100
AcDbSymbolTableRecord
100
AcDbLinetypeTableRecord
  2
CONTINUOUS
 70
     0
  3
実線
 72
    65
 73
     0
 40
0.0
  0
LTYPE
  5
22
330
5
100
AcDbSymbolTableRecord
100
AcDbLinetypeTableRecord
  2
DASHED1
 70
     0
  3
--  --  --  --  --  --  --  --  
 72
    65
 73
     2
 40
2.5
 49
1.25
 74
     0
 49
-1.25
 74
     0
  0
LTYPE
  5
23
330
5
100
AcDbSymbolTableRecord
100
AcDbLinetypeTableRecord
  2
DASHED2
 70
     0
  3
----    ----    ----    ----    
 72
    65
 73
     2
 40
5.0
 49
2.5
 74
     0
 49
-2.5
 74
     0
  0
LTYPE
  5
24
330
5
100
AcDbSymbolTableRecord
100
AcDbLinetypeTableRecord
  2
DASHED3
 70
     0
  3
------  ------  ------  ------  
 72
    65
 73
     2
 40
5.0
 49
3.75
 74
     0
 49
-1.25
 74
     0
  0
LTYPE
  5
25
330
5
100
AcDbSymbolTableRecord
100
AcDbLinetypeTableRecord
  2
CENTER1
 70
     0
  3
----- - ----- - ----- - ----- - 
 72
    65
 73
     4
 40
10.0
 49
6.25
 74
     0
 49
-1.25
 74
     0
 49
1.25
 74
     0
 49
-1.25
 74
     0
  0
LTYPE
  5
26
330
5
100
AcDbSymbolTableRecord
100
AcDbLinetypeTableRecord
  2
CENTER2
 70
     0
  3
----------  --  ----------  --  
 72
    65
 73
     4
 40
20.0
 49
12.5
 74
     0
 49
-2.5
 74
     0
 49
2.5
 74
     0
 49
-2.5
 74
     0
  0
LTYPE
  5
27
330
5
100
AcDbSymbolTableRecord
100
AcDbLinetypeTableRecord
  2
PHANTOM1
 70
     0
  3
--- - - --- - - --- - - --- - - 
 72
    65
 73
     6
 40
10.0
 49
3.25
 74
     0
 49
-1.25
 74
     0
 49
1.25
 74
     0
 49
-1.25
 74
     0
 49
1.25
 74
     0
 49
-1.25
 74
     0
  0
LTYPE
  5
28
330
5
100
AcDbSymbolTableRecord
100
AcDbLinetypeTableRecord
  2
PHANTOM2
 70
     0
  3
--------  -  -  --------  -  -  
 72
    65
 73
     6
 40
20.0
 49
10.0
 74
     0
 49
-2.5
 74
     0
 49
1.25
 74
     0
 49
-2.5
 74
     0
 49
1.25
 74
     0
 49
-2.5
 74
     0
  0
LTYPE
  5
29
330
5
100
AcDbSymbolTableRecord
100
AcDbLinetypeTableRecord
  2
DOT
 70
     0
  3
-   -   -   -   -   -   -   -   
 72
    65
 73
     2
 40
2.5
 49
0.625
 74
     0
 49
-1.875
 74
     0
  0
LTYPE
  5
2A
330
5
100
AcDbSymbolTableRecord
100
AcDbLinetypeTableRecord
  2
DUMMY
 70
     0
  3
ダミー
 72
    65
 73
     0
 40
0.0
  0
LTYPE
  5
2B
330
5
100
AcDbSymbolTableRecord
100
AcDbLinetypeTableRecord
  2
RAND1
 70
     0
  3
ランダム線1
 72
    65
 73
     4
 40
10.0
 49
1.0
 74
     0
 49
-2.0
 74
     0
 49
3.0
 74
     0
 49
-4.0
 74
     0
  0
LTYPE
  5
2C
330
5
100
AcDbSymbolTableRecord
100
AcDbLinetypeTableRecord
  2
RAND2
 70
     0
  3
ランダム線2
 72
    65
 73
     4
 40
14.0
 49
2.0
 74
     0
 49
-3.0
 74
     0
 49
4.0
 74
     0
 49
-5.0
 74
     0
  0
LTYPE
  5
2D
330
5
100
AcDbSymbolTableRecord
100
AcDbLinetypeTableRecord
  2
RAND3
 70
     0
  3
ランダム線3
 72
    65
 73
     4
 40
18.0
 49
3.0
 74
     0
 49
-4.0
 74
     0
 49
5.0
 74
     0
 49
-6.0
 74
     0
  0
LTYPE
  5
2E
330
5
100
AcDbSymbolTableRecord
100
AcDbLinetypeTableRecord
  2
RAND4
 70
     0
  3
ランダム線4
 72
    65
 73
     4
 40
22.0
 49
4.0
 74
     0
 49
-5.0
 74
     0
 49
6.0
 74
     0
 49
-7.0
 74
     0
  0
LTYPE
  5
2F
330
5
100
AcDbSymbolTableRecord
100
AcDbLinetypeTableRecord
  2
RAND5
 70
     0
  3
ランダム線5
 72
    65
 73
     4
 40
26.0
 49
5.0
 74
     0
 49
-6.0
 74
     0
 49
7.0
 74
     0
 49
-8.0
 74
     0
  0
LTYPE
  5
30
330
5
100
AcDbSymbolTableRecord
100
AcDbLinetypeTableRecord
  2
LONG1
 70
     0
  3
----------  --  ----------  --  
 72
    65
 73
     4
 40
40.0
 49
32.5
 74
     0
 49
-2.5
 74
     0
 49
2.5
 74
     0
 49
-2.5
 74
     0
  0
LTYPE
  5
31
330
5
100
AcDbSymbolTableRecord
100
AcDbLinetypeTableRecord
  2
LONG2
 70
     0
  3
--------  -  -  --------  -  -  
 72
    65
 73
     6
 40
40.0
 49
30.0
 74
     0
 49
-2.5
 74
     0
 49
1.25
 74
     0
 49
-2.5
 74
     0
 49
1.25
 74
     0
 49
-2.5
 74
     0
  0
LTYPE
  5
32
330
5
100
AcDbSymbolTableRecord
100
AcDbLinetypeTableRecord
  2
LONG3
 70
     0
  3
+++++++++++++++..+++++++++++++++
 72
    65
 73
     2
 40
40.0
 49
37.5
 74
     0
 49
-2.5
 74
     0
  0
LTYPE
  5
33
330
5
100
AcDbSymbolTableRecord
100
AcDbLinetypeTableRecord
  2
LONG4
 70
     0
  3
+++++++++++++++..+++++++++++++++
 72
    65
 73
     2
 40
80.0
 49
75.0
 74
     0
 49
-5.0
 74
     0
  0
LTYPE
  5
34
330
5
100
AcDbSymbolTableRecord
100
AcDbLinetypeTableRecord
  2
LONG5
 70
     0
  3
----------  --  ----------  --  
 72
    65
 73
     4
 40
60.0
 49
37.5
 74
     0
 49
-7.5
 74
     0
 49
7.5
 74
     0
 49
-7.5
 74
     0
  0
LTYPE
  5
35
330
5
100
AcDbSymbolTableRecord
100
AcDbLinetypeTableRecord
  2
DASHED
 70
     0
  3
-------   -------------   ------
 72
    65
 73
     2
 40
7.5
 49
6.0
 74
     0
 49
-1.5
 74
     0
  0
LTYPE
  5
36
330
5
100
AcDbSymbolTableRecord
100
AcDbLinetypeTableRecord
  2
DASHED_SPACED
 70
     0
  3
----        --------        ----
 72
    65
 73
     2
 40
12.0
 49
6.0
 74
     0
 49
-6.0
 74
     0
  0
LTYPE
  5
37
330
5
100
AcDbSymbolTableRecord
100
AcDbLinetypeTableRecord
  2
LONG_DASHED_DOTTED
 70
     0
  3
------------- --- --------------
 72
    65
 73
     4
 40
15.25
 49
12.0
 74
     0
 49
-1.5
 74
     0
 49
0.25
 74
     0
 49
-1.5
 74
     0
  0
LTYPE
  5
38
330
5
100
AcDbSymbolTableRecord
100
AcDbLinetypeTableRecord
  2
LONG_DASHED_DOUBLE-DOTTED
 70
     0
  3
----------- --- --- ------------
 72
    65
 73
     6
 40
17.0
 49
12.0
 74
     0
 49
-1.5
 74
     0
 49
0.25
 74
     0
 49
-1.5
 74
     0
 49
0.25
 74
     0
 49
-1.5
 74
     0
  0
LTYPE
  5
39
330
5
100
AcDbSymbolTableRecord
100
AcDbLinetypeTableRecord
  2
LONG_DASHED_TRIPLICATE-DOTTED
 70
     0
  3
--------- --- --- --- ----------
 72
    65
 73
     8
 40
18.75
 49
12.0
 74
     0
 49
-1.5
 74
     0
 49
0.25
 74
     0
 49
-1.5
 74
     0
 49
0.25
 74
     0
 49
-1.5
 74
     0
 49
0.25
 74
     0
 49
-1.5
 74
     0
  0
LTYPE
  5
3A
330
5
100
AcDbSymbolTableRecord
100
AcDbLinetypeTableRecord
  2
DOTTED
 70
     0
  3
   -       -       -       -    
 72
    65
 73
     2
 40
1.75
 49
0.25
 74
     0
 49
-1.5
 74
     0
  0
LTYPE
  5
3B
330
5
100
AcDbSymbolTableRecord
100
AcDbLinetypeTableRecord
  2
CHAIN
 70
     0
  3
-------------- -- --------------
 72
    65
 73
     4
 40
18.5
 49
12.0
 74
     0
 49
-1.5
 74
     0
 49
3.5
 74
     0
 49
-1.5
 74
     0
  0
LTYPE
  5
3C
330
5
100
AcDbSymbolTableRecord
100
AcDbLinetypeTableRecord
  2
CHAIN_DOUBLE_DASH
 70
     0
  3
------------ -- -- -------------
 72
    65
 73
     6
 40
23.5
 49
12.0
 74
     0
 49
-1.5
 74
     0
 49
3.5
 74
     0
 49
-1.5
 74
     0
 49
3.5
 74
     0
 49
-1.5
 74
     0
  0
LTYPE
  5
3D
330
5
100
AcDbSymbolTableRecord
100
AcDbLinetypeTableRecord
  2
DASHED_DOTTED
 70
     0
  3
-----------     -     ----------
 72
    65
 73
     4
 40
9.25
 49
6.0
 74
     0
 49
-1.5
 74
     0
 49
0.25
 74
     0
 49
-1.5
 74
     0
  0
LTYPE
  5
3E
330
5
100
AcDbSymbolTableRecord
100
AcDbLinetypeTableRecord
  2
DOUBLE-DASHED_DOTTED
 70
     0
  3
------   -----------   -   -----
 72
    65
 73
     6
 40
16.75
 49
6.0
 74
     0
 49
-1.5
 74
     0
 49
6.0
 74
     0
 49
-1.5
 74
     0
 49
0.25
 74
     0
 49
-1.5
 74
     0
  0
LTYPE
  5
3F
330
5
100
AcDbSymbolTableRecord
100
AcDbLinetypeTableRecord
  2
DASHED_DOUBLE-DOTTED
 70
     0
  3
---------    -    -    ---------
 72
    65
 73
     6
 40
11.0
 49
6.0
 74
     0
 49
-1.5
 74
     0
 49
0.25
 74
     0
 49
-1.5
 74
     0
 49
0.25
 74
     0
 49
-1.5
 74
     0
  0
LTYPE
  5
40
330
5
100
AcDbSymbolTableRecord
100
AcDbLinetypeTableRecord
  2
DOUBLE-DASHED_DOUBLE-DOTTED
 70
     0
  3
-----   ---------   -   -   ----
 72
    65
 73
     8
 40
18.5
 49
6.0
 74
     0
 49
-1.5
 74
     0
 49
6.0
 74
     0
 49
-1.5
 74
     0
 49
0.25
 74
     0
 49
-1.5
 74
     0
 49
0.25
 74
     0
 49
-1.5
 74
     0
  0
LTYPE
  5
41
330
5
100
AcDbSymbolTableRecord
100
AcDbLinetypeTableRecord
  2
DASHED_TRIPLICATE-DOTTED
 70
     0
  3
-------    -    -    -    ------
 72
    65
 73
     8
 40
12.75
 49
6.0
 74
     0
 49
-1.5
 74
     0
 49
0.25
 74
     0
 49
-1.5
 74
     0
 49
0.25
 74
     0
 49
-1.5
 74
     0
 49
0.25
 74
     0
 49
-1.5
 74
     0
  0
LTYPE
  5
42
330
5
100
AcDbSymbolTableRecord
100
AcDbLinetypeTableRecord
  2
DOUBLE-DASHED_TRIPLICATE-DOTTED
 70
     0
  3
-----  ---------  -  -  -  -----
 72
    65
 73
    10
 40
20.25
 49
6.0
 74
     0
 49
-1.5
 74
     0
 49
6.0
 74
     0
 49
-1.5
 74
     0
 49
0.25
 74
     0
 49
-1.5
 74
     0
 49
0.25
 74
     0
 49
-1.5
 74
     0
 49
0.25
 74
     0
 49
-1.5
 74
     0
  0
LTYPE
  5
43
330
5
100
AcDbSymbolTableRecord
100
AcDbLinetypeTableRecord
  2
UNDEFINED
 70
     0
  3
--------------------------------
 72
    65
 73
     0
 40
0.0
  0
LTYPE
  5
44
330
5
100
AcDbSymbolTableRecord
100
AcDbLinetypeTableRecord
  2
PLINE2
 70
     0
  3
------     -----------     -----
 72
    65
 73
     2
 40
3.0
 49
2.1
 74
     0
 49
-0.9
 74
     0
  0
LTYPE
  5
45
330
5
100
AcDbSymbolTableRecord
100
AcDbLinetypeTableRecord
  2
PLINE3
 70
     0
  3
------------   ---   -----------
 72
    65
 73
     4
 40
10.0
 49
7.0
 74
     0
 49
-1.0
 74
     0
 49
1.0
 74
     0
 49
-1.0
 74
     0
  0
LTYPE
  5
46
330
5
100
AcDbSymbolTableRecord
100
AcDbLinetypeTableRecord
  2
PLINE4
 70
     0
  3
---------   ---   ---   --------
 72
    65
 73
     6
 40
10.0
 49
5.0
 74
     0
 49
-1.0
 74
     0
 49
1.0
 74
     0
 49
-1.0
 74
     0
 49
1.0
 74
     0
 49
-1.0
 74
     0
  0
LTYPE
  5
47
330
5
100
AcDbSymbolTableRecord
100
AcDbLinetypeTableRecord
  2
PLINE5
 70
     0
  3
------     -----------     -----
 72
    65
 73
     2
 40
5.0
 49
3.5
 74
     0
 49
-1.5
 74
     0
  0
LTYPE
  5
48
330
5
100
AcDbSymbolTableRecord
100
AcDbLinetypeTableRecord
  2
PLINE6
 70
     0
  3
------------   ---   -----------
 72
    65
 73
     4
 40
15.0
 49
10.5
 74
     0
 49
-1.5
 74
     0
 49
1.5
 74
     0
 49
-1.5
 74
     0
  0
LTYPE
  5
49
330
5
100
AcDbSymbolTableRecord
100
AcDbLinetypeTableRecord
  2
PLINE7
 70
     0
  3
---------   ---   ---   --------
 72
    65
 73
     6
 40
15.0
 49
7.5
 74
     0
 49
-1.5
 74
     0
 49
1.5
 74
     0
 49
-1.5
 74
     0
 49
1.5
 74
     0
 49
-1.5
 74
     0
  0
LTYPE
  5
4A
330
5
100
AcDbSymbolTableRecord
100
AcDbLinetypeTableRecord
  2
PLINE8
 70
     0
  3
------     -----------     -----
 72
    65
 73
     2
 40
7.0
 49
4.9
 74
     0
 49
-2.1
 74
     0
  0
LTYPE
  5
4B
330
5
100
AcDbSymbolTableRecord
100
AcDbLinetypeTableRecord
  2
PLINE9
 70
     0
  3
------------   ---   -----------
 72
    65
 73
     4
 40
20.0
 49
14.0
 74
     0
 49
-2.0
 74
     0
 49
2.0
 74
     0
 49
-2.0
 74
     0
  0
LTYPE
  5
4C
330
5
100
AcDbSymbolTableRecord
100
AcDbLinetypeTableRecord
  2
PLINE10
 70
     0
  3
---------   ---   ---   --------
 72
    65
 73
     6
 40
20.0
 49
10.0
 74
     0
 49
-2.0
 74
     0
 49
2.0
 74
     0
 49
-2.0
 74
     0
 49
2.0
 74
     0
 49
-2.0
 74
     0
  0
LTYPE
  5
4D
330
5
100
AcDbSymbolTableRecord
100
AcDbLinetypeTableRecord
  2
PLINE11
 70
     0
  3
------     -----------     -----
 72
    65
 73
     2
 40
9.0
 49
6.299999999999999
 74
     0
 49
-2.7
 74
     0
  0
LTYPE
  5
4E
330
5
100
AcDbSymbolTableRecord
100
AcDbLinetypeTableRecord
  2
PLINE12
 70
     0
  3
------------   ---   -----------
 72
    65
 73
     4
 40
25.0
 49
17.5
 74
     0
 49
-2.5
 74
     0
 49
2.5
 74
     0
 49
-2.5
 74
     0
  0
LTYPE
  5
4F
330
5
100
AcDbSymbolTableRecord
100
AcDbLinetypeTableRecord
  2
PLINE13
 70
     0
  3
---------   ---   ---   --------
 72
    65
 73
     6
 40
25.0
 49
12.5
 74
     0
 49
-2.5
 74
     0
 49
2.5
 74
     0
 49
-2.5
 74
     0
 49
2.5
 74
     0
 49
-2.5
 74
     0
  0
LTYPE
  5
50
330
5
100
AcDbSymbolTableRecord
100
AcDbLinetypeTableRecord
  2
PLINE14
 70
     0
  3
------     -----------     -----
 72
    65
 73
     2
 40
11.0
 49
7.7
 74
     0
 49
-3.299999999999999
 74
     0
  0
LTYPE
  5
51
330
5
100
AcDbSymbolTableRecord
100
AcDbLinetypeTableRecord
  2
PLINE15
 70
     0
  3
------------   ---   -----------
 72
    65
 73
     4
 40
30.0
 49
21.0
 74
     0
 49
-3.0
 74
     0
 49
3.0
 74
     0
 49
-3.0
 74
     0
  0
LTYPE
  5
52
330
5
100
AcDbSymbolTableRecord
100
AcDbLinetypeTableRecord
  2
PLINE16
 70
     0
  3
---------   ---   ---   --------
 72
    65
 73
     6
 40
30.0
 49
15.0
 74
     0
 49
-3.0
 74
     0
 49
3.0
 74
     0
 49
-3.0
 74
     0
 49
3.0
 74
     0
 49
-3.0
 74
     0
  0
ENDTAB
  0
TABLE
  2
LAYER
  5
2
102
{ACAD_XDICTIONARY
360
175
102
}
330
0
100
AcDbSymbolTable
 70
     5
  0
LAYER
  5
10
330
2
100
AcDbSymbolTableRecord
100
AcDbLayerTableRecord
  2
0
 70
     0
 62
     7
  6
CONTINUOUS
370
    -3
390
F
  0
LAYER
  5
128
330
2
100
AcDbSymbolTableRecord
100
AcDbLayerTableRecord
  2
Defpoints
 70
     0
 62
     7
  6
CONTINUOUS
290
     0
370
    -3
390
F
  0
LAYER
  5
178
330
2
100
AcDbSymbolTableRecord
100
AcDbLayerTableRecord
  2
寸法
 70
     0
 62
     7
  6
CONTINUOUS
370
    -3
390
F
  0
LAYER
  5
179
330
2
100
AcDbSymbolTableRecord
100
AcDbLayerTableRecord
  2
躯体と製品
 70
     0
 62
     7
  6
CONTINUOUS
370
    -3
390
F
  0
LAYER
  5
4F62
330
2
100
AcDbSymbolTableRecord
100
AcDbLayerTableRecord
  2
図枠
 70
     0
 62
     7
  6
CONTINUOUS
370
    -3
390
F
  0
ENDTAB
  0
TABLE
  2
STYLE
  5
3
330
0
100
AcDbSymbolTable
 70
     5
  0
STYLE
  5
11
330
3
100
AcDbSymbolTableRecord
100
AcDbTextStyleTableRecord
  2
STANDARD
 70
     0
 40
0.0
 41
1.0
 50
0.0
 71
     0
 42
0.2
  3
txt
  4
bigfont.shx
  0
STYLE
  5
53
330
3
100
AcDbSymbolTableRecord
100
AcDbTextStyleTableRecord
  2
TATEGAKI
 70
     4
 40
0.0
 41
1.0
 50
0.0
 71
     0
 42
1.0
  3
txt
  4
bigfont.shx
  0
STYLE
  5
123
330
3
100
AcDbSymbolTableRecord
100
AcDbTextStyleTableRecord
  2
ACAD
 70
     0
 40
5.0
 41
0.8
 50
0.0
 71
     0
 42
5.0
  3
romans.shx
  4
extfont.shx
  0
STYLE
  5
3A5F
330
3
100
AcDbSymbolTableRecord
100
AcDbTextStyleTableRecord
  2
VERTXT
 70
     4
 40
0.0
 41
0.8582679999999999
 50
0.0
 71
     0
 42
3.5
  3
txt.shx
  4
BIGFONT
  0
STYLE
  5
50AD
330
3
100
AcDbSymbolTableRecord
100
AcDbTextStyleTableRecord
  2
STANDARD2
 70
     0
 40
0.0
 41
0.8582679999999999
 50
0.0
 71
     0
 42
3.5
  3
txt.shx
  4
EXTFONT
  0
ENDTAB
  0
TABLE
  2
VIEW
  5
6
330
0
100
AcDbSymbolTable
 70
     0
  0
ENDTAB
  0
TABLE
  2
UCS
  5
7
330
0
100
AcDbSymbolTable
 70
     0
  0
ENDTAB
  0
TABLE
  2
APPID
  5
9
330
0
100
AcDbSymbolTable
 70
     1
  0
APPID
  5
12
330
9
100
AcDbSymbolTableRecord
100
AcDbRegAppTableRecord
  2
ACAD
 70
     0
  0
ENDTAB
  0
TABLE
  2
DIMSTYLE
  5
A
330
0
100
AcDbSymbolTable
 70
     3
100
AcDbDimStyleTable
 71
     1
340
126
  0
DIMSTYLE
105
11C
330
A
100
AcDbSymbolTableRecord
100
AcDbDimStyleTableRecord
  2
Standard
 70
     0
340
11
  0
DIMSTYLE
105
126
102
{ACAD_REACTORS
330
71CB
330
71D8
330
71E5
330
71F2
330
71FF
330
7217
330
7224
330
7231
330
723D
330
7248
330
7253
330
725E
330
726A
330
72C4
102
}
330
A
100
AcDbSymbolTableRecord
100
AcDbDimStyleTableRecord
  2
AutoCAD
 70
     0
 41
1.0
 42
0.0
 44
0.0
 73
     0
 77
     1
140
5.0
147
1.0
174
     1
176
     4
177
     4
178
     3
271
     0
272
     0
289
     0
340
123
341
15B0
342
11E
  0
DIMSTYLE
105
2CBB
330
A
100
AcDbSymbolTableRecord
100
AcDbDimStyleTableRecord
  2
111
 70
     0
 41
1.0
 42
0.0
 44
0.0
 73
     0
 77
     1
140
5.0
147
1.0
174
     1
176
     4
177
     4
178
     3
271
     0
272
     0
289
     0
340
123
341
15B0
342
2CB5
  0
ENDTAB
  0
TABLE
  2
BLOCK_RECORD
  5
1
330
0
100
AcDbSymbolTable
 70
    19
  0
BLOCK_RECORD
  5
1E
102
{ACAD_XDICTIONARY
360
28B
102
}
330
1
100
AcDbSymbolTableRecord
100
AcDbBlockTableRecord
  2
*Model_Space
340
21
  0
BLOCK_RECORD
  5
1A
102
{ACAD_XDICTIONARY
360
28D
102
}
330
1
100
AcDbSymbolTableRecord
100
AcDbBlockTableRecord
  2
*Paper_Space
340
1D
  0
BLOCK_RECORD
  5
11E
330
1
100
AcDbSymbolTableRecord
100
AcDbBlockTableRecord
  2
_Dot
340
0
102
{BLKREFS
331
71DD
331
71DE
331
71F7
331
71F8
331
7204
331
7205
331
721C
331
721D
331
724B
331
724C
331
7256
331
7257
331
727A
331
727B
331
7283
331
7284
331
728C
331
728D
331
7294
331
7295
331
729B
331
729C
331
72A3
331
72A4
331
72AC
331
72AD
331
72B3
331
72B4
331
72D4
331
72D5
102
}
  0
BLOCK_RECORD
  5
15B0
330
1
100
AcDbSymbolTableRecord
100
AcDbBlockTableRecord
  2
_None
340
0
  0
BLOCK_RECORD
  5
2CB5
330
1
100
AcDbSymbolTableRecord
100
AcDbBlockTableRecord
  2
_Open30
340
0
  0
BLOCK_RECORD
  5
35E3
330
1
100
AcDbSymbolTableRecord
100
AcDbBlockTableRecord
  2
_DotBlank
340
0
  0
BLOCK_RECORD
  5
71CC
330
1
100
AcDbSymbolTableRecord
100
AcDbBlockTableRecord
  2
*D4
340
0
  0
BLOCK_RECORD
  5
71D9
330
1
100
AcDbSymbolTableRecord
100
AcDbBlockTableRecord
  2
*D5
340
0
  0
BLOCK_RECORD
  5
71E6
330
1
100
AcDbSymbolTableRecord
100
AcDbBlockTableRecord
  2
*D6
340
0
  0
BLOCK_RECORD
  5
71F3
330
1
100
AcDbSymbolTableRecord
100
AcDbBlockTableRecord
  2
*D7
340
0
  0
BLOCK_RECORD
  5
7200
330
1
100
AcDbSymbolTableRecord
100
AcDbBlockTableRecord
  2
*D8
340
0
  0
BLOCK_RECORD
  5
7218
330
1
100
AcDbSymbolTableRecord
100
AcDbBlockTableRecord
  2
*D10
340
0
  0
BLOCK_RECORD
  5
7225
330
1
100
AcDbSymbolTableRecord
100
AcDbBlockTableRecord
  2
*D11
340
0
  0
BLOCK_RECORD
  5
7232
330
1
100
AcDbSymbolTableRecord
100
AcDbBlockTableRecord
  2
*D12
340
0
  0
BLOCK_RECORD
  5
723E
330
1
100
AcDbSymbolTableRecord
100
AcDbBlockTableRecord
  2
*D13
340
0
  0
BLOCK_RECORD
  5
7249
330
1
100
AcDbSymbolTableRecord
100
AcDbBlockTableRecord
  2
*D14
340
0
  0
BLOCK_RECORD
  5
7254
330
1
100
AcDbSymbolTableRecord
100
AcDbBlockTableRecord
  2
*D15
340
0
  0
BLOCK_RECORD
  5
725F
330
1
100
AcDbSymbolTableRecord
100
AcDbBlockTableRecord
  2
*D16
340
0
  0
BLOCK_RECORD
  5
726B
330
1
100
AcDbSymbolTableRecord
100
AcDbBlockTableRecord
  2
*D17
340
0
  0
BLOCK_RECORD
  5
72C5
330
1
100
AcDbSymbolTableRecord
100
AcDbBlockTableRecord
  2
*D18
340
0
  0
ENDTAB
  0
ENDSEC
  0
SECTION
  2
BLOCKS
  0
BLOCK
  5
1F
330
1E
100
AcDbEntity
  8
0
100
AcDbBlockBegin
  2
*Model_Space
 70
     0
 10
0.0
 20
0.0
 30
0.0
  3
*Model_Space
  1

  0
ENDBLK
  5
20
330
1E
100
AcDbEntity
  8
0
100
AcDbBlockEnd
  0
BLOCK
  5
1B
330
1A
100
AcDbEntity
 67
     1
  8
0
100
AcDbBlockBegin
  2
*Paper_Space
 70
     0
 10
0.0
 20
0.0
 30
0.0
  3
*Paper_Space
  1

  0
ENDBLK
  5
1C
330
1A
100
AcDbEntity
 67
     1
  8
0
100
AcDbBlockEnd
  0
BLOCK
  5
121
330
11E
100
AcDbEntity
  8
0
100
AcDbBlockBegin
  2
_Dot
 70
     0
 10
0.0
 20
0.0
 30
0.0
  3
_Dot
  1

  0
LWPOLYLINE
  5
11F
330
11E
100
AcDbEntity
  8
0
  6
ByBlock
 62
     0
100
AcDbPolyline
 90
        2
 70
     1
 43
0.5
 10
-0.25
 20
0.0
 42
1.0
 10
0.25
 20
0.0
 42
1.0
  0
LINE
  5
120
330
11E
100
AcDbEntity
  8
0
  6
ByBlock
 62
     0
370
    -2
100
AcDbLine
 10
-0.5
 20
0.0
 30
0.0
 11
-1.0
 21
0.0
 31
0.0
  0
ENDBLK
  5
122
330
11E
100
AcDbEntity
  8
0
100
AcDbBlockEnd
  0
BLOCK
  5
15B1
330
15B0
100
AcDbEntity
  8
0
100
AcDbBlockBegin
  2
_None
 70
     0
 10
0.0
 20
0.0
 30
0.0
  3
_None
  1

  0
ENDBLK
  5
15B2
330
15B0
100
AcDbEntity
  8
0
100
AcDbBlockEnd
  0
BLOCK
  5
2CB9
330
2CB5
100
AcDbEntity
  8
0
100
AcDbBlockBegin
  2
_Open30
 70
     0
 10
0.0
 20
0.0
 30
0.0
  3
_Open30
  1

  0
LINE
  5
2CB6
330
2CB5
100
AcDbEntity
  8
0
  6
ByBlock
 62
     0
370
    -2
100
AcDbLine
 10
-1.0
 20
0.26794919
 30
0.0
 11
0.0
 21
0.0
 31
0.0
  0
LINE
  5
2CB7
330
2CB5
100
AcDbEntity
  8
0
  6
ByBlock
 62
     0
370
    -2
100
AcDbLine
 10
0.0
 20
0.0
 30
0.0
 11
-1.0
 21
-0.26794919
 31
0.0
  0
LINE
  5
2CB8
330
2CB5
100
AcDbEntity
  8
0
  6
ByBlock
 62
     0
370
    -2
100
AcDbLine
 10
0.0
 20
0.0
 30
0.0
 11
-1.0
 21
0.0
 31
0.0
  0
ENDBLK
  5
2CBA
330
2CB5
100
AcDbEntity
  8
0
100
AcDbBlockEnd
  0
BLOCK
  5
35E6
330
35E3
100
AcDbEntity
  8
0
100
AcDbBlockBegin
  2
_DotBlank
 70
     0
 10
0.0
 20
0.0
 30
0.0
  3
_DotBlank
  1

  0
CIRCLE
  5
35E4
330
35E3
100
AcDbEntity
  8
0
  6
ByBlock
 62
     0
370
    -2
100
AcDbCircle
 10
0.0
 20
0.0
 30
0.0
 40
0.5
  0
LINE
  5
35E5
330
35E3
100
AcDbEntity
  8
0
  6
ByBlock
 62
     0
370
    -2
100
AcDbLine
 10
-0.5
 20
0.0
 30
0.0
 11
-1.0
 21
0.0
 31
0.0
  0
ENDBLK
  5
35E7
330
35E3
100
AcDbEntity
  8
0
100
AcDbBlockEnd
  0
BLOCK
  5
71D6
330
71CC
100
AcDbEntity
  8
0
100
AcDbBlockBegin
  2
*D4
 70
     1
 10
0.0
 20
0.0
 30
0.0
  3
*D4
  1

  0
LINE
  5
7280
330
71CC
100
AcDbEntity
  8
寸法
  6
Continuous
 62
     4
370
    -2
100
AcDbLine
 10
1513.143774869574
 20
863.5865099287537
 30
0.0
 11
1513.143774869574
 21
916.5865099287536
 31
0.0
  0
LINE
  5
7281
330
71CC
100
AcDbEntity
  8
寸法
  6
Continuous
 62
     4
370
    -2
100
AcDbLine
 10
1546.343774869574
 20
864.1091322124436
 30
0.0
 11
1546.343774869574
 21
916.5865099287536
 31
0.0
  0
LINE
  5
7282
330
71CC
100
AcDbEntity
  8
寸法
  6
Continuous
 62
     4
370
    -2
100
AcDbLine
 10
1514.143774869574
 20
916.5865099287536
 30
0.0
 11
1545.343774869574
 21
916.5865099287536
 31
0.0
  0
INSERT
  5
7283
330
71CC
100
AcDbEntity
  8
寸法
  6
Continuous
 62
     4
370
    -2
100
AcDbBlockReference
  2
_Dot
 10
1513.143774869574
 20
916.5865099287536
 30
0.0
 50
180.0
  0
INSERT
  5
7284
330
71CC
100
AcDbEntity
  8
寸法
  6
Continuous
 62
     4
370
    -2
100
AcDbBlockReference
  2
_Dot
 10
1546.343774869574
 20
916.5865099287536
 30
0.0
  0
MTEXT
  5
7285
330
71CC
100
AcDbEntity
  8
寸法
  6
Continuous
 62
     3
100
AcDbMText
 10
1529.743774869574
 20
920.0865099287536
 30
0.0
 40
5.0
 41
0.0
 71
     5
 72
     1
  1
\A1;33.2
  7
ACAD
 73
     1
 44
1.0
1001
ACAD
1000
MTEXTBEGIN
1070
    73
1070
     1
1070
    44
1040
1.0
1070
    74
1070
     0
1000
MTEXTEND
  0
POINT
  5
7286
330
71CC
100
AcDbEntity
  8
Defpoints
  6
Continuous
 62
     0
100
AcDbPoint
 10
1513.143774869574
 20
863.5865099287537
 30
0.0
  0
POINT
  5
7287
330
71CC
100
AcDbEntity
  8
Defpoints
  6
Continuous
 62
     0
100
AcDbPoint
 10
1546.343774869574
 20
864.1091322124436
 30
0.0
  0
POINT
  5
7288
330
71CC
100
AcDbEntity
  8
Defpoints
  6
Continuous
 62
     0
100
AcDbPoint
 10
1546.343774869574
 20
916.5865099287536
 30
0.0
  0
ENDBLK
  5
71D7
330
71CC
100
AcDbEntity
  8
0
100
AcDbBlockEnd
  0
BLOCK
  5
71E3
330
71D9
100
AcDbEntity
  8
0
100
AcDbBlockBegin
  2
*D5
 70
     1
 10
0.0
 20
0.0
 30
0.0
  3
*D5
  1

  0
LINE
  5
71DA
330
71D9
100
AcDbEntity
  8
寸法
  6
Continuous
 62
     4
370
    -2
100
AcDbLine
 10
1526.343774869574
 20
878.5865099287535
 30
0.0
 11
1526.343774869574
 21
901.5865099287536
 31
0.0
  0
LINE
  5
71DB
330
71D9
100
AcDbEntity
  8
寸法
  6
Continuous
 62
     4
370
    -2
100
AcDbLine
 10
1546.343774869574
 20
864.1091322124436
 30
0.0
 11
1546.343774869574
 21
901.5865099287536
 31
0.0
  0
LINE
  5
71DC
330
71D9
100
AcDbEntity
  8
寸法
  6
Continuous
 62
     4
370
    -2
100
AcDbLine
 10
1527.343774869574
 20
901.5865099287536
 30
0.0
 11
1545.343774869574
 21
901.5865099287536
 31
0.0
  0
INSERT
  5
71DD
330
71D9
100
AcDbEntity
  8
寸法
  6
Continuous
 62
     4
370
    -2
100
AcDbBlockReference
  2
_Dot
 10
1526.343774869574
 20
901.5865099287536
 30
0.0
 50
180.0
  0
INSERT
  5
71DE
330
71D9
100
AcDbEntity
  8
寸法
  6
Continuous
 62
     4
370
    -2
100
AcDbBlockReference
  2
_Dot
 10
1546.343774869574
 20
901.5865099287536
 30
0.0
  0
MTEXT
  5
71DF
330
71D9
100
AcDbEntity
  8
寸法
  6
Continuous
 62
     3
100
AcDbMText
 10
1536.343774869574
 20
905.0865099287536
 30
0.0
 40
5.0
 41
0.0
 71
     5
 72
     1
  1
\A1;20
  7
ACAD
 73
     1
 44
1.0
1001
ACAD
1000
MTEXTBEGIN
1070
    73
1070
     1
1070
    44
1040
1.0
1070
    74
1070
     0
1000
MTEXTEND
  0
POINT
  5
71E0
330
71D9
100
AcDbEntity
  8
Defpoints
  6
Continuous
 62
     0
100
AcDbPoint
 10
1526.343774869574
 20
878.5865099287535
 30
0.0
  0
POINT
  5
71E1
330
71D9
100
AcDbEntity
  8
Defpoints
  6
Continuous
 62
     0
100
AcDbPoint
 10
1546.343774869574
 20
864.1091322124436
 30
0.0
  0
POINT
  5
71E2
330
71D9
100
AcDbEntity
  8
Defpoints
  6
Continuous
 62
     0
100
AcDbPoint
 10
1546.343774869574
 20
901.5865099287536
 30
0.0
  0
ENDBLK
  5
71E4
330
71D9
100
AcDbEntity
  8
0
100
AcDbBlockEnd
  0
BLOCK
  5
71F0
330
71E6
100
AcDbEntity
  8
0
100
AcDbBlockBegin
  2
*D6
 70
     1
 10
0.0
 20
0.0
 30
0.0
  3
*D6
  1

  0
LINE
  5
7277
330
71E6
100
AcDbEntity
  8
寸法
  6
Continuous
 62
     4
370
    -2
100
AcDbLine
 10
1513.143774869574
 20
863.5865099287537
 30
0.0
 11
1513.143774869574
 21
931.5865099287535
 31
0.0
  0
LINE
  5
7278
330
71E6
100
AcDbEntity
  8
寸法
  6
Continuous
 62
     4
370
    -2
100
AcDbLine
 10
1888.143774869574
 20
804.644620762396
 30
0.0
 11
1888.143774869574
 21
931.5865099287535
 31
0.0
  0
LINE
  5
7279
330
71E6
100
AcDbEntity
  8
寸法
  6
Continuous
 62
     4
370
    -2
100
AcDbLine
 10
1514.143774869574
 20
931.5865099287535
 30
0.0
 11
1887.143774869574
 21
931.5865099287535
 31
0.0
  0
INSERT
  5
727A
330
71E6
100
AcDbEntity
  8
寸法
  6
Continuous
 62
     4
370
    -2
100
AcDbBlockReference
  2
_Dot
 10
1513.143774869574
 20
931.5865099287535
 30
0.0
 50
180.0
  0
INSERT
  5
727B
330
71E6
100
AcDbEntity
  8
寸法
  6
Continuous
 62
     4
370
    -2
100
AcDbBlockReference
  2
_Dot
 10
1888.143774869574
 20
931.5865099287535
 30
0.0
  0
MTEXT
  5
727C
330
71E6
100
AcDbEntity
  8
寸法
  6
Continuous
 62
     3
100
AcDbMText
 10
1700.643774869574
 20
935.0865099287535
 30
0.0
 40
5.0
 41
0.0
 71
     5
 72
     1
  1
\A1;W
  7
ACAD
 73
     1
 44
1.0
1001
ACAD
1000
MTEXTBEGIN
1070
    73
1070
     1
1070
    44
1040
1.0
1070
    74
1070
     0
1000
MTEXTEND
  0
POINT
  5
727D
330
71E6
100
AcDbEntity
  8
Defpoints
  6
Continuous
 62
     0
100
AcDbPoint
 10
1513.143774869574
 20
863.5865099287537
 30
0.0
  0
POINT
  5
727E
330
71E6
100
AcDbEntity
  8
Defpoints
  6
Continuous
 62
     0
100
AcDbPoint
 10
1888.143774869574
 20
804.644620762396
 30
0.0
  0
POINT
  5
727F
330
71E6
100
AcDbEntity
  8
Defpoints
  6
Continuous
 62
     0
100
AcDbPoint
 10
1888.143774869574
 20
931.5865099287535
 30
0.0
  0
ENDBLK
  5
71F1
330
71E6
100
AcDbEntity
  8
0
100
AcDbBlockEnd
  0
BLOCK
  5
71FD
330
71F3
100
AcDbEntity
  8
0
100
AcDbBlockBegin
  2
*D7
 70
     1
 10
0.0
 20
0.0
 30
0.0
  3
*D7
  1

  0
LINE
  5
71F4
330
71F3
100
AcDbEntity
  8
寸法
  6
Continuous
 62
     4
370
    -2
100
AcDbLine
 10
1539.143774869574
 20
876.5865099287536
 30
0.0
 11
1581.343774869574
 21
876.5865099287536
 31
0.0
  0
LINE
  5
71F5
330
71F3
100
AcDbEntity
  8
寸法
  6
Continuous
 62
     4
370
    -2
100
AcDbLine
 10
1548.343774869574
 20
861.5865099287537
 30
0.0
 11
1581.343774869574
 21
861.5865099287537
 31
0.0
  0
LINE
  5
71F6
330
71F3
100
AcDbEntity
  8
寸法
  6
Continuous
 62
     4
370
    -2
100
AcDbLine
 10
1581.343774869574
 20
875.5865099287536
 30
0.0
 11
1581.343774869574
 21
862.5865099287537
 31
0.0
  0
INSERT
  5
71F7
330
71F3
100
AcDbEntity
  8
寸法
  6
Continuous
 62
     4
370
    -2
100
AcDbBlockReference
  2
_Dot
 10
1581.343774869574
 20
876.5865099287536
 30
0.0
 50
90.0
  0
INSERT
  5
71F8
330
71F3
100
AcDbEntity
  8
寸法
  6
Continuous
 62
     4
370
    -2
100
AcDbBlockReference
  2
_Dot
 10
1581.343774869574
 20
861.5865099287537
 30
0.0
 50
270.0
  0
MTEXT
  5
71F9
330
71F3
100
AcDbEntity
  8
寸法
  6
Continuous
 62
     3
100
AcDbMText
 10
1577.843774869574
 20
869.0865099287538
 30
0.0
 40
5.0
 41
0.0
 71
     5
 72
     1
  1
\A1;15
  7
ACAD
 11
0.0000000000000001
 21
1.0
 31
0.0
 73
     1
 44
1.0
1001
ACAD
1000
MTEXTBEGIN
1070
    73
1070
     1
1070
    44
1040
1.0
1070
    74
1070
     0
1000
MTEXTEND
  0
POINT
  5
71FA
330
71F3
100
AcDbEntity
  8
Defpoints
  6
Continuous
 62
     0
100
AcDbPoint
 10
1539.143774869574
 20
876.5865099287536
 30
0.0
  0
POINT
  5
71FB
330
71F3
100
AcDbEntity
  8
Defpoints
  6
Continuous
 62
     0
100
AcDbPoint
 10
1548.343774869574
 20
861.5865099287537
 30
0.0
  0
POINT
  5
71FC
330
71F3
100
AcDbEntity
  8
Defpoints
  6
Continuous
 62
     0
100
AcDbPoint
 10
1581.343774869574
 20
861.5865099287537
 30
0.0
  0
ENDBLK
  5
71FE
330
71F3
100
AcDbEntity
  8
0
100
AcDbBlockEnd
  0
BLOCK
  5
720A
330
7200
100
AcDbEntity
  8
0
100
AcDbBlockBegin
  2
*D8
 70
     1
 10
0.0
 20
0.0
 30
0.0
  3
*D8
  1

  0
LINE
  5
7201
330
7200
100
AcDbEntity
  8
寸法
  6
Continuous
 62
     4
370
    -2
100
AcDbLine
 10
1548.343774869574
 20
861.5865099287537
 30
0.0
 11
1581.343774869574
 21
861.5865099287537
 31
0.0
  0
LINE
  5
7202
330
7200
100
AcDbEntity
  8
寸法
  6
Continuous
 62
     4
370
    -2
100
AcDbLine
 10
1548.343774869574
 20
825.5865099287536
 30
0.0
 11
1581.343774869574
 21
825.5865099287536
 31
0.0
  0
LINE
  5
7203
330
7200
100
AcDbEntity
  8
寸法
  6
Continuous
 62
     4
370
    -2
100
AcDbLine
 10
1581.343774869574
 20
860.5865099287537
 30
0.0
 11
1581.343774869574
 21
826.5865099287536
 31
0.0
  0
INSERT
  5
7204
330
7200
100
AcDbEntity
  8
寸法
  6
Continuous
 62
     4
370
    -2
100
AcDbBlockReference
  2
_Dot
 10
1581.343774869574
 20
861.5865099287537
 30
0.0
 50
90.0
  0
INSERT
  5
7205
330
7200
100
AcDbEntity
  8
寸法
  6
Continuous
 62
     4
370
    -2
100
AcDbBlockReference
  2
_Dot
 10
1581.343774869574
 20
825.5865099287536
 30
0.0
 50
270.0
  0
MTEXT
  5
7206
330
7200
100
AcDbEntity
  8
寸法
  6
Continuous
 62
     3
100
AcDbMText
 10
1577.843774869574
 20
843.5865099287539
 30
0.0
 40
5.0
 41
0.0
 71
     5
 72
     1
  1
\A1;36
  7
ACAD
 11
0.0000000000000001
 21
1.0
 31
0.0
 73
     1
 44
1.0
1001
ACAD
1000
MTEXTBEGIN
1070
    73
1070
     1
1070
    44
1040
1.0
1070
    74
1070
     0
1000
MTEXTEND
  0
POINT
  5
7207
330
7200
100
AcDbEntity
  8
Defpoints
  6
Continuous
 62
     0
100
AcDbPoint
 10
1548.343774869574
 20
861.5865099287537
 30
0.0
  0
POINT
  5
7208
330
7200
100
AcDbEntity
  8
Defpoints
  6
Continuous
 62
     0
100
AcDbPoint
 10
1548.343774869574
 20
825.5865099287536
 30
0.0
  0
POINT
  5
7209
330
7200
100
AcDbEntity
  8
Defpoints
  6
Continuous
 62
     0
100
AcDbPoint
 10
1581.343774869574
 20
825.5865099287536
 30
0.0
  0
ENDBLK
  5
720B
330
7200
100
AcDbEntity
  8
0
100
AcDbBlockEnd
  0
BLOCK
  5
7222
330
7218
100
AcDbEntity
  8
0
100
AcDbBlockBegin
  2
*D10
 70
     1
 10
0.0
 20
0.0
 30
0.0
  3
*D10
  1

  0
LINE
  5
7219
330
7218
100
AcDbEntity
  8
寸法
  6
Continuous
 62
     4
370
    -2
100
AcDbLine
 10
1890.143774869574
 20
802.644620762396
 30
0.0
 11
1948.143774869574
 21
802.644620762396
 31
0.0
  0
LINE
  5
721A
330
7218
100
AcDbEntity
  8
寸法
  6
Continuous
 62
     4
370
    -2
100
AcDbLine
 10
1890.143774869574
 20
712.6446207623957
 30
0.0
 11
1948.143774869574
 21
712.6446207623957
 31
0.0
  0
LINE
  5
721B
330
7218
100
AcDbEntity
  8
寸法
  6
Continuous
 62
     4
370
    -2
100
AcDbLine
 10
1948.143774869574
 20
801.644620762396
 30
0.0
 11
1948.143774869574
 21
713.6446207623958
 31
0.0
  0
INSERT
  5
721C
330
7218
100
AcDbEntity
  8
寸法
  6
Continuous
 62
     4
370
    -2
100
AcDbBlockReference
  2
_Dot
 10
1948.143774869574
 20
802.644620762396
 30
0.0
 50
90.0
  0
INSERT
  5
721D
330
7218
100
AcDbEntity
  8
寸法
  6
Continuous
 62
     4
370
    -2
100
AcDbBlockReference
  2
_Dot
 10
1948.143774869574
 20
712.6446207623957
 30
0.0
 50
270.0
  0
MTEXT
  5
721E
330
7218
100
AcDbEntity
  8
寸法
  6
Continuous
 62
     3
100
AcDbMText
 10
1944.643774869574
 20
757.6446207623962
 30
0.0
 40
5.0
 41
0.0
 71
     5
 72
     1
  1
\A1;90
  7
ACAD
 11
0.0000000000000001
 21
1.0
 31
0.0
 73
     1
 44
1.0
1001
ACAD
1000
MTEXTBEGIN
1070
    73
1070
     1
1070
    44
1040
1.0
1070
    74
1070
     0
1000
MTEXTEND
  0
POINT
  5
721F
330
7218
100
AcDbEntity
  8
Defpoints
  6
Continuous
 62
     0
100
AcDbPoint
 10
1890.143774869574
 20
802.644620762396
 30
0.0
  0
POINT
  5
7220
330
7218
100
AcDbEntity
  8
Defpoints
  6
Continuous
 62
     0
100
AcDbPoint
 10
1890.143774869574
 20
712.6446207623957
 30
0.0
  0
POINT
  5
7221
330
7218
100
AcDbEntity
  8
Defpoints
  6
Continuous
 62
     0
100
AcDbPoint
 10
1948.143774869574
 20
712.6446207623957
 30
0.0
  0
ENDBLK
  5
7223
330
7218
100
AcDbEntity
  8
0
100
AcDbBlockEnd
  0
BLOCK
  5
722F
330
7225
100
AcDbEntity
  8
0
100
AcDbBlockBegin
  2
*D11
 70
     1
 10
0.0
 20
0.0
 30
0.0
  3
*D11
  1

  0
LINE
  5
72A9
330
7225
100
AcDbEntity
  8
寸法
  6
Continuous
 62
     4
370
    -2
100
AcDbLine
 10
1815.84872840877
 20
755.0638876450639
 30
0.0
 11
1928.143774869574
 21
755.0638876450639
 31
0.0
  0
LINE
  5
72AA
330
7225
100
AcDbEntity
  8
寸法
  6
Continuous
 62
     4
370
    -2
100
AcDbLine
 10
1890.143774869574
 20
712.6446207623957
 30
0.0
 11
1928.143774869574
 21
712.6446207623957
 31
0.0
  0
LINE
  5
72AB
330
7225
100
AcDbEntity
  8
寸法
  6
Continuous
 62
     4
370
    -2
100
AcDbLine
 10
1928.143774869574
 20
754.0638876450639
 30
0.0
 11
1928.143774869574
 21
713.6446207623958
 31
0.0
  0
INSERT
  5
72AC
330
7225
100
AcDbEntity
  8
寸法
  6
Continuous
 62
     4
370
    -2
100
AcDbBlockReference
  2
_Dot
 10
1928.143774869574
 20
755.0638876450639
 30
0.0
 50
90.0
  0
INSERT
  5
72AD
330
7225
100
AcDbEntity
  8
寸法
  6
Continuous
 62
     4
370
    -2
100
AcDbBlockReference
  2
_Dot
 10
1928.143774869574
 20
712.6446207623957
 30
0.0
 50
270.0
  0
MTEXT
  5
72AE
330
7225
100
AcDbEntity
  8
寸法
  6
Continuous
 62
     3
100
AcDbMText
 10
1924.643774869574
 20
733.8542542037302
 30
0.0
 40
5.0
 41
0.0
 71
     5
 72
     1
  1
\A1;44
  7
ACAD
 11
0.0000000000000001
 21
1.0
 31
0.0
 73
     1
 44
1.0
1001
ACAD
1000
MTEXTBEGIN
1070
    73
1070
     1
1070
    44
1040
1.0
1070
    74
1070
     0
1000
MTEXTEND
  0
POINT
  5
72AF
330
7225
100
AcDbEntity
  8
Defpoints
  6
Continuous
 62
     0
100
AcDbPoint
 10
1815.84872840877
 20
755.0638876450639
 30
0.0
  0
POINT
  5
72B0
330
7225
100
AcDbEntity
  8
Defpoints
  6
Continuous
 62
     0
100
AcDbPoint
 10
1890.143774869574
 20
712.6446207623957
 30
0.0
  0
POINT
  5
72B1
330
7225
100
AcDbEntity
  8
Defpoints
  6
Continuous
 62
     0
100
AcDbPoint
 10
1928.143774869574
 20
712.6446207623957
 30
0.0
  0
ENDBLK
  5
7230
330
7225
100
AcDbEntity
  8
0
100
AcDbBlockEnd
  0
BLOCK
  5
723B
330
7232
100
AcDbEntity
  8
0
100
AcDbBlockBegin
  2
*D12
 70
     1
 10
0.0
 20
0.0
 30
0.0
  3
*D12
  1

  0
LINE
  5
72A1
330
7232
100
AcDbEntity
  8
寸法
  6
Continuous
 62
     4
370
    -2
100
AcDbLine
 10
1888.143774869574
 20
710.644620762396
 30
0.0
 11
1888.143774869574
 21
630.0638876450636
 31
0.0
  0
LINE
  5
72A2
330
7232
100
AcDbEntity
  8
寸法
  6
Continuous
 62
     4
370
    -2
100
AcDbLine
 10
1887.143774869574
 20
630.0638876450636
 30
0.0
 11
1813.143774869575
 21
630.0638876450636
 31
0.0
  0
INSERT
  5
72A3
330
7232
100
AcDbEntity
  8
寸法
  6
Continuous
 62
     4
370
    -2
100
AcDbBlockReference
  2
_Dot
 10
1888.143774869574
 20
630.0638876450636
 30
0.0
  0
INSERT
  5
72A4
330
7232
100
AcDbEntity
  8
寸法
  6
Continuous
 62
     4
370
    -2
100
AcDbBlockReference
  2
_Dot
 10
1812.143774869575
 20
630.0638876450636
 30
0.0
 50
180.0
  0
MTEXT
  5
72A5
330
7232
100
AcDbEntity
  8
寸法
  6
Continuous
 62
     3
100
AcDbMText
 10
1850.143774869575
 20
633.5638876450636
 30
0.0
 40
5.0
 41
0.0
 71
     5
 72
     1
  1
\A1;75≦
  7
ACAD
 73
     1
 44
1.0
1001
ACAD
1000
MTEXTBEGIN
1070
    73
1070
     1
1070
    44
1040
1.0
1070
    74
1070
     0
1000
MTEXTEND
  0
POINT
  5
72A6
330
7232
100
AcDbEntity
  8
Defpoints
  6
Continuous
 62
     0
100
AcDbPoint
 10
1888.143774869574
 20
710.644620762396
 30
0.0
  0
POINT
  5
72A7
330
7232
100
AcDbEntity
  8
Defpoints
  6
Continuous
 62
     0
100
AcDbPoint
 10
1812.143774869575
 20
630.0638876450636
 30
0.0
  0
POINT
  5
72A8
330
7232
100
AcDbEntity
  8
Defpoints
  6
Continuous
 62
     0
100
AcDbPoint
 10
1812.143774869575
 20
630.0638876450636
 30
0.0
  0
ENDBLK
  5
723C
330
7232
100
AcDbEntity
  8
0
100
AcDbBlockEnd
  0
BLOCK
  5
7246
330
723E
100
AcDbEntity
  8
0
100
AcDbBlockBegin
  2
*D13
 70
     1
 10
0.0
 20
0.0
 30
0.0
  3
*D13
  1

  0
LINE
  5
729A
330
723E
100
AcDbEntity
  8
寸法
  6
Continuous
 62
     4
370
    -2
100
AcDbLine
 10
1811.143774869575
 20
630.0638876450636
 30
0.0
 11
1663.143774869574
 21
630.0638876450636
 31
0.0
  0
INSERT
  5
729B
330
723E
100
AcDbEntity
  8
寸法
  6
Continuous
 62
     4
370
    -2
100
AcDbBlockReference
  2
_Dot
 10
1812.143774869575
 20
630.0638876450636
 30
0.0
  0
INSERT
  5
729C
330
723E
100
AcDbEntity
  8
寸法
  6
Continuous
 62
     4
370
    -2
100
AcDbBlockReference
  2
_Dot
 10
1662.143774869574
 20
630.0638876450636
 30
0.0
 50
180.0
  0
MTEXT
  5
729D
330
723E
100
AcDbEntity
  8
寸法
  6
Continuous
 62
     3
100
AcDbMText
 10
1737.143774869574
 20
633.5638876450636
 30
0.0
 40
5.0
 41
0.0
 71
     5
 72
     1
  1
\A1;≦Ｃ
  7
ACAD
 73
     1
 44
1.0
1001
ACAD
1000
MTEXTBEGIN
1070
    73
1070
     1
1070
    44
1040
1.0
1070
    74
1070
     0
1000
MTEXTEND
  0
POINT
  5
729E
330
723E
100
AcDbEntity
  8
Defpoints
  6
Continuous
 62
     0
100
AcDbPoint
 10
1812.143774869575
 20
630.0638876450636
 30
0.0
  0
POINT
  5
729F
330
723E
100
AcDbEntity
  8
Defpoints
  6
Continuous
 62
     0
100
AcDbPoint
 10
1662.143774869574
 20
630.0638876450636
 30
0.0
  0
POINT
  5
72A0
330
723E
100
AcDbEntity
  8
Defpoints
  6
Continuous
 62
     0
100
AcDbPoint
 10
1662.143774869574
 20
630.0638876450636
 30
0.0
  0
ENDBLK
  5
7247
330
723E
100
AcDbEntity
  8
0
100
AcDbBlockEnd
  0
BLOCK
  5
7251
330
7249
100
AcDbEntity
  8
0
100
AcDbBlockBegin
  2
*D14
 70
     1
 10
0.0
 20
0.0
 30
0.0
  3
*D14
  1

  0
LINE
  5
724A
330
7249
100
AcDbEntity
  8
寸法
  6
Continuous
 62
     4
370
    -2
100
AcDbLine
 10
1661.143774869574
 20
630.0638876450636
 30
0.0
 11
1513.143774869574
 21
630.0638876450636
 31
0.0
  0
INSERT
  5
724B
330
7249
100
AcDbEntity
  8
寸法
  6
Continuous
 62
     4
370
    -2
100
AcDbBlockReference
  2
_Dot
 10
1662.143774869574
 20
630.0638876450636
 30
0.0
  0
INSERT
  5
724C
330
7249
100
AcDbEntity
  8
寸法
  6
Continuous
 62
     4
370
    -2
100
AcDbBlockReference
  2
_Dot
 10
1512.143774869574
 20
630.0638876450636
 30
0.0
 50
180.0
  0
MTEXT
  5
724D
330
7249
100
AcDbEntity
  8
寸法
  6
Continuous
 62
     3
100
AcDbMText
 10
1587.143774869574
 20
633.5638876450636
 30
0.0
 40
5.0
 41
0.0
 71
     5
 72
     1
  1
\A1;150
  7
ACAD
 73
     1
 44
1.0
1001
ACAD
1000
MTEXTBEGIN
1070
    73
1070
     1
1070
    44
1040
1.0
1070
    74
1070
     0
1000
MTEXTEND
  0
POINT
  5
724E
330
7249
100
AcDbEntity
  8
Defpoints
  6
Continuous
 62
     0
100
AcDbPoint
 10
1662.143774869574
 20
630.0638876450636
 30
0.0
  0
POINT
  5
724F
330
7249
100
AcDbEntity
  8
Defpoints
  6
Continuous
 62
     0
100
AcDbPoint
 10
1512.143774869574
 20
630.0638876450636
 30
0.0
  0
POINT
  5
7250
330
7249
100
AcDbEntity
  8
Defpoints
  6
Continuous
 62
     0
100
AcDbPoint
 10
1512.143774869574
 20
630.0638876450636
 30
0.0
  0
ENDBLK
  5
7252
330
7249
100
AcDbEntity
  8
0
100
AcDbBlockEnd
  0
BLOCK
  5
725C
330
7254
100
AcDbEntity
  8
0
100
AcDbBlockBegin
  2
*D15
 70
     1
 10
0.0
 20
0.0
 30
0.0
  3
*D15
  1

  0
LINE
  5
7255
330
7254
100
AcDbEntity
  8
寸法
  6
Continuous
 62
     4
370
    -2
100
AcDbLine
 10
1763.143774869574
 20
695.0638876450637
 30
0.0
 11
1811.143774869574
 21
695.0638876450637
 31
0.0
  0
INSERT
  5
7256
330
7254
100
AcDbEntity
  8
寸法
  6
Continuous
 62
     4
370
    -2
100
AcDbBlockReference
  2
_Dot
 10
1762.143774869574
 20
695.0638876450637
 30
0.0
 50
180.0
  0
INSERT
  5
7257
330
7254
100
AcDbEntity
  8
寸法
  6
Continuous
 62
     4
370
    -2
100
AcDbBlockReference
  2
_Dot
 10
1812.143774869574
 20
695.0638876450637
 30
0.0
  0
MTEXT
  5
7258
330
7254
100
AcDbEntity
  8
寸法
  6
Continuous
 62
     3
100
AcDbMText
 10
1787.143774869574
 20
698.5638876450637
 30
0.0
 40
5.0
 41
0.0
 71
     5
 72
     1
  1
\A1;50
  7
ACAD
 73
     1
 44
1.0
1001
ACAD
1000
MTEXTBEGIN
1070
    73
1070
     1
1070
    44
1040
1.0
1070
    74
1070
     0
1000
MTEXTEND
  0
POINT
  5
7259
330
7254
100
AcDbEntity
  8
Defpoints
  6
Continuous
 62
     0
100
AcDbPoint
 10
1762.143774869574
 20
695.0638876450637
 30
0.0
  0
POINT
  5
725A
330
7254
100
AcDbEntity
  8
Defpoints
  6
Continuous
 62
     0
100
AcDbPoint
 10
1812.143774869574
 20
695.0638876450637
 30
0.0
  0
POINT
  5
725B
330
7254
100
AcDbEntity
  8
Defpoints
  6
Continuous
 62
     0
100
AcDbPoint
 10
1812.143774869574
 20
695.0638876450637
 30
0.0
  0
ENDBLK
  5
725D
330
7254
100
AcDbEntity
  8
0
100
AcDbBlockEnd
  0
BLOCK
  5
7268
330
725F
100
AcDbEntity
  8
0
100
AcDbBlockBegin
  2
*D16
 70
     1
 10
0.0
 20
0.0
 30
0.0
  3
*D16
  1

  0
LINE
  5
7292
330
725F
100
AcDbEntity
  8
寸法
  6
Continuous
 62
     4
370
    -2
100
AcDbLine
 10
1658.411724062005
 20
755.0638876450639
 30
0.0
 11
1457.143774869575
 21
755.0638876450639
 31
0.0
  0
LINE
  5
7293
330
725F
100
AcDbEntity
  8
寸法
  6
Continuous
 62
     4
370
    -2
100
AcDbLine
 10
1457.143774869575
 20
756.0638876450639
 30
0.0
 11
1457.143774869575
 21
816.8865099287536
 31
0.0
  0
INSERT
  5
7294
330
725F
100
AcDbEntity
  8
寸法
  6
Continuous
 62
     4
370
    -2
100
AcDbBlockReference
  2
_Dot
 10
1457.143774869575
 20
755.0638876450639
 30
0.0
 50
270.0
  0
INSERT
  5
7295
330
725F
100
AcDbEntity
  8
寸法
  6
Continuous
 62
     4
370
    -2
100
AcDbBlockReference
  2
_Dot
 10
1457.143774869575
 20
817.8865099287536
 30
0.0
 50
90.0
  0
MTEXT
  5
7296
330
725F
100
AcDbEntity
  8
寸法
  6
Continuous
 62
     3
100
AcDbMText
 10
1453.643774869574
 20
786.475198786909
 30
0.0
 40
5.0
 41
0.0
 71
     5
 72
     1
  1
\A1;D
  7
ACAD
 11
0.0000000000000001
 21
1.0
 31
0.0
 73
     1
 44
1.0
1001
ACAD
1000
MTEXTBEGIN
1070
    73
1070
     1
1070
    44
1040
1.0
1070
    74
1070
     0
1000
MTEXTEND
  0
POINT
  5
7297
330
725F
100
AcDbEntity
  8
Defpoints
  6
Continuous
 62
     0
100
AcDbPoint
 10
1658.411724062005
 20
755.0638876450639
 30
0.0
  0
POINT
  5
7298
330
725F
100
AcDbEntity
  8
Defpoints
  6
Continuous
 62
     0
100
AcDbPoint
 10
1457.143774869575
 20
817.8865099287536
 30
0.0
  0
POINT
  5
7299
330
725F
100
AcDbEntity
  8
Defpoints
  6
Continuous
 62
     0
100
AcDbPoint
 10
1457.143774869575
 20
817.8865099287536
 30
0.0
  0
ENDBLK
  5
7269
330
725F
100
AcDbEntity
  8
0
100
AcDbBlockEnd
  0
BLOCK
  5
7275
330
726B
100
AcDbEntity
  8
0
100
AcDbBlockBegin
  2
*D17
 70
     1
 10
0.0
 20
0.0
 30
0.0
  3
*D17
  1

  0
LINE
  5
7289
330
726B
100
AcDbEntity
  8
寸法
  6
Continuous
 62
     4
370
    -2
100
AcDbLine
 10
1510.143774869574
 20
876.5865099287536
 30
0.0
 11
1437.143774869574
 21
876.5865099287536
 31
0.0
  0
LINE
  5
728A
330
726B
100
AcDbEntity
  8
寸法
  6
Continuous
 62
     4
370
    -2
100
AcDbLine
 10
1545.77774946579
 20
755.0638876450639
 30
0.0
 11
1437.143774869574
 21
755.0638876450639
 31
0.0
  0
LINE
  5
728B
330
726B
100
AcDbEntity
  8
寸法
  6
Continuous
 62
     4
370
    -2
100
AcDbLine
 10
1437.143774869574
 20
875.5865099287536
 30
0.0
 11
1437.143774869574
 21
756.0638876450639
 31
0.0
  0
INSERT
  5
728C
330
726B
100
AcDbEntity
  8
寸法
  6
Continuous
 62
     4
370
    -2
100
AcDbBlockReference
  2
_Dot
 10
1437.143774869574
 20
876.5865099287536
 30
0.0
 50
90.0
  0
INSERT
  5
728D
330
726B
100
AcDbEntity
  8
寸法
  6
Continuous
 62
     4
370
    -2
100
AcDbBlockReference
  2
_Dot
 10
1437.143774869574
 20
755.0638876450639
 30
0.0
 50
270.0
  0
MTEXT
  5
728E
330
726B
100
AcDbEntity
  8
寸法
  6
Continuous
 62
     3
100
AcDbMText
 10
1433.643774869574
 20
815.8251987869089
 30
0.0
 40
5.0
 41
0.0
 71
     5
 72
     1
  1
\A1;E
  7
ACAD
 11
0.0000000000000001
 21
1.0
 31
0.0
 73
     1
 44
1.0
1001
ACAD
1000
MTEXTBEGIN
1070
    73
1070
     1
1070
    44
1040
1.0
1070
    74
1070
     0
1000
MTEXTEND
  0
POINT
  5
728F
330
726B
100
AcDbEntity
  8
Defpoints
  6
Continuous
 62
     0
100
AcDbPoint
 10
1510.143774869574
 20
876.5865099287536
 30
0.0
  0
POINT
  5
7290
330
726B
100
AcDbEntity
  8
Defpoints
  6
Continuous
 62
     0
100
AcDbPoint
 10
1545.77774946579
 20
755.0638876450639
 30
0.0
  0
POINT
  5
7291
330
726B
100
AcDbEntity
  8
Defpoints
  6
Continuous
 62
     0
100
AcDbPoint
 10
1437.143774869574
 20
755.0638876450639
 30
0.0
  0
ENDBLK
  5
7276
330
726B
100
AcDbEntity
  8
0
100
AcDbBlockEnd
  0
BLOCK
  5
72CF
330
72C5
100
AcDbEntity
  8
0
100
AcDbBlockBegin
  2
*D18
 70
     1
 10
0.0
 20
0.0
 30
0.0
  3
*D18
  1

  0
LINE
  5
72D1
330
72C5
100
AcDbEntity
  8
寸法
  6
Continuous
 62
     4
370
    -2
100
AcDbLine
 10
1528.143774869574
 20
835.5114213042906
 30
0.0
 11
1528.143774869574
 21
854.5865099287537
 31
0.0
  0
LINE
  5
72D2
330
72C5
100
AcDbEntity
  8
寸法
  6
Continuous
 62
     4
370
    -2
100
AcDbLine
 10
1888.143774869574
 20
835.5114213042906
 30
0.0
 11
1888.143774869574
 21
854.5865099287537
 31
0.0
  0
LINE
  5
72D3
330
72C5
100
AcDbEntity
  8
寸法
  6
Continuous
 62
     4
370
    -2
100
AcDbLine
 10
1529.143774869574
 20
854.5865099287537
 30
0.0
 11
1887.143774869574
 21
854.5865099287537
 31
0.0
  0
INSERT
  5
72D4
330
72C5
100
AcDbEntity
  8
寸法
  6
Continuous
 62
     4
370
    -2
100
AcDbBlockReference
  2
_Dot
 10
1528.143774869574
 20
854.5865099287537
 30
0.0
 50
180.0
  0
INSERT
  5
72D5
330
72C5
100
AcDbEntity
  8
寸法
  6
Continuous
 62
     4
370
    -2
100
AcDbBlockReference
  2
_Dot
 10
1888.143774869574
 20
854.5865099287537
 30
0.0
  0
MTEXT
  5
72D6
330
72C5
100
AcDbEntity
  8
寸法
  6
Continuous
 62
     3
100
AcDbMText
 10
1708.143774869574
 20
858.0865099287537
 30
0.0
 40
5.0
 41
0.0
 71
     5
 72
     1
  1
\A1;A
  7
ACAD
 73
     1
 44
1.0
1001
ACAD
1000
MTEXTBEGIN
1070
    73
1070
     1
1070
    44
1040
1.0
1070
    74
1070
     0
1000
MTEXTEND
  0
POINT
  5
72D7
330
72C5
100
AcDbEntity
  8
Defpoints
  6
Continuous
 62
     0
100
AcDbPoint
 10
1528.143774869574
 20
835.5114213042906
 30
0.0
  0
POINT
  5
72D8
330
72C5
100
AcDbEntity
  8
Defpoints
  6
Continuous
 62
     0
100
AcDbPoint
 10
1888.143774869574
 20
835.5114213042906
 30
0.0
  0
POINT
  5
72D9
330
72C5
100
AcDbEntity
  8
Defpoints
  6
Continuous
 62
     0
100
AcDbPoint
 10
1888.143774869574
 20
854.5865099287537
 30
0.0
  0
ENDBLK
  5
72D0
330
72C5
100
AcDbEntity
  8
0
100
AcDbBlockEnd
  0
ENDSEC
  0
SECTION
  2
ENTITIES
  0
LINE
  5
6CB9
330
1E
100
AcDbEntity
  8
躯体と製品
  6
DASHED1
 62
     7
100
AcDbLine
 10
1523.986767000845
 20
820.2272223361559
 30
0.0
 11
1544.452796498213
 21
819.1546431794574
 31
0.0
  0
LINE
  5
6CBA
330
1E
100
AcDbEntity
  8
図枠
  6
Continuous
 62
     7
100
AcDbLine
 10
1288.643774869574
 20
375.7536931629877
 30
0.0
 11
2112.643774869574
 21
375.7536931629877
 31
0.0
  0
LINE
  5
6CBB
330
1E
100
AcDbEntity
  8
図枠
  6
Continuous
 62
     7
100
AcDbLine
 10
2112.643774869574
 20
375.7536931629877
 30
0.0
 11
2112.643774869574
 21
951.7536931629875
 31
0.0
  0
LINE
  5
6CBC
330
1E
100
AcDbEntity
  8
図枠
  6
Continuous
 62
     7
100
AcDbLine
 10
2112.643774869574
 20
951.7536931629875
 30
0.0
 11
1288.643774869574
 21
951.7536931629875
 31
0.0
  0
LINE
  5
6CBD
330
1E
100
AcDbEntity
  8
図枠
  6
Continuous
 62
     7
100
AcDbLine
 10
1288.643774869574
 20
951.7536931629875
 30
0.0
 11
1288.643774869574
 21
375.7536931629877
 31
0.0
  0
TEXT
  5
6CBE
330
1E
100
AcDbEntity
  8
図枠
 62
     7
100
AcDbText
 10
1308.190283578709
 20
913.22332531974
 30
0.0
 40
5.0
  1
　　Ｓ＝１／２
100
AcDbText
  0
TEXT
  5
6CBF
330
1E
100
AcDbEntity
  8
図枠
 62
     7
100
AcDbText
 10
1308.190283578709
 20
923.2233253197399
 30
0.0
 40
5.0
  1
　　屋根－壁（ストレート壁）
100
AcDbText
  0
TEXT
  5
6CC0
330
1E
100
AcDbEntity
  8
図枠
 62
     7
100
AcDbText
 10
1308.190283578709
 20
933.2233253197399
 30
0.0
 40
5.0
  1
◇ステンレス１５０タイプ（１５０ＦＹＫ－Ｓ）
100
AcDbText
  0
TEXT
  5
6CC1
330
1E
100
AcDbEntity
  8
図枠
 62
     7
100
AcDbText
 10
1490.143774869574
 20
596.2536931629877
 30
0.0
 40
5.0
  1
部材名称
100
AcDbText
  0
TEXT
  5
6CC2
330
1E
100
AcDbEntity
  8
図枠
 62
     7
100
AcDbText
 10
1591.143774869574
 20
596.2536931629877
 30
0.0
 40
5.0
  1
規　格
100
AcDbText
  0
TEXT
  5
6CC3
330
1E
100
AcDbEntity
  8
図枠
 62
     7
100
AcDbText
 10
1458.643774869574
 20
569.2536931629875
 30
0.0
 40
5.0
  1
ＦＹＹフレーム
100
AcDbText
  0
TEXT
  5
6CC4
330
1E
100
AcDbEntity
  8
図枠
 62
     7
100
AcDbText
 10
1458.643774869574
 20
560.2536931629876
 30
0.0
 40
5.0
  1
ＦＹＫ壁フレーム
100
AcDbText
  0
TEXT
  5
6CC5
330
1E
100
AcDbEntity
  8
図枠
 62
     7
100
AcDbText
 10
1458.643774869574
 20
542.2536931629877
 30
0.0
 40
5.0
  1
ＦＹＫホルダー
100
AcDbText
  0
TEXT
  5
6CC6
330
1E
100
AcDbEntity
  8
図枠
 62
     7
100
AcDbText
 10
1458.643774869574
 20
533.2536931629877
 30
0.0
 40
5.0
  1
ＦＹＹホルダースプリング
100
AcDbText
  0
TEXT
  5
6CC7
330
1E
100
AcDbEntity
  8
図枠
 62
     7
100
AcDbText
 10
1458.643774869574
 20
524.2536931629877
 30
0.0
 40
5.0
  1
ＦＹＹフレームナット
100
AcDbText
  0
TEXT
  5
6CC8
330
1E
100
AcDbEntity
  8
図枠
 62
     7
100
AcDbText
 10
1458.643774869574
 20
515.2536931629876
 30
0.0
 40
5.0
  1
ＦＹＫ水切ジョイント
100
AcDbText
  0
TEXT
  5
6CC9
330
1E
100
AcDbEntity
  8
図枠
 62
     7
100
AcDbText
 10
1458.643774869574
 20
506.2536931629876
 30
0.0
 40
5.0
  1
ＦＹＫｻｲﾄﾞｷｬｯﾌﾟ ｼﾞｮｲﾝﾄ
100
AcDbText
  0
TEXT
  5
6CCA
330
1E
100
AcDbEntity
  8
図枠
 62
     7
100
AcDbText
 10
1458.643774869574
 20
497.2536931629877
 30
0.0
 40
5.0
  1
止水補助板
100
AcDbText
  0
TEXT
  5
6CCB
330
1E
100
AcDbEntity
  8
図枠
 62
     7
100
AcDbText
 10
1558.643774869574
 20
497.2536931629877
 30
0.0
 40
5.0
  1
ＰＳ
100
AcDbText
  0
TEXT
  5
6CCC
330
1E
100
AcDbEntity
  8
図枠
 62
     7
100
AcDbText
 10
1458.643774869574
 20
488.2536931629877
 30
0.0
 40
5.0
  1
止水補助板
100
AcDbText
  0
TEXT
  5
6CCD
330
1E
100
AcDbEntity
  8
図枠
 62
     7
100
AcDbText
 10
1458.643774869574
 20
479.2536931629877
 30
0.0
 40
5.0
  1
ガスケットＮ
100
AcDbText
  0
TEXT
  5
6CCE
330
1E
100
AcDbEntity
  8
図枠
 62
     7
100
AcDbText
 10
1458.643774869574
 20
470.2536931629877
 30
0.0
 40
5.0
  1
ステン小ネジ
100
AcDbText
  0
TEXT
  5
6CCF
330
1E
100
AcDbEntity
  8
図枠
 62
     7
100
AcDbText
 10
1558.643774869574
 20
470.2536931629877
 30
0.0
 40
5.0
  1
ナベＭ6×35
100
AcDbText
  0
TEXT
  5
6CD0
330
1E
100
AcDbEntity
  8
図枠
 62
     7
100
AcDbText
 10
1458.643774869574
 20
461.2536931629877
 30
0.0
 40
5.0
  1
ステン小ネジ
100
AcDbText
  0
TEXT
  5
6CD1
330
1E
100
AcDbEntity
  8
図枠
 62
     7
100
AcDbText
 10
1558.643774869574
 20
461.2536931629877
 30
0.0
 40
5.0
  1
ナベＭ4×10
100
AcDbText
  0
TEXT
  5
6CD2
330
1E
100
AcDbEntity
  8
図枠
 62
     7
100
AcDbText
 10
1458.643774869574
 20
452.2536931629877
 30
0.0
 40
5.0
  1
ステン六角ボルト
100
AcDbText
  0
TEXT
  5
6CD3
330
1E
100
AcDbEntity
  8
図枠
 62
     7
100
AcDbText
 10
1558.643774869574
 20
452.2536931629877
 30
0.0
 40
5.0
  1
Ｍ6×40
100
AcDbText
  0
TEXT
  5
6CD4
330
1E
100
AcDbEntity
  8
図枠
 62
     7
100
AcDbText
 10
1458.643774869574
 20
443.2536931629877
 30
0.0
 40
5.0
  1
アジャストアンカー
100
AcDbText
  0
TEXT
  5
6CD5
330
1E
100
AcDbEntity
  8
図枠
 62
     7
100
AcDbText
 10
1558.643774869574
 20
443.2536931629877
 30
0.0
 40
5.0
  1
ＡＧ－660
100
AcDbText
  0
TEXT
  5
6CD6
330
1E
100
AcDbEntity
  8
図枠
 62
     7
100
AcDbText
 10
1458.643774869574
 20
434.2536931629878
 30
0.0
 40
5.0
  1
アンカープラグ
100
AcDbText
  0
TEXT
  5
6CD7
330
1E
100
AcDbEntity
  8
図枠
 62
     7
100
AcDbText
 10
1558.643774869574
 20
434.2536931629878
 30
0.0
 40
5.0
  1
フィッシャープラグ　Ｓ8
100
AcDbText
  0
TEXT
  5
6CD8
330
1E
100
AcDbEntity
  8
図枠
 62
     7
100
AcDbText
 10
1458.643774869574
 20
425.2536931629877
 30
0.0
 40
5.0
  1
ステンタッピンねじ
100
AcDbText
  0
TEXT
  5
6CD9
330
1E
100
AcDbEntity
  8
図枠
 62
     7
100
AcDbText
 10
1558.643774869574
 20
425.2536931629877
 30
0.0
 40
5.0
  1
ナベ 5×50
100
AcDbText
  0
TEXT
  5
6CDA
330
1E
100
AcDbEntity
  8
図枠
 62
     7
100
AcDbText
 10
1458.643774869574
 20
416.2536931629877
 30
0.0
 40
5.0
  1
ステスワッシャー
100
AcDbText
  0
TEXT
  5
6CDB
330
1E
100
AcDbEntity
  8
図枠
 62
     7
100
AcDbText
 10
1558.643774869574
 20
416.2536931629877
 30
0.0
 40
5.0
  1
1.5×18×6.5穴
100
AcDbText
  0
TEXT
  5
6CDC
330
1E
100
AcDbEntity
  8
図枠
 62
     7
100
AcDbText
 10
1458.643774869574
 20
407.2536931629876
 30
0.0
 40
5.0
  1
ステンワッシャー
100
AcDbText
  0
TEXT
  5
6CDD
330
1E
100
AcDbEntity
  8
図枠
 62
     7
100
AcDbText
 10
1558.643774869574
 20
407.2536931629876
 30
0.0
 40
5.0
  1
1.5×18×5.5穴
100
AcDbText
  0
TEXT
  5
6CDE
330
1E
100
AcDbEntity
  8
図枠
 62
     7
100
AcDbText
 10
1458.643774869574
 20
398.2536931629877
 30
0.0
 40
5.0
  1
ブチルテープ
100
AcDbText
  0
LINE
  5
6CDF
330
1E
100
AcDbEntity
  8
図枠
  6
Continuous
 62
     7
100
AcDbLine
 10
1453.643774869574
 20
396.7536931629877
 30
0.0
 11
1453.643774869574
 21
603.7536931629877
 31
0.0
  0
LINE
  5
6CE0
330
1E
100
AcDbEntity
  8
図枠
  6
Continuous
 62
     7
100
AcDbLine
 10
1553.643774869574
 20
396.7536931629877
 30
0.0
 11
1553.643774869574
 21
603.7536931629877
 31
0.0
  0
LINE
  5
6CE1
330
1E
100
AcDbEntity
  8
図枠
  6
Continuous
 62
     7
100
AcDbLine
 10
1648.643774869574
 20
396.7536931629877
 30
0.0
 11
1648.643774869574
 21
603.7536931629877
 31
0.0
  0
LINE
  5
6CE2
330
1E
100
AcDbEntity
  8
図枠
  6
Continuous
 62
     7
100
AcDbLine
 10
1648.643774869574
 20
603.7536931629877
 30
0.0
 11
1439.643774869574
 21
603.7536931629877
 31
0.0
  0
LINE
  5
6CE3
330
1E
100
AcDbEntity
  8
図枠
  6
Continuous
 62
     7
100
AcDbLine
 10
1648.643774869574
 20
594.7536931629876
 30
0.0
 11
1439.643774869574
 21
594.7536931629876
 31
0.0
  0
LINE
  5
6CE4
330
1E
100
AcDbEntity
  8
図枠
  6
Continuous
 62
     7
100
AcDbLine
 10
1648.643774869574
 20
585.7536931629876
 30
0.0
 11
1439.643774869574
 21
585.7536931629876
 31
0.0
  0
LINE
  5
6CE5
330
1E
100
AcDbEntity
  8
図枠
  6
Continuous
 62
     7
100
AcDbLine
 10
1648.643774869574
 20
576.7536931629877
 30
0.0
 11
1439.643774869574
 21
576.7536931629877
 31
0.0
  0
LINE
  5
6CE6
330
1E
100
AcDbEntity
  8
図枠
  6
Continuous
 62
     7
100
AcDbLine
 10
1648.643774869574
 20
567.7536931629877
 30
0.0
 11
1439.643774869574
 21
567.7536931629877
 31
0.0
  0
LINE
  5
6CE7
330
1E
100
AcDbEntity
  8
図枠
  6
Continuous
 62
     7
100
AcDbLine
 10
1648.643774869574
 20
558.7536931629877
 30
0.0
 11
1439.643774869574
 21
558.7536931629877
 31
0.0
  0
LINE
  5
6CE8
330
1E
100
AcDbEntity
  8
図枠
  6
Continuous
 62
     7
100
AcDbLine
 10
1648.643774869574
 20
549.7536931629877
 30
0.0
 11
1439.643774869574
 21
549.7536931629877
 31
0.0
  0
LINE
  5
6CE9
330
1E
100
AcDbEntity
  8
図枠
  6
Continuous
 62
     7
100
AcDbLine
 10
1648.643774869574
 20
540.7536931629876
 30
0.0
 11
1439.643774869574
 21
540.7536931629876
 31
0.0
  0
LINE
  5
6CEA
330
1E
100
AcDbEntity
  8
図枠
  6
Continuous
 62
     7
100
AcDbLine
 10
1648.643774869574
 20
531.7536931629876
 30
0.0
 11
1439.643774869574
 21
531.7536931629876
 31
0.0
  0
LINE
  5
6CEB
330
1E
100
AcDbEntity
  8
図枠
  6
Continuous
 62
     7
100
AcDbLine
 10
1648.643774869574
 20
522.7536931629876
 30
0.0
 11
1439.643774869574
 21
522.7536931629876
 31
0.0
  0
LINE
  5
6CEC
330
1E
100
AcDbEntity
  8
図枠
  6
Continuous
 62
     7
100
AcDbLine
 10
1648.643774869574
 20
513.7536931629877
 30
0.0
 11
1439.643774869574
 21
513.7536931629877
 31
0.0
  0
LINE
  5
6CED
330
1E
100
AcDbEntity
  8
図枠
  6
Continuous
 62
     7
100
AcDbLine
 10
1648.643774869574
 20
504.7536931629877
 30
0.0
 11
1439.643774869574
 21
504.7536931629877
 31
0.0
  0
LINE
  5
6CEE
330
1E
100
AcDbEntity
  8
図枠
  6
Continuous
 62
     7
100
AcDbLine
 10
1648.643774869574
 20
495.7536931629877
 30
0.0
 11
1439.643774869574
 21
495.7536931629877
 31
0.0
  0
LINE
  5
6CEF
330
1E
100
AcDbEntity
  8
図枠
  6
Continuous
 62
     7
100
AcDbLine
 10
1648.643774869574
 20
486.7536931629877
 30
0.0
 11
1439.643774869574
 21
486.7536931629877
 31
0.0
  0
LINE
  5
6CF0
330
1E
100
AcDbEntity
  8
図枠
  6
Continuous
 62
     7
100
AcDbLine
 10
1648.643774869574
 20
477.7536931629876
 30
0.0
 11
1439.643774869574
 21
477.7536931629876
 31
0.0
  0
LINE
  5
6CF1
330
1E
100
AcDbEntity
  8
図枠
  6
Continuous
 62
     7
100
AcDbLine
 10
1648.643774869574
 20
468.7536931629876
 30
0.0
 11
1439.643774869574
 21
468.7536931629876
 31
0.0
  0
LINE
  5
6CF2
330
1E
100
AcDbEntity
  8
図枠
  6
Continuous
 62
     7
100
AcDbLine
 10
1648.643774869574
 20
459.7536931629877
 30
0.0
 11
1439.643774869574
 21
459.7536931629877
 31
0.0
  0
LINE
  5
6CF3
330
1E
100
AcDbEntity
  8
図枠
  6
Continuous
 62
     7
100
AcDbLine
 10
1648.643774869574
 20
450.7536931629878
 30
0.0
 11
1439.643774869574
 21
450.7536931629878
 31
0.0
  0
LINE
  5
6CF4
330
1E
100
AcDbEntity
  8
図枠
  6
Continuous
 62
     7
100
AcDbLine
 10
1648.643774869574
 20
441.7536931629877
 30
0.0
 11
1439.643774869574
 21
441.7536931629877
 31
0.0
  0
LINE
  5
6CF5
330
1E
100
AcDbEntity
  8
図枠
  6
Continuous
 62
     7
100
AcDbLine
 10
1648.643774869574
 20
432.7536931629877
 30
0.0
 11
1439.643774869574
 21
432.7536931629877
 31
0.0
  0
LINE
  5
6CF6
330
1E
100
AcDbEntity
  8
図枠
  6
Continuous
 62
     7
100
AcDbLine
 10
1648.643774869574
 20
423.7536931629878
 30
0.0
 11
1439.643774869574
 21
423.7536931629878
 31
0.0
  0
LINE
  5
6CF7
330
1E
100
AcDbEntity
  8
図枠
  6
Continuous
 62
     7
100
AcDbLine
 10
1648.643774869574
 20
414.7536931629877
 30
0.0
 11
1439.643774869574
 21
414.7536931629877
 31
0.0
  0
LINE
  5
6CF8
330
1E
100
AcDbEntity
  8
図枠
  6
Continuous
 62
     7
100
AcDbLine
 10
1648.643774869574
 20
405.7536931629877
 30
0.0
 11
1439.643774869574
 21
405.7536931629877
 31
0.0
  0
LINE
  5
6CF9
330
1E
100
AcDbEntity
  8
図枠
  6
Continuous
 62
     7
100
AcDbLine
 10
1648.643774869574
 20
396.7536931629877
 30
0.0
 11
1439.643774869574
 21
396.7536931629877
 31
0.0
  0
LINE
  5
6CFA
330
1E
100
AcDbEntity
  8
図枠
  6
Continuous
 62
     7
100
AcDbLine
 10
1439.643774869574
 20
396.7536931629877
 30
0.0
 11
1439.643774869574
 21
603.7536931629877
 31
0.0
  0
TEXT
  5
6CFB
330
1E
100
AcDbEntity
  8
図枠
 62
     7
100
AcDbText
 10
1441.643774869574
 20
596.2536931629877
 30
0.0
 40
5.0
  1
No.
100
AcDbText
  0
TEXT
  5
6CFC
330
1E
100
AcDbEntity
  8
図枠
 62
     7
100
AcDbText
 10
1443.393774869574
 20
587.2536931629877
 30
0.0
 40
5.0
  1
 1
100
AcDbText
  0
TEXT
  5
6CFD
330
1E
100
AcDbEntity
  8
図枠
 62
     7
100
AcDbText
 10
1443.393774869574
 20
578.2536931629876
 30
0.0
 40
5.0
  1
 2
100
AcDbText
  0
TEXT
  5
6CFE
330
1E
100
AcDbEntity
  8
図枠
 62
     7
100
AcDbText
 10
1443.393774869574
 20
569.2536931629875
 30
0.0
 40
5.0
  1
 3
100
AcDbText
  0
TEXT
  5
6CFF
330
1E
100
AcDbEntity
  8
図枠
 62
     7
100
AcDbText
 10
1443.393774869574
 20
560.2536931629876
 30
0.0
 40
5.0
  1
 4
100
AcDbText
  0
TEXT
  5
6D00
330
1E
100
AcDbEntity
  8
図枠
 62
     7
100
AcDbText
 10
1443.393774869574
 20
551.2536931629877
 30
0.0
 40
5.0
  1
 5
100
AcDbText
  0
TEXT
  5
6D01
330
1E
100
AcDbEntity
  8
図枠
 62
     7
100
AcDbText
 10
1443.393774869574
 20
542.2536931629877
 30
0.0
 40
5.0
  1
 6
100
AcDbText
  0
TEXT
  5
6D02
330
1E
100
AcDbEntity
  8
図枠
 62
     7
100
AcDbText
 10
1443.393774869574
 20
533.2536931629877
 30
0.0
 40
5.0
  1
 7
100
AcDbText
  0
TEXT
  5
6D03
330
1E
100
AcDbEntity
  8
図枠
 62
     7
100
AcDbText
 10
1443.393774869574
 20
524.2536931629877
 30
0.0
 40
5.0
  1
 8
100
AcDbText
  0
TEXT
  5
6D04
330
1E
100
AcDbEntity
  8
図枠
 62
     7
100
AcDbText
 10
1443.393774869574
 20
515.2536931629876
 30
0.0
 40
5.0
  1
 9
100
AcDbText
  0
TEXT
  5
6D05
330
1E
100
AcDbEntity
  8
図枠
 62
     7
100
AcDbText
 10
1443.393774869574
 20
506.2536931629876
 30
0.0
 40
5.0
  1
10
100
AcDbText
  0
TEXT
  5
6D06
330
1E
100
AcDbEntity
  8
図枠
 62
     7
100
AcDbText
 10
1443.393774869574
 20
497.2536931629877
 30
0.0
 40
5.0
  1
11
100
AcDbText
  0
TEXT
  5
6D07
330
1E
100
AcDbEntity
  8
図枠
 62
     7
100
AcDbText
 10
1443.393774869574
 20
488.2536931629877
 30
0.0
 40
5.0
  1
12
100
AcDbText
  0
TEXT
  5
6D08
330
1E
100
AcDbEntity
  8
図枠
 62
     7
100
AcDbText
 10
1443.393774869574
 20
479.2536931629877
 30
0.0
 40
5.0
  1
13
100
AcDbText
  0
TEXT
  5
6D09
330
1E
100
AcDbEntity
  8
図枠
 62
     7
100
AcDbText
 10
1443.393774869574
 20
470.2536931629877
 30
0.0
 40
5.0
  1
14
100
AcDbText
  0
TEXT
  5
6D0A
330
1E
100
AcDbEntity
  8
図枠
 62
     7
100
AcDbText
 10
1443.393774869574
 20
461.2536931629877
 30
0.0
 40
5.0
  1
15
100
AcDbText
  0
TEXT
  5
6D0B
330
1E
100
AcDbEntity
  8
図枠
 62
     7
100
AcDbText
 10
1443.393774869574
 20
452.2536931629877
 30
0.0
 40
5.0
  1
16
100
AcDbText
  0
TEXT
  5
6D0C
330
1E
100
AcDbEntity
  8
図枠
 62
     7
100
AcDbText
 10
1443.393774869574
 20
443.2536931629877
 30
0.0
 40
5.0
  1
17
100
AcDbText
  0
TEXT
  5
6D0D
330
1E
100
AcDbEntity
  8
図枠
 62
     7
100
AcDbText
 10
1443.393774869574
 20
434.2536931629878
 30
0.0
 40
5.0
  1
18
100
AcDbText
  0
TEXT
  5
6D0E
330
1E
100
AcDbEntity
  8
図枠
 62
     7
100
AcDbText
 10
1443.393774869574
 20
425.2536931629877
 30
0.0
 40
5.0
  1
19
100
AcDbText
  0
TEXT
  5
6D0F
330
1E
100
AcDbEntity
  8
図枠
 62
     7
100
AcDbText
 10
1443.393774869574
 20
416.2536931629877
 30
0.0
 40
5.0
  1
20
100
AcDbText
  0
TEXT
  5
6D10
330
1E
100
AcDbEntity
  8
図枠
 62
     7
100
AcDbText
 10
1443.393774869574
 20
407.2536931629876
 30
0.0
 40
5.0
  1
21
100
AcDbText
  0
TEXT
  5
6D11
330
1E
100
AcDbEntity
  8
図枠
 62
     7
100
AcDbText
 10
1443.643774869574
 20
398.2536931629877
 30
0.0
 40
5.0
  1
※
100
AcDbText
  0
TEXT
  5
6D12
330
1E
100
AcDbEntity
  8
図枠
 62
     7
100
AcDbText
 10
1558.643774869574
 20
398.2536931629877
 30
0.0
 40
5.0
  1
ｔ1.0×ｗ30
100
AcDbText
  0
TEXT
  5
6D13
330
1E
100
AcDbEntity
  8
図枠
 62
     7
100
AcDbText
 10
1558.643774869574
 20
542.2536931629877
 30
0.0
 40
5.0
  1
150ＦＹＫＨ－325～525
100
AcDbText
  0
TEXT
  5
6D14
330
1E
100
AcDbEntity
  8
図枠
 62
     7
100
AcDbText
 10
1558.643774869574
 20
515.2536931629876
 30
0.0
 40
5.0
  1
150ＦＹＫＪ－325～525
100
AcDbText
  0
LINE
  5
6D15
330
1E
100
AcDbEntity
  8
図枠
  6
Continuous
 62
     7
100
AcDbLine
 10
1649.643774869574
 20
603.7536931629877
 30
0.0
 11
1716.643774869574
 21
603.7536931629877
 31
0.0
  0
LINE
  5
6D16
330
1E
100
AcDbEntity
  8
図枠
  6
Continuous
 62
     7
100
AcDbLine
 10
1649.643774869574
 20
396.7536931629877
 30
0.0
 11
1649.643774869574
 21
603.7536931629877
 31
0.0
  0
LINE
  5
6D17
330
1E
100
AcDbEntity
  8
図枠
  6
Continuous
 62
     7
100
AcDbLine
 10
1684.643774869574
 20
396.7536931629877
 30
0.0
 11
1684.643774869574
 21
603.7536931629877
 31
0.0
  0
LINE
  5
6D18
330
1E
100
AcDbEntity
  8
図枠
  6
Continuous
 62
     7
100
AcDbLine
 10
1702.643774869574
 20
396.7536931629877
 30
0.0
 11
1702.643774869574
 21
603.7536931629877
 31
0.0
  0
LINE
  5
6D19
330
1E
100
AcDbEntity
  8
図枠
  6
Continuous
 62
     7
100
AcDbLine
 10
1649.643774869574
 20
594.7536931629876
 30
0.0
 11
1716.643774869574
 21
594.7536931629876
 31
0.0
  0
LINE
  5
6D1A
330
1E
100
AcDbEntity
  8
図枠
  6
Continuous
 62
     7
100
AcDbLine
 10
1649.643774869574
 20
585.7536931629876
 30
0.0
 11
1716.643774869574
 21
585.7536931629876
 31
0.0
  0
LINE
  5
6D1B
330
1E
100
AcDbEntity
  8
図枠
  6
Continuous
 62
     7
100
AcDbLine
 10
1649.643774869574
 20
576.7536931629877
 30
0.0
 11
1716.643774869574
 21
576.7536931629877
 31
0.0
  0
LINE
  5
6D1C
330
1E
100
AcDbEntity
  8
図枠
  6
Continuous
 62
     7
100
AcDbLine
 10
1649.643774869574
 20
567.7536931629877
 30
0.0
 11
1716.643774869574
 21
567.7536931629877
 31
0.0
  0
LINE
  5
6D1D
330
1E
100
AcDbEntity
  8
図枠
  6
Continuous
 62
     7
100
AcDbLine
 10
1649.643774869574
 20
558.7536931629877
 30
0.0
 11
1716.643774869574
 21
558.7536931629877
 31
0.0
  0
LINE
  5
6D1E
330
1E
100
AcDbEntity
  8
図枠
  6
Continuous
 62
     7
100
AcDbLine
 10
1649.643774869574
 20
549.7536931629877
 30
0.0
 11
1716.643774869574
 21
549.7536931629877
 31
0.0
  0
LINE
  5
6D1F
330
1E
100
AcDbEntity
  8
図枠
  6
Continuous
 62
     7
100
AcDbLine
 10
1649.643774869574
 20
540.7536931629876
 30
0.0
 11
1716.643774869574
 21
540.7536931629876
 31
0.0
  0
LINE
  5
6D20
330
1E
100
AcDbEntity
  8
図枠
  6
Continuous
 62
     7
100
AcDbLine
 10
1649.643774869574
 20
531.7536931629876
 30
0.0
 11
1716.643774869574
 21
531.7536931629876
 31
0.0
  0
LINE
  5
6D21
330
1E
100
AcDbEntity
  8
図枠
  6
Continuous
 62
     7
100
AcDbLine
 10
1649.643774869574
 20
522.7536931629876
 30
0.0
 11
1716.643774869574
 21
522.7536931629876
 31
0.0
  0
LINE
  5
6D22
330
1E
100
AcDbEntity
  8
図枠
  6
Continuous
 62
     7
100
AcDbLine
 10
1649.643774869574
 20
513.7536931629877
 30
0.0
 11
1716.643774869574
 21
513.7536931629877
 31
0.0
  0
LINE
  5
6D23
330
1E
100
AcDbEntity
  8
図枠
  6
Continuous
 62
     7
100
AcDbLine
 10
1649.643774869574
 20
504.7536931629877
 30
0.0
 11
1716.643774869574
 21
504.7536931629877
 31
0.0
  0
LINE
  5
6D24
330
1E
100
AcDbEntity
  8
図枠
  6
Continuous
 62
     7
100
AcDbLine
 10
1649.643774869574
 20
495.7536931629877
 30
0.0
 11
1716.643774869574
 21
495.7536931629877
 31
0.0
  0
LINE
  5
6D25
330
1E
100
AcDbEntity
  8
図枠
  6
Continuous
 62
     7
100
AcDbLine
 10
1649.643774869574
 20
486.7536931629877
 30
0.0
 11
1716.643774869574
 21
486.7536931629877
 31
0.0
  0
LINE
  5
6D26
330
1E
100
AcDbEntity
  8
図枠
  6
Continuous
 62
     7
100
AcDbLine
 10
1649.643774869574
 20
477.7536931629876
 30
0.0
 11
1716.643774869574
 21
477.7536931629876
 31
0.0
  0
LINE
  5
6D27
330
1E
100
AcDbEntity
  8
図枠
  6
Continuous
 62
     7
100
AcDbLine
 10
1649.643774869574
 20
468.7536931629876
 30
0.0
 11
1716.643774869574
 21
468.7536931629876
 31
0.0
  0
LINE
  5
6D28
330
1E
100
AcDbEntity
  8
図枠
  6
Continuous
 62
     7
100
AcDbLine
 10
1649.643774869574
 20
459.7536931629877
 30
0.0
 11
1716.643774869574
 21
459.7536931629877
 31
0.0
  0
LINE
  5
6D29
330
1E
100
AcDbEntity
  8
図枠
  6
Continuous
 62
     7
100
AcDbLine
 10
1649.643774869574
 20
450.7536931629878
 30
0.0
 11
1716.643774869574
 21
450.7536931629878
 31
0.0
  0
LINE
  5
6D2A
330
1E
100
AcDbEntity
  8
図枠
  6
Continuous
 62
     7
100
AcDbLine
 10
1649.643774869574
 20
441.7536931629877
 30
0.0
 11
1716.643774869574
 21
441.7536931629877
 31
0.0
  0
LINE
  5
6D2B
330
1E
100
AcDbEntity
  8
図枠
  6
Continuous
 62
     7
100
AcDbLine
 10
1649.643774869574
 20
432.7536931629877
 30
0.0
 11
1716.643774869574
 21
432.7536931629877
 31
0.0
  0
LINE
  5
6D2C
330
1E
100
AcDbEntity
  8
図枠
  6
Continuous
 62
     7
100
AcDbLine
 10
1649.643774869574
 20
423.7536931629878
 30
0.0
 11
1716.643774869574
 21
423.7536931629878
 31
0.0
  0
LINE
  5
6D2D
330
1E
100
AcDbEntity
  8
図枠
  6
Continuous
 62
     7
100
AcDbLine
 10
1649.643774869574
 20
414.7536931629877
 30
0.0
 11
1716.643774869574
 21
414.7536931629877
 31
0.0
  0
LINE
  5
6D2E
330
1E
100
AcDbEntity
  8
図枠
  6
Continuous
 62
     7
100
AcDbLine
 10
1649.643774869574
 20
405.7536931629877
 30
0.0
 11
1716.643774869574
 21
405.7536931629877
 31
0.0
  0
LINE
  5
6D2F
330
1E
100
AcDbEntity
  8
図枠
  6
Continuous
 62
     7
100
AcDbLine
 10
1649.643774869574
 20
396.7536931629877
 30
0.0
 11
1716.643774869574
 21
396.7536931629877
 31
0.0
  0
LINE
  5
6D30
330
1E
100
AcDbEntity
  8
図枠
  6
Continuous
 62
     7
100
AcDbLine
 10
1716.643774869574
 20
396.7536931629877
 30
0.0
 11
1716.643774869574
 21
603.7536931629877
 31
0.0
  0
TEXT
  5
6D31
330
1E
100
AcDbEntity
  8
図枠
 62
     7
100
AcDbText
 10
1653.393774869575
 20
596.2536931629877
 30
0.0
 40
5.0
  1
定尺(mm)
100
AcDbText
  0
TEXT
  5
6D32
330
1E
100
AcDbEntity
  8
図枠
 62
     7
100
AcDbText
 10
1660.393774869574
 20
587.2536931629877
 30
0.0
 40
5.0
  1
2000
100
AcDbText
  0
TEXT
  5
6D33
330
1E
100
AcDbEntity
  8
図枠
 62
     7
100
AcDbText
 10
1660.393774869574
 20
578.2536931629876
 30
0.0
 40
5.0
  1
2000
100
AcDbText
  0
TEXT
  5
6D34
330
1E
100
AcDbEntity
  8
図枠
 62
     7
100
AcDbText
 10
1660.393774869574
 20
569.2536931629875
 30
0.0
 40
5.0
  1
2000
100
AcDbText
  0
TEXT
  5
6D35
330
1E
100
AcDbEntity
  8
図枠
 62
     7
100
AcDbText
 10
1660.393774869574
 20
560.2536931629876
 30
0.0
 40
5.0
  1
2000
100
AcDbText
  0
TEXT
  5
6D36
330
1E
100
AcDbEntity
  8
図枠
 62
     7
100
AcDbText
 10
1660.393774869574
 20
551.2536931629877
 30
0.0
 40
5.0
  1
2010
100
AcDbText
  0
TEXT
  5
6D37
330
1E
100
AcDbEntity
  8
図枠
 62
     7
100
AcDbText
 10
1660.393774869574
 20
497.2536931629877
 30
0.0
 40
5.0
  1
2060
100
AcDbText
  0
TEXT
  5
6D38
330
1E
100
AcDbEntity
  8
図枠
 62
     7
100
AcDbText
 10
1660.393774869574
 20
488.2536931629877
 30
0.0
 40
5.0
  1
2100
100
AcDbText
  0
TEXT
  5
6D39
330
1E
100
AcDbEntity
  8
図枠
 62
     7
100
AcDbText
 10
1660.393774869574
 20
479.2536931629877
 30
0.0
 40
5.0
  1
2000
100
AcDbText
  0
TEXT
  5
6D3A
330
1E
100
AcDbEntity
  8
図枠
 62
     7
100
AcDbText
 10
1660.393774869574
 20
398.2536931629877
 30
0.0
 40
5.0
  1
6000
100
AcDbText
  0
TEXT
  5
6D3B
330
1E
100
AcDbEntity
  8
図枠
 62
     7
100
AcDbText
 10
1687.143774869574
 20
596.2536931629877
 30
0.0
 40
5.0
  1
入数
100
AcDbText
  0
TEXT
  5
6D3C
330
1E
100
AcDbEntity
  8
図枠
 62
     7
100
AcDbText
 10
1690.393774869574
 20
587.2536931629877
 30
0.0
 40
5.0
  1
 1
100
AcDbText
  0
TEXT
  5
6D3D
330
1E
100
AcDbEntity
  8
図枠
 62
     7
100
AcDbText
 10
1690.393774869574
 20
578.2536931629876
 30
0.0
 40
5.0
  1
 1
100
AcDbText
  0
TEXT
  5
6D3E
330
1E
100
AcDbEntity
  8
図枠
 62
     7
100
AcDbText
 10
1690.393774869574
 20
569.2536931629875
 30
0.0
 40
5.0
  1
 1
100
AcDbText
  0
TEXT
  5
6D3F
330
1E
100
AcDbEntity
  8
図枠
 62
     7
100
AcDbText
 10
1690.393774869574
 20
560.2536931629876
 30
0.0
 40
5.0
  1
 1
100
AcDbText
  0
TEXT
  5
6D40
330
1E
100
AcDbEntity
  8
図枠
 62
     7
100
AcDbText
 10
1690.393774869574
 20
551.2536931629877
 30
0.0
 40
5.0
  1
 1
100
AcDbText
  0
TEXT
  5
6D41
330
1E
100
AcDbEntity
  8
図枠
 62
     7
100
AcDbText
 10
1690.393774869574
 20
542.2536931629877
 30
0.0
 40
5.0
  1
 4
100
AcDbText
  0
TEXT
  5
6D42
330
1E
100
AcDbEntity
  8
図枠
 62
     7
100
AcDbText
 10
1690.393774869574
 20
533.2536931629877
 30
0.0
 40
5.0
  1
 4
100
AcDbText
  0
TEXT
  5
6D43
330
1E
100
AcDbEntity
  8
図枠
 62
     7
100
AcDbText
 10
1690.393774869574
 20
524.2536931629877
 30
0.0
 40
5.0
  1
 4
100
AcDbText
  0
TEXT
  5
6D44
330
1E
100
AcDbEntity
  8
図枠
 62
     7
100
AcDbText
 10
1690.393774869574
 20
515.2536931629876
 30
0.0
 40
5.0
  1
 1
100
AcDbText
  0
TEXT
  5
6D45
330
1E
100
AcDbEntity
  8
図枠
 62
     7
100
AcDbText
 10
1690.393774869574
 20
506.2536931629876
 30
0.0
 40
5.0
  1
 1
100
AcDbText
  0
TEXT
  5
6D46
330
1E
100
AcDbEntity
  8
図枠
 62
     7
100
AcDbText
 10
1690.393774869574
 20
497.2536931629877
 30
0.0
 40
5.0
  1
 1
100
AcDbText
  0
TEXT
  5
6D47
330
1E
100
AcDbEntity
  8
図枠
 62
     7
100
AcDbText
 10
1690.393774869574
 20
488.2536931629877
 30
0.0
 40
5.0
  1
 1
100
AcDbText
  0
TEXT
  5
6D48
330
1E
100
AcDbEntity
  8
図枠
 62
     7
100
AcDbText
 10
1690.393774869574
 20
479.2536931629877
 30
0.0
 40
5.0
  1
 1
100
AcDbText
  0
TEXT
  5
6D49
330
1E
100
AcDbEntity
  8
図枠
 62
     7
100
AcDbText
 10
1690.393774869574
 20
470.2536931629877
 30
0.0
 40
5.0
  1
 4
100
AcDbText
  0
TEXT
  5
6D4A
330
1E
100
AcDbEntity
  8
図枠
 62
     7
100
AcDbText
 10
1690.393774869574
 20
461.2536931629877
 30
0.0
 40
5.0
  1
 5
100
AcDbText
  0
TEXT
  5
6D4B
330
1E
100
AcDbEntity
  8
図枠
 62
     7
100
AcDbText
 10
1690.393774869574
 20
452.2536931629877
 30
0.0
 40
5.0
  1
 5
100
AcDbText
  0
TEXT
  5
6D4C
330
1E
100
AcDbEntity
  8
図枠
 62
     7
100
AcDbText
 10
1690.393774869574
 20
443.2536931629877
 30
0.0
 40
5.0
  1
 5
100
AcDbText
  0
TEXT
  5
6D4D
330
1E
100
AcDbEntity
  8
図枠
 62
     7
100
AcDbText
 10
1690.393774869574
 20
434.2536931629878
 30
0.0
 40
5.0
  1
 5
100
AcDbText
  0
TEXT
  5
6D4E
330
1E
100
AcDbEntity
  8
図枠
 62
     7
100
AcDbText
 10
1690.393774869574
 20
425.2536931629877
 30
0.0
 40
5.0
  1
 5
100
AcDbText
  0
TEXT
  5
6D4F
330
1E
100
AcDbEntity
  8
図枠
 62
     7
100
AcDbText
 10
1690.393774869574
 20
416.2536931629877
 30
0.0
 40
5.0
  1
 5
100
AcDbText
  0
TEXT
  5
6D50
330
1E
100
AcDbEntity
  8
図枠
 62
     7
100
AcDbText
 10
1690.393774869574
 20
407.2536931629876
 30
0.0
 40
5.0
  1
 5
100
AcDbText
  0
TEXT
  5
6D51
330
1E
100
AcDbEntity
  8
図枠
 62
     7
100
AcDbText
 10
1690.393774869574
 20
398.2536931629877
 30
0.0
 40
5.0
  1
 1
100
AcDbText
  0
TEXT
  5
6D52
330
1E
100
AcDbEntity
  8
図枠
 62
     7
100
AcDbText
 10
1706.643774869575
 20
587.2536931629877
 30
0.0
 40
5.0
  1
本
100
AcDbText
  0
TEXT
  5
6D53
330
1E
100
AcDbEntity
  8
図枠
 62
     7
100
AcDbText
 10
1706.643774869575
 20
578.2536931629876
 30
0.0
 40
5.0
  1
〃
100
AcDbText
  0
TEXT
  5
6D54
330
1E
100
AcDbEntity
  8
図枠
 62
     7
100
AcDbText
 10
1706.643774869575
 20
569.2536931629875
 30
0.0
 40
5.0
  1
〃
100
AcDbText
  0
TEXT
  5
6D55
330
1E
100
AcDbEntity
  8
図枠
 62
     7
100
AcDbText
 10
1706.643774869575
 20
560.2536931629876
 30
0.0
 40
5.0
  1
〃
100
AcDbText
  0
TEXT
  5
6D56
330
1E
100
AcDbEntity
  8
図枠
 62
     7
100
AcDbText
 10
1706.643774869575
 20
551.2536931629877
 30
0.0
 40
5.0
  1
〃
100
AcDbText
  0
TEXT
  5
6D57
330
1E
100
AcDbEntity
  8
図枠
 62
     7
100
AcDbText
 10
1706.643774869575
 20
542.2536931629877
 30
0.0
 40
5.0
  1
〃
100
AcDbText
  0
TEXT
  5
6D58
330
1E
100
AcDbEntity
  8
図枠
 62
     7
100
AcDbText
 10
1706.643774869575
 20
533.2536931629877
 30
0.0
 40
5.0
  1
〃
100
AcDbText
  0
TEXT
  5
6D59
330
1E
100
AcDbEntity
  8
図枠
 62
     7
100
AcDbText
 10
1706.643774869575
 20
524.2536931629877
 30
0.0
 40
5.0
  1
〃
100
AcDbText
  0
TEXT
  5
6D5A
330
1E
100
AcDbEntity
  8
図枠
 62
     7
100
AcDbText
 10
1706.643774869575
 20
515.2536931629876
 30
0.0
 40
5.0
  1
〃
100
AcDbText
  0
TEXT
  5
6D5B
330
1E
100
AcDbEntity
  8
図枠
 62
     7
100
AcDbText
 10
1706.643774869575
 20
506.2536931629876
 30
0.0
 40
5.0
  1
〃
100
AcDbText
  0
TEXT
  5
6D5C
330
1E
100
AcDbEntity
  8
図枠
 62
     7
100
AcDbText
 10
1706.643774869575
 20
497.2536931629877
 30
0.0
 40
5.0
  1
枚
100
AcDbText
  0
TEXT
  5
6D5D
330
1E
100
AcDbEntity
  8
図枠
 62
     7
100
AcDbText
 10
1706.643774869575
 20
488.2536931629877
 30
0.0
 40
5.0
  1
〃
100
AcDbText
  0
TEXT
  5
6D5E
330
1E
100
AcDbEntity
  8
図枠
 62
     7
100
AcDbText
 10
1706.643774869575
 20
479.2536931629877
 30
0.0
 40
5.0
  1
本
100
AcDbText
  0
TEXT
  5
6D5F
330
1E
100
AcDbEntity
  8
図枠
 62
     7
100
AcDbText
 10
1706.643774869575
 20
470.2536931629877
 30
0.0
 40
5.0
  1
〃
100
AcDbText
  0
TEXT
  5
6D60
330
1E
100
AcDbEntity
  8
図枠
 62
     7
100
AcDbText
 10
1706.643774869575
 20
461.2536931629877
 30
0.0
 40
5.0
  1
〃
100
AcDbText
  0
TEXT
  5
6D61
330
1E
100
AcDbEntity
  8
図枠
 62
     7
100
AcDbText
 10
1706.643774869575
 20
452.2536931629877
 30
0.0
 40
5.0
  1
〃
100
AcDbText
  0
TEXT
  5
6D62
330
1E
100
AcDbEntity
  8
図枠
 62
     7
100
AcDbText
 10
1706.643774869575
 20
443.2536931629877
 30
0.0
 40
5.0
  1
〃
100
AcDbText
  0
TEXT
  5
6D63
330
1E
100
AcDbEntity
  8
図枠
 62
     7
100
AcDbText
 10
1706.643774869575
 20
434.2536931629878
 30
0.0
 40
5.0
  1
〃
100
AcDbText
  0
TEXT
  5
6D64
330
1E
100
AcDbEntity
  8
図枠
 62
     7
100
AcDbText
 10
1706.643774869575
 20
425.2536931629877
 30
0.0
 40
5.0
  1
〃
100
AcDbText
  0
TEXT
  5
6D65
330
1E
100
AcDbEntity
  8
図枠
 62
     7
100
AcDbText
 10
1706.643774869575
 20
416.2536931629877
 30
0.0
 40
5.0
  1
枚
100
AcDbText
  0
TEXT
  5
6D66
330
1E
100
AcDbEntity
  8
図枠
 62
     7
100
AcDbText
 10
1706.643774869575
 20
407.2536931629876
 30
0.0
 40
5.0
  1
〃
100
AcDbText
  0
TEXT
  5
6D67
330
1E
100
AcDbEntity
  8
図枠
 62
     7
100
AcDbText
 10
1706.643774869575
 20
398.2536931629877
 30
0.0
 40
5.0
  1
巻
100
AcDbText
  0
TEXT
  5
6D68
330
1E
100
AcDbEntity
  8
図枠
 62
     7
100
AcDbText
 10
1703.143774869575
 20
596.2536931629877
 30
0.0
 40
5.0
  1
単位
100
AcDbText
  0
TEXT
  5
6D69
330
1E
100
AcDbEntity
  8
図枠
 62
     7
100
AcDbText
 10
1757.143774869574
 20
596.2536931629877
 30
0.0
 40
5.0
  1
タ　イ　プ
100
AcDbText
  0
TEXT
  5
6D6A
330
1E
100
AcDbEntity
  8
図枠
 62
     7
100
AcDbText
 10
1853.643774869574
 20
596.2536931629877
 30
0.0
 40
5.0
  1
Ａ
100
AcDbText
  0
TEXT
  5
6D6B
330
1E
100
AcDbEntity
  8
図枠
 62
     7
100
AcDbText
 10
1823.643774869574
 20
596.2536931629877
 30
0.0
 40
5.0
  1
Ｗ
100
AcDbText
  0
LINE
  5
6D6C
330
1E
100
AcDbEntity
  8
図枠
  6
Continuous
 62
     7
100
AcDbLine
 10
1736.643774869574
 20
603.7536931629877
 30
0.0
 11
1736.643774869574
 21
513.7536931629877
 31
0.0
  0
LINE
  5
6D6D
330
1E
100
AcDbEntity
  8
図枠
  6
Continuous
 62
     7
100
AcDbLine
 10
1841.643774869574
 20
603.7536931629877
 30
0.0
 11
1841.643774869574
 21
513.7536931629877
 31
0.0
  0
LINE
  5
6D6E
330
1E
100
AcDbEntity
  8
図枠
  6
Continuous
 62
     7
100
AcDbLine
 10
1811.643774869574
 20
603.7536931629877
 30
0.0
 11
1811.643774869574
 21
513.7536931629877
 31
0.0
  0
LINE
  5
6D6F
330
1E
100
AcDbEntity
  8
図枠
  6
Continuous
 62
     7
100
AcDbLine
 10
1961.643774869574
 20
567.7536931629877
 30
0.0
 11
1736.643774869574
 21
567.7536931629877
 31
0.0
  0
LINE
  5
6D70
330
1E
100
AcDbEntity
  8
図枠
  6
Continuous
 62
     7
100
AcDbLine
 10
1961.643774869574
 20
585.7536931629876
 30
0.0
 11
1736.643774869574
 21
585.7536931629876
 31
0.0
  0
LINE
  5
6D71
330
1E
100
AcDbEntity
  8
図枠
  6
Continuous
 62
     7
100
AcDbLine
 10
1961.643774869574
 20
603.7536931629877
 30
0.0
 11
1736.643774869574
 21
603.7536931629877
 31
0.0
  0
LINE
  5
6D72
330
1E
100
AcDbEntity
  8
図枠
  6
Continuous
 62
     7
100
AcDbLine
 10
1961.643774869574
 20
594.7536931629876
 30
0.0
 11
1736.643774869574
 21
594.7536931629876
 31
0.0
  0
LINE
  5
6D73
330
1E
100
AcDbEntity
  8
図枠
  6
Continuous
 62
     7
100
AcDbLine
 10
1961.643774869574
 20
576.7536931629877
 30
0.0
 11
1736.643774869574
 21
576.7536931629877
 31
0.0
  0
LINE
  5
6D74
330
1E
100
AcDbEntity
  8
図枠
  6
Continuous
 62
     7
100
AcDbLine
 10
1961.643774869574
 20
558.7536931629877
 30
0.0
 11
1736.643774869574
 21
558.7536931629877
 31
0.0
  0
LINE
  5
6D75
330
1E
100
AcDbEntity
  8
図枠
  6
Continuous
 62
     7
100
AcDbLine
 10
1961.643774869574
 20
549.7536931629877
 30
0.0
 11
1736.643774869574
 21
549.7536931629877
 31
0.0
  0
LINE
  5
6D76
330
1E
100
AcDbEntity
  8
図枠
  6
Continuous
 62
     7
100
AcDbLine
 10
1961.643774869574
 20
540.7536931629876
 30
0.0
 11
1736.643774869574
 21
540.7536931629876
 31
0.0
  0
LINE
  5
6D77
330
1E
100
AcDbEntity
  8
図枠
  6
Continuous
 62
     7
100
AcDbLine
 10
1961.643774869574
 20
531.7536931629876
 30
0.0
 11
1736.643774869574
 21
531.7536931629876
 31
0.0
  0
LINE
  5
6D78
330
1E
100
AcDbEntity
  8
図枠
  6
Continuous
 62
     7
100
AcDbLine
 10
1961.643774869574
 20
522.7536931629876
 30
0.0
 11
1736.643774869574
 21
522.7536931629876
 31
0.0
  0
LINE
  5
6D79
330
1E
100
AcDbEntity
  8
図枠
  6
Continuous
 62
     7
100
AcDbLine
 10
1961.643774869574
 20
513.7536931629877
 30
0.0
 11
1736.643774869574
 21
513.7536931629877
 31
0.0
  0
TEXT
  5
6D7A
330
1E
100
AcDbEntity
  8
図枠
 62
     7
100
AcDbText
 10
1883.643774869574
 20
596.2536931629877
 30
0.0
 40
5.0
  1
Ｃ
100
AcDbText
  0
TEXT
  5
6D7B
330
1E
100
AcDbEntity
  8
図枠
 62
     7
100
AcDbText
 10
1913.643774869575
 20
596.2536931629877
 30
0.0
 40
5.0
  1
Ｄ
100
AcDbText
  0
TEXT
  5
6D7C
330
1E
100
AcDbEntity
  8
図枠
 62
     7
100
AcDbText
 10
1943.643774869575
 20
596.2536931629877
 30
0.0
 40
5.0
  1
Ｅ
100
AcDbText
  0
TEXT
  5
6D7D
330
1E
100
AcDbEntity
  8
図枠
 62
     7
100
AcDbText
 10
1881.643774869574
 20
587.2536931629877
 30
0.0
 40
5.0
  1
100
100
AcDbText
  0
TEXT
  5
6D7E
330
1E
100
AcDbEntity
  8
図枠
 62
     7
100
AcDbText
 10
1881.643774869574
 20
578.2536931629876
 30
0.0
 40
5.0
  1
125
100
AcDbText
  0
TEXT
  5
6D7F
330
1E
100
AcDbEntity
  8
図枠
 62
     7
100
AcDbText
 10
1881.643774869574
 20
569.2536931629875
 30
0.0
 40
5.0
  1
150
100
AcDbText
  0
TEXT
  5
6D80
330
1E
100
AcDbEntity
  8
図枠
 62
     7
100
AcDbText
 10
1881.643774869574
 20
560.2536931629876
 30
0.0
 40
5.0
  1
175
100
AcDbText
  0
TEXT
  5
6D81
330
1E
100
AcDbEntity
  8
図枠
 62
     7
100
AcDbText
 10
1881.643774869574
 20
551.2536931629877
 30
0.0
 40
5.0
  1
200
100
AcDbText
  0
TEXT
  5
6D82
330
1E
100
AcDbEntity
  8
図枠
 62
     7
100
AcDbText
 10
1881.643774869574
 20
542.2536931629877
 30
0.0
 40
5.0
  1
225
100
AcDbText
  0
TEXT
  5
6D83
330
1E
100
AcDbEntity
  8
図枠
 62
     7
100
AcDbText
 10
1881.643774869574
 20
533.2536931629877
 30
0.0
 40
5.0
  1
250
100
AcDbText
  0
TEXT
  5
6D84
330
1E
100
AcDbEntity
  8
図枠
 62
     7
100
AcDbText
 10
1881.643774869574
 20
524.2536931629877
 30
0.0
 40
5.0
  1
275
100
AcDbText
  0
TEXT
  5
6D85
330
1E
100
AcDbEntity
  8
図枠
 62
     7
100
AcDbText
 10
1881.643774869574
 20
515.2536931629876
 30
0.0
 40
5.0
  1
300
100
AcDbText
  0
LINE
  5
6D86
330
1E
100
AcDbEntity
  8
図枠
  6
Continuous
 62
     7
100
AcDbLine
 10
1961.643774869574
 20
603.7536931629877
 30
0.0
 11
1961.643774869574
 21
513.7536931629877
 31
0.0
  0
LINE
  5
6D87
330
1E
100
AcDbEntity
  8
図枠
  6
Continuous
 62
     7
100
AcDbLine
 10
1871.643774869575
 20
603.7536931629877
 30
0.0
 11
1871.643774869575
 21
513.7536931629877
 31
0.0
  0
LINE
  5
6D88
330
1E
100
AcDbEntity
  8
図枠
  6
Continuous
 62
     7
100
AcDbLine
 10
1901.643774869574
 20
603.7536931629877
 30
0.0
 11
1901.643774869574
 21
513.7536931629877
 31
0.0
  0
LINE
  5
6D89
330
1E
100
AcDbEntity
  8
図枠
  6
Continuous
 62
     7
100
AcDbLine
 10
1931.643774869575
 20
603.7536931629877
 30
0.0
 11
1931.643774869575
 21
513.7536931629877
 31
0.0
  0
TEXT
  5
6D8A
330
1E
100
AcDbEntity
  8
図枠
 62
     7
100
AcDbText
 10
1746.393774869574
 20
569.2536931629875
 30
0.0
 40
5.0
  1
　　  〃　 　375
100
AcDbText
  0
TEXT
  5
6D8B
330
1E
100
AcDbEntity
  8
図枠
 62
     7
100
AcDbText
 10
1746.393774869574
 20
560.2536931629876
 30
0.0
 40
5.0
  1
　　  〃　 　400
100
AcDbText
  0
TEXT
  5
6D8C
330
1E
100
AcDbEntity
  8
図枠
 62
     7
100
AcDbText
 10
1746.393774869574
 20
551.2536931629877
 30
0.0
 40
5.0
  1
　　  〃　 　425
100
AcDbText
  0
TEXT
  5
6D8D
330
1E
100
AcDbEntity
  8
図枠
 62
     7
100
AcDbText
 10
1746.393774869574
 20
542.2536931629877
 30
0.0
 40
5.0
  1
　　  〃　 　450
100
AcDbText
  0
TEXT
  5
6D8E
330
1E
100
AcDbEntity
  8
図枠
 62
     7
100
AcDbText
 10
1746.393774869574
 20
533.2536931629877
 30
0.0
 40
5.0
  1
　　  〃　 　475
100
AcDbText
  0
TEXT
  5
6D8F
330
1E
100
AcDbEntity
  8
図枠
 62
     7
100
AcDbText
 10
1746.393774869574
 20
524.2536931629877
 30
0.0
 40
5.0
  1
　　  〃　 　500
100
AcDbText
  0
TEXT
  5
6D90
330
1E
100
AcDbEntity
  8
図枠
 62
     7
100
AcDbText
 10
1746.393774869574
 20
515.2536931629876
 30
0.0
 40
5.0
  1
　　  〃　 　525
100
AcDbText
  0
TEXT
  5
6D91
330
1E
100
AcDbEntity
  8
図枠
 62
     7
100
AcDbText
 10
1821.643774869574
 20
578.2536931629876
 30
0.0
 40
5.0
  1
350
100
AcDbText
  0
TEXT
  5
6D92
330
1E
100
AcDbEntity
  8
図枠
 62
     7
100
AcDbText
 10
1821.643774869574
 20
569.2536931629875
 30
0.0
 40
5.0
  1
375
100
AcDbText
  0
TEXT
  5
6D93
330
1E
100
AcDbEntity
  8
図枠
 62
     7
100
AcDbText
 10
1821.643774869574
 20
560.2536931629876
 30
0.0
 40
5.0
  1
400
100
AcDbText
  0
TEXT
  5
6D94
330
1E
100
AcDbEntity
  8
図枠
 62
     7
100
AcDbText
 10
1821.643774869574
 20
551.2536931629877
 30
0.0
 40
5.0
  1
425
100
AcDbText
  0
TEXT
  5
6D95
330
1E
100
AcDbEntity
  8
図枠
 62
     7
100
AcDbText
 10
1821.643774869574
 20
542.2536931629877
 30
0.0
 40
5.0
  1
450
100
AcDbText
  0
TEXT
  5
6D96
330
1E
100
AcDbEntity
  8
図枠
 62
     7
100
AcDbText
 10
1821.643774869574
 20
533.2536931629877
 30
0.0
 40
5.0
  1
475
100
AcDbText
  0
TEXT
  5
6D97
330
1E
100
AcDbEntity
  8
図枠
 62
     7
100
AcDbText
 10
1821.643774869574
 20
524.2536931629877
 30
0.0
 40
5.0
  1
500
100
AcDbText
  0
TEXT
  5
6D98
330
1E
100
AcDbEntity
  8
図枠
 62
     7
100
AcDbText
 10
1821.643774869574
 20
515.2536931629876
 30
0.0
 40
5.0
  1
525
100
AcDbText
  0
TEXT
  5
6D99
330
1E
100
AcDbEntity
  8
図枠
 62
     7
100
AcDbText
 10
1851.643774869574
 20
578.2536931629876
 30
0.0
 40
5.0
  1
335
100
AcDbText
  0
TEXT
  5
6D9A
330
1E
100
AcDbEntity
  8
図枠
 62
     7
100
AcDbText
 10
1851.643774869574
 20
569.2536931629875
 30
0.0
 40
5.0
  1
360
100
AcDbText
  0
TEXT
  5
6D9B
330
1E
100
AcDbEntity
  8
図枠
 62
     7
100
AcDbText
 10
1851.643774869574
 20
560.2536931629876
 30
0.0
 40
5.0
  1
385
100
AcDbText
  0
TEXT
  5
6D9C
330
1E
100
AcDbEntity
  8
図枠
 62
     7
100
AcDbText
 10
1851.643774869574
 20
551.2536931629877
 30
0.0
 40
5.0
  1
410
100
AcDbText
  0
TEXT
  5
6D9D
330
1E
100
AcDbEntity
  8
図枠
 62
     7
100
AcDbText
 10
1851.643774869574
 20
542.2536931629877
 30
0.0
 40
5.0
  1
435
100
AcDbText
  0
TEXT
  5
6D9E
330
1E
100
AcDbEntity
  8
図枠
 62
     7
100
AcDbText
 10
1851.643774869574
 20
533.2536931629877
 30
0.0
 40
5.0
  1
460
100
AcDbText
  0
TEXT
  5
6D9F
330
1E
100
AcDbEntity
  8
図枠
 62
     7
100
AcDbText
 10
1851.643774869574
 20
524.2536931629877
 30
0.0
 40
5.0
  1
485
100
AcDbText
  0
TEXT
  5
6DA0
330
1E
100
AcDbEntity
  8
図枠
 62
     7
100
AcDbText
 10
1851.643774869574
 20
515.2536931629876
 30
0.0
 40
5.0
  1
510
100
AcDbText
  0
TEXT
  5
6DA1
330
1E
100
AcDbEntity
  8
図枠
 62
     7
100
AcDbText
 10
1913.393774869575
 20
578.2536931629876
 30
0.0
 40
5.0
  1
61
100
AcDbText
  0
TEXT
  5
6DA2
330
1E
100
AcDbEntity
  8
図枠
 62
     7
100
AcDbText
 10
1913.393774869575
 20
569.2536931629875
 30
0.0
 40
5.0
  1
62
100
AcDbText
  0
TEXT
  5
6DA3
330
1E
100
AcDbEntity
  8
図枠
 62
     7
100
AcDbText
 10
1913.393774869575
 20
560.2536931629876
 30
0.0
 40
5.0
  1
63
100
AcDbText
  0
TEXT
  5
6DA4
330
1E
100
AcDbEntity
  8
図枠
 62
     7
100
AcDbText
 10
1913.393774869575
 20
551.2536931629877
 30
0.0
 40
5.0
  1
64
100
AcDbText
  0
TEXT
  5
6DA5
330
1E
100
AcDbEntity
  8
図枠
 62
     7
100
AcDbText
 10
1913.393774869575
 20
542.2536931629877
 30
0.0
 40
5.0
  1
66
100
AcDbText
  0
TEXT
  5
6DA6
330
1E
100
AcDbEntity
  8
図枠
 62
     7
100
AcDbText
 10
1913.393774869575
 20
533.2536931629877
 30
0.0
 40
5.0
  1
67
100
AcDbText
  0
TEXT
  5
6DA7
330
1E
100
AcDbEntity
  8
図枠
 62
     7
100
AcDbText
 10
1913.393774869575
 20
524.2536931629877
 30
0.0
 40
5.0
  1
68
100
AcDbText
  0
TEXT
  5
6DA8
330
1E
100
AcDbEntity
  8
図枠
 62
     7
100
AcDbText
 10
1913.393774869575
 20
515.2536931629876
 30
0.0
 40
5.0
  1
70
100
AcDbText
  0
TEXT
  5
6DA9
330
1E
100
AcDbEntity
  8
図枠
 62
     7
100
AcDbText
 10
1941.643774869575
 20
578.2536931629876
 30
0.0
 40
5.0
  1
119
100
AcDbText
  0
TEXT
  5
6DAA
330
1E
100
AcDbEntity
  8
図枠
 62
     7
100
AcDbText
 10
1941.643774869575
 20
569.2536931629875
 30
0.0
 40
5.0
  1
121
100
AcDbText
  0
TEXT
  5
6DAB
330
1E
100
AcDbEntity
  8
図枠
 62
     7
100
AcDbText
 10
1941.643774869575
 20
560.2536931629876
 30
0.0
 40
5.0
  1
122
100
AcDbText
  0
TEXT
  5
6DAC
330
1E
100
AcDbEntity
  8
図枠
 62
     7
100
AcDbText
 10
1941.643774869575
 20
551.2536931629877
 30
0.0
 40
5.0
  1
123
100
AcDbText
  0
TEXT
  5
6DAD
330
1E
100
AcDbEntity
  8
図枠
 62
     7
100
AcDbText
 10
1941.643774869575
 20
533.2536931629877
 30
0.0
 40
5.0
  1
126
100
AcDbText
  0
TEXT
  5
6DAE
330
1E
100
AcDbEntity
  8
図枠
 62
     7
100
AcDbText
 10
1941.643774869575
 20
524.2536931629877
 30
0.0
 40
5.0
  1
127
100
AcDbText
  0
TEXT
  5
6DAF
330
1E
100
AcDbEntity
  8
図枠
 62
     7
100
AcDbText
 10
1941.643774869575
 20
515.2536931629876
 30
0.0
 40
5.0
  1
128
100
AcDbText
  0
TEXT
  5
6DB0
330
1E
100
AcDbEntity
  8
図枠
 62
     7
100
AcDbText
 10
1746.393774869574
 20
578.2536931629876
 30
0.0
 40
5.0
  1
　　  〃　 　350
100
AcDbText
  0
TEXT
  5
6DB1
330
1E
100
AcDbEntity
  8
図枠
 62
     7
100
AcDbText
 10
1913.393774869575
 20
587.2536931629877
 30
0.0
 40
5.0
  1
59
100
AcDbText
  0
TEXT
  5
6DB2
330
1E
100
AcDbEntity
  8
図枠
 62
     7
100
AcDbText
 10
1941.643774869575
 20
587.2536931629877
 30
0.0
 40
5.0
  1
118
100
AcDbText
  0
TEXT
  5
6DB3
330
1E
100
AcDbEntity
  8
図枠
 62
     7
100
AcDbText
 10
1821.643774869574
 20
587.2536931629877
 30
0.0
 40
5.0
  1
325
100
AcDbText
  0
TEXT
  5
6DB4
330
1E
100
AcDbEntity
  8
図枠
 62
     7
100
AcDbText
 10
1851.643774869574
 20
587.2536931629877
 30
0.0
 40
5.0
  1
310
100
AcDbText
  0
TEXT
  5
6DB5
330
1E
100
AcDbEntity
  8
図枠
 62
     7
100
AcDbText
 10
1458.643774869574
 20
587.2536931629877
 30
0.0
 40
5.0
  1
ＦＹＫキャップＳ
100
AcDbText
  0
TEXT
  5
6DB6
330
1E
100
AcDbEntity
  8
図枠
 62
     7
100
AcDbText
 10
1458.643774869574
 20
578.2536931629876
 30
0.0
 40
5.0
  1
ＦＹＫサイドキャップＳ
100
AcDbText
  0
TEXT
  5
6DB7
330
1E
100
AcDbEntity
  8
図枠
 62
     7
100
AcDbText
 10
1558.643774869574
 20
587.2536931629877
 30
0.0
 40
5.0
  1
150ＦＹＫ－Ｓ325～525
100
AcDbText
  0
TEXT
  5
6DB8
330
1E
100
AcDbEntity
  8
図枠
 62
     7
100
AcDbText
 10
1746.393774869574
 20
587.2536931629877
 30
0.0
 40
5.0
  1
150ＦＹＫ－Ｓ325
100
AcDbText
  0
ARC
  5
6DB9
330
1E
100
AcDbEntity
  8
躯体と製品
  6
Continuous
 62
     7
100
AcDbCircle
 10
1526.343774869574
 20
869.8650813573252
 30
0.0
 40
2.021428571428586
100
AcDbArc
 50
42.74124453868362
 51
90.0
  0
LINE
  5
6DBA
330
1E
100
AcDbEntity
  8
躯体と製品
  6
Continuous
 62
     3
100
AcDbLine
 10
1542.844963388275
 20
788.4753598376602
 30
0.0
 11
1544.310370163077
 21
816.4369868107881
 31
0.0
  0
LINE
  5
6DBB
330
1E
100
AcDbEntity
  8
躯体と製品
  6
Continuous
 62
     7
100
AcDbLine
 10
1544.284202184956
 20
815.9376720434108
 30
0.0
 11
1559.263645206274
 21
815.1526326997668
 31
0.0
  0
LINE
  5
6DBC
330
1E
100
AcDbEntity
  8
躯体と製品
  6
Continuous
 62
     7
100
AcDbLine
 10
1559.054301381302
 20
811.1581145607484
 30
0.0
 11
1559.263645206274
 21
815.1526326997668
 31
0.0
  0
LINE
  5
6DBD
330
1E
100
AcDbEntity
  8
躯体と製品
  6
Continuous
 62
     3
100
AcDbLine
 10
1519.143774869574
 20
802.3865099287537
 30
0.0
 11
1519.143774869574
 21
800.1365099287536
 31
0.0
  0
ARC
  5
6DBE
330
1E
100
AcDbEntity
  8
躯体と製品
  6
Continuous
 62
     3
100
AcDbCircle
 10
1520.143774869574
 20
802.3865099287537
 30
0.0
 40
1.0
100
AcDbArc
 50
90.0
 51
180.0
  0
ARC
  5
6DBF
330
1E
100
AcDbEntity
  8
躯体と製品
  6
Continuous
 62
     3
100
AcDbCircle
 10
1519.893774869574
 20
800.1365099287536
 30
0.0
 40
0.75
100
AcDbArc
 50
180.0
 51
0.0
  0
LINE
  5
6DC0
330
1E
100
AcDbEntity
  8
躯体と製品
  6
Continuous
 62
     3
100
AcDbLine
 10
1520.643774869574
 20
801.3865099287537
 30
0.0
 11
1520.643774869574
 21
800.1365099287536
 31
0.0
  0
ARC
  5
6DC1
330
1E
100
AcDbEntity
  8
躯体と製品
  6
Continuous
 62
     3
100
AcDbCircle
 10
1521.143774869574
 20
801.3865099287537
 30
0.0
 40
0.5
100
AcDbArc
 50
90.0
 51
180.0
  0
ARC
  5
6DC2
330
1E
100
AcDbEntity
  8
躯体と製品
  6
Continuous
 62
     3
100
AcDbCircle
 10
1523.643774869574
 20
833.8865099287536
 30
0.0
 40
1.5
100
AcDbArc
 50
90.0
 51
180.0
  0
LINE
  5
6DC3
330
1E
100
AcDbEntity
  8
躯体と製品
  6
Continuous
 62
     3
100
AcDbLine
 10
1522.143774869574
 20
803.8865099287535
 30
0.0
 11
1522.143774869574
 21
833.8865099287536
 31
0.0
  0
ARC
  5
6DC4
330
1E
100
AcDbEntity
  8
躯体と製品
  6
Continuous
 62
     3
100
AcDbCircle
 10
1521.643774869574
 20
803.8865099287535
 30
0.0
 40
0.5
100
AcDbArc
 50
270.0
 51
0.0
  0
LINE
  5
6DC5
330
1E
100
AcDbEntity
  8
躯体と製品
  6
Continuous
 62
     3
100
AcDbLine
 10
1521.643774869574
 20
803.3865099287536
 30
0.0
 11
1520.143774869574
 21
803.3865099287536
 31
0.0
  0
LINE
  5
6DC6
330
1E
100
AcDbEntity
  8
躯体と製品
  6
Continuous
 62
     3
100
AcDbLine
 10
1524.143774869574
 20
805.3865099287536
 30
0.0
 11
1524.143774869574
 21
833.3865099287535
 31
0.0
  0
ARC
  5
6DC7
330
1E
100
AcDbEntity
  8
躯体と製品
  6
Continuous
 62
     3
100
AcDbCircle
 10
1524.643774869574
 20
833.3865099287535
 30
0.0
 40
0.5
100
AcDbArc
 50
90.0
 51
180.0
  0
ARC
  5
6DC8
330
1E
100
AcDbEntity
  8
躯体と製品
  6
Continuous
 62
     3
100
AcDbCircle
 10
1525.143774869574
 20
805.3865099287536
 30
0.0
 40
1.0
100
AcDbArc
 50
180.0
 51
270.0
  0
ARC
  5
6DC9
330
1E
100
AcDbEntity
  8
躯体と製品
  6
Continuous
 62
     3
100
AcDbCircle
 10
1528.643774869574
 20
839.8865099287537
 30
0.0
 40
0.5
100
AcDbArc
 50
0.0
 51
90.0
  0
LINE
  5
6DCA
330
1E
100
AcDbEntity
  8
躯体と製品
  6
Continuous
 62
     3
100
AcDbLine
 10
1529.143774869574
 20
836.3865099287536
 30
0.0
 11
1529.143774869574
 21
839.8865099287537
 31
0.0
  0
ARC
  5
6DCB
330
1E
100
AcDbEntity
  8
躯体と製品
  6
Continuous
 62
     3
100
AcDbCircle
 10
1529.643774869574
 20
840.8865099287536
 30
0.0
 40
1.0
100
AcDbArc
 50
0.0
 51
90.0
  0
ARC
  5
6DCC
330
1E
100
AcDbEntity
  8
躯体と製品
  6
Continuous
 62
     3
100
AcDbCircle
 10
1529.143774869574
 20
827.8865099287536
 30
0.0
 40
1.0
100
AcDbArc
 50
90.0
 51
270.0
  0
ARC
  5
6DCD
330
1E
100
AcDbEntity
  8
躯体と製品
  6
Continuous
 62
     3
100
AcDbCircle
 10
1528.643774869574
 20
833.3865099287535
 30
0.0
 40
0.5
100
AcDbArc
 50
0.0
 51
90.0
  0
LINE
  5
6DCE
330
1E
100
AcDbEntity
  8
躯体と製品
  6
Continuous
 62
     3
100
AcDbLine
 10
1529.143774869574
 20
833.3865099287535
 30
0.0
 11
1529.143774869574
 21
828.8865099287535
 31
0.0
  0
ARC
  5
6DCF
330
1E
100
AcDbEntity
  8
躯体と製品
  6
Continuous
 62
     3
100
AcDbCircle
 10
1530.143774869574
 20
827.3865099287537
 30
0.0
 40
0.5
100
AcDbArc
 50
270.0
 51
0.0
  0
LINE
  5
6DD0
330
1E
100
AcDbEntity
  8
躯体と製品
  6
Continuous
 62
     3
100
AcDbLine
 10
1530.143774869574
 20
826.8865099287536
 30
0.0
 11
1529.143774869574
 21
826.8865099287536
 31
0.0
  0
ARC
  5
6DD1
330
1E
100
AcDbEntity
  8
躯体と製品
  6
Continuous
 62
     3
100
AcDbCircle
 10
1531.643774869574
 20
800.8865099287536
 30
0.0
 40
1.0
100
AcDbArc
 50
0.0
 51
90.0
  0
ARC
  5
6DD2
330
1E
100
AcDbEntity
  8
躯体と製品
  6
Continuous
 62
     3
100
AcDbCircle
 10
1533.143774869574
 20
802.3865099287537
 30
0.0
 40
2.0
100
AcDbArc
 50
0.0
 51
90.0
  0
LINE
  5
6DD3
330
1E
100
AcDbEntity
  8
躯体と製品
  6
Continuous
 62
     3
100
AcDbLine
 10
1524.643774869574
 20
833.8865099287536
 30
0.0
 11
1528.643774869574
 21
833.8865099287536
 31
0.0
  0
LINE
  5
6DD4
330
1E
100
AcDbEntity
  8
躯体と製品
  6
Continuous
 62
     3
100
AcDbLine
 10
1533.143774869574
 20
804.3865099287536
 30
0.0
 11
1525.143774869574
 21
804.3865099287536
 31
0.0
  0
LINE
  5
6DD5
330
1E
100
AcDbEntity
  8
躯体と製品
  6
Continuous
 62
     3
100
AcDbLine
 10
1528.143774869574
 20
835.3865099287537
 30
0.0
 11
1523.643774869574
 21
835.3865099287537
 31
0.0
  0
LINE
  5
6DD6
330
1E
100
AcDbEntity
  8
躯体と製品
  6
Continuous
 62
     3
100
AcDbLine
 10
1531.643774869574
 20
801.8865099287536
 30
0.0
 11
1521.143774869574
 21
801.8865099287536
 31
0.0
  0
ARC
  5
6DD7
330
1E
100
AcDbEntity
  8
躯体と製品
  6
Continuous
 62
     3
100
AcDbCircle
 10
1528.143774869574
 20
836.3865099287536
 30
0.0
 40
1.0
100
AcDbArc
 50
270.0
 51
0.0
  0
LINE
  5
6DD8
330
1E
100
AcDbEntity
  8
躯体と製品
  6
Continuous
 62
     3
100
AcDbLine
 10
1530.643774869574
 20
827.3865099287537
 30
0.0
 11
1530.643774869574
 21
840.8865099287536
 31
0.0
  0
ARC
  5
6DD9
330
1E
100
AcDbEntity
  8
躯体と製品
  6
Continuous
 62
     3
100
AcDbCircle
 10
1522.043774869574
 20
838.9865099287536
 30
0.0
 40
0.5999999999999998
100
AcDbArc
 50
180.0
 51
0.0
  0
ARC
  5
6DDA
330
1E
100
AcDbEntity
  8
躯体と製品
  6
Continuous
 62
     3
100
AcDbCircle
 10
1517.793774869574
 20
847.1365099287536
 30
0.0
 40
0.75
100
AcDbArc
 50
0.0
 51
180.0
  0
LINE
  5
6DDB
330
1E
100
AcDbEntity
  8
躯体と製品
  6
Continuous
 62
     3
100
AcDbLine
 10
1518.543774869574
 20
847.1365099287536
 30
0.0
 11
1518.543774869574
 21
843.8865099287536
 31
0.0
  0
LINE
  5
6DDC
330
1E
100
AcDbEntity
  8
躯体と製品
  6
Continuous
 62
     3
100
AcDbLine
 10
1518.543774869574
 20
843.8865099287536
 30
0.0
 11
1522.043774869574
 21
841.8865099287536
 31
0.0
  0
LINE
  5
6DDD
330
1E
100
AcDbEntity
  8
躯体と製品
  6
Continuous
 62
     3
100
AcDbLine
 10
1522.643774869574
 20
839.8865099287537
 30
0.0
 11
1522.643774869574
 21
838.9865099287536
 31
0.0
  0
ARC
  5
6DDE
330
1E
100
AcDbEntity
  8
躯体と製品
  6
Continuous
 62
     3
100
AcDbCircle
 10
1523.143774869574
 20
839.8865099287537
 30
0.0
 40
0.5
100
AcDbArc
 50
90.0
 51
180.0
  0
LINE
  5
6DDF
330
1E
100
AcDbEntity
  8
躯体と製品
  6
Continuous
 62
     3
100
AcDbLine
 10
1529.643774869574
 20
841.8865099287536
 30
0.0
 11
1522.043774869574
 21
841.8865099287536
 31
0.0
  0
LINE
  5
6DE0
330
1E
100
AcDbEntity
  8
躯体と製品
  6
Continuous
 62
     3
100
AcDbLine
 10
1523.143774869574
 20
840.3865099287536
 30
0.0
 11
1528.643774869574
 21
840.3865099287536
 31
0.0
  0
ARC
  5
6DE1
330
1E
100
AcDbEntity
  8
躯体と製品
  6
Continuous
 62
     3
100
AcDbCircle
 10
1542.764336270841
 20
796.4905640938179
 30
0.0
 40
0.5
100
AcDbArc
 50
357.0000000000011
 51
86.99999999999441
  0
LINE
  5
6DE2
330
1E
100
AcDbEntity
  8
躯体と製品
  6
Continuous
 62
     3
100
AcDbLine
 10
1542.291189481585
 20
797.0160468393168
 30
0.0
 11
1542.790504248962
 21
796.9898788611954
 31
0.0
  0
ARC
  5
6DE3
330
1E
100
AcDbEntity
  8
躯体と製品
  6
Continuous
 62
     3
100
AcDbCircle
 10
1542.265021503464
 20
796.5167320719395
 30
0.0
 40
0.5
100
AcDbArc
 50
86.99999999999441
 51
177.0000000000011
  0
LINE
  5
6DE4
330
1E
100
AcDbEntity
  8
躯体と製品
  6
Continuous
 62
     3
100
AcDbLine
 10
1541.661034823601
 20
794.545640980552
 30
0.0
 11
1541.765706736086
 21
796.5429000500607
 31
0.0
  0
ARC
  5
6DE5
330
1E
100
AcDbEntity
  8
躯体と製品
  6
Continuous
 62
     3
100
AcDbCircle
 10
1541.161720056223
 20
794.5718089586732
 30
0.0
 40
0.5
100
AcDbArc
 50
266.9999999999944
 51
357.0000000000011
  0
ARC
  5
6DE6
330
1E
100
AcDbEntity
  8
躯体と製品
  6
Continuous
 62
     3
100
AcDbCircle
 10
1542.39798457714
 20
789.500157350536
 30
0.0
 40
0.5
100
AcDbArc
 50
266.9999999999944
 51
357.0000000000011
  0
LINE
  5
6DE7
330
1E
100
AcDbEntity
  8
躯体と製品
  6
Continuous
 62
     3
100
AcDbLine
 10
1541.872501831642
 20
789.0270105612801
 30
0.0
 11
1542.371816599019
 21
789.0008425831588
 31
0.0
  0
ARC
  5
6DE8
330
1E
100
AcDbEntity
  8
躯体と製品
  6
Continuous
 62
     3
100
AcDbCircle
 10
1541.898669809763
 20
789.5263253286575
 30
0.0
 40
0.5
100
AcDbArc
 50
177.0000000000011
 51
266.9999999999944
  0
LINE
  5
6DE9
330
1E
100
AcDbEntity
  8
躯体と製品
  6
Continuous
 62
     3
100
AcDbLine
 10
1541.451690998629
 20
790.5511228415335
 30
0.0
 11
1541.399355042386
 21
789.552493306779
 31
0.0
  0
ARC
  5
6DEA
330
1E
100
AcDbEntity
  8
躯体と製品
  6
Continuous
 62
     3
100
AcDbCircle
 10
1540.952376231252
 20
790.5772908196551
 30
0.0
 40
0.5
100
AcDbArc
 50
357.0000000000011
 51
86.99999999999441
  0
LINE
  5
6DEB
330
1E
100
AcDbEntity
  8
躯体と製品
  6
Continuous
 62
     3
100
AcDbLine
 10
1535.143774869574
 20
795.3354744954686
 30
0.0
 11
1535.143774869574
 21
802.3865099287537
 31
0.0
  0
LINE
  5
6DEC
330
1E
100
AcDbEntity
  8
躯体と製品
  6
Continuous
 62
     3
100
AcDbLine
 10
1536.091438913331
 20
794.3368449607141
 30
0.0
 11
1541.135552078102
 21
794.0724941912961
 31
0.0
  0
ARC
  5
6DED
330
1E
100
AcDbEntity
  8
躯体と製品
  6
Continuous
 62
     3
100
AcDbCircle
 10
1536.143774869574
 20
795.3354744954686
 30
0.0
 40
1.0
100
AcDbArc
 50
180.0
 51
266.9999999999944
  0
LINE
  5
6DEE
330
1E
100
AcDbEntity
  8
躯体と製品
  6
Continuous
 62
     3
100
AcDbLine
 10
1532.643774869574
 20
793.4113414723972
 30
0.0
 11
1532.643774869574
 21
800.8865099287536
 31
0.0
  0
LINE
  5
6DEF
330
1E
100
AcDbEntity
  8
躯体と製品
  6
Continuous
 62
     3
100
AcDbLine
 10
1534.539102957088
 20
791.4140824028882
 30
0.0
 11
1540.978544209373
 21
791.0766055870322
 31
0.0
  0
ARC
  5
6DF0
330
1E
100
AcDbEntity
  8
躯体と製品
  6
Continuous
 62
     3
100
AcDbCircle
 10
1534.643774869574
 20
793.4113414723972
 30
0.0
 40
2.0
100
AcDbArc
 50
180.0
 51
266.9999999999944
  0
LINE
  5
6DF1
330
1E
100
AcDbEntity
  8
躯体と製品
  6
Continuous
 62
     3
100
AcDbLine
 10
1517.043774869574
 20
843.8865099287536
 30
0.0
 11
1517.043774869574
 21
847.1365099287536
 31
0.0
  0
ARC
  5
6DF2
330
1E
100
AcDbEntity
  8
躯体と製品
  6
Continuous
 62
     3
100
AcDbCircle
 10
1518.543774869574
 20
843.8865099287536
 30
0.0
 40
1.5
100
AcDbArc
 50
180.0
 51
240.2551187030594
  0
LINE
  5
6DF3
330
1E
100
AcDbEntity
  8
躯体と製品
  6
Continuous
 62
     3
100
AcDbLine
 10
1517.799566462039
 20
842.5841452155671
 30
0.0
 11
1521.443774869574
 21
840.501740411261
 31
0.0
  0
LINE
  5
6DF4
330
1E
100
AcDbEntity
  8
躯体と製品
  6
Continuous
 62
     3
100
AcDbLine
 10
1521.443774869574
 20
840.501740411261
 30
0.0
 11
1521.443774869574
 21
838.9865099287536
 31
0.0
  0
LINE
  5
6DF5
330
1E
100
AcDbEntity
  8
躯体と製品
  6
DASHED1
 62
     7
100
AcDbLine
 10
1543.132811147611
 20
793.9678222788102
 30
0.0
 11
1571.593752888116
 21
792.4762475258862
 31
0.0
  0
ARC
  5
6DF6
330
1E
100
AcDbEntity
  8
躯体と製品
  6
DASHED1
 62
     7
100
AcDbCircle
 10
1571.515248953752
 20
790.9783032237544
 30
0.0
 40
1.500000000000001
100
AcDbArc
 50
266.9999999999944
 51
86.99999999999441
  0
LINE
  5
6DF7
330
1E
100
AcDbEntity
  8
躯体と製品
  6
DASHED1
 62
     7
100
AcDbLine
 10
1567.941541647746
 20
789.6635347684727
 30
0.0
 11
1571.436745019387
 21
789.4803589216224
 31
0.0
  0
LINE
  5
6DF8
330
1E
100
AcDbEntity
  8
躯体と製品
  6
DASHED1
 62
     7
100
AcDbLine
 10
1567.941541647746
 20
789.6635347684727
 30
0.0
 11
1567.99387760399
 21
790.6621643032272
 31
0.0
  0
LINE
  5
6DF9
330
1E
100
AcDbEntity
  8
躯体と製品
  6
DASHED1
 62
     7
100
AcDbLine
 10
1548.021286908898
 20
791.708883428086
 30
0.0
 11
1567.99387760399
 21
790.6621643032272
 31
0.0
  0
LINE
  5
6DFA
330
1E
100
AcDbEntity
  8
躯体と製品
  6
DASHED1
 62
     7
100
AcDbLine
 10
1547.968950952655
 20
790.7102538933315
 30
0.0
 11
1548.021286908898
 21
791.708883428086
 31
0.0
  0
LINE
  5
6DFB
330
1E
100
AcDbEntity
  8
躯体と製品
  6
DASHED1
 62
     7
100
AcDbLine
 10
1542.975803278882
 20
790.9719336745463
 30
0.0
 11
1547.968950952655
 21
790.7102538933315
 31
0.0
  0
LINE
  5
6DFC
330
1E
100
AcDbEntity
  8
躯体と製品
  6
Continuous
 62
     4
100
AcDbLine
 10
1544.85033878368
 20
816.4086882545001
 30
0.0
 11
1544.335850297607
 21
816.9231767405731
 31
0.0
  0
LINE
  5
6DFD
330
1E
100
AcDbEntity
  8
躯体と製品
  6
Continuous
 62
     4
100
AcDbLine
 10
1544.614826980587
 20
811.9148553481048
 30
0.0
 11
1544.100338494514
 21
812.4293438341775
 31
0.0
  0
LINE
  5
6DFE
330
1E
100
AcDbEntity
  8
躯体と製品
  6
Continuous
 62
     4
100
AcDbLine
 10
1546.107255402277
 20
811.8366404887851
 30
0.0
 11
1544.170763470169
 21
813.7731324208935
 31
0.0
  0
LINE
  5
6DFF
330
1E
100
AcDbEntity
  8
躯体と製品
  6
Continuous
 62
     4
100
AcDbLine
 10
1547.599683823971
 20
811.758425629465
 30
0.0
 11
1544.241188445825
 21
815.1169210076112
 31
0.0
  0
LINE
  5
6E00
330
1E
100
AcDbEntity
  8
躯体と製品
  6
Continuous
 62
     4
100
AcDbLine
 10
1549.092112245665
 20
811.6802107701449
 30
0.0
 11
1544.865094234731
 21
815.907228781079
 31
0.0
  0
LINE
  5
6E01
330
1E
100
AcDbEntity
  8
躯体と製品
  6
Continuous
 62
     4
100
AcDbLine
 10
1550.584540667358
 20
811.601995910825
 30
0.0
 11
1546.357522656424
 21
815.8290139217591
 31
0.0
  0
LINE
  5
6E02
330
1E
100
AcDbEntity
  8
躯体と製品
  6
Continuous
 62
     4
100
AcDbLine
 10
1552.076969089051
 20
811.5237810515052
 30
0.0
 11
1547.849951078117
 21
815.7507990624393
 31
0.0
  0
LINE
  5
6E03
330
1E
100
AcDbEntity
  8
躯体と製品
  6
Continuous
 62
     4
100
AcDbLine
 10
1553.569397510744
 20
811.4455661921857
 30
0.0
 11
1549.34237949981
 21
815.6725842031196
 31
0.0
  0
LINE
  5
6E04
330
1E
100
AcDbEntity
  8
躯体と製品
  6
Continuous
 62
     4
100
AcDbLine
 10
1555.061825932437
 20
811.3673513328656
 30
0.0
 11
1550.834807921503
 21
815.5943693437999
 31
0.0
  0
LINE
  5
6E05
330
1E
100
AcDbEntity
  8
躯体と製品
  6
Continuous
 62
     4
100
AcDbLine
 10
1556.55425435413
 20
811.2891364735462
 30
0.0
 11
1552.327236343196
 21
815.5161544844798
 31
0.0
  0
LINE
  5
6E06
330
1E
100
AcDbEntity
  8
躯体と製品
  6
Continuous
 62
     4
100
AcDbLine
 10
1558.046682775821
 20
811.2109216142265
 30
0.0
 11
1553.819664764887
 21
815.4379396251599
 31
0.0
  0
LINE
  5
6E07
330
1E
100
AcDbEntity
  8
躯体と製品
  6
Continuous
 62
     4
100
AcDbLine
 10
1559.07717867244
 20
811.5946392799811
 30
0.0
 11
1555.31209318658
 21
815.3597247658403
 31
0.0
  0
LINE
  5
6E08
330
1E
100
AcDbEntity
  8
躯体と製品
  6
Continuous
 62
     4
100
AcDbLine
 10
1559.218028623751
 20
814.2822164534166
 30
0.0
 11
1558.296950029967
 21
815.2032950472007
 31
0.0
  0
LINE
  5
6E09
330
1E
100
AcDbEntity
  8
躯体と製品
  6
Continuous
 62
     4
100
AcDbLine
 10
1559.147603648095
 20
812.9384278666991
 30
0.0
 11
1556.804521608273
 21
815.2815099065206
 31
0.0
  0
LINE
  5
6E0A
330
1E
100
AcDbEntity
  8
躯体と製品
  6
DASHED1
 62
     7
100
AcDbLine
 10
1482.252428869574
 20
821.0358439287535
 30
0.0
 11
1482.357098869574
 21
823.0331029287537
 31
0.0
  0
LINE
  5
6E0B
330
1E
100
AcDbEntity
  8
躯体と製品
  6
DASHED1
 62
     7
100
AcDbLine
 10
1500.143774869574
 20
821.8865089287538
 30
0.0
 11
1512.143774869574
 21
821.8865089287538
 31
0.0
  0
LINE
  5
6E0C
330
1E
100
AcDbEntity
  8
躯体と製品
  6
DASHED1
 62
     7
100
AcDbLine
 10
1492.343393869574
 20
813.2632729287536
 30
0.0
 11
1497.001373869574
 21
811.5679069287537
 31
0.0
  0
LINE
  5
6E0D
330
1E
100
AcDbEntity
  8
躯体と製品
  6
DASHED1
 62
     7
100
AcDbLine
 10
1503.947414869574
 20
824.2088479287536
 30
0.0
 11
1497.343394869575
 21
823.2654169287537
 31
0.0
  0
LINE
  5
6E0E
330
1E
100
AcDbEntity
  8
躯体と製品
  6
DASHED1
 62
     7
100
AcDbLine
 10
1478.013218869574
 20
816.0170629287538
 30
0.0
 11
1476.143774869574
 21
817.8865099287536
 31
0.0
  0
LINE
  5
6E0F
330
1E
100
AcDbEntity
  8
躯体と製品
  6
DASHED1
 62
     7
100
AcDbLine
 10
1477.363952869574
 20
812.4782329287539
 30
0.0
 11
1475.366693869574
 21
812.3735629287537
 31
0.0
  0
LINE
  5
6E10
330
1E
100
AcDbEntity
  8
躯体と製品
  6
DASHED1
 62
     7
100
AcDbLine
 10
1477.259279869574
 20
814.4754919287539
 30
0.0
 11
1477.363952869574
 21
812.4782329287539
 31
0.0
  0
LINE
  5
6E11
330
1E
100
AcDbEntity
  8
躯体と製品
  6
DASHED1
 62
     7
100
AcDbLine
 10
1479.256538869574
 20
814.5801649287536
 30
0.0
 11
1477.259279869574
 21
814.4754919287539
 31
0.0
  0
LINE
  5
6E12
330
1E
100
AcDbEntity
  8
躯体と製品
  6
DASHED1
 62
     7
100
AcDbLine
 10
1480.359839869574
 20
812.6352409287536
 30
0.0
 11
1479.256538869574
 21
814.5801649287536
 31
0.0
  0
LINE
  5
6E13
330
1E
100
AcDbEntity
  8
躯体と製品
  6
DASHED1
 62
     7
100
AcDbLine
 10
1482.357098869574
 20
812.7399139287536
 30
0.0
 11
1480.359839869574
 21
812.6352409287536
 31
0.0
  0
LINE
  5
6E14
330
1E
100
AcDbEntity
  8
躯体と製品
  6
DASHED1
 62
     7
100
AcDbLine
 10
1482.252428869574
 20
814.7371729287536
 30
0.0
 11
1482.357098869574
 21
812.7399139287536
 31
0.0
  0
LINE
  5
6E15
330
1E
100
AcDbEntity
  8
躯体と製品
  6
DASHED1
 62
     7
100
AcDbLine
 10
1484.249687869574
 20
814.8418459287539
 30
0.0
 11
1482.252428869574
 21
814.7371729287536
 31
0.0
  0
LINE
  5
6E16
330
1E
100
AcDbEntity
  8
躯体と製品
  6
DASHED1
 62
     7
100
AcDbLine
 10
1485.352988869574
 20
812.8969219287537
 30
0.0
 11
1484.249687869574
 21
814.8418459287539
 31
0.0
  0
LINE
  5
6E17
330
1E
100
AcDbEntity
  8
躯体と製品
  6
DASHED1
 62
     7
100
AcDbLine
 10
1487.350247869574
 20
813.0015949287535
 30
0.0
 11
1485.352988869574
 21
812.8969219287537
 31
0.0
  0
LINE
  5
6E18
330
1E
100
AcDbEntity
  8
躯体と製品
  6
DASHED1
 62
     7
100
AcDbLine
 10
1487.245574869574
 20
814.9988539287535
 30
0.0
 11
1487.350247869574
 21
813.0015949287535
 31
0.0
  0
LINE
  5
6E19
330
1E
100
AcDbEntity
  8
躯体と製品
  6
DASHED1
 62
     7
100
AcDbLine
 10
1489.242833869574
 20
815.1035239287537
 30
0.0
 11
1487.245574869574
 21
814.9988539287535
 31
0.0
  0
LINE
  5
6E1A
330
1E
100
AcDbEntity
  8
躯体と製品
  6
DASHED1
 62
     7
100
AcDbLine
 10
1490.346134869574
 20
813.1586029287539
 30
0.0
 11
1489.242833869574
 21
815.1035239287537
 31
0.0
  0
LINE
  5
6E1B
330
1E
100
AcDbEntity
  8
躯体と製品
  6
DASHED1
 62
     7
100
AcDbLine
 10
1492.343393869574
 20
813.2632729287536
 30
0.0
 11
1490.346134869574
 21
813.1586029287539
 31
0.0
  0
LINE
  5
6E1C
330
1E
100
AcDbEntity
  8
躯体と製品
  6
DASHED1
 62
     7
100
AcDbLine
 10
1492.238723869574
 20
815.2605319287538
 30
0.0
 11
1492.343393869574
 21
813.2632729287536
 31
0.0
  0
LINE
  5
6E1D
330
1E
100
AcDbEntity
  8
躯体と製品
  6
DASHED1
 62
     7
100
AcDbLine
 10
1494.235982869574
 20
815.365204928754
 30
0.0
 11
1492.238723869574
 21
815.2605319287538
 31
0.0
  0
LINE
  5
6E1E
330
1E
100
AcDbEntity
  8
躯体と製品
  6
DASHED1
 62
     7
100
AcDbLine
 10
1495.339283869574
 20
813.4202809287538
 30
0.0
 11
1494.235982869574
 21
815.365204928754
 31
0.0
  0
LINE
  5
6E1F
330
1E
100
AcDbEntity
  8
躯体と製品
  6
DASHED1
 62
     7
100
AcDbLine
 10
1473.186257869574
 20
815.7640939287537
 30
0.0
 11
1504.143773869574
 21
817.3865089287538
 31
0.0
  0
LINE
  5
6E20
330
1E
100
AcDbEntity
  8
躯体と製品
  6
DASHED1
 62
     7
100
AcDbLine
 10
1473.264761869574
 20
814.2661489287537
 30
0.0
 11
1473.186257869574
 21
815.7640939287537
 31
0.0
  0
LINE
  5
6E21
330
1E
100
AcDbEntity
  8
躯体と製品
  6
DASHED1
 62
     7
100
AcDbLine
 10
1475.366693869574
 20
812.3735629287537
 30
0.0
 11
1473.264761869574
 21
814.2661489287537
 31
0.0
  0
LINE
  5
6E22
330
1E
100
AcDbEntity
  8
躯体と製品
  6
DASHED1
 62
     7
100
AcDbLine
 10
1475.183516869574
 20
815.8687669287539
 30
0.0
 11
1475.366693869574
 21
812.3735629287537
 31
0.0
  0
LINE
  5
6E23
330
1E
100
AcDbEntity
  8
躯体と製品
  6
DASHED1
 62
     7
100
AcDbLine
 10
1497.336542869574
 20
813.5249539287535
 30
0.0
 11
1495.339283869574
 21
813.4202809287538
 31
0.0
  0
LINE
  5
6E24
330
1E
100
AcDbEntity
  8
躯体と製品
  6
DASHED1
 62
     7
100
AcDbLine
 10
1497.231869869574
 20
815.5222129287537
 30
0.0
 11
1497.336542869574
 21
813.5249539287535
 31
0.0
  0
LINE
  5
6E25
330
1E
100
AcDbEntity
  8
躯体と製品
  6
DASHED1
 62
     7
100
AcDbLine
 10
1499.229128869574
 20
815.6268829287537
 30
0.0
 11
1497.231869869574
 21
815.5222129287537
 31
0.0
  0
LINE
  5
6E26
330
1E
100
AcDbEntity
  8
躯体と製品
  6
DASHED1
 62
     7
100
AcDbLine
 10
1512.143774869574
 20
812.8865089287538
 30
0.0
 11
1507.143773869574
 21
813.8865079287539
 31
0.0
  0
LINE
  5
6E27
330
1E
100
AcDbEntity
  8
躯体と製品
  6
DASHED1
 62
     7
100
AcDbLine
 10
1504.143773869574
 20
817.3865089287538
 30
0.0
 11
1504.143773869574
 21
818.3865079287539
 31
0.0
  0
LINE
  5
6E28
330
1E
100
AcDbEntity
  8
躯体と製品
  6
DASHED1
 62
     7
100
AcDbLine
 10
1477.363952869574
 20
823.2947839287538
 30
0.0
 11
1475.366693869574
 21
823.3994539287536
 31
0.0
  0
LINE
  5
6E29
330
1E
100
AcDbEntity
  8
躯体と製品
  6
DASHED1
 62
     7
100
AcDbLine
 10
1477.259279869574
 20
821.2975249287538
 30
0.0
 11
1477.363952869574
 21
823.2947839287538
 31
0.0
  0
LINE
  5
6E2A
330
1E
100
AcDbEntity
  8
躯体と製品
  6
DASHED1
 62
     7
100
AcDbLine
 10
1479.256538869574
 20
821.1928519287537
 30
0.0
 11
1477.259279869574
 21
821.2975249287538
 31
0.0
  0
LINE
  5
6E2B
330
1E
100
AcDbEntity
  8
躯体と製品
  6
DASHED1
 62
     7
100
AcDbLine
 10
1480.359839869574
 20
823.1377759287537
 30
0.0
 11
1479.256538869574
 21
821.1928519287537
 31
0.0
  0
LINE
  5
6E2C
330
1E
100
AcDbEntity
  8
躯体と製品
  6
DASHED1
 62
     7
100
AcDbLine
 10
1482.357098869574
 20
823.0331029287537
 30
0.0
 11
1480.359839869574
 21
823.1377759287537
 31
0.0
  0
LINE
  5
6E2D
330
1E
100
AcDbEntity
  8
躯体と製品
  6
DASHED1
 62
     7
100
AcDbLine
 10
1484.249687869574
 20
820.9311709287536
 30
0.0
 11
1482.252428869574
 21
821.0358439287535
 31
0.0
  0
LINE
  5
6E2E
330
1E
100
AcDbEntity
  8
躯体と製品
  6
DASHED1
 62
     7
100
AcDbLine
 10
1485.352988869574
 20
822.8760949287536
 30
0.0
 11
1484.249687869574
 21
820.9311709287536
 31
0.0
  0
LINE
  5
6E2F
330
1E
100
AcDbEntity
  8
躯体と製品
  6
DASHED1
 62
     7
100
AcDbLine
 10
1487.350247869574
 20
822.7714219287538
 30
0.0
 11
1485.352988869574
 21
822.8760949287536
 31
0.0
  0
LINE
  5
6E30
330
1E
100
AcDbEntity
  8
躯体と製品
  6
DASHED1
 62
     7
100
AcDbLine
 10
1487.245574869574
 20
820.7741629287539
 30
0.0
 11
1487.350247869574
 21
822.7714219287538
 31
0.0
  0
LINE
  5
6E31
330
1E
100
AcDbEntity
  8
躯体と製品
  6
DASHED1
 62
     7
100
AcDbLine
 10
1489.242833869574
 20
820.6694929287536
 30
0.0
 11
1487.245574869574
 21
820.7741629287539
 31
0.0
  0
LINE
  5
6E32
330
1E
100
AcDbEntity
  8
躯体と製品
  6
DASHED1
 62
     7
100
AcDbLine
 10
1490.346134869574
 20
822.6144139287537
 30
0.0
 11
1489.242833869574
 21
820.6694929287536
 31
0.0
  0
LINE
  5
6E33
330
1E
100
AcDbEntity
  8
躯体と製品
  6
DASHED1
 62
     7
100
AcDbLine
 10
1492.343393869574
 20
822.5097439287536
 30
0.0
 11
1490.346134869574
 21
822.6144139287537
 31
0.0
  0
LINE
  5
6E34
330
1E
100
AcDbEntity
  8
躯体と製品
  6
DASHED1
 62
     7
100
AcDbLine
 10
1492.238723869574
 20
820.5124849287537
 30
0.0
 11
1492.343393869574
 21
822.5097439287536
 31
0.0
  0
LINE
  5
6E35
330
1E
100
AcDbEntity
  8
躯体と製品
  6
DASHED1
 62
     7
100
AcDbLine
 10
1494.235982869574
 20
820.4078119287537
 30
0.0
 11
1492.238723869574
 21
820.5124849287537
 31
0.0
  0
LINE
  5
6E36
330
1E
100
AcDbEntity
  8
躯体と製品
  6
DASHED1
 62
     7
100
AcDbLine
 10
1495.339283869574
 20
822.3527359287539
 30
0.0
 11
1494.235982869574
 21
820.4078119287537
 31
0.0
  0
LINE
  5
6E37
330
1E
100
AcDbEntity
  8
躯体と製品
  6
DASHED1
 62
     7
100
AcDbLine
 10
1473.186257869574
 20
820.0089229287536
 30
0.0
 11
1504.143773869574
 21
818.3865079287539
 31
0.0
  0
LINE
  5
6E38
330
1E
100
AcDbEntity
  8
躯体と製品
  6
DASHED1
 62
     7
100
AcDbLine
 10
1473.264761869574
 20
821.506867928754
 30
0.0
 11
1473.186257869574
 21
820.0089229287536
 31
0.0
  0
LINE
  5
6E39
330
1E
100
AcDbEntity
  8
躯体と製品
  6
DASHED1
 62
     7
100
AcDbLine
 10
1475.366693869574
 20
823.3994539287536
 30
0.0
 11
1473.264761869574
 21
821.506867928754
 31
0.0
  0
LINE
  5
6E3A
330
1E
100
AcDbEntity
  8
躯体と製品
  6
DASHED1
 62
     7
100
AcDbLine
 10
1475.183516869574
 20
819.9042499287539
 30
0.0
 11
1475.366693869574
 21
823.3994539287536
 31
0.0
  0
LINE
  5
6E3B
330
1E
100
AcDbEntity
  8
躯体と製品
  6
DASHED1
 62
     7
100
AcDbLine
 10
1497.336542869574
 20
822.2480629287536
 30
0.0
 11
1495.339283869574
 21
822.3527359287539
 31
0.0
  0
LINE
  5
6E3C
330
1E
100
AcDbEntity
  8
躯体と製品
  6
DASHED1
 62
     7
100
AcDbLine
 10
1497.231869869574
 20
820.2508039287538
 30
0.0
 11
1497.336542869574
 21
822.2480629287536
 31
0.0
  0
LINE
  5
6E3D
330
1E
100
AcDbEntity
  8
躯体と製品
  6
DASHED1
 62
     7
100
AcDbLine
 10
1499.229128869574
 20
820.1461339287536
 30
0.0
 11
1497.231869869574
 21
820.2508039287538
 31
0.0
  0
LINE
  5
6E3E
330
1E
100
AcDbEntity
  8
躯体と製品
  6
DASHED1
 62
     7
100
AcDbLine
 10
1478.013218869574
 20
819.7559539287537
 30
0.0
 11
1476.143774869574
 21
817.8865099287536
 31
0.0
  0
LINE
  5
6E3F
330
1E
100
AcDbEntity
  8
躯体と製品
  6
DASHED1
 62
     7
100
AcDbLine
 10
1507.143773869574
 20
817.8865099287536
 30
0.0
 11
1512.143774869574
 21
817.8865099287536
 31
0.0
  0
LINE
  5
6E40
330
1E
100
AcDbEntity
  8
躯体と製品
  6
DASHED1
 62
     7
100
AcDbLine
 10
1512.143774869574
 20
816.886507928754
 30
0.0
 11
1507.143773869574
 21
817.8865099287536
 31
0.0
  0
LINE
  5
6E41
330
1E
100
AcDbEntity
  8
躯体と製品
  6
DASHED1
 62
     7
100
AcDbLine
 10
1512.143774869574
 20
818.8865089287535
 30
0.0
 11
1507.143773869574
 21
817.8865099287536
 31
0.0
  0
LINE
  5
6E42
330
1E
100
AcDbEntity
  8
躯体と製品
  6
DASHED1
 62
     7
100
AcDbLine
 10
1512.143774869574
 20
822.8865079287539
 30
0.0
 11
1507.143773869574
 21
821.8865089287538
 31
0.0
  0
LINE
  5
6E43
330
1E
100
AcDbEntity
  8
躯体と製品
  6
DASHED1
 62
     7
100
AcDbLine
 10
1500.143774869574
 20
821.8865089287538
 30
0.0
 11
1499.229128869574
 21
820.1461339287536
 31
0.0
  0
ARC
  5
6E44
330
1E
100
AcDbEntity
  8
躯体と製品
  6
DASHED1
 62
     7
100
AcDbCircle
 10
1503.890846869574
 20
824.6048269287538
 30
0.0
 40
0.3999990000000001
100
AcDbArc
 50
278.1301019999978
 51
8.130102000001478
  0
LINE
  5
6E45
330
1E
100
AcDbEntity
  8
躯体と製品
  6
DASHED1
 62
     7
100
AcDbLine
 10
1504.258709869574
 20
824.8582219287536
 30
0.0
 11
1504.286825869574
 21
824.6613979287536
 31
0.0
  0
ARC
  5
6E46
330
1E
100
AcDbEntity
  8
躯体と製品
  6
DASHED1
 62
     7
100
AcDbCircle
 10
1503.862727869574
 20
824.8016539287537
 30
0.0
 40
0.3999990000000001
100
AcDbArc
 50
8.130102000001478
 51
98.29846599999713
  0
LINE
  5
6E47
330
1E
100
AcDbEntity
  8
躯体と製品
  6
DASHED1
 62
     7
100
AcDbLine
 10
1497.001373869574
 20
824.2051099287536
 30
0.0
 11
1503.804995869575
 21
825.1974649287538
 31
0.0
  0
LINE
  5
6E48
330
1E
100
AcDbEntity
  8
躯体と製品
  6
DASHED1
 62
     7
100
AcDbLine
 10
1503.947414869574
 20
811.5641689287537
 30
0.0
 11
1497.343394869575
 21
812.5075999287536
 31
0.0
  0
ARC
  5
6E49
330
1E
100
AcDbEntity
  8
躯体と製品
  6
DASHED1
 62
     7
100
AcDbCircle
 10
1503.890846869574
 20
811.1681899287537
 30
0.0
 40
0.3999990000000001
100
AcDbArc
 50
351.8698979999985
 51
81.86989800000221
  0
LINE
  5
6E4A
330
1E
100
AcDbEntity
  8
躯体と製品
  6
DASHED1
 62
     7
100
AcDbLine
 10
1504.258709869574
 20
810.9147949287537
 30
0.0
 11
1504.286825869574
 21
811.1116219287536
 31
0.0
  0
ARC
  5
6E4B
330
1E
100
AcDbEntity
  8
躯体と製品
  6
DASHED1
 62
     7
100
AcDbCircle
 10
1503.862727869574
 20
810.9713629287535
 30
0.0
 40
0.3999990000000001
100
AcDbArc
 50
261.7015340000029
 51
351.8698979999985
  0
LINE
  5
6E4C
330
1E
100
AcDbEntity
  8
躯体と製品
  6
DASHED1
 62
     7
100
AcDbLine
 10
1497.001373869574
 20
811.5679069287537
 30
0.0
 11
1503.804995869575
 21
810.5755519287535
 31
0.0
  0
LINE
  5
6E4D
330
1E
100
AcDbEntity
  8
躯体と製品
  6
DASHED1
 62
     7
100
AcDbLine
 10
1492.343393869574
 20
814.3274509287536
 30
0.0
 11
1497.343394869575
 21
812.5075999287536
 31
0.0
  0
LINE
  5
6E4E
330
1E
100
AcDbEntity
  8
躯体と製品
  6
DASHED1
 62
     7
100
AcDbLine
 10
1492.343393869574
 20
822.5097439287536
 30
0.0
 11
1497.001373869574
 21
824.2051099287536
 31
0.0
  0
LINE
  5
6E4F
330
1E
100
AcDbEntity
  8
躯体と製品
  6
DASHED1
 62
     7
100
AcDbLine
 10
1492.343393869574
 20
821.4455659287537
 30
0.0
 11
1497.343394869575
 21
823.2654169287537
 31
0.0
  0
LINE
  5
6E50
330
1E
100
AcDbEntity
  8
躯体と製品
  6
DASHED1
 62
     7
100
AcDbLine
 10
1500.143774869574
 20
813.8865079287539
 30
0.0
 11
1512.143774869574
 21
813.8865079287539
 31
0.0
  0
LINE
  5
6E51
330
1E
100
AcDbEntity
  8
躯体と製品
  6
DASHED1
 62
     7
100
AcDbLine
 10
1499.229128869574
 20
815.6268829287537
 30
0.0
 11
1500.143774869574
 21
813.8865079287539
 31
0.0
  0
LINE
  5
6E52
330
1E
100
AcDbEntity
  8
躯体と製品
  6
Continuous
 62
     3
100
AcDbLine
 10
1514.143774869574
 20
822.8865099287537
 30
0.0
 11
1514.643774869574
 21
822.8865099287537
 31
0.0
  0
LINE
  5
6E53
330
1E
100
AcDbEntity
  8
躯体と製品
  6
Continuous
 62
     3
100
AcDbLine
 10
1514.143774869574
 20
812.8865099287535
 30
0.0
 11
1514.643774869574
 21
812.8865099287535
 31
0.0
  0
LINE
  5
6E54
330
1E
100
AcDbEntity
  8
躯体と製品
  6
Continuous
 62
     3
100
AcDbLine
 10
1516.643774869574
 20
818.3865099287537
 30
0.0
 11
1516.143774869574
 21
817.8865099287536
 31
0.0
  0
LINE
  5
6E55
330
1E
100
AcDbEntity
  8
躯体と製品
  6
Continuous
 62
     3
100
AcDbLine
 10
1516.643774869574
 20
817.3865099287535
 30
0.0
 11
1516.143774869574
 21
817.8865099287536
 31
0.0
  0
LINE
  5
6E56
330
1E
100
AcDbEntity
  8
躯体と製品
  6
Continuous
 62
     3
100
AcDbLine
 10
1514.143774869574
 20
822.8865099287537
 30
0.0
 11
1514.143774869574
 21
812.8865099287535
 31
0.0
  0
LINE
  5
6E57
330
1E
100
AcDbEntity
  8
躯体と製品
  6
Continuous
 62
     3
100
AcDbLine
 10
1514.143774869574
 20
864.3865099287536
 30
0.0
 11
1514.643774869574
 21
864.3865099287536
 31
0.0
  0
LINE
  5
6E58
330
1E
100
AcDbEntity
  8
躯体と製品
  6
Continuous
 62
     3
100
AcDbLine
 10
1514.643774869574
 20
864.3865099287536
 30
0.0
 11
1514.643774869574
 21
851.3865099287537
 31
0.0
  0
LINE
  5
6E59
330
1E
100
AcDbEntity
  8
躯体と製品
  6
Continuous
 62
     3
100
AcDbLine
 10
1514.643774869574
 20
851.3865099287537
 30
0.0
 11
1514.143774869574
 21
851.3865099287537
 31
0.0
  0
LINE
  5
6E5A
330
1E
100
AcDbEntity
  8
躯体と製品
  6
Continuous
 62
     3
100
AcDbLine
 10
1514.143774869574
 20
849.8865099287536
 30
0.0
 11
1514.643774869574
 21
849.8865099287536
 31
0.0
  0
ARC
  5
6E5B
330
1E
100
AcDbEntity
  8
躯体と製品
  6
Continuous
 62
     3
100
AcDbCircle
 10
1524.143774869574
 20
859.6865099287535
 30
0.0
 40
0.2999999999999999
100
AcDbArc
 50
180.0
 51
270.0
  0
LINE
  5
6E5C
330
1E
100
AcDbEntity
  8
躯体と製品
  6
Continuous
 62
     3
100
AcDbLine
 10
1524.143774869574
 20
859.3865099287537
 30
0.0
 11
1528.743774869574
 21
859.3865099287537
 31
0.0
  0
LINE
  5
6E5D
330
1E
100
AcDbEntity
  8
躯体と製品
  6
Continuous
 62
     3
100
AcDbLine
 10
1522.643774869574
 20
859.1865099287536
 30
0.0
 11
1522.643774869574
 21
863.8865099287537
 31
0.0
  0
ARC
  5
6E5E
330
1E
100
AcDbEntity
  8
躯体と製品
  6
Continuous
 62
     3
100
AcDbCircle
 10
1523.643774869574
 20
859.1865099287536
 30
0.0
 40
1.0
100
AcDbArc
 50
180.0
 51
270.0
  0
LINE
  5
6E5F
330
1E
100
AcDbEntity
  8
躯体と製品
  6
Continuous
 62
     3
100
AcDbLine
 10
1523.643774869574
 20
858.1865099287536
 30
0.0
 11
1528.743774869574
 21
858.1865099287536
 31
0.0
  0
ARC
  5
6E60
330
1E
100
AcDbEntity
  8
躯体と製品
  6
Continuous
 62
     3
100
AcDbCircle
 10
1522.143774869574
 20
863.8865099287537
 30
0.0
 40
0.5
100
AcDbArc
 50
0.0
 51
90.0
  0
LINE
  5
6E61
330
1E
100
AcDbEntity
  8
躯体と製品
  6
Continuous
 62
     3
100
AcDbLine
 10
1522.143774869574
 20
864.3865099287536
 30
0.0
 11
1517.143774869574
 21
864.3865099287536
 31
0.0
  0
ARC
  5
6E62
330
1E
100
AcDbEntity
  8
躯体と製品
  6
Continuous
 62
     3
100
AcDbCircle
 10
1517.143774869574
 20
863.8865099287537
 30
0.0
 40
0.5
100
AcDbArc
 50
90.0
 51
180.0
  0
LINE
  5
6E63
330
1E
100
AcDbEntity
  8
躯体と製品
  6
Continuous
 62
     3
100
AcDbLine
 10
1516.643774869574
 20
863.8865099287537
 30
0.0
 11
1516.643774869574
 21
851.8865099287536
 31
0.0
  0
ARC
  5
6E64
330
1E
100
AcDbEntity
  8
躯体と製品
  6
Continuous
 62
     3
100
AcDbCircle
 10
1528.743774869574
 20
858.7865099287537
 30
0.0
 40
0.5999999999999999
100
AcDbArc
 50
270.0
 51
90.0
  0
ARC
  5
6E65
330
1E
100
AcDbEntity
  8
躯体と製品
  6
Continuous
 62
     3
100
AcDbCircle
 10
1517.143774869574
 20
849.3865099287535
 30
0.0
 40
0.5
100
AcDbArc
 50
90.0
 51
180.0
  0
ARC
  5
6E66
330
1E
100
AcDbEntity
  8
躯体と製品
  6
Continuous
 62
     3
100
AcDbCircle
 10
1517.143774869574
 20
851.8865099287536
 30
0.0
 40
0.5
100
AcDbArc
 50
180.0
 51
270.0
  0
LINE
  5
6E67
330
1E
100
AcDbEntity
  8
躯体と製品
  6
Continuous
 62
     3
100
AcDbLine
 10
1522.643774869574
 20
851.3865099287537
 30
0.0
 11
1517.143774869574
 21
851.3865099287537
 31
0.0
  0
ARC
  5
6E68
330
1E
100
AcDbEntity
  8
躯体と製品
  6
Continuous
 62
     3
100
AcDbCircle
 10
1522.643774869574
 20
850.8865099287536
 30
0.0
 40
0.5
100
AcDbArc
 50
0.0
 51
90.0
  0
LINE
  5
6E69
330
1E
100
AcDbEntity
  8
躯体と製品
  6
Continuous
 62
     3
100
AcDbLine
 10
1523.143774869574
 20
844.8865099287536
 30
0.0
 11
1523.143774869574
 21
850.8865099287536
 31
0.0
  0
ARC
  5
6E6A
330
1E
100
AcDbEntity
  8
躯体と製品
  6
Continuous
 62
     3
100
AcDbCircle
 10
1522.143774869574
 20
844.8865099287536
 30
0.0
 40
1.0
100
AcDbArc
 50
270.0
 51
0.0
  0
LINE
  5
6E6B
330
1E
100
AcDbEntity
  8
躯体と製品
  6
Continuous
 62
     3
100
AcDbLine
 10
1522.143774869574
 20
843.8865099287536
 30
0.0
 11
1520.243774869574
 21
843.8865099287536
 31
0.0
  0
LINE
  5
6E6C
330
1E
100
AcDbEntity
  8
躯体と製品
  6
Continuous
 62
     3
100
AcDbLine
 10
1521.643774869574
 20
849.3865099287535
 30
0.0
 11
1521.643774869574
 21
845.5865099287537
 31
0.0
  0
ARC
  5
6E6D
330
1E
100
AcDbEntity
  8
躯体と製品
  6
Continuous
 62
     3
100
AcDbCircle
 10
1521.143774869574
 20
849.3865099287535
 30
0.0
 40
0.5
100
AcDbArc
 50
0.0
 51
90.0
  0
LINE
  5
6E6E
330
1E
100
AcDbEntity
  8
躯体と製品
  6
Continuous
 62
     3
100
AcDbLine
 10
1521.143774869574
 20
849.8865099287536
 30
0.0
 11
1517.143774869574
 21
849.8865099287536
 31
0.0
  0
LINE
  5
6E6F
330
1E
100
AcDbEntity
  8
躯体と製品
  6
Continuous
 62
     3
100
AcDbLine
 10
1521.143774869574
 20
845.0865099287538
 30
0.0
 11
1520.243774869574
 21
845.0865099287538
 31
0.0
  0
ARC
  5
6E70
330
1E
100
AcDbEntity
  8
躯体と製品
  6
Continuous
 62
     3
100
AcDbCircle
 10
1521.143774869574
 20
845.5865099287537
 30
0.0
 40
0.5
100
AcDbArc
 50
270.0
 51
0.0
  0
ARC
  5
6E71
330
1E
100
AcDbEntity
  8
躯体と製品
  6
Continuous
 62
     3
100
AcDbCircle
 10
1520.243774869574
 20
844.4865099287536
 30
0.0
 40
0.5999999999999999
100
AcDbArc
 50
90.0
 51
270.0
  0
LINE
  5
6E72
330
1E
100
AcDbEntity
  8
躯体と製品
  6
Continuous
 62
     3
100
AcDbLine
 10
1515.643774869574
 20
866.6865099287536
 30
0.0
 11
1515.643774869574
 21
870.0865099287538
 31
0.0
  0
ARC
  5
6E73
330
1E
100
AcDbEntity
  8
躯体と製品
  6
Continuous
 62
     3
100
AcDbCircle
 10
1515.943774869574
 20
866.6865099287536
 30
0.0
 40
0.2999999999999999
100
AcDbArc
 50
180.0
 51
270.0
  0
LINE
  5
6E74
330
1E
100
AcDbEntity
  8
躯体と製品
  6
Continuous
 62
     3
100
AcDbLine
 10
1515.943774869574
 20
866.3865099287535
 30
0.0
 11
1517.143774869574
 21
866.3865099287535
 31
0.0
  0
LINE
  5
6E75
330
1E
100
AcDbEntity
  8
躯体と製品
  6
Continuous
 62
     3
100
AcDbLine
 10
1515.943774869574
 20
870.3865099287536
 30
0.0
 11
1517.143774869574
 21
870.3865099287536
 31
0.0
  0
ARC
  5
6E76
330
1E
100
AcDbEntity
  8
躯体と製品
  6
Continuous
 62
     3
100
AcDbCircle
 10
1515.943774869574
 20
870.0865099287538
 30
0.0
 40
0.2999999999999999
100
AcDbArc
 50
90.0
 51
180.0
  0
LINE
  5
6E77
330
1E
100
AcDbEntity
  8
躯体と製品
  6
Continuous
 62
     3
100
AcDbLine
 10
1522.143774869574
 20
870.3865099287536
 30
0.0
 11
1524.643774869574
 21
870.3865099287536
 31
0.0
  0
LINE
  5
6E78
330
1E
100
AcDbEntity
  8
躯体と製品
  6
Continuous
 62
     3
100
AcDbLine
 10
1522.143774869574
 20
866.3865099287535
 30
0.0
 11
1524.643774869574
 21
866.3865099287535
 31
0.0
  0
LINE
  5
6E79
330
1E
100
AcDbEntity
  8
躯体と製品
  6
Continuous
 62
     3
100
AcDbLine
 10
1522.143774869574
 20
870.3865099287536
 30
0.0
 11
1521.643774869574
 21
869.8865099287536
 31
0.0
  0
LINE
  5
6E7A
330
1E
100
AcDbEntity
  8
躯体と製品
  6
Continuous
 62
     3
100
AcDbLine
 10
1521.643774869574
 20
869.8865099287536
 30
0.0
 11
1521.143774869574
 21
870.3865099287536
 31
0.0
  0
LINE
  5
6E7B
330
1E
100
AcDbEntity
  8
躯体と製品
  6
Continuous
 62
     3
100
AcDbLine
 10
1521.143774869574
 20
870.3865099287536
 30
0.0
 11
1520.643774869574
 21
869.8865099287536
 31
0.0
  0
LINE
  5
6E7C
330
1E
100
AcDbEntity
  8
躯体と製品
  6
Continuous
 62
     3
100
AcDbLine
 10
1520.643774869574
 20
869.8865099287536
 30
0.0
 11
1520.143774869574
 21
870.3865099287536
 31
0.0
  0
LINE
  5
6E7D
330
1E
100
AcDbEntity
  8
躯体と製品
  6
Continuous
 62
     3
100
AcDbLine
 10
1520.143774869574
 20
870.3865099287536
 30
0.0
 11
1519.643774869574
 21
869.8865099287536
 31
0.0
  0
LINE
  5
6E7E
330
1E
100
AcDbEntity
  8
躯体と製品
  6
Continuous
 62
     3
100
AcDbLine
 10
1519.643774869574
 20
869.8865099287536
 30
0.0
 11
1519.143774869574
 21
870.3865099287536
 31
0.0
  0
LINE
  5
6E7F
330
1E
100
AcDbEntity
  8
躯体と製品
  6
Continuous
 62
     3
100
AcDbLine
 10
1519.143774869574
 20
870.3865099287536
 30
0.0
 11
1518.643774869574
 21
869.8865099287536
 31
0.0
  0
LINE
  5
6E80
330
1E
100
AcDbEntity
  8
躯体と製品
  6
Continuous
 62
     3
100
AcDbLine
 10
1518.643774869574
 20
869.8865099287536
 30
0.0
 11
1518.143774869574
 21
870.3865099287536
 31
0.0
  0
LINE
  5
6E81
330
1E
100
AcDbEntity
  8
躯体と製品
  6
Continuous
 62
     3
100
AcDbLine
 10
1518.143774869574
 20
870.3865099287536
 30
0.0
 11
1517.643774869574
 21
869.8865099287536
 31
0.0
  0
LINE
  5
6E82
330
1E
100
AcDbEntity
  8
躯体と製品
  6
Continuous
 62
     3
100
AcDbLine
 10
1517.643774869574
 20
869.8865099287536
 30
0.0
 11
1517.143774869574
 21
870.3865099287536
 31
0.0
  0
LINE
  5
6E83
330
1E
100
AcDbEntity
  8
躯体と製品
  6
Continuous
 62
     3
100
AcDbLine
 10
1522.143774869574
 20
866.3865099287535
 30
0.0
 11
1521.643774869574
 21
866.8865099287536
 31
0.0
  0
LINE
  5
6E84
330
1E
100
AcDbEntity
  8
躯体と製品
  6
Continuous
 62
     3
100
AcDbLine
 10
1521.643774869574
 20
866.8865099287536
 30
0.0
 11
1521.143774869574
 21
866.3865099287535
 31
0.0
  0
LINE
  5
6E85
330
1E
100
AcDbEntity
  8
躯体と製品
  6
Continuous
 62
     3
100
AcDbLine
 10
1521.143774869574
 20
866.3865099287535
 30
0.0
 11
1520.643774869574
 21
866.8865099287536
 31
0.0
  0
LINE
  5
6E86
330
1E
100
AcDbEntity
  8
躯体と製品
  6
Continuous
 62
     3
100
AcDbLine
 10
1520.643774869574
 20
866.8865099287536
 30
0.0
 11
1520.143774869574
 21
866.3865099287535
 31
0.0
  0
LINE
  5
6E87
330
1E
100
AcDbEntity
  8
躯体と製品
  6
Continuous
 62
     3
100
AcDbLine
 10
1520.143774869574
 20
866.3865099287535
 30
0.0
 11
1519.643774869574
 21
866.8865099287536
 31
0.0
  0
LINE
  5
6E88
330
1E
100
AcDbEntity
  8
躯体と製品
  6
Continuous
 62
     3
100
AcDbLine
 10
1519.643774869574
 20
866.8865099287536
 30
0.0
 11
1519.143774869574
 21
866.3865099287535
 31
0.0
  0
LINE
  5
6E89
330
1E
100
AcDbEntity
  8
躯体と製品
  6
Continuous
 62
     3
100
AcDbLine
 10
1519.143774869574
 20
866.3865099287535
 30
0.0
 11
1518.643774869574
 21
866.8865099287536
 31
0.0
  0
LINE
  5
6E8A
330
1E
100
AcDbEntity
  8
躯体と製品
  6
Continuous
 62
     3
100
AcDbLine
 10
1518.643774869574
 20
866.8865099287536
 30
0.0
 11
1518.143774869574
 21
866.3865099287535
 31
0.0
  0
LINE
  5
6E8B
330
1E
100
AcDbEntity
  8
躯体と製品
  6
Continuous
 62
     3
100
AcDbLine
 10
1518.143774869574
 20
866.3865099287535
 30
0.0
 11
1517.643774869574
 21
866.8865099287536
 31
0.0
  0
LINE
  5
6E8C
330
1E
100
AcDbEntity
  8
躯体と製品
  6
Continuous
 62
     3
100
AcDbLine
 10
1517.643774869574
 20
866.8865099287536
 30
0.0
 11
1517.143774869574
 21
866.3865099287535
 31
0.0
  0
LINE
  5
6E8D
330
1E
100
AcDbEntity
  8
躯体と製品
  6
Continuous
 62
     3
100
AcDbLine
 10
1514.643774869574
 20
872.3865099287536
 30
0.0
 11
1523.143774869574
 21
872.3865099287536
 31
0.0
  0
ARC
  5
6E8E
330
1E
100
AcDbEntity
  8
躯体と製品
  6
Continuous
 62
     3
100
AcDbCircle
 10
1514.643774869574
 20
871.8865099287537
 30
0.0
 40
0.5
100
AcDbArc
 50
90.0
 51
180.0
  0
LINE
  5
6E8F
330
1E
100
AcDbEntity
  8
躯体と製品
  6
Continuous
 62
     3
100
AcDbLine
 10
1514.143774869574
 20
871.8865099287537
 30
0.0
 11
1514.143774869574
 21
864.3865099287536
 31
0.0
  0
LINE
  5
6E90
330
1E
100
AcDbEntity
  8
躯体と製品
  6
Continuous
 62
     3
100
AcDbLine
 10
1523.143774869574
 20
872.3865099287536
 30
0.0
 11
1523.143774869574
 21
871.5865099287537
 31
0.0
  0
LINE
  5
6E91
330
1E
100
AcDbEntity
  8
躯体と製品
  6
Continuous
 62
     3
100
AcDbLine
 10
1523.843774869574
 20
865.1865099287535
 30
0.0
 11
1524.543774869574
 21
865.1865099287535
 31
0.0
  0
LINE
  5
6E92
330
1E
100
AcDbEntity
  8
躯体と製品
  6
Continuous
 62
     3
100
AcDbLine
 10
1523.843774869574
 20
859.6865099287535
 30
0.0
 11
1523.843774869574
 21
865.1865099287535
 31
0.0
  0
LINE
  5
6E93
330
1E
100
AcDbEntity
  8
躯体と製品
  6
Continuous
 62
     3
100
AcDbLine
 10
1523.143774869574
 20
871.5865099287537
 30
0.0
 11
1524.543774869574
 21
871.5865099287537
 31
0.0
  0
LINE
  5
6E94
330
1E
100
AcDbEntity
  8
躯体と製品
  6
Continuous
 62
     3
100
AcDbLine
 10
1514.143774869574
 20
851.3865099287537
 30
0.0
 11
1514.143774869574
 21
849.8865099287536
 31
0.0
  0
ARC
  5
6E95
330
1E
100
AcDbEntity
  8
躯体と製品
  6
Continuous
 62
     3
100
AcDbCircle
 10
1524.543774869574
 20
865.7865099287535
 30
0.0
 40
0.5999999999999999
100
AcDbArc
 50
270.0
 51
90.0
  0
ARC
  5
6E96
330
1E
100
AcDbEntity
  8
躯体と製品
  6
Continuous
 62
     3
100
AcDbCircle
 10
1524.543774869574
 20
870.9865099287537
 30
0.0
 40
0.5999999999999999
100
AcDbArc
 50
270.0
 51
90.0
  0
LINE
  5
6E97
330
1E
100
AcDbEntity
  8
躯体と製品
  6
Continuous
 62
     3
100
AcDbLine
 10
1514.643774869574
 20
849.8865099287536
 30
0.0
 11
1514.643774869574
 21
838.3865099287536
 31
0.0
  0
LINE
  5
6E98
330
1E
100
AcDbEntity
  8
躯体と製品
  6
Continuous
 62
     3
100
AcDbLine
 10
1516.643774869574
 20
838.8865099287537
 30
0.0
 11
1516.643774869574
 21
849.3865099287535
 31
0.0
  0
LINE
  5
6E99
330
1E
100
AcDbEntity
  8
躯体と製品
  6
Continuous
 62
     3
100
AcDbLine
 10
1514.643774869574
 20
838.3865099287536
 30
0.0
 11
1514.143774869574
 21
838.3865099287536
 31
0.0
  0
LINE
  5
6E9A
330
1E
100
AcDbEntity
  8
躯体と製品
  6
Continuous
 62
     3
100
AcDbLine
 10
1514.143774869574
 20
836.8865099287535
 30
0.0
 11
1514.643774869574
 21
836.8865099287535
 31
0.0
  0
LINE
  5
6E9B
330
1E
100
AcDbEntity
  8
躯体と製品
  6
Continuous
 62
     3
100
AcDbLine
 10
1514.643774869574
 20
836.8865099287535
 30
0.0
 11
1514.643774869574
 21
822.8865099287537
 31
0.0
  0
LINE
  5
6E9C
330
1E
100
AcDbEntity
  8
躯体と製品
  6
Continuous
 62
     3
100
AcDbLine
 10
1514.643774869574
 20
812.8865099287535
 30
0.0
 11
1514.643774869574
 21
798.8865099287536
 31
0.0
  0
LINE
  5
6E9D
330
1E
100
AcDbEntity
  8
躯体と製品
  6
Continuous
 62
     3
100
AcDbLine
 10
1514.643774869574
 20
798.8865099287536
 30
0.0
 11
1514.143774869574
 21
798.8865099287536
 31
0.0
  0
ARC
  5
6E9E
330
1E
100
AcDbEntity
  8
躯体と製品
  6
Continuous
 62
     3
100
AcDbCircle
 10
1517.143774869574
 20
838.8865099287537
 30
0.0
 40
0.5
100
AcDbArc
 50
180.0
 51
270.0
  0
LINE
  5
6E9F
330
1E
100
AcDbEntity
  8
躯体と製品
  6
Continuous
 62
     3
100
AcDbLine
 10
1517.143774869574
 20
838.3865099287536
 30
0.0
 11
1526.143774869574
 21
838.3865099287536
 31
0.0
  0
LINE
  5
6EA0
330
1E
100
AcDbEntity
  8
躯体と製品
  6
Continuous
 62
     3
100
AcDbLine
 10
1517.143774869574
 20
792.3865099287536
 30
0.0
 11
1522.893774869574
 21
792.3865099287536
 31
0.0
  0
ARC
  5
6EA1
330
1E
100
AcDbEntity
  8
躯体と製品
  6
Continuous
 62
     3
100
AcDbCircle
 10
1517.143774869574
 20
792.8865099287536
 30
0.0
 40
0.5
100
AcDbArc
 50
180.0
 51
270.0
  0
ARC
  5
6EA2
330
1E
100
AcDbEntity
  8
躯体と製品
  6
Continuous
 62
     3
100
AcDbCircle
 10
1517.143774869574
 20
790.3865099287535
 30
0.0
 40
0.5
100
AcDbArc
 50
90.0
 51
180.0
  0
LINE
  5
6EA3
330
1E
100
AcDbEntity
  8
躯体と製品
  6
Continuous
 62
     3
100
AcDbLine
 10
1517.143774869574
 20
790.8865099287536
 30
0.0
 11
1519.643774869574
 21
790.8865099287536
 31
0.0
  0
LINE
  5
6EA4
330
1E
100
AcDbEntity
  8
躯体と製品
  6
Continuous
 62
     3
100
AcDbLine
 10
1519.643774869574
 20
790.8865099287536
 30
0.0
 11
1520.643774869574
 21
791.3865099287536
 31
0.0
  0
LINE
  5
6EA5
330
1E
100
AcDbEntity
  8
躯体と製品
  6
Continuous
 62
     3
100
AcDbLine
 10
1520.643774869574
 20
791.3865099287536
 30
0.0
 11
1520.643774869574
 21
790.8865099287536
 31
0.0
  0
LINE
  5
6EA6
330
1E
100
AcDbEntity
  8
躯体と製品
  6
Continuous
 62
     3
100
AcDbLine
 10
1520.643774869574
 20
790.8865099287536
 30
0.0
 11
1521.643774869574
 21
791.3865099287536
 31
0.0
  0
LINE
  5
6EA7
330
1E
100
AcDbEntity
  8
躯体と製品
  6
Continuous
 62
     3
100
AcDbLine
 10
1521.643774869574
 20
791.3865099287536
 30
0.0
 11
1521.643774869574
 21
790.8865099287536
 31
0.0
  0
ARC
  5
6EA8
330
1E
100
AcDbEntity
  8
躯体と製品
  6
Continuous
 62
     3
100
AcDbCircle
 10
1522.893774869574
 20
791.6365099287535
 30
0.0
 40
0.75
100
AcDbArc
 50
270.0
 51
90.0
  0
ARC
  5
6EA9
330
1E
100
AcDbEntity
  8
躯体と製品
  6
Continuous
 62
     3
100
AcDbCircle
 10
1517.143774869574
 20
836.3865099287536
 30
0.0
 40
0.5
100
AcDbArc
 50
90.0
 51
180.0
  0
ARC
  5
6EAA
330
1E
100
AcDbEntity
  8
躯体と製品
  6
Continuous
 62
     3
100
AcDbCircle
 10
1526.143774869574
 20
837.8865099287535
 30
0.0
 40
0.5
100
AcDbArc
 50
0.0
 51
90.0
  0
LINE
  5
6EAB
330
1E
100
AcDbEntity
  8
躯体と製品
  6
Continuous
 62
     3
100
AcDbLine
 10
1526.143774869574
 20
836.8865099287535
 30
0.0
 11
1517.143774869574
 21
836.8865099287535
 31
0.0
  0
ARC
  5
6EAC
330
1E
100
AcDbEntity
  8
躯体と製品
  6
Continuous
 62
     3
100
AcDbCircle
 10
1526.143774869574
 20
837.3865099287536
 30
0.0
 40
0.5
100
AcDbArc
 50
270.0
 51
0.0
  0
LINE
  5
6EAD
330
1E
100
AcDbEntity
  8
躯体と製品
  6
Continuous
 62
     3
100
AcDbLine
 10
1526.643774869574
 20
837.3865099287536
 30
0.0
 11
1526.643774869574
 21
837.8865099287535
 31
0.0
  0
LINE
  5
6EAE
330
1E
100
AcDbEntity
  8
躯体と製品
  6
Continuous
 62
     3
100
AcDbLine
 10
1516.643774869574
 20
796.8865099287536
 30
0.0
 11
1516.643774869574
 21
792.8865099287536
 31
0.0
  0
ARC
  5
6EAF
330
1E
100
AcDbEntity
  8
躯体と製品
  6
Continuous
 62
     3
100
AcDbCircle
 10
1517.143774869574
 20
796.8865099287536
 30
0.0
 40
0.5
100
AcDbArc
 50
90.0
 51
180.0
  0
LINE
  5
6EB0
330
1E
100
AcDbEntity
  8
躯体と製品
  6
Continuous
 62
     3
100
AcDbLine
 10
1517.143774869574
 20
797.3865099287536
 30
0.0
 11
1527.893774869574
 21
797.3865099287536
 31
0.0
  0
LINE
  5
6EB1
330
1E
100
AcDbEntity
  8
躯体と製品
  6
Continuous
 62
     3
100
AcDbLine
 10
1516.643774869574
 20
799.3865099287536
 30
0.0
 11
1516.643774869574
 21
817.3865099287535
 31
0.0
  0
ARC
  5
6EB2
330
1E
100
AcDbEntity
  8
躯体と製品
  6
Continuous
 62
     3
100
AcDbCircle
 10
1517.143774869574
 20
799.3865099287536
 30
0.0
 40
0.5
100
AcDbArc
 50
180.0
 51
270.0
  0
LINE
  5
6EB3
330
1E
100
AcDbEntity
  8
躯体と製品
  6
Continuous
 62
     3
100
AcDbLine
 10
1517.143774869574
 20
798.8865099287536
 30
0.0
 11
1527.893774869574
 21
798.8865099287536
 31
0.0
  0
ARC
  5
6EB4
330
1E
100
AcDbEntity
  8
躯体と製品
  6
Continuous
 62
     3
100
AcDbCircle
 10
1527.893774869574
 20
798.1365099287536
 30
0.0
 40
0.75
100
AcDbArc
 50
270.0
 51
90.0
  0
ARC
  5
6EB5
330
1E
100
AcDbEntity
  8
躯体と製品
  6
Continuous
 62
     3
100
AcDbCircle
 10
1517.143774869574
 20
787.3865099287536
 30
0.0
 40
0.5
100
AcDbArc
 50
180.0
 51
270.0
  0
LINE
  5
6EB6
330
1E
100
AcDbEntity
  8
躯体と製品
  6
Continuous
 62
     3
100
AcDbLine
 10
1517.143774869574
 20
786.8865099287536
 30
0.0
 11
1519.643774869574
 21
786.8865099287536
 31
0.0
  0
ARC
  5
6EB7
330
1E
100
AcDbEntity
  8
躯体と製品
  6
Continuous
 62
     3
100
AcDbCircle
 10
1522.893774869574
 20
786.1365099287536
 30
0.0
 40
0.75
100
AcDbArc
 50
270.0
 51
90.0
  0
LINE
  5
6EB8
330
1E
100
AcDbEntity
  8
躯体と製品
  6
Continuous
 62
     3
100
AcDbLine
 10
1519.643774869574
 20
786.8865099287536
 30
0.0
 11
1520.643774869574
 21
786.3865099287536
 31
0.0
  0
LINE
  5
6EB9
330
1E
100
AcDbEntity
  8
躯体と製品
  6
Continuous
 62
     3
100
AcDbLine
 10
1520.643774869574
 20
786.8865099287536
 30
0.0
 11
1520.643774869574
 21
786.3865099287536
 31
0.0
  0
LINE
  5
6EBA
330
1E
100
AcDbEntity
  8
躯体と製品
  6
Continuous
 62
     3
100
AcDbLine
 10
1520.643774869574
 20
786.8865099287536
 30
0.0
 11
1521.643774869574
 21
786.3865099287536
 31
0.0
  0
LINE
  5
6EBB
330
1E
100
AcDbEntity
  8
躯体と製品
  6
Continuous
 62
     3
100
AcDbLine
 10
1521.643774869574
 20
786.8865099287536
 30
0.0
 11
1521.643774869574
 21
786.3865099287536
 31
0.0
  0
LINE
  5
6EBC
330
1E
100
AcDbEntity
  8
躯体と製品
  6
Continuous
 62
     3
100
AcDbLine
 10
1516.643774869574
 20
787.3865099287536
 30
0.0
 11
1516.643774869574
 21
790.3865099287535
 31
0.0
  0
LINE
  5
6EBD
330
1E
100
AcDbEntity
  8
躯体と製品
  6
Continuous
 62
     3
100
AcDbLine
 10
1515.143774869574
 20
787.3865099287536
 30
0.0
 11
1515.143774869574
 21
796.8865099287536
 31
0.0
  0
ARC
  5
6EBE
330
1E
100
AcDbEntity
  8
躯体と製品
  6
Continuous
 62
     3
100
AcDbCircle
 10
1514.643774869574
 20
787.3865099287536
 30
0.0
 40
0.5
100
AcDbArc
 50
270.0
 51
0.0
  0
LINE
  5
6EBF
330
1E
100
AcDbEntity
  8
躯体と製品
  6
Continuous
 62
     3
100
AcDbLine
 10
1514.643774869574
 20
786.8865099287536
 30
0.0
 11
1514.143774869574
 21
786.8865099287536
 31
0.0
  0
LINE
  5
6EC0
330
1E
100
AcDbEntity
  8
躯体と製品
  6
Continuous
 62
     3
100
AcDbLine
 10
1514.143774869574
 20
785.3865099287536
 30
0.0
 11
1514.143774869574
 21
786.8865099287536
 31
0.0
  0
LINE
  5
6EC1
330
1E
100
AcDbEntity
  8
躯体と製品
  6
Continuous
 62
     3
100
AcDbLine
 10
1522.893774869574
 20
785.3865099287536
 30
0.0
 11
1514.143774869574
 21
785.3865099287536
 31
0.0
  0
LINE
  5
6EC2
330
1E
100
AcDbEntity
  8
躯体と製品
  6
Continuous
 62
     3
100
AcDbLine
 10
1514.643774869574
 20
797.3865099287536
 30
0.0
 11
1514.143774869574
 21
797.3865099287536
 31
0.0
  0
ARC
  5
6EC3
330
1E
100
AcDbEntity
  8
躯体と製品
  6
Continuous
 62
     3
100
AcDbCircle
 10
1514.643774869574
 20
796.8865099287536
 30
0.0
 40
0.5
100
AcDbArc
 50
0.0
 51
90.0
  0
LINE
  5
6EC4
330
1E
100
AcDbEntity
  8
躯体と製品
  6
Continuous
 62
     3
100
AcDbLine
 10
1522.893774869574
 20
786.8865099287536
 30
0.0
 11
1521.643774869574
 21
786.8865099287536
 31
0.0
  0
LINE
  5
6EC5
330
1E
100
AcDbEntity
  8
躯体と製品
  6
Continuous
 62
     3
100
AcDbLine
 10
1522.893774869574
 20
790.8865099287536
 30
0.0
 11
1521.643774869574
 21
790.8865099287536
 31
0.0
  0
LINE
  5
6EC6
330
1E
100
AcDbEntity
  8
躯体と製品
  6
Continuous
 62
     3
100
AcDbLine
 10
1514.143774869574
 20
798.8865099287536
 30
0.0
 11
1514.143774869574
 21
797.3865099287536
 31
0.0
  0
LINE
  5
6EC7
330
1E
100
AcDbEntity
  8
躯体と製品
  6
Continuous
 62
     3
100
AcDbLine
 10
1514.143774869574
 20
838.3865099287536
 30
0.0
 11
1514.143774869574
 21
836.8865099287535
 31
0.0
  0
LINE
  5
6EC8
330
1E
100
AcDbEntity
  8
躯体と製品
  6
Continuous
 62
     3
100
AcDbLine
 10
1516.643774869574
 20
818.3865099287537
 30
0.0
 11
1516.643774869574
 21
836.3865099287536
 31
0.0
  0
LINE
  5
6ED2
330
1E
100
AcDbEntity
  8
躯体と製品
  6
Continuous
 62
     7
100
AcDbLine
 10
1812.143774869574
 20
755.0638876450639
 30
0.0
 11
1812.143774869574
 21
615.0638876450638
 31
0.0
  0
LINE
  5
6ED3
330
1E
100
AcDbEntity
  8
躯体と製品
  6
Continuous
 62
     7
100
AcDbLine
 10
1662.143774869574
 20
755.0638876450639
 30
0.0
 11
1662.143774869574
 21
615.0638876450638
 31
0.0
  0
LINE
  5
6ED4
330
1E
100
AcDbEntity
  8
躯体と製品
  6
Continuous
 62
     7
100
AcDbLine
 10
1662.143774869574
 20
755.0638876450639
 30
0.0
 11
1812.143774869574
 21
755.0638876450639
 31
0.0
  0
ARC
  5
6ED5
330
1E
100
AcDbEntity
  8
躯体と製品
  6
Continuous
 62
     7
100
AcDbCircle
 10
1662.143774869574
 20
754.0638876450637
 30
0.0
 40
1.0
100
AcDbArc
 50
90.0
 51
175.0000000000005
  0
LINE
  5
6ED6
330
1E
100
AcDbEntity
  8
躯体と製品
  6
Continuous
 62
     3
100
AcDbLine
 10
1747.143774869574
 20
755.0638876450639
 30
0.0
 11
1747.143774869574
 21
756.0638876450638
 31
0.0
  0
LINE
  5
6ED7
330
1E
100
AcDbEntity
  8
躯体と製品
  6
Continuous
 62
     3
100
AcDbLine
 10
1777.143774869574
 20
756.0638876450638
 30
0.0
 11
1777.143774869574
 21
755.0638876450639
 31
0.0
  0
LINE
  5
6ED8
330
1E
100
AcDbEntity
  8
躯体と製品
  6
Continuous
 62
     3
100
AcDbLine
 10
1747.143774869574
 20
756.0638876450638
 30
0.0
 11
1777.143774869574
 21
756.0638876450638
 31
0.0
  0
LINE
  5
6ED9
330
1E
100
AcDbEntity
  8
躯体と製品
  6
Continuous
 62
     3
100
AcDbLine
 10
1777.143774869574
 20
755.0638876450639
 30
0.0
 11
1747.143774869574
 21
755.0638876450639
 31
0.0
  0
LINE
  5
6EDA
330
1E
100
AcDbEntity
  8
躯体と製品
  6
Continuous
 62
     4
100
AcDbLine
 10
1776.268237207716
 20
755.0638876450639
 30
0.0
 11
1777.143774869574
 21
755.9394253069228
 31
0.0
  0
LINE
  5
6EDB
330
1E
100
AcDbEntity
  8
躯体と製品
  6
Continuous
 62
     4
100
AcDbLine
 10
1774.854023645342
 20
755.0638876450642
 30
0.0
 11
1775.854023645342
 21
756.0638876450639
 31
0.0
  0
LINE
  5
6EDC
330
1E
100
AcDbEntity
  8
躯体と製品
  6
Continuous
 62
     4
100
AcDbLine
 10
1773.439810082968
 20
755.0638876450639
 30
0.0
 11
1774.439810082968
 21
756.0638876450637
 31
0.0
  0
LINE
  5
6EDD
330
1E
100
AcDbEntity
  8
躯体と製品
  6
Continuous
 62
     4
100
AcDbLine
 10
1772.025596520595
 20
755.0638876450634
 30
0.0
 11
1773.025596520595
 21
756.0638876450638
 31
0.0
  0
LINE
  5
6EDE
330
1E
100
AcDbEntity
  8
躯体と製品
  6
Continuous
 62
     4
100
AcDbLine
 10
1770.611382958222
 20
755.0638876450636
 30
0.0
 11
1771.611382958222
 21
756.0638876450639
 31
0.0
  0
LINE
  5
6EDF
330
1E
100
AcDbEntity
  8
躯体と製品
  6
Continuous
 62
     4
100
AcDbLine
 10
1769.197169395848
 20
755.0638876450639
 30
0.0
 11
1770.197169395849
 21
756.0638876450639
 31
0.0
  0
LINE
  5
6EE0
330
1E
100
AcDbEntity
  8
躯体と製品
  6
Continuous
 62
     4
100
AcDbLine
 10
1767.782955833475
 20
755.0638876450639
 30
0.0
 11
1768.782955833475
 21
756.063887645064
 31
0.0
  0
LINE
  5
6EE1
330
1E
100
AcDbEntity
  8
躯体と製品
  6
Continuous
 62
     4
100
AcDbLine
 10
1766.368742271103
 20
755.0638876450634
 30
0.0
 11
1767.368742271103
 21
756.0638876450632
 31
0.0
  0
LINE
  5
6EE2
330
1E
100
AcDbEntity
  8
躯体と製品
  6
Continuous
 62
     4
100
AcDbLine
 10
1764.95452870873
 20
755.0638876450634
 30
0.0
 11
1765.95452870873
 21
756.0638876450632
 31
0.0
  0
LINE
  5
6EE3
330
1E
100
AcDbEntity
  8
躯体と製品
  6
Continuous
 62
     4
100
AcDbLine
 10
1763.540315146357
 20
755.0638876450636
 30
0.0
 11
1764.540315146357
 21
756.0638876450634
 31
0.0
  0
LINE
  5
6EE4
330
1E
100
AcDbEntity
  8
躯体と製品
  6
Continuous
 62
     4
100
AcDbLine
 10
1762.126101583984
 20
755.0638876450639
 30
0.0
 11
1763.126101583983
 21
756.0638876450634
 31
0.0
  0
LINE
  5
6EE5
330
1E
100
AcDbEntity
  8
躯体と製品
  6
Continuous
 62
     4
100
AcDbLine
 10
1760.711888021609
 20
755.0638876450631
 30
0.0
 11
1761.71188802161
 21
756.0638876450634
 31
0.0
  0
LINE
  5
6EE6
330
1E
100
AcDbEntity
  8
躯体と製品
  6
Continuous
 62
     4
100
AcDbLine
 10
1759.297674459237
 20
755.0638876450632
 30
0.0
 11
1760.297674459237
 21
756.0638876450634
 31
0.0
  0
LINE
  5
6EE7
330
1E
100
AcDbEntity
  8
躯体と製品
  6
Continuous
 62
     4
100
AcDbLine
 10
1757.883460896863
 20
755.0638876450634
 30
0.0
 11
1758.883460896863
 21
756.0638876450637
 31
0.0
  0
LINE
  5
6EE8
330
1E
100
AcDbEntity
  8
躯体と製品
  6
Continuous
 62
     4
100
AcDbLine
 10
1756.46924733449
 20
755.0638876450634
 30
0.0
 11
1757.46924733449
 21
756.0638876450638
 31
0.0
  0
LINE
  5
6EE9
330
1E
100
AcDbEntity
  8
躯体と製品
  6
Continuous
 62
     4
100
AcDbLine
 10
1755.055033772119
 20
755.0638876450639
 30
0.0
 11
1756.055033772118
 21
756.0638876450637
 31
0.0
  0
LINE
  5
6EEA
330
1E
100
AcDbEntity
  8
躯体と製品
  6
Continuous
 62
     4
100
AcDbLine
 10
1753.640820209746
 20
755.0638876450639
 30
0.0
 11
1754.640820209745
 21
756.0638876450638
 31
0.0
  0
LINE
  5
6EEB
330
1E
100
AcDbEntity
  8
躯体と製品
  6
Continuous
 62
     4
100
AcDbLine
 10
1752.226606647372
 20
755.0638876450639
 30
0.0
 11
1753.226606647372
 21
756.0638876450639
 31
0.0
  0
LINE
  5
6EEC
330
1E
100
AcDbEntity
  8
躯体と製品
  6
Continuous
 62
     4
100
AcDbLine
 10
1750.812393084999
 20
755.0638876450642
 30
0.0
 11
1751.812393084999
 21
756.0638876450639
 31
0.0
  0
LINE
  5
6EED
330
1E
100
AcDbEntity
  8
躯体と製品
  6
Continuous
 62
     4
100
AcDbLine
 10
1749.398179522625
 20
755.0638876450639
 30
0.0
 11
1750.398179522625
 21
756.0638876450639
 31
0.0
  0
LINE
  5
6EEE
330
1E
100
AcDbEntity
  8
躯体と製品
  6
Continuous
 62
     4
100
AcDbLine
 10
1747.983965960252
 20
755.0638876450639
 30
0.0
 11
1748.983965960253
 21
756.0638876450642
 31
0.0
  0
LINE
  5
6EEF
330
1E
100
AcDbEntity
  8
躯体と製品
  6
Continuous
 62
     4
100
AcDbLine
 10
1747.143774869574
 20
755.6379101167593
 30
0.0
 11
1747.569752397879
 21
756.0638876450643
 31
0.0
  0
LINE
  5
6EF0
330
1E
100
AcDbEntity
  8
躯体と製品
  6
DASHED1
 62
     7
100
AcDbLine
 10
1758.093774869574
 20
757.0638876450638
 30
0.0
 11
1758.093774869574
 21
747.7638876450637
 31
0.0
  0
LINE
  5
6EF1
330
1E
100
AcDbEntity
  8
躯体と製品
  6
DASHED1
 62
     7
100
AcDbLine
 10
1766.193774869574
 20
757.0638876450638
 30
0.0
 11
1766.193774869574
 21
747.7638876450637
 31
0.0
  0
LINE
  5
6EF2
330
1E
100
AcDbEntity
  8
躯体と製品
  6
DASHED1
 62
     7
100
AcDbLine
 10
1757.393774869574
 20
747.0638876450638
 30
0.0
 11
1758.093774869574
 21
747.7638876450637
 31
0.0
  0
LINE
  5
6EF3
330
1E
100
AcDbEntity
  8
躯体と製品
  6
DASHED1
 62
     7
100
AcDbLine
 10
1757.393774869574
 20
728.4357136450637
 30
0.0
 11
1757.393774869574
 21
747.0638876450638
 31
0.0
  0
LINE
  5
6EF4
330
1E
100
AcDbEntity
  8
躯体と製品
  6
DASHED1
 62
     7
100
AcDbLine
 10
1757.643774869574
 20
716.5638876450637
 30
0.0
 11
1757.643774869574
 21
717.4271916450635
 31
0.0
  0
LINE
  5
6EF5
330
1E
100
AcDbEntity
  8
躯体と製品
  6
DASHED1
 62
     7
100
AcDbLine
 10
1755.518744869574
 20
717.8018916450637
 30
0.0
 11
1757.393774869574
 21
728.4357136450637
 31
0.0
  0
LINE
  5
6EF6
330
1E
100
AcDbEntity
  8
躯体と製品
  6
DASHED1
 62
     7
100
AcDbLine
 10
1761.643774869574
 20
728.0638876450638
 30
0.0
 11
1762.643774869574
 21
728.0638876450638
 31
0.0
  0
LINE
  5
6EF7
330
1E
100
AcDbEntity
  8
躯体と製品
  6
DASHED1
 62
     7
100
AcDbLine
 10
1766.893774869574
 20
747.0638876450638
 30
0.0
 11
1766.193774869574
 21
747.7638876450637
 31
0.0
  0
LINE
  5
6EF8
330
1E
100
AcDbEntity
  8
躯体と製品
  6
DASHED1
 62
     7
100
AcDbLine
 10
1766.893774869574
 20
728.4357136450637
 30
0.0
 11
1766.893774869574
 21
747.0638876450638
 31
0.0
  0
LINE
  5
6EF9
330
1E
100
AcDbEntity
  8
躯体と製品
  6
DASHED1
 62
     7
100
AcDbLine
 10
1765.643774869574
 20
715.5638876450638
 30
0.0
 11
1758.643774869574
 21
715.5638876450638
 31
0.0
  0
ARC
  5
6EFA
330
1E
100
AcDbEntity
  8
躯体と製品
  6
DASHED1
 62
     7
100
AcDbCircle
 10
1765.643774869574
 20
716.5638876450637
 30
0.0
 40
1.0
100
AcDbArc
 50
270.0
 51
0.0
  0
LINE
  5
6EFB
330
1E
100
AcDbEntity
  8
躯体と製品
  6
DASHED1
 62
     7
100
AcDbLine
 10
1766.643774869574
 20
716.5638876450637
 30
0.0
 11
1766.643774869574
 21
717.4271916450635
 31
0.0
  0
LINE
  5
6EFC
330
1E
100
AcDbEntity
  8
躯体と製品
  6
DASHED1
 62
     7
100
AcDbLine
 10
1768.768804869574
 20
717.8018916450637
 30
0.0
 11
1764.583371869575
 21
717.0638876450638
 31
0.0
  0
LINE
  5
6EFD
330
1E
100
AcDbEntity
  8
躯体と製品
  6
DASHED1
 62
     7
100
AcDbLine
 10
1761.643774869574
 20
728.0638876450638
 30
0.0
 11
1759.704177869575
 21
717.0638876450638
 31
0.0
  0
LINE
  5
6EFE
330
1E
100
AcDbEntity
  8
躯体と製品
  6
DASHED1
 62
     7
100
AcDbLine
 10
1762.643774869574
 20
728.0638876450638
 30
0.0
 11
1764.583371869575
 21
717.0638876450638
 31
0.0
  0
LINE
  5
6EFF
330
1E
100
AcDbEntity
  8
躯体と製品
  6
DASHED1
 62
     7
100
AcDbLine
 10
1768.768804869574
 20
717.8018916450637
 30
0.0
 11
1766.893774869574
 21
728.4357136450637
 31
0.0
  0
LINE
  5
6F00
330
1E
100
AcDbEntity
  8
躯体と製品
  6
DASHED1
 62
     7
100
AcDbLine
 10
1757.393774869574
 20
747.0638876450638
 30
0.0
 11
1766.893774869574
 21
747.0638876450638
 31
0.0
  0
LINE
  5
6F01
330
1E
100
AcDbEntity
  8
躯体と製品
  6
DASHED1
 62
     7
100
AcDbLine
 10
1758.093774869574
 20
747.7638876450637
 30
0.0
 11
1766.193774869574
 21
747.7638876450637
 31
0.0
  0
LINE
  5
6F02
330
1E
100
AcDbEntity
  8
躯体と製品
  6
DASHED1
 62
     7
100
AcDbLine
 10
1755.518744869574
 20
717.8018916450637
 30
0.0
 11
1759.704177869575
 21
717.0638876450638
 31
0.0
  0
ARC
  5
6F03
330
1E
100
AcDbEntity
  8
躯体と製品
  6
DASHED1
 62
     7
100
AcDbCircle
 10
1758.643774869574
 20
716.5638876450637
 30
0.0
 40
1.0
100
AcDbArc
 50
180.0
 51
270.0
  0
ARC
  5
6F04
330
1E
100
AcDbEntity
  8
躯体と製品
  6
Continuous
 62
     3
100
AcDbCircle
 10
1790.701085136157
 20
760.0638876450638
 30
0.0
 40
0.5
100
AcDbArc
 50
270.0
 51
350.0000000000025
  0
LINE
  5
6F05
330
1E
100
AcDbEntity
  8
躯体と製品
  6
Continuous
 62
     3
100
AcDbLine
 10
1790.701085136157
 20
759.5638876450638
 30
0.0
 11
1787.6548053005
 21
759.5638876450638
 31
0.0
  0
LINE
  5
6F06
330
1E
100
AcDbEntity
  8
躯体と製品
  6
Continuous
 62
     3
100
AcDbLine
 10
1791.193489012663
 20
759.9770635562304
 30
0.0
 11
1791.600683684223
 21
762.2863792940948
 31
0.0
  0
ARC
  5
6F07
330
1E
100
AcDbEntity
  8
躯体と製品
  6
Continuous
 62
     3
100
AcDbCircle
 10
1787.6548053005
 20
760.0638876450638
 30
0.0
 40
0.5
100
AcDbArc
 50
170.0000000000025
 51
270.0
  0
LINE
  5
6F08
330
1E
100
AcDbEntity
  8
躯体と製品
  6
Continuous
 62
     3
100
AcDbLine
 10
1787.162401423994
 20
760.1507117338971
 30
0.0
 11
1787.661452672174
 21
762.9809720047624
 31
0.0
  0
ARC
  5
6F09
330
1E
100
AcDbEntity
  8
躯体と製品
  6
Continuous
 62
     3
100
AcDbCircle
 10
1785.116238770785
 20
760.0638876450638
 30
0.0
 40
0.5
100
AcDbArc
 50
270.0
 51
350.0000000000025
  0
LINE
  5
6F0A
330
1E
100
AcDbEntity
  8
躯体と製品
  6
Continuous
 62
     3
100
AcDbLine
 10
1785.116238770785
 20
759.5638876450638
 30
0.0
 11
1781.143774869574
 21
759.5638876450638
 31
0.0
  0
LINE
  5
6F0B
330
1E
100
AcDbEntity
  8
躯体と製品
  6
Continuous
 62
     3
100
AcDbLine
 10
1785.608642647292
 20
759.9770635562304
 30
0.0
 11
1786.748597620074
 21
766.4420694685524
 31
0.0
  0
LINE
  5
6F0C
330
1E
100
AcDbEntity
  8
躯体と製品
  6
Continuous
 62
     3
100
AcDbLine
 10
1787.835100849841
 20
763.9657797577747
 30
0.0
 11
1787.342696973335
 21
764.0526038466081
 31
0.0
  0
LINE
  5
6F0D
330
1E
100
AcDbEntity
  8
躯体と製品
  6
Continuous
 62
     3
100
AcDbLine
 10
1792.266735738397
 20
763.1843629582735
 30
0.0
 11
1791.77433186189
 21
763.2711870471069
 31
0.0
  0
LINE
  5
6F0E
330
1E
100
AcDbEntity
  8
躯体と製品
  6
Continuous
 62
     3
100
AcDbLine
 10
1788.008749027509
 20
764.9505875107867
 30
0.0
 11
1787.516345151002
 21
765.0374115996203
 31
0.0
  0
LINE
  5
6F0F
330
1E
100
AcDbEntity
  8
躯体と製品
  6
Continuous
 62
     3
100
AcDbLine
 10
1792.440383916063
 20
764.1691707112856
 30
0.0
 11
1791.947980039557
 21
764.255994800119
 31
0.0
  0
LINE
  5
6F10
330
1E
100
AcDbEntity
  8
躯体と製品
  6
Continuous
 62
     3
100
AcDbLine
 10
1792.643774869574
 20
759.5638876450638
 30
0.0
 11
1793.642251891159
 21
765.226532224884
 31
0.0
  0
LINE
  5
6F11
330
1E
100
AcDbEntity
  8
躯体と製品
  6
Continuous
 62
     3
100
AcDbLine
 10
1791.947980039557
 20
764.255994800119
 30
0.0
 11
1792.165040261641
 21
765.4870044913844
 31
0.0
  0
LINE
  5
6F12
330
1E
100
AcDbEntity
  8
躯体と製品
  6
Continuous
 62
     3
100
AcDbLine
 10
1788.008749027509
 20
764.9505875107867
 30
0.0
 11
1788.225809249592
 21
766.1815972020519
 31
0.0
  0
LINE
  5
6F13
330
1E
100
AcDbEntity
  8
躯体と製品
  6
Continuous
 62
     3
100
AcDbLine
 10
1792.266735738397
 20
763.1843629582735
 30
0.0
 11
1791.600683684223
 21
762.2863792940948
 31
0.0
  0
LINE
  5
6F14
330
1E
100
AcDbEntity
  8
躯体と製品
  6
Continuous
 62
     3
100
AcDbLine
 10
1792.440383916063
 20
764.1691707112856
 30
0.0
 11
1791.77433186189
 21
763.2711870471069
 31
0.0
  0
ARC
  5
6F15
330
1E
100
AcDbEntity
  8
躯体と製品
  6
Continuous
 62
     3
100
AcDbCircle
 10
1787.487203434833
 20
766.3118333353021
 30
0.0
 40
0.7500000000000016
100
AcDbArc
 50
350.0000000000025
 51
170.0000000000025
  0
ARC
  5
6F16
330
1E
100
AcDbEntity
  8
躯体と製品
  6
Continuous
 62
     3
100
AcDbCircle
 10
1792.9036460764
 20
765.3567683581339
 30
0.0
 40
0.7499999999999977
100
AcDbArc
 50
350.0000000000025
 51
170.0000000000025
  0
LINE
  5
6F17
330
1E
100
AcDbEntity
  8
躯体と製品
  6
Continuous
 62
     3
100
AcDbLine
 10
1792.643774869574
 20
757.0638876450638
 30
0.0
 11
1792.643774869574
 21
759.5638876450638
 31
0.0
  0
LINE
  5
6F18
330
1E
100
AcDbEntity
  8
躯体と製品
  6
Continuous
 62
     3
100
AcDbLine
 10
1744.143774869574
 20
757.0638876450638
 30
0.0
 11
1745.643774869574
 21
757.0638876450638
 31
0.0
  0
LINE
  5
6F19
330
1E
100
AcDbEntity
  8
躯体と製品
  6
Continuous
 62
     3
100
AcDbLine
 10
1745.643774869574
 20
757.0638876450638
 30
0.0
 11
1745.643774869574
 21
757.5638876450639
 31
0.0
  0
LINE
  5
6F1A
330
1E
100
AcDbEntity
  8
躯体と製品
  6
Continuous
 62
     3
100
AcDbLine
 10
1745.643774869574
 20
757.5638876450639
 30
0.0
 11
1757.143774869574
 21
757.5638876450639
 31
0.0
  0
LINE
  5
6F1B
330
1E
100
AcDbEntity
  8
躯体と製品
  6
Continuous
 62
     3
100
AcDbLine
 10
1757.143774869574
 20
757.5638876450639
 30
0.0
 11
1757.143774869574
 21
757.0638876450638
 31
0.0
  0
ARC
  5
6F1C
330
1E
100
AcDbEntity
  8
躯体と製品
  6
Continuous
 62
     3
100
AcDbCircle
 10
1748.893774869574
 20
766.3138876450638
 30
0.0
 40
0.75
100
AcDbArc
 50
270.0
 51
90.0
  0
ARC
  5
6F1D
330
1E
100
AcDbEntity
  8
躯体と製品
  6
Continuous
 62
     3
100
AcDbCircle
 10
1747.893774869574
 20
762.3138876450638
 30
0.0
 40
0.75
100
AcDbArc
 50
270.0
 51
90.0
  0
ARC
  5
6F1E
330
1E
100
AcDbEntity
  8
躯体と製品
  6
Continuous
 62
     3
100
AcDbCircle
 10
1745.943774869574
 20
765.2638876450637
 30
0.0
 40
0.2999999999999998
100
AcDbArc
 50
90.0
 51
180.0
  0
LINE
  5
6F1F
330
1E
100
AcDbEntity
  8
躯体と製品
  6
Continuous
 62
     3
100
AcDbLine
 10
1745.943774869574
 20
765.5638876450638
 30
0.0
 11
1748.893774869574
 21
765.5638876450638
 31
0.0
  0
LINE
  5
6F20
330
1E
100
AcDbEntity
  8
躯体と製品
  6
Continuous
 62
     3
100
AcDbLine
 10
1745.943774869574
 20
763.0638876450639
 30
0.0
 11
1747.893774869574
 21
763.0638876450639
 31
0.0
  0
ARC
  5
6F21
330
1E
100
AcDbEntity
  8
躯体と製品
  6
Continuous
 62
     3
100
AcDbCircle
 10
1745.943774869574
 20
763.3638876450638
 30
0.0
 40
0.2999999999999998
100
AcDbArc
 50
180.0
 51
270.0
  0
LINE
  5
6F22
330
1E
100
AcDbEntity
  8
躯体と製品
  6
Continuous
 62
     3
100
AcDbLine
 10
1745.643774869574
 20
763.3638876450638
 30
0.0
 11
1745.643774869574
 21
765.2638876450637
 31
0.0
  0
ARC
  5
6F23
330
1E
100
AcDbEntity
  8
躯体と製品
  6
Continuous
 62
     3
100
AcDbCircle
 10
1745.943774869574
 20
761.2638876450637
 30
0.0
 40
0.2999999999999998
100
AcDbArc
 50
90.0
 51
180.0
  0
LINE
  5
6F24
330
1E
100
AcDbEntity
  8
躯体と製品
  6
Continuous
 62
     3
100
AcDbLine
 10
1745.943774869574
 20
761.5638876450637
 30
0.0
 11
1747.893774869574
 21
761.5638876450637
 31
0.0
  0
ARC
  5
6F25
330
1E
100
AcDbEntity
  8
躯体と製品
  6
Continuous
 62
     3
100
AcDbCircle
 10
1745.943774869574
 20
759.8638876450638
 30
0.0
 40
0.2999999999999998
100
AcDbArc
 50
180.0
 51
270.0
  0
LINE
  5
6F26
330
1E
100
AcDbEntity
  8
躯体と製品
  6
Continuous
 62
     3
100
AcDbLine
 10
1745.643774869574
 20
759.8638876450638
 30
0.0
 11
1745.643774869574
 21
761.2638876450637
 31
0.0
  0
LINE
  5
6F27
330
1E
100
AcDbEntity
  8
躯体と製品
  6
Continuous
 62
     3
100
AcDbLine
 10
1744.643774869574
 20
767.0638876450639
 30
0.0
 11
1748.893774869574
 21
767.0638876450639
 31
0.0
  0
ARC
  5
6F28
330
1E
100
AcDbEntity
  8
躯体と製品
  6
Continuous
 62
     3
100
AcDbCircle
 10
1744.643774869574
 20
766.5638876450639
 30
0.0
 40
0.5
100
AcDbArc
 50
90.0
 51
180.0
  0
LINE
  5
6F29
330
1E
100
AcDbEntity
  8
躯体と製品
  6
Continuous
 62
     3
100
AcDbLine
 10
1744.143774869574
 20
766.5638876450639
 30
0.0
 11
1744.143774869574
 21
757.0638876450638
 31
0.0
  0
LINE
  5
6F2A
330
1E
100
AcDbEntity
  8
躯体と製品
  6
Continuous
 62
     3
100
AcDbLine
 10
1757.143774869574
 20
757.0638876450638
 30
0.0
 11
1767.143774869574
 21
757.0638876450638
 31
0.0
  0
LINE
  5
6F2B
330
1E
100
AcDbEntity
  8
躯体と製品
  6
Continuous
 62
     3
100
AcDbLine
 10
1762.643774869574
 20
759.5638876450638
 30
0.0
 11
1778.343774869574
 21
759.5638876450638
 31
0.0
  0
LINE
  5
6F2C
330
1E
100
AcDbEntity
  8
躯体と製品
  6
Continuous
 62
     3
100
AcDbLine
 10
1745.943774869574
 20
759.5638876450638
 30
0.0
 11
1761.643774869574
 21
759.5638876450638
 31
0.0
  0
LINE
  5
6F2D
330
1E
100
AcDbEntity
  8
躯体と製品
  6
Continuous
 62
     3
100
AcDbLine
 10
1767.143774869574
 20
757.0638876450638
 30
0.0
 11
1767.143774869574
 21
757.5638876450639
 31
0.0
  0
LINE
  5
6F2E
330
1E
100
AcDbEntity
  8
躯体と製品
  6
Continuous
 62
     3
100
AcDbLine
 10
1767.143774869574
 20
757.5638876450639
 30
0.0
 11
1778.643774869574
 21
757.5638876450639
 31
0.0
  0
LINE
  5
6F2F
330
1E
100
AcDbEntity
  8
躯体と製品
  6
Continuous
 62
     3
100
AcDbLine
 10
1778.643774869574
 20
757.5638876450639
 30
0.0
 11
1778.643774869574
 21
757.0638876450638
 31
0.0
  0
LINE
  5
6F30
330
1E
100
AcDbEntity
  8
躯体と製品
  6
Continuous
 62
     3
100
AcDbLine
 10
1778.643774869574
 20
757.0638876450638
 30
0.0
 11
1780.643774869574
 21
757.0638876450638
 31
0.0
  0
ARC
  5
6F31
330
1E
100
AcDbEntity
  8
躯体と製品
  6
Continuous
 62
     3
100
AcDbCircle
 10
1779.643774869574
 20
775.0638876450639
 30
0.0
 40
1.0
100
AcDbArc
 50
0.0
 51
180.0
  0
LINE
  5
6F32
330
1E
100
AcDbEntity
  8
躯体と製品
  6
Continuous
 62
     3
100
AcDbLine
 10
1791.143774869574
 20
758.0638876450637
 30
0.0
 11
1791.143774869574
 21
757.0638876450638
 31
0.0
  0
LINE
  5
6F33
330
1E
100
AcDbEntity
  8
躯体と製品
  6
Continuous
 62
     3
100
AcDbLine
 10
1791.143774869574
 20
757.0638876450638
 30
0.0
 11
1792.643774869574
 21
757.0638876450638
 31
0.0
  0
LINE
  5
6F34
330
1E
100
AcDbEntity
  8
躯体と製品
  6
Continuous
 62
     3
100
AcDbLine
 10
1762.143774869574
 20
759.0638876450639
 30
0.0
 11
1762.643774869574
 21
759.5638876450638
 31
0.0
  0
LINE
  5
6F35
330
1E
100
AcDbEntity
  8
躯体と製品
  6
Continuous
 62
     3
100
AcDbLine
 10
1780.643774869574
 20
757.0638876450638
 30
0.0
 11
1780.643774869574
 21
758.0638876450637
 31
0.0
  0
LINE
  5
6F36
330
1E
100
AcDbEntity
  8
躯体と製品
  6
Continuous
 62
     3
100
AcDbLine
 10
1780.643774869574
 20
758.0638876450637
 30
0.0
 11
1791.143774869574
 21
758.0638876450637
 31
0.0
  0
LINE
  5
6F37
330
1E
100
AcDbEntity
  8
躯体と製品
  6
Continuous
 62
     3
100
AcDbLine
 10
1780.643774869574
 20
760.0638876450638
 30
0.0
 11
1780.643774869574
 21
775.0638876450639
 31
0.0
  0
ARC
  5
6F38
330
1E
100
AcDbEntity
  8
躯体と製品
  6
Continuous
 62
     3
100
AcDbCircle
 10
1781.143774869574
 20
760.0638876450638
 30
0.0
 40
0.5
100
AcDbArc
 50
180.0
 51
270.0
  0
ARC
  5
6F39
330
1E
100
AcDbEntity
  8
躯体と製品
  6
Continuous
 62
     3
100
AcDbCircle
 10
1778.343774869574
 20
759.8638876450638
 30
0.0
 40
0.2999999999999998
100
AcDbArc
 50
270.0
 51
0.0
  0
LINE
  5
6F3A
330
1E
100
AcDbEntity
  8
躯体と製品
  6
Continuous
 62
     3
100
AcDbLine
 10
1778.143774869574
 20
767.0638876450639
 30
0.0
 11
1775.393774869574
 21
767.0638876450639
 31
0.0
  0
ARC
  5
6F3B
330
1E
100
AcDbEntity
  8
躯体と製品
  6
Continuous
 62
     3
100
AcDbCircle
 10
1778.143774869574
 20
767.5638876450639
 30
0.0
 40
0.5
100
AcDbArc
 50
270.0
 51
0.0
  0
LINE
  5
6F3C
330
1E
100
AcDbEntity
  8
躯体と製品
  6
Continuous
 62
     3
100
AcDbLine
 10
1778.643774869574
 20
767.5638876450639
 30
0.0
 11
1778.643774869574
 21
775.0638876450639
 31
0.0
  0
ARC
  5
6F3D
330
1E
100
AcDbEntity
  8
躯体と製品
  6
Continuous
 62
     3
100
AcDbCircle
 10
1775.393774869574
 20
766.3138876450638
 30
0.0
 40
0.75
100
AcDbArc
 50
90.0
 51
270.0
  0
ARC
  5
6F3E
330
1E
100
AcDbEntity
  8
躯体と製品
  6
Continuous
 62
     3
100
AcDbCircle
 10
1776.393774869574
 20
762.3138876450638
 30
0.0
 40
0.75
100
AcDbArc
 50
90.0
 51
270.0
  0
LINE
  5
6F3F
330
1E
100
AcDbEntity
  8
躯体と製品
  6
Continuous
 62
     3
100
AcDbLine
 10
1778.343774869574
 20
761.5638876450637
 30
0.0
 11
1776.393774869574
 21
761.5638876450637
 31
0.0
  0
ARC
  5
6F40
330
1E
100
AcDbEntity
  8
躯体と製品
  6
Continuous
 62
     3
100
AcDbCircle
 10
1778.343774869574
 20
761.2638876450637
 30
0.0
 40
0.2999999999999998
100
AcDbArc
 50
0.0
 51
90.0
  0
LINE
  5
6F41
330
1E
100
AcDbEntity
  8
躯体と製品
  6
Continuous
 62
     3
100
AcDbLine
 10
1778.643774869574
 20
761.2638876450637
 30
0.0
 11
1778.643774869574
 21
759.8638876450638
 31
0.0
  0
LINE
  5
6F42
330
1E
100
AcDbEntity
  8
躯体と製品
  6
Continuous
 62
     3
100
AcDbLine
 10
1778.343774869574
 20
763.0638876450639
 30
0.0
 11
1776.393774869574
 21
763.0638876450639
 31
0.0
  0
ARC
  5
6F43
330
1E
100
AcDbEntity
  8
躯体と製品
  6
Continuous
 62
     3
100
AcDbCircle
 10
1778.343774869574
 20
763.3638876450638
 30
0.0
 40
0.2999999999999998
100
AcDbArc
 50
270.0
 51
0.0
  0
LINE
  5
6F44
330
1E
100
AcDbEntity
  8
躯体と製品
  6
Continuous
 62
     3
100
AcDbLine
 10
1778.643774869574
 20
765.2638876450637
 30
0.0
 11
1778.643774869574
 21
763.3638876450638
 31
0.0
  0
ARC
  5
6F45
330
1E
100
AcDbEntity
  8
躯体と製品
  6
Continuous
 62
     3
100
AcDbCircle
 10
1778.343774869574
 20
765.2638876450637
 30
0.0
 40
0.2999999999999998
100
AcDbArc
 50
0.0
 51
90.0
  0
LINE
  5
6F46
330
1E
100
AcDbEntity
  8
躯体と製品
  6
Continuous
 62
     3
100
AcDbLine
 10
1778.343774869574
 20
765.5638876450638
 30
0.0
 11
1775.393774869574
 21
765.5638876450638
 31
0.0
  0
LINE
  5
6F47
330
1E
100
AcDbEntity
  8
躯体と製品
  6
Continuous
 62
     3
100
AcDbLine
 10
1762.143774869574
 20
759.0638876450639
 30
0.0
 11
1761.643774869574
 21
759.5638876450638
 31
0.0
  0
LINE
  5
6F48
330
1E
100
AcDbEntity
  8
躯体と製品
  6
Continuous
 62
     3
100
AcDbLine
 10
1787.342696973335
 20
764.0526038466081
 30
0.0
 11
1787.661452672174
 21
762.9809720047624
 31
0.0
  0
LINE
  5
6F49
330
1E
100
AcDbEntity
  8
躯体と製品
  6
Continuous
 62
     3
100
AcDbLine
 10
1787.516345151002
 20
765.0374115996203
 30
0.0
 11
1787.835100849841
 21
763.9657797577747
 31
0.0
  0
LINE
  5
6F4A
330
1E
100
AcDbEntity
  8
躯体と製品
  6
Continuous
 62
     3
100
AcDbLine
 10
1751.143774869574
 20
773.3509493819738
 30
0.0
 11
1751.143774869574
 21
766.0638876450639
 31
0.0
  0
LINE
  5
6F4B
330
1E
100
AcDbEntity
  8
躯体と製品
  6
Continuous
 62
     3
100
AcDbLine
 10
1746.143774869574
 20
763.9638876450637
 30
0.0
 11
1750.643774869574
 21
763.9638876450637
 31
0.0
  0
LINE
  5
6F4C
330
1E
100
AcDbEntity
  8
躯体と製品
  6
Continuous
 62
     3
100
AcDbLine
 10
1746.143774869574
 20
763.9638876450637
 30
0.0
 11
1746.143774869574
 21
765.5638876450638
 31
0.0
  0
LINE
  5
6F4D
330
1E
100
AcDbEntity
  8
躯体と製品
  6
Continuous
 62
     3
100
AcDbLine
 10
1746.143774869574
 20
765.5638876450638
 30
0.0
 11
1750.643774869574
 21
765.5638876450638
 31
0.0
  0
ARC
  5
6F4E
330
1E
100
AcDbEntity
  8
躯体と製品
  6
Continuous
 62
     3
100
AcDbCircle
 10
1750.643774869574
 20
766.0638876450639
 30
0.0
 40
2.1
100
AcDbArc
 50
270.0
 51
0.0
  0
ARC
  5
6F4F
330
1E
100
AcDbEntity
  8
躯体と製品
  6
Continuous
 62
     3
100
AcDbCircle
 10
1750.643774869574
 20
766.0638876450639
 30
0.0
 40
0.5
100
AcDbArc
 50
270.0
 51
0.0
  0
LINE
  5
6F50
330
1E
100
AcDbEntity
  8
躯体と製品
  6
Continuous
 62
     3
100
AcDbLine
 10
1778.143774869574
 20
763.9638876450637
 30
0.0
 11
1773.643774869574
 21
763.9638876450637
 31
0.0
  0
LINE
  5
6F51
330
1E
100
AcDbEntity
  8
躯体と製品
  6
Continuous
 62
     3
100
AcDbLine
 10
1773.643774869574
 20
765.5638876450638
 30
0.0
 11
1778.143774869574
 21
765.5638876450638
 31
0.0
  0
LINE
  5
6F52
330
1E
100
AcDbEntity
  8
躯体と製品
  6
Continuous
 62
     3
100
AcDbLine
 10
1778.143774869574
 20
765.5638876450638
 30
0.0
 11
1778.143774869574
 21
763.9638876450637
 31
0.0
  0
ARC
  5
6F53
330
1E
100
AcDbEntity
  8
躯体と製品
  6
Continuous
 62
     3
100
AcDbCircle
 10
1773.643774869574
 20
766.0638876450639
 30
0.0
 40
2.1
100
AcDbArc
 50
180.0
 51
270.0
  0
ARC
  5
6F54
330
1E
100
AcDbEntity
  8
躯体と製品
  6
Continuous
 62
     3
100
AcDbCircle
 10
1773.643774869574
 20
766.0638876450639
 30
0.0
 40
0.5
100
AcDbArc
 50
180.0
 51
270.0
  0
LINE
  5
6F55
330
1E
100
AcDbEntity
  8
躯体と製品
  6
Continuous
 62
     3
100
AcDbLine
 10
1752.743774869574
 20
773.3509493819738
 30
0.0
 11
1752.743774869574
 21
766.0638876450639
 31
0.0
  0
ARC
  5
6F56
330
1E
100
AcDbEntity
  8
躯体と製品
  6
Continuous
 62
     3
100
AcDbCircle
 10
1753.243774869574
 20
773.3509493819738
 30
0.0
 40
0.5
100
AcDbArc
 50
86.99999999999441
 51
180.0
  0
LINE
  5
6F57
330
1E
100
AcDbEntity
  8
躯体と製品
  6
Continuous
 62
     3
100
AcDbLine
 10
1771.543774869574
 20
772.4180909107355
 30
0.0
 11
1771.543774869574
 21
766.0638876450639
 31
0.0
  0
ARC
  5
6F58
330
1E
100
AcDbEntity
  8
躯体と製品
  6
Continuous
 62
     3
100
AcDbCircle
 10
1771.043774869574
 20
772.4180909107355
 30
0.0
 40
0.5
100
AcDbArc
 50
0.0
 51
86.99999999999441
  0
ARC
  5
6F59
330
1E
100
AcDbEntity
  8
躯体と製品
  6
Continuous
 62
     3
100
AcDbCircle
 10
1753.243774869574
 20
773.3509493819738
 30
0.0
 40
2.1
100
AcDbArc
 50
86.99999999999441
 51
180.0
  0
LINE
  5
6F5A
330
1E
100
AcDbEntity
  8
躯体と製品
  6
Continuous
 62
     3
100
AcDbLine
 10
1773.143774869574
 20
772.4180909107355
 30
0.0
 11
1773.143774869574
 21
766.0638876450639
 31
0.0
  0
ARC
  5
6F5B
330
1E
100
AcDbEntity
  8
躯体と製品
  6
Continuous
 62
     3
100
AcDbCircle
 10
1771.043774869574
 20
772.4180909107355
 30
0.0
 40
2.1
100
AcDbArc
 50
0.0
 51
86.99999999999441
  0
LINE
  5
6F5C
330
1E
100
AcDbEntity
  8
躯体と製品
  6
Continuous
 62
     3
100
AcDbLine
 10
1766.549061286971
 20
771.1515903491163
 30
0.0
 11
1757.361669567229
 21
771.6330811465513
 31
0.0
  0
LINE
  5
6F5D
330
1E
100
AcDbEntity
  8
躯体と製品
  6
Continuous
 62
     3
100
AcDbLine
 10
1757.414005523472
 20
772.631710681306
 30
0.0
 11
1757.361669567229
 21
771.6330811465513
 31
0.0
  0
ARC
  5
6F5E
330
1E
100
AcDbEntity
  8
躯体と製品
  6
Continuous
 62
     3
100
AcDbCircle
 10
1756.415375988717
 20
772.6840466375488
 30
0.0
 40
1.0
100
AcDbArc
 50
357.0000000000011
 51
86.99999999999441
  0
LINE
  5
6F5F
330
1E
100
AcDbEntity
  8
躯体と製品
  6
Continuous
 62
     3
100
AcDbLine
 10
1766.601397243214
 20
772.1502198838709
 30
0.0
 11
1766.549061286971
 21
771.1515903491163
 31
0.0
  0
ARC
  5
6F60
330
1E
100
AcDbEntity
  8
躯体と製品
  6
Continuous
 62
     3
100
AcDbCircle
 10
1767.600026777968
 20
772.0978839276279
 30
0.0
 40
1.0
100
AcDbArc
 50
86.99999999999441
 51
177.0000000000011
  0
LINE
  5
6F61
330
1E
100
AcDbEntity
  8
躯体と製品
  6
Continuous
 62
     3
100
AcDbLine
 10
1771.069942847696
 20
772.9174056781127
 30
0.0
 11
1753.269942847696
 21
773.850264149351
 31
0.0
  0
LINE
  5
6F62
330
1E
100
AcDbEntity
  8
躯体と製品
  6
Continuous
 62
     3
100
AcDbLine
 10
1771.153680377684
 20
774.5152129337202
 30
0.0
 11
1753.353680377684
 21
775.4480714049583
 31
0.0
  0
LINE
  5
6F63
330
1E
100
AcDbEntity
  8
躯体と製品
  6
DASHED1
 62
     7
100
AcDbLine
 10
1759.147886265311
 20
775.1444099416792
 30
0.0
 11
1758.959476822836
 21
771.5493436165627
 31
0.0
  0
LINE
  5
6F64
330
1E
100
AcDbEntity
  8
躯体と製品
  6
DASHED1
 62
     7
100
AcDbLine
 10
1765.139663473838
 20
774.8303942042213
 30
0.0
 11
1764.951254031364
 21
771.235327879105
 31
0.0
  0
LINE
  5
6F65
330
1E
100
AcDbEntity
  8
躯体と製品
  6
Continuous
 62
     4
100
AcDbLine
 10
1776.143774869574
 20
765.5638876450638
 30
0.0
 11
1776.143774869574
 21
763.9638876450637
 31
0.0
  0
LINE
  5
6F66
330
1E
100
AcDbEntity
  8
躯体と製品
  6
Continuous
 62
     4
100
AcDbLine
 10
1748.143774869574
 20
765.5638876450638
 30
0.0
 11
1748.143774869574
 21
763.9638876450637
 31
0.0
  0
ARC
  5
6F67
330
1E
100
AcDbEntity
  8
躯体と製品
  6
DASHED1
 62
     7
100
AcDbCircle
 10
1774.057409685395
 20
798.3882205965831
 30
0.0
 40
1.0
100
AcDbArc
 50
37.62684736228169
 51
86.99999999999441
  0
LINE
  5
6F68
330
1E
100
AcDbEntity
  8
躯体と製品
  6
DASHED1
 62
     7
100
AcDbLine
 10
1752.835660512537
 20
801.3028755660304
 30
0.0
 11
1774.151614406633
 21
800.1857537591412
 31
0.0
  0
ARC
  5
6F69
330
1E
100
AcDbEntity
  8
躯体と製品
  6
DASHED1
 62
     7
100
AcDbCircle
 10
1752.741455791299
 20
799.5053424034722
 30
0.0
 40
1.8
100
AcDbArc
 50
86.99999999999441
 51
136.3731526377175
  0
LINE
  5
6F6A
330
1E
100
AcDbEntity
  8
躯体と製品
  6
DASHED1
 62
     7
100
AcDbLine
 10
1752.793791747542
 20
800.5039719382269
 30
0.0
 11
1774.109745641638
 21
799.3868501313376
 31
0.0
  0
LINE
  5
6F6B
330
1E
100
AcDbEntity
  8
躯体と製品
  6
DASHED1
 62
     7
100
AcDbLine
 10
1752.017607147737
 20
800.1953012002219
 30
0.0
 11
1739.087656053978
 21
786.6302483236793
 31
0.0
  0
ARC
  5
6F6C
330
1E
100
AcDbEntity
  8
躯体と製品
  6
DASHED1
 62
     7
100
AcDbCircle
 10
1752.741455791299
 20
799.5053424034722
 30
0.0
 40
1.0
100
AcDbArc
 50
86.99999999999441
 51
136.3731526377175
  0
ARC
  5
6F6D
330
1E
100
AcDbEntity
  8
躯体と製品
  6
DASHED1
 62
     7
100
AcDbCircle
 10
1737.78472851207
 20
787.8721741751444
 30
0.0
 40
1.0
100
AcDbArc
 50
217.6268487328632
 51
316.3731526377176
  0
ARC
  5
6F6E
330
1E
100
AcDbEntity
  8
躯体と製品
  6
DASHED1
 62
     7
100
AcDbCircle
 10
1737.78472851207
 20
787.8721741751444
 30
0.0
 40
1.8
100
AcDbArc
 50
217.6268481237226
 51
316.3731526377176
  0
LINE
  5
6F6F
330
1E
100
AcDbEntity
  8
躯体と製品
  6
DASHED1
 62
     7
100
AcDbLine
 10
1790.509930283638
 20
786.7369634969641
 30
0.0
 11
1788.440053876857
 21
784.5654175489321
 31
0.0
  0
LINE
  5
6F70
330
1E
100
AcDbEntity
  8
躯体と製品
  6
DASHED1
 62
     7
100
AcDbLine
 10
1791.089009198511
 20
786.1849964595871
 30
0.0
 11
1790.509930283638
 21
786.7369634969641
 31
0.0
  0
LINE
  5
6F71
330
1E
100
AcDbEntity
  8
躯体と製品
  6
DASHED1
 62
     7
100
AcDbLine
 10
1791.089009198511
 20
786.1849964595871
 30
0.0
 11
1789.019132791707
 21
784.0134505115321
 31
0.0
  0
ARC
  5
6F72
330
1E
100
AcDbEntity
  8
躯体と製品
  6
DASHED1
 62
     7
100
AcDbCircle
 10
1787.716205249799
 20
785.2553763629971
 30
0.0
 40
1.0
100
AcDbArc
 50
217.6268473622817
 51
316.3731512671342
  0
ARC
  5
6F73
330
1E
100
AcDbEntity
  8
躯体と製品
  6
DASHED1
 62
     7
100
AcDbCircle
 10
1787.716205249799
 20
785.2553763629971
 30
0.0
 40
1.8
100
AcDbArc
 50
217.6268473622817
 51
316.3731518762783
  0
LINE
  5
6F74
330
1E
100
AcDbEntity
  8
躯体と製品
  6
DASHED1
 62
     7
100
AcDbLine
 10
1775.483016269252
 20
799.4871500156384
 30
0.0
 11
1786.924201606705
 21
784.6448600001317
 31
0.0
  0
LINE
  5
6F75
330
1E
100
AcDbEntity
  8
躯体と製品
  6
DASHED1
 62
     7
100
AcDbLine
 10
1774.849413343093
 20
798.9987369405028
 30
0.0
 11
1786.290598680547
 21
784.156446924996
 31
0.0
  0
ARC
  5
6F76
330
1E
100
AcDbEntity
  8
躯体と製品
  6
DASHED1
 62
     7
100
AcDbCircle
 10
1774.057409685395
 20
798.3882205965831
 30
0.0
 40
1.8
100
AcDbArc
 50
37.62684736228169
 51
86.99999999999441
  0
LINE
  5
6F77
330
1E
100
AcDbEntity
  8
躯体と製品
  6
DASHED1
 62
     7
100
AcDbLine
 10
1751.438528232886
 20
800.7472682376219
 30
0.0
 11
1738.508577155633
 21
787.1822153783946
 31
0.0
  0
ARC
  5
6F78
330
1E
100
AcDbEntity
  8
躯体と製品
  6
DASHED1
 62
     7
100
AcDbCircle
 10
1762.3097087119
 20
803.9484939220347
 30
0.0
 40
0.5999999999999998
100
AcDbArc
 50
357.0000000000011
 51
100.7002330000058
  0
ARC
  5
6F79
330
1E
100
AcDbEntity
  8
躯体と製品
  6
DASHED1
 62
     7
100
AcDbCircle
 10
1765.006008455737
 20
803.8071868401786
 30
0.0
 40
0.5999999999999998
100
AcDbArc
 50
73.29976700000166
 51
177.0000000000011
  0
LINE
  5
6F7A
330
1E
100
AcDbEntity
  8
躯体と製品
  6
DASHED1
 62
     7
100
AcDbLine
 10
1764.404776810281
 20
803.799397197833
 30
0.0
 11
1762.90683250815
 21
803.8779011321974
 31
0.0
  0
ARC
  5
6F7B
330
1E
100
AcDbEntity
  8
躯体と製品
  6
DASHED1
 62
     7
100
AcDbCircle
 10
1761.680406764417
 20
800.6442166440509
 30
0.0
 40
3.45
100
AcDbArc
 50
126.3091240000008
 51
173.7621629999991
  0
ARC
  5
6F7C
330
1E
100
AcDbEntity
  8
躯体と製品
  6
DASHED1
 62
     7
100
AcDbCircle
 10
1765.291742769672
 20
800.4504453640967
 30
0.0
 40
3.45
100
AcDbArc
 50
0.3127429999987237
 51
47.82048899999998
  0
ARC
  5
6F7D
330
1E
100
AcDbEntity
  8
躯体と製品
  6
DASHED1
 62
     7
100
AcDbCircle
 10
1763.368031216937
 20
798.3476047778043
 30
0.0
 40
6.299999999999998
100
AcDbArc
 50
47.69686900000316
 51
126.3093710000041
  0
LINE
  5
6F7E
330
1E
100
AcDbEntity
  8
躯体と製品
  6
Continuous
 62
     4
100
AcDbLine
 10
1764.687520586469
 20
766.2029939679548
 30
0.0
 11
1758.695743377942
 21
766.5170097054126
 31
0.0
  0
POINT
  5
6F7F
330
1E
100
AcDbEntity
  8
躯体と製品
 62
     4
100
AcDbPoint
 10
1762.143774869574
 20
774.9874020729503
 30
0.0
  0
LINE
  5
6F80
330
1E
100
AcDbEntity
  8
躯体と製品
  6
DASHED1
 62
     7
100
AcDbLine
 10
1766.489526063848
 20
800.5873067938569
 30
0.0
 11
1765.243930305266
 21
776.819923866698
 31
0.0
  0
LINE
  5
6F81
330
1E
100
AcDbEntity
  8
躯体と製品
  6
DASHED1
 62
     4
100
AcDbLine
 10
1765.92180517334
 20
800.6170597849811
 30
0.0
 11
1764.676209414759
 21
776.849676857822
 31
0.0
  0
LINE
  5
6F82
330
1E
100
AcDbEntity
  8
躯体と製品
  6
DASHED1
 62
     7
100
AcDbLine
 10
1760.497748855321
 20
800.9013225313147
 30
0.0
 11
1759.252153096739
 21
777.1339396041557
 31
0.0
  0
LINE
  5
6F83
330
1E
100
AcDbEntity
  8
躯体と製品
  6
DASHED1
 62
     4
100
AcDbLine
 10
1761.065469745829
 20
800.8715695401907
 30
0.0
 11
1759.819873987247
 21
777.1041866130315
 31
0.0
  0
LINE
  5
6F84
330
1E
100
AcDbEntity
  8
躯体と製品
  6
Continuous
 62
     7
100
AcDbLine
 10
1759.252153096739
 20
777.1339396041557
 30
0.0
 11
1759.147886265311
 21
775.1444099416792
 31
0.0
  0
LINE
  5
6F85
330
1E
100
AcDbEntity
  8
躯体と製品
  6
Continuous
 62
     4
100
AcDbLine
 10
1759.819873987247
 20
777.1041866130315
 30
0.0
 11
1759.715607155818
 21
775.1146569505551
 31
0.0
  0
LINE
  5
6F86
330
1E
100
AcDbEntity
  8
躯体と製品
  6
Continuous
 62
     4
100
AcDbLine
 10
1764.676209414759
 20
776.849676857822
 30
0.0
 11
1764.57194258333
 21
774.8601471953455
 31
0.0
  0
LINE
  5
6F87
330
1E
100
AcDbEntity
  8
躯体と製品
  6
Continuous
 62
     7
100
AcDbLine
 10
1765.243930305266
 20
776.819923866698
 30
0.0
 11
1765.139663473838
 21
774.8303942042215
 31
0.0
  0
LINE
  5
6F88
330
1E
100
AcDbEntity
  8
躯体と製品
  6
Continuous
 62
     7
100
AcDbLine
 10
1758.959476822836
 20
771.5493436165627
 30
0.0
 11
1758.695743377942
 21
766.5170097054126
 31
0.0
  0
LINE
  5
6F89
330
1E
100
AcDbEntity
  8
躯体と製品
  6
Continuous
 62
     7
100
AcDbLine
 10
1764.951254031364
 20
771.2353278791048
 30
0.0
 11
1764.687520586469
 21
766.2029939679548
 31
0.0
  0
POINT
  5
6F8A
330
1E
100
AcDbEntity
  8
躯体と製品
 62
     4
100
AcDbPoint
 10
1779.696110825817
 20
776.0625171798182
 30
0.0
  0
LINE
  5
6F8B
330
1E
100
AcDbEntity
  8
躯体と製品
  6
DASHED1
 62
     7
100
AcDbLine
 10
1734.527572896411
 20
789.1492557292394
 30
0.0
 11
1736.359121942818
 21
786.7732447371431
 31
0.0
  0
LINE
  5
6F8C
330
1E
100
AcDbEntity
  8
躯体と製品
  6
DASHED1
 62
     7
100
AcDbLine
 10
1735.161175822589
 20
789.6376688043501
 30
0.0
 11
1736.992724868977
 21
787.2616578122789
 31
0.0
  0
LINE
  5
6F8D
330
1E
100
AcDbEntity
  8
躯体と製品
  6
DASHED1
 62
     7
100
AcDbLine
 10
1734.527572896411
 20
789.1492557292394
 30
0.0
 11
1735.161175822589
 21
789.6376688043501
 31
0.0
  0
ARC
  5
6F8E
330
1E
100
AcDbEntity
  8
躯体と製品
  6
Continuous
 62
     7
100
AcDbCircle
 10
1812.116462726108
 20
754.0642599120192
 30
0.0
 40
1.0
100
AcDbArc
 50
4.999999999999459
 51
88.3634229583817
  0
LINE
  5
6F8F
330
1E
100
AcDbEntity
  8
躯体と製品
  6
Continuous
 62
     7
100
AcDbLine
 10
1813.1126574242
 20
754.1514156547671
 30
0.0
 11
1814.733786998478
 21
735.6218198312204
 31
0.0
  0
LINE
  5
6F90
330
1E
100
AcDbEntity
  8
躯体と製品
  6
Continuous
 62
     7
100
AcDbLine
 10
1814.108852122292
 20
754.2385713975145
 30
0.0
 11
1815.729981696569
 21
735.7089755739679
 31
0.0
  0
LINE
  5
6F93
330
1E
100
AcDbEntity
  8
躯体と製品
  6
Continuous
 62
     3
100
AcDbLine
 10
1857.413266835965
 20
771.9895336211327
 30
0.0
 11
1858.878673610768
 21
799.9511605942607
 31
0.0
  0
LINE
  5
6F94
330
1E
100
AcDbEntity
  8
躯体と製品
  6
Continuous
 62
     4
100
AcDbLine
 10
1844.439199210053
 20
800.7079013816172
 30
0.0
 11
1843.924710723979
 21
801.22238986769
 31
0.0
  0
LINE
  5
6F95
330
1E
100
AcDbEntity
  8
躯体と製品
  6
DASHED1
 62
     7
100
AcDbLine
 10
1852.5509590528
 20
774.7477872392339
 30
0.0
 11
1857.544106726573
 21
774.4861074580191
 31
0.0
  0
LINE
  5
6F96
330
1E
100
AcDbEntity
  8
躯体と製品
  6
DASHED1
 62
     7
100
AcDbLine
 10
1852.603295009043
 20
775.7464167739885
 30
0.0
 11
1852.5509590528
 21
774.7477872392339
 31
0.0
  0
LINE
  5
6F97
330
1E
100
AcDbEntity
  8
躯体と製品
  6
DASHED1
 62
     7
100
AcDbLine
 10
1832.630704313951
 20
776.7931358988476
 30
0.0
 11
1852.603295009043
 21
775.7464167739885
 31
0.0
  0
LINE
  5
6F98
330
1E
100
AcDbEntity
  8
躯体と製品
  6
DASHED1
 62
     7
100
AcDbLine
 10
1832.630704313951
 20
776.7931358988476
 30
0.0
 11
1832.578368357709
 21
775.7945063640927
 31
0.0
  0
LINE
  5
6F99
330
1E
100
AcDbEntity
  8
躯体と製品
  6
DASHED1
 62
     7
100
AcDbLine
 10
1829.083164986068
 20
775.9776822109431
 30
0.0
 11
1832.578368357709
 21
775.7945063640927
 31
0.0
  0
ARC
  5
6F9A
330
1E
100
AcDbEntity
  8
躯体と製品
  6
DASHED1
 62
     7
100
AcDbCircle
 10
1829.161668920432
 20
777.475626513075
 30
0.0
 40
1.5
100
AcDbArc
 50
86.99999999999441
 51
266.9999999999944
  0
LINE
  5
6F9B
330
1E
100
AcDbEntity
  8
躯体と製品
  6
DASHED1
 62
     7
100
AcDbLine
 10
1829.240172854796
 20
778.9735708152069
 30
0.0
 11
1857.701114595302
 21
777.4819960622829
 31
0.0
  0
LINE
  5
6F9C
330
1E
100
AcDbEntity
  8
躯体と製品
  6
Continuous
 62
     3
100
AcDbLine
 10
1867.677461256658
 20
773.3674114358864
 30
0.0
 11
1867.094268713739
 21
770.841327006168
 31
0.0
  0
LINE
  5
6F9D
330
1E
100
AcDbEntity
  8
躯体と製品
  6
Continuous
 62
     3
100
AcDbLine
 10
1859.541365796082
 20
774.3814355455332
 30
0.0
 11
1867.216444202387
 21
773.9792017304355
 31
0.0
  0
LINE
  5
6F9E
330
1E
100
AcDbEntity
  8
躯体と製品
  6
Continuous
 62
     3
100
AcDbLine
 10
1870.457077710606
 20
773.8093673247997
 30
0.0
 11
1869.279731278539
 21
773.8710694367511
 31
0.0
  0
LINE
  5
6F9F
330
1E
100
AcDbEntity
  8
躯体と製品
  6
Continuous
 62
     3
100
AcDbLine
 10
1868.97171947223
 20
773.6389658926277
 30
0.0
 11
1868.263512791481
 21
770.5713857409555
 31
0.0
  0
ARC
  5
6FA0
330
1E
100
AcDbEntity
  8
躯体と製品
  6
Continuous
 62
     3
100
AcDbCircle
 10
1859.515197817961
 20
773.8821207781559
 30
0.0
 40
0.5
100
AcDbArc
 50
86.99999999999441
 51
177.0000000000011
  0
LINE
  5
6FA1
330
1E
100
AcDbEntity
  8
躯体と製品
  6
Continuous
 62
     3
100
AcDbLine
 10
1859.015883050583
 20
773.9082887562774
 30
0.0
 11
1858.96354709434
 21
772.9096592215228
 31
0.0
  0
ARC
  5
6FA2
330
1E
100
AcDbEntity
  8
躯体と製品
  6
Continuous
 62
     3
100
AcDbCircle
 10
1859.724541642932
 20
777.8766389171742
 30
0.0
 40
0.5
100
AcDbArc
 50
177.0000000000011
 51
266.9999999999944
  0
LINE
  5
6FA3
330
1E
100
AcDbEntity
  8
躯体と製品
  6
Continuous
 62
     3
100
AcDbLine
 10
1859.698373664811
 20
777.377324149797
 30
0.0
 11
1871.380360972345
 21
776.7650971373964
 31
0.0
  0
LINE
  5
6FA4
330
1E
100
AcDbEntity
  8
躯体と製品
  6
Continuous
 62
     3
100
AcDbLine
 10
1859.225226875555
 20
777.9028068952957
 30
0.0
 11
1859.329898788041
 21
779.900065964805
 31
0.0
  0
LINE
  5
6FA5
330
1E
100
AcDbEntity
  8
躯体と製品
  6
Continuous
 62
     3
100
AcDbLine
 10
1880.728823152849
 20
726.144620762396
 30
0.0
 11
1876.346271731116
 21
726.144620762396
 31
0.0
  0
LINE
  5
6FA6
330
1E
100
AcDbEntity
  8
躯体と製品
  6
Continuous
 62
     3
100
AcDbLine
 10
1871.382889355097
 20
773.0186494808629
 30
0.0
 11
1881.217896953215
 21
726.7485766078047
 31
0.0
  0
LINE
  5
6FA7
330
1E
100
AcDbEntity
  8
躯体と製品
  6
Continuous
 62
     3
100
AcDbLine
 10
1874.157795905817
 20
774.3929436055859
 30
0.0
 11
1886.113746009072
 21
718.144620762396
 31
0.0
  0
ARC
  5
6FA8
330
1E
100
AcDbEntity
  8
躯体と製品
  6
Continuous
 62
     3
100
AcDbCircle
 10
1858.830584020664
 20
779.9262339429263
 30
0.0
 40
0.5
100
AcDbArc
 50
357.0000000000011
 51
86.99999999999441
  0
LINE
  5
6FA9
330
1E
100
AcDbEntity
  8
躯体と製品
  6
Continuous
 62
     3
100
AcDbLine
 10
1858.856751998785
 20
780.4255487103037
 30
0.0
 11
1858.357437231408
 21
780.4517166884252
 31
0.0
  0
ARC
  5
6FAA
330
1E
100
AcDbEntity
  8
躯体と製品
  6
Continuous
 62
     3
100
AcDbCircle
 10
1858.331269253286
 20
779.952401921048
 30
0.0
 40
0.5
100
AcDbArc
 50
86.99999999999441
 51
177.0000000000011
  0
ARC
  5
6FAB
330
1E
100
AcDbEntity
  8
躯体と製品
  6
Continuous
 62
     3
100
AcDbCircle
 10
1871.223353103616
 20
773.7692085331327
 30
0.0
 40
3.0
100
AcDbArc
 50
11.99999999999979
 51
86.99999999999441
  0
ARC
  5
6FAC
330
1E
100
AcDbEntity
  8
躯体と製品
  6
Continuous
 62
     3
100
AcDbCircle
 10
1870.404741754363
 20
772.810737790045
 30
0.0
 40
1.0
100
AcDbArc
 50
11.99999999999979
 51
86.99999999999441
  0
ARC
  5
6FAD
330
1E
100
AcDbEntity
  8
躯体と製品
  6
Continuous
 62
     3
100
AcDbCircle
 10
1858.464232326964
 20
772.9358271996443
 30
0.0
 40
0.5
100
AcDbArc
 50
266.9999999999944
 51
357.0000000000011
  0
LINE
  5
6FAE
330
1E
100
AcDbEntity
  8
躯体と製品
  6
Continuous
 62
     3
100
AcDbLine
 10
1858.438064348842
 20
772.4365124322671
 30
0.0
 11
1857.938749581464
 21
772.4626804103884
 31
0.0
  0
ARC
  5
6FAF
330
1E
100
AcDbEntity
  8
躯体と製品
  6
Continuous
 62
     3
100
AcDbCircle
 10
1857.964917559586
 20
772.9619951777659
 30
0.0
 40
0.5
100
AcDbArc
 50
177.0000000000011
 51
266.9999999999944
  0
ARC
  5
6FB0
330
1E
100
AcDbEntity
  8
躯体と製品
  6
Continuous
 62
     3
100
AcDbCircle
 10
1881.196447588522
 20
724.4446207623959
 30
0.0
 40
0.5
100
AcDbArc
 50
11.99999999999979
 51
90.0
  0
LINE
  5
6FB1
330
1E
100
AcDbEntity
  8
躯体と製品
  6
Continuous
 62
     3
100
AcDbLine
 10
1881.685521388889
 20
724.5485766078046
 30
0.0
 11
1883.113746009071
 21
717.8293080565988
 31
0.0
  0
LINE
  5
6FB2
330
1E
100
AcDbEntity
  8
躯体と製品
  6
Continuous
 62
     3
100
AcDbLine
 10
1881.196447588522
 20
724.9446207623957
 30
0.0
 11
1871.946271731115
 21
724.9446207623957
 31
0.0
  0
ARC
  5
6FB3
330
1E
100
AcDbEntity
  8
躯体と製品
  6
Continuous
 62
     3
100
AcDbCircle
 10
1880.728823152849
 20
726.6446207623959
 30
0.0
 40
0.5
100
AcDbArc
 50
270.0
 51
11.99999999999979
  0
LINE
  5
6FB4
330
1E
100
AcDbEntity
  8
躯体と製品
  6
Continuous
 62
     3
100
AcDbLine
 10
1871.946271731115
 20
726.144620762396
 30
0.0
 11
1874.346271731116
 21
726.144620762396
 31
0.0
  0
LINE
  5
6FB5
330
1E
100
AcDbEntity
  8
躯体と製品
  6
Continuous
 62
     3
100
AcDbLine
 10
1876.346271731116
 20
727.1446207623959
 30
0.0
 11
1874.346271731116
 21
726.144620762396
 31
0.0
  0
LINE
  5
6FB6
330
1E
100
AcDbEntity
  8
躯体と製品
  6
Continuous
 62
     3
100
AcDbLine
 10
1876.346271731116
 20
726.144620762396
 30
0.0
 11
1876.346271731116
 21
727.1446207623959
 31
0.0
  0
ARC
  5
6FB7
330
1E
100
AcDbEntity
  8
躯体と製品
  6
Continuous
 62
     3
100
AcDbCircle
 10
1883.613746009071
 20
716.644620762396
 30
0.0
 40
2.5
100
AcDbArc
 50
270.0
 51
0.0
  0
LINE
  5
6FB8
330
1E
100
AcDbEntity
  8
躯体と製品
  6
Continuous
 62
     3
100
AcDbLine
 10
1883.613746009071
 20
714.1446207623959
 30
0.0
 11
1883.113746009071
 21
714.1446207623959
 31
0.0
  0
LINE
  5
6FB9
330
1E
100
AcDbEntity
  8
躯体と製品
  6
Continuous
 62
     3
100
AcDbLine
 10
1886.113746009072
 20
716.644620762396
 30
0.0
 11
1886.113746009072
 21
718.144620762396
 31
0.0
  0
LINE
  5
6FBA
330
1E
100
AcDbEntity
  8
躯体と製品
  6
Continuous
 62
     3
100
AcDbLine
 10
1883.113746009071
 20
717.8293080565988
 30
0.0
 11
1883.113746009071
 21
714.1446207623959
 31
0.0
  0
ARC
  5
6FBB
330
1E
100
AcDbEntity
  8
躯体と製品
  6
Continuous
 62
     3
100
AcDbCircle
 10
1871.946271731115
 20
725.5446207623958
 30
0.0
 40
0.6000000000000015
100
AcDbArc
 50
90.0
 51
270.0
  0
ARC
  5
6FBC
330
1E
100
AcDbEntity
  8
躯体と製品
  6
Continuous
 62
     3
100
AcDbCircle
 10
1869.264030491666
 20
773.5714805763246
 30
0.0
 40
0.2999999999999999
100
AcDbArc
 50
86.99999999999441
 51
166.9999999999997
  0
ARC
  5
6FBD
330
1E
100
AcDbEntity
  8
躯体と製品
  6
Continuous
 62
     3
100
AcDbCircle
 10
1867.190276224266
 20
773.4798869630581
 30
0.0
 40
0.5
100
AcDbArc
 50
346.9999999999997
 51
86.99999999999441
  0
ARC
  5
6FBE
330
1E
100
AcDbEntity
  8
躯体と製品
  6
Continuous
 62
     3
100
AcDbCircle
 10
1867.67889075261
 20
770.7063563735618
 30
0.0
 40
0.5999999999999984
100
AcDbArc
 50
166.9999999999997
 51
346.9999999999997
  0
LINE
  5
6FBF
330
1E
100
AcDbEntity
  8
躯体と製品
  6
Continuous
 62
     4
100
AcDbLine
 10
1844.20368740696
 20
796.2140684752214
 30
0.0
 11
1843.689198920886
 21
796.7285569612942
 31
0.0
  0
LINE
  5
6FC0
330
1E
100
AcDbEntity
  8
躯体と製品
  6
Continuous
 62
     7
100
AcDbLine
 10
1858.852505632646
 20
799.4518458268835
 30
0.0
 11
1843.873062611328
 21
800.2368851705277
 31
0.0
  0
LINE
  5
6FC1
330
1E
100
AcDbEntity
  8
躯体と製品
  6
Continuous
 62
     7
100
AcDbLine
 10
1843.663718786356
 20
796.2423670315095
 30
0.0
 11
1843.873062611328
 21
800.2368851705277
 31
0.0
  0
LINE
  5
6FC2
330
1E
100
AcDbEntity
  8
躯体と製品
  6
Continuous
 62
     4
100
AcDbLine
 10
1845.69611582865
 20
796.135853615902
 30
0.0
 11
1843.759623896542
 21
798.0723455480105
 31
0.0
  0
LINE
  5
6FC3
330
1E
100
AcDbEntity
  8
躯体と製品
  6
Continuous
 62
     4
100
AcDbLine
 10
1847.188544250344
 20
796.0576387565818
 30
0.0
 11
1843.830048872198
 21
799.416134134728
 31
0.0
  0
LINE
  5
6FC4
330
1E
100
AcDbEntity
  8
躯体と製品
  6
Continuous
 62
     4
100
AcDbLine
 10
1848.680972672037
 20
795.9794238972615
 30
0.0
 11
1844.453954661103
 21
800.2064419081957
 31
0.0
  0
LINE
  5
6FC5
330
1E
100
AcDbEntity
  8
躯体と製品
  6
Continuous
 62
     4
100
AcDbLine
 10
1850.17340109373
 20
795.9012090379419
 30
0.0
 11
1845.946383082796
 21
800.128227048876
 31
0.0
  0
LINE
  5
6FC6
330
1E
100
AcDbEntity
  8
躯体と製品
  6
Continuous
 62
     4
100
AcDbLine
 10
1851.665829515423
 20
795.8229941786223
 30
0.0
 11
1847.438811504489
 21
800.0500121895564
 31
0.0
  0
LINE
  5
6FC7
330
1E
100
AcDbEntity
  8
躯体と製品
  6
Continuous
 62
     4
100
AcDbLine
 10
1853.158257937116
 20
795.7447793193026
 30
0.0
 11
1848.931239926183
 21
799.9717973302363
 31
0.0
  0
LINE
  5
6FC8
330
1E
100
AcDbEntity
  8
躯体と製品
  6
Continuous
 62
     4
100
AcDbLine
 10
1854.650686358809
 20
795.6665644599825
 30
0.0
 11
1850.423668347876
 21
799.8935824709165
 31
0.0
  0
LINE
  5
6FC9
330
1E
100
AcDbEntity
  8
躯体と製品
  6
Continuous
 62
     4
100
AcDbLine
 10
1856.143114780502
 20
795.5883496006631
 30
0.0
 11
1851.916096769569
 21
799.8153676115967
 31
0.0
  0
LINE
  5
6FCA
330
1E
100
AcDbEntity
  8
躯体と製品
  6
Continuous
 62
     4
100
AcDbLine
 10
1857.635543202194
 20
795.5101347413433
 30
0.0
 11
1853.40852519126
 21
799.7371527522768
 31
0.0
  0
LINE
  5
6FCB
330
1E
100
AcDbEntity
  8
躯体と製品
  6
Continuous
 62
     4
100
AcDbLine
 10
1858.666039098812
 20
795.8938524070979
 30
0.0
 11
1854.900953612953
 21
799.6589378929571
 31
0.0
  0
LINE
  5
6FCC
330
1E
100
AcDbEntity
  8
躯体と製品
  6
Continuous
 62
     4
100
AcDbLine
 10
1858.806889050123
 20
798.5814295805335
 30
0.0
 11
1857.885810456339
 21
799.5025081743174
 31
0.0
  0
LINE
  5
6FCD
330
1E
100
AcDbEntity
  8
躯体と製品
  6
Continuous
 62
     4
100
AcDbLine
 10
1858.736464074468
 20
797.237640993816
 30
0.0
 11
1856.393382034647
 21
799.5807230336372
 31
0.0
  0
ARC
  5
6FCE
330
1E
100
AcDbEntity
  8
躯体と製品
  6
Continuous
 62
     3
100
AcDbCircle
 10
1871.846271731116
 20
717.8446207623958
 30
0.0
 40
1.0
100
AcDbArc
 50
180.0
 51
270.0
  0
LINE
  5
6FCF
330
1E
100
AcDbEntity
  8
躯体と製品
  6
Continuous
 62
     3
100
AcDbLine
 10
1875.746271731116
 20
716.8446207623958
 30
0.0
 11
1871.846271731116
 21
716.8446207623958
 31
0.0
  0
ARC
  5
6FD0
330
1E
100
AcDbEntity
  8
躯体と製品
  6
Continuous
 62
     3
100
AcDbCircle
 10
1875.746271731116
 20
716.2446207623957
 30
0.0
 40
0.5999999999999998
100
AcDbArc
 50
270.0
 51
90.0
  0
LINE
  5
6FD1
330
1E
100
AcDbEntity
  8
躯体と製品
  6
Continuous
 62
     3
100
AcDbLine
 10
1869.346271731116
 20
754.9446207623959
 30
0.0
 11
1869.346271731116
 21
718.144620762396
 31
0.0
  0
ARC
  5
6FD2
330
1E
100
AcDbEntity
  8
躯体と製品
  6
Continuous
 62
     3
100
AcDbCircle
 10
1870.096271731116
 20
772.894620762396
 30
0.0
 40
0.75
100
AcDbArc
 50
0.0
 51
180.0
  0
LINE
  5
6FD3
330
1E
100
AcDbEntity
  8
躯体と製品
  6
Continuous
 62
     3
100
AcDbLine
 10
1869.346271731116
 20
766.3446207623959
 30
0.0
 11
1869.346271731116
 21
772.894620762396
 31
0.0
  0
ARC
  5
6FD4
330
1E
100
AcDbEntity
  8
躯体と製品
  6
Continuous
 62
     3
100
AcDbCircle
 10
1868.846271731116
 20
766.3446207623959
 30
0.0
 40
0.5
100
AcDbArc
 50
270.0
 51
0.0
  0
ARC
  5
6FD5
330
1E
100
AcDbEntity
  8
躯体と製品
  6
Continuous
 62
     3
100
AcDbCircle
 10
1865.146271731116
 20
764.8446207623958
 30
0.0
 40
1.0
100
AcDbArc
 50
90.0
 51
180.0
  0
LINE
  5
6FD6
330
1E
100
AcDbEntity
  8
躯体と製品
  6
Continuous
 62
     3
100
AcDbLine
 10
1868.846271731116
 20
765.8446207623959
 30
0.0
 11
1865.146271731116
 21
765.8446207623959
 31
0.0
  0
ARC
  5
6FD7
330
1E
100
AcDbEntity
  8
躯体と製品
  6
Continuous
 62
     3
100
AcDbCircle
 10
1868.846271731116
 20
754.9446207623959
 30
0.0
 40
0.5
100
AcDbArc
 50
0.0
 51
90.0
  0
ARC
  5
6FD8
330
1E
100
AcDbEntity
  8
躯体と製品
  6
Continuous
 62
     3
100
AcDbCircle
 10
1865.146271731116
 20
756.444620762396
 30
0.0
 40
1.0
100
AcDbArc
 50
180.0
 51
270.0
  0
LINE
  5
6FD9
330
1E
100
AcDbEntity
  8
躯体と製品
  6
Continuous
 62
     3
100
AcDbLine
 10
1868.846271731116
 20
755.444620762396
 30
0.0
 11
1865.146271731116
 21
755.444620762396
 31
0.0
  0
ARC
  5
6FDA
330
1E
100
AcDbEntity
  8
躯体と製品
  6
Continuous
 62
     3
100
AcDbCircle
 10
1869.046271731116
 20
764.3446207623958
 30
0.0
 40
0.2999999999999998
100
AcDbArc
 50
0.0
 51
90.0
  0
LINE
  5
6FDB
330
1E
100
AcDbEntity
  8
躯体と製品
  6
Continuous
 62
     3
100
AcDbLine
 10
1869.346271731116
 20
764.3446207623958
 30
0.0
 11
1869.346271731116
 21
756.9446207623959
 31
0.0
  0
ARC
  5
6FDC
330
1E
100
AcDbEntity
  8
躯体と製品
  6
Continuous
 62
     3
100
AcDbCircle
 10
1869.046271731116
 20
756.9446207623959
 30
0.0
 40
0.2999999999999998
100
AcDbArc
 50
270.0
 51
0.0
  0
LINE
  5
6FDD
330
1E
100
AcDbEntity
  8
躯体と製品
  6
Continuous
 62
     3
100
AcDbLine
 10
1865.646271731116
 20
756.644620762396
 30
0.0
 11
1869.046271731116
 21
756.644620762396
 31
0.0
  0
LINE
  5
6FDE
330
1E
100
AcDbEntity
  8
躯体と製品
  6
Continuous
 62
     3
100
AcDbLine
 10
1865.646271731116
 20
764.6446207623959
 30
0.0
 11
1869.046271731116
 21
764.6446207623959
 31
0.0
  0
LINE
  5
6FDF
330
1E
100
AcDbEntity
  8
躯体と製品
  6
Continuous
 62
     3
100
AcDbLine
 10
1870.846271731116
 20
772.894620762396
 30
0.0
 11
1870.846271731116
 21
728.644620762396
 31
0.0
  0
ARC
  5
6FE0
330
1E
100
AcDbEntity
  8
躯体と製品
  6
Continuous
 62
     3
100
AcDbCircle
 10
1871.846271731116
 20
718.144620762396
 30
0.0
 40
2.5
100
AcDbArc
 50
180.0
 51
270.0
  0
LINE
  5
6FE1
330
1E
100
AcDbEntity
  8
躯体と製品
  6
Continuous
 62
     3
100
AcDbLine
 10
1875.746271731116
 20
715.644620762396
 30
0.0
 11
1871.846271731116
 21
715.644620762396
 31
0.0
  0
ARC
  5
6FE2
330
1E
100
AcDbEntity
  8
躯体と製品
  6
Continuous
 62
     3
100
AcDbCircle
 10
1871.346271731116
 20
728.644620762396
 30
0.0
 40
0.5
100
AcDbArc
 50
180.0
 51
270.0
  0
LINE
  5
6FE3
330
1E
100
AcDbEntity
  8
躯体と製品
  6
Continuous
 62
     3
100
AcDbLine
 10
1871.346271731116
 20
728.144620762396
 30
0.0
 11
1878.046271731116
 21
728.144620762396
 31
0.0
  0
LINE
  5
6FE4
330
1E
100
AcDbEntity
  8
躯体と製品
  6
Continuous
 62
     3
100
AcDbLine
 10
1870.846271731116
 20
726.6446207623959
 30
0.0
 11
1870.846271731116
 21
717.8446207623958
 31
0.0
  0
ARC
  5
6FE5
330
1E
100
AcDbEntity
  8
躯体と製品
  6
Continuous
 62
     3
100
AcDbCircle
 10
1871.346271731116
 20
726.6446207623959
 30
0.0
 40
0.5
100
AcDbArc
 50
90.0
 51
180.0
  0
ARC
  5
6FE6
330
1E
100
AcDbEntity
  8
躯体と製品
  6
Continuous
 62
     3
100
AcDbCircle
 10
1878.046271731116
 20
727.8446207623958
 30
0.0
 40
0.2999999999999998
100
AcDbArc
 50
0.0
 51
90.0
  0
LINE
  5
6FE7
330
1E
100
AcDbEntity
  8
躯体と製品
  6
Continuous
 62
     3
100
AcDbLine
 10
1871.346271731116
 20
727.1446207623959
 30
0.0
 11
1876.346271731116
 21
727.1446207623959
 31
0.0
  0
LINE
  5
6FE8
330
1E
100
AcDbEntity
  8
躯体と製品
  6
Continuous
 62
     3
100
AcDbLine
 10
1878.346271731116
 20
727.8446207623958
 30
0.0
 11
1878.346271731116
 21
727.5350087623959
 31
0.0
  0
LINE
  5
6FE9
330
1E
100
AcDbEntity
  8
躯体と製品
  6
Continuous
 62
     3
100
AcDbLine
 10
1876.346271731116
 20
727.1446207623959
 30
0.0
 11
1876.346271731116
 21
726.6446207623959
 31
0.0
  0
ARC
  5
6FEA
330
1E
100
AcDbEntity
  8
躯体と製品
  6
Continuous
 62
     3
100
AcDbCircle
 10
1877.846271731116
 20
727.5350087623959
 30
0.0
 40
0.5
100
AcDbArc
 50
284.0362430000043
 51
0.0
  0
LINE
  5
6FEB
330
1E
100
AcDbEntity
  8
躯体と製品
  6
Continuous
 62
     3
100
AcDbLine
 10
1876.346271731116
 20
726.6446207623959
 30
0.0
 11
1877.967539731116
 21
727.0499377623959
 31
0.0
  0
LINE
  5
6FEC
330
1E
100
AcDbEntity
  8
躯体と製品
  6
Continuous
 62
     3
100
AcDbLine
 10
1864.146271731116
 20
762.7446207623957
 30
0.0
 11
1864.146271731116
 21
764.8446207623958
 31
0.0
  0
ARC
  5
6FED
330
1E
100
AcDbEntity
  8
躯体と製品
  6
Continuous
 62
     3
100
AcDbCircle
 10
1865.646271731116
 20
764.3446207623958
 30
0.0
 40
0.2999999999999998
100
AcDbArc
 50
90.0
 51
180.0
  0
LINE
  5
6FEE
330
1E
100
AcDbEntity
  8
躯体と製品
  6
Continuous
 62
     3
100
AcDbLine
 10
1865.346271731116
 20
762.7446207623957
 30
0.0
 11
1865.346271731116
 21
764.3446207623958
 31
0.0
  0
ARC
  5
6FEF
330
1E
100
AcDbEntity
  8
躯体と製品
  6
Continuous
 62
     3
100
AcDbCircle
 10
1865.646271731116
 20
756.9446207623959
 30
0.0
 40
0.2999999999999998
100
AcDbArc
 50
180.0
 51
270.0
  0
LINE
  5
6FF0
330
1E
100
AcDbEntity
  8
躯体と製品
  6
Continuous
 62
     3
100
AcDbLine
 10
1865.346271731116
 20
758.5446207623959
 30
0.0
 11
1865.346271731116
 21
756.9446207623959
 31
0.0
  0
LINE
  5
6FF1
330
1E
100
AcDbEntity
  8
躯体と製品
  6
Continuous
 62
     3
100
AcDbLine
 10
1864.146271731116
 20
758.5446207623959
 30
0.0
 11
1864.146271731116
 21
756.444620762396
 31
0.0
  0
ARC
  5
6FF2
330
1E
100
AcDbEntity
  8
躯体と製品
  6
Continuous
 62
     3
100
AcDbCircle
 10
1864.746271731116
 20
762.7446207623957
 30
0.0
 40
0.5999999999999998
100
AcDbArc
 50
180.0
 51
0.0
  0
ARC
  5
6FF3
330
1E
100
AcDbEntity
  8
躯体と製品
  6
Continuous
 62
     3
100
AcDbCircle
 10
1864.746271731116
 20
758.5446207623959
 30
0.0
 40
0.5999999999999998
100
AcDbArc
 50
0.0
 51
180.0
  0
LINE
  5
6FF4
330
1E
100
AcDbEntity
  8
躯体と製品
  6
Continuous
 62
     7
100
AcDbLine
 10
1866.846271731116
 20
761.144620762396
 30
0.0
 11
1868.497356731116
 21
760.621247762396
 31
0.0
  0
ARC
  5
6FF5
330
1E
100
AcDbEntity
  8
躯体と製品
  6
Continuous
 62
     7
100
AcDbCircle
 10
1868.346271731116
 20
760.1446207623959
 30
0.0
 40
0.5
100
AcDbArc
 50
287.587954000005
 51
72.41204599999497
  0
LINE
  5
6FF6
330
1E
100
AcDbEntity
  8
躯体と製品
  6
Continuous
 62
     7
100
AcDbLine
 10
1865.346271731116
 20
757.144620762396
 30
0.0
 11
1865.346271731116
 21
759.644620762396
 31
0.0
  0
ARC
  5
6FF7
330
1E
100
AcDbEntity
  8
躯体と製品
  6
Continuous
 62
     7
100
AcDbCircle
 10
1865.846271731116
 20
763.144620762396
 30
0.0
 40
0.5
100
AcDbArc
 50
90.0
 51
180.0
  0
ARC
  5
6FF8
330
1E
100
AcDbEntity
  8
躯体と製品
  6
Continuous
 62
     7
100
AcDbCircle
 10
1865.846271731116
 20
757.144620762396
 30
0.0
 40
0.5
100
AcDbArc
 50
180.0
 51
270.0
  0
ARC
  5
6FF9
330
1E
100
AcDbEntity
  8
躯体と製品
  6
Continuous
 62
     7
100
AcDbCircle
 10
1866.346271731116
 20
757.144620762396
 30
0.0
 40
0.5
100
AcDbArc
 50
270.0
 51
0.0
  0
LINE
  5
6FFA
330
1E
100
AcDbEntity
  8
躯体と製品
  6
Continuous
 62
     7
100
AcDbLine
 10
1865.846271731116
 20
756.644620762396
 30
0.0
 11
1866.346271731116
 21
756.644620762396
 31
0.0
  0
LINE
  5
6FFB
330
1E
100
AcDbEntity
  8
躯体と製品
  6
Continuous
 62
     7
100
AcDbLine
 10
1865.846271731116
 20
763.644620762396
 30
0.0
 11
1866.346271731116
 21
763.644620762396
 31
0.0
  0
ARC
  5
6FFC
330
1E
100
AcDbEntity
  8
躯体と製品
  6
Continuous
 62
     7
100
AcDbCircle
 10
1866.346271731116
 20
763.144620762396
 30
0.0
 40
0.5
100
AcDbArc
 50
0.0
 51
90.0
  0
LINE
  5
6FFD
330
1E
100
AcDbEntity
  8
躯体と製品
  6
Continuous
 62
     7
100
AcDbLine
 10
1866.846271731116
 20
761.144620762396
 30
0.0
 11
1866.846271731116
 21
763.144620762396
 31
0.0
  0
LINE
  5
6FFE
330
1E
100
AcDbEntity
  8
躯体と製品
  6
Continuous
 62
     7
100
AcDbLine
 10
1866.846271731116
 20
759.144620762396
 30
0.0
 11
1866.846271731116
 21
757.144620762396
 31
0.0
  0
LINE
  5
6FFF
330
1E
100
AcDbEntity
  8
躯体と製品
  6
Continuous
 62
     7
100
AcDbLine
 10
1866.846271731116
 20
759.144620762396
 30
0.0
 11
1868.497356731116
 21
759.667993762396
 31
0.0
  0
LINE
  5
7000
330
1E
100
AcDbEntity
  8
躯体と製品
  6
Continuous
 62
     7
100
AcDbLine
 10
1865.346271731116
 20
763.144620762396
 30
0.0
 11
1865.346271731116
 21
760.644620762396
 31
0.0
  0
LINE
  5
7001
330
1E
100
AcDbEntity
  8
躯体と製品
  6
Continuous
 62
     7
100
AcDbLine
 10
1864.750473552414
 20
759.644620762396
 30
0.0
 11
1865.346271731116
 21
759.644620762396
 31
0.0
  0
ARC
  5
7002
330
1E
100
AcDbEntity
  8
躯体と製品
  6
Continuous
 62
     7
100
AcDbCircle
 10
1864.750473552414
 20
758.5446207623956
 30
0.0
 40
1.1
100
AcDbArc
 50
90.0
 51
175.0000000000005
  0
LINE
  5
7003
330
1E
100
AcDbEntity
  8
躯体と製品
  6
Continuous
 62
     7
100
AcDbLine
 10
1864.750473552414
 20
760.644620762396
 30
0.0
 11
1865.346271731116
 21
760.644620762396
 31
0.0
  0
ARC
  5
7004
330
1E
100
AcDbEntity
  8
躯体と製品
  6
Continuous
 62
     7
100
AcDbCircle
 10
1864.750473552414
 20
758.5446207623956
 30
0.0
 40
2.1
100
AcDbArc
 50
90.0
 51
175.0000000000005
  0
LINE
  5
7005
330
1E
100
AcDbEntity
  8
躯体と製品
  6
Continuous
 62
     7
100
AcDbLine
 10
1862.658464686421
 20
758.7276478221659
 30
0.0
 11
1860.64443472274
 21
735.7071799979656
 31
0.0
  0
ARC
  5
7006
330
1E
100
AcDbEntity
  8
躯体と製品
  6
Continuous
 62
     7
100
AcDbCircle
 10
1838.204339025222
 20
737.6704339799352
 30
0.0
 40
22.52581321753931
100
AcDbArc
 50
184.9999999999994
 51
355.0000000000006
  0
LINE
  5
7007
330
1E
100
AcDbEntity
  8
躯体と製品
  6
Continuous
 62
     7
100
AcDbLine
 10
1863.654659384513
 20
758.6404920794181
 30
0.0
 11
1861.640629420832
 21
735.6200242552176
 31
0.0
  0
ARC
  5
7008
330
1E
100
AcDbEntity
  8
躯体と製品
  6
Continuous
 62
     7
100
AcDbCircle
 10
1838.204339025222
 20
737.6704339799352
 30
0.0
 40
23.52581321753931
100
AcDbArc
 50
184.9999999999994
 51
355.0000000000006
  0
LINE
  5
7009
330
1E
100
AcDbEntity
  8
躯体と製品
  6
Continuous
 62
     3
100
AcDbLine
 10
1858.878673610768
 20
799.9511605942607
 30
0.0
 11
1544.310370163077
 21
816.4369868107881
 31
0.0
  0
LINE
  5
700A
330
1E
100
AcDbEntity
  8
躯体と製品
  6
Continuous
 62
     3
100
AcDbLine
 10
1857.413266835965
 20
771.9895336211327
 30
0.0
 11
1542.844963388275
 21
788.4753598376599
 31
0.0
  0
LINE
  5
700B
330
1E
100
AcDbEntity
  8
躯体と製品
  6
DASHED1
 62
     4
100
AcDbLine
 10
1857.821487294661
 20
779.7788439922182
 30
0.0
 11
1543.25318384697
 21
796.264670208746
 31
0.0
  0
LINE
  5
700C
330
1E
100
AcDbEntity
  8
躯体と製品
  6
DASHED1
 62
     4
100
AcDbLine
 10
1857.727282573423
 20
777.9813108296599
 30
0.0
 11
1543.158979125732
 21
794.4671370461876
 31
0.0
  0
LINE
  5
700D
330
1E
100
AcDbEntity
  8
躯体と製品
  6
DASHED1
 62
     4
100
AcDbLine
 10
1857.544106726573
 20
774.4861074580191
 30
0.0
 11
1542.975803278882
 21
790.9719336745463
 31
0.0
  0
LINE
  5
700E
330
1E
100
AcDbEntity
  8
躯体と製品
  6
DASHED1
 62
     4
100
AcDbLine
 10
1857.465602792208
 20
772.9881631558871
 30
0.0
 11
1542.897299344518
 21
789.4739893724147
 31
0.0
  0
LINE
  5
700F
330
1E
100
AcDbEntity
  8
躯体と製品
  6
Continuous
 62
     3
100
AcDbLine
 10
1858.643161807675
 20
795.4573276878652
 30
0.0
 11
1544.074858359984
 21
811.9431539043926
 31
0.0
  0
LINE
  5
7010
330
1E
100
AcDbEntity
  8
躯体と製品
  6
Continuous
 62
     3
100
AcDbLine
 10
1858.56465787331
 20
793.9593833857331
 30
0.0
 11
1543.996354425619
 21
810.4452096022606
 31
0.0
  0
LINE
  5
7011
330
1E
100
AcDbEntity
  8
躯体と製品
  6
DASHED1
 62
     4
100
AcDbLine
 10
1858.800169676404
 20
798.4532162921289
 30
0.0
 11
1559.211309250031
 21
814.1540031650121
 31
0.0
  0
LINE
  5
7012
330
1E
100
AcDbEntity
  8
躯体と製品
  6
DASHED1
 62
     4
100
AcDbLine
 10
1822.775248857013
 20
779.813069298163
 30
0.0
 11
1822.86945357825
 21
781.6106024607213
 31
0.0
  0
LINE
  5
7013
330
1E
100
AcDbEntity
  8
躯体と製品
  6
DASHED1
 62
     4
100
AcDbLine
 10
1643.02193260119
 20
789.2335414218932
 30
0.0
 11
1643.116137322427
 21
791.0310745844514
 31
0.0
  0
LINE
  5
7015
330
1E
100
AcDbEntity
  8
躯体と製品
  6
Continuous
 62
     7
100
AcDbLine
 10
1513.143774869574
 20
785.3428489858452
 30
0.0
 11
1519.632287227501
 21
711.1788133676316
 31
0.0
  0
LINE
  5
7016
330
1E
100
AcDbEntity
  8
躯体と製品
  6
Continuous
 62
     7
100
AcDbLine
 10
1514.143774869574
 20
785.3865099287536
 30
0.0
 11
1520.628481925593
 21
711.265969110379
 31
0.0
  0
LINE
  5
7017
330
1E
100
AcDbEntity
  8
躯体と製品
  6
Continuous
 62
     7
100
AcDbLine
 10
1660.151385473391
 20
754.238199130559
 30
0.0
 11
1656.391802500197
 21
711.2659691103795
 31
0.0
  0
ARC
  5
7018
330
1E
100
AcDbEntity
  8
躯体と製品
  6
Continuous
 62
     7
100
AcDbCircle
 10
1588.510142212895
 20
717.204844846836
 30
0.0
 40
68.14095720177224
100
AcDbArc
 50
184.9999999999994
 51
355.0000000000006
  0
LINE
  5
7019
330
1E
100
AcDbEntity
  8
躯体と製品
  6
Continuous
 62
     7
100
AcDbLine
 10
1661.147580171483
 20
754.1510433878114
 30
0.0
 11
1657.387997198288
 21
711.1788133676314
 31
0.0
  0
ARC
  5
701A
330
1E
100
AcDbEntity
  8
躯体と製品
  6
Continuous
 62
     7
100
AcDbCircle
 10
1588.510142212895
 20
717.204844846836
 30
0.0
 40
69.14095720177224
100
AcDbArc
 50
184.9999999999994
 51
355.0000000000006
  0
LINE
  5
701B
330
1E
100
AcDbEntity
  8
躯体と製品
  6
Continuous
 62
     3
100
AcDbLine
 10
1544.143774869574
 20
825.5865099287536
 30
0.0
 11
1536.343774869574
 21
825.5865099287536
 31
0.0
  0
LINE
  5
701C
330
1E
100
AcDbEntity
  8
躯体と製品
  6
Continuous
 62
     3
100
AcDbLine
 10
1546.343774869574
 20
827.7865099287536
 30
0.0
 11
1546.343774869574
 21
859.3865099287537
 31
0.0
  0
LINE
  5
701D
330
1E
100
AcDbEntity
  8
躯体と製品
  6
Continuous
 62
     3
100
AcDbLine
 10
1544.143774869574
 20
861.5865099287537
 30
0.0
 11
1527.343774869574
 21
861.5865099287537
 31
0.0
  0
POINT
  5
701E
330
1E
100
AcDbEntity
  8
躯体と製品
 62
     4
100
AcDbPoint
 10
1546.343774869574
 20
825.5865099287536
 30
0.0
  0
LINE
  5
701F
330
1E
100
AcDbEntity
  8
躯体と製品
  6
Continuous
 62
     7
100
AcDbLine
 10
1524.643775869574
 20
860.6865119287533
 30
0.0
 11
1524.643775869574
 21
864.1865099287533
 31
0.0
  0
ARC
  5
7020
330
1E
100
AcDbEntity
  8
躯体と製品
  6
Continuous
 62
     7
100
AcDbCircle
 10
1525.143776869574
 20
860.6865119287533
 30
0.0
 40
0.5000010000000002
100
AcDbArc
 50
180.0
 51
270.0
  0
ARC
  5
7021
330
1E
100
AcDbEntity
  8
躯体と製品
  6
Continuous
 62
     7
100
AcDbCircle
 10
1525.143776869574
 20
860.6865119287533
 30
0.0
 40
1.299998999999999
100
AcDbArc
 50
180.0
 51
270.0
  0
LINE
  5
7022
330
1E
100
AcDbEntity
  8
躯体と製品
  6
Continuous
 62
     7
100
AcDbLine
 10
1523.843774869574
 20
864.1865099287533
 30
0.0
 11
1524.643775869574
 21
864.1865099287533
 31
0.0
  0
LINE
  5
7023
330
1E
100
AcDbEntity
  8
躯体と製品
  6
Continuous
 62
     7
100
AcDbLine
 10
1543.543775869574
 20
860.1865109287532
 30
0.0
 11
1525.143776869574
 21
860.1865109287532
 31
0.0
  0
ARC
  5
7024
330
1E
100
AcDbEntity
  8
躯体と製品
  6
Continuous
 62
     7
100
AcDbCircle
 10
1543.543775869574
 20
858.8865119287534
 30
0.0
 40
1.299998999999999
100
AcDbArc
 50
0.0
 51
90.0
  0
ARC
  5
7025
330
1E
100
AcDbEntity
  8
躯体と製品
  6
Continuous
 62
     7
100
AcDbCircle
 10
1543.543775869574
 20
858.8865119287534
 30
0.0
 40
0.5000010000000002
100
AcDbArc
 50
0.0
 51
90.0
  0
LINE
  5
7026
330
1E
100
AcDbEntity
  8
躯体と製品
  6
Continuous
 62
     7
100
AcDbLine
 10
1544.043776869574
 20
858.8865119287534
 30
0.0
 11
1544.043776869574
 21
830.1865109287533
 31
0.0
  0
LINE
  5
7027
330
1E
100
AcDbEntity
  8
躯体と製品
  6
Continuous
 62
     7
100
AcDbLine
 10
1544.843774869574
 20
858.8865119287534
 30
0.0
 11
1544.843774869574
 21
830.1865109287533
 31
0.0
  0
LINE
  5
7028
330
1E
100
AcDbEntity
  8
躯体と製品
  6
Continuous
 62
     7
100
AcDbLine
 10
1544.043776869574
 20
830.1865109287533
 30
0.0
 11
1544.843774869574
 21
830.1865109287533
 31
0.0
  0
LINE
  5
7029
330
1E
100
AcDbEntity
  8
躯体と製品
  6
Continuous
 62
     7
100
AcDbLine
 10
1543.543775869574
 20
859.3865099287533
 30
0.0
 11
1525.143776869574
 21
859.3865099287533
 31
0.0
  0
LINE
  5
702A
330
1E
100
AcDbEntity
  8
躯体と製品
  6
Continuous
 62
     7
100
AcDbLine
 10
1523.843774869574
 20
864.1865099287533
 30
0.0
 11
1523.843777869574
 21
860.6865119287533
 31
0.0
  0
LINE
  5
702B
330
1E
100
AcDbEntity
  8
躯体と製品
  6
Continuous
 62
     4
100
AcDbLine
 10
1544.043776869574
 20
830.4360540907675
 30
0.0
 11
1544.843774869575
 21
831.2360520907683
 31
0.0
  0
LINE
  5
702C
330
1E
100
AcDbEntity
  8
躯体と製品
  6
Continuous
 62
     4
100
AcDbLine
 10
1544.043776869574
 20
831.8502676531407
 30
0.0
 11
1544.843774869575
 21
832.6502656531413
 31
0.0
  0
LINE
  5
702D
330
1E
100
AcDbEntity
  8
躯体と製品
  6
Continuous
 62
     4
100
AcDbLine
 10
1544.043776869575
 20
833.2644812155152
 30
0.0
 11
1544.843774869575
 21
834.0644792155146
 31
0.0
  0
LINE
  5
702E
330
1E
100
AcDbEntity
  8
躯体と製品
  6
Continuous
 62
     4
100
AcDbLine
 10
1544.043776869575
 20
834.6786947778882
 30
0.0
 11
1544.843774869574
 21
835.478692777888
 31
0.0
  0
LINE
  5
702F
330
1E
100
AcDbEntity
  8
躯体と製品
  6
Continuous
 62
     4
100
AcDbLine
 10
1544.043776869574
 20
836.0929083402615
 30
0.0
 11
1544.843774869574
 21
836.892906340261
 31
0.0
  0
LINE
  5
7030
330
1E
100
AcDbEntity
  8
躯体と製品
  6
Continuous
 62
     4
100
AcDbLine
 10
1544.043776869574
 20
837.5071219026347
 30
0.0
 11
1544.843774869574
 21
838.3071199026343
 31
0.0
  0
LINE
  5
7031
330
1E
100
AcDbEntity
  8
躯体と製品
  6
Continuous
 62
     4
100
AcDbLine
 10
1544.043776869574
 20
838.9213354650079
 30
0.0
 11
1544.843774869574
 21
839.7213334650075
 31
0.0
  0
LINE
  5
7032
330
1E
100
AcDbEntity
  8
躯体と製品
  6
Continuous
 62
     4
100
AcDbLine
 10
1544.043776869574
 20
840.3355490273812
 30
0.0
 11
1544.843774869574
 21
841.1355470273809
 31
0.0
  0
LINE
  5
7033
330
1E
100
AcDbEntity
  8
躯体と製品
  6
Continuous
 62
     4
100
AcDbLine
 10
1544.043776869574
 20
841.7497625897546
 30
0.0
 11
1544.843774869574
 21
842.549760589754
 31
0.0
  0
LINE
  5
7034
330
1E
100
AcDbEntity
  8
躯体と製品
  6
Continuous
 62
     4
100
AcDbLine
 10
1544.043776869574
 20
843.1639761521276
 30
0.0
 11
1544.843774869574
 21
843.9639741521272
 31
0.0
  0
LINE
  5
7035
330
1E
100
AcDbEntity
  8
躯体と製品
  6
Continuous
 62
     4
100
AcDbLine
 10
1544.043776869574
 20
844.5781897145007
 30
0.0
 11
1544.843774869575
 21
845.3781877145015
 31
0.0
  0
LINE
  5
7036
330
1E
100
AcDbEntity
  8
躯体と製品
  6
Continuous
 62
     4
100
AcDbLine
 10
1544.043776869574
 20
845.9924032768743
 30
0.0
 11
1544.843774869575
 21
846.7924012768749
 31
0.0
  0
LINE
  5
7037
330
1E
100
AcDbEntity
  8
躯体と製品
  6
Continuous
 62
     4
100
AcDbLine
 10
1544.043776869574
 20
847.4066168392472
 30
0.0
 11
1544.843774869575
 21
848.206614839248
 31
0.0
  0
LINE
  5
7038
330
1E
100
AcDbEntity
  8
躯体と製品
  6
Continuous
 62
     4
100
AcDbLine
 10
1544.043776869574
 20
848.8208304016207
 30
0.0
 11
1544.843774869575
 21
849.6208284016214
 31
0.0
  0
LINE
  5
7039
330
1E
100
AcDbEntity
  8
躯体と製品
  6
Continuous
 62
     4
100
AcDbLine
 10
1544.043776869574
 20
850.235043963994
 30
0.0
 11
1544.843774869575
 21
851.0350419639946
 31
0.0
  0
LINE
  5
703A
330
1E
100
AcDbEntity
  8
躯体と製品
  6
Continuous
 62
     4
100
AcDbLine
 10
1544.043776869573
 20
851.649257526363
 30
0.0
 11
1544.843774869574
 21
852.4492555263636
 31
0.0
  0
LINE
  5
703B
330
1E
100
AcDbEntity
  8
躯体と製品
  6
Continuous
 62
     4
100
AcDbLine
 10
1544.043776869573
 20
853.0634710887365
 30
0.0
 11
1544.843774869574
 21
853.8634690887372
 31
0.0
  0
LINE
  5
703C
330
1E
100
AcDbEntity
  8
躯体と製品
  6
Continuous
 62
     4
100
AcDbLine
 10
1544.043776869575
 20
854.4776846511116
 30
0.0
 11
1544.843774869575
 21
855.2776826511115
 31
0.0
  0
LINE
  5
703D
330
1E
100
AcDbEntity
  8
躯体と製品
  6
Continuous
 62
     4
100
AcDbLine
 10
1544.043776869575
 20
855.8918982134848
 30
0.0
 11
1544.843774869575
 21
856.6918962134847
 31
0.0
  0
LINE
  5
703E
330
1E
100
AcDbEntity
  8
躯体と製品
  6
Continuous
 62
     4
100
AcDbLine
 10
1544.043776869575
 20
857.3061117758582
 30
0.0
 11
1544.843774869575
 21
858.1061097758579
 31
0.0
  0
LINE
  5
703F
330
1E
100
AcDbEntity
  8
躯体と製品
  6
Continuous
 62
     4
100
AcDbLine
 10
1544.043776869575
 20
858.7203253382314
 30
0.0
 11
1544.733635224109
 21
859.4101836927654
 31
0.0
  0
LINE
  5
7040
330
1E
100
AcDbEntity
  8
躯体と製品
  6
Continuous
 62
     4
100
AcDbLine
 10
1543.295747897724
 20
859.3865099287539
 30
0.0
 11
1544.009472944537
 21
860.100234975567
 31
0.0
  0
LINE
  5
7041
330
1E
100
AcDbEntity
  8
躯体と製品
  6
Continuous
 62
     4
100
AcDbLine
 10
1541.88153433535
 20
859.3865099287532
 30
0.0
 11
1542.68153533535
 21
860.1865109287528
 31
0.0
  0
LINE
  5
7042
330
1E
100
AcDbEntity
  8
躯体と製品
  6
Continuous
 62
     4
100
AcDbLine
 10
1540.467320772977
 20
859.3865099287533
 30
0.0
 11
1541.267321772976
 21
860.1865109287528
 31
0.0
  0
LINE
  5
7043
330
1E
100
AcDbEntity
  8
躯体と製品
  6
Continuous
 62
     4
100
AcDbLine
 10
1539.053107210604
 20
859.3865099287537
 30
0.0
 11
1539.853108210603
 21
860.186510928753
 31
0.0
  0
LINE
  5
7044
330
1E
100
AcDbEntity
  8
躯体と製品
  6
Continuous
 62
     4
100
AcDbLine
 10
1537.638893648231
 20
859.3865099287539
 30
0.0
 11
1538.43889464823
 21
860.1865109287533
 31
0.0
  0
LINE
  5
7045
330
1E
100
AcDbEntity
  8
躯体と製品
  6
Continuous
 62
     4
100
AcDbLine
 10
1536.224680085856
 20
859.3865099287528
 30
0.0
 11
1537.024681085857
 21
860.1865109287537
 31
0.0
  0
LINE
  5
7046
330
1E
100
AcDbEntity
  8
躯体と製品
  6
Continuous
 62
     4
100
AcDbLine
 10
1534.810466523484
 20
859.3865099287532
 30
0.0
 11
1535.610467523484
 21
860.1865109287537
 31
0.0
  0
LINE
  5
7047
330
1E
100
AcDbEntity
  8
躯体と製品
  6
Continuous
 62
     4
100
AcDbLine
 10
1533.39625296111
 20
859.3865099287526
 30
0.0
 11
1534.19625396111
 21
860.1865109287533
 31
0.0
  0
LINE
  5
7048
330
1E
100
AcDbEntity
  8
躯体と製品
  6
Continuous
 62
     4
100
AcDbLine
 10
1531.982039398736
 20
859.3865099287528
 30
0.0
 11
1532.782040398736
 21
860.1865109287528
 31
0.0
  0
LINE
  5
7049
330
1E
100
AcDbEntity
  8
躯体と製品
  6
Continuous
 62
     4
100
AcDbLine
 10
1530.567825836363
 20
859.3865099287532
 30
0.0
 11
1531.367826836363
 21
860.1865109287528
 31
0.0
  0
LINE
  5
704A
330
1E
100
AcDbEntity
  8
躯体と製品
  6
Continuous
 62
     4
100
AcDbLine
 10
1529.15361227399
 20
859.3865099287532
 30
0.0
 11
1529.95361327399
 21
860.1865109287528
 31
0.0
  0
LINE
  5
704B
330
1E
100
AcDbEntity
  8
躯体と製品
  6
Continuous
 62
     4
100
AcDbLine
 10
1527.739398711621
 20
859.3865099287537
 30
0.0
 11
1528.539399711621
 21
860.1865109287532
 31
0.0
  0
LINE
  5
704C
330
1E
100
AcDbEntity
  8
躯体と製品
  6
Continuous
 62
     4
100
AcDbLine
 10
1526.325185149247
 20
859.3865099287539
 30
0.0
 11
1527.125186149247
 21
860.1865109287533
 31
0.0
  0
LINE
  5
704D
330
1E
100
AcDbEntity
  8
躯体と製品
  6
Continuous
 62
     4
100
AcDbLine
 10
1524.928862374858
 20
859.4044007167374
 30
0.0
 11
1525.710972586874
 21
860.1865109287535
 31
0.0
  0
LINE
  5
704E
330
1E
100
AcDbEntity
  8
躯体と製品
  6
Continuous
 62
     4
100
AcDbLine
 10
1524.067553914466
 20
859.9573058187194
 30
0.0
 11
1524.66221759521
 21
860.5519694994635
 31
0.0
  0
LINE
  5
704F
330
1E
100
AcDbEntity
  8
躯体と製品
  6
Continuous
 62
     4
100
AcDbLine
 10
1523.843777474233
 20
861.1477429408594
 30
0.0
 11
1524.643775869574
 21
861.9477413362002
 31
0.0
  0
LINE
  5
7050
330
1E
100
AcDbEntity
  8
躯体と製品
  6
Continuous
 62
     4
100
AcDbLine
 10
1523.843776262051
 20
862.5619552910499
 30
0.0
 11
1524.643775869574
 21
863.3619548985736
 31
0.0
  0
LINE
  5
7051
330
1E
100
AcDbEntity
  8
躯体と製品
  6
Continuous
 62
     4
100
AcDbLine
 10
1523.843775049868
 20
863.976167641241
 30
0.0
 11
1524.05411733738
 21
864.1865099287528
 31
0.0
  0
LINE
  5
7052
330
1E
100
AcDbEntity
  8
躯体と製品
  6
Continuous
 62
     7
100
AcDbLine
 10
1516.643774869574
 20
866.8865099287536
 30
0.0
 11
1517.143774869574
 21
866.3865099287535
 31
0.0
  0
LINE
  5
7053
330
1E
100
AcDbEntity
  8
躯体と製品
  6
Continuous
 62
     7
100
AcDbLine
 10
1516.643774869574
 20
869.8865099287536
 30
0.0
 11
1517.143774869574
 21
870.3865099287536
 31
0.0
  0
LINE
  5
7054
330
1E
100
AcDbEntity
  8
躯体と製品
  6
Continuous
 62
     7
100
AcDbLine
 10
1516.643774869574
 20
869.8865099287536
 30
0.0
 11
1516.643774869574
 21
866.8865099287536
 31
0.0
  0
LINE
  5
7055
330
1E
100
AcDbEntity
  8
躯体と製品
  6
Continuous
 62
     4
100
AcDbLine
 10
1517.143774869574
 20
870.3865099287536
 30
0.0
 11
1517.143774869574
 21
866.3865099287535
 31
0.0
  0
LINE
  5
7056
330
1E
100
AcDbEntity
  8
躯体と製品
  6
Continuous
 62
     7
100
AcDbLine
 10
1525.143774869574
 20
870.3865099287536
 30
0.0
 11
1522.143774869574
 21
870.3865099287536
 31
0.0
  0
LINE
  5
7057
330
1E
100
AcDbEntity
  8
躯体と製品
  6
Continuous
 62
     4
100
AcDbLine
 10
1525.143774869574
 20
869.8865099287536
 30
0.0
 11
1516.643774869574
 21
869.8865099287536
 31
0.0
  0
LINE
  5
7058
330
1E
100
AcDbEntity
  8
躯体と製品
  6
Continuous
 62
     4
100
AcDbLine
 10
1525.143774869574
 20
866.8865099287536
 30
0.0
 11
1516.643774869574
 21
866.8865099287536
 31
0.0
  0
LINE
  5
7059
330
1E
100
AcDbEntity
  8
躯体と製品
  6
Continuous
 62
     7
100
AcDbLine
 10
1525.143774869574
 20
866.3865099287535
 30
0.0
 11
1522.143774869574
 21
866.3865099287535
 31
0.0
  0
LINE
  5
705A
330
1E
100
AcDbEntity
  8
躯体と製品
  6
Continuous
 62
     3
100
AcDbLine
 10
1516.343774869574
 20
873.5741659287537
 30
0.0
 11
1516.356118869574
 21
873.5865099287536
 31
0.0
  0
ARC
  5
705B
330
1E
100
AcDbEntity
  8
躯体と製品
  6
Continuous
 62
     3
100
AcDbCircle
 10
1524.143774869574
 20
871.3865099287536
 30
0.0
 40
1.0
100
AcDbArc
 50
0.0
 51
90.0
  0
LINE
  5
705C
330
1E
100
AcDbEntity
  8
躯体と製品
  6
Continuous
 62
     3
100
AcDbLine
 10
1524.143774869574
 20
873.5865099287536
 30
0.0
 11
1516.343774869574
 21
873.5865099287536
 31
0.0
  0
ARC
  5
705D
330
1E
100
AcDbEntity
  8
躯体と製品
  6
Continuous
 62
     3
100
AcDbCircle
 10
1524.143774869574
 20
871.3865099287536
 30
0.0
 40
2.2
100
AcDbArc
 50
0.0
 51
90.0
  0
LINE
  5
705E
330
1E
100
AcDbEntity
  8
躯体と製品
  6
Continuous
 62
     3
100
AcDbLine
 10
1525.143774869574
 20
862.5865099287537
 30
0.0
 11
1525.143774869574
 21
871.3865099287536
 31
0.0
  0
ARC
  5
705F
330
1E
100
AcDbEntity
  8
躯体と製品
  6
Continuous
 62
     3
100
AcDbCircle
 10
1527.343774869574
 20
862.5865099287537
 30
0.0
 40
1.0
100
AcDbArc
 50
180.0
 51
270.0
  0
ARC
  5
7060
330
1E
100
AcDbEntity
  8
躯体と製品
  6
Continuous
 62
     3
100
AcDbCircle
 10
1544.143774869574
 20
859.3865099287537
 30
0.0
 40
1.0
100
AcDbArc
 50
0.0
 51
90.0
  0
ARC
  5
7061
330
1E
100
AcDbEntity
  8
躯体と製品
  6
Continuous
 62
     3
100
AcDbCircle
 10
1527.343774869574
 20
862.5865099287537
 30
0.0
 40
2.2
100
AcDbArc
 50
180.0
 51
270.0
  0
ARC
  5
7062
330
1E
100
AcDbEntity
  8
躯体と製品
  6
Continuous
 62
     3
100
AcDbCircle
 10
1544.143774869574
 20
859.3865099287537
 30
0.0
 40
2.2
100
AcDbArc
 50
0.0
 51
90.0
  0
LINE
  5
7063
330
1E
100
AcDbEntity
  8
躯体と製品
  6
Continuous
 62
     3
100
AcDbLine
 10
1516.343774869574
 20
872.3865099287536
 30
0.0
 11
1524.143774869574
 21
872.3865099287536
 31
0.0
  0
LINE
  5
7064
330
1E
100
AcDbEntity
  8
躯体と製品
  6
Continuous
 62
     3
100
AcDbLine
 10
1516.343774869574
 20
873.5865099287536
 30
0.0
 11
1516.343774869574
 21
872.3865099287536
 31
0.0
  0
LINE
  5
7065
330
1E
100
AcDbEntity
  8
躯体と製品
  6
Continuous
 62
     3
100
AcDbLine
 10
1527.343774869574
 20
860.3865099287537
 30
0.0
 11
1544.143774869574
 21
860.3865099287537
 31
0.0
  0
LINE
  5
7066
330
1E
100
AcDbEntity
  8
躯体と製品
  6
Continuous
 62
     3
100
AcDbLine
 10
1536.343774869574
 20
826.7865099287536
 30
0.0
 11
1536.343774869574
 21
825.5865099287536
 31
0.0
  0
ARC
  5
7067
330
1E
100
AcDbEntity
  8
躯体と製品
  6
Continuous
 62
     3
100
AcDbCircle
 10
1544.143774869574
 20
827.7865099287536
 30
0.0
 40
2.2
100
AcDbArc
 50
270.0
 51
0.0
  0
LINE
  5
7068
330
1E
100
AcDbEntity
  8
躯体と製品
  6
Continuous
 62
     3
100
AcDbLine
 10
1544.143774869574
 20
826.7865099287536
 30
0.0
 11
1536.343774869574
 21
826.7865099287536
 31
0.0
  0
ARC
  5
7069
330
1E
100
AcDbEntity
  8
躯体と製品
  6
Continuous
 62
     3
100
AcDbCircle
 10
1544.143774869574
 20
827.7865099287536
 30
0.0
 40
1.0
100
AcDbArc
 50
270.0
 51
0.0
  0
LINE
  5
706A
330
1E
100
AcDbEntity
  8
躯体と製品
  6
Continuous
 62
     3
100
AcDbLine
 10
1545.143774869574
 20
827.7865099287536
 30
0.0
 11
1545.143774869574
 21
859.3865099287537
 31
0.0
  0
LINE
  5
706B
330
1E
100
AcDbEntity
  8
躯体と製品
  6
DASHED1
 62
     4
100
AcDbLine
 10
1525.143774869574
 20
870.3865099287536
 30
0.0
 11
1526.343774869574
 21
870.3865099287536
 31
0.0
  0
LINE
  5
706C
330
1E
100
AcDbEntity
  8
躯体と製品
  6
DASHED1
 62
     4
100
AcDbLine
 10
1525.143774869574
 20
866.3865099287535
 30
0.0
 11
1526.343774869574
 21
866.3865099287535
 31
0.0
  0
POINT
  5
706D
330
1E
100
AcDbEntity
  8
躯体と製品
 62
     4
100
AcDbPoint
 10
1546.343774869574
 20
861.5865099287537
 30
0.0
  0
LINE
  5
706E
330
1E
100
AcDbEntity
  8
躯体と製品
  6
Continuous
 62
     7
100
AcDbLine
 10
1536.343774869574
 20
824.5865099287536
 30
0.0
 11
1545.343774869574
 21
824.5865099287536
 31
0.0
  0
ARC
  5
706F
330
1E
100
AcDbEntity
  8
躯体と製品
  6
Continuous
 62
     7
100
AcDbCircle
 10
1544.843774869574
 20
825.0865099287537
 30
0.0
 40
0.5
100
AcDbArc
 50
0.0
 51
90.0
  0
LINE
  5
7070
330
1E
100
AcDbEntity
  8
躯体と製品
  6
Continuous
 62
     7
100
AcDbLine
 10
1545.343774869574
 20
825.0865099287537
 30
0.0
 11
1545.343774869574
 21
824.5865099287536
 31
0.0
  0
LINE
  5
7071
330
1E
100
AcDbEntity
  8
躯体と製品
  6
Continuous
 62
     7
100
AcDbLine
 10
1536.643774869574
 20
825.5865099287536
 30
0.0
 11
1544.843774869574
 21
825.5865099287536
 31
0.0
  0
ARC
  5
7072
330
1E
100
AcDbEntity
  8
躯体と製品
  6
Continuous
 62
     7
100
AcDbCircle
 10
1536.343774869574
 20
825.5865099287536
 30
0.0
 40
1.0
100
AcDbArc
 50
180.0
 51
270.0
  0
ARC
  5
7073
330
1E
100
AcDbEntity
  8
躯体と製品
  6
Continuous
 62
     7
100
AcDbCircle
 10
1541.949048788965
 20
828.3261753988238
 30
0.0
 40
0.5
100
AcDbArc
 50
265.252681745971
 51
355.2526817422747
  0
ARC
  5
7074
330
1E
100
AcDbEntity
  8
躯体と製品
  6
Continuous
 62
     7
100
AcDbCircle
 10
1542.986998947641
 20
828.7416985245839
 30
0.0
 40
0.4999999999354556
100
AcDbArc
 50
355.2526817459748
 51
175.2526817459747
  0
LINE
  5
7075
330
1E
100
AcDbEntity
  8
躯体と製品
  6
Continuous
 62
     7
100
AcDbLine
 10
1543.402522073393
 20
827.7037483658121
 30
0.0
 11
1543.485283636339
 21
828.7003177431399
 31
0.0
  0
ARC
  5
7076
330
1E
100
AcDbEntity
  8
躯体と製品
  6
Continuous
 62
     7
100
AcDbCircle
 10
1542.405952696129
 20
827.7865099287536
 30
0.0
 40
1.0
100
AcDbArc
 50
265.252681745971
 51
355.2526817422747
  0
LINE
  5
7077
330
1E
100
AcDbEntity
  8
躯体と製品
  6
Continuous
 62
     7
100
AcDbLine
 10
1542.447333477597
 20
828.2847946173532
 30
0.0
 11
1542.488714259071
 21
828.7830793060173
 31
0.0
  0
LINE
  5
7078
330
1E
100
AcDbEntity
  8
躯体と製品
  6
Continuous
 62
     7
100
AcDbLine
 10
1535.343774869574
 20
827.2865099287535
 30
0.0
 11
1535.343774869574
 21
825.5865099287536
 31
0.0
  0
LINE
  5
7079
330
1E
100
AcDbEntity
  8
躯体と製品
  6
Continuous
 62
     7
100
AcDbLine
 10
1536.426536432452
 20
828.2830793060227
 30
0.0
 11
1541.907668007526
 21
827.8278907101896
 31
0.0
  0
ARC
  5
707A
330
1E
100
AcDbEntity
  8
躯体と製品
  6
Continuous
 62
     7
100
AcDbCircle
 10
1536.343774869574
 20
827.2865099287535
 30
0.0
 40
1.0
100
AcDbArc
 50
85.25268174597099
 51
180.0
  0
LINE
  5
707B
330
1E
100
AcDbEntity
  8
躯体と製品
  6
Continuous
 62
     7
100
AcDbLine
 10
1536.343774869574
 20
826.9605632598391
 30
0.0
 11
1536.343774869574
 21
825.8865099287536
 31
0.0
  0
LINE
  5
707C
330
1E
100
AcDbEntity
  8
躯体と製品
  6
Continuous
 62
     7
100
AcDbLine
 10
1536.668603338437
 20
827.2595340730196
 30
0.0
 11
1542.323191133252
 21
826.7899405514848
 31
0.0
  0
ARC
  5
707D
330
1E
100
AcDbEntity
  8
躯体と製品
  6
Continuous
 62
     7
100
AcDbCircle
 10
1536.643774869574
 20
826.9605632598391
 30
0.0
 40
0.2999999999999999
100
AcDbArc
 50
85.25268174597099
 51
180.0
  0
ARC
  5
707E
330
1E
100
AcDbEntity
  8
躯体と製品
  6
Continuous
 62
     7
100
AcDbCircle
 10
1528.409494444228
 20
867.4660312053493
 30
0.0
 40
0.4204787234042585
100
AcDbArc
 50
345.9042107558272
 51
90.0
  0
ARC
  5
707F
330
1E
100
AcDbEntity
  8
躯体と製品
  6
Continuous
 62
     7
100
AcDbCircle
 10
1526.343774869574
 20
866.9079385001824
 30
0.0
 40
2.021428571428568
100
AcDbArc
 50
270.0
 51
317.2587554613163
  0
LINE
  5
7080
330
1E
100
AcDbEntity
  8
躯体と製品
  6
Continuous
 62
     7
100
AcDbLine
 10
1526.343774869574
 20
864.8865099287537
 30
0.0
 11
1526.343774869574
 21
871.8865099287537
 31
0.0
  0
ARC
  5
7081
330
1E
100
AcDbEntity
  8
躯体と製品
  6
Continuous
 62
     7
100
AcDbCircle
 10
1528.409494444228
 20
869.306988652158
 30
0.0
 40
0.4204787234042585
100
AcDbArc
 50
270.0
 51
14.0957892441728
  0
LINE
  5
7082
330
1E
100
AcDbEntity
  8
躯体と製品
  6
Continuous
 62
     7
100
AcDbLine
 10
1528.409494444228
 20
868.8865099287536
 30
0.0
 11
1528.409494444228
 21
867.8865099287536
 31
0.0
  0
ARC
  5
7083
330
1E
100
AcDbEntity
  8
躯体と製品
  6
Continuous
 62
     7
100
AcDbCircle
 10
1524.743774869574
 20
868.3865099287537
 30
0.0
 40
4.2
100
AcDbArc
 50
317.2587554613163
 51
345.9042107558272
  0
ARC
  5
7084
330
1E
100
AcDbEntity
  8
躯体と製品
  6
Continuous
 62
     7
100
AcDbCircle
 10
1524.743774869574
 20
868.3865099287537
 30
0.0
 40
4.2
100
AcDbArc
 50
14.0957892441728
 51
42.74124453868362
  0
LINE
  5
7085
330
1E
100
AcDbEntity
  8
躯体と製品
  6
Continuous
 62
     7
100
AcDbLine
 10
1527.343774869574
 20
861.5865099287537
 30
0.0
 11
1529.343774869574
 21
861.5865099287537
 31
0.0
  0
ARC
  5
7086
330
1E
100
AcDbEntity
  8
躯体と製品
  6
Continuous
 62
     7
100
AcDbCircle
 10
1529.343774869574
 20
862.5865099287537
 30
0.0
 40
1.0
100
AcDbArc
 50
270.0
 51
0.0
  0
ARC
  5
7087
330
1E
100
AcDbEntity
  8
躯体と製品
  6
Continuous
 62
     7
100
AcDbCircle
 10
1527.343774869574
 20
862.5865099287537
 30
0.0
 40
1.0
100
AcDbArc
 50
180.0
 51
270.0
  0
LINE
  5
7088
330
1E
100
AcDbEntity
  8
躯体と製品
  6
Continuous
 62
     3
100
AcDbLine
 10
1526.343774869574
 20
871.3865099287536
 30
0.0
 11
1526.343774869574
 21
862.5865099287537
 31
0.0
  0
LINE
  5
7089
330
1E
100
AcDbEntity
  8
躯体と製品
  6
Continuous
 62
     3
100
AcDbLine
 10
1528.143774869574
 20
822.4603858710052
 30
0.0
 11
1528.143774869574
 21
833.5114213042905
 31
0.0
  0
ARC
  5
708A
330
1E
100
AcDbEntity
  8
躯体と製品
  6
Continuous
 62
     3
100
AcDbCircle
 10
1529.143774869574
 20
822.4603858710052
 30
0.0
 40
1.0
100
AcDbArc
 50
180.0
 51
266.9999999999944
  0
LINE
  5
708B
330
1E
100
AcDbEntity
  8
躯体と製品
  6
Continuous
 62
     3
100
AcDbLine
 10
1885.143774869574
 20
712.644620762396
 30
0.0
 11
1878.143774869574
 21
712.644620762396
 31
0.0
  0
ARC
  5
708C
330
1E
100
AcDbEntity
  8
躯体と製品
  6
Continuous
 62
     3
100
AcDbCircle
 10
1885.143774869574
 20
799.7977270622514
 30
0.0
 40
3.0
100
AcDbArc
 50
0.0
 51
86.99999999999441
  0
ARC
  5
708D
330
1E
100
AcDbEntity
  8
躯体と製品
  6
Continuous
 62
     3
100
AcDbCircle
 10
1885.143774869574
 20
715.644620762396
 30
0.0
 40
3.0
100
AcDbArc
 50
270.0
 51
0.0
  0
LINE
  5
708E
330
1E
100
AcDbEntity
  8
躯体と製品
  6
Continuous
 62
     3
100
AcDbLine
 10
1888.143774869574
 20
799.7977270622514
 30
0.0
 11
1888.143774869574
 21
715.644620762396
 31
0.0
  0
POINT
  5
708F
330
1E
100
AcDbEntity
  8
躯体と製品
 62
     4
100
AcDbPoint
 10
1888.143774869574
 20
802.644620762396
 30
0.0
  0
POINT
  5
7090
330
1E
100
AcDbEntity
  8
躯体と製品
 62
     4
100
AcDbPoint
 10
1888.143774869574
 20
712.644620762396
 30
0.0
  0
LINE
  5
7091
330
1E
100
AcDbEntity
  8
躯体と製品
  6
Continuous
 62
     3
100
AcDbLine
 10
1529.091438913331
 20
821.4617563362507
 30
0.0
 11
1885.300782738303
 21
802.793615666515
 31
0.0
  0
ARC
  5
7092
330
1E
100
AcDbEntity
  8
躯体と製品
  6
Continuous
 62
     3
100
AcDbCircle
 10
1529.143774869574
 20
822.4603858710054
 30
0.0
 40
2.5
100
AcDbArc
 50
180.0
 51
266.9999999999944
  0
LINE
  5
7093
330
1E
100
AcDbEntity
  8
躯体と製品
  6
Continuous
 62
     3
100
AcDbLine
 10
1529.012934978967
 20
819.9638120341191
 30
0.0
 11
1885.222278803939
 21
801.2956713643829
 31
0.0
  0
ARC
  5
7094
330
1E
100
AcDbEntity
  8
躯体と製品
  6
Continuous
 62
     3
100
AcDbCircle
 10
1885.143774869574
 20
799.7977270622514
 30
0.0
 40
1.5
100
AcDbArc
 50
0.0
 51
86.99999999999441
  0
LINE
  5
7095
330
1E
100
AcDbEntity
  8
躯体と製品
  6
Continuous
 62
     3
100
AcDbLine
 10
1886.643774869574
 20
715.644620762396
 30
0.0
 11
1886.643774869574
 21
799.7977270622514
 31
0.0
  0
ARC
  5
7096
330
1E
100
AcDbEntity
  8
躯体と製品
  6
Continuous
 62
     3
100
AcDbCircle
 10
1885.143774869574
 20
715.644620762396
 30
0.0
 40
1.5
100
AcDbArc
 50
270.0
 51
0.0
  0
LINE
  5
7097
330
1E
100
AcDbEntity
  8
躯体と製品
  6
Continuous
 62
     3
100
AcDbLine
 10
1878.143774869574
 20
712.644620762396
 30
0.0
 11
1878.143774869574
 21
714.1446207623959
 31
0.0
  0
LINE
  5
7098
330
1E
100
AcDbEntity
  8
躯体と製品
  6
Continuous
 62
     3
100
AcDbLine
 10
1885.143774869574
 20
714.1446207623959
 30
0.0
 11
1878.143774869574
 21
714.1446207623959
 31
0.0
  0
LINE
  5
7099
330
1E
100
AcDbEntity
  8
躯体と製品
  6
Continuous
 62
     3
100
AcDbLine
 10
1526.643774869574
 20
822.4603858710054
 30
0.0
 11
1526.643774869574
 21
833.5114213042905
 31
0.0
  0
LINE
  5
709A
330
1E
100
AcDbEntity
  8
躯体と製品
  6
Continuous
 62
     3
100
AcDbLine
 10
1526.643774869574
 20
833.5114213042905
 30
0.0
 11
1528.143774869574
 21
833.5114213042905
 31
0.0
  0
LINE
  5
709C
330
1E
100
AcDbEntity
  8
躯体と製品
  6
Continuous
 62
     7
100
AcDbLine
 10
1544.310370163077
 20
816.4369868107881
 30
0.0
 11
1544.452796498213
 21
819.1546431794574
 31
0.0
  0
LINE
  5
709D
330
1E
100
AcDbEntity
  8
躯体と製品
  6
Continuous
 62
     7
100
AcDbLine
 10
1858.878673610768
 20
799.9511605942607
 30
0.0
 11
1859.021099945904
 21
802.6688169629304
 31
0.0
  0
LINE
  5
709E
330
1E
100
AcDbEntity
  8
躯体と製品
  6
Continuous
 62
     7
100
AcDbLine
 10
1559.289813184396
 20
815.6519474671439
 30
0.0
 11
1559.432239519532
 21
818.3696038358135
 31
0.0
  0
LINE
  5
709F
330
1E
100
AcDbEntity
  8
躯体と製品
  6
Continuous
 62
     4
100
AcDbLine
 10
1547.835195627065
 20
816.2522585358605
 30
0.0
 11
1544.959358788152
 21
819.1280953747734
 31
0.0
  0
LINE
  5
70A0
330
1E
100
AcDbEntity
  8
躯体と製品
  6
Continuous
 62
     4
100
AcDbLine
 10
1549.327624048758
 20
816.1740436765404
 30
0.0
 11
1546.451787209845
 21
819.0498805154534
 31
0.0
  0
LINE
  5
70A1
330
1E
100
AcDbEntity
  8
躯体と製品
  6
Continuous
 62
     4
100
AcDbLine
 10
1550.820052470451
 20
816.0958288172206
 30
0.0
 11
1547.944215631537
 21
818.9716656561339
 31
0.0
  0
LINE
  5
70A2
330
1E
100
AcDbEntity
  8
躯体と製品
  6
Continuous
 62
     4
100
AcDbLine
 10
1552.312480892144
 20
816.0176139579009
 30
0.0
 11
1549.436644053231
 21
818.893450796814
 31
0.0
  0
LINE
  5
70A3
330
1E
100
AcDbEntity
  8
躯体と製品
  6
Continuous
 62
     4
100
AcDbLine
 10
1553.804909313837
 20
815.9393990985812
 30
0.0
 11
1550.929072474924
 21
818.8152359374939
 31
0.0
  0
LINE
  5
70A4
330
1E
100
AcDbEntity
  8
躯体と製品
  6
Continuous
 62
     4
100
AcDbLine
 10
1555.29733773553
 20
815.8611842392611
 30
0.0
 11
1552.421500896617
 21
818.7370210781743
 31
0.0
  0
LINE
  5
70A5
330
1E
100
AcDbEntity
  8
躯体と製品
  6
Continuous
 62
     4
100
AcDbLine
 10
1556.789766157223
 20
815.7829693799415
 30
0.0
 11
1553.913929318311
 21
818.6588062188544
 31
0.0
  0
LINE
  5
70A6
330
1E
100
AcDbEntity
  8
躯体と製品
  6
Continuous
 62
     4
100
AcDbLine
 10
1558.282194578915
 20
815.704754520622
 30
0.0
 11
1555.406357740001
 21
818.5805913595347
 31
0.0
  0
LINE
  5
70A7
330
1E
100
AcDbEntity
  8
躯体と製品
  6
Continuous
 62
     4
100
AcDbLine
 10
1559.312690475533
 20
816.0884721863766
 30
0.0
 11
1556.898786161695
 21
818.5023765002148
 31
0.0
  0
LINE
  5
70A8
330
1E
100
AcDbEntity
  8
躯体と製品
  6
Continuous
 62
     7
100
AcDbLine
 10
1843.899230589449
 20
800.7361999379048
 30
0.0
 11
1844.041656924586
 21
803.4538563065746
 31
0.0
  0
LINE
  5
70A9
330
1E
100
AcDbEntity
  8
躯体と製品
  6
Continuous
 62
     4
100
AcDbLine
 10
1847.424056053437
 20
800.5514716629772
 30
0.0
 11
1844.548219214524
 21
803.4273085018904
 31
0.0
  0
LINE
  5
70AA
330
1E
100
AcDbEntity
  8
躯体と製品
  6
Continuous
 62
     4
100
AcDbLine
 10
1848.916484475131
 20
800.4732568036571
 30
0.0
 11
1846.040647636218
 21
803.3490936425705
 31
0.0
  0
LINE
  5
70AB
330
1E
100
AcDbEntity
  8
躯体と製品
  6
Continuous
 62
     4
100
AcDbLine
 10
1850.408912896824
 20
800.3950419443373
 30
0.0
 11
1847.53307605791
 21
803.2708787832508
 31
0.0
  0
LINE
  5
70AC
330
1E
100
AcDbEntity
  8
躯体と製品
  6
Continuous
 62
     4
100
AcDbLine
 10
1851.901341318517
 20
800.3168270850178
 30
0.0
 11
1849.025504479603
 21
803.1926639239308
 31
0.0
  0
LINE
  5
70AD
330
1E
100
AcDbEntity
  8
躯体と製品
  6
Continuous
 62
     4
100
AcDbLine
 10
1853.393769740209
 20
800.238612225698
 30
0.0
 11
1850.517932901297
 21
803.1144490646111
 31
0.0
  0
LINE
  5
70AE
330
1E
100
AcDbEntity
  8
躯体と製品
  6
Continuous
 62
     4
100
AcDbLine
 10
1854.886198161903
 20
800.160397366378
 30
0.0
 11
1852.01036132299
 21
803.0362342052912
 31
0.0
  0
LINE
  5
70AF
330
1E
100
AcDbEntity
  8
躯体と製品
  6
Continuous
 62
     4
100
AcDbLine
 10
1856.378626583596
 20
800.0821825070584
 30
0.0
 11
1853.502789744683
 21
802.9580193459713
 31
0.0
  0
LINE
  5
70B0
330
1E
100
AcDbEntity
  8
躯体と製品
  6
Continuous
 62
     4
100
AcDbLine
 10
1857.871055005287
 20
800.0039676477388
 30
0.0
 11
1854.995218166374
 21
802.8798044866515
 31
0.0
  0
LINE
  5
70B1
330
1E
100
AcDbEntity
  8
躯体と製品
  6
Continuous
 62
     4
100
AcDbLine
 10
1858.901550901905
 20
800.3876853134935
 30
0.0
 11
1856.487646588067
 21
802.801589627332
 31
0.0
  0
LINE
  5
70B2
330
1E
100
AcDbEntity
  8
躯体と製品
  6
Continuous
 62
     4
100
AcDbLine
 10
1845.931627631744
 20
800.6296865222974
 30
0.0
 11
1843.995135699635
 21
802.5661784544059
 31
0.0
  0
LINE
  5
70B3
330
1E
100
AcDbEntity
  8
躯体と製品
  6
Continuous
 62
     4
100
AcDbLine
 10
1858.971975877561
 20
801.7314739002111
 30
0.0
 11
1857.98007500976
 21
802.7233747680121
 31
0.0
  0
LINE
  5
70B4
330
1E
100
AcDbEntity
  8
躯体と製品
  6
Continuous
 62
     4
100
AcDbLine
 10
1546.342767205371
 20
816.3304733951806
 30
0.0
 11
1544.406275273263
 21
818.266965327289
 31
0.0
  0
LINE
  5
70B5
330
1E
100
AcDbEntity
  8
躯体と製品
  6
Continuous
 62
     4
100
AcDbLine
 10
1559.383115451188
 20
817.4322607730941
 30
0.0
 11
1558.391214583387
 21
818.424161640895
 31
0.0
  0
LINE
  5
70B6
330
1E
100
AcDbEntity
  8
躯体と製品
  6
Continuous
 62
     7
100
AcDbLine
 10
1545.343774869574
 20
824.5865099287536
 30
0.0
 11
1543.897101777345
 21
822.5476041035083
 31
0.0
  0
LINE
  5
70B7
330
1E
100
AcDbEntity
  8
躯体と製品
  6
Continuous
 62
     7
100
AcDbLine
 10
1544.362856587211
 20
824.5865099287536
 30
0.0
 11
1543.244651913266
 21
823.010539493022
 31
0.0
  0
ARC
  5
70B8
330
1E
100
AcDbEntity
  8
躯体と製品
  6
Continuous
 62
     7
100
AcDbCircle
 10
1536.071380745315
 20
824.2132650703732
 30
0.0
 40
0.4
100
AcDbArc
 50
53.72971301623845
 51
233.7297130140144
  0
LINE
  5
70B9
330
1E
100
AcDbEntity
  8
躯体と製品
  6
Continuous
 62
     7
100
AcDbLine
 10
1537.477773309475
 20
823.6774226368321
 30
0.0
 11
1536.308018806472
 21
824.5357591447554
 31
0.0
  0
ARC
  5
70BA
330
1E
100
AcDbEntity
  8
躯体と製品
  6
Continuous
 62
     7
100
AcDbCircle
 10
1540.634852456952
 20
824.8622810510756
 30
0.0
 40
3.2
100
AcDbArc
 50
210.6243142002019
 51
324.6430018143474
  0
ARC
  5
70BB
330
1E
100
AcDbEntity
  8
躯体と製品
  6
Continuous
 62
     7
100
AcDbCircle
 10
1536.590380580113
 20
822.4680698579145
 30
0.0
 40
1.5
100
AcDbArc
 50
30.62431420020187
 51
53.72971301512644
  0
LINE
  5
70BC
330
1E
100
AcDbEntity
  8
躯体と製品
  6
Continuous
 62
     7
100
AcDbLine
 10
1537.004497187149
 20
823.0324344880761
 30
0.0
 11
1535.834742684146
 21
823.8907709959995
 31
0.0
  0
ARC
  5
70BD
330
1E
100
AcDbEntity
  8
躯体と製品
  6
Continuous
 62
     7
100
AcDbCircle
 10
1540.634852456952
 20
824.8622810510756
 30
0.0
 40
4.0
100
AcDbArc
 50
210.6243142002019
 51
324.6430018143474
  0
ARC
  5
70BE
330
1E
100
AcDbEntity
  8
躯体と製品
  6
Continuous
 62
     7
100
AcDbCircle
 10
1536.590380580113
 20
822.4680698579145
 30
0.0
 40
0.6999999999999999
100
AcDbArc
 50
30.62431420020187
 51
53.72971301512644
  0
ARC
  5
70BF
330
1E
100
AcDbEntity
  8
躯体と製品
  6
DASHED1
 62
     7
100
AcDbCircle
 10
1524.143774869574
 20
823.2231109404191
 30
0.0
 40
7.5
100
AcDbArc
 50
180.0
 51
266.9999999999944
  0
ARC
  5
70C0
330
1E
100
AcDbEntity
  8
躯体と製品
  6
DASHED1
 62
     7
100
AcDbCircle
 10
1524.143774869574
 20
823.2231109404194
 30
0.0
 40
3.0
100
AcDbArc
 50
180.0
 51
266.9999999999944
  0
LINE
  5
70C1
330
1E
100
AcDbEntity
  8
躯体と製品
  6
DASHED1
 62
     7
100
AcDbLine
 10
1516.643774869574
 20
823.2231109404191
 30
0.0
 11
1516.643774869574
 21
835.3762172402751
 31
0.0
  0
LINE
  5
70C2
330
1E
100
AcDbEntity
  8
躯体と製品
  6
DASHED1
 62
     7
100
AcDbLine
 10
1521.143774869574
 20
835.3762172402751
 30
0.0
 11
1516.643774869574
 21
835.3762172402751
 31
0.0
  0
LINE
  5
70C3
330
1E
100
AcDbEntity
  8
躯体と製品
  6
DASHED1
 62
     7
100
AcDbLine
 10
1521.143774869574
 20
823.2231109404194
 30
0.0
 11
1521.143774869574
 21
835.3762172402751
 31
0.0
  0
ARC
  5
70C4
330
1E
100
AcDbEntity
  8
躯体と製品
  6
DASHED1
 62
     7
100
AcDbCircle
 10
1864.806954503845
 20
794.8553005793099
 30
0.0
 40
3.0
100
AcDbArc
 50
10.12467165539644
 51
86.99999999999441
  0
LINE
  5
70C5
330
1E
100
AcDbEntity
  8
躯体と製品
  6
DASHED1
 62
     7
100
AcDbLine
 10
1867.760237230371
 20
795.3826724947609
 30
0.0
 11
1881.713850779786
 21
717.2424366180345
 31
0.0
  0
LINE
  5
70C6
330
1E
100
AcDbEntity
  8
躯体と製品
  6
DASHED1
 62
     7
100
AcDbLine
 10
1886.143774869574
 20
718.033494491211
 30
0.0
 11
1881.71385077985
 21
717.2424366176787
 31
0.0
  0
LINE
  5
70C7
330
1E
100
AcDbEntity
  8
躯体と製品
  6
DASHED1
 62
     7
100
AcDbLine
 10
1872.190161320159
 20
796.1737303679374
 30
0.0
 11
1886.143774869574
 21
718.033494491211
 31
0.0
  0
ARC
  5
70C8
330
1E
100
AcDbEntity
  8
躯体と製品
  6
DASHED1
 62
     7
100
AcDbCircle
 10
1864.806954503845
 20
794.8553005793099
 30
0.0
 40
7.5
100
AcDbArc
 50
10.12467165539644
 51
86.99999999999441
  0
LINE
  5
70C9
330
1E
100
AcDbEntity
  8
躯体と製品
  6
DASHED1
 62
     7
100
AcDbLine
 10
1523.751255197752
 20
815.7333894297599
 30
0.0
 11
1544.21728469512
 21
814.6608102730615
 31
0.0
  0
LINE
  5
70CA
330
1E
100
AcDbEntity
  8
躯体と製品
  6
DASHED1
 62
     7
100
AcDbLine
 10
1858.785588142811
 20
798.1749840565351
 30
0.0
 11
1864.963962372574
 21
797.8511891835735
 31
0.0
  0
LINE
  5
70CB
330
1E
100
AcDbEntity
  8
躯体と製品
  6
DASHED1
 62
     7
100
AcDbLine
 10
1859.021099945904
 20
802.6688169629309
 30
0.0
 11
1865.199474175667
 21
802.3450220899695
 31
0.0
  0
ARC
  5
70E8
330
1E
100
AcDbEntity
  8
躯体と製品
  6
Continuous
 62
     7
100
AcDbCircle
 10
1783.143774869574
 20
765.3138876450639
 30
0.0
 40
9.25
100
AcDbArc
 50
251.0753555839456
 51
270.0
  0
LINE
  5
70E9
330
1E
100
AcDbEntity
  8
躯体と製品
  6
Continuous
 62
     7
100
AcDbLine
 10
1762.143774869574
 20
756.0638876450638
 30
0.0
 11
1762.143774869574
 21
757.0638876450638
 31
0.0
  0
ARC
  5
70EA
330
1E
100
AcDbEntity
  8
躯体と製品
  6
Continuous
 62
     7
100
AcDbCircle
 10
1777.143774869574
 20
747.8138876450637
 30
0.0
 40
8.25
100
AcDbArc
 50
71.07535558394559
 51
90.0
  0
ARC
  5
70EB
330
1E
100
AcDbEntity
  8
躯体と製品
  6
Continuous
 62
     7
100
AcDbCircle
 10
1783.143774869574
 20
765.3138876450639
 30
0.0
 40
10.25
100
AcDbArc
 50
251.0753555839456
 51
270.0
  0
ARC
  5
70EC
330
1E
100
AcDbEntity
  8
躯体と製品
  6
Continuous
 62
     7
100
AcDbCircle
 10
1747.143774869574
 20
747.8138876450637
 30
0.0
 40
8.25
100
AcDbArc
 50
90.0
 51
108.9246444160544
  0
ARC
  5
70ED
330
1E
100
AcDbEntity
  8
躯体と製品
  6
Continuous
 62
     7
100
AcDbCircle
 10
1741.143774869574
 20
765.3138876450639
 30
0.0
 40
10.25
100
AcDbArc
 50
270.0
 51
288.9246444160544
  0
LINE
  5
70EE
330
1E
100
AcDbEntity
  8
躯体と製品
  6
Continuous
 62
     7
100
AcDbLine
 10
1812.155049371977
 20
756.0638876450638
 30
0.0
 11
1783.143774869574
 21
756.0638876450638
 31
0.0
  0
ARC
  5
70EF
330
1E
100
AcDbEntity
  8
躯体と製品
  6
Continuous
 62
     7
100
AcDbCircle
 10
1812.116462726108
 20
754.0642599120192
 30
0.0
 40
2.0
100
AcDbArc
 50
4.999999999999459
 51
88.8945054323914
  0
ARC
  5
70F0
330
1E
100
AcDbEntity
  8
躯体と製品
  6
Continuous
 62
     7
100
AcDbCircle
 10
1777.143774869574
 20
747.8138876450637
 30
0.0
 40
9.25
100
AcDbArc
 50
71.07535558394559
 51
90.0
  0
ARC
  5
70F1
330
1E
100
AcDbEntity
  8
躯体と製品
  6
Continuous
 62
     7
100
AcDbCircle
 10
1747.143774869574
 20
747.8138876450637
 30
0.0
 40
9.25
100
AcDbArc
 50
90.0
 51
108.9246444160544
  0
LINE
  5
70F2
330
1E
100
AcDbEntity
  8
躯体と製品
  6
Continuous
 62
     7
100
AcDbLine
 10
1777.143774869574
 20
757.0638876450638
 30
0.0
 11
1747.143774869574
 21
757.0638876450638
 31
0.0
  0
ARC
  5
70F3
330
1E
100
AcDbEntity
  8
躯体と製品
  6
Continuous
 62
     7
100
AcDbCircle
 10
1741.143774869574
 20
765.3138876450639
 30
0.0
 40
9.25
100
AcDbArc
 50
270.0
 51
288.9246444160544
  0
ARC
  5
70F4
330
1E
100
AcDbEntity
  8
躯体と製品
  6
Continuous
 62
     7
100
AcDbCircle
 10
1662.143774869574
 20
754.0638876450637
 30
0.0
 40
2.0
100
AcDbArc
 50
90.0
 51
175.0000000000005
  0
LINE
  5
70F5
330
1E
100
AcDbEntity
  8
躯体と製品
  6
Continuous
 62
     7
100
AcDbLine
 10
1662.143774869574
 20
756.0638876450638
 30
0.0
 11
1741.143774869574
 21
756.0638876450638
 31
0.0
  0
LINE
  5
70F6
330
1E
100
AcDbEntity
  8
躯体と製品
  6
Continuous
 62
     7
100
AcDbLine
 10
1513.143774869574
 20
820.3865099287536
 30
0.0
 11
1512.143774869574
 21
820.3865099287536
 31
0.0
  0
LINE
  5
70F7
330
1E
100
AcDbEntity
  8
躯体と製品
  6
Continuous
 62
     7
100
AcDbLine
 10
1513.143774869574
 20
815.3865099287536
 30
0.0
 11
1512.143774869574
 21
815.3865099287536
 31
0.0
  0
TEXT
  5
70F8
330
1E
100
AcDbEntity
  8
図枠
 62
     7
100
AcDbText
 10
1920.643774869575
 20
603.7536931629877
 30
0.0
 40
5.0
  1
（単位：mm）
100
AcDbText
  0
LINE
  5
70F9
330
1E
100
AcDbEntity
  8
躯体と製品
  6
CENTER1
 62
     4
100
AcDbLine
 10
1515.021052187009
 20
868.3865099287537
 30
0.0
 11
1531.889085869574
 21
868.3865099287537
 31
0.0
  0
LINE
  5
70FA
330
1E
100
AcDbEntity
  8
躯体と製品
  6
CENTER1
 62
     4
100
AcDbLine
 10
1526.843776869574
 20
817.8865099287536
 30
0.0
 11
1453.143774869574
 21
817.8865099287536
 31
0.0
  0
LINE
  5
70FB
330
1E
100
AcDbEntity
  8
躯体と製品
  6
CENTER1
 62
     4
100
AcDbLine
 10
1762.143774869574
 20
779.9874020729504
 30
0.0
 11
1762.143774869574
 21
691.0638876450639
 31
0.0
  0
LINE
  5
70FC
330
1E
100
AcDbEntity
  8
躯体と製品
  6
CENTER1
 62
     4
100
AcDbLine
 10
1763.868414731311
 20
807.895491011865
 30
0.0
 11
1761.515743394659
 21
763.0038476558954
 31
0.0
  0
LINE
  5
70FD
330
1E
100
AcDbEntity
  8
図枠
  6
Continuous
 62
     4
100
AcDbLine
 10
1596.343774869574
 20
822.9440724871768
 30
0.0
 11
1646.343774869574
 21
822.9440724871768
 31
0.0
  0
LINE
  5
70FE
330
1E
100
AcDbEntity
  8
図枠
  6
Continuous
 62
     4
100
AcDbLine
 10
1646.343774869574
 20
820.3236835230246
 30
0.0
 11
1646.343774869574
 21
822.9440724871768
 31
0.0
  0
LINE
  5
70FF
330
1E
100
AcDbEntity
  8
図枠
  6
Continuous
 62
     4
100
AcDbLine
 10
1596.343774869574
 20
822.9440724871768
 30
0.0
 11
1646.343774869574
 21
820.3236835230246
 31
0.0
  0
TEXT
  5
7100
330
1E
100
AcDbEntity
  8
図枠
 62
     7
100
AcDbText
 10
1607.843774869574
 20
822.9283495225731
 30
0.0
 40
5.0
  1
勾配３度
100
AcDbText
  0
ARC
  5
7101
330
1E
100
AcDbEntity
  8
躯体と製品
  6
Continuous
 62
     7
100
AcDbCircle
 10
1518.015065323607
 20
816.3837469287537
 30
0.0
 40
3.0
100
AcDbArc
 50
272.4589259999963
 51
321.3853620000019
  0
ARC
  5
7102
330
1E
100
AcDbEntity
  8
躯体と製品
  6
Continuous
 62
     7
100
AcDbCircle
 10
1516.143776323607
 20
817.8865099287536
 30
0.0
 40
5.4
100
AcDbArc
 50
321.3178130000017
 51
0.0
  0
ARC
  5
7103
330
1E
100
AcDbEntity
  8
躯体と製品
  6
Continuous
 62
     7
100
AcDbCircle
 10
1516.143776323607
 20
817.8865099287536
 30
0.0
 40
5.4
100
AcDbArc
 50
0.0
 51
38.85106200000375
  0
ARC
  5
7104
330
1E
100
AcDbEntity
  8
躯体と製品
  6
Continuous
 62
     7
100
AcDbCircle
 10
1518.015065323607
 20
819.3892699287538
 30
0.0
 40
3.0
100
AcDbArc
 50
38.61463799999811
 51
87.54107400000371
  0
LINE
  5
7105
330
1E
100
AcDbEntity
  8
躯体と製品
  6
Continuous
 62
     7
100
AcDbLine
 10
1518.143774869574
 20
826.8865099287536
 30
0.0
 11
1516.643774869574
 21
826.8865099287536
 31
0.0
  0
LINE
  5
7106
330
1E
100
AcDbEntity
  8
躯体と製品
  6
Continuous
 62
     7
100
AcDbLine
 10
1518.143774869574
 20
808.8865099287536
 30
0.0
 11
1518.143774869574
 21
826.8865099287536
 31
0.0
  0
LINE
  5
7107
330
1E
100
AcDbEntity
  8
躯体と製品
  6
Continuous
 62
     7
100
AcDbLine
 10
1518.143774869574
 20
808.8865099287536
 30
0.0
 11
1516.643774869574
 21
808.8865099287536
 31
0.0
  0
LINE
  5
7108
330
1E
100
AcDbEntity
  8
躯体と製品
  6
Continuous
 62
     7
100
AcDbLine
 10
1753.143774869574
 20
761.0638876450638
 30
0.0
 11
1771.143774869574
 21
761.0638876450638
 31
0.0
  0
LINE
  5
7109
330
1E
100
AcDbEntity
  8
躯体と製品
  6
Continuous
 62
     7
100
AcDbLine
 10
1771.143774869574
 20
761.0638876450638
 30
0.0
 11
1771.143774869574
 21
759.5638876450638
 31
0.0
  0
LINE
  5
710A
330
1E
100
AcDbEntity
  8
躯体と製品
  6
Continuous
 62
     7
100
AcDbLine
 10
1753.143774869574
 20
761.0638876450638
 30
0.0
 11
1753.143774869574
 21
759.5638876450638
 31
0.0
  0
ARC
  5
710B
330
1E
100
AcDbEntity
  8
躯体と製品
  6
Continuous
 62
     7
100
AcDbCircle
 10
1762.143774869574
 20
756.4527346055079
 30
0.0
 40
9.553418012635715
100
AcDbArc
 50
72.41204622604974
 51
107.5879537739502
  0
ARC
  5
710C
330
1E
100
AcDbEntity
  8
躯体と製品
  6
Continuous
 62
     7
100
AcDbCircle
 10
1757.813647850652
 20
763.4503298697157
 30
0.0
 40
2.555822748428199
100
AcDbArc
 50
55.61575253203897
 51
124.384247467961
  0
ARC
  5
710D
330
1E
100
AcDbEntity
  8
躯体と製品
  6
Continuous
 62
     7
100
AcDbCircle
 10
1766.473901888497
 20
763.4503298697157
 30
0.0
 40
2.555822748428199
100
AcDbArc
 50
55.61575253203897
 51
124.384247467961
  0
LINE
  5
710E
330
1E
100
AcDbEntity
  8
躯体と製品
  6
Continuous
 62
     7
100
AcDbLine
 10
1756.370272177678
 20
765.5595706307596
 30
0.0
 11
1756.370272177678
 21
761.0638876450638
 31
0.0
  0
LINE
  5
710F
330
1E
100
AcDbEntity
  8
躯体と製品
  6
Continuous
 62
     7
100
AcDbLine
 10
1757.243774869574
 20
766.0638876450639
 30
0.0
 11
1756.370272177678
 21
765.5595706307596
 31
0.0
  0
LINE
  5
7110
330
1E
100
AcDbEntity
  8
躯体と製品
  6
Continuous
 62
     7
100
AcDbLine
 10
1757.243774869574
 20
766.0638876450639
 30
0.0
 11
1767.043774869574
 21
766.0638876450639
 31
0.0
  0
LINE
  5
7111
330
1E
100
AcDbEntity
  8
躯体と製品
  6
Continuous
 62
     7
100
AcDbLine
 10
1767.043774869574
 20
766.0638876450639
 30
0.0
 11
1767.917277561471
 21
765.5595706307596
 31
0.0
  0
LINE
  5
7112
330
1E
100
AcDbEntity
  8
躯体と製品
  6
Continuous
 62
     7
100
AcDbLine
 10
1759.257023523626
 20
765.5595706307596
 30
0.0
 11
1759.257023523626
 21
761.0638876450638
 31
0.0
  0
LINE
  5
7113
330
1E
100
AcDbEntity
  8
躯体と製品
  6
Continuous
 62
     7
100
AcDbLine
 10
1765.030526215522
 20
765.5595706307596
 30
0.0
 11
1765.030526215522
 21
761.0638876450638
 31
0.0
  0
LINE
  5
7114
330
1E
100
AcDbEntity
  8
躯体と製品
  6
Continuous
 62
     7
100
AcDbLine
 10
1767.917277561471
 20
765.5595706307596
 30
0.0
 11
1767.917277561471
 21
761.0638876450638
 31
0.0
  0
LINE
  5
7115
330
1E
100
AcDbEntity
  8
躯体と製品
  6
Continuous
 62
     7
100
AcDbLine
 10
1759.10373631364
 20
766.0638876450639
 30
0.0
 11
1758.695743377942
 21
766.5170097054126
 31
0.0
  0
LINE
  5
7116
330
1E
100
AcDbEntity
  8
躯体と製品
  6
Continuous
 62
     4
100
AcDbLine
 10
1759.527197713344
 20
771.5195906254384
 30
0.0
 11
1759.241276435715
 21
766.0638876450639
 31
0.0
  0
LINE
  5
7117
330
1E
100
AcDbEntity
  8
躯体と製品
  6
Continuous
 62
     4
100
AcDbLine
 10
1764.383533140855
 20
771.265080870229
 30
0.0
 11
1764.110950154303
 21
766.0638876450639
 31
0.0
  0
LINE
  5
7118
330
1E
100
AcDbEntity
  8
躯体と製品
  6
Continuous
 62
     7
100
AcDbLine
 10
1764.687520586469
 20
766.2029939679548
 30
0.0
 11
1764.533027363374
 21
766.0638876450639
 31
0.0
  0
TEXT
  5
7119
330
1E
100
AcDbEntity
  8
図枠
 62
     7
100
AcDbText
 10
1458.643774869574
 20
551.2536931629877
 30
0.0
 40
5.0
  1
止水補助板ホルダーＡＬ
100
AcDbText
  0
TEXT
  5
711A
330
1E
100
AcDbEntity
  8
図枠
 62
     7
100
AcDbText
 10
1558.643774869574
 20
488.2536931629877
 30
0.0
 40
5.0
  1
ＦＳ500～600
100
AcDbText
  0
TEXT
  5
711B
330
1E
100
AcDbEntity
  8
図枠
 62
     7
100
AcDbText
 10
1941.643774869575
 20
542.2536931629877
 30
0.0
 40
5.0
  1
124
100
AcDbText
  0
TEXT
  5
711C
330
1E
100
AcDbEntity
  8
図枠
 62
     7
100
AcDbText
 10
1798.034693670339
 20
827.1196310067978
 30
0.0
 40
5.0
  1
７
100
AcDbText
  0
TEXT
  5
711D
330
1E
100
AcDbEntity
  8
図枠
 62
     7
100
AcDbText
 10
1781.773752446039
 20
823.5979377846138
 30
0.0
 40
5.0
  1
14
100
AcDbText
  0
CIRCLE
  5
711E
330
1E
100
AcDbEntity
  8
図枠
  6
Continuous
 62
     4
100
AcDbCircle
 10
1812.117115608334
 20
788.6620817451682
 30
0.0
 40
0.9
  0
CIRCLE
  5
711F
330
1E
100
AcDbEntity
  8
図枠
  6
Continuous
 62
     4
100
AcDbCircle
 10
1764.198219907006
 20
790.5270573323314
 30
0.0
 40
0.9
  0
CIRCLE
  5
7120
330
1E
100
AcDbEntity
  8
図枠
  6
Continuous
 62
     4
100
AcDbCircle
 10
1760.017763893572
 20
729.981226246917
 30
0.0
 40
0.9
  0
CIRCLE
  5
7121
330
1E
100
AcDbEntity
  8
図枠
  6
Continuous
 62
     4
100
AcDbCircle
 10
1779.747603897963
 20
793.2493099757627
 30
0.0
 40
0.9
  0
CIRCLE
  5
7122
330
1E
100
AcDbEntity
  8
図枠
  6
Continuous
 62
     4
100
AcDbCircle
 10
1766.48118569827
 20
763.1644597923219
 30
0.0
 40
0.9
  0
CIRCLE
  5
7123
330
1E
100
AcDbEntity
  8
図枠
  6
Continuous
 62
     4
100
AcDbCircle
 10
1772.321257597718
 20
770.5525025566844
 30
0.0
 40
0.9
  0
CIRCLE
  5
7124
330
1E
100
AcDbEntity
  8
図枠
  6
Continuous
 62
     4
100
AcDbCircle
 10
1829.042430719944
 20
817.9775874525901
 30
0.0
 40
6.0
  0
TEXT
  5
7125
330
1E
100
AcDbEntity
  8
図枠
 62
     7
100
AcDbText
 10
1826.042430719944
 20
814.97758745259
 30
0.0
 40
5.0
  1
６
100
AcDbText
  0
LINE
  5
7126
330
1E
100
AcDbEntity
  8
図枠
  6
Continuous
 62
     4
100
AcDbLine
 10
1812.117115608334
 20
788.6620817451682
 30
0.0
 11
1826.042430719944
 21
812.7814350298836
 31
0.0
  0
CIRCLE
  5
7127
330
1E
100
AcDbEntity
  8
図枠
  6
Continuous
 62
     4
100
AcDbCircle
 10
1779.665466453753
 20
768.8152246310194
 30
0.0
 40
0.9
  0
CIRCLE
  5
7128
330
1E
100
AcDbEntity
  8
図枠
  6
Continuous
 62
     4
100
AcDbCircle
 10
1807.478520709203
 20
816.9888477151285
 30
0.0
 40
6.0
  0
TEXT
  5
7129
330
1E
100
AcDbEntity
  8
図枠
 62
     7
100
AcDbText
 10
1804.478520709203
 20
813.9888477151284
 30
0.0
 40
5.0
  1
３
100
AcDbText
  0
LINE
  5
712A
330
1E
100
AcDbEntity
  8
図枠
  6
Continuous
 62
     4
100
AcDbLine
 10
1779.665466453753
 20
768.8152246310194
 30
0.0
 11
1804.478520709203
 21
811.7926952924218
 31
0.0
  0
CIRCLE
  5
712B
330
1E
100
AcDbEntity
  8
図枠
  6
Continuous
 62
     4
100
AcDbCircle
 10
1801.034693670339
 20
830.1196310067979
 30
0.0
 40
6.0
  0
LINE
  5
712C
330
1E
100
AcDbEntity
  8
図枠
  6
Continuous
 62
     4
100
AcDbLine
 10
1779.747603897963
 20
793.2493099757627
 30
0.0
 11
1798.034693670339
 21
824.9234785840911
 31
0.0
  0
CIRCLE
  5
712D
330
1E
100
AcDbEntity
  8
図枠
  6
Continuous
 62
     4
100
AcDbCircle
 10
1785.023752446039
 20
826.5979377846138
 30
0.0
 40
6.0
  0
TEXT
  5
712E
330
1E
100
AcDbEntity
  8
図枠
 62
     7
100
AcDbText
 10
1784.102943729487
 20
741.9498711549252
 30
0.0
 40
5.0
  1
８
100
AcDbText
  0
LINE
  5
712F
330
1E
100
AcDbEntity
  8
図枠
  6
Continuous
 62
     4
100
AcDbLine
 10
1764.198219907006
 20
790.5270573323314
 30
0.0
 11
1782.023752446039
 21
821.401785361907
 31
0.0
  0
CIRCLE
  5
7130
330
1E
100
AcDbEntity
  8
図枠
  6
Continuous
 62
     4
100
AcDbCircle
 10
1787.102943729487
 20
744.9498711549251
 30
0.0
 40
6.0
  0
TEXT
  5
7131
330
1E
100
AcDbEntity
  8
図枠
 62
     7
100
AcDbText
 10
1739.074769484673
 20
735.3077561706378
 30
0.0
 40
5.0
  1
20
100
AcDbText
  0
LINE
  5
7132
330
1E
100
AcDbEntity
  8
図枠
  6
Continuous
 62
     4
100
AcDbLine
 10
1772.321257597718
 20
770.5525025566844
 30
0.0
 11
1784.102943729487
 21
750.1460235776319
 31
0.0
  0
CIRCLE
  5
7133
330
1E
100
AcDbEntity
  8
図枠
  6
Continuous
 62
     4
100
AcDbCircle
 10
1785.903571363126
 20
729.523901016593
 30
0.0
 40
6.0
  0
TEXT
  5
7134
330
1E
100
AcDbEntity
  8
図枠
 62
     7
100
AcDbText
 10
1782.653571363126
 20
726.523901016593
 30
0.0
 40
5.0
  1
16
100
AcDbText
  0
LINE
  5
7135
330
1E
100
AcDbEntity
  8
図枠
  6
Continuous
 62
     4
100
AcDbLine
 10
1766.48118569827
 20
763.1644597923219
 30
0.0
 11
1782.903571363126
 21
734.7200534392997
 31
0.0
  0
CIRCLE
  5
7136
330
1E
100
AcDbEntity
  8
図枠
  6
Continuous
 62
     4
100
AcDbCircle
 10
1746.976149698825
 20
707.3924878489044
 30
0.0
 40
6.0
  0
TEXT
  5
7137
330
1E
100
AcDbEntity
  8
図枠
 62
     7
100
AcDbText
 10
1743.726149698825
 20
704.3924878489044
 30
0.0
 40
5.0
  1
17
100
AcDbText
  0
LINE
  5
7138
330
1E
100
AcDbEntity
  8
図枠
  6
Continuous
 62
     4
100
AcDbLine
 10
1760.017763893572
 20
729.981226246917
 30
0.0
 11
1749.976149698825
 21
712.5886402716112
 31
0.0
  0
CIRCLE
  5
7139
330
1E
100
AcDbEntity
  8
図枠
  6
Continuous
 62
     4
100
AcDbCircle
 10
1755.022023116552
 20
760.3000445776412
 30
0.0
 40
0.9
  0
CIRCLE
  5
713A
330
1E
100
AcDbEntity
  8
図枠
  6
Continuous
 62
     4
100
AcDbCircle
 10
1742.324769484674
 20
738.3077561706378
 30
0.0
 40
6.0
  0
LINE
  5
713B
330
1E
100
AcDbEntity
  8
図枠
  6
Continuous
 62
     4
100
AcDbLine
 10
1755.022023116552
 20
760.3000445776412
 30
0.0
 11
1745.324769484674
 21
743.5039085933444
 31
0.0
  0
CIRCLE
  5
713C
330
1E
100
AcDbEntity
  8
図枠
  6
Continuous
 62
     4
100
AcDbCircle
 10
1871.897357579821
 20
784.5920342968426
 30
0.0
 40
0.9
  0
CIRCLE
  5
713D
330
1E
100
AcDbEntity
  8
図枠
  6
Continuous
 62
     4
100
AcDbCircle
 10
1898.533838723223
 20
830.7277729720651
 30
0.0
 40
6.0
  0
TEXT
  5
713E
330
1E
100
AcDbEntity
  8
図枠
 62
     7
100
AcDbText
 10
1895.533838723223
 20
827.7277729720651
 30
0.0
 40
5.0
  1
９
100
AcDbText
  0
LINE
  5
713F
330
1E
100
AcDbEntity
  8
図枠
  6
Continuous
 62
     4
100
AcDbLine
 10
1871.897357579821
 20
784.5920342968426
 30
0.0
 11
1895.533838723223
 21
825.5316205493587
 31
0.0
  0
CIRCLE
  5
7140
330
1E
100
AcDbEntity
  8
図枠
  6
Continuous
 62
     4
100
AcDbCircle
 10
1847.142707379699
 20
716.4423002454551
 30
0.0
 40
0.9
  0
CIRCLE
  5
7141
330
1E
100
AcDbEntity
  8
図枠
  6
Continuous
 62
     4
100
AcDbCircle
 10
1860.60015491633
 20
693.1333173718187
 30
0.0
 40
6.0
  0
TEXT
  5
7142
330
1E
100
AcDbEntity
  8
図枠
 62
     7
100
AcDbText
 10
1857.350154916329
 20
690.1333173718187
 30
0.0
 40
5.0
  1
11
100
AcDbText
  0
LINE
  5
7143
330
1E
100
AcDbEntity
  8
図枠
  6
Continuous
 62
     4
100
AcDbLine
 10
1847.142707379699
 20
716.4423002454551
 30
0.0
 11
1857.60015491633
 21
698.3294697945255
 31
0.0
  0
CIRCLE
  5
7144
330
1E
100
AcDbEntity
  8
図枠
  6
Continuous
 62
     4
100
AcDbCircle
 10
1870.104921281177
 20
737.010576621755
 30
0.0
 40
0.9
  0
LINE
  5
7145
330
1E
100
AcDbEntity
  8
図枠
  6
Continuous
 62
     4
100
AcDbLine
 10
1870.104921281177
 20
737.010576621755
 30
0.0
 11
1895.072935097534
 21
780.2564451157659
 31
0.0
  0
TEXT
  5
7146
330
1E
100
AcDbEntity
  8
図枠
 62
     7
100
AcDbText
 10
1895.072935097534
 20
782.4525975384725
 30
0.0
 40
5.0
  1
５
100
AcDbText
  0
CIRCLE
  5
7147
330
1E
100
AcDbEntity
  8
図枠
  6
Continuous
 62
     4
100
AcDbCircle
 10
1898.072935097534
 20
785.4525975384725
 30
0.0
 40
6.0
  0
CIRCLE
  5
7148
330
1E
100
AcDbEntity
  8
図枠
  6
Continuous
 62
     4
100
AcDbCircle
 10
1519.114187335579
 20
850.6238969009302
 30
0.0
 40
0.9
  0
CIRCLE
  5
7149
330
1E
100
AcDbEntity
  8
図枠
  6
Continuous
 62
     4
100
AcDbCircle
 10
1544.361474007714
 20
842.3462026649154
 30
0.0
 40
0.9
  0
CIRCLE
  5
714A
330
1E
100
AcDbEntity
  8
図枠
  6
Continuous
 62
     4
100
AcDbCircle
 10
1543.86466911816
 20
823.2879764558694
 30
0.0
 40
0.9
  0
CIRCLE
  5
714B
330
1E
100
AcDbEntity
  8
図枠
  6
Continuous
 62
     4
100
AcDbCircle
 10
1523.285684642981
 20
869.1427393188224
 30
0.0
 40
0.9
  0
CIRCLE
  5
714C
330
1E
100
AcDbEntity
  8
図枠
  6
Continuous
 62
     4
100
AcDbCircle
 10
1570.75627681499
 20
776.7103456277493
 30
0.0
 40
6.0
  0
TEXT
  5
714D
330
1E
100
AcDbEntity
  8
図枠
 62
     7
100
AcDbText
 10
1567.50627681499
 20
773.7103456277493
 30
0.0
 40
5.0
  1
13
100
AcDbText
  0
LINE
  5
714E
330
1E
100
AcDbEntity
  8
図枠
  6
Continuous
 62
     4
100
AcDbLine
 10
1543.86466911816
 20
823.2879764558694
 30
0.0
 11
1567.75627681499
 21
781.9064980504558
 31
0.0
  0
TEXT
  5
714F
330
1E
100
AcDbEntity
  8
図枠
 62
     7
100
AcDbText
 10
1565.580330393991
 20
881.7275051290527
 30
0.0
 40
5.0
  1
10
100
AcDbText
  0
CIRCLE
  5
7150
330
1E
100
AcDbEntity
  8
図枠
  6
Continuous
 62
     4
100
AcDbCircle
 10
1568.830330393991
 20
884.7275051290527
 30
0.0
 40
6.0
  0
LINE
  5
7151
330
1E
100
AcDbEntity
  8
図枠
  6
Continuous
 62
     4
100
AcDbLine
 10
1544.361474007714
 20
842.3462026649154
 30
0.0
 11
1565.830330393991
 21
879.5313527063461
 31
0.0
  0
CIRCLE
  5
7152
330
1E
100
AcDbEntity
  8
図枠
  6
Continuous
 62
     4
100
AcDbCircle
 10
1500.475668425229
 20
908.6508463294382
 30
0.0
 40
6.0
  0
TEXT
  5
7153
330
1E
100
AcDbEntity
  8
図枠
 62
     7
100
AcDbText
 10
1497.225668425229
 20
905.6508463294383
 30
0.0
 40
5.0
  1
15
100
AcDbText
  0
LINE
  5
7154
330
1E
100
AcDbEntity
  8
図枠
  6
Continuous
 62
     4
100
AcDbLine
 10
1523.285684642981
 20
869.1427393188224
 30
0.0
 11
1503.475668425229
 21
903.4546939067315
 31
0.0
  0
CIRCLE
  5
7155
330
1E
100
AcDbEntity
  8
図枠
  6
Continuous
 62
     4
100
AcDbCircle
 10
1497.995072092905
 20
887.2032775121425
 30
0.0
 40
6.0
  0
TEXT
  5
7156
330
1E
100
AcDbEntity
  8
図枠
 62
     7
100
AcDbText
 10
1494.995072092906
 20
884.2032775121426
 30
0.0
 40
5.0
  1
４
100
AcDbText
  0
LINE
  5
7157
330
1E
100
AcDbEntity
  8
図枠
  6
Continuous
 62
     4
100
AcDbLine
 10
1519.114187335579
 20
850.6238969009302
 30
0.0
 11
1500.995072092905
 21
882.0071250894356
 31
0.0
  0
CIRCLE
  5
7158
330
1E
100
AcDbEntity
  8
図枠
  6
Continuous
 62
     4
100
AcDbCircle
 10
1519.506778713818
 20
819.8057443332867
 30
0.0
 40
0.9
  0
CIRCLE
  5
7159
330
1E
100
AcDbEntity
  8
図枠
  6
Continuous
 62
     4
100
AcDbCircle
 10
1480.210135226732
 20
820.7880817495551
 30
0.0
 40
0.9
  0
TEXT
  5
715A
330
1E
100
AcDbEntity
  8
図枠
 62
     7
100
AcDbText
 10
1464.462011119645
 20
839.4354677023299
 30
0.0
 40
5.0
  1
18
100
AcDbText
  0
LINE
  5
715B
330
1E
100
AcDbEntity
  8
図枠
  6
Continuous
 62
     4
100
AcDbLine
 10
1480.210135226732
 20
820.7880817495551
 30
0.0
 11
1470.712011119645
 21
837.2393152796233
 31
0.0
  0
CIRCLE
  5
715C
330
1E
100
AcDbEntity
  8
図枠
  6
Continuous
 62
     4
100
AcDbCircle
 10
1467.712011119645
 20
842.43546770233
 30
0.0
 40
6.0
  0
CIRCLE
  5
715D
330
1E
100
AcDbEntity
  8
図枠
  6
Continuous
 62
     4
100
AcDbCircle
 10
1495.778315131995
 20
843.5342079151091
 30
0.0
 40
6.0
  0
LINE
  5
715E
330
1E
100
AcDbEntity
  8
図枠
  6
Continuous
 62
     4
100
AcDbLine
 10
1519.506778713818
 20
819.8057443332867
 30
0.0
 11
1500.020955819115
 21
839.2915672279897
 31
0.0
  0
TEXT
  5
715F
330
1E
100
AcDbEntity
  8
図枠
 62
     7
100
AcDbText
 10
1492.528315131995
 20
840.5342079151091
 30
0.0
 40
5.0
  1
19
100
AcDbText
  0
CIRCLE
  5
7160
330
1E
100
AcDbEntity
  8
図枠
  6
Continuous
 62
     4
100
AcDbCircle
 10
1517.427577757424
 20
811.2701817005659
 30
0.0
 40
0.9
  0
LINE
  5
7161
330
1E
100
AcDbEntity
  8
図枠
  6
Continuous
 62
     4
100
AcDbLine
 10
1517.427577757424
 20
811.2701817005659
 30
0.0
 11
1502.197927682437
 21
802.4773391301083
 31
0.0
  0
TEXT
  5
7162
330
1E
100
AcDbEntity
  8
図枠
 62
     7
100
AcDbText
 10
1493.75177525973
 20
796.4773391301084
 30
0.0
 40
5.0
  1
21
100
AcDbText
  0
CIRCLE
  5
7163
330
1E
100
AcDbEntity
  8
図枠
  6
Continuous
 62
     4
100
AcDbCircle
 10
1497.00177525973
 20
799.4773391301083
 30
0.0
 40
6.0
  0
CIRCLE
  5
7164
330
1E
100
AcDbEntity
  8
図枠
  6
Continuous
 62
     4
100
AcDbCircle
 10
1528.951981787467
 20
683.1358353706151
 30
0.0
 40
0.9
  0
LINE
  5
7165
330
1E
100
AcDbEntity
  8
図枠
  6
Continuous
 62
     4
100
AcDbLine
 10
1528.951981787467
 20
683.1358353706151
 30
0.0
 11
1542.835268973888
 21
707.1823941535674
 31
0.0
  0
TEXT
  5
7166
330
1E
100
AcDbEntity
  8
図枠
 62
     7
100
AcDbText
 10
1542.585268973888
 20
709.3785465762739
 30
0.0
 40
5.0
  1
12
100
AcDbText
  0
CIRCLE
  5
7167
330
1E
100
AcDbEntity
  8
図枠
  6
Continuous
 62
     4
100
AcDbCircle
 10
1545.835268973888
 20
712.3785465762741
 30
0.0
 40
6.0
  0
CIRCLE
  5
7168
330
1E
100
AcDbEntity
  8
図枠
  6
Continuous
 62
     4
100
AcDbCircle
 10
1871.353130841453
 20
802.7506358623222
 30
0.0
 40
0.9
  0
LINE
  5
7169
330
1E
100
AcDbEntity
  8
図枠
  6
Continuous
 62
     4
100
AcDbLine
 10
1871.353130841453
 20
802.7506358623222
 30
0.0
 11
1896.489611984854
 21
846.2882983261913
 31
0.0
  0
TEXT
  5
716A
330
1E
100
AcDbEntity
  8
図枠
 62
     7
100
AcDbText
 10
1896.489611984854
 20
848.4844507488981
 30
0.0
 40
5.0
  1
１
100
AcDbText
  0
CIRCLE
  5
716B
330
1E
100
AcDbEntity
  8
図枠
  6
Continuous
 62
     4
100
AcDbCircle
 10
1899.489611984854
 20
851.484450748898
 30
0.0
 40
6.0
  0
CIRCLE
  5
716C
330
1E
100
AcDbEntity
  8
図枠
  6
Continuous
 62
     4
100
AcDbCircle
 10
1539.664917748843
 20
861.0232717626081
 30
0.0
 40
0.9
  0
LINE
  5
716D
330
1E
100
AcDbEntity
  8
図枠
  6
Continuous
 62
     4
100
AcDbLine
 10
1539.664917748843
 20
861.0232717626081
 30
0.0
 11
1557.901739253673
 21
892.6103731775386
 31
0.0
  0
TEXT
  5
716E
330
1E
100
AcDbEntity
  8
図枠
 62
     7
100
AcDbText
 10
1557.901739253673
 20
894.8065256002452
 30
0.0
 40
5.0
  1
２
100
AcDbText
  0
CIRCLE
  5
716F
330
1E
100
AcDbEntity
  8
図枠
  6
Continuous
 62
     4
100
AcDbCircle
 10
1560.901739253673
 20
897.8065256002452
 30
0.0
 40
6.0
  0
LINE
  5
7176
330
1E
100
AcDbEntity
  8
躯体と製品
  6
Continuous
 62
     7
100
AcDbLine
 10
1512.143774869574
 20
876.5865099287536
 30
0.0
 11
1537.143774869574
 21
876.5865099287536
 31
0.0
  0
LINE
  5
7177
330
1E
100
AcDbEntity
  8
躯体と製品
  6
Continuous
 62
     7
100
AcDbLine
 10
1512.143774869574
 20
876.5865099287536
 30
0.0
 11
1512.143774869574
 21
615.0638876450638
 31
0.0
  0
LINE
  5
7178
330
1E
100
AcDbEntity
  8
躯体と製品
  6
Continuous
 62
     7
100
AcDbLine
 10
1529.343774869574
 20
876.5865099287536
 30
0.0
 11
1527.343774869574
 21
876.5865099287536
 31
0.0
  0
ARC
  5
7179
330
1E
100
AcDbEntity
  8
躯体と製品
  6
Continuous
 62
     7
100
AcDbCircle
 10
1529.343774869574
 20
875.5865099287536
 30
0.0
 40
1.0
100
AcDbArc
 50
0.0
 51
90.0
  0
ARC
  5
717A
330
1E
100
AcDbEntity
  8
躯体と製品
  6
Continuous
 62
     7
100
AcDbCircle
 10
1527.343774869574
 20
875.5865099287536
 30
0.0
 40
1.0
100
AcDbArc
 50
90.0
 51
180.0
  0
LINE
  5
717B
330
1E
100
AcDbEntity
  8
躯体と製品
  6
Continuous
 62
     7
100
AcDbLine
 10
1530.343774869574
 20
862.5865099287537
 30
0.0
 11
1530.343774869574
 21
875.5865099287536
 31
0.0
  0
LINE
  5
717C
330
1E
100
AcDbEntity
  8
躯体と製品
  6
Continuous
 62
     7
100
AcDbLine
 10
1526.343774869574
 20
871.8865099287537
 30
0.0
 11
1526.343774869574
 21
875.5865099287536
 31
0.0
  0
TEXT
  5
7189
330
1E
100
AcDbEntity
  8
寸法
 62
     7
100
AcDbText
 10
1684.143774869574
 20
848.039821939569
 30
0.0
 40
5.0
  1
（キャップ幅）
100
AcDbText
  0
LINE
  5
718C
330
1E
100
AcDbEntity
  8
躯体と製品
  6
Continuous
 62
     3
100
AcDbLine
 10
1513.143774869574
 20
861.5865099287537
 30
0.0
 11
1512.143774869574
 21
861.5865099287537
 31
0.0
  0
LINE
  5
718D
330
1E
100
AcDbEntity
  8
躯体と製品
  6
Continuous
 62
     3
100
AcDbLine
 10
1513.143774869574
 20
831.5865099287536
 30
0.0
 11
1513.143774869574
 21
861.5865099287537
 31
0.0
  0
LINE
  5
718E
330
1E
100
AcDbEntity
  8
躯体と製品
  6
Continuous
 62
     3
100
AcDbLine
 10
1512.143774869574
 20
831.5865099287536
 30
0.0
 11
1513.143774869574
 21
831.5865099287536
 31
0.0
  0
LINE
  5
718F
330
1E
100
AcDbEntity
  8
躯体と製品
  6
Continuous
 62
     3
100
AcDbLine
 10
1512.143774869574
 20
861.5865099287537
 30
0.0
 11
1512.143774869574
 21
831.5865099287536
 31
0.0
  0
LINE
  5
7190
330
1E
100
AcDbEntity
  8
躯体と製品
  6
Continuous
 62
     4
100
AcDbLine
 10
1512.143774869574
 20
832.9259727275433
 30
0.0
 11
1513.143774869574
 21
831.9259727275435
 31
0.0
  0
LINE
  5
7191
330
1E
100
AcDbEntity
  8
躯体と製品
  6
Continuous
 62
     4
100
AcDbLine
 10
1512.143774869575
 20
834.3401862899163
 30
0.0
 11
1513.143774869574
 21
833.3401862899165
 31
0.0
  0
LINE
  5
7192
330
1E
100
AcDbEntity
  8
躯体と製品
  6
Continuous
 62
     4
100
AcDbLine
 10
1512.143774869574
 20
835.7543998522906
 30
0.0
 11
1513.143774869574
 21
834.7543998522903
 31
0.0
  0
LINE
  5
7193
330
1E
100
AcDbEntity
  8
躯体と製品
  6
Continuous
 62
     4
100
AcDbLine
 10
1512.143774869574
 20
837.1686134146612
 30
0.0
 11
1513.143774869575
 21
836.1686134146607
 31
0.0
  0
LINE
  5
7194
330
1E
100
AcDbEntity
  8
躯体と製品
  6
Continuous
 62
     4
100
AcDbLine
 10
1512.143774869574
 20
838.5828269770344
 30
0.0
 11
1513.143774869575
 21
837.5828269770343
 31
0.0
  0
LINE
  5
7195
330
1E
100
AcDbEntity
  8
躯体と製品
  6
Continuous
 62
     4
100
AcDbLine
 10
1512.143774869575
 20
839.997040539408
 30
0.0
 11
1513.143774869574
 21
838.997040539408
 31
0.0
  0
LINE
  5
7196
330
1E
100
AcDbEntity
  8
躯体と製品
  6
Continuous
 62
     4
100
AcDbLine
 10
1512.143774869575
 20
841.4112541017809
 30
0.0
 11
1513.143774869574
 21
840.4112541017811
 31
0.0
  0
LINE
  5
7197
330
1E
100
AcDbEntity
  8
躯体と製品
  6
Continuous
 62
     4
100
AcDbLine
 10
1512.143774869575
 20
842.8254676641543
 30
0.0
 11
1513.143774869575
 21
841.8254676641543
 31
0.0
  0
LINE
  5
7198
330
1E
100
AcDbEntity
  8
躯体と製品
  6
Continuous
 62
     4
100
AcDbLine
 10
1512.143774869575
 20
844.2396812265272
 30
0.0
 11
1513.143774869575
 21
843.2396812265274
 31
0.0
  0
LINE
  5
7199
330
1E
100
AcDbEntity
  8
躯体と製品
  6
Continuous
 62
     4
100
AcDbLine
 10
1512.143774869574
 20
845.6538947889013
 30
0.0
 11
1513.143774869574
 21
844.6538947889012
 31
0.0
  0
LINE
  5
719A
330
1E
100
AcDbEntity
  8
躯体と製品
  6
Continuous
 62
     4
100
AcDbLine
 10
1512.143774869574
 20
847.0681083512731
 30
0.0
 11
1513.143774869574
 21
846.0681083512728
 31
0.0
  0
LINE
  5
719B
330
1E
100
AcDbEntity
  8
躯体と製品
  6
Continuous
 62
     4
100
AcDbLine
 10
1512.143774869574
 20
848.4823219136464
 30
0.0
 11
1513.143774869574
 21
847.482321913646
 31
0.0
  0
LINE
  5
719C
330
1E
100
AcDbEntity
  8
躯体と製品
  6
Continuous
 62
     4
100
AcDbLine
 10
1512.143774869574
 20
849.8965354760196
 30
0.0
 11
1513.143774869574
 21
848.8965354760193
 31
0.0
  0
LINE
  5
719D
330
1E
100
AcDbEntity
  8
躯体と製品
  6
Continuous
 62
     4
100
AcDbLine
 10
1512.143774869574
 20
851.3107490383932
 30
0.0
 11
1513.143774869574
 21
850.3107490383936
 31
0.0
  0
LINE
  5
719E
330
1E
100
AcDbEntity
  8
躯体と製品
  6
Continuous
 62
     4
100
AcDbLine
 10
1512.143774869574
 20
852.7249626007664
 30
0.0
 11
1513.143774869574
 21
851.7249626007666
 31
0.0
  0
LINE
  5
719F
330
1E
100
AcDbEntity
  8
躯体と製品
  6
Continuous
 62
     4
100
AcDbLine
 10
1512.143774869574
 20
854.1391761631395
 30
0.0
 11
1513.143774869574
 21
853.1391761631397
 31
0.0
  0
LINE
  5
71A0
330
1E
100
AcDbEntity
  8
躯体と製品
  6
Continuous
 62
     4
100
AcDbLine
 10
1512.143774869574
 20
855.5533897255129
 30
0.0
 11
1513.143774869574
 21
854.5533897255131
 31
0.0
  0
LINE
  5
71A1
330
1E
100
AcDbEntity
  8
躯体と製品
  6
Continuous
 62
     4
100
AcDbLine
 10
1512.143774869574
 20
856.9676032878867
 30
0.0
 11
1513.143774869574
 21
855.9676032878863
 31
0.0
  0
LINE
  5
71A2
330
1E
100
AcDbEntity
  8
躯体と製品
  6
Continuous
 62
     4
100
AcDbLine
 10
1512.143774869575
 20
858.3818168502572
 30
0.0
 11
1513.143774869575
 21
857.3818168502571
 31
0.0
  0
LINE
  5
71A3
330
1E
100
AcDbEntity
  8
躯体と製品
  6
Continuous
 62
     4
100
AcDbLine
 10
1512.143774869574
 20
859.7960304126312
 30
0.0
 11
1513.143774869574
 21
858.7960304126308
 31
0.0
  0
LINE
  5
71A4
330
1E
100
AcDbEntity
  8
躯体と製品
  6
Continuous
 62
     4
100
AcDbLine
 10
1512.143774869574
 20
861.2102439750044
 30
0.0
 11
1513.143774869574
 21
860.2102439750046
 31
0.0
  0
LINE
  5
71A5
330
1E
100
AcDbEntity
  8
躯体と製品
  6
Continuous
 62
     7
100
AcDbLine
 10
1513.143774869574
 20
861.5865099287537
 30
0.0
 11
1514.143774869574
 21
861.5865099287537
 31
0.0
  0
LINE
  5
71A6
330
1E
100
AcDbEntity
  8
躯体と製品
  6
Continuous
 62
     7
100
AcDbLine
 10
1514.143774869574
 20
785.3865099287536
 30
0.0
 11
1514.143774869574
 21
861.5865099287537
 31
0.0
  0
LINE
  5
71A7
330
1E
100
AcDbEntity
  8
躯体と製品
  6
Continuous
 62
     7
100
AcDbLine
 10
1513.143774869574
 20
785.3428489858452
 30
0.0
 11
1513.143774869574
 21
831.5865099287536
 31
0.0
  0
LINE
  5
71B0
330
1E
100
AcDbEntity
  8
躯体と製品
  6
Continuous
 62
     7
100
AcDbLine
 10
1537.143774869574
 20
946.5865099287535
 30
0.0
 11
1537.143774869574
 21
876.5865099287536
 31
0.0
  0
ARC
  5
71BB
330
1E
100
AcDbEntity
  8
躯体と製品
  6
Continuous
 62
     7
100
AcDbCircle
 10
1564.768774869574
 20
869.0865099287536
 30
0.0
 40
28.625
100
AcDbArc
 50
164.8107132628193
 51
195.1892867371807
  0
LINE
  5
71BC
330
1E
100
AcDbEntity
  8
躯体と製品
  6
Continuous
 62
     4
100
AcDbLine
 10
1530.343774869574
 20
875.195463631662
 30
0.0
 11
1531.734821166666
 21
876.5865099287536
 31
0.0
  0
LINE
  5
71BD
330
1E
100
AcDbEntity
  8
躯体と製品
  6
Continuous
 62
     4
100
AcDbLine
 10
1530.343774869574
 20
872.3670365069152
 30
0.0
 11
1534.563248291413
 21
876.5865099287536
 31
0.0
  0
LINE
  5
71BE
330
1E
100
AcDbEntity
  8
躯体と製品
  6
Continuous
 62
     4
100
AcDbLine
 10
1530.343774869574
 20
869.5386093821685
 30
0.0
 11
1537.054413937461
 21
876.2492484500551
 31
0.0
  0
LINE
  5
71BF
330
1E
100
AcDbEntity
  8
躯体と製品
  6
Continuous
 62
     4
100
AcDbLine
 10
1530.343774869574
 20
866.7101822574219
 30
0.0
 11
1536.378519289668
 21
872.7449266775163
 31
0.0
  0
LINE
  5
71C0
330
1E
100
AcDbEntity
  8
躯体と製品
  6
Continuous
 62
     4
100
AcDbLine
 10
1530.343774869574
 20
863.881755132675
 30
0.0
 11
1536.150096665565
 21
869.6880769286664
 31
0.0
  0
LINE
  5
71C1
330
1E
100
AcDbEntity
  8
躯体と製品
  6
Continuous
 62
     4
100
AcDbLine
 10
1530.876956790399
 20
861.5865099287537
 30
0.0
 11
1536.224794383745
 21
866.9343475220996
 31
0.0
  0
LINE
  5
71C2
330
1E
100
AcDbEntity
  8
躯体と製品
  6
Continuous
 62
     4
100
AcDbLine
 10
1533.705383915146
 20
861.5865099287537
 30
0.0
 11
1536.52843533575
 21
864.4095613493576
 31
0.0
  0
LINE
  5
71C3
330
1E
100
AcDbEntity
  8
躯体と製品
  6
Continuous
 62
     4
100
AcDbLine
 10
1526.484164823352
 20
876.0974605804154
 30
0.0
 11
1527.752818888004
 21
871.3144841389954
 31
0.0
  0
LINE
  5
71C6
330
1E
100
AcDbEntity
  8
躯体と製品
  6
Continuous
 62
     4
100
AcDbLine
 10
1528.809194376082
 20
867.331823133489
 30
0.0
 11
1530.203384915797
 21
862.0755592770919
 31
0.0
  0
DIMENSION
  5
71CB
330
1E
100
AcDbEntity
  8
寸法
  6
Continuous
100
AcDbDimension
  2
*D4
 10
1546.343774869574
 20
916.5865099287536
 30
0.0
 11
1529.743774869574
 21
920.0865099287536
 31
0.0
 70
    32
  1
33.2
 71
     5
 42
33.19999999999982
  3
AutoCAD
100
AcDbAlignedDimension
 13
1513.143774869574
 23
863.5865099287537
 33
0.0
 14
1546.343774869574
 24
864.1091322124436
 34
0.0
100
AcDbRotatedDimension
  0
DIMENSION
  5
71D8
330
1E
100
AcDbEntity
  8
寸法
  6
Continuous
100
AcDbDimension
  2
*D5
 10
1546.343774869574
 20
901.5865099287536
 30
0.0
 11
1536.343774869574
 21
905.0865099287536
 31
0.0
 70
    32
 71
     5
 42
19.99999999999977
  3
AutoCAD
100
AcDbAlignedDimension
 13
1526.343774869574
 23
878.5865099287535
 33
0.0
 14
1546.343774869574
 24
864.1091322124436
 34
0.0
100
AcDbRotatedDimension
  0
DIMENSION
  5
71E5
330
1E
100
AcDbEntity
  8
寸法
  6
Continuous
100
AcDbDimension
  2
*D6
 10
1888.143774869574
 20
931.5865099287535
 30
0.0
 11
1700.643774869574
 21
935.0865099287535
 31
0.0
 70
    32
  1
W
 71
     5
 42
375.0
  3
AutoCAD
100
AcDbAlignedDimension
 13
1513.143774869574
 23
863.5865099287537
 33
0.0
 14
1888.143774869574
 24
804.644620762396
 34
0.0
100
AcDbRotatedDimension
  0
DIMENSION
  5
71F2
330
1E
100
AcDbEntity
  8
寸法
  6
Continuous
100
AcDbDimension
  2
*D7
 10
1581.343774869574
 20
861.5865099287537
 30
0.0
 11
1577.843774869574
 21
869.0865099287538
 31
0.0
 70
    32
 71
     5
 42
15.0
  3
AutoCAD
100
AcDbAlignedDimension
 13
1539.143774869574
 23
876.5865099287536
 33
0.0
 14
1548.343774869574
 24
861.5865099287537
 34
0.0
 50
90.0
100
AcDbRotatedDimension
  0
DIMENSION
  5
71FF
330
1E
100
AcDbEntity
  8
寸法
  6
Continuous
100
AcDbDimension
  2
*D8
 10
1581.343774869574
 20
825.5865099287536
 30
0.0
 11
1577.843774869574
 21
843.5865099287539
 31
0.0
 70
    32
 71
     5
 42
36.0
  3
AutoCAD
100
AcDbAlignedDimension
 13
1548.343774869574
 23
861.5865099287537
 33
0.0
 14
1548.343774869574
 24
825.5865099287536
 34
0.0
 50
90.0
100
AcDbRotatedDimension
  0
DIMENSION
  5
7217
330
1E
100
AcDbEntity
  8
寸法
  6
Continuous
100
AcDbDimension
  2
*D10
 10
1948.143774869574
 20
712.6446207623957
 30
0.0
 11
1944.643774869574
 21
757.6446207623962
 31
0.0
 70
    32
 71
     5
 42
90.00000000000023
  3
AutoCAD
100
AcDbAlignedDimension
 13
1890.143774869574
 23
802.644620762396
 33
0.0
 14
1890.143774869574
 24
712.6446207623957
 34
0.0
 50
90.0
100
AcDbRotatedDimension
  0
DIMENSION
  5
7224
330
1E
100
AcDbEntity
  8
寸法
  6
Continuous
100
AcDbDimension
  2
*D11
 10
1928.143774869574
 20
712.6446207623957
 30
0.0
 11
1924.643774869574
 21
733.8542542037302
 31
0.0
 70
    32
  1
44
 71
     5
 42
42.41926688266812
  3
AutoCAD
100
AcDbAlignedDimension
 13
1815.84872840877
 23
755.0638876450639
 33
0.0
 14
1890.143774869574
 24
712.6446207623957
 34
0.0
 50
90.0
100
AcDbRotatedDimension
  0
DIMENSION
  5
7231
330
1E
100
AcDbEntity
  8
寸法
  6
Continuous
100
AcDbDimension
  2
*D12
 10
1812.143774869575
 20
630.0638876450636
 30
0.0
 11
1850.143774869575
 21
633.5638876450636
 31
0.0
 70
    32
  1
75≦
 71
     5
 42
75.99999999999909
  3
AutoCAD
100
AcDbAlignedDimension
 13
1888.143774869574
 23
710.644620762396
 33
0.0
 14
1812.143774869575
 24
630.0638876450636
 34
0.0
100
AcDbRotatedDimension
  0
DIMENSION
  5
723D
330
1E
100
AcDbEntity
  8
寸法
  6
Continuous
100
AcDbDimension
  2
*D13
 10
1662.143774869574
 20
630.0638876450636
 30
0.0
 11
1737.143774869574
 21
633.5638876450636
 31
0.0
 70
    32
  1
≦Ｃ
 71
     5
 42
150.0000000000016
  3
AutoCAD
100
AcDbAlignedDimension
 13
1812.143774869575
 23
630.0638876450636
 33
0.0
 14
1662.143774869574
 24
630.0638876450636
 34
0.0
100
AcDbRotatedDimension
1001
ACAD
1000
DSTYLE
1002
{
1070
   279
1070
     1
1002
}
  0
DIMENSION
  5
7248
330
1E
100
AcDbEntity
  8
寸法
  6
Continuous
100
AcDbDimension
  2
*D14
 10
1512.143774869574
 20
630.0638876450636
 30
0.0
 11
1587.143774869574
 21
633.5638876450636
 31
0.0
 70
    32
 71
     5
 42
149.9999999999993
  3
AutoCAD
100
AcDbAlignedDimension
 13
1662.143774869574
 23
630.0638876450636
 33
0.0
 14
1512.143774869574
 24
630.0638876450636
 34
0.0
100
AcDbRotatedDimension
1001
ACAD
1000
DSTYLE
1002
{
1070
   279
1070
     1
1002
}
  0
DIMENSION
  5
7253
330
1E
100
AcDbEntity
  8
寸法
  6
Continuous
100
AcDbDimension
  2
*D15
 10
1812.143774869574
 20
695.0638876450637
 30
0.0
 11
1787.143774869574
 21
698.5638876450637
 31
0.0
 70
    32
 71
     5
 42
50.0
  3
AutoCAD
100
AcDbAlignedDimension
 13
1762.143774869574
 23
695.0638876450637
 33
0.0
 14
1812.143774869574
 24
695.0638876450637
 34
0.0
100
AcDbRotatedDimension
  0
DIMENSION
  5
725E
330
1E
100
AcDbEntity
  8
寸法
  6
Continuous
100
AcDbDimension
  2
*D16
 10
1457.143774869575
 20
817.8865099287536
 30
0.0
 11
1453.643774869574
 21
786.475198786909
 31
0.0
 70
    32
  1
D
 71
     5
 42
62.82262228368972
  3
AutoCAD
100
AcDbAlignedDimension
 13
1658.411724062005
 23
755.0638876450639
 33
0.0
 14
1457.143774869575
 24
817.8865099287536
 34
0.0
 50
90.0
100
AcDbRotatedDimension
  0
DIMENSION
  5
726A
330
1E
100
AcDbEntity
  8
寸法
  6
Continuous
100
AcDbDimension
  2
*D17
 10
1437.143774869574
 20
755.0638876450639
 30
0.0
 11
1433.643774869574
 21
815.8251987869089
 31
0.0
 70
    32
  1
E
 71
     5
 42
121.5226222836897
  3
AutoCAD
100
AcDbAlignedDimension
 13
1510.143774869574
 23
876.5865099287536
 33
0.0
 14
1545.77774946579
 24
755.0638876450639
 34
0.0
 50
90.0
100
AcDbRotatedDimension
  0
DIMENSION
  5
72C4
330
1E
100
AcDbEntity
  8
寸法
  6
Continuous
100
AcDbDimension
  2
*D18
 10
1888.143774869574
 20
854.5865099287537
 30
0.0
 11
1708.143774869574
 21
858.0865099287537
 31
0.0
 70
    32
  1
A
 71
     5
 42
360.0
  3
AutoCAD
100
AcDbAlignedDimension
 13
1528.143774869574
 23
835.5114213042906
 33
0.0
 14
1888.143774869574
 24
835.5114213042906
 34
0.0
100
AcDbRotatedDimension
  0
ENDSEC
  0
SECTION
  2
OBJECTS
  0
DICTIONARY
  5
C
330
0
100
AcDbDictionary
281
     1
  3
ACAD_COLOR
350
6779
  3
ACAD_GROUP
350
D
  3
ACAD_LAYOUT
350
19
  3
ACAD_MATERIAL
350
6778
  3
ACAD_MLINESTYLE
350
16
  3
ACAD_PLOTSETTINGS
350
18
  3
ACAD_PLOTSTYLENAME
350
E
  3
ACAD_TABLESTYLE
350
677A
  3
ACDBHEADERROUNDTRIPXREC
350
72EE
  3
AcDbVariableDictionary
350
169
  0
DICTIONARY
  5
175
330
2
100
AcDbDictionary
280
     1
281
     1
  3
ACAD_LAYERFILTERS
360
72BA
  3
ACAD_LAYERSTATES
360
176
  3
ACLYDICTIONARY
360
72B9
  0
DICTIONARY
  5
28B
330
1E
100
AcDbDictionary
280
     1
281
     1
  3
ACAD_LAYOUTSELFREF
360
6771
  0
DICTIONARY
  5
28D
330
1A
100
AcDbDictionary
280
     1
281
     1
  3
ACAD_LAYOUTSELFREF
360
6770
  0
DICTIONARY
  5
6779
102
{ACAD_REACTORS
330
C
102
}
330
C
100
AcDbDictionary
281
     1
  0
DICTIONARY
  5
D
102
{ACAD_REACTORS
330
C
102
}
330
C
100
AcDbDictionary
281
     1
  0
DICTIONARY
  5
19
102
{ACAD_REACTORS
330
C
102
}
330
C
100
AcDbDictionary
281
     1
  3
Model
350
21
  3
ﾚｲｱｳﾄ1
350
1D
  0
DICTIONARY
  5
6778
102
{ACAD_REACTORS
330
C
102
}
330
C
100
AcDbDictionary
281
     1
  0
DICTIONARY
  5
16
102
{ACAD_REACTORS
330
C
102
}
330
C
100
AcDbDictionary
281
     1
  3
Standard
350
17
  0
DICTIONARY
  5
18
102
{ACAD_REACTORS
330
C
102
}
330
C
100
AcDbDictionary
281
     1
  0
ACDBDICTIONARYWDFLT
  5
E
102
{ACAD_REACTORS
330
C
102
}
330
C
100
AcDbDictionary
281
     1
  3
Normal
350
F
100
AcDbDictionaryWithDefault
340
F
1001
ACAD
1000
TREAT_AS_HARD
1070
     0
1000
TREAT_AS_HARD
1070
     0
1000
TREAT_AS_HARD
1070
     0
1000
TREAT_AS_HARD
1070
     0
1000
TREAT_AS_HARD
1070
     0
1000
TREAT_AS_HARD
1070
     0
1000
TREAT_AS_HARD
1070
     0
1000
TREAT_AS_HARD
1070
     0
1000
TREAT_AS_HARD
1070
     0
1000
TREAT_AS_HARD
1070
     0
1000
TREAT_AS_HARD
1070
     0
1000
TREAT_AS_HARD
1070
     0
1000
TREAT_AS_HARD
1070
     0
1000
TREAT_AS_HARD
1070
     0
1000
TREAT_AS_HARD
1070
     0
1000
TREAT_AS_HARD
1070
     0
1000
TREAT_AS_HARD
1070
     0
1000
TREAT_AS_HARD
1070
     0
1000
TREAT_AS_HARD
1070
     0
1000
TREAT_AS_HARD
1070
     0
1000
TREAT_AS_HARD
1070
     0
1000
TREAT_AS_HARD
1070
     0
1000
TREAT_AS_HARD
1070
     0
1000
TREAT_AS_HARD
1070
     0
1000
TREAT_AS_HARD
1070
     0
1000
TREAT_AS_HARD
1070
     0
  0
DICTIONARY
  5
677A
102
{ACAD_REACTORS
330
C
102
}
330
C
100
AcDbDictionary
281
     1
  3
Standard
350
677B
  0
DICTIONARY
  5
72EE
102
{ACAD_REACTORS
330
C
102
}
330
C
100
AcDbDictionary
281
     1
  0
DICTIONARY
  5
169
102
{ACAD_REACTORS
330
C
102
}
330
C
100
AcDbDictionary
281
     1
  3
CTABLESTYLE
350
6782
  3
DIMASSOC
350
16A
  3
PROJECTNAME
350
72DA
  0
DICTIONARY
  5
72BA
102
{ACAD_REACTORS
330
175
102
}
330
175
100
AcDbDictionary
281
     1
  0
DICTIONARY
  5
176
102
{ACAD_REACTORS
330
175
102
}
330
175
100
AcDbDictionary
281
     1
  3
ACAD
350
177
  0
DICTIONARY
  5
72B9
102
{ACAD_REACTORS
330
175
102
}
330
175
100
AcDbDictionary
281
     1
1001
ACAD
1000
<All
  0
XRECORD
  5
6771
102
{ACAD_REACTORS
330
28B
102
}
330
28B
100
AcDbXrecord
280
     1
340
1E
  0
XRECORD
  5
6770
102
{ACAD_REACTORS
330
28D
102
}
330
28D
100
AcDbXrecord
280
     1
340
1A
  0
LAYOUT
  5
21
102
{ACAD_XDICTIONARY
360
72F1
102
}
102
{ACAD_REACTORS
330
19
102
}
330
19
100
AcDbPlotSettings
  1

  2
\\MEISEI-1\EPSON Stylus Photo EX3
  4

  6

 40
0.0
 41
0.0
 42
0.0
 43
0.0
 44
0.0
 45
0.0
 46
0.0
 47
0.0
 48
0.0
 49
0.0
140
0.0
141
0.0
142
1.0
143
1.0
 70
  1712
 72
     0
 73
     0
 74
     0
  7

 75
     0
147
1.0
148
0.0
149
0.0
100
AcDbLayout
  1
Model
 70
     1
 71
     0
 10
0.0
 20
0.0
 11
12.0
 21
9.0
 12
0.0
 22
0.0
 32
0.0
 14
0.0
 24
0.0
 34
0.0
 15
0.0
 25
0.0
 35
0.0
146
0.0
 13
0.0
 23
0.0
 33
0.0
 16
1.0
 26
0.0
 36
0.0
 17
0.0
 27
1.0
 37
0.0
 76
     0
330
1E
  0
LAYOUT
  5
1D
102
{ACAD_XDICTIONARY
360
72EF
102
}
102
{ACAD_REACTORS
330
19
102
}
330
19
100
AcDbPlotSettings
  1

  2
\\MEISEI-1\EPSON Stylus Photo EX3
  4

  6

 40
0.0
 41
0.0
 42
0.0
 43
0.0
 44
0.0
 45
0.0
 46
0.0
 47
0.0
 48
0.0
 49
0.0
140
0.0
141
0.0
142
1.0
143
1.0
 70
   688
 72
     0
 73
     0
 74
     5
  7

 75
    16
147
1.0
148
0.0
149
0.0
100
AcDbLayout
  1
ﾚｲｱｳﾄ1
 70
     1
 71
     1
 10
0.0
 20
0.0
 11
12.0
 21
9.0
 12
0.0
 22
0.0
 32
0.0
 14
1.000000000000000E+20
 24
1.000000000000000E+20
 34
1.000000000000000E+20
 15
-1.000000000000000E+20
 25
-1.000000000000000E+20
 35
-1.000000000000000E+20
146
0.0
 13
0.0
 23
0.0
 33
0.0
 16
1.0
 26
0.0
 36
0.0
 17
0.0
 27
1.0
 37
0.0
 76
     0
330
1A
  0
MLINESTYLE
  5
17
102
{ACAD_REACTORS
330
16
102
}
330
16
100
AcDbMlineStyle
  2
STANDARD
 70
     0
  3

 62
   256
 51
90.0
 52
90.0
 71
     2
 49
0.5
 62
   256
  6
BYLAYER
 49
-0.5
 62
   256
  6
BYLAYER
  0
ACDBPLACEHOLDER
  5
F
102
{ACAD_REACTORS
330
E
102
}
330
E
  0
TABLESTYLE
  5
677B
102
{ACAD_REACTORS
330
677A
102
}
330
677A
100
AcDbTableStyle
  3
Standard
 70
     0
 71
     0
 40
0.06
 41
0.06
280
     0
281
     0
  7
STANDARD
140
0.18
170
     2
 62
     0
 63
     7
283
     0
274
    -2
284
     1
 64
     0
275
    -2
285
     1
 65
     0
276
    -2
286
     1
 66
     0
277
    -2
287
     1
 67
     0
278
    -2
288
     1
 68
     0
279
    -2
289
     1
 69
     0
  7
STANDARD
140
0.25
170
     5
 62
     0
 63
     7
283
     0
274
    -2
284
     1
 64
     0
275
    -2
285
     1
 65
     0
276
    -2
286
     1
 66
     0
277
    -2
287
     1
 67
     0
278
    -2
288
     1
 68
     0
279
    -2
289
     1
 69
     0
  7
STANDARD
140
0.18
170
     5
 62
     0
 63
     7
283
     0
274
    -2
284
     1
 64
     0
275
    -2
285
     1
 65
     0
276
    -2
286
     1
 66
     0
277
    -2
287
     1
 67
     0
278
    -2
288
     1
 68
     0
279
    -2
289
     1
 69
     0
  0
DICTIONARYVAR
  5
6782
102
{ACAD_REACTORS
330
169
102
}
330
169
100
DictionaryVariables
280
     0
  1
STANDARD
  0
DICTIONARYVAR
  5
16A
102
{ACAD_REACTORS
330
169
102
}
330
169
100
DictionaryVariables
280
     0
  1
1
  0
DICTIONARYVAR
  5
72DA
102
{ACAD_REACTORS
330
169
102
}
330
169
100
DictionaryVariables
280
     0
  1

  0
XRECORD
  5
177
102
{ACAD_REACTORS
330
176
102
}
330
176
100
AcDbXrecord
280
     1
 91
      476
330
179
 90
        8
 62
     7
370
    -3
331
15
  1
Color_7
330
178
 90
        8
 62
     7
370
    -3
331
15
  1
Color_7
330
128
 90
        0
 62
     7
370
    -3
331
15
  1
Color_7
330
10
 90
        8
 62
     7
370
    -3
331
15
  1
Color_7
  0
DICTIONARY
  5
72F1
330
21
100
AcDbDictionary
280
     1
281
     1
  3
ACAD_XREC_ROUNDTRIP
360
72F2
  0
DICTIONARY
  5
72EF
330
1D
100
AcDbDictionary
280
     1
281
     1
  3
ACAD_XREC_ROUNDTRIP
360
72F0
  0
XRECORD
  5
72F2
102
{ACAD_REACTORS
330
72F1
102
}
330
72F1
100
AcDbXrecord
280
     1
102
SHADEPLOT
 70
     0
102
SHADEPLOTRESLEVEL
 70
     2
102
SHADEPLOTCUSTOMDPI
 70
   300
  0
XRECORD
  5
72F0
102
{ACAD_REACTORS
330
72EF
102
}
330
72EF
100
AcDbXrecord
280
     1
102
SHADEPLOT
 70
     0
102
SHADEPLOTRESLEVEL
 70
     2
102
SHADEPLOTCUSTOMDPI
 70
   300
  0
ENDSEC
  0
EOF
