  0
SECTION
  2
HEADER
  9
$ACADVER
  1
AC1015
  9
$ACADMAINTVER
 70
    20
  9
$DWGCODEPAGE
  3
ANSI_932
  9
$INSBASE
 10
0.0
 20
0.0
 30
0.0
  9
$EXTMIN
 10
1365.803593649337
 20
517.3334795207369
 30
-0.0000000349181948
  9
$EXTMAX
 10
2190.004053791615
 20
1093.42754945355
 30
0.0000000814935746
  9
$LIMMIN
 10
0.0
 20
0.0
  9
$LIMMAX
 10
420.0
 20
297.0
  9
$ORTHOMODE
 70
     0
  9
$REGENMODE
 70
     1
  9
$FILLMODE
 70
     1
  9
$QTEXTMODE
 70
     0
  9
$MIRRTEXT
 70
     1
  9
$LTSCALE
 40
1.0
  9
$ATTMODE
 70
     1
  9
$TEXTSIZE
 40
5.0
  9
$TRACEWID
 40
0.05
  9
$TEXTSTYLE
  7
ACAD
  9
$CLAYER
  8
0
  9
$CELTYPE
  6
CONTINUOUS
  9
$CECOLOR
 62
   256
  9
$CELTSCALE
 40
1.0
  9
$DISPSILH
 70
     0
  9
$DIMSCALE
 40
1.0
  9
$DIMASZ
 40
1.0
  9
$DIMEXO
 40
0.0
  9
$DIMDLI
 40
0.38
  9
$DIMRND
 40
0.0
  9
$DIMDLE
 40
0.0
  9
$DIMEXE
 40
0.0
  9
$DIMTP
 40
0.0
  9
$DIMTM
 40
0.0
  9
$DIMTXT
 40
5.0
  9
$DIMCEN
 40
0.09
  9
$DIMTSZ
 40
0.0
  9
$DIMTOL
 70
     0
  9
$DIMLIM
 70
     0
  9
$DIMTIH
 70
     0
  9
$DIMTOH
 70
     1
  9
$DIMSE1
 70
     0
  9
$DIMSE2
 70
     0
  9
$DIMTAD
 70
     1
  9
$DIMZIN
 70
     0
  9
$DIMBLK
  1
Dot
  9
$DIMASO
 70
     1
  9
$DIMSHO
 70
     1
  9
$DIMPOST
  1

  9
$DIMAPOST
  1

  9
$DIMALT
 70
     0
  9
$DIMALTD
 70
     2
  9
$DIMALTF
 40
25.4
  9
$DIMLFAC
 40
1.0
  9
$DIMTOFL
 70
     0
  9
$DIMTVP
 40
0.0
  9
$DIMTIX
 70
     1
  9
$DIMSOXD
 70
     0
  9
$DIMSAH
 70
     0
  9
$DIMBLK1
  1

  9
$DIMBLK2
  1

  9
$DIMSTYLE
  2
AutoCAD
  9
$DIMCLRD
 70
     4
  9
$DIMCLRE
 70
     4
  9
$DIMCLRT
 70
     3
  9
$DIMTFAC
 40
1.0
  9
$DIMGAP
 40
1.0
  9
$DIMJUST
 70
     0
  9
$DIMSD1
 70
     0
  9
$DIMSD2
 70
     0
  9
$DIMTOLJ
 70
     1
  9
$DIMTZIN
 70
     0
  9
$DIMALTZ
 70
     0
  9
$DIMALTTZ
 70
     0
  9
$DIMUPT
 70
     0
  9
$DIMDEC
 70
     0
  9
$DIMTDEC
 70
     0
  9
$DIMALTU
 70
     2
  9
$DIMALTTD
 70
     2
  9
$DIMTXSTY
  7
ACAD
  9
$DIMAUNIT
 70
     0
  9
$DIMADEC
 70
     0
  9
$DIMALTRND
 40
0.0
  9
$DIMAZIN
 70
     0
  9
$DIMDSEP
 70
    46
  9
$DIMATFIT
 70
     0
  9
$DIMFRAC
 70
     0
  9
$DIMLDRBLK
  1
None
  9
$DIMLUNIT
 70
     2
  9
$DIMLWD
 70
    -2
  9
$DIMLWE
 70
    -2
  9
$DIMTMOVE
 70
     0
  9
$LUNITS
 70
     2
  9
$LUPREC
 70
     4
  9
$SKETCHINC
 40
0.1
  9
$FILLETRAD
 40
0.0
  9
$AUNITS
 70
     0
  9
$AUPREC
 70
     0
  9
$MENU
  1
.
  9
$ELEVATION
 40
0.0
  9
$PELEVATION
 40
0.0
  9
$THICKNESS
 40
0.0
  9
$LIMCHECK
 70
     0
  9
$CHAMFERA
 40
0.0
  9
$CHAMFERB
 40
0.0
  9
$CHAMFERC
 40
0.0
  9
$CHAMFERD
 40
0.0
  9
$SKPOLY
 70
     0
  9
$TDCREATE
 40
2454316.693457674
  9
$TDUCREATE
 40
2454316.318457674
  9
$TDUPDATE
 40
2454733.740554641
  9
$TDUUPDATE
 40
2454733.365554641
  9
$TDINDWG
 40
0.2961468750
  9
$TDUSRTIMER
 40
0.2961468750
  9
$USRTIMER
 70
     1
  9
$ANGBASE
 50
0.0
  9
$ANGDIR
 70
     0
  9
$PDMODE
 70
     0
  9
$PDSIZE
 40
0.0
  9
$PLINEWID
 40
0.0
  9
$SPLFRAME
 70
     0
  9
$SPLINETYPE
 70
     6
  9
$SPLINESEGS
 70
     8
  9
$HANDSEED
  5
72EB
  9
$SURFTAB1
 70
     6
  9
$SURFTAB2
 70
     6
  9
$SURFTYPE
 70
     6
  9
$SURFU
 70
     6
  9
$SURFV
 70
     6
  9
$UCSBASE
  2

  9
$UCSNAME
  2

  9
$UCSORG
 10
0.0
 20
0.0
 30
0.0
  9
$UCSXDIR
 10
1.0
 20
0.0
 30
0.0
  9
$UCSYDIR
 10
0.0
 20
1.0
 30
0.0
  9
$UCSORTHOREF
  2

  9
$UCSORTHOVIEW
 70
     0
  9
$UCSORGTOP
 10
0.0
 20
0.0
 30
0.0
  9
$UCSORGBOTTOM
 10
0.0
 20
0.0
 30
0.0
  9
$UCSORGLEFT
 10
0.0
 20
0.0
 30
0.0
  9
$UCSORGRIGHT
 10
0.0
 20
0.0
 30
0.0
  9
$UCSORGFRONT
 10
0.0
 20
0.0
 30
0.0
  9
$UCSORGBACK
 10
0.0
 20
0.0
 30
0.0
  9
$PUCSBASE
  2

  9
$PUCSNAME
  2

  9
$PUCSORG
 10
0.0
 20
0.0
 30
0.0
  9
$PUCSXDIR
 10
1.0
 20
0.0
 30
0.0
  9
$PUCSYDIR
 10
0.0
 20
1.0
 30
0.0
  9
$PUCSORTHOREF
  2

  9
$PUCSORTHOVIEW
 70
     0
  9
$PUCSORGTOP
 10
0.0
 20
0.0
 30
0.0
  9
$PUCSORGBOTTOM
 10
0.0
 20
0.0
 30
0.0
  9
$PUCSORGLEFT
 10
0.0
 20
0.0
 30
0.0
  9
$PUCSORGRIGHT
 10
0.0
 20
0.0
 30
0.0
  9
$PUCSORGFRONT
 10
0.0
 20
0.0
 30
0.0
  9
$PUCSORGBACK
 10
0.0
 20
0.0
 30
0.0
  9
$USERI1
 70
     0
  9
$USERI2
 70
     0
  9
$USERI3
 70
     0
  9
$USERI4
 70
     0
  9
$USERI5
 70
     0
  9
$USERR1
 40
0.0
  9
$USERR2
 40
0.0
  9
$USERR3
 40
0.0
  9
$USERR4
 40
0.0
  9
$USERR5
 40
0.0
  9
$WORLDVIEW
 70
     1
  9
$SHADEDGE
 70
     3
  9
$SHADEDIF
 70
    70
  9
$TILEMODE
 70
     1
  9
$MAXACTVP
 70
    48
  9
$PINSBASE
 10
0.0
 20
0.0
 30
0.0
  9
$PLIMCHECK
 70
     0
  9
$PEXTMIN
 10
1.000000000000000E+20
 20
1.000000000000000E+20
 30
1.000000000000000E+20
  9
$PEXTMAX
 10
-1.000000000000000E+20
 20
-1.000000000000000E+20
 30
-1.000000000000000E+20
  9
$PLIMMIN
 10
0.0
 20
0.0
  9
$PLIMMAX
 10
12.0
 20
9.0
  9
$UNITMODE
 70
     0
  9
$VISRETAIN
 70
     0
  9
$PLINEGEN
 70
     0
  9
$PSLTSCALE
 70
     1
  9
$TREEDEPTH
 70
  3020
  9
$CMLSTYLE
  2
Standard
  9
$CMLJUST
 70
     0
  9
$CMLSCALE
 40
1.0
  9
$PROXYGRAPHICS
 70
     1
  9
$MEASUREMENT
 70
     0
  9
$CELWEIGHT
370
    -1
  9
$ENDCAPS
280
     0
  9
$JOINSTYLE
280
     0
  9
$LWDISPLAY
290
     0
  9
$INSUNITS
 70
     0
  9
$HYPERLINKBASE
  1

  9
$STYLESHEET
  1

  9
$XEDIT
290
     1
  9
$CEPSNTYPE
380
     0
  9
$PSTYLEMODE
290
     1
  9
$FINGERPRINTGUID
  2
{CC7D6DEE-A9F1-4F3E-AC95-C84B62CCA3FD}
  9
$VERSIONGUID
  2
{09D7B341-1DD0-4DE3-9219-1ACF8B5AD47C}
  9
$EXTNAMES
290
     1
  9
$PSVPSCALE
 40
0.0
  9
$OLESTARTUP
290
     0
  0
ENDSEC
  0
SECTION
  2
CLASSES
  0
CLASS
  1
ACDBDICTIONARYWDFLT
  2
AcDbDictionaryWithDefault
  3
ObjectDBX Classes
 90
        0
280
     0
281
     0
  0
CLASS
  1
ACDBPLACEHOLDER
  2
AcDbPlaceHolder
  3
ObjectDBX Classes
 90
        0
280
     0
281
     0
  0
CLASS
  1
LAYOUT
  2
AcDbLayout
  3
ObjectDBX Classes
 90
        0
280
     0
281
     0
  0
CLASS
  1
DICTIONARYVAR
  2
AcDbDictionaryVar
  3
ObjectDBX Classes
 90
        0
280
     0
281
     0
  0
CLASS
  1
TABLESTYLE
  2
AcDbTableStyle
  3
ObjectDBX Classes
 90
     2047
280
     0
281
     0
  0
ENDSEC
  0
SECTION
  2
TABLES
  0
TABLE
  2
VPORT
  5
8
330
0
100
AcDbSymbolTable
 70
     3
  0
VPORT
  5
72E5
330
8
100
AcDbSymbolTableRecord
100
AcDbViewportTableRecord
  2
*Active
 70
     0
 10
0.0
 20
0.0
 11
1.0
 21
1.0
 12
1792.082059358052
 22
785.7656192027052
 13
0.0
 23
0.0
 14
1.0
 24
1.0
 15
0.0
 25
0.0
 16
0.0
 26
0.0
 36
1.0
 17
0.0
 27
0.0
 37
0.0
 40
650.3244782212288
 41
1.542635658914728
 42
50.0
 43
0.0
 44
0.0
 50
0.0
 51
0.0
 71
     0
 72
   100
 73
     1
 74
     1
 75
     0
 76
     0
 77
     0
 78
     0
281
     0
 65
     1
110
0.0
120
0.0
130
0.0
111
1.0
121
0.0
131
0.0
112
0.0
122
1.0
132
0.0
 79
     0
146
0.0
  0
ENDTAB
  0
TABLE
  2
LTYPE
  5
5
330
0
100
AcDbSymbolTable
 70
    50
  0
LTYPE
  5
13
330
5
100
AcDbSymbolTableRecord
100
AcDbLinetypeTableRecord
  2
ByBlock
 70
     0
  3

 72
    65
 73
     0
 40
0.0
  0
LTYPE
  5
14
330
5
100
AcDbSymbolTableRecord
100
AcDbLinetypeTableRecord
  2
ByLayer
 70
     0
  3

 72
    65
 73
     0
 40
0.0
  0
LTYPE
  5
15
330
5
100
AcDbSymbolTableRecord
100
AcDbLinetypeTableRecord
  2
CONTINUOUS
 70
     0
  3
実線
 72
    65
 73
     0
 40
0.0
  0
LTYPE
  5
22
330
5
100
AcDbSymbolTableRecord
100
AcDbLinetypeTableRecord
  2
DASHED1
 70
     0
  3
--  --  --  --  --  --  --  --  
 72
    65
 73
     2
 40
2.5
 49
1.25
 74
     0
 49
-1.25
 74
     0
  0
LTYPE
  5
23
330
5
100
AcDbSymbolTableRecord
100
AcDbLinetypeTableRecord
  2
DASHED2
 70
     0
  3
----    ----    ----    ----    
 72
    65
 73
     2
 40
5.0
 49
2.5
 74
     0
 49
-2.5
 74
     0
  0
LTYPE
  5
24
330
5
100
AcDbSymbolTableRecord
100
AcDbLinetypeTableRecord
  2
DASHED3
 70
     0
  3
------  ------  ------  ------  
 72
    65
 73
     2
 40
5.0
 49
3.75
 74
     0
 49
-1.25
 74
     0
  0
LTYPE
  5
25
330
5
100
AcDbSymbolTableRecord
100
AcDbLinetypeTableRecord
  2
CENTER1
 70
     0
  3
----- - ----- - ----- - ----- - 
 72
    65
 73
     4
 40
10.0
 49
6.25
 74
     0
 49
-1.25
 74
     0
 49
1.25
 74
     0
 49
-1.25
 74
     0
  0
LTYPE
  5
26
330
5
100
AcDbSymbolTableRecord
100
AcDbLinetypeTableRecord
  2
CENTER2
 70
     0
  3
----------  --  ----------  --  
 72
    65
 73
     4
 40
20.0
 49
12.5
 74
     0
 49
-2.5
 74
     0
 49
2.5
 74
     0
 49
-2.5
 74
     0
  0
LTYPE
  5
27
330
5
100
AcDbSymbolTableRecord
100
AcDbLinetypeTableRecord
  2
PHANTOM1
 70
     0
  3
--- - - --- - - --- - - --- - - 
 72
    65
 73
     6
 40
10.0
 49
3.25
 74
     0
 49
-1.25
 74
     0
 49
1.25
 74
     0
 49
-1.25
 74
     0
 49
1.25
 74
     0
 49
-1.25
 74
     0
  0
LTYPE
  5
28
330
5
100
AcDbSymbolTableRecord
100
AcDbLinetypeTableRecord
  2
PHANTOM2
 70
     0
  3
--------  -  -  --------  -  -  
 72
    65
 73
     6
 40
20.0
 49
10.0
 74
     0
 49
-2.5
 74
     0
 49
1.25
 74
     0
 49
-2.5
 74
     0
 49
1.25
 74
     0
 49
-2.5
 74
     0
  0
LTYPE
  5
29
330
5
100
AcDbSymbolTableRecord
100
AcDbLinetypeTableRecord
  2
DOT
 70
     0
  3
-   -   -   -   -   -   -   -   
 72
    65
 73
     2
 40
2.5
 49
0.625
 74
     0
 49
-1.875
 74
     0
  0
LTYPE
  5
2A
330
5
100
AcDbSymbolTableRecord
100
AcDbLinetypeTableRecord
  2
DUMMY
 70
     0
  3
ダミー
 72
    65
 73
     0
 40
0.0
  0
LTYPE
  5
2B
330
5
100
AcDbSymbolTableRecord
100
AcDbLinetypeTableRecord
  2
RAND1
 70
     0
  3
ランダム線1
 72
    65
 73
     4
 40
10.0
 49
1.0
 74
     0
 49
-2.0
 74
     0
 49
3.0
 74
     0
 49
-4.0
 74
     0
  0
LTYPE
  5
2C
330
5
100
AcDbSymbolTableRecord
100
AcDbLinetypeTableRecord
  2
RAND2
 70
     0
  3
ランダム線2
 72
    65
 73
     4
 40
14.0
 49
2.0
 74
     0
 49
-3.0
 74
     0
 49
4.0
 74
     0
 49
-5.0
 74
     0
  0
LTYPE
  5
2D
330
5
100
AcDbSymbolTableRecord
100
AcDbLinetypeTableRecord
  2
RAND3
 70
     0
  3
ランダム線3
 72
    65
 73
     4
 40
18.0
 49
3.0
 74
     0
 49
-4.0
 74
     0
 49
5.0
 74
     0
 49
-6.0
 74
     0
  0
LTYPE
  5
2E
330
5
100
AcDbSymbolTableRecord
100
AcDbLinetypeTableRecord
  2
RAND4
 70
     0
  3
ランダム線4
 72
    65
 73
     4
 40
22.0
 49
4.0
 74
     0
 49
-5.0
 74
     0
 49
6.0
 74
     0
 49
-7.0
 74
     0
  0
LTYPE
  5
2F
330
5
100
AcDbSymbolTableRecord
100
AcDbLinetypeTableRecord
  2
RAND5
 70
     0
  3
ランダム線5
 72
    65
 73
     4
 40
26.0
 49
5.0
 74
     0
 49
-6.0
 74
     0
 49
7.0
 74
     0
 49
-8.0
 74
     0
  0
LTYPE
  5
30
330
5
100
AcDbSymbolTableRecord
100
AcDbLinetypeTableRecord
  2
LONG1
 70
     0
  3
----------  --  ----------  --  
 72
    65
 73
     4
 40
40.0
 49
32.5
 74
     0
 49
-2.5
 74
     0
 49
2.5
 74
     0
 49
-2.5
 74
     0
  0
LTYPE
  5
31
330
5
100
AcDbSymbolTableRecord
100
AcDbLinetypeTableRecord
  2
LONG2
 70
     0
  3
--------  -  -  --------  -  -  
 72
    65
 73
     6
 40
40.0
 49
30.0
 74
     0
 49
-2.5
 74
     0
 49
1.25
 74
     0
 49
-2.5
 74
     0
 49
1.25
 74
     0
 49
-2.5
 74
     0
  0
LTYPE
  5
32
330
5
100
AcDbSymbolTableRecord
100
AcDbLinetypeTableRecord
  2
LONG3
 70
     0
  3
+++++++++++++++..+++++++++++++++
 72
    65
 73
     2
 40
40.0
 49
37.5
 74
     0
 49
-2.5
 74
     0
  0
LTYPE
  5
33
330
5
100
AcDbSymbolTableRecord
100
AcDbLinetypeTableRecord
  2
LONG4
 70
     0
  3
+++++++++++++++..+++++++++++++++
 72
    65
 73
     2
 40
80.0
 49
75.0
 74
     0
 49
-5.0
 74
     0
  0
LTYPE
  5
34
330
5
100
AcDbSymbolTableRecord
100
AcDbLinetypeTableRecord
  2
LONG5
 70
     0
  3
----------  --  ----------  --  
 72
    65
 73
     4
 40
60.0
 49
37.5
 74
     0
 49
-7.5
 74
     0
 49
7.5
 74
     0
 49
-7.5
 74
     0
  0
LTYPE
  5
35
330
5
100
AcDbSymbolTableRecord
100
AcDbLinetypeTableRecord
  2
DASHED
 70
     0
  3
-------   -------------   ------
 72
    65
 73
     2
 40
7.5
 49
6.0
 74
     0
 49
-1.5
 74
     0
  0
LTYPE
  5
36
330
5
100
AcDbSymbolTableRecord
100
AcDbLinetypeTableRecord
  2
DASHED_SPACED
 70
     0
  3
----        --------        ----
 72
    65
 73
     2
 40
12.0
 49
6.0
 74
     0
 49
-6.0
 74
     0
  0
LTYPE
  5
37
330
5
100
AcDbSymbolTableRecord
100
AcDbLinetypeTableRecord
  2
LONG_DASHED_DOTTED
 70
     0
  3
------------- --- --------------
 72
    65
 73
     4
 40
15.25
 49
12.0
 74
     0
 49
-1.5
 74
     0
 49
0.25
 74
     0
 49
-1.5
 74
     0
  0
LTYPE
  5
38
330
5
100
AcDbSymbolTableRecord
100
AcDbLinetypeTableRecord
  2
LONG_DASHED_DOUBLE-DOTTED
 70
     0
  3
----------- --- --- ------------
 72
    65
 73
     6
 40
17.0
 49
12.0
 74
     0
 49
-1.5
 74
     0
 49
0.25
 74
     0
 49
-1.5
 74
     0
 49
0.25
 74
     0
 49
-1.5
 74
     0
  0
LTYPE
  5
39
330
5
100
AcDbSymbolTableRecord
100
AcDbLinetypeTableRecord
  2
LONG_DASHED_TRIPLICATE-DOTTED
 70
     0
  3
--------- --- --- --- ----------
 72
    65
 73
     8
 40
18.75
 49
12.0
 74
     0
 49
-1.5
 74
     0
 49
0.25
 74
     0
 49
-1.5
 74
     0
 49
0.25
 74
     0
 49
-1.5
 74
     0
 49
0.25
 74
     0
 49
-1.5
 74
     0
  0
LTYPE
  5
3A
330
5
100
AcDbSymbolTableRecord
100
AcDbLinetypeTableRecord
  2
DOTTED
 70
     0
  3
   -       -       -       -    
 72
    65
 73
     2
 40
1.75
 49
0.25
 74
     0
 49
-1.5
 74
     0
  0
LTYPE
  5
3B
330
5
100
AcDbSymbolTableRecord
100
AcDbLinetypeTableRecord
  2
CHAIN
 70
     0
  3
-------------- -- --------------
 72
    65
 73
     4
 40
18.5
 49
12.0
 74
     0
 49
-1.5
 74
     0
 49
3.5
 74
     0
 49
-1.5
 74
     0
  0
LTYPE
  5
3C
330
5
100
AcDbSymbolTableRecord
100
AcDbLinetypeTableRecord
  2
CHAIN_DOUBLE_DASH
 70
     0
  3
------------ -- -- -------------
 72
    65
 73
     6
 40
23.5
 49
12.0
 74
     0
 49
-1.5
 74
     0
 49
3.5
 74
     0
 49
-1.5
 74
     0
 49
3.5
 74
     0
 49
-1.5
 74
     0
  0
LTYPE
  5
3D
330
5
100
AcDbSymbolTableRecord
100
AcDbLinetypeTableRecord
  2
DASHED_DOTTED
 70
     0
  3
-----------     -     ----------
 72
    65
 73
     4
 40
9.25
 49
6.0
 74
     0
 49
-1.5
 74
     0
 49
0.25
 74
     0
 49
-1.5
 74
     0
  0
LTYPE
  5
3E
330
5
100
AcDbSymbolTableRecord
100
AcDbLinetypeTableRecord
  2
DOUBLE-DASHED_DOTTED
 70
     0
  3
------   -----------   -   -----
 72
    65
 73
     6
 40
16.75
 49
6.0
 74
     0
 49
-1.5
 74
     0
 49
6.0
 74
     0
 49
-1.5
 74
     0
 49
0.25
 74
     0
 49
-1.5
 74
     0
  0
LTYPE
  5
3F
330
5
100
AcDbSymbolTableRecord
100
AcDbLinetypeTableRecord
  2
DASHED_DOUBLE-DOTTED
 70
     0
  3
---------    -    -    ---------
 72
    65
 73
     6
 40
11.0
 49
6.0
 74
     0
 49
-1.5
 74
     0
 49
0.25
 74
     0
 49
-1.5
 74
     0
 49
0.25
 74
     0
 49
-1.5
 74
     0
  0
LTYPE
  5
40
330
5
100
AcDbSymbolTableRecord
100
AcDbLinetypeTableRecord
  2
DOUBLE-DASHED_DOUBLE-DOTTED
 70
     0
  3
-----   ---------   -   -   ----
 72
    65
 73
     8
 40
18.5
 49
6.0
 74
     0
 49
-1.5
 74
     0
 49
6.0
 74
     0
 49
-1.5
 74
     0
 49
0.25
 74
     0
 49
-1.5
 74
     0
 49
0.25
 74
     0
 49
-1.5
 74
     0
  0
LTYPE
  5
41
330
5
100
AcDbSymbolTableRecord
100
AcDbLinetypeTableRecord
  2
DASHED_TRIPLICATE-DOTTED
 70
     0
  3
-------    -    -    -    ------
 72
    65
 73
     8
 40
12.75
 49
6.0
 74
     0
 49
-1.5
 74
     0
 49
0.25
 74
     0
 49
-1.5
 74
     0
 49
0.25
 74
     0
 49
-1.5
 74
     0
 49
0.25
 74
     0
 49
-1.5
 74
     0
  0
LTYPE
  5
42
330
5
100
AcDbSymbolTableRecord
100
AcDbLinetypeTableRecord
  2
DOUBLE-DASHED_TRIPLICATE-DOTTED
 70
     0
  3
-----  ---------  -  -  -  -----
 72
    65
 73
    10
 40
20.25
 49
6.0
 74
     0
 49
-1.5
 74
     0
 49
6.0
 74
     0
 49
-1.5
 74
     0
 49
0.25
 74
     0
 49
-1.5
 74
     0
 49
0.25
 74
     0
 49
-1.5
 74
     0
 49
0.25
 74
     0
 49
-1.5
 74
     0
  0
LTYPE
  5
43
330
5
100
AcDbSymbolTableRecord
100
AcDbLinetypeTableRecord
  2
UNDEFINED
 70
     0
  3
--------------------------------
 72
    65
 73
     0
 40
0.0
  0
LTYPE
  5
44
330
5
100
AcDbSymbolTableRecord
100
AcDbLinetypeTableRecord
  2
PLINE2
 70
     0
  3
------     -----------     -----
 72
    65
 73
     2
 40
3.0
 49
2.1
 74
     0
 49
-0.9
 74
     0
  0
LTYPE
  5
45
330
5
100
AcDbSymbolTableRecord
100
AcDbLinetypeTableRecord
  2
PLINE3
 70
     0
  3
------------   ---   -----------
 72
    65
 73
     4
 40
10.0
 49
7.0
 74
     0
 49
-1.0
 74
     0
 49
1.0
 74
     0
 49
-1.0
 74
     0
  0
LTYPE
  5
46
330
5
100
AcDbSymbolTableRecord
100
AcDbLinetypeTableRecord
  2
PLINE4
 70
     0
  3
---------   ---   ---   --------
 72
    65
 73
     6
 40
10.0
 49
5.0
 74
     0
 49
-1.0
 74
     0
 49
1.0
 74
     0
 49
-1.0
 74
     0
 49
1.0
 74
     0
 49
-1.0
 74
     0
  0
LTYPE
  5
47
330
5
100
AcDbSymbolTableRecord
100
AcDbLinetypeTableRecord
  2
PLINE5
 70
     0
  3
------     -----------     -----
 72
    65
 73
     2
 40
5.0
 49
3.5
 74
     0
 49
-1.5
 74
     0
  0
LTYPE
  5
48
330
5
100
AcDbSymbolTableRecord
100
AcDbLinetypeTableRecord
  2
PLINE6
 70
     0
  3
------------   ---   -----------
 72
    65
 73
     4
 40
15.0
 49
10.5
 74
     0
 49
-1.5
 74
     0
 49
1.5
 74
     0
 49
-1.5
 74
     0
  0
LTYPE
  5
49
330
5
100
AcDbSymbolTableRecord
100
AcDbLinetypeTableRecord
  2
PLINE7
 70
     0
  3
---------   ---   ---   --------
 72
    65
 73
     6
 40
15.0
 49
7.5
 74
     0
 49
-1.5
 74
     0
 49
1.5
 74
     0
 49
-1.5
 74
     0
 49
1.5
 74
     0
 49
-1.5
 74
     0
  0
LTYPE
  5
4A
330
5
100
AcDbSymbolTableRecord
100
AcDbLinetypeTableRecord
  2
PLINE8
 70
     0
  3
------     -----------     -----
 72
    65
 73
     2
 40
7.0
 49
4.9
 74
     0
 49
-2.1
 74
     0
  0
LTYPE
  5
4B
330
5
100
AcDbSymbolTableRecord
100
AcDbLinetypeTableRecord
  2
PLINE9
 70
     0
  3
------------   ---   -----------
 72
    65
 73
     4
 40
20.0
 49
14.0
 74
     0
 49
-2.0
 74
     0
 49
2.0
 74
     0
 49
-2.0
 74
     0
  0
LTYPE
  5
4C
330
5
100
AcDbSymbolTableRecord
100
AcDbLinetypeTableRecord
  2
PLINE10
 70
     0
  3
---------   ---   ---   --------
 72
    65
 73
     6
 40
20.0
 49
10.0
 74
     0
 49
-2.0
 74
     0
 49
2.0
 74
     0
 49
-2.0
 74
     0
 49
2.0
 74
     0
 49
-2.0
 74
     0
  0
LTYPE
  5
4D
330
5
100
AcDbSymbolTableRecord
100
AcDbLinetypeTableRecord
  2
PLINE11
 70
     0
  3
------     -----------     -----
 72
    65
 73
     2
 40
9.0
 49
6.299999999999999
 74
     0
 49
-2.7
 74
     0
  0
LTYPE
  5
4E
330
5
100
AcDbSymbolTableRecord
100
AcDbLinetypeTableRecord
  2
PLINE12
 70
     0
  3
------------   ---   -----------
 72
    65
 73
     4
 40
25.0
 49
17.5
 74
     0
 49
-2.5
 74
     0
 49
2.5
 74
     0
 49
-2.5
 74
     0
  0
LTYPE
  5
4F
330
5
100
AcDbSymbolTableRecord
100
AcDbLinetypeTableRecord
  2
PLINE13
 70
     0
  3
---------   ---   ---   --------
 72
    65
 73
     6
 40
25.0
 49
12.5
 74
     0
 49
-2.5
 74
     0
 49
2.5
 74
     0
 49
-2.5
 74
     0
 49
2.5
 74
     0
 49
-2.5
 74
     0
  0
LTYPE
  5
50
330
5
100
AcDbSymbolTableRecord
100
AcDbLinetypeTableRecord
  2
PLINE14
 70
     0
  3
------     -----------     -----
 72
    65
 73
     2
 40
11.0
 49
7.7
 74
     0
 49
-3.299999999999999
 74
     0
  0
LTYPE
  5
51
330
5
100
AcDbSymbolTableRecord
100
AcDbLinetypeTableRecord
  2
PLINE15
 70
     0
  3
------------   ---   -----------
 72
    65
 73
     4
 40
30.0
 49
21.0
 74
     0
 49
-3.0
 74
     0
 49
3.0
 74
     0
 49
-3.0
 74
     0
  0
LTYPE
  5
52
330
5
100
AcDbSymbolTableRecord
100
AcDbLinetypeTableRecord
  2
PLINE16
 70
     0
  3
---------   ---   ---   --------
 72
    65
 73
     6
 40
30.0
 49
15.0
 74
     0
 49
-3.0
 74
     0
 49
3.0
 74
     0
 49
-3.0
 74
     0
 49
3.0
 74
     0
 49
-3.0
 74
     0
  0
ENDTAB
  0
TABLE
  2
LAYER
  5
2
102
{ACAD_XDICTIONARY
360
175
102
}
330
0
100
AcDbSymbolTable
 70
     5
  0
LAYER
  5
10
330
2
100
AcDbSymbolTableRecord
100
AcDbLayerTableRecord
  2
0
 70
     0
 62
     7
  6
CONTINUOUS
370
    -3
390
F
  0
LAYER
  5
128
330
2
100
AcDbSymbolTableRecord
100
AcDbLayerTableRecord
  2
Defpoints
 70
     0
 62
     7
  6
CONTINUOUS
290
     0
370
    -3
390
F
  0
LAYER
  5
178
330
2
100
AcDbSymbolTableRecord
100
AcDbLayerTableRecord
  2
寸法
 70
     0
 62
     7
  6
CONTINUOUS
370
    -3
390
F
  0
LAYER
  5
179
330
2
100
AcDbSymbolTableRecord
100
AcDbLayerTableRecord
  2
躯体と製品
 70
     0
 62
     7
  6
CONTINUOUS
370
    -3
390
F
  0
LAYER
  5
4F62
330
2
100
AcDbSymbolTableRecord
100
AcDbLayerTableRecord
  2
図枠
 70
     0
 62
     7
  6
CONTINUOUS
370
    -3
390
F
  0
ENDTAB
  0
TABLE
  2
STYLE
  5
3
330
0
100
AcDbSymbolTable
 70
     5
  0
STYLE
  5
11
330
3
100
AcDbSymbolTableRecord
100
AcDbTextStyleTableRecord
  2
STANDARD
 70
     0
 40
0.0
 41
1.0
 50
0.0
 71
     0
 42
0.2
  3
txt
  4
bigfont.shx
  0
STYLE
  5
53
330
3
100
AcDbSymbolTableRecord
100
AcDbTextStyleTableRecord
  2
TATEGAKI
 70
     4
 40
0.0
 41
1.0
 50
0.0
 71
     0
 42
1.0
  3
txt
  4
bigfont.shx
  0
STYLE
  5
123
330
3
100
AcDbSymbolTableRecord
100
AcDbTextStyleTableRecord
  2
ACAD
 70
     0
 40
5.0
 41
0.8
 50
0.0
 71
     0
 42
5.0
  3
romans.shx
  4
extfont.shx
  0
STYLE
  5
3A5F
330
3
100
AcDbSymbolTableRecord
100
AcDbTextStyleTableRecord
  2
VERTXT
 70
     4
 40
0.0
 41
0.8582679999999999
 50
0.0
 71
     0
 42
3.5
  3
txt.shx
  4
BIGFONT
  0
STYLE
  5
50AD
330
3
100
AcDbSymbolTableRecord
100
AcDbTextStyleTableRecord
  2
STANDARD2
 70
     0
 40
0.0
 41
0.8582679999999999
 50
0.0
 71
     0
 42
3.5
  3
txt.shx
  4
EXTFONT
  0
ENDTAB
  0
TABLE
  2
VIEW
  5
6
330
0
100
AcDbSymbolTable
 70
     0
  0
ENDTAB
  0
TABLE
  2
UCS
  5
7
330
0
100
AcDbSymbolTable
 70
     0
  0
ENDTAB
  0
TABLE
  2
APPID
  5
9
330
0
100
AcDbSymbolTable
 70
     1
  0
APPID
  5
12
330
9
100
AcDbSymbolTableRecord
100
AcDbRegAppTableRecord
  2
ACAD
 70
     0
  0
ENDTAB
  0
TABLE
  2
DIMSTYLE
  5
A
330
0
100
AcDbSymbolTable
 70
     3
100
AcDbDimStyleTable
 71
     1
340
126
  0
DIMSTYLE
105
11C
330
A
100
AcDbSymbolTableRecord
100
AcDbDimStyleTableRecord
  2
Standard
 70
     0
340
11
  0
DIMSTYLE
105
126
102
{ACAD_REACTORS
330
71E0
330
71ED
330
71FA
330
7207
330
7214
330
7221
330
722C
330
7239
330
7246
330
725F
330
726A
330
7277
330
7283
330
728E
102
}
330
A
100
AcDbSymbolTableRecord
100
AcDbDimStyleTableRecord
  2
AutoCAD
 70
     0
 41
1.0
 42
0.0
 44
0.0
 73
     0
 77
     1
140
5.0
147
1.0
174
     1
176
     4
177
     4
178
     3
271
     0
272
     0
289
     0
340
123
341
15B0
342
11E
  0
DIMSTYLE
105
2CBB
330
A
100
AcDbSymbolTableRecord
100
AcDbDimStyleTableRecord
  2
111
 70
     0
 41
1.0
 42
0.0
 44
0.0
 73
     0
 77
     1
140
5.0
147
1.0
174
     1
176
     4
177
     4
178
     3
271
     0
272
     0
289
     0
340
123
341
15B0
342
2CB5
  0
ENDTAB
  0
TABLE
  2
BLOCK_RECORD
  5
1
330
0
100
AcDbSymbolTable
 70
    18
  0
BLOCK_RECORD
  5
1E
102
{ACAD_XDICTIONARY
360
28B
102
}
330
1
100
AcDbSymbolTableRecord
100
AcDbBlockTableRecord
  2
*Model_Space
340
21
  0
BLOCK_RECORD
  5
1A
102
{ACAD_XDICTIONARY
360
28D
102
}
330
1
100
AcDbSymbolTableRecord
100
AcDbBlockTableRecord
  2
*Paper_Space
340
1D
  0
BLOCK_RECORD
  5
11E
330
1
100
AcDbSymbolTableRecord
100
AcDbBlockTableRecord
  2
_Dot
340
0
102
{BLKREFS
331
71F2
331
71F3
331
720C
331
720D
331
7219
331
721A
331
7231
331
7232
331
7262
331
7263
331
7286
331
7287
331
729A
331
729B
331
72A3
331
72A4
331
72AC
331
72AD
331
72B4
331
72B5
331
72BD
331
72BE
331
72C4
331
72C5
331
72CC
331
72CD
331
72D5
331
72D6
102
}
  0
BLOCK_RECORD
  5
15B0
330
1
100
AcDbSymbolTableRecord
100
AcDbBlockTableRecord
  2
_None
340
0
  0
BLOCK_RECORD
  5
2CB5
330
1
100
AcDbSymbolTableRecord
100
AcDbBlockTableRecord
  2
_Open30
340
0
  0
BLOCK_RECORD
  5
35E3
330
1
100
AcDbSymbolTableRecord
100
AcDbBlockTableRecord
  2
_DotBlank
340
0
  0
BLOCK_RECORD
  5
71E1
330
1
100
AcDbSymbolTableRecord
100
AcDbBlockTableRecord
  2
*D4
340
0
  0
BLOCK_RECORD
  5
71EE
330
1
100
AcDbSymbolTableRecord
100
AcDbBlockTableRecord
  2
*D5
340
0
  0
BLOCK_RECORD
  5
71FB
330
1
100
AcDbSymbolTableRecord
100
AcDbBlockTableRecord
  2
*D6
340
0
  0
BLOCK_RECORD
  5
7208
330
1
100
AcDbSymbolTableRecord
100
AcDbBlockTableRecord
  2
*D7
340
0
  0
BLOCK_RECORD
  5
7215
330
1
100
AcDbSymbolTableRecord
100
AcDbBlockTableRecord
  2
*D8
340
0
  0
BLOCK_RECORD
  5
7222
330
1
100
AcDbSymbolTableRecord
100
AcDbBlockTableRecord
  2
*D9
340
0
  0
BLOCK_RECORD
  5
722D
330
1
100
AcDbSymbolTableRecord
100
AcDbBlockTableRecord
  2
*D10
340
0
  0
BLOCK_RECORD
  5
723A
330
1
100
AcDbSymbolTableRecord
100
AcDbBlockTableRecord
  2
*D11
340
0
  0
BLOCK_RECORD
  5
7247
330
1
100
AcDbSymbolTableRecord
100
AcDbBlockTableRecord
  2
*D12
340
0
  0
BLOCK_RECORD
  5
7260
330
1
100
AcDbSymbolTableRecord
100
AcDbBlockTableRecord
  2
*D13
340
0
  0
BLOCK_RECORD
  5
726B
330
1
100
AcDbSymbolTableRecord
100
AcDbBlockTableRecord
  2
*D14
340
0
  0
BLOCK_RECORD
  5
7278
330
1
100
AcDbSymbolTableRecord
100
AcDbBlockTableRecord
  2
*D15
340
0
  0
BLOCK_RECORD
  5
7284
330
1
100
AcDbSymbolTableRecord
100
AcDbBlockTableRecord
  2
*D16
340
0
  0
BLOCK_RECORD
  5
728F
330
1
100
AcDbSymbolTableRecord
100
AcDbBlockTableRecord
  2
*D17
340
0
  0
ENDTAB
  0
ENDSEC
  0
SECTION
  2
BLOCKS
  0
BLOCK
  5
1F
330
1E
100
AcDbEntity
  8
0
100
AcDbBlockBegin
  2
*Model_Space
 70
     0
 10
0.0
 20
0.0
 30
0.0
  3
*Model_Space
  1

  0
ENDBLK
  5
20
330
1E
100
AcDbEntity
  8
0
100
AcDbBlockEnd
  0
BLOCK
  5
1B
330
1A
100
AcDbEntity
 67
     1
  8
0
100
AcDbBlockBegin
  2
*Paper_Space
 70
     0
 10
0.0
 20
0.0
 30
0.0
  3
*Paper_Space
  1

  0
ENDBLK
  5
1C
330
1A
100
AcDbEntity
 67
     1
  8
0
100
AcDbBlockEnd
  0
BLOCK
  5
121
330
11E
100
AcDbEntity
  8
0
100
AcDbBlockBegin
  2
_Dot
 70
     0
 10
0.0
 20
0.0
 30
0.0
  3
_Dot
  1

  0
LWPOLYLINE
  5
11F
330
11E
100
AcDbEntity
  8
0
  6
ByBlock
 62
     0
100
AcDbPolyline
 90
        2
 70
     1
 43
0.5
 10
-0.25
 20
0.0
 42
1.0
 10
0.25
 20
0.0
 42
1.0
  0
LINE
  5
120
330
11E
100
AcDbEntity
  8
0
  6
ByBlock
 62
     0
370
    -2
100
AcDbLine
 10
-0.5
 20
0.0
 30
0.0
 11
-1.0
 21
0.0
 31
0.0
  0
ENDBLK
  5
122
330
11E
100
AcDbEntity
  8
0
100
AcDbBlockEnd
  0
BLOCK
  5
15B1
330
15B0
100
AcDbEntity
  8
0
100
AcDbBlockBegin
  2
_None
 70
     0
 10
0.0
 20
0.0
 30
0.0
  3
_None
  1

  0
ENDBLK
  5
15B2
330
15B0
100
AcDbEntity
  8
0
100
AcDbBlockEnd
  0
BLOCK
  5
2CB9
330
2CB5
100
AcDbEntity
  8
0
100
AcDbBlockBegin
  2
_Open30
 70
     0
 10
0.0
 20
0.0
 30
0.0
  3
_Open30
  1

  0
LINE
  5
2CB6
330
2CB5
100
AcDbEntity
  8
0
  6
ByBlock
 62
     0
370
    -2
100
AcDbLine
 10
-1.0
 20
0.26794919
 30
0.0
 11
0.0
 21
0.0
 31
0.0
  0
LINE
  5
2CB7
330
2CB5
100
AcDbEntity
  8
0
  6
ByBlock
 62
     0
370
    -2
100
AcDbLine
 10
0.0
 20
0.0
 30
0.0
 11
-1.0
 21
-0.26794919
 31
0.0
  0
LINE
  5
2CB8
330
2CB5
100
AcDbEntity
  8
0
  6
ByBlock
 62
     0
370
    -2
100
AcDbLine
 10
0.0
 20
0.0
 30
0.0
 11
-1.0
 21
0.0
 31
0.0
  0
ENDBLK
  5
2CBA
330
2CB5
100
AcDbEntity
  8
0
100
AcDbBlockEnd
  0
BLOCK
  5
35E6
330
35E3
100
AcDbEntity
  8
0
100
AcDbBlockBegin
  2
_DotBlank
 70
     0
 10
0.0
 20
0.0
 30
0.0
  3
_DotBlank
  1

  0
CIRCLE
  5
35E4
330
35E3
100
AcDbEntity
  8
0
  6
ByBlock
 62
     0
370
    -2
100
AcDbCircle
 10
0.0
 20
0.0
 30
0.0
 40
0.5
  0
LINE
  5
35E5
330
35E3
100
AcDbEntity
  8
0
  6
ByBlock
 62
     0
370
    -2
100
AcDbLine
 10
-0.5
 20
0.0
 30
0.0
 11
-1.0
 21
0.0
 31
0.0
  0
ENDBLK
  5
35E7
330
35E3
100
AcDbEntity
  8
0
100
AcDbBlockEnd
  0
BLOCK
  5
71EB
330
71E1
100
AcDbEntity
  8
0
100
AcDbBlockBegin
  2
*D4
 70
     1
 10
0.0
 20
0.0
 30
0.0
  3
*D4
  1

  0
LINE
  5
72A9
330
71E1
100
AcDbEntity
  8
寸法
  6
Continuous
 62
     4
370
    -2
100
AcDbLine
 10
1627.91886816921
 20
991.2626294159037
 30
0.0
 11
1627.91886816921
 21
1049.262629415904
 31
0.0
  0
LINE
  5
72AA
330
71E1
100
AcDbEntity
  8
寸法
  6
Continuous
 62
     4
370
    -2
100
AcDbLine
 10
1661.11886816921
 20
991.2626294159037
 30
0.0
 11
1661.11886816921
 21
1049.262629415904
 31
0.0
  0
LINE
  5
72AB
330
71E1
100
AcDbEntity
  8
寸法
  6
Continuous
 62
     4
370
    -2
100
AcDbLine
 10
1628.91886816921
 20
1049.262629415904
 30
0.0
 11
1660.11886816921
 21
1049.262629415904
 31
0.0
  0
INSERT
  5
72AC
330
71E1
100
AcDbEntity
  8
寸法
  6
Continuous
 62
     4
370
    -2
100
AcDbBlockReference
  2
_Dot
 10
1627.91886816921
 20
1049.262629415904
 30
0.0
 50
180.0
  0
INSERT
  5
72AD
330
71E1
100
AcDbEntity
  8
寸法
  6
Continuous
 62
     4
370
    -2
100
AcDbBlockReference
  2
_Dot
 10
1661.11886816921
 20
1049.262629415904
 30
0.0
  0
MTEXT
  5
72AE
330
71E1
100
AcDbEntity
  8
寸法
  6
Continuous
 62
     3
100
AcDbMText
 10
1644.51886816921
 20
1052.762629415904
 30
0.0
 40
5.0
 41
0.0
 71
     5
 72
     1
  1
\A1;33.2
  7
ACAD
 73
     1
 44
1.0
1001
ACAD
1000
MTEXTBEGIN
1070
    73
1070
     1
1070
    44
1040
1.0
1070
    74
1070
     0
1000
MTEXTEND
  0
POINT
  5
72AF
330
71E1
100
AcDbEntity
  8
Defpoints
  6
Continuous
 62
     0
100
AcDbPoint
 10
1627.91886816921
 20
991.2626294159037
 30
0.0
  0
POINT
  5
72B0
330
71E1
100
AcDbEntity
  8
Defpoints
  6
Continuous
 62
     0
100
AcDbPoint
 10
1661.11886816921
 20
991.2626294159037
 30
0.0
  0
POINT
  5
72B1
330
71E1
100
AcDbEntity
  8
Defpoints
  6
Continuous
 62
     0
100
AcDbPoint
 10
1661.11886816921
 20
1049.262629415904
 30
0.0
  0
ENDBLK
  5
71EC
330
71E1
100
AcDbEntity
  8
0
100
AcDbBlockEnd
  0
BLOCK
  5
71F8
330
71EE
100
AcDbEntity
  8
0
100
AcDbBlockBegin
  2
*D5
 70
     1
 10
0.0
 20
0.0
 30
0.0
  3
*D5
  1

  0
LINE
  5
71EF
330
71EE
100
AcDbEntity
  8
寸法
  6
Continuous
 62
     4
370
    -2
100
AcDbLine
 10
1641.11886816921
 20
1006.262629415904
 30
0.0
 11
1641.11886816921
 21
1034.262629415904
 31
0.0
  0
LINE
  5
71F0
330
71EE
100
AcDbEntity
  8
寸法
  6
Continuous
 62
     4
370
    -2
100
AcDbLine
 10
1661.11886816921
 20
991.2626294159037
 30
0.0
 11
1661.11886816921
 21
1034.262629415904
 31
0.0
  0
LINE
  5
71F1
330
71EE
100
AcDbEntity
  8
寸法
  6
Continuous
 62
     4
370
    -2
100
AcDbLine
 10
1642.11886816921
 20
1034.262629415904
 30
0.0
 11
1660.11886816921
 21
1034.262629415904
 31
0.0
  0
INSERT
  5
71F2
330
71EE
100
AcDbEntity
  8
寸法
  6
Continuous
 62
     4
370
    -2
100
AcDbBlockReference
  2
_Dot
 10
1641.11886816921
 20
1034.262629415904
 30
0.0
 50
180.0
  0
INSERT
  5
71F3
330
71EE
100
AcDbEntity
  8
寸法
  6
Continuous
 62
     4
370
    -2
100
AcDbBlockReference
  2
_Dot
 10
1661.11886816921
 20
1034.262629415904
 30
0.0
  0
MTEXT
  5
71F4
330
71EE
100
AcDbEntity
  8
寸法
  6
Continuous
 62
     3
100
AcDbMText
 10
1651.11886816921
 20
1037.762629415904
 30
0.0
 40
5.0
 41
0.0
 71
     5
 72
     1
  1
\A1;20
  7
ACAD
 73
     1
 44
1.0
1001
ACAD
1000
MTEXTBEGIN
1070
    73
1070
     1
1070
    44
1040
1.0
1070
    74
1070
     0
1000
MTEXTEND
  0
POINT
  5
71F5
330
71EE
100
AcDbEntity
  8
Defpoints
  6
Continuous
 62
     0
100
AcDbPoint
 10
1641.11886816921
 20
1006.262629415904
 30
0.0
  0
POINT
  5
71F6
330
71EE
100
AcDbEntity
  8
Defpoints
  6
Continuous
 62
     0
100
AcDbPoint
 10
1661.11886816921
 20
991.2626294159037
 30
0.0
  0
POINT
  5
71F7
330
71EE
100
AcDbEntity
  8
Defpoints
  6
Continuous
 62
     0
100
AcDbPoint
 10
1661.11886816921
 20
1034.262629415904
 30
0.0
  0
ENDBLK
  5
71F9
330
71EE
100
AcDbEntity
  8
0
100
AcDbBlockEnd
  0
BLOCK
  5
7205
330
71FB
100
AcDbEntity
  8
0
100
AcDbBlockBegin
  2
*D6
 70
     1
 10
0.0
 20
0.0
 30
0.0
  3
*D6
  1

  0
LINE
  5
72A0
330
71FB
100
AcDbEntity
  8
寸法
  6
Continuous
 62
     4
370
    -2
100
AcDbLine
 10
1627.91886816921
 20
991.2626294159037
 30
0.0
 11
1627.91886816921
 21
1064.262629415904
 31
0.0
  0
LINE
  5
72A1
330
71FB
100
AcDbEntity
  8
寸法
  6
Continuous
 62
     4
370
    -2
100
AcDbLine
 10
1927.91886816921
 20
936.2459369677669
 30
0.0
 11
1927.91886816921
 21
1064.262629415904
 31
0.0
  0
LINE
  5
72A2
330
71FB
100
AcDbEntity
  8
寸法
  6
Continuous
 62
     4
370
    -2
100
AcDbLine
 10
1628.91886816921
 20
1064.262629415904
 30
0.0
 11
1926.91886816921
 21
1064.262629415904
 31
0.0
  0
INSERT
  5
72A3
330
71FB
100
AcDbEntity
  8
寸法
  6
Continuous
 62
     4
370
    -2
100
AcDbBlockReference
  2
_Dot
 10
1627.91886816921
 20
1064.262629415904
 30
0.0
 50
180.0
  0
INSERT
  5
72A4
330
71FB
100
AcDbEntity
  8
寸法
  6
Continuous
 62
     4
370
    -2
100
AcDbBlockReference
  2
_Dot
 10
1927.91886816921
 20
1064.262629415904
 30
0.0
  0
MTEXT
  5
72A5
330
71FB
100
AcDbEntity
  8
寸法
  6
Continuous
 62
     3
100
AcDbMText
 10
1777.91886816921
 20
1067.762629415904
 30
0.0
 40
5.0
 41
0.0
 71
     5
 72
     1
  1
\A1;W
  7
ACAD
 73
     1
 44
1.0
1001
ACAD
1000
MTEXTBEGIN
1070
    73
1070
     1
1070
    44
1040
1.0
1070
    74
1070
     0
1000
MTEXTEND
  0
POINT
  5
72A6
330
71FB
100
AcDbEntity
  8
Defpoints
  6
Continuous
 62
     0
100
AcDbPoint
 10
1627.91886816921
 20
991.2626294159037
 30
0.0
  0
POINT
  5
72A7
330
71FB
100
AcDbEntity
  8
Defpoints
  6
Continuous
 62
     0
100
AcDbPoint
 10
1927.91886816921
 20
936.2459369677669
 30
0.0
  0
POINT
  5
72A8
330
71FB
100
AcDbEntity
  8
Defpoints
  6
Continuous
 62
     0
100
AcDbPoint
 10
1927.91886816921
 20
1064.262629415904
 30
0.0
  0
ENDBLK
  5
7206
330
71FB
100
AcDbEntity
  8
0
100
AcDbBlockEnd
  0
BLOCK
  5
7212
330
7208
100
AcDbEntity
  8
0
100
AcDbBlockBegin
  2
*D7
 70
     1
 10
0.0
 20
0.0
 30
0.0
  3
*D7
  1

  0
LINE
  5
7209
330
7208
100
AcDbEntity
  8
寸法
  6
Continuous
 62
     4
370
    -2
100
AcDbLine
 10
1653.91886816921
 20
1004.262629415904
 30
0.0
 11
1696.11886816921
 21
1004.262629415904
 31
0.0
  0
LINE
  5
720A
330
7208
100
AcDbEntity
  8
寸法
  6
Continuous
 62
     4
370
    -2
100
AcDbLine
 10
1663.11886816921
 20
989.2626294159038
 30
0.0
 11
1696.11886816921
 21
989.2626294159038
 31
0.0
  0
LINE
  5
720B
330
7208
100
AcDbEntity
  8
寸法
  6
Continuous
 62
     4
370
    -2
100
AcDbLine
 10
1696.11886816921
 20
1003.262629415904
 30
0.0
 11
1696.11886816921
 21
990.2626294159038
 31
0.0
  0
INSERT
  5
720C
330
7208
100
AcDbEntity
  8
寸法
  6
Continuous
 62
     4
370
    -2
100
AcDbBlockReference
  2
_Dot
 10
1696.11886816921
 20
1004.262629415904
 30
0.0
 50
90.0
  0
INSERT
  5
720D
330
7208
100
AcDbEntity
  8
寸法
  6
Continuous
 62
     4
370
    -2
100
AcDbBlockReference
  2
_Dot
 10
1696.11886816921
 20
989.2626294159038
 30
0.0
 50
270.0
  0
MTEXT
  5
720E
330
7208
100
AcDbEntity
  8
寸法
  6
Continuous
 62
     3
100
AcDbMText
 10
1692.61886816921
 20
996.7626294159041
 30
0.0
 40
5.0
 41
0.0
 71
     5
 72
     1
  1
\A1;15
  7
ACAD
 11
0.0000000000000001
 21
1.0
 31
0.0
 73
     1
 44
1.0
1001
ACAD
1000
MTEXTBEGIN
1070
    73
1070
     1
1070
    44
1040
1.0
1070
    74
1070
     0
1000
MTEXTEND
  0
POINT
  5
720F
330
7208
100
AcDbEntity
  8
Defpoints
  6
Continuous
 62
     0
100
AcDbPoint
 10
1653.91886816921
 20
1004.262629415904
 30
0.0
  0
POINT
  5
7210
330
7208
100
AcDbEntity
  8
Defpoints
  6
Continuous
 62
     0
100
AcDbPoint
 10
1663.11886816921
 20
989.2626294159038
 30
0.0
  0
POINT
  5
7211
330
7208
100
AcDbEntity
  8
Defpoints
  6
Continuous
 62
     0
100
AcDbPoint
 10
1696.11886816921
 20
989.2626294159038
 30
0.0
  0
ENDBLK
  5
7213
330
7208
100
AcDbEntity
  8
0
100
AcDbBlockEnd
  0
BLOCK
  5
721F
330
7215
100
AcDbEntity
  8
0
100
AcDbBlockBegin
  2
*D8
 70
     1
 10
0.0
 20
0.0
 30
0.0
  3
*D8
  1

  0
LINE
  5
7216
330
7215
100
AcDbEntity
  8
寸法
  6
Continuous
 62
     4
370
    -2
100
AcDbLine
 10
1663.11886816921
 20
989.2626294159038
 30
0.0
 11
1696.11886816921
 21
989.2626294159038
 31
0.0
  0
LINE
  5
7217
330
7215
100
AcDbEntity
  8
寸法
  6
Continuous
 62
     4
370
    -2
100
AcDbLine
 10
1663.11886816921
 20
953.2626294159038
 30
0.0
 11
1696.11886816921
 21
953.2626294159038
 31
0.0
  0
LINE
  5
7218
330
7215
100
AcDbEntity
  8
寸法
  6
Continuous
 62
     4
370
    -2
100
AcDbLine
 10
1696.11886816921
 20
988.2626294159038
 30
0.0
 11
1696.11886816921
 21
954.2626294159038
 31
0.0
  0
INSERT
  5
7219
330
7215
100
AcDbEntity
  8
寸法
  6
Continuous
 62
     4
370
    -2
100
AcDbBlockReference
  2
_Dot
 10
1696.11886816921
 20
989.2626294159038
 30
0.0
 50
90.0
  0
INSERT
  5
721A
330
7215
100
AcDbEntity
  8
寸法
  6
Continuous
 62
     4
370
    -2
100
AcDbBlockReference
  2
_Dot
 10
1696.11886816921
 20
953.2626294159038
 30
0.0
 50
270.0
  0
MTEXT
  5
721B
330
7215
100
AcDbEntity
  8
寸法
  6
Continuous
 62
     3
100
AcDbMText
 10
1692.61886816921
 20
971.262629415904
 30
0.0
 40
5.0
 41
0.0
 71
     5
 72
     1
  1
\A1;36
  7
ACAD
 11
0.0000000000000001
 21
1.0
 31
0.0
 73
     1
 44
1.0
1001
ACAD
1000
MTEXTBEGIN
1070
    73
1070
     1
1070
    44
1040
1.0
1070
    74
1070
     0
1000
MTEXTEND
  0
POINT
  5
721C
330
7215
100
AcDbEntity
  8
Defpoints
  6
Continuous
 62
     0
100
AcDbPoint
 10
1663.11886816921
 20
989.2626294159038
 30
0.0
  0
POINT
  5
721D
330
7215
100
AcDbEntity
  8
Defpoints
  6
Continuous
 62
     0
100
AcDbPoint
 10
1663.11886816921
 20
953.2626294159038
 30
0.0
  0
POINT
  5
721E
330
7215
100
AcDbEntity
  8
Defpoints
  6
Continuous
 62
     0
100
AcDbPoint
 10
1696.11886816921
 20
953.2626294159038
 30
0.0
  0
ENDBLK
  5
7220
330
7215
100
AcDbEntity
  8
0
100
AcDbBlockEnd
  0
BLOCK
  5
722A
330
7222
100
AcDbEntity
  8
0
100
AcDbBlockBegin
  2
*D9
 70
     1
 10
0.0
 20
0.0
 30
0.0
  3
*D9
  1

  0
LINE
  5
7299
330
7222
100
AcDbEntity
  8
寸法
  6
Continuous
 62
     4
370
    -2
100
AcDbLine
 10
1643.91886816921
 20
982.2626294159038
 30
0.0
 11
1926.91886816921
 21
982.2626294159038
 31
0.0
  0
INSERT
  5
729A
330
7222
100
AcDbEntity
  8
寸法
  6
Continuous
 62
     4
370
    -2
100
AcDbBlockReference
  2
_Dot
 10
1642.91886816921
 20
982.2626294159038
 30
0.0
 50
180.0
  0
INSERT
  5
729B
330
7222
100
AcDbEntity
  8
寸法
  6
Continuous
 62
     4
370
    -2
100
AcDbBlockReference
  2
_Dot
 10
1927.91886816921
 20
982.2626294159038
 30
0.0
  0
MTEXT
  5
729C
330
7222
100
AcDbEntity
  8
寸法
  6
Continuous
 62
     3
100
AcDbMText
 10
1785.41886816921
 20
985.7626294159038
 30
0.0
 40
5.0
 41
0.0
 71
     5
 72
     1
  1
\A1;A
  7
ACAD
 73
     1
 44
1.0
1001
ACAD
1000
MTEXTBEGIN
1070
    73
1070
     1
1070
    44
1040
1.0
1070
    74
1070
     0
1000
MTEXTEND
  0
POINT
  5
729D
330
7222
100
AcDbEntity
  8
Defpoints
  6
Continuous
 62
     0
100
AcDbPoint
 10
1642.91886816921
 20
982.2626294159038
 30
0.0
  0
POINT
  5
729E
330
7222
100
AcDbEntity
  8
Defpoints
  6
Continuous
 62
     0
100
AcDbPoint
 10
1927.91886816921
 20
982.2626294159038
 30
0.0
  0
POINT
  5
729F
330
7222
100
AcDbEntity
  8
Defpoints
  6
Continuous
 62
     0
100
AcDbPoint
 10
1927.91886816921
 20
982.2626294159038
 30
0.0
  0
ENDBLK
  5
722B
330
7222
100
AcDbEntity
  8
0
100
AcDbBlockEnd
  0
BLOCK
  5
7237
330
722D
100
AcDbEntity
  8
0
100
AcDbBlockBegin
  2
*D10
 70
     1
 10
0.0
 20
0.0
 30
0.0
  3
*D10
  1

  0
LINE
  5
722E
330
722D
100
AcDbEntity
  8
寸法
  6
Continuous
 62
     4
370
    -2
100
AcDbLine
 10
1929.91886816921
 20
934.2459369677669
 30
0.0
 11
1987.91886816921
 21
934.2459369677669
 31
0.0
  0
LINE
  5
722F
330
722D
100
AcDbEntity
  8
寸法
  6
Continuous
 62
     4
370
    -2
100
AcDbLine
 10
1929.91886816921
 20
844.2459369677669
 30
0.0
 11
1987.91886816921
 21
844.2459369677669
 31
0.0
  0
LINE
  5
7230
330
722D
100
AcDbEntity
  8
寸法
  6
Continuous
 62
     4
370
    -2
100
AcDbLine
 10
1987.91886816921
 20
933.2459369677669
 30
0.0
 11
1987.91886816921
 21
845.2459369677669
 31
0.0
  0
INSERT
  5
7231
330
722D
100
AcDbEntity
  8
寸法
  6
Continuous
 62
     4
370
    -2
100
AcDbBlockReference
  2
_Dot
 10
1987.91886816921
 20
934.2459369677669
 30
0.0
 50
90.0
  0
INSERT
  5
7232
330
722D
100
AcDbEntity
  8
寸法
  6
Continuous
 62
     4
370
    -2
100
AcDbBlockReference
  2
_Dot
 10
1987.91886816921
 20
844.2459369677669
 30
0.0
 50
270.0
  0
MTEXT
  5
7233
330
722D
100
AcDbEntity
  8
寸法
  6
Continuous
 62
     3
100
AcDbMText
 10
1984.41886816921
 20
889.2459369677673
 30
0.0
 40
5.0
 41
0.0
 71
     5
 72
     1
  1
\A1;90
  7
ACAD
 11
0.0000000000000001
 21
1.0
 31
0.0
 73
     1
 44
1.0
1001
ACAD
1000
MTEXTBEGIN
1070
    73
1070
     1
1070
    44
1040
1.0
1070
    74
1070
     0
1000
MTEXTEND
  0
POINT
  5
7234
330
722D
100
AcDbEntity
  8
Defpoints
  6
Continuous
 62
     0
100
AcDbPoint
 10
1929.91886816921
 20
934.2459369677669
 30
0.0
  0
POINT
  5
7235
330
722D
100
AcDbEntity
  8
Defpoints
  6
Continuous
 62
     0
100
AcDbPoint
 10
1929.91886816921
 20
844.2459369677669
 30
0.0
  0
POINT
  5
7236
330
722D
100
AcDbEntity
  8
Defpoints
  6
Continuous
 62
     0
100
AcDbPoint
 10
1987.91886816921
 20
844.2459369677669
 30
0.0
  0
ENDBLK
  5
7238
330
722D
100
AcDbEntity
  8
0
100
AcDbBlockEnd
  0
BLOCK
  5
7244
330
723A
100
AcDbEntity
  8
0
100
AcDbBlockBegin
  2
*D11
 70
     1
 10
0.0
 20
0.0
 30
0.0
  3
*D11
  1

  0
LINE
  5
72D2
330
723A
100
AcDbEntity
  8
寸法
  6
Continuous
 62
     4
370
    -2
100
AcDbLine
 10
1855.622594647836
 20
886.6705905784423
 30
0.0
 11
1967.91886816921
 21
886.6705905784423
 31
0.0
  0
LINE
  5
72D3
330
723A
100
AcDbEntity
  8
寸法
  6
Continuous
 62
     4
370
    -2
100
AcDbLine
 10
1929.91886816921
 20
844.2459369677669
 30
0.0
 11
1967.91886816921
 21
844.2459369677669
 31
0.0
  0
LINE
  5
72D4
330
723A
100
AcDbEntity
  8
寸法
  6
Continuous
 62
     4
370
    -2
100
AcDbLine
 10
1967.91886816921
 20
885.6705905784421
 30
0.0
 11
1967.91886816921
 21
845.2459369677669
 31
0.0
  0
INSERT
  5
72D5
330
723A
100
AcDbEntity
  8
寸法
  6
Continuous
 62
     4
370
    -2
100
AcDbBlockReference
  2
_Dot
 10
1967.91886816921
 20
886.6705905784423
 30
0.0
 50
90.0
  0
INSERT
  5
72D6
330
723A
100
AcDbEntity
  8
寸法
  6
Continuous
 62
     4
370
    -2
100
AcDbBlockReference
  2
_Dot
 10
1967.91886816921
 20
844.2459369677669
 30
0.0
 50
270.0
  0
MTEXT
  5
72D7
330
723A
100
AcDbEntity
  8
寸法
  6
Continuous
 62
     3
100
AcDbMText
 10
1964.41886816921
 20
865.4582637731049
 30
0.0
 40
5.0
 41
0.0
 71
     5
 72
     1
  1
\A1;44
  7
ACAD
 11
0.0000000000000001
 21
1.0
 31
0.0
 73
     1
 44
1.0
1001
ACAD
1000
MTEXTBEGIN
1070
    73
1070
     1
1070
    44
1040
1.0
1070
    74
1070
     0
1000
MTEXTEND
  0
POINT
  5
72D8
330
723A
100
AcDbEntity
  8
Defpoints
  6
Continuous
 62
     0
100
AcDbPoint
 10
1855.622594647836
 20
886.6705905784423
 30
0.0
  0
POINT
  5
72D9
330
723A
100
AcDbEntity
  8
Defpoints
  6
Continuous
 62
     0
100
AcDbPoint
 10
1929.91886816921
 20
844.2459369677669
 30
0.0
  0
POINT
  5
72DA
330
723A
100
AcDbEntity
  8
Defpoints
  6
Continuous
 62
     0
100
AcDbPoint
 10
1967.91886816921
 20
844.2459369677669
 30
0.0
  0
ENDBLK
  5
7245
330
723A
100
AcDbEntity
  8
0
100
AcDbBlockEnd
  0
BLOCK
  5
7250
330
7247
100
AcDbEntity
  8
0
100
AcDbBlockBegin
  2
*D12
 70
     1
 10
0.0
 20
0.0
 30
0.0
  3
*D12
  1

  0
LINE
  5
72CA
330
7247
100
AcDbEntity
  8
寸法
  6
Continuous
 62
     4
370
    -2
100
AcDbLine
 10
1927.91886816921
 20
842.2459369677669
 30
0.0
 11
1927.91886816921
 21
771.670590578442
 31
0.0
  0
LINE
  5
72CB
330
7247
100
AcDbEntity
  8
寸法
  6
Continuous
 62
     4
370
    -2
100
AcDbLine
 10
1926.91886816921
 20
771.670590578442
 30
0.0
 11
1852.91886816921
 21
771.670590578442
 31
0.0
  0
INSERT
  5
72CC
330
7247
100
AcDbEntity
  8
寸法
  6
Continuous
 62
     4
370
    -2
100
AcDbBlockReference
  2
_Dot
 10
1927.91886816921
 20
771.670590578442
 30
0.0
  0
INSERT
  5
72CD
330
7247
100
AcDbEntity
  8
寸法
  6
Continuous
 62
     4
370
    -2
100
AcDbBlockReference
  2
_Dot
 10
1851.918868169209
 20
771.670590578442
 30
0.0
 50
180.0
  0
MTEXT
  5
72CE
330
7247
100
AcDbEntity
  8
寸法
  6
Continuous
 62
     3
100
AcDbMText
 10
1889.91886816921
 20
775.170590578442
 30
0.0
 40
5.0
 41
0.0
 71
     5
 72
     1
  1
\A1;75≦
  7
ACAD
 73
     1
 44
1.0
1001
ACAD
1000
MTEXTBEGIN
1070
    73
1070
     1
1070
    44
1040
1.0
1070
    74
1070
     0
1000
MTEXTEND
  0
POINT
  5
72CF
330
7247
100
AcDbEntity
  8
Defpoints
  6
Continuous
 62
     0
100
AcDbPoint
 10
1927.91886816921
 20
842.2459369677669
 30
0.0
  0
POINT
  5
72D0
330
7247
100
AcDbEntity
  8
Defpoints
  6
Continuous
 62
     0
100
AcDbPoint
 10
1851.918868169209
 20
771.670590578442
 30
0.0
  0
POINT
  5
72D1
330
7247
100
AcDbEntity
  8
Defpoints
  6
Continuous
 62
     0
100
AcDbPoint
 10
1851.918868169209
 20
771.670590578442
 30
0.0
  0
ENDBLK
  5
7251
330
7247
100
AcDbEntity
  8
0
100
AcDbBlockEnd
  0
BLOCK
  5
7268
330
7260
100
AcDbEntity
  8
0
100
AcDbBlockBegin
  2
*D13
 70
     1
 10
0.0
 20
0.0
 30
0.0
  3
*D13
  1

  0
LINE
  5
7261
330
7260
100
AcDbEntity
  8
寸法
  6
Continuous
 62
     4
370
    -2
100
AcDbLine
 10
1802.91886816921
 20
826.6705905784421
 30
0.0
 11
1850.91886816921
 21
826.6705905784421
 31
0.0
  0
INSERT
  5
7262
330
7260
100
AcDbEntity
  8
寸法
  6
Continuous
 62
     4
370
    -2
100
AcDbBlockReference
  2
_Dot
 10
1801.91886816921
 20
826.6705905784421
 30
0.0
 50
180.0
  0
INSERT
  5
7263
330
7260
100
AcDbEntity
  8
寸法
  6
Continuous
 62
     4
370
    -2
100
AcDbBlockReference
  2
_Dot
 10
1851.91886816921
 20
826.6705905784421
 30
0.0
  0
MTEXT
  5
7264
330
7260
100
AcDbEntity
  8
寸法
  6
Continuous
 62
     3
100
AcDbMText
 10
1826.91886816921
 20
830.1705905784421
 30
0.0
 40
5.0
 41
0.0
 71
     5
 72
     1
  1
\A1;50
  7
ACAD
 73
     1
 44
1.0
1001
ACAD
1000
MTEXTBEGIN
1070
    73
1070
     1
1070
    44
1040
1.0
1070
    74
1070
     0
1000
MTEXTEND
  0
POINT
  5
7265
330
7260
100
AcDbEntity
  8
Defpoints
  6
Continuous
 62
     0
100
AcDbPoint
 10
1801.91886816921
 20
826.6705905784421
 30
0.0
  0
POINT
  5
7266
330
7260
100
AcDbEntity
  8
Defpoints
  6
Continuous
 62
     0
100
AcDbPoint
 10
1851.91886816921
 20
826.6705905784421
 30
0.0
  0
POINT
  5
7267
330
7260
100
AcDbEntity
  8
Defpoints
  6
Continuous
 62
     0
100
AcDbPoint
 10
1851.91886816921
 20
826.6705905784421
 30
0.0
  0
ENDBLK
  5
7269
330
7260
100
AcDbEntity
  8
0
100
AcDbBlockEnd
  0
BLOCK
  5
7275
330
726B
100
AcDbEntity
  8
0
100
AcDbBlockBegin
  2
*D14
 70
     1
 10
0.0
 20
0.0
 30
0.0
  3
*D14
  1

  0
LINE
  5
72BA
330
726B
100
AcDbEntity
  8
寸法
  6
Continuous
 62
     4
370
    -2
100
AcDbLine
 10
1723.203401550561
 20
886.6705905784423
 30
0.0
 11
1551.91886816921
 21
886.6705905784423
 31
0.0
  0
LINE
  5
72BB
330
726B
100
AcDbEntity
  8
寸法
  6
Continuous
 62
     4
370
    -2
100
AcDbLine
 10
1624.91886816921
 20
1004.262629415904
 30
0.0
 11
1551.91886816921
 21
1004.262629415904
 31
0.0
  0
LINE
  5
72BC
330
726B
100
AcDbEntity
  8
寸法
  6
Continuous
 62
     4
370
    -2
100
AcDbLine
 10
1551.91886816921
 20
887.6705905784422
 30
0.0
 11
1551.91886816921
 21
1003.262629415904
 31
0.0
  0
INSERT
  5
72BD
330
726B
100
AcDbEntity
  8
寸法
  6
Continuous
 62
     4
370
    -2
100
AcDbBlockReference
  2
_Dot
 10
1551.91886816921
 20
886.6705905784423
 30
0.0
 50
270.0
  0
INSERT
  5
72BE
330
726B
100
AcDbEntity
  8
寸法
  6
Continuous
 62
     4
370
    -2
100
AcDbBlockReference
  2
_Dot
 10
1551.91886816921
 20
1004.262629415904
 30
0.0
 50
90.0
  0
MTEXT
  5
72BF
330
726B
100
AcDbEntity
  8
寸法
  6
Continuous
 62
     3
100
AcDbMText
 10
1548.41886816921
 20
945.4666099971731
 30
0.0
 40
5.0
 41
0.0
 71
     5
 72
     1
  1
\A1;E
  7
ACAD
 11
0.0000000000000001
 21
1.0
 31
0.0
 73
     1
 44
1.0
1001
ACAD
1000
MTEXTBEGIN
1070
    73
1070
     1
1070
    44
1040
1.0
1070
    74
1070
     0
1000
MTEXTEND
  0
POINT
  5
72C0
330
726B
100
AcDbEntity
  8
Defpoints
  6
Continuous
 62
     0
100
AcDbPoint
 10
1723.203401550561
 20
886.6705905784423
 30
0.0
  0
POINT
  5
72C1
330
726B
100
AcDbEntity
  8
Defpoints
  6
Continuous
 62
     0
100
AcDbPoint
 10
1624.91886816921
 20
1004.262629415904
 30
0.0
  0
POINT
  5
72C2
330
726B
100
AcDbEntity
  8
Defpoints
  6
Continuous
 62
     0
100
AcDbPoint
 10
1551.91886816921
 20
1004.262629415904
 30
0.0
  0
ENDBLK
  5
7276
330
726B
100
AcDbEntity
  8
0
100
AcDbBlockEnd
  0
BLOCK
  5
7281
330
7278
100
AcDbEntity
  8
0
100
AcDbBlockBegin
  2
*D15
 70
     1
 10
0.0
 20
0.0
 30
0.0
  3
*D15
  1

  0
LINE
  5
72B2
330
7278
100
AcDbEntity
  8
寸法
  6
Continuous
 62
     4
370
    -2
100
AcDbLine
 10
1637.561134859886
 20
886.6705905784423
 30
0.0
 11
1571.91886816921
 21
886.6705905784423
 31
0.0
  0
LINE
  5
72B3
330
7278
100
AcDbEntity
  8
寸法
  6
Continuous
 62
     4
370
    -2
100
AcDbLine
 10
1571.91886816921
 20
944.5626294159037
 30
0.0
 11
1571.91886816921
 21
887.6705905784422
 31
0.0
  0
INSERT
  5
72B4
330
7278
100
AcDbEntity
  8
寸法
  6
Continuous
 62
     4
370
    -2
100
AcDbBlockReference
  2
_Dot
 10
1571.91886816921
 20
945.5626294159037
 30
0.0
 50
90.0
  0
INSERT
  5
72B5
330
7278
100
AcDbEntity
  8
寸法
  6
Continuous
 62
     4
370
    -2
100
AcDbBlockReference
  2
_Dot
 10
1571.91886816921
 20
886.6705905784423
 30
0.0
 50
270.0
  0
MTEXT
  5
72B6
330
7278
100
AcDbEntity
  8
寸法
  6
Continuous
 62
     3
100
AcDbMText
 10
1568.41886816921
 20
916.1166099971731
 30
0.0
 40
5.0
 41
0.0
 71
     5
 72
     1
  1
\A1;D
  7
ACAD
 11
0.0000000000000001
 21
1.0
 31
0.0
 73
     1
 44
1.0
1001
ACAD
1000
MTEXTBEGIN
1070
    73
1070
     1
1070
    44
1040
1.0
1070
    74
1070
     0
1000
MTEXTEND
  0
POINT
  5
72B7
330
7278
100
AcDbEntity
  8
Defpoints
  6
Continuous
 62
     0
100
AcDbPoint
 10
1571.91886816921
 20
945.5626294159037
 30
0.0
  0
POINT
  5
72B8
330
7278
100
AcDbEntity
  8
Defpoints
  6
Continuous
 62
     0
100
AcDbPoint
 10
1637.561134859886
 20
886.6705905784423
 30
0.0
  0
POINT
  5
72B9
330
7278
100
AcDbEntity
  8
Defpoints
  6
Continuous
 62
     0
100
AcDbPoint
 10
1571.91886816921
 20
886.6705905784423
 30
0.0
  0
ENDBLK
  5
7282
330
7278
100
AcDbEntity
  8
0
100
AcDbBlockEnd
  0
BLOCK
  5
728C
330
7284
100
AcDbEntity
  8
0
100
AcDbBlockBegin
  2
*D16
 70
     1
 10
0.0
 20
0.0
 30
0.0
  3
*D16
  1

  0
LINE
  5
7285
330
7284
100
AcDbEntity
  8
寸法
  6
Continuous
 62
     4
370
    -2
100
AcDbLine
 10
1627.91886816921
 20
771.670590578442
 30
0.0
 11
1725.91886816921
 21
771.670590578442
 31
0.0
  0
INSERT
  5
7286
330
7284
100
AcDbEntity
  8
寸法
  6
Continuous
 62
     4
370
    -2
100
AcDbBlockReference
  2
_Dot
 10
1626.91886816921
 20
771.670590578442
 30
0.0
 50
180.0
  0
INSERT
  5
7287
330
7284
100
AcDbEntity
  8
寸法
  6
Continuous
 62
     4
370
    -2
100
AcDbBlockReference
  2
_Dot
 10
1726.918868169209
 20
771.670590578442
 30
0.0
  0
MTEXT
  5
7288
330
7284
100
AcDbEntity
  8
寸法
  6
Continuous
 62
     3
100
AcDbMText
 10
1676.91886816921
 20
775.170590578442
 30
0.0
 40
5.0
 41
0.0
 71
     5
 72
     1
  1
\A1;100
  7
ACAD
 73
     1
 44
1.0
1001
ACAD
1000
MTEXTBEGIN
1070
    73
1070
     1
1070
    44
1040
1.0
1070
    74
1070
     0
1000
MTEXTEND
  0
POINT
  5
7289
330
7284
100
AcDbEntity
  8
Defpoints
  6
Continuous
 62
     0
100
AcDbPoint
 10
1626.91886816921
 20
771.670590578442
 30
0.0
  0
POINT
  5
728A
330
7284
100
AcDbEntity
  8
Defpoints
  6
Continuous
 62
     0
100
AcDbPoint
 10
1726.918868169209
 20
771.670590578442
 30
0.0
  0
POINT
  5
728B
330
7284
100
AcDbEntity
  8
Defpoints
  6
Continuous
 62
     0
100
AcDbPoint
 10
1726.918868169209
 20
771.670590578442
 30
0.0
  0
ENDBLK
  5
728D
330
7284
100
AcDbEntity
  8
0
100
AcDbBlockEnd
  0
BLOCK
  5
7297
330
728F
100
AcDbEntity
  8
0
100
AcDbBlockBegin
  2
*D17
 70
     1
 10
0.0
 20
0.0
 30
0.0
  3
*D17
  1

  0
LINE
  5
72C3
330
728F
100
AcDbEntity
  8
寸法
  6
Continuous
 62
     4
370
    -2
100
AcDbLine
 10
1727.91886816921
 20
771.670590578442
 30
0.0
 11
1850.918868169211
 21
771.670590578442
 31
0.0
  0
INSERT
  5
72C4
330
728F
100
AcDbEntity
  8
寸法
  6
Continuous
 62
     4
370
    -2
100
AcDbBlockReference
  2
_Dot
 10
1726.918868169209
 20
771.670590578442
 30
0.0
 50
180.0
  0
INSERT
  5
72C5
330
728F
100
AcDbEntity
  8
寸法
  6
Continuous
 62
     4
370
    -2
100
AcDbBlockReference
  2
_Dot
 10
1851.918868169211
 20
771.670590578442
 30
0.0
  0
MTEXT
  5
72C6
330
728F
100
AcDbEntity
  8
寸法
  6
Continuous
 62
     3
100
AcDbMText
 10
1789.41886816921
 20
775.170590578442
 30
0.0
 40
5.0
 41
0.0
 71
     5
 72
     1
  1
\A1;≦Ｃ
  7
ACAD
 73
     1
 44
1.0
1001
ACAD
1000
MTEXTBEGIN
1070
    73
1070
     1
1070
    44
1040
1.0
1070
    74
1070
     0
1000
MTEXTEND
  0
POINT
  5
72C7
330
728F
100
AcDbEntity
  8
Defpoints
  6
Continuous
 62
     0
100
AcDbPoint
 10
1726.918868169209
 20
771.670590578442
 30
0.0
  0
POINT
  5
72C8
330
728F
100
AcDbEntity
  8
Defpoints
  6
Continuous
 62
     0
100
AcDbPoint
 10
1851.918868169211
 20
771.670590578442
 30
0.0
  0
POINT
  5
72C9
330
728F
100
AcDbEntity
  8
Defpoints
  6
Continuous
 62
     0
100
AcDbPoint
 10
1851.918868169211
 20
771.670590578442
 30
0.0
  0
ENDBLK
  5
7298
330
728F
100
AcDbEntity
  8
0
100
AcDbBlockEnd
  0
ENDSEC
  0
SECTION
  2
ENTITIES
  0
LINE
  5
6CB9
330
1E
100
AcDbEntity
  8
図枠
  6
Continuous
 62
     7
100
AcDbLine
 10
1365.91886816921
 20
517.3603960963659
 30
0.0
 11
2189.91886816921
 21
517.3603960963659
 31
0.0
  0
LINE
  5
6CBA
330
1E
100
AcDbEntity
  8
図枠
  6
Continuous
 62
     7
100
AcDbLine
 10
2189.91886816921
 20
517.3603960963659
 30
0.0
 11
2189.91886816921
 21
1093.360396096366
 31
0.0
  0
LINE
  5
6CBB
330
1E
100
AcDbEntity
  8
図枠
  6
Continuous
 62
     7
100
AcDbLine
 10
2189.91886816921
 20
1093.360396096366
 30
0.0
 11
1365.91886816921
 21
1093.360396096366
 31
0.0
  0
LINE
  5
6CBC
330
1E
100
AcDbEntity
  8
図枠
  6
Continuous
 62
     7
100
AcDbLine
 10
1365.91886816921
 20
1093.360396096366
 30
0.0
 11
1365.91886816921
 21
517.3603960963659
 31
0.0
  0
LINE
  5
6CBD
330
1E
100
AcDbEntity
  8
躯体と製品
  6
Continuous
 62
     4
100
AcDbLine
 10
1673.922696947731
 20
940.6145473538495
 30
0.0
 11
1671.57961490791
 21
942.9576293936706
 31
0.0
  0
LINE
  5
6CBE
330
1E
100
AcDbEntity
  8
躯体と製品
  6
Continuous
 62
     4
100
AcDbLine
 10
1673.993121923387
 20
941.9583359405669
 30
0.0
 11
1673.072043329603
 21
942.8794145343509
 31
0.0
  0
LINE
  5
6CBF
330
1E
100
AcDbEntity
  8
躯体と製品
  6
Continuous
 62
     4
100
AcDbLine
 10
1673.852271972076
 20
939.2707587671312
 30
0.0
 11
1670.087186486216
 21
943.0358442529906
 31
0.0
  0
LINE
  5
6CC0
330
1E
100
AcDbEntity
  8
躯体と製品
  6
Continuous
 62
     4
100
AcDbLine
 10
1672.821776075457
 20
938.8870411013767
 30
0.0
 11
1668.594758064523
 21
943.1140591123103
 31
0.0
  0
LINE
  5
6CC1
330
1E
100
AcDbEntity
  8
躯体と製品
  6
Continuous
 62
     4
100
AcDbLine
 10
1671.329347653766
 20
938.9652559606963
 30
0.0
 11
1667.102329642832
 21
943.19227397163
 31
0.0
  0
LINE
  5
6CC2
330
1E
100
AcDbEntity
  8
躯体と製品
  6
Continuous
 62
     4
100
AcDbLine
 10
1669.836919232073
 20
939.0434708200158
 30
0.0
 11
1665.609901221139
 21
943.2704888309498
 31
0.0
  0
LINE
  5
6CC3
330
1E
100
AcDbEntity
  8
躯体と製品
  6
Continuous
 62
     4
100
AcDbLine
 10
1668.34449081038
 20
939.1216856793359
 30
0.0
 11
1664.117472799446
 21
943.3487036902697
 31
0.0
  0
LINE
  5
6CC4
330
1E
100
AcDbEntity
  8
躯体と製品
  6
Continuous
 62
     4
100
AcDbLine
 10
1666.852062388687
 20
939.1999005386557
 30
0.0
 11
1662.625044377753
 21
943.4269185495894
 31
0.0
  0
LINE
  5
6CC5
330
1E
100
AcDbEntity
  8
躯体と製品
  6
Continuous
 62
     4
100
AcDbLine
 10
1665.359633966994
 20
939.2781153979754
 30
0.0
 11
1661.132615956059
 21
943.5051334089095
 31
0.0
  0
LINE
  5
6CC6
330
1E
100
AcDbEntity
  8
躯体と製品
  6
Continuous
 62
     4
100
AcDbLine
 10
1663.8672055453
 20
939.356330257295
 30
0.0
 11
1659.640187534367
 21
943.5833482682292
 31
0.0
  0
LINE
  5
6CC7
330
1E
100
AcDbEntity
  8
躯体と製品
  6
Continuous
 62
     4
100
AcDbLine
 10
1662.374777123607
 20
939.4345451166151
 30
0.0
 11
1659.016281745461
 21
942.7930404947613
 31
0.0
  0
LINE
  5
6CC8
330
1E
100
AcDbEntity
  8
躯体と製品
  6
Continuous
 62
     4
100
AcDbLine
 10
1660.882348701913
 20
939.5127599759353
 30
0.0
 11
1658.945856769805
 21
941.4492519080436
 31
0.0
  0
LINE
  5
6CC9
330
1E
100
AcDbEntity
  8
躯体と製品
  6
Continuous
 62
     4
100
AcDbLine
 10
1659.389920280222
 20
939.5909748352549
 30
0.0
 11
1658.87543179415
 21
940.1054633213277
 31
0.0
  0
LINE
  5
6CCA
330
1E
100
AcDbEntity
  8
躯体と製品
  6
Continuous
 62
     4
100
AcDbLine
 10
1659.625432083316
 20
944.0848077416504
 30
0.0
 11
1659.110943597243
 21
944.599296227723
 31
0.0
  0
LINE
  5
6CCB
330
1E
100
AcDbEntity
  8
躯体と製品
  6
DASHED1
 62
     7
100
AcDbLine
 10
1657.750896578518
 20
918.6480531616966
 30
0.0
 11
1662.744044252291
 21
918.386373380482
 31
0.0
  0
LINE
  5
6CCC
330
1E
100
AcDbEntity
  8
躯体と製品
  6
DASHED1
 62
     7
100
AcDbLine
 10
1662.744044252291
 20
918.386373380482
 30
0.0
 11
1662.796380208534
 21
919.3850029152365
 31
0.0
  0
LINE
  5
6CCD
330
1E
100
AcDbEntity
  8
躯体と製品
  6
DASHED1
 62
     7
100
AcDbLine
 10
1662.796380208534
 20
919.3850029152365
 30
0.0
 11
1682.768970903626
 21
918.3382837903776
 31
0.0
  0
LINE
  5
6CCE
330
1E
100
AcDbEntity
  8
躯体と製品
  6
DASHED1
 62
     7
100
AcDbLine
 10
1682.716634947382
 20
917.3396542556229
 30
0.0
 11
1682.768970903626
 21
918.3382837903776
 31
0.0
  0
LINE
  5
6CCF
330
1E
100
AcDbEntity
  8
躯体と製品
  6
DASHED1
 62
     7
100
AcDbLine
 10
1682.716634947382
 20
917.3396542556229
 30
0.0
 11
1686.211838319023
 21
917.1564784087728
 31
0.0
  0
ARC
  5
6CD0
330
1E
100
AcDbEntity
  8
躯体と製品
  6
DASHED1
 62
     7
100
AcDbCircle
 10
1686.290342253388
 20
918.6544227109045
 30
0.0
 40
1.500000000000001
100
AcDbArc
 50
266.9999999999946
 51
86.99999999999457
  0
LINE
  5
6CD1
330
1E
100
AcDbEntity
  8
躯体と製品
  6
DASHED1
 62
     7
100
AcDbLine
 10
1657.907904447247
 20
921.6439417659604
 30
0.0
 11
1686.368846187752
 21
920.1523670130363
 31
0.0
  0
LINE
  5
6CD2
330
1E
100
AcDbEntity
  8
躯体と製品
  6
Continuous
 62
     3
100
AcDbLine
 10
1636.21886816921
 20
968.1778598984115
 30
0.0
 11
1636.21886816921
 21
966.6626294159037
 31
0.0
  0
LINE
  5
6CD3
330
1E
100
AcDbEntity
  8
躯体と製品
  6
Continuous
 62
     3
100
AcDbLine
 10
1632.574659761675
 20
970.2602647027172
 30
0.0
 11
1636.21886816921
 21
968.1778598984115
 31
0.0
  0
ARC
  5
6CD4
330
1E
100
AcDbEntity
  8
躯体と製品
  6
Continuous
 62
     3
100
AcDbCircle
 10
1633.31886816921
 20
971.562629415904
 30
0.0
 40
1.5
100
AcDbArc
 50
180.0
 51
240.2551187030594
  0
LINE
  5
6CD5
330
1E
100
AcDbEntity
  8
躯体と製品
  6
Continuous
 62
     3
100
AcDbLine
 10
1631.81886816921
 20
971.562629415904
 30
0.0
 11
1631.81886816921
 21
974.8126294159039
 31
0.0
  0
ARC
  5
6CD6
330
1E
100
AcDbEntity
  8
躯体と製品
  6
Continuous
 62
     3
100
AcDbCircle
 10
1649.41886816921
 20
921.0874609595476
 30
0.0
 40
2.0
100
AcDbArc
 50
180.0
 51
266.9999999999946
  0
LINE
  5
6CD7
330
1E
100
AcDbEntity
  8
躯体と製品
  6
Continuous
 62
     3
100
AcDbLine
 10
1649.314196256724
 20
919.0902018900382
 30
0.0
 11
1655.753637509009
 21
918.7527250741824
 31
0.0
  0
LINE
  5
6CD8
330
1E
100
AcDbEntity
  8
躯体と製品
  6
Continuous
 62
     3
100
AcDbLine
 10
1647.41886816921
 20
921.0874609595476
 30
0.0
 11
1647.41886816921
 21
928.5626294159037
 31
0.0
  0
ARC
  5
6CD9
330
1E
100
AcDbEntity
  8
躯体と製品
  6
Continuous
 62
     3
100
AcDbCircle
 10
1650.91886816921
 20
923.0115939826188
 30
0.0
 40
1.0
100
AcDbArc
 50
180.0
 51
266.9999999999946
  0
LINE
  5
6CDA
330
1E
100
AcDbEntity
  8
躯体と製品
  6
Continuous
 62
     3
100
AcDbLine
 10
1650.866532212967
 20
922.0129644478642
 30
0.0
 11
1655.910645377738
 21
921.7486136784463
 31
0.0
  0
LINE
  5
6CDB
330
1E
100
AcDbEntity
  8
躯体と製品
  6
Continuous
 62
     3
100
AcDbLine
 10
1649.91886816921
 20
923.0115939826188
 30
0.0
 11
1649.91886816921
 21
930.0626294159037
 31
0.0
  0
ARC
  5
6CDC
330
1E
100
AcDbEntity
  8
躯体と製品
  6
Continuous
 62
     3
100
AcDbCircle
 10
1655.727469530887
 20
918.253410306805
 30
0.0
 40
0.5
100
AcDbArc
 50
357.0000000000011
 51
86.99999999999457
  0
LINE
  5
6CDD
330
1E
100
AcDbEntity
  8
躯体と製品
  6
Continuous
 62
     3
100
AcDbLine
 10
1656.226784298265
 20
918.2272423286837
 30
0.0
 11
1656.174448342022
 21
917.2286127939292
 31
0.0
  0
ARC
  5
6CDE
330
1E
100
AcDbEntity
  8
躯体と製品
  6
Continuous
 62
     3
100
AcDbCircle
 10
1656.673763109399
 20
917.2024448158076
 30
0.0
 40
0.5
100
AcDbArc
 50
177.0000000000011
 51
266.9999999999946
  0
LINE
  5
6CDF
330
1E
100
AcDbEntity
  8
躯体と製品
  6
Continuous
 62
     3
100
AcDbLine
 10
1656.647595131278
 20
916.7031300484303
 30
0.0
 11
1657.146909898655
 21
916.6769620703091
 31
0.0
  0
ARC
  5
6CE0
330
1E
100
AcDbEntity
  8
躯体と製品
  6
Continuous
 62
     3
100
AcDbCircle
 10
1657.173077876776
 20
917.1762768376863
 30
0.0
 40
0.5
100
AcDbArc
 50
266.9999999999946
 51
357.0000000000011
  0
LINE
  5
6CE1
330
1E
100
AcDbEntity
  8
躯体と製品
  6
Continuous
 62
     3
100
AcDbLine
 10
1657.620056687911
 20
916.1514793248104
 30
0.0
 11
1659.085463462713
 21
944.1131062979383
 31
0.0
  0
ARC
  5
6CE2
330
1E
100
AcDbEntity
  8
躯体と製品
  6
Continuous
 62
     3
100
AcDbCircle
 10
1655.936813355859
 20
922.2479284458234
 30
0.0
 40
0.5
100
AcDbArc
 50
266.9999999999946
 51
357.0000000000011
  0
LINE
  5
6CE3
330
1E
100
AcDbEntity
  8
躯体と製品
  6
Continuous
 62
     3
100
AcDbLine
 10
1656.436128123236
 20
922.2217604677021
 30
0.0
 11
1656.540800035722
 21
924.2190195372112
 31
0.0
  0
ARC
  5
6CE4
330
1E
100
AcDbEntity
  8
躯体と製品
  6
Continuous
 62
     3
100
AcDbCircle
 10
1657.0401148031
 20
924.1928515590897
 30
0.0
 40
0.5
100
AcDbArc
 50
86.99999999999457
 51
177.0000000000011
  0
LINE
  5
6CE5
330
1E
100
AcDbEntity
  8
躯体と製品
  6
Continuous
 62
     3
100
AcDbLine
 10
1657.066282781221
 20
924.692166326467
 30
0.0
 11
1657.565597548599
 21
924.6659983483455
 31
0.0
  0
ARC
  5
6CE6
330
1E
100
AcDbEntity
  8
躯体と製品
  6
Continuous
 62
     3
100
AcDbCircle
 10
1657.539429570477
 20
924.1666835809683
 30
0.0
 40
0.5
100
AcDbArc
 50
357.0000000000011
 51
86.99999999999457
  0
LINE
  5
6CE7
330
1E
100
AcDbEntity
  8
躯体と製品
  6
Continuous
 62
     3
100
AcDbLine
 10
1637.91886816921
 20
968.062629415904
 30
0.0
 11
1643.41886816921
 21
968.062629415904
 31
0.0
  0
LINE
  5
6CE8
330
1E
100
AcDbEntity
  8
躯体と製品
  6
Continuous
 62
     3
100
AcDbLine
 10
1644.41886816921
 20
969.5626294159039
 30
0.0
 11
1636.81886816921
 21
969.5626294159039
 31
0.0
  0
ARC
  5
6CE9
330
1E
100
AcDbEntity
  8
躯体と製品
  6
Continuous
 62
     3
100
AcDbCircle
 10
1637.91886816921
 20
967.5626294159039
 30
0.0
 40
0.5
100
AcDbArc
 50
90.0
 51
180.0
  0
LINE
  5
6CEA
330
1E
100
AcDbEntity
  8
躯体と製品
  6
Continuous
 62
     3
100
AcDbLine
 10
1637.41886816921
 20
967.5626294159039
 30
0.0
 11
1637.41886816921
 21
966.6626294159037
 31
0.0
  0
LINE
  5
6CEB
330
1E
100
AcDbEntity
  8
躯体と製品
  6
Continuous
 62
     3
100
AcDbLine
 10
1633.31886816921
 20
971.562629415904
 30
0.0
 11
1636.81886816921
 21
969.5626294159039
 31
0.0
  0
LINE
  5
6CEC
330
1E
100
AcDbEntity
  8
躯体と製品
  6
Continuous
 62
     3
100
AcDbLine
 10
1633.31886816921
 20
974.8126294159039
 30
0.0
 11
1633.31886816921
 21
971.562629415904
 31
0.0
  0
ARC
  5
6CED
330
1E
100
AcDbEntity
  8
躯体と製品
  6
Continuous
 62
     3
100
AcDbCircle
 10
1632.56886816921
 20
974.8126294159039
 30
0.0
 40
0.75
100
AcDbArc
 50
0.0
 51
180.0
  0
ARC
  5
6CEE
330
1E
100
AcDbEntity
  8
躯体と製品
  6
Continuous
 62
     3
100
AcDbCircle
 10
1636.81886816921
 20
966.6626294159037
 30
0.0
 40
0.5999999999999998
100
AcDbArc
 50
180.0
 51
0.0
  0
LINE
  5
6CEF
330
1E
100
AcDbEntity
  8
躯体と製品
  6
Continuous
 62
     3
100
AcDbLine
 10
1645.41886816921
 20
955.0626294159039
 30
0.0
 11
1645.41886816921
 21
968.5626294159039
 31
0.0
  0
ARC
  5
6CF0
330
1E
100
AcDbEntity
  8
躯体と製品
  6
Continuous
 62
     3
100
AcDbCircle
 10
1642.91886816921
 20
964.0626294159039
 30
0.0
 40
1.0
100
AcDbArc
 50
270.0
 51
0.0
  0
LINE
  5
6CF1
330
1E
100
AcDbEntity
  8
躯体と製品
  6
Continuous
 62
     3
100
AcDbLine
 10
1646.41886816921
 20
929.5626294159037
 30
0.0
 11
1635.91886816921
 21
929.5626294159037
 31
0.0
  0
LINE
  5
6CF2
330
1E
100
AcDbEntity
  8
躯体と製品
  6
Continuous
 62
     3
100
AcDbLine
 10
1642.91886816921
 20
963.0626294159039
 30
0.0
 11
1638.41886816921
 21
963.0626294159039
 31
0.0
  0
LINE
  5
6CF3
330
1E
100
AcDbEntity
  8
躯体と製品
  6
Continuous
 62
     3
100
AcDbLine
 10
1647.91886816921
 20
932.0626294159037
 30
0.0
 11
1639.91886816921
 21
932.0626294159037
 31
0.0
  0
LINE
  5
6CF4
330
1E
100
AcDbEntity
  8
躯体と製品
  6
Continuous
 62
     3
100
AcDbLine
 10
1639.41886816921
 20
961.562629415904
 30
0.0
 11
1643.41886816921
 21
961.562629415904
 31
0.0
  0
ARC
  5
6CF5
330
1E
100
AcDbEntity
  8
躯体と製品
  6
Continuous
 62
     3
100
AcDbCircle
 10
1647.91886816921
 20
930.0626294159037
 30
0.0
 40
2.0
100
AcDbArc
 50
0.0
 51
90.0
  0
ARC
  5
6CF6
330
1E
100
AcDbEntity
  8
躯体と製品
  6
Continuous
 62
     3
100
AcDbCircle
 10
1646.41886816921
 20
928.5626294159037
 30
0.0
 40
1.0
100
AcDbArc
 50
0.0
 51
90.0
  0
LINE
  5
6CF7
330
1E
100
AcDbEntity
  8
躯体と製品
  6
Continuous
 62
     3
100
AcDbLine
 10
1644.91886816921
 20
954.562629415904
 30
0.0
 11
1643.91886816921
 21
954.562629415904
 31
0.0
  0
ARC
  5
6CF8
330
1E
100
AcDbEntity
  8
躯体と製品
  6
Continuous
 62
     3
100
AcDbCircle
 10
1644.91886816921
 20
955.0626294159039
 30
0.0
 40
0.5
100
AcDbArc
 50
270.0
 51
0.0
  0
LINE
  5
6CF9
330
1E
100
AcDbEntity
  8
躯体と製品
  6
Continuous
 62
     3
100
AcDbLine
 10
1643.91886816921
 20
961.062629415904
 30
0.0
 11
1643.91886816921
 21
956.562629415904
 31
0.0
  0
ARC
  5
6CFA
330
1E
100
AcDbEntity
  8
躯体と製品
  6
Continuous
 62
     3
100
AcDbCircle
 10
1643.41886816921
 20
961.062629415904
 30
0.0
 40
0.5
100
AcDbArc
 50
0.0
 51
90.0
  0
ARC
  5
6CFB
330
1E
100
AcDbEntity
  8
躯体と製品
  6
Continuous
 62
     3
100
AcDbCircle
 10
1643.91886816921
 20
955.562629415904
 30
0.0
 40
1.0
100
AcDbArc
 50
90.0
 51
270.0
  0
ARC
  5
6CFC
330
1E
100
AcDbEntity
  8
躯体と製品
  6
Continuous
 62
     3
100
AcDbCircle
 10
1644.41886816921
 20
968.5626294159039
 30
0.0
 40
1.0
100
AcDbArc
 50
0.0
 51
90.0
  0
LINE
  5
6CFD
330
1E
100
AcDbEntity
  8
躯体と製品
  6
Continuous
 62
     3
100
AcDbLine
 10
1643.91886816921
 20
964.0626294159039
 30
0.0
 11
1643.91886816921
 21
967.5626294159039
 31
0.0
  0
ARC
  5
6CFE
330
1E
100
AcDbEntity
  8
躯体と製品
  6
Continuous
 62
     3
100
AcDbCircle
 10
1643.41886816921
 20
967.5626294159039
 30
0.0
 40
0.5
100
AcDbArc
 50
0.0
 51
90.0
  0
ARC
  5
6CFF
330
1E
100
AcDbEntity
  8
躯体と製品
  6
Continuous
 62
     3
100
AcDbCircle
 10
1639.91886816921
 20
933.0626294159037
 30
0.0
 40
1.0
100
AcDbArc
 50
180.0
 51
270.0
  0
ARC
  5
6D00
330
1E
100
AcDbEntity
  8
躯体と製品
  6
Continuous
 62
     3
100
AcDbCircle
 10
1639.41886816921
 20
961.062629415904
 30
0.0
 40
0.5
100
AcDbArc
 50
90.0
 51
180.0
  0
LINE
  5
6D01
330
1E
100
AcDbEntity
  8
躯体と製品
  6
Continuous
 62
     3
100
AcDbLine
 10
1638.91886816921
 20
933.0626294159037
 30
0.0
 11
1638.91886816921
 21
961.062629415904
 31
0.0
  0
LINE
  5
6D02
330
1E
100
AcDbEntity
  8
躯体と製品
  6
Continuous
 62
     3
100
AcDbLine
 10
1636.41886816921
 20
931.0626294159037
 30
0.0
 11
1634.91886816921
 21
931.0626294159037
 31
0.0
  0
ARC
  5
6D03
330
1E
100
AcDbEntity
  8
躯体と製品
  6
Continuous
 62
     3
100
AcDbCircle
 10
1636.41886816921
 20
931.5626294159038
 30
0.0
 40
0.5
100
AcDbArc
 50
270.0
 51
0.0
  0
LINE
  5
6D04
330
1E
100
AcDbEntity
  8
躯体と製品
  6
Continuous
 62
     3
100
AcDbLine
 10
1636.91886816921
 20
931.5626294159038
 30
0.0
 11
1636.91886816921
 21
961.562629415904
 31
0.0
  0
ARC
  5
6D05
330
1E
100
AcDbEntity
  8
躯体と製品
  6
Continuous
 62
     3
100
AcDbCircle
 10
1638.41886816921
 20
961.562629415904
 30
0.0
 40
1.5
100
AcDbArc
 50
90.0
 51
180.0
  0
ARC
  5
6D06
330
1E
100
AcDbEntity
  8
躯体と製品
  6
Continuous
 62
     3
100
AcDbCircle
 10
1635.91886816921
 20
929.0626294159038
 30
0.0
 40
0.5
100
AcDbArc
 50
90.0
 51
180.0
  0
LINE
  5
6D07
330
1E
100
AcDbEntity
  8
躯体と製品
  6
Continuous
 62
     3
100
AcDbLine
 10
1635.41886816921
 20
929.0626294159038
 30
0.0
 11
1635.41886816921
 21
927.8126294159037
 31
0.0
  0
ARC
  5
6D08
330
1E
100
AcDbEntity
  8
躯体と製品
  6
Continuous
 62
     3
100
AcDbCircle
 10
1634.66886816921
 20
927.8126294159037
 30
0.0
 40
0.75
100
AcDbArc
 50
180.0
 51
0.0
  0
ARC
  5
6D09
330
1E
100
AcDbEntity
  8
躯体と製品
  6
Continuous
 62
     3
100
AcDbCircle
 10
1634.91886816921
 20
930.0626294159037
 30
0.0
 40
1.0
100
AcDbArc
 50
90.0
 51
180.0
  0
LINE
  5
6D0A
330
1E
100
AcDbEntity
  8
躯体と製品
  6
Continuous
 62
     3
100
AcDbLine
 10
1633.91886816921
 20
930.0626294159037
 30
0.0
 11
1633.91886816921
 21
927.8126294159037
 31
0.0
  0
LINE
  5
6D0B
330
1E
100
AcDbEntity
  8
躯体と製品
  6
Continuous
 62
     7
100
AcDbLine
 10
1673.829394680938
 20
938.8342340478986
 30
0.0
 11
1674.03873850591
 21
942.8287521869169
 31
0.0
  0
LINE
  5
6D0C
330
1E
100
AcDbEntity
  8
躯体と製品
  6
Continuous
 62
     7
100
AcDbLine
 10
1659.059295484591
 20
943.6137915305609
 30
0.0
 11
1674.03873850591
 21
942.8287521869169
 31
0.0
  0
LINE
  5
6D0D
330
1E
100
AcDbEntity
  8
躯体と製品
  6
DASHED1
 62
     7
100
AcDbLine
 10
1614.91886816921
 20
949.5626284159039
 30
0.0
 11
1626.91886816921
 21
949.5626284159039
 31
0.0
  0
LINE
  5
6D0E
330
1E
100
AcDbEntity
  8
躯体と製品
  6
DASHED1
 62
     7
100
AcDbLine
 10
1607.11848716921
 20
940.9393924159036
 30
0.0
 11
1611.77646716921
 21
939.2440264159038
 31
0.0
  0
LINE
  5
6D0F
330
1E
100
AcDbEntity
  8
躯体と製品
  6
DASHED1
 62
     7
100
AcDbLine
 10
1618.72250816921
 20
951.8849674159039
 30
0.0
 11
1612.11848816921
 21
950.9415364159037
 31
0.0
  0
LINE
  5
6D10
330
1E
100
AcDbEntity
  8
躯体と製品
  6
DASHED1
 62
     7
100
AcDbLine
 10
1592.78831216921
 20
943.6931824159039
 30
0.0
 11
1590.91886816921
 21
945.5626294159037
 31
0.0
  0
LINE
  5
6D11
330
1E
100
AcDbEntity
  8
躯体と製品
  6
DASHED1
 62
     7
100
AcDbLine
 10
1592.13904616921
 20
940.1543524159041
 30
0.0
 11
1590.14178716921
 21
940.0496824159038
 31
0.0
  0
LINE
  5
6D12
330
1E
100
AcDbEntity
  8
躯体と製品
  6
DASHED1
 62
     7
100
AcDbLine
 10
1592.03437316921
 20
942.1516114159038
 30
0.0
 11
1592.13904616921
 21
940.1543524159041
 31
0.0
  0
LINE
  5
6D13
330
1E
100
AcDbEntity
  8
躯体と製品
  6
DASHED1
 62
     7
100
AcDbLine
 10
1594.03163216921
 20
942.2562844159038
 30
0.0
 11
1592.03437316921
 21
942.1516114159038
 31
0.0
  0
LINE
  5
6D14
330
1E
100
AcDbEntity
  8
躯体と製品
  6
DASHED1
 62
     7
100
AcDbLine
 10
1595.13493316921
 20
940.3113604159038
 30
0.0
 11
1594.03163216921
 21
942.2562844159038
 31
0.0
  0
LINE
  5
6D15
330
1E
100
AcDbEntity
  8
躯体と製品
  6
DASHED1
 62
     7
100
AcDbLine
 10
1597.13219216921
 20
940.4160334159039
 30
0.0
 11
1595.13493316921
 21
940.3113604159038
 31
0.0
  0
LINE
  5
6D16
330
1E
100
AcDbEntity
  8
躯体と製品
  6
DASHED1
 62
     7
100
AcDbLine
 10
1597.02752216921
 20
942.4132924159039
 30
0.0
 11
1597.13219216921
 21
940.4160334159039
 31
0.0
  0
LINE
  5
6D17
330
1E
100
AcDbEntity
  8
躯体と製品
  6
DASHED1
 62
     7
100
AcDbLine
 10
1599.02478116921
 20
942.5179654159039
 30
0.0
 11
1597.02752216921
 21
942.4132924159039
 31
0.0
  0
LINE
  5
6D18
330
1E
100
AcDbEntity
  8
躯体と製品
  6
DASHED1
 62
     7
100
AcDbLine
 10
1600.12808216921
 20
940.5730414159037
 30
0.0
 11
1599.02478116921
 21
942.5179654159039
 31
0.0
  0
LINE
  5
6D19
330
1E
100
AcDbEntity
  8
躯体と製品
  6
DASHED1
 62
     7
100
AcDbLine
 10
1602.12534116921
 20
940.6777144159038
 30
0.0
 11
1600.12808216921
 21
940.5730414159037
 31
0.0
  0
LINE
  5
6D1A
330
1E
100
AcDbEntity
  8
躯体と製品
  6
DASHED1
 62
     7
100
AcDbLine
 10
1602.02066816921
 20
942.6749734159038
 30
0.0
 11
1602.12534116921
 21
940.6777144159038
 31
0.0
  0
LINE
  5
6D1B
330
1E
100
AcDbEntity
  8
躯体と製品
  6
DASHED1
 62
     7
100
AcDbLine
 10
1604.01792716921
 20
942.7796434159038
 30
0.0
 11
1602.02066816921
 21
942.6749734159038
 31
0.0
  0
LINE
  5
6D1C
330
1E
100
AcDbEntity
  8
躯体と製品
  6
DASHED1
 62
     7
100
AcDbLine
 10
1605.12122816921
 20
940.834722415904
 30
0.0
 11
1604.01792716921
 21
942.7796434159038
 31
0.0
  0
LINE
  5
6D1D
330
1E
100
AcDbEntity
  8
躯体と製品
  6
DASHED1
 62
     7
100
AcDbLine
 10
1607.11848716921
 20
940.9393924159036
 30
0.0
 11
1605.12122816921
 21
940.834722415904
 31
0.0
  0
LINE
  5
6D1E
330
1E
100
AcDbEntity
  8
躯体と製品
  6
DASHED1
 62
     7
100
AcDbLine
 10
1607.01381716921
 20
942.936651415904
 30
0.0
 11
1607.11848716921
 21
940.9393924159036
 31
0.0
  0
LINE
  5
6D1F
330
1E
100
AcDbEntity
  8
躯体と製品
  6
DASHED1
 62
     7
100
AcDbLine
 10
1609.01107616921
 20
943.0413244159039
 30
0.0
 11
1607.01381716921
 21
942.936651415904
 31
0.0
  0
LINE
  5
6D20
330
1E
100
AcDbEntity
  8
躯体と製品
  6
DASHED1
 62
     7
100
AcDbLine
 10
1610.11437716921
 20
941.0964004159039
 30
0.0
 11
1609.01107616921
 21
943.0413244159039
 31
0.0
  0
LINE
  5
6D21
330
1E
100
AcDbEntity
  8
躯体と製品
  6
DASHED1
 62
     7
100
AcDbLine
 10
1587.96135116921
 20
943.4402134159038
 30
0.0
 11
1618.91886716921
 21
945.0626284159039
 31
0.0
  0
LINE
  5
6D22
330
1E
100
AcDbEntity
  8
躯体と製品
  6
DASHED1
 62
     7
100
AcDbLine
 10
1588.03985516921
 20
941.9422684159037
 30
0.0
 11
1587.96135116921
 21
943.4402134159038
 31
0.0
  0
LINE
  5
6D23
330
1E
100
AcDbEntity
  8
躯体と製品
  6
DASHED1
 62
     7
100
AcDbLine
 10
1590.14178716921
 20
940.0496824159038
 30
0.0
 11
1588.03985516921
 21
941.9422684159037
 31
0.0
  0
LINE
  5
6D24
330
1E
100
AcDbEntity
  8
躯体と製品
  6
DASHED1
 62
     7
100
AcDbLine
 10
1589.95861016921
 20
943.5448864159038
 30
0.0
 11
1590.14178716921
 21
940.0496824159038
 31
0.0
  0
LINE
  5
6D25
330
1E
100
AcDbEntity
  8
躯体と製品
  6
DASHED1
 62
     7
100
AcDbLine
 10
1612.11163616921
 20
941.2010734159041
 30
0.0
 11
1610.11437716921
 21
941.0964004159039
 31
0.0
  0
LINE
  5
6D26
330
1E
100
AcDbEntity
  8
躯体と製品
  6
DASHED1
 62
     7
100
AcDbLine
 10
1612.00696316921
 20
943.1983324159039
 30
0.0
 11
1612.11163616921
 21
941.2010734159041
 31
0.0
  0
LINE
  5
6D27
330
1E
100
AcDbEntity
  8
躯体と製品
  6
DASHED1
 62
     7
100
AcDbLine
 10
1614.00422216921
 20
943.3030024159037
 30
0.0
 11
1612.00696316921
 21
943.1983324159039
 31
0.0
  0
LINE
  5
6D28
330
1E
100
AcDbEntity
  8
躯体と製品
  6
DASHED1
 62
     7
100
AcDbLine
 10
1626.91886816921
 20
940.5626284159039
 30
0.0
 11
1621.91886716921
 21
941.5626274159041
 31
0.0
  0
LINE
  5
6D29
330
1E
100
AcDbEntity
  8
躯体と製品
  6
DASHED1
 62
     7
100
AcDbLine
 10
1618.91886716921
 20
945.0626284159039
 30
0.0
 11
1618.91886716921
 21
946.0626274159041
 31
0.0
  0
LINE
  5
6D2A
330
1E
100
AcDbEntity
  8
躯体と製品
  6
DASHED1
 62
     7
100
AcDbLine
 10
1592.13904616921
 20
950.9709034159039
 30
0.0
 11
1590.14178716921
 21
951.075573415904
 31
0.0
  0
LINE
  5
6D2B
330
1E
100
AcDbEntity
  8
躯体と製品
  6
DASHED1
 62
     7
100
AcDbLine
 10
1592.03437316921
 20
948.9736444159037
 30
0.0
 11
1592.13904616921
 21
950.9709034159039
 31
0.0
  0
LINE
  5
6D2C
330
1E
100
AcDbEntity
  8
躯体と製品
  6
DASHED1
 62
     7
100
AcDbLine
 10
1594.03163216921
 20
948.8689714159038
 30
0.0
 11
1592.03437316921
 21
948.9736444159037
 31
0.0
  0
LINE
  5
6D2D
330
1E
100
AcDbEntity
  8
躯体と製品
  6
DASHED1
 62
     7
100
AcDbLine
 10
1595.13493316921
 20
950.8138954159038
 30
0.0
 11
1594.03163216921
 21
948.8689714159038
 31
0.0
  0
LINE
  5
6D2E
330
1E
100
AcDbEntity
  8
躯体と製品
  6
DASHED1
 62
     7
100
AcDbLine
 10
1597.13219216921
 20
950.7092224159041
 30
0.0
 11
1595.13493316921
 21
950.8138954159038
 31
0.0
  0
LINE
  5
6D2F
330
1E
100
AcDbEntity
  8
躯体と製品
  6
DASHED1
 62
     7
100
AcDbLine
 10
1597.02752216921
 20
948.7119634159041
 30
0.0
 11
1597.13219216921
 21
950.7092224159041
 31
0.0
  0
LINE
  5
6D30
330
1E
100
AcDbEntity
  8
躯体と製品
  6
DASHED1
 62
     7
100
AcDbLine
 10
1599.02478116921
 20
948.6072904159037
 30
0.0
 11
1597.02752216921
 21
948.7119634159041
 31
0.0
  0
LINE
  5
6D31
330
1E
100
AcDbEntity
  8
躯体と製品
  6
DASHED1
 62
     7
100
AcDbLine
 10
1600.12808216921
 20
950.5522144159037
 30
0.0
 11
1599.02478116921
 21
948.6072904159037
 31
0.0
  0
LINE
  5
6D32
330
1E
100
AcDbEntity
  8
躯体と製品
  6
DASHED1
 62
     7
100
AcDbLine
 10
1602.12534116921
 20
950.4475414159038
 30
0.0
 11
1600.12808216921
 21
950.5522144159037
 31
0.0
  0
LINE
  5
6D33
330
1E
100
AcDbEntity
  8
躯体と製品
  6
DASHED1
 62
     7
100
AcDbLine
 10
1602.02066816921
 20
948.450282415904
 30
0.0
 11
1602.12534116921
 21
950.4475414159038
 31
0.0
  0
LINE
  5
6D34
330
1E
100
AcDbEntity
  8
躯体と製品
  6
DASHED1
 62
     7
100
AcDbLine
 10
1604.01792716921
 20
948.345612415904
 30
0.0
 11
1602.02066816921
 21
948.450282415904
 31
0.0
  0
LINE
  5
6D35
330
1E
100
AcDbEntity
  8
躯体と製品
  6
DASHED1
 62
     7
100
AcDbLine
 10
1605.12122816921
 20
950.2905334159038
 30
0.0
 11
1604.01792716921
 21
948.345612415904
 31
0.0
  0
LINE
  5
6D36
330
1E
100
AcDbEntity
  8
躯体と製品
  6
DASHED1
 62
     7
100
AcDbLine
 10
1607.11848716921
 20
950.1858634159038
 30
0.0
 11
1605.12122816921
 21
950.2905334159038
 31
0.0
  0
LINE
  5
6D37
330
1E
100
AcDbEntity
  8
躯体と製品
  6
DASHED1
 62
     7
100
AcDbLine
 10
1607.01381716921
 20
948.1886044159038
 30
0.0
 11
1607.11848716921
 21
950.1858634159038
 31
0.0
  0
LINE
  5
6D38
330
1E
100
AcDbEntity
  8
躯体と製品
  6
DASHED1
 62
     7
100
AcDbLine
 10
1609.01107616921
 20
948.0839314159039
 30
0.0
 11
1607.01381716921
 21
948.1886044159038
 31
0.0
  0
LINE
  5
6D39
330
1E
100
AcDbEntity
  8
躯体と製品
  6
DASHED1
 62
     7
100
AcDbLine
 10
1610.11437716921
 20
950.0288554159041
 30
0.0
 11
1609.01107616921
 21
948.0839314159039
 31
0.0
  0
LINE
  5
6D3A
330
1E
100
AcDbEntity
  8
躯体と製品
  6
DASHED1
 62
     7
100
AcDbLine
 10
1587.96135116921
 20
947.6850424159037
 30
0.0
 11
1618.91886716921
 21
946.0626274159041
 31
0.0
  0
LINE
  5
6D3B
330
1E
100
AcDbEntity
  8
躯体と製品
  6
DASHED1
 62
     7
100
AcDbLine
 10
1588.03985516921
 20
949.1829874159039
 30
0.0
 11
1587.96135116921
 21
947.6850424159037
 31
0.0
  0
LINE
  5
6D3C
330
1E
100
AcDbEntity
  8
躯体と製品
  6
DASHED1
 62
     7
100
AcDbLine
 10
1590.14178716921
 20
951.075573415904
 30
0.0
 11
1588.03985516921
 21
949.1829874159039
 31
0.0
  0
LINE
  5
6D3D
330
1E
100
AcDbEntity
  8
躯体と製品
  6
DASHED1
 62
     7
100
AcDbLine
 10
1589.95861016921
 20
947.580369415904
 30
0.0
 11
1590.14178716921
 21
951.075573415904
 31
0.0
  0
LINE
  5
6D3E
330
1E
100
AcDbEntity
  8
躯体と製品
  6
DASHED1
 62
     7
100
AcDbLine
 10
1612.11163616921
 20
949.9241824159039
 30
0.0
 11
1610.11437716921
 21
950.0288554159041
 31
0.0
  0
LINE
  5
6D3F
330
1E
100
AcDbEntity
  8
躯体と製品
  6
DASHED1
 62
     7
100
AcDbLine
 10
1612.00696316921
 20
947.9269234159039
 30
0.0
 11
1612.11163616921
 21
949.9241824159039
 31
0.0
  0
LINE
  5
6D40
330
1E
100
AcDbEntity
  8
躯体と製品
  6
DASHED1
 62
     7
100
AcDbLine
 10
1614.00422216921
 20
947.8222534159037
 30
0.0
 11
1612.00696316921
 21
947.9269234159039
 31
0.0
  0
LINE
  5
6D41
330
1E
100
AcDbEntity
  8
躯体と製品
  6
DASHED1
 62
     7
100
AcDbLine
 10
1592.78831216921
 20
947.4320734159039
 30
0.0
 11
1590.91886816921
 21
945.5626294159037
 31
0.0
  0
LINE
  5
6D42
330
1E
100
AcDbEntity
  8
躯体と製品
  6
DASHED1
 62
     7
100
AcDbLine
 10
1621.91886716921
 20
945.5626294159037
 30
0.0
 11
1626.91886816921
 21
945.5626294159037
 31
0.0
  0
LINE
  5
6D43
330
1E
100
AcDbEntity
  8
躯体と製品
  6
DASHED1
 62
     7
100
AcDbLine
 10
1626.91886816921
 20
944.5626274159039
 30
0.0
 11
1621.91886716921
 21
945.5626294159037
 31
0.0
  0
LINE
  5
6D44
330
1E
100
AcDbEntity
  8
躯体と製品
  6
DASHED1
 62
     7
100
AcDbLine
 10
1626.91886816921
 20
946.5626284159039
 30
0.0
 11
1621.91886716921
 21
945.5626294159037
 31
0.0
  0
LINE
  5
6D45
330
1E
100
AcDbEntity
  8
躯体と製品
  6
DASHED1
 62
     7
100
AcDbLine
 10
1626.91886816921
 20
950.5626274159041
 30
0.0
 11
1621.91886716921
 21
949.5626284159039
 31
0.0
  0
LINE
  5
6D46
330
1E
100
AcDbEntity
  8
躯体と製品
  6
DASHED1
 62
     7
100
AcDbLine
 10
1614.91886816921
 20
949.5626284159039
 30
0.0
 11
1614.00422216921
 21
947.8222534159037
 31
0.0
  0
ARC
  5
6D47
330
1E
100
AcDbEntity
  8
躯体と製品
  6
DASHED1
 62
     7
100
AcDbCircle
 10
1618.66594016921
 20
952.2809464159038
 30
0.0
 40
0.3999990000000001
100
AcDbArc
 50
278.1301019999983
 51
8.130101999998254
  0
LINE
  5
6D48
330
1E
100
AcDbEntity
  8
躯体と製品
  6
DASHED1
 62
     7
100
AcDbLine
 10
1619.03380316921
 20
952.5343414159038
 30
0.0
 11
1619.06191916921
 21
952.3375174159038
 31
0.0
  0
ARC
  5
6D49
330
1E
100
AcDbEntity
  8
躯体と製品
  6
DASHED1
 62
     7
100
AcDbCircle
 10
1618.63782116921
 20
952.4777734159039
 30
0.0
 40
0.3999990000000001
100
AcDbArc
 50
8.130101999998254
 51
98.29846599999665
  0
LINE
  5
6D4A
330
1E
100
AcDbEntity
  8
躯体と製品
  6
DASHED1
 62
     7
100
AcDbLine
 10
1611.77646716921
 20
951.881229415904
 30
0.0
 11
1618.58008916921
 21
952.8735844159038
 31
0.0
  0
LINE
  5
6D4B
330
1E
100
AcDbEntity
  8
躯体と製品
  6
DASHED1
 62
     7
100
AcDbLine
 10
1618.72250816921
 20
939.2402884159041
 30
0.0
 11
1612.11848816921
 21
940.1837194159039
 31
0.0
  0
ARC
  5
6D4C
330
1E
100
AcDbEntity
  8
躯体と製品
  6
DASHED1
 62
     7
100
AcDbCircle
 10
1618.66594016921
 20
938.8443094159038
 30
0.0
 40
0.3999990000000001
100
AcDbArc
 50
351.8698980000018
 51
81.86989800000175
  0
LINE
  5
6D4D
330
1E
100
AcDbEntity
  8
躯体と製品
  6
DASHED1
 62
     7
100
AcDbLine
 10
1619.03380316921
 20
938.5909144159038
 30
0.0
 11
1619.06191916921
 21
938.7877414159039
 31
0.0
  0
ARC
  5
6D4E
330
1E
100
AcDbEntity
  8
躯体と製品
  6
DASHED1
 62
     7
100
AcDbCircle
 10
1618.63782116921
 20
938.6474824159037
 30
0.0
 40
0.3999990000000001
100
AcDbArc
 50
261.7015340000034
 51
351.8698980000018
  0
LINE
  5
6D4F
330
1E
100
AcDbEntity
  8
躯体と製品
  6
DASHED1
 62
     7
100
AcDbLine
 10
1611.77646716921
 20
939.2440264159038
 30
0.0
 11
1618.58008916921
 21
938.2516714159036
 31
0.0
  0
LINE
  5
6D50
330
1E
100
AcDbEntity
  8
躯体と製品
  6
DASHED1
 62
     7
100
AcDbLine
 10
1607.11848716921
 20
942.003570415904
 30
0.0
 11
1612.11848816921
 21
940.1837194159039
 31
0.0
  0
LINE
  5
6D51
330
1E
100
AcDbEntity
  8
躯体と製品
  6
DASHED1
 62
     7
100
AcDbLine
 10
1607.11848716921
 20
950.1858634159038
 30
0.0
 11
1611.77646716921
 21
951.881229415904
 31
0.0
  0
LINE
  5
6D52
330
1E
100
AcDbEntity
  8
躯体と製品
  6
DASHED1
 62
     7
100
AcDbLine
 10
1607.11848716921
 20
949.1216854159038
 30
0.0
 11
1612.11848816921
 21
950.9415364159037
 31
0.0
  0
LINE
  5
6D53
330
1E
100
AcDbEntity
  8
躯体と製品
  6
DASHED1
 62
     7
100
AcDbLine
 10
1614.91886816921
 20
941.5626274159041
 30
0.0
 11
1626.91886816921
 21
941.5626274159041
 31
0.0
  0
LINE
  5
6D54
330
1E
100
AcDbEntity
  8
躯体と製品
  6
DASHED1
 62
     7
100
AcDbLine
 10
1614.00422216921
 20
943.3030024159037
 30
0.0
 11
1614.91886816921
 21
941.5626274159041
 31
0.0
  0
LINE
  5
6D55
330
1E
100
AcDbEntity
  8
躯体と製品
  6
Continuous
 62
     3
100
AcDbLine
 10
1628.91886816921
 20
950.5626294159037
 30
0.0
 11
1629.41886816921
 21
950.5626294159037
 31
0.0
  0
LINE
  5
6D56
330
1E
100
AcDbEntity
  8
躯体と製品
  6
Continuous
 62
     3
100
AcDbLine
 10
1628.91886816921
 20
940.5626294159038
 30
0.0
 11
1629.41886816921
 21
940.5626294159038
 31
0.0
  0
LINE
  5
6D57
330
1E
100
AcDbEntity
  8
躯体と製品
  6
Continuous
 62
     3
100
AcDbLine
 10
1631.41886816921
 20
946.0626294159037
 30
0.0
 11
1630.91886816921
 21
945.5626294159037
 31
0.0
  0
LINE
  5
6D58
330
1E
100
AcDbEntity
  8
躯体と製品
  6
Continuous
 62
     3
100
AcDbLine
 10
1631.41886816921
 20
945.0626294159038
 30
0.0
 11
1630.91886816921
 21
945.5626294159037
 31
0.0
  0
LINE
  5
6D59
330
1E
100
AcDbEntity
  8
躯体と製品
  6
Continuous
 62
     3
100
AcDbLine
 10
1628.91886816921
 20
950.5626294159037
 30
0.0
 11
1628.91886816921
 21
940.5626294159038
 31
0.0
  0
LINE
  5
6D5A
330
1E
100
AcDbEntity
  8
躯体と製品
  6
Continuous
 62
     3
100
AcDbLine
 10
1628.91886816921
 20
992.0626294159037
 30
0.0
 11
1629.41886816921
 21
992.0626294159037
 31
0.0
  0
LINE
  5
6D5B
330
1E
100
AcDbEntity
  8
躯体と製品
  6
Continuous
 62
     3
100
AcDbLine
 10
1629.41886816921
 20
992.0626294159037
 30
0.0
 11
1629.41886816921
 21
979.0626294159038
 31
0.0
  0
LINE
  5
6D5C
330
1E
100
AcDbEntity
  8
躯体と製品
  6
Continuous
 62
     3
100
AcDbLine
 10
1629.41886816921
 20
979.0626294159038
 30
0.0
 11
1628.91886816921
 21
979.0626294159038
 31
0.0
  0
LINE
  5
6D5D
330
1E
100
AcDbEntity
  8
躯体と製品
  6
Continuous
 62
     3
100
AcDbLine
 10
1628.91886816921
 20
977.5626294159037
 30
0.0
 11
1629.41886816921
 21
977.5626294159037
 31
0.0
  0
ARC
  5
6D5E
330
1E
100
AcDbEntity
  8
躯体と製品
  6
Continuous
 62
     3
100
AcDbCircle
 10
1638.91886816921
 20
987.362629415904
 30
0.0
 40
0.2999999999999999
100
AcDbArc
 50
180.0
 51
270.0
  0
LINE
  5
6D5F
330
1E
100
AcDbEntity
  8
躯体と製品
  6
Continuous
 62
     3
100
AcDbLine
 10
1638.91886816921
 20
987.0626294159038
 30
0.0
 11
1643.51886816921
 21
987.0626294159038
 31
0.0
  0
LINE
  5
6D60
330
1E
100
AcDbEntity
  8
躯体と製品
  6
Continuous
 62
     3
100
AcDbLine
 10
1637.41886816921
 20
986.8626294159039
 30
0.0
 11
1637.41886816921
 21
991.5626294159038
 31
0.0
  0
ARC
  5
6D61
330
1E
100
AcDbEntity
  8
躯体と製品
  6
Continuous
 62
     3
100
AcDbCircle
 10
1638.41886816921
 20
986.8626294159039
 30
0.0
 40
1.0
100
AcDbArc
 50
180.0
 51
270.0
  0
LINE
  5
6D62
330
1E
100
AcDbEntity
  8
躯体と製品
  6
Continuous
 62
     3
100
AcDbLine
 10
1638.41886816921
 20
985.8626294159039
 30
0.0
 11
1643.51886816921
 21
985.8626294159039
 31
0.0
  0
ARC
  5
6D63
330
1E
100
AcDbEntity
  8
躯体と製品
  6
Continuous
 62
     3
100
AcDbCircle
 10
1636.91886816921
 20
991.5626294159038
 30
0.0
 40
0.5
100
AcDbArc
 50
0.0
 51
90.0
  0
LINE
  5
6D64
330
1E
100
AcDbEntity
  8
躯体と製品
  6
Continuous
 62
     3
100
AcDbLine
 10
1636.91886816921
 20
992.0626294159037
 30
0.0
 11
1631.91886816921
 21
992.0626294159037
 31
0.0
  0
ARC
  5
6D65
330
1E
100
AcDbEntity
  8
躯体と製品
  6
Continuous
 62
     3
100
AcDbCircle
 10
1631.91886816921
 20
991.5626294159038
 30
0.0
 40
0.5
100
AcDbArc
 50
90.0
 51
180.0
  0
LINE
  5
6D66
330
1E
100
AcDbEntity
  8
躯体と製品
  6
Continuous
 62
     3
100
AcDbLine
 10
1631.41886816921
 20
991.5626294159038
 30
0.0
 11
1631.41886816921
 21
979.5626294159037
 31
0.0
  0
ARC
  5
6D67
330
1E
100
AcDbEntity
  8
躯体と製品
  6
Continuous
 62
     3
100
AcDbCircle
 10
1643.51886816921
 20
986.4626294159037
 30
0.0
 40
0.5999999999999999
100
AcDbArc
 50
270.0
 51
90.0
  0
ARC
  5
6D68
330
1E
100
AcDbEntity
  8
躯体と製品
  6
Continuous
 62
     3
100
AcDbCircle
 10
1631.91886816921
 20
977.0626294159038
 30
0.0
 40
0.5
100
AcDbArc
 50
90.0
 51
180.0
  0
ARC
  5
6D69
330
1E
100
AcDbEntity
  8
躯体と製品
  6
Continuous
 62
     3
100
AcDbCircle
 10
1631.91886816921
 20
979.5626294159037
 30
0.0
 40
0.5
100
AcDbArc
 50
180.0
 51
270.0
  0
LINE
  5
6D6A
330
1E
100
AcDbEntity
  8
躯体と製品
  6
Continuous
 62
     3
100
AcDbLine
 10
1637.41886816921
 20
979.0626294159038
 30
0.0
 11
1631.91886816921
 21
979.0626294159038
 31
0.0
  0
ARC
  5
6D6B
330
1E
100
AcDbEntity
  8
躯体と製品
  6
Continuous
 62
     3
100
AcDbCircle
 10
1637.41886816921
 20
978.5626294159037
 30
0.0
 40
0.5
100
AcDbArc
 50
0.0
 51
90.0
  0
LINE
  5
6D6C
330
1E
100
AcDbEntity
  8
躯体と製品
  6
Continuous
 62
     3
100
AcDbLine
 10
1637.91886816921
 20
972.5626294159038
 30
0.0
 11
1637.91886816921
 21
978.5626294159037
 31
0.0
  0
ARC
  5
6D6D
330
1E
100
AcDbEntity
  8
躯体と製品
  6
Continuous
 62
     3
100
AcDbCircle
 10
1636.91886816921
 20
972.5626294159038
 30
0.0
 40
1.0
100
AcDbArc
 50
270.0
 51
0.0
  0
LINE
  5
6D6E
330
1E
100
AcDbEntity
  8
躯体と製品
  6
Continuous
 62
     3
100
AcDbLine
 10
1636.91886816921
 20
971.562629415904
 30
0.0
 11
1635.01886816921
 21
971.562629415904
 31
0.0
  0
LINE
  5
6D6F
330
1E
100
AcDbEntity
  8
躯体と製品
  6
Continuous
 62
     3
100
AcDbLine
 10
1636.41886816921
 20
977.0626294159038
 30
0.0
 11
1636.41886816921
 21
973.2626294159038
 31
0.0
  0
ARC
  5
6D70
330
1E
100
AcDbEntity
  8
躯体と製品
  6
Continuous
 62
     3
100
AcDbCircle
 10
1635.91886816921
 20
977.0626294159038
 30
0.0
 40
0.5
100
AcDbArc
 50
0.0
 51
90.0
  0
LINE
  5
6D71
330
1E
100
AcDbEntity
  8
躯体と製品
  6
Continuous
 62
     3
100
AcDbLine
 10
1635.91886816921
 20
977.5626294159037
 30
0.0
 11
1631.91886816921
 21
977.5626294159037
 31
0.0
  0
LINE
  5
6D72
330
1E
100
AcDbEntity
  8
躯体と製品
  6
Continuous
 62
     3
100
AcDbLine
 10
1635.91886816921
 20
972.7626294159037
 30
0.0
 11
1635.01886816921
 21
972.7626294159037
 31
0.0
  0
ARC
  5
6D73
330
1E
100
AcDbEntity
  8
躯体と製品
  6
Continuous
 62
     3
100
AcDbCircle
 10
1635.91886816921
 20
973.2626294159038
 30
0.0
 40
0.5
100
AcDbArc
 50
270.0
 51
0.0
  0
ARC
  5
6D74
330
1E
100
AcDbEntity
  8
躯体と製品
  6
Continuous
 62
     3
100
AcDbCircle
 10
1635.01886816921
 20
972.1626294159039
 30
0.0
 40
0.5999999999999999
100
AcDbArc
 50
90.0
 51
270.0
  0
LINE
  5
6D75
330
1E
100
AcDbEntity
  8
躯体と製品
  6
Continuous
 62
     3
100
AcDbLine
 10
1630.41886816921
 20
994.3626294159036
 30
0.0
 11
1630.41886816921
 21
997.7626294159037
 31
0.0
  0
ARC
  5
6D76
330
1E
100
AcDbEntity
  8
躯体と製品
  6
Continuous
 62
     3
100
AcDbCircle
 10
1630.71886816921
 20
994.3626294159036
 30
0.0
 40
0.2999999999999999
100
AcDbArc
 50
180.0
 51
270.0
  0
LINE
  5
6D77
330
1E
100
AcDbEntity
  8
躯体と製品
  6
Continuous
 62
     3
100
AcDbLine
 10
1630.71886816921
 20
994.0626294159038
 30
0.0
 11
1631.91886816921
 21
994.0626294159038
 31
0.0
  0
LINE
  5
6D78
330
1E
100
AcDbEntity
  8
躯体と製品
  6
Continuous
 62
     3
100
AcDbLine
 10
1630.71886816921
 20
998.0626294159037
 30
0.0
 11
1631.91886816921
 21
998.0626294159037
 31
0.0
  0
ARC
  5
6D79
330
1E
100
AcDbEntity
  8
躯体と製品
  6
Continuous
 62
     3
100
AcDbCircle
 10
1630.71886816921
 20
997.7626294159037
 30
0.0
 40
0.2999999999999999
100
AcDbArc
 50
90.0
 51
180.0
  0
LINE
  5
6D7A
330
1E
100
AcDbEntity
  8
躯体と製品
  6
Continuous
 62
     3
100
AcDbLine
 10
1636.91886816921
 20
998.0626294159037
 30
0.0
 11
1639.41886816921
 21
998.0626294159037
 31
0.0
  0
LINE
  5
6D7B
330
1E
100
AcDbEntity
  8
躯体と製品
  6
Continuous
 62
     3
100
AcDbLine
 10
1636.91886816921
 20
994.0626294159038
 30
0.0
 11
1639.41886816921
 21
994.0626294159038
 31
0.0
  0
LINE
  5
6D7C
330
1E
100
AcDbEntity
  8
躯体と製品
  6
Continuous
 62
     3
100
AcDbLine
 10
1636.91886816921
 20
998.0626294159037
 30
0.0
 11
1636.41886816921
 21
997.5626294159038
 31
0.0
  0
LINE
  5
6D7D
330
1E
100
AcDbEntity
  8
躯体と製品
  6
Continuous
 62
     3
100
AcDbLine
 10
1636.41886816921
 20
997.5626294159038
 30
0.0
 11
1635.91886816921
 21
998.0626294159037
 31
0.0
  0
LINE
  5
6D7E
330
1E
100
AcDbEntity
  8
躯体と製品
  6
Continuous
 62
     3
100
AcDbLine
 10
1635.91886816921
 20
998.0626294159037
 30
0.0
 11
1635.41886816921
 21
997.5626294159038
 31
0.0
  0
LINE
  5
6D7F
330
1E
100
AcDbEntity
  8
躯体と製品
  6
Continuous
 62
     3
100
AcDbLine
 10
1635.41886816921
 20
997.5626294159038
 30
0.0
 11
1634.91886816921
 21
998.0626294159037
 31
0.0
  0
LINE
  5
6D80
330
1E
100
AcDbEntity
  8
躯体と製品
  6
Continuous
 62
     3
100
AcDbLine
 10
1634.91886816921
 20
998.0626294159037
 30
0.0
 11
1634.41886816921
 21
997.5626294159038
 31
0.0
  0
LINE
  5
6D81
330
1E
100
AcDbEntity
  8
躯体と製品
  6
Continuous
 62
     3
100
AcDbLine
 10
1634.41886816921
 20
997.5626294159038
 30
0.0
 11
1633.91886816921
 21
998.0626294159037
 31
0.0
  0
LINE
  5
6D82
330
1E
100
AcDbEntity
  8
躯体と製品
  6
Continuous
 62
     3
100
AcDbLine
 10
1633.91886816921
 20
998.0626294159037
 30
0.0
 11
1633.41886816921
 21
997.5626294159038
 31
0.0
  0
LINE
  5
6D83
330
1E
100
AcDbEntity
  8
躯体と製品
  6
Continuous
 62
     3
100
AcDbLine
 10
1633.41886816921
 20
997.5626294159038
 30
0.0
 11
1632.91886816921
 21
998.0626294159037
 31
0.0
  0
LINE
  5
6D84
330
1E
100
AcDbEntity
  8
躯体と製品
  6
Continuous
 62
     3
100
AcDbLine
 10
1632.91886816921
 20
998.0626294159037
 30
0.0
 11
1632.41886816921
 21
997.5626294159038
 31
0.0
  0
LINE
  5
6D85
330
1E
100
AcDbEntity
  8
躯体と製品
  6
Continuous
 62
     3
100
AcDbLine
 10
1632.41886816921
 20
997.5626294159038
 30
0.0
 11
1631.91886816921
 21
998.0626294159037
 31
0.0
  0
LINE
  5
6D86
330
1E
100
AcDbEntity
  8
躯体と製品
  6
Continuous
 62
     3
100
AcDbLine
 10
1636.91886816921
 20
994.0626294159038
 30
0.0
 11
1636.41886816921
 21
994.5626294159037
 31
0.0
  0
LINE
  5
6D87
330
1E
100
AcDbEntity
  8
躯体と製品
  6
Continuous
 62
     3
100
AcDbLine
 10
1636.41886816921
 20
994.5626294159037
 30
0.0
 11
1635.91886816921
 21
994.0626294159038
 31
0.0
  0
LINE
  5
6D88
330
1E
100
AcDbEntity
  8
躯体と製品
  6
Continuous
 62
     3
100
AcDbLine
 10
1635.91886816921
 20
994.0626294159038
 30
0.0
 11
1635.41886816921
 21
994.5626294159037
 31
0.0
  0
LINE
  5
6D89
330
1E
100
AcDbEntity
  8
躯体と製品
  6
Continuous
 62
     3
100
AcDbLine
 10
1635.41886816921
 20
994.5626294159037
 30
0.0
 11
1634.91886816921
 21
994.0626294159038
 31
0.0
  0
LINE
  5
6D8A
330
1E
100
AcDbEntity
  8
躯体と製品
  6
Continuous
 62
     3
100
AcDbLine
 10
1634.91886816921
 20
994.0626294159038
 30
0.0
 11
1634.41886816921
 21
994.5626294159037
 31
0.0
  0
LINE
  5
6D8B
330
1E
100
AcDbEntity
  8
躯体と製品
  6
Continuous
 62
     3
100
AcDbLine
 10
1634.41886816921
 20
994.5626294159037
 30
0.0
 11
1633.91886816921
 21
994.0626294159038
 31
0.0
  0
LINE
  5
6D8C
330
1E
100
AcDbEntity
  8
躯体と製品
  6
Continuous
 62
     3
100
AcDbLine
 10
1633.91886816921
 20
994.0626294159038
 30
0.0
 11
1633.41886816921
 21
994.5626294159037
 31
0.0
  0
LINE
  5
6D8D
330
1E
100
AcDbEntity
  8
躯体と製品
  6
Continuous
 62
     3
100
AcDbLine
 10
1633.41886816921
 20
994.5626294159037
 30
0.0
 11
1632.91886816921
 21
994.0626294159038
 31
0.0
  0
LINE
  5
6D8E
330
1E
100
AcDbEntity
  8
躯体と製品
  6
Continuous
 62
     3
100
AcDbLine
 10
1632.91886816921
 20
994.0626294159038
 30
0.0
 11
1632.41886816921
 21
994.5626294159037
 31
0.0
  0
LINE
  5
6D8F
330
1E
100
AcDbEntity
  8
躯体と製品
  6
Continuous
 62
     3
100
AcDbLine
 10
1632.41886816921
 20
994.5626294159037
 30
0.0
 11
1631.91886816921
 21
994.0626294159038
 31
0.0
  0
LINE
  5
6D90
330
1E
100
AcDbEntity
  8
躯体と製品
  6
Continuous
 62
     3
100
AcDbLine
 10
1629.41886816921
 20
1000.062629415904
 30
0.0
 11
1637.91886816921
 21
1000.062629415904
 31
0.0
  0
ARC
  5
6D91
330
1E
100
AcDbEntity
  8
躯体と製品
  6
Continuous
 62
     3
100
AcDbCircle
 10
1629.41886816921
 20
999.5626294159038
 30
0.0
 40
0.5
100
AcDbArc
 50
90.0
 51
180.0
  0
LINE
  5
6D92
330
1E
100
AcDbEntity
  8
躯体と製品
  6
Continuous
 62
     3
100
AcDbLine
 10
1628.91886816921
 20
999.5626294159038
 30
0.0
 11
1628.91886816921
 21
992.0626294159037
 31
0.0
  0
LINE
  5
6D93
330
1E
100
AcDbEntity
  8
躯体と製品
  6
Continuous
 62
     3
100
AcDbLine
 10
1637.91886816921
 20
1000.062629415904
 30
0.0
 11
1637.91886816921
 21
999.2626294159039
 31
0.0
  0
LINE
  5
6D94
330
1E
100
AcDbEntity
  8
躯体と製品
  6
Continuous
 62
     3
100
AcDbLine
 10
1638.61886816921
 20
992.8626294159039
 30
0.0
 11
1639.31886816921
 21
992.8626294159039
 31
0.0
  0
LINE
  5
6D95
330
1E
100
AcDbEntity
  8
躯体と製品
  6
Continuous
 62
     3
100
AcDbLine
 10
1638.61886816921
 20
987.362629415904
 30
0.0
 11
1638.61886816921
 21
992.8626294159039
 31
0.0
  0
LINE
  5
6D96
330
1E
100
AcDbEntity
  8
躯体と製品
  6
Continuous
 62
     3
100
AcDbLine
 10
1637.91886816921
 20
999.2626294159039
 30
0.0
 11
1639.31886816921
 21
999.2626294159039
 31
0.0
  0
LINE
  5
6D97
330
1E
100
AcDbEntity
  8
躯体と製品
  6
Continuous
 62
     3
100
AcDbLine
 10
1628.91886816921
 20
979.0626294159038
 30
0.0
 11
1628.91886816921
 21
977.5626294159037
 31
0.0
  0
ARC
  5
6D98
330
1E
100
AcDbEntity
  8
躯体と製品
  6
Continuous
 62
     3
100
AcDbCircle
 10
1639.31886816921
 20
993.4626294159038
 30
0.0
 40
0.5999999999999999
100
AcDbArc
 50
270.0
 51
90.0
  0
ARC
  5
6D99
330
1E
100
AcDbEntity
  8
躯体と製品
  6
Continuous
 62
     3
100
AcDbCircle
 10
1639.31886816921
 20
998.6626294159037
 30
0.0
 40
0.5999999999999999
100
AcDbArc
 50
270.0
 51
90.0
  0
LINE
  5
6D9A
330
1E
100
AcDbEntity
  8
躯体と製品
  6
Continuous
 62
     3
100
AcDbLine
 10
1629.41886816921
 20
977.5626294159037
 30
0.0
 11
1629.41886816921
 21
966.0626294159037
 31
0.0
  0
LINE
  5
6D9B
330
1E
100
AcDbEntity
  8
躯体と製品
  6
Continuous
 62
     3
100
AcDbLine
 10
1631.41886816921
 20
966.5626294159038
 30
0.0
 11
1631.41886816921
 21
977.0626294159038
 31
0.0
  0
LINE
  5
6D9C
330
1E
100
AcDbEntity
  8
躯体と製品
  6
Continuous
 62
     3
100
AcDbLine
 10
1629.41886816921
 20
966.0626294159037
 30
0.0
 11
1628.91886816921
 21
966.0626294159037
 31
0.0
  0
LINE
  5
6D9D
330
1E
100
AcDbEntity
  8
躯体と製品
  6
Continuous
 62
     3
100
AcDbLine
 10
1628.91886816921
 20
964.5626294159038
 30
0.0
 11
1629.41886816921
 21
964.5626294159038
 31
0.0
  0
LINE
  5
6D9E
330
1E
100
AcDbEntity
  8
躯体と製品
  6
Continuous
 62
     3
100
AcDbLine
 10
1629.41886816921
 20
964.5626294159038
 30
0.0
 11
1629.41886816921
 21
950.5626294159037
 31
0.0
  0
LINE
  5
6D9F
330
1E
100
AcDbEntity
  8
躯体と製品
  6
Continuous
 62
     3
100
AcDbLine
 10
1629.41886816921
 20
940.5626294159038
 30
0.0
 11
1629.41886816921
 21
926.5626294159037
 31
0.0
  0
LINE
  5
6DA0
330
1E
100
AcDbEntity
  8
躯体と製品
  6
Continuous
 62
     3
100
AcDbLine
 10
1629.41886816921
 20
926.5626294159037
 30
0.0
 11
1628.91886816921
 21
926.5626294159037
 31
0.0
  0
ARC
  5
6DA1
330
1E
100
AcDbEntity
  8
躯体と製品
  6
Continuous
 62
     3
100
AcDbCircle
 10
1631.91886816921
 20
966.5626294159038
 30
0.0
 40
0.5
100
AcDbArc
 50
180.0
 51
270.0
  0
LINE
  5
6DA2
330
1E
100
AcDbEntity
  8
躯体と製品
  6
Continuous
 62
     3
100
AcDbLine
 10
1631.91886816921
 20
966.0626294159037
 30
0.0
 11
1640.91886816921
 21
966.0626294159037
 31
0.0
  0
LINE
  5
6DA3
330
1E
100
AcDbEntity
  8
躯体と製品
  6
Continuous
 62
     3
100
AcDbLine
 10
1631.91886816921
 20
920.0626294159038
 30
0.0
 11
1637.66886816921
 21
920.0626294159038
 31
0.0
  0
ARC
  5
6DA4
330
1E
100
AcDbEntity
  8
躯体と製品
  6
Continuous
 62
     3
100
AcDbCircle
 10
1631.91886816921
 20
920.5626294159037
 30
0.0
 40
0.5
100
AcDbArc
 50
180.0
 51
270.0
  0
ARC
  5
6DA5
330
1E
100
AcDbEntity
  8
躯体と製品
  6
Continuous
 62
     3
100
AcDbCircle
 10
1631.91886816921
 20
918.0626294159038
 30
0.0
 40
0.5
100
AcDbArc
 50
90.0
 51
180.0
  0
LINE
  5
6DA6
330
1E
100
AcDbEntity
  8
躯体と製品
  6
Continuous
 62
     3
100
AcDbLine
 10
1631.91886816921
 20
918.5626294159037
 30
0.0
 11
1634.41886816921
 21
918.5626294159037
 31
0.0
  0
LINE
  5
6DA7
330
1E
100
AcDbEntity
  8
躯体と製品
  6
Continuous
 62
     3
100
AcDbLine
 10
1634.41886816921
 20
918.5626294159037
 30
0.0
 11
1635.41886816921
 21
919.0626294159038
 31
0.0
  0
LINE
  5
6DA8
330
1E
100
AcDbEntity
  8
躯体と製品
  6
Continuous
 62
     3
100
AcDbLine
 10
1635.41886816921
 20
919.0626294159038
 30
0.0
 11
1635.41886816921
 21
918.5626294159037
 31
0.0
  0
LINE
  5
6DA9
330
1E
100
AcDbEntity
  8
躯体と製品
  6
Continuous
 62
     3
100
AcDbLine
 10
1635.41886816921
 20
918.5626294159037
 30
0.0
 11
1636.41886816921
 21
919.0626294159038
 31
0.0
  0
LINE
  5
6DAA
330
1E
100
AcDbEntity
  8
躯体と製品
  6
Continuous
 62
     3
100
AcDbLine
 10
1636.41886816921
 20
919.0626294159038
 30
0.0
 11
1636.41886816921
 21
918.5626294159037
 31
0.0
  0
ARC
  5
6DAB
330
1E
100
AcDbEntity
  8
躯体と製品
  6
Continuous
 62
     3
100
AcDbCircle
 10
1637.66886816921
 20
919.3126294159037
 30
0.0
 40
0.75
100
AcDbArc
 50
270.0
 51
90.0
  0
ARC
  5
6DAC
330
1E
100
AcDbEntity
  8
躯体と製品
  6
Continuous
 62
     3
100
AcDbCircle
 10
1631.91886816921
 20
964.0626294159037
 30
0.0
 40
0.5
100
AcDbArc
 50
90.0
 51
180.0
  0
ARC
  5
6DAD
330
1E
100
AcDbEntity
  8
躯体と製品
  6
Continuous
 62
     3
100
AcDbCircle
 10
1640.91886816921
 20
965.5626294159038
 30
0.0
 40
0.5
100
AcDbArc
 50
0.0
 51
90.0
  0
LINE
  5
6DAE
330
1E
100
AcDbEntity
  8
躯体と製品
  6
Continuous
 62
     3
100
AcDbLine
 10
1640.91886816921
 20
964.5626294159038
 30
0.0
 11
1631.91886816921
 21
964.5626294159038
 31
0.0
  0
ARC
  5
6DAF
330
1E
100
AcDbEntity
  8
躯体と製品
  6
Continuous
 62
     3
100
AcDbCircle
 10
1640.91886816921
 20
965.0626294159037
 30
0.0
 40
0.5
100
AcDbArc
 50
270.0
 51
0.0
  0
LINE
  5
6DB0
330
1E
100
AcDbEntity
  8
躯体と製品
  6
Continuous
 62
     3
100
AcDbLine
 10
1641.41886816921
 20
965.0626294159037
 30
0.0
 11
1641.41886816921
 21
965.5626294159038
 31
0.0
  0
LINE
  5
6DB1
330
1E
100
AcDbEntity
  8
躯体と製品
  6
Continuous
 62
     3
100
AcDbLine
 10
1631.41886816921
 20
924.5626294159038
 30
0.0
 11
1631.41886816921
 21
920.5626294159037
 31
0.0
  0
ARC
  5
6DB2
330
1E
100
AcDbEntity
  8
躯体と製品
  6
Continuous
 62
     3
100
AcDbCircle
 10
1631.91886816921
 20
924.5626294159038
 30
0.0
 40
0.5
100
AcDbArc
 50
90.0
 51
180.0
  0
LINE
  5
6DB3
330
1E
100
AcDbEntity
  8
躯体と製品
  6
Continuous
 62
     3
100
AcDbLine
 10
1631.91886816921
 20
925.0626294159037
 30
0.0
 11
1642.66886816921
 21
925.0626294159037
 31
0.0
  0
LINE
  5
6DB4
330
1E
100
AcDbEntity
  8
躯体と製品
  6
Continuous
 62
     3
100
AcDbLine
 10
1631.41886816921
 20
927.0626294159038
 30
0.0
 11
1631.41886816921
 21
945.0626294159038
 31
0.0
  0
ARC
  5
6DB5
330
1E
100
AcDbEntity
  8
躯体と製品
  6
Continuous
 62
     3
100
AcDbCircle
 10
1631.91886816921
 20
927.0626294159038
 30
0.0
 40
0.5
100
AcDbArc
 50
180.0
 51
270.0
  0
LINE
  5
6DB6
330
1E
100
AcDbEntity
  8
躯体と製品
  6
Continuous
 62
     3
100
AcDbLine
 10
1631.91886816921
 20
926.5626294159037
 30
0.0
 11
1642.66886816921
 21
926.5626294159037
 31
0.0
  0
ARC
  5
6DB7
330
1E
100
AcDbEntity
  8
躯体と製品
  6
Continuous
 62
     3
100
AcDbCircle
 10
1642.66886816921
 20
925.8126294159037
 30
0.0
 40
0.75
100
AcDbArc
 50
270.0
 51
90.0
  0
ARC
  5
6DB8
330
1E
100
AcDbEntity
  8
躯体と製品
  6
Continuous
 62
     3
100
AcDbCircle
 10
1631.91886816921
 20
915.0626294159037
 30
0.0
 40
0.5
100
AcDbArc
 50
180.0
 51
270.0
  0
LINE
  5
6DB9
330
1E
100
AcDbEntity
  8
躯体と製品
  6
Continuous
 62
     3
100
AcDbLine
 10
1631.91886816921
 20
914.5626294159038
 30
0.0
 11
1634.41886816921
 21
914.5626294159038
 31
0.0
  0
ARC
  5
6DBA
330
1E
100
AcDbEntity
  8
躯体と製品
  6
Continuous
 62
     3
100
AcDbCircle
 10
1637.66886816921
 20
913.8126294159038
 30
0.0
 40
0.75
100
AcDbArc
 50
270.0
 51
90.0
  0
LINE
  5
6DBB
330
1E
100
AcDbEntity
  8
躯体と製品
  6
Continuous
 62
     3
100
AcDbLine
 10
1634.41886816921
 20
914.5626294159038
 30
0.0
 11
1635.41886816921
 21
914.0626294159037
 31
0.0
  0
LINE
  5
6DBC
330
1E
100
AcDbEntity
  8
躯体と製品
  6
Continuous
 62
     3
100
AcDbLine
 10
1635.41886816921
 20
914.5626294159038
 30
0.0
 11
1635.41886816921
 21
914.0626294159037
 31
0.0
  0
LINE
  5
6DBD
330
1E
100
AcDbEntity
  8
躯体と製品
  6
Continuous
 62
     3
100
AcDbLine
 10
1635.41886816921
 20
914.5626294159038
 30
0.0
 11
1636.41886816921
 21
914.0626294159037
 31
0.0
  0
LINE
  5
6DBE
330
1E
100
AcDbEntity
  8
躯体と製品
  6
Continuous
 62
     3
100
AcDbLine
 10
1636.41886816921
 20
914.5626294159038
 30
0.0
 11
1636.41886816921
 21
914.0626294159037
 31
0.0
  0
LINE
  5
6DBF
330
1E
100
AcDbEntity
  8
躯体と製品
  6
Continuous
 62
     3
100
AcDbLine
 10
1631.41886816921
 20
915.0626294159037
 30
0.0
 11
1631.41886816921
 21
918.0626294159038
 31
0.0
  0
LINE
  5
6DC0
330
1E
100
AcDbEntity
  8
躯体と製品
  6
Continuous
 62
     3
100
AcDbLine
 10
1629.91886816921
 20
915.0626294159037
 30
0.0
 11
1629.91886816921
 21
924.5626294159038
 31
0.0
  0
ARC
  5
6DC1
330
1E
100
AcDbEntity
  8
躯体と製品
  6
Continuous
 62
     3
100
AcDbCircle
 10
1629.41886816921
 20
915.0626294159037
 30
0.0
 40
0.5
100
AcDbArc
 50
270.0
 51
0.0
  0
LINE
  5
6DC2
330
1E
100
AcDbEntity
  8
躯体と製品
  6
Continuous
 62
     3
100
AcDbLine
 10
1629.41886816921
 20
914.5626294159038
 30
0.0
 11
1628.91886816921
 21
914.5626294159038
 31
0.0
  0
LINE
  5
6DC3
330
1E
100
AcDbEntity
  8
躯体と製品
  6
Continuous
 62
     3
100
AcDbLine
 10
1628.91886816921
 20
913.0626294159037
 30
0.0
 11
1628.91886816921
 21
914.5626294159038
 31
0.0
  0
LINE
  5
6DC4
330
1E
100
AcDbEntity
  8
躯体と製品
  6
Continuous
 62
     3
100
AcDbLine
 10
1637.66886816921
 20
913.0626294159037
 30
0.0
 11
1628.91886816921
 21
913.0626294159037
 31
0.0
  0
LINE
  5
6DC5
330
1E
100
AcDbEntity
  8
躯体と製品
  6
Continuous
 62
     3
100
AcDbLine
 10
1629.41886816921
 20
925.0626294159037
 30
0.0
 11
1628.91886816921
 21
925.0626294159037
 31
0.0
  0
ARC
  5
6DC6
330
1E
100
AcDbEntity
  8
躯体と製品
  6
Continuous
 62
     3
100
AcDbCircle
 10
1629.41886816921
 20
924.5626294159038
 30
0.0
 40
0.5
100
AcDbArc
 50
0.0
 51
90.0
  0
LINE
  5
6DC7
330
1E
100
AcDbEntity
  8
躯体と製品
  6
Continuous
 62
     3
100
AcDbLine
 10
1637.66886816921
 20
914.5626294159038
 30
0.0
 11
1636.41886816921
 21
914.5626294159038
 31
0.0
  0
LINE
  5
6DC8
330
1E
100
AcDbEntity
  8
躯体と製品
  6
Continuous
 62
     3
100
AcDbLine
 10
1637.66886816921
 20
918.5626294159037
 30
0.0
 11
1636.41886816921
 21
918.5626294159037
 31
0.0
  0
LINE
  5
6DC9
330
1E
100
AcDbEntity
  8
躯体と製品
  6
Continuous
 62
     3
100
AcDbLine
 10
1628.91886816921
 20
926.5626294159037
 30
0.0
 11
1628.91886816921
 21
925.0626294159037
 31
0.0
  0
LINE
  5
6DCA
330
1E
100
AcDbEntity
  8
躯体と製品
  6
Continuous
 62
     3
100
AcDbLine
 10
1628.91886816921
 20
966.0626294159037
 30
0.0
 11
1628.91886816921
 21
964.5626294159038
 31
0.0
  0
LINE
  5
6DCB
330
1E
100
AcDbEntity
  8
躯体と製品
  6
Continuous
 62
     3
100
AcDbLine
 10
1631.41886816921
 20
946.0626294159037
 30
0.0
 11
1631.41886816921
 21
964.0626294159037
 31
0.0
  0
LINE
  5
6DCC
330
1E
100
AcDbEntity
  8
躯体と製品
  6
Continuous
 62
     3
100
AcDbLine
 10
1897.291145029009
 20
903.5908498265039
 30
0.0
 11
1898.756551803811
 21
931.5524767996318
 31
0.0
  0
LINE
  5
6DCD
330
1E
100
AcDbEntity
  8
躯体と製品
  6
Continuous
 62
     4
100
AcDbLine
 10
1898.61434226751
 20
928.8389571991871
 30
0.0
 11
1896.271260227689
 21
931.1820392390083
 31
0.0
  0
LINE
  5
6DCE
330
1E
100
AcDbEntity
  8
躯体と製品
  6
Continuous
 62
     4
100
AcDbLine
 10
1898.684767243166
 20
930.1827457859044
 30
0.0
 11
1897.763688649382
 21
931.1038243796886
 31
0.0
  0
LINE
  5
6DCF
330
1E
100
AcDbEntity
  8
躯体と製品
  6
Continuous
 62
     4
100
AcDbLine
 10
1898.543917291855
 20
927.4951686124691
 30
0.0
 11
1894.778831805996
 21
931.2602540983283
 31
0.0
  0
LINE
  5
6DD0
330
1E
100
AcDbEntity
  8
躯体と製品
  6
Continuous
 62
     4
100
AcDbLine
 10
1897.513421395237
 20
927.1114509467144
 30
0.0
 11
1893.286403384303
 21
931.3384689576478
 31
0.0
  0
LINE
  5
6DD1
330
1E
100
AcDbEntity
  8
躯体と製品
  6
Continuous
 62
     4
100
AcDbLine
 10
1896.020992973546
 20
927.1896658060343
 30
0.0
 11
1891.793974962612
 21
931.4166838169679
 31
0.0
  0
LINE
  5
6DD2
330
1E
100
AcDbEntity
  8
躯体と製品
  6
Continuous
 62
     4
100
AcDbLine
 10
1894.528564551852
 20
927.2678806653537
 30
0.0
 11
1890.301546540919
 21
931.4948986762878
 31
0.0
  0
LINE
  5
6DD3
330
1E
100
AcDbEntity
  8
躯体と製品
  6
Continuous
 62
     4
100
AcDbLine
 10
1893.036136130159
 20
927.3460955246736
 30
0.0
 11
1888.809118119225
 21
931.5731135356074
 31
0.0
  0
LINE
  5
6DD4
330
1E
100
AcDbEntity
  8
躯体と製品
  6
Continuous
 62
     4
100
AcDbLine
 10
1891.543707708466
 20
927.4243103839935
 30
0.0
 11
1887.316689697532
 21
931.6513283949271
 31
0.0
  0
LINE
  5
6DD5
330
1E
100
AcDbEntity
  8
躯体と製品
  6
Continuous
 62
     4
100
AcDbLine
 10
1890.051279286774
 20
927.5025252433129
 30
0.0
 11
1885.824261275839
 21
931.729543254247
 31
0.0
  0
LINE
  5
6DD6
330
1E
100
AcDbEntity
  8
躯体と製品
  6
Continuous
 62
     4
100
AcDbLine
 10
1888.55885086508
 20
927.5807401026325
 30
0.0
 11
1884.331832854146
 21
931.8077581135669
 31
0.0
  0
LINE
  5
6DD7
330
1E
100
AcDbEntity
  8
躯体と製品
  6
Continuous
 62
     4
100
AcDbLine
 10
1887.066422443387
 20
927.6589549619529
 30
0.0
 11
1883.707927065241
 21
931.0174503400991
 31
0.0
  0
LINE
  5
6DD8
330
1E
100
AcDbEntity
  8
躯体と製品
  6
Continuous
 62
     4
100
AcDbLine
 10
1885.573994021693
 20
927.737169821273
 30
0.0
 11
1883.637502089585
 21
929.6736617533815
 31
0.0
  0
LINE
  5
6DD9
330
1E
100
AcDbEntity
  8
躯体と製品
  6
Continuous
 62
     7
100
AcDbLine
 10
1883.541596979399
 20
927.8436832368807
 30
0.0
 11
1883.750940804371
 21
931.8382013758988
 31
0.0
  0
LINE
  5
6DDA
330
1E
100
AcDbEntity
  8
躯体と製品
  6
Continuous
 62
     7
100
AcDbLine
 10
1898.730383825689
 20
931.0531620322548
 30
0.0
 11
1883.750940804371
 21
931.8382013758988
 31
0.0
  0
LINE
  5
6DDB
330
1E
100
AcDbEntity
  8
躯体と製品
  6
Continuous
 62
     4
100
AcDbLine
 10
1884.081565600002
 20
927.8153846805924
 30
0.0
 11
1883.567077113929
 21
928.3298731666652
 31
0.0
  0
ARC
  5
6DDC
330
1E
100
AcDbEntity
  8
躯体と製品
  6
Continuous
 62
     3
100
AcDbCircle
 10
1907.556768945653
 20
902.3076725789328
 30
0.0
 40
0.5999999999999984
100
AcDbArc
 50
166.9999999999966
 51
346.9999999999966
  0
ARC
  5
6DDD
330
1E
100
AcDbEntity
  8
躯体と製品
  6
Continuous
 62
     3
100
AcDbCircle
 10
1907.068154417309
 20
905.0812031684294
 30
0.0
 40
0.5
100
AcDbArc
 50
347.0000000000029
 51
86.99999999999457
  0
ARC
  5
6DDE
330
1E
100
AcDbEntity
  8
躯体と製品
  6
Continuous
 62
     3
100
AcDbCircle
 10
1909.141908684709
 20
905.1727967816956
 30
0.0
 40
0.2999999999999999
100
AcDbArc
 50
86.99999999999457
 51
167.0000000000029
  0
ARC
  5
6DDF
330
1E
100
AcDbEntity
  8
躯体と製品
  6
Continuous
 62
     3
100
AcDbCircle
 10
1911.824149924159
 20
857.1459369677668
 30
0.0
 40
0.6000000000000015
100
AcDbArc
 50
90.0
 51
270.0
  0
LINE
  5
6DE0
330
1E
100
AcDbEntity
  8
躯体と製品
  6
Continuous
 62
     3
100
AcDbLine
 10
1922.991624202114
 20
849.4306242619698
 30
0.0
 11
1922.991624202114
 21
845.7459369677668
 31
0.0
  0
LINE
  5
6DE1
330
1E
100
AcDbEntity
  8
躯体と製品
  6
Continuous
 62
     3
100
AcDbLine
 10
1925.991624202114
 20
848.245936967767
 30
0.0
 11
1925.991624202114
 21
849.7459369677667
 31
0.0
  0
LINE
  5
6DE2
330
1E
100
AcDbEntity
  8
躯体と製品
  6
Continuous
 62
     3
100
AcDbLine
 10
1923.491624202114
 20
845.7459369677668
 30
0.0
 11
1922.991624202114
 21
845.7459369677668
 31
0.0
  0
ARC
  5
6DE3
330
1E
100
AcDbEntity
  8
躯体と製品
  6
Continuous
 62
     3
100
AcDbCircle
 10
1923.491624202114
 20
848.245936967767
 30
0.0
 40
2.5
100
AcDbArc
 50
270.0
 51
0.0
  0
LINE
  5
6DE4
330
1E
100
AcDbEntity
  8
躯体と製品
  6
Continuous
 62
     3
100
AcDbLine
 10
1916.224149924159
 20
857.7459369677667
 30
0.0
 11
1916.224149924159
 21
858.745936967767
 31
0.0
  0
LINE
  5
6DE5
330
1E
100
AcDbEntity
  8
躯体と製品
  6
Continuous
 62
     3
100
AcDbLine
 10
1916.224149924159
 20
858.745936967767
 30
0.0
 11
1914.224149924159
 21
857.7459369677667
 31
0.0
  0
LINE
  5
6DE6
330
1E
100
AcDbEntity
  8
躯体と製品
  6
Continuous
 62
     3
100
AcDbLine
 10
1911.824149924159
 20
857.7459369677667
 30
0.0
 11
1914.224149924159
 21
857.7459369677667
 31
0.0
  0
ARC
  5
6DE7
330
1E
100
AcDbEntity
  8
躯体と製品
  6
Continuous
 62
     3
100
AcDbCircle
 10
1920.606701345892
 20
858.2459369677668
 30
0.0
 40
0.5
100
AcDbArc
 50
270.0
 51
12.00000000000297
  0
LINE
  5
6DE8
330
1E
100
AcDbEntity
  8
躯体と製品
  6
Continuous
 62
     3
100
AcDbLine
 10
1921.074325781566
 20
856.5459369677668
 30
0.0
 11
1911.824149924159
 21
856.5459369677668
 31
0.0
  0
LINE
  5
6DE9
330
1E
100
AcDbEntity
  8
躯体と製品
  6
Continuous
 62
     3
100
AcDbLine
 10
1921.563399581932
 20
856.1498928131756
 30
0.0
 11
1922.991624202114
 21
849.4306242619698
 31
0.0
  0
ARC
  5
6DEA
330
1E
100
AcDbEntity
  8
躯体と製品
  6
Continuous
 62
     3
100
AcDbCircle
 10
1921.074325781566
 20
856.0459369677667
 30
0.0
 40
0.5
100
AcDbArc
 50
12.00000000000297
 51
90.0
  0
ARC
  5
6DEB
330
1E
100
AcDbEntity
  8
躯体と製品
  6
Continuous
 62
     3
100
AcDbCircle
 10
1897.842795752629
 20
904.5633113831369
 30
0.0
 40
0.5
100
AcDbArc
 50
177.0000000000011
 51
266.9999999999946
  0
LINE
  5
6DEC
330
1E
100
AcDbEntity
  8
躯体と製品
  6
Continuous
 62
     3
100
AcDbLine
 10
1898.315942541884
 20
904.037828637638
 30
0.0
 11
1897.816627774507
 21
904.0639966157593
 31
0.0
  0
ARC
  5
6DED
330
1E
100
AcDbEntity
  8
躯体と製品
  6
Continuous
 62
     3
100
AcDbCircle
 10
1898.342110520006
 20
904.5371434050155
 30
0.0
 40
0.5
100
AcDbArc
 50
266.9999999999946
 51
357.0000000000011
  0
ARC
  5
6DEE
330
1E
100
AcDbEntity
  8
躯体と製品
  6
Continuous
 62
     3
100
AcDbCircle
 10
1910.282619947406
 20
904.412053995416
 30
0.0
 40
1.0
100
AcDbArc
 50
12.00000000000297
 51
86.99999999999457
  0
ARC
  5
6DEF
330
1E
100
AcDbEntity
  8
躯体と製品
  6
Continuous
 62
     3
100
AcDbCircle
 10
1911.101231296659
 20
905.3705247385037
 30
0.0
 40
3.0
100
AcDbArc
 50
12.00000000000297
 51
86.99999999999457
  0
ARC
  5
6DF0
330
1E
100
AcDbEntity
  8
躯体と製品
  6
Continuous
 62
     3
100
AcDbCircle
 10
1898.209147446329
 20
911.5537181264189
 30
0.0
 40
0.5
100
AcDbArc
 50
86.99999999999457
 51
177.0000000000011
  0
LINE
  5
6DF1
330
1E
100
AcDbEntity
  8
躯体と製品
  6
Continuous
 62
     3
100
AcDbLine
 10
1898.734630191828
 20
912.0268649156747
 30
0.0
 11
1898.235315424451
 21
912.0530328937961
 31
0.0
  0
ARC
  5
6DF2
330
1E
100
AcDbEntity
  8
躯体と製品
  6
Continuous
 62
     3
100
AcDbCircle
 10
1898.708462213707
 20
911.5275501482974
 30
0.0
 40
0.5
100
AcDbArc
 50
357.0000000000011
 51
86.99999999999457
  0
LINE
  5
6DF3
330
1E
100
AcDbEntity
  8
躯体と製品
  6
Continuous
 62
     3
100
AcDbLine
 10
1914.03567409886
 20
905.9942598109572
 30
0.0
 11
1925.991624202114
 21
849.7459369677667
 31
0.0
  0
LINE
  5
6DF4
330
1E
100
AcDbEntity
  8
躯体と製品
  6
Continuous
 62
     3
100
AcDbLine
 10
1911.26076754814
 20
904.6199656862338
 30
0.0
 11
1921.095775146259
 21
858.3498928131758
 31
0.0
  0
LINE
  5
6DF5
330
1E
100
AcDbEntity
  8
躯体と製品
  6
Continuous
 62
     3
100
AcDbLine
 10
1920.606701345892
 20
857.7459369677667
 30
0.0
 11
1916.224149924159
 21
857.7459369677667
 31
0.0
  0
LINE
  5
6DF6
330
1E
100
AcDbEntity
  8
躯体と製品
  6
Continuous
 62
     3
100
AcDbLine
 10
1899.103105068598
 20
909.5041231006669
 30
0.0
 11
1899.207776981084
 21
911.501382170176
 31
0.0
  0
LINE
  5
6DF7
330
1E
100
AcDbEntity
  8
躯体と製品
  6
Continuous
 62
     3
100
AcDbLine
 10
1899.576251857854
 20
908.9786403551681
 30
0.0
 11
1911.258239165388
 21
908.3664133427673
 31
0.0
  0
ARC
  5
6DF8
330
1E
100
AcDbEntity
  8
躯体と製品
  6
Continuous
 62
     3
100
AcDbCircle
 10
1899.602419835975
 20
909.4779551225451
 30
0.0
 40
0.5
100
AcDbArc
 50
177.0000000000011
 51
266.9999999999946
  0
LINE
  5
6DF9
330
1E
100
AcDbEntity
  8
躯体と製品
  6
Continuous
 62
     3
100
AcDbLine
 10
1898.893761243627
 20
905.5096049616485
 30
0.0
 11
1898.841425287383
 21
904.5109754268938
 31
0.0
  0
ARC
  5
6DFA
330
1E
100
AcDbEntity
  8
躯体と製品
  6
Continuous
 62
     3
100
AcDbCircle
 10
1899.393076011004
 20
905.4834369835269
 30
0.0
 40
0.5
100
AcDbArc
 50
86.99999999999457
 51
177.0000000000011
  0
LINE
  5
6DFB
330
1E
100
AcDbEntity
  8
躯体と製品
  6
Continuous
 62
     3
100
AcDbLine
 10
1908.849597665274
 20
905.240282097999
 30
0.0
 11
1908.141390984524
 21
902.1727019463266
 31
0.0
  0
LINE
  5
6DFC
330
1E
100
AcDbEntity
  8
躯体と製品
  6
Continuous
 62
     3
100
AcDbLine
 10
1910.334955903649
 20
905.4106835301707
 30
0.0
 11
1909.157609471582
 21
905.4723856421221
 31
0.0
  0
LINE
  5
6DFD
330
1E
100
AcDbEntity
  8
躯体と製品
  6
Continuous
 62
     3
100
AcDbLine
 10
1899.419243989125
 20
905.9827517509043
 30
0.0
 11
1907.094322395431
 21
905.5805179358065
 31
0.0
  0
LINE
  5
6DFE
330
1E
100
AcDbEntity
  8
躯体と製品
  6
Continuous
 62
     3
100
AcDbLine
 10
1907.555339449701
 20
904.9687276412573
 30
0.0
 11
1906.972146906782
 21
902.442643211539
 31
0.0
  0
LINE
  5
6DFF
330
1E
100
AcDbEntity
  8
躯体と製品
  6
DASHED1
 62
     7
100
AcDbLine
 10
1869.11805104784
 20
910.5748870205777
 30
0.0
 11
1897.578992788345
 21
909.0833122676539
 31
0.0
  0
ARC
  5
6E00
330
1E
100
AcDbEntity
  8
躯体と製品
  6
DASHED1
 62
     7
100
AcDbCircle
 10
1869.039547113475
 20
909.076942718446
 30
0.0
 40
1.5
100
AcDbArc
 50
86.99999999999457
 51
266.9999999999946
  0
LINE
  5
6E01
330
1E
100
AcDbEntity
  8
躯体と製品
  6
DASHED1
 62
     7
100
AcDbLine
 10
1868.96104317911
 20
907.5789984163138
 30
0.0
 11
1872.456246550751
 21
907.3958225694637
 31
0.0
  0
LINE
  5
6E02
330
1E
100
AcDbEntity
  8
躯体と製品
  6
DASHED1
 62
     7
100
AcDbLine
 10
1872.508582506995
 20
908.3944521042186
 30
0.0
 11
1872.456246550751
 21
907.3958225694637
 31
0.0
  0
LINE
  5
6E03
330
1E
100
AcDbEntity
  8
躯体と製品
  6
DASHED1
 62
     7
100
AcDbLine
 10
1872.508582506995
 20
908.3944521042186
 30
0.0
 11
1892.481173202086
 21
907.3477329793595
 31
0.0
  0
LINE
  5
6E04
330
1E
100
AcDbEntity
  8
躯体と製品
  6
DASHED1
 62
     7
100
AcDbLine
 10
1892.481173202086
 20
907.3477329793595
 30
0.0
 11
1892.428837245843
 21
906.3491034446048
 31
0.0
  0
LINE
  5
6E05
330
1E
100
AcDbEntity
  8
躯体と製品
  6
DASHED1
 62
     7
100
AcDbLine
 10
1892.428837245843
 20
906.3491034446048
 30
0.0
 11
1897.421984919616
 21
906.0874236633901
 31
0.0
  0
LINE
  5
6E06
330
1E
100
AcDbEntity
  8
躯体と製品
  6
Continuous
 62
     4
100
AcDbLine
 10
1884.317077403095
 20
932.3092175869881
 30
0.0
 11
1883.802588917022
 21
932.8237060730609
 31
0.0
  0
ARC
  5
6E07
330
1E
100
AcDbEntity
  8
躯体と製品
  6
Continuous
 62
     3
100
AcDbCircle
 10
1911.724149924159
 20
849.4459369677667
 30
0.0
 40
1.0
100
AcDbArc
 50
180.0
 51
270.0
  0
LINE
  5
6E08
330
1E
100
AcDbEntity
  8
躯体と製品
  6
Continuous
 62
     3
100
AcDbLine
 10
1915.624149924159
 20
848.4459369677667
 30
0.0
 11
1911.724149924159
 21
848.4459369677667
 31
0.0
  0
ARC
  5
6E09
330
1E
100
AcDbEntity
  8
躯体と製品
  6
Continuous
 62
     3
100
AcDbCircle
 10
1915.624149924159
 20
847.8459369677668
 30
0.0
 40
0.5999999999999998
100
AcDbArc
 50
270.0
 51
90.0
  0
LINE
  5
6E0A
330
1E
100
AcDbEntity
  8
躯体と製品
  6
Continuous
 62
     3
100
AcDbLine
 10
1909.224149924159
 20
886.5459369677667
 30
0.0
 11
1909.224149924159
 21
849.7459369677667
 31
0.0
  0
ARC
  5
6E0B
330
1E
100
AcDbEntity
  8
躯体と製品
  6
Continuous
 62
     3
100
AcDbCircle
 10
1909.974149924159
 20
904.495936967767
 30
0.0
 40
0.75
100
AcDbArc
 50
0.0
 51
180.0
  0
LINE
  5
6E0C
330
1E
100
AcDbEntity
  8
躯体と製品
  6
Continuous
 62
     3
100
AcDbLine
 10
1909.224149924159
 20
897.9459369677668
 30
0.0
 11
1909.224149924159
 21
904.495936967767
 31
0.0
  0
ARC
  5
6E0D
330
1E
100
AcDbEntity
  8
躯体と製品
  6
Continuous
 62
     3
100
AcDbCircle
 10
1908.724149924159
 20
897.9459369677668
 30
0.0
 40
0.5
100
AcDbArc
 50
270.0
 51
0.0
  0
ARC
  5
6E0E
330
1E
100
AcDbEntity
  8
躯体と製品
  6
Continuous
 62
     3
100
AcDbCircle
 10
1905.024149924159
 20
896.4459369677667
 30
0.0
 40
1.0
100
AcDbArc
 50
90.0
 51
180.0
  0
LINE
  5
6E0F
330
1E
100
AcDbEntity
  8
躯体と製品
  6
Continuous
 62
     3
100
AcDbLine
 10
1908.724149924159
 20
897.4459369677667
 30
0.0
 11
1905.024149924159
 21
897.4459369677667
 31
0.0
  0
ARC
  5
6E10
330
1E
100
AcDbEntity
  8
躯体と製品
  6
Continuous
 62
     3
100
AcDbCircle
 10
1908.724149924159
 20
886.5459369677667
 30
0.0
 40
0.5
100
AcDbArc
 50
0.0
 51
90.0
  0
ARC
  5
6E11
330
1E
100
AcDbEntity
  8
躯体と製品
  6
Continuous
 62
     3
100
AcDbCircle
 10
1905.024149924159
 20
888.0459369677668
 30
0.0
 40
1.0
100
AcDbArc
 50
180.0
 51
270.0
  0
LINE
  5
6E12
330
1E
100
AcDbEntity
  8
躯体と製品
  6
Continuous
 62
     3
100
AcDbLine
 10
1908.724149924159
 20
887.0459369677668
 30
0.0
 11
1905.024149924159
 21
887.0459369677668
 31
0.0
  0
ARC
  5
6E13
330
1E
100
AcDbEntity
  8
躯体と製品
  6
Continuous
 62
     3
100
AcDbCircle
 10
1908.924149924159
 20
895.9459369677668
 30
0.0
 40
0.2999999999999998
100
AcDbArc
 50
0.0
 51
90.0
  0
LINE
  5
6E14
330
1E
100
AcDbEntity
  8
躯体と製品
  6
Continuous
 62
     3
100
AcDbLine
 10
1909.224149924159
 20
895.9459369677668
 30
0.0
 11
1909.224149924159
 21
888.5459369677668
 31
0.0
  0
ARC
  5
6E15
330
1E
100
AcDbEntity
  8
躯体と製品
  6
Continuous
 62
     3
100
AcDbCircle
 10
1908.924149924159
 20
888.5459369677668
 30
0.0
 40
0.2999999999999998
100
AcDbArc
 50
270.0
 51
0.0
  0
LINE
  5
6E16
330
1E
100
AcDbEntity
  8
躯体と製品
  6
Continuous
 62
     3
100
AcDbLine
 10
1905.524149924159
 20
888.245936967767
 30
0.0
 11
1908.924149924159
 21
888.245936967767
 31
0.0
  0
LINE
  5
6E17
330
1E
100
AcDbEntity
  8
躯体と製品
  6
Continuous
 62
     3
100
AcDbLine
 10
1905.524149924159
 20
896.245936967767
 30
0.0
 11
1908.924149924159
 21
896.245936967767
 31
0.0
  0
LINE
  5
6E18
330
1E
100
AcDbEntity
  8
躯体と製品
  6
Continuous
 62
     3
100
AcDbLine
 10
1910.724149924159
 20
904.495936967767
 30
0.0
 11
1910.724149924159
 21
860.2459369677667
 31
0.0
  0
ARC
  5
6E19
330
1E
100
AcDbEntity
  8
躯体と製品
  6
Continuous
 62
     3
100
AcDbCircle
 10
1911.724149924159
 20
849.7459369677667
 30
0.0
 40
2.5
100
AcDbArc
 50
180.0
 51
270.0
  0
LINE
  5
6E1A
330
1E
100
AcDbEntity
  8
躯体と製品
  6
Continuous
 62
     3
100
AcDbLine
 10
1915.624149924159
 20
847.2459369677666
 30
0.0
 11
1911.724149924159
 21
847.2459369677666
 31
0.0
  0
ARC
  5
6E1B
330
1E
100
AcDbEntity
  8
躯体と製品
  6
Continuous
 62
     3
100
AcDbCircle
 10
1911.224149924159
 20
860.2459369677667
 30
0.0
 40
0.5
100
AcDbArc
 50
180.0
 51
270.0
  0
LINE
  5
6E1C
330
1E
100
AcDbEntity
  8
躯体と製品
  6
Continuous
 62
     3
100
AcDbLine
 10
1911.224149924159
 20
859.7459369677666
 30
0.0
 11
1917.924149924159
 21
859.7459369677666
 31
0.0
  0
LINE
  5
6E1D
330
1E
100
AcDbEntity
  8
躯体と製品
  6
Continuous
 62
     3
100
AcDbLine
 10
1910.724149924159
 20
858.2459369677668
 30
0.0
 11
1910.724149924159
 21
849.4459369677667
 31
0.0
  0
ARC
  5
6E1E
330
1E
100
AcDbEntity
  8
躯体と製品
  6
Continuous
 62
     3
100
AcDbCircle
 10
1911.224149924159
 20
858.2459369677668
 30
0.0
 40
0.5
100
AcDbArc
 50
90.0
 51
180.0
  0
ARC
  5
6E1F
330
1E
100
AcDbEntity
  8
躯体と製品
  6
Continuous
 62
     3
100
AcDbCircle
 10
1917.924149924159
 20
859.4459369677668
 30
0.0
 40
0.2999999999999998
100
AcDbArc
 50
0.0
 51
90.0
  0
LINE
  5
6E20
330
1E
100
AcDbEntity
  8
躯体と製品
  6
Continuous
 62
     3
100
AcDbLine
 10
1911.224149924159
 20
858.745936967767
 30
0.0
 11
1916.224149924159
 21
858.745936967767
 31
0.0
  0
LINE
  5
6E21
330
1E
100
AcDbEntity
  8
躯体と製品
  6
Continuous
 62
     3
100
AcDbLine
 10
1918.224149924159
 20
859.4459369677668
 30
0.0
 11
1918.224149924159
 21
859.1363249677669
 31
0.0
  0
LINE
  5
6E22
330
1E
100
AcDbEntity
  8
躯体と製品
  6
Continuous
 62
     3
100
AcDbLine
 10
1916.224149924159
 20
858.745936967767
 30
0.0
 11
1916.224149924159
 21
858.2459369677668
 31
0.0
  0
ARC
  5
6E23
330
1E
100
AcDbEntity
  8
躯体と製品
  6
Continuous
 62
     3
100
AcDbCircle
 10
1917.724149924159
 20
859.1363249677669
 30
0.0
 40
0.5
100
AcDbArc
 50
284.0362430000035
 51
0.0
  0
LINE
  5
6E24
330
1E
100
AcDbEntity
  8
躯体と製品
  6
Continuous
 62
     3
100
AcDbLine
 10
1916.224149924159
 20
858.2459369677668
 30
0.0
 11
1917.845417924159
 21
858.6512539677668
 31
0.0
  0
LINE
  5
6E25
330
1E
100
AcDbEntity
  8
躯体と製品
  6
Continuous
 62
     3
100
AcDbLine
 10
1904.024149924159
 20
894.3459369677666
 30
0.0
 11
1904.024149924159
 21
896.4459369677667
 31
0.0
  0
ARC
  5
6E26
330
1E
100
AcDbEntity
  8
躯体と製品
  6
Continuous
 62
     3
100
AcDbCircle
 10
1905.524149924159
 20
895.9459369677668
 30
0.0
 40
0.2999999999999998
100
AcDbArc
 50
90.0
 51
180.0
  0
LINE
  5
6E27
330
1E
100
AcDbEntity
  8
躯体と製品
  6
Continuous
 62
     3
100
AcDbLine
 10
1905.224149924159
 20
894.3459369677666
 30
0.0
 11
1905.224149924159
 21
895.9459369677668
 31
0.0
  0
ARC
  5
6E28
330
1E
100
AcDbEntity
  8
躯体と製品
  6
Continuous
 62
     3
100
AcDbCircle
 10
1905.524149924159
 20
888.5459369677668
 30
0.0
 40
0.2999999999999998
100
AcDbArc
 50
180.0
 51
270.0
  0
LINE
  5
6E29
330
1E
100
AcDbEntity
  8
躯体と製品
  6
Continuous
 62
     3
100
AcDbLine
 10
1905.224149924159
 20
890.1459369677668
 30
0.0
 11
1905.224149924159
 21
888.5459369677668
 31
0.0
  0
LINE
  5
6E2A
330
1E
100
AcDbEntity
  8
躯体と製品
  6
Continuous
 62
     3
100
AcDbLine
 10
1904.024149924159
 20
890.1459369677668
 30
0.0
 11
1904.024149924159
 21
888.0459369677668
 31
0.0
  0
ARC
  5
6E2B
330
1E
100
AcDbEntity
  8
躯体と製品
  6
Continuous
 62
     3
100
AcDbCircle
 10
1904.624149924159
 20
894.3459369677666
 30
0.0
 40
0.5999999999999998
100
AcDbArc
 50
180.0
 51
0.0
  0
ARC
  5
6E2C
330
1E
100
AcDbEntity
  8
躯体と製品
  6
Continuous
 62
     3
100
AcDbCircle
 10
1904.624149924159
 20
890.1459369677668
 30
0.0
 40
0.5999999999999998
100
AcDbArc
 50
0.0
 51
180.0
  0
LINE
  5
6E2D
330
1E
100
AcDbEntity
  8
躯体と製品
  6
Continuous
 62
     7
100
AcDbLine
 10
1906.724149924159
 20
892.7459369677666
 30
0.0
 11
1908.375234924159
 21
892.222563967767
 31
0.0
  0
ARC
  5
6E2E
330
1E
100
AcDbEntity
  8
躯体と製品
  6
Continuous
 62
     7
100
AcDbCircle
 10
1908.224149924159
 20
891.7459369677667
 30
0.0
 40
0.5
100
AcDbArc
 50
287.587954000006
 51
72.41204599999399
  0
LINE
  5
6E2F
330
1E
100
AcDbEntity
  8
躯体と製品
  6
Continuous
 62
     7
100
AcDbLine
 10
1905.224149924159
 20
888.7459369677667
 30
0.0
 11
1905.224149924159
 21
891.2459369677668
 31
0.0
  0
ARC
  5
6E30
330
1E
100
AcDbEntity
  8
躯体と製品
  6
Continuous
 62
     7
100
AcDbCircle
 10
1905.724149924159
 20
894.745936967767
 30
0.0
 40
0.5
100
AcDbArc
 50
90.0
 51
180.0
  0
ARC
  5
6E31
330
1E
100
AcDbEntity
  8
躯体と製品
  6
Continuous
 62
     7
100
AcDbCircle
 10
1905.724149924159
 20
888.7459369677667
 30
0.0
 40
0.5
100
AcDbArc
 50
180.0
 51
270.0
  0
ARC
  5
6E32
330
1E
100
AcDbEntity
  8
躯体と製品
  6
Continuous
 62
     7
100
AcDbCircle
 10
1906.224149924159
 20
888.7459369677667
 30
0.0
 40
0.5
100
AcDbArc
 50
270.0
 51
0.0
  0
LINE
  5
6E33
330
1E
100
AcDbEntity
  8
躯体と製品
  6
Continuous
 62
     7
100
AcDbLine
 10
1905.724149924159
 20
888.245936967767
 30
0.0
 11
1906.224149924159
 21
888.245936967767
 31
0.0
  0
LINE
  5
6E34
330
1E
100
AcDbEntity
  8
躯体と製品
  6
Continuous
 62
     7
100
AcDbLine
 10
1905.724149924159
 20
895.2459369677667
 30
0.0
 11
1906.224149924159
 21
895.2459369677667
 31
0.0
  0
ARC
  5
6E35
330
1E
100
AcDbEntity
  8
躯体と製品
  6
Continuous
 62
     7
100
AcDbCircle
 10
1906.224149924159
 20
894.745936967767
 30
0.0
 40
0.5
100
AcDbArc
 50
0.0
 51
90.0
  0
LINE
  5
6E36
330
1E
100
AcDbEntity
  8
躯体と製品
  6
Continuous
 62
     7
100
AcDbLine
 10
1906.724149924159
 20
892.7459369677666
 30
0.0
 11
1906.724149924159
 21
894.745936967767
 31
0.0
  0
LINE
  5
6E37
330
1E
100
AcDbEntity
  8
躯体と製品
  6
Continuous
 62
     7
100
AcDbLine
 10
1906.724149924159
 20
890.7459369677667
 30
0.0
 11
1906.724149924159
 21
888.7459369677667
 31
0.0
  0
LINE
  5
6E38
330
1E
100
AcDbEntity
  8
躯体と製品
  6
Continuous
 62
     7
100
AcDbLine
 10
1906.724149924159
 20
890.7459369677667
 30
0.0
 11
1908.375234924159
 21
891.2693099677667
 31
0.0
  0
LINE
  5
6E39
330
1E
100
AcDbEntity
  8
躯体と製品
  6
Continuous
 62
     7
100
AcDbLine
 10
1905.224149924159
 20
894.745936967767
 30
0.0
 11
1905.224149924159
 21
892.2459369677669
 31
0.0
  0
LINE
  5
6E3A
330
1E
100
AcDbEntity
  8
躯体と製品
  6
Continuous
 62
     7
100
AcDbLine
 10
1904.628351745457
 20
891.2459369677668
 30
0.0
 11
1905.224149924159
 21
891.2459369677668
 31
0.0
  0
ARC
  5
6E3B
330
1E
100
AcDbEntity
  8
躯体と製品
  6
Continuous
 62
     7
100
AcDbCircle
 10
1904.628351745457
 20
890.1459369677665
 30
0.0
 40
1.1
100
AcDbArc
 50
90.0
 51
175.0000000000005
  0
LINE
  5
6E3C
330
1E
100
AcDbEntity
  8
躯体と製品
  6
Continuous
 62
     7
100
AcDbLine
 10
1904.628351745457
 20
892.2459369677669
 30
0.0
 11
1905.224149924159
 21
892.2459369677669
 31
0.0
  0
ARC
  5
6E3D
330
1E
100
AcDbEntity
  8
躯体と製品
  6
Continuous
 62
     7
100
AcDbCircle
 10
1904.628351745457
 20
890.1459369677665
 30
0.0
 40
2.1
100
AcDbArc
 50
90.0
 51
175.0000000000005
  0
LINE
  5
6E3E
330
1E
100
AcDbEntity
  8
躯体と製品
  6
Continuous
 62
     3
100
AcDbLine
 10
1898.756551803811
 20
931.5524767996317
 30
0.0
 11
1659.085463462713
 21
944.1131062979383
 31
0.0
  0
LINE
  5
6E3F
330
1E
100
AcDbEntity
  8
躯体と製品
  6
Continuous
 62
     3
100
AcDbLine
 10
1897.291145029009
 20
903.5908498265039
 30
0.0
 11
1657.620056687911
 21
916.1514793248102
 31
0.0
  0
LINE
  5
6E40
330
1E
100
AcDbEntity
  8
躯体と製品
  6
Continuous
 62
     3
100
AcDbLine
 10
1898.521040000718
 20
927.0586438932364
 30
0.0
 11
1658.84995165962
 21
939.6192733915428
 31
0.0
  0
LINE
  5
6E41
330
1E
100
AcDbEntity
  8
躯体と製品
  6
Continuous
 62
     3
100
AcDbLine
 10
1898.442536066353
 20
925.560699591104
 30
0.0
 11
1658.771447725255
 21
938.1213290894109
 31
0.0
  0
LINE
  5
6E42
330
1E
100
AcDbEntity
  8
躯体と製品
  6
DASHED1
 62
     4
100
AcDbLine
 10
1897.699365487703
 20
911.3801601975895
 30
0.0
 11
1658.028277146606
 21
923.940789695896
 31
0.0
  0
LINE
  5
6E43
330
1E
100
AcDbEntity
  8
躯体と製品
  6
DASHED1
 62
     4
100
AcDbLine
 10
1897.605160766466
 20
909.5826270350309
 30
0.0
 11
1657.934072425368
 21
922.1432565333378
 31
0.0
  0
LINE
  5
6E44
330
1E
100
AcDbEntity
  8
躯体と製品
  6
DASHED1
 62
     4
100
AcDbLine
 10
1897.421984919616
 20
906.0874236633901
 30
0.0
 11
1657.750896578518
 21
918.6480531616966
 31
0.0
  0
LINE
  5
6E45
330
1E
100
AcDbEntity
  8
躯体と製品
  6
DASHED1
 62
     4
100
AcDbLine
 10
1897.343480985252
 20
904.5894793612584
 30
0.0
 11
1657.672392644154
 21
917.1501088595649
 31
0.0
  0
LINE
  5
6E46
330
1E
100
AcDbEntity
  8
躯体と製品
  6
DASHED1
 62
     4
100
AcDbLine
 10
1883.698604848128
 20
930.8395718411441
 30
0.0
 11
1673.986402549667
 21
941.8301226521624
 31
0.0
  0
ARC
  5
6E47
330
1E
100
AcDbEntity
  8
躯体と製品
  6
Continuous
 62
     7
100
AcDbCircle
 10
1726.935532521545
 20
885.6707294384024
 30
0.0
 40
1.0
100
AcDbArc
 50
90.95484125386796
 51
175.0000000000005
  0
POINT
  5
6E48
330
1E
100
AcDbEntity
  8
躯体と製品
 62
     4
100
AcDbPoint
 10
1819.471204125453
 20
907.6692201131965
 30
0.0
  0
LINE
  5
6E49
330
1E
100
AcDbEntity
  8
躯体と製品
  6
Continuous
 62
     7
100
AcDbLine
 10
1804.726347331
 20
902.8420308124832
 30
0.0
 11
1804.462613886105
 21
897.8096969013332
 31
0.0
  0
LINE
  5
6E4A
330
1E
100
AcDbEntity
  8
躯体と製品
  6
Continuous
 62
     7
100
AcDbLine
 10
1798.734570122472
 20
903.156046549941
 30
0.0
 11
1798.470836677578
 21
898.123712638791
 31
0.0
  0
LINE
  5
6E4B
330
1E
100
AcDbEntity
  8
躯体と製品
  6
Continuous
 62
     7
100
AcDbLine
 10
1805.019023604902
 20
908.4266268000762
 30
0.0
 11
1804.914756773474
 21
906.4370971375998
 31
0.0
  0
LINE
  5
6E4C
330
1E
100
AcDbEntity
  8
躯体と製品
  6
Continuous
 62
     4
100
AcDbLine
 10
1804.451302714394
 20
908.4563797912004
 30
0.0
 11
1804.347035882966
 21
906.4668501287238
 31
0.0
  0
LINE
  5
6E4D
330
1E
100
AcDbEntity
  8
躯体と製品
  6
Continuous
 62
     4
100
AcDbLine
 10
1799.594967286882
 20
908.7108895464099
 30
0.0
 11
1799.490700455454
 21
906.7213598839334
 31
0.0
  0
LINE
  5
6E4E
330
1E
100
AcDbEntity
  8
躯体と製品
  6
Continuous
 62
     7
100
AcDbLine
 10
1799.027246396375
 20
908.7406425375341
 30
0.0
 11
1798.922979564946
 21
906.7511128750576
 31
0.0
  0
LINE
  5
6E4F
330
1E
100
AcDbEntity
  8
躯体と製品
  6
DASHED1
 62
     4
100
AcDbLine
 10
1800.840563045465
 20
932.4782724735689
 30
0.0
 11
1799.594967286882
 21
908.7108895464099
 31
0.0
  0
LINE
  5
6E50
330
1E
100
AcDbEntity
  8
躯体と製品
  6
DASHED1
 62
     7
100
AcDbLine
 10
1800.272842154957
 20
932.5080254646932
 30
0.0
 11
1799.027246396375
 21
908.7406425375341
 31
0.0
  0
LINE
  5
6E51
330
1E
100
AcDbEntity
  8
躯体と製品
  6
DASHED1
 62
     4
100
AcDbLine
 10
1805.696898472976
 20
932.2237627183595
 30
0.0
 11
1804.451302714394
 21
908.4563797912004
 31
0.0
  0
LINE
  5
6E52
330
1E
100
AcDbEntity
  8
躯体と製品
  6
DASHED1
 62
     7
100
AcDbLine
 10
1806.264619363484
 20
932.1940097272351
 30
0.0
 11
1805.019023604902
 21
908.4266268000762
 31
0.0
  0
POINT
  5
6E53
330
1E
100
AcDbEntity
  8
躯体と製品
 62
     4
100
AcDbPoint
 10
1801.91886816921
 20
906.5941050063285
 30
0.0
  0
LINE
  5
6E54
330
1E
100
AcDbEntity
  8
躯体と製品
  6
Continuous
 62
     4
100
AcDbLine
 10
1804.462613886105
 20
897.8096969013332
 30
0.0
 11
1798.470836677578
 21
898.123712638791
 31
0.0
  0
ARC
  5
6E55
330
1E
100
AcDbEntity
  8
躯体と製品
  6
DASHED1
 62
     7
100
AcDbCircle
 10
1803.143124516573
 20
929.9543077111826
 30
0.0
 40
6.299999999999998
100
AcDbArc
 50
47.69686900000316
 51
126.3093710000041
  0
ARC
  5
6E56
330
1E
100
AcDbEntity
  8
躯体と製品
  6
DASHED1
 62
     7
100
AcDbCircle
 10
1805.066836069308
 20
932.0571482974751
 30
0.0
 40
3.45
100
AcDbArc
 50
0.3127430000019805
 51
47.82048899999998
  0
ARC
  5
6E57
330
1E
100
AcDbEntity
  8
躯体と製品
  6
DASHED1
 62
     7
100
AcDbCircle
 10
1801.455500064053
 20
932.2509195774294
 30
0.0
 40
3.45
100
AcDbArc
 50
126.3091240000028
 51
173.7621630000023
  0
LINE
  5
6E58
330
1E
100
AcDbEntity
  8
躯体と製品
  6
DASHED1
 62
     7
100
AcDbLine
 10
1804.179870109917
 20
935.4061001312114
 30
0.0
 11
1802.681925807785
 21
935.4846040655758
 31
0.0
  0
ARC
  5
6E59
330
1E
100
AcDbEntity
  8
躯体と製品
  6
DASHED1
 62
     7
100
AcDbCircle
 10
1804.781101755373
 20
935.413889773557
 30
0.0
 40
0.5999999999999998
100
AcDbArc
 50
73.29976700000166
 51
177.0000000000011
  0
ARC
  5
6E5A
330
1E
100
AcDbEntity
  8
躯体と製品
  6
DASHED1
 62
     7
100
AcDbCircle
 10
1802.084802011535
 20
935.5551968554129
 30
0.0
 40
0.5999999999999998
100
AcDbArc
 50
357.0000000000011
 51
100.7002330000052
  0
LINE
  5
6E5B
330
1E
100
AcDbEntity
  8
躯体と製品
  6
DASHED1
 62
     7
100
AcDbLine
 10
1791.213621532522
 20
932.3539711710003
 30
0.0
 11
1778.283670455269
 21
918.7889183117729
 31
0.0
  0
LINE
  5
6E5C
330
1E
100
AcDbEntity
  8
躯体と製品
  6
DASHED1
 62
     7
100
AcDbLine
 10
1774.936269122225
 20
921.2443717377281
 30
0.0
 11
1776.767818168612
 21
918.8683607456574
 31
0.0
  0
ARC
  5
6E5D
330
1E
100
AcDbEntity
  8
躯体と製品
  6
DASHED1
 62
     7
100
AcDbCircle
 10
1813.832502985031
 20
929.9949235299614
 30
0.0
 40
1.8
100
AcDbArc
 50
37.62684736228169
 51
86.99999999999457
  0
LINE
  5
6E5E
330
1E
100
AcDbEntity
  8
躯体と製品
  6
DASHED1
 62
     7
100
AcDbLine
 10
1814.624506642729
 20
930.6054398738808
 30
0.0
 11
1826.065691980183
 21
915.7631498583743
 31
0.0
  0
LINE
  5
6E5F
330
1E
100
AcDbEntity
  8
躯体と製品
  6
DASHED1
 62
     7
100
AcDbLine
 10
1815.258109568887
 20
931.0938529490167
 30
0.0
 11
1826.699294906341
 21
916.25156293351
 31
0.0
  0
ARC
  5
6E60
330
1E
100
AcDbEntity
  8
躯体と製品
  6
DASHED1
 62
     7
100
AcDbCircle
 10
1827.491298549435
 20
916.8620792963753
 30
0.0
 40
1.8
100
AcDbArc
 50
217.6268473622817
 51
316.3731518762783
  0
ARC
  5
6E61
330
1E
100
AcDbEntity
  8
躯体と製品
  6
DASHED1
 62
     7
100
AcDbCircle
 10
1827.491298549435
 20
916.8620792963753
 30
0.0
 40
1.0
100
AcDbArc
 50
217.6268473622817
 51
316.3731512671342
  0
LINE
  5
6E62
330
1E
100
AcDbEntity
  8
躯体と製品
  6
DASHED1
 62
     7
100
AcDbLine
 10
1830.864102498147
 20
917.7916993929654
 30
0.0
 11
1828.794226091343
 21
915.6201534449104
 31
0.0
  0
LINE
  5
6E63
330
1E
100
AcDbEntity
  8
躯体と製品
  6
DASHED1
 62
     7
100
AcDbLine
 10
1830.864102498147
 20
917.7916993929654
 30
0.0
 11
1830.285023583275
 21
918.3436664303425
 31
0.0
  0
LINE
  5
6E64
330
1E
100
AcDbEntity
  8
躯体と製品
  6
DASHED1
 62
     7
100
AcDbLine
 10
1830.285023583275
 20
918.3436664303425
 30
0.0
 11
1828.215147176493
 21
916.1721204823104
 31
0.0
  0
ARC
  5
6E65
330
1E
100
AcDbEntity
  8
躯体と製品
  6
DASHED1
 62
     7
100
AcDbCircle
 10
1777.559821811706
 20
919.4788771085226
 30
0.0
 40
1.8
100
AcDbArc
 50
217.6268481237201
 51
316.3731526377152
  0
ARC
  5
6E66
330
1E
100
AcDbEntity
  8
躯体と製品
  6
DASHED1
 62
     7
100
AcDbCircle
 10
1777.559821811706
 20
919.4788771085226
 30
0.0
 40
1.0
100
AcDbArc
 50
217.6268487328632
 51
316.3731526377152
  0
LINE
  5
6E67
330
1E
100
AcDbEntity
  8
躯体と製品
  6
DASHED1
 62
     7
100
AcDbLine
 10
1774.302666196047
 20
920.7559586626178
 30
0.0
 11
1776.134215242454
 21
918.3799476705214
 31
0.0
  0
LINE
  5
6E68
330
1E
100
AcDbEntity
  8
躯体と製品
  6
DASHED1
 62
     7
100
AcDbLine
 10
1774.302666196047
 20
920.7559586626178
 30
0.0
 11
1774.936269122225
 21
921.2443717377281
 31
0.0
  0
ARC
  5
6E69
330
1E
100
AcDbEntity
  8
躯体と製品
  6
DASHED1
 62
     7
100
AcDbCircle
 10
1792.516549090935
 20
931.1120453368506
 30
0.0
 40
1.0
100
AcDbArc
 50
86.99999999999457
 51
136.3731526377152
  0
LINE
  5
6E6A
330
1E
100
AcDbEntity
  8
躯体と製品
  6
DASHED1
 62
     7
100
AcDbLine
 10
1791.792700447372
 20
931.8020041336003
 30
0.0
 11
1778.862749353614
 21
918.2369512570575
 31
0.0
  0
LINE
  5
6E6B
330
1E
100
AcDbEntity
  8
躯体と製品
  6
DASHED1
 62
     7
100
AcDbLine
 10
1792.568885047178
 20
932.1106748716051
 30
0.0
 11
1813.884838941274
 21
930.9935530647157
 31
0.0
  0
ARC
  5
6E6C
330
1E
100
AcDbEntity
  8
躯体と製品
  6
DASHED1
 62
     7
100
AcDbCircle
 10
1792.516549090935
 20
931.1120453368506
 30
0.0
 40
1.8
100
AcDbArc
 50
86.99999999999457
 51
136.3731526377152
  0
LINE
  5
6E6D
330
1E
100
AcDbEntity
  8
躯体と製品
  6
DASHED1
 62
     7
100
AcDbLine
 10
1792.610753812172
 20
932.9095784994089
 30
0.0
 11
1813.926707706269
 21
931.7924566925194
 31
0.0
  0
ARC
  5
6E6E
330
1E
100
AcDbEntity
  8
躯体と製品
  6
DASHED1
 62
     7
100
AcDbCircle
 10
1813.832502985031
 20
929.9949235299614
 30
0.0
 40
1.0
100
AcDbArc
 50
37.62684736228169
 51
86.99999999999457
  0
LINE
  5
6E6F
330
1E
100
AcDbEntity
  8
躯体と製品
  6
Continuous
 62
     4
100
AcDbLine
 10
1787.91886816921
 20
897.1705905784421
 30
0.0
 11
1787.91886816921
 21
895.5705905784421
 31
0.0
  0
LINE
  5
6E70
330
1E
100
AcDbEntity
  8
躯体と製品
  6
Continuous
 62
     4
100
AcDbLine
 10
1815.91886816921
 20
897.1705905784421
 30
0.0
 11
1815.91886816921
 21
895.5705905784421
 31
0.0
  0
LINE
  5
6E71
330
1E
100
AcDbEntity
  8
躯体と製品
  6
DASHED1
 62
     7
100
AcDbLine
 10
1804.914756773474
 20
906.4370971375996
 30
0.0
 11
1804.726347331
 21
902.8420308124834
 31
0.0
  0
LINE
  5
6E72
330
1E
100
AcDbEntity
  8
躯体と製品
  6
DASHED1
 62
     7
100
AcDbLine
 10
1798.922979564946
 20
906.7511128750576
 30
0.0
 11
1798.734570122472
 21
903.156046549941
 31
0.0
  0
LINE
  5
6E73
330
1E
100
AcDbEntity
  8
躯体と製品
  6
Continuous
 62
     3
100
AcDbLine
 10
1810.92877367732
 20
906.1219158670985
 30
0.0
 11
1793.12877367732
 21
907.0547743383366
 31
0.0
  0
LINE
  5
6E74
330
1E
100
AcDbEntity
  8
躯体と製品
  6
Continuous
 62
     3
100
AcDbLine
 10
1810.845036147332
 20
904.5241086114911
 30
0.0
 11
1793.045036147332
 21
905.4569670827293
 31
0.0
  0
ARC
  5
6E75
330
1E
100
AcDbEntity
  8
躯体と製品
  6
Continuous
 62
     3
100
AcDbCircle
 10
1807.375120077604
 20
903.7045868610062
 30
0.0
 40
1.0
100
AcDbArc
 50
86.99999999999457
 51
177.0000000000011
  0
LINE
  5
6E76
330
1E
100
AcDbEntity
  8
躯体と製品
  6
Continuous
 62
     3
100
AcDbLine
 10
1806.37649054285
 20
903.7569228172491
 30
0.0
 11
1806.324154586606
 21
902.7582932824946
 31
0.0
  0
ARC
  5
6E77
330
1E
100
AcDbEntity
  8
躯体と製品
  6
Continuous
 62
     3
100
AcDbCircle
 10
1796.190469288353
 20
904.290749570927
 30
0.0
 40
1.0
100
AcDbArc
 50
357.0000000000011
 51
86.99999999999457
  0
LINE
  5
6E78
330
1E
100
AcDbEntity
  8
躯体と製品
  6
Continuous
 62
     3
100
AcDbLine
 10
1797.189098823108
 20
904.2384136146843
 30
0.0
 11
1797.136762866865
 21
903.2397840799296
 31
0.0
  0
LINE
  5
6E79
330
1E
100
AcDbEntity
  8
躯体と製品
  6
Continuous
 62
     3
100
AcDbLine
 10
1806.324154586606
 20
902.7582932824946
 30
0.0
 11
1797.136762866865
 21
903.2397840799296
 31
0.0
  0
ARC
  5
6E7A
330
1E
100
AcDbEntity
  8
躯体と製品
  6
Continuous
 62
     3
100
AcDbCircle
 10
1810.81886816921
 20
904.0247938441138
 30
0.0
 40
2.1
100
AcDbArc
 50
0.0
 51
86.99999999999457
  0
LINE
  5
6E7B
330
1E
100
AcDbEntity
  8
躯体と製品
  6
Continuous
 62
     3
100
AcDbLine
 10
1812.91886816921
 20
904.0247938441138
 30
0.0
 11
1812.91886816921
 21
897.670590578442
 31
0.0
  0
ARC
  5
6E7C
330
1E
100
AcDbEntity
  8
躯体と製品
  6
Continuous
 62
     3
100
AcDbCircle
 10
1793.01886816921
 20
904.957652315352
 30
0.0
 40
2.1
100
AcDbArc
 50
86.99999999999457
 51
180.0
  0
ARC
  5
6E7D
330
1E
100
AcDbEntity
  8
躯体と製品
  6
Continuous
 62
     3
100
AcDbCircle
 10
1810.81886816921
 20
904.0247938441138
 30
0.0
 40
0.5
100
AcDbArc
 50
0.0
 51
86.99999999999457
  0
LINE
  5
6E7E
330
1E
100
AcDbEntity
  8
躯体と製品
  6
Continuous
 62
     3
100
AcDbLine
 10
1811.31886816921
 20
904.0247938441138
 30
0.0
 11
1811.31886816921
 21
897.670590578442
 31
0.0
  0
ARC
  5
6E7F
330
1E
100
AcDbEntity
  8
躯体と製品
  6
Continuous
 62
     3
100
AcDbCircle
 10
1793.01886816921
 20
904.957652315352
 30
0.0
 40
0.5
100
AcDbArc
 50
86.99999999999457
 51
180.0
  0
LINE
  5
6E80
330
1E
100
AcDbEntity
  8
躯体と製品
  6
Continuous
 62
     3
100
AcDbLine
 10
1792.51886816921
 20
904.957652315352
 30
0.0
 11
1792.51886816921
 21
897.670590578442
 31
0.0
  0
ARC
  5
6E81
330
1E
100
AcDbEntity
  8
躯体と製品
  6
Continuous
 62
     3
100
AcDbCircle
 10
1813.41886816921
 20
897.670590578442
 30
0.0
 40
0.5
100
AcDbArc
 50
180.0
 51
270.0
  0
ARC
  5
6E82
330
1E
100
AcDbEntity
  8
躯体と製品
  6
Continuous
 62
     3
100
AcDbCircle
 10
1813.41886816921
 20
897.670590578442
 30
0.0
 40
2.1
100
AcDbArc
 50
180.0
 51
270.0
  0
LINE
  5
6E83
330
1E
100
AcDbEntity
  8
躯体と製品
  6
Continuous
 62
     3
100
AcDbLine
 10
1817.91886816921
 20
897.1705905784421
 30
0.0
 11
1817.91886816921
 21
895.5705905784421
 31
0.0
  0
LINE
  5
6E84
330
1E
100
AcDbEntity
  8
躯体と製品
  6
Continuous
 62
     3
100
AcDbLine
 10
1813.41886816921
 20
897.1705905784421
 30
0.0
 11
1817.91886816921
 21
897.1705905784421
 31
0.0
  0
LINE
  5
6E85
330
1E
100
AcDbEntity
  8
躯体と製品
  6
Continuous
 62
     3
100
AcDbLine
 10
1817.91886816921
 20
895.5705905784421
 30
0.0
 11
1813.41886816921
 21
895.5705905784421
 31
0.0
  0
ARC
  5
6E86
330
1E
100
AcDbEntity
  8
躯体と製品
  6
Continuous
 62
     3
100
AcDbCircle
 10
1790.41886816921
 20
897.670590578442
 30
0.0
 40
0.5
100
AcDbArc
 50
270.0
 51
0.0
  0
ARC
  5
6E87
330
1E
100
AcDbEntity
  8
躯体と製品
  6
Continuous
 62
     3
100
AcDbCircle
 10
1790.41886816921
 20
897.670590578442
 30
0.0
 40
2.1
100
AcDbArc
 50
270.0
 51
0.0
  0
LINE
  5
6E88
330
1E
100
AcDbEntity
  8
躯体と製品
  6
Continuous
 62
     3
100
AcDbLine
 10
1785.91886816921
 20
897.1705905784421
 30
0.0
 11
1790.41886816921
 21
897.1705905784421
 31
0.0
  0
LINE
  5
6E89
330
1E
100
AcDbEntity
  8
躯体と製品
  6
Continuous
 62
     3
100
AcDbLine
 10
1785.91886816921
 20
895.5705905784421
 30
0.0
 11
1785.91886816921
 21
897.1705905784421
 31
0.0
  0
LINE
  5
6E8A
330
1E
100
AcDbEntity
  8
躯体と製品
  6
Continuous
 62
     3
100
AcDbLine
 10
1785.91886816921
 20
895.5705905784421
 30
0.0
 11
1790.41886816921
 21
895.5705905784421
 31
0.0
  0
LINE
  5
6E8B
330
1E
100
AcDbEntity
  8
躯体と製品
  6
Continuous
 62
     3
100
AcDbLine
 10
1790.91886816921
 20
904.957652315352
 30
0.0
 11
1790.91886816921
 21
897.670590578442
 31
0.0
  0
LINE
  5
6E8C
330
1E
100
AcDbEntity
  8
躯体と製品
  6
Continuous
 62
     3
100
AcDbLine
 10
1827.291438450638
 20
896.6441145329985
 30
0.0
 11
1827.610194149477
 21
895.5724826911531
 31
0.0
  0
LINE
  5
6E8D
330
1E
100
AcDbEntity
  8
躯体と製品
  6
Continuous
 62
     3
100
AcDbLine
 10
1827.117790272971
 20
895.6593067799865
 30
0.0
 11
1827.43654597181
 21
894.5876749381406
 31
0.0
  0
LINE
  5
6E8E
330
1E
100
AcDbEntity
  8
躯体と製品
  6
Continuous
 62
     3
100
AcDbLine
 10
1801.91886816921
 20
890.670590578442
 30
0.0
 11
1801.41886816921
 21
891.1705905784421
 31
0.0
  0
LINE
  5
6E8F
330
1E
100
AcDbEntity
  8
躯体と製品
  6
Continuous
 62
     3
100
AcDbLine
 10
1818.11886816921
 20
897.1705905784421
 30
0.0
 11
1815.16886816921
 21
897.1705905784421
 31
0.0
  0
ARC
  5
6E90
330
1E
100
AcDbEntity
  8
躯体と製品
  6
Continuous
 62
     3
100
AcDbCircle
 10
1818.11886816921
 20
896.8705905784419
 30
0.0
 40
0.2999999999999998
100
AcDbArc
 50
0.0
 51
90.0
  0
LINE
  5
6E91
330
1E
100
AcDbEntity
  8
躯体と製品
  6
Continuous
 62
     3
100
AcDbLine
 10
1818.41886816921
 20
896.8705905784419
 30
0.0
 11
1818.41886816921
 21
894.9705905784421
 31
0.0
  0
ARC
  5
6E92
330
1E
100
AcDbEntity
  8
躯体と製品
  6
Continuous
 62
     3
100
AcDbCircle
 10
1818.11886816921
 20
894.9705905784421
 30
0.0
 40
0.2999999999999998
100
AcDbArc
 50
270.0
 51
0.0
  0
LINE
  5
6E93
330
1E
100
AcDbEntity
  8
躯体と製品
  6
Continuous
 62
     3
100
AcDbLine
 10
1818.11886816921
 20
894.6705905784423
 30
0.0
 11
1816.16886816921
 21
894.6705905784423
 31
0.0
  0
LINE
  5
6E94
330
1E
100
AcDbEntity
  8
躯体と製品
  6
Continuous
 62
     3
100
AcDbLine
 10
1818.41886816921
 20
892.870590578442
 30
0.0
 11
1818.41886816921
 21
891.4705905784421
 31
0.0
  0
ARC
  5
6E95
330
1E
100
AcDbEntity
  8
躯体と製品
  6
Continuous
 62
     3
100
AcDbCircle
 10
1818.11886816921
 20
892.870590578442
 30
0.0
 40
0.2999999999999998
100
AcDbArc
 50
0.0
 51
90.0
  0
LINE
  5
6E96
330
1E
100
AcDbEntity
  8
躯体と製品
  6
Continuous
 62
     3
100
AcDbLine
 10
1818.11886816921
 20
893.170590578442
 30
0.0
 11
1816.16886816921
 21
893.170590578442
 31
0.0
  0
ARC
  5
6E97
330
1E
100
AcDbEntity
  8
躯体と製品
  6
Continuous
 62
     3
100
AcDbCircle
 10
1816.16886816921
 20
893.9205905784422
 30
0.0
 40
0.75
100
AcDbArc
 50
90.0
 51
270.0
  0
ARC
  5
6E98
330
1E
100
AcDbEntity
  8
躯体と製品
  6
Continuous
 62
     3
100
AcDbCircle
 10
1815.16886816921
 20
897.9205905784422
 30
0.0
 40
0.75
100
AcDbArc
 50
90.0
 51
270.0
  0
LINE
  5
6E99
330
1E
100
AcDbEntity
  8
躯体と製品
  6
Continuous
 62
     3
100
AcDbLine
 10
1818.41886816921
 20
899.1705905784423
 30
0.0
 11
1818.41886816921
 21
906.670590578442
 31
0.0
  0
ARC
  5
6E9A
330
1E
100
AcDbEntity
  8
躯体と製品
  6
Continuous
 62
     3
100
AcDbCircle
 10
1817.91886816921
 20
899.1705905784423
 30
0.0
 40
0.5
100
AcDbArc
 50
270.0
 51
0.0
  0
LINE
  5
6E9B
330
1E
100
AcDbEntity
  8
躯体と製品
  6
Continuous
 62
     3
100
AcDbLine
 10
1817.91886816921
 20
898.670590578442
 30
0.0
 11
1815.16886816921
 21
898.670590578442
 31
0.0
  0
ARC
  5
6E9C
330
1E
100
AcDbEntity
  8
躯体と製品
  6
Continuous
 62
     3
100
AcDbCircle
 10
1818.11886816921
 20
891.4705905784421
 30
0.0
 40
0.2999999999999998
100
AcDbArc
 50
270.0
 51
0.0
  0
ARC
  5
6E9D
330
1E
100
AcDbEntity
  8
躯体と製品
  6
Continuous
 62
     3
100
AcDbCircle
 10
1820.91886816921
 20
891.6705905784422
 30
0.0
 40
0.5
100
AcDbArc
 50
180.0
 51
270.0
  0
LINE
  5
6E9E
330
1E
100
AcDbEntity
  8
躯体と製品
  6
Continuous
 62
     3
100
AcDbLine
 10
1820.41886816921
 20
891.6705905784422
 30
0.0
 11
1820.41886816921
 21
906.670590578442
 31
0.0
  0
LINE
  5
6E9F
330
1E
100
AcDbEntity
  8
躯体と製品
  6
Continuous
 62
     3
100
AcDbLine
 10
1820.41886816921
 20
889.670590578442
 30
0.0
 11
1830.91886816921
 21
889.670590578442
 31
0.0
  0
LINE
  5
6EA0
330
1E
100
AcDbEntity
  8
躯体と製品
  6
Continuous
 62
     3
100
AcDbLine
 10
1820.41886816921
 20
888.670590578442
 30
0.0
 11
1820.41886816921
 21
889.670590578442
 31
0.0
  0
LINE
  5
6EA1
330
1E
100
AcDbEntity
  8
躯体と製品
  6
Continuous
 62
     3
100
AcDbLine
 10
1801.91886816921
 20
890.670590578442
 30
0.0
 11
1802.41886816921
 21
891.1705905784421
 31
0.0
  0
LINE
  5
6EA2
330
1E
100
AcDbEntity
  8
躯体と製品
  6
Continuous
 62
     3
100
AcDbLine
 10
1830.91886816921
 20
888.670590578442
 30
0.0
 11
1832.41886816921
 21
888.670590578442
 31
0.0
  0
LINE
  5
6EA3
330
1E
100
AcDbEntity
  8
躯体と製品
  6
Continuous
 62
     3
100
AcDbLine
 10
1830.91886816921
 20
889.670590578442
 30
0.0
 11
1830.91886816921
 21
888.670590578442
 31
0.0
  0
ARC
  5
6EA4
330
1E
100
AcDbEntity
  8
躯体と製品
  6
Continuous
 62
     3
100
AcDbCircle
 10
1819.41886816921
 20
906.670590578442
 30
0.0
 40
1.0
100
AcDbArc
 50
0.0
 51
180.0
  0
LINE
  5
6EA5
330
1E
100
AcDbEntity
  8
躯体と製品
  6
Continuous
 62
     3
100
AcDbLine
 10
1818.41886816921
 20
888.670590578442
 30
0.0
 11
1820.41886816921
 21
888.670590578442
 31
0.0
  0
LINE
  5
6EA6
330
1E
100
AcDbEntity
  8
躯体と製品
  6
Continuous
 62
     3
100
AcDbLine
 10
1818.41886816921
 20
889.1705905784421
 30
0.0
 11
1818.41886816921
 21
888.670590578442
 31
0.0
  0
LINE
  5
6EA7
330
1E
100
AcDbEntity
  8
躯体と製品
  6
Continuous
 62
     3
100
AcDbLine
 10
1806.91886816921
 20
889.1705905784421
 30
0.0
 11
1818.41886816921
 21
889.1705905784421
 31
0.0
  0
LINE
  5
6EA8
330
1E
100
AcDbEntity
  8
躯体と製品
  6
Continuous
 62
     3
100
AcDbLine
 10
1806.91886816921
 20
888.670590578442
 30
0.0
 11
1806.91886816921
 21
889.1705905784421
 31
0.0
  0
LINE
  5
6EA9
330
1E
100
AcDbEntity
  8
躯体と製品
  6
Continuous
 62
     3
100
AcDbLine
 10
1785.71886816921
 20
891.1705905784421
 30
0.0
 11
1801.41886816921
 21
891.1705905784421
 31
0.0
  0
LINE
  5
6EAA
330
1E
100
AcDbEntity
  8
躯体と製品
  6
Continuous
 62
     3
100
AcDbLine
 10
1802.41886816921
 20
891.1705905784421
 30
0.0
 11
1818.11886816921
 21
891.1705905784421
 31
0.0
  0
LINE
  5
6EAB
330
1E
100
AcDbEntity
  8
躯体と製品
  6
Continuous
 62
     3
100
AcDbLine
 10
1796.91886816921
 20
888.670590578442
 30
0.0
 11
1806.91886816921
 21
888.670590578442
 31
0.0
  0
LINE
  5
6EAC
330
1E
100
AcDbEntity
  8
躯体と製品
  6
Continuous
 62
     3
100
AcDbLine
 10
1783.91886816921
 20
898.1705905784421
 30
0.0
 11
1783.91886816921
 21
888.670590578442
 31
0.0
  0
ARC
  5
6EAD
330
1E
100
AcDbEntity
  8
躯体と製品
  6
Continuous
 62
     3
100
AcDbCircle
 10
1784.41886816921
 20
898.1705905784421
 30
0.0
 40
0.5
100
AcDbArc
 50
90.0
 51
180.0
  0
LINE
  5
6EAE
330
1E
100
AcDbEntity
  8
躯体と製品
  6
Continuous
 62
     3
100
AcDbLine
 10
1784.41886816921
 20
898.670590578442
 30
0.0
 11
1788.66886816921
 21
898.670590578442
 31
0.0
  0
LINE
  5
6EAF
330
1E
100
AcDbEntity
  8
躯体と製品
  6
Continuous
 62
     3
100
AcDbLine
 10
1785.41886816921
 20
891.4705905784421
 30
0.0
 11
1785.41886816921
 21
892.870590578442
 31
0.0
  0
ARC
  5
6EB0
330
1E
100
AcDbEntity
  8
躯体と製品
  6
Continuous
 62
     3
100
AcDbCircle
 10
1785.71886816921
 20
891.4705905784421
 30
0.0
 40
0.2999999999999998
100
AcDbArc
 50
180.0
 51
270.0
  0
LINE
  5
6EB1
330
1E
100
AcDbEntity
  8
躯体と製品
  6
Continuous
 62
     3
100
AcDbLine
 10
1785.71886816921
 20
893.170590578442
 30
0.0
 11
1787.66886816921
 21
893.170590578442
 31
0.0
  0
ARC
  5
6EB2
330
1E
100
AcDbEntity
  8
躯体と製品
  6
Continuous
 62
     3
100
AcDbCircle
 10
1785.71886816921
 20
892.870590578442
 30
0.0
 40
0.2999999999999998
100
AcDbArc
 50
90.0
 51
180.0
  0
LINE
  5
6EB3
330
1E
100
AcDbEntity
  8
躯体と製品
  6
Continuous
 62
     3
100
AcDbLine
 10
1785.41886816921
 20
894.9705905784421
 30
0.0
 11
1785.41886816921
 21
896.8705905784419
 31
0.0
  0
ARC
  5
6EB4
330
1E
100
AcDbEntity
  8
躯体と製品
  6
Continuous
 62
     3
100
AcDbCircle
 10
1785.71886816921
 20
894.9705905784421
 30
0.0
 40
0.2999999999999998
100
AcDbArc
 50
180.0
 51
270.0
  0
LINE
  5
6EB5
330
1E
100
AcDbEntity
  8
躯体と製品
  6
Continuous
 62
     3
100
AcDbLine
 10
1785.71886816921
 20
894.6705905784423
 30
0.0
 11
1787.66886816921
 21
894.6705905784423
 31
0.0
  0
LINE
  5
6EB6
330
1E
100
AcDbEntity
  8
躯体と製品
  6
Continuous
 62
     3
100
AcDbLine
 10
1785.71886816921
 20
897.1705905784421
 30
0.0
 11
1788.66886816921
 21
897.1705905784421
 31
0.0
  0
ARC
  5
6EB7
330
1E
100
AcDbEntity
  8
躯体と製品
  6
Continuous
 62
     3
100
AcDbCircle
 10
1785.71886816921
 20
896.8705905784419
 30
0.0
 40
0.2999999999999998
100
AcDbArc
 50
90.0
 51
180.0
  0
ARC
  5
6EB8
330
1E
100
AcDbEntity
  8
躯体と製品
  6
Continuous
 62
     3
100
AcDbCircle
 10
1787.66886816921
 20
893.9205905784422
 30
0.0
 40
0.75
100
AcDbArc
 50
270.0
 51
90.0
  0
ARC
  5
6EB9
330
1E
100
AcDbEntity
  8
躯体と製品
  6
Continuous
 62
     3
100
AcDbCircle
 10
1788.66886816921
 20
897.9205905784422
 30
0.0
 40
0.75
100
AcDbArc
 50
270.0
 51
90.0
  0
LINE
  5
6EBA
330
1E
100
AcDbEntity
  8
躯体と製品
  6
Continuous
 62
     3
100
AcDbLine
 10
1796.91886816921
 20
889.1705905784421
 30
0.0
 11
1796.91886816921
 21
888.670590578442
 31
0.0
  0
LINE
  5
6EBB
330
1E
100
AcDbEntity
  8
躯体と製品
  6
Continuous
 62
     3
100
AcDbLine
 10
1785.41886816921
 20
889.1705905784421
 30
0.0
 11
1796.91886816921
 21
889.1705905784421
 31
0.0
  0
LINE
  5
6EBC
330
1E
100
AcDbEntity
  8
躯体と製品
  6
Continuous
 62
     3
100
AcDbLine
 10
1785.41886816921
 20
888.670590578442
 30
0.0
 11
1785.41886816921
 21
889.1705905784421
 31
0.0
  0
LINE
  5
6EBD
330
1E
100
AcDbEntity
  8
躯体と製品
  6
Continuous
 62
     3
100
AcDbLine
 10
1783.91886816921
 20
888.670590578442
 30
0.0
 11
1785.41886816921
 21
888.670590578442
 31
0.0
  0
LINE
  5
6EBE
330
1E
100
AcDbEntity
  8
躯体と製品
  6
Continuous
 62
     3
100
AcDbLine
 10
1832.41886816921
 20
888.670590578442
 30
0.0
 11
1832.41886816921
 21
891.1705905784421
 31
0.0
  0
ARC
  5
6EBF
330
1E
100
AcDbEntity
  8
躯体と製品
  6
Continuous
 62
     3
100
AcDbCircle
 10
1832.678739376036
 20
896.9634712915123
 30
0.0
 40
0.7499999999999977
100
AcDbArc
 50
350.0000000000025
 51
170.0000000000025
  0
ARC
  5
6EC0
330
1E
100
AcDbEntity
  8
躯体と製品
  6
Continuous
 62
     3
100
AcDbCircle
 10
1827.262296734469
 20
897.9185362686804
 30
0.0
 40
0.7500000000000016
100
AcDbArc
 50
350.0000000000025
 51
170.0000000000025
  0
LINE
  5
6EC1
330
1E
100
AcDbEntity
  8
躯体と製品
  6
Continuous
 62
     3
100
AcDbLine
 10
1832.215477215699
 20
895.775873644664
 30
0.0
 11
1831.549425161526
 21
894.8778899804851
 31
0.0
  0
LINE
  5
6EC2
330
1E
100
AcDbEntity
  8
躯体と製品
  6
Continuous
 62
     3
100
AcDbLine
 10
1832.041829038032
 20
894.7910658916518
 30
0.0
 11
1831.375776983859
 21
893.8930822274731
 31
0.0
  0
LINE
  5
6EC3
330
1E
100
AcDbEntity
  8
躯体と製品
  6
Continuous
 62
     3
100
AcDbLine
 10
1827.783842327144
 20
896.557290444165
 30
0.0
 11
1828.000902549228
 21
897.7883001354303
 31
0.0
  0
LINE
  5
6EC4
330
1E
100
AcDbEntity
  8
躯体と製品
  6
Continuous
 62
     3
100
AcDbLine
 10
1831.723073339193
 20
895.8626977334974
 30
0.0
 11
1831.940133561277
 21
897.0937074247627
 31
0.0
  0
LINE
  5
6EC5
330
1E
100
AcDbEntity
  8
躯体と製品
  6
Continuous
 62
     3
100
AcDbLine
 10
1832.41886816921
 20
891.1705905784421
 30
0.0
 11
1833.417345190795
 21
896.8332351582624
 31
0.0
  0
LINE
  5
6EC6
330
1E
100
AcDbEntity
  8
躯体と製品
  6
Continuous
 62
     3
100
AcDbLine
 10
1832.215477215699
 20
895.775873644664
 30
0.0
 11
1831.723073339193
 21
895.8626977334974
 31
0.0
  0
LINE
  5
6EC7
330
1E
100
AcDbEntity
  8
躯体と製品
  6
Continuous
 62
     3
100
AcDbLine
 10
1827.783842327144
 20
896.557290444165
 30
0.0
 11
1827.291438450638
 21
896.6441145329985
 31
0.0
  0
LINE
  5
6EC8
330
1E
100
AcDbEntity
  8
躯体と製品
  6
Continuous
 62
     3
100
AcDbLine
 10
1832.041829038032
 20
894.7910658916518
 30
0.0
 11
1831.549425161526
 21
894.8778899804851
 31
0.0
  0
LINE
  5
6EC9
330
1E
100
AcDbEntity
  8
躯体と製品
  6
Continuous
 62
     3
100
AcDbLine
 10
1827.610194149477
 20
895.5724826911531
 30
0.0
 11
1827.117790272971
 21
895.6593067799865
 31
0.0
  0
LINE
  5
6ECA
330
1E
100
AcDbEntity
  8
躯体と製品
  6
Continuous
 62
     3
100
AcDbLine
 10
1825.383735946927
 20
891.5837664896086
 30
0.0
 11
1826.523690919709
 21
898.0487724019306
 31
0.0
  0
LINE
  5
6ECB
330
1E
100
AcDbEntity
  8
躯体と製品
  6
Continuous
 62
     3
100
AcDbLine
 10
1824.891332070421
 20
891.1705905784421
 30
0.0
 11
1820.91886816921
 21
891.1705905784421
 31
0.0
  0
ARC
  5
6ECC
330
1E
100
AcDbEntity
  8
躯体と製品
  6
Continuous
 62
     3
100
AcDbCircle
 10
1824.891332070421
 20
891.6705905784422
 30
0.0
 40
0.5
100
AcDbArc
 50
270.0
 51
350.0000000000025
  0
LINE
  5
6ECD
330
1E
100
AcDbEntity
  8
躯体と製品
  6
Continuous
 62
     3
100
AcDbLine
 10
1826.937494723629
 20
891.7574146672754
 30
0.0
 11
1827.43654597181
 21
894.5876749381406
 31
0.0
  0
ARC
  5
6ECE
330
1E
100
AcDbEntity
  8
躯体と製品
  6
Continuous
 62
     3
100
AcDbCircle
 10
1827.429898600136
 20
891.6705905784422
 30
0.0
 40
0.5
100
AcDbArc
 50
170.0000000000025
 51
270.0
  0
LINE
  5
6ECF
330
1E
100
AcDbEntity
  8
躯体と製品
  6
Continuous
 62
     3
100
AcDbLine
 10
1830.968582312299
 20
891.5837664896086
 30
0.0
 11
1831.375776983859
 21
893.8930822274731
 31
0.0
  0
LINE
  5
6ED0
330
1E
100
AcDbEntity
  8
躯体と製品
  6
Continuous
 62
     3
100
AcDbLine
 10
1830.476178435793
 20
891.1705905784421
 30
0.0
 11
1827.429898600136
 21
891.1705905784421
 31
0.0
  0
ARC
  5
6ED1
330
1E
100
AcDbEntity
  8
躯体と製品
  6
Continuous
 62
     3
100
AcDbCircle
 10
1830.476178435793
 20
891.6705905784422
 30
0.0
 40
0.5
100
AcDbArc
 50
270.0
 51
350.0000000000025
  0
ARC
  5
6ED2
330
1E
100
AcDbEntity
  8
躯体と製品
  6
DASHED1
 62
     7
100
AcDbCircle
 10
1798.41886816921
 20
848.1705905784419
 30
0.0
 40
1.0
100
AcDbArc
 50
180.0
 51
270.0
  0
LINE
  5
6ED3
330
1E
100
AcDbEntity
  8
躯体と製品
  6
DASHED1
 62
     7
100
AcDbLine
 10
1795.29383816921
 20
849.4085945784419
 30
0.0
 11
1799.47927116921
 21
848.670590578442
 31
0.0
  0
LINE
  5
6ED4
330
1E
100
AcDbEntity
  8
躯体と製品
  6
DASHED1
 62
     7
100
AcDbLine
 10
1797.86886816921
 20
879.370590578442
 30
0.0
 11
1805.96886816921
 21
879.370590578442
 31
0.0
  0
LINE
  5
6ED5
330
1E
100
AcDbEntity
  8
躯体と製品
  6
DASHED1
 62
     7
100
AcDbLine
 10
1797.16886816921
 20
878.6705905784421
 30
0.0
 11
1806.66886816921
 21
878.6705905784421
 31
0.0
  0
LINE
  5
6ED6
330
1E
100
AcDbEntity
  8
躯体と製品
  6
DASHED1
 62
     7
100
AcDbLine
 10
1808.54389816921
 20
849.4085945784419
 30
0.0
 11
1806.66886816921
 21
860.0424165784421
 31
0.0
  0
LINE
  5
6ED7
330
1E
100
AcDbEntity
  8
躯体と製品
  6
DASHED1
 62
     7
100
AcDbLine
 10
1802.41886816921
 20
859.6705905784421
 30
0.0
 11
1804.35846516921
 21
848.670590578442
 31
0.0
  0
LINE
  5
6ED8
330
1E
100
AcDbEntity
  8
躯体と製品
  6
DASHED1
 62
     7
100
AcDbLine
 10
1801.41886816921
 20
859.6705905784421
 30
0.0
 11
1799.47927116921
 21
848.670590578442
 31
0.0
  0
LINE
  5
6ED9
330
1E
100
AcDbEntity
  8
躯体と製品
  6
DASHED1
 62
     7
100
AcDbLine
 10
1808.54389816921
 20
849.4085945784419
 30
0.0
 11
1804.35846516921
 21
848.670590578442
 31
0.0
  0
LINE
  5
6EDA
330
1E
100
AcDbEntity
  8
躯体と製品
  6
DASHED1
 62
     7
100
AcDbLine
 10
1806.41886816921
 20
848.1705905784419
 30
0.0
 11
1806.41886816921
 21
849.0338945784419
 31
0.0
  0
ARC
  5
6EDB
330
1E
100
AcDbEntity
  8
躯体と製品
  6
DASHED1
 62
     7
100
AcDbCircle
 10
1805.41886816921
 20
848.1705905784419
 30
0.0
 40
1.0
100
AcDbArc
 50
270.0
 51
0.0
  0
LINE
  5
6EDC
330
1E
100
AcDbEntity
  8
躯体と製品
  6
DASHED1
 62
     7
100
AcDbLine
 10
1805.41886816921
 20
847.1705905784421
 30
0.0
 11
1798.41886816921
 21
847.1705905784421
 31
0.0
  0
LINE
  5
6EDD
330
1E
100
AcDbEntity
  8
躯体と製品
  6
DASHED1
 62
     7
100
AcDbLine
 10
1806.66886816921
 20
860.0424165784421
 30
0.0
 11
1806.66886816921
 21
878.6705905784421
 31
0.0
  0
LINE
  5
6EDE
330
1E
100
AcDbEntity
  8
躯体と製品
  6
DASHED1
 62
     7
100
AcDbLine
 10
1806.66886816921
 20
878.6705905784421
 30
0.0
 11
1805.96886816921
 21
879.370590578442
 31
0.0
  0
LINE
  5
6EDF
330
1E
100
AcDbEntity
  8
躯体と製品
  6
DASHED1
 62
     7
100
AcDbLine
 10
1801.41886816921
 20
859.6705905784421
 30
0.0
 11
1802.41886816921
 21
859.6705905784421
 31
0.0
  0
LINE
  5
6EE0
330
1E
100
AcDbEntity
  8
躯体と製品
  6
DASHED1
 62
     7
100
AcDbLine
 10
1795.29383816921
 20
849.4085945784419
 30
0.0
 11
1797.16886816921
 21
860.0424165784421
 31
0.0
  0
LINE
  5
6EE1
330
1E
100
AcDbEntity
  8
躯体と製品
  6
DASHED1
 62
     7
100
AcDbLine
 10
1797.41886816921
 20
848.1705905784419
 30
0.0
 11
1797.41886816921
 21
849.0338945784419
 31
0.0
  0
LINE
  5
6EE2
330
1E
100
AcDbEntity
  8
躯体と製品
  6
DASHED1
 62
     7
100
AcDbLine
 10
1797.16886816921
 20
860.0424165784421
 30
0.0
 11
1797.16886816921
 21
878.6705905784421
 31
0.0
  0
LINE
  5
6EE3
330
1E
100
AcDbEntity
  8
躯体と製品
  6
DASHED1
 62
     7
100
AcDbLine
 10
1797.16886816921
 20
878.6705905784421
 30
0.0
 11
1797.86886816921
 21
879.370590578442
 31
0.0
  0
LINE
  5
6EE4
330
1E
100
AcDbEntity
  8
躯体と製品
  6
DASHED1
 62
     7
100
AcDbLine
 10
1805.96886816921
 20
888.670590578442
 30
0.0
 11
1805.96886816921
 21
879.370590578442
 31
0.0
  0
LINE
  5
6EE5
330
1E
100
AcDbEntity
  8
躯体と製品
  6
DASHED1
 62
     7
100
AcDbLine
 10
1797.86886816921
 20
888.670590578442
 30
0.0
 11
1797.86886816921
 21
879.370590578442
 31
0.0
  0
LINE
  5
6EE6
330
1E
100
AcDbEntity
  8
躯体と製品
  6
Continuous
 62
     4
100
AcDbLine
 10
1786.91886816921
 20
887.2446130501375
 30
0.0
 11
1787.344845697515
 21
887.6705905784426
 31
0.0
  0
LINE
  5
6EE7
330
1E
100
AcDbEntity
  8
躯体と製品
  6
Continuous
 62
     4
100
AcDbLine
 10
1787.759059259888
 20
886.6705905784423
 30
0.0
 11
1788.759059259889
 21
887.6705905784426
 31
0.0
  0
LINE
  5
6EE8
330
1E
100
AcDbEntity
  8
躯体と製品
  6
Continuous
 62
     4
100
AcDbLine
 10
1789.173272822261
 20
886.6705905784423
 30
0.0
 11
1790.173272822261
 21
887.6705905784422
 31
0.0
  0
LINE
  5
6EE9
330
1E
100
AcDbEntity
  8
躯体と製品
  6
Continuous
 62
     4
100
AcDbLine
 10
1790.587486384635
 20
886.6705905784426
 30
0.0
 11
1791.587486384635
 21
887.6705905784422
 31
0.0
  0
LINE
  5
6EEA
330
1E
100
AcDbEntity
  8
躯体と製品
  6
Continuous
 62
     4
100
AcDbLine
 10
1792.001699947008
 20
886.6705905784423
 30
0.0
 11
1793.001699947008
 21
887.6705905784422
 31
0.0
  0
LINE
  5
6EEB
330
1E
100
AcDbEntity
  8
躯体と製品
  6
Continuous
 62
     4
100
AcDbLine
 10
1793.415913509381
 20
886.6705905784423
 30
0.0
 11
1794.415913509381
 21
887.6705905784422
 31
0.0
  0
LINE
  5
6EEC
330
1E
100
AcDbEntity
  8
躯体と製品
  6
Continuous
 62
     4
100
AcDbLine
 10
1794.830127071755
 20
886.6705905784423
 30
0.0
 11
1795.830127071754
 21
887.6705905784419
 31
0.0
  0
LINE
  5
6EED
330
1E
100
AcDbEntity
  8
躯体と製品
  6
Continuous
 62
     4
100
AcDbLine
 10
1796.244340634126
 20
886.6705905784417
 30
0.0
 11
1797.244340634126
 21
887.6705905784422
 31
0.0
  0
LINE
  5
6EEE
330
1E
100
AcDbEntity
  8
躯体と製品
  6
Continuous
 62
     4
100
AcDbLine
 10
1797.658554196499
 20
886.6705905784417
 30
0.0
 11
1798.658554196499
 21
887.6705905784419
 31
0.0
  0
LINE
  5
6EEF
330
1E
100
AcDbEntity
  8
躯体と製品
  6
Continuous
 62
     4
100
AcDbLine
 10
1799.072767758872
 20
886.6705905784415
 30
0.0
 11
1800.072767758873
 21
887.6705905784417
 31
0.0
  0
LINE
  5
6EF0
330
1E
100
AcDbEntity
  8
躯体と製品
  6
Continuous
 62
     4
100
AcDbLine
 10
1800.486981321245
 20
886.6705905784412
 30
0.0
 11
1801.486981321246
 21
887.6705905784417
 31
0.0
  0
LINE
  5
6EF1
330
1E
100
AcDbEntity
  8
躯体と製品
  6
Continuous
 62
     4
100
AcDbLine
 10
1801.90119488362
 20
886.6705905784423
 30
0.0
 11
1802.901194883619
 21
887.6705905784417
 31
0.0
  0
LINE
  5
6EF2
330
1E
100
AcDbEntity
  8
躯体と製品
  6
Continuous
 62
     4
100
AcDbLine
 10
1803.315408445993
 20
886.6705905784419
 30
0.0
 11
1804.315408445992
 21
887.6705905784417
 31
0.0
  0
LINE
  5
6EF3
330
1E
100
AcDbEntity
  8
躯体と製品
  6
Continuous
 62
     4
100
AcDbLine
 10
1804.729622008366
 20
886.6705905784417
 30
0.0
 11
1805.729622008366
 21
887.6705905784415
 31
0.0
  0
LINE
  5
6EF4
330
1E
100
AcDbEntity
  8
躯体と製品
  6
Continuous
 62
     4
100
AcDbLine
 10
1806.143835570739
 20
886.6705905784417
 30
0.0
 11
1807.143835570739
 21
887.6705905784415
 31
0.0
  0
LINE
  5
6EF5
330
1E
100
AcDbEntity
  8
躯体と製品
  6
Continuous
 62
     4
100
AcDbLine
 10
1807.558049133111
 20
886.6705905784423
 30
0.0
 11
1808.558049133111
 21
887.6705905784422
 31
0.0
  0
LINE
  5
6EF6
330
1E
100
AcDbEntity
  8
躯体と製品
  6
Continuous
 62
     4
100
AcDbLine
 10
1808.972262695484
 20
886.6705905784423
 30
0.0
 11
1809.972262695484
 21
887.6705905784422
 31
0.0
  0
LINE
  5
6EF7
330
1E
100
AcDbEntity
  8
躯体と製品
  6
Continuous
 62
     4
100
AcDbLine
 10
1810.386476257858
 20
886.6705905784419
 30
0.0
 11
1811.386476257858
 21
887.6705905784422
 31
0.0
  0
LINE
  5
6EF8
330
1E
100
AcDbEntity
  8
躯体と製品
  6
Continuous
 62
     4
100
AcDbLine
 10
1811.800689820231
 20
886.6705905784417
 30
0.0
 11
1812.800689820231
 21
887.6705905784422
 31
0.0
  0
LINE
  5
6EF9
330
1E
100
AcDbEntity
  8
躯体と製品
  6
Continuous
 62
     4
100
AcDbLine
 10
1813.214903382604
 20
886.6705905784423
 30
0.0
 11
1814.214903382604
 21
887.6705905784419
 31
0.0
  0
LINE
  5
6EFA
330
1E
100
AcDbEntity
  8
躯体と製品
  6
Continuous
 62
     4
100
AcDbLine
 10
1814.629116944978
 20
886.6705905784426
 30
0.0
 11
1815.629116944978
 21
887.6705905784422
 31
0.0
  0
LINE
  5
6EFB
330
1E
100
AcDbEntity
  8
躯体と製品
  6
Continuous
 62
     4
100
AcDbLine
 10
1816.043330507351
 20
886.6705905784423
 30
0.0
 11
1816.91886816921
 21
887.5461282403014
 31
0.0
  0
LINE
  5
6EFC
330
1E
100
AcDbEntity
  8
躯体と製品
  6
Continuous
 62
     3
100
AcDbLine
 10
1816.91886816921
 20
886.6705905784423
 30
0.0
 11
1786.91886816921
 21
886.6705905784423
 31
0.0
  0
LINE
  5
6EFD
330
1E
100
AcDbEntity
  8
躯体と製品
  6
Continuous
 62
     3
100
AcDbLine
 10
1786.91886816921
 20
887.6705905784422
 30
0.0
 11
1816.91886816921
 21
887.6705905784422
 31
0.0
  0
LINE
  5
6EFE
330
1E
100
AcDbEntity
  8
躯体と製品
  6
Continuous
 62
     3
100
AcDbLine
 10
1816.91886816921
 20
887.6705905784422
 30
0.0
 11
1816.91886816921
 21
886.6705905784423
 31
0.0
  0
LINE
  5
6EFF
330
1E
100
AcDbEntity
  8
躯体と製品
  6
Continuous
 62
     3
100
AcDbLine
 10
1786.91886816921
 20
886.6705905784423
 30
0.0
 11
1786.91886816921
 21
887.6705905784422
 31
0.0
  0
ARC
  5
6F00
330
1E
100
AcDbEntity
  8
躯体と製品
  6
Continuous
 62
     7
100
AcDbCircle
 10
1851.890308395311
 20
885.6709984919813
 30
0.0
 40
1.0
100
AcDbArc
 50
4.999999999999459
 51
88.36342295838162
  0
LINE
  5
6F01
330
1E
100
AcDbEntity
  8
躯体と製品
  6
Continuous
 62
     7
100
AcDbLine
 10
1726.91886816921
 20
886.6705905784423
 30
0.0
 11
1851.91886816921
 21
886.6705905784423
 31
0.0
  0
LINE
  5
6F02
330
1E
100
AcDbEntity
  8
躯体と製品
  6
Continuous
 62
     7
100
AcDbLine
 10
1852.886503093403
 20
885.758154234729
 30
0.0
 11
1854.502265110575
 21
867.2899098696477
 31
0.0
  0
LINE
  5
6F03
330
1E
100
AcDbEntity
  8
躯体と製品
  6
Continuous
 62
     7
100
AcDbLine
 10
1853.882697791495
 20
885.8453099774765
 30
0.0
 11
1855.498459808666
 21
867.3770656123959
 31
0.0
  0
LINE
  5
6F04
330
1E
100
AcDbEntity
  8
躯体と製品
  6
Continuous
 62
     7
100
AcDbLine
 10
1903.532537577556
 20
890.2418082847892
 30
0.0
 11
1901.524506659832
 21
867.2899098696477
 31
0.0
  0
ARC
  5
6F05
330
1E
100
AcDbEntity
  8
躯体と製品
  6
Continuous
 62
     7
100
AcDbCircle
 10
1878.013385885203
 20
869.3468664042169
 30
0.0
 40
23.60092943645005
100
AcDbArc
 50
184.9999999999994
 51
355.0000000000006
  0
LINE
  5
6F06
330
1E
100
AcDbEntity
  8
躯体と製品
  6
Continuous
 62
     7
100
AcDbLine
 10
1902.536342879464
 20
890.3289640275371
 30
0.0
 11
1900.52831196174
 21
867.3770656123959
 31
0.0
  0
ARC
  5
6F07
330
1E
100
AcDbEntity
  8
躯体と製品
  6
Continuous
 62
     7
100
AcDbCircle
 10
1878.013385885203
 20
869.3468664042169
 30
0.0
 40
22.60092943645005
100
AcDbArc
 50
184.9999999999994
 51
355.0000000000006
  0
TEXT
  5
6F08
330
1E
100
AcDbEntity
  8
図枠
 62
     7
100
AcDbText
 10
1567.41886816921
 20
737.8603960963659
 30
0.0
 40
5.0
  1
部材名称
100
AcDbText
  0
TEXT
  5
6F09
330
1E
100
AcDbEntity
  8
図枠
 62
     7
100
AcDbText
 10
1668.41886816921
 20
737.8603960963659
 30
0.0
 40
5.0
  1
規　格
100
AcDbText
  0
TEXT
  5
6F0A
330
1E
100
AcDbEntity
  8
図枠
 62
     7
100
AcDbText
 10
1535.91886816921
 20
710.8603960963659
 30
0.0
 40
5.0
  1
ＦＹＹフレーム
100
AcDbText
  0
TEXT
  5
6F0B
330
1E
100
AcDbEntity
  8
図枠
 62
     7
100
AcDbText
 10
1535.91886816921
 20
701.860396096366
 30
0.0
 40
5.0
  1
ＦＹＫ壁フレーム
100
AcDbText
  0
TEXT
  5
6F0C
330
1E
100
AcDbEntity
  8
図枠
 62
     7
100
AcDbText
 10
1535.91886816921
 20
683.8603960963659
 30
0.0
 40
5.0
  1
ＦＹＫホルダー
100
AcDbText
  0
TEXT
  5
6F0D
330
1E
100
AcDbEntity
  8
図枠
 62
     7
100
AcDbText
 10
1535.91886816921
 20
674.8603960963659
 30
0.0
 40
5.0
  1
ＦＹＹホルダースプリング
100
AcDbText
  0
TEXT
  5
6F0E
330
1E
100
AcDbEntity
  8
図枠
 62
     7
100
AcDbText
 10
1535.91886816921
 20
665.860396096366
 30
0.0
 40
5.0
  1
ＦＹＹフレームナット
100
AcDbText
  0
TEXT
  5
6F0F
330
1E
100
AcDbEntity
  8
図枠
 62
     7
100
AcDbText
 10
1535.91886816921
 20
656.860396096366
 30
0.0
 40
5.0
  1
ＦＹＫ水切ジョイント
100
AcDbText
  0
TEXT
  5
6F10
330
1E
100
AcDbEntity
  8
図枠
 62
     7
100
AcDbText
 10
1535.91886816921
 20
647.860396096366
 30
0.0
 40
5.0
  1
ＦＹＫｻｲﾄﾞｷｬｯﾌﾟ ｼﾞｮｲﾝﾄ
100
AcDbText
  0
TEXT
  5
6F11
330
1E
100
AcDbEntity
  8
図枠
 62
     7
100
AcDbText
 10
1535.91886816921
 20
638.860396096366
 30
0.0
 40
5.0
  1
止水補助板
100
AcDbText
  0
TEXT
  5
6F12
330
1E
100
AcDbEntity
  8
図枠
 62
     7
100
AcDbText
 10
1635.91886816921
 20
638.860396096366
 30
0.0
 40
5.0
  1
ＰＳ
100
AcDbText
  0
TEXT
  5
6F13
330
1E
100
AcDbEntity
  8
図枠
 62
     7
100
AcDbText
 10
1535.91886816921
 20
629.860396096366
 30
0.0
 40
5.0
  1
止水補助板
100
AcDbText
  0
TEXT
  5
6F14
330
1E
100
AcDbEntity
  8
図枠
 62
     7
100
AcDbText
 10
1535.91886816921
 20
620.8603960963659
 30
0.0
 40
5.0
  1
ガスケットＮ
100
AcDbText
  0
TEXT
  5
6F15
330
1E
100
AcDbEntity
  8
図枠
 62
     7
100
AcDbText
 10
1535.91886816921
 20
611.8603960963659
 30
0.0
 40
5.0
  1
ステン小ネジ
100
AcDbText
  0
TEXT
  5
6F16
330
1E
100
AcDbEntity
  8
図枠
 62
     7
100
AcDbText
 10
1635.91886816921
 20
611.8603960963659
 30
0.0
 40
5.0
  1
ナベＭ6×35
100
AcDbText
  0
TEXT
  5
6F17
330
1E
100
AcDbEntity
  8
図枠
 62
     7
100
AcDbText
 10
1535.91886816921
 20
602.860396096366
 30
0.0
 40
5.0
  1
ステン小ネジ
100
AcDbText
  0
TEXT
  5
6F18
330
1E
100
AcDbEntity
  8
図枠
 62
     7
100
AcDbText
 10
1635.91886816921
 20
602.860396096366
 30
0.0
 40
5.0
  1
ナベＭ4×10
100
AcDbText
  0
TEXT
  5
6F19
330
1E
100
AcDbEntity
  8
図枠
 62
     7
100
AcDbText
 10
1535.91886816921
 20
593.860396096366
 30
0.0
 40
5.0
  1
ステン六角ボルト
100
AcDbText
  0
TEXT
  5
6F1A
330
1E
100
AcDbEntity
  8
図枠
 62
     7
100
AcDbText
 10
1635.91886816921
 20
593.860396096366
 30
0.0
 40
5.0
  1
Ｍ6×40
100
AcDbText
  0
TEXT
  5
6F1B
330
1E
100
AcDbEntity
  8
図枠
 62
     7
100
AcDbText
 10
1535.91886816921
 20
584.860396096366
 30
0.0
 40
5.0
  1
アジャストアンカー
100
AcDbText
  0
TEXT
  5
6F1C
330
1E
100
AcDbEntity
  8
図枠
 62
     7
100
AcDbText
 10
1635.91886816921
 20
584.860396096366
 30
0.0
 40
5.0
  1
ＡＧ－660
100
AcDbText
  0
TEXT
  5
6F1D
330
1E
100
AcDbEntity
  8
図枠
 62
     7
100
AcDbText
 10
1535.91886816921
 20
575.860396096366
 30
0.0
 40
5.0
  1
アンカープラグ
100
AcDbText
  0
TEXT
  5
6F1E
330
1E
100
AcDbEntity
  8
図枠
 62
     7
100
AcDbText
 10
1635.91886816921
 20
575.860396096366
 30
0.0
 40
5.0
  1
フィッシャープラグ　Ｓ8
100
AcDbText
  0
TEXT
  5
6F1F
330
1E
100
AcDbEntity
  8
図枠
 62
     7
100
AcDbText
 10
1535.91886816921
 20
566.8603960963659
 30
0.0
 40
5.0
  1
ステンタッピンねじ
100
AcDbText
  0
TEXT
  5
6F20
330
1E
100
AcDbEntity
  8
図枠
 62
     7
100
AcDbText
 10
1635.91886816921
 20
566.8603960963659
 30
0.0
 40
5.0
  1
ナベ 5×50
100
AcDbText
  0
TEXT
  5
6F21
330
1E
100
AcDbEntity
  8
図枠
 62
     7
100
AcDbText
 10
1535.91886816921
 20
557.8603960963659
 30
0.0
 40
5.0
  1
ステスワッシャー
100
AcDbText
  0
TEXT
  5
6F22
330
1E
100
AcDbEntity
  8
図枠
 62
     7
100
AcDbText
 10
1635.91886816921
 20
557.8603960963659
 30
0.0
 40
5.0
  1
1.5×18×6.5穴
100
AcDbText
  0
TEXT
  5
6F23
330
1E
100
AcDbEntity
  8
図枠
 62
     7
100
AcDbText
 10
1535.91886816921
 20
548.860396096366
 30
0.0
 40
5.0
  1
ステンワッシャー
100
AcDbText
  0
TEXT
  5
6F24
330
1E
100
AcDbEntity
  8
図枠
 62
     7
100
AcDbText
 10
1635.91886816921
 20
548.860396096366
 30
0.0
 40
5.0
  1
1.5×18×5.5穴
100
AcDbText
  0
TEXT
  5
6F25
330
1E
100
AcDbEntity
  8
図枠
 62
     7
100
AcDbText
 10
1535.91886816921
 20
539.860396096366
 30
0.0
 40
5.0
  1
ブチルテープ
100
AcDbText
  0
TEXT
  5
6F26
330
1E
100
AcDbEntity
  8
図枠
 62
     7
100
AcDbText
 10
1635.91886816921
 20
539.860396096366
 30
0.0
 40
5.0
  1
ｔ1.0×ｗ30
100
AcDbText
  0
LINE
  5
6F27
330
1E
100
AcDbEntity
  8
図枠
  6
Continuous
 62
     7
100
AcDbLine
 10
1530.91886816921
 20
538.360396096366
 30
0.0
 11
1530.91886816921
 21
745.3603960963659
 31
0.0
  0
LINE
  5
6F28
330
1E
100
AcDbEntity
  8
図枠
  6
Continuous
 62
     7
100
AcDbLine
 10
1630.91886816921
 20
538.360396096366
 30
0.0
 11
1630.91886816921
 21
745.3603960963659
 31
0.0
  0
LINE
  5
6F29
330
1E
100
AcDbEntity
  8
図枠
  6
Continuous
 62
     7
100
AcDbLine
 10
1725.91886816921
 20
538.360396096366
 30
0.0
 11
1725.91886816921
 21
745.3603960963659
 31
0.0
  0
LINE
  5
6F2A
330
1E
100
AcDbEntity
  8
図枠
  6
Continuous
 62
     7
100
AcDbLine
 10
1725.91886816921
 20
745.3603960963659
 30
0.0
 11
1516.91886816921
 21
745.3603960963659
 31
0.0
  0
LINE
  5
6F2B
330
1E
100
AcDbEntity
  8
図枠
  6
Continuous
 62
     7
100
AcDbLine
 10
1725.91886816921
 20
736.360396096366
 30
0.0
 11
1516.91886816921
 21
736.360396096366
 31
0.0
  0
LINE
  5
6F2C
330
1E
100
AcDbEntity
  8
図枠
  6
Continuous
 62
     7
100
AcDbLine
 10
1725.91886816921
 20
727.360396096366
 30
0.0
 11
1516.91886816921
 21
727.360396096366
 31
0.0
  0
LINE
  5
6F2D
330
1E
100
AcDbEntity
  8
図枠
  6
Continuous
 62
     7
100
AcDbLine
 10
1725.91886816921
 20
718.360396096366
 30
0.0
 11
1516.91886816921
 21
718.360396096366
 31
0.0
  0
LINE
  5
6F2E
330
1E
100
AcDbEntity
  8
図枠
  6
Continuous
 62
     7
100
AcDbLine
 10
1725.91886816921
 20
709.360396096366
 30
0.0
 11
1516.91886816921
 21
709.360396096366
 31
0.0
  0
LINE
  5
6F2F
330
1E
100
AcDbEntity
  8
図枠
  6
Continuous
 62
     7
100
AcDbLine
 10
1725.91886816921
 20
700.3603960963659
 30
0.0
 11
1516.91886816921
 21
700.3603960963659
 31
0.0
  0
LINE
  5
6F30
330
1E
100
AcDbEntity
  8
図枠
  6
Continuous
 62
     7
100
AcDbLine
 10
1725.91886816921
 20
691.3603960963659
 30
0.0
 11
1516.91886816921
 21
691.3603960963659
 31
0.0
  0
LINE
  5
6F31
330
1E
100
AcDbEntity
  8
図枠
  6
Continuous
 62
     7
100
AcDbLine
 10
1725.91886816921
 20
682.360396096366
 30
0.0
 11
1516.91886816921
 21
682.360396096366
 31
0.0
  0
LINE
  5
6F32
330
1E
100
AcDbEntity
  8
図枠
  6
Continuous
 62
     7
100
AcDbLine
 10
1725.91886816921
 20
673.360396096366
 30
0.0
 11
1516.91886816921
 21
673.360396096366
 31
0.0
  0
LINE
  5
6F33
330
1E
100
AcDbEntity
  8
図枠
  6
Continuous
 62
     7
100
AcDbLine
 10
1725.91886816921
 20
664.360396096366
 30
0.0
 11
1516.91886816921
 21
664.360396096366
 31
0.0
  0
LINE
  5
6F34
330
1E
100
AcDbEntity
  8
図枠
  6
Continuous
 62
     7
100
AcDbLine
 10
1725.91886816921
 20
655.360396096366
 30
0.0
 11
1516.91886816921
 21
655.360396096366
 31
0.0
  0
LINE
  5
6F35
330
1E
100
AcDbEntity
  8
図枠
  6
Continuous
 62
     7
100
AcDbLine
 10
1725.91886816921
 20
646.3603960963659
 30
0.0
 11
1516.91886816921
 21
646.3603960963659
 31
0.0
  0
LINE
  5
6F36
330
1E
100
AcDbEntity
  8
図枠
  6
Continuous
 62
     7
100
AcDbLine
 10
1725.91886816921
 20
637.3603960963659
 30
0.0
 11
1516.91886816921
 21
637.3603960963659
 31
0.0
  0
LINE
  5
6F37
330
1E
100
AcDbEntity
  8
図枠
  6
Continuous
 62
     7
100
AcDbLine
 10
1725.91886816921
 20
628.360396096366
 30
0.0
 11
1516.91886816921
 21
628.360396096366
 31
0.0
  0
LINE
  5
6F38
330
1E
100
AcDbEntity
  8
図枠
  6
Continuous
 62
     7
100
AcDbLine
 10
1725.91886816921
 20
619.360396096366
 30
0.0
 11
1516.91886816921
 21
619.360396096366
 31
0.0
  0
LINE
  5
6F39
330
1E
100
AcDbEntity
  8
図枠
  6
Continuous
 62
     7
100
AcDbLine
 10
1725.91886816921
 20
610.360396096366
 30
0.0
 11
1516.91886816921
 21
610.360396096366
 31
0.0
  0
LINE
  5
6F3A
330
1E
100
AcDbEntity
  8
図枠
  6
Continuous
 62
     7
100
AcDbLine
 10
1725.91886816921
 20
601.360396096366
 30
0.0
 11
1516.91886816921
 21
601.360396096366
 31
0.0
  0
LINE
  5
6F3B
330
1E
100
AcDbEntity
  8
図枠
  6
Continuous
 62
     7
100
AcDbLine
 10
1725.91886816921
 20
592.3603960963659
 30
0.0
 11
1516.91886816921
 21
592.3603960963659
 31
0.0
  0
LINE
  5
6F3C
330
1E
100
AcDbEntity
  8
図枠
  6
Continuous
 62
     7
100
AcDbLine
 10
1725.91886816921
 20
583.3603960963659
 30
0.0
 11
1516.91886816921
 21
583.3603960963659
 31
0.0
  0
LINE
  5
6F3D
330
1E
100
AcDbEntity
  8
図枠
  6
Continuous
 62
     7
100
AcDbLine
 10
1725.91886816921
 20
574.3603960963659
 30
0.0
 11
1516.91886816921
 21
574.3603960963659
 31
0.0
  0
LINE
  5
6F3E
330
1E
100
AcDbEntity
  8
図枠
  6
Continuous
 62
     7
100
AcDbLine
 10
1725.91886816921
 20
565.3603960963661
 30
0.0
 11
1516.91886816921
 21
565.3603960963661
 31
0.0
  0
LINE
  5
6F3F
330
1E
100
AcDbEntity
  8
図枠
  6
Continuous
 62
     7
100
AcDbLine
 10
1725.91886816921
 20
556.360396096366
 30
0.0
 11
1516.91886816921
 21
556.360396096366
 31
0.0
  0
LINE
  5
6F40
330
1E
100
AcDbEntity
  8
図枠
  6
Continuous
 62
     7
100
AcDbLine
 10
1725.91886816921
 20
547.360396096366
 30
0.0
 11
1516.91886816921
 21
547.360396096366
 31
0.0
  0
LINE
  5
6F41
330
1E
100
AcDbEntity
  8
図枠
  6
Continuous
 62
     7
100
AcDbLine
 10
1725.91886816921
 20
538.360396096366
 30
0.0
 11
1516.91886816921
 21
538.360396096366
 31
0.0
  0
LINE
  5
6F42
330
1E
100
AcDbEntity
  8
図枠
  6
Continuous
 62
     7
100
AcDbLine
 10
1516.91886816921
 20
538.360396096366
 30
0.0
 11
1516.91886816921
 21
745.3603960963659
 31
0.0
  0
TEXT
  5
6F43
330
1E
100
AcDbEntity
  8
図枠
 62
     7
100
AcDbText
 10
1518.91886816921
 20
737.8603960963659
 30
0.0
 40
5.0
  1
No.
100
AcDbText
  0
TEXT
  5
6F44
330
1E
100
AcDbEntity
  8
図枠
 62
     7
100
AcDbText
 10
1520.66886816921
 20
728.8603960963659
 30
0.0
 40
5.0
  1
 1
100
AcDbText
  0
TEXT
  5
6F45
330
1E
100
AcDbEntity
  8
図枠
 62
     7
100
AcDbText
 10
1520.66886816921
 20
719.860396096366
 30
0.0
 40
5.0
  1
 2
100
AcDbText
  0
TEXT
  5
6F46
330
1E
100
AcDbEntity
  8
図枠
 62
     7
100
AcDbText
 10
1520.66886816921
 20
710.8603960963659
 30
0.0
 40
5.0
  1
 3
100
AcDbText
  0
TEXT
  5
6F47
330
1E
100
AcDbEntity
  8
図枠
 62
     7
100
AcDbText
 10
1520.66886816921
 20
701.860396096366
 30
0.0
 40
5.0
  1
 4
100
AcDbText
  0
TEXT
  5
6F48
330
1E
100
AcDbEntity
  8
図枠
 62
     7
100
AcDbText
 10
1520.66886816921
 20
692.860396096366
 30
0.0
 40
5.0
  1
 5
100
AcDbText
  0
TEXT
  5
6F49
330
1E
100
AcDbEntity
  8
図枠
 62
     7
100
AcDbText
 10
1520.66886816921
 20
683.8603960963659
 30
0.0
 40
5.0
  1
 6
100
AcDbText
  0
TEXT
  5
6F4A
330
1E
100
AcDbEntity
  8
図枠
 62
     7
100
AcDbText
 10
1520.66886816921
 20
674.8603960963659
 30
0.0
 40
5.0
  1
 7
100
AcDbText
  0
TEXT
  5
6F4B
330
1E
100
AcDbEntity
  8
図枠
 62
     7
100
AcDbText
 10
1520.66886816921
 20
665.860396096366
 30
0.0
 40
5.0
  1
 8
100
AcDbText
  0
TEXT
  5
6F4C
330
1E
100
AcDbEntity
  8
図枠
 62
     7
100
AcDbText
 10
1520.66886816921
 20
656.860396096366
 30
0.0
 40
5.0
  1
 9
100
AcDbText
  0
TEXT
  5
6F4D
330
1E
100
AcDbEntity
  8
図枠
 62
     7
100
AcDbText
 10
1520.66886816921
 20
647.860396096366
 30
0.0
 40
5.0
  1
10
100
AcDbText
  0
TEXT
  5
6F4E
330
1E
100
AcDbEntity
  8
図枠
 62
     7
100
AcDbText
 10
1520.66886816921
 20
638.860396096366
 30
0.0
 40
5.0
  1
11
100
AcDbText
  0
TEXT
  5
6F4F
330
1E
100
AcDbEntity
  8
図枠
 62
     7
100
AcDbText
 10
1520.66886816921
 20
629.860396096366
 30
0.0
 40
5.0
  1
12
100
AcDbText
  0
TEXT
  5
6F50
330
1E
100
AcDbEntity
  8
図枠
 62
     7
100
AcDbText
 10
1520.66886816921
 20
620.8603960963659
 30
0.0
 40
5.0
  1
13
100
AcDbText
  0
TEXT
  5
6F51
330
1E
100
AcDbEntity
  8
図枠
 62
     7
100
AcDbText
 10
1520.66886816921
 20
611.8603960963659
 30
0.0
 40
5.0
  1
14
100
AcDbText
  0
TEXT
  5
6F52
330
1E
100
AcDbEntity
  8
図枠
 62
     7
100
AcDbText
 10
1520.66886816921
 20
602.860396096366
 30
0.0
 40
5.0
  1
15
100
AcDbText
  0
TEXT
  5
6F53
330
1E
100
AcDbEntity
  8
図枠
 62
     7
100
AcDbText
 10
1520.66886816921
 20
593.860396096366
 30
0.0
 40
5.0
  1
16
100
AcDbText
  0
TEXT
  5
6F54
330
1E
100
AcDbEntity
  8
図枠
 62
     7
100
AcDbText
 10
1520.66886816921
 20
584.860396096366
 30
0.0
 40
5.0
  1
17
100
AcDbText
  0
TEXT
  5
6F55
330
1E
100
AcDbEntity
  8
図枠
 62
     7
100
AcDbText
 10
1520.66886816921
 20
575.860396096366
 30
0.0
 40
5.0
  1
18
100
AcDbText
  0
TEXT
  5
6F56
330
1E
100
AcDbEntity
  8
図枠
 62
     7
100
AcDbText
 10
1520.66886816921
 20
566.8603960963659
 30
0.0
 40
5.0
  1
19
100
AcDbText
  0
TEXT
  5
6F57
330
1E
100
AcDbEntity
  8
図枠
 62
     7
100
AcDbText
 10
1520.66886816921
 20
557.8603960963659
 30
0.0
 40
5.0
  1
20
100
AcDbText
  0
TEXT
  5
6F58
330
1E
100
AcDbEntity
  8
図枠
 62
     7
100
AcDbText
 10
1520.66886816921
 20
548.860396096366
 30
0.0
 40
5.0
  1
21
100
AcDbText
  0
TEXT
  5
6F59
330
1E
100
AcDbEntity
  8
図枠
 62
     7
100
AcDbText
 10
1520.91886816921
 20
539.860396096366
 30
0.0
 40
5.0
  1
※
100
AcDbText
  0
TEXT
  5
6F5A
330
1E
100
AcDbEntity
  8
図枠
 62
     7
100
AcDbText
 10
1635.91886816921
 20
629.860396096366
 30
0.0
 40
5.0
  1
ＦＳ400～600
100
AcDbText
  0
TEXT
  5
6F5B
330
1E
100
AcDbEntity
  8
図枠
 62
     7
100
AcDbText
 10
1635.91886816921
 20
683.8603960963659
 30
0.0
 40
5.0
  1
100ＦＹＫＨ－275～500
100
AcDbText
  0
TEXT
  5
6F5C
330
1E
100
AcDbEntity
  8
図枠
 62
     7
100
AcDbText
 10
1635.91886816921
 20
656.860396096366
 30
0.0
 40
5.0
  1
100ＦＹＫＪ－275～500
100
AcDbText
  0
TEXT
  5
6F5D
330
1E
100
AcDbEntity
  8
図枠
 62
     7
100
AcDbText
 10
1535.91886816921
 20
728.8603960963659
 30
0.0
 40
5.0
  1
ＦＹＫキャップＳ
100
AcDbText
  0
TEXT
  5
6F5E
330
1E
100
AcDbEntity
  8
図枠
 62
     7
100
AcDbText
 10
1535.91886816921
 20
719.860396096366
 30
0.0
 40
5.0
  1
ＦＹＫサイドキャップＳ
100
AcDbText
  0
TEXT
  5
6F5F
330
1E
100
AcDbEntity
  8
図枠
 62
     7
100
AcDbText
 10
1635.91886816921
 20
728.8603960963659
 30
0.0
 40
5.0
  1
100ＦＹＫ－Ｓ275～500
100
AcDbText
  0
LINE
  5
6F60
330
1E
100
AcDbEntity
  8
図枠
  6
Continuous
 62
     7
100
AcDbLine
 10
1726.91886816921
 20
538.360396096366
 30
0.0
 11
1726.91886816921
 21
745.3603960963659
 31
0.0
  0
LINE
  5
6F61
330
1E
100
AcDbEntity
  8
図枠
  6
Continuous
 62
     7
100
AcDbLine
 10
1761.91886816921
 20
538.360396096366
 30
0.0
 11
1761.91886816921
 21
745.3603960963659
 31
0.0
  0
LINE
  5
6F62
330
1E
100
AcDbEntity
  8
図枠
  6
Continuous
 62
     7
100
AcDbLine
 10
1779.91886816921
 20
538.360396096366
 30
0.0
 11
1779.91886816921
 21
745.3603960963659
 31
0.0
  0
LINE
  5
6F63
330
1E
100
AcDbEntity
  8
図枠
  6
Continuous
 62
     7
100
AcDbLine
 10
1726.91886816921
 20
745.3603960963659
 30
0.0
 11
1793.91886816921
 21
745.3603960963659
 31
0.0
  0
LINE
  5
6F64
330
1E
100
AcDbEntity
  8
図枠
  6
Continuous
 62
     7
100
AcDbLine
 10
1726.91886816921
 20
736.360396096366
 30
0.0
 11
1793.91886816921
 21
736.360396096366
 31
0.0
  0
LINE
  5
6F65
330
1E
100
AcDbEntity
  8
図枠
  6
Continuous
 62
     7
100
AcDbLine
 10
1726.91886816921
 20
727.360396096366
 30
0.0
 11
1793.91886816921
 21
727.360396096366
 31
0.0
  0
LINE
  5
6F66
330
1E
100
AcDbEntity
  8
図枠
  6
Continuous
 62
     7
100
AcDbLine
 10
1726.91886816921
 20
718.360396096366
 30
0.0
 11
1793.91886816921
 21
718.360396096366
 31
0.0
  0
LINE
  5
6F67
330
1E
100
AcDbEntity
  8
図枠
  6
Continuous
 62
     7
100
AcDbLine
 10
1726.91886816921
 20
709.360396096366
 30
0.0
 11
1793.91886816921
 21
709.360396096366
 31
0.0
  0
LINE
  5
6F68
330
1E
100
AcDbEntity
  8
図枠
  6
Continuous
 62
     7
100
AcDbLine
 10
1726.91886816921
 20
700.3603960963659
 30
0.0
 11
1793.91886816921
 21
700.3603960963659
 31
0.0
  0
LINE
  5
6F69
330
1E
100
AcDbEntity
  8
図枠
  6
Continuous
 62
     7
100
AcDbLine
 10
1726.91886816921
 20
691.3603960963659
 30
0.0
 11
1793.91886816921
 21
691.3603960963659
 31
0.0
  0
LINE
  5
6F6A
330
1E
100
AcDbEntity
  8
図枠
  6
Continuous
 62
     7
100
AcDbLine
 10
1726.91886816921
 20
682.360396096366
 30
0.0
 11
1793.91886816921
 21
682.360396096366
 31
0.0
  0
LINE
  5
6F6B
330
1E
100
AcDbEntity
  8
図枠
  6
Continuous
 62
     7
100
AcDbLine
 10
1726.91886816921
 20
673.360396096366
 30
0.0
 11
1793.91886816921
 21
673.360396096366
 31
0.0
  0
LINE
  5
6F6C
330
1E
100
AcDbEntity
  8
図枠
  6
Continuous
 62
     7
100
AcDbLine
 10
1726.91886816921
 20
664.360396096366
 30
0.0
 11
1793.91886816921
 21
664.360396096366
 31
0.0
  0
LINE
  5
6F6D
330
1E
100
AcDbEntity
  8
図枠
  6
Continuous
 62
     7
100
AcDbLine
 10
1726.91886816921
 20
655.360396096366
 30
0.0
 11
1793.91886816921
 21
655.360396096366
 31
0.0
  0
LINE
  5
6F6E
330
1E
100
AcDbEntity
  8
図枠
  6
Continuous
 62
     7
100
AcDbLine
 10
1726.91886816921
 20
646.3603960963659
 30
0.0
 11
1793.91886816921
 21
646.3603960963659
 31
0.0
  0
LINE
  5
6F6F
330
1E
100
AcDbEntity
  8
図枠
  6
Continuous
 62
     7
100
AcDbLine
 10
1726.91886816921
 20
637.3603960963659
 30
0.0
 11
1793.91886816921
 21
637.3603960963659
 31
0.0
  0
LINE
  5
6F70
330
1E
100
AcDbEntity
  8
図枠
  6
Continuous
 62
     7
100
AcDbLine
 10
1726.91886816921
 20
628.360396096366
 30
0.0
 11
1793.91886816921
 21
628.360396096366
 31
0.0
  0
LINE
  5
6F71
330
1E
100
AcDbEntity
  8
図枠
  6
Continuous
 62
     7
100
AcDbLine
 10
1726.91886816921
 20
619.360396096366
 30
0.0
 11
1793.91886816921
 21
619.360396096366
 31
0.0
  0
LINE
  5
6F72
330
1E
100
AcDbEntity
  8
図枠
  6
Continuous
 62
     7
100
AcDbLine
 10
1726.91886816921
 20
610.360396096366
 30
0.0
 11
1793.91886816921
 21
610.360396096366
 31
0.0
  0
LINE
  5
6F73
330
1E
100
AcDbEntity
  8
図枠
  6
Continuous
 62
     7
100
AcDbLine
 10
1726.91886816921
 20
601.360396096366
 30
0.0
 11
1793.91886816921
 21
601.360396096366
 31
0.0
  0
LINE
  5
6F74
330
1E
100
AcDbEntity
  8
図枠
  6
Continuous
 62
     7
100
AcDbLine
 10
1726.91886816921
 20
592.3603960963659
 30
0.0
 11
1793.91886816921
 21
592.3603960963659
 31
0.0
  0
LINE
  5
6F75
330
1E
100
AcDbEntity
  8
図枠
  6
Continuous
 62
     7
100
AcDbLine
 10
1726.91886816921
 20
583.3603960963659
 30
0.0
 11
1793.91886816921
 21
583.3603960963659
 31
0.0
  0
LINE
  5
6F76
330
1E
100
AcDbEntity
  8
図枠
  6
Continuous
 62
     7
100
AcDbLine
 10
1726.91886816921
 20
574.3603960963659
 30
0.0
 11
1793.91886816921
 21
574.3603960963659
 31
0.0
  0
LINE
  5
6F77
330
1E
100
AcDbEntity
  8
図枠
  6
Continuous
 62
     7
100
AcDbLine
 10
1726.91886816921
 20
565.3603960963661
 30
0.0
 11
1793.91886816921
 21
565.3603960963661
 31
0.0
  0
LINE
  5
6F78
330
1E
100
AcDbEntity
  8
図枠
  6
Continuous
 62
     7
100
AcDbLine
 10
1726.91886816921
 20
556.360396096366
 30
0.0
 11
1793.91886816921
 21
556.360396096366
 31
0.0
  0
LINE
  5
6F79
330
1E
100
AcDbEntity
  8
図枠
  6
Continuous
 62
     7
100
AcDbLine
 10
1726.91886816921
 20
547.360396096366
 30
0.0
 11
1793.91886816921
 21
547.360396096366
 31
0.0
  0
LINE
  5
6F7A
330
1E
100
AcDbEntity
  8
図枠
  6
Continuous
 62
     7
100
AcDbLine
 10
1726.91886816921
 20
538.360396096366
 30
0.0
 11
1793.91886816921
 21
538.360396096366
 31
0.0
  0
LINE
  5
6F7B
330
1E
100
AcDbEntity
  8
図枠
  6
Continuous
 62
     7
100
AcDbLine
 10
1793.91886816921
 20
538.360396096366
 30
0.0
 11
1793.91886816921
 21
745.3603960963659
 31
0.0
  0
TEXT
  5
6F7C
330
1E
100
AcDbEntity
  8
図枠
 62
     7
100
AcDbText
 10
1730.668868169211
 20
737.8603960963659
 30
0.0
 40
5.0
  1
定尺(mm)
100
AcDbText
  0
TEXT
  5
6F7D
330
1E
100
AcDbEntity
  8
図枠
 62
     7
100
AcDbText
 10
1737.66886816921
 20
728.8603960963659
 30
0.0
 40
5.0
  1
2000
100
AcDbText
  0
TEXT
  5
6F7E
330
1E
100
AcDbEntity
  8
図枠
 62
     7
100
AcDbText
 10
1737.66886816921
 20
719.860396096366
 30
0.0
 40
5.0
  1
2000
100
AcDbText
  0
TEXT
  5
6F7F
330
1E
100
AcDbEntity
  8
図枠
 62
     7
100
AcDbText
 10
1737.66886816921
 20
710.8603960963659
 30
0.0
 40
5.0
  1
2000
100
AcDbText
  0
TEXT
  5
6F80
330
1E
100
AcDbEntity
  8
図枠
 62
     7
100
AcDbText
 10
1737.66886816921
 20
701.860396096366
 30
0.0
 40
5.0
  1
2000
100
AcDbText
  0
TEXT
  5
6F81
330
1E
100
AcDbEntity
  8
図枠
 62
     7
100
AcDbText
 10
1737.66886816921
 20
692.860396096366
 30
0.0
 40
5.0
  1
2010
100
AcDbText
  0
TEXT
  5
6F82
330
1E
100
AcDbEntity
  8
図枠
 62
     7
100
AcDbText
 10
1737.66886816921
 20
638.860396096366
 30
0.0
 40
5.0
  1
2060
100
AcDbText
  0
TEXT
  5
6F83
330
1E
100
AcDbEntity
  8
図枠
 62
     7
100
AcDbText
 10
1737.66886816921
 20
629.860396096366
 30
0.0
 40
5.0
  1
2100
100
AcDbText
  0
TEXT
  5
6F84
330
1E
100
AcDbEntity
  8
図枠
 62
     7
100
AcDbText
 10
1737.66886816921
 20
620.8603960963659
 30
0.0
 40
5.0
  1
2000
100
AcDbText
  0
TEXT
  5
6F85
330
1E
100
AcDbEntity
  8
図枠
 62
     7
100
AcDbText
 10
1737.66886816921
 20
539.860396096366
 30
0.0
 40
5.0
  1
6000
100
AcDbText
  0
TEXT
  5
6F86
330
1E
100
AcDbEntity
  8
図枠
 62
     7
100
AcDbText
 10
1764.41886816921
 20
737.8603960963659
 30
0.0
 40
5.0
  1
入数
100
AcDbText
  0
TEXT
  5
6F87
330
1E
100
AcDbEntity
  8
図枠
 62
     7
100
AcDbText
 10
1767.66886816921
 20
728.8603960963659
 30
0.0
 40
5.0
  1
 1
100
AcDbText
  0
TEXT
  5
6F88
330
1E
100
AcDbEntity
  8
図枠
 62
     7
100
AcDbText
 10
1767.66886816921
 20
719.860396096366
 30
0.0
 40
5.0
  1
 1
100
AcDbText
  0
TEXT
  5
6F89
330
1E
100
AcDbEntity
  8
図枠
 62
     7
100
AcDbText
 10
1767.66886816921
 20
710.8603960963659
 30
0.0
 40
5.0
  1
 1
100
AcDbText
  0
TEXT
  5
6F8A
330
1E
100
AcDbEntity
  8
図枠
 62
     7
100
AcDbText
 10
1767.66886816921
 20
701.860396096366
 30
0.0
 40
5.0
  1
 1
100
AcDbText
  0
TEXT
  5
6F8B
330
1E
100
AcDbEntity
  8
図枠
 62
     7
100
AcDbText
 10
1767.66886816921
 20
692.860396096366
 30
0.0
 40
5.0
  1
 1
100
AcDbText
  0
TEXT
  5
6F8C
330
1E
100
AcDbEntity
  8
図枠
 62
     7
100
AcDbText
 10
1767.66886816921
 20
683.8603960963659
 30
0.0
 40
5.0
  1
 4
100
AcDbText
  0
TEXT
  5
6F8D
330
1E
100
AcDbEntity
  8
図枠
 62
     7
100
AcDbText
 10
1767.66886816921
 20
674.8603960963659
 30
0.0
 40
5.0
  1
 4
100
AcDbText
  0
TEXT
  5
6F8E
330
1E
100
AcDbEntity
  8
図枠
 62
     7
100
AcDbText
 10
1767.66886816921
 20
665.860396096366
 30
0.0
 40
5.0
  1
 4
100
AcDbText
  0
TEXT
  5
6F8F
330
1E
100
AcDbEntity
  8
図枠
 62
     7
100
AcDbText
 10
1767.66886816921
 20
656.860396096366
 30
0.0
 40
5.0
  1
 1
100
AcDbText
  0
TEXT
  5
6F90
330
1E
100
AcDbEntity
  8
図枠
 62
     7
100
AcDbText
 10
1767.66886816921
 20
647.860396096366
 30
0.0
 40
5.0
  1
 1
100
AcDbText
  0
TEXT
  5
6F91
330
1E
100
AcDbEntity
  8
図枠
 62
     7
100
AcDbText
 10
1767.66886816921
 20
638.860396096366
 30
0.0
 40
5.0
  1
 1
100
AcDbText
  0
TEXT
  5
6F92
330
1E
100
AcDbEntity
  8
図枠
 62
     7
100
AcDbText
 10
1767.66886816921
 20
629.860396096366
 30
0.0
 40
5.0
  1
 1
100
AcDbText
  0
TEXT
  5
6F93
330
1E
100
AcDbEntity
  8
図枠
 62
     7
100
AcDbText
 10
1767.66886816921
 20
620.8603960963659
 30
0.0
 40
5.0
  1
 1
100
AcDbText
  0
TEXT
  5
6F94
330
1E
100
AcDbEntity
  8
図枠
 62
     7
100
AcDbText
 10
1767.66886816921
 20
611.8603960963659
 30
0.0
 40
5.0
  1
 4
100
AcDbText
  0
TEXT
  5
6F95
330
1E
100
AcDbEntity
  8
図枠
 62
     7
100
AcDbText
 10
1767.66886816921
 20
602.860396096366
 30
0.0
 40
5.0
  1
 5
100
AcDbText
  0
TEXT
  5
6F96
330
1E
100
AcDbEntity
  8
図枠
 62
     7
100
AcDbText
 10
1767.66886816921
 20
593.860396096366
 30
0.0
 40
5.0
  1
 5
100
AcDbText
  0
TEXT
  5
6F97
330
1E
100
AcDbEntity
  8
図枠
 62
     7
100
AcDbText
 10
1767.66886816921
 20
584.860396096366
 30
0.0
 40
5.0
  1
 5
100
AcDbText
  0
TEXT
  5
6F98
330
1E
100
AcDbEntity
  8
図枠
 62
     7
100
AcDbText
 10
1767.66886816921
 20
575.860396096366
 30
0.0
 40
5.0
  1
 5
100
AcDbText
  0
TEXT
  5
6F99
330
1E
100
AcDbEntity
  8
図枠
 62
     7
100
AcDbText
 10
1767.66886816921
 20
566.8603960963659
 30
0.0
 40
5.0
  1
 5
100
AcDbText
  0
TEXT
  5
6F9A
330
1E
100
AcDbEntity
  8
図枠
 62
     7
100
AcDbText
 10
1767.66886816921
 20
557.8603960963659
 30
0.0
 40
5.0
  1
 5
100
AcDbText
  0
TEXT
  5
6F9B
330
1E
100
AcDbEntity
  8
図枠
 62
     7
100
AcDbText
 10
1767.66886816921
 20
548.860396096366
 30
0.0
 40
5.0
  1
 5
100
AcDbText
  0
TEXT
  5
6F9C
330
1E
100
AcDbEntity
  8
図枠
 62
     7
100
AcDbText
 10
1767.66886816921
 20
539.860396096366
 30
0.0
 40
5.0
  1
 1
100
AcDbText
  0
TEXT
  5
6F9D
330
1E
100
AcDbEntity
  8
図枠
 62
     7
100
AcDbText
 10
1783.918868169211
 20
728.8603960963659
 30
0.0
 40
5.0
  1
本
100
AcDbText
  0
TEXT
  5
6F9E
330
1E
100
AcDbEntity
  8
図枠
 62
     7
100
AcDbText
 10
1783.918868169211
 20
719.860396096366
 30
0.0
 40
5.0
  1
〃
100
AcDbText
  0
TEXT
  5
6F9F
330
1E
100
AcDbEntity
  8
図枠
 62
     7
100
AcDbText
 10
1783.918868169211
 20
710.8603960963659
 30
0.0
 40
5.0
  1
〃
100
AcDbText
  0
TEXT
  5
6FA0
330
1E
100
AcDbEntity
  8
図枠
 62
     7
100
AcDbText
 10
1783.918868169211
 20
701.860396096366
 30
0.0
 40
5.0
  1
〃
100
AcDbText
  0
TEXT
  5
6FA1
330
1E
100
AcDbEntity
  8
図枠
 62
     7
100
AcDbText
 10
1783.918868169211
 20
692.860396096366
 30
0.0
 40
5.0
  1
〃
100
AcDbText
  0
TEXT
  5
6FA2
330
1E
100
AcDbEntity
  8
図枠
 62
     7
100
AcDbText
 10
1783.918868169211
 20
683.8603960963659
 30
0.0
 40
5.0
  1
〃
100
AcDbText
  0
TEXT
  5
6FA3
330
1E
100
AcDbEntity
  8
図枠
 62
     7
100
AcDbText
 10
1783.918868169211
 20
674.8603960963659
 30
0.0
 40
5.0
  1
〃
100
AcDbText
  0
TEXT
  5
6FA4
330
1E
100
AcDbEntity
  8
図枠
 62
     7
100
AcDbText
 10
1783.918868169211
 20
665.860396096366
 30
0.0
 40
5.0
  1
〃
100
AcDbText
  0
TEXT
  5
6FA5
330
1E
100
AcDbEntity
  8
図枠
 62
     7
100
AcDbText
 10
1783.918868169211
 20
656.860396096366
 30
0.0
 40
5.0
  1
〃
100
AcDbText
  0
TEXT
  5
6FA6
330
1E
100
AcDbEntity
  8
図枠
 62
     7
100
AcDbText
 10
1783.918868169211
 20
647.860396096366
 30
0.0
 40
5.0
  1
〃
100
AcDbText
  0
TEXT
  5
6FA7
330
1E
100
AcDbEntity
  8
図枠
 62
     7
100
AcDbText
 10
1783.918868169211
 20
638.860396096366
 30
0.0
 40
5.0
  1
枚
100
AcDbText
  0
TEXT
  5
6FA8
330
1E
100
AcDbEntity
  8
図枠
 62
     7
100
AcDbText
 10
1783.918868169211
 20
629.860396096366
 30
0.0
 40
5.0
  1
〃
100
AcDbText
  0
TEXT
  5
6FA9
330
1E
100
AcDbEntity
  8
図枠
 62
     7
100
AcDbText
 10
1783.918868169211
 20
620.8603960963659
 30
0.0
 40
5.0
  1
本
100
AcDbText
  0
TEXT
  5
6FAA
330
1E
100
AcDbEntity
  8
図枠
 62
     7
100
AcDbText
 10
1783.918868169211
 20
611.8603960963659
 30
0.0
 40
5.0
  1
〃
100
AcDbText
  0
TEXT
  5
6FAB
330
1E
100
AcDbEntity
  8
図枠
 62
     7
100
AcDbText
 10
1783.918868169211
 20
602.860396096366
 30
0.0
 40
5.0
  1
〃
100
AcDbText
  0
TEXT
  5
6FAC
330
1E
100
AcDbEntity
  8
図枠
 62
     7
100
AcDbText
 10
1783.918868169211
 20
593.860396096366
 30
0.0
 40
5.0
  1
〃
100
AcDbText
  0
TEXT
  5
6FAD
330
1E
100
AcDbEntity
  8
図枠
 62
     7
100
AcDbText
 10
1783.918868169211
 20
584.860396096366
 30
0.0
 40
5.0
  1
〃
100
AcDbText
  0
TEXT
  5
6FAE
330
1E
100
AcDbEntity
  8
図枠
 62
     7
100
AcDbText
 10
1783.918868169211
 20
575.860396096366
 30
0.0
 40
5.0
  1
〃
100
AcDbText
  0
TEXT
  5
6FAF
330
1E
100
AcDbEntity
  8
図枠
 62
     7
100
AcDbText
 10
1783.918868169211
 20
566.8603960963659
 30
0.0
 40
5.0
  1
〃
100
AcDbText
  0
TEXT
  5
6FB0
330
1E
100
AcDbEntity
  8
図枠
 62
     7
100
AcDbText
 10
1783.918868169211
 20
557.8603960963659
 30
0.0
 40
5.0
  1
枚
100
AcDbText
  0
TEXT
  5
6FB1
330
1E
100
AcDbEntity
  8
図枠
 62
     7
100
AcDbText
 10
1783.918868169211
 20
548.860396096366
 30
0.0
 40
5.0
  1
〃
100
AcDbText
  0
TEXT
  5
6FB2
330
1E
100
AcDbEntity
  8
図枠
 62
     7
100
AcDbText
 10
1783.918868169211
 20
539.860396096366
 30
0.0
 40
5.0
  1
巻
100
AcDbText
  0
TEXT
  5
6FB3
330
1E
100
AcDbEntity
  8
図枠
 62
     7
100
AcDbText
 10
1780.418868169211
 20
737.8603960963659
 30
0.0
 40
5.0
  1
単位
100
AcDbText
  0
TEXT
  5
6FB4
330
1E
100
AcDbEntity
  8
図枠
 62
     7
100
AcDbText
 10
1834.41886816921
 20
737.8603960963659
 30
0.0
 40
5.0
  1
タ　イ　プ
100
AcDbText
  0
TEXT
  5
6FB5
330
1E
100
AcDbEntity
  8
図枠
 62
     7
100
AcDbText
 10
1930.91886816921
 20
737.8603960963659
 30
0.0
 40
5.0
  1
Ａ
100
AcDbText
  0
TEXT
  5
6FB6
330
1E
100
AcDbEntity
  8
図枠
 62
     7
100
AcDbText
 10
1900.91886816921
 20
737.8603960963659
 30
0.0
 40
5.0
  1
Ｗ
100
AcDbText
  0
LINE
  5
6FB7
330
1E
100
AcDbEntity
  8
図枠
  6
Continuous
 62
     7
100
AcDbLine
 10
1813.91886816921
 20
745.3603960963659
 30
0.0
 11
1813.91886816921
 21
646.3603960963659
 31
0.0
  0
LINE
  5
6FB8
330
1E
100
AcDbEntity
  8
図枠
  6
Continuous
 62
     7
100
AcDbLine
 10
1918.91886816921
 20
745.3603960963659
 30
0.0
 11
1918.91886816921
 21
646.3603960963659
 31
0.0
  0
LINE
  5
6FB9
330
1E
100
AcDbEntity
  8
図枠
  6
Continuous
 62
     7
100
AcDbLine
 10
1888.91886816921
 20
745.3603960963659
 30
0.0
 11
1888.91886816921
 21
646.3603960963659
 31
0.0
  0
LINE
  5
6FBA
330
1E
100
AcDbEntity
  8
図枠
  6
Continuous
 62
     7
100
AcDbLine
 10
2008.918868169211
 20
745.3603960963659
 30
0.0
 11
2008.918868169211
 21
646.3603960963659
 31
0.0
  0
LINE
  5
6FBB
330
1E
100
AcDbEntity
  8
図枠
  6
Continuous
 62
     7
100
AcDbLine
 10
1978.918868169211
 20
745.3603960963659
 30
0.0
 11
1978.918868169211
 21
646.3603960963659
 31
0.0
  0
LINE
  5
6FBC
330
1E
100
AcDbEntity
  8
図枠
  6
Continuous
 62
     7
100
AcDbLine
 10
1948.918868169211
 20
745.3603960963659
 30
0.0
 11
1948.918868169211
 21
646.3603960963659
 31
0.0
  0
LINE
  5
6FBD
330
1E
100
AcDbEntity
  8
図枠
  6
Continuous
 62
     7
100
AcDbLine
 10
2038.91886816921
 20
745.3603960963659
 30
0.0
 11
2038.91886816921
 21
646.3603960963659
 31
0.0
  0
TEXT
  5
6FBE
330
1E
100
AcDbEntity
  8
図枠
 62
     7
100
AcDbText
 10
1958.91886816921
 20
647.860396096366
 30
0.0
 40
5.0
  1
325
100
AcDbText
  0
TEXT
  5
6FBF
330
1E
100
AcDbEntity
  8
図枠
 62
     7
100
AcDbText
 10
1958.91886816921
 20
656.860396096366
 30
0.0
 40
5.0
  1
300
100
AcDbText
  0
TEXT
  5
6FC0
330
1E
100
AcDbEntity
  8
図枠
 62
     7
100
AcDbText
 10
1958.91886816921
 20
665.860396096366
 30
0.0
 40
5.0
  1
275
100
AcDbText
  0
TEXT
  5
6FC1
330
1E
100
AcDbEntity
  8
図枠
 62
     7
100
AcDbText
 10
1958.91886816921
 20
674.8603960963659
 30
0.0
 40
5.0
  1
250
100
AcDbText
  0
TEXT
  5
6FC2
330
1E
100
AcDbEntity
  8
図枠
 62
     7
100
AcDbText
 10
1958.91886816921
 20
683.8603960963659
 30
0.0
 40
5.0
  1
225
100
AcDbText
  0
TEXT
  5
6FC3
330
1E
100
AcDbEntity
  8
図枠
 62
     7
100
AcDbText
 10
1958.91886816921
 20
692.860396096366
 30
0.0
 40
5.0
  1
200
100
AcDbText
  0
TEXT
  5
6FC4
330
1E
100
AcDbEntity
  8
図枠
 62
     7
100
AcDbText
 10
1958.91886816921
 20
701.860396096366
 30
0.0
 40
5.0
  1
175
100
AcDbText
  0
TEXT
  5
6FC5
330
1E
100
AcDbEntity
  8
図枠
 62
     7
100
AcDbText
 10
1958.91886816921
 20
710.8603960963659
 30
0.0
 40
5.0
  1
150
100
AcDbText
  0
TEXT
  5
6FC6
330
1E
100
AcDbEntity
  8
図枠
 62
     7
100
AcDbText
 10
1958.91886816921
 20
719.860396096366
 30
0.0
 40
5.0
  1
125
100
AcDbText
  0
TEXT
  5
6FC7
330
1E
100
AcDbEntity
  8
図枠
 62
     7
100
AcDbText
 10
1958.91886816921
 20
728.8603960963659
 30
0.0
 40
5.0
  1
100
100
AcDbText
  0
TEXT
  5
6FC8
330
1E
100
AcDbEntity
  8
図枠
 62
     7
100
AcDbText
 10
2020.918868169211
 20
737.8603960963659
 30
0.0
 40
5.0
  1
Ｅ
100
AcDbText
  0
TEXT
  5
6FC9
330
1E
100
AcDbEntity
  8
図枠
 62
     7
100
AcDbText
 10
1990.918868169211
 20
737.8603960963659
 30
0.0
 40
5.0
  1
Ｄ
100
AcDbText
  0
TEXT
  5
6FCA
330
1E
100
AcDbEntity
  8
図枠
 62
     7
100
AcDbText
 10
1960.91886816921
 20
737.8603960963659
 30
0.0
 40
5.0
  1
Ｃ
100
AcDbText
  0
LINE
  5
6FCB
330
1E
100
AcDbEntity
  8
図枠
  6
Continuous
 62
     7
100
AcDbLine
 10
2038.91886816921
 20
646.3603960963659
 30
0.0
 11
1813.91886816921
 21
646.3603960963659
 31
0.0
  0
LINE
  5
6FCC
330
1E
100
AcDbEntity
  8
図枠
  6
Continuous
 62
     7
100
AcDbLine
 10
2038.91886816921
 20
655.360396096366
 30
0.0
 11
1813.91886816921
 21
655.360396096366
 31
0.0
  0
LINE
  5
6FCD
330
1E
100
AcDbEntity
  8
図枠
  6
Continuous
 62
     7
100
AcDbLine
 10
2038.91886816921
 20
664.360396096366
 30
0.0
 11
1813.91886816921
 21
664.360396096366
 31
0.0
  0
LINE
  5
6FCE
330
1E
100
AcDbEntity
  8
図枠
  6
Continuous
 62
     7
100
AcDbLine
 10
2038.91886816921
 20
673.360396096366
 30
0.0
 11
1813.91886816921
 21
673.360396096366
 31
0.0
  0
LINE
  5
6FCF
330
1E
100
AcDbEntity
  8
図枠
  6
Continuous
 62
     7
100
AcDbLine
 10
2038.91886816921
 20
682.360396096366
 30
0.0
 11
1813.91886816921
 21
682.360396096366
 31
0.0
  0
LINE
  5
6FD0
330
1E
100
AcDbEntity
  8
図枠
  6
Continuous
 62
     7
100
AcDbLine
 10
2038.91886816921
 20
691.3603960963659
 30
0.0
 11
1813.91886816921
 21
691.3603960963659
 31
0.0
  0
LINE
  5
6FD1
330
1E
100
AcDbEntity
  8
図枠
  6
Continuous
 62
     7
100
AcDbLine
 10
2038.91886816921
 20
700.3603960963659
 30
0.0
 11
1813.91886816921
 21
700.3603960963659
 31
0.0
  0
LINE
  5
6FD2
330
1E
100
AcDbEntity
  8
図枠
  6
Continuous
 62
     7
100
AcDbLine
 10
2038.91886816921
 20
718.360396096366
 30
0.0
 11
1813.91886816921
 21
718.360396096366
 31
0.0
  0
LINE
  5
6FD3
330
1E
100
AcDbEntity
  8
図枠
  6
Continuous
 62
     7
100
AcDbLine
 10
2038.91886816921
 20
736.360396096366
 30
0.0
 11
1813.91886816921
 21
736.360396096366
 31
0.0
  0
LINE
  5
6FD4
330
1E
100
AcDbEntity
  8
図枠
  6
Continuous
 62
     7
100
AcDbLine
 10
2038.91886816921
 20
745.3603960963659
 30
0.0
 11
1813.91886816921
 21
745.3603960963659
 31
0.0
  0
LINE
  5
6FD5
330
1E
100
AcDbEntity
  8
図枠
  6
Continuous
 62
     7
100
AcDbLine
 10
2038.91886816921
 20
727.360396096366
 30
0.0
 11
1813.91886816921
 21
727.360396096366
 31
0.0
  0
LINE
  5
6FD6
330
1E
100
AcDbEntity
  8
図枠
  6
Continuous
 62
     7
100
AcDbLine
 10
2038.91886816921
 20
709.360396096366
 30
0.0
 11
1813.91886816921
 21
709.360396096366
 31
0.0
  0
TEXT
  5
6FD7
330
1E
100
AcDbEntity
  8
図枠
 62
     7
100
AcDbText
 10
1823.66886816921
 20
701.860396096366
 30
0.0
 40
5.0
  1
　　  〃　 　350
100
AcDbText
  0
TEXT
  5
6FD8
330
1E
100
AcDbEntity
  8
図枠
 62
     7
100
AcDbText
 10
1823.66886816921
 20
692.860396096366
 30
0.0
 40
5.0
  1
　　  〃　 　375
100
AcDbText
  0
TEXT
  5
6FD9
330
1E
100
AcDbEntity
  8
図枠
 62
     7
100
AcDbText
 10
1823.66886816921
 20
683.8603960963659
 30
0.0
 40
5.0
  1
　　  〃　 　400
100
AcDbText
  0
TEXT
  5
6FDA
330
1E
100
AcDbEntity
  8
図枠
 62
     7
100
AcDbText
 10
1823.66886816921
 20
674.8603960963659
 30
0.0
 40
5.0
  1
　　  〃　 　425
100
AcDbText
  0
TEXT
  5
6FDB
330
1E
100
AcDbEntity
  8
図枠
 62
     7
100
AcDbText
 10
1823.66886816921
 20
665.860396096366
 30
0.0
 40
5.0
  1
　　  〃　 　450
100
AcDbText
  0
TEXT
  5
6FDC
330
1E
100
AcDbEntity
  8
図枠
 62
     7
100
AcDbText
 10
1823.66886816921
 20
656.860396096366
 30
0.0
 40
5.0
  1
　　  〃　 　475
100
AcDbText
  0
TEXT
  5
6FDD
330
1E
100
AcDbEntity
  8
図枠
 62
     7
100
AcDbText
 10
1823.66886816921
 20
647.860396096366
 30
0.0
 40
5.0
  1
　　  〃　 　500
100
AcDbText
  0
TEXT
  5
6FDE
330
1E
100
AcDbEntity
  8
図枠
 62
     7
100
AcDbText
 10
1823.66886816921
 20
719.860396096366
 30
0.0
 40
5.0
  1
　　  〃　 　300
100
AcDbText
  0
TEXT
  5
6FDF
330
1E
100
AcDbEntity
  8
図枠
 62
     7
100
AcDbText
 10
1823.66886816921
 20
710.8603960963659
 30
0.0
 40
5.0
  1
　　  〃　 　325
100
AcDbText
  0
TEXT
  5
6FE0
330
1E
100
AcDbEntity
  8
図枠
 62
     7
100
AcDbText
 10
1898.91886816921
 20
719.860396096366
 30
0.0
 40
5.0
  1
300
100
AcDbText
  0
TEXT
  5
6FE1
330
1E
100
AcDbEntity
  8
図枠
 62
     7
100
AcDbText
 10
1928.91886816921
 20
719.860396096366
 30
0.0
 40
5.0
  1
285
100
AcDbText
  0
TEXT
  5
6FE2
330
1E
100
AcDbEntity
  8
図枠
 62
     7
100
AcDbText
 10
1898.91886816921
 20
710.8603960963659
 30
0.0
 40
5.0
  1
325
100
AcDbText
  0
TEXT
  5
6FE3
330
1E
100
AcDbEntity
  8
図枠
 62
     7
100
AcDbText
 10
1898.91886816921
 20
701.860396096366
 30
0.0
 40
5.0
  1
350
100
AcDbText
  0
TEXT
  5
6FE4
330
1E
100
AcDbEntity
  8
図枠
 62
     7
100
AcDbText
 10
1898.91886816921
 20
692.860396096366
 30
0.0
 40
5.0
  1
375
100
AcDbText
  0
TEXT
  5
6FE5
330
1E
100
AcDbEntity
  8
図枠
 62
     7
100
AcDbText
 10
1898.91886816921
 20
683.8603960963659
 30
0.0
 40
5.0
  1
400
100
AcDbText
  0
TEXT
  5
6FE6
330
1E
100
AcDbEntity
  8
図枠
 62
     7
100
AcDbText
 10
1898.91886816921
 20
674.8603960963659
 30
0.0
 40
5.0
  1
425
100
AcDbText
  0
TEXT
  5
6FE7
330
1E
100
AcDbEntity
  8
図枠
 62
     7
100
AcDbText
 10
1898.91886816921
 20
665.860396096366
 30
0.0
 40
5.0
  1
450
100
AcDbText
  0
TEXT
  5
6FE8
330
1E
100
AcDbEntity
  8
図枠
 62
     7
100
AcDbText
 10
1898.91886816921
 20
656.860396096366
 30
0.0
 40
5.0
  1
475
100
AcDbText
  0
TEXT
  5
6FE9
330
1E
100
AcDbEntity
  8
図枠
 62
     7
100
AcDbText
 10
1898.91886816921
 20
647.860396096366
 30
0.0
 40
5.0
  1
500
100
AcDbText
  0
TEXT
  5
6FEA
330
1E
100
AcDbEntity
  8
図枠
 62
     7
100
AcDbText
 10
1928.91886816921
 20
710.8603960963659
 30
0.0
 40
5.0
  1
310
100
AcDbText
  0
TEXT
  5
6FEB
330
1E
100
AcDbEntity
  8
図枠
 62
     7
100
AcDbText
 10
1928.91886816921
 20
701.860396096366
 30
0.0
 40
5.0
  1
335
100
AcDbText
  0
TEXT
  5
6FEC
330
1E
100
AcDbEntity
  8
図枠
 62
     7
100
AcDbText
 10
1928.91886816921
 20
692.860396096366
 30
0.0
 40
5.0
  1
360
100
AcDbText
  0
TEXT
  5
6FED
330
1E
100
AcDbEntity
  8
図枠
 62
     7
100
AcDbText
 10
1928.91886816921
 20
683.8603960963659
 30
0.0
 40
5.0
  1
385
100
AcDbText
  0
TEXT
  5
6FEE
330
1E
100
AcDbEntity
  8
図枠
 62
     7
100
AcDbText
 10
1928.91886816921
 20
674.8603960963659
 30
0.0
 40
5.0
  1
410
100
AcDbText
  0
TEXT
  5
6FEF
330
1E
100
AcDbEntity
  8
図枠
 62
     7
100
AcDbText
 10
1928.91886816921
 20
665.860396096366
 30
0.0
 40
5.0
  1
435
100
AcDbText
  0
TEXT
  5
6FF0
330
1E
100
AcDbEntity
  8
図枠
 62
     7
100
AcDbText
 10
1928.91886816921
 20
656.860396096366
 30
0.0
 40
5.0
  1
460
100
AcDbText
  0
TEXT
  5
6FF1
330
1E
100
AcDbEntity
  8
図枠
 62
     7
100
AcDbText
 10
1928.91886816921
 20
647.860396096366
 30
0.0
 40
5.0
  1
485
100
AcDbText
  0
TEXT
  5
6FF2
330
1E
100
AcDbEntity
  8
図枠
 62
     7
100
AcDbText
 10
2018.918868169211
 20
647.860396096366
 30
0.0
 40
5.0
  1
127
100
AcDbText
  0
TEXT
  5
6FF3
330
1E
100
AcDbEntity
  8
図枠
 62
     7
100
AcDbText
 10
2018.918868169211
 20
656.860396096366
 30
0.0
 40
5.0
  1
126
100
AcDbText
  0
TEXT
  5
6FF4
330
1E
100
AcDbEntity
  8
図枠
 62
     7
100
AcDbText
 10
2018.918868169211
 20
674.8603960963659
 30
0.0
 40
5.0
  1
123
100
AcDbText
  0
TEXT
  5
6FF5
330
1E
100
AcDbEntity
  8
図枠
 62
     7
100
AcDbText
 10
2018.918868169211
 20
683.8603960963659
 30
0.0
 40
5.0
  1
122
100
AcDbText
  0
TEXT
  5
6FF6
330
1E
100
AcDbEntity
  8
図枠
 62
     7
100
AcDbText
 10
2018.918868169211
 20
692.860396096366
 30
0.0
 40
5.0
  1
121
100
AcDbText
  0
TEXT
  5
6FF7
330
1E
100
AcDbEntity
  8
図枠
 62
     7
100
AcDbText
 10
2018.918868169211
 20
701.860396096366
 30
0.0
 40
5.0
  1
119
100
AcDbText
  0
TEXT
  5
6FF8
330
1E
100
AcDbEntity
  8
図枠
 62
     7
100
AcDbText
 10
2018.918868169211
 20
710.8603960963659
 30
0.0
 40
5.0
  1
118
100
AcDbText
  0
TEXT
  5
6FF9
330
1E
100
AcDbEntity
  8
図枠
 62
     7
100
AcDbText
 10
2018.918868169211
 20
719.860396096366
 30
0.0
 40
5.0
  1
117
100
AcDbText
  0
TEXT
  5
6FFA
330
1E
100
AcDbEntity
  8
図枠
 62
     7
100
AcDbText
 10
1990.668868169211
 20
647.860396096366
 30
0.0
 40
5.0
  1
68
100
AcDbText
  0
TEXT
  5
6FFB
330
1E
100
AcDbEntity
  8
図枠
 62
     7
100
AcDbText
 10
1990.668868169211
 20
656.860396096366
 30
0.0
 40
5.0
  1
67
100
AcDbText
  0
TEXT
  5
6FFC
330
1E
100
AcDbEntity
  8
図枠
 62
     7
100
AcDbText
 10
1990.668868169211
 20
665.860396096366
 30
0.0
 40
5.0
  1
66
100
AcDbText
  0
TEXT
  5
6FFD
330
1E
100
AcDbEntity
  8
図枠
 62
     7
100
AcDbText
 10
1990.668868169211
 20
674.8603960963659
 30
0.0
 40
5.0
  1
64
100
AcDbText
  0
TEXT
  5
6FFE
330
1E
100
AcDbEntity
  8
図枠
 62
     7
100
AcDbText
 10
1990.668868169211
 20
683.8603960963659
 30
0.0
 40
5.0
  1
63
100
AcDbText
  0
TEXT
  5
6FFF
330
1E
100
AcDbEntity
  8
図枠
 62
     7
100
AcDbText
 10
1990.668868169211
 20
692.860396096366
 30
0.0
 40
5.0
  1
62
100
AcDbText
  0
TEXT
  5
7000
330
1E
100
AcDbEntity
  8
図枠
 62
     7
100
AcDbText
 10
1990.668868169211
 20
701.860396096366
 30
0.0
 40
5.0
  1
61
100
AcDbText
  0
TEXT
  5
7001
330
1E
100
AcDbEntity
  8
図枠
 62
     7
100
AcDbText
 10
1990.668868169211
 20
710.8603960963659
 30
0.0
 40
5.0
  1
59
100
AcDbText
  0
TEXT
  5
7002
330
1E
100
AcDbEntity
  8
図枠
 62
     7
100
AcDbText
 10
1990.668868169211
 20
719.860396096366
 30
0.0
 40
5.0
  1
58
100
AcDbText
  0
TEXT
  5
7003
330
1E
100
AcDbEntity
  8
図枠
 62
     7
100
AcDbText
 10
1898.91886816921
 20
728.8603960963659
 30
0.0
 40
5.0
  1
275
100
AcDbText
  0
TEXT
  5
7004
330
1E
100
AcDbEntity
  8
図枠
 62
     7
100
AcDbText
 10
1928.91886816921
 20
728.8603960963659
 30
0.0
 40
5.0
  1
260
100
AcDbText
  0
TEXT
  5
7005
330
1E
100
AcDbEntity
  8
図枠
 62
     7
100
AcDbText
 10
2018.918868169211
 20
728.8603960963659
 30
0.0
 40
5.0
  1
115
100
AcDbText
  0
TEXT
  5
7006
330
1E
100
AcDbEntity
  8
図枠
 62
     7
100
AcDbText
 10
1990.668868169211
 20
728.8603960963659
 30
0.0
 40
5.0
  1
57
100
AcDbText
  0
TEXT
  5
7007
330
1E
100
AcDbEntity
  8
図枠
 62
     7
100
AcDbText
 10
1823.66886816921
 20
728.8603960963659
 30
0.0
 40
5.0
  1
100ＦＹＫ－Ｓ275
100
AcDbText
  0
LINE
  5
7008
330
1E
100
AcDbEntity
  8
躯体と製品
  6
Continuous
 62
     3
100
AcDbLine
 10
1658.91886816921
 20
953.2626294159038
 30
0.0
 11
1651.11886816921
 21
953.2626294159038
 31
0.0
  0
LINE
  5
7009
330
1E
100
AcDbEntity
  8
躯体と製品
  6
Continuous
 62
     3
100
AcDbLine
 10
1661.11886816921
 20
955.4626294159039
 30
0.0
 11
1661.11886816921
 21
987.0626294159038
 31
0.0
  0
LINE
  5
700A
330
1E
100
AcDbEntity
  8
躯体と製品
  6
Continuous
 62
     3
100
AcDbLine
 10
1658.91886816921
 20
989.2626294159038
 30
0.0
 11
1642.11886816921
 21
989.2626294159038
 31
0.0
  0
POINT
  5
700B
330
1E
100
AcDbEntity
  8
躯体と製品
 62
     4
100
AcDbPoint
 10
1661.11886816921
 20
953.2626294159038
 30
0.0
  0
LINE
  5
700C
330
1E
100
AcDbEntity
  8
躯体と製品
  6
Continuous
 62
     7
100
AcDbLine
 10
1639.41886916921
 20
988.3626314159036
 30
0.0
 11
1639.41886916921
 21
991.8626294159034
 31
0.0
  0
ARC
  5
700D
330
1E
100
AcDbEntity
  8
躯体と製品
  6
Continuous
 62
     7
100
AcDbCircle
 10
1639.91887016921
 20
988.3626314159036
 30
0.0
 40
0.5000010000000002
100
AcDbArc
 50
180.0
 51
270.0
  0
ARC
  5
700E
330
1E
100
AcDbEntity
  8
躯体と製品
  6
Continuous
 62
     7
100
AcDbCircle
 10
1639.91887016921
 20
988.3626314159036
 30
0.0
 40
1.299998999999999
100
AcDbArc
 50
180.0
 51
270.0
  0
LINE
  5
700F
330
1E
100
AcDbEntity
  8
躯体と製品
  6
Continuous
 62
     7
100
AcDbLine
 10
1638.61886816921
 20
991.8626294159034
 30
0.0
 11
1639.41886916921
 21
991.8626294159034
 31
0.0
  0
LINE
  5
7010
330
1E
100
AcDbEntity
  8
躯体と製品
  6
Continuous
 62
     7
100
AcDbLine
 10
1658.31886916921
 20
987.8626304159034
 30
0.0
 11
1639.91887016921
 21
987.8626304159034
 31
0.0
  0
ARC
  5
7011
330
1E
100
AcDbEntity
  8
躯体と製品
  6
Continuous
 62
     7
100
AcDbCircle
 10
1658.31886916921
 20
986.5626314159037
 30
0.0
 40
1.299998999999999
100
AcDbArc
 50
0.0
 51
90.0
  0
ARC
  5
7012
330
1E
100
AcDbEntity
  8
躯体と製品
  6
Continuous
 62
     7
100
AcDbCircle
 10
1658.31886916921
 20
986.5626314159037
 30
0.0
 40
0.5000010000000002
100
AcDbArc
 50
0.0
 51
90.0
  0
LINE
  5
7013
330
1E
100
AcDbEntity
  8
躯体と製品
  6
Continuous
 62
     7
100
AcDbLine
 10
1658.81887016921
 20
986.5626314159037
 30
0.0
 11
1658.81887016921
 21
957.8626304159035
 31
0.0
  0
LINE
  5
7014
330
1E
100
AcDbEntity
  8
躯体と製品
  6
Continuous
 62
     7
100
AcDbLine
 10
1659.61886816921
 20
986.5626314159037
 30
0.0
 11
1659.61886816921
 21
957.8626304159035
 31
0.0
  0
LINE
  5
7015
330
1E
100
AcDbEntity
  8
躯体と製品
  6
Continuous
 62
     7
100
AcDbLine
 10
1658.81887016921
 20
957.8626304159035
 30
0.0
 11
1659.61886816921
 21
957.8626304159035
 31
0.0
  0
LINE
  5
7016
330
1E
100
AcDbEntity
  8
躯体と製品
  6
Continuous
 62
     7
100
AcDbLine
 10
1658.31886916921
 20
987.0626294159036
 30
0.0
 11
1639.91887016921
 21
987.0626294159036
 31
0.0
  0
LINE
  5
7017
330
1E
100
AcDbEntity
  8
躯体と製品
  6
Continuous
 62
     7
100
AcDbLine
 10
1638.61886816921
 20
991.8626294159034
 30
0.0
 11
1638.61887116921
 21
988.3626314159036
 31
0.0
  0
LINE
  5
7018
330
1E
100
AcDbEntity
  8
躯体と製品
  6
Continuous
 62
     4
100
AcDbLine
 10
1658.81887016921
 20
958.1121735779177
 30
0.0
 11
1659.618868169211
 21
958.9121715779183
 31
0.0
  0
LINE
  5
7019
330
1E
100
AcDbEntity
  8
躯体と製品
  6
Continuous
 62
     4
100
AcDbLine
 10
1658.81887016921
 20
959.5263871402908
 30
0.0
 11
1659.61886816921
 21
960.3263851402914
 31
0.0
  0
LINE
  5
701A
330
1E
100
AcDbEntity
  8
躯体と製品
  6
Continuous
 62
     4
100
AcDbLine
 10
1658.818870169211
 20
960.9406007026652
 30
0.0
 11
1659.618868169211
 21
961.7405987026648
 31
0.0
  0
LINE
  5
701B
330
1E
100
AcDbEntity
  8
躯体と製品
  6
Continuous
 62
     4
100
AcDbLine
 10
1658.818870169211
 20
962.3548142650385
 30
0.0
 11
1659.61886816921
 21
963.1548122650382
 31
0.0
  0
LINE
  5
701C
330
1E
100
AcDbEntity
  8
躯体と製品
  6
Continuous
 62
     4
100
AcDbLine
 10
1658.818870169211
 20
963.7690278274117
 30
0.0
 11
1659.61886816921
 21
964.5690258274113
 31
0.0
  0
LINE
  5
701D
330
1E
100
AcDbEntity
  8
躯体と製品
  6
Continuous
 62
     4
100
AcDbLine
 10
1658.818870169211
 20
965.1832413897848
 30
0.0
 11
1659.61886816921
 21
965.9832393897845
 31
0.0
  0
LINE
  5
701E
330
1E
100
AcDbEntity
  8
躯体と製品
  6
Continuous
 62
     4
100
AcDbLine
 10
1658.81887016921
 20
966.597454952158
 30
0.0
 11
1659.61886816921
 21
967.3974529521579
 31
0.0
  0
LINE
  5
701F
330
1E
100
AcDbEntity
  8
躯体と製品
  6
Continuous
 62
     4
100
AcDbLine
 10
1658.81887016921
 20
968.0116685145314
 30
0.0
 11
1659.61886816921
 21
968.811666514531
 31
0.0
  0
LINE
  5
7020
330
1E
100
AcDbEntity
  8
躯体と製品
  6
Continuous
 62
     4
100
AcDbLine
 10
1658.81887016921
 20
969.4258820769046
 30
0.0
 11
1659.61886816921
 21
970.2258800769042
 31
0.0
  0
LINE
  5
7021
330
1E
100
AcDbEntity
  8
躯体と製品
  6
Continuous
 62
     4
100
AcDbLine
 10
1658.81887016921
 20
970.8400956392779
 30
0.0
 11
1659.61886816921
 21
971.6400936392776
 31
0.0
  0
LINE
  5
7022
330
1E
100
AcDbEntity
  8
躯体と製品
  6
Continuous
 62
     4
100
AcDbLine
 10
1658.81887016921
 20
972.2543092016509
 30
0.0
 11
1659.618868169211
 21
973.0543072016519
 31
0.0
  0
LINE
  5
7023
330
1E
100
AcDbEntity
  8
躯体と製品
  6
Continuous
 62
     4
100
AcDbLine
 10
1658.81887016921
 20
973.6685227640244
 30
0.0
 11
1659.618868169211
 21
974.468520764025
 31
0.0
  0
LINE
  5
7024
330
1E
100
AcDbEntity
  8
躯体と製品
  6
Continuous
 62
     4
100
AcDbLine
 10
1658.81887016921
 20
975.0827363263974
 30
0.0
 11
1659.618868169211
 21
975.8827343263982
 31
0.0
  0
LINE
  5
7025
330
1E
100
AcDbEntity
  8
躯体と製品
  6
Continuous
 62
     4
100
AcDbLine
 10
1658.81887016921
 20
976.4969498887708
 30
0.0
 11
1659.61886816921
 21
977.2969478887716
 31
0.0
  0
LINE
  5
7026
330
1E
100
AcDbEntity
  8
躯体と製品
  6
Continuous
 62
     4
100
AcDbLine
 10
1658.81887016921
 20
977.9111634511441
 30
0.0
 11
1659.61886816921
 21
978.7111614511449
 31
0.0
  0
LINE
  5
7027
330
1E
100
AcDbEntity
  8
躯体と製品
  6
Continuous
 62
     4
100
AcDbLine
 10
1658.818870169209
 20
979.3253770135134
 30
0.0
 11
1659.61886816921
 21
980.125375013514
 31
0.0
  0
LINE
  5
7028
330
1E
100
AcDbEntity
  8
躯体と製品
  6
Continuous
 62
     4
100
AcDbLine
 10
1658.818870169209
 20
980.7395905758866
 30
0.0
 11
1659.61886816921
 21
981.5395885758876
 31
0.0
  0
LINE
  5
7029
330
1E
100
AcDbEntity
  8
躯体と製品
  6
Continuous
 62
     4
100
AcDbLine
 10
1658.818870169211
 20
982.1538041382618
 30
0.0
 11
1659.618868169211
 21
982.9538021382616
 31
0.0
  0
LINE
  5
702A
330
1E
100
AcDbEntity
  8
躯体と製品
  6
Continuous
 62
     4
100
AcDbLine
 10
1658.818870169211
 20
983.5680177006352
 30
0.0
 11
1659.618868169211
 21
984.368015700635
 31
0.0
  0
LINE
  5
702B
330
1E
100
AcDbEntity
  8
躯体と製品
  6
Continuous
 62
     4
100
AcDbLine
 10
1658.818870169211
 20
984.9822312630085
 30
0.0
 11
1659.618868169211
 21
985.7822292630082
 31
0.0
  0
LINE
  5
702C
330
1E
100
AcDbEntity
  8
躯体と製品
  6
Continuous
 62
     4
100
AcDbLine
 10
1658.818870169211
 20
986.3964448253817
 30
0.0
 11
1659.508728523745
 21
987.0863031799157
 31
0.0
  0
LINE
  5
702D
330
1E
100
AcDbEntity
  8
躯体と製品
  6
Continuous
 62
     4
100
AcDbLine
 10
1658.07084119736
 20
987.0626294159041
 30
0.0
 11
1658.784566244173
 21
987.7763544627171
 31
0.0
  0
LINE
  5
702E
330
1E
100
AcDbEntity
  8
躯体と製品
  6
Continuous
 62
     4
100
AcDbLine
 10
1656.656627634986
 20
987.0626294159034
 30
0.0
 11
1657.456628634985
 21
987.862630415903
 31
0.0
  0
LINE
  5
702F
330
1E
100
AcDbEntity
  8
躯体と製品
  6
Continuous
 62
     4
100
AcDbLine
 10
1655.242414072613
 20
987.0626294159036
 30
0.0
 11
1656.042415072613
 21
987.862630415903
 31
0.0
  0
LINE
  5
7030
330
1E
100
AcDbEntity
  8
躯体と製品
  6
Continuous
 62
     4
100
AcDbLine
 10
1653.82820051024
 20
987.0626294159038
 30
0.0
 11
1654.628201510239
 21
987.8626304159034
 31
0.0
  0
LINE
  5
7031
330
1E
100
AcDbEntity
  8
躯体と製品
  6
Continuous
 62
     4
100
AcDbLine
 10
1652.413986947866
 20
987.0626294159041
 30
0.0
 11
1653.213987947866
 21
987.8626304159038
 31
0.0
  0
LINE
  5
7032
330
1E
100
AcDbEntity
  8
躯体と製品
  6
Continuous
 62
     4
100
AcDbLine
 10
1650.999773385492
 20
987.0626294159032
 30
0.0
 11
1651.799774385493
 21
987.8626304159038
 31
0.0
  0
LINE
  5
7033
330
1E
100
AcDbEntity
  8
躯体と製品
  6
Continuous
 62
     4
100
AcDbLine
 10
1649.585559823119
 20
987.0626294159034
 30
0.0
 11
1650.38556082312
 21
987.8626304159039
 31
0.0
  0
LINE
  5
7034
330
1E
100
AcDbEntity
  8
躯体と製品
  6
Continuous
 62
     4
100
AcDbLine
 10
1648.171346260746
 20
987.0626294159031
 30
0.0
 11
1648.971347260746
 21
987.8626304159038
 31
0.0
  0
LINE
  5
7035
330
1E
100
AcDbEntity
  8
躯体と製品
  6
Continuous
 62
     4
100
AcDbLine
 10
1646.757132698373
 20
987.0626294159032
 30
0.0
 11
1647.557133698372
 21
987.8626304159027
 31
0.0
  0
LINE
  5
7036
330
1E
100
AcDbEntity
  8
躯体と製品
  6
Continuous
 62
     4
100
AcDbLine
 10
1645.342919135999
 20
987.0626294159034
 30
0.0
 11
1646.142920135999
 21
987.8626304159029
 31
0.0
  0
LINE
  5
7037
330
1E
100
AcDbEntity
  8
躯体と製品
  6
Continuous
 62
     4
100
AcDbLine
 10
1643.928705573626
 20
987.0626294159034
 30
0.0
 11
1644.728706573626
 21
987.862630415903
 31
0.0
  0
LINE
  5
7038
330
1E
100
AcDbEntity
  8
躯体と製品
  6
Continuous
 62
     4
100
AcDbLine
 10
1642.514492011257
 20
987.0626294159038
 30
0.0
 11
1643.314493011257
 21
987.8626304159034
 31
0.0
  0
LINE
  5
7039
330
1E
100
AcDbEntity
  8
躯体と製品
  6
Continuous
 62
     4
100
AcDbLine
 10
1641.100278448883
 20
987.0626294159041
 30
0.0
 11
1641.900279448883
 21
987.8626304159036
 31
0.0
  0
LINE
  5
703A
330
1E
100
AcDbEntity
  8
躯体と製品
  6
Continuous
 62
     4
100
AcDbLine
 10
1639.703955674494
 20
987.0805202038875
 30
0.0
 11
1640.48606588651
 21
987.8626304159038
 31
0.0
  0
LINE
  5
703B
330
1E
100
AcDbEntity
  8
躯体と製品
  6
Continuous
 62
     4
100
AcDbLine
 10
1638.842647214103
 20
987.6334253058693
 30
0.0
 11
1639.437310894846
 21
988.2280889866136
 31
0.0
  0
LINE
  5
703C
330
1E
100
AcDbEntity
  8
躯体と製品
  6
Continuous
 62
     4
100
AcDbLine
 10
1638.618870773869
 20
988.8238624280095
 30
0.0
 11
1639.41886916921
 21
989.6238608233504
 31
0.0
  0
LINE
  5
703D
330
1E
100
AcDbEntity
  8
躯体と製品
  6
Continuous
 62
     4
100
AcDbLine
 10
1638.618869561687
 20
990.2380747782006
 30
0.0
 11
1639.41886916921
 21
991.038074385724
 31
0.0
  0
LINE
  5
703E
330
1E
100
AcDbEntity
  8
躯体と製品
  6
Continuous
 62
     4
100
AcDbLine
 10
1638.618868349504
 20
991.6522871283914
 30
0.0
 11
1638.829210637016
 21
991.8626294159032
 31
0.0
  0
LINE
  5
703F
330
1E
100
AcDbEntity
  8
躯体と製品
  6
Continuous
 62
     7
100
AcDbLine
 10
1631.41886816921
 20
994.5626294159037
 30
0.0
 11
1631.91886816921
 21
994.0626294159038
 31
0.0
  0
LINE
  5
7040
330
1E
100
AcDbEntity
  8
躯体と製品
  6
Continuous
 62
     7
100
AcDbLine
 10
1631.41886816921
 20
997.5626294159038
 30
0.0
 11
1631.91886816921
 21
998.0626294159037
 31
0.0
  0
LINE
  5
7041
330
1E
100
AcDbEntity
  8
躯体と製品
  6
Continuous
 62
     7
100
AcDbLine
 10
1631.41886816921
 20
997.5626294159038
 30
0.0
 11
1631.41886816921
 21
994.5626294159037
 31
0.0
  0
LINE
  5
7042
330
1E
100
AcDbEntity
  8
躯体と製品
  6
Continuous
 62
     4
100
AcDbLine
 10
1631.91886816921
 20
998.0626294159037
 30
0.0
 11
1631.91886816921
 21
994.0626294159038
 31
0.0
  0
LINE
  5
7043
330
1E
100
AcDbEntity
  8
躯体と製品
  6
Continuous
 62
     7
100
AcDbLine
 10
1639.91886816921
 20
998.0626294159037
 30
0.0
 11
1636.91886816921
 21
998.0626294159037
 31
0.0
  0
LINE
  5
7044
330
1E
100
AcDbEntity
  8
躯体と製品
  6
Continuous
 62
     4
100
AcDbLine
 10
1639.91886816921
 20
997.5626294159038
 30
0.0
 11
1631.41886816921
 21
997.5626294159038
 31
0.0
  0
LINE
  5
7045
330
1E
100
AcDbEntity
  8
躯体と製品
  6
Continuous
 62
     4
100
AcDbLine
 10
1639.91886816921
 20
994.5626294159037
 30
0.0
 11
1631.41886816921
 21
994.5626294159037
 31
0.0
  0
LINE
  5
7046
330
1E
100
AcDbEntity
  8
躯体と製品
  6
Continuous
 62
     7
100
AcDbLine
 10
1639.91886816921
 20
994.0626294159038
 30
0.0
 11
1636.91886816921
 21
994.0626294159038
 31
0.0
  0
LINE
  5
7047
330
1E
100
AcDbEntity
  8
躯体と製品
  6
Continuous
 62
     3
100
AcDbLine
 10
1631.11886816921
 20
1001.250285415903
 30
0.0
 11
1631.13121216921
 21
1001.262629415903
 31
0.0
  0
ARC
  5
7048
330
1E
100
AcDbEntity
  8
躯体と製品
  6
Continuous
 62
     3
100
AcDbCircle
 10
1638.91886816921
 20
999.0626294159037
 30
0.0
 40
1.0
100
AcDbArc
 50
0.0
 51
90.0
  0
LINE
  5
7049
330
1E
100
AcDbEntity
  8
躯体と製品
  6
Continuous
 62
     3
100
AcDbLine
 10
1638.91886816921
 20
1001.262629415903
 30
0.0
 11
1631.11886816921
 21
1001.262629415903
 31
0.0
  0
ARC
  5
704A
330
1E
100
AcDbEntity
  8
躯体と製品
  6
Continuous
 62
     3
100
AcDbCircle
 10
1638.91886816921
 20
999.0626294159037
 30
0.0
 40
2.2
100
AcDbArc
 50
0.0
 51
90.0
  0
LINE
  5
704B
330
1E
100
AcDbEntity
  8
躯体と製品
  6
Continuous
 62
     3
100
AcDbLine
 10
1639.91886816921
 20
990.2626294159038
 30
0.0
 11
1639.91886816921
 21
999.0626294159037
 31
0.0
  0
ARC
  5
704C
330
1E
100
AcDbEntity
  8
躯体と製品
  6
Continuous
 62
     3
100
AcDbCircle
 10
1642.11886816921
 20
990.2626294159038
 30
0.0
 40
1.0
100
AcDbArc
 50
180.0
 51
270.0
  0
ARC
  5
704D
330
1E
100
AcDbEntity
  8
躯体と製品
  6
Continuous
 62
     3
100
AcDbCircle
 10
1658.91886816921
 20
987.0626294159038
 30
0.0
 40
1.0
100
AcDbArc
 50
0.0
 51
90.0
  0
ARC
  5
704E
330
1E
100
AcDbEntity
  8
躯体と製品
  6
Continuous
 62
     3
100
AcDbCircle
 10
1642.11886816921
 20
990.2626294159038
 30
0.0
 40
2.2
100
AcDbArc
 50
180.0
 51
270.0
  0
ARC
  5
704F
330
1E
100
AcDbEntity
  8
躯体と製品
  6
Continuous
 62
     3
100
AcDbCircle
 10
1658.91886816921
 20
987.0626294159038
 30
0.0
 40
2.2
100
AcDbArc
 50
0.0
 51
90.0
  0
LINE
  5
7050
330
1E
100
AcDbEntity
  8
躯体と製品
  6
Continuous
 62
     3
100
AcDbLine
 10
1631.11886816921
 20
1000.062629415904
 30
0.0
 11
1638.91886816921
 21
1000.062629415904
 31
0.0
  0
LINE
  5
7051
330
1E
100
AcDbEntity
  8
躯体と製品
  6
Continuous
 62
     3
100
AcDbLine
 10
1631.11886816921
 20
1001.262629415903
 30
0.0
 11
1631.11886816921
 21
1000.062629415904
 31
0.0
  0
LINE
  5
7052
330
1E
100
AcDbEntity
  8
躯体と製品
  6
Continuous
 62
     3
100
AcDbLine
 10
1642.11886816921
 20
988.0626294159037
 30
0.0
 11
1658.91886816921
 21
988.0626294159037
 31
0.0
  0
LINE
  5
7053
330
1E
100
AcDbEntity
  8
躯体と製品
  6
Continuous
 62
     3
100
AcDbLine
 10
1651.11886816921
 20
954.4626294159039
 30
0.0
 11
1651.11886816921
 21
953.2626294159038
 31
0.0
  0
ARC
  5
7054
330
1E
100
AcDbEntity
  8
躯体と製品
  6
Continuous
 62
     3
100
AcDbCircle
 10
1658.91886816921
 20
955.4626294159039
 30
0.0
 40
2.2
100
AcDbArc
 50
270.0
 51
0.0
  0
LINE
  5
7055
330
1E
100
AcDbEntity
  8
躯体と製品
  6
Continuous
 62
     3
100
AcDbLine
 10
1658.91886816921
 20
954.4626294159039
 30
0.0
 11
1651.11886816921
 21
954.4626294159039
 31
0.0
  0
ARC
  5
7056
330
1E
100
AcDbEntity
  8
躯体と製品
  6
Continuous
 62
     3
100
AcDbCircle
 10
1658.91886816921
 20
955.4626294159039
 30
0.0
 40
1.0
100
AcDbArc
 50
270.0
 51
0.0
  0
LINE
  5
7057
330
1E
100
AcDbEntity
  8
躯体と製品
  6
Continuous
 62
     3
100
AcDbLine
 10
1659.91886816921
 20
955.4626294159039
 30
0.0
 11
1659.91886816921
 21
987.0626294159038
 31
0.0
  0
LINE
  5
7058
330
1E
100
AcDbEntity
  8
躯体と製品
  6
DASHED1
 62
     4
100
AcDbLine
 10
1639.91886816921
 20
998.0626294159037
 30
0.0
 11
1641.11886816921
 21
998.0626294159037
 31
0.0
  0
LINE
  5
7059
330
1E
100
AcDbEntity
  8
躯体と製品
  6
DASHED1
 62
     4
100
AcDbLine
 10
1639.91886816921
 20
994.0626294159038
 30
0.0
 11
1641.11886816921
 21
994.0626294159038
 31
0.0
  0
POINT
  5
705A
330
1E
100
AcDbEntity
  8
躯体と製品
 62
     4
100
AcDbPoint
 10
1661.11886816921
 20
989.2626294159038
 30
0.0
  0
LINE
  5
705B
330
1E
100
AcDbEntity
  8
躯体と製品
  6
Continuous
 62
     7
100
AcDbLine
 10
1651.11886816921
 20
952.2626294159037
 30
0.0
 11
1660.11886816921
 21
952.2626294159037
 31
0.0
  0
ARC
  5
705C
330
1E
100
AcDbEntity
  8
躯体と製品
  6
Continuous
 62
     7
100
AcDbCircle
 10
1659.61886816921
 20
952.7626294159038
 30
0.0
 40
0.5
100
AcDbArc
 50
0.0
 51
90.0
  0
LINE
  5
705D
330
1E
100
AcDbEntity
  8
躯体と製品
  6
Continuous
 62
     7
100
AcDbLine
 10
1660.11886816921
 20
952.7626294159038
 30
0.0
 11
1660.11886816921
 21
952.2626294159037
 31
0.0
  0
LINE
  5
705E
330
1E
100
AcDbEntity
  8
躯体と製品
  6
Continuous
 62
     7
100
AcDbLine
 10
1651.41886816921
 20
953.2626294159038
 30
0.0
 11
1659.61886816921
 21
953.2626294159038
 31
0.0
  0
ARC
  5
705F
330
1E
100
AcDbEntity
  8
躯体と製品
  6
Continuous
 62
     7
100
AcDbCircle
 10
1651.11886816921
 20
953.2626294159038
 30
0.0
 40
1.0
100
AcDbArc
 50
180.0
 51
270.0
  0
ARC
  5
7060
330
1E
100
AcDbEntity
  8
躯体と製品
  6
Continuous
 62
     7
100
AcDbCircle
 10
1656.724142088601
 20
956.0022948859742
 30
0.0
 40
0.5
100
AcDbArc
 50
265.252681745971
 51
355.2526817422779
  0
ARC
  5
7061
330
1E
100
AcDbEntity
  8
躯体と製品
  6
Continuous
 62
     7
100
AcDbCircle
 10
1657.762092247277
 20
956.4178180117341
 30
0.0
 40
0.4999999999354556
100
AcDbArc
 50
355.2526817459715
 51
175.2526817459715
  0
LINE
  5
7062
330
1E
100
AcDbEntity
  8
躯体と製品
  6
Continuous
 62
     7
100
AcDbLine
 10
1658.177615373028
 20
955.3798678529622
 30
0.0
 11
1658.260376935976
 21
956.3764372302903
 31
0.0
  0
ARC
  5
7063
330
1E
100
AcDbEntity
  8
躯体と製品
  6
Continuous
 62
     7
100
AcDbCircle
 10
1657.181045995765
 20
955.4626294159039
 30
0.0
 40
1.0
100
AcDbArc
 50
265.252681745971
 51
355.2526817422779
  0
LINE
  5
7064
330
1E
100
AcDbEntity
  8
躯体と製品
  6
Continuous
 62
     7
100
AcDbLine
 10
1657.222426777233
 20
955.9609141045035
 30
0.0
 11
1657.263807558707
 21
956.4591987931674
 31
0.0
  0
LINE
  5
7065
330
1E
100
AcDbEntity
  8
躯体と製品
  6
Continuous
 62
     7
100
AcDbLine
 10
1650.11886816921
 20
954.9626294159038
 30
0.0
 11
1650.11886816921
 21
953.2626294159038
 31
0.0
  0
LINE
  5
7066
330
1E
100
AcDbEntity
  8
躯体と製品
  6
Continuous
 62
     7
100
AcDbLine
 10
1651.201629732087
 20
955.9591987931728
 30
0.0
 11
1656.682761307163
 21
955.5040101973398
 31
0.0
  0
ARC
  5
7067
330
1E
100
AcDbEntity
  8
躯体と製品
  6
Continuous
 62
     7
100
AcDbCircle
 10
1651.11886816921
 20
954.9626294159038
 30
0.0
 40
1.0
100
AcDbArc
 50
85.25268174597099
 51
180.0
  0
LINE
  5
7068
330
1E
100
AcDbEntity
  8
躯体と製品
  6
Continuous
 62
     7
100
AcDbLine
 10
1651.11886816921
 20
954.6366827469892
 30
0.0
 11
1651.11886816921
 21
953.5626294159037
 31
0.0
  0
LINE
  5
7069
330
1E
100
AcDbEntity
  8
躯体と製品
  6
Continuous
 62
     7
100
AcDbLine
 10
1651.443696638073
 20
954.9356535601699
 30
0.0
 11
1657.098284432888
 21
954.466060038635
 31
0.0
  0
ARC
  5
706A
330
1E
100
AcDbEntity
  8
躯体と製品
  6
Continuous
 62
     7
100
AcDbCircle
 10
1651.41886816921
 20
954.6366827469892
 30
0.0
 40
0.2999999999999999
100
AcDbArc
 50
85.25268174597099
 51
180.0
  0
ARC
  5
706B
330
1E
100
AcDbEntity
  8
躯体と製品
  6
Continuous
 62
     7
100
AcDbCircle
 10
1643.184587743864
 20
995.1421506924999
 30
0.0
 40
0.4204787234042585
100
AcDbArc
 50
345.9042107558272
 51
90.0
  0
ARC
  5
706C
330
1E
100
AcDbEntity
  8
躯体と製品
  6
Continuous
 62
     7
100
AcDbCircle
 10
1641.11886816921
 20
997.5412008444752
 30
0.0
 40
2.021428571428586
100
AcDbArc
 50
42.74124453868362
 51
90.0
  0
ARC
  5
706D
330
1E
100
AcDbEntity
  8
躯体と製品
  6
Continuous
 62
     7
100
AcDbCircle
 10
1641.11886816921
 20
994.5840579873326
 30
0.0
 40
2.021428571428568
100
AcDbArc
 50
270.0
 51
317.2587554613163
  0
LINE
  5
706E
330
1E
100
AcDbEntity
  8
躯体と製品
  6
Continuous
 62
     7
100
AcDbLine
 10
1641.11886816921
 20
992.5626294159037
 30
0.0
 11
1641.11886816921
 21
999.5626294159038
 31
0.0
  0
ARC
  5
706F
330
1E
100
AcDbEntity
  8
躯体と製品
  6
Continuous
 62
     7
100
AcDbCircle
 10
1643.184587743864
 20
996.9831081393081
 30
0.0
 40
0.4204787234042585
100
AcDbArc
 50
270.0
 51
14.0957892441728
  0
LINE
  5
7070
330
1E
100
AcDbEntity
  8
躯体と製品
  6
Continuous
 62
     7
100
AcDbLine
 10
1643.184587743864
 20
996.562629415904
 30
0.0
 11
1643.184587743864
 21
995.5626294159037
 31
0.0
  0
ARC
  5
7071
330
1E
100
AcDbEntity
  8
躯体と製品
  6
Continuous
 62
     7
100
AcDbCircle
 10
1639.51886816921
 20
996.0626294159037
 30
0.0
 40
4.2
100
AcDbArc
 50
317.2587554613163
 51
345.9042107558272
  0
ARC
  5
7072
330
1E
100
AcDbEntity
  8
躯体と製品
  6
Continuous
 62
     7
100
AcDbCircle
 10
1639.51886816921
 20
996.0626294159037
 30
0.0
 40
4.2
100
AcDbArc
 50
14.0957892441728
 51
42.74124453868362
  0
LINE
  5
7073
330
1E
100
AcDbEntity
  8
躯体と製品
  6
Continuous
 62
     7
100
AcDbLine
 10
1642.11886816921
 20
989.2626294159038
 30
0.0
 11
1644.11886816921
 21
989.2626294159038
 31
0.0
  0
ARC
  5
7074
330
1E
100
AcDbEntity
  8
躯体と製品
  6
Continuous
 62
     7
100
AcDbCircle
 10
1644.11886816921
 20
990.2626294159038
 30
0.0
 40
1.0
100
AcDbArc
 50
270.0
 51
0.0
  0
ARC
  5
7075
330
1E
100
AcDbEntity
  8
躯体と製品
  6
Continuous
 62
     7
100
AcDbCircle
 10
1642.11886816921
 20
990.2626294159038
 30
0.0
 40
1.0
100
AcDbArc
 50
180.0
 51
270.0
  0
LINE
  5
7076
330
1E
100
AcDbEntity
  8
躯体と製品
  6
Continuous
 62
     3
100
AcDbLine
 10
1641.11886816921
 20
999.0626294159037
 30
0.0
 11
1641.11886816921
 21
990.2626294159038
 31
0.0
  0
LINE
  5
7077
330
1E
100
AcDbEntity
  8
躯体と製品
  6
Continuous
 62
     3
100
AcDbLine
 10
1927.91886816921
 20
931.3990432676222
 30
0.0
 11
1927.91886816921
 21
847.2459369677666
 31
0.0
  0
ARC
  5
7078
330
1E
100
AcDbEntity
  8
躯体と製品
  6
Continuous
 62
     3
100
AcDbCircle
 10
1643.91886816921
 20
950.1311186301483
 30
0.0
 40
1.0
100
AcDbArc
 50
180.0
 51
266.9999999999946
  0
LINE
  5
7079
330
1E
100
AcDbEntity
  8
躯体と製品
  6
Continuous
 62
     3
100
AcDbLine
 10
1642.91886816921
 20
950.1311186301483
 30
0.0
 11
1642.91886816921
 21
961.1821540634336
 31
0.0
  0
POINT
  5
707A
330
1E
100
AcDbEntity
  8
躯体と製品
 62
     4
100
AcDbPoint
 10
1927.91886816921
 20
844.2459369677669
 30
0.0
  0
POINT
  5
707B
330
1E
100
AcDbEntity
  8
躯体と製品
 62
     4
100
AcDbPoint
 10
1927.91886816921
 20
934.2459369677669
 30
0.0
  0
ARC
  5
707C
330
1E
100
AcDbEntity
  8
躯体と製品
  6
Continuous
 62
     3
100
AcDbCircle
 10
1924.91886816921
 20
847.2459369677666
 30
0.0
 40
3.0
100
AcDbArc
 50
270.0
 51
0.0
  0
ARC
  5
707D
330
1E
100
AcDbEntity
  8
躯体と製品
  6
Continuous
 62
     3
100
AcDbCircle
 10
1924.91886816921
 20
931.3990432676222
 30
0.0
 40
3.0
100
AcDbArc
 50
0.0
 51
86.99999999999457
  0
LINE
  5
707E
330
1E
100
AcDbEntity
  8
躯体と製品
  6
Continuous
 62
     3
100
AcDbLine
 10
1924.91886816921
 20
844.2459369677669
 30
0.0
 11
1917.91886816921
 21
844.2459369677669
 31
0.0
  0
LINE
  5
707F
330
1E
100
AcDbEntity
  8
躯体と製品
  6
Continuous
 62
     3
100
AcDbLine
 10
1643.866532212967
 20
949.1324890953938
 30
0.0
 11
1925.075876037939
 21
934.3949318718857
 31
0.0
  0
ARC
  5
7080
330
1E
100
AcDbEntity
  8
躯体と製品
  6
Continuous
 62
     3
100
AcDbCircle
 10
1643.91886816921
 20
950.1311186301485
 30
0.0
 40
2.5
100
AcDbArc
 50
180.0
 51
266.9999999999946
  0
LINE
  5
7081
330
1E
100
AcDbEntity
  8
躯体と製品
  6
Continuous
 62
     3
100
AcDbLine
 10
1643.788028278603
 20
947.6345447932619
 30
0.0
 11
1924.997372103575
 21
932.896987569754
 31
0.0
  0
ARC
  5
7082
330
1E
100
AcDbEntity
  8
躯体と製品
  6
Continuous
 62
     3
100
AcDbCircle
 10
1924.91886816921
 20
931.3990432676222
 30
0.0
 40
1.5
100
AcDbArc
 50
0.0
 51
86.99999999999457
  0
LINE
  5
7083
330
1E
100
AcDbEntity
  8
躯体と製品
  6
Continuous
 62
     3
100
AcDbLine
 10
1926.41886816921
 20
847.2459369677666
 30
0.0
 11
1926.41886816921
 21
931.3990432676222
 31
0.0
  0
ARC
  5
7084
330
1E
100
AcDbEntity
  8
躯体と製品
  6
Continuous
 62
     3
100
AcDbCircle
 10
1924.91886816921
 20
847.2459369677666
 30
0.0
 40
1.5
100
AcDbArc
 50
270.0
 51
0.0
  0
LINE
  5
7085
330
1E
100
AcDbEntity
  8
躯体と製品
  6
Continuous
 62
     3
100
AcDbLine
 10
1917.91886816921
 20
844.2459369677669
 30
0.0
 11
1917.91886816921
 21
845.7459369677668
 31
0.0
  0
LINE
  5
7086
330
1E
100
AcDbEntity
  8
躯体と製品
  6
Continuous
 62
     3
100
AcDbLine
 10
1924.91886816921
 20
845.7459369677668
 30
0.0
 11
1917.91886816921
 21
845.7459369677668
 31
0.0
  0
LINE
  5
7087
330
1E
100
AcDbEntity
  8
躯体と製品
  6
Continuous
 62
     3
100
AcDbLine
 10
1641.41886816921
 20
961.1821540634336
 30
0.0
 11
1642.91886816921
 21
961.1821540634336
 31
0.0
  0
LINE
  5
7088
330
1E
100
AcDbEntity
  8
躯体と製品
  6
Continuous
 62
     3
100
AcDbLine
 10
1641.41886816921
 20
950.1311186301485
 30
0.0
 11
1641.41886816921
 21
961.1821540634336
 31
0.0
  0
LINE
  5
7089
330
1E
100
AcDbEntity
  8
躯体と製品
  6
Continuous
 62
     7
100
AcDbLine
 10
1659.085463462713
 20
944.1131062979382
 30
0.0
 11
1659.227608264649
 21
946.8253906931302
 31
0.0
  0
LINE
  5
708A
330
1E
100
AcDbEntity
  8
躯体と製品
  6
Continuous
 62
     7
100
AcDbLine
 10
1898.756551803811
 20
931.5524767996318
 30
0.0
 11
1898.898696605747
 21
934.264761194824
 31
0.0
  0
LINE
  5
708B
330
1E
100
AcDbEntity
  8
躯体と製品
  6
Continuous
 62
     4
100
AcDbLine
 10
1674.087783775169
 20
943.7645916735268
 30
0.0
 11
1671.679564109103
 21
946.1728113395921
 31
0.0
  0
LINE
  5
708C
330
1E
100
AcDbEntity
  8
躯体と製品
  6
Continuous
 62
     4
100
AcDbLine
 10
1673.05728787855
 20
943.3808740077722
 30
0.0
 11
1670.187135687411
 21
946.251026198912
 31
0.0
  0
LINE
  5
708D
330
1E
100
AcDbEntity
  8
躯体と製品
  6
Continuous
 62
     4
100
AcDbLine
 10
1671.564859456859
 20
943.4590888670918
 30
0.0
 11
1668.694707265719
 21
946.3292410582317
 31
0.0
  0
LINE
  5
708E
330
1E
100
AcDbEntity
  8
躯体と製品
  6
Continuous
 62
     4
100
AcDbLine
 10
1670.072431035166
 20
943.5373037264113
 30
0.0
 11
1667.202278844026
 21
946.4074559175514
 31
0.0
  0
LINE
  5
708F
330
1E
100
AcDbEntity
  8
躯体と製品
  6
Continuous
 62
     4
100
AcDbLine
 10
1668.580002613473
 20
943.6155185857314
 30
0.0
 11
1665.709850422333
 21
946.4856707768714
 31
0.0
  0
LINE
  5
7090
330
1E
100
AcDbEntity
  8
躯体と製品
  6
Continuous
 62
     4
100
AcDbLine
 10
1667.08757419178
 20
943.693733445051
 30
0.0
 11
1664.21742200064
 21
946.5638856361909
 31
0.0
  0
LINE
  5
7091
330
1E
100
AcDbEntity
  8
躯体と製品
  6
Continuous
 62
     4
100
AcDbLine
 10
1665.595145770087
 20
943.7719483043709
 30
0.0
 11
1662.724993578946
 21
946.642100495511
 31
0.0
  0
LINE
  5
7092
330
1E
100
AcDbEntity
  8
躯体と製品
  6
Continuous
 62
     4
100
AcDbLine
 10
1664.102717348393
 20
943.8501631636903
 30
0.0
 11
1661.232565157254
 21
946.7203153548307
 31
0.0
  0
LINE
  5
7093
330
1E
100
AcDbEntity
  8
躯体と製品
  6
Continuous
 62
     4
100
AcDbLine
 10
1662.6102889267
 20
943.9283780230107
 30
0.0
 11
1659.740136735561
 21
946.7985302141505
 31
0.0
  0
LINE
  5
7094
330
1E
100
AcDbEntity
  8
躯体と製品
  6
Continuous
 62
     7
100
AcDbLine
 10
1674.064906484032
 20
943.3280669542941
 30
0.0
 11
1674.207051285967
 21
946.0403513494862
 31
0.0
  0
LINE
  5
7095
330
1E
100
AcDbEntity
  8
躯体と製品
  6
Continuous
 62
     4
100
AcDbLine
 10
1898.779429094949
 20
931.9890015188645
 30
0.0
 11
1896.371209428883
 21
934.3972211849298
 31
0.0
  0
LINE
  5
7096
330
1E
100
AcDbEntity
  8
躯体と製品
  6
Continuous
 62
     4
100
AcDbLine
 10
1897.74893319833
 20
931.6052838531099
 30
0.0
 11
1894.87878100719
 21
934.4754360442495
 31
0.0
  0
LINE
  5
7097
330
1E
100
AcDbEntity
  8
躯体と製品
  6
Continuous
 62
     4
100
AcDbLine
 10
1896.256504776639
 20
931.6834987124297
 30
0.0
 11
1893.386352585499
 21
934.5536509035694
 31
0.0
  0
LINE
  5
7098
330
1E
100
AcDbEntity
  8
躯体と製品
  6
Continuous
 62
     4
100
AcDbLine
 10
1894.764076354945
 20
931.7617135717492
 30
0.0
 11
1891.893924163806
 21
934.6318657628891
 31
0.0
  0
LINE
  5
7099
330
1E
100
AcDbEntity
  8
躯体と製品
  6
Continuous
 62
     4
100
AcDbLine
 10
1893.271647933253
 20
931.8399284310691
 30
0.0
 11
1890.401495742113
 21
934.7100806222091
 31
0.0
  0
LINE
  5
709A
330
1E
100
AcDbEntity
  8
躯体と製品
  6
Continuous
 62
     4
100
AcDbLine
 10
1891.779219511559
 20
931.9181432903887
 30
0.0
 11
1888.909067320419
 21
934.7882954815288
 31
0.0
  0
LINE
  5
709B
330
1E
100
AcDbEntity
  8
躯体と製品
  6
Continuous
 62
     4
100
AcDbLine
 10
1890.286791089867
 20
931.9963581497084
 30
0.0
 11
1887.416638898726
 21
934.8665103408487
 31
0.0
  0
LINE
  5
709C
330
1E
100
AcDbEntity
  8
躯体と製品
  6
Continuous
 62
     4
100
AcDbLine
 10
1888.794362668173
 20
932.074573009028
 30
0.0
 11
1885.924210477034
 21
934.9447252001686
 31
0.0
  0
LINE
  5
709D
330
1E
100
AcDbEntity
  8
躯体と製品
  6
Continuous
 62
     4
100
AcDbLine
 10
1887.30193424648
 20
932.1527878683484
 30
0.0
 11
1884.43178205534
 21
935.0229400594882
 31
0.0
  0
LINE
  5
709E
330
1E
100
AcDbEntity
  8
躯体と製品
  6
Continuous
 62
     7
100
AcDbLine
 10
1883.777108782492
 20
932.3375161432759
 30
0.0
 11
1883.919253584428
 21
935.0498005384681
 31
0.0
  0
LINE
  5
709F
330
1E
100
AcDbEntity
  8
躯体と製品
  6
Continuous
 62
     4
100
AcDbLine
 10
1885.809505824786
 20
932.2310027276685
 30
0.0
 11
1883.873013892678
 21
934.167494659777
 31
0.0
  0
LINE
  5
70A0
330
1E
100
AcDbEntity
  8
躯体と製品
  6
Continuous
 62
     4
100
AcDbLine
 10
1898.849854070604
 20
933.3327901055822
 30
0.0
 11
1897.863637850576
 21
934.31900632561
 31
0.0
  0
LINE
  5
70A1
330
1E
100
AcDbEntity
  8
躯体と製品
  6
Continuous
 62
     4
100
AcDbLine
 10
1661.117860505007
 20
944.0065928823308
 30
0.0
 11
1659.181368572899
 21
945.9430848144391
 31
0.0
  0
LINE
  5
70A2
330
1E
100
AcDbEntity
  8
躯体と製品
  6
Continuous
 62
     4
100
AcDbLine
 10
1674.158208750824
 20
945.1083802602443
 30
0.0
 11
1673.171992530797
 21
946.0945964802721
 31
0.0
  0
LINE
  5
70A3
330
1E
100
AcDbEntity
  8
躯体と製品
  6
DASHED1
 62
     7
100
AcDbLine
 10
1635.91886816921
 20
950.893843699562
 30
0.0
 11
1635.91886816921
 21
963.0469499994173
 31
0.0
  0
LINE
  5
70A4
330
1E
100
AcDbEntity
  8
躯体と製品
  6
DASHED1
 62
     7
100
AcDbLine
 10
1635.91886816921
 20
963.0469499994173
 30
0.0
 11
1631.41886816921
 21
963.0469499994173
 31
0.0
  0
LINE
  5
70A5
330
1E
100
AcDbEntity
  8
躯体と製品
  6
DASHED1
 62
     7
100
AcDbLine
 10
1631.41886816921
 20
950.8938436995613
 30
0.0
 11
1631.41886816921
 21
963.0469499994173
 31
0.0
  0
ARC
  5
70A6
330
1E
100
AcDbEntity
  8
躯体と製品
  6
DASHED1
 62
     7
100
AcDbCircle
 10
1638.91886816921
 20
950.893843699562
 30
0.0
 40
3.0
100
AcDbArc
 50
180.0
 51
266.9999999999946
  0
ARC
  5
70A7
330
1E
100
AcDbEntity
  8
躯体と製品
  6
DASHED1
 62
     7
100
AcDbCircle
 10
1638.91886816921
 20
950.8938436995613
 30
0.0
 40
7.5
100
AcDbArc
 50
180.0
 51
266.9999999999946
  0
ARC
  5
70A8
330
1E
100
AcDbEntity
  8
躯体と製品
  6
DASHED1
 62
     7
100
AcDbCircle
 10
1904.582047803481
 20
926.4566167846806
 30
0.0
 40
7.5
100
AcDbArc
 50
10.12467165539965
 51
86.99999999999457
  0
LINE
  5
70A9
330
1E
100
AcDbEntity
  8
躯体と製品
  6
DASHED1
 62
     7
100
AcDbLine
 10
1911.965254619795
 20
927.7750465733079
 30
0.0
 11
1925.91886816921
 21
849.6348106965815
 31
0.0
  0
LINE
  5
70AA
330
1E
100
AcDbEntity
  8
躯体と製品
  6
DASHED1
 62
     7
100
AcDbLine
 10
1925.91886816921
 20
849.6348106965815
 30
0.0
 11
1921.488944079486
 21
848.8437528230491
 31
0.0
  0
LINE
  5
70AB
330
1E
100
AcDbEntity
  8
躯体と製品
  6
DASHED1
 62
     7
100
AcDbLine
 10
1907.535330530007
 20
926.9839887001314
 30
0.0
 11
1921.488944079422
 21
848.8437528234049
 31
0.0
  0
ARC
  5
70AC
330
1E
100
AcDbEntity
  8
躯体と製品
  6
DASHED1
 62
     7
100
AcDbCircle
 10
1904.582047803481
 20
926.4566167846806
 30
0.0
 40
3.0
100
AcDbArc
 50
10.12467165539965
 51
86.99999999999457
  0
LINE
  5
70AD
330
1E
100
AcDbEntity
  8
躯体と製品
  6
DASHED1
 62
     7
100
AcDbLine
 10
1898.663184802654
 20
929.7709282884282
 30
0.0
 11
1904.73905567221
 21
929.4525053889442
 31
0.0
  0
LINE
  5
70AE
330
1E
100
AcDbEntity
  8
躯体と製品
  6
DASHED1
 62
     7
100
AcDbLine
 10
1898.898696605747
 20
934.2647611948239
 30
0.0
 11
1904.974567475304
 21
933.9463382953399
 31
0.0
  0
LINE
  5
70AF
330
1E
100
AcDbEntity
  8
躯体と製品
  6
DASHED1
 62
     7
100
AcDbLine
 10
1638.761860300482
 20
947.8979550952983
 30
0.0
 11
1659.227608264649
 21
946.82539069313
 31
0.0
  0
LINE
  5
70B0
330
1E
100
AcDbEntity
  8
躯体と製品
  6
DASHED1
 62
     7
100
AcDbLine
 10
1638.526348497388
 20
943.4041221889021
 30
0.0
 11
1658.992096461555
 21
942.3315577867338
 31
0.0
  0
LINE
  5
70B1
330
1E
100
AcDbEntity
  8
躯体と製品
  6
Continuous
 62
     7
100
AcDbLine
 10
1660.11886816921
 20
952.2626294159037
 30
0.0
 11
1658.674521260348
 21
950.2220750777739
 31
0.0
  0
ARC
  5
70B2
330
1E
100
AcDbEntity
  8
躯体と製品
  6
Continuous
 62
     7
100
AcDbCircle
 10
1650.857196176304
 20
951.887301175763
 30
0.0
 40
0.4
100
AcDbArc
 50
53.33156940956921
 51
233.3315694095692
  0
LINE
  5
70B3
330
1E
100
AcDbEntity
  8
躯体と製品
  6
Continuous
 62
     7
100
AcDbLine
 10
1652.262103701074
 20
951.3400069974064
 30
0.0
 11
1651.096069490627
 21
952.2081430989972
 31
0.0
  0
ARC
  5
70B4
330
1E
100
AcDbEntity
  8
躯体と製品
  6
Continuous
 62
     7
100
AcDbCircle
 10
1655.40963431934
 20
952.5330301319531
 30
0.0
 40
3.2
100
AcDbArc
 50
210.652214123106
 51
324.7083440260863
  0
ARC
  5
70B5
330
1E
100
AcDbEntity
  8
躯体と製品
  6
Continuous
 62
     7
100
AcDbCircle
 10
1651.366328772364
 20
950.1368497852791
 30
0.0
 40
1.5
100
AcDbArc
 50
30.65221412310605
 51
53.33156940956532
  0
LINE
  5
70B6
330
1E
100
AcDbEntity
  8
躯体と製品
  6
Continuous
 62
     7
100
AcDbLine
 10
1651.784357072428
 20
950.6983231509385
 30
0.0
 11
1650.618322861982
 21
951.5664592525293
 31
0.0
  0
ARC
  5
70B7
330
1E
100
AcDbEntity
  8
躯体と製品
  6
Continuous
 62
     7
100
AcDbCircle
 10
1655.40963431934
 20
952.5330301319531
 30
0.0
 40
4.0
100
AcDbArc
 50
210.652214123106
 51
324.7083440260863
  0
ARC
  5
70B8
330
1E
100
AcDbEntity
  8
躯体と製品
  6
Continuous
 62
     7
100
AcDbCircle
 10
1651.366328772364
 20
950.1368497852791
 30
0.0
 40
0.6999999999999999
100
AcDbArc
 50
30.65221412310605
 51
53.33156940956921
  0
LINE
  5
70B9
330
1E
100
AcDbEntity
  8
躯体と製品
  6
Continuous
 62
     7
100
AcDbLine
 10
1659.138742346228
 20
952.2626294159037
 30
0.0
 11
1658.021543872147
 21
950.6842660886098
 31
0.0
  0
LINE
  5
70BA
330
1E
100
AcDbEntity
  8
躯体と製品
  6
DASHED1
 62
     4
100
AcDbLine
 10
1857.659979376283
 20
911.6760652847487
 30
0.0
 11
1857.754184097521
 21
913.4735984473071
 31
0.0
  0
LINE
  5
70BB
330
1E
100
AcDbEntity
  8
躯体と製品
  6
DASHED1
 62
     4
100
AcDbLine
 10
1757.797025900826
 20
916.9096609090434
 30
0.0
 11
1757.891230622063
 21
918.7071940716014
 31
0.0
  0
LINE
  5
70BC
330
1E
100
AcDbEntity
  8
躯体と製品
  6
Continuous
 62
     7
100
AcDbLine
 10
1627.91886816921
 20
913.0189684729955
 30
0.0
 11
1634.229291449672
 21
840.8905003247605
 31
0.0
  0
LINE
  5
70BD
330
1E
100
AcDbEntity
  8
躯体と製品
  6
Continuous
 62
     7
100
AcDbLine
 10
1628.91886816921
 20
913.0626294159037
 30
0.0
 11
1635.225486147763
 21
840.9776560675082
 31
0.0
  0
LINE
  5
70BE
330
1E
100
AcDbEntity
  8
躯体と製品
  6
Continuous
 62
     7
100
AcDbLine
 10
1724.943143125361
 20
885.8450409238978
 30
0.0
 11
1721.017755588372
 21
840.9776560675082
 31
0.0
  0
ARC
  5
70BF
330
1E
100
AcDbEntity
  8
躯体と製品
  6
Continuous
 62
     7
100
AcDbCircle
 10
1678.121620868068
 20
844.7305815646155
 30
0.0
 40
43.05999098617346
100
AcDbArc
 50
184.9999999999994
 51
355.0000000000006
  0
LINE
  5
70C0
330
1E
100
AcDbEntity
  8
躯体と製品
  6
Continuous
 62
     7
100
AcDbLine
 10
1725.939337823453
 20
885.7578851811501
 30
0.0
 11
1722.013950286464
 21
840.8905003247603
 31
0.0
  0
ARC
  5
70C1
330
1E
100
AcDbEntity
  8
躯体と製品
  6
Continuous
 62
     7
100
AcDbCircle
 10
1678.121620868068
 20
844.7305815646155
 30
0.0
 40
44.05999098617344
100
AcDbArc
 50
184.9999999999994
 51
355.0000000000006
  0
LINE
  5
70E0
330
1E
100
AcDbEntity
  8
躯体と製品
  6
Continuous
 62
     7
100
AcDbLine
 10
1726.91886816921
 20
886.6705905784423
 30
0.0
 11
1726.91886816921
 21
756.6705905784421
 31
0.0
  0
LINE
  5
70E1
330
1E
100
AcDbEntity
  8
躯体と製品
  6
Continuous
 62
     7
100
AcDbLine
 10
1851.91886816921
 20
886.6705905784423
 30
0.0
 11
1851.91886816921
 21
756.6705905784421
 31
0.0
  0
ARC
  5
70F6
330
1E
100
AcDbEntity
  8
躯体と製品
  6
Continuous
 62
     7
100
AcDbCircle
 10
1786.91886816921
 20
879.4205905784421
 30
0.0
 40
9.25
100
AcDbArc
 50
90.0
 51
108.9246444160544
  0
ARC
  5
70F7
330
1E
100
AcDbEntity
  8
躯体と製品
  6
Continuous
 62
     7
100
AcDbCircle
 10
1816.91886816921
 20
879.4205905784421
 30
0.0
 40
9.25
100
AcDbArc
 50
71.07535558394559
 51
90.0
  0
ARC
  5
70F8
330
1E
100
AcDbEntity
  8
躯体と製品
  6
Continuous
 62
     7
100
AcDbCircle
 10
1822.91886816921
 20
896.920590578442
 30
0.0
 40
9.25
100
AcDbArc
 50
251.0753555839456
 51
270.0
  0
LINE
  5
70F9
330
1E
100
AcDbEntity
  8
躯体と製品
  6
Continuous
 62
     7
100
AcDbLine
 10
1801.91886816921
 20
887.6705905784422
 30
0.0
 11
1801.91886816921
 21
888.670590578442
 31
0.0
  0
ARC
  5
70FA
330
1E
100
AcDbEntity
  8
躯体と製品
  6
Continuous
 62
     7
100
AcDbCircle
 10
1816.91886816921
 20
879.4205905784421
 30
0.0
 40
8.25
100
AcDbArc
 50
71.07535558394559
 51
90.0
  0
ARC
  5
70FB
330
1E
100
AcDbEntity
  8
躯体と製品
  6
Continuous
 62
     7
100
AcDbCircle
 10
1822.91886816921
 20
896.920590578442
 30
0.0
 40
10.25
100
AcDbArc
 50
251.0753555839456
 51
270.0
  0
ARC
  5
70FC
330
1E
100
AcDbEntity
  8
躯体と製品
  6
Continuous
 62
     7
100
AcDbCircle
 10
1786.91886816921
 20
879.4205905784421
 30
0.0
 40
8.25
100
AcDbArc
 50
90.0
 51
108.9246444160544
  0
ARC
  5
70FD
330
1E
100
AcDbEntity
  8
躯体と製品
  6
Continuous
 62
     7
100
AcDbCircle
 10
1780.91886816921
 20
896.920590578442
 30
0.0
 40
10.25
100
AcDbArc
 50
270.0
 51
288.9246444160544
  0
LINE
  5
70FE
330
1E
100
AcDbEntity
  8
躯体と製品
  6
Continuous
 62
     7
100
AcDbLine
 10
1816.91886816921
 20
888.670590578442
 30
0.0
 11
1786.91886816921
 21
888.670590578442
 31
0.0
  0
ARC
  5
70FF
330
1E
100
AcDbEntity
  8
躯体と製品
  6
Continuous
 62
     7
100
AcDbCircle
 10
1780.91886816921
 20
896.920590578442
 30
0.0
 40
9.25
100
AcDbArc
 50
270.0
 51
288.9246444160544
  0
ARC
  5
7100
330
1E
100
AcDbEntity
  8
躯体と製品
  6
Continuous
 62
     7
100
AcDbCircle
 10
1726.935532521545
 20
885.6707294384024
 30
0.0
 40
2.0
100
AcDbArc
 50
90.67517081899364
 51
175.0000000000005
  0
LINE
  5
7101
330
1E
100
AcDbEntity
  8
躯体と製品
  6
Continuous
 62
     7
100
AcDbLine
 10
1726.911965159377
 20
887.6705905784422
 30
0.0
 11
1780.91886816921
 21
887.6705905784422
 31
0.0
  0
LINE
  5
7102
330
1E
100
AcDbEntity
  8
躯体と製品
  6
Continuous
 62
     7
100
AcDbLine
 10
1851.930700074698
 20
887.6705905784422
 30
0.0
 11
1822.91886816921
 21
887.6705905784422
 31
0.0
  0
ARC
  5
7103
330
1E
100
AcDbEntity
  8
躯体と製品
  6
Continuous
 62
     7
100
AcDbCircle
 10
1851.890308395311
 20
885.6709984919813
 30
0.0
 40
2.0
100
AcDbArc
 50
4.999999999999459
 51
88.84278494684552
  0
LINE
  5
7104
330
1E
100
AcDbEntity
  8
躯体と製品
  6
Continuous
 62
     7
100
AcDbLine
 10
1627.91886816921
 20
948.0626294159037
 30
0.0
 11
1626.91886816921
 21
948.0626294159037
 31
0.0
  0
LINE
  5
7105
330
1E
100
AcDbEntity
  8
躯体と製品
  6
Continuous
 62
     7
100
AcDbLine
 10
1627.91886816921
 20
943.0626294159038
 30
0.0
 11
1626.91886816921
 21
943.0626294159038
 31
0.0
  0
TEXT
  5
7106
330
1E
100
AcDbEntity
  8
図枠
 62
     7
100
AcDbText
 10
1997.918868169211
 20
746.1728409862478
 30
0.0
 40
5.0
  1
（単位：mm）
100
AcDbText
  0
LINE
  5
7107
330
1E
100
AcDbEntity
  8
図枠
  6
Continuous
 62
     4
100
AcDbLine
 10
1711.11886816921
 20
950.6148052463197
 30
0.0
 11
1761.11886816921
 21
950.6148052463197
 31
0.0
  0
LINE
  5
7108
330
1E
100
AcDbEntity
  8
図枠
  6
Continuous
 62
     4
100
AcDbLine
 10
1761.11886816921
 20
947.9944162821677
 30
0.0
 11
1761.11886816921
 21
950.6148052463197
 31
0.0
  0
LINE
  5
7109
330
1E
100
AcDbEntity
  8
図枠
  6
Continuous
 62
     4
100
AcDbLine
 10
1711.11886816921
 20
950.6148052463197
 30
0.0
 11
1761.11886816921
 21
947.9944162821677
 31
0.0
  0
TEXT
  5
710A
330
1E
100
AcDbEntity
  8
図枠
 62
     7
100
AcDbText
 10
1722.61886816921
 20
950.5990822817162
 30
0.0
 40
5.0
  1
勾配３度
100
AcDbText
  0
LINE
  5
710B
330
1E
100
AcDbEntity
  8
躯体と製品
  6
CENTER1
 62
     4
100
AcDbLine
 10
1629.796145486645
 20
996.0626294159037
 30
0.0
 11
1646.66417916921
 21
996.0626294159037
 31
0.0
  0
LINE
  5
710C
330
1E
100
AcDbEntity
  8
躯体と製品
  6
CENTER1
 62
     4
100
AcDbLine
 10
1641.61887016921
 20
945.5626294159037
 30
0.0
 11
1567.91886816921
 21
945.5626294159037
 31
0.0
  0
LINE
  5
710D
330
1E
100
AcDbEntity
  8
躯体と製品
  6
CENTER1
 62
     4
100
AcDbLine
 10
1803.643508030947
 20
939.5021939452433
 30
0.0
 11
1801.290836694295
 21
894.6105505892738
 31
0.0
  0
LINE
  5
710E
330
1E
100
AcDbEntity
  8
躯体と製品
  6
CENTER1
 62
     4
100
AcDbLine
 10
1801.91886816921
 20
911.5941050063286
 30
0.0
 11
1801.91886816921
 21
822.670590578442
 31
0.0
  0
TEXT
  5
710F
330
1E
100
AcDbEntity
  8
図枠
 62
     7
100
AcDbText
 10
1535.91886816921
 20
692.860396096366
 30
0.0
 40
5.0
  1
止水補助板ホルダーＡＬ
100
AcDbText
  0
TEXT
  5
7110
330
1E
100
AcDbEntity
  8
図枠
 62
     7
100
AcDbText
 10
2018.918868169211
 20
665.860396096366
 30
0.0
 40
5.0
  1
124
100
AcDbText
  0
CIRCLE
  5
7111
330
1E
100
AcDbEntity
  8
図枠
  6
Continuous
 62
     4
100
AcDbCircle
 10
1633.889280635214
 20
978.3000163880807
 30
0.0
 40
0.9
  0
CIRCLE
  5
7112
330
1E
100
AcDbEntity
  8
図枠
  6
Continuous
 62
     4
100
AcDbCircle
 10
1659.13656730735
 20
970.0223221520653
 30
0.0
 40
0.9
  0
CIRCLE
  5
7113
330
1E
100
AcDbEntity
  8
図枠
  6
Continuous
 62
     4
100
AcDbCircle
 10
1658.639762417796
 20
950.9640959430196
 30
0.0
 40
0.9
  0
CIRCLE
  5
7114
330
1E
100
AcDbEntity
  8
図枠
  6
Continuous
 62
     4
100
AcDbCircle
 10
1638.060777942617
 20
996.8188588059726
 30
0.0
 40
0.9
  0
CIRCLE
  5
7115
330
1E
100
AcDbEntity
  8
図枠
  6
Continuous
 62
     4
100
AcDbCircle
 10
1685.531370114626
 20
904.3864651148995
 30
0.0
 40
6.0
  0
TEXT
  5
7116
330
1E
100
AcDbEntity
  8
図枠
 62
     7
100
AcDbText
 10
1682.281370114626
 20
901.3864651148994
 30
0.0
 40
5.0
  1
13
100
AcDbText
  0
LINE
  5
7117
330
1E
100
AcDbEntity
  8
図枠
  6
Continuous
 62
     4
100
AcDbLine
 10
1658.639762417796
 20
950.9640959430196
 30
0.0
 11
1682.531370114626
 21
909.5826175376059
 31
0.0
  0
TEXT
  5
7118
330
1E
100
AcDbEntity
  8
図枠
 62
     7
100
AcDbText
 10
1680.355423693627
 20
1009.403624616203
 30
0.0
 40
5.0
  1
10
100
AcDbText
  0
CIRCLE
  5
7119
330
1E
100
AcDbEntity
  8
図枠
  6
Continuous
 62
     4
100
AcDbCircle
 10
1683.605423693627
 20
1012.403624616203
 30
0.0
 40
6.0
  0
LINE
  5
711A
330
1E
100
AcDbEntity
  8
図枠
  6
Continuous
 62
     4
100
AcDbLine
 10
1659.13656730735
 20
970.0223221520653
 30
0.0
 11
1680.605423693627
 21
1007.207472193496
 31
0.0
  0
CIRCLE
  5
711B
330
1E
100
AcDbEntity
  8
図枠
  6
Continuous
 62
     4
100
AcDbCircle
 10
1615.250761724865
 20
1036.326965816588
 30
0.0
 40
6.0
  0
TEXT
  5
711C
330
1E
100
AcDbEntity
  8
図枠
 62
     7
100
AcDbText
 10
1612.000761724865
 20
1033.326965816588
 30
0.0
 40
5.0
  1
15
100
AcDbText
  0
LINE
  5
711D
330
1E
100
AcDbEntity
  8
図枠
  6
Continuous
 62
     4
100
AcDbLine
 10
1638.060777942617
 20
996.8188588059726
 30
0.0
 11
1618.250761724865
 21
1031.130813393882
 31
0.0
  0
CIRCLE
  5
711E
330
1E
100
AcDbEntity
  8
図枠
  6
Continuous
 62
     4
100
AcDbCircle
 10
1612.770165392541
 20
1014.879396999292
 30
0.0
 40
6.0
  0
TEXT
  5
711F
330
1E
100
AcDbEntity
  8
図枠
 62
     7
100
AcDbText
 10
1609.770165392541
 20
1011.879396999293
 30
0.0
 40
5.0
  1
４
100
AcDbText
  0
LINE
  5
7120
330
1E
100
AcDbEntity
  8
図枠
  6
Continuous
 62
     4
100
AcDbLine
 10
1633.889280635214
 20
978.3000163880807
 30
0.0
 11
1615.770165392541
 21
1009.683244576586
 31
0.0
  0
CIRCLE
  5
7121
330
1E
100
AcDbEntity
  8
図枠
  6
Continuous
 62
     4
100
AcDbCircle
 10
1634.281872013453
 20
947.4818638204371
 30
0.0
 40
0.9
  0
CIRCLE
  5
7122
330
1E
100
AcDbEntity
  8
図枠
  6
Continuous
 62
     4
100
AcDbCircle
 10
1594.985228526368
 20
948.4642012367052
 30
0.0
 40
0.9
  0
TEXT
  5
7123
330
1E
100
AcDbEntity
  8
図枠
 62
     7
100
AcDbText
 10
1579.237104419281
 20
967.1115871894802
 30
0.0
 40
5.0
  1
18
100
AcDbText
  0
LINE
  5
7124
330
1E
100
AcDbEntity
  8
図枠
  6
Continuous
 62
     4
100
AcDbLine
 10
1594.985228526368
 20
948.4642012367052
 30
0.0
 11
1585.487104419281
 21
964.9154347667735
 31
0.0
  0
CIRCLE
  5
7125
330
1E
100
AcDbEntity
  8
図枠
  6
Continuous
 62
     4
100
AcDbCircle
 10
1582.487104419281
 20
970.1115871894803
 30
0.0
 40
6.0
  0
CIRCLE
  5
7126
330
1E
100
AcDbEntity
  8
図枠
  6
Continuous
 62
     4
100
AcDbCircle
 10
1610.553408431631
 20
971.2103274022595
 30
0.0
 40
6.0
  0
LINE
  5
7127
330
1E
100
AcDbEntity
  8
図枠
  6
Continuous
 62
     4
100
AcDbLine
 10
1634.281872013453
 20
947.4818638204371
 30
0.0
 11
1614.796049118751
 21
966.9676867151398
 31
0.0
  0
TEXT
  5
7128
330
1E
100
AcDbEntity
  8
図枠
 62
     7
100
AcDbText
 10
1607.303408431631
 20
968.2103274022594
 30
0.0
 40
5.0
  1
19
100
AcDbText
  0
CIRCLE
  5
7129
330
1E
100
AcDbEntity
  8
図枠
  6
Continuous
 62
     4
100
AcDbCircle
 10
1632.20267105706
 20
938.9463011877163
 30
0.0
 40
0.9
  0
LINE
  5
712A
330
1E
100
AcDbEntity
  8
図枠
  6
Continuous
 62
     4
100
AcDbLine
 10
1632.20267105706
 20
938.9463011877163
 30
0.0
 11
1616.973020982072
 21
930.1534586172586
 31
0.0
  0
TEXT
  5
712B
330
1E
100
AcDbEntity
  8
図枠
 62
     7
100
AcDbText
 10
1608.526868559366
 20
924.1534586172585
 30
0.0
 40
5.0
  1
21
100
AcDbText
  0
CIRCLE
  5
712C
330
1E
100
AcDbEntity
  8
図枠
  6
Continuous
 62
     4
100
AcDbCircle
 10
1611.776868559366
 20
927.1534586172586
 30
0.0
 40
6.0
  0
CIRCLE
  5
712D
330
1E
100
AcDbEntity
  8
図枠
  6
Continuous
 62
     4
100
AcDbCircle
 10
1650.765169668839
 20
810.8119548577651
 30
0.0
 40
0.9
  0
LINE
  5
712E
330
1E
100
AcDbEntity
  8
図枠
  6
Continuous
 62
     4
100
AcDbLine
 10
1650.765169668839
 20
810.8119548577651
 30
0.0
 11
1664.64845685526
 21
834.8585136407175
 31
0.0
  0
TEXT
  5
712F
330
1E
100
AcDbEntity
  8
図枠
 62
     7
100
AcDbText
 10
1664.39845685526
 20
837.0546660634243
 30
0.0
 40
5.0
  1
12
100
AcDbText
  0
CIRCLE
  5
7130
330
1E
100
AcDbEntity
  8
図枠
  6
Continuous
 62
     4
100
AcDbCircle
 10
1667.64845685526
 20
840.0546660634242
 30
0.0
 40
6.0
  0
TEXT
  5
7131
330
1E
100
AcDbEntity
  8
図枠
 62
     7
100
AcDbText
 10
1837.809786969975
 20
958.7263339401761
 30
0.0
 40
5.0
  1
７
100
AcDbText
  0
TEXT
  5
7132
330
1E
100
AcDbEntity
  8
図枠
 62
     7
100
AcDbText
 10
1821.548845745675
 20
955.204640717992
 30
0.0
 40
5.0
  1
14
100
AcDbText
  0
CIRCLE
  5
7133
330
1E
100
AcDbEntity
  8
図枠
  6
Continuous
 62
     4
100
AcDbCircle
 10
1851.89220890797
 20
920.2687846785465
 30
0.0
 40
0.9
  0
CIRCLE
  5
7134
330
1E
100
AcDbEntity
  8
図枠
  6
Continuous
 62
     4
100
AcDbCircle
 10
1803.973313206643
 20
922.1337602657097
 30
0.0
 40
0.9
  0
CIRCLE
  5
7135
330
1E
100
AcDbEntity
  8
図枠
  6
Continuous
 62
     4
100
AcDbCircle
 10
1799.792857193208
 20
861.5879291802952
 30
0.0
 40
0.9
  0
CIRCLE
  5
7136
330
1E
100
AcDbEntity
  8
図枠
  6
Continuous
 62
     4
100
AcDbCircle
 10
1819.522697197599
 20
924.856012909141
 30
0.0
 40
0.9
  0
CIRCLE
  5
7137
330
1E
100
AcDbEntity
  8
図枠
  6
Continuous
 62
     4
100
AcDbCircle
 10
1806.256278997906
 20
894.7711627257003
 30
0.0
 40
0.9
  0
CIRCLE
  5
7138
330
1E
100
AcDbEntity
  8
図枠
  6
Continuous
 62
     4
100
AcDbCircle
 10
1812.096350897354
 20
902.1592054900628
 30
0.0
 40
0.9
  0
CIRCLE
  5
7139
330
1E
100
AcDbEntity
  8
図枠
  6
Continuous
 62
     4
100
AcDbCircle
 10
1868.81752401958
 20
949.5842903859683
 30
0.0
 40
6.0
  0
TEXT
  5
713A
330
1E
100
AcDbEntity
  8
図枠
 62
     7
100
AcDbText
 10
1865.81752401958
 20
946.5842903859684
 30
0.0
 40
5.0
  1
６
100
AcDbText
  0
LINE
  5
713B
330
1E
100
AcDbEntity
  8
図枠
  6
Continuous
 62
     4
100
AcDbLine
 10
1851.89220890797
 20
920.2687846785465
 30
0.0
 11
1865.81752401958
 21
944.3881379632619
 31
0.0
  0
CIRCLE
  5
713C
330
1E
100
AcDbEntity
  8
図枠
  6
Continuous
 62
     4
100
AcDbCircle
 10
1819.440559753389
 20
900.4219275643977
 30
0.0
 40
0.9
  0
CIRCLE
  5
713D
330
1E
100
AcDbEntity
  8
図枠
  6
Continuous
 62
     4
100
AcDbCircle
 10
1847.253614008839
 20
948.5955506485067
 30
0.0
 40
6.0
  0
TEXT
  5
713E
330
1E
100
AcDbEntity
  8
図枠
 62
     7
100
AcDbText
 10
1844.253614008839
 20
945.5955506485068
 30
0.0
 40
5.0
  1
３
100
AcDbText
  0
LINE
  5
713F
330
1E
100
AcDbEntity
  8
図枠
  6
Continuous
 62
     4
100
AcDbLine
 10
1819.440559753389
 20
900.4219275643977
 30
0.0
 11
1844.253614008839
 21
943.3993982258002
 31
0.0
  0
CIRCLE
  5
7140
330
1E
100
AcDbEntity
  8
図枠
  6
Continuous
 62
     4
100
AcDbCircle
 10
1840.809786969975
 20
961.7263339401761
 30
0.0
 40
6.0
  0
LINE
  5
7141
330
1E
100
AcDbEntity
  8
図枠
  6
Continuous
 62
     4
100
AcDbLine
 10
1819.522697197599
 20
924.856012909141
 30
0.0
 11
1837.809786969975
 21
956.5301815174695
 31
0.0
  0
CIRCLE
  5
7142
330
1E
100
AcDbEntity
  8
図枠
  6
Continuous
 62
     4
100
AcDbCircle
 10
1824.798845745675
 20
958.2046407179921
 30
0.0
 40
6.0
  0
TEXT
  5
7143
330
1E
100
AcDbEntity
  8
図枠
 62
     7
100
AcDbText
 10
1823.878037029122
 20
873.5565740883034
 30
0.0
 40
5.0
  1
８
100
AcDbText
  0
LINE
  5
7144
330
1E
100
AcDbEntity
  8
図枠
  6
Continuous
 62
     4
100
AcDbLine
 10
1803.973313206643
 20
922.1337602657097
 30
0.0
 11
1821.798845745675
 21
953.0084882952854
 31
0.0
  0
CIRCLE
  5
7145
330
1E
100
AcDbEntity
  8
図枠
  6
Continuous
 62
     4
100
AcDbCircle
 10
1826.878037029122
 20
876.5565740883035
 30
0.0
 40
6.0
  0
TEXT
  5
7146
330
1E
100
AcDbEntity
  8
図枠
 62
     7
100
AcDbText
 10
1778.849862784309
 20
866.9144591040161
 30
0.0
 40
5.0
  1
20
100
AcDbText
  0
LINE
  5
7147
330
1E
100
AcDbEntity
  8
図枠
  6
Continuous
 62
     4
100
AcDbLine
 10
1812.096350897354
 20
902.1592054900628
 30
0.0
 11
1823.878037029122
 21
881.7527265110102
 31
0.0
  0
CIRCLE
  5
7148
330
1E
100
AcDbEntity
  8
図枠
  6
Continuous
 62
     4
100
AcDbCircle
 10
1825.678664662762
 20
861.1306039499714
 30
0.0
 40
6.0
  0
TEXT
  5
7149
330
1E
100
AcDbEntity
  8
図枠
 62
     7
100
AcDbText
 10
1822.428664662762
 20
858.1306039499713
 30
0.0
 40
5.0
  1
16
100
AcDbText
  0
LINE
  5
714A
330
1E
100
AcDbEntity
  8
図枠
  6
Continuous
 62
     4
100
AcDbLine
 10
1806.256278997906
 20
894.7711627257003
 30
0.0
 11
1822.678664662762
 21
866.3267563726778
 31
0.0
  0
CIRCLE
  5
714B
330
1E
100
AcDbEntity
  8
図枠
  6
Continuous
 62
     4
100
AcDbCircle
 10
1786.751242998461
 20
838.9991907822828
 30
0.0
 40
6.0
  0
TEXT
  5
714C
330
1E
100
AcDbEntity
  8
図枠
 62
     7
100
AcDbText
 10
1783.501242998461
 20
835.9991907822827
 30
0.0
 40
5.0
  1
17
100
AcDbText
  0
LINE
  5
714D
330
1E
100
AcDbEntity
  8
図枠
  6
Continuous
 62
     4
100
AcDbLine
 10
1799.792857193208
 20
861.5879291802952
 30
0.0
 11
1789.751242998461
 21
844.1953432049896
 31
0.0
  0
CIRCLE
  5
714E
330
1E
100
AcDbEntity
  8
図枠
  6
Continuous
 62
     4
100
AcDbCircle
 10
1794.797116416188
 20
891.9067475110196
 30
0.0
 40
0.9
  0
CIRCLE
  5
714F
330
1E
100
AcDbEntity
  8
図枠
  6
Continuous
 62
     4
100
AcDbCircle
 10
1782.099862784309
 20
869.9144591040161
 30
0.0
 40
6.0
  0
LINE
  5
7150
330
1E
100
AcDbEntity
  8
図枠
  6
Continuous
 62
     4
100
AcDbLine
 10
1794.797116416188
 20
891.9067475110196
 30
0.0
 11
1785.099862784309
 21
875.1106115267228
 31
0.0
  0
CIRCLE
  5
7151
330
1E
100
AcDbEntity
  8
図枠
  6
Continuous
 62
     4
100
AcDbCircle
 10
1911.672450879457
 20
916.1987372302208
 30
0.0
 40
0.9
  0
CIRCLE
  5
7152
330
1E
100
AcDbEntity
  8
図枠
  6
Continuous
 62
     4
100
AcDbCircle
 10
1938.308932022859
 20
962.3344759054434
 30
0.0
 40
6.0
  0
TEXT
  5
7153
330
1E
100
AcDbEntity
  8
図枠
 62
     7
100
AcDbText
 10
1935.308932022859
 20
959.3344759054435
 30
0.0
 40
5.0
  1
９
100
AcDbText
  0
LINE
  5
7154
330
1E
100
AcDbEntity
  8
図枠
  6
Continuous
 62
     4
100
AcDbLine
 10
1911.672450879457
 20
916.1987372302208
 30
0.0
 11
1935.308932022859
 21
957.1383234827367
 31
0.0
  0
CIRCLE
  5
7155
330
1E
100
AcDbEntity
  8
図枠
  6
Continuous
 62
     4
100
AcDbCircle
 10
1909.988289078517
 20
868.6172795551334
 30
0.0
 40
0.9
  0
LINE
  5
7156
330
1E
100
AcDbEntity
  8
図枠
  6
Continuous
 62
     4
100
AcDbLine
 10
1909.988289078517
 20
868.6172795551334
 30
0.0
 11
1934.956302894874
 21
911.8631480491442
 31
0.0
  0
CIRCLE
  5
7157
330
1E
100
AcDbEntity
  8
図枠
  6
Continuous
 62
     4
100
AcDbCircle
 10
1937.956302894874
 20
917.0593004718508
 30
0.0
 40
6.0
  0
TEXT
  5
7158
330
1E
100
AcDbEntity
  8
図枠
 62
     7
100
AcDbText
 10
1934.956302894874
 20
914.0593004718509
 30
0.0
 40
5.0
  1
５
100
AcDbText
  0
CIRCLE
  5
7159
330
1E
100
AcDbEntity
  8
図枠
  6
Continuous
 62
     4
100
AcDbCircle
 10
1911.128224141089
 20
934.3712194736312
 30
0.0
 40
0.9
  0
LINE
  5
715A
330
1E
100
AcDbEntity
  8
図枠
  6
Continuous
 62
     4
100
AcDbLine
 10
1911.128224141089
 20
934.3712194736312
 30
0.0
 11
1936.26470528449
 21
977.9088819375004
 31
0.0
  0
TEXT
  5
715B
330
1E
100
AcDbEntity
  8
図枠
 62
     7
100
AcDbText
 10
1936.26470528449
 20
980.1050343602071
 30
0.0
 40
5.0
  1
１
100
AcDbText
  0
CIRCLE
  5
715C
330
1E
100
AcDbEntity
  8
図枠
  6
Continuous
 62
     4
100
AcDbCircle
 10
1939.26470528449
 20
983.105034360207
 30
0.0
 40
6.0
  0
CIRCLE
  5
715D
330
1E
100
AcDbEntity
  8
図枠
  6
Continuous
 62
     4
100
AcDbCircle
 10
1654.440011048479
 20
988.6854639690229
 30
0.0
 40
0.9
  0
LINE
  5
715E
330
1E
100
AcDbEntity
  8
図枠
  6
Continuous
 62
     4
100
AcDbLine
 10
1654.440011048479
 20
988.6854639690229
 30
0.0
 11
1672.676832553309
 21
1020.272565383953
 31
0.0
  0
TEXT
  5
715F
330
1E
100
AcDbEntity
  8
図枠
 62
     7
100
AcDbText
 10
1672.676832553309
 20
1022.46871780666
 30
0.0
 40
5.0
  1
２
100
AcDbText
  0
CIRCLE
  5
7160
330
1E
100
AcDbEntity
  8
図枠
  6
Continuous
 62
     4
100
AcDbCircle
 10
1675.676832553309
 20
1025.46871780666
 30
0.0
 40
6.0
  0
CIRCLE
  5
7161
330
1E
100
AcDbEntity
  8
図枠
  6
Continuous
 62
     4
100
AcDbCircle
 10
1886.896542561766
 20
848.0259640627613
 30
0.0
 40
0.9
  0
LINE
  5
7162
330
1E
100
AcDbEntity
  8
図枠
  6
Continuous
 62
     4
100
AcDbLine
 10
1886.896542561766
 20
848.0259640627613
 30
0.0
 11
1897.353990098397
 21
829.9131336118312
 31
0.0
  0
TEXT
  5
7163
330
1E
100
AcDbEntity
  8
図枠
 62
     7
100
AcDbText
 10
1897.103990098397
 20
821.7169811891247
 30
0.0
 40
5.0
  1
11
100
AcDbText
  0
CIRCLE
  5
7164
330
1E
100
AcDbEntity
  8
図枠
  6
Continuous
 62
     4
100
AcDbCircle
 10
1900.353990098397
 20
824.7169811891247
 30
0.0
 40
6.0
  0
ARC
  5
7165
330
1E
100
AcDbEntity
  8
躯体と製品
  6
Continuous
 62
     7
100
AcDbCircle
 10
1632.790158623243
 20
944.0598664159038
 30
0.0
 40
3.0
100
AcDbArc
 50
272.4589259999961
 51
321.3853620000019
  0
ARC
  5
7166
330
1E
100
AcDbEntity
  8
躯体と製品
  6
Continuous
 62
     7
100
AcDbCircle
 10
1630.918869623243
 20
945.5626294159037
 30
0.0
 40
5.4
100
AcDbArc
 50
321.3178130000017
 51
0.0
  0
ARC
  5
7167
330
1E
100
AcDbEntity
  8
躯体と製品
  6
Continuous
 62
     7
100
AcDbCircle
 10
1630.918869623243
 20
945.5626294159037
 30
0.0
 40
5.4
100
AcDbArc
 50
0.0
 51
38.85106200000121
  0
ARC
  5
7168
330
1E
100
AcDbEntity
  8
躯体と製品
  6
Continuous
 62
     7
100
AcDbCircle
 10
1632.790158623243
 20
947.0653894159038
 30
0.0
 40
3.0
100
AcDbArc
 50
38.61463799999811
 51
87.54107400000384
  0
LINE
  5
7169
330
1E
100
AcDbEntity
  8
躯体と製品
  6
Continuous
 62
     7
100
AcDbLine
 10
1632.918867623243
 20
954.5626294159037
 30
0.0
 11
1632.918867623243
 21
936.5626294159037
 31
0.0
  0
LINE
  5
716A
330
1E
100
AcDbEntity
  8
躯体と製品
  6
Continuous
 62
     7
100
AcDbLine
 10
1632.918867623243
 20
936.5626294159037
 30
0.0
 11
1631.41886816921
 21
936.5626294159037
 31
0.0
  0
LINE
  5
716B
330
1E
100
AcDbEntity
  8
躯体と製品
  6
Continuous
 62
     7
100
AcDbLine
 10
1632.918867623243
 20
954.5626294159037
 30
0.0
 11
1631.41886816921
 21
954.5626294159037
 31
0.0
  0
LINE
  5
716C
330
1E
100
AcDbEntity
  8
躯体と製品
  6
Continuous
 62
     7
100
AcDbLine
 10
1810.91886816921
 20
892.6705905784421
 30
0.0
 11
1810.91886816921
 21
891.1705905784421
 31
0.0
  0
LINE
  5
716D
330
1E
100
AcDbEntity
  8
躯体と製品
  6
Continuous
 62
     7
100
AcDbLine
 10
1792.91886816921
 20
892.6705905784421
 30
0.0
 11
1810.91886816921
 21
892.6705905784421
 31
0.0
  0
LINE
  5
716E
330
1E
100
AcDbEntity
  8
躯体と製品
  6
Continuous
 62
     7
100
AcDbLine
 10
1792.91886816921
 20
892.6705905784421
 30
0.0
 11
1792.91886816921
 21
891.1705905784421
 31
0.0
  0
ARC
  5
716F
330
1E
100
AcDbEntity
  8
躯体と製品
  6
Continuous
 62
     7
100
AcDbCircle
 10
1801.91886816921
 20
888.0594375388863
 30
0.0
 40
9.553418012635715
100
AcDbArc
 50
72.41204622604875
 51
107.5879537739512
  0
ARC
  5
7170
330
1E
100
AcDbEntity
  8
躯体と製品
  6
Continuous
 62
     7
100
AcDbCircle
 10
1797.588741150288
 20
895.057032803094
 30
0.0
 40
2.555822748428199
100
AcDbArc
 50
55.61575253203712
 51
124.3842474679628
  0
ARC
  5
7171
330
1E
100
AcDbEntity
  8
躯体と製品
  6
Continuous
 62
     7
100
AcDbCircle
 10
1806.248995188132
 20
895.057032803094
 30
0.0
 40
2.555822748428199
100
AcDbArc
 50
55.61575253203712
 51
124.3842474679628
  0
LINE
  5
7172
330
1E
100
AcDbEntity
  8
躯体と製品
  6
Continuous
 62
     7
100
AcDbLine
 10
1796.145365477314
 20
897.1662735641377
 30
0.0
 11
1796.145365477314
 21
892.6705905784421
 31
0.0
  0
LINE
  5
7173
330
1E
100
AcDbEntity
  8
躯体と製品
  6
Continuous
 62
     7
100
AcDbLine
 10
1797.01886816921
 20
897.670590578442
 30
0.0
 11
1796.145365477314
 21
897.1662735641377
 31
0.0
  0
LINE
  5
7174
330
1E
100
AcDbEntity
  8
躯体と製品
  6
Continuous
 62
     7
100
AcDbLine
 10
1797.01886816921
 20
897.670590578442
 30
0.0
 11
1806.81886816921
 21
897.670590578442
 31
0.0
  0
LINE
  5
7175
330
1E
100
AcDbEntity
  8
躯体と製品
  6
Continuous
 62
     7
100
AcDbLine
 10
1806.81886816921
 20
897.670590578442
 30
0.0
 11
1807.692370861106
 21
897.1662735641377
 31
0.0
  0
LINE
  5
7176
330
1E
100
AcDbEntity
  8
躯体と製品
  6
Continuous
 62
     7
100
AcDbLine
 10
1799.032116823262
 20
897.1662735641377
 30
0.0
 11
1799.032116823262
 21
892.6705905784421
 31
0.0
  0
LINE
  5
7177
330
1E
100
AcDbEntity
  8
躯体と製品
  6
Continuous
 62
     7
100
AcDbLine
 10
1804.805619515158
 20
897.1662735641377
 30
0.0
 11
1804.805619515158
 21
892.6705905784421
 31
0.0
  0
LINE
  5
7178
330
1E
100
AcDbEntity
  8
躯体と製品
  6
Continuous
 62
     7
100
AcDbLine
 10
1807.692370861106
 20
897.1662735641377
 30
0.0
 11
1807.692370861106
 21
892.6705905784421
 31
0.0
  0
LINE
  5
7179
330
1E
100
AcDbEntity
  8
躯体と製品
  6
Continuous
 62
     7
100
AcDbLine
 10
1804.462613886105
 20
897.8096969013332
 30
0.0
 11
1804.30812066301
 21
897.670590578442
 31
0.0
  0
LINE
  5
717A
330
1E
100
AcDbEntity
  8
躯体と製品
  6
Continuous
 62
     4
100
AcDbLine
 10
1804.158626440491
 20
902.8717838036074
 30
0.0
 11
1803.886043453939
 21
897.670590578442
 31
0.0
  0
LINE
  5
717B
330
1E
100
AcDbEntity
  8
躯体と製品
  6
Continuous
 62
     4
100
AcDbLine
 10
1799.30229101298
 20
903.1262935588168
 30
0.0
 11
1799.01636973535
 21
897.670590578442
 31
0.0
  0
LINE
  5
717C
330
1E
100
AcDbEntity
  8
躯体と製品
  6
Continuous
 62
     7
100
AcDbLine
 10
1798.878829613277
 20
897.670590578442
 30
0.0
 11
1798.470836677578
 21
898.123712638791
 31
0.0
  0
LINE
  5
717D
330
1E
100
AcDbEntity
  8
躯体と製品
  6
Continuous
 62
     7
100
AcDbLine
 10
1626.91886816921
 20
1004.262629415904
 30
0.0
 11
1651.91886816921
 21
1004.262629415904
 31
0.0
  0
LINE
  5
717E
330
1E
100
AcDbEntity
  8
躯体と製品
  6
Continuous
 62
     7
100
AcDbLine
 10
1644.11886816921
 20
1004.262629415904
 30
0.0
 11
1642.11886816921
 21
1004.262629415904
 31
0.0
  0
ARC
  5
717F
330
1E
100
AcDbEntity
  8
躯体と製品
  6
Continuous
 62
     7
100
AcDbCircle
 10
1644.11886816921
 20
1003.262629415904
 30
0.0
 40
1.0
100
AcDbArc
 50
0.0
 51
90.0
  0
ARC
  5
7180
330
1E
100
AcDbEntity
  8
躯体と製品
  6
Continuous
 62
     7
100
AcDbCircle
 10
1642.11886816921
 20
1003.262629415904
 30
0.0
 40
1.0
100
AcDbArc
 50
90.0
 51
180.0
  0
LINE
  5
7181
330
1E
100
AcDbEntity
  8
躯体と製品
  6
Continuous
 62
     7
100
AcDbLine
 10
1645.11886816921
 20
990.2626294159038
 30
0.0
 11
1645.11886816921
 21
1003.262629415904
 31
0.0
  0
LINE
  5
7182
330
1E
100
AcDbEntity
  8
躯体と製品
  6
Continuous
 62
     7
100
AcDbLine
 10
1641.11886816921
 20
999.5626294159038
 30
0.0
 11
1641.11886816921
 21
1003.262629415904
 31
0.0
  0
TEXT
  5
7187
330
1E
100
AcDbEntity
  8
寸法
 62
     7
100
AcDbText
 10
1761.41886816921
 20
975.7159414267194
 30
0.0
 40
5.0
  1
（キャップ幅）
100
AcDbText
  0
LINE
  5
718E
330
1E
100
AcDbEntity
  8
躯体と製品
  6
Continuous
 62
     7
100
AcDbLine
 10
1626.91886816921
 20
1004.262629415904
 30
0.0
 11
1626.91886816921
 21
756.6705905784421
 31
0.0
  0
LINE
  5
7193
330
1E
100
AcDbEntity
  8
躯体と製品
  6
Continuous
 62
     7
100
AcDbLine
 10
1627.91886816921
 20
989.2626294159038
 30
0.0
 11
1628.91886816921
 21
989.2626294159038
 31
0.0
  0
LINE
  5
7194
330
1E
100
AcDbEntity
  8
躯体と製品
  6
Continuous
 62
     4
100
AcDbLine
 10
1626.91886816921
 20
988.8863634621545
 30
0.0
 11
1627.91886816921
 21
987.8863634621549
 31
0.0
  0
LINE
  5
7195
330
1E
100
AcDbEntity
  8
躯体と製品
  6
Continuous
 62
     4
100
AcDbLine
 10
1626.91886816921
 20
987.4721498997812
 30
0.0
 11
1627.91886816921
 21
986.4721498997809
 31
0.0
  0
LINE
  5
7196
330
1E
100
AcDbEntity
  8
躯体と製品
  6
Continuous
 62
     4
100
AcDbLine
 10
1626.918868169211
 20
986.0579363374077
 30
0.0
 11
1627.918868169211
 21
985.0579363374075
 31
0.0
  0
LINE
  5
7197
330
1E
100
AcDbEntity
  8
躯体と製品
  6
Continuous
 62
     4
100
AcDbLine
 10
1626.91886816921
 20
984.6437227750369
 30
0.0
 11
1627.91886816921
 21
983.6437227750366
 31
0.0
  0
LINE
  5
7198
330
1E
100
AcDbEntity
  8
躯体と製品
  6
Continuous
 62
     4
100
AcDbLine
 10
1626.91886816921
 20
983.229509212663
 30
0.0
 11
1627.91886816921
 21
982.2295092126635
 31
0.0
  0
LINE
  5
7199
330
1E
100
AcDbEntity
  8
躯体と製品
  6
Continuous
 62
     4
100
AcDbLine
 10
1626.91886816921
 20
981.8152956502897
 30
0.0
 11
1627.91886816921
 21
980.8152956502897
 31
0.0
  0
LINE
  5
719A
330
1E
100
AcDbEntity
  8
躯体と製品
  6
Continuous
 62
     4
100
AcDbLine
 10
1626.91886816921
 20
980.4010820879167
 30
0.0
 11
1627.91886816921
 21
979.4010820879169
 31
0.0
  0
LINE
  5
719B
330
1E
100
AcDbEntity
  8
躯体と製品
  6
Continuous
 62
     4
100
AcDbLine
 10
1626.91886816921
 20
978.9868685255434
 30
0.0
 11
1627.91886816921
 21
977.9868685255436
 31
0.0
  0
LINE
  5
719C
330
1E
100
AcDbEntity
  8
躯体と製品
  6
Continuous
 62
     4
100
AcDbLine
 10
1626.91886816921
 20
977.5726549631697
 30
0.0
 11
1627.91886816921
 21
976.5726549631695
 31
0.0
  0
LINE
  5
719D
330
1E
100
AcDbEntity
  8
躯体と製品
  6
Continuous
 62
     4
100
AcDbLine
 10
1626.91886816921
 20
976.1584414007966
 30
0.0
 11
1627.91886816921
 21
975.1584414007963
 31
0.0
  0
LINE
  5
719E
330
1E
100
AcDbEntity
  8
躯体と製品
  6
Continuous
 62
     4
100
AcDbLine
 10
1626.91886816921
 20
974.7442278384234
 30
0.0
 11
1627.91886816921
 21
973.744227838423
 31
0.0
  0
LINE
  5
719F
330
1E
100
AcDbEntity
  8
躯体と製品
  6
Continuous
 62
     4
100
AcDbLine
 10
1626.91886816921
 20
973.3300142760516
 30
0.0
 11
1627.91886816921
 21
972.3300142760512
 31
0.0
  0
LINE
  5
71A0
330
1E
100
AcDbEntity
  8
躯体と製品
  6
Continuous
 62
     4
100
AcDbLine
 10
1626.918868169211
 20
971.9158007136778
 30
0.0
 11
1627.918868169211
 21
970.9158007136778
 31
0.0
  0
LINE
  5
71A1
330
1E
100
AcDbEntity
  8
躯体と製品
  6
Continuous
 62
     4
100
AcDbLine
 10
1626.918868169211
 20
970.5015871513046
 30
0.0
 11
1627.918868169211
 21
969.5015871513048
 31
0.0
  0
LINE
  5
71A2
330
1E
100
AcDbEntity
  8
躯体と製品
  6
Continuous
 62
     4
100
AcDbLine
 10
1626.918868169211
 20
969.087373588931
 30
0.0
 11
1627.91886816921
 21
968.0873735889313
 31
0.0
  0
LINE
  5
71A3
330
1E
100
AcDbEntity
  8
躯体と製品
  6
Continuous
 62
     4
100
AcDbLine
 10
1626.918868169211
 20
967.6731600265581
 30
0.0
 11
1627.91886816921
 21
966.6731600265581
 31
0.0
  0
LINE
  5
71A4
330
1E
100
AcDbEntity
  8
躯体と製品
  6
Continuous
 62
     4
100
AcDbLine
 10
1626.918868169211
 20
966.2589464641847
 30
0.0
 11
1627.918868169211
 21
965.2589464641847
 31
0.0
  0
LINE
  5
71A5
330
1E
100
AcDbEntity
  8
躯体と製品
  6
Continuous
 62
     4
100
AcDbLine
 10
1626.918868169211
 20
964.8447329018114
 30
0.0
 11
1627.918868169211
 21
963.8447329018111
 31
0.0
  0
LINE
  5
71A6
330
1E
100
AcDbEntity
  8
躯体と製品
  6
Continuous
 62
     4
100
AcDbLine
 10
1626.91886816921
 20
963.4305193394407
 30
0.0
 11
1627.91886816921
 21
962.4305193394407
 31
0.0
  0
LINE
  5
71A7
330
1E
100
AcDbEntity
  8
躯体と製品
  6
Continuous
 62
     4
100
AcDbLine
 10
1626.918868169211
 20
962.0163057770666
 30
0.0
 11
1627.91886816921
 21
961.0163057770666
 31
0.0
  0
LINE
  5
71A8
330
1E
100
AcDbEntity
  8
躯体と製品
  6
Continuous
 62
     4
100
AcDbLine
 10
1626.918868169211
 20
960.6020922146935
 30
0.0
 11
1627.91886816921
 21
959.6020922146937
 31
0.0
  0
LINE
  5
71A9
330
1E
100
AcDbEntity
  8
躯体と製品
  6
Continuous
 62
     3
100
AcDbLine
 10
1626.91886816921
 20
989.2626294159038
 30
0.0
 11
1626.91886816921
 21
959.2626294159037
 31
0.0
  0
LINE
  5
71AA
330
1E
100
AcDbEntity
  8
躯体と製品
  6
Continuous
 62
     3
100
AcDbLine
 10
1626.91886816921
 20
959.2626294159037
 30
0.0
 11
1627.91886816921
 21
959.2626294159037
 31
0.0
  0
LINE
  5
71AB
330
1E
100
AcDbEntity
  8
躯体と製品
  6
Continuous
 62
     3
100
AcDbLine
 10
1627.91886816921
 20
959.2626294159037
 30
0.0
 11
1627.91886816921
 21
989.2626294159038
 31
0.0
  0
LINE
  5
71AC
330
1E
100
AcDbEntity
  8
躯体と製品
  6
Continuous
 62
     3
100
AcDbLine
 10
1627.91886816921
 20
989.2626294159038
 30
0.0
 11
1626.91886816921
 21
989.2626294159038
 31
0.0
  0
LINE
  5
71AD
330
1E
100
AcDbEntity
  8
躯体と製品
  6
Continuous
 62
     7
100
AcDbLine
 10
1628.91886816921
 20
913.0626294159037
 30
0.0
 11
1628.91886816921
 21
989.2626294159038
 31
0.0
  0
LINE
  5
71AE
330
1E
100
AcDbEntity
  8
躯体と製品
  6
Continuous
 62
     7
100
AcDbLine
 10
1627.91886816921
 20
913.0189684729955
 30
0.0
 11
1627.91886816921
 21
959.2626294159037
 31
0.0
  0
LINE
  5
71BD
330
1E
100
AcDbEntity
  8
躯体と製品
  6
Continuous
 62
     7
100
AcDbLine
 10
1651.91886816921
 20
1079.262629415904
 30
0.0
 11
1651.91886816921
 21
1004.262629415904
 31
0.0
  0
ARC
  5
71C5
330
1E
100
AcDbEntity
  8
躯体と製品
  6
Continuous
 62
     7
100
AcDbCircle
 10
1679.54386816921
 20
996.7626294159037
 30
0.0
 40
28.625
100
AcDbArc
 50
164.8107132628162
 51
195.1892867371838
  0
LINE
  5
71C8
330
1E
100
AcDbEntity
  8
躯体と製品
  6
Continuous
 62
     4
100
AcDbLine
 10
1641.259258122988
 20
1003.773580067565
 30
0.0
 11
1642.52791218764
 21
998.9906036261457
 31
0.0
  0
LINE
  5
71C9
330
1E
100
AcDbEntity
  8
躯体と製品
  6
Continuous
 62
     4
100
AcDbLine
 10
1643.584287675718
 20
995.0079426206391
 30
0.0
 11
1644.978478215433
 21
989.7516787642423
 31
0.0
  0
LINE
  5
71CA
330
1E
100
AcDbEntity
  8
躯体と製品
  6
Continuous
 62
     4
100
AcDbLine
 10
1645.11886816921
 20
1002.871583118812
 30
0.0
 11
1646.509914466302
 21
1004.262629415904
 31
0.0
  0
LINE
  5
71CB
330
1E
100
AcDbEntity
  8
躯体と製品
  6
Continuous
 62
     4
100
AcDbLine
 10
1645.11886816921
 20
1000.043155994065
 30
0.0
 11
1649.338341591049
 21
1004.262629415904
 31
0.0
  0
LINE
  5
71CC
330
1E
100
AcDbEntity
  8
躯体と製品
  6
Continuous
 62
     4
100
AcDbLine
 10
1645.11886816921
 20
997.2147288693188
 30
0.0
 11
1651.829507237096
 21
1003.925367937205
 31
0.0
  0
LINE
  5
71CD
330
1E
100
AcDbEntity
  8
躯体と製品
  6
Continuous
 62
     4
100
AcDbLine
 10
1645.11886816921
 20
994.3863017445719
 30
0.0
 11
1651.153612589304
 21
1000.421046164666
 31
0.0
  0
LINE
  5
71CE
330
1E
100
AcDbEntity
  8
躯体と製品
  6
Continuous
 62
     4
100
AcDbLine
 10
1645.11886816921
 20
991.5578746198253
 30
0.0
 11
1650.925189965201
 21
997.3641964158163
 31
0.0
  0
LINE
  5
71CF
330
1E
100
AcDbEntity
  8
躯体と製品
  6
Continuous
 62
     4
100
AcDbLine
 10
1645.652050090036
 20
989.2626294159038
 30
0.0
 11
1650.999887683381
 21
994.6104670092497
 31
0.0
  0
LINE
  5
71D0
330
1E
100
AcDbEntity
  8
躯体と製品
  6
Continuous
 62
     4
100
AcDbLine
 10
1648.480477214782
 20
989.2626294159038
 30
0.0
 11
1651.303528635386
 21
992.0856808365076
 31
0.0
  0
TEXT
  5
71D3
330
1E
100
AcDbEntity
  8
図枠
 62
     6
100
AcDbText
 10
1385.465376878345
 20
1074.830028253118
 30
0.0
 40
10.0
  1
◇ステンレス１００タイプ（１００ＦＹＫ－Ｓ）
100
AcDbText
  0
TEXT
  5
71D4
330
1E
100
AcDbEntity
  8
図枠
 62
     6
100
AcDbText
 10
1380.792085224287
 20
1057.24917084085
 30
0.0
 40
10.0
  1
　　屋根－壁（ストレート壁）
100
AcDbText
  0
TEXT
  5
71D5
330
1E
100
AcDbEntity
  8
図枠
 62
     6
100
AcDbText
 10
1380.792085224287
 20
1037.950861662106
 30
0.0
 40
10.0
  1
　　Ｓ＝１／２
100
AcDbText
  0
DIMENSION
  5
71E0
330
1E
100
AcDbEntity
  8
寸法
  6
Continuous
100
AcDbDimension
  2
*D4
 10
1661.11886816921
 20
1049.262629415904
 30
0.0
 11
1644.51886816921
 21
1052.762629415904
 31
0.0
 70
    32
  1
33.2
 71
     5
 42
33.20000000000005
  3
AutoCAD
100
AcDbAlignedDimension
 13
1627.91886816921
 23
991.2626294159037
 33
0.0
 14
1661.11886816921
 24
991.2626294159037
 34
0.0
100
AcDbRotatedDimension
  0
DIMENSION
  5
71ED
330
1E
100
AcDbEntity
  8
寸法
  6
Continuous
100
AcDbDimension
  2
*D5
 10
1661.11886816921
 20
1034.262629415904
 30
0.0
 11
1651.11886816921
 21
1037.762629415904
 31
0.0
 70
    32
 71
     5
 42
20.0
  3
AutoCAD
100
AcDbAlignedDimension
 13
1641.11886816921
 23
1006.262629415904
 33
0.0
 14
1661.11886816921
 24
991.2626294159037
 34
0.0
100
AcDbRotatedDimension
  0
DIMENSION
  5
71FA
330
1E
100
AcDbEntity
  8
寸法
  6
Continuous
100
AcDbDimension
  2
*D6
 10
1927.91886816921
 20
1064.262629415904
 30
0.0
 11
1777.91886816921
 21
1067.762629415904
 31
0.0
 70
    32
  1
W
 71
     5
 42
300.0
  3
AutoCAD
100
AcDbAlignedDimension
 13
1627.91886816921
 23
991.2626294159037
 33
0.0
 14
1927.91886816921
 24
936.2459369677669
 34
0.0
100
AcDbRotatedDimension
  0
DIMENSION
  5
7207
330
1E
100
AcDbEntity
  8
寸法
  6
Continuous
100
AcDbDimension
  2
*D7
 10
1696.11886816921
 20
989.2626294159038
 30
0.0
 11
1692.61886816921
 21
996.7626294159041
 31
0.0
 70
    32
 71
     5
 42
15.0
  3
AutoCAD
100
AcDbAlignedDimension
 13
1653.91886816921
 23
1004.262629415904
 33
0.0
 14
1663.11886816921
 24
989.2626294159038
 34
0.0
 50
90.0
100
AcDbRotatedDimension
  0
DIMENSION
  5
7214
330
1E
100
AcDbEntity
  8
寸法
  6
Continuous
100
AcDbDimension
  2
*D8
 10
1696.11886816921
 20
953.2626294159038
 30
0.0
 11
1692.61886816921
 21
971.262629415904
 31
0.0
 70
    32
 71
     5
 42
36.0
  3
AutoCAD
100
AcDbAlignedDimension
 13
1663.11886816921
 23
989.2626294159038
 33
0.0
 14
1663.11886816921
 24
953.2626294159038
 34
0.0
 50
90.0
100
AcDbRotatedDimension
  0
DIMENSION
  5
7221
330
1E
100
AcDbEntity
  8
寸法
  6
Continuous
100
AcDbDimension
  2
*D9
 10
1927.91886816921
 20
982.2626294159038
 30
0.0
 11
1785.41886816921
 21
985.7626294159038
 31
0.0
 70
    32
  1
A
 71
     5
 42
285.0
  3
AutoCAD
100
AcDbAlignedDimension
 13
1642.91886816921
 23
982.2626294159038
 33
0.0
 14
1927.91886816921
 24
982.2626294159038
 34
0.0
100
AcDbRotatedDimension
  0
DIMENSION
  5
722C
330
1E
100
AcDbEntity
  8
寸法
  6
Continuous
100
AcDbDimension
  2
*D10
 10
1987.91886816921
 20
844.2459369677669
 30
0.0
 11
1984.41886816921
 21
889.2459369677673
 31
0.0
 70
    32
 71
     5
 42
90.0
  3
AutoCAD
100
AcDbAlignedDimension
 13
1929.91886816921
 23
934.2459369677669
 33
0.0
 14
1929.91886816921
 24
844.2459369677669
 34
0.0
 50
90.0
100
AcDbRotatedDimension
  0
DIMENSION
  5
7239
330
1E
100
AcDbEntity
  8
寸法
  6
Continuous
100
AcDbDimension
  2
*D11
 10
1967.91886816921
 20
844.2459369677669
 30
0.0
 11
1964.41886816921
 21
865.4582637731049
 31
0.0
 70
    32
  1
44
 71
     5
 42
42.42465361067525
  3
AutoCAD
100
AcDbAlignedDimension
 13
1855.622594647836
 23
886.6705905784423
 33
0.0
 14
1929.91886816921
 24
844.2459369677669
 34
0.0
 50
90.0
100
AcDbRotatedDimension
  0
DIMENSION
  5
7246
330
1E
100
AcDbEntity
  8
寸法
  6
Continuous
100
AcDbDimension
  2
*D12
 10
1851.918868169209
 20
771.670590578442
 30
0.0
 11
1889.91886816921
 21
775.170590578442
 31
0.0
 70
    32
  1
75≦
 71
     5
 42
76.00000000000068
  3
AutoCAD
100
AcDbAlignedDimension
 13
1927.91886816921
 23
842.2459369677669
 33
0.0
 14
1851.918868169209
 24
771.670590578442
 34
0.0
100
AcDbRotatedDimension
  0
DIMENSION
  5
725F
330
1E
100
AcDbEntity
  8
寸法
  6
Continuous
100
AcDbDimension
  2
*D13
 10
1851.91886816921
 20
826.6705905784421
 30
0.0
 11
1826.91886816921
 21
830.1705905784421
 31
0.0
 70
    32
 71
     5
 42
50.0
  3
AutoCAD
100
AcDbAlignedDimension
 13
1801.91886816921
 23
826.6705905784421
 33
0.0
 14
1851.91886816921
 24
826.6705905784421
 34
0.0
100
AcDbRotatedDimension
  0
DIMENSION
  5
726A
330
1E
100
AcDbEntity
  8
寸法
  6
Continuous
100
AcDbDimension
  2
*D14
 10
1551.91886816921
 20
1004.262629415904
 30
0.0
 11
1548.41886816921
 21
945.4666099971731
 31
0.0
 70
    32
  1
E
 71
     5
 42
117.5920388374616
  3
AutoCAD
100
AcDbAlignedDimension
 13
1723.203401550561
 23
886.6705905784423
 33
0.0
 14
1624.91886816921
 24
1004.262629415904
 34
0.0
 50
90.0
100
AcDbRotatedDimension
  0
DIMENSION
  5
7277
330
1E
100
AcDbEntity
  8
寸法
  6
Continuous
100
AcDbDimension
  2
*D15
 10
1571.91886816921
 20
886.6705905784423
 30
0.0
 11
1568.41886816921
 21
916.1166099971731
 31
0.0
 70
    32
  1
D
 71
     5
 42
58.89203883746154
  3
AutoCAD
100
AcDbAlignedDimension
 13
1571.91886816921
 23
945.5626294159037
 33
0.0
 14
1637.561134859886
 24
886.6705905784423
 34
0.0
 50
90.0
100
AcDbRotatedDimension
  0
DIMENSION
  5
7283
330
1E
100
AcDbEntity
  8
寸法
  6
Continuous
100
AcDbDimension
  2
*D16
 10
1726.918868169209
 20
771.670590578442
 30
0.0
 11
1676.91886816921
 21
775.170590578442
 31
0.0
 70
    32
 71
     5
 42
99.99999999999932
  3
AutoCAD
100
AcDbAlignedDimension
 13
1626.91886816921
 23
771.670590578442
 33
0.0
 14
1726.918868169209
 24
771.670590578442
 34
0.0
100
AcDbRotatedDimension
  0
DIMENSION
  5
728E
330
1E
100
AcDbEntity
  8
寸法
  6
Continuous
100
AcDbDimension
  2
*D17
 10
1851.918868169211
 20
771.670590578442
 30
0.0
 11
1789.41886816921
 21
775.170590578442
 31
0.0
 70
    32
  1
≦Ｃ
 71
     5
 42
125.0000000000013
  3
AutoCAD
100
AcDbAlignedDimension
 13
1726.918868169209
 23
771.670590578442
 33
0.0
 14
1851.918868169211
 24
771.670590578442
 34
0.0
100
AcDbRotatedDimension
  0
ENDSEC
  0
SECTION
  2
OBJECTS
  0
DICTIONARY
  5
C
330
0
100
AcDbDictionary
281
     1
  3
ACAD_COLOR
350
6779
  3
ACAD_GROUP
350
D
  3
ACAD_LAYOUT
350
19
  3
ACAD_MATERIAL
350
6778
  3
ACAD_MLINESTYLE
350
16
  3
ACAD_PLOTSETTINGS
350
18
  3
ACAD_PLOTSTYLENAME
350
E
  3
ACAD_TABLESTYLE
350
677A
  3
ACDBHEADERROUNDTRIPXREC
350
72E6
  3
AcDbVariableDictionary
350
169
  0
DICTIONARY
  5
175
330
2
100
AcDbDictionary
280
     1
281
     1
  3
ACAD_LAYERFILTERS
360
71DF
  3
ACAD_LAYERSTATES
360
176
  3
ACLYDICTIONARY
360
71DE
  0
DICTIONARY
  5
28B
330
1E
100
AcDbDictionary
280
     1
281
     1
  3
ACAD_LAYOUTSELFREF
360
6771
  0
DICTIONARY
  5
28D
330
1A
100
AcDbDictionary
280
     1
281
     1
  3
ACAD_LAYOUTSELFREF
360
6770
  0
DICTIONARY
  5
6779
102
{ACAD_REACTORS
330
C
102
}
330
C
100
AcDbDictionary
281
     1
  0
DICTIONARY
  5
D
102
{ACAD_REACTORS
330
C
102
}
330
C
100
AcDbDictionary
281
     1
  0
DICTIONARY
  5
19
102
{ACAD_REACTORS
330
C
102
}
330
C
100
AcDbDictionary
281
     1
  3
Model
350
21
  3
ﾚｲｱｳﾄ1
350
1D
  0
DICTIONARY
  5
6778
102
{ACAD_REACTORS
330
C
102
}
330
C
100
AcDbDictionary
281
     1
  0
DICTIONARY
  5
16
102
{ACAD_REACTORS
330
C
102
}
330
C
100
AcDbDictionary
281
     1
  3
Standard
350
17
  0
DICTIONARY
  5
18
102
{ACAD_REACTORS
330
C
102
}
330
C
100
AcDbDictionary
281
     1
  0
ACDBDICTIONARYWDFLT
  5
E
102
{ACAD_REACTORS
330
C
102
}
330
C
100
AcDbDictionary
281
     1
  3
Normal
350
F
100
AcDbDictionaryWithDefault
340
F
1001
ACAD
1000
TREAT_AS_HARD
1070
     0
1000
TREAT_AS_HARD
1070
     0
1000
TREAT_AS_HARD
1070
     0
1000
TREAT_AS_HARD
1070
     0
1000
TREAT_AS_HARD
1070
     0
1000
TREAT_AS_HARD
1070
     0
1000
TREAT_AS_HARD
1070
     0
1000
TREAT_AS_HARD
1070
     0
1000
TREAT_AS_HARD
1070
     0
1000
TREAT_AS_HARD
1070
     0
1000
TREAT_AS_HARD
1070
     0
1000
TREAT_AS_HARD
1070
     0
1000
TREAT_AS_HARD
1070
     0
1000
TREAT_AS_HARD
1070
     0
1000
TREAT_AS_HARD
1070
     0
1000
TREAT_AS_HARD
1070
     0
1000
TREAT_AS_HARD
1070
     0
1000
TREAT_AS_HARD
1070
     0
1000
TREAT_AS_HARD
1070
     0
1000
TREAT_AS_HARD
1070
     0
1000
TREAT_AS_HARD
1070
     0
1000
TREAT_AS_HARD
1070
     0
1000
TREAT_AS_HARD
1070
     0
1000
TREAT_AS_HARD
1070
     0
1000
TREAT_AS_HARD
1070
     0
1000
TREAT_AS_HARD
1070
     0
  0
DICTIONARY
  5
677A
102
{ACAD_REACTORS
330
C
102
}
330
C
100
AcDbDictionary
281
     1
  3
Standard
350
677B
  0
DICTIONARY
  5
72E6
102
{ACAD_REACTORS
330
C
102
}
330
C
100
AcDbDictionary
281
     1
  0
DICTIONARY
  5
169
102
{ACAD_REACTORS
330
C
102
}
330
C
100
AcDbDictionary
281
     1
  3
CTABLESTYLE
350
6782
  3
DIMASSOC
350
16A
  3
PROJECTNAME
350
72E4
  0
DICTIONARY
  5
71DF
102
{ACAD_REACTORS
330
175
102
}
330
175
100
AcDbDictionary
281
     1
  0
DICTIONARY
  5
176
102
{ACAD_REACTORS
330
175
102
}
330
175
100
AcDbDictionary
281
     1
  3
ACAD
350
177
  0
DICTIONARY
  5
71DE
102
{ACAD_REACTORS
330
175
102
}
330
175
100
AcDbDictionary
281
     1
1001
ACAD
1000
<All
  0
XRECORD
  5
6771
102
{ACAD_REACTORS
330
28B
102
}
330
28B
100
AcDbXrecord
280
     1
340
1E
  0
XRECORD
  5
6770
102
{ACAD_REACTORS
330
28D
102
}
330
28D
100
AcDbXrecord
280
     1
340
1A
  0
LAYOUT
  5
21
102
{ACAD_XDICTIONARY
360
72E9
102
}
102
{ACAD_REACTORS
330
19
102
}
330
19
100
AcDbPlotSettings
  1

  2
\\MEISEI-1\EPSON Stylus Photo EX3
  4

  6

 40
0.0
 41
0.0
 42
0.0
 43
0.0
 44
0.0
 45
0.0
 46
0.0
 47
0.0
 48
0.0
 49
0.0
140
0.0
141
0.0
142
1.0
143
1.0
 70
  1712
 72
     0
 73
     0
 74
     0
  7

 75
     0
147
1.0
148
0.0
149
0.0
100
AcDbLayout
  1
Model
 70
     1
 71
     0
 10
0.0
 20
0.0
 11
12.0
 21
9.0
 12
0.0
 22
0.0
 32
0.0
 14
0.0
 24
0.0
 34
0.0
 15
0.0
 25
0.0
 35
0.0
146
0.0
 13
0.0
 23
0.0
 33
0.0
 16
1.0
 26
0.0
 36
0.0
 17
0.0
 27
1.0
 37
0.0
 76
     0
330
1E
  0
LAYOUT
  5
1D
102
{ACAD_XDICTIONARY
360
72E7
102
}
102
{ACAD_REACTORS
330
19
102
}
330
19
100
AcDbPlotSettings
  1

  2
\\MEISEI-1\EPSON Stylus Photo EX3
  4

  6

 40
0.0
 41
0.0
 42
0.0
 43
0.0
 44
0.0
 45
0.0
 46
0.0
 47
0.0
 48
0.0
 49
0.0
140
0.0
141
0.0
142
1.0
143
1.0
 70
   688
 72
     0
 73
     0
 74
     5
  7

 75
    16
147
1.0
148
0.0
149
0.0
100
AcDbLayout
  1
ﾚｲｱｳﾄ1
 70
     1
 71
     1
 10
0.0
 20
0.0
 11
12.0
 21
9.0
 12
0.0
 22
0.0
 32
0.0
 14
1.000000000000000E+20
 24
1.000000000000000E+20
 34
1.000000000000000E+20
 15
-1.000000000000000E+20
 25
-1.000000000000000E+20
 35
-1.000000000000000E+20
146
0.0
 13
0.0
 23
0.0
 33
0.0
 16
1.0
 26
0.0
 36
0.0
 17
0.0
 27
1.0
 37
0.0
 76
     0
330
1A
  0
MLINESTYLE
  5
17
102
{ACAD_REACTORS
330
16
102
}
330
16
100
AcDbMlineStyle
  2
STANDARD
 70
     0
  3

 62
   256
 51
90.0
 52
90.0
 71
     2
 49
0.5
 62
   256
  6
BYLAYER
 49
-0.5
 62
   256
  6
BYLAYER
  0
ACDBPLACEHOLDER
  5
F
102
{ACAD_REACTORS
330
E
102
}
330
E
  0
TABLESTYLE
  5
677B
102
{ACAD_REACTORS
330
677A
102
}
330
677A
100
AcDbTableStyle
  3
Standard
 70
     0
 71
     0
 40
0.06
 41
0.06
280
     0
281
     0
  7
STANDARD
140
0.18
170
     2
 62
     0
 63
     7
283
     0
274
    -2
284
     1
 64
     0
275
    -2
285
     1
 65
     0
276
    -2
286
     1
 66
     0
277
    -2
287
     1
 67
     0
278
    -2
288
     1
 68
     0
279
    -2
289
     1
 69
     0
  7
STANDARD
140
0.25
170
     5
 62
     0
 63
     7
283
     0
274
    -2
284
     1
 64
     0
275
    -2
285
     1
 65
     0
276
    -2
286
     1
 66
     0
277
    -2
287
     1
 67
     0
278
    -2
288
     1
 68
     0
279
    -2
289
     1
 69
     0
  7
STANDARD
140
0.18
170
     5
 62
     0
 63
     7
283
     0
274
    -2
284
     1
 64
     0
275
    -2
285
     1
 65
     0
276
    -2
286
     1
 66
     0
277
    -2
287
     1
 67
     0
278
    -2
288
     1
 68
     0
279
    -2
289
     1
 69
     0
  0
DICTIONARYVAR
  5
6782
102
{ACAD_REACTORS
330
169
102
}
330
169
100
DictionaryVariables
280
     0
  1
STANDARD
  0
DICTIONARYVAR
  5
16A
102
{ACAD_REACTORS
330
169
102
}
330
169
100
DictionaryVariables
280
     0
  1
1
  0
DICTIONARYVAR
  5
72E4
102
{ACAD_REACTORS
330
169
102
}
330
169
100
DictionaryVariables
280
     0
  1

  0
XRECORD
  5
177
102
{ACAD_REACTORS
330
176
102
}
330
176
100
AcDbXrecord
280
     1
 91
      476
330
179
 90
        8
 62
     7
370
    -3
331
15
  1
Color_7
330
178
 90
        8
 62
     7
370
    -3
331
15
  1
Color_7
330
128
 90
        0
 62
     7
370
    -3
331
15
  1
Color_7
330
10
 90
        8
 62
     7
370
    -3
331
15
  1
Color_7
  0
DICTIONARY
  5
72E9
330
21
100
AcDbDictionary
280
     1
281
     1
  3
ACAD_XREC_ROUNDTRIP
360
72EA
  0
DICTIONARY
  5
72E7
330
1D
100
AcDbDictionary
280
     1
281
     1
  3
ACAD_XREC_ROUNDTRIP
360
72E8
  0
XRECORD
  5
72EA
102
{ACAD_REACTORS
330
72E9
102
}
330
72E9
100
AcDbXrecord
280
     1
102
SHADEPLOT
 70
     0
102
SHADEPLOTRESLEVEL
 70
     2
102
SHADEPLOTCUSTOMDPI
 70
   300
  0
XRECORD
  5
72E8
102
{ACAD_REACTORS
330
72E7
102
}
330
72E7
100
AcDbXrecord
280
     1
102
SHADEPLOT
 70
     0
102
SHADEPLOTRESLEVEL
 70
     2
102
SHADEPLOTCUSTOMDPI
 70
   300
  0
ENDSEC
  0
EOF
