  0
SECTION
  2
HEADER
  9
$ACADVER
  1
AC1015
  9
$ACADMAINTVER
 70
    20
  9
$DWGCODEPAGE
  3
ANSI_932
  9
$INSBASE
 10
0.0
 20
0.0
 30
0.0
  9
$EXTMIN
 10
1397.952712835989
 20
417.5166750674984
 30
-0.0000000349181948
  9
$EXTMAX
 10
2222.25246583418
 20
993.6526883146321
 30
0.0000000814935746
  9
$LIMMIN
 10
0.0
 20
0.0
  9
$LIMMAX
 10
420.0
 20
297.0
  9
$ORTHOMODE
 70
     0
  9
$REGENMODE
 70
     1
  9
$FILLMODE
 70
     1
  9
$QTEXTMODE
 70
     0
  9
$MIRRTEXT
 70
     1
  9
$LTSCALE
 40
1.0
  9
$ATTMODE
 70
     1
  9
$TEXTSIZE
 40
5.0
  9
$TRACEWID
 40
0.05
  9
$TEXTSTYLE
  7
ACAD
  9
$CLAYER
  8
0
  9
$CELTYPE
  6
CONTINUOUS
  9
$CECOLOR
 62
   256
  9
$CELTSCALE
 40
1.0
  9
$DISPSILH
 70
     0
  9
$DIMSCALE
 40
1.0
  9
$DIMASZ
 40
1.0
  9
$DIMEXO
 40
0.0
  9
$DIMDLI
 40
0.38
  9
$DIMRND
 40
0.0
  9
$DIMDLE
 40
0.0
  9
$DIMEXE
 40
0.0
  9
$DIMTP
 40
0.0
  9
$DIMTM
 40
0.0
  9
$DIMTXT
 40
5.0
  9
$DIMCEN
 40
0.09
  9
$DIMTSZ
 40
0.0
  9
$DIMTOL
 70
     0
  9
$DIMLIM
 70
     0
  9
$DIMTIH
 70
     0
  9
$DIMTOH
 70
     1
  9
$DIMSE1
 70
     0
  9
$DIMSE2
 70
     0
  9
$DIMTAD
 70
     1
  9
$DIMZIN
 70
     0
  9
$DIMBLK
  1
Dot
  9
$DIMASO
 70
     1
  9
$DIMSHO
 70
     1
  9
$DIMPOST
  1

  9
$DIMAPOST
  1

  9
$DIMALT
 70
     0
  9
$DIMALTD
 70
     2
  9
$DIMALTF
 40
25.4
  9
$DIMLFAC
 40
1.0
  9
$DIMTOFL
 70
     0
  9
$DIMTVP
 40
0.0
  9
$DIMTIX
 70
     1
  9
$DIMSOXD
 70
     0
  9
$DIMSAH
 70
     0
  9
$DIMBLK1
  1

  9
$DIMBLK2
  1

  9
$DIMSTYLE
  2
AutoCAD
  9
$DIMCLRD
 70
     4
  9
$DIMCLRE
 70
     4
  9
$DIMCLRT
 70
     3
  9
$DIMTFAC
 40
1.0
  9
$DIMGAP
 40
1.0
  9
$DIMJUST
 70
     0
  9
$DIMSD1
 70
     0
  9
$DIMSD2
 70
     0
  9
$DIMTOLJ
 70
     1
  9
$DIMTZIN
 70
     0
  9
$DIMALTZ
 70
     0
  9
$DIMALTTZ
 70
     0
  9
$DIMUPT
 70
     0
  9
$DIMDEC
 70
     0
  9
$DIMTDEC
 70
     0
  9
$DIMALTU
 70
     2
  9
$DIMALTTD
 70
     2
  9
$DIMTXSTY
  7
ACAD
  9
$DIMAUNIT
 70
     0
  9
$DIMADEC
 70
     0
  9
$DIMALTRND
 40
0.0
  9
$DIMAZIN
 70
     0
  9
$DIMDSEP
 70
    46
  9
$DIMATFIT
 70
     0
  9
$DIMFRAC
 70
     0
  9
$DIMLDRBLK
  1
None
  9
$DIMLUNIT
 70
     2
  9
$DIMLWD
 70
    -2
  9
$DIMLWE
 70
    -2
  9
$DIMTMOVE
 70
     0
  9
$LUNITS
 70
     2
  9
$LUPREC
 70
     4
  9
$SKETCHINC
 40
0.1
  9
$FILLETRAD
 40
0.0
  9
$AUNITS
 70
     0
  9
$AUPREC
 70
     0
  9
$MENU
  1
.
  9
$ELEVATION
 40
0.0
  9
$PELEVATION
 40
0.0
  9
$THICKNESS
 40
0.0
  9
$LIMCHECK
 70
     0
  9
$CHAMFERA
 40
0.0
  9
$CHAMFERB
 40
0.0
  9
$CHAMFERC
 40
0.0
  9
$CHAMFERD
 40
0.0
  9
$SKPOLY
 70
     0
  9
$TDCREATE
 40
2454316.693457674
  9
$TDUCREATE
 40
2454316.318457674
  9
$TDUPDATE
 40
2454733.690122605
  9
$TDUUPDATE
 40
2454733.315122604
  9
$TDINDWG
 40
0.2497267014
  9
$TDUSRTIMER
 40
0.2497267014
  9
$USRTIMER
 70
     1
  9
$ANGBASE
 50
0.0
  9
$ANGDIR
 70
     0
  9
$PDMODE
 70
     0
  9
$PDSIZE
 40
0.0
  9
$PLINEWID
 40
0.0
  9
$SPLFRAME
 70
     0
  9
$SPLINETYPE
 70
     6
  9
$SPLINESEGS
 70
     8
  9
$HANDSEED
  5
72FF
  9
$SURFTAB1
 70
     6
  9
$SURFTAB2
 70
     6
  9
$SURFTYPE
 70
     6
  9
$SURFU
 70
     6
  9
$SURFV
 70
     6
  9
$UCSBASE
  2

  9
$UCSNAME
  2

  9
$UCSORG
 10
0.0
 20
0.0
 30
0.0
  9
$UCSXDIR
 10
1.0
 20
0.0
 30
0.0
  9
$UCSYDIR
 10
0.0
 20
1.0
 30
0.0
  9
$UCSORTHOREF
  2

  9
$UCSORTHOVIEW
 70
     0
  9
$UCSORGTOP
 10
0.0
 20
0.0
 30
0.0
  9
$UCSORGBOTTOM
 10
0.0
 20
0.0
 30
0.0
  9
$UCSORGLEFT
 10
0.0
 20
0.0
 30
0.0
  9
$UCSORGRIGHT
 10
0.0
 20
0.0
 30
0.0
  9
$UCSORGFRONT
 10
0.0
 20
0.0
 30
0.0
  9
$UCSORGBACK
 10
0.0
 20
0.0
 30
0.0
  9
$PUCSBASE
  2

  9
$PUCSNAME
  2

  9
$PUCSORG
 10
0.0
 20
0.0
 30
0.0
  9
$PUCSXDIR
 10
1.0
 20
0.0
 30
0.0
  9
$PUCSYDIR
 10
0.0
 20
1.0
 30
0.0
  9
$PUCSORTHOREF
  2

  9
$PUCSORTHOVIEW
 70
     0
  9
$PUCSORGTOP
 10
0.0
 20
0.0
 30
0.0
  9
$PUCSORGBOTTOM
 10
0.0
 20
0.0
 30
0.0
  9
$PUCSORGLEFT
 10
0.0
 20
0.0
 30
0.0
  9
$PUCSORGRIGHT
 10
0.0
 20
0.0
 30
0.0
  9
$PUCSORGFRONT
 10
0.0
 20
0.0
 30
0.0
  9
$PUCSORGBACK
 10
0.0
 20
0.0
 30
0.0
  9
$USERI1
 70
     0
  9
$USERI2
 70
     0
  9
$USERI3
 70
     0
  9
$USERI4
 70
     0
  9
$USERI5
 70
     0
  9
$USERR1
 40
0.0
  9
$USERR2
 40
0.0
  9
$USERR3
 40
0.0
  9
$USERR4
 40
0.0
  9
$USERR5
 40
0.0
  9
$WORLDVIEW
 70
     1
  9
$SHADEDGE
 70
     3
  9
$SHADEDIF
 70
    70
  9
$TILEMODE
 70
     1
  9
$MAXACTVP
 70
    48
  9
$PINSBASE
 10
0.0
 20
0.0
 30
0.0
  9
$PLIMCHECK
 70
     0
  9
$PEXTMIN
 10
1.000000000000000E+20
 20
1.000000000000000E+20
 30
1.000000000000000E+20
  9
$PEXTMAX
 10
-1.000000000000000E+20
 20
-1.000000000000000E+20
 30
-1.000000000000000E+20
  9
$PLIMMIN
 10
0.0
 20
0.0
  9
$PLIMMAX
 10
12.0
 20
9.0
  9
$UNITMODE
 70
     0
  9
$VISRETAIN
 70
     0
  9
$PLINEGEN
 70
     0
  9
$PSLTSCALE
 70
     1
  9
$TREEDEPTH
 70
  3020
  9
$CMLSTYLE
  2
Standard
  9
$CMLJUST
 70
     0
  9
$CMLSCALE
 40
1.0
  9
$PROXYGRAPHICS
 70
     1
  9
$MEASUREMENT
 70
     0
  9
$CELWEIGHT
370
    -1
  9
$ENDCAPS
280
     0
  9
$JOINSTYLE
280
     0
  9
$LWDISPLAY
290
     0
  9
$INSUNITS
 70
     0
  9
$HYPERLINKBASE
  1

  9
$STYLESHEET
  1

  9
$XEDIT
290
     1
  9
$CEPSNTYPE
380
     0
  9
$PSTYLEMODE
290
     1
  9
$FINGERPRINTGUID
  2
{CC7D6DEE-A9F1-4F3E-AC95-C84B62CCA3FD}
  9
$VERSIONGUID
  2
{C5777BD9-5E9A-444C-AC6C-CB093E939809}
  9
$EXTNAMES
290
     1
  9
$PSVPSCALE
 40
0.0
  9
$OLESTARTUP
290
     0
  0
ENDSEC
  0
SECTION
  2
CLASSES
  0
CLASS
  1
ACDBDICTIONARYWDFLT
  2
AcDbDictionaryWithDefault
  3
ObjectDBX Classes
 90
        0
280
     0
281
     0
  0
CLASS
  1
ACDBPLACEHOLDER
  2
AcDbPlaceHolder
  3
ObjectDBX Classes
 90
        0
280
     0
281
     0
  0
CLASS
  1
LAYOUT
  2
AcDbLayout
  3
ObjectDBX Classes
 90
        0
280
     0
281
     0
  0
CLASS
  1
DICTIONARYVAR
  2
AcDbDictionaryVar
  3
ObjectDBX Classes
 90
        0
280
     0
281
     0
  0
CLASS
  1
TABLESTYLE
  2
AcDbTableStyle
  3
ObjectDBX Classes
 90
     2047
280
     0
281
     0
  0
ENDSEC
  0
SECTION
  2
TABLES
  0
TABLE
  2
VPORT
  5
8
330
0
100
AcDbSymbolTable
 70
     2
  0
VPORT
  5
72F9
330
8
100
AcDbSymbolTableRecord
100
AcDbViewportTableRecord
  2
*Active
 70
     0
 10
0.0
 20
0.0
 11
1.0
 21
1.0
 12
1797.705834399748
 22
694.6745759041244
 13
0.0
 23
0.0
 14
1.0
 24
1.0
 15
0.0
 25
0.0
 16
0.0
 26
0.0
 36
1.0
 17
0.0
 27
0.0
 37
0.0
 40
650.3718263228959
 41
1.542635658914728
 42
50.0
 43
0.0
 44
0.0
 50
0.0
 51
0.0
 71
     0
 72
   100
 73
     1
 74
     1
 75
     0
 76
     0
 77
     0
 78
     0
281
     0
 65
     1
110
0.0
120
0.0
130
0.0
111
1.0
121
0.0
131
0.0
112
0.0
122
1.0
132
0.0
 79
     0
146
0.0
  0
ENDTAB
  0
TABLE
  2
LTYPE
  5
5
330
0
100
AcDbSymbolTable
 70
    50
  0
LTYPE
  5
13
330
5
100
AcDbSymbolTableRecord
100
AcDbLinetypeTableRecord
  2
ByBlock
 70
     0
  3

 72
    65
 73
     0
 40
0.0
  0
LTYPE
  5
14
330
5
100
AcDbSymbolTableRecord
100
AcDbLinetypeTableRecord
  2
ByLayer
 70
     0
  3

 72
    65
 73
     0
 40
0.0
  0
LTYPE
  5
15
330
5
100
AcDbSymbolTableRecord
100
AcDbLinetypeTableRecord
  2
CONTINUOUS
 70
     0
  3
実線
 72
    65
 73
     0
 40
0.0
  0
LTYPE
  5
22
330
5
100
AcDbSymbolTableRecord
100
AcDbLinetypeTableRecord
  2
DASHED1
 70
     0
  3
--  --  --  --  --  --  --  --  
 72
    65
 73
     2
 40
2.5
 49
1.25
 74
     0
 49
-1.25
 74
     0
  0
LTYPE
  5
23
330
5
100
AcDbSymbolTableRecord
100
AcDbLinetypeTableRecord
  2
DASHED2
 70
     0
  3
----    ----    ----    ----    
 72
    65
 73
     2
 40
5.0
 49
2.5
 74
     0
 49
-2.5
 74
     0
  0
LTYPE
  5
24
330
5
100
AcDbSymbolTableRecord
100
AcDbLinetypeTableRecord
  2
DASHED3
 70
     0
  3
------  ------  ------  ------  
 72
    65
 73
     2
 40
5.0
 49
3.75
 74
     0
 49
-1.25
 74
     0
  0
LTYPE
  5
25
330
5
100
AcDbSymbolTableRecord
100
AcDbLinetypeTableRecord
  2
CENTER1
 70
     0
  3
----- - ----- - ----- - ----- - 
 72
    65
 73
     4
 40
10.0
 49
6.25
 74
     0
 49
-1.25
 74
     0
 49
1.25
 74
     0
 49
-1.25
 74
     0
  0
LTYPE
  5
26
330
5
100
AcDbSymbolTableRecord
100
AcDbLinetypeTableRecord
  2
CENTER2
 70
     0
  3
----------  --  ----------  --  
 72
    65
 73
     4
 40
20.0
 49
12.5
 74
     0
 49
-2.5
 74
     0
 49
2.5
 74
     0
 49
-2.5
 74
     0
  0
LTYPE
  5
27
330
5
100
AcDbSymbolTableRecord
100
AcDbLinetypeTableRecord
  2
PHANTOM1
 70
     0
  3
--- - - --- - - --- - - --- - - 
 72
    65
 73
     6
 40
10.0
 49
3.25
 74
     0
 49
-1.25
 74
     0
 49
1.25
 74
     0
 49
-1.25
 74
     0
 49
1.25
 74
     0
 49
-1.25
 74
     0
  0
LTYPE
  5
28
330
5
100
AcDbSymbolTableRecord
100
AcDbLinetypeTableRecord
  2
PHANTOM2
 70
     0
  3
--------  -  -  --------  -  -  
 72
    65
 73
     6
 40
20.0
 49
10.0
 74
     0
 49
-2.5
 74
     0
 49
1.25
 74
     0
 49
-2.5
 74
     0
 49
1.25
 74
     0
 49
-2.5
 74
     0
  0
LTYPE
  5
29
330
5
100
AcDbSymbolTableRecord
100
AcDbLinetypeTableRecord
  2
DOT
 70
     0
  3
-   -   -   -   -   -   -   -   
 72
    65
 73
     2
 40
2.5
 49
0.625
 74
     0
 49
-1.875
 74
     0
  0
LTYPE
  5
2A
330
5
100
AcDbSymbolTableRecord
100
AcDbLinetypeTableRecord
  2
DUMMY
 70
     0
  3
ダミー
 72
    65
 73
     0
 40
0.0
  0
LTYPE
  5
2B
330
5
100
AcDbSymbolTableRecord
100
AcDbLinetypeTableRecord
  2
RAND1
 70
     0
  3
ランダム線1
 72
    65
 73
     4
 40
10.0
 49
1.0
 74
     0
 49
-2.0
 74
     0
 49
3.0
 74
     0
 49
-4.0
 74
     0
  0
LTYPE
  5
2C
330
5
100
AcDbSymbolTableRecord
100
AcDbLinetypeTableRecord
  2
RAND2
 70
     0
  3
ランダム線2
 72
    65
 73
     4
 40
14.0
 49
2.0
 74
     0
 49
-3.0
 74
     0
 49
4.0
 74
     0
 49
-5.0
 74
     0
  0
LTYPE
  5
2D
330
5
100
AcDbSymbolTableRecord
100
AcDbLinetypeTableRecord
  2
RAND3
 70
     0
  3
ランダム線3
 72
    65
 73
     4
 40
18.0
 49
3.0
 74
     0
 49
-4.0
 74
     0
 49
5.0
 74
     0
 49
-6.0
 74
     0
  0
LTYPE
  5
2E
330
5
100
AcDbSymbolTableRecord
100
AcDbLinetypeTableRecord
  2
RAND4
 70
     0
  3
ランダム線4
 72
    65
 73
     4
 40
22.0
 49
4.0
 74
     0
 49
-5.0
 74
     0
 49
6.0
 74
     0
 49
-7.0
 74
     0
  0
LTYPE
  5
2F
330
5
100
AcDbSymbolTableRecord
100
AcDbLinetypeTableRecord
  2
RAND5
 70
     0
  3
ランダム線5
 72
    65
 73
     4
 40
26.0
 49
5.0
 74
     0
 49
-6.0
 74
     0
 49
7.0
 74
     0
 49
-8.0
 74
     0
  0
LTYPE
  5
30
330
5
100
AcDbSymbolTableRecord
100
AcDbLinetypeTableRecord
  2
LONG1
 70
     0
  3
----------  --  ----------  --  
 72
    65
 73
     4
 40
40.0
 49
32.5
 74
     0
 49
-2.5
 74
     0
 49
2.5
 74
     0
 49
-2.5
 74
     0
  0
LTYPE
  5
31
330
5
100
AcDbSymbolTableRecord
100
AcDbLinetypeTableRecord
  2
LONG2
 70
     0
  3
--------  -  -  --------  -  -  
 72
    65
 73
     6
 40
40.0
 49
30.0
 74
     0
 49
-2.5
 74
     0
 49
1.25
 74
     0
 49
-2.5
 74
     0
 49
1.25
 74
     0
 49
-2.5
 74
     0
  0
LTYPE
  5
32
330
5
100
AcDbSymbolTableRecord
100
AcDbLinetypeTableRecord
  2
LONG3
 70
     0
  3
+++++++++++++++..+++++++++++++++
 72
    65
 73
     2
 40
40.0
 49
37.5
 74
     0
 49
-2.5
 74
     0
  0
LTYPE
  5
33
330
5
100
AcDbSymbolTableRecord
100
AcDbLinetypeTableRecord
  2
LONG4
 70
     0
  3
+++++++++++++++..+++++++++++++++
 72
    65
 73
     2
 40
80.0
 49
75.0
 74
     0
 49
-5.0
 74
     0
  0
LTYPE
  5
34
330
5
100
AcDbSymbolTableRecord
100
AcDbLinetypeTableRecord
  2
LONG5
 70
     0
  3
----------  --  ----------  --  
 72
    65
 73
     4
 40
60.0
 49
37.5
 74
     0
 49
-7.5
 74
     0
 49
7.5
 74
     0
 49
-7.5
 74
     0
  0
LTYPE
  5
35
330
5
100
AcDbSymbolTableRecord
100
AcDbLinetypeTableRecord
  2
DASHED
 70
     0
  3
-------   -------------   ------
 72
    65
 73
     2
 40
7.5
 49
6.0
 74
     0
 49
-1.5
 74
     0
  0
LTYPE
  5
36
330
5
100
AcDbSymbolTableRecord
100
AcDbLinetypeTableRecord
  2
DASHED_SPACED
 70
     0
  3
----        --------        ----
 72
    65
 73
     2
 40
12.0
 49
6.0
 74
     0
 49
-6.0
 74
     0
  0
LTYPE
  5
37
330
5
100
AcDbSymbolTableRecord
100
AcDbLinetypeTableRecord
  2
LONG_DASHED_DOTTED
 70
     0
  3
------------- --- --------------
 72
    65
 73
     4
 40
15.25
 49
12.0
 74
     0
 49
-1.5
 74
     0
 49
0.25
 74
     0
 49
-1.5
 74
     0
  0
LTYPE
  5
38
330
5
100
AcDbSymbolTableRecord
100
AcDbLinetypeTableRecord
  2
LONG_DASHED_DOUBLE-DOTTED
 70
     0
  3
----------- --- --- ------------
 72
    65
 73
     6
 40
17.0
 49
12.0
 74
     0
 49
-1.5
 74
     0
 49
0.25
 74
     0
 49
-1.5
 74
     0
 49
0.25
 74
     0
 49
-1.5
 74
     0
  0
LTYPE
  5
39
330
5
100
AcDbSymbolTableRecord
100
AcDbLinetypeTableRecord
  2
LONG_DASHED_TRIPLICATE-DOTTED
 70
     0
  3
--------- --- --- --- ----------
 72
    65
 73
     8
 40
18.75
 49
12.0
 74
     0
 49
-1.5
 74
     0
 49
0.25
 74
     0
 49
-1.5
 74
     0
 49
0.25
 74
     0
 49
-1.5
 74
     0
 49
0.25
 74
     0
 49
-1.5
 74
     0
  0
LTYPE
  5
3A
330
5
100
AcDbSymbolTableRecord
100
AcDbLinetypeTableRecord
  2
DOTTED
 70
     0
  3
   -       -       -       -    
 72
    65
 73
     2
 40
1.75
 49
0.25
 74
     0
 49
-1.5
 74
     0
  0
LTYPE
  5
3B
330
5
100
AcDbSymbolTableRecord
100
AcDbLinetypeTableRecord
  2
CHAIN
 70
     0
  3
-------------- -- --------------
 72
    65
 73
     4
 40
18.5
 49
12.0
 74
     0
 49
-1.5
 74
     0
 49
3.5
 74
     0
 49
-1.5
 74
     0
  0
LTYPE
  5
3C
330
5
100
AcDbSymbolTableRecord
100
AcDbLinetypeTableRecord
  2
CHAIN_DOUBLE_DASH
 70
     0
  3
------------ -- -- -------------
 72
    65
 73
     6
 40
23.5
 49
12.0
 74
     0
 49
-1.5
 74
     0
 49
3.5
 74
     0
 49
-1.5
 74
     0
 49
3.5
 74
     0
 49
-1.5
 74
     0
  0
LTYPE
  5
3D
330
5
100
AcDbSymbolTableRecord
100
AcDbLinetypeTableRecord
  2
DASHED_DOTTED
 70
     0
  3
-----------     -     ----------
 72
    65
 73
     4
 40
9.25
 49
6.0
 74
     0
 49
-1.5
 74
     0
 49
0.25
 74
     0
 49
-1.5
 74
     0
  0
LTYPE
  5
3E
330
5
100
AcDbSymbolTableRecord
100
AcDbLinetypeTableRecord
  2
DOUBLE-DASHED_DOTTED
 70
     0
  3
------   -----------   -   -----
 72
    65
 73
     6
 40
16.75
 49
6.0
 74
     0
 49
-1.5
 74
     0
 49
6.0
 74
     0
 49
-1.5
 74
     0
 49
0.25
 74
     0
 49
-1.5
 74
     0
  0
LTYPE
  5
3F
330
5
100
AcDbSymbolTableRecord
100
AcDbLinetypeTableRecord
  2
DASHED_DOUBLE-DOTTED
 70
     0
  3
---------    -    -    ---------
 72
    65
 73
     6
 40
11.0
 49
6.0
 74
     0
 49
-1.5
 74
     0
 49
0.25
 74
     0
 49
-1.5
 74
     0
 49
0.25
 74
     0
 49
-1.5
 74
     0
  0
LTYPE
  5
40
330
5
100
AcDbSymbolTableRecord
100
AcDbLinetypeTableRecord
  2
DOUBLE-DASHED_DOUBLE-DOTTED
 70
     0
  3
-----   ---------   -   -   ----
 72
    65
 73
     8
 40
18.5
 49
6.0
 74
     0
 49
-1.5
 74
     0
 49
6.0
 74
     0
 49
-1.5
 74
     0
 49
0.25
 74
     0
 49
-1.5
 74
     0
 49
0.25
 74
     0
 49
-1.5
 74
     0
  0
LTYPE
  5
41
330
5
100
AcDbSymbolTableRecord
100
AcDbLinetypeTableRecord
  2
DASHED_TRIPLICATE-DOTTED
 70
     0
  3
-------    -    -    -    ------
 72
    65
 73
     8
 40
12.75
 49
6.0
 74
     0
 49
-1.5
 74
     0
 49
0.25
 74
     0
 49
-1.5
 74
     0
 49
0.25
 74
     0
 49
-1.5
 74
     0
 49
0.25
 74
     0
 49
-1.5
 74
     0
  0
LTYPE
  5
42
330
5
100
AcDbSymbolTableRecord
100
AcDbLinetypeTableRecord
  2
DOUBLE-DASHED_TRIPLICATE-DOTTED
 70
     0
  3
-----  ---------  -  -  -  -----
 72
    65
 73
    10
 40
20.25
 49
6.0
 74
     0
 49
-1.5
 74
     0
 49
6.0
 74
     0
 49
-1.5
 74
     0
 49
0.25
 74
     0
 49
-1.5
 74
     0
 49
0.25
 74
     0
 49
-1.5
 74
     0
 49
0.25
 74
     0
 49
-1.5
 74
     0
  0
LTYPE
  5
43
330
5
100
AcDbSymbolTableRecord
100
AcDbLinetypeTableRecord
  2
UNDEFINED
 70
     0
  3
--------------------------------
 72
    65
 73
     0
 40
0.0
  0
LTYPE
  5
44
330
5
100
AcDbSymbolTableRecord
100
AcDbLinetypeTableRecord
  2
PLINE2
 70
     0
  3
------     -----------     -----
 72
    65
 73
     2
 40
3.0
 49
2.1
 74
     0
 49
-0.9
 74
     0
  0
LTYPE
  5
45
330
5
100
AcDbSymbolTableRecord
100
AcDbLinetypeTableRecord
  2
PLINE3
 70
     0
  3
------------   ---   -----------
 72
    65
 73
     4
 40
10.0
 49
7.0
 74
     0
 49
-1.0
 74
     0
 49
1.0
 74
     0
 49
-1.0
 74
     0
  0
LTYPE
  5
46
330
5
100
AcDbSymbolTableRecord
100
AcDbLinetypeTableRecord
  2
PLINE4
 70
     0
  3
---------   ---   ---   --------
 72
    65
 73
     6
 40
10.0
 49
5.0
 74
     0
 49
-1.0
 74
     0
 49
1.0
 74
     0
 49
-1.0
 74
     0
 49
1.0
 74
     0
 49
-1.0
 74
     0
  0
LTYPE
  5
47
330
5
100
AcDbSymbolTableRecord
100
AcDbLinetypeTableRecord
  2
PLINE5
 70
     0
  3
------     -----------     -----
 72
    65
 73
     2
 40
5.0
 49
3.5
 74
     0
 49
-1.5
 74
     0
  0
LTYPE
  5
48
330
5
100
AcDbSymbolTableRecord
100
AcDbLinetypeTableRecord
  2
PLINE6
 70
     0
  3
------------   ---   -----------
 72
    65
 73
     4
 40
15.0
 49
10.5
 74
     0
 49
-1.5
 74
     0
 49
1.5
 74
     0
 49
-1.5
 74
     0
  0
LTYPE
  5
49
330
5
100
AcDbSymbolTableRecord
100
AcDbLinetypeTableRecord
  2
PLINE7
 70
     0
  3
---------   ---   ---   --------
 72
    65
 73
     6
 40
15.0
 49
7.5
 74
     0
 49
-1.5
 74
     0
 49
1.5
 74
     0
 49
-1.5
 74
     0
 49
1.5
 74
     0
 49
-1.5
 74
     0
  0
LTYPE
  5
4A
330
5
100
AcDbSymbolTableRecord
100
AcDbLinetypeTableRecord
  2
PLINE8
 70
     0
  3
------     -----------     -----
 72
    65
 73
     2
 40
7.0
 49
4.9
 74
     0
 49
-2.1
 74
     0
  0
LTYPE
  5
4B
330
5
100
AcDbSymbolTableRecord
100
AcDbLinetypeTableRecord
  2
PLINE9
 70
     0
  3
------------   ---   -----------
 72
    65
 73
     4
 40
20.0
 49
14.0
 74
     0
 49
-2.0
 74
     0
 49
2.0
 74
     0
 49
-2.0
 74
     0
  0
LTYPE
  5
4C
330
5
100
AcDbSymbolTableRecord
100
AcDbLinetypeTableRecord
  2
PLINE10
 70
     0
  3
---------   ---   ---   --------
 72
    65
 73
     6
 40
20.0
 49
10.0
 74
     0
 49
-2.0
 74
     0
 49
2.0
 74
     0
 49
-2.0
 74
     0
 49
2.0
 74
     0
 49
-2.0
 74
     0
  0
LTYPE
  5
4D
330
5
100
AcDbSymbolTableRecord
100
AcDbLinetypeTableRecord
  2
PLINE11
 70
     0
  3
------     -----------     -----
 72
    65
 73
     2
 40
9.0
 49
6.299999999999999
 74
     0
 49
-2.7
 74
     0
  0
LTYPE
  5
4E
330
5
100
AcDbSymbolTableRecord
100
AcDbLinetypeTableRecord
  2
PLINE12
 70
     0
  3
------------   ---   -----------
 72
    65
 73
     4
 40
25.0
 49
17.5
 74
     0
 49
-2.5
 74
     0
 49
2.5
 74
     0
 49
-2.5
 74
     0
  0
LTYPE
  5
4F
330
5
100
AcDbSymbolTableRecord
100
AcDbLinetypeTableRecord
  2
PLINE13
 70
     0
  3
---------   ---   ---   --------
 72
    65
 73
     6
 40
25.0
 49
12.5
 74
     0
 49
-2.5
 74
     0
 49
2.5
 74
     0
 49
-2.5
 74
     0
 49
2.5
 74
     0
 49
-2.5
 74
     0
  0
LTYPE
  5
50
330
5
100
AcDbSymbolTableRecord
100
AcDbLinetypeTableRecord
  2
PLINE14
 70
     0
  3
------     -----------     -----
 72
    65
 73
     2
 40
11.0
 49
7.7
 74
     0
 49
-3.299999999999999
 74
     0
  0
LTYPE
  5
51
330
5
100
AcDbSymbolTableRecord
100
AcDbLinetypeTableRecord
  2
PLINE15
 70
     0
  3
------------   ---   -----------
 72
    65
 73
     4
 40
30.0
 49
21.0
 74
     0
 49
-3.0
 74
     0
 49
3.0
 74
     0
 49
-3.0
 74
     0
  0
LTYPE
  5
52
330
5
100
AcDbSymbolTableRecord
100
AcDbLinetypeTableRecord
  2
PLINE16
 70
     0
  3
---------   ---   ---   --------
 72
    65
 73
     6
 40
30.0
 49
15.0
 74
     0
 49
-3.0
 74
     0
 49
3.0
 74
     0
 49
-3.0
 74
     0
 49
3.0
 74
     0
 49
-3.0
 74
     0
  0
ENDTAB
  0
TABLE
  2
LAYER
  5
2
102
{ACAD_XDICTIONARY
360
175
102
}
330
0
100
AcDbSymbolTable
 70
     5
  0
LAYER
  5
10
330
2
100
AcDbSymbolTableRecord
100
AcDbLayerTableRecord
  2
0
 70
     0
 62
     7
  6
CONTINUOUS
370
    -3
390
F
  0
LAYER
  5
128
330
2
100
AcDbSymbolTableRecord
100
AcDbLayerTableRecord
  2
Defpoints
 70
     0
 62
     7
  6
CONTINUOUS
290
     0
370
    -3
390
F
  0
LAYER
  5
178
330
2
100
AcDbSymbolTableRecord
100
AcDbLayerTableRecord
  2
寸法
 70
     0
 62
     7
  6
CONTINUOUS
370
    -3
390
F
  0
LAYER
  5
179
330
2
100
AcDbSymbolTableRecord
100
AcDbLayerTableRecord
  2
躯体と製品
 70
     0
 62
     7
  6
CONTINUOUS
370
    -3
390
F
  0
LAYER
  5
4F62
330
2
100
AcDbSymbolTableRecord
100
AcDbLayerTableRecord
  2
図枠
 70
     0
 62
     7
  6
CONTINUOUS
370
    -3
390
F
  0
ENDTAB
  0
TABLE
  2
STYLE
  5
3
330
0
100
AcDbSymbolTable
 70
     5
  0
STYLE
  5
11
330
3
100
AcDbSymbolTableRecord
100
AcDbTextStyleTableRecord
  2
STANDARD
 70
     0
 40
0.0
 41
1.0
 50
0.0
 71
     0
 42
0.2
  3
txt
  4
bigfont.shx
  0
STYLE
  5
53
330
3
100
AcDbSymbolTableRecord
100
AcDbTextStyleTableRecord
  2
TATEGAKI
 70
     4
 40
0.0
 41
1.0
 50
0.0
 71
     0
 42
1.0
  3
txt
  4
bigfont.shx
  0
STYLE
  5
123
330
3
100
AcDbSymbolTableRecord
100
AcDbTextStyleTableRecord
  2
ACAD
 70
     0
 40
5.0
 41
0.8
 50
0.0
 71
     0
 42
5.0
  3
romans.shx
  4
extfont.shx
  0
STYLE
  5
3A5F
330
3
100
AcDbSymbolTableRecord
100
AcDbTextStyleTableRecord
  2
VERTXT
 70
     4
 40
0.0
 41
0.8582679999999999
 50
0.0
 71
     0
 42
3.5
  3
txt.shx
  4
BIGFONT
  0
STYLE
  5
50AD
330
3
100
AcDbSymbolTableRecord
100
AcDbTextStyleTableRecord
  2
STANDARD2
 70
     0
 40
0.0
 41
0.8582679999999999
 50
0.0
 71
     0
 42
3.5
  3
txt.shx
  4
EXTFONT
  0
ENDTAB
  0
TABLE
  2
VIEW
  5
6
330
0
100
AcDbSymbolTable
 70
     0
  0
ENDTAB
  0
TABLE
  2
UCS
  5
7
330
0
100
AcDbSymbolTable
 70
     0
  0
ENDTAB
  0
TABLE
  2
APPID
  5
9
330
0
100
AcDbSymbolTable
 70
     1
  0
APPID
  5
12
330
9
100
AcDbSymbolTableRecord
100
AcDbRegAppTableRecord
  2
ACAD
 70
     0
  0
ENDTAB
  0
TABLE
  2
DIMSTYLE
  5
A
330
0
100
AcDbSymbolTable
 70
     3
100
AcDbDimStyleTable
 71
     1
340
126
  0
DIMSTYLE
105
11C
330
A
100
AcDbSymbolTableRecord
100
AcDbDimStyleTableRecord
  2
Standard
 70
     0
340
11
  0
DIMSTYLE
105
126
102
{ACAD_REACTORS
330
7200
330
720D
330
721A
330
7227
330
7234
330
723F
330
724C
330
7259
330
7266
330
7273
330
7280
330
728C
330
7297
330
72A2
102
}
330
A
100
AcDbSymbolTableRecord
100
AcDbDimStyleTableRecord
  2
AutoCAD
 70
     0
 41
1.0
 42
0.0
 44
0.0
 73
     0
 77
     1
140
5.0
147
1.0
174
     1
176
     4
177
     4
178
     3
271
     0
272
     0
289
     0
340
123
341
15B0
342
11E
  0
DIMSTYLE
105
2CBB
330
A
100
AcDbSymbolTableRecord
100
AcDbDimStyleTableRecord
  2
111
 70
     0
 41
1.0
 42
0.0
 44
0.0
 73
     0
 77
     1
140
5.0
147
1.0
174
     1
176
     4
177
     4
178
     3
271
     0
272
     0
289
     0
340
123
341
15B0
342
2CB5
  0
ENDTAB
  0
TABLE
  2
BLOCK_RECORD
  5
1
330
0
100
AcDbSymbolTable
 70
    18
  0
BLOCK_RECORD
  5
1E
102
{ACAD_XDICTIONARY
360
28B
102
}
330
1
100
AcDbSymbolTableRecord
100
AcDbBlockTableRecord
  2
*Model_Space
340
21
  0
BLOCK_RECORD
  5
1A
102
{ACAD_XDICTIONARY
360
28D
102
}
330
1
100
AcDbSymbolTableRecord
100
AcDbBlockTableRecord
  2
*Paper_Space
340
1D
  0
BLOCK_RECORD
  5
11E
330
1
100
AcDbSymbolTableRecord
100
AcDbBlockTableRecord
  2
_Dot
340
0
102
{BLKREFS
331
7212
331
7213
331
721F
331
7220
331
722C
331
722D
331
726B
331
726C
331
729A
331
729B
331
72A5
331
72A6
331
72B0
331
72B1
331
72B9
331
72BA
331
72C2
331
72C3
331
72CB
331
72CC
331
72D2
331
72D3
331
72DA
331
72DB
331
72E3
331
72E4
331
72EA
331
72EB
102
}
  0
BLOCK_RECORD
  5
15B0
330
1
100
AcDbSymbolTableRecord
100
AcDbBlockTableRecord
  2
_None
340
0
  0
BLOCK_RECORD
  5
2CB5
330
1
100
AcDbSymbolTableRecord
100
AcDbBlockTableRecord
  2
_Open30
340
0
  0
BLOCK_RECORD
  5
35E3
330
1
100
AcDbSymbolTableRecord
100
AcDbBlockTableRecord
  2
_DotBlank
340
0
  0
BLOCK_RECORD
  5
7201
330
1
100
AcDbSymbolTableRecord
100
AcDbBlockTableRecord
  2
*D4
340
0
  0
BLOCK_RECORD
  5
720E
330
1
100
AcDbSymbolTableRecord
100
AcDbBlockTableRecord
  2
*D5
340
0
  0
BLOCK_RECORD
  5
721B
330
1
100
AcDbSymbolTableRecord
100
AcDbBlockTableRecord
  2
*D6
340
0
  0
BLOCK_RECORD
  5
7228
330
1
100
AcDbSymbolTableRecord
100
AcDbBlockTableRecord
  2
*D7
340
0
  0
BLOCK_RECORD
  5
7235
330
1
100
AcDbSymbolTableRecord
100
AcDbBlockTableRecord
  2
*D8
340
0
  0
BLOCK_RECORD
  5
7240
330
1
100
AcDbSymbolTableRecord
100
AcDbBlockTableRecord
  2
*D9
340
0
  0
BLOCK_RECORD
  5
724D
330
1
100
AcDbSymbolTableRecord
100
AcDbBlockTableRecord
  2
*D10
340
0
  0
BLOCK_RECORD
  5
725A
330
1
100
AcDbSymbolTableRecord
100
AcDbBlockTableRecord
  2
*D11
340
0
  0
BLOCK_RECORD
  5
7267
330
1
100
AcDbSymbolTableRecord
100
AcDbBlockTableRecord
  2
*D12
340
0
  0
BLOCK_RECORD
  5
7274
330
1
100
AcDbSymbolTableRecord
100
AcDbBlockTableRecord
  2
*D13
340
0
  0
BLOCK_RECORD
  5
7281
330
1
100
AcDbSymbolTableRecord
100
AcDbBlockTableRecord
  2
*D14
340
0
  0
BLOCK_RECORD
  5
728D
330
1
100
AcDbSymbolTableRecord
100
AcDbBlockTableRecord
  2
*D15
340
0
  0
BLOCK_RECORD
  5
7298
330
1
100
AcDbSymbolTableRecord
100
AcDbBlockTableRecord
  2
*D16
340
0
  0
BLOCK_RECORD
  5
72A3
330
1
100
AcDbSymbolTableRecord
100
AcDbBlockTableRecord
  2
*D17
340
0
  0
ENDTAB
  0
ENDSEC
  0
SECTION
  2
BLOCKS
  0
BLOCK
  5
1F
330
1E
100
AcDbEntity
  8
0
100
AcDbBlockBegin
  2
*Model_Space
 70
     0
 10
0.0
 20
0.0
 30
0.0
  3
*Model_Space
  1

  0
ENDBLK
  5
20
330
1E
100
AcDbEntity
  8
0
100
AcDbBlockEnd
  0
BLOCK
  5
1B
330
1A
100
AcDbEntity
 67
     1
  8
0
100
AcDbBlockBegin
  2
*Paper_Space
 70
     0
 10
0.0
 20
0.0
 30
0.0
  3
*Paper_Space
  1

  0
ENDBLK
  5
1C
330
1A
100
AcDbEntity
 67
     1
  8
0
100
AcDbBlockEnd
  0
BLOCK
  5
121
330
11E
100
AcDbEntity
  8
0
100
AcDbBlockBegin
  2
_Dot
 70
     0
 10
0.0
 20
0.0
 30
0.0
  3
_Dot
  1

  0
LWPOLYLINE
  5
11F
330
11E
100
AcDbEntity
  8
0
  6
ByBlock
 62
     0
100
AcDbPolyline
 90
        2
 70
     1
 43
0.5
 10
-0.25
 20
0.0
 42
1.0
 10
0.25
 20
0.0
 42
1.0
  0
LINE
  5
120
330
11E
100
AcDbEntity
  8
0
  6
ByBlock
 62
     0
370
    -2
100
AcDbLine
 10
-0.5
 20
0.0
 30
0.0
 11
-1.0
 21
0.0
 31
0.0
  0
ENDBLK
  5
122
330
11E
100
AcDbEntity
  8
0
100
AcDbBlockEnd
  0
BLOCK
  5
15B1
330
15B0
100
AcDbEntity
  8
0
100
AcDbBlockBegin
  2
_None
 70
     0
 10
0.0
 20
0.0
 30
0.0
  3
_None
  1

  0
ENDBLK
  5
15B2
330
15B0
100
AcDbEntity
  8
0
100
AcDbBlockEnd
  0
BLOCK
  5
2CB9
330
2CB5
100
AcDbEntity
  8
0
100
AcDbBlockBegin
  2
_Open30
 70
     0
 10
0.0
 20
0.0
 30
0.0
  3
_Open30
  1

  0
LINE
  5
2CB6
330
2CB5
100
AcDbEntity
  8
0
  6
ByBlock
 62
     0
370
    -2
100
AcDbLine
 10
-1.0
 20
0.26794919
 30
0.0
 11
0.0
 21
0.0
 31
0.0
  0
LINE
  5
2CB7
330
2CB5
100
AcDbEntity
  8
0
  6
ByBlock
 62
     0
370
    -2
100
AcDbLine
 10
0.0
 20
0.0
 30
0.0
 11
-1.0
 21
-0.26794919
 31
0.0
  0
LINE
  5
2CB8
330
2CB5
100
AcDbEntity
  8
0
  6
ByBlock
 62
     0
370
    -2
100
AcDbLine
 10
0.0
 20
0.0
 30
0.0
 11
-1.0
 21
0.0
 31
0.0
  0
ENDBLK
  5
2CBA
330
2CB5
100
AcDbEntity
  8
0
100
AcDbBlockEnd
  0
BLOCK
  5
35E6
330
35E3
100
AcDbEntity
  8
0
100
AcDbBlockBegin
  2
_DotBlank
 70
     0
 10
0.0
 20
0.0
 30
0.0
  3
_DotBlank
  1

  0
CIRCLE
  5
35E4
330
35E3
100
AcDbEntity
  8
0
  6
ByBlock
 62
     0
370
    -2
100
AcDbCircle
 10
0.0
 20
0.0
 30
0.0
 40
0.5
  0
LINE
  5
35E5
330
35E3
100
AcDbEntity
  8
0
  6
ByBlock
 62
     0
370
    -2
100
AcDbLine
 10
-0.5
 20
0.0
 30
0.0
 11
-1.0
 21
0.0
 31
0.0
  0
ENDBLK
  5
35E7
330
35E3
100
AcDbEntity
  8
0
100
AcDbBlockEnd
  0
BLOCK
  5
720B
330
7201
100
AcDbEntity
  8
0
100
AcDbBlockBegin
  2
*D4
 70
     1
 10
0.0
 20
0.0
 30
0.0
  3
*D4
  1

  0
LINE
  5
72B6
330
7201
100
AcDbEntity
  8
寸法
  6
Continuous
 62
     4
370
    -2
100
AcDbLine
 10
1710.11682616897
 20
882.5636885902701
 30
0.0
 11
1710.11682616897
 21
940.5636885902705
 31
0.0
  0
LINE
  5
72B7
330
7201
100
AcDbEntity
  8
寸法
  6
Continuous
 62
     4
370
    -2
100
AcDbLine
 10
1743.316826168969
 20
882.5636885902701
 30
0.0
 11
1743.316826168969
 21
940.5636885902705
 31
0.0
  0
LINE
  5
72B8
330
7201
100
AcDbEntity
  8
寸法
  6
Continuous
 62
     4
370
    -2
100
AcDbLine
 10
1711.11682616897
 20
940.5636885902705
 30
0.0
 11
1742.31682616897
 21
940.5636885902705
 31
0.0
  0
INSERT
  5
72B9
330
7201
100
AcDbEntity
  8
寸法
  6
Continuous
 62
     4
370
    -2
100
AcDbBlockReference
  2
_Dot
 10
1710.11682616897
 20
940.5636885902705
 30
0.0
 50
180.0
  0
INSERT
  5
72BA
330
7201
100
AcDbEntity
  8
寸法
  6
Continuous
 62
     4
370
    -2
100
AcDbBlockReference
  2
_Dot
 10
1743.316826168969
 20
940.5636885902705
 30
0.0
  0
MTEXT
  5
72BB
330
7201
100
AcDbEntity
  8
寸法
  6
Continuous
 62
     3
100
AcDbMText
 10
1726.71682616897
 20
944.0636885902703
 30
0.0
 40
5.0
 41
0.0
 71
     5
 72
     1
  1
\A1;33.2
  7
ACAD
 73
     1
 44
1.0
1001
ACAD
1000
MTEXTBEGIN
1070
    73
1070
     1
1070
    44
1040
1.0
1070
    74
1070
     0
1000
MTEXTEND
  0
POINT
  5
72BC
330
7201
100
AcDbEntity
  8
Defpoints
  6
Continuous
 62
     0
100
AcDbPoint
 10
1710.11682616897
 20
882.5636885902701
 30
0.0
  0
POINT
  5
72BD
330
7201
100
AcDbEntity
  8
Defpoints
  6
Continuous
 62
     0
100
AcDbPoint
 10
1743.316826168969
 20
882.5636885902701
 30
0.0
  0
POINT
  5
72BE
330
7201
100
AcDbEntity
  8
Defpoints
  6
Continuous
 62
     0
100
AcDbPoint
 10
1743.316826168969
 20
940.5636885902705
 30
0.0
  0
ENDBLK
  5
720C
330
7201
100
AcDbEntity
  8
0
100
AcDbBlockEnd
  0
BLOCK
  5
7218
330
720E
100
AcDbEntity
  8
0
100
AcDbBlockBegin
  2
*D5
 70
     1
 10
0.0
 20
0.0
 30
0.0
  3
*D5
  1

  0
LINE
  5
720F
330
720E
100
AcDbEntity
  8
寸法
  6
Continuous
 62
     4
370
    -2
100
AcDbLine
 10
1723.31682616897
 20
897.5636885902703
 30
0.0
 11
1723.31682616897
 21
925.5636883602804
 31
0.0
  0
LINE
  5
7210
330
720E
100
AcDbEntity
  8
寸法
  6
Continuous
 62
     4
370
    -2
100
AcDbLine
 10
1743.316826168969
 20
882.5636885902701
 30
0.0
 11
1743.316826168969
 21
925.5636883602804
 31
0.0
  0
LINE
  5
7211
330
720E
100
AcDbEntity
  8
寸法
  6
Continuous
 62
     4
370
    -2
100
AcDbLine
 10
1724.31682616897
 20
925.5636883602804
 30
0.0
 11
1742.31682616897
 21
925.5636883602804
 31
0.0
  0
INSERT
  5
7212
330
720E
100
AcDbEntity
  8
寸法
  6
Continuous
 62
     4
370
    -2
100
AcDbBlockReference
  2
_Dot
 10
1723.31682616897
 20
925.5636883602804
 30
0.0
 50
180.0
  0
INSERT
  5
7213
330
720E
100
AcDbEntity
  8
寸法
  6
Continuous
 62
     4
370
    -2
100
AcDbBlockReference
  2
_Dot
 10
1743.316826168969
 20
925.5636883602804
 30
0.0
  0
MTEXT
  5
7214
330
720E
100
AcDbEntity
  8
寸法
  6
Continuous
 62
     3
100
AcDbMText
 10
1733.31682616897
 20
929.0636883602804
 30
0.0
 40
5.0
 41
0.0
 71
     5
 72
     1
  1
\A1;20
  7
ACAD
 73
     1
 44
1.0
1001
ACAD
1000
MTEXTBEGIN
1070
    73
1070
     1
1070
    44
1040
1.0
1070
    74
1070
     0
1000
MTEXTEND
  0
POINT
  5
7215
330
720E
100
AcDbEntity
  8
Defpoints
  6
Continuous
 62
     0
100
AcDbPoint
 10
1723.31682616897
 20
897.5636885902703
 30
0.0
  0
POINT
  5
7216
330
720E
100
AcDbEntity
  8
Defpoints
  6
Continuous
 62
     0
100
AcDbPoint
 10
1743.316826168969
 20
882.5636885902701
 30
0.0
  0
POINT
  5
7217
330
720E
100
AcDbEntity
  8
Defpoints
  6
Continuous
 62
     0
100
AcDbPoint
 10
1743.316826168969
 20
925.5636883602804
 30
0.0
  0
ENDBLK
  5
7219
330
720E
100
AcDbEntity
  8
0
100
AcDbBlockEnd
  0
BLOCK
  5
7225
330
721B
100
AcDbEntity
  8
0
100
AcDbBlockBegin
  2
*D6
 70
     1
 10
0.0
 20
0.0
 30
0.0
  3
*D6
  1

  0
LINE
  5
721C
330
721B
100
AcDbEntity
  8
寸法
  6
Continuous
 62
     4
370
    -2
100
AcDbLine
 10
1736.11682616897
 20
895.5636885902702
 30
0.0
 11
1770.31682616897
 21
895.5636885902702
 31
0.0
  0
LINE
  5
721D
330
721B
100
AcDbEntity
  8
寸法
  6
Continuous
 62
     4
370
    -2
100
AcDbLine
 10
1745.316826168969
 20
880.5636885902702
 30
0.0
 11
1770.31682616897
 21
880.5636885902702
 31
0.0
  0
LINE
  5
721E
330
721B
100
AcDbEntity
  8
寸法
  6
Continuous
 62
     4
370
    -2
100
AcDbLine
 10
1770.31682616897
 20
894.5636885902702
 30
0.0
 11
1770.31682616897
 21
881.5636885902701
 31
0.0
  0
INSERT
  5
721F
330
721B
100
AcDbEntity
  8
寸法
  6
Continuous
 62
     4
370
    -2
100
AcDbBlockReference
  2
_Dot
 10
1770.31682616897
 20
895.5636885902702
 30
0.0
 50
90.0
  0
INSERT
  5
7220
330
721B
100
AcDbEntity
  8
寸法
  6
Continuous
 62
     4
370
    -2
100
AcDbBlockReference
  2
_Dot
 10
1770.31682616897
 20
880.5636885902702
 30
0.0
 50
270.0
  0
MTEXT
  5
7221
330
721B
100
AcDbEntity
  8
寸法
  6
Continuous
 62
     3
100
AcDbMText
 10
1766.81682616897
 20
888.0636885902704
 30
0.0
 40
5.0
 41
0.0
 71
     5
 72
     1
  1
\A1;15
  7
ACAD
 11
0.0000000000000001
 21
1.0
 31
0.0
 73
     1
 44
1.0
1001
ACAD
1000
MTEXTBEGIN
1070
    73
1070
     1
1070
    44
1040
1.0
1070
    74
1070
     0
1000
MTEXTEND
  0
POINT
  5
7222
330
721B
100
AcDbEntity
  8
Defpoints
  6
Continuous
 62
     0
100
AcDbPoint
 10
1736.11682616897
 20
895.5636885902702
 30
0.0
  0
POINT
  5
7223
330
721B
100
AcDbEntity
  8
Defpoints
  6
Continuous
 62
     0
100
AcDbPoint
 10
1745.316826168969
 20
880.5636885902702
 30
0.0
  0
POINT
  5
7224
330
721B
100
AcDbEntity
  8
Defpoints
  6
Continuous
 62
     0
100
AcDbPoint
 10
1770.31682616897
 20
880.5636885902702
 30
0.0
  0
ENDBLK
  5
7226
330
721B
100
AcDbEntity
  8
0
100
AcDbBlockEnd
  0
BLOCK
  5
7232
330
7228
100
AcDbEntity
  8
0
100
AcDbBlockBegin
  2
*D7
 70
     1
 10
0.0
 20
0.0
 30
0.0
  3
*D7
  1

  0
LINE
  5
7229
330
7228
100
AcDbEntity
  8
寸法
  6
Continuous
 62
     4
370
    -2
100
AcDbLine
 10
1745.316826168969
 20
880.5636885902702
 30
0.0
 11
1770.31682616897
 21
880.5636885902702
 31
0.0
  0
LINE
  5
722A
330
7228
100
AcDbEntity
  8
寸法
  6
Continuous
 62
     4
370
    -2
100
AcDbLine
 10
1745.316826168969
 20
844.5636885902704
 30
0.0
 11
1770.31682616897
 21
844.5636885902704
 31
0.0
  0
LINE
  5
722B
330
7228
100
AcDbEntity
  8
寸法
  6
Continuous
 62
     4
370
    -2
100
AcDbLine
 10
1770.31682616897
 20
879.5636885902702
 30
0.0
 11
1770.31682616897
 21
845.5636885902704
 31
0.0
  0
INSERT
  5
722C
330
7228
100
AcDbEntity
  8
寸法
  6
Continuous
 62
     4
370
    -2
100
AcDbBlockReference
  2
_Dot
 10
1770.31682616897
 20
880.5636885902702
 30
0.0
 50
90.0
  0
INSERT
  5
722D
330
7228
100
AcDbEntity
  8
寸法
  6
Continuous
 62
     4
370
    -2
100
AcDbBlockReference
  2
_Dot
 10
1770.31682616897
 20
844.5636885902704
 30
0.0
 50
270.0
  0
MTEXT
  5
722E
330
7228
100
AcDbEntity
  8
寸法
  6
Continuous
 62
     3
100
AcDbMText
 10
1766.81682616897
 20
862.5636885902705
 30
0.0
 40
5.0
 41
0.0
 71
     5
 72
     1
  1
\A1;36
  7
ACAD
 11
0.0000000000000001
 21
1.0
 31
0.0
 73
     1
 44
1.0
1001
ACAD
1000
MTEXTBEGIN
1070
    73
1070
     1
1070
    44
1040
1.0
1070
    74
1070
     0
1000
MTEXTEND
  0
POINT
  5
722F
330
7228
100
AcDbEntity
  8
Defpoints
  6
Continuous
 62
     0
100
AcDbPoint
 10
1745.316826168969
 20
880.5636885902702
 30
0.0
  0
POINT
  5
7230
330
7228
100
AcDbEntity
  8
Defpoints
  6
Continuous
 62
     0
100
AcDbPoint
 10
1745.316826168969
 20
844.5636885902704
 30
0.0
  0
POINT
  5
7231
330
7228
100
AcDbEntity
  8
Defpoints
  6
Continuous
 62
     0
100
AcDbPoint
 10
1770.31682616897
 20
844.5636885902704
 30
0.0
  0
ENDBLK
  5
7233
330
7228
100
AcDbEntity
  8
0
100
AcDbBlockEnd
  0
BLOCK
  5
723D
330
7235
100
AcDbEntity
  8
0
100
AcDbBlockBegin
  2
*D8
 70
     1
 10
0.0
 20
0.0
 30
0.0
  3
*D8
  1

  0
LINE
  5
72E9
330
7235
100
AcDbEntity
  8
寸法
  6
Continuous
 62
     4
370
    -2
100
AcDbLine
 10
1726.11682616897
 20
873.5636885902705
 30
0.0
 11
1909.11682616897
 21
873.5636885902705
 31
0.0
  0
INSERT
  5
72EA
330
7235
100
AcDbEntity
  8
寸法
  6
Continuous
 62
     4
370
    -2
100
AcDbBlockReference
  2
_Dot
 10
1725.11682616897
 20
873.5636885902705
 30
0.0
 50
180.0
  0
INSERT
  5
72EB
330
7235
100
AcDbEntity
  8
寸法
  6
Continuous
 62
     4
370
    -2
100
AcDbBlockReference
  2
_Dot
 10
1910.11682616897
 20
873.5636885902705
 30
0.0
  0
MTEXT
  5
72EC
330
7235
100
AcDbEntity
  8
寸法
  6
Continuous
 62
     3
100
AcDbMText
 10
1817.61682616897
 20
877.0636885902703
 30
0.0
 40
5.0
 41
0.0
 71
     5
 72
     1
  1
\A1;A
  7
ACAD
 73
     1
 44
1.0
1001
ACAD
1000
MTEXTBEGIN
1070
    73
1070
     1
1070
    44
1040
1.0
1070
    74
1070
     0
1000
MTEXTEND
  0
POINT
  5
72ED
330
7235
100
AcDbEntity
  8
Defpoints
  6
Continuous
 62
     0
100
AcDbPoint
 10
1725.11682616897
 20
873.5636885902705
 30
0.0
  0
POINT
  5
72EE
330
7235
100
AcDbEntity
  8
Defpoints
  6
Continuous
 62
     0
100
AcDbPoint
 10
1910.11682616897
 20
873.5636885902705
 30
0.0
  0
POINT
  5
72EF
330
7235
100
AcDbEntity
  8
Defpoints
  6
Continuous
 62
     0
100
AcDbPoint
 10
1910.11682616897
 20
873.5636885902705
 30
0.0
  0
ENDBLK
  5
723E
330
7235
100
AcDbEntity
  8
0
100
AcDbBlockEnd
  0
BLOCK
  5
724A
330
7240
100
AcDbEntity
  8
0
100
AcDbBlockBegin
  2
*D9
 70
     1
 10
0.0
 20
0.0
 30
0.0
  3
*D9
  1

  0
LINE
  5
72AD
330
7240
100
AcDbEntity
  8
寸法
  6
Continuous
 62
     4
370
    -2
100
AcDbLine
 10
1910.11682616897
 20
832.7805917664276
 30
0.0
 11
1910.11682616897
 21
955.5636885902703
 31
0.0
  0
LINE
  5
72AE
330
7240
100
AcDbEntity
  8
寸法
  6
Continuous
 62
     4
370
    -2
100
AcDbLine
 10
1710.11682616897
 20
882.5636885902701
 30
0.0
 11
1710.11682616897
 21
955.5636885902703
 31
0.0
  0
LINE
  5
72AF
330
7240
100
AcDbEntity
  8
寸法
  6
Continuous
 62
     4
370
    -2
100
AcDbLine
 10
1909.11682616897
 20
955.5636885902703
 30
0.0
 11
1711.11682616897
 21
955.5636885902703
 31
0.0
  0
INSERT
  5
72B0
330
7240
100
AcDbEntity
  8
寸法
  6
Continuous
 62
     4
370
    -2
100
AcDbBlockReference
  2
_Dot
 10
1910.11682616897
 20
955.5636885902703
 30
0.0
  0
INSERT
  5
72B1
330
7240
100
AcDbEntity
  8
寸法
  6
Continuous
 62
     4
370
    -2
100
AcDbBlockReference
  2
_Dot
 10
1710.11682616897
 20
955.5636885902703
 30
0.0
 50
180.0
  0
MTEXT
  5
72B2
330
7240
100
AcDbEntity
  8
寸法
  6
Continuous
 62
     3
100
AcDbMText
 10
1810.11682616897
 20
959.0636885902704
 30
0.0
 40
5.0
 41
0.0
 71
     5
 72
     1
  1
\A1;W
  7
ACAD
 73
     1
 44
1.0
1001
ACAD
1000
MTEXTBEGIN
1070
    73
1070
     1
1070
    44
1040
1.0
1070
    74
1070
     0
1000
MTEXTEND
  0
POINT
  5
72B3
330
7240
100
AcDbEntity
  8
Defpoints
  6
Continuous
 62
     0
100
AcDbPoint
 10
1910.11682616897
 20
832.7805917664276
 30
0.0
  0
POINT
  5
72B4
330
7240
100
AcDbEntity
  8
Defpoints
  6
Continuous
 62
     0
100
AcDbPoint
 10
1710.11682616897
 20
882.5636885902701
 30
0.0
  0
POINT
  5
72B5
330
7240
100
AcDbEntity
  8
Defpoints
  6
Continuous
 62
     0
100
AcDbPoint
 10
1710.11682616897
 20
955.5636885902703
 30
0.0
  0
ENDBLK
  5
724B
330
7240
100
AcDbEntity
  8
0
100
AcDbBlockEnd
  0
BLOCK
  5
7257
330
724D
100
AcDbEntity
  8
0
100
AcDbBlockBegin
  2
*D10
 70
     1
 10
0.0
 20
0.0
 30
0.0
  3
*D10
  1

  0
LINE
  5
72BF
330
724D
100
AcDbEntity
  8
寸法
  6
Continuous
 62
     4
370
    -2
100
AcDbLine
 10
1707.11682616897
 20
895.5636885902702
 30
0.0
 11
1634.11682616897
 21
895.5636885902702
 31
0.0
  0
LINE
  5
72C0
330
724D
100
AcDbEntity
  8
寸法
  6
Continuous
 62
     4
370
    -2
100
AcDbLine
 10
1755.413099690344
 20
781.9022331990367
 30
0.0
 11
1634.11682616897
 21
781.9022331990367
 31
0.0
  0
LINE
  5
72C1
330
724D
100
AcDbEntity
  8
寸法
  6
Continuous
 62
     4
370
    -2
100
AcDbLine
 10
1634.11682616897
 20
894.5636885902702
 30
0.0
 11
1634.11682616897
 21
782.9022331990366
 31
0.0
  0
INSERT
  5
72C2
330
724D
100
AcDbEntity
  8
寸法
  6
Continuous
 62
     4
370
    -2
100
AcDbBlockReference
  2
_Dot
 10
1634.11682616897
 20
895.5636885902702
 30
0.0
 50
90.0
  0
INSERT
  5
72C3
330
724D
100
AcDbEntity
  8
寸法
  6
Continuous
 62
     4
370
    -2
100
AcDbBlockReference
  2
_Dot
 10
1634.11682616897
 20
781.9022331990367
 30
0.0
 50
270.0
  0
MTEXT
  5
72C4
330
724D
100
AcDbEntity
  8
寸法
  6
Continuous
 62
     3
100
AcDbMText
 10
1630.616826168969
 20
838.7329608946537
 30
0.0
 40
5.0
 41
0.0
 71
     5
 72
     1
  1
\A1;E
  7
ACAD
 11
0.0000000000000001
 21
1.0
 31
0.0
 73
     1
 44
1.0
1001
ACAD
1000
MTEXTBEGIN
1070
    73
1070
     1
1070
    44
1040
1.0
1070
    74
1070
     0
1000
MTEXTEND
  0
POINT
  5
72C5
330
724D
100
AcDbEntity
  8
Defpoints
  6
Continuous
 62
     0
100
AcDbPoint
 10
1707.11682616897
 20
895.5636885902702
 30
0.0
  0
POINT
  5
72C6
330
724D
100
AcDbEntity
  8
Defpoints
  6
Continuous
 62
     0
100
AcDbPoint
 10
1755.413099690344
 20
781.9022331990367
 30
0.0
  0
POINT
  5
72C7
330
724D
100
AcDbEntity
  8
Defpoints
  6
Continuous
 62
     0
100
AcDbPoint
 10
1634.11682616897
 20
781.9022331990367
 30
0.0
  0
ENDBLK
  5
7258
330
724D
100
AcDbEntity
  8
0
100
AcDbBlockEnd
  0
BLOCK
  5
7264
330
725A
100
AcDbEntity
  8
0
100
AcDbBlockBegin
  2
*D11
 70
     1
 10
0.0
 20
0.0
 30
0.0
  3
*D11
  1

  0
LINE
  5
72C8
330
725A
100
AcDbEntity
  8
寸法
  6
Continuous
 62
     4
370
    -2
100
AcDbLine
 10
1654.11682616897
 20
836.8636885902704
 30
0.0
 11
1654.464122524303
 21
836.8636885902704
 31
0.0
  0
LINE
  5
72C9
330
725A
100
AcDbEntity
  8
寸法
  6
Continuous
 62
     4
370
    -2
100
AcDbLine
 10
1694.764962929657
 20
781.9022331990367
 30
0.0
 11
1654.464122524303
 21
781.9022331990367
 31
0.0
  0
LINE
  5
72CA
330
725A
100
AcDbEntity
  8
寸法
  6
Continuous
 62
     4
370
    -2
100
AcDbLine
 10
1654.464122524303
 20
835.8636885902704
 30
0.0
 11
1654.464122524303
 21
782.9022331990366
 31
0.0
  0
INSERT
  5
72CB
330
725A
100
AcDbEntity
  8
寸法
  6
Continuous
 62
     4
370
    -2
100
AcDbBlockReference
  2
_Dot
 10
1654.464122524303
 20
836.8636885902704
 30
0.0
 50
90.0
  0
INSERT
  5
72CC
330
725A
100
AcDbEntity
  8
寸法
  6
Continuous
 62
     4
370
    -2
100
AcDbBlockReference
  2
_Dot
 10
1654.464122524303
 20
781.9022331990367
 30
0.0
 50
270.0
  0
MTEXT
  5
72CD
330
725A
100
AcDbEntity
  8
寸法
  6
Continuous
 62
     3
100
AcDbMText
 10
1650.964122524303
 20
809.3829608946538
 30
0.0
 40
5.0
 41
0.0
 71
     5
 72
     1
  1
\A1;D
  7
ACAD
 11
0.0000000000000001
 21
1.0
 31
0.0
 73
     1
 44
1.0
1001
ACAD
1000
MTEXTBEGIN
1070
    73
1070
     1
1070
    44
1040
1.0
1070
    74
1070
     0
1000
MTEXTEND
  0
POINT
  5
72CE
330
725A
100
AcDbEntity
  8
Defpoints
  6
Continuous
 62
     0
100
AcDbPoint
 10
1654.11682616897
 20
836.8636885902704
 30
0.0
  0
POINT
  5
72CF
330
725A
100
AcDbEntity
  8
Defpoints
  6
Continuous
 62
     0
100
AcDbPoint
 10
1694.764962929657
 20
781.9022331990367
 30
0.0
  0
POINT
  5
72D0
330
725A
100
AcDbEntity
  8
Defpoints
  6
Continuous
 62
     0
100
AcDbPoint
 10
1654.464122524303
 20
781.9022331990367
 30
0.0
  0
ENDBLK
  5
7265
330
725A
100
AcDbEntity
  8
0
100
AcDbBlockEnd
  0
BLOCK
  5
7271
330
7267
100
AcDbEntity
  8
0
100
AcDbBlockBegin
  2
*D12
 70
     1
 10
0.0
 20
0.0
 30
0.0
  3
*D12
  1

  0
LINE
  5
7268
330
7267
100
AcDbEntity
  8
寸法
  6
Continuous
 62
     4
370
    -2
100
AcDbLine
 10
1912.11682616897
 20
830.7805917664277
 30
0.0
 11
1970.11682616897
 21
830.7805917664277
 31
0.0
  0
LINE
  5
7269
330
7267
100
AcDbEntity
  8
寸法
  6
Continuous
 62
     4
370
    -2
100
AcDbLine
 10
1912.11682616897
 20
740.7805917664277
 30
0.0
 11
1970.11682616897
 21
740.7805917664277
 31
0.0
  0
LINE
  5
726A
330
7267
100
AcDbEntity
  8
寸法
  6
Continuous
 62
     4
370
    -2
100
AcDbLine
 10
1970.11682616897
 20
829.7805917664277
 30
0.0
 11
1970.11682616897
 21
741.7805917664277
 31
0.0
  0
INSERT
  5
726B
330
7267
100
AcDbEntity
  8
寸法
  6
Continuous
 62
     4
370
    -2
100
AcDbBlockReference
  2
_Dot
 10
1970.11682616897
 20
830.7805917664277
 30
0.0
 50
90.0
  0
INSERT
  5
726C
330
7267
100
AcDbEntity
  8
寸法
  6
Continuous
 62
     4
370
    -2
100
AcDbBlockReference
  2
_Dot
 10
1970.11682616897
 20
740.7805917664277
 30
0.0
 50
270.0
  0
MTEXT
  5
726D
330
7267
100
AcDbEntity
  8
寸法
  6
Continuous
 62
     3
100
AcDbMText
 10
1966.61682616897
 20
785.780591766428
 30
0.0
 40
5.0
 41
0.0
 71
     5
 72
     1
  1
\A1;90
  7
ACAD
 11
0.0000000000000001
 21
1.0
 31
0.0
 73
     1
 44
1.0
1001
ACAD
1000
MTEXTBEGIN
1070
    73
1070
     1
1070
    44
1040
1.0
1070
    74
1070
     0
1000
MTEXTEND
  0
POINT
  5
726E
330
7267
100
AcDbEntity
  8
Defpoints
  6
Continuous
 62
     0
100
AcDbPoint
 10
1912.11682616897
 20
830.7805917664277
 30
0.0
  0
POINT
  5
726F
330
7267
100
AcDbEntity
  8
Defpoints
  6
Continuous
 62
     0
100
AcDbPoint
 10
1912.11682616897
 20
740.7805917664277
 30
0.0
  0
POINT
  5
7270
330
7267
100
AcDbEntity
  8
Defpoints
  6
Continuous
 62
     0
100
AcDbPoint
 10
1970.11682616897
 20
740.7805917664277
 30
0.0
  0
ENDBLK
  5
7272
330
7267
100
AcDbEntity
  8
0
100
AcDbBlockEnd
  0
BLOCK
  5
727E
330
7274
100
AcDbEntity
  8
0
100
AcDbBlockBegin
  2
*D13
 70
     1
 10
0.0
 20
0.0
 30
0.0
  3
*D13
  1

  0
LINE
  5
72E0
330
7274
100
AcDbEntity
  8
寸法
  6
Continuous
 62
     4
370
    -2
100
AcDbLine
 10
1862.820552647595
 20
781.9022331990366
 30
0.0
 11
1950.11682616897
 21
781.9022331990366
 31
0.0
  0
LINE
  5
72E1
330
7274
100
AcDbEntity
  8
寸法
  6
Continuous
 62
     4
370
    -2
100
AcDbLine
 10
1912.11682616897
 20
740.7805917664277
 30
0.0
 11
1950.11682616897
 21
740.7805917664277
 31
0.0
  0
LINE
  5
72E2
330
7274
100
AcDbEntity
  8
寸法
  6
Continuous
 62
     4
370
    -2
100
AcDbLine
 10
1950.11682616897
 20
780.9022331990365
 30
0.0
 11
1950.11682616897
 21
741.7805917664277
 31
0.0
  0
INSERT
  5
72E3
330
7274
100
AcDbEntity
  8
寸法
  6
Continuous
 62
     4
370
    -2
100
AcDbBlockReference
  2
_Dot
 10
1950.11682616897
 20
781.9022331990366
 30
0.0
 50
90.0
  0
INSERT
  5
72E4
330
7274
100
AcDbEntity
  8
寸法
  6
Continuous
 62
     4
370
    -2
100
AcDbBlockReference
  2
_Dot
 10
1950.11682616897
 20
740.7805917664277
 30
0.0
 50
270.0
  0
MTEXT
  5
72E5
330
7274
100
AcDbEntity
  8
寸法
  6
Continuous
 62
     3
100
AcDbMText
 10
1946.61682616897
 20
761.3414124827325
 30
0.0
 40
5.0
 41
0.0
 71
     5
 72
     1
  1
\A1;44
  7
ACAD
 11
0.0000000000000001
 21
1.0
 31
0.0
 73
     1
 44
1.0
1001
ACAD
1000
MTEXTBEGIN
1070
    73
1070
     1
1070
    44
1040
1.0
1070
    74
1070
     0
1000
MTEXTEND
  0
POINT
  5
72E6
330
7274
100
AcDbEntity
  8
Defpoints
  6
Continuous
 62
     0
100
AcDbPoint
 10
1862.820552647595
 20
781.9022331990366
 30
0.0
  0
POINT
  5
72E7
330
7274
100
AcDbEntity
  8
Defpoints
  6
Continuous
 62
     0
100
AcDbPoint
 10
1912.11682616897
 20
740.7805917664277
 30
0.0
  0
POINT
  5
72E8
330
7274
100
AcDbEntity
  8
Defpoints
  6
Continuous
 62
     0
100
AcDbPoint
 10
1950.11682616897
 20
740.7805917664277
 30
0.0
  0
ENDBLK
  5
727F
330
7274
100
AcDbEntity
  8
0
100
AcDbBlockEnd
  0
BLOCK
  5
728A
330
7281
100
AcDbEntity
  8
0
100
AcDbBlockBegin
  2
*D14
 70
     1
 10
0.0
 20
0.0
 30
0.0
  3
*D14
  1

  0
LINE
  5
72D8
330
7281
100
AcDbEntity
  8
寸法
  6
Continuous
 62
     4
370
    -2
100
AcDbLine
 10
1910.11682616897
 20
738.7805917664277
 30
0.0
 11
1910.11682616897
 21
676.9022331990365
 31
0.0
  0
LINE
  5
72D9
330
7281
100
AcDbEntity
  8
寸法
  6
Continuous
 62
     4
370
    -2
100
AcDbLine
 10
1909.11682616897
 20
676.9022331990365
 30
0.0
 11
1860.116826168969
 21
676.9022331990365
 31
0.0
  0
INSERT
  5
72DA
330
7281
100
AcDbEntity
  8
寸法
  6
Continuous
 62
     4
370
    -2
100
AcDbBlockReference
  2
_Dot
 10
1910.11682616897
 20
676.9022331990365
 30
0.0
  0
INSERT
  5
72DB
330
7281
100
AcDbEntity
  8
寸法
  6
Continuous
 62
     4
370
    -2
100
AcDbBlockReference
  2
_Dot
 10
1859.116826168969
 20
676.9022331990365
 30
0.0
 50
180.0
  0
MTEXT
  5
72DC
330
7281
100
AcDbEntity
  8
寸法
  6
Continuous
 62
     3
100
AcDbMText
 10
1884.616826168969
 20
680.4022331990365
 30
0.0
 40
5.0
 41
0.0
 71
     5
 72
     1
  1
\A1;50≦
  7
ACAD
 73
     1
 44
1.0
1001
ACAD
1000
MTEXTBEGIN
1070
    73
1070
     1
1070
    44
1040
1.0
1070
    74
1070
     0
1000
MTEXTEND
  0
POINT
  5
72DD
330
7281
100
AcDbEntity
  8
Defpoints
  6
Continuous
 62
     0
100
AcDbPoint
 10
1910.11682616897
 20
738.7805917664277
 30
0.0
  0
POINT
  5
72DE
330
7281
100
AcDbEntity
  8
Defpoints
  6
Continuous
 62
     0
100
AcDbPoint
 10
1859.116826168969
 20
676.9022331990365
 30
0.0
  0
POINT
  5
72DF
330
7281
100
AcDbEntity
  8
Defpoints
  6
Continuous
 62
     0
100
AcDbPoint
 10
1859.116826168969
 20
676.9022331990365
 30
0.0
  0
ENDBLK
  5
728B
330
7281
100
AcDbEntity
  8
0
100
AcDbBlockEnd
  0
BLOCK
  5
7295
330
728D
100
AcDbEntity
  8
0
100
AcDbBlockBegin
  2
*D15
 70
     1
 10
0.0
 20
0.0
 30
0.0
  3
*D15
  1

  0
LINE
  5
72D1
330
728D
100
AcDbEntity
  8
寸法
  6
Continuous
 62
     4
370
    -2
100
AcDbLine
 10
1858.116826168969
 20
676.9022331990365
 30
0.0
 11
1760.116826168969
 21
676.9022331990365
 31
0.0
  0
INSERT
  5
72D2
330
728D
100
AcDbEntity
  8
寸法
  6
Continuous
 62
     4
370
    -2
100
AcDbBlockReference
  2
_Dot
 10
1859.116826168969
 20
676.9022331990365
 30
0.0
  0
INSERT
  5
72D3
330
728D
100
AcDbEntity
  8
寸法
  6
Continuous
 62
     4
370
    -2
100
AcDbBlockReference
  2
_Dot
 10
1759.116826168969
 20
676.9022331990365
 30
0.0
 50
180.0
  0
MTEXT
  5
72D4
330
728D
100
AcDbEntity
  8
寸法
  6
Continuous
 62
     3
100
AcDbMText
 10
1809.116826168969
 20
680.4022331990365
 30
0.0
 40
5.0
 41
0.0
 71
     5
 72
     1
  1
\A1;≦Ｃ
  7
ACAD
 73
     1
 44
1.0
1001
ACAD
1000
MTEXTBEGIN
1070
    73
1070
     1
1070
    44
1040
1.0
1070
    74
1070
     0
1000
MTEXTEND
  0
POINT
  5
72D5
330
728D
100
AcDbEntity
  8
Defpoints
  6
Continuous
 62
     0
100
AcDbPoint
 10
1859.116826168969
 20
676.9022331990365
 30
0.0
  0
POINT
  5
72D6
330
728D
100
AcDbEntity
  8
Defpoints
  6
Continuous
 62
     0
100
AcDbPoint
 10
1759.116826168969
 20
676.9022331990365
 30
0.0
  0
POINT
  5
72D7
330
728D
100
AcDbEntity
  8
Defpoints
  6
Continuous
 62
     0
100
AcDbPoint
 10
1759.116826168969
 20
676.9022331990365
 30
0.0
  0
ENDBLK
  5
7296
330
728D
100
AcDbEntity
  8
0
100
AcDbBlockEnd
  0
BLOCK
  5
72A0
330
7298
100
AcDbEntity
  8
0
100
AcDbBlockBegin
  2
*D16
 70
     1
 10
0.0
 20
0.0
 30
0.0
  3
*D16
  1

  0
LINE
  5
7299
330
7298
100
AcDbEntity
  8
寸法
  6
Continuous
 62
     4
370
    -2
100
AcDbLine
 10
1758.116826168969
 20
676.9022331990365
 30
0.0
 11
1710.11682616897
 21
676.9022331990365
 31
0.0
  0
INSERT
  5
729A
330
7298
100
AcDbEntity
  8
寸法
  6
Continuous
 62
     4
370
    -2
100
AcDbBlockReference
  2
_Dot
 10
1759.116826168969
 20
676.9022331990365
 30
0.0
  0
INSERT
  5
729B
330
7298
100
AcDbEntity
  8
寸法
  6
Continuous
 62
     4
370
    -2
100
AcDbBlockReference
  2
_Dot
 10
1709.11682616897
 20
676.9022331990365
 30
0.0
 50
180.0
  0
MTEXT
  5
729C
330
7298
100
AcDbEntity
  8
寸法
  6
Continuous
 62
     3
100
AcDbMText
 10
1734.116826168969
 20
680.4022331990365
 30
0.0
 40
5.0
 41
0.0
 71
     5
 72
     1
  1
\A1;50
  7
ACAD
 73
     1
 44
1.0
1001
ACAD
1000
MTEXTBEGIN
1070
    73
1070
     1
1070
    44
1040
1.0
1070
    74
1070
     0
1000
MTEXTEND
  0
POINT
  5
729D
330
7298
100
AcDbEntity
  8
Defpoints
  6
Continuous
 62
     0
100
AcDbPoint
 10
1759.116826168969
 20
676.9022331990365
 30
0.0
  0
POINT
  5
729E
330
7298
100
AcDbEntity
  8
Defpoints
  6
Continuous
 62
     0
100
AcDbPoint
 10
1709.11682616897
 20
676.9022331990365
 30
0.0
  0
POINT
  5
729F
330
7298
100
AcDbEntity
  8
Defpoints
  6
Continuous
 62
     0
100
AcDbPoint
 10
1709.11682616897
 20
676.9022331990365
 30
0.0
  0
ENDBLK
  5
72A1
330
7298
100
AcDbEntity
  8
0
100
AcDbBlockEnd
  0
BLOCK
  5
72AB
330
72A3
100
AcDbEntity
  8
0
100
AcDbBlockBegin
  2
*D17
 70
     1
 10
0.0
 20
0.0
 30
0.0
  3
*D17
  1

  0
LINE
  5
72A4
330
72A3
100
AcDbEntity
  8
寸法
  6
Continuous
 62
     4
370
    -2
100
AcDbLine
 10
1810.11682616897
 20
721.9022331990368
 30
0.0
 11
1858.11682616897
 21
721.9022331990368
 31
0.0
  0
INSERT
  5
72A5
330
72A3
100
AcDbEntity
  8
寸法
  6
Continuous
 62
     4
370
    -2
100
AcDbBlockReference
  2
_Dot
 10
1809.11682616897
 20
721.9022331990368
 30
0.0
 50
180.0
  0
INSERT
  5
72A6
330
72A3
100
AcDbEntity
  8
寸法
  6
Continuous
 62
     4
370
    -2
100
AcDbBlockReference
  2
_Dot
 10
1859.11682616897
 20
721.9022331990368
 30
0.0
  0
MTEXT
  5
72A7
330
72A3
100
AcDbEntity
  8
寸法
  6
Continuous
 62
     3
100
AcDbMText
 10
1834.11682616897
 20
725.4022331990368
 30
0.0
 40
5.0
 41
0.0
 71
     5
 72
     1
  1
\A1;50
  7
ACAD
 73
     1
 44
1.0
1001
ACAD
1000
MTEXTBEGIN
1070
    73
1070
     1
1070
    44
1040
1.0
1070
    74
1070
     0
1000
MTEXTEND
  0
POINT
  5
72A8
330
72A3
100
AcDbEntity
  8
Defpoints
  6
Continuous
 62
     0
100
AcDbPoint
 10
1809.11682616897
 20
721.9022331990368
 30
0.0
  0
POINT
  5
72A9
330
72A3
100
AcDbEntity
  8
Defpoints
  6
Continuous
 62
     0
100
AcDbPoint
 10
1859.11682616897
 20
721.9022331990368
 30
0.0
  0
POINT
  5
72AA
330
72A3
100
AcDbEntity
  8
Defpoints
  6
Continuous
 62
     0
100
AcDbPoint
 10
1859.11682616897
 20
721.9022331990368
 30
0.0
  0
ENDBLK
  5
72AC
330
72A3
100
AcDbEntity
  8
0
100
AcDbBlockEnd
  0
ENDSEC
  0
SECTION
  2
ENTITIES
  0
LINE
  5
6CC8
330
1E
100
AcDbEntity
  8
図枠
  6
Continuous
 62
     7
100
AcDbLine
 10
1563.11682616897
 20
438.5920387169607
 30
0.0
 11
1563.11682616897
 21
645.5920387169608
 31
0.0
  0
LINE
  5
6CC9
330
1E
100
AcDbEntity
  8
図枠
  6
Continuous
 62
     7
100
AcDbLine
 10
1663.11682616897
 20
438.5920387169607
 30
0.0
 11
1663.11682616897
 21
645.5920387169608
 31
0.0
  0
LINE
  5
6CCA
330
1E
100
AcDbEntity
  8
図枠
  6
Continuous
 62
     7
100
AcDbLine
 10
1758.11682616897
 20
438.5920387169607
 30
0.0
 11
1758.11682616897
 21
645.5920387169608
 31
0.0
  0
LINE
  5
6CCB
330
1E
100
AcDbEntity
  8
図枠
  6
Continuous
 62
     7
100
AcDbLine
 10
1758.11682616897
 20
645.5920387169608
 30
0.0
 11
1549.11682616897
 21
645.5920387169608
 31
0.0
  0
LINE
  5
6CCC
330
1E
100
AcDbEntity
  8
図枠
  6
Continuous
 62
     7
100
AcDbLine
 10
1758.11682616897
 20
636.5920387169608
 30
0.0
 11
1549.11682616897
 21
636.5920387169608
 31
0.0
  0
LINE
  5
6CCD
330
1E
100
AcDbEntity
  8
図枠
  6
Continuous
 62
     7
100
AcDbLine
 10
1758.11682616897
 20
627.5920387169608
 30
0.0
 11
1549.11682616897
 21
627.5920387169608
 31
0.0
  0
LINE
  5
6CCE
330
1E
100
AcDbEntity
  8
図枠
  6
Continuous
 62
     7
100
AcDbLine
 10
1758.11682616897
 20
618.5920387169608
 30
0.0
 11
1549.11682616897
 21
618.5920387169608
 31
0.0
  0
LINE
  5
6CCF
330
1E
100
AcDbEntity
  8
図枠
  6
Continuous
 62
     7
100
AcDbLine
 10
1758.11682616897
 20
609.5920387169607
 30
0.0
 11
1549.11682616897
 21
609.5920387169607
 31
0.0
  0
LINE
  5
6CD0
330
1E
100
AcDbEntity
  8
図枠
  6
Continuous
 62
     7
100
AcDbLine
 10
1758.11682616897
 20
600.5920387169608
 30
0.0
 11
1549.11682616897
 21
600.5920387169608
 31
0.0
  0
LINE
  5
6CD1
330
1E
100
AcDbEntity
  8
図枠
  6
Continuous
 62
     7
100
AcDbLine
 10
1758.11682616897
 20
591.5920387169608
 30
0.0
 11
1549.11682616897
 21
591.5920387169608
 31
0.0
  0
LINE
  5
6CD2
330
1E
100
AcDbEntity
  8
図枠
  6
Continuous
 62
     7
100
AcDbLine
 10
1758.11682616897
 20
582.5920387169608
 30
0.0
 11
1549.11682616897
 21
582.5920387169608
 31
0.0
  0
LINE
  5
6CD3
330
1E
100
AcDbEntity
  8
図枠
  6
Continuous
 62
     7
100
AcDbLine
 10
1758.11682616897
 20
573.5920387169608
 30
0.0
 11
1549.11682616897
 21
573.5920387169608
 31
0.0
  0
LINE
  5
6CD4
330
1E
100
AcDbEntity
  8
図枠
  6
Continuous
 62
     7
100
AcDbLine
 10
1758.11682616897
 20
564.5920387169608
 30
0.0
 11
1549.11682616897
 21
564.5920387169608
 31
0.0
  0
LINE
  5
6CD5
330
1E
100
AcDbEntity
  8
図枠
  6
Continuous
 62
     7
100
AcDbLine
 10
1758.11682616897
 20
555.5920387169607
 30
0.0
 11
1549.11682616897
 21
555.5920387169607
 31
0.0
  0
LINE
  5
6CD6
330
1E
100
AcDbEntity
  8
図枠
  6
Continuous
 62
     7
100
AcDbLine
 10
1758.11682616897
 20
546.5920387169608
 30
0.0
 11
1549.11682616897
 21
546.5920387169608
 31
0.0
  0
LINE
  5
6CD7
330
1E
100
AcDbEntity
  8
図枠
  6
Continuous
 62
     7
100
AcDbLine
 10
1758.11682616897
 20
537.5920387169608
 30
0.0
 11
1549.11682616897
 21
537.5920387169608
 31
0.0
  0
LINE
  5
6CD8
330
1E
100
AcDbEntity
  8
図枠
  6
Continuous
 62
     7
100
AcDbLine
 10
1758.11682616897
 20
528.5920387169607
 30
0.0
 11
1549.11682616897
 21
528.5920387169607
 31
0.0
  0
LINE
  5
6CD9
330
1E
100
AcDbEntity
  8
図枠
  6
Continuous
 62
     7
100
AcDbLine
 10
1758.11682616897
 20
519.5920387169606
 30
0.0
 11
1549.11682616897
 21
519.5920387169606
 31
0.0
  0
LINE
  5
6CDA
330
1E
100
AcDbEntity
  8
図枠
  6
Continuous
 62
     7
100
AcDbLine
 10
1758.11682616897
 20
510.5920387169607
 30
0.0
 11
1549.11682616897
 21
510.5920387169607
 31
0.0
  0
LINE
  5
6CDB
330
1E
100
AcDbEntity
  8
図枠
  6
Continuous
 62
     7
100
AcDbLine
 10
1758.11682616897
 20
501.5920387169606
 30
0.0
 11
1549.11682616897
 21
501.5920387169606
 31
0.0
  0
LINE
  5
6CDC
330
1E
100
AcDbEntity
  8
図枠
  6
Continuous
 62
     7
100
AcDbLine
 10
1758.11682616897
 20
492.5920387169607
 30
0.0
 11
1549.11682616897
 21
492.5920387169607
 31
0.0
  0
LINE
  5
6CDD
330
1E
100
AcDbEntity
  8
図枠
  6
Continuous
 62
     7
100
AcDbLine
 10
1758.11682616897
 20
483.5920387169607
 30
0.0
 11
1549.11682616897
 21
483.5920387169607
 31
0.0
  0
LINE
  5
6CDE
330
1E
100
AcDbEntity
  8
図枠
  6
Continuous
 62
     7
100
AcDbLine
 10
1758.11682616897
 20
474.5920387169607
 30
0.0
 11
1549.11682616897
 21
474.5920387169607
 31
0.0
  0
LINE
  5
6CDF
330
1E
100
AcDbEntity
  8
図枠
  6
Continuous
 62
     7
100
AcDbLine
 10
1758.11682616897
 20
465.5920387169608
 30
0.0
 11
1549.11682616897
 21
465.5920387169608
 31
0.0
  0
LINE
  5
6CE0
330
1E
100
AcDbEntity
  8
図枠
  6
Continuous
 62
     7
100
AcDbLine
 10
1758.11682616897
 20
456.5920387169607
 30
0.0
 11
1549.11682616897
 21
456.5920387169607
 31
0.0
  0
LINE
  5
6CE1
330
1E
100
AcDbEntity
  8
図枠
  6
Continuous
 62
     7
100
AcDbLine
 10
1758.11682616897
 20
447.5920387169606
 30
0.0
 11
1549.11682616897
 21
447.5920387169606
 31
0.0
  0
LINE
  5
6CE2
330
1E
100
AcDbEntity
  8
図枠
  6
Continuous
 62
     7
100
AcDbLine
 10
1758.11682616897
 20
438.5920387169607
 30
0.0
 11
1549.11682616897
 21
438.5920387169607
 31
0.0
  0
LINE
  5
6CE3
330
1E
100
AcDbEntity
  8
図枠
  6
Continuous
 62
     7
100
AcDbLine
 10
1549.11682616897
 20
438.5920387169607
 30
0.0
 11
1549.11682616897
 21
645.5920387169608
 31
0.0
  0
LINE
  5
6CE4
330
1E
100
AcDbEntity
  8
図枠
  6
Continuous
 62
     7
100
AcDbLine
 10
1759.11682616897
 20
438.5920387169607
 30
0.0
 11
1759.11682616897
 21
645.5920387169608
 31
0.0
  0
LINE
  5
6CE5
330
1E
100
AcDbEntity
  8
図枠
  6
Continuous
 62
     7
100
AcDbLine
 10
1794.116826168969
 20
438.5920387169607
 30
0.0
 11
1794.116826168969
 21
645.5920387169608
 31
0.0
  0
LINE
  5
6CE6
330
1E
100
AcDbEntity
  8
図枠
  6
Continuous
 62
     7
100
AcDbLine
 10
1812.11682616897
 20
438.5920387169607
 30
0.0
 11
1812.11682616897
 21
645.5920387169608
 31
0.0
  0
LINE
  5
6CE7
330
1E
100
AcDbEntity
  8
図枠
  6
Continuous
 62
     7
100
AcDbLine
 10
1759.11682616897
 20
645.5920387169608
 30
0.0
 11
1826.11682616897
 21
645.5920387169608
 31
0.0
  0
LINE
  5
6CE8
330
1E
100
AcDbEntity
  8
図枠
  6
Continuous
 62
     7
100
AcDbLine
 10
1759.11682616897
 20
636.5920387169608
 30
0.0
 11
1826.11682616897
 21
636.5920387169608
 31
0.0
  0
LINE
  5
6CE9
330
1E
100
AcDbEntity
  8
図枠
  6
Continuous
 62
     7
100
AcDbLine
 10
1759.11682616897
 20
627.5920387169608
 30
0.0
 11
1826.11682616897
 21
627.5920387169608
 31
0.0
  0
LINE
  5
6CEA
330
1E
100
AcDbEntity
  8
図枠
  6
Continuous
 62
     7
100
AcDbLine
 10
1759.11682616897
 20
618.5920387169608
 30
0.0
 11
1826.11682616897
 21
618.5920387169608
 31
0.0
  0
LINE
  5
6CEB
330
1E
100
AcDbEntity
  8
図枠
  6
Continuous
 62
     7
100
AcDbLine
 10
1759.11682616897
 20
609.5920387169607
 30
0.0
 11
1826.11682616897
 21
609.5920387169607
 31
0.0
  0
LINE
  5
6CEC
330
1E
100
AcDbEntity
  8
図枠
  6
Continuous
 62
     7
100
AcDbLine
 10
1759.11682616897
 20
600.5920387169608
 30
0.0
 11
1826.11682616897
 21
600.5920387169608
 31
0.0
  0
LINE
  5
6CED
330
1E
100
AcDbEntity
  8
図枠
  6
Continuous
 62
     7
100
AcDbLine
 10
1759.11682616897
 20
591.5920387169608
 30
0.0
 11
1826.11682616897
 21
591.5920387169608
 31
0.0
  0
LINE
  5
6CEE
330
1E
100
AcDbEntity
  8
図枠
  6
Continuous
 62
     7
100
AcDbLine
 10
1759.11682616897
 20
582.5920387169608
 30
0.0
 11
1826.11682616897
 21
582.5920387169608
 31
0.0
  0
LINE
  5
6CEF
330
1E
100
AcDbEntity
  8
図枠
  6
Continuous
 62
     7
100
AcDbLine
 10
1759.11682616897
 20
573.5920387169608
 30
0.0
 11
1826.11682616897
 21
573.5920387169608
 31
0.0
  0
LINE
  5
6CF0
330
1E
100
AcDbEntity
  8
図枠
  6
Continuous
 62
     7
100
AcDbLine
 10
1759.11682616897
 20
564.5920387169608
 30
0.0
 11
1826.11682616897
 21
564.5920387169608
 31
0.0
  0
LINE
  5
6CF1
330
1E
100
AcDbEntity
  8
図枠
  6
Continuous
 62
     7
100
AcDbLine
 10
1759.11682616897
 20
555.5920387169607
 30
0.0
 11
1826.11682616897
 21
555.5920387169607
 31
0.0
  0
LINE
  5
6CF2
330
1E
100
AcDbEntity
  8
図枠
  6
Continuous
 62
     7
100
AcDbLine
 10
1759.11682616897
 20
546.5920387169608
 30
0.0
 11
1826.11682616897
 21
546.5920387169608
 31
0.0
  0
LINE
  5
6CF3
330
1E
100
AcDbEntity
  8
図枠
  6
Continuous
 62
     7
100
AcDbLine
 10
1759.11682616897
 20
537.5920387169608
 30
0.0
 11
1826.11682616897
 21
537.5920387169608
 31
0.0
  0
LINE
  5
6CF4
330
1E
100
AcDbEntity
  8
図枠
  6
Continuous
 62
     7
100
AcDbLine
 10
1759.11682616897
 20
528.5920387169607
 30
0.0
 11
1826.11682616897
 21
528.5920387169607
 31
0.0
  0
LINE
  5
6CF5
330
1E
100
AcDbEntity
  8
図枠
  6
Continuous
 62
     7
100
AcDbLine
 10
1759.11682616897
 20
519.5920387169606
 30
0.0
 11
1826.11682616897
 21
519.5920387169606
 31
0.0
  0
LINE
  5
6CF6
330
1E
100
AcDbEntity
  8
図枠
  6
Continuous
 62
     7
100
AcDbLine
 10
1759.11682616897
 20
510.5920387169607
 30
0.0
 11
1826.11682616897
 21
510.5920387169607
 31
0.0
  0
LINE
  5
6CF7
330
1E
100
AcDbEntity
  8
図枠
  6
Continuous
 62
     7
100
AcDbLine
 10
1759.11682616897
 20
501.5920387169606
 30
0.0
 11
1826.11682616897
 21
501.5920387169606
 31
0.0
  0
LINE
  5
6CF8
330
1E
100
AcDbEntity
  8
図枠
  6
Continuous
 62
     7
100
AcDbLine
 10
1759.11682616897
 20
492.5920387169607
 30
0.0
 11
1826.11682616897
 21
492.5920387169607
 31
0.0
  0
LINE
  5
6CF9
330
1E
100
AcDbEntity
  8
図枠
  6
Continuous
 62
     7
100
AcDbLine
 10
1759.11682616897
 20
483.5920387169607
 30
0.0
 11
1826.11682616897
 21
483.5920387169607
 31
0.0
  0
LINE
  5
6CFA
330
1E
100
AcDbEntity
  8
図枠
  6
Continuous
 62
     7
100
AcDbLine
 10
1759.11682616897
 20
474.5920387169607
 30
0.0
 11
1826.11682616897
 21
474.5920387169607
 31
0.0
  0
LINE
  5
6CFB
330
1E
100
AcDbEntity
  8
図枠
  6
Continuous
 62
     7
100
AcDbLine
 10
1759.11682616897
 20
465.5920387169608
 30
0.0
 11
1826.11682616897
 21
465.5920387169608
 31
0.0
  0
LINE
  5
6CFC
330
1E
100
AcDbEntity
  8
図枠
  6
Continuous
 62
     7
100
AcDbLine
 10
1759.11682616897
 20
456.5920387169607
 30
0.0
 11
1826.11682616897
 21
456.5920387169607
 31
0.0
  0
LINE
  5
6CFD
330
1E
100
AcDbEntity
  8
図枠
  6
Continuous
 62
     7
100
AcDbLine
 10
1759.11682616897
 20
447.5920387169606
 30
0.0
 11
1826.11682616897
 21
447.5920387169606
 31
0.0
  0
LINE
  5
6CFE
330
1E
100
AcDbEntity
  8
図枠
  6
Continuous
 62
     7
100
AcDbLine
 10
1759.11682616897
 20
438.5920387169607
 30
0.0
 11
1826.11682616897
 21
438.5920387169607
 31
0.0
  0
LINE
  5
6CFF
330
1E
100
AcDbEntity
  8
図枠
  6
Continuous
 62
     7
100
AcDbLine
 10
1826.11682616897
 20
438.5920387169607
 30
0.0
 11
1826.11682616897
 21
645.5920387169608
 31
0.0
  0
LINE
  5
6D00
330
1E
100
AcDbEntity
  8
図枠
  6
Continuous
 62
     7
100
AcDbLine
 10
2071.11682616897
 20
618.5920387169608
 30
0.0
 11
1846.11682616897
 21
618.5920387169608
 31
0.0
  0
LINE
  5
6D01
330
1E
100
AcDbEntity
  8
図枠
  6
Continuous
 62
     7
100
AcDbLine
 10
2071.11682616897
 20
609.5920387169607
 30
0.0
 11
1846.11682616897
 21
609.5920387169607
 31
0.0
  0
LINE
  5
6D02
330
1E
100
AcDbEntity
  8
図枠
  6
Continuous
 62
     7
100
AcDbLine
 10
2071.11682616897
 20
600.5920387169608
 30
0.0
 11
1846.11682616897
 21
600.5920387169608
 31
0.0
  0
LINE
  5
6D03
330
1E
100
AcDbEntity
  8
図枠
  6
Continuous
 62
     7
100
AcDbLine
 10
2071.11682616897
 20
591.5920387169608
 30
0.0
 11
1846.11682616897
 21
591.5920387169608
 31
0.0
  0
LINE
  5
6D04
330
1E
100
AcDbEntity
  8
図枠
  6
Continuous
 62
     7
100
AcDbLine
 10
2071.11682616897
 20
582.5920387169608
 30
0.0
 11
1846.11682616897
 21
582.5920387169608
 31
0.0
  0
LINE
  5
6D05
330
1E
100
AcDbEntity
  8
図枠
  6
Continuous
 62
     7
100
AcDbLine
 10
2071.11682616897
 20
573.5920387169608
 30
0.0
 11
1846.11682616897
 21
573.5920387169608
 31
0.0
  0
LINE
  5
6D06
330
1E
100
AcDbEntity
  8
図枠
  6
Continuous
 62
     7
100
AcDbLine
 10
2071.11682616897
 20
564.5920387169608
 30
0.0
 11
1846.11682616897
 21
564.5920387169608
 31
0.0
  0
LINE
  5
6D07
330
1E
100
AcDbEntity
  8
図枠
  6
Continuous
 62
     7
100
AcDbLine
 10
2071.11682616897
 20
555.5920387169607
 30
0.0
 11
1846.11682616897
 21
555.5920387169607
 31
0.0
  0
LINE
  5
6D08
330
1E
100
AcDbEntity
  8
図枠
  6
Continuous
 62
     7
100
AcDbLine
 10
2071.11682616897
 20
546.5920387169608
 30
0.0
 11
1846.11682616897
 21
546.5920387169608
 31
0.0
  0
LINE
  5
6D09
330
1E
100
AcDbEntity
  8
図枠
  6
Continuous
 62
     7
100
AcDbLine
 10
2071.11682616897
 20
537.5920387169608
 30
0.0
 11
1846.11682616897
 21
537.5920387169608
 31
0.0
  0
LINE
  5
6D0A
330
1E
100
AcDbEntity
  8
図枠
  6
Continuous
 62
     7
100
AcDbLine
 10
2071.11682616897
 20
528.5920387169607
 30
0.0
 11
1846.11682616897
 21
528.5920387169607
 31
0.0
  0
LINE
  5
6D0B
330
1E
100
AcDbEntity
  8
図枠
  6
Continuous
 62
     7
100
AcDbLine
 10
2071.11682616897
 20
645.5920387169608
 30
0.0
 11
1846.11682616897
 21
645.5920387169608
 31
0.0
  0
LINE
  5
6D0C
330
1E
100
AcDbEntity
  8
図枠
  6
Continuous
 62
     7
100
AcDbLine
 10
2071.11682616897
 20
636.5920387169608
 30
0.0
 11
1846.11682616897
 21
636.5920387169608
 31
0.0
  0
LINE
  5
6D0D
330
1E
100
AcDbEntity
  8
図枠
  6
Continuous
 62
     7
100
AcDbLine
 10
2071.11682616897
 20
627.5920387169608
 30
0.0
 11
1846.11682616897
 21
627.5920387169608
 31
0.0
  0
LINE
  5
6D0E
330
1E
100
AcDbEntity
  8
図枠
  6
Continuous
 62
     7
100
AcDbLine
 10
1846.11682616897
 20
645.5920387169608
 30
0.0
 11
1846.11682616897
 21
528.5920387169607
 31
0.0
  0
LINE
  5
6D0F
330
1E
100
AcDbEntity
  8
図枠
  6
Continuous
 62
     7
100
AcDbLine
 10
2071.11682616897
 20
645.5920387169608
 30
0.0
 11
2071.11682616897
 21
528.5920387169607
 31
0.0
  0
LINE
  5
6D10
330
1E
100
AcDbEntity
  8
図枠
  6
Continuous
 62
     7
100
AcDbLine
 10
1951.11682616897
 20
645.5920387169608
 30
0.0
 11
1951.11682616897
 21
528.5920387169607
 31
0.0
  0
LINE
  5
6D11
330
1E
100
AcDbEntity
  8
図枠
  6
Continuous
 62
     7
100
AcDbLine
 10
1921.11682616897
 20
645.5920387169608
 30
0.0
 11
1921.11682616897
 21
528.5920387169607
 31
0.0
  0
LINE
  5
6D12
330
1E
100
AcDbEntity
  8
図枠
  6
Continuous
 62
     7
100
AcDbLine
 10
1981.11682616897
 20
645.5920387169608
 30
0.0
 11
1981.11682616897
 21
528.5920387169607
 31
0.0
  0
LINE
  5
6D13
330
1E
100
AcDbEntity
  8
図枠
  6
Continuous
 62
     7
100
AcDbLine
 10
2011.11682616897
 20
645.5920387169608
 30
0.0
 11
2011.11682616897
 21
528.5920387169607
 31
0.0
  0
LINE
  5
6D14
330
1E
100
AcDbEntity
  8
図枠
  6
Continuous
 62
     7
100
AcDbLine
 10
2041.116826168971
 20
645.5920387169608
 30
0.0
 11
2041.116826168971
 21
528.5920387169607
 31
0.0
  0
LINE
  5
6D1B
330
1E
100
AcDbEntity
  8
躯体と製品
  6
DASHED1
 62
     7
100
AcDbLine
 10
1881.233325752449
 20
830.7922533621816
 30
0.0
 11
1887.172525475063
 21
830.4809930940008
 31
0.0
  0
LINE
  5
6D1C
330
1E
100
AcDbEntity
  8
躯体と製品
  6
Continuous
 62
     3
100
AcDbLine
 10
1723.61682616897
 20
841.4249955005054
 30
0.0
 11
1723.61682616897
 21
852.4760309337903
 31
0.0
  0
LINE
  5
6D1D
330
1E
100
AcDbEntity
  8
躯体と製品
  6
Continuous
 62
     3
100
AcDbLine
 10
1723.61682616897
 20
852.4760309337903
 30
0.0
 11
1725.11682616897
 21
852.4760309337903
 31
0.0
  0
ARC
  5
6D1E
330
1E
100
AcDbEntity
  8
躯体と製品
  6
Continuous
 62
     3
100
AcDbCircle
 10
1907.11682616897
 20
743.7805917664277
 30
0.0
 40
1.5
100
AcDbArc
 50
270.0
 51
0.0
  0
LINE
  5
6D1F
330
1E
100
AcDbEntity
  8
躯体と製品
  6
Continuous
 62
     3
100
AcDbLine
 10
1907.11682616897
 20
742.2805917664277
 30
0.0
 11
1900.116826168969
 21
742.2805917664277
 31
0.0
  0
LINE
  5
6D20
330
1E
100
AcDbEntity
  8
躯体と製品
  6
Continuous
 62
     3
100
AcDbLine
 10
1908.61682616897
 20
743.7805917664277
 30
0.0
 11
1908.61682616897
 21
827.9336980662831
 31
0.0
  0
LINE
  5
6D21
330
1E
100
AcDbEntity
  8
躯体と製品
  6
Continuous
 62
     3
100
AcDbLine
 10
1900.116826168969
 20
740.7805917664277
 30
0.0
 11
1900.116826168969
 21
742.2805917664277
 31
0.0
  0
LINE
  5
6D22
330
1E
100
AcDbEntity
  8
躯体と製品
  6
Continuous
 62
     3
100
AcDbLine
 10
1725.985986278362
 20
838.9284216636188
 30
0.0
 11
1907.195330103334
 21
829.4316423684151
 31
0.0
  0
LINE
  5
6D23
330
1E
100
AcDbEntity
  8
躯体と製品
  6
Continuous
 62
     3
100
AcDbLine
 10
1907.11682616897
 20
740.7805917664277
 30
0.0
 11
1900.116826168969
 21
740.7805917664277
 31
0.0
  0
ARC
  5
6D24
330
1E
100
AcDbEntity
  8
躯体と製品
  6
Continuous
 62
     3
100
AcDbCircle
 10
1907.11682616897
 20
827.9336980662831
 30
0.0
 40
3.0
100
AcDbArc
 50
0.0
 51
86.99999999999441
  0
ARC
  5
6D25
330
1E
100
AcDbEntity
  8
躯体と製品
  6
Continuous
 62
     3
100
AcDbCircle
 10
1907.11682616897
 20
743.7805917664277
 30
0.0
 40
3.0
100
AcDbArc
 50
270.0
 51
0.0
  0
LINE
  5
6D26
330
1E
100
AcDbEntity
  8
躯体と製品
  6
Continuous
 62
     3
100
AcDbLine
 10
1910.11682616897
 20
827.9336980662831
 30
0.0
 11
1910.11682616897
 21
743.7805917664277
 31
0.0
  0
POINT
  5
6D27
330
1E
100
AcDbEntity
  8
躯体と製品
 62
     4
100
AcDbPoint
 10
1910.11682616897
 20
830.7805917664277
 30
0.0
  0
POINT
  5
6D28
330
1E
100
AcDbEntity
  8
躯体と製品
 62
     4
100
AcDbPoint
 10
1910.11682616897
 20
740.7805917664277
 30
0.0
  0
LINE
  5
6D29
330
1E
100
AcDbEntity
  8
躯体と製品
  6
Continuous
 62
     3
100
AcDbLine
 10
1725.11682616897
 20
841.4249955005052
 30
0.0
 11
1725.11682616897
 21
852.4760309337903
 31
0.0
  0
ARC
  5
6D2A
330
1E
100
AcDbEntity
  8
躯体と製品
  6
Continuous
 62
     3
100
AcDbCircle
 10
1726.11682616897
 20
841.4249955005052
 30
0.0
 40
1.0
100
AcDbArc
 50
180.0
 51
266.9999999999944
  0
LINE
  5
6D2B
330
1E
100
AcDbEntity
  8
躯体と製品
  6
Continuous
 62
     3
100
AcDbLine
 10
1726.064490212727
 20
840.4263659657505
 30
0.0
 11
1907.273834037698
 21
830.929586670547
 31
0.0
  0
ARC
  5
6D2C
330
1E
100
AcDbEntity
  8
躯体と製品
  6
Continuous
 62
     3
100
AcDbCircle
 10
1726.11682616897
 20
841.4249955005054
 30
0.0
 40
2.5
100
AcDbArc
 50
180.0
 51
266.9999999999944
  0
ARC
  5
6D2D
330
1E
100
AcDbEntity
  8
躯体と製品
  6
Continuous
 62
     3
100
AcDbCircle
 10
1907.11682616897
 20
827.9336980662831
 30
0.0
 40
1.5
100
AcDbArc
 50
0.0
 51
86.99999999999441
  0
LINE
  5
6D2E
330
1E
100
AcDbEntity
  8
図枠
  6
Continuous
 62
     7
100
AcDbLine
 10
2222.11682616897
 20
993.5920387169607
 30
0.0
 11
1398.11682616897
 21
993.5920387169607
 31
0.0
  0
LINE
  5
6D2F
330
1E
100
AcDbEntity
  8
図枠
  6
Continuous
 62
     7
100
AcDbLine
 10
1398.11682616897
 20
993.5920387169607
 30
0.0
 11
1398.11682616897
 21
417.5920387169607
 31
0.0
  0
LINE
  5
6D30
330
1E
100
AcDbEntity
  8
図枠
  6
Continuous
 62
     7
100
AcDbLine
 10
1398.11682616897
 20
417.5920387169607
 30
0.0
 11
2222.11682616897
 21
417.5920387169607
 31
0.0
  0
LINE
  5
6D31
330
1E
100
AcDbEntity
  8
図枠
  6
Continuous
 62
     7
100
AcDbLine
 10
2222.11682616897
 20
417.5920387169607
 30
0.0
 11
2222.11682616897
 21
993.5920387169607
 31
0.0
  0
LINE
  5
6D32
330
1E
100
AcDbEntity
  8
躯体と製品
  6
Continuous
 62
     4
100
AcDbLine
 10
1756.120654947491
 20
831.9156065282159
 30
0.0
 11
1753.777572907669
 21
834.2586885680372
 31
0.0
  0
LINE
  5
6D33
330
1E
100
AcDbEntity
  8
躯体と製品
  6
Continuous
 62
     4
100
AcDbLine
 10
1756.191079923146
 20
833.2593951149332
 30
0.0
 11
1755.270001329362
 21
834.1804737087173
 31
0.0
  0
LINE
  5
6D34
330
1E
100
AcDbEntity
  8
躯体と製品
  6
Continuous
 62
     4
100
AcDbLine
 10
1756.050229971835
 20
830.5718179414977
 30
0.0
 11
1752.285144485976
 21
834.3369034273569
 31
0.0
  0
LINE
  5
6D35
330
1E
100
AcDbEntity
  8
躯体と製品
  6
Continuous
 62
     4
100
AcDbLine
 10
1755.019734075216
 20
830.1881002757431
 30
0.0
 11
1750.792716064283
 21
834.4151182866767
 31
0.0
  0
LINE
  5
6D36
330
1E
100
AcDbEntity
  8
躯体と製品
  6
Continuous
 62
     4
100
AcDbLine
 10
1753.527305653525
 20
830.2663151350627
 30
0.0
 11
1749.300287642592
 21
834.4933331459968
 31
0.0
  0
LINE
  5
6D37
330
1E
100
AcDbEntity
  8
躯体と製品
  6
Continuous
 62
     4
100
AcDbLine
 10
1752.034877231832
 20
830.3445299943824
 30
0.0
 11
1747.807859220898
 21
834.5715480053165
 31
0.0
  0
LINE
  5
6D38
330
1E
100
AcDbEntity
  8
躯体と製品
  6
Continuous
 62
     4
100
AcDbLine
 10
1750.542448810139
 20
830.4227448537023
 30
0.0
 11
1746.315430799205
 21
834.6497628646361
 31
0.0
  0
LINE
  5
6D39
330
1E
100
AcDbEntity
  8
躯体と製品
  6
Continuous
 62
     4
100
AcDbLine
 10
1749.050020388446
 20
830.5009597130222
 30
0.0
 11
1744.823002377512
 21
834.727977723956
 31
0.0
  0
LINE
  5
6D3A
330
1E
100
AcDbEntity
  8
躯体と製品
  6
Continuous
 62
     4
100
AcDbLine
 10
1747.557591966753
 20
830.579174572342
 30
0.0
 11
1743.330573955819
 21
834.8061925832759
 31
0.0
  0
LINE
  5
6D3B
330
1E
100
AcDbEntity
  8
躯体と製品
  6
Continuous
 62
     4
100
AcDbLine
 10
1746.06516354506
 20
830.6573894316615
 30
0.0
 11
1741.838145534126
 21
834.8844074425958
 31
0.0
  0
LINE
  5
6D3C
330
1E
100
AcDbEntity
  8
躯体と製品
  6
Continuous
 62
     4
100
AcDbLine
 10
1744.572735123367
 20
830.7356042909818
 30
0.0
 11
1741.214239745221
 21
834.0940996691278
 31
0.0
  0
LINE
  5
6D3D
330
1E
100
AcDbEntity
  8
躯体と製品
  6
Continuous
 62
     4
100
AcDbLine
 10
1743.080306701673
 20
830.8138191503019
 30
0.0
 11
1741.143814769564
 21
832.7503110824105
 31
0.0
  0
LINE
  5
6D3E
330
1E
100
AcDbEntity
  8
躯体と製品
  6
Continuous
 62
     4
100
AcDbLine
 10
1741.587878279982
 20
830.8920340096214
 30
0.0
 11
1741.073389793909
 21
831.4065224956943
 31
0.0
  0
LINE
  5
6D3F
330
1E
100
AcDbEntity
  8
躯体と製品
  6
Continuous
 62
     4
100
AcDbLine
 10
1741.823390083076
 20
835.3858669160167
 30
0.0
 11
1741.308901597002
 21
835.9003554020898
 31
0.0
  0
LINE
  5
6D40
330
1E
100
AcDbEntity
  8
躯体と製品
  6
DASHED1
 62
     7
100
AcDbLine
 10
1739.948854578278
 20
809.9491123360632
 30
0.0
 11
1744.942002252051
 21
809.6874325548483
 31
0.0
  0
LINE
  5
6D41
330
1E
100
AcDbEntity
  8
躯体と製品
  6
DASHED1
 62
     7
100
AcDbLine
 10
1744.942002252051
 20
809.6874325548483
 30
0.0
 11
1744.994338208293
 21
810.6860620896028
 31
0.0
  0
LINE
  5
6D42
330
1E
100
AcDbEntity
  8
躯体と製品
  6
DASHED1
 62
     7
100
AcDbLine
 10
1744.994338208293
 20
810.6860620896028
 30
0.0
 11
1764.966928903385
 21
809.6393429647442
 31
0.0
  0
LINE
  5
6D43
330
1E
100
AcDbEntity
  8
躯体と製品
  6
DASHED1
 62
     7
100
AcDbLine
 10
1764.914592947142
 20
808.6407134299898
 30
0.0
 11
1764.966928903385
 21
809.6393429647442
 31
0.0
  0
LINE
  5
6D44
330
1E
100
AcDbEntity
  8
躯体と製品
  6
DASHED1
 62
     7
100
AcDbLine
 10
1764.914592947142
 20
808.6407134299898
 30
0.0
 11
1768.409796318783
 21
808.4575375831393
 31
0.0
  0
ARC
  5
6D45
330
1E
100
AcDbEntity
  8
躯体と製品
  6
DASHED1
 62
     7
100
AcDbCircle
 10
1768.488300253147
 20
809.9554818852711
 30
0.0
 40
1.500000000000001
100
AcDbArc
 50
266.9999999999944
 51
86.99999999999441
  0
LINE
  5
6D46
330
1E
100
AcDbEntity
  8
躯体と製品
  6
DASHED1
 62
     7
100
AcDbLine
 10
1740.105862447007
 20
812.9450009403269
 30
0.0
 11
1768.566804187512
 21
811.453426187403
 31
0.0
  0
LINE
  5
6D47
330
1E
100
AcDbEntity
  8
躯体と製品
  6
Continuous
 62
     3
100
AcDbLine
 10
1718.41682616897
 20
859.478919072778
 30
0.0
 11
1718.41682616897
 21
857.9636885902703
 31
0.0
  0
LINE
  5
6D48
330
1E
100
AcDbEntity
  8
躯体と製品
  6
Continuous
 62
     3
100
AcDbLine
 10
1714.772617761434
 20
861.5613238770839
 30
0.0
 11
1718.41682616897
 21
859.478919072778
 31
0.0
  0
ARC
  5
6D49
330
1E
100
AcDbEntity
  8
躯体と製品
  6
Continuous
 62
     3
100
AcDbCircle
 10
1715.51682616897
 20
862.8636885902704
 30
0.0
 40
1.5
100
AcDbArc
 50
180.0
 51
240.2551187030594
  0
LINE
  5
6D4A
330
1E
100
AcDbEntity
  8
躯体と製品
  6
Continuous
 62
     3
100
AcDbLine
 10
1714.01682616897
 20
862.8636885902704
 30
0.0
 11
1714.01682616897
 21
866.1136885902704
 31
0.0
  0
ARC
  5
6D4B
330
1E
100
AcDbEntity
  8
躯体と製品
  6
Continuous
 62
     3
100
AcDbCircle
 10
1731.616826168969
 20
812.388520133914
 30
0.0
 40
2.0
100
AcDbArc
 50
180.0
 51
266.9999999999944
  0
LINE
  5
6D4C
330
1E
100
AcDbEntity
  8
躯体と製品
  6
Continuous
 62
     3
100
AcDbLine
 10
1731.512154256484
 20
810.391261064405
 30
0.0
 11
1737.951595508769
 21
810.053784248549
 31
0.0
  0
LINE
  5
6D4D
330
1E
100
AcDbEntity
  8
躯体と製品
  6
Continuous
 62
     3
100
AcDbLine
 10
1729.616826168969
 20
812.388520133914
 30
0.0
 11
1729.616826168969
 21
819.8636885902704
 31
0.0
  0
ARC
  5
6D4E
330
1E
100
AcDbEntity
  8
躯体と製品
  6
Continuous
 62
     3
100
AcDbCircle
 10
1733.11682616897
 20
814.3126531569853
 30
0.0
 40
1.0
100
AcDbArc
 50
180.0
 51
266.9999999999944
  0
LINE
  5
6D4F
330
1E
100
AcDbEntity
  8
躯体と製品
  6
Continuous
 62
     3
100
AcDbLine
 10
1733.064490212727
 20
813.3140236222308
 30
0.0
 11
1738.108603377497
 21
813.0496728528127
 31
0.0
  0
LINE
  5
6D50
330
1E
100
AcDbEntity
  8
躯体と製品
  6
Continuous
 62
     3
100
AcDbLine
 10
1732.11682616897
 20
814.3126531569853
 30
0.0
 11
1732.11682616897
 21
821.3636885902701
 31
0.0
  0
ARC
  5
6D51
330
1E
100
AcDbEntity
  8
躯体と製品
  6
Continuous
 62
     3
100
AcDbCircle
 10
1737.925427530647
 20
809.5544694811717
 30
0.0
 40
0.5
100
AcDbArc
 50
357.0000000000011
 51
86.99999999999441
  0
LINE
  5
6D52
330
1E
100
AcDbEntity
  8
躯体と製品
  6
Continuous
 62
     3
100
AcDbLine
 10
1738.424742298024
 20
809.5283015030505
 30
0.0
 11
1738.372406341781
 21
808.5296719682958
 31
0.0
  0
ARC
  5
6D53
330
1E
100
AcDbEntity
  8
躯体と製品
  6
Continuous
 62
     3
100
AcDbCircle
 10
1738.871721109159
 20
808.5035039901743
 30
0.0
 40
0.5
100
AcDbArc
 50
177.0000000000011
 51
266.9999999999944
  0
LINE
  5
6D54
330
1E
100
AcDbEntity
  8
躯体と製品
  6
Continuous
 62
     3
100
AcDbLine
 10
1738.845553131037
 20
808.0041892227969
 30
0.0
 11
1739.344867898414
 21
807.9780212446756
 31
0.0
  0
ARC
  5
6D55
330
1E
100
AcDbEntity
  8
躯体と製品
  6
Continuous
 62
     3
100
AcDbCircle
 10
1739.371035876536
 20
808.4773360120527
 30
0.0
 40
0.5
100
AcDbArc
 50
266.9999999999944
 51
357.0000000000011
  0
LINE
  5
6D56
330
1E
100
AcDbEntity
  8
躯体と製品
  6
Continuous
 62
     3
100
AcDbLine
 10
1739.81801468767
 20
807.4525384991771
 30
0.0
 11
1741.283421462473
 21
835.4141654723051
 31
0.0
  0
ARC
  5
6D57
330
1E
100
AcDbEntity
  8
躯体と製品
  6
Continuous
 62
     3
100
AcDbCircle
 10
1738.134771355619
 20
813.54898762019
 30
0.0
 40
0.5
100
AcDbArc
 50
266.9999999999944
 51
357.0000000000011
  0
LINE
  5
6D58
330
1E
100
AcDbEntity
  8
躯体と製品
  6
Continuous
 62
     3
100
AcDbLine
 10
1738.634086122996
 20
813.5228196420687
 30
0.0
 11
1738.738758035482
 21
815.5200787115777
 31
0.0
  0
ARC
  5
6D59
330
1E
100
AcDbEntity
  8
躯体と製品
  6
Continuous
 62
     3
100
AcDbCircle
 10
1739.238072802859
 20
815.4939107334561
 30
0.0
 40
0.5
100
AcDbArc
 50
86.99999999999441
 51
177.0000000000011
  0
LINE
  5
6D5A
330
1E
100
AcDbEntity
  8
躯体と製品
  6
Continuous
 62
     3
100
AcDbLine
 10
1739.264240780981
 20
815.9932255008333
 30
0.0
 11
1739.763555548358
 21
815.9670575227121
 31
0.0
  0
ARC
  5
6D5B
330
1E
100
AcDbEntity
  8
躯体と製品
  6
Continuous
 62
     3
100
AcDbCircle
 10
1739.737387570236
 20
815.4677427553348
 30
0.0
 40
0.5
100
AcDbArc
 50
357.0000000000011
 51
86.99999999999441
  0
LINE
  5
6D5C
330
1E
100
AcDbEntity
  8
躯体と製品
  6
Continuous
 62
     3
100
AcDbLine
 10
1720.11682616897
 20
859.3636885902704
 30
0.0
 11
1725.61682616897
 21
859.3636885902704
 31
0.0
  0
LINE
  5
6D5D
330
1E
100
AcDbEntity
  8
躯体と製品
  6
Continuous
 62
     3
100
AcDbLine
 10
1726.61682616897
 20
860.8636885902704
 30
0.0
 11
1719.01682616897
 21
860.8636885902704
 31
0.0
  0
ARC
  5
6D5E
330
1E
100
AcDbEntity
  8
躯体と製品
  6
Continuous
 62
     3
100
AcDbCircle
 10
1720.11682616897
 20
858.8636885902703
 30
0.0
 40
0.5
100
AcDbArc
 50
90.0
 51
180.0
  0
LINE
  5
6D5F
330
1E
100
AcDbEntity
  8
躯体と製品
  6
Continuous
 62
     3
100
AcDbLine
 10
1719.61682616897
 20
858.8636885902703
 30
0.0
 11
1719.61682616897
 21
857.9636885902703
 31
0.0
  0
LINE
  5
6D60
330
1E
100
AcDbEntity
  8
躯体と製品
  6
Continuous
 62
     3
100
AcDbLine
 10
1715.51682616897
 20
862.8636885902704
 30
0.0
 11
1719.01682616897
 21
860.8636885902704
 31
0.0
  0
LINE
  5
6D61
330
1E
100
AcDbEntity
  8
躯体と製品
  6
Continuous
 62
     3
100
AcDbLine
 10
1715.51682616897
 20
866.1136885902704
 30
0.0
 11
1715.51682616897
 21
862.8636885902704
 31
0.0
  0
ARC
  5
6D62
330
1E
100
AcDbEntity
  8
躯体と製品
  6
Continuous
 62
     3
100
AcDbCircle
 10
1714.76682616897
 20
866.1136885902704
 30
0.0
 40
0.75
100
AcDbArc
 50
0.0
 51
180.0
  0
ARC
  5
6D63
330
1E
100
AcDbEntity
  8
躯体と製品
  6
Continuous
 62
     3
100
AcDbCircle
 10
1719.01682616897
 20
857.9636885902703
 30
0.0
 40
0.5999999999999998
100
AcDbArc
 50
180.0
 51
0.0
  0
LINE
  5
6D64
330
1E
100
AcDbEntity
  8
躯体と製品
  6
Continuous
 62
     3
100
AcDbLine
 10
1727.61682616897
 20
846.3636885902703
 30
0.0
 11
1727.61682616897
 21
859.8636885902704
 31
0.0
  0
ARC
  5
6D65
330
1E
100
AcDbEntity
  8
躯体と製品
  6
Continuous
 62
     3
100
AcDbCircle
 10
1725.11682616897
 20
855.3636885902703
 30
0.0
 40
1.0
100
AcDbArc
 50
270.0
 51
0.0
  0
LINE
  5
6D66
330
1E
100
AcDbEntity
  8
躯体と製品
  6
Continuous
 62
     3
100
AcDbLine
 10
1728.61682616897
 20
820.8636885902704
 30
0.0
 11
1718.11682616897
 21
820.8636885902704
 31
0.0
  0
LINE
  5
6D67
330
1E
100
AcDbEntity
  8
躯体と製品
  6
Continuous
 62
     3
100
AcDbLine
 10
1725.11682616897
 20
854.3636885902703
 30
0.0
 11
1720.61682616897
 21
854.3636885902703
 31
0.0
  0
LINE
  5
6D68
330
1E
100
AcDbEntity
  8
躯体と製品
  6
Continuous
 62
     3
100
AcDbLine
 10
1730.11682616897
 20
823.3636885902704
 30
0.0
 11
1722.11682616897
 21
823.3636885902704
 31
0.0
  0
LINE
  5
6D69
330
1E
100
AcDbEntity
  8
躯体と製品
  6
Continuous
 62
     3
100
AcDbLine
 10
1721.61682616897
 20
852.8636885902704
 30
0.0
 11
1725.61682616897
 21
852.8636885902704
 31
0.0
  0
ARC
  5
6D6A
330
1E
100
AcDbEntity
  8
躯体と製品
  6
Continuous
 62
     3
100
AcDbCircle
 10
1730.11682616897
 20
821.3636885902701
 30
0.0
 40
2.0
100
AcDbArc
 50
0.0
 51
90.0
  0
ARC
  5
6D6B
330
1E
100
AcDbEntity
  8
躯体と製品
  6
Continuous
 62
     3
100
AcDbCircle
 10
1728.61682616897
 20
819.8636885902704
 30
0.0
 40
1.0
100
AcDbArc
 50
0.0
 51
90.0
  0
LINE
  5
6D6C
330
1E
100
AcDbEntity
  8
躯体と製品
  6
Continuous
 62
     3
100
AcDbLine
 10
1727.11682616897
 20
845.8636885902704
 30
0.0
 11
1726.11682616897
 21
845.8636885902704
 31
0.0
  0
ARC
  5
6D6D
330
1E
100
AcDbEntity
  8
躯体と製品
  6
Continuous
 62
     3
100
AcDbCircle
 10
1727.11682616897
 20
846.3636885902703
 30
0.0
 40
0.5
100
AcDbArc
 50
270.0
 51
0.0
  0
LINE
  5
6D6E
330
1E
100
AcDbEntity
  8
躯体と製品
  6
Continuous
 62
     3
100
AcDbLine
 10
1726.11682616897
 20
852.3636885902703
 30
0.0
 11
1726.11682616897
 21
847.8636885902703
 31
0.0
  0
ARC
  5
6D6F
330
1E
100
AcDbEntity
  8
躯体と製品
  6
Continuous
 62
     3
100
AcDbCircle
 10
1725.61682616897
 20
852.3636885902703
 30
0.0
 40
0.5
100
AcDbArc
 50
0.0
 51
90.0
  0
ARC
  5
6D70
330
1E
100
AcDbEntity
  8
躯体と製品
  6
Continuous
 62
     3
100
AcDbCircle
 10
1726.11682616897
 20
846.8636885902704
 30
0.0
 40
1.0
100
AcDbArc
 50
90.0
 51
270.0
  0
ARC
  5
6D71
330
1E
100
AcDbEntity
  8
躯体と製品
  6
Continuous
 62
     3
100
AcDbCircle
 10
1726.61682616897
 20
859.8636885902704
 30
0.0
 40
1.0
100
AcDbArc
 50
0.0
 51
90.0
  0
LINE
  5
6D72
330
1E
100
AcDbEntity
  8
躯体と製品
  6
Continuous
 62
     3
100
AcDbLine
 10
1726.11682616897
 20
855.3636885902703
 30
0.0
 11
1726.11682616897
 21
858.8636885902703
 31
0.0
  0
ARC
  5
6D73
330
1E
100
AcDbEntity
  8
躯体と製品
  6
Continuous
 62
     3
100
AcDbCircle
 10
1725.61682616897
 20
858.8636885902703
 30
0.0
 40
0.5
100
AcDbArc
 50
0.0
 51
90.0
  0
ARC
  5
6D74
330
1E
100
AcDbEntity
  8
躯体と製品
  6
Continuous
 62
     3
100
AcDbCircle
 10
1722.11682616897
 20
824.3636885902704
 30
0.0
 40
1.0
100
AcDbArc
 50
180.0
 51
270.0
  0
ARC
  5
6D75
330
1E
100
AcDbEntity
  8
躯体と製品
  6
Continuous
 62
     3
100
AcDbCircle
 10
1721.61682616897
 20
852.3636885902703
 30
0.0
 40
0.5
100
AcDbArc
 50
90.0
 51
180.0
  0
LINE
  5
6D76
330
1E
100
AcDbEntity
  8
躯体と製品
  6
Continuous
 62
     3
100
AcDbLine
 10
1721.116826168969
 20
824.3636885902704
 30
0.0
 11
1721.116826168969
 21
852.3636885902703
 31
0.0
  0
LINE
  5
6D77
330
1E
100
AcDbEntity
  8
躯体と製品
  6
Continuous
 62
     3
100
AcDbLine
 10
1718.61682616897
 20
822.3636885902701
 30
0.0
 11
1717.116826168969
 21
822.3636885902701
 31
0.0
  0
ARC
  5
6D78
330
1E
100
AcDbEntity
  8
躯体と製品
  6
Continuous
 62
     3
100
AcDbCircle
 10
1718.61682616897
 20
822.8636885902703
 30
0.0
 40
0.5
100
AcDbArc
 50
270.0
 51
0.0
  0
LINE
  5
6D79
330
1E
100
AcDbEntity
  8
躯体と製品
  6
Continuous
 62
     3
100
AcDbLine
 10
1719.11682616897
 20
822.8636885902703
 30
0.0
 11
1719.11682616897
 21
852.8636885902704
 31
0.0
  0
ARC
  5
6D7A
330
1E
100
AcDbEntity
  8
躯体と製品
  6
Continuous
 62
     3
100
AcDbCircle
 10
1720.61682616897
 20
852.8636885902704
 30
0.0
 40
1.5
100
AcDbArc
 50
90.0
 51
180.0
  0
ARC
  5
6D7B
330
1E
100
AcDbEntity
  8
躯体と製品
  6
Continuous
 62
     3
100
AcDbCircle
 10
1718.11682616897
 20
820.3636885902703
 30
0.0
 40
0.5
100
AcDbArc
 50
90.0
 51
180.0
  0
LINE
  5
6D7C
330
1E
100
AcDbEntity
  8
躯体と製品
  6
Continuous
 62
     3
100
AcDbLine
 10
1717.61682616897
 20
820.3636885902703
 30
0.0
 11
1717.61682616897
 21
819.1136885902702
 31
0.0
  0
ARC
  5
6D7D
330
1E
100
AcDbEntity
  8
躯体と製品
  6
Continuous
 62
     3
100
AcDbCircle
 10
1716.86682616897
 20
819.1136885902702
 30
0.0
 40
0.75
100
AcDbArc
 50
180.0
 51
0.0
  0
ARC
  5
6D7E
330
1E
100
AcDbEntity
  8
躯体と製品
  6
Continuous
 62
     3
100
AcDbCircle
 10
1717.116826168969
 20
821.3636885902701
 30
0.0
 40
1.0
100
AcDbArc
 50
90.0
 51
180.0
  0
LINE
  5
6D7F
330
1E
100
AcDbEntity
  8
躯体と製品
  6
Continuous
 62
     3
100
AcDbLine
 10
1716.11682616897
 20
821.3636885902701
 30
0.0
 11
1716.11682616897
 21
819.1136885902702
 31
0.0
  0
LINE
  5
6D80
330
1E
100
AcDbEntity
  8
躯体と製品
  6
Continuous
 62
     7
100
AcDbLine
 10
1756.027352680698
 20
830.1352932222652
 30
0.0
 11
1756.236696505669
 21
834.1298113612836
 31
0.0
  0
LINE
  5
6D81
330
1E
100
AcDbEntity
  8
躯体と製品
  6
Continuous
 62
     7
100
AcDbLine
 10
1741.257253484351
 20
834.9148507049276
 30
0.0
 11
1756.236696505669
 21
834.1298113612836
 31
0.0
  0
LINE
  5
6D82
330
1E
100
AcDbEntity
  8
躯体と製品
  6
Continuous
 62
     3
100
AcDbLine
 10
1713.61682616897
 20
837.3636885902703
 30
0.0
 11
1713.61682616897
 21
855.3636885902701
 31
0.0
  0
LINE
  5
6D83
330
1E
100
AcDbEntity
  8
躯体と製品
  6
Continuous
 62
     3
100
AcDbLine
 10
1711.11682616897
 20
857.3636885902704
 30
0.0
 11
1711.11682616897
 21
855.8636885902702
 31
0.0
  0
LINE
  5
6D84
330
1E
100
AcDbEntity
  8
躯体と製品
  6
Continuous
 62
     3
100
AcDbLine
 10
1711.11682616897
 20
817.8636885902701
 30
0.0
 11
1711.11682616897
 21
816.3636885902704
 31
0.0
  0
LINE
  5
6D85
330
1E
100
AcDbEntity
  8
躯体と製品
  6
Continuous
 62
     3
100
AcDbLine
 10
1719.86682616897
 20
809.8636885902703
 30
0.0
 11
1718.61682616897
 21
809.8636885902703
 31
0.0
  0
LINE
  5
6D86
330
1E
100
AcDbEntity
  8
躯体と製品
  6
Continuous
 62
     3
100
AcDbLine
 10
1719.86682616897
 20
805.8636885902703
 30
0.0
 11
1718.61682616897
 21
805.8636885902703
 31
0.0
  0
ARC
  5
6D87
330
1E
100
AcDbEntity
  8
躯体と製品
  6
Continuous
 62
     3
100
AcDbCircle
 10
1711.61682616897
 20
815.8636885902703
 30
0.0
 40
0.5
100
AcDbArc
 50
0.0
 51
90.0
  0
LINE
  5
6D88
330
1E
100
AcDbEntity
  8
躯体と製品
  6
Continuous
 62
     3
100
AcDbLine
 10
1711.61682616897
 20
816.3636885902704
 30
0.0
 11
1711.11682616897
 21
816.3636885902704
 31
0.0
  0
LINE
  5
6D89
330
1E
100
AcDbEntity
  8
躯体と製品
  6
Continuous
 62
     3
100
AcDbLine
 10
1719.86682616897
 20
804.3636885902701
 30
0.0
 11
1711.11682616897
 21
804.3636885902701
 31
0.0
  0
LINE
  5
6D8A
330
1E
100
AcDbEntity
  8
躯体と製品
  6
Continuous
 62
     3
100
AcDbLine
 10
1711.11682616897
 20
804.3636885902701
 30
0.0
 11
1711.11682616897
 21
805.8636885902703
 31
0.0
  0
LINE
  5
6D8B
330
1E
100
AcDbEntity
  8
躯体と製品
  6
Continuous
 62
     3
100
AcDbLine
 10
1711.61682616897
 20
805.8636885902703
 30
0.0
 11
1711.11682616897
 21
805.8636885902703
 31
0.0
  0
ARC
  5
6D8C
330
1E
100
AcDbEntity
  8
躯体と製品
  6
Continuous
 62
     3
100
AcDbCircle
 10
1711.61682616897
 20
806.3636885902701
 30
0.0
 40
0.5
100
AcDbArc
 50
270.0
 51
0.0
  0
LINE
  5
6D8D
330
1E
100
AcDbEntity
  8
躯体と製品
  6
Continuous
 62
     3
100
AcDbLine
 10
1712.11682616897
 20
806.3636885902701
 30
0.0
 11
1712.11682616897
 21
815.8636885902703
 31
0.0
  0
LINE
  5
6D8E
330
1E
100
AcDbEntity
  8
躯体と製品
  6
Continuous
 62
     3
100
AcDbLine
 10
1713.61682616897
 20
806.3636885902701
 30
0.0
 11
1713.61682616897
 21
809.3636885902704
 31
0.0
  0
LINE
  5
6D8F
330
1E
100
AcDbEntity
  8
躯体と製品
  6
Continuous
 62
     3
100
AcDbLine
 10
1718.61682616897
 20
805.8636885902703
 30
0.0
 11
1718.61682616897
 21
805.3636885902703
 31
0.0
  0
LINE
  5
6D90
330
1E
100
AcDbEntity
  8
躯体と製品
  6
Continuous
 62
     3
100
AcDbLine
 10
1717.61682616897
 20
805.8636885902703
 30
0.0
 11
1718.61682616897
 21
805.3636885902703
 31
0.0
  0
LINE
  5
6D91
330
1E
100
AcDbEntity
  8
躯体と製品
  6
Continuous
 62
     3
100
AcDbLine
 10
1717.61682616897
 20
805.8636885902703
 30
0.0
 11
1717.61682616897
 21
805.3636885902703
 31
0.0
  0
LINE
  5
6D92
330
1E
100
AcDbEntity
  8
躯体と製品
  6
Continuous
 62
     3
100
AcDbLine
 10
1716.61682616897
 20
805.8636885902703
 30
0.0
 11
1717.61682616897
 21
805.3636885902703
 31
0.0
  0
ARC
  5
6D93
330
1E
100
AcDbEntity
  8
躯体と製品
  6
Continuous
 62
     3
100
AcDbCircle
 10
1719.86682616897
 20
805.1136885902703
 30
0.0
 40
0.75
100
AcDbArc
 50
270.0
 51
90.0
  0
LINE
  5
6D94
330
1E
100
AcDbEntity
  8
躯体と製品
  6
Continuous
 62
     3
100
AcDbLine
 10
1714.11682616897
 20
805.8636885902703
 30
0.0
 11
1716.61682616897
 21
805.8636885902703
 31
0.0
  0
ARC
  5
6D95
330
1E
100
AcDbEntity
  8
躯体と製品
  6
Continuous
 62
     3
100
AcDbCircle
 10
1714.11682616897
 20
806.3636885902701
 30
0.0
 40
0.5
100
AcDbArc
 50
180.0
 51
270.0
  0
ARC
  5
6D96
330
1E
100
AcDbEntity
  8
躯体と製品
  6
Continuous
 62
     3
100
AcDbCircle
 10
1724.86682616897
 20
817.1136885902704
 30
0.0
 40
0.75
100
AcDbArc
 50
270.0
 51
90.0
  0
LINE
  5
6D97
330
1E
100
AcDbEntity
  8
躯体と製品
  6
Continuous
 62
     3
100
AcDbLine
 10
1714.11682616897
 20
817.8636885902701
 30
0.0
 11
1724.86682616897
 21
817.8636885902701
 31
0.0
  0
ARC
  5
6D98
330
1E
100
AcDbEntity
  8
躯体と製品
  6
Continuous
 62
     3
100
AcDbCircle
 10
1714.11682616897
 20
818.3636885902702
 30
0.0
 40
0.5
100
AcDbArc
 50
180.0
 51
270.0
  0
LINE
  5
6D99
330
1E
100
AcDbEntity
  8
躯体と製品
  6
Continuous
 62
     3
100
AcDbLine
 10
1713.61682616897
 20
818.3636885902702
 30
0.0
 11
1713.61682616897
 21
836.3636885902703
 31
0.0
  0
LINE
  5
6D9A
330
1E
100
AcDbEntity
  8
躯体と製品
  6
Continuous
 62
     3
100
AcDbLine
 10
1714.11682616897
 20
816.3636885902704
 30
0.0
 11
1724.86682616897
 21
816.3636885902704
 31
0.0
  0
ARC
  5
6D9B
330
1E
100
AcDbEntity
  8
躯体と製品
  6
Continuous
 62
     3
100
AcDbCircle
 10
1714.11682616897
 20
815.8636885902703
 30
0.0
 40
0.5
100
AcDbArc
 50
90.0
 51
180.0
  0
LINE
  5
6D9C
330
1E
100
AcDbEntity
  8
躯体と製品
  6
Continuous
 62
     3
100
AcDbLine
 10
1713.61682616897
 20
815.8636885902703
 30
0.0
 11
1713.61682616897
 21
811.8636885902704
 31
0.0
  0
LINE
  5
6D9D
330
1E
100
AcDbEntity
  8
躯体と製品
  6
Continuous
 62
     3
100
AcDbLine
 10
1723.61682616897
 20
856.3636885902704
 30
0.0
 11
1723.61682616897
 21
856.8636885902703
 31
0.0
  0
ARC
  5
6D9E
330
1E
100
AcDbEntity
  8
躯体と製品
  6
Continuous
 62
     3
100
AcDbCircle
 10
1723.11682616897
 20
856.3636885902704
 30
0.0
 40
0.5
100
AcDbArc
 50
270.0
 51
0.0
  0
LINE
  5
6D9F
330
1E
100
AcDbEntity
  8
躯体と製品
  6
Continuous
 62
     3
100
AcDbLine
 10
1723.11682616897
 20
855.8636885902702
 30
0.0
 11
1714.11682616897
 21
855.8636885902702
 31
0.0
  0
ARC
  5
6DA0
330
1E
100
AcDbEntity
  8
躯体と製品
  6
Continuous
 62
     3
100
AcDbCircle
 10
1723.11682616897
 20
856.8636885902703
 30
0.0
 40
0.5
100
AcDbArc
 50
0.0
 51
90.0
  0
ARC
  5
6DA1
330
1E
100
AcDbEntity
  8
躯体と製品
  6
Continuous
 62
     3
100
AcDbCircle
 10
1714.11682616897
 20
855.3636885902701
 30
0.0
 40
0.5
100
AcDbArc
 50
90.0
 51
180.0
  0
ARC
  5
6DA2
330
1E
100
AcDbEntity
  8
躯体と製品
  6
Continuous
 62
     3
100
AcDbCircle
 10
1719.86682616897
 20
810.6136885902701
 30
0.0
 40
0.75
100
AcDbArc
 50
270.0
 51
90.0
  0
LINE
  5
6DA3
330
1E
100
AcDbEntity
  8
躯体と製品
  6
Continuous
 62
     3
100
AcDbLine
 10
1718.61682616897
 20
810.3636885902703
 30
0.0
 11
1718.61682616897
 21
809.8636885902703
 31
0.0
  0
LINE
  5
6DA4
330
1E
100
AcDbEntity
  8
躯体と製品
  6
Continuous
 62
     3
100
AcDbLine
 10
1717.61682616897
 20
809.8636885902703
 30
0.0
 11
1718.61682616897
 21
810.3636885902703
 31
0.0
  0
LINE
  5
6DA5
330
1E
100
AcDbEntity
  8
躯体と製品
  6
Continuous
 62
     3
100
AcDbLine
 10
1717.61682616897
 20
810.3636885902703
 30
0.0
 11
1717.61682616897
 21
809.8636885902703
 31
0.0
  0
LINE
  5
6DA6
330
1E
100
AcDbEntity
  8
躯体と製品
  6
Continuous
 62
     3
100
AcDbLine
 10
1716.61682616897
 20
809.8636885902703
 30
0.0
 11
1717.61682616897
 21
810.3636885902703
 31
0.0
  0
LINE
  5
6DA7
330
1E
100
AcDbEntity
  8
躯体と製品
  6
Continuous
 62
     3
100
AcDbLine
 10
1714.11682616897
 20
809.8636885902703
 30
0.0
 11
1716.61682616897
 21
809.8636885902703
 31
0.0
  0
ARC
  5
6DA8
330
1E
100
AcDbEntity
  8
躯体と製品
  6
Continuous
 62
     3
100
AcDbCircle
 10
1714.11682616897
 20
809.3636885902704
 30
0.0
 40
0.5
100
AcDbArc
 50
90.0
 51
180.0
  0
ARC
  5
6DA9
330
1E
100
AcDbEntity
  8
躯体と製品
  6
Continuous
 62
     3
100
AcDbCircle
 10
1714.11682616897
 20
811.8636885902704
 30
0.0
 40
0.5
100
AcDbArc
 50
180.0
 51
270.0
  0
LINE
  5
6DAA
330
1E
100
AcDbEntity
  8
躯体と製品
  6
Continuous
 62
     3
100
AcDbLine
 10
1714.11682616897
 20
811.3636885902703
 30
0.0
 11
1719.86682616897
 21
811.3636885902703
 31
0.0
  0
LINE
  5
6DAB
330
1E
100
AcDbEntity
  8
躯体と製品
  6
Continuous
 62
     3
100
AcDbLine
 10
1714.11682616897
 20
857.3636885902704
 30
0.0
 11
1723.11682616897
 21
857.3636885902704
 31
0.0
  0
ARC
  5
6DAC
330
1E
100
AcDbEntity
  8
躯体と製品
  6
Continuous
 62
     3
100
AcDbCircle
 10
1714.11682616897
 20
857.8636885902703
 30
0.0
 40
0.5
100
AcDbArc
 50
180.0
 51
270.0
  0
LINE
  5
6DAD
330
1E
100
AcDbEntity
  8
躯体と製品
  6
Continuous
 62
     3
100
AcDbLine
 10
1711.61682616897
 20
817.8636885902701
 30
0.0
 11
1711.11682616897
 21
817.8636885902701
 31
0.0
  0
LINE
  5
6DAE
330
1E
100
AcDbEntity
  8
躯体と製品
  6
Continuous
 62
     3
100
AcDbLine
 10
1711.61682616897
 20
831.8636885902703
 30
0.0
 11
1711.61682616897
 21
817.8636885902701
 31
0.0
  0
LINE
  5
6DAF
330
1E
100
AcDbEntity
  8
躯体と製品
  6
Continuous
 62
     3
100
AcDbLine
 10
1711.61682616897
 20
855.8636885902702
 30
0.0
 11
1711.61682616897
 21
841.8636885902701
 31
0.0
  0
LINE
  5
6DB0
330
1E
100
AcDbEntity
  8
躯体と製品
  6
Continuous
 62
     3
100
AcDbLine
 10
1711.11682616897
 20
855.8636885902702
 30
0.0
 11
1711.61682616897
 21
855.8636885902702
 31
0.0
  0
LINE
  5
6DB1
330
1E
100
AcDbEntity
  8
躯体と製品
  6
Continuous
 62
     3
100
AcDbLine
 10
1711.61682616897
 20
857.3636885902704
 30
0.0
 11
1711.11682616897
 21
857.3636885902704
 31
0.0
  0
LINE
  5
6DB2
330
1E
100
AcDbEntity
  8
躯体と製品
  6
Continuous
 62
     3
100
AcDbLine
 10
1713.61682616897
 20
857.8636885902703
 30
0.0
 11
1713.61682616897
 21
868.3636885902702
 31
0.0
  0
LINE
  5
6DB3
330
1E
100
AcDbEntity
  8
躯体と製品
  6
Continuous
 62
     3
100
AcDbLine
 10
1711.61682616897
 20
868.8636885902704
 30
0.0
 11
1711.61682616897
 21
857.3636885902704
 31
0.0
  0
ARC
  5
6DB4
330
1E
100
AcDbEntity
  8
躯体と製品
  6
Continuous
 62
     3
100
AcDbCircle
 10
1721.51682616897
 20
889.9636885902703
 30
0.0
 40
0.5999999999999999
100
AcDbArc
 50
270.0
 51
90.0
  0
ARC
  5
6DB5
330
1E
100
AcDbEntity
  8
躯体と製品
  6
Continuous
 62
     3
100
AcDbCircle
 10
1721.51682616897
 20
884.7636885902705
 30
0.0
 40
0.5999999999999999
100
AcDbArc
 50
270.0
 51
90.0
  0
LINE
  5
6DB6
330
1E
100
AcDbEntity
  8
躯体と製品
  6
Continuous
 62
     3
100
AcDbLine
 10
1711.11682616897
 20
870.3636885902703
 30
0.0
 11
1711.11682616897
 21
868.8636885902704
 31
0.0
  0
LINE
  5
6DB7
330
1E
100
AcDbEntity
  8
躯体と製品
  6
Continuous
 62
     3
100
AcDbLine
 10
1720.11682616897
 20
890.5636885902705
 30
0.0
 11
1721.51682616897
 21
890.5636885902705
 31
0.0
  0
LINE
  5
6DB8
330
1E
100
AcDbEntity
  8
躯体と製品
  6
Continuous
 62
     3
100
AcDbLine
 10
1720.81682616897
 20
878.6636885902705
 30
0.0
 11
1720.81682616897
 21
884.1636885902705
 31
0.0
  0
LINE
  5
6DB9
330
1E
100
AcDbEntity
  8
躯体と製品
  6
Continuous
 62
     3
100
AcDbLine
 10
1720.81682616897
 20
884.1636885902705
 30
0.0
 11
1721.51682616897
 21
884.1636885902705
 31
0.0
  0
LINE
  5
6DBA
330
1E
100
AcDbEntity
  8
躯体と製品
  6
Continuous
 62
     3
100
AcDbLine
 10
1720.11682616897
 20
891.3636885902704
 30
0.0
 11
1720.11682616897
 21
890.5636885902705
 31
0.0
  0
LINE
  5
6DBB
330
1E
100
AcDbEntity
  8
躯体と製品
  6
Continuous
 62
     3
100
AcDbLine
 10
1711.11682616897
 20
890.8636885902703
 30
0.0
 11
1711.11682616897
 21
883.3636885902704
 31
0.0
  0
ARC
  5
6DBC
330
1E
100
AcDbEntity
  8
躯体と製品
  6
Continuous
 62
     3
100
AcDbCircle
 10
1711.61682616897
 20
890.8636885902703
 30
0.0
 40
0.5
100
AcDbArc
 50
90.0
 51
180.0
  0
LINE
  5
6DBD
330
1E
100
AcDbEntity
  8
躯体と製品
  6
Continuous
 62
     3
100
AcDbLine
 10
1711.61682616897
 20
891.3636885902704
 30
0.0
 11
1720.11682616897
 21
891.3636885902704
 31
0.0
  0
LINE
  5
6DBE
330
1E
100
AcDbEntity
  8
躯体と製品
  6
Continuous
 62
     3
100
AcDbLine
 10
1714.61682616897
 20
885.8636885902704
 30
0.0
 11
1714.11682616897
 21
885.3636885902703
 31
0.0
  0
LINE
  5
6DBF
330
1E
100
AcDbEntity
  8
躯体と製品
  6
Continuous
 62
     3
100
AcDbLine
 10
1715.116826168969
 20
885.3636885902703
 30
0.0
 11
1714.61682616897
 21
885.8636885902704
 31
0.0
  0
LINE
  5
6DC0
330
1E
100
AcDbEntity
  8
躯体と製品
  6
Continuous
 62
     3
100
AcDbLine
 10
1715.61682616897
 20
885.8636885902704
 30
0.0
 11
1715.116826168969
 21
885.3636885902703
 31
0.0
  0
LINE
  5
6DC1
330
1E
100
AcDbEntity
  8
躯体と製品
  6
Continuous
 62
     3
100
AcDbLine
 10
1716.11682616897
 20
885.3636885902703
 30
0.0
 11
1715.61682616897
 21
885.8636885902704
 31
0.0
  0
LINE
  5
6DC2
330
1E
100
AcDbEntity
  8
躯体と製品
  6
Continuous
 62
     3
100
AcDbLine
 10
1716.61682616897
 20
885.8636885902704
 30
0.0
 11
1716.11682616897
 21
885.3636885902703
 31
0.0
  0
LINE
  5
6DC3
330
1E
100
AcDbEntity
  8
躯体と製品
  6
Continuous
 62
     3
100
AcDbLine
 10
1717.116826168969
 20
885.3636885902703
 30
0.0
 11
1716.61682616897
 21
885.8636885902704
 31
0.0
  0
LINE
  5
6DC4
330
1E
100
AcDbEntity
  8
躯体と製品
  6
Continuous
 62
     3
100
AcDbLine
 10
1717.61682616897
 20
885.8636885902704
 30
0.0
 11
1717.116826168969
 21
885.3636885902703
 31
0.0
  0
LINE
  5
6DC5
330
1E
100
AcDbEntity
  8
躯体と製品
  6
Continuous
 62
     3
100
AcDbLine
 10
1718.11682616897
 20
885.3636885902703
 30
0.0
 11
1717.61682616897
 21
885.8636885902704
 31
0.0
  0
LINE
  5
6DC6
330
1E
100
AcDbEntity
  8
躯体と製品
  6
Continuous
 62
     3
100
AcDbLine
 10
1718.61682616897
 20
885.8636885902704
 30
0.0
 11
1718.11682616897
 21
885.3636885902703
 31
0.0
  0
LINE
  5
6DC7
330
1E
100
AcDbEntity
  8
躯体と製品
  6
Continuous
 62
     3
100
AcDbLine
 10
1719.11682616897
 20
885.3636885902703
 30
0.0
 11
1718.61682616897
 21
885.8636885902704
 31
0.0
  0
LINE
  5
6DC8
330
1E
100
AcDbEntity
  8
躯体と製品
  6
Continuous
 62
     3
100
AcDbLine
 10
1714.61682616897
 20
888.8636885902702
 30
0.0
 11
1714.11682616897
 21
889.3636885902704
 31
0.0
  0
LINE
  5
6DC9
330
1E
100
AcDbEntity
  8
躯体と製品
  6
Continuous
 62
     3
100
AcDbLine
 10
1715.116826168969
 20
889.3636885902704
 30
0.0
 11
1714.61682616897
 21
888.8636885902702
 31
0.0
  0
LINE
  5
6DCA
330
1E
100
AcDbEntity
  8
躯体と製品
  6
Continuous
 62
     3
100
AcDbLine
 10
1715.61682616897
 20
888.8636885902702
 30
0.0
 11
1715.116826168969
 21
889.3636885902704
 31
0.0
  0
LINE
  5
6DCB
330
1E
100
AcDbEntity
  8
躯体と製品
  6
Continuous
 62
     3
100
AcDbLine
 10
1716.11682616897
 20
889.3636885902704
 30
0.0
 11
1715.61682616897
 21
888.8636885902702
 31
0.0
  0
LINE
  5
6DCC
330
1E
100
AcDbEntity
  8
躯体と製品
  6
Continuous
 62
     3
100
AcDbLine
 10
1716.61682616897
 20
888.8636885902702
 30
0.0
 11
1716.11682616897
 21
889.3636885902704
 31
0.0
  0
LINE
  5
6DCD
330
1E
100
AcDbEntity
  8
躯体と製品
  6
Continuous
 62
     3
100
AcDbLine
 10
1717.116826168969
 20
889.3636885902704
 30
0.0
 11
1716.61682616897
 21
888.8636885902702
 31
0.0
  0
LINE
  5
6DCE
330
1E
100
AcDbEntity
  8
躯体と製品
  6
Continuous
 62
     3
100
AcDbLine
 10
1717.61682616897
 20
888.8636885902702
 30
0.0
 11
1717.116826168969
 21
889.3636885902704
 31
0.0
  0
LINE
  5
6DCF
330
1E
100
AcDbEntity
  8
躯体と製品
  6
Continuous
 62
     3
100
AcDbLine
 10
1718.11682616897
 20
889.3636885902704
 30
0.0
 11
1717.61682616897
 21
888.8636885902702
 31
0.0
  0
LINE
  5
6DD0
330
1E
100
AcDbEntity
  8
躯体と製品
  6
Continuous
 62
     3
100
AcDbLine
 10
1718.61682616897
 20
888.8636885902702
 30
0.0
 11
1718.11682616897
 21
889.3636885902704
 31
0.0
  0
LINE
  5
6DD1
330
1E
100
AcDbEntity
  8
躯体と製品
  6
Continuous
 62
     3
100
AcDbLine
 10
1719.11682616897
 20
889.3636885902704
 30
0.0
 11
1718.61682616897
 21
888.8636885902702
 31
0.0
  0
LINE
  5
6DD2
330
1E
100
AcDbEntity
  8
躯体と製品
  6
Continuous
 62
     3
100
AcDbLine
 10
1719.11682616897
 20
885.3636885902703
 30
0.0
 11
1721.61682616897
 21
885.3636885902703
 31
0.0
  0
LINE
  5
6DD3
330
1E
100
AcDbEntity
  8
躯体と製品
  6
Continuous
 62
     3
100
AcDbLine
 10
1719.11682616897
 20
889.3636885902704
 30
0.0
 11
1721.61682616897
 21
889.3636885902704
 31
0.0
  0
ARC
  5
6DD4
330
1E
100
AcDbEntity
  8
躯体と製品
  6
Continuous
 62
     3
100
AcDbCircle
 10
1712.91682616897
 20
889.0636885902704
 30
0.0
 40
0.2999999999999999
100
AcDbArc
 50
90.0
 51
180.0
  0
LINE
  5
6DD5
330
1E
100
AcDbEntity
  8
躯体と製品
  6
Continuous
 62
     3
100
AcDbLine
 10
1712.91682616897
 20
889.3636885902704
 30
0.0
 11
1714.11682616897
 21
889.3636885902704
 31
0.0
  0
LINE
  5
6DD6
330
1E
100
AcDbEntity
  8
躯体と製品
  6
Continuous
 62
     3
100
AcDbLine
 10
1712.91682616897
 20
885.3636885902703
 30
0.0
 11
1714.11682616897
 21
885.3636885902703
 31
0.0
  0
ARC
  5
6DD7
330
1E
100
AcDbEntity
  8
躯体と製品
  6
Continuous
 62
     3
100
AcDbCircle
 10
1712.91682616897
 20
885.6636885902705
 30
0.0
 40
0.2999999999999999
100
AcDbArc
 50
180.0
 51
270.0
  0
LINE
  5
6DD8
330
1E
100
AcDbEntity
  8
躯体と製品
  6
Continuous
 62
     3
100
AcDbLine
 10
1712.61682616897
 20
885.6636885902705
 30
0.0
 11
1712.61682616897
 21
889.0636885902704
 31
0.0
  0
ARC
  5
6DD9
330
1E
100
AcDbEntity
  8
躯体と製品
  6
Continuous
 62
     3
100
AcDbCircle
 10
1717.21682616897
 20
863.4636885902706
 30
0.0
 40
0.5999999999999999
100
AcDbArc
 50
90.0
 51
270.0
  0
ARC
  5
6DDA
330
1E
100
AcDbEntity
  8
躯体と製品
  6
Continuous
 62
     3
100
AcDbCircle
 10
1718.11682616897
 20
864.5636885902703
 30
0.0
 40
0.5
100
AcDbArc
 50
270.0
 51
0.0
  0
LINE
  5
6DDB
330
1E
100
AcDbEntity
  8
躯体と製品
  6
Continuous
 62
     3
100
AcDbLine
 10
1718.11682616897
 20
864.0636885902704
 30
0.0
 11
1717.21682616897
 21
864.0636885902704
 31
0.0
  0
LINE
  5
6DDC
330
1E
100
AcDbEntity
  8
躯体と製品
  6
Continuous
 62
     3
100
AcDbLine
 10
1718.11682616897
 20
868.8636885902704
 30
0.0
 11
1714.11682616897
 21
868.8636885902704
 31
0.0
  0
ARC
  5
6DDD
330
1E
100
AcDbEntity
  8
躯体と製品
  6
Continuous
 62
     3
100
AcDbCircle
 10
1718.11682616897
 20
868.3636885902702
 30
0.0
 40
0.5
100
AcDbArc
 50
0.0
 51
90.0
  0
LINE
  5
6DDE
330
1E
100
AcDbEntity
  8
躯体と製品
  6
Continuous
 62
     3
100
AcDbLine
 10
1718.61682616897
 20
868.3636885902702
 30
0.0
 11
1718.61682616897
 21
864.5636885902703
 31
0.0
  0
LINE
  5
6DDF
330
1E
100
AcDbEntity
  8
躯体と製品
  6
Continuous
 62
     3
100
AcDbLine
 10
1719.11682616897
 20
862.8636885902702
 30
0.0
 11
1717.21682616897
 21
862.8636885902702
 31
0.0
  0
ARC
  5
6DE0
330
1E
100
AcDbEntity
  8
躯体と製品
  6
Continuous
 62
     3
100
AcDbCircle
 10
1719.11682616897
 20
863.8636885902702
 30
0.0
 40
1.0
100
AcDbArc
 50
270.0
 51
0.0
  0
LINE
  5
6DE1
330
1E
100
AcDbEntity
  8
躯体と製品
  6
Continuous
 62
     3
100
AcDbLine
 10
1720.11682616897
 20
863.8636885902702
 30
0.0
 11
1720.11682616897
 21
869.8636885902704
 31
0.0
  0
ARC
  5
6DE2
330
1E
100
AcDbEntity
  8
躯体と製品
  6
Continuous
 62
     3
100
AcDbCircle
 10
1719.61682616897
 20
869.8636885902704
 30
0.0
 40
0.5
100
AcDbArc
 50
0.0
 51
90.0
  0
LINE
  5
6DE3
330
1E
100
AcDbEntity
  8
躯体と製品
  6
Continuous
 62
     3
100
AcDbLine
 10
1719.61682616897
 20
870.3636885902703
 30
0.0
 11
1714.11682616897
 21
870.3636885902703
 31
0.0
  0
ARC
  5
6DE4
330
1E
100
AcDbEntity
  8
躯体と製品
  6
Continuous
 62
     3
100
AcDbCircle
 10
1714.11682616897
 20
870.8636885902704
 30
0.0
 40
0.5
100
AcDbArc
 50
180.0
 51
270.0
  0
ARC
  5
6DE5
330
1E
100
AcDbEntity
  8
躯体と製品
  6
Continuous
 62
     3
100
AcDbCircle
 10
1714.11682616897
 20
868.3636885902702
 30
0.0
 40
0.5
100
AcDbArc
 50
90.0
 51
180.0
  0
ARC
  5
6DE6
330
1E
100
AcDbEntity
  8
躯体と製品
  6
Continuous
 62
     3
100
AcDbCircle
 10
1725.71682616897
 20
877.7636885902703
 30
0.0
 40
0.5999999999999999
100
AcDbArc
 50
270.0
 51
90.0
  0
LINE
  5
6DE7
330
1E
100
AcDbEntity
  8
躯体と製品
  6
Continuous
 62
     3
100
AcDbLine
 10
1713.61682616897
 20
882.8636885902703
 30
0.0
 11
1713.61682616897
 21
870.8636885902704
 31
0.0
  0
ARC
  5
6DE8
330
1E
100
AcDbEntity
  8
躯体と製品
  6
Continuous
 62
     3
100
AcDbCircle
 10
1714.11682616897
 20
882.8636885902703
 30
0.0
 40
0.5
100
AcDbArc
 50
90.0
 51
180.0
  0
LINE
  5
6DE9
330
1E
100
AcDbEntity
  8
躯体と製品
  6
Continuous
 62
     3
100
AcDbLine
 10
1719.11682616897
 20
883.3636885902704
 30
0.0
 11
1714.11682616897
 21
883.3636885902704
 31
0.0
  0
ARC
  5
6DEA
330
1E
100
AcDbEntity
  8
躯体と製品
  6
Continuous
 62
     3
100
AcDbCircle
 10
1719.11682616897
 20
882.8636885902703
 30
0.0
 40
0.5
100
AcDbArc
 50
0.0
 51
90.0
  0
LINE
  5
6DEB
330
1E
100
AcDbEntity
  8
躯体と製品
  6
Continuous
 62
     3
100
AcDbLine
 10
1720.61682616897
 20
877.1636885902706
 30
0.0
 11
1725.71682616897
 21
877.1636885902706
 31
0.0
  0
ARC
  5
6DEC
330
1E
100
AcDbEntity
  8
躯体と製品
  6
Continuous
 62
     3
100
AcDbCircle
 10
1720.61682616897
 20
878.1636885902706
 30
0.0
 40
1.0
100
AcDbArc
 50
180.0
 51
270.0
  0
LINE
  5
6DED
330
1E
100
AcDbEntity
  8
躯体と製品
  6
Continuous
 62
     3
100
AcDbLine
 10
1719.61682616897
 20
878.1636885902706
 30
0.0
 11
1719.61682616897
 21
882.8636885902703
 31
0.0
  0
LINE
  5
6DEE
330
1E
100
AcDbEntity
  8
躯体と製品
  6
Continuous
 62
     3
100
AcDbLine
 10
1721.116826168969
 20
878.3636885902703
 30
0.0
 11
1725.71682616897
 21
878.3636885902703
 31
0.0
  0
ARC
  5
6DEF
330
1E
100
AcDbEntity
  8
躯体と製品
  6
Continuous
 62
     3
100
AcDbCircle
 10
1721.116826168969
 20
878.6636885902705
 30
0.0
 40
0.2999999999999999
100
AcDbArc
 50
180.0
 51
270.0
  0
LINE
  5
6DF0
330
1E
100
AcDbEntity
  8
躯体と製品
  6
Continuous
 62
     3
100
AcDbLine
 10
1711.11682616897
 20
868.8636885902704
 30
0.0
 11
1711.61682616897
 21
868.8636885902704
 31
0.0
  0
LINE
  5
6DF1
330
1E
100
AcDbEntity
  8
躯体と製品
  6
Continuous
 62
     3
100
AcDbLine
 10
1711.61682616897
 20
870.3636885902703
 30
0.0
 11
1711.11682616897
 21
870.3636885902703
 31
0.0
  0
LINE
  5
6DF2
330
1E
100
AcDbEntity
  8
躯体と製品
  6
Continuous
 62
     3
100
AcDbLine
 10
1711.61682616897
 20
883.3636885902704
 30
0.0
 11
1711.61682616897
 21
870.3636885902703
 31
0.0
  0
LINE
  5
6DF3
330
1E
100
AcDbEntity
  8
躯体と製品
  6
Continuous
 62
     3
100
AcDbLine
 10
1711.11682616897
 20
883.3636885902704
 30
0.0
 11
1711.61682616897
 21
883.3636885902704
 31
0.0
  0
LINE
  5
6DF4
330
1E
100
AcDbEntity
  8
躯体と製品
  6
Continuous
 62
     3
100
AcDbLine
 10
1711.11682616897
 20
841.8636885902701
 30
0.0
 11
1711.11682616897
 21
831.8636885902703
 31
0.0
  0
LINE
  5
6DF5
330
1E
100
AcDbEntity
  8
躯体と製品
  6
Continuous
 62
     3
100
AcDbLine
 10
1713.61682616897
 20
836.3636885902703
 30
0.0
 11
1713.11682616897
 21
836.8636885902704
 31
0.0
  0
LINE
  5
6DF6
330
1E
100
AcDbEntity
  8
躯体と製品
  6
Continuous
 62
     3
100
AcDbLine
 10
1713.61682616897
 20
837.3636885902703
 30
0.0
 11
1713.11682616897
 21
836.8636885902704
 31
0.0
  0
LINE
  5
6DF7
330
1E
100
AcDbEntity
  8
躯体と製品
  6
Continuous
 62
     3
100
AcDbLine
 10
1711.11682616897
 20
831.8636885902703
 30
0.0
 11
1711.61682616897
 21
831.8636885902703
 31
0.0
  0
LINE
  5
6DF8
330
1E
100
AcDbEntity
  8
躯体と製品
  6
Continuous
 62
     3
100
AcDbLine
 10
1711.11682616897
 20
841.8636885902701
 30
0.0
 11
1711.61682616897
 21
841.8636885902701
 31
0.0
  0
LINE
  5
6DF9
330
1E
100
AcDbEntity
  8
躯体と製品
  6
DASHED1
 62
     7
100
AcDbLine
 10
1696.20218016897
 20
834.6040615902703
 30
0.0
 11
1697.11682616897
 21
832.8636865902703
 31
0.0
  0
LINE
  5
6DFA
330
1E
100
AcDbEntity
  8
躯体と製品
  6
DASHED1
 62
     7
100
AcDbLine
 10
1697.11682616897
 20
832.8636865902703
 30
0.0
 11
1709.11682616897
 21
832.8636865902703
 31
0.0
  0
LINE
  5
6DFB
330
1E
100
AcDbEntity
  8
躯体と製品
  6
DASHED1
 62
     7
100
AcDbLine
 10
1689.316445168969
 20
840.4227445902703
 30
0.0
 11
1694.31644616897
 21
842.2425955902705
 31
0.0
  0
LINE
  5
6DFC
330
1E
100
AcDbEntity
  8
躯体と製品
  6
DASHED1
 62
     7
100
AcDbLine
 10
1689.316445168969
 20
841.4869225902702
 30
0.0
 11
1693.974425168969
 21
843.1822885902704
 31
0.0
  0
LINE
  5
6DFD
330
1E
100
AcDbEntity
  8
躯体と製品
  6
DASHED1
 62
     7
100
AcDbLine
 10
1689.316445168969
 20
833.3046295902704
 30
0.0
 11
1694.31644616897
 21
831.4847785902703
 31
0.0
  0
LINE
  5
6DFE
330
1E
100
AcDbEntity
  8
躯体と製品
  6
DASHED1
 62
     7
100
AcDbLine
 10
1693.974425168969
 20
830.5450855902703
 30
0.0
 11
1700.77804716897
 21
829.5527305902705
 31
0.0
  0
ARC
  5
6DFF
330
1E
100
AcDbEntity
  8
躯体と製品
  6
DASHED1
 62
     7
100
AcDbCircle
 10
1700.83577916897
 20
829.9485415902703
 30
0.0
 40
0.3999990000000001
100
AcDbArc
 50
261.7015340000029
 51
351.8698979999985
  0
LINE
  5
6E00
330
1E
100
AcDbEntity
  8
躯体と製品
  6
DASHED1
 62
     7
100
AcDbLine
 10
1701.231761168969
 20
829.8919735902703
 30
0.0
 11
1701.25987716897
 21
830.0888005902702
 31
0.0
  0
ARC
  5
6E01
330
1E
100
AcDbEntity
  8
躯体と製品
  6
DASHED1
 62
     7
100
AcDbCircle
 10
1700.86389816897
 20
830.1453685902703
 30
0.0
 40
0.3999990000000001
100
AcDbArc
 50
351.8698979999985
 51
81.86989800000221
  0
LINE
  5
6E02
330
1E
100
AcDbEntity
  8
躯体と製品
  6
DASHED1
 62
     7
100
AcDbLine
 10
1700.92046616897
 20
830.5413475902705
 30
0.0
 11
1694.31644616897
 21
831.4847785902703
 31
0.0
  0
LINE
  5
6E03
330
1E
100
AcDbEntity
  8
躯体と製品
  6
DASHED1
 62
     7
100
AcDbLine
 10
1693.974425168969
 20
843.1822885902704
 30
0.0
 11
1700.77804716897
 21
844.1746435902706
 31
0.0
  0
ARC
  5
6E04
330
1E
100
AcDbEntity
  8
躯体と製品
  6
DASHED1
 62
     7
100
AcDbCircle
 10
1700.83577916897
 20
843.7788325902705
 30
0.0
 40
0.3999990000000001
100
AcDbArc
 50
8.130102000001478
 51
98.29846599999713
  0
LINE
  5
6E05
330
1E
100
AcDbEntity
  8
躯体と製品
  6
DASHED1
 62
     7
100
AcDbLine
 10
1701.231761168969
 20
843.8354005902706
 30
0.0
 11
1701.25987716897
 21
843.6385765902706
 31
0.0
  0
ARC
  5
6E06
330
1E
100
AcDbEntity
  8
躯体と製品
  6
DASHED1
 62
     7
100
AcDbCircle
 10
1700.86389816897
 20
843.5820055902704
 30
0.0
 40
0.3999990000000001
100
AcDbArc
 50
278.1301019999978
 51
8.130102000001478
  0
LINE
  5
6E07
330
1E
100
AcDbEntity
  8
躯体と製品
  6
DASHED1
 62
     7
100
AcDbLine
 10
1701.11682516897
 20
837.3636865902705
 30
0.0
 11
1701.11682516897
 21
836.3636875902704
 31
0.0
  0
LINE
  5
6E08
330
1E
100
AcDbEntity
  8
躯体と製品
  6
DASHED1
 62
     7
100
AcDbLine
 10
1697.11682616897
 20
840.8636875902704
 30
0.0
 11
1696.20218016897
 21
839.1233125902704
 31
0.0
  0
LINE
  5
6E09
330
1E
100
AcDbEntity
  8
躯体と製品
  6
DASHED1
 62
     7
100
AcDbLine
 10
1709.11682616897
 20
841.8636865902703
 30
0.0
 11
1704.11682516897
 21
840.8636875902704
 31
0.0
  0
LINE
  5
6E0A
330
1E
100
AcDbEntity
  8
躯体と製品
  6
DASHED1
 62
     7
100
AcDbLine
 10
1709.11682616897
 20
837.8636875902703
 30
0.0
 11
1704.11682516897
 21
836.8636885902704
 31
0.0
  0
LINE
  5
6E0B
330
1E
100
AcDbEntity
  8
躯体と製品
  6
DASHED1
 62
     7
100
AcDbLine
 10
1709.11682616897
 20
835.8636865902704
 30
0.0
 11
1704.11682516897
 21
836.8636885902704
 31
0.0
  0
LINE
  5
6E0C
330
1E
100
AcDbEntity
  8
躯体と製品
  6
DASHED1
 62
     7
100
AcDbLine
 10
1704.11682516897
 20
836.8636885902704
 30
0.0
 11
1709.11682616897
 21
836.8636885902704
 31
0.0
  0
LINE
  5
6E0D
330
1E
100
AcDbEntity
  8
躯体と製品
  6
DASHED1
 62
     7
100
AcDbLine
 10
1674.98627016897
 20
838.7331325902703
 30
0.0
 11
1673.11682616897
 21
836.8636885902704
 31
0.0
  0
LINE
  5
6E0E
330
1E
100
AcDbEntity
  8
躯体と製品
  6
DASHED1
 62
     7
100
AcDbLine
 10
1696.20218016897
 20
839.1233125902704
 30
0.0
 11
1694.20492116897
 21
839.2279825902706
 31
0.0
  0
LINE
  5
6E0F
330
1E
100
AcDbEntity
  8
躯体と製品
  6
DASHED1
 62
     7
100
AcDbLine
 10
1694.20492116897
 20
839.2279825902706
 30
0.0
 11
1694.30959416897
 21
841.2252415902706
 31
0.0
  0
LINE
  5
6E10
330
1E
100
AcDbEntity
  8
躯体と製品
  6
DASHED1
 62
     7
100
AcDbLine
 10
1694.30959416897
 20
841.2252415902706
 30
0.0
 11
1692.31233516897
 21
841.3299145902703
 31
0.0
  0
LINE
  5
6E11
330
1E
100
AcDbEntity
  8
躯体と製品
  6
DASHED1
 62
     7
100
AcDbLine
 10
1672.15656816897
 20
838.8814285902704
 30
0.0
 11
1672.33974516897
 21
842.3766325902704
 31
0.0
  0
LINE
  5
6E12
330
1E
100
AcDbEntity
  8
躯体と製品
  6
DASHED1
 62
     7
100
AcDbLine
 10
1672.33974516897
 20
842.3766325902704
 30
0.0
 11
1670.23781316897
 21
840.4840465902704
 31
0.0
  0
LINE
  5
6E13
330
1E
100
AcDbEntity
  8
躯体と製品
  6
DASHED1
 62
     7
100
AcDbLine
 10
1670.23781316897
 20
840.4840465902704
 30
0.0
 11
1670.15930916897
 21
838.9861015902704
 31
0.0
  0
LINE
  5
6E14
330
1E
100
AcDbEntity
  8
躯体と製品
  6
DASHED1
 62
     7
100
AcDbLine
 10
1670.15930916897
 20
838.9861015902704
 30
0.0
 11
1701.11682516897
 21
837.3636865902705
 31
0.0
  0
LINE
  5
6E15
330
1E
100
AcDbEntity
  8
躯体と製品
  6
DASHED1
 62
     7
100
AcDbLine
 10
1692.31233516897
 20
841.3299145902703
 30
0.0
 11
1691.20903416897
 21
839.3849905902705
 31
0.0
  0
LINE
  5
6E16
330
1E
100
AcDbEntity
  8
躯体と製品
  6
DASHED1
 62
     7
100
AcDbLine
 10
1691.20903416897
 20
839.3849905902705
 30
0.0
 11
1689.21177516897
 21
839.4896635902703
 31
0.0
  0
LINE
  5
6E17
330
1E
100
AcDbEntity
  8
躯体と製品
  6
DASHED1
 62
     7
100
AcDbLine
 10
1689.21177516897
 20
839.4896635902703
 30
0.0
 11
1689.316445168969
 21
841.4869225902702
 31
0.0
  0
LINE
  5
6E18
330
1E
100
AcDbEntity
  8
躯体と製品
  6
DASHED1
 62
     7
100
AcDbLine
 10
1689.316445168969
 20
841.4869225902702
 30
0.0
 11
1687.31918616897
 21
841.5915925902705
 31
0.0
  0
LINE
  5
6E19
330
1E
100
AcDbEntity
  8
躯体と製品
  6
DASHED1
 62
     7
100
AcDbLine
 10
1687.31918616897
 20
841.5915925902705
 30
0.0
 11
1686.21588516897
 21
839.6466715902704
 31
0.0
  0
LINE
  5
6E1A
330
1E
100
AcDbEntity
  8
躯体と製品
  6
DASHED1
 62
     7
100
AcDbLine
 10
1686.21588516897
 20
839.6466715902704
 30
0.0
 11
1684.21862616897
 21
839.7513415902704
 31
0.0
  0
LINE
  5
6E1B
330
1E
100
AcDbEntity
  8
躯体と製品
  6
DASHED1
 62
     7
100
AcDbLine
 10
1684.21862616897
 20
839.7513415902704
 30
0.0
 11
1684.32329916897
 21
841.7486005902704
 31
0.0
  0
LINE
  5
6E1C
330
1E
100
AcDbEntity
  8
躯体と製品
  6
DASHED1
 62
     7
100
AcDbLine
 10
1684.32329916897
 20
841.7486005902704
 30
0.0
 11
1682.32604016897
 21
841.8532735902704
 31
0.0
  0
LINE
  5
6E1D
330
1E
100
AcDbEntity
  8
躯体と製品
  6
DASHED1
 62
     7
100
AcDbLine
 10
1682.32604016897
 20
841.8532735902704
 30
0.0
 11
1681.22273916897
 21
839.9083495902702
 31
0.0
  0
LINE
  5
6E1E
330
1E
100
AcDbEntity
  8
躯体と製品
  6
DASHED1
 62
     7
100
AcDbLine
 10
1681.22273916897
 20
839.9083495902702
 30
0.0
 11
1679.22548016897
 21
840.0130225902705
 31
0.0
  0
LINE
  5
6E1F
330
1E
100
AcDbEntity
  8
躯体と製品
  6
DASHED1
 62
     7
100
AcDbLine
 10
1679.22548016897
 20
840.0130225902705
 30
0.0
 11
1679.33015016897
 21
842.0102815902705
 31
0.0
  0
LINE
  5
6E20
330
1E
100
AcDbEntity
  8
躯体と製品
  6
DASHED1
 62
     7
100
AcDbLine
 10
1679.33015016897
 20
842.0102815902705
 30
0.0
 11
1677.33289116897
 21
842.1149545902704
 31
0.0
  0
LINE
  5
6E21
330
1E
100
AcDbEntity
  8
躯体と製品
  6
DASHED1
 62
     7
100
AcDbLine
 10
1677.33289116897
 20
842.1149545902704
 30
0.0
 11
1676.22959016897
 21
840.1700305902704
 31
0.0
  0
LINE
  5
6E22
330
1E
100
AcDbEntity
  8
躯体と製品
  6
DASHED1
 62
     7
100
AcDbLine
 10
1676.22959016897
 20
840.1700305902704
 30
0.0
 11
1674.23233116897
 21
840.2747035902702
 31
0.0
  0
LINE
  5
6E23
330
1E
100
AcDbEntity
  8
躯体と製品
  6
DASHED1
 62
     7
100
AcDbLine
 10
1674.23233116897
 20
840.2747035902702
 30
0.0
 11
1674.33700416897
 21
842.2719625902704
 31
0.0
  0
LINE
  5
6E24
330
1E
100
AcDbEntity
  8
躯体と製品
  6
DASHED1
 62
     7
100
AcDbLine
 10
1674.33700416897
 20
842.2719625902704
 30
0.0
 11
1672.33974516897
 21
842.3766325902704
 31
0.0
  0
LINE
  5
6E25
330
1E
100
AcDbEntity
  8
躯体と製品
  6
DASHED1
 62
     7
100
AcDbLine
 10
1709.11682616897
 20
831.8636875902704
 30
0.0
 11
1704.11682516897
 21
832.8636865902703
 31
0.0
  0
LINE
  5
6E26
330
1E
100
AcDbEntity
  8
躯体と製品
  6
DASHED1
 62
     7
100
AcDbLine
 10
1696.20218016897
 20
834.6040615902703
 30
0.0
 11
1694.20492116897
 21
834.4993915902705
 31
0.0
  0
LINE
  5
6E27
330
1E
100
AcDbEntity
  8
躯体と製品
  6
DASHED1
 62
     7
100
AcDbLine
 10
1694.20492116897
 20
834.4993915902705
 30
0.0
 11
1694.30959416897
 21
832.5021325902705
 31
0.0
  0
LINE
  5
6E28
330
1E
100
AcDbEntity
  8
躯体と製品
  6
DASHED1
 62
     7
100
AcDbLine
 10
1694.30959416897
 20
832.5021325902705
 30
0.0
 11
1692.31233516897
 21
832.3974595902704
 31
0.0
  0
LINE
  5
6E29
330
1E
100
AcDbEntity
  8
躯体と製品
  6
DASHED1
 62
     7
100
AcDbLine
 10
1672.15656816897
 20
834.8459455902705
 30
0.0
 11
1672.33974516897
 21
831.3507415902703
 31
0.0
  0
LINE
  5
6E2A
330
1E
100
AcDbEntity
  8
躯体と製品
  6
DASHED1
 62
     7
100
AcDbLine
 10
1672.33974516897
 20
831.3507415902703
 30
0.0
 11
1670.23781316897
 21
833.2433275902701
 31
0.0
  0
LINE
  5
6E2B
330
1E
100
AcDbEntity
  8
躯体と製品
  6
DASHED1
 62
     7
100
AcDbLine
 10
1670.23781316897
 20
833.2433275902701
 30
0.0
 11
1670.15930916897
 21
834.7412725902701
 31
0.0
  0
LINE
  5
6E2C
330
1E
100
AcDbEntity
  8
躯体と製品
  6
DASHED1
 62
     7
100
AcDbLine
 10
1670.15930916897
 20
834.7412725902701
 30
0.0
 11
1701.11682516897
 21
836.3636875902704
 31
0.0
  0
LINE
  5
6E2D
330
1E
100
AcDbEntity
  8
躯体と製品
  6
DASHED1
 62
     7
100
AcDbLine
 10
1692.31233516897
 20
832.3974595902704
 30
0.0
 11
1691.20903416897
 21
834.3423835902704
 31
0.0
  0
LINE
  5
6E2E
330
1E
100
AcDbEntity
  8
躯体と製品
  6
DASHED1
 62
     7
100
AcDbLine
 10
1691.20903416897
 20
834.3423835902704
 30
0.0
 11
1689.21177516897
 21
834.2377105902706
 31
0.0
  0
LINE
  5
6E2F
330
1E
100
AcDbEntity
  8
躯体と製品
  6
DASHED1
 62
     7
100
AcDbLine
 10
1689.21177516897
 20
834.2377105902706
 30
0.0
 11
1689.316445168969
 21
832.2404515902704
 31
0.0
  0
LINE
  5
6E30
330
1E
100
AcDbEntity
  8
躯体と製品
  6
DASHED1
 62
     7
100
AcDbLine
 10
1689.316445168969
 20
832.2404515902704
 30
0.0
 11
1687.31918616897
 21
832.1357815902706
 31
0.0
  0
LINE
  5
6E31
330
1E
100
AcDbEntity
  8
躯体と製品
  6
DASHED1
 62
     7
100
AcDbLine
 10
1687.31918616897
 20
832.1357815902706
 30
0.0
 11
1686.21588516897
 21
834.0807025902703
 31
0.0
  0
LINE
  5
6E32
330
1E
100
AcDbEntity
  8
躯体と製品
  6
DASHED1
 62
     7
100
AcDbLine
 10
1686.21588516897
 20
834.0807025902703
 30
0.0
 11
1684.21862616897
 21
833.9760325902705
 31
0.0
  0
LINE
  5
6E33
330
1E
100
AcDbEntity
  8
躯体と製品
  6
DASHED1
 62
     7
100
AcDbLine
 10
1684.21862616897
 20
833.9760325902705
 30
0.0
 11
1684.32329916897
 21
831.9787735902703
 31
0.0
  0
LINE
  5
6E34
330
1E
100
AcDbEntity
  8
躯体と製品
  6
DASHED1
 62
     7
100
AcDbLine
 10
1684.32329916897
 20
831.9787735902703
 30
0.0
 11
1682.32604016897
 21
831.8741005902703
 31
0.0
  0
LINE
  5
6E35
330
1E
100
AcDbEntity
  8
躯体と製品
  6
DASHED1
 62
     7
100
AcDbLine
 10
1682.32604016897
 20
831.8741005902703
 30
0.0
 11
1681.22273916897
 21
833.8190245902703
 31
0.0
  0
LINE
  5
6E36
330
1E
100
AcDbEntity
  8
躯体と製品
  6
DASHED1
 62
     7
100
AcDbLine
 10
1681.22273916897
 20
833.8190245902703
 30
0.0
 11
1679.22548016897
 21
833.7143515902704
 31
0.0
  0
LINE
  5
6E37
330
1E
100
AcDbEntity
  8
躯体と製品
  6
DASHED1
 62
     7
100
AcDbLine
 10
1679.22548016897
 20
833.7143515902704
 30
0.0
 11
1679.33015016897
 21
831.7170925902706
 31
0.0
  0
LINE
  5
6E38
330
1E
100
AcDbEntity
  8
躯体と製品
  6
DASHED1
 62
     7
100
AcDbLine
 10
1679.33015016897
 20
831.7170925902706
 30
0.0
 11
1677.33289116897
 21
831.6124195902702
 31
0.0
  0
LINE
  5
6E39
330
1E
100
AcDbEntity
  8
躯体と製品
  6
DASHED1
 62
     7
100
AcDbLine
 10
1677.33289116897
 20
831.6124195902702
 30
0.0
 11
1676.22959016897
 21
833.5573435902704
 31
0.0
  0
LINE
  5
6E3A
330
1E
100
AcDbEntity
  8
躯体と製品
  6
DASHED1
 62
     7
100
AcDbLine
 10
1676.22959016897
 20
833.5573435902704
 30
0.0
 11
1674.23233116897
 21
833.4526705902703
 31
0.0
  0
LINE
  5
6E3B
330
1E
100
AcDbEntity
  8
躯体と製品
  6
DASHED1
 62
     7
100
AcDbLine
 10
1674.23233116897
 20
833.4526705902703
 30
0.0
 11
1674.33700416897
 21
831.4554115902703
 31
0.0
  0
LINE
  5
6E3C
330
1E
100
AcDbEntity
  8
躯体と製品
  6
DASHED1
 62
     7
100
AcDbLine
 10
1674.33700416897
 20
831.4554115902703
 30
0.0
 11
1672.33974516897
 21
831.3507415902703
 31
0.0
  0
LINE
  5
6E3D
330
1E
100
AcDbEntity
  8
躯体と製品
  6
DASHED1
 62
     7
100
AcDbLine
 10
1674.98627016897
 20
834.9942415902706
 30
0.0
 11
1673.11682616897
 21
836.8636885902704
 31
0.0
  0
LINE
  5
6E3E
330
1E
100
AcDbEntity
  8
躯体と製品
  6
DASHED1
 62
     7
100
AcDbLine
 10
1700.92046616897
 20
843.1860265902704
 30
0.0
 11
1694.31644616897
 21
842.2425955902705
 31
0.0
  0
LINE
  5
6E3F
330
1E
100
AcDbEntity
  8
躯体と製品
  6
DASHED1
 62
     7
100
AcDbLine
 10
1689.316445168969
 20
832.2404515902704
 30
0.0
 11
1693.974425168969
 21
830.5450855902703
 31
0.0
  0
LINE
  5
6E40
330
1E
100
AcDbEntity
  8
躯体と製品
  6
DASHED1
 62
     7
100
AcDbLine
 10
1697.11682616897
 20
840.8636875902704
 30
0.0
 11
1709.11682616897
 21
840.8636875902704
 31
0.0
  0
LINE
  5
6E41
330
1E
100
AcDbEntity
  8
躯体と製品
  6
Continuous
 62
     4
100
AcDbLine
 10
1880.949346791813
 20
825.3736119978478
 30
0.0
 11
1878.606264751991
 21
827.7166940376691
 31
0.0
  0
LINE
  5
6E42
330
1E
100
AcDbEntity
  8
躯体と製品
  6
Continuous
 62
     4
100
AcDbLine
 10
1881.019771767468
 20
826.7174005845653
 30
0.0
 11
1880.098693173684
 21
827.6384791783494
 31
0.0
  0
LINE
  5
6E43
330
1E
100
AcDbEntity
  8
躯体と製品
  6
Continuous
 62
     4
100
AcDbLine
 10
1880.878921816158
 20
824.0298234111298
 30
0.0
 11
1877.113836330298
 21
827.7949088969892
 31
0.0
  0
LINE
  5
6E44
330
1E
100
AcDbEntity
  8
躯体と製品
  6
Continuous
 62
     4
100
AcDbLine
 10
1879.848425919539
 20
823.6461057453752
 30
0.0
 11
1875.621407908605
 21
827.8731237563089
 31
0.0
  0
LINE
  5
6E45
330
1E
100
AcDbEntity
  8
躯体と製品
  6
Continuous
 62
     4
100
AcDbLine
 10
1878.355997497848
 20
823.7243206046949
 30
0.0
 11
1874.128979486914
 21
827.9513386156287
 31
0.0
  0
LINE
  5
6E46
330
1E
100
AcDbEntity
  8
躯体と製品
  6
Continuous
 62
     4
100
AcDbLine
 10
1876.863569076155
 20
823.8025354640145
 30
0.0
 11
1872.636551065221
 21
828.0295534749484
 31
0.0
  0
LINE
  5
6E47
330
1E
100
AcDbEntity
  8
躯体と製品
  6
Continuous
 62
     4
100
AcDbLine
 10
1875.371140654461
 20
823.8807503233344
 30
0.0
 11
1871.144122643528
 21
828.1077683342685
 31
0.0
  0
LINE
  5
6E48
330
1E
100
AcDbEntity
  8
躯体と製品
  6
Continuous
 62
     4
100
AcDbLine
 10
1873.878712232768
 20
823.9589651826543
 30
0.0
 11
1869.651694221834
 21
828.1859831935882
 31
0.0
  0
LINE
  5
6E49
330
1E
100
AcDbEntity
  8
躯体と製品
  6
Continuous
 62
     4
100
AcDbLine
 10
1872.386283811075
 20
824.037180041974
 30
0.0
 11
1868.159265800141
 21
828.2641980529078
 31
0.0
  0
LINE
  5
6E4A
330
1E
100
AcDbEntity
  8
躯体と製品
  6
Continuous
 62
     4
100
AcDbLine
 10
1870.893855389382
 20
824.1153949012936
 30
0.0
 11
1866.666837378448
 21
828.3424129122277
 31
0.0
  0
LINE
  5
6E4B
330
1E
100
AcDbEntity
  8
躯体と製品
  6
Continuous
 62
     4
100
AcDbLine
 10
1869.401426967689
 20
824.1936097606137
 30
0.0
 11
1866.042931589543
 21
827.5521051387597
 31
0.0
  0
LINE
  5
6E4C
330
1E
100
AcDbEntity
  8
躯体と製品
  6
Continuous
 62
     4
100
AcDbLine
 10
1867.908998545995
 20
824.271824619934
 30
0.0
 11
1865.972506613887
 21
826.2083165520424
 31
0.0
  0
LINE
  5
6E4D
330
1E
100
AcDbEntity
  8
躯体と製品
  6
Continuous
 62
     7
100
AcDbLine
 10
1865.876601503701
 20
824.3783380355415
 30
0.0
 11
1866.085945328674
 21
828.3728561745597
 31
0.0
  0
LINE
  5
6E4E
330
1E
100
AcDbEntity
  8
躯体と製品
  6
Continuous
 62
     7
100
AcDbLine
 10
1881.065388349991
 20
827.5878168309155
 30
0.0
 11
1866.085945328674
 21
828.3728561745597
 31
0.0
  0
LINE
  5
6E4F
330
1E
100
AcDbEntity
  8
躯体と製品
  6
Continuous
 62
     4
100
AcDbLine
 10
1866.416570124304
 20
824.3500394792535
 30
0.0
 11
1865.902081638231
 21
824.8645279653262
 31
0.0
  0
ARC
  5
6E50
330
1E
100
AcDbEntity
  8
躯体と製品
  6
Continuous
 62
     3
100
AcDbCircle
 10
1889.891773469955
 20
798.8423273775936
 30
0.0
 40
0.5999999999999984
100
AcDbArc
 50
166.9999999999997
 51
346.9999999999997
  0
ARC
  5
6E51
330
1E
100
AcDbEntity
  8
躯体と製品
  6
Continuous
 62
     3
100
AcDbCircle
 10
1889.403158941611
 20
801.6158579670905
 30
0.0
 40
0.5
100
AcDbArc
 50
346.9999999999997
 51
86.99999999999441
  0
ARC
  5
6E52
330
1E
100
AcDbEntity
  8
躯体と製品
  6
Continuous
 62
     3
100
AcDbCircle
 10
1891.476913209011
 20
801.7074515803566
 30
0.0
 40
0.2999999999999999
100
AcDbArc
 50
86.99999999999441
 51
166.9999999999997
  0
ARC
  5
6E53
330
1E
100
AcDbEntity
  8
躯体と製品
  6
Continuous
 62
     3
100
AcDbCircle
 10
1894.159154448461
 20
753.6805917664278
 30
0.0
 40
0.6000000000000015
100
AcDbArc
 50
90.0
 51
270.0
  0
LINE
  5
6E54
330
1E
100
AcDbEntity
  8
躯体と製品
  6
Continuous
 62
     3
100
AcDbLine
 10
1905.326628726416
 20
745.9652790606307
 30
0.0
 11
1905.326628726416
 21
742.2805917664277
 31
0.0
  0
LINE
  5
6E55
330
1E
100
AcDbEntity
  8
躯体と製品
  6
Continuous
 62
     3
100
AcDbLine
 10
1908.326628726416
 20
744.7805917664277
 30
0.0
 11
1908.326628726416
 21
746.2805917664277
 31
0.0
  0
LINE
  5
6E56
330
1E
100
AcDbEntity
  8
躯体と製品
  6
Continuous
 62
     3
100
AcDbLine
 10
1905.826628726416
 20
742.2805917664277
 30
0.0
 11
1905.326628726416
 21
742.2805917664277
 31
0.0
  0
ARC
  5
6E57
330
1E
100
AcDbEntity
  8
躯体と製品
  6
Continuous
 62
     3
100
AcDbCircle
 10
1905.826628726416
 20
744.7805917664277
 30
0.0
 40
2.5
100
AcDbArc
 50
270.0
 51
0.0
  0
LINE
  5
6E58
330
1E
100
AcDbEntity
  8
躯体と製品
  6
Continuous
 62
     3
100
AcDbLine
 10
1898.559154448461
 20
754.2805917664277
 30
0.0
 11
1898.559154448461
 21
755.2805917664279
 31
0.0
  0
LINE
  5
6E59
330
1E
100
AcDbEntity
  8
躯体と製品
  6
Continuous
 62
     3
100
AcDbLine
 10
1898.559154448461
 20
755.2805917664279
 30
0.0
 11
1896.559154448461
 21
754.2805917664277
 31
0.0
  0
LINE
  5
6E5A
330
1E
100
AcDbEntity
  8
躯体と製品
  6
Continuous
 62
     3
100
AcDbLine
 10
1894.159154448461
 20
754.2805917664277
 30
0.0
 11
1896.559154448461
 21
754.2805917664277
 31
0.0
  0
ARC
  5
6E5B
330
1E
100
AcDbEntity
  8
躯体と製品
  6
Continuous
 62
     3
100
AcDbCircle
 10
1902.941705870193
 20
754.7805917664277
 30
0.0
 40
0.5
100
AcDbArc
 50
270.0
 51
11.99999999999979
  0
LINE
  5
6E5C
330
1E
100
AcDbEntity
  8
躯体と製品
  6
Continuous
 62
     3
100
AcDbLine
 10
1903.409330305867
 20
753.0805917664279
 30
0.0
 11
1894.159154448461
 21
753.0805917664279
 31
0.0
  0
LINE
  5
6E5D
330
1E
100
AcDbEntity
  8
躯体と製品
  6
Continuous
 62
     3
100
AcDbLine
 10
1903.898404106234
 20
752.6845476118364
 30
0.0
 11
1905.326628726416
 21
745.9652790606307
 31
0.0
  0
ARC
  5
6E5E
330
1E
100
AcDbEntity
  8
躯体と製品
  6
Continuous
 62
     3
100
AcDbCircle
 10
1903.409330305867
 20
752.5805917664278
 30
0.0
 40
0.5
100
AcDbArc
 50
11.99999999999979
 51
90.0
  0
ARC
  5
6E5F
330
1E
100
AcDbEntity
  8
躯体と製品
  6
Continuous
 62
     3
100
AcDbCircle
 10
1880.17780027693
 20
801.0979661817978
 30
0.0
 40
0.5
100
AcDbArc
 50
177.0000000000011
 51
266.9999999999944
  0
LINE
  5
6E60
330
1E
100
AcDbEntity
  8
躯体と製品
  6
Continuous
 62
     3
100
AcDbLine
 10
1880.650947066187
 20
800.572483436299
 30
0.0
 11
1880.151632298809
 21
800.5986514144204
 31
0.0
  0
ARC
  5
6E61
330
1E
100
AcDbEntity
  8
躯体と製品
  6
Continuous
 62
     3
100
AcDbCircle
 10
1880.677115044308
 20
801.0717982036764
 30
0.0
 40
0.5
100
AcDbArc
 50
266.9999999999944
 51
357.0000000000011
  0
ARC
  5
6E62
330
1E
100
AcDbEntity
  8
躯体と製品
  6
Continuous
 62
     3
100
AcDbCircle
 10
1892.617624471708
 20
800.946708794077
 30
0.0
 40
1.0
100
AcDbArc
 50
11.99999999999979
 51
86.99999999999441
  0
ARC
  5
6E63
330
1E
100
AcDbEntity
  8
躯体と製品
  6
Continuous
 62
     3
100
AcDbCircle
 10
1893.436235820961
 20
801.9051795371646
 30
0.0
 40
3.0
100
AcDbArc
 50
11.99999999999979
 51
86.99999999999441
  0
ARC
  5
6E64
330
1E
100
AcDbEntity
  8
躯体と製品
  6
Continuous
 62
     3
100
AcDbCircle
 10
1880.544151970631
 20
808.0883729250798
 30
0.0
 40
0.5
100
AcDbArc
 50
86.99999999999441
 51
177.0000000000011
  0
LINE
  5
6E65
330
1E
100
AcDbEntity
  8
躯体と製品
  6
Continuous
 62
     3
100
AcDbLine
 10
1881.06963471613
 20
808.5615197143356
 30
0.0
 11
1880.570319948753
 21
808.5876876924572
 31
0.0
  0
ARC
  5
6E66
330
1E
100
AcDbEntity
  8
躯体と製品
  6
Continuous
 62
     3
100
AcDbCircle
 10
1881.043466738009
 20
808.0622049469583
 30
0.0
 40
0.5
100
AcDbArc
 50
357.0000000000011
 51
86.99999999999441
  0
LINE
  5
6E67
330
1E
100
AcDbEntity
  8
躯体と製品
  6
Continuous
 62
     3
100
AcDbLine
 10
1896.370678623162
 20
802.5289146096181
 30
0.0
 11
1908.326628726416
 21
746.2805917664277
 31
0.0
  0
LINE
  5
6E68
330
1E
100
AcDbEntity
  8
躯体と製品
  6
Continuous
 62
     3
100
AcDbLine
 10
1893.595772072442
 20
801.1546204848949
 30
0.0
 11
1903.43077967056
 21
754.8845476118365
 31
0.0
  0
LINE
  5
6E69
330
1E
100
AcDbEntity
  8
躯体と製品
  6
Continuous
 62
     3
100
AcDbLine
 10
1902.941705870193
 20
754.2805917664277
 30
0.0
 11
1898.559154448461
 21
754.2805917664277
 31
0.0
  0
LINE
  5
6E6A
330
1E
100
AcDbEntity
  8
躯体と製品
  6
Continuous
 62
     3
100
AcDbLine
 10
1881.4381095929
 20
806.0387778993277
 30
0.0
 11
1881.542781505386
 21
808.0360369688369
 31
0.0
  0
LINE
  5
6E6B
330
1E
100
AcDbEntity
  8
躯体と製品
  6
Continuous
 62
     3
100
AcDbLine
 10
1881.911256382156
 20
805.513295153829
 30
0.0
 11
1893.59324368969
 21
804.9010681414284
 31
0.0
  0
ARC
  5
6E6C
330
1E
100
AcDbEntity
  8
躯体と製品
  6
Continuous
 62
     3
100
AcDbCircle
 10
1881.937424360277
 20
806.0126099212062
 30
0.0
 40
0.5
100
AcDbArc
 50
177.0000000000011
 51
266.9999999999944
  0
LINE
  5
6E6D
330
1E
100
AcDbEntity
  8
躯体と製品
  6
Continuous
 62
     3
100
AcDbLine
 10
1881.228765767928
 20
802.0442597603096
 30
0.0
 11
1881.176429811685
 21
801.0456302255548
 31
0.0
  0
ARC
  5
6E6E
330
1E
100
AcDbEntity
  8
躯体と製品
  6
Continuous
 62
     3
100
AcDbCircle
 10
1881.728080535306
 20
802.0180917821878
 30
0.0
 40
0.5
100
AcDbArc
 50
86.99999999999441
 51
177.0000000000011
  0
LINE
  5
6E6F
330
1E
100
AcDbEntity
  8
躯体と製品
  6
Continuous
 62
     3
100
AcDbLine
 10
1891.184602189576
 20
801.7749368966597
 30
0.0
 11
1890.476395508827
 21
798.7073567449876
 31
0.0
  0
LINE
  5
6E70
330
1E
100
AcDbEntity
  8
躯体と製品
  6
Continuous
 62
     3
100
AcDbLine
 10
1892.669960427951
 20
801.9453383288317
 30
0.0
 11
1891.492613995884
 21
802.0070404407832
 31
0.0
  0
LINE
  5
6E71
330
1E
100
AcDbEntity
  8
躯体と製品
  6
Continuous
 62
     3
100
AcDbLine
 10
1881.754248513427
 20
802.5174065495653
 30
0.0
 11
1889.429326919733
 21
802.1151727344676
 31
0.0
  0
LINE
  5
6E72
330
1E
100
AcDbEntity
  8
躯体と製品
  6
Continuous
 62
     3
100
AcDbLine
 10
1889.890343974004
 20
801.5033824399184
 30
0.0
 11
1889.307151431085
 21
798.9772980102002
 31
0.0
  0
LINE
  5
6E73
330
1E
100
AcDbEntity
  8
躯体と製品
  6
Continuous
 62
     3
100
AcDbLine
 10
1879.626149553311
 20
800.1255046251646
 30
0.0
 11
1881.091556328113
 21
828.0871315982926
 31
0.0
  0
LINE
  5
6E74
330
1E
100
AcDbEntity
  8
躯体と製品
  6
DASHED1
 62
     7
100
AcDbLine
 10
1851.453055572141
 20
807.109541819239
 30
0.0
 11
1879.913997312647
 21
805.617967066315
 31
0.0
  0
ARC
  5
6E75
330
1E
100
AcDbEntity
  8
躯体と製品
  6
DASHED1
 62
     7
100
AcDbCircle
 10
1851.374551637777
 20
805.6115975171069
 30
0.0
 40
1.5
100
AcDbArc
 50
86.99999999999441
 51
266.9999999999944
  0
LINE
  5
6E76
330
1E
100
AcDbEntity
  8
躯体と製品
  6
DASHED1
 62
     7
100
AcDbLine
 10
1851.296047703413
 20
804.1136532149748
 30
0.0
 11
1854.791251075054
 21
803.9304773681246
 31
0.0
  0
LINE
  5
6E77
330
1E
100
AcDbEntity
  8
躯体と製品
  6
DASHED1
 62
     7
100
AcDbLine
 10
1854.843587031297
 20
804.9291069028793
 30
0.0
 11
1854.791251075054
 21
803.9304773681246
 31
0.0
  0
LINE
  5
6E78
330
1E
100
AcDbEntity
  8
躯体と製品
  6
DASHED1
 62
     7
100
AcDbLine
 10
1854.843587031297
 20
804.9291069028793
 30
0.0
 11
1874.816177726388
 21
803.8823877780204
 31
0.0
  0
LINE
  5
6E79
330
1E
100
AcDbEntity
  8
躯体と製品
  6
DASHED1
 62
     7
100
AcDbLine
 10
1874.816177726388
 20
803.8823877780204
 30
0.0
 11
1874.763841770145
 21
802.8837582432659
 31
0.0
  0
LINE
  5
6E7A
330
1E
100
AcDbEntity
  8
躯体と製品
  6
DASHED1
 62
     7
100
AcDbLine
 10
1874.763841770145
 20
802.8837582432659
 30
0.0
 11
1879.756989443918
 21
802.6220784620511
 31
0.0
  0
LINE
  5
6E7B
330
1E
100
AcDbEntity
  8
躯体と製品
  6
Continuous
 62
     4
100
AcDbLine
 10
1866.652081927398
 20
828.8438723856488
 30
0.0
 11
1866.137593441324
 21
829.3583608717218
 31
0.0
  0
LINE
  5
6E7C
330
1E
100
AcDbEntity
  8
躯体と製品
  6
DASHED1
 62
     4
100
AcDbLine
 10
1844.988131574358
 20
807.9490403021949
 30
0.0
 11
1845.082336295596
 21
809.7465734647533
 31
0.0
  0
LINE
  5
6E7D
330
1E
100
AcDbEntity
  8
躯体と製品
  6
DASHED1
 62
     4
100
AcDbLine
 10
1775.084064141538
 20
811.6125572392011
 30
0.0
 11
1775.178268862775
 21
813.4100904017593
 31
0.0
  0
LINE
  5
6E7E
330
1E
100
AcDbEntity
  8
躯体と製品
  6
Continuous
 62
     3
100
AcDbLine
 10
1881.091556328113
 20
828.0871315982926
 30
0.0
 11
1741.283421462473
 21
835.4141654723051
 31
0.0
  0
LINE
  5
6E7F
330
1E
100
AcDbEntity
  8
躯体と製品
  6
Continuous
 62
     3
100
AcDbLine
 10
1879.626149553311
 20
800.1255046251646
 30
0.0
 11
1739.81801468767
 21
807.4525384991769
 31
0.0
  0
LINE
  5
6E80
330
1E
100
AcDbEntity
  8
躯体と製品
  6
Continuous
 62
     3
100
AcDbLine
 10
1880.85604452502
 20
823.5932986918975
 30
0.0
 11
1741.04790965938
 21
830.9203325659094
 31
0.0
  0
LINE
  5
6E81
330
1E
100
AcDbEntity
  8
躯体と製品
  6
Continuous
 62
     3
100
AcDbLine
 10
1880.777540590656
 20
822.0953543897653
 30
0.0
 11
1740.969405725015
 21
829.4223882637774
 31
0.0
  0
LINE
  5
6E82
330
1E
100
AcDbEntity
  8
躯体と製品
  6
DASHED1
 62
     4
100
AcDbLine
 10
1880.034370012006
 20
807.9148149962502
 30
0.0
 11
1740.226235146365
 21
815.2418488702625
 31
0.0
  0
LINE
  5
6E83
330
1E
100
AcDbEntity
  8
躯体と製品
  6
DASHED1
 62
     4
100
AcDbLine
 10
1879.940165290768
 20
806.117281833692
 30
0.0
 11
1740.132030425128
 21
813.4443157077043
 31
0.0
  0
LINE
  5
6E84
330
1E
100
AcDbEntity
  8
躯体と製品
  6
DASHED1
 62
     4
100
AcDbLine
 10
1879.756989443918
 20
802.6220784620511
 30
0.0
 11
1739.948854578278
 21
809.9491123360632
 31
0.0
  0
LINE
  5
6E85
330
1E
100
AcDbEntity
  8
躯体と製品
  6
DASHED1
 62
     4
100
AcDbLine
 10
1879.678485509554
 20
801.1241341599193
 30
0.0
 11
1739.870350643913
 21
808.4511680339314
 31
0.0
  0
LINE
  5
6E86
330
1E
100
AcDbEntity
  8
躯体と製品
  6
DASHED1
 62
     4
100
AcDbLine
 10
1866.03360937243
 20
827.374226639805
 30
0.0
 11
1756.184360549427
 21
833.1311818265289
 31
0.0
  0
ARC
  5
6E87
330
1E
100
AcDbEntity
  8
躯体と製品
  6
Continuous
 62
     7
100
AcDbCircle
 10
1759.145385942869
 20
780.902641112576
 30
0.0
 40
1.0
100
AcDbArc
 50
91.63657704161829
 51
175.0000000000005
  0
LINE
  5
6E88
330
1E
100
AcDbEntity
  8
躯体と製品
  6
DASHED1
 62
     7
100
AcDbLine
 10
1806.120937564706
 20
801.982755495652
 30
0.0
 11
1805.932528122232
 21
798.3876891705356
 31
0.0
  0
LINE
  5
6E89
330
1E
100
AcDbEntity
  8
躯体と製品
  6
DASHED1
 62
     7
100
AcDbLine
 10
1812.112714773234
 20
801.6687397581943
 30
0.0
 11
1811.924305330759
 21
798.0736734330782
 31
0.0
  0
LINE
  5
6E8A
330
1E
100
AcDbEntity
  8
躯体と製品
  6
Continuous
 62
     4
100
AcDbLine
 10
1823.11682616897
 20
792.4022331990366
 30
0.0
 11
1823.11682616897
 21
790.8022331990366
 31
0.0
  0
LINE
  5
6E8B
330
1E
100
AcDbEntity
  8
躯体と製品
  6
Continuous
 62
     4
100
AcDbLine
 10
1795.11682616897
 20
792.4022331990366
 30
0.0
 11
1795.11682616897
 21
790.8022331990366
 31
0.0
  0
LINE
  5
6E8C
330
1E
100
AcDbEntity
  8
躯体と製品
  6
Continuous
 62
     3
100
AcDbLine
 10
1818.12673167708
 20
801.3535584876933
 30
0.0
 11
1800.32673167708
 21
802.2864169589313
 31
0.0
  0
LINE
  5
6E8D
330
1E
100
AcDbEntity
  8
躯体と製品
  6
Continuous
 62
     3
100
AcDbLine
 10
1818.042994147091
 20
799.7557512320859
 30
0.0
 11
1800.242994147091
 21
800.6886097033239
 31
0.0
  0
ARC
  5
6E8E
330
1E
100
AcDbEntity
  8
躯体と製品
  6
Continuous
 62
     3
100
AcDbCircle
 10
1814.573078077364
 20
798.936229481601
 30
0.0
 40
1.0
100
AcDbArc
 50
86.99999999999441
 51
177.0000000000011
  0
LINE
  5
6E8F
330
1E
100
AcDbEntity
  8
躯体と製品
  6
Continuous
 62
     3
100
AcDbLine
 10
1813.574448542609
 20
798.9885654378438
 30
0.0
 11
1813.522112586366
 21
797.9899359030894
 31
0.0
  0
ARC
  5
6E90
330
1E
100
AcDbEntity
  8
躯体と製品
  6
Continuous
 62
     3
100
AcDbCircle
 10
1803.388427288112
 20
799.5223921915218
 30
0.0
 40
1.0
100
AcDbArc
 50
357.0000000000011
 51
86.99999999999441
  0
LINE
  5
6E91
330
1E
100
AcDbEntity
  8
躯体と製品
  6
Continuous
 62
     3
100
AcDbLine
 10
1804.387056822867
 20
799.4700562352789
 30
0.0
 11
1804.334720866624
 21
798.4714267005244
 31
0.0
  0
LINE
  5
6E92
330
1E
100
AcDbEntity
  8
躯体と製品
  6
Continuous
 62
     3
100
AcDbLine
 10
1813.522112586366
 20
797.9899359030894
 30
0.0
 11
1804.334720866624
 21
798.4714267005244
 31
0.0
  0
ARC
  5
6E93
330
1E
100
AcDbEntity
  8
躯体と製品
  6
Continuous
 62
     3
100
AcDbCircle
 10
1818.016826168969
 20
799.2564364647087
 30
0.0
 40
2.1
100
AcDbArc
 50
0.0
 51
86.99999999999441
  0
LINE
  5
6E94
330
1E
100
AcDbEntity
  8
躯体と製品
  6
Continuous
 62
     3
100
AcDbLine
 10
1820.11682616897
 20
799.2564364647087
 30
0.0
 11
1820.11682616897
 21
792.9022331990367
 31
0.0
  0
ARC
  5
6E95
330
1E
100
AcDbEntity
  8
躯体と製品
  6
Continuous
 62
     3
100
AcDbCircle
 10
1800.21682616897
 20
800.1892949359465
 30
0.0
 40
2.1
100
AcDbArc
 50
86.99999999999441
 51
180.0
  0
ARC
  5
6E96
330
1E
100
AcDbEntity
  8
躯体と製品
  6
Continuous
 62
     3
100
AcDbCircle
 10
1818.016826168969
 20
799.2564364647087
 30
0.0
 40
0.5
100
AcDbArc
 50
0.0
 51
86.99999999999441
  0
LINE
  5
6E97
330
1E
100
AcDbEntity
  8
躯体と製品
  6
Continuous
 62
     3
100
AcDbLine
 10
1818.51682616897
 20
799.2564364647087
 30
0.0
 11
1818.51682616897
 21
792.9022331990367
 31
0.0
  0
ARC
  5
6E98
330
1E
100
AcDbEntity
  8
躯体と製品
  6
Continuous
 62
     3
100
AcDbCircle
 10
1800.21682616897
 20
800.1892949359465
 30
0.0
 40
0.5
100
AcDbArc
 50
86.99999999999441
 51
180.0
  0
LINE
  5
6E99
330
1E
100
AcDbEntity
  8
躯体と製品
  6
Continuous
 62
     3
100
AcDbLine
 10
1799.716826168969
 20
800.1892949359465
 30
0.0
 11
1799.716826168969
 21
792.9022331990367
 31
0.0
  0
ARC
  5
6E9A
330
1E
100
AcDbEntity
  8
躯体と製品
  6
Continuous
 62
     3
100
AcDbCircle
 10
1820.61682616897
 20
792.9022331990367
 30
0.0
 40
0.5
100
AcDbArc
 50
180.0
 51
270.0
  0
ARC
  5
6E9B
330
1E
100
AcDbEntity
  8
躯体と製品
  6
Continuous
 62
     3
100
AcDbCircle
 10
1820.61682616897
 20
792.9022331990367
 30
0.0
 40
2.1
100
AcDbArc
 50
180.0
 51
270.0
  0
LINE
  5
6E9C
330
1E
100
AcDbEntity
  8
躯体と製品
  6
Continuous
 62
     3
100
AcDbLine
 10
1825.11682616897
 20
792.4022331990366
 30
0.0
 11
1825.11682616897
 21
790.8022331990366
 31
0.0
  0
LINE
  5
6E9D
330
1E
100
AcDbEntity
  8
躯体と製品
  6
Continuous
 62
     3
100
AcDbLine
 10
1820.61682616897
 20
792.4022331990366
 30
0.0
 11
1825.11682616897
 21
792.4022331990366
 31
0.0
  0
LINE
  5
6E9E
330
1E
100
AcDbEntity
  8
躯体と製品
  6
Continuous
 62
     3
100
AcDbLine
 10
1825.11682616897
 20
790.8022331990366
 30
0.0
 11
1820.61682616897
 21
790.8022331990366
 31
0.0
  0
ARC
  5
6E9F
330
1E
100
AcDbEntity
  8
躯体と製品
  6
Continuous
 62
     3
100
AcDbCircle
 10
1797.61682616897
 20
792.9022331990367
 30
0.0
 40
0.5
100
AcDbArc
 50
270.0
 51
0.0
  0
ARC
  5
6EA0
330
1E
100
AcDbEntity
  8
躯体と製品
  6
Continuous
 62
     3
100
AcDbCircle
 10
1797.61682616897
 20
792.9022331990367
 30
0.0
 40
2.1
100
AcDbArc
 50
270.0
 51
0.0
  0
LINE
  5
6EA1
330
1E
100
AcDbEntity
  8
躯体と製品
  6
Continuous
 62
     3
100
AcDbLine
 10
1793.11682616897
 20
792.4022331990366
 30
0.0
 11
1797.61682616897
 21
792.4022331990366
 31
0.0
  0
LINE
  5
6EA2
330
1E
100
AcDbEntity
  8
躯体と製品
  6
Continuous
 62
     3
100
AcDbLine
 10
1793.11682616897
 20
790.8022331990366
 30
0.0
 11
1793.11682616897
 21
792.4022331990366
 31
0.0
  0
LINE
  5
6EA3
330
1E
100
AcDbEntity
  8
躯体と製品
  6
Continuous
 62
     3
100
AcDbLine
 10
1793.11682616897
 20
790.8022331990366
 30
0.0
 11
1797.61682616897
 21
790.8022331990366
 31
0.0
  0
LINE
  5
6EA4
330
1E
100
AcDbEntity
  8
躯体と製品
  6
Continuous
 62
     3
100
AcDbLine
 10
1798.11682616897
 20
800.1892949359465
 30
0.0
 11
1798.11682616897
 21
792.9022331990367
 31
0.0
  0
LINE
  5
6EA5
330
1E
100
AcDbEntity
  8
躯体と製品
  6
Continuous
 62
     4
100
AcDbLine
 10
1823.960511067847
 20
781.9022331990372
 30
0.0
 11
1824.116826168969
 21
782.0585483001593
 31
0.0
  0
LINE
  5
6EA6
330
1E
100
AcDbEntity
  8
躯体と製品
  6
Continuous
 62
     4
100
AcDbLine
 10
1822.546297505475
 20
781.9022331990364
 30
0.0
 11
1823.546297505475
 21
782.9022331990366
 31
0.0
  0
LINE
  5
6EA7
330
1E
100
AcDbEntity
  8
躯体と製品
  6
Continuous
 62
     4
100
AcDbLine
 10
1821.132083943101
 20
781.9022331990366
 30
0.0
 11
1822.132083943102
 21
782.9022331990369
 31
0.0
  0
LINE
  5
6EA8
330
1E
100
AcDbEntity
  8
躯体と製品
  6
Continuous
 62
     4
100
AcDbLine
 10
1819.717870380728
 20
781.9022331990367
 30
0.0
 11
1820.717870380729
 21
782.9022331990369
 31
0.0
  0
LINE
  5
6EA9
330
1E
100
AcDbEntity
  8
躯体と製品
  6
Continuous
 62
     4
100
AcDbLine
 10
1818.303656818355
 20
781.9022331990367
 30
0.0
 11
1819.303656818355
 21
782.9022331990369
 31
0.0
  0
LINE
  5
6EAA
330
1E
100
AcDbEntity
  8
躯体と製品
  6
Continuous
 62
     4
100
AcDbLine
 10
1816.889443255982
 20
781.9022331990368
 30
0.0
 11
1817.889443255981
 21
782.9022331990366
 31
0.0
  0
LINE
  5
6EAB
330
1E
100
AcDbEntity
  8
躯体と製品
  6
Continuous
 62
     4
100
AcDbLine
 10
1815.475229693609
 20
781.9022331990368
 30
0.0
 11
1816.475229693608
 21
782.9022331990366
 31
0.0
  0
LINE
  5
6EAC
330
1E
100
AcDbEntity
  8
躯体と製品
  6
Continuous
 62
     4
100
AcDbLine
 10
1814.061016131235
 20
781.902233199037
 30
0.0
 11
1815.061016131235
 21
782.9022331990369
 31
0.0
  0
LINE
  5
6EAD
330
1E
100
AcDbEntity
  8
躯体と製品
  6
Continuous
 62
     4
100
AcDbLine
 10
1812.646802568862
 20
781.9022331990368
 30
0.0
 11
1813.646802568862
 21
782.9022331990366
 31
0.0
  0
LINE
  5
6EAE
330
1E
100
AcDbEntity
  8
躯体と製品
  6
Continuous
 62
     4
100
AcDbLine
 10
1811.232589006491
 20
781.902233199037
 30
0.0
 11
1812.232589006491
 21
782.9022331990374
 31
0.0
  0
LINE
  5
6EAF
330
1E
100
AcDbEntity
  8
躯体と製品
  6
Continuous
 62
     4
100
AcDbLine
 10
1809.818375444118
 20
781.9022331990372
 30
0.0
 11
1810.818375444118
 21
782.9022331990374
 31
0.0
  0
LINE
  5
6EB0
330
1E
100
AcDbEntity
  8
躯体と製品
  6
Continuous
 62
     4
100
AcDbLine
 10
1808.404161881744
 20
781.902233199037
 30
0.0
 11
1809.404161881744
 21
782.9022331990369
 31
0.0
  0
LINE
  5
6EB1
330
1E
100
AcDbEntity
  8
躯体と製品
  6
Continuous
 62
     4
100
AcDbLine
 10
1806.989948319371
 20
781.9022331990372
 30
0.0
 11
1807.98994831937
 21
782.9022331990369
 31
0.0
  0
LINE
  5
6EB2
330
1E
100
AcDbEntity
  8
躯体と製品
  6
Continuous
 62
     4
100
AcDbLine
 10
1805.575734756997
 20
781.9022331990374
 30
0.0
 11
1806.575734756997
 21
782.9022331990369
 31
0.0
  0
LINE
  5
6EB3
330
1E
100
AcDbEntity
  8
躯体と製品
  6
Continuous
 62
     4
100
AcDbLine
 10
1804.161521194624
 20
781.9022331990374
 30
0.0
 11
1805.161521194624
 21
782.9022331990373
 31
0.0
  0
LINE
  5
6EB4
330
1E
100
AcDbEntity
  8
躯体と製品
  6
Continuous
 62
     4
100
AcDbLine
 10
1802.747307632251
 20
781.9022331990375
 30
0.0
 11
1803.747307632251
 21
782.9022331990374
 31
0.0
  0
LINE
  5
6EB5
330
1E
100
AcDbEntity
  8
躯体と製品
  6
Continuous
 62
     4
100
AcDbLine
 10
1801.333094069877
 20
781.9022331990368
 30
0.0
 11
1802.333094069877
 21
782.9022331990373
 31
0.0
  0
LINE
  5
6EB6
330
1E
100
AcDbEntity
  8
躯体と製品
  6
Continuous
 62
     4
100
AcDbLine
 10
1799.918880507505
 20
781.9022331990367
 30
0.0
 11
1800.918880507506
 21
782.9022331990369
 31
0.0
  0
LINE
  5
6EB7
330
1E
100
AcDbEntity
  8
躯体と製品
  6
Continuous
 62
     4
100
AcDbLine
 10
1798.504666945132
 20
781.9022331990368
 30
0.0
 11
1799.504666945132
 21
782.902233199037
 31
0.0
  0
LINE
  5
6EB8
330
1E
100
AcDbEntity
  8
躯体と製品
  6
Continuous
 62
     4
100
AcDbLine
 10
1797.090453382758
 20
781.9022331990364
 30
0.0
 11
1798.090453382759
 21
782.9022331990366
 31
0.0
  0
LINE
  5
6EB9
330
1E
100
AcDbEntity
  8
躯体と製品
  6
Continuous
 62
     4
100
AcDbLine
 10
1795.676239820386
 20
781.9022331990366
 30
0.0
 11
1796.676239820385
 21
782.9022331990365
 31
0.0
  0
LINE
  5
6EBA
330
1E
100
AcDbEntity
  8
躯体と製品
  6
Continuous
 62
     4
100
AcDbLine
 10
1794.262026258012
 20
781.9022331990367
 30
0.0
 11
1795.262026258012
 21
782.9022331990365
 31
0.0
  0
LINE
  5
6EBB
330
1E
100
AcDbEntity
  8
躯体と製品
  6
DASHED1
 62
     7
100
AcDbLine
 10
1805.066826168969
 20
783.9022331990366
 30
0.0
 11
1805.066826168969
 21
774.6022331990368
 31
0.0
  0
LINE
  5
6EBC
330
1E
100
AcDbEntity
  8
躯体と製品
  6
DASHED1
 62
     7
100
AcDbLine
 10
1813.16682616897
 20
783.9022331990366
 30
0.0
 11
1813.16682616897
 21
774.6022331990368
 31
0.0
  0
LINE
  5
6EBD
330
1E
100
AcDbEntity
  8
躯体と製品
  6
DASHED1
 62
     7
100
AcDbLine
 10
1804.36682616897
 20
773.9022331990367
 30
0.0
 11
1805.066826168969
 21
774.6022331990368
 31
0.0
  0
LINE
  5
6EBE
330
1E
100
AcDbEntity
  8
躯体と製品
  6
DASHED1
 62
     7
100
AcDbLine
 10
1804.36682616897
 20
755.2740591990368
 30
0.0
 11
1804.36682616897
 21
773.9022331990367
 31
0.0
  0
LINE
  5
6EBF
330
1E
100
AcDbEntity
  8
躯体と製品
  6
DASHED1
 62
     7
100
AcDbLine
 10
1804.61682616897
 20
743.4022331990365
 30
0.0
 11
1804.61682616897
 21
744.2655371990365
 31
0.0
  0
LINE
  5
6EC0
330
1E
100
AcDbEntity
  8
躯体と製品
  6
DASHED1
 62
     7
100
AcDbLine
 10
1802.49179616897
 20
744.6402371990367
 30
0.0
 11
1804.36682616897
 21
755.2740591990368
 31
0.0
  0
LINE
  5
6EC1
330
1E
100
AcDbEntity
  8
躯体と製品
  6
DASHED1
 62
     7
100
AcDbLine
 10
1808.61682616897
 20
754.9022331990368
 30
0.0
 11
1809.61682616897
 21
754.9022331990368
 31
0.0
  0
LINE
  5
6EC2
330
1E
100
AcDbEntity
  8
躯体と製品
  6
DASHED1
 62
     7
100
AcDbLine
 10
1813.86682616897
 20
773.9022331990367
 30
0.0
 11
1813.16682616897
 21
774.6022331990368
 31
0.0
  0
LINE
  5
6EC3
330
1E
100
AcDbEntity
  8
躯体と製品
  6
DASHED1
 62
     7
100
AcDbLine
 10
1813.86682616897
 20
755.2740591990368
 30
0.0
 11
1813.86682616897
 21
773.9022331990367
 31
0.0
  0
LINE
  5
6EC4
330
1E
100
AcDbEntity
  8
躯体と製品
  6
DASHED1
 62
     7
100
AcDbLine
 10
1812.61682616897
 20
742.4022331990368
 30
0.0
 11
1805.61682616897
 21
742.4022331990368
 31
0.0
  0
ARC
  5
6EC5
330
1E
100
AcDbEntity
  8
躯体と製品
  6
DASHED1
 62
     7
100
AcDbCircle
 10
1812.61682616897
 20
743.4022331990365
 30
0.0
 40
1.0
100
AcDbArc
 50
270.0
 51
0.0
  0
LINE
  5
6EC6
330
1E
100
AcDbEntity
  8
躯体と製品
  6
DASHED1
 62
     7
100
AcDbLine
 10
1813.61682616897
 20
743.4022331990365
 30
0.0
 11
1813.61682616897
 21
744.2655371990365
 31
0.0
  0
LINE
  5
6EC7
330
1E
100
AcDbEntity
  8
躯体と製品
  6
DASHED1
 62
     7
100
AcDbLine
 10
1815.74185616897
 20
744.6402371990367
 30
0.0
 11
1811.55642316897
 21
743.9022331990365
 31
0.0
  0
LINE
  5
6EC8
330
1E
100
AcDbEntity
  8
躯体と製品
  6
DASHED1
 62
     7
100
AcDbLine
 10
1808.61682616897
 20
754.9022331990368
 30
0.0
 11
1806.67722916897
 21
743.9022331990365
 31
0.0
  0
LINE
  5
6EC9
330
1E
100
AcDbEntity
  8
躯体と製品
  6
DASHED1
 62
     7
100
AcDbLine
 10
1809.61682616897
 20
754.9022331990368
 30
0.0
 11
1811.55642316897
 21
743.9022331990365
 31
0.0
  0
LINE
  5
6ECA
330
1E
100
AcDbEntity
  8
躯体と製品
  6
DASHED1
 62
     7
100
AcDbLine
 10
1815.74185616897
 20
744.6402371990367
 30
0.0
 11
1813.86682616897
 21
755.2740591990368
 31
0.0
  0
LINE
  5
6ECB
330
1E
100
AcDbEntity
  8
躯体と製品
  6
DASHED1
 62
     7
100
AcDbLine
 10
1804.36682616897
 20
773.9022331990367
 30
0.0
 11
1813.86682616897
 21
773.9022331990367
 31
0.0
  0
LINE
  5
6ECC
330
1E
100
AcDbEntity
  8
躯体と製品
  6
DASHED1
 62
     7
100
AcDbLine
 10
1805.066826168969
 20
774.6022331990368
 30
0.0
 11
1813.16682616897
 21
774.6022331990368
 31
0.0
  0
LINE
  5
6ECD
330
1E
100
AcDbEntity
  8
躯体と製品
  6
DASHED1
 62
     7
100
AcDbLine
 10
1802.49179616897
 20
744.6402371990367
 30
0.0
 11
1806.67722916897
 21
743.9022331990365
 31
0.0
  0
ARC
  5
6ECE
330
1E
100
AcDbEntity
  8
躯体と製品
  6
DASHED1
 62
     7
100
AcDbCircle
 10
1805.61682616897
 20
743.4022331990365
 30
0.0
 40
1.0
100
AcDbArc
 50
180.0
 51
270.0
  0
LINE
  5
6ECF
330
1E
100
AcDbEntity
  8
躯体と製品
  6
Continuous
 62
     3
100
AcDbLine
 10
1834.489396450398
 20
791.8757571535932
 30
0.0
 11
1834.808152149237
 21
790.8041253117474
 31
0.0
  0
LINE
  5
6ED0
330
1E
100
AcDbEntity
  8
躯体と製品
  6
Continuous
 62
     3
100
AcDbLine
 10
1834.315748272731
 20
790.8909494005809
 30
0.0
 11
1834.63450397157
 21
789.8193175587352
 31
0.0
  0
LINE
  5
6ED1
330
1E
100
AcDbEntity
  8
躯体と製品
  6
Continuous
 62
     3
100
AcDbLine
 10
1809.11682616897
 20
785.9022331990367
 30
0.0
 11
1808.61682616897
 21
786.4022331990367
 31
0.0
  0
LINE
  5
6ED2
330
1E
100
AcDbEntity
  8
躯体と製品
  6
Continuous
 62
     3
100
AcDbLine
 10
1825.31682616897
 20
792.4022331990366
 30
0.0
 11
1822.36682616897
 21
792.4022331990366
 31
0.0
  0
ARC
  5
6ED3
330
1E
100
AcDbEntity
  8
躯体と製品
  6
Continuous
 62
     3
100
AcDbCircle
 10
1825.31682616897
 20
792.1022331990367
 30
0.0
 40
0.2999999999999998
100
AcDbArc
 50
0.0
 51
90.0
  0
LINE
  5
6ED4
330
1E
100
AcDbEntity
  8
躯体と製品
  6
Continuous
 62
     3
100
AcDbLine
 10
1825.61682616897
 20
792.1022331990367
 30
0.0
 11
1825.61682616897
 21
790.2022331990367
 31
0.0
  0
ARC
  5
6ED5
330
1E
100
AcDbEntity
  8
躯体と製品
  6
Continuous
 62
     3
100
AcDbCircle
 10
1825.31682616897
 20
790.2022331990367
 30
0.0
 40
0.2999999999999998
100
AcDbArc
 50
270.0
 51
0.0
  0
LINE
  5
6ED6
330
1E
100
AcDbEntity
  8
躯体と製品
  6
Continuous
 62
     3
100
AcDbLine
 10
1825.31682616897
 20
789.9022331990366
 30
0.0
 11
1823.36682616897
 21
789.9022331990366
 31
0.0
  0
LINE
  5
6ED7
330
1E
100
AcDbEntity
  8
躯体と製品
  6
Continuous
 62
     3
100
AcDbLine
 10
1825.61682616897
 20
788.1022331990367
 30
0.0
 11
1825.61682616897
 21
786.7022331990368
 31
0.0
  0
ARC
  5
6ED8
330
1E
100
AcDbEntity
  8
躯体と製品
  6
Continuous
 62
     3
100
AcDbCircle
 10
1825.31682616897
 20
788.1022331990367
 30
0.0
 40
0.2999999999999998
100
AcDbArc
 50
0.0
 51
90.0
  0
LINE
  5
6ED9
330
1E
100
AcDbEntity
  8
躯体と製品
  6
Continuous
 62
     3
100
AcDbLine
 10
1825.31682616897
 20
788.4022331990366
 30
0.0
 11
1823.36682616897
 21
788.4022331990366
 31
0.0
  0
ARC
  5
6EDA
330
1E
100
AcDbEntity
  8
躯体と製品
  6
Continuous
 62
     3
100
AcDbCircle
 10
1823.36682616897
 20
789.1522331990366
 30
0.0
 40
0.75
100
AcDbArc
 50
90.0
 51
270.0
  0
ARC
  5
6EDB
330
1E
100
AcDbEntity
  8
躯体と製品
  6
Continuous
 62
     3
100
AcDbCircle
 10
1822.36682616897
 20
793.1522331990366
 30
0.0
 40
0.75
100
AcDbArc
 50
90.0
 51
270.0
  0
LINE
  5
6EDC
330
1E
100
AcDbEntity
  8
躯体と製品
  6
Continuous
 62
     3
100
AcDbLine
 10
1825.61682616897
 20
794.4022331990367
 30
0.0
 11
1825.61682616897
 21
801.9022331990365
 31
0.0
  0
ARC
  5
6EDD
330
1E
100
AcDbEntity
  8
躯体と製品
  6
Continuous
 62
     3
100
AcDbCircle
 10
1825.11682616897
 20
794.4022331990367
 30
0.0
 40
0.5
100
AcDbArc
 50
270.0
 51
0.0
  0
LINE
  5
6EDE
330
1E
100
AcDbEntity
  8
躯体と製品
  6
Continuous
 62
     3
100
AcDbLine
 10
1825.11682616897
 20
793.9022331990366
 30
0.0
 11
1822.36682616897
 21
793.9022331990366
 31
0.0
  0
ARC
  5
6EDF
330
1E
100
AcDbEntity
  8
躯体と製品
  6
Continuous
 62
     3
100
AcDbCircle
 10
1825.31682616897
 20
786.7022331990368
 30
0.0
 40
0.2999999999999998
100
AcDbArc
 50
270.0
 51
0.0
  0
ARC
  5
6EE0
330
1E
100
AcDbEntity
  8
躯体と製品
  6
Continuous
 62
     3
100
AcDbCircle
 10
1828.11682616897
 20
786.9022331990366
 30
0.0
 40
0.5
100
AcDbArc
 50
180.0
 51
270.0
  0
LINE
  5
6EE1
330
1E
100
AcDbEntity
  8
躯体と製品
  6
Continuous
 62
     3
100
AcDbLine
 10
1827.61682616897
 20
786.9022331990366
 30
0.0
 11
1827.61682616897
 21
801.9022331990365
 31
0.0
  0
LINE
  5
6EE2
330
1E
100
AcDbEntity
  8
躯体と製品
  6
Continuous
 62
     3
100
AcDbLine
 10
1827.61682616897
 20
784.9022331990367
 30
0.0
 11
1838.11682616897
 21
784.9022331990367
 31
0.0
  0
LINE
  5
6EE3
330
1E
100
AcDbEntity
  8
躯体と製品
  6
Continuous
 62
     3
100
AcDbLine
 10
1827.61682616897
 20
783.9022331990366
 30
0.0
 11
1827.61682616897
 21
784.9022331990367
 31
0.0
  0
LINE
  5
6EE4
330
1E
100
AcDbEntity
  8
躯体と製品
  6
Continuous
 62
     3
100
AcDbLine
 10
1809.11682616897
 20
785.9022331990367
 30
0.0
 11
1809.61682616897
 21
786.4022331990367
 31
0.0
  0
LINE
  5
6EE5
330
1E
100
AcDbEntity
  8
躯体と製品
  6
Continuous
 62
     3
100
AcDbLine
 10
1838.11682616897
 20
783.9022331990366
 30
0.0
 11
1839.61682616897
 21
783.9022331990366
 31
0.0
  0
LINE
  5
6EE6
330
1E
100
AcDbEntity
  8
躯体と製品
  6
Continuous
 62
     3
100
AcDbLine
 10
1838.11682616897
 20
784.9022331990367
 30
0.0
 11
1838.11682616897
 21
783.9022331990366
 31
0.0
  0
ARC
  5
6EE7
330
1E
100
AcDbEntity
  8
躯体と製品
  6
Continuous
 62
     3
100
AcDbCircle
 10
1826.61682616897
 20
801.9022331990365
 30
0.0
 40
1.0
100
AcDbArc
 50
0.0
 51
180.0
  0
LINE
  5
6EE8
330
1E
100
AcDbEntity
  8
躯体と製品
  6
Continuous
 62
     3
100
AcDbLine
 10
1825.61682616897
 20
783.9022331990366
 30
0.0
 11
1827.61682616897
 21
783.9022331990366
 31
0.0
  0
LINE
  5
6EE9
330
1E
100
AcDbEntity
  8
躯体と製品
  6
Continuous
 62
     3
100
AcDbLine
 10
1825.61682616897
 20
784.4022331990367
 30
0.0
 11
1825.61682616897
 21
783.9022331990366
 31
0.0
  0
LINE
  5
6EEA
330
1E
100
AcDbEntity
  8
躯体と製品
  6
Continuous
 62
     3
100
AcDbLine
 10
1814.11682616897
 20
784.4022331990367
 30
0.0
 11
1825.61682616897
 21
784.4022331990367
 31
0.0
  0
LINE
  5
6EEB
330
1E
100
AcDbEntity
  8
躯体と製品
  6
Continuous
 62
     3
100
AcDbLine
 10
1814.11682616897
 20
783.9022331990366
 30
0.0
 11
1814.11682616897
 21
784.4022331990367
 31
0.0
  0
LINE
  5
6EEC
330
1E
100
AcDbEntity
  8
躯体と製品
  6
Continuous
 62
     3
100
AcDbLine
 10
1792.91682616897
 20
786.4022331990367
 30
0.0
 11
1808.61682616897
 21
786.4022331990367
 31
0.0
  0
LINE
  5
6EED
330
1E
100
AcDbEntity
  8
躯体と製品
  6
Continuous
 62
     3
100
AcDbLine
 10
1809.61682616897
 20
786.4022331990367
 30
0.0
 11
1825.31682616897
 21
786.4022331990367
 31
0.0
  0
LINE
  5
6EEE
330
1E
100
AcDbEntity
  8
躯体と製品
  6
Continuous
 62
     3
100
AcDbLine
 10
1804.11682616897
 20
783.9022331990366
 30
0.0
 11
1814.11682616897
 21
783.9022331990366
 31
0.0
  0
LINE
  5
6EEF
330
1E
100
AcDbEntity
  8
躯体と製品
  6
Continuous
 62
     3
100
AcDbLine
 10
1791.11682616897
 20
793.4022331990365
 30
0.0
 11
1791.11682616897
 21
783.9022331990366
 31
0.0
  0
ARC
  5
6EF0
330
1E
100
AcDbEntity
  8
躯体と製品
  6
Continuous
 62
     3
100
AcDbCircle
 10
1791.61682616897
 20
793.4022331990365
 30
0.0
 40
0.5
100
AcDbArc
 50
90.0
 51
180.0
  0
LINE
  5
6EF1
330
1E
100
AcDbEntity
  8
躯体と製品
  6
Continuous
 62
     3
100
AcDbLine
 10
1791.61682616897
 20
793.9022331990366
 30
0.0
 11
1795.86682616897
 21
793.9022331990366
 31
0.0
  0
LINE
  5
6EF2
330
1E
100
AcDbEntity
  8
躯体と製品
  6
Continuous
 62
     3
100
AcDbLine
 10
1792.61682616897
 20
786.7022331990368
 30
0.0
 11
1792.61682616897
 21
788.1022331990367
 31
0.0
  0
ARC
  5
6EF3
330
1E
100
AcDbEntity
  8
躯体と製品
  6
Continuous
 62
     3
100
AcDbCircle
 10
1792.91682616897
 20
786.7022331990368
 30
0.0
 40
0.2999999999999998
100
AcDbArc
 50
180.0
 51
270.0
  0
LINE
  5
6EF4
330
1E
100
AcDbEntity
  8
躯体と製品
  6
Continuous
 62
     3
100
AcDbLine
 10
1792.91682616897
 20
788.4022331990366
 30
0.0
 11
1794.86682616897
 21
788.4022331990366
 31
0.0
  0
ARC
  5
6EF5
330
1E
100
AcDbEntity
  8
躯体と製品
  6
Continuous
 62
     3
100
AcDbCircle
 10
1792.91682616897
 20
788.1022331990367
 30
0.0
 40
0.2999999999999998
100
AcDbArc
 50
90.0
 51
180.0
  0
LINE
  5
6EF6
330
1E
100
AcDbEntity
  8
躯体と製品
  6
Continuous
 62
     3
100
AcDbLine
 10
1792.61682616897
 20
790.2022331990367
 30
0.0
 11
1792.61682616897
 21
792.1022331990367
 31
0.0
  0
ARC
  5
6EF7
330
1E
100
AcDbEntity
  8
躯体と製品
  6
Continuous
 62
     3
100
AcDbCircle
 10
1792.91682616897
 20
790.2022331990367
 30
0.0
 40
0.2999999999999998
100
AcDbArc
 50
180.0
 51
270.0
  0
LINE
  5
6EF8
330
1E
100
AcDbEntity
  8
躯体と製品
  6
Continuous
 62
     3
100
AcDbLine
 10
1792.91682616897
 20
789.9022331990366
 30
0.0
 11
1794.86682616897
 21
789.9022331990366
 31
0.0
  0
LINE
  5
6EF9
330
1E
100
AcDbEntity
  8
躯体と製品
  6
Continuous
 62
     3
100
AcDbLine
 10
1792.91682616897
 20
792.4022331990366
 30
0.0
 11
1795.86682616897
 21
792.4022331990366
 31
0.0
  0
ARC
  5
6EFA
330
1E
100
AcDbEntity
  8
躯体と製品
  6
Continuous
 62
     3
100
AcDbCircle
 10
1792.91682616897
 20
792.1022331990367
 30
0.0
 40
0.2999999999999998
100
AcDbArc
 50
90.0
 51
180.0
  0
ARC
  5
6EFB
330
1E
100
AcDbEntity
  8
躯体と製品
  6
Continuous
 62
     3
100
AcDbCircle
 10
1794.86682616897
 20
789.1522331990366
 30
0.0
 40
0.75
100
AcDbArc
 50
270.0
 51
90.0
  0
ARC
  5
6EFC
330
1E
100
AcDbEntity
  8
躯体と製品
  6
Continuous
 62
     3
100
AcDbCircle
 10
1795.86682616897
 20
793.1522331990366
 30
0.0
 40
0.75
100
AcDbArc
 50
270.0
 51
90.0
  0
LINE
  5
6EFD
330
1E
100
AcDbEntity
  8
躯体と製品
  6
Continuous
 62
     3
100
AcDbLine
 10
1804.11682616897
 20
784.4022331990367
 30
0.0
 11
1804.11682616897
 21
783.9022331990366
 31
0.0
  0
LINE
  5
6EFE
330
1E
100
AcDbEntity
  8
躯体と製品
  6
Continuous
 62
     3
100
AcDbLine
 10
1792.61682616897
 20
784.4022331990367
 30
0.0
 11
1804.11682616897
 21
784.4022331990367
 31
0.0
  0
LINE
  5
6EFF
330
1E
100
AcDbEntity
  8
躯体と製品
  6
Continuous
 62
     3
100
AcDbLine
 10
1792.61682616897
 20
783.9022331990366
 30
0.0
 11
1792.61682616897
 21
784.4022331990367
 31
0.0
  0
LINE
  5
6F00
330
1E
100
AcDbEntity
  8
躯体と製品
  6
Continuous
 62
     3
100
AcDbLine
 10
1791.11682616897
 20
783.9022331990366
 30
0.0
 11
1792.61682616897
 21
783.9022331990366
 31
0.0
  0
LINE
  5
6F01
330
1E
100
AcDbEntity
  8
躯体と製品
  6
Continuous
 62
     3
100
AcDbLine
 10
1839.61682616897
 20
783.9022331990366
 30
0.0
 11
1839.61682616897
 21
786.4022331990367
 31
0.0
  0
ARC
  5
6F02
330
1E
100
AcDbEntity
  8
躯体と製品
  6
Continuous
 62
     3
100
AcDbCircle
 10
1839.876697375796
 20
792.1951139121071
 30
0.0
 40
0.7499999999999977
100
AcDbArc
 50
350.0000000000025
 51
170.0000000000025
  0
ARC
  5
6F03
330
1E
100
AcDbEntity
  8
躯体と製品
  6
Continuous
 62
     3
100
AcDbCircle
 10
1834.460254734229
 20
793.1501788892753
 30
0.0
 40
0.7500000000000016
100
AcDbArc
 50
350.0000000000025
 51
170.0000000000025
  0
LINE
  5
6F04
330
1E
100
AcDbEntity
  8
躯体と製品
  6
Continuous
 62
     3
100
AcDbLine
 10
1839.413435215459
 20
791.0075162652585
 30
0.0
 11
1838.747383161286
 21
790.1095326010798
 31
0.0
  0
LINE
  5
6F05
330
1E
100
AcDbEntity
  8
躯体と製品
  6
Continuous
 62
     3
100
AcDbLine
 10
1839.239787037792
 20
790.0227085122463
 30
0.0
 11
1838.573734983619
 21
789.1247248480676
 31
0.0
  0
LINE
  5
6F06
330
1E
100
AcDbEntity
  8
躯体と製品
  6
Continuous
 62
     3
100
AcDbLine
 10
1834.981800326904
 20
791.7889330647597
 30
0.0
 11
1835.198860548987
 21
793.0199427560248
 31
0.0
  0
LINE
  5
6F07
330
1E
100
AcDbEntity
  8
躯体と製品
  6
Continuous
 62
     3
100
AcDbLine
 10
1838.921031338953
 20
791.0943403540921
 30
0.0
 11
1839.138091561036
 21
792.3253500453573
 31
0.0
  0
LINE
  5
6F08
330
1E
100
AcDbEntity
  8
躯体と製品
  6
Continuous
 62
     3
100
AcDbLine
 10
1839.61682616897
 20
786.4022331990367
 30
0.0
 11
1840.615303190555
 21
792.0648777788569
 31
0.0
  0
LINE
  5
6F09
330
1E
100
AcDbEntity
  8
躯体と製品
  6
Continuous
 62
     3
100
AcDbLine
 10
1839.413435215459
 20
791.0075162652585
 30
0.0
 11
1838.921031338953
 21
791.0943403540921
 31
0.0
  0
LINE
  5
6F0A
330
1E
100
AcDbEntity
  8
躯体と製品
  6
Continuous
 62
     3
100
AcDbLine
 10
1834.981800326904
 20
791.7889330647597
 30
0.0
 11
1834.489396450398
 21
791.8757571535932
 31
0.0
  0
LINE
  5
6F0B
330
1E
100
AcDbEntity
  8
躯体と製品
  6
Continuous
 62
     3
100
AcDbLine
 10
1839.239787037792
 20
790.0227085122463
 30
0.0
 11
1838.747383161286
 21
790.1095326010798
 31
0.0
  0
LINE
  5
6F0C
330
1E
100
AcDbEntity
  8
躯体と製品
  6
Continuous
 62
     3
100
AcDbLine
 10
1834.808152149237
 20
790.8041253117474
 30
0.0
 11
1834.315748272731
 21
790.8909494005809
 31
0.0
  0
LINE
  5
6F0D
330
1E
100
AcDbEntity
  8
躯体と製品
  6
Continuous
 62
     3
100
AcDbLine
 10
1832.581693946687
 20
786.8154091102034
 30
0.0
 11
1833.721648919469
 21
793.2804150225254
 31
0.0
  0
LINE
  5
6F0E
330
1E
100
AcDbEntity
  8
躯体と製品
  6
Continuous
 62
     3
100
AcDbLine
 10
1832.089290070181
 20
786.4022331990367
 30
0.0
 11
1828.11682616897
 21
786.4022331990367
 31
0.0
  0
ARC
  5
6F0F
330
1E
100
AcDbEntity
  8
躯体と製品
  6
Continuous
 62
     3
100
AcDbCircle
 10
1832.089290070181
 20
786.9022331990366
 30
0.0
 40
0.5
100
AcDbArc
 50
270.0
 51
350.0000000000025
  0
LINE
  5
6F10
330
1E
100
AcDbEntity
  8
躯体と製品
  6
Continuous
 62
     3
100
AcDbLine
 10
1834.135452723389
 20
786.9890572878703
 30
0.0
 11
1834.63450397157
 21
789.8193175587352
 31
0.0
  0
ARC
  5
6F11
330
1E
100
AcDbEntity
  8
躯体と製品
  6
Continuous
 62
     3
100
AcDbCircle
 10
1834.627856599895
 20
786.9022331990366
 30
0.0
 40
0.5
100
AcDbArc
 50
170.0000000000025
 51
270.0
  0
LINE
  5
6F12
330
1E
100
AcDbEntity
  8
躯体と製品
  6
Continuous
 62
     3
100
AcDbLine
 10
1838.166540312059
 20
786.8154091102034
 30
0.0
 11
1838.573734983619
 21
789.1247248480676
 31
0.0
  0
LINE
  5
6F13
330
1E
100
AcDbEntity
  8
躯体と製品
  6
Continuous
 62
     3
100
AcDbLine
 10
1837.674136435552
 20
786.4022331990367
 30
0.0
 11
1834.627856599895
 21
786.4022331990367
 31
0.0
  0
ARC
  5
6F14
330
1E
100
AcDbEntity
  8
躯体と製品
  6
Continuous
 62
     3
100
AcDbCircle
 10
1837.674136435552
 20
786.9022331990366
 30
0.0
 40
0.5
100
AcDbArc
 50
270.0
 51
350.0000000000025
  0
ARC
  5
6F15
330
1E
100
AcDbEntity
  8
躯体と製品
  6
DASHED1
 62
     7
100
AcDbCircle
 10
1821.030460984791
 20
825.2265661505559
 30
0.0
 40
1.0
100
AcDbArc
 50
37.62684736228169
 51
86.99999999999441
  0
LINE
  5
6F16
330
1E
100
AcDbEntity
  8
躯体と製品
  6
DASHED1
 62
     7
100
AcDbLine
 10
1799.808711811932
 20
828.1412211200033
 30
0.0
 11
1821.124665706028
 21
827.0240993131142
 31
0.0
  0
ARC
  5
6F17
330
1E
100
AcDbEntity
  8
躯体と製品
  6
DASHED1
 62
     7
100
AcDbCircle
 10
1799.714507090695
 20
826.3436879574451
 30
0.0
 40
1.8
100
AcDbArc
 50
86.99999999999441
 51
136.3731526377175
  0
LINE
  5
6F18
330
1E
100
AcDbEntity
  8
躯体と製品
  6
DASHED1
 62
     7
100
AcDbLine
 10
1799.766843046937
 20
827.3423174921996
 30
0.0
 11
1821.082796941034
 21
826.2251956853104
 31
0.0
  0
LINE
  5
6F19
330
1E
100
AcDbEntity
  8
躯体と製品
  6
DASHED1
 62
     7
100
AcDbLine
 10
1798.990658447132
 20
827.0336467541948
 30
0.0
 11
1786.060707353374
 21
813.4685938776522
 31
0.0
  0
ARC
  5
6F1A
330
1E
100
AcDbEntity
  8
躯体と製品
  6
DASHED1
 62
     7
100
AcDbCircle
 10
1799.714507090695
 20
826.3436879574451
 30
0.0
 40
1.0
100
AcDbArc
 50
86.99999999999441
 51
136.3731526377175
  0
LINE
  5
6F1B
330
1E
100
AcDbEntity
  8
躯体と製品
  6
DASHED1
 62
     7
100
AcDbLine
 10
1781.500624195806
 20
815.9876012832123
 30
0.0
 11
1782.134227121984
 21
816.4760143583228
 31
0.0
  0
LINE
  5
6F1C
330
1E
100
AcDbEntity
  8
躯体と製品
  6
DASHED1
 62
     7
100
AcDbLine
 10
1781.500624195806
 20
815.9876012832123
 30
0.0
 11
1783.332173242214
 21
813.6115902911161
 31
0.0
  0
ARC
  5
6F1D
330
1E
100
AcDbEntity
  8
躯体と製品
  6
DASHED1
 62
     7
100
AcDbCircle
 10
1784.757779811465
 20
814.7105197291173
 30
0.0
 40
1.0
100
AcDbArc
 50
217.6268487328632
 51
316.3731526377176
  0
ARC
  5
6F1E
330
1E
100
AcDbEntity
  8
躯体と製品
  6
DASHED1
 62
     7
100
AcDbCircle
 10
1784.757779811465
 20
814.7105197291173
 30
0.0
 40
1.8
100
AcDbArc
 50
217.6268481237226
 51
316.3731526377176
  0
LINE
  5
6F1F
330
1E
100
AcDbEntity
  8
躯体と製品
  6
DASHED1
 62
     7
100
AcDbLine
 10
1837.482981583034
 20
813.575309050937
 30
0.0
 11
1835.413105176252
 21
811.403763102905
 31
0.0
  0
LINE
  5
6F20
330
1E
100
AcDbEntity
  8
躯体と製品
  6
DASHED1
 62
     7
100
AcDbLine
 10
1838.062060497906
 20
813.0233420135601
 30
0.0
 11
1837.482981583034
 21
813.575309050937
 31
0.0
  0
LINE
  5
6F21
330
1E
100
AcDbEntity
  8
躯体と製品
  6
DASHED1
 62
     7
100
AcDbLine
 10
1838.062060497906
 20
813.0233420135601
 30
0.0
 11
1835.992184091103
 21
810.8517960655049
 31
0.0
  0
ARC
  5
6F22
330
1E
100
AcDbEntity
  8
躯体と製品
  6
DASHED1
 62
     7
100
AcDbCircle
 10
1834.689256549194
 20
812.09372191697
 30
0.0
 40
1.0
100
AcDbArc
 50
217.6268473622817
 51
316.3731512671342
  0
ARC
  5
6F23
330
1E
100
AcDbEntity
  8
躯体と製品
  6
DASHED1
 62
     7
100
AcDbCircle
 10
1834.689256549194
 20
812.09372191697
 30
0.0
 40
1.8
100
AcDbArc
 50
217.6268473622817
 51
316.3731518762783
  0
LINE
  5
6F24
330
1E
100
AcDbEntity
  8
躯体と製品
  6
DASHED1
 62
     7
100
AcDbLine
 10
1822.456067568647
 20
826.3254955696114
 30
0.0
 11
1833.897252906101
 21
811.4832055541047
 31
0.0
  0
LINE
  5
6F25
330
1E
100
AcDbEntity
  8
躯体と製品
  6
DASHED1
 62
     7
100
AcDbLine
 10
1821.822464642488
 20
825.8370824944757
 30
0.0
 11
1833.263649979943
 21
810.994792478969
 31
0.0
  0
ARC
  5
6F26
330
1E
100
AcDbEntity
  8
躯体と製品
  6
DASHED1
 62
     7
100
AcDbCircle
 10
1821.030460984791
 20
825.2265661505559
 30
0.0
 40
1.8
100
AcDbArc
 50
37.62684736228169
 51
86.99999999999441
  0
LINE
  5
6F27
330
1E
100
AcDbEntity
  8
躯体と製品
  6
DASHED1
 62
     7
100
AcDbLine
 10
1782.134227121984
 20
816.4760143583228
 30
0.0
 11
1783.965776168372
 21
814.1000033662519
 31
0.0
  0
LINE
  5
6F28
330
1E
100
AcDbEntity
  8
躯体と製品
  6
DASHED1
 62
     7
100
AcDbLine
 10
1798.411579532282
 20
827.5856137915949
 30
0.0
 11
1785.481628455028
 21
814.0205609323675
 31
0.0
  0
LINE
  5
6F29
330
1E
100
AcDbEntity
  8
躯体と製品
  6
DASHED1
 62
     4
100
AcDbLine
 10
1812.894856472735
 20
827.455405338954
 30
0.0
 11
1811.649260714154
 21
803.6880224117954
 31
0.0
  0
LINE
  5
6F2A
330
1E
100
AcDbEntity
  8
躯体と製品
  6
DASHED1
 62
     7
100
AcDbLine
 10
1813.462577363244
 20
827.4256523478298
 30
0.0
 11
1812.216981604662
 21
803.658269420671
 31
0.0
  0
LINE
  5
6F2B
330
1E
100
AcDbEntity
  8
躯体と製品
  6
DASHED1
 62
     7
100
AcDbLine
 10
1807.470800154716
 20
827.7396680852875
 30
0.0
 11
1806.225204396134
 21
803.9722851581286
 31
0.0
  0
LINE
  5
6F2C
330
1E
100
AcDbEntity
  8
躯体と製品
  6
DASHED1
 62
     4
100
AcDbLine
 10
1808.038521045224
 20
827.7099150941634
 30
0.0
 11
1806.792925286642
 21
803.9425321670044
 31
0.0
  0
ARC
  5
6F2D
330
1E
100
AcDbEntity
  8
躯体と製品
  6
DASHED1
 62
     7
100
AcDbCircle
 10
1809.282760011295
 20
830.7868394760074
 30
0.0
 40
0.5999999999999998
100
AcDbArc
 50
357.0000000000011
 51
100.7002330000058
  0
ARC
  5
6F2E
330
1E
100
AcDbEntity
  8
躯体と製品
  6
DASHED1
 62
     7
100
AcDbCircle
 10
1811.979059755132
 20
830.6455323941513
 30
0.0
 40
0.5999999999999998
100
AcDbArc
 50
73.29976700000166
 51
177.0000000000011
  0
LINE
  5
6F2F
330
1E
100
AcDbEntity
  8
躯体と製品
  6
DASHED1
 62
     7
100
AcDbLine
 10
1811.377828109677
 20
830.6377427518057
 30
0.0
 11
1809.879883807545
 21
830.7162466861703
 31
0.0
  0
ARC
  5
6F30
330
1E
100
AcDbEntity
  8
躯体と製品
  6
DASHED1
 62
     7
100
AcDbCircle
 10
1808.653458063812
 20
827.4825621980239
 30
0.0
 40
3.45
100
AcDbArc
 50
126.3091240000008
 51
173.7621629999991
  0
ARC
  5
6F31
330
1E
100
AcDbEntity
  8
躯体と製品
  6
DASHED1
 62
     7
100
AcDbCircle
 10
1812.264794069068
 20
827.2887909180694
 30
0.0
 40
3.45
100
AcDbArc
 50
0.3127429999987237
 51
47.82048899999998
  0
ARC
  5
6F32
330
1E
100
AcDbEntity
  8
躯体と製品
  6
DASHED1
 62
     7
100
AcDbCircle
 10
1810.341082516333
 20
825.1859503317772
 30
0.0
 40
6.299999999999998
100
AcDbArc
 50
47.69686900000316
 51
126.3093710000041
  0
LINE
  5
6F33
330
1E
100
AcDbEntity
  8
躯体と製品
  6
Continuous
 62
     4
100
AcDbLine
 10
1811.660571885864
 20
793.0413395219278
 30
0.0
 11
1805.668794677337
 21
793.3553552593853
 31
0.0
  0
LINE
  5
6F34
330
1E
100
AcDbEntity
  8
躯体と製品
  6
Continuous
 62
     7
100
AcDbLine
 10
1805.932528122231
 20
798.3876891705356
 30
0.0
 11
1805.668794677337
 21
793.3553552593853
 31
0.0
  0
LINE
  5
6F35
330
1E
100
AcDbEntity
  8
躯体と製品
  6
Continuous
 62
     7
100
AcDbLine
 10
1811.924305330759
 20
798.0736734330782
 30
0.0
 11
1811.660571885864
 21
793.0413395219278
 31
0.0
  0
LINE
  5
6F36
330
1E
100
AcDbEntity
  8
躯体と製品
  6
Continuous
 62
     7
100
AcDbLine
 10
1812.216981604662
 20
803.658269420671
 30
0.0
 11
1812.112714773234
 21
801.6687397581943
 31
0.0
  0
LINE
  5
6F37
330
1E
100
AcDbEntity
  8
躯体と製品
  6
Continuous
 62
     4
100
AcDbLine
 10
1811.649260714154
 20
803.6880224117954
 30
0.0
 11
1811.544993882725
 21
801.6984927493185
 31
0.0
  0
LINE
  5
6F38
330
1E
100
AcDbEntity
  8
躯体と製品
  6
Continuous
 62
     4
100
AcDbLine
 10
1806.792925286642
 20
803.9425321670044
 30
0.0
 11
1806.688658455214
 21
801.9530025045279
 31
0.0
  0
LINE
  5
6F39
330
1E
100
AcDbEntity
  8
躯体と製品
  6
Continuous
 62
     7
100
AcDbLine
 10
1806.225204396134
 20
803.9722851581286
 30
0.0
 11
1806.120937564706
 21
801.982755495652
 31
0.0
  0
POINT
  5
6F3A
330
1E
100
AcDbEntity
  8
躯体と製品
 62
     4
100
AcDbPoint
 10
1809.11682616897
 20
801.8257476269232
 30
0.0
  0
ARC
  5
6F3B
330
1E
100
AcDbEntity
  8
躯体と製品
  6
Continuous
 62
     7
100
AcDbCircle
 10
1859.088266395071
 20
780.902641112576
 30
0.0
 40
1.0
100
AcDbArc
 50
4.999999999999459
 51
88.3634229583817
  0
POINT
  5
6F3C
330
1E
100
AcDbEntity
  8
躯体と製品
 62
     4
100
AcDbPoint
 10
1826.669162125213
 20
802.9008627337914
 30
0.0
  0
LINE
  5
6F44
330
1E
100
AcDbEntity
  8
躯体と製品
  6
Continuous
 62
     7
100
AcDbLine
 10
1759.11682616897
 20
781.9022331990367
 30
0.0
 11
1759.11682616897
 21
661.9022331990367
 31
0.0
  0
LINE
  5
6F45
330
1E
100
AcDbEntity
  8
躯体と製品
  6
Continuous
 62
     7
100
AcDbLine
 10
1859.11682616897
 20
781.9022331990367
 30
0.0
 11
1859.11682616897
 21
661.9022331990367
 31
0.0
  0
LINE
  5
6F48
330
1E
100
AcDbEntity
  8
躯体と製品
  6
Continuous
 62
     7
100
AcDbLine
 10
1759.11682616897
 20
781.9022331990367
 30
0.0
 11
1859.11682616897
 21
781.9022331990367
 31
0.0
  0
ARC
  5
6F49
330
1E
100
AcDbEntity
  8
躯体と製品
  6
Continuous
 62
     7
100
AcDbCircle
 10
1886.963356269759
 20
786.6805917664278
 30
0.0
 40
2.1
100
AcDbArc
 50
90.0
 51
175.0000000000005
  0
LINE
  5
6F4A
330
1E
100
AcDbEntity
  8
躯体と製品
  6
Continuous
 62
     7
100
AcDbLine
 10
1886.963356269759
 20
788.7805917664277
 30
0.0
 11
1887.559154448461
 21
788.7805917664277
 31
0.0
  0
ARC
  5
6F4B
330
1E
100
AcDbEntity
  8
躯体と製品
  6
Continuous
 62
     7
100
AcDbCircle
 10
1886.963356269759
 20
786.6805917664278
 30
0.0
 40
1.1
100
AcDbArc
 50
90.0
 51
175.0000000000005
  0
LINE
  5
6F4C
330
1E
100
AcDbEntity
  8
躯体と製品
  6
Continuous
 62
     7
100
AcDbLine
 10
1886.963356269759
 20
787.7805917664277
 30
0.0
 11
1887.559154448461
 21
787.7805917664277
 31
0.0
  0
LINE
  5
6F4D
330
1E
100
AcDbEntity
  8
躯体と製品
  6
Continuous
 62
     7
100
AcDbLine
 10
1887.559154448461
 20
791.2805917664277
 30
0.0
 11
1887.559154448461
 21
788.7805917664277
 31
0.0
  0
LINE
  5
6F4E
330
1E
100
AcDbEntity
  8
躯体と製品
  6
Continuous
 62
     7
100
AcDbLine
 10
1889.059154448461
 20
787.2805917664277
 30
0.0
 11
1890.710239448461
 21
787.8039647664277
 31
0.0
  0
LINE
  5
6F4F
330
1E
100
AcDbEntity
  8
躯体と製品
  6
Continuous
 62
     7
100
AcDbLine
 10
1889.059154448461
 20
787.2805917664277
 30
0.0
 11
1889.059154448461
 21
785.2805917664277
 31
0.0
  0
LINE
  5
6F50
330
1E
100
AcDbEntity
  8
躯体と製品
  6
Continuous
 62
     7
100
AcDbLine
 10
1889.059154448461
 20
789.2805917664277
 30
0.0
 11
1889.059154448461
 21
791.2805917664277
 31
0.0
  0
ARC
  5
6F51
330
1E
100
AcDbEntity
  8
躯体と製品
  6
Continuous
 62
     7
100
AcDbCircle
 10
1888.559154448461
 20
791.2805917664277
 30
0.0
 40
0.5
100
AcDbArc
 50
0.0
 51
90.0
  0
LINE
  5
6F52
330
1E
100
AcDbEntity
  8
躯体と製品
  6
Continuous
 62
     7
100
AcDbLine
 10
1888.059154448461
 20
791.7805917664277
 30
0.0
 11
1888.559154448461
 21
791.7805917664277
 31
0.0
  0
LINE
  5
6F53
330
1E
100
AcDbEntity
  8
躯体と製品
  6
Continuous
 62
     7
100
AcDbLine
 10
1888.059154448461
 20
784.7805917664277
 30
0.0
 11
1888.559154448461
 21
784.7805917664277
 31
0.0
  0
ARC
  5
6F54
330
1E
100
AcDbEntity
  8
躯体と製品
  6
Continuous
 62
     7
100
AcDbCircle
 10
1888.559154448461
 20
785.2805917664277
 30
0.0
 40
0.5
100
AcDbArc
 50
270.0
 51
0.0
  0
ARC
  5
6F55
330
1E
100
AcDbEntity
  8
躯体と製品
  6
Continuous
 62
     7
100
AcDbCircle
 10
1888.059154448461
 20
785.2805917664277
 30
0.0
 40
0.5
100
AcDbArc
 50
180.0
 51
270.0
  0
ARC
  5
6F56
330
1E
100
AcDbEntity
  8
躯体と製品
  6
Continuous
 62
     7
100
AcDbCircle
 10
1888.059154448461
 20
791.2805917664277
 30
0.0
 40
0.5
100
AcDbArc
 50
90.0
 51
180.0
  0
LINE
  5
6F57
330
1E
100
AcDbEntity
  8
躯体と製品
  6
Continuous
 62
     7
100
AcDbLine
 10
1887.559154448461
 20
785.2805917664277
 30
0.0
 11
1887.559154448461
 21
787.7805917664277
 31
0.0
  0
ARC
  5
6F58
330
1E
100
AcDbEntity
  8
躯体と製品
  6
Continuous
 62
     7
100
AcDbCircle
 10
1890.559154448461
 20
788.2805917664277
 30
0.0
 40
0.5
100
AcDbArc
 50
287.587954000005
 51
72.41204599999497
  0
LINE
  5
6F59
330
1E
100
AcDbEntity
  8
躯体と製品
  6
Continuous
 62
     7
100
AcDbLine
 10
1889.059154448461
 20
789.2805917664277
 30
0.0
 11
1890.710239448461
 21
788.7572187664278
 31
0.0
  0
ARC
  5
6F5A
330
1E
100
AcDbEntity
  8
躯体と製品
  6
Continuous
 62
     3
100
AcDbCircle
 10
1886.959154448461
 20
786.6805917664278
 30
0.0
 40
0.5999999999999998
100
AcDbArc
 50
0.0
 51
180.0
  0
ARC
  5
6F5B
330
1E
100
AcDbEntity
  8
躯体と製品
  6
Continuous
 62
     3
100
AcDbCircle
 10
1886.959154448461
 20
790.8805917664278
 30
0.0
 40
0.5999999999999998
100
AcDbArc
 50
180.0
 51
0.0
  0
LINE
  5
6F5C
330
1E
100
AcDbEntity
  8
躯体と製品
  6
Continuous
 62
     3
100
AcDbLine
 10
1886.359154448461
 20
786.6805917664278
 30
0.0
 11
1886.359154448461
 21
784.5805917664277
 31
0.0
  0
LINE
  5
6F5D
330
1E
100
AcDbEntity
  8
躯体と製品
  6
Continuous
 62
     3
100
AcDbLine
 10
1887.559154448461
 20
786.6805917664278
 30
0.0
 11
1887.559154448461
 21
785.0805917664277
 31
0.0
  0
ARC
  5
6F5E
330
1E
100
AcDbEntity
  8
躯体と製品
  6
Continuous
 62
     3
100
AcDbCircle
 10
1887.859154448461
 20
785.0805917664277
 30
0.0
 40
0.2999999999999998
100
AcDbArc
 50
180.0
 51
270.0
  0
LINE
  5
6F5F
330
1E
100
AcDbEntity
  8
躯体と製品
  6
Continuous
 62
     3
100
AcDbLine
 10
1887.559154448461
 20
790.8805917664278
 30
0.0
 11
1887.559154448461
 21
792.4805917664277
 31
0.0
  0
ARC
  5
6F60
330
1E
100
AcDbEntity
  8
躯体と製品
  6
Continuous
 62
     3
100
AcDbCircle
 10
1887.859154448461
 20
792.4805917664277
 30
0.0
 40
0.2999999999999998
100
AcDbArc
 50
90.0
 51
180.0
  0
LINE
  5
6F61
330
1E
100
AcDbEntity
  8
躯体と製品
  6
Continuous
 62
     3
100
AcDbLine
 10
1886.359154448461
 20
790.8805917664278
 30
0.0
 11
1886.359154448461
 21
792.9805917664277
 31
0.0
  0
LINE
  5
6F62
330
1E
100
AcDbEntity
  8
躯体と製品
  6
Continuous
 62
     3
100
AcDbLine
 10
1898.559154448461
 20
754.7805917664277
 30
0.0
 11
1900.180422448461
 21
755.1859087664277
 31
0.0
  0
ARC
  5
6F63
330
1E
100
AcDbEntity
  8
躯体と製品
  6
Continuous
 62
     3
100
AcDbCircle
 10
1900.059154448461
 20
755.6709797664277
 30
0.0
 40
0.5
100
AcDbArc
 50
284.0362430000043
 51
0.0
  0
LINE
  5
6F64
330
1E
100
AcDbEntity
  8
躯体と製品
  6
Continuous
 62
     3
100
AcDbLine
 10
1898.559154448461
 20
755.2805917664279
 30
0.0
 11
1898.559154448461
 21
754.7805917664277
 31
0.0
  0
LINE
  5
6F65
330
1E
100
AcDbEntity
  8
躯体と製品
  6
Continuous
 62
     3
100
AcDbLine
 10
1900.559154448461
 20
755.9805917664277
 30
0.0
 11
1900.559154448461
 21
755.6709797664277
 31
0.0
  0
LINE
  5
6F66
330
1E
100
AcDbEntity
  8
躯体と製品
  6
Continuous
 62
     3
100
AcDbLine
 10
1893.559154448461
 20
755.2805917664279
 30
0.0
 11
1898.559154448461
 21
755.2805917664279
 31
0.0
  0
ARC
  5
6F67
330
1E
100
AcDbEntity
  8
躯体と製品
  6
Continuous
 62
     3
100
AcDbCircle
 10
1900.259154448461
 20
755.9805917664277
 30
0.0
 40
0.2999999999999998
100
AcDbArc
 50
0.0
 51
90.0
  0
ARC
  5
6F68
330
1E
100
AcDbEntity
  8
躯体と製品
  6
Continuous
 62
     3
100
AcDbCircle
 10
1893.559154448461
 20
754.7805917664277
 30
0.0
 40
0.5
100
AcDbArc
 50
90.0
 51
180.0
  0
LINE
  5
6F69
330
1E
100
AcDbEntity
  8
躯体と製品
  6
Continuous
 62
     3
100
AcDbLine
 10
1893.059154448461
 20
754.7805917664277
 30
0.0
 11
1893.059154448461
 21
745.9805917664278
 31
0.0
  0
LINE
  5
6F6A
330
1E
100
AcDbEntity
  8
躯体と製品
  6
Continuous
 62
     3
100
AcDbLine
 10
1893.559154448461
 20
756.2805917664277
 30
0.0
 11
1900.259154448461
 21
756.2805917664277
 31
0.0
  0
ARC
  5
6F6B
330
1E
100
AcDbEntity
  8
躯体と製品
  6
Continuous
 62
     3
100
AcDbCircle
 10
1893.559154448461
 20
756.7805917664277
 30
0.0
 40
0.5
100
AcDbArc
 50
180.0
 51
270.0
  0
LINE
  5
6F6C
330
1E
100
AcDbEntity
  8
躯体と製品
  6
Continuous
 62
     3
100
AcDbLine
 10
1897.959154448461
 20
743.7805917664277
 30
0.0
 11
1894.059154448461
 21
743.7805917664277
 31
0.0
  0
ARC
  5
6F6D
330
1E
100
AcDbEntity
  8
躯体と製品
  6
Continuous
 62
     3
100
AcDbCircle
 10
1894.059154448461
 20
746.2805917664277
 30
0.0
 40
2.5
100
AcDbArc
 50
180.0
 51
270.0
  0
LINE
  5
6F6E
330
1E
100
AcDbEntity
  8
躯体と製品
  6
Continuous
 62
     3
100
AcDbLine
 10
1893.059154448461
 20
801.0305917664277
 30
0.0
 11
1893.059154448461
 21
756.7805917664277
 31
0.0
  0
LINE
  5
6F6F
330
1E
100
AcDbEntity
  8
躯体と製品
  6
Continuous
 62
     3
100
AcDbLine
 10
1887.859154448461
 20
792.7805917664277
 30
0.0
 11
1891.259154448461
 21
792.7805917664277
 31
0.0
  0
LINE
  5
6F70
330
1E
100
AcDbEntity
  8
躯体と製品
  6
Continuous
 62
     3
100
AcDbLine
 10
1887.859154448461
 20
784.7805917664277
 30
0.0
 11
1891.259154448461
 21
784.7805917664277
 31
0.0
  0
ARC
  5
6F71
330
1E
100
AcDbEntity
  8
躯体と製品
  6
Continuous
 62
     3
100
AcDbCircle
 10
1891.259154448461
 20
785.0805917664277
 30
0.0
 40
0.2999999999999998
100
AcDbArc
 50
270.0
 51
0.0
  0
LINE
  5
6F72
330
1E
100
AcDbEntity
  8
躯体と製品
  6
Continuous
 62
     3
100
AcDbLine
 10
1891.559154448461
 20
792.4805917664277
 30
0.0
 11
1891.559154448461
 21
785.0805917664277
 31
0.0
  0
ARC
  5
6F73
330
1E
100
AcDbEntity
  8
躯体と製品
  6
Continuous
 62
     3
100
AcDbCircle
 10
1891.259154448461
 20
792.4805917664277
 30
0.0
 40
0.2999999999999998
100
AcDbArc
 50
0.0
 51
90.0
  0
LINE
  5
6F74
330
1E
100
AcDbEntity
  8
躯体と製品
  6
Continuous
 62
     3
100
AcDbLine
 10
1891.059154448461
 20
783.5805917664276
 30
0.0
 11
1887.359154448461
 21
783.5805917664276
 31
0.0
  0
ARC
  5
6F75
330
1E
100
AcDbEntity
  8
躯体と製品
  6
Continuous
 62
     3
100
AcDbCircle
 10
1887.359154448461
 20
784.5805917664277
 30
0.0
 40
1.0
100
AcDbArc
 50
180.0
 51
270.0
  0
ARC
  5
6F76
330
1E
100
AcDbEntity
  8
躯体と製品
  6
Continuous
 62
     3
100
AcDbCircle
 10
1891.059154448461
 20
783.0805917664276
 30
0.0
 40
0.5
100
AcDbArc
 50
0.0
 51
90.0
  0
LINE
  5
6F77
330
1E
100
AcDbEntity
  8
躯体と製品
  6
Continuous
 62
     3
100
AcDbLine
 10
1891.059154448461
 20
793.9805917664277
 30
0.0
 11
1887.359154448461
 21
793.9805917664277
 31
0.0
  0
ARC
  5
6F78
330
1E
100
AcDbEntity
  8
躯体と製品
  6
Continuous
 62
     3
100
AcDbCircle
 10
1887.359154448461
 20
792.9805917664277
 30
0.0
 40
1.0
100
AcDbArc
 50
90.0
 51
180.0
  0
ARC
  5
6F79
330
1E
100
AcDbEntity
  8
躯体と製品
  6
Continuous
 62
     3
100
AcDbCircle
 10
1891.059154448461
 20
794.4805917664277
 30
0.0
 40
0.5
100
AcDbArc
 50
270.0
 51
0.0
  0
LINE
  5
6F7A
330
1E
100
AcDbEntity
  8
躯体と製品
  6
Continuous
 62
     3
100
AcDbLine
 10
1891.559154448461
 20
794.4805917664277
 30
0.0
 11
1891.559154448461
 21
801.0305917664277
 31
0.0
  0
ARC
  5
6F7B
330
1E
100
AcDbEntity
  8
躯体と製品
  6
Continuous
 62
     3
100
AcDbCircle
 10
1892.309154448461
 20
801.0305917664277
 30
0.0
 40
0.75
100
AcDbArc
 50
0.0
 51
180.0
  0
LINE
  5
6F7C
330
1E
100
AcDbEntity
  8
躯体と製品
  6
Continuous
 62
     3
100
AcDbLine
 10
1891.559154448461
 20
783.0805917664276
 30
0.0
 11
1891.559154448461
 21
746.2805917664277
 31
0.0
  0
ARC
  5
6F7D
330
1E
100
AcDbEntity
  8
躯体と製品
  6
Continuous
 62
     3
100
AcDbCircle
 10
1897.959154448461
 20
744.3805917664276
 30
0.0
 40
0.5999999999999998
100
AcDbArc
 50
270.0
 51
90.0
  0
LINE
  5
6F7E
330
1E
100
AcDbEntity
  8
躯体と製品
  6
Continuous
 62
     3
100
AcDbLine
 10
1897.959154448461
 20
744.9805917664278
 30
0.0
 11
1894.059154448461
 21
744.9805917664278
 31
0.0
  0
ARC
  5
6F7F
330
1E
100
AcDbEntity
  8
躯体と製品
  6
Continuous
 62
     3
100
AcDbCircle
 10
1894.059154448461
 20
745.9805917664278
 30
0.0
 40
1.0
100
AcDbArc
 50
180.0
 51
270.0
  0
LINE
  5
6F80
330
1E
100
AcDbEntity
  8
躯体と製品
  6
Continuous
 62
     7
100
AcDbLine
 10
1860.084461093163
 20
780.9897968553237
 30
0.0
 11
1862.664560295999
 21
751.4991280205897
 31
0.0
  0
LINE
  5
6F81
330
1E
100
AcDbEntity
  8
躯体と製品
  6
Continuous
 62
     7
100
AcDbLine
 10
1861.080655791254
 20
781.0769525980713
 30
0.0
 11
1863.660754994091
 21
751.5862837633374
 31
0.0
  0
LINE
  5
6F82
330
1E
100
AcDbEntity
  8
躯体と製品
  6
Continuous
 62
     7
100
AcDbLine
 10
1885.867542101857
 20
786.7764630834501
 30
0.0
 11
1882.781175204452
 21
751.4991280205897
 31
0.0
  0
ARC
  5
6F83
330
1E
100
AcDbEntity
  8
躯体と製品
  6
Continuous
 62
     7
100
AcDbCircle
 10
1872.722867750226
 20
752.3791158970928
 30
0.0
 40
10.09672855466265
100
AcDbArc
 50
184.9999999999994
 51
355.0000000000006
  0
LINE
  5
6F84
330
1E
100
AcDbEntity
  8
躯体と製品
  6
Continuous
 62
     7
100
AcDbLine
 10
1884.871347403766
 20
786.8636188261977
 30
0.0
 11
1881.78498050636
 21
751.5862837633374
 31
0.0
  0
ARC
  5
6F85
330
1E
100
AcDbEntity
  8
躯体と製品
  6
Continuous
 62
     7
100
AcDbCircle
 10
1872.722867750226
 20
752.3791158970928
 30
0.0
 40
9.096728554662648
100
AcDbArc
 50
184.9999999999994
 51
355.0000000000006
  0
ARC
  5
6F86
330
1E
100
AcDbEntity
  8
躯体と製品
  6
Continuous
 62
     7
100
AcDbCircle
 10
1712.11682616897
 20
804.4073495331788
 30
0.0
 40
2.0
100
AcDbArc
 50
180.0
 51
184.9999999999994
  0
LINE
  5
6F87
330
1E
100
AcDbEntity
  8
躯体と製品
  6
Continuous
 62
     7
100
AcDbLine
 10
1710.124436772786
 20
804.2330380476837
 30
0.0
 11
1716.24936868819
 21
734.2247459037712
 31
0.0
  0
LINE
  5
6F88
330
1E
100
AcDbEntity
  8
躯体と製品
  6
Continuous
 62
     7
100
AcDbLine
 10
1711.11682616897
 20
804.3636885902701
 30
0.0
 11
1717.245563386281
 21
734.3119016465188
 31
0.0
  0
LINE
  5
6F89
330
1E
100
AcDbEntity
  8
躯体と製品
  6
Continuous
 62
     7
100
AcDbLine
 10
1757.152996546685
 20
781.0769525980713
 30
0.0
 11
1753.061584739213
 21
734.3119016465188
 31
0.0
  0
ARC
  5
6F8A
330
1E
100
AcDbEntity
  8
躯体と製品
  6
Continuous
 62
     7
100
AcDbCircle
 10
1735.153574062747
 20
735.8786495670108
 30
0.0
 40
17.97641636797405
100
AcDbArc
 50
184.9999999999994
 51
355.0000000000006
  0
LINE
  5
6F8B
330
1E
100
AcDbEntity
  8
躯体と製品
  6
Continuous
 62
     7
100
AcDbLine
 10
1758.149191244777
 20
780.9897968553237
 30
0.0
 11
1754.057779437304
 21
734.2247459037712
 31
0.0
  0
ARC
  5
6F8C
330
1E
100
AcDbEntity
  8
躯体と製品
  6
Continuous
 62
     7
100
AcDbCircle
 10
1735.153574062747
 20
735.8786495670108
 30
0.0
 40
18.97641636797405
100
AcDbArc
 50
184.9999999999994
 51
355.0000000000006
  0
LINE
  5
6F8D
330
1E
100
AcDbEntity
  8
躯体と製品
  6
Continuous
 62
     3
100
AcDbLine
 10
1794.116826168969
 20
782.9022331990366
 30
0.0
 11
1794.116826168969
 21
781.9022331990367
 31
0.0
  0
LINE
  5
6F8E
330
1E
100
AcDbEntity
  8
躯体と製品
  6
Continuous
 62
     3
100
AcDbLine
 10
1824.116826168969
 20
782.9022331990366
 30
0.0
 11
1794.116826168969
 21
782.9022331990366
 31
0.0
  0
LINE
  5
6F8F
330
1E
100
AcDbEntity
  8
躯体と製品
  6
Continuous
 62
     3
100
AcDbLine
 10
1794.116826168969
 20
781.9022331990367
 30
0.0
 11
1824.116826168969
 21
781.9022331990367
 31
0.0
  0
LINE
  5
6F90
330
1E
100
AcDbEntity
  8
躯体と製品
  6
Continuous
 62
     3
100
AcDbLine
 10
1824.116826168969
 20
781.9022331990367
 30
0.0
 11
1824.116826168969
 21
782.9022331990366
 31
0.0
  0
LINE
  5
6F91
330
1E
100
AcDbEntity
  8
躯体と製品
  6
Continuous
 62
     3
100
AcDbLine
 10
1741.11682616897
 20
844.5636885902704
 30
0.0
 11
1733.31682616897
 21
844.5636885902704
 31
0.0
  0
LINE
  5
6F92
330
1E
100
AcDbEntity
  8
躯体と製品
  6
Continuous
 62
     3
100
AcDbLine
 10
1743.316826168969
 20
846.7636885902702
 30
0.0
 11
1743.316826168969
 21
878.3636885902703
 31
0.0
  0
LINE
  5
6F93
330
1E
100
AcDbEntity
  8
躯体と製品
  6
Continuous
 62
     3
100
AcDbLine
 10
1741.11682616897
 20
880.5636885902702
 30
0.0
 11
1724.31682616897
 21
880.5636885902702
 31
0.0
  0
POINT
  5
6F94
330
1E
100
AcDbEntity
  8
躯体と製品
 62
     4
100
AcDbPoint
 10
1743.316826168969
 20
844.5636885902704
 30
0.0
  0
LINE
  5
6F95
330
1E
100
AcDbEntity
  8
躯体と製品
  6
Continuous
 62
     7
100
AcDbLine
 10
1721.61682716897
 20
879.6636905902701
 30
0.0
 11
1721.61682716897
 21
883.1636885902701
 31
0.0
  0
ARC
  5
6F96
330
1E
100
AcDbEntity
  8
躯体と製品
  6
Continuous
 62
     7
100
AcDbCircle
 10
1722.116828168969
 20
879.6636905902701
 30
0.0
 40
0.5000010000000002
100
AcDbArc
 50
180.0
 51
270.0
  0
ARC
  5
6F97
330
1E
100
AcDbEntity
  8
躯体と製品
  6
Continuous
 62
     7
100
AcDbCircle
 10
1722.116828168969
 20
879.6636905902701
 30
0.0
 40
1.299998999999999
100
AcDbArc
 50
180.0
 51
270.0
  0
LINE
  5
6F98
330
1E
100
AcDbEntity
  8
躯体と製品
  6
Continuous
 62
     7
100
AcDbLine
 10
1720.81682616897
 20
883.1636885902701
 30
0.0
 11
1721.61682716897
 21
883.1636885902701
 31
0.0
  0
LINE
  5
6F99
330
1E
100
AcDbEntity
  8
躯体と製品
  6
Continuous
 62
     7
100
AcDbLine
 10
1740.51682716897
 20
879.1636895902701
 30
0.0
 11
1722.116828168969
 21
879.1636895902701
 31
0.0
  0
ARC
  5
6F9A
330
1E
100
AcDbEntity
  8
躯体と製品
  6
Continuous
 62
     7
100
AcDbCircle
 10
1740.51682716897
 20
877.86369059027
 30
0.0
 40
1.299998999999999
100
AcDbArc
 50
0.0
 51
90.0
  0
ARC
  5
6F9B
330
1E
100
AcDbEntity
  8
躯体と製品
  6
Continuous
 62
     7
100
AcDbCircle
 10
1740.51682716897
 20
877.86369059027
 30
0.0
 40
0.5000010000000002
100
AcDbArc
 50
0.0
 51
90.0
  0
LINE
  5
6F9C
330
1E
100
AcDbEntity
  8
躯体と製品
  6
Continuous
 62
     7
100
AcDbLine
 10
1741.01682816897
 20
877.86369059027
 30
0.0
 11
1741.01682816897
 21
849.1636895902702
 31
0.0
  0
LINE
  5
6F9D
330
1E
100
AcDbEntity
  8
躯体と製品
  6
Continuous
 62
     7
100
AcDbLine
 10
1741.816826168969
 20
877.86369059027
 30
0.0
 11
1741.816826168969
 21
849.1636895902702
 31
0.0
  0
LINE
  5
6F9E
330
1E
100
AcDbEntity
  8
躯体と製品
  6
Continuous
 62
     7
100
AcDbLine
 10
1741.01682816897
 20
849.1636895902702
 30
0.0
 11
1741.816826168969
 21
849.1636895902702
 31
0.0
  0
LINE
  5
6F9F
330
1E
100
AcDbEntity
  8
躯体と製品
  6
Continuous
 62
     7
100
AcDbLine
 10
1740.51682716897
 20
878.3636885902701
 30
0.0
 11
1722.116828168969
 21
878.3636885902701
 31
0.0
  0
LINE
  5
6FA0
330
1E
100
AcDbEntity
  8
躯体と製品
  6
Continuous
 62
     7
100
AcDbLine
 10
1720.81682616897
 20
883.1636885902701
 30
0.0
 11
1720.81682916897
 21
879.6636905902701
 31
0.0
  0
LINE
  5
6FA1
330
1E
100
AcDbEntity
  8
躯体と製品
  6
Continuous
 62
     4
100
AcDbLine
 10
1741.016828168969
 20
849.4132327522841
 30
0.0
 11
1741.81682616897
 21
850.2132307522849
 31
0.0
  0
LINE
  5
6FA2
330
1E
100
AcDbEntity
  8
躯体と製品
  6
Continuous
 62
     4
100
AcDbLine
 10
1741.016828168969
 20
850.8274463146573
 30
0.0
 11
1741.81682616897
 21
851.6274443146581
 31
0.0
  0
LINE
  5
6FA3
330
1E
100
AcDbEntity
  8
躯体と製品
  6
Continuous
 62
     4
100
AcDbLine
 10
1741.016828168971
 20
852.2416598770316
 30
0.0
 11
1741.81682616897
 21
853.0416578770312
 31
0.0
  0
LINE
  5
6FA4
330
1E
100
AcDbEntity
  8
躯体と製品
  6
Continuous
 62
     4
100
AcDbLine
 10
1741.01682816897
 20
853.655873439405
 30
0.0
 11
1741.81682616897
 21
854.4558714394048
 31
0.0
  0
LINE
  5
6FA5
330
1E
100
AcDbEntity
  8
躯体と製品
  6
Continuous
 62
     4
100
AcDbLine
 10
1741.01682816897
 20
855.0700870017783
 30
0.0
 11
1741.816826168969
 21
855.8700850017778
 31
0.0
  0
LINE
  5
6FA6
330
1E
100
AcDbEntity
  8
躯体と製品
  6
Continuous
 62
     4
100
AcDbLine
 10
1741.01682816897
 20
856.4843005641511
 30
0.0
 11
1741.816826168969
 21
857.2842985641511
 31
0.0
  0
LINE
  5
6FA7
330
1E
100
AcDbEntity
  8
躯体と製品
  6
Continuous
 62
     4
100
AcDbLine
 10
1741.01682816897
 20
857.8985141265247
 30
0.0
 11
1741.816826168969
 21
858.6985121265245
 31
0.0
  0
LINE
  5
6FA8
330
1E
100
AcDbEntity
  8
躯体と製品
  6
Continuous
 62
     4
100
AcDbLine
 10
1741.01682816897
 20
859.3127276888981
 30
0.0
 11
1741.816826168969
 21
860.1127256888975
 31
0.0
  0
LINE
  5
6FA9
330
1E
100
AcDbEntity
  8
躯体と製品
  6
Continuous
 62
     4
100
AcDbLine
 10
1741.01682816897
 20
860.726941251271
 30
0.0
 11
1741.816826168969
 21
861.5269392512708
 31
0.0
  0
LINE
  5
6FAA
330
1E
100
AcDbEntity
  8
躯体と製品
  6
Continuous
 62
     4
100
AcDbLine
 10
1741.01682816897
 20
862.1411548136446
 30
0.0
 11
1741.816826168969
 21
862.941152813644
 31
0.0
  0
LINE
  5
6FAB
330
1E
100
AcDbEntity
  8
躯体と製品
  6
Continuous
 62
     4
100
AcDbLine
 10
1741.01682816897
 20
863.5553683760177
 30
0.0
 11
1741.81682616897
 21
864.3553663760185
 31
0.0
  0
LINE
  5
6FAC
330
1E
100
AcDbEntity
  8
躯体と製品
  6
Continuous
 62
     4
100
AcDbLine
 10
1741.016828168969
 20
864.9695819383909
 30
0.0
 11
1741.81682616897
 21
865.7695799383915
 31
0.0
  0
LINE
  5
6FAD
330
1E
100
AcDbEntity
  8
躯体と製品
  6
Continuous
 62
     4
100
AcDbLine
 10
1741.016828168969
 20
866.3837955007641
 30
0.0
 11
1741.81682616897
 21
867.1837935007648
 31
0.0
  0
LINE
  5
6FAE
330
1E
100
AcDbEntity
  8
躯体と製品
  6
Continuous
 62
     4
100
AcDbLine
 10
1741.016828168969
 20
867.7980090631375
 30
0.0
 11
1741.81682616897
 21
868.598007063138
 31
0.0
  0
LINE
  5
6FAF
330
1E
100
AcDbEntity
  8
躯体と製品
  6
Continuous
 62
     4
100
AcDbLine
 10
1741.016828168969
 20
869.2122226255108
 30
0.0
 11
1741.81682616897
 21
870.0122206255114
 31
0.0
  0
LINE
  5
6FB0
330
1E
100
AcDbEntity
  8
躯体と製品
  6
Continuous
 62
     4
100
AcDbLine
 10
1741.016828168969
 20
870.6264361878799
 30
0.0
 11
1741.816826168969
 21
871.4264341878807
 31
0.0
  0
LINE
  5
6FB1
330
1E
100
AcDbEntity
  8
躯体と製品
  6
Continuous
 62
     4
100
AcDbLine
 10
1741.016828168969
 20
872.0406497502533
 30
0.0
 11
1741.816826168969
 21
872.8406477502542
 31
0.0
  0
LINE
  5
6FB2
330
1E
100
AcDbEntity
  8
躯体と製品
  6
Continuous
 62
     4
100
AcDbLine
 10
1741.016828168971
 20
873.4548633126285
 30
0.0
 11
1741.81682616897
 21
874.2548613126279
 31
0.0
  0
LINE
  5
6FB3
330
1E
100
AcDbEntity
  8
躯体と製品
  6
Continuous
 62
     4
100
AcDbLine
 10
1741.016828168971
 20
874.8690768750016
 30
0.0
 11
1741.81682616897
 21
875.6690748750015
 31
0.0
  0
LINE
  5
6FB4
330
1E
100
AcDbEntity
  8
躯体と製品
  6
Continuous
 62
     4
100
AcDbLine
 10
1741.016828168971
 20
876.2832904373752
 30
0.0
 11
1741.81682616897
 21
877.0832884373746
 31
0.0
  0
LINE
  5
6FB5
330
1E
100
AcDbEntity
  8
躯体と製品
  6
Continuous
 62
     4
100
AcDbLine
 10
1741.016828168971
 20
877.6975039997481
 30
0.0
 11
1741.706686523504
 21
878.3873623542822
 31
0.0
  0
LINE
  5
6FB6
330
1E
100
AcDbEntity
  8
躯体と製品
  6
Continuous
 62
     4
100
AcDbLine
 10
1740.26879919712
 20
878.3636885902708
 30
0.0
 11
1740.982524243933
 21
879.077413637084
 31
0.0
  0
LINE
  5
6FB7
330
1E
100
AcDbEntity
  8
躯体と製品
  6
Continuous
 62
     4
100
AcDbLine
 10
1738.854585634745
 20
878.36368859027
 30
0.0
 11
1739.654586634745
 21
879.1636895902698
 31
0.0
  0
LINE
  5
6FB8
330
1E
100
AcDbEntity
  8
躯体と製品
  6
Continuous
 62
     4
100
AcDbLine
 10
1737.440372072373
 20
878.3636885902701
 30
0.0
 11
1738.240373072372
 21
879.1636895902698
 31
0.0
  0
LINE
  5
6FB9
330
1E
100
AcDbEntity
  8
躯体と製品
  6
Continuous
 62
     4
100
AcDbLine
 10
1736.026158509999
 20
878.3636885902703
 30
0.0
 11
1736.826159509999
 21
879.1636895902701
 31
0.0
  0
LINE
  5
6FBA
330
1E
100
AcDbEntity
  8
躯体と製品
  6
Continuous
 62
     4
100
AcDbLine
 10
1734.611944947626
 20
878.3636885902707
 30
0.0
 11
1735.411945947626
 21
879.1636895902701
 31
0.0
  0
LINE
  5
6FBB
330
1E
100
AcDbEntity
  8
躯体と製品
  6
Continuous
 62
     4
100
AcDbLine
 10
1733.197731385252
 20
878.3636885902698
 30
0.0
 11
1733.997732385252
 21
879.1636895902705
 31
0.0
  0
LINE
  5
6FBC
330
1E
100
AcDbEntity
  8
躯体と製品
  6
Continuous
 62
     4
100
AcDbLine
 10
1731.783517822879
 20
878.36368859027
 30
0.0
 11
1732.583518822879
 21
879.1636895902705
 31
0.0
  0
LINE
  5
6FBD
330
1E
100
AcDbEntity
  8
躯体と製品
  6
Continuous
 62
     4
100
AcDbLine
 10
1730.369304260505
 20
878.3636885902696
 30
0.0
 11
1731.169305260506
 21
879.1636895902701
 31
0.0
  0
LINE
  5
6FBE
330
1E
100
AcDbEntity
  8
躯体と製品
  6
Continuous
 62
     4
100
AcDbLine
 10
1728.955090698132
 20
878.3636885902698
 30
0.0
 11
1729.755091698132
 21
879.1636895902692
 31
0.0
  0
LINE
  5
6FBF
330
1E
100
AcDbEntity
  8
躯体と製品
  6
Continuous
 62
     4
100
AcDbLine
 10
1727.540877135759
 20
878.3636885902698
 30
0.0
 11
1728.340878135758
 21
879.1636895902692
 31
0.0
  0
LINE
  5
6FC0
330
1E
100
AcDbEntity
  8
躯体と製品
  6
Continuous
 62
     4
100
AcDbLine
 10
1726.126663573386
 20
878.3636885902701
 30
0.0
 11
1726.926664573385
 21
879.1636895902698
 31
0.0
  0
LINE
  5
6FC1
330
1E
100
AcDbEntity
  8
躯体と製品
  6
Continuous
 62
     4
100
AcDbLine
 10
1724.712450011016
 20
878.3636885902703
 30
0.0
 11
1725.512451011016
 21
879.1636895902701
 31
0.0
  0
LINE
  5
6FC2
330
1E
100
AcDbEntity
  8
躯体と製品
  6
Continuous
 62
     4
100
AcDbLine
 10
1723.298236448643
 20
878.3636885902707
 30
0.0
 11
1724.098237448643
 21
879.1636895902701
 31
0.0
  0
LINE
  5
6FC3
330
1E
100
AcDbEntity
  8
躯体と製品
  6
Continuous
 62
     4
100
AcDbLine
 10
1721.901913674253
 20
878.3815793782542
 30
0.0
 11
1722.684023886269
 21
879.1636895902705
 31
0.0
  0
LINE
  5
6FC4
330
1E
100
AcDbEntity
  8
躯体と製品
  6
Continuous
 62
     4
100
AcDbLine
 10
1721.040605213862
 20
878.9344844802361
 30
0.0
 11
1721.635268894606
 21
879.5291481609801
 31
0.0
  0
LINE
  5
6FC5
330
1E
100
AcDbEntity
  8
躯体と製品
  6
Continuous
 62
     4
100
AcDbLine
 10
1720.816828773629
 20
880.124921602376
 30
0.0
 11
1721.616827168969
 21
880.9249199977168
 31
0.0
  0
LINE
  5
6FC6
330
1E
100
AcDbEntity
  8
躯体と製品
  6
Continuous
 62
     4
100
AcDbLine
 10
1720.816827561446
 20
881.5391339525671
 30
0.0
 11
1721.61682716897
 21
882.3391335600906
 31
0.0
  0
LINE
  5
6FC7
330
1E
100
AcDbEntity
  8
躯体と製品
  6
Continuous
 62
     4
100
AcDbLine
 10
1720.816826349263
 20
882.9533463027578
 30
0.0
 11
1721.027168636776
 21
883.1636885902698
 31
0.0
  0
LINE
  5
6FC8
330
1E
100
AcDbEntity
  8
躯体と製品
  6
Continuous
 62
     7
100
AcDbLine
 10
1713.61682616897
 20
885.8636885902704
 30
0.0
 11
1714.116826168969
 21
885.3636885902703
 31
0.0
  0
LINE
  5
6FC9
330
1E
100
AcDbEntity
  8
躯体と製品
  6
Continuous
 62
     7
100
AcDbLine
 10
1713.61682616897
 20
888.8636885902702
 30
0.0
 11
1714.11682616897
 21
889.3636885902704
 31
0.0
  0
LINE
  5
6FCA
330
1E
100
AcDbEntity
  8
躯体と製品
  6
Continuous
 62
     7
100
AcDbLine
 10
1713.61682616897
 20
888.8636885902702
 30
0.0
 11
1713.61682616897
 21
885.8636885902704
 31
0.0
  0
LINE
  5
6FCB
330
1E
100
AcDbEntity
  8
躯体と製品
  6
Continuous
 62
     4
100
AcDbLine
 10
1714.11682616897
 20
889.3636885902704
 30
0.0
 11
1714.11682616897
 21
885.3636885902703
 31
0.0
  0
LINE
  5
6FCC
330
1E
100
AcDbEntity
  8
躯体と製品
  6
Continuous
 62
     7
100
AcDbLine
 10
1722.11682616897
 20
889.3636885902704
 30
0.0
 11
1719.11682616897
 21
889.3636885902704
 31
0.0
  0
LINE
  5
6FCD
330
1E
100
AcDbEntity
  8
躯体と製品
  6
Continuous
 62
     4
100
AcDbLine
 10
1722.11682616897
 20
888.8636885902702
 30
0.0
 11
1713.61682616897
 21
888.8636885902702
 31
0.0
  0
LINE
  5
6FCE
330
1E
100
AcDbEntity
  8
躯体と製品
  6
Continuous
 62
     4
100
AcDbLine
 10
1722.11682616897
 20
885.8636885902704
 30
0.0
 11
1713.61682616897
 21
885.8636885902704
 31
0.0
  0
LINE
  5
6FCF
330
1E
100
AcDbEntity
  8
躯体と製品
  6
Continuous
 62
     7
100
AcDbLine
 10
1722.11682616897
 20
885.3636885902703
 30
0.0
 11
1719.11682616897
 21
885.3636885902703
 31
0.0
  0
LINE
  5
6FD0
330
1E
100
AcDbEntity
  8
躯体と製品
  6
Continuous
 62
     3
100
AcDbLine
 10
1713.316826168969
 20
892.5513445902705
 30
0.0
 11
1713.32917016897
 21
892.5636885902703
 31
0.0
  0
ARC
  5
6FD1
330
1E
100
AcDbEntity
  8
躯体と製品
  6
Continuous
 62
     3
100
AcDbCircle
 10
1721.116826168969
 20
890.3636885902704
 30
0.0
 40
1.0
100
AcDbArc
 50
0.0
 51
90.0
  0
LINE
  5
6FD2
330
1E
100
AcDbEntity
  8
躯体と製品
  6
Continuous
 62
     3
100
AcDbLine
 10
1721.116826168969
 20
892.5636885902703
 30
0.0
 11
1713.316826168969
 21
892.5636885902703
 31
0.0
  0
ARC
  5
6FD3
330
1E
100
AcDbEntity
  8
躯体と製品
  6
Continuous
 62
     3
100
AcDbCircle
 10
1721.116826168969
 20
890.3636885902704
 30
0.0
 40
2.2
100
AcDbArc
 50
0.0
 51
90.0
  0
LINE
  5
6FD4
330
1E
100
AcDbEntity
  8
躯体と製品
  6
Continuous
 62
     3
100
AcDbLine
 10
1722.11682616897
 20
881.5636885902703
 30
0.0
 11
1722.11682616897
 21
890.3636885902704
 31
0.0
  0
LINE
  5
6FD5
330
1E
100
AcDbEntity
  8
躯体と製品
  6
Continuous
 62
     3
100
AcDbLine
 10
1723.31682616897
 20
890.3636885902704
 30
0.0
 11
1723.31682616897
 21
881.5636885902703
 31
0.0
  0
ARC
  5
6FD6
330
1E
100
AcDbEntity
  8
躯体と製品
  6
Continuous
 62
     3
100
AcDbCircle
 10
1724.31682616897
 20
881.5636885902703
 30
0.0
 40
1.0
100
AcDbArc
 50
180.0
 51
270.0
  0
ARC
  5
6FD7
330
1E
100
AcDbEntity
  8
躯体と製品
  6
Continuous
 62
     3
100
AcDbCircle
 10
1741.11682616897
 20
878.3636885902703
 30
0.0
 40
1.0
100
AcDbArc
 50
0.0
 51
90.0
  0
ARC
  5
6FD8
330
1E
100
AcDbEntity
  8
躯体と製品
  6
Continuous
 62
     3
100
AcDbCircle
 10
1724.31682616897
 20
881.5636885902703
 30
0.0
 40
2.2
100
AcDbArc
 50
180.0
 51
270.0
  0
ARC
  5
6FD9
330
1E
100
AcDbEntity
  8
躯体と製品
  6
Continuous
 62
     3
100
AcDbCircle
 10
1741.11682616897
 20
878.3636885902703
 30
0.0
 40
2.2
100
AcDbArc
 50
0.0
 51
90.0
  0
LINE
  5
6FDA
330
1E
100
AcDbEntity
  8
躯体と製品
  6
Continuous
 62
     3
100
AcDbLine
 10
1713.316826168969
 20
891.3636885902704
 30
0.0
 11
1721.116826168969
 21
891.3636885902704
 31
0.0
  0
LINE
  5
6FDB
330
1E
100
AcDbEntity
  8
躯体と製品
  6
Continuous
 62
     3
100
AcDbLine
 10
1713.316826168969
 20
892.5636885902703
 30
0.0
 11
1713.316826168969
 21
891.3636885902704
 31
0.0
  0
LINE
  5
6FDC
330
1E
100
AcDbEntity
  8
躯体と製品
  6
Continuous
 62
     3
100
AcDbLine
 10
1724.31682616897
 20
879.3636885902701
 30
0.0
 11
1741.11682616897
 21
879.3636885902701
 31
0.0
  0
LINE
  5
6FDD
330
1E
100
AcDbEntity
  8
躯体と製品
  6
Continuous
 62
     3
100
AcDbLine
 10
1733.31682616897
 20
845.7636885902703
 30
0.0
 11
1733.31682616897
 21
844.5636885902704
 31
0.0
  0
ARC
  5
6FDE
330
1E
100
AcDbEntity
  8
躯体と製品
  6
Continuous
 62
     3
100
AcDbCircle
 10
1741.11682616897
 20
846.7636885902702
 30
0.0
 40
2.2
100
AcDbArc
 50
270.0
 51
0.0
  0
LINE
  5
6FDF
330
1E
100
AcDbEntity
  8
躯体と製品
  6
Continuous
 62
     3
100
AcDbLine
 10
1741.11682616897
 20
845.7636885902703
 30
0.0
 11
1733.31682616897
 21
845.7636885902703
 31
0.0
  0
ARC
  5
6FE0
330
1E
100
AcDbEntity
  8
躯体と製品
  6
Continuous
 62
     3
100
AcDbCircle
 10
1741.11682616897
 20
846.7636885902702
 30
0.0
 40
1.0
100
AcDbArc
 50
270.0
 51
0.0
  0
LINE
  5
6FE1
330
1E
100
AcDbEntity
  8
躯体と製品
  6
Continuous
 62
     3
100
AcDbLine
 10
1742.11682616897
 20
846.7636885902702
 30
0.0
 11
1742.11682616897
 21
878.3636885902703
 31
0.0
  0
LINE
  5
6FE2
330
1E
100
AcDbEntity
  8
躯体と製品
  6
DASHED1
 62
     4
100
AcDbLine
 10
1722.11682616897
 20
889.3636885902704
 30
0.0
 11
1723.31682616897
 21
889.3636885902704
 31
0.0
  0
LINE
  5
6FE3
330
1E
100
AcDbEntity
  8
躯体と製品
  6
DASHED1
 62
     4
100
AcDbLine
 10
1722.11682616897
 20
885.3636885902703
 30
0.0
 11
1723.31682616897
 21
885.3636885902703
 31
0.0
  0
POINT
  5
6FE4
330
1E
100
AcDbEntity
  8
躯体と製品
 62
     4
100
AcDbPoint
 10
1743.316826168969
 20
880.5636885902702
 30
0.0
  0
LINE
  5
6FE5
330
1E
100
AcDbEntity
  8
躯体と製品
  6
Continuous
 62
     7
100
AcDbLine
 10
1733.31682616897
 20
843.5636885902704
 30
0.0
 11
1742.31682616897
 21
843.5636885902704
 31
0.0
  0
ARC
  5
6FE6
330
1E
100
AcDbEntity
  8
躯体と製品
  6
Continuous
 62
     7
100
AcDbCircle
 10
1741.816826168969
 20
844.0636885902703
 30
0.0
 40
0.5
100
AcDbArc
 50
0.0
 51
90.0
  0
LINE
  5
6FE7
330
1E
100
AcDbEntity
  8
躯体と製品
  6
Continuous
 62
     7
100
AcDbLine
 10
1742.31682616897
 20
844.0636885902703
 30
0.0
 11
1742.31682616897
 21
843.5636885902704
 31
0.0
  0
LINE
  5
6FE8
330
1E
100
AcDbEntity
  8
躯体と製品
  6
Continuous
 62
     7
100
AcDbLine
 10
1733.616826168969
 20
844.5636885902704
 30
0.0
 11
1741.816826168969
 21
844.5636885902704
 31
0.0
  0
ARC
  5
6FE9
330
1E
100
AcDbEntity
  8
躯体と製品
  6
Continuous
 62
     7
100
AcDbCircle
 10
1733.31682616897
 20
844.5636885902704
 30
0.0
 40
1.0
100
AcDbArc
 50
180.0
 51
270.0
  0
ARC
  5
6FEA
330
1E
100
AcDbEntity
  8
躯体と製品
  6
Continuous
 62
     7
100
AcDbCircle
 10
1738.922100088361
 20
847.3033540603408
 30
0.0
 40
0.5
100
AcDbArc
 50
265.252681745971
 51
355.2526817422747
  0
ARC
  5
6FEB
330
1E
100
AcDbEntity
  8
躯体と製品
  6
Continuous
 62
     7
100
AcDbCircle
 10
1739.960050247036
 20
847.7188771861007
 30
0.0
 40
0.4999999999354556
100
AcDbArc
 50
355.2526817459748
 51
175.2526817459747
  0
LINE
  5
6FEC
330
1E
100
AcDbEntity
  8
躯体と製品
  6
Continuous
 62
     7
100
AcDbLine
 10
1740.375573372788
 20
846.6809270273287
 30
0.0
 11
1740.458334935735
 21
847.6774964046567
 31
0.0
  0
ARC
  5
6FED
330
1E
100
AcDbEntity
  8
躯体と製品
  6
Continuous
 62
     7
100
AcDbCircle
 10
1739.379003995525
 20
846.7636885902702
 30
0.0
 40
1.0
100
AcDbArc
 50
265.252681745971
 51
355.2526817422747
  0
LINE
  5
6FEE
330
1E
100
AcDbEntity
  8
躯体と製品
  6
Continuous
 62
     7
100
AcDbLine
 10
1739.420384776992
 20
847.26197327887
 30
0.0
 11
1739.461765558466
 21
847.7602579675339
 31
0.0
  0
LINE
  5
6FEF
330
1E
100
AcDbEntity
  8
躯体と製品
  6
Continuous
 62
     7
100
AcDbLine
 10
1732.31682616897
 20
846.2636885902705
 30
0.0
 11
1732.31682616897
 21
844.5636885902704
 31
0.0
  0
LINE
  5
6FF0
330
1E
100
AcDbEntity
  8
躯体と製品
  6
Continuous
 62
     7
100
AcDbLine
 10
1733.399587731847
 20
847.2602579675394
 30
0.0
 11
1738.880719306922
 21
846.8050693717062
 31
0.0
  0
ARC
  5
6FF1
330
1E
100
AcDbEntity
  8
躯体と製品
  6
Continuous
 62
     7
100
AcDbCircle
 10
1733.31682616897
 20
846.2636885902705
 30
0.0
 40
1.0
100
AcDbArc
 50
85.25268174597099
 51
180.0
  0
LINE
  5
6FF2
330
1E
100
AcDbEntity
  8
躯体と製品
  6
Continuous
 62
     7
100
AcDbLine
 10
1733.31682616897
 20
845.9377419213556
 30
0.0
 11
1733.31682616897
 21
844.8636885902704
 31
0.0
  0
LINE
  5
6FF3
330
1E
100
AcDbEntity
  8
躯体と製品
  6
Continuous
 62
     7
100
AcDbLine
 10
1733.641654637833
 20
846.2367127345364
 30
0.0
 11
1739.296242432647
 21
845.7671192130014
 31
0.0
  0
ARC
  5
6FF4
330
1E
100
AcDbEntity
  8
躯体と製品
  6
Continuous
 62
     7
100
AcDbCircle
 10
1733.616826168969
 20
845.9377419213556
 30
0.0
 40
0.2999999999999999
100
AcDbArc
 50
85.25268174597099
 51
180.0
  0
ARC
  5
6FF5
330
1E
100
AcDbEntity
  8
躯体と製品
  6
Continuous
 62
     7
100
AcDbCircle
 10
1725.382545743624
 20
886.4432098668661
 30
0.0
 40
0.4204787234042585
100
AcDbArc
 50
345.9042107558272
 51
90.0
  0
ARC
  5
6FF6
330
1E
100
AcDbEntity
  8
躯体と製品
  6
Continuous
 62
     7
100
AcDbCircle
 10
1723.31682616897
 20
888.8422600188416
 30
0.0
 40
2.021428571428586
100
AcDbArc
 50
42.74124453868362
 51
90.0
  0
ARC
  5
6FF7
330
1E
100
AcDbEntity
  8
躯体と製品
  6
Continuous
 62
     7
100
AcDbCircle
 10
1723.31682616897
 20
885.885117161699
 30
0.0
 40
2.021428571428568
100
AcDbArc
 50
270.0
 51
317.2587554613163
  0
LINE
  5
6FF8
330
1E
100
AcDbEntity
  8
躯体と製品
  6
Continuous
 62
     7
100
AcDbLine
 10
1723.31682616897
 20
883.8636885902701
 30
0.0
 11
1723.31682616897
 21
890.8636885902703
 31
0.0
  0
ARC
  5
6FF9
330
1E
100
AcDbEntity
  8
躯体と製品
  6
Continuous
 62
     7
100
AcDbCircle
 10
1725.382545743624
 20
888.2841673136745
 30
0.0
 40
0.4204787234042585
100
AcDbArc
 50
270.0
 51
14.0957892441728
  0
LINE
  5
6FFA
330
1E
100
AcDbEntity
  8
躯体と製品
  6
Continuous
 62
     7
100
AcDbLine
 10
1725.382545743624
 20
887.8636885902702
 30
0.0
 11
1725.382545743624
 21
886.8636885902704
 31
0.0
  0
ARC
  5
6FFB
330
1E
100
AcDbEntity
  8
躯体と製品
  6
Continuous
 62
     7
100
AcDbCircle
 10
1721.71682616897
 20
887.3636885902703
 30
0.0
 40
4.2
100
AcDbArc
 50
317.2587554613163
 51
345.9042107558272
  0
ARC
  5
6FFC
330
1E
100
AcDbEntity
  8
躯体と製品
  6
Continuous
 62
     7
100
AcDbCircle
 10
1721.71682616897
 20
887.3636885902703
 30
0.0
 40
4.2
100
AcDbArc
 50
14.0957892441728
 51
42.74124453868362
  0
ARC
  5
6FFD
330
1E
100
AcDbEntity
  8
躯体と製品
  6
Continuous
 62
     7
100
AcDbCircle
 10
1724.31682616897
 20
881.5636885902703
 30
0.0
 40
1.0
100
AcDbArc
 50
180.0
 51
270.0
  0
ARC
  5
6FFE
330
1E
100
AcDbEntity
  8
躯体と製品
  6
Continuous
 62
     7
100
AcDbCircle
 10
1726.31682616897
 20
881.5636885902703
 30
0.0
 40
1.0
100
AcDbArc
 50
270.0
 51
0.0
  0
LINE
  5
6FFF
330
1E
100
AcDbEntity
  8
躯体と製品
  6
Continuous
 62
     7
100
AcDbLine
 10
1724.31682616897
 20
880.5636885902702
 30
0.0
 11
1726.31682616897
 21
880.5636885902702
 31
0.0
  0
LINE
  5
7000
330
1E
100
AcDbEntity
  8
躯体と製品
  6
Continuous
 62
     7
100
AcDbLine
 10
1741.283421462473
 20
835.4141654723047
 30
0.0
 11
1741.425190886808
 21
838.1192872361937
 31
0.0
  0
LINE
  5
7001
330
1E
100
AcDbEntity
  8
躯体と製品
  6
Continuous
 62
     7
100
AcDbLine
 10
1881.091556328113
 20
828.0871315982926
 30
0.0
 11
1881.233325752449
 21
830.7922533621816
 31
0.0
  0
LINE
  5
7002
330
1E
100
AcDbEntity
  8
躯体と製品
  6
Continuous
 62
     4
100
AcDbLine
 10
1756.285741774929
 20
835.0656508478934
 30
0.0
 11
1753.885101639227
 21
837.4662909835944
 31
0.0
  0
LINE
  5
7003
330
1E
100
AcDbEntity
  8
躯体と製品
  6
Continuous
 62
     4
100
AcDbLine
 10
1755.25524587831
 20
834.6819331821389
 30
0.0
 11
1752.392673217534
 21
837.5445058429143
 31
0.0
  0
LINE
  5
7004
330
1E
100
AcDbEntity
  8
躯体と製品
  6
Continuous
 62
     4
100
AcDbLine
 10
1753.762817456619
 20
834.7601480414585
 30
0.0
 11
1750.900244795843
 21
837.622720702234
 31
0.0
  0
LINE
  5
7005
330
1E
100
AcDbEntity
  8
躯体と製品
  6
Continuous
 62
     4
100
AcDbLine
 10
1752.270389034926
 20
834.8383629007779
 30
0.0
 11
1749.40781637415
 21
837.7009355615539
 31
0.0
  0
LINE
  5
7006
330
1E
100
AcDbEntity
  8
躯体と製品
  6
Continuous
 62
     4
100
AcDbLine
 10
1750.777960613232
 20
834.9165777600978
 30
0.0
 11
1747.915387952456
 21
837.7791504208738
 31
0.0
  0
LINE
  5
7007
330
1E
100
AcDbEntity
  8
躯体と製品
  6
Continuous
 62
     4
100
AcDbLine
 10
1749.285532191539
 20
834.9947926194177
 30
0.0
 11
1746.422959530763
 21
837.8573652801936
 31
0.0
  0
LINE
  5
7008
330
1E
100
AcDbEntity
  8
躯体と製品
  6
Continuous
 62
     4
100
AcDbLine
 10
1747.793103769846
 20
835.0730074787373
 30
0.0
 11
1744.93053110907
 21
837.9355801395133
 31
0.0
  0
LINE
  5
7009
330
1E
100
AcDbEntity
  8
躯体と製品
  6
Continuous
 62
     4
100
AcDbLine
 10
1746.300675348153
 20
835.1512223380568
 30
0.0
 11
1743.438102687377
 21
838.0137949988332
 31
0.0
  0
LINE
  5
700A
330
1E
100
AcDbEntity
  8
躯体と製品
  6
Continuous
 62
     4
100
AcDbLine
 10
1744.80824692646
 20
835.2294371973773
 30
0.0
 11
1741.945674265684
 21
838.092009858153
 31
0.0
  0
LINE
  5
700B
330
1E
100
AcDbEntity
  8
躯体と製品
  6
Continuous
 62
     7
100
AcDbLine
 10
1756.262864483791
 20
834.6291261286605
 30
0.0
 11
1756.404633908127
 21
837.3342478925495
 31
0.0
  0
LINE
  5
700C
330
1E
100
AcDbEntity
  8
躯体と製品
  6
Continuous
 62
     4
100
AcDbLine
 10
1881.114433619251
 20
828.5236563175253
 30
0.0
 11
1878.713793483549
 21
830.9242964532264
 31
0.0
  0
LINE
  5
700D
330
1E
100
AcDbEntity
  8
躯体と製品
  6
Continuous
 62
     4
100
AcDbLine
 10
1880.083937722632
 20
828.1399386517707
 30
0.0
 11
1877.221365061856
 21
831.0025113125462
 31
0.0
  0
LINE
  5
700E
330
1E
100
AcDbEntity
  8
躯体と製品
  6
Continuous
 62
     4
100
AcDbLine
 10
1878.591509300941
 20
828.2181535110902
 30
0.0
 11
1875.728936640166
 21
831.0807261718661
 31
0.0
  0
LINE
  5
700F
330
1E
100
AcDbEntity
  8
躯体と製品
  6
Continuous
 62
     4
100
AcDbLine
 10
1877.099080879247
 20
828.29636837041
 30
0.0
 11
1874.236508218472
 21
831.1589410311858
 31
0.0
  0
LINE
  5
7010
330
1E
100
AcDbEntity
  8
躯体と製品
  6
Continuous
 62
     4
100
AcDbLine
 10
1875.606652457555
 20
828.3745832297299
 30
0.0
 11
1872.744079796779
 21
831.2371558905057
 31
0.0
  0
LINE
  5
7011
330
1E
100
AcDbEntity
  8
躯体と製品
  6
Continuous
 62
     4
100
AcDbLine
 10
1874.114224035862
 20
828.4527980890496
 30
0.0
 11
1871.251651375085
 21
831.3153707498255
 31
0.0
  0
LINE
  5
7012
330
1E
100
AcDbEntity
  8
躯体と製品
  6
Continuous
 62
     4
100
AcDbLine
 10
1872.621795614169
 20
828.5310129483695
 30
0.0
 11
1869.759222953392
 21
831.3935856091454
 31
0.0
  0
LINE
  5
7013
330
1E
100
AcDbEntity
  8
躯体と製品
  6
Continuous
 62
     4
100
AcDbLine
 10
1871.129367192475
 20
828.6092278076889
 30
0.0
 11
1868.2667945317
 21
831.4718004684653
 31
0.0
  0
LINE
  5
7014
330
1E
100
AcDbEntity
  8
躯体と製品
  6
Continuous
 62
     4
100
AcDbLine
 10
1869.636938770782
 20
828.6874426670092
 30
0.0
 11
1866.774366110007
 21
831.5500153277849
 31
0.0
  0
LINE
  5
7015
330
1E
100
AcDbEntity
  8
躯体と製品
  6
Continuous
 62
     7
100
AcDbLine
 10
1866.112113306795
 20
828.872170941937
 30
0.0
 11
1866.25388273113
 21
831.5772927058256
 31
0.0
  0
LINE
  5
7016
330
1E
100
AcDbEntity
  8
躯体と製品
  6
Continuous
 62
     4
100
AcDbLine
 10
1868.144510349089
 20
828.7656575263294
 30
0.0
 11
1866.20801841698
 21
830.7021494584379
 31
0.0
  0
LINE
  5
7017
330
1E
100
AcDbEntity
  8
躯体と製品
  6
Continuous
 62
     4
100
AcDbLine
 10
1743.315818504766
 20
835.3076520566972
 30
0.0
 11
1741.379326572658
 21
837.2441439888056
 31
0.0
  0
LINE
  5
7018
330
1E
100
AcDbEntity
  8
躯体と製品
  6
Continuous
 62
     4
100
AcDbLine
 10
1756.356166750584
 20
836.4094394346107
 30
0.0
 11
1755.37753006092
 21
837.3880761242746
 31
0.0
  0
LINE
  5
7019
330
1E
100
AcDbEntity
  8
躯体と製品
  6
Continuous
 62
     4
100
AcDbLine
 10
1881.184858594906
 20
829.8674449042433
 30
0.0
 11
1880.206221905242
 21
830.8460815939067
 31
0.0
  0
ARC
  5
701A
330
1E
100
AcDbEntity
  8
躯体と製品
  6
DASHED1
 62
     7
100
AcDbCircle
 10
1886.780005803241
 20
822.9912715833416
 30
0.0
 40
7.5
100
AcDbArc
 50
10.12467165539644
 51
86.99999999999441
  0
LINE
  5
701B
330
1E
100
AcDbEntity
  8
躯体と製品
  6
DASHED1
 62
     7
100
AcDbLine
 10
1908.116826168969
 20
746.1694654952425
 30
0.0
 11
1903.686902079245
 21
745.3784076217102
 31
0.0
  0
LINE
  5
701C
330
1E
100
AcDbEntity
  8
躯体と製品
  6
DASHED1
 62
     7
100
AcDbLine
 10
1889.733288529766
 20
823.5186434987925
 30
0.0
 11
1903.686902079181
 21
745.3784076220661
 31
0.0
  0
ARC
  5
701D
330
1E
100
AcDbEntity
  8
躯体と製品
  6
DASHED1
 62
     7
100
AcDbCircle
 10
1886.780005803241
 20
822.9912715833416
 30
0.0
 40
3.0
100
AcDbArc
 50
10.12467165539644
 51
86.99999999999441
  0
LINE
  5
701E
330
1E
100
AcDbEntity
  8
躯体と製品
  6
DASHED1
 62
     7
100
AcDbLine
 10
1894.163212619554
 20
824.3097013719689
 30
0.0
 11
1908.116826168969
 21
746.1694654952425
 31
0.0
  0
LINE
  5
701F
330
1E
100
AcDbEntity
  8
躯体と製品
  6
DASHED1
 62
     7
100
AcDbLine
 10
1718.11682616897
 20
842.1877205699187
 30
0.0
 11
1718.11682616897
 21
854.3408268697742
 31
0.0
  0
LINE
  5
7020
330
1E
100
AcDbEntity
  8
躯体と製品
  6
DASHED1
 62
     7
100
AcDbLine
 10
1718.11682616897
 20
854.3408268697742
 30
0.0
 11
1713.61682616897
 21
854.3408268697742
 31
0.0
  0
LINE
  5
7021
330
1E
100
AcDbEntity
  8
躯体と製品
  6
DASHED1
 62
     7
100
AcDbLine
 10
1713.61682616897
 20
842.1877205699184
 30
0.0
 11
1713.61682616897
 21
854.3408268697742
 31
0.0
  0
ARC
  5
7022
330
1E
100
AcDbEntity
  8
躯体と製品
  6
DASHED1
 62
     7
100
AcDbCircle
 10
1721.116826168969
 20
842.1877205699187
 30
0.0
 40
3.0
100
AcDbArc
 50
180.0
 51
266.9999999999944
  0
ARC
  5
7023
330
1E
100
AcDbEntity
  8
躯体と製品
  6
DASHED1
 62
     7
100
AcDbCircle
 10
1721.116826168969
 20
842.1877205699184
 30
0.0
 40
7.5
100
AcDbArc
 50
180.0
 51
266.9999999999944
  0
LINE
  5
7024
330
1E
100
AcDbEntity
  8
躯体と製品
  6
DASHED1
 62
     7
100
AcDbLine
 10
1720.959818300241
 20
839.191831965655
 30
0.0
 11
1741.425190886808
 21
838.1192872361932
 31
0.0
  0
LINE
  5
7025
330
1E
100
AcDbEntity
  8
躯体と製品
  6
DASHED1
 62
     7
100
AcDbLine
 10
1720.724306497147
 20
834.697999059259
 30
0.0
 11
1741.189679083715
 21
833.625454329797
 31
0.0
  0
LINE
  5
7026
330
1E
100
AcDbEntity
  8
躯体と製品
  6
DASHED1
 62
     7
100
AcDbLine
 10
1880.997813949355
 20
826.2984204557856
 30
0.0
 11
1886.93701367197
 21
825.9871601876053
 31
0.0
  0
LINE
  5
7027
330
1E
100
AcDbEntity
  8
躯体と製品
  6
Continuous
 62
     7
100
AcDbLine
 10
1742.31682616897
 20
843.5636885902704
 30
0.0
 11
1740.875583739411
 21
841.5209403778758
 31
0.0
  0
ARC
  5
7028
330
1E
100
AcDbEntity
  8
躯体と製品
  6
Continuous
 62
     7
100
AcDbCircle
 10
1733.069759270934
 20
843.1856617589296
 30
0.0
 40
0.4
100
AcDbArc
 50
52.79118025767639
 51
232.7911802277301
  0
LINE
  5
7029
330
1E
100
AcDbEntity
  8
躯体と製品
  6
Continuous
 62
     7
100
AcDbLine
 10
1741.337752983216
 20
843.5636885902704
 30
0.0
 11
1740.221904311445
 21
841.9821379553344
 31
0.0
  0
LINE
  5
702A
330
1E
100
AcDbEntity
  8
躯体と製品
  6
Continuous
 62
     7
100
AcDbLine
 10
1734.472491850214
 20
842.622826344812
 30
0.0
 11
1733.311647959083
 21
843.5042364951311
 31
0.0
  0
ARC
  5
702B
330
1E
100
AcDbEntity
  8
躯体と製品
  6
Continuous
 62
     7
100
AcDbCircle
 10
1737.60718659958
 20
843.826928265169
 30
0.0
 40
3.2
100
AcDbArc
 50
210.6887361282592
 51
324.7954664105825
  0
ARC
  5
702C
330
1E
100
AcDbEntity
  8
躯体と製品
  6
Continuous
 62
     7
100
AcDbCircle
 10
1733.565409269345
 20
841.4281710842935
 30
0.0
 40
1.5
100
AcDbArc
 50
30.68873612825923
 51
52.79118024269708
  0
LINE
  5
702D
330
1E
100
AcDbEntity
  8
躯体と製品
  6
Continuous
 62
     7
100
AcDbLine
 10
1733.988714473751
 20
841.9856768725354
 30
0.0
 11
1732.827870582619
 21
842.8670870228543
 31
0.0
  0
ARC
  5
702E
330
1E
100
AcDbEntity
  8
躯体と製品
  6
Continuous
 62
     7
100
AcDbCircle
 10
1737.60718659958
 20
843.826928265169
 30
0.0
 40
4.0
100
AcDbArc
 50
210.6887361282592
 51
324.7954664105825
  0
ARC
  5
702F
330
1E
100
AcDbEntity
  8
躯体と製品
  6
Continuous
 62
     7
100
AcDbCircle
 10
1733.565409269345
 20
841.4281710842935
 30
0.0
 40
0.6999999999999999
100
AcDbArc
 50
30.68873612825923
 51
52.79118024270744
  0
TEXT
  5
7034
330
1E
100
AcDbEntity
  8
図枠
 62
     7
100
AcDbText
 10
1599.61682616897
 20
638.0920387169608
 30
0.0
 40
5.0
  1
部材名称
100
AcDbText
  0
TEXT
  5
7035
330
1E
100
AcDbEntity
  8
図枠
 62
     7
100
AcDbText
 10
1700.616826168969
 20
638.0920387169608
 30
0.0
 40
5.0
  1
規　格
100
AcDbText
  0
TEXT
  5
7036
330
1E
100
AcDbEntity
  8
図枠
 62
     7
100
AcDbText
 10
1568.116826168969
 20
611.0920387169608
 30
0.0
 40
5.0
  1
ＦＹＹフレーム
100
AcDbText
  0
TEXT
  5
7037
330
1E
100
AcDbEntity
  8
図枠
 62
     7
100
AcDbText
 10
1568.116826168969
 20
602.0920387169608
 30
0.0
 40
5.0
  1
ＦＹＫ壁フレーム
100
AcDbText
  0
TEXT
  5
7038
330
1E
100
AcDbEntity
  8
図枠
 62
     7
100
AcDbText
 10
1568.116826168969
 20
584.0920387169608
 30
0.0
 40
5.0
  1
ＦＹＫホルダー
100
AcDbText
  0
TEXT
  5
7039
330
1E
100
AcDbEntity
  8
図枠
 62
     7
100
AcDbText
 10
1568.116826168969
 20
575.0920387169608
 30
0.0
 40
5.0
  1
ＦＹＹホルダースプリング
100
AcDbText
  0
TEXT
  5
703A
330
1E
100
AcDbEntity
  8
図枠
 62
     7
100
AcDbText
 10
1568.116826168969
 20
566.0920387169608
 30
0.0
 40
5.0
  1
ＦＹＹフレームナット
100
AcDbText
  0
TEXT
  5
703B
330
1E
100
AcDbEntity
  8
図枠
 62
     7
100
AcDbText
 10
1568.116826168969
 20
557.0920387169608
 30
0.0
 40
5.0
  1
ＦＹＫ水切ジョイント
100
AcDbText
  0
TEXT
  5
703C
330
1E
100
AcDbEntity
  8
図枠
 62
     7
100
AcDbText
 10
1568.116826168969
 20
548.0920387169608
 30
0.0
 40
5.0
  1
ＦＹＫｻｲﾄﾞｷｬｯﾌﾟ ｼﾞｮｲﾝﾄ
100
AcDbText
  0
TEXT
  5
703D
330
1E
100
AcDbEntity
  8
図枠
 62
     7
100
AcDbText
 10
1568.11682616897
 20
539.0920387169607
 30
0.0
 40
5.0
  1
止水補助板
100
AcDbText
  0
TEXT
  5
703E
330
1E
100
AcDbEntity
  8
図枠
 62
     7
100
AcDbText
 10
1668.11682616897
 20
539.0920387169607
 30
0.0
 40
5.0
  1
ＰＳ
100
AcDbText
  0
TEXT
  5
703F
330
1E
100
AcDbEntity
  8
図枠
 62
     7
100
AcDbText
 10
1568.11682616897
 20
530.0920387169607
 30
0.0
 40
5.0
  1
止水補助板
100
AcDbText
  0
TEXT
  5
7040
330
1E
100
AcDbEntity
  8
図枠
 62
     7
100
AcDbText
 10
1568.116826168969
 20
521.0920387169607
 30
0.0
 40
5.0
  1
ガスケットＮ
100
AcDbText
  0
TEXT
  5
7041
330
1E
100
AcDbEntity
  8
図枠
 62
     7
100
AcDbText
 10
1568.116826168969
 20
512.0920387169607
 30
0.0
 40
5.0
  1
ステン小ネジ
100
AcDbText
  0
TEXT
  5
7042
330
1E
100
AcDbEntity
  8
図枠
 62
     7
100
AcDbText
 10
1668.11682616897
 20
512.0920387169607
 30
0.0
 40
5.0
  1
ナベＭ6×35
100
AcDbText
  0
TEXT
  5
7043
330
1E
100
AcDbEntity
  8
図枠
 62
     7
100
AcDbText
 10
1568.116826168969
 20
503.0920387169607
 30
0.0
 40
5.0
  1
ステン小ネジ
100
AcDbText
  0
TEXT
  5
7044
330
1E
100
AcDbEntity
  8
図枠
 62
     7
100
AcDbText
 10
1668.11682616897
 20
503.0920387169607
 30
0.0
 40
5.0
  1
ナベＭ4×10
100
AcDbText
  0
TEXT
  5
7045
330
1E
100
AcDbEntity
  8
図枠
 62
     7
100
AcDbText
 10
1568.116826168969
 20
494.0920387169606
 30
0.0
 40
5.0
  1
ステン六角ボルト
100
AcDbText
  0
TEXT
  5
7046
330
1E
100
AcDbEntity
  8
図枠
 62
     7
100
AcDbText
 10
1668.11682616897
 20
494.0920387169606
 30
0.0
 40
5.0
  1
Ｍ6×40
100
AcDbText
  0
TEXT
  5
7047
330
1E
100
AcDbEntity
  8
図枠
 62
     7
100
AcDbText
 10
1568.116826168969
 20
485.0920387169607
 30
0.0
 40
5.0
  1
アジャストアンカー
100
AcDbText
  0
TEXT
  5
7048
330
1E
100
AcDbEntity
  8
図枠
 62
     7
100
AcDbText
 10
1668.11682616897
 20
485.0920387169607
 30
0.0
 40
5.0
  1
ＡＧ－660
100
AcDbText
  0
TEXT
  5
7049
330
1E
100
AcDbEntity
  8
図枠
 62
     7
100
AcDbText
 10
1568.116826168969
 20
476.0920387169607
 30
0.0
 40
5.0
  1
アンカープラグ
100
AcDbText
  0
TEXT
  5
704A
330
1E
100
AcDbEntity
  8
図枠
 62
     7
100
AcDbText
 10
1668.11682616897
 20
476.0920387169607
 30
0.0
 40
5.0
  1
フィッシャープラグ　Ｓ8
100
AcDbText
  0
TEXT
  5
704B
330
1E
100
AcDbEntity
  8
図枠
 62
     7
100
AcDbText
 10
1568.116826168969
 20
467.0920387169608
 30
0.0
 40
5.0
  1
ステンタッピンねじ
100
AcDbText
  0
TEXT
  5
704C
330
1E
100
AcDbEntity
  8
図枠
 62
     7
100
AcDbText
 10
1668.11682616897
 20
467.0920387169608
 30
0.0
 40
5.0
  1
ナベ 5×50
100
AcDbText
  0
TEXT
  5
704D
330
1E
100
AcDbEntity
  8
図枠
 62
     7
100
AcDbText
 10
1568.116826168969
 20
458.0920387169607
 30
0.0
 40
5.0
  1
ステスワッシャー
100
AcDbText
  0
TEXT
  5
704E
330
1E
100
AcDbEntity
  8
図枠
 62
     7
100
AcDbText
 10
1668.11682616897
 20
458.0920387169607
 30
0.0
 40
5.0
  1
1.5×18×6.5穴
100
AcDbText
  0
TEXT
  5
704F
330
1E
100
AcDbEntity
  8
図枠
 62
     7
100
AcDbText
 10
1568.116826168969
 20
449.0920387169607
 30
0.0
 40
5.0
  1
ステンワッシャー
100
AcDbText
  0
TEXT
  5
7050
330
1E
100
AcDbEntity
  8
図枠
 62
     7
100
AcDbText
 10
1668.11682616897
 20
449.0920387169607
 30
0.0
 40
5.0
  1
1.5×18×5.5穴
100
AcDbText
  0
TEXT
  5
7051
330
1E
100
AcDbEntity
  8
図枠
 62
     7
100
AcDbText
 10
1568.116826168969
 20
440.0920387169606
 30
0.0
 40
5.0
  1
ブチルテープ
100
AcDbText
  0
TEXT
  5
7052
330
1E
100
AcDbEntity
  8
図枠
 62
     7
100
AcDbText
 10
1668.11682616897
 20
440.0920387169606
 30
0.0
 40
5.0
  1
ｔ1.0×ｗ30
100
AcDbText
  0
TEXT
  5
7053
330
1E
100
AcDbEntity
  8
図枠
 62
     7
100
AcDbText
 10
1551.11682616897
 20
638.0920387169608
 30
0.0
 40
5.0
  1
No.
100
AcDbText
  0
TEXT
  5
7054
330
1E
100
AcDbEntity
  8
図枠
 62
     7
100
AcDbText
 10
1552.866826168969
 20
629.0920387169606
 30
0.0
 40
5.0
  1
 1
100
AcDbText
  0
TEXT
  5
7055
330
1E
100
AcDbEntity
  8
図枠
 62
     7
100
AcDbText
 10
1552.866826168969
 20
620.0920387169608
 30
0.0
 40
5.0
  1
 2
100
AcDbText
  0
TEXT
  5
7056
330
1E
100
AcDbEntity
  8
図枠
 62
     7
100
AcDbText
 10
1552.866826168969
 20
611.0920387169608
 30
0.0
 40
5.0
  1
 3
100
AcDbText
  0
TEXT
  5
7057
330
1E
100
AcDbEntity
  8
図枠
 62
     7
100
AcDbText
 10
1552.866826168969
 20
602.0920387169608
 30
0.0
 40
5.0
  1
 4
100
AcDbText
  0
TEXT
  5
7058
330
1E
100
AcDbEntity
  8
図枠
 62
     7
100
AcDbText
 10
1552.866826168969
 20
593.0920387169607
 30
0.0
 40
5.0
  1
 5
100
AcDbText
  0
TEXT
  5
7059
330
1E
100
AcDbEntity
  8
図枠
 62
     7
100
AcDbText
 10
1552.866826168969
 20
584.0920387169608
 30
0.0
 40
5.0
  1
 6
100
AcDbText
  0
TEXT
  5
705A
330
1E
100
AcDbEntity
  8
図枠
 62
     7
100
AcDbText
 10
1552.866826168969
 20
575.0920387169608
 30
0.0
 40
5.0
  1
 7
100
AcDbText
  0
TEXT
  5
705B
330
1E
100
AcDbEntity
  8
図枠
 62
     7
100
AcDbText
 10
1552.866826168969
 20
566.0920387169608
 30
0.0
 40
5.0
  1
 8
100
AcDbText
  0
TEXT
  5
705C
330
1E
100
AcDbEntity
  8
図枠
 62
     7
100
AcDbText
 10
1552.866826168969
 20
557.0920387169608
 30
0.0
 40
5.0
  1
 9
100
AcDbText
  0
TEXT
  5
705D
330
1E
100
AcDbEntity
  8
図枠
 62
     7
100
AcDbText
 10
1552.866826168969
 20
548.0920387169608
 30
0.0
 40
5.0
  1
10
100
AcDbText
  0
TEXT
  5
705E
330
1E
100
AcDbEntity
  8
図枠
 62
     7
100
AcDbText
 10
1552.866826168969
 20
539.0920387169607
 30
0.0
 40
5.0
  1
11
100
AcDbText
  0
TEXT
  5
705F
330
1E
100
AcDbEntity
  8
図枠
 62
     7
100
AcDbText
 10
1552.866826168969
 20
530.0920387169607
 30
0.0
 40
5.0
  1
12
100
AcDbText
  0
TEXT
  5
7060
330
1E
100
AcDbEntity
  8
図枠
 62
     7
100
AcDbText
 10
1552.866826168969
 20
521.0920387169607
 30
0.0
 40
5.0
  1
13
100
AcDbText
  0
TEXT
  5
7061
330
1E
100
AcDbEntity
  8
図枠
 62
     7
100
AcDbText
 10
1552.866826168969
 20
512.0920387169607
 30
0.0
 40
5.0
  1
14
100
AcDbText
  0
TEXT
  5
7062
330
1E
100
AcDbEntity
  8
図枠
 62
     7
100
AcDbText
 10
1552.866826168969
 20
503.0920387169607
 30
0.0
 40
5.0
  1
15
100
AcDbText
  0
TEXT
  5
7063
330
1E
100
AcDbEntity
  8
図枠
 62
     7
100
AcDbText
 10
1552.866826168969
 20
494.0920387169606
 30
0.0
 40
5.0
  1
16
100
AcDbText
  0
TEXT
  5
7064
330
1E
100
AcDbEntity
  8
図枠
 62
     7
100
AcDbText
 10
1552.866826168969
 20
485.0920387169607
 30
0.0
 40
5.0
  1
17
100
AcDbText
  0
TEXT
  5
7065
330
1E
100
AcDbEntity
  8
図枠
 62
     7
100
AcDbText
 10
1552.866826168969
 20
476.0920387169607
 30
0.0
 40
5.0
  1
18
100
AcDbText
  0
TEXT
  5
7066
330
1E
100
AcDbEntity
  8
図枠
 62
     7
100
AcDbText
 10
1552.866826168969
 20
467.0920387169608
 30
0.0
 40
5.0
  1
19
100
AcDbText
  0
TEXT
  5
7067
330
1E
100
AcDbEntity
  8
図枠
 62
     7
100
AcDbText
 10
1552.866826168969
 20
458.0920387169607
 30
0.0
 40
5.0
  1
20
100
AcDbText
  0
TEXT
  5
7068
330
1E
100
AcDbEntity
  8
図枠
 62
     7
100
AcDbText
 10
1552.866826168969
 20
449.0920387169607
 30
0.0
 40
5.0
  1
21
100
AcDbText
  0
TEXT
  5
7069
330
1E
100
AcDbEntity
  8
図枠
 62
     7
100
AcDbText
 10
1553.11682616897
 20
440.0920387169606
 30
0.0
 40
5.0
  1
※
100
AcDbText
  0
TEXT
  5
706A
330
1E
100
AcDbEntity
  8
図枠
 62
     7
100
AcDbText
 10
1668.11682616897
 20
584.0920387169608
 30
0.0
 40
5.0
  1
50ＦＹＫＨ－200～475
100
AcDbText
  0
TEXT
  5
706B
330
1E
100
AcDbEntity
  8
図枠
 62
     7
100
AcDbText
 10
1668.11682616897
 20
557.0920387169608
 30
0.0
 40
5.0
  1
50ＦＹＫＪ－200～475
100
AcDbText
  0
TEXT
  5
706C
330
1E
100
AcDbEntity
  8
図枠
 62
     7
100
AcDbText
 10
1568.116826168969
 20
629.0920387169606
 30
0.0
 40
5.0
  1
ＦＹＫキャップＳ
100
AcDbText
  0
TEXT
  5
706D
330
1E
100
AcDbEntity
  8
図枠
 62
     7
100
AcDbText
 10
1568.116826168969
 20
620.0920387169608
 30
0.0
 40
5.0
  1
ＦＹＫサイドキャップＳ
100
AcDbText
  0
TEXT
  5
706E
330
1E
100
AcDbEntity
  8
図枠
 62
     7
100
AcDbText
 10
1668.11682616897
 20
629.0920387169606
 30
0.0
 40
5.0
  1
50ＦＹＫ－Ｓ200～475
100
AcDbText
  0
TEXT
  5
706F
330
1E
100
AcDbEntity
  8
図枠
 62
     7
100
AcDbText
 10
1762.86682616897
 20
638.0920387169608
 30
0.0
 40
5.0
  1
定尺(mm)
100
AcDbText
  0
TEXT
  5
7070
330
1E
100
AcDbEntity
  8
図枠
 62
     7
100
AcDbText
 10
1769.86682616897
 20
629.0920387169606
 30
0.0
 40
5.0
  1
2000
100
AcDbText
  0
TEXT
  5
7071
330
1E
100
AcDbEntity
  8
図枠
 62
     7
100
AcDbText
 10
1769.86682616897
 20
620.0920387169608
 30
0.0
 40
5.0
  1
2000
100
AcDbText
  0
TEXT
  5
7072
330
1E
100
AcDbEntity
  8
図枠
 62
     7
100
AcDbText
 10
1769.86682616897
 20
611.0920387169608
 30
0.0
 40
5.0
  1
2000
100
AcDbText
  0
TEXT
  5
7073
330
1E
100
AcDbEntity
  8
図枠
 62
     7
100
AcDbText
 10
1769.86682616897
 20
602.0920387169608
 30
0.0
 40
5.0
  1
2000
100
AcDbText
  0
TEXT
  5
7074
330
1E
100
AcDbEntity
  8
図枠
 62
     7
100
AcDbText
 10
1769.86682616897
 20
593.0920387169607
 30
0.0
 40
5.0
  1
2010
100
AcDbText
  0
TEXT
  5
7075
330
1E
100
AcDbEntity
  8
図枠
 62
     7
100
AcDbText
 10
1769.86682616897
 20
539.0920387169607
 30
0.0
 40
5.0
  1
2060
100
AcDbText
  0
TEXT
  5
7076
330
1E
100
AcDbEntity
  8
図枠
 62
     7
100
AcDbText
 10
1769.86682616897
 20
530.0920387169607
 30
0.0
 40
5.0
  1
2100
100
AcDbText
  0
TEXT
  5
7077
330
1E
100
AcDbEntity
  8
図枠
 62
     7
100
AcDbText
 10
1769.86682616897
 20
521.0920387169607
 30
0.0
 40
5.0
  1
2000
100
AcDbText
  0
TEXT
  5
7078
330
1E
100
AcDbEntity
  8
図枠
 62
     7
100
AcDbText
 10
1769.86682616897
 20
440.0920387169606
 30
0.0
 40
5.0
  1
6000
100
AcDbText
  0
TEXT
  5
7079
330
1E
100
AcDbEntity
  8
図枠
 62
     7
100
AcDbText
 10
1796.61682616897
 20
638.0920387169608
 30
0.0
 40
5.0
  1
入数
100
AcDbText
  0
TEXT
  5
707A
330
1E
100
AcDbEntity
  8
図枠
 62
     7
100
AcDbText
 10
1799.86682616897
 20
629.0920387169606
 30
0.0
 40
5.0
  1
 1
100
AcDbText
  0
TEXT
  5
707B
330
1E
100
AcDbEntity
  8
図枠
 62
     7
100
AcDbText
 10
1799.86682616897
 20
620.0920387169608
 30
0.0
 40
5.0
  1
 1
100
AcDbText
  0
TEXT
  5
707C
330
1E
100
AcDbEntity
  8
図枠
 62
     7
100
AcDbText
 10
1799.86682616897
 20
611.0920387169608
 30
0.0
 40
5.0
  1
 1
100
AcDbText
  0
TEXT
  5
707D
330
1E
100
AcDbEntity
  8
図枠
 62
     7
100
AcDbText
 10
1799.86682616897
 20
602.0920387169608
 30
0.0
 40
5.0
  1
 1
100
AcDbText
  0
TEXT
  5
707E
330
1E
100
AcDbEntity
  8
図枠
 62
     7
100
AcDbText
 10
1799.86682616897
 20
593.0920387169607
 30
0.0
 40
5.0
  1
 1
100
AcDbText
  0
TEXT
  5
707F
330
1E
100
AcDbEntity
  8
図枠
 62
     7
100
AcDbText
 10
1799.86682616897
 20
584.0920387169608
 30
0.0
 40
5.0
  1
 4
100
AcDbText
  0
TEXT
  5
7080
330
1E
100
AcDbEntity
  8
図枠
 62
     7
100
AcDbText
 10
1799.86682616897
 20
575.0920387169608
 30
0.0
 40
5.0
  1
 4
100
AcDbText
  0
TEXT
  5
7081
330
1E
100
AcDbEntity
  8
図枠
 62
     7
100
AcDbText
 10
1799.86682616897
 20
566.0920387169608
 30
0.0
 40
5.0
  1
 4
100
AcDbText
  0
TEXT
  5
7082
330
1E
100
AcDbEntity
  8
図枠
 62
     7
100
AcDbText
 10
1799.86682616897
 20
557.0920387169608
 30
0.0
 40
5.0
  1
 1
100
AcDbText
  0
TEXT
  5
7083
330
1E
100
AcDbEntity
  8
図枠
 62
     7
100
AcDbText
 10
1799.86682616897
 20
548.0920387169608
 30
0.0
 40
5.0
  1
 1
100
AcDbText
  0
TEXT
  5
7084
330
1E
100
AcDbEntity
  8
図枠
 62
     7
100
AcDbText
 10
1799.86682616897
 20
539.0920387169607
 30
0.0
 40
5.0
  1
 1
100
AcDbText
  0
TEXT
  5
7085
330
1E
100
AcDbEntity
  8
図枠
 62
     7
100
AcDbText
 10
1799.86682616897
 20
530.0920387169607
 30
0.0
 40
5.0
  1
 1
100
AcDbText
  0
TEXT
  5
7086
330
1E
100
AcDbEntity
  8
図枠
 62
     7
100
AcDbText
 10
1799.86682616897
 20
521.0920387169607
 30
0.0
 40
5.0
  1
 1
100
AcDbText
  0
TEXT
  5
7087
330
1E
100
AcDbEntity
  8
図枠
 62
     7
100
AcDbText
 10
1799.86682616897
 20
512.0920387169607
 30
0.0
 40
5.0
  1
 4
100
AcDbText
  0
TEXT
  5
7088
330
1E
100
AcDbEntity
  8
図枠
 62
     7
100
AcDbText
 10
1799.86682616897
 20
503.0920387169607
 30
0.0
 40
5.0
  1
 5
100
AcDbText
  0
TEXT
  5
7089
330
1E
100
AcDbEntity
  8
図枠
 62
     7
100
AcDbText
 10
1799.86682616897
 20
494.0920387169606
 30
0.0
 40
5.0
  1
 5
100
AcDbText
  0
TEXT
  5
708A
330
1E
100
AcDbEntity
  8
図枠
 62
     7
100
AcDbText
 10
1799.86682616897
 20
485.0920387169607
 30
0.0
 40
5.0
  1
 5
100
AcDbText
  0
TEXT
  5
708B
330
1E
100
AcDbEntity
  8
図枠
 62
     7
100
AcDbText
 10
1799.86682616897
 20
476.0920387169607
 30
0.0
 40
5.0
  1
 5
100
AcDbText
  0
TEXT
  5
708C
330
1E
100
AcDbEntity
  8
図枠
 62
     7
100
AcDbText
 10
1799.86682616897
 20
467.0920387169608
 30
0.0
 40
5.0
  1
 5
100
AcDbText
  0
TEXT
  5
708D
330
1E
100
AcDbEntity
  8
図枠
 62
     7
100
AcDbText
 10
1799.86682616897
 20
458.0920387169607
 30
0.0
 40
5.0
  1
 5
100
AcDbText
  0
TEXT
  5
708E
330
1E
100
AcDbEntity
  8
図枠
 62
     7
100
AcDbText
 10
1799.86682616897
 20
449.0920387169607
 30
0.0
 40
5.0
  1
 5
100
AcDbText
  0
TEXT
  5
708F
330
1E
100
AcDbEntity
  8
図枠
 62
     7
100
AcDbText
 10
1799.86682616897
 20
440.0920387169606
 30
0.0
 40
5.0
  1
 1
100
AcDbText
  0
TEXT
  5
7090
330
1E
100
AcDbEntity
  8
図枠
 62
     7
100
AcDbText
 10
1816.11682616897
 20
629.0920387169606
 30
0.0
 40
5.0
  1
本
100
AcDbText
  0
TEXT
  5
7091
330
1E
100
AcDbEntity
  8
図枠
 62
     7
100
AcDbText
 10
1816.11682616897
 20
620.0920387169608
 30
0.0
 40
5.0
  1
〃
100
AcDbText
  0
TEXT
  5
7092
330
1E
100
AcDbEntity
  8
図枠
 62
     7
100
AcDbText
 10
1816.11682616897
 20
611.0920387169608
 30
0.0
 40
5.0
  1
〃
100
AcDbText
  0
TEXT
  5
7093
330
1E
100
AcDbEntity
  8
図枠
 62
     7
100
AcDbText
 10
1816.11682616897
 20
602.0920387169608
 30
0.0
 40
5.0
  1
〃
100
AcDbText
  0
TEXT
  5
7094
330
1E
100
AcDbEntity
  8
図枠
 62
     7
100
AcDbText
 10
1816.11682616897
 20
593.0920387169607
 30
0.0
 40
5.0
  1
〃
100
AcDbText
  0
TEXT
  5
7095
330
1E
100
AcDbEntity
  8
図枠
 62
     7
100
AcDbText
 10
1816.11682616897
 20
584.0920387169608
 30
0.0
 40
5.0
  1
〃
100
AcDbText
  0
TEXT
  5
7096
330
1E
100
AcDbEntity
  8
図枠
 62
     7
100
AcDbText
 10
1816.11682616897
 20
575.0920387169608
 30
0.0
 40
5.0
  1
〃
100
AcDbText
  0
TEXT
  5
7097
330
1E
100
AcDbEntity
  8
図枠
 62
     7
100
AcDbText
 10
1816.11682616897
 20
566.0920387169608
 30
0.0
 40
5.0
  1
〃
100
AcDbText
  0
TEXT
  5
7098
330
1E
100
AcDbEntity
  8
図枠
 62
     7
100
AcDbText
 10
1816.11682616897
 20
557.0920387169608
 30
0.0
 40
5.0
  1
〃
100
AcDbText
  0
TEXT
  5
7099
330
1E
100
AcDbEntity
  8
図枠
 62
     7
100
AcDbText
 10
1816.11682616897
 20
548.0920387169608
 30
0.0
 40
5.0
  1
〃
100
AcDbText
  0
TEXT
  5
709A
330
1E
100
AcDbEntity
  8
図枠
 62
     7
100
AcDbText
 10
1816.11682616897
 20
539.0920387169607
 30
0.0
 40
5.0
  1
枚
100
AcDbText
  0
TEXT
  5
709B
330
1E
100
AcDbEntity
  8
図枠
 62
     7
100
AcDbText
 10
1816.11682616897
 20
530.0920387169607
 30
0.0
 40
5.0
  1
〃
100
AcDbText
  0
TEXT
  5
709C
330
1E
100
AcDbEntity
  8
図枠
 62
     7
100
AcDbText
 10
1816.11682616897
 20
521.0920387169607
 30
0.0
 40
5.0
  1
本
100
AcDbText
  0
TEXT
  5
709D
330
1E
100
AcDbEntity
  8
図枠
 62
     7
100
AcDbText
 10
1816.11682616897
 20
512.0920387169607
 30
0.0
 40
5.0
  1
〃
100
AcDbText
  0
TEXT
  5
709E
330
1E
100
AcDbEntity
  8
図枠
 62
     7
100
AcDbText
 10
1816.11682616897
 20
503.0920387169607
 30
0.0
 40
5.0
  1
〃
100
AcDbText
  0
TEXT
  5
709F
330
1E
100
AcDbEntity
  8
図枠
 62
     7
100
AcDbText
 10
1816.11682616897
 20
494.0920387169606
 30
0.0
 40
5.0
  1
〃
100
AcDbText
  0
TEXT
  5
70A0
330
1E
100
AcDbEntity
  8
図枠
 62
     7
100
AcDbText
 10
1816.11682616897
 20
485.0920387169607
 30
0.0
 40
5.0
  1
〃
100
AcDbText
  0
TEXT
  5
70A1
330
1E
100
AcDbEntity
  8
図枠
 62
     7
100
AcDbText
 10
1816.11682616897
 20
476.0920387169607
 30
0.0
 40
5.0
  1
〃
100
AcDbText
  0
TEXT
  5
70A2
330
1E
100
AcDbEntity
  8
図枠
 62
     7
100
AcDbText
 10
1816.11682616897
 20
467.0920387169608
 30
0.0
 40
5.0
  1
〃
100
AcDbText
  0
TEXT
  5
70A3
330
1E
100
AcDbEntity
  8
図枠
 62
     7
100
AcDbText
 10
1816.11682616897
 20
458.0920387169607
 30
0.0
 40
5.0
  1
枚
100
AcDbText
  0
TEXT
  5
70A4
330
1E
100
AcDbEntity
  8
図枠
 62
     7
100
AcDbText
 10
1816.11682616897
 20
449.0920387169607
 30
0.0
 40
5.0
  1
〃
100
AcDbText
  0
TEXT
  5
70A5
330
1E
100
AcDbEntity
  8
図枠
 62
     7
100
AcDbText
 10
1816.11682616897
 20
440.0920387169606
 30
0.0
 40
5.0
  1
巻
100
AcDbText
  0
TEXT
  5
70A6
330
1E
100
AcDbEntity
  8
図枠
 62
     7
100
AcDbText
 10
1812.61682616897
 20
638.0920387169608
 30
0.0
 40
5.0
  1
単位
100
AcDbText
  0
TEXT
  5
70A7
330
1E
100
AcDbEntity
  8
図枠
 62
     7
100
AcDbText
 10
1931.11682616897
 20
620.0920387169608
 30
0.0
 40
5.0
  1
225
100
AcDbText
  0
TEXT
  5
70A8
330
1E
100
AcDbEntity
  8
図枠
 62
     7
100
AcDbText
 10
1961.11682616897
 20
620.0920387169608
 30
0.0
 40
5.0
  1
210
100
AcDbText
  0
TEXT
  5
70A9
330
1E
100
AcDbEntity
  8
図枠
 62
     7
100
AcDbText
 10
1857.61682616897
 20
611.0920387169608
 30
0.0
 40
5.0
  1
　　 〃　 　250
100
AcDbText
  0
TEXT
  5
70AA
330
1E
100
AcDbEntity
  8
図枠
 62
     7
100
AcDbText
 10
1931.11682616897
 20
611.0920387169608
 30
0.0
 40
5.0
  1
250
100
AcDbText
  0
TEXT
  5
70AB
330
1E
100
AcDbEntity
  8
図枠
 62
     7
100
AcDbText
 10
1961.11682616897
 20
611.0920387169608
 30
0.0
 40
5.0
  1
235
100
AcDbText
  0
TEXT
  5
70AC
330
1E
100
AcDbEntity
  8
図枠
 62
     7
100
AcDbText
 10
1857.61682616897
 20
602.0920387169608
 30
0.0
 40
5.0
  1
　　 〃　 　275
100
AcDbText
  0
TEXT
  5
70AD
330
1E
100
AcDbEntity
  8
図枠
 62
     7
100
AcDbText
 10
1931.11682616897
 20
602.0920387169608
 30
0.0
 40
5.0
  1
275
100
AcDbText
  0
TEXT
  5
70AE
330
1E
100
AcDbEntity
  8
図枠
 62
     7
100
AcDbText
 10
1961.11682616897
 20
602.0920387169608
 30
0.0
 40
5.0
  1
260
100
AcDbText
  0
TEXT
  5
70AF
330
1E
100
AcDbEntity
  8
図枠
 62
     7
100
AcDbText
 10
1857.61682616897
 20
593.0920387169607
 30
0.0
 40
5.0
  1
　　 〃　 　300
100
AcDbText
  0
TEXT
  5
70B0
330
1E
100
AcDbEntity
  8
図枠
 62
     7
100
AcDbText
 10
1931.11682616897
 20
593.0920387169607
 30
0.0
 40
5.0
  1
300
100
AcDbText
  0
TEXT
  5
70B1
330
1E
100
AcDbEntity
  8
図枠
 62
     7
100
AcDbText
 10
1961.11682616897
 20
593.0920387169607
 30
0.0
 40
5.0
  1
285
100
AcDbText
  0
TEXT
  5
70B2
330
1E
100
AcDbEntity
  8
図枠
 62
     7
100
AcDbText
 10
1857.61682616897
 20
584.0920387169608
 30
0.0
 40
5.0
  1
　　 〃　 　325
100
AcDbText
  0
TEXT
  5
70B3
330
1E
100
AcDbEntity
  8
図枠
 62
     7
100
AcDbText
 10
1931.11682616897
 20
584.0920387169608
 30
0.0
 40
5.0
  1
325
100
AcDbText
  0
TEXT
  5
70B4
330
1E
100
AcDbEntity
  8
図枠
 62
     7
100
AcDbText
 10
1961.11682616897
 20
584.0920387169608
 30
0.0
 40
5.0
  1
310
100
AcDbText
  0
TEXT
  5
70B5
330
1E
100
AcDbEntity
  8
図枠
 62
     7
100
AcDbText
 10
1857.61682616897
 20
575.0920387169608
 30
0.0
 40
5.0
  1
　　 〃　 　350
100
AcDbText
  0
TEXT
  5
70B6
330
1E
100
AcDbEntity
  8
図枠
 62
     7
100
AcDbText
 10
1931.11682616897
 20
575.0920387169608
 30
0.0
 40
5.0
  1
350
100
AcDbText
  0
TEXT
  5
70B7
330
1E
100
AcDbEntity
  8
図枠
 62
     7
100
AcDbText
 10
1961.11682616897
 20
575.0920387169608
 30
0.0
 40
5.0
  1
335
100
AcDbText
  0
TEXT
  5
70B8
330
1E
100
AcDbEntity
  8
図枠
 62
     7
100
AcDbText
 10
1857.61682616897
 20
566.0920387169608
 30
0.0
 40
5.0
  1
　　 〃　 　375
100
AcDbText
  0
TEXT
  5
70B9
330
1E
100
AcDbEntity
  8
図枠
 62
     7
100
AcDbText
 10
1931.11682616897
 20
566.0920387169608
 30
0.0
 40
5.0
  1
375
100
AcDbText
  0
TEXT
  5
70BA
330
1E
100
AcDbEntity
  8
図枠
 62
     7
100
AcDbText
 10
1961.11682616897
 20
566.0920387169608
 30
0.0
 40
5.0
  1
360
100
AcDbText
  0
TEXT
  5
70BB
330
1E
100
AcDbEntity
  8
図枠
 62
     7
100
AcDbText
 10
1857.61682616897
 20
557.0920387169608
 30
0.0
 40
5.0
  1
　　 〃　 　400
100
AcDbText
  0
TEXT
  5
70BC
330
1E
100
AcDbEntity
  8
図枠
 62
     7
100
AcDbText
 10
1931.11682616897
 20
557.0920387169608
 30
0.0
 40
5.0
  1
400
100
AcDbText
  0
TEXT
  5
70BD
330
1E
100
AcDbEntity
  8
図枠
 62
     7
100
AcDbText
 10
1961.11682616897
 20
557.0920387169608
 30
0.0
 40
5.0
  1
385
100
AcDbText
  0
TEXT
  5
70BE
330
1E
100
AcDbEntity
  8
図枠
 62
     7
100
AcDbText
 10
1857.61682616897
 20
548.0920387169608
 30
0.0
 40
5.0
  1
　　 〃　 　425
100
AcDbText
  0
TEXT
  5
70BF
330
1E
100
AcDbEntity
  8
図枠
 62
     7
100
AcDbText
 10
1931.11682616897
 20
548.0920387169608
 30
0.0
 40
5.0
  1
425
100
AcDbText
  0
TEXT
  5
70C0
330
1E
100
AcDbEntity
  8
図枠
 62
     7
100
AcDbText
 10
1961.11682616897
 20
548.0920387169608
 30
0.0
 40
5.0
  1
410
100
AcDbText
  0
TEXT
  5
70C1
330
1E
100
AcDbEntity
  8
図枠
 62
     7
100
AcDbText
 10
1857.61682616897
 20
539.0920387169607
 30
0.0
 40
5.0
  1
　　 〃　 　450
100
AcDbText
  0
TEXT
  5
70C2
330
1E
100
AcDbEntity
  8
図枠
 62
     7
100
AcDbText
 10
1931.11682616897
 20
539.0920387169607
 30
0.0
 40
5.0
  1
450
100
AcDbText
  0
TEXT
  5
70C3
330
1E
100
AcDbEntity
  8
図枠
 62
     7
100
AcDbText
 10
1961.11682616897
 20
539.0920387169607
 30
0.0
 40
5.0
  1
435
100
AcDbText
  0
TEXT
  5
70C4
330
1E
100
AcDbEntity
  8
図枠
 62
     7
100
AcDbText
 10
1857.61682616897
 20
530.0920387169607
 30
0.0
 40
5.0
  1
　　 〃　 　475
100
AcDbText
  0
TEXT
  5
70C5
330
1E
100
AcDbEntity
  8
図枠
 62
     7
100
AcDbText
 10
1931.11682616897
 20
530.0920387169607
 30
0.0
 40
5.0
  1
475
100
AcDbText
  0
TEXT
  5
70C6
330
1E
100
AcDbEntity
  8
図枠
 62
     7
100
AcDbText
 10
1961.11682616897
 20
530.0920387169607
 30
0.0
 40
5.0
  1
460
100
AcDbText
  0
TEXT
  5
70C7
330
1E
100
AcDbEntity
  8
図枠
 62
     7
100
AcDbText
 10
2022.86682616897
 20
620.0920387169608
 30
0.0
 40
5.0
  1
55
100
AcDbText
  0
TEXT
  5
70C8
330
1E
100
AcDbEntity
  8
図枠
 62
     7
100
AcDbText
 10
2051.11682616897
 20
620.0920387169608
 30
0.0
 40
5.0
  1
114
100
AcDbText
  0
TEXT
  5
70C9
330
1E
100
AcDbEntity
  8
図枠
 62
     7
100
AcDbText
 10
2022.86682616897
 20
611.0920387169608
 30
0.0
 40
5.0
  1
57
100
AcDbText
  0
TEXT
  5
70CA
330
1E
100
AcDbEntity
  8
図枠
 62
     7
100
AcDbText
 10
2051.11682616897
 20
611.0920387169608
 30
0.0
 40
5.0
  1
115
100
AcDbText
  0
TEXT
  5
70CB
330
1E
100
AcDbEntity
  8
図枠
 62
     7
100
AcDbText
 10
2022.86682616897
 20
602.0920387169608
 30
0.0
 40
5.0
  1
58
100
AcDbText
  0
TEXT
  5
70CC
330
1E
100
AcDbEntity
  8
図枠
 62
     7
100
AcDbText
 10
2051.11682616897
 20
602.0920387169608
 30
0.0
 40
5.0
  1
117
100
AcDbText
  0
TEXT
  5
70CD
330
1E
100
AcDbEntity
  8
図枠
 62
     7
100
AcDbText
 10
2022.86682616897
 20
593.0920387169607
 30
0.0
 40
5.0
  1
59
100
AcDbText
  0
TEXT
  5
70CE
330
1E
100
AcDbEntity
  8
図枠
 62
     7
100
AcDbText
 10
2051.11682616897
 20
593.0920387169607
 30
0.0
 40
5.0
  1
118
100
AcDbText
  0
TEXT
  5
70CF
330
1E
100
AcDbEntity
  8
図枠
 62
     7
100
AcDbText
 10
2022.86682616897
 20
584.0920387169608
 30
0.0
 40
5.0
  1
61
100
AcDbText
  0
TEXT
  5
70D0
330
1E
100
AcDbEntity
  8
図枠
 62
     7
100
AcDbText
 10
2051.11682616897
 20
584.0920387169608
 30
0.0
 40
5.0
  1
119
100
AcDbText
  0
TEXT
  5
70D1
330
1E
100
AcDbEntity
  8
図枠
 62
     7
100
AcDbText
 10
2022.86682616897
 20
575.0920387169608
 30
0.0
 40
5.0
  1
62
100
AcDbText
  0
TEXT
  5
70D2
330
1E
100
AcDbEntity
  8
図枠
 62
     7
100
AcDbText
 10
2051.11682616897
 20
575.0920387169608
 30
0.0
 40
5.0
  1
121
100
AcDbText
  0
TEXT
  5
70D3
330
1E
100
AcDbEntity
  8
図枠
 62
     7
100
AcDbText
 10
2022.86682616897
 20
566.0920387169608
 30
0.0
 40
5.0
  1
63
100
AcDbText
  0
TEXT
  5
70D4
330
1E
100
AcDbEntity
  8
図枠
 62
     7
100
AcDbText
 10
2051.11682616897
 20
566.0920387169608
 30
0.0
 40
5.0
  1
122
100
AcDbText
  0
TEXT
  5
70D5
330
1E
100
AcDbEntity
  8
図枠
 62
     7
100
AcDbText
 10
2022.86682616897
 20
557.0920387169608
 30
0.0
 40
5.0
  1
64
100
AcDbText
  0
TEXT
  5
70D6
330
1E
100
AcDbEntity
  8
図枠
 62
     7
100
AcDbText
 10
2051.11682616897
 20
557.0920387169608
 30
0.0
 40
5.0
  1
123
100
AcDbText
  0
TEXT
  5
70D7
330
1E
100
AcDbEntity
  8
図枠
 62
     7
100
AcDbText
 10
2022.86682616897
 20
548.0920387169608
 30
0.0
 40
5.0
  1
66
100
AcDbText
  0
TEXT
  5
70D8
330
1E
100
AcDbEntity
  8
図枠
 62
     7
100
AcDbText
 10
2051.11682616897
 20
548.0920387169608
 30
0.0
 40
5.0
  1
124
100
AcDbText
  0
TEXT
  5
70D9
330
1E
100
AcDbEntity
  8
図枠
 62
     7
100
AcDbText
 10
2022.86682616897
 20
539.0920387169607
 30
0.0
 40
5.0
  1
67
100
AcDbText
  0
TEXT
  5
70DA
330
1E
100
AcDbEntity
  8
図枠
 62
     7
100
AcDbText
 10
2051.11682616897
 20
539.0920387169607
 30
0.0
 40
5.0
  1
126
100
AcDbText
  0
TEXT
  5
70DB
330
1E
100
AcDbEntity
  8
図枠
 62
     7
100
AcDbText
 10
2022.86682616897
 20
530.0920387169607
 30
0.0
 40
5.0
  1
68
100
AcDbText
  0
TEXT
  5
70DC
330
1E
100
AcDbEntity
  8
図枠
 62
     7
100
AcDbText
 10
2051.11682616897
 20
530.0920387169607
 30
0.0
 40
5.0
  1
127
100
AcDbText
  0
TEXT
  5
70DD
330
1E
100
AcDbEntity
  8
図枠
 62
     7
100
AcDbText
 10
1866.61682616897
 20
638.0920387169608
 30
0.0
 40
5.0
  1
タ　イ　プ
100
AcDbText
  0
TEXT
  5
70DE
330
1E
100
AcDbEntity
  8
図枠
 62
     7
100
AcDbText
 10
1933.11682616897
 20
638.0920387169608
 30
0.0
 40
5.0
  1
Ｗ
100
AcDbText
  0
TEXT
  5
70DF
330
1E
100
AcDbEntity
  8
図枠
 62
     7
100
AcDbText
 10
1963.11682616897
 20
638.0920387169608
 30
0.0
 40
5.0
  1
Ａ
100
AcDbText
  0
TEXT
  5
70E0
330
1E
100
AcDbEntity
  8
図枠
 62
     7
100
AcDbText
 10
1993.11682616897
 20
638.0920387169608
 30
0.0
 40
5.0
  1
Ｃ
100
AcDbText
  0
TEXT
  5
70E1
330
1E
100
AcDbEntity
  8
図枠
 62
     7
100
AcDbText
 10
2023.11682616897
 20
638.0920387169608
 30
0.0
 40
5.0
  1
Ｄ
100
AcDbText
  0
TEXT
  5
70E2
330
1E
100
AcDbEntity
  8
図枠
 62
     7
100
AcDbText
 10
2053.11682616897
 20
638.0920387169608
 30
0.0
 40
5.0
  1
Ｅ
100
AcDbText
  0
TEXT
  5
70E3
330
1E
100
AcDbEntity
  8
図枠
 62
     7
100
AcDbText
 10
1961.11682616897
 20
629.0920387169606
 30
0.0
 40
5.0
  1
185
100
AcDbText
  0
TEXT
  5
70E4
330
1E
100
AcDbEntity
  8
図枠
 62
     7
100
AcDbText
 10
1931.11682616897
 20
629.0920387169606
 30
0.0
 40
5.0
  1
200
100
AcDbText
  0
TEXT
  5
70E5
330
1E
100
AcDbEntity
  8
図枠
 62
     7
100
AcDbText
 10
2022.86682616897
 20
629.0920387169606
 30
0.0
 40
5.0
  1
54
100
AcDbText
  0
TEXT
  5
70E6
330
1E
100
AcDbEntity
  8
図枠
 62
     7
100
AcDbText
 10
2051.11682616897
 20
629.0920387169606
 30
0.0
 40
5.0
  1
113
100
AcDbText
  0
TEXT
  5
70E7
330
1E
100
AcDbEntity
  8
図枠
 62
     7
100
AcDbText
 10
1991.11682616897
 20
629.0920387169606
 30
0.0
 40
5.0
  1
100
100
AcDbText
  0
TEXT
  5
70E8
330
1E
100
AcDbEntity
  8
図枠
 62
     7
100
AcDbText
 10
1991.11682616897
 20
620.0920387169608
 30
0.0
 40
5.0
  1
125
100
AcDbText
  0
TEXT
  5
70E9
330
1E
100
AcDbEntity
  8
図枠
 62
     7
100
AcDbText
 10
1991.11682616897
 20
611.0920387169608
 30
0.0
 40
5.0
  1
150
100
AcDbText
  0
TEXT
  5
70EA
330
1E
100
AcDbEntity
  8
図枠
 62
     7
100
AcDbText
 10
1991.11682616897
 20
602.0920387169608
 30
0.0
 40
5.0
  1
175
100
AcDbText
  0
TEXT
  5
70EB
330
1E
100
AcDbEntity
  8
図枠
 62
     7
100
AcDbText
 10
1991.11682616897
 20
593.0920387169607
 30
0.0
 40
5.0
  1
200
100
AcDbText
  0
TEXT
  5
70EC
330
1E
100
AcDbEntity
  8
図枠
 62
     7
100
AcDbText
 10
1991.11682616897
 20
584.0920387169608
 30
0.0
 40
5.0
  1
225
100
AcDbText
  0
TEXT
  5
70ED
330
1E
100
AcDbEntity
  8
図枠
 62
     7
100
AcDbText
 10
1991.11682616897
 20
575.0920387169608
 30
0.0
 40
5.0
  1
250
100
AcDbText
  0
TEXT
  5
70EE
330
1E
100
AcDbEntity
  8
図枠
 62
     7
100
AcDbText
 10
1991.11682616897
 20
566.0920387169608
 30
0.0
 40
5.0
  1
275
100
AcDbText
  0
TEXT
  5
70EF
330
1E
100
AcDbEntity
  8
図枠
 62
     7
100
AcDbText
 10
1991.11682616897
 20
557.0920387169608
 30
0.0
 40
5.0
  1
300
100
AcDbText
  0
TEXT
  5
70F0
330
1E
100
AcDbEntity
  8
図枠
 62
     7
100
AcDbText
 10
1991.11682616897
 20
548.0920387169608
 30
0.0
 40
5.0
  1
325
100
AcDbText
  0
TEXT
  5
70F1
330
1E
100
AcDbEntity
  8
図枠
 62
     7
100
AcDbText
 10
1991.11682616897
 20
539.0920387169607
 30
0.0
 40
5.0
  1
350
100
AcDbText
  0
TEXT
  5
70F2
330
1E
100
AcDbEntity
  8
図枠
 62
     7
100
AcDbText
 10
1991.11682616897
 20
530.0920387169607
 30
0.0
 40
5.0
  1
375
100
AcDbText
  0
TEXT
  5
70F3
330
1E
100
AcDbEntity
  8
図枠
 62
     7
100
AcDbText
 10
1857.61682616897
 20
620.0920387169608
 30
0.0
 40
5.0
  1
　　 〃　 　225
100
AcDbText
  0
TEXT
  5
70F4
330
1E
100
AcDbEntity
  8
図枠
 62
     7
100
AcDbText
 10
1857.61682616897
 20
629.0920387169606
 30
0.0
 40
5.0
  1
50ＦＹＫ－Ｓ200
100
AcDbText
  0
ARC
  5
7113
330
1E
100
AcDbEntity
  8
躯体と製品
  6
Continuous
 62
     7
100
AcDbCircle
 10
1794.116826168969
 20
774.6522331990365
 30
0.0
 40
9.25
100
AcDbArc
 50
90.0
 51
108.9246444160544
  0
ARC
  5
7114
330
1E
100
AcDbEntity
  8
躯体と製品
  6
Continuous
 62
     7
100
AcDbCircle
 10
1824.116826168969
 20
774.6522331990365
 30
0.0
 40
9.25
100
AcDbArc
 50
71.07535558394559
 51
90.0
  0
ARC
  5
7115
330
1E
100
AcDbEntity
  8
躯体と製品
  6
Continuous
 62
     7
100
AcDbCircle
 10
1830.116826168969
 20
792.1522331990367
 30
0.0
 40
9.25
100
AcDbArc
 50
251.0753555839456
 51
270.0
  0
LINE
  5
7116
330
1E
100
AcDbEntity
  8
躯体と製品
  6
Continuous
 62
     7
100
AcDbLine
 10
1809.11682616897
 20
782.9022331990366
 30
0.0
 11
1809.11682616897
 21
783.9022331990366
 31
0.0
  0
ARC
  5
7117
330
1E
100
AcDbEntity
  8
躯体と製品
  6
Continuous
 62
     7
100
AcDbCircle
 10
1824.116826168969
 20
774.6522331990365
 30
0.0
 40
8.25
100
AcDbArc
 50
71.07535558394559
 51
90.0
  0
ARC
  5
7118
330
1E
100
AcDbEntity
  8
躯体と製品
  6
Continuous
 62
     7
100
AcDbCircle
 10
1830.116826168969
 20
792.1522331990367
 30
0.0
 40
10.25
100
AcDbArc
 50
251.0753555839456
 51
270.0
  0
ARC
  5
7119
330
1E
100
AcDbEntity
  8
躯体と製品
  6
Continuous
 62
     7
100
AcDbCircle
 10
1794.116826168969
 20
774.6522331990365
 30
0.0
 40
8.25
100
AcDbArc
 50
90.0
 51
108.9246444160544
  0
ARC
  5
711A
330
1E
100
AcDbEntity
  8
躯体と製品
  6
Continuous
 62
     7
100
AcDbCircle
 10
1788.11682616897
 20
792.1522331990367
 30
0.0
 40
10.25
100
AcDbArc
 50
270.0
 51
288.9246444160544
  0
LINE
  5
711B
330
1E
100
AcDbEntity
  8
躯体と製品
  6
Continuous
 62
     7
100
AcDbLine
 10
1824.116826168969
 20
783.9022331990366
 30
0.0
 11
1794.116826168969
 21
783.9022331990366
 31
0.0
  0
ARC
  5
711C
330
1E
100
AcDbEntity
  8
躯体と製品
  6
Continuous
 62
     7
100
AcDbCircle
 10
1788.11682616897
 20
792.1522331990367
 30
0.0
 40
9.25
100
AcDbArc
 50
270.0
 51
288.9246444160544
  0
ARC
  5
711D
330
1E
100
AcDbEntity
  8
躯体と製品
  6
Continuous
 62
     7
100
AcDbCircle
 10
1759.145385942869
 20
780.902641112576
 30
0.0
 40
2.0
100
AcDbArc
 50
91.1572150532457
 51
175.0000000000005
  0
LINE
  5
711E
330
1E
100
AcDbEntity
  8
躯体と製品
  6
Continuous
 62
     7
100
AcDbLine
 10
1759.10499426348
 20
782.9022331990366
 30
0.0
 11
1788.11682616897
 21
782.9022331990366
 31
0.0
  0
LINE
  5
711F
330
1E
100
AcDbEntity
  8
躯体と製品
  6
Continuous
 62
     7
100
AcDbLine
 10
1859.128658074457
 20
782.9022331990366
 30
0.0
 11
1830.116826168969
 21
782.9022331990366
 31
0.0
  0
ARC
  5
7120
330
1E
100
AcDbEntity
  8
躯体と製品
  6
Continuous
 62
     7
100
AcDbCircle
 10
1859.088266395071
 20
780.902641112576
 30
0.0
 40
2.0
100
AcDbArc
 50
4.999999999999459
 51
88.84278494684552
  0
LINE
  5
7121
330
1E
100
AcDbEntity
  8
躯体と製品
  6
Continuous
 62
     7
100
AcDbLine
 10
1710.11682616897
 20
839.3636885902704
 30
0.0
 11
1709.11682616897
 21
839.3636885902704
 31
0.0
  0
LINE
  5
7122
330
1E
100
AcDbEntity
  8
躯体と製品
  6
Continuous
 62
     7
100
AcDbLine
 10
1710.11682616897
 20
834.3636885902702
 30
0.0
 11
1709.11682616897
 21
834.3636885902702
 31
0.0
  0
TEXT
  5
7123
330
1E
100
AcDbEntity
  8
図枠
 62
     7
100
AcDbText
 10
2030.11682616897
 20
645.9709902182549
 30
0.0
 40
5.0
  1
（単位：mm）
100
AcDbText
  0
LINE
  5
7125
330
1E
100
AcDbEntity
  8
図枠
  6
Continuous
 62
     4
100
AcDbLine
 10
1768.31682616897
 20
841.2161319067566
 30
0.0
 11
1818.31682616897
 21
841.2161319067566
 31
0.0
  0
LINE
  5
7126
330
1E
100
AcDbEntity
  8
図枠
  6
Continuous
 62
     4
100
AcDbLine
 10
1818.31682616897
 20
838.5957429426047
 30
0.0
 11
1818.31682616897
 21
841.2161319067566
 31
0.0
  0
LINE
  5
7127
330
1E
100
AcDbEntity
  8
図枠
  6
Continuous
 62
     4
100
AcDbLine
 10
1768.31682616897
 20
841.2161319067566
 30
0.0
 11
1818.31682616897
 21
838.5957429426047
 31
0.0
  0
TEXT
  5
7128
330
1E
100
AcDbEntity
  8
図枠
 62
     7
100
AcDbText
 10
1779.81682616897
 20
841.2004089421529
 30
0.0
 40
5.0
  1
勾配３度
100
AcDbText
  0
LINE
  5
7129
330
1E
100
AcDbEntity
  8
躯体と製品
  6
CENTER1
 62
     4
100
AcDbLine
 10
1724.873754469534
 20
836.8636885902704
 30
0.0
 11
1650.11682616897
 21
836.8636885902704
 31
0.0
  0
LINE
  5
712A
330
1E
100
AcDbEntity
  8
躯体と製品
  6
CENTER1
 62
     4
100
AcDbLine
 10
1809.11682616897
 20
806.8257476269232
 30
0.0
 11
1809.11682616897
 21
717.9022331990368
 31
0.0
  0
LINE
  5
712B
330
1E
100
AcDbEntity
  8
躯体と製品
  6
CENTER1
 62
     4
100
AcDbLine
 10
1711.994103486404
 20
887.3636885902703
 30
0.0
 11
1728.86213716897
 21
887.3636885902703
 31
0.0
  0
LINE
  5
712C
330
1E
100
AcDbEntity
  8
躯体と製品
  6
CENTER1
 62
     4
100
AcDbLine
 10
1810.841466030707
 20
834.7338365658382
 30
0.0
 11
1808.488794694055
 21
789.8421932098685
 31
0.0
  0
ARC
  5
712D
330
1E
100
AcDbEntity
  8
躯体と製品
  6
Continuous
 62
     7
100
AcDbCircle
 10
1714.988116623002
 20
838.3664485902704
 30
0.0
 40
3.0
100
AcDbArc
 50
38.61463799999811
 51
87.54107400000371
  0
ARC
  5
712E
330
1E
100
AcDbEntity
  8
躯体と製品
  6
Continuous
 62
     7
100
AcDbCircle
 10
1713.116827623002
 20
836.8636885902704
 30
0.0
 40
5.4
100
AcDbArc
 50
0.0
 51
38.85106200000375
  0
ARC
  5
712F
330
1E
100
AcDbEntity
  8
躯体と製品
  6
Continuous
 62
     7
100
AcDbCircle
 10
1713.116827623002
 20
836.8636885902704
 30
0.0
 40
5.4
100
AcDbArc
 50
321.3178130000017
 51
0.0
  0
ARC
  5
7130
330
1E
100
AcDbEntity
  8
躯体と製品
  6
Continuous
 62
     7
100
AcDbCircle
 10
1714.988116623002
 20
835.3609255902703
 30
0.0
 40
3.0
100
AcDbArc
 50
272.4589259999963
 51
321.3853620000019
  0
LINE
  5
7131
330
1E
100
AcDbEntity
  8
躯体と製品
  6
Continuous
 62
     7
100
AcDbLine
 10
1715.116826168969
 20
827.8636885902704
 30
0.0
 11
1715.116826168969
 21
845.8636885902704
 31
0.0
  0
LINE
  5
7132
330
1E
100
AcDbEntity
  8
躯体と製品
  6
Continuous
 62
     7
100
AcDbLine
 10
1715.116826168969
 20
845.8636885902704
 30
0.0
 11
1713.61682616897
 21
845.8636885902704
 31
0.0
  0
LINE
  5
7133
330
1E
100
AcDbEntity
  8
躯体と製品
  6
Continuous
 62
     7
100
AcDbLine
 10
1715.116826168969
 20
827.8636885902704
 30
0.0
 11
1713.61682616897
 21
827.8636885902704
 31
0.0
  0
LINE
  5
7134
330
1E
100
AcDbEntity
  8
躯体と製品
  6
Continuous
 62
     7
100
AcDbLine
 10
1800.11682616897
 20
787.9022331990366
 30
0.0
 11
1818.11682616897
 21
787.9022331990366
 31
0.0
  0
LINE
  5
7135
330
1E
100
AcDbEntity
  8
躯体と製品
  6
Continuous
 62
     7
100
AcDbLine
 10
1818.11682616897
 20
787.9022331990366
 30
0.0
 11
1818.11682616897
 21
786.4022331990367
 31
0.0
  0
LINE
  5
7136
330
1E
100
AcDbEntity
  8
躯体と製品
  6
Continuous
 62
     7
100
AcDbLine
 10
1800.11682616897
 20
787.9022331990366
 30
0.0
 11
1800.11682616897
 21
786.4022331990367
 31
0.0
  0
ARC
  5
7137
330
1E
100
AcDbEntity
  8
躯体と製品
  6
Continuous
 62
     7
100
AcDbCircle
 10
1809.11682616897
 20
783.291080159481
 30
0.0
 40
9.553418012635715
100
AcDbArc
 50
72.41204622604974
 51
107.5879537739502
  0
ARC
  5
7138
330
1E
100
AcDbEntity
  8
躯体と製品
  6
Continuous
 62
     7
100
AcDbCircle
 10
1804.786699150048
 20
790.2886754236885
 30
0.0
 40
2.555822748428199
100
AcDbArc
 50
55.61575253203897
 51
124.384247467961
  0
ARC
  5
7139
330
1E
100
AcDbEntity
  8
躯体と製品
  6
Continuous
 62
     7
100
AcDbCircle
 10
1813.446953187892
 20
790.2886754236885
 30
0.0
 40
2.555822748428199
100
AcDbArc
 50
55.61575253203897
 51
124.384247467961
  0
LINE
  5
713A
330
1E
100
AcDbEntity
  8
躯体と製品
  6
Continuous
 62
     7
100
AcDbLine
 10
1803.343323477074
 20
792.3979161847324
 30
0.0
 11
1803.343323477074
 21
787.9022331990366
 31
0.0
  0
LINE
  5
713B
330
1E
100
AcDbEntity
  8
躯体と製品
  6
Continuous
 62
     7
100
AcDbLine
 10
1804.21682616897
 20
792.9022331990367
 30
0.0
 11
1803.343323477074
 21
792.3979161847324
 31
0.0
  0
LINE
  5
713C
330
1E
100
AcDbEntity
  8
躯体と製品
  6
Continuous
 62
     7
100
AcDbLine
 10
1804.21682616897
 20
792.9022331990367
 30
0.0
 11
1814.01682616897
 21
792.9022331990367
 31
0.0
  0
LINE
  5
713D
330
1E
100
AcDbEntity
  8
躯体と製品
  6
Continuous
 62
     7
100
AcDbLine
 10
1814.01682616897
 20
792.9022331990367
 30
0.0
 11
1814.890328860866
 21
792.3979161847324
 31
0.0
  0
LINE
  5
713E
330
1E
100
AcDbEntity
  8
躯体と製品
  6
Continuous
 62
     7
100
AcDbLine
 10
1806.230074823021
 20
792.3979161847324
 30
0.0
 11
1806.230074823021
 21
787.9022331990366
 31
0.0
  0
LINE
  5
713F
330
1E
100
AcDbEntity
  8
躯体と製品
  6
Continuous
 62
     7
100
AcDbLine
 10
1812.003577514918
 20
792.3979161847324
 30
0.0
 11
1812.003577514918
 21
787.9022331990366
 31
0.0
  0
LINE
  5
7140
330
1E
100
AcDbEntity
  8
躯体と製品
  6
Continuous
 62
     7
100
AcDbLine
 10
1814.890328860866
 20
792.3979161847324
 30
0.0
 11
1814.890328860866
 21
787.9022331990366
 31
0.0
  0
LINE
  5
7141
330
1E
100
AcDbEntity
  8
躯体と製品
  6
Continuous
 62
     7
100
AcDbLine
 10
1806.076787613036
 20
792.9022331990367
 30
0.0
 11
1805.668794677337
 21
793.3553552593853
 31
0.0
  0
LINE
  5
7142
330
1E
100
AcDbEntity
  8
躯体と製品
  6
Continuous
 62
     4
100
AcDbLine
 10
1806.500249012739
 20
798.3579361794116
 30
0.0
 11
1806.21432773511
 21
792.9022331990367
 31
0.0
  0
LINE
  5
7143
330
1E
100
AcDbEntity
  8
躯体と製品
  6
Continuous
 62
     4
100
AcDbLine
 10
1811.356584440251
 20
798.1034264242021
 30
0.0
 11
1811.084001453698
 21
792.9022331990367
 31
0.0
  0
LINE
  5
7144
330
1E
100
AcDbEntity
  8
躯体と製品
  6
Continuous
 62
     7
100
AcDbLine
 10
1811.660571885864
 20
793.0413395219278
 30
0.0
 11
1811.50607866277
 21
792.9022331990367
 31
0.0
  0
TEXT
  5
7145
330
1E
100
AcDbEntity
  8
図枠
 62
     7
100
AcDbText
 10
1568.116826168969
 20
593.0920387169607
 30
0.0
 40
5.0
  1
止水補助板ホルダーＡＬ
100
AcDbText
  0
TEXT
  5
7146
330
1E
100
AcDbEntity
  8
図枠
 62
     7
100
AcDbText
 10
1668.11682616897
 20
530.0920387169607
 30
0.0
 40
5.0
  1
ＦＳ300～500
100
AcDbText
  0
CIRCLE
  5
7147
330
1E
100
AcDbEntity
  8
図枠
  6
Continuous
 62
     4
100
AcDbCircle
 10
1892.326428746617
 20
765.1519343537943
 30
0.0
 40
0.9
  0
CIRCLE
  5
7148
330
1E
100
AcDbEntity
  8
図枠
  6
Continuous
 62
     4
100
AcDbCircle
 10
1874.647096484372
 20
742.9807292574581
 30
0.0
 40
0.9
  0
CIRCLE
  5
7149
330
1E
100
AcDbEntity
  8
図枠
  6
Continuous
 62
     4
100
AcDbCircle
 10
1888.104544021002
 20
719.6717463838215
 30
0.0
 40
6.0
  0
TEXT
  5
714A
330
1E
100
AcDbEntity
  8
図枠
 62
     7
100
AcDbText
 10
1884.854544021002
 20
716.6717463838215
 30
0.0
 40
5.0
  1
11
100
AcDbText
  0
LINE
  5
714B
330
1E
100
AcDbEntity
  8
図枠
  6
Continuous
 62
     4
100
AcDbLine
 10
1874.647096484372
 20
742.9807292574581
 30
0.0
 11
1885.104544021002
 21
724.867898806528
 31
0.0
  0
CIRCLE
  5
714C
330
1E
100
AcDbEntity
  8
図枠
  6
Continuous
 62
     4
100
AcDbCircle
 10
1920.294442562973
 20
813.5939552705117
 30
0.0
 40
6.0
  0
TEXT
  5
714D
330
1E
100
AcDbEntity
  8
図枠
 62
     7
100
AcDbText
 10
1917.294442562973
 20
810.5939552705118
 30
0.0
 40
5.0
  1
５
100
AcDbText
  0
LINE
  5
714E
330
1E
100
AcDbEntity
  8
図枠
  6
Continuous
 62
     4
100
AcDbLine
 10
1892.326428746617
 20
765.1519343537943
 30
0.0
 11
1917.294442562973
 21
808.3978028478052
 31
0.0
  0
CIRCLE
  5
714F
330
1E
100
AcDbEntity
  8
図枠
  6
Continuous
 62
     4
100
AcDbCircle
 10
1859.09016690773
 20
815.5004272991412
 30
0.0
 40
0.9
  0
CIRCLE
  5
7150
330
1E
100
AcDbEntity
  8
図枠
  6
Continuous
 62
     4
100
AcDbCircle
 10
1811.171271206402
 20
817.3654028863046
 30
0.0
 40
0.9
  0
CIRCLE
  5
7151
330
1E
100
AcDbEntity
  8
図枠
  6
Continuous
 62
     4
100
AcDbCircle
 10
1806.990815192968
 20
756.8195718008898
 30
0.0
 40
0.9
  0
CIRCLE
  5
7152
330
1E
100
AcDbEntity
  8
図枠
  6
Continuous
 62
     4
100
AcDbCircle
 10
1826.720655197359
 20
820.0876555297359
 30
0.0
 40
0.9
  0
CIRCLE
  5
7153
330
1E
100
AcDbEntity
  8
図枠
  6
Continuous
 62
     4
100
AcDbCircle
 10
1813.454236997665
 20
790.0028053462949
 30
0.0
 40
0.9
  0
CIRCLE
  5
7154
330
1E
100
AcDbEntity
  8
図枠
  6
Continuous
 62
     4
100
AcDbCircle
 10
1819.294308897113
 20
797.3908481106573
 30
0.0
 40
0.9
  0
CIRCLE
  5
7155
330
1E
100
AcDbEntity
  8
図枠
  6
Continuous
 62
     4
100
AcDbCircle
 10
1876.01548201934
 20
844.8159330065632
 30
0.0
 40
6.0
  0
TEXT
  5
7156
330
1E
100
AcDbEntity
  8
図枠
 62
     7
100
AcDbText
 10
1873.01548201934
 20
841.815933006563
 30
0.0
 40
5.0
  1
６
100
AcDbText
  0
LINE
  5
7157
330
1E
100
AcDbEntity
  8
図枠
  6
Continuous
 62
     4
100
AcDbLine
 10
1859.09016690773
 20
815.5004272991412
 30
0.0
 11
1873.01548201934
 21
839.6197805838564
 31
0.0
  0
CIRCLE
  5
7158
330
1E
100
AcDbEntity
  8
図枠
  6
Continuous
 62
     4
100
AcDbCircle
 10
1826.638517753149
 20
795.6535701849924
 30
0.0
 40
0.9
  0
CIRCLE
  5
7159
330
1E
100
AcDbEntity
  8
図枠
  6
Continuous
 62
     4
100
AcDbCircle
 10
1854.451572008599
 20
843.8271932691014
 30
0.0
 40
6.0
  0
TEXT
  5
715A
330
1E
100
AcDbEntity
  8
図枠
 62
     7
100
AcDbText
 10
1851.451572008599
 20
840.8271932691013
 30
0.0
 40
5.0
  1
３
100
AcDbText
  0
LINE
  5
715B
330
1E
100
AcDbEntity
  8
図枠
  6
Continuous
 62
     4
100
AcDbLine
 10
1826.638517753149
 20
795.6535701849924
 30
0.0
 11
1851.451572008599
 21
838.631040846395
 31
0.0
  0
CIRCLE
  5
715C
330
1E
100
AcDbEntity
  8
図枠
  6
Continuous
 62
     4
100
AcDbCircle
 10
1848.007744969735
 20
856.9579765607707
 30
0.0
 40
6.0
  0
TEXT
  5
715D
330
1E
100
AcDbEntity
  8
図枠
 62
     7
100
AcDbText
 10
1845.007744969735
 20
853.9579765607708
 30
0.0
 40
5.0
  1
７
100
AcDbText
  0
LINE
  5
715E
330
1E
100
AcDbEntity
  8
図枠
  6
Continuous
 62
     4
100
AcDbLine
 10
1826.720655197359
 20
820.0876555297359
 30
0.0
 11
1845.007744969735
 21
851.7618241380642
 31
0.0
  0
CIRCLE
  5
715F
330
1E
100
AcDbEntity
  8
図枠
  6
Continuous
 62
     4
100
AcDbCircle
 10
1831.996803745434
 20
853.4362833385868
 30
0.0
 40
6.0
  0
TEXT
  5
7160
330
1E
100
AcDbEntity
  8
図枠
 62
     7
100
AcDbText
 10
1828.746803745434
 20
850.4362833385867
 30
0.0
 40
5.0
  1
14
100
AcDbText
  0
LINE
  5
7161
330
1E
100
AcDbEntity
  8
図枠
  6
Continuous
 62
     4
100
AcDbLine
 10
1811.171271206402
 20
817.3654028863046
 30
0.0
 11
1828.996803745434
 21
848.2401309158801
 31
0.0
  0
CIRCLE
  5
7162
330
1E
100
AcDbEntity
  8
図枠
  6
Continuous
 62
     4
100
AcDbCircle
 10
1834.075995028882
 20
771.7882167088982
 30
0.0
 40
6.0
  0
TEXT
  5
7163
330
1E
100
AcDbEntity
  8
図枠
 62
     7
100
AcDbText
 10
1831.075995028882
 20
768.7882167088981
 30
0.0
 40
5.0
  1
８
100
AcDbText
  0
LINE
  5
7164
330
1E
100
AcDbEntity
  8
図枠
  6
Continuous
 62
     4
100
AcDbLine
 10
1819.294308897113
 20
797.3908481106573
 30
0.0
 11
1831.075995028882
 21
776.9843691316046
 31
0.0
  0
CIRCLE
  5
7165
330
1E
100
AcDbEntity
  8
図枠
  6
Continuous
 62
     4
100
AcDbCircle
 10
1832.876622662522
 20
756.3622465705661
 30
0.0
 40
6.0
  0
TEXT
  5
7166
330
1E
100
AcDbEntity
  8
図枠
 62
     7
100
AcDbText
 10
1829.626622662521
 20
753.362246570566
 30
0.0
 40
5.0
  1
16
100
AcDbText
  0
LINE
  5
7167
330
1E
100
AcDbEntity
  8
図枠
  6
Continuous
 62
     4
100
AcDbLine
 10
1813.454236997665
 20
790.0028053462949
 30
0.0
 11
1829.876622662522
 21
761.5583989932726
 31
0.0
  0
CIRCLE
  5
7168
330
1E
100
AcDbEntity
  8
図枠
  6
Continuous
 62
     4
100
AcDbCircle
 10
1793.949200998221
 20
734.2308334028776
 30
0.0
 40
6.0
  0
TEXT
  5
7169
330
1E
100
AcDbEntity
  8
図枠
 62
     7
100
AcDbText
 10
1790.699200998221
 20
731.2308334028776
 30
0.0
 40
5.0
  1
17
100
AcDbText
  0
LINE
  5
716A
330
1E
100
AcDbEntity
  8
図枠
  6
Continuous
 62
     4
100
AcDbLine
 10
1806.990815192968
 20
756.8195718008898
 30
0.0
 11
1796.949200998221
 21
739.4269858255841
 31
0.0
  0
CIRCLE
  5
716B
330
1E
100
AcDbEntity
  8
図枠
  6
Continuous
 62
     4
100
AcDbCircle
 10
1801.995074415948
 20
787.1383901316142
 30
0.0
 40
0.9
  0
CIRCLE
  5
716C
330
1E
100
AcDbEntity
  8
図枠
  6
Continuous
 62
     4
100
AcDbCircle
 10
1789.297820784069
 20
765.1461017246108
 30
0.0
 40
6.0
  0
TEXT
  5
716D
330
1E
100
AcDbEntity
  8
図枠
 62
     7
100
AcDbText
 10
1786.047820784069
 20
762.1461017246108
 30
0.0
 40
5.0
  1
20
100
AcDbText
  0
LINE
  5
716E
330
1E
100
AcDbEntity
  8
図枠
  6
Continuous
 62
     4
100
AcDbLine
 10
1801.995074415948
 20
787.1383901316142
 30
0.0
 11
1792.297820784069
 21
770.3422541473173
 31
0.0
  0
CIRCLE
  5
716F
330
1E
100
AcDbEntity
  8
図枠
  6
Continuous
 62
     4
100
AcDbCircle
 10
1716.087238634974
 20
869.6010755624472
 30
0.0
 40
0.9
  0
CIRCLE
  5
7170
330
1E
100
AcDbEntity
  8
図枠
  6
Continuous
 62
     4
100
AcDbCircle
 10
1741.334525307109
 20
861.3233813264319
 30
0.0
 40
0.9
  0
CIRCLE
  5
7171
330
1E
100
AcDbEntity
  8
図枠
  6
Continuous
 62
     4
100
AcDbCircle
 10
1740.837720417555
 20
842.2651551173863
 30
0.0
 40
0.9
  0
CIRCLE
  5
7172
330
1E
100
AcDbEntity
  8
図枠
  6
Continuous
 62
     4
100
AcDbCircle
 10
1720.258735942376
 20
888.119917980339
 30
0.0
 40
0.9
  0
CIRCLE
  5
7173
330
1E
100
AcDbEntity
  8
図枠
  6
Continuous
 62
     4
100
AcDbCircle
 10
1714.400629056819
 20
830.2473603620828
 30
0.0
 40
0.9
  0
CIRCLE
  5
7174
330
1E
100
AcDbEntity
  8
図枠
  6
Continuous
 62
     4
100
AcDbCircle
 10
1767.729328114386
 20
795.6875242892659
 30
0.0
 40
6.0
  0
TEXT
  5
7175
330
1E
100
AcDbEntity
  8
図枠
 62
     7
100
AcDbText
 10
1764.479328114386
 20
792.6875242892661
 30
0.0
 40
5.0
  1
13
100
AcDbText
  0
LINE
  5
7176
330
1E
100
AcDbEntity
  8
図枠
  6
Continuous
 62
     4
100
AcDbLine
 10
1740.837720417555
 20
842.2651551173863
 30
0.0
 11
1764.729328114386
 21
800.8836767119726
 31
0.0
  0
TEXT
  5
7177
330
1E
100
AcDbEntity
  8
図枠
 62
     7
100
AcDbText
 10
1762.553381693386
 20
900.7046837905695
 30
0.0
 40
5.0
  1
10
100
AcDbText
  0
CIRCLE
  5
7178
330
1E
100
AcDbEntity
  8
図枠
  6
Continuous
 62
     4
100
AcDbCircle
 10
1765.803381693386
 20
903.7046837905695
 30
0.0
 40
6.0
  0
LINE
  5
7179
330
1E
100
AcDbEntity
  8
図枠
  6
Continuous
 62
     4
100
AcDbLine
 10
1741.334525307109
 20
861.3233813264319
 30
0.0
 11
1762.803381693387
 21
898.5085313678631
 31
0.0
  0
CIRCLE
  5
717A
330
1E
100
AcDbEntity
  8
図枠
  6
Continuous
 62
     4
100
AcDbCircle
 10
1697.448719724625
 20
927.628024990955
 30
0.0
 40
6.0
  0
TEXT
  5
717B
330
1E
100
AcDbEntity
  8
図枠
 62
     7
100
AcDbText
 10
1694.198719724625
 20
924.6280249909551
 30
0.0
 40
5.0
  1
15
100
AcDbText
  0
LINE
  5
717C
330
1E
100
AcDbEntity
  8
図枠
  6
Continuous
 62
     4
100
AcDbLine
 10
1720.258735942376
 20
888.119917980339
 30
0.0
 11
1700.448719724625
 21
922.4318725682483
 31
0.0
  0
CIRCLE
  5
717D
330
1E
100
AcDbEntity
  8
図枠
  6
Continuous
 62
     4
100
AcDbCircle
 10
1694.968123392301
 20
906.1804561736591
 30
0.0
 40
6.0
  0
TEXT
  5
717E
330
1E
100
AcDbEntity
  8
図枠
 62
     7
100
AcDbText
 10
1691.968123392301
 20
903.1804561736594
 30
0.0
 40
5.0
  1
４
100
AcDbText
  0
LINE
  5
717F
330
1E
100
AcDbEntity
  8
図枠
  6
Continuous
 62
     4
100
AcDbLine
 10
1716.087238634974
 20
869.6010755624472
 30
0.0
 11
1697.968123392301
 21
900.9843037509524
 31
0.0
  0
CIRCLE
  5
7180
330
1E
100
AcDbEntity
  8
図枠
  6
Continuous
 62
     4
100
AcDbCircle
 10
1716.479830013213
 20
838.7829229948035
 30
0.0
 40
0.9
  0
CIRCLE
  5
7181
330
1E
100
AcDbEntity
  8
図枠
  6
Continuous
 62
     4
100
AcDbCircle
 10
1677.183186526127
 20
839.7652604110717
 30
0.0
 40
0.9
  0
TEXT
  5
7182
330
1E
100
AcDbEntity
  8
図枠
 62
     7
100
AcDbText
 10
1661.435062419041
 20
858.4126463638467
 30
0.0
 40
5.0
  1
18
100
AcDbText
  0
LINE
  5
7183
330
1E
100
AcDbEntity
  8
図枠
  6
Continuous
 62
     4
100
AcDbLine
 10
1677.183186526127
 20
839.7652604110717
 30
0.0
 11
1667.685062419041
 21
856.2164939411401
 31
0.0
  0
CIRCLE
  5
7184
330
1E
100
AcDbEntity
  8
図枠
  6
Continuous
 62
     4
100
AcDbCircle
 10
1664.685062419041
 20
861.4126463638468
 30
0.0
 40
6.0
  0
CIRCLE
  5
7185
330
1E
100
AcDbEntity
  8
図枠
  6
Continuous
 62
     4
100
AcDbCircle
 10
1692.751366431391
 20
862.5113865766257
 30
0.0
 40
6.0
  0
LINE
  5
7186
330
1E
100
AcDbEntity
  8
図枠
  6
Continuous
 62
     4
100
AcDbLine
 10
1716.479830013213
 20
838.7829229948035
 30
0.0
 11
1696.99400711851
 21
858.2687458895065
 31
0.0
  0
TEXT
  5
7187
330
1E
100
AcDbEntity
  8
図枠
 62
     7
100
AcDbText
 10
1689.501366431391
 20
859.5113865766256
 30
0.0
 40
5.0
  1
19
100
AcDbText
  0
CIRCLE
  5
7188
330
1E
100
AcDbEntity
  8
図枠
  6
Continuous
 62
     4
100
AcDbCircle
 10
1717.174821216884
 20
731.7206263272344
 30
0.0
 40
0.9
  0
LINE
  5
7189
330
1E
100
AcDbEntity
  8
図枠
  6
Continuous
 62
     4
100
AcDbLine
 10
1717.174821216884
 20
731.7206263272344
 30
0.0
 11
1725.051838728138
 21
745.3640208688357
 31
0.0
  0
TEXT
  5
718A
330
1E
100
AcDbEntity
  8
図枠
 62
     7
100
AcDbText
 10
1724.801838728138
 20
747.5601732915424
 30
0.0
 40
5.0
  1
12
100
AcDbText
  0
CIRCLE
  5
718B
330
1E
100
AcDbEntity
  8
図枠
  6
Continuous
 62
     4
100
AcDbCircle
 10
1728.051838728137
 20
750.5601732915424
 30
0.0
 40
6.0
  0
CIRCLE
  5
718C
330
1E
100
AcDbEntity
  8
図枠
  6
Continuous
 62
     4
100
AcDbCircle
 10
1694.492562101518
 20
810.3392934067811
 30
0.0
 40
6.0
  0
TEXT
  5
718D
330
1E
100
AcDbEntity
  8
図枠
 62
     7
100
AcDbText
 10
1691.242562101518
 20
807.3392934067809
 30
0.0
 40
5.0
  1
21
100
AcDbText
  0
LINE
  5
718E
330
1E
100
AcDbEntity
  8
図枠
  6
Continuous
 62
     4
100
AcDbLine
 10
1714.400629056819
 20
830.2473603620828
 30
0.0
 11
1698.735202788637
 21
814.5819340939004
 31
0.0
  0
CIRCLE
  5
718F
330
1E
100
AcDbEntity
  8
図枠
  6
Continuous
 62
     4
100
AcDbCircle
 10
1893.870408879216
 20
812.7333920288815
 30
0.0
 40
0.9
  0
CIRCLE
  5
7190
330
1E
100
AcDbEntity
  8
図枠
  6
Continuous
 62
     4
100
AcDbCircle
 10
1920.506890022618
 20
858.8691307041043
 30
0.0
 40
6.0
  0
TEXT
  5
7191
330
1E
100
AcDbEntity
  8
図枠
 62
     7
100
AcDbText
 10
1917.506890022618
 20
855.8691307041042
 30
0.0
 40
5.0
  1
９
100
AcDbText
  0
LINE
  5
7192
330
1E
100
AcDbEntity
  8
図枠
  6
Continuous
 62
     4
100
AcDbLine
 10
1893.870408879216
 20
812.7333920288815
 30
0.0
 11
1917.506890022618
 21
853.6729782813976
 31
0.0
  0
CIRCLE
  5
7193
330
1E
100
AcDbEntity
  8
図枠
  6
Continuous
 62
     4
100
AcDbCircle
 10
1893.326182140848
 20
830.9160822412744
 30
0.0
 40
0.9
  0
LINE
  5
7194
330
1E
100
AcDbEntity
  8
図枠
  6
Continuous
 62
     4
100
AcDbLine
 10
1893.326182140848
 20
830.9160822412744
 30
0.0
 11
1918.46266328425
 21
874.4537447051436
 31
0.0
  0
TEXT
  5
7195
330
1E
100
AcDbEntity
  8
図枠
 62
     7
100
AcDbText
 10
1918.46266328425
 20
876.6498971278501
 30
0.0
 40
5.0
  1
１
100
AcDbText
  0
CIRCLE
  5
7196
330
1E
100
AcDbEntity
  8
図枠
  6
Continuous
 62
     4
100
AcDbCircle
 10
1921.462663284249
 20
879.6498971278504
 30
0.0
 40
6.0
  0
CIRCLE
  5
7197
330
1E
100
AcDbEntity
  8
図枠
  6
Continuous
 62
     4
100
AcDbCircle
 10
1736.637969048238
 20
880.0116316775984
 30
0.0
 40
0.9
  0
LINE
  5
7198
330
1E
100
AcDbEntity
  8
図枠
  6
Continuous
 62
     4
100
AcDbLine
 10
1736.637969048238
 20
880.0116316775984
 30
0.0
 11
1754.874790553068
 21
911.5987330925289
 31
0.0
  0
TEXT
  5
7199
330
1E
100
AcDbEntity
  8
図枠
 62
     7
100
AcDbText
 10
1754.874790553068
 20
913.7948855152355
 30
0.0
 40
5.0
  1
２
100
AcDbText
  0
CIRCLE
  5
719A
330
1E
100
AcDbEntity
  8
図枠
  6
Continuous
 62
     4
100
AcDbCircle
 10
1757.874790553068
 20
916.7948855152356
 30
0.0
 40
6.0
  0
LINE
  5
719C
330
1E
100
AcDbEntity
  8
躯体と製品
  6
Continuous
 62
     3
100
AcDbLine
 10
1710.11682616897
 20
880.5636885902702
 30
0.0
 11
1709.11682616897
 21
880.5636885902702
 31
0.0
  0
LINE
  5
719D
330
1E
100
AcDbEntity
  8
躯体と製品
  6
Continuous
 62
     3
100
AcDbLine
 10
1710.11682616897
 20
850.5636885902701
 30
0.0
 11
1710.11682616897
 21
880.5636885902702
 31
0.0
  0
LINE
  5
719E
330
1E
100
AcDbEntity
  8
躯体と製品
  6
Continuous
 62
     3
100
AcDbLine
 10
1709.11682616897
 20
850.5636885902701
 30
0.0
 11
1710.11682616897
 21
850.5636885902701
 31
0.0
  0
LINE
  5
719F
330
1E
100
AcDbEntity
  8
躯体と製品
  6
Continuous
 62
     3
100
AcDbLine
 10
1709.11682616897
 20
880.5636885902702
 30
0.0
 11
1709.11682616897
 21
850.5636885902701
 31
0.0
  0
LINE
  5
71A0
330
1E
100
AcDbEntity
  8
躯体と製品
  6
Continuous
 62
     4
100
AcDbLine
 10
1709.11682616897
 20
851.9031513890599
 30
0.0
 11
1710.11682616897
 21
850.9031513890601
 31
0.0
  0
LINE
  5
71A1
330
1E
100
AcDbEntity
  8
躯体と製品
  6
Continuous
 62
     4
100
AcDbLine
 10
1709.11682616897
 20
853.3173649514331
 30
0.0
 11
1710.11682616897
 21
852.3173649514333
 31
0.0
  0
LINE
  5
71A2
330
1E
100
AcDbEntity
  8
躯体と製品
  6
Continuous
 62
     4
100
AcDbLine
 10
1709.116826168969
 20
854.7315785138072
 30
0.0
 11
1710.11682616897
 21
853.7315785138071
 31
0.0
  0
LINE
  5
71A3
330
1E
100
AcDbEntity
  8
躯体と製品
  6
Continuous
 62
     4
100
AcDbLine
 10
1709.11682616897
 20
856.145792076178
 30
0.0
 11
1710.11682616897
 21
855.1457920761777
 31
0.0
  0
LINE
  5
71A4
330
1E
100
AcDbEntity
  8
躯体と製品
  6
Continuous
 62
     4
100
AcDbLine
 10
1709.11682616897
 20
857.5600056385512
 30
0.0
 11
1710.11682616897
 21
856.5600056385511
 31
0.0
  0
LINE
  5
71A5
330
1E
100
AcDbEntity
  8
躯体と製品
  6
Continuous
 62
     4
100
AcDbLine
 10
1709.11682616897
 20
858.9742192009246
 30
0.0
 11
1710.11682616897
 21
857.9742192009248
 31
0.0
  0
LINE
  5
71A6
330
1E
100
AcDbEntity
  8
躯体と製品
  6
Continuous
 62
     4
100
AcDbLine
 10
1709.11682616897
 20
860.3884327632977
 30
0.0
 11
1710.11682616897
 21
859.3884327632981
 31
0.0
  0
LINE
  5
71A7
330
1E
100
AcDbEntity
  8
躯体と製品
  6
Continuous
 62
     4
100
AcDbLine
 10
1709.11682616897
 20
861.8026463256709
 30
0.0
 11
1710.11682616897
 21
860.8026463256713
 31
0.0
  0
LINE
  5
71A8
330
1E
100
AcDbEntity
  8
躯体と製品
  6
Continuous
 62
     4
100
AcDbLine
 10
1709.11682616897
 20
863.2168598880442
 30
0.0
 11
1710.11682616897
 21
862.2168598880444
 31
0.0
  0
LINE
  5
71A9
330
1E
100
AcDbEntity
  8
躯体と製品
  6
Continuous
 62
     4
100
AcDbLine
 10
1709.11682616897
 20
864.6310734504181
 30
0.0
 11
1710.11682616897
 21
863.6310734504181
 31
0.0
  0
LINE
  5
71AA
330
1E
100
AcDbEntity
  8
躯体と製品
  6
Continuous
 62
     4
100
AcDbLine
 10
1709.116826168969
 20
866.0452870127901
 30
0.0
 11
1710.11682616897
 21
865.0452870127896
 31
0.0
  0
LINE
  5
71AB
330
1E
100
AcDbEntity
  8
躯体と製品
  6
Continuous
 62
     4
100
AcDbLine
 10
1709.116826168969
 20
867.4595005751632
 30
0.0
 11
1710.11682616897
 21
866.459500575163
 31
0.0
  0
LINE
  5
71AC
330
1E
100
AcDbEntity
  8
躯体と製品
  6
Continuous
 62
     4
100
AcDbLine
 10
1709.11682616897
 20
868.8737141375364
 30
0.0
 11
1710.11682616897
 21
867.8737141375361
 31
0.0
  0
LINE
  5
71AD
330
1E
100
AcDbEntity
  8
躯体と製品
  6
Continuous
 62
     4
100
AcDbLine
 10
1709.116826168969
 20
870.28792769991
 30
0.0
 11
1710.11682616897
 21
869.2879276999104
 31
0.0
  0
LINE
  5
71AE
330
1E
100
AcDbEntity
  8
躯体と製品
  6
Continuous
 62
     4
100
AcDbLine
 10
1709.11682616897
 20
871.7021412622834
 30
0.0
 11
1710.11682616897
 21
870.7021412622834
 31
0.0
  0
LINE
  5
71AF
330
1E
100
AcDbEntity
  8
躯体と製品
  6
Continuous
 62
     4
100
AcDbLine
 10
1709.11682616897
 20
873.1163548246566
 30
0.0
 11
1710.11682616897
 21
872.1163548246565
 31
0.0
  0
LINE
  5
71B0
330
1E
100
AcDbEntity
  8
躯体と製品
  6
Continuous
 62
     4
100
AcDbLine
 10
1709.11682616897
 20
874.5305683870297
 30
0.0
 11
1710.11682616897
 21
873.5305683870301
 31
0.0
  0
LINE
  5
71B1
330
1E
100
AcDbEntity
  8
躯体と製品
  6
Continuous
 62
     4
100
AcDbLine
 10
1709.116826168969
 20
875.9447819494033
 30
0.0
 11
1710.11682616897
 21
874.9447819494033
 31
0.0
  0
LINE
  5
71B2
330
1E
100
AcDbEntity
  8
躯体と製品
  6
Continuous
 62
     4
100
AcDbLine
 10
1709.11682616897
 20
877.358995511774
 30
0.0
 11
1710.11682616897
 21
876.3589955117735
 31
0.0
  0
LINE
  5
71B3
330
1E
100
AcDbEntity
  8
躯体と製品
  6
Continuous
 62
     4
100
AcDbLine
 10
1709.11682616897
 20
878.7732090741478
 30
0.0
 11
1710.11682616897
 21
877.7732090741476
 31
0.0
  0
LINE
  5
71B4
330
1E
100
AcDbEntity
  8
躯体と製品
  6
Continuous
 62
     4
100
AcDbLine
 10
1709.11682616897
 20
880.1874226365212
 30
0.0
 11
1710.11682616897
 21
879.1874226365214
 31
0.0
  0
LINE
  5
71B5
330
1E
100
AcDbEntity
  8
躯体と製品
  6
Continuous
 62
     7
100
AcDbLine
 10
1710.11682616897
 20
880.5636885902702
 30
0.0
 11
1711.11682616897
 21
880.5636885902702
 31
0.0
  0
LINE
  5
71B6
330
1E
100
AcDbEntity
  8
躯体と製品
  6
Continuous
 62
     7
100
AcDbLine
 10
1711.11682616897
 20
804.3636885902701
 30
0.0
 11
1711.11682616897
 21
880.5636885902702
 31
0.0
  0
LINE
  5
71B7
330
1E
100
AcDbEntity
  8
躯体と製品
  6
Continuous
 62
     7
100
AcDbLine
 10
1709.11682616897
 20
895.5636885902702
 30
0.0
 11
1709.11682616897
 21
661.9022331990367
 31
0.0
  0
LINE
  5
71B8
330
1E
100
AcDbEntity
  8
躯体と製品
  6
Continuous
 62
     7
100
AcDbLine
 10
1709.11682616897
 20
895.5636885902702
 30
0.0
 11
1734.11682616897
 21
895.5636885902702
 31
0.0
  0
ARC
  5
71B9
330
1E
100
AcDbEntity
  8
躯体と製品
  6
Continuous
 62
     7
100
AcDbCircle
 10
1724.31682616897
 20
894.5636885902704
 30
0.0
 40
1.0
100
AcDbArc
 50
90.0
 51
180.0
  0
LINE
  5
71BA
330
1E
100
AcDbEntity
  8
躯体と製品
  6
Continuous
 62
     7
100
AcDbLine
 10
1726.31682616897
 20
895.5636885902702
 30
0.0
 11
1724.31682616897
 21
895.5636885902702
 31
0.0
  0
ARC
  5
71BB
330
1E
100
AcDbEntity
  8
躯体と製品
  6
Continuous
 62
     7
100
AcDbCircle
 10
1726.31682616897
 20
894.5636885902704
 30
0.0
 40
1.0
100
AcDbArc
 50
0.0
 51
90.0
  0
LINE
  5
71BC
330
1E
100
AcDbEntity
  8
躯体と製品
  6
Continuous
 62
     7
100
AcDbLine
 10
1727.316826168969
 20
881.5636885902703
 30
0.0
 11
1727.316826168969
 21
894.5636885902704
 31
0.0
  0
LINE
  5
71BD
330
1E
100
AcDbEntity
  8
躯体と製品
  6
Continuous
 62
     7
100
AcDbLine
 10
1723.31682616897
 20
890.8636885902703
 30
0.0
 11
1723.31682616897
 21
894.5636885902704
 31
0.0
  0
TEXT
  5
71C9
330
1E
100
AcDbEntity
  8
寸法
 62
     7
100
AcDbText
 10
1793.61682616897
 20
866.7647062966013
 30
0.0
 40
5.0
  1
（キャップ幅）
100
AcDbText
  0
LINE
  5
71CC
330
1E
100
AcDbEntity
  8
躯体と製品
  6
Continuous
 62
     7
100
AcDbLine
 10
1710.11682616897
 20
804.4073495331788
 30
0.0
 11
1710.11682616897
 21
850.5636885902701
 31
0.0
  0
LINE
  5
71DB
330
1E
100
AcDbEntity
  8
躯体と製品
  6
Continuous
 62
     7
100
AcDbLine
 10
1734.11682616897
 20
970.5636885902704
 30
0.0
 11
1734.11682616897
 21
895.5636885902702
 31
0.0
  0
ARC
  5
71E6
330
1E
100
AcDbEntity
  8
躯体と製品
  6
Continuous
 62
     7
100
AcDbCircle
 10
1761.741826168969
 20
888.0636885902701
 30
0.0
 40
28.625
100
AcDbArc
 50
164.8107132628193
 51
195.1892867371807
  0
LINE
  5
71E7
330
1E
100
AcDbEntity
  8
躯体と製品
  6
Continuous
 62
     4
100
AcDbLine
 10
1725.782057838042
 20
886.3082780176611
 30
0.0
 11
1727.175386306273
 21
881.0509757167894
 31
0.0
  0
LINE
  5
71E8
330
1E
100
AcDbEntity
  8
躯体と製品
  6
Continuous
 62
     4
100
AcDbLine
 10
1727.316826168969
 20
894.1726422931786
 30
0.0
 11
1728.707872466062
 21
895.5636885902702
 31
0.0
  0
LINE
  5
71E9
330
1E
100
AcDbEntity
  8
躯体と製品
  6
Continuous
 62
     4
100
AcDbLine
 10
1727.316826168969
 20
891.344215168432
 30
0.0
 11
1731.536299590808
 21
895.5636885902702
 31
0.0
  0
LINE
  5
71EA
330
1E
100
AcDbEntity
  8
躯体と製品
  6
Continuous
 62
     4
100
AcDbLine
 10
1727.316826168969
 20
888.5157880436851
 30
0.0
 11
1734.027465236856
 21
895.2264271115719
 31
0.0
  0
LINE
  5
71EB
330
1E
100
AcDbEntity
  8
躯体と製品
  6
Continuous
 62
     4
100
AcDbLine
 10
1727.316826168969
 20
885.6873609189385
 30
0.0
 11
1733.351570589064
 21
891.7221053390326
 31
0.0
  0
LINE
  5
71EC
330
1E
100
AcDbEntity
  8
躯体と製品
  6
Continuous
 62
     4
100
AcDbLine
 10
1727.316826168969
 20
882.8589337941918
 30
0.0
 11
1733.123147964961
 21
888.6652555901829
 31
0.0
  0
LINE
  5
71ED
330
1E
100
AcDbEntity
  8
躯体と製品
  6
Continuous
 62
     4
100
AcDbLine
 10
1727.850008089795
 20
880.5636885902702
 30
0.0
 11
1733.197845683141
 21
885.9115261836162
 31
0.0
  0
LINE
  5
71EE
330
1E
100
AcDbEntity
  8
躯体と製品
  6
Continuous
 62
     4
100
AcDbLine
 10
1730.678435214542
 20
880.5636885902702
 30
0.0
 11
1733.501486635145
 21
883.386740010874
 31
0.0
  0
LINE
  5
71F0
330
1E
100
AcDbEntity
  8
躯体と製品
  6
Continuous
 62
     4
100
AcDbLine
 10
1723.458266031666
 20
895.0764014637515
 30
0.0
 11
1724.726519659892
 21
890.2910311294863
 31
0.0
  0
TEXT
  5
71F1
330
1E
100
AcDbEntity
  8
図枠
 62
     6
100
AcDbText
 10
1417.663334878104
 20
975.061670873713
 30
0.0
 40
10.0
  1
◇ステンレス５０タイプ（５０ＦＹＫ－Ｓ）
100
AcDbText
  0
TEXT
  5
71F2
330
1E
100
AcDbEntity
  8
図枠
 62
     6
100
AcDbText
 10
1418.053029709846
 20
934.1290091011734
 30
0.0
 40
10.0
  1
　　Ｓ＝１／２
100
AcDbText
  0
TEXT
  5
71F3
330
1E
100
AcDbEntity
  8
図枠
 62
     6
100
AcDbText
 10
1418.053029709846
 20
957.4901202122845
 30
0.0
 40
10.0
  1
　　屋根－壁（ストレート壁）
100
AcDbText
  0
DIMENSION
  5
7200
330
1E
100
AcDbEntity
  8
寸法
  6
Continuous
100
AcDbDimension
  2
*D4
 10
1743.316826168969
 20
940.5636885902705
 30
0.0
 11
1726.71682616897
 21
944.0636885902703
 31
0.0
 70
    32
  1
33.2
 71
     5
 42
33.20000000000005
  3
AutoCAD
100
AcDbAlignedDimension
 13
1710.11682616897
 23
882.5636885902701
 33
0.0
 14
1743.316826168969
 24
882.5636885902701
 34
0.0
100
AcDbRotatedDimension
  0
DIMENSION
  5
720D
330
1E
100
AcDbEntity
  8
寸法
  6
Continuous
100
AcDbDimension
  2
*D5
 10
1743.316826168969
 20
925.5636883602804
 30
0.0
 11
1733.31682616897
 21
929.0636883602804
 31
0.0
 70
    32
 71
     5
 42
20.0
  3
AutoCAD
100
AcDbAlignedDimension
 13
1723.31682616897
 23
897.5636885902703
 33
0.0
 14
1743.316826168969
 24
882.5636885902701
 34
0.0
100
AcDbRotatedDimension
  0
DIMENSION
  5
721A
330
1E
100
AcDbEntity
  8
寸法
  6
Continuous
100
AcDbDimension
  2
*D6
 10
1770.31682616897
 20
880.5636885902702
 30
0.0
 11
1766.81682616897
 21
888.0636885902704
 31
0.0
 70
    32
 71
     5
 42
15.0
  3
AutoCAD
100
AcDbAlignedDimension
 13
1736.11682616897
 23
895.5636885902702
 33
0.0
 14
1745.316826168969
 24
880.5636885902702
 34
0.0
 50
90.0
100
AcDbRotatedDimension
  0
DIMENSION
  5
7227
330
1E
100
AcDbEntity
  8
寸法
  6
Continuous
100
AcDbDimension
  2
*D7
 10
1770.31682616897
 20
844.5636885902704
 30
0.0
 11
1766.81682616897
 21
862.5636885902705
 31
0.0
 70
    32
 71
     5
 42
35.99999999999977
  3
AutoCAD
100
AcDbAlignedDimension
 13
1745.316826168969
 23
880.5636885902702
 33
0.0
 14
1745.316826168969
 24
844.5636885902704
 34
0.0
 50
90.0
100
AcDbRotatedDimension
  0
DIMENSION
  5
7234
330
1E
100
AcDbEntity
  8
寸法
  6
Continuous
100
AcDbDimension
  2
*D8
 10
1910.11682616897
 20
873.5636885902705
 30
0.0
 11
1817.61682616897
 21
877.0636885902703
 31
0.0
 70
    32
  1
A
 71
     5
 42
185.0
  3
AutoCAD
100
AcDbAlignedDimension
 13
1725.11682616897
 23
873.5636885902705
 33
0.0
 14
1910.11682616897
 24
873.5636885902705
 34
0.0
100
AcDbRotatedDimension
  0
DIMENSION
  5
723F
330
1E
100
AcDbEntity
  8
寸法
  6
Continuous
100
AcDbDimension
  2
*D9
 10
1710.11682616897
 20
955.5636885902703
 30
0.0
 11
1810.11682616897
 21
959.0636885902704
 31
0.0
 70
    32
  1
W
 71
     5
 42
200.0000000000002
  3
AutoCAD
100
AcDbAlignedDimension
 13
1910.11682616897
 23
832.7805917664276
 33
0.0
 14
1710.11682616897
 24
882.5636885902701
 34
0.0
100
AcDbRotatedDimension
  0
DIMENSION
  5
724C
330
1E
100
AcDbEntity
  8
寸法
  6
Continuous
100
AcDbDimension
  2
*D10
 10
1634.11682616897
 20
781.9022331990367
 30
0.0
 11
1630.616826168969
 21
838.7329608946537
 31
0.0
 70
    32
  1
E
 71
     5
 42
113.6614553912335
  3
AutoCAD
100
AcDbAlignedDimension
 13
1707.11682616897
 23
895.5636885902702
 33
0.0
 14
1755.413099690344
 24
781.9022331990367
 34
0.0
 50
90.0
100
AcDbRotatedDimension
  0
DIMENSION
  5
7259
330
1E
100
AcDbEntity
  8
寸法
  6
Continuous
100
AcDbDimension
  2
*D11
 10
1654.464122524303
 20
781.9022331990367
 30
0.0
 11
1650.964122524303
 21
809.3829608946538
 31
0.0
 70
    32
  1
D
 71
     5
 42
54.9614553912337
  3
AutoCAD
100
AcDbAlignedDimension
 13
1654.11682616897
 23
836.8636885902704
 33
0.0
 14
1694.764962929657
 24
781.9022331990367
 34
0.0
 50
90.0
100
AcDbRotatedDimension
  0
DIMENSION
  5
7266
330
1E
100
AcDbEntity
  8
寸法
  6
Continuous
100
AcDbDimension
  2
*D12
 10
1970.11682616897
 20
740.7805917664277
 30
0.0
 11
1966.61682616897
 21
785.780591766428
 31
0.0
 70
    32
 71
     5
 42
90.0
  3
AutoCAD
100
AcDbAlignedDimension
 13
1912.11682616897
 23
830.7805917664277
 33
0.0
 14
1912.11682616897
 24
740.7805917664277
 34
0.0
 50
90.0
100
AcDbRotatedDimension
  0
DIMENSION
  5
7273
330
1E
100
AcDbEntity
  8
寸法
  6
Continuous
100
AcDbDimension
  2
*D13
 10
1950.11682616897
 20
740.7805917664277
 30
0.0
 11
1946.61682616897
 21
761.3414124827325
 31
0.0
 70
    32
  1
44
 71
     5
 42
41.12164143260883
  3
AutoCAD
100
AcDbAlignedDimension
 13
1862.820552647595
 23
781.9022331990366
 33
0.0
 14
1912.11682616897
 24
740.7805917664277
 34
0.0
 50
90.0
100
AcDbRotatedDimension
  0
DIMENSION
  5
7280
330
1E
100
AcDbEntity
  8
寸法
  6
Continuous
100
AcDbDimension
  2
*D14
 10
1859.116826168969
 20
676.9022331990365
 30
0.0
 11
1884.616826168969
 21
680.4022331990365
 31
0.0
 70
    32
  1
50≦
 71
     5
 42
51.00000000000068
  3
AutoCAD
100
AcDbAlignedDimension
 13
1910.11682616897
 23
738.7805917664277
 33
0.0
 14
1859.116826168969
 24
676.9022331990365
 34
0.0
100
AcDbRotatedDimension
  0
DIMENSION
  5
728C
330
1E
100
AcDbEntity
  8
寸法
  6
Continuous
100
AcDbDimension
  2
*D15
 10
1759.116826168969
 20
676.9022331990365
 30
0.0
 11
1809.116826168969
 21
680.4022331990365
 31
0.0
 70
    32
  1
≦Ｃ
 71
     5
 42
100.0
  3
AutoCAD
100
AcDbAlignedDimension
 13
1859.116826168969
 23
676.9022331990365
 33
0.0
 14
1759.116826168969
 24
676.9022331990365
 34
0.0
100
AcDbRotatedDimension
1001
ACAD
1000
DSTYLE
1002
{
1070
   279
1070
     1
1002
}
  0
DIMENSION
  5
7297
330
1E
100
AcDbEntity
  8
寸法
  6
Continuous
100
AcDbDimension
  2
*D16
 10
1709.11682616897
 20
676.9022331990365
 30
0.0
 11
1734.116826168969
 21
680.4022331990365
 31
0.0
 70
    32
 71
     5
 42
49.99999999999932
  3
AutoCAD
100
AcDbAlignedDimension
 13
1759.116826168969
 23
676.9022331990365
 33
0.0
 14
1709.11682616897
 24
676.9022331990365
 34
0.0
100
AcDbRotatedDimension
1001
ACAD
1000
DSTYLE
1002
{
1070
   279
1070
     1
1002
}
  0
DIMENSION
  5
72A2
330
1E
100
AcDbEntity
  8
寸法
  6
Continuous
100
AcDbDimension
  2
*D17
 10
1859.11682616897
 20
721.9022331990368
 30
0.0
 11
1834.11682616897
 21
725.4022331990368
 31
0.0
 70
    32
 71
     5
 42
50.0
  3
AutoCAD
100
AcDbAlignedDimension
 13
1809.11682616897
 23
721.9022331990368
 33
0.0
 14
1859.11682616897
 24
721.9022331990368
 34
0.0
100
AcDbRotatedDimension
  0
ENDSEC
  0
SECTION
  2
OBJECTS
  0
DICTIONARY
  5
C
330
0
100
AcDbDictionary
281
     1
  3
ACAD_COLOR
350
6779
  3
ACAD_GROUP
350
D
  3
ACAD_LAYOUT
350
19
  3
ACAD_MATERIAL
350
6778
  3
ACAD_MLINESTYLE
350
16
  3
ACAD_PLOTSETTINGS
350
18
  3
ACAD_PLOTSTYLENAME
350
E
  3
ACAD_TABLESTYLE
350
677A
  3
ACDBHEADERROUNDTRIPXREC
350
72FA
  3
AcDbVariableDictionary
350
169
  0
DICTIONARY
  5
175
330
2
100
AcDbDictionary
280
     1
281
     1
  3
ACAD_LAYERFILTERS
360
71F7
  3
ACAD_LAYERSTATES
360
176
  3
ACLYDICTIONARY
360
71F6
  0
DICTIONARY
  5
28B
330
1E
100
AcDbDictionary
280
     1
281
     1
  3
ACAD_LAYOUTSELFREF
360
6771
  0
DICTIONARY
  5
28D
330
1A
100
AcDbDictionary
280
     1
281
     1
  3
ACAD_LAYOUTSELFREF
360
6770
  0
DICTIONARY
  5
6779
102
{ACAD_REACTORS
330
C
102
}
330
C
100
AcDbDictionary
281
     1
  0
DICTIONARY
  5
D
102
{ACAD_REACTORS
330
C
102
}
330
C
100
AcDbDictionary
281
     1
  0
DICTIONARY
  5
19
102
{ACAD_REACTORS
330
C
102
}
330
C
100
AcDbDictionary
281
     1
  3
Model
350
21
  3
ﾚｲｱｳﾄ1
350
1D
  0
DICTIONARY
  5
6778
102
{ACAD_REACTORS
330
C
102
}
330
C
100
AcDbDictionary
281
     1
  0
DICTIONARY
  5
16
102
{ACAD_REACTORS
330
C
102
}
330
C
100
AcDbDictionary
281
     1
  3
Standard
350
17
  0
DICTIONARY
  5
18
102
{ACAD_REACTORS
330
C
102
}
330
C
100
AcDbDictionary
281
     1
  0
ACDBDICTIONARYWDFLT
  5
E
102
{ACAD_REACTORS
330
C
102
}
330
C
100
AcDbDictionary
281
     1
  3
Normal
350
F
100
AcDbDictionaryWithDefault
340
F
1001
ACAD
1000
TREAT_AS_HARD
1070
     0
1000
TREAT_AS_HARD
1070
     0
1000
TREAT_AS_HARD
1070
     0
1000
TREAT_AS_HARD
1070
     0
1000
TREAT_AS_HARD
1070
     0
1000
TREAT_AS_HARD
1070
     0
1000
TREAT_AS_HARD
1070
     0
1000
TREAT_AS_HARD
1070
     0
1000
TREAT_AS_HARD
1070
     0
1000
TREAT_AS_HARD
1070
     0
1000
TREAT_AS_HARD
1070
     0
1000
TREAT_AS_HARD
1070
     0
1000
TREAT_AS_HARD
1070
     0
1000
TREAT_AS_HARD
1070
     0
1000
TREAT_AS_HARD
1070
     0
1000
TREAT_AS_HARD
1070
     0
1000
TREAT_AS_HARD
1070
     0
1000
TREAT_AS_HARD
1070
     0
1000
TREAT_AS_HARD
1070
     0
1000
TREAT_AS_HARD
1070
     0
1000
TREAT_AS_HARD
1070
     0
1000
TREAT_AS_HARD
1070
     0
1000
TREAT_AS_HARD
1070
     0
1000
TREAT_AS_HARD
1070
     0
1000
TREAT_AS_HARD
1070
     0
1000
TREAT_AS_HARD
1070
     0
  0
DICTIONARY
  5
677A
102
{ACAD_REACTORS
330
C
102
}
330
C
100
AcDbDictionary
281
     1
  3
Standard
350
677B
  0
DICTIONARY
  5
72FA
102
{ACAD_REACTORS
330
C
102
}
330
C
100
AcDbDictionary
281
     1
  0
DICTIONARY
  5
169
102
{ACAD_REACTORS
330
C
102
}
330
C
100
AcDbDictionary
281
     1
  3
CTABLESTYLE
350
6782
  3
DIMASSOC
350
16A
  3
PROJECTNAME
350
72F8
  0
DICTIONARY
  5
71F7
102
{ACAD_REACTORS
330
175
102
}
330
175
100
AcDbDictionary
281
     1
  0
DICTIONARY
  5
176
102
{ACAD_REACTORS
330
175
102
}
330
175
100
AcDbDictionary
281
     1
  3
ACAD
350
177
  0
DICTIONARY
  5
71F6
102
{ACAD_REACTORS
330
175
102
}
330
175
100
AcDbDictionary
281
     1
1001
ACAD
1000
<All
  0
XRECORD
  5
6771
102
{ACAD_REACTORS
330
28B
102
}
330
28B
100
AcDbXrecord
280
     1
340
1E
  0
XRECORD
  5
6770
102
{ACAD_REACTORS
330
28D
102
}
330
28D
100
AcDbXrecord
280
     1
340
1A
  0
LAYOUT
  5
21
102
{ACAD_XDICTIONARY
360
72FD
102
}
102
{ACAD_REACTORS
330
19
102
}
330
19
100
AcDbPlotSettings
  1

  2
\\MEISEI-1\EPSON Stylus Photo EX3
  4

  6

 40
0.0
 41
0.0
 42
0.0
 43
0.0
 44
0.0
 45
0.0
 46
0.0
 47
0.0
 48
0.0
 49
0.0
140
0.0
141
0.0
142
1.0
143
1.0
 70
  1712
 72
     0
 73
     0
 74
     0
  7

 75
     0
147
1.0
148
0.0
149
0.0
100
AcDbLayout
  1
Model
 70
     1
 71
     0
 10
0.0
 20
0.0
 11
12.0
 21
9.0
 12
0.0
 22
0.0
 32
0.0
 14
0.0
 24
0.0
 34
0.0
 15
0.0
 25
0.0
 35
0.0
146
0.0
 13
0.0
 23
0.0
 33
0.0
 16
1.0
 26
0.0
 36
0.0
 17
0.0
 27
1.0
 37
0.0
 76
     0
330
1E
  0
LAYOUT
  5
1D
102
{ACAD_XDICTIONARY
360
72FB
102
}
102
{ACAD_REACTORS
330
19
102
}
330
19
100
AcDbPlotSettings
  1

  2
\\MEISEI-1\EPSON Stylus Photo EX3
  4

  6

 40
0.0
 41
0.0
 42
0.0
 43
0.0
 44
0.0
 45
0.0
 46
0.0
 47
0.0
 48
0.0
 49
0.0
140
0.0
141
0.0
142
1.0
143
1.0
 70
   688
 72
     0
 73
     0
 74
     5
  7

 75
    16
147
1.0
148
0.0
149
0.0
100
AcDbLayout
  1
ﾚｲｱｳﾄ1
 70
     1
 71
     1
 10
0.0
 20
0.0
 11
12.0
 21
9.0
 12
0.0
 22
0.0
 32
0.0
 14
1.000000000000000E+20
 24
1.000000000000000E+20
 34
1.000000000000000E+20
 15
-1.000000000000000E+20
 25
-1.000000000000000E+20
 35
-1.000000000000000E+20
146
0.0
 13
0.0
 23
0.0
 33
0.0
 16
1.0
 26
0.0
 36
0.0
 17
0.0
 27
1.0
 37
0.0
 76
     0
330
1A
  0
MLINESTYLE
  5
17
102
{ACAD_REACTORS
330
16
102
}
330
16
100
AcDbMlineStyle
  2
STANDARD
 70
     0
  3

 62
   256
 51
90.0
 52
90.0
 71
     2
 49
0.5
 62
   256
  6
BYLAYER
 49
-0.5
 62
   256
  6
BYLAYER
  0
ACDBPLACEHOLDER
  5
F
102
{ACAD_REACTORS
330
E
102
}
330
E
  0
TABLESTYLE
  5
677B
102
{ACAD_REACTORS
330
677A
102
}
330
677A
100
AcDbTableStyle
  3
Standard
 70
     0
 71
     0
 40
0.06
 41
0.06
280
     0
281
     0
  7
STANDARD
140
0.18
170
     2
 62
     0
 63
     7
283
     0
274
    -2
284
     1
 64
     0
275
    -2
285
     1
 65
     0
276
    -2
286
     1
 66
     0
277
    -2
287
     1
 67
     0
278
    -2
288
     1
 68
     0
279
    -2
289
     1
 69
     0
  7
STANDARD
140
0.25
170
     5
 62
     0
 63
     7
283
     0
274
    -2
284
     1
 64
     0
275
    -2
285
     1
 65
     0
276
    -2
286
     1
 66
     0
277
    -2
287
     1
 67
     0
278
    -2
288
     1
 68
     0
279
    -2
289
     1
 69
     0
  7
STANDARD
140
0.18
170
     5
 62
     0
 63
     7
283
     0
274
    -2
284
     1
 64
     0
275
    -2
285
     1
 65
     0
276
    -2
286
     1
 66
     0
277
    -2
287
     1
 67
     0
278
    -2
288
     1
 68
     0
279
    -2
289
     1
 69
     0
  0
DICTIONARYVAR
  5
6782
102
{ACAD_REACTORS
330
169
102
}
330
169
100
DictionaryVariables
280
     0
  1
STANDARD
  0
DICTIONARYVAR
  5
16A
102
{ACAD_REACTORS
330
169
102
}
330
169
100
DictionaryVariables
280
     0
  1
1
  0
DICTIONARYVAR
  5
72F8
102
{ACAD_REACTORS
330
169
102
}
330
169
100
DictionaryVariables
280
     0
  1

  0
XRECORD
  5
177
102
{ACAD_REACTORS
330
176
102
}
330
176
100
AcDbXrecord
280
     1
 91
      476
330
179
 90
        8
 62
     7
370
    -3
331
15
  1
Color_7
330
178
 90
        8
 62
     7
370
    -3
331
15
  1
Color_7
330
128
 90
        0
 62
     7
370
    -3
331
15
  1
Color_7
330
10
 90
        8
 62
     7
370
    -3
331
15
  1
Color_7
  0
DICTIONARY
  5
72FD
330
21
100
AcDbDictionary
280
     1
281
     1
  3
ACAD_XREC_ROUNDTRIP
360
72FE
  0
DICTIONARY
  5
72FB
330
1D
100
AcDbDictionary
280
     1
281
     1
  3
ACAD_XREC_ROUNDTRIP
360
72FC
  0
XRECORD
  5
72FE
102
{ACAD_REACTORS
330
72FD
102
}
330
72FD
100
AcDbXrecord
280
     1
102
SHADEPLOT
 70
     0
102
SHADEPLOTRESLEVEL
 70
     2
102
SHADEPLOTCUSTOMDPI
 70
   300
  0
XRECORD
  5
72FC
102
{ACAD_REACTORS
330
72FB
102
}
330
72FB
100
AcDbXrecord
280
     1
102
SHADEPLOT
 70
     0
102
SHADEPLOTRESLEVEL
 70
     2
102
SHADEPLOTCUSTOMDPI
 70
   300
  0
ENDSEC
  0
EOF
