  0
SECTION
  2
HEADER
  9
$ACADVER
  1
AC1015
  9
$ACADMAINTVER
 70
    20
  9
$DWGCODEPAGE
  3
ANSI_932
  9
$INSBASE
 10
0.0
 20
0.0
 30
0.0
  9
$EXTMIN
 10
1243.700463273211
 20
420.4874527975505
 30
-0.0015258207003583
  9
$EXTMAX
 10
2067.827914692806
 20
996.5611890740008
 30
0.0000000349246037
  9
$LIMMIN
 10
0.0
 20
0.0
  9
$LIMMAX
 10
420.0
 20
297.0
  9
$ORTHOMODE
 70
     0
  9
$REGENMODE
 70
     1
  9
$FILLMODE
 70
     1
  9
$QTEXTMODE
 70
     0
  9
$MIRRTEXT
 70
     1
  9
$LTSCALE
 40
1.0
  9
$ATTMODE
 70
     1
  9
$TEXTSIZE
 40
5.0
  9
$TRACEWID
 40
0.05
  9
$TEXTSTYLE
  7
ACAD
  9
$CLAYER
  8
0
  9
$CELTYPE
  6
CONTINUOUS
  9
$CECOLOR
 62
   256
  9
$CELTSCALE
 40
1.0
  9
$DISPSILH
 70
     0
  9
$DIMSCALE
 40
1.0
  9
$DIMASZ
 40
1.0
  9
$DIMEXO
 40
0.0
  9
$DIMDLI
 40
0.38
  9
$DIMRND
 40
0.0
  9
$DIMDLE
 40
0.0
  9
$DIMEXE
 40
0.0
  9
$DIMTP
 40
0.0
  9
$DIMTM
 40
0.0
  9
$DIMTXT
 40
5.0
  9
$DIMCEN
 40
0.09
  9
$DIMTSZ
 40
0.0
  9
$DIMTOL
 70
     0
  9
$DIMLIM
 70
     0
  9
$DIMTIH
 70
     0
  9
$DIMTOH
 70
     1
  9
$DIMSE1
 70
     0
  9
$DIMSE2
 70
     0
  9
$DIMTAD
 70
     1
  9
$DIMZIN
 70
     0
  9
$DIMBLK
  1
Dot
  9
$DIMASO
 70
     1
  9
$DIMSHO
 70
     1
  9
$DIMPOST
  1

  9
$DIMAPOST
  1

  9
$DIMALT
 70
     0
  9
$DIMALTD
 70
     2
  9
$DIMALTF
 40
25.4
  9
$DIMLFAC
 40
1.0
  9
$DIMTOFL
 70
     0
  9
$DIMTVP
 40
0.0
  9
$DIMTIX
 70
     1
  9
$DIMSOXD
 70
     0
  9
$DIMSAH
 70
     0
  9
$DIMBLK1
  1

  9
$DIMBLK2
  1

  9
$DIMSTYLE
  2
AutoCAD
  9
$DIMCLRD
 70
     4
  9
$DIMCLRE
 70
     4
  9
$DIMCLRT
 70
     3
  9
$DIMTFAC
 40
1.0
  9
$DIMGAP
 40
1.0
  9
$DIMJUST
 70
     0
  9
$DIMSD1
 70
     0
  9
$DIMSD2
 70
     0
  9
$DIMTOLJ
 70
     1
  9
$DIMTZIN
 70
     0
  9
$DIMALTZ
 70
     0
  9
$DIMALTTZ
 70
     0
  9
$DIMUPT
 70
     0
  9
$DIMDEC
 70
     0
  9
$DIMTDEC
 70
     0
  9
$DIMALTU
 70
     2
  9
$DIMALTTD
 70
     2
  9
$DIMTXSTY
  7
ACAD
  9
$DIMAUNIT
 70
     0
  9
$DIMADEC
 70
     0
  9
$DIMALTRND
 40
0.0
  9
$DIMAZIN
 70
     0
  9
$DIMDSEP
 70
    46
  9
$DIMATFIT
 70
     0
  9
$DIMFRAC
 70
     0
  9
$DIMLDRBLK
  1
None
  9
$DIMLUNIT
 70
     2
  9
$DIMLWD
 70
    -2
  9
$DIMLWE
 70
    -2
  9
$DIMTMOVE
 70
     0
  9
$LUNITS
 70
     2
  9
$LUPREC
 70
     4
  9
$SKETCHINC
 40
0.1
  9
$FILLETRAD
 40
0.0
  9
$AUNITS
 70
     0
  9
$AUPREC
 70
     0
  9
$MENU
  1
.
  9
$ELEVATION
 40
0.0
  9
$PELEVATION
 40
0.0
  9
$THICKNESS
 40
0.0
  9
$LIMCHECK
 70
     0
  9
$CHAMFERA
 40
0.0
  9
$CHAMFERB
 40
0.0
  9
$CHAMFERC
 40
0.0
  9
$CHAMFERD
 40
0.0
  9
$SKPOLY
 70
     0
  9
$TDCREATE
 40
2454316.693457674
  9
$TDUCREATE
 40
2454316.318457674
  9
$TDUPDATE
 40
2454736.720727789
  9
$TDUUPDATE
 40
2454736.345727789
  9
$TDINDWG
 40
0.2496999421
  9
$TDUSRTIMER
 40
0.2496999421
  9
$USRTIMER
 70
     1
  9
$ANGBASE
 50
0.0
  9
$ANGDIR
 70
     0
  9
$PDMODE
 70
     0
  9
$PDSIZE
 40
0.0
  9
$PLINEWID
 40
0.0
  9
$SPLFRAME
 70
     0
  9
$SPLINETYPE
 70
     6
  9
$SPLINESEGS
 70
     8
  9
$HANDSEED
  5
7344
  9
$SURFTAB1
 70
     6
  9
$SURFTAB2
 70
     6
  9
$SURFTYPE
 70
     6
  9
$SURFU
 70
     6
  9
$SURFV
 70
     6
  9
$UCSBASE
  2

  9
$UCSNAME
  2

  9
$UCSORG
 10
0.0
 20
0.0
 30
0.0
  9
$UCSXDIR
 10
1.0
 20
0.0
 30
0.0
  9
$UCSYDIR
 10
0.0
 20
1.0
 30
0.0
  9
$UCSORTHOREF
  2

  9
$UCSORTHOVIEW
 70
     0
  9
$UCSORGTOP
 10
0.0
 20
0.0
 30
0.0
  9
$UCSORGBOTTOM
 10
0.0
 20
0.0
 30
0.0
  9
$UCSORGLEFT
 10
0.0
 20
0.0
 30
0.0
  9
$UCSORGRIGHT
 10
0.0
 20
0.0
 30
0.0
  9
$UCSORGFRONT
 10
0.0
 20
0.0
 30
0.0
  9
$UCSORGBACK
 10
0.0
 20
0.0
 30
0.0
  9
$PUCSBASE
  2

  9
$PUCSNAME
  2

  9
$PUCSORG
 10
0.0
 20
0.0
 30
0.0
  9
$PUCSXDIR
 10
1.0
 20
0.0
 30
0.0
  9
$PUCSYDIR
 10
0.0
 20
1.0
 30
0.0
  9
$PUCSORTHOREF
  2

  9
$PUCSORTHOVIEW
 70
     0
  9
$PUCSORGTOP
 10
0.0
 20
0.0
 30
0.0
  9
$PUCSORGBOTTOM
 10
0.0
 20
0.0
 30
0.0
  9
$PUCSORGLEFT
 10
0.0
 20
0.0
 30
0.0
  9
$PUCSORGRIGHT
 10
0.0
 20
0.0
 30
0.0
  9
$PUCSORGFRONT
 10
0.0
 20
0.0
 30
0.0
  9
$PUCSORGBACK
 10
0.0
 20
0.0
 30
0.0
  9
$USERI1
 70
     0
  9
$USERI2
 70
     0
  9
$USERI3
 70
     0
  9
$USERI4
 70
     0
  9
$USERI5
 70
     0
  9
$USERR1
 40
0.0
  9
$USERR2
 40
0.0
  9
$USERR3
 40
0.0
  9
$USERR4
 40
0.0
  9
$USERR5
 40
0.0
  9
$WORLDVIEW
 70
     1
  9
$SHADEDGE
 70
     3
  9
$SHADEDIF
 70
    70
  9
$TILEMODE
 70
     1
  9
$MAXACTVP
 70
    48
  9
$PINSBASE
 10
0.0
 20
0.0
 30
0.0
  9
$PLIMCHECK
 70
     0
  9
$PEXTMIN
 10
1.000000000000000E+20
 20
1.000000000000000E+20
 30
1.000000000000000E+20
  9
$PEXTMAX
 10
-1.000000000000000E+20
 20
-1.000000000000000E+20
 30
-1.000000000000000E+20
  9
$PLIMMIN
 10
0.0
 20
0.0
  9
$PLIMMAX
 10
12.0
 20
9.0
  9
$UNITMODE
 70
     0
  9
$VISRETAIN
 70
     0
  9
$PLINEGEN
 70
     0
  9
$PSLTSCALE
 70
     1
  9
$TREEDEPTH
 70
  3020
  9
$CMLSTYLE
  2
Standard
  9
$CMLJUST
 70
     0
  9
$CMLSCALE
 40
1.0
  9
$PROXYGRAPHICS
 70
     1
  9
$MEASUREMENT
 70
     0
  9
$CELWEIGHT
370
    -1
  9
$ENDCAPS
280
     0
  9
$JOINSTYLE
280
     0
  9
$LWDISPLAY
290
     0
  9
$INSUNITS
 70
     0
  9
$HYPERLINKBASE
  1

  9
$STYLESHEET
  1

  9
$XEDIT
290
     1
  9
$CEPSNTYPE
380
     0
  9
$PSTYLEMODE
290
     1
  9
$FINGERPRINTGUID
  2
{CC7D6DEE-A9F1-4F3E-AC95-C84B62CCA3FD}
  9
$VERSIONGUID
  2
{423422A3-310C-40A4-A8C8-B22D3CB819F8}
  9
$EXTNAMES
290
     1
  9
$PSVPSCALE
 40
0.0
  9
$OLESTARTUP
290
     0
  0
ENDSEC
  0
SECTION
  2
CLASSES
  0
CLASS
  1
ACDBDICTIONARYWDFLT
  2
AcDbDictionaryWithDefault
  3
ObjectDBX Classes
 90
        0
280
     0
281
     0
  0
CLASS
  1
ACDBPLACEHOLDER
  2
AcDbPlaceHolder
  3
ObjectDBX Classes
 90
        0
280
     0
281
     0
  0
CLASS
  1
LAYOUT
  2
AcDbLayout
  3
ObjectDBX Classes
 90
        0
280
     0
281
     0
  0
CLASS
  1
DICTIONARYVAR
  2
AcDbDictionaryVar
  3
ObjectDBX Classes
 90
        0
280
     0
281
     0
  0
CLASS
  1
LONG_TRANSACTION
  2
AcDbLongTransaction
  3
ObjectDBX Classes
 90
    32768
280
     0
281
     0
  0
CLASS
  1
LWPOLYLINE
  2
AcDbPolyline
  3
ObjectDBX Classes
 90
        0
280
     0
281
     1
  0
CLASS
  1
HATCH
  2
AcDbHatch
  3
ObjectDBX Classes
 90
    32768
280
     0
281
     1
  0
CLASS
  1
XRECORD
  2
AcDbXrecord
  3
ObjectDBX Classes
 90
        0
280
     0
281
     0
  0
CLASS
  1
LONG_TRANSACTION
  2
AcDbLongTransaction
  3
ObjectDBX Classes
 90
    32768
280
     0
281
     0
  0
CLASS
  1
LWPOLYLINE
  2
AcDbPolyline
  3
ObjectDBX Classes
 90
        0
280
     0
281
     1
  0
CLASS
  1
HATCH
  2
AcDbHatch
  3
ObjectDBX Classes
 90
    32768
280
     0
281
     1
  0
CLASS
  1
XRECORD
  2
AcDbXrecord
  3
ObjectDBX Classes
 90
        0
280
     0
281
     0
  0
CLASS
  1
LONG_TRANSACTION
  2
AcDbLongTransaction
  3
ObjectDBX Classes
 90
    32768
280
     0
281
     0
  0
CLASS
  1
LWPOLYLINE
  2
AcDbPolyline
  3
ObjectDBX Classes
 90
        0
280
     0
281
     1
  0
CLASS
  1
HATCH
  2
AcDbHatch
  3
ObjectDBX Classes
 90
    32768
280
     0
281
     1
  0
CLASS
  1
XRECORD
  2
AcDbXrecord
  3
ObjectDBX Classes
 90
        0
280
     0
281
     0
  0
CLASS
  1
LONG_TRANSACTION
  2
AcDbLongTransaction
  3
ObjectDBX Classes
 90
    32768
280
     0
281
     0
  0
CLASS
  1
LWPOLYLINE
  2
AcDbPolyline
  3
ObjectDBX Classes
 90
        0
280
     0
281
     1
  0
CLASS
  1
HATCH
  2
AcDbHatch
  3
ObjectDBX Classes
 90
    32768
280
     0
281
     1
  0
CLASS
  1
XRECORD
  2
AcDbXrecord
  3
ObjectDBX Classes
 90
        0
280
     0
281
     0
  0
CLASS
  1
LONG_TRANSACTION
  2
AcDbLongTransaction
  3
ObjectDBX Classes
 90
    32768
280
     0
281
     0
  0
CLASS
  1
LWPOLYLINE
  2
AcDbPolyline
  3
ObjectDBX Classes
 90
        0
280
     0
281
     1
  0
CLASS
  1
HATCH
  2
AcDbHatch
  3
ObjectDBX Classes
 90
    32768
280
     0
281
     1
  0
CLASS
  1
XRECORD
  2
AcDbXrecord
  3
ObjectDBX Classes
 90
        0
280
     0
281
     0
  0
CLASS
  1
LONG_TRANSACTION
  2
AcDbLongTransaction
  3
ObjectDBX Classes
 90
    32768
280
     0
281
     0
  0
CLASS
  1
LWPOLYLINE
  2
AcDbPolyline
  3
ObjectDBX Classes
 90
        0
280
     0
281
     1
  0
CLASS
  1
HATCH
  2
AcDbHatch
  3
ObjectDBX Classes
 90
    32768
280
     0
281
     1
  0
CLASS
  1
XRECORD
  2
AcDbXrecord
  3
ObjectDBX Classes
 90
        0
280
     0
281
     0
  0
CLASS
  1
LONG_TRANSACTION
  2
AcDbLongTransaction
  3
ObjectDBX Classes
 90
    32768
280
     0
281
     0
  0
CLASS
  1
LWPOLYLINE
  2
AcDbPolyline
  3
ObjectDBX Classes
 90
        0
280
     0
281
     1
  0
CLASS
  1
HATCH
  2
AcDbHatch
  3
ObjectDBX Classes
 90
    32768
280
     0
281
     1
  0
CLASS
  1
XRECORD
  2
AcDbXrecord
  3
ObjectDBX Classes
 90
        0
280
     0
281
     0
  0
CLASS
  1
LONG_TRANSACTION
  2
AcDbLongTransaction
  3
ObjectDBX Classes
 90
    32768
280
     0
281
     0
  0
CLASS
  1
LWPOLYLINE
  2
AcDbPolyline
  3
ObjectDBX Classes
 90
        0
280
     0
281
     1
  0
CLASS
  1
HATCH
  2
AcDbHatch
  3
ObjectDBX Classes
 90
    32768
280
     0
281
     1
  0
CLASS
  1
XRECORD
  2
AcDbXrecord
  3
ObjectDBX Classes
 90
        0
280
     0
281
     0
  0
CLASS
  1
LONG_TRANSACTION
  2
AcDbLongTransaction
  3
ObjectDBX Classes
 90
    32768
280
     0
281
     0
  0
CLASS
  1
LWPOLYLINE
  2
AcDbPolyline
  3
ObjectDBX Classes
 90
        0
280
     0
281
     1
  0
CLASS
  1
HATCH
  2
AcDbHatch
  3
ObjectDBX Classes
 90
    32768
280
     0
281
     1
  0
CLASS
  1
XRECORD
  2
AcDbXrecord
  3
ObjectDBX Classes
 90
        0
280
     0
281
     0
  0
CLASS
  1
LONG_TRANSACTION
  2
AcDbLongTransaction
  3
ObjectDBX Classes
 90
    32768
280
     0
281
     0
  0
CLASS
  1
LWPOLYLINE
  2
AcDbPolyline
  3
ObjectDBX Classes
 90
        0
280
     0
281
     1
  0
CLASS
  1
HATCH
  2
AcDbHatch
  3
ObjectDBX Classes
 90
    32768
280
     0
281
     1
  0
CLASS
  1
XRECORD
  2
AcDbXrecord
  3
ObjectDBX Classes
 90
        0
280
     0
281
     0
  0
CLASS
  1
LONG_TRANSACTION
  2
AcDbLongTransaction
  3
ObjectDBX Classes
 90
    32768
280
     0
281
     0
  0
CLASS
  1
LWPOLYLINE
  2
AcDbPolyline
  3
ObjectDBX Classes
 90
        0
280
     0
281
     1
  0
CLASS
  1
HATCH
  2
AcDbHatch
  3
ObjectDBX Classes
 90
    32768
280
     0
281
     1
  0
CLASS
  1
XRECORD
  2
AcDbXrecord
  3
ObjectDBX Classes
 90
        0
280
     0
281
     0
  0
CLASS
  1
LONG_TRANSACTION
  2
AcDbLongTransaction
  3
ObjectDBX Classes
 90
    32768
280
     0
281
     0
  0
CLASS
  1
LWPOLYLINE
  2
AcDbPolyline
  3
ObjectDBX Classes
 90
        0
280
     0
281
     1
  0
CLASS
  1
HATCH
  2
AcDbHatch
  3
ObjectDBX Classes
 90
    32768
280
     0
281
     1
  0
CLASS
  1
XRECORD
  2
AcDbXrecord
  3
ObjectDBX Classes
 90
        0
280
     0
281
     0
  0
CLASS
  1
LONG_TRANSACTION
  2
AcDbLongTransaction
  3
ObjectDBX Classes
 90
    32768
280
     0
281
     0
  0
CLASS
  1
LWPOLYLINE
  2
AcDbPolyline
  3
ObjectDBX Classes
 90
        0
280
     0
281
     1
  0
CLASS
  1
HATCH
  2
AcDbHatch
  3
ObjectDBX Classes
 90
    32768
280
     0
281
     1
  0
CLASS
  1
XRECORD
  2
AcDbXrecord
  3
ObjectDBX Classes
 90
        0
280
     0
281
     0
  0
CLASS
  1
LONG_TRANSACTION
  2
AcDbLongTransaction
  3
ObjectDBX Classes
 90
    32768
280
     0
281
     0
  0
CLASS
  1
LWPOLYLINE
  2
AcDbPolyline
  3
ObjectDBX Classes
 90
        0
280
     0
281
     1
  0
CLASS
  1
HATCH
  2
AcDbHatch
  3
ObjectDBX Classes
 90
    32768
280
     0
281
     1
  0
CLASS
  1
XRECORD
  2
AcDbXrecord
  3
ObjectDBX Classes
 90
        0
280
     0
281
     0
  0
CLASS
  1
LONG_TRANSACTION
  2
AcDbLongTransaction
  3
ObjectDBX Classes
 90
    32768
280
     0
281
     0
  0
CLASS
  1
LWPOLYLINE
  2
AcDbPolyline
  3
ObjectDBX Classes
 90
        0
280
     0
281
     1
  0
CLASS
  1
HATCH
  2
AcDbHatch
  3
ObjectDBX Classes
 90
    32768
280
     0
281
     1
  0
CLASS
  1
XRECORD
  2
AcDbXrecord
  3
ObjectDBX Classes
 90
        0
280
     0
281
     0
  0
CLASS
  1
LONG_TRANSACTION
  2
AcDbLongTransaction
  3
ObjectDBX Classes
 90
    32768
280
     0
281
     0
  0
CLASS
  1
LWPOLYLINE
  2
AcDbPolyline
  3
ObjectDBX Classes
 90
        0
280
     0
281
     1
  0
CLASS
  1
HATCH
  2
AcDbHatch
  3
ObjectDBX Classes
 90
    32768
280
     0
281
     1
  0
CLASS
  1
XRECORD
  2
AcDbXrecord
  3
ObjectDBX Classes
 90
        0
280
     0
281
     0
  0
CLASS
  1
LONG_TRANSACTION
  2
AcDbLongTransaction
  3
ObjectDBX Classes
 90
    32768
280
     0
281
     0
  0
CLASS
  1
LWPOLYLINE
  2
AcDbPolyline
  3
ObjectDBX Classes
 90
        0
280
     0
281
     1
  0
CLASS
  1
HATCH
  2
AcDbHatch
  3
ObjectDBX Classes
 90
    32768
280
     0
281
     1
  0
CLASS
  1
XRECORD
  2
AcDbXrecord
  3
ObjectDBX Classes
 90
        0
280
     0
281
     0
  0
CLASS
  1
LONG_TRANSACTION
  2
AcDbLongTransaction
  3
ObjectDBX Classes
 90
    32768
280
     0
281
     0
  0
CLASS
  1
LWPOLYLINE
  2
AcDbPolyline
  3
ObjectDBX Classes
 90
        0
280
     0
281
     1
  0
CLASS
  1
HATCH
  2
AcDbHatch
  3
ObjectDBX Classes
 90
    32768
280
     0
281
     1
  0
CLASS
  1
XRECORD
  2
AcDbXrecord
  3
ObjectDBX Classes
 90
        0
280
     0
281
     0
  0
CLASS
  1
LONG_TRANSACTION
  2
AcDbLongTransaction
  3
ObjectDBX Classes
 90
    32768
280
     0
281
     0
  0
CLASS
  1
LWPOLYLINE
  2
AcDbPolyline
  3
ObjectDBX Classes
 90
        0
280
     0
281
     1
  0
CLASS
  1
HATCH
  2
AcDbHatch
  3
ObjectDBX Classes
 90
    32768
280
     0
281
     1
  0
CLASS
  1
XRECORD
  2
AcDbXrecord
  3
ObjectDBX Classes
 90
        0
280
     0
281
     0
  0
CLASS
  1
LONG_TRANSACTION
  2
AcDbLongTransaction
  3
ObjectDBX Classes
 90
    32768
280
     0
281
     0
  0
CLASS
  1
LWPOLYLINE
  2
AcDbPolyline
  3
ObjectDBX Classes
 90
        0
280
     0
281
     1
  0
CLASS
  1
HATCH
  2
AcDbHatch
  3
ObjectDBX Classes
 90
    32768
280
     0
281
     1
  0
CLASS
  1
XRECORD
  2
AcDbXrecord
  3
ObjectDBX Classes
 90
        0
280
     0
281
     0
  0
CLASS
  1
LONG_TRANSACTION
  2
AcDbLongTransaction
  3
ObjectDBX Classes
 90
    32768
280
     0
281
     0
  0
CLASS
  1
LWPOLYLINE
  2
AcDbPolyline
  3
ObjectDBX Classes
 90
        0
280
     0
281
     1
  0
CLASS
  1
HATCH
  2
AcDbHatch
  3
ObjectDBX Classes
 90
    32768
280
     0
281
     1
  0
CLASS
  1
XRECORD
  2
AcDbXrecord
  3
ObjectDBX Classes
 90
        0
280
     0
281
     0
  0
CLASS
  1
LONG_TRANSACTION
  2
AcDbLongTransaction
  3
ObjectDBX Classes
 90
    32768
280
     0
281
     0
  0
CLASS
  1
LWPOLYLINE
  2
AcDbPolyline
  3
ObjectDBX Classes
 90
        0
280
     0
281
     1
  0
CLASS
  1
HATCH
  2
AcDbHatch
  3
ObjectDBX Classes
 90
    32768
280
     0
281
     1
  0
CLASS
  1
XRECORD
  2
AcDbXrecord
  3
ObjectDBX Classes
 90
        0
280
     0
281
     0
  0
CLASS
  1
LONG_TRANSACTION
  2
AcDbLongTransaction
  3
ObjectDBX Classes
 90
    32768
280
     0
281
     0
  0
CLASS
  1
LWPOLYLINE
  2
AcDbPolyline
  3
ObjectDBX Classes
 90
        0
280
     0
281
     1
  0
CLASS
  1
HATCH
  2
AcDbHatch
  3
ObjectDBX Classes
 90
    32768
280
     0
281
     1
  0
CLASS
  1
XRECORD
  2
AcDbXrecord
  3
ObjectDBX Classes
 90
        0
280
     0
281
     0
  0
CLASS
  1
LONG_TRANSACTION
  2
AcDbLongTransaction
  3
ObjectDBX Classes
 90
    32768
280
     0
281
     0
  0
CLASS
  1
LWPOLYLINE
  2
AcDbPolyline
  3
ObjectDBX Classes
 90
        0
280
     0
281
     1
  0
CLASS
  1
HATCH
  2
AcDbHatch
  3
ObjectDBX Classes
 90
    32768
280
     0
281
     1
  0
CLASS
  1
XRECORD
  2
AcDbXrecord
  3
ObjectDBX Classes
 90
        0
280
     0
281
     0
  0
CLASS
  1
LONG_TRANSACTION
  2
AcDbLongTransaction
  3
ObjectDBX Classes
 90
    32768
280
     0
281
     0
  0
CLASS
  1
LWPOLYLINE
  2
AcDbPolyline
  3
ObjectDBX Classes
 90
        0
280
     0
281
     1
  0
CLASS
  1
HATCH
  2
AcDbHatch
  3
ObjectDBX Classes
 90
    32768
280
     0
281
     1
  0
CLASS
  1
XRECORD
  2
AcDbXrecord
  3
ObjectDBX Classes
 90
        0
280
     0
281
     0
  0
CLASS
  1
LONG_TRANSACTION
  2
AcDbLongTransaction
  3
ObjectDBX Classes
 90
    32768
280
     0
281
     0
  0
CLASS
  1
LWPOLYLINE
  2
AcDbPolyline
  3
ObjectDBX Classes
 90
        0
280
     0
281
     1
  0
CLASS
  1
HATCH
  2
AcDbHatch
  3
ObjectDBX Classes
 90
    32768
280
     0
281
     1
  0
CLASS
  1
XRECORD
  2
AcDbXrecord
  3
ObjectDBX Classes
 90
        0
280
     0
281
     0
  0
CLASS
  1
TABLESTYLE
  2
AcDbTableStyle
  3
ObjectDBX Classes
 90
     2047
280
     0
281
     0
  0
CLASS
  1
ACAD_PROXY_OBJECT_WRAPPER
  2
AcDbProxyObjectWrapper
  3
ObjectDBX Classes
 90
        0
280
     0
281
     0
  0
CLASS
  1
LONG_TRANSACTION
  2
AcDbLongTransaction
  3
ObjectDBX Classes
 90
    32768
280
     0
281
     0
  0
CLASS
  1
LWPOLYLINE
  2
AcDbPolyline
  3
ObjectDBX Classes
 90
        0
280
     0
281
     1
  0
CLASS
  1
HATCH
  2
AcDbHatch
  3
ObjectDBX Classes
 90
    32768
280
     0
281
     1
  0
CLASS
  1
XRECORD
  2
AcDbXrecord
  3
ObjectDBX Classes
 90
        0
280
     0
281
     0
  0
ENDSEC
  0
SECTION
  2
TABLES
  0
TABLE
  2
VPORT
  5
8
330
0
100
AcDbSymbolTable
 70
     2
  0
VPORT
  5
733E
330
8
100
AcDbSymbolTableRecord
100
AcDbViewportTableRecord
  2
*Active
 70
     0
 10
0.0
 20
0.0
 11
1.0
 21
1.0
 12
1646.881897702456
 22
702.9914057059131
 13
0.0
 23
0.0
 14
1.0
 24
1.0
 15
0.0
 25
0.0
 16
0.0
 26
0.0
 36
1.0
 17
0.0
 27
0.0
 37
0.0
 40
730.8716297465233
 41
1.538265306122448
 42
50.0
 43
0.0
 44
0.0
 50
0.0
 51
0.0
 71
     0
 72
   100
 73
     1
 74
     1
 75
     0
 76
     0
 77
     0
 78
     0
281
     0
 65
     1
110
0.0
120
0.0
130
0.0
111
1.0
121
0.0
131
0.0
112
0.0
122
1.0
132
0.0
 79
     0
146
0.0
  0
ENDTAB
  0
TABLE
  2
LTYPE
  5
5
330
0
100
AcDbSymbolTable
 70
    50
  0
LTYPE
  5
13
330
5
100
AcDbSymbolTableRecord
100
AcDbLinetypeTableRecord
  2
ByBlock
 70
     0
  3

 72
    65
 73
     0
 40
0.0
  0
LTYPE
  5
14
330
5
100
AcDbSymbolTableRecord
100
AcDbLinetypeTableRecord
  2
ByLayer
 70
     0
  3

 72
    65
 73
     0
 40
0.0
  0
LTYPE
  5
15
330
5
100
AcDbSymbolTableRecord
100
AcDbLinetypeTableRecord
  2
CONTINUOUS
 70
     0
  3
実線
 72
    65
 73
     0
 40
0.0
  0
LTYPE
  5
22
330
5
100
AcDbSymbolTableRecord
100
AcDbLinetypeTableRecord
  2
DASHED1
 70
     0
  3
--  --  --  --  --  --  --  --  
 72
    65
 73
     2
 40
2.5
 49
1.25
 74
     0
 49
-1.25
 74
     0
  0
LTYPE
  5
23
330
5
100
AcDbSymbolTableRecord
100
AcDbLinetypeTableRecord
  2
DASHED2
 70
     0
  3
----    ----    ----    ----    
 72
    65
 73
     2
 40
5.0
 49
2.5
 74
     0
 49
-2.5
 74
     0
  0
LTYPE
  5
24
330
5
100
AcDbSymbolTableRecord
100
AcDbLinetypeTableRecord
  2
DASHED3
 70
     0
  3
------  ------  ------  ------  
 72
    65
 73
     2
 40
5.0
 49
3.75
 74
     0
 49
-1.25
 74
     0
  0
LTYPE
  5
25
330
5
100
AcDbSymbolTableRecord
100
AcDbLinetypeTableRecord
  2
CENTER1
 70
     0
  3
----- - ----- - ----- - ----- - 
 72
    65
 73
     4
 40
10.0
 49
6.25
 74
     0
 49
-1.25
 74
     0
 49
1.25
 74
     0
 49
-1.25
 74
     0
  0
LTYPE
  5
26
330
5
100
AcDbSymbolTableRecord
100
AcDbLinetypeTableRecord
  2
CENTER2
 70
     0
  3
----------  --  ----------  --  
 72
    65
 73
     4
 40
20.0
 49
12.5
 74
     0
 49
-2.5
 74
     0
 49
2.5
 74
     0
 49
-2.5
 74
     0
  0
LTYPE
  5
27
330
5
100
AcDbSymbolTableRecord
100
AcDbLinetypeTableRecord
  2
PHANTOM1
 70
     0
  3
--- - - --- - - --- - - --- - - 
 72
    65
 73
     6
 40
10.0
 49
3.25
 74
     0
 49
-1.25
 74
     0
 49
1.25
 74
     0
 49
-1.25
 74
     0
 49
1.25
 74
     0
 49
-1.25
 74
     0
  0
LTYPE
  5
28
330
5
100
AcDbSymbolTableRecord
100
AcDbLinetypeTableRecord
  2
PHANTOM2
 70
     0
  3
--------  -  -  --------  -  -  
 72
    65
 73
     6
 40
20.0
 49
10.0
 74
     0
 49
-2.5
 74
     0
 49
1.25
 74
     0
 49
-2.5
 74
     0
 49
1.25
 74
     0
 49
-2.5
 74
     0
  0
LTYPE
  5
29
330
5
100
AcDbSymbolTableRecord
100
AcDbLinetypeTableRecord
  2
DOT
 70
     0
  3
-   -   -   -   -   -   -   -   
 72
    65
 73
     2
 40
2.5
 49
0.625
 74
     0
 49
-1.875
 74
     0
  0
LTYPE
  5
2A
330
5
100
AcDbSymbolTableRecord
100
AcDbLinetypeTableRecord
  2
DUMMY
 70
     0
  3
ダミー
 72
    65
 73
     0
 40
0.0
  0
LTYPE
  5
2B
330
5
100
AcDbSymbolTableRecord
100
AcDbLinetypeTableRecord
  2
RAND1
 70
     0
  3
ランダム線1
 72
    65
 73
     4
 40
10.0
 49
1.0
 74
     0
 49
-2.0
 74
     0
 49
3.0
 74
     0
 49
-4.0
 74
     0
  0
LTYPE
  5
2C
330
5
100
AcDbSymbolTableRecord
100
AcDbLinetypeTableRecord
  2
RAND2
 70
     0
  3
ランダム線2
 72
    65
 73
     4
 40
14.0
 49
2.0
 74
     0
 49
-3.0
 74
     0
 49
4.0
 74
     0
 49
-5.0
 74
     0
  0
LTYPE
  5
2D
330
5
100
AcDbSymbolTableRecord
100
AcDbLinetypeTableRecord
  2
RAND3
 70
     0
  3
ランダム線3
 72
    65
 73
     4
 40
18.0
 49
3.0
 74
     0
 49
-4.0
 74
     0
 49
5.0
 74
     0
 49
-6.0
 74
     0
  0
LTYPE
  5
2E
330
5
100
AcDbSymbolTableRecord
100
AcDbLinetypeTableRecord
  2
RAND4
 70
     0
  3
ランダム線4
 72
    65
 73
     4
 40
22.0
 49
4.0
 74
     0
 49
-5.0
 74
     0
 49
6.0
 74
     0
 49
-7.0
 74
     0
  0
LTYPE
  5
2F
330
5
100
AcDbSymbolTableRecord
100
AcDbLinetypeTableRecord
  2
RAND5
 70
     0
  3
ランダム線5
 72
    65
 73
     4
 40
26.0
 49
5.0
 74
     0
 49
-6.0
 74
     0
 49
7.0
 74
     0
 49
-8.0
 74
     0
  0
LTYPE
  5
30
330
5
100
AcDbSymbolTableRecord
100
AcDbLinetypeTableRecord
  2
LONG1
 70
     0
  3
----------  --  ----------  --  
 72
    65
 73
     4
 40
40.0
 49
32.5
 74
     0
 49
-2.5
 74
     0
 49
2.5
 74
     0
 49
-2.5
 74
     0
  0
LTYPE
  5
31
330
5
100
AcDbSymbolTableRecord
100
AcDbLinetypeTableRecord
  2
LONG2
 70
     0
  3
--------  -  -  --------  -  -  
 72
    65
 73
     6
 40
40.0
 49
30.0
 74
     0
 49
-2.5
 74
     0
 49
1.25
 74
     0
 49
-2.5
 74
     0
 49
1.25
 74
     0
 49
-2.5
 74
     0
  0
LTYPE
  5
32
330
5
100
AcDbSymbolTableRecord
100
AcDbLinetypeTableRecord
  2
LONG3
 70
     0
  3
+++++++++++++++..+++++++++++++++
 72
    65
 73
     2
 40
40.0
 49
37.5
 74
     0
 49
-2.5
 74
     0
  0
LTYPE
  5
33
330
5
100
AcDbSymbolTableRecord
100
AcDbLinetypeTableRecord
  2
LONG4
 70
     0
  3
+++++++++++++++..+++++++++++++++
 72
    65
 73
     2
 40
80.0
 49
75.0
 74
     0
 49
-5.0
 74
     0
  0
LTYPE
  5
34
330
5
100
AcDbSymbolTableRecord
100
AcDbLinetypeTableRecord
  2
LONG5
 70
     0
  3
----------  --  ----------  --  
 72
    65
 73
     4
 40
60.0
 49
37.5
 74
     0
 49
-7.5
 74
     0
 49
7.5
 74
     0
 49
-7.5
 74
     0
  0
LTYPE
  5
35
330
5
100
AcDbSymbolTableRecord
100
AcDbLinetypeTableRecord
  2
DASHED
 70
     0
  3
-------   -------------   ------
 72
    65
 73
     2
 40
7.5
 49
6.0
 74
     0
 49
-1.5
 74
     0
  0
LTYPE
  5
36
330
5
100
AcDbSymbolTableRecord
100
AcDbLinetypeTableRecord
  2
DASHED_SPACED
 70
     0
  3
----        --------        ----
 72
    65
 73
     2
 40
12.0
 49
6.0
 74
     0
 49
-6.0
 74
     0
  0
LTYPE
  5
37
330
5
100
AcDbSymbolTableRecord
100
AcDbLinetypeTableRecord
  2
LONG_DASHED_DOTTED
 70
     0
  3
------------- --- --------------
 72
    65
 73
     4
 40
15.25
 49
12.0
 74
     0
 49
-1.5
 74
     0
 49
0.25
 74
     0
 49
-1.5
 74
     0
  0
LTYPE
  5
38
330
5
100
AcDbSymbolTableRecord
100
AcDbLinetypeTableRecord
  2
LONG_DASHED_DOUBLE-DOTTED
 70
     0
  3
----------- --- --- ------------
 72
    65
 73
     6
 40
17.0
 49
12.0
 74
     0
 49
-1.5
 74
     0
 49
0.25
 74
     0
 49
-1.5
 74
     0
 49
0.25
 74
     0
 49
-1.5
 74
     0
  0
LTYPE
  5
39
330
5
100
AcDbSymbolTableRecord
100
AcDbLinetypeTableRecord
  2
LONG_DASHED_TRIPLICATE-DOTTED
 70
     0
  3
--------- --- --- --- ----------
 72
    65
 73
     8
 40
18.75
 49
12.0
 74
     0
 49
-1.5
 74
     0
 49
0.25
 74
     0
 49
-1.5
 74
     0
 49
0.25
 74
     0
 49
-1.5
 74
     0
 49
0.25
 74
     0
 49
-1.5
 74
     0
  0
LTYPE
  5
3A
330
5
100
AcDbSymbolTableRecord
100
AcDbLinetypeTableRecord
  2
DOTTED
 70
     0
  3
   -       -       -       -    
 72
    65
 73
     2
 40
1.75
 49
0.25
 74
     0
 49
-1.5
 74
     0
  0
LTYPE
  5
3B
330
5
100
AcDbSymbolTableRecord
100
AcDbLinetypeTableRecord
  2
CHAIN
 70
     0
  3
-------------- -- --------------
 72
    65
 73
     4
 40
18.5
 49
12.0
 74
     0
 49
-1.5
 74
     0
 49
3.5
 74
     0
 49
-1.5
 74
     0
  0
LTYPE
  5
3C
330
5
100
AcDbSymbolTableRecord
100
AcDbLinetypeTableRecord
  2
CHAIN_DOUBLE_DASH
 70
     0
  3
------------ -- -- -------------
 72
    65
 73
     6
 40
23.5
 49
12.0
 74
     0
 49
-1.5
 74
     0
 49
3.5
 74
     0
 49
-1.5
 74
     0
 49
3.5
 74
     0
 49
-1.5
 74
     0
  0
LTYPE
  5
3D
330
5
100
AcDbSymbolTableRecord
100
AcDbLinetypeTableRecord
  2
DASHED_DOTTED
 70
     0
  3
-----------     -     ----------
 72
    65
 73
     4
 40
9.25
 49
6.0
 74
     0
 49
-1.5
 74
     0
 49
0.25
 74
     0
 49
-1.5
 74
     0
  0
LTYPE
  5
3E
330
5
100
AcDbSymbolTableRecord
100
AcDbLinetypeTableRecord
  2
DOUBLE-DASHED_DOTTED
 70
     0
  3
------   -----------   -   -----
 72
    65
 73
     6
 40
16.75
 49
6.0
 74
     0
 49
-1.5
 74
     0
 49
6.0
 74
     0
 49
-1.5
 74
     0
 49
0.25
 74
     0
 49
-1.5
 74
     0
  0
LTYPE
  5
3F
330
5
100
AcDbSymbolTableRecord
100
AcDbLinetypeTableRecord
  2
DASHED_DOUBLE-DOTTED
 70
     0
  3
---------    -    -    ---------
 72
    65
 73
     6
 40
11.0
 49
6.0
 74
     0
 49
-1.5
 74
     0
 49
0.25
 74
     0
 49
-1.5
 74
     0
 49
0.25
 74
     0
 49
-1.5
 74
     0
  0
LTYPE
  5
40
330
5
100
AcDbSymbolTableRecord
100
AcDbLinetypeTableRecord
  2
DOUBLE-DASHED_DOUBLE-DOTTED
 70
     0
  3
-----   ---------   -   -   ----
 72
    65
 73
     8
 40
18.5
 49
6.0
 74
     0
 49
-1.5
 74
     0
 49
6.0
 74
     0
 49
-1.5
 74
     0
 49
0.25
 74
     0
 49
-1.5
 74
     0
 49
0.25
 74
     0
 49
-1.5
 74
     0
  0
LTYPE
  5
41
330
5
100
AcDbSymbolTableRecord
100
AcDbLinetypeTableRecord
  2
DASHED_TRIPLICATE-DOTTED
 70
     0
  3
-------    -    -    -    ------
 72
    65
 73
     8
 40
12.75
 49
6.0
 74
     0
 49
-1.5
 74
     0
 49
0.25
 74
     0
 49
-1.5
 74
     0
 49
0.25
 74
     0
 49
-1.5
 74
     0
 49
0.25
 74
     0
 49
-1.5
 74
     0
  0
LTYPE
  5
42
330
5
100
AcDbSymbolTableRecord
100
AcDbLinetypeTableRecord
  2
DOUBLE-DASHED_TRIPLICATE-DOTTED
 70
     0
  3
-----  ---------  -  -  -  -----
 72
    65
 73
    10
 40
20.25
 49
6.0
 74
     0
 49
-1.5
 74
     0
 49
6.0
 74
     0
 49
-1.5
 74
     0
 49
0.25
 74
     0
 49
-1.5
 74
     0
 49
0.25
 74
     0
 49
-1.5
 74
     0
 49
0.25
 74
     0
 49
-1.5
 74
     0
  0
LTYPE
  5
43
330
5
100
AcDbSymbolTableRecord
100
AcDbLinetypeTableRecord
  2
UNDEFINED
 70
     0
  3
--------------------------------
 72
    65
 73
     0
 40
0.0
  0
LTYPE
  5
44
330
5
100
AcDbSymbolTableRecord
100
AcDbLinetypeTableRecord
  2
PLINE2
 70
     0
  3
------     -----------     -----
 72
    65
 73
     2
 40
3.0
 49
2.1
 74
     0
 49
-0.9
 74
     0
  0
LTYPE
  5
45
330
5
100
AcDbSymbolTableRecord
100
AcDbLinetypeTableRecord
  2
PLINE3
 70
     0
  3
------------   ---   -----------
 72
    65
 73
     4
 40
10.0
 49
7.0
 74
     0
 49
-1.0
 74
     0
 49
1.0
 74
     0
 49
-1.0
 74
     0
  0
LTYPE
  5
46
330
5
100
AcDbSymbolTableRecord
100
AcDbLinetypeTableRecord
  2
PLINE4
 70
     0
  3
---------   ---   ---   --------
 72
    65
 73
     6
 40
10.0
 49
5.0
 74
     0
 49
-1.0
 74
     0
 49
1.0
 74
     0
 49
-1.0
 74
     0
 49
1.0
 74
     0
 49
-1.0
 74
     0
  0
LTYPE
  5
47
330
5
100
AcDbSymbolTableRecord
100
AcDbLinetypeTableRecord
  2
PLINE5
 70
     0
  3
------     -----------     -----
 72
    65
 73
     2
 40
5.0
 49
3.5
 74
     0
 49
-1.5
 74
     0
  0
LTYPE
  5
48
330
5
100
AcDbSymbolTableRecord
100
AcDbLinetypeTableRecord
  2
PLINE6
 70
     0
  3
------------   ---   -----------
 72
    65
 73
     4
 40
15.0
 49
10.5
 74
     0
 49
-1.5
 74
     0
 49
1.5
 74
     0
 49
-1.5
 74
     0
  0
LTYPE
  5
49
330
5
100
AcDbSymbolTableRecord
100
AcDbLinetypeTableRecord
  2
PLINE7
 70
     0
  3
---------   ---   ---   --------
 72
    65
 73
     6
 40
15.0
 49
7.5
 74
     0
 49
-1.5
 74
     0
 49
1.5
 74
     0
 49
-1.5
 74
     0
 49
1.5
 74
     0
 49
-1.5
 74
     0
  0
LTYPE
  5
4A
330
5
100
AcDbSymbolTableRecord
100
AcDbLinetypeTableRecord
  2
PLINE8
 70
     0
  3
------     -----------     -----
 72
    65
 73
     2
 40
7.0
 49
4.9
 74
     0
 49
-2.1
 74
     0
  0
LTYPE
  5
4B
330
5
100
AcDbSymbolTableRecord
100
AcDbLinetypeTableRecord
  2
PLINE9
 70
     0
  3
------------   ---   -----------
 72
    65
 73
     4
 40
20.0
 49
14.0
 74
     0
 49
-2.0
 74
     0
 49
2.0
 74
     0
 49
-2.0
 74
     0
  0
LTYPE
  5
4C
330
5
100
AcDbSymbolTableRecord
100
AcDbLinetypeTableRecord
  2
PLINE10
 70
     0
  3
---------   ---   ---   --------
 72
    65
 73
     6
 40
20.0
 49
10.0
 74
     0
 49
-2.0
 74
     0
 49
2.0
 74
     0
 49
-2.0
 74
     0
 49
2.0
 74
     0
 49
-2.0
 74
     0
  0
LTYPE
  5
4D
330
5
100
AcDbSymbolTableRecord
100
AcDbLinetypeTableRecord
  2
PLINE11
 70
     0
  3
------     -----------     -----
 72
    65
 73
     2
 40
9.0
 49
6.299999999999999
 74
     0
 49
-2.7
 74
     0
  0
LTYPE
  5
4E
330
5
100
AcDbSymbolTableRecord
100
AcDbLinetypeTableRecord
  2
PLINE12
 70
     0
  3
------------   ---   -----------
 72
    65
 73
     4
 40
25.0
 49
17.5
 74
     0
 49
-2.5
 74
     0
 49
2.5
 74
     0
 49
-2.5
 74
     0
  0
LTYPE
  5
4F
330
5
100
AcDbSymbolTableRecord
100
AcDbLinetypeTableRecord
  2
PLINE13
 70
     0
  3
---------   ---   ---   --------
 72
    65
 73
     6
 40
25.0
 49
12.5
 74
     0
 49
-2.5
 74
     0
 49
2.5
 74
     0
 49
-2.5
 74
     0
 49
2.5
 74
     0
 49
-2.5
 74
     0
  0
LTYPE
  5
50
330
5
100
AcDbSymbolTableRecord
100
AcDbLinetypeTableRecord
  2
PLINE14
 70
     0
  3
------     -----------     -----
 72
    65
 73
     2
 40
11.0
 49
7.7
 74
     0
 49
-3.299999999999999
 74
     0
  0
LTYPE
  5
51
330
5
100
AcDbSymbolTableRecord
100
AcDbLinetypeTableRecord
  2
PLINE15
 70
     0
  3
------------   ---   -----------
 72
    65
 73
     4
 40
30.0
 49
21.0
 74
     0
 49
-3.0
 74
     0
 49
3.0
 74
     0
 49
-3.0
 74
     0
  0
LTYPE
  5
52
330
5
100
AcDbSymbolTableRecord
100
AcDbLinetypeTableRecord
  2
PLINE16
 70
     0
  3
---------   ---   ---   --------
 72
    65
 73
     6
 40
30.0
 49
15.0
 74
     0
 49
-3.0
 74
     0
 49
3.0
 74
     0
 49
-3.0
 74
     0
 49
3.0
 74
     0
 49
-3.0
 74
     0
  0
ENDTAB
  0
TABLE
  2
LAYER
  5
2
102
{ACAD_XDICTIONARY
360
175
102
}
330
0
100
AcDbSymbolTable
 70
     5
  0
LAYER
  5
10
330
2
100
AcDbSymbolTableRecord
100
AcDbLayerTableRecord
  2
0
 70
     0
 62
     7
  6
CONTINUOUS
370
    -3
390
F
  0
LAYER
  5
128
330
2
100
AcDbSymbolTableRecord
100
AcDbLayerTableRecord
  2
Defpoints
 70
     0
 62
     7
  6
CONTINUOUS
290
     0
370
    -3
390
F
  0
LAYER
  5
178
330
2
100
AcDbSymbolTableRecord
100
AcDbLayerTableRecord
  2
寸法
 70
     0
 62
     7
  6
CONTINUOUS
370
    -3
390
F
  0
LAYER
  5
179
330
2
100
AcDbSymbolTableRecord
100
AcDbLayerTableRecord
  2
躯体と製品
 70
     0
 62
     7
  6
CONTINUOUS
370
    -3
390
F
  0
LAYER
  5
4F62
330
2
100
AcDbSymbolTableRecord
100
AcDbLayerTableRecord
  2
図枠
 70
     0
 62
     7
  6
CONTINUOUS
370
    -3
390
F
  0
ENDTAB
  0
TABLE
  2
STYLE
  5
3
330
0
100
AcDbSymbolTable
 70
     5
  0
STYLE
  5
11
330
3
100
AcDbSymbolTableRecord
100
AcDbTextStyleTableRecord
  2
STANDARD
 70
     0
 40
0.0
 41
1.0
 50
0.0
 71
     0
 42
0.2
  3
txt
  4
bigfont.shx
  0
STYLE
  5
53
330
3
100
AcDbSymbolTableRecord
100
AcDbTextStyleTableRecord
  2
TATEGAKI
 70
     4
 40
0.0
 41
1.0
 50
0.0
 71
     0
 42
1.0
  3
txt
  4
bigfont.shx
  0
STYLE
  5
123
330
3
100
AcDbSymbolTableRecord
100
AcDbTextStyleTableRecord
  2
ACAD
 70
     0
 40
5.0
 41
0.8
 50
0.0
 71
     0
 42
5.0
  3
romans.shx
  4
extfont.shx
  0
STYLE
  5
3A5F
330
3
100
AcDbSymbolTableRecord
100
AcDbTextStyleTableRecord
  2
VERTXT
 70
     4
 40
0.0
 41
0.8582679999999999
 50
0.0
 71
     0
 42
3.5
  3
txt.shx
  4
BIGFONT
  0
STYLE
  5
50AD
330
3
100
AcDbSymbolTableRecord
100
AcDbTextStyleTableRecord
  2
STANDARD2
 70
     0
 40
0.0
 41
0.8582679999999999
 50
0.0
 71
     0
 42
3.5
  3
txt.shx
  4
EXTFONT
  0
ENDTAB
  0
TABLE
  2
VIEW
  5
6
330
0
100
AcDbSymbolTable
 70
     0
  0
ENDTAB
  0
TABLE
  2
UCS
  5
7
330
0
100
AcDbSymbolTable
 70
     0
  0
ENDTAB
  0
TABLE
  2
APPID
  5
9
330
0
100
AcDbSymbolTable
 70
     1
  0
APPID
  5
12
330
9
100
AcDbSymbolTableRecord
100
AcDbRegAppTableRecord
  2
ACAD
 70
     0
  0
ENDTAB
  0
TABLE
  2
DIMSTYLE
  5
A
330
0
100
AcDbSymbolTable
 70
     3
100
AcDbDimStyleTable
 71
     0
  0
DIMSTYLE
105
11C
330
A
100
AcDbSymbolTableRecord
100
AcDbDimStyleTableRecord
  2
Standard
 70
     0
340
11
  0
DIMSTYLE
105
126
102
{ACAD_REACTORS
330
71DC
330
71E8
330
71F4
330
720C
330
7219
330
7226
330
7233
330
7240
330
724D
330
7258
330
7265
330
7272
330
727F
330
728C
330
7299
102
}
330
A
100
AcDbSymbolTableRecord
100
AcDbDimStyleTableRecord
  2
AutoCAD
 70
     0
 41
1.0
 42
0.0
 44
0.0
 73
     0
 77
     1
140
5.0
147
1.0
174
     1
176
     4
177
     4
178
     3
271
     0
272
     0
289
     0
340
123
341
15B0
342
11E
  0
DIMSTYLE
105
2CBB
330
A
100
AcDbSymbolTableRecord
100
AcDbDimStyleTableRecord
  2
111
 70
     0
 41
1.0
 42
0.0
 44
0.0
 73
     0
 77
     1
140
5.0
147
1.0
174
     1
176
     4
177
     4
178
     3
271
     0
272
     0
289
     0
340
123
341
15B0
342
2CB5
  0
ENDTAB
  0
TABLE
  2
BLOCK_RECORD
  5
1
330
0
100
AcDbSymbolTable
 70
    19
  0
BLOCK_RECORD
  5
1E
102
{ACAD_XDICTIONARY
360
28B
102
}
330
1
100
AcDbSymbolTableRecord
100
AcDbBlockTableRecord
  2
*Model_Space
340
21
  0
BLOCK_RECORD
  5
1A
102
{ACAD_XDICTIONARY
360
28D
102
}
330
1
100
AcDbSymbolTableRecord
100
AcDbBlockTableRecord
  2
*Paper_Space
340
1D
  0
BLOCK_RECORD
  5
11E
330
1
100
AcDbSymbolTableRecord
100
AcDbBlockTableRecord
  2
_Dot
340
0
102
{BLKREFS
331
71E0
331
71E1
331
71EC
331
71ED
331
72B8
331
72B9
331
72C1
331
72C2
331
72CA
331
72CB
331
722B
331
722C
331
72D3
331
72D4
331
72DC
331
72DD
331
7250
331
7251
331
725D
331
725E
331
726A
331
726B
331
7277
331
7278
331
72E5
331
72E6
331
72A8
331
72A9
331
72B0
331
72B1
102
}
  0
BLOCK_RECORD
  5
15B0
330
1
100
AcDbSymbolTableRecord
100
AcDbBlockTableRecord
  2
_None
340
0
  0
BLOCK_RECORD
  5
2CB5
330
1
100
AcDbSymbolTableRecord
100
AcDbBlockTableRecord
  2
_Open30
340
0
  0
BLOCK_RECORD
  5
35E3
330
1
100
AcDbSymbolTableRecord
100
AcDbBlockTableRecord
  2
_DotBlank
340
0
  0
BLOCK_RECORD
  5
71DD
330
1
100
AcDbSymbolTableRecord
100
AcDbBlockTableRecord
  2
*D4
340
0
  0
BLOCK_RECORD
  5
71E9
330
1
100
AcDbSymbolTableRecord
100
AcDbBlockTableRecord
  2
*D5
340
0
  0
BLOCK_RECORD
  5
71F5
330
1
100
AcDbSymbolTableRecord
100
AcDbBlockTableRecord
  2
*D6
340
0
  0
BLOCK_RECORD
  5
720D
330
1
100
AcDbSymbolTableRecord
100
AcDbBlockTableRecord
  2
*D7
340
0
  0
BLOCK_RECORD
  5
721A
330
1
100
AcDbSymbolTableRecord
100
AcDbBlockTableRecord
  2
*D8
340
0
  0
BLOCK_RECORD
  5
7227
330
1
100
AcDbSymbolTableRecord
100
AcDbBlockTableRecord
  2
*D9
340
0
  0
BLOCK_RECORD
  5
7234
330
1
100
AcDbSymbolTableRecord
100
AcDbBlockTableRecord
  2
*D10
340
0
  0
BLOCK_RECORD
  5
7241
330
1
100
AcDbSymbolTableRecord
100
AcDbBlockTableRecord
  2
*D11
340
0
  0
BLOCK_RECORD
  5
724E
330
1
100
AcDbSymbolTableRecord
100
AcDbBlockTableRecord
  2
*D12
340
0
  0
BLOCK_RECORD
  5
7259
330
1
100
AcDbSymbolTableRecord
100
AcDbBlockTableRecord
  2
*D13
340
0
  0
BLOCK_RECORD
  5
7266
330
1
100
AcDbSymbolTableRecord
100
AcDbBlockTableRecord
  2
*D14
340
0
  0
BLOCK_RECORD
  5
7273
330
1
100
AcDbSymbolTableRecord
100
AcDbBlockTableRecord
  2
*D15
340
0
  0
BLOCK_RECORD
  5
7280
330
1
100
AcDbSymbolTableRecord
100
AcDbBlockTableRecord
  2
*D16
340
0
  0
BLOCK_RECORD
  5
728D
330
1
100
AcDbSymbolTableRecord
100
AcDbBlockTableRecord
  2
*D17
340
0
  0
BLOCK_RECORD
  5
729A
330
1
100
AcDbSymbolTableRecord
100
AcDbBlockTableRecord
  2
*D18
340
0
  0
ENDTAB
  0
ENDSEC
  0
SECTION
  2
BLOCKS
  0
BLOCK
  5
1F
330
1E
100
AcDbEntity
  8
0
100
AcDbBlockBegin
  2
*Model_Space
 70
     0
 10
0.0
 20
0.0
 30
0.0
  3
*Model_Space
  1

  0
ENDBLK
  5
20
330
1E
100
AcDbEntity
  8
0
100
AcDbBlockEnd
  0
BLOCK
  5
1B
330
1A
100
AcDbEntity
 67
     1
  8
0
100
AcDbBlockBegin
  2
*Paper_Space
 70
     0
 10
0.0
 20
0.0
 30
0.0
  3
*Paper_Space
  1

  0
ENDBLK
  5
1C
330
1A
100
AcDbEntity
 67
     1
  8
0
100
AcDbBlockEnd
  0
BLOCK
  5
121
330
11E
100
AcDbEntity
  8
0
100
AcDbBlockBegin
  2
_Dot
 70
     0
 10
0.0
 20
0.0
 30
0.0
  3
_Dot
  1

  0
LWPOLYLINE
  5
11F
330
11E
100
AcDbEntity
  8
0
  6
ByBlock
 62
     0
100
AcDbPolyline
 90
        2
 70
     1
 43
0.5
 10
-0.25
 20
0.0
 42
1.0
 10
0.25
 20
0.0
 42
1.0
  0
LINE
  5
120
330
11E
100
AcDbEntity
  8
0
  6
ByBlock
 62
     0
370
    -2
100
AcDbLine
 10
-0.5
 20
0.0
 30
0.0
 11
-1.0
 21
0.0
 31
0.0
  0
ENDBLK
  5
122
330
11E
100
AcDbEntity
  8
0
100
AcDbBlockEnd
  0
BLOCK
  5
15B1
330
15B0
100
AcDbEntity
  8
0
100
AcDbBlockBegin
  2
_None
 70
     0
 10
0.0
 20
0.0
 30
0.0
  3
_None
  1

  0
ENDBLK
  5
15B2
330
15B0
100
AcDbEntity
  8
0
100
AcDbBlockEnd
  0
BLOCK
  5
2CB9
330
2CB5
100
AcDbEntity
  8
0
100
AcDbBlockBegin
  2
_Open30
 70
     0
 10
0.0
 20
0.0
 30
0.0
  3
_Open30
  1

  0
LINE
  5
2CB6
330
2CB5
100
AcDbEntity
  8
0
  6
ByBlock
 62
     0
370
    -2
100
AcDbLine
 10
-1.0
 20
0.26794919
 30
0.0
 11
0.0
 21
0.0
 31
0.0
  0
LINE
  5
2CB7
330
2CB5
100
AcDbEntity
  8
0
  6
ByBlock
 62
     0
370
    -2
100
AcDbLine
 10
0.0
 20
0.0
 30
0.0
 11
-1.0
 21
-0.26794919
 31
0.0
  0
LINE
  5
2CB8
330
2CB5
100
AcDbEntity
  8
0
  6
ByBlock
 62
     0
370
    -2
100
AcDbLine
 10
0.0
 20
0.0
 30
0.0
 11
-1.0
 21
0.0
 31
0.0
  0
ENDBLK
  5
2CBA
330
2CB5
100
AcDbEntity
  8
0
100
AcDbBlockEnd
  0
BLOCK
  5
35E6
330
35E3
100
AcDbEntity
  8
0
100
AcDbBlockBegin
  2
_DotBlank
 70
     0
 10
0.0
 20
0.0
 30
0.0
  3
_DotBlank
  1

  0
CIRCLE
  5
35E4
330
35E3
100
AcDbEntity
  8
0
  6
ByBlock
 62
     0
370
    -2
100
AcDbCircle
 10
0.0
 20
0.0
 30
0.0
 40
0.5
  0
LINE
  5
35E5
330
35E3
100
AcDbEntity
  8
0
  6
ByBlock
 62
     0
370
    -2
100
AcDbLine
 10
-0.5
 20
0.0
 30
0.0
 11
-1.0
 21
0.0
 31
0.0
  0
ENDBLK
  5
35E7
330
35E3
100
AcDbEntity
  8
0
100
AcDbBlockEnd
  0
BLOCK
  5
71E6
330
71DD
100
AcDbEntity
  8
0
100
AcDbBlockBegin
  2
*D4
 70
     1
 10
0.0
 20
0.0
 30
0.0
  3
*D4
  1

  0
LINE
  5
71DE
330
71DD
100
AcDbEntity
  8
寸法
  6
Continuous
 62
     4
370
    -2
100
AcDbLine
 10
1437.26480670431
 20
798.5307750479549
 30
0.0
 11
1437.26480670431
 21
670.5307750479549
 31
0.0
  0
LINE
  5
71DF
330
71DD
100
AcDbEntity
  8
寸法
  6
Continuous
 62
     4
370
    -2
100
AcDbLine
 10
1438.26480670431
 20
670.5307750479549
 30
0.0
 11
1461.264806704309
 21
670.5307750479549
 31
0.0
  0
INSERT
  5
71E0
330
71DD
100
AcDbEntity
  8
寸法
  6
Continuous
 62
     4
370
    -2
100
AcDbBlockReference
  2
_Dot
 10
1437.26480670431
 20
670.5307750479549
 30
0.0
 50
180.0
  0
INSERT
  5
71E1
330
71DD
100
AcDbEntity
  8
寸法
  6
Continuous
 62
     4
370
    -2
100
AcDbBlockReference
  2
_Dot
 10
1462.264806704309
 20
670.5307750479549
 30
0.0
  0
MTEXT
  5
71E2
330
71DD
100
AcDbEntity
  8
寸法
  6
Continuous
 62
     3
100
AcDbMText
 10
1449.764806704309
 20
674.0307750479549
 30
0.0
 40
5.0
 41
0.0
 71
     5
 72
     5
  1
\A1;25
  7
ACAD
 73
     1
 44
1.0
1001
ACAD
1000
MTEXTBEGIN
1070
    73
1070
     1
1070
    44
1040
1.0
1070
    74
1070
     0
1000
MTEXTEND
  0
POINT
  5
71E3
330
71DD
100
AcDbEntity
  8
Defpoints
  6
Continuous
 62
     0
100
AcDbPoint
 10
1437.26480670431
 20
798.5307750479549
 30
0.0
  0
POINT
  5
71E4
330
71DD
100
AcDbEntity
  8
Defpoints
  6
Continuous
 62
     0
100
AcDbPoint
 10
1462.264806704309
 20
670.5307750479549
 30
0.0
  0
POINT
  5
71E5
330
71DD
100
AcDbEntity
  8
Defpoints
  6
Continuous
 62
     0
100
AcDbPoint
 10
1462.264806704309
 20
670.5307750479549
 30
0.0
  0
ENDBLK
  5
71E7
330
71DD
100
AcDbEntity
  8
0
100
AcDbBlockEnd
  0
BLOCK
  5
71F2
330
71E9
100
AcDbEntity
  8
0
100
AcDbBlockBegin
  2
*D5
 70
     1
 10
0.0
 20
0.0
 30
0.0
  3
*D5
  1

  0
LINE
  5
71EA
330
71E9
100
AcDbEntity
  8
寸法
  6
Continuous
 62
     4
370
    -2
100
AcDbLine
 10
1462.26480670431
 20
670.2807750479548
 30
0.0
 11
1462.26480670431
 21
670.5307750479549
 31
0.0
  0
LINE
  5
71EB
330
71E9
100
AcDbEntity
  8
寸法
  6
Continuous
 62
     4
370
    -2
100
AcDbLine
 10
1463.26480670431
 20
670.5307750479549
 30
0.0
 11
1661.26480670431
 21
670.5307750479549
 31
0.0
  0
INSERT
  5
71EC
330
71E9
100
AcDbEntity
  8
寸法
  6
Continuous
 62
     4
370
    -2
100
AcDbBlockReference
  2
_Dot
 10
1462.26480670431
 20
670.5307750479549
 30
0.0
 50
180.0
  0
INSERT
  5
71ED
330
71E9
100
AcDbEntity
  8
寸法
  6
Continuous
 62
     4
370
    -2
100
AcDbBlockReference
  2
_Dot
 10
1662.26480670431
 20
670.5307750479549
 30
0.0
  0
MTEXT
  5
71EE
330
71E9
100
AcDbEntity
  8
寸法
  6
Continuous
 62
     3
100
AcDbMText
 10
1562.26480670431
 20
674.0307750479549
 30
0.0
 40
5.0
 41
0.0
 71
     5
 72
     5
  1
\A1;200
  7
ACAD
 73
     1
 44
1.0
1001
ACAD
1000
MTEXTBEGIN
1070
    73
1070
     1
1070
    44
1040
1.0
1070
    74
1070
     0
1000
MTEXTEND
  0
POINT
  5
71EF
330
71E9
100
AcDbEntity
  8
Defpoints
  6
Continuous
 62
     0
100
AcDbPoint
 10
1462.26480670431
 20
670.2807750479548
 30
0.0
  0
POINT
  5
71F0
330
71E9
100
AcDbEntity
  8
Defpoints
  6
Continuous
 62
     0
100
AcDbPoint
 10
1662.26480670431
 20
670.5307750479549
 30
0.0
  0
POINT
  5
71F1
330
71E9
100
AcDbEntity
  8
Defpoints
  6
Continuous
 62
     0
100
AcDbPoint
 10
1662.26480670431
 20
670.5307750479549
 30
0.0
  0
ENDBLK
  5
71F3
330
71E9
100
AcDbEntity
  8
0
100
AcDbBlockEnd
  0
BLOCK
  5
71FE
330
71F5
100
AcDbEntity
  8
0
100
AcDbBlockBegin
  2
*D6
 70
     1
 10
0.0
 20
0.0
 30
0.0
  3
*D6
  1

  0
LINE
  5
72B6
330
71F5
100
AcDbEntity
  8
寸法
  6
Continuous
 62
     4
370
    -2
100
AcDbLine
 10
1662.26480670431
 20
670.2807750479548
 30
0.0
 11
1662.26480670431
 21
670.5307750479549
 31
0.0
  0
LINE
  5
72B7
330
71F5
100
AcDbEntity
  8
寸法
  6
Continuous
 62
     4
370
    -2
100
AcDbLine
 10
1663.26480670431
 20
670.5307750479549
 30
0.0
 11
1836.264806704309
 21
670.5307750479549
 31
0.0
  0
INSERT
  5
72B8
330
71F5
100
AcDbEntity
  8
寸法
  6
Continuous
 62
     4
370
    -2
100
AcDbBlockReference
  2
_Dot
 10
1662.26480670431
 20
670.5307750479549
 30
0.0
 50
180.0
  0
INSERT
  5
72B9
330
71F5
100
AcDbEntity
  8
寸法
  6
Continuous
 62
     4
370
    -2
100
AcDbBlockReference
  2
_Dot
 10
1837.264806704309
 20
670.5307750479549
 30
0.0
  0
MTEXT
  5
72BA
330
71F5
100
AcDbEntity
  8
寸法
  6
Continuous
 62
     3
100
AcDbMText
 10
1749.76480670431
 20
674.0307750479549
 30
0.0
 40
5.0
 41
0.0
 71
     5
 72
     5
  1
\A1;≦Ｃ
  7
ACAD
 73
     1
 44
1.0
1001
ACAD
1000
MTEXTBEGIN
1070
    73
1070
     1
1070
    44
1040
1.0
1070
    74
1070
     0
1000
MTEXTEND
  0
POINT
  5
72BB
330
71F5
100
AcDbEntity
  8
Defpoints
  6
Continuous
 62
     0
100
AcDbPoint
 10
1662.26480670431
 20
670.2807750479548
 30
0.0
  0
POINT
  5
72BC
330
71F5
100
AcDbEntity
  8
Defpoints
  6
Continuous
 62
     0
100
AcDbPoint
 10
1837.264806704309
 20
670.5307750479549
 30
0.0
  0
POINT
  5
72BD
330
71F5
100
AcDbEntity
  8
Defpoints
  6
Continuous
 62
     0
100
AcDbPoint
 10
1837.264806704309
 20
670.5307750479549
 30
0.0
  0
ENDBLK
  5
71FF
330
71F5
100
AcDbEntity
  8
0
100
AcDbBlockEnd
  0
BLOCK
  5
7217
330
720D
100
AcDbEntity
  8
0
100
AcDbBlockBegin
  2
*D7
 70
     1
 10
0.0
 20
0.0
 30
0.0
  3
*D7
  1

  0
LINE
  5
72BE
330
720D
100
AcDbEntity
  8
寸法
  6
Continuous
 62
     4
370
    -2
100
AcDbLine
 10
1837.264806704309
 20
670.2807750479548
 30
0.0
 11
1837.264806704309
 21
670.3418293952672
 31
0.0
  0
LINE
  5
72BF
330
720D
100
AcDbEntity
  8
寸法
  6
Continuous
 62
     4
370
    -2
100
AcDbLine
 10
1913.26480670431
 20
756.1186904692967
 30
0.0
 11
1913.26480670431
 21
670.3418293952672
 31
0.0
  0
LINE
  5
72C0
330
720D
100
AcDbEntity
  8
寸法
  6
Continuous
 62
     4
370
    -2
100
AcDbLine
 10
1838.26480670431
 20
670.3418293952672
 30
0.0
 11
1912.26480670431
 21
670.3418293952672
 31
0.0
  0
INSERT
  5
72C1
330
720D
100
AcDbEntity
  8
寸法
  6
Continuous
 62
     4
370
    -2
100
AcDbBlockReference
  2
_Dot
 10
1837.264806704309
 20
670.3418293952672
 30
0.0
 50
180.0
  0
INSERT
  5
72C2
330
720D
100
AcDbEntity
  8
寸法
  6
Continuous
 62
     4
370
    -2
100
AcDbBlockReference
  2
_Dot
 10
1913.26480670431
 20
670.3418293952672
 30
0.0
  0
MTEXT
  5
72C3
330
720D
100
AcDbEntity
  8
寸法
  6
Continuous
 62
     3
100
AcDbMText
 10
1875.26480670431
 20
673.8418293952673
 30
0.0
 40
5.0
 41
0.0
 71
     5
 72
     5
  1
\A1;75≦
  7
ACAD
 73
     1
 44
1.0
1001
ACAD
1000
MTEXTBEGIN
1070
    73
1070
     1
1070
    44
1040
1.0
1070
    74
1070
     0
1000
MTEXTEND
  0
POINT
  5
72C4
330
720D
100
AcDbEntity
  8
Defpoints
  6
Continuous
 62
     0
100
AcDbPoint
 10
1837.264806704309
 20
670.2807750479548
 30
0.0
  0
POINT
  5
72C5
330
720D
100
AcDbEntity
  8
Defpoints
  6
Continuous
 62
     0
100
AcDbPoint
 10
1913.26480670431
 20
756.1186904692967
 30
0.0
  0
POINT
  5
72C6
330
720D
100
AcDbEntity
  8
Defpoints
  6
Continuous
 62
     0
100
AcDbPoint
 10
1913.26480670431
 20
670.3418293952672
 30
0.0
  0
ENDBLK
  5
7218
330
720D
100
AcDbEntity
  8
0
100
AcDbBlockEnd
  0
BLOCK
  5
7224
330
721A
100
AcDbEntity
  8
0
100
AcDbBlockBegin
  2
*D8
 70
     1
 10
0.0
 20
0.0
 30
0.0
  3
*D8
  1

  0
LINE
  5
72C7
330
721A
100
AcDbEntity
  8
寸法
  6
Continuous
 62
     4
370
    -2
100
AcDbLine
 10
1915.26480670431
 20
758.1186904692968
 30
0.0
 11
1953.26480670431
 21
758.1186904692968
 31
0.0
  0
LINE
  5
72C8
330
721A
100
AcDbEntity
  8
寸法
  6
Continuous
 62
     4
370
    -2
100
AcDbLine
 10
1839.628636326595
 20
800.5307750479548
 30
0.0
 11
1953.26480670431
 21
800.5307750479548
 31
0.0
  0
LINE
  5
72C9
330
721A
100
AcDbEntity
  8
寸法
  6
Continuous
 62
     4
370
    -2
100
AcDbLine
 10
1953.26480670431
 20
759.1186904692968
 30
0.0
 11
1953.26480670431
 21
799.5307750479549
 31
0.0
  0
INSERT
  5
72CA
330
721A
100
AcDbEntity
  8
寸法
  6
Continuous
 62
     4
370
    -2
100
AcDbBlockReference
  2
_Dot
 10
1953.26480670431
 20
758.1186904692968
 30
0.0
 50
270.0
  0
INSERT
  5
72CB
330
721A
100
AcDbEntity
  8
寸法
  6
Continuous
 62
     4
370
    -2
100
AcDbBlockReference
  2
_Dot
 10
1953.26480670431
 20
800.5307750479548
 30
0.0
 50
90.0
  0
MTEXT
  5
72CC
330
721A
100
AcDbEntity
  8
寸法
  6
Continuous
 62
     3
100
AcDbMText
 10
1949.76480670431
 20
779.3247327586262
 30
0.0
 40
5.0
 41
0.0
 71
     5
 72
     5
  1
\A1;44
  7
ACAD
 11
0.0000000000000001
 21
1.0
 31
0.0
 73
     1
 44
1.0
1001
ACAD
1000
MTEXTBEGIN
1070
    73
1070
     1
1070
    44
1040
1.0
1070
    74
1070
     0
1000
MTEXTEND
  0
POINT
  5
72CD
330
721A
100
AcDbEntity
  8
Defpoints
  6
Continuous
 62
     0
100
AcDbPoint
 10
1915.26480670431
 20
758.1186904692968
 30
0.0
  0
POINT
  5
72CE
330
721A
100
AcDbEntity
  8
Defpoints
  6
Continuous
 62
     0
100
AcDbPoint
 10
1839.628636326595
 20
800.5307750479548
 30
0.0
  0
POINT
  5
72CF
330
721A
100
AcDbEntity
  8
Defpoints
  6
Continuous
 62
     0
100
AcDbPoint
 10
1953.26480670431
 20
800.5307750479548
 30
0.0
  0
ENDBLK
  5
7225
330
721A
100
AcDbEntity
  8
0
100
AcDbBlockEnd
  0
BLOCK
  5
7231
330
7227
100
AcDbEntity
  8
0
100
AcDbBlockBegin
  2
*D9
 70
     1
 10
0.0
 20
0.0
 30
0.0
  3
*D9
  1

  0
LINE
  5
7228
330
7227
100
AcDbEntity
  8
寸法
  6
Continuous
 62
     4
370
    -2
100
AcDbLine
 10
1915.26480670431
 20
758.1186904692968
 30
0.0
 11
1973.26480670431
 21
758.1186904692968
 31
0.0
  0
LINE
  5
7229
330
7227
100
AcDbEntity
  8
寸法
  6
Continuous
 62
     4
370
    -2
100
AcDbLine
 10
1915.26480670431
 20
848.1186904692968
 30
0.0
 11
1973.26480670431
 21
848.1186904692968
 31
0.0
  0
LINE
  5
722A
330
7227
100
AcDbEntity
  8
寸法
  6
Continuous
 62
     4
370
    -2
100
AcDbLine
 10
1973.26480670431
 20
759.1186904692968
 30
0.0
 11
1973.26480670431
 21
847.1186904692967
 31
0.0
  0
INSERT
  5
722B
330
7227
100
AcDbEntity
  8
寸法
  6
Continuous
 62
     4
370
    -2
100
AcDbBlockReference
  2
_Dot
 10
1973.26480670431
 20
758.1186904692968
 30
0.0
 50
270.0
  0
INSERT
  5
722C
330
7227
100
AcDbEntity
  8
寸法
  6
Continuous
 62
     4
370
    -2
100
AcDbBlockReference
  2
_Dot
 10
1973.26480670431
 20
848.1186904692968
 30
0.0
 50
90.0
  0
MTEXT
  5
722D
330
7227
100
AcDbEntity
  8
寸法
  6
Continuous
 62
     3
100
AcDbMText
 10
1969.764806704309
 20
803.1186904692971
 30
0.0
 40
5.0
 41
0.0
 71
     5
 72
     5
  1
\A1;90
  7
ACAD
 11
0.0000000000000001
 21
1.0
 31
0.0
 73
     1
 44
1.0
1001
ACAD
1000
MTEXTBEGIN
1070
    73
1070
     1
1070
    44
1040
1.0
1070
    74
1070
     0
1000
MTEXTEND
  0
POINT
  5
722E
330
7227
100
AcDbEntity
  8
Defpoints
  6
Continuous
 62
     0
100
AcDbPoint
 10
1915.26480670431
 20
758.1186904692968
 30
0.0
  0
POINT
  5
722F
330
7227
100
AcDbEntity
  8
Defpoints
  6
Continuous
 62
     0
100
AcDbPoint
 10
1915.26480670431
 20
848.1186904692968
 30
0.0
  0
POINT
  5
7230
330
7227
100
AcDbEntity
  8
Defpoints
  6
Continuous
 62
     0
100
AcDbPoint
 10
1973.26480670431
 20
848.1186904692968
 30
0.0
  0
ENDBLK
  5
7232
330
7227
100
AcDbEntity
  8
0
100
AcDbBlockEnd
  0
BLOCK
  5
723E
330
7234
100
AcDbEntity
  8
0
100
AcDbBlockBegin
  2
*D10
 70
     1
 10
0.0
 20
0.0
 30
0.0
  3
*D10
  1

  0
LINE
  5
72D0
330
7234
100
AcDbEntity
  8
寸法
  6
Continuous
 62
     4
370
    -2
100
AcDbLine
 10
1913.26480670431
 20
850.1186904692968
 30
0.0
 11
1913.26480670431
 21
905.2941752599487
 31
0.0
  0
LINE
  5
72D1
330
7234
100
AcDbEntity
  8
寸法
  6
Continuous
 62
     4
370
    -2
100
AcDbLine
 10
1453.26480670431
 20
886.2262689394954
 30
0.0
 11
1453.26480670431
 21
905.2941752599487
 31
0.0
  0
LINE
  5
72D2
330
7234
100
AcDbEntity
  8
寸法
  6
Continuous
 62
     4
370
    -2
100
AcDbLine
 10
1912.26480670431
 20
905.2941752599487
 30
0.0
 11
1454.26480670431
 21
905.2941752599487
 31
0.0
  0
INSERT
  5
72D3
330
7234
100
AcDbEntity
  8
寸法
  6
Continuous
 62
     4
370
    -2
100
AcDbBlockReference
  2
_Dot
 10
1913.26480670431
 20
905.2941752599487
 30
0.0
  0
INSERT
  5
72D4
330
7234
100
AcDbEntity
  8
寸法
  6
Continuous
 62
     4
370
    -2
100
AcDbBlockReference
  2
_Dot
 10
1453.26480670431
 20
905.2941752599487
 30
0.0
 50
180.0
  0
MTEXT
  5
72D5
330
7234
100
AcDbEntity
  8
寸法
  6
Continuous
 62
     3
100
AcDbMText
 10
1683.26480670431
 20
908.7941752599487
 30
0.0
 40
5.0
 41
0.0
 71
     5
 72
     5
  1
\A1;A
  7
ACAD
 73
     1
 44
1.0
1001
ACAD
1000
MTEXTBEGIN
1070
    73
1070
     1
1070
    44
1040
1.0
1070
    74
1070
     0
1000
MTEXTEND
  0
POINT
  5
72D6
330
7234
100
AcDbEntity
  8
Defpoints
  6
Continuous
 62
     0
100
AcDbPoint
 10
1913.26480670431
 20
850.1186904692968
 30
0.0
  0
POINT
  5
72D7
330
7234
100
AcDbEntity
  8
Defpoints
  6
Continuous
 62
     0
100
AcDbPoint
 10
1453.26480670431
 20
886.2262689394954
 30
0.0
  0
POINT
  5
72D8
330
7234
100
AcDbEntity
  8
Defpoints
  6
Continuous
 62
     0
100
AcDbPoint
 10
1453.26480670431
 20
905.2941752599487
 30
0.0
  0
ENDBLK
  5
723F
330
7234
100
AcDbEntity
  8
0
100
AcDbBlockEnd
  0
BLOCK
  5
724B
330
7241
100
AcDbEntity
  8
0
100
AcDbBlockBegin
  2
*D11
 70
     1
 10
0.0
 20
0.0
 30
0.0
  3
*D11
  1

  0
LINE
  5
72D9
330
7241
100
AcDbEntity
  8
寸法
  6
Continuous
 62
     4
370
    -2
100
AcDbLine
 10
1438.26480670431
 20
914.2941752599487
 30
0.0
 11
1438.26480670431
 21
977.2941752599487
 31
0.0
  0
LINE
  5
72DA
330
7241
100
AcDbEntity
  8
寸法
  6
Continuous
 62
     4
370
    -2
100
AcDbLine
 10
1913.26480670431
 20
850.1186904692968
 30
0.0
 11
1913.26480670431
 21
977.2941752599487
 31
0.0
  0
LINE
  5
72DB
330
7241
100
AcDbEntity
  8
寸法
  6
Continuous
 62
     4
370
    -2
100
AcDbLine
 10
1439.26480670431
 20
977.2941752599487
 30
0.0
 11
1912.26480670431
 21
977.2941752599487
 31
0.0
  0
INSERT
  5
72DC
330
7241
100
AcDbEntity
  8
寸法
  6
Continuous
 62
     4
370
    -2
100
AcDbBlockReference
  2
_Dot
 10
1438.26480670431
 20
977.2941752599487
 30
0.0
 50
180.0
  0
INSERT
  5
72DD
330
7241
100
AcDbEntity
  8
寸法
  6
Continuous
 62
     4
370
    -2
100
AcDbBlockReference
  2
_Dot
 10
1913.26480670431
 20
977.2941752599487
 30
0.0
  0
MTEXT
  5
72DE
330
7241
100
AcDbEntity
  8
寸法
  6
Continuous
 62
     3
100
AcDbMText
 10
1675.76480670431
 20
980.7941752599488
 30
0.0
 40
5.0
 41
0.0
 71
     5
 72
     5
  1
\A1;W
  7
ACAD
 73
     1
 44
1.0
1001
ACAD
1000
MTEXTBEGIN
1070
    73
1070
     1
1070
    44
1040
1.0
1070
    74
1070
     0
1000
MTEXTEND
  0
POINT
  5
72DF
330
7241
100
AcDbEntity
  8
Defpoints
  6
Continuous
 62
     0
100
AcDbPoint
 10
1438.26480670431
 20
914.2941752599487
 30
0.0
  0
POINT
  5
72E0
330
7241
100
AcDbEntity
  8
Defpoints
  6
Continuous
 62
     0
100
AcDbPoint
 10
1913.26480670431
 20
850.1186904692968
 30
0.0
  0
POINT
  5
72E1
330
7241
100
AcDbEntity
  8
Defpoints
  6
Continuous
 62
     0
100
AcDbPoint
 10
1913.26480670431
 20
977.2941752599487
 30
0.0
  0
ENDBLK
  5
724C
330
7241
100
AcDbEntity
  8
0
100
AcDbBlockEnd
  0
BLOCK
  5
7256
330
724E
100
AcDbEntity
  8
0
100
AcDbBlockBegin
  2
*D12
 70
     1
 10
0.0
 20
0.0
 30
0.0
  3
*D12
  1

  0
LINE
  5
724F
330
724E
100
AcDbEntity
  8
寸法
  6
Continuous
 62
     4
370
    -2
100
AcDbLine
 10
1788.26480670431
 20
740.530775047955
 30
0.0
 11
1836.26480670431
 21
740.530775047955
 31
0.0
  0
INSERT
  5
7250
330
724E
100
AcDbEntity
  8
寸法
  6
Continuous
 62
     4
370
    -2
100
AcDbBlockReference
  2
_Dot
 10
1787.26480670431
 20
740.530775047955
 30
0.0
 50
180.0
  0
INSERT
  5
7251
330
724E
100
AcDbEntity
  8
寸法
  6
Continuous
 62
     4
370
    -2
100
AcDbBlockReference
  2
_Dot
 10
1837.264806704309
 20
740.530775047955
 30
0.0
  0
MTEXT
  5
7252
330
724E
100
AcDbEntity
  8
寸法
  6
Continuous
 62
     3
100
AcDbMText
 10
1812.26480670431
 20
744.030775047955
 30
0.0
 40
5.0
 41
0.0
 71
     5
 72
     5
  1
\A1;50
  7
ACAD
 73
     1
 44
1.0
1001
ACAD
1000
MTEXTBEGIN
1070
    73
1070
     1
1070
    44
1040
1.0
1070
    74
1070
     0
1000
MTEXTEND
  0
POINT
  5
7253
330
724E
100
AcDbEntity
  8
Defpoints
  6
Continuous
 62
     0
100
AcDbPoint
 10
1787.26480670431
 20
740.530775047955
 30
0.0
  0
POINT
  5
7254
330
724E
100
AcDbEntity
  8
Defpoints
  6
Continuous
 62
     0
100
AcDbPoint
 10
1837.264806704309
 20
740.530775047955
 30
0.0
  0
POINT
  5
7255
330
724E
100
AcDbEntity
  8
Defpoints
  6
Continuous
 62
     0
100
AcDbPoint
 10
1837.264806704309
 20
740.530775047955
 30
0.0
  0
ENDBLK
  5
7257
330
724E
100
AcDbEntity
  8
0
100
AcDbBlockEnd
  0
BLOCK
  5
7263
330
7259
100
AcDbEntity
  8
0
100
AcDbBlockBegin
  2
*D13
 70
     1
 10
0.0
 20
0.0
 30
0.0
  3
*D13
  1

  0
LINE
  5
725A
330
7259
100
AcDbEntity
  8
寸法
  6
Continuous
 62
     4
370
    -2
100
AcDbLine
 10
1473.46480670431
 20
876.2941752599486
 30
0.0
 11
1506.46480670431
 21
876.2941752599486
 31
0.0
  0
LINE
  5
725B
330
7259
100
AcDbEntity
  8
寸法
  6
Continuous
 62
     4
370
    -2
100
AcDbLine
 10
1473.46480670431
 20
912.2941752599487
 30
0.0
 11
1506.46480670431
 21
912.2941752599487
 31
0.0
  0
LINE
  5
725C
330
7259
100
AcDbEntity
  8
寸法
  6
Continuous
 62
     4
370
    -2
100
AcDbLine
 10
1506.46480670431
 20
877.2941752599487
 30
0.0
 11
1506.46480670431
 21
911.2941752599487
 31
0.0
  0
INSERT
  5
725D
330
7259
100
AcDbEntity
  8
寸法
  6
Continuous
 62
     4
370
    -2
100
AcDbBlockReference
  2
_Dot
 10
1506.46480670431
 20
876.2941752599486
 30
0.0
 50
270.0
  0
INSERT
  5
725E
330
7259
100
AcDbEntity
  8
寸法
  6
Continuous
 62
     4
370
    -2
100
AcDbBlockReference
  2
_Dot
 10
1506.46480670431
 20
912.2941752599487
 30
0.0
 50
90.0
  0
MTEXT
  5
725F
330
7259
100
AcDbEntity
  8
寸法
  6
Continuous
 62
     3
100
AcDbMText
 10
1502.96480670431
 20
894.2941752599489
 30
0.0
 40
5.0
 41
0.0
 71
     5
 72
     5
  1
\A1;36
  7
ACAD
 11
0.0000000000000001
 21
1.0
 31
0.0
 73
     1
 44
1.0
1001
ACAD
1000
MTEXTBEGIN
1070
    73
1070
     1
1070
    44
1040
1.0
1070
    74
1070
     0
1000
MTEXTEND
  0
POINT
  5
7260
330
7259
100
AcDbEntity
  8
Defpoints
  6
Continuous
 62
     0
100
AcDbPoint
 10
1473.46480670431
 20
876.2941752599486
 30
0.0
  0
POINT
  5
7261
330
7259
100
AcDbEntity
  8
Defpoints
  6
Continuous
 62
     0
100
AcDbPoint
 10
1473.46480670431
 20
912.2941752599487
 30
0.0
  0
POINT
  5
7262
330
7259
100
AcDbEntity
  8
Defpoints
  6
Continuous
 62
     0
100
AcDbPoint
 10
1506.46480670431
 20
912.2941752599487
 30
0.0
  0
ENDBLK
  5
7264
330
7259
100
AcDbEntity
  8
0
100
AcDbBlockEnd
  0
BLOCK
  5
7270
330
7266
100
AcDbEntity
  8
0
100
AcDbBlockBegin
  2
*D14
 70
     1
 10
0.0
 20
0.0
 30
0.0
  3
*D14
  1

  0
LINE
  5
7267
330
7266
100
AcDbEntity
  8
寸法
  6
Continuous
 62
     4
370
    -2
100
AcDbLine
 10
1473.46480670431
 20
912.2941752599487
 30
0.0
 11
1506.46480670431
 21
912.2941752599487
 31
0.0
  0
LINE
  5
7268
330
7266
100
AcDbEntity
  8
寸法
  6
Continuous
 62
     4
370
    -2
100
AcDbLine
 10
1464.26480670431
 20
927.2941752599487
 30
0.0
 11
1506.46480670431
 21
927.2941752599487
 31
0.0
  0
LINE
  5
7269
330
7266
100
AcDbEntity
  8
寸法
  6
Continuous
 62
     4
370
    -2
100
AcDbLine
 10
1506.46480670431
 20
913.2941752599487
 30
0.0
 11
1506.46480670431
 21
926.2941752599486
 31
0.0
  0
INSERT
  5
726A
330
7266
100
AcDbEntity
  8
寸法
  6
Continuous
 62
     4
370
    -2
100
AcDbBlockReference
  2
_Dot
 10
1506.46480670431
 20
912.2941752599487
 30
0.0
 50
270.0
  0
INSERT
  5
726B
330
7266
100
AcDbEntity
  8
寸法
  6
Continuous
 62
     4
370
    -2
100
AcDbBlockReference
  2
_Dot
 10
1506.46480670431
 20
927.2941752599487
 30
0.0
 50
90.0
  0
MTEXT
  5
726C
330
7266
100
AcDbEntity
  8
寸法
  6
Continuous
 62
     3
100
AcDbMText
 10
1502.96480670431
 20
919.7941752599488
 30
0.0
 40
5.0
 41
0.0
 71
     5
 72
     5
  1
\A1;15
  7
ACAD
 11
0.0000000000000001
 21
1.0
 31
0.0
 73
     1
 44
1.0
1001
ACAD
1000
MTEXTBEGIN
1070
    73
1070
     1
1070
    44
1040
1.0
1070
    74
1070
     0
1000
MTEXTEND
  0
POINT
  5
726D
330
7266
100
AcDbEntity
  8
Defpoints
  6
Continuous
 62
     0
100
AcDbPoint
 10
1473.46480670431
 20
912.2941752599487
 30
0.0
  0
POINT
  5
726E
330
7266
100
AcDbEntity
  8
Defpoints
  6
Continuous
 62
     0
100
AcDbPoint
 10
1464.26480670431
 20
927.2941752599487
 30
0.0
  0
POINT
  5
726F
330
7266
100
AcDbEntity
  8
Defpoints
  6
Continuous
 62
     0
100
AcDbPoint
 10
1506.46480670431
 20
927.2941752599487
 30
0.0
  0
ENDBLK
  5
7271
330
7266
100
AcDbEntity
  8
0
100
AcDbBlockEnd
  0
BLOCK
  5
727D
330
7273
100
AcDbEntity
  8
0
100
AcDbBlockBegin
  2
*D15
 70
     1
 10
0.0
 20
0.0
 30
0.0
  3
*D15
  1

  0
LINE
  5
7274
330
7273
100
AcDbEntity
  8
寸法
  6
Continuous
 62
     4
370
    -2
100
AcDbLine
 10
1471.46480670431
 20
915.0575754719429
 30
0.0
 11
1471.46480670431
 21
952.2941752599487
 31
0.0
  0
LINE
  5
7275
330
7273
100
AcDbEntity
  8
寸法
  6
Continuous
 62
     4
370
    -2
100
AcDbLine
 10
1451.46480670431
 20
929.2941752599487
 30
0.0
 11
1451.46480670431
 21
952.2941752599487
 31
0.0
  0
LINE
  5
7276
330
7273
100
AcDbEntity
  8
寸法
  6
Continuous
 62
     4
370
    -2
100
AcDbLine
 10
1470.46480670431
 20
952.2941752599487
 30
0.0
 11
1452.46480670431
 21
952.2941752599487
 31
0.0
  0
INSERT
  5
7277
330
7273
100
AcDbEntity
  8
寸法
  6
Continuous
 62
     4
370
    -2
100
AcDbBlockReference
  2
_Dot
 10
1471.46480670431
 20
952.2941752599487
 30
0.0
  0
INSERT
  5
7278
330
7273
100
AcDbEntity
  8
寸法
  6
Continuous
 62
     4
370
    -2
100
AcDbBlockReference
  2
_Dot
 10
1451.46480670431
 20
952.2941752599487
 30
0.0
 50
180.0
  0
MTEXT
  5
7279
330
7273
100
AcDbEntity
  8
寸法
  6
Continuous
 62
     3
100
AcDbMText
 10
1461.46480670431
 20
955.7941752599488
 30
0.0
 40
5.0
 41
0.0
 71
     5
 72
     5
  1
\A1;20
  7
ACAD
 73
     1
 44
1.0
1001
ACAD
1000
MTEXTBEGIN
1070
    73
1070
     1
1070
    44
1040
1.0
1070
    74
1070
     0
1000
MTEXTEND
  0
POINT
  5
727A
330
7273
100
AcDbEntity
  8
Defpoints
  6
Continuous
 62
     0
100
AcDbPoint
 10
1471.46480670431
 20
915.0575754719429
 30
0.0
  0
POINT
  5
727B
330
7273
100
AcDbEntity
  8
Defpoints
  6
Continuous
 62
     0
100
AcDbPoint
 10
1451.46480670431
 20
929.2941752599487
 30
0.0
  0
POINT
  5
727C
330
7273
100
AcDbEntity
  8
Defpoints
  6
Continuous
 62
     0
100
AcDbPoint
 10
1451.46480670431
 20
952.2941752599487
 30
0.0
  0
ENDBLK
  5
727E
330
7273
100
AcDbEntity
  8
0
100
AcDbBlockEnd
  0
BLOCK
  5
728A
330
7280
100
AcDbEntity
  8
0
100
AcDbBlockBegin
  2
*D16
 70
     1
 10
0.0
 20
0.0
 30
0.0
  3
*D16
  1

  0
LINE
  5
72E2
330
7280
100
AcDbEntity
  8
寸法
  6
Continuous
 62
     4
370
    -2
100
AcDbLine
 10
1471.46480670431
 20
915.0575754719429
 30
0.0
 11
1471.46480670431
 21
962.2941752599487
 31
0.0
  0
LINE
  5
72E3
330
7280
100
AcDbEntity
  8
寸法
  6
Continuous
 62
     4
370
    -2
100
AcDbLine
 10
1438.26480670431
 20
914.2941752599487
 30
0.0
 11
1438.26480670431
 21
962.2941752599487
 31
0.0
  0
LINE
  5
72E4
330
7280
100
AcDbEntity
  8
寸法
  6
Continuous
 62
     4
370
    -2
100
AcDbLine
 10
1470.46480670431
 20
962.2941752599487
 30
0.0
 11
1439.26480670431
 21
962.2941752599487
 31
0.0
  0
INSERT
  5
72E5
330
7280
100
AcDbEntity
  8
寸法
  6
Continuous
 62
     4
370
    -2
100
AcDbBlockReference
  2
_Dot
 10
1471.46480670431
 20
962.2941752599487
 30
0.0
  0
INSERT
  5
72E6
330
7280
100
AcDbEntity
  8
寸法
  6
Continuous
 62
     4
370
    -2
100
AcDbBlockReference
  2
_Dot
 10
1438.26480670431
 20
962.2941752599487
 30
0.0
 50
180.0
  0
MTEXT
  5
72E7
330
7280
100
AcDbEntity
  8
寸法
  6
Continuous
 62
     3
100
AcDbMText
 10
1454.86480670431
 20
965.7941752599487
 30
0.0
 40
5.0
 41
0.0
 71
     5
 72
     5
  1
\A1;33.2
  7
ACAD
 73
     1
 44
1.0
1001
ACAD
1000
MTEXTBEGIN
1070
    73
1070
     1
1070
    44
1040
1.0
1070
    74
1070
     0
1000
MTEXTEND
  0
POINT
  5
72E8
330
7280
100
AcDbEntity
  8
Defpoints
  6
Continuous
 62
     0
100
AcDbPoint
 10
1471.46480670431
 20
915.0575754719429
 30
0.0
  0
POINT
  5
72E9
330
7280
100
AcDbEntity
  8
Defpoints
  6
Continuous
 62
     0
100
AcDbPoint
 10
1438.26480670431
 20
914.2941752599487
 30
0.0
  0
POINT
  5
72EA
330
7280
100
AcDbEntity
  8
Defpoints
  6
Continuous
 62
     0
100
AcDbPoint
 10
1438.26480670431
 20
962.2941752599487
 30
0.0
  0
ENDBLK
  5
728B
330
7280
100
AcDbEntity
  8
0
100
AcDbBlockEnd
  0
BLOCK
  5
7297
330
728D
100
AcDbEntity
  8
0
100
AcDbBlockBegin
  2
*D17
 70
     1
 10
0.0
 20
0.0
 30
0.0
  3
*D17
  1

  0
LINE
  5
72A5
330
728D
100
AcDbEntity
  8
寸法
  6
Continuous
 62
     4
370
    -2
100
AcDbLine
 10
1435.26480670431
 20
927.2941752599487
 30
0.0
 11
1362.26480670431
 21
927.2941752599487
 31
0.0
  0
LINE
  5
72A6
330
728D
100
AcDbEntity
  8
寸法
  6
Continuous
 62
     4
370
    -2
100
AcDbLine
 10
1435.26480670431
 20
800.5307750479548
 30
0.0
 11
1362.26480670431
 21
800.5307750479548
 31
0.0
  0
LINE
  5
72A7
330
728D
100
AcDbEntity
  8
寸法
  6
Continuous
 62
     4
370
    -2
100
AcDbLine
 10
1362.26480670431
 20
926.2941752599486
 30
0.0
 11
1362.26480670431
 21
801.5307750479548
 31
0.0
  0
INSERT
  5
72A8
330
728D
100
AcDbEntity
  8
寸法
  6
Continuous
 62
     4
370
    -2
100
AcDbBlockReference
  2
_Dot
 10
1362.26480670431
 20
927.2941752599487
 30
0.0
 50
90.0
  0
INSERT
  5
72A9
330
728D
100
AcDbEntity
  8
寸法
  6
Continuous
 62
     4
370
    -2
100
AcDbBlockReference
  2
_Dot
 10
1362.26480670431
 20
800.5307750479548
 30
0.0
 50
270.0
  0
MTEXT
  5
72AA
330
728D
100
AcDbEntity
  8
寸法
  6
Continuous
 62
     3
100
AcDbMText
 10
1358.764806704309
 20
863.9124751539519
 30
0.0
 40
5.0
 41
0.0
 71
     5
 72
     5
  1
\A1;E
  7
ACAD
 11
0.0000000000000001
 21
1.0
 31
0.0
 73
     1
 44
1.0
1001
ACAD
1000
MTEXTBEGIN
1070
    73
1070
     1
1070
    44
1040
1.0
1070
    74
1070
     0
1000
MTEXTEND
  0
POINT
  5
72AB
330
728D
100
AcDbEntity
  8
Defpoints
  6
Continuous
 62
     0
100
AcDbPoint
 10
1435.26480670431
 20
927.2941752599487
 30
0.0
  0
POINT
  5
72AC
330
728D
100
AcDbEntity
  8
Defpoints
  6
Continuous
 62
     0
100
AcDbPoint
 10
1435.26480670431
 20
800.5307750479548
 30
0.0
  0
POINT
  5
72AD
330
728D
100
AcDbEntity
  8
Defpoints
  6
Continuous
 62
     0
100
AcDbPoint
 10
1362.26480670431
 20
800.5307750479548
 30
0.0
  0
ENDBLK
  5
7298
330
728D
100
AcDbEntity
  8
0
100
AcDbBlockEnd
  0
BLOCK
  5
72A3
330
729A
100
AcDbEntity
  8
0
100
AcDbBlockBegin
  2
*D18
 70
     1
 10
0.0
 20
0.0
 30
0.0
  3
*D18
  1

  0
LINE
  5
72AE
330
729A
100
AcDbEntity
  8
寸法
  6
Continuous
 62
     4
370
    -2
100
AcDbLine
 10
1435.26480670431
 20
800.5307750479548
 30
0.0
 11
1382.26480670431
 21
800.5307750479548
 31
0.0
  0
LINE
  5
72AF
330
729A
100
AcDbEntity
  8
寸法
  6
Continuous
 62
     4
370
    -2
100
AcDbLine
 10
1382.26480670431
 20
801.5307750479548
 30
0.0
 11
1382.26480670431
 21
867.5941752599488
 31
0.0
  0
INSERT
  5
72B0
330
729A
100
AcDbEntity
  8
寸法
  6
Continuous
 62
     4
370
    -2
100
AcDbBlockReference
  2
_Dot
 10
1382.26480670431
 20
800.5307750479548
 30
0.0
 50
270.0
  0
INSERT
  5
72B1
330
729A
100
AcDbEntity
  8
寸法
  6
Continuous
 62
     4
370
    -2
100
AcDbBlockReference
  2
_Dot
 10
1382.26480670431
 20
868.5941752599488
 30
0.0
 50
90.0
  0
MTEXT
  5
72B2
330
729A
100
AcDbEntity
  8
寸法
  6
Continuous
 62
     3
100
AcDbMText
 10
1378.76480670431
 20
834.5624751539521
 30
0.0
 40
5.0
 41
0.0
 71
     5
 72
     5
  1
\A1;D
  7
ACAD
 11
0.0000000000000001
 21
1.0
 31
0.0
 73
     1
 44
1.0
1001
ACAD
1000
MTEXTBEGIN
1070
    73
1070
     1
1070
    44
1040
1.0
1070
    74
1070
     0
1000
MTEXTEND
  0
POINT
  5
72B3
330
729A
100
AcDbEntity
  8
Defpoints
  6
Continuous
 62
     0
100
AcDbPoint
 10
1435.26480670431
 20
800.5307750479548
 30
0.0
  0
POINT
  5
72B4
330
729A
100
AcDbEntity
  8
Defpoints
  6
Continuous
 62
     0
100
AcDbPoint
 10
1382.26480670431
 20
868.5941752599488
 30
0.0
  0
POINT
  5
72B5
330
729A
100
AcDbEntity
  8
Defpoints
  6
Continuous
 62
     0
100
AcDbPoint
 10
1382.26480670431
 20
868.5941752599488
 30
0.0
  0
ENDBLK
  5
72A4
330
729A
100
AcDbEntity
  8
0
100
AcDbBlockEnd
  0
ENDSEC
  0
SECTION
  2
ENTITIES
  0
TEXT
  5
6CC3
330
1E
100
AcDbEntity
  8
図枠
 62
     6
100
AcDbText
 10
1258.638023759387
 20
949.2468444784291
 30
0.0
 40
8.0
  1
　　Ｓ＝１／２
100
AcDbText
  0
TEXT
  5
6CC4
330
1E
100
AcDbEntity
  8
図枠
 62
     6
100
AcDbText
 10
1256.606622793203
 20
979.7178589711828
 30
0.0
 40
8.0
  1
◇ステンレス２００タイプ（２００ＦＹＫ－Ｓ）
100
AcDbText
  0
TEXT
  5
6CC5
330
1E
100
AcDbEntity
  8
図枠
 62
     6
100
AcDbText
 10
1260.66942472557
 20
964.482351724806
 30
0.0
 40
8.0
  1
　　屋根－壁（切欠き壁）
100
AcDbText
  0
CIRCLE
  5
6CC6
330
1E
100
AcDbEntity
  8
図枠
  6
Continuous
 62
     4
100
AcDbCircle
 10
1924.61064381959
 20
896.9609163700415
 30
0.0
 40
6.0
  0
TEXT
  5
6CC7
330
1E
100
AcDbEntity
  8
図枠
 62
     7
100
AcDbText
 10
1921.61064381959
 20
893.9609163700415
 30
0.0
 40
5.0
  1
１
100
AcDbText
  0
LINE
  5
6CC8
330
1E
100
AcDbEntity
  8
図枠
  6
Continuous
 62
     4
100
AcDbLine
 10
1896.474162676188
 20
848.2271014834655
 30
0.0
 11
1921.61064381959
 21
891.7647639473353
 31
0.0
  0
CIRCLE
  5
6CC9
330
1E
100
AcDbEntity
  8
図枠
  6
Continuous
 62
     4
100
AcDbCircle
 10
1896.474162676188
 20
848.2271014834655
 30
0.0
 40
0.9
  0
CIRCLE
  5
6CCA
330
1E
100
AcDbEntity
  8
図枠
  6
Continuous
 62
     4
100
AcDbCircle
 10
1486.022771088408
 20
948.5329465304918
 30
0.0
 40
6.0
  0
TEXT
  5
6CCB
330
1E
100
AcDbEntity
  8
図枠
 62
     7
100
AcDbText
 10
1483.022771088408
 20
945.5329465304917
 30
0.0
 40
5.0
  1
２
100
AcDbText
  0
LINE
  5
6CCC
330
1E
100
AcDbEntity
  8
図枠
  6
Continuous
 62
     4
100
AcDbLine
 10
1464.785949583578
 20
911.7496926928547
 30
0.0
 11
1483.022771088408
 21
943.336794107785
 31
0.0
  0
CIRCLE
  5
6CCD
330
1E
100
AcDbEntity
  8
図枠
  6
Continuous
 62
     4
100
AcDbCircle
 10
1464.785949583578
 20
911.7496926928547
 30
0.0
 40
0.9
  0
LINE
  5
6CCE
330
1E
100
AcDbEntity
  8
躯体と製品
  6
Continuous
 62
     4
100
AcDbLine
 10
1784.64822954808
 20
816.9864780283296
 30
0.0
 11
1784.36230827045
 21
811.5307750479548
 31
0.0
  0
LINE
  5
6CCF
330
1E
100
AcDbEntity
  8
躯体と製品
  6
Continuous
 62
     7
100
AcDbLine
 10
1784.224768148376
 20
811.5307750479548
 30
0.0
 11
1783.816775212677
 21
811.9838971083035
 31
0.0
  0
LINE
  5
6CD0
330
1E
100
AcDbEntity
  8
躯体と製品
  6
Continuous
 62
     4
100
AcDbLine
 10
1789.504564975591
 20
816.7319682731202
 30
0.0
 11
1789.231981989038
 21
811.5307750479548
 31
0.0
  0
LINE
  5
6CD1
330
1E
100
AcDbEntity
  8
躯体と製品
  6
Continuous
 62
     7
100
AcDbLine
 10
1789.808552421204
 20
811.669881370846
 30
0.0
 11
1789.65405919811
 21
811.5307750479548
 31
0.0
  0
CIRCLE
  5
6CD2
330
1E
100
AcDbEntity
  8
図枠
  6
Continuous
 62
     4
100
AcDbCircle
 10
1923.041009112693
 20
830.9194849413636
 30
0.0
 40
6.0
  0
TEXT
  5
6CD3
330
1E
100
AcDbEntity
  8
図枠
 62
     7
100
AcDbText
 10
1920.041009112693
 20
827.9194849413636
 30
0.0
 40
5.0
  1
５
100
AcDbText
  0
LINE
  5
6CD4
330
1E
100
AcDbEntity
  8
図枠
  6
Continuous
 62
     4
100
AcDbLine
 10
1895.072995296336
 20
782.4774640246462
 30
0.0
 11
1920.041009112693
 21
825.7233325186572
 31
0.0
  0
CIRCLE
  5
6CD5
330
1E
100
AcDbEntity
  8
図枠
  6
Continuous
 62
     4
100
AcDbCircle
 10
1895.072995296336
 20
782.4774640246462
 30
0.0
 40
0.9
  0
TEXT
  5
6CD6
330
1E
100
AcDbEntity
  8
図枠
 62
     7
100
AcDbText
 10
1882.449928633496
 20
735.6631680024224
 30
0.0
 40
5.0
  1
11
100
AcDbText
  0
CIRCLE
  5
6CD7
330
1E
100
AcDbEntity
  8
図枠
  6
Continuous
 62
     4
100
AcDbCircle
 10
1885.699928633496
 20
738.6631680024224
 30
0.0
 40
6.0
  0
LINE
  5
6CD8
330
1E
100
AcDbEntity
  8
図枠
  6
Continuous
 62
     4
100
AcDbLine
 10
1872.242481096866
 20
761.9721508760592
 30
0.0
 11
1882.699928633496
 21
743.8593204251292
 31
0.0
  0
CIRCLE
  5
6CD9
330
1E
100
AcDbEntity
  8
図枠
  6
Continuous
 62
     4
100
AcDbCircle
 10
1872.242481096866
 20
761.9721508760592
 30
0.0
 40
0.9
  0
LINE
  5
6CDA
330
1E
100
AcDbEntity
  8
図枠
  6
Continuous
 62
     4
100
AcDbLine
 10
1897.018389414556
 20
830.0589216997336
 30
0.0
 11
1920.654870557958
 21
870.9985079522496
 31
0.0
  0
TEXT
  5
6CDB
330
1E
100
AcDbEntity
  8
図枠
 62
     7
100
AcDbText
 10
1920.654870557958
 20
873.1946603749562
 30
0.0
 40
5.0
  1
９
100
AcDbText
  0
CIRCLE
  5
6CDC
330
1E
100
AcDbEntity
  8
図枠
  6
Continuous
 62
     4
100
AcDbCircle
 10
1923.654870557959
 20
876.1946603749564
 30
0.0
 40
6.0
  0
CIRCLE
  5
6CDD
330
1E
100
AcDbEntity
  8
図枠
  6
Continuous
 62
     4
100
AcDbCircle
 10
1897.018389414556
 20
830.0589216997336
 30
0.0
 40
0.9
  0
LINE
  5
6CDE
330
1E
100
AcDbEntity
  8
図枠
  6
Continuous
 62
     4
100
AcDbLine
 10
1780.143054951288
 20
805.7669319805324
 30
0.0
 11
1770.445801319409
 21
788.9707959962354
 31
0.0
  0
CIRCLE
  5
6CDF
330
1E
100
AcDbEntity
  8
図枠
  6
Continuous
 62
     4
100
AcDbCircle
 10
1767.445801319409
 20
783.7746435735289
 30
0.0
 40
6.0
  0
CIRCLE
  5
6CE0
330
1E
100
AcDbEntity
  8
図枠
  6
Continuous
 62
     4
100
AcDbCircle
 10
1780.143054951288
 20
805.7669319805324
 30
0.0
 40
0.9
  0
LINE
  5
6CE1
330
1E
100
AcDbEntity
  8
図枠
  6
Continuous
 62
     4
100
AcDbLine
 10
1785.138795728308
 20
775.4481136498079
 30
0.0
 11
1775.097181533561
 21
758.0555276745023
 31
0.0
  0
TEXT
  5
6CE2
330
1E
100
AcDbEntity
  8
図枠
 62
     7
100
AcDbText
 10
1768.847181533561
 20
749.8593752517956
 30
0.0
 40
5.0
  1
17
100
AcDbText
  0
CIRCLE
  5
6CE3
330
1E
100
AcDbEntity
  8
図枠
  6
Continuous
 62
     4
100
AcDbCircle
 10
1772.097181533561
 20
752.8593752517956
 30
0.0
 40
6.0
  0
LINE
  5
6CE4
330
1E
100
AcDbEntity
  8
図枠
  6
Continuous
 62
     4
100
AcDbLine
 10
1791.602217533005
 20
808.6313471952131
 30
0.0
 11
1808.024603197862
 21
780.1869408421907
 31
0.0
  0
TEXT
  5
6CE5
330
1E
100
AcDbEntity
  8
図枠
 62
     7
100
AcDbText
 10
1807.774603197861
 20
771.9907884194841
 30
0.0
 40
5.0
  1
16
100
AcDbText
  0
CIRCLE
  5
6CE6
330
1E
100
AcDbEntity
  8
図枠
  6
Continuous
 62
     4
100
AcDbCircle
 10
1811.024603197862
 20
774.9907884194841
 30
0.0
 40
6.0
  0
LINE
  5
6CE7
330
1E
100
AcDbEntity
  8
図枠
  6
Continuous
 62
     4
100
AcDbLine
 10
1797.442289432453
 20
816.0193899595755
 30
0.0
 11
1809.223975564222
 21
795.6129109805228
 31
0.0
  0
TEXT
  5
6CE8
330
1E
100
AcDbEntity
  8
図枠
 62
     7
100
AcDbText
 10
1764.195801319409
 20
780.7746435735289
 30
0.0
 40
5.0
  1
20
100
AcDbText
  0
CIRCLE
  5
6CE9
330
1E
100
AcDbEntity
  8
図枠
  6
Continuous
 62
     4
100
AcDbCircle
 10
1812.223975564222
 20
790.4167585578163
 30
0.0
 40
6.0
  0
LINE
  5
6CEA
330
1E
100
AcDbEntity
  8
図枠
  6
Continuous
 62
     4
100
AcDbLine
 10
1789.319251741742
 20
835.9939447352227
 30
0.0
 11
1807.144784280774
 21
866.8686727647983
 31
0.0
  0
TEXT
  5
6CEB
330
1E
100
AcDbEntity
  8
図枠
 62
     7
100
AcDbText
 10
1809.223975564222
 20
787.4167585578163
 30
0.0
 40
5.0
  1
８
100
AcDbText
  0
CIRCLE
  5
6CEC
330
1E
100
AcDbEntity
  8
図枠
  6
Continuous
 62
     4
100
AcDbCircle
 10
1810.144784280774
 20
872.0648251875049
 30
0.0
 40
6.0
  0
LINE
  5
6CED
330
1E
100
AcDbEntity
  8
図枠
  6
Continuous
 62
     4
100
AcDbLine
 10
1804.868635732699
 20
838.716197378654
 30
0.0
 11
1823.155725505075
 21
870.3903659869823
 31
0.0
  0
CIRCLE
  5
6CEE
330
1E
100
AcDbEntity
  8
図枠
  6
Continuous
 62
     4
100
AcDbCircle
 10
1826.155725505075
 20
875.586518409689
 30
0.0
 40
6.0
  0
LINE
  5
6CEF
330
1E
100
AcDbEntity
  8
図枠
  6
Continuous
 62
     4
100
AcDbLine
 10
1804.786498288488
 20
814.2821120339105
 30
0.0
 11
1829.599552543939
 21
857.2595826953131
 31
0.0
  0
TEXT
  5
6CF0
330
1E
100
AcDbEntity
  8
図枠
 62
     7
100
AcDbText
 10
1829.599552543939
 20
859.4557351180196
 30
0.0
 40
5.0
  1
３
100
AcDbText
  0
CIRCLE
  5
6CF1
330
1E
100
AcDbEntity
  8
図枠
  6
Continuous
 62
     4
100
AcDbCircle
 10
1832.599552543939
 20
862.4557351180197
 30
0.0
 40
6.0
  0
CIRCLE
  5
6CF2
330
1E
100
AcDbEntity
  8
図枠
  6
Continuous
 62
     4
100
AcDbCircle
 10
1804.786498288488
 20
814.2821120339105
 30
0.0
 40
0.9
  0
LINE
  5
6CF3
330
1E
100
AcDbEntity
  8
図枠
  6
Continuous
 62
     4
100
AcDbLine
 10
1837.238147443069
 20
834.1289691480595
 30
0.0
 11
1851.16346255468
 21
858.2483224327747
 31
0.0
  0
TEXT
  5
6CF4
330
1E
100
AcDbEntity
  8
図枠
 62
     7
100
AcDbText
 10
1851.16346255468
 20
860.4444748554813
 30
0.0
 40
5.0
  1
６
100
AcDbText
  0
CIRCLE
  5
6CF5
330
1E
100
AcDbEntity
  8
図枠
  6
Continuous
 62
     4
100
AcDbCircle
 10
1854.16346255468
 20
863.4444748554814
 30
0.0
 40
6.0
  0
CIRCLE
  5
6CF6
330
1E
100
AcDbEntity
  8
図枠
  6
Continuous
 62
     4
100
AcDbCircle
 10
1797.442289432453
 20
816.0193899595755
 30
0.0
 40
0.9
  0
CIRCLE
  5
6CF7
330
1E
100
AcDbEntity
  8
図枠
  6
Continuous
 62
     4
100
AcDbCircle
 10
1791.602217533005
 20
808.6313471952131
 30
0.0
 40
0.9
  0
CIRCLE
  5
6CF8
330
1E
100
AcDbEntity
  8
図枠
  6
Continuous
 62
     4
100
AcDbCircle
 10
1804.868635732699
 20
838.716197378654
 30
0.0
 40
0.9
  0
CIRCLE
  5
6CF9
330
1E
100
AcDbEntity
  8
図枠
  6
Continuous
 62
     4
100
AcDbCircle
 10
1785.138795728308
 20
775.4481136498079
 30
0.0
 40
0.9
  0
CIRCLE
  5
6CFA
330
1E
100
AcDbEntity
  8
図枠
  6
Continuous
 62
     4
100
AcDbCircle
 10
1789.319251741742
 20
835.9939447352227
 30
0.0
 40
0.9
  0
CIRCLE
  5
6CFB
330
1E
100
AcDbEntity
  8
図枠
  6
Continuous
 62
     4
100
AcDbCircle
 10
1837.238147443069
 20
834.1289691480595
 30
0.0
 40
0.9
  0
TEXT
  5
6CFC
330
1E
100
AcDbEntity
  8
図枠
 62
     7
100
AcDbText
 10
1806.894784280774
 20
869.0648251875048
 30
0.0
 40
5.0
  1
14
100
AcDbText
  0
TEXT
  5
6CFD
330
1E
100
AcDbEntity
  8
図枠
 62
     7
100
AcDbText
 10
1823.155725505075
 20
872.5865184096891
 30
0.0
 40
5.0
  1
７
100
AcDbText
  0
LINE
  5
6CFE
330
1E
100
AcDbEntity
  8
躯体と製品
  6
Continuous
 62
     7
100
AcDbLine
 10
1793.038309396206
 20
811.0264580336506
 30
0.0
 11
1793.038309396206
 21
806.5307750479549
 31
0.0
  0
LINE
  5
6CFF
330
1E
100
AcDbEntity
  8
躯体と製品
  6
Continuous
 62
     7
100
AcDbLine
 10
1790.151558050258
 20
811.0264580336506
 30
0.0
 11
1790.151558050258
 21
806.5307750479549
 31
0.0
  0
LINE
  5
6D00
330
1E
100
AcDbEntity
  8
躯体と製品
  6
Continuous
 62
     7
100
AcDbLine
 10
1784.378055358362
 20
811.0264580336506
 30
0.0
 11
1784.378055358362
 21
806.5307750479549
 31
0.0
  0
LINE
  5
6D01
330
1E
100
AcDbEntity
  8
躯体と製品
  6
Continuous
 62
     7
100
AcDbLine
 10
1792.16480670431
 20
811.5307750479548
 30
0.0
 11
1793.038309396206
 21
811.0264580336506
 31
0.0
  0
LINE
  5
6D02
330
1E
100
AcDbEntity
  8
躯体と製品
  6
Continuous
 62
     7
100
AcDbLine
 10
1782.36480670431
 20
811.5307750479548
 30
0.0
 11
1792.16480670431
 21
811.5307750479548
 31
0.0
  0
LINE
  5
6D03
330
1E
100
AcDbEntity
  8
躯体と製品
  6
Continuous
 62
     7
100
AcDbLine
 10
1782.36480670431
 20
811.5307750479548
 30
0.0
 11
1781.491304012413
 21
811.0264580336506
 31
0.0
  0
LINE
  5
6D04
330
1E
100
AcDbEntity
  8
躯体と製品
  6
Continuous
 62
     7
100
AcDbLine
 10
1781.491304012413
 20
811.0264580336506
 30
0.0
 11
1781.491304012413
 21
806.5307750479549
 31
0.0
  0
ARC
  5
6D05
330
1E
100
AcDbEntity
  8
躯体と製品
  6
Continuous
 62
     7
100
AcDbCircle
 10
1791.594933723232
 20
808.9172172726065
 30
0.0
 40
2.555822748428199
100
AcDbArc
 50
55.61575253203897
 51
124.384247467961
  0
ARC
  5
6D06
330
1E
100
AcDbEntity
  8
躯体と製品
  6
Continuous
 62
     7
100
AcDbCircle
 10
1782.934679685388
 20
808.9172172726065
 30
0.0
 40
2.555822748428199
100
AcDbArc
 50
55.61575253203897
 51
124.384247467961
  0
ARC
  5
6D07
330
1E
100
AcDbEntity
  8
躯体と製品
  6
Continuous
 62
     7
100
AcDbCircle
 10
1787.26480670431
 20
801.9196220083991
 30
0.0
 40
9.553418012635715
100
AcDbArc
 50
72.41204622604974
 51
107.5879537739502
  0
LINE
  5
6D08
330
1E
100
AcDbEntity
  8
躯体と製品
  6
Continuous
 62
     7
100
AcDbLine
 10
1778.26480670431
 20
806.5307750479549
 30
0.0
 11
1778.26480670431
 21
805.0307750479548
 31
0.0
  0
LINE
  5
6D09
330
1E
100
AcDbEntity
  8
躯体と製品
  6
Continuous
 62
     7
100
AcDbLine
 10
1778.26480670431
 20
806.5307750479549
 30
0.0
 11
1796.26480670431
 21
806.5307750479549
 31
0.0
  0
LINE
  5
6D0A
330
1E
100
AcDbEntity
  8
躯体と製品
  6
Continuous
 62
     7
100
AcDbLine
 10
1796.26480670431
 20
806.5307750479549
 30
0.0
 11
1796.26480670431
 21
805.0307750479548
 31
0.0
  0
CIRCLE
  5
6D0B
330
1E
100
AcDbEntity
  8
図枠
  6
Continuous
 62
     4
100
AcDbCircle
 10
1498.537663041844
 20
754.9497602481649
 30
0.0
 40
6.0
  0
TEXT
  5
6D0C
330
1E
100
AcDbEntity
  8
図枠
 62
     7
100
AcDbText
 10
1495.287663041844
 20
751.9497602481649
 30
0.0
 40
5.0
  1
12
100
AcDbText
  0
LINE
  5
6D0D
330
1E
100
AcDbEntity
  8
図枠
  6
Continuous
 62
     4
100
AcDbLine
 10
1481.654375855423
 20
725.7070490425057
 30
0.0
 11
1495.537663041844
 21
749.7536078254581
 31
0.0
  0
CIRCLE
  5
6D0E
330
1E
100
AcDbEntity
  8
図枠
  6
Continuous
 62
     4
100
AcDbCircle
 10
1481.654375855423
 20
725.7070490425057
 30
0.0
 40
0.9
  0
CIRCLE
  5
6D0F
330
1E
100
AcDbEntity
  8
図枠
  6
Continuous
 62
     4
100
AcDbCircle
 10
1422.122807094465
 20
850.1850044613034
 30
0.0
 40
6.0
  0
TEXT
  5
6D10
330
1E
100
AcDbEntity
  8
図枠
 62
     7
100
AcDbText
 10
1418.872807094465
 20
847.1850044613034
 30
0.0
 40
5.0
  1
21
100
AcDbText
  0
LINE
  5
6D11
330
1E
100
AcDbEntity
  8
図枠
  6
Continuous
 62
     4
100
AcDbLine
 10
1442.548609592159
 20
861.977847031761
 30
0.0
 11
1427.318959517172
 21
853.1850044613035
 31
0.0
  0
CIRCLE
  5
6D12
330
1E
100
AcDbEntity
  8
図枠
  6
Continuous
 62
     4
100
AcDbCircle
 10
1442.548609592159
 20
861.977847031761
 30
0.0
 40
0.9
  0
TEXT
  5
6D13
330
1E
100
AcDbEntity
  8
図枠
 62
     7
100
AcDbText
 10
1417.649346966731
 20
891.2418732463043
 30
0.0
 40
5.0
  1
19
100
AcDbText
  0
LINE
  5
6D14
330
1E
100
AcDbEntity
  8
図枠
  6
Continuous
 62
     4
100
AcDbLine
 10
1444.627810548553
 20
870.5134096644819
 30
0.0
 11
1425.14198765385
 21
889.9992325591851
 31
0.0
  0
CIRCLE
  5
6D15
330
1E
100
AcDbEntity
  8
図枠
  6
Continuous
 62
     4
100
AcDbCircle
 10
1420.899346966731
 20
894.2418732463043
 30
0.0
 40
6.0
  0
CIRCLE
  5
6D16
330
1E
100
AcDbEntity
  8
図枠
  6
Continuous
 62
     4
100
AcDbCircle
 10
1392.833042954381
 20
893.1431330335252
 30
0.0
 40
6.0
  0
LINE
  5
6D17
330
1E
100
AcDbEntity
  8
図枠
  6
Continuous
 62
     4
100
AcDbLine
 10
1405.331167061467
 20
871.4957470807503
 30
0.0
 11
1395.833042954381
 21
887.9469806108186
 31
0.0
  0
TEXT
  5
6D18
330
1E
100
AcDbEntity
  8
図枠
 62
     7
100
AcDbText
 10
1389.58304295438
 20
890.1431330335251
 30
0.0
 40
5.0
  1
18
100
AcDbText
  0
CIRCLE
  5
6D19
330
1E
100
AcDbEntity
  8
躯体と製品
  6
Continuous
 62
     4
100
AcDbCircle
 10
1405.331167061467
 20
871.4957470807503
 30
0.0
 40
0.9
  0
CIRCLE
  5
6D1A
330
1E
100
AcDbEntity
  8
図枠
  6
Continuous
 62
     4
100
AcDbCircle
 10
1444.627810548553
 20
870.5134096644819
 30
0.0
 40
0.9
  0
LINE
  5
6D1B
330
1E
100
AcDbEntity
  8
図枠
  6
Continuous
 62
     4
100
AcDbLine
 10
1444.235219170314
 20
901.3315622321256
 30
0.0
 11
1426.116103927641
 21
932.7147904206311
 31
0.0
  0
TEXT
  5
6D1C
330
1E
100
AcDbEntity
  8
図枠
 62
     7
100
AcDbText
 10
1420.116103927641
 20
934.9109428433377
 30
0.0
 40
5.0
  1
４
100
AcDbText
  0
CIRCLE
  5
6D1D
330
1E
100
AcDbEntity
  8
図枠
  6
Continuous
 62
     4
100
AcDbCircle
 10
1423.116103927641
 20
937.9109428433379
 30
0.0
 40
6.0
  0
LINE
  5
6D1E
330
1E
100
AcDbEntity
  8
図枠
  6
Continuous
 62
     4
100
AcDbLine
 10
1448.406716477716
 20
919.8504046500174
 30
0.0
 11
1428.596700259965
 21
954.1623592379268
 31
0.0
  0
TEXT
  5
6D1F
330
1E
100
AcDbEntity
  8
図枠
 62
     7
100
AcDbText
 10
1422.346700259964
 20
956.3585116606335
 30
0.0
 40
5.0
  1
15
100
AcDbText
  0
CIRCLE
  5
6D20
330
1E
100
AcDbEntity
  8
図枠
  6
Continuous
 62
     4
100
AcDbCircle
 10
1425.596700259965
 20
959.3585116606334
 30
0.0
 40
6.0
  0
LINE
  5
6D21
330
1E
100
AcDbEntity
  8
図枠
  6
Continuous
 62
     4
100
AcDbLine
 10
1469.48250584245
 20
893.0538679961106
 30
0.0
 11
1490.951362228726
 21
930.2390180375414
 31
0.0
  0
CIRCLE
  5
6D22
330
1E
100
AcDbEntity
  8
図枠
  6
Continuous
 62
     4
100
AcDbCircle
 10
1493.951362228726
 20
935.4351704602482
 30
0.0
 40
6.0
  0
TEXT
  5
6D23
330
1E
100
AcDbEntity
  8
図枠
 62
     7
100
AcDbText
 10
1490.701362228726
 20
932.4351704602483
 30
0.0
 40
5.0
  1
10
100
AcDbText
  0
LINE
  5
6D24
330
1E
100
AcDbEntity
  8
図枠
  6
Continuous
 62
     4
100
AcDbLine
 10
1468.985700952895
 20
873.9956417870647
 30
0.0
 11
1492.877308649726
 21
832.6141633816511
 31
0.0
  0
TEXT
  5
6D25
330
1E
100
AcDbEntity
  8
図枠
 62
     7
100
AcDbText
 10
1492.627308649726
 20
824.4180109589445
 30
0.0
 40
5.0
  1
13
100
AcDbText
  0
CIRCLE
  5
6D26
330
1E
100
AcDbEntity
  8
図枠
  6
Continuous
 62
     4
100
AcDbCircle
 10
1495.877308649726
 20
827.4180109589448
 30
0.0
 40
6.0
  0
CIRCLE
  5
6D27
330
1E
100
AcDbEntity
  8
図枠
  6
Continuous
 62
     4
100
AcDbCircle
 10
1448.406716477716
 20
919.8504046500174
 30
0.0
 40
0.9
  0
CIRCLE
  5
6D28
330
1E
100
AcDbEntity
  8
図枠
  6
Continuous
 62
     4
100
AcDbCircle
 10
1468.985700952895
 20
873.9956417870647
 30
0.0
 40
0.9
  0
CIRCLE
  5
6D29
330
1E
100
AcDbEntity
  8
図枠
  6
Continuous
 62
     4
100
AcDbCircle
 10
1469.48250584245
 20
893.0538679961106
 30
0.0
 40
0.9
  0
CIRCLE
  5
6D2A
330
1E
100
AcDbEntity
  8
図枠
  6
Continuous
 62
     4
100
AcDbCircle
 10
1444.235219170314
 20
901.3315622321256
 30
0.0
 40
0.9
  0
LINE
  5
6D2B
330
1E
100
AcDbEntity
  8
躯体と製品
  6
Continuous
 62
     7
100
AcDbLine
 10
1443.26480670431
 20
859.5941752599488
 30
0.0
 11
1443.26480670431
 21
877.5941752599489
 31
0.0
  0
LINE
  5
6D2C
330
1E
100
AcDbEntity
  8
躯体と製品
  6
Continuous
 62
     7
100
AcDbLine
 10
1443.26480670431
 20
859.5941752599488
 30
0.0
 11
1441.76480670431
 21
859.5941752599488
 31
0.0
  0
LINE
  5
6D2D
330
1E
100
AcDbEntity
  8
躯体と製品
  6
Continuous
 62
     7
100
AcDbLine
 10
1443.26480670431
 20
877.5941752599489
 30
0.0
 11
1441.76480670431
 21
877.5941752599489
 31
0.0
  0
ARC
  5
6D2E
330
1E
100
AcDbEntity
  8
躯体と製品
  6
Continuous
 62
     7
100
AcDbCircle
 10
1443.136097158342
 20
870.0969352599491
 30
0.0
 40
3.0
100
AcDbArc
 50
38.61463799999811
 51
87.54107400000371
  0
ARC
  5
6D2F
330
1E
100
AcDbEntity
  8
躯体と製品
  6
Continuous
 62
     7
100
AcDbCircle
 10
1441.264808158343
 20
868.5941752599488
 30
0.0
 40
5.4
100
AcDbArc
 50
0.0
 51
38.85106200000375
  0
ARC
  5
6D30
330
1E
100
AcDbEntity
  8
躯体と製品
  6
Continuous
 62
     7
100
AcDbCircle
 10
1441.264808158343
 20
868.5941752599488
 30
0.0
 40
5.4
100
AcDbArc
 50
321.3178130000017
 51
0.0
  0
ARC
  5
6D31
330
1E
100
AcDbEntity
  8
躯体と製品
  6
Continuous
 62
     7
100
AcDbCircle
 10
1443.136097158342
 20
867.0914122599487
 30
0.0
 40
3.0
100
AcDbArc
 50
272.4589259999963
 51
321.3853620000019
  0
LINE
  5
6D32
330
1E
100
AcDbEntity
  8
躯体と製品
  6
Continuous
 62
     4
100
AcDbLine
 10
1453.930226210817
 20
918.0394884646844
 30
0.0
 11
1455.324416750532
 21
912.7832246082871
 31
0.0
  0
LINE
  5
6D33
330
1E
100
AcDbEntity
  8
躯体と製品
  6
Continuous
 62
     4
100
AcDbLine
 10
1451.605196658087
 20
926.8051259116106
 30
0.0
 11
1452.87385072274
 21
922.0221494701906
 31
0.0
  0
TEXT
  5
6D34
330
1E
100
AcDbEntity
  8
図枠
 62
     7
100
AcDbText
 10
1413.76480670431
 20
596.0307750479548
 30
0.0
 40
5.0
  1
止水補助板ホルダーＡＬ
100
AcDbText
  0
LINE
  5
6D3B
330
1E
100
AcDbEntity
  8
躯体と製品
  6
Continuous
 62
     4
100
AcDbLine
 10
1458.826415749881
 20
912.2941752599487
 30
0.0
 11
1461.649467170486
 21
915.1172266805525
 31
0.0
  0
LINE
  5
6D3C
330
1E
100
AcDbEntity
  8
躯体と製品
  6
Continuous
 62
     4
100
AcDbLine
 10
1455.997988625135
 20
912.2941752599487
 30
0.0
 11
1461.345826218481
 21
917.6420128532946
 31
0.0
  0
LINE
  5
6D3D
330
1E
100
AcDbEntity
  8
躯体と製品
  6
Continuous
 62
     4
100
AcDbLine
 10
1455.46480670431
 20
914.5894204638706
 30
0.0
 11
1461.271128500301
 21
920.3957422598614
 31
0.0
  0
LINE
  5
6D3E
330
1E
100
AcDbEntity
  8
躯体と製品
  6
Continuous
 62
     4
100
AcDbLine
 10
1455.46480670431
 20
917.417847588617
 30
0.0
 11
1461.499551124404
 21
923.4525920087115
 31
0.0
  0
LINE
  5
6D3F
330
1E
100
AcDbEntity
  8
躯体と製品
  6
Continuous
 62
     4
100
AcDbLine
 10
1455.46480670431
 20
920.2462747133637
 30
0.0
 11
1462.175445772196
 21
926.9569137812503
 31
0.0
  0
LINE
  5
6D40
330
1E
100
AcDbEntity
  8
躯体と製品
  6
Continuous
 62
     4
100
AcDbLine
 10
1455.46480670431
 20
923.0747018381105
 30
0.0
 11
1459.684280126148
 21
927.2941752599487
 31
0.0
  0
LINE
  5
6D41
330
1E
100
AcDbEntity
  8
躯体と製品
  6
Continuous
 62
     4
100
AcDbLine
 10
1455.46480670431
 20
925.9031289628572
 30
0.0
 11
1456.855853001401
 21
927.2941752599487
 31
0.0
  0
ARC
  5
6D42
330
1E
100
AcDbEntity
  8
躯体と製品
  6
Continuous
 62
     7
100
AcDbCircle
 10
1489.88980670431
 20
919.7941752599486
 30
0.0
 40
28.625
100
AcDbArc
 50
164.8107132628193
 51
195.1892867371807
  0
LINE
  5
6D48
330
1E
100
AcDbEntity
  8
躯体と製品
  6
Continuous
 62
     7
100
AcDbLine
 10
1462.26480670431
 20
992.2941752599486
 30
0.0
 11
1462.26480670431
 21
927.2941752599487
 31
0.0
  0
TEXT
  5
6D59
330
1E
100
AcDbEntity
  8
寸法
 62
     7
100
AcDbText
 10
1659.26480670431
 20
898.7474872707647
 30
0.0
 40
5.0
  1
（キャップ幅）
100
AcDbText
  0
LINE
  5
6D66
330
1E
100
AcDbEntity
  8
躯体と製品
  6
Continuous
 62
     7
100
AcDbLine
 10
1438.26480670431
 20
824.5307750479549
 30
0.0
 11
1438.26480670431
 21
882.2941752599486
 31
0.0
  0
LINE
  5
6D67
330
1E
100
AcDbEntity
  8
躯体と製品
  6
Continuous
 62
     7
100
AcDbLine
 10
1439.26480670431
 20
824.5307750479549
 30
0.0
 11
1439.26480670431
 21
912.2941752599487
 31
0.0
  0
LINE
  5
6D68
330
1E
100
AcDbEntity
  8
躯体と製品
  6
Continuous
 62
     7
100
AcDbLine
 10
1455.46480670431
 20
913.2941752599487
 30
0.0
 11
1455.46480670431
 21
926.2941752599486
 31
0.0
  0
LINE
  5
6D69
330
1E
100
AcDbEntity
  8
躯体と製品
  6
Continuous
 62
     7
100
AcDbLine
 10
1451.46480670431
 20
922.5941752599489
 30
0.0
 11
1451.46480670431
 21
926.2941752599486
 31
0.0
  0
ARC
  5
6D6A
330
1E
100
AcDbEntity
  8
躯体と製品
  6
Continuous
 62
     7
100
AcDbCircle
 10
1452.46480670431
 20
926.2941752599486
 30
0.0
 40
1.0
100
AcDbArc
 50
90.0
 51
180.0
  0
LINE
  5
6D6B
330
1E
100
AcDbEntity
  8
躯体と製品
  6
Continuous
 62
     7
100
AcDbLine
 10
1454.46480670431
 20
927.2941752599487
 30
0.0
 11
1452.46480670431
 21
927.2941752599487
 31
0.0
  0
ARC
  5
6D6C
330
1E
100
AcDbEntity
  8
躯体と製品
  6
Continuous
 62
     7
100
AcDbCircle
 10
1454.46480670431
 20
926.2941752599486
 30
0.0
 40
1.0
100
AcDbArc
 50
0.0
 51
90.0
  0
LINE
  5
6D6D
330
1E
100
AcDbEntity
  8
躯体と製品
  6
Continuous
 62
     7
100
AcDbLine
 10
1438.26480670431
 20
912.2941752599487
 30
0.0
 11
1439.26480670431
 21
912.2941752599487
 31
0.0
  0
LINE
  5
6D6E
330
1E
100
AcDbEntity
  8
躯体と製品
  6
Continuous
 62
     4
100
AcDbLine
 10
1437.26480670431
 20
911.9179093061998
 30
0.0
 11
1438.26480670431
 21
910.9179093061998
 31
0.0
  0
LINE
  5
6D6F
330
1E
100
AcDbEntity
  8
躯体と製品
  6
Continuous
 62
     4
100
AcDbLine
 10
1437.26480670431
 20
910.5036957438262
 30
0.0
 11
1438.26480670431
 21
909.5036957438262
 31
0.0
  0
LINE
  5
6D70
330
1E
100
AcDbEntity
  8
躯体と製品
  6
Continuous
 62
     4
100
AcDbLine
 10
1437.26480670431
 20
909.0894821814526
 30
0.0
 11
1438.26480670431
 21
908.0894821814522
 31
0.0
  0
LINE
  5
6D71
330
1E
100
AcDbEntity
  8
躯体と製品
  6
Continuous
 62
     4
100
AcDbLine
 10
1437.264806704309
 20
907.6752686190818
 30
0.0
 11
1438.264806704309
 21
906.6752686190817
 31
0.0
  0
LINE
  5
6D72
330
1E
100
AcDbEntity
  8
躯体と製品
  6
Continuous
 62
     4
100
AcDbLine
 10
1437.26480670431
 20
906.2610550567079
 30
0.0
 11
1438.264806704309
 21
905.2610550567083
 31
0.0
  0
LINE
  5
6D73
330
1E
100
AcDbEntity
  8
躯体と製品
  6
Continuous
 62
     4
100
AcDbLine
 10
1437.26480670431
 20
904.8468414943348
 30
0.0
 11
1438.264806704309
 21
903.846841494335
 31
0.0
  0
LINE
  5
6D74
330
1E
100
AcDbEntity
  8
躯体と製品
  6
Continuous
 62
     4
100
AcDbLine
 10
1437.26480670431
 20
903.4326279319618
 30
0.0
 11
1438.264806704309
 21
902.432627931962
 31
0.0
  0
LINE
  5
6D75
330
1E
100
AcDbEntity
  8
躯体と製品
  6
Continuous
 62
     4
100
AcDbLine
 10
1437.264806704309
 20
902.0184143695884
 30
0.0
 11
1438.264806704309
 21
901.0184143695887
 31
0.0
  0
LINE
  5
6D76
330
1E
100
AcDbEntity
  8
躯体と製品
  6
Continuous
 62
     4
100
AcDbLine
 10
1437.26480670431
 20
900.6042008072148
 30
0.0
 11
1438.26480670431
 21
899.6042008072148
 31
0.0
  0
LINE
  5
6D77
330
1E
100
AcDbEntity
  8
躯体と製品
  6
Continuous
 62
     4
100
AcDbLine
 10
1437.264806704309
 20
899.1899872448415
 30
0.0
 11
1438.26480670431
 21
898.1899872448416
 31
0.0
  0
LINE
  5
6D78
330
1E
100
AcDbEntity
  8
躯体と製品
  6
Continuous
 62
     4
100
AcDbLine
 10
1437.264806704309
 20
897.7757736824683
 30
0.0
 11
1438.26480670431
 21
896.775773682468
 31
0.0
  0
LINE
  5
6D79
330
1E
100
AcDbEntity
  8
躯体と製品
  6
Continuous
 62
     4
100
AcDbLine
 10
1437.26480670431
 20
896.3615601200967
 30
0.0
 11
1438.26480670431
 21
895.3615601200963
 31
0.0
  0
LINE
  5
6D7A
330
1E
100
AcDbEntity
  8
躯体と製品
  6
Continuous
 62
     4
100
AcDbLine
 10
1437.26480670431
 20
894.9473465577225
 30
0.0
 11
1438.26480670431
 21
893.9473465577227
 31
0.0
  0
LINE
  5
6D7B
330
1E
100
AcDbEntity
  8
躯体と製品
  6
Continuous
 62
     4
100
AcDbLine
 10
1437.26480670431
 20
893.5331329953495
 30
0.0
 11
1438.26480670431
 21
892.5331329953497
 31
0.0
  0
LINE
  5
6D7C
330
1E
100
AcDbEntity
  8
躯体と製品
  6
Continuous
 62
     4
100
AcDbLine
 10
1437.26480670431
 20
892.1189194329761
 30
0.0
 11
1438.26480670431
 21
891.1189194329763
 31
0.0
  0
LINE
  5
6D7D
330
1E
100
AcDbEntity
  8
躯体と製品
  6
Continuous
 62
     4
100
AcDbLine
 10
1437.26480670431
 20
890.704705870603
 30
0.0
 11
1438.26480670431
 21
889.7047058706032
 31
0.0
  0
LINE
  5
6D7E
330
1E
100
AcDbEntity
  8
躯体と製品
  6
Continuous
 62
     4
100
AcDbLine
 10
1437.26480670431
 20
889.2904923082298
 30
0.0
 11
1438.26480670431
 21
888.2904923082294
 31
0.0
  0
LINE
  5
6D7F
330
1E
100
AcDbEntity
  8
躯体と製品
  6
Continuous
 62
     4
100
AcDbLine
 10
1437.26480670431
 20
887.8762787458564
 30
0.0
 11
1438.26480670431
 21
886.8762787458562
 31
0.0
  0
LINE
  5
6D80
330
1E
100
AcDbEntity
  8
躯体と製品
  6
Continuous
 62
     4
100
AcDbLine
 10
1437.264806704309
 20
886.4620651834856
 30
0.0
 11
1438.264806704309
 21
885.4620651834855
 31
0.0
  0
LINE
  5
6D81
330
1E
100
AcDbEntity
  8
躯体と製品
  6
Continuous
 62
     4
100
AcDbLine
 10
1437.26480670431
 20
885.0478516211115
 30
0.0
 11
1438.26480670431
 21
884.0478516211117
 31
0.0
  0
LINE
  5
6D82
330
1E
100
AcDbEntity
  8
躯体と製品
  6
Continuous
 62
     4
100
AcDbLine
 10
1437.26480670431
 20
883.6336380587383
 30
0.0
 11
1438.26480670431
 21
882.6336380587386
 31
0.0
  0
LINE
  5
6D83
330
1E
100
AcDbEntity
  8
躯体と製品
  6
Continuous
 62
     3
100
AcDbLine
 10
1437.26480670431
 20
912.2941752599487
 30
0.0
 11
1437.26480670431
 21
882.2941752599486
 31
0.0
  0
LINE
  5
6D84
330
1E
100
AcDbEntity
  8
躯体と製品
  6
Continuous
 62
     3
100
AcDbLine
 10
1437.26480670431
 20
882.2941752599486
 30
0.0
 11
1438.26480670431
 21
882.2941752599486
 31
0.0
  0
LINE
  5
6D85
330
1E
100
AcDbEntity
  8
躯体と製品
  6
Continuous
 62
     3
100
AcDbLine
 10
1438.26480670431
 20
882.2941752599486
 30
0.0
 11
1438.26480670431
 21
912.2941752599487
 31
0.0
  0
LINE
  5
6D86
330
1E
100
AcDbEntity
  8
躯体と製品
  6
Continuous
 62
     3
100
AcDbLine
 10
1438.26480670431
 20
912.2941752599487
 30
0.0
 11
1437.26480670431
 21
912.2941752599487
 31
0.0
  0
LINE
  5
6D87
330
1E
100
AcDbEntity
  8
躯体と製品
  6
Continuous
 62
     7
100
AcDbLine
 10
1437.26480670431
 20
927.2941752599487
 30
0.0
 11
1437.26480670431
 21
800.5307750479548
 31
0.0
  0
LINE
  5
6D88
330
1E
100
AcDbEntity
  8
躯体と製品
  6
Continuous
 62
     7
100
AcDbLine
 10
1437.26480670431
 20
927.2941752599487
 30
0.0
 11
1462.26480670431
 21
927.2941752599487
 31
0.0
  0
LINE
  5
6D89
330
1E
100
AcDbEntity
  8
躯体と製品
  6
CENTER1
 62
     4
100
AcDbLine
 10
1788.989446566047
 20
853.3623784147563
 30
0.0
 11
1786.636775229395
 21
808.4707350587866
 31
0.0
  0
LINE
  5
6D8A
330
1E
100
AcDbEntity
  8
躯体と製品
  6
CENTER1
 62
     4
100
AcDbLine
 10
1787.26480670431
 20
825.4542894758412
 30
0.0
 11
1787.26480670431
 21
736.5307750479549
 31
0.0
  0
LINE
  5
6D8B
330
1E
100
AcDbEntity
  8
躯体と製品
  6
CENTER1
 62
     4
100
AcDbLine
 10
1450.36480870431
 20
868.5941752599488
 30
0.0
 11
1378.26480670431
 21
868.5941752599488
 31
0.0
  0
LINE
  5
6D8C
330
1E
100
AcDbEntity
  8
躯体と製品
  6
CENTER1
 62
     4
100
AcDbLine
 10
1440.142084021745
 20
919.0941752599488
 30
0.0
 11
1457.010117704309
 21
919.0941752599488
 31
0.0
  0
LINE
  5
6D8D
330
1E
100
AcDbEntity
  8
図枠
  6
Continuous
 62
     4
100
AcDbLine
 10
1571.46480670431
 20
871.0385311582298
 30
0.0
 11
1571.46480670431
 21
873.658920122382
 31
0.0
  0
LINE
  5
6D8E
330
1E
100
AcDbEntity
  8
図枠
  6
Continuous
 62
     4
100
AcDbLine
 10
1521.46480670431
 20
873.658920122382
 30
0.0
 11
1571.46480670431
 21
871.0385311582298
 31
0.0
  0
LINE
  5
6D8F
330
1E
100
AcDbEntity
  8
図枠
  6
Continuous
 62
     4
100
AcDbLine
 10
1521.46480670431
 20
873.658920122382
 30
0.0
 11
1571.46480670431
 21
873.658920122382
 31
0.0
  0
ARC
  5
6D90
330
1E
100
AcDbEntity
  8
躯体と製品
  6
Continuous
 62
     7
100
AcDbCircle
 10
1462.26480670431
 20
799.5307750479549
 30
0.0
 40
2.0
100
AcDbArc
 50
4.999999999999459
 51
90.0
  0
ARC
  5
6D91
330
1E
100
AcDbEntity
  8
躯体と製品
  6
Continuous
 62
     7
100
AcDbCircle
 10
1462.26480670431
 20
824.5307750479549
 30
0.0
 40
23.00000000000011
100
AcDbArc
 50
180.0
 51
270.0
  0
ARC
  5
6D92
330
1E
100
AcDbEntity
  8
躯体と製品
  6
Continuous
 62
     7
100
AcDbCircle
 10
1837.236246930411
 20
799.5311829614943
 30
0.0
 40
2.0
100
AcDbArc
 50
4.999999999999459
 51
88.84278494683243
  0
LINE
  5
6D93
330
1E
100
AcDbEntity
  8
躯体と製品
  6
Continuous
 62
     7
100
AcDbLine
 10
1837.276638609797
 20
801.5307750479548
 30
0.0
 11
1808.26480670431
 21
801.5307750479548
 31
0.0
  0
LINE
  5
6D94
330
1E
100
AcDbEntity
  8
躯体と製品
  6
Continuous
 62
     7
100
AcDbLine
 10
1662.26480670431
 20
801.5307750479548
 30
0.0
 11
1766.26480670431
 21
801.5307750479548
 31
0.0
  0
ARC
  5
6D95
330
1E
100
AcDbEntity
  8
躯体と製品
  6
Continuous
 62
     7
100
AcDbCircle
 10
1662.26480670431
 20
799.5307750479549
 30
0.0
 40
2.0
100
AcDbArc
 50
90.0
 51
175.0000000000005
  0
LINE
  5
6D96
330
1E
100
AcDbEntity
  8
躯体と製品
  6
Continuous
 62
     7
100
AcDbLine
 10
1438.26480670431
 20
866.0941752599489
 30
0.0
 11
1437.26480670431
 21
866.0941752599489
 31
0.0
  0
LINE
  5
6D97
330
1E
100
AcDbEntity
  8
躯体と製品
  6
Continuous
 62
     7
100
AcDbLine
 10
1438.26480670431
 20
871.094175259949
 30
0.0
 11
1437.26480670431
 21
871.094175259949
 31
0.0
  0
LINE
  5
6D98
330
1E
100
AcDbEntity
  8
躯体と製品
  6
Continuous
 62
     7
100
AcDbLine
 10
1802.26480670431
 20
802.5307750479548
 30
0.0
 11
1772.26480670431
 21
802.5307750479548
 31
0.0
  0
ARC
  5
6D99
330
1E
100
AcDbEntity
  8
躯体と製品
  6
Continuous
 62
     7
100
AcDbCircle
 10
1772.26480670431
 20
793.2807750479549
 30
0.0
 40
9.25
100
AcDbArc
 50
90.0
 51
108.9246444160544
  0
ARC
  5
6D9A
330
1E
100
AcDbEntity
  8
躯体と製品
  6
Continuous
 62
     7
100
AcDbCircle
 10
1802.26480670431
 20
793.2807750479549
 30
0.0
 40
9.25
100
AcDbArc
 50
71.07535558394559
 51
90.0
  0
ARC
  5
6D9B
330
1E
100
AcDbEntity
  8
躯体と製品
  6
Continuous
 62
     7
100
AcDbCircle
 10
1766.26480670431
 20
810.7807750479548
 30
0.0
 40
9.25
100
AcDbArc
 50
270.0
 51
288.9246444160544
  0
ARC
  5
6D9C
330
1E
100
AcDbEntity
  8
躯体と製品
  6
Continuous
 62
     7
100
AcDbCircle
 10
1766.26480670431
 20
810.7807750479548
 30
0.0
 40
10.25
100
AcDbArc
 50
270.0
 51
288.9246444160544
  0
ARC
  5
6D9D
330
1E
100
AcDbEntity
  8
躯体と製品
  6
Continuous
 62
     7
100
AcDbCircle
 10
1772.26480670431
 20
793.2807750479549
 30
0.0
 40
8.25
100
AcDbArc
 50
90.0
 51
108.9246444160544
  0
ARC
  5
6D9E
330
1E
100
AcDbEntity
  8
躯体と製品
  6
Continuous
 62
     7
100
AcDbCircle
 10
1808.26480670431
 20
810.7807750479548
 30
0.0
 40
10.25
100
AcDbArc
 50
251.0753555839456
 51
270.0
  0
ARC
  5
6D9F
330
1E
100
AcDbEntity
  8
躯体と製品
  6
Continuous
 62
     7
100
AcDbCircle
 10
1802.26480670431
 20
793.2807750479549
 30
0.0
 40
8.25
100
AcDbArc
 50
71.07535558394559
 51
90.0
  0
LINE
  5
6DA0
330
1E
100
AcDbEntity
  8
躯体と製品
  6
Continuous
 62
     7
100
AcDbLine
 10
1787.26480670431
 20
801.5307750479548
 30
0.0
 11
1787.26480670431
 21
802.5307750479548
 31
0.0
  0
ARC
  5
6DA1
330
1E
100
AcDbEntity
  8
躯体と製品
  6
Continuous
 62
     7
100
AcDbCircle
 10
1808.26480670431
 20
810.7807750479548
 30
0.0
 40
9.25
100
AcDbArc
 50
251.0753555839456
 51
270.0
  0
ARC
  5
6DA2
330
1E
100
AcDbEntity
  8
躯体と製品
  6
Continuous
 62
     7
100
AcDbCircle
 10
1461.710257192014
 20
873.1855662958935
 30
0.0
 40
1.5
100
AcDbArc
 50
30.5864821080721
 51
54.2516322745644
  0
LINE
  5
6DA3
330
1E
100
AcDbEntity
  8
躯体と製品
  6
Continuous
 62
     7
100
AcDbLine
 10
1462.586597009247
 20
874.402952234999
 30
0.0
 11
1461.412099293862
 21
875.2484188041275
 31
0.0
  0
ARC
  5
6DC9
330
1E
100
AcDbEntity
  8
躯体と製品
  6
Continuous
 62
     7
100
AcDbCircle
 10
1562.264806704309
 20
778.2998476067714
 30
0.0
 40
96.76907255881655
100
AcDbArc
 50
184.9999999999994
 51
355.0000000000006
  0
LINE
  5
6DCA
330
1E
100
AcDbEntity
  8
躯体と製品
  6
Continuous
 62
     7
100
AcDbLine
 10
1661.268612006218
 20
799.6179307907026
 30
0.0
 11
1658.665643726658
 21
769.8658672129054
 31
0.0
  0
ARC
  5
6DCB
330
1E
100
AcDbEntity
  8
躯体と製品
  6
Continuous
 62
     7
100
AcDbCircle
 10
1562.264806704309
 20
778.2998476067714
 30
0.0
 40
95.76907255881655
100
AcDbArc
 50
184.9999999999994
 51
355.0000000000006
  0
LINE
  5
6DCC
330
1E
100
AcDbEntity
  8
躯体と製品
  6
Continuous
 62
     7
100
AcDbLine
 10
1660.272417308126
 20
799.7050865334501
 30
0.0
 11
1657.669449028567
 21
769.9530229556535
 31
0.0
  0
LINE
  5
6DCD
330
1E
100
AcDbEntity
  8
躯体と製品
  6
Continuous
 62
     7
100
AcDbLine
 10
1464.257196100493
 20
799.7050865334501
 30
0.0
 11
1466.860164380053
 21
769.9530229556533
 31
0.0
  0
LINE
  5
6DCE
330
1E
100
AcDbEntity
  8
躯体と製品
  6
Continuous
 62
     7
100
AcDbLine
 10
1463.261001402402
 20
799.6179307907026
 30
0.0
 11
1465.863969681961
 21
769.8658672129054
 31
0.0
  0
ARC
  5
6DCF
330
1E
100
AcDbEntity
  8
躯体と製品
  6
Continuous
 62
     7
100
AcDbCircle
 10
1462.26480670431
 20
824.5307750479549
 30
0.0
 40
24.00000000000011
100
AcDbArc
 50
180.0
 51
270.0
  0
ARC
  5
6DD0
330
1E
100
AcDbEntity
  8
躯体と製品
  6
Continuous
 62
     7
100
AcDbCircle
 10
1462.26480670431
 20
799.5307750479549
 30
0.0
 40
1.0
100
AcDbArc
 50
4.999999999999459
 51
90.0
  0
TEXT
  5
6DD1
330
1E
100
AcDbEntity
  8
図枠
 62
     7
100
AcDbText
 10
1532.96480670431
 20
873.6431971577783
 30
0.0
 40
5.0
  1
勾配３度
100
AcDbText
  0
ARC
  5
6DD2
330
1E
100
AcDbEntity
  8
躯体と製品
  6
Continuous
 62
     7
100
AcDbCircle
 10
1465.756309071718
 20
875.5771064245026
 30
0.0
 40
3.2
100
AcDbArc
 50
210.5864821080721
 51
324.555878139285
  0
ARC
  5
6DD3
330
1E
100
AcDbEntity
  8
躯体と製品
  6
Continuous
 62
     7
100
AcDbCircle
 10
1461.178408675933
 20
874.9237825536992
 30
0.0
 40
0.4
100
AcDbArc
 50
54.2516322745644
 51
234.2516322745644
  0
LINE
  5
6DD4
330
1E
100
AcDbEntity
  8
躯体と製品
  6
DASHED1
 62
     7
100
AcDbLine
 10
1448.872287032488
 20
866.4482370649643
 30
0.0
 11
1469.338691907456
 21
865.3756382355597
 31
0.0
  0
LINE
  5
6DD5
330
1E
100
AcDbEntity
  8
躯体と製品
  6
DASHED1
 62
     7
100
AcDbLine
 10
1449.107798835581
 20
870.9420699713605
 30
0.0
 11
1469.574203710549
 21
869.8694711419559
 31
0.0
  0
LINE
  5
6DD6
330
1E
100
AcDbEntity
  8
躯体と製品
  6
DASHED1
 62
     7
100
AcDbLine
 10
1883.769948830604
 20
843.6562163947389
 30
0.0
 11
1890.08499420731
 21
843.3252588904743
 31
0.0
  0
LINE
  5
6DD7
330
1E
100
AcDbEntity
  8
躯体と製品
  6
DASHED1
 62
     7
100
AcDbLine
 10
1884.005460633698
 20
848.1500493011347
 30
0.0
 11
1890.320506010403
 21
847.8190917968699
 31
0.0
  0
ARC
  5
6DDD
330
1E
100
AcDbEntity
  8
躯体と製品
  6
Continuous
 62
     7
100
AcDbCircle
 10
1863.238858887422
 20
783.0893549006341
 30
0.0
 40
22.47066443133739
100
AcDbArc
 50
184.9999999999994
 51
355.0000000000006
  0
LINE
  5
6DDE
330
1E
100
AcDbEntity
  8
躯体と製品
  6
Continuous
 62
     7
100
AcDbLine
 10
1887.642449996613
 20
804.2017175290668
 30
0.0
 11
1885.624015656519
 21
781.1309074520877
 31
0.0
  0
ARC
  5
6DDF
330
1E
100
AcDbEntity
  8
躯体と製品
  6
Continuous
 62
     7
100
AcDbCircle
 10
1863.238858887422
 20
783.0893549006341
 30
0.0
 40
23.47066443133738
100
AcDbArc
 50
184.9999999999994
 51
355.0000000000006
  0
LINE
  5
6DE0
330
1E
100
AcDbEntity
  8
躯体と製品
  6
Continuous
 62
     7
100
AcDbLine
 10
1888.638644694706
 20
804.1145617863191
 30
0.0
 11
1886.62021035461
 21
781.0437517093398
 31
0.0
  0
LINE
  5
6DE1
330
1E
100
AcDbEntity
  8
躯体と製品
  6
Continuous
 62
     7
100
AcDbLine
 10
1839.228636326594
 20
799.7054944469895
 30
0.0
 11
1840.853702118324
 21
781.1309074520875
 31
0.0
  0
LINE
  5
6DE2
330
1E
100
AcDbEntity
  8
躯体と製品
  6
Continuous
 62
     7
100
AcDbLine
 10
1838.232441628503
 20
799.6183387042419
 30
0.0
 11
1839.857507420233
 21
781.0437517093398
 31
0.0
  0
ARC
  5
6DE3
330
1E
100
AcDbEntity
  8
躯体と製品
  6
Continuous
 62
     7
100
AcDbCircle
 10
1889.734458862607
 20
804.0186904692966
 30
0.0
 40
2.1
100
AcDbArc
 50
90.0
 51
175.0000000000005
  0
LINE
  5
6DE4
330
1E
100
AcDbEntity
  8
躯体と製品
  6
Continuous
 62
     7
100
AcDbLine
 10
1889.734458862607
 20
806.1186904692968
 30
0.0
 11
1890.330257041309
 21
806.1186904692968
 31
0.0
  0
ARC
  5
6DE5
330
1E
100
AcDbEntity
  8
躯体と製品
  6
Continuous
 62
     7
100
AcDbCircle
 10
1889.734458862607
 20
804.0186904692966
 30
0.0
 40
1.1
100
AcDbArc
 50
90.0
 51
175.0000000000005
  0
LINE
  5
6DE6
330
1E
100
AcDbEntity
  8
躯体と製品
  6
Continuous
 62
     7
100
AcDbLine
 10
1889.734458862607
 20
805.1186904692967
 30
0.0
 11
1890.330257041309
 21
805.1186904692967
 31
0.0
  0
LINE
  5
6DE7
330
1E
100
AcDbEntity
  8
躯体と製品
  6
Continuous
 62
     7
100
AcDbLine
 10
1890.330257041309
 20
808.6186904692967
 30
0.0
 11
1890.330257041309
 21
806.1186904692968
 31
0.0
  0
LINE
  5
6DE8
330
1E
100
AcDbEntity
  8
躯体と製品
  6
Continuous
 62
     7
100
AcDbLine
 10
1891.830257041309
 20
804.6186904692968
 30
0.0
 11
1893.481342041309
 21
805.1420634692968
 31
0.0
  0
LINE
  5
6DE9
330
1E
100
AcDbEntity
  8
躯体と製品
  6
Continuous
 62
     7
100
AcDbLine
 10
1891.830257041309
 20
804.6186904692968
 30
0.0
 11
1891.830257041309
 21
802.6186904692968
 31
0.0
  0
LINE
  5
6DEA
330
1E
100
AcDbEntity
  8
躯体と製品
  6
Continuous
 62
     7
100
AcDbLine
 10
1891.830257041309
 20
806.6186904692967
 30
0.0
 11
1891.830257041309
 21
808.6186904692967
 31
0.0
  0
ARC
  5
6DEB
330
1E
100
AcDbEntity
  8
躯体と製品
  6
Continuous
 62
     7
100
AcDbCircle
 10
1891.330257041309
 20
808.6186904692967
 30
0.0
 40
0.5
100
AcDbArc
 50
0.0
 51
90.0
  0
LINE
  5
6DEC
330
1E
100
AcDbEntity
  8
躯体と製品
  6
Continuous
 62
     7
100
AcDbLine
 10
1890.830257041309
 20
809.1186904692968
 30
0.0
 11
1891.330257041309
 21
809.1186904692968
 31
0.0
  0
LINE
  5
6DED
330
1E
100
AcDbEntity
  8
躯体と製品
  6
Continuous
 62
     7
100
AcDbLine
 10
1890.830257041309
 20
802.1186904692967
 30
0.0
 11
1891.330257041309
 21
802.1186904692967
 31
0.0
  0
ARC
  5
6DEE
330
1E
100
AcDbEntity
  8
躯体と製品
  6
Continuous
 62
     7
100
AcDbCircle
 10
1891.330257041309
 20
802.6186904692968
 30
0.0
 40
0.5
100
AcDbArc
 50
270.0
 51
0.0
  0
ARC
  5
6DEF
330
1E
100
AcDbEntity
  8
躯体と製品
  6
Continuous
 62
     7
100
AcDbCircle
 10
1890.830257041309
 20
802.6186904692968
 30
0.0
 40
0.5
100
AcDbArc
 50
180.0
 51
270.0
  0
ARC
  5
6DF0
330
1E
100
AcDbEntity
  8
躯体と製品
  6
Continuous
 62
     7
100
AcDbCircle
 10
1890.830257041309
 20
808.6186904692967
 30
0.0
 40
0.5
100
AcDbArc
 50
90.0
 51
180.0
  0
LINE
  5
6DF1
330
1E
100
AcDbEntity
  8
躯体と製品
  6
Continuous
 62
     7
100
AcDbLine
 10
1890.330257041309
 20
802.6186904692968
 30
0.0
 11
1890.330257041309
 21
805.1186904692967
 31
0.0
  0
ARC
  5
6DF2
330
1E
100
AcDbEntity
  8
躯体と製品
  6
Continuous
 62
     7
100
AcDbCircle
 10
1893.330257041309
 20
805.6186904692967
 30
0.0
 40
0.5
100
AcDbArc
 50
287.587954000005
 51
72.41204599999497
  0
LINE
  5
6DF3
330
1E
100
AcDbEntity
  8
躯体と製品
  6
Continuous
 62
     7
100
AcDbLine
 10
1891.830257041309
 20
806.6186904692967
 30
0.0
 11
1893.481342041309
 21
806.0953174692967
 31
0.0
  0
ARC
  5
6DF4
330
1E
100
AcDbEntity
  8
躯体と製品
  6
Continuous
 62
     3
100
AcDbCircle
 10
1889.730257041309
 20
804.0186904692966
 30
0.0
 40
0.5999999999999998
100
AcDbArc
 50
0.0
 51
180.0
  0
ARC
  5
6DF5
330
1E
100
AcDbEntity
  8
躯体と製品
  6
Continuous
 62
     3
100
AcDbCircle
 10
1889.730257041309
 20
808.2186904692967
 30
0.0
 40
0.5999999999999998
100
AcDbArc
 50
180.0
 51
0.0
  0
LINE
  5
6DF6
330
1E
100
AcDbEntity
  8
躯体と製品
  6
Continuous
 62
     3
100
AcDbLine
 10
1889.130257041309
 20
804.0186904692966
 30
0.0
 11
1889.130257041309
 21
801.9186904692967
 31
0.0
  0
LINE
  5
6DF7
330
1E
100
AcDbEntity
  8
躯体と製品
  6
Continuous
 62
     3
100
AcDbLine
 10
1890.330257041309
 20
804.0186904692966
 30
0.0
 11
1890.330257041309
 21
802.4186904692966
 31
0.0
  0
ARC
  5
6DF8
330
1E
100
AcDbEntity
  8
躯体と製品
  6
Continuous
 62
     3
100
AcDbCircle
 10
1890.630257041309
 20
802.4186904692966
 30
0.0
 40
0.2999999999999998
100
AcDbArc
 50
180.0
 51
270.0
  0
LINE
  5
6DF9
330
1E
100
AcDbEntity
  8
躯体と製品
  6
Continuous
 62
     3
100
AcDbLine
 10
1890.330257041309
 20
808.2186904692967
 30
0.0
 11
1890.330257041309
 21
809.8186904692965
 31
0.0
  0
ARC
  5
6DFA
330
1E
100
AcDbEntity
  8
躯体と製品
  6
Continuous
 62
     3
100
AcDbCircle
 10
1890.630257041309
 20
809.8186904692965
 30
0.0
 40
0.2999999999999998
100
AcDbArc
 50
90.0
 51
180.0
  0
LINE
  5
6DFB
330
1E
100
AcDbEntity
  8
躯体と製品
  6
Continuous
 62
     3
100
AcDbLine
 10
1889.130257041309
 20
808.2186904692967
 30
0.0
 11
1889.130257041309
 21
810.3186904692966
 31
0.0
  0
LINE
  5
6DFC
330
1E
100
AcDbEntity
  8
躯体と製品
  6
Continuous
 62
     3
100
AcDbLine
 10
1901.330257041309
 20
772.1186904692967
 30
0.0
 11
1902.951525041309
 21
772.5240074692967
 31
0.0
  0
ARC
  5
6DFD
330
1E
100
AcDbEntity
  8
躯体と製品
  6
Continuous
 62
     3
100
AcDbCircle
 10
1902.830257041309
 20
773.0090784692967
 30
0.0
 40
0.5
100
AcDbArc
 50
284.0362430000043
 51
0.0
  0
LINE
  5
6DFE
330
1E
100
AcDbEntity
  8
躯体と製品
  6
Continuous
 62
     3
100
AcDbLine
 10
1901.330257041309
 20
772.6186904692967
 30
0.0
 11
1901.330257041309
 21
772.1186904692967
 31
0.0
  0
LINE
  5
6DFF
330
1E
100
AcDbEntity
  8
躯体と製品
  6
Continuous
 62
     3
100
AcDbLine
 10
1903.330257041309
 20
773.3186904692965
 30
0.0
 11
1903.330257041309
 21
773.0090784692967
 31
0.0
  0
LINE
  5
6E00
330
1E
100
AcDbEntity
  8
躯体と製品
  6
Continuous
 62
     3
100
AcDbLine
 10
1896.330257041309
 20
772.6186904692967
 30
0.0
 11
1901.330257041309
 21
772.6186904692967
 31
0.0
  0
ARC
  5
6E01
330
1E
100
AcDbEntity
  8
躯体と製品
  6
Continuous
 62
     3
100
AcDbCircle
 10
1903.030257041309
 20
773.3186904692965
 30
0.0
 40
0.2999999999999998
100
AcDbArc
 50
0.0
 51
90.0
  0
ARC
  5
6E02
330
1E
100
AcDbEntity
  8
躯体と製品
  6
Continuous
 62
     3
100
AcDbCircle
 10
1896.330257041309
 20
772.1186904692967
 30
0.0
 40
0.5
100
AcDbArc
 50
90.0
 51
180.0
  0
LINE
  5
6E03
330
1E
100
AcDbEntity
  8
躯体と製品
  6
Continuous
 62
     3
100
AcDbLine
 10
1895.830257041309
 20
772.1186904692967
 30
0.0
 11
1895.830257041309
 21
763.3186904692966
 31
0.0
  0
LINE
  5
6E04
330
1E
100
AcDbEntity
  8
躯体と製品
  6
Continuous
 62
     3
100
AcDbLine
 10
1896.330257041309
 20
773.6186904692967
 30
0.0
 11
1903.030257041309
 21
773.6186904692967
 31
0.0
  0
ARC
  5
6E05
330
1E
100
AcDbEntity
  8
躯体と製品
  6
Continuous
 62
     3
100
AcDbCircle
 10
1896.330257041309
 20
774.1186904692967
 30
0.0
 40
0.5
100
AcDbArc
 50
180.0
 51
270.0
  0
LINE
  5
6E06
330
1E
100
AcDbEntity
  8
躯体と製品
  6
Continuous
 62
     3
100
AcDbLine
 10
1900.730257041309
 20
761.1186904692967
 30
0.0
 11
1896.830257041309
 21
761.1186904692967
 31
0.0
  0
ARC
  5
6E07
330
1E
100
AcDbEntity
  8
躯体と製品
  6
Continuous
 62
     3
100
AcDbCircle
 10
1896.830257041309
 20
763.6186904692968
 30
0.0
 40
2.5
100
AcDbArc
 50
180.0
 51
270.0
  0
LINE
  5
6E08
330
1E
100
AcDbEntity
  8
躯体と製品
  6
Continuous
 62
     3
100
AcDbLine
 10
1895.830257041309
 20
818.3686904692967
 30
0.0
 11
1895.830257041309
 21
774.1186904692967
 31
0.0
  0
LINE
  5
6E09
330
1E
100
AcDbEntity
  8
躯体と製品
  6
Continuous
 62
     3
100
AcDbLine
 10
1890.630257041309
 20
810.1186904692967
 30
0.0
 11
1894.030257041309
 21
810.1186904692967
 31
0.0
  0
LINE
  5
6E0A
330
1E
100
AcDbEntity
  8
躯体と製品
  6
Continuous
 62
     3
100
AcDbLine
 10
1890.630257041309
 20
802.1186904692967
 30
0.0
 11
1894.030257041309
 21
802.1186904692967
 31
0.0
  0
ARC
  5
6E0B
330
1E
100
AcDbEntity
  8
躯体と製品
  6
Continuous
 62
     3
100
AcDbCircle
 10
1894.030257041309
 20
802.4186904692966
 30
0.0
 40
0.2999999999999998
100
AcDbArc
 50
270.0
 51
0.0
  0
LINE
  5
6E0C
330
1E
100
AcDbEntity
  8
躯体と製品
  6
Continuous
 62
     3
100
AcDbLine
 10
1894.330257041309
 20
809.8186904692965
 30
0.0
 11
1894.330257041309
 21
802.4186904692966
 31
0.0
  0
ARC
  5
6E0D
330
1E
100
AcDbEntity
  8
躯体と製品
  6
Continuous
 62
     3
100
AcDbCircle
 10
1894.030257041309
 20
809.8186904692965
 30
0.0
 40
0.2999999999999998
100
AcDbArc
 50
0.0
 51
90.0
  0
LINE
  5
6E0E
330
1E
100
AcDbEntity
  8
躯体と製品
  6
Continuous
 62
     3
100
AcDbLine
 10
1893.830257041309
 20
800.9186904692965
 30
0.0
 11
1890.130257041309
 21
800.9186904692965
 31
0.0
  0
ARC
  5
6E0F
330
1E
100
AcDbEntity
  8
躯体と製品
  6
Continuous
 62
     3
100
AcDbCircle
 10
1890.130257041309
 20
801.9186904692967
 30
0.0
 40
1.0
100
AcDbArc
 50
180.0
 51
270.0
  0
ARC
  5
6E10
330
1E
100
AcDbEntity
  8
躯体と製品
  6
Continuous
 62
     3
100
AcDbCircle
 10
1893.830257041309
 20
800.4186904692966
 30
0.0
 40
0.5
100
AcDbArc
 50
0.0
 51
90.0
  0
LINE
  5
6E11
330
1E
100
AcDbEntity
  8
躯体と製品
  6
Continuous
 62
     3
100
AcDbLine
 10
1893.830257041309
 20
811.3186904692966
 30
0.0
 11
1890.130257041309
 21
811.3186904692966
 31
0.0
  0
ARC
  5
6E12
330
1E
100
AcDbEntity
  8
躯体と製品
  6
Continuous
 62
     3
100
AcDbCircle
 10
1890.130257041309
 20
810.3186904692966
 30
0.0
 40
1.0
100
AcDbArc
 50
90.0
 51
180.0
  0
ARC
  5
6E13
330
1E
100
AcDbEntity
  8
躯体と製品
  6
Continuous
 62
     3
100
AcDbCircle
 10
1893.830257041309
 20
811.8186904692965
 30
0.0
 40
0.5
100
AcDbArc
 50
270.0
 51
0.0
  0
LINE
  5
6E14
330
1E
100
AcDbEntity
  8
躯体と製品
  6
Continuous
 62
     3
100
AcDbLine
 10
1894.330257041309
 20
811.8186904692965
 30
0.0
 11
1894.330257041309
 21
818.3686904692967
 31
0.0
  0
ARC
  5
6E15
330
1E
100
AcDbEntity
  8
躯体と製品
  6
Continuous
 62
     3
100
AcDbCircle
 10
1895.080257041309
 20
818.3686904692967
 30
0.0
 40
0.75
100
AcDbArc
 50
0.0
 51
180.0
  0
LINE
  5
6E16
330
1E
100
AcDbEntity
  8
躯体と製品
  6
Continuous
 62
     3
100
AcDbLine
 10
1894.330257041309
 20
800.4186904692966
 30
0.0
 11
1894.330257041309
 21
763.6186904692968
 31
0.0
  0
ARC
  5
6E17
330
1E
100
AcDbEntity
  8
躯体と製品
  6
Continuous
 62
     3
100
AcDbCircle
 10
1900.730257041309
 20
761.7186904692966
 30
0.0
 40
0.5999999999999998
100
AcDbArc
 50
270.0
 51
90.0
  0
LINE
  5
6E18
330
1E
100
AcDbEntity
  8
躯体と製品
  6
Continuous
 62
     3
100
AcDbLine
 10
1900.730257041309
 20
762.3186904692966
 30
0.0
 11
1896.830257041309
 21
762.3186904692966
 31
0.0
  0
ARC
  5
6E19
330
1E
100
AcDbEntity
  8
躯体と製品
  6
Continuous
 62
     3
100
AcDbCircle
 10
1896.830257041309
 20
763.3186904692966
 30
0.0
 40
1.0
100
AcDbArc
 50
180.0
 51
270.0
  0
LINE
  5
6E1A
330
1E
100
AcDbEntity
  8
躯体と製品
  6
Continuous
 62
     7
100
AcDbLine
 10
1469.482827816406
 20
875.2941752599486
 30
0.0
 11
1468.363289762987
 21
873.7213985608162
 31
0.0
  0
ARC
  5
6E1B
330
1E
100
AcDbEntity
  8
躯体と製品
  6
Continuous
 62
     7
100
AcDbCircle
 10
1461.710257192014
 20
873.1855662958935
 30
0.0
 40
0.6999999999999999
100
AcDbArc
 50
30.5864821080721
 51
54.2516322745644
  0
ARC
  5
6E1C
330
1E
100
AcDbEntity
  8
躯体と製品
  6
Continuous
 62
     7
100
AcDbCircle
 10
1465.756309071718
 20
875.5771064245026
 30
0.0
 40
4.0
100
AcDbArc
 50
210.5864821080721
 51
324.555878139285
  0
LINE
  5
6E1D
330
1E
100
AcDbEntity
  8
躯体と製品
  6
Continuous
 62
     7
100
AcDbLine
 10
1462.119215773389
 20
873.7536797341427
 30
0.0
 11
1460.944718057992
 21
874.5991463032803
 31
0.0
  0
LINE
  5
6E1E
330
1E
100
AcDbEntity
  8
躯体と製品
  6
Continuous
 62
     7
100
AcDbLine
 10
1452.46480670431
 20
912.2941752599487
 30
0.0
 11
1454.46480670431
 21
912.2941752599487
 31
0.0
  0
ARC
  5
6E1F
330
1E
100
AcDbEntity
  8
躯体と製品
  6
Continuous
 62
     7
100
AcDbCircle
 10
1454.46480670431
 20
913.2941752599487
 30
0.0
 40
1.0
100
AcDbArc
 50
270.0
 51
0.0
  0
ARC
  5
6E20
330
1E
100
AcDbEntity
  8
躯体と製品
  6
Continuous
 62
     7
100
AcDbCircle
 10
1452.46480670431
 20
913.2941752599487
 30
0.0
 40
1.0
100
AcDbArc
 50
180.0
 51
270.0
  0
LINE
  5
6E21
330
1E
100
AcDbEntity
  8
躯体と製品
  6
Continuous
 62
     3
100
AcDbLine
 10
1451.46480670431
 20
922.0941752599488
 30
0.0
 11
1451.46480670431
 21
913.2941752599487
 31
0.0
  0
ARC
  5
6E22
330
1E
100
AcDbEntity
  8
躯体と製品
  6
Continuous
 62
     7
100
AcDbCircle
 10
1449.86480670431
 20
919.0941752599488
 30
0.0
 40
4.2
100
AcDbArc
 50
14.0957892441728
 51
42.74124453868362
  0
ARC
  5
6E23
330
1E
100
AcDbEntity
  8
躯体と製品
  6
Continuous
 62
     7
100
AcDbCircle
 10
1449.86480670431
 20
919.0941752599488
 30
0.0
 40
4.2
100
AcDbArc
 50
317.2587554613163
 51
345.9042107558272
  0
LINE
  5
6E24
330
1E
100
AcDbEntity
  8
躯体と製品
  6
Continuous
 62
     7
100
AcDbLine
 10
1453.530526278963
 20
919.5941752599489
 30
0.0
 11
1453.530526278963
 21
918.5941752599488
 31
0.0
  0
ARC
  5
6E25
330
1E
100
AcDbEntity
  8
躯体と製品
  6
Continuous
 62
     7
100
AcDbCircle
 10
1453.530526278963
 20
920.014653983353
 30
0.0
 40
0.4204787234042585
100
AcDbArc
 50
270.0
 51
14.0957892441728
  0
LINE
  5
6E26
330
1E
100
AcDbEntity
  8
躯体と製品
  6
Continuous
 62
     7
100
AcDbLine
 10
1451.46480670431
 20
915.594175259949
 30
0.0
 11
1451.46480670431
 21
922.5941752599489
 31
0.0
  0
ARC
  5
6E27
330
1E
100
AcDbEntity
  8
躯体と製品
  6
Continuous
 62
     7
100
AcDbCircle
 10
1451.46480670431
 20
917.6156038313772
 30
0.0
 40
2.021428571428568
100
AcDbArc
 50
270.0
 51
317.2587554613163
  0
ARC
  5
6E28
330
1E
100
AcDbEntity
  8
躯体と製品
  6
Continuous
 62
     7
100
AcDbCircle
 10
1451.46480670431
 20
920.5727466885203
 30
0.0
 40
2.021428571428586
100
AcDbArc
 50
42.74124453868362
 51
90.0
  0
ARC
  5
6E29
330
1E
100
AcDbEntity
  8
躯体と製品
  6
Continuous
 62
     7
100
AcDbCircle
 10
1453.530526278963
 20
918.1736965365447
 30
0.0
 40
0.4204787234042585
100
AcDbArc
 50
345.9042107558272
 51
90.0
  0
ARC
  5
6E2A
330
1E
100
AcDbEntity
  8
躯体と製品
  6
Continuous
 62
     7
100
AcDbCircle
 10
1461.76480670431
 20
877.6682285910343
 30
0.0
 40
0.2999999999999999
100
AcDbArc
 50
85.25268174597099
 51
180.0
  0
LINE
  5
6E2B
330
1E
100
AcDbEntity
  8
躯体と製品
  6
Continuous
 62
     7
100
AcDbLine
 10
1461.789635173173
 20
877.967199404215
 30
0.0
 11
1467.444222967987
 21
877.4976058826799
 31
0.0
  0
LINE
  5
6E2C
330
1E
100
AcDbEntity
  8
躯体と製品
  6
Continuous
 62
     7
100
AcDbLine
 10
1461.46480670431
 20
877.6682285910343
 30
0.0
 11
1461.46480670431
 21
876.5941752599488
 31
0.0
  0
ARC
  5
6E2D
330
1E
100
AcDbEntity
  8
躯体と製品
  6
Continuous
 62
     7
100
AcDbCircle
 10
1461.46480670431
 20
877.9941752599489
 30
0.0
 40
1.0
100
AcDbArc
 50
85.25268174597099
 51
180.0
  0
LINE
  5
6E2E
330
1E
100
AcDbEntity
  8
躯体と製品
  6
Continuous
 62
     7
100
AcDbLine
 10
1461.547568267187
 20
878.9907446372179
 30
0.0
 11
1467.028699842262
 21
878.5355560413851
 31
0.0
  0
LINE
  5
6E2F
330
1E
100
AcDbEntity
  8
躯体と製品
  6
Continuous
 62
     7
100
AcDbLine
 10
1460.46480670431
 20
877.9941752599489
 30
0.0
 11
1460.46480670431
 21
876.2941752599486
 31
0.0
  0
LINE
  5
6E30
330
1E
100
AcDbEntity
  8
躯体と製品
  6
Continuous
 62
     7
100
AcDbLine
 10
1467.568365312333
 20
878.9924599485486
 30
0.0
 11
1467.609746093806
 21
879.4907446372123
 31
0.0
  0
ARC
  5
6E31
330
1E
100
AcDbEntity
  8
躯体と製品
  6
Continuous
 62
     7
100
AcDbCircle
 10
1467.526984530864
 20
878.494175259949
 30
0.0
 40
1.0
100
AcDbArc
 50
265.252681745971
 51
355.2526817422747
  0
LINE
  5
6E32
330
1E
100
AcDbEntity
  8
躯体と製品
  6
Continuous
 62
     7
100
AcDbLine
 10
1468.523553908128
 20
878.4114136970075
 30
0.0
 11
1468.606315471075
 21
879.4079830743351
 31
0.0
  0
ARC
  5
6E33
330
1E
100
AcDbEntity
  8
躯体と製品
  6
Continuous
 62
     7
100
AcDbCircle
 10
1468.108030782376
 20
879.4493638557792
 30
0.0
 40
0.4999999999354556
100
AcDbArc
 50
355.2526817459748
 51
175.2526817459747
  0
ARC
  5
6E34
330
1E
100
AcDbEntity
  8
躯体と製品
  6
Continuous
 62
     7
100
AcDbCircle
 10
1467.070080623701
 20
879.0338407300192
 30
0.0
 40
0.5
100
AcDbArc
 50
265.252681745971
 51
355.2526817422747
  0
ARC
  5
6E35
330
1E
100
AcDbEntity
  8
躯体と製品
  6
Continuous
 62
     7
100
AcDbCircle
 10
1461.46480670431
 20
876.2941752599486
 30
0.0
 40
1.0
100
AcDbArc
 50
180.0
 51
270.0
  0
LINE
  5
6E36
330
1E
100
AcDbEntity
  8
躯体と製品
  6
Continuous
 62
     7
100
AcDbLine
 10
1461.76480670431
 20
876.2941752599486
 30
0.0
 11
1469.96480670431
 21
876.2941752599486
 31
0.0
  0
LINE
  5
6E37
330
1E
100
AcDbEntity
  8
躯体と製品
  6
Continuous
 62
     7
100
AcDbLine
 10
1470.46480670431
 20
875.7941752599487
 30
0.0
 11
1470.46480670431
 21
875.2941752599486
 31
0.0
  0
ARC
  5
6E38
330
1E
100
AcDbEntity
  8
躯体と製品
  6
Continuous
 62
     7
100
AcDbCircle
 10
1469.96480670431
 20
875.7941752599487
 30
0.0
 40
0.5
100
AcDbArc
 50
0.0
 51
90.0
  0
LINE
  5
6E39
330
1E
100
AcDbEntity
  8
躯体と製品
  6
Continuous
 62
     7
100
AcDbLine
 10
1461.46480670431
 20
875.2941752599486
 30
0.0
 11
1470.46480670431
 21
875.2941752599486
 31
0.0
  0
POINT
  5
6E3A
330
1E
100
AcDbEntity
  8
躯体と製品
 62
     4
100
AcDbPoint
 10
1471.46480670431
 20
912.2941752599487
 30
0.0
  0
LINE
  5
6E3B
330
1E
100
AcDbEntity
  8
躯体と製品
  6
DASHED1
 62
     4
100
AcDbLine
 10
1450.26480670431
 20
917.0941752599489
 30
0.0
 11
1451.46480670431
 21
917.0941752599489
 31
0.0
  0
LINE
  5
6E3C
330
1E
100
AcDbEntity
  8
躯体と製品
  6
DASHED1
 62
     4
100
AcDbLine
 10
1450.26480670431
 20
921.094175259949
 30
0.0
 11
1451.46480670431
 21
921.094175259949
 31
0.0
  0
LINE
  5
6E3D
330
1E
100
AcDbEntity
  8
躯体と製品
  6
Continuous
 62
     3
100
AcDbLine
 10
1470.26480670431
 20
878.494175259949
 30
0.0
 11
1470.26480670431
 21
910.0941752599489
 31
0.0
  0
ARC
  5
6E3E
330
1E
100
AcDbEntity
  8
躯体と製品
  6
Continuous
 62
     3
100
AcDbCircle
 10
1469.26480670431
 20
878.494175259949
 30
0.0
 40
1.0
100
AcDbArc
 50
270.0
 51
0.0
  0
LINE
  5
6E3F
330
1E
100
AcDbEntity
  8
躯体と製品
  6
Continuous
 62
     3
100
AcDbLine
 10
1469.26480670431
 20
877.494175259949
 30
0.0
 11
1461.46480670431
 21
877.494175259949
 31
0.0
  0
ARC
  5
6E40
330
1E
100
AcDbEntity
  8
躯体と製品
  6
Continuous
 62
     3
100
AcDbCircle
 10
1469.26480670431
 20
878.494175259949
 30
0.0
 40
2.2
100
AcDbArc
 50
270.0
 51
0.0
  0
LINE
  5
6E41
330
1E
100
AcDbEntity
  8
躯体と製品
  6
Continuous
 62
     3
100
AcDbLine
 10
1461.46480670431
 20
877.494175259949
 30
0.0
 11
1461.46480670431
 21
876.2941752599486
 31
0.0
  0
LINE
  5
6E42
330
1E
100
AcDbEntity
  8
躯体と製品
  6
Continuous
 62
     3
100
AcDbLine
 10
1452.46480670431
 20
911.094175259949
 30
0.0
 11
1469.26480670431
 21
911.094175259949
 31
0.0
  0
LINE
  5
6E43
330
1E
100
AcDbEntity
  8
躯体と製品
  6
Continuous
 62
     3
100
AcDbLine
 10
1441.46480670431
 20
924.2941752599486
 30
0.0
 11
1441.46480670431
 21
923.0941752599489
 31
0.0
  0
LINE
  5
6E44
330
1E
100
AcDbEntity
  8
躯体と製品
  6
Continuous
 62
     3
100
AcDbLine
 10
1441.46480670431
 20
923.0941752599489
 30
0.0
 11
1449.26480670431
 21
923.0941752599489
 31
0.0
  0
ARC
  5
6E45
330
1E
100
AcDbEntity
  8
躯体と製品
  6
Continuous
 62
     3
100
AcDbCircle
 10
1469.26480670431
 20
910.0941752599489
 30
0.0
 40
2.2
100
AcDbArc
 50
0.0
 51
90.0
  0
ARC
  5
6E46
330
1E
100
AcDbEntity
  8
躯体と製品
  6
Continuous
 62
     3
100
AcDbCircle
 10
1452.46480670431
 20
913.2941752599487
 30
0.0
 40
2.2
100
AcDbArc
 50
180.0
 51
270.0
  0
ARC
  5
6E47
330
1E
100
AcDbEntity
  8
躯体と製品
  6
Continuous
 62
     3
100
AcDbCircle
 10
1469.26480670431
 20
910.0941752599489
 30
0.0
 40
1.0
100
AcDbArc
 50
0.0
 51
90.0
  0
ARC
  5
6E48
330
1E
100
AcDbEntity
  8
躯体と製品
  6
Continuous
 62
     3
100
AcDbCircle
 10
1452.46480670431
 20
913.2941752599487
 30
0.0
 40
1.0
100
AcDbArc
 50
180.0
 51
270.0
  0
LINE
  5
6E49
330
1E
100
AcDbEntity
  8
躯体と製品
  6
Continuous
 62
     3
100
AcDbLine
 10
1450.26480670431
 20
913.2941752599487
 30
0.0
 11
1450.26480670431
 21
922.0941752599488
 31
0.0
  0
ARC
  5
6E4A
330
1E
100
AcDbEntity
  8
躯体と製品
  6
Continuous
 62
     3
100
AcDbCircle
 10
1449.26480670431
 20
922.0941752599488
 30
0.0
 40
2.2
100
AcDbArc
 50
0.0
 51
90.0
  0
LINE
  5
6E4B
330
1E
100
AcDbEntity
  8
躯体と製品
  6
Continuous
 62
     3
100
AcDbLine
 10
1449.26480670431
 20
924.2941752599486
 30
0.0
 11
1441.46480670431
 21
924.2941752599486
 31
0.0
  0
ARC
  5
6E4C
330
1E
100
AcDbEntity
  8
躯体と製品
  6
Continuous
 62
     3
100
AcDbCircle
 10
1449.26480670431
 20
922.0941752599488
 30
0.0
 40
1.0
100
AcDbArc
 50
0.0
 51
90.0
  0
LINE
  5
6E4D
330
1E
100
AcDbEntity
  8
躯体と製品
  6
Continuous
 62
     3
100
AcDbLine
 10
1441.46480670431
 20
924.2818312599489
 30
0.0
 11
1441.47715070431
 21
924.2941752599486
 31
0.0
  0
LINE
  5
6E4E
330
1E
100
AcDbEntity
  8
躯体と製品
  6
Continuous
 62
     7
100
AcDbLine
 10
1450.26480670431
 20
917.0941752599489
 30
0.0
 11
1447.26480670431
 21
917.0941752599489
 31
0.0
  0
LINE
  5
6E4F
330
1E
100
AcDbEntity
  8
躯体と製品
  6
Continuous
 62
     4
100
AcDbLine
 10
1450.26480670431
 20
917.594175259949
 30
0.0
 11
1441.76480670431
 21
917.594175259949
 31
0.0
  0
LINE
  5
6E50
330
1E
100
AcDbEntity
  8
躯体と製品
  6
Continuous
 62
     4
100
AcDbLine
 10
1450.26480670431
 20
920.5941752599489
 30
0.0
 11
1441.76480670431
 21
920.5941752599489
 31
0.0
  0
LINE
  5
6E51
330
1E
100
AcDbEntity
  8
躯体と製品
  6
Continuous
 62
     7
100
AcDbLine
 10
1450.26480670431
 20
921.094175259949
 30
0.0
 11
1447.26480670431
 21
921.094175259949
 31
0.0
  0
LINE
  5
6E52
330
1E
100
AcDbEntity
  8
躯体と製品
  6
Continuous
 62
     4
100
AcDbLine
 10
1442.26480670431
 20
921.094175259949
 30
0.0
 11
1442.26480670431
 21
917.0941752599489
 31
0.0
  0
LINE
  5
6E53
330
1E
100
AcDbEntity
  8
躯体と製品
  6
Continuous
 62
     7
100
AcDbLine
 10
1441.76480670431
 20
920.5941752599489
 30
0.0
 11
1441.76480670431
 21
917.594175259949
 31
0.0
  0
LINE
  5
6E54
330
1E
100
AcDbEntity
  8
躯体と製品
  6
Continuous
 62
     7
100
AcDbLine
 10
1441.76480670431
 20
920.5941752599489
 30
0.0
 11
1442.26480670431
 21
921.094175259949
 31
0.0
  0
LINE
  5
6E55
330
1E
100
AcDbEntity
  8
躯体と製品
  6
Continuous
 62
     7
100
AcDbLine
 10
1441.76480670431
 20
917.594175259949
 30
0.0
 11
1442.26480670431
 21
917.0941752599489
 31
0.0
  0
LINE
  5
6E56
330
1E
100
AcDbEntity
  8
躯体と製品
  6
Continuous
 62
     4
100
AcDbLine
 10
1448.964806884603
 20
914.6838329724362
 30
0.0
 11
1449.175149172116
 21
914.8941752599482
 31
0.0
  0
LINE
  5
6E57
330
1E
100
AcDbEntity
  8
躯体と製品
  6
Continuous
 62
     4
100
AcDbLine
 10
1448.964808096786
 20
913.2696206222457
 30
0.0
 11
1449.764807704309
 21
914.0696202297689
 31
0.0
  0
LINE
  5
6E58
330
1E
100
AcDbEntity
  8
躯体と製品
  6
Continuous
 62
     4
100
AcDbLine
 10
1448.964809308968
 20
911.8554082720546
 30
0.0
 11
1449.764807704309
 21
912.6554066673955
 31
0.0
  0
LINE
  5
6E59
330
1E
100
AcDbEntity
  8
躯体と製品
  6
Continuous
 62
     4
100
AcDbLine
 10
1449.188585749202
 20
910.6649711499148
 30
0.0
 11
1449.783249429946
 21
911.2596348306585
 31
0.0
  0
LINE
  5
6E5A
330
1E
100
AcDbEntity
  8
躯体と製品
  6
Continuous
 62
     4
100
AcDbLine
 10
1450.049894209593
 20
910.1120660479326
 30
0.0
 11
1450.832004421609
 21
910.8941762599487
 31
0.0
  0
LINE
  5
6E5B
330
1E
100
AcDbEntity
  8
躯体と製品
  6
Continuous
 62
     4
100
AcDbLine
 10
1451.446216983983
 20
910.094175259949
 30
0.0
 11
1452.246217983983
 21
910.8941762599487
 31
0.0
  0
LINE
  5
6E5C
330
1E
100
AcDbEntity
  8
躯体と製品
  6
Continuous
 62
     4
100
AcDbLine
 10
1452.860430546356
 20
910.0941752599489
 30
0.0
 11
1453.660431546356
 21
910.8941762599485
 31
0.0
  0
LINE
  5
6E5D
330
1E
100
AcDbEntity
  8
躯体と製品
  6
Continuous
 62
     4
100
AcDbLine
 10
1454.274644108726
 20
910.0941752599487
 30
0.0
 11
1455.074645108725
 21
910.8941762599481
 31
0.0
  0
LINE
  5
6E5E
330
1E
100
AcDbEntity
  8
躯体と製品
  6
Continuous
 62
     4
100
AcDbLine
 10
1455.688857671099
 20
910.0941752599483
 30
0.0
 11
1456.488858671098
 21
910.894176259948
 31
0.0
  0
LINE
  5
6E5F
330
1E
100
AcDbEntity
  8
躯体と製品
  6
Continuous
 62
     4
100
AcDbLine
 10
1457.103071233472
 20
910.094175259948
 30
0.0
 11
1457.903072233472
 21
910.894176259948
 31
0.0
  0
LINE
  5
6E60
330
1E
100
AcDbEntity
  8
躯体と製品
  6
Continuous
 62
     4
100
AcDbLine
 10
1458.517284795845
 20
910.094175259948
 30
0.0
 11
1459.317285795846
 21
910.8941762599487
 31
0.0
  0
LINE
  5
6E61
330
1E
100
AcDbEntity
  8
躯体と製品
  6
Continuous
 62
     4
100
AcDbLine
 10
1459.931498358219
 20
910.0941752599487
 30
0.0
 11
1460.731499358219
 21
910.894176259949
 31
0.0
  0
LINE
  5
6E62
330
1E
100
AcDbEntity
  8
躯体と製品
  6
Continuous
 62
     4
100
AcDbLine
 10
1461.345711920592
 20
910.094175259948
 30
0.0
 11
1462.145712920592
 21
910.8941762599487
 31
0.0
  0
LINE
  5
6E63
330
1E
100
AcDbEntity
  8
躯体と製品
  6
Continuous
 62
     4
100
AcDbLine
 10
1462.759925482966
 20
910.094175259949
 30
0.0
 11
1463.559926482966
 21
910.8941762599487
 31
0.0
  0
LINE
  5
6E64
330
1E
100
AcDbEntity
  8
躯体と製品
  6
Continuous
 62
     4
100
AcDbLine
 10
1464.174139045339
 20
910.0941752599487
 30
0.0
 11
1464.974140045339
 21
910.8941762599483
 31
0.0
  0
LINE
  5
6E65
330
1E
100
AcDbEntity
  8
躯体と製品
  6
Continuous
 62
     4
100
AcDbLine
 10
1465.588352607712
 20
910.0941752599487
 30
0.0
 11
1466.388353607712
 21
910.8941762599483
 31
0.0
  0
LINE
  5
6E66
330
1E
100
AcDbEntity
  8
躯体と製品
  6
Continuous
 62
     4
100
AcDbLine
 10
1467.002566170086
 20
910.0941752599483
 30
0.0
 11
1467.802567170085
 21
910.894176259948
 31
0.0
  0
LINE
  5
6E67
330
1E
100
AcDbEntity
  8
躯体と製品
  6
Continuous
 62
     4
100
AcDbLine
 10
1468.416779732459
 20
910.0941752599492
 30
0.0
 11
1469.130504779272
 21
910.8079003067624
 31
0.0
  0
LINE
  5
6E68
330
1E
100
AcDbEntity
  8
躯体と製品
  6
Continuous
 62
     4
100
AcDbLine
 10
1469.16480870431
 20
909.4279906694266
 30
0.0
 11
1469.854667058844
 21
910.1178490239606
 31
0.0
  0
LINE
  5
6E69
330
1E
100
AcDbEntity
  8
躯体と製品
  6
Continuous
 62
     4
100
AcDbLine
 10
1469.16480870431
 20
908.0137771070535
 30
0.0
 11
1469.96480670431
 21
908.8137751070531
 31
0.0
  0
LINE
  5
6E6A
330
1E
100
AcDbEntity
  8
躯体と製品
  6
Continuous
 62
     4
100
AcDbLine
 10
1469.16480870431
 20
906.5995635446801
 30
0.0
 11
1469.96480670431
 21
907.3995615446799
 31
0.0
  0
LINE
  5
6E6B
330
1E
100
AcDbEntity
  8
躯体と製品
  6
Continuous
 62
     4
100
AcDbLine
 10
1469.164808704311
 20
905.1853499823071
 30
0.0
 11
1469.96480670431
 21
905.9853479823066
 31
0.0
  0
LINE
  5
6E6C
330
1E
100
AcDbEntity
  8
躯体と製品
  6
Continuous
 62
     4
100
AcDbLine
 10
1469.164808704309
 20
903.7711364199319
 30
0.0
 11
1469.96480670431
 21
904.5711344199325
 31
0.0
  0
LINE
  5
6E6D
330
1E
100
AcDbEntity
  8
躯体と製品
  6
Continuous
 62
     4
100
AcDbLine
 10
1469.164808704309
 20
902.3569228575583
 30
0.0
 11
1469.964806704309
 21
903.1569208575589
 31
0.0
  0
LINE
  5
6E6E
330
1E
100
AcDbEntity
  8
躯体と製品
  6
Continuous
 62
     4
100
AcDbLine
 10
1469.164808704309
 20
900.9427092951892
 30
0.0
 11
1469.96480670431
 21
901.74270729519
 31
0.0
  0
LINE
  5
6E6F
330
1E
100
AcDbEntity
  8
躯体と製品
  6
Continuous
 62
     4
100
AcDbLine
 10
1469.164808704309
 20
899.5284957328157
 30
0.0
 11
1469.96480670431
 21
900.3284937328164
 31
0.0
  0
LINE
  5
6E70
330
1E
100
AcDbEntity
  8
躯体と製品
  6
Continuous
 62
     4
100
AcDbLine
 10
1469.164808704309
 20
898.1142821704427
 30
0.0
 11
1469.96480670431
 21
898.9142801704433
 31
0.0
  0
LINE
  5
6E71
330
1E
100
AcDbEntity
  8
躯体と製品
  6
Continuous
 62
     4
100
AcDbLine
 10
1469.164808704309
 20
896.7000686080691
 30
0.0
 11
1469.96480670431
 21
897.5000666080703
 31
0.0
  0
LINE
  5
6E72
330
1E
100
AcDbEntity
  8
躯体と製品
  6
Continuous
 62
     4
100
AcDbLine
 10
1469.164808704309
 20
895.285855045696
 30
0.0
 11
1469.96480670431
 21
896.0858530456969
 31
0.0
  0
LINE
  5
6E73
330
1E
100
AcDbEntity
  8
躯体と製品
  6
Continuous
 62
     4
100
AcDbLine
 10
1469.16480870431
 20
893.8716414833232
 30
0.0
 11
1469.964806704309
 21
894.6716394833227
 31
0.0
  0
LINE
  5
6E74
330
1E
100
AcDbEntity
  8
躯体と製品
  6
Continuous
 62
     4
100
AcDbLine
 10
1469.16480870431
 20
892.4574279209496
 30
0.0
 11
1469.964806704309
 21
893.2574259209495
 31
0.0
  0
LINE
  5
6E75
330
1E
100
AcDbEntity
  8
躯体と製品
  6
Continuous
 62
     4
100
AcDbLine
 10
1469.16480870431
 20
891.0432143585765
 30
0.0
 11
1469.964806704309
 21
891.8432123585759
 31
0.0
  0
LINE
  5
6E76
330
1E
100
AcDbEntity
  8
躯体と製品
  6
Continuous
 62
     4
100
AcDbLine
 10
1469.16480870431
 20
889.6290007962031
 30
0.0
 11
1469.96480670431
 21
890.4289987962028
 31
0.0
  0
LINE
  5
6E77
330
1E
100
AcDbEntity
  8
躯体と製品
  6
Continuous
 62
     4
100
AcDbLine
 10
1469.16480870431
 20
888.2147872338299
 30
0.0
 11
1469.96480670431
 21
889.0147852338298
 31
0.0
  0
LINE
  5
6E78
330
1E
100
AcDbEntity
  8
躯体と製品
  6
Continuous
 62
     4
100
AcDbLine
 10
1469.16480870431
 20
886.8005736714566
 30
0.0
 11
1469.96480670431
 21
887.6005716714564
 31
0.0
  0
LINE
  5
6E79
330
1E
100
AcDbEntity
  8
躯体と製品
  6
Continuous
 62
     4
100
AcDbLine
 10
1469.16480870431
 20
885.3863601090834
 30
0.0
 11
1469.96480670431
 21
886.1863581090831
 31
0.0
  0
LINE
  5
6E7A
330
1E
100
AcDbEntity
  8
躯体と製品
  6
Continuous
 62
     4
100
AcDbLine
 10
1469.16480870431
 20
883.97214654671
 30
0.0
 11
1469.96480670431
 21
884.7721445467099
 31
0.0
  0
LINE
  5
6E7B
330
1E
100
AcDbEntity
  8
躯体と製品
  6
Continuous
 62
     4
100
AcDbLine
 10
1469.164808704309
 20
882.5579329843359
 30
0.0
 11
1469.96480670431
 21
883.3579309843365
 31
0.0
  0
LINE
  5
6E7C
330
1E
100
AcDbEntity
  8
躯体と製品
  6
Continuous
 62
     4
100
AcDbLine
 10
1469.164808704309
 20
881.1437194219626
 30
0.0
 11
1469.96480670431
 21
881.9437174219634
 31
0.0
  0
LINE
  5
6E7D
330
1E
100
AcDbEntity
  8
躯体と製品
  6
Continuous
 62
     7
100
AcDbLine
 10
1448.96480670431
 20
914.8941752599487
 30
0.0
 11
1448.96480970431
 21
911.3941772599487
 31
0.0
  0
LINE
  5
6E7E
330
1E
100
AcDbEntity
  8
躯体と製品
  6
Continuous
 62
     7
100
AcDbLine
 10
1468.66480770431
 20
910.0941752599487
 30
0.0
 11
1450.26480870431
 21
910.0941752599487
 31
0.0
  0
LINE
  5
6E7F
330
1E
100
AcDbEntity
  8
躯体と製品
  6
Continuous
 62
     7
100
AcDbLine
 10
1469.16480870431
 20
880.8941762599486
 30
0.0
 11
1469.96480670431
 21
880.8941762599486
 31
0.0
  0
LINE
  5
6E80
330
1E
100
AcDbEntity
  8
躯体と製品
  6
Continuous
 62
     7
100
AcDbLine
 10
1469.96480670431
 20
909.5941772599488
 30
0.0
 11
1469.96480670431
 21
880.8941762599486
 31
0.0
  0
LINE
  5
6E81
330
1E
100
AcDbEntity
  8
躯体と製品
  6
Continuous
 62
     7
100
AcDbLine
 10
1469.16480870431
 20
909.5941772599488
 30
0.0
 11
1469.16480870431
 21
880.8941762599486
 31
0.0
  0
ARC
  5
6E82
330
1E
100
AcDbEntity
  8
躯体と製品
  6
Continuous
 62
     7
100
AcDbCircle
 10
1468.66480770431
 20
909.5941772599488
 30
0.0
 40
0.5000010000000002
100
AcDbArc
 50
0.0
 51
90.0
  0
ARC
  5
6E83
330
1E
100
AcDbEntity
  8
躯体と製品
  6
Continuous
 62
     7
100
AcDbCircle
 10
1468.66480770431
 20
909.5941772599488
 30
0.0
 40
1.299998999999999
100
AcDbArc
 50
0.0
 51
90.0
  0
LINE
  5
6E84
330
1E
100
AcDbEntity
  8
躯体と製品
  6
Continuous
 62
     7
100
AcDbLine
 10
1468.66480770431
 20
910.8941762599485
 30
0.0
 11
1450.26480870431
 21
910.8941762599485
 31
0.0
  0
LINE
  5
6E85
330
1E
100
AcDbEntity
  8
躯体と製品
  6
Continuous
 62
     7
100
AcDbLine
 10
1448.96480670431
 20
914.8941752599487
 30
0.0
 11
1449.764807704309
 21
914.8941752599487
 31
0.0
  0
ARC
  5
6E86
330
1E
100
AcDbEntity
  8
躯体と製品
  6
Continuous
 62
     7
100
AcDbCircle
 10
1450.26480870431
 20
911.3941772599487
 30
0.0
 40
1.299998999999999
100
AcDbArc
 50
180.0
 51
270.0
  0
ARC
  5
6E87
330
1E
100
AcDbEntity
  8
躯体と製品
  6
Continuous
 62
     7
100
AcDbCircle
 10
1450.26480870431
 20
911.3941772599487
 30
0.0
 40
0.5000010000000002
100
AcDbArc
 50
180.0
 51
270.0
  0
LINE
  5
6E88
330
1E
100
AcDbEntity
  8
躯体と製品
  6
Continuous
 62
     7
100
AcDbLine
 10
1449.764807704309
 20
911.3941772599487
 30
0.0
 11
1449.764807704309
 21
914.8941752599487
 31
0.0
  0
POINT
  5
6E89
330
1E
100
AcDbEntity
  8
躯体と製品
 62
     4
100
AcDbPoint
 10
1471.46480670431
 20
876.2941752599486
 30
0.0
  0
LINE
  5
6E8A
330
1E
100
AcDbEntity
  8
躯体と製品
  6
Continuous
 62
     3
100
AcDbLine
 10
1469.26480670431
 20
912.2941752599487
 30
0.0
 11
1452.46480670431
 21
912.2941752599487
 31
0.0
  0
LINE
  5
6E8B
330
1E
100
AcDbEntity
  8
躯体と製品
  6
Continuous
 62
     3
100
AcDbLine
 10
1471.46480670431
 20
878.494175259949
 30
0.0
 11
1471.46480670431
 21
910.0941752599489
 31
0.0
  0
LINE
  5
6E8C
330
1E
100
AcDbEntity
  8
躯体と製品
  6
Continuous
 62
     3
100
AcDbLine
 10
1469.26480670431
 20
876.2941752599486
 30
0.0
 11
1461.46480670431
 21
876.2941752599486
 31
0.0
  0
LINE
  5
6E8D
330
1E
100
AcDbEntity
  8
躯体と製品
  6
DASHED1
 62
     7
100
AcDbLine
 10
1425.26480670431
 20
872.5941742599488
 30
0.0
 11
1437.26480670431
 21
872.5941742599488
 31
0.0
  0
LINE
  5
6E8E
330
1E
100
AcDbEntity
  8
躯体と製品
  6
DASHED1
 62
     7
100
AcDbLine
 10
1417.46442570431
 20
863.9709382599489
 30
0.0
 11
1422.12240570431
 21
862.2755722599489
 31
0.0
  0
LINE
  5
6E8F
330
1E
100
AcDbEntity
  8
躯体と製品
  6
DASHED1
 62
     7
100
AcDbLine
 10
1429.06844670431
 20
874.916513259949
 30
0.0
 11
1422.46442670431
 21
873.973082259949
 31
0.0
  0
LINE
  5
6E90
330
1E
100
AcDbEntity
  8
躯体と製品
  6
DASHED1
 62
     7
100
AcDbLine
 10
1403.13425070431
 20
866.7247282599491
 30
0.0
 11
1401.26480670431
 21
868.5941752599488
 31
0.0
  0
LINE
  5
6E91
330
1E
100
AcDbEntity
  8
躯体と製品
  6
DASHED1
 62
     7
100
AcDbLine
 10
1402.484984704309
 20
863.185898259949
 30
0.0
 11
1400.48772570431
 21
863.0812282599489
 31
0.0
  0
LINE
  5
6E92
330
1E
100
AcDbEntity
  8
躯体と製品
  6
DASHED1
 62
     7
100
AcDbLine
 10
1402.38031170431
 20
865.1831572599489
 30
0.0
 11
1402.484984704309
 21
863.185898259949
 31
0.0
  0
LINE
  5
6E93
330
1E
100
AcDbEntity
  8
躯体と製品
  6
DASHED1
 62
     7
100
AcDbLine
 10
1404.377570704309
 20
865.2878302599489
 30
0.0
 11
1402.38031170431
 21
865.1831572599489
 31
0.0
  0
LINE
  5
6E94
330
1E
100
AcDbEntity
  8
躯体と製品
  6
DASHED1
 62
     7
100
AcDbLine
 10
1405.48087170431
 20
863.3429062599491
 30
0.0
 11
1404.377570704309
 21
865.2878302599489
 31
0.0
  0
LINE
  5
6E95
330
1E
100
AcDbEntity
  8
躯体と製品
  6
DASHED1
 62
     7
100
AcDbLine
 10
1407.47813070431
 20
863.4475792599491
 30
0.0
 11
1405.48087170431
 21
863.3429062599491
 31
0.0
  0
LINE
  5
6E96
330
1E
100
AcDbEntity
  8
躯体と製品
  6
DASHED1
 62
     7
100
AcDbLine
 10
1407.37346070431
 20
865.444838259949
 30
0.0
 11
1407.47813070431
 21
863.4475792599491
 31
0.0
  0
LINE
  5
6E97
330
1E
100
AcDbEntity
  8
躯体と製品
  6
DASHED1
 62
     7
100
AcDbLine
 10
1409.37071970431
 20
865.549511259949
 30
0.0
 11
1407.37346070431
 21
865.444838259949
 31
0.0
  0
LINE
  5
6E98
330
1E
100
AcDbEntity
  8
躯体と製品
  6
DASHED1
 62
     7
100
AcDbLine
 10
1410.47402070431
 20
863.604587259949
 30
0.0
 11
1409.37071970431
 21
865.549511259949
 31
0.0
  0
LINE
  5
6E99
330
1E
100
AcDbEntity
  8
躯体と製品
  6
DASHED1
 62
     7
100
AcDbLine
 10
1412.47127970431
 20
863.7092602599491
 30
0.0
 11
1410.47402070431
 21
863.604587259949
 31
0.0
  0
LINE
  5
6E9A
330
1E
100
AcDbEntity
  8
躯体と製品
  6
DASHED1
 62
     7
100
AcDbLine
 10
1412.36660670431
 20
865.7065192599491
 30
0.0
 11
1412.47127970431
 21
863.7092602599491
 31
0.0
  0
LINE
  5
6E9B
330
1E
100
AcDbEntity
  8
躯体と製品
  6
DASHED1
 62
     7
100
AcDbLine
 10
1414.36386570431
 20
865.8111892599489
 30
0.0
 11
1412.36660670431
 21
865.7065192599491
 31
0.0
  0
LINE
  5
6E9C
330
1E
100
AcDbEntity
  8
躯体と製品
  6
DASHED1
 62
     7
100
AcDbLine
 10
1415.46716670431
 20
863.8662682599493
 30
0.0
 11
1414.36386570431
 21
865.8111892599489
 31
0.0
  0
LINE
  5
6E9D
330
1E
100
AcDbEntity
  8
躯体と製品
  6
DASHED1
 62
     7
100
AcDbLine
 10
1417.46442570431
 20
863.9709382599489
 30
0.0
 11
1415.46716670431
 21
863.8662682599493
 31
0.0
  0
LINE
  5
6E9E
330
1E
100
AcDbEntity
  8
躯体と製品
  6
DASHED1
 62
     7
100
AcDbLine
 10
1417.35975570431
 20
865.9681972599491
 30
0.0
 11
1417.46442570431
 21
863.9709382599489
 31
0.0
  0
LINE
  5
6E9F
330
1E
100
AcDbEntity
  8
躯体と製品
  6
DASHED1
 62
     7
100
AcDbLine
 10
1419.35701470431
 20
866.0728702599492
 30
0.0
 11
1417.35975570431
 21
865.9681972599491
 31
0.0
  0
LINE
  5
6EA0
330
1E
100
AcDbEntity
  8
躯体と製品
  6
DASHED1
 62
     7
100
AcDbLine
 10
1420.46031570431
 20
864.1279462599491
 30
0.0
 11
1419.35701470431
 21
866.0728702599492
 31
0.0
  0
LINE
  5
6EA1
330
1E
100
AcDbEntity
  8
躯体と製品
  6
DASHED1
 62
     7
100
AcDbLine
 10
1398.30728970431
 20
866.4717592599487
 30
0.0
 11
1429.26480570431
 21
868.0941742599491
 31
0.0
  0
LINE
  5
6EA2
330
1E
100
AcDbEntity
  8
躯体と製品
  6
DASHED1
 62
     7
100
AcDbLine
 10
1398.38579370431
 20
864.973814259949
 30
0.0
 11
1398.30728970431
 21
866.4717592599487
 31
0.0
  0
LINE
  5
6EA3
330
1E
100
AcDbEntity
  8
躯体と製品
  6
DASHED1
 62
     7
100
AcDbLine
 10
1400.48772570431
 20
863.0812282599489
 30
0.0
 11
1398.38579370431
 21
864.973814259949
 31
0.0
  0
LINE
  5
6EA4
330
1E
100
AcDbEntity
  8
躯体と製品
  6
DASHED1
 62
     7
100
AcDbLine
 10
1400.30454870431
 20
866.5764322599491
 30
0.0
 11
1400.48772570431
 21
863.0812282599489
 31
0.0
  0
LINE
  5
6EA5
330
1E
100
AcDbEntity
  8
躯体と製品
  6
DASHED1
 62
     7
100
AcDbLine
 10
1422.45757470431
 20
864.2326192599492
 30
0.0
 11
1420.46031570431
 21
864.1279462599491
 31
0.0
  0
LINE
  5
6EA6
330
1E
100
AcDbEntity
  8
躯体と製品
  6
DASHED1
 62
     7
100
AcDbLine
 10
1422.352901704309
 20
866.229878259949
 30
0.0
 11
1422.45757470431
 21
864.2326192599492
 31
0.0
  0
LINE
  5
6EA7
330
1E
100
AcDbEntity
  8
躯体と製品
  6
DASHED1
 62
     7
100
AcDbLine
 10
1424.35016070431
 20
866.334548259949
 30
0.0
 11
1422.352901704309
 21
866.229878259949
 31
0.0
  0
LINE
  5
6EA8
330
1E
100
AcDbEntity
  8
躯体と製品
  6
DASHED1
 62
     7
100
AcDbLine
 10
1437.26480670431
 20
863.5941742599491
 30
0.0
 11
1432.26480570431
 21
864.594173259949
 31
0.0
  0
LINE
  5
6EA9
330
1E
100
AcDbEntity
  8
躯体と製品
  6
DASHED1
 62
     7
100
AcDbLine
 10
1402.484984704309
 20
874.002449259949
 30
0.0
 11
1400.48772570431
 21
874.1071192599489
 31
0.0
  0
LINE
  5
6EAA
330
1E
100
AcDbEntity
  8
躯体と製品
  6
DASHED1
 62
     7
100
AcDbLine
 10
1402.38031170431
 20
872.005190259949
 30
0.0
 11
1402.484984704309
 21
874.002449259949
 31
0.0
  0
LINE
  5
6EAB
330
1E
100
AcDbEntity
  8
躯体と製品
  6
DASHED1
 62
     7
100
AcDbLine
 10
1404.377570704309
 20
871.9005172599489
 30
0.0
 11
1402.38031170431
 21
872.005190259949
 31
0.0
  0
LINE
  5
6EAC
330
1E
100
AcDbEntity
  8
躯体と製品
  6
DASHED1
 62
     7
100
AcDbLine
 10
1405.48087170431
 20
873.8454412599491
 30
0.0
 11
1404.377570704309
 21
871.9005172599489
 31
0.0
  0
LINE
  5
6EAD
330
1E
100
AcDbEntity
  8
躯体と製品
  6
DASHED1
 62
     7
100
AcDbLine
 10
1407.47813070431
 20
873.7407682599492
 30
0.0
 11
1405.48087170431
 21
873.8454412599491
 31
0.0
  0
LINE
  5
6EAE
330
1E
100
AcDbEntity
  8
躯体と製品
  6
DASHED1
 62
     7
100
AcDbLine
 10
1407.37346070431
 20
871.7435092599492
 30
0.0
 11
1407.47813070431
 21
873.7407682599492
 31
0.0
  0
LINE
  5
6EAF
330
1E
100
AcDbEntity
  8
躯体と製品
  6
DASHED1
 62
     7
100
AcDbLine
 10
1409.37071970431
 20
871.638836259949
 30
0.0
 11
1407.37346070431
 21
871.7435092599492
 31
0.0
  0
LINE
  5
6EB0
330
1E
100
AcDbEntity
  8
躯体と製品
  6
DASHED1
 62
     7
100
AcDbLine
 10
1410.47402070431
 20
873.583760259949
 30
0.0
 11
1409.37071970431
 21
871.638836259949
 31
0.0
  0
LINE
  5
6EB1
330
1E
100
AcDbEntity
  8
躯体と製品
  6
DASHED1
 62
     7
100
AcDbLine
 10
1412.47127970431
 20
873.4790872599491
 30
0.0
 11
1410.47402070431
 21
873.583760259949
 31
0.0
  0
LINE
  5
6EB2
330
1E
100
AcDbEntity
  8
躯体と製品
  6
DASHED1
 62
     7
100
AcDbLine
 10
1412.36660670431
 20
871.4818282599491
 30
0.0
 11
1412.47127970431
 21
873.4790872599491
 31
0.0
  0
LINE
  5
6EB3
330
1E
100
AcDbEntity
  8
躯体と製品
  6
DASHED1
 62
     7
100
AcDbLine
 10
1414.36386570431
 20
871.3771582599489
 30
0.0
 11
1412.36660670431
 21
871.4818282599491
 31
0.0
  0
LINE
  5
6EB4
330
1E
100
AcDbEntity
  8
躯体と製品
  6
DASHED1
 62
     7
100
AcDbLine
 10
1415.46716670431
 20
873.3220792599491
 30
0.0
 11
1414.36386570431
 21
871.3771582599489
 31
0.0
  0
LINE
  5
6EB5
330
1E
100
AcDbEntity
  8
躯体と製品
  6
DASHED1
 62
     7
100
AcDbLine
 10
1417.46442570431
 20
873.2174092599491
 30
0.0
 11
1415.46716670431
 21
873.3220792599491
 31
0.0
  0
LINE
  5
6EB6
330
1E
100
AcDbEntity
  8
躯体と製品
  6
DASHED1
 62
     7
100
AcDbLine
 10
1417.35975570431
 20
871.2201502599491
 30
0.0
 11
1417.46442570431
 21
873.2174092599491
 31
0.0
  0
LINE
  5
6EB7
330
1E
100
AcDbEntity
  8
躯体と製品
  6
DASHED1
 62
     7
100
AcDbLine
 10
1419.35701470431
 20
871.115477259949
 30
0.0
 11
1417.35975570431
 21
871.2201502599491
 31
0.0
  0
LINE
  5
6EB8
330
1E
100
AcDbEntity
  8
躯体と製品
  6
DASHED1
 62
     7
100
AcDbLine
 10
1420.46031570431
 20
873.060401259949
 30
0.0
 11
1419.35701470431
 21
871.115477259949
 31
0.0
  0
LINE
  5
6EB9
330
1E
100
AcDbEntity
  8
躯体と製品
  6
DASHED1
 62
     7
100
AcDbLine
 10
1398.30728970431
 20
870.716588259949
 30
0.0
 11
1429.26480570431
 21
869.094173259949
 31
0.0
  0
LINE
  5
6EBA
330
1E
100
AcDbEntity
  8
躯体と製品
  6
DASHED1
 62
     7
100
AcDbLine
 10
1398.38579370431
 20
872.2145332599492
 30
0.0
 11
1398.30728970431
 21
870.716588259949
 31
0.0
  0
LINE
  5
6EBB
330
1E
100
AcDbEntity
  8
躯体と製品
  6
DASHED1
 62
     7
100
AcDbLine
 10
1400.48772570431
 20
874.1071192599489
 30
0.0
 11
1398.38579370431
 21
872.2145332599492
 31
0.0
  0
LINE
  5
6EBC
330
1E
100
AcDbEntity
  8
躯体と製品
  6
DASHED1
 62
     7
100
AcDbLine
 10
1400.30454870431
 20
870.6119152599491
 30
0.0
 11
1400.48772570431
 21
874.1071192599489
 31
0.0
  0
LINE
  5
6EBD
330
1E
100
AcDbEntity
  8
躯体と製品
  6
DASHED1
 62
     7
100
AcDbLine
 10
1422.45757470431
 20
872.9557282599492
 30
0.0
 11
1420.46031570431
 21
873.060401259949
 31
0.0
  0
LINE
  5
6EBE
330
1E
100
AcDbEntity
  8
躯体と製品
  6
DASHED1
 62
     7
100
AcDbLine
 10
1422.352901704309
 20
870.958469259949
 30
0.0
 11
1422.45757470431
 21
872.9557282599492
 31
0.0
  0
LINE
  5
6EBF
330
1E
100
AcDbEntity
  8
躯体と製品
  6
DASHED1
 62
     7
100
AcDbLine
 10
1424.35016070431
 20
870.853799259949
 30
0.0
 11
1422.352901704309
 21
870.958469259949
 31
0.0
  0
LINE
  5
6EC0
330
1E
100
AcDbEntity
  8
躯体と製品
  6
DASHED1
 62
     7
100
AcDbLine
 10
1403.13425070431
 20
870.463619259949
 30
0.0
 11
1401.26480670431
 21
868.5941752599488
 31
0.0
  0
LINE
  5
6EC1
330
1E
100
AcDbEntity
  8
躯体と製品
  6
DASHED1
 62
     7
100
AcDbLine
 10
1432.26480570431
 20
868.5941752599488
 30
0.0
 11
1437.26480670431
 21
868.5941752599488
 31
0.0
  0
LINE
  5
6EC2
330
1E
100
AcDbEntity
  8
躯体と製品
  6
DASHED1
 62
     7
100
AcDbLine
 10
1437.26480670431
 20
867.5941732599492
 30
0.0
 11
1432.26480570431
 21
868.5941752599488
 31
0.0
  0
LINE
  5
6EC3
330
1E
100
AcDbEntity
  8
躯体と製品
  6
DASHED1
 62
     7
100
AcDbLine
 10
1437.26480670431
 20
869.594174259949
 30
0.0
 11
1432.26480570431
 21
868.5941752599488
 31
0.0
  0
LINE
  5
6EC4
330
1E
100
AcDbEntity
  8
躯体と製品
  6
DASHED1
 62
     7
100
AcDbLine
 10
1437.26480670431
 20
873.594173259949
 30
0.0
 11
1432.26480570431
 21
872.5941742599488
 31
0.0
  0
LINE
  5
6EC5
330
1E
100
AcDbEntity
  8
躯体と製品
  6
DASHED1
 62
     7
100
AcDbLine
 10
1425.26480670431
 20
872.5941742599488
 30
0.0
 11
1424.35016070431
 21
870.853799259949
 31
0.0
  0
LINE
  5
6EC6
330
1E
100
AcDbEntity
  8
躯体と製品
  6
DASHED1
 62
     7
100
AcDbLine
 10
1429.26480570431
 20
869.094173259949
 30
0.0
 11
1429.26480570431
 21
868.0941742599491
 31
0.0
  0
ARC
  5
6EC7
330
1E
100
AcDbEntity
  8
躯体と製品
  6
DASHED1
 62
     7
100
AcDbCircle
 10
1429.01187870431
 20
875.3124922599491
 30
0.0
 40
0.3999990000000001
100
AcDbArc
 50
278.1301019999978
 51
8.130102000001478
  0
LINE
  5
6EC8
330
1E
100
AcDbEntity
  8
躯体と製品
  6
DASHED1
 62
     7
100
AcDbLine
 10
1429.379741704309
 20
875.5658872599489
 30
0.0
 11
1429.40785770431
 21
875.3690632599489
 31
0.0
  0
ARC
  5
6EC9
330
1E
100
AcDbEntity
  8
躯体と製品
  6
DASHED1
 62
     7
100
AcDbCircle
 10
1428.98375970431
 20
875.509319259949
 30
0.0
 40
0.3999990000000001
100
AcDbArc
 50
8.130102000001478
 51
98.29846599999713
  0
LINE
  5
6ECA
330
1E
100
AcDbEntity
  8
躯体と製品
  6
DASHED1
 62
     7
100
AcDbLine
 10
1422.12240570431
 20
874.9127752599489
 30
0.0
 11
1428.92602770431
 21
875.9051302599489
 31
0.0
  0
LINE
  5
6ECB
330
1E
100
AcDbEntity
  8
躯体と製品
  6
DASHED1
 62
     7
100
AcDbLine
 10
1429.06844670431
 20
862.2718342599492
 30
0.0
 11
1422.46442670431
 21
863.215265259949
 31
0.0
  0
ARC
  5
6ECC
330
1E
100
AcDbEntity
  8
躯体と製品
  6
DASHED1
 62
     7
100
AcDbCircle
 10
1429.01187870431
 20
861.8758552599491
 30
0.0
 40
0.3999990000000001
100
AcDbArc
 50
351.8698979999985
 51
81.86989800000221
  0
LINE
  5
6ECD
330
1E
100
AcDbEntity
  8
躯体と製品
  6
DASHED1
 62
     7
100
AcDbLine
 10
1429.379741704309
 20
861.6224602599485
 30
0.0
 11
1429.40785770431
 21
861.8192872599488
 31
0.0
  0
ARC
  5
6ECE
330
1E
100
AcDbEntity
  8
躯体と製品
  6
DASHED1
 62
     7
100
AcDbCircle
 10
1428.98375970431
 20
861.6790282599486
 30
0.0
 40
0.3999990000000001
100
AcDbArc
 50
261.7015340000029
 51
351.8698979999985
  0
LINE
  5
6ECF
330
1E
100
AcDbEntity
  8
躯体と製品
  6
DASHED1
 62
     7
100
AcDbLine
 10
1422.12240570431
 20
862.2755722599489
 30
0.0
 11
1428.92602770431
 21
861.2832172599489
 31
0.0
  0
LINE
  5
6ED0
330
1E
100
AcDbEntity
  8
躯体と製品
  6
DASHED1
 62
     7
100
AcDbLine
 10
1417.46442570431
 20
865.0351162599489
 30
0.0
 11
1422.46442670431
 21
863.215265259949
 31
0.0
  0
LINE
  5
6ED1
330
1E
100
AcDbEntity
  8
躯体と製品
  6
DASHED1
 62
     7
100
AcDbLine
 10
1417.46442570431
 20
873.2174092599491
 30
0.0
 11
1422.12240570431
 21
874.9127752599489
 31
0.0
  0
LINE
  5
6ED2
330
1E
100
AcDbEntity
  8
躯体と製品
  6
DASHED1
 62
     7
100
AcDbLine
 10
1417.46442570431
 20
872.1532312599487
 30
0.0
 11
1422.46442670431
 21
873.973082259949
 31
0.0
  0
LINE
  5
6ED3
330
1E
100
AcDbEntity
  8
躯体と製品
  6
DASHED1
 62
     7
100
AcDbLine
 10
1425.26480670431
 20
864.594173259949
 30
0.0
 11
1437.26480670431
 21
864.594173259949
 31
0.0
  0
LINE
  5
6ED4
330
1E
100
AcDbEntity
  8
躯体と製品
  6
DASHED1
 62
     7
100
AcDbLine
 10
1424.35016070431
 20
866.334548259949
 30
0.0
 11
1425.26480670431
 21
864.594173259949
 31
0.0
  0
LINE
  5
6ED5
330
1E
100
AcDbEntity
  8
躯体と製品
  6
Continuous
 62
     3
100
AcDbLine
 10
1439.26480670431
 20
873.594175259949
 30
0.0
 11
1439.76480670431
 21
873.594175259949
 31
0.0
  0
LINE
  5
6ED6
330
1E
100
AcDbEntity
  8
躯体と製品
  6
Continuous
 62
     3
100
AcDbLine
 10
1439.26480670431
 20
863.5941752599491
 30
0.0
 11
1439.76480670431
 21
863.5941752599491
 31
0.0
  0
LINE
  5
6ED7
330
1E
100
AcDbEntity
  8
躯体と製品
  6
Continuous
 62
     3
100
AcDbLine
 10
1441.76480670431
 20
869.0941752599488
 30
0.0
 11
1441.26480670431
 21
868.5941752599488
 31
0.0
  0
LINE
  5
6ED8
330
1E
100
AcDbEntity
  8
躯体と製品
  6
Continuous
 62
     3
100
AcDbLine
 10
1441.76480670431
 20
868.0941752599489
 30
0.0
 11
1441.26480670431
 21
868.5941752599488
 31
0.0
  0
LINE
  5
6ED9
330
1E
100
AcDbEntity
  8
躯体と製品
  6
Continuous
 62
     3
100
AcDbLine
 10
1439.26480670431
 20
873.594175259949
 30
0.0
 11
1439.26480670431
 21
863.5941752599491
 31
0.0
  0
LINE
  5
6EDA
330
1E
100
AcDbEntity
  8
躯体と製品
  6
Continuous
 62
     3
100
AcDbLine
 10
1439.26480670431
 20
915.0941752599489
 30
0.0
 11
1439.76480670431
 21
915.0941752599489
 31
0.0
  0
LINE
  5
6EDB
330
1E
100
AcDbEntity
  8
躯体と製品
  6
Continuous
 62
     3
100
AcDbLine
 10
1439.76480670431
 20
915.0941752599489
 30
0.0
 11
1439.76480670431
 21
902.0941752599489
 31
0.0
  0
LINE
  5
6EDC
330
1E
100
AcDbEntity
  8
躯体と製品
  6
Continuous
 62
     3
100
AcDbLine
 10
1439.76480670431
 20
902.0941752599489
 30
0.0
 11
1439.26480670431
 21
902.0941752599489
 31
0.0
  0
LINE
  5
6EDD
330
1E
100
AcDbEntity
  8
躯体と製品
  6
Continuous
 62
     3
100
AcDbLine
 10
1439.26480670431
 20
900.594175259949
 30
0.0
 11
1439.76480670431
 21
900.594175259949
 31
0.0
  0
ARC
  5
6EDE
330
1E
100
AcDbEntity
  8
躯体と製品
  6
Continuous
 62
     3
100
AcDbCircle
 10
1449.26480670431
 20
910.3941752599492
 30
0.0
 40
0.2999999999999999
100
AcDbArc
 50
180.0
 51
270.0
  0
LINE
  5
6EDF
330
1E
100
AcDbEntity
  8
躯体と製品
  6
Continuous
 62
     3
100
AcDbLine
 10
1449.26480670431
 20
910.0941752599489
 30
0.0
 11
1453.86480670431
 21
910.0941752599489
 31
0.0
  0
LINE
  5
6EE0
330
1E
100
AcDbEntity
  8
躯体と製品
  6
Continuous
 62
     3
100
AcDbLine
 10
1447.76480670431
 20
909.894175259949
 30
0.0
 11
1447.76480670431
 21
914.5941752599489
 31
0.0
  0
ARC
  5
6EE1
330
1E
100
AcDbEntity
  8
躯体と製品
  6
Continuous
 62
     3
100
AcDbCircle
 10
1448.76480670431
 20
909.894175259949
 30
0.0
 40
1.0
100
AcDbArc
 50
180.0
 51
270.0
  0
LINE
  5
6EE2
330
1E
100
AcDbEntity
  8
躯体と製品
  6
Continuous
 62
     3
100
AcDbLine
 10
1448.76480670431
 20
908.8941752599492
 30
0.0
 11
1453.86480670431
 21
908.8941752599492
 31
0.0
  0
ARC
  5
6EE3
330
1E
100
AcDbEntity
  8
躯体と製品
  6
Continuous
 62
     3
100
AcDbCircle
 10
1447.26480670431
 20
914.5941752599489
 30
0.0
 40
0.5
100
AcDbArc
 50
0.0
 51
90.0
  0
LINE
  5
6EE4
330
1E
100
AcDbEntity
  8
躯体と製品
  6
Continuous
 62
     3
100
AcDbLine
 10
1447.26480670431
 20
915.0941752599489
 30
0.0
 11
1442.26480670431
 21
915.0941752599489
 31
0.0
  0
ARC
  5
6EE5
330
1E
100
AcDbEntity
  8
躯体と製品
  6
Continuous
 62
     3
100
AcDbCircle
 10
1442.26480670431
 20
914.5941752599489
 30
0.0
 40
0.5
100
AcDbArc
 50
90.0
 51
180.0
  0
LINE
  5
6EE6
330
1E
100
AcDbEntity
  8
躯体と製品
  6
Continuous
 62
     3
100
AcDbLine
 10
1441.76480670431
 20
914.5941752599489
 30
0.0
 11
1441.76480670431
 21
902.5941752599489
 31
0.0
  0
ARC
  5
6EE7
330
1E
100
AcDbEntity
  8
躯体と製品
  6
Continuous
 62
     3
100
AcDbCircle
 10
1453.86480670431
 20
909.494175259949
 30
0.0
 40
0.5999999999999999
100
AcDbArc
 50
270.0
 51
90.0
  0
ARC
  5
6EE8
330
1E
100
AcDbEntity
  8
躯体と製品
  6
Continuous
 62
     3
100
AcDbCircle
 10
1442.26480670431
 20
900.0941752599489
 30
0.0
 40
0.5
100
AcDbArc
 50
90.0
 51
180.0
  0
ARC
  5
6EE9
330
1E
100
AcDbEntity
  8
躯体と製品
  6
Continuous
 62
     3
100
AcDbCircle
 10
1442.26480670431
 20
902.5941752599489
 30
0.0
 40
0.5
100
AcDbArc
 50
180.0
 51
270.0
  0
LINE
  5
6EEA
330
1E
100
AcDbEntity
  8
躯体と製品
  6
Continuous
 62
     3
100
AcDbLine
 10
1447.76480670431
 20
902.0941752599489
 30
0.0
 11
1442.26480670431
 21
902.0941752599489
 31
0.0
  0
ARC
  5
6EEB
330
1E
100
AcDbEntity
  8
躯体と製品
  6
Continuous
 62
     3
100
AcDbCircle
 10
1447.76480670431
 20
901.5941752599488
 30
0.0
 40
0.5
100
AcDbArc
 50
0.0
 51
90.0
  0
LINE
  5
6EEC
330
1E
100
AcDbEntity
  8
躯体と製品
  6
Continuous
 62
     3
100
AcDbLine
 10
1448.26480670431
 20
895.5941752599489
 30
0.0
 11
1448.26480670431
 21
901.5941752599488
 31
0.0
  0
ARC
  5
6EED
330
1E
100
AcDbEntity
  8
躯体と製品
  6
Continuous
 62
     3
100
AcDbCircle
 10
1447.26480670431
 20
895.5941752599489
 30
0.0
 40
1.0
100
AcDbArc
 50
270.0
 51
0.0
  0
LINE
  5
6EEE
330
1E
100
AcDbEntity
  8
躯体と製品
  6
Continuous
 62
     3
100
AcDbLine
 10
1447.26480670431
 20
894.5941752599489
 30
0.0
 11
1445.36480670431
 21
894.5941752599489
 31
0.0
  0
LINE
  5
6EEF
330
1E
100
AcDbEntity
  8
躯体と製品
  6
Continuous
 62
     3
100
AcDbLine
 10
1446.76480670431
 20
900.0941752599489
 30
0.0
 11
1446.76480670431
 21
896.2941752599487
 31
0.0
  0
ARC
  5
6EF0
330
1E
100
AcDbEntity
  8
躯体と製品
  6
Continuous
 62
     3
100
AcDbCircle
 10
1446.26480670431
 20
900.0941752599489
 30
0.0
 40
0.5
100
AcDbArc
 50
0.0
 51
90.0
  0
LINE
  5
6EF1
330
1E
100
AcDbEntity
  8
躯体と製品
  6
Continuous
 62
     3
100
AcDbLine
 10
1446.26480670431
 20
900.594175259949
 30
0.0
 11
1442.26480670431
 21
900.594175259949
 31
0.0
  0
LINE
  5
6EF2
330
1E
100
AcDbEntity
  8
躯体と製品
  6
Continuous
 62
     3
100
AcDbLine
 10
1446.26480670431
 20
895.794175259949
 30
0.0
 11
1445.36480670431
 21
895.794175259949
 31
0.0
  0
ARC
  5
6EF3
330
1E
100
AcDbEntity
  8
躯体と製品
  6
Continuous
 62
     3
100
AcDbCircle
 10
1446.26480670431
 20
896.2941752599487
 30
0.0
 40
0.5
100
AcDbArc
 50
270.0
 51
0.0
  0
ARC
  5
6EF4
330
1E
100
AcDbEntity
  8
躯体と製品
  6
Continuous
 62
     3
100
AcDbCircle
 10
1445.36480670431
 20
895.1941752599489
 30
0.0
 40
0.5999999999999999
100
AcDbArc
 50
90.0
 51
270.0
  0
LINE
  5
6EF5
330
1E
100
AcDbEntity
  8
躯体と製品
  6
Continuous
 62
     3
100
AcDbLine
 10
1440.76480670431
 20
917.3941752599489
 30
0.0
 11
1440.76480670431
 21
920.794175259949
 31
0.0
  0
ARC
  5
6EF6
330
1E
100
AcDbEntity
  8
躯体と製品
  6
Continuous
 62
     3
100
AcDbCircle
 10
1441.064806704309
 20
917.3941752599489
 30
0.0
 40
0.2999999999999999
100
AcDbArc
 50
180.0
 51
270.0
  0
LINE
  5
6EF7
330
1E
100
AcDbEntity
  8
躯体と製品
  6
Continuous
 62
     3
100
AcDbLine
 10
1441.064806704309
 20
917.0941752599489
 30
0.0
 11
1442.26480670431
 21
917.0941752599489
 31
0.0
  0
LINE
  5
6EF8
330
1E
100
AcDbEntity
  8
躯体と製品
  6
Continuous
 62
     3
100
AcDbLine
 10
1441.064806704309
 20
921.094175259949
 30
0.0
 11
1442.26480670431
 21
921.094175259949
 31
0.0
  0
ARC
  5
6EF9
330
1E
100
AcDbEntity
  8
躯体と製品
  6
Continuous
 62
     3
100
AcDbCircle
 10
1441.064806704309
 20
920.794175259949
 30
0.0
 40
0.2999999999999999
100
AcDbArc
 50
90.0
 51
180.0
  0
LINE
  5
6EFA
330
1E
100
AcDbEntity
  8
躯体と製品
  6
Continuous
 62
     3
100
AcDbLine
 10
1447.26480670431
 20
921.094175259949
 30
0.0
 11
1449.76480670431
 21
921.094175259949
 31
0.0
  0
LINE
  5
6EFB
330
1E
100
AcDbEntity
  8
躯体と製品
  6
Continuous
 62
     3
100
AcDbLine
 10
1447.26480670431
 20
917.0941752599489
 30
0.0
 11
1449.76480670431
 21
917.0941752599489
 31
0.0
  0
LINE
  5
6EFC
330
1E
100
AcDbEntity
  8
躯体と製品
  6
Continuous
 62
     3
100
AcDbLine
 10
1447.26480670431
 20
921.094175259949
 30
0.0
 11
1446.76480670431
 21
920.5941752599489
 31
0.0
  0
LINE
  5
6EFD
330
1E
100
AcDbEntity
  8
躯体と製品
  6
Continuous
 62
     3
100
AcDbLine
 10
1446.76480670431
 20
920.5941752599489
 30
0.0
 11
1446.26480670431
 21
921.094175259949
 31
0.0
  0
LINE
  5
6EFE
330
1E
100
AcDbEntity
  8
躯体と製品
  6
Continuous
 62
     3
100
AcDbLine
 10
1446.26480670431
 20
921.094175259949
 30
0.0
 11
1445.76480670431
 21
920.5941752599489
 31
0.0
  0
LINE
  5
6EFF
330
1E
100
AcDbEntity
  8
躯体と製品
  6
Continuous
 62
     3
100
AcDbLine
 10
1445.76480670431
 20
920.5941752599489
 30
0.0
 11
1445.26480670431
 21
921.094175259949
 31
0.0
  0
LINE
  5
6F00
330
1E
100
AcDbEntity
  8
躯体と製品
  6
Continuous
 62
     3
100
AcDbLine
 10
1445.26480670431
 20
921.094175259949
 30
0.0
 11
1444.76480670431
 21
920.5941752599489
 31
0.0
  0
LINE
  5
6F01
330
1E
100
AcDbEntity
  8
躯体と製品
  6
Continuous
 62
     3
100
AcDbLine
 10
1444.76480670431
 20
920.5941752599489
 30
0.0
 11
1444.26480670431
 21
921.094175259949
 31
0.0
  0
LINE
  5
6F02
330
1E
100
AcDbEntity
  8
躯体と製品
  6
Continuous
 62
     3
100
AcDbLine
 10
1444.26480670431
 20
921.094175259949
 30
0.0
 11
1443.76480670431
 21
920.5941752599489
 31
0.0
  0
LINE
  5
6F03
330
1E
100
AcDbEntity
  8
躯体と製品
  6
Continuous
 62
     3
100
AcDbLine
 10
1443.76480670431
 20
920.5941752599489
 30
0.0
 11
1443.26480670431
 21
921.094175259949
 31
0.0
  0
LINE
  5
6F04
330
1E
100
AcDbEntity
  8
躯体と製品
  6
Continuous
 62
     3
100
AcDbLine
 10
1443.26480670431
 20
921.094175259949
 30
0.0
 11
1442.76480670431
 21
920.5941752599489
 31
0.0
  0
LINE
  5
6F05
330
1E
100
AcDbEntity
  8
躯体と製品
  6
Continuous
 62
     3
100
AcDbLine
 10
1442.76480670431
 20
920.5941752599489
 30
0.0
 11
1442.26480670431
 21
921.094175259949
 31
0.0
  0
LINE
  5
6F06
330
1E
100
AcDbEntity
  8
躯体と製品
  6
Continuous
 62
     3
100
AcDbLine
 10
1447.26480670431
 20
917.0941752599489
 30
0.0
 11
1446.76480670431
 21
917.594175259949
 31
0.0
  0
LINE
  5
6F07
330
1E
100
AcDbEntity
  8
躯体と製品
  6
Continuous
 62
     3
100
AcDbLine
 10
1446.76480670431
 20
917.594175259949
 30
0.0
 11
1446.26480670431
 21
917.0941752599489
 31
0.0
  0
LINE
  5
6F08
330
1E
100
AcDbEntity
  8
躯体と製品
  6
Continuous
 62
     3
100
AcDbLine
 10
1446.26480670431
 20
917.0941752599489
 30
0.0
 11
1445.76480670431
 21
917.594175259949
 31
0.0
  0
LINE
  5
6F09
330
1E
100
AcDbEntity
  8
躯体と製品
  6
Continuous
 62
     3
100
AcDbLine
 10
1445.76480670431
 20
917.594175259949
 30
0.0
 11
1445.26480670431
 21
917.0941752599489
 31
0.0
  0
LINE
  5
6F0A
330
1E
100
AcDbEntity
  8
躯体と製品
  6
Continuous
 62
     3
100
AcDbLine
 10
1445.26480670431
 20
917.0941752599489
 30
0.0
 11
1444.76480670431
 21
917.594175259949
 31
0.0
  0
LINE
  5
6F0B
330
1E
100
AcDbEntity
  8
躯体と製品
  6
Continuous
 62
     3
100
AcDbLine
 10
1444.76480670431
 20
917.594175259949
 30
0.0
 11
1444.26480670431
 21
917.0941752599489
 31
0.0
  0
LINE
  5
6F0C
330
1E
100
AcDbEntity
  8
躯体と製品
  6
Continuous
 62
     3
100
AcDbLine
 10
1444.26480670431
 20
917.0941752599489
 30
0.0
 11
1443.76480670431
 21
917.594175259949
 31
0.0
  0
LINE
  5
6F0D
330
1E
100
AcDbEntity
  8
躯体と製品
  6
Continuous
 62
     3
100
AcDbLine
 10
1443.76480670431
 20
917.594175259949
 30
0.0
 11
1443.26480670431
 21
917.0941752599489
 31
0.0
  0
LINE
  5
6F0E
330
1E
100
AcDbEntity
  8
躯体と製品
  6
Continuous
 62
     3
100
AcDbLine
 10
1443.26480670431
 20
917.0941752599489
 30
0.0
 11
1442.76480670431
 21
917.594175259949
 31
0.0
  0
LINE
  5
6F0F
330
1E
100
AcDbEntity
  8
躯体と製品
  6
Continuous
 62
     3
100
AcDbLine
 10
1442.76480670431
 20
917.594175259949
 30
0.0
 11
1442.26480670431
 21
917.0941752599489
 31
0.0
  0
LINE
  5
6F10
330
1E
100
AcDbEntity
  8
躯体と製品
  6
Continuous
 62
     3
100
AcDbLine
 10
1439.76480670431
 20
923.0941752599489
 30
0.0
 11
1448.26480670431
 21
923.0941752599489
 31
0.0
  0
ARC
  5
6F11
330
1E
100
AcDbEntity
  8
躯体と製品
  6
Continuous
 62
     3
100
AcDbCircle
 10
1439.76480670431
 20
922.5941752599489
 30
0.0
 40
0.5
100
AcDbArc
 50
90.0
 51
180.0
  0
LINE
  5
6F12
330
1E
100
AcDbEntity
  8
躯体と製品
  6
Continuous
 62
     3
100
AcDbLine
 10
1439.26480670431
 20
922.5941752599489
 30
0.0
 11
1439.26480670431
 21
915.0941752599489
 31
0.0
  0
LINE
  5
6F13
330
1E
100
AcDbEntity
  8
躯体と製品
  6
Continuous
 62
     3
100
AcDbLine
 10
1448.26480670431
 20
923.0941752599489
 30
0.0
 11
1448.26480670431
 21
922.294175259949
 31
0.0
  0
LINE
  5
6F14
330
1E
100
AcDbEntity
  8
躯体と製品
  6
Continuous
 62
     3
100
AcDbLine
 10
1448.96480670431
 20
915.8941752599492
 30
0.0
 11
1449.66480670431
 21
915.8941752599492
 31
0.0
  0
LINE
  5
6F15
330
1E
100
AcDbEntity
  8
躯体と製品
  6
Continuous
 62
     3
100
AcDbLine
 10
1448.96480670431
 20
910.3941752599492
 30
0.0
 11
1448.96480670431
 21
915.8941752599492
 31
0.0
  0
LINE
  5
6F16
330
1E
100
AcDbEntity
  8
躯体と製品
  6
Continuous
 62
     3
100
AcDbLine
 10
1448.26480670431
 20
922.294175259949
 30
0.0
 11
1449.66480670431
 21
922.294175259949
 31
0.0
  0
LINE
  5
6F17
330
1E
100
AcDbEntity
  8
躯体と製品
  6
Continuous
 62
     3
100
AcDbLine
 10
1439.26480670431
 20
902.0941752599489
 30
0.0
 11
1439.26480670431
 21
900.594175259949
 31
0.0
  0
ARC
  5
6F18
330
1E
100
AcDbEntity
  8
躯体と製品
  6
Continuous
 62
     3
100
AcDbCircle
 10
1449.66480670431
 20
916.4941752599489
 30
0.0
 40
0.5999999999999999
100
AcDbArc
 50
270.0
 51
90.0
  0
ARC
  5
6F19
330
1E
100
AcDbEntity
  8
躯体と製品
  6
Continuous
 62
     3
100
AcDbCircle
 10
1449.66480670431
 20
921.6941752599492
 30
0.0
 40
0.5999999999999999
100
AcDbArc
 50
270.0
 51
90.0
  0
LINE
  5
6F1A
330
1E
100
AcDbEntity
  8
躯体と製品
  6
Continuous
 62
     3
100
AcDbLine
 10
1439.76480670431
 20
900.594175259949
 30
0.0
 11
1439.76480670431
 21
889.0941752599488
 31
0.0
  0
LINE
  5
6F1B
330
1E
100
AcDbEntity
  8
躯体と製品
  6
Continuous
 62
     3
100
AcDbLine
 10
1441.76480670431
 20
889.5941752599489
 30
0.0
 11
1441.76480670431
 21
900.0941752599489
 31
0.0
  0
LINE
  5
6F1C
330
1E
100
AcDbEntity
  8
躯体と製品
  6
Continuous
 62
     3
100
AcDbLine
 10
1439.76480670431
 20
889.0941752599488
 30
0.0
 11
1439.26480670431
 21
889.0941752599488
 31
0.0
  0
LINE
  5
6F1D
330
1E
100
AcDbEntity
  8
躯体と製品
  6
Continuous
 62
     3
100
AcDbLine
 10
1439.26480670431
 20
887.5941752599489
 30
0.0
 11
1439.76480670431
 21
887.5941752599489
 31
0.0
  0
LINE
  5
6F1E
330
1E
100
AcDbEntity
  8
躯体と製品
  6
Continuous
 62
     3
100
AcDbLine
 10
1439.76480670431
 20
887.5941752599489
 30
0.0
 11
1439.76480670431
 21
873.594175259949
 31
0.0
  0
LINE
  5
6F1F
330
1E
100
AcDbEntity
  8
躯体と製品
  6
Continuous
 62
     3
100
AcDbLine
 10
1439.76480670431
 20
863.5941752599491
 30
0.0
 11
1439.76480670431
 21
849.594175259949
 31
0.0
  0
LINE
  5
6F20
330
1E
100
AcDbEntity
  8
躯体と製品
  6
Continuous
 62
     3
100
AcDbLine
 10
1439.76480670431
 20
849.594175259949
 30
0.0
 11
1439.26480670431
 21
849.594175259949
 31
0.0
  0
ARC
  5
6F21
330
1E
100
AcDbEntity
  8
躯体と製品
  6
Continuous
 62
     3
100
AcDbCircle
 10
1442.26480670431
 20
889.5941752599489
 30
0.0
 40
0.5
100
AcDbArc
 50
180.0
 51
270.0
  0
LINE
  5
6F22
330
1E
100
AcDbEntity
  8
躯体と製品
  6
Continuous
 62
     3
100
AcDbLine
 10
1442.26480670431
 20
889.0941752599488
 30
0.0
 11
1451.26480670431
 21
889.0941752599488
 31
0.0
  0
LINE
  5
6F23
330
1E
100
AcDbEntity
  8
躯体と製品
  6
Continuous
 62
     3
100
AcDbLine
 10
1442.26480670431
 20
843.0941752599487
 30
0.0
 11
1448.01480670431
 21
843.0941752599487
 31
0.0
  0
ARC
  5
6F24
330
1E
100
AcDbEntity
  8
躯体と製品
  6
Continuous
 62
     3
100
AcDbCircle
 10
1442.26480670431
 20
843.5941752599488
 30
0.0
 40
0.5
100
AcDbArc
 50
180.0
 51
270.0
  0
ARC
  5
6F25
330
1E
100
AcDbEntity
  8
躯体と製品
  6
Continuous
 62
     3
100
AcDbCircle
 10
1442.26480670431
 20
841.0941752599487
 30
0.0
 40
0.5
100
AcDbArc
 50
90.0
 51
180.0
  0
LINE
  5
6F26
330
1E
100
AcDbEntity
  8
躯体と製品
  6
Continuous
 62
     3
100
AcDbLine
 10
1442.26480670431
 20
841.5941752599488
 30
0.0
 11
1444.76480670431
 21
841.5941752599488
 31
0.0
  0
LINE
  5
6F27
330
1E
100
AcDbEntity
  8
躯体と製品
  6
Continuous
 62
     3
100
AcDbLine
 10
1444.76480670431
 20
841.5941752599488
 30
0.0
 11
1445.76480670431
 21
842.0941752599487
 31
0.0
  0
LINE
  5
6F28
330
1E
100
AcDbEntity
  8
躯体と製品
  6
Continuous
 62
     3
100
AcDbLine
 10
1445.76480670431
 20
842.0941752599487
 30
0.0
 11
1445.76480670431
 21
841.5941752599488
 31
0.0
  0
LINE
  5
6F29
330
1E
100
AcDbEntity
  8
躯体と製品
  6
Continuous
 62
     3
100
AcDbLine
 10
1445.76480670431
 20
841.5941752599488
 30
0.0
 11
1446.76480670431
 21
842.0941752599487
 31
0.0
  0
LINE
  5
6F2A
330
1E
100
AcDbEntity
  8
躯体と製品
  6
Continuous
 62
     3
100
AcDbLine
 10
1446.76480670431
 20
842.0941752599487
 30
0.0
 11
1446.76480670431
 21
841.5941752599488
 31
0.0
  0
ARC
  5
6F2B
330
1E
100
AcDbEntity
  8
躯体と製品
  6
Continuous
 62
     3
100
AcDbCircle
 10
1448.01480670431
 20
842.3441752599487
 30
0.0
 40
0.75
100
AcDbArc
 50
270.0
 51
90.0
  0
ARC
  5
6F2C
330
1E
100
AcDbEntity
  8
躯体と製品
  6
Continuous
 62
     3
100
AcDbCircle
 10
1442.26480670431
 20
887.094175259949
 30
0.0
 40
0.5
100
AcDbArc
 50
90.0
 51
180.0
  0
ARC
  5
6F2D
330
1E
100
AcDbEntity
  8
躯体と製品
  6
Continuous
 62
     3
100
AcDbCircle
 10
1451.26480670431
 20
888.5941752599491
 30
0.0
 40
0.5
100
AcDbArc
 50
0.0
 51
90.0
  0
LINE
  5
6F2E
330
1E
100
AcDbEntity
  8
躯体と製品
  6
Continuous
 62
     3
100
AcDbLine
 10
1451.26480670431
 20
887.5941752599489
 30
0.0
 11
1442.26480670431
 21
887.5941752599489
 31
0.0
  0
ARC
  5
6F2F
330
1E
100
AcDbEntity
  8
躯体と製品
  6
Continuous
 62
     3
100
AcDbCircle
 10
1451.26480670431
 20
888.094175259949
 30
0.0
 40
0.5
100
AcDbArc
 50
270.0
 51
0.0
  0
LINE
  5
6F30
330
1E
100
AcDbEntity
  8
躯体と製品
  6
Continuous
 62
     3
100
AcDbLine
 10
1451.76480670431
 20
888.094175259949
 30
0.0
 11
1451.76480670431
 21
888.5941752599491
 31
0.0
  0
LINE
  5
6F31
330
1E
100
AcDbEntity
  8
躯体と製品
  6
Continuous
 62
     3
100
AcDbLine
 10
1441.76480670431
 20
847.5941752599487
 30
0.0
 11
1441.76480670431
 21
843.5941752599488
 31
0.0
  0
ARC
  5
6F32
330
1E
100
AcDbEntity
  8
躯体と製品
  6
Continuous
 62
     3
100
AcDbCircle
 10
1442.26480670431
 20
847.5941752599487
 30
0.0
 40
0.5
100
AcDbArc
 50
90.0
 51
180.0
  0
LINE
  5
6F33
330
1E
100
AcDbEntity
  8
躯体と製品
  6
Continuous
 62
     3
100
AcDbLine
 10
1442.26480670431
 20
848.0941752599488
 30
0.0
 11
1453.01480670431
 21
848.0941752599488
 31
0.0
  0
LINE
  5
6F34
330
1E
100
AcDbEntity
  8
躯体と製品
  6
Continuous
 62
     3
100
AcDbLine
 10
1441.76480670431
 20
850.0941752599489
 30
0.0
 11
1441.76480670431
 21
868.0941752599489
 31
0.0
  0
ARC
  5
6F35
330
1E
100
AcDbEntity
  8
躯体と製品
  6
Continuous
 62
     3
100
AcDbCircle
 10
1442.26480670431
 20
850.0941752599489
 30
0.0
 40
0.5
100
AcDbArc
 50
180.0
 51
270.0
  0
LINE
  5
6F36
330
1E
100
AcDbEntity
  8
躯体と製品
  6
Continuous
 62
     3
100
AcDbLine
 10
1442.26480670431
 20
849.594175259949
 30
0.0
 11
1453.01480670431
 21
849.594175259949
 31
0.0
  0
ARC
  5
6F37
330
1E
100
AcDbEntity
  8
躯体と製品
  6
Continuous
 62
     3
100
AcDbCircle
 10
1453.01480670431
 20
848.844175259949
 30
0.0
 40
0.75
100
AcDbArc
 50
270.0
 51
90.0
  0
ARC
  5
6F38
330
1E
100
AcDbEntity
  8
躯体と製品
  6
Continuous
 62
     3
100
AcDbCircle
 10
1442.26480670431
 20
838.0941752599488
 30
0.0
 40
0.5
100
AcDbArc
 50
180.0
 51
270.0
  0
LINE
  5
6F39
330
1E
100
AcDbEntity
  8
躯体と製品
  6
Continuous
 62
     3
100
AcDbLine
 10
1442.26480670431
 20
837.5941752599487
 30
0.0
 11
1444.76480670431
 21
837.5941752599487
 31
0.0
  0
ARC
  5
6F3A
330
1E
100
AcDbEntity
  8
躯体と製品
  6
Continuous
 62
     3
100
AcDbCircle
 10
1448.01480670431
 20
836.8441752599487
 30
0.0
 40
0.75
100
AcDbArc
 50
270.0
 51
90.0
  0
LINE
  5
6F3B
330
1E
100
AcDbEntity
  8
躯体と製品
  6
Continuous
 62
     3
100
AcDbLine
 10
1444.76480670431
 20
837.5941752599487
 30
0.0
 11
1445.76480670431
 21
837.0941752599488
 31
0.0
  0
LINE
  5
6F3C
330
1E
100
AcDbEntity
  8
躯体と製品
  6
Continuous
 62
     3
100
AcDbLine
 10
1445.76480670431
 20
837.5941752599487
 30
0.0
 11
1445.76480670431
 21
837.0941752599488
 31
0.0
  0
LINE
  5
6F3D
330
1E
100
AcDbEntity
  8
躯体と製品
  6
Continuous
 62
     3
100
AcDbLine
 10
1445.76480670431
 20
837.5941752599487
 30
0.0
 11
1446.76480670431
 21
837.0941752599488
 31
0.0
  0
LINE
  5
6F3E
330
1E
100
AcDbEntity
  8
躯体と製品
  6
Continuous
 62
     3
100
AcDbLine
 10
1446.76480670431
 20
837.5941752599487
 30
0.0
 11
1446.76480670431
 21
837.0941752599488
 31
0.0
  0
LINE
  5
6F3F
330
1E
100
AcDbEntity
  8
躯体と製品
  6
Continuous
 62
     3
100
AcDbLine
 10
1441.76480670431
 20
838.0941752599488
 30
0.0
 11
1441.76480670431
 21
841.0941752599487
 31
0.0
  0
LINE
  5
6F40
330
1E
100
AcDbEntity
  8
躯体と製品
  6
Continuous
 62
     3
100
AcDbLine
 10
1440.26480670431
 20
838.0941752599488
 30
0.0
 11
1440.26480670431
 21
847.5941752599487
 31
0.0
  0
ARC
  5
6F41
330
1E
100
AcDbEntity
  8
躯体と製品
  6
Continuous
 62
     3
100
AcDbCircle
 10
1439.76480670431
 20
838.0941752599488
 30
0.0
 40
0.5
100
AcDbArc
 50
270.0
 51
0.0
  0
LINE
  5
6F42
330
1E
100
AcDbEntity
  8
躯体と製品
  6
Continuous
 62
     3
100
AcDbLine
 10
1439.76480670431
 20
837.5941752599487
 30
0.0
 11
1439.26480670431
 21
837.5941752599487
 31
0.0
  0
LINE
  5
6F43
330
1E
100
AcDbEntity
  8
躯体と製品
  6
Continuous
 62
     3
100
AcDbLine
 10
1439.26480670431
 20
836.0941752599487
 30
0.0
 11
1439.26480670431
 21
837.5941752599487
 31
0.0
  0
LINE
  5
6F44
330
1E
100
AcDbEntity
  8
躯体と製品
  6
Continuous
 62
     3
100
AcDbLine
 10
1448.01480670431
 20
836.0941752599487
 30
0.0
 11
1439.26480670431
 21
836.0941752599487
 31
0.0
  0
LINE
  5
6F45
330
1E
100
AcDbEntity
  8
躯体と製品
  6
Continuous
 62
     3
100
AcDbLine
 10
1439.76480670431
 20
848.0941752599488
 30
0.0
 11
1439.26480670431
 21
848.0941752599488
 31
0.0
  0
ARC
  5
6F46
330
1E
100
AcDbEntity
  8
躯体と製品
  6
Continuous
 62
     3
100
AcDbCircle
 10
1439.76480670431
 20
847.5941752599487
 30
0.0
 40
0.5
100
AcDbArc
 50
0.0
 51
90.0
  0
LINE
  5
6F47
330
1E
100
AcDbEntity
  8
躯体と製品
  6
Continuous
 62
     3
100
AcDbLine
 10
1448.01480670431
 20
837.5941752599487
 30
0.0
 11
1446.76480670431
 21
837.5941752599487
 31
0.0
  0
LINE
  5
6F48
330
1E
100
AcDbEntity
  8
躯体と製品
  6
Continuous
 62
     3
100
AcDbLine
 10
1448.01480670431
 20
841.5941752599488
 30
0.0
 11
1446.76480670431
 21
841.5941752599488
 31
0.0
  0
LINE
  5
6F49
330
1E
100
AcDbEntity
  8
躯体と製品
  6
Continuous
 62
     3
100
AcDbLine
 10
1439.26480670431
 20
849.594175259949
 30
0.0
 11
1439.26480670431
 21
848.0941752599488
 31
0.0
  0
LINE
  5
6F4A
330
1E
100
AcDbEntity
  8
躯体と製品
  6
Continuous
 62
     3
100
AcDbLine
 10
1439.26480670431
 20
889.0941752599488
 30
0.0
 11
1439.26480670431
 21
887.5941752599489
 31
0.0
  0
LINE
  5
6F4B
330
1E
100
AcDbEntity
  8
躯体と製品
  6
Continuous
 62
     3
100
AcDbLine
 10
1441.76480670431
 20
869.0941752599488
 30
0.0
 11
1441.76480670431
 21
887.094175259949
 31
0.0
  0
LINE
  5
6F4C
330
1E
100
AcDbEntity
  8
躯体と製品
  6
Continuous
 62
     4
100
AcDbLine
 10
1484.504147285924
 20
868.1399261042892
 30
0.0
 11
1483.504666887759
 21
869.1394065024546
 31
0.0
  0
LINE
  5
6F4D
330
1E
100
AcDbEntity
  8
躯体と製品
  6
Continuous
 62
     4
100
AcDbLine
 10
1471.463799040106
 20
867.0381387263759
 30
0.0
 11
1469.527307107998
 21
868.9746306584844
 31
0.0
  0
LINE
  5
6F4E
330
1E
100
AcDbEntity
  8
躯体と製品
  6
Continuous
 62
     4
100
AcDbLine
 10
1883.955961187754
 20
847.2055436071119
 30
0.0
 11
1882.956480789589
 21
848.2050240052771
 31
0.0
  0
LINE
  5
6F4F
330
1E
100
AcDbEntity
  8
躯体と製品
  6
Continuous
 62
     4
100
AcDbLine
 10
1870.915612941936
 20
846.1037562291986
 30
0.0
 11
1868.979121009828
 21
848.0402481613069
 31
0.0
  0
LINE
  5
6F50
330
1E
100
AcDbEntity
  8
躯体と製品
  6
Continuous
 62
     4
100
AcDbLine
 10
1883.885536212099
 20
845.8617550203944
 30
0.0
 11
1881.464052367896
 21
848.2832388645968
 31
0.0
  0
LINE
  5
6F51
330
1E
100
AcDbEntity
  8
躯体と製品
  6
Continuous
 62
     4
100
AcDbLine
 10
1882.85504031548
 20
845.4780373546398
 30
0.0
 11
1879.971623946203
 21
848.3614537239166
 31
0.0
  0
LINE
  5
6F52
330
1E
100
AcDbEntity
  8
躯体と製品
  6
Continuous
 62
     4
100
AcDbLine
 10
1881.362611893788
 20
845.5562522139596
 30
0.0
 11
1878.479195524512
 21
848.4396685832363
 31
0.0
  0
LINE
  5
6F53
330
1E
100
AcDbEntity
  8
躯体と製品
  6
Continuous
 62
     4
100
AcDbLine
 10
1879.870183472096
 20
845.6344670732791
 30
0.0
 11
1876.986767102818
 21
848.5178834425562
 31
0.0
  0
LINE
  5
6F54
330
1E
100
AcDbEntity
  8
躯体と製品
  6
Continuous
 62
     4
100
AcDbLine
 10
1878.377755050402
 20
845.712681932599
 30
0.0
 11
1875.494338681125
 21
848.596098301876
 31
0.0
  0
LINE
  5
6F55
330
1E
100
AcDbEntity
  8
躯体と製品
  6
Continuous
 62
     4
100
AcDbLine
 10
1876.885326628709
 20
845.7908967919188
 30
0.0
 11
1874.001910259432
 21
848.6743131611959
 31
0.0
  0
LINE
  5
6F56
330
1E
100
AcDbEntity
  8
躯体と製品
  6
Continuous
 62
     4
100
AcDbLine
 10
1875.392898207016
 20
845.8691116512383
 30
0.0
 11
1872.509481837739
 21
848.7525280205156
 31
0.0
  0
LINE
  5
6F57
330
1E
100
AcDbEntity
  8
躯体と製品
  6
Continuous
 62
     4
100
AcDbLine
 10
1873.900469785323
 20
845.9473265105581
 30
0.0
 11
1871.017053416046
 21
848.8307428798355
 31
0.0
  0
LINE
  5
6F58
330
1E
100
AcDbEntity
  8
躯体と製品
  6
Continuous
 62
     4
100
AcDbLine
 10
1872.40804136363
 20
846.0255413698783
 30
0.0
 11
1869.524624994353
 21
848.9089577391554
 31
0.0
  0
LINE
  5
6F59
330
1E
100
AcDbEntity
  8
躯体と製品
  6
Continuous
 62
     7
100
AcDbLine
 10
1868.883215899642
 20
846.2102696448059
 30
0.0
 11
1869.026017612379
 21
848.9350886447788
 31
0.0
  0
LINE
  5
6F5A
330
1E
100
AcDbEntity
  8
躯体と製品
  6
Continuous
 62
     4
100
AcDbLine
 10
1484.433722310268
 20
866.7961375175718
 30
0.0
 11
1482.012238466066
 21
869.2176213617742
 31
0.0
  0
LINE
  5
6F5B
330
1E
100
AcDbEntity
  8
躯体と製品
  6
Continuous
 62
     4
100
AcDbLine
 10
1483.40322641365
 20
866.4124198518173
 30
0.0
 11
1480.519810044373
 21
869.2958362210941
 31
0.0
  0
LINE
  5
6F5C
330
1E
100
AcDbEntity
  8
躯体と製品
  6
Continuous
 62
     4
100
AcDbLine
 10
1481.910797991958
 20
866.4906347111369
 30
0.0
 11
1479.027381622682
 21
869.3740510804138
 31
0.0
  0
LINE
  5
6F5D
330
1E
100
AcDbEntity
  8
躯体と製品
  6
Continuous
 62
     4
100
AcDbLine
 10
1480.418369570266
 20
866.5688495704564
 30
0.0
 11
1477.534953200988
 21
869.4522659397337
 31
0.0
  0
LINE
  5
6F5E
330
1E
100
AcDbEntity
  8
躯体と製品
  6
Continuous
 62
     4
100
AcDbLine
 10
1478.925941148572
 20
866.6470644297765
 30
0.0
 11
1476.042524779295
 21
869.5304807990535
 31
0.0
  0
LINE
  5
6F5F
330
1E
100
AcDbEntity
  8
躯体と製品
  6
Continuous
 62
     4
100
AcDbLine
 10
1477.433512726879
 20
866.7252792890961
 30
0.0
 11
1474.550096357602
 21
869.6086956583734
 31
0.0
  0
LINE
  5
6F60
330
1E
100
AcDbEntity
  8
躯体と製品
  6
Continuous
 62
     4
100
AcDbLine
 10
1475.941084305186
 20
866.8034941484158
 30
0.0
 11
1473.057667935909
 21
869.6869105176933
 31
0.0
  0
LINE
  5
6F61
330
1E
100
AcDbEntity
  8
躯体と製品
  6
Continuous
 62
     4
100
AcDbLine
 10
1474.448655883493
 20
866.8817090077354
 30
0.0
 11
1471.565239514216
 21
869.7651253770132
 31
0.0
  0
LINE
  5
6F62
330
1E
100
AcDbEntity
  8
躯体と製品
  6
Continuous
 62
     4
100
AcDbLine
 10
1472.9562274618
 20
866.9599238670556
 30
0.0
 11
1470.072811092523
 21
869.8433402363328
 31
0.0
  0
LINE
  5
6F63
330
1E
100
AcDbEntity
  8
躯体と製品
  6
Continuous
 62
     7
100
AcDbLine
 10
1484.410845019131
 20
866.3596127983392
 30
0.0
 11
1484.553646731868
 21
869.0844317983119
 31
0.0
  0
LINE
  5
6F64
330
1E
100
AcDbEntity
  8
躯体と製品
  6
Continuous
 62
     7
100
AcDbLine
 10
1883.862658920961
 20
845.4252303011617
 30
0.0
 11
1884.005460633698
 21
848.1500493011347
 31
0.0
  0
LINE
  5
6F65
330
1E
100
AcDbEntity
  8
躯体と製品
  6
Continuous
 62
     3
100
AcDbLine
 10
1451.76480670431
 20
873.1752335062106
 30
0.0
 11
1451.76480670431
 21
884.2262689394955
 31
0.0
  0
LINE
  5
6F66
330
1E
100
AcDbEntity
  8
躯体と製品
  6
Continuous
 62
     3
100
AcDbLine
 10
1451.76480670431
 20
884.2262689394955
 30
0.0
 11
1453.26480670431
 21
884.2262689394955
 31
0.0
  0
LINE
  5
6F67
330
1E
100
AcDbEntity
  8
躯体と製品
  6
Continuous
 62
     3
100
AcDbLine
 10
1910.26480670431
 20
759.6186904692967
 30
0.0
 11
1903.26480670431
 21
759.6186904692967
 31
0.0
  0
LINE
  5
6F68
330
1E
100
AcDbEntity
  8
躯体と製品
  6
Continuous
 62
     3
100
AcDbLine
 10
1903.26480670431
 20
758.1186904692968
 30
0.0
 11
1903.26480670431
 21
759.6186904692967
 31
0.0
  0
POINT
  5
6F69
330
1E
100
AcDbEntity
  8
躯体と製品
 62
     4
100
AcDbPoint
 10
1913.26480670431
 20
758.1186904692968
 30
0.0
  0
POINT
  5
6F6A
330
1E
100
AcDbEntity
  8
躯体と製品
 62
     4
100
AcDbPoint
 10
1913.26480670431
 20
848.1186904692968
 30
0.0
  0
LINE
  5
6F6B
330
1E
100
AcDbEntity
  8
躯体と製品
  6
Continuous
 62
     3
100
AcDbLine
 10
1913.26480670431
 20
845.2717967691521
 30
0.0
 11
1913.26480670431
 21
761.1186904692967
 31
0.0
  0
ARC
  5
6F6C
330
1E
100
AcDbEntity
  8
躯体と製品
  6
Continuous
 62
     3
100
AcDbCircle
 10
1910.26480670431
 20
761.1186904692967
 30
0.0
 40
3.0
100
AcDbArc
 50
270.0
 51
0.0
  0
ARC
  5
6F6D
330
1E
100
AcDbEntity
  8
躯体と製品
  6
Continuous
 62
     3
100
AcDbCircle
 10
1910.26480670431
 20
845.2717967691521
 30
0.0
 40
3.0
100
AcDbArc
 50
0.0
 51
86.99999999999441
  0
LINE
  5
6F6E
330
1E
100
AcDbEntity
  8
躯体と製品
  6
Continuous
 62
     3
100
AcDbLine
 10
1910.26480670431
 20
758.1186904692968
 30
0.0
 11
1903.26480670431
 21
758.1186904692968
 31
0.0
  0
ARC
  5
6F6F
330
1E
100
AcDbEntity
  8
躯体と製品
  6
Continuous
 62
     3
100
AcDbCircle
 10
1454.26480670431
 20
873.1752335062104
 30
0.0
 40
1.0
100
AcDbArc
 50
180.0
 51
266.9999999999944
  0
LINE
  5
6F70
330
1E
100
AcDbEntity
  8
躯体と製品
  6
Continuous
 62
     3
100
AcDbLine
 10
1453.26480670431
 20
873.1752335062104
 30
0.0
 11
1453.26480670431
 21
884.2262689394955
 31
0.0
  0
LINE
  5
6F71
330
1E
100
AcDbEntity
  8
躯体と製品
  6
Continuous
 62
     3
100
AcDbLine
 10
1454.212470748067
 20
872.1766039714559
 30
0.0
 11
1910.421814573039
 21
848.2676853734158
 31
0.0
  0
ARC
  5
6F72
330
1E
100
AcDbEntity
  8
躯体と製品
  6
Continuous
 62
     3
100
AcDbCircle
 10
1454.26480670431
 20
873.1752335062106
 30
0.0
 40
2.5
100
AcDbArc
 50
180.0
 51
266.9999999999944
  0
ARC
  5
6F73
330
1E
100
AcDbEntity
  8
躯体と製品
  6
Continuous
 62
     3
100
AcDbCircle
 10
1910.26480670431
 20
845.2717967691521
 30
0.0
 40
1.5
100
AcDbArc
 50
0.0
 51
86.99999999999441
  0
LINE
  5
6F74
330
1E
100
AcDbEntity
  8
躯体と製品
  6
Continuous
 62
     3
100
AcDbLine
 10
1454.133966813702
 20
870.6786596693239
 30
0.0
 11
1910.343310638674
 21
846.7697410712839
 31
0.0
  0
ARC
  5
6F75
330
1E
100
AcDbEntity
  8
躯体と製品
  6
Continuous
 62
     3
100
AcDbCircle
 10
1910.26480670431
 20
761.1186904692967
 30
0.0
 40
1.5
100
AcDbArc
 50
270.0
 51
0.0
  0
LINE
  5
6F76
330
1E
100
AcDbEntity
  8
躯体と製品
  6
Continuous
 62
     3
100
AcDbLine
 10
1911.76480670431
 20
761.1186904692967
 30
0.0
 11
1911.76480670431
 21
845.2717967691521
 31
0.0
  0
LINE
  5
6F77
330
1E
100
AcDbEntity
  8
躯体と製品
  6
DASHED1
 62
     4
100
AcDbLine
 10
1868.804711965278
 20
844.7123253426738
 30
0.0
 11
1484.332341084767
 21
864.8616684962075
 31
0.0
  0
LINE
  5
6F78
330
1E
100
AcDbEntity
  8
躯体と製品
  6
Continuous
 62
     3
100
AcDbLine
 10
1883.548643183503
 20
839.4334530926341
 30
0.0
 11
1469.117386260355
 21
861.1528749334558
 31
0.0
  0
LINE
  5
6F79
330
1E
100
AcDbEntity
  8
躯体と製品
  6
Continuous
 62
     3
100
AcDbLine
 10
1883.627147117868
 20
840.9313973947663
 30
0.0
 11
1469.195890194719
 21
862.6508192355878
 31
0.0
  0
LINE
  5
6F7A
330
1E
100
AcDbEntity
  8
躯体と製品
  6
DASHED1
 62
     4
100
AcDbLine
 10
1882.449588102401
 20
818.4622328627881
 30
0.0
 11
1468.018331179253
 21
840.18165470361
 31
0.0
  0
LINE
  5
6F7B
330
1E
100
AcDbEntity
  8
躯体と製品
  6
DASHED1
 62
     4
100
AcDbLine
 10
1882.528092036766
 20
819.9601771649199
 30
0.0
 11
1468.096835113618
 21
841.6795990057416
 31
0.0
  0
LINE
  5
6F7C
330
1E
100
AcDbEntity
  8
躯体と製品
  6
DASHED1
 62
     4
100
AcDbLine
 10
1882.711267883616
 20
823.4553805365605
 30
0.0
 11
1468.280010960468
 21
845.1748023773827
 31
0.0
  0
LINE
  5
6F7D
330
1E
100
AcDbEntity
  8
躯体と製品
  6
DASHED1
 62
     4
100
AcDbLine
 10
1882.805472604853
 20
825.252913699119
 30
0.0
 11
1468.374215681705
 21
846.9723355399409
 31
0.0
  0
LINE
  5
6F7E
330
1E
100
AcDbEntity
  8
躯体と製品
  6
Continuous
 62
     3
100
AcDbLine
 10
1882.397252146159
 20
817.4636033280338
 30
0.0
 11
1467.96599522301
 21
839.1830251688553
 31
0.0
  0
LINE
  5
6F7F
330
1E
100
AcDbEntity
  8
躯体と製品
  6
Continuous
 62
     3
100
AcDbLine
 10
1883.862658920961
 20
845.4252303011614
 30
0.0
 11
1469.431401997812
 21
867.1446521419834
 31
0.0
  0
LINE
  5
6F80
330
1E
100
AcDbEntity
  8
躯体と製品
  6
DASHED1
 62
     4
100
AcDbLine
 10
1847.759234167206
 20
825.2871390050639
 30
0.0
 11
1847.853438888443
 21
827.0846721676221
 31
0.0
  0
LINE
  5
6F81
330
1E
100
AcDbEntity
  8
躯体と製品
  6
DASHED1
 62
     4
100
AcDbLine
 10
1668.005917911383
 20
834.707611128794
 30
0.0
 11
1668.10012263262
 21
836.5051442913522
 31
0.0
  0
LINE
  5
6F82
330
1E
100
AcDbEntity
  8
躯体と製品
  6
Continuous
 62
     4
100
AcDbLine
 10
1883.72044938466
 20
842.7117107007168
 30
0.0
 11
1881.377367344839
 21
845.0547927405381
 31
0.0
  0
LINE
  5
6F83
330
1E
100
AcDbEntity
  8
躯体と製品
  6
Continuous
 62
     4
100
AcDbLine
 10
1883.790874360316
 20
844.0554992874343
 30
0.0
 11
1882.869795766532
 21
844.9765778812183
 31
0.0
  0
LINE
  5
6F84
330
1E
100
AcDbEntity
  8
躯体と製品
  6
Continuous
 62
     4
100
AcDbLine
 10
1883.650024409005
 20
841.367922113999
 30
0.0
 11
1879.884938923146
 21
845.1330075998582
 31
0.0
  0
LINE
  5
6F85
330
1E
100
AcDbEntity
  8
躯体と製品
  6
Continuous
 62
     4
100
AcDbLine
 10
1882.619528512387
 20
840.9842044482443
 30
0.0
 11
1878.392510501453
 21
845.2112224591779
 31
0.0
  0
LINE
  5
6F86
330
1E
100
AcDbEntity
  8
躯体と製品
  6
Continuous
 62
     4
100
AcDbLine
 10
1881.127100090695
 20
841.0624193075641
 30
0.0
 11
1876.900082079762
 21
845.2894373184975
 31
0.0
  0
LINE
  5
6F87
330
1E
100
AcDbEntity
  8
躯体と製品
  6
Continuous
 62
     4
100
AcDbLine
 10
1879.634671669003
 20
841.1406341668834
 30
0.0
 11
1875.407653658069
 21
845.3676521778174
 31
0.0
  0
LINE
  5
6F88
330
1E
100
AcDbEntity
  8
躯体と製品
  6
Continuous
 62
     4
100
AcDbLine
 10
1878.142243247309
 20
841.2188490262035
 30
0.0
 11
1873.915225236375
 21
845.4458670371375
 31
0.0
  0
LINE
  5
6F89
330
1E
100
AcDbEntity
  8
躯体と製品
  6
Continuous
 62
     4
100
AcDbLine
 10
1876.649814825616
 20
841.2970638855233
 30
0.0
 11
1872.422796814682
 21
845.5240818964572
 31
0.0
  0
LINE
  5
6F8A
330
1E
100
AcDbEntity
  8
躯体と製品
  6
Continuous
 62
     4
100
AcDbLine
 10
1875.157386403923
 20
841.3752787448428
 30
0.0
 11
1870.930368392989
 21
845.6022967557769
 31
0.0
  0
LINE
  5
6F8B
330
1E
100
AcDbEntity
  8
躯体と製品
  6
Continuous
 62
     4
100
AcDbLine
 10
1873.66495798223
 20
841.4534936041624
 30
0.0
 11
1869.437939971296
 21
845.6805116150967
 31
0.0
  0
LINE
  5
6F8C
330
1E
100
AcDbEntity
  8
躯体と製品
  6
Continuous
 62
     4
100
AcDbLine
 10
1872.172529560536
 20
841.5317084634828
 30
0.0
 11
1868.81403418239
 21
844.8902038416289
 31
0.0
  0
LINE
  5
6F8D
330
1E
100
AcDbEntity
  8
躯体と製品
  6
Continuous
 62
     4
100
AcDbLine
 10
1870.680101138843
 20
841.6099233228031
 30
0.0
 11
1868.743609206735
 21
843.5464152549114
 31
0.0
  0
LINE
  5
6F8E
330
1E
100
AcDbEntity
  8
躯体と製品
  6
Continuous
 62
     7
100
AcDbLine
 10
1868.647704096549
 20
841.7164367384105
 30
0.0
 11
1868.857047921521
 21
845.7109548774287
 31
0.0
  0
LINE
  5
6F8F
330
1E
100
AcDbEntity
  8
躯体と製品
  6
Continuous
 62
     7
100
AcDbLine
 10
1883.836490942839
 20
844.9259155337845
 30
0.0
 11
1868.857047921521
 21
845.7109548774287
 31
0.0
  0
LINE
  5
6F90
330
1E
100
AcDbEntity
  8
躯体と製品
  6
Continuous
 62
     4
100
AcDbLine
 10
1869.187672717152
 20
841.6881381821223
 30
0.0
 11
1868.673184231079
 21
842.2026266681953
 31
0.0
  0
ARC
  5
6F91
330
1E
100
AcDbEntity
  8
躯体と製品
  6
Continuous
 62
     3
100
AcDbCircle
 10
1892.662876062803
 20
816.1804260804625
 30
0.0
 40
0.5999999999999984
100
AcDbArc
 50
166.9999999999997
 51
346.9999999999997
  0
ARC
  5
6F92
330
1E
100
AcDbEntity
  8
躯体と製品
  6
Continuous
 62
     3
100
AcDbCircle
 10
1892.174261534459
 20
818.953956669959
 30
0.0
 40
0.5
100
AcDbArc
 50
346.9999999999997
 51
86.99999999999441
  0
ARC
  5
6F93
330
1E
100
AcDbEntity
  8
躯体と製品
  6
Continuous
 62
     3
100
AcDbCircle
 10
1894.248015801859
 20
819.0455502832254
 30
0.0
 40
0.2999999999999999
100
AcDbArc
 50
86.99999999999441
 51
166.9999999999997
  0
ARC
  5
6F94
330
1E
100
AcDbEntity
  8
躯体と製品
  6
Continuous
 62
     3
100
AcDbCircle
 10
1896.930257041309
 20
771.0186904692966
 30
0.0
 40
0.6000000000000015
100
AcDbArc
 50
90.0
 51
270.0
  0
LINE
  5
6F95
330
1E
100
AcDbEntity
  8
躯体と製品
  6
Continuous
 62
     3
100
AcDbLine
 10
1908.097731319264
 20
763.3033777634996
 30
0.0
 11
1908.097731319264
 21
759.6186904692967
 31
0.0
  0
LINE
  5
6F96
330
1E
100
AcDbEntity
  8
躯体と製品
  6
Continuous
 62
     3
100
AcDbLine
 10
1911.097731319264
 20
762.1186904692968
 30
0.0
 11
1911.097731319264
 21
763.6186904692968
 31
0.0
  0
LINE
  5
6F97
330
1E
100
AcDbEntity
  8
躯体と製品
  6
Continuous
 62
     3
100
AcDbLine
 10
1908.597731319264
 20
759.6186904692967
 30
0.0
 11
1908.097731319264
 21
759.6186904692967
 31
0.0
  0
ARC
  5
6F98
330
1E
100
AcDbEntity
  8
躯体と製品
  6
Continuous
 62
     3
100
AcDbCircle
 10
1908.597731319264
 20
762.1186904692968
 30
0.0
 40
2.5
100
AcDbArc
 50
270.0
 51
0.0
  0
LINE
  5
6F99
330
1E
100
AcDbEntity
  8
躯体と製品
  6
Continuous
 62
     3
100
AcDbLine
 10
1901.330257041309
 20
771.6186904692968
 30
0.0
 11
1901.330257041309
 21
772.6186904692967
 31
0.0
  0
LINE
  5
6F9A
330
1E
100
AcDbEntity
  8
躯体と製品
  6
Continuous
 62
     3
100
AcDbLine
 10
1901.330257041309
 20
772.6186904692967
 30
0.0
 11
1899.330257041309
 21
771.6186904692968
 31
0.0
  0
LINE
  5
6F9B
330
1E
100
AcDbEntity
  8
躯体と製品
  6
Continuous
 62
     3
100
AcDbLine
 10
1896.930257041309
 20
771.6186904692968
 30
0.0
 11
1899.330257041309
 21
771.6186904692968
 31
0.0
  0
ARC
  5
6F9C
330
1E
100
AcDbEntity
  8
躯体と製品
  6
Continuous
 62
     3
100
AcDbCircle
 10
1905.712808463041
 20
772.1186904692967
 30
0.0
 40
0.5
100
AcDbArc
 50
270.0
 51
11.99999999999979
  0
LINE
  5
6F9D
330
1E
100
AcDbEntity
  8
躯体と製品
  6
Continuous
 62
     3
100
AcDbLine
 10
1906.180432898715
 20
770.4186904692967
 30
0.0
 11
1896.930257041309
 21
770.4186904692967
 31
0.0
  0
LINE
  5
6F9E
330
1E
100
AcDbEntity
  8
躯体と製品
  6
Continuous
 62
     3
100
AcDbLine
 10
1906.669506699082
 20
770.0226463147055
 30
0.0
 11
1908.097731319264
 21
763.3033777634996
 31
0.0
  0
ARC
  5
6F9F
330
1E
100
AcDbEntity
  8
躯体と製品
  6
Continuous
 62
     3
100
AcDbCircle
 10
1906.180432898715
 20
769.9186904692967
 30
0.0
 40
0.5
100
AcDbArc
 50
11.99999999999979
 51
90.0
  0
ARC
  5
6FA0
330
1E
100
AcDbEntity
  8
躯体と製品
  6
Continuous
 62
     3
100
AcDbCircle
 10
1882.948902869778
 20
818.4360648846666
 30
0.0
 40
0.5
100
AcDbArc
 50
177.0000000000011
 51
266.9999999999944
  0
LINE
  5
6FA1
330
1E
100
AcDbEntity
  8
躯体と製品
  6
Continuous
 62
     3
100
AcDbLine
 10
1883.422049659035
 20
817.9105821391679
 30
0.0
 11
1882.922734891657
 21
817.9367501172894
 31
0.0
  0
ARC
  5
6FA2
330
1E
100
AcDbEntity
  8
躯体と製品
  6
Continuous
 62
     3
100
AcDbCircle
 10
1883.448217637156
 20
818.4098969065454
 30
0.0
 40
0.5
100
AcDbArc
 50
266.9999999999944
 51
357.0000000000011
  0
ARC
  5
6FA3
330
1E
100
AcDbEntity
  8
躯体と製品
  6
Continuous
 62
     3
100
AcDbCircle
 10
1895.388727064556
 20
818.2848074969461
 30
0.0
 40
1.0
100
AcDbArc
 50
11.99999999999979
 51
86.99999999999441
  0
ARC
  5
6FA4
330
1E
100
AcDbEntity
  8
躯体と製品
  6
Continuous
 62
     3
100
AcDbCircle
 10
1896.207338413809
 20
819.2432782400338
 30
0.0
 40
3.0
100
AcDbArc
 50
11.99999999999979
 51
86.99999999999441
  0
ARC
  5
6FA5
330
1E
100
AcDbEntity
  8
躯体と製品
  6
Continuous
 62
     3
100
AcDbCircle
 10
1883.315254563479
 20
825.4264716279488
 30
0.0
 40
0.5
100
AcDbArc
 50
86.99999999999441
 51
177.0000000000011
  0
LINE
  5
6FA6
330
1E
100
AcDbEntity
  8
躯体と製品
  6
Continuous
 62
     3
100
AcDbLine
 10
1883.840737308978
 20
825.8996184172046
 30
0.0
 11
1883.341422541601
 21
825.9257863953262
 31
0.0
  0
ARC
  5
6FA7
330
1E
100
AcDbEntity
  8
躯体と製品
  6
Continuous
 62
     3
100
AcDbCircle
 10
1883.814569330857
 20
825.400303649827
 30
0.0
 40
0.5
100
AcDbArc
 50
357.0000000000011
 51
86.99999999999441
  0
LINE
  5
6FA8
330
1E
100
AcDbEntity
  8
躯体と製品
  6
Continuous
 62
     3
100
AcDbLine
 10
1899.14178121601
 20
819.8670133124869
 30
0.0
 11
1911.097731319264
 21
763.6186904692968
 31
0.0
  0
LINE
  5
6FA9
330
1E
100
AcDbEntity
  8
躯体と製品
  6
Continuous
 62
     3
100
AcDbLine
 10
1896.366874665289
 20
818.4927191877637
 30
0.0
 11
1906.201882263408
 21
772.2226463147055
 31
0.0
  0
LINE
  5
6FAA
330
1E
100
AcDbEntity
  8
躯体と製品
  6
Continuous
 62
     3
100
AcDbLine
 10
1905.712808463041
 20
771.6186904692968
 30
0.0
 11
1901.330257041309
 21
771.6186904692968
 31
0.0
  0
LINE
  5
6FAB
330
1E
100
AcDbEntity
  8
躯体と製品
  6
Continuous
 62
     3
100
AcDbLine
 10
1884.209212185748
 20
823.3768766021967
 30
0.0
 11
1884.313884098234
 21
825.3741356717059
 31
0.0
  0
LINE
  5
6FAC
330
1E
100
AcDbEntity
  8
躯体と製品
  6
Continuous
 62
     3
100
AcDbLine
 10
1884.682358975004
 20
822.8513938566978
 30
0.0
 11
1896.364346282538
 21
822.2391668442973
 31
0.0
  0
ARC
  5
6FAD
330
1E
100
AcDbEntity
  8
躯体と製品
  6
Continuous
 62
     3
100
AcDbCircle
 10
1884.708526953125
 20
823.3507086240752
 30
0.0
 40
0.5
100
AcDbArc
 50
177.0000000000011
 51
266.9999999999944
  0
LINE
  5
6FAE
330
1E
100
AcDbEntity
  8
躯体と製品
  6
Continuous
 62
     3
100
AcDbLine
 10
1883.999868360776
 20
819.3823584631784
 30
0.0
 11
1883.947532404533
 21
818.3837289284237
 31
0.0
  0
ARC
  5
6FAF
330
1E
100
AcDbEntity
  8
躯体と製品
  6
Continuous
 62
     3
100
AcDbCircle
 10
1884.499183128153
 20
819.3561904850568
 30
0.0
 40
0.5
100
AcDbArc
 50
86.99999999999441
 51
177.0000000000011
  0
LINE
  5
6FB0
330
1E
100
AcDbEntity
  8
躯体と製品
  6
Continuous
 62
     3
100
AcDbLine
 10
1893.955704782424
 20
819.1130355995287
 30
0.0
 11
1893.247498101674
 21
816.0454554478562
 31
0.0
  0
LINE
  5
6FB1
330
1E
100
AcDbEntity
  8
躯体と製品
  6
Continuous
 62
     3
100
AcDbLine
 10
1895.441063020799
 20
819.2834370317005
 30
0.0
 11
1894.263716588732
 21
819.3451391436518
 31
0.0
  0
LINE
  5
6FB2
330
1E
100
AcDbEntity
  8
躯体と製品
  6
Continuous
 62
     3
100
AcDbLine
 10
1884.525351106275
 20
819.8555052524341
 30
0.0
 11
1892.20042951258
 21
819.4532714373364
 31
0.0
  0
LINE
  5
6FB3
330
1E
100
AcDbEntity
  8
躯体と製品
  6
Continuous
 62
     3
100
AcDbLine
 10
1892.661446566851
 20
818.8414811427872
 30
0.0
 11
1892.078254023932
 21
816.3153967130691
 31
0.0
  0
LINE
  5
6FB4
330
1E
100
AcDbEntity
  8
躯体と製品
  6
Continuous
 62
     3
100
AcDbLine
 10
1882.397252146159
 20
817.4636033280338
 30
0.0
 11
1883.862658920961
 21
845.4252303011617
 31
0.0
  0
LINE
  5
6FB5
330
1E
100
AcDbEntity
  8
躯体と製品
  6
DASHED1
 62
     7
100
AcDbLine
 10
1854.22415816499
 20
824.4476405221078
 30
0.0
 11
1882.685099905495
 21
822.9560657691838
 31
0.0
  0
ARC
  5
6FB6
330
1E
100
AcDbEntity
  8
躯体と製品
  6
DASHED1
 62
     7
100
AcDbCircle
 10
1854.145654230625
 20
822.9496962199757
 30
0.0
 40
1.5
100
AcDbArc
 50
86.99999999999441
 51
266.9999999999944
  0
LINE
  5
6FB7
330
1E
100
AcDbEntity
  8
躯体と製品
  6
DASHED1
 62
     7
100
AcDbLine
 10
1854.06715029626
 20
821.4517519178439
 30
0.0
 11
1857.562353667901
 21
821.2685760709938
 31
0.0
  0
LINE
  5
6FB8
330
1E
100
AcDbEntity
  8
躯体と製品
  6
DASHED1
 62
     7
100
AcDbLine
 10
1857.614689624145
 20
822.2672056057483
 30
0.0
 11
1857.562353667901
 21
821.2685760709938
 31
0.0
  0
LINE
  5
6FB9
330
1E
100
AcDbEntity
  8
躯体と製品
  6
DASHED1
 62
     7
100
AcDbLine
 10
1857.614689624145
 20
822.2672056057483
 30
0.0
 11
1877.587280319236
 21
821.2204864808892
 31
0.0
  0
LINE
  5
6FBA
330
1E
100
AcDbEntity
  8
躯体と製品
  6
DASHED1
 62
     7
100
AcDbLine
 10
1877.587280319236
 20
821.2204864808892
 30
0.0
 11
1877.534944362993
 21
820.2218569461347
 31
0.0
  0
LINE
  5
6FBB
330
1E
100
AcDbEntity
  8
躯体と製品
  6
DASHED1
 62
     7
100
AcDbLine
 10
1877.534944362993
 20
820.2218569461347
 30
0.0
 11
1882.528092036766
 21
819.9601771649199
 31
0.0
  0
LINE
  5
6FBC
330
1E
100
AcDbEntity
  8
躯体と製品
  6
Continuous
 62
     4
100
AcDbLine
 10
1869.423184520245
 20
846.1819710885178
 30
0.0
 11
1868.908696034172
 21
846.6964595745908
 31
0.0
  0
LINE
  5
6FBD
330
1E
100
AcDbEntity
  8
躯体と製品
  6
Continuous
 62
     4
100
AcDbLine
 10
1484.26863548283
 20
863.6460931978945
 30
0.0
 11
1481.925553443009
 21
865.9891752377157
 31
0.0
  0
LINE
  5
6FBE
330
1E
100
AcDbEntity
  8
躯体と製品
  6
Continuous
 62
     4
100
AcDbLine
 10
1484.339060458486
 20
864.9898817846118
 30
0.0
 11
1483.417981864702
 21
865.910960378396
 31
0.0
  0
LINE
  5
6FBF
330
1E
100
AcDbEntity
  8
躯体と製品
  6
Continuous
 62
     4
100
AcDbLine
 10
1484.198210507175
 20
862.3023046111764
 30
0.0
 11
1480.433125021316
 21
866.0673900970355
 31
0.0
  0
LINE
  5
6FC0
330
1E
100
AcDbEntity
  8
躯体と製品
  6
Continuous
 62
     4
100
AcDbLine
 10
1483.167714610557
 20
861.9185869454218
 30
0.0
 11
1478.940696599623
 21
866.1456049563554
 31
0.0
  0
LINE
  5
6FC1
330
1E
100
AcDbEntity
  8
躯体と製品
  6
Continuous
 62
     4
100
AcDbLine
 10
1481.675286188865
 20
861.9968018047412
 30
0.0
 11
1477.448268177932
 21
866.2238198156751
 31
0.0
  0
LINE
  5
6FC2
330
1E
100
AcDbEntity
  8
躯体と製品
  6
Continuous
 62
     4
100
AcDbLine
 10
1480.182857767172
 20
862.0750166640609
 30
0.0
 11
1475.955839756238
 21
866.3020346749949
 31
0.0
  0
LINE
  5
6FC3
330
1E
100
AcDbEntity
  8
躯体と製品
  6
Continuous
 62
     4
100
AcDbLine
 10
1478.690429345479
 20
862.153231523381
 30
0.0
 11
1474.463411334545
 21
866.3802495343148
 31
0.0
  0
LINE
  5
6FC4
330
1E
100
AcDbEntity
  8
躯体と製品
  6
Continuous
 62
     4
100
AcDbLine
 10
1477.198000923786
 20
862.2314463827008
 30
0.0
 11
1472.970982912852
 21
866.4584643936345
 31
0.0
  0
LINE
  5
6FC5
330
1E
100
AcDbEntity
  8
躯体と製品
  6
Continuous
 62
     4
100
AcDbLine
 10
1475.705572502093
 20
862.3096612420203
 30
0.0
 11
1471.478554491159
 21
866.5366792529546
 31
0.0
  0
LINE
  5
6FC6
330
1E
100
AcDbEntity
  8
躯体と製品
  6
Continuous
 62
     4
100
AcDbLine
 10
1474.2131440804
 20
862.3878761013399
 30
0.0
 11
1469.986126069466
 21
866.6148941122742
 31
0.0
  0
LINE
  5
6FC7
330
1E
100
AcDbEntity
  8
躯体と製品
  6
Continuous
 62
     4
100
AcDbLine
 10
1472.720715658707
 20
862.4660909606602
 30
0.0
 11
1469.362220280561
 21
865.8245863388064
 31
0.0
  0
LINE
  5
6FC8
330
1E
100
AcDbEntity
  8
躯体と製品
  6
Continuous
 62
     4
100
AcDbLine
 10
1471.228287237013
 20
862.5443058199802
 30
0.0
 11
1469.291795304904
 21
864.4807977520889
 31
0.0
  0
LINE
  5
6FC9
330
1E
100
AcDbEntity
  8
躯体と製品
  6
Continuous
 62
     4
100
AcDbLine
 10
1469.735858815322
 20
862.6225206793
 30
0.0
 11
1469.221370329249
 21
863.1370091653728
 31
0.0
  0
LINE
  5
6FCA
330
1E
100
AcDbEntity
  8
躯体と製品
  6
Continuous
 62
     4
100
AcDbLine
 10
1469.971370618415
 20
867.1163535856953
 30
0.0
 11
1469.456882132342
 21
867.6308420717683
 31
0.0
  0
LINE
  5
6FCB
330
1E
100
AcDbEntity
  8
躯体と製品
  6
DASHED1
 62
     7
100
AcDbLine
 10
1468.096835113618
 20
841.6795990057416
 30
0.0
 11
1473.089982787391
 21
841.4179192245269
 31
0.0
  0
LINE
  5
6FCC
330
1E
100
AcDbEntity
  8
躯体と製品
  6
DASHED1
 62
     7
100
AcDbLine
 10
1473.089982787391
 20
841.4179192245269
 30
0.0
 11
1473.142318743633
 21
842.4165487592816
 31
0.0
  0
LINE
  5
6FCD
330
1E
100
AcDbEntity
  8
躯体と製品
  6
DASHED1
 62
     7
100
AcDbLine
 10
1473.142318743633
 20
842.4165487592816
 30
0.0
 11
1493.114909438725
 21
841.3698296344225
 31
0.0
  0
LINE
  5
6FCE
330
1E
100
AcDbEntity
  8
躯体と製品
  6
DASHED1
 62
     7
100
AcDbLine
 10
1493.062573482482
 20
840.3712000996678
 30
0.0
 11
1493.114909438725
 21
841.3698296344225
 31
0.0
  0
LINE
  5
6FCF
330
1E
100
AcDbEntity
  8
躯体と製品
  6
DASHED1
 62
     7
100
AcDbLine
 10
1493.062573482482
 20
840.3712000996678
 30
0.0
 11
1496.557776854123
 21
840.1880242528179
 31
0.0
  0
ARC
  5
6FD0
330
1E
100
AcDbEntity
  8
躯体と製品
  6
DASHED1
 62
     7
100
AcDbCircle
 10
1496.636280788487
 20
841.6859685549495
 30
0.0
 40
1.500000000000001
100
AcDbArc
 50
266.9999999999944
 51
86.99999999999441
  0
LINE
  5
6FD1
330
1E
100
AcDbEntity
  8
躯体と製品
  6
DASHED1
 62
     7
100
AcDbLine
 10
1468.253842982347
 20
844.6754876100053
 30
0.0
 11
1496.714784722852
 21
843.1839128570814
 31
0.0
  0
LINE
  5
6FD2
330
1E
100
AcDbEntity
  8
躯体と製品
  6
Continuous
 62
     3
100
AcDbLine
 10
1446.56480670431
 20
891.2094057424562
 30
0.0
 11
1446.56480670431
 21
889.6941752599488
 31
0.0
  0
LINE
  5
6FD3
330
1E
100
AcDbEntity
  8
躯体と製品
  6
Continuous
 62
     3
100
AcDbLine
 10
1442.920598296774
 20
893.2918105467622
 30
0.0
 11
1446.56480670431
 21
891.2094057424562
 31
0.0
  0
ARC
  5
6FD4
330
1E
100
AcDbEntity
  8
躯体と製品
  6
Continuous
 62
     3
100
AcDbCircle
 10
1443.66480670431
 20
894.5941752599491
 30
0.0
 40
1.5
100
AcDbArc
 50
180.0
 51
240.2551187030594
  0
LINE
  5
6FD5
330
1E
100
AcDbEntity
  8
躯体と製品
  6
Continuous
 62
     3
100
AcDbLine
 10
1442.16480670431
 20
894.5941752599491
 30
0.0
 11
1442.16480670431
 21
897.8441752599492
 31
0.0
  0
ARC
  5
6FD6
330
1E
100
AcDbEntity
  8
躯体と製品
  6
Continuous
 62
     3
100
AcDbCircle
 10
1459.76480670431
 20
844.1190068035925
 30
0.0
 40
2.0
100
AcDbArc
 50
180.0
 51
266.9999999999944
  0
LINE
  5
6FD7
330
1E
100
AcDbEntity
  8
躯体と製品
  6
Continuous
 62
     3
100
AcDbLine
 10
1459.660134791824
 20
842.1217477340835
 30
0.0
 11
1466.099576044108
 21
841.7842709182275
 31
0.0
  0
LINE
  5
6FD8
330
1E
100
AcDbEntity
  8
躯体と製品
  6
Continuous
 62
     3
100
AcDbLine
 10
1457.76480670431
 20
844.1190068035925
 30
0.0
 11
1457.76480670431
 21
851.5941752599488
 31
0.0
  0
ARC
  5
6FD9
330
1E
100
AcDbEntity
  8
躯体と製品
  6
Continuous
 62
     3
100
AcDbCircle
 10
1461.26480670431
 20
846.0431398266637
 30
0.0
 40
1.0
100
AcDbArc
 50
180.0
 51
266.9999999999944
  0
LINE
  5
6FDA
330
1E
100
AcDbEntity
  8
躯体と製品
  6
Continuous
 62
     3
100
AcDbLine
 10
1461.212470748067
 20
845.044510291909
 30
0.0
 11
1466.256583912837
 21
844.7801595224913
 31
0.0
  0
LINE
  5
6FDB
330
1E
100
AcDbEntity
  8
躯体と製品
  6
Continuous
 62
     3
100
AcDbLine
 10
1460.26480670431
 20
846.0431398266637
 30
0.0
 11
1460.26480670431
 21
853.0941752599487
 31
0.0
  0
ARC
  5
6FDC
330
1E
100
AcDbEntity
  8
躯体と製品
  6
Continuous
 62
     3
100
AcDbCircle
 10
1466.073408065987
 20
841.2849561508503
 30
0.0
 40
0.5
100
AcDbArc
 50
357.0000000000011
 51
86.99999999999441
  0
LINE
  5
6FDD
330
1E
100
AcDbEntity
  8
躯体と製品
  6
Continuous
 62
     3
100
AcDbLine
 10
1466.572722833364
 20
841.2587881727286
 30
0.0
 11
1466.520386877121
 21
840.2601586379743
 31
0.0
  0
ARC
  5
6FDE
330
1E
100
AcDbEntity
  8
躯体と製品
  6
Continuous
 62
     3
100
AcDbCircle
 10
1467.019701644498
 20
840.2339906598527
 30
0.0
 40
0.5
100
AcDbArc
 50
177.0000000000011
 51
266.9999999999944
  0
LINE
  5
6FDF
330
1E
100
AcDbEntity
  8
躯体と製品
  6
Continuous
 62
     3
100
AcDbLine
 10
1466.993533666377
 20
839.7346758924754
 30
0.0
 11
1467.492848433754
 21
839.708507914354
 31
0.0
  0
ARC
  5
6FE0
330
1E
100
AcDbEntity
  8
躯体と製品
  6
Continuous
 62
     3
100
AcDbCircle
 10
1467.519016411876
 20
840.2078226817311
 30
0.0
 40
0.5
100
AcDbArc
 50
266.9999999999944
 51
357.0000000000011
  0
ARC
  5
6FE1
330
1E
100
AcDbEntity
  8
躯体と製品
  6
Continuous
 62
     3
100
AcDbCircle
 10
1466.282751890959
 20
845.2794742898683
 30
0.0
 40
0.5
100
AcDbArc
 50
266.9999999999944
 51
357.0000000000011
  0
LINE
  5
6FE2
330
1E
100
AcDbEntity
  8
躯体と製品
  6
Continuous
 62
     3
100
AcDbLine
 10
1466.782066658336
 20
845.2533063117471
 30
0.0
 11
1466.886738570822
 21
847.2505653812563
 31
0.0
  0
ARC
  5
6FE3
330
1E
100
AcDbEntity
  8
躯体と製品
  6
Continuous
 62
     3
100
AcDbCircle
 10
1467.386053338199
 20
847.2243974031346
 30
0.0
 40
0.5
100
AcDbArc
 50
86.99999999999441
 51
177.0000000000011
  0
LINE
  5
6FE4
330
1E
100
AcDbEntity
  8
躯体と製品
  6
Continuous
 62
     3
100
AcDbLine
 10
1467.412221316321
 20
847.7237121705121
 30
0.0
 11
1467.911536083698
 21
847.6975441923904
 31
0.0
  0
ARC
  5
6FE5
330
1E
100
AcDbEntity
  8
躯体と製品
  6
Continuous
 62
     3
100
AcDbCircle
 10
1467.885368105576
 20
847.1982294250134
 30
0.0
 40
0.5
100
AcDbArc
 50
357.0000000000011
 51
86.99999999999441
  0
LINE
  5
6FE6
330
1E
100
AcDbEntity
  8
躯体と製品
  6
Continuous
 62
     3
100
AcDbLine
 10
1448.26480670431
 20
891.0941752599491
 30
0.0
 11
1453.76480670431
 21
891.0941752599491
 31
0.0
  0
LINE
  5
6FE7
330
1E
100
AcDbEntity
  8
躯体と製品
  6
Continuous
 62
     3
100
AcDbLine
 10
1454.76480670431
 20
892.594175259949
 30
0.0
 11
1447.16480670431
 21
892.594175259949
 31
0.0
  0
ARC
  5
6FE8
330
1E
100
AcDbEntity
  8
躯体と製品
  6
Continuous
 62
     3
100
AcDbCircle
 10
1448.26480670431
 20
890.594175259949
 30
0.0
 40
0.5
100
AcDbArc
 50
90.0
 51
180.0
  0
LINE
  5
6FE9
330
1E
100
AcDbEntity
  8
躯体と製品
  6
Continuous
 62
     3
100
AcDbLine
 10
1447.76480670431
 20
890.594175259949
 30
0.0
 11
1447.76480670431
 21
889.6941752599488
 31
0.0
  0
LINE
  5
6FEA
330
1E
100
AcDbEntity
  8
躯体と製品
  6
Continuous
 62
     3
100
AcDbLine
 10
1443.66480670431
 20
894.5941752599491
 30
0.0
 11
1447.16480670431
 21
892.594175259949
 31
0.0
  0
LINE
  5
6FEB
330
1E
100
AcDbEntity
  8
躯体と製品
  6
Continuous
 62
     3
100
AcDbLine
 10
1443.66480670431
 20
897.8441752599492
 30
0.0
 11
1443.66480670431
 21
894.5941752599491
 31
0.0
  0
ARC
  5
6FEC
330
1E
100
AcDbEntity
  8
躯体と製品
  6
Continuous
 62
     3
100
AcDbCircle
 10
1442.91480670431
 20
897.8441752599492
 30
0.0
 40
0.75
100
AcDbArc
 50
0.0
 51
180.0
  0
ARC
  5
6FED
330
1E
100
AcDbEntity
  8
躯体と製品
  6
Continuous
 62
     3
100
AcDbCircle
 10
1447.16480670431
 20
889.6941752599488
 30
0.0
 40
0.5999999999999998
100
AcDbArc
 50
180.0
 51
0.0
  0
LINE
  5
6FEE
330
1E
100
AcDbEntity
  8
躯体と製品
  6
Continuous
 62
     3
100
AcDbLine
 10
1455.76480670431
 20
878.094175259949
 30
0.0
 11
1455.76480670431
 21
891.5941752599492
 31
0.0
  0
ARC
  5
6FEF
330
1E
100
AcDbEntity
  8
躯体と製品
  6
Continuous
 62
     3
100
AcDbCircle
 10
1453.26480670431
 20
887.094175259949
 30
0.0
 40
1.0
100
AcDbArc
 50
270.0
 51
0.0
  0
LINE
  5
6FF0
330
1E
100
AcDbEntity
  8
躯体と製品
  6
Continuous
 62
     3
100
AcDbLine
 10
1456.76480670431
 20
852.5941752599488
 30
0.0
 11
1446.26480670431
 21
852.5941752599488
 31
0.0
  0
LINE
  5
6FF1
330
1E
100
AcDbEntity
  8
躯体と製品
  6
Continuous
 62
     3
100
AcDbLine
 10
1453.26480670431
 20
886.094175259949
 30
0.0
 11
1448.76480670431
 21
886.094175259949
 31
0.0
  0
LINE
  5
6FF2
330
1E
100
AcDbEntity
  8
躯体と製品
  6
Continuous
 62
     3
100
AcDbLine
 10
1458.26480670431
 20
855.0941752599488
 30
0.0
 11
1450.26480670431
 21
855.0941752599488
 31
0.0
  0
LINE
  5
6FF3
330
1E
100
AcDbEntity
  8
躯体と製品
  6
Continuous
 62
     3
100
AcDbLine
 10
1449.76480670431
 20
884.594175259949
 30
0.0
 11
1453.76480670431
 21
884.594175259949
 31
0.0
  0
ARC
  5
6FF4
330
1E
100
AcDbEntity
  8
躯体と製品
  6
Continuous
 62
     3
100
AcDbCircle
 10
1458.26480670431
 20
853.0941752599487
 30
0.0
 40
2.0
100
AcDbArc
 50
0.0
 51
90.0
  0
ARC
  5
6FF5
330
1E
100
AcDbEntity
  8
躯体と製品
  6
Continuous
 62
     3
100
AcDbCircle
 10
1456.76480670431
 20
851.5941752599488
 30
0.0
 40
1.0
100
AcDbArc
 50
0.0
 51
90.0
  0
LINE
  5
6FF6
330
1E
100
AcDbEntity
  8
躯体と製品
  6
Continuous
 62
     3
100
AcDbLine
 10
1455.26480670431
 20
877.5941752599491
 30
0.0
 11
1454.26480670431
 21
877.5941752599491
 31
0.0
  0
ARC
  5
6FF7
330
1E
100
AcDbEntity
  8
躯体と製品
  6
Continuous
 62
     3
100
AcDbCircle
 10
1455.26480670431
 20
878.094175259949
 30
0.0
 40
0.5
100
AcDbArc
 50
270.0
 51
0.0
  0
LINE
  5
6FF8
330
1E
100
AcDbEntity
  8
躯体と製品
  6
Continuous
 62
     3
100
AcDbLine
 10
1454.26480670431
 20
884.0941752599489
 30
0.0
 11
1454.26480670431
 21
879.5941752599491
 31
0.0
  0
ARC
  5
6FF9
330
1E
100
AcDbEntity
  8
躯体と製品
  6
Continuous
 62
     3
100
AcDbCircle
 10
1453.76480670431
 20
884.0941752599489
 30
0.0
 40
0.5
100
AcDbArc
 50
0.0
 51
90.0
  0
ARC
  5
6FFA
330
1E
100
AcDbEntity
  8
躯体と製品
  6
Continuous
 62
     3
100
AcDbCircle
 10
1454.26480670431
 20
878.5941752599491
 30
0.0
 40
1.0
100
AcDbArc
 50
90.0
 51
270.0
  0
ARC
  5
6FFB
330
1E
100
AcDbEntity
  8
躯体と製品
  6
Continuous
 62
     3
100
AcDbCircle
 10
1454.76480670431
 20
891.5941752599492
 30
0.0
 40
1.0
100
AcDbArc
 50
0.0
 51
90.0
  0
LINE
  5
6FFC
330
1E
100
AcDbEntity
  8
躯体と製品
  6
Continuous
 62
     3
100
AcDbLine
 10
1454.26480670431
 20
887.094175259949
 30
0.0
 11
1454.26480670431
 21
890.594175259949
 31
0.0
  0
ARC
  5
6FFD
330
1E
100
AcDbEntity
  8
躯体と製品
  6
Continuous
 62
     3
100
AcDbCircle
 10
1453.76480670431
 20
890.594175259949
 30
0.0
 40
0.5
100
AcDbArc
 50
0.0
 51
90.0
  0
ARC
  5
6FFE
330
1E
100
AcDbEntity
  8
躯体と製品
  6
Continuous
 62
     3
100
AcDbCircle
 10
1450.26480670431
 20
856.0941752599488
 30
0.0
 40
1.0
100
AcDbArc
 50
180.0
 51
270.0
  0
ARC
  5
6FFF
330
1E
100
AcDbEntity
  8
躯体と製品
  6
Continuous
 62
     3
100
AcDbCircle
 10
1449.76480670431
 20
884.0941752599489
 30
0.0
 40
0.5
100
AcDbArc
 50
90.0
 51
180.0
  0
LINE
  5
7000
330
1E
100
AcDbEntity
  8
躯体と製品
  6
Continuous
 62
     3
100
AcDbLine
 10
1449.26480670431
 20
856.0941752599488
 30
0.0
 11
1449.26480670431
 21
884.0941752599489
 31
0.0
  0
LINE
  5
7001
330
1E
100
AcDbEntity
  8
躯体と製品
  6
Continuous
 62
     3
100
AcDbLine
 10
1446.76480670431
 20
854.0941752599488
 30
0.0
 11
1445.26480670431
 21
854.0941752599488
 31
0.0
  0
ARC
  5
7002
330
1E
100
AcDbEntity
  8
躯体と製品
  6
Continuous
 62
     3
100
AcDbCircle
 10
1446.76480670431
 20
854.5941752599487
 30
0.0
 40
0.5
100
AcDbArc
 50
270.0
 51
0.0
  0
LINE
  5
7003
330
1E
100
AcDbEntity
  8
躯体と製品
  6
Continuous
 62
     3
100
AcDbLine
 10
1447.26480670431
 20
854.5941752599487
 30
0.0
 11
1447.26480670431
 21
884.594175259949
 31
0.0
  0
ARC
  5
7004
330
1E
100
AcDbEntity
  8
躯体と製品
  6
Continuous
 62
     3
100
AcDbCircle
 10
1448.76480670431
 20
884.594175259949
 30
0.0
 40
1.5
100
AcDbArc
 50
90.0
 51
180.0
  0
ARC
  5
7005
330
1E
100
AcDbEntity
  8
躯体と製品
  6
Continuous
 62
     3
100
AcDbCircle
 10
1446.26480670431
 20
852.0941752599487
 30
0.0
 40
0.5
100
AcDbArc
 50
90.0
 51
180.0
  0
LINE
  5
7006
330
1E
100
AcDbEntity
  8
躯体と製品
  6
Continuous
 62
     3
100
AcDbLine
 10
1445.76480670431
 20
852.0941752599487
 30
0.0
 11
1445.76480670431
 21
850.8441752599487
 31
0.0
  0
ARC
  5
7007
330
1E
100
AcDbEntity
  8
躯体と製品
  6
Continuous
 62
     3
100
AcDbCircle
 10
1445.01480670431
 20
850.8441752599487
 30
0.0
 40
0.75
100
AcDbArc
 50
180.0
 51
0.0
  0
ARC
  5
7008
330
1E
100
AcDbEntity
  8
躯体と製品
  6
Continuous
 62
     3
100
AcDbCircle
 10
1445.26480670431
 20
853.0941752599487
 30
0.0
 40
1.0
100
AcDbArc
 50
90.0
 51
180.0
  0
LINE
  5
7009
330
1E
100
AcDbEntity
  8
躯体と製品
  6
Continuous
 62
     3
100
AcDbLine
 10
1444.26480670431
 20
853.0941752599487
 30
0.0
 11
1444.26480670431
 21
850.8441752599487
 31
0.0
  0
LINE
  5
700A
330
1E
100
AcDbEntity
  8
躯体と製品
  6
Continuous
 62
     7
100
AcDbLine
 10
1484.175333216038
 20
861.8657798919437
 30
0.0
 11
1484.384677041009
 21
865.8602980309622
 31
0.0
  0
LINE
  5
700B
330
1E
100
AcDbEntity
  8
躯体と製品
  6
Continuous
 62
     7
100
AcDbLine
 10
1469.405234019691
 20
866.645337374606
 30
0.0
 11
1484.384677041009
 21
865.8602980309622
 31
0.0
  0
LINE
  5
700C
330
1E
100
AcDbEntity
  8
躯体と製品
  6
Continuous
 62
     3
100
AcDbLine
 10
1467.96599522301
 20
839.1830251688555
 30
0.0
 11
1469.431401997812
 21
867.1446521419834
 31
0.0
  0
LINE
  5
700D
330
1E
100
AcDbEntity
  8
躯体と製品
  6
Continuous
 62
     7
100
AcDbLine
 10
1469.431401997812
 20
867.1446521419833
 30
0.0
 11
1469.574203710549
 21
869.8694711419561
 31
0.0
  0
ARC
  5
700E
330
1E
100
AcDbEntity
  8
躯体と製品
  6
DASHED1
 62
     7
100
AcDbCircle
 10
1889.92798633858
 20
840.3293702862104
 30
0.0
 40
7.5
100
AcDbArc
 50
10.12467165539644
 51
86.99999999999441
  0
LINE
  5
700F
330
1E
100
AcDbEntity
  8
躯体と製品
  6
DASHED1
 62
     7
100
AcDbLine
 10
1897.311193154894
 20
841.647800074838
 30
0.0
 11
1911.26480670431
 21
763.5075641981114
 31
0.0
  0
LINE
  5
7010
330
1E
100
AcDbEntity
  8
躯体と製品
  6
DASHED1
 62
     7
100
AcDbLine
 10
1911.26480670431
 20
763.5075641981114
 30
0.0
 11
1906.834882614585
 21
762.716506324579
 31
0.0
  0
LINE
  5
7011
330
1E
100
AcDbEntity
  8
躯体と製品
  6
DASHED1
 62
     7
100
AcDbLine
 10
1892.881269065106
 20
840.8567422016613
 30
0.0
 11
1906.834882614522
 21
762.7165063249349
 31
0.0
  0
ARC
  5
7012
330
1E
100
AcDbEntity
  8
躯体と製品
  6
DASHED1
 62
     7
100
AcDbCircle
 10
1889.92798633858
 20
840.3293702862104
 30
0.0
 40
3.0
100
AcDbArc
 50
10.12467165539644
 51
86.99999999999441
  0
LINE
  5
7013
330
1E
100
AcDbEntity
  8
躯体と製品
  6
DASHED1
 62
     7
100
AcDbLine
 10
1446.264806704309
 20
873.9379585756241
 30
0.0
 11
1446.264806704309
 21
886.0910648754796
 31
0.0
  0
LINE
  5
7014
330
1E
100
AcDbEntity
  8
躯体と製品
  6
DASHED1
 62
     7
100
AcDbLine
 10
1446.264806704309
 20
886.0910648754796
 30
0.0
 11
1441.764806704309
 21
886.0910648754796
 31
0.0
  0
LINE
  5
7015
330
1E
100
AcDbEntity
  8
躯体と製品
  6
DASHED1
 62
     7
100
AcDbLine
 10
1441.764806704309
 20
873.9379585756237
 30
0.0
 11
1441.764806704309
 21
886.0910648754796
 31
0.0
  0
ARC
  5
7016
330
1E
100
AcDbEntity
  8
躯体と製品
  6
DASHED1
 62
     7
100
AcDbCircle
 10
1449.26480670431
 20
873.9379585756241
 30
0.0
 40
3.0
100
AcDbArc
 50
180.0
 51
266.9999999999944
  0
ARC
  5
7017
330
1E
100
AcDbEntity
  8
躯体と製品
  6
DASHED1
 62
     7
100
AcDbCircle
 10
1449.26480670431
 20
873.9379585756237
 30
0.0
 40
7.5
100
AcDbArc
 50
180.0
 51
266.9999999999944
  0
ARC
  5
7018
330
1E
100
AcDbEntity
  8
躯体と製品
  6
Continuous
 62
     7
100
AcDbCircle
 10
1662.26480670431
 20
799.5307750479549
 30
0.0
 40
1.0
100
AcDbArc
 50
90.0
 51
175.0000000000005
  0
LINE
  5
7019
330
1E
100
AcDbEntity
  8
躯体と製品
  6
DASHED1
 62
     7
100
AcDbLine
 10
1759.648604731147
 20
834.6161431321306
 30
0.0
 11
1760.282207657325
 21
835.104556207241
 31
0.0
  0
LINE
  5
701A
330
1E
100
AcDbEntity
  8
躯体と製品
  6
DASHED1
 62
     7
100
AcDbLine
 10
1760.282207657325
 20
835.104556207241
 30
0.0
 11
1762.113756703712
 21
832.7285452151702
 31
0.0
  0
LINE
  5
701B
330
1E
100
AcDbEntity
  8
躯体と製品
  6
DASHED1
 62
     7
100
AcDbLine
 10
1759.648604731147
 20
834.6161431321306
 30
0.0
 11
1761.480153777554
 21
832.2401321400345
 31
0.0
  0
POINT
  5
701C
330
1E
100
AcDbEntity
  8
躯体と製品
 62
     4
100
AcDbPoint
 10
1804.817142660553
 20
821.5294045827093
 30
0.0
  0
LINE
  5
701D
330
1E
100
AcDbEntity
  8
躯体と製品
  6
Continuous
 62
     7
100
AcDbLine
 10
1790.072285866099
 20
816.702215281996
 30
0.0
 11
1789.808552421204
 21
811.669881370846
 31
0.0
  0
LINE
  5
701E
330
1E
100
AcDbEntity
  8
躯体と製品
  6
Continuous
 62
     7
100
AcDbLine
 10
1784.080508657571
 20
817.0162310194537
 30
0.0
 11
1783.816775212677
 21
811.9838971083035
 31
0.0
  0
LINE
  5
701F
330
1E
100
AcDbEntity
  8
躯体と製品
  6
Continuous
 62
     7
100
AcDbLine
 10
1790.364962140001
 20
822.2868112695891
 30
0.0
 11
1790.260695308574
 21
820.2972816071126
 31
0.0
  0
LINE
  5
7020
330
1E
100
AcDbEntity
  8
躯体と製品
  6
Continuous
 62
     4
100
AcDbLine
 10
1789.797241249494
 20
822.3165642607131
 30
0.0
 11
1789.692974418065
 21
820.3270345982366
 31
0.0
  0
LINE
  5
7021
330
1E
100
AcDbEntity
  8
躯体と製品
  6
Continuous
 62
     4
100
AcDbLine
 10
1784.940905821982
 20
822.5710740159227
 30
0.0
 11
1784.836638990554
 21
820.5815443534463
 31
0.0
  0
LINE
  5
7022
330
1E
100
AcDbEntity
  8
躯体と製品
  6
Continuous
 62
     7
100
AcDbLine
 10
1784.373184931474
 20
822.6008270070469
 30
0.0
 11
1784.268918100046
 21
820.6112973445703
 31
0.0
  0
LINE
  5
7023
330
1E
100
AcDbEntity
  8
躯体と製品
  6
DASHED1
 62
     4
100
AcDbLine
 10
1786.186501580564
 20
846.3384569430818
 30
0.0
 11
1784.940905821982
 21
822.5710740159227
 31
0.0
  0
LINE
  5
7024
330
1E
100
AcDbEntity
  8
躯体と製品
  6
DASHED1
 62
     7
100
AcDbLine
 10
1785.618780690056
 20
846.3682099342058
 30
0.0
 11
1784.373184931474
 21
822.6008270070469
 31
0.0
  0
LINE
  5
7025
330
1E
100
AcDbEntity
  8
躯体と製品
  6
DASHED1
 62
     4
100
AcDbLine
 10
1791.042837008075
 20
846.0839471878724
 30
0.0
 11
1789.797241249494
 21
822.3165642607131
 31
0.0
  0
LINE
  5
7026
330
1E
100
AcDbEntity
  8
躯体と製品
  6
DASHED1
 62
     7
100
AcDbLine
 10
1791.610557898584
 20
846.054194196748
 30
0.0
 11
1790.364962140001
 21
822.2868112695891
 31
0.0
  0
ARC
  5
7027
330
1E
100
AcDbEntity
  8
躯体と製品
  6
DASHED1
 62
     7
100
AcDbCircle
 10
1788.489063051673
 20
843.8144921806955
 30
0.0
 40
6.299999999999998
100
AcDbArc
 50
47.69686900000316
 51
126.3093710000041
  0
ARC
  5
7028
330
1E
100
AcDbEntity
  8
躯体と製品
  6
DASHED1
 62
     7
100
AcDbCircle
 10
1790.412774604408
 20
845.9173327669878
 30
0.0
 40
3.45
100
AcDbArc
 50
0.3127429999987237
 51
47.82048899999998
  0
ARC
  5
7029
330
1E
100
AcDbEntity
  8
躯体と製品
  6
DASHED1
 62
     7
100
AcDbCircle
 10
1786.801438599152
 20
846.1111040469422
 30
0.0
 40
3.45
100
AcDbArc
 50
126.3091240000008
 51
173.7621629999991
  0
LINE
  5
702A
330
1E
100
AcDbEntity
  8
躯体と製品
  6
DASHED1
 62
     7
100
AcDbLine
 10
1789.525808645017
 20
849.2662846007242
 30
0.0
 11
1788.027864342885
 21
849.3447885350887
 31
0.0
  0
ARC
  5
702B
330
1E
100
AcDbEntity
  8
躯体と製品
  6
DASHED1
 62
     7
100
AcDbCircle
 10
1790.127040290473
 20
849.2740742430697
 30
0.0
 40
0.5999999999999998
100
AcDbArc
 50
73.29976700000166
 51
177.0000000000011
  0
ARC
  5
702C
330
1E
100
AcDbEntity
  8
躯体と製品
  6
DASHED1
 62
     7
100
AcDbCircle
 10
1787.430740546635
 20
849.4153813249257
 30
0.0
 40
0.5999999999999998
100
AcDbArc
 50
357.0000000000011
 51
100.7002330000058
  0
LINE
  5
702D
330
1E
100
AcDbEntity
  8
躯体と製品
  6
DASHED1
 62
     7
100
AcDbLine
 10
1776.559560067622
 20
846.2141556405132
 30
0.0
 11
1763.629608990368
 21
832.6491027812858
 31
0.0
  0
ARC
  5
702E
330
1E
100
AcDbEntity
  8
躯体と製品
  6
DASHED1
 62
     7
100
AcDbCircle
 10
1799.178441520131
 20
843.855107999474
 30
0.0
 40
1.8
100
AcDbArc
 50
37.62684736228169
 51
86.99999999999441
  0
LINE
  5
702F
330
1E
100
AcDbEntity
  8
躯体と製品
  6
DASHED1
 62
     7
100
AcDbLine
 10
1799.970445177829
 20
844.4656243433938
 30
0.0
 11
1811.411630515283
 21
829.6233343278871
 31
0.0
  0
LINE
  5
7030
330
1E
100
AcDbEntity
  8
躯体と製品
  6
DASHED1
 62
     7
100
AcDbLine
 10
1800.604048103987
 20
844.9540374185296
 30
0.0
 11
1812.045233441441
 21
830.1117474030229
 31
0.0
  0
ARC
  5
7031
330
1E
100
AcDbEntity
  8
躯体と製品
  6
DASHED1
 62
     7
100
AcDbCircle
 10
1812.837237084534
 20
830.7222637658883
 30
0.0
 40
1.8
100
AcDbArc
 50
217.6268473622817
 51
316.3731518762783
  0
ARC
  5
7032
330
1E
100
AcDbEntity
  8
躯体と製品
  6
DASHED1
 62
     7
100
AcDbCircle
 10
1812.837237084534
 20
830.7222637658883
 30
0.0
 40
1.0
100
AcDbArc
 50
217.6268473622817
 51
316.3731512671342
  0
LINE
  5
7033
330
1E
100
AcDbEntity
  8
躯体と製品
  6
DASHED1
 62
     7
100
AcDbLine
 10
1816.210041033247
 20
831.6518838624784
 30
0.0
 11
1814.140164626443
 21
829.4803379144232
 31
0.0
  0
LINE
  5
7034
330
1E
100
AcDbEntity
  8
躯体と製品
  6
DASHED1
 62
     7
100
AcDbLine
 10
1816.210041033247
 20
831.6518838624784
 30
0.0
 11
1815.630962118374
 21
832.2038508998552
 31
0.0
  0
LINE
  5
7035
330
1E
100
AcDbEntity
  8
躯体と製品
  6
DASHED1
 62
     7
100
AcDbLine
 10
1815.630962118374
 20
832.2038508998552
 30
0.0
 11
1813.561085711593
 21
830.0323049518228
 31
0.0
  0
ARC
  5
7036
330
1E
100
AcDbEntity
  8
躯体と製品
  6
DASHED1
 62
     7
100
AcDbCircle
 10
1762.905760346806
 20
833.3390615780356
 30
0.0
 40
1.8
100
AcDbArc
 50
217.6268481237226
 51
316.3731526377176
  0
ARC
  5
7037
330
1E
100
AcDbEntity
  8
躯体と製品
  6
DASHED1
 62
     7
100
AcDbCircle
 10
1762.905760346806
 20
833.3390615780356
 30
0.0
 40
1.0
100
AcDbArc
 50
217.6268487328632
 51
316.3731526377176
  0
ARC
  5
7038
330
1E
100
AcDbEntity
  8
躯体と製品
  6
DASHED1
 62
     7
100
AcDbCircle
 10
1777.862487626035
 20
844.9722298063635
 30
0.0
 40
1.0
100
AcDbArc
 50
86.99999999999441
 51
136.3731526377175
  0
LINE
  5
7039
330
1E
100
AcDbEntity
  8
躯体と製品
  6
DASHED1
 62
     7
100
AcDbLine
 10
1777.138638982472
 20
845.6621886031133
 30
0.0
 11
1764.208687888714
 21
832.0971357265703
 31
0.0
  0
LINE
  5
703A
330
1E
100
AcDbEntity
  8
躯体と製品
  6
DASHED1
 62
     7
100
AcDbLine
 10
1777.914823582277
 20
845.9708593411178
 30
0.0
 11
1799.230777476374
 21
844.8537375342286
 31
0.0
  0
ARC
  5
703B
330
1E
100
AcDbEntity
  8
躯体と製品
  6
DASHED1
 62
     7
100
AcDbCircle
 10
1777.862487626035
 20
844.9722298063635
 30
0.0
 40
1.8
100
AcDbArc
 50
86.99999999999441
 51
136.3731526377175
  0
LINE
  5
703C
330
1E
100
AcDbEntity
  8
躯体と製品
  6
DASHED1
 62
     7
100
AcDbLine
 10
1777.956692347272
 20
846.7697629689215
 30
0.0
 11
1799.272646241368
 21
845.6526411620323
 31
0.0
  0
ARC
  5
703D
330
1E
100
AcDbEntity
  8
躯体と製品
  6
DASHED1
 62
     7
100
AcDbCircle
 10
1799.178441520131
 20
843.855107999474
 30
0.0
 40
1.0
100
AcDbArc
 50
37.62684736228169
 51
86.99999999999441
  0
LINE
  5
703E
330
1E
100
AcDbEntity
  8
躯体と製品
  6
Continuous
 62
     4
100
AcDbLine
 10
1773.26480670431
 20
811.0307750479549
 30
0.0
 11
1773.26480670431
 21
809.4307750479549
 31
0.0
  0
LINE
  5
703F
330
1E
100
AcDbEntity
  8
躯体と製品
  6
Continuous
 62
     4
100
AcDbLine
 10
1801.26480670431
 20
811.0307750479549
 30
0.0
 11
1801.26480670431
 21
809.4307750479549
 31
0.0
  0
LINE
  5
7040
330
1E
100
AcDbEntity
  8
躯体と製品
  6
DASHED1
 62
     7
100
AcDbLine
 10
1790.260695308574
 20
820.2972816071126
 30
0.0
 11
1790.072285866099
 21
816.7022152819962
 31
0.0
  0
LINE
  5
7041
330
1E
100
AcDbEntity
  8
躯体と製品
  6
DASHED1
 62
     7
100
AcDbLine
 10
1784.268918100046
 20
820.6112973445703
 30
0.0
 11
1784.080508657571
 21
817.0162310194539
 31
0.0
  0
LINE
  5
7042
330
1E
100
AcDbEntity
  8
躯体と製品
  6
Continuous
 62
     3
100
AcDbLine
 10
1796.27471221242
 20
819.9821003366114
 30
0.0
 11
1778.47471221242
 21
820.9149588078496
 31
0.0
  0
LINE
  5
7043
330
1E
100
AcDbEntity
  8
躯体と製品
  6
Continuous
 62
     3
100
AcDbLine
 10
1796.190974682431
 20
818.384293081004
 30
0.0
 11
1778.390974682431
 21
819.3171515522418
 31
0.0
  0
ARC
  5
7044
330
1E
100
AcDbEntity
  8
躯体と製品
  6
Continuous
 62
     3
100
AcDbCircle
 10
1792.721058612704
 20
817.564771330519
 30
0.0
 40
1.0
100
AcDbArc
 50
86.99999999999441
 51
177.0000000000011
  0
LINE
  5
7045
330
1E
100
AcDbEntity
  8
躯体と製品
  6
Continuous
 62
     3
100
AcDbLine
 10
1791.722429077949
 20
817.6171072867621
 30
0.0
 11
1791.670093121706
 21
816.6184777520074
 31
0.0
  0
ARC
  5
7046
330
1E
100
AcDbEntity
  8
躯体と製品
  6
Continuous
 62
     3
100
AcDbCircle
 10
1781.536407823453
 20
818.1509340404399
 30
0.0
 40
1.0
100
AcDbArc
 50
357.0000000000011
 51
86.99999999999441
  0
LINE
  5
7047
330
1E
100
AcDbEntity
  8
躯体と製品
  6
Continuous
 62
     3
100
AcDbLine
 10
1782.535037358207
 20
818.0985980841972
 30
0.0
 11
1782.482701401964
 21
817.0999685494424
 31
0.0
  0
LINE
  5
7048
330
1E
100
AcDbEntity
  8
躯体と製品
  6
Continuous
 62
     3
100
AcDbLine
 10
1791.670093121706
 20
816.6184777520074
 30
0.0
 11
1782.482701401964
 21
817.0999685494424
 31
0.0
  0
ARC
  5
7049
330
1E
100
AcDbEntity
  8
躯体と製品
  6
Continuous
 62
     3
100
AcDbCircle
 10
1796.16480670431
 20
817.8849783136268
 30
0.0
 40
2.1
100
AcDbArc
 50
0.0
 51
86.99999999999441
  0
LINE
  5
704A
330
1E
100
AcDbEntity
  8
躯体と製品
  6
Continuous
 62
     3
100
AcDbLine
 10
1798.26480670431
 20
817.8849783136268
 30
0.0
 11
1798.26480670431
 21
811.5307750479548
 31
0.0
  0
ARC
  5
704B
330
1E
100
AcDbEntity
  8
躯体と製品
  6
Continuous
 62
     3
100
AcDbCircle
 10
1778.36480670431
 20
818.8178367848648
 30
0.0
 40
2.1
100
AcDbArc
 50
86.99999999999441
 51
180.0
  0
ARC
  5
704C
330
1E
100
AcDbEntity
  8
躯体と製品
  6
Continuous
 62
     3
100
AcDbCircle
 10
1796.16480670431
 20
817.8849783136268
 30
0.0
 40
0.5
100
AcDbArc
 50
0.0
 51
86.99999999999441
  0
LINE
  5
704D
330
1E
100
AcDbEntity
  8
躯体と製品
  6
Continuous
 62
     3
100
AcDbLine
 10
1796.66480670431
 20
817.8849783136268
 30
0.0
 11
1796.66480670431
 21
811.5307750479548
 31
0.0
  0
ARC
  5
704E
330
1E
100
AcDbEntity
  8
躯体と製品
  6
Continuous
 62
     3
100
AcDbCircle
 10
1778.36480670431
 20
818.8178367848648
 30
0.0
 40
0.5
100
AcDbArc
 50
86.99999999999441
 51
180.0
  0
LINE
  5
704F
330
1E
100
AcDbEntity
  8
躯体と製品
  6
Continuous
 62
     3
100
AcDbLine
 10
1777.864806704309
 20
818.8178367848648
 30
0.0
 11
1777.864806704309
 21
811.5307750479548
 31
0.0
  0
ARC
  5
7050
330
1E
100
AcDbEntity
  8
躯体と製品
  6
Continuous
 62
     3
100
AcDbCircle
 10
1798.76480670431
 20
811.5307750479548
 30
0.0
 40
0.5
100
AcDbArc
 50
180.0
 51
270.0
  0
ARC
  5
7051
330
1E
100
AcDbEntity
  8
躯体と製品
  6
Continuous
 62
     3
100
AcDbCircle
 10
1798.76480670431
 20
811.5307750479548
 30
0.0
 40
2.1
100
AcDbArc
 50
180.0
 51
270.0
  0
LINE
  5
7052
330
1E
100
AcDbEntity
  8
躯体と製品
  6
Continuous
 62
     3
100
AcDbLine
 10
1803.26480670431
 20
811.0307750479549
 30
0.0
 11
1803.26480670431
 21
809.4307750479549
 31
0.0
  0
LINE
  5
7053
330
1E
100
AcDbEntity
  8
躯体と製品
  6
Continuous
 62
     3
100
AcDbLine
 10
1798.76480670431
 20
811.0307750479549
 30
0.0
 11
1803.26480670431
 21
811.0307750479549
 31
0.0
  0
LINE
  5
7054
330
1E
100
AcDbEntity
  8
躯体と製品
  6
Continuous
 62
     3
100
AcDbLine
 10
1803.26480670431
 20
809.4307750479549
 30
0.0
 11
1798.76480670431
 21
809.4307750479549
 31
0.0
  0
ARC
  5
7055
330
1E
100
AcDbEntity
  8
躯体と製品
  6
Continuous
 62
     3
100
AcDbCircle
 10
1775.76480670431
 20
811.5307750479548
 30
0.0
 40
0.5
100
AcDbArc
 50
270.0
 51
0.0
  0
ARC
  5
7056
330
1E
100
AcDbEntity
  8
躯体と製品
  6
Continuous
 62
     3
100
AcDbCircle
 10
1775.76480670431
 20
811.5307750479548
 30
0.0
 40
2.1
100
AcDbArc
 50
270.0
 51
0.0
  0
LINE
  5
7057
330
1E
100
AcDbEntity
  8
躯体と製品
  6
Continuous
 62
     3
100
AcDbLine
 10
1771.26480670431
 20
811.0307750479549
 30
0.0
 11
1775.76480670431
 21
811.0307750479549
 31
0.0
  0
LINE
  5
7058
330
1E
100
AcDbEntity
  8
躯体と製品
  6
Continuous
 62
     3
100
AcDbLine
 10
1771.26480670431
 20
809.4307750479549
 30
0.0
 11
1771.26480670431
 21
811.0307750479549
 31
0.0
  0
LINE
  5
7059
330
1E
100
AcDbEntity
  8
躯体と製品
  6
Continuous
 62
     3
100
AcDbLine
 10
1771.26480670431
 20
809.4307750479549
 30
0.0
 11
1775.76480670431
 21
809.4307750479549
 31
0.0
  0
LINE
  5
705A
330
1E
100
AcDbEntity
  8
躯体と製品
  6
Continuous
 62
     3
100
AcDbLine
 10
1776.26480670431
 20
818.8178367848648
 30
0.0
 11
1776.26480670431
 21
811.5307750479548
 31
0.0
  0
LINE
  5
705B
330
1E
100
AcDbEntity
  8
躯体と製品
  6
Continuous
 62
     3
100
AcDbLine
 10
1812.637376985738
 20
810.5042990025113
 30
0.0
 11
1812.956132684577
 21
809.4326671606658
 31
0.0
  0
LINE
  5
705C
330
1E
100
AcDbEntity
  8
躯体と製品
  6
Continuous
 62
     3
100
AcDbLine
 10
1812.463728808071
 20
809.5194912494992
 30
0.0
 11
1812.78248450691
 21
808.4478594076536
 31
0.0
  0
LINE
  5
705D
330
1E
100
AcDbEntity
  8
躯体と製品
  6
Continuous
 62
     3
100
AcDbLine
 10
1787.26480670431
 20
804.5307750479548
 30
0.0
 11
1786.76480670431
 21
805.0307750479548
 31
0.0
  0
LINE
  5
705E
330
1E
100
AcDbEntity
  8
躯体と製品
  6
Continuous
 62
     3
100
AcDbLine
 10
1803.46480670431
 20
811.0307750479549
 30
0.0
 11
1800.51480670431
 21
811.0307750479549
 31
0.0
  0
ARC
  5
705F
330
1E
100
AcDbEntity
  8
躯体と製品
  6
Continuous
 62
     3
100
AcDbCircle
 10
1803.46480670431
 20
810.7307750479549
 30
0.0
 40
0.2999999999999998
100
AcDbArc
 50
0.0
 51
90.0
  0
LINE
  5
7060
330
1E
100
AcDbEntity
  8
躯体と製品
  6
Continuous
 62
     3
100
AcDbLine
 10
1803.76480670431
 20
810.7307750479549
 30
0.0
 11
1803.76480670431
 21
808.8307750479552
 31
0.0
  0
ARC
  5
7061
330
1E
100
AcDbEntity
  8
躯体と製品
  6
Continuous
 62
     3
100
AcDbCircle
 10
1803.46480670431
 20
808.8307750479552
 30
0.0
 40
0.2999999999999998
100
AcDbArc
 50
270.0
 51
0.0
  0
LINE
  5
7062
330
1E
100
AcDbEntity
  8
躯体と製品
  6
Continuous
 62
     3
100
AcDbLine
 10
1803.46480670431
 20
808.5307750479548
 30
0.0
 11
1801.51480670431
 21
808.5307750479548
 31
0.0
  0
LINE
  5
7063
330
1E
100
AcDbEntity
  8
躯体と製品
  6
Continuous
 62
     3
100
AcDbLine
 10
1803.76480670431
 20
806.730775047955
 30
0.0
 11
1803.76480670431
 21
805.3307750479552
 31
0.0
  0
ARC
  5
7064
330
1E
100
AcDbEntity
  8
躯体と製品
  6
Continuous
 62
     3
100
AcDbCircle
 10
1803.46480670431
 20
806.730775047955
 30
0.0
 40
0.2999999999999998
100
AcDbArc
 50
0.0
 51
90.0
  0
LINE
  5
7065
330
1E
100
AcDbEntity
  8
躯体と製品
  6
Continuous
 62
     3
100
AcDbLine
 10
1803.46480670431
 20
807.0307750479548
 30
0.0
 11
1801.51480670431
 21
807.0307750479548
 31
0.0
  0
ARC
  5
7066
330
1E
100
AcDbEntity
  8
躯体と製品
  6
Continuous
 62
     3
100
AcDbCircle
 10
1801.51480670431
 20
807.7807750479548
 30
0.0
 40
0.75
100
AcDbArc
 50
90.0
 51
270.0
  0
ARC
  5
7067
330
1E
100
AcDbEntity
  8
躯体と製品
  6
Continuous
 62
     3
100
AcDbCircle
 10
1800.51480670431
 20
811.7807750479549
 30
0.0
 40
0.75
100
AcDbArc
 50
90.0
 51
270.0
  0
LINE
  5
7068
330
1E
100
AcDbEntity
  8
躯体と製品
  6
Continuous
 62
     3
100
AcDbLine
 10
1803.76480670431
 20
813.0307750479548
 30
0.0
 11
1803.76480670431
 21
820.5307750479548
 31
0.0
  0
ARC
  5
7069
330
1E
100
AcDbEntity
  8
躯体と製品
  6
Continuous
 62
     3
100
AcDbCircle
 10
1803.26480670431
 20
813.0307750479548
 30
0.0
 40
0.5
100
AcDbArc
 50
270.0
 51
0.0
  0
LINE
  5
706A
330
1E
100
AcDbEntity
  8
躯体と製品
  6
Continuous
 62
     3
100
AcDbLine
 10
1803.26480670431
 20
812.5307750479548
 30
0.0
 11
1800.51480670431
 21
812.5307750479548
 31
0.0
  0
ARC
  5
706B
330
1E
100
AcDbEntity
  8
躯体と製品
  6
Continuous
 62
     3
100
AcDbCircle
 10
1803.46480670431
 20
805.3307750479552
 30
0.0
 40
0.2999999999999998
100
AcDbArc
 50
270.0
 51
0.0
  0
ARC
  5
706C
330
1E
100
AcDbEntity
  8
躯体と製品
  6
Continuous
 62
     3
100
AcDbCircle
 10
1806.26480670431
 20
805.5307750479549
 30
0.0
 40
0.5
100
AcDbArc
 50
180.0
 51
270.0
  0
LINE
  5
706D
330
1E
100
AcDbEntity
  8
躯体と製品
  6
Continuous
 62
     3
100
AcDbLine
 10
1805.76480670431
 20
805.5307750479549
 30
0.0
 11
1805.76480670431
 21
820.5307750479548
 31
0.0
  0
LINE
  5
706E
330
1E
100
AcDbEntity
  8
躯体と製品
  6
Continuous
 62
     3
100
AcDbLine
 10
1805.76480670431
 20
803.5307750479548
 30
0.0
 11
1816.26480670431
 21
803.5307750479548
 31
0.0
  0
LINE
  5
706F
330
1E
100
AcDbEntity
  8
躯体と製品
  6
Continuous
 62
     3
100
AcDbLine
 10
1805.76480670431
 20
802.5307750479548
 30
0.0
 11
1805.76480670431
 21
803.5307750479548
 31
0.0
  0
LINE
  5
7070
330
1E
100
AcDbEntity
  8
躯体と製品
  6
Continuous
 62
     3
100
AcDbLine
 10
1787.26480670431
 20
804.5307750479548
 30
0.0
 11
1787.76480670431
 21
805.0307750479548
 31
0.0
  0
LINE
  5
7071
330
1E
100
AcDbEntity
  8
躯体と製品
  6
Continuous
 62
     3
100
AcDbLine
 10
1816.26480670431
 20
802.5307750479548
 30
0.0
 11
1817.76480670431
 21
802.5307750479548
 31
0.0
  0
LINE
  5
7072
330
1E
100
AcDbEntity
  8
躯体と製品
  6
Continuous
 62
     3
100
AcDbLine
 10
1816.26480670431
 20
803.5307750479548
 30
0.0
 11
1816.26480670431
 21
802.5307750479548
 31
0.0
  0
ARC
  5
7073
330
1E
100
AcDbEntity
  8
躯体と製品
  6
Continuous
 62
     3
100
AcDbCircle
 10
1804.76480670431
 20
820.5307750479548
 30
0.0
 40
1.0
100
AcDbArc
 50
0.0
 51
180.0
  0
LINE
  5
7074
330
1E
100
AcDbEntity
  8
躯体と製品
  6
Continuous
 62
     3
100
AcDbLine
 10
1803.76480670431
 20
802.5307750479548
 30
0.0
 11
1805.76480670431
 21
802.5307750479548
 31
0.0
  0
LINE
  5
7075
330
1E
100
AcDbEntity
  8
躯体と製品
  6
Continuous
 62
     3
100
AcDbLine
 10
1803.76480670431
 20
803.0307750479549
 30
0.0
 11
1803.76480670431
 21
802.5307750479548
 31
0.0
  0
LINE
  5
7076
330
1E
100
AcDbEntity
  8
躯体と製品
  6
Continuous
 62
     3
100
AcDbLine
 10
1792.26480670431
 20
803.0307750479549
 30
0.0
 11
1803.76480670431
 21
803.0307750479549
 31
0.0
  0
LINE
  5
7077
330
1E
100
AcDbEntity
  8
躯体と製品
  6
Continuous
 62
     3
100
AcDbLine
 10
1792.26480670431
 20
802.5307750479548
 30
0.0
 11
1792.26480670431
 21
803.0307750479549
 31
0.0
  0
LINE
  5
7078
330
1E
100
AcDbEntity
  8
躯体と製品
  6
Continuous
 62
     3
100
AcDbLine
 10
1771.06480670431
 20
805.0307750479548
 30
0.0
 11
1786.76480670431
 21
805.0307750479548
 31
0.0
  0
LINE
  5
7079
330
1E
100
AcDbEntity
  8
躯体と製品
  6
Continuous
 62
     3
100
AcDbLine
 10
1787.76480670431
 20
805.0307750479548
 30
0.0
 11
1803.46480670431
 21
805.0307750479548
 31
0.0
  0
LINE
  5
707A
330
1E
100
AcDbEntity
  8
躯体と製品
  6
Continuous
 62
     3
100
AcDbLine
 10
1782.26480670431
 20
802.5307750479548
 30
0.0
 11
1792.26480670431
 21
802.5307750479548
 31
0.0
  0
LINE
  5
707B
330
1E
100
AcDbEntity
  8
躯体と製品
  6
Continuous
 62
     3
100
AcDbLine
 10
1769.26480670431
 20
812.0307750479549
 30
0.0
 11
1769.26480670431
 21
802.5307750479548
 31
0.0
  0
ARC
  5
707C
330
1E
100
AcDbEntity
  8
躯体と製品
  6
Continuous
 62
     3
100
AcDbCircle
 10
1769.76480670431
 20
812.0307750479549
 30
0.0
 40
0.5
100
AcDbArc
 50
90.0
 51
180.0
  0
LINE
  5
707D
330
1E
100
AcDbEntity
  8
躯体と製品
  6
Continuous
 62
     3
100
AcDbLine
 10
1769.76480670431
 20
812.5307750479548
 30
0.0
 11
1774.014806704309
 21
812.5307750479548
 31
0.0
  0
LINE
  5
707E
330
1E
100
AcDbEntity
  8
躯体と製品
  6
Continuous
 62
     3
100
AcDbLine
 10
1770.76480670431
 20
805.3307750479552
 30
0.0
 11
1770.76480670431
 21
806.730775047955
 31
0.0
  0
ARC
  5
707F
330
1E
100
AcDbEntity
  8
躯体と製品
  6
Continuous
 62
     3
100
AcDbCircle
 10
1771.06480670431
 20
805.3307750479552
 30
0.0
 40
0.2999999999999998
100
AcDbArc
 50
180.0
 51
270.0
  0
LINE
  5
7080
330
1E
100
AcDbEntity
  8
躯体と製品
  6
Continuous
 62
     3
100
AcDbLine
 10
1771.06480670431
 20
807.0307750479548
 30
0.0
 11
1773.01480670431
 21
807.0307750479548
 31
0.0
  0
ARC
  5
7081
330
1E
100
AcDbEntity
  8
躯体と製品
  6
Continuous
 62
     3
100
AcDbCircle
 10
1771.06480670431
 20
806.730775047955
 30
0.0
 40
0.2999999999999998
100
AcDbArc
 50
90.0
 51
180.0
  0
LINE
  5
7082
330
1E
100
AcDbEntity
  8
躯体と製品
  6
Continuous
 62
     3
100
AcDbLine
 10
1770.76480670431
 20
808.8307750479552
 30
0.0
 11
1770.76480670431
 21
810.7307750479549
 31
0.0
  0
ARC
  5
7083
330
1E
100
AcDbEntity
  8
躯体と製品
  6
Continuous
 62
     3
100
AcDbCircle
 10
1771.06480670431
 20
808.8307750479552
 30
0.0
 40
0.2999999999999998
100
AcDbArc
 50
180.0
 51
270.0
  0
LINE
  5
7084
330
1E
100
AcDbEntity
  8
躯体と製品
  6
Continuous
 62
     3
100
AcDbLine
 10
1771.06480670431
 20
808.5307750479548
 30
0.0
 11
1773.01480670431
 21
808.5307750479548
 31
0.0
  0
LINE
  5
7085
330
1E
100
AcDbEntity
  8
躯体と製品
  6
Continuous
 62
     3
100
AcDbLine
 10
1771.06480670431
 20
811.0307750479549
 30
0.0
 11
1774.014806704309
 21
811.0307750479549
 31
0.0
  0
ARC
  5
7086
330
1E
100
AcDbEntity
  8
躯体と製品
  6
Continuous
 62
     3
100
AcDbCircle
 10
1771.06480670431
 20
810.7307750479549
 30
0.0
 40
0.2999999999999998
100
AcDbArc
 50
90.0
 51
180.0
  0
ARC
  5
7087
330
1E
100
AcDbEntity
  8
躯体と製品
  6
Continuous
 62
     3
100
AcDbCircle
 10
1773.01480670431
 20
807.7807750479548
 30
0.0
 40
0.75
100
AcDbArc
 50
270.0
 51
90.0
  0
ARC
  5
7088
330
1E
100
AcDbEntity
  8
躯体と製品
  6
Continuous
 62
     3
100
AcDbCircle
 10
1774.014806704309
 20
811.7807750479549
 30
0.0
 40
0.75
100
AcDbArc
 50
270.0
 51
90.0
  0
LINE
  5
7089
330
1E
100
AcDbEntity
  8
躯体と製品
  6
Continuous
 62
     3
100
AcDbLine
 10
1782.26480670431
 20
803.0307750479549
 30
0.0
 11
1782.26480670431
 21
802.5307750479548
 31
0.0
  0
LINE
  5
708A
330
1E
100
AcDbEntity
  8
躯体と製品
  6
Continuous
 62
     3
100
AcDbLine
 10
1770.76480670431
 20
803.0307750479549
 30
0.0
 11
1782.26480670431
 21
803.0307750479549
 31
0.0
  0
LINE
  5
708B
330
1E
100
AcDbEntity
  8
躯体と製品
  6
Continuous
 62
     3
100
AcDbLine
 10
1770.76480670431
 20
802.5307750479548
 30
0.0
 11
1770.76480670431
 21
803.0307750479549
 31
0.0
  0
LINE
  5
708C
330
1E
100
AcDbEntity
  8
躯体と製品
  6
Continuous
 62
     3
100
AcDbLine
 10
1769.26480670431
 20
802.5307750479548
 30
0.0
 11
1770.76480670431
 21
802.5307750479548
 31
0.0
  0
LINE
  5
708D
330
1E
100
AcDbEntity
  8
躯体と製品
  6
Continuous
 62
     3
100
AcDbLine
 10
1817.76480670431
 20
802.5307750479548
 30
0.0
 11
1817.76480670431
 21
805.0307750479548
 31
0.0
  0
ARC
  5
708E
330
1E
100
AcDbEntity
  8
躯体と製品
  6
Continuous
 62
     3
100
AcDbCircle
 10
1818.024677911136
 20
810.8236557610252
 30
0.0
 40
0.7499999999999977
100
AcDbArc
 50
350.0000000000025
 51
170.0000000000025
  0
ARC
  5
708F
330
1E
100
AcDbEntity
  8
躯体と製品
  6
Continuous
 62
     3
100
AcDbCircle
 10
1812.608235269568
 20
811.7787207381931
 30
0.0
 40
0.7500000000000016
100
AcDbArc
 50
350.0000000000025
 51
170.0000000000025
  0
LINE
  5
7090
330
1E
100
AcDbEntity
  8
躯体と製品
  6
Continuous
 62
     3
100
AcDbLine
 10
1817.561415750799
 20
809.6360581141768
 30
0.0
 11
1816.895363696626
 21
808.7380744499981
 31
0.0
  0
LINE
  5
7091
330
1E
100
AcDbEntity
  8
躯体と製品
  6
Continuous
 62
     3
100
AcDbLine
 10
1817.387767573132
 20
808.6512503611645
 30
0.0
 11
1816.721715518959
 21
807.7532666969858
 31
0.0
  0
LINE
  5
7092
330
1E
100
AcDbEntity
  8
躯体と製品
  6
Continuous
 62
     3
100
AcDbLine
 10
1813.129780862244
 20
810.4174749136779
 30
0.0
 11
1813.346841084327
 21
811.6484846049431
 31
0.0
  0
LINE
  5
7093
330
1E
100
AcDbEntity
  8
躯体と製品
  6
Continuous
 62
     3
100
AcDbLine
 10
1817.069011874293
 20
809.7228822030103
 30
0.0
 11
1817.286072096376
 21
810.9538918942755
 31
0.0
  0
LINE
  5
7094
330
1E
100
AcDbEntity
  8
躯体と製品
  6
Continuous
 62
     3
100
AcDbLine
 10
1817.76480670431
 20
805.0307750479548
 30
0.0
 11
1818.763283725895
 21
810.693419627775
 31
0.0
  0
LINE
  5
7095
330
1E
100
AcDbEntity
  8
躯体と製品
  6
Continuous
 62
     3
100
AcDbLine
 10
1817.561415750799
 20
809.6360581141768
 30
0.0
 11
1817.069011874293
 21
809.7228822030103
 31
0.0
  0
LINE
  5
7096
330
1E
100
AcDbEntity
  8
躯体と製品
  6
Continuous
 62
     3
100
AcDbLine
 10
1813.129780862244
 20
810.4174749136779
 30
0.0
 11
1812.637376985738
 21
810.5042990025113
 31
0.0
  0
LINE
  5
7097
330
1E
100
AcDbEntity
  8
躯体と製品
  6
Continuous
 62
     3
100
AcDbLine
 10
1817.387767573132
 20
808.6512503611645
 30
0.0
 11
1816.895363696626
 21
808.7380744499981
 31
0.0
  0
LINE
  5
7098
330
1E
100
AcDbEntity
  8
躯体と製品
  6
Continuous
 62
     3
100
AcDbLine
 10
1812.956132684577
 20
809.4326671606658
 30
0.0
 11
1812.463728808071
 21
809.5194912494992
 31
0.0
  0
LINE
  5
7099
330
1E
100
AcDbEntity
  8
躯体と製品
  6
Continuous
 62
     3
100
AcDbLine
 10
1810.729674482027
 20
805.4439509591215
 30
0.0
 11
1811.869629454809
 21
811.9089568714434
 31
0.0
  0
LINE
  5
709A
330
1E
100
AcDbEntity
  8
躯体と製品
  6
Continuous
 62
     3
100
AcDbLine
 10
1810.237270605521
 20
805.0307750479548
 30
0.0
 11
1806.26480670431
 21
805.0307750479548
 31
0.0
  0
ARC
  5
709B
330
1E
100
AcDbEntity
  8
躯体と製品
  6
Continuous
 62
     3
100
AcDbCircle
 10
1810.237270605521
 20
805.5307750479549
 30
0.0
 40
0.5
100
AcDbArc
 50
270.0
 51
350.0000000000025
  0
LINE
  5
709C
330
1E
100
AcDbEntity
  8
躯体と製品
  6
Continuous
 62
     3
100
AcDbLine
 10
1812.283433258729
 20
805.6175991367883
 30
0.0
 11
1812.78248450691
 21
808.4478594076536
 31
0.0
  0
ARC
  5
709D
330
1E
100
AcDbEntity
  8
躯体と製品
  6
Continuous
 62
     3
100
AcDbCircle
 10
1812.775837135235
 20
805.5307750479549
 30
0.0
 40
0.5
100
AcDbArc
 50
170.0000000000025
 51
270.0
  0
LINE
  5
709E
330
1E
100
AcDbEntity
  8
躯体と製品
  6
Continuous
 62
     3
100
AcDbLine
 10
1816.314520847399
 20
805.4439509591215
 30
0.0
 11
1816.721715518959
 21
807.7532666969858
 31
0.0
  0
LINE
  5
709F
330
1E
100
AcDbEntity
  8
躯体と製品
  6
Continuous
 62
     3
100
AcDbLine
 10
1815.822116970893
 20
805.0307750479548
 30
0.0
 11
1812.775837135235
 21
805.0307750479548
 31
0.0
  0
ARC
  5
70A0
330
1E
100
AcDbEntity
  8
躯体と製品
  6
Continuous
 62
     3
100
AcDbCircle
 10
1815.822116970893
 20
805.5307750479549
 30
0.0
 40
0.5
100
AcDbArc
 50
270.0
 51
350.0000000000025
  0
ARC
  5
70A1
330
1E
100
AcDbEntity
  8
躯体と製品
  6
DASHED1
 62
     7
100
AcDbCircle
 10
1783.76480670431
 20
762.0307750479549
 30
0.0
 40
1.0
100
AcDbArc
 50
180.0
 51
270.0
  0
LINE
  5
70A2
330
1E
100
AcDbEntity
  8
躯体と製品
  6
DASHED1
 62
     7
100
AcDbLine
 10
1780.63977670431
 20
763.2687790479549
 30
0.0
 11
1784.82520970431
 21
762.5307750479549
 31
0.0
  0
LINE
  5
70A3
330
1E
100
AcDbEntity
  8
躯体と製品
  6
DASHED1
 62
     7
100
AcDbLine
 10
1783.21480670431
 20
793.2307750479549
 30
0.0
 11
1791.31480670431
 21
793.2307750479549
 31
0.0
  0
LINE
  5
70A4
330
1E
100
AcDbEntity
  8
躯体と製品
  6
DASHED1
 62
     7
100
AcDbLine
 10
1782.51480670431
 20
792.5307750479548
 30
0.0
 11
1792.01480670431
 21
792.5307750479548
 31
0.0
  0
LINE
  5
70A5
330
1E
100
AcDbEntity
  8
躯体と製品
  6
DASHED1
 62
     7
100
AcDbLine
 10
1793.88983670431
 20
763.2687790479549
 30
0.0
 11
1792.01480670431
 21
773.9026010479549
 31
0.0
  0
LINE
  5
70A6
330
1E
100
AcDbEntity
  8
躯体と製品
  6
DASHED1
 62
     7
100
AcDbLine
 10
1787.76480670431
 20
773.5307750479549
 30
0.0
 11
1789.70440370431
 21
762.5307750479549
 31
0.0
  0
LINE
  5
70A7
330
1E
100
AcDbEntity
  8
躯体と製品
  6
DASHED1
 62
     7
100
AcDbLine
 10
1786.76480670431
 20
773.5307750479549
 30
0.0
 11
1784.82520970431
 21
762.5307750479549
 31
0.0
  0
LINE
  5
70A8
330
1E
100
AcDbEntity
  8
躯体と製品
  6
DASHED1
 62
     7
100
AcDbLine
 10
1793.88983670431
 20
763.2687790479549
 30
0.0
 11
1789.70440370431
 21
762.5307750479549
 31
0.0
  0
LINE
  5
70A9
330
1E
100
AcDbEntity
  8
躯体と製品
  6
DASHED1
 62
     7
100
AcDbLine
 10
1791.76480670431
 20
762.0307750479549
 30
0.0
 11
1791.76480670431
 21
762.8940790479548
 31
0.0
  0
ARC
  5
70AA
330
1E
100
AcDbEntity
  8
躯体と製品
  6
DASHED1
 62
     7
100
AcDbCircle
 10
1790.764806704309
 20
762.0307750479549
 30
0.0
 40
1.0
100
AcDbArc
 50
270.0
 51
0.0
  0
LINE
  5
70AB
330
1E
100
AcDbEntity
  8
躯体と製品
  6
DASHED1
 62
     7
100
AcDbLine
 10
1790.764806704309
 20
761.0307750479549
 30
0.0
 11
1783.76480670431
 21
761.0307750479549
 31
0.0
  0
LINE
  5
70AC
330
1E
100
AcDbEntity
  8
躯体と製品
  6
DASHED1
 62
     7
100
AcDbLine
 10
1792.01480670431
 20
773.9026010479549
 30
0.0
 11
1792.01480670431
 21
792.5307750479548
 31
0.0
  0
LINE
  5
70AD
330
1E
100
AcDbEntity
  8
躯体と製品
  6
DASHED1
 62
     7
100
AcDbLine
 10
1792.01480670431
 20
792.5307750479548
 30
0.0
 11
1791.31480670431
 21
793.2307750479549
 31
0.0
  0
LINE
  5
70AE
330
1E
100
AcDbEntity
  8
躯体と製品
  6
DASHED1
 62
     7
100
AcDbLine
 10
1786.76480670431
 20
773.5307750479549
 30
0.0
 11
1787.76480670431
 21
773.5307750479549
 31
0.0
  0
LINE
  5
70AF
330
1E
100
AcDbEntity
  8
躯体と製品
  6
DASHED1
 62
     7
100
AcDbLine
 10
1780.63977670431
 20
763.2687790479549
 30
0.0
 11
1782.51480670431
 21
773.9026010479549
 31
0.0
  0
LINE
  5
70B0
330
1E
100
AcDbEntity
  8
躯体と製品
  6
DASHED1
 62
     7
100
AcDbLine
 10
1782.76480670431
 20
762.0307750479549
 30
0.0
 11
1782.76480670431
 21
762.8940790479548
 31
0.0
  0
LINE
  5
70B1
330
1E
100
AcDbEntity
  8
躯体と製品
  6
DASHED1
 62
     7
100
AcDbLine
 10
1782.51480670431
 20
773.9026010479549
 30
0.0
 11
1782.51480670431
 21
792.5307750479548
 31
0.0
  0
LINE
  5
70B2
330
1E
100
AcDbEntity
  8
躯体と製品
  6
DASHED1
 62
     7
100
AcDbLine
 10
1782.51480670431
 20
792.5307750479548
 30
0.0
 11
1783.21480670431
 21
793.2307750479549
 31
0.0
  0
LINE
  5
70B3
330
1E
100
AcDbEntity
  8
躯体と製品
  6
DASHED1
 62
     7
100
AcDbLine
 10
1791.31480670431
 20
802.5307750479548
 30
0.0
 11
1791.31480670431
 21
793.2307750479549
 31
0.0
  0
LINE
  5
70B4
330
1E
100
AcDbEntity
  8
躯体と製品
  6
DASHED1
 62
     7
100
AcDbLine
 10
1783.21480670431
 20
802.5307750479548
 30
0.0
 11
1783.21480670431
 21
793.2307750479549
 31
0.0
  0
LINE
  5
70B5
330
1E
100
AcDbEntity
  8
躯体と製品
  6
Continuous
 62
     4
100
AcDbLine
 10
1772.26480670431
 20
801.1047975196504
 30
0.0
 11
1772.690784232615
 21
801.5307750479554
 31
0.0
  0
LINE
  5
70B6
330
1E
100
AcDbEntity
  8
躯体と製品
  6
Continuous
 62
     4
100
AcDbLine
 10
1773.104997794988
 20
800.530775047955
 30
0.0
 11
1774.104997794988
 21
801.5307750479554
 31
0.0
  0
LINE
  5
70B7
330
1E
100
AcDbEntity
  8
躯体と製品
  6
Continuous
 62
     4
100
AcDbLine
 10
1774.519211357361
 20
800.5307750479548
 30
0.0
 11
1775.519211357361
 21
801.530775047955
 31
0.0
  0
LINE
  5
70B8
330
1E
100
AcDbEntity
  8
躯体と製品
  6
Continuous
 62
     4
100
AcDbLine
 10
1775.933424919735
 20
800.5307750479554
 30
0.0
 11
1776.933424919734
 21
801.530775047955
 31
0.0
  0
LINE
  5
70B9
330
1E
100
AcDbEntity
  8
躯体と製品
  6
Continuous
 62
     4
100
AcDbLine
 10
1777.347638482108
 20
800.530775047955
 30
0.0
 11
1778.347638482108
 21
801.530775047955
 31
0.0
  0
LINE
  5
70BA
330
1E
100
AcDbEntity
  8
躯体と製品
  6
Continuous
 62
     4
100
AcDbLine
 10
1778.761852044481
 20
800.530775047955
 30
0.0
 11
1779.761852044481
 21
801.5307750479548
 31
0.0
  0
LINE
  5
70BB
330
1E
100
AcDbEntity
  8
躯体と製品
  6
Continuous
 62
     4
100
AcDbLine
 10
1780.176065606854
 20
800.530775047955
 30
0.0
 11
1781.176065606854
 21
801.5307750479548
 31
0.0
  0
LINE
  5
70BC
330
1E
100
AcDbEntity
  8
躯体と製品
  6
Continuous
 62
     4
100
AcDbLine
 10
1781.590279169225
 20
800.5307750479547
 30
0.0
 11
1782.590279169226
 21
801.5307750479548
 31
0.0
  0
LINE
  5
70BD
330
1E
100
AcDbEntity
  8
躯体と製品
  6
Continuous
 62
     4
100
AcDbLine
 10
1783.004492731599
 20
800.5307750479547
 30
0.0
 11
1784.004492731599
 21
801.5307750479548
 31
0.0
  0
LINE
  5
70BE
330
1E
100
AcDbEntity
  8
躯体と製品
  6
Continuous
 62
     4
100
AcDbLine
 10
1784.418706293972
 20
800.5307750479543
 30
0.0
 11
1785.418706293972
 21
801.5307750479546
 31
0.0
  0
LINE
  5
70BF
330
1E
100
AcDbEntity
  8
躯体と製品
  6
Continuous
 62
     4
100
AcDbLine
 10
1785.832919856345
 20
800.5307750479541
 30
0.0
 11
1786.832919856345
 21
801.5307750479546
 31
0.0
  0
LINE
  5
70C0
330
1E
100
AcDbEntity
  8
躯体と製品
  6
Continuous
 62
     4
100
AcDbLine
 10
1787.247133418719
 20
800.5307750479548
 30
0.0
 11
1788.247133418719
 21
801.5307750479546
 31
0.0
  0
LINE
  5
70C1
330
1E
100
AcDbEntity
  8
躯体と製品
  6
Continuous
 62
     4
100
AcDbLine
 10
1788.661346981093
 20
800.5307750479547
 30
0.0
 11
1789.661346981092
 21
801.5307750479546
 31
0.0
  0
LINE
  5
70C2
330
1E
100
AcDbEntity
  8
躯体と製品
  6
Continuous
 62
     4
100
AcDbLine
 10
1790.075560543465
 20
800.5307750479547
 30
0.0
 11
1791.075560543465
 21
801.5307750479545
 31
0.0
  0
LINE
  5
70C3
330
1E
100
AcDbEntity
  8
躯体と製品
  6
Continuous
 62
     4
100
AcDbLine
 10
1791.489774105838
 20
800.5307750479547
 30
0.0
 11
1792.489774105838
 21
801.5307750479543
 31
0.0
  0
LINE
  5
70C4
330
1E
100
AcDbEntity
  8
躯体と製品
  6
Continuous
 62
     4
100
AcDbLine
 10
1792.903987668211
 20
800.530775047955
 30
0.0
 11
1793.903987668211
 21
801.530775047955
 31
0.0
  0
LINE
  5
70C5
330
1E
100
AcDbEntity
  8
躯体と製品
  6
Continuous
 62
     4
100
AcDbLine
 10
1794.318201230584
 20
800.5307750479548
 30
0.0
 11
1795.318201230584
 21
801.530775047955
 31
0.0
  0
LINE
  5
70C6
330
1E
100
AcDbEntity
  8
躯体と製品
  6
Continuous
 62
     4
100
AcDbLine
 10
1795.732414792957
 20
800.5307750479547
 30
0.0
 11
1796.732414792957
 21
801.530775047955
 31
0.0
  0
LINE
  5
70C7
330
1E
100
AcDbEntity
  8
躯体と製品
  6
Continuous
 62
     4
100
AcDbLine
 10
1797.14662835533
 20
800.5307750479547
 30
0.0
 11
1798.14662835533
 21
801.5307750479548
 31
0.0
  0
LINE
  5
70C8
330
1E
100
AcDbEntity
  8
躯体と製品
  6
Continuous
 62
     4
100
AcDbLine
 10
1798.560841917704
 20
800.530775047955
 30
0.0
 11
1799.560841917704
 21
801.5307750479548
 31
0.0
  0
LINE
  5
70C9
330
1E
100
AcDbEntity
  8
躯体と製品
  6
Continuous
 62
     4
100
AcDbLine
 10
1799.975055480078
 20
800.5307750479554
 30
0.0
 11
1800.975055480077
 21
801.530775047955
 31
0.0
  0
LINE
  5
70CA
330
1E
100
AcDbEntity
  8
躯体と製品
  6
Continuous
 62
     4
100
AcDbLine
 10
1801.389269042451
 20
800.530775047955
 30
0.0
 11
1802.26480670431
 21
801.4063127098143
 31
0.0
  0
LINE
  5
70CB
330
1E
100
AcDbEntity
  8
躯体と製品
  6
Continuous
 62
     3
100
AcDbLine
 10
1802.26480670431
 20
800.5307750479548
 30
0.0
 11
1772.26480670431
 21
800.5307750479548
 31
0.0
  0
LINE
  5
70CC
330
1E
100
AcDbEntity
  8
躯体と製品
  6
Continuous
 62
     3
100
AcDbLine
 10
1772.26480670431
 20
801.5307750479548
 30
0.0
 11
1802.26480670431
 21
801.5307750479548
 31
0.0
  0
LINE
  5
70CD
330
1E
100
AcDbEntity
  8
躯体と製品
  6
Continuous
 62
     3
100
AcDbLine
 10
1802.26480670431
 20
801.5307750479548
 30
0.0
 11
1802.26480670431
 21
800.5307750479548
 31
0.0
  0
LINE
  5
70CE
330
1E
100
AcDbEntity
  8
躯体と製品
  6
Continuous
 62
     3
100
AcDbLine
 10
1772.26480670431
 20
800.5307750479548
 30
0.0
 11
1772.26480670431
 21
801.5307750479548
 31
0.0
  0
ARC
  5
70CF
330
1E
100
AcDbEntity
  8
躯体と製品
  6
Continuous
 62
     7
100
AcDbCircle
 10
1837.236246930411
 20
799.5311829614943
 30
0.0
 40
1.0
100
AcDbArc
 50
4.999999999999459
 51
88.3634229583817
  0
LINE
  5
70DC
330
1E
100
AcDbEntity
  8
躯体と製品
  6
Continuous
 62
     7
100
AcDbLine
 10
1437.26480670431
 20
800.5307750479548
 30
0.0
 11
1462.26480670431
 21
800.5307750479548
 31
0.0
  0
LINE
  5
70DD
330
1E
100
AcDbEntity
  8
躯体と製品
  6
Continuous
 62
     7
100
AcDbLine
 10
1662.26480670431
 20
800.5307750479548
 30
0.0
 11
1662.26480670431
 21
655.5307750479548
 31
0.0
  0
LINE
  5
70DE
330
1E
100
AcDbEntity
  8
躯体と製品
  6
Continuous
 62
     7
100
AcDbLine
 10
1837.264806704309
 20
800.5307750479548
 30
0.0
 11
1837.264806704309
 21
655.5307750479548
 31
0.0
  0
LINE
  5
70DF
330
1E
100
AcDbEntity
  8
躯体と製品
  6
Continuous
 62
     7
100
AcDbLine
 10
1462.26480670431
 20
800.5307750479548
 30
0.0
 11
1462.26480670431
 21
655.5307750479548
 31
0.0
  0
LINE
  5
70E0
330
1E
100
AcDbEntity
  8
躯体と製品
  6
Continuous
 62
     7
100
AcDbLine
 10
1662.26480670431
 20
800.5307750479548
 30
0.0
 11
1837.264806704309
 21
800.5307750479548
 31
0.0
  0
LINE
  5
70E1
330
1E
100
AcDbEntity
  8
躯体と製品
  6
Continuous
 62
     7
100
AcDbLine
 10
1470.46480670431
 20
875.2941752599486
 30
0.0
 11
1469.015034935805
 21
873.2574715948944
 31
0.0
  0
TEXT
  5
70E2
330
1E
100
AcDbEntity
  8
図枠
 62
     7
100
AcDbText
 10
1875.76480670431
 20
649.4825966136852
 30
0.0
 40
5.0
  1
（単位：mm）
100
AcDbText
  0
TEXT
  5
70E3
330
1E
100
AcDbEntity
  8
図枠
 62
     7
100
AcDbText
 10
1413.76480670431
 20
623.0307750479548
 30
0.0
 40
5.0
  1
ＦＹＫサイドキャップＳ
100
AcDbText
  0
TEXT
  5
70E4
330
1E
100
AcDbEntity
  8
図枠
 62
     7
100
AcDbText
 10
1413.76480670431
 20
632.0307750479549
 30
0.0
 40
5.0
  1
ＦＹＫキャップＳ
100
AcDbText
  0
TEXT
  5
70E5
330
1E
100
AcDbEntity
  8
図枠
 62
     7
100
AcDbText
 10
1513.76480670431
 20
632.0307750479549
 30
0.0
 40
5.0
  1
200ＦＹＫ－Ｓ400～575
100
AcDbText
  0
TEXT
  5
70E6
330
1E
100
AcDbEntity
  8
図枠
 62
     7
100
AcDbText
 10
1513.76480670431
 20
533.0307750479549
 30
0.0
 40
5.0
  1
ＦＳ500～700
100
AcDbText
  0
TEXT
  5
70E7
330
1E
100
AcDbEntity
  8
図枠
 62
     7
100
AcDbText
 10
1513.76480670431
 20
560.0307750479548
 30
0.0
 40
5.0
  1
200ＦＹＫＪ－400～575
100
AcDbText
  0
TEXT
  5
70E8
330
1E
100
AcDbEntity
  8
図枠
 62
     7
100
AcDbText
 10
1513.76480670431
 20
587.0307750479549
 30
0.0
 40
5.0
  1
200ＦＹＫＨ－400～575
100
AcDbText
  0
TEXT
  5
70E9
330
1E
100
AcDbEntity
  8
図枠
 62
     7
100
AcDbText
 10
1398.76480670431
 20
443.0307750479548
 30
0.0
 40
5.0
  1
※
100
AcDbText
  0
TEXT
  5
70EA
330
1E
100
AcDbEntity
  8
図枠
 62
     7
100
AcDbText
 10
1398.51480670431
 20
452.0307750479548
 30
0.0
 40
5.0
  1
21
100
AcDbText
  0
TEXT
  5
70EB
330
1E
100
AcDbEntity
  8
図枠
 62
     7
100
AcDbText
 10
1398.51480670431
 20
461.0307750479549
 30
0.0
 40
5.0
  1
20
100
AcDbText
  0
TEXT
  5
70EC
330
1E
100
AcDbEntity
  8
図枠
 62
     7
100
AcDbText
 10
1398.51480670431
 20
470.0307750479549
 30
0.0
 40
5.0
  1
19
100
AcDbText
  0
TEXT
  5
70ED
330
1E
100
AcDbEntity
  8
図枠
 62
     7
100
AcDbText
 10
1398.51480670431
 20
479.0307750479549
 30
0.0
 40
5.0
  1
18
100
AcDbText
  0
TEXT
  5
70EE
330
1E
100
AcDbEntity
  8
図枠
 62
     7
100
AcDbText
 10
1398.51480670431
 20
488.0307750479549
 30
0.0
 40
5.0
  1
17
100
AcDbText
  0
TEXT
  5
70EF
330
1E
100
AcDbEntity
  8
図枠
 62
     7
100
AcDbText
 10
1398.51480670431
 20
497.0307750479549
 30
0.0
 40
5.0
  1
16
100
AcDbText
  0
TEXT
  5
70F0
330
1E
100
AcDbEntity
  8
図枠
 62
     7
100
AcDbText
 10
1398.51480670431
 20
506.0307750479549
 30
0.0
 40
5.0
  1
15
100
AcDbText
  0
TEXT
  5
70F1
330
1E
100
AcDbEntity
  8
図枠
 62
     7
100
AcDbText
 10
1398.51480670431
 20
515.0307750479548
 30
0.0
 40
5.0
  1
14
100
AcDbText
  0
TEXT
  5
70F2
330
1E
100
AcDbEntity
  8
図枠
 62
     7
100
AcDbText
 10
1398.51480670431
 20
524.0307750479549
 30
0.0
 40
5.0
  1
13
100
AcDbText
  0
TEXT
  5
70F3
330
1E
100
AcDbEntity
  8
図枠
 62
     7
100
AcDbText
 10
1398.51480670431
 20
533.0307750479549
 30
0.0
 40
5.0
  1
12
100
AcDbText
  0
TEXT
  5
70F4
330
1E
100
AcDbEntity
  8
図枠
 62
     7
100
AcDbText
 10
1398.51480670431
 20
542.0307750479548
 30
0.0
 40
5.0
  1
11
100
AcDbText
  0
TEXT
  5
70F5
330
1E
100
AcDbEntity
  8
図枠
 62
     7
100
AcDbText
 10
1398.51480670431
 20
551.0307750479548
 30
0.0
 40
5.0
  1
10
100
AcDbText
  0
TEXT
  5
70F6
330
1E
100
AcDbEntity
  8
図枠
 62
     7
100
AcDbText
 10
1398.51480670431
 20
560.0307750479548
 30
0.0
 40
5.0
  1
 9
100
AcDbText
  0
TEXT
  5
70F7
330
1E
100
AcDbEntity
  8
図枠
 62
     7
100
AcDbText
 10
1398.51480670431
 20
569.0307750479548
 30
0.0
 40
5.0
  1
 8
100
AcDbText
  0
TEXT
  5
70F8
330
1E
100
AcDbEntity
  8
図枠
 62
     7
100
AcDbText
 10
1398.51480670431
 20
578.0307750479549
 30
0.0
 40
5.0
  1
 7
100
AcDbText
  0
TEXT
  5
70F9
330
1E
100
AcDbEntity
  8
図枠
 62
     7
100
AcDbText
 10
1398.51480670431
 20
587.0307750479549
 30
0.0
 40
5.0
  1
 6
100
AcDbText
  0
TEXT
  5
70FA
330
1E
100
AcDbEntity
  8
図枠
 62
     7
100
AcDbText
 10
1398.51480670431
 20
596.0307750479548
 30
0.0
 40
5.0
  1
 5
100
AcDbText
  0
TEXT
  5
70FB
330
1E
100
AcDbEntity
  8
図枠
 62
     7
100
AcDbText
 10
1398.51480670431
 20
605.0307750479548
 30
0.0
 40
5.0
  1
 4
100
AcDbText
  0
TEXT
  5
70FC
330
1E
100
AcDbEntity
  8
図枠
 62
     7
100
AcDbText
 10
1398.51480670431
 20
614.0307750479547
 30
0.0
 40
5.0
  1
 3
100
AcDbText
  0
TEXT
  5
70FD
330
1E
100
AcDbEntity
  8
図枠
 62
     7
100
AcDbText
 10
1398.51480670431
 20
623.0307750479548
 30
0.0
 40
5.0
  1
 2
100
AcDbText
  0
TEXT
  5
70FE
330
1E
100
AcDbEntity
  8
図枠
 62
     7
100
AcDbText
 10
1398.51480670431
 20
632.0307750479549
 30
0.0
 40
5.0
  1
 1
100
AcDbText
  0
TEXT
  5
70FF
330
1E
100
AcDbEntity
  8
図枠
 62
     7
100
AcDbText
 10
1396.76480670431
 20
641.0307750479549
 30
0.0
 40
5.0
  1
No.
100
AcDbText
  0
LINE
  5
7100
330
1E
100
AcDbEntity
  8
図枠
  6
Continuous
 62
     7
100
AcDbLine
 10
1394.76480670431
 20
441.5307750479549
 30
0.0
 11
1394.76480670431
 21
648.5307750479549
 31
0.0
  0
LINE
  5
7101
330
1E
100
AcDbEntity
  8
図枠
  6
Continuous
 62
     7
100
AcDbLine
 10
1603.76480670431
 20
441.5307750479549
 30
0.0
 11
1394.76480670431
 21
441.5307750479549
 31
0.0
  0
LINE
  5
7102
330
1E
100
AcDbEntity
  8
図枠
  6
Continuous
 62
     7
100
AcDbLine
 10
1603.76480670431
 20
450.5307750479548
 30
0.0
 11
1394.76480670431
 21
450.5307750479548
 31
0.0
  0
LINE
  5
7103
330
1E
100
AcDbEntity
  8
図枠
  6
Continuous
 62
     7
100
AcDbLine
 10
1603.76480670431
 20
459.5307750479549
 30
0.0
 11
1394.76480670431
 21
459.5307750479549
 31
0.0
  0
LINE
  5
7104
330
1E
100
AcDbEntity
  8
図枠
  6
Continuous
 62
     7
100
AcDbLine
 10
1603.76480670431
 20
468.530775047955
 30
0.0
 11
1394.76480670431
 21
468.530775047955
 31
0.0
  0
LINE
  5
7105
330
1E
100
AcDbEntity
  8
図枠
  6
Continuous
 62
     7
100
AcDbLine
 10
1603.76480670431
 20
477.5307750479549
 30
0.0
 11
1394.76480670431
 21
477.5307750479549
 31
0.0
  0
LINE
  5
7106
330
1E
100
AcDbEntity
  8
図枠
  6
Continuous
 62
     7
100
AcDbLine
 10
1603.76480670431
 20
486.5307750479549
 30
0.0
 11
1394.76480670431
 21
486.5307750479549
 31
0.0
  0
LINE
  5
7107
330
1E
100
AcDbEntity
  8
図枠
  6
Continuous
 62
     7
100
AcDbLine
 10
1603.76480670431
 20
495.5307750479549
 30
0.0
 11
1394.76480670431
 21
495.5307750479549
 31
0.0
  0
LINE
  5
7108
330
1E
100
AcDbEntity
  8
図枠
  6
Continuous
 62
     7
100
AcDbLine
 10
1603.76480670431
 20
504.5307750479549
 30
0.0
 11
1394.76480670431
 21
504.5307750479549
 31
0.0
  0
LINE
  5
7109
330
1E
100
AcDbEntity
  8
図枠
  6
Continuous
 62
     7
100
AcDbLine
 10
1603.76480670431
 20
513.5307750479548
 30
0.0
 11
1394.76480670431
 21
513.5307750479548
 31
0.0
  0
LINE
  5
710A
330
1E
100
AcDbEntity
  8
図枠
  6
Continuous
 62
     7
100
AcDbLine
 10
1603.76480670431
 20
522.5307750479548
 30
0.0
 11
1394.76480670431
 21
522.5307750479548
 31
0.0
  0
LINE
  5
710B
330
1E
100
AcDbEntity
  8
図枠
  6
Continuous
 62
     7
100
AcDbLine
 10
1603.76480670431
 20
531.5307750479548
 30
0.0
 11
1394.76480670431
 21
531.5307750479548
 31
0.0
  0
LINE
  5
710C
330
1E
100
AcDbEntity
  8
図枠
  6
Continuous
 62
     7
100
AcDbLine
 10
1603.76480670431
 20
540.5307750479549
 30
0.0
 11
1394.76480670431
 21
540.5307750479549
 31
0.0
  0
LINE
  5
710D
330
1E
100
AcDbEntity
  8
図枠
  6
Continuous
 62
     7
100
AcDbLine
 10
1603.76480670431
 20
549.5307750479549
 30
0.0
 11
1394.76480670431
 21
549.5307750479549
 31
0.0
  0
LINE
  5
710E
330
1E
100
AcDbEntity
  8
図枠
  6
Continuous
 62
     7
100
AcDbLine
 10
1603.76480670431
 20
558.5307750479548
 30
0.0
 11
1394.76480670431
 21
558.5307750479548
 31
0.0
  0
LINE
  5
710F
330
1E
100
AcDbEntity
  8
図枠
  6
Continuous
 62
     7
100
AcDbLine
 10
1603.76480670431
 20
567.5307750479548
 30
0.0
 11
1394.76480670431
 21
567.5307750479548
 31
0.0
  0
LINE
  5
7110
330
1E
100
AcDbEntity
  8
図枠
  6
Continuous
 62
     7
100
AcDbLine
 10
1603.76480670431
 20
576.5307750479548
 30
0.0
 11
1394.76480670431
 21
576.5307750479548
 31
0.0
  0
LINE
  5
7111
330
1E
100
AcDbEntity
  8
図枠
  6
Continuous
 62
     7
100
AcDbLine
 10
1603.76480670431
 20
585.5307750479548
 30
0.0
 11
1394.76480670431
 21
585.5307750479548
 31
0.0
  0
LINE
  5
7112
330
1E
100
AcDbEntity
  8
図枠
  6
Continuous
 62
     7
100
AcDbLine
 10
1603.76480670431
 20
594.5307750479549
 30
0.0
 11
1394.76480670431
 21
594.5307750479549
 31
0.0
  0
LINE
  5
7113
330
1E
100
AcDbEntity
  8
図枠
  6
Continuous
 62
     7
100
AcDbLine
 10
1603.76480670431
 20
603.5307750479549
 30
0.0
 11
1394.76480670431
 21
603.5307750479549
 31
0.0
  0
LINE
  5
7114
330
1E
100
AcDbEntity
  8
図枠
  6
Continuous
 62
     7
100
AcDbLine
 10
1603.76480670431
 20
612.5307750479549
 30
0.0
 11
1394.76480670431
 21
612.5307750479549
 31
0.0
  0
LINE
  5
7115
330
1E
100
AcDbEntity
  8
図枠
  6
Continuous
 62
     7
100
AcDbLine
 10
1603.76480670431
 20
621.5307750479548
 30
0.0
 11
1394.76480670431
 21
621.5307750479548
 31
0.0
  0
LINE
  5
7116
330
1E
100
AcDbEntity
  8
図枠
  6
Continuous
 62
     7
100
AcDbLine
 10
1603.76480670431
 20
630.5307750479548
 30
0.0
 11
1394.76480670431
 21
630.5307750479548
 31
0.0
  0
LINE
  5
7117
330
1E
100
AcDbEntity
  8
図枠
  6
Continuous
 62
     7
100
AcDbLine
 10
1603.76480670431
 20
639.5307750479548
 30
0.0
 11
1394.76480670431
 21
639.5307750479548
 31
0.0
  0
LINE
  5
7118
330
1E
100
AcDbEntity
  8
図枠
  6
Continuous
 62
     7
100
AcDbLine
 10
1603.76480670431
 20
648.5307750479549
 30
0.0
 11
1394.76480670431
 21
648.5307750479549
 31
0.0
  0
LINE
  5
7119
330
1E
100
AcDbEntity
  8
図枠
  6
Continuous
 62
     7
100
AcDbLine
 10
1603.76480670431
 20
441.5307750479549
 30
0.0
 11
1603.76480670431
 21
648.5307750479549
 31
0.0
  0
LINE
  5
711A
330
1E
100
AcDbEntity
  8
図枠
  6
Continuous
 62
     7
100
AcDbLine
 10
1508.76480670431
 20
441.5307750479549
 30
0.0
 11
1508.76480670431
 21
648.5307750479549
 31
0.0
  0
LINE
  5
711B
330
1E
100
AcDbEntity
  8
図枠
  6
Continuous
 62
     7
100
AcDbLine
 10
1408.76480670431
 20
441.5307750479549
 30
0.0
 11
1408.76480670431
 21
648.5307750479549
 31
0.0
  0
TEXT
  5
711C
330
1E
100
AcDbEntity
  8
図枠
 62
     7
100
AcDbText
 10
1513.76480670431
 20
443.0307750479548
 30
0.0
 40
5.0
  1
ｔ1.0×ｗ30
100
AcDbText
  0
TEXT
  5
711D
330
1E
100
AcDbEntity
  8
図枠
 62
     7
100
AcDbText
 10
1413.76480670431
 20
443.0307750479548
 30
0.0
 40
5.0
  1
ブチルテープ
100
AcDbText
  0
TEXT
  5
711E
330
1E
100
AcDbEntity
  8
図枠
 62
     7
100
AcDbText
 10
1513.76480670431
 20
452.0307750479548
 30
0.0
 40
5.0
  1
1.5×18×5.5穴
100
AcDbText
  0
TEXT
  5
711F
330
1E
100
AcDbEntity
  8
図枠
 62
     7
100
AcDbText
 10
1413.76480670431
 20
452.0307750479548
 30
0.0
 40
5.0
  1
ステンワッシャー
100
AcDbText
  0
TEXT
  5
7120
330
1E
100
AcDbEntity
  8
図枠
 62
     7
100
AcDbText
 10
1513.76480670431
 20
461.0307750479549
 30
0.0
 40
5.0
  1
1.5×18×6.5穴
100
AcDbText
  0
TEXT
  5
7121
330
1E
100
AcDbEntity
  8
図枠
 62
     7
100
AcDbText
 10
1413.76480670431
 20
461.0307750479549
 30
0.0
 40
5.0
  1
ステスワッシャー
100
AcDbText
  0
TEXT
  5
7122
330
1E
100
AcDbEntity
  8
図枠
 62
     7
100
AcDbText
 10
1513.76480670431
 20
470.0307750479549
 30
0.0
 40
5.0
  1
ナベ 5×50
100
AcDbText
  0
TEXT
  5
7123
330
1E
100
AcDbEntity
  8
図枠
 62
     7
100
AcDbText
 10
1413.76480670431
 20
470.0307750479549
 30
0.0
 40
5.0
  1
ステンタッピンねじ
100
AcDbText
  0
TEXT
  5
7124
330
1E
100
AcDbEntity
  8
図枠
 62
     7
100
AcDbText
 10
1513.76480670431
 20
479.0307750479549
 30
0.0
 40
5.0
  1
フィッシャープラグ　Ｓ8
100
AcDbText
  0
TEXT
  5
7125
330
1E
100
AcDbEntity
  8
図枠
 62
     7
100
AcDbText
 10
1413.76480670431
 20
479.0307750479549
 30
0.0
 40
5.0
  1
アンカープラグ
100
AcDbText
  0
TEXT
  5
7126
330
1E
100
AcDbEntity
  8
図枠
 62
     7
100
AcDbText
 10
1513.76480670431
 20
488.0307750479549
 30
0.0
 40
5.0
  1
ＡＧ－660
100
AcDbText
  0
TEXT
  5
7127
330
1E
100
AcDbEntity
  8
図枠
 62
     7
100
AcDbText
 10
1413.76480670431
 20
488.0307750479549
 30
0.0
 40
5.0
  1
アジャストアンカー
100
AcDbText
  0
TEXT
  5
7128
330
1E
100
AcDbEntity
  8
図枠
 62
     7
100
AcDbText
 10
1513.76480670431
 20
497.0307750479549
 30
0.0
 40
5.0
  1
Ｍ6×40
100
AcDbText
  0
TEXT
  5
7129
330
1E
100
AcDbEntity
  8
図枠
 62
     7
100
AcDbText
 10
1413.76480670431
 20
497.0307750479549
 30
0.0
 40
5.0
  1
ステン六角ボルト
100
AcDbText
  0
TEXT
  5
712A
330
1E
100
AcDbEntity
  8
図枠
 62
     7
100
AcDbText
 10
1513.76480670431
 20
506.0307750479549
 30
0.0
 40
5.0
  1
ナベＭ4×10
100
AcDbText
  0
TEXT
  5
712B
330
1E
100
AcDbEntity
  8
図枠
 62
     7
100
AcDbText
 10
1413.76480670431
 20
506.0307750479549
 30
0.0
 40
5.0
  1
ステン小ネジ
100
AcDbText
  0
TEXT
  5
712C
330
1E
100
AcDbEntity
  8
図枠
 62
     7
100
AcDbText
 10
1513.76480670431
 20
515.0307750479548
 30
0.0
 40
5.0
  1
ナベＭ6×35
100
AcDbText
  0
TEXT
  5
712D
330
1E
100
AcDbEntity
  8
図枠
 62
     7
100
AcDbText
 10
1413.76480670431
 20
515.0307750479548
 30
0.0
 40
5.0
  1
ステン小ネジ
100
AcDbText
  0
TEXT
  5
712E
330
1E
100
AcDbEntity
  8
図枠
 62
     7
100
AcDbText
 10
1413.76480670431
 20
524.0307750479549
 30
0.0
 40
5.0
  1
ガスケットＮ
100
AcDbText
  0
TEXT
  5
712F
330
1E
100
AcDbEntity
  8
図枠
 62
     7
100
AcDbText
 10
1413.76480670431
 20
533.0307750479549
 30
0.0
 40
5.0
  1
止水補助板
100
AcDbText
  0
TEXT
  5
7130
330
1E
100
AcDbEntity
  8
図枠
 62
     7
100
AcDbText
 10
1513.76480670431
 20
542.0307750479548
 30
0.0
 40
5.0
  1
ＰＳ
100
AcDbText
  0
TEXT
  5
7131
330
1E
100
AcDbEntity
  8
図枠
 62
     7
100
AcDbText
 10
1413.76480670431
 20
542.0307750479548
 30
0.0
 40
5.0
  1
止水補助板
100
AcDbText
  0
TEXT
  5
7132
330
1E
100
AcDbEntity
  8
図枠
 62
     7
100
AcDbText
 10
1413.76480670431
 20
551.0307750479548
 30
0.0
 40
5.0
  1
ＦＹＫｻｲﾄﾞｷｬｯﾌﾟ ｼﾞｮｲﾝﾄ
100
AcDbText
  0
TEXT
  5
7133
330
1E
100
AcDbEntity
  8
図枠
 62
     7
100
AcDbText
 10
1413.76480670431
 20
560.0307750479548
 30
0.0
 40
5.0
  1
ＦＹＫ水切ジョイント
100
AcDbText
  0
TEXT
  5
7134
330
1E
100
AcDbEntity
  8
図枠
 62
     7
100
AcDbText
 10
1413.76480670431
 20
569.0307750479548
 30
0.0
 40
5.0
  1
ＦＹＹフレームナット
100
AcDbText
  0
TEXT
  5
7135
330
1E
100
AcDbEntity
  8
図枠
 62
     7
100
AcDbText
 10
1413.76480670431
 20
578.0307750479549
 30
0.0
 40
5.0
  1
ＦＹＹホルダースプリング
100
AcDbText
  0
TEXT
  5
7136
330
1E
100
AcDbEntity
  8
図枠
 62
     7
100
AcDbText
 10
1413.76480670431
 20
587.0307750479549
 30
0.0
 40
5.0
  1
ＦＹＫホルダー
100
AcDbText
  0
TEXT
  5
7137
330
1E
100
AcDbEntity
  8
図枠
 62
     7
100
AcDbText
 10
1413.76480670431
 20
605.0307750479548
 30
0.0
 40
5.0
  1
ＦＹＫ壁フレーム
100
AcDbText
  0
TEXT
  5
7138
330
1E
100
AcDbEntity
  8
図枠
 62
     7
100
AcDbText
 10
1413.76480670431
 20
614.0307750479547
 30
0.0
 40
5.0
  1
ＦＹＹフレーム
100
AcDbText
  0
TEXT
  5
7139
330
1E
100
AcDbEntity
  8
図枠
 62
     7
100
AcDbText
 10
1546.26480670431
 20
641.0307750479549
 30
0.0
 40
5.0
  1
規　格
100
AcDbText
  0
TEXT
  5
713A
330
1E
100
AcDbEntity
  8
図枠
 62
     7
100
AcDbText
 10
1445.26480670431
 20
641.0307750479549
 30
0.0
 40
5.0
  1
部材名称
100
AcDbText
  0
TEXT
  5
713B
330
1E
100
AcDbEntity
  8
図枠
 62
     7
100
AcDbText
 10
1701.51480670431
 20
632.0307750479549
 30
0.0
 40
5.0
  1
200ＦＹＫ－Ｓ400
100
AcDbText
  0
TEXT
  5
713C
330
1E
100
AcDbEntity
  8
図枠
 62
     7
100
AcDbText
 10
1896.76480670431
 20
569.0307750479548
 30
0.0
 40
5.0
  1
131
100
AcDbText
  0
TEXT
  5
713D
330
1E
100
AcDbEntity
  8
図枠
 62
     7
100
AcDbText
 10
1868.51480670431
 20
569.0307750479548
 30
0.0
 40
5.0
  1
72
100
AcDbText
  0
LINE
  5
713E
330
1E
100
AcDbEntity
  8
図枠
  6
Continuous
 62
     7
100
AcDbLine
 10
1886.76480670431
 20
648.5307750479549
 30
0.0
 11
1886.76480670431
 21
567.5307750479548
 31
0.0
  0
LINE
  5
713F
330
1E
100
AcDbEntity
  8
図枠
  6
Continuous
 62
     7
100
AcDbLine
 10
1856.76480670431
 20
648.5307750479549
 30
0.0
 11
1856.76480670431
 21
567.5307750479548
 31
0.0
  0
LINE
  5
7140
330
1E
100
AcDbEntity
  8
図枠
  6
Continuous
 62
     7
100
AcDbLine
 10
1826.76480670431
 20
648.5307750479549
 30
0.0
 11
1826.76480670431
 21
567.5307750479548
 31
0.0
  0
LINE
  5
7141
330
1E
100
AcDbEntity
  8
図枠
  6
Continuous
 62
     7
100
AcDbLine
 10
1916.76480670431
 20
648.5307750479549
 30
0.0
 11
1916.76480670431
 21
567.5307750479548
 31
0.0
  0
TEXT
  5
7142
330
1E
100
AcDbEntity
  8
図枠
 62
     7
100
AcDbText
 10
1896.76480670431
 20
578.0307750479549
 30
0.0
 40
5.0
  1
130
100
AcDbText
  0
TEXT
  5
7143
330
1E
100
AcDbEntity
  8
図枠
 62
     7
100
AcDbText
 10
1868.51480670431
 20
578.0307750479549
 30
0.0
 40
5.0
  1
71
100
AcDbText
  0
TEXT
  5
7144
330
1E
100
AcDbEntity
  8
図枠
 62
     7
100
AcDbText
 10
1896.76480670431
 20
587.0307750479549
 30
0.0
 40
5.0
  1
128
100
AcDbText
  0
TEXT
  5
7145
330
1E
100
AcDbEntity
  8
図枠
 62
     7
100
AcDbText
 10
1896.76480670431
 20
596.0307750479548
 30
0.0
 40
5.0
  1
127
100
AcDbText
  0
TEXT
  5
7146
330
1E
100
AcDbEntity
  8
図枠
 62
     7
100
AcDbText
 10
1896.76480670431
 20
605.0307750479548
 30
0.0
 40
5.0
  1
126
100
AcDbText
  0
TEXT
  5
7147
330
1E
100
AcDbEntity
  8
図枠
 62
     7
100
AcDbText
 10
1896.76480670431
 20
614.0307750479547
 30
0.0
 40
5.0
  1
124
100
AcDbText
  0
TEXT
  5
7148
330
1E
100
AcDbEntity
  8
図枠
 62
     7
100
AcDbText
 10
1896.76480670431
 20
623.0307750479548
 30
0.0
 40
5.0
  1
123
100
AcDbText
  0
TEXT
  5
7149
330
1E
100
AcDbEntity
  8
図枠
 62
     7
100
AcDbText
 10
1896.76480670431
 20
632.0307750479549
 30
0.0
 40
5.0
  1
122
100
AcDbText
  0
TEXT
  5
714A
330
1E
100
AcDbEntity
  8
図枠
 62
     7
100
AcDbText
 10
1868.51480670431
 20
587.0307750479549
 30
0.0
 40
5.0
  1
70
100
AcDbText
  0
TEXT
  5
714B
330
1E
100
AcDbEntity
  8
図枠
 62
     7
100
AcDbText
 10
1868.51480670431
 20
596.0307750479548
 30
0.0
 40
5.0
  1
68
100
AcDbText
  0
TEXT
  5
714C
330
1E
100
AcDbEntity
  8
図枠
 62
     7
100
AcDbText
 10
1868.51480670431
 20
605.0307750479548
 30
0.0
 40
5.0
  1
67
100
AcDbText
  0
TEXT
  5
714D
330
1E
100
AcDbEntity
  8
図枠
 62
     7
100
AcDbText
 10
1868.51480670431
 20
614.0307750479547
 30
0.0
 40
5.0
  1
66
100
AcDbText
  0
TEXT
  5
714E
330
1E
100
AcDbEntity
  8
図枠
 62
     7
100
AcDbText
 10
1868.51480670431
 20
623.0307750479548
 30
0.0
 40
5.0
  1
64
100
AcDbText
  0
TEXT
  5
714F
330
1E
100
AcDbEntity
  8
図枠
 62
     7
100
AcDbText
 10
1868.51480670431
 20
632.0307750479549
 30
0.0
 40
5.0
  1
63
100
AcDbText
  0
TEXT
  5
7150
330
1E
100
AcDbEntity
  8
図枠
 62
     7
100
AcDbText
 10
1836.76480670431
 20
569.0307750479548
 30
0.0
 40
5.0
  1
275
100
AcDbText
  0
TEXT
  5
7151
330
1E
100
AcDbEntity
  8
図枠
 62
     7
100
AcDbText
 10
1836.76480670431
 20
578.0307750479549
 30
0.0
 40
5.0
  1
250
100
AcDbText
  0
TEXT
  5
7152
330
1E
100
AcDbEntity
  8
図枠
 62
     7
100
AcDbText
 10
1836.76480670431
 20
587.0307750479549
 30
0.0
 40
5.0
  1
225
100
AcDbText
  0
TEXT
  5
7153
330
1E
100
AcDbEntity
  8
図枠
 62
     7
100
AcDbText
 10
1836.76480670431
 20
596.0307750479548
 30
0.0
 40
5.0
  1
200
100
AcDbText
  0
TEXT
  5
7154
330
1E
100
AcDbEntity
  8
図枠
 62
     7
100
AcDbText
 10
1836.76480670431
 20
605.0307750479548
 30
0.0
 40
5.0
  1
175
100
AcDbText
  0
TEXT
  5
7155
330
1E
100
AcDbEntity
  8
図枠
 62
     7
100
AcDbText
 10
1836.76480670431
 20
614.0307750479547
 30
0.0
 40
5.0
  1
150
100
AcDbText
  0
TEXT
  5
7156
330
1E
100
AcDbEntity
  8
図枠
 62
     7
100
AcDbText
 10
1836.76480670431
 20
623.0307750479548
 30
0.0
 40
5.0
  1
125
100
AcDbText
  0
TEXT
  5
7157
330
1E
100
AcDbEntity
  8
図枠
 62
     7
100
AcDbText
 10
1836.76480670431
 20
632.0307750479549
 30
0.0
 40
5.0
  1
100
100
AcDbText
  0
TEXT
  5
7158
330
1E
100
AcDbEntity
  8
図枠
 62
     7
100
AcDbText
 10
1898.76480670431
 20
641.0307750479549
 30
0.0
 40
5.0
  1
Ｅ
100
AcDbText
  0
TEXT
  5
7159
330
1E
100
AcDbEntity
  8
図枠
 62
     7
100
AcDbText
 10
1868.76480670431
 20
641.0307750479549
 30
0.0
 40
5.0
  1
Ｄ
100
AcDbText
  0
TEXT
  5
715A
330
1E
100
AcDbEntity
  8
図枠
 62
     7
100
AcDbText
 10
1838.76480670431
 20
641.0307750479549
 30
0.0
 40
5.0
  1
Ｃ
100
AcDbText
  0
LINE
  5
715B
330
1E
100
AcDbEntity
  8
図枠
  6
Continuous
 62
     7
100
AcDbLine
 10
1916.76480670431
 20
567.5307750479548
 30
0.0
 11
1691.76480670431
 21
567.5307750479548
 31
0.0
  0
LINE
  5
715C
330
1E
100
AcDbEntity
  8
図枠
  6
Continuous
 62
     7
100
AcDbLine
 10
1916.76480670431
 20
576.5307750479548
 30
0.0
 11
1691.76480670431
 21
576.5307750479548
 31
0.0
  0
LINE
  5
715D
330
1E
100
AcDbEntity
  8
図枠
  6
Continuous
 62
     7
100
AcDbLine
 10
1916.76480670431
 20
585.5307750479548
 30
0.0
 11
1691.76480670431
 21
585.5307750479548
 31
0.0
  0
LINE
  5
715E
330
1E
100
AcDbEntity
  8
図枠
  6
Continuous
 62
     7
100
AcDbLine
 10
1916.76480670431
 20
594.5307750479549
 30
0.0
 11
1691.76480670431
 21
594.5307750479549
 31
0.0
  0
LINE
  5
715F
330
1E
100
AcDbEntity
  8
図枠
  6
Continuous
 62
     7
100
AcDbLine
 10
1916.76480670431
 20
603.5307750479549
 30
0.0
 11
1691.76480670431
 21
603.5307750479549
 31
0.0
  0
LINE
  5
7160
330
1E
100
AcDbEntity
  8
図枠
  6
Continuous
 62
     7
100
AcDbLine
 10
1916.76480670431
 20
621.5307750479548
 30
0.0
 11
1691.76480670431
 21
621.5307750479548
 31
0.0
  0
LINE
  5
7161
330
1E
100
AcDbEntity
  8
図枠
  6
Continuous
 62
     7
100
AcDbLine
 10
1916.76480670431
 20
639.5307750479548
 30
0.0
 11
1691.76480670431
 21
639.5307750479548
 31
0.0
  0
LINE
  5
7162
330
1E
100
AcDbEntity
  8
図枠
  6
Continuous
 62
     7
100
AcDbLine
 10
1916.76480670431
 20
648.5307750479549
 30
0.0
 11
1691.76480670431
 21
648.5307750479549
 31
0.0
  0
LINE
  5
7163
330
1E
100
AcDbEntity
  8
図枠
  6
Continuous
 62
     7
100
AcDbLine
 10
1916.76480670431
 20
630.5307750479548
 30
0.0
 11
1691.76480670431
 21
630.5307750479548
 31
0.0
  0
LINE
  5
7164
330
1E
100
AcDbEntity
  8
図枠
  6
Continuous
 62
     7
100
AcDbLine
 10
1916.76480670431
 20
612.5307750479549
 30
0.0
 11
1691.76480670431
 21
612.5307750479549
 31
0.0
  0
TEXT
  5
7165
330
1E
100
AcDbEntity
  8
図枠
 62
     7
100
AcDbText
 10
1806.76480670431
 20
569.0307750479548
 30
0.0
 40
5.0
  1
560
100
AcDbText
  0
TEXT
  5
7166
330
1E
100
AcDbEntity
  8
図枠
 62
     7
100
AcDbText
 10
1776.76480670431
 20
569.0307750479548
 30
0.0
 40
5.0
  1
575
100
AcDbText
  0
LINE
  5
7167
330
1E
100
AcDbEntity
  8
図枠
  6
Continuous
 62
     7
100
AcDbLine
 10
1766.76480670431
 20
648.5307750479549
 30
0.0
 11
1766.76480670431
 21
567.5307750479548
 31
0.0
  0
LINE
  5
7168
330
1E
100
AcDbEntity
  8
図枠
  6
Continuous
 62
     7
100
AcDbLine
 10
1796.76480670431
 20
648.5307750479549
 30
0.0
 11
1796.76480670431
 21
567.5307750479548
 31
0.0
  0
LINE
  5
7169
330
1E
100
AcDbEntity
  8
図枠
  6
Continuous
 62
     7
100
AcDbLine
 10
1691.76480670431
 20
648.5307750479549
 30
0.0
 11
1691.76480670431
 21
567.5307750479548
 31
0.0
  0
TEXT
  5
716A
330
1E
100
AcDbEntity
  8
図枠
 62
     7
100
AcDbText
 10
1806.76480670431
 20
578.0307750479549
 30
0.0
 40
5.0
  1
535
100
AcDbText
  0
TEXT
  5
716B
330
1E
100
AcDbEntity
  8
図枠
 62
     7
100
AcDbText
 10
1776.76480670431
 20
578.0307750479549
 30
0.0
 40
5.0
  1
550
100
AcDbText
  0
TEXT
  5
716C
330
1E
100
AcDbEntity
  8
図枠
 62
     7
100
AcDbText
 10
1806.76480670431
 20
587.0307750479549
 30
0.0
 40
5.0
  1
510
100
AcDbText
  0
TEXT
  5
716D
330
1E
100
AcDbEntity
  8
図枠
 62
     7
100
AcDbText
 10
1806.76480670431
 20
596.0307750479548
 30
0.0
 40
5.0
  1
485
100
AcDbText
  0
TEXT
  5
716E
330
1E
100
AcDbEntity
  8
図枠
 62
     7
100
AcDbText
 10
1806.76480670431
 20
605.0307750479548
 30
0.0
 40
5.0
  1
460
100
AcDbText
  0
TEXT
  5
716F
330
1E
100
AcDbEntity
  8
図枠
 62
     7
100
AcDbText
 10
1806.76480670431
 20
614.0307750479547
 30
0.0
 40
5.0
  1
435
100
AcDbText
  0
TEXT
  5
7170
330
1E
100
AcDbEntity
  8
図枠
 62
     7
100
AcDbText
 10
1806.76480670431
 20
623.0307750479548
 30
0.0
 40
5.0
  1
410
100
AcDbText
  0
TEXT
  5
7171
330
1E
100
AcDbEntity
  8
図枠
 62
     7
100
AcDbText
 10
1806.76480670431
 20
632.0307750479549
 30
0.0
 40
5.0
  1
385
100
AcDbText
  0
TEXT
  5
7172
330
1E
100
AcDbEntity
  8
図枠
 62
     7
100
AcDbText
 10
1776.76480670431
 20
587.0307750479549
 30
0.0
 40
5.0
  1
525
100
AcDbText
  0
TEXT
  5
7173
330
1E
100
AcDbEntity
  8
図枠
 62
     7
100
AcDbText
 10
1776.76480670431
 20
596.0307750479548
 30
0.0
 40
5.0
  1
500
100
AcDbText
  0
TEXT
  5
7174
330
1E
100
AcDbEntity
  8
図枠
 62
     7
100
AcDbText
 10
1776.76480670431
 20
605.0307750479548
 30
0.0
 40
5.0
  1
475
100
AcDbText
  0
TEXT
  5
7175
330
1E
100
AcDbEntity
  8
図枠
 62
     7
100
AcDbText
 10
1776.76480670431
 20
614.0307750479547
 30
0.0
 40
5.0
  1
450
100
AcDbText
  0
TEXT
  5
7176
330
1E
100
AcDbEntity
  8
図枠
 62
     7
100
AcDbText
 10
1776.76480670431
 20
623.0307750479548
 30
0.0
 40
5.0
  1
425
100
AcDbText
  0
TEXT
  5
7177
330
1E
100
AcDbEntity
  8
図枠
 62
     7
100
AcDbText
 10
1776.76480670431
 20
632.0307750479549
 30
0.0
 40
5.0
  1
400
100
AcDbText
  0
TEXT
  5
7178
330
1E
100
AcDbEntity
  8
図枠
 62
     7
100
AcDbText
 10
1701.51480670431
 20
569.0307750479548
 30
0.0
 40
5.0
  1
　　  〃　 　575
100
AcDbText
  0
TEXT
  5
7179
330
1E
100
AcDbEntity
  8
図枠
 62
     7
100
AcDbText
 10
1701.51480670431
 20
578.0307750479549
 30
0.0
 40
5.0
  1
　　  〃　 　550
100
AcDbText
  0
TEXT
  5
717A
330
1E
100
AcDbEntity
  8
図枠
 62
     7
100
AcDbText
 10
1701.51480670431
 20
587.0307750479549
 30
0.0
 40
5.0
  1
　　  〃　 　525
100
AcDbText
  0
TEXT
  5
717B
330
1E
100
AcDbEntity
  8
図枠
 62
     7
100
AcDbText
 10
1701.51480670431
 20
596.0307750479548
 30
0.0
 40
5.0
  1
　　  〃　 　500
100
AcDbText
  0
TEXT
  5
717C
330
1E
100
AcDbEntity
  8
図枠
 62
     7
100
AcDbText
 10
1701.51480670431
 20
605.0307750479548
 30
0.0
 40
5.0
  1
　　  〃　 　475
100
AcDbText
  0
TEXT
  5
717D
330
1E
100
AcDbEntity
  8
図枠
 62
     7
100
AcDbText
 10
1701.51480670431
 20
614.0307750479547
 30
0.0
 40
5.0
  1
　　  〃　 　450
100
AcDbText
  0
TEXT
  5
717E
330
1E
100
AcDbEntity
  8
図枠
 62
     7
100
AcDbText
 10
1701.51480670431
 20
623.0307750479548
 30
0.0
 40
5.0
  1
　　  〃　 　425
100
AcDbText
  0
TEXT
  5
717F
330
1E
100
AcDbEntity
  8
図枠
 62
     7
100
AcDbText
 10
1778.76480670431
 20
641.0307750479549
 30
0.0
 40
5.0
  1
Ｗ
100
AcDbText
  0
TEXT
  5
7180
330
1E
100
AcDbEntity
  8
図枠
 62
     7
100
AcDbText
 10
1808.76480670431
 20
641.0307750479549
 30
0.0
 40
5.0
  1
Ａ
100
AcDbText
  0
TEXT
  5
7181
330
1E
100
AcDbEntity
  8
図枠
 62
     7
100
AcDbText
 10
1712.264806704309
 20
641.0307750479549
 30
0.0
 40
5.0
  1
タ　イ　プ
100
AcDbText
  0
TEXT
  5
7182
330
1E
100
AcDbEntity
  8
図枠
 62
     7
100
AcDbText
 10
1658.26480670431
 20
641.0307750479549
 30
0.0
 40
5.0
  1
単位
100
AcDbText
  0
TEXT
  5
7183
330
1E
100
AcDbEntity
  8
図枠
 62
     7
100
AcDbText
 10
1661.76480670431
 20
443.0307750479548
 30
0.0
 40
5.0
  1
巻
100
AcDbText
  0
TEXT
  5
7184
330
1E
100
AcDbEntity
  8
図枠
 62
     7
100
AcDbText
 10
1661.76480670431
 20
452.0307750479548
 30
0.0
 40
5.0
  1
〃
100
AcDbText
  0
TEXT
  5
7185
330
1E
100
AcDbEntity
  8
図枠
 62
     7
100
AcDbText
 10
1661.76480670431
 20
461.0307750479549
 30
0.0
 40
5.0
  1
枚
100
AcDbText
  0
TEXT
  5
7186
330
1E
100
AcDbEntity
  8
図枠
 62
     7
100
AcDbText
 10
1661.76480670431
 20
470.0307750479549
 30
0.0
 40
5.0
  1
〃
100
AcDbText
  0
TEXT
  5
7187
330
1E
100
AcDbEntity
  8
図枠
 62
     7
100
AcDbText
 10
1661.76480670431
 20
479.0307750479549
 30
0.0
 40
5.0
  1
〃
100
AcDbText
  0
TEXT
  5
7188
330
1E
100
AcDbEntity
  8
図枠
 62
     7
100
AcDbText
 10
1661.76480670431
 20
488.0307750479549
 30
0.0
 40
5.0
  1
〃
100
AcDbText
  0
TEXT
  5
7189
330
1E
100
AcDbEntity
  8
図枠
 62
     7
100
AcDbText
 10
1661.76480670431
 20
497.0307750479549
 30
0.0
 40
5.0
  1
〃
100
AcDbText
  0
TEXT
  5
718A
330
1E
100
AcDbEntity
  8
図枠
 62
     7
100
AcDbText
 10
1661.76480670431
 20
506.0307750479549
 30
0.0
 40
5.0
  1
〃
100
AcDbText
  0
TEXT
  5
718B
330
1E
100
AcDbEntity
  8
図枠
 62
     7
100
AcDbText
 10
1661.76480670431
 20
515.0307750479548
 30
0.0
 40
5.0
  1
〃
100
AcDbText
  0
TEXT
  5
718C
330
1E
100
AcDbEntity
  8
図枠
 62
     7
100
AcDbText
 10
1661.76480670431
 20
524.0307750479549
 30
0.0
 40
5.0
  1
本
100
AcDbText
  0
TEXT
  5
718D
330
1E
100
AcDbEntity
  8
図枠
 62
     7
100
AcDbText
 10
1661.76480670431
 20
533.0307750479549
 30
0.0
 40
5.0
  1
〃
100
AcDbText
  0
TEXT
  5
718E
330
1E
100
AcDbEntity
  8
図枠
 62
     7
100
AcDbText
 10
1661.76480670431
 20
542.0307750479548
 30
0.0
 40
5.0
  1
枚
100
AcDbText
  0
TEXT
  5
718F
330
1E
100
AcDbEntity
  8
図枠
 62
     7
100
AcDbText
 10
1661.76480670431
 20
551.0307750479548
 30
0.0
 40
5.0
  1
〃
100
AcDbText
  0
TEXT
  5
7190
330
1E
100
AcDbEntity
  8
図枠
 62
     7
100
AcDbText
 10
1661.76480670431
 20
560.0307750479548
 30
0.0
 40
5.0
  1
〃
100
AcDbText
  0
TEXT
  5
7191
330
1E
100
AcDbEntity
  8
図枠
 62
     7
100
AcDbText
 10
1661.76480670431
 20
569.0307750479548
 30
0.0
 40
5.0
  1
〃
100
AcDbText
  0
TEXT
  5
7192
330
1E
100
AcDbEntity
  8
図枠
 62
     7
100
AcDbText
 10
1661.76480670431
 20
578.0307750479549
 30
0.0
 40
5.0
  1
〃
100
AcDbText
  0
TEXT
  5
7193
330
1E
100
AcDbEntity
  8
図枠
 62
     7
100
AcDbText
 10
1661.76480670431
 20
587.0307750479549
 30
0.0
 40
5.0
  1
〃
100
AcDbText
  0
TEXT
  5
7194
330
1E
100
AcDbEntity
  8
図枠
 62
     7
100
AcDbText
 10
1661.76480670431
 20
596.0307750479548
 30
0.0
 40
5.0
  1
〃
100
AcDbText
  0
TEXT
  5
7195
330
1E
100
AcDbEntity
  8
図枠
 62
     7
100
AcDbText
 10
1661.76480670431
 20
605.0307750479548
 30
0.0
 40
5.0
  1
〃
100
AcDbText
  0
TEXT
  5
7196
330
1E
100
AcDbEntity
  8
図枠
 62
     7
100
AcDbText
 10
1661.76480670431
 20
614.0307750479547
 30
0.0
 40
5.0
  1
〃
100
AcDbText
  0
TEXT
  5
7197
330
1E
100
AcDbEntity
  8
図枠
 62
     7
100
AcDbText
 10
1661.76480670431
 20
623.0307750479548
 30
0.0
 40
5.0
  1
〃
100
AcDbText
  0
TEXT
  5
7198
330
1E
100
AcDbEntity
  8
図枠
 62
     7
100
AcDbText
 10
1661.76480670431
 20
632.0307750479549
 30
0.0
 40
5.0
  1
本
100
AcDbText
  0
TEXT
  5
7199
330
1E
100
AcDbEntity
  8
図枠
 62
     7
100
AcDbText
 10
1645.51480670431
 20
443.0307750479548
 30
0.0
 40
5.0
  1
 1
100
AcDbText
  0
TEXT
  5
719A
330
1E
100
AcDbEntity
  8
図枠
 62
     7
100
AcDbText
 10
1645.51480670431
 20
452.0307750479548
 30
0.0
 40
5.0
  1
 5
100
AcDbText
  0
TEXT
  5
719B
330
1E
100
AcDbEntity
  8
図枠
 62
     7
100
AcDbText
 10
1645.51480670431
 20
461.0307750479549
 30
0.0
 40
5.0
  1
 5
100
AcDbText
  0
TEXT
  5
719C
330
1E
100
AcDbEntity
  8
図枠
 62
     7
100
AcDbText
 10
1645.51480670431
 20
470.0307750479549
 30
0.0
 40
5.0
  1
 5
100
AcDbText
  0
TEXT
  5
719D
330
1E
100
AcDbEntity
  8
図枠
 62
     7
100
AcDbText
 10
1645.51480670431
 20
479.0307750479549
 30
0.0
 40
5.0
  1
 5
100
AcDbText
  0
TEXT
  5
719E
330
1E
100
AcDbEntity
  8
図枠
 62
     7
100
AcDbText
 10
1645.51480670431
 20
488.0307750479549
 30
0.0
 40
5.0
  1
 5
100
AcDbText
  0
TEXT
  5
719F
330
1E
100
AcDbEntity
  8
図枠
 62
     7
100
AcDbText
 10
1645.51480670431
 20
497.0307750479549
 30
0.0
 40
5.0
  1
 5
100
AcDbText
  0
TEXT
  5
71A0
330
1E
100
AcDbEntity
  8
図枠
 62
     7
100
AcDbText
 10
1645.51480670431
 20
506.0307750479549
 30
0.0
 40
5.0
  1
 5
100
AcDbText
  0
TEXT
  5
71A1
330
1E
100
AcDbEntity
  8
図枠
 62
     7
100
AcDbText
 10
1645.51480670431
 20
515.0307750479548
 30
0.0
 40
5.0
  1
 4
100
AcDbText
  0
TEXT
  5
71A2
330
1E
100
AcDbEntity
  8
図枠
 62
     7
100
AcDbText
 10
1645.51480670431
 20
524.0307750479549
 30
0.0
 40
5.0
  1
 1
100
AcDbText
  0
TEXT
  5
71A3
330
1E
100
AcDbEntity
  8
図枠
 62
     7
100
AcDbText
 10
1645.51480670431
 20
533.0307750479549
 30
0.0
 40
5.0
  1
 1
100
AcDbText
  0
TEXT
  5
71A4
330
1E
100
AcDbEntity
  8
図枠
 62
     7
100
AcDbText
 10
1645.51480670431
 20
542.0307750479548
 30
0.0
 40
5.0
  1
 1
100
AcDbText
  0
TEXT
  5
71A5
330
1E
100
AcDbEntity
  8
図枠
 62
     7
100
AcDbText
 10
1645.51480670431
 20
551.0307750479548
 30
0.0
 40
5.0
  1
 1
100
AcDbText
  0
TEXT
  5
71A6
330
1E
100
AcDbEntity
  8
図枠
 62
     7
100
AcDbText
 10
1645.51480670431
 20
560.0307750479548
 30
0.0
 40
5.0
  1
 1
100
AcDbText
  0
TEXT
  5
71A7
330
1E
100
AcDbEntity
  8
図枠
 62
     7
100
AcDbText
 10
1645.51480670431
 20
569.0307750479548
 30
0.0
 40
5.0
  1
 4
100
AcDbText
  0
TEXT
  5
71A8
330
1E
100
AcDbEntity
  8
図枠
 62
     7
100
AcDbText
 10
1645.51480670431
 20
578.0307750479549
 30
0.0
 40
5.0
  1
 4
100
AcDbText
  0
TEXT
  5
71A9
330
1E
100
AcDbEntity
  8
図枠
 62
     7
100
AcDbText
 10
1645.51480670431
 20
587.0307750479549
 30
0.0
 40
5.0
  1
 4
100
AcDbText
  0
TEXT
  5
71AA
330
1E
100
AcDbEntity
  8
図枠
 62
     7
100
AcDbText
 10
1645.51480670431
 20
596.0307750479548
 30
0.0
 40
5.0
  1
 1
100
AcDbText
  0
TEXT
  5
71AB
330
1E
100
AcDbEntity
  8
図枠
 62
     7
100
AcDbText
 10
1645.51480670431
 20
605.0307750479548
 30
0.0
 40
5.0
  1
 1
100
AcDbText
  0
TEXT
  5
71AC
330
1E
100
AcDbEntity
  8
図枠
 62
     7
100
AcDbText
 10
1645.51480670431
 20
614.0307750479547
 30
0.0
 40
5.0
  1
 1
100
AcDbText
  0
TEXT
  5
71AD
330
1E
100
AcDbEntity
  8
図枠
 62
     7
100
AcDbText
 10
1645.51480670431
 20
623.0307750479548
 30
0.0
 40
5.0
  1
 1
100
AcDbText
  0
TEXT
  5
71AE
330
1E
100
AcDbEntity
  8
図枠
 62
     7
100
AcDbText
 10
1645.51480670431
 20
632.0307750479549
 30
0.0
 40
5.0
  1
 1
100
AcDbText
  0
TEXT
  5
71AF
330
1E
100
AcDbEntity
  8
図枠
 62
     7
100
AcDbText
 10
1642.26480670431
 20
641.0307750479549
 30
0.0
 40
5.0
  1
入数
100
AcDbText
  0
TEXT
  5
71B0
330
1E
100
AcDbEntity
  8
図枠
 62
     7
100
AcDbText
 10
1615.51480670431
 20
443.0307750479548
 30
0.0
 40
5.0
  1
6000
100
AcDbText
  0
TEXT
  5
71B1
330
1E
100
AcDbEntity
  8
図枠
 62
     7
100
AcDbText
 10
1615.51480670431
 20
524.0307750479549
 30
0.0
 40
5.0
  1
2000
100
AcDbText
  0
TEXT
  5
71B2
330
1E
100
AcDbEntity
  8
図枠
 62
     7
100
AcDbText
 10
1615.51480670431
 20
533.0307750479549
 30
0.0
 40
5.0
  1
2100
100
AcDbText
  0
TEXT
  5
71B3
330
1E
100
AcDbEntity
  8
図枠
 62
     7
100
AcDbText
 10
1615.51480670431
 20
542.0307750479548
 30
0.0
 40
5.0
  1
2060
100
AcDbText
  0
TEXT
  5
71B4
330
1E
100
AcDbEntity
  8
図枠
 62
     7
100
AcDbText
 10
1615.51480670431
 20
596.0307750479548
 30
0.0
 40
5.0
  1
2010
100
AcDbText
  0
TEXT
  5
71B5
330
1E
100
AcDbEntity
  8
図枠
 62
     7
100
AcDbText
 10
1615.51480670431
 20
605.0307750479548
 30
0.0
 40
5.0
  1
2000
100
AcDbText
  0
TEXT
  5
71B6
330
1E
100
AcDbEntity
  8
図枠
 62
     7
100
AcDbText
 10
1615.51480670431
 20
614.0307750479547
 30
0.0
 40
5.0
  1
2000
100
AcDbText
  0
TEXT
  5
71B7
330
1E
100
AcDbEntity
  8
図枠
 62
     7
100
AcDbText
 10
1615.51480670431
 20
623.0307750479548
 30
0.0
 40
5.0
  1
2000
100
AcDbText
  0
TEXT
  5
71B8
330
1E
100
AcDbEntity
  8
図枠
 62
     7
100
AcDbText
 10
1615.51480670431
 20
632.0307750479549
 30
0.0
 40
5.0
  1
2000
100
AcDbText
  0
TEXT
  5
71B9
330
1E
100
AcDbEntity
  8
図枠
 62
     7
100
AcDbText
 10
1608.51480670431
 20
641.0307750479549
 30
0.0
 40
5.0
  1
定尺(mm)
100
AcDbText
  0
LINE
  5
71BA
330
1E
100
AcDbEntity
  8
図枠
  6
Continuous
 62
     7
100
AcDbLine
 10
1671.76480670431
 20
441.5307750479549
 30
0.0
 11
1671.76480670431
 21
648.5307750479549
 31
0.0
  0
LINE
  5
71BB
330
1E
100
AcDbEntity
  8
図枠
  6
Continuous
 62
     7
100
AcDbLine
 10
1604.76480670431
 20
441.5307750479549
 30
0.0
 11
1671.76480670431
 21
441.5307750479549
 31
0.0
  0
LINE
  5
71BC
330
1E
100
AcDbEntity
  8
図枠
  6
Continuous
 62
     7
100
AcDbLine
 10
1604.76480670431
 20
450.5307750479548
 30
0.0
 11
1671.76480670431
 21
450.5307750479548
 31
0.0
  0
LINE
  5
71BD
330
1E
100
AcDbEntity
  8
図枠
  6
Continuous
 62
     7
100
AcDbLine
 10
1604.76480670431
 20
459.5307750479549
 30
0.0
 11
1671.76480670431
 21
459.5307750479549
 31
0.0
  0
LINE
  5
71BE
330
1E
100
AcDbEntity
  8
図枠
  6
Continuous
 62
     7
100
AcDbLine
 10
1604.76480670431
 20
468.530775047955
 30
0.0
 11
1671.76480670431
 21
468.530775047955
 31
0.0
  0
LINE
  5
71BF
330
1E
100
AcDbEntity
  8
図枠
  6
Continuous
 62
     7
100
AcDbLine
 10
1604.76480670431
 20
477.5307750479549
 30
0.0
 11
1671.76480670431
 21
477.5307750479549
 31
0.0
  0
LINE
  5
71C0
330
1E
100
AcDbEntity
  8
図枠
  6
Continuous
 62
     7
100
AcDbLine
 10
1604.76480670431
 20
486.5307750479549
 30
0.0
 11
1671.76480670431
 21
486.5307750479549
 31
0.0
  0
LINE
  5
71C1
330
1E
100
AcDbEntity
  8
図枠
  6
Continuous
 62
     7
100
AcDbLine
 10
1604.76480670431
 20
495.5307750479549
 30
0.0
 11
1671.76480670431
 21
495.5307750479549
 31
0.0
  0
LINE
  5
71C2
330
1E
100
AcDbEntity
  8
図枠
  6
Continuous
 62
     7
100
AcDbLine
 10
1604.76480670431
 20
504.5307750479549
 30
0.0
 11
1671.76480670431
 21
504.5307750479549
 31
0.0
  0
LINE
  5
71C3
330
1E
100
AcDbEntity
  8
図枠
  6
Continuous
 62
     7
100
AcDbLine
 10
1604.76480670431
 20
513.5307750479548
 30
0.0
 11
1671.76480670431
 21
513.5307750479548
 31
0.0
  0
LINE
  5
71C4
330
1E
100
AcDbEntity
  8
図枠
  6
Continuous
 62
     7
100
AcDbLine
 10
1604.76480670431
 20
522.5307750479548
 30
0.0
 11
1671.76480670431
 21
522.5307750479548
 31
0.0
  0
LINE
  5
71C5
330
1E
100
AcDbEntity
  8
図枠
  6
Continuous
 62
     7
100
AcDbLine
 10
1604.76480670431
 20
531.5307750479548
 30
0.0
 11
1671.76480670431
 21
531.5307750479548
 31
0.0
  0
LINE
  5
71C6
330
1E
100
AcDbEntity
  8
図枠
  6
Continuous
 62
     7
100
AcDbLine
 10
1604.76480670431
 20
540.5307750479549
 30
0.0
 11
1671.76480670431
 21
540.5307750479549
 31
0.0
  0
LINE
  5
71C7
330
1E
100
AcDbEntity
  8
図枠
  6
Continuous
 62
     7
100
AcDbLine
 10
1604.76480670431
 20
549.5307750479549
 30
0.0
 11
1671.76480670431
 21
549.5307750479549
 31
0.0
  0
LINE
  5
71C8
330
1E
100
AcDbEntity
  8
図枠
  6
Continuous
 62
     7
100
AcDbLine
 10
1604.76480670431
 20
558.5307750479548
 30
0.0
 11
1671.76480670431
 21
558.5307750479548
 31
0.0
  0
LINE
  5
71C9
330
1E
100
AcDbEntity
  8
図枠
  6
Continuous
 62
     7
100
AcDbLine
 10
1604.76480670431
 20
567.5307750479548
 30
0.0
 11
1671.76480670431
 21
567.5307750479548
 31
0.0
  0
LINE
  5
71CA
330
1E
100
AcDbEntity
  8
図枠
  6
Continuous
 62
     7
100
AcDbLine
 10
1604.76480670431
 20
576.5307750479548
 30
0.0
 11
1671.76480670431
 21
576.5307750479548
 31
0.0
  0
LINE
  5
71CB
330
1E
100
AcDbEntity
  8
図枠
  6
Continuous
 62
     7
100
AcDbLine
 10
1604.76480670431
 20
585.5307750479548
 30
0.0
 11
1671.76480670431
 21
585.5307750479548
 31
0.0
  0
LINE
  5
71CC
330
1E
100
AcDbEntity
  8
図枠
  6
Continuous
 62
     7
100
AcDbLine
 10
1604.76480670431
 20
594.5307750479549
 30
0.0
 11
1671.76480670431
 21
594.5307750479549
 31
0.0
  0
LINE
  5
71CD
330
1E
100
AcDbEntity
  8
図枠
  6
Continuous
 62
     7
100
AcDbLine
 10
1604.76480670431
 20
603.5307750479549
 30
0.0
 11
1671.76480670431
 21
603.5307750479549
 31
0.0
  0
LINE
  5
71CE
330
1E
100
AcDbEntity
  8
図枠
  6
Continuous
 62
     7
100
AcDbLine
 10
1604.76480670431
 20
612.5307750479549
 30
0.0
 11
1671.76480670431
 21
612.5307750479549
 31
0.0
  0
LINE
  5
71CF
330
1E
100
AcDbEntity
  8
図枠
  6
Continuous
 62
     7
100
AcDbLine
 10
1604.76480670431
 20
621.5307750479548
 30
0.0
 11
1671.76480670431
 21
621.5307750479548
 31
0.0
  0
LINE
  5
71D0
330
1E
100
AcDbEntity
  8
図枠
  6
Continuous
 62
     7
100
AcDbLine
 10
1604.76480670431
 20
630.5307750479548
 30
0.0
 11
1671.76480670431
 21
630.5307750479548
 31
0.0
  0
LINE
  5
71D1
330
1E
100
AcDbEntity
  8
図枠
  6
Continuous
 62
     7
100
AcDbLine
 10
1604.76480670431
 20
639.5307750479548
 30
0.0
 11
1671.76480670431
 21
639.5307750479548
 31
0.0
  0
LINE
  5
71D2
330
1E
100
AcDbEntity
  8
図枠
  6
Continuous
 62
     7
100
AcDbLine
 10
1604.76480670431
 20
648.5307750479549
 30
0.0
 11
1671.76480670431
 21
648.5307750479549
 31
0.0
  0
LINE
  5
71D3
330
1E
100
AcDbEntity
  8
図枠
  6
Continuous
 62
     7
100
AcDbLine
 10
1657.76480670431
 20
441.5307750479549
 30
0.0
 11
1657.76480670431
 21
648.5307750479549
 31
0.0
  0
LINE
  5
71D4
330
1E
100
AcDbEntity
  8
図枠
  6
Continuous
 62
     7
100
AcDbLine
 10
1639.76480670431
 20
441.5307750479549
 30
0.0
 11
1639.76480670431
 21
648.5307750479549
 31
0.0
  0
LINE
  5
71D5
330
1E
100
AcDbEntity
  8
図枠
  6
Continuous
 62
     7
100
AcDbLine
 10
1604.76480670431
 20
441.5307750479549
 30
0.0
 11
1604.76480670431
 21
648.5307750479549
 31
0.0
  0
LINE
  5
71D6
330
1E
100
AcDbEntity
  8
図枠
  6
Continuous
 62
     7
100
AcDbLine
 10
1243.76480670431
 20
996.5307750479547
 30
0.0
 11
1243.76480670431
 21
420.5307750479549
 31
0.0
  0
LINE
  5
71D7
330
1E
100
AcDbEntity
  8
図枠
  6
Continuous
 62
     7
100
AcDbLine
 10
2067.76480670431
 20
996.5307750479547
 30
0.0
 11
1243.76480670431
 21
996.5307750479547
 31
0.0
  0
LINE
  5
71D8
330
1E
100
AcDbEntity
  8
図枠
  6
Continuous
 62
     7
100
AcDbLine
 10
2067.76480670431
 20
420.5307750479549
 30
0.0
 11
2067.76480670431
 21
996.5307750479547
 31
0.0
  0
LINE
  5
71D9
330
1E
100
AcDbEntity
  8
図枠
  6
Continuous
 62
     7
100
AcDbLine
 10
1243.76480670431
 20
420.5307750479549
 30
0.0
 11
2067.76480670431
 21
420.5307750479549
 31
0.0
  0
LINE
  5
71DA
330
1E
100
AcDbEntity
  8
躯体と製品
  6
Continuous
 62
     4
100
AcDbLine
 10
1789.808552421204
 20
811.669881370846
 30
0.0
 11
1783.816775212677
 21
811.9838971083035
 31
0.0
  0
POINT
  5
71DB
330
1E
100
AcDbEntity
  8
躯体と製品
 62
     4
100
AcDbPoint
 10
1787.26480670431
 20
820.4542894758413
 30
0.0
  0
DIMENSION
  5
71DC
330
1E
100
AcDbEntity
  8
寸法
  6
Continuous
100
AcDbDimension
  2
*D4
 10
1462.264806704309
 20
670.5307750479549
 30
0.0
 11
1449.764806704309
 21
674.0307750479549
 31
0.0
 70
    32
 71
     5
 42
-1.0
  3
AutoCAD
100
AcDbAlignedDimension
 13
1437.26480670431
 23
798.5307750479549
 33
0.0
 14
1462.264806704309
 24
670.5307750479549
 34
0.0
100
AcDbRotatedDimension
  0
DIMENSION
  5
71E8
330
1E
100
AcDbEntity
  8
寸法
  6
Continuous
100
AcDbDimension
  2
*D5
 10
1662.26480670431
 20
670.5307750479549
 30
0.0
 11
1562.26480670431
 21
674.0307750479549
 31
0.0
 70
    32
 71
     5
 42
-1.0
  3
AutoCAD
100
AcDbAlignedDimension
 13
1462.26480670431
 23
670.2807750479548
 33
0.0
 14
1662.26480670431
 24
670.5307750479549
 34
0.0
100
AcDbRotatedDimension
  0
DIMENSION
  5
71F4
330
1E
100
AcDbEntity
  8
寸法
  6
Continuous
100
AcDbDimension
  2
*D6
 10
1837.264806704309
 20
670.5307750479549
 30
0.0
 11
1749.76480670431
 21
674.0307750479549
 31
0.0
 70
    32
  1
≦Ｃ
 71
     5
 42
-1.0
  3
AutoCAD
100
AcDbAlignedDimension
 13
1662.26480670431
 23
670.2807750479548
 33
0.0
 14
1837.264806704309
 24
670.5307750479549
 34
0.0
100
AcDbRotatedDimension
  0
DIMENSION
  5
720C
330
1E
100
AcDbEntity
  8
寸法
  6
Continuous
100
AcDbDimension
  2
*D7
 10
1913.26480670431
 20
670.3418293952672
 30
0.0
 11
1875.26480670431
 21
673.8418293952673
 31
0.0
 70
    32
  1
75≦
 71
     5
 42
-1.0
  3
AutoCAD
100
AcDbAlignedDimension
 13
1837.264806704309
 23
670.2807750479548
 33
0.0
 14
1913.26480670431
 24
756.1186904692967
 34
0.0
100
AcDbRotatedDimension
  0
DIMENSION
  5
7219
330
1E
100
AcDbEntity
  8
寸法
  6
Continuous
100
AcDbDimension
  2
*D8
 10
1953.26480670431
 20
800.5307750479548
 30
0.0
 11
1949.76480670431
 21
779.3247327586262
 31
0.0
 70
    32
  1
44
 71
     5
 42
-1.0
  3
AutoCAD
100
AcDbAlignedDimension
 13
1915.26480670431
 23
758.1186904692968
 33
0.0
 14
1839.628636326595
 24
800.5307750479548
 34
0.0
 50
90.0
100
AcDbRotatedDimension
  0
DIMENSION
  5
7226
330
1E
100
AcDbEntity
  8
寸法
  6
Continuous
100
AcDbDimension
  2
*D9
 10
1973.26480670431
 20
848.1186904692968
 30
0.0
 11
1969.764806704309
 21
803.1186904692971
 31
0.0
 70
    32
 71
     5
 42
-1.0
  3
AutoCAD
100
AcDbAlignedDimension
 13
1915.26480670431
 23
758.1186904692968
 33
0.0
 14
1915.26480670431
 24
848.1186904692968
 34
0.0
 50
90.0
100
AcDbRotatedDimension
  0
DIMENSION
  5
7233
330
1E
100
AcDbEntity
  8
寸法
  6
Continuous
100
AcDbDimension
  2
*D10
 10
1453.26480670431
 20
905.2941752599487
 30
0.0
 11
1683.26480670431
 21
908.7941752599487
 31
0.0
 70
    32
  1
A
 71
     5
 42
-1.0
  3
AutoCAD
100
AcDbAlignedDimension
 13
1913.26480670431
 23
850.1186904692968
 33
0.0
 14
1453.26480670431
 24
886.2262689394954
 34
0.0
100
AcDbRotatedDimension
  0
DIMENSION
  5
7240
330
1E
100
AcDbEntity
  8
寸法
  6
Continuous
100
AcDbDimension
  2
*D11
 10
1913.26480670431
 20
977.2941752599487
 30
0.0
 11
1675.76480670431
 21
980.7941752599488
 31
0.0
 70
    32
  1
W
 71
     5
 42
-1.0
  3
AutoCAD
100
AcDbAlignedDimension
 13
1438.26480670431
 23
914.2941752599487
 33
0.0
 14
1913.26480670431
 24
850.1186904692968
 34
0.0
100
AcDbRotatedDimension
  0
DIMENSION
  5
724D
330
1E
100
AcDbEntity
  8
寸法
  6
Continuous
100
AcDbDimension
  2
*D12
 10
1837.264806704309
 20
740.530775047955
 30
0.0
 11
1812.26480670431
 21
744.030775047955
 31
0.0
 70
    32
 71
     5
 42
-1.0
  3
AutoCAD
100
AcDbAlignedDimension
 13
1787.26480670431
 23
740.530775047955
 33
0.0
 14
1837.264806704309
 24
740.530775047955
 34
0.0
100
AcDbRotatedDimension
  0
DIMENSION
  5
7258
330
1E
100
AcDbEntity
  8
寸法
  6
Continuous
100
AcDbDimension
  2
*D13
 10
1506.46480670431
 20
912.2941752599487
 30
0.0
 11
1502.96480670431
 21
894.2941752599489
 31
0.0
 70
    32
 71
     5
 42
-1.0
  3
AutoCAD
100
AcDbAlignedDimension
 13
1473.46480670431
 23
876.2941752599486
 33
0.0
 14
1473.46480670431
 24
912.2941752599487
 34
0.0
 50
90.0
100
AcDbRotatedDimension
  0
DIMENSION
  5
7265
330
1E
100
AcDbEntity
  8
寸法
  6
Continuous
100
AcDbDimension
  2
*D14
 10
1506.46480670431
 20
927.2941752599487
 30
0.0
 11
1502.96480670431
 21
919.7941752599488
 31
0.0
 70
    32
 71
     5
 42
-1.0
  3
AutoCAD
100
AcDbAlignedDimension
 13
1473.46480670431
 23
912.2941752599487
 33
0.0
 14
1464.26480670431
 24
927.2941752599487
 34
0.0
 50
90.0
100
AcDbRotatedDimension
  0
DIMENSION
  5
7272
330
1E
100
AcDbEntity
  8
寸法
  6
Continuous
100
AcDbDimension
  2
*D15
 10
1451.46480670431
 20
952.2941752599487
 30
0.0
 11
1461.46480670431
 21
955.7941752599488
 31
0.0
 70
    32
 71
     5
 42
-1.0
  3
AutoCAD
100
AcDbAlignedDimension
 13
1471.46480670431
 23
915.0575754719429
 33
0.0
 14
1451.46480670431
 24
929.2941752599487
 34
0.0
100
AcDbRotatedDimension
  0
DIMENSION
  5
727F
330
1E
100
AcDbEntity
  8
寸法
  6
Continuous
100
AcDbDimension
  2
*D16
 10
1438.26480670431
 20
962.2941752599487
 30
0.0
 11
1454.86480670431
 21
965.7941752599487
 31
0.0
 70
    32
  1
33.2
 71
     5
 42
-1.0
  3
AutoCAD
100
AcDbAlignedDimension
 13
1471.46480670431
 23
915.0575754719429
 33
0.0
 14
1438.26480670431
 24
914.2941752599487
 34
0.0
100
AcDbRotatedDimension
  0
DIMENSION
  5
728C
330
1E
100
AcDbEntity
  8
寸法
  6
Continuous
100
AcDbDimension
  2
*D17
 10
1362.26480670431
 20
800.5307750479548
 30
0.0
 11
1358.764806704309
 21
863.9124751539519
 31
0.0
 70
    32
  1
E
 71
     5
 42
-1.0
  3
AutoCAD
100
AcDbAlignedDimension
 13
1435.26480670431
 23
927.2941752599487
 33
0.0
 14
1435.26480670431
 24
800.5307750479548
 34
0.0
 50
90.0
100
AcDbRotatedDimension
  0
DIMENSION
  5
7299
330
1E
100
AcDbEntity
  8
寸法
  6
Continuous
100
AcDbDimension
  2
*D18
 10
1382.26480670431
 20
868.5941752599488
 30
0.0
 11
1378.76480670431
 21
834.5624751539521
 31
0.0
 70
    32
  1
D
 71
     5
 42
-1.0
  3
AutoCAD
100
AcDbAlignedDimension
 13
1435.26480670431
 23
800.5307750479548
 33
0.0
 14
1382.26480670431
 24
868.5941752599488
 34
0.0
 50
90.0
100
AcDbRotatedDimension
  0
ENDSEC
  0
SECTION
  2
OBJECTS
  0
DICTIONARY
  5
C
330
0
100
AcDbDictionary
281
     1
  3
ACAD_COLOR
350
6779
  3
ACAD_GROUP
350
D
  3
ACAD_LAYOUT
350
19
  3
ACAD_MATERIAL
350
6778
  3
ACAD_MLINESTYLE
350
16
  3
ACAD_PLOTSETTINGS
350
18
  3
ACAD_PLOTSTYLENAME
350
E
  3
ACAD_TABLESTYLE
350
677A
  3
ACDBHEADERROUNDTRIPXREC
350
733F
  3
AcDbVariableDictionary
350
169
  0
DICTIONARY
  5
175
330
2
100
AcDbDictionary
280
     1
281
     1
  3
ACAD_LAYERFILTERS
360
185
  3
ACAD_LAYERSTATES
360
176
  0
DICTIONARY
  5
28B
330
1E
100
AcDbDictionary
280
     1
281
     1
  3
ACAD_LAYOUTSELFREF
360
7330
  0
DICTIONARY
  5
28D
330
1A
100
AcDbDictionary
280
     1
281
     1
  3
ACAD_LAYOUTSELFREF
360
732F
  0
DICTIONARY
  5
6779
102
{ACAD_REACTORS
330
C
102
}
330
C
100
AcDbDictionary
281
     1
  0
DICTIONARY
  5
D
102
{ACAD_REACTORS
330
C
102
}
330
C
100
AcDbDictionary
281
     1
  0
DICTIONARY
  5
19
102
{ACAD_REACTORS
330
C
102
}
330
C
100
AcDbDictionary
281
     1
  3
Model
350
21
  3
ﾚｲｱｳﾄ1
350
1D
  0
DICTIONARY
  5
6778
102
{ACAD_REACTORS
330
C
102
}
330
C
100
AcDbDictionary
281
     1
  0
DICTIONARY
  5
16
102
{ACAD_REACTORS
330
C
102
}
330
C
100
AcDbDictionary
281
     1
  3
Standard
350
17
  0
DICTIONARY
  5
18
102
{ACAD_REACTORS
330
C
102
}
330
C
100
AcDbDictionary
281
     1
  0
ACDBDICTIONARYWDFLT
  5
E
102
{ACAD_REACTORS
330
C
102
}
330
C
100
AcDbDictionary
281
     1
  3
Normal
350
F
100
AcDbDictionaryWithDefault
340
F
1001
ACAD
1000
TREAT_AS_HARD
1070
     0
1000
TREAT_AS_HARD
1070
     0
1000
TREAT_AS_HARD
1070
     0
1000
TREAT_AS_HARD
1070
     0
1000
TREAT_AS_HARD
1070
     0
1000
TREAT_AS_HARD
1070
     0
1000
TREAT_AS_HARD
1070
     0
1000
TREAT_AS_HARD
1070
     0
1000
TREAT_AS_HARD
1070
     0
1000
TREAT_AS_HARD
1070
     0
1000
TREAT_AS_HARD
1070
     0
1000
TREAT_AS_HARD
1070
     0
1000
TREAT_AS_HARD
1070
     0
1000
TREAT_AS_HARD
1070
     0
1000
TREAT_AS_HARD
1070
     0
1000
TREAT_AS_HARD
1070
     0
1000
TREAT_AS_HARD
1070
     0
1000
TREAT_AS_HARD
1070
     0
1000
TREAT_AS_HARD
1070
     0
1000
TREAT_AS_HARD
1070
     0
1000
TREAT_AS_HARD
1070
     0
1000
TREAT_AS_HARD
1070
     0
1000
TREAT_AS_HARD
1070
     0
1000
TREAT_AS_HARD
1070
     0
1000
TREAT_AS_HARD
1070
     0
1000
TREAT_AS_HARD
1070
     0
1000
TREAT_AS_HARD
1070
     0
  0
DICTIONARY
  5
677A
102
{ACAD_REACTORS
330
C
102
}
330
C
100
AcDbDictionary
281
     1
  3
Standard
350
677B
  0
DICTIONARY
  5
733F
102
{ACAD_REACTORS
330
C
102
}
330
C
100
AcDbDictionary
281
     1
  0
DICTIONARY
  5
169
102
{ACAD_REACTORS
330
C
102
}
330
C
100
AcDbDictionary
281
     1
  3
CTABLESTYLE
350
6782
  3
DIMASSOC
350
16A
  3
PROJECTNAME
350
6791
  0
DICTIONARY
  5
185
102
{ACAD_REACTORS
330
175
102
}
330
175
100
AcDbDictionary
280
     1
281
     1
  0
DICTIONARY
  5
176
102
{ACAD_REACTORS
330
175
102
}
330
175
100
AcDbDictionary
281
     1
  3
ACAD
350
177
  0
XRECORD
  5
7330
102
{ACAD_REACTORS
330
28B
102
}
330
28B
100
AcDbXrecord
280
     1
340
1E
  0
XRECORD
  5
732F
102
{ACAD_REACTORS
330
28D
102
}
330
28D
100
AcDbXrecord
280
     1
340
1A
  0
LAYOUT
  5
21
102
{ACAD_XDICTIONARY
360
7342
102
}
102
{ACAD_REACTORS
330
19
102
}
330
19
100
AcDbPlotSettings
  1

  2
\\MEISEI-1\EPSON Stylus Photo EX3
  4

  6

 40
0.0
 41
0.0
 42
0.0
 43
0.0
 44
0.0
 45
0.0
 46
0.0
 47
0.0
 48
0.0
 49
0.0
140
0.0
141
0.0
142
1.0
143
1.0
 70
  1712
 72
     0
 73
     0
 74
     0
  7

 75
     0
147
1.0
148
0.0
149
0.0
100
AcDbLayout
  1
Model
 70
     1
 71
     0
 10
0.0
 20
0.0
 11
12.0
 21
9.0
 12
0.0
 22
0.0
 32
0.0
 14
0.0
 24
0.0
 34
0.0
 15
0.0
 25
0.0
 35
0.0
146
0.0
 13
0.0
 23
0.0
 33
0.0
 16
1.0
 26
0.0
 36
0.0
 17
0.0
 27
1.0
 37
0.0
 76
     0
330
1E
  0
LAYOUT
  5
1D
102
{ACAD_XDICTIONARY
360
7340
102
}
102
{ACAD_REACTORS
330
19
102
}
330
19
100
AcDbPlotSettings
  1

  2
\\MEISEI-1\EPSON Stylus Photo EX3
  4

  6

 40
0.0
 41
0.0
 42
0.0
 43
0.0
 44
0.0
 45
0.0
 46
0.0
 47
0.0
 48
0.0
 49
0.0
140
0.0
141
0.0
142
1.0
143
1.0
 70
   688
 72
     0
 73
     0
 74
     5
  7

 75
    16
147
1.0
148
0.0
149
0.0
100
AcDbLayout
  1
ﾚｲｱｳﾄ1
 70
     1
 71
     1
 10
0.0
 20
0.0
 11
12.0
 21
9.0
 12
0.0
 22
0.0
 32
0.0
 14
1.000000000000000E+20
 24
1.000000000000000E+20
 34
1.000000000000000E+20
 15
-1.000000000000000E+20
 25
-1.000000000000000E+20
 35
-1.000000000000000E+20
146
0.0
 13
0.0
 23
0.0
 33
0.0
 16
1.0
 26
0.0
 36
0.0
 17
0.0
 27
1.0
 37
0.0
 76
     0
330
1A
  0
MLINESTYLE
  5
17
102
{ACAD_REACTORS
330
16
102
}
330
16
100
AcDbMlineStyle
  2
STANDARD
 70
     0
  3

 62
   256
 51
90.0
 52
90.0
 71
     2
 49
0.5
 62
   256
  6
BYLAYER
 49
-0.5
 62
   256
  6
BYLAYER
  0
ACDBPLACEHOLDER
  5
F
102
{ACAD_REACTORS
330
E
102
}
330
E
  0
TABLESTYLE
  5
677B
102
{ACAD_REACTORS
330
677A
102
}
330
677A
100
AcDbTableStyle
  3
Standard
 70
     0
 71
     0
 40
0.06
 41
0.06
280
     0
281
     0
  7
STANDARD
140
0.18
170
     2
 62
     0
 63
     7
283
     0
274
    -2
284
     1
 64
     0
275
    -2
285
     1
 65
     0
276
    -2
286
     1
 66
     0
277
    -2
287
     1
 67
     0
278
    -2
288
     1
 68
     0
279
    -2
289
     1
 69
     0
  7
STANDARD
140
0.25
170
     5
 62
     0
 63
     7
283
     0
274
    -2
284
     1
 64
     0
275
    -2
285
     1
 65
     0
276
    -2
286
     1
 66
     0
277
    -2
287
     1
 67
     0
278
    -2
288
     1
 68
     0
279
    -2
289
     1
 69
     0
  7
STANDARD
140
0.18
170
     5
 62
     0
 63
     7
283
     0
274
    -2
284
     1
 64
     0
275
    -2
285
     1
 65
     0
276
    -2
286
     1
 66
     0
277
    -2
287
     1
 67
     0
278
    -2
288
     1
 68
     0
279
    -2
289
     1
 69
     0
  0
DICTIONARYVAR
  5
6782
102
{ACAD_REACTORS
330
169
102
}
330
169
100
DictionaryVariables
280
     0
  1
STANDARD
  0
DICTIONARYVAR
  5
16A
102
{ACAD_REACTORS
330
169
102
}
330
169
100
DictionaryVariables
280
     0
  1
1
  0
DICTIONARYVAR
  5
6791
102
{ACAD_REACTORS
330
169
102
}
330
169
100
DictionaryVariables
280
     0
  1

  0
XRECORD
  5
177
102
{ACAD_REACTORS
330
176
102
}
330
176
100
AcDbXrecord
280
     1
 91
      476
330
179
 90
        8
 62
     7
370
    -3
331
15
  1
Color_7
330
178
 90
        8
 62
     7
370
    -3
331
15
  1
Color_7
330
128
 90
        0
 62
     7
370
    -3
331
15
  1
Color_7
330
10
 90
        8
 62
     7
370
    -3
331
15
  1
Color_7
  0
DICTIONARY
  5
7342
330
21
100
AcDbDictionary
280
     1
281
     1
  3
ACAD_XREC_ROUNDTRIP
360
7343
  0
DICTIONARY
  5
7340
330
1D
100
AcDbDictionary
280
     1
281
     1
  3
ACAD_XREC_ROUNDTRIP
360
7341
  0
XRECORD
  5
7343
102
{ACAD_REACTORS
330
7342
102
}
330
7342
100
AcDbXrecord
280
     1
102
SHADEPLOT
 70
     0
102
SHADEPLOTRESLEVEL
 70
     2
102
SHADEPLOTCUSTOMDPI
 70
   300
  0
XRECORD
  5
7341
102
{ACAD_REACTORS
330
7340
102
}
330
7340
100
AcDbXrecord
280
     1
102
SHADEPLOT
 70
     0
102
SHADEPLOTRESLEVEL
 70
     2
102
SHADEPLOTCUSTOMDPI
 70
   300
  0
ENDSEC
  0
EOF
