  0
SECTION
  2
HEADER
  9
$ACADVER
  1
AC1015
  9
$ACADMAINTVER
 70
    20
  9
$DWGCODEPAGE
  3
ANSI_932
  9
$INSBASE
 10
0.0
 20
0.0
 30
0.0
  9
$EXTMIN
 10
1275.961913417212
 20
402.1634428315494
 30
-0.0015258207003583
  9
$EXTMAX
 10
2100.155498981043
 20
978.249920116826
 30
0.0000000349246037
  9
$LIMMIN
 10
0.0
 20
0.0
  9
$LIMMAX
 10
420.0
 20
297.0
  9
$ORTHOMODE
 70
     0
  9
$REGENMODE
 70
     1
  9
$FILLMODE
 70
     1
  9
$QTEXTMODE
 70
     0
  9
$MIRRTEXT
 70
     1
  9
$LTSCALE
 40
1.0
  9
$ATTMODE
 70
     1
  9
$TEXTSIZE
 40
5.0
  9
$TRACEWID
 40
0.05
  9
$TEXTSTYLE
  7
ACAD
  9
$CLAYER
  8
0
  9
$CELTYPE
  6
CONTINUOUS
  9
$CECOLOR
 62
   256
  9
$CELTSCALE
 40
1.0
  9
$DISPSILH
 70
     0
  9
$DIMSCALE
 40
1.0
  9
$DIMASZ
 40
1.0
  9
$DIMEXO
 40
0.0
  9
$DIMDLI
 40
0.38
  9
$DIMRND
 40
0.0
  9
$DIMDLE
 40
0.0
  9
$DIMEXE
 40
0.0
  9
$DIMTP
 40
0.0
  9
$DIMTM
 40
0.0
  9
$DIMTXT
 40
5.0
  9
$DIMCEN
 40
0.09
  9
$DIMTSZ
 40
0.0
  9
$DIMTOL
 70
     0
  9
$DIMLIM
 70
     0
  9
$DIMTIH
 70
     0
  9
$DIMTOH
 70
     1
  9
$DIMSE1
 70
     0
  9
$DIMSE2
 70
     0
  9
$DIMTAD
 70
     1
  9
$DIMZIN
 70
     0
  9
$DIMBLK
  1
Dot
  9
$DIMASO
 70
     1
  9
$DIMSHO
 70
     1
  9
$DIMPOST
  1

  9
$DIMAPOST
  1

  9
$DIMALT
 70
     0
  9
$DIMALTD
 70
     2
  9
$DIMALTF
 40
25.4
  9
$DIMLFAC
 40
1.0
  9
$DIMTOFL
 70
     0
  9
$DIMTVP
 40
0.0
  9
$DIMTIX
 70
     1
  9
$DIMSOXD
 70
     0
  9
$DIMSAH
 70
     0
  9
$DIMBLK1
  1

  9
$DIMBLK2
  1

  9
$DIMSTYLE
  2
AutoCAD
  9
$DIMCLRD
 70
     4
  9
$DIMCLRE
 70
     4
  9
$DIMCLRT
 70
     3
  9
$DIMTFAC
 40
1.0
  9
$DIMGAP
 40
1.0
  9
$DIMJUST
 70
     0
  9
$DIMSD1
 70
     0
  9
$DIMSD2
 70
     0
  9
$DIMTOLJ
 70
     1
  9
$DIMTZIN
 70
     0
  9
$DIMALTZ
 70
     0
  9
$DIMALTTZ
 70
     0
  9
$DIMUPT
 70
     0
  9
$DIMDEC
 70
     0
  9
$DIMTDEC
 70
     0
  9
$DIMALTU
 70
     2
  9
$DIMALTTD
 70
     2
  9
$DIMTXSTY
  7
ACAD
  9
$DIMAUNIT
 70
     0
  9
$DIMADEC
 70
     0
  9
$DIMALTRND
 40
0.0
  9
$DIMAZIN
 70
     0
  9
$DIMDSEP
 70
    46
  9
$DIMATFIT
 70
     0
  9
$DIMFRAC
 70
     0
  9
$DIMLDRBLK
  1
None
  9
$DIMLUNIT
 70
     2
  9
$DIMLWD
 70
    -2
  9
$DIMLWE
 70
    -2
  9
$DIMTMOVE
 70
     0
  9
$LUNITS
 70
     2
  9
$LUPREC
 70
     4
  9
$SKETCHINC
 40
0.1
  9
$FILLETRAD
 40
0.0
  9
$AUNITS
 70
     0
  9
$AUPREC
 70
     0
  9
$MENU
  1
.
  9
$ELEVATION
 40
0.0
  9
$PELEVATION
 40
0.0
  9
$THICKNESS
 40
0.0
  9
$LIMCHECK
 70
     0
  9
$CHAMFERA
 40
0.0
  9
$CHAMFERB
 40
0.0
  9
$CHAMFERC
 40
0.0
  9
$CHAMFERD
 40
0.0
  9
$SKPOLY
 70
     0
  9
$TDCREATE
 40
2454316.693457674
  9
$TDUCREATE
 40
2454316.318457674
  9
$TDUPDATE
 40
2454736.718642477
  9
$TDUUPDATE
 40
2454736.343642477
  9
$TDINDWG
 40
0.2495709954
  9
$TDUSRTIMER
 40
0.2495709954
  9
$USRTIMER
 70
     1
  9
$ANGBASE
 50
0.0
  9
$ANGDIR
 70
     0
  9
$PDMODE
 70
     0
  9
$PDSIZE
 40
0.0
  9
$PLINEWID
 40
0.0
  9
$SPLFRAME
 70
     0
  9
$SPLINETYPE
 70
     6
  9
$SPLINESEGS
 70
     8
  9
$HANDSEED
  5
7422
  9
$SURFTAB1
 70
     6
  9
$SURFTAB2
 70
     6
  9
$SURFTYPE
 70
     6
  9
$SURFU
 70
     6
  9
$SURFV
 70
     6
  9
$UCSBASE
  2

  9
$UCSNAME
  2

  9
$UCSORG
 10
0.0
 20
0.0
 30
0.0
  9
$UCSXDIR
 10
1.0
 20
0.0
 30
0.0
  9
$UCSYDIR
 10
0.0
 20
1.0
 30
0.0
  9
$UCSORTHOREF
  2

  9
$UCSORTHOVIEW
 70
     0
  9
$UCSORGTOP
 10
0.0
 20
0.0
 30
0.0
  9
$UCSORGBOTTOM
 10
0.0
 20
0.0
 30
0.0
  9
$UCSORGLEFT
 10
0.0
 20
0.0
 30
0.0
  9
$UCSORGRIGHT
 10
0.0
 20
0.0
 30
0.0
  9
$UCSORGFRONT
 10
0.0
 20
0.0
 30
0.0
  9
$UCSORGBACK
 10
0.0
 20
0.0
 30
0.0
  9
$PUCSBASE
  2

  9
$PUCSNAME
  2

  9
$PUCSORG
 10
0.0
 20
0.0
 30
0.0
  9
$PUCSXDIR
 10
1.0
 20
0.0
 30
0.0
  9
$PUCSYDIR
 10
0.0
 20
1.0
 30
0.0
  9
$PUCSORTHOREF
  2

  9
$PUCSORTHOVIEW
 70
     0
  9
$PUCSORGTOP
 10
0.0
 20
0.0
 30
0.0
  9
$PUCSORGBOTTOM
 10
0.0
 20
0.0
 30
0.0
  9
$PUCSORGLEFT
 10
0.0
 20
0.0
 30
0.0
  9
$PUCSORGRIGHT
 10
0.0
 20
0.0
 30
0.0
  9
$PUCSORGFRONT
 10
0.0
 20
0.0
 30
0.0
  9
$PUCSORGBACK
 10
0.0
 20
0.0
 30
0.0
  9
$USERI1
 70
     0
  9
$USERI2
 70
     0
  9
$USERI3
 70
     0
  9
$USERI4
 70
     0
  9
$USERI5
 70
     0
  9
$USERR1
 40
0.0
  9
$USERR2
 40
0.0
  9
$USERR3
 40
0.0
  9
$USERR4
 40
0.0
  9
$USERR5
 40
0.0
  9
$WORLDVIEW
 70
     1
  9
$SHADEDGE
 70
     3
  9
$SHADEDIF
 70
    70
  9
$TILEMODE
 70
     1
  9
$MAXACTVP
 70
    48
  9
$PINSBASE
 10
0.0
 20
0.0
 30
0.0
  9
$PLIMCHECK
 70
     0
  9
$PEXTMIN
 10
1.000000000000000E+20
 20
1.000000000000000E+20
 30
1.000000000000000E+20
  9
$PEXTMAX
 10
-1.000000000000000E+20
 20
-1.000000000000000E+20
 30
-1.000000000000000E+20
  9
$PLIMMIN
 10
0.0
 20
0.0
  9
$PLIMMAX
 10
12.0
 20
9.0
  9
$UNITMODE
 70
     0
  9
$VISRETAIN
 70
     0
  9
$PLINEGEN
 70
     0
  9
$PSLTSCALE
 70
     1
  9
$TREEDEPTH
 70
  3020
  9
$CMLSTYLE
  2
Standard
  9
$CMLJUST
 70
     0
  9
$CMLSCALE
 40
1.0
  9
$PROXYGRAPHICS
 70
     1
  9
$MEASUREMENT
 70
     0
  9
$CELWEIGHT
370
    -1
  9
$ENDCAPS
280
     0
  9
$JOINSTYLE
280
     0
  9
$LWDISPLAY
290
     0
  9
$INSUNITS
 70
     0
  9
$HYPERLINKBASE
  1

  9
$STYLESHEET
  1

  9
$XEDIT
290
     1
  9
$CEPSNTYPE
380
     0
  9
$PSTYLEMODE
290
     1
  9
$FINGERPRINTGUID
  2
{CC7D6DEE-A9F1-4F3E-AC95-C84B62CCA3FD}
  9
$VERSIONGUID
  2
{B4CCF0FA-9A2C-4292-99A6-72B83C5EB4EB}
  9
$EXTNAMES
290
     1
  9
$PSVPSCALE
 40
0.0
  9
$OLESTARTUP
290
     0
  0
ENDSEC
  0
SECTION
  2
CLASSES
  0
CLASS
  1
ACDBDICTIONARYWDFLT
  2
AcDbDictionaryWithDefault
  3
ObjectDBX Classes
 90
        0
280
     0
281
     0
  0
CLASS
  1
ACDBPLACEHOLDER
  2
AcDbPlaceHolder
  3
ObjectDBX Classes
 90
        0
280
     0
281
     0
  0
CLASS
  1
LAYOUT
  2
AcDbLayout
  3
ObjectDBX Classes
 90
        0
280
     0
281
     0
  0
CLASS
  1
DICTIONARYVAR
  2
AcDbDictionaryVar
  3
ObjectDBX Classes
 90
        0
280
     0
281
     0
  0
CLASS
  1
LONG_TRANSACTION
  2
AcDbLongTransaction
  3
ObjectDBX Classes
 90
    32768
280
     0
281
     0
  0
CLASS
  1
LWPOLYLINE
  2
AcDbPolyline
  3
ObjectDBX Classes
 90
        0
280
     0
281
     1
  0
CLASS
  1
HATCH
  2
AcDbHatch
  3
ObjectDBX Classes
 90
    32768
280
     0
281
     1
  0
CLASS
  1
XRECORD
  2
AcDbXrecord
  3
ObjectDBX Classes
 90
        0
280
     0
281
     0
  0
CLASS
  1
LONG_TRANSACTION
  2
AcDbLongTransaction
  3
ObjectDBX Classes
 90
    32768
280
     0
281
     0
  0
CLASS
  1
LWPOLYLINE
  2
AcDbPolyline
  3
ObjectDBX Classes
 90
        0
280
     0
281
     1
  0
CLASS
  1
HATCH
  2
AcDbHatch
  3
ObjectDBX Classes
 90
    32768
280
     0
281
     1
  0
CLASS
  1
XRECORD
  2
AcDbXrecord
  3
ObjectDBX Classes
 90
        0
280
     0
281
     0
  0
CLASS
  1
LONG_TRANSACTION
  2
AcDbLongTransaction
  3
ObjectDBX Classes
 90
    32768
280
     0
281
     0
  0
CLASS
  1
LWPOLYLINE
  2
AcDbPolyline
  3
ObjectDBX Classes
 90
        0
280
     0
281
     1
  0
CLASS
  1
HATCH
  2
AcDbHatch
  3
ObjectDBX Classes
 90
    32768
280
     0
281
     1
  0
CLASS
  1
XRECORD
  2
AcDbXrecord
  3
ObjectDBX Classes
 90
        0
280
     0
281
     0
  0
CLASS
  1
LONG_TRANSACTION
  2
AcDbLongTransaction
  3
ObjectDBX Classes
 90
    32768
280
     0
281
     0
  0
CLASS
  1
LWPOLYLINE
  2
AcDbPolyline
  3
ObjectDBX Classes
 90
        0
280
     0
281
     1
  0
CLASS
  1
HATCH
  2
AcDbHatch
  3
ObjectDBX Classes
 90
    32768
280
     0
281
     1
  0
CLASS
  1
XRECORD
  2
AcDbXrecord
  3
ObjectDBX Classes
 90
        0
280
     0
281
     0
  0
CLASS
  1
LONG_TRANSACTION
  2
AcDbLongTransaction
  3
ObjectDBX Classes
 90
    32768
280
     0
281
     0
  0
CLASS
  1
LWPOLYLINE
  2
AcDbPolyline
  3
ObjectDBX Classes
 90
        0
280
     0
281
     1
  0
CLASS
  1
HATCH
  2
AcDbHatch
  3
ObjectDBX Classes
 90
    32768
280
     0
281
     1
  0
CLASS
  1
XRECORD
  2
AcDbXrecord
  3
ObjectDBX Classes
 90
        0
280
     0
281
     0
  0
CLASS
  1
LONG_TRANSACTION
  2
AcDbLongTransaction
  3
ObjectDBX Classes
 90
    32768
280
     0
281
     0
  0
CLASS
  1
LWPOLYLINE
  2
AcDbPolyline
  3
ObjectDBX Classes
 90
        0
280
     0
281
     1
  0
CLASS
  1
HATCH
  2
AcDbHatch
  3
ObjectDBX Classes
 90
    32768
280
     0
281
     1
  0
CLASS
  1
XRECORD
  2
AcDbXrecord
  3
ObjectDBX Classes
 90
        0
280
     0
281
     0
  0
CLASS
  1
LONG_TRANSACTION
  2
AcDbLongTransaction
  3
ObjectDBX Classes
 90
    32768
280
     0
281
     0
  0
CLASS
  1
LWPOLYLINE
  2
AcDbPolyline
  3
ObjectDBX Classes
 90
        0
280
     0
281
     1
  0
CLASS
  1
HATCH
  2
AcDbHatch
  3
ObjectDBX Classes
 90
    32768
280
     0
281
     1
  0
CLASS
  1
XRECORD
  2
AcDbXrecord
  3
ObjectDBX Classes
 90
        0
280
     0
281
     0
  0
CLASS
  1
LONG_TRANSACTION
  2
AcDbLongTransaction
  3
ObjectDBX Classes
 90
    32768
280
     0
281
     0
  0
CLASS
  1
LWPOLYLINE
  2
AcDbPolyline
  3
ObjectDBX Classes
 90
        0
280
     0
281
     1
  0
CLASS
  1
HATCH
  2
AcDbHatch
  3
ObjectDBX Classes
 90
    32768
280
     0
281
     1
  0
CLASS
  1
XRECORD
  2
AcDbXrecord
  3
ObjectDBX Classes
 90
        0
280
     0
281
     0
  0
CLASS
  1
LONG_TRANSACTION
  2
AcDbLongTransaction
  3
ObjectDBX Classes
 90
    32768
280
     0
281
     0
  0
CLASS
  1
LWPOLYLINE
  2
AcDbPolyline
  3
ObjectDBX Classes
 90
        0
280
     0
281
     1
  0
CLASS
  1
HATCH
  2
AcDbHatch
  3
ObjectDBX Classes
 90
    32768
280
     0
281
     1
  0
CLASS
  1
XRECORD
  2
AcDbXrecord
  3
ObjectDBX Classes
 90
        0
280
     0
281
     0
  0
CLASS
  1
LONG_TRANSACTION
  2
AcDbLongTransaction
  3
ObjectDBX Classes
 90
    32768
280
     0
281
     0
  0
CLASS
  1
LWPOLYLINE
  2
AcDbPolyline
  3
ObjectDBX Classes
 90
        0
280
     0
281
     1
  0
CLASS
  1
HATCH
  2
AcDbHatch
  3
ObjectDBX Classes
 90
    32768
280
     0
281
     1
  0
CLASS
  1
XRECORD
  2
AcDbXrecord
  3
ObjectDBX Classes
 90
        0
280
     0
281
     0
  0
CLASS
  1
LONG_TRANSACTION
  2
AcDbLongTransaction
  3
ObjectDBX Classes
 90
    32768
280
     0
281
     0
  0
CLASS
  1
LWPOLYLINE
  2
AcDbPolyline
  3
ObjectDBX Classes
 90
        0
280
     0
281
     1
  0
CLASS
  1
HATCH
  2
AcDbHatch
  3
ObjectDBX Classes
 90
    32768
280
     0
281
     1
  0
CLASS
  1
XRECORD
  2
AcDbXrecord
  3
ObjectDBX Classes
 90
        0
280
     0
281
     0
  0
CLASS
  1
LONG_TRANSACTION
  2
AcDbLongTransaction
  3
ObjectDBX Classes
 90
    32768
280
     0
281
     0
  0
CLASS
  1
LWPOLYLINE
  2
AcDbPolyline
  3
ObjectDBX Classes
 90
        0
280
     0
281
     1
  0
CLASS
  1
HATCH
  2
AcDbHatch
  3
ObjectDBX Classes
 90
    32768
280
     0
281
     1
  0
CLASS
  1
XRECORD
  2
AcDbXrecord
  3
ObjectDBX Classes
 90
        0
280
     0
281
     0
  0
CLASS
  1
LONG_TRANSACTION
  2
AcDbLongTransaction
  3
ObjectDBX Classes
 90
    32768
280
     0
281
     0
  0
CLASS
  1
LWPOLYLINE
  2
AcDbPolyline
  3
ObjectDBX Classes
 90
        0
280
     0
281
     1
  0
CLASS
  1
HATCH
  2
AcDbHatch
  3
ObjectDBX Classes
 90
    32768
280
     0
281
     1
  0
CLASS
  1
XRECORD
  2
AcDbXrecord
  3
ObjectDBX Classes
 90
        0
280
     0
281
     0
  0
CLASS
  1
LONG_TRANSACTION
  2
AcDbLongTransaction
  3
ObjectDBX Classes
 90
    32768
280
     0
281
     0
  0
CLASS
  1
LWPOLYLINE
  2
AcDbPolyline
  3
ObjectDBX Classes
 90
        0
280
     0
281
     1
  0
CLASS
  1
HATCH
  2
AcDbHatch
  3
ObjectDBX Classes
 90
    32768
280
     0
281
     1
  0
CLASS
  1
XRECORD
  2
AcDbXrecord
  3
ObjectDBX Classes
 90
        0
280
     0
281
     0
  0
CLASS
  1
LONG_TRANSACTION
  2
AcDbLongTransaction
  3
ObjectDBX Classes
 90
    32768
280
     0
281
     0
  0
CLASS
  1
LWPOLYLINE
  2
AcDbPolyline
  3
ObjectDBX Classes
 90
        0
280
     0
281
     1
  0
CLASS
  1
HATCH
  2
AcDbHatch
  3
ObjectDBX Classes
 90
    32768
280
     0
281
     1
  0
CLASS
  1
XRECORD
  2
AcDbXrecord
  3
ObjectDBX Classes
 90
        0
280
     0
281
     0
  0
CLASS
  1
LONG_TRANSACTION
  2
AcDbLongTransaction
  3
ObjectDBX Classes
 90
    32768
280
     0
281
     0
  0
CLASS
  1
LWPOLYLINE
  2
AcDbPolyline
  3
ObjectDBX Classes
 90
        0
280
     0
281
     1
  0
CLASS
  1
HATCH
  2
AcDbHatch
  3
ObjectDBX Classes
 90
    32768
280
     0
281
     1
  0
CLASS
  1
XRECORD
  2
AcDbXrecord
  3
ObjectDBX Classes
 90
        0
280
     0
281
     0
  0
CLASS
  1
LONG_TRANSACTION
  2
AcDbLongTransaction
  3
ObjectDBX Classes
 90
    32768
280
     0
281
     0
  0
CLASS
  1
LWPOLYLINE
  2
AcDbPolyline
  3
ObjectDBX Classes
 90
        0
280
     0
281
     1
  0
CLASS
  1
HATCH
  2
AcDbHatch
  3
ObjectDBX Classes
 90
    32768
280
     0
281
     1
  0
CLASS
  1
XRECORD
  2
AcDbXrecord
  3
ObjectDBX Classes
 90
        0
280
     0
281
     0
  0
CLASS
  1
LONG_TRANSACTION
  2
AcDbLongTransaction
  3
ObjectDBX Classes
 90
    32768
280
     0
281
     0
  0
CLASS
  1
LWPOLYLINE
  2
AcDbPolyline
  3
ObjectDBX Classes
 90
        0
280
     0
281
     1
  0
CLASS
  1
HATCH
  2
AcDbHatch
  3
ObjectDBX Classes
 90
    32768
280
     0
281
     1
  0
CLASS
  1
XRECORD
  2
AcDbXrecord
  3
ObjectDBX Classes
 90
        0
280
     0
281
     0
  0
CLASS
  1
LONG_TRANSACTION
  2
AcDbLongTransaction
  3
ObjectDBX Classes
 90
    32768
280
     0
281
     0
  0
CLASS
  1
LWPOLYLINE
  2
AcDbPolyline
  3
ObjectDBX Classes
 90
        0
280
     0
281
     1
  0
CLASS
  1
HATCH
  2
AcDbHatch
  3
ObjectDBX Classes
 90
    32768
280
     0
281
     1
  0
CLASS
  1
XRECORD
  2
AcDbXrecord
  3
ObjectDBX Classes
 90
        0
280
     0
281
     0
  0
CLASS
  1
LONG_TRANSACTION
  2
AcDbLongTransaction
  3
ObjectDBX Classes
 90
    32768
280
     0
281
     0
  0
CLASS
  1
LWPOLYLINE
  2
AcDbPolyline
  3
ObjectDBX Classes
 90
        0
280
     0
281
     1
  0
CLASS
  1
HATCH
  2
AcDbHatch
  3
ObjectDBX Classes
 90
    32768
280
     0
281
     1
  0
CLASS
  1
XRECORD
  2
AcDbXrecord
  3
ObjectDBX Classes
 90
        0
280
     0
281
     0
  0
CLASS
  1
LONG_TRANSACTION
  2
AcDbLongTransaction
  3
ObjectDBX Classes
 90
    32768
280
     0
281
     0
  0
CLASS
  1
LWPOLYLINE
  2
AcDbPolyline
  3
ObjectDBX Classes
 90
        0
280
     0
281
     1
  0
CLASS
  1
HATCH
  2
AcDbHatch
  3
ObjectDBX Classes
 90
    32768
280
     0
281
     1
  0
CLASS
  1
XRECORD
  2
AcDbXrecord
  3
ObjectDBX Classes
 90
        0
280
     0
281
     0
  0
CLASS
  1
LONG_TRANSACTION
  2
AcDbLongTransaction
  3
ObjectDBX Classes
 90
    32768
280
     0
281
     0
  0
CLASS
  1
LWPOLYLINE
  2
AcDbPolyline
  3
ObjectDBX Classes
 90
        0
280
     0
281
     1
  0
CLASS
  1
HATCH
  2
AcDbHatch
  3
ObjectDBX Classes
 90
    32768
280
     0
281
     1
  0
CLASS
  1
XRECORD
  2
AcDbXrecord
  3
ObjectDBX Classes
 90
        0
280
     0
281
     0
  0
CLASS
  1
LONG_TRANSACTION
  2
AcDbLongTransaction
  3
ObjectDBX Classes
 90
    32768
280
     0
281
     0
  0
CLASS
  1
LWPOLYLINE
  2
AcDbPolyline
  3
ObjectDBX Classes
 90
        0
280
     0
281
     1
  0
CLASS
  1
HATCH
  2
AcDbHatch
  3
ObjectDBX Classes
 90
    32768
280
     0
281
     1
  0
CLASS
  1
XRECORD
  2
AcDbXrecord
  3
ObjectDBX Classes
 90
        0
280
     0
281
     0
  0
CLASS
  1
LONG_TRANSACTION
  2
AcDbLongTransaction
  3
ObjectDBX Classes
 90
    32768
280
     0
281
     0
  0
CLASS
  1
LWPOLYLINE
  2
AcDbPolyline
  3
ObjectDBX Classes
 90
        0
280
     0
281
     1
  0
CLASS
  1
HATCH
  2
AcDbHatch
  3
ObjectDBX Classes
 90
    32768
280
     0
281
     1
  0
CLASS
  1
XRECORD
  2
AcDbXrecord
  3
ObjectDBX Classes
 90
        0
280
     0
281
     0
  0
CLASS
  1
LONG_TRANSACTION
  2
AcDbLongTransaction
  3
ObjectDBX Classes
 90
    32768
280
     0
281
     0
  0
CLASS
  1
LWPOLYLINE
  2
AcDbPolyline
  3
ObjectDBX Classes
 90
        0
280
     0
281
     1
  0
CLASS
  1
HATCH
  2
AcDbHatch
  3
ObjectDBX Classes
 90
    32768
280
     0
281
     1
  0
CLASS
  1
XRECORD
  2
AcDbXrecord
  3
ObjectDBX Classes
 90
        0
280
     0
281
     0
  0
CLASS
  1
LONG_TRANSACTION
  2
AcDbLongTransaction
  3
ObjectDBX Classes
 90
    32768
280
     0
281
     0
  0
CLASS
  1
LWPOLYLINE
  2
AcDbPolyline
  3
ObjectDBX Classes
 90
        0
280
     0
281
     1
  0
CLASS
  1
HATCH
  2
AcDbHatch
  3
ObjectDBX Classes
 90
    32768
280
     0
281
     1
  0
CLASS
  1
XRECORD
  2
AcDbXrecord
  3
ObjectDBX Classes
 90
        0
280
     0
281
     0
  0
CLASS
  1
TABLESTYLE
  2
AcDbTableStyle
  3
ObjectDBX Classes
 90
     2047
280
     0
281
     0
  0
CLASS
  1
ACAD_PROXY_OBJECT_WRAPPER
  2
AcDbProxyObjectWrapper
  3
ObjectDBX Classes
 90
        0
280
     0
281
     0
  0
CLASS
  1
LONG_TRANSACTION
  2
AcDbLongTransaction
  3
ObjectDBX Classes
 90
    32768
280
     0
281
     0
  0
CLASS
  1
LWPOLYLINE
  2
AcDbPolyline
  3
ObjectDBX Classes
 90
        0
280
     0
281
     1
  0
CLASS
  1
HATCH
  2
AcDbHatch
  3
ObjectDBX Classes
 90
    32768
280
     0
281
     1
  0
CLASS
  1
XRECORD
  2
AcDbXrecord
  3
ObjectDBX Classes
 90
        0
280
     0
281
     0
  0
ENDSEC
  0
SECTION
  2
TABLES
  0
TABLE
  2
VPORT
  5
8
330
0
100
AcDbSymbolTable
 70
     2
  0
VPORT
  5
741C
330
8
100
AcDbSymbolTableRecord
100
AcDbViewportTableRecord
  2
*Active
 70
     0
 10
0.0
 20
0.0
 11
1.0
 21
1.0
 12
1666.388934743642
 22
698.4778574907591
 13
0.0
 23
0.0
 14
1.0
 24
1.0
 15
0.0
 25
0.0
 16
0.0
 26
0.0
 36
1.0
 17
0.0
 27
0.0
 37
0.0
 40
651.3622854048335
 41
1.538265306122448
 42
50.0
 43
0.0
 44
0.0
 50
0.0
 51
0.0
 71
     0
 72
   100
 73
     1
 74
     1
 75
     0
 76
     0
 77
     0
 78
     0
281
     0
 65
     1
110
0.0
120
0.0
130
0.0
111
1.0
121
0.0
131
0.0
112
0.0
122
1.0
132
0.0
 79
     0
146
0.0
  0
ENDTAB
  0
TABLE
  2
LTYPE
  5
5
330
0
100
AcDbSymbolTable
 70
    50
  0
LTYPE
  5
13
330
5
100
AcDbSymbolTableRecord
100
AcDbLinetypeTableRecord
  2
ByBlock
 70
     0
  3

 72
    65
 73
     0
 40
0.0
  0
LTYPE
  5
14
330
5
100
AcDbSymbolTableRecord
100
AcDbLinetypeTableRecord
  2
ByLayer
 70
     0
  3

 72
    65
 73
     0
 40
0.0
  0
LTYPE
  5
15
330
5
100
AcDbSymbolTableRecord
100
AcDbLinetypeTableRecord
  2
CONTINUOUS
 70
     0
  3
実線
 72
    65
 73
     0
 40
0.0
  0
LTYPE
  5
22
330
5
100
AcDbSymbolTableRecord
100
AcDbLinetypeTableRecord
  2
DASHED1
 70
     0
  3
--  --  --  --  --  --  --  --  
 72
    65
 73
     2
 40
2.5
 49
1.25
 74
     0
 49
-1.25
 74
     0
  0
LTYPE
  5
23
330
5
100
AcDbSymbolTableRecord
100
AcDbLinetypeTableRecord
  2
DASHED2
 70
     0
  3
----    ----    ----    ----    
 72
    65
 73
     2
 40
5.0
 49
2.5
 74
     0
 49
-2.5
 74
     0
  0
LTYPE
  5
24
330
5
100
AcDbSymbolTableRecord
100
AcDbLinetypeTableRecord
  2
DASHED3
 70
     0
  3
------  ------  ------  ------  
 72
    65
 73
     2
 40
5.0
 49
3.75
 74
     0
 49
-1.25
 74
     0
  0
LTYPE
  5
25
330
5
100
AcDbSymbolTableRecord
100
AcDbLinetypeTableRecord
  2
CENTER1
 70
     0
  3
----- - ----- - ----- - ----- - 
 72
    65
 73
     4
 40
10.0
 49
6.25
 74
     0
 49
-1.25
 74
     0
 49
1.25
 74
     0
 49
-1.25
 74
     0
  0
LTYPE
  5
26
330
5
100
AcDbSymbolTableRecord
100
AcDbLinetypeTableRecord
  2
CENTER2
 70
     0
  3
----------  --  ----------  --  
 72
    65
 73
     4
 40
20.0
 49
12.5
 74
     0
 49
-2.5
 74
     0
 49
2.5
 74
     0
 49
-2.5
 74
     0
  0
LTYPE
  5
27
330
5
100
AcDbSymbolTableRecord
100
AcDbLinetypeTableRecord
  2
PHANTOM1
 70
     0
  3
--- - - --- - - --- - - --- - - 
 72
    65
 73
     6
 40
10.0
 49
3.25
 74
     0
 49
-1.25
 74
     0
 49
1.25
 74
     0
 49
-1.25
 74
     0
 49
1.25
 74
     0
 49
-1.25
 74
     0
  0
LTYPE
  5
28
330
5
100
AcDbSymbolTableRecord
100
AcDbLinetypeTableRecord
  2
PHANTOM2
 70
     0
  3
--------  -  -  --------  -  -  
 72
    65
 73
     6
 40
20.0
 49
10.0
 74
     0
 49
-2.5
 74
     0
 49
1.25
 74
     0
 49
-2.5
 74
     0
 49
1.25
 74
     0
 49
-2.5
 74
     0
  0
LTYPE
  5
29
330
5
100
AcDbSymbolTableRecord
100
AcDbLinetypeTableRecord
  2
DOT
 70
     0
  3
-   -   -   -   -   -   -   -   
 72
    65
 73
     2
 40
2.5
 49
0.625
 74
     0
 49
-1.875
 74
     0
  0
LTYPE
  5
2A
330
5
100
AcDbSymbolTableRecord
100
AcDbLinetypeTableRecord
  2
DUMMY
 70
     0
  3
ダミー
 72
    65
 73
     0
 40
0.0
  0
LTYPE
  5
2B
330
5
100
AcDbSymbolTableRecord
100
AcDbLinetypeTableRecord
  2
RAND1
 70
     0
  3
ランダム線1
 72
    65
 73
     4
 40
10.0
 49
1.0
 74
     0
 49
-2.0
 74
     0
 49
3.0
 74
     0
 49
-4.0
 74
     0
  0
LTYPE
  5
2C
330
5
100
AcDbSymbolTableRecord
100
AcDbLinetypeTableRecord
  2
RAND2
 70
     0
  3
ランダム線2
 72
    65
 73
     4
 40
14.0
 49
2.0
 74
     0
 49
-3.0
 74
     0
 49
4.0
 74
     0
 49
-5.0
 74
     0
  0
LTYPE
  5
2D
330
5
100
AcDbSymbolTableRecord
100
AcDbLinetypeTableRecord
  2
RAND3
 70
     0
  3
ランダム線3
 72
    65
 73
     4
 40
18.0
 49
3.0
 74
     0
 49
-4.0
 74
     0
 49
5.0
 74
     0
 49
-6.0
 74
     0
  0
LTYPE
  5
2E
330
5
100
AcDbSymbolTableRecord
100
AcDbLinetypeTableRecord
  2
RAND4
 70
     0
  3
ランダム線4
 72
    65
 73
     4
 40
22.0
 49
4.0
 74
     0
 49
-5.0
 74
     0
 49
6.0
 74
     0
 49
-7.0
 74
     0
  0
LTYPE
  5
2F
330
5
100
AcDbSymbolTableRecord
100
AcDbLinetypeTableRecord
  2
RAND5
 70
     0
  3
ランダム線5
 72
    65
 73
     4
 40
26.0
 49
5.0
 74
     0
 49
-6.0
 74
     0
 49
7.0
 74
     0
 49
-8.0
 74
     0
  0
LTYPE
  5
30
330
5
100
AcDbSymbolTableRecord
100
AcDbLinetypeTableRecord
  2
LONG1
 70
     0
  3
----------  --  ----------  --  
 72
    65
 73
     4
 40
40.0
 49
32.5
 74
     0
 49
-2.5
 74
     0
 49
2.5
 74
     0
 49
-2.5
 74
     0
  0
LTYPE
  5
31
330
5
100
AcDbSymbolTableRecord
100
AcDbLinetypeTableRecord
  2
LONG2
 70
     0
  3
--------  -  -  --------  -  -  
 72
    65
 73
     6
 40
40.0
 49
30.0
 74
     0
 49
-2.5
 74
     0
 49
1.25
 74
     0
 49
-2.5
 74
     0
 49
1.25
 74
     0
 49
-2.5
 74
     0
  0
LTYPE
  5
32
330
5
100
AcDbSymbolTableRecord
100
AcDbLinetypeTableRecord
  2
LONG3
 70
     0
  3
+++++++++++++++..+++++++++++++++
 72
    65
 73
     2
 40
40.0
 49
37.5
 74
     0
 49
-2.5
 74
     0
  0
LTYPE
  5
33
330
5
100
AcDbSymbolTableRecord
100
AcDbLinetypeTableRecord
  2
LONG4
 70
     0
  3
+++++++++++++++..+++++++++++++++
 72
    65
 73
     2
 40
80.0
 49
75.0
 74
     0
 49
-5.0
 74
     0
  0
LTYPE
  5
34
330
5
100
AcDbSymbolTableRecord
100
AcDbLinetypeTableRecord
  2
LONG5
 70
     0
  3
----------  --  ----------  --  
 72
    65
 73
     4
 40
60.0
 49
37.5
 74
     0
 49
-7.5
 74
     0
 49
7.5
 74
     0
 49
-7.5
 74
     0
  0
LTYPE
  5
35
330
5
100
AcDbSymbolTableRecord
100
AcDbLinetypeTableRecord
  2
DASHED
 70
     0
  3
-------   -------------   ------
 72
    65
 73
     2
 40
7.5
 49
6.0
 74
     0
 49
-1.5
 74
     0
  0
LTYPE
  5
36
330
5
100
AcDbSymbolTableRecord
100
AcDbLinetypeTableRecord
  2
DASHED_SPACED
 70
     0
  3
----        --------        ----
 72
    65
 73
     2
 40
12.0
 49
6.0
 74
     0
 49
-6.0
 74
     0
  0
LTYPE
  5
37
330
5
100
AcDbSymbolTableRecord
100
AcDbLinetypeTableRecord
  2
LONG_DASHED_DOTTED
 70
     0
  3
------------- --- --------------
 72
    65
 73
     4
 40
15.25
 49
12.0
 74
     0
 49
-1.5
 74
     0
 49
0.25
 74
     0
 49
-1.5
 74
     0
  0
LTYPE
  5
38
330
5
100
AcDbSymbolTableRecord
100
AcDbLinetypeTableRecord
  2
LONG_DASHED_DOUBLE-DOTTED
 70
     0
  3
----------- --- --- ------------
 72
    65
 73
     6
 40
17.0
 49
12.0
 74
     0
 49
-1.5
 74
     0
 49
0.25
 74
     0
 49
-1.5
 74
     0
 49
0.25
 74
     0
 49
-1.5
 74
     0
  0
LTYPE
  5
39
330
5
100
AcDbSymbolTableRecord
100
AcDbLinetypeTableRecord
  2
LONG_DASHED_TRIPLICATE-DOTTED
 70
     0
  3
--------- --- --- --- ----------
 72
    65
 73
     8
 40
18.75
 49
12.0
 74
     0
 49
-1.5
 74
     0
 49
0.25
 74
     0
 49
-1.5
 74
     0
 49
0.25
 74
     0
 49
-1.5
 74
     0
 49
0.25
 74
     0
 49
-1.5
 74
     0
  0
LTYPE
  5
3A
330
5
100
AcDbSymbolTableRecord
100
AcDbLinetypeTableRecord
  2
DOTTED
 70
     0
  3
   -       -       -       -    
 72
    65
 73
     2
 40
1.75
 49
0.25
 74
     0
 49
-1.5
 74
     0
  0
LTYPE
  5
3B
330
5
100
AcDbSymbolTableRecord
100
AcDbLinetypeTableRecord
  2
CHAIN
 70
     0
  3
-------------- -- --------------
 72
    65
 73
     4
 40
18.5
 49
12.0
 74
     0
 49
-1.5
 74
     0
 49
3.5
 74
     0
 49
-1.5
 74
     0
  0
LTYPE
  5
3C
330
5
100
AcDbSymbolTableRecord
100
AcDbLinetypeTableRecord
  2
CHAIN_DOUBLE_DASH
 70
     0
  3
------------ -- -- -------------
 72
    65
 73
     6
 40
23.5
 49
12.0
 74
     0
 49
-1.5
 74
     0
 49
3.5
 74
     0
 49
-1.5
 74
     0
 49
3.5
 74
     0
 49
-1.5
 74
     0
  0
LTYPE
  5
3D
330
5
100
AcDbSymbolTableRecord
100
AcDbLinetypeTableRecord
  2
DASHED_DOTTED
 70
     0
  3
-----------     -     ----------
 72
    65
 73
     4
 40
9.25
 49
6.0
 74
     0
 49
-1.5
 74
     0
 49
0.25
 74
     0
 49
-1.5
 74
     0
  0
LTYPE
  5
3E
330
5
100
AcDbSymbolTableRecord
100
AcDbLinetypeTableRecord
  2
DOUBLE-DASHED_DOTTED
 70
     0
  3
------   -----------   -   -----
 72
    65
 73
     6
 40
16.75
 49
6.0
 74
     0
 49
-1.5
 74
     0
 49
6.0
 74
     0
 49
-1.5
 74
     0
 49
0.25
 74
     0
 49
-1.5
 74
     0
  0
LTYPE
  5
3F
330
5
100
AcDbSymbolTableRecord
100
AcDbLinetypeTableRecord
  2
DASHED_DOUBLE-DOTTED
 70
     0
  3
---------    -    -    ---------
 72
    65
 73
     6
 40
11.0
 49
6.0
 74
     0
 49
-1.5
 74
     0
 49
0.25
 74
     0
 49
-1.5
 74
     0
 49
0.25
 74
     0
 49
-1.5
 74
     0
  0
LTYPE
  5
40
330
5
100
AcDbSymbolTableRecord
100
AcDbLinetypeTableRecord
  2
DOUBLE-DASHED_DOUBLE-DOTTED
 70
     0
  3
-----   ---------   -   -   ----
 72
    65
 73
     8
 40
18.5
 49
6.0
 74
     0
 49
-1.5
 74
     0
 49
6.0
 74
     0
 49
-1.5
 74
     0
 49
0.25
 74
     0
 49
-1.5
 74
     0
 49
0.25
 74
     0
 49
-1.5
 74
     0
  0
LTYPE
  5
41
330
5
100
AcDbSymbolTableRecord
100
AcDbLinetypeTableRecord
  2
DASHED_TRIPLICATE-DOTTED
 70
     0
  3
-------    -    -    -    ------
 72
    65
 73
     8
 40
12.75
 49
6.0
 74
     0
 49
-1.5
 74
     0
 49
0.25
 74
     0
 49
-1.5
 74
     0
 49
0.25
 74
     0
 49
-1.5
 74
     0
 49
0.25
 74
     0
 49
-1.5
 74
     0
  0
LTYPE
  5
42
330
5
100
AcDbSymbolTableRecord
100
AcDbLinetypeTableRecord
  2
DOUBLE-DASHED_TRIPLICATE-DOTTED
 70
     0
  3
-----  ---------  -  -  -  -----
 72
    65
 73
    10
 40
20.25
 49
6.0
 74
     0
 49
-1.5
 74
     0
 49
6.0
 74
     0
 49
-1.5
 74
     0
 49
0.25
 74
     0
 49
-1.5
 74
     0
 49
0.25
 74
     0
 49
-1.5
 74
     0
 49
0.25
 74
     0
 49
-1.5
 74
     0
  0
LTYPE
  5
43
330
5
100
AcDbSymbolTableRecord
100
AcDbLinetypeTableRecord
  2
UNDEFINED
 70
     0
  3
--------------------------------
 72
    65
 73
     0
 40
0.0
  0
LTYPE
  5
44
330
5
100
AcDbSymbolTableRecord
100
AcDbLinetypeTableRecord
  2
PLINE2
 70
     0
  3
------     -----------     -----
 72
    65
 73
     2
 40
3.0
 49
2.1
 74
     0
 49
-0.9
 74
     0
  0
LTYPE
  5
45
330
5
100
AcDbSymbolTableRecord
100
AcDbLinetypeTableRecord
  2
PLINE3
 70
     0
  3
------------   ---   -----------
 72
    65
 73
     4
 40
10.0
 49
7.0
 74
     0
 49
-1.0
 74
     0
 49
1.0
 74
     0
 49
-1.0
 74
     0
  0
LTYPE
  5
46
330
5
100
AcDbSymbolTableRecord
100
AcDbLinetypeTableRecord
  2
PLINE4
 70
     0
  3
---------   ---   ---   --------
 72
    65
 73
     6
 40
10.0
 49
5.0
 74
     0
 49
-1.0
 74
     0
 49
1.0
 74
     0
 49
-1.0
 74
     0
 49
1.0
 74
     0
 49
-1.0
 74
     0
  0
LTYPE
  5
47
330
5
100
AcDbSymbolTableRecord
100
AcDbLinetypeTableRecord
  2
PLINE5
 70
     0
  3
------     -----------     -----
 72
    65
 73
     2
 40
5.0
 49
3.5
 74
     0
 49
-1.5
 74
     0
  0
LTYPE
  5
48
330
5
100
AcDbSymbolTableRecord
100
AcDbLinetypeTableRecord
  2
PLINE6
 70
     0
  3
------------   ---   -----------
 72
    65
 73
     4
 40
15.0
 49
10.5
 74
     0
 49
-1.5
 74
     0
 49
1.5
 74
     0
 49
-1.5
 74
     0
  0
LTYPE
  5
49
330
5
100
AcDbSymbolTableRecord
100
AcDbLinetypeTableRecord
  2
PLINE7
 70
     0
  3
---------   ---   ---   --------
 72
    65
 73
     6
 40
15.0
 49
7.5
 74
     0
 49
-1.5
 74
     0
 49
1.5
 74
     0
 49
-1.5
 74
     0
 49
1.5
 74
     0
 49
-1.5
 74
     0
  0
LTYPE
  5
4A
330
5
100
AcDbSymbolTableRecord
100
AcDbLinetypeTableRecord
  2
PLINE8
 70
     0
  3
------     -----------     -----
 72
    65
 73
     2
 40
7.0
 49
4.9
 74
     0
 49
-2.1
 74
     0
  0
LTYPE
  5
4B
330
5
100
AcDbSymbolTableRecord
100
AcDbLinetypeTableRecord
  2
PLINE9
 70
     0
  3
------------   ---   -----------
 72
    65
 73
     4
 40
20.0
 49
14.0
 74
     0
 49
-2.0
 74
     0
 49
2.0
 74
     0
 49
-2.0
 74
     0
  0
LTYPE
  5
4C
330
5
100
AcDbSymbolTableRecord
100
AcDbLinetypeTableRecord
  2
PLINE10
 70
     0
  3
---------   ---   ---   --------
 72
    65
 73
     6
 40
20.0
 49
10.0
 74
     0
 49
-2.0
 74
     0
 49
2.0
 74
     0
 49
-2.0
 74
     0
 49
2.0
 74
     0
 49
-2.0
 74
     0
  0
LTYPE
  5
4D
330
5
100
AcDbSymbolTableRecord
100
AcDbLinetypeTableRecord
  2
PLINE11
 70
     0
  3
------     -----------     -----
 72
    65
 73
     2
 40
9.0
 49
6.299999999999999
 74
     0
 49
-2.7
 74
     0
  0
LTYPE
  5
4E
330
5
100
AcDbSymbolTableRecord
100
AcDbLinetypeTableRecord
  2
PLINE12
 70
     0
  3
------------   ---   -----------
 72
    65
 73
     4
 40
25.0
 49
17.5
 74
     0
 49
-2.5
 74
     0
 49
2.5
 74
     0
 49
-2.5
 74
     0
  0
LTYPE
  5
4F
330
5
100
AcDbSymbolTableRecord
100
AcDbLinetypeTableRecord
  2
PLINE13
 70
     0
  3
---------   ---   ---   --------
 72
    65
 73
     6
 40
25.0
 49
12.5
 74
     0
 49
-2.5
 74
     0
 49
2.5
 74
     0
 49
-2.5
 74
     0
 49
2.5
 74
     0
 49
-2.5
 74
     0
  0
LTYPE
  5
50
330
5
100
AcDbSymbolTableRecord
100
AcDbLinetypeTableRecord
  2
PLINE14
 70
     0
  3
------     -----------     -----
 72
    65
 73
     2
 40
11.0
 49
7.7
 74
     0
 49
-3.299999999999999
 74
     0
  0
LTYPE
  5
51
330
5
100
AcDbSymbolTableRecord
100
AcDbLinetypeTableRecord
  2
PLINE15
 70
     0
  3
------------   ---   -----------
 72
    65
 73
     4
 40
30.0
 49
21.0
 74
     0
 49
-3.0
 74
     0
 49
3.0
 74
     0
 49
-3.0
 74
     0
  0
LTYPE
  5
52
330
5
100
AcDbSymbolTableRecord
100
AcDbLinetypeTableRecord
  2
PLINE16
 70
     0
  3
---------   ---   ---   --------
 72
    65
 73
     6
 40
30.0
 49
15.0
 74
     0
 49
-3.0
 74
     0
 49
3.0
 74
     0
 49
-3.0
 74
     0
 49
3.0
 74
     0
 49
-3.0
 74
     0
  0
ENDTAB
  0
TABLE
  2
LAYER
  5
2
102
{ACAD_XDICTIONARY
360
175
102
}
330
0
100
AcDbSymbolTable
 70
     5
  0
LAYER
  5
10
330
2
100
AcDbSymbolTableRecord
100
AcDbLayerTableRecord
  2
0
 70
     0
 62
     7
  6
CONTINUOUS
370
    -3
390
F
  0
LAYER
  5
128
330
2
100
AcDbSymbolTableRecord
100
AcDbLayerTableRecord
  2
Defpoints
 70
     0
 62
     7
  6
CONTINUOUS
290
     0
370
    -3
390
F
  0
LAYER
  5
178
330
2
100
AcDbSymbolTableRecord
100
AcDbLayerTableRecord
  2
寸法
 70
     0
 62
     7
  6
CONTINUOUS
370
    -3
390
F
  0
LAYER
  5
179
330
2
100
AcDbSymbolTableRecord
100
AcDbLayerTableRecord
  2
躯体と製品
 70
     0
 62
     7
  6
CONTINUOUS
370
    -3
390
F
  0
LAYER
  5
4F62
330
2
100
AcDbSymbolTableRecord
100
AcDbLayerTableRecord
  2
図枠
 70
     0
 62
     7
  6
CONTINUOUS
370
    -3
390
F
  0
ENDTAB
  0
TABLE
  2
STYLE
  5
3
330
0
100
AcDbSymbolTable
 70
     5
  0
STYLE
  5
11
330
3
100
AcDbSymbolTableRecord
100
AcDbTextStyleTableRecord
  2
STANDARD
 70
     0
 40
0.0
 41
1.0
 50
0.0
 71
     0
 42
0.2
  3
txt
  4
bigfont.shx
  0
STYLE
  5
53
330
3
100
AcDbSymbolTableRecord
100
AcDbTextStyleTableRecord
  2
TATEGAKI
 70
     4
 40
0.0
 41
1.0
 50
0.0
 71
     0
 42
1.0
  3
txt
  4
bigfont.shx
  0
STYLE
  5
123
330
3
100
AcDbSymbolTableRecord
100
AcDbTextStyleTableRecord
  2
ACAD
 70
     0
 40
5.0
 41
0.8
 50
0.0
 71
     0
 42
5.0
  3
romans.shx
  4
extfont.shx
  0
STYLE
  5
3A5F
330
3
100
AcDbSymbolTableRecord
100
AcDbTextStyleTableRecord
  2
VERTXT
 70
     4
 40
0.0
 41
0.8582679999999999
 50
0.0
 71
     0
 42
3.5
  3
txt.shx
  4
BIGFONT
  0
STYLE
  5
50AD
330
3
100
AcDbSymbolTableRecord
100
AcDbTextStyleTableRecord
  2
STANDARD2
 70
     0
 40
0.0
 41
0.8582679999999999
 50
0.0
 71
     0
 42
3.5
  3
txt.shx
  4
EXTFONT
  0
ENDTAB
  0
TABLE
  2
VIEW
  5
6
330
0
100
AcDbSymbolTable
 70
     0
  0
ENDTAB
  0
TABLE
  2
UCS
  5
7
330
0
100
AcDbSymbolTable
 70
     0
  0
ENDTAB
  0
TABLE
  2
APPID
  5
9
330
0
100
AcDbSymbolTable
 70
     1
  0
APPID
  5
12
330
9
100
AcDbSymbolTableRecord
100
AcDbRegAppTableRecord
  2
ACAD
 70
     0
  0
ENDTAB
  0
TABLE
  2
DIMSTYLE
  5
A
330
0
100
AcDbSymbolTable
 70
     3
100
AcDbDimStyleTable
 71
     0
  0
DIMSTYLE
105
11C
330
A
100
AcDbSymbolTableRecord
100
AcDbDimStyleTableRecord
  2
Standard
 70
     0
340
11
  0
DIMSTYLE
105
126
102
{ACAD_REACTORS
330
7296
330
72A2
330
72AE
330
72DF
330
72EB
330
72F6
330
7303
330
7310
330
731D
330
732A
330
7337
330
7351
330
735E
330
736B
330
7377
102
}
330
A
100
AcDbSymbolTableRecord
100
AcDbDimStyleTableRecord
  2
AutoCAD
 70
     0
 41
1.0
 42
0.0
 44
0.0
 73
     0
 77
     1
140
5.0
147
1.0
174
     1
176
     4
177
     4
178
     3
271
     0
272
     0
289
     0
340
123
341
15B0
342
11E
  0
DIMSTYLE
105
2CBB
330
A
100
AcDbSymbolTableRecord
100
AcDbDimStyleTableRecord
  2
111
 70
     0
 41
1.0
 42
0.0
 44
0.0
 73
     0
 77
     1
140
5.0
147
1.0
174
     1
176
     4
177
     4
178
     3
271
     0
272
     0
289
     0
340
123
341
15B0
342
2CB5
  0
ENDTAB
  0
TABLE
  2
BLOCK_RECORD
  5
1
330
0
100
AcDbSymbolTable
 70
    19
  0
BLOCK_RECORD
  5
1E
102
{ACAD_XDICTIONARY
360
28B
102
}
330
1
100
AcDbSymbolTableRecord
100
AcDbBlockTableRecord
  2
*Model_Space
340
21
  0
BLOCK_RECORD
  5
1A
102
{ACAD_XDICTIONARY
360
28D
102
}
330
1
100
AcDbSymbolTableRecord
100
AcDbBlockTableRecord
  2
*Paper_Space
340
1D
  0
BLOCK_RECORD
  5
11E
330
1
100
AcDbSymbolTableRecord
100
AcDbBlockTableRecord
  2
_Dot
340
0
102
{BLKREFS
331
729A
331
729B
331
72A6
331
72A7
331
7397
331
7398
331
739F
331
73A0
331
72EE
331
72EF
331
73A8
331
73A9
331
7308
331
7309
331
73B1
331
73B2
331
73BA
331
73BB
331
73C3
331
73C4
331
733C
331
733D
331
7356
331
7357
331
7363
331
7364
331
738F
331
7390
331
7387
331
7388
102
}
  0
BLOCK_RECORD
  5
15B0
330
1
100
AcDbSymbolTableRecord
100
AcDbBlockTableRecord
  2
_None
340
0
  0
BLOCK_RECORD
  5
2CB5
330
1
100
AcDbSymbolTableRecord
100
AcDbBlockTableRecord
  2
_Open30
340
0
  0
BLOCK_RECORD
  5
35E3
330
1
100
AcDbSymbolTableRecord
100
AcDbBlockTableRecord
  2
_DotBlank
340
0
  0
BLOCK_RECORD
  5
7297
330
1
100
AcDbSymbolTableRecord
100
AcDbBlockTableRecord
  2
*D4
340
0
  0
BLOCK_RECORD
  5
72A3
330
1
100
AcDbSymbolTableRecord
100
AcDbBlockTableRecord
  2
*D5
340
0
  0
BLOCK_RECORD
  5
72AF
330
1
100
AcDbSymbolTableRecord
100
AcDbBlockTableRecord
  2
*D6
340
0
  0
BLOCK_RECORD
  5
72E0
330
1
100
AcDbSymbolTableRecord
100
AcDbBlockTableRecord
  2
*D7
340
0
  0
BLOCK_RECORD
  5
72EC
330
1
100
AcDbSymbolTableRecord
100
AcDbBlockTableRecord
  2
*D8
340
0
  0
BLOCK_RECORD
  5
72F7
330
1
100
AcDbSymbolTableRecord
100
AcDbBlockTableRecord
  2
*D9
340
0
  0
BLOCK_RECORD
  5
7304
330
1
100
AcDbSymbolTableRecord
100
AcDbBlockTableRecord
  2
*D10
340
0
  0
BLOCK_RECORD
  5
7311
330
1
100
AcDbSymbolTableRecord
100
AcDbBlockTableRecord
  2
*D11
340
0
  0
BLOCK_RECORD
  5
731E
330
1
100
AcDbSymbolTableRecord
100
AcDbBlockTableRecord
  2
*D12
340
0
  0
BLOCK_RECORD
  5
732B
330
1
100
AcDbSymbolTableRecord
100
AcDbBlockTableRecord
  2
*D13
340
0
  0
BLOCK_RECORD
  5
7338
330
1
100
AcDbSymbolTableRecord
100
AcDbBlockTableRecord
  2
*D14
340
0
  0
BLOCK_RECORD
  5
7352
330
1
100
AcDbSymbolTableRecord
100
AcDbBlockTableRecord
  2
*D15
340
0
  0
BLOCK_RECORD
  5
735F
330
1
100
AcDbSymbolTableRecord
100
AcDbBlockTableRecord
  2
*D16
340
0
  0
BLOCK_RECORD
  5
736C
330
1
100
AcDbSymbolTableRecord
100
AcDbBlockTableRecord
  2
*D17
340
0
  0
BLOCK_RECORD
  5
7378
330
1
100
AcDbSymbolTableRecord
100
AcDbBlockTableRecord
  2
*D18
340
0
  0
ENDTAB
  0
ENDSEC
  0
SECTION
  2
BLOCKS
  0
BLOCK
  5
1F
330
1E
100
AcDbEntity
  8
0
100
AcDbBlockBegin
  2
*Model_Space
 70
     0
 10
0.0
 20
0.0
 30
0.0
  3
*Model_Space
  1

  0
ENDBLK
  5
20
330
1E
100
AcDbEntity
  8
0
100
AcDbBlockEnd
  0
BLOCK
  5
1B
330
1A
100
AcDbEntity
 67
     1
  8
0
100
AcDbBlockBegin
  2
*Paper_Space
 70
     0
 10
0.0
 20
0.0
 30
0.0
  3
*Paper_Space
  1

  0
ENDBLK
  5
1C
330
1A
100
AcDbEntity
 67
     1
  8
0
100
AcDbBlockEnd
  0
BLOCK
  5
121
330
11E
100
AcDbEntity
  8
0
100
AcDbBlockBegin
  2
_Dot
 70
     0
 10
0.0
 20
0.0
 30
0.0
  3
_Dot
  1

  0
LWPOLYLINE
  5
11F
330
11E
100
AcDbEntity
  8
0
  6
ByBlock
 62
     0
100
AcDbPolyline
 90
        2
 70
     1
 43
0.5
 10
-0.25
 20
0.0
 42
1.0
 10
0.25
 20
0.0
 42
1.0
  0
LINE
  5
120
330
11E
100
AcDbEntity
  8
0
  6
ByBlock
 62
     0
370
    -2
100
AcDbLine
 10
-0.5
 20
0.0
 30
0.0
 11
-1.0
 21
0.0
 31
0.0
  0
ENDBLK
  5
122
330
11E
100
AcDbEntity
  8
0
100
AcDbBlockEnd
  0
BLOCK
  5
15B1
330
15B0
100
AcDbEntity
  8
0
100
AcDbBlockBegin
  2
_None
 70
     0
 10
0.0
 20
0.0
 30
0.0
  3
_None
  1

  0
ENDBLK
  5
15B2
330
15B0
100
AcDbEntity
  8
0
100
AcDbBlockEnd
  0
BLOCK
  5
2CB9
330
2CB5
100
AcDbEntity
  8
0
100
AcDbBlockBegin
  2
_Open30
 70
     0
 10
0.0
 20
0.0
 30
0.0
  3
_Open30
  1

  0
LINE
  5
2CB6
330
2CB5
100
AcDbEntity
  8
0
  6
ByBlock
 62
     0
370
    -2
100
AcDbLine
 10
-1.0
 20
0.26794919
 30
0.0
 11
0.0
 21
0.0
 31
0.0
  0
LINE
  5
2CB7
330
2CB5
100
AcDbEntity
  8
0
  6
ByBlock
 62
     0
370
    -2
100
AcDbLine
 10
0.0
 20
0.0
 30
0.0
 11
-1.0
 21
-0.26794919
 31
0.0
  0
LINE
  5
2CB8
330
2CB5
100
AcDbEntity
  8
0
  6
ByBlock
 62
     0
370
    -2
100
AcDbLine
 10
0.0
 20
0.0
 30
0.0
 11
-1.0
 21
0.0
 31
0.0
  0
ENDBLK
  5
2CBA
330
2CB5
100
AcDbEntity
  8
0
100
AcDbBlockEnd
  0
BLOCK
  5
35E6
330
35E3
100
AcDbEntity
  8
0
100
AcDbBlockBegin
  2
_DotBlank
 70
     0
 10
0.0
 20
0.0
 30
0.0
  3
_DotBlank
  1

  0
CIRCLE
  5
35E4
330
35E3
100
AcDbEntity
  8
0
  6
ByBlock
 62
     0
370
    -2
100
AcDbCircle
 10
0.0
 20
0.0
 30
0.0
 40
0.5
  0
LINE
  5
35E5
330
35E3
100
AcDbEntity
  8
0
  6
ByBlock
 62
     0
370
    -2
100
AcDbLine
 10
-0.5
 20
0.0
 30
0.0
 11
-1.0
 21
0.0
 31
0.0
  0
ENDBLK
  5
35E7
330
35E3
100
AcDbEntity
  8
0
100
AcDbBlockEnd
  0
BLOCK
  5
72A0
330
7297
100
AcDbEntity
  8
0
100
AcDbBlockBegin
  2
*D4
 70
     1
 10
0.0
 20
0.0
 30
0.0
  3
*D4
  1

  0
LINE
  5
7298
330
7297
100
AcDbEntity
  8
寸法
  6
Continuous
 62
     4
370
    -2
100
AcDbLine
 10
1487.091404387809
 20
778.22006493194
 30
0.0
 11
1487.091404387809
 21
655.22006493194
 31
0.0
  0
LINE
  5
7299
330
7297
100
AcDbEntity
  8
寸法
  6
Continuous
 62
     4
370
    -2
100
AcDbLine
 10
1488.091404387809
 20
655.22006493194
 30
0.0
 11
1511.091404387809
 21
655.22006493194
 31
0.0
  0
INSERT
  5
729A
330
7297
100
AcDbEntity
  8
寸法
  6
Continuous
 62
     4
370
    -2
100
AcDbBlockReference
  2
_Dot
 10
1487.091404387809
 20
655.22006493194
 30
0.0
 50
180.0
  0
INSERT
  5
729B
330
7297
100
AcDbEntity
  8
寸法
  6
Continuous
 62
     4
370
    -2
100
AcDbBlockReference
  2
_Dot
 10
1512.091404387809
 20
655.22006493194
 30
0.0
  0
MTEXT
  5
729C
330
7297
100
AcDbEntity
  8
寸法
  6
Continuous
 62
     3
100
AcDbMText
 10
1499.591404387809
 20
658.7200649319401
 30
0.0
 40
5.0
 41
0.0
 71
     5
 72
     5
  1
\A1;25
  7
ACAD
 73
     1
 44
1.0
1001
ACAD
1000
MTEXTBEGIN
1070
    73
1070
     1
1070
    44
1040
1.0
1070
    74
1070
     0
1000
MTEXTEND
  0
POINT
  5
729D
330
7297
100
AcDbEntity
  8
Defpoints
  6
Continuous
 62
     0
100
AcDbPoint
 10
1487.091404387809
 20
778.22006493194
 30
0.0
  0
POINT
  5
729E
330
7297
100
AcDbEntity
  8
Defpoints
  6
Continuous
 62
     0
100
AcDbPoint
 10
1512.091404387809
 20
655.22006493194
 30
0.0
  0
POINT
  5
729F
330
7297
100
AcDbEntity
  8
Defpoints
  6
Continuous
 62
     0
100
AcDbPoint
 10
1512.091404387809
 20
655.22006493194
 30
0.0
  0
ENDBLK
  5
72A1
330
7297
100
AcDbEntity
  8
0
100
AcDbBlockEnd
  0
BLOCK
  5
72AC
330
72A3
100
AcDbEntity
  8
0
100
AcDbBlockBegin
  2
*D5
 70
     1
 10
0.0
 20
0.0
 30
0.0
  3
*D5
  1

  0
LINE
  5
72A4
330
72A3
100
AcDbEntity
  8
寸法
  6
Continuous
 62
     4
370
    -2
100
AcDbLine
 10
1512.337606326062
 20
655.1766528875234
 30
0.0
 11
1512.337606326062
 21
655.22006493194
 31
0.0
  0
LINE
  5
72A5
330
72A3
100
AcDbEntity
  8
寸法
  6
Continuous
 62
     4
370
    -2
100
AcDbLine
 10
1513.337606326062
 20
655.22006493194
 30
0.0
 11
1661.091404387809
 21
655.22006493194
 31
0.0
  0
INSERT
  5
72A6
330
72A3
100
AcDbEntity
  8
寸法
  6
Continuous
 62
     4
370
    -2
100
AcDbBlockReference
  2
_Dot
 10
1512.337606326062
 20
655.22006493194
 30
0.0
 50
180.0
  0
INSERT
  5
72A7
330
72A3
100
AcDbEntity
  8
寸法
  6
Continuous
 62
     4
370
    -2
100
AcDbBlockReference
  2
_Dot
 10
1662.091404387809
 20
655.22006493194
 30
0.0
  0
MTEXT
  5
72A8
330
72A3
100
AcDbEntity
  8
寸法
  6
Continuous
 62
     3
100
AcDbMText
 10
1587.214505356936
 20
658.7200649319401
 30
0.0
 40
5.0
 41
0.0
 71
     5
 72
     5
  1
\A1;150
  7
ACAD
 73
     1
 44
1.0
1001
ACAD
1000
MTEXTBEGIN
1070
    73
1070
     1
1070
    44
1040
1.0
1070
    74
1070
     0
1000
MTEXTEND
  0
POINT
  5
72A9
330
72A3
100
AcDbEntity
  8
Defpoints
  6
Continuous
 62
     0
100
AcDbPoint
 10
1512.337606326062
 20
655.1766528875234
 30
0.0
  0
POINT
  5
72AA
330
72A3
100
AcDbEntity
  8
Defpoints
  6
Continuous
 62
     0
100
AcDbPoint
 10
1662.091404387809
 20
655.22006493194
 30
0.0
  0
POINT
  5
72AB
330
72A3
100
AcDbEntity
  8
Defpoints
  6
Continuous
 62
     0
100
AcDbPoint
 10
1662.091404387809
 20
655.22006493194
 30
0.0
  0
ENDBLK
  5
72AD
330
72A3
100
AcDbEntity
  8
0
100
AcDbBlockEnd
  0
BLOCK
  5
72B8
330
72AF
100
AcDbEntity
  8
0
100
AcDbBlockBegin
  2
*D6
 70
     1
 10
0.0
 20
0.0
 30
0.0
  3
*D6
  1

  0
LINE
  5
7395
330
72AF
100
AcDbEntity
  8
寸法
  6
Continuous
 62
     4
370
    -2
100
AcDbLine
 10
1662.091404387809
 20
654.9700649319401
 30
0.0
 11
1662.091404387809
 21
655.22006493194
 31
0.0
  0
LINE
  5
7396
330
72AF
100
AcDbEntity
  8
寸法
  6
Continuous
 62
     4
370
    -2
100
AcDbLine
 10
1663.091404387809
 20
655.22006493194
 30
0.0
 11
1811.091404387809
 21
655.22006493194
 31
0.0
  0
INSERT
  5
7397
330
72AF
100
AcDbEntity
  8
寸法
  6
Continuous
 62
     4
370
    -2
100
AcDbBlockReference
  2
_Dot
 10
1662.091404387809
 20
655.22006493194
 30
0.0
 50
180.0
  0
INSERT
  5
7398
330
72AF
100
AcDbEntity
  8
寸法
  6
Continuous
 62
     4
370
    -2
100
AcDbBlockReference
  2
_Dot
 10
1812.091404387809
 20
655.22006493194
 30
0.0
  0
MTEXT
  5
7399
330
72AF
100
AcDbEntity
  8
寸法
  6
Continuous
 62
     3
100
AcDbMText
 10
1737.091404387809
 20
658.7200649319401
 30
0.0
 40
5.0
 41
0.0
 71
     5
 72
     5
  1
\A1;≦Ｃ
  7
ACAD
 73
     1
 44
1.0
1001
ACAD
1000
MTEXTBEGIN
1070
    73
1070
     1
1070
    44
1040
1.0
1070
    74
1070
     0
1000
MTEXTEND
  0
POINT
  5
739A
330
72AF
100
AcDbEntity
  8
Defpoints
  6
Continuous
 62
     0
100
AcDbPoint
 10
1662.091404387809
 20
654.9700649319401
 30
0.0
  0
POINT
  5
739B
330
72AF
100
AcDbEntity
  8
Defpoints
  6
Continuous
 62
     0
100
AcDbPoint
 10
1812.091404387809
 20
655.22006493194
 30
0.0
  0
POINT
  5
739C
330
72AF
100
AcDbEntity
  8
Defpoints
  6
Continuous
 62
     0
100
AcDbPoint
 10
1812.091404387809
 20
655.22006493194
 30
0.0
  0
ENDBLK
  5
72B9
330
72AF
100
AcDbEntity
  8
0
100
AcDbBlockEnd
  0
BLOCK
  5
72E9
330
72E0
100
AcDbEntity
  8
0
100
AcDbBlockBegin
  2
*D7
 70
     1
 10
0.0
 20
0.0
 30
0.0
  3
*D7
  1

  0
LINE
  5
739D
330
72E0
100
AcDbEntity
  8
寸法
  6
Continuous
 62
     4
370
    -2
100
AcDbLine
 10
1888.091404387809
 20
735.3025936252745
 30
0.0
 11
1888.091404387809
 21
655.2634769763568
 31
0.0
  0
LINE
  5
739E
330
72E0
100
AcDbEntity
  8
寸法
  6
Continuous
 62
     4
370
    -2
100
AcDbLine
 10
1813.337606326062
 20
655.2634769763568
 30
0.0
 11
1887.091404387809
 21
655.2634769763568
 31
0.0
  0
INSERT
  5
739F
330
72E0
100
AcDbEntity
  8
寸法
  6
Continuous
 62
     4
370
    -2
100
AcDbBlockReference
  2
_Dot
 10
1812.337606326062
 20
655.2634769763568
 30
0.0
 50
180.0
  0
INSERT
  5
73A0
330
72E0
100
AcDbEntity
  8
寸法
  6
Continuous
 62
     4
370
    -2
100
AcDbBlockReference
  2
_Dot
 10
1888.091404387809
 20
655.2634769763568
 30
0.0
  0
MTEXT
  5
73A1
330
72E0
100
AcDbEntity
  8
寸法
  6
Continuous
 62
     3
100
AcDbMText
 10
1850.214505356936
 20
658.7634769763568
 30
0.0
 40
5.0
 41
0.0
 71
     5
 72
     5
  1
\A1;75≦
  7
ACAD
 73
     1
 44
1.0
1001
ACAD
1000
MTEXTBEGIN
1070
    73
1070
     1
1070
    44
1040
1.0
1070
    74
1070
     0
1000
MTEXTEND
  0
POINT
  5
73A2
330
72E0
100
AcDbEntity
  8
Defpoints
  6
Continuous
 62
     0
100
AcDbPoint
 10
1812.337606326062
 20
655.2634769763568
 30
0.0
  0
POINT
  5
73A3
330
72E0
100
AcDbEntity
  8
Defpoints
  6
Continuous
 62
     0
100
AcDbPoint
 10
1888.091404387809
 20
735.3025936252745
 30
0.0
  0
POINT
  5
73A4
330
72E0
100
AcDbEntity
  8
Defpoints
  6
Continuous
 62
     0
100
AcDbPoint
 10
1888.091404387809
 20
655.2634769763568
 30
0.0
  0
ENDBLK
  5
72EA
330
72E0
100
AcDbEntity
  8
0
100
AcDbBlockEnd
  0
BLOCK
  5
72F4
330
72EC
100
AcDbEntity
  8
0
100
AcDbBlockBegin
  2
*D8
 70
     1
 10
0.0
 20
0.0
 30
0.0
  3
*D8
  1

  0
LINE
  5
72ED
330
72EC
100
AcDbEntity
  8
寸法
  6
Continuous
 62
     4
370
    -2
100
AcDbLine
 10
1763.091404387809
 20
720.22006493194
 30
0.0
 11
1811.091404387809
 21
720.22006493194
 31
0.0
  0
INSERT
  5
72EE
330
72EC
100
AcDbEntity
  8
寸法
  6
Continuous
 62
     4
370
    -2
100
AcDbBlockReference
  2
_Dot
 10
1762.091404387809
 20
720.22006493194
 30
0.0
 50
180.0
  0
INSERT
  5
72EF
330
72EC
100
AcDbEntity
  8
寸法
  6
Continuous
 62
     4
370
    -2
100
AcDbBlockReference
  2
_Dot
 10
1812.091404387809
 20
720.22006493194
 30
0.0
  0
MTEXT
  5
72F0
330
72EC
100
AcDbEntity
  8
寸法
  6
Continuous
 62
     3
100
AcDbMText
 10
1787.091404387809
 20
723.7200649319399
 30
0.0
 40
5.0
 41
0.0
 71
     5
 72
     5
  1
\A1;50
  7
ACAD
 73
     1
 44
1.0
1001
ACAD
1000
MTEXTBEGIN
1070
    73
1070
     1
1070
    44
1040
1.0
1070
    74
1070
     0
1000
MTEXTEND
  0
POINT
  5
72F1
330
72EC
100
AcDbEntity
  8
Defpoints
  6
Continuous
 62
     0
100
AcDbPoint
 10
1762.091404387809
 20
720.22006493194
 30
0.0
  0
POINT
  5
72F2
330
72EC
100
AcDbEntity
  8
Defpoints
  6
Continuous
 62
     0
100
AcDbPoint
 10
1812.091404387809
 20
720.22006493194
 30
0.0
  0
POINT
  5
72F3
330
72EC
100
AcDbEntity
  8
Defpoints
  6
Continuous
 62
     0
100
AcDbPoint
 10
1812.091404387809
 20
720.22006493194
 30
0.0
  0
ENDBLK
  5
72F5
330
72EC
100
AcDbEntity
  8
0
100
AcDbBlockEnd
  0
BLOCK
  5
7301
330
72F7
100
AcDbEntity
  8
0
100
AcDbBlockBegin
  2
*D9
 70
     1
 10
0.0
 20
0.0
 30
0.0
  3
*D9
  1

  0
LINE
  5
73A5
330
72F7
100
AcDbEntity
  8
寸法
  6
Continuous
 62
     4
370
    -2
100
AcDbLine
 10
1890.091404387809
 20
737.3025936252745
 30
0.0
 11
1928.091404387809
 21
737.3025936252745
 31
0.0
  0
LINE
  5
73A6
330
72F7
100
AcDbEntity
  8
寸法
  6
Continuous
 62
     4
370
    -2
100
AcDbLine
 10
1816.056481640526
 20
780.22006493194
 30
0.0
 11
1928.091404387809
 21
780.22006493194
 31
0.0
  0
LINE
  5
73A7
330
72F7
100
AcDbEntity
  8
寸法
  6
Continuous
 62
     4
370
    -2
100
AcDbLine
 10
1928.091404387809
 20
738.3025936252745
 30
0.0
 11
1928.091404387809
 21
779.22006493194
 31
0.0
  0
INSERT
  5
73A8
330
72F7
100
AcDbEntity
  8
寸法
  6
Continuous
 62
     4
370
    -2
100
AcDbBlockReference
  2
_Dot
 10
1928.091404387809
 20
737.3025936252745
 30
0.0
 50
270.0
  0
INSERT
  5
73A9
330
72F7
100
AcDbEntity
  8
寸法
  6
Continuous
 62
     4
370
    -2
100
AcDbBlockReference
  2
_Dot
 10
1928.091404387809
 20
780.22006493194
 30
0.0
 50
90.0
  0
MTEXT
  5
73AA
330
72F7
100
AcDbEntity
  8
寸法
  6
Continuous
 62
     3
100
AcDbMText
 10
1924.591404387809
 20
758.7613292786076
 30
0.0
 40
5.0
 41
0.0
 71
     5
 72
     5
  1
\A1;44
  7
ACAD
 11
0.0000000000000001
 21
1.0
 31
0.0
 73
     1
 44
1.0
1001
ACAD
1000
MTEXTBEGIN
1070
    73
1070
     1
1070
    44
1040
1.0
1070
    74
1070
     0
1000
MTEXTEND
  0
POINT
  5
73AB
330
72F7
100
AcDbEntity
  8
Defpoints
  6
Continuous
 62
     0
100
AcDbPoint
 10
1890.091404387809
 20
737.3025936252745
 30
0.0
  0
POINT
  5
73AC
330
72F7
100
AcDbEntity
  8
Defpoints
  6
Continuous
 62
     0
100
AcDbPoint
 10
1816.056481640526
 20
780.22006493194
 30
0.0
  0
POINT
  5
73AD
330
72F7
100
AcDbEntity
  8
Defpoints
  6
Continuous
 62
     0
100
AcDbPoint
 10
1928.091404387809
 20
780.22006493194
 30
0.0
  0
ENDBLK
  5
7302
330
72F7
100
AcDbEntity
  8
0
100
AcDbBlockEnd
  0
BLOCK
  5
730E
330
7304
100
AcDbEntity
  8
0
100
AcDbBlockBegin
  2
*D10
 70
     1
 10
0.0
 20
0.0
 30
0.0
  3
*D10
  1

  0
LINE
  5
7305
330
7304
100
AcDbEntity
  8
寸法
  6
Continuous
 62
     4
370
    -2
100
AcDbLine
 10
1890.091404387809
 20
737.3025936252745
 30
0.0
 11
1948.091404387809
 21
737.3025936252745
 31
0.0
  0
LINE
  5
7306
330
7304
100
AcDbEntity
  8
寸法
  6
Continuous
 62
     4
370
    -2
100
AcDbLine
 10
1890.091404387809
 20
827.3025936252746
 30
0.0
 11
1948.091404387809
 21
827.3025936252746
 31
0.0
  0
LINE
  5
7307
330
7304
100
AcDbEntity
  8
寸法
  6
Continuous
 62
     4
370
    -2
100
AcDbLine
 10
1948.091404387809
 20
738.3025936252745
 30
0.0
 11
1948.091404387809
 21
826.3025936252747
 31
0.0
  0
INSERT
  5
7308
330
7304
100
AcDbEntity
  8
寸法
  6
Continuous
 62
     4
370
    -2
100
AcDbBlockReference
  2
_Dot
 10
1948.091404387809
 20
737.3025936252745
 30
0.0
 50
270.0
  0
INSERT
  5
7309
330
7304
100
AcDbEntity
  8
寸法
  6
Continuous
 62
     4
370
    -2
100
AcDbBlockReference
  2
_Dot
 10
1948.091404387809
 20
827.3025936252746
 30
0.0
 50
90.0
  0
MTEXT
  5
730A
330
7304
100
AcDbEntity
  8
寸法
  6
Continuous
 62
     3
100
AcDbMText
 10
1944.591404387809
 20
782.3025936252748
 30
0.0
 40
5.0
 41
0.0
 71
     5
 72
     5
  1
\A1;90
  7
ACAD
 11
0.0000000000000001
 21
1.0
 31
0.0
 73
     1
 44
1.0
1001
ACAD
1000
MTEXTBEGIN
1070
    73
1070
     1
1070
    44
1040
1.0
1070
    74
1070
     0
1000
MTEXTEND
  0
POINT
  5
730B
330
7304
100
AcDbEntity
  8
Defpoints
  6
Continuous
 62
     0
100
AcDbPoint
 10
1890.091404387809
 20
737.3025936252745
 30
0.0
  0
POINT
  5
730C
330
7304
100
AcDbEntity
  8
Defpoints
  6
Continuous
 62
     0
100
AcDbPoint
 10
1890.091404387809
 20
827.3025936252746
 30
0.0
  0
POINT
  5
730D
330
7304
100
AcDbEntity
  8
Defpoints
  6
Continuous
 62
     0
100
AcDbPoint
 10
1948.091404387809
 20
827.3025936252746
 30
0.0
  0
ENDBLK
  5
730F
330
7304
100
AcDbEntity
  8
0
100
AcDbBlockEnd
  0
BLOCK
  5
731B
330
7311
100
AcDbEntity
  8
0
100
AcDbBlockBegin
  2
*D11
 70
     1
 10
0.0
 20
0.0
 30
0.0
  3
*D11
  1

  0
LINE
  5
73AE
330
7311
100
AcDbEntity
  8
寸法
  6
Continuous
 62
     4
370
    -2
100
AcDbLine
 10
1888.091404387809
 20
829.3025936252742
 30
0.0
 11
1888.091404387809
 21
881.352881697706
 31
0.0
  0
LINE
  5
73AF
330
7311
100
AcDbEntity
  8
寸法
  6
Continuous
 62
     4
370
    -2
100
AcDbLine
 10
1503.091404387809
 20
861.4795886492455
 30
0.0
 11
1503.091404387809
 21
881.352881697706
 31
0.0
  0
LINE
  5
73B0
330
7311
100
AcDbEntity
  8
寸法
  6
Continuous
 62
     4
370
    -2
100
AcDbLine
 10
1887.091404387809
 20
881.352881697706
 30
0.0
 11
1504.091404387809
 21
881.352881697706
 31
0.0
  0
INSERT
  5
73B1
330
7311
100
AcDbEntity
  8
寸法
  6
Continuous
 62
     4
370
    -2
100
AcDbBlockReference
  2
_Dot
 10
1888.091404387809
 20
881.352881697706
 30
0.0
  0
INSERT
  5
73B2
330
7311
100
AcDbEntity
  8
寸法
  6
Continuous
 62
     4
370
    -2
100
AcDbBlockReference
  2
_Dot
 10
1503.091404387809
 20
881.352881697706
 30
0.0
 50
180.0
  0
MTEXT
  5
73B3
330
7311
100
AcDbEntity
  8
寸法
  6
Continuous
 62
     3
100
AcDbMText
 10
1695.591404387809
 20
884.852881697706
 30
0.0
 40
5.0
 41
0.0
 71
     5
 72
     5
  1
\A1;A
  7
ACAD
 73
     1
 44
1.0
1001
ACAD
1000
MTEXTBEGIN
1070
    73
1070
     1
1070
    44
1040
1.0
1070
    74
1070
     0
1000
MTEXTEND
  0
POINT
  5
73B4
330
7311
100
AcDbEntity
  8
Defpoints
  6
Continuous
 62
     0
100
AcDbPoint
 10
1888.091404387809
 20
829.3025936252742
 30
0.0
  0
POINT
  5
73B5
330
7311
100
AcDbEntity
  8
Defpoints
  6
Continuous
 62
     0
100
AcDbPoint
 10
1503.091404387809
 20
861.4795886492455
 30
0.0
  0
POINT
  5
73B6
330
7311
100
AcDbEntity
  8
Defpoints
  6
Continuous
 62
     0
100
AcDbPoint
 10
1503.091404387809
 20
881.352881697706
 30
0.0
  0
ENDBLK
  5
731C
330
7311
100
AcDbEntity
  8
0
100
AcDbBlockEnd
  0
BLOCK
  5
7328
330
731E
100
AcDbEntity
  8
0
100
AcDbBlockBegin
  2
*D12
 70
     1
 10
0.0
 20
0.0
 30
0.0
  3
*D12
  1

  0
LINE
  5
73B7
330
731E
100
AcDbEntity
  8
寸法
  6
Continuous
 62
     4
370
    -2
100
AcDbLine
 10
1488.091404387809
 20
890.3528816977059
 30
0.0
 11
1488.091404387809
 21
958.3528816977056
 31
0.0
  0
LINE
  5
73B8
330
731E
100
AcDbEntity
  8
寸法
  6
Continuous
 62
     4
370
    -2
100
AcDbLine
 10
1888.091404387809
 20
829.3025936252742
 30
0.0
 11
1888.091404387809
 21
958.3528816977056
 31
0.0
  0
LINE
  5
73B9
330
731E
100
AcDbEntity
  8
寸法
  6
Continuous
 62
     4
370
    -2
100
AcDbLine
 10
1489.091404387809
 20
958.3528816977056
 30
0.0
 11
1887.091404387809
 21
958.3528816977056
 31
0.0
  0
INSERT
  5
73BA
330
731E
100
AcDbEntity
  8
寸法
  6
Continuous
 62
     4
370
    -2
100
AcDbBlockReference
  2
_Dot
 10
1488.091404387809
 20
958.3528816977056
 30
0.0
 50
180.0
  0
INSERT
  5
73BB
330
731E
100
AcDbEntity
  8
寸法
  6
Continuous
 62
     4
370
    -2
100
AcDbBlockReference
  2
_Dot
 10
1888.091404387809
 20
958.3528816977056
 30
0.0
  0
MTEXT
  5
73BC
330
731E
100
AcDbEntity
  8
寸法
  6
Continuous
 62
     3
100
AcDbMText
 10
1688.091404387809
 20
961.8528816977056
 30
0.0
 40
5.0
 41
0.0
 71
     5
 72
     5
  1
\A1;W
  7
ACAD
 73
     1
 44
1.0
1001
ACAD
1000
MTEXTBEGIN
1070
    73
1070
     1
1070
    44
1040
1.0
1070
    74
1070
     0
1000
MTEXTEND
  0
POINT
  5
73BD
330
731E
100
AcDbEntity
  8
Defpoints
  6
Continuous
 62
     0
100
AcDbPoint
 10
1488.091404387809
 20
890.3528816977059
 30
0.0
  0
POINT
  5
73BE
330
731E
100
AcDbEntity
  8
Defpoints
  6
Continuous
 62
     0
100
AcDbPoint
 10
1888.091404387809
 20
829.3025936252742
 30
0.0
  0
POINT
  5
73BF
330
731E
100
AcDbEntity
  8
Defpoints
  6
Continuous
 62
     0
100
AcDbPoint
 10
1888.091404387809
 20
958.3528816977056
 30
0.0
  0
ENDBLK
  5
7329
330
731E
100
AcDbEntity
  8
0
100
AcDbBlockEnd
  0
BLOCK
  5
7335
330
732B
100
AcDbEntity
  8
0
100
AcDbBlockBegin
  2
*D13
 70
     1
 10
0.0
 20
0.0
 30
0.0
  3
*D13
  1

  0
LINE
  5
73C0
330
732B
100
AcDbEntity
  8
寸法
  6
Continuous
 62
     4
370
    -2
100
AcDbLine
 10
1488.091404387809
 20
890.3528816977059
 30
0.0
 11
1488.091404387809
 21
943.3528816977059
 31
0.0
  0
LINE
  5
73C1
330
732B
100
AcDbEntity
  8
寸法
  6
Continuous
 62
     4
370
    -2
100
AcDbLine
 10
1521.591404387809
 20
891.485698463472
 30
0.0
 11
1521.591404387809
 21
943.3528816977059
 31
0.0
  0
LINE
  5
73C2
330
732B
100
AcDbEntity
  8
寸法
  6
Continuous
 62
     4
370
    -2
100
AcDbLine
 10
1489.091404387809
 20
943.3528816977059
 30
0.0
 11
1520.591404387809
 21
943.3528816977059
 31
0.0
  0
INSERT
  5
73C3
330
732B
100
AcDbEntity
  8
寸法
  6
Continuous
 62
     4
370
    -2
100
AcDbBlockReference
  2
_Dot
 10
1488.091404387809
 20
943.3528816977059
 30
0.0
 50
180.0
  0
INSERT
  5
73C4
330
732B
100
AcDbEntity
  8
寸法
  6
Continuous
 62
     4
370
    -2
100
AcDbBlockReference
  2
_Dot
 10
1521.591404387809
 20
943.3528816977059
 30
0.0
  0
MTEXT
  5
73C5
330
732B
100
AcDbEntity
  8
寸法
  6
Continuous
 62
     3
100
AcDbMText
 10
1504.841404387809
 20
946.8528816977059
 30
0.0
 40
5.0
 41
0.0
 71
     5
 72
     5
  1
\A1;33.5
  7
ACAD
 73
     1
 44
1.0
1001
ACAD
1000
MTEXTBEGIN
1070
    73
1070
     1
1070
    44
1040
1.0
1070
    74
1070
     0
1000
MTEXTEND
  0
POINT
  5
73C6
330
732B
100
AcDbEntity
  8
Defpoints
  6
Continuous
 62
     0
100
AcDbPoint
 10
1488.091404387809
 20
890.3528816977059
 30
0.0
  0
POINT
  5
73C7
330
732B
100
AcDbEntity
  8
Defpoints
  6
Continuous
 62
     0
100
AcDbPoint
 10
1521.591404387809
 20
891.485698463472
 30
0.0
  0
POINT
  5
73C8
330
732B
100
AcDbEntity
  8
Defpoints
  6
Continuous
 62
     0
100
AcDbPoint
 10
1521.591404387809
 20
943.3528816977059
 30
0.0
  0
ENDBLK
  5
7336
330
732B
100
AcDbEntity
  8
0
100
AcDbBlockEnd
  0
BLOCK
  5
7342
330
7338
100
AcDbEntity
  8
0
100
AcDbBlockBegin
  2
*D14
 70
     1
 10
0.0
 20
0.0
 30
0.0
  3
*D14
  1

  0
LINE
  5
7339
330
7338
100
AcDbEntity
  8
寸法
  6
Continuous
 62
     4
370
    -2
100
AcDbLine
 10
1501.591404387809
 20
905.352881697706
 30
0.0
 11
1501.591404387809
 21
928.3528816977058
 31
0.0
  0
LINE
  5
733A
330
7338
100
AcDbEntity
  8
寸法
  6
Continuous
 62
     4
370
    -2
100
AcDbLine
 10
1521.591404387809
 20
891.485698463472
 30
0.0
 11
1521.591404387809
 21
928.3528816977058
 31
0.0
  0
LINE
  5
733B
330
7338
100
AcDbEntity
  8
寸法
  6
Continuous
 62
     4
370
    -2
100
AcDbLine
 10
1502.591404387809
 20
928.3528816977058
 30
0.0
 11
1520.591404387809
 21
928.3528816977058
 31
0.0
  0
INSERT
  5
733C
330
7338
100
AcDbEntity
  8
寸法
  6
Continuous
 62
     4
370
    -2
100
AcDbBlockReference
  2
_Dot
 10
1501.591404387809
 20
928.3528816977058
 30
0.0
 50
180.0
  0
INSERT
  5
733D
330
7338
100
AcDbEntity
  8
寸法
  6
Continuous
 62
     4
370
    -2
100
AcDbBlockReference
  2
_Dot
 10
1521.591404387809
 20
928.3528816977058
 30
0.0
  0
MTEXT
  5
733E
330
7338
100
AcDbEntity
  8
寸法
  6
Continuous
 62
     3
100
AcDbMText
 10
1511.591404387809
 20
931.8528816977059
 30
0.0
 40
5.0
 41
0.0
 71
     5
 72
     5
  1
\A1;20
  7
ACAD
 73
     1
 44
1.0
1001
ACAD
1000
MTEXTBEGIN
1070
    73
1070
     1
1070
    44
1040
1.0
1070
    74
1070
     0
1000
MTEXTEND
  0
POINT
  5
733F
330
7338
100
AcDbEntity
  8
Defpoints
  6
Continuous
 62
     0
100
AcDbPoint
 10
1501.591404387809
 20
905.352881697706
 30
0.0
  0
POINT
  5
7340
330
7338
100
AcDbEntity
  8
Defpoints
  6
Continuous
 62
     0
100
AcDbPoint
 10
1521.591404387809
 20
891.485698463472
 30
0.0
  0
POINT
  5
7341
330
7338
100
AcDbEntity
  8
Defpoints
  6
Continuous
 62
     0
100
AcDbPoint
 10
1521.591404387809
 20
928.3528816977058
 30
0.0
  0
ENDBLK
  5
7343
330
7338
100
AcDbEntity
  8
0
100
AcDbBlockEnd
  0
BLOCK
  5
735C
330
7352
100
AcDbEntity
  8
0
100
AcDbBlockBegin
  2
*D15
 70
     1
 10
0.0
 20
0.0
 30
0.0
  3
*D15
  1

  0
LINE
  5
7353
330
7352
100
AcDbEntity
  8
寸法
  6
Continuous
 62
     4
370
    -2
100
AcDbLine
 10
1514.091404387809
 20
903.3528816977058
 30
0.0
 11
1556.591404387809
 21
903.3528816977058
 31
0.0
  0
LINE
  5
7354
330
7352
100
AcDbEntity
  8
寸法
  6
Continuous
 62
     4
370
    -2
100
AcDbLine
 10
1523.591404387809
 20
888.352881697706
 30
0.0
 11
1556.591404387809
 21
888.352881697706
 31
0.0
  0
LINE
  5
7355
330
7352
100
AcDbEntity
  8
寸法
  6
Continuous
 62
     4
370
    -2
100
AcDbLine
 10
1556.591404387809
 20
902.3528816977059
 30
0.0
 11
1556.591404387809
 21
889.352881697706
 31
0.0
  0
INSERT
  5
7356
330
7352
100
AcDbEntity
  8
寸法
  6
Continuous
 62
     4
370
    -2
100
AcDbBlockReference
  2
_Dot
 10
1556.591404387809
 20
903.3528816977058
 30
0.0
 50
90.0
  0
INSERT
  5
7357
330
7352
100
AcDbEntity
  8
寸法
  6
Continuous
 62
     4
370
    -2
100
AcDbBlockReference
  2
_Dot
 10
1556.591404387809
 20
888.352881697706
 30
0.0
 50
270.0
  0
MTEXT
  5
7358
330
7352
100
AcDbEntity
  8
寸法
  6
Continuous
 62
     3
100
AcDbMText
 10
1553.091404387808
 20
895.8528816977061
 30
0.0
 40
5.0
 41
0.0
 71
     5
 72
     5
  1
\A1;15
  7
ACAD
 11
0.0000000000000001
 21
1.0
 31
0.0
 73
     1
 44
1.0
1001
ACAD
1000
MTEXTBEGIN
1070
    73
1070
     1
1070
    44
1040
1.0
1070
    74
1070
     0
1000
MTEXTEND
  0
POINT
  5
7359
330
7352
100
AcDbEntity
  8
Defpoints
  6
Continuous
 62
     0
100
AcDbPoint
 10
1514.091404387809
 20
903.3528816977058
 30
0.0
  0
POINT
  5
735A
330
7352
100
AcDbEntity
  8
Defpoints
  6
Continuous
 62
     0
100
AcDbPoint
 10
1523.591404387809
 20
888.352881697706
 30
0.0
  0
POINT
  5
735B
330
7352
100
AcDbEntity
  8
Defpoints
  6
Continuous
 62
     0
100
AcDbPoint
 10
1556.591404387809
 20
888.352881697706
 30
0.0
  0
ENDBLK
  5
735D
330
7352
100
AcDbEntity
  8
0
100
AcDbBlockEnd
  0
BLOCK
  5
7369
330
735F
100
AcDbEntity
  8
0
100
AcDbBlockBegin
  2
*D16
 70
     1
 10
0.0
 20
0.0
 30
0.0
  3
*D16
  1

  0
LINE
  5
7360
330
735F
100
AcDbEntity
  8
寸法
  6
Continuous
 62
     4
370
    -2
100
AcDbLine
 10
1523.591404387809
 20
888.352881697706
 30
0.0
 11
1556.591404387809
 21
888.352881697706
 31
0.0
  0
LINE
  5
7361
330
735F
100
AcDbEntity
  8
寸法
  6
Continuous
 62
     4
370
    -2
100
AcDbLine
 10
1523.591404387809
 20
852.3528816977059
 30
0.0
 11
1556.591404387809
 21
852.3528816977059
 31
0.0
  0
LINE
  5
7362
330
735F
100
AcDbEntity
  8
寸法
  6
Continuous
 62
     4
370
    -2
100
AcDbLine
 10
1556.591404387809
 20
887.3528816977058
 30
0.0
 11
1556.591404387809
 21
853.3528816977058
 31
0.0
  0
INSERT
  5
7363
330
735F
100
AcDbEntity
  8
寸法
  6
Continuous
 62
     4
370
    -2
100
AcDbBlockReference
  2
_Dot
 10
1556.591404387809
 20
888.352881697706
 30
0.0
 50
90.0
  0
INSERT
  5
7364
330
735F
100
AcDbEntity
  8
寸法
  6
Continuous
 62
     4
370
    -2
100
AcDbBlockReference
  2
_Dot
 10
1556.591404387809
 20
852.3528816977059
 30
0.0
 50
270.0
  0
MTEXT
  5
7365
330
735F
100
AcDbEntity
  8
寸法
  6
Continuous
 62
     3
100
AcDbMText
 10
1553.091404387808
 20
870.3528816977062
 30
0.0
 40
5.0
 41
0.0
 71
     5
 72
     5
  1
\A1;36
  7
ACAD
 11
0.0000000000000001
 21
1.0
 31
0.0
 73
     1
 44
1.0
1001
ACAD
1000
MTEXTBEGIN
1070
    73
1070
     1
1070
    44
1040
1.0
1070
    74
1070
     0
1000
MTEXTEND
  0
POINT
  5
7366
330
735F
100
AcDbEntity
  8
Defpoints
  6
Continuous
 62
     0
100
AcDbPoint
 10
1523.591404387809
 20
888.352881697706
 30
0.0
  0
POINT
  5
7367
330
735F
100
AcDbEntity
  8
Defpoints
  6
Continuous
 62
     0
100
AcDbPoint
 10
1523.591404387809
 20
852.3528816977059
 30
0.0
  0
POINT
  5
7368
330
735F
100
AcDbEntity
  8
Defpoints
  6
Continuous
 62
     0
100
AcDbPoint
 10
1556.591404387809
 20
852.3528816977059
 30
0.0
  0
ENDBLK
  5
736A
330
735F
100
AcDbEntity
  8
0
100
AcDbBlockEnd
  0
BLOCK
  5
7375
330
736C
100
AcDbEntity
  8
0
100
AcDbBlockBegin
  2
*D17
 70
     1
 10
0.0
 20
0.0
 30
0.0
  3
*D17
  1

  0
LINE
  5
738D
330
736C
100
AcDbEntity
  8
寸法
  6
Continuous
 62
     4
370
    -2
100
AcDbLine
 10
1485.091404387809
 20
780.22006493194
 30
0.0
 11
1432.091404387809
 21
780.22006493194
 31
0.0
  0
LINE
  5
738E
330
736C
100
AcDbEntity
  8
寸法
  6
Continuous
 62
     4
370
    -2
100
AcDbLine
 10
1432.091404387809
 20
781.2200649319399
 30
0.0
 11
1432.091404387809
 21
843.3528816977059
 31
0.0
  0
INSERT
  5
738F
330
736C
100
AcDbEntity
  8
寸法
  6
Continuous
 62
     4
370
    -2
100
AcDbBlockReference
  2
_Dot
 10
1432.091404387809
 20
780.22006493194
 30
0.0
 50
270.0
  0
INSERT
  5
7390
330
736C
100
AcDbEntity
  8
寸法
  6
Continuous
 62
     4
370
    -2
100
AcDbBlockReference
  2
_Dot
 10
1432.091404387809
 20
844.3528816977059
 30
0.0
 50
90.0
  0
MTEXT
  5
7391
330
736C
100
AcDbEntity
  8
寸法
  6
Continuous
 62
     3
100
AcDbMText
 10
1428.591404387809
 20
812.2864733148231
 30
0.0
 40
5.0
 41
0.0
 71
     5
 72
     5
  1
\A1;D
  7
ACAD
 11
0.0000000000000001
 21
1.0
 31
0.0
 73
     1
 44
1.0
1001
ACAD
1000
MTEXTBEGIN
1070
    73
1070
     1
1070
    44
1040
1.0
1070
    74
1070
     0
1000
MTEXTEND
  0
POINT
  5
7392
330
736C
100
AcDbEntity
  8
Defpoints
  6
Continuous
 62
     0
100
AcDbPoint
 10
1485.091404387809
 20
780.22006493194
 30
0.0
  0
POINT
  5
7393
330
736C
100
AcDbEntity
  8
Defpoints
  6
Continuous
 62
     0
100
AcDbPoint
 10
1432.091404387809
 20
844.3528816977059
 30
0.0
  0
POINT
  5
7394
330
736C
100
AcDbEntity
  8
Defpoints
  6
Continuous
 62
     0
100
AcDbPoint
 10
1432.091404387809
 20
844.3528816977059
 30
0.0
  0
ENDBLK
  5
7376
330
736C
100
AcDbEntity
  8
0
100
AcDbBlockEnd
  0
BLOCK
  5
7382
330
7378
100
AcDbEntity
  8
0
100
AcDbBlockBegin
  2
*D18
 70
     1
 10
0.0
 20
0.0
 30
0.0
  3
*D18
  1

  0
LINE
  5
7384
330
7378
100
AcDbEntity
  8
寸法
  6
Continuous
 62
     4
370
    -2
100
AcDbLine
 10
1485.091404387809
 20
780.22006493194
 30
0.0
 11
1412.091404387809
 21
780.22006493194
 31
0.0
  0
LINE
  5
7385
330
7378
100
AcDbEntity
  8
寸法
  6
Continuous
 62
     4
370
    -2
100
AcDbLine
 10
1485.091404387809
 20
903.3528816977058
 30
0.0
 11
1412.091404387809
 21
903.3528816977058
 31
0.0
  0
LINE
  5
7386
330
7378
100
AcDbEntity
  8
寸法
  6
Continuous
 62
     4
370
    -2
100
AcDbLine
 10
1412.091404387809
 20
781.2200649319399
 30
0.0
 11
1412.091404387809
 21
902.3528816977059
 31
0.0
  0
INSERT
  5
7387
330
7378
100
AcDbEntity
  8
寸法
  6
Continuous
 62
     4
370
    -2
100
AcDbBlockReference
  2
_Dot
 10
1412.091404387809
 20
780.22006493194
 30
0.0
 50
270.0
  0
INSERT
  5
7388
330
7378
100
AcDbEntity
  8
寸法
  6
Continuous
 62
     4
370
    -2
100
AcDbBlockReference
  2
_Dot
 10
1412.091404387809
 20
903.3528816977058
 30
0.0
 50
90.0
  0
MTEXT
  5
7389
330
7378
100
AcDbEntity
  8
寸法
  6
Continuous
 62
     3
100
AcDbMText
 10
1408.591404387809
 20
841.7864733148231
 30
0.0
 40
5.0
 41
0.0
 71
     5
 72
     5
  1
\A1;E
  7
ACAD
 11
0.0000000000000001
 21
1.0
 31
0.0
 73
     1
 44
1.0
1001
ACAD
1000
MTEXTBEGIN
1070
    73
1070
     1
1070
    44
1040
1.0
1070
    74
1070
     0
1000
MTEXTEND
  0
POINT
  5
738A
330
7378
100
AcDbEntity
  8
Defpoints
  6
Continuous
 62
     0
100
AcDbPoint
 10
1485.091404387809
 20
780.22006493194
 30
0.0
  0
POINT
  5
738B
330
7378
100
AcDbEntity
  8
Defpoints
  6
Continuous
 62
     0
100
AcDbPoint
 10
1485.091404387809
 20
903.3528816977058
 30
0.0
  0
POINT
  5
738C
330
7378
100
AcDbEntity
  8
Defpoints
  6
Continuous
 62
     0
100
AcDbPoint
 10
1412.091404387809
 20
903.3528816977058
 30
0.0
  0
ENDBLK
  5
7383
330
7378
100
AcDbEntity
  8
0
100
AcDbBlockEnd
  0
ENDSEC
  0
SECTION
  2
ENTITIES
  0
TEXT
  5
6D20
330
1E
100
AcDbEntity
  8
図枠
 62
     6
100
AcDbText
 10
1283.854718061244
 20
959.3757478889843
 30
0.0
 40
9.0
  1
◇アルミ１５０タイプ（１５０ＦＹＫ－Ａ）
100
AcDbText
  0
TEXT
  5
6D21
330
1E
100
AcDbEntity
  8
図枠
 62
     6
100
AcDbText
 10
1284.870418544335
 20
942.1088396764238
 30
0.0
 40
9.0
  1
　　屋根－壁（切欠き壁）
100
AcDbText
  0
TEXT
  5
6D22
330
1E
100
AcDbEntity
  8
図枠
 62
     6
100
AcDbText
 10
1284.870418544335
 20
922.81053049768
 30
0.0
 40
9.0
  1
　　Ｓ＝１／２
100
AcDbText
  0
TEXT
  5
6D23
330
1E
100
AcDbEntity
  8
図枠
 62
     7
100
AcDbText
 10
1894.981068394485
 20
807.6087748253486
 30
0.0
 40
5.0
  1
５
100
AcDbText
  0
CIRCLE
  5
6D24
330
1E
100
AcDbEntity
  8
図枠
  6
Continuous
 62
     4
100
AcDbCircle
 10
1897.981068394485
 20
810.6087748253488
 30
0.0
 40
6.0
  0
LINE
  5
6D25
330
1E
100
AcDbEntity
  8
図枠
  6
Continuous
 62
     4
100
AcDbLine
 10
1870.013054578128
 20
762.1667539086313
 30
0.0
 11
1894.981068394485
 21
805.4126224026422
 31
0.0
  0
CIRCLE
  5
6D26
330
1E
100
AcDbEntity
  8
図枠
  6
Continuous
 62
     4
100
AcDbCircle
 10
1870.013054578128
 20
762.1667539086313
 30
0.0
 40
0.9
  0
TEXT
  5
6D27
330
1E
100
AcDbEntity
  8
図枠
 62
     7
100
AcDbText
 10
1857.276526316995
 20
715.3524578864075
 30
0.0
 40
5.0
  1
11
100
AcDbText
  0
CIRCLE
  5
6D28
330
1E
100
AcDbEntity
  8
図枠
  6
Continuous
 62
     4
100
AcDbCircle
 10
1860.526526316996
 20
718.3524578864076
 30
0.0
 40
6.0
  0
LINE
  5
6D29
330
1E
100
AcDbEntity
  8
図枠
  6
Continuous
 62
     4
100
AcDbLine
 10
1847.069078780365
 20
741.6614407600443
 30
0.0
 11
1857.526526316996
 21
723.5486103091142
 31
0.0
  0
CIRCLE
  5
6D2A
330
1E
100
AcDbEntity
  8
図枠
  6
Continuous
 62
     4
100
AcDbCircle
 10
1847.069078780365
 20
741.6614407600443
 30
0.0
 40
0.9
  0
LINE
  5
6D2B
330
1E
100
AcDbEntity
  8
図枠
  6
Continuous
 62
     4
100
AcDbLine
 10
1871.844987098055
 20
809.7482115837188
 30
0.0
 11
1895.481468241458
 21
850.6877978362346
 31
0.0
  0
TEXT
  5
6D2C
330
1E
100
AcDbEntity
  8
図枠
 62
     7
100
AcDbText
 10
1895.481468241458
 20
852.8839502589415
 30
0.0
 40
5.0
  1
９
100
AcDbText
  0
CIRCLE
  5
6D2D
330
1E
100
AcDbEntity
  8
図枠
  6
Continuous
 62
     4
100
AcDbCircle
 10
1898.481468241458
 20
855.8839502589414
 30
0.0
 40
6.0
  0
TEXT
  5
6D2E
330
1E
100
AcDbEntity
  8
図枠
 62
     7
100
AcDbText
 10
1896.437241503089
 20
872.9170160236948
 30
0.0
 40
5.0
  1
１
100
AcDbText
  0
CIRCLE
  5
6D2F
330
1E
100
AcDbEntity
  8
図枠
  6
Continuous
 62
     4
100
AcDbCircle
 10
1871.300760359687
 20
827.1832011371191
 30
0.0
 40
0.9
  0
LINE
  5
6D30
330
1E
100
AcDbEntity
  8
図枠
  6
Continuous
 62
     4
100
AcDbLine
 10
1871.300760359687
 20
827.1832011371191
 30
0.0
 11
1896.437241503089
 21
870.7208636009879
 31
0.0
  0
CIRCLE
  5
6D31
330
1E
100
AcDbEntity
  8
図枠
  6
Continuous
 62
     4
100
AcDbCircle
 10
1899.437241503089
 20
875.917016023695
 30
0.0
 40
6.0
  0
CIRCLE
  5
6D32
330
1E
100
AcDbEntity
  8
図枠
  6
Continuous
 62
     4
100
AcDbCircle
 10
1871.844987098055
 20
809.7482115837188
 30
0.0
 40
0.9
  0
LINE
  5
6D33
330
1E
100
AcDbEntity
  8
躯体と製品
  6
Continuous
 62
     7
100
AcDbLine
 10
1759.051365831875
 20
791.22006493194
 30
0.0
 11
1758.643372896177
 21
791.6731869922887
 31
0.0
  0
LINE
  5
6D34
330
1E
100
AcDbEntity
  8
躯体と製品
  6
Continuous
 62
     4
100
AcDbLine
 10
1759.474827231579
 20
796.6757679123148
 30
0.0
 11
1759.188905953949
 21
791.22006493194
 31
0.0
  0
LINE
  5
6D35
330
1E
100
AcDbEntity
  8
躯体と製品
  6
Continuous
 62
     7
100
AcDbLine
 10
1764.635150104704
 20
791.3591712548309
 30
0.0
 11
1764.480656881609
 21
791.22006493194
 31
0.0
  0
LINE
  5
6D36
330
1E
100
AcDbEntity
  8
躯体と製品
  6
Continuous
 62
     4
100
AcDbLine
 10
1764.33116265909
 20
796.4212581571055
 30
0.0
 11
1764.058579672537
 21
791.22006493194
 31
0.0
  0
LINE
  5
6D37
330
1E
100
AcDbEntity
  8
図枠
  6
Continuous
 62
     4
100
AcDbLine
 10
1754.969652634787
 20
785.4562218645173
 30
0.0
 11
1745.272399002908
 21
768.6600858802205
 31
0.0
  0
CIRCLE
  5
6D38
330
1E
100
AcDbEntity
  8
図枠
  6
Continuous
 62
     4
100
AcDbCircle
 10
1742.272399002908
 20
763.463933457514
 30
0.0
 40
6.0
  0
CIRCLE
  5
6D39
330
1E
100
AcDbEntity
  8
図枠
  6
Continuous
 62
     4
100
AcDbCircle
 10
1754.969652634787
 20
785.4562218645173
 30
0.0
 40
0.9
  0
LINE
  5
6D3A
330
1E
100
AcDbEntity
  8
図枠
  6
Continuous
 62
     4
100
AcDbLine
 10
1759.965393411807
 20
755.137403533793
 30
0.0
 11
1749.92377921706
 21
737.7448175584874
 31
0.0
  0
TEXT
  5
6D3B
330
1E
100
AcDbEntity
  8
図枠
 62
     7
100
AcDbText
 10
1743.67377921706
 20
729.5486651357808
 30
0.0
 40
5.0
  1
17
100
AcDbText
  0
CIRCLE
  5
6D3C
330
1E
100
AcDbEntity
  8
図枠
  6
Continuous
 62
     4
100
AcDbCircle
 10
1746.92377921706
 20
732.5486651357807
 30
0.0
 40
6.0
  0
LINE
  5
6D3D
330
1E
100
AcDbEntity
  8
図枠
  6
Continuous
 62
     4
100
AcDbLine
 10
1766.428815216504
 20
788.3206370791981
 30
0.0
 11
1782.851200881361
 21
759.8762307261758
 31
0.0
  0
TEXT
  5
6D3E
330
1E
100
AcDbEntity
  8
図枠
 62
     7
100
AcDbText
 10
1782.601200881361
 20
751.6800783034693
 30
0.0
 40
5.0
  1
16
100
AcDbText
  0
CIRCLE
  5
6D3F
330
1E
100
AcDbEntity
  8
図枠
  6
Continuous
 62
     4
100
AcDbCircle
 10
1785.851200881361
 20
754.6800783034691
 30
0.0
 40
6.0
  0
LINE
  5
6D40
330
1E
100
AcDbEntity
  8
図枠
  6
Continuous
 62
     4
100
AcDbLine
 10
1772.268887115953
 20
795.7086798435605
 30
0.0
 11
1784.050573247721
 21
775.3022008645079
 31
0.0
  0
TEXT
  5
6D41
330
1E
100
AcDbEntity
  8
図枠
 62
     7
100
AcDbText
 10
1739.022399002908
 20
760.463933457514
 30
0.0
 40
5.0
  1
20
100
AcDbText
  0
CIRCLE
  5
6D42
330
1E
100
AcDbEntity
  8
図枠
  6
Continuous
 62
     4
100
AcDbCircle
 10
1787.050573247721
 20
770.1060484418015
 30
0.0
 40
6.0
  0
LINE
  5
6D43
330
1E
100
AcDbEntity
  8
図枠
  6
Continuous
 62
     4
100
AcDbLine
 10
1764.145849425241
 20
815.6832346192077
 30
0.0
 11
1781.971381964273
 21
846.5579626487834
 31
0.0
  0
TEXT
  5
6D44
330
1E
100
AcDbEntity
  8
図枠
 62
     7
100
AcDbText
 10
1784.050573247721
 20
767.1060484418014
 30
0.0
 40
5.0
  1
８
100
AcDbText
  0
CIRCLE
  5
6D45
330
1E
100
AcDbEntity
  8
図枠
  6
Continuous
 62
     4
100
AcDbCircle
 10
1784.971381964273
 20
851.7541150714899
 30
0.0
 40
6.0
  0
LINE
  5
6D46
330
1E
100
AcDbEntity
  8
図枠
  6
Continuous
 62
     4
100
AcDbLine
 10
1779.695233416198
 20
818.405487262639
 30
0.0
 11
1797.982323188574
 21
850.0796558709673
 31
0.0
  0
CIRCLE
  5
6D47
330
1E
100
AcDbEntity
  8
図枠
  6
Continuous
 62
     4
100
AcDbCircle
 10
1800.982323188574
 20
855.275808293674
 30
0.0
 40
6.0
  0
LINE
  5
6D48
330
1E
100
AcDbEntity
  8
図枠
  6
Continuous
 62
     4
100
AcDbLine
 10
1779.613095971988
 20
793.9714019178957
 30
0.0
 11
1804.426150227438
 21
836.9488725792981
 31
0.0
  0
TEXT
  5
6D49
330
1E
100
AcDbEntity
  8
図枠
 62
     7
100
AcDbText
 10
1804.426150227438
 20
839.1450250020048
 30
0.0
 40
5.0
  1
３
100
AcDbText
  0
CIRCLE
  5
6D4A
330
1E
100
AcDbEntity
  8
図枠
  6
Continuous
 62
     4
100
AcDbCircle
 10
1807.426150227438
 20
842.1450250020045
 30
0.0
 40
6.0
  0
CIRCLE
  5
6D4B
330
1E
100
AcDbEntity
  8
図枠
  6
Continuous
 62
     4
100
AcDbCircle
 10
1779.613095971988
 20
793.9714019178957
 30
0.0
 40
0.9
  0
LINE
  5
6D4C
330
1E
100
AcDbEntity
  8
図枠
  6
Continuous
 62
     4
100
AcDbLine
 10
1812.064745126568
 20
813.8182590320445
 30
0.0
 11
1825.990060238179
 21
837.9376123167597
 31
0.0
  0
TEXT
  5
6D4D
330
1E
100
AcDbEntity
  8
図枠
 62
     7
100
AcDbText
 10
1825.990060238179
 20
840.1337647394663
 30
0.0
 40
5.0
  1
６
100
AcDbText
  0
CIRCLE
  5
6D4E
330
1E
100
AcDbEntity
  8
図枠
  6
Continuous
 62
     4
100
AcDbCircle
 10
1828.990060238179
 20
843.1337647394665
 30
0.0
 40
6.0
  0
CIRCLE
  5
6D4F
330
1E
100
AcDbEntity
  8
図枠
  6
Continuous
 62
     4
100
AcDbCircle
 10
1772.268887115953
 20
795.7086798435605
 30
0.0
 40
0.9
  0
CIRCLE
  5
6D50
330
1E
100
AcDbEntity
  8
図枠
  6
Continuous
 62
     4
100
AcDbCircle
 10
1766.428815216504
 20
788.3206370791981
 30
0.0
 40
0.9
  0
CIRCLE
  5
6D51
330
1E
100
AcDbEntity
  8
図枠
  6
Continuous
 62
     4
100
AcDbCircle
 10
1779.695233416198
 20
818.405487262639
 30
0.0
 40
0.9
  0
CIRCLE
  5
6D52
330
1E
100
AcDbEntity
  8
図枠
  6
Continuous
 62
     4
100
AcDbCircle
 10
1759.965393411807
 20
755.137403533793
 30
0.0
 40
0.9
  0
CIRCLE
  5
6D53
330
1E
100
AcDbEntity
  8
図枠
  6
Continuous
 62
     4
100
AcDbCircle
 10
1764.145849425241
 20
815.6832346192077
 30
0.0
 40
0.9
  0
CIRCLE
  5
6D54
330
1E
100
AcDbEntity
  8
図枠
  6
Continuous
 62
     4
100
AcDbCircle
 10
1812.064745126568
 20
813.8182590320445
 30
0.0
 40
0.9
  0
TEXT
  5
6D55
330
1E
100
AcDbEntity
  8
図枠
 62
     7
100
AcDbText
 10
1781.721381964273
 20
848.75411507149
 30
0.0
 40
5.0
  1
14
100
AcDbText
  0
TEXT
  5
6D56
330
1E
100
AcDbEntity
  8
図枠
 62
     7
100
AcDbText
 10
1797.982323188574
 20
852.2758082936743
 30
0.0
 40
5.0
  1
７
100
AcDbText
  0
LINE
  5
6D57
330
1E
100
AcDbEntity
  8
躯体と製品
  6
Continuous
 62
     7
100
AcDbLine
 10
1767.864907079706
 20
790.7157479176357
 30
0.0
 11
1767.864907079706
 21
786.2200649319399
 31
0.0
  0
LINE
  5
6D58
330
1E
100
AcDbEntity
  8
躯体と製品
  6
Continuous
 62
     7
100
AcDbLine
 10
1764.978155733757
 20
790.7157479176357
 30
0.0
 11
1764.978155733757
 21
786.2200649319399
 31
0.0
  0
LINE
  5
6D59
330
1E
100
AcDbEntity
  8
躯体と製品
  6
Continuous
 62
     7
100
AcDbLine
 10
1759.204653041861
 20
790.7157479176357
 30
0.0
 11
1759.204653041861
 21
786.2200649319399
 31
0.0
  0
LINE
  5
6D5A
330
1E
100
AcDbEntity
  8
躯体と製品
  6
Continuous
 62
     7
100
AcDbLine
 10
1766.991404387809
 20
791.22006493194
 30
0.0
 11
1767.864907079706
 21
790.7157479176357
 31
0.0
  0
LINE
  5
6D5B
330
1E
100
AcDbEntity
  8
躯体と製品
  6
Continuous
 62
     7
100
AcDbLine
 10
1757.191404387809
 20
791.22006493194
 30
0.0
 11
1766.991404387809
 21
791.22006493194
 31
0.0
  0
LINE
  5
6D5C
330
1E
100
AcDbEntity
  8
躯体と製品
  6
Continuous
 62
     7
100
AcDbLine
 10
1757.191404387809
 20
791.22006493194
 30
0.0
 11
1756.317901695913
 21
790.7157479176357
 31
0.0
  0
LINE
  5
6D5D
330
1E
100
AcDbEntity
  8
躯体と製品
  6
Continuous
 62
     7
100
AcDbLine
 10
1756.317901695913
 20
790.7157479176357
 30
0.0
 11
1756.317901695913
 21
786.2200649319399
 31
0.0
  0
ARC
  5
6D5E
330
1E
100
AcDbEntity
  8
躯体と製品
  6
Continuous
 62
     7
100
AcDbCircle
 10
1766.421531406731
 20
788.6065071565917
 30
0.0
 40
2.555822748428199
100
AcDbArc
 50
55.61575253203897
 51
124.384247467961
  0
ARC
  5
6D5F
330
1E
100
AcDbEntity
  8
躯体と製品
  6
Continuous
 62
     7
100
AcDbCircle
 10
1757.761277368887
 20
788.6065071565917
 30
0.0
 40
2.555822748428199
100
AcDbArc
 50
55.61575253203897
 51
124.384247467961
  0
ARC
  5
6D60
330
1E
100
AcDbEntity
  8
躯体と製品
  6
Continuous
 62
     7
100
AcDbCircle
 10
1762.091404387809
 20
781.6089118923842
 30
0.0
 40
9.553418012635715
100
AcDbArc
 50
72.41204622604974
 51
107.5879537739502
  0
LINE
  5
6D61
330
1E
100
AcDbEntity
  8
躯体と製品
  6
Continuous
 62
     7
100
AcDbLine
 10
1753.091404387809
 20
786.2200649319399
 30
0.0
 11
1753.091404387809
 21
784.7200649319399
 31
0.0
  0
LINE
  5
6D62
330
1E
100
AcDbEntity
  8
躯体と製品
  6
Continuous
 62
     7
100
AcDbLine
 10
1753.091404387809
 20
786.2200649319399
 30
0.0
 11
1771.091404387809
 21
786.2200649319399
 31
0.0
  0
LINE
  5
6D63
330
1E
100
AcDbEntity
  8
躯体と製品
  6
Continuous
 62
     7
100
AcDbLine
 10
1771.091404387809
 20
786.2200649319399
 30
0.0
 11
1771.091404387809
 21
784.7200649319399
 31
0.0
  0
CIRCLE
  5
6D64
330
1E
100
AcDbEntity
  8
図枠
  6
Continuous
 62
     4
100
AcDbCircle
 10
1548.364260725343
 20
738.8449183452262
 30
0.0
 40
6.0
  0
TEXT
  5
6D65
330
1E
100
AcDbEntity
  8
図枠
 62
     7
100
AcDbText
 10
1545.114260725343
 20
735.8449183452262
 30
0.0
 40
5.0
  1
12
100
AcDbText
  0
LINE
  5
6D66
330
1E
100
AcDbEntity
  8
図枠
  6
Continuous
 62
     4
100
AcDbLine
 10
1531.480973538922
 20
709.6022071395674
 30
0.0
 11
1545.364260725343
 21
733.6487659225197
 31
0.0
  0
CIRCLE
  5
6D67
330
1E
100
AcDbEntity
  8
図枠
  6
Continuous
 62
     4
100
AcDbCircle
 10
1531.480973538922
 20
709.6022071395674
 30
0.0
 40
0.9
  0
CIRCLE
  5
6D68
330
1E
100
AcDbEntity
  8
図枠
  6
Continuous
 62
     4
100
AcDbCircle
 10
1471.949404777965
 20
825.9437108990606
 30
0.0
 40
6.0
  0
TEXT
  5
6D69
330
1E
100
AcDbEntity
  8
図枠
 62
     7
100
AcDbText
 10
1468.699404777965
 20
822.9437108990605
 30
0.0
 40
5.0
  1
21
100
AcDbText
  0
LINE
  5
6D6A
330
1E
100
AcDbEntity
  8
図枠
  6
Continuous
 62
     4
100
AcDbLine
 10
1492.375207275658
 20
837.7365534695181
 30
0.0
 11
1477.145557200671
 21
828.9437108990606
 31
0.0
  0
CIRCLE
  5
6D6B
330
1E
100
AcDbEntity
  8
図枠
  6
Continuous
 62
     4
100
AcDbCircle
 10
1492.375207275658
 20
837.7365534695181
 30
0.0
 40
0.9
  0
TEXT
  5
6D6C
330
1E
100
AcDbEntity
  8
図枠
 62
     7
100
AcDbText
 10
1467.47594465023
 20
867.0005796840614
 30
0.0
 40
5.0
  1
19
100
AcDbText
  0
LINE
  5
6D6D
330
1E
100
AcDbEntity
  8
図枠
  6
Continuous
 62
     4
100
AcDbLine
 10
1494.454408232052
 20
846.2721161022392
 30
0.0
 11
1474.968585337349
 21
865.7579389969422
 31
0.0
  0
CIRCLE
  5
6D6E
330
1E
100
AcDbEntity
  8
図枠
  6
Continuous
 62
     4
100
AcDbCircle
 10
1470.72594465023
 20
870.0005796840613
 30
0.0
 40
6.0
  0
CIRCLE
  5
6D6F
330
1E
100
AcDbEntity
  8
図枠
  6
Continuous
 62
     4
100
AcDbCircle
 10
1442.65964063788
 20
868.9018394712821
 30
0.0
 40
6.0
  0
LINE
  5
6D70
330
1E
100
AcDbEntity
  8
図枠
  6
Continuous
 62
     4
100
AcDbLine
 10
1455.157764744966
 20
847.2544535185074
 30
0.0
 11
1445.65964063788
 21
863.7056870485755
 31
0.0
  0
TEXT
  5
6D71
330
1E
100
AcDbEntity
  8
図枠
 62
     7
100
AcDbText
 10
1439.40964063788
 20
865.9018394712823
 30
0.0
 40
5.0
  1
18
100
AcDbText
  0
CIRCLE
  5
6D72
330
1E
100
AcDbEntity
  8
図枠
  6
Continuous
 62
     4
100
AcDbCircle
 10
1455.157764744966
 20
847.2544535185074
 30
0.0
 40
0.9
  0
CIRCLE
  5
6D73
330
1E
100
AcDbEntity
  8
図枠
  6
Continuous
 62
     4
100
AcDbCircle
 10
1494.454408232052
 20
846.2721161022392
 30
0.0
 40
0.9
  0
LINE
  5
6D74
330
1E
100
AcDbEntity
  8
図枠
  6
Continuous
 62
     4
100
AcDbLine
 10
1494.061816853813
 20
877.0902686698823
 30
0.0
 11
1475.94270161114
 21
908.473496858388
 31
0.0
  0
TEXT
  5
6D75
330
1E
100
AcDbEntity
  8
図枠
 62
     7
100
AcDbText
 10
1469.94270161114
 20
910.6696492810948
 30
0.0
 40
5.0
  1
４
100
AcDbText
  0
CIRCLE
  5
6D76
330
1E
100
AcDbEntity
  8
図枠
  6
Continuous
 62
     4
100
AcDbCircle
 10
1472.94270161114
 20
913.6696492810948
 30
0.0
 40
6.0
  0
LINE
  5
6D77
330
1E
100
AcDbEntity
  8
図枠
  6
Continuous
 62
     4
100
AcDbLine
 10
1498.233314161215
 20
895.6091110877746
 30
0.0
 11
1478.423297943464
 21
929.9210656756837
 31
0.0
  0
TEXT
  5
6D78
330
1E
100
AcDbEntity
  8
図枠
 62
     7
100
AcDbText
 10
1472.173297943464
 20
932.1172180983905
 30
0.0
 40
5.0
  1
15
100
AcDbText
  0
CIRCLE
  5
6D79
330
1E
100
AcDbEntity
  8
図枠
  6
Continuous
 62
     4
100
AcDbCircle
 10
1475.423297943464
 20
935.1172180983907
 30
0.0
 40
6.0
  0
LINE
  5
6D7A
330
1E
100
AcDbEntity
  8
図枠
  6
Continuous
 62
     4
100
AcDbLine
 10
1514.612547267077
 20
887.609686289716
 30
0.0
 11
1532.849368771907
 21
919.1967877046463
 31
0.0
  0
TEXT
  5
6D7B
330
1E
100
AcDbEntity
  8
図枠
 62
     7
100
AcDbText
 10
1532.849368771907
 20
921.392940127353
 30
0.0
 40
5.0
  1
２
100
AcDbText
  0
CIRCLE
  5
6D7C
330
1E
100
AcDbEntity
  8
図枠
  6
Continuous
 62
     4
100
AcDbCircle
 10
1535.849368771907
 20
924.3929401273529
 30
0.0
 40
6.0
  0
LINE
  5
6D7D
330
1E
100
AcDbEntity
  8
図枠
  6
Continuous
 62
     4
100
AcDbLine
 10
1519.309103525949
 20
868.8125744338675
 30
0.0
 11
1540.777959912225
 21
905.9977244752984
 31
0.0
  0
CIRCLE
  5
6D7E
330
1E
100
AcDbEntity
  8
図枠
  6
Continuous
 62
     4
100
AcDbCircle
 10
1543.777959912225
 20
911.1938768980049
 30
0.0
 40
6.0
  0
TEXT
  5
6D7F
330
1E
100
AcDbEntity
  8
図枠
 62
     7
100
AcDbText
 10
1540.527959912226
 20
908.193876898005
 30
0.0
 40
5.0
  1
10
100
AcDbText
  0
LINE
  5
6D80
330
1E
100
AcDbEntity
  8
図枠
  6
Continuous
 62
     4
100
AcDbLine
 10
1518.812298636395
 20
849.7543482248214
 30
0.0
 11
1542.703906333225
 21
808.3728698194081
 31
0.0
  0
TEXT
  5
6D81
330
1E
100
AcDbEntity
  8
図枠
 62
     7
100
AcDbText
 10
1542.453906333225
 20
800.1767173967015
 30
0.0
 40
5.0
  1
13
100
AcDbText
  0
CIRCLE
  5
6D82
330
1E
100
AcDbEntity
  8
図枠
  6
Continuous
 62
     4
100
AcDbCircle
 10
1545.703906333225
 20
803.1767173967013
 30
0.0
 40
6.0
  0
CIRCLE
  5
6D83
330
1E
100
AcDbEntity
  8
図枠
  6
Continuous
 62
     4
100
AcDbCircle
 10
1498.233314161215
 20
895.6091110877746
 30
0.0
 40
0.9
  0
CIRCLE
  5
6D84
330
1E
100
AcDbEntity
  8
図枠
  6
Continuous
 62
     4
100
AcDbCircle
 10
1518.812298636395
 20
849.7543482248214
 30
0.0
 40
0.9
  0
CIRCLE
  5
6D85
330
1E
100
AcDbEntity
  8
図枠
  6
Continuous
 62
     4
100
AcDbCircle
 10
1519.309103525949
 20
868.8125744338675
 30
0.0
 40
0.9
  0
CIRCLE
  5
6D86
330
1E
100
AcDbEntity
  8
図枠
  6
Continuous
 62
     4
100
AcDbCircle
 10
1494.061816853813
 20
877.0902686698823
 30
0.0
 40
0.9
  0
CIRCLE
  5
6D87
330
1E
100
AcDbEntity
  8
図枠
  6
Continuous
 62
     4
100
AcDbCircle
 10
1514.612547267077
 20
887.609686289716
 30
0.0
 40
0.9
  0
LINE
  5
6D88
330
1E
100
AcDbEntity
  8
躯体と製品
  6
Continuous
 62
     7
100
AcDbLine
 10
1493.091404387809
 20
835.3528816977059
 30
0.0
 11
1493.091404387809
 21
853.3528816977058
 31
0.0
  0
LINE
  5
6D89
330
1E
100
AcDbEntity
  8
躯体と製品
  6
Continuous
 62
     7
100
AcDbLine
 10
1493.091404387809
 20
835.3528816977059
 30
0.0
 11
1491.591404387809
 21
835.3528816977059
 31
0.0
  0
LINE
  5
6D8A
330
1E
100
AcDbEntity
  8
躯体と製品
  6
Continuous
 62
     7
100
AcDbLine
 10
1493.091404387809
 20
853.3528816977058
 30
0.0
 11
1491.591404387809
 21
853.3528816977058
 31
0.0
  0
ARC
  5
6D8B
330
1E
100
AcDbEntity
  8
躯体と製品
  6
Continuous
 62
     7
100
AcDbCircle
 10
1492.962694841842
 20
845.855641697706
 30
0.0
 40
3.0
100
AcDbArc
 50
38.61463799999811
 51
87.54107400000371
  0
ARC
  5
6D8C
330
1E
100
AcDbEntity
  8
躯体と製品
  6
Continuous
 62
     7
100
AcDbCircle
 10
1491.091405841842
 20
844.3528816977059
 30
0.0
 40
5.4
100
AcDbArc
 50
0.0
 51
38.85106200000375
  0
ARC
  5
6D8D
330
1E
100
AcDbEntity
  8
躯体と製品
  6
Continuous
 62
     7
100
AcDbCircle
 10
1491.091405841842
 20
844.3528816977059
 30
0.0
 40
5.4
100
AcDbArc
 50
321.3178130000017
 51
0.0
  0
ARC
  5
6D8E
330
1E
100
AcDbEntity
  8
躯体と製品
  6
Continuous
 62
     7
100
AcDbCircle
 10
1492.962694841842
 20
842.850118697706
 30
0.0
 40
3.0
100
AcDbArc
 50
272.4589259999963
 51
321.3853620000019
  0
LINE
  5
6D8F
330
1E
100
AcDbEntity
  8
躯体と製品
  6
Continuous
 62
     4
100
AcDbLine
 10
1503.722663085288
 20
895.3580208248578
 30
0.0
 11
1505.451014434031
 21
888.8419310460442
 31
0.0
  0
LINE
  5
6D90
330
1E
100
AcDbEntity
  8
躯体と製品
  6
Continuous
 62
     4
100
AcDbLine
 10
1501.731794341586
 20
902.8638323493677
 30
0.0
 11
1503.11064036181
 21
897.6654191531892
 31
0.0
  0
TEXT
  5
6D91
330
1E
100
AcDbEntity
  8
図枠
 62
     7
100
AcDbText
 10
1412.091404387809
 20
577.7200649319398
 30
0.0
 40
5.0
  1
止水補助板ホルダーＡＬ
100
AcDbText
  0
LINE
  5
6D9D
330
1E
100
AcDbEntity
  8
躯体と製品
  6
Continuous
 62
     7
100
AcDbLine
 10
1512.091404387809
 20
973.3528816977059
 30
0.0
 11
1512.091404387809
 21
903.3528816977058
 31
0.0
  0
LINE
  5
6DAC
330
1E
100
AcDbEntity
  8
躯体と製品
  6
Continuous
 62
     4
100
AcDbLine
 10
1508.953013433381
 20
888.3528816977063
 30
0.0
 11
1511.519716522267
 21
890.9195847865923
 31
0.0
  0
LINE
  5
6DAD
330
1E
100
AcDbEntity
  8
躯体と製品
  6
Continuous
 62
     4
100
AcDbLine
 10
1506.124586308634
 20
888.352881697706
 30
0.0
 11
1511.194721705821
 21
893.423017094893
 31
0.0
  0
LINE
  5
6DAE
330
1E
100
AcDbEntity
  8
躯体と製品
  6
Continuous
 62
     4
100
AcDbLine
 10
1505.591404387809
 20
890.6481269016273
 30
0.0
 11
1511.09294295504
 21
896.1496654688589
 31
0.0
  0
LINE
  5
6DAF
330
1E
100
AcDbEntity
  8
躯体と製品
  6
Continuous
 62
     4
100
AcDbLine
 10
1505.591404387809
 20
893.476554026374
 30
0.0
 11
1511.284171749872
 21
899.1693213884378
 31
0.0
  0
LINE
  5
6DB0
330
1E
100
AcDbEntity
  8
躯体と製品
  6
Continuous
 62
     4
100
AcDbLine
 10
1505.591404387809
 20
896.3049811511208
 30
0.0
 11
1511.901632126537
 21
902.6152088898495
 31
0.0
  0
LINE
  5
6DB1
330
1E
100
AcDbEntity
  8
躯体と製品
  6
Continuous
 62
     4
100
AcDbLine
 10
1505.591404387809
 20
899.1334082758671
 30
0.0
 11
1509.810877809647
 21
903.3528816977058
 31
0.0
  0
LINE
  5
6DB2
330
1E
100
AcDbEntity
  8
躯体と製品
  6
Continuous
 62
     4
100
AcDbLine
 10
1505.591404387809
 20
901.9618354006142
 30
0.0
 11
1506.9824506849
 21
903.3528816977058
 31
0.0
  0
ARC
  5
6DB3
330
1E
100
AcDbEntity
  8
躯体と製品
  6
Continuous
 62
     7
100
AcDbCircle
 10
1539.716404387807
 20
895.8528816977063
 30
0.0
 40
28.62499999999828
100
AcDbArc
 50
164.8107132628193
 51
195.1892867371807
  0
LINE
  5
6DC2
330
1E
100
AcDbEntity
  8
躯体と製品
  6
Continuous
 62
     7
100
AcDbLine
 10
1489.091404387809
 20
804.2200649319402
 30
0.0
 11
1489.091404387809
 21
888.352881697706
 31
0.0
  0
LINE
  5
6DC3
330
1E
100
AcDbEntity
  8
躯体と製品
  6
Continuous
 62
     7
100
AcDbLine
 10
1488.091404387809
 20
804.2200649319402
 30
0.0
 11
1488.091404387809
 21
858.3528816977057
 31
0.0
  0
LINE
  5
6DC4
330
1E
100
AcDbEntity
  8
躯体と製品
  6
Continuous
 62
     7
100
AcDbLine
 10
1501.591404387809
 20
899.3528816977057
 30
0.0
 11
1501.591404387809
 21
902.3528816977059
 31
0.0
  0
LINE
  5
6DC5
330
1E
100
AcDbEntity
  8
躯体と製品
  6
Continuous
 62
     7
100
AcDbLine
 10
1505.591404387809
 20
889.352881697706
 30
0.0
 11
1505.591404387809
 21
902.3528816977059
 31
0.0
  0
ARC
  5
6DC6
330
1E
100
AcDbEntity
  8
躯体と製品
  6
Continuous
 62
     7
100
AcDbCircle
 10
1504.591404387809
 20
902.3528816977059
 30
0.0
 40
1.0
100
AcDbArc
 50
0.0
 51
90.0
  0
LINE
  5
6DC7
330
1E
100
AcDbEntity
  8
躯体と製品
  6
Continuous
 62
     7
100
AcDbLine
 10
1504.591404387809
 20
903.3528816977058
 30
0.0
 11
1502.591404387809
 21
903.3528816977058
 31
0.0
  0
ARC
  5
6DC8
330
1E
100
AcDbEntity
  8
躯体と製品
  6
Continuous
 62
     7
100
AcDbCircle
 10
1502.591404387809
 20
902.3528816977059
 30
0.0
 40
1.0
100
AcDbArc
 50
90.0
 51
180.0
  0
LINE
  5
6DC9
330
1E
100
AcDbEntity
  8
躯体と製品
  6
Continuous
 62
     7
100
AcDbLine
 10
1487.091404387809
 20
903.3528816977058
 30
0.0
 11
1487.091404387809
 21
780.22006493194
 31
0.0
  0
LINE
  5
6DCA
330
1E
100
AcDbEntity
  8
躯体と製品
  6
Continuous
 62
     7
100
AcDbLine
 10
1488.091404387809
 20
888.352881697706
 30
0.0
 11
1489.091404387809
 21
888.352881697706
 31
0.0
  0
LINE
  5
6DCB
330
1E
100
AcDbEntity
  8
躯体と製品
  6
Continuous
 62
     4
100
AcDbLine
 10
1487.091404387809
 20
887.9766157439567
 30
0.0
 11
1488.091404387809
 21
886.9766157439569
 31
0.0
  0
LINE
  5
6DCC
330
1E
100
AcDbEntity
  8
躯体と製品
  6
Continuous
 62
     4
100
AcDbLine
 10
1487.091404387809
 20
886.5624021815836
 30
0.0
 11
1488.091404387809
 21
885.5624021815831
 31
0.0
  0
LINE
  5
6DCD
330
1E
100
AcDbEntity
  8
躯体と製品
  6
Continuous
 62
     4
100
AcDbLine
 10
1487.091404387809
 20
885.1481886192095
 30
0.0
 11
1488.091404387809
 21
884.1481886192093
 31
0.0
  0
LINE
  5
6DCE
330
1E
100
AcDbEntity
  8
躯体と製品
  6
Continuous
 62
     4
100
AcDbLine
 10
1487.091404387808
 20
883.7339750568391
 30
0.0
 11
1488.091404387809
 21
882.7339750568386
 31
0.0
  0
LINE
  5
6DCF
330
1E
100
AcDbEntity
  8
躯体と製品
  6
Continuous
 62
     4
100
AcDbLine
 10
1487.091404387809
 20
882.3197614944652
 30
0.0
 11
1488.091404387809
 21
881.3197614944654
 31
0.0
  0
LINE
  5
6DD0
330
1E
100
AcDbEntity
  8
躯体と製品
  6
Continuous
 62
     4
100
AcDbLine
 10
1487.091404387809
 20
880.9055479320917
 30
0.0
 11
1488.091404387809
 21
879.9055479320921
 31
0.0
  0
LINE
  5
6DD1
330
1E
100
AcDbEntity
  8
躯体と製品
  6
Continuous
 62
     4
100
AcDbLine
 10
1487.091404387809
 20
879.4913343697187
 30
0.0
 11
1488.091404387808
 21
878.4913343697192
 31
0.0
  0
LINE
  5
6DD2
330
1E
100
AcDbEntity
  8
躯体と製品
  6
Continuous
 62
     4
100
AcDbLine
 10
1487.091404387809
 20
878.0771208073455
 30
0.0
 11
1488.091404387808
 21
877.0771208073457
 31
0.0
  0
LINE
  5
6DD3
330
1E
100
AcDbEntity
  8
躯体と製品
  6
Continuous
 62
     4
100
AcDbLine
 10
1487.091404387809
 20
876.6629072449719
 30
0.0
 11
1488.091404387809
 21
875.6629072449715
 31
0.0
  0
LINE
  5
6DD4
330
1E
100
AcDbEntity
  8
躯体と製品
  6
Continuous
 62
     4
100
AcDbLine
 10
1487.091404387809
 20
875.2486936825986
 30
0.0
 11
1488.091404387809
 21
874.2486936825985
 31
0.0
  0
LINE
  5
6DD5
330
1E
100
AcDbEntity
  8
躯体と製品
  6
Continuous
 62
     4
100
AcDbLine
 10
1487.091404387809
 20
873.8344801202254
 30
0.0
 11
1488.091404387809
 21
872.8344801202252
 31
0.0
  0
LINE
  5
6DD6
330
1E
100
AcDbEntity
  8
躯体と製品
  6
Continuous
 62
     4
100
AcDbLine
 10
1487.091404387809
 20
872.4202665578539
 30
0.0
 11
1488.091404387809
 21
871.4202665578534
 31
0.0
  0
LINE
  5
6DD7
330
1E
100
AcDbEntity
  8
躯体と製品
  6
Continuous
 62
     4
100
AcDbLine
 10
1487.091404387809
 20
871.0060529954795
 30
0.0
 11
1488.091404387809
 21
870.0060529954797
 31
0.0
  0
LINE
  5
6DD8
330
1E
100
AcDbEntity
  8
躯体と製品
  6
Continuous
 62
     4
100
AcDbLine
 10
1487.091404387809
 20
869.5918394331066
 30
0.0
 11
1488.091404387809
 21
868.5918394331068
 31
0.0
  0
LINE
  5
6DD9
330
1E
100
AcDbEntity
  8
躯体と製品
  6
Continuous
 62
     4
100
AcDbLine
 10
1487.091404387809
 20
868.1776258707332
 30
0.0
 11
1488.091404387809
 21
867.1776258707334
 31
0.0
  0
LINE
  5
6DDA
330
1E
100
AcDbEntity
  8
躯体と製品
  6
Continuous
 62
     4
100
AcDbLine
 10
1487.091404387809
 20
866.7634123083603
 30
0.0
 11
1488.091404387809
 21
865.7634123083603
 31
0.0
  0
LINE
  5
6DDB
330
1E
100
AcDbEntity
  8
躯体と製品
  6
Continuous
 62
     4
100
AcDbLine
 10
1487.091404387809
 20
865.3491987459867
 30
0.0
 11
1488.091404387809
 21
864.3491987459865
 31
0.0
  0
LINE
  5
6DDC
330
1E
100
AcDbEntity
  8
躯体と製品
  6
Continuous
 62
     4
100
AcDbLine
 10
1487.091404387809
 20
863.9349851836135
 30
0.0
 11
1488.091404387809
 21
862.9349851836131
 31
0.0
  0
LINE
  5
6DDD
330
1E
100
AcDbEntity
  8
躯体と製品
  6
Continuous
 62
     4
100
AcDbLine
 10
1487.091404387808
 20
862.5207716212427
 30
0.0
 11
1488.091404387808
 21
861.5207716212426
 31
0.0
  0
LINE
  5
6DDE
330
1E
100
AcDbEntity
  8
躯体と製品
  6
Continuous
 62
     4
100
AcDbLine
 10
1487.091404387809
 20
861.1065580588686
 30
0.0
 11
1488.091404387809
 21
860.106558058869
 31
0.0
  0
LINE
  5
6DDF
330
1E
100
AcDbEntity
  8
躯体と製品
  6
Continuous
 62
     4
100
AcDbLine
 10
1487.091404387809
 20
859.6923444964955
 30
0.0
 11
1488.091404387809
 21
858.6923444964957
 31
0.0
  0
LINE
  5
6DE0
330
1E
100
AcDbEntity
  8
躯体と製品
  6
Continuous
 62
     3
100
AcDbLine
 10
1487.091404387809
 20
888.352881697706
 30
0.0
 11
1487.091404387809
 21
858.3528816977057
 31
0.0
  0
LINE
  5
6DE1
330
1E
100
AcDbEntity
  8
躯体と製品
  6
Continuous
 62
     3
100
AcDbLine
 10
1487.091404387809
 20
858.3528816977057
 30
0.0
 11
1488.091404387809
 21
858.3528816977057
 31
0.0
  0
LINE
  5
6DE2
330
1E
100
AcDbEntity
  8
躯体と製品
  6
Continuous
 62
     3
100
AcDbLine
 10
1488.091404387809
 20
858.3528816977057
 30
0.0
 11
1488.091404387809
 21
888.352881697706
 31
0.0
  0
LINE
  5
6DE3
330
1E
100
AcDbEntity
  8
躯体と製品
  6
Continuous
 62
     3
100
AcDbLine
 10
1488.091404387809
 20
888.352881697706
 30
0.0
 11
1487.091404387809
 21
888.352881697706
 31
0.0
  0
LINE
  5
6DE4
330
1E
100
AcDbEntity
  8
躯体と製品
  6
Continuous
 62
     7
100
AcDbLine
 10
1487.091404387809
 20
903.3528816977058
 30
0.0
 11
1512.091404387809
 21
903.3528816977058
 31
0.0
  0
LINE
  5
6DE5
330
1E
100
AcDbEntity
  8
躯体と製品
  6
CENTER1
 62
     4
100
AcDbLine
 10
1763.816044249546
 20
833.0516682987415
 30
0.0
 11
1761.463372912893
 21
788.1600249427718
 31
0.0
  0
LINE
  5
6DE6
330
1E
100
AcDbEntity
  8
躯体と製品
  6
CENTER1
 62
     4
100
AcDbLine
 10
1762.091404387809
 20
805.1435793598265
 30
0.0
 11
1762.091404387809
 21
716.22006493194
 31
0.0
  0
LINE
  5
6DE7
330
1E
100
AcDbEntity
  8
躯体と製品
  6
CENTER1
 62
     4
100
AcDbLine
 10
1501.791406387809
 20
844.3528816977059
 30
0.0
 11
1428.091404387809
 21
844.3528816977059
 31
0.0
  0
LINE
  5
6DE8
330
1E
100
AcDbEntity
  8
躯体と製品
  6
CENTER1
 62
     4
100
AcDbLine
 10
1489.968681705244
 20
894.8528816977059
 30
0.0
 11
1506.836715387809
 21
894.8528816977059
 31
0.0
  0
LINE
  5
6DE9
330
1E
100
AcDbEntity
  8
図枠
  6
Continuous
 62
     4
100
AcDbLine
 10
1621.591404387809
 20
846.2761285341946
 30
0.0
 11
1621.591404387809
 21
848.8965174983466
 31
0.0
  0
LINE
  5
6DEA
330
1E
100
AcDbEntity
  8
図枠
  6
Continuous
 62
     4
100
AcDbLine
 10
1571.591404387809
 20
848.8965174983466
 30
0.0
 11
1621.591404387809
 21
846.2761285341946
 31
0.0
  0
LINE
  5
6DEB
330
1E
100
AcDbEntity
  8
図枠
  6
Continuous
 62
     4
100
AcDbLine
 10
1571.591404387809
 20
848.8965174983466
 30
0.0
 11
1621.591404387809
 21
848.8965174983466
 31
0.0
  0
TEXT
  5
6DEC
330
1E
100
AcDbEntity
  8
図枠
 62
     7
100
AcDbText
 10
1942.091404387809
 20
631.3638895638461
 30
0.0
 40
5.0
  1
（単位：mm）
100
AcDbText
  0
TEXT
  5
6DED
330
1E
100
AcDbEntity
  8
図枠
 62
     7
100
AcDbText
 10
1677.091404387809
 20
631.3638895638461
 30
0.0
 40
5.0
  1
（2000mmセット）
100
AcDbText
  0
TEXT
  5
6DEE
330
1E
100
AcDbEntity
  8
図枠
 62
     7
100
AcDbText
 10
1609.091404387809
 20
631.3638895638461
 30
0.0
 40
5.0
  1
（3000mmセット）
100
AcDbText
  0
ARC
  5
6DEF
330
1E
100
AcDbEntity
  8
躯体と製品
  6
Continuous
 62
     7
100
AcDbCircle
 10
1512.091404387809
 20
779.22006493194
 30
0.0
 40
2.0
100
AcDbArc
 50
4.999999999999459
 51
90.0
  0
ARC
  5
6DF0
330
1E
100
AcDbEntity
  8
躯体と製品
  6
Continuous
 62
     7
100
AcDbCircle
 10
1512.091404387809
 20
804.2200649319402
 30
0.0
 40
23.0000000000001
100
AcDbArc
 50
180.0
 51
270.0
  0
ARC
  5
6DF1
330
1E
100
AcDbEntity
  8
躯体と製品
  6
Continuous
 62
     7
100
AcDbCircle
 10
1747.091404387809
 20
772.97006493194
 30
0.0
 40
9.25
100
AcDbArc
 50
90.0
 51
108.9246444160544
  0
LINE
  5
6DF2
330
1E
100
AcDbEntity
  8
躯体と製品
  6
Continuous
 62
     7
100
AcDbLine
 10
1777.091404387809
 20
782.2200649319399
 30
0.0
 11
1747.091404387809
 21
782.2200649319399
 31
0.0
  0
ARC
  5
6DF3
330
1E
100
AcDbEntity
  8
躯体と製品
  6
Continuous
 62
     7
100
AcDbCircle
 10
1777.091404387809
 20
772.97006493194
 30
0.0
 40
9.25
100
AcDbArc
 50
71.07535558394559
 51
90.0
  0
ARC
  5
6DF4
330
1E
100
AcDbEntity
  8
躯体と製品
  6
Continuous
 62
     7
100
AcDbCircle
 10
1812.064092244343
 20
779.2204371988955
 30
0.0
 40
2.0
100
AcDbArc
 50
4.999999999999459
 51
88.8945054323914
  0
LINE
  5
6DF5
330
1E
100
AcDbEntity
  8
躯体と製品
  6
Continuous
 62
     7
100
AcDbLine
 10
1812.102678890211
 20
781.2200649319399
 30
0.0
 11
1783.091404387809
 21
781.2200649319399
 31
0.0
  0
LINE
  5
6DF6
330
1E
100
AcDbEntity
  8
躯体と製品
  6
Continuous
 62
     7
100
AcDbLine
 10
1662.091404387809
 20
781.2200649319399
 30
0.0
 11
1741.091404387809
 21
781.2200649319399
 31
0.0
  0
ARC
  5
6DF7
330
1E
100
AcDbEntity
  8
躯体と製品
  6
Continuous
 62
     7
100
AcDbCircle
 10
1662.091404387809
 20
779.22006493194
 30
0.0
 40
2.0
100
AcDbArc
 50
90.0
 51
175.0000000000005
  0
ARC
  5
6DF8
330
1E
100
AcDbEntity
  8
躯体と製品
  6
Continuous
 62
     7
100
AcDbCircle
 10
1741.091404387809
 20
790.47006493194
 30
0.0
 40
10.25
100
AcDbArc
 50
270.0
 51
288.9246444160544
  0
ARC
  5
6DF9
330
1E
100
AcDbEntity
  8
躯体と製品
  6
Continuous
 62
     7
100
AcDbCircle
 10
1747.091404387809
 20
772.97006493194
 30
0.0
 40
8.25
100
AcDbArc
 50
90.0
 51
108.9246444160544
  0
ARC
  5
6DFA
330
1E
100
AcDbEntity
  8
躯体と製品
  6
Continuous
 62
     7
100
AcDbCircle
 10
1741.091404387809
 20
790.47006493194
 30
0.0
 40
9.25
100
AcDbArc
 50
270.0
 51
288.9246444160544
  0
ARC
  5
6DFB
330
1E
100
AcDbEntity
  8
躯体と製品
  6
Continuous
 62
     7
100
AcDbCircle
 10
1783.091404387809
 20
790.47006493194
 30
0.0
 40
10.25
100
AcDbArc
 50
251.0753555839456
 51
270.0
  0
ARC
  5
6DFC
330
1E
100
AcDbEntity
  8
躯体と製品
  6
Continuous
 62
     7
100
AcDbCircle
 10
1777.091404387809
 20
772.97006493194
 30
0.0
 40
8.25
100
AcDbArc
 50
71.07535558394559
 51
90.0
  0
ARC
  5
6DFD
330
1E
100
AcDbEntity
  8
躯体と製品
  6
Continuous
 62
     7
100
AcDbCircle
 10
1783.091404387809
 20
790.47006493194
 30
0.0
 40
9.25
100
AcDbArc
 50
251.0753555839456
 51
270.0
  0
LINE
  5
6DFE
330
1E
100
AcDbEntity
  8
躯体と製品
  6
Continuous
 62
     7
100
AcDbLine
 10
1488.091404387809
 20
841.8528816977058
 30
0.0
 11
1487.091404387809
 21
841.8528816977058
 31
0.0
  0
LINE
  5
6DFF
330
1E
100
AcDbEntity
  8
躯体と製品
  6
Continuous
 62
     7
100
AcDbLine
 10
1488.091404387809
 20
846.8528816977059
 30
0.0
 11
1487.091404387809
 21
846.8528816977059
 31
0.0
  0
TEXT
  5
6E00
330
1E
100
AcDbEntity
  8
寸法
 62
     7
100
AcDbText
 10
1671.591404387809
 20
873.6733769427553
 30
0.0
 40
5.0
  1
（キャップ幅）
100
AcDbText
  0
ARC
  5
6E26
330
1E
100
AcDbEntity
  8
躯体と製品
  6
Continuous
 62
     7
100
AcDbCircle
 10
1587.091404387809
 20
753.7114445313384
 30
0.0
 40
71.49137959939837
100
AcDbArc
 50
184.9999999999994
 51
355.0000000000006
  0
LINE
  5
6E27
330
1E
100
AcDbEntity
  8
躯体と製品
  6
Continuous
 62
     7
100
AcDbLine
 10
1661.095209689717
 20
779.3072206746877
 30
0.0
 11
1658.310737703994
 21
747.4805602422978
 31
0.0
  0
ARC
  5
6E28
330
1E
100
AcDbEntity
  8
躯体と製品
  6
Continuous
 62
     7
100
AcDbCircle
 10
1587.091404387809
 20
753.7114445313384
 30
0.0
 40
70.49137959939837
100
AcDbArc
 50
184.9999999999994
 51
355.0000000000006
  0
LINE
  5
6E29
330
1E
100
AcDbEntity
  8
躯体と製品
  6
Continuous
 62
     7
100
AcDbLine
 10
1660.099014991626
 20
779.3943764174351
 30
0.0
 11
1657.314543005902
 21
747.567715985046
 31
0.0
  0
LINE
  5
6E2A
330
1E
100
AcDbEntity
  8
躯体と製品
  6
Continuous
 62
     7
100
AcDbLine
 10
1514.083793783992
 20
779.3943764174351
 30
0.0
 11
1516.868265769716
 21
747.5677159850457
 31
0.0
  0
LINE
  5
6E2B
330
1E
100
AcDbEntity
  8
躯体と製品
  6
Continuous
 62
     7
100
AcDbLine
 10
1513.0875990859
 20
779.3072206746877
 30
0.0
 11
1515.872071071624
 21
747.4805602422978
 31
0.0
  0
ARC
  5
6E2C
330
1E
100
AcDbEntity
  8
躯体と製品
  6
Continuous
 62
     7
100
AcDbCircle
 10
1512.091404387809
 20
804.2200649319402
 30
0.0
 40
24.00000000000011
100
AcDbArc
 50
180.0
 51
270.0
  0
ARC
  5
6E2D
330
1E
100
AcDbEntity
  8
躯体と製品
  6
Continuous
 62
     7
100
AcDbCircle
 10
1512.091404387809
 20
779.22006493194
 30
0.0
 40
1.0
100
AcDbArc
 50
4.999999999999459
 51
90.0
  0
TEXT
  5
6E2E
330
1E
100
AcDbEntity
  8
図枠
 62
     7
100
AcDbText
 10
1583.091404387809
 20
848.880794533743
 30
0.0
 40
5.0
  1
勾配３度
100
AcDbText
  0
LINE
  5
6E31
330
1E
100
AcDbEntity
  8
躯体と製品
  6
DASHED1
 62
     7
100
AcDbLine
 10
1498.698884715987
 20
841.2008706017152
 30
0.0
 11
1519.112707963817
 21
840.1310274586199
 31
0.0
  0
LINE
  5
6E32
330
1E
100
AcDbEntity
  8
躯体と製品
  6
DASHED1
 62
     7
100
AcDbLine
 10
1858.646749780372
 20
822.3368023360199
 30
0.0
 11
1864.911591890809
 21
822.0084758734531
 31
0.0
  0
LINE
  5
6E33
330
1E
100
AcDbEntity
  8
躯体と製品
  6
DASHED1
 62
     7
100
AcDbLine
 10
1858.882261583465
 20
826.8306352424156
 30
0.0
 11
1865.147103693902
 21
826.5023087798489
 31
0.0
  0
ARC
  5
6E37
330
1E
100
AcDbEntity
  8
躯体と製品
  6
Continuous
 62
     7
100
AcDbCircle
 10
1838.117706912321
 20
762.8284068428138
 30
0.0
 40
23.52581321753931
100
AcDbArc
 50
184.9999999999994
 51
355.0000000000006
  0
LINE
  5
6E38
330
1E
100
AcDbEntity
  8
躯体と製品
  6
Continuous
 62
     7
100
AcDbLine
 10
1863.568027271612
 20
783.798464942297
 30
0.0
 11
1861.553997307931
 21
760.7779971180962
 31
0.0
  0
ARC
  5
6E39
330
1E
100
AcDbEntity
  8
躯体と製品
  6
Continuous
 62
     7
100
AcDbCircle
 10
1838.117706912321
 20
762.8284068428138
 30
0.0
 40
22.52581321753931
100
AcDbArc
 50
184.9999999999994
 51
355.0000000000006
  0
LINE
  5
6E3A
330
1E
100
AcDbEntity
  8
躯体と製品
  6
Continuous
 62
     7
100
AcDbLine
 10
1862.57183257352
 20
783.8856206850445
 30
0.0
 11
1860.557802609839
 21
760.8651528608443
 31
0.0
  0
LINE
  5
6E3B
330
1E
100
AcDbEntity
  8
躯体と製品
  6
Continuous
 62
     7
100
AcDbLine
 10
1814.056481640526
 20
779.3947486843905
 30
0.0
 11
1815.677611214804
 21
760.8651528608443
 31
0.0
  0
LINE
  5
6E3C
330
1E
100
AcDbEntity
  8
躯体と製品
  6
Continuous
 62
     7
100
AcDbLine
 10
1813.060286942435
 20
779.3075929416431
 30
0.0
 11
1814.681416516712
 21
760.7779971180966
 31
0.0
  0
ARC
  5
6E3D
330
1E
100
AcDbEntity
  8
躯体と製品
  6
Continuous
 62
     7
100
AcDbCircle
 10
1864.663841439513
 20
783.7025936252746
 30
0.0
 40
2.1
100
AcDbArc
 50
90.0
 51
175.0000000000005
  0
LINE
  5
6E3E
330
1E
100
AcDbEntity
  8
躯体と製品
  6
Continuous
 62
     7
100
AcDbLine
 10
1864.663841439513
 20
785.8025936252746
 30
0.0
 11
1865.259639618215
 21
785.8025936252746
 31
0.0
  0
ARC
  5
6E3F
330
1E
100
AcDbEntity
  8
躯体と製品
  6
Continuous
 62
     7
100
AcDbCircle
 10
1864.663841439513
 20
783.7025936252746
 30
0.0
 40
1.1
100
AcDbArc
 50
90.0
 51
175.0000000000005
  0
LINE
  5
6E40
330
1E
100
AcDbEntity
  8
躯体と製品
  6
Continuous
 62
     7
100
AcDbLine
 10
1864.663841439513
 20
784.8025936252747
 30
0.0
 11
1865.259639618215
 21
784.8025936252747
 31
0.0
  0
LINE
  5
6E41
330
1E
100
AcDbEntity
  8
躯体と製品
  6
Continuous
 62
     7
100
AcDbLine
 10
1865.259639618215
 20
788.3025936252746
 30
0.0
 11
1865.259639618215
 21
785.8025936252746
 31
0.0
  0
LINE
  5
6E42
330
1E
100
AcDbEntity
  8
躯体と製品
  6
Continuous
 62
     7
100
AcDbLine
 10
1866.759639618215
 20
784.3025936252743
 30
0.0
 11
1868.410724618215
 21
784.8259666252746
 31
0.0
  0
LINE
  5
6E43
330
1E
100
AcDbEntity
  8
躯体と製品
  6
Continuous
 62
     7
100
AcDbLine
 10
1866.759639618215
 20
784.3025936252743
 30
0.0
 11
1866.759639618215
 21
782.3025936252746
 31
0.0
  0
LINE
  5
6E44
330
1E
100
AcDbEntity
  8
躯体と製品
  6
Continuous
 62
     7
100
AcDbLine
 10
1866.759639618215
 20
786.3025936252746
 30
0.0
 11
1866.759639618215
 21
788.3025936252746
 31
0.0
  0
ARC
  5
6E45
330
1E
100
AcDbEntity
  8
躯体と製品
  6
Continuous
 62
     7
100
AcDbCircle
 10
1866.259639618215
 20
788.3025936252746
 30
0.0
 40
0.5
100
AcDbArc
 50
0.0
 51
90.0
  0
LINE
  5
6E46
330
1E
100
AcDbEntity
  8
躯体と製品
  6
Continuous
 62
     7
100
AcDbLine
 10
1865.759639618215
 20
788.8025936252743
 30
0.0
 11
1866.259639618215
 21
788.8025936252743
 31
0.0
  0
LINE
  5
6E47
330
1E
100
AcDbEntity
  8
躯体と製品
  6
Continuous
 62
     7
100
AcDbLine
 10
1865.759639618215
 20
781.8025936252746
 30
0.0
 11
1866.259639618215
 21
781.8025936252746
 31
0.0
  0
ARC
  5
6E48
330
1E
100
AcDbEntity
  8
躯体と製品
  6
Continuous
 62
     7
100
AcDbCircle
 10
1866.259639618215
 20
782.3025936252746
 30
0.0
 40
0.5
100
AcDbArc
 50
270.0
 51
0.0
  0
ARC
  5
6E49
330
1E
100
AcDbEntity
  8
躯体と製品
  6
Continuous
 62
     7
100
AcDbCircle
 10
1865.759639618215
 20
782.3025936252746
 30
0.0
 40
0.5
100
AcDbArc
 50
180.0
 51
270.0
  0
ARC
  5
6E4A
330
1E
100
AcDbEntity
  8
躯体と製品
  6
Continuous
 62
     7
100
AcDbCircle
 10
1865.759639618215
 20
788.3025936252746
 30
0.0
 40
0.5
100
AcDbArc
 50
90.0
 51
180.0
  0
LINE
  5
6E4B
330
1E
100
AcDbEntity
  8
躯体と製品
  6
Continuous
 62
     7
100
AcDbLine
 10
1865.259639618215
 20
782.3025936252746
 30
0.0
 11
1865.259639618215
 21
784.8025936252747
 31
0.0
  0
ARC
  5
6E4C
330
1E
100
AcDbEntity
  8
躯体と製品
  6
Continuous
 62
     7
100
AcDbCircle
 10
1868.259639618215
 20
785.3025936252743
 30
0.0
 40
0.5
100
AcDbArc
 50
287.587954000005
 51
72.41204599999497
  0
LINE
  5
6E4D
330
1E
100
AcDbEntity
  8
躯体と製品
  6
Continuous
 62
     7
100
AcDbLine
 10
1866.759639618215
 20
786.3025936252746
 30
0.0
 11
1868.410724618215
 21
785.7792206252743
 31
0.0
  0
ARC
  5
6E4E
330
1E
100
AcDbEntity
  8
躯体と製品
  6
Continuous
 62
     3
100
AcDbCircle
 10
1864.659639618215
 20
783.7025936252746
 30
0.0
 40
0.5999999999999998
100
AcDbArc
 50
0.0
 51
180.0
  0
ARC
  5
6E4F
330
1E
100
AcDbEntity
  8
躯体と製品
  6
Continuous
 62
     3
100
AcDbCircle
 10
1864.659639618215
 20
787.9025936252745
 30
0.0
 40
0.5999999999999998
100
AcDbArc
 50
180.0
 51
0.0
  0
LINE
  5
6E50
330
1E
100
AcDbEntity
  8
躯体と製品
  6
Continuous
 62
     3
100
AcDbLine
 10
1864.059639618215
 20
783.7025936252746
 30
0.0
 11
1864.059639618215
 21
781.6025936252743
 31
0.0
  0
LINE
  5
6E51
330
1E
100
AcDbEntity
  8
躯体と製品
  6
Continuous
 62
     3
100
AcDbLine
 10
1865.259639618215
 20
783.7025936252746
 30
0.0
 11
1865.259639618215
 21
782.1025936252744
 31
0.0
  0
ARC
  5
6E52
330
1E
100
AcDbEntity
  8
躯体と製品
  6
Continuous
 62
     3
100
AcDbCircle
 10
1865.559639618215
 20
782.1025936252744
 30
0.0
 40
0.2999999999999998
100
AcDbArc
 50
180.0
 51
270.0
  0
LINE
  5
6E53
330
1E
100
AcDbEntity
  8
躯体と製品
  6
Continuous
 62
     3
100
AcDbLine
 10
1865.259639618215
 20
787.9025936252745
 30
0.0
 11
1865.259639618215
 21
789.5025936252745
 31
0.0
  0
ARC
  5
6E54
330
1E
100
AcDbEntity
  8
躯体と製品
  6
Continuous
 62
     3
100
AcDbCircle
 10
1865.559639618215
 20
789.5025936252745
 30
0.0
 40
0.2999999999999998
100
AcDbArc
 50
90.0
 51
180.0
  0
LINE
  5
6E55
330
1E
100
AcDbEntity
  8
躯体と製品
  6
Continuous
 62
     3
100
AcDbLine
 10
1864.059639618215
 20
787.9025936252745
 30
0.0
 11
1864.059639618215
 21
790.0025936252745
 31
0.0
  0
LINE
  5
6E56
330
1E
100
AcDbEntity
  8
躯体と製品
  6
Continuous
 62
     3
100
AcDbLine
 10
1876.259639618215
 20
751.8025936252745
 30
0.0
 11
1877.880907618215
 21
752.2079106252745
 31
0.0
  0
ARC
  5
6E57
330
1E
100
AcDbEntity
  8
躯体と製品
  6
Continuous
 62
     3
100
AcDbCircle
 10
1877.759639618215
 20
752.6929816252744
 30
0.0
 40
0.5
100
AcDbArc
 50
284.0362430000043
 51
0.0
  0
LINE
  5
6E58
330
1E
100
AcDbEntity
  8
躯体と製品
  6
Continuous
 62
     3
100
AcDbLine
 10
1876.259639618215
 20
752.3025936252745
 30
0.0
 11
1876.259639618215
 21
751.8025936252745
 31
0.0
  0
LINE
  5
6E59
330
1E
100
AcDbEntity
  8
躯体と製品
  6
Continuous
 62
     3
100
AcDbLine
 10
1878.259639618215
 20
753.0025936252745
 30
0.0
 11
1878.259639618215
 21
752.6929816252744
 31
0.0
  0
LINE
  5
6E5A
330
1E
100
AcDbEntity
  8
躯体と製品
  6
Continuous
 62
     3
100
AcDbLine
 10
1871.259639618215
 20
752.3025936252745
 30
0.0
 11
1876.259639618215
 21
752.3025936252745
 31
0.0
  0
ARC
  5
6E5B
330
1E
100
AcDbEntity
  8
躯体と製品
  6
Continuous
 62
     3
100
AcDbCircle
 10
1877.959639618215
 20
753.0025936252745
 30
0.0
 40
0.2999999999999998
100
AcDbArc
 50
0.0
 51
90.0
  0
ARC
  5
6E5C
330
1E
100
AcDbEntity
  8
躯体と製品
  6
Continuous
 62
     3
100
AcDbCircle
 10
1871.259639618215
 20
751.8025936252745
 30
0.0
 40
0.5
100
AcDbArc
 50
90.0
 51
180.0
  0
LINE
  5
6E5D
330
1E
100
AcDbEntity
  8
躯体と製品
  6
Continuous
 62
     3
100
AcDbLine
 10
1870.759639618215
 20
751.8025936252745
 30
0.0
 11
1870.759639618215
 21
743.0025936252746
 31
0.0
  0
LINE
  5
6E5E
330
1E
100
AcDbEntity
  8
躯体と製品
  6
Continuous
 62
     3
100
AcDbLine
 10
1871.259639618215
 20
753.3025936252745
 30
0.0
 11
1877.959639618215
 21
753.3025936252745
 31
0.0
  0
ARC
  5
6E5F
330
1E
100
AcDbEntity
  8
躯体と製品
  6
Continuous
 62
     3
100
AcDbCircle
 10
1871.259639618215
 20
753.8025936252743
 30
0.0
 40
0.5
100
AcDbArc
 50
180.0
 51
270.0
  0
LINE
  5
6E60
330
1E
100
AcDbEntity
  8
躯体と製品
  6
Continuous
 62
     3
100
AcDbLine
 10
1875.659639618215
 20
740.8025936252745
 30
0.0
 11
1871.759639618215
 21
740.8025936252745
 31
0.0
  0
ARC
  5
6E61
330
1E
100
AcDbEntity
  8
躯体と製品
  6
Continuous
 62
     3
100
AcDbCircle
 10
1871.759639618215
 20
743.3025936252745
 30
0.0
 40
2.5
100
AcDbArc
 50
180.0
 51
270.0
  0
LINE
  5
6E62
330
1E
100
AcDbEntity
  8
躯体と製品
  6
Continuous
 62
     3
100
AcDbLine
 10
1870.759639618215
 20
798.0525936252742
 30
0.0
 11
1870.759639618215
 21
753.8025936252743
 31
0.0
  0
LINE
  5
6E63
330
1E
100
AcDbEntity
  8
躯体と製品
  6
Continuous
 62
     3
100
AcDbLine
 10
1865.559639618215
 20
789.8025936252743
 30
0.0
 11
1868.959639618215
 21
789.8025936252743
 31
0.0
  0
LINE
  5
6E64
330
1E
100
AcDbEntity
  8
躯体と製品
  6
Continuous
 62
     3
100
AcDbLine
 10
1865.559639618215
 20
781.8025936252746
 30
0.0
 11
1868.959639618215
 21
781.8025936252746
 31
0.0
  0
ARC
  5
6E65
330
1E
100
AcDbEntity
  8
躯体と製品
  6
Continuous
 62
     3
100
AcDbCircle
 10
1868.959639618215
 20
782.1025936252744
 30
0.0
 40
0.2999999999999998
100
AcDbArc
 50
270.0
 51
0.0
  0
LINE
  5
6E66
330
1E
100
AcDbEntity
  8
躯体と製品
  6
Continuous
 62
     3
100
AcDbLine
 10
1869.259639618215
 20
789.5025936252745
 30
0.0
 11
1869.259639618215
 21
782.1025936252744
 31
0.0
  0
ARC
  5
6E67
330
1E
100
AcDbEntity
  8
躯体と製品
  6
Continuous
 62
     3
100
AcDbCircle
 10
1868.959639618215
 20
789.5025936252745
 30
0.0
 40
0.2999999999999998
100
AcDbArc
 50
0.0
 51
90.0
  0
LINE
  5
6E68
330
1E
100
AcDbEntity
  8
躯体と製品
  6
Continuous
 62
     3
100
AcDbLine
 10
1868.759639618215
 20
780.6025936252743
 30
0.0
 11
1865.059639618215
 21
780.6025936252743
 31
0.0
  0
ARC
  5
6E69
330
1E
100
AcDbEntity
  8
躯体と製品
  6
Continuous
 62
     3
100
AcDbCircle
 10
1865.059639618215
 20
781.6025936252743
 30
0.0
 40
1.0
100
AcDbArc
 50
180.0
 51
270.0
  0
ARC
  5
6E6A
330
1E
100
AcDbEntity
  8
躯体と製品
  6
Continuous
 62
     3
100
AcDbCircle
 10
1868.759639618215
 20
780.1025936252743
 30
0.0
 40
0.5
100
AcDbArc
 50
0.0
 51
90.0
  0
LINE
  5
6E6B
330
1E
100
AcDbEntity
  8
躯体と製品
  6
Continuous
 62
     3
100
AcDbLine
 10
1868.759639618215
 20
791.0025936252745
 30
0.0
 11
1865.059639618215
 21
791.0025936252745
 31
0.0
  0
ARC
  5
6E6C
330
1E
100
AcDbEntity
  8
躯体と製品
  6
Continuous
 62
     3
100
AcDbCircle
 10
1865.059639618215
 20
790.0025936252745
 30
0.0
 40
1.0
100
AcDbArc
 50
90.0
 51
180.0
  0
ARC
  5
6E6D
330
1E
100
AcDbEntity
  8
躯体と製品
  6
Continuous
 62
     3
100
AcDbCircle
 10
1868.759639618215
 20
791.5025936252746
 30
0.0
 40
0.5
100
AcDbArc
 50
270.0
 51
0.0
  0
LINE
  5
6E6E
330
1E
100
AcDbEntity
  8
躯体と製品
  6
Continuous
 62
     3
100
AcDbLine
 10
1869.259639618215
 20
791.5025936252746
 30
0.0
 11
1869.259639618215
 21
798.0525936252742
 31
0.0
  0
ARC
  5
6E6F
330
1E
100
AcDbEntity
  8
躯体と製品
  6
Continuous
 62
     3
100
AcDbCircle
 10
1870.009639618215
 20
798.0525936252742
 30
0.0
 40
0.75
100
AcDbArc
 50
0.0
 51
180.0
  0
LINE
  5
6E70
330
1E
100
AcDbEntity
  8
躯体と製品
  6
Continuous
 62
     3
100
AcDbLine
 10
1869.259639618215
 20
780.1025936252743
 30
0.0
 11
1869.259639618215
 21
743.3025936252745
 31
0.0
  0
ARC
  5
6E71
330
1E
100
AcDbEntity
  8
躯体と製品
  6
Continuous
 62
     3
100
AcDbCircle
 10
1875.659639618215
 20
741.4025936252744
 30
0.0
 40
0.5999999999999998
100
AcDbArc
 50
270.0
 51
90.0
  0
LINE
  5
6E72
330
1E
100
AcDbEntity
  8
躯体と製品
  6
Continuous
 62
     3
100
AcDbLine
 10
1875.659639618215
 20
742.0025936252746
 30
0.0
 11
1871.759639618215
 21
742.0025936252746
 31
0.0
  0
ARC
  5
6E73
330
1E
100
AcDbEntity
  8
躯体と製品
  6
Continuous
 62
     3
100
AcDbCircle
 10
1871.759639618215
 20
743.0025936252746
 30
0.0
 40
1.0
100
AcDbArc
 50
180.0
 51
270.0
  0
LINE
  5
6E74
330
1E
100
AcDbEntity
  8
躯体と製品
  6
Continuous
 62
     7
100
AcDbLine
 10
1519.203115986504
 20
851.3528816977059
 30
0.0
 11
1518.284339027326
 21
849.4490658497461
 31
0.0
  0
ARC
  5
6E75
330
1E
100
AcDbEntity
  8
躯体と製品
  6
Continuous
 62
     7
100
AcDbCircle
 10
1515.402392132331
 20
850.8398865047659
 30
0.0
 40
3.2
100
AcDbArc
 50
218.2489213271288
 51
334.2381549109626
  0
LINE
  5
6E76
330
1E
100
AcDbEntity
  8
躯体と製品
  6
Continuous
 62
     7
100
AcDbLine
 10
1520.091404387809
 20
851.3528816977059
 30
0.0
 11
1519.004825751075
 21
849.1013606859912
 31
0.0
  0
ARC
  5
6E77
330
1E
100
AcDbEntity
  8
躯体と製品
  6
Continuous
 62
     7
100
AcDbCircle
 10
1511.584682559336
 20
849.8677272501886
 30
0.0
 40
0.4
100
AcDbArc
 50
38.2489213271288
 51
218.2489213271288
  0
LINE
  5
6E78
330
1E
100
AcDbEntity
  8
躯体と製品
  6
Continuous
 62
     7
100
AcDbLine
 10
1511.898813993755
 20
850.1153589159949
 30
0.0
 11
1512.889340656978
 21
848.8588331783185
 31
0.0
  0
LINE
  5
6E79
330
1E
100
AcDbEntity
  8
躯体と製品
  6
Continuous
 62
     7
100
AcDbLine
 10
1511.270551124917
 20
849.6200955843828
 30
0.0
 11
1512.261077788141
 21
848.3635698467066
 31
0.0
  0
ARC
  5
6E7A
330
1E
100
AcDbEntity
  8
躯体と製品
  6
Continuous
 62
     7
100
AcDbCircle
 10
1515.402392132331
 20
850.8398865047659
 30
0.0
 40
4.0
100
AcDbArc
 50
218.2489213271288
 51
334.2381549109626
  0
LINE
  5
6E7B
330
1E
100
AcDbEntity
  8
躯体と製品
  6
Continuous
 62
     7
100
AcDbLine
 10
1511.091404387809
 20
851.3528816977059
 30
0.0
 11
1520.091404387809
 21
851.3528816977059
 31
0.0
  0
ARC
  5
6E7C
330
1E
100
AcDbEntity
  8
躯体と製品
  6
Continuous
 62
     7
100
AcDbCircle
 10
1519.591404387809
 20
851.852881697706
 30
0.0
 40
0.5
100
AcDbArc
 50
0.0
 51
90.0
  0
LINE
  5
6E7D
330
1E
100
AcDbEntity
  8
躯体と製品
  6
Continuous
 62
     7
100
AcDbLine
 10
1520.091404387809
 20
851.852881697706
 30
0.0
 11
1520.091404387809
 21
851.3528816977059
 31
0.0
  0
LINE
  5
6E7E
330
1E
100
AcDbEntity
  8
躯体と製品
  6
Continuous
 62
     7
100
AcDbLine
 10
1511.391404387809
 20
852.3528816977059
 30
0.0
 11
1519.591404387809
 21
852.3528816977059
 31
0.0
  0
ARC
  5
6E7F
330
1E
100
AcDbEntity
  8
躯体と製品
  6
Continuous
 62
     7
100
AcDbCircle
 10
1511.091404387809
 20
852.3528816977059
 30
0.0
 40
1.0
100
AcDbArc
 50
180.0
 51
270.0
  0
ARC
  5
6E80
330
1E
100
AcDbEntity
  8
躯体と製品
  6
Continuous
 62
     7
100
AcDbCircle
 10
1511.391404387809
 20
852.6528816977059
 30
0.0
 40
0.2999999999999999
100
AcDbArc
 50
180.0
 51
270.0
  0
LINE
  5
6E81
330
1E
100
AcDbEntity
  8
躯体と製品
  6
Continuous
 62
     3
100
AcDbLine
 10
1491.591404387809
 20
844.8528816977059
 30
0.0
 11
1491.591404387809
 21
862.8528816977059
 31
0.0
  0
LINE
  5
6E82
330
1E
100
AcDbEntity
  8
躯体と製品
  6
Continuous
 62
     3
100
AcDbLine
 10
1489.091404387809
 20
864.8528816977059
 30
0.0
 11
1489.091404387809
 21
863.352881697706
 31
0.0
  0
LINE
  5
6E83
330
1E
100
AcDbEntity
  8
躯体と製品
  6
Continuous
 62
     3
100
AcDbLine
 10
1489.091404387809
 20
825.3528816977059
 30
0.0
 11
1489.091404387809
 21
823.8528816977058
 31
0.0
  0
LINE
  5
6E84
330
1E
100
AcDbEntity
  8
躯体と製品
  6
Continuous
 62
     3
100
AcDbLine
 10
1497.841404387809
 20
817.3528816977059
 30
0.0
 11
1496.591404387809
 21
817.3528816977059
 31
0.0
  0
LINE
  5
6E85
330
1E
100
AcDbEntity
  8
躯体と製品
  6
Continuous
 62
     3
100
AcDbLine
 10
1497.841404387809
 20
813.3528816977058
 30
0.0
 11
1496.591404387809
 21
813.3528816977058
 31
0.0
  0
ARC
  5
6E86
330
1E
100
AcDbEntity
  8
躯体と製品
  6
Continuous
 62
     3
100
AcDbCircle
 10
1489.591404387809
 20
823.3528816977059
 30
0.0
 40
0.5
100
AcDbArc
 50
0.0
 51
90.0
  0
LINE
  5
6E87
330
1E
100
AcDbEntity
  8
躯体と製品
  6
Continuous
 62
     3
100
AcDbLine
 10
1489.591404387809
 20
823.8528816977058
 30
0.0
 11
1489.091404387809
 21
823.8528816977058
 31
0.0
  0
LINE
  5
6E88
330
1E
100
AcDbEntity
  8
躯体と製品
  6
Continuous
 62
     3
100
AcDbLine
 10
1497.841404387809
 20
811.8528816977057
 30
0.0
 11
1489.091404387809
 21
811.8528816977057
 31
0.0
  0
LINE
  5
6E89
330
1E
100
AcDbEntity
  8
躯体と製品
  6
Continuous
 62
     3
100
AcDbLine
 10
1489.091404387809
 20
811.8528816977057
 30
0.0
 11
1489.091404387809
 21
813.3528816977058
 31
0.0
  0
LINE
  5
6E8A
330
1E
100
AcDbEntity
  8
躯体と製品
  6
Continuous
 62
     3
100
AcDbLine
 10
1489.591404387809
 20
813.3528816977058
 30
0.0
 11
1489.091404387809
 21
813.3528816977058
 31
0.0
  0
ARC
  5
6E8B
330
1E
100
AcDbEntity
  8
躯体と製品
  6
Continuous
 62
     3
100
AcDbCircle
 10
1489.591404387809
 20
813.8528816977059
 30
0.0
 40
0.5
100
AcDbArc
 50
270.0
 51
0.0
  0
LINE
  5
6E8C
330
1E
100
AcDbEntity
  8
躯体と製品
  6
Continuous
 62
     3
100
AcDbLine
 10
1490.091404387809
 20
813.8528816977059
 30
0.0
 11
1490.091404387809
 21
823.3528816977059
 31
0.0
  0
LINE
  5
6E8D
330
1E
100
AcDbEntity
  8
躯体と製品
  6
Continuous
 62
     3
100
AcDbLine
 10
1491.591404387809
 20
813.8528816977059
 30
0.0
 11
1491.591404387809
 21
816.8528816977056
 31
0.0
  0
LINE
  5
6E8E
330
1E
100
AcDbEntity
  8
躯体と製品
  6
Continuous
 62
     3
100
AcDbLine
 10
1496.591404387809
 20
813.3528816977058
 30
0.0
 11
1496.591404387809
 21
812.8528816977059
 31
0.0
  0
LINE
  5
6E8F
330
1E
100
AcDbEntity
  8
躯体と製品
  6
Continuous
 62
     3
100
AcDbLine
 10
1495.591404387809
 20
813.3528816977058
 30
0.0
 11
1496.591404387809
 21
812.8528816977059
 31
0.0
  0
LINE
  5
6E90
330
1E
100
AcDbEntity
  8
躯体と製品
  6
Continuous
 62
     3
100
AcDbLine
 10
1495.591404387809
 20
813.3528816977058
 30
0.0
 11
1495.591404387809
 21
812.8528816977059
 31
0.0
  0
LINE
  5
6E91
330
1E
100
AcDbEntity
  8
躯体と製品
  6
Continuous
 62
     3
100
AcDbLine
 10
1494.591404387809
 20
813.3528816977058
 30
0.0
 11
1495.591404387809
 21
812.8528816977059
 31
0.0
  0
ARC
  5
6E92
330
1E
100
AcDbEntity
  8
躯体と製品
  6
Continuous
 62
     3
100
AcDbCircle
 10
1497.841404387809
 20
812.602881697706
 30
0.0
 40
0.75
100
AcDbArc
 50
270.0
 51
90.0
  0
LINE
  5
6E93
330
1E
100
AcDbEntity
  8
躯体と製品
  6
Continuous
 62
     3
100
AcDbLine
 10
1492.091404387809
 20
813.3528816977058
 30
0.0
 11
1494.591404387809
 21
813.3528816977058
 31
0.0
  0
ARC
  5
6E94
330
1E
100
AcDbEntity
  8
躯体と製品
  6
Continuous
 62
     3
100
AcDbCircle
 10
1492.091404387809
 20
813.8528816977059
 30
0.0
 40
0.5
100
AcDbArc
 50
180.0
 51
270.0
  0
ARC
  5
6E95
330
1E
100
AcDbEntity
  8
躯体と製品
  6
Continuous
 62
     3
100
AcDbCircle
 10
1502.841404387809
 20
824.6028816977059
 30
0.0
 40
0.75
100
AcDbArc
 50
270.0
 51
90.0
  0
LINE
  5
6E96
330
1E
100
AcDbEntity
  8
躯体と製品
  6
Continuous
 62
     3
100
AcDbLine
 10
1492.091404387809
 20
825.3528816977059
 30
0.0
 11
1502.841404387809
 21
825.3528816977059
 31
0.0
  0
ARC
  5
6E97
330
1E
100
AcDbEntity
  8
躯体と製品
  6
Continuous
 62
     3
100
AcDbCircle
 10
1492.091404387809
 20
825.8528816977058
 30
0.0
 40
0.5
100
AcDbArc
 50
180.0
 51
270.0
  0
LINE
  5
6E98
330
1E
100
AcDbEntity
  8
躯体と製品
  6
Continuous
 62
     3
100
AcDbLine
 10
1491.591404387809
 20
825.8528816977058
 30
0.0
 11
1491.591404387809
 21
843.852881697706
 31
0.0
  0
LINE
  5
6E99
330
1E
100
AcDbEntity
  8
躯体と製品
  6
Continuous
 62
     3
100
AcDbLine
 10
1492.091404387809
 20
823.8528816977058
 30
0.0
 11
1502.841404387809
 21
823.8528816977058
 31
0.0
  0
ARC
  5
6E9A
330
1E
100
AcDbEntity
  8
躯体と製品
  6
Continuous
 62
     3
100
AcDbCircle
 10
1492.091404387809
 20
823.3528816977059
 30
0.0
 40
0.5
100
AcDbArc
 50
90.0
 51
180.0
  0
LINE
  5
6E9B
330
1E
100
AcDbEntity
  8
躯体と製品
  6
Continuous
 62
     3
100
AcDbLine
 10
1491.591404387809
 20
823.3528816977059
 30
0.0
 11
1491.591404387809
 21
819.3528816977059
 31
0.0
  0
LINE
  5
6E9C
330
1E
100
AcDbEntity
  8
躯体と製品
  6
Continuous
 62
     3
100
AcDbLine
 10
1501.591404387809
 20
863.8528816977059
 30
0.0
 11
1501.591404387809
 21
864.352881697706
 31
0.0
  0
ARC
  5
6E9D
330
1E
100
AcDbEntity
  8
躯体と製品
  6
Continuous
 62
     3
100
AcDbCircle
 10
1501.091404387809
 20
863.8528816977059
 30
0.0
 40
0.5
100
AcDbArc
 50
270.0
 51
0.0
  0
LINE
  5
6E9E
330
1E
100
AcDbEntity
  8
躯体と製品
  6
Continuous
 62
     3
100
AcDbLine
 10
1501.091404387809
 20
863.352881697706
 30
0.0
 11
1492.091404387809
 21
863.352881697706
 31
0.0
  0
ARC
  5
6E9F
330
1E
100
AcDbEntity
  8
躯体と製品
  6
Continuous
 62
     3
100
AcDbCircle
 10
1501.091404387809
 20
864.352881697706
 30
0.0
 40
0.5
100
AcDbArc
 50
0.0
 51
90.0
  0
ARC
  5
6EA0
330
1E
100
AcDbEntity
  8
躯体と製品
  6
Continuous
 62
     3
100
AcDbCircle
 10
1492.091404387809
 20
862.8528816977059
 30
0.0
 40
0.5
100
AcDbArc
 50
90.0
 51
180.0
  0
ARC
  5
6EA1
330
1E
100
AcDbEntity
  8
躯体と製品
  6
Continuous
 62
     3
100
AcDbCircle
 10
1497.841404387809
 20
818.1028816977057
 30
0.0
 40
0.75
100
AcDbArc
 50
270.0
 51
90.0
  0
LINE
  5
6EA2
330
1E
100
AcDbEntity
  8
躯体と製品
  6
Continuous
 62
     3
100
AcDbLine
 10
1496.591404387809
 20
817.852881697706
 30
0.0
 11
1496.591404387809
 21
817.3528816977059
 31
0.0
  0
LINE
  5
6EA3
330
1E
100
AcDbEntity
  8
躯体と製品
  6
Continuous
 62
     3
100
AcDbLine
 10
1495.591404387809
 20
817.3528816977059
 30
0.0
 11
1496.591404387809
 21
817.852881697706
 31
0.0
  0
LINE
  5
6EA4
330
1E
100
AcDbEntity
  8
躯体と製品
  6
Continuous
 62
     3
100
AcDbLine
 10
1495.591404387809
 20
817.852881697706
 30
0.0
 11
1495.591404387809
 21
817.3528816977059
 31
0.0
  0
LINE
  5
6EA5
330
1E
100
AcDbEntity
  8
躯体と製品
  6
Continuous
 62
     3
100
AcDbLine
 10
1494.591404387809
 20
817.3528816977059
 30
0.0
 11
1495.591404387809
 21
817.852881697706
 31
0.0
  0
LINE
  5
6EA6
330
1E
100
AcDbEntity
  8
躯体と製品
  6
Continuous
 62
     3
100
AcDbLine
 10
1492.091404387809
 20
817.3528816977059
 30
0.0
 11
1494.591404387809
 21
817.3528816977059
 31
0.0
  0
ARC
  5
6EA7
330
1E
100
AcDbEntity
  8
躯体と製品
  6
Continuous
 62
     3
100
AcDbCircle
 10
1492.091404387809
 20
816.8528816977056
 30
0.0
 40
0.5
100
AcDbArc
 50
90.0
 51
180.0
  0
ARC
  5
6EA8
330
1E
100
AcDbEntity
  8
躯体と製品
  6
Continuous
 62
     3
100
AcDbCircle
 10
1492.091404387809
 20
819.3528816977059
 30
0.0
 40
0.5
100
AcDbArc
 50
180.0
 51
270.0
  0
LINE
  5
6EA9
330
1E
100
AcDbEntity
  8
躯体と製品
  6
Continuous
 62
     3
100
AcDbLine
 10
1492.091404387809
 20
818.852881697706
 30
0.0
 11
1497.841404387809
 21
818.852881697706
 31
0.0
  0
LINE
  5
6EAA
330
1E
100
AcDbEntity
  8
躯体と製品
  6
Continuous
 62
     3
100
AcDbLine
 10
1492.091404387809
 20
864.8528816977059
 30
0.0
 11
1501.091404387809
 21
864.8528816977059
 31
0.0
  0
ARC
  5
6EAB
330
1E
100
AcDbEntity
  8
躯体と製品
  6
Continuous
 62
     3
100
AcDbCircle
 10
1492.091404387809
 20
865.3528816977059
 30
0.0
 40
0.5
100
AcDbArc
 50
180.0
 51
270.0
  0
LINE
  5
6EAC
330
1E
100
AcDbEntity
  8
躯体と製品
  6
Continuous
 62
     3
100
AcDbLine
 10
1489.591404387809
 20
825.3528816977059
 30
0.0
 11
1489.091404387809
 21
825.3528816977059
 31
0.0
  0
LINE
  5
6EAD
330
1E
100
AcDbEntity
  8
躯体と製品
  6
Continuous
 62
     3
100
AcDbLine
 10
1489.591404387809
 20
839.352881697706
 30
0.0
 11
1489.591404387809
 21
825.3528816977059
 31
0.0
  0
LINE
  5
6EAE
330
1E
100
AcDbEntity
  8
躯体と製品
  6
Continuous
 62
     3
100
AcDbLine
 10
1489.591404387809
 20
863.352881697706
 30
0.0
 11
1489.591404387809
 21
849.3528816977057
 31
0.0
  0
LINE
  5
6EAF
330
1E
100
AcDbEntity
  8
躯体と製品
  6
Continuous
 62
     3
100
AcDbLine
 10
1489.091404387809
 20
863.352881697706
 30
0.0
 11
1489.591404387809
 21
863.352881697706
 31
0.0
  0
LINE
  5
6EB0
330
1E
100
AcDbEntity
  8
躯体と製品
  6
Continuous
 62
     3
100
AcDbLine
 10
1489.591404387809
 20
864.8528816977059
 30
0.0
 11
1489.091404387809
 21
864.8528816977059
 31
0.0
  0
LINE
  5
6EB1
330
1E
100
AcDbEntity
  8
躯体と製品
  6
Continuous
 62
     3
100
AcDbLine
 10
1491.591404387809
 20
865.3528816977059
 30
0.0
 11
1491.591404387809
 21
875.852881697706
 31
0.0
  0
LINE
  5
6EB2
330
1E
100
AcDbEntity
  8
躯体と製品
  6
Continuous
 62
     3
100
AcDbLine
 10
1489.591404387809
 20
876.3528816977059
 30
0.0
 11
1489.591404387809
 21
864.8528816977059
 31
0.0
  0
ARC
  5
6EB3
330
1E
100
AcDbEntity
  8
躯体と製品
  6
Continuous
 62
     3
100
AcDbCircle
 10
1499.491404387809
 20
897.4528816977059
 30
0.0
 40
0.5999999999999999
100
AcDbArc
 50
270.0
 51
90.0
  0
ARC
  5
6EB4
330
1E
100
AcDbEntity
  8
躯体と製品
  6
Continuous
 62
     3
100
AcDbCircle
 10
1499.491404387809
 20
892.252881697706
 30
0.0
 40
0.5999999999999999
100
AcDbArc
 50
270.0
 51
90.0
  0
LINE
  5
6EB5
330
1E
100
AcDbEntity
  8
躯体と製品
  6
Continuous
 62
     3
100
AcDbLine
 10
1489.091404387809
 20
877.8528816977059
 30
0.0
 11
1489.091404387809
 21
876.3528816977059
 31
0.0
  0
LINE
  5
6EB6
330
1E
100
AcDbEntity
  8
躯体と製品
  6
Continuous
 62
     3
100
AcDbLine
 10
1498.091404387809
 20
898.0528816977059
 30
0.0
 11
1499.491404387809
 21
898.0528816977059
 31
0.0
  0
LINE
  5
6EB7
330
1E
100
AcDbEntity
  8
躯体と製品
  6
Continuous
 62
     3
100
AcDbLine
 10
1498.791404387809
 20
886.1528816977058
 30
0.0
 11
1498.791404387809
 21
891.6528816977059
 31
0.0
  0
LINE
  5
6EB8
330
1E
100
AcDbEntity
  8
躯体と製品
  6
Continuous
 62
     3
100
AcDbLine
 10
1498.791404387809
 20
891.6528816977059
 30
0.0
 11
1499.491404387809
 21
891.6528816977059
 31
0.0
  0
LINE
  5
6EB9
330
1E
100
AcDbEntity
  8
躯体と製品
  6
Continuous
 62
     3
100
AcDbLine
 10
1498.091404387809
 20
898.8528816977058
 30
0.0
 11
1498.091404387809
 21
898.0528816977059
 31
0.0
  0
LINE
  5
6EBA
330
1E
100
AcDbEntity
  8
躯体と製品
  6
Continuous
 62
     3
100
AcDbLine
 10
1489.091404387809
 20
898.3528816977059
 30
0.0
 11
1489.091404387809
 21
890.8528816977058
 31
0.0
  0
ARC
  5
6EBB
330
1E
100
AcDbEntity
  8
躯体と製品
  6
Continuous
 62
     3
100
AcDbCircle
 10
1489.591404387809
 20
898.3528816977059
 30
0.0
 40
0.5
100
AcDbArc
 50
90.0
 51
180.0
  0
LINE
  5
6EBC
330
1E
100
AcDbEntity
  8
躯体と製品
  6
Continuous
 62
     3
100
AcDbLine
 10
1489.591404387809
 20
898.8528816977058
 30
0.0
 11
1498.091404387809
 21
898.8528816977058
 31
0.0
  0
LINE
  5
6EBD
330
1E
100
AcDbEntity
  8
躯体と製品
  6
Continuous
 62
     3
100
AcDbLine
 10
1492.591404387809
 20
893.3528816977059
 30
0.0
 11
1492.091404387809
 21
892.852881697706
 31
0.0
  0
LINE
  5
6EBE
330
1E
100
AcDbEntity
  8
躯体と製品
  6
Continuous
 62
     3
100
AcDbLine
 10
1493.091404387809
 20
892.852881697706
 30
0.0
 11
1492.591404387809
 21
893.3528816977059
 31
0.0
  0
LINE
  5
6EBF
330
1E
100
AcDbEntity
  8
躯体と製品
  6
Continuous
 62
     3
100
AcDbLine
 10
1493.591404387809
 20
893.3528816977059
 30
0.0
 11
1493.091404387809
 21
892.852881697706
 31
0.0
  0
LINE
  5
6EC0
330
1E
100
AcDbEntity
  8
躯体と製品
  6
Continuous
 62
     3
100
AcDbLine
 10
1494.091404387809
 20
892.852881697706
 30
0.0
 11
1493.591404387809
 21
893.3528816977059
 31
0.0
  0
LINE
  5
6EC1
330
1E
100
AcDbEntity
  8
躯体と製品
  6
Continuous
 62
     3
100
AcDbLine
 10
1494.591404387809
 20
893.3528816977059
 30
0.0
 11
1494.091404387809
 21
892.852881697706
 31
0.0
  0
LINE
  5
6EC2
330
1E
100
AcDbEntity
  8
躯体と製品
  6
Continuous
 62
     3
100
AcDbLine
 10
1495.091404387809
 20
892.852881697706
 30
0.0
 11
1494.591404387809
 21
893.3528816977059
 31
0.0
  0
LINE
  5
6EC3
330
1E
100
AcDbEntity
  8
躯体と製品
  6
Continuous
 62
     3
100
AcDbLine
 10
1495.591404387809
 20
893.3528816977059
 30
0.0
 11
1495.091404387809
 21
892.852881697706
 31
0.0
  0
LINE
  5
6EC4
330
1E
100
AcDbEntity
  8
躯体と製品
  6
Continuous
 62
     3
100
AcDbLine
 10
1496.091404387809
 20
892.852881697706
 30
0.0
 11
1495.591404387809
 21
893.3528816977059
 31
0.0
  0
LINE
  5
6EC5
330
1E
100
AcDbEntity
  8
躯体と製品
  6
Continuous
 62
     3
100
AcDbLine
 10
1496.591404387809
 20
893.3528816977059
 30
0.0
 11
1496.091404387809
 21
892.852881697706
 31
0.0
  0
LINE
  5
6EC6
330
1E
100
AcDbEntity
  8
躯体と製品
  6
Continuous
 62
     3
100
AcDbLine
 10
1497.091404387808
 20
892.852881697706
 30
0.0
 11
1496.591404387809
 21
893.3528816977059
 31
0.0
  0
LINE
  5
6EC7
330
1E
100
AcDbEntity
  8
躯体と製品
  6
Continuous
 62
     3
100
AcDbLine
 10
1492.591404387809
 20
896.3528816977058
 30
0.0
 11
1492.091404387809
 21
896.8528816977059
 31
0.0
  0
LINE
  5
6EC8
330
1E
100
AcDbEntity
  8
躯体と製品
  6
Continuous
 62
     3
100
AcDbLine
 10
1493.091404387809
 20
896.8528816977059
 30
0.0
 11
1492.591404387809
 21
896.3528816977058
 31
0.0
  0
LINE
  5
6EC9
330
1E
100
AcDbEntity
  8
躯体と製品
  6
Continuous
 62
     3
100
AcDbLine
 10
1493.591404387809
 20
896.3528816977058
 30
0.0
 11
1493.091404387809
 21
896.8528816977059
 31
0.0
  0
LINE
  5
6ECA
330
1E
100
AcDbEntity
  8
躯体と製品
  6
Continuous
 62
     3
100
AcDbLine
 10
1494.091404387809
 20
896.8528816977059
 30
0.0
 11
1493.591404387809
 21
896.3528816977058
 31
0.0
  0
LINE
  5
6ECB
330
1E
100
AcDbEntity
  8
躯体と製品
  6
Continuous
 62
     3
100
AcDbLine
 10
1494.591404387809
 20
896.3528816977058
 30
0.0
 11
1494.091404387809
 21
896.8528816977059
 31
0.0
  0
LINE
  5
6ECC
330
1E
100
AcDbEntity
  8
躯体と製品
  6
Continuous
 62
     3
100
AcDbLine
 10
1495.091404387809
 20
896.8528816977059
 30
0.0
 11
1494.591404387809
 21
896.3528816977058
 31
0.0
  0
LINE
  5
6ECD
330
1E
100
AcDbEntity
  8
躯体と製品
  6
Continuous
 62
     3
100
AcDbLine
 10
1495.591404387809
 20
896.3528816977058
 30
0.0
 11
1495.091404387809
 21
896.8528816977059
 31
0.0
  0
LINE
  5
6ECE
330
1E
100
AcDbEntity
  8
躯体と製品
  6
Continuous
 62
     3
100
AcDbLine
 10
1496.091404387809
 20
896.8528816977059
 30
0.0
 11
1495.591404387809
 21
896.3528816977058
 31
0.0
  0
LINE
  5
6ECF
330
1E
100
AcDbEntity
  8
躯体と製品
  6
Continuous
 62
     3
100
AcDbLine
 10
1496.591404387809
 20
896.3528816977058
 30
0.0
 11
1496.091404387809
 21
896.8528816977059
 31
0.0
  0
LINE
  5
6ED0
330
1E
100
AcDbEntity
  8
躯体と製品
  6
Continuous
 62
     3
100
AcDbLine
 10
1497.091404387808
 20
896.8528816977059
 30
0.0
 11
1496.591404387809
 21
896.3528816977058
 31
0.0
  0
LINE
  5
6ED1
330
1E
100
AcDbEntity
  8
躯体と製品
  6
Continuous
 62
     3
100
AcDbLine
 10
1497.091404387808
 20
892.852881697706
 30
0.0
 11
1499.591404387809
 21
892.852881697706
 31
0.0
  0
LINE
  5
6ED2
330
1E
100
AcDbEntity
  8
躯体と製品
  6
Continuous
 62
     3
100
AcDbLine
 10
1497.091404387808
 20
896.8528816977059
 30
0.0
 11
1499.591404387809
 21
896.8528816977059
 31
0.0
  0
ARC
  5
6ED3
330
1E
100
AcDbEntity
  8
躯体と製品
  6
Continuous
 62
     3
100
AcDbCircle
 10
1490.891404387809
 20
896.5528816977062
 30
0.0
 40
0.2999999999999999
100
AcDbArc
 50
90.0
 51
180.0
  0
LINE
  5
6ED4
330
1E
100
AcDbEntity
  8
躯体と製品
  6
Continuous
 62
     3
100
AcDbLine
 10
1490.891404387809
 20
896.8528816977059
 30
0.0
 11
1492.091404387809
 21
896.8528816977059
 31
0.0
  0
LINE
  5
6ED5
330
1E
100
AcDbEntity
  8
躯体と製品
  6
Continuous
 62
     3
100
AcDbLine
 10
1490.891404387809
 20
892.852881697706
 30
0.0
 11
1492.091404387809
 21
892.852881697706
 31
0.0
  0
ARC
  5
6ED6
330
1E
100
AcDbEntity
  8
躯体と製品
  6
Continuous
 62
     3
100
AcDbCircle
 10
1490.891404387809
 20
893.1528816977058
 30
0.0
 40
0.2999999999999999
100
AcDbArc
 50
180.0
 51
270.0
  0
LINE
  5
6ED7
330
1E
100
AcDbEntity
  8
躯体と製品
  6
Continuous
 62
     3
100
AcDbLine
 10
1490.591404387808
 20
893.1528816977058
 30
0.0
 11
1490.591404387808
 21
896.5528816977062
 31
0.0
  0
ARC
  5
6ED8
330
1E
100
AcDbEntity
  8
躯体と製品
  6
Continuous
 62
     3
100
AcDbCircle
 10
1495.191404387809
 20
870.9528816977059
 30
0.0
 40
0.5999999999999999
100
AcDbArc
 50
90.0
 51
270.0
  0
ARC
  5
6ED9
330
1E
100
AcDbEntity
  8
躯体と製品
  6
Continuous
 62
     3
100
AcDbCircle
 10
1496.091404387809
 20
872.052881697706
 30
0.0
 40
0.5
100
AcDbArc
 50
270.0
 51
0.0
  0
LINE
  5
6EDA
330
1E
100
AcDbEntity
  8
躯体と製品
  6
Continuous
 62
     3
100
AcDbLine
 10
1496.091404387809
 20
871.5528816977062
 30
0.0
 11
1495.191404387809
 21
871.5528816977062
 31
0.0
  0
LINE
  5
6EDB
330
1E
100
AcDbEntity
  8
躯体と製品
  6
Continuous
 62
     3
100
AcDbLine
 10
1496.091404387809
 20
876.3528816977059
 30
0.0
 11
1492.091404387809
 21
876.3528816977059
 31
0.0
  0
ARC
  5
6EDC
330
1E
100
AcDbEntity
  8
躯体と製品
  6
Continuous
 62
     3
100
AcDbCircle
 10
1496.091404387809
 20
875.852881697706
 30
0.0
 40
0.5
100
AcDbArc
 50
0.0
 51
90.0
  0
LINE
  5
6EDD
330
1E
100
AcDbEntity
  8
躯体と製品
  6
Continuous
 62
     3
100
AcDbLine
 10
1496.591404387809
 20
875.852881697706
 30
0.0
 11
1496.591404387809
 21
872.052881697706
 31
0.0
  0
LINE
  5
6EDE
330
1E
100
AcDbEntity
  8
躯体と製品
  6
Continuous
 62
     3
100
AcDbLine
 10
1497.091404387808
 20
870.3528816977058
 30
0.0
 11
1495.191404387809
 21
870.3528816977058
 31
0.0
  0
ARC
  5
6EDF
330
1E
100
AcDbEntity
  8
躯体と製品
  6
Continuous
 62
     3
100
AcDbCircle
 10
1497.091404387808
 20
871.3528816977058
 30
0.0
 40
1.0
100
AcDbArc
 50
270.0
 51
0.0
  0
LINE
  5
6EE0
330
1E
100
AcDbEntity
  8
躯体と製品
  6
Continuous
 62
     3
100
AcDbLine
 10
1498.091404387809
 20
871.3528816977058
 30
0.0
 11
1498.091404387809
 21
877.3528816977059
 31
0.0
  0
ARC
  5
6EE1
330
1E
100
AcDbEntity
  8
躯体と製品
  6
Continuous
 62
     3
100
AcDbCircle
 10
1497.591404387809
 20
877.3528816977059
 30
0.0
 40
0.5
100
AcDbArc
 50
0.0
 51
90.0
  0
LINE
  5
6EE2
330
1E
100
AcDbEntity
  8
躯体と製品
  6
Continuous
 62
     3
100
AcDbLine
 10
1497.591404387809
 20
877.8528816977059
 30
0.0
 11
1492.091404387809
 21
877.8528816977059
 31
0.0
  0
ARC
  5
6EE3
330
1E
100
AcDbEntity
  8
躯体と製品
  6
Continuous
 62
     3
100
AcDbCircle
 10
1492.091404387809
 20
878.3528816977058
 30
0.0
 40
0.5
100
AcDbArc
 50
180.0
 51
270.0
  0
ARC
  5
6EE4
330
1E
100
AcDbEntity
  8
躯体と製品
  6
Continuous
 62
     3
100
AcDbCircle
 10
1492.091404387809
 20
875.852881697706
 30
0.0
 40
0.5
100
AcDbArc
 50
90.0
 51
180.0
  0
ARC
  5
6EE5
330
1E
100
AcDbEntity
  8
躯体と製品
  6
Continuous
 62
     3
100
AcDbCircle
 10
1503.691404387809
 20
885.2528816977057
 30
0.0
 40
0.5999999999999999
100
AcDbArc
 50
270.0
 51
90.0
  0
LINE
  5
6EE6
330
1E
100
AcDbEntity
  8
躯体と製品
  6
Continuous
 62
     3
100
AcDbLine
 10
1491.591404387809
 20
890.3528816977059
 30
0.0
 11
1491.591404387809
 21
878.3528816977058
 31
0.0
  0
ARC
  5
6EE7
330
1E
100
AcDbEntity
  8
躯体と製品
  6
Continuous
 62
     3
100
AcDbCircle
 10
1492.091404387809
 20
890.3528816977059
 30
0.0
 40
0.5
100
AcDbArc
 50
90.0
 51
180.0
  0
LINE
  5
6EE8
330
1E
100
AcDbEntity
  8
躯体と製品
  6
Continuous
 62
     3
100
AcDbLine
 10
1497.091404387808
 20
890.8528816977058
 30
0.0
 11
1492.091404387809
 21
890.8528816977058
 31
0.0
  0
ARC
  5
6EE9
330
1E
100
AcDbEntity
  8
躯体と製品
  6
Continuous
 62
     3
100
AcDbCircle
 10
1497.091404387808
 20
890.3528816977059
 30
0.0
 40
0.5
100
AcDbArc
 50
0.0
 51
90.0
  0
LINE
  5
6EEA
330
1E
100
AcDbEntity
  8
躯体と製品
  6
Continuous
 62
     3
100
AcDbLine
 10
1498.591404387809
 20
884.6528816977059
 30
0.0
 11
1503.691404387809
 21
884.6528816977059
 31
0.0
  0
ARC
  5
6EEB
330
1E
100
AcDbEntity
  8
躯体と製品
  6
Continuous
 62
     3
100
AcDbCircle
 10
1498.591404387809
 20
885.6528816977059
 30
0.0
 40
1.0
100
AcDbArc
 50
180.0
 51
270.0
  0
LINE
  5
6EEC
330
1E
100
AcDbEntity
  8
躯体と製品
  6
Continuous
 62
     3
100
AcDbLine
 10
1497.591404387809
 20
885.6528816977059
 30
0.0
 11
1497.591404387809
 21
890.3528816977059
 31
0.0
  0
LINE
  5
6EED
330
1E
100
AcDbEntity
  8
躯体と製品
  6
Continuous
 62
     3
100
AcDbLine
 10
1499.091404387809
 20
885.8528816977059
 30
0.0
 11
1503.691404387809
 21
885.8528816977059
 31
0.0
  0
ARC
  5
6EEE
330
1E
100
AcDbEntity
  8
躯体と製品
  6
Continuous
 62
     3
100
AcDbCircle
 10
1499.091404387809
 20
886.1528816977058
 30
0.0
 40
0.2999999999999999
100
AcDbArc
 50
180.0
 51
270.0
  0
LINE
  5
6EEF
330
1E
100
AcDbEntity
  8
躯体と製品
  6
Continuous
 62
     3
100
AcDbLine
 10
1489.091404387809
 20
876.3528816977059
 30
0.0
 11
1489.591404387809
 21
876.3528816977059
 31
0.0
  0
LINE
  5
6EF0
330
1E
100
AcDbEntity
  8
躯体と製品
  6
Continuous
 62
     3
100
AcDbLine
 10
1489.591404387809
 20
877.8528816977059
 30
0.0
 11
1489.091404387809
 21
877.8528816977059
 31
0.0
  0
LINE
  5
6EF1
330
1E
100
AcDbEntity
  8
躯体と製品
  6
Continuous
 62
     3
100
AcDbLine
 10
1489.591404387809
 20
890.8528816977058
 30
0.0
 11
1489.591404387809
 21
877.8528816977059
 31
0.0
  0
LINE
  5
6EF2
330
1E
100
AcDbEntity
  8
躯体と製品
  6
Continuous
 62
     3
100
AcDbLine
 10
1489.091404387809
 20
890.8528816977058
 30
0.0
 11
1489.591404387809
 21
890.8528816977058
 31
0.0
  0
LINE
  5
6EF3
330
1E
100
AcDbEntity
  8
躯体と製品
  6
Continuous
 62
     3
100
AcDbLine
 10
1489.091404387809
 20
849.3528816977057
 30
0.0
 11
1489.091404387809
 21
839.352881697706
 31
0.0
  0
LINE
  5
6EF4
330
1E
100
AcDbEntity
  8
躯体と製品
  6
Continuous
 62
     3
100
AcDbLine
 10
1491.591404387809
 20
843.852881697706
 30
0.0
 11
1491.091404387809
 21
844.3528816977059
 31
0.0
  0
LINE
  5
6EF5
330
1E
100
AcDbEntity
  8
躯体と製品
  6
Continuous
 62
     3
100
AcDbLine
 10
1491.591404387809
 20
844.8528816977059
 30
0.0
 11
1491.091404387809
 21
844.3528816977059
 31
0.0
  0
LINE
  5
6EF6
330
1E
100
AcDbEntity
  8
躯体と製品
  6
Continuous
 62
     3
100
AcDbLine
 10
1489.091404387809
 20
839.352881697706
 30
0.0
 11
1489.591404387809
 21
839.352881697706
 31
0.0
  0
LINE
  5
6EF7
330
1E
100
AcDbEntity
  8
躯体と製品
  6
Continuous
 62
     3
100
AcDbLine
 10
1489.091404387809
 20
849.3528816977057
 30
0.0
 11
1489.591404387809
 21
849.3528816977057
 31
0.0
  0
LINE
  5
6EF8
330
1E
100
AcDbEntity
  8
躯体と製品
  6
Continuous
 62
     3
100
AcDbLine
 10
1501.291404387809
 20
894.8528816977059
 30
0.0
 11
1501.591404387809
 21
895.1528816977058
 31
0.0
  0
LINE
  5
6EF9
330
1E
100
AcDbEntity
  8
躯体と製品
  6
Continuous
 62
     3
100
AcDbLine
 10
1500.591404387809
 20
900.3528816977059
 30
0.0
 11
1492.591404387809
 21
900.3528816977059
 31
0.0
  0
ARC
  5
6EFA
330
1E
100
AcDbEntity
  8
躯体と製品
  6
Continuous
 62
     3
100
AcDbCircle
 10
1500.591404387809
 20
899.3528816977057
 30
0.0
 40
1.0
100
AcDbArc
 50
0.0
 51
90.0
  0
ARC
  5
6EFB
330
1E
100
AcDbEntity
  8
躯体と製品
  6
Continuous
 62
     3
100
AcDbCircle
 10
1492.591404387809
 20
899.8528816977058
 30
0.0
 40
0.5
100
AcDbArc
 50
90.0
 51
180.0
  0
LINE
  5
6EFC
330
1E
100
AcDbEntity
  8
躯体と製品
  6
Continuous
 62
     3
100
AcDbLine
 10
1492.091404387809
 20
899.8528816977058
 30
0.0
 11
1492.091404387809
 21
899.3528816977057
 31
0.0
  0
ARC
  5
6EFD
330
1E
100
AcDbEntity
  8
躯体と製品
  6
Continuous
 62
     3
100
AcDbCircle
 10
1499.591404387809
 20
898.3528816977059
 30
0.0
 40
0.5
100
AcDbArc
 50
0.0
 51
90.0
  0
LINE
  5
6EFE
330
1E
100
AcDbEntity
  8
躯体と製品
  6
Continuous
 62
     3
100
AcDbLine
 10
1492.591404387809
 20
898.8528816977058
 30
0.0
 11
1499.591404387809
 21
898.8528816977058
 31
0.0
  0
LINE
  5
6EFF
330
1E
100
AcDbEntity
  8
躯体と製品
  6
Continuous
 62
     3
100
AcDbLine
 10
1501.291404387809
 20
894.8528816977059
 30
0.0
 11
1501.591404387809
 21
894.5528816977057
 31
0.0
  0
ARC
  5
6F00
330
1E
100
AcDbEntity
  8
躯体と製品
  6
Continuous
 62
     3
100
AcDbCircle
 10
1492.591404387809
 20
899.3528816977057
 30
0.0
 40
0.5
100
AcDbArc
 50
180.0
 51
270.0
  0
LINE
  5
6F01
330
1E
100
AcDbEntity
  8
躯体と製品
  6
Continuous
 62
     3
100
AcDbLine
 10
1501.591404387809
 20
899.3528816977057
 30
0.0
 11
1501.591404387809
 21
895.1528816977058
 31
0.0
  0
LINE
  5
6F02
330
1E
100
AcDbEntity
  8
躯体と製品
  6
Continuous
 62
     3
100
AcDbLine
 10
1501.591404387809
 20
894.5528816977057
 30
0.0
 11
1501.591404387809
 21
888.8528816977059
 31
0.0
  0
LINE
  5
6F03
330
1E
100
AcDbEntity
  8
躯体と製品
  6
Continuous
 62
     3
100
AcDbLine
 10
1500.091404387809
 20
887.8528816977059
 30
0.0
 11
1500.091404387809
 21
898.3528816977059
 31
0.0
  0
ARC
  5
6F04
330
1E
100
AcDbEntity
  8
躯体と製品
  6
Continuous
 62
     3
100
AcDbCircle
 10
1519.591404387809
 20
886.3528816977058
 30
0.0
 40
0.5
100
AcDbArc
 50
0.0
 51
90.0
  0
LINE
  5
6F05
330
1E
100
AcDbEntity
  8
躯体と製品
  6
Continuous
 62
     3
100
AcDbLine
 10
1520.091404387809
 20
886.3528816977058
 30
0.0
 11
1520.091404387809
 21
854.3528816977058
 31
0.0
  0
ARC
  5
6F06
330
1E
100
AcDbEntity
  8
躯体と製品
  6
Continuous
 62
     3
100
AcDbCircle
 10
1520.591404387809
 20
887.3528816977058
 30
0.0
 40
1.0
100
AcDbArc
 50
0.0
 51
90.0
  0
LINE
  5
6F07
330
1E
100
AcDbEntity
  8
躯体と製品
  6
Continuous
 62
     3
100
AcDbLine
 10
1521.591404387809
 20
887.3528816977058
 30
0.0
 11
1521.591404387809
 21
853.3528816977058
 31
0.0
  0
ARC
  5
6F08
330
1E
100
AcDbEntity
  8
躯体と製品
  6
Continuous
 62
     3
100
AcDbCircle
 10
1519.591404387809
 20
854.3528816977058
 30
0.0
 40
0.5
100
AcDbArc
 50
270.0
 51
0.0
  0
ARC
  5
6F09
330
1E
100
AcDbEntity
  8
躯体と製品
  6
Continuous
 62
     3
100
AcDbCircle
 10
1520.591404387809
 20
853.3528816977058
 30
0.0
 40
1.0
100
AcDbArc
 50
270.0
 51
0.0
  0
LINE
  5
6F0A
330
1E
100
AcDbEntity
  8
躯体と製品
  6
Continuous
 62
     3
100
AcDbLine
 10
1502.091404387809
 20
888.352881697706
 30
0.0
 11
1520.591404387809
 21
888.352881697706
 31
0.0
  0
LINE
  5
6F0B
330
1E
100
AcDbEntity
  8
躯体と製品
  6
Continuous
 62
     3
100
AcDbLine
 10
1519.591404387809
 20
853.8528816977057
 30
0.0
 11
1511.591404387809
 21
853.8528816977057
 31
0.0
  0
LINE
  5
6F0C
330
1E
100
AcDbEntity
  8
躯体と製品
  6
Continuous
 62
     3
100
AcDbLine
 10
1520.591404387809
 20
852.3528816977059
 30
0.0
 11
1511.591404387809
 21
852.3528816977059
 31
0.0
  0
LINE
  5
6F0D
330
1E
100
AcDbEntity
  8
躯体と製品
  6
Continuous
 62
     3
100
AcDbLine
 10
1501.091404387809
 20
886.8528816977057
 30
0.0
 11
1519.591404387809
 21
886.8528816977057
 31
0.0
  0
ARC
  5
6F0E
330
1E
100
AcDbEntity
  8
躯体と製品
  6
Continuous
 62
     3
100
AcDbCircle
 10
1502.091404387809
 20
888.8528816977059
 30
0.0
 40
0.5
100
AcDbArc
 50
180.0
 51
270.0
  0
ARC
  5
6F0F
330
1E
100
AcDbEntity
  8
躯体と製品
  6
Continuous
 62
     3
100
AcDbCircle
 10
1511.591404387809
 20
852.8528816977059
 30
0.0
 40
0.5
100
AcDbArc
 50
180.0
 51
270.0
  0
LINE
  5
6F10
330
1E
100
AcDbEntity
  8
躯体と製品
  6
Continuous
 62
     3
100
AcDbLine
 10
1511.091404387809
 20
852.8528816977059
 30
0.0
 11
1511.091404387809
 21
853.3528816977058
 31
0.0
  0
ARC
  5
6F11
330
1E
100
AcDbEntity
  8
躯体と製品
  6
Continuous
 62
     3
100
AcDbCircle
 10
1511.591404387809
 20
853.3528816977058
 30
0.0
 40
0.5
100
AcDbArc
 50
90.0
 51
180.0
  0
ARC
  5
6F12
330
1E
100
AcDbEntity
  8
躯体と製品
  6
Continuous
 62
     3
100
AcDbCircle
 10
1501.091404387809
 20
887.8528816977059
 30
0.0
 40
1.0
100
AcDbArc
 50
180.0
 51
270.0
  0
LINE
  5
6F13
330
1E
100
AcDbEntity
  8
躯体と製品
  6
Continuous
 62
     7
100
AcDbLine
 10
1499.591405387809
 20
887.1528836977056
 30
0.0
 11
1499.591405387809
 21
890.6528816977056
 31
0.0
  0
ARC
  5
6F14
330
1E
100
AcDbEntity
  8
躯体と製品
  6
Continuous
 62
     7
100
AcDbCircle
 10
1500.091406387809
 20
887.1528836977056
 30
0.0
 40
0.5000010000000003
100
AcDbArc
 50
180.0
 51
270.0
  0
ARC
  5
6F15
330
1E
100
AcDbEntity
  8
躯体と製品
  6
Continuous
 62
     7
100
AcDbCircle
 10
1500.091406387809
 20
887.1528836977056
 30
0.0
 40
1.299998999999999
100
AcDbArc
 50
180.0
 51
270.0
  0
LINE
  5
6F16
330
1E
100
AcDbEntity
  8
躯体と製品
  6
Continuous
 62
     7
100
AcDbLine
 10
1498.791404387809
 20
890.6528816977056
 30
0.0
 11
1499.591405387809
 21
890.6528816977056
 31
0.0
  0
LINE
  5
6F17
330
1E
100
AcDbEntity
  8
躯体と製品
  6
Continuous
 62
     7
100
AcDbLine
 10
1518.491405387809
 20
886.6528826977056
 30
0.0
 11
1500.091406387809
 21
886.6528826977056
 31
0.0
  0
ARC
  5
6F18
330
1E
100
AcDbEntity
  8
躯体と製品
  6
Continuous
 62
     7
100
AcDbCircle
 10
1518.491405387809
 20
885.3528836977057
 30
0.0
 40
1.299998999999999
100
AcDbArc
 50
0.0
 51
90.0
  0
ARC
  5
6F19
330
1E
100
AcDbEntity
  8
躯体と製品
  6
Continuous
 62
     7
100
AcDbCircle
 10
1518.491405387809
 20
885.3528836977057
 30
0.0
 40
0.5000010000000003
100
AcDbArc
 50
0.0
 51
90.0
  0
LINE
  5
6F1A
330
1E
100
AcDbEntity
  8
躯体と製品
  6
Continuous
 62
     7
100
AcDbLine
 10
1518.991406387809
 20
885.3528836977057
 30
0.0
 11
1518.991406387809
 21
856.6528826977055
 31
0.0
  0
LINE
  5
6F1B
330
1E
100
AcDbEntity
  8
躯体と製品
  6
Continuous
 62
     7
100
AcDbLine
 10
1519.791404387809
 20
885.3528836977057
 30
0.0
 11
1519.791404387809
 21
856.6528826977055
 31
0.0
  0
LINE
  5
6F1C
330
1E
100
AcDbEntity
  8
躯体と製品
  6
Continuous
 62
     7
100
AcDbLine
 10
1518.991406387809
 20
856.6528826977055
 30
0.0
 11
1519.791404387809
 21
856.6528826977055
 31
0.0
  0
LINE
  5
6F1D
330
1E
100
AcDbEntity
  8
躯体と製品
  6
Continuous
 62
     7
100
AcDbLine
 10
1518.491405387809
 20
885.8528816977056
 30
0.0
 11
1500.091406387809
 21
885.8528816977056
 31
0.0
  0
LINE
  5
6F1E
330
1E
100
AcDbEntity
  8
躯体と製品
  6
Continuous
 62
     7
100
AcDbLine
 10
1498.791404387809
 20
890.6528816977056
 30
0.0
 11
1498.791407387809
 21
887.1528836977056
 31
0.0
  0
LINE
  5
6F1F
330
1E
100
AcDbEntity
  8
躯体と製品
  6
Continuous
 62
     4
100
AcDbLine
 10
1518.991406387808
 20
856.9024258597195
 30
0.0
 11
1519.791404387809
 21
857.7024238597205
 31
0.0
  0
LINE
  5
6F20
330
1E
100
AcDbEntity
  8
躯体と製品
  6
Continuous
 62
     4
100
AcDbLine
 10
1518.991406387808
 20
858.3166394220929
 30
0.0
 11
1519.791404387809
 21
859.1166374220934
 31
0.0
  0
LINE
  5
6F21
330
1E
100
AcDbEntity
  8
躯体と製品
  6
Continuous
 62
     4
100
AcDbLine
 10
1518.991406387809
 20
859.7308529844674
 30
0.0
 11
1519.791404387809
 21
860.530850984467
 31
0.0
  0
LINE
  5
6F22
330
1E
100
AcDbEntity
  8
躯体と製品
  6
Continuous
 62
     4
100
AcDbLine
 10
1518.991406387809
 20
861.1450665468403
 30
0.0
 11
1519.791404387809
 21
861.9450645468402
 31
0.0
  0
LINE
  5
6F23
330
1E
100
AcDbEntity
  8
躯体と製品
  6
Continuous
 62
     4
100
AcDbLine
 10
1518.991406387809
 20
862.5592801092135
 30
0.0
 11
1519.791404387809
 21
863.3592781092133
 31
0.0
  0
LINE
  5
6F24
330
1E
100
AcDbEntity
  8
躯体と製品
  6
Continuous
 62
     4
100
AcDbLine
 10
1518.991406387809
 20
863.973493671587
 30
0.0
 11
1519.791404387809
 21
864.7734916715865
 31
0.0
  0
LINE
  5
6F25
330
1E
100
AcDbEntity
  8
躯体と製品
  6
Continuous
 62
     4
100
AcDbLine
 10
1518.991406387809
 20
865.3877072339602
 30
0.0
 11
1519.791404387808
 21
866.1877052339598
 31
0.0
  0
LINE
  5
6F26
330
1E
100
AcDbEntity
  8
躯体と製品
  6
Continuous
 62
     4
100
AcDbLine
 10
1518.991406387809
 20
866.8019207963334
 30
0.0
 11
1519.791404387808
 21
867.601918796333
 31
0.0
  0
LINE
  5
6F27
330
1E
100
AcDbEntity
  8
躯体と製品
  6
Continuous
 62
     4
100
AcDbLine
 10
1518.991406387809
 20
868.2161343587068
 30
0.0
 11
1519.791404387808
 21
869.0161323587062
 31
0.0
  0
LINE
  5
6F28
330
1E
100
AcDbEntity
  8
躯体と製品
  6
Continuous
 62
     4
100
AcDbLine
 10
1518.991406387809
 20
869.6303479210799
 30
0.0
 11
1519.791404387808
 21
870.4303459210796
 31
0.0
  0
LINE
  5
6F29
330
1E
100
AcDbEntity
  8
躯体と製品
  6
Continuous
 62
     4
100
AcDbLine
 10
1518.991406387808
 20
871.0445614834531
 30
0.0
 11
1519.791404387809
 21
871.8445594834538
 31
0.0
  0
LINE
  5
6F2A
330
1E
100
AcDbEntity
  8
躯体と製品
  6
Continuous
 62
     4
100
AcDbLine
 10
1518.991406387808
 20
872.4587750458265
 30
0.0
 11
1519.791404387809
 21
873.258773045827
 31
0.0
  0
LINE
  5
6F2B
330
1E
100
AcDbEntity
  8
躯体と製品
  6
Continuous
 62
     4
100
AcDbLine
 10
1518.991406387808
 20
873.8729886081996
 30
0.0
 11
1519.791404387809
 21
874.6729866082002
 31
0.0
  0
LINE
  5
6F2C
330
1E
100
AcDbEntity
  8
躯体と製品
  6
Continuous
 62
     4
100
AcDbLine
 10
1518.991406387808
 20
875.287202170573
 30
0.0
 11
1519.791404387809
 21
876.0872001705736
 31
0.0
  0
LINE
  5
6F2D
330
1E
100
AcDbEntity
  8
躯体と製品
  6
Continuous
 62
     4
100
AcDbLine
 10
1518.991406387808
 20
876.7014157329462
 30
0.0
 11
1519.791404387809
 21
877.5014137329469
 31
0.0
  0
LINE
  5
6F2E
330
1E
100
AcDbEntity
  8
躯体と製品
  6
Continuous
 62
     4
100
AcDbLine
 10
1518.991406387808
 20
878.1156292953154
 30
0.0
 11
1519.791404387808
 21
878.915627295316
 31
0.0
  0
LINE
  5
6F2F
330
1E
100
AcDbEntity
  8
躯体と製品
  6
Continuous
 62
     4
100
AcDbLine
 10
1518.991406387808
 20
879.5298428576888
 30
0.0
 11
1519.791404387808
 21
880.3298408576894
 31
0.0
  0
LINE
  5
6F30
330
1E
100
AcDbEntity
  8
躯体と製品
  6
Continuous
 62
     4
100
AcDbLine
 10
1518.99140638781
 20
880.9440564200638
 30
0.0
 11
1519.791404387809
 21
881.7440544200637
 31
0.0
  0
LINE
  5
6F31
330
1E
100
AcDbEntity
  8
躯体と製品
  6
Continuous
 62
     4
100
AcDbLine
 10
1518.99140638781
 20
882.358269982437
 30
0.0
 11
1519.791404387809
 21
883.158267982437
 31
0.0
  0
LINE
  5
6F32
330
1E
100
AcDbEntity
  8
躯体と製品
  6
Continuous
 62
     4
100
AcDbLine
 10
1518.99140638781
 20
883.7724835448106
 30
0.0
 11
1519.791404387809
 21
884.5724815448102
 31
0.0
  0
LINE
  5
6F33
330
1E
100
AcDbEntity
  8
躯体と製品
  6
Continuous
 62
     4
100
AcDbLine
 10
1518.99140638781
 20
885.1866971071837
 30
0.0
 11
1519.681264742343
 21
885.8765554617177
 31
0.0
  0
LINE
  5
6F34
330
1E
100
AcDbEntity
  8
躯体と製品
  6
Continuous
 62
     4
100
AcDbLine
 10
1518.243377415959
 20
885.8528816977063
 30
0.0
 11
1518.957102462772
 21
886.5666067445191
 31
0.0
  0
LINE
  5
6F35
330
1E
100
AcDbEntity
  8
躯体と製品
  6
Continuous
 62
     4
100
AcDbLine
 10
1516.829163853585
 20
885.8528816977054
 30
0.0
 11
1517.629164853584
 21
886.6528826977051
 31
0.0
  0
LINE
  5
6F36
330
1E
100
AcDbEntity
  8
躯体と製品
  6
Continuous
 62
     4
100
AcDbLine
 10
1515.414950291211
 20
885.8528816977056
 30
0.0
 11
1516.214951291211
 21
886.6528826977052
 31
0.0
  0
LINE
  5
6F37
330
1E
100
AcDbEntity
  8
躯体と製品
  6
Continuous
 62
     4
100
AcDbLine
 10
1514.000736728838
 20
885.8528816977059
 30
0.0
 11
1514.800737728838
 21
886.6528826977052
 31
0.0
  0
LINE
  5
6F38
330
1E
100
AcDbEntity
  8
躯体と製品
  6
Continuous
 62
     4
100
AcDbLine
 10
1512.586523166465
 20
885.8528816977059
 30
0.0
 11
1513.386524166465
 21
886.6528826977056
 31
0.0
  0
LINE
  5
6F39
330
1E
100
AcDbEntity
  8
躯体と製品
  6
Continuous
 62
     4
100
AcDbLine
 10
1511.172309604091
 20
885.8528816977051
 30
0.0
 11
1511.972310604092
 21
886.6528826977059
 31
0.0
  0
LINE
  5
6F3A
330
1E
100
AcDbEntity
  8
躯体と製品
  6
Continuous
 62
     4
100
AcDbLine
 10
1509.758096041718
 20
885.8528816977054
 30
0.0
 11
1510.558097041718
 21
886.6528826977059
 31
0.0
  0
LINE
  5
6F3B
330
1E
100
AcDbEntity
  8
躯体と製品
  6
Continuous
 62
     4
100
AcDbLine
 10
1508.343882479344
 20
885.8528816977051
 30
0.0
 11
1509.143883479345
 21
886.6528826977056
 31
0.0
  0
LINE
  5
6F3C
330
1E
100
AcDbEntity
  8
躯体と製品
  6
Continuous
 62
     4
100
AcDbLine
 10
1506.929668916971
 20
885.8528816977051
 30
0.0
 11
1507.729669916971
 21
886.6528826977051
 31
0.0
  0
LINE
  5
6F3D
330
1E
100
AcDbEntity
  8
躯体と製品
  6
Continuous
 62
     4
100
AcDbLine
 10
1505.515455354598
 20
885.8528816977054
 30
0.0
 11
1506.315456354597
 21
886.6528826977051
 31
0.0
  0
LINE
  5
6F3E
330
1E
100
AcDbEntity
  8
躯体と製品
  6
Continuous
 62
     4
100
AcDbLine
 10
1504.101241792224
 20
885.8528816977054
 30
0.0
 11
1504.901242792224
 21
886.6528826977051
 31
0.0
  0
LINE
  5
6F3F
330
1E
100
AcDbEntity
  8
躯体と製品
  6
Continuous
 62
     4
100
AcDbLine
 10
1502.687028229855
 20
885.8528816977059
 30
0.0
 11
1503.487029229855
 21
886.6528826977056
 31
0.0
  0
LINE
  5
6F40
330
1E
100
AcDbEntity
  8
躯体と製品
  6
Continuous
 62
     4
100
AcDbLine
 10
1501.272814667482
 20
885.8528816977059
 30
0.0
 11
1502.072815667482
 21
886.6528826977056
 31
0.0
  0
LINE
  5
6F41
330
1E
100
AcDbEntity
  8
躯体と製品
  6
Continuous
 62
     4
100
AcDbLine
 10
1499.876491893092
 20
885.8707724856897
 30
0.0
 11
1500.658602105108
 21
886.6528826977058
 31
0.0
  0
LINE
  5
6F42
330
1E
100
AcDbEntity
  8
躯体と製品
  6
Continuous
 62
     4
100
AcDbLine
 10
1499.015183432701
 20
886.4236775876717
 30
0.0
 11
1499.609847113445
 21
887.0183412684157
 31
0.0
  0
LINE
  5
6F43
330
1E
100
AcDbEntity
  8
躯体と製品
  6
Continuous
 62
     4
100
AcDbLine
 10
1498.791406992468
 20
887.6141147098117
 30
0.0
 11
1499.591405387809
 21
888.4141131051524
 31
0.0
  0
LINE
  5
6F44
330
1E
100
AcDbEntity
  8
躯体と製品
  6
Continuous
 62
     4
100
AcDbLine
 10
1498.791405780285
 20
889.0283270600022
 30
0.0
 11
1499.591405387809
 21
889.828326667526
 31
0.0
  0
LINE
  5
6F45
330
1E
100
AcDbEntity
  8
躯体と製品
  6
Continuous
 62
     4
100
AcDbLine
 10
1498.791404568103
 20
890.4425394101933
 30
0.0
 11
1499.001746855615
 21
890.6528816977052
 31
0.0
  0
LINE
  5
6F46
330
1E
100
AcDbEntity
  8
躯体と製品
  6
Continuous
 62
     7
100
AcDbLine
 10
1491.591404387809
 20
893.3528816977059
 30
0.0
 11
1492.091404387809
 21
892.852881697706
 31
0.0
  0
LINE
  5
6F47
330
1E
100
AcDbEntity
  8
躯体と製品
  6
Continuous
 62
     7
100
AcDbLine
 10
1491.591404387809
 20
896.3528816977058
 30
0.0
 11
1492.091404387809
 21
896.8528816977059
 31
0.0
  0
LINE
  5
6F48
330
1E
100
AcDbEntity
  8
躯体と製品
  6
Continuous
 62
     7
100
AcDbLine
 10
1491.591404387809
 20
896.3528816977058
 30
0.0
 11
1491.591404387809
 21
893.3528816977059
 31
0.0
  0
LINE
  5
6F49
330
1E
100
AcDbEntity
  8
躯体と製品
  6
Continuous
 62
     4
100
AcDbLine
 10
1492.091404387809
 20
896.8528816977059
 30
0.0
 11
1492.091404387809
 21
892.852881697706
 31
0.0
  0
LINE
  5
6F4A
330
1E
100
AcDbEntity
  8
躯体と製品
  6
Continuous
 62
     7
100
AcDbLine
 10
1500.091404387809
 20
896.8528816977059
 30
0.0
 11
1497.091404387808
 21
896.8528816977059
 31
0.0
  0
LINE
  5
6F4B
330
1E
100
AcDbEntity
  8
躯体と製品
  6
Continuous
 62
     4
100
AcDbLine
 10
1500.091404387809
 20
896.3528816977058
 30
0.0
 11
1491.591404387809
 21
896.3528816977058
 31
0.0
  0
LINE
  5
6F4C
330
1E
100
AcDbEntity
  8
躯体と製品
  6
Continuous
 62
     4
100
AcDbLine
 10
1500.091404387809
 20
893.3528816977059
 30
0.0
 11
1491.591404387809
 21
893.3528816977059
 31
0.0
  0
LINE
  5
6F4D
330
1E
100
AcDbEntity
  8
躯体と製品
  6
Continuous
 62
     7
100
AcDbLine
 10
1500.091404387809
 20
892.852881697706
 30
0.0
 11
1497.091404387808
 21
892.852881697706
 31
0.0
  0
ARC
  5
6F4E
330
1E
100
AcDbEntity
  8
躯体と製品
  6
Continuous
 62
     7
100
AcDbCircle
 10
1502.591404387809
 20
889.352881697706
 30
0.0
 40
1.0
100
AcDbArc
 50
180.0
 51
270.0
  0
ARC
  5
6F4F
330
1E
100
AcDbEntity
  8
躯体と製品
  6
Continuous
 62
     7
100
AcDbCircle
 10
1504.591404387809
 20
889.352881697706
 30
0.0
 40
1.0
100
AcDbArc
 50
270.0
 51
0.0
  0
LINE
  5
6F50
330
1E
100
AcDbEntity
  8
躯体と製品
  6
Continuous
 62
     7
100
AcDbLine
 10
1502.591404387809
 20
888.352881697706
 30
0.0
 11
1504.591404387809
 21
888.352881697706
 31
0.0
  0
ARC
  5
6F51
330
1E
100
AcDbEntity
  8
躯体と製品
  6
Continuous
 62
     7
100
AcDbCircle
 10
1503.657123962463
 20
893.9324029743016
 30
0.0
 40
0.4204787234042585
100
AcDbArc
 50
345.9042107558272
 51
90.0
  0
ARC
  5
6F52
330
1E
100
AcDbEntity
  8
躯体と製品
  6
Continuous
 62
     7
100
AcDbCircle
 10
1501.591404387809
 20
896.3314531262774
 30
0.0
 40
2.021428571428586
100
AcDbArc
 50
42.74124453868362
 51
90.0
  0
ARC
  5
6F53
330
1E
100
AcDbEntity
  8
躯体と製品
  6
Continuous
 62
     7
100
AcDbCircle
 10
1501.591404387809
 20
893.3743102691346
 30
0.0
 40
2.021428571428568
100
AcDbArc
 50
270.0
 51
317.2587554613163
  0
ARC
  5
6F54
330
1E
100
AcDbEntity
  8
躯体と製品
  6
Continuous
 62
     7
100
AcDbCircle
 10
1503.657123962463
 20
895.7733604211099
 30
0.0
 40
0.4204787234042585
100
AcDbArc
 50
270.0
 51
14.0957892441728
  0
LINE
  5
6F55
330
1E
100
AcDbEntity
  8
躯体と製品
  6
Continuous
 62
     7
100
AcDbLine
 10
1503.657123962463
 20
895.3528816977058
 30
0.0
 11
1503.657123962463
 21
894.3528816977059
 31
0.0
  0
ARC
  5
6F56
330
1E
100
AcDbEntity
  8
躯体と製品
  6
Continuous
 62
     7
100
AcDbCircle
 10
1499.991404387809
 20
894.8528816977059
 30
0.0
 40
4.2
100
AcDbArc
 50
317.2587554613163
 51
345.9042107558272
  0
ARC
  5
6F57
330
1E
100
AcDbEntity
  8
躯体と製品
  6
Continuous
 62
     7
100
AcDbCircle
 10
1499.991404387809
 20
894.8528816977059
 30
0.0
 40
4.2
100
AcDbArc
 50
14.0957892441728
 51
42.74124453868362
  0
POINT
  5
6F58
330
1E
100
AcDbEntity
  8
躯体と製品
 62
     4
100
AcDbPoint
 10
1521.591404387809
 20
888.352881697706
 30
0.0
  0
POINT
  5
6F59
330
1E
100
AcDbEntity
  8
躯体と製品
 62
     4
100
AcDbPoint
 10
1521.591404387809
 20
852.3528816977059
 30
0.0
  0
LINE
  5
6F5A
330
1E
100
AcDbEntity
  8
躯体と製品
  6
DASHED1
 62
     7
100
AcDbLine
 10
1474.176758387809
 20
842.0932546977057
 30
0.0
 11
1475.091404387809
 21
840.352879697706
 31
0.0
  0
LINE
  5
6F5B
330
1E
100
AcDbEntity
  8
躯体と製品
  6
DASHED1
 62
     7
100
AcDbLine
 10
1475.091404387809
 20
840.352879697706
 30
0.0
 11
1487.091404387809
 21
840.352879697706
 31
0.0
  0
LINE
  5
6F5C
330
1E
100
AcDbEntity
  8
躯体と製品
  6
DASHED1
 62
     7
100
AcDbLine
 10
1467.291023387809
 20
847.911937697706
 30
0.0
 11
1472.291024387809
 21
849.7317886977059
 31
0.0
  0
LINE
  5
6F5D
330
1E
100
AcDbEntity
  8
躯体と製品
  6
DASHED1
 62
     7
100
AcDbLine
 10
1467.291023387809
 20
848.976115697706
 30
0.0
 11
1471.949003387809
 21
850.671481697706
 31
0.0
  0
LINE
  5
6F5E
330
1E
100
AcDbEntity
  8
躯体と製品
  6
DASHED1
 62
     7
100
AcDbLine
 10
1467.291023387809
 20
840.793822697706
 30
0.0
 11
1472.291024387809
 21
838.9739716977057
 31
0.0
  0
LINE
  5
6F5F
330
1E
100
AcDbEntity
  8
躯体と製品
  6
DASHED1
 62
     7
100
AcDbLine
 10
1471.949003387809
 20
838.034278697706
 30
0.0
 11
1478.752625387809
 21
837.0419236977058
 31
0.0
  0
ARC
  5
6F60
330
1E
100
AcDbEntity
  8
躯体と製品
  6
DASHED1
 62
     7
100
AcDbCircle
 10
1478.810357387809
 20
837.4377346977057
 30
0.0
 40
0.3999990000000001
100
AcDbArc
 50
261.7015340000029
 51
351.8698979999985
  0
LINE
  5
6F61
330
1E
100
AcDbEntity
  8
躯体と製品
  6
DASHED1
 62
     7
100
AcDbLine
 10
1479.206339387809
 20
837.381166697706
 30
0.0
 11
1479.234455387809
 21
837.5779936977059
 31
0.0
  0
ARC
  5
6F62
330
1E
100
AcDbEntity
  8
躯体と製品
  6
DASHED1
 62
     7
100
AcDbCircle
 10
1478.838476387809
 20
837.634561697706
 30
0.0
 40
0.3999990000000001
100
AcDbArc
 50
351.8698979999985
 51
81.86989800000221
  0
LINE
  5
6F63
330
1E
100
AcDbEntity
  8
躯体と製品
  6
DASHED1
 62
     7
100
AcDbLine
 10
1478.895044387809
 20
838.0305406977059
 30
0.0
 11
1472.291024387809
 21
838.9739716977057
 31
0.0
  0
LINE
  5
6F64
330
1E
100
AcDbEntity
  8
躯体と製品
  6
DASHED1
 62
     7
100
AcDbLine
 10
1471.949003387809
 20
850.671481697706
 30
0.0
 11
1478.752625387809
 21
851.663836697706
 31
0.0
  0
ARC
  5
6F65
330
1E
100
AcDbEntity
  8
躯体と製品
  6
DASHED1
 62
     7
100
AcDbCircle
 10
1478.810357387809
 20
851.2680256977059
 30
0.0
 40
0.3999990000000001
100
AcDbArc
 50
8.130102000001478
 51
98.29846599999713
  0
LINE
  5
6F66
330
1E
100
AcDbEntity
  8
躯体と製品
  6
DASHED1
 62
     7
100
AcDbLine
 10
1479.206339387809
 20
851.3245936977059
 30
0.0
 11
1479.234455387809
 21
851.1277696977058
 31
0.0
  0
ARC
  5
6F67
330
1E
100
AcDbEntity
  8
躯体と製品
  6
DASHED1
 62
     7
100
AcDbCircle
 10
1478.838476387809
 20
851.071198697706
 30
0.0
 40
0.3999990000000001
100
AcDbArc
 50
278.1301019999978
 51
8.130102000001478
  0
LINE
  5
6F68
330
1E
100
AcDbEntity
  8
躯体と製品
  6
DASHED1
 62
     7
100
AcDbLine
 10
1475.091404387809
 20
848.352880697706
 30
0.0
 11
1474.176758387809
 21
846.6125056977059
 31
0.0
  0
LINE
  5
6F69
330
1E
100
AcDbEntity
  8
躯体と製品
  6
DASHED1
 62
     7
100
AcDbLine
 10
1487.091404387809
 20
849.3528796977059
 30
0.0
 11
1482.091403387809
 21
848.352880697706
 31
0.0
  0
LINE
  5
6F6A
330
1E
100
AcDbEntity
  8
躯体と製品
  6
DASHED1
 62
     7
100
AcDbLine
 10
1487.091404387809
 20
845.3528806977057
 30
0.0
 11
1482.091403387809
 21
844.3528816977059
 31
0.0
  0
LINE
  5
6F6B
330
1E
100
AcDbEntity
  8
躯体と製品
  6
DASHED1
 62
     7
100
AcDbLine
 10
1487.091404387809
 20
843.3528796977062
 30
0.0
 11
1482.091403387809
 21
844.3528816977059
 31
0.0
  0
LINE
  5
6F6C
330
1E
100
AcDbEntity
  8
躯体と製品
  6
DASHED1
 62
     7
100
AcDbLine
 10
1482.091403387809
 20
844.3528816977059
 30
0.0
 11
1487.091404387809
 21
844.3528816977059
 31
0.0
  0
LINE
  5
6F6D
330
1E
100
AcDbEntity
  8
躯体と製品
  6
DASHED1
 62
     7
100
AcDbLine
 10
1452.960848387809
 20
846.2223256977061
 30
0.0
 11
1451.091404387809
 21
844.3528816977059
 31
0.0
  0
LINE
  5
6F6E
330
1E
100
AcDbEntity
  8
躯体と製品
  6
DASHED1
 62
     7
100
AcDbLine
 10
1474.176758387809
 20
846.6125056977059
 30
0.0
 11
1472.179499387809
 21
846.7171756977059
 31
0.0
  0
LINE
  5
6F6F
330
1E
100
AcDbEntity
  8
躯体と製品
  6
DASHED1
 62
     7
100
AcDbLine
 10
1472.179499387809
 20
846.7171756977059
 30
0.0
 11
1472.284172387809
 21
848.7144346977059
 31
0.0
  0
LINE
  5
6F70
330
1E
100
AcDbEntity
  8
躯体と製品
  6
DASHED1
 62
     7
100
AcDbLine
 10
1472.284172387809
 20
848.7144346977059
 30
0.0
 11
1470.286913387809
 21
848.8191076977059
 31
0.0
  0
LINE
  5
6F71
330
1E
100
AcDbEntity
  8
躯体と製品
  6
DASHED1
 62
     7
100
AcDbLine
 10
1450.131146387809
 20
846.3706216977062
 30
0.0
 11
1450.314323387809
 21
849.865825697706
 31
0.0
  0
LINE
  5
6F72
330
1E
100
AcDbEntity
  8
躯体と製品
  6
DASHED1
 62
     7
100
AcDbLine
 10
1450.314323387809
 20
849.865825697706
 30
0.0
 11
1448.212391387809
 21
847.9732396977063
 31
0.0
  0
LINE
  5
6F73
330
1E
100
AcDbEntity
  8
躯体と製品
  6
DASHED1
 62
     7
100
AcDbLine
 10
1448.212391387809
 20
847.9732396977063
 30
0.0
 11
1448.133887387809
 21
846.4752946977059
 31
0.0
  0
LINE
  5
6F74
330
1E
100
AcDbEntity
  8
躯体と製品
  6
DASHED1
 62
     7
100
AcDbLine
 10
1448.133887387809
 20
846.4752946977059
 30
0.0
 11
1479.091403387809
 21
844.8528796977059
 31
0.0
  0
LINE
  5
6F75
330
1E
100
AcDbEntity
  8
躯体と製品
  6
DASHED1
 62
     7
100
AcDbLine
 10
1470.286913387809
 20
848.8191076977059
 30
0.0
 11
1469.183612387809
 21
846.8741836977059
 31
0.0
  0
LINE
  5
6F76
330
1E
100
AcDbEntity
  8
躯体と製品
  6
DASHED1
 62
     7
100
AcDbLine
 10
1469.183612387809
 20
846.8741836977059
 30
0.0
 11
1467.186353387809
 21
846.978856697706
 31
0.0
  0
LINE
  5
6F77
330
1E
100
AcDbEntity
  8
躯体と製品
  6
DASHED1
 62
     7
100
AcDbLine
 10
1467.186353387809
 20
846.978856697706
 30
0.0
 11
1467.291023387809
 21
848.976115697706
 31
0.0
  0
LINE
  5
6F78
330
1E
100
AcDbEntity
  8
躯体と製品
  6
DASHED1
 62
     7
100
AcDbLine
 10
1467.291023387809
 20
848.976115697706
 30
0.0
 11
1465.293764387809
 21
849.080785697706
 31
0.0
  0
LINE
  5
6F79
330
1E
100
AcDbEntity
  8
躯体と製品
  6
DASHED1
 62
     7
100
AcDbLine
 10
1465.293764387809
 20
849.080785697706
 30
0.0
 11
1464.190463387809
 21
847.135864697706
 31
0.0
  0
LINE
  5
6F7A
330
1E
100
AcDbEntity
  8
躯体と製品
  6
DASHED1
 62
     7
100
AcDbLine
 10
1464.190463387809
 20
847.135864697706
 30
0.0
 11
1462.193204387809
 21
847.2405346977062
 31
0.0
  0
LINE
  5
6F7B
330
1E
100
AcDbEntity
  8
躯体と製品
  6
DASHED1
 62
     7
100
AcDbLine
 10
1462.193204387809
 20
847.2405346977062
 30
0.0
 11
1462.297877387809
 21
849.237793697706
 31
0.0
  0
LINE
  5
6F7C
330
1E
100
AcDbEntity
  8
躯体と製品
  6
DASHED1
 62
     7
100
AcDbLine
 10
1462.297877387809
 20
849.237793697706
 30
0.0
 11
1460.300618387809
 21
849.3424666977059
 31
0.0
  0
LINE
  5
6F7D
330
1E
100
AcDbEntity
  8
躯体と製品
  6
DASHED1
 62
     7
100
AcDbLine
 10
1460.300618387809
 20
849.3424666977059
 30
0.0
 11
1459.197317387809
 21
847.3975426977059
 31
0.0
  0
LINE
  5
6F7E
330
1E
100
AcDbEntity
  8
躯体と製品
  6
DASHED1
 62
     7
100
AcDbLine
 10
1459.197317387809
 20
847.3975426977059
 30
0.0
 11
1457.200058387809
 21
847.5022156977058
 31
0.0
  0
LINE
  5
6F7F
330
1E
100
AcDbEntity
  8
躯体と製品
  6
DASHED1
 62
     7
100
AcDbLine
 10
1457.304728387809
 20
849.4994746977061
 30
0.0
 11
1455.307469387809
 21
849.604147697706
 31
0.0
  0
LINE
  5
6F80
330
1E
100
AcDbEntity
  8
躯体と製品
  6
DASHED1
 62
     7
100
AcDbLine
 10
1455.307469387809
 20
849.604147697706
 30
0.0
 11
1454.204168387809
 21
847.659223697706
 31
0.0
  0
LINE
  5
6F81
330
1E
100
AcDbEntity
  8
躯体と製品
  6
DASHED1
 62
     7
100
AcDbLine
 10
1454.204168387809
 20
847.659223697706
 30
0.0
 11
1452.206909387809
 21
847.763896697706
 31
0.0
  0
LINE
  5
6F82
330
1E
100
AcDbEntity
  8
躯体と製品
  6
DASHED1
 62
     7
100
AcDbLine
 10
1452.206909387809
 20
847.763896697706
 30
0.0
 11
1452.311582387809
 21
849.761155697706
 31
0.0
  0
LINE
  5
6F83
330
1E
100
AcDbEntity
  8
躯体と製品
  6
DASHED1
 62
     7
100
AcDbLine
 10
1452.311582387809
 20
849.761155697706
 30
0.0
 11
1450.314323387809
 21
849.865825697706
 31
0.0
  0
LINE
  5
6F84
330
1E
100
AcDbEntity
  8
躯体と製品
  6
DASHED1
 62
     7
100
AcDbLine
 10
1479.091403387809
 20
843.852880697706
 30
0.0
 11
1479.091403387809
 21
844.8528796977059
 31
0.0
  0
LINE
  5
6F85
330
1E
100
AcDbEntity
  8
躯体と製品
  6
DASHED1
 62
     7
100
AcDbLine
 10
1487.091404387809
 20
839.3528806977061
 30
0.0
 11
1482.091403387809
 21
840.352879697706
 31
0.0
  0
LINE
  5
6F86
330
1E
100
AcDbEntity
  8
躯体と製品
  6
DASHED1
 62
     7
100
AcDbLine
 10
1474.176758387809
 20
842.0932546977057
 30
0.0
 11
1472.179499387809
 21
841.9885846977061
 31
0.0
  0
LINE
  5
6F87
330
1E
100
AcDbEntity
  8
躯体と製品
  6
DASHED1
 62
     7
100
AcDbLine
 10
1472.179499387809
 20
841.9885846977061
 30
0.0
 11
1472.284172387809
 21
839.9913256977058
 31
0.0
  0
LINE
  5
6F88
330
1E
100
AcDbEntity
  8
躯体と製品
  6
DASHED1
 62
     7
100
AcDbLine
 10
1472.284172387809
 20
839.9913256977058
 30
0.0
 11
1470.286913387809
 21
839.8866526977061
 31
0.0
  0
LINE
  5
6F89
330
1E
100
AcDbEntity
  8
躯体と製品
  6
DASHED1
 62
     7
100
AcDbLine
 10
1450.131146387809
 20
842.3351386977062
 30
0.0
 11
1450.314323387809
 21
838.839934697706
 31
0.0
  0
LINE
  5
6F8A
330
1E
100
AcDbEntity
  8
躯体と製品
  6
DASHED1
 62
     7
100
AcDbLine
 10
1450.314323387809
 20
838.839934697706
 30
0.0
 11
1448.212391387809
 21
840.7325206977057
 31
0.0
  0
LINE
  5
6F8B
330
1E
100
AcDbEntity
  8
躯体と製品
  6
DASHED1
 62
     7
100
AcDbLine
 10
1448.212391387809
 20
840.7325206977057
 30
0.0
 11
1448.133887387809
 21
842.2304656977059
 31
0.0
  0
LINE
  5
6F8C
330
1E
100
AcDbEntity
  8
躯体と製品
  6
DASHED1
 62
     7
100
AcDbLine
 10
1448.133887387809
 20
842.2304656977059
 30
0.0
 11
1479.091403387809
 21
843.852880697706
 31
0.0
  0
LINE
  5
6F8D
330
1E
100
AcDbEntity
  8
躯体と製品
  6
DASHED1
 62
     7
100
AcDbLine
 10
1470.286913387809
 20
839.8866526977061
 30
0.0
 11
1469.183612387809
 21
841.8315766977062
 31
0.0
  0
LINE
  5
6F8E
330
1E
100
AcDbEntity
  8
躯体と製品
  6
DASHED1
 62
     7
100
AcDbLine
 10
1469.183612387809
 20
841.8315766977062
 30
0.0
 11
1467.186353387809
 21
841.7269036977058
 31
0.0
  0
LINE
  5
6F8F
330
1E
100
AcDbEntity
  8
躯体と製品
  6
DASHED1
 62
     7
100
AcDbLine
 10
1467.186353387809
 20
841.7269036977058
 30
0.0
 11
1467.291023387809
 21
839.7296446977058
 31
0.0
  0
LINE
  5
6F90
330
1E
100
AcDbEntity
  8
躯体と製品
  6
DASHED1
 62
     7
100
AcDbLine
 10
1467.291023387809
 20
839.7296446977058
 30
0.0
 11
1465.293764387809
 21
839.6249746977058
 31
0.0
  0
LINE
  5
6F91
330
1E
100
AcDbEntity
  8
躯体と製品
  6
DASHED1
 62
     7
100
AcDbLine
 10
1465.293764387809
 20
839.6249746977058
 30
0.0
 11
1464.190463387809
 21
841.569895697706
 31
0.0
  0
LINE
  5
6F92
330
1E
100
AcDbEntity
  8
躯体と製品
  6
DASHED1
 62
     7
100
AcDbLine
 10
1464.190463387809
 20
841.569895697706
 30
0.0
 11
1462.193204387809
 21
841.4652256977058
 31
0.0
  0
LINE
  5
6F93
330
1E
100
AcDbEntity
  8
躯体と製品
  6
DASHED1
 62
     7
100
AcDbLine
 10
1462.193204387809
 20
841.4652256977058
 30
0.0
 11
1462.297877387809
 21
839.467966697706
 31
0.0
  0
LINE
  5
6F94
330
1E
100
AcDbEntity
  8
躯体と製品
  6
DASHED1
 62
     7
100
AcDbLine
 10
1462.297877387809
 20
839.467966697706
 30
0.0
 11
1460.300618387809
 21
839.3632936977057
 31
0.0
  0
LINE
  5
6F95
330
1E
100
AcDbEntity
  8
躯体と製品
  6
DASHED1
 62
     7
100
AcDbLine
 10
1460.300618387809
 20
839.3632936977057
 30
0.0
 11
1459.197317387809
 21
841.3082176977059
 31
0.0
  0
LINE
  5
6F96
330
1E
100
AcDbEntity
  8
躯体と製品
  6
DASHED1
 62
     7
100
AcDbLine
 10
1459.197317387809
 20
841.3082176977059
 30
0.0
 11
1457.200058387809
 21
841.2035446977059
 31
0.0
  0
LINE
  5
6F97
330
1E
100
AcDbEntity
  8
躯体と製品
  6
DASHED1
 62
     7
100
AcDbLine
 10
1457.200058387809
 20
841.2035446977059
 30
0.0
 11
1457.304728387809
 21
839.2062856977059
 31
0.0
  0
LINE
  5
6F98
330
1E
100
AcDbEntity
  8
躯体と製品
  6
DASHED1
 62
     7
100
AcDbLine
 10
1457.304728387809
 20
839.2062856977059
 30
0.0
 11
1455.307469387809
 21
839.101612697706
 31
0.0
  0
LINE
  5
6F99
330
1E
100
AcDbEntity
  8
躯体と製品
  6
DASHED1
 62
     7
100
AcDbLine
 10
1455.307469387809
 20
839.101612697706
 30
0.0
 11
1454.204168387809
 21
841.046536697706
 31
0.0
  0
LINE
  5
6F9A
330
1E
100
AcDbEntity
  8
躯体と製品
  6
DASHED1
 62
     7
100
AcDbLine
 10
1454.204168387809
 20
841.046536697706
 30
0.0
 11
1452.206909387809
 21
840.9418636977061
 31
0.0
  0
LINE
  5
6F9B
330
1E
100
AcDbEntity
  8
躯体と製品
  6
DASHED1
 62
     7
100
AcDbLine
 10
1452.206909387809
 20
840.9418636977061
 30
0.0
 11
1452.311582387809
 21
838.9446046977059
 31
0.0
  0
LINE
  5
6F9C
330
1E
100
AcDbEntity
  8
躯体と製品
  6
DASHED1
 62
     7
100
AcDbLine
 10
1452.311582387809
 20
838.9446046977059
 30
0.0
 11
1450.314323387809
 21
838.839934697706
 31
0.0
  0
LINE
  5
6F9D
330
1E
100
AcDbEntity
  8
躯体と製品
  6
DASHED1
 62
     7
100
AcDbLine
 10
1452.960848387809
 20
842.4834346977059
 30
0.0
 11
1451.091404387809
 21
844.3528816977059
 31
0.0
  0
LINE
  5
6F9E
330
1E
100
AcDbEntity
  8
躯体と製品
  6
DASHED1
 62
     7
100
AcDbLine
 10
1478.895044387809
 20
850.6752196977059
 30
0.0
 11
1472.291024387809
 21
849.7317886977059
 31
0.0
  0
LINE
  5
6F9F
330
1E
100
AcDbEntity
  8
躯体と製品
  6
DASHED1
 62
     7
100
AcDbLine
 10
1467.291023387809
 20
839.7296446977058
 30
0.0
 11
1471.949003387809
 21
838.034278697706
 31
0.0
  0
LINE
  5
6FA0
330
1E
100
AcDbEntity
  8
躯体と製品
  6
DASHED1
 62
     7
100
AcDbLine
 10
1475.091404387809
 20
848.352880697706
 30
0.0
 11
1487.091404387809
 21
848.352880697706
 31
0.0
  0
LINE
  5
6FA1
330
1E
100
AcDbEntity
  8
躯体と製品
  6
DASHED1
 62
     7
100
AcDbLine
 10
1457.200058387809
 20
847.5022156977058
 30
0.0
 11
1457.304728387809
 21
849.4994746977061
 31
0.0
  0
ARC
  5
6FA2
330
1E
100
AcDbEntity
  8
躯体と製品
  6
Continuous
 62
     7
100
AcDbCircle
 10
1516.638226694856
 20
855.3692259897143
 30
0.0
 40
0.5
100
AcDbArc
 50
268.0950670994443
 51
358.0950670957424
  0
ARC
  5
6FA3
330
1E
100
AcDbEntity
  8
躯体と製品
  6
Continuous
 62
     7
100
AcDbCircle
 10
1517.654294665699
 20
855.8357084422926
 30
0.0
 40
0.4999999999354556
100
AcDbArc
 50
358.0950670994413
 51
178.0950670994412
  0
LINE
  5
6FA4
330
1E
100
AcDbEntity
  8
躯体と製品
  6
Continuous
 62
     7
100
AcDbLine
 10
1518.120777118274
 20
854.8196404713534
 30
0.0
 11
1518.154018344629
 21
855.8190878291464
 31
0.0
  0
ARC
  5
6FA5
330
1E
100
AcDbEntity
  8
躯体と製品
  6
Continuous
 62
     7
100
AcDbCircle
 10
1517.121329760545
 20
854.8528816977059
 30
0.0
 40
1.0
100
AcDbArc
 50
268.0950670994443
 51
358.0950670957424
  0
LINE
  5
6FA6
330
1E
100
AcDbEntity
  8
躯体と製品
  6
Continuous
 62
     7
100
AcDbLine
 10
1517.137950373721
 20
855.3526053765379
 30
0.0
 11
1517.154570986898
 21
855.8523290554344
 31
0.0
  0
LINE
  5
6FA7
330
1E
100
AcDbEntity
  8
躯体と製品
  6
Continuous
 62
     7
100
AcDbLine
 10
1511.124645614097
 20
855.0523290554368
 30
0.0
 11
1516.621606081712
 21
854.8695023108489
 31
0.0
  0
ARC
  5
6FA8
330
1E
100
AcDbEntity
  8
躯体と製品
  6
Continuous
 62
     7
100
AcDbCircle
 10
1511.091404387809
 20
854.052881697706
 30
0.0
 40
1.0
100
AcDbArc
 50
88.09506709944431
 51
180.0
  0
LINE
  5
6FA9
330
1E
100
AcDbEntity
  8
躯体と製品
  6
Continuous
 62
     7
100
AcDbLine
 10
1511.401376755695
 20
854.042572138584
 30
0.0
 11
1517.088088534257
 21
853.8534343399751
 31
0.0
  0
ARC
  5
6FAA
330
1E
100
AcDbEntity
  8
躯体と製品
  6
Continuous
 62
     7
100
AcDbCircle
 10
1511.391404387809
 20
853.7427379312644
 30
0.0
 40
0.2999999999999999
100
AcDbArc
 50
88.09506709944431
 51
180.0
  0
LINE
  5
6FAB
330
1E
100
AcDbEntity
  8
躯体と製品
  6
Continuous
 62
     7
100
AcDbLine
 10
1510.091404387809
 20
854.052881697706
 30
0.0
 11
1510.091404387809
 21
852.3528816977059
 31
0.0
  0
LINE
  5
6FAC
330
1E
100
AcDbEntity
  8
躯体と製品
  6
Continuous
 62
     7
100
AcDbLine
 10
1511.091404387809
 20
853.7427379312644
 30
0.0
 11
1511.091404387809
 21
852.6528816977059
 31
0.0
  0
LINE
  5
6FAD
330
1E
100
AcDbEntity
  8
躯体と製品
  6
Continuous
 62
     4
100
AcDbLine
 10
1534.260319993768
 20
842.5548439553288
 30
0.0
 11
1532.900551177412
 21
843.9146127716842
 31
0.0
  0
LINE
  5
6FAE
330
1E
100
AcDbEntity
  8
躯体と製品
  6
Continuous
 62
     4
100
AcDbLine
 10
1533.229824097149
 20
842.171126289574
 30
0.0
 11
1531.408122755719
 21
843.9928276310038
 31
0.0
  0
LINE
  5
6FAF
330
1E
100
AcDbEntity
  8
躯体と製品
  6
Continuous
 62
     4
100
AcDbLine
 10
1531.737395675458
 20
842.2493411488938
 30
0.0
 11
1529.915694334028
 21
844.0710424903238
 31
0.0
  0
LINE
  5
6FB0
330
1E
100
AcDbEntity
  8
躯体と製品
  6
Continuous
 62
     4
100
AcDbLine
 10
1530.244967253764
 20
842.3275560082133
 30
0.0
 11
1528.423265912335
 21
844.1492573496436
 31
0.0
  0
LINE
  5
6FB1
330
1E
100
AcDbEntity
  8
躯体と製品
  6
Continuous
 62
     4
100
AcDbLine
 10
1528.752538832071
 20
842.4057708675334
 30
0.0
 11
1526.930837490641
 21
844.2274722089633
 31
0.0
  0
LINE
  5
6FB2
330
1E
100
AcDbEntity
  8
躯体と製品
  6
Continuous
 62
     4
100
AcDbLine
 10
1527.260110410378
 20
842.4839857268532
 30
0.0
 11
1525.438409068948
 21
844.3056870682832
 31
0.0
  0
LINE
  5
6FB3
330
1E
100
AcDbEntity
  8
躯体と製品
  6
Continuous
 62
     4
100
AcDbLine
 10
1525.767681988685
 20
842.5622005861729
 30
0.0
 11
1523.945980647255
 21
844.3839019276028
 31
0.0
  0
LINE
  5
6FB4
330
1E
100
AcDbEntity
  8
躯体と製品
  6
Continuous
 62
     4
100
AcDbLine
 10
1524.275253566992
 20
842.6404154454926
 30
0.0
 11
1522.453552225562
 21
844.4621167869227
 31
0.0
  0
LINE
  5
6FB5
330
1E
100
AcDbEntity
  8
躯体と製品
  6
Continuous
 62
     4
100
AcDbLine
 10
1522.782825145299
 20
842.7186303048127
 30
0.0
 11
1520.961123803869
 21
844.5403316462426
 31
0.0
  0
LINE
  5
6FB6
330
1E
100
AcDbEntity
  8
躯体と製品
  6
Continuous
 62
     4
100
AcDbLine
 10
1521.290396723605
 20
842.796845164133
 30
0.0
 11
1519.468695382176
 21
844.6185465055624
 31
0.0
  0
LINE
  5
6FB7
330
1E
100
AcDbEntity
  8
躯体と製品
  6
Continuous
 62
     7
100
AcDbLine
 10
1534.23744270263
 20
842.1183192360961
 30
0.0
 11
1534.327662788228
 21
843.8398210213723
 31
0.0
  0
LINE
  5
6FB8
330
1E
100
AcDbEntity
  8
躯体と製品
  6
Continuous
 62
     7
100
AcDbLine
 10
1519.257999681312
 20
842.9033585797403
 30
0.0
 11
1519.34821976691
 21
844.6248603650163
 31
0.0
  0
LINE
  5
6FB9
330
1E
100
AcDbEntity
  8
躯体と製品
  6
Continuous
 62
     4
100
AcDbLine
 10
1858.814918789005
 20
825.5456581763722
 30
0.0
 11
1857.455149972649
 21
826.9054269927275
 31
0.0
  0
LINE
  5
6FBA
330
1E
100
AcDbEntity
  8
躯体と製品
  6
Continuous
 62
     4
100
AcDbLine
 10
1857.784422892386
 20
825.1619405106175
 30
0.0
 11
1855.962721550956
 21
826.9836418520474
 31
0.0
  0
LINE
  5
6FBB
330
1E
100
AcDbEntity
  8
躯体と製品
  6
Continuous
 62
     4
100
AcDbLine
 10
1856.291994470695
 20
825.2401553699373
 30
0.0
 11
1854.470293129265
 21
827.061856711367
 31
0.0
  0
LINE
  5
6FBC
330
1E
100
AcDbEntity
  8
躯体と製品
  6
Continuous
 62
     4
100
AcDbLine
 10
1854.799566049002
 20
825.3183702292567
 30
0.0
 11
1852.977864707572
 21
827.1400715706867
 31
0.0
  0
LINE
  5
6FBD
330
1E
100
AcDbEntity
  8
躯体と製品
  6
Continuous
 62
     4
100
AcDbLine
 10
1853.307137627308
 20
825.3965850885768
 30
0.0
 11
1851.485436285878
 21
827.2182864300066
 31
0.0
  0
LINE
  5
6FBE
330
1E
100
AcDbEntity
  8
躯体と製品
  6
Continuous
 62
     4
100
AcDbLine
 10
1851.814709205616
 20
825.4747999478965
 30
0.0
 11
1849.993007864186
 21
827.2965012893266
 31
0.0
  0
LINE
  5
6FBF
330
1E
100
AcDbEntity
  8
躯体と製品
  6
Continuous
 62
     4
100
AcDbLine
 10
1850.322280783922
 20
825.5530148072162
 30
0.0
 11
1848.500579442492
 21
827.3747161486465
 31
0.0
  0
LINE
  5
6FC0
330
1E
100
AcDbEntity
  8
躯体と製品
  6
Continuous
 62
     4
100
AcDbLine
 10
1848.82985236223
 20
825.6312296665358
 30
0.0
 11
1847.008151020799
 21
827.4529310079662
 31
0.0
  0
LINE
  5
6FC1
330
1E
100
AcDbEntity
  8
躯体と製品
  6
Continuous
 62
     4
100
AcDbLine
 10
1847.337423940536
 20
825.7094445258562
 30
0.0
 11
1845.515722599106
 21
827.5311458672861
 31
0.0
  0
LINE
  5
6FC2
330
1E
100
AcDbEntity
  8
躯体と製品
  6
Continuous
 62
     4
100
AcDbLine
 10
1845.844995518842
 20
825.7876593851763
 30
0.0
 11
1844.023294177413
 21
827.6093607266057
 31
0.0
  0
LINE
  5
6FC3
330
1E
100
AcDbEntity
  8
躯体と製品
  6
Continuous
 62
     7
100
AcDbLine
 10
1858.792041497867
 20
825.1091334571395
 30
0.0
 11
1858.882261583465
 21
826.8306352424154
 31
0.0
  0
LINE
  5
6FC4
330
1E
100
AcDbEntity
  8
躯体と製品
  6
Continuous
 62
     7
100
AcDbLine
 10
1843.812598476549
 20
825.8941728007837
 30
0.0
 11
1843.902818562147
 21
827.6156745860594
 31
0.0
  0
ARC
  5
6FC5
330
1E
100
AcDbEntity
  8
躯体と製品
  6
Continuous
 62
     3
100
AcDbCircle
 10
1885.091404387809
 20
824.4556999251297
 30
0.0
 40
1.0
100
AcDbArc
 50
0.0
 51
86.99999999999441
  0
LINE
  5
6FC6
330
1E
100
AcDbEntity
  8
躯体と製品
  6
Continuous
 62
     3
100
AcDbLine
 10
1503.93439651908
 20
845.4326646116964
 30
0.0
 11
1885.143740344052
 21
825.4543294598844
 31
0.0
  0
POINT
  5
6FC7
330
1E
100
AcDbEntity
  8
躯体と製品
 62
     4
100
AcDbPoint
 10
1888.091404387809
 20
737.3025936252745
 30
0.0
  0
POINT
  5
6FC8
330
1E
100
AcDbEntity
  8
躯体と製品
 62
     4
100
AcDbPoint
 10
1888.091404387809
 20
827.3025936252746
 30
0.0
  0
LINE
  5
6FC9
330
1E
100
AcDbEntity
  8
躯体と製品
  6
Continuous
 62
     3
100
AcDbLine
 10
1888.091404387809
 20
824.4556999251297
 30
0.0
 11
1888.091404387809
 21
740.3025936252746
 31
0.0
  0
LINE
  5
6FCA
330
1E
100
AcDbEntity
  8
躯体と製品
  6
Continuous
 62
     3
100
AcDbLine
 10
1878.091404387809
 20
737.3025936252745
 30
0.0
 11
1878.091404387809
 21
739.3025936252745
 31
0.0
  0
ARC
  5
6FCB
330
1E
100
AcDbEntity
  8
躯体と製品
  6
Continuous
 62
     3
100
AcDbCircle
 10
1885.091404387809
 20
740.3025936252746
 30
0.0
 40
1.0
100
AcDbArc
 50
270.0
 51
0.0
  0
LINE
  5
6FCC
330
1E
100
AcDbEntity
  8
躯体と製品
  6
Continuous
 62
     3
100
AcDbLine
 10
1885.091404387809
 20
739.3025936252745
 30
0.0
 11
1878.091404387809
 21
739.3025936252745
 31
0.0
  0
LINE
  5
6FCD
330
1E
100
AcDbEntity
  8
躯体と製品
  6
Continuous
 62
     3
100
AcDbLine
 10
1886.091404387809
 20
740.3025936252746
 30
0.0
 11
1886.091404387809
 21
824.4556999251297
 31
0.0
  0
ARC
  5
6FCE
330
1E
100
AcDbEntity
  8
躯体と製品
  6
Continuous
 62
     3
100
AcDbCircle
 10
1885.091404387809
 20
740.3025936252746
 30
0.0
 40
3.0
100
AcDbArc
 50
270.0
 51
0.0
  0
ARC
  5
6FCF
330
1E
100
AcDbEntity
  8
躯体と製品
  6
Continuous
 62
     3
100
AcDbCircle
 10
1885.091404387809
 20
824.4556999251297
 30
0.0
 40
3.0
100
AcDbArc
 50
0.0
 51
86.99999999999441
  0
LINE
  5
6FD0
330
1E
100
AcDbEntity
  8
躯体と製品
  6
Continuous
 62
     3
100
AcDbLine
 10
1885.091404387809
 20
737.3025936252745
 30
0.0
 11
1878.091404387809
 21
737.3025936252745
 31
0.0
  0
ARC
  5
6FD1
330
1E
100
AcDbEntity
  8
躯体と製品
  6
Continuous
 62
     3
100
AcDbCircle
 10
1504.091404387809
 20
848.4285532159601
 30
0.0
 40
1.0
100
AcDbArc
 50
180.0
 51
266.9999999999944
  0
LINE
  5
6FD2
330
1E
100
AcDbEntity
  8
躯体と製品
  6
Continuous
 62
     3
100
AcDbLine
 10
1503.091404387809
 20
848.4285532159601
 30
0.0
 11
1503.091404387809
 21
859.4795886492454
 31
0.0
  0
ARC
  5
6FD3
330
1E
100
AcDbEntity
  8
躯体と製品
  6
Continuous
 62
     3
100
AcDbCircle
 10
1504.091404387809
 20
848.4285532159601
 30
0.0
 40
3.0
100
AcDbArc
 50
180.0
 51
266.9999999999944
  0
LINE
  5
6FD4
330
1E
100
AcDbEntity
  8
躯体と製品
  6
Continuous
 62
     3
100
AcDbLine
 10
1501.091404387809
 20
848.4285532159601
 30
0.0
 11
1501.091404387809
 21
859.4795886492454
 31
0.0
  0
LINE
  5
6FD5
330
1E
100
AcDbEntity
  8
躯体と製品
  6
Continuous
 62
     3
100
AcDbLine
 10
1501.091404387809
 20
859.4795886492454
 30
0.0
 11
1503.091404387809
 21
859.4795886492454
 31
0.0
  0
LINE
  5
6FD6
330
1E
100
AcDbEntity
  8
躯体と製品
  6
Continuous
 62
     3
100
AcDbLine
 10
1504.039068431566
 20
847.4299236812058
 30
0.0
 11
1885.248412256538
 21
827.4515885293935
 31
0.0
  0
LINE
  5
6FD7
330
1E
100
AcDbEntity
  8
躯体と製品
  6
DASHED1
 62
     4
100
AcDbLine
 10
1822.688616744112
 20
804.9710421610416
 30
0.0
 11
1822.782821465349
 21
806.7685753235998
 31
0.0
  0
LINE
  5
6FD8
330
1E
100
AcDbEntity
  8
躯体と製品
  6
DASHED1
 62
     4
100
AcDbLine
 10
1642.935300488289
 20
814.3915142847717
 30
0.0
 11
1643.029505209526
 21
816.1890474473297
 31
0.0
  0
LINE
  5
6FD9
330
1E
100
AcDbEntity
  8
躯体と製品
  6
DASHED1
 62
     4
100
AcDbLine
 10
1843.734094542184
 20
824.3962284986517
 30
0.0
 11
1534.158938768265
 21
840.6203749339645
 31
0.0
  0
LINE
  5
6FDA
330
1E
100
AcDbEntity
  8
躯体と製品
  6
Continuous
 62
     3
100
AcDbLine
 10
1858.478025760409
 20
819.1173562486119
 30
0.0
 11
1518.943983943854
 21
836.9115813712129
 31
0.0
  0
LINE
  5
6FDB
330
1E
100
AcDbEntity
  8
躯体と製品
  6
Continuous
 62
     3
100
AcDbLine
 10
1858.556529694774
 20
820.6153005507442
 30
0.0
 11
1519.022487878219
 21
838.409525673345
 31
0.0
  0
LINE
  5
6FDC
330
1E
100
AcDbEntity
  8
躯体と製品
  6
DASHED1
 62
     4
100
AcDbLine
 10
1857.378970679307
 20
798.1461360187659
 30
0.0
 11
1517.844928862752
 21
815.940361141367
 31
0.0
  0
LINE
  5
6FDD
330
1E
100
AcDbEntity
  8
躯体と製品
  6
DASHED1
 62
     4
100
AcDbLine
 10
1857.457474613672
 20
799.6440803208978
 30
0.0
 11
1517.923432797117
 21
817.4383054434986
 31
0.0
  0
LINE
  5
6FDE
330
1E
100
AcDbEntity
  8
躯体と製品
  6
DASHED1
 62
     4
100
AcDbLine
 10
1857.640650460522
 20
803.1392836925386
 30
0.0
 11
1518.106608643967
 21
820.93350881514
 31
0.0
  0
LINE
  5
6FDF
330
1E
100
AcDbEntity
  8
躯体と製品
  6
DASHED1
 62
     4
100
AcDbLine
 10
1857.73485518176
 20
804.9368168550968
 30
0.0
 11
1518.200813365204
 21
822.7310419776982
 31
0.0
  0
LINE
  5
6FE0
330
1E
100
AcDbEntity
  8
躯体と製品
  6
Continuous
 62
     3
100
AcDbLine
 10
1857.326634723064
 20
797.1475064840115
 30
0.0
 11
1517.792592906509
 21
814.9417316066122
 31
0.0
  0
LINE
  5
6FE1
330
1E
100
AcDbEntity
  8
躯体と製品
  6
Continuous
 62
     3
100
AcDbLine
 10
1858.792041497867
 20
825.1091334571395
 30
0.0
 11
1519.257999681312
 21
842.9033585797403
 31
0.0
  0
LINE
  5
6FE2
330
1E
100
AcDbEntity
  8
躯体と製品
  6
Continuous
 62
     4
100
AcDbLine
 10
1858.649831961567
 20
822.3956138566947
 30
0.0
 11
1856.306749921745
 21
824.7386958965162
 31
0.0
  0
LINE
  5
6FE3
330
1E
100
AcDbEntity
  8
躯体と製品
  6
Continuous
 62
     4
100
AcDbLine
 10
1858.720256937222
 20
823.7394024434122
 30
0.0
 11
1857.799178343438
 21
824.6604810371961
 31
0.0
  0
LINE
  5
6FE4
330
1E
100
AcDbEntity
  8
躯体と製品
  6
Continuous
 62
     4
100
AcDbLine
 10
1858.579406985911
 20
821.0518252699767
 30
0.0
 11
1854.814321500052
 21
824.8169107558357
 31
0.0
  0
LINE
  5
6FE5
330
1E
100
AcDbEntity
  8
躯体と製品
  6
Continuous
 62
     4
100
AcDbLine
 10
1857.548911089293
 20
820.6681076042222
 30
0.0
 11
1853.321893078359
 21
824.8951256151556
 31
0.0
  0
LINE
  5
6FE6
330
1E
100
AcDbEntity
  8
躯体と製品
  6
Continuous
 62
     4
100
AcDbLine
 10
1856.056482667601
 20
820.7463224635418
 30
0.0
 11
1851.829464656668
 21
824.9733404744755
 31
0.0
  0
LINE
  5
6FE7
330
1E
100
AcDbEntity
  8
躯体と製品
  6
Continuous
 62
     4
100
AcDbLine
 10
1854.564054245908
 20
820.8245373228615
 30
0.0
 11
1850.337036234975
 21
825.0515553337953
 31
0.0
  0
LINE
  5
6FE8
330
1E
100
AcDbEntity
  8
躯体と製品
  6
Continuous
 62
     4
100
AcDbLine
 10
1853.071625824215
 20
820.9027521821813
 30
0.0
 11
1848.844607813282
 21
825.1297701931148
 31
0.0
  0
LINE
  5
6FE9
330
1E
100
AcDbEntity
  8
躯体と製品
  6
Continuous
 62
     4
100
AcDbLine
 10
1851.579197402522
 20
820.9809670415008
 30
0.0
 11
1847.352179391588
 21
825.2079850524349
 31
0.0
  0
LINE
  5
6FEA
330
1E
100
AcDbEntity
  8
躯体と製品
  6
Continuous
 62
     4
100
AcDbLine
 10
1850.086768980829
 20
821.0591819008207
 30
0.0
 11
1845.859750969895
 21
825.2861999117547
 31
0.0
  0
LINE
  5
6FEB
330
1E
100
AcDbEntity
  8
躯体と製品
  6
Continuous
 62
     4
100
AcDbLine
 10
1848.594340559136
 20
821.1373967601403
 30
0.0
 11
1844.367322548202
 21
825.3644147710744
 31
0.0
  0
LINE
  5
6FEC
330
1E
100
AcDbEntity
  8
躯体と製品
  6
Continuous
 62
     4
100
AcDbLine
 10
1847.101912137443
 20
821.2156116194606
 30
0.0
 11
1843.743416759297
 21
824.5741069976068
 31
0.0
  0
LINE
  5
6FED
330
1E
100
AcDbEntity
  8
躯体と製品
  6
Continuous
 62
     4
100
AcDbLine
 10
1845.609483715749
 20
821.2938264787808
 30
0.0
 11
1843.672991783641
 21
823.2303184108891
 31
0.0
  0
LINE
  5
6FEE
330
1E
100
AcDbEntity
  8
躯体と製品
  6
Continuous
 62
     7
100
AcDbLine
 10
1843.577086673455
 20
821.400339894388
 30
0.0
 11
1843.786430498427
 21
825.3948580334064
 31
0.0
  0
LINE
  5
6FEF
330
1E
100
AcDbEntity
  8
躯体と製品
  6
Continuous
 62
     7
100
AcDbLine
 10
1858.765873519746
 20
824.6098186897622
 30
0.0
 11
1843.786430498427
 21
825.3948580334064
 31
0.0
  0
LINE
  5
6FF0
330
1E
100
AcDbEntity
  8
躯体と製品
  6
Continuous
 62
     4
100
AcDbLine
 10
1844.117055294058
 20
821.3720413381
 30
0.0
 11
1843.602566807985
 21
821.886529824173
 31
0.0
  0
ARC
  5
6FF1
330
1E
100
AcDbEntity
  8
躯体と製品
  6
Continuous
 62
     3
100
AcDbCircle
 10
1867.592258639709
 20
795.8643292364406
 30
0.0
 40
0.5999999999999984
100
AcDbArc
 50
166.9999999999997
 51
346.9999999999997
  0
ARC
  5
6FF2
330
1E
100
AcDbEntity
  8
躯体と製品
  6
Continuous
 62
     3
100
AcDbCircle
 10
1867.103644111365
 20
798.6378598259371
 30
0.0
 40
0.5
100
AcDbArc
 50
346.9999999999997
 51
86.99999999999441
  0
ARC
  5
6FF3
330
1E
100
AcDbEntity
  8
躯体と製品
  6
Continuous
 62
     3
100
AcDbCircle
 10
1869.177398378765
 20
798.7294534392034
 30
0.0
 40
0.2999999999999999
100
AcDbArc
 50
86.99999999999441
 51
166.9999999999997
  0
ARC
  5
6FF4
330
1E
100
AcDbEntity
  8
躯体と製品
  6
Continuous
 62
     3
100
AcDbCircle
 10
1871.859639618215
 20
750.7025936252746
 30
0.0
 40
0.6000000000000015
100
AcDbArc
 50
90.0
 51
270.0
  0
LINE
  5
6FF5
330
1E
100
AcDbEntity
  8
躯体と製品
  6
Continuous
 62
     3
100
AcDbLine
 10
1883.02711389617
 20
742.9872809194774
 30
0.0
 11
1883.02711389617
 21
739.3025936252745
 31
0.0
  0
LINE
  5
6FF6
330
1E
100
AcDbEntity
  8
躯体と製品
  6
Continuous
 62
     3
100
AcDbLine
 10
1886.02711389617
 20
741.8025936252745
 30
0.0
 11
1886.02711389617
 21
743.3025936252745
 31
0.0
  0
LINE
  5
6FF7
330
1E
100
AcDbEntity
  8
躯体と製品
  6
Continuous
 62
     3
100
AcDbLine
 10
1883.52711389617
 20
739.3025936252745
 30
0.0
 11
1883.02711389617
 21
739.3025936252745
 31
0.0
  0
ARC
  5
6FF8
330
1E
100
AcDbEntity
  8
躯体と製品
  6
Continuous
 62
     3
100
AcDbCircle
 10
1883.52711389617
 20
741.8025936252745
 30
0.0
 40
2.5
100
AcDbArc
 50
270.0
 51
0.0
  0
LINE
  5
6FF9
330
1E
100
AcDbEntity
  8
躯体と製品
  6
Continuous
 62
     3
100
AcDbLine
 10
1876.259639618215
 20
751.3025936252745
 30
0.0
 11
1876.259639618215
 21
752.3025936252745
 31
0.0
  0
LINE
  5
6FFA
330
1E
100
AcDbEntity
  8
躯体と製品
  6
Continuous
 62
     3
100
AcDbLine
 10
1876.259639618215
 20
752.3025936252745
 30
0.0
 11
1874.259639618215
 21
751.3025936252745
 31
0.0
  0
LINE
  5
6FFB
330
1E
100
AcDbEntity
  8
躯体と製品
  6
Continuous
 62
     3
100
AcDbLine
 10
1871.859639618215
 20
751.3025936252745
 30
0.0
 11
1874.259639618215
 21
751.3025936252745
 31
0.0
  0
ARC
  5
6FFC
330
1E
100
AcDbEntity
  8
躯体と製品
  6
Continuous
 62
     3
100
AcDbCircle
 10
1880.642191039947
 20
751.8025936252745
 30
0.0
 40
0.5
100
AcDbArc
 50
270.0
 51
11.99999999999979
  0
LINE
  5
6FFD
330
1E
100
AcDbEntity
  8
躯体と製品
  6
Continuous
 62
     3
100
AcDbLine
 10
1881.109815475621
 20
750.1025936252744
 30
0.0
 11
1871.859639618215
 21
750.1025936252744
 31
0.0
  0
LINE
  5
6FFE
330
1E
100
AcDbEntity
  8
躯体と製品
  6
Continuous
 62
     3
100
AcDbLine
 10
1881.598889275988
 20
749.7065494706832
 30
0.0
 11
1883.02711389617
 21
742.9872809194774
 31
0.0
  0
ARC
  5
6FFF
330
1E
100
AcDbEntity
  8
躯体と製品
  6
Continuous
 62
     3
100
AcDbCircle
 10
1881.109815475621
 20
749.6025936252745
 30
0.0
 40
0.5
100
AcDbArc
 50
11.99999999999979
 51
90.0
  0
ARC
  5
7000
330
1E
100
AcDbEntity
  8
躯体と製品
  6
Continuous
 62
     3
100
AcDbCircle
 10
1857.878285446685
 20
798.1199680406446
 30
0.0
 40
0.5
100
AcDbArc
 50
177.0000000000011
 51
266.9999999999944
  0
LINE
  5
7001
330
1E
100
AcDbEntity
  8
躯体と製品
  6
Continuous
 62
     3
100
AcDbLine
 10
1858.35143223594
 20
797.5944852951458
 30
0.0
 11
1857.852117468563
 21
797.6206532732669
 31
0.0
  0
ARC
  5
7002
330
1E
100
AcDbEntity
  8
躯体と製品
  6
Continuous
 62
     3
100
AcDbCircle
 10
1858.377600214062
 20
798.0938000625228
 30
0.0
 40
0.5
100
AcDbArc
 50
266.9999999999944
 51
357.0000000000011
  0
ARC
  5
7003
330
1E
100
AcDbEntity
  8
躯体と製品
  6
Continuous
 62
     3
100
AcDbCircle
 10
1870.318109641462
 20
797.9687106529238
 30
0.0
 40
1.0
100
AcDbArc
 50
11.99999999999979
 51
86.99999999999441
  0
ARC
  5
7004
330
1E
100
AcDbEntity
  8
躯体と製品
  6
Continuous
 62
     3
100
AcDbCircle
 10
1871.136720990715
 20
798.9271813960115
 30
0.0
 40
3.0
100
AcDbArc
 50
11.99999999999979
 51
86.99999999999441
  0
ARC
  5
7005
330
1E
100
AcDbEntity
  8
躯体と製品
  6
Continuous
 62
     3
100
AcDbCircle
 10
1858.244637140385
 20
805.1103747839263
 30
0.0
 40
0.5
100
AcDbArc
 50
86.99999999999441
 51
177.0000000000011
  0
LINE
  5
7006
330
1E
100
AcDbEntity
  8
躯体と製品
  6
Continuous
 62
     3
100
AcDbLine
 10
1858.770119885884
 20
805.5835215731825
 30
0.0
 11
1858.270805118507
 21
805.6096895513039
 31
0.0
  0
ARC
  5
7007
330
1E
100
AcDbEntity
  8
躯体と製品
  6
Continuous
 62
     3
100
AcDbCircle
 10
1858.743951907763
 20
805.0842068058051
 30
0.0
 40
0.5
100
AcDbArc
 50
357.0000000000011
 51
86.99999999999441
  0
LINE
  5
7008
330
1E
100
AcDbEntity
  8
躯体と製品
  6
Continuous
 62
     3
100
AcDbLine
 10
1874.071163792916
 20
799.5509164684647
 30
0.0
 11
1886.02711389617
 21
743.3025936252745
 31
0.0
  0
LINE
  5
7009
330
1E
100
AcDbEntity
  8
躯体と製品
  6
Continuous
 62
     3
100
AcDbLine
 10
1871.296257242196
 20
798.1766223437414
 30
0.0
 11
1881.131264840314
 21
751.9065494706833
 31
0.0
  0
LINE
  5
700A
330
1E
100
AcDbEntity
  8
躯体と製品
  6
Continuous
 62
     3
100
AcDbLine
 10
1880.642191039947
 20
751.3025936252745
 30
0.0
 11
1876.259639618215
 21
751.3025936252745
 31
0.0
  0
LINE
  5
700B
330
1E
100
AcDbEntity
  8
躯体と製品
  6
Continuous
 62
     3
100
AcDbLine
 10
1859.138594762654
 20
803.0607797581742
 30
0.0
 11
1859.24326667514
 21
805.0580388276834
 31
0.0
  0
LINE
  5
700C
330
1E
100
AcDbEntity
  8
躯体と製品
  6
Continuous
 62
     3
100
AcDbLine
 10
1859.61174155191
 20
802.5352970126755
 30
0.0
 11
1871.293728859444
 21
801.9230700002751
 31
0.0
  0
ARC
  5
700D
330
1E
100
AcDbEntity
  8
躯体と製品
  6
Continuous
 62
     3
100
AcDbCircle
 10
1859.637909530031
 20
803.0346117800529
 30
0.0
 40
0.5
100
AcDbArc
 50
177.0000000000011
 51
266.9999999999944
  0
LINE
  5
700E
330
1E
100
AcDbEntity
  8
躯体と製品
  6
Continuous
 62
     3
100
AcDbLine
 10
1858.929250937682
 20
799.0662616191562
 30
0.0
 11
1858.876914981439
 21
798.0676320844017
 31
0.0
  0
ARC
  5
700F
330
1E
100
AcDbEntity
  8
躯体と製品
  6
Continuous
 62
     3
100
AcDbCircle
 10
1859.428565705059
 20
799.0400936410346
 30
0.0
 40
0.5
100
AcDbArc
 50
86.99999999999441
 51
177.0000000000011
  0
LINE
  5
7010
330
1E
100
AcDbEntity
  8
躯体と製品
  6
Continuous
 62
     3
100
AcDbLine
 10
1868.885087359329
 20
798.7969387555066
 30
0.0
 11
1868.17688067858
 21
795.7293586038343
 31
0.0
  0
LINE
  5
7011
330
1E
100
AcDbEntity
  8
躯体と製品
  6
Continuous
 62
     3
100
AcDbLine
 10
1870.370445597705
 20
798.9673401876784
 30
0.0
 11
1869.193099165638
 21
799.0290422996296
 31
0.0
  0
LINE
  5
7012
330
1E
100
AcDbEntity
  8
躯体と製品
  6
Continuous
 62
     3
100
AcDbLine
 10
1859.454733683181
 20
799.5394084084119
 30
0.0
 11
1867.129812089487
 21
799.1371745933142
 31
0.0
  0
LINE
  5
7013
330
1E
100
AcDbEntity
  8
躯体と製品
  6
Continuous
 62
     3
100
AcDbLine
 10
1867.590829143757
 20
798.5253842987652
 30
0.0
 11
1867.007636600838
 21
795.9992998690466
 31
0.0
  0
LINE
  5
7014
330
1E
100
AcDbEntity
  8
躯体と製品
  6
Continuous
 62
     3
100
AcDbLine
 10
1857.326634723064
 20
797.1475064840115
 30
0.0
 11
1858.792041497867
 21
825.1091334571395
 31
0.0
  0
LINE
  5
7015
330
1E
100
AcDbEntity
  8
躯体と製品
  6
DASHED1
 62
     7
100
AcDbLine
 10
1829.153540741895
 20
804.1315436780855
 30
0.0
 11
1857.614482482401
 21
802.6399689251617
 31
0.0
  0
ARC
  5
7016
330
1E
100
AcDbEntity
  8
躯体と製品
  6
DASHED1
 62
     7
100
AcDbCircle
 10
1829.075036807531
 20
802.6335993759536
 30
0.0
 40
1.5
100
AcDbArc
 50
86.99999999999441
 51
266.9999999999944
  0
LINE
  5
7017
330
1E
100
AcDbEntity
  8
躯体と製品
  6
DASHED1
 62
     7
100
AcDbLine
 10
1828.996532873166
 20
801.1356550738216
 30
0.0
 11
1832.491736244807
 21
800.9524792269713
 31
0.0
  0
LINE
  5
7018
330
1E
100
AcDbEntity
  8
躯体と製品
  6
DASHED1
 62
     7
100
AcDbLine
 10
1832.54407220105
 20
801.9511087617264
 30
0.0
 11
1832.491736244807
 21
800.9524792269713
 31
0.0
  0
LINE
  5
7019
330
1E
100
AcDbEntity
  8
躯体と製品
  6
DASHED1
 62
     7
100
AcDbLine
 10
1832.54407220105
 20
801.9511087617264
 30
0.0
 11
1852.516662896142
 21
800.9043896368671
 31
0.0
  0
LINE
  5
701A
330
1E
100
AcDbEntity
  8
躯体と製品
  6
DASHED1
 62
     7
100
AcDbLine
 10
1852.516662896142
 20
800.9043896368671
 30
0.0
 11
1852.464326939899
 21
799.9057601021124
 31
0.0
  0
LINE
  5
701B
330
1E
100
AcDbEntity
  8
躯体と製品
  6
DASHED1
 62
     7
100
AcDbLine
 10
1852.464326939899
 20
799.9057601021124
 30
0.0
 11
1857.457474613672
 21
799.6440803208978
 31
0.0
  0
LINE
  5
701C
330
1E
100
AcDbEntity
  8
躯体と製品
  6
Continuous
 62
     4
100
AcDbLine
 10
1844.352567097152
 20
825.8658742444957
 30
0.0
 11
1843.838078611079
 21
826.3803627305685
 31
0.0
  0
LINE
  5
701D
330
1E
100
AcDbEntity
  8
躯体と製品
  6
Continuous
 62
     4
100
AcDbLine
 10
1534.09523316633
 20
839.4047996356514
 30
0.0
 11
1531.752151126508
 21
841.7478816754728
 31
0.0
  0
LINE
  5
701E
330
1E
100
AcDbEntity
  8
躯体と製品
  6
Continuous
 62
     4
100
AcDbLine
 10
1534.165658141985
 20
840.7485882223689
 30
0.0
 11
1533.244579548201
 21
841.6696668161531
 31
0.0
  0
LINE
  5
701F
330
1E
100
AcDbEntity
  8
躯体と製品
  6
Continuous
 62
     4
100
AcDbLine
 10
1534.024808190674
 20
838.0610110489334
 30
0.0
 11
1530.259722704815
 21
841.8260965347926
 31
0.0
  0
LINE
  5
7020
330
1E
100
AcDbEntity
  8
躯体と製品
  6
Continuous
 62
     4
100
AcDbLine
 10
1532.994312294056
 20
837.6772933831787
 30
0.0
 11
1528.767294283122
 21
841.9043113941123
 31
0.0
  0
LINE
  5
7021
330
1E
100
AcDbEntity
  8
躯体と製品
  6
Continuous
 62
     4
100
AcDbLine
 10
1531.501883872364
 20
837.7555082424985
 30
0.0
 11
1527.274865861431
 21
841.9825262534322
 31
0.0
  0
LINE
  5
7022
330
1E
100
AcDbEntity
  8
躯体と製品
  6
Continuous
 62
     4
100
AcDbLine
 10
1530.009455450671
 20
837.8337231018178
 30
0.0
 11
1525.782437439738
 21
842.0607411127521
 31
0.0
  0
LINE
  5
7023
330
1E
100
AcDbEntity
  8
躯体と製品
  6
Continuous
 62
     4
100
AcDbLine
 10
1528.517027028978
 20
837.9119379611379
 30
0.0
 11
1524.290009018044
 21
842.1389559720719
 31
0.0
  0
LINE
  5
7024
330
1E
100
AcDbEntity
  8
躯体と製品
  6
Continuous
 62
     4
100
AcDbLine
 10
1527.024598607285
 20
837.9901528204577
 30
0.0
 11
1522.797580596351
 21
842.2171708313914
 31
0.0
  0
LINE
  5
7025
330
1E
100
AcDbEntity
  8
躯体と製品
  6
Continuous
 62
     4
100
AcDbLine
 10
1525.532170185592
 20
838.0683676797772
 30
0.0
 11
1521.305152174658
 21
842.2953856907113
 31
0.0
  0
LINE
  5
7026
330
1E
100
AcDbEntity
  8
躯体と製品
  6
Continuous
 62
     4
100
AcDbLine
 10
1524.039741763899
 20
838.1465825390971
 30
0.0
 11
1519.812723752965
 21
842.3736005500312
 31
0.0
  0
LINE
  5
7027
330
1E
100
AcDbEntity
  8
躯体と製品
  6
Continuous
 62
     4
100
AcDbLine
 10
1522.547313342206
 20
838.2247973984172
 30
0.0
 11
1519.188817964059
 21
841.5832927765634
 31
0.0
  0
LINE
  5
7028
330
1E
100
AcDbEntity
  8
躯体と製品
  6
Continuous
 62
     4
100
AcDbLine
 10
1521.054884920512
 20
838.3030122577375
 30
0.0
 11
1519.118392988404
 21
840.2395041898458
 31
0.0
  0
LINE
  5
7029
330
1E
100
AcDbEntity
  8
躯体と製品
  6
Continuous
 62
     4
100
AcDbLine
 10
1519.562456498821
 20
838.3812271170571
 30
0.0
 11
1519.047968012748
 21
838.8957156031297
 31
0.0
  0
LINE
  5
702A
330
1E
100
AcDbEntity
  8
躯体と製品
  6
Continuous
 62
     4
100
AcDbLine
 10
1519.797968301914
 20
842.8750600234524
 30
0.0
 11
1519.283479815841
 21
843.3895485095254
 31
0.0
  0
LINE
  5
702B
330
1E
100
AcDbEntity
  8
躯体と製品
  6
DASHED1
 62
     7
100
AcDbLine
 10
1517.923432797117
 20
817.4383054434986
 30
0.0
 11
1522.91658047089
 21
817.1766256622838
 31
0.0
  0
LINE
  5
702C
330
1E
100
AcDbEntity
  8
躯体と製品
  6
DASHED1
 62
     7
100
AcDbLine
 10
1522.91658047089
 20
817.1766256622838
 30
0.0
 11
1522.968916427132
 21
818.1752551970383
 31
0.0
  0
LINE
  5
702D
330
1E
100
AcDbEntity
  8
躯体と製品
  6
DASHED1
 62
     7
100
AcDbLine
 10
1522.968916427132
 20
818.1752551970383
 30
0.0
 11
1542.941507122224
 21
817.1285360721794
 31
0.0
  0
LINE
  5
702E
330
1E
100
AcDbEntity
  8
躯体と製品
  6
DASHED1
 62
     7
100
AcDbLine
 10
1542.889171165981
 20
816.1299065374249
 30
0.0
 11
1542.941507122224
 21
817.1285360721794
 31
0.0
  0
LINE
  5
702F
330
1E
100
AcDbEntity
  8
躯体と製品
  6
DASHED1
 62
     7
100
AcDbLine
 10
1542.889171165981
 20
816.1299065374249
 30
0.0
 11
1546.384374537622
 21
815.9467306905746
 31
0.0
  0
ARC
  5
7030
330
1E
100
AcDbEntity
  8
躯体と製品
  6
DASHED1
 62
     7
100
AcDbCircle
 10
1546.462878471986
 20
817.4446749927067
 30
0.0
 40
1.5
100
AcDbArc
 50
266.9999999999944
 51
86.99999999999441
  0
LINE
  5
7031
330
1E
100
AcDbEntity
  8
躯体と製品
  6
DASHED1
 62
     7
100
AcDbLine
 10
1518.080440665846
 20
820.4341940477625
 30
0.0
 11
1546.541382406351
 21
818.9426192948385
 31
0.0
  0
LINE
  5
7032
330
1E
100
AcDbEntity
  8
躯体と製品
  6
Continuous
 62
     3
100
AcDbLine
 10
1496.391404387809
 20
866.9681121802135
 30
0.0
 11
1496.391404387809
 21
865.4528816977059
 31
0.0
  0
LINE
  5
7033
330
1E
100
AcDbEntity
  8
躯体と製品
  6
Continuous
 62
     3
100
AcDbLine
 10
1492.747195980274
 20
869.0505169845193
 30
0.0
 11
1496.391404387809
 21
866.9681121802135
 31
0.0
  0
ARC
  5
7034
330
1E
100
AcDbEntity
  8
躯体と製品
  6
Continuous
 62
     3
100
AcDbCircle
 10
1493.491404387809
 20
870.3528816977058
 30
0.0
 40
1.5
100
AcDbArc
 50
180.0
 51
240.2551187030594
  0
LINE
  5
7035
330
1E
100
AcDbEntity
  8
躯体と製品
  6
Continuous
 62
     3
100
AcDbLine
 10
1491.991404387809
 20
870.3528816977058
 30
0.0
 11
1491.991404387809
 21
873.6028816977059
 31
0.0
  0
ARC
  5
7036
330
1E
100
AcDbEntity
  8
躯体と製品
  6
Continuous
 62
     3
100
AcDbCircle
 10
1509.591404387809
 20
819.8777132413495
 30
0.0
 40
2.0
100
AcDbArc
 50
180.0
 51
266.9999999999944
  0
LINE
  5
7037
330
1E
100
AcDbEntity
  8
躯体と製品
  6
Continuous
 62
     3
100
AcDbLine
 10
1509.486732475323
 20
817.8804541718404
 30
0.0
 11
1515.926173727607
 21
817.5429773559844
 31
0.0
  0
LINE
  5
7038
330
1E
100
AcDbEntity
  8
躯体と製品
  6
Continuous
 62
     3
100
AcDbLine
 10
1507.591404387809
 20
819.8777132413495
 30
0.0
 11
1507.591404387809
 21
827.3528816977059
 31
0.0
  0
ARC
  5
7039
330
1E
100
AcDbEntity
  8
躯体と製品
  6
Continuous
 62
     3
100
AcDbCircle
 10
1511.091404387809
 20
821.8018462644208
 30
0.0
 40
1.0
100
AcDbArc
 50
180.0
 51
266.9999999999944
  0
LINE
  5
703A
330
1E
100
AcDbEntity
  8
躯体と製品
  6
Continuous
 62
     3
100
AcDbLine
 10
1511.039068431566
 20
820.8032167296662
 30
0.0
 11
1516.083181596336
 21
820.5388659602482
 31
0.0
  0
LINE
  5
703B
330
1E
100
AcDbEntity
  8
躯体と製品
  6
Continuous
 62
     3
100
AcDbLine
 10
1510.091404387809
 20
821.8018462644208
 30
0.0
 11
1510.091404387809
 21
828.8528816977057
 31
0.0
  0
ARC
  5
703C
330
1E
100
AcDbEntity
  8
躯体と製品
  6
Continuous
 62
     3
100
AcDbCircle
 10
1515.900005749486
 20
817.0436625886074
 30
0.0
 40
0.5
100
AcDbArc
 50
357.0000000000011
 51
86.99999999999441
  0
LINE
  5
703D
330
1E
100
AcDbEntity
  8
躯体と製品
  6
Continuous
 62
     3
100
AcDbLine
 10
1516.399320516863
 20
817.0174946104856
 30
0.0
 11
1516.34698456062
 21
816.018865075731
 31
0.0
  0
ARC
  5
703E
330
1E
100
AcDbEntity
  8
躯体と製品
  6
Continuous
 62
     3
100
AcDbCircle
 10
1516.846299327998
 20
815.9926970976098
 30
0.0
 40
0.5
100
AcDbArc
 50
177.0000000000011
 51
266.9999999999944
  0
LINE
  5
703F
330
1E
100
AcDbEntity
  8
躯体と製品
  6
Continuous
 62
     3
100
AcDbLine
 10
1516.820131349876
 20
815.4933823302323
 30
0.0
 11
1517.319446117253
 21
815.4672143521111
 31
0.0
  0
ARC
  5
7040
330
1E
100
AcDbEntity
  8
躯体と製品
  6
Continuous
 62
     3
100
AcDbCircle
 10
1517.345614095375
 20
815.9665291194883
 30
0.0
 40
0.5
100
AcDbArc
 50
266.9999999999944
 51
357.0000000000011
  0
ARC
  5
7041
330
1E
100
AcDbEntity
  8
躯体と製品
  6
Continuous
 62
     3
100
AcDbCircle
 10
1516.109349574458
 20
821.0381807276254
 30
0.0
 40
0.5
100
AcDbArc
 50
266.9999999999944
 51
357.0000000000011
  0
LINE
  5
7042
330
1E
100
AcDbEntity
  8
躯体と製品
  6
Continuous
 62
     3
100
AcDbLine
 10
1516.608664341835
 20
821.0120127495041
 30
0.0
 11
1516.713336254321
 21
823.009271819013
 31
0.0
  0
ARC
  5
7043
330
1E
100
AcDbEntity
  8
躯体と製品
  6
Continuous
 62
     3
100
AcDbCircle
 10
1517.212651021698
 20
822.9831038408915
 30
0.0
 40
0.5
100
AcDbArc
 50
86.99999999999441
 51
177.0000000000011
  0
LINE
  5
7044
330
1E
100
AcDbEntity
  8
躯体と製品
  6
Continuous
 62
     3
100
AcDbLine
 10
1517.23881899982
 20
823.482418608269
 30
0.0
 11
1517.738133767197
 21
823.4562506301474
 31
0.0
  0
ARC
  5
7045
330
1E
100
AcDbEntity
  8
躯体と製品
  6
Continuous
 62
     3
100
AcDbCircle
 10
1517.711965789076
 20
822.9569358627703
 30
0.0
 40
0.5
100
AcDbArc
 50
357.0000000000011
 51
86.99999999999441
  0
LINE
  5
7046
330
1E
100
AcDbEntity
  8
躯体と製品
  6
Continuous
 62
     3
100
AcDbLine
 10
1498.091404387809
 20
866.8528816977058
 30
0.0
 11
1503.591404387809
 21
866.8528816977058
 31
0.0
  0
LINE
  5
7047
330
1E
100
AcDbEntity
  8
躯体と製品
  6
Continuous
 62
     3
100
AcDbLine
 10
1504.591404387809
 20
868.3528816977059
 30
0.0
 11
1496.991404387809
 21
868.3528816977059
 31
0.0
  0
ARC
  5
7048
330
1E
100
AcDbEntity
  8
躯体と製品
  6
Continuous
 62
     3
100
AcDbCircle
 10
1498.091404387809
 20
866.3528816977059
 30
0.0
 40
0.5
100
AcDbArc
 50
90.0
 51
180.0
  0
LINE
  5
7049
330
1E
100
AcDbEntity
  8
躯体と製品
  6
Continuous
 62
     3
100
AcDbLine
 10
1497.591404387809
 20
866.3528816977059
 30
0.0
 11
1497.591404387809
 21
865.4528816977059
 31
0.0
  0
LINE
  5
704A
330
1E
100
AcDbEntity
  8
躯体と製品
  6
Continuous
 62
     3
100
AcDbLine
 10
1493.491404387809
 20
870.3528816977058
 30
0.0
 11
1496.991404387809
 21
868.3528816977059
 31
0.0
  0
LINE
  5
704B
330
1E
100
AcDbEntity
  8
躯体と製品
  6
Continuous
 62
     3
100
AcDbLine
 10
1493.491404387809
 20
873.6028816977059
 30
0.0
 11
1493.491404387809
 21
870.3528816977058
 31
0.0
  0
ARC
  5
704C
330
1E
100
AcDbEntity
  8
躯体と製品
  6
Continuous
 62
     3
100
AcDbCircle
 10
1492.741404387809
 20
873.6028816977059
 30
0.0
 40
0.75
100
AcDbArc
 50
0.0
 51
180.0
  0
ARC
  5
704D
330
1E
100
AcDbEntity
  8
躯体と製品
  6
Continuous
 62
     3
100
AcDbCircle
 10
1496.991404387809
 20
865.4528816977059
 30
0.0
 40
0.5999999999999998
100
AcDbArc
 50
180.0
 51
0.0
  0
LINE
  5
704E
330
1E
100
AcDbEntity
  8
躯体と製品
  6
Continuous
 62
     3
100
AcDbLine
 10
1505.591404387809
 20
853.8528816977059
 30
0.0
 11
1505.591404387809
 21
867.3528816977059
 31
0.0
  0
ARC
  5
704F
330
1E
100
AcDbEntity
  8
躯体と製品
  6
Continuous
 62
     3
100
AcDbCircle
 10
1503.091404387809
 20
862.8528816977059
 30
0.0
 40
1.0
100
AcDbArc
 50
270.0
 51
0.0
  0
LINE
  5
7050
330
1E
100
AcDbEntity
  8
躯体と製品
  6
Continuous
 62
     3
100
AcDbLine
 10
1506.591404387809
 20
828.3528816977058
 30
0.0
 11
1496.091404387809
 21
828.3528816977058
 31
0.0
  0
LINE
  5
7051
330
1E
100
AcDbEntity
  8
躯体と製品
  6
Continuous
 62
     3
100
AcDbLine
 10
1503.091404387809
 20
861.8528816977059
 30
0.0
 11
1498.591404387809
 21
861.8528816977059
 31
0.0
  0
LINE
  5
7052
330
1E
100
AcDbEntity
  8
躯体と製品
  6
Continuous
 62
     3
100
AcDbLine
 10
1508.091404387809
 20
830.8528816977059
 30
0.0
 11
1500.091404387809
 21
830.8528816977059
 31
0.0
  0
LINE
  5
7053
330
1E
100
AcDbEntity
  8
躯体と製品
  6
Continuous
 62
     3
100
AcDbLine
 10
1499.591404387809
 20
860.3528816977059
 30
0.0
 11
1503.591404387809
 21
860.3528816977059
 31
0.0
  0
ARC
  5
7054
330
1E
100
AcDbEntity
  8
躯体と製品
  6
Continuous
 62
     3
100
AcDbCircle
 10
1508.091404387809
 20
828.8528816977057
 30
0.0
 40
2.0
100
AcDbArc
 50
0.0
 51
90.0
  0
ARC
  5
7055
330
1E
100
AcDbEntity
  8
躯体と製品
  6
Continuous
 62
     3
100
AcDbCircle
 10
1506.591404387809
 20
827.3528816977059
 30
0.0
 40
1.0
100
AcDbArc
 50
0.0
 51
90.0
  0
LINE
  5
7056
330
1E
100
AcDbEntity
  8
躯体と製品
  6
Continuous
 62
     3
100
AcDbLine
 10
1505.091404387809
 20
853.3528816977058
 30
0.0
 11
1504.091404387809
 21
853.3528816977058
 31
0.0
  0
ARC
  5
7057
330
1E
100
AcDbEntity
  8
躯体と製品
  6
Continuous
 62
     3
100
AcDbCircle
 10
1505.091404387809
 20
853.8528816977059
 30
0.0
 40
0.5
100
AcDbArc
 50
270.0
 51
0.0
  0
LINE
  5
7058
330
1E
100
AcDbEntity
  8
躯体と製品
  6
Continuous
 62
     3
100
AcDbLine
 10
1504.091404387809
 20
859.852881697706
 30
0.0
 11
1504.091404387809
 21
855.352881697706
 31
0.0
  0
ARC
  5
7059
330
1E
100
AcDbEntity
  8
躯体と製品
  6
Continuous
 62
     3
100
AcDbCircle
 10
1503.591404387809
 20
859.852881697706
 30
0.0
 40
0.5
100
AcDbArc
 50
0.0
 51
90.0
  0
ARC
  5
705A
330
1E
100
AcDbEntity
  8
躯体と製品
  6
Continuous
 62
     3
100
AcDbCircle
 10
1504.091404387809
 20
854.3528816977058
 30
0.0
 40
1.0
100
AcDbArc
 50
90.0
 51
270.0
  0
ARC
  5
705B
330
1E
100
AcDbEntity
  8
躯体と製品
  6
Continuous
 62
     3
100
AcDbCircle
 10
1504.591404387809
 20
867.3528816977059
 30
0.0
 40
1.0
100
AcDbArc
 50
0.0
 51
90.0
  0
LINE
  5
705C
330
1E
100
AcDbEntity
  8
躯体と製品
  6
Continuous
 62
     3
100
AcDbLine
 10
1504.091404387809
 20
862.8528816977059
 30
0.0
 11
1504.091404387809
 21
866.3528816977059
 31
0.0
  0
ARC
  5
705D
330
1E
100
AcDbEntity
  8
躯体と製品
  6
Continuous
 62
     3
100
AcDbCircle
 10
1503.591404387809
 20
866.3528816977059
 30
0.0
 40
0.5
100
AcDbArc
 50
0.0
 51
90.0
  0
ARC
  5
705E
330
1E
100
AcDbEntity
  8
躯体と製品
  6
Continuous
 62
     3
100
AcDbCircle
 10
1500.091404387809
 20
831.8528816977059
 30
0.0
 40
1.0
100
AcDbArc
 50
180.0
 51
270.0
  0
ARC
  5
705F
330
1E
100
AcDbEntity
  8
躯体と製品
  6
Continuous
 62
     3
100
AcDbCircle
 10
1499.591404387809
 20
859.852881697706
 30
0.0
 40
0.5
100
AcDbArc
 50
90.0
 51
180.0
  0
LINE
  5
7060
330
1E
100
AcDbEntity
  8
躯体と製品
  6
Continuous
 62
     3
100
AcDbLine
 10
1499.091404387809
 20
831.8528816977059
 30
0.0
 11
1499.091404387809
 21
859.852881697706
 31
0.0
  0
LINE
  5
7061
330
1E
100
AcDbEntity
  8
躯体と製品
  6
Continuous
 62
     3
100
AcDbLine
 10
1496.591404387809
 20
829.8528816977059
 30
0.0
 11
1495.091404387809
 21
829.8528816977059
 31
0.0
  0
ARC
  5
7062
330
1E
100
AcDbEntity
  8
躯体と製品
  6
Continuous
 62
     3
100
AcDbCircle
 10
1496.591404387809
 20
830.352881697706
 30
0.0
 40
0.5
100
AcDbArc
 50
270.0
 51
0.0
  0
LINE
  5
7063
330
1E
100
AcDbEntity
  8
躯体と製品
  6
Continuous
 62
     3
100
AcDbLine
 10
1497.091404387808
 20
830.352881697706
 30
0.0
 11
1497.091404387808
 21
860.3528816977059
 31
0.0
  0
ARC
  5
7064
330
1E
100
AcDbEntity
  8
躯体と製品
  6
Continuous
 62
     3
100
AcDbCircle
 10
1498.591404387809
 20
860.3528816977059
 30
0.0
 40
1.5
100
AcDbArc
 50
90.0
 51
180.0
  0
ARC
  5
7065
330
1E
100
AcDbEntity
  8
躯体と製品
  6
Continuous
 62
     3
100
AcDbCircle
 10
1496.091404387809
 20
827.8528816977059
 30
0.0
 40
0.5
100
AcDbArc
 50
90.0
 51
180.0
  0
LINE
  5
7066
330
1E
100
AcDbEntity
  8
躯体と製品
  6
Continuous
 62
     3
100
AcDbLine
 10
1495.591404387809
 20
827.8528816977059
 30
0.0
 11
1495.591404387809
 21
826.6028816977058
 31
0.0
  0
ARC
  5
7067
330
1E
100
AcDbEntity
  8
躯体と製品
  6
Continuous
 62
     3
100
AcDbCircle
 10
1494.841404387809
 20
826.6028816977058
 30
0.0
 40
0.75
100
AcDbArc
 50
180.0
 51
0.0
  0
ARC
  5
7068
330
1E
100
AcDbEntity
  8
躯体と製品
  6
Continuous
 62
     3
100
AcDbCircle
 10
1495.091404387809
 20
828.8528816977057
 30
0.0
 40
1.0
100
AcDbArc
 50
90.0
 51
180.0
  0
LINE
  5
7069
330
1E
100
AcDbEntity
  8
躯体と製品
  6
Continuous
 62
     3
100
AcDbLine
 10
1494.091404387809
 20
828.8528816977057
 30
0.0
 11
1494.091404387809
 21
826.6028816977058
 31
0.0
  0
LINE
  5
706A
330
1E
100
AcDbEntity
  8
躯体と製品
  6
Continuous
 62
     7
100
AcDbLine
 10
1534.001930899537
 20
837.6244863297007
 30
0.0
 11
1534.211274724508
 21
841.6190044687191
 31
0.0
  0
LINE
  5
706B
330
1E
100
AcDbEntity
  8
躯体と製品
  6
Continuous
 62
     7
100
AcDbLine
 10
1519.23183170319
 20
842.4040438123631
 30
0.0
 11
1534.211274724508
 21
841.6190044687191
 31
0.0
  0
LINE
  5
706C
330
1E
100
AcDbEntity
  8
躯体と製品
  6
Continuous
 62
     3
100
AcDbLine
 10
1517.792592906509
 20
814.9417316066125
 30
0.0
 11
1519.257999681312
 21
842.9033585797403
 31
0.0
  0
TEXT
  5
706D
330
1E
100
AcDbEntity
  8
図枠
 62
     7
100
AcDbText
 10
1512.091404387809
 20
514.7200649319399
 30
0.0
 40
5.0
  1
ＦＳ500～700
100
AcDbText
  0
ARC
  5
706E
330
1E
100
AcDbEntity
  8
躯体と製品
  6
DASHED1
 62
     7
100
AcDbCircle
 10
1864.75458402208
 20
819.0125872691893
 30
0.0
 40
7.5
100
AcDbArc
 50
10.12467165539644
 51
86.99999999999441
  0
LINE
  5
706F
330
1E
100
AcDbEntity
  8
躯体と製品
  6
DASHED1
 62
     7
100
AcDbLine
 10
1872.137790838393
 20
820.331017057817
 30
0.0
 11
1886.091404387809
 21
742.1907811810902
 31
0.0
  0
LINE
  5
7070
330
1E
100
AcDbEntity
  8
躯体と製品
  6
DASHED1
 62
     7
100
AcDbLine
 10
1886.091404387809
 20
742.1907811810902
 30
0.0
 11
1881.661480298084
 21
741.3997233075581
 31
0.0
  0
LINE
  5
7071
330
1E
100
AcDbEntity
  8
躯体と製品
  6
DASHED1
 62
     7
100
AcDbLine
 10
1867.707866748605
 20
819.5399591846403
 30
0.0
 11
1881.661480298021
 21
741.399723307914
 31
0.0
  0
ARC
  5
7072
330
1E
100
AcDbEntity
  8
躯体と製品
  6
DASHED1
 62
     7
100
AcDbCircle
 10
1864.75458402208
 20
819.0125872691893
 30
0.0
 40
3.0
100
AcDbArc
 50
10.12467165539644
 51
86.99999999999441
  0
LINE
  5
7073
330
1E
100
AcDbEntity
  8
躯体と製品
  6
DASHED1
 62
     7
100
AcDbLine
 10
1496.091404387809
 20
848.6905921123749
 30
0.0
 11
1496.091404387809
 21
860.8436984122302
 31
0.0
  0
LINE
  5
7074
330
1E
100
AcDbEntity
  8
躯体と製品
  6
DASHED1
 62
     7
100
AcDbLine
 10
1496.091404387809
 20
860.8436984122302
 30
0.0
 11
1491.591404387809
 21
860.8436984122302
 31
0.0
  0
LINE
  5
7075
330
1E
100
AcDbEntity
  8
躯体と製品
  6
DASHED1
 62
     7
100
AcDbLine
 10
1491.591404387809
 20
848.6905921123746
 30
0.0
 11
1491.591404387809
 21
860.8436984122302
 31
0.0
  0
ARC
  5
7076
330
1E
100
AcDbEntity
  8
躯体と製品
  6
DASHED1
 62
     7
100
AcDbCircle
 10
1499.091404387809
 20
848.6905921123749
 30
0.0
 40
3.0
100
AcDbArc
 50
180.0
 51
266.9999999999944
  0
ARC
  5
7077
330
1E
100
AcDbEntity
  8
躯体と製品
  6
DASHED1
 62
     7
100
AcDbCircle
 10
1499.091404387809
 20
848.6905921123746
 30
0.0
 40
7.5
100
AcDbArc
 50
180.0
 51
266.9999999999944
  0
ARC
  5
7078
330
1E
100
AcDbEntity
  8
躯体と製品
  6
Continuous
 62
     7
100
AcDbCircle
 10
1812.064092244343
 20
779.2204371988955
 30
0.0
 40
1.0
100
AcDbArc
 50
4.999999999999459
 51
88.3634229583817
  0
LINE
  5
7079
330
1E
100
AcDbEntity
  8
躯体と製品
  6
DASHED1
 62
     7
100
AcDbLine
 10
1734.475202414646
 20
814.3054330161158
 30
0.0
 11
1735.108805340823
 21
814.7938460912262
 31
0.0
  0
LINE
  5
707A
330
1E
100
AcDbEntity
  8
躯体と製品
  6
DASHED1
 62
     7
100
AcDbLine
 10
1735.108805340823
 20
814.7938460912262
 30
0.0
 11
1736.940354387211
 21
812.4178350991551
 31
0.0
  0
LINE
  5
707B
330
1E
100
AcDbEntity
  8
躯体と製品
  6
DASHED1
 62
     7
100
AcDbLine
 10
1734.475202414646
 20
814.3054330161158
 30
0.0
 11
1736.306751461053
 21
811.9294220240197
 31
0.0
  0
POINT
  5
707C
330
1E
100
AcDbEntity
  8
躯体と製品
 62
     4
100
AcDbPoint
 10
1779.643740344052
 20
801.2186944666947
 30
0.0
  0
LINE
  5
707D
330
1E
100
AcDbEntity
  8
躯体と製品
  6
Continuous
 62
     7
100
AcDbLine
 10
1764.898883549598
 20
796.391505165981
 30
0.0
 11
1764.635150104704
 21
791.3591712548309
 31
0.0
  0
LINE
  5
707E
330
1E
100
AcDbEntity
  8
躯体と製品
  6
Continuous
 62
     7
100
AcDbLine
 10
1758.907106341071
 20
796.7055209034389
 30
0.0
 11
1758.643372896177
 21
791.6731869922887
 31
0.0
  0
LINE
  5
707F
330
1E
100
AcDbEntity
  8
躯体と製品
  6
Continuous
 62
     7
100
AcDbLine
 10
1765.191559823501
 20
801.9761011535743
 30
0.0
 11
1765.087292992072
 21
799.9865714910977
 31
0.0
  0
LINE
  5
7080
330
1E
100
AcDbEntity
  8
躯体と製品
  6
Continuous
 62
     4
100
AcDbLine
 10
1764.623838932993
 20
802.0058541446983
 30
0.0
 11
1764.519572101565
 21
800.0163244822218
 31
0.0
  0
LINE
  5
7081
330
1E
100
AcDbEntity
  8
躯体と製品
  6
Continuous
 62
     4
100
AcDbLine
 10
1759.767503505482
 20
802.2603638999077
 30
0.0
 11
1759.663236674053
 21
800.2708342374315
 31
0.0
  0
LINE
  5
7082
330
1E
100
AcDbEntity
  8
躯体と製品
  6
Continuous
 62
     7
100
AcDbLine
 10
1759.199782614973
 20
802.2901168910319
 30
0.0
 11
1759.095515783545
 21
800.3005872285553
 31
0.0
  0
LINE
  5
7083
330
1E
100
AcDbEntity
  8
躯体と製品
  6
DASHED1
 62
     4
100
AcDbLine
 10
1761.013099264063
 20
826.0277468270668
 30
0.0
 11
1759.767503505482
 21
802.2603638999077
 31
0.0
  0
LINE
  5
7084
330
1E
100
AcDbEntity
  8
躯体と製品
  6
DASHED1
 62
     7
100
AcDbLine
 10
1760.445378373555
 20
826.057499818191
 30
0.0
 11
1759.199782614973
 21
802.2901168910319
 31
0.0
  0
LINE
  5
7085
330
1E
100
AcDbEntity
  8
躯体と製品
  6
DASHED1
 62
     4
100
AcDbLine
 10
1765.869434691575
 20
825.7732370718574
 30
0.0
 11
1764.623838932993
 21
802.0058541446983
 31
0.0
  0
LINE
  5
7086
330
1E
100
AcDbEntity
  8
躯体と製品
  6
DASHED1
 62
     7
100
AcDbLine
 10
1766.437155582083
 20
825.7434840807331
 30
0.0
 11
1765.191559823501
 21
801.9761011535743
 31
0.0
  0
POINT
  5
7087
330
1E
100
AcDbEntity
  8
躯体と製品
 62
     4
100
AcDbPoint
 10
1762.091404387809
 20
800.1435793598263
 30
0.0
  0
LINE
  5
7088
330
1E
100
AcDbEntity
  8
躯体と製品
  6
Continuous
 62
     4
100
AcDbLine
 10
1764.635150104704
 20
791.3591712548309
 30
0.0
 11
1758.643372896177
 21
791.6731869922887
 31
0.0
  0
ARC
  5
7089
330
1E
100
AcDbEntity
  8
躯体と製品
  6
DASHED1
 62
     7
100
AcDbCircle
 10
1763.315660735172
 20
823.5037820646805
 30
0.0
 40
6.299999999999998
100
AcDbArc
 50
47.69686900000316
 51
126.3093710000041
  0
ARC
  5
708A
330
1E
100
AcDbEntity
  8
躯体と製品
  6
DASHED1
 62
     7
100
AcDbCircle
 10
1765.239372287907
 20
825.606622650973
 30
0.0
 40
3.45
100
AcDbArc
 50
0.3127429999987237
 51
47.82048899999998
  0
ARC
  5
708B
330
1E
100
AcDbEntity
  8
躯体と製品
  6
DASHED1
 62
     7
100
AcDbCircle
 10
1761.628036282651
 20
825.8003939309269
 30
0.0
 40
3.45
100
AcDbArc
 50
126.3091240000008
 51
173.7621629999991
  0
LINE
  5
708C
330
1E
100
AcDbEntity
  8
躯体と製品
  6
DASHED1
 62
     7
100
AcDbLine
 10
1764.352406328516
 20
828.9555744847094
 30
0.0
 11
1762.854462026384
 21
829.0340784190734
 31
0.0
  0
ARC
  5
708D
330
1E
100
AcDbEntity
  8
躯体と製品
  6
DASHED1
 62
     7
100
AcDbCircle
 10
1764.953637973971
 20
828.9633641270549
 30
0.0
 40
0.5999999999999998
100
AcDbArc
 50
73.29976700000166
 51
177.0000000000011
  0
ARC
  5
708E
330
1E
100
AcDbEntity
  8
躯体と製品
  6
DASHED1
 62
     7
100
AcDbCircle
 10
1762.257338230134
 20
829.1046712089107
 30
0.0
 40
0.5999999999999998
100
AcDbArc
 50
357.0000000000011
 51
100.7002330000058
  0
LINE
  5
708F
330
1E
100
AcDbEntity
  8
躯体と製品
  6
DASHED1
 62
     7
100
AcDbLine
 10
1751.386157751121
 20
825.9034455244982
 30
0.0
 11
1738.456206673868
 21
812.3383926652707
 31
0.0
  0
ARC
  5
7090
330
1E
100
AcDbEntity
  8
躯体と製品
  6
DASHED1
 62
     7
100
AcDbCircle
 10
1774.00503920363
 20
823.5443978834592
 30
0.0
 40
1.8
100
AcDbArc
 50
37.62684736228169
 51
86.99999999999441
  0
LINE
  5
7091
330
1E
100
AcDbEntity
  8
躯体と製品
  6
DASHED1
 62
     7
100
AcDbLine
 10
1774.797042861328
 20
824.1549142273788
 30
0.0
 11
1786.238228198782
 21
809.3126242118723
 31
0.0
  0
LINE
  5
7092
330
1E
100
AcDbEntity
  8
躯体と製品
  6
DASHED1
 62
     7
100
AcDbLine
 10
1775.430645787486
 20
824.6433273025147
 30
0.0
 11
1786.87183112494
 21
809.801037287008
 31
0.0
  0
ARC
  5
7093
330
1E
100
AcDbEntity
  8
躯体と製品
  6
DASHED1
 62
     7
100
AcDbCircle
 10
1787.663834768034
 20
810.4115536498735
 30
0.0
 40
1.8
100
AcDbArc
 50
217.6268473622817
 51
316.3731518762783
  0
ARC
  5
7094
330
1E
100
AcDbEntity
  8
躯体と製品
  6
DASHED1
 62
     7
100
AcDbCircle
 10
1787.663834768034
 20
810.4115536498735
 30
0.0
 40
1.0
100
AcDbArc
 50
217.6268473622817
 51
316.3731512671342
  0
LINE
  5
7095
330
1E
100
AcDbEntity
  8
躯体と製品
  6
DASHED1
 62
     7
100
AcDbLine
 10
1791.036638716746
 20
811.3411737464634
 30
0.0
 11
1788.966762309942
 21
809.1696277984082
 31
0.0
  0
LINE
  5
7096
330
1E
100
AcDbEntity
  8
躯体と製品
  6
DASHED1
 62
     7
100
AcDbLine
 10
1791.036638716746
 20
811.3411737464634
 30
0.0
 11
1790.457559801874
 21
811.8931407838402
 31
0.0
  0
LINE
  5
7097
330
1E
100
AcDbEntity
  8
躯体と製品
  6
DASHED1
 62
     7
100
AcDbLine
 10
1790.457559801874
 20
811.8931407838402
 30
0.0
 11
1788.387683395091
 21
809.7215948358082
 31
0.0
  0
ARC
  5
7098
330
1E
100
AcDbEntity
  8
躯体と製品
  6
DASHED1
 62
     7
100
AcDbCircle
 10
1737.732358030305
 20
813.0283514620204
 30
0.0
 40
1.8
100
AcDbArc
 50
217.6268481237226
 51
316.3731526377176
  0
ARC
  5
7099
330
1E
100
AcDbEntity
  8
躯体と製品
  6
DASHED1
 62
     7
100
AcDbCircle
 10
1737.732358030305
 20
813.0283514620204
 30
0.0
 40
1.0
100
AcDbArc
 50
217.6268487328632
 51
316.3731526377176
  0
ARC
  5
709A
330
1E
100
AcDbEntity
  8
躯体と製品
  6
DASHED1
 62
     7
100
AcDbCircle
 10
1752.689085309534
 20
824.6615196903485
 30
0.0
 40
1.0
100
AcDbArc
 50
86.99999999999441
 51
136.3731526377175
  0
LINE
  5
709B
330
1E
100
AcDbEntity
  8
躯体と製品
  6
DASHED1
 62
     7
100
AcDbLine
 10
1751.965236665971
 20
825.3514784870983
 30
0.0
 11
1739.035285572213
 21
811.7864256105553
 31
0.0
  0
LINE
  5
709C
330
1E
100
AcDbEntity
  8
躯体と製品
  6
DASHED1
 62
     7
100
AcDbLine
 10
1752.741421265777
 20
825.6601492251029
 30
0.0
 11
1774.057375159873
 21
824.5430274182137
 31
0.0
  0
ARC
  5
709D
330
1E
100
AcDbEntity
  8
躯体と製品
  6
DASHED1
 62
     7
100
AcDbCircle
 10
1752.689085309534
 20
824.6615196903485
 30
0.0
 40
1.8
100
AcDbArc
 50
86.99999999999441
 51
136.3731526377175
  0
LINE
  5
709E
330
1E
100
AcDbEntity
  8
躯体と製品
  6
DASHED1
 62
     7
100
AcDbLine
 10
1752.783290030771
 20
826.4590528529065
 30
0.0
 11
1774.099243924867
 21
825.3419310460175
 31
0.0
  0
ARC
  5
709F
330
1E
100
AcDbEntity
  8
躯体と製品
  6
DASHED1
 62
     7
100
AcDbCircle
 10
1774.00503920363
 20
823.5443978834592
 30
0.0
 40
1.0
100
AcDbArc
 50
37.62684736228169
 51
86.99999999999441
  0
LINE
  5
70A0
330
1E
100
AcDbEntity
  8
躯体と製品
  6
Continuous
 62
     4
100
AcDbLine
 10
1748.091404387809
 20
790.72006493194
 30
0.0
 11
1748.091404387809
 21
789.1200649319399
 31
0.0
  0
LINE
  5
70A1
330
1E
100
AcDbEntity
  8
躯体と製品
  6
Continuous
 62
     4
100
AcDbLine
 10
1776.091404387809
 20
790.72006493194
 30
0.0
 11
1776.091404387809
 21
789.1200649319399
 31
0.0
  0
LINE
  5
70A2
330
1E
100
AcDbEntity
  8
躯体と製品
  6
DASHED1
 62
     7
100
AcDbLine
 10
1765.087292992072
 20
799.9865714910977
 30
0.0
 11
1764.898883549598
 21
796.3915051659815
 31
0.0
  0
LINE
  5
70A3
330
1E
100
AcDbEntity
  8
躯体と製品
  6
DASHED1
 62
     7
100
AcDbLine
 10
1759.095515783545
 20
800.3005872285553
 30
0.0
 11
1758.907106341071
 21
796.705520903439
 31
0.0
  0
LINE
  5
70A4
330
1E
100
AcDbEntity
  8
躯体と製品
  6
Continuous
 62
     3
100
AcDbLine
 10
1771.101309895919
 20
799.6713902205965
 30
0.0
 11
1753.301309895919
 21
800.6042486918344
 31
0.0
  0
LINE
  5
70A5
330
1E
100
AcDbEntity
  8
躯体と製品
  6
Continuous
 62
     3
100
AcDbLine
 10
1771.017572365931
 20
798.0735829649891
 30
0.0
 11
1753.217572365931
 21
799.006441436227
 31
0.0
  0
ARC
  5
70A6
330
1E
100
AcDbEntity
  8
躯体と製品
  6
Continuous
 62
     3
100
AcDbCircle
 10
1767.547656296203
 20
797.2540612145041
 30
0.0
 40
1.0
100
AcDbArc
 50
86.99999999999441
 51
177.0000000000011
  0
LINE
  5
70A7
330
1E
100
AcDbEntity
  8
躯体と製品
  6
Continuous
 62
     3
100
AcDbLine
 10
1766.549026761448
 20
797.3063971707472
 30
0.0
 11
1766.496690805206
 21
796.3077676359923
 31
0.0
  0
ARC
  5
70A8
330
1E
100
AcDbEntity
  8
躯体と製品
  6
Continuous
 62
     3
100
AcDbCircle
 10
1756.363005506952
 20
797.8402239244252
 30
0.0
 40
1.0
100
AcDbArc
 50
357.0000000000011
 51
86.99999999999441
  0
LINE
  5
70A9
330
1E
100
AcDbEntity
  8
躯体と製品
  6
Continuous
 62
     3
100
AcDbLine
 10
1757.361635041706
 20
797.7878879681822
 30
0.0
 11
1757.309299085463
 21
796.7892584334274
 31
0.0
  0
LINE
  5
70AA
330
1E
100
AcDbEntity
  8
躯体と製品
  6
Continuous
 62
     3
100
AcDbLine
 10
1766.496690805206
 20
796.3077676359923
 30
0.0
 11
1757.309299085463
 21
796.7892584334274
 31
0.0
  0
ARC
  5
70AB
330
1E
100
AcDbEntity
  8
躯体と製品
  6
Continuous
 62
     3
100
AcDbCircle
 10
1770.991404387809
 20
797.5742681976116
 30
0.0
 40
2.1
100
AcDbArc
 50
0.0
 51
86.99999999999441
  0
LINE
  5
70AC
330
1E
100
AcDbEntity
  8
躯体と製品
  6
Continuous
 62
     3
100
AcDbLine
 10
1773.091404387809
 20
797.5742681976116
 30
0.0
 11
1773.091404387809
 21
791.22006493194
 31
0.0
  0
ARC
  5
70AD
330
1E
100
AcDbEntity
  8
躯体と製品
  6
Continuous
 62
     3
100
AcDbCircle
 10
1753.191404387809
 20
798.5071266688501
 30
0.0
 40
2.1
100
AcDbArc
 50
86.99999999999441
 51
180.0
  0
ARC
  5
70AE
330
1E
100
AcDbEntity
  8
躯体と製品
  6
Continuous
 62
     3
100
AcDbCircle
 10
1770.991404387809
 20
797.5742681976116
 30
0.0
 40
0.5
100
AcDbArc
 50
0.0
 51
86.99999999999441
  0
LINE
  5
70AF
330
1E
100
AcDbEntity
  8
躯体と製品
  6
Continuous
 62
     3
100
AcDbLine
 10
1771.491404387809
 20
797.5742681976116
 30
0.0
 11
1771.491404387809
 21
791.22006493194
 31
0.0
  0
ARC
  5
70B0
330
1E
100
AcDbEntity
  8
躯体と製品
  6
Continuous
 62
     3
100
AcDbCircle
 10
1753.191404387809
 20
798.5071266688501
 30
0.0
 40
0.5
100
AcDbArc
 50
86.99999999999441
 51
180.0
  0
LINE
  5
70B1
330
1E
100
AcDbEntity
  8
躯体と製品
  6
Continuous
 62
     3
100
AcDbLine
 10
1752.691404387809
 20
798.5071266688501
 30
0.0
 11
1752.691404387809
 21
791.22006493194
 31
0.0
  0
ARC
  5
70B2
330
1E
100
AcDbEntity
  8
躯体と製品
  6
Continuous
 62
     3
100
AcDbCircle
 10
1773.591404387809
 20
791.22006493194
 30
0.0
 40
0.5
100
AcDbArc
 50
180.0
 51
270.0
  0
ARC
  5
70B3
330
1E
100
AcDbEntity
  8
躯体と製品
  6
Continuous
 62
     3
100
AcDbCircle
 10
1773.591404387809
 20
791.22006493194
 30
0.0
 40
2.1
100
AcDbArc
 50
180.0
 51
270.0
  0
LINE
  5
70B4
330
1E
100
AcDbEntity
  8
躯体と製品
  6
Continuous
 62
     3
100
AcDbLine
 10
1778.091404387809
 20
790.72006493194
 30
0.0
 11
1778.091404387809
 21
789.1200649319399
 31
0.0
  0
LINE
  5
70B5
330
1E
100
AcDbEntity
  8
躯体と製品
  6
Continuous
 62
     3
100
AcDbLine
 10
1773.591404387809
 20
790.72006493194
 30
0.0
 11
1778.091404387809
 21
790.72006493194
 31
0.0
  0
LINE
  5
70B6
330
1E
100
AcDbEntity
  8
躯体と製品
  6
Continuous
 62
     3
100
AcDbLine
 10
1778.091404387809
 20
789.1200649319399
 30
0.0
 11
1773.591404387809
 21
789.1200649319399
 31
0.0
  0
ARC
  5
70B7
330
1E
100
AcDbEntity
  8
躯体と製品
  6
Continuous
 62
     3
100
AcDbCircle
 10
1750.591404387809
 20
791.22006493194
 30
0.0
 40
0.5
100
AcDbArc
 50
270.0
 51
0.0
  0
ARC
  5
70B8
330
1E
100
AcDbEntity
  8
躯体と製品
  6
Continuous
 62
     3
100
AcDbCircle
 10
1750.591404387809
 20
791.22006493194
 30
0.0
 40
2.1
100
AcDbArc
 50
270.0
 51
0.0
  0
LINE
  5
70B9
330
1E
100
AcDbEntity
  8
躯体と製品
  6
Continuous
 62
     3
100
AcDbLine
 10
1746.091404387809
 20
790.72006493194
 30
0.0
 11
1750.591404387809
 21
790.72006493194
 31
0.0
  0
LINE
  5
70BA
330
1E
100
AcDbEntity
  8
躯体と製品
  6
Continuous
 62
     3
100
AcDbLine
 10
1746.091404387809
 20
789.1200649319399
 30
0.0
 11
1746.091404387809
 21
790.72006493194
 31
0.0
  0
LINE
  5
70BB
330
1E
100
AcDbEntity
  8
躯体と製品
  6
Continuous
 62
     3
100
AcDbLine
 10
1746.091404387809
 20
789.1200649319399
 30
0.0
 11
1750.591404387809
 21
789.1200649319399
 31
0.0
  0
LINE
  5
70BC
330
1E
100
AcDbEntity
  8
躯体と製品
  6
Continuous
 62
     3
100
AcDbLine
 10
1751.091404387809
 20
798.5071266688501
 30
0.0
 11
1751.091404387809
 21
791.22006493194
 31
0.0
  0
LINE
  5
70BD
330
1E
100
AcDbEntity
  8
躯体と製品
  6
Continuous
 62
     3
100
AcDbLine
 10
1787.463974669237
 20
790.1935888864963
 30
0.0
 11
1787.782730368076
 21
789.121957044651
 31
0.0
  0
LINE
  5
70BE
330
1E
100
AcDbEntity
  8
躯体と製品
  6
Continuous
 62
     3
100
AcDbLine
 10
1787.29032649157
 20
789.2087811334842
 30
0.0
 11
1787.609082190409
 21
788.1371492916386
 31
0.0
  0
LINE
  5
70BF
330
1E
100
AcDbEntity
  8
躯体と製品
  6
Continuous
 62
     3
100
AcDbLine
 10
1762.091404387809
 20
784.22006493194
 30
0.0
 11
1761.591404387809
 21
784.7200649319399
 31
0.0
  0
LINE
  5
70C0
330
1E
100
AcDbEntity
  8
躯体と製品
  6
Continuous
 62
     3
100
AcDbLine
 10
1778.291404387809
 20
790.72006493194
 30
0.0
 11
1775.341404387809
 21
790.72006493194
 31
0.0
  0
ARC
  5
70C1
330
1E
100
AcDbEntity
  8
躯体と製品
  6
Continuous
 62
     3
100
AcDbCircle
 10
1778.291404387809
 20
790.42006493194
 30
0.0
 40
0.2999999999999998
100
AcDbArc
 50
0.0
 51
90.0
  0
LINE
  5
70C2
330
1E
100
AcDbEntity
  8
躯体と製品
  6
Continuous
 62
     3
100
AcDbLine
 10
1778.591404387809
 20
790.42006493194
 30
0.0
 11
1778.591404387809
 21
788.5200649319402
 31
0.0
  0
ARC
  5
70C3
330
1E
100
AcDbEntity
  8
躯体と製品
  6
Continuous
 62
     3
100
AcDbCircle
 10
1778.291404387809
 20
788.5200649319402
 30
0.0
 40
0.2999999999999998
100
AcDbArc
 50
270.0
 51
0.0
  0
LINE
  5
70C4
330
1E
100
AcDbEntity
  8
躯体と製品
  6
Continuous
 62
     3
100
AcDbLine
 10
1778.291404387809
 20
788.22006493194
 30
0.0
 11
1776.341404387809
 21
788.22006493194
 31
0.0
  0
LINE
  5
70C5
330
1E
100
AcDbEntity
  8
躯体と製品
  6
Continuous
 62
     3
100
AcDbLine
 10
1778.591404387809
 20
786.42006493194
 30
0.0
 11
1778.591404387809
 21
785.0200649319402
 31
0.0
  0
ARC
  5
70C6
330
1E
100
AcDbEntity
  8
躯体と製品
  6
Continuous
 62
     3
100
AcDbCircle
 10
1778.291404387809
 20
786.42006493194
 30
0.0
 40
0.2999999999999998
100
AcDbArc
 50
0.0
 51
90.0
  0
LINE
  5
70C7
330
1E
100
AcDbEntity
  8
躯体と製品
  6
Continuous
 62
     3
100
AcDbLine
 10
1778.291404387809
 20
786.72006493194
 30
0.0
 11
1776.341404387809
 21
786.72006493194
 31
0.0
  0
ARC
  5
70C8
330
1E
100
AcDbEntity
  8
躯体と製品
  6
Continuous
 62
     3
100
AcDbCircle
 10
1776.341404387809
 20
787.4700649319399
 30
0.0
 40
0.75
100
AcDbArc
 50
90.0
 51
270.0
  0
ARC
  5
70C9
330
1E
100
AcDbEntity
  8
躯体と製品
  6
Continuous
 62
     3
100
AcDbCircle
 10
1775.341404387809
 20
791.4700649319399
 30
0.0
 40
0.75
100
AcDbArc
 50
90.0
 51
270.0
  0
LINE
  5
70CA
330
1E
100
AcDbEntity
  8
躯体と製品
  6
Continuous
 62
     3
100
AcDbLine
 10
1778.591404387809
 20
792.72006493194
 30
0.0
 11
1778.591404387809
 21
800.22006493194
 31
0.0
  0
ARC
  5
70CB
330
1E
100
AcDbEntity
  8
躯体と製品
  6
Continuous
 62
     3
100
AcDbCircle
 10
1778.091404387809
 20
792.72006493194
 30
0.0
 40
0.5
100
AcDbArc
 50
270.0
 51
0.0
  0
LINE
  5
70CC
330
1E
100
AcDbEntity
  8
躯体と製品
  6
Continuous
 62
     3
100
AcDbLine
 10
1778.091404387809
 20
792.22006493194
 30
0.0
 11
1775.341404387809
 21
792.22006493194
 31
0.0
  0
ARC
  5
70CD
330
1E
100
AcDbEntity
  8
躯体と製品
  6
Continuous
 62
     3
100
AcDbCircle
 10
1778.291404387809
 20
785.0200649319402
 30
0.0
 40
0.2999999999999998
100
AcDbArc
 50
270.0
 51
0.0
  0
ARC
  5
70CE
330
1E
100
AcDbEntity
  8
躯体と製品
  6
Continuous
 62
     3
100
AcDbCircle
 10
1781.091404387809
 20
785.2200649319399
 30
0.0
 40
0.5
100
AcDbArc
 50
180.0
 51
270.0
  0
LINE
  5
70CF
330
1E
100
AcDbEntity
  8
躯体と製品
  6
Continuous
 62
     3
100
AcDbLine
 10
1780.591404387809
 20
785.2200649319399
 30
0.0
 11
1780.591404387809
 21
800.22006493194
 31
0.0
  0
LINE
  5
70D0
330
1E
100
AcDbEntity
  8
躯体と製品
  6
Continuous
 62
     3
100
AcDbLine
 10
1780.591404387809
 20
783.22006493194
 30
0.0
 11
1791.091404387809
 21
783.22006493194
 31
0.0
  0
LINE
  5
70D1
330
1E
100
AcDbEntity
  8
躯体と製品
  6
Continuous
 62
     3
100
AcDbLine
 10
1780.591404387809
 20
782.2200649319399
 30
0.0
 11
1780.591404387809
 21
783.22006493194
 31
0.0
  0
LINE
  5
70D2
330
1E
100
AcDbEntity
  8
躯体と製品
  6
Continuous
 62
     3
100
AcDbLine
 10
1762.091404387809
 20
784.22006493194
 30
0.0
 11
1762.591404387809
 21
784.7200649319399
 31
0.0
  0
LINE
  5
70D3
330
1E
100
AcDbEntity
  8
躯体と製品
  6
Continuous
 62
     3
100
AcDbLine
 10
1791.091404387809
 20
782.2200649319399
 30
0.0
 11
1792.591404387809
 21
782.2200649319399
 31
0.0
  0
LINE
  5
70D4
330
1E
100
AcDbEntity
  8
躯体と製品
  6
Continuous
 62
     3
100
AcDbLine
 10
1791.091404387809
 20
783.22006493194
 30
0.0
 11
1791.091404387809
 21
782.2200649319399
 31
0.0
  0
ARC
  5
70D5
330
1E
100
AcDbEntity
  8
躯体と製品
  6
Continuous
 62
     3
100
AcDbCircle
 10
1779.591404387809
 20
800.22006493194
 30
0.0
 40
1.0
100
AcDbArc
 50
0.0
 51
180.0
  0
LINE
  5
70D6
330
1E
100
AcDbEntity
  8
躯体と製品
  6
Continuous
 62
     3
100
AcDbLine
 10
1778.591404387809
 20
782.2200649319399
 30
0.0
 11
1780.591404387809
 21
782.2200649319399
 31
0.0
  0
LINE
  5
70D7
330
1E
100
AcDbEntity
  8
躯体と製品
  6
Continuous
 62
     3
100
AcDbLine
 10
1778.591404387809
 20
782.72006493194
 30
0.0
 11
1778.591404387809
 21
782.2200649319399
 31
0.0
  0
LINE
  5
70D8
330
1E
100
AcDbEntity
  8
躯体と製品
  6
Continuous
 62
     3
100
AcDbLine
 10
1767.091404387809
 20
782.72006493194
 30
0.0
 11
1778.591404387809
 21
782.72006493194
 31
0.0
  0
LINE
  5
70D9
330
1E
100
AcDbEntity
  8
躯体と製品
  6
Continuous
 62
     3
100
AcDbLine
 10
1767.091404387809
 20
782.2200649319399
 30
0.0
 11
1767.091404387809
 21
782.72006493194
 31
0.0
  0
LINE
  5
70DA
330
1E
100
AcDbEntity
  8
躯体と製品
  6
Continuous
 62
     3
100
AcDbLine
 10
1745.891404387809
 20
784.7200649319399
 30
0.0
 11
1761.591404387809
 21
784.7200649319399
 31
0.0
  0
LINE
  5
70DB
330
1E
100
AcDbEntity
  8
躯体と製品
  6
Continuous
 62
     3
100
AcDbLine
 10
1762.591404387809
 20
784.7200649319399
 30
0.0
 11
1778.291404387809
 21
784.7200649319399
 31
0.0
  0
LINE
  5
70DC
330
1E
100
AcDbEntity
  8
躯体と製品
  6
Continuous
 62
     3
100
AcDbLine
 10
1757.091404387809
 20
782.2200649319399
 30
0.0
 11
1767.091404387809
 21
782.2200649319399
 31
0.0
  0
LINE
  5
70DD
330
1E
100
AcDbEntity
  8
躯体と製品
  6
Continuous
 62
     3
100
AcDbLine
 10
1744.091404387809
 20
791.72006493194
 30
0.0
 11
1744.091404387809
 21
782.2200649319399
 31
0.0
  0
ARC
  5
70DE
330
1E
100
AcDbEntity
  8
躯体と製品
  6
Continuous
 62
     3
100
AcDbCircle
 10
1744.591404387809
 20
791.72006493194
 30
0.0
 40
0.5
100
AcDbArc
 50
90.0
 51
180.0
  0
LINE
  5
70DF
330
1E
100
AcDbEntity
  8
躯体と製品
  6
Continuous
 62
     3
100
AcDbLine
 10
1744.591404387809
 20
792.22006493194
 30
0.0
 11
1748.841404387809
 21
792.22006493194
 31
0.0
  0
LINE
  5
70E0
330
1E
100
AcDbEntity
  8
躯体と製品
  6
Continuous
 62
     3
100
AcDbLine
 10
1745.591404387809
 20
785.0200649319402
 30
0.0
 11
1745.591404387809
 21
786.42006493194
 31
0.0
  0
ARC
  5
70E1
330
1E
100
AcDbEntity
  8
躯体と製品
  6
Continuous
 62
     3
100
AcDbCircle
 10
1745.891404387809
 20
785.0200649319402
 30
0.0
 40
0.2999999999999998
100
AcDbArc
 50
180.0
 51
270.0
  0
LINE
  5
70E2
330
1E
100
AcDbEntity
  8
躯体と製品
  6
Continuous
 62
     3
100
AcDbLine
 10
1745.891404387809
 20
786.72006493194
 30
0.0
 11
1747.841404387809
 21
786.72006493194
 31
0.0
  0
ARC
  5
70E3
330
1E
100
AcDbEntity
  8
躯体と製品
  6
Continuous
 62
     3
100
AcDbCircle
 10
1745.891404387809
 20
786.42006493194
 30
0.0
 40
0.2999999999999998
100
AcDbArc
 50
90.0
 51
180.0
  0
LINE
  5
70E4
330
1E
100
AcDbEntity
  8
躯体と製品
  6
Continuous
 62
     3
100
AcDbLine
 10
1745.591404387809
 20
788.5200649319402
 30
0.0
 11
1745.591404387809
 21
790.42006493194
 31
0.0
  0
ARC
  5
70E5
330
1E
100
AcDbEntity
  8
躯体と製品
  6
Continuous
 62
     3
100
AcDbCircle
 10
1745.891404387809
 20
788.5200649319402
 30
0.0
 40
0.2999999999999998
100
AcDbArc
 50
180.0
 51
270.0
  0
LINE
  5
70E6
330
1E
100
AcDbEntity
  8
躯体と製品
  6
Continuous
 62
     3
100
AcDbLine
 10
1745.891404387809
 20
788.22006493194
 30
0.0
 11
1747.841404387809
 21
788.22006493194
 31
0.0
  0
LINE
  5
70E7
330
1E
100
AcDbEntity
  8
躯体と製品
  6
Continuous
 62
     3
100
AcDbLine
 10
1745.891404387809
 20
790.72006493194
 30
0.0
 11
1748.841404387809
 21
790.72006493194
 31
0.0
  0
ARC
  5
70E8
330
1E
100
AcDbEntity
  8
躯体と製品
  6
Continuous
 62
     3
100
AcDbCircle
 10
1745.891404387809
 20
790.42006493194
 30
0.0
 40
0.2999999999999998
100
AcDbArc
 50
90.0
 51
180.0
  0
ARC
  5
70E9
330
1E
100
AcDbEntity
  8
躯体と製品
  6
Continuous
 62
     3
100
AcDbCircle
 10
1747.841404387809
 20
787.4700649319399
 30
0.0
 40
0.75
100
AcDbArc
 50
270.0
 51
90.0
  0
ARC
  5
70EA
330
1E
100
AcDbEntity
  8
躯体と製品
  6
Continuous
 62
     3
100
AcDbCircle
 10
1748.841404387809
 20
791.4700649319399
 30
0.0
 40
0.75
100
AcDbArc
 50
270.0
 51
90.0
  0
LINE
  5
70EB
330
1E
100
AcDbEntity
  8
躯体と製品
  6
Continuous
 62
     3
100
AcDbLine
 10
1757.091404387809
 20
782.72006493194
 30
0.0
 11
1757.091404387809
 21
782.2200649319399
 31
0.0
  0
LINE
  5
70EC
330
1E
100
AcDbEntity
  8
躯体と製品
  6
Continuous
 62
     3
100
AcDbLine
 10
1745.591404387809
 20
782.72006493194
 30
0.0
 11
1757.091404387809
 21
782.72006493194
 31
0.0
  0
LINE
  5
70ED
330
1E
100
AcDbEntity
  8
躯体と製品
  6
Continuous
 62
     3
100
AcDbLine
 10
1745.591404387809
 20
782.2200649319399
 30
0.0
 11
1745.591404387809
 21
782.72006493194
 31
0.0
  0
LINE
  5
70EE
330
1E
100
AcDbEntity
  8
躯体と製品
  6
Continuous
 62
     3
100
AcDbLine
 10
1744.091404387809
 20
782.2200649319399
 30
0.0
 11
1745.591404387809
 21
782.2200649319399
 31
0.0
  0
LINE
  5
70EF
330
1E
100
AcDbEntity
  8
躯体と製品
  6
Continuous
 62
     3
100
AcDbLine
 10
1792.591404387809
 20
782.2200649319399
 30
0.0
 11
1792.591404387809
 21
784.7200649319399
 31
0.0
  0
ARC
  5
70F0
330
1E
100
AcDbEntity
  8
躯体と製品
  6
Continuous
 62
     3
100
AcDbCircle
 10
1792.851275594635
 20
790.5129456450104
 30
0.0
 40
0.7499999999999977
100
AcDbArc
 50
350.0000000000025
 51
170.0000000000025
  0
ARC
  5
70F1
330
1E
100
AcDbEntity
  8
躯体と製品
  6
Continuous
 62
     3
100
AcDbCircle
 10
1787.434832953067
 20
791.4680106221783
 30
0.0
 40
0.7500000000000016
100
AcDbArc
 50
350.0000000000025
 51
170.0000000000025
  0
LINE
  5
70F2
330
1E
100
AcDbEntity
  8
躯体と製品
  6
Continuous
 62
     3
100
AcDbLine
 10
1792.388013434298
 20
789.325347998162
 30
0.0
 11
1791.721961380125
 21
788.4273643339829
 31
0.0
  0
LINE
  5
70F3
330
1E
100
AcDbEntity
  8
躯体と製品
  6
Continuous
 62
     3
100
AcDbLine
 10
1792.214365256631
 20
788.3405402451496
 30
0.0
 11
1791.548313202458
 21
787.4425565809709
 31
0.0
  0
LINE
  5
70F4
330
1E
100
AcDbEntity
  8
躯体と製品
  6
Continuous
 62
     3
100
AcDbLine
 10
1787.956378545743
 20
790.1067647976629
 30
0.0
 11
1788.173438767827
 21
791.3377744889283
 31
0.0
  0
LINE
  5
70F5
330
1E
100
AcDbEntity
  8
躯体と製品
  6
Continuous
 62
     3
100
AcDbLine
 10
1791.895609557792
 20
789.4121720869954
 30
0.0
 11
1792.112669779875
 21
790.6431817782605
 31
0.0
  0
LINE
  5
70F6
330
1E
100
AcDbEntity
  8
躯体と製品
  6
Continuous
 62
     3
100
AcDbLine
 10
1792.591404387809
 20
784.7200649319399
 30
0.0
 11
1793.589881409394
 21
790.3827095117601
 31
0.0
  0
LINE
  5
70F7
330
1E
100
AcDbEntity
  8
躯体と製品
  6
Continuous
 62
     3
100
AcDbLine
 10
1792.388013434298
 20
789.325347998162
 30
0.0
 11
1791.895609557792
 21
789.4121720869954
 31
0.0
  0
LINE
  5
70F8
330
1E
100
AcDbEntity
  8
躯体と製品
  6
Continuous
 62
     3
100
AcDbLine
 10
1787.956378545743
 20
790.1067647976629
 30
0.0
 11
1787.463974669237
 21
790.1935888864963
 31
0.0
  0
LINE
  5
70F9
330
1E
100
AcDbEntity
  8
躯体と製品
  6
Continuous
 62
     3
100
AcDbLine
 10
1792.214365256631
 20
788.3405402451496
 30
0.0
 11
1791.721961380125
 21
788.4273643339829
 31
0.0
  0
LINE
  5
70FA
330
1E
100
AcDbEntity
  8
躯体と製品
  6
Continuous
 62
     3
100
AcDbLine
 10
1787.782730368076
 20
789.121957044651
 30
0.0
 11
1787.29032649157
 21
789.2087811334842
 31
0.0
  0
LINE
  5
70FB
330
1E
100
AcDbEntity
  8
躯体と製品
  6
Continuous
 62
     3
100
AcDbLine
 10
1785.556272165526
 20
785.1332408431066
 30
0.0
 11
1786.696227138309
 21
791.5982467554286
 31
0.0
  0
LINE
  5
70FC
330
1E
100
AcDbEntity
  8
躯体と製品
  6
Continuous
 62
     3
100
AcDbLine
 10
1785.06386828902
 20
784.7200649319399
 30
0.0
 11
1781.091404387809
 21
784.7200649319399
 31
0.0
  0
ARC
  5
70FD
330
1E
100
AcDbEntity
  8
躯体と製品
  6
Continuous
 62
     3
100
AcDbCircle
 10
1785.06386828902
 20
785.2200649319399
 30
0.0
 40
0.5
100
AcDbArc
 50
270.0
 51
350.0000000000025
  0
LINE
  5
70FE
330
1E
100
AcDbEntity
  8
躯体と製品
  6
Continuous
 62
     3
100
AcDbLine
 10
1787.110030942228
 20
785.3068890207733
 30
0.0
 11
1787.609082190409
 21
788.1371492916386
 31
0.0
  0
ARC
  5
70FF
330
1E
100
AcDbEntity
  8
躯体と製品
  6
Continuous
 62
     3
100
AcDbCircle
 10
1787.602434818734
 20
785.2200649319399
 30
0.0
 40
0.5
100
AcDbArc
 50
170.0000000000025
 51
270.0
  0
LINE
  5
7100
330
1E
100
AcDbEntity
  8
躯体と製品
  6
Continuous
 62
     3
100
AcDbLine
 10
1791.141118530898
 20
785.1332408431066
 30
0.0
 11
1791.548313202458
 21
787.4425565809709
 31
0.0
  0
LINE
  5
7101
330
1E
100
AcDbEntity
  8
躯体と製品
  6
Continuous
 62
     3
100
AcDbLine
 10
1790.648714654392
 20
784.7200649319399
 30
0.0
 11
1787.602434818734
 21
784.7200649319399
 31
0.0
  0
ARC
  5
7102
330
1E
100
AcDbEntity
  8
躯体と製品
  6
Continuous
 62
     3
100
AcDbCircle
 10
1790.648714654392
 20
785.2200649319399
 30
0.0
 40
0.5
100
AcDbArc
 50
270.0
 51
350.0000000000025
  0
ARC
  5
7103
330
1E
100
AcDbEntity
  8
躯体と製品
  6
DASHED1
 62
     7
100
AcDbCircle
 10
1758.591404387809
 20
741.72006493194
 30
0.0
 40
1.0
100
AcDbArc
 50
180.0
 51
270.0
  0
LINE
  5
7104
330
1E
100
AcDbEntity
  8
躯体と製品
  6
DASHED1
 62
     7
100
AcDbLine
 10
1755.466374387809
 20
742.95806893194
 30
0.0
 11
1759.651807387809
 21
742.22006493194
 31
0.0
  0
LINE
  5
7105
330
1E
100
AcDbEntity
  8
躯体と製品
  6
DASHED1
 62
     7
100
AcDbLine
 10
1758.041404387809
 20
772.92006493194
 30
0.0
 11
1766.141404387809
 21
772.92006493194
 31
0.0
  0
LINE
  5
7106
330
1E
100
AcDbEntity
  8
躯体と製品
  6
DASHED1
 62
     7
100
AcDbLine
 10
1757.341404387809
 20
772.2200649319399
 30
0.0
 11
1766.841404387809
 21
772.2200649319399
 31
0.0
  0
LINE
  5
7107
330
1E
100
AcDbEntity
  8
躯体と製品
  6
DASHED1
 62
     7
100
AcDbLine
 10
1768.716434387809
 20
742.95806893194
 30
0.0
 11
1766.841404387809
 21
753.59189093194
 31
0.0
  0
LINE
  5
7108
330
1E
100
AcDbEntity
  8
躯体と製品
  6
DASHED1
 62
     7
100
AcDbLine
 10
1762.591404387809
 20
753.2200649319399
 30
0.0
 11
1764.531001387809
 21
742.22006493194
 31
0.0
  0
LINE
  5
7109
330
1E
100
AcDbEntity
  8
躯体と製品
  6
DASHED1
 62
     7
100
AcDbLine
 10
1761.591404387809
 20
753.2200649319399
 30
0.0
 11
1759.651807387809
 21
742.22006493194
 31
0.0
  0
LINE
  5
710A
330
1E
100
AcDbEntity
  8
躯体と製品
  6
DASHED1
 62
     7
100
AcDbLine
 10
1768.716434387809
 20
742.95806893194
 30
0.0
 11
1764.531001387809
 21
742.22006493194
 31
0.0
  0
LINE
  5
710B
330
1E
100
AcDbEntity
  8
躯体と製品
  6
DASHED1
 62
     7
100
AcDbLine
 10
1766.591404387809
 20
741.72006493194
 30
0.0
 11
1766.591404387809
 21
742.5833689319399
 31
0.0
  0
ARC
  5
710C
330
1E
100
AcDbEntity
  8
躯体と製品
  6
DASHED1
 62
     7
100
AcDbCircle
 10
1765.591404387809
 20
741.72006493194
 30
0.0
 40
1.0
100
AcDbArc
 50
270.0
 51
0.0
  0
LINE
  5
710D
330
1E
100
AcDbEntity
  8
躯体と製品
  6
DASHED1
 62
     7
100
AcDbLine
 10
1765.591404387809
 20
740.7200649319399
 30
0.0
 11
1758.591404387809
 21
740.7200649319399
 31
0.0
  0
LINE
  5
710E
330
1E
100
AcDbEntity
  8
躯体と製品
  6
DASHED1
 62
     7
100
AcDbLine
 10
1766.841404387809
 20
753.59189093194
 30
0.0
 11
1766.841404387809
 21
772.2200649319399
 31
0.0
  0
LINE
  5
710F
330
1E
100
AcDbEntity
  8
躯体と製品
  6
DASHED1
 62
     7
100
AcDbLine
 10
1766.841404387809
 20
772.2200649319399
 30
0.0
 11
1766.141404387809
 21
772.92006493194
 31
0.0
  0
LINE
  5
7110
330
1E
100
AcDbEntity
  8
躯体と製品
  6
DASHED1
 62
     7
100
AcDbLine
 10
1761.591404387809
 20
753.2200649319399
 30
0.0
 11
1762.591404387809
 21
753.2200649319399
 31
0.0
  0
LINE
  5
7111
330
1E
100
AcDbEntity
  8
躯体と製品
  6
DASHED1
 62
     7
100
AcDbLine
 10
1755.466374387809
 20
742.95806893194
 30
0.0
 11
1757.341404387809
 21
753.59189093194
 31
0.0
  0
LINE
  5
7112
330
1E
100
AcDbEntity
  8
躯体と製品
  6
DASHED1
 62
     7
100
AcDbLine
 10
1757.591404387809
 20
741.72006493194
 30
0.0
 11
1757.591404387809
 21
742.5833689319399
 31
0.0
  0
LINE
  5
7113
330
1E
100
AcDbEntity
  8
躯体と製品
  6
DASHED1
 62
     7
100
AcDbLine
 10
1757.341404387809
 20
753.59189093194
 30
0.0
 11
1757.341404387809
 21
772.2200649319399
 31
0.0
  0
LINE
  5
7114
330
1E
100
AcDbEntity
  8
躯体と製品
  6
DASHED1
 62
     7
100
AcDbLine
 10
1757.341404387809
 20
772.2200649319399
 30
0.0
 11
1758.041404387809
 21
772.92006493194
 31
0.0
  0
LINE
  5
7115
330
1E
100
AcDbEntity
  8
躯体と製品
  6
DASHED1
 62
     7
100
AcDbLine
 10
1766.141404387809
 20
782.2200649319399
 30
0.0
 11
1766.141404387809
 21
772.92006493194
 31
0.0
  0
LINE
  5
7116
330
1E
100
AcDbEntity
  8
躯体と製品
  6
DASHED1
 62
     7
100
AcDbLine
 10
1758.041404387809
 20
782.2200649319399
 30
0.0
 11
1758.041404387809
 21
772.92006493194
 31
0.0
  0
LINE
  5
7117
330
1E
100
AcDbEntity
  8
躯体と製品
  6
Continuous
 62
     4
100
AcDbLine
 10
1747.091404387809
 20
780.7940874036355
 30
0.0
 11
1747.517381916114
 21
781.2200649319406
 31
0.0
  0
LINE
  5
7118
330
1E
100
AcDbEntity
  8
躯体と製品
  6
Continuous
 62
     4
100
AcDbLine
 10
1747.931595478487
 20
780.22006493194
 30
0.0
 11
1748.931595478487
 21
781.2200649319406
 31
0.0
  0
LINE
  5
7119
330
1E
100
AcDbEntity
  8
躯体と製品
  6
Continuous
 62
     4
100
AcDbLine
 10
1749.34580904086
 20
780.22006493194
 30
0.0
 11
1750.34580904086
 21
781.2200649319402
 31
0.0
  0
LINE
  5
711A
330
1E
100
AcDbEntity
  8
躯体と製品
  6
Continuous
 62
     4
100
AcDbLine
 10
1750.760022603234
 20
780.2200649319405
 30
0.0
 11
1751.760022603233
 21
781.2200649319402
 31
0.0
  0
LINE
  5
711B
330
1E
100
AcDbEntity
  8
躯体と製品
  6
Continuous
 62
     4
100
AcDbLine
 10
1752.174236165607
 20
780.2200649319402
 30
0.0
 11
1753.174236165607
 21
781.2200649319402
 31
0.0
  0
LINE
  5
711C
330
1E
100
AcDbEntity
  8
躯体と製品
  6
Continuous
 62
     4
100
AcDbLine
 10
1753.58844972798
 20
780.22006493194
 30
0.0
 11
1754.58844972798
 21
781.2200649319399
 31
0.0
  0
LINE
  5
711D
330
1E
100
AcDbEntity
  8
躯体と製品
  6
Continuous
 62
     4
100
AcDbLine
 10
1755.002663290353
 20
780.22006493194
 30
0.0
 11
1756.002663290353
 21
781.2200649319398
 31
0.0
  0
LINE
  5
711E
330
1E
100
AcDbEntity
  8
躯体と製品
  6
Continuous
 62
     4
100
AcDbLine
 10
1756.416876852725
 20
780.2200649319399
 30
0.0
 11
1757.416876852725
 21
781.2200649319399
 31
0.0
  0
LINE
  5
711F
330
1E
100
AcDbEntity
  8
躯体と製品
  6
Continuous
 62
     4
100
AcDbLine
 10
1757.831090415098
 20
780.2200649319397
 30
0.0
 11
1758.831090415098
 21
781.2200649319398
 31
0.0
  0
LINE
  5
7120
330
1E
100
AcDbEntity
  8
躯体と製品
  6
Continuous
 62
     4
100
AcDbLine
 10
1759.245303977471
 20
780.2200649319395
 30
0.0
 11
1760.245303977471
 21
781.2200649319398
 31
0.0
  0
LINE
  5
7121
330
1E
100
AcDbEntity
  8
躯体と製品
  6
Continuous
 62
     4
100
AcDbLine
 10
1760.659517539844
 20
780.2200649319392
 30
0.0
 11
1761.659517539845
 21
781.2200649319395
 31
0.0
  0
LINE
  5
7122
330
1E
100
AcDbEntity
  8
躯体と製品
  6
Continuous
 62
     4
100
AcDbLine
 10
1762.073731102218
 20
780.22006493194
 30
0.0
 11
1763.073731102218
 21
781.2200649319398
 31
0.0
  0
LINE
  5
7123
330
1E
100
AcDbEntity
  8
躯体と製品
  6
Continuous
 62
     4
100
AcDbLine
 10
1763.487944664592
 20
780.2200649319399
 30
0.0
 11
1764.487944664591
 21
781.2200649319395
 31
0.0
  0
LINE
  5
7124
330
1E
100
AcDbEntity
  8
躯体と製品
  6
Continuous
 62
     4
100
AcDbLine
 10
1764.902158226965
 20
780.2200649319399
 30
0.0
 11
1765.902158226964
 21
781.2200649319395
 31
0.0
  0
LINE
  5
7125
330
1E
100
AcDbEntity
  8
躯体と製品
  6
Continuous
 62
     4
100
AcDbLine
 10
1766.316371789338
 20
780.2200649319397
 30
0.0
 11
1767.316371789338
 21
781.2200649319391
 31
0.0
  0
LINE
  5
7126
330
1E
100
AcDbEntity
  8
躯体と製品
  6
Continuous
 62
     4
100
AcDbLine
 10
1767.73058535171
 20
780.22006493194
 30
0.0
 11
1768.73058535171
 21
781.2200649319403
 31
0.0
  0
LINE
  5
7127
330
1E
100
AcDbEntity
  8
躯体と製品
  6
Continuous
 62
     4
100
AcDbLine
 10
1769.144798914083
 20
780.22006493194
 30
0.0
 11
1770.144798914083
 21
781.2200649319402
 31
0.0
  0
LINE
  5
7128
330
1E
100
AcDbEntity
  8
躯体と製品
  6
Continuous
 62
     4
100
AcDbLine
 10
1770.559012476456
 20
780.2200649319399
 30
0.0
 11
1771.559012476457
 21
781.2200649319402
 31
0.0
  0
LINE
  5
7129
330
1E
100
AcDbEntity
  8
躯体と製品
  6
Continuous
 62
     4
100
AcDbLine
 10
1771.973226038829
 20
780.2200649319399
 30
0.0
 11
1772.97322603883
 21
781.2200649319399
 31
0.0
  0
LINE
  5
712A
330
1E
100
AcDbEntity
  8
躯体と製品
  6
Continuous
 62
     4
100
AcDbLine
 10
1773.387439601203
 20
780.22006493194
 30
0.0
 11
1774.387439601203
 21
781.2200649319398
 31
0.0
  0
LINE
  5
712B
330
1E
100
AcDbEntity
  8
躯体と製品
  6
Continuous
 62
     4
100
AcDbLine
 10
1774.801653163577
 20
780.2200649319405
 30
0.0
 11
1775.801653163577
 21
781.2200649319402
 31
0.0
  0
LINE
  5
712C
330
1E
100
AcDbEntity
  8
躯体と製品
  6
Continuous
 62
     4
100
AcDbLine
 10
1776.21586672595
 20
780.2200649319402
 30
0.0
 11
1777.091404387809
 21
781.0956025937993
 31
0.0
  0
LINE
  5
712D
330
1E
100
AcDbEntity
  8
躯体と製品
  6
Continuous
 62
     3
100
AcDbLine
 10
1777.091404387809
 20
780.22006493194
 30
0.0
 11
1747.091404387809
 21
780.22006493194
 31
0.0
  0
LINE
  5
712E
330
1E
100
AcDbEntity
  8
躯体と製品
  6
Continuous
 62
     3
100
AcDbLine
 10
1747.091404387809
 20
781.2200649319399
 30
0.0
 11
1777.091404387809
 21
781.2200649319399
 31
0.0
  0
LINE
  5
712F
330
1E
100
AcDbEntity
  8
躯体と製品
  6
Continuous
 62
     3
100
AcDbLine
 10
1777.091404387809
 20
781.2200649319399
 30
0.0
 11
1777.091404387809
 21
780.22006493194
 31
0.0
  0
LINE
  5
7130
330
1E
100
AcDbEntity
  8
躯体と製品
  6
Continuous
 62
     3
100
AcDbLine
 10
1747.091404387809
 20
780.22006493194
 30
0.0
 11
1747.091404387809
 21
781.2200649319399
 31
0.0
  0
LINE
  5
7131
330
1E
100
AcDbEntity
  8
躯体と製品
  6
Continuous
 62
     7
100
AcDbLine
 10
1762.091404387809
 20
781.2200649319399
 30
0.0
 11
1762.091404387809
 21
782.2200649319399
 31
0.0
  0
ARC
  5
7132
330
1E
100
AcDbEntity
  8
躯体と製品
  6
Continuous
 62
     7
100
AcDbCircle
 10
1662.091404387809
 20
779.22006493194
 30
0.0
 40
1.0
100
AcDbArc
 50
90.0
 51
175.0000000000005
  0
LINE
  5
7133
330
1E
100
AcDbEntity
  8
躯体と製品
  6
Continuous
 62
     7
100
AcDbLine
 10
1662.091404387809
 20
780.22006493194
 30
0.0
 11
1812.091404387809
 21
780.22006493194
 31
0.0
  0
LINE
  5
7134
330
1E
100
AcDbEntity
  8
躯体と製品
  6
Continuous
 62
     7
100
AcDbLine
 10
1662.091404387809
 20
780.22006493194
 30
0.0
 11
1662.091404387809
 21
640.2200649319401
 31
0.0
  0
LINE
  5
7135
330
1E
100
AcDbEntity
  8
躯体と製品
  6
Continuous
 62
     7
100
AcDbLine
 10
1512.091404387809
 20
780.22006493194
 30
0.0
 11
1512.091404387809
 21
640.2200649319401
 31
0.0
  0
LINE
  5
7136
330
1E
100
AcDbEntity
  8
躯体と製品
  6
Continuous
 62
     7
100
AcDbLine
 10
1812.091404387809
 20
780.22006493194
 30
0.0
 11
1812.091404387809
 21
640.2200649319401
 31
0.0
  0
LINE
  5
7143
330
1E
100
AcDbEntity
  8
躯体と製品
  6
Continuous
 62
     7
100
AcDbLine
 10
1487.091404387809
 20
780.22006493194
 30
0.0
 11
1512.091404387809
 21
780.22006493194
 31
0.0
  0
TEXT
  5
7144
330
1E
100
AcDbEntity
  8
図枠
 62
     7
100
AcDbText
 10
1512.091404387809
 20
424.72006493194
 30
0.0
 40
5.0
  1
ｔ1.0×ｗ30
100
AcDbText
  0
TEXT
  5
7145
330
1E
100
AcDbEntity
  8
図枠
 62
     7
100
AcDbText
 10
1512.091404387809
 20
541.72006493194
 30
0.0
 40
5.0
  1
150ＦＹＫＪ－350～550
100
AcDbText
  0
TEXT
  5
7146
330
1E
100
AcDbEntity
  8
図枠
 62
     7
100
AcDbText
 10
1512.091404387809
 20
568.7200649319398
 30
0.0
 40
5.0
  1
150ＦＹＫＨ－350～550
100
AcDbText
  0
TEXT
  5
7147
330
1E
100
AcDbEntity
  8
図枠
 62
     7
100
AcDbText
 10
1512.091404387809
 20
613.7200649319399
 30
0.0
 40
5.0
  1
150ＦＹＫ－Ａ350～550
100
AcDbText
  0
LINE
  5
7148
330
1E
100
AcDbEntity
  8
図枠
  6
Continuous
 62
     7
100
AcDbLine
 10
1953.091404387809
 20
630.2200649319399
 30
0.0
 11
1953.091404387809
 21
540.2200649319399
 31
0.0
  0
LINE
  5
7149
330
1E
100
AcDbEntity
  8
図枠
  6
Continuous
 62
     7
100
AcDbLine
 10
1923.091404387809
 20
630.2200649319399
 30
0.0
 11
1923.091404387809
 21
540.2200649319399
 31
0.0
  0
LINE
  5
714A
330
1E
100
AcDbEntity
  8
図枠
  6
Continuous
 62
     7
100
AcDbLine
 10
1893.091404387809
 20
630.2200649319399
 30
0.0
 11
1893.091404387809
 21
540.2200649319399
 31
0.0
  0
LINE
  5
714B
330
1E
100
AcDbEntity
  8
図枠
  6
Continuous
 62
     7
100
AcDbLine
 10
1983.091404387809
 20
630.2200649319399
 30
0.0
 11
1983.091404387809
 21
540.2200649319399
 31
0.0
  0
TEXT
  5
714C
330
1E
100
AcDbEntity
  8
図枠
 62
     7
100
AcDbText
 10
1963.091404387809
 20
541.72006493194
 30
0.0
 40
5.0
  1
130
100
AcDbText
  0
TEXT
  5
714D
330
1E
100
AcDbEntity
  8
図枠
 62
     7
100
AcDbText
 10
1934.841404387809
 20
541.72006493194
 30
0.0
 40
5.0
  1
71
100
AcDbText
  0
TEXT
  5
714E
330
1E
100
AcDbEntity
  8
図枠
 62
     7
100
AcDbText
 10
1963.091404387809
 20
550.72006493194
 30
0.0
 40
5.0
  1
128
100
AcDbText
  0
TEXT
  5
714F
330
1E
100
AcDbEntity
  8
図枠
 62
     7
100
AcDbText
 10
1963.091404387809
 20
559.7200649319399
 30
0.0
 40
5.0
  1
127
100
AcDbText
  0
TEXT
  5
7150
330
1E
100
AcDbEntity
  8
図枠
 62
     7
100
AcDbText
 10
1963.091404387809
 20
568.7200649319398
 30
0.0
 40
5.0
  1
126
100
AcDbText
  0
TEXT
  5
7151
330
1E
100
AcDbEntity
  8
図枠
 62
     7
100
AcDbText
 10
1963.091404387809
 20
577.7200649319398
 30
0.0
 40
5.0
  1
124
100
AcDbText
  0
TEXT
  5
7152
330
1E
100
AcDbEntity
  8
図枠
 62
     7
100
AcDbText
 10
1963.091404387809
 20
586.7200649319398
 30
0.0
 40
5.0
  1
123
100
AcDbText
  0
TEXT
  5
7153
330
1E
100
AcDbEntity
  8
図枠
 62
     7
100
AcDbText
 10
1963.091404387809
 20
595.7200649319398
 30
0.0
 40
5.0
  1
122
100
AcDbText
  0
TEXT
  5
7154
330
1E
100
AcDbEntity
  8
図枠
 62
     7
100
AcDbText
 10
1963.091404387809
 20
604.7200649319399
 30
0.0
 40
5.0
  1
121
100
AcDbText
  0
TEXT
  5
7155
330
1E
100
AcDbEntity
  8
図枠
 62
     7
100
AcDbText
 10
1963.091404387809
 20
613.7200649319399
 30
0.0
 40
5.0
  1
119
100
AcDbText
  0
TEXT
  5
7156
330
1E
100
AcDbEntity
  8
図枠
 62
     7
100
AcDbText
 10
1934.841404387809
 20
550.72006493194
 30
0.0
 40
5.0
  1
70
100
AcDbText
  0
TEXT
  5
7157
330
1E
100
AcDbEntity
  8
図枠
 62
     7
100
AcDbText
 10
1934.841404387809
 20
559.7200649319399
 30
0.0
 40
5.0
  1
68
100
AcDbText
  0
TEXT
  5
7158
330
1E
100
AcDbEntity
  8
図枠
 62
     7
100
AcDbText
 10
1934.841404387809
 20
568.7200649319398
 30
0.0
 40
5.0
  1
67
100
AcDbText
  0
TEXT
  5
7159
330
1E
100
AcDbEntity
  8
図枠
 62
     7
100
AcDbText
 10
1934.841404387809
 20
577.7200649319398
 30
0.0
 40
5.0
  1
66
100
AcDbText
  0
TEXT
  5
715A
330
1E
100
AcDbEntity
  8
図枠
 62
     7
100
AcDbText
 10
1934.841404387809
 20
586.7200649319398
 30
0.0
 40
5.0
  1
64
100
AcDbText
  0
TEXT
  5
715B
330
1E
100
AcDbEntity
  8
図枠
 62
     7
100
AcDbText
 10
1934.841404387809
 20
595.7200649319398
 30
0.0
 40
5.0
  1
63
100
AcDbText
  0
TEXT
  5
715C
330
1E
100
AcDbEntity
  8
図枠
 62
     7
100
AcDbText
 10
1934.841404387809
 20
604.7200649319399
 30
0.0
 40
5.0
  1
62
100
AcDbText
  0
TEXT
  5
715D
330
1E
100
AcDbEntity
  8
図枠
 62
     7
100
AcDbText
 10
1934.841404387809
 20
613.7200649319399
 30
0.0
 40
5.0
  1
61
100
AcDbText
  0
TEXT
  5
715E
330
1E
100
AcDbEntity
  8
図枠
 62
     7
100
AcDbText
 10
1903.091404387809
 20
541.72006493194
 30
0.0
 40
5.0
  1
300
100
AcDbText
  0
TEXT
  5
715F
330
1E
100
AcDbEntity
  8
図枠
 62
     7
100
AcDbText
 10
1903.091404387809
 20
550.72006493194
 30
0.0
 40
5.0
  1
275
100
AcDbText
  0
TEXT
  5
7160
330
1E
100
AcDbEntity
  8
図枠
 62
     7
100
AcDbText
 10
1903.091404387809
 20
559.7200649319399
 30
0.0
 40
5.0
  1
250
100
AcDbText
  0
TEXT
  5
7161
330
1E
100
AcDbEntity
  8
図枠
 62
     7
100
AcDbText
 10
1903.091404387809
 20
568.7200649319398
 30
0.0
 40
5.0
  1
225
100
AcDbText
  0
TEXT
  5
7162
330
1E
100
AcDbEntity
  8
図枠
 62
     7
100
AcDbText
 10
1903.091404387809
 20
577.7200649319398
 30
0.0
 40
5.0
  1
200
100
AcDbText
  0
TEXT
  5
7163
330
1E
100
AcDbEntity
  8
図枠
 62
     7
100
AcDbText
 10
1903.091404387809
 20
586.7200649319398
 30
0.0
 40
5.0
  1
175
100
AcDbText
  0
TEXT
  5
7164
330
1E
100
AcDbEntity
  8
図枠
 62
     7
100
AcDbText
 10
1903.091404387809
 20
595.7200649319398
 30
0.0
 40
5.0
  1
150
100
AcDbText
  0
TEXT
  5
7165
330
1E
100
AcDbEntity
  8
図枠
 62
     7
100
AcDbText
 10
1903.091404387809
 20
604.7200649319399
 30
0.0
 40
5.0
  1
125
100
AcDbText
  0
TEXT
  5
7166
330
1E
100
AcDbEntity
  8
図枠
 62
     7
100
AcDbText
 10
1903.091404387809
 20
613.7200649319399
 30
0.0
 40
5.0
  1
100
100
AcDbText
  0
TEXT
  5
7167
330
1E
100
AcDbEntity
  8
図枠
 62
     7
100
AcDbText
 10
1965.091404387809
 20
622.7200649319399
 30
0.0
 40
5.0
  1
Ｅ
100
AcDbText
  0
TEXT
  5
7168
330
1E
100
AcDbEntity
  8
図枠
 62
     7
100
AcDbText
 10
1935.091404387809
 20
622.7200649319399
 30
0.0
 40
5.0
  1
Ｄ
100
AcDbText
  0
TEXT
  5
7169
330
1E
100
AcDbEntity
  8
図枠
 62
     7
100
AcDbText
 10
1905.091404387809
 20
622.7200649319399
 30
0.0
 40
5.0
  1
Ｃ
100
AcDbText
  0
LINE
  5
716A
330
1E
100
AcDbEntity
  8
図枠
  6
Continuous
 62
     7
100
AcDbLine
 10
1983.091404387809
 20
540.2200649319399
 30
0.0
 11
1758.091404387809
 21
540.2200649319399
 31
0.0
  0
LINE
  5
716B
330
1E
100
AcDbEntity
  8
図枠
  6
Continuous
 62
     7
100
AcDbLine
 10
1983.091404387809
 20
549.2200649319399
 30
0.0
 11
1758.091404387809
 21
549.2200649319399
 31
0.0
  0
LINE
  5
716C
330
1E
100
AcDbEntity
  8
図枠
  6
Continuous
 62
     7
100
AcDbLine
 10
1983.091404387809
 20
558.22006493194
 30
0.0
 11
1758.091404387809
 21
558.22006493194
 31
0.0
  0
LINE
  5
716D
330
1E
100
AcDbEntity
  8
図枠
  6
Continuous
 62
     7
100
AcDbLine
 10
1983.091404387809
 20
567.2200649319399
 30
0.0
 11
1758.091404387809
 21
567.2200649319399
 31
0.0
  0
LINE
  5
716E
330
1E
100
AcDbEntity
  8
図枠
  6
Continuous
 62
     7
100
AcDbLine
 10
1983.091404387809
 20
576.2200649319399
 30
0.0
 11
1758.091404387809
 21
576.2200649319399
 31
0.0
  0
LINE
  5
716F
330
1E
100
AcDbEntity
  8
図枠
  6
Continuous
 62
     7
100
AcDbLine
 10
1983.091404387809
 20
585.2200649319398
 30
0.0
 11
1758.091404387809
 21
585.2200649319398
 31
0.0
  0
LINE
  5
7170
330
1E
100
AcDbEntity
  8
図枠
  6
Continuous
 62
     7
100
AcDbLine
 10
1983.091404387809
 20
603.2200649319398
 30
0.0
 11
1758.091404387809
 21
603.2200649319398
 31
0.0
  0
LINE
  5
7171
330
1E
100
AcDbEntity
  8
図枠
  6
Continuous
 62
     7
100
AcDbLine
 10
1983.091404387809
 20
621.2200649319399
 30
0.0
 11
1758.091404387809
 21
621.2200649319399
 31
0.0
  0
LINE
  5
7172
330
1E
100
AcDbEntity
  8
図枠
  6
Continuous
 62
     7
100
AcDbLine
 10
1983.091404387809
 20
612.22006493194
 30
0.0
 11
1758.091404387809
 21
612.22006493194
 31
0.0
  0
LINE
  5
7173
330
1E
100
AcDbEntity
  8
図枠
  6
Continuous
 62
     7
100
AcDbLine
 10
1983.091404387809
 20
594.2200649319398
 30
0.0
 11
1758.091404387809
 21
594.2200649319398
 31
0.0
  0
LINE
  5
7174
330
1E
100
AcDbEntity
  8
図枠
  6
Continuous
 62
     7
100
AcDbLine
 10
1833.091404387809
 20
630.2200649319399
 30
0.0
 11
1833.091404387809
 21
540.2200649319399
 31
0.0
  0
LINE
  5
7175
330
1E
100
AcDbEntity
  8
図枠
  6
Continuous
 62
     7
100
AcDbLine
 10
1863.091404387809
 20
630.2200649319399
 30
0.0
 11
1863.091404387809
 21
540.2200649319399
 31
0.0
  0
LINE
  5
7176
330
1E
100
AcDbEntity
  8
図枠
  6
Continuous
 62
     7
100
AcDbLine
 10
1758.091404387809
 20
630.2200649319399
 30
0.0
 11
1758.091404387809
 21
540.2200649319399
 31
0.0
  0
TEXT
  5
7177
330
1E
100
AcDbEntity
  8
図枠
 62
     7
100
AcDbText
 10
1873.091404387809
 20
541.72006493194
 30
0.0
 40
5.0
  1
535
100
AcDbText
  0
TEXT
  5
7178
330
1E
100
AcDbEntity
  8
図枠
 62
     7
100
AcDbText
 10
1767.841404387809
 20
541.72006493194
 30
0.0
 40
5.0
  1
　　  〃　 　550
100
AcDbText
  0
TEXT
  5
7179
330
1E
100
AcDbEntity
  8
図枠
 62
     7
100
AcDbText
 10
1843.091404387809
 20
541.72006493194
 30
0.0
 40
5.0
  1
550
100
AcDbText
  0
TEXT
  5
717A
330
1E
100
AcDbEntity
  8
図枠
 62
     7
100
AcDbText
 10
1873.091404387809
 20
550.72006493194
 30
0.0
 40
5.0
  1
510
100
AcDbText
  0
TEXT
  5
717B
330
1E
100
AcDbEntity
  8
図枠
 62
     7
100
AcDbText
 10
1873.091404387809
 20
559.7200649319399
 30
0.0
 40
5.0
  1
485
100
AcDbText
  0
TEXT
  5
717C
330
1E
100
AcDbEntity
  8
図枠
 62
     7
100
AcDbText
 10
1873.091404387809
 20
568.7200649319398
 30
0.0
 40
5.0
  1
460
100
AcDbText
  0
TEXT
  5
717D
330
1E
100
AcDbEntity
  8
図枠
 62
     7
100
AcDbText
 10
1873.091404387809
 20
577.7200649319398
 30
0.0
 40
5.0
  1
435
100
AcDbText
  0
TEXT
  5
717E
330
1E
100
AcDbEntity
  8
図枠
 62
     7
100
AcDbText
 10
1873.091404387809
 20
586.7200649319398
 30
0.0
 40
5.0
  1
410
100
AcDbText
  0
TEXT
  5
717F
330
1E
100
AcDbEntity
  8
図枠
 62
     7
100
AcDbText
 10
1873.091404387809
 20
595.7200649319398
 30
0.0
 40
5.0
  1
385
100
AcDbText
  0
TEXT
  5
7180
330
1E
100
AcDbEntity
  8
図枠
 62
     7
100
AcDbText
 10
1873.091404387809
 20
604.7200649319399
 30
0.0
 40
5.0
  1
360
100
AcDbText
  0
TEXT
  5
7181
330
1E
100
AcDbEntity
  8
図枠
 62
     7
100
AcDbText
 10
1873.091404387809
 20
613.7200649319399
 30
0.0
 40
5.0
  1
335
100
AcDbText
  0
TEXT
  5
7182
330
1E
100
AcDbEntity
  8
図枠
 62
     7
100
AcDbText
 10
1843.091404387809
 20
550.72006493194
 30
0.0
 40
5.0
  1
525
100
AcDbText
  0
TEXT
  5
7183
330
1E
100
AcDbEntity
  8
図枠
 62
     7
100
AcDbText
 10
1843.091404387809
 20
559.7200649319399
 30
0.0
 40
5.0
  1
500
100
AcDbText
  0
TEXT
  5
7184
330
1E
100
AcDbEntity
  8
図枠
 62
     7
100
AcDbText
 10
1843.091404387809
 20
568.7200649319398
 30
0.0
 40
5.0
  1
475
100
AcDbText
  0
TEXT
  5
7185
330
1E
100
AcDbEntity
  8
図枠
 62
     7
100
AcDbText
 10
1843.091404387809
 20
577.7200649319398
 30
0.0
 40
5.0
  1
450
100
AcDbText
  0
TEXT
  5
7186
330
1E
100
AcDbEntity
  8
図枠
 62
     7
100
AcDbText
 10
1843.091404387809
 20
586.7200649319398
 30
0.0
 40
5.0
  1
425
100
AcDbText
  0
TEXT
  5
7187
330
1E
100
AcDbEntity
  8
図枠
 62
     7
100
AcDbText
 10
1843.091404387809
 20
595.7200649319398
 30
0.0
 40
5.0
  1
400
100
AcDbText
  0
TEXT
  5
7188
330
1E
100
AcDbEntity
  8
図枠
 62
     7
100
AcDbText
 10
1843.091404387809
 20
604.7200649319399
 30
0.0
 40
5.0
  1
375
100
AcDbText
  0
TEXT
  5
7189
330
1E
100
AcDbEntity
  8
図枠
 62
     7
100
AcDbText
 10
1843.091404387809
 20
613.7200649319399
 30
0.0
 40
5.0
  1
350
100
AcDbText
  0
TEXT
  5
718A
330
1E
100
AcDbEntity
  8
図枠
 62
     7
100
AcDbText
 10
1767.841404387809
 20
550.72006493194
 30
0.0
 40
5.0
  1
　　  〃　 　525
100
AcDbText
  0
TEXT
  5
718B
330
1E
100
AcDbEntity
  8
図枠
 62
     7
100
AcDbText
 10
1767.841404387809
 20
559.7200649319399
 30
0.0
 40
5.0
  1
　　  〃　 　500
100
AcDbText
  0
TEXT
  5
718C
330
1E
100
AcDbEntity
  8
図枠
 62
     7
100
AcDbText
 10
1767.841404387809
 20
568.7200649319398
 30
0.0
 40
5.0
  1
　　  〃　 　475
100
AcDbText
  0
TEXT
  5
718D
330
1E
100
AcDbEntity
  8
図枠
 62
     7
100
AcDbText
 10
1767.841404387809
 20
577.7200649319398
 30
0.0
 40
5.0
  1
　　  〃　 　450
100
AcDbText
  0
TEXT
  5
718E
330
1E
100
AcDbEntity
  8
図枠
 62
     7
100
AcDbText
 10
1767.841404387809
 20
586.7200649319398
 30
0.0
 40
5.0
  1
　　  〃　 　425
100
AcDbText
  0
TEXT
  5
718F
330
1E
100
AcDbEntity
  8
図枠
 62
     7
100
AcDbText
 10
1767.841404387809
 20
595.7200649319398
 30
0.0
 40
5.0
  1
　　  〃　 　400
100
AcDbText
  0
TEXT
  5
7190
330
1E
100
AcDbEntity
  8
図枠
 62
     7
100
AcDbText
 10
1767.841404387809
 20
604.7200649319399
 30
0.0
 40
5.0
  1
　　  〃　 　375
100
AcDbText
  0
TEXT
  5
7191
330
1E
100
AcDbEntity
  8
図枠
 62
     7
100
AcDbText
 10
1767.841404387809
 20
613.7200649319399
 30
0.0
 40
5.0
  1
150ＦＹＫ－Ａ350
100
AcDbText
  0
TEXT
  5
7192
330
1E
100
AcDbEntity
  8
図枠
 62
     7
100
AcDbText
 10
1845.091404387809
 20
622.7200649319399
 30
0.0
 40
5.0
  1
Ｗ
100
AcDbText
  0
TEXT
  5
7193
330
1E
100
AcDbEntity
  8
図枠
 62
     7
100
AcDbText
 10
1875.091404387809
 20
622.7200649319399
 30
0.0
 40
5.0
  1
Ａ
100
AcDbText
  0
TEXT
  5
7194
330
1E
100
AcDbEntity
  8
図枠
 62
     7
100
AcDbText
 10
1778.591404387809
 20
622.7200649319399
 30
0.0
 40
5.0
  1
タ　イ　プ
100
AcDbText
  0
TEXT
  5
7195
330
1E
100
AcDbEntity
  8
図枠
 62
     7
100
AcDbText
 10
1656.591404387809
 20
622.7200649319399
 30
0.0
 40
5.0
  1
単位
100
AcDbText
  0
TEXT
  5
7196
330
1E
100
AcDbEntity
  8
図枠
 62
     7
100
AcDbText
 10
1724.591404387809
 20
622.7200649319399
 30
0.0
 40
5.0
  1
単位
100
AcDbText
  0
TEXT
  5
7197
330
1E
100
AcDbEntity
  8
図枠
 62
     7
100
AcDbText
 10
1728.091404387809
 20
424.72006493194
 30
0.0
 40
5.0
  1
巻
100
AcDbText
  0
TEXT
  5
7198
330
1E
100
AcDbEntity
  8
図枠
 62
     7
100
AcDbText
 10
1728.091404387809
 20
433.72006493194
 30
0.0
 40
5.0
  1
〃
100
AcDbText
  0
TEXT
  5
7199
330
1E
100
AcDbEntity
  8
図枠
 62
     7
100
AcDbText
 10
1728.091404387809
 20
442.72006493194
 30
0.0
 40
5.0
  1
枚
100
AcDbText
  0
TEXT
  5
719A
330
1E
100
AcDbEntity
  8
図枠
 62
     7
100
AcDbText
 10
1728.091404387809
 20
451.72006493194
 30
0.0
 40
5.0
  1
〃
100
AcDbText
  0
TEXT
  5
719B
330
1E
100
AcDbEntity
  8
図枠
 62
     7
100
AcDbText
 10
1728.091404387809
 20
460.72006493194
 30
0.0
 40
5.0
  1
〃
100
AcDbText
  0
TEXT
  5
719C
330
1E
100
AcDbEntity
  8
図枠
 62
     7
100
AcDbText
 10
1728.091404387809
 20
469.72006493194
 30
0.0
 40
5.0
  1
〃
100
AcDbText
  0
TEXT
  5
719D
330
1E
100
AcDbEntity
  8
図枠
 62
     7
100
AcDbText
 10
1728.091404387809
 20
478.72006493194
 30
0.0
 40
5.0
  1
〃
100
AcDbText
  0
TEXT
  5
719E
330
1E
100
AcDbEntity
  8
図枠
 62
     7
100
AcDbText
 10
1728.091404387809
 20
487.72006493194
 30
0.0
 40
5.0
  1
〃
100
AcDbText
  0
TEXT
  5
719F
330
1E
100
AcDbEntity
  8
図枠
 62
     7
100
AcDbText
 10
1728.091404387809
 20
496.72006493194
 30
0.0
 40
5.0
  1
〃
100
AcDbText
  0
TEXT
  5
71A0
330
1E
100
AcDbEntity
  8
図枠
 62
     7
100
AcDbText
 10
1728.091404387809
 20
505.7200649319399
 30
0.0
 40
5.0
  1
本
100
AcDbText
  0
TEXT
  5
71A1
330
1E
100
AcDbEntity
  8
図枠
 62
     7
100
AcDbText
 10
1728.091404387809
 20
514.7200649319399
 30
0.0
 40
5.0
  1
〃
100
AcDbText
  0
TEXT
  5
71A2
330
1E
100
AcDbEntity
  8
図枠
 62
     7
100
AcDbText
 10
1728.091404387809
 20
523.7200649319399
 30
0.0
 40
5.0
  1
枚
100
AcDbText
  0
TEXT
  5
71A3
330
1E
100
AcDbEntity
  8
図枠
 62
     7
100
AcDbText
 10
1728.091404387809
 20
532.72006493194
 30
0.0
 40
5.0
  1
〃
100
AcDbText
  0
TEXT
  5
71A4
330
1E
100
AcDbEntity
  8
図枠
 62
     7
100
AcDbText
 10
1728.091404387809
 20
541.72006493194
 30
0.0
 40
5.0
  1
〃
100
AcDbText
  0
TEXT
  5
71A5
330
1E
100
AcDbEntity
  8
図枠
 62
     7
100
AcDbText
 10
1728.091404387809
 20
550.72006493194
 30
0.0
 40
5.0
  1
〃
100
AcDbText
  0
TEXT
  5
71A6
330
1E
100
AcDbEntity
  8
図枠
 62
     7
100
AcDbText
 10
1728.091404387809
 20
559.7200649319399
 30
0.0
 40
5.0
  1
〃
100
AcDbText
  0
TEXT
  5
71A7
330
1E
100
AcDbEntity
  8
図枠
 62
     7
100
AcDbText
 10
1728.091404387809
 20
568.7200649319398
 30
0.0
 40
5.0
  1
〃
100
AcDbText
  0
TEXT
  5
71A8
330
1E
100
AcDbEntity
  8
図枠
 62
     7
100
AcDbText
 10
1728.091404387809
 20
577.7200649319398
 30
0.0
 40
5.0
  1
〃
100
AcDbText
  0
TEXT
  5
71A9
330
1E
100
AcDbEntity
  8
図枠
 62
     7
100
AcDbText
 10
1728.091404387809
 20
586.7200649319398
 30
0.0
 40
5.0
  1
〃
100
AcDbText
  0
TEXT
  5
71AA
330
1E
100
AcDbEntity
  8
図枠
 62
     7
100
AcDbText
 10
1728.091404387809
 20
595.7200649319398
 30
0.0
 40
5.0
  1
〃
100
AcDbText
  0
TEXT
  5
71AB
330
1E
100
AcDbEntity
  8
図枠
 62
     7
100
AcDbText
 10
1728.091404387809
 20
604.7200649319399
 30
0.0
 40
5.0
  1
〃
100
AcDbText
  0
TEXT
  5
71AC
330
1E
100
AcDbEntity
  8
図枠
 62
     7
100
AcDbText
 10
1728.091404387809
 20
613.7200649319399
 30
0.0
 40
5.0
  1
本
100
AcDbText
  0
TEXT
  5
71AD
330
1E
100
AcDbEntity
  8
図枠
 62
     7
100
AcDbText
 10
1660.091404387809
 20
424.72006493194
 30
0.0
 40
5.0
  1
巻
100
AcDbText
  0
TEXT
  5
71AE
330
1E
100
AcDbEntity
  8
図枠
 62
     7
100
AcDbText
 10
1660.091404387809
 20
433.72006493194
 30
0.0
 40
5.0
  1
〃
100
AcDbText
  0
TEXT
  5
71AF
330
1E
100
AcDbEntity
  8
図枠
 62
     7
100
AcDbText
 10
1660.091404387809
 20
442.72006493194
 30
0.0
 40
5.0
  1
枚
100
AcDbText
  0
TEXT
  5
71B0
330
1E
100
AcDbEntity
  8
図枠
 62
     7
100
AcDbText
 10
1660.091404387809
 20
451.72006493194
 30
0.0
 40
5.0
  1
〃
100
AcDbText
  0
TEXT
  5
71B1
330
1E
100
AcDbEntity
  8
図枠
 62
     7
100
AcDbText
 10
1660.091404387809
 20
460.72006493194
 30
0.0
 40
5.0
  1
〃
100
AcDbText
  0
TEXT
  5
71B2
330
1E
100
AcDbEntity
  8
図枠
 62
     7
100
AcDbText
 10
1660.091404387809
 20
469.72006493194
 30
0.0
 40
5.0
  1
〃
100
AcDbText
  0
TEXT
  5
71B3
330
1E
100
AcDbEntity
  8
図枠
 62
     7
100
AcDbText
 10
1660.091404387809
 20
478.72006493194
 30
0.0
 40
5.0
  1
〃
100
AcDbText
  0
TEXT
  5
71B4
330
1E
100
AcDbEntity
  8
図枠
 62
     7
100
AcDbText
 10
1660.091404387809
 20
487.72006493194
 30
0.0
 40
5.0
  1
〃
100
AcDbText
  0
TEXT
  5
71B5
330
1E
100
AcDbEntity
  8
図枠
 62
     7
100
AcDbText
 10
1660.091404387809
 20
496.72006493194
 30
0.0
 40
5.0
  1
〃
100
AcDbText
  0
TEXT
  5
71B6
330
1E
100
AcDbEntity
  8
図枠
 62
     7
100
AcDbText
 10
1660.091404387809
 20
505.7200649319399
 30
0.0
 40
5.0
  1
本
100
AcDbText
  0
TEXT
  5
71B7
330
1E
100
AcDbEntity
  8
図枠
 62
     7
100
AcDbText
 10
1660.091404387809
 20
514.7200649319399
 30
0.0
 40
5.0
  1
〃
100
AcDbText
  0
TEXT
  5
71B8
330
1E
100
AcDbEntity
  8
図枠
 62
     7
100
AcDbText
 10
1660.091404387809
 20
523.7200649319399
 30
0.0
 40
5.0
  1
枚
100
AcDbText
  0
TEXT
  5
71B9
330
1E
100
AcDbEntity
  8
図枠
 62
     7
100
AcDbText
 10
1660.091404387809
 20
532.72006493194
 30
0.0
 40
5.0
  1
〃
100
AcDbText
  0
TEXT
  5
71BA
330
1E
100
AcDbEntity
  8
図枠
 62
     7
100
AcDbText
 10
1660.091404387809
 20
541.72006493194
 30
0.0
 40
5.0
  1
〃
100
AcDbText
  0
TEXT
  5
71BB
330
1E
100
AcDbEntity
  8
図枠
 62
     7
100
AcDbText
 10
1660.091404387809
 20
550.72006493194
 30
0.0
 40
5.0
  1
〃
100
AcDbText
  0
TEXT
  5
71BC
330
1E
100
AcDbEntity
  8
図枠
 62
     7
100
AcDbText
 10
1660.091404387809
 20
559.7200649319399
 30
0.0
 40
5.0
  1
〃
100
AcDbText
  0
TEXT
  5
71BD
330
1E
100
AcDbEntity
  8
図枠
 62
     7
100
AcDbText
 10
1660.091404387809
 20
568.7200649319398
 30
0.0
 40
5.0
  1
〃
100
AcDbText
  0
TEXT
  5
71BE
330
1E
100
AcDbEntity
  8
図枠
 62
     7
100
AcDbText
 10
1660.091404387809
 20
577.7200649319398
 30
0.0
 40
5.0
  1
〃
100
AcDbText
  0
TEXT
  5
71BF
330
1E
100
AcDbEntity
  8
図枠
 62
     7
100
AcDbText
 10
1660.091404387809
 20
586.7200649319398
 30
0.0
 40
5.0
  1
〃
100
AcDbText
  0
TEXT
  5
71C0
330
1E
100
AcDbEntity
  8
図枠
 62
     7
100
AcDbText
 10
1660.091404387809
 20
595.7200649319398
 30
0.0
 40
5.0
  1
〃
100
AcDbText
  0
TEXT
  5
71C1
330
1E
100
AcDbEntity
  8
図枠
 62
     7
100
AcDbText
 10
1660.091404387809
 20
604.7200649319399
 30
0.0
 40
5.0
  1
〃
100
AcDbText
  0
TEXT
  5
71C2
330
1E
100
AcDbEntity
  8
図枠
 62
     7
100
AcDbText
 10
1660.091404387809
 20
613.7200649319399
 30
0.0
 40
5.0
  1
本
100
AcDbText
  0
TEXT
  5
71C3
330
1E
100
AcDbEntity
  8
図枠
 62
     7
100
AcDbText
 10
1711.841404387809
 20
424.72006493194
 30
0.0
 40
5.0
  1
 1
100
AcDbText
  0
TEXT
  5
71C4
330
1E
100
AcDbEntity
  8
図枠
 62
     7
100
AcDbText
 10
1711.841404387809
 20
433.72006493194
 30
0.0
 40
5.0
  1
 5
100
AcDbText
  0
TEXT
  5
71C5
330
1E
100
AcDbEntity
  8
図枠
 62
     7
100
AcDbText
 10
1711.841404387809
 20
442.72006493194
 30
0.0
 40
5.0
  1
 5
100
AcDbText
  0
TEXT
  5
71C6
330
1E
100
AcDbEntity
  8
図枠
 62
     7
100
AcDbText
 10
1711.841404387809
 20
451.72006493194
 30
0.0
 40
5.0
  1
 5
100
AcDbText
  0
TEXT
  5
71C7
330
1E
100
AcDbEntity
  8
図枠
 62
     7
100
AcDbText
 10
1711.841404387809
 20
460.72006493194
 30
0.0
 40
5.0
  1
 5
100
AcDbText
  0
TEXT
  5
71C8
330
1E
100
AcDbEntity
  8
図枠
 62
     7
100
AcDbText
 10
1711.841404387809
 20
469.72006493194
 30
0.0
 40
5.0
  1
 5
100
AcDbText
  0
TEXT
  5
71C9
330
1E
100
AcDbEntity
  8
図枠
 62
     7
100
AcDbText
 10
1711.841404387809
 20
478.72006493194
 30
0.0
 40
5.0
  1
 5
100
AcDbText
  0
TEXT
  5
71CA
330
1E
100
AcDbEntity
  8
図枠
 62
     7
100
AcDbText
 10
1711.841404387809
 20
487.72006493194
 30
0.0
 40
5.0
  1
 5
100
AcDbText
  0
TEXT
  5
71CB
330
1E
100
AcDbEntity
  8
図枠
 62
     7
100
AcDbText
 10
1711.841404387809
 20
496.72006493194
 30
0.0
 40
5.0
  1
 4
100
AcDbText
  0
TEXT
  5
71CC
330
1E
100
AcDbEntity
  8
図枠
 62
     7
100
AcDbText
 10
1711.841404387809
 20
505.7200649319399
 30
0.0
 40
5.0
  1
 1
100
AcDbText
  0
TEXT
  5
71CD
330
1E
100
AcDbEntity
  8
図枠
 62
     7
100
AcDbText
 10
1711.841404387809
 20
514.7200649319399
 30
0.0
 40
5.0
  1
 1
100
AcDbText
  0
TEXT
  5
71CE
330
1E
100
AcDbEntity
  8
図枠
 62
     7
100
AcDbText
 10
1711.841404387809
 20
523.7200649319399
 30
0.0
 40
5.0
  1
 1
100
AcDbText
  0
TEXT
  5
71CF
330
1E
100
AcDbEntity
  8
図枠
 62
     7
100
AcDbText
 10
1711.841404387809
 20
532.72006493194
 30
0.0
 40
5.0
  1
 1
100
AcDbText
  0
TEXT
  5
71D0
330
1E
100
AcDbEntity
  8
図枠
 62
     7
100
AcDbText
 10
1711.841404387809
 20
541.72006493194
 30
0.0
 40
5.0
  1
 1
100
AcDbText
  0
TEXT
  5
71D1
330
1E
100
AcDbEntity
  8
図枠
 62
     7
100
AcDbText
 10
1711.841404387809
 20
550.72006493194
 30
0.0
 40
5.0
  1
 4
100
AcDbText
  0
TEXT
  5
71D2
330
1E
100
AcDbEntity
  8
図枠
 62
     7
100
AcDbText
 10
1711.841404387809
 20
559.7200649319399
 30
0.0
 40
5.0
  1
 4
100
AcDbText
  0
TEXT
  5
71D3
330
1E
100
AcDbEntity
  8
図枠
 62
     7
100
AcDbText
 10
1711.841404387809
 20
568.7200649319398
 30
0.0
 40
5.0
  1
 4
100
AcDbText
  0
TEXT
  5
71D4
330
1E
100
AcDbEntity
  8
図枠
 62
     7
100
AcDbText
 10
1711.841404387809
 20
577.7200649319398
 30
0.0
 40
5.0
  1
 1
100
AcDbText
  0
TEXT
  5
71D5
330
1E
100
AcDbEntity
  8
図枠
 62
     7
100
AcDbText
 10
1711.841404387809
 20
586.7200649319398
 30
0.0
 40
5.0
  1
 1
100
AcDbText
  0
TEXT
  5
71D6
330
1E
100
AcDbEntity
  8
図枠
 62
     7
100
AcDbText
 10
1711.841404387809
 20
595.7200649319398
 30
0.0
 40
5.0
  1
 1
100
AcDbText
  0
TEXT
  5
71D7
330
1E
100
AcDbEntity
  8
図枠
 62
     7
100
AcDbText
 10
1711.841404387809
 20
604.7200649319399
 30
0.0
 40
5.0
  1
 1
100
AcDbText
  0
TEXT
  5
71D8
330
1E
100
AcDbEntity
  8
図枠
 62
     7
100
AcDbText
 10
1711.841404387809
 20
613.7200649319399
 30
0.0
 40
5.0
  1
 1
100
AcDbText
  0
TEXT
  5
71D9
330
1E
100
AcDbEntity
  8
図枠
 62
     7
100
AcDbText
 10
1708.591404387809
 20
622.7200649319399
 30
0.0
 40
5.0
  1
入数
100
AcDbText
  0
TEXT
  5
71DA
330
1E
100
AcDbEntity
  8
図枠
 62
     7
100
AcDbText
 10
1643.841404387809
 20
424.72006493194
 30
0.0
 40
5.0
  1
 1
100
AcDbText
  0
TEXT
  5
71DB
330
1E
100
AcDbEntity
  8
図枠
 62
     7
100
AcDbText
 10
1643.841404387809
 20
433.72006493194
 30
0.0
 40
5.0
  1
 6
100
AcDbText
  0
TEXT
  5
71DC
330
1E
100
AcDbEntity
  8
図枠
 62
     7
100
AcDbText
 10
1643.841404387809
 20
442.72006493194
 30
0.0
 40
5.0
  1
 6
100
AcDbText
  0
TEXT
  5
71DD
330
1E
100
AcDbEntity
  8
図枠
 62
     7
100
AcDbText
 10
1643.841404387809
 20
451.72006493194
 30
0.0
 40
5.0
  1
 6
100
AcDbText
  0
TEXT
  5
71DE
330
1E
100
AcDbEntity
  8
図枠
 62
     7
100
AcDbText
 10
1643.841404387809
 20
460.72006493194
 30
0.0
 40
5.0
  1
 6
100
AcDbText
  0
TEXT
  5
71DF
330
1E
100
AcDbEntity
  8
図枠
 62
     7
100
AcDbText
 10
1643.841404387809
 20
469.72006493194
 30
0.0
 40
5.0
  1
 6
100
AcDbText
  0
TEXT
  5
71E0
330
1E
100
AcDbEntity
  8
図枠
 62
     7
100
AcDbText
 10
1643.841404387809
 20
478.72006493194
 30
0.0
 40
5.0
  1
 6
100
AcDbText
  0
TEXT
  5
71E1
330
1E
100
AcDbEntity
  8
図枠
 62
     7
100
AcDbText
 10
1643.841404387809
 20
487.72006493194
 30
0.0
 40
5.0
  1
 6
100
AcDbText
  0
TEXT
  5
71E2
330
1E
100
AcDbEntity
  8
図枠
 62
     7
100
AcDbText
 10
1643.841404387809
 20
496.72006493194
 30
0.0
 40
5.0
  1
 6
100
AcDbText
  0
TEXT
  5
71E3
330
1E
100
AcDbEntity
  8
図枠
 62
     7
100
AcDbText
 10
1643.841404387809
 20
505.7200649319399
 30
0.0
 40
5.0
  1
 1
100
AcDbText
  0
TEXT
  5
71E4
330
1E
100
AcDbEntity
  8
図枠
 62
     7
100
AcDbText
 10
1643.841404387809
 20
514.7200649319399
 30
0.0
 40
5.0
  1
 1
100
AcDbText
  0
TEXT
  5
71E5
330
1E
100
AcDbEntity
  8
図枠
 62
     7
100
AcDbText
 10
1643.841404387809
 20
523.7200649319399
 30
0.0
 40
5.0
  1
 1
100
AcDbText
  0
TEXT
  5
71E6
330
1E
100
AcDbEntity
  8
図枠
 62
     7
100
AcDbText
 10
1643.841404387809
 20
532.72006493194
 30
0.0
 40
5.0
  1
 1
100
AcDbText
  0
TEXT
  5
71E7
330
1E
100
AcDbEntity
  8
図枠
 62
     7
100
AcDbText
 10
1643.841404387809
 20
541.72006493194
 30
0.0
 40
5.0
  1
 1
100
AcDbText
  0
TEXT
  5
71E8
330
1E
100
AcDbEntity
  8
図枠
 62
     7
100
AcDbText
 10
1643.841404387809
 20
550.72006493194
 30
0.0
 40
5.0
  1
 6
100
AcDbText
  0
TEXT
  5
71E9
330
1E
100
AcDbEntity
  8
図枠
 62
     7
100
AcDbText
 10
1643.841404387809
 20
559.7200649319399
 30
0.0
 40
5.0
  1
 6
100
AcDbText
  0
TEXT
  5
71EA
330
1E
100
AcDbEntity
  8
図枠
 62
     7
100
AcDbText
 10
1643.841404387809
 20
568.7200649319398
 30
0.0
 40
5.0
  1
 6
100
AcDbText
  0
TEXT
  5
71EB
330
1E
100
AcDbEntity
  8
図枠
 62
     7
100
AcDbText
 10
1643.841404387809
 20
577.7200649319398
 30
0.0
 40
5.0
  1
 1
100
AcDbText
  0
TEXT
  5
71EC
330
1E
100
AcDbEntity
  8
図枠
 62
     7
100
AcDbText
 10
1643.841404387809
 20
586.7200649319398
 30
0.0
 40
5.0
  1
 1
100
AcDbText
  0
TEXT
  5
71ED
330
1E
100
AcDbEntity
  8
図枠
 62
     7
100
AcDbText
 10
1643.841404387809
 20
595.7200649319398
 30
0.0
 40
5.0
  1
 1
100
AcDbText
  0
TEXT
  5
71EE
330
1E
100
AcDbEntity
  8
図枠
 62
     7
100
AcDbText
 10
1643.841404387809
 20
604.7200649319399
 30
0.0
 40
5.0
  1
 1
100
AcDbText
  0
TEXT
  5
71EF
330
1E
100
AcDbEntity
  8
図枠
 62
     7
100
AcDbText
 10
1643.841404387809
 20
613.7200649319399
 30
0.0
 40
5.0
  1
 1
100
AcDbText
  0
TEXT
  5
71F0
330
1E
100
AcDbEntity
  8
図枠
 62
     7
100
AcDbText
 10
1640.591404387809
 20
622.7200649319399
 30
0.0
 40
5.0
  1
入数
100
AcDbText
  0
TEXT
  5
71F1
330
1E
100
AcDbEntity
  8
図枠
 62
     7
100
AcDbText
 10
1681.841404387809
 20
424.72006493194
 30
0.0
 40
5.0
  1
6000
100
AcDbText
  0
TEXT
  5
71F2
330
1E
100
AcDbEntity
  8
図枠
 62
     7
100
AcDbText
 10
1681.841404387809
 20
505.7200649319399
 30
0.0
 40
5.0
  1
2000
100
AcDbText
  0
TEXT
  5
71F3
330
1E
100
AcDbEntity
  8
図枠
 62
     7
100
AcDbText
 10
1681.841404387809
 20
514.7200649319399
 30
0.0
 40
5.0
  1
2100
100
AcDbText
  0
TEXT
  5
71F4
330
1E
100
AcDbEntity
  8
図枠
 62
     7
100
AcDbText
 10
1681.841404387809
 20
523.7200649319399
 30
0.0
 40
5.0
  1
2060
100
AcDbText
  0
TEXT
  5
71F5
330
1E
100
AcDbEntity
  8
図枠
 62
     7
100
AcDbText
 10
1681.841404387809
 20
577.7200649319398
 30
0.0
 40
5.0
  1
2010
100
AcDbText
  0
TEXT
  5
71F6
330
1E
100
AcDbEntity
  8
図枠
 62
     7
100
AcDbText
 10
1681.841404387809
 20
586.7200649319398
 30
0.0
 40
5.0
  1
2000
100
AcDbText
  0
TEXT
  5
71F7
330
1E
100
AcDbEntity
  8
図枠
 62
     7
100
AcDbText
 10
1681.841404387809
 20
595.7200649319398
 30
0.0
 40
5.0
  1
2000
100
AcDbText
  0
TEXT
  5
71F8
330
1E
100
AcDbEntity
  8
図枠
 62
     7
100
AcDbText
 10
1681.841404387809
 20
604.7200649319399
 30
0.0
 40
5.0
  1
2000
100
AcDbText
  0
TEXT
  5
71F9
330
1E
100
AcDbEntity
  8
図枠
 62
     7
100
AcDbText
 10
1681.841404387809
 20
613.7200649319399
 30
0.0
 40
5.0
  1
2000
100
AcDbText
  0
TEXT
  5
71FA
330
1E
100
AcDbEntity
  8
図枠
 62
     7
100
AcDbText
 10
1674.841404387809
 20
622.7200649319399
 30
0.0
 40
5.0
  1
定尺(mm)
100
AcDbText
  0
TEXT
  5
71FB
330
1E
100
AcDbEntity
  8
図枠
 62
     7
100
AcDbText
 10
1613.841404387809
 20
424.72006493194
 30
0.0
 40
5.0
  1
6000
100
AcDbText
  0
TEXT
  5
71FC
330
1E
100
AcDbEntity
  8
図枠
 62
     7
100
AcDbText
 10
1613.841404387809
 20
505.7200649319399
 30
0.0
 40
5.0
  1
3000
100
AcDbText
  0
TEXT
  5
71FD
330
1E
100
AcDbEntity
  8
図枠
 62
     7
100
AcDbText
 10
1613.841404387809
 20
514.7200649319399
 30
0.0
 40
5.0
  1
3100
100
AcDbText
  0
TEXT
  5
71FE
330
1E
100
AcDbEntity
  8
図枠
 62
     7
100
AcDbText
 10
1613.841404387809
 20
523.7200649319399
 30
0.0
 40
5.0
  1
3060
100
AcDbText
  0
TEXT
  5
71FF
330
1E
100
AcDbEntity
  8
図枠
 62
     7
100
AcDbText
 10
1613.841404387809
 20
577.7200649319398
 30
0.0
 40
5.0
  1
3010
100
AcDbText
  0
TEXT
  5
7200
330
1E
100
AcDbEntity
  8
図枠
 62
     7
100
AcDbText
 10
1613.841404387809
 20
586.7200649319398
 30
0.0
 40
5.0
  1
3000
100
AcDbText
  0
TEXT
  5
7201
330
1E
100
AcDbEntity
  8
図枠
 62
     7
100
AcDbText
 10
1613.841404387809
 20
595.7200649319398
 30
0.0
 40
5.0
  1
3000
100
AcDbText
  0
TEXT
  5
7202
330
1E
100
AcDbEntity
  8
図枠
 62
     7
100
AcDbText
 10
1613.841404387809
 20
604.7200649319399
 30
0.0
 40
5.0
  1
3000
100
AcDbText
  0
TEXT
  5
7203
330
1E
100
AcDbEntity
  8
図枠
 62
     7
100
AcDbText
 10
1613.841404387809
 20
613.7200649319399
 30
0.0
 40
5.0
  1
3000
100
AcDbText
  0
TEXT
  5
7204
330
1E
100
AcDbEntity
  8
図枠
 62
     7
100
AcDbText
 10
1606.841404387809
 20
622.7200649319399
 30
0.0
 40
5.0
  1
定尺(mm)
100
AcDbText
  0
LINE
  5
7205
330
1E
100
AcDbEntity
  8
図枠
  6
Continuous
 62
     7
100
AcDbLine
 10
1738.091404387809
 20
423.2200649319399
 30
0.0
 11
1738.091404387809
 21
630.2200649319399
 31
0.0
  0
LINE
  5
7206
330
1E
100
AcDbEntity
  8
図枠
  6
Continuous
 62
     7
100
AcDbLine
 10
1671.091404387809
 20
423.2200649319399
 30
0.0
 11
1738.091404387809
 21
423.2200649319399
 31
0.0
  0
LINE
  5
7207
330
1E
100
AcDbEntity
  8
図枠
  6
Continuous
 62
     7
100
AcDbLine
 10
1671.091404387809
 20
432.2200649319399
 30
0.0
 11
1738.091404387809
 21
432.2200649319399
 31
0.0
  0
LINE
  5
7208
330
1E
100
AcDbEntity
  8
図枠
  6
Continuous
 62
     7
100
AcDbLine
 10
1671.091404387809
 20
441.22006493194
 30
0.0
 11
1738.091404387809
 21
441.22006493194
 31
0.0
  0
LINE
  5
7209
330
1E
100
AcDbEntity
  8
図枠
  6
Continuous
 62
     7
100
AcDbLine
 10
1671.091404387809
 20
450.2200649319401
 30
0.0
 11
1738.091404387809
 21
450.2200649319401
 31
0.0
  0
LINE
  5
720A
330
1E
100
AcDbEntity
  8
図枠
  6
Continuous
 62
     7
100
AcDbLine
 10
1671.091404387809
 20
459.22006493194
 30
0.0
 11
1738.091404387809
 21
459.22006493194
 31
0.0
  0
LINE
  5
720B
330
1E
100
AcDbEntity
  8
図枠
  6
Continuous
 62
     7
100
AcDbLine
 10
1671.091404387809
 20
468.22006493194
 30
0.0
 11
1738.091404387809
 21
468.22006493194
 31
0.0
  0
LINE
  5
720C
330
1E
100
AcDbEntity
  8
図枠
  6
Continuous
 62
     7
100
AcDbLine
 10
1671.091404387809
 20
477.22006493194
 30
0.0
 11
1738.091404387809
 21
477.22006493194
 31
0.0
  0
LINE
  5
720D
330
1E
100
AcDbEntity
  8
図枠
  6
Continuous
 62
     7
100
AcDbLine
 10
1671.091404387809
 20
486.22006493194
 30
0.0
 11
1738.091404387809
 21
486.22006493194
 31
0.0
  0
LINE
  5
720E
330
1E
100
AcDbEntity
  8
図枠
  6
Continuous
 62
     7
100
AcDbLine
 10
1671.091404387809
 20
495.22006493194
 30
0.0
 11
1738.091404387809
 21
495.22006493194
 31
0.0
  0
LINE
  5
720F
330
1E
100
AcDbEntity
  8
図枠
  6
Continuous
 62
     7
100
AcDbLine
 10
1671.091404387809
 20
504.22006493194
 30
0.0
 11
1738.091404387809
 21
504.22006493194
 31
0.0
  0
LINE
  5
7210
330
1E
100
AcDbEntity
  8
図枠
  6
Continuous
 62
     7
100
AcDbLine
 10
1671.091404387809
 20
513.22006493194
 30
0.0
 11
1738.091404387809
 21
513.22006493194
 31
0.0
  0
LINE
  5
7211
330
1E
100
AcDbEntity
  8
図枠
  6
Continuous
 62
     7
100
AcDbLine
 10
1671.091404387809
 20
522.2200649319399
 30
0.0
 11
1738.091404387809
 21
522.2200649319399
 31
0.0
  0
LINE
  5
7212
330
1E
100
AcDbEntity
  8
図枠
  6
Continuous
 62
     7
100
AcDbLine
 10
1671.091404387809
 20
531.2200649319399
 30
0.0
 11
1738.091404387809
 21
531.2200649319399
 31
0.0
  0
LINE
  5
7213
330
1E
100
AcDbEntity
  8
図枠
  6
Continuous
 62
     7
100
AcDbLine
 10
1671.091404387809
 20
540.2200649319399
 30
0.0
 11
1738.091404387809
 21
540.2200649319399
 31
0.0
  0
LINE
  5
7214
330
1E
100
AcDbEntity
  8
図枠
  6
Continuous
 62
     7
100
AcDbLine
 10
1671.091404387809
 20
549.2200649319399
 30
0.0
 11
1738.091404387809
 21
549.2200649319399
 31
0.0
  0
LINE
  5
7215
330
1E
100
AcDbEntity
  8
図枠
  6
Continuous
 62
     7
100
AcDbLine
 10
1671.091404387809
 20
558.22006493194
 30
0.0
 11
1738.091404387809
 21
558.22006493194
 31
0.0
  0
LINE
  5
7216
330
1E
100
AcDbEntity
  8
図枠
  6
Continuous
 62
     7
100
AcDbLine
 10
1671.091404387809
 20
567.2200649319399
 30
0.0
 11
1738.091404387809
 21
567.2200649319399
 31
0.0
  0
LINE
  5
7217
330
1E
100
AcDbEntity
  8
図枠
  6
Continuous
 62
     7
100
AcDbLine
 10
1671.091404387809
 20
576.2200649319399
 30
0.0
 11
1738.091404387809
 21
576.2200649319399
 31
0.0
  0
LINE
  5
7218
330
1E
100
AcDbEntity
  8
図枠
  6
Continuous
 62
     7
100
AcDbLine
 10
1671.091404387809
 20
585.2200649319398
 30
0.0
 11
1738.091404387809
 21
585.2200649319398
 31
0.0
  0
LINE
  5
7219
330
1E
100
AcDbEntity
  8
図枠
  6
Continuous
 62
     7
100
AcDbLine
 10
1671.091404387809
 20
594.2200649319398
 30
0.0
 11
1738.091404387809
 21
594.2200649319398
 31
0.0
  0
LINE
  5
721A
330
1E
100
AcDbEntity
  8
図枠
  6
Continuous
 62
     7
100
AcDbLine
 10
1671.091404387809
 20
603.2200649319398
 30
0.0
 11
1738.091404387809
 21
603.2200649319398
 31
0.0
  0
LINE
  5
721B
330
1E
100
AcDbEntity
  8
図枠
  6
Continuous
 62
     7
100
AcDbLine
 10
1671.091404387809
 20
612.22006493194
 30
0.0
 11
1738.091404387809
 21
612.22006493194
 31
0.0
  0
LINE
  5
721C
330
1E
100
AcDbEntity
  8
図枠
  6
Continuous
 62
     7
100
AcDbLine
 10
1671.091404387809
 20
621.2200649319399
 30
0.0
 11
1738.091404387809
 21
621.2200649319399
 31
0.0
  0
LINE
  5
721D
330
1E
100
AcDbEntity
  8
図枠
  6
Continuous
 62
     7
100
AcDbLine
 10
1671.091404387809
 20
630.2200649319399
 30
0.0
 11
1738.091404387809
 21
630.2200649319399
 31
0.0
  0
LINE
  5
721E
330
1E
100
AcDbEntity
  8
図枠
  6
Continuous
 62
     7
100
AcDbLine
 10
1724.091404387809
 20
423.2200649319399
 30
0.0
 11
1724.091404387809
 21
630.2200649319399
 31
0.0
  0
LINE
  5
721F
330
1E
100
AcDbEntity
  8
図枠
  6
Continuous
 62
     7
100
AcDbLine
 10
1706.091404387809
 20
423.2200649319399
 30
0.0
 11
1706.091404387809
 21
630.2200649319399
 31
0.0
  0
LINE
  5
7220
330
1E
100
AcDbEntity
  8
図枠
  6
Continuous
 62
     7
100
AcDbLine
 10
1671.091404387809
 20
423.2200649319399
 30
0.0
 11
1671.091404387809
 21
630.2200649319399
 31
0.0
  0
LINE
  5
7221
330
1E
100
AcDbEntity
  8
図枠
  6
Continuous
 62
     7
100
AcDbLine
 10
1670.091404387809
 20
423.2200649319399
 30
0.0
 11
1670.091404387809
 21
630.2200649319399
 31
0.0
  0
LINE
  5
7222
330
1E
100
AcDbEntity
  8
図枠
  6
Continuous
 62
     7
100
AcDbLine
 10
1670.091404387809
 20
423.2200649319399
 30
0.0
 11
1603.091404387809
 21
423.2200649319399
 31
0.0
  0
LINE
  5
7223
330
1E
100
AcDbEntity
  8
図枠
  6
Continuous
 62
     7
100
AcDbLine
 10
1670.091404387809
 20
432.2200649319399
 30
0.0
 11
1603.091404387809
 21
432.2200649319399
 31
0.0
  0
LINE
  5
7224
330
1E
100
AcDbEntity
  8
図枠
  6
Continuous
 62
     7
100
AcDbLine
 10
1670.091404387809
 20
441.22006493194
 30
0.0
 11
1603.091404387809
 21
441.22006493194
 31
0.0
  0
LINE
  5
7225
330
1E
100
AcDbEntity
  8
図枠
  6
Continuous
 62
     7
100
AcDbLine
 10
1670.091404387809
 20
450.2200649319401
 30
0.0
 11
1603.091404387809
 21
450.2200649319401
 31
0.0
  0
LINE
  5
7226
330
1E
100
AcDbEntity
  8
図枠
  6
Continuous
 62
     7
100
AcDbLine
 10
1670.091404387809
 20
459.22006493194
 30
0.0
 11
1603.091404387809
 21
459.22006493194
 31
0.0
  0
LINE
  5
7227
330
1E
100
AcDbEntity
  8
図枠
  6
Continuous
 62
     7
100
AcDbLine
 10
1670.091404387809
 20
468.22006493194
 30
0.0
 11
1603.091404387809
 21
468.22006493194
 31
0.0
  0
LINE
  5
7228
330
1E
100
AcDbEntity
  8
図枠
  6
Continuous
 62
     7
100
AcDbLine
 10
1670.091404387809
 20
477.22006493194
 30
0.0
 11
1603.091404387809
 21
477.22006493194
 31
0.0
  0
LINE
  5
7229
330
1E
100
AcDbEntity
  8
図枠
  6
Continuous
 62
     7
100
AcDbLine
 10
1670.091404387809
 20
486.22006493194
 30
0.0
 11
1603.091404387809
 21
486.22006493194
 31
0.0
  0
LINE
  5
722A
330
1E
100
AcDbEntity
  8
図枠
  6
Continuous
 62
     7
100
AcDbLine
 10
1670.091404387809
 20
495.22006493194
 30
0.0
 11
1603.091404387809
 21
495.22006493194
 31
0.0
  0
LINE
  5
722B
330
1E
100
AcDbEntity
  8
図枠
  6
Continuous
 62
     7
100
AcDbLine
 10
1670.091404387809
 20
504.22006493194
 30
0.0
 11
1603.091404387809
 21
504.22006493194
 31
0.0
  0
LINE
  5
722C
330
1E
100
AcDbEntity
  8
図枠
  6
Continuous
 62
     7
100
AcDbLine
 10
1670.091404387809
 20
513.22006493194
 30
0.0
 11
1603.091404387809
 21
513.22006493194
 31
0.0
  0
LINE
  5
722D
330
1E
100
AcDbEntity
  8
図枠
  6
Continuous
 62
     7
100
AcDbLine
 10
1670.091404387809
 20
522.2200649319399
 30
0.0
 11
1603.091404387809
 21
522.2200649319399
 31
0.0
  0
LINE
  5
722E
330
1E
100
AcDbEntity
  8
図枠
  6
Continuous
 62
     7
100
AcDbLine
 10
1670.091404387809
 20
531.2200649319399
 30
0.0
 11
1603.091404387809
 21
531.2200649319399
 31
0.0
  0
LINE
  5
722F
330
1E
100
AcDbEntity
  8
図枠
  6
Continuous
 62
     7
100
AcDbLine
 10
1670.091404387809
 20
540.2200649319399
 30
0.0
 11
1603.091404387809
 21
540.2200649319399
 31
0.0
  0
LINE
  5
7230
330
1E
100
AcDbEntity
  8
図枠
  6
Continuous
 62
     7
100
AcDbLine
 10
1670.091404387809
 20
549.2200649319399
 30
0.0
 11
1603.091404387809
 21
549.2200649319399
 31
0.0
  0
LINE
  5
7231
330
1E
100
AcDbEntity
  8
図枠
  6
Continuous
 62
     7
100
AcDbLine
 10
1670.091404387809
 20
558.22006493194
 30
0.0
 11
1603.091404387809
 21
558.22006493194
 31
0.0
  0
LINE
  5
7232
330
1E
100
AcDbEntity
  8
図枠
  6
Continuous
 62
     7
100
AcDbLine
 10
1670.091404387809
 20
567.2200649319399
 30
0.0
 11
1603.091404387809
 21
567.2200649319399
 31
0.0
  0
LINE
  5
7233
330
1E
100
AcDbEntity
  8
図枠
  6
Continuous
 62
     7
100
AcDbLine
 10
1670.091404387809
 20
576.2200649319399
 30
0.0
 11
1603.091404387809
 21
576.2200649319399
 31
0.0
  0
LINE
  5
7234
330
1E
100
AcDbEntity
  8
図枠
  6
Continuous
 62
     7
100
AcDbLine
 10
1670.091404387809
 20
585.2200649319398
 30
0.0
 11
1603.091404387809
 21
585.2200649319398
 31
0.0
  0
LINE
  5
7235
330
1E
100
AcDbEntity
  8
図枠
  6
Continuous
 62
     7
100
AcDbLine
 10
1670.091404387809
 20
594.2200649319398
 30
0.0
 11
1603.091404387809
 21
594.2200649319398
 31
0.0
  0
LINE
  5
7236
330
1E
100
AcDbEntity
  8
図枠
  6
Continuous
 62
     7
100
AcDbLine
 10
1670.091404387809
 20
603.2200649319398
 30
0.0
 11
1603.091404387809
 21
603.2200649319398
 31
0.0
  0
LINE
  5
7237
330
1E
100
AcDbEntity
  8
図枠
  6
Continuous
 62
     7
100
AcDbLine
 10
1670.091404387809
 20
612.22006493194
 30
0.0
 11
1603.091404387809
 21
612.22006493194
 31
0.0
  0
LINE
  5
7238
330
1E
100
AcDbEntity
  8
図枠
  6
Continuous
 62
     7
100
AcDbLine
 10
1670.091404387809
 20
621.2200649319399
 30
0.0
 11
1603.091404387809
 21
621.2200649319399
 31
0.0
  0
LINE
  5
7239
330
1E
100
AcDbEntity
  8
図枠
  6
Continuous
 62
     7
100
AcDbLine
 10
1670.091404387809
 20
630.2200649319399
 30
0.0
 11
1603.091404387809
 21
630.2200649319399
 31
0.0
  0
TEXT
  5
723A
330
1E
100
AcDbEntity
  8
図枠
 62
     7
100
AcDbText
 10
1397.091404387809
 20
424.72006493194
 30
0.0
 40
5.0
  1
※
100
AcDbText
  0
TEXT
  5
723B
330
1E
100
AcDbEntity
  8
図枠
 62
     7
100
AcDbText
 10
1396.841404387809
 20
433.72006493194
 30
0.0
 40
5.0
  1
21
100
AcDbText
  0
TEXT
  5
723C
330
1E
100
AcDbEntity
  8
図枠
 62
     7
100
AcDbText
 10
1396.841404387809
 20
442.72006493194
 30
0.0
 40
5.0
  1
20
100
AcDbText
  0
TEXT
  5
723D
330
1E
100
AcDbEntity
  8
図枠
 62
     7
100
AcDbText
 10
1396.841404387809
 20
451.72006493194
 30
0.0
 40
5.0
  1
19
100
AcDbText
  0
TEXT
  5
723E
330
1E
100
AcDbEntity
  8
図枠
 62
     7
100
AcDbText
 10
1396.841404387809
 20
460.72006493194
 30
0.0
 40
5.0
  1
18
100
AcDbText
  0
TEXT
  5
723F
330
1E
100
AcDbEntity
  8
図枠
 62
     7
100
AcDbText
 10
1396.841404387809
 20
469.72006493194
 30
0.0
 40
5.0
  1
17
100
AcDbText
  0
TEXT
  5
7240
330
1E
100
AcDbEntity
  8
図枠
 62
     7
100
AcDbText
 10
1396.841404387809
 20
478.72006493194
 30
0.0
 40
5.0
  1
16
100
AcDbText
  0
TEXT
  5
7241
330
1E
100
AcDbEntity
  8
図枠
 62
     7
100
AcDbText
 10
1396.841404387809
 20
487.72006493194
 30
0.0
 40
5.0
  1
15
100
AcDbText
  0
TEXT
  5
7242
330
1E
100
AcDbEntity
  8
図枠
 62
     7
100
AcDbText
 10
1396.841404387809
 20
496.72006493194
 30
0.0
 40
5.0
  1
14
100
AcDbText
  0
TEXT
  5
7243
330
1E
100
AcDbEntity
  8
図枠
 62
     7
100
AcDbText
 10
1396.841404387809
 20
505.7200649319399
 30
0.0
 40
5.0
  1
13
100
AcDbText
  0
TEXT
  5
7244
330
1E
100
AcDbEntity
  8
図枠
 62
     7
100
AcDbText
 10
1396.841404387809
 20
514.7200649319399
 30
0.0
 40
5.0
  1
12
100
AcDbText
  0
TEXT
  5
7245
330
1E
100
AcDbEntity
  8
図枠
 62
     7
100
AcDbText
 10
1396.841404387809
 20
523.7200649319399
 30
0.0
 40
5.0
  1
11
100
AcDbText
  0
TEXT
  5
7246
330
1E
100
AcDbEntity
  8
図枠
 62
     7
100
AcDbText
 10
1396.841404387809
 20
532.72006493194
 30
0.0
 40
5.0
  1
10
100
AcDbText
  0
TEXT
  5
7247
330
1E
100
AcDbEntity
  8
図枠
 62
     7
100
AcDbText
 10
1396.841404387809
 20
541.72006493194
 30
0.0
 40
5.0
  1
 9
100
AcDbText
  0
TEXT
  5
7248
330
1E
100
AcDbEntity
  8
図枠
 62
     7
100
AcDbText
 10
1396.841404387809
 20
550.72006493194
 30
0.0
 40
5.0
  1
 8
100
AcDbText
  0
TEXT
  5
7249
330
1E
100
AcDbEntity
  8
図枠
 62
     7
100
AcDbText
 10
1396.841404387809
 20
559.7200649319399
 30
0.0
 40
5.0
  1
 7
100
AcDbText
  0
TEXT
  5
724A
330
1E
100
AcDbEntity
  8
図枠
 62
     7
100
AcDbText
 10
1396.841404387809
 20
568.7200649319398
 30
0.0
 40
5.0
  1
 6
100
AcDbText
  0
TEXT
  5
724B
330
1E
100
AcDbEntity
  8
図枠
 62
     7
100
AcDbText
 10
1396.841404387809
 20
577.7200649319398
 30
0.0
 40
5.0
  1
 5
100
AcDbText
  0
TEXT
  5
724C
330
1E
100
AcDbEntity
  8
図枠
 62
     7
100
AcDbText
 10
1396.841404387809
 20
586.7200649319398
 30
0.0
 40
5.0
  1
 4
100
AcDbText
  0
TEXT
  5
724D
330
1E
100
AcDbEntity
  8
図枠
 62
     7
100
AcDbText
 10
1396.841404387809
 20
595.7200649319398
 30
0.0
 40
5.0
  1
 3
100
AcDbText
  0
TEXT
  5
724E
330
1E
100
AcDbEntity
  8
図枠
 62
     7
100
AcDbText
 10
1396.841404387809
 20
604.7200649319399
 30
0.0
 40
5.0
  1
 2
100
AcDbText
  0
TEXT
  5
724F
330
1E
100
AcDbEntity
  8
図枠
 62
     7
100
AcDbText
 10
1396.841404387809
 20
613.7200649319399
 30
0.0
 40
5.0
  1
 1
100
AcDbText
  0
TEXT
  5
7250
330
1E
100
AcDbEntity
  8
図枠
 62
     7
100
AcDbText
 10
1395.091404387809
 20
622.7200649319399
 30
0.0
 40
5.0
  1
No.
100
AcDbText
  0
LINE
  5
7251
330
1E
100
AcDbEntity
  8
図枠
  6
Continuous
 62
     7
100
AcDbLine
 10
1393.091404387809
 20
423.2200649319399
 30
0.0
 11
1393.091404387809
 21
630.2200649319399
 31
0.0
  0
LINE
  5
7252
330
1E
100
AcDbEntity
  8
図枠
  6
Continuous
 62
     7
100
AcDbLine
 10
1602.091404387809
 20
423.2200649319399
 30
0.0
 11
1393.091404387809
 21
423.2200649319399
 31
0.0
  0
LINE
  5
7253
330
1E
100
AcDbEntity
  8
図枠
  6
Continuous
 62
     7
100
AcDbLine
 10
1602.091404387809
 20
432.2200649319399
 30
0.0
 11
1393.091404387809
 21
432.2200649319399
 31
0.0
  0
LINE
  5
7254
330
1E
100
AcDbEntity
  8
図枠
  6
Continuous
 62
     7
100
AcDbLine
 10
1602.091404387809
 20
441.22006493194
 30
0.0
 11
1393.091404387809
 21
441.22006493194
 31
0.0
  0
LINE
  5
7255
330
1E
100
AcDbEntity
  8
図枠
  6
Continuous
 62
     7
100
AcDbLine
 10
1602.091404387809
 20
450.2200649319401
 30
0.0
 11
1393.091404387809
 21
450.2200649319401
 31
0.0
  0
LINE
  5
7256
330
1E
100
AcDbEntity
  8
図枠
  6
Continuous
 62
     7
100
AcDbLine
 10
1602.091404387809
 20
459.22006493194
 30
0.0
 11
1393.091404387809
 21
459.22006493194
 31
0.0
  0
LINE
  5
7257
330
1E
100
AcDbEntity
  8
図枠
  6
Continuous
 62
     7
100
AcDbLine
 10
1602.091404387809
 20
468.22006493194
 30
0.0
 11
1393.091404387809
 21
468.22006493194
 31
0.0
  0
LINE
  5
7258
330
1E
100
AcDbEntity
  8
図枠
  6
Continuous
 62
     7
100
AcDbLine
 10
1602.091404387809
 20
477.22006493194
 30
0.0
 11
1393.091404387809
 21
477.22006493194
 31
0.0
  0
LINE
  5
7259
330
1E
100
AcDbEntity
  8
図枠
  6
Continuous
 62
     7
100
AcDbLine
 10
1602.091404387809
 20
486.22006493194
 30
0.0
 11
1393.091404387809
 21
486.22006493194
 31
0.0
  0
LINE
  5
725A
330
1E
100
AcDbEntity
  8
図枠
  6
Continuous
 62
     7
100
AcDbLine
 10
1602.091404387809
 20
495.22006493194
 30
0.0
 11
1393.091404387809
 21
495.22006493194
 31
0.0
  0
LINE
  5
725B
330
1E
100
AcDbEntity
  8
図枠
  6
Continuous
 62
     7
100
AcDbLine
 10
1602.091404387809
 20
504.22006493194
 30
0.0
 11
1393.091404387809
 21
504.22006493194
 31
0.0
  0
LINE
  5
725C
330
1E
100
AcDbEntity
  8
図枠
  6
Continuous
 62
     7
100
AcDbLine
 10
1602.091404387809
 20
513.22006493194
 30
0.0
 11
1393.091404387809
 21
513.22006493194
 31
0.0
  0
LINE
  5
725D
330
1E
100
AcDbEntity
  8
図枠
  6
Continuous
 62
     7
100
AcDbLine
 10
1602.091404387809
 20
522.2200649319399
 30
0.0
 11
1393.091404387809
 21
522.2200649319399
 31
0.0
  0
LINE
  5
725E
330
1E
100
AcDbEntity
  8
図枠
  6
Continuous
 62
     7
100
AcDbLine
 10
1602.091404387809
 20
531.2200649319399
 30
0.0
 11
1393.091404387809
 21
531.2200649319399
 31
0.0
  0
LINE
  5
725F
330
1E
100
AcDbEntity
  8
図枠
  6
Continuous
 62
     7
100
AcDbLine
 10
1602.091404387809
 20
540.2200649319399
 30
0.0
 11
1393.091404387809
 21
540.2200649319399
 31
0.0
  0
LINE
  5
7260
330
1E
100
AcDbEntity
  8
図枠
  6
Continuous
 62
     7
100
AcDbLine
 10
1602.091404387809
 20
549.2200649319399
 30
0.0
 11
1393.091404387809
 21
549.2200649319399
 31
0.0
  0
LINE
  5
7261
330
1E
100
AcDbEntity
  8
図枠
  6
Continuous
 62
     7
100
AcDbLine
 10
1602.091404387809
 20
558.22006493194
 30
0.0
 11
1393.091404387809
 21
558.22006493194
 31
0.0
  0
LINE
  5
7262
330
1E
100
AcDbEntity
  8
図枠
  6
Continuous
 62
     7
100
AcDbLine
 10
1602.091404387809
 20
567.2200649319399
 30
0.0
 11
1393.091404387809
 21
567.2200649319399
 31
0.0
  0
LINE
  5
7263
330
1E
100
AcDbEntity
  8
図枠
  6
Continuous
 62
     7
100
AcDbLine
 10
1602.091404387809
 20
576.2200649319399
 30
0.0
 11
1393.091404387809
 21
576.2200649319399
 31
0.0
  0
LINE
  5
7264
330
1E
100
AcDbEntity
  8
図枠
  6
Continuous
 62
     7
100
AcDbLine
 10
1602.091404387809
 20
585.2200649319398
 30
0.0
 11
1393.091404387809
 21
585.2200649319398
 31
0.0
  0
LINE
  5
7265
330
1E
100
AcDbEntity
  8
図枠
  6
Continuous
 62
     7
100
AcDbLine
 10
1602.091404387809
 20
594.2200649319398
 30
0.0
 11
1393.091404387809
 21
594.2200649319398
 31
0.0
  0
LINE
  5
7266
330
1E
100
AcDbEntity
  8
図枠
  6
Continuous
 62
     7
100
AcDbLine
 10
1602.091404387809
 20
603.2200649319398
 30
0.0
 11
1393.091404387809
 21
603.2200649319398
 31
0.0
  0
LINE
  5
7267
330
1E
100
AcDbEntity
  8
図枠
  6
Continuous
 62
     7
100
AcDbLine
 10
1602.091404387809
 20
612.22006493194
 30
0.0
 11
1393.091404387809
 21
612.22006493194
 31
0.0
  0
LINE
  5
7268
330
1E
100
AcDbEntity
  8
図枠
  6
Continuous
 62
     7
100
AcDbLine
 10
1602.091404387809
 20
621.2200649319399
 30
0.0
 11
1393.091404387809
 21
621.2200649319399
 31
0.0
  0
LINE
  5
7269
330
1E
100
AcDbEntity
  8
図枠
  6
Continuous
 62
     7
100
AcDbLine
 10
1602.091404387809
 20
630.2200649319399
 30
0.0
 11
1393.091404387809
 21
630.2200649319399
 31
0.0
  0
LINE
  5
726A
330
1E
100
AcDbEntity
  8
図枠
  6
Continuous
 62
     7
100
AcDbLine
 10
1656.091404387809
 20
423.2200649319399
 30
0.0
 11
1656.091404387809
 21
630.2200649319399
 31
0.0
  0
LINE
  5
726B
330
1E
100
AcDbEntity
  8
図枠
  6
Continuous
 62
     7
100
AcDbLine
 10
1638.091404387809
 20
423.2200649319399
 30
0.0
 11
1638.091404387809
 21
630.2200649319399
 31
0.0
  0
LINE
  5
726C
330
1E
100
AcDbEntity
  8
図枠
  6
Continuous
 62
     7
100
AcDbLine
 10
1603.091404387809
 20
423.2200649319399
 30
0.0
 11
1603.091404387809
 21
630.2200649319399
 31
0.0
  0
LINE
  5
726D
330
1E
100
AcDbEntity
  8
図枠
  6
Continuous
 62
     7
100
AcDbLine
 10
1602.091404387809
 20
423.2200649319399
 30
0.0
 11
1602.091404387809
 21
630.2200649319399
 31
0.0
  0
LINE
  5
726E
330
1E
100
AcDbEntity
  8
図枠
  6
Continuous
 62
     7
100
AcDbLine
 10
1507.091404387809
 20
423.2200649319399
 30
0.0
 11
1507.091404387809
 21
630.2200649319399
 31
0.0
  0
LINE
  5
726F
330
1E
100
AcDbEntity
  8
図枠
  6
Continuous
 62
     7
100
AcDbLine
 10
1407.091404387809
 20
423.2200649319399
 30
0.0
 11
1407.091404387809
 21
630.2200649319399
 31
0.0
  0
TEXT
  5
7270
330
1E
100
AcDbEntity
  8
図枠
 62
     7
100
AcDbText
 10
1412.091404387809
 20
424.72006493194
 30
0.0
 40
5.0
  1
ブチルテープ
100
AcDbText
  0
TEXT
  5
7271
330
1E
100
AcDbEntity
  8
図枠
 62
     7
100
AcDbText
 10
1512.091404387809
 20
433.72006493194
 30
0.0
 40
5.0
  1
1.5×18×5.5穴
100
AcDbText
  0
TEXT
  5
7272
330
1E
100
AcDbEntity
  8
図枠
 62
     7
100
AcDbText
 10
1412.091404387809
 20
433.72006493194
 30
0.0
 40
5.0
  1
ステンワッシャー
100
AcDbText
  0
TEXT
  5
7273
330
1E
100
AcDbEntity
  8
図枠
 62
     7
100
AcDbText
 10
1512.091404387809
 20
442.72006493194
 30
0.0
 40
5.0
  1
1.5×18×6.5穴
100
AcDbText
  0
TEXT
  5
7274
330
1E
100
AcDbEntity
  8
図枠
 62
     7
100
AcDbText
 10
1412.091404387809
 20
442.72006493194
 30
0.0
 40
5.0
  1
ステスワッシャー
100
AcDbText
  0
TEXT
  5
7275
330
1E
100
AcDbEntity
  8
図枠
 62
     7
100
AcDbText
 10
1512.091404387809
 20
451.72006493194
 30
0.0
 40
5.0
  1
ナベ 5×50
100
AcDbText
  0
TEXT
  5
7276
330
1E
100
AcDbEntity
  8
図枠
 62
     7
100
AcDbText
 10
1412.091404387809
 20
451.72006493194
 30
0.0
 40
5.0
  1
ステンタッピンねじ
100
AcDbText
  0
TEXT
  5
7277
330
1E
100
AcDbEntity
  8
図枠
 62
     7
100
AcDbText
 10
1512.091404387809
 20
460.72006493194
 30
0.0
 40
5.0
  1
フィッシャープラグ　Ｓ8
100
AcDbText
  0
TEXT
  5
7278
330
1E
100
AcDbEntity
  8
図枠
 62
     7
100
AcDbText
 10
1412.091404387809
 20
460.72006493194
 30
0.0
 40
5.0
  1
アンカープラグ
100
AcDbText
  0
TEXT
  5
7279
330
1E
100
AcDbEntity
  8
図枠
 62
     7
100
AcDbText
 10
1512.091404387809
 20
469.72006493194
 30
0.0
 40
5.0
  1
ＡＧ－660
100
AcDbText
  0
TEXT
  5
727A
330
1E
100
AcDbEntity
  8
図枠
 62
     7
100
AcDbText
 10
1412.091404387809
 20
469.72006493194
 30
0.0
 40
5.0
  1
アジャストアンカー
100
AcDbText
  0
TEXT
  5
727B
330
1E
100
AcDbEntity
  8
図枠
 62
     7
100
AcDbText
 10
1512.091404387809
 20
478.72006493194
 30
0.0
 40
5.0
  1
Ｍ6×40
100
AcDbText
  0
TEXT
  5
727C
330
1E
100
AcDbEntity
  8
図枠
 62
     7
100
AcDbText
 10
1412.091404387809
 20
478.72006493194
 30
0.0
 40
5.0
  1
ステン六角ボルト
100
AcDbText
  0
TEXT
  5
727D
330
1E
100
AcDbEntity
  8
図枠
 62
     7
100
AcDbText
 10
1512.091404387809
 20
487.72006493194
 30
0.0
 40
5.0
  1
ナベＭ4×10
100
AcDbText
  0
TEXT
  5
727E
330
1E
100
AcDbEntity
  8
図枠
 62
     7
100
AcDbText
 10
1412.091404387809
 20
487.72006493194
 30
0.0
 40
5.0
  1
ステン小ネジ
100
AcDbText
  0
TEXT
  5
727F
330
1E
100
AcDbEntity
  8
図枠
 62
     7
100
AcDbText
 10
1512.091404387809
 20
496.72006493194
 30
0.0
 40
5.0
  1
ナベＭ6×35
100
AcDbText
  0
TEXT
  5
7280
330
1E
100
AcDbEntity
  8
図枠
 62
     7
100
AcDbText
 10
1412.091404387809
 20
496.72006493194
 30
0.0
 40
5.0
  1
ステン小ネジ
100
AcDbText
  0
TEXT
  5
7281
330
1E
100
AcDbEntity
  8
図枠
 62
     7
100
AcDbText
 10
1412.091404387809
 20
505.7200649319399
 30
0.0
 40
5.0
  1
ガスケットＮ
100
AcDbText
  0
TEXT
  5
7282
330
1E
100
AcDbEntity
  8
図枠
 62
     7
100
AcDbText
 10
1412.091404387809
 20
514.7200649319399
 30
0.0
 40
5.0
  1
止水補助板
100
AcDbText
  0
TEXT
  5
7283
330
1E
100
AcDbEntity
  8
図枠
 62
     7
100
AcDbText
 10
1512.091404387809
 20
523.7200649319399
 30
0.0
 40
5.0
  1
ＰＳ
100
AcDbText
  0
TEXT
  5
7284
330
1E
100
AcDbEntity
  8
図枠
 62
     7
100
AcDbText
 10
1412.091404387809
 20
523.7200649319399
 30
0.0
 40
5.0
  1
止水補助板
100
AcDbText
  0
TEXT
  5
7285
330
1E
100
AcDbEntity
  8
図枠
 62
     7
100
AcDbText
 10
1412.091404387809
 20
532.72006493194
 30
0.0
 40
5.0
  1
ＦＹＫｻｲﾄﾞｷｬｯﾌﾟ ｼﾞｮｲﾝﾄ
100
AcDbText
  0
TEXT
  5
7286
330
1E
100
AcDbEntity
  8
図枠
 62
     7
100
AcDbText
 10
1412.091404387809
 20
541.72006493194
 30
0.0
 40
5.0
  1
ＦＹＫ水切ジョイント
100
AcDbText
  0
TEXT
  5
7287
330
1E
100
AcDbEntity
  8
図枠
 62
     7
100
AcDbText
 10
1412.091404387809
 20
550.72006493194
 30
0.0
 40
5.0
  1
ＦＹＹフレームナット
100
AcDbText
  0
TEXT
  5
7288
330
1E
100
AcDbEntity
  8
図枠
 62
     7
100
AcDbText
 10
1412.091404387809
 20
559.7200649319399
 30
0.0
 40
5.0
  1
ＦＹＹホルダースプリング
100
AcDbText
  0
TEXT
  5
7289
330
1E
100
AcDbEntity
  8
図枠
 62
     7
100
AcDbText
 10
1412.091404387809
 20
568.7200649319398
 30
0.0
 40
5.0
  1
ＦＹＫホルダー
100
AcDbText
  0
TEXT
  5
728A
330
1E
100
AcDbEntity
  8
図枠
 62
     7
100
AcDbText
 10
1412.091404387809
 20
586.7200649319398
 30
0.0
 40
5.0
  1
ＦＹＫ壁フレーム
100
AcDbText
  0
TEXT
  5
728B
330
1E
100
AcDbEntity
  8
図枠
 62
     7
100
AcDbText
 10
1412.091404387809
 20
595.7200649319398
 30
0.0
 40
5.0
  1
ＦＹＹフレーム
100
AcDbText
  0
TEXT
  5
728C
330
1E
100
AcDbEntity
  8
図枠
 62
     7
100
AcDbText
 10
1412.091404387809
 20
604.7200649319399
 30
0.0
 40
5.0
  1
ＦＹＫサイドキャップＡ
100
AcDbText
  0
TEXT
  5
728D
330
1E
100
AcDbEntity
  8
図枠
 62
     7
100
AcDbText
 10
1412.091404387809
 20
613.7200649319399
 30
0.0
 40
5.0
  1
ＦＹＫキャップＡ
100
AcDbText
  0
TEXT
  5
728E
330
1E
100
AcDbEntity
  8
図枠
 62
     7
100
AcDbText
 10
1544.591404387809
 20
622.7200649319399
 30
0.0
 40
5.0
  1
規　格
100
AcDbText
  0
TEXT
  5
728F
330
1E
100
AcDbEntity
  8
図枠
 62
     7
100
AcDbText
 10
1443.591404387809
 20
622.7200649319399
 30
0.0
 40
5.0
  1
部材名称
100
AcDbText
  0
LINE
  5
7290
330
1E
100
AcDbEntity
  8
図枠
  6
Continuous
 62
     7
100
AcDbLine
 10
1276.091404387809
 20
978.2200649319399
 30
0.0
 11
1276.091404387809
 21
402.2200649319399
 31
0.0
  0
LINE
  5
7291
330
1E
100
AcDbEntity
  8
図枠
  6
Continuous
 62
     7
100
AcDbLine
 10
2100.091404387809
 20
978.2200649319399
 30
0.0
 11
1276.091404387809
 21
978.2200649319399
 31
0.0
  0
LINE
  5
7292
330
1E
100
AcDbEntity
  8
図枠
  6
Continuous
 62
     7
100
AcDbLine
 10
2100.091404387809
 20
402.2200649319399
 30
0.0
 11
2100.091404387809
 21
978.2200649319399
 31
0.0
  0
LINE
  5
7293
330
1E
100
AcDbEntity
  8
図枠
  6
Continuous
 62
     7
100
AcDbLine
 10
1276.091404387809
 20
402.2200649319399
 30
0.0
 11
2100.091404387809
 21
402.2200649319399
 31
0.0
  0
LINE
  5
7294
330
1E
100
AcDbEntity
  8
躯体と製品
  6
DASHED1
 62
     7
100
AcDbLine
 10
1498.93439651908
 20
845.694703508111
 30
0.0
 11
1519.34821976691
 21
844.6248603650163
 31
0.0
  0
LINE
  5
7295
330
1E
100
AcDbEntity
  8
図枠
  6
Continuous
 62
     7
100
AcDbLine
 10
1983.091404387809
 20
630.2200649319399
 30
0.0
 11
1758.091404387809
 21
630.2200649319399
 31
0.0
  0
DIMENSION
  5
7296
330
1E
100
AcDbEntity
  8
寸法
  6
Continuous
100
AcDbDimension
  2
*D4
 10
1512.091404387809
 20
655.22006493194
 30
0.0
 11
1499.591404387809
 21
658.7200649319401
 31
0.0
 70
    32
 71
     5
 42
-1.0
  3
AutoCAD
100
AcDbAlignedDimension
 13
1487.091404387809
 23
778.22006493194
 33
0.0
 14
1512.091404387809
 24
655.22006493194
 34
0.0
100
AcDbRotatedDimension
  0
DIMENSION
  5
72A2
330
1E
100
AcDbEntity
  8
寸法
  6
Continuous
100
AcDbDimension
  2
*D5
 10
1662.091404387809
 20
655.22006493194
 30
0.0
 11
1587.214505356936
 21
658.7200649319401
 31
0.0
 70
    32
 71
     5
 42
-1.0
  3
AutoCAD
100
AcDbAlignedDimension
 13
1512.337606326062
 23
655.1766528875234
 33
0.0
 14
1662.091404387809
 24
655.22006493194
 34
0.0
100
AcDbRotatedDimension
  0
DIMENSION
  5
72AE
330
1E
100
AcDbEntity
  8
寸法
  6
Continuous
100
AcDbDimension
  2
*D6
 10
1812.091404387809
 20
655.22006493194
 30
0.0
 11
1737.091404387809
 21
658.7200649319401
 31
0.0
 70
    32
  1
≦Ｃ
 71
     5
 42
-1.0
  3
AutoCAD
100
AcDbAlignedDimension
 13
1662.091404387809
 23
654.9700649319401
 33
0.0
 14
1812.091404387809
 24
655.22006493194
 34
0.0
100
AcDbRotatedDimension
  0
DIMENSION
  5
72DF
330
1E
100
AcDbEntity
  8
寸法
  6
Continuous
100
AcDbDimension
  2
*D7
 10
1888.091404387809
 20
655.2634769763568
 30
0.0
 11
1850.214505356936
 21
658.7634769763568
 31
0.0
 70
    32
  1
75≦
 71
     5
 42
-1.0
  3
AutoCAD
100
AcDbAlignedDimension
 13
1812.337606326062
 23
655.2634769763568
 33
0.0
 14
1888.091404387809
 24
735.3025936252745
 34
0.0
100
AcDbRotatedDimension
  0
DIMENSION
  5
72EB
330
1E
100
AcDbEntity
  8
寸法
  6
Continuous
100
AcDbDimension
  2
*D8
 10
1812.091404387809
 20
720.22006493194
 30
0.0
 11
1787.091404387809
 21
723.7200649319399
 31
0.0
 70
    32
 71
     5
 42
-1.0
  3
AutoCAD
100
AcDbAlignedDimension
 13
1762.091404387809
 23
720.22006493194
 33
0.0
 14
1812.091404387809
 24
720.22006493194
 34
0.0
100
AcDbRotatedDimension
  0
DIMENSION
  5
72F6
330
1E
100
AcDbEntity
  8
寸法
  6
Continuous
100
AcDbDimension
  2
*D9
 10
1928.091404387809
 20
780.22006493194
 30
0.0
 11
1924.591404387809
 21
758.7613292786076
 31
0.0
 70
    32
  1
44
 71
     5
 42
-1.0
  3
AutoCAD
100
AcDbAlignedDimension
 13
1890.091404387809
 23
737.3025936252745
 33
0.0
 14
1816.056481640526
 24
780.22006493194
 34
0.0
 50
90.0
100
AcDbRotatedDimension
  0
DIMENSION
  5
7303
330
1E
100
AcDbEntity
  8
寸法
  6
Continuous
100
AcDbDimension
  2
*D10
 10
1948.091404387809
 20
827.3025936252746
 30
0.0
 11
1944.591404387809
 21
782.3025936252748
 31
0.0
 70
    32
 71
     5
 42
-1.0
  3
AutoCAD
100
AcDbAlignedDimension
 13
1890.091404387809
 23
737.3025936252745
 33
0.0
 14
1890.091404387809
 24
827.3025936252746
 34
0.0
 50
90.0
100
AcDbRotatedDimension
  0
DIMENSION
  5
7310
330
1E
100
AcDbEntity
  8
寸法
  6
Continuous
100
AcDbDimension
  2
*D11
 10
1503.091404387809
 20
881.352881697706
 30
0.0
 11
1695.591404387809
 21
884.852881697706
 31
0.0
 70
    32
  1
A
 71
     5
 42
-1.0
  3
AutoCAD
100
AcDbAlignedDimension
 13
1888.091404387809
 23
829.3025936252742
 33
0.0
 14
1503.091404387809
 24
861.4795886492455
 34
0.0
100
AcDbRotatedDimension
  0
DIMENSION
  5
731D
330
1E
100
AcDbEntity
  8
寸法
  6
Continuous
100
AcDbDimension
  2
*D12
 10
1888.091404387809
 20
958.3528816977056
 30
0.0
 11
1688.091404387809
 21
961.8528816977056
 31
0.0
 70
    32
  1
W
 71
     5
 42
-1.0
  3
AutoCAD
100
AcDbAlignedDimension
 13
1488.091404387809
 23
890.3528816977059
 33
0.0
 14
1888.091404387809
 24
829.3025936252742
 34
0.0
100
AcDbRotatedDimension
  0
DIMENSION
  5
732A
330
1E
100
AcDbEntity
  8
寸法
  6
Continuous
100
AcDbDimension
  2
*D13
 10
1521.591404387809
 20
943.3528816977059
 30
0.0
 11
1504.841404387809
 21
946.8528816977059
 31
0.0
 70
    32
  1
33.5
 71
     5
 42
-1.0
  3
AutoCAD
100
AcDbAlignedDimension
 13
1488.091404387809
 23
890.3528816977059
 33
0.0
 14
1521.591404387809
 24
891.485698463472
 34
0.0
100
AcDbRotatedDimension
  0
DIMENSION
  5
7337
330
1E
100
AcDbEntity
  8
寸法
  6
Continuous
100
AcDbDimension
  2
*D14
 10
1521.591404387809
 20
928.3528816977058
 30
0.0
 11
1511.591404387809
 21
931.8528816977059
 31
0.0
 70
    32
 71
     5
 42
-1.0
  3
AutoCAD
100
AcDbAlignedDimension
 13
1501.591404387809
 23
905.352881697706
 33
0.0
 14
1521.591404387809
 24
891.485698463472
 34
0.0
100
AcDbRotatedDimension
  0
DIMENSION
  5
7351
330
1E
100
AcDbEntity
  8
寸法
  6
Continuous
100
AcDbDimension
  2
*D15
 10
1556.591404387809
 20
888.352881697706
 30
0.0
 11
1553.091404387808
 21
895.8528816977061
 31
0.0
 70
    32
 71
     5
 42
-1.0
  3
AutoCAD
100
AcDbAlignedDimension
 13
1514.091404387809
 23
903.3528816977058
 33
0.0
 14
1523.591404387809
 24
888.352881697706
 34
0.0
 50
90.0
100
AcDbRotatedDimension
  0
DIMENSION
  5
735E
330
1E
100
AcDbEntity
  8
寸法
  6
Continuous
100
AcDbDimension
  2
*D16
 10
1556.591404387809
 20
852.3528816977059
 30
0.0
 11
1553.091404387808
 21
870.3528816977062
 31
0.0
 70
    32
 71
     5
 42
-1.0
  3
AutoCAD
100
AcDbAlignedDimension
 13
1523.591404387809
 23
888.352881697706
 33
0.0
 14
1523.591404387809
 24
852.3528816977059
 34
0.0
 50
90.0
100
AcDbRotatedDimension
  0
DIMENSION
  5
736B
330
1E
100
AcDbEntity
  8
寸法
  6
Continuous
100
AcDbDimension
  2
*D17
 10
1432.091404387809
 20
844.3528816977059
 30
0.0
 11
1428.591404387809
 21
812.2864733148231
 31
0.0
 70
    32
  1
D
 71
     5
 42
-1.0
  3
AutoCAD
100
AcDbAlignedDimension
 13
1485.091404387809
 23
780.22006493194
 33
0.0
 14
1432.091404387809
 24
844.3528816977059
 34
0.0
 50
90.0
100
AcDbRotatedDimension
  0
DIMENSION
  5
7377
330
1E
100
AcDbEntity
  8
寸法
  6
Continuous
100
AcDbDimension
  2
*D18
 10
1412.091404387809
 20
903.3528816977058
 30
0.0
 11
1408.591404387809
 21
841.7864733148231
 31
0.0
 70
    32
  1
E
 71
     5
 42
-1.0
  3
AutoCAD
100
AcDbAlignedDimension
 13
1485.091404387809
 23
780.22006493194
 33
0.0
 14
1485.091404387809
 24
903.3528816977058
 34
0.0
 50
90.0
100
AcDbRotatedDimension
  0
ENDSEC
  0
SECTION
  2
OBJECTS
  0
DICTIONARY
  5
C
330
0
100
AcDbDictionary
281
     1
  3
ACAD_COLOR
350
6779
  3
ACAD_GROUP
350
D
  3
ACAD_LAYOUT
350
19
  3
ACAD_MATERIAL
350
6778
  3
ACAD_MLINESTYLE
350
16
  3
ACAD_PLOTSETTINGS
350
18
  3
ACAD_PLOTSTYLENAME
350
E
  3
ACAD_TABLESTYLE
350
677A
  3
ACDBHEADERROUNDTRIPXREC
350
741D
  3
AcDbVariableDictionary
350
169
  0
DICTIONARY
  5
175
330
2
100
AcDbDictionary
280
     1
281
     1
  3
ACAD_LAYERFILTERS
360
185
  3
ACAD_LAYERSTATES
360
176
  0
DICTIONARY
  5
28B
330
1E
100
AcDbDictionary
280
     1
281
     1
  3
ACAD_LAYOUTSELFREF
360
740E
  0
DICTIONARY
  5
28D
330
1A
100
AcDbDictionary
280
     1
281
     1
  3
ACAD_LAYOUTSELFREF
360
740D
  0
DICTIONARY
  5
6779
102
{ACAD_REACTORS
330
C
102
}
330
C
100
AcDbDictionary
281
     1
  0
DICTIONARY
  5
D
102
{ACAD_REACTORS
330
C
102
}
330
C
100
AcDbDictionary
281
     1
  0
DICTIONARY
  5
19
102
{ACAD_REACTORS
330
C
102
}
330
C
100
AcDbDictionary
281
     1
  3
Model
350
21
  3
ﾚｲｱｳﾄ1
350
1D
  0
DICTIONARY
  5
6778
102
{ACAD_REACTORS
330
C
102
}
330
C
100
AcDbDictionary
281
     1
  0
DICTIONARY
  5
16
102
{ACAD_REACTORS
330
C
102
}
330
C
100
AcDbDictionary
281
     1
  3
Standard
350
17
  0
DICTIONARY
  5
18
102
{ACAD_REACTORS
330
C
102
}
330
C
100
AcDbDictionary
281
     1
  0
ACDBDICTIONARYWDFLT
  5
E
102
{ACAD_REACTORS
330
C
102
}
330
C
100
AcDbDictionary
281
     1
  3
Normal
350
F
100
AcDbDictionaryWithDefault
340
F
1001
ACAD
1000
TREAT_AS_HARD
1070
     0
1000
TREAT_AS_HARD
1070
     0
1000
TREAT_AS_HARD
1070
     0
1000
TREAT_AS_HARD
1070
     0
1000
TREAT_AS_HARD
1070
     0
1000
TREAT_AS_HARD
1070
     0
1000
TREAT_AS_HARD
1070
     0
1000
TREAT_AS_HARD
1070
     0
1000
TREAT_AS_HARD
1070
     0
1000
TREAT_AS_HARD
1070
     0
1000
TREAT_AS_HARD
1070
     0
1000
TREAT_AS_HARD
1070
     0
1000
TREAT_AS_HARD
1070
     0
1000
TREAT_AS_HARD
1070
     0
1000
TREAT_AS_HARD
1070
     0
1000
TREAT_AS_HARD
1070
     0
1000
TREAT_AS_HARD
1070
     0
1000
TREAT_AS_HARD
1070
     0
1000
TREAT_AS_HARD
1070
     0
1000
TREAT_AS_HARD
1070
     0
1000
TREAT_AS_HARD
1070
     0
1000
TREAT_AS_HARD
1070
     0
1000
TREAT_AS_HARD
1070
     0
1000
TREAT_AS_HARD
1070
     0
1000
TREAT_AS_HARD
1070
     0
1000
TREAT_AS_HARD
1070
     0
1000
TREAT_AS_HARD
1070
     0
  0
DICTIONARY
  5
677A
102
{ACAD_REACTORS
330
C
102
}
330
C
100
AcDbDictionary
281
     1
  3
Standard
350
677B
  0
DICTIONARY
  5
741D
102
{ACAD_REACTORS
330
C
102
}
330
C
100
AcDbDictionary
281
     1
  0
DICTIONARY
  5
169
102
{ACAD_REACTORS
330
C
102
}
330
C
100
AcDbDictionary
281
     1
  3
CTABLESTYLE
350
6782
  3
DIMASSOC
350
16A
  3
PROJECTNAME
350
6791
  0
DICTIONARY
  5
185
102
{ACAD_REACTORS
330
175
102
}
330
175
100
AcDbDictionary
280
     1
281
     1
  0
DICTIONARY
  5
176
102
{ACAD_REACTORS
330
175
102
}
330
175
100
AcDbDictionary
281
     1
  3
ACAD
350
177
  0
XRECORD
  5
740E
102
{ACAD_REACTORS
330
28B
102
}
330
28B
100
AcDbXrecord
280
     1
340
1E
  0
XRECORD
  5
740D
102
{ACAD_REACTORS
330
28D
102
}
330
28D
100
AcDbXrecord
280
     1
340
1A
  0
LAYOUT
  5
21
102
{ACAD_XDICTIONARY
360
7420
102
}
102
{ACAD_REACTORS
330
19
102
}
330
19
100
AcDbPlotSettings
  1

  2
\\MEISEI-1\EPSON Stylus Photo EX3
  4

  6

 40
0.0
 41
0.0
 42
0.0
 43
0.0
 44
0.0
 45
0.0
 46
0.0
 47
0.0
 48
0.0
 49
0.0
140
0.0
141
0.0
142
1.0
143
1.0
 70
  1712
 72
     0
 73
     0
 74
     0
  7

 75
     0
147
1.0
148
0.0
149
0.0
100
AcDbLayout
  1
Model
 70
     1
 71
     0
 10
0.0
 20
0.0
 11
12.0
 21
9.0
 12
0.0
 22
0.0
 32
0.0
 14
0.0
 24
0.0
 34
0.0
 15
0.0
 25
0.0
 35
0.0
146
0.0
 13
0.0
 23
0.0
 33
0.0
 16
1.0
 26
0.0
 36
0.0
 17
0.0
 27
1.0
 37
0.0
 76
     0
330
1E
  0
LAYOUT
  5
1D
102
{ACAD_XDICTIONARY
360
741E
102
}
102
{ACAD_REACTORS
330
19
102
}
330
19
100
AcDbPlotSettings
  1

  2
\\MEISEI-1\EPSON Stylus Photo EX3
  4

  6

 40
0.0
 41
0.0
 42
0.0
 43
0.0
 44
0.0
 45
0.0
 46
0.0
 47
0.0
 48
0.0
 49
0.0
140
0.0
141
0.0
142
1.0
143
1.0
 70
   688
 72
     0
 73
     0
 74
     5
  7

 75
    16
147
1.0
148
0.0
149
0.0
100
AcDbLayout
  1
ﾚｲｱｳﾄ1
 70
     1
 71
     1
 10
0.0
 20
0.0
 11
12.0
 21
9.0
 12
0.0
 22
0.0
 32
0.0
 14
1.000000000000000E+20
 24
1.000000000000000E+20
 34
1.000000000000000E+20
 15
-1.000000000000000E+20
 25
-1.000000000000000E+20
 35
-1.000000000000000E+20
146
0.0
 13
0.0
 23
0.0
 33
0.0
 16
1.0
 26
0.0
 36
0.0
 17
0.0
 27
1.0
 37
0.0
 76
     0
330
1A
  0
MLINESTYLE
  5
17
102
{ACAD_REACTORS
330
16
102
}
330
16
100
AcDbMlineStyle
  2
STANDARD
 70
     0
  3

 62
   256
 51
90.0
 52
90.0
 71
     2
 49
0.5
 62
   256
  6
BYLAYER
 49
-0.5
 62
   256
  6
BYLAYER
  0
ACDBPLACEHOLDER
  5
F
102
{ACAD_REACTORS
330
E
102
}
330
E
  0
TABLESTYLE
  5
677B
102
{ACAD_REACTORS
330
677A
102
}
330
677A
100
AcDbTableStyle
  3
Standard
 70
     0
 71
     0
 40
0.06
 41
0.06
280
     0
281
     0
  7
STANDARD
140
0.18
170
     2
 62
     0
 63
     7
283
     0
274
    -2
284
     1
 64
     0
275
    -2
285
     1
 65
     0
276
    -2
286
     1
 66
     0
277
    -2
287
     1
 67
     0
278
    -2
288
     1
 68
     0
279
    -2
289
     1
 69
     0
  7
STANDARD
140
0.25
170
     5
 62
     0
 63
     7
283
     0
274
    -2
284
     1
 64
     0
275
    -2
285
     1
 65
     0
276
    -2
286
     1
 66
     0
277
    -2
287
     1
 67
     0
278
    -2
288
     1
 68
     0
279
    -2
289
     1
 69
     0
  7
STANDARD
140
0.18
170
     5
 62
     0
 63
     7
283
     0
274
    -2
284
     1
 64
     0
275
    -2
285
     1
 65
     0
276
    -2
286
     1
 66
     0
277
    -2
287
     1
 67
     0
278
    -2
288
     1
 68
     0
279
    -2
289
     1
 69
     0
  0
DICTIONARYVAR
  5
6782
102
{ACAD_REACTORS
330
169
102
}
330
169
100
DictionaryVariables
280
     0
  1
STANDARD
  0
DICTIONARYVAR
  5
16A
102
{ACAD_REACTORS
330
169
102
}
330
169
100
DictionaryVariables
280
     0
  1
1
  0
DICTIONARYVAR
  5
6791
102
{ACAD_REACTORS
330
169
102
}
330
169
100
DictionaryVariables
280
     0
  1

  0
XRECORD
  5
177
102
{ACAD_REACTORS
330
176
102
}
330
176
100
AcDbXrecord
280
     1
 91
      476
330
179
 90
        8
 62
     7
370
    -3
331
15
  1
Color_7
330
178
 90
        8
 62
     7
370
    -3
331
15
  1
Color_7
330
128
 90
        0
 62
     7
370
    -3
331
15
  1
Color_7
330
10
 90
        8
 62
     7
370
    -3
331
15
  1
Color_7
  0
DICTIONARY
  5
7420
330
21
100
AcDbDictionary
280
     1
281
     1
  3
ACAD_XREC_ROUNDTRIP
360
7421
  0
DICTIONARY
  5
741E
330
1D
100
AcDbDictionary
280
     1
281
     1
  3
ACAD_XREC_ROUNDTRIP
360
741F
  0
XRECORD
  5
7421
102
{ACAD_REACTORS
330
7420
102
}
330
7420
100
AcDbXrecord
280
     1
102
SHADEPLOT
 70
     0
102
SHADEPLOTRESLEVEL
 70
     2
102
SHADEPLOTCUSTOMDPI
 70
   300
  0
XRECORD
  5
741F
102
{ACAD_REACTORS
330
741E
102
}
330
741E
100
AcDbXrecord
280
     1
102
SHADEPLOT
 70
     0
102
SHADEPLOTRESLEVEL
 70
     2
102
SHADEPLOTCUSTOMDPI
 70
   300
  0
ENDSEC
  0
EOF
