  0
SECTION
  2
HEADER
  9
$ACADVER
  1
AC1015
  9
$ACADMAINTVER
 70
    20
  9
$DWGCODEPAGE
  3
ANSI_932
  9
$INSBASE
 10
0.0
 20
0.0
 30
0.0
  9
$EXTMIN
 10
1252.370542795558
 20
412.9297307240633
 30
-0.0015258207003583
  9
$EXTMAX
 10
2076.448603836336
 20
989.021253984761
 30
0.0000000349246037
  9
$LIMMIN
 10
0.0
 20
0.0
  9
$LIMMAX
 10
420.0
 20
297.0
  9
$ORTHOMODE
 70
     0
  9
$REGENMODE
 70
     1
  9
$FILLMODE
 70
     1
  9
$QTEXTMODE
 70
     0
  9
$MIRRTEXT
 70
     1
  9
$LTSCALE
 40
1.0
  9
$ATTMODE
 70
     1
  9
$TEXTSIZE
 40
5.0
  9
$TRACEWID
 40
0.05
  9
$TEXTSTYLE
  7
ACAD
  9
$CLAYER
  8
0
  9
$CELTYPE
  6
CONTINUOUS
  9
$CECOLOR
 62
   256
  9
$CELTSCALE
 40
1.0
  9
$DISPSILH
 70
     0
  9
$DIMSCALE
 40
1.0
  9
$DIMASZ
 40
1.0
  9
$DIMEXO
 40
0.0
  9
$DIMDLI
 40
0.38
  9
$DIMRND
 40
0.0
  9
$DIMDLE
 40
0.0
  9
$DIMEXE
 40
0.0
  9
$DIMTP
 40
0.0
  9
$DIMTM
 40
0.0
  9
$DIMTXT
 40
5.0
  9
$DIMCEN
 40
0.09
  9
$DIMTSZ
 40
0.0
  9
$DIMTOL
 70
     0
  9
$DIMLIM
 70
     0
  9
$DIMTIH
 70
     0
  9
$DIMTOH
 70
     1
  9
$DIMSE1
 70
     0
  9
$DIMSE2
 70
     0
  9
$DIMTAD
 70
     1
  9
$DIMZIN
 70
     0
  9
$DIMBLK
  1
Dot
  9
$DIMASO
 70
     1
  9
$DIMSHO
 70
     1
  9
$DIMPOST
  1

  9
$DIMAPOST
  1

  9
$DIMALT
 70
     0
  9
$DIMALTD
 70
     2
  9
$DIMALTF
 40
25.4
  9
$DIMLFAC
 40
1.0
  9
$DIMTOFL
 70
     0
  9
$DIMTVP
 40
0.0
  9
$DIMTIX
 70
     1
  9
$DIMSOXD
 70
     0
  9
$DIMSAH
 70
     0
  9
$DIMBLK1
  1

  9
$DIMBLK2
  1

  9
$DIMSTYLE
  2
AutoCAD
  9
$DIMCLRD
 70
     4
  9
$DIMCLRE
 70
     4
  9
$DIMCLRT
 70
     3
  9
$DIMTFAC
 40
1.0
  9
$DIMGAP
 40
1.0
  9
$DIMJUST
 70
     0
  9
$DIMSD1
 70
     0
  9
$DIMSD2
 70
     0
  9
$DIMTOLJ
 70
     1
  9
$DIMTZIN
 70
     0
  9
$DIMALTZ
 70
     0
  9
$DIMALTTZ
 70
     0
  9
$DIMUPT
 70
     0
  9
$DIMDEC
 70
     0
  9
$DIMTDEC
 70
     0
  9
$DIMALTU
 70
     2
  9
$DIMALTTD
 70
     2
  9
$DIMTXSTY
  7
ACAD
  9
$DIMAUNIT
 70
     0
  9
$DIMADEC
 70
     0
  9
$DIMALTRND
 40
0.0
  9
$DIMAZIN
 70
     0
  9
$DIMDSEP
 70
    46
  9
$DIMATFIT
 70
     0
  9
$DIMFRAC
 70
     0
  9
$DIMLDRBLK
  1
None
  9
$DIMLUNIT
 70
     2
  9
$DIMLWD
 70
    -2
  9
$DIMLWE
 70
    -2
  9
$DIMTMOVE
 70
     0
  9
$LUNITS
 70
     2
  9
$LUPREC
 70
     4
  9
$SKETCHINC
 40
0.1
  9
$FILLETRAD
 40
0.0
  9
$AUNITS
 70
     0
  9
$AUPREC
 70
     0
  9
$MENU
  1
.
  9
$ELEVATION
 40
0.0
  9
$PELEVATION
 40
0.0
  9
$THICKNESS
 40
0.0
  9
$LIMCHECK
 70
     0
  9
$CHAMFERA
 40
0.0
  9
$CHAMFERB
 40
0.0
  9
$CHAMFERC
 40
0.0
  9
$CHAMFERD
 40
0.0
  9
$SKPOLY
 70
     0
  9
$TDCREATE
 40
2454316.693457674
  9
$TDUCREATE
 40
2454316.318457674
  9
$TDUPDATE
 40
2454736.716921007
  9
$TDUUPDATE
 40
2454736.341921007
  9
$TDINDWG
 40
0.2482162847
  9
$TDUSRTIMER
 40
0.2482162847
  9
$USRTIMER
 70
     1
  9
$ANGBASE
 50
0.0
  9
$ANGDIR
 70
     0
  9
$PDMODE
 70
     0
  9
$PDSIZE
 40
0.0
  9
$PLINEWID
 40
0.0
  9
$SPLFRAME
 70
     0
  9
$SPLINETYPE
 70
     6
  9
$SPLINESEGS
 70
     8
  9
$HANDSEED
  5
7360
  9
$SURFTAB1
 70
     6
  9
$SURFTAB2
 70
     6
  9
$SURFTYPE
 70
     6
  9
$SURFU
 70
     6
  9
$SURFV
 70
     6
  9
$UCSBASE
  2

  9
$UCSNAME
  2

  9
$UCSORG
 10
0.0
 20
0.0
 30
0.0
  9
$UCSXDIR
 10
1.0
 20
0.0
 30
0.0
  9
$UCSYDIR
 10
0.0
 20
1.0
 30
0.0
  9
$UCSORTHOREF
  2

  9
$UCSORTHOVIEW
 70
     0
  9
$UCSORGTOP
 10
0.0
 20
0.0
 30
0.0
  9
$UCSORGBOTTOM
 10
0.0
 20
0.0
 30
0.0
  9
$UCSORGLEFT
 10
0.0
 20
0.0
 30
0.0
  9
$UCSORGRIGHT
 10
0.0
 20
0.0
 30
0.0
  9
$UCSORGFRONT
 10
0.0
 20
0.0
 30
0.0
  9
$UCSORGBACK
 10
0.0
 20
0.0
 30
0.0
  9
$PUCSBASE
  2

  9
$PUCSNAME
  2

  9
$PUCSORG
 10
0.0
 20
0.0
 30
0.0
  9
$PUCSXDIR
 10
1.0
 20
0.0
 30
0.0
  9
$PUCSYDIR
 10
0.0
 20
1.0
 30
0.0
  9
$PUCSORTHOREF
  2

  9
$PUCSORTHOVIEW
 70
     0
  9
$PUCSORGTOP
 10
0.0
 20
0.0
 30
0.0
  9
$PUCSORGBOTTOM
 10
0.0
 20
0.0
 30
0.0
  9
$PUCSORGLEFT
 10
0.0
 20
0.0
 30
0.0
  9
$PUCSORGRIGHT
 10
0.0
 20
0.0
 30
0.0
  9
$PUCSORGFRONT
 10
0.0
 20
0.0
 30
0.0
  9
$PUCSORGBACK
 10
0.0
 20
0.0
 30
0.0
  9
$USERI1
 70
     0
  9
$USERI2
 70
     0
  9
$USERI3
 70
     0
  9
$USERI4
 70
     0
  9
$USERI5
 70
     0
  9
$USERR1
 40
0.0
  9
$USERR2
 40
0.0
  9
$USERR3
 40
0.0
  9
$USERR4
 40
0.0
  9
$USERR5
 40
0.0
  9
$WORLDVIEW
 70
     1
  9
$SHADEDGE
 70
     3
  9
$SHADEDIF
 70
    70
  9
$TILEMODE
 70
     1
  9
$MAXACTVP
 70
    48
  9
$PINSBASE
 10
0.0
 20
0.0
 30
0.0
  9
$PLIMCHECK
 70
     0
  9
$PEXTMIN
 10
1.000000000000000E+20
 20
1.000000000000000E+20
 30
1.000000000000000E+20
  9
$PEXTMAX
 10
-1.000000000000000E+20
 20
-1.000000000000000E+20
 30
-1.000000000000000E+20
  9
$PLIMMIN
 10
0.0
 20
0.0
  9
$PLIMMAX
 10
12.0
 20
9.0
  9
$UNITMODE
 70
     0
  9
$VISRETAIN
 70
     0
  9
$PLINEGEN
 70
     0
  9
$PSLTSCALE
 70
     1
  9
$TREEDEPTH
 70
  3020
  9
$CMLSTYLE
  2
Standard
  9
$CMLJUST
 70
     0
  9
$CMLSCALE
 40
1.0
  9
$PROXYGRAPHICS
 70
     1
  9
$MEASUREMENT
 70
     0
  9
$CELWEIGHT
370
    -1
  9
$ENDCAPS
280
     0
  9
$JOINSTYLE
280
     0
  9
$LWDISPLAY
290
     0
  9
$INSUNITS
 70
     0
  9
$HYPERLINKBASE
  1

  9
$STYLESHEET
  1

  9
$XEDIT
290
     1
  9
$CEPSNTYPE
380
     0
  9
$PSTYLEMODE
290
     1
  9
$FINGERPRINTGUID
  2
{CC7D6DEE-A9F1-4F3E-AC95-C84B62CCA3FD}
  9
$VERSIONGUID
  2
{E02D8910-407D-4BAA-95DF-DCDCB184AE93}
  9
$EXTNAMES
290
     1
  9
$PSVPSCALE
 40
0.0
  9
$OLESTARTUP
290
     0
  0
ENDSEC
  0
SECTION
  2
CLASSES
  0
CLASS
  1
ACDBDICTIONARYWDFLT
  2
AcDbDictionaryWithDefault
  3
ObjectDBX Classes
 90
        0
280
     0
281
     0
  0
CLASS
  1
ACDBPLACEHOLDER
  2
AcDbPlaceHolder
  3
ObjectDBX Classes
 90
        0
280
     0
281
     0
  0
CLASS
  1
LAYOUT
  2
AcDbLayout
  3
ObjectDBX Classes
 90
        0
280
     0
281
     0
  0
CLASS
  1
DICTIONARYVAR
  2
AcDbDictionaryVar
  3
ObjectDBX Classes
 90
        0
280
     0
281
     0
  0
CLASS
  1
LONG_TRANSACTION
  2
AcDbLongTransaction
  3
ObjectDBX Classes
 90
    32768
280
     0
281
     0
  0
CLASS
  1
LWPOLYLINE
  2
AcDbPolyline
  3
ObjectDBX Classes
 90
        0
280
     0
281
     1
  0
CLASS
  1
HATCH
  2
AcDbHatch
  3
ObjectDBX Classes
 90
    32768
280
     0
281
     1
  0
CLASS
  1
XRECORD
  2
AcDbXrecord
  3
ObjectDBX Classes
 90
        0
280
     0
281
     0
  0
CLASS
  1
LONG_TRANSACTION
  2
AcDbLongTransaction
  3
ObjectDBX Classes
 90
    32768
280
     0
281
     0
  0
CLASS
  1
LWPOLYLINE
  2
AcDbPolyline
  3
ObjectDBX Classes
 90
        0
280
     0
281
     1
  0
CLASS
  1
HATCH
  2
AcDbHatch
  3
ObjectDBX Classes
 90
    32768
280
     0
281
     1
  0
CLASS
  1
XRECORD
  2
AcDbXrecord
  3
ObjectDBX Classes
 90
        0
280
     0
281
     0
  0
CLASS
  1
LONG_TRANSACTION
  2
AcDbLongTransaction
  3
ObjectDBX Classes
 90
    32768
280
     0
281
     0
  0
CLASS
  1
LWPOLYLINE
  2
AcDbPolyline
  3
ObjectDBX Classes
 90
        0
280
     0
281
     1
  0
CLASS
  1
HATCH
  2
AcDbHatch
  3
ObjectDBX Classes
 90
    32768
280
     0
281
     1
  0
CLASS
  1
XRECORD
  2
AcDbXrecord
  3
ObjectDBX Classes
 90
        0
280
     0
281
     0
  0
CLASS
  1
LONG_TRANSACTION
  2
AcDbLongTransaction
  3
ObjectDBX Classes
 90
    32768
280
     0
281
     0
  0
CLASS
  1
LWPOLYLINE
  2
AcDbPolyline
  3
ObjectDBX Classes
 90
        0
280
     0
281
     1
  0
CLASS
  1
HATCH
  2
AcDbHatch
  3
ObjectDBX Classes
 90
    32768
280
     0
281
     1
  0
CLASS
  1
XRECORD
  2
AcDbXrecord
  3
ObjectDBX Classes
 90
        0
280
     0
281
     0
  0
CLASS
  1
LONG_TRANSACTION
  2
AcDbLongTransaction
  3
ObjectDBX Classes
 90
    32768
280
     0
281
     0
  0
CLASS
  1
LWPOLYLINE
  2
AcDbPolyline
  3
ObjectDBX Classes
 90
        0
280
     0
281
     1
  0
CLASS
  1
HATCH
  2
AcDbHatch
  3
ObjectDBX Classes
 90
    32768
280
     0
281
     1
  0
CLASS
  1
XRECORD
  2
AcDbXrecord
  3
ObjectDBX Classes
 90
        0
280
     0
281
     0
  0
CLASS
  1
LONG_TRANSACTION
  2
AcDbLongTransaction
  3
ObjectDBX Classes
 90
    32768
280
     0
281
     0
  0
CLASS
  1
LWPOLYLINE
  2
AcDbPolyline
  3
ObjectDBX Classes
 90
        0
280
     0
281
     1
  0
CLASS
  1
HATCH
  2
AcDbHatch
  3
ObjectDBX Classes
 90
    32768
280
     0
281
     1
  0
CLASS
  1
XRECORD
  2
AcDbXrecord
  3
ObjectDBX Classes
 90
        0
280
     0
281
     0
  0
CLASS
  1
LONG_TRANSACTION
  2
AcDbLongTransaction
  3
ObjectDBX Classes
 90
    32768
280
     0
281
     0
  0
CLASS
  1
LWPOLYLINE
  2
AcDbPolyline
  3
ObjectDBX Classes
 90
        0
280
     0
281
     1
  0
CLASS
  1
HATCH
  2
AcDbHatch
  3
ObjectDBX Classes
 90
    32768
280
     0
281
     1
  0
CLASS
  1
XRECORD
  2
AcDbXrecord
  3
ObjectDBX Classes
 90
        0
280
     0
281
     0
  0
CLASS
  1
LONG_TRANSACTION
  2
AcDbLongTransaction
  3
ObjectDBX Classes
 90
    32768
280
     0
281
     0
  0
CLASS
  1
LWPOLYLINE
  2
AcDbPolyline
  3
ObjectDBX Classes
 90
        0
280
     0
281
     1
  0
CLASS
  1
HATCH
  2
AcDbHatch
  3
ObjectDBX Classes
 90
    32768
280
     0
281
     1
  0
CLASS
  1
XRECORD
  2
AcDbXrecord
  3
ObjectDBX Classes
 90
        0
280
     0
281
     0
  0
CLASS
  1
LONG_TRANSACTION
  2
AcDbLongTransaction
  3
ObjectDBX Classes
 90
    32768
280
     0
281
     0
  0
CLASS
  1
LWPOLYLINE
  2
AcDbPolyline
  3
ObjectDBX Classes
 90
        0
280
     0
281
     1
  0
CLASS
  1
HATCH
  2
AcDbHatch
  3
ObjectDBX Classes
 90
    32768
280
     0
281
     1
  0
CLASS
  1
XRECORD
  2
AcDbXrecord
  3
ObjectDBX Classes
 90
        0
280
     0
281
     0
  0
CLASS
  1
LONG_TRANSACTION
  2
AcDbLongTransaction
  3
ObjectDBX Classes
 90
    32768
280
     0
281
     0
  0
CLASS
  1
LWPOLYLINE
  2
AcDbPolyline
  3
ObjectDBX Classes
 90
        0
280
     0
281
     1
  0
CLASS
  1
HATCH
  2
AcDbHatch
  3
ObjectDBX Classes
 90
    32768
280
     0
281
     1
  0
CLASS
  1
XRECORD
  2
AcDbXrecord
  3
ObjectDBX Classes
 90
        0
280
     0
281
     0
  0
CLASS
  1
LONG_TRANSACTION
  2
AcDbLongTransaction
  3
ObjectDBX Classes
 90
    32768
280
     0
281
     0
  0
CLASS
  1
LWPOLYLINE
  2
AcDbPolyline
  3
ObjectDBX Classes
 90
        0
280
     0
281
     1
  0
CLASS
  1
HATCH
  2
AcDbHatch
  3
ObjectDBX Classes
 90
    32768
280
     0
281
     1
  0
CLASS
  1
XRECORD
  2
AcDbXrecord
  3
ObjectDBX Classes
 90
        0
280
     0
281
     0
  0
CLASS
  1
LONG_TRANSACTION
  2
AcDbLongTransaction
  3
ObjectDBX Classes
 90
    32768
280
     0
281
     0
  0
CLASS
  1
LWPOLYLINE
  2
AcDbPolyline
  3
ObjectDBX Classes
 90
        0
280
     0
281
     1
  0
CLASS
  1
HATCH
  2
AcDbHatch
  3
ObjectDBX Classes
 90
    32768
280
     0
281
     1
  0
CLASS
  1
XRECORD
  2
AcDbXrecord
  3
ObjectDBX Classes
 90
        0
280
     0
281
     0
  0
CLASS
  1
LONG_TRANSACTION
  2
AcDbLongTransaction
  3
ObjectDBX Classes
 90
    32768
280
     0
281
     0
  0
CLASS
  1
LWPOLYLINE
  2
AcDbPolyline
  3
ObjectDBX Classes
 90
        0
280
     0
281
     1
  0
CLASS
  1
HATCH
  2
AcDbHatch
  3
ObjectDBX Classes
 90
    32768
280
     0
281
     1
  0
CLASS
  1
XRECORD
  2
AcDbXrecord
  3
ObjectDBX Classes
 90
        0
280
     0
281
     0
  0
CLASS
  1
LONG_TRANSACTION
  2
AcDbLongTransaction
  3
ObjectDBX Classes
 90
    32768
280
     0
281
     0
  0
CLASS
  1
LWPOLYLINE
  2
AcDbPolyline
  3
ObjectDBX Classes
 90
        0
280
     0
281
     1
  0
CLASS
  1
HATCH
  2
AcDbHatch
  3
ObjectDBX Classes
 90
    32768
280
     0
281
     1
  0
CLASS
  1
XRECORD
  2
AcDbXrecord
  3
ObjectDBX Classes
 90
        0
280
     0
281
     0
  0
CLASS
  1
LONG_TRANSACTION
  2
AcDbLongTransaction
  3
ObjectDBX Classes
 90
    32768
280
     0
281
     0
  0
CLASS
  1
LWPOLYLINE
  2
AcDbPolyline
  3
ObjectDBX Classes
 90
        0
280
     0
281
     1
  0
CLASS
  1
HATCH
  2
AcDbHatch
  3
ObjectDBX Classes
 90
    32768
280
     0
281
     1
  0
CLASS
  1
XRECORD
  2
AcDbXrecord
  3
ObjectDBX Classes
 90
        0
280
     0
281
     0
  0
CLASS
  1
LONG_TRANSACTION
  2
AcDbLongTransaction
  3
ObjectDBX Classes
 90
    32768
280
     0
281
     0
  0
CLASS
  1
LWPOLYLINE
  2
AcDbPolyline
  3
ObjectDBX Classes
 90
        0
280
     0
281
     1
  0
CLASS
  1
HATCH
  2
AcDbHatch
  3
ObjectDBX Classes
 90
    32768
280
     0
281
     1
  0
CLASS
  1
XRECORD
  2
AcDbXrecord
  3
ObjectDBX Classes
 90
        0
280
     0
281
     0
  0
CLASS
  1
LONG_TRANSACTION
  2
AcDbLongTransaction
  3
ObjectDBX Classes
 90
    32768
280
     0
281
     0
  0
CLASS
  1
LWPOLYLINE
  2
AcDbPolyline
  3
ObjectDBX Classes
 90
        0
280
     0
281
     1
  0
CLASS
  1
HATCH
  2
AcDbHatch
  3
ObjectDBX Classes
 90
    32768
280
     0
281
     1
  0
CLASS
  1
XRECORD
  2
AcDbXrecord
  3
ObjectDBX Classes
 90
        0
280
     0
281
     0
  0
CLASS
  1
LONG_TRANSACTION
  2
AcDbLongTransaction
  3
ObjectDBX Classes
 90
    32768
280
     0
281
     0
  0
CLASS
  1
LWPOLYLINE
  2
AcDbPolyline
  3
ObjectDBX Classes
 90
        0
280
     0
281
     1
  0
CLASS
  1
HATCH
  2
AcDbHatch
  3
ObjectDBX Classes
 90
    32768
280
     0
281
     1
  0
CLASS
  1
XRECORD
  2
AcDbXrecord
  3
ObjectDBX Classes
 90
        0
280
     0
281
     0
  0
CLASS
  1
LONG_TRANSACTION
  2
AcDbLongTransaction
  3
ObjectDBX Classes
 90
    32768
280
     0
281
     0
  0
CLASS
  1
LWPOLYLINE
  2
AcDbPolyline
  3
ObjectDBX Classes
 90
        0
280
     0
281
     1
  0
CLASS
  1
HATCH
  2
AcDbHatch
  3
ObjectDBX Classes
 90
    32768
280
     0
281
     1
  0
CLASS
  1
XRECORD
  2
AcDbXrecord
  3
ObjectDBX Classes
 90
        0
280
     0
281
     0
  0
CLASS
  1
LONG_TRANSACTION
  2
AcDbLongTransaction
  3
ObjectDBX Classes
 90
    32768
280
     0
281
     0
  0
CLASS
  1
LWPOLYLINE
  2
AcDbPolyline
  3
ObjectDBX Classes
 90
        0
280
     0
281
     1
  0
CLASS
  1
HATCH
  2
AcDbHatch
  3
ObjectDBX Classes
 90
    32768
280
     0
281
     1
  0
CLASS
  1
XRECORD
  2
AcDbXrecord
  3
ObjectDBX Classes
 90
        0
280
     0
281
     0
  0
CLASS
  1
LONG_TRANSACTION
  2
AcDbLongTransaction
  3
ObjectDBX Classes
 90
    32768
280
     0
281
     0
  0
CLASS
  1
LWPOLYLINE
  2
AcDbPolyline
  3
ObjectDBX Classes
 90
        0
280
     0
281
     1
  0
CLASS
  1
HATCH
  2
AcDbHatch
  3
ObjectDBX Classes
 90
    32768
280
     0
281
     1
  0
CLASS
  1
XRECORD
  2
AcDbXrecord
  3
ObjectDBX Classes
 90
        0
280
     0
281
     0
  0
CLASS
  1
LONG_TRANSACTION
  2
AcDbLongTransaction
  3
ObjectDBX Classes
 90
    32768
280
     0
281
     0
  0
CLASS
  1
LWPOLYLINE
  2
AcDbPolyline
  3
ObjectDBX Classes
 90
        0
280
     0
281
     1
  0
CLASS
  1
HATCH
  2
AcDbHatch
  3
ObjectDBX Classes
 90
    32768
280
     0
281
     1
  0
CLASS
  1
XRECORD
  2
AcDbXrecord
  3
ObjectDBX Classes
 90
        0
280
     0
281
     0
  0
CLASS
  1
LONG_TRANSACTION
  2
AcDbLongTransaction
  3
ObjectDBX Classes
 90
    32768
280
     0
281
     0
  0
CLASS
  1
LWPOLYLINE
  2
AcDbPolyline
  3
ObjectDBX Classes
 90
        0
280
     0
281
     1
  0
CLASS
  1
HATCH
  2
AcDbHatch
  3
ObjectDBX Classes
 90
    32768
280
     0
281
     1
  0
CLASS
  1
XRECORD
  2
AcDbXrecord
  3
ObjectDBX Classes
 90
        0
280
     0
281
     0
  0
CLASS
  1
LONG_TRANSACTION
  2
AcDbLongTransaction
  3
ObjectDBX Classes
 90
    32768
280
     0
281
     0
  0
CLASS
  1
LWPOLYLINE
  2
AcDbPolyline
  3
ObjectDBX Classes
 90
        0
280
     0
281
     1
  0
CLASS
  1
HATCH
  2
AcDbHatch
  3
ObjectDBX Classes
 90
    32768
280
     0
281
     1
  0
CLASS
  1
XRECORD
  2
AcDbXrecord
  3
ObjectDBX Classes
 90
        0
280
     0
281
     0
  0
CLASS
  1
LONG_TRANSACTION
  2
AcDbLongTransaction
  3
ObjectDBX Classes
 90
    32768
280
     0
281
     0
  0
CLASS
  1
LWPOLYLINE
  2
AcDbPolyline
  3
ObjectDBX Classes
 90
        0
280
     0
281
     1
  0
CLASS
  1
HATCH
  2
AcDbHatch
  3
ObjectDBX Classes
 90
    32768
280
     0
281
     1
  0
CLASS
  1
XRECORD
  2
AcDbXrecord
  3
ObjectDBX Classes
 90
        0
280
     0
281
     0
  0
CLASS
  1
LONG_TRANSACTION
  2
AcDbLongTransaction
  3
ObjectDBX Classes
 90
    32768
280
     0
281
     0
  0
CLASS
  1
LWPOLYLINE
  2
AcDbPolyline
  3
ObjectDBX Classes
 90
        0
280
     0
281
     1
  0
CLASS
  1
HATCH
  2
AcDbHatch
  3
ObjectDBX Classes
 90
    32768
280
     0
281
     1
  0
CLASS
  1
XRECORD
  2
AcDbXrecord
  3
ObjectDBX Classes
 90
        0
280
     0
281
     0
  0
CLASS
  1
TABLESTYLE
  2
AcDbTableStyle
  3
ObjectDBX Classes
 90
     2047
280
     0
281
     0
  0
CLASS
  1
ACAD_PROXY_OBJECT_WRAPPER
  2
AcDbProxyObjectWrapper
  3
ObjectDBX Classes
 90
        0
280
     0
281
     0
  0
CLASS
  1
LONG_TRANSACTION
  2
AcDbLongTransaction
  3
ObjectDBX Classes
 90
    32768
280
     0
281
     0
  0
CLASS
  1
LWPOLYLINE
  2
AcDbPolyline
  3
ObjectDBX Classes
 90
        0
280
     0
281
     1
  0
CLASS
  1
HATCH
  2
AcDbHatch
  3
ObjectDBX Classes
 90
    32768
280
     0
281
     1
  0
CLASS
  1
XRECORD
  2
AcDbXrecord
  3
ObjectDBX Classes
 90
        0
280
     0
281
     0
  0
ENDSEC
  0
SECTION
  2
TABLES
  0
TABLE
  2
VPORT
  5
8
330
0
100
AcDbSymbolTable
 70
     2
  0
VPORT
  5
735A
330
8
100
AcDbSymbolTableRecord
100
AcDbViewportTableRecord
  2
*Active
 70
     0
 10
0.0
 20
0.0
 11
1.0
 21
1.0
 12
1678.886421411854
 22
693.2652280873178
 13
0.0
 23
0.0
 14
1.0
 24
1.0
 15
0.0
 25
0.0
 16
0.0
 26
0.0
 36
1.0
 17
0.0
 27
0.0
 37
0.0
 40
651.3679888372039
 41
1.538265306122448
 42
50.0
 43
0.0
 44
0.0
 50
0.0
 51
0.0
 71
     0
 72
   100
 73
     1
 74
     1
 75
     0
 76
     0
 77
     0
 78
     0
281
     0
 65
     1
110
0.0
120
0.0
130
0.0
111
1.0
121
0.0
131
0.0
112
0.0
122
1.0
132
0.0
 79
     0
146
0.0
  0
ENDTAB
  0
TABLE
  2
LTYPE
  5
5
330
0
100
AcDbSymbolTable
 70
    50
  0
LTYPE
  5
13
330
5
100
AcDbSymbolTableRecord
100
AcDbLinetypeTableRecord
  2
ByBlock
 70
     0
  3

 72
    65
 73
     0
 40
0.0
  0
LTYPE
  5
14
330
5
100
AcDbSymbolTableRecord
100
AcDbLinetypeTableRecord
  2
ByLayer
 70
     0
  3

 72
    65
 73
     0
 40
0.0
  0
LTYPE
  5
15
330
5
100
AcDbSymbolTableRecord
100
AcDbLinetypeTableRecord
  2
CONTINUOUS
 70
     0
  3
実線
 72
    65
 73
     0
 40
0.0
  0
LTYPE
  5
22
330
5
100
AcDbSymbolTableRecord
100
AcDbLinetypeTableRecord
  2
DASHED1
 70
     0
  3
--  --  --  --  --  --  --  --  
 72
    65
 73
     2
 40
2.5
 49
1.25
 74
     0
 49
-1.25
 74
     0
  0
LTYPE
  5
23
330
5
100
AcDbSymbolTableRecord
100
AcDbLinetypeTableRecord
  2
DASHED2
 70
     0
  3
----    ----    ----    ----    
 72
    65
 73
     2
 40
5.0
 49
2.5
 74
     0
 49
-2.5
 74
     0
  0
LTYPE
  5
24
330
5
100
AcDbSymbolTableRecord
100
AcDbLinetypeTableRecord
  2
DASHED3
 70
     0
  3
------  ------  ------  ------  
 72
    65
 73
     2
 40
5.0
 49
3.75
 74
     0
 49
-1.25
 74
     0
  0
LTYPE
  5
25
330
5
100
AcDbSymbolTableRecord
100
AcDbLinetypeTableRecord
  2
CENTER1
 70
     0
  3
----- - ----- - ----- - ----- - 
 72
    65
 73
     4
 40
10.0
 49
6.25
 74
     0
 49
-1.25
 74
     0
 49
1.25
 74
     0
 49
-1.25
 74
     0
  0
LTYPE
  5
26
330
5
100
AcDbSymbolTableRecord
100
AcDbLinetypeTableRecord
  2
CENTER2
 70
     0
  3
----------  --  ----------  --  
 72
    65
 73
     4
 40
20.0
 49
12.5
 74
     0
 49
-2.5
 74
     0
 49
2.5
 74
     0
 49
-2.5
 74
     0
  0
LTYPE
  5
27
330
5
100
AcDbSymbolTableRecord
100
AcDbLinetypeTableRecord
  2
PHANTOM1
 70
     0
  3
--- - - --- - - --- - - --- - - 
 72
    65
 73
     6
 40
10.0
 49
3.25
 74
     0
 49
-1.25
 74
     0
 49
1.25
 74
     0
 49
-1.25
 74
     0
 49
1.25
 74
     0
 49
-1.25
 74
     0
  0
LTYPE
  5
28
330
5
100
AcDbSymbolTableRecord
100
AcDbLinetypeTableRecord
  2
PHANTOM2
 70
     0
  3
--------  -  -  --------  -  -  
 72
    65
 73
     6
 40
20.0
 49
10.0
 74
     0
 49
-2.5
 74
     0
 49
1.25
 74
     0
 49
-2.5
 74
     0
 49
1.25
 74
     0
 49
-2.5
 74
     0
  0
LTYPE
  5
29
330
5
100
AcDbSymbolTableRecord
100
AcDbLinetypeTableRecord
  2
DOT
 70
     0
  3
-   -   -   -   -   -   -   -   
 72
    65
 73
     2
 40
2.5
 49
0.625
 74
     0
 49
-1.875
 74
     0
  0
LTYPE
  5
2A
330
5
100
AcDbSymbolTableRecord
100
AcDbLinetypeTableRecord
  2
DUMMY
 70
     0
  3
ダミー
 72
    65
 73
     0
 40
0.0
  0
LTYPE
  5
2B
330
5
100
AcDbSymbolTableRecord
100
AcDbLinetypeTableRecord
  2
RAND1
 70
     0
  3
ランダム線1
 72
    65
 73
     4
 40
10.0
 49
1.0
 74
     0
 49
-2.0
 74
     0
 49
3.0
 74
     0
 49
-4.0
 74
     0
  0
LTYPE
  5
2C
330
5
100
AcDbSymbolTableRecord
100
AcDbLinetypeTableRecord
  2
RAND2
 70
     0
  3
ランダム線2
 72
    65
 73
     4
 40
14.0
 49
2.0
 74
     0
 49
-3.0
 74
     0
 49
4.0
 74
     0
 49
-5.0
 74
     0
  0
LTYPE
  5
2D
330
5
100
AcDbSymbolTableRecord
100
AcDbLinetypeTableRecord
  2
RAND3
 70
     0
  3
ランダム線3
 72
    65
 73
     4
 40
18.0
 49
3.0
 74
     0
 49
-4.0
 74
     0
 49
5.0
 74
     0
 49
-6.0
 74
     0
  0
LTYPE
  5
2E
330
5
100
AcDbSymbolTableRecord
100
AcDbLinetypeTableRecord
  2
RAND4
 70
     0
  3
ランダム線4
 72
    65
 73
     4
 40
22.0
 49
4.0
 74
     0
 49
-5.0
 74
     0
 49
6.0
 74
     0
 49
-7.0
 74
     0
  0
LTYPE
  5
2F
330
5
100
AcDbSymbolTableRecord
100
AcDbLinetypeTableRecord
  2
RAND5
 70
     0
  3
ランダム線5
 72
    65
 73
     4
 40
26.0
 49
5.0
 74
     0
 49
-6.0
 74
     0
 49
7.0
 74
     0
 49
-8.0
 74
     0
  0
LTYPE
  5
30
330
5
100
AcDbSymbolTableRecord
100
AcDbLinetypeTableRecord
  2
LONG1
 70
     0
  3
----------  --  ----------  --  
 72
    65
 73
     4
 40
40.0
 49
32.5
 74
     0
 49
-2.5
 74
     0
 49
2.5
 74
     0
 49
-2.5
 74
     0
  0
LTYPE
  5
31
330
5
100
AcDbSymbolTableRecord
100
AcDbLinetypeTableRecord
  2
LONG2
 70
     0
  3
--------  -  -  --------  -  -  
 72
    65
 73
     6
 40
40.0
 49
30.0
 74
     0
 49
-2.5
 74
     0
 49
1.25
 74
     0
 49
-2.5
 74
     0
 49
1.25
 74
     0
 49
-2.5
 74
     0
  0
LTYPE
  5
32
330
5
100
AcDbSymbolTableRecord
100
AcDbLinetypeTableRecord
  2
LONG3
 70
     0
  3
+++++++++++++++..+++++++++++++++
 72
    65
 73
     2
 40
40.0
 49
37.5
 74
     0
 49
-2.5
 74
     0
  0
LTYPE
  5
33
330
5
100
AcDbSymbolTableRecord
100
AcDbLinetypeTableRecord
  2
LONG4
 70
     0
  3
+++++++++++++++..+++++++++++++++
 72
    65
 73
     2
 40
80.0
 49
75.0
 74
     0
 49
-5.0
 74
     0
  0
LTYPE
  5
34
330
5
100
AcDbSymbolTableRecord
100
AcDbLinetypeTableRecord
  2
LONG5
 70
     0
  3
----------  --  ----------  --  
 72
    65
 73
     4
 40
60.0
 49
37.5
 74
     0
 49
-7.5
 74
     0
 49
7.5
 74
     0
 49
-7.5
 74
     0
  0
LTYPE
  5
35
330
5
100
AcDbSymbolTableRecord
100
AcDbLinetypeTableRecord
  2
DASHED
 70
     0
  3
-------   -------------   ------
 72
    65
 73
     2
 40
7.5
 49
6.0
 74
     0
 49
-1.5
 74
     0
  0
LTYPE
  5
36
330
5
100
AcDbSymbolTableRecord
100
AcDbLinetypeTableRecord
  2
DASHED_SPACED
 70
     0
  3
----        --------        ----
 72
    65
 73
     2
 40
12.0
 49
6.0
 74
     0
 49
-6.0
 74
     0
  0
LTYPE
  5
37
330
5
100
AcDbSymbolTableRecord
100
AcDbLinetypeTableRecord
  2
LONG_DASHED_DOTTED
 70
     0
  3
------------- --- --------------
 72
    65
 73
     4
 40
15.25
 49
12.0
 74
     0
 49
-1.5
 74
     0
 49
0.25
 74
     0
 49
-1.5
 74
     0
  0
LTYPE
  5
38
330
5
100
AcDbSymbolTableRecord
100
AcDbLinetypeTableRecord
  2
LONG_DASHED_DOUBLE-DOTTED
 70
     0
  3
----------- --- --- ------------
 72
    65
 73
     6
 40
17.0
 49
12.0
 74
     0
 49
-1.5
 74
     0
 49
0.25
 74
     0
 49
-1.5
 74
     0
 49
0.25
 74
     0
 49
-1.5
 74
     0
  0
LTYPE
  5
39
330
5
100
AcDbSymbolTableRecord
100
AcDbLinetypeTableRecord
  2
LONG_DASHED_TRIPLICATE-DOTTED
 70
     0
  3
--------- --- --- --- ----------
 72
    65
 73
     8
 40
18.75
 49
12.0
 74
     0
 49
-1.5
 74
     0
 49
0.25
 74
     0
 49
-1.5
 74
     0
 49
0.25
 74
     0
 49
-1.5
 74
     0
 49
0.25
 74
     0
 49
-1.5
 74
     0
  0
LTYPE
  5
3A
330
5
100
AcDbSymbolTableRecord
100
AcDbLinetypeTableRecord
  2
DOTTED
 70
     0
  3
   -       -       -       -    
 72
    65
 73
     2
 40
1.75
 49
0.25
 74
     0
 49
-1.5
 74
     0
  0
LTYPE
  5
3B
330
5
100
AcDbSymbolTableRecord
100
AcDbLinetypeTableRecord
  2
CHAIN
 70
     0
  3
-------------- -- --------------
 72
    65
 73
     4
 40
18.5
 49
12.0
 74
     0
 49
-1.5
 74
     0
 49
3.5
 74
     0
 49
-1.5
 74
     0
  0
LTYPE
  5
3C
330
5
100
AcDbSymbolTableRecord
100
AcDbLinetypeTableRecord
  2
CHAIN_DOUBLE_DASH
 70
     0
  3
------------ -- -- -------------
 72
    65
 73
     6
 40
23.5
 49
12.0
 74
     0
 49
-1.5
 74
     0
 49
3.5
 74
     0
 49
-1.5
 74
     0
 49
3.5
 74
     0
 49
-1.5
 74
     0
  0
LTYPE
  5
3D
330
5
100
AcDbSymbolTableRecord
100
AcDbLinetypeTableRecord
  2
DASHED_DOTTED
 70
     0
  3
-----------     -     ----------
 72
    65
 73
     4
 40
9.25
 49
6.0
 74
     0
 49
-1.5
 74
     0
 49
0.25
 74
     0
 49
-1.5
 74
     0
  0
LTYPE
  5
3E
330
5
100
AcDbSymbolTableRecord
100
AcDbLinetypeTableRecord
  2
DOUBLE-DASHED_DOTTED
 70
     0
  3
------   -----------   -   -----
 72
    65
 73
     6
 40
16.75
 49
6.0
 74
     0
 49
-1.5
 74
     0
 49
6.0
 74
     0
 49
-1.5
 74
     0
 49
0.25
 74
     0
 49
-1.5
 74
     0
  0
LTYPE
  5
3F
330
5
100
AcDbSymbolTableRecord
100
AcDbLinetypeTableRecord
  2
DASHED_DOUBLE-DOTTED
 70
     0
  3
---------    -    -    ---------
 72
    65
 73
     6
 40
11.0
 49
6.0
 74
     0
 49
-1.5
 74
     0
 49
0.25
 74
     0
 49
-1.5
 74
     0
 49
0.25
 74
     0
 49
-1.5
 74
     0
  0
LTYPE
  5
40
330
5
100
AcDbSymbolTableRecord
100
AcDbLinetypeTableRecord
  2
DOUBLE-DASHED_DOUBLE-DOTTED
 70
     0
  3
-----   ---------   -   -   ----
 72
    65
 73
     8
 40
18.5
 49
6.0
 74
     0
 49
-1.5
 74
     0
 49
6.0
 74
     0
 49
-1.5
 74
     0
 49
0.25
 74
     0
 49
-1.5
 74
     0
 49
0.25
 74
     0
 49
-1.5
 74
     0
  0
LTYPE
  5
41
330
5
100
AcDbSymbolTableRecord
100
AcDbLinetypeTableRecord
  2
DASHED_TRIPLICATE-DOTTED
 70
     0
  3
-------    -    -    -    ------
 72
    65
 73
     8
 40
12.75
 49
6.0
 74
     0
 49
-1.5
 74
     0
 49
0.25
 74
     0
 49
-1.5
 74
     0
 49
0.25
 74
     0
 49
-1.5
 74
     0
 49
0.25
 74
     0
 49
-1.5
 74
     0
  0
LTYPE
  5
42
330
5
100
AcDbSymbolTableRecord
100
AcDbLinetypeTableRecord
  2
DOUBLE-DASHED_TRIPLICATE-DOTTED
 70
     0
  3
-----  ---------  -  -  -  -----
 72
    65
 73
    10
 40
20.25
 49
6.0
 74
     0
 49
-1.5
 74
     0
 49
6.0
 74
     0
 49
-1.5
 74
     0
 49
0.25
 74
     0
 49
-1.5
 74
     0
 49
0.25
 74
     0
 49
-1.5
 74
     0
 49
0.25
 74
     0
 49
-1.5
 74
     0
  0
LTYPE
  5
43
330
5
100
AcDbSymbolTableRecord
100
AcDbLinetypeTableRecord
  2
UNDEFINED
 70
     0
  3
--------------------------------
 72
    65
 73
     0
 40
0.0
  0
LTYPE
  5
44
330
5
100
AcDbSymbolTableRecord
100
AcDbLinetypeTableRecord
  2
PLINE2
 70
     0
  3
------     -----------     -----
 72
    65
 73
     2
 40
3.0
 49
2.1
 74
     0
 49
-0.9
 74
     0
  0
LTYPE
  5
45
330
5
100
AcDbSymbolTableRecord
100
AcDbLinetypeTableRecord
  2
PLINE3
 70
     0
  3
------------   ---   -----------
 72
    65
 73
     4
 40
10.0
 49
7.0
 74
     0
 49
-1.0
 74
     0
 49
1.0
 74
     0
 49
-1.0
 74
     0
  0
LTYPE
  5
46
330
5
100
AcDbSymbolTableRecord
100
AcDbLinetypeTableRecord
  2
PLINE4
 70
     0
  3
---------   ---   ---   --------
 72
    65
 73
     6
 40
10.0
 49
5.0
 74
     0
 49
-1.0
 74
     0
 49
1.0
 74
     0
 49
-1.0
 74
     0
 49
1.0
 74
     0
 49
-1.0
 74
     0
  0
LTYPE
  5
47
330
5
100
AcDbSymbolTableRecord
100
AcDbLinetypeTableRecord
  2
PLINE5
 70
     0
  3
------     -----------     -----
 72
    65
 73
     2
 40
5.0
 49
3.5
 74
     0
 49
-1.5
 74
     0
  0
LTYPE
  5
48
330
5
100
AcDbSymbolTableRecord
100
AcDbLinetypeTableRecord
  2
PLINE6
 70
     0
  3
------------   ---   -----------
 72
    65
 73
     4
 40
15.0
 49
10.5
 74
     0
 49
-1.5
 74
     0
 49
1.5
 74
     0
 49
-1.5
 74
     0
  0
LTYPE
  5
49
330
5
100
AcDbSymbolTableRecord
100
AcDbLinetypeTableRecord
  2
PLINE7
 70
     0
  3
---------   ---   ---   --------
 72
    65
 73
     6
 40
15.0
 49
7.5
 74
     0
 49
-1.5
 74
     0
 49
1.5
 74
     0
 49
-1.5
 74
     0
 49
1.5
 74
     0
 49
-1.5
 74
     0
  0
LTYPE
  5
4A
330
5
100
AcDbSymbolTableRecord
100
AcDbLinetypeTableRecord
  2
PLINE8
 70
     0
  3
------     -----------     -----
 72
    65
 73
     2
 40
7.0
 49
4.9
 74
     0
 49
-2.1
 74
     0
  0
LTYPE
  5
4B
330
5
100
AcDbSymbolTableRecord
100
AcDbLinetypeTableRecord
  2
PLINE9
 70
     0
  3
------------   ---   -----------
 72
    65
 73
     4
 40
20.0
 49
14.0
 74
     0
 49
-2.0
 74
     0
 49
2.0
 74
     0
 49
-2.0
 74
     0
  0
LTYPE
  5
4C
330
5
100
AcDbSymbolTableRecord
100
AcDbLinetypeTableRecord
  2
PLINE10
 70
     0
  3
---------   ---   ---   --------
 72
    65
 73
     6
 40
20.0
 49
10.0
 74
     0
 49
-2.0
 74
     0
 49
2.0
 74
     0
 49
-2.0
 74
     0
 49
2.0
 74
     0
 49
-2.0
 74
     0
  0
LTYPE
  5
4D
330
5
100
AcDbSymbolTableRecord
100
AcDbLinetypeTableRecord
  2
PLINE11
 70
     0
  3
------     -----------     -----
 72
    65
 73
     2
 40
9.0
 49
6.299999999999999
 74
     0
 49
-2.7
 74
     0
  0
LTYPE
  5
4E
330
5
100
AcDbSymbolTableRecord
100
AcDbLinetypeTableRecord
  2
PLINE12
 70
     0
  3
------------   ---   -----------
 72
    65
 73
     4
 40
25.0
 49
17.5
 74
     0
 49
-2.5
 74
     0
 49
2.5
 74
     0
 49
-2.5
 74
     0
  0
LTYPE
  5
4F
330
5
100
AcDbSymbolTableRecord
100
AcDbLinetypeTableRecord
  2
PLINE13
 70
     0
  3
---------   ---   ---   --------
 72
    65
 73
     6
 40
25.0
 49
12.5
 74
     0
 49
-2.5
 74
     0
 49
2.5
 74
     0
 49
-2.5
 74
     0
 49
2.5
 74
     0
 49
-2.5
 74
     0
  0
LTYPE
  5
50
330
5
100
AcDbSymbolTableRecord
100
AcDbLinetypeTableRecord
  2
PLINE14
 70
     0
  3
------     -----------     -----
 72
    65
 73
     2
 40
11.0
 49
7.7
 74
     0
 49
-3.299999999999999
 74
     0
  0
LTYPE
  5
51
330
5
100
AcDbSymbolTableRecord
100
AcDbLinetypeTableRecord
  2
PLINE15
 70
     0
  3
------------   ---   -----------
 72
    65
 73
     4
 40
30.0
 49
21.0
 74
     0
 49
-3.0
 74
     0
 49
3.0
 74
     0
 49
-3.0
 74
     0
  0
LTYPE
  5
52
330
5
100
AcDbSymbolTableRecord
100
AcDbLinetypeTableRecord
  2
PLINE16
 70
     0
  3
---------   ---   ---   --------
 72
    65
 73
     6
 40
30.0
 49
15.0
 74
     0
 49
-3.0
 74
     0
 49
3.0
 74
     0
 49
-3.0
 74
     0
 49
3.0
 74
     0
 49
-3.0
 74
     0
  0
ENDTAB
  0
TABLE
  2
LAYER
  5
2
102
{ACAD_XDICTIONARY
360
175
102
}
330
0
100
AcDbSymbolTable
 70
     5
  0
LAYER
  5
10
330
2
100
AcDbSymbolTableRecord
100
AcDbLayerTableRecord
  2
0
 70
     0
 62
     7
  6
CONTINUOUS
370
    -3
390
F
  0
LAYER
  5
128
330
2
100
AcDbSymbolTableRecord
100
AcDbLayerTableRecord
  2
Defpoints
 70
     0
 62
     7
  6
CONTINUOUS
290
     0
370
    -3
390
F
  0
LAYER
  5
178
330
2
100
AcDbSymbolTableRecord
100
AcDbLayerTableRecord
  2
寸法
 70
     0
 62
     7
  6
CONTINUOUS
370
    -3
390
F
  0
LAYER
  5
179
330
2
100
AcDbSymbolTableRecord
100
AcDbLayerTableRecord
  2
躯体と製品
 70
     0
 62
     7
  6
CONTINUOUS
370
    -3
390
F
  0
LAYER
  5
4F62
330
2
100
AcDbSymbolTableRecord
100
AcDbLayerTableRecord
  2
図枠
 70
     0
 62
     7
  6
CONTINUOUS
370
    -3
390
F
  0
ENDTAB
  0
TABLE
  2
STYLE
  5
3
330
0
100
AcDbSymbolTable
 70
     5
  0
STYLE
  5
11
330
3
100
AcDbSymbolTableRecord
100
AcDbTextStyleTableRecord
  2
STANDARD
 70
     0
 40
0.0
 41
1.0
 50
0.0
 71
     0
 42
0.2
  3
txt
  4
bigfont.shx
  0
STYLE
  5
53
330
3
100
AcDbSymbolTableRecord
100
AcDbTextStyleTableRecord
  2
TATEGAKI
 70
     4
 40
0.0
 41
1.0
 50
0.0
 71
     0
 42
1.0
  3
txt
  4
bigfont.shx
  0
STYLE
  5
123
330
3
100
AcDbSymbolTableRecord
100
AcDbTextStyleTableRecord
  2
ACAD
 70
     0
 40
5.0
 41
0.8
 50
0.0
 71
     0
 42
5.0
  3
romans.shx
  4
extfont.shx
  0
STYLE
  5
3A5F
330
3
100
AcDbSymbolTableRecord
100
AcDbTextStyleTableRecord
  2
VERTXT
 70
     4
 40
0.0
 41
0.8582679999999999
 50
0.0
 71
     0
 42
3.5
  3
txt.shx
  4
BIGFONT
  0
STYLE
  5
50AD
330
3
100
AcDbSymbolTableRecord
100
AcDbTextStyleTableRecord
  2
STANDARD2
 70
     0
 40
0.0
 41
0.8582679999999999
 50
0.0
 71
     0
 42
3.5
  3
txt.shx
  4
EXTFONT
  0
ENDTAB
  0
TABLE
  2
VIEW
  5
6
330
0
100
AcDbSymbolTable
 70
     0
  0
ENDTAB
  0
TABLE
  2
UCS
  5
7
330
0
100
AcDbSymbolTable
 70
     0
  0
ENDTAB
  0
TABLE
  2
APPID
  5
9
330
0
100
AcDbSymbolTable
 70
     1
  0
APPID
  5
12
330
9
100
AcDbSymbolTableRecord
100
AcDbRegAppTableRecord
  2
ACAD
 70
     0
  0
ENDTAB
  0
TABLE
  2
DIMSTYLE
  5
A
330
0
100
AcDbSymbolTable
 70
     3
100
AcDbDimStyleTable
 71
     0
  0
DIMSTYLE
105
11C
330
A
100
AcDbSymbolTableRecord
100
AcDbDimStyleTableRecord
  2
Standard
 70
     0
340
11
  0
DIMSTYLE
105
126
102
{ACAD_REACTORS
330
71F8
330
7204
330
7210
330
7228
330
7235
330
7240
330
724D
330
725A
330
7267
330
7274
330
7281
330
728E
330
729B
330
72A8
330
72B4
102
}
330
A
100
AcDbSymbolTableRecord
100
AcDbDimStyleTableRecord
  2
AutoCAD
 70
     0
 41
1.0
 42
0.0
 44
0.0
 73
     0
 77
     1
140
5.0
147
1.0
174
     1
176
     4
177
     4
178
     3
271
     0
272
     0
289
     0
340
123
341
15B0
342
11E
  0
DIMSTYLE
105
2CBB
330
A
100
AcDbSymbolTableRecord
100
AcDbDimStyleTableRecord
  2
111
 70
     0
 41
1.0
 42
0.0
 44
0.0
 73
     0
 77
     1
140
5.0
147
1.0
174
     1
176
     4
177
     4
178
     3
271
     0
272
     0
289
     0
340
123
341
15B0
342
2CB5
  0
ENDTAB
  0
TABLE
  2
BLOCK_RECORD
  5
1
330
0
100
AcDbSymbolTable
 70
    19
  0
BLOCK_RECORD
  5
1E
102
{ACAD_XDICTIONARY
360
28B
102
}
330
1
100
AcDbSymbolTableRecord
100
AcDbBlockTableRecord
  2
*Model_Space
340
21
  0
BLOCK_RECORD
  5
1A
102
{ACAD_XDICTIONARY
360
28D
102
}
330
1
100
AcDbSymbolTableRecord
100
AcDbBlockTableRecord
  2
*Paper_Space
340
1D
  0
BLOCK_RECORD
  5
11E
330
1
100
AcDbSymbolTableRecord
100
AcDbBlockTableRecord
  2
_Dot
340
0
102
{BLKREFS
331
71FC
331
71FD
331
7208
331
7209
331
72D4
331
72D5
331
72DD
331
72DE
331
7238
331
7239
331
72E6
331
72E7
331
7252
331
7253
331
72EF
331
72F0
331
72F8
331
72F9
331
7301
331
7302
331
7286
331
7287
331
7293
331
7294
331
72A0
331
72A1
331
72CC
331
72CD
331
72C4
331
72C5
102
}
  0
BLOCK_RECORD
  5
15B0
330
1
100
AcDbSymbolTableRecord
100
AcDbBlockTableRecord
  2
_None
340
0
  0
BLOCK_RECORD
  5
2CB5
330
1
100
AcDbSymbolTableRecord
100
AcDbBlockTableRecord
  2
_Open30
340
0
  0
BLOCK_RECORD
  5
35E3
330
1
100
AcDbSymbolTableRecord
100
AcDbBlockTableRecord
  2
_DotBlank
340
0
  0
BLOCK_RECORD
  5
71F9
330
1
100
AcDbSymbolTableRecord
100
AcDbBlockTableRecord
  2
*D4
340
0
  0
BLOCK_RECORD
  5
7205
330
1
100
AcDbSymbolTableRecord
100
AcDbBlockTableRecord
  2
*D5
340
0
  0
BLOCK_RECORD
  5
7211
330
1
100
AcDbSymbolTableRecord
100
AcDbBlockTableRecord
  2
*D6
340
0
  0
BLOCK_RECORD
  5
7229
330
1
100
AcDbSymbolTableRecord
100
AcDbBlockTableRecord
  2
*D7
340
0
  0
BLOCK_RECORD
  5
7236
330
1
100
AcDbSymbolTableRecord
100
AcDbBlockTableRecord
  2
*D8
340
0
  0
BLOCK_RECORD
  5
7241
330
1
100
AcDbSymbolTableRecord
100
AcDbBlockTableRecord
  2
*D9
340
0
  0
BLOCK_RECORD
  5
724E
330
1
100
AcDbSymbolTableRecord
100
AcDbBlockTableRecord
  2
*D10
340
0
  0
BLOCK_RECORD
  5
725B
330
1
100
AcDbSymbolTableRecord
100
AcDbBlockTableRecord
  2
*D11
340
0
  0
BLOCK_RECORD
  5
7268
330
1
100
AcDbSymbolTableRecord
100
AcDbBlockTableRecord
  2
*D12
340
0
  0
BLOCK_RECORD
  5
7275
330
1
100
AcDbSymbolTableRecord
100
AcDbBlockTableRecord
  2
*D13
340
0
  0
BLOCK_RECORD
  5
7282
330
1
100
AcDbSymbolTableRecord
100
AcDbBlockTableRecord
  2
*D14
340
0
  0
BLOCK_RECORD
  5
728F
330
1
100
AcDbSymbolTableRecord
100
AcDbBlockTableRecord
  2
*D15
340
0
  0
BLOCK_RECORD
  5
729C
330
1
100
AcDbSymbolTableRecord
100
AcDbBlockTableRecord
  2
*D16
340
0
  0
BLOCK_RECORD
  5
72A9
330
1
100
AcDbSymbolTableRecord
100
AcDbBlockTableRecord
  2
*D17
340
0
  0
BLOCK_RECORD
  5
72B5
330
1
100
AcDbSymbolTableRecord
100
AcDbBlockTableRecord
  2
*D18
340
0
  0
ENDTAB
  0
ENDSEC
  0
SECTION
  2
BLOCKS
  0
BLOCK
  5
1F
330
1E
100
AcDbEntity
  8
0
100
AcDbBlockBegin
  2
*Model_Space
 70
     0
 10
0.0
 20
0.0
 30
0.0
  3
*Model_Space
  1

  0
ENDBLK
  5
20
330
1E
100
AcDbEntity
  8
0
100
AcDbBlockEnd
  0
BLOCK
  5
1B
330
1A
100
AcDbEntity
 67
     1
  8
0
100
AcDbBlockBegin
  2
*Paper_Space
 70
     0
 10
0.0
 20
0.0
 30
0.0
  3
*Paper_Space
  1

  0
ENDBLK
  5
1C
330
1A
100
AcDbEntity
 67
     1
  8
0
100
AcDbBlockEnd
  0
BLOCK
  5
121
330
11E
100
AcDbEntity
  8
0
100
AcDbBlockBegin
  2
_Dot
 70
     0
 10
0.0
 20
0.0
 30
0.0
  3
_Dot
  1

  0
LWPOLYLINE
  5
11F
330
11E
100
AcDbEntity
  8
0
  6
ByBlock
 62
     0
100
AcDbPolyline
 90
        2
 70
     1
 43
0.5
 10
-0.25
 20
0.0
 42
1.0
 10
0.25
 20
0.0
 42
1.0
  0
LINE
  5
120
330
11E
100
AcDbEntity
  8
0
  6
ByBlock
 62
     0
370
    -2
100
AcDbLine
 10
-0.5
 20
0.0
 30
0.0
 11
-1.0
 21
0.0
 31
0.0
  0
ENDBLK
  5
122
330
11E
100
AcDbEntity
  8
0
100
AcDbBlockEnd
  0
BLOCK
  5
15B1
330
15B0
100
AcDbEntity
  8
0
100
AcDbBlockBegin
  2
_None
 70
     0
 10
0.0
 20
0.0
 30
0.0
  3
_None
  1

  0
ENDBLK
  5
15B2
330
15B0
100
AcDbEntity
  8
0
100
AcDbBlockEnd
  0
BLOCK
  5
2CB9
330
2CB5
100
AcDbEntity
  8
0
100
AcDbBlockBegin
  2
_Open30
 70
     0
 10
0.0
 20
0.0
 30
0.0
  3
_Open30
  1

  0
LINE
  5
2CB6
330
2CB5
100
AcDbEntity
  8
0
  6
ByBlock
 62
     0
370
    -2
100
AcDbLine
 10
-1.0
 20
0.26794919
 30
0.0
 11
0.0
 21
0.0
 31
0.0
  0
LINE
  5
2CB7
330
2CB5
100
AcDbEntity
  8
0
  6
ByBlock
 62
     0
370
    -2
100
AcDbLine
 10
0.0
 20
0.0
 30
0.0
 11
-1.0
 21
-0.26794919
 31
0.0
  0
LINE
  5
2CB8
330
2CB5
100
AcDbEntity
  8
0
  6
ByBlock
 62
     0
370
    -2
100
AcDbLine
 10
0.0
 20
0.0
 30
0.0
 11
-1.0
 21
0.0
 31
0.0
  0
ENDBLK
  5
2CBA
330
2CB5
100
AcDbEntity
  8
0
100
AcDbBlockEnd
  0
BLOCK
  5
35E6
330
35E3
100
AcDbEntity
  8
0
100
AcDbBlockBegin
  2
_DotBlank
 70
     0
 10
0.0
 20
0.0
 30
0.0
  3
_DotBlank
  1

  0
CIRCLE
  5
35E4
330
35E3
100
AcDbEntity
  8
0
  6
ByBlock
 62
     0
370
    -2
100
AcDbCircle
 10
0.0
 20
0.0
 30
0.0
 40
0.5
  0
LINE
  5
35E5
330
35E3
100
AcDbEntity
  8
0
  6
ByBlock
 62
     0
370
    -2
100
AcDbLine
 10
-0.5
 20
0.0
 30
0.0
 11
-1.0
 21
0.0
 31
0.0
  0
ENDBLK
  5
35E7
330
35E3
100
AcDbEntity
  8
0
100
AcDbBlockEnd
  0
BLOCK
  5
7202
330
71F9
100
AcDbEntity
  8
0
100
AcDbBlockBegin
  2
*D4
 70
     1
 10
0.0
 20
0.0
 30
0.0
  3
*D4
  1

  0
LINE
  5
71FA
330
71F9
100
AcDbEntity
  8
寸法
  6
Continuous
 62
     4
370
    -2
100
AcDbLine
 10
1500.885232753243
 20
778.9910700698058
 30
0.0
 11
1500.885232753243
 21
665.9910700698059
 31
0.0
  0
LINE
  5
71FB
330
71F9
100
AcDbEntity
  8
寸法
  6
Continuous
 62
     4
370
    -2
100
AcDbLine
 10
1501.885232753243
 20
665.9910700698059
 30
0.0
 11
1524.885232753243
 21
665.9910700698059
 31
0.0
  0
INSERT
  5
71FC
330
71F9
100
AcDbEntity
  8
寸法
  6
Continuous
 62
     4
370
    -2
100
AcDbBlockReference
  2
_Dot
 10
1500.885232753243
 20
665.9910700698059
 30
0.0
 50
180.0
  0
INSERT
  5
71FD
330
71F9
100
AcDbEntity
  8
寸法
  6
Continuous
 62
     4
370
    -2
100
AcDbBlockReference
  2
_Dot
 10
1525.885232753243
 20
665.9910700698059
 30
0.0
  0
MTEXT
  5
71FE
330
71F9
100
AcDbEntity
  8
寸法
  6
Continuous
 62
     3
100
AcDbMText
 10
1513.385232753243
 20
669.4910700698059
 30
0.0
 40
5.0
 41
0.0
 71
     5
 72
     5
  1
\A1;25
  7
ACAD
 73
     1
 44
1.0
1001
ACAD
1000
MTEXTBEGIN
1070
    73
1070
     1
1070
    44
1040
1.0
1070
    74
1070
     0
1000
MTEXTEND
  0
POINT
  5
71FF
330
71F9
100
AcDbEntity
  8
Defpoints
  6
Continuous
 62
     0
100
AcDbPoint
 10
1500.885232753243
 20
778.9910700698058
 30
0.0
  0
POINT
  5
7200
330
71F9
100
AcDbEntity
  8
Defpoints
  6
Continuous
 62
     0
100
AcDbPoint
 10
1525.885232753243
 20
665.9910700698059
 30
0.0
  0
POINT
  5
7201
330
71F9
100
AcDbEntity
  8
Defpoints
  6
Continuous
 62
     0
100
AcDbPoint
 10
1525.885232753243
 20
665.9910700698059
 30
0.0
  0
ENDBLK
  5
7203
330
71F9
100
AcDbEntity
  8
0
100
AcDbBlockEnd
  0
BLOCK
  5
720E
330
7205
100
AcDbEntity
  8
0
100
AcDbBlockBegin
  2
*D5
 70
     1
 10
0.0
 20
0.0
 30
0.0
  3
*D5
  1

  0
LINE
  5
7206
330
7205
100
AcDbEntity
  8
寸法
  6
Continuous
 62
     4
370
    -2
100
AcDbLine
 10
1525.885232753243
 20
665.7410700698059
 30
0.0
 11
1525.885232753243
 21
665.9910700698059
 31
0.0
  0
LINE
  5
7207
330
7205
100
AcDbEntity
  8
寸法
  6
Continuous
 62
     4
370
    -2
100
AcDbLine
 10
1526.885232753243
 20
665.9910700698059
 30
0.0
 11
1624.885232753243
 21
665.9910700698059
 31
0.0
  0
INSERT
  5
7208
330
7205
100
AcDbEntity
  8
寸法
  6
Continuous
 62
     4
370
    -2
100
AcDbBlockReference
  2
_Dot
 10
1525.885232753243
 20
665.9910700698059
 30
0.0
 50
180.0
  0
INSERT
  5
7209
330
7205
100
AcDbEntity
  8
寸法
  6
Continuous
 62
     4
370
    -2
100
AcDbBlockReference
  2
_Dot
 10
1625.885232753243
 20
665.9910700698059
 30
0.0
  0
MTEXT
  5
720A
330
7205
100
AcDbEntity
  8
寸法
  6
Continuous
 62
     3
100
AcDbMText
 10
1575.885232753243
 20
669.4910700698059
 30
0.0
 40
5.0
 41
0.0
 71
     5
 72
     5
  1
\A1;100
  7
ACAD
 73
     1
 44
1.0
1001
ACAD
1000
MTEXTBEGIN
1070
    73
1070
     1
1070
    44
1040
1.0
1070
    74
1070
     0
1000
MTEXTEND
  0
POINT
  5
720B
330
7205
100
AcDbEntity
  8
Defpoints
  6
Continuous
 62
     0
100
AcDbPoint
 10
1525.885232753243
 20
665.7410700698059
 30
0.0
  0
POINT
  5
720C
330
7205
100
AcDbEntity
  8
Defpoints
  6
Continuous
 62
     0
100
AcDbPoint
 10
1625.885232753243
 20
665.9910700698059
 30
0.0
  0
POINT
  5
720D
330
7205
100
AcDbEntity
  8
Defpoints
  6
Continuous
 62
     0
100
AcDbPoint
 10
1625.885232753243
 20
665.9910700698059
 30
0.0
  0
ENDBLK
  5
720F
330
7205
100
AcDbEntity
  8
0
100
AcDbBlockEnd
  0
BLOCK
  5
721A
330
7211
100
AcDbEntity
  8
0
100
AcDbBlockBegin
  2
*D6
 70
     1
 10
0.0
 20
0.0
 30
0.0
  3
*D6
  1

  0
LINE
  5
72D2
330
7211
100
AcDbEntity
  8
寸法
  6
Continuous
 62
     4
370
    -2
100
AcDbLine
 10
1625.885232753243
 20
665.7410700698059
 30
0.0
 11
1625.885232753243
 21
665.9910700698059
 31
0.0
  0
LINE
  5
72D3
330
7211
100
AcDbEntity
  8
寸法
  6
Continuous
 62
     4
370
    -2
100
AcDbLine
 10
1626.885232753243
 20
665.9910700698059
 30
0.0
 11
1749.885232753243
 21
665.9910700698059
 31
0.0
  0
INSERT
  5
72D4
330
7211
100
AcDbEntity
  8
寸法
  6
Continuous
 62
     4
370
    -2
100
AcDbBlockReference
  2
_Dot
 10
1625.885232753243
 20
665.9910700698059
 30
0.0
 50
180.0
  0
INSERT
  5
72D5
330
7211
100
AcDbEntity
  8
寸法
  6
Continuous
 62
     4
370
    -2
100
AcDbBlockReference
  2
_Dot
 10
1750.885232753243
 20
665.9910700698059
 30
0.0
  0
MTEXT
  5
72D6
330
7211
100
AcDbEntity
  8
寸法
  6
Continuous
 62
     3
100
AcDbMText
 10
1688.385232753243
 20
669.4910700698059
 30
0.0
 40
5.0
 41
0.0
 71
     5
 72
     5
  1
\A1;≦Ｃ
  7
ACAD
 73
     1
 44
1.0
1001
ACAD
1000
MTEXTBEGIN
1070
    73
1070
     1
1070
    44
1040
1.0
1070
    74
1070
     0
1000
MTEXTEND
  0
POINT
  5
72D7
330
7211
100
AcDbEntity
  8
Defpoints
  6
Continuous
 62
     0
100
AcDbPoint
 10
1625.885232753243
 20
665.7410700698059
 30
0.0
  0
POINT
  5
72D8
330
7211
100
AcDbEntity
  8
Defpoints
  6
Continuous
 62
     0
100
AcDbPoint
 10
1750.885232753243
 20
665.9910700698059
 30
0.0
  0
POINT
  5
72D9
330
7211
100
AcDbEntity
  8
Defpoints
  6
Continuous
 62
     0
100
AcDbPoint
 10
1750.885232753243
 20
665.9910700698059
 30
0.0
  0
ENDBLK
  5
721B
330
7211
100
AcDbEntity
  8
0
100
AcDbBlockEnd
  0
BLOCK
  5
7233
330
7229
100
AcDbEntity
  8
0
100
AcDbBlockBegin
  2
*D7
 70
     1
 10
0.0
 20
0.0
 30
0.0
  3
*D7
  1

  0
LINE
  5
72DA
330
7229
100
AcDbEntity
  8
寸法
  6
Continuous
 62
     4
370
    -2
100
AcDbLine
 10
1750.885232753243
 20
665.7410700698059
 30
0.0
 11
1750.885232753243
 21
665.9476580253891
 31
0.0
  0
LINE
  5
72DB
330
7229
100
AcDbEntity
  8
寸法
  6
Continuous
 62
     4
370
    -2
100
AcDbLine
 10
1826.885232753243
 20
736.5682120351331
 30
0.0
 11
1826.885232753243
 21
665.9476580253891
 31
0.0
  0
LINE
  5
72DC
330
7229
100
AcDbEntity
  8
寸法
  6
Continuous
 62
     4
370
    -2
100
AcDbLine
 10
1751.885232753243
 20
665.9476580253891
 30
0.0
 11
1825.885232753243
 21
665.9476580253891
 31
0.0
  0
INSERT
  5
72DD
330
7229
100
AcDbEntity
  8
寸法
  6
Continuous
 62
     4
370
    -2
100
AcDbBlockReference
  2
_Dot
 10
1750.885232753243
 20
665.9476580253891
 30
0.0
 50
180.0
  0
INSERT
  5
72DE
330
7229
100
AcDbEntity
  8
寸法
  6
Continuous
 62
     4
370
    -2
100
AcDbBlockReference
  2
_Dot
 10
1826.885232753243
 20
665.9476580253891
 30
0.0
  0
MTEXT
  5
72DF
330
7229
100
AcDbEntity
  8
寸法
  6
Continuous
 62
     3
100
AcDbMText
 10
1788.885232753243
 20
669.4476580253891
 30
0.0
 40
5.0
 41
0.0
 71
     5
 72
     5
  1
\A1;75≦
  7
ACAD
 73
     1
 44
1.0
1001
ACAD
1000
MTEXTBEGIN
1070
    73
1070
     1
1070
    44
1040
1.0
1070
    74
1070
     0
1000
MTEXTEND
  0
POINT
  5
72E0
330
7229
100
AcDbEntity
  8
Defpoints
  6
Continuous
 62
     0
100
AcDbPoint
 10
1750.885232753243
 20
665.7410700698059
 30
0.0
  0
POINT
  5
72E1
330
7229
100
AcDbEntity
  8
Defpoints
  6
Continuous
 62
     0
100
AcDbPoint
 10
1826.885232753243
 20
736.5682120351331
 30
0.0
  0
POINT
  5
72E2
330
7229
100
AcDbEntity
  8
Defpoints
  6
Continuous
 62
     0
100
AcDbPoint
 10
1826.885232753243
 20
665.9476580253891
 30
0.0
  0
ENDBLK
  5
7234
330
7229
100
AcDbEntity
  8
0
100
AcDbBlockEnd
  0
BLOCK
  5
723E
330
7236
100
AcDbEntity
  8
0
100
AcDbBlockBegin
  2
*D8
 70
     1
 10
0.0
 20
0.0
 30
0.0
  3
*D8
  1

  0
LINE
  5
7237
330
7236
100
AcDbEntity
  8
寸法
  6
Continuous
 62
     4
370
    -2
100
AcDbLine
 10
1701.885232753243
 20
720.9910700698058
 30
0.0
 11
1749.885232753243
 21
720.9910700698058
 31
0.0
  0
INSERT
  5
7238
330
7236
100
AcDbEntity
  8
寸法
  6
Continuous
 62
     4
370
    -2
100
AcDbBlockReference
  2
_Dot
 10
1700.885232753243
 20
720.9910700698058
 30
0.0
 50
180.0
  0
INSERT
  5
7239
330
7236
100
AcDbEntity
  8
寸法
  6
Continuous
 62
     4
370
    -2
100
AcDbBlockReference
  2
_Dot
 10
1750.885232753243
 20
720.9910700698058
 30
0.0
  0
MTEXT
  5
723A
330
7236
100
AcDbEntity
  8
寸法
  6
Continuous
 62
     3
100
AcDbMText
 10
1725.885232753243
 20
724.4910700698057
 30
0.0
 40
5.0
 41
0.0
 71
     5
 72
     5
  1
\A1;50
  7
ACAD
 73
     1
 44
1.0
1001
ACAD
1000
MTEXTBEGIN
1070
    73
1070
     1
1070
    44
1040
1.0
1070
    74
1070
     0
1000
MTEXTEND
  0
POINT
  5
723B
330
7236
100
AcDbEntity
  8
Defpoints
  6
Continuous
 62
     0
100
AcDbPoint
 10
1700.885232753243
 20
720.9910700698058
 30
0.0
  0
POINT
  5
723C
330
7236
100
AcDbEntity
  8
Defpoints
  6
Continuous
 62
     0
100
AcDbPoint
 10
1750.885232753243
 20
720.9910700698058
 30
0.0
  0
POINT
  5
723D
330
7236
100
AcDbEntity
  8
Defpoints
  6
Continuous
 62
     0
100
AcDbPoint
 10
1750.885232753243
 20
720.9910700698058
 30
0.0
  0
ENDBLK
  5
723F
330
7236
100
AcDbEntity
  8
0
100
AcDbBlockEnd
  0
BLOCK
  5
724B
330
7241
100
AcDbEntity
  8
0
100
AcDbBlockBegin
  2
*D9
 70
     1
 10
0.0
 20
0.0
 30
0.0
  3
*D9
  1

  0
LINE
  5
72E3
330
7241
100
AcDbEntity
  8
寸法
  6
Continuous
 62
     4
370
    -2
100
AcDbLine
 10
1828.885232753243
 20
738.5682120351331
 30
0.0
 11
1866.885232753243
 21
738.5682120351331
 31
0.0
  0
LINE
  5
72E4
330
7241
100
AcDbEntity
  8
寸法
  6
Continuous
 62
     4
370
    -2
100
AcDbLine
 10
1754.537788068573
 20
780.9910700698058
 30
0.0
 11
1866.885232753243
 21
780.9910700698057
 31
0.0
  0
LINE
  5
72E5
330
7241
100
AcDbEntity
  8
寸法
  6
Continuous
 62
     4
370
    -2
100
AcDbLine
 10
1866.885232753243
 20
739.5682120351331
 30
0.0
 11
1866.885232753243
 21
779.9910700698057
 31
0.0
  0
INSERT
  5
72E6
330
7241
100
AcDbEntity
  8
寸法
  6
Continuous
 62
     4
370
    -2
100
AcDbBlockReference
  2
_Dot
 10
1866.885232753243
 20
738.5682120351331
 30
0.0
 50
270.0
  0
INSERT
  5
72E7
330
7241
100
AcDbEntity
  8
寸法
  6
Continuous
 62
     4
370
    -2
100
AcDbBlockReference
  2
_Dot
 10
1866.885232753243
 20
780.9910700698057
 30
0.0
 50
90.0
  0
MTEXT
  5
72E8
330
7241
100
AcDbEntity
  8
寸法
  6
Continuous
 62
     3
100
AcDbMText
 10
1863.385232753243
 20
759.7796410524697
 30
0.0
 40
5.0
 41
0.0
 71
     5
 72
     5
  1
\A1;44
  7
ACAD
 11
0.0000000000000001
 21
1.0
 31
0.0
 73
     1
 44
1.0
1001
ACAD
1000
MTEXTBEGIN
1070
    73
1070
     1
1070
    44
1040
1.0
1070
    74
1070
     0
1000
MTEXTEND
  0
POINT
  5
72E9
330
7241
100
AcDbEntity
  8
Defpoints
  6
Continuous
 62
     0
100
AcDbPoint
 10
1828.885232753243
 20
738.5682120351331
 30
0.0
  0
POINT
  5
72EA
330
7241
100
AcDbEntity
  8
Defpoints
  6
Continuous
 62
     0
100
AcDbPoint
 10
1754.537788068573
 20
780.9910700698058
 30
0.0
  0
POINT
  5
72EB
330
7241
100
AcDbEntity
  8
Defpoints
  6
Continuous
 62
     0
100
AcDbPoint
 10
1866.885232753243
 20
780.9910700698057
 30
0.0
  0
ENDBLK
  5
724C
330
7241
100
AcDbEntity
  8
0
100
AcDbBlockEnd
  0
BLOCK
  5
7258
330
724E
100
AcDbEntity
  8
0
100
AcDbBlockBegin
  2
*D10
 70
     1
 10
0.0
 20
0.0
 30
0.0
  3
*D10
  1

  0
LINE
  5
724F
330
724E
100
AcDbEntity
  8
寸法
  6
Continuous
 62
     4
370
    -2
100
AcDbLine
 10
1828.885232753243
 20
738.5682120351331
 30
0.0
 11
1886.885232753243
 21
738.5682120351331
 31
0.0
  0
LINE
  5
7250
330
724E
100
AcDbEntity
  8
寸法
  6
Continuous
 62
     4
370
    -2
100
AcDbLine
 10
1828.885232753243
 20
828.568212035133
 30
0.0
 11
1886.885232753243
 21
828.568212035133
 31
0.0
  0
LINE
  5
7251
330
724E
100
AcDbEntity
  8
寸法
  6
Continuous
 62
     4
370
    -2
100
AcDbLine
 10
1886.885232753243
 20
739.5682120351331
 30
0.0
 11
1886.885232753243
 21
827.568212035133
 31
0.0
  0
INSERT
  5
7252
330
724E
100
AcDbEntity
  8
寸法
  6
Continuous
 62
     4
370
    -2
100
AcDbBlockReference
  2
_Dot
 10
1886.885232753243
 20
738.5682120351331
 30
0.0
 50
270.0
  0
INSERT
  5
7253
330
724E
100
AcDbEntity
  8
寸法
  6
Continuous
 62
     4
370
    -2
100
AcDbBlockReference
  2
_Dot
 10
1886.885232753243
 20
828.568212035133
 30
0.0
 50
90.0
  0
MTEXT
  5
7254
330
724E
100
AcDbEntity
  8
寸法
  6
Continuous
 62
     3
100
AcDbMText
 10
1883.385232753242
 20
783.5682120351333
 30
0.0
 40
5.0
 41
0.0
 71
     5
 72
     5
  1
\A1;90
  7
ACAD
 11
0.0000000000000001
 21
1.0
 31
0.0
 73
     1
 44
1.0
1001
ACAD
1000
MTEXTBEGIN
1070
    73
1070
     1
1070
    44
1040
1.0
1070
    74
1070
     0
1000
MTEXTEND
  0
POINT
  5
7255
330
724E
100
AcDbEntity
  8
Defpoints
  6
Continuous
 62
     0
100
AcDbPoint
 10
1828.885232753243
 20
738.5682120351331
 30
0.0
  0
POINT
  5
7256
330
724E
100
AcDbEntity
  8
Defpoints
  6
Continuous
 62
     0
100
AcDbPoint
 10
1828.885232753243
 20
828.568212035133
 30
0.0
  0
POINT
  5
7257
330
724E
100
AcDbEntity
  8
Defpoints
  6
Continuous
 62
     0
100
AcDbPoint
 10
1886.885232753243
 20
828.568212035133
 30
0.0
  0
ENDBLK
  5
7259
330
724E
100
AcDbEntity
  8
0
100
AcDbBlockEnd
  0
BLOCK
  5
7265
330
725B
100
AcDbEntity
  8
0
100
AcDbBlockBegin
  2
*D11
 70
     1
 10
0.0
 20
0.0
 30
0.0
  3
*D11
  1

  0
LINE
  5
72EC
330
725B
100
AcDbEntity
  8
寸法
  6
Continuous
 62
     4
370
    -2
100
AcDbLine
 10
1826.885232753243
 20
830.5682120351329
 30
0.0
 11
1826.885232753243
 21
877.8933033893435
 31
0.0
  0
LINE
  5
72ED
330
725B
100
AcDbEntity
  8
寸法
  6
Continuous
 62
     4
370
    -2
100
AcDbLine
 10
1516.885232753242
 20
858.8146236128757
 30
0.0
 11
1516.885232753242
 21
877.8933033893435
 31
0.0
  0
LINE
  5
72EE
330
725B
100
AcDbEntity
  8
寸法
  6
Continuous
 62
     4
370
    -2
100
AcDbLine
 10
1825.885232753243
 20
877.8933033893435
 30
0.0
 11
1517.885232753243
 21
877.8933033893435
 31
0.0
  0
INSERT
  5
72EF
330
725B
100
AcDbEntity
  8
寸法
  6
Continuous
 62
     4
370
    -2
100
AcDbBlockReference
  2
_Dot
 10
1826.885232753243
 20
877.8933033893435
 30
0.0
  0
INSERT
  5
72F0
330
725B
100
AcDbEntity
  8
寸法
  6
Continuous
 62
     4
370
    -2
100
AcDbBlockReference
  2
_Dot
 10
1516.885232753242
 20
877.8933033893435
 30
0.0
 50
180.0
  0
MTEXT
  5
72F1
330
725B
100
AcDbEntity
  8
寸法
  6
Continuous
 62
     3
100
AcDbMText
 10
1671.885232753243
 20
881.3933033893436
 30
0.0
 40
5.0
 41
0.0
 71
     5
 72
     5
  1
\A1;A
  7
ACAD
 73
     1
 44
1.0
1001
ACAD
1000
MTEXTBEGIN
1070
    73
1070
     1
1070
    44
1040
1.0
1070
    74
1070
     0
1000
MTEXTEND
  0
POINT
  5
72F2
330
725B
100
AcDbEntity
  8
Defpoints
  6
Continuous
 62
     0
100
AcDbPoint
 10
1826.885232753243
 20
830.5682120351329
 30
0.0
  0
POINT
  5
72F3
330
725B
100
AcDbEntity
  8
Defpoints
  6
Continuous
 62
     0
100
AcDbPoint
 10
1516.885232753242
 20
858.8146236128757
 30
0.0
  0
POINT
  5
72F4
330
725B
100
AcDbEntity
  8
Defpoints
  6
Continuous
 62
     0
100
AcDbPoint
 10
1516.885232753242
 20
877.8933033893435
 30
0.0
  0
ENDBLK
  5
7266
330
725B
100
AcDbEntity
  8
0
100
AcDbBlockEnd
  0
BLOCK
  5
7272
330
7268
100
AcDbEntity
  8
0
100
AcDbBlockBegin
  2
*D12
 70
     1
 10
0.0
 20
0.0
 30
0.0
  3
*D12
  1

  0
LINE
  5
72F5
330
7268
100
AcDbEntity
  8
寸法
  6
Continuous
 62
     4
370
    -2
100
AcDbLine
 10
1826.885232753243
 20
830.5682120351329
 30
0.0
 11
1826.885232753243
 21
959.8933033893436
 31
0.0
  0
LINE
  5
72F6
330
7268
100
AcDbEntity
  8
寸法
  6
Continuous
 62
     4
370
    -2
100
AcDbLine
 10
1501.885232753243
 20
886.8933033893435
 30
0.0
 11
1501.885232753243
 21
959.8933033893436
 31
0.0
  0
LINE
  5
72F7
330
7268
100
AcDbEntity
  8
寸法
  6
Continuous
 62
     4
370
    -2
100
AcDbLine
 10
1825.885232753243
 20
959.8933033893436
 30
0.0
 11
1502.885232753242
 21
959.8933033893436
 31
0.0
  0
INSERT
  5
72F8
330
7268
100
AcDbEntity
  8
寸法
  6
Continuous
 62
     4
370
    -2
100
AcDbBlockReference
  2
_Dot
 10
1826.885232753243
 20
959.8933033893436
 30
0.0
  0
INSERT
  5
72F9
330
7268
100
AcDbEntity
  8
寸法
  6
Continuous
 62
     4
370
    -2
100
AcDbBlockReference
  2
_Dot
 10
1501.885232753243
 20
959.8933033893436
 30
0.0
 50
180.0
  0
MTEXT
  5
72FA
330
7268
100
AcDbEntity
  8
寸法
  6
Continuous
 62
     3
100
AcDbMText
 10
1664.385232753243
 20
963.3933033893436
 30
0.0
 40
5.0
 41
0.0
 71
     5
 72
     5
  1
\A1;W
  7
ACAD
 73
     1
 44
1.0
1001
ACAD
1000
MTEXTBEGIN
1070
    73
1070
     1
1070
    44
1040
1.0
1070
    74
1070
     0
1000
MTEXTEND
  0
POINT
  5
72FB
330
7268
100
AcDbEntity
  8
Defpoints
  6
Continuous
 62
     0
100
AcDbPoint
 10
1826.885232753243
 20
830.5682120351329
 30
0.0
  0
POINT
  5
72FC
330
7268
100
AcDbEntity
  8
Defpoints
  6
Continuous
 62
     0
100
AcDbPoint
 10
1501.885232753243
 20
886.8933033893435
 30
0.0
  0
POINT
  5
72FD
330
7268
100
AcDbEntity
  8
Defpoints
  6
Continuous
 62
     0
100
AcDbPoint
 10
1501.885232753243
 20
959.8933033893436
 30
0.0
  0
ENDBLK
  5
7273
330
7268
100
AcDbEntity
  8
0
100
AcDbBlockEnd
  0
BLOCK
  5
727F
330
7275
100
AcDbEntity
  8
0
100
AcDbBlockBegin
  2
*D13
 70
     1
 10
0.0
 20
0.0
 30
0.0
  3
*D13
  1

  0
LINE
  5
72FE
330
7275
100
AcDbEntity
  8
寸法
  6
Continuous
 62
     4
370
    -2
100
AcDbLine
 10
1501.885232753243
 20
886.8933033893435
 30
0.0
 11
1501.885232753243
 21
944.8933033893437
 31
0.0
  0
LINE
  5
72FF
330
7275
100
AcDbEntity
  8
寸法
  6
Continuous
 62
     4
370
    -2
100
AcDbLine
 10
1535.085232753243
 20
887.7955367088814
 30
0.0
 11
1535.085232753243
 21
944.8933033893437
 31
0.0
  0
LINE
  5
7300
330
7275
100
AcDbEntity
  8
寸法
  6
Continuous
 62
     4
370
    -2
100
AcDbLine
 10
1502.885232753242
 20
944.8933033893437
 30
0.0
 11
1534.085232753243
 21
944.8933033893437
 31
0.0
  0
INSERT
  5
7301
330
7275
100
AcDbEntity
  8
寸法
  6
Continuous
 62
     4
370
    -2
100
AcDbBlockReference
  2
_Dot
 10
1501.885232753243
 20
944.8933033893437
 30
0.0
 50
180.0
  0
INSERT
  5
7302
330
7275
100
AcDbEntity
  8
寸法
  6
Continuous
 62
     4
370
    -2
100
AcDbBlockReference
  2
_Dot
 10
1535.085232753243
 20
944.8933033893437
 30
0.0
  0
MTEXT
  5
7303
330
7275
100
AcDbEntity
  8
寸法
  6
Continuous
 62
     3
100
AcDbMText
 10
1518.485232753243
 20
948.3933033893437
 30
0.0
 40
5.0
 41
0.0
 71
     5
 72
     5
  1
\A1;33.2
  7
ACAD
 73
     1
 44
1.0
1001
ACAD
1000
MTEXTBEGIN
1070
    73
1070
     1
1070
    44
1040
1.0
1070
    74
1070
     0
1000
MTEXTEND
  0
POINT
  5
7304
330
7275
100
AcDbEntity
  8
Defpoints
  6
Continuous
 62
     0
100
AcDbPoint
 10
1501.885232753243
 20
886.8933033893435
 30
0.0
  0
POINT
  5
7305
330
7275
100
AcDbEntity
  8
Defpoints
  6
Continuous
 62
     0
100
AcDbPoint
 10
1535.085232753243
 20
887.7955367088814
 30
0.0
  0
POINT
  5
7306
330
7275
100
AcDbEntity
  8
Defpoints
  6
Continuous
 62
     0
100
AcDbPoint
 10
1535.085232753243
 20
944.8933033893437
 30
0.0
  0
ENDBLK
  5
7280
330
7275
100
AcDbEntity
  8
0
100
AcDbBlockEnd
  0
BLOCK
  5
728C
330
7282
100
AcDbEntity
  8
0
100
AcDbBlockBegin
  2
*D14
 70
     1
 10
0.0
 20
0.0
 30
0.0
  3
*D14
  1

  0
LINE
  5
7283
330
7282
100
AcDbEntity
  8
寸法
  6
Continuous
 62
     4
370
    -2
100
AcDbLine
 10
1515.085232753243
 20
901.8933033893436
 30
0.0
 11
1515.085232753243
 21
929.8933033893435
 31
0.0
  0
LINE
  5
7284
330
7282
100
AcDbEntity
  8
寸法
  6
Continuous
 62
     4
370
    -2
100
AcDbLine
 10
1535.085232753243
 20
887.7955367088814
 30
0.0
 11
1535.085232753243
 21
929.8933033893435
 31
0.0
  0
LINE
  5
7285
330
7282
100
AcDbEntity
  8
寸法
  6
Continuous
 62
     4
370
    -2
100
AcDbLine
 10
1516.085232753243
 20
929.8933033893435
 30
0.0
 11
1534.085232753243
 21
929.8933033893435
 31
0.0
  0
INSERT
  5
7286
330
7282
100
AcDbEntity
  8
寸法
  6
Continuous
 62
     4
370
    -2
100
AcDbBlockReference
  2
_Dot
 10
1515.085232753243
 20
929.8933033893435
 30
0.0
 50
180.0
  0
INSERT
  5
7287
330
7282
100
AcDbEntity
  8
寸法
  6
Continuous
 62
     4
370
    -2
100
AcDbBlockReference
  2
_Dot
 10
1535.085232753243
 20
929.8933033893435
 30
0.0
  0
MTEXT
  5
7288
330
7282
100
AcDbEntity
  8
寸法
  6
Continuous
 62
     3
100
AcDbMText
 10
1525.085232753243
 20
933.3933033893435
 30
0.0
 40
5.0
 41
0.0
 71
     5
 72
     5
  1
\A1;20
  7
ACAD
 73
     1
 44
1.0
1001
ACAD
1000
MTEXTBEGIN
1070
    73
1070
     1
1070
    44
1040
1.0
1070
    74
1070
     0
1000
MTEXTEND
  0
POINT
  5
7289
330
7282
100
AcDbEntity
  8
Defpoints
  6
Continuous
 62
     0
100
AcDbPoint
 10
1515.085232753243
 20
901.8933033893436
 30
0.0
  0
POINT
  5
728A
330
7282
100
AcDbEntity
  8
Defpoints
  6
Continuous
 62
     0
100
AcDbPoint
 10
1535.085232753243
 20
887.7955367088814
 30
0.0
  0
POINT
  5
728B
330
7282
100
AcDbEntity
  8
Defpoints
  6
Continuous
 62
     0
100
AcDbPoint
 10
1535.085232753243
 20
929.8933033893435
 30
0.0
  0
ENDBLK
  5
728D
330
7282
100
AcDbEntity
  8
0
100
AcDbBlockEnd
  0
BLOCK
  5
7299
330
728F
100
AcDbEntity
  8
0
100
AcDbBlockBegin
  2
*D15
 70
     1
 10
0.0
 20
0.0
 30
0.0
  3
*D15
  1

  0
LINE
  5
7290
330
728F
100
AcDbEntity
  8
寸法
  6
Continuous
 62
     4
370
    -2
100
AcDbLine
 10
1527.885232753243
 20
899.8933033893436
 30
0.0
 11
1570.085232753243
 21
899.8933033893436
 31
0.0
  0
LINE
  5
7291
330
728F
100
AcDbEntity
  8
寸法
  6
Continuous
 62
     4
370
    -2
100
AcDbLine
 10
1537.085232753243
 20
884.8933033893436
 30
0.0
 11
1570.085232753243
 21
884.8933033893436
 31
0.0
  0
LINE
  5
7292
330
728F
100
AcDbEntity
  8
寸法
  6
Continuous
 62
     4
370
    -2
100
AcDbLine
 10
1570.085232753243
 20
898.8933033893436
 30
0.0
 11
1570.085232753243
 21
885.8933033893436
 31
0.0
  0
INSERT
  5
7293
330
728F
100
AcDbEntity
  8
寸法
  6
Continuous
 62
     4
370
    -2
100
AcDbBlockReference
  2
_Dot
 10
1570.085232753243
 20
899.8933033893436
 30
0.0
 50
90.0
  0
INSERT
  5
7294
330
728F
100
AcDbEntity
  8
寸法
  6
Continuous
 62
     4
370
    -2
100
AcDbBlockReference
  2
_Dot
 10
1570.085232753243
 20
884.8933033893436
 30
0.0
 50
270.0
  0
MTEXT
  5
7295
330
728F
100
AcDbEntity
  8
寸法
  6
Continuous
 62
     3
100
AcDbMText
 10
1566.585232753243
 20
892.3933033893439
 30
0.0
 40
5.0
 41
0.0
 71
     5
 72
     5
  1
\A1;15
  7
ACAD
 11
0.0000000000000001
 21
1.0
 31
0.0
 73
     1
 44
1.0
1001
ACAD
1000
MTEXTBEGIN
1070
    73
1070
     1
1070
    44
1040
1.0
1070
    74
1070
     0
1000
MTEXTEND
  0
POINT
  5
7296
330
728F
100
AcDbEntity
  8
Defpoints
  6
Continuous
 62
     0
100
AcDbPoint
 10
1527.885232753243
 20
899.8933033893436
 30
0.0
  0
POINT
  5
7297
330
728F
100
AcDbEntity
  8
Defpoints
  6
Continuous
 62
     0
100
AcDbPoint
 10
1537.085232753243
 20
884.8933033893436
 30
0.0
  0
POINT
  5
7298
330
728F
100
AcDbEntity
  8
Defpoints
  6
Continuous
 62
     0
100
AcDbPoint
 10
1570.085232753243
 20
884.8933033893436
 30
0.0
  0
ENDBLK
  5
729A
330
728F
100
AcDbEntity
  8
0
100
AcDbBlockEnd
  0
BLOCK
  5
72A6
330
729C
100
AcDbEntity
  8
0
100
AcDbBlockBegin
  2
*D16
 70
     1
 10
0.0
 20
0.0
 30
0.0
  3
*D16
  1

  0
LINE
  5
729D
330
729C
100
AcDbEntity
  8
寸法
  6
Continuous
 62
     4
370
    -2
100
AcDbLine
 10
1537.085232753243
 20
884.8933033893436
 30
0.0
 11
1570.085232753243
 21
884.8933033893436
 31
0.0
  0
LINE
  5
729E
330
729C
100
AcDbEntity
  8
寸法
  6
Continuous
 62
     4
370
    -2
100
AcDbLine
 10
1537.085232753243
 20
848.8933033893436
 30
0.0
 11
1570.085232753243
 21
848.8933033893436
 31
0.0
  0
LINE
  5
729F
330
729C
100
AcDbEntity
  8
寸法
  6
Continuous
 62
     4
370
    -2
100
AcDbLine
 10
1570.085232753243
 20
883.8933033893436
 30
0.0
 11
1570.085232753243
 21
849.8933033893436
 31
0.0
  0
INSERT
  5
72A0
330
729C
100
AcDbEntity
  8
寸法
  6
Continuous
 62
     4
370
    -2
100
AcDbBlockReference
  2
_Dot
 10
1570.085232753243
 20
884.8933033893436
 30
0.0
 50
90.0
  0
INSERT
  5
72A1
330
729C
100
AcDbEntity
  8
寸法
  6
Continuous
 62
     4
370
    -2
100
AcDbBlockReference
  2
_Dot
 10
1570.085232753243
 20
848.8933033893436
 30
0.0
 50
270.0
  0
MTEXT
  5
72A2
330
729C
100
AcDbEntity
  8
寸法
  6
Continuous
 62
     3
100
AcDbMText
 10
1566.585232753243
 20
866.8933033893438
 30
0.0
 40
5.0
 41
0.0
 71
     5
 72
     5
  1
\A1;36
  7
ACAD
 11
0.0000000000000001
 21
1.0
 31
0.0
 73
     1
 44
1.0
1001
ACAD
1000
MTEXTBEGIN
1070
    73
1070
     1
1070
    44
1040
1.0
1070
    74
1070
     0
1000
MTEXTEND
  0
POINT
  5
72A3
330
729C
100
AcDbEntity
  8
Defpoints
  6
Continuous
 62
     0
100
AcDbPoint
 10
1537.085232753243
 20
884.8933033893436
 30
0.0
  0
POINT
  5
72A4
330
729C
100
AcDbEntity
  8
Defpoints
  6
Continuous
 62
     0
100
AcDbPoint
 10
1537.085232753243
 20
848.8933033893436
 30
0.0
  0
POINT
  5
72A5
330
729C
100
AcDbEntity
  8
Defpoints
  6
Continuous
 62
     0
100
AcDbPoint
 10
1570.085232753243
 20
848.8933033893436
 30
0.0
  0
ENDBLK
  5
72A7
330
729C
100
AcDbEntity
  8
0
100
AcDbBlockEnd
  0
BLOCK
  5
72B2
330
72A9
100
AcDbEntity
  8
0
100
AcDbBlockBegin
  2
*D17
 70
     1
 10
0.0
 20
0.0
 30
0.0
  3
*D17
  1

  0
LINE
  5
72CA
330
72A9
100
AcDbEntity
  8
寸法
  6
Continuous
 62
     4
370
    -2
100
AcDbLine
 10
1498.885232753243
 20
780.9910700698058
 30
0.0
 11
1445.885232753243
 21
780.9910700698058
 31
0.0
  0
LINE
  5
72CB
330
72A9
100
AcDbEntity
  8
寸法
  6
Continuous
 62
     4
370
    -2
100
AcDbLine
 10
1445.885232753243
 20
781.9910700698057
 30
0.0
 11
1445.885232753243
 21
840.1933033893435
 31
0.0
  0
INSERT
  5
72CC
330
72A9
100
AcDbEntity
  8
寸法
  6
Continuous
 62
     4
370
    -2
100
AcDbBlockReference
  2
_Dot
 10
1445.885232753243
 20
780.9910700698058
 30
0.0
 50
270.0
  0
INSERT
  5
72CD
330
72A9
100
AcDbEntity
  8
寸法
  6
Continuous
 62
     4
370
    -2
100
AcDbBlockReference
  2
_Dot
 10
1445.885232753243
 20
841.1933033893435
 30
0.0
 50
90.0
  0
MTEXT
  5
72CE
330
72A9
100
AcDbEntity
  8
寸法
  6
Continuous
 62
     3
100
AcDbMText
 10
1442.385232753243
 20
811.0921867295749
 30
0.0
 40
5.0
 41
0.0
 71
     5
 72
     5
  1
\A1;D
  7
ACAD
 11
0.0000000000000001
 21
1.0
 31
0.0
 73
     1
 44
1.0
1001
ACAD
1000
MTEXTBEGIN
1070
    73
1070
     1
1070
    44
1040
1.0
1070
    74
1070
     0
1000
MTEXTEND
  0
POINT
  5
72CF
330
72A9
100
AcDbEntity
  8
Defpoints
  6
Continuous
 62
     0
100
AcDbPoint
 10
1498.885232753243
 20
780.9910700698058
 30
0.0
  0
POINT
  5
72D0
330
72A9
100
AcDbEntity
  8
Defpoints
  6
Continuous
 62
     0
100
AcDbPoint
 10
1445.885232753243
 20
841.1933033893435
 30
0.0
  0
POINT
  5
72D1
330
72A9
100
AcDbEntity
  8
Defpoints
  6
Continuous
 62
     0
100
AcDbPoint
 10
1445.885232753243
 20
841.1933033893435
 30
0.0
  0
ENDBLK
  5
72B3
330
72A9
100
AcDbEntity
  8
0
100
AcDbBlockEnd
  0
BLOCK
  5
72BF
330
72B5
100
AcDbEntity
  8
0
100
AcDbBlockBegin
  2
*D18
 70
     1
 10
0.0
 20
0.0
 30
0.0
  3
*D18
  1

  0
LINE
  5
72C1
330
72B5
100
AcDbEntity
  8
寸法
  6
Continuous
 62
     4
370
    -2
100
AcDbLine
 10
1498.885232753243
 20
780.9910700698058
 30
0.0
 11
1425.885232753243
 21
780.9910700698058
 31
0.0
  0
LINE
  5
72C2
330
72B5
100
AcDbEntity
  8
寸法
  6
Continuous
 62
     4
370
    -2
100
AcDbLine
 10
1498.885232753243
 20
899.8933033893436
 30
0.0
 11
1425.885232753243
 21
899.8933033893436
 31
0.0
  0
LINE
  5
72C3
330
72B5
100
AcDbEntity
  8
寸法
  6
Continuous
 62
     4
370
    -2
100
AcDbLine
 10
1425.885232753243
 20
781.9910700698057
 30
0.0
 11
1425.885232753243
 21
898.8933033893436
 31
0.0
  0
INSERT
  5
72C4
330
72B5
100
AcDbEntity
  8
寸法
  6
Continuous
 62
     4
370
    -2
100
AcDbBlockReference
  2
_Dot
 10
1425.885232753243
 20
780.9910700698058
 30
0.0
 50
270.0
  0
INSERT
  5
72C5
330
72B5
100
AcDbEntity
  8
寸法
  6
Continuous
 62
     4
370
    -2
100
AcDbBlockReference
  2
_Dot
 10
1425.885232753243
 20
899.8933033893436
 30
0.0
 50
90.0
  0
MTEXT
  5
72C6
330
72B5
100
AcDbEntity
  8
寸法
  6
Continuous
 62
     3
100
AcDbMText
 10
1422.385232753242
 20
840.4421867295749
 30
0.0
 40
5.0
 41
0.0
 71
     5
 72
     5
  1
\A1;E
  7
ACAD
 11
0.0000000000000001
 21
1.0
 31
0.0
 73
     1
 44
1.0
1001
ACAD
1000
MTEXTBEGIN
1070
    73
1070
     1
1070
    44
1040
1.0
1070
    74
1070
     0
1000
MTEXTEND
  0
POINT
  5
72C7
330
72B5
100
AcDbEntity
  8
Defpoints
  6
Continuous
 62
     0
100
AcDbPoint
 10
1498.885232753243
 20
780.9910700698058
 30
0.0
  0
POINT
  5
72C8
330
72B5
100
AcDbEntity
  8
Defpoints
  6
Continuous
 62
     0
100
AcDbPoint
 10
1498.885232753243
 20
899.8933033893436
 30
0.0
  0
POINT
  5
72C9
330
72B5
100
AcDbEntity
  8
Defpoints
  6
Continuous
 62
     0
100
AcDbPoint
 10
1425.885232753243
 20
899.8933033893436
 30
0.0
  0
ENDBLK
  5
72C0
330
72B5
100
AcDbEntity
  8
0
100
AcDbBlockEnd
  0
ENDSEC
  0
SECTION
  2
ENTITIES
  0
TEXT
  5
6CD1
330
1E
100
AcDbEntity
  8
図枠
 62
     6
100
AcDbText
 10
1272.336952223779
 20
953.8955452973816
 30
0.0
 40
9.0
  1
　　屋根－壁（切欠き壁）
100
AcDbText
  0
TEXT
  5
6CD2
330
1E
100
AcDbEntity
  8
図枠
 62
     6
100
AcDbText
 10
1272.336952223779
 20
936.6286370848211
 30
0.0
 40
9.0
  1
　　Ｓ＝１／２
100
AcDbText
  0
TEXT
  5
6CD3
330
1E
100
AcDbEntity
  8
図枠
 62
     6
100
AcDbText
 10
1271.931741462377
 20
970.460702226558
 30
0.0
 40
9.0
  1
◇ステンレス１００タイプ（１００ＦＹＫ－Ｓ）
100
AcDbText
  0
CIRCLE
  5
6CD4
330
1E
100
AcDbEntity
  8
図枠
  6
Continuous
 62
     4
100
AcDbCircle
 10
1549.643197137342
 20
921.098881915547
 30
0.0
 40
6.0
  0
TEXT
  5
6CD5
330
1E
100
AcDbEntity
  8
図枠
 62
     7
100
AcDbText
 10
1546.643197137341
 20
918.0988819155471
 30
0.0
 40
5.0
  1
２
100
AcDbText
  0
LINE
  5
6CD6
330
1E
100
AcDbEntity
  8
図枠
  6
Continuous
 62
     4
100
AcDbLine
 10
1528.406375632511
 20
884.3156280779098
 30
0.0
 11
1546.643197137341
 21
915.9027294928401
 31
0.0
  0
CIRCLE
  5
6CD7
330
1E
100
AcDbEntity
  8
図枠
  6
Continuous
 62
     4
100
AcDbCircle
 10
1528.406375632511
 20
884.3156280779098
 30
0.0
 40
0.9
  0
CIRCLE
  5
6CD8
330
1E
100
AcDbEntity
  8
図枠
  6
Continuous
 62
     4
100
AcDbCircle
 10
1838.231069868523
 20
877.3985038261352
 30
0.0
 40
6.0
  0
TEXT
  5
6CD9
330
1E
100
AcDbEntity
  8
図枠
 62
     7
100
AcDbText
 10
1835.231069868523
 20
874.3985038261351
 30
0.0
 40
5.0
  1
１
100
AcDbText
  0
LINE
  5
6CDA
330
1E
100
AcDbEntity
  8
図枠
  6
Continuous
 62
     4
100
AcDbLine
 10
1810.094588725121
 20
828.6646889395592
 30
0.0
 11
1835.231069868523
 21
872.2023514034285
 31
0.0
  0
CIRCLE
  5
6CDB
330
1E
100
AcDbEntity
  8
図枠
  6
Continuous
 62
     4
100
AcDbCircle
 10
1810.094588725121
 20
828.6646889395592
 30
0.0
 40
0.9
  0
LINE
  5
6CDC
330
1E
100
AcDbEntity
  8
躯体と製品
  6
Continuous
 62
     7
100
AcDbLine
 10
1703.428978470138
 20
792.130176392697
 30
0.0
 11
1703.274485247043
 21
791.9910700698058
 31
0.0
  0
LINE
  5
6CDD
330
1E
100
AcDbEntity
  8
躯体と製品
  6
Continuous
 62
     4
100
AcDbLine
 10
1703.124991024524
 20
797.1922632949712
 30
0.0
 11
1702.852408037971
 21
791.9910700698058
 31
0.0
  0
LINE
  5
6CDE
330
1E
100
AcDbEntity
  8
躯体と製品
  6
Continuous
 62
     4
100
AcDbLine
 10
1698.268655597012
 20
797.4467730501807
 30
0.0
 11
1697.982734319383
 21
791.9910700698058
 31
0.0
  0
LINE
  5
6CDF
330
1E
100
AcDbEntity
  8
躯体と製品
  6
Continuous
 62
     7
100
AcDbLine
 10
1697.845194197309
 20
791.9910700698058
 30
0.0
 11
1697.43720126161
 21
792.4441921301545
 31
0.0
  0
CIRCLE
  5
6CE0
330
1E
100
AcDbEntity
  8
図枠
  6
Continuous
 62
     4
100
AcDbCircle
 10
1804.872950605275
 20
722.3087056046328
 30
0.0
 40
6.0
  0
TEXT
  5
6CE1
330
1E
100
AcDbEntity
  8
図枠
 62
     7
100
AcDbText
 10
1801.622950605275
 20
719.3087056046329
 30
0.0
 40
5.0
  1
11
100
AcDbText
  0
LINE
  5
6CE2
330
1E
100
AcDbEntity
  8
図枠
  6
Continuous
 62
     4
100
AcDbLine
 10
1791.415503068645
 20
745.6176884782697
 30
0.0
 11
1801.872950605275
 21
727.5048580273396
 31
0.0
  0
CIRCLE
  5
6CE3
330
1E
100
AcDbEntity
  8
図枠
  6
Continuous
 62
     4
100
AcDbCircle
 10
1791.415503068645
 20
745.6176884782697
 30
0.0
 40
0.9
  0
CIRCLE
  5
6CE4
330
1E
100
AcDbEntity
  8
図枠
  6
Continuous
 62
     4
100
AcDbCircle
 10
1836.865525700712
 20
811.3815755392172
 30
0.0
 40
6.0
  0
TEXT
  5
6CE5
330
1E
100
AcDbEntity
  8
図枠
 62
     7
100
AcDbText
 10
1833.865525700712
 20
808.3815755392171
 30
0.0
 40
5.0
  1
５
100
AcDbText
  0
LINE
  5
6CE6
330
1E
100
AcDbEntity
  8
図枠
  6
Continuous
 62
     4
100
AcDbLine
 10
1808.897511884356
 20
762.9395546224996
 30
0.0
 11
1833.865525700712
 21
806.1854231165105
 31
0.0
  0
CIRCLE
  5
6CE7
330
1E
100
AcDbEntity
  8
図枠
  6
Continuous
 62
     4
100
AcDbCircle
 10
1808.897511884356
 20
762.9395546224996
 30
0.0
 40
0.9
  0
LINE
  5
6CE8
330
1E
100
AcDbEntity
  8
図枠
  6
Continuous
 62
     4
100
AcDbLine
 10
1810.638815463489
 20
810.521012297587
 30
0.0
 11
1834.275296606891
 21
851.4605985501029
 31
0.0
  0
TEXT
  5
6CE9
330
1E
100
AcDbEntity
  8
図枠
 62
     7
100
AcDbText
 10
1834.275296606891
 20
853.6567509728097
 30
0.0
 40
5.0
  1
９
100
AcDbText
  0
CIRCLE
  5
6CEA
330
1E
100
AcDbEntity
  8
図枠
  6
Continuous
 62
     4
100
AcDbCircle
 10
1837.275296606891
 20
856.6567509728097
 30
0.0
 40
6.0
  0
CIRCLE
  5
6CEB
330
1E
100
AcDbEntity
  8
図枠
  6
Continuous
 62
     4
100
AcDbCircle
 10
1810.638815463489
 20
810.521012297587
 30
0.0
 40
0.9
  0
LINE
  5
6CEC
330
1E
100
AcDbEntity
  8
図枠
  6
Continuous
 62
     4
100
AcDbLine
 10
1693.763481000221
 20
786.2272270023831
 30
0.0
 11
1684.066227368341
 21
769.4310910180863
 31
0.0
  0
TEXT
  5
6CED
330
1E
100
AcDbEntity
  8
図枠
 62
     7
100
AcDbText
 10
1677.816227368342
 20
761.2349385953798
 30
0.0
 40
5.0
  1
20
100
AcDbText
  0
CIRCLE
  5
6CEE
330
1E
100
AcDbEntity
  8
図枠
  6
Continuous
 62
     4
100
AcDbCircle
 10
1681.066227368341
 20
764.2349385953798
 30
0.0
 40
6.0
  0
CIRCLE
  5
6CEF
330
1E
100
AcDbEntity
  8
図枠
  6
Continuous
 62
     4
100
AcDbCircle
 10
1693.763481000221
 20
786.2272270023831
 30
0.0
 40
0.9
  0
LINE
  5
6CF0
330
1E
100
AcDbEntity
  8
図枠
  6
Continuous
 62
     4
100
AcDbLine
 10
1698.759221777241
 20
755.9084086716588
 30
0.0
 11
1688.717607582494
 21
738.5158226963532
 31
0.0
  0
TEXT
  5
6CF1
330
1E
100
AcDbEntity
  8
図枠
 62
     7
100
AcDbText
 10
1682.467607582494
 20
730.3196702736466
 30
0.0
 40
5.0
  1
17
100
AcDbText
  0
CIRCLE
  5
6CF2
330
1E
100
AcDbEntity
  8
図枠
  6
Continuous
 62
     4
100
AcDbCircle
 10
1685.717607582494
 20
733.3196702736465
 30
0.0
 40
6.0
  0
LINE
  5
6CF3
330
1E
100
AcDbEntity
  8
図枠
  6
Continuous
 62
     4
100
AcDbLine
 10
1705.222643581938
 20
789.0916422170641
 30
0.0
 11
1721.645029246795
 21
760.6472358640417
 31
0.0
  0
TEXT
  5
6CF4
330
1E
100
AcDbEntity
  8
図枠
 62
     7
100
AcDbText
 10
1721.395029246795
 20
752.4510834413351
 30
0.0
 40
5.0
  1
16
100
AcDbText
  0
CIRCLE
  5
6CF5
330
1E
100
AcDbEntity
  8
図枠
  6
Continuous
 62
     4
100
AcDbCircle
 10
1724.645029246795
 20
755.451083441335
 30
0.0
 40
6.0
  0
LINE
  5
6CF6
330
1E
100
AcDbEntity
  8
図枠
  6
Continuous
 62
     4
100
AcDbLine
 10
1711.062715481386
 20
796.4796849814264
 30
0.0
 11
1722.844401613155
 21
776.0732060023739
 31
0.0
  0
TEXT
  5
6CF7
330
1E
100
AcDbEntity
  8
図枠
 62
     7
100
AcDbText
 10
1722.844401613155
 20
767.8770535796672
 30
0.0
 40
5.0
  1
８
100
AcDbText
  0
CIRCLE
  5
6CF8
330
1E
100
AcDbEntity
  8
図枠
  6
Continuous
 62
     4
100
AcDbCircle
 10
1725.844401613155
 20
770.8770535796673
 30
0.0
 40
6.0
  0
LINE
  5
6CF9
330
1E
100
AcDbEntity
  8
図枠
  6
Continuous
 62
     4
100
AcDbLine
 10
1702.939677790675
 20
816.4542397570732
 30
0.0
 11
1720.765210329707
 21
847.3289677866493
 31
0.0
  0
TEXT
  5
6CFA
330
1E
100
AcDbEntity
  8
図枠
 62
     7
100
AcDbText
 10
1720.515210329708
 20
849.5251202093557
 30
0.0
 40
5.0
  1
14
100
AcDbText
  0
CIRCLE
  5
6CFB
330
1E
100
AcDbEntity
  8
図枠
  6
Continuous
 62
     4
100
AcDbCircle
 10
1723.765210329707
 20
852.5251202093558
 30
0.0
 40
6.0
  0
LINE
  5
6CFC
330
1E
100
AcDbEntity
  8
図枠
  6
Continuous
 62
     4
100
AcDbLine
 10
1718.489061781632
 20
819.1764924005047
 30
0.0
 11
1736.776151554008
 21
850.8506610088332
 31
0.0
  0
TEXT
  5
6CFD
330
1E
100
AcDbEntity
  8
図枠
 62
     7
100
AcDbText
 10
1736.776151554008
 20
853.04681343154
 30
0.0
 40
5.0
  1
７
100
AcDbText
  0
CIRCLE
  5
6CFE
330
1E
100
AcDbEntity
  8
図枠
  6
Continuous
 62
     4
100
AcDbCircle
 10
1739.776151554008
 20
856.0468134315399
 30
0.0
 40
6.0
  0
LINE
  5
6CFF
330
1E
100
AcDbEntity
  8
図枠
  6
Continuous
 62
     4
100
AcDbLine
 10
1718.406924337421
 20
794.7424070557615
 30
0.0
 11
1743.219978592871
 21
837.719877717164
 31
0.0
  0
TEXT
  5
6D00
330
1E
100
AcDbEntity
  8
図枠
 62
     7
100
AcDbText
 10
1743.219978592871
 20
839.9160301398705
 30
0.0
 40
5.0
  1
３
100
AcDbText
  0
CIRCLE
  5
6D01
330
1E
100
AcDbEntity
  8
図枠
  6
Continuous
 62
     4
100
AcDbCircle
 10
1746.219978592872
 20
842.9160301398704
 30
0.0
 40
6.0
  0
CIRCLE
  5
6D02
330
1E
100
AcDbEntity
  8
図枠
  6
Continuous
 62
     4
100
AcDbCircle
 10
1718.406924337421
 20
794.7424070557615
 30
0.0
 40
0.9
  0
LINE
  5
6D03
330
1E
100
AcDbEntity
  8
図枠
  6
Continuous
 62
     4
100
AcDbLine
 10
1750.858573492002
 20
814.5892641699104
 30
0.0
 11
1764.783888603612
 21
838.7086174546256
 31
0.0
  0
TEXT
  5
6D04
330
1E
100
AcDbEntity
  8
図枠
 62
     7
100
AcDbText
 10
1764.783888603612
 20
840.9047698773322
 30
0.0
 40
5.0
  1
６
100
AcDbText
  0
CIRCLE
  5
6D05
330
1E
100
AcDbEntity
  8
図枠
  6
Continuous
 62
     4
100
AcDbCircle
 10
1767.783888603613
 20
843.9047698773322
 30
0.0
 40
6.0
  0
CIRCLE
  5
6D06
330
1E
100
AcDbEntity
  8
図枠
  6
Continuous
 62
     4
100
AcDbCircle
 10
1711.062715481386
 20
796.4796849814264
 30
0.0
 40
0.9
  0
CIRCLE
  5
6D07
330
1E
100
AcDbEntity
  8
図枠
  6
Continuous
 62
     4
100
AcDbCircle
 10
1705.222643581938
 20
789.0916422170641
 30
0.0
 40
0.9
  0
CIRCLE
  5
6D08
330
1E
100
AcDbEntity
  8
図枠
  6
Continuous
 62
     4
100
AcDbCircle
 10
1718.489061781632
 20
819.1764924005047
 30
0.0
 40
0.9
  0
CIRCLE
  5
6D09
330
1E
100
AcDbEntity
  8
図枠
  6
Continuous
 62
     4
100
AcDbCircle
 10
1698.759221777241
 20
755.9084086716588
 30
0.0
 40
0.9
  0
CIRCLE
  5
6D0A
330
1E
100
AcDbEntity
  8
図枠
  6
Continuous
 62
     4
100
AcDbCircle
 10
1702.939677790675
 20
816.4542397570732
 30
0.0
 40
0.9
  0
CIRCLE
  5
6D0B
330
1E
100
AcDbEntity
  8
図枠
  6
Continuous
 62
     4
100
AcDbCircle
 10
1750.858573492002
 20
814.5892641699104
 30
0.0
 40
0.9
  0
LINE
  5
6D0C
330
1E
100
AcDbEntity
  8
躯体と製品
  6
Continuous
 62
     7
100
AcDbLine
 10
1706.658735445139
 20
791.4867530555016
 30
0.0
 11
1706.658735445139
 21
786.9910700698057
 31
0.0
  0
LINE
  5
6D0D
330
1E
100
AcDbEntity
  8
躯体と製品
  6
Continuous
 62
     7
100
AcDbLine
 10
1703.771984099191
 20
791.4867530555016
 30
0.0
 11
1703.771984099191
 21
786.9910700698057
 31
0.0
  0
LINE
  5
6D0E
330
1E
100
AcDbEntity
  8
躯体と製品
  6
Continuous
 62
     7
100
AcDbLine
 10
1697.998481407295
 20
791.4867530555016
 30
0.0
 11
1697.998481407295
 21
786.9910700698057
 31
0.0
  0
LINE
  5
6D0F
330
1E
100
AcDbEntity
  8
躯体と製品
  6
Continuous
 62
     7
100
AcDbLine
 10
1705.785232753243
 20
791.9910700698058
 30
0.0
 11
1706.658735445139
 21
791.4867530555016
 31
0.0
  0
LINE
  5
6D10
330
1E
100
AcDbEntity
  8
躯体と製品
  6
Continuous
 62
     7
100
AcDbLine
 10
1695.985232753243
 20
791.9910700698058
 30
0.0
 11
1705.785232753243
 21
791.9910700698058
 31
0.0
  0
LINE
  5
6D11
330
1E
100
AcDbEntity
  8
躯体と製品
  6
Continuous
 62
     7
100
AcDbLine
 10
1695.985232753243
 20
791.9910700698058
 30
0.0
 11
1695.111730061347
 21
791.4867530555016
 31
0.0
  0
LINE
  5
6D12
330
1E
100
AcDbEntity
  8
躯体と製品
  6
Continuous
 62
     7
100
AcDbLine
 10
1695.111730061347
 20
791.4867530555016
 30
0.0
 11
1695.111730061347
 21
786.9910700698057
 31
0.0
  0
ARC
  5
6D13
330
1E
100
AcDbEntity
  8
躯体と製品
  6
Continuous
 62
     7
100
AcDbCircle
 10
1705.215359772165
 20
789.3775122944576
 30
0.0
 40
2.555822748428199
100
AcDbArc
 50
55.61575253203897
 51
124.384247467961
  0
ARC
  5
6D14
330
1E
100
AcDbEntity
  8
躯体と製品
  6
Continuous
 62
     7
100
AcDbCircle
 10
1696.555105734321
 20
789.3775122944576
 30
0.0
 40
2.555822748428199
100
AcDbArc
 50
55.61575253203897
 51
124.384247467961
  0
ARC
  5
6D15
330
1E
100
AcDbEntity
  8
躯体と製品
  6
Continuous
 62
     7
100
AcDbCircle
 10
1700.885232753243
 20
782.37991703025
 30
0.0
 40
9.553418012635715
100
AcDbArc
 50
72.41204622604974
 51
107.5879537739502
  0
LINE
  5
6D16
330
1E
100
AcDbEntity
  8
躯体と製品
  6
Continuous
 62
     7
100
AcDbLine
 10
1691.885232753243
 20
786.9910700698057
 30
0.0
 11
1691.885232753243
 21
785.4910700698058
 31
0.0
  0
LINE
  5
6D17
330
1E
100
AcDbEntity
  8
躯体と製品
  6
Continuous
 62
     7
100
AcDbLine
 10
1709.885232753243
 20
786.9910700698057
 30
0.0
 11
1709.885232753243
 21
785.4910700698058
 31
0.0
  0
LINE
  5
6D18
330
1E
100
AcDbEntity
  8
躯体と製品
  6
Continuous
 62
     7
100
AcDbLine
 10
1691.885232753243
 20
786.9910700698057
 30
0.0
 11
1709.885232753243
 21
786.9910700698057
 31
0.0
  0
LINE
  5
6D19
330
1E
100
AcDbEntity
  8
図枠
  6
Continuous
 62
     4
100
AcDbLine
 10
1540.225018195022
 20
721.6486697543484
 30
0.0
 11
1552.608305381444
 21
743.0971523259475
 31
0.0
  0
TEXT
  5
6D1A
330
1E
100
AcDbEntity
  8
図枠
 62
     7
100
AcDbText
 10
1552.358305381444
 20
745.2933047486542
 30
0.0
 40
5.0
  1
12
100
AcDbText
  0
CIRCLE
  5
6D1B
330
1E
100
AcDbEntity
  8
図枠
  6
Continuous
 62
     4
100
AcDbCircle
 10
1555.608305381444
 20
748.2933047486542
 30
0.0
 40
6.0
  0
CIRCLE
  5
6D1C
330
1E
100
AcDbEntity
  8
図枠
  6
Continuous
 62
     4
100
AcDbCircle
 10
1540.225018195022
 20
721.6486697543484
 30
0.0
 40
0.9
  0
CIRCLE
  5
6D1D
330
1E
100
AcDbEntity
  8
図枠
  6
Continuous
 62
     4
100
AcDbCircle
 10
1506.169035641092
 20
834.5769751611561
 30
0.0
 40
0.9
  0
LINE
  5
6D1E
330
1E
100
AcDbEntity
  8
図枠
  6
Continuous
 62
     4
100
AcDbLine
 10
1506.169035641092
 20
834.5769751611561
 30
0.0
 11
1490.50360937291
 21
818.9115488929735
 31
0.0
  0
TEXT
  5
6D1F
330
1E
100
AcDbEntity
  8
図枠
 62
     7
100
AcDbText
 10
1483.010968685791
 20
811.6689082058544
 30
0.0
 40
5.0
  1
21
100
AcDbText
  0
CIRCLE
  5
6D20
330
1E
100
AcDbEntity
  8
図枠
  6
Continuous
 62
     4
100
AcDbCircle
 10
1486.260968685791
 20
814.6689082058545
 30
0.0
 40
6.0
  0
TEXT
  5
6D21
330
1E
100
AcDbEntity
  8
図枠
 62
     7
100
AcDbText
 10
1481.269773015664
 20
863.8410013756992
 30
0.0
 40
5.0
  1
19
100
AcDbText
  0
LINE
  5
6D22
330
1E
100
AcDbEntity
  8
図枠
  6
Continuous
 62
     4
100
AcDbLine
 10
1508.248236597486
 20
843.1125377938769
 30
0.0
 11
1488.762413702783
 21
862.5983606885796
 31
0.0
  0
CIRCLE
  5
6D23
330
1E
100
AcDbEntity
  8
図枠
  6
Continuous
 62
     4
100
AcDbCircle
 10
1484.519773015664
 20
866.8410013756993
 30
0.0
 40
6.0
  0
CIRCLE
  5
6D24
330
1E
100
AcDbEntity
  8
図枠
  6
Continuous
 62
     4
100
AcDbCircle
 10
1456.453469003314
 20
865.7422611629201
 30
0.0
 40
6.0
  0
LINE
  5
6D25
330
1E
100
AcDbEntity
  8
図枠
  6
Continuous
 62
     4
100
AcDbLine
 10
1468.9515931104
 20
844.094875210145
 30
0.0
 11
1459.453469003314
 21
860.5461087402133
 31
0.0
  0
TEXT
  5
6D26
330
1E
100
AcDbEntity
  8
図枠
 62
     7
100
AcDbText
 10
1453.203469003314
 20
862.7422611629199
 30
0.0
 40
5.0
  1
18
100
AcDbText
  0
CIRCLE
  5
6D27
330
1E
100
AcDbEntity
  8
図枠
  6
Continuous
 62
     4
100
AcDbCircle
 10
1468.9515931104
 20
844.094875210145
 30
0.0
 40
0.9
  0
CIRCLE
  5
6D28
330
1E
100
AcDbEntity
  8
図枠
  6
Continuous
 62
     4
100
AcDbCircle
 10
1508.248236597486
 20
843.1125377938769
 30
0.0
 40
0.9
  0
LINE
  5
6D29
330
1E
100
AcDbEntity
  8
図枠
  6
Continuous
 62
     4
100
AcDbLine
 10
1507.855645219247
 20
873.9306903615204
 30
0.0
 11
1489.736529976574
 21
905.313918550026
 31
0.0
  0
TEXT
  5
6D2A
330
1E
100
AcDbEntity
  8
図枠
 62
     7
100
AcDbText
 10
1483.736529976574
 20
907.5100709727326
 30
0.0
 40
5.0
  1
４
100
AcDbText
  0
CIRCLE
  5
6D2B
330
1E
100
AcDbEntity
  8
図枠
  6
Continuous
 62
     4
100
AcDbCircle
 10
1486.736529976574
 20
910.5100709727324
 30
0.0
 40
6.0
  0
LINE
  5
6D2C
330
1E
100
AcDbEntity
  8
図枠
  6
Continuous
 62
     4
100
AcDbLine
 10
1512.027142526649
 20
892.4495327794124
 30
0.0
 11
1492.217126308898
 21
926.7614873673215
 31
0.0
  0
TEXT
  5
6D2D
330
1E
100
AcDbEntity
  8
図枠
 62
     7
100
AcDbText
 10
1485.967126308898
 20
928.9576397900281
 30
0.0
 40
5.0
  1
15
100
AcDbText
  0
CIRCLE
  5
6D2E
330
1E
100
AcDbEntity
  8
図枠
  6
Continuous
 62
     4
100
AcDbCircle
 10
1489.217126308898
 20
931.9576397900283
 30
0.0
 40
6.0
  0
LINE
  5
6D2F
330
1E
100
AcDbEntity
  8
図枠
  6
Continuous
 62
     4
100
AcDbLine
 10
1533.102931891383
 20
865.6529961255051
 30
0.0
 11
1554.57178827766
 21
902.8381461669361
 31
0.0
  0
CIRCLE
  5
6D30
330
1E
100
AcDbEntity
  8
図枠
  6
Continuous
 62
     4
100
AcDbCircle
 10
1557.57178827766
 20
908.0342985896429
 30
0.0
 40
6.0
  0
TEXT
  5
6D31
330
1E
100
AcDbEntity
  8
図枠
 62
     7
100
AcDbText
 10
1554.32178827766
 20
905.0342985896429
 30
0.0
 40
5.0
  1
10
100
AcDbText
  0
LINE
  5
6D32
330
1E
100
AcDbEntity
  8
図枠
  6
Continuous
 62
     4
100
AcDbLine
 10
1532.606127001829
 20
846.5947699164594
 30
0.0
 11
1556.497734698659
 21
805.2132915110458
 31
0.0
  0
TEXT
  5
6D33
330
1E
100
AcDbEntity
  8
図枠
 62
     7
100
AcDbText
 10
1556.247734698659
 20
797.0171390883392
 30
0.0
 40
5.0
  1
13
100
AcDbText
  0
CIRCLE
  5
6D34
330
1E
100
AcDbEntity
  8
図枠
  6
Continuous
 62
     4
100
AcDbCircle
 10
1559.497734698659
 20
800.0171390883393
 30
0.0
 40
6.0
  0
CIRCLE
  5
6D35
330
1E
100
AcDbEntity
  8
図枠
  6
Continuous
 62
     4
100
AcDbCircle
 10
1512.027142526649
 20
892.4495327794124
 30
0.0
 40
0.9
  0
CIRCLE
  5
6D36
330
1E
100
AcDbEntity
  8
図枠
  6
Continuous
 62
     4
100
AcDbCircle
 10
1532.606127001829
 20
846.5947699164594
 30
0.0
 40
0.9
  0
CIRCLE
  5
6D37
330
1E
100
AcDbEntity
  8
図枠
  6
Continuous
 62
     4
100
AcDbCircle
 10
1533.102931891383
 20
865.6529961255051
 30
0.0
 40
0.9
  0
CIRCLE
  5
6D38
330
1E
100
AcDbEntity
  8
図枠
  6
Continuous
 62
     4
100
AcDbCircle
 10
1507.855645219247
 20
873.9306903615204
 30
0.0
 40
0.9
  0
LINE
  5
6D39
330
1E
100
AcDbEntity
  8
躯体と製品
  6
Continuous
 62
     7
100
AcDbLine
 10
1506.885232753243
 20
850.1933033893434
 30
0.0
 11
1506.885232753243
 21
832.1933033893435
 31
0.0
  0
LINE
  5
6D3A
330
1E
100
AcDbEntity
  8
躯体と製品
  6
Continuous
 62
     7
100
AcDbLine
 10
1505.385232753243
 20
832.1933033893435
 30
0.0
 11
1506.885232753243
 21
832.1933033893435
 31
0.0
  0
LINE
  5
6D3B
330
1E
100
AcDbEntity
  8
躯体と製品
  6
Continuous
 62
     7
100
AcDbLine
 10
1505.385232753243
 20
850.1933033893434
 30
0.0
 11
1506.885232753243
 21
850.1933033893434
 31
0.0
  0
ARC
  5
6D3C
330
1E
100
AcDbEntity
  8
躯体と製品
  6
Continuous
 62
     7
100
AcDbCircle
 10
1506.756523753243
 20
839.6905403893436
 30
0.0
 40
3.0
100
AcDbArc
 50
272.4589259999963
 51
321.3853620000019
  0
ARC
  5
6D3D
330
1E
100
AcDbEntity
  8
躯体と製品
  6
Continuous
 62
     7
100
AcDbCircle
 10
1504.885234753243
 20
841.1933033893435
 30
0.0
 40
5.4
100
AcDbArc
 50
321.3178130000017
 51
0.0
  0
ARC
  5
6D3E
330
1E
100
AcDbEntity
  8
躯体と製品
  6
Continuous
 62
     7
100
AcDbCircle
 10
1504.885234753243
 20
841.1933033893435
 30
0.0
 40
5.4
100
AcDbArc
 50
0.0
 51
38.85106200000375
  0
ARC
  5
6D3F
330
1E
100
AcDbEntity
  8
躯体と製品
  6
Continuous
 62
     7
100
AcDbCircle
 10
1506.756523753243
 20
842.6960633893436
 30
0.0
 40
3.0
100
AcDbArc
 50
38.61463799999811
 51
87.54107400000371
  0
LINE
  5
6D40
330
1E
100
AcDbEntity
  8
躯体と製品
  6
Continuous
 62
     4
100
AcDbLine
 10
1517.550652259751
 20
890.6386165940789
 30
0.0
 11
1518.944842799465
 21
885.3823527376821
 31
0.0
  0
LINE
  5
6D41
330
1E
100
AcDbEntity
  8
躯体と製品
  6
Continuous
 62
     4
100
AcDbLine
 10
1515.225622707021
 20
899.4042540410053
 30
0.0
 11
1516.494276771673
 21
894.6212775995855
 31
0.0
  0
TEXT
  5
6D42
330
1E
100
AcDbEntity
  8
図枠
 62
     7
100
AcDbText
 10
1422.385232753243
 20
588.4910700698058
 30
0.0
 40
5.0
  1
止水補助板ホルダーＡＬ
100
AcDbText
  0
LINE
  5
6D49
330
1E
100
AcDbEntity
  8
躯体と製品
  6
Continuous
 62
     4
100
AcDbLine
 10
1522.446841798815
 20
884.8933033893436
 30
0.0
 11
1525.269893219418
 21
887.7163548099474
 31
0.0
  0
LINE
  5
6D4A
330
1E
100
AcDbEntity
  8
躯体と製品
  6
Continuous
 62
     4
100
AcDbLine
 10
1519.618414674068
 20
884.8933033893436
 30
0.0
 11
1524.966252267414
 21
890.2411409826894
 31
0.0
  0
LINE
  5
6D4B
330
1E
100
AcDbEntity
  8
躯体と製品
  6
Continuous
 62
     4
100
AcDbLine
 10
1519.085232753243
 20
887.1885485932651
 30
0.0
 11
1524.891554549234
 21
892.9948703892561
 31
0.0
  0
LINE
  5
6D4C
330
1E
100
AcDbEntity
  8
躯体と製品
  6
Continuous
 62
     4
100
AcDbLine
 10
1519.085232753243
 20
890.0169757180117
 30
0.0
 11
1525.119977173337
 21
896.051720138106
 31
0.0
  0
LINE
  5
6D4D
330
1E
100
AcDbEntity
  8
躯体と製品
  6
Continuous
 62
     4
100
AcDbLine
 10
1519.085232753243
 20
892.8454028427585
 30
0.0
 11
1525.795871821129
 21
899.556041910645
 31
0.0
  0
LINE
  5
6D4E
330
1E
100
AcDbEntity
  8
躯体と製品
  6
Continuous
 62
     4
100
AcDbLine
 10
1519.085232753243
 20
895.673829967505
 30
0.0
 11
1523.304706175081
 21
899.8933033893436
 31
0.0
  0
LINE
  5
6D4F
330
1E
100
AcDbEntity
  8
躯体と製品
  6
Continuous
 62
     4
100
AcDbLine
 10
1519.085232753243
 20
898.5022570922517
 30
0.0
 11
1520.476279050335
 21
899.8933033893436
 31
0.0
  0
ARC
  5
6D50
330
1E
100
AcDbEntity
  8
躯体と製品
  6
Continuous
 62
     7
100
AcDbCircle
 10
1553.510232753243
 20
892.3933033893435
 30
0.0
 40
28.625
100
AcDbArc
 50
164.8107132628193
 51
195.1892867371807
  0
LINE
  5
6D56
330
1E
100
AcDbEntity
  8
躯体と製品
  6
Continuous
 62
     7
100
AcDbLine
 10
1525.885232753243
 20
974.8933033893436
 30
0.0
 11
1525.885232753243
 21
899.8933033893436
 31
0.0
  0
TEXT
  5
6D67
330
1E
100
AcDbEntity
  8
寸法
 62
     7
100
AcDbText
 10
1647.885232753243
 20
871.3466154001592
 30
0.0
 40
5.0
  1
（キャップ幅）
100
AcDbText
  0
LINE
  5
6D74
330
1E
100
AcDbEntity
  8
躯体と製品
  6
Continuous
 62
     7
100
AcDbLine
 10
1501.885232753243
 20
804.8502600852593
 30
0.0
 11
1501.885232753243
 21
854.8933033893435
 31
0.0
  0
LINE
  5
6D75
330
1E
100
AcDbEntity
  8
躯体と製品
  6
Continuous
 62
     7
100
AcDbLine
 10
1515.085232753243
 20
895.1933033893435
 30
0.0
 11
1515.085232753243
 21
898.8933033893436
 31
0.0
  0
LINE
  5
6D76
330
1E
100
AcDbEntity
  8
躯体と製品
  6
Continuous
 62
     7
100
AcDbLine
 10
1519.085232753243
 20
885.8933033893436
 30
0.0
 11
1519.085232753243
 21
898.8933033893436
 31
0.0
  0
ARC
  5
6D77
330
1E
100
AcDbEntity
  8
躯体と製品
  6
Continuous
 62
     7
100
AcDbCircle
 10
1516.085232753243
 20
898.8933033893436
 30
0.0
 40
1.0
100
AcDbArc
 50
90.0
 51
180.0
  0
ARC
  5
6D78
330
1E
100
AcDbEntity
  8
躯体と製品
  6
Continuous
 62
     7
100
AcDbCircle
 10
1518.085232753243
 20
898.8933033893436
 30
0.0
 40
1.0
100
AcDbArc
 50
0.0
 51
90.0
  0
LINE
  5
6D79
330
1E
100
AcDbEntity
  8
躯体と製品
  6
Continuous
 62
     7
100
AcDbLine
 10
1518.085232753243
 20
899.8933033893436
 30
0.0
 11
1516.085232753243
 21
899.8933033893436
 31
0.0
  0
LINE
  5
6D7A
330
1E
100
AcDbEntity
  8
躯体と製品
  6
Continuous
 62
     3
100
AcDbLine
 10
1501.885232753243
 20
884.8933033893436
 30
0.0
 11
1500.885232753243
 21
884.8933033893436
 31
0.0
  0
LINE
  5
6D7B
330
1E
100
AcDbEntity
  8
躯体と製品
  6
Continuous
 62
     3
100
AcDbLine
 10
1501.885232753243
 20
854.8933033893435
 30
0.0
 11
1501.885232753243
 21
884.8933033893436
 31
0.0
  0
LINE
  5
6D7C
330
1E
100
AcDbEntity
  8
躯体と製品
  6
Continuous
 62
     3
100
AcDbLine
 10
1500.885232753243
 20
854.8933033893435
 30
0.0
 11
1501.885232753243
 21
854.8933033893435
 31
0.0
  0
LINE
  5
6D7D
330
1E
100
AcDbEntity
  8
躯体と製品
  6
Continuous
 62
     3
100
AcDbLine
 10
1500.885232753243
 20
884.8933033893436
 30
0.0
 11
1500.885232753243
 21
854.8933033893435
 31
0.0
  0
LINE
  5
6D7E
330
1E
100
AcDbEntity
  8
躯体と製品
  6
Continuous
 62
     4
100
AcDbLine
 10
1500.885232753243
 20
856.2327661881333
 30
0.0
 11
1501.885232753243
 21
855.2327661881335
 31
0.0
  0
LINE
  5
6D7F
330
1E
100
AcDbEntity
  8
躯体と製品
  6
Continuous
 62
     4
100
AcDbLine
 10
1500.885232753243
 20
857.6469797505064
 30
0.0
 11
1501.885232753243
 21
856.6469797505064
 31
0.0
  0
LINE
  5
6D80
330
1E
100
AcDbEntity
  8
躯体と製品
  6
Continuous
 62
     4
100
AcDbLine
 10
1500.885232753242
 20
859.0611933128805
 30
0.0
 11
1501.885232753242
 21
858.0611933128805
 31
0.0
  0
LINE
  5
6D81
330
1E
100
AcDbEntity
  8
躯体と製品
  6
Continuous
 62
     4
100
AcDbLine
 10
1500.885232753243
 20
860.4754068752512
 30
0.0
 11
1501.885232753243
 21
859.4754068752509
 31
0.0
  0
LINE
  5
6D82
330
1E
100
AcDbEntity
  8
躯体と製品
  6
Continuous
 62
     4
100
AcDbLine
 10
1500.885232753243
 20
861.8896204376245
 30
0.0
 11
1501.885232753243
 21
860.8896204376245
 31
0.0
  0
LINE
  5
6D83
330
1E
100
AcDbEntity
  8
躯体と製品
  6
Continuous
 62
     4
100
AcDbLine
 10
1500.885232753243
 20
863.3038339999979
 30
0.0
 11
1501.885232753243
 21
862.3038339999979
 31
0.0
  0
LINE
  5
6D84
330
1E
100
AcDbEntity
  8
躯体と製品
  6
Continuous
 62
     4
100
AcDbLine
 10
1500.885232753243
 20
864.7180475623709
 30
0.0
 11
1501.885232753243
 21
863.7180475623711
 31
0.0
  0
LINE
  5
6D85
330
1E
100
AcDbEntity
  8
躯体と製品
  6
Continuous
 62
     4
100
AcDbLine
 10
1500.885232753243
 20
866.1322611247443
 30
0.0
 11
1501.885232753243
 21
865.1322611247447
 31
0.0
  0
LINE
  5
6D86
330
1E
100
AcDbEntity
  8
躯体と製品
  6
Continuous
 62
     4
100
AcDbLine
 10
1500.885232753243
 20
867.5464746871176
 30
0.0
 11
1501.885232753243
 21
866.5464746871176
 31
0.0
  0
LINE
  5
6D87
330
1E
100
AcDbEntity
  8
躯体と製品
  6
Continuous
 62
     4
100
AcDbLine
 10
1500.885232753243
 20
868.9606882494913
 30
0.0
 11
1501.885232753243
 21
867.960688249491
 31
0.0
  0
LINE
  5
6D88
330
1E
100
AcDbEntity
  8
躯体と製品
  6
Continuous
 62
     4
100
AcDbLine
 10
1500.885232753242
 20
870.3749018118632
 30
0.0
 11
1501.885232753243
 21
869.3749018118628
 31
0.0
  0
LINE
  5
6D89
330
1E
100
AcDbEntity
  8
躯体と製品
  6
Continuous
 62
     4
100
AcDbLine
 10
1500.885232753242
 20
871.7891153742364
 30
0.0
 11
1501.885232753243
 21
870.7891153742362
 31
0.0
  0
LINE
  5
6D8A
330
1E
100
AcDbEntity
  8
躯体と製品
  6
Continuous
 62
     4
100
AcDbLine
 10
1500.885232753243
 20
873.2033289366095
 30
0.0
 11
1501.885232753243
 21
872.2033289366093
 31
0.0
  0
LINE
  5
6D8B
330
1E
100
AcDbEntity
  8
躯体と製品
  6
Continuous
 62
     4
100
AcDbLine
 10
1500.885232753242
 20
874.6175424989832
 30
0.0
 11
1501.885232753242
 21
873.6175424989836
 31
0.0
  0
LINE
  5
6D8C
330
1E
100
AcDbEntity
  8
躯体と製品
  6
Continuous
 62
     4
100
AcDbLine
 10
1500.885232753242
 20
876.0317560613565
 30
0.0
 11
1501.885232753242
 21
875.0317560613567
 31
0.0
  0
LINE
  5
6D8D
330
1E
100
AcDbEntity
  8
躯体と製品
  6
Continuous
 62
     4
100
AcDbLine
 10
1500.885232753243
 20
877.4459696237295
 30
0.0
 11
1501.885232753243
 21
876.4459696237295
 31
0.0
  0
LINE
  5
6D8E
330
1E
100
AcDbEntity
  8
躯体と製品
  6
Continuous
 62
     4
100
AcDbLine
 10
1500.885232753243
 20
878.8601831861027
 30
0.0
 11
1501.885232753243
 21
877.8601831861033
 31
0.0
  0
LINE
  5
6D8F
330
1E
100
AcDbEntity
  8
躯体と製品
  6
Continuous
 62
     4
100
AcDbLine
 10
1500.885232753242
 20
880.2743967484767
 30
0.0
 11
1501.885232753243
 21
879.2743967484764
 31
0.0
  0
LINE
  5
6D90
330
1E
100
AcDbEntity
  8
躯体と製品
  6
Continuous
 62
     4
100
AcDbLine
 10
1500.885232753243
 20
881.6886103108474
 30
0.0
 11
1501.885232753243
 21
880.6886103108473
 31
0.0
  0
LINE
  5
6D91
330
1E
100
AcDbEntity
  8
躯体と製品
  6
Continuous
 62
     4
100
AcDbLine
 10
1500.885232753243
 20
883.102823873221
 30
0.0
 11
1501.885232753243
 21
882.1028238732209
 31
0.0
  0
LINE
  5
6D92
330
1E
100
AcDbEntity
  8
躯体と製品
  6
Continuous
 62
     4
100
AcDbLine
 10
1500.885232753243
 20
884.5170374355943
 30
0.0
 11
1501.885232753243
 21
883.5170374355946
 31
0.0
  0
LINE
  5
6D93
330
1E
100
AcDbEntity
  8
躯体と製品
  6
Continuous
 62
     7
100
AcDbLine
 10
1501.885232753243
 20
884.8933033893436
 30
0.0
 11
1502.885232753242
 21
884.8933033893436
 31
0.0
  0
LINE
  5
6D94
330
1E
100
AcDbEntity
  8
躯体と製品
  6
Continuous
 62
     7
100
AcDbLine
 10
1502.885232753242
 20
804.8502600852593
 30
0.0
 11
1502.885232753242
 21
884.8933033893436
 31
0.0
  0
LINE
  5
6D95
330
1E
100
AcDbEntity
  8
躯体と製品
  6
Continuous
 62
     7
100
AcDbLine
 10
1500.885232753243
 20
899.8933033893436
 30
0.0
 11
1500.885232753243
 21
780.9910700698058
 31
0.0
  0
LINE
  5
6D96
330
1E
100
AcDbEntity
  8
躯体と製品
  6
CENTER1
 62
     4
100
AcDbLine
 10
1702.60987261498
 20
833.8226734366072
 30
0.0
 11
1700.257201278327
 21
788.9310300806376
 31
0.0
  0
LINE
  5
6D97
330
1E
100
AcDbEntity
  8
躯体と製品
  6
CENTER1
 62
     4
100
AcDbLine
 10
1700.885232753243
 20
805.9145844976921
 30
0.0
 11
1700.885232753243
 21
716.9910700698058
 31
0.0
  0
LINE
  5
6D98
330
1E
100
AcDbEntity
  8
躯体と製品
  6
CENTER1
 62
     4
100
AcDbLine
 10
1515.585234753243
 20
841.1933033893435
 30
0.0
 11
1441.885232753243
 21
841.1933033893435
 31
0.0
  0
LINE
  5
6D99
330
1E
100
AcDbEntity
  8
躯体と製品
  6
CENTER1
 62
     4
100
AcDbLine
 10
1503.762510070678
 20
891.6933033893435
 30
0.0
 11
1520.630543753243
 21
891.6933033893435
 31
0.0
  0
LINE
  5
6D9A
330
1E
100
AcDbEntity
  8
図枠
  6
Continuous
 62
     4
100
AcDbLine
 10
1635.085232753243
 20
843.62688583161
 30
0.0
 11
1635.085232753243
 21
846.2472747957619
 31
0.0
  0
LINE
  5
6D9B
330
1E
100
AcDbEntity
  8
図枠
  6
Continuous
 62
     4
100
AcDbLine
 10
1585.085232753243
 20
846.2472747957619
 30
0.0
 11
1635.085232753243
 21
843.62688583161
 31
0.0
  0
LINE
  5
6D9C
330
1E
100
AcDbEntity
  8
図枠
  6
Continuous
 62
     4
100
AcDbLine
 10
1585.085232753243
 20
846.2472747957619
 30
0.0
 11
1635.085232753243
 21
846.2472747957619
 31
0.0
  0
TEXT
  5
6D9D
330
1E
100
AcDbEntity
  8
図枠
 62
     7
100
AcDbText
 10
1884.385232753243
 20
642.0620677408091
 30
0.0
 40
5.0
  1
（単位：mm）
100
AcDbText
  0
ARC
  5
6D9E
330
1E
100
AcDbEntity
  8
躯体と製品
  6
Continuous
 62
     7
100
AcDbCircle
 10
1525.885232753243
 20
779.9910700698058
 30
0.0
 40
1.0
100
AcDbArc
 50
4.999999999999459
 51
90.7910053588022
  0
ARC
  5
6D9F
330
1E
100
AcDbEntity
  8
躯体と製品
  6
Continuous
 62
     7
100
AcDbCircle
 10
1525.744853800256
 20
804.8502600852593
 30
0.0
 40
23.85962104701329
100
AcDbArc
 50
180.0
 51
270.3039518233837
  0
ARC
  5
6DA0
330
1E
100
AcDbEntity
  8
躯体と製品
  6
Continuous
 62
     7
100
AcDbCircle
 10
1525.885232753243
 20
779.9910700698058
 30
0.0
 40
2.0
100
AcDbArc
 50
4.999999999999459
 51
90.64708753932062
  0
ARC
  5
6DA1
330
1E
100
AcDbEntity
  8
躯体と製品
  6
Continuous
 62
     7
100
AcDbCircle
 10
1525.744853800256
 20
804.8502600852593
 30
0.0
 40
22.85962104701328
100
AcDbArc
 50
180.0
 51
270.2952369081001
  0
LINE
  5
6DA2
330
1E
100
AcDbEntity
  8
躯体と製品
  6
Continuous
 62
     7
100
AcDbLine
 10
1501.885232753243
 20
838.6933033893436
 30
0.0
 11
1500.885232753243
 21
838.6933033893436
 31
0.0
  0
LINE
  5
6DA3
330
1E
100
AcDbEntity
  8
躯体と製品
  6
Continuous
 62
     7
100
AcDbLine
 10
1501.885232753243
 20
843.6933033893435
 30
0.0
 11
1500.885232753243
 21
843.6933033893435
 31
0.0
  0
ARC
  5
6DA4
330
1E
100
AcDbEntity
  8
躯体と製品
  6
Continuous
 62
     7
100
AcDbCircle
 10
1625.901897105577
 20
779.9912089297663
 30
0.0
 40
2.0
100
AcDbArc
 50
90.67517081899367
 51
175.0000000000005
  0
LINE
  5
6DA5
330
1E
100
AcDbEntity
  8
躯体と製品
  6
Continuous
 62
     7
100
AcDbLine
 10
1625.878329743409
 20
781.9910700698057
 30
0.0
 11
1679.885232753243
 21
781.9910700698057
 31
0.0
  0
ARC
  5
6DA6
330
1E
100
AcDbEntity
  8
躯体と製品
  6
Continuous
 62
     7
100
AcDbCircle
 10
1750.856672979344
 20
779.9914779833452
 30
0.0
 40
2.0
100
AcDbArc
 50
4.999999999999459
 51
88.84278494684552
  0
LINE
  5
6DA7
330
1E
100
AcDbEntity
  8
躯体と製品
  6
Continuous
 62
     7
100
AcDbLine
 10
1750.89706465873
 20
781.9910700698057
 30
0.0
 11
1721.885232753242
 21
781.9910700698057
 31
0.0
  0
ARC
  5
6DA8
330
1E
100
AcDbEntity
  8
躯体と製品
  6
Continuous
 62
     7
100
AcDbCircle
 10
1679.885232753243
 20
791.2410700698058
 30
0.0
 40
9.25
100
AcDbArc
 50
270.0
 51
288.9246444160544
  0
LINE
  5
6DA9
330
1E
100
AcDbEntity
  8
躯体と製品
  6
Continuous
 62
     7
100
AcDbLine
 10
1715.885232753243
 20
782.9910700698058
 30
0.0
 11
1685.885232753243
 21
782.9910700698058
 31
0.0
  0
ARC
  5
6DAA
330
1E
100
AcDbEntity
  8
躯体と製品
  6
Continuous
 62
     7
100
AcDbCircle
 10
1679.885232753243
 20
791.2410700698058
 30
0.0
 40
10.25
100
AcDbArc
 50
270.0
 51
288.9246444160544
  0
ARC
  5
6DAB
330
1E
100
AcDbEntity
  8
躯体と製品
  6
Continuous
 62
     7
100
AcDbCircle
 10
1685.885232753243
 20
773.7410700698058
 30
0.0
 40
8.25
100
AcDbArc
 50
90.0
 51
108.9246444160544
  0
ARC
  5
6DAC
330
1E
100
AcDbEntity
  8
躯体と製品
  6
Continuous
 62
     7
100
AcDbCircle
 10
1721.885232753242
 20
791.2410700698058
 30
0.0
 40
10.25
100
AcDbArc
 50
251.0753555839456
 51
270.0
  0
ARC
  5
6DAD
330
1E
100
AcDbEntity
  8
躯体と製品
  6
Continuous
 62
     7
100
AcDbCircle
 10
1715.885232753243
 20
773.7410700698058
 30
0.0
 40
8.25
100
AcDbArc
 50
71.07535558394559
 51
90.0
  0
LINE
  5
6DAE
330
1E
100
AcDbEntity
  8
躯体と製品
  6
Continuous
 62
     7
100
AcDbLine
 10
1700.885232753243
 20
781.9910700698057
 30
0.0
 11
1700.885232753243
 21
782.9910700698058
 31
0.0
  0
ARC
  5
6DAF
330
1E
100
AcDbEntity
  8
躯体と製品
  6
Continuous
 62
     7
100
AcDbCircle
 10
1721.885232753242
 20
791.2410700698058
 30
0.0
 40
9.25
100
AcDbArc
 50
251.0753555839456
 51
270.0
  0
ARC
  5
6DB0
330
1E
100
AcDbEntity
  8
躯体と製品
  6
Continuous
 62
     7
100
AcDbCircle
 10
1715.885232753243
 20
773.7410700698058
 30
0.0
 40
9.25
100
AcDbArc
 50
71.07535558394559
 51
90.0
  0
ARC
  5
6DB1
330
1E
100
AcDbEntity
  8
躯体と製品
  6
Continuous
 62
     7
100
AcDbCircle
 10
1685.885232753243
 20
773.7410700698058
 30
0.0
 40
9.25
100
AcDbArc
 50
90.0
 51
108.9246444160544
  0
LINE
  5
6DB2
330
1E
100
AcDbEntity
  8
躯体と製品
  6
Continuous
 62
     7
100
AcDbLine
 10
1526.225381313648
 20
846.9752061124106
 30
0.0
 11
1525.058091013333
 21
847.8400612276525
 31
0.0
  0
ARC
  5
6DB3
330
1E
100
AcDbEntity
  8
躯体と製品
  6
Continuous
 62
     7
100
AcDbCircle
 10
1525.332409564818
 20
845.7699669428716
 30
0.0
 40
0.6999999999999999
100
AcDbArc
 50
30.64296102528923
 51
53.4649447169113
  0
ARC
  5
6DB4
330
1E
100
AcDbEntity
  8
躯体と製品
  6
Continuous
 62
     7
100
AcDbCircle
 10
1525.332409564818
 20
845.7699669428716
 30
0.0
 40
1.5
100
AcDbArc
 50
30.64296102528923
 51
53.4649447169113
  0
LINE
  5
6DDA
330
1E
100
AcDbEntity
  8
躯体と製品
  6
Continuous
 62
     7
100
AcDbLine
 10
1751.852867677436
 20
780.0786337260928
 30
0.0
 11
1753.469958805258
 21
761.5951975567516
 31
0.0
  0
ARC
  5
6DDB
330
1E
100
AcDbEntity
  8
躯体と製品
  6
Continuous
 62
     7
100
AcDbCircle
 10
1575.893558855074
 20
750.2138430554948
 30
0.0
 40
45.22277298568901
100
AcDbArc
 50
184.9999999999994
 51
355.0000000000006
  0
LINE
  5
6DDC
330
1E
100
AcDbEntity
  8
躯体と製品
  6
Continuous
 62
     7
100
AcDbLine
 10
1623.909507709393
 20
780.1655204152615
 30
0.0
 11
1620.944245536423
 21
746.2724186868183
 31
0.0
  0
ARC
  5
6DDD
330
1E
100
AcDbEntity
  8
躯体と製品
  6
Continuous
 62
     7
100
AcDbCircle
 10
1575.893558855074
 20
750.2138430554948
 30
0.0
 40
46.22277298568902
100
AcDbArc
 50
184.9999999999994
 51
355.0000000000006
  0
LINE
  5
6DDE
330
1E
100
AcDbEntity
  8
躯体と製品
  6
Continuous
 62
     7
100
AcDbLine
 10
1624.905702407485
 20
780.0783646725139
 30
0.0
 11
1621.940440234515
 21
746.1852629440707
 31
0.0
  0
LINE
  5
6DDF
330
1E
100
AcDbEntity
  8
躯体と製品
  6
Continuous
 62
     7
100
AcDbLine
 10
1527.877622149426
 20
780.165381555301
 30
0.0
 11
1530.842872173723
 21
746.2724186868183
 31
0.0
  0
LINE
  5
6DE0
330
1E
100
AcDbEntity
  8
躯体と製品
  6
Continuous
 62
     7
100
AcDbLine
 10
1526.881427451335
 20
780.0782258125535
 30
0.0
 11
1529.846677475632
 21
746.1852629440707
 31
0.0
  0
TEXT
  5
6DE1
330
1E
100
AcDbEntity
  8
図枠
 62
     7
100
AcDbText
 10
1596.585232753243
 20
846.2315518311584
 30
0.0
 40
5.0
  1
勾配３度
100
AcDbText
  0
ARC
  5
6DE2
330
1E
100
AcDbEntity
  8
躯体と製品
  6
Continuous
 62
     7
100
AcDbCircle
 10
1524.819965213645
 20
847.5186641157755
 30
0.0
 40
0.4
100
AcDbArc
 50
53.4649447169113
 51
233.4649447113328
  0
ARC
  5
6DE3
330
1E
100
AcDbEntity
  8
躯体と製品
  6
Continuous
 62
     7
100
AcDbCircle
 10
1529.376102035058
 20
848.1654942764928
 30
0.0
 40
4.0
100
AcDbArc
 50
210.6429610252892
 51
324.6865633344082
  0
LINE
  5
6DE4
330
1E
100
AcDbEntity
  8
躯体と製品
  6
Continuous
 62
     7
100
AcDbLine
 10
1525.749129714272
 20
846.3324118886564
 30
0.0
 11
1524.581839413925
 21
847.1972670039217
 31
0.0
  0
ARC
  5
6DE5
330
1E
100
AcDbEntity
  8
躯体と製品
  6
Continuous
 62
     7
100
AcDbCircle
 10
1529.376102035058
 20
848.1654942764928
 30
0.0
 40
3.2
100
AcDbArc
 50
210.6429610252892
 51
324.6865633344082
  0
LINE
  5
6DE6
330
1E
100
AcDbEntity
  8
躯体と製品
  6
DASHED1
 62
     7
100
AcDbLine
 10
1512.492713081421
 20
839.0365917383444
 30
0.0
 11
1532.958554889988
 21
837.9640224179995
 31
0.0
  0
LINE
  5
6DE7
330
1E
100
AcDbEntity
  8
躯体と製品
  6
DASHED1
 62
     7
100
AcDbLine
 10
1797.595381599951
 20
824.0949940136202
 30
0.0
 11
1803.705420256243
 21
823.7747804563104
 31
0.0
  0
LINE
  5
6DE8
330
1E
100
AcDbEntity
  8
躯体と製品
  6
DASHED1
 62
     7
100
AcDbLine
 10
1797.830893403044
 20
828.588826920016
 30
0.0
 11
1803.940932059336
 21
828.2686133627061
 31
0.0
  0
ARC
  5
6DEE
330
1E
100
AcDbEntity
  8
躯体と製品
  6
Continuous
 62
     7
100
AcDbCircle
 10
1776.962541107395
 20
763.6505321851384
 30
0.0
 40
23.58232015000535
100
AcDbArc
 50
184.9999999999994
 51
355.0000000000006
  0
LINE
  5
6DEF
330
1E
100
AcDbEntity
  8
躯体と製品
  6
Continuous
 62
     7
100
AcDbLine
 10
1802.464640530453
 20
784.5640833521554
 30
0.0
 11
1800.455123409533
 21
761.5951975567516
 31
0.0
  0
ARC
  5
6DF0
330
1E
100
AcDbEntity
  8
躯体と製品
  6
Continuous
 62
     7
100
AcDbCircle
 10
1776.962541107395
 20
763.6505321851384
 30
0.0
 40
22.58232015000535
100
AcDbArc
 50
184.9999999999994
 51
355.0000000000006
  0
LINE
  5
6DF1
330
1E
100
AcDbEntity
  8
躯体と製品
  6
Continuous
 62
     7
100
AcDbLine
 10
1801.468445832361
 20
784.6512390949031
 30
0.0
 11
1799.458928711442
 21
761.6823532994992
 31
0.0
  0
LINE
  5
6DF2
330
1E
100
AcDbEntity
  8
躯体と製品
  6
Continuous
 62
     7
100
AcDbLine
 10
1752.849062375527
 20
780.1657894688403
 30
0.0
 11
1754.46615350335
 21
761.6823532994992
 31
0.0
  0
ARC
  5
6DF3
330
1E
100
AcDbEntity
  8
躯体と製品
  6
Continuous
 62
     7
100
AcDbCircle
 10
1803.560454698353
 20
784.4682120351328
 30
0.0
 40
2.1
100
AcDbArc
 50
90.0
 51
175.0000000000005
  0
LINE
  5
6DF4
330
1E
100
AcDbEntity
  8
躯体と製品
  6
Continuous
 62
     7
100
AcDbLine
 10
1803.560454698353
 20
786.568212035133
 30
0.0
 11
1804.156252877056
 21
786.568212035133
 31
0.0
  0
ARC
  5
6DF5
330
1E
100
AcDbEntity
  8
躯体と製品
  6
Continuous
 62
     7
100
AcDbCircle
 10
1803.560454698353
 20
784.4682120351328
 30
0.0
 40
1.1
100
AcDbArc
 50
90.0
 51
175.0000000000005
  0
LINE
  5
6DF6
330
1E
100
AcDbEntity
  8
躯体と製品
  6
Continuous
 62
     7
100
AcDbLine
 10
1803.560454698353
 20
785.568212035133
 30
0.0
 11
1804.156252877056
 21
785.568212035133
 31
0.0
  0
LINE
  5
6DF7
330
1E
100
AcDbEntity
  8
躯体と製品
  6
Continuous
 62
     7
100
AcDbLine
 10
1804.156252877056
 20
789.0682120351329
 30
0.0
 11
1804.156252877056
 21
786.568212035133
 31
0.0
  0
LINE
  5
6DF8
330
1E
100
AcDbEntity
  8
躯体と製品
  6
Continuous
 62
     7
100
AcDbLine
 10
1805.656252877056
 20
785.068212035133
 30
0.0
 11
1807.307337877056
 21
785.5915850351331
 31
0.0
  0
LINE
  5
6DF9
330
1E
100
AcDbEntity
  8
躯体と製品
  6
Continuous
 62
     7
100
AcDbLine
 10
1805.656252877056
 20
785.068212035133
 30
0.0
 11
1805.656252877056
 21
783.068212035133
 31
0.0
  0
LINE
  5
6DFA
330
1E
100
AcDbEntity
  8
躯体と製品
  6
Continuous
 62
     7
100
AcDbLine
 10
1805.656252877056
 20
787.068212035133
 30
0.0
 11
1805.656252877056
 21
789.0682120351329
 31
0.0
  0
ARC
  5
6DFB
330
1E
100
AcDbEntity
  8
躯体と製品
  6
Continuous
 62
     7
100
AcDbCircle
 10
1805.156252877056
 20
789.0682120351329
 30
0.0
 40
0.5
100
AcDbArc
 50
0.0
 51
90.0
  0
LINE
  5
6DFC
330
1E
100
AcDbEntity
  8
躯体と製品
  6
Continuous
 62
     7
100
AcDbLine
 10
1804.656252877056
 20
789.568212035133
 30
0.0
 11
1805.156252877056
 21
789.568212035133
 31
0.0
  0
LINE
  5
6DFD
330
1E
100
AcDbEntity
  8
躯体と製品
  6
Continuous
 62
     7
100
AcDbLine
 10
1804.656252877056
 20
782.568212035133
 30
0.0
 11
1805.156252877056
 21
782.568212035133
 31
0.0
  0
ARC
  5
6DFE
330
1E
100
AcDbEntity
  8
躯体と製品
  6
Continuous
 62
     7
100
AcDbCircle
 10
1805.156252877056
 20
783.068212035133
 30
0.0
 40
0.5
100
AcDbArc
 50
270.0
 51
0.0
  0
ARC
  5
6DFF
330
1E
100
AcDbEntity
  8
躯体と製品
  6
Continuous
 62
     7
100
AcDbCircle
 10
1804.656252877056
 20
783.068212035133
 30
0.0
 40
0.5
100
AcDbArc
 50
180.0
 51
270.0
  0
ARC
  5
6E00
330
1E
100
AcDbEntity
  8
躯体と製品
  6
Continuous
 62
     7
100
AcDbCircle
 10
1804.656252877056
 20
789.0682120351329
 30
0.0
 40
0.5
100
AcDbArc
 50
90.0
 51
180.0
  0
LINE
  5
6E01
330
1E
100
AcDbEntity
  8
躯体と製品
  6
Continuous
 62
     7
100
AcDbLine
 10
1804.156252877056
 20
783.068212035133
 30
0.0
 11
1804.156252877056
 21
785.568212035133
 31
0.0
  0
ARC
  5
6E02
330
1E
100
AcDbEntity
  8
躯体と製品
  6
Continuous
 62
     7
100
AcDbCircle
 10
1807.156252877056
 20
786.068212035133
 30
0.0
 40
0.5
100
AcDbArc
 50
287.587954000005
 51
72.41204599999497
  0
LINE
  5
6E03
330
1E
100
AcDbEntity
  8
躯体と製品
  6
Continuous
 62
     7
100
AcDbLine
 10
1805.656252877056
 20
787.068212035133
 30
0.0
 11
1807.307337877056
 21
786.544839035133
 31
0.0
  0
ARC
  5
6E04
330
1E
100
AcDbEntity
  8
躯体と製品
  6
Continuous
 62
     3
100
AcDbCircle
 10
1803.556252877056
 20
784.4682120351333
 30
0.0
 40
0.5999999999999998
100
AcDbArc
 50
0.0
 51
180.0
  0
ARC
  5
6E05
330
1E
100
AcDbEntity
  8
躯体と製品
  6
Continuous
 62
     3
100
AcDbCircle
 10
1803.556252877056
 20
788.6682120351331
 30
0.0
 40
0.5999999999999998
100
AcDbArc
 50
180.0
 51
0.0
  0
LINE
  5
6E06
330
1E
100
AcDbEntity
  8
躯体と製品
  6
Continuous
 62
     3
100
AcDbLine
 10
1802.956252877056
 20
784.4682120351333
 30
0.0
 11
1802.956252877056
 21
782.368212035133
 31
0.0
  0
LINE
  5
6E07
330
1E
100
AcDbEntity
  8
躯体と製品
  6
Continuous
 62
     3
100
AcDbLine
 10
1804.156252877056
 20
784.4682120351333
 30
0.0
 11
1804.156252877056
 21
782.8682120351331
 31
0.0
  0
ARC
  5
6E08
330
1E
100
AcDbEntity
  8
躯体と製品
  6
Continuous
 62
     3
100
AcDbCircle
 10
1804.456252877056
 20
782.8682120351331
 30
0.0
 40
0.2999999999999998
100
AcDbArc
 50
180.0
 51
270.0
  0
LINE
  5
6E09
330
1E
100
AcDbEntity
  8
躯体と製品
  6
Continuous
 62
     3
100
AcDbLine
 10
1804.156252877056
 20
788.6682120351331
 30
0.0
 11
1804.156252877056
 21
790.268212035133
 31
0.0
  0
ARC
  5
6E0A
330
1E
100
AcDbEntity
  8
躯体と製品
  6
Continuous
 62
     3
100
AcDbCircle
 10
1804.456252877056
 20
790.268212035133
 30
0.0
 40
0.2999999999999998
100
AcDbArc
 50
90.0
 51
180.0
  0
LINE
  5
6E0B
330
1E
100
AcDbEntity
  8
躯体と製品
  6
Continuous
 62
     3
100
AcDbLine
 10
1802.956252877056
 20
788.6682120351331
 30
0.0
 11
1802.956252877056
 21
790.7682120351331
 31
0.0
  0
LINE
  5
6E0C
330
1E
100
AcDbEntity
  8
躯体と製品
  6
Continuous
 62
     3
100
AcDbLine
 10
1815.156252877056
 20
752.568212035133
 30
0.0
 11
1816.777520877056
 21
752.9735290351331
 31
0.0
  0
ARC
  5
6E0D
330
1E
100
AcDbEntity
  8
躯体と製品
  6
Continuous
 62
     3
100
AcDbCircle
 10
1816.656252877056
 20
753.4586000351331
 30
0.0
 40
0.5
100
AcDbArc
 50
284.0362430000043
 51
0.0
  0
LINE
  5
6E0E
330
1E
100
AcDbEntity
  8
躯体と製品
  6
Continuous
 62
     3
100
AcDbLine
 10
1815.156252877056
 20
753.068212035133
 30
0.0
 11
1815.156252877056
 21
752.568212035133
 31
0.0
  0
LINE
  5
6E0F
330
1E
100
AcDbEntity
  8
躯体と製品
  6
Continuous
 62
     3
100
AcDbLine
 10
1817.156252877056
 20
753.768212035133
 30
0.0
 11
1817.156252877056
 21
753.4586000351331
 31
0.0
  0
LINE
  5
6E10
330
1E
100
AcDbEntity
  8
躯体と製品
  6
Continuous
 62
     3
100
AcDbLine
 10
1810.156252877056
 20
753.068212035133
 30
0.0
 11
1815.156252877056
 21
753.068212035133
 31
0.0
  0
ARC
  5
6E11
330
1E
100
AcDbEntity
  8
躯体と製品
  6
Continuous
 62
     3
100
AcDbCircle
 10
1816.856252877056
 20
753.768212035133
 30
0.0
 40
0.2999999999999998
100
AcDbArc
 50
0.0
 51
90.0
  0
ARC
  5
6E12
330
1E
100
AcDbEntity
  8
躯体と製品
  6
Continuous
 62
     3
100
AcDbCircle
 10
1810.156252877056
 20
752.568212035133
 30
0.0
 40
0.5
100
AcDbArc
 50
90.0
 51
180.0
  0
LINE
  5
6E13
330
1E
100
AcDbEntity
  8
躯体と製品
  6
Continuous
 62
     3
100
AcDbLine
 10
1809.656252877056
 20
752.568212035133
 30
0.0
 11
1809.656252877056
 21
743.768212035133
 31
0.0
  0
LINE
  5
6E14
330
1E
100
AcDbEntity
  8
躯体と製品
  6
Continuous
 62
     3
100
AcDbLine
 10
1810.156252877056
 20
754.068212035133
 30
0.0
 11
1816.856252877056
 21
754.068212035133
 31
0.0
  0
ARC
  5
6E15
330
1E
100
AcDbEntity
  8
躯体と製品
  6
Continuous
 62
     3
100
AcDbCircle
 10
1810.156252877056
 20
754.568212035133
 30
0.0
 40
0.5
100
AcDbArc
 50
180.0
 51
270.0
  0
LINE
  5
6E16
330
1E
100
AcDbEntity
  8
躯体と製品
  6
Continuous
 62
     3
100
AcDbLine
 10
1814.556252877055
 20
741.568212035133
 30
0.0
 11
1810.656252877056
 21
741.568212035133
 31
0.0
  0
ARC
  5
6E17
330
1E
100
AcDbEntity
  8
躯体と製品
  6
Continuous
 62
     3
100
AcDbCircle
 10
1810.656252877056
 20
744.068212035133
 30
0.0
 40
2.5
100
AcDbArc
 50
180.0
 51
270.0
  0
LINE
  5
6E18
330
1E
100
AcDbEntity
  8
躯体と製品
  6
Continuous
 62
     3
100
AcDbLine
 10
1809.656252877056
 20
798.8182120351329
 30
0.0
 11
1809.656252877056
 21
754.568212035133
 31
0.0
  0
LINE
  5
6E19
330
1E
100
AcDbEntity
  8
躯体と製品
  6
Continuous
 62
     3
100
AcDbLine
 10
1804.456252877056
 20
790.568212035133
 30
0.0
 11
1807.856252877056
 21
790.568212035133
 31
0.0
  0
LINE
  5
6E1A
330
1E
100
AcDbEntity
  8
躯体と製品
  6
Continuous
 62
     3
100
AcDbLine
 10
1804.456252877056
 20
782.568212035133
 30
0.0
 11
1807.856252877056
 21
782.568212035133
 31
0.0
  0
ARC
  5
6E1B
330
1E
100
AcDbEntity
  8
躯体と製品
  6
Continuous
 62
     3
100
AcDbCircle
 10
1807.856252877056
 20
782.8682120351331
 30
0.0
 40
0.2999999999999998
100
AcDbArc
 50
270.0
 51
0.0
  0
LINE
  5
6E1C
330
1E
100
AcDbEntity
  8
躯体と製品
  6
Continuous
 62
     3
100
AcDbLine
 10
1808.156252877056
 20
790.268212035133
 30
0.0
 11
1808.156252877056
 21
782.8682120351331
 31
0.0
  0
ARC
  5
6E1D
330
1E
100
AcDbEntity
  8
躯体と製品
  6
Continuous
 62
     3
100
AcDbCircle
 10
1807.856252877056
 20
790.268212035133
 30
0.0
 40
0.2999999999999998
100
AcDbArc
 50
0.0
 51
90.0
  0
LINE
  5
6E1E
330
1E
100
AcDbEntity
  8
躯体と製品
  6
Continuous
 62
     3
100
AcDbLine
 10
1807.656252877056
 20
781.368212035133
 30
0.0
 11
1803.956252877056
 21
781.368212035133
 31
0.0
  0
ARC
  5
6E1F
330
1E
100
AcDbEntity
  8
躯体と製品
  6
Continuous
 62
     3
100
AcDbCircle
 10
1803.956252877056
 20
782.368212035133
 30
0.0
 40
1.0
100
AcDbArc
 50
180.0
 51
270.0
  0
ARC
  5
6E20
330
1E
100
AcDbEntity
  8
躯体と製品
  6
Continuous
 62
     3
100
AcDbCircle
 10
1807.656252877056
 20
780.868212035133
 30
0.0
 40
0.5
100
AcDbArc
 50
0.0
 51
90.0
  0
LINE
  5
6E21
330
1E
100
AcDbEntity
  8
躯体と製品
  6
Continuous
 62
     3
100
AcDbLine
 10
1807.656252877056
 20
791.768212035133
 30
0.0
 11
1803.956252877056
 21
791.768212035133
 31
0.0
  0
ARC
  5
6E22
330
1E
100
AcDbEntity
  8
躯体と製品
  6
Continuous
 62
     3
100
AcDbCircle
 10
1803.956252877056
 20
790.7682120351331
 30
0.0
 40
1.0
100
AcDbArc
 50
90.0
 51
180.0
  0
ARC
  5
6E23
330
1E
100
AcDbEntity
  8
躯体と製品
  6
Continuous
 62
     3
100
AcDbCircle
 10
1807.656252877056
 20
792.268212035133
 30
0.0
 40
0.5
100
AcDbArc
 50
270.0
 51
0.0
  0
LINE
  5
6E24
330
1E
100
AcDbEntity
  8
躯体と製品
  6
Continuous
 62
     3
100
AcDbLine
 10
1808.156252877056
 20
792.268212035133
 30
0.0
 11
1808.156252877056
 21
798.8182120351329
 31
0.0
  0
ARC
  5
6E25
330
1E
100
AcDbEntity
  8
躯体と製品
  6
Continuous
 62
     3
100
AcDbCircle
 10
1808.906252877056
 20
798.8182120351329
 30
0.0
 40
0.75
100
AcDbArc
 50
0.0
 51
180.0
  0
LINE
  5
6E26
330
1E
100
AcDbEntity
  8
躯体と製品
  6
Continuous
 62
     3
100
AcDbLine
 10
1808.156252877056
 20
780.868212035133
 30
0.0
 11
1808.156252877056
 21
744.068212035133
 31
0.0
  0
ARC
  5
6E27
330
1E
100
AcDbEntity
  8
躯体と製品
  6
Continuous
 62
     3
100
AcDbCircle
 10
1814.556252877055
 20
742.168212035133
 30
0.0
 40
0.5999999999999998
100
AcDbArc
 50
270.0
 51
90.0
  0
LINE
  5
6E28
330
1E
100
AcDbEntity
  8
躯体と製品
  6
Continuous
 62
     3
100
AcDbLine
 10
1814.556252877055
 20
742.768212035133
 30
0.0
 11
1810.656252877056
 21
742.768212035133
 31
0.0
  0
ARC
  5
6E29
330
1E
100
AcDbEntity
  8
躯体と製品
  6
Continuous
 62
     3
100
AcDbCircle
 10
1810.656252877056
 20
743.768212035133
 30
0.0
 40
1.0
100
AcDbArc
 50
180.0
 51
270.0
  0
LINE
  5
6E2A
330
1E
100
AcDbEntity
  8
躯体と製品
  6
Continuous
 62
     7
100
AcDbLine
 10
1533.104843061657
 20
847.8933033893436
 30
0.0
 11
1531.987308601151
 21
846.3157374629652
 31
0.0
  0
LINE
  5
6E2B
330
1E
100
AcDbEntity
  8
躯体と製品
  6
Continuous
 62
     7
100
AcDbLine
 10
1534.085232753243
 20
847.8933033893436
 30
0.0
 11
1532.640110242675
 21
845.8532982595832
 31
0.0
  0
LINE
  5
6E2C
330
1E
100
AcDbEntity
  8
躯体と製品
  6
Continuous
 62
     3
100
AcDbLine
 10
1515.085232753243
 20
894.6933033893435
 30
0.0
 11
1515.085232753243
 21
885.8933033893436
 31
0.0
  0
ARC
  5
6E2D
330
1E
100
AcDbEntity
  8
躯体と製品
  6
Continuous
 62
     7
100
AcDbCircle
 10
1516.085232753243
 20
885.8933033893436
 30
0.0
 40
1.0
100
AcDbArc
 50
180.0
 51
270.0
  0
ARC
  5
6E2E
330
1E
100
AcDbEntity
  8
躯体と製品
  6
Continuous
 62
     7
100
AcDbCircle
 10
1518.085232753243
 20
885.8933033893436
 30
0.0
 40
1.0
100
AcDbArc
 50
270.0
 51
0.0
  0
LINE
  5
6E2F
330
1E
100
AcDbEntity
  8
躯体と製品
  6
Continuous
 62
     7
100
AcDbLine
 10
1516.085232753243
 20
884.8933033893436
 30
0.0
 11
1518.085232753243
 21
884.8933033893436
 31
0.0
  0
ARC
  5
6E30
330
1E
100
AcDbEntity
  8
躯体と製品
  6
Continuous
 62
     7
100
AcDbCircle
 10
1513.485232753243
 20
891.6933033893435
 30
0.0
 40
4.2
100
AcDbArc
 50
14.0957892441728
 51
42.74124453868362
  0
ARC
  5
6E31
330
1E
100
AcDbEntity
  8
躯体と製品
  6
Continuous
 62
     7
100
AcDbCircle
 10
1513.485232753243
 20
891.6933033893435
 30
0.0
 40
4.2
100
AcDbArc
 50
317.2587554613163
 51
345.9042107558272
  0
LINE
  5
6E32
330
1E
100
AcDbEntity
  8
躯体と製品
  6
Continuous
 62
     7
100
AcDbLine
 10
1517.150952327896
 20
892.1933033893438
 30
0.0
 11
1517.150952327896
 21
891.1933033893435
 31
0.0
  0
ARC
  5
6E33
330
1E
100
AcDbEntity
  8
躯体と製品
  6
Continuous
 62
     7
100
AcDbCircle
 10
1517.150952327896
 20
892.6137821127479
 30
0.0
 40
0.4204787234042585
100
AcDbArc
 50
270.0
 51
14.0957892441728
  0
LINE
  5
6E34
330
1E
100
AcDbEntity
  8
躯体と製品
  6
Continuous
 62
     7
100
AcDbLine
 10
1515.085232753243
 20
888.1933033893435
 30
0.0
 11
1515.085232753243
 21
895.1933033893435
 31
0.0
  0
ARC
  5
6E35
330
1E
100
AcDbEntity
  8
躯体と製品
  6
Continuous
 62
     7
100
AcDbCircle
 10
1515.085232753243
 20
890.2147319607724
 30
0.0
 40
2.021428571428568
100
AcDbArc
 50
270.0
 51
317.2587554613163
  0
ARC
  5
6E36
330
1E
100
AcDbEntity
  8
躯体と製品
  6
Continuous
 62
     7
100
AcDbCircle
 10
1515.085232753243
 20
893.171874817915
 30
0.0
 40
2.021428571428586
100
AcDbArc
 50
42.74124453868362
 51
90.0
  0
ARC
  5
6E37
330
1E
100
AcDbEntity
  8
躯体と製品
  6
Continuous
 62
     7
100
AcDbCircle
 10
1517.150952327896
 20
890.7728246659397
 30
0.0
 40
0.4204787234042585
100
AcDbArc
 50
345.9042107558272
 51
90.0
  0
ARC
  5
6E38
330
1E
100
AcDbEntity
  8
躯体と製品
  6
Continuous
 62
     7
100
AcDbCircle
 10
1525.385232753243
 20
850.267356720429
 30
0.0
 40
0.2999999999999999
100
AcDbArc
 50
85.25268174597099
 51
180.0
  0
LINE
  5
6E39
330
1E
100
AcDbEntity
  8
躯体と製品
  6
Continuous
 62
     7
100
AcDbLine
 10
1525.410061222106
 20
850.5663275336097
 30
0.0
 11
1531.06464901692
 21
850.0967340120748
 31
0.0
  0
LINE
  5
6E3A
330
1E
100
AcDbEntity
  8
躯体と製品
  6
Continuous
 62
     7
100
AcDbLine
 10
1525.085232753243
 20
850.267356720429
 30
0.0
 11
1525.085232753243
 21
849.1933033893435
 31
0.0
  0
ARC
  5
6E3B
330
1E
100
AcDbEntity
  8
躯体と製品
  6
Continuous
 62
     7
100
AcDbCircle
 10
1525.085232753243
 20
850.5933033893436
 30
0.0
 40
1.0
100
AcDbArc
 50
85.25268174597099
 51
180.0
  0
LINE
  5
6E3C
330
1E
100
AcDbEntity
  8
躯体と製品
  6
Continuous
 62
     7
100
AcDbLine
 10
1525.16799431612
 20
851.5898727666126
 30
0.0
 11
1530.649125891195
 21
851.1346841707796
 31
0.0
  0
LINE
  5
6E3D
330
1E
100
AcDbEntity
  8
躯体と製品
  6
Continuous
 62
     7
100
AcDbLine
 10
1524.085232753243
 20
850.5933033893436
 30
0.0
 11
1524.085232753243
 21
848.8933033893436
 31
0.0
  0
LINE
  5
6E3E
330
1E
100
AcDbEntity
  8
躯体と製品
  6
Continuous
 62
     7
100
AcDbLine
 10
1531.188791361266
 20
851.5915880779433
 30
0.0
 11
1531.230172142739
 21
852.0898727666072
 31
0.0
  0
ARC
  5
6E3F
330
1E
100
AcDbEntity
  8
躯体と製品
  6
Continuous
 62
     7
100
AcDbCircle
 10
1531.147410579797
 20
851.0933033893437
 30
0.0
 40
1.0
100
AcDbArc
 50
265.252681745971
 51
355.2526817422747
  0
LINE
  5
6E40
330
1E
100
AcDbEntity
  8
躯体と製品
  6
Continuous
 62
     7
100
AcDbLine
 10
1532.143979957061
 20
851.010541826402
 30
0.0
 11
1532.226741520008
 21
852.0071112037301
 31
0.0
  0
ARC
  5
6E41
330
1E
100
AcDbEntity
  8
躯体と製品
  6
Continuous
 62
     7
100
AcDbCircle
 10
1531.728456831309
 20
852.0484919851739
 30
0.0
 40
0.4999999999354556
100
AcDbArc
 50
355.2526817459748
 51
175.2526817459747
  0
ARC
  5
6E42
330
1E
100
AcDbEntity
  8
躯体と製品
  6
Continuous
 62
     7
100
AcDbCircle
 10
1530.690506672634
 20
851.632968859414
 30
0.0
 40
0.5
100
AcDbArc
 50
265.252681745971
 51
355.2526817422747
  0
ARC
  5
6E43
330
1E
100
AcDbEntity
  8
躯体と製品
  6
Continuous
 62
     7
100
AcDbCircle
 10
1525.085232753243
 20
848.8933033893436
 30
0.0
 40
1.0
100
AcDbArc
 50
180.0
 51
270.0
  0
LINE
  5
6E44
330
1E
100
AcDbEntity
  8
躯体と製品
  6
Continuous
 62
     7
100
AcDbLine
 10
1525.385232753243
 20
848.8933033893436
 30
0.0
 11
1533.585232753243
 21
848.8933033893436
 31
0.0
  0
LINE
  5
6E45
330
1E
100
AcDbEntity
  8
躯体と製品
  6
Continuous
 62
     7
100
AcDbLine
 10
1534.085232753243
 20
848.3933033893436
 30
0.0
 11
1534.085232753243
 21
847.8933033893436
 31
0.0
  0
ARC
  5
6E46
330
1E
100
AcDbEntity
  8
躯体と製品
  6
Continuous
 62
     7
100
AcDbCircle
 10
1533.585232753243
 20
848.3933033893436
 30
0.0
 40
0.5
100
AcDbArc
 50
0.0
 51
90.0
  0
LINE
  5
6E47
330
1E
100
AcDbEntity
  8
躯体と製品
  6
Continuous
 62
     7
100
AcDbLine
 10
1525.085232753243
 20
847.8933033893436
 30
0.0
 11
1534.085232753243
 21
847.8933033893436
 31
0.0
  0
POINT
  5
6E48
330
1E
100
AcDbEntity
  8
躯体と製品
 62
     4
100
AcDbPoint
 10
1535.085232753243
 20
884.8933033893436
 30
0.0
  0
LINE
  5
6E49
330
1E
100
AcDbEntity
  8
躯体と製品
  6
DASHED1
 62
     4
100
AcDbLine
 10
1513.885232753243
 20
889.6933033893436
 30
0.0
 11
1515.085232753243
 21
889.6933033893436
 31
0.0
  0
LINE
  5
6E4A
330
1E
100
AcDbEntity
  8
躯体と製品
  6
DASHED1
 62
     4
100
AcDbLine
 10
1513.885232753243
 20
893.6933033893435
 30
0.0
 11
1515.085232753243
 21
893.6933033893435
 31
0.0
  0
LINE
  5
6E4B
330
1E
100
AcDbEntity
  8
躯体と製品
  6
Continuous
 62
     3
100
AcDbLine
 10
1533.885232753243
 20
851.0933033893437
 30
0.0
 11
1533.885232753243
 21
882.6933033893435
 31
0.0
  0
ARC
  5
6E4C
330
1E
100
AcDbEntity
  8
躯体と製品
  6
Continuous
 62
     3
100
AcDbCircle
 10
1532.885232753243
 20
851.0933033893437
 30
0.0
 40
1.0
100
AcDbArc
 50
270.0
 51
0.0
  0
LINE
  5
6E4D
330
1E
100
AcDbEntity
  8
躯体と製品
  6
Continuous
 62
     3
100
AcDbLine
 10
1532.885232753243
 20
850.0933033893437
 30
0.0
 11
1525.085232753243
 21
850.0933033893437
 31
0.0
  0
ARC
  5
6E4E
330
1E
100
AcDbEntity
  8
躯体と製品
  6
Continuous
 62
     3
100
AcDbCircle
 10
1532.885232753243
 20
851.0933033893437
 30
0.0
 40
2.2
100
AcDbArc
 50
270.0
 51
0.0
  0
LINE
  5
6E4F
330
1E
100
AcDbEntity
  8
躯体と製品
  6
Continuous
 62
     3
100
AcDbLine
 10
1525.085232753243
 20
850.0933033893437
 30
0.0
 11
1525.085232753243
 21
848.8933033893436
 31
0.0
  0
LINE
  5
6E50
330
1E
100
AcDbEntity
  8
躯体と製品
  6
Continuous
 62
     3
100
AcDbLine
 10
1516.085232753243
 20
883.6933033893435
 30
0.0
 11
1532.885232753243
 21
883.6933033893435
 31
0.0
  0
LINE
  5
6E51
330
1E
100
AcDbEntity
  8
躯体と製品
  6
Continuous
 62
     3
100
AcDbLine
 10
1505.085232753243
 20
896.8933033893435
 30
0.0
 11
1505.085232753243
 21
895.6933033893434
 31
0.0
  0
LINE
  5
6E52
330
1E
100
AcDbEntity
  8
躯体と製品
  6
Continuous
 62
     3
100
AcDbLine
 10
1505.085232753243
 20
895.6933033893434
 30
0.0
 11
1512.885232753243
 21
895.6933033893434
 31
0.0
  0
ARC
  5
6E53
330
1E
100
AcDbEntity
  8
躯体と製品
  6
Continuous
 62
     3
100
AcDbCircle
 10
1532.885232753243
 20
882.6933033893435
 30
0.0
 40
2.2
100
AcDbArc
 50
0.0
 51
90.0
  0
ARC
  5
6E54
330
1E
100
AcDbEntity
  8
躯体と製品
  6
Continuous
 62
     3
100
AcDbCircle
 10
1516.085232753243
 20
885.8933033893436
 30
0.0
 40
2.2
100
AcDbArc
 50
180.0
 51
270.0
  0
ARC
  5
6E55
330
1E
100
AcDbEntity
  8
躯体と製品
  6
Continuous
 62
     3
100
AcDbCircle
 10
1532.885232753243
 20
882.6933033893435
 30
0.0
 40
1.0
100
AcDbArc
 50
0.0
 51
90.0
  0
ARC
  5
6E56
330
1E
100
AcDbEntity
  8
躯体と製品
  6
Continuous
 62
     3
100
AcDbCircle
 10
1516.085232753243
 20
885.8933033893436
 30
0.0
 40
1.0
100
AcDbArc
 50
180.0
 51
270.0
  0
LINE
  5
6E57
330
1E
100
AcDbEntity
  8
躯体と製品
  6
Continuous
 62
     3
100
AcDbLine
 10
1513.885232753243
 20
885.8933033893436
 30
0.0
 11
1513.885232753243
 21
894.6933033893435
 31
0.0
  0
ARC
  5
6E58
330
1E
100
AcDbEntity
  8
躯体と製品
  6
Continuous
 62
     3
100
AcDbCircle
 10
1512.885232753243
 20
894.6933033893435
 30
0.0
 40
2.2
100
AcDbArc
 50
0.0
 51
90.0
  0
LINE
  5
6E59
330
1E
100
AcDbEntity
  8
躯体と製品
  6
Continuous
 62
     3
100
AcDbLine
 10
1512.885232753243
 20
896.8933033893435
 30
0.0
 11
1505.085232753243
 21
896.8933033893435
 31
0.0
  0
ARC
  5
6E5A
330
1E
100
AcDbEntity
  8
躯体と製品
  6
Continuous
 62
     3
100
AcDbCircle
 10
1512.885232753243
 20
894.6933033893435
 30
0.0
 40
1.0
100
AcDbArc
 50
0.0
 51
90.0
  0
LINE
  5
6E5B
330
1E
100
AcDbEntity
  8
躯体と製品
  6
Continuous
 62
     3
100
AcDbLine
 10
1505.085232753243
 20
896.8809593893436
 30
0.0
 11
1505.097576753243
 21
896.8933033893435
 31
0.0
  0
LINE
  5
6E5C
330
1E
100
AcDbEntity
  8
躯体と製品
  6
Continuous
 62
     7
100
AcDbLine
 10
1513.885232753243
 20
889.6933033893436
 30
0.0
 11
1510.885232753242
 21
889.6933033893436
 31
0.0
  0
LINE
  5
6E5D
330
1E
100
AcDbEntity
  8
躯体と製品
  6
Continuous
 62
     4
100
AcDbLine
 10
1513.885232753243
 20
890.1933033893435
 30
0.0
 11
1505.385232753243
 21
890.1933033893435
 31
0.0
  0
LINE
  5
6E5E
330
1E
100
AcDbEntity
  8
躯体と製品
  6
Continuous
 62
     4
100
AcDbLine
 10
1513.885232753243
 20
893.1933033893436
 30
0.0
 11
1505.385232753243
 21
893.1933033893436
 31
0.0
  0
LINE
  5
6E5F
330
1E
100
AcDbEntity
  8
躯体と製品
  6
Continuous
 62
     7
100
AcDbLine
 10
1513.885232753243
 20
893.6933033893435
 30
0.0
 11
1510.885232753242
 21
893.6933033893435
 31
0.0
  0
LINE
  5
6E60
330
1E
100
AcDbEntity
  8
躯体と製品
  6
Continuous
 62
     4
100
AcDbLine
 10
1505.885232753243
 20
893.6933033893435
 30
0.0
 11
1505.885232753243
 21
889.6933033893436
 31
0.0
  0
LINE
  5
6E61
330
1E
100
AcDbEntity
  8
躯体と製品
  6
Continuous
 62
     7
100
AcDbLine
 10
1505.385232753243
 20
893.1933033893436
 30
0.0
 11
1505.385232753243
 21
890.1933033893435
 31
0.0
  0
LINE
  5
6E62
330
1E
100
AcDbEntity
  8
躯体と製品
  6
Continuous
 62
     7
100
AcDbLine
 10
1505.385232753243
 20
893.1933033893436
 30
0.0
 11
1505.885232753243
 21
893.6933033893435
 31
0.0
  0
LINE
  5
6E63
330
1E
100
AcDbEntity
  8
躯体と製品
  6
Continuous
 62
     7
100
AcDbLine
 10
1505.385232753243
 20
890.1933033893435
 30
0.0
 11
1505.885232753243
 21
889.6933033893436
 31
0.0
  0
LINE
  5
6E64
330
1E
100
AcDbEntity
  8
躯体と製品
  6
Continuous
 62
     4
100
AcDbLine
 10
1512.585232933537
 20
887.2829611018312
 30
0.0
 11
1512.795575221049
 21
887.493303389343
 31
0.0
  0
LINE
  5
6E65
330
1E
100
AcDbEntity
  8
躯体と製品
  6
Continuous
 62
     4
100
AcDbLine
 10
1512.585234145719
 20
885.8687487516403
 30
0.0
 11
1513.385233753243
 21
886.6687483591638
 31
0.0
  0
LINE
  5
6E66
330
1E
100
AcDbEntity
  8
躯体と製品
  6
Continuous
 62
     4
100
AcDbLine
 10
1512.585235357902
 20
884.4545364014493
 30
0.0
 11
1513.385233753242
 21
885.2545347967902
 31
0.0
  0
LINE
  5
6E67
330
1E
100
AcDbEntity
  8
躯体と製品
  6
Continuous
 62
     4
100
AcDbLine
 10
1512.809011798135
 20
883.2640992793091
 30
0.0
 11
1513.403675478879
 21
883.8587629600533
 31
0.0
  0
LINE
  5
6E68
330
1E
100
AcDbEntity
  8
躯体と製品
  6
Continuous
 62
     4
100
AcDbLine
 10
1513.670320258526
 20
882.7111941773273
 30
0.0
 11
1514.452430470543
 21
883.4933043893435
 31
0.0
  0
LINE
  5
6E69
330
1E
100
AcDbEntity
  8
躯体と製品
  6
Continuous
 62
     4
100
AcDbLine
 10
1515.066643032916
 20
882.6933033893439
 30
0.0
 11
1515.866644032915
 21
883.4933043893434
 31
0.0
  0
LINE
  5
6E6A
330
1E
100
AcDbEntity
  8
躯体と製品
  6
Continuous
 62
     4
100
AcDbLine
 10
1516.480856595289
 20
882.6933033893435
 30
0.0
 11
1517.280857595289
 21
883.4933043893432
 31
0.0
  0
LINE
  5
6E6B
330
1E
100
AcDbEntity
  8
躯体と製品
  6
Continuous
 62
     4
100
AcDbLine
 10
1517.895070157659
 20
882.6933033893432
 30
0.0
 11
1518.695071157658
 21
883.4933043893428
 31
0.0
  0
LINE
  5
6E6C
330
1E
100
AcDbEntity
  8
躯体と製品
  6
Continuous
 62
     4
100
AcDbLine
 10
1519.309283720032
 20
882.6933033893432
 30
0.0
 11
1520.109284720031
 21
883.4933043893427
 31
0.0
  0
LINE
  5
6E6D
330
1E
100
AcDbEntity
  8
躯体と製品
  6
Continuous
 62
     4
100
AcDbLine
 10
1520.723497282405
 20
882.693303389343
 30
0.0
 11
1521.523498282405
 21
883.4933043893425
 31
0.0
  0
LINE
  5
6E6E
330
1E
100
AcDbEntity
  8
躯体と製品
  6
Continuous
 62
     4
100
AcDbLine
 10
1522.137710844778
 20
882.6933033893428
 30
0.0
 11
1522.937711844779
 21
883.4933043893435
 31
0.0
  0
LINE
  5
6E6F
330
1E
100
AcDbEntity
  8
躯体と製品
  6
Continuous
 62
     4
100
AcDbLine
 10
1523.551924407152
 20
882.6933033893432
 30
0.0
 11
1524.351925407152
 21
883.4933043893439
 31
0.0
  0
LINE
  5
6E70
330
1E
100
AcDbEntity
  8
躯体と製品
  6
Continuous
 62
     4
100
AcDbLine
 10
1524.966137969525
 20
882.693303389343
 30
0.0
 11
1525.766138969525
 21
883.4933043893435
 31
0.0
  0
LINE
  5
6E71
330
1E
100
AcDbEntity
  8
躯体と製品
  6
Continuous
 62
     4
100
AcDbLine
 10
1526.380351531899
 20
882.6933033893439
 30
0.0
 11
1527.180352531899
 21
883.4933043893435
 31
0.0
  0
LINE
  5
6E72
330
1E
100
AcDbEntity
  8
躯体と製品
  6
Continuous
 62
     4
100
AcDbLine
 10
1527.794565094272
 20
882.6933033893435
 30
0.0
 11
1528.594566094272
 21
883.4933043893432
 31
0.0
  0
LINE
  5
6E73
330
1E
100
AcDbEntity
  8
躯体と製品
  6
Continuous
 62
     4
100
AcDbLine
 10
1529.208778656645
 20
882.6933033893434
 30
0.0
 11
1530.008779656645
 21
883.4933043893428
 31
0.0
  0
LINE
  5
6E74
330
1E
100
AcDbEntity
  8
躯体と製品
  6
Continuous
 62
     4
100
AcDbLine
 10
1530.622992219019
 20
882.6933033893432
 30
0.0
 11
1531.422993219018
 21
883.4933043893428
 31
0.0
  0
LINE
  5
6E75
330
1E
100
AcDbEntity
  8
躯体と製品
  6
Continuous
 62
     4
100
AcDbLine
 10
1532.037205781393
 20
882.6933033893439
 30
0.0
 11
1532.750930828205
 21
883.4070284361569
 31
0.0
  0
LINE
  5
6E76
330
1E
100
AcDbEntity
  8
躯体と製品
  6
Continuous
 62
     4
100
AcDbLine
 10
1532.785234753244
 20
882.0271187988215
 30
0.0
 11
1533.475093107777
 21
882.7169771533554
 31
0.0
  0
LINE
  5
6E77
330
1E
100
AcDbEntity
  8
躯体と製品
  6
Continuous
 62
     4
100
AcDbLine
 10
1532.785234753244
 20
880.6129052364482
 30
0.0
 11
1533.585232753243
 21
881.412903236448
 31
0.0
  0
LINE
  5
6E78
330
1E
100
AcDbEntity
  8
躯体と製品
  6
Continuous
 62
     4
100
AcDbLine
 10
1532.785234753244
 20
879.198691674075
 30
0.0
 11
1533.585232753243
 21
879.9986896740747
 31
0.0
  0
LINE
  5
6E79
330
1E
100
AcDbEntity
  8
躯体と製品
  6
Continuous
 62
     4
100
AcDbLine
 10
1532.785234753244
 20
877.7844781117016
 30
0.0
 11
1533.585232753243
 21
878.5844761117013
 31
0.0
  0
LINE
  5
6E7A
330
1E
100
AcDbEntity
  8
躯体と製品
  6
Continuous
 62
     4
100
AcDbLine
 10
1532.785234753242
 20
876.3702645493266
 30
0.0
 11
1533.585232753243
 21
877.1702625493274
 31
0.0
  0
LINE
  5
6E7B
330
1E
100
AcDbEntity
  8
躯体と製品
  6
Continuous
 62
     4
100
AcDbLine
 10
1532.785234753242
 20
874.9560509869532
 30
0.0
 11
1533.585232753243
 21
875.7560489869538
 31
0.0
  0
LINE
  5
6E7C
330
1E
100
AcDbEntity
  8
躯体と製品
  6
Continuous
 62
     4
100
AcDbLine
 10
1532.785234753242
 20
873.5418374245838
 30
0.0
 11
1533.585232753243
 21
874.3418354245847
 31
0.0
  0
LINE
  5
6E7D
330
1E
100
AcDbEntity
  8
躯体と製品
  6
Continuous
 62
     4
100
AcDbLine
 10
1532.785234753242
 20
872.1276238622106
 30
0.0
 11
1533.585232753243
 21
872.9276218622114
 31
0.0
  0
LINE
  5
6E7E
330
1E
100
AcDbEntity
  8
躯体と製品
  6
Continuous
 62
     4
100
AcDbLine
 10
1532.785234753242
 20
870.7134102998372
 30
0.0
 11
1533.585232753243
 21
871.513408299838
 31
0.0
  0
LINE
  5
6E7F
330
1E
100
AcDbEntity
  8
躯体と製品
  6
Continuous
 62
     4
100
AcDbLine
 10
1532.785234753242
 20
869.2991967374641
 30
0.0
 11
1533.585232753243
 21
870.0991947374648
 31
0.0
  0
LINE
  5
6E80
330
1E
100
AcDbEntity
  8
躯体と製品
  6
Continuous
 62
     4
100
AcDbLine
 10
1532.785234753243
 20
867.8849831750907
 30
0.0
 11
1533.585232753243
 21
868.6849811750917
 31
0.0
  0
LINE
  5
6E81
330
1E
100
AcDbEntity
  8
躯体と製品
  6
Continuous
 62
     4
100
AcDbLine
 10
1532.785234753243
 20
866.4707696127177
 30
0.0
 11
1533.585232753242
 21
867.2707676127174
 31
0.0
  0
LINE
  5
6E82
330
1E
100
AcDbEntity
  8
躯体と製品
  6
Continuous
 62
     4
100
AcDbLine
 10
1532.785234753243
 20
865.0565560503444
 30
0.0
 11
1533.585232753242
 21
865.856554050344
 31
0.0
  0
LINE
  5
6E83
330
1E
100
AcDbEntity
  8
躯体と製品
  6
Continuous
 62
     4
100
AcDbLine
 10
1532.785234753243
 20
863.6423424879712
 30
0.0
 11
1533.585232753243
 21
864.4423404879708
 31
0.0
  0
LINE
  5
6E84
330
1E
100
AcDbEntity
  8
躯体と製品
  6
Continuous
 62
     4
100
AcDbLine
 10
1532.785234753243
 20
862.2281289255978
 30
0.0
 11
1533.585232753243
 21
863.0281269255977
 31
0.0
  0
LINE
  5
6E85
330
1E
100
AcDbEntity
  8
躯体と製品
  6
Continuous
 62
     4
100
AcDbLine
 10
1532.785234753243
 20
860.8139153632246
 30
0.0
 11
1533.585232753243
 21
861.6139133632243
 31
0.0
  0
LINE
  5
6E86
330
1E
100
AcDbEntity
  8
躯体と製品
  6
Continuous
 62
     4
100
AcDbLine
 10
1532.785234753243
 20
859.3997018008515
 30
0.0
 11
1533.585232753243
 21
860.1996998008511
 31
0.0
  0
LINE
  5
6E87
330
1E
100
AcDbEntity
  8
躯体と製品
  6
Continuous
 62
     4
100
AcDbLine
 10
1532.785234753243
 20
857.9854882384783
 30
0.0
 11
1533.585232753243
 21
858.785486238478
 31
0.0
  0
LINE
  5
6E88
330
1E
100
AcDbEntity
  8
躯体と製品
  6
Continuous
 62
     4
100
AcDbLine
 10
1532.785234753244
 20
856.571274676105
 30
0.0
 11
1533.585232753243
 21
857.3712726761046
 31
0.0
  0
LINE
  5
6E89
330
1E
100
AcDbEntity
  8
躯体と製品
  6
Continuous
 62
     4
100
AcDbLine
 10
1532.785234753242
 20
855.1570611137305
 30
0.0
 11
1533.585232753243
 21
855.9570591137312
 31
0.0
  0
LINE
  5
6E8A
330
1E
100
AcDbEntity
  8
躯体と製品
  6
Continuous
 62
     4
100
AcDbLine
 10
1532.785234753242
 20
853.7428475513575
 30
0.0
 11
1533.585232753243
 21
854.5428455513581
 31
0.0
  0
LINE
  5
6E8B
330
1E
100
AcDbEntity
  8
躯体と製品
  6
Continuous
 62
     7
100
AcDbLine
 10
1512.585232753243
 20
887.4933033893432
 30
0.0
 11
1512.585235753243
 21
883.9933053893433
 31
0.0
  0
LINE
  5
6E8C
330
1E
100
AcDbEntity
  8
躯体と製品
  6
Continuous
 62
     7
100
AcDbLine
 10
1532.285233753243
 20
882.6933033893434
 30
0.0
 11
1513.885234753243
 21
882.6933033893434
 31
0.0
  0
LINE
  5
6E8D
330
1E
100
AcDbEntity
  8
躯体と製品
  6
Continuous
 62
     7
100
AcDbLine
 10
1532.785234753243
 20
853.4933043893433
 30
0.0
 11
1533.585232753243
 21
853.4933043893433
 31
0.0
  0
LINE
  5
6E8E
330
1E
100
AcDbEntity
  8
躯体と製品
  6
Continuous
 62
     7
100
AcDbLine
 10
1533.585232753243
 20
882.1933053893435
 30
0.0
 11
1533.585232753243
 21
853.4933043893433
 31
0.0
  0
LINE
  5
6E8F
330
1E
100
AcDbEntity
  8
躯体と製品
  6
Continuous
 62
     7
100
AcDbLine
 10
1532.785234753243
 20
882.1933053893435
 30
0.0
 11
1532.785234753243
 21
853.4933043893433
 31
0.0
  0
ARC
  5
6E90
330
1E
100
AcDbEntity
  8
躯体と製品
  6
Continuous
 62
     7
100
AcDbCircle
 10
1532.285233753243
 20
882.1933053893435
 30
0.0
 40
0.5000010000000002
100
AcDbArc
 50
0.0
 51
90.0
  0
ARC
  5
6E91
330
1E
100
AcDbEntity
  8
躯体と製品
  6
Continuous
 62
     7
100
AcDbCircle
 10
1532.285233753243
 20
882.1933053893435
 30
0.0
 40
1.299998999999999
100
AcDbArc
 50
0.0
 51
90.0
  0
LINE
  5
6E92
330
1E
100
AcDbEntity
  8
躯体と製品
  6
Continuous
 62
     7
100
AcDbLine
 10
1532.285233753243
 20
883.4933043893432
 30
0.0
 11
1513.885234753243
 21
883.4933043893432
 31
0.0
  0
LINE
  5
6E93
330
1E
100
AcDbEntity
  8
躯体と製品
  6
Continuous
 62
     7
100
AcDbLine
 10
1512.585232753243
 20
887.4933033893432
 30
0.0
 11
1513.385233753243
 21
887.4933033893432
 31
0.0
  0
ARC
  5
6E94
330
1E
100
AcDbEntity
  8
躯体と製品
  6
Continuous
 62
     7
100
AcDbCircle
 10
1513.885234753243
 20
883.9933053893433
 30
0.0
 40
1.299998999999999
100
AcDbArc
 50
180.0
 51
270.0
  0
ARC
  5
6E95
330
1E
100
AcDbEntity
  8
躯体と製品
  6
Continuous
 62
     7
100
AcDbCircle
 10
1513.885234753243
 20
883.9933053893433
 30
0.0
 40
0.5000010000000002
100
AcDbArc
 50
180.0
 51
270.0
  0
LINE
  5
6E96
330
1E
100
AcDbEntity
  8
躯体と製品
  6
Continuous
 62
     7
100
AcDbLine
 10
1513.385233753243
 20
883.9933053893433
 30
0.0
 11
1513.385233753243
 21
887.4933033893432
 31
0.0
  0
POINT
  5
6E97
330
1E
100
AcDbEntity
  8
躯体と製品
 62
     4
100
AcDbPoint
 10
1535.085232753243
 20
848.8933033893436
 30
0.0
  0
LINE
  5
6E98
330
1E
100
AcDbEntity
  8
躯体と製品
  6
Continuous
 62
     3
100
AcDbLine
 10
1532.885232753243
 20
884.8933033893436
 30
0.0
 11
1516.085232753243
 21
884.8933033893436
 31
0.0
  0
LINE
  5
6E99
330
1E
100
AcDbEntity
  8
躯体と製品
  6
Continuous
 62
     3
100
AcDbLine
 10
1535.085232753243
 20
851.0933033893437
 30
0.0
 11
1535.085232753243
 21
882.6933033893435
 31
0.0
  0
LINE
  5
6E9A
330
1E
100
AcDbEntity
  8
躯体と製品
  6
Continuous
 62
     3
100
AcDbLine
 10
1532.885232753243
 20
848.8933033893436
 30
0.0
 11
1525.085232753243
 21
848.8933033893436
 31
0.0
  0
LINE
  5
6E9B
330
1E
100
AcDbEntity
  8
躯体と製品
  6
Continuous
 62
     3
100
AcDbLine
 10
1505.385232753243
 20
841.6933033893435
 30
0.0
 11
1505.385232753243
 21
859.6933033893435
 31
0.0
  0
LINE
  5
6E9C
330
1E
100
AcDbEntity
  8
躯体と製品
  6
Continuous
 62
     3
100
AcDbLine
 10
1502.885232753242
 20
861.6933033893435
 30
0.0
 11
1502.885232753242
 21
860.1933033893436
 31
0.0
  0
LINE
  5
6E9D
330
1E
100
AcDbEntity
  8
躯体と製品
  6
Continuous
 62
     3
100
AcDbLine
 10
1502.885232753242
 20
822.1933033893435
 30
0.0
 11
1502.885232753242
 21
820.6933033893434
 31
0.0
  0
LINE
  5
6E9E
330
1E
100
AcDbEntity
  8
躯体と製品
  6
Continuous
 62
     3
100
AcDbLine
 10
1511.635232753243
 20
814.1933033893435
 30
0.0
 11
1510.385232753242
 21
814.1933033893435
 31
0.0
  0
LINE
  5
6E9F
330
1E
100
AcDbEntity
  8
躯体と製品
  6
Continuous
 62
     3
100
AcDbLine
 10
1511.635232753243
 20
810.1933033893436
 30
0.0
 11
1510.385232753242
 21
810.1933033893436
 31
0.0
  0
ARC
  5
6EA0
330
1E
100
AcDbEntity
  8
躯体と製品
  6
Continuous
 62
     3
100
AcDbCircle
 10
1503.385232753243
 20
820.1933033893435
 30
0.0
 40
0.5
100
AcDbArc
 50
0.0
 51
90.0
  0
LINE
  5
6EA1
330
1E
100
AcDbEntity
  8
躯体と製品
  6
Continuous
 62
     3
100
AcDbLine
 10
1503.385232753243
 20
820.6933033893434
 30
0.0
 11
1502.885232753242
 21
820.6933033893434
 31
0.0
  0
LINE
  5
6EA2
330
1E
100
AcDbEntity
  8
躯体と製品
  6
Continuous
 62
     3
100
AcDbLine
 10
1511.635232753243
 20
808.6933033893435
 30
0.0
 11
1502.885232753242
 21
808.6933033893435
 31
0.0
  0
LINE
  5
6EA3
330
1E
100
AcDbEntity
  8
躯体と製品
  6
Continuous
 62
     3
100
AcDbLine
 10
1502.885232753242
 20
808.6933033893435
 30
0.0
 11
1502.885232753242
 21
810.1933033893436
 31
0.0
  0
LINE
  5
6EA4
330
1E
100
AcDbEntity
  8
躯体と製品
  6
Continuous
 62
     3
100
AcDbLine
 10
1503.385232753243
 20
810.1933033893436
 30
0.0
 11
1502.885232753242
 21
810.1933033893436
 31
0.0
  0
ARC
  5
6EA5
330
1E
100
AcDbEntity
  8
躯体と製品
  6
Continuous
 62
     3
100
AcDbCircle
 10
1503.385232753243
 20
810.6933033893435
 30
0.0
 40
0.5
100
AcDbArc
 50
270.0
 51
0.0
  0
LINE
  5
6EA6
330
1E
100
AcDbEntity
  8
躯体と製品
  6
Continuous
 62
     3
100
AcDbLine
 10
1503.885232753242
 20
810.6933033893435
 30
0.0
 11
1503.885232753242
 21
820.1933033893435
 31
0.0
  0
LINE
  5
6EA7
330
1E
100
AcDbEntity
  8
躯体と製品
  6
Continuous
 62
     3
100
AcDbLine
 10
1505.385232753243
 20
810.6933033893435
 30
0.0
 11
1505.385232753243
 21
813.6933033893436
 31
0.0
  0
LINE
  5
6EA8
330
1E
100
AcDbEntity
  8
躯体と製品
  6
Continuous
 62
     3
100
AcDbLine
 10
1510.385232753242
 20
810.1933033893436
 30
0.0
 11
1510.385232753242
 21
809.6933033893435
 31
0.0
  0
LINE
  5
6EA9
330
1E
100
AcDbEntity
  8
躯体と製品
  6
Continuous
 62
     3
100
AcDbLine
 10
1509.385232753243
 20
810.1933033893436
 30
0.0
 11
1510.385232753242
 21
809.6933033893435
 31
0.0
  0
LINE
  5
6EAA
330
1E
100
AcDbEntity
  8
躯体と製品
  6
Continuous
 62
     3
100
AcDbLine
 10
1509.385232753243
 20
810.1933033893436
 30
0.0
 11
1509.385232753243
 21
809.6933033893435
 31
0.0
  0
LINE
  5
6EAB
330
1E
100
AcDbEntity
  8
躯体と製品
  6
Continuous
 62
     3
100
AcDbLine
 10
1508.385232753242
 20
810.1933033893436
 30
0.0
 11
1509.385232753243
 21
809.6933033893435
 31
0.0
  0
ARC
  5
6EAC
330
1E
100
AcDbEntity
  8
躯体と製品
  6
Continuous
 62
     3
100
AcDbCircle
 10
1511.635232753243
 20
809.4433033893436
 30
0.0
 40
0.75
100
AcDbArc
 50
270.0
 51
90.0
  0
LINE
  5
6EAD
330
1E
100
AcDbEntity
  8
躯体と製品
  6
Continuous
 62
     3
100
AcDbLine
 10
1505.885232753243
 20
810.1933033893436
 30
0.0
 11
1508.385232753242
 21
810.1933033893436
 31
0.0
  0
ARC
  5
6EAE
330
1E
100
AcDbEntity
  8
躯体と製品
  6
Continuous
 62
     3
100
AcDbCircle
 10
1505.885232753243
 20
810.6933033893435
 30
0.0
 40
0.5
100
AcDbArc
 50
180.0
 51
270.0
  0
ARC
  5
6EAF
330
1E
100
AcDbEntity
  8
躯体と製品
  6
Continuous
 62
     3
100
AcDbCircle
 10
1516.635232753243
 20
821.4433033893435
 30
0.0
 40
0.75
100
AcDbArc
 50
270.0
 51
90.0
  0
LINE
  5
6EB0
330
1E
100
AcDbEntity
  8
躯体と製品
  6
Continuous
 62
     3
100
AcDbLine
 10
1505.885232753243
 20
822.1933033893435
 30
0.0
 11
1516.635232753243
 21
822.1933033893435
 31
0.0
  0
ARC
  5
6EB1
330
1E
100
AcDbEntity
  8
躯体と製品
  6
Continuous
 62
     3
100
AcDbCircle
 10
1505.885232753243
 20
822.6933033893436
 30
0.0
 40
0.5
100
AcDbArc
 50
180.0
 51
270.0
  0
LINE
  5
6EB2
330
1E
100
AcDbEntity
  8
躯体と製品
  6
Continuous
 62
     3
100
AcDbLine
 10
1505.385232753243
 20
822.6933033893436
 30
0.0
 11
1505.385232753243
 21
840.6933033893436
 31
0.0
  0
LINE
  5
6EB3
330
1E
100
AcDbEntity
  8
躯体と製品
  6
Continuous
 62
     3
100
AcDbLine
 10
1505.885232753243
 20
820.6933033893434
 30
0.0
 11
1516.635232753243
 21
820.6933033893434
 31
0.0
  0
ARC
  5
6EB4
330
1E
100
AcDbEntity
  8
躯体と製品
  6
Continuous
 62
     3
100
AcDbCircle
 10
1505.885232753243
 20
820.1933033893435
 30
0.0
 40
0.5
100
AcDbArc
 50
90.0
 51
180.0
  0
LINE
  5
6EB5
330
1E
100
AcDbEntity
  8
躯体と製品
  6
Continuous
 62
     3
100
AcDbLine
 10
1505.385232753243
 20
820.1933033893435
 30
0.0
 11
1505.385232753243
 21
816.1933033893435
 31
0.0
  0
LINE
  5
6EB6
330
1E
100
AcDbEntity
  8
躯体と製品
  6
Continuous
 62
     3
100
AcDbLine
 10
1515.385232753242
 20
860.6933033893435
 30
0.0
 11
1515.385232753242
 21
861.1933033893436
 31
0.0
  0
ARC
  5
6EB7
330
1E
100
AcDbEntity
  8
躯体と製品
  6
Continuous
 62
     3
100
AcDbCircle
 10
1514.885232753243
 20
860.6933033893435
 30
0.0
 40
0.5
100
AcDbArc
 50
270.0
 51
0.0
  0
LINE
  5
6EB8
330
1E
100
AcDbEntity
  8
躯体と製品
  6
Continuous
 62
     3
100
AcDbLine
 10
1514.885232753243
 20
860.1933033893436
 30
0.0
 11
1505.885232753243
 21
860.1933033893436
 31
0.0
  0
ARC
  5
6EB9
330
1E
100
AcDbEntity
  8
躯体と製品
  6
Continuous
 62
     3
100
AcDbCircle
 10
1514.885232753243
 20
861.1933033893436
 30
0.0
 40
0.5
100
AcDbArc
 50
0.0
 51
90.0
  0
ARC
  5
6EBA
330
1E
100
AcDbEntity
  8
躯体と製品
  6
Continuous
 62
     3
100
AcDbCircle
 10
1505.885232753243
 20
859.6933033893435
 30
0.0
 40
0.5
100
AcDbArc
 50
90.0
 51
180.0
  0
ARC
  5
6EBB
330
1E
100
AcDbEntity
  8
躯体と製品
  6
Continuous
 62
     3
100
AcDbCircle
 10
1511.635232753243
 20
814.9433033893435
 30
0.0
 40
0.75
100
AcDbArc
 50
270.0
 51
90.0
  0
LINE
  5
6EBC
330
1E
100
AcDbEntity
  8
躯体と製品
  6
Continuous
 62
     3
100
AcDbLine
 10
1510.385232753242
 20
814.6933033893436
 30
0.0
 11
1510.385232753242
 21
814.1933033893435
 31
0.0
  0
LINE
  5
6EBD
330
1E
100
AcDbEntity
  8
躯体と製品
  6
Continuous
 62
     3
100
AcDbLine
 10
1509.385232753243
 20
814.1933033893435
 30
0.0
 11
1510.385232753242
 21
814.6933033893436
 31
0.0
  0
LINE
  5
6EBE
330
1E
100
AcDbEntity
  8
躯体と製品
  6
Continuous
 62
     3
100
AcDbLine
 10
1509.385232753243
 20
814.6933033893436
 30
0.0
 11
1509.385232753243
 21
814.1933033893435
 31
0.0
  0
LINE
  5
6EBF
330
1E
100
AcDbEntity
  8
躯体と製品
  6
Continuous
 62
     3
100
AcDbLine
 10
1508.385232753242
 20
814.1933033893435
 30
0.0
 11
1509.385232753243
 21
814.6933033893436
 31
0.0
  0
LINE
  5
6EC0
330
1E
100
AcDbEntity
  8
躯体と製品
  6
Continuous
 62
     3
100
AcDbLine
 10
1505.885232753243
 20
814.1933033893435
 30
0.0
 11
1508.385232753242
 21
814.1933033893435
 31
0.0
  0
ARC
  5
6EC1
330
1E
100
AcDbEntity
  8
躯体と製品
  6
Continuous
 62
     3
100
AcDbCircle
 10
1505.885232753243
 20
813.6933033893436
 30
0.0
 40
0.5
100
AcDbArc
 50
90.0
 51
180.0
  0
ARC
  5
6EC2
330
1E
100
AcDbEntity
  8
躯体と製品
  6
Continuous
 62
     3
100
AcDbCircle
 10
1505.885232753243
 20
816.1933033893435
 30
0.0
 40
0.5
100
AcDbArc
 50
180.0
 51
270.0
  0
LINE
  5
6EC3
330
1E
100
AcDbEntity
  8
躯体と製品
  6
Continuous
 62
     3
100
AcDbLine
 10
1505.885232753243
 20
815.6933033893436
 30
0.0
 11
1511.635232753243
 21
815.6933033893436
 31
0.0
  0
LINE
  5
6EC4
330
1E
100
AcDbEntity
  8
躯体と製品
  6
Continuous
 62
     3
100
AcDbLine
 10
1505.885232753243
 20
861.6933033893435
 30
0.0
 11
1514.885232753243
 21
861.6933033893435
 31
0.0
  0
ARC
  5
6EC5
330
1E
100
AcDbEntity
  8
躯体と製品
  6
Continuous
 62
     3
100
AcDbCircle
 10
1505.885232753243
 20
862.1933033893435
 30
0.0
 40
0.5
100
AcDbArc
 50
180.0
 51
270.0
  0
LINE
  5
6EC6
330
1E
100
AcDbEntity
  8
躯体と製品
  6
Continuous
 62
     3
100
AcDbLine
 10
1503.385232753243
 20
822.1933033893435
 30
0.0
 11
1502.885232753242
 21
822.1933033893435
 31
0.0
  0
LINE
  5
6EC7
330
1E
100
AcDbEntity
  8
躯体と製品
  6
Continuous
 62
     3
100
AcDbLine
 10
1503.385232753243
 20
836.1933033893436
 30
0.0
 11
1503.385232753243
 21
822.1933033893435
 31
0.0
  0
LINE
  5
6EC8
330
1E
100
AcDbEntity
  8
躯体と製品
  6
Continuous
 62
     3
100
AcDbLine
 10
1503.385232753243
 20
860.1933033893436
 30
0.0
 11
1503.385232753243
 21
846.1933033893435
 31
0.0
  0
LINE
  5
6EC9
330
1E
100
AcDbEntity
  8
躯体と製品
  6
Continuous
 62
     3
100
AcDbLine
 10
1502.885232753242
 20
860.1933033893436
 30
0.0
 11
1503.385232753243
 21
860.1933033893436
 31
0.0
  0
LINE
  5
6ECA
330
1E
100
AcDbEntity
  8
躯体と製品
  6
Continuous
 62
     3
100
AcDbLine
 10
1503.385232753243
 20
861.6933033893435
 30
0.0
 11
1502.885232753242
 21
861.6933033893435
 31
0.0
  0
LINE
  5
6ECB
330
1E
100
AcDbEntity
  8
躯体と製品
  6
Continuous
 62
     3
100
AcDbLine
 10
1505.385232753243
 20
862.1933033893435
 30
0.0
 11
1505.385232753243
 21
872.6933033893436
 31
0.0
  0
LINE
  5
6ECC
330
1E
100
AcDbEntity
  8
躯体と製品
  6
Continuous
 62
     3
100
AcDbLine
 10
1503.385232753243
 20
873.1933033893435
 30
0.0
 11
1503.385232753243
 21
861.6933033893435
 31
0.0
  0
ARC
  5
6ECD
330
1E
100
AcDbEntity
  8
躯体と製品
  6
Continuous
 62
     3
100
AcDbCircle
 10
1513.285232753243
 20
894.2933033893435
 30
0.0
 40
0.5999999999999999
100
AcDbArc
 50
270.0
 51
90.0
  0
ARC
  5
6ECE
330
1E
100
AcDbEntity
  8
躯体と製品
  6
Continuous
 62
     3
100
AcDbCircle
 10
1513.285232753243
 20
889.0933033893436
 30
0.0
 40
0.5999999999999999
100
AcDbArc
 50
270.0
 51
90.0
  0
LINE
  5
6ECF
330
1E
100
AcDbEntity
  8
躯体と製品
  6
Continuous
 62
     3
100
AcDbLine
 10
1502.885232753242
 20
874.6933033893435
 30
0.0
 11
1502.885232753242
 21
873.1933033893435
 31
0.0
  0
LINE
  5
6ED0
330
1E
100
AcDbEntity
  8
躯体と製品
  6
Continuous
 62
     3
100
AcDbLine
 10
1511.885232753243
 20
894.8933033893437
 30
0.0
 11
1513.285232753243
 21
894.8933033893437
 31
0.0
  0
LINE
  5
6ED1
330
1E
100
AcDbEntity
  8
躯体と製品
  6
Continuous
 62
     3
100
AcDbLine
 10
1512.585232753243
 20
882.9933033893437
 30
0.0
 11
1512.585232753243
 21
888.4933033893437
 31
0.0
  0
LINE
  5
6ED2
330
1E
100
AcDbEntity
  8
躯体と製品
  6
Continuous
 62
     3
100
AcDbLine
 10
1512.585232753243
 20
888.4933033893437
 30
0.0
 11
1513.285232753243
 21
888.4933033893437
 31
0.0
  0
LINE
  5
6ED3
330
1E
100
AcDbEntity
  8
躯体と製品
  6
Continuous
 62
     3
100
AcDbLine
 10
1511.885232753243
 20
895.6933033893434
 30
0.0
 11
1511.885232753243
 21
894.8933033893437
 31
0.0
  0
LINE
  5
6ED4
330
1E
100
AcDbEntity
  8
躯体と製品
  6
Continuous
 62
     3
100
AcDbLine
 10
1502.885232753242
 20
895.1933033893435
 30
0.0
 11
1502.885232753242
 21
887.6933033893434
 31
0.0
  0
ARC
  5
6ED5
330
1E
100
AcDbEntity
  8
躯体と製品
  6
Continuous
 62
     3
100
AcDbCircle
 10
1503.385232753243
 20
895.1933033893435
 30
0.0
 40
0.5
100
AcDbArc
 50
90.0
 51
180.0
  0
LINE
  5
6ED6
330
1E
100
AcDbEntity
  8
躯体と製品
  6
Continuous
 62
     3
100
AcDbLine
 10
1503.385232753243
 20
895.6933033893434
 30
0.0
 11
1511.885232753243
 21
895.6933033893434
 31
0.0
  0
LINE
  5
6ED7
330
1E
100
AcDbEntity
  8
躯体と製品
  6
Continuous
 62
     3
100
AcDbLine
 10
1506.385232753243
 20
890.1933033893435
 30
0.0
 11
1505.885232753243
 21
889.6933033893436
 31
0.0
  0
LINE
  5
6ED8
330
1E
100
AcDbEntity
  8
躯体と製品
  6
Continuous
 62
     3
100
AcDbLine
 10
1506.885232753243
 20
889.6933033893436
 30
0.0
 11
1506.385232753243
 21
890.1933033893435
 31
0.0
  0
LINE
  5
6ED9
330
1E
100
AcDbEntity
  8
躯体と製品
  6
Continuous
 62
     3
100
AcDbLine
 10
1507.385232753243
 20
890.1933033893435
 30
0.0
 11
1506.885232753243
 21
889.6933033893436
 31
0.0
  0
LINE
  5
6EDA
330
1E
100
AcDbEntity
  8
躯体と製品
  6
Continuous
 62
     3
100
AcDbLine
 10
1507.885232753243
 20
889.6933033893436
 30
0.0
 11
1507.385232753243
 21
890.1933033893435
 31
0.0
  0
LINE
  5
6EDB
330
1E
100
AcDbEntity
  8
躯体と製品
  6
Continuous
 62
     3
100
AcDbLine
 10
1508.385232753242
 20
890.1933033893435
 30
0.0
 11
1507.885232753243
 21
889.6933033893436
 31
0.0
  0
LINE
  5
6EDC
330
1E
100
AcDbEntity
  8
躯体と製品
  6
Continuous
 62
     3
100
AcDbLine
 10
1508.885232753242
 20
889.6933033893436
 30
0.0
 11
1508.385232753242
 21
890.1933033893435
 31
0.0
  0
LINE
  5
6EDD
330
1E
100
AcDbEntity
  8
躯体と製品
  6
Continuous
 62
     3
100
AcDbLine
 10
1509.385232753243
 20
890.1933033893435
 30
0.0
 11
1508.885232753242
 21
889.6933033893436
 31
0.0
  0
LINE
  5
6EDE
330
1E
100
AcDbEntity
  8
躯体と製品
  6
Continuous
 62
     3
100
AcDbLine
 10
1509.885232753243
 20
889.6933033893436
 30
0.0
 11
1509.385232753243
 21
890.1933033893435
 31
0.0
  0
LINE
  5
6EDF
330
1E
100
AcDbEntity
  8
躯体と製品
  6
Continuous
 62
     3
100
AcDbLine
 10
1510.385232753242
 20
890.1933033893435
 30
0.0
 11
1509.885232753243
 21
889.6933033893436
 31
0.0
  0
LINE
  5
6EE0
330
1E
100
AcDbEntity
  8
躯体と製品
  6
Continuous
 62
     3
100
AcDbLine
 10
1510.885232753242
 20
889.6933033893436
 30
0.0
 11
1510.385232753242
 21
890.1933033893435
 31
0.0
  0
LINE
  5
6EE1
330
1E
100
AcDbEntity
  8
躯体と製品
  6
Continuous
 62
     3
100
AcDbLine
 10
1506.385232753243
 20
893.1933033893436
 30
0.0
 11
1505.885232753243
 21
893.6933033893435
 31
0.0
  0
LINE
  5
6EE2
330
1E
100
AcDbEntity
  8
躯体と製品
  6
Continuous
 62
     3
100
AcDbLine
 10
1506.885232753243
 20
893.6933033893435
 30
0.0
 11
1506.385232753243
 21
893.1933033893436
 31
0.0
  0
LINE
  5
6EE3
330
1E
100
AcDbEntity
  8
躯体と製品
  6
Continuous
 62
     3
100
AcDbLine
 10
1507.385232753243
 20
893.1933033893436
 30
0.0
 11
1506.885232753243
 21
893.6933033893435
 31
0.0
  0
LINE
  5
6EE4
330
1E
100
AcDbEntity
  8
躯体と製品
  6
Continuous
 62
     3
100
AcDbLine
 10
1507.885232753243
 20
893.6933033893435
 30
0.0
 11
1507.385232753243
 21
893.1933033893436
 31
0.0
  0
LINE
  5
6EE5
330
1E
100
AcDbEntity
  8
躯体と製品
  6
Continuous
 62
     3
100
AcDbLine
 10
1508.385232753242
 20
893.1933033893436
 30
0.0
 11
1507.885232753243
 21
893.6933033893435
 31
0.0
  0
LINE
  5
6EE6
330
1E
100
AcDbEntity
  8
躯体と製品
  6
Continuous
 62
     3
100
AcDbLine
 10
1508.885232753242
 20
893.6933033893435
 30
0.0
 11
1508.385232753242
 21
893.1933033893436
 31
0.0
  0
LINE
  5
6EE7
330
1E
100
AcDbEntity
  8
躯体と製品
  6
Continuous
 62
     3
100
AcDbLine
 10
1509.385232753243
 20
893.1933033893436
 30
0.0
 11
1508.885232753242
 21
893.6933033893435
 31
0.0
  0
LINE
  5
6EE8
330
1E
100
AcDbEntity
  8
躯体と製品
  6
Continuous
 62
     3
100
AcDbLine
 10
1509.885232753243
 20
893.6933033893435
 30
0.0
 11
1509.385232753243
 21
893.1933033893436
 31
0.0
  0
LINE
  5
6EE9
330
1E
100
AcDbEntity
  8
躯体と製品
  6
Continuous
 62
     3
100
AcDbLine
 10
1510.385232753242
 20
893.1933033893436
 30
0.0
 11
1509.885232753243
 21
893.6933033893435
 31
0.0
  0
LINE
  5
6EEA
330
1E
100
AcDbEntity
  8
躯体と製品
  6
Continuous
 62
     3
100
AcDbLine
 10
1510.885232753242
 20
893.6933033893435
 30
0.0
 11
1510.385232753242
 21
893.1933033893436
 31
0.0
  0
LINE
  5
6EEB
330
1E
100
AcDbEntity
  8
躯体と製品
  6
Continuous
 62
     3
100
AcDbLine
 10
1510.885232753242
 20
889.6933033893436
 30
0.0
 11
1513.385232753243
 21
889.6933033893436
 31
0.0
  0
LINE
  5
6EEC
330
1E
100
AcDbEntity
  8
躯体と製品
  6
Continuous
 62
     3
100
AcDbLine
 10
1510.885232753242
 20
893.6933033893435
 30
0.0
 11
1513.385232753243
 21
893.6933033893435
 31
0.0
  0
ARC
  5
6EED
330
1E
100
AcDbEntity
  8
躯体と製品
  6
Continuous
 62
     3
100
AcDbCircle
 10
1504.685232753243
 20
893.3933033893437
 30
0.0
 40
0.2999999999999999
100
AcDbArc
 50
90.0
 51
180.0
  0
LINE
  5
6EEE
330
1E
100
AcDbEntity
  8
躯体と製品
  6
Continuous
 62
     3
100
AcDbLine
 10
1504.685232753243
 20
893.6933033893435
 30
0.0
 11
1505.885232753243
 21
893.6933033893435
 31
0.0
  0
LINE
  5
6EEF
330
1E
100
AcDbEntity
  8
躯体と製品
  6
Continuous
 62
     3
100
AcDbLine
 10
1504.685232753243
 20
889.6933033893436
 30
0.0
 11
1505.885232753243
 21
889.6933033893436
 31
0.0
  0
ARC
  5
6EF0
330
1E
100
AcDbEntity
  8
躯体と製品
  6
Continuous
 62
     3
100
AcDbCircle
 10
1504.685232753243
 20
889.9933033893434
 30
0.0
 40
0.2999999999999999
100
AcDbArc
 50
180.0
 51
270.0
  0
LINE
  5
6EF1
330
1E
100
AcDbEntity
  8
躯体と製品
  6
Continuous
 62
     3
100
AcDbLine
 10
1504.385232753242
 20
889.9933033893434
 30
0.0
 11
1504.385232753242
 21
893.3933033893437
 31
0.0
  0
ARC
  5
6EF2
330
1E
100
AcDbEntity
  8
躯体と製品
  6
Continuous
 62
     3
100
AcDbCircle
 10
1508.985232753243
 20
867.7933033893436
 30
0.0
 40
0.5999999999999999
100
AcDbArc
 50
90.0
 51
270.0
  0
ARC
  5
6EF3
330
1E
100
AcDbEntity
  8
躯体と製品
  6
Continuous
 62
     3
100
AcDbCircle
 10
1509.885232753243
 20
868.8933033893436
 30
0.0
 40
0.5
100
AcDbArc
 50
270.0
 51
0.0
  0
LINE
  5
6EF4
330
1E
100
AcDbEntity
  8
躯体と製品
  6
Continuous
 62
     3
100
AcDbLine
 10
1509.885232753243
 20
868.3933033893437
 30
0.0
 11
1508.985232753243
 21
868.3933033893437
 31
0.0
  0
LINE
  5
6EF5
330
1E
100
AcDbEntity
  8
躯体と製品
  6
Continuous
 62
     3
100
AcDbLine
 10
1509.885232753243
 20
873.1933033893435
 30
0.0
 11
1505.885232753243
 21
873.1933033893435
 31
0.0
  0
ARC
  5
6EF6
330
1E
100
AcDbEntity
  8
躯体と製品
  6
Continuous
 62
     3
100
AcDbCircle
 10
1509.885232753243
 20
872.6933033893436
 30
0.0
 40
0.5
100
AcDbArc
 50
0.0
 51
90.0
  0
LINE
  5
6EF7
330
1E
100
AcDbEntity
  8
躯体と製品
  6
Continuous
 62
     3
100
AcDbLine
 10
1510.385232753242
 20
872.6933033893436
 30
0.0
 11
1510.385232753242
 21
868.8933033893436
 31
0.0
  0
LINE
  5
6EF8
330
1E
100
AcDbEntity
  8
躯体と製品
  6
Continuous
 62
     3
100
AcDbLine
 10
1510.885232753242
 20
867.1933033893438
 30
0.0
 11
1508.985232753243
 21
867.1933033893438
 31
0.0
  0
ARC
  5
6EF9
330
1E
100
AcDbEntity
  8
躯体と製品
  6
Continuous
 62
     3
100
AcDbCircle
 10
1510.885232753242
 20
868.1933033893436
 30
0.0
 40
1.0
100
AcDbArc
 50
270.0
 51
0.0
  0
LINE
  5
6EFA
330
1E
100
AcDbEntity
  8
躯体と製品
  6
Continuous
 62
     3
100
AcDbLine
 10
1511.885232753243
 20
868.1933033893436
 30
0.0
 11
1511.885232753243
 21
874.1933033893435
 31
0.0
  0
ARC
  5
6EFB
330
1E
100
AcDbEntity
  8
躯体と製品
  6
Continuous
 62
     3
100
AcDbCircle
 10
1511.385232753243
 20
874.1933033893435
 30
0.0
 40
0.5
100
AcDbArc
 50
0.0
 51
90.0
  0
LINE
  5
6EFC
330
1E
100
AcDbEntity
  8
躯体と製品
  6
Continuous
 62
     3
100
AcDbLine
 10
1511.385232753243
 20
874.6933033893435
 30
0.0
 11
1505.885232753243
 21
874.6933033893435
 31
0.0
  0
ARC
  5
6EFD
330
1E
100
AcDbEntity
  8
躯体と製品
  6
Continuous
 62
     3
100
AcDbCircle
 10
1505.885232753243
 20
875.1933033893434
 30
0.0
 40
0.5
100
AcDbArc
 50
180.0
 51
270.0
  0
ARC
  5
6EFE
330
1E
100
AcDbEntity
  8
躯体と製品
  6
Continuous
 62
     3
100
AcDbCircle
 10
1505.885232753243
 20
872.6933033893436
 30
0.0
 40
0.5
100
AcDbArc
 50
90.0
 51
180.0
  0
ARC
  5
6EFF
330
1E
100
AcDbEntity
  8
躯体と製品
  6
Continuous
 62
     3
100
AcDbCircle
 10
1517.485232753243
 20
882.0933033893437
 30
0.0
 40
0.5999999999999999
100
AcDbArc
 50
270.0
 51
90.0
  0
LINE
  5
6F00
330
1E
100
AcDbEntity
  8
躯体と製品
  6
Continuous
 62
     3
100
AcDbLine
 10
1505.385232753243
 20
887.1933033893435
 30
0.0
 11
1505.385232753243
 21
875.1933033893434
 31
0.0
  0
ARC
  5
6F01
330
1E
100
AcDbEntity
  8
躯体と製品
  6
Continuous
 62
     3
100
AcDbCircle
 10
1505.885232753243
 20
887.1933033893435
 30
0.0
 40
0.5
100
AcDbArc
 50
90.0
 51
180.0
  0
LINE
  5
6F02
330
1E
100
AcDbEntity
  8
躯体と製品
  6
Continuous
 62
     3
100
AcDbLine
 10
1510.885232753242
 20
887.6933033893434
 30
0.0
 11
1505.885232753243
 21
887.6933033893434
 31
0.0
  0
ARC
  5
6F03
330
1E
100
AcDbEntity
  8
躯体と製品
  6
Continuous
 62
     3
100
AcDbCircle
 10
1510.885232753242
 20
887.1933033893435
 30
0.0
 40
0.5
100
AcDbArc
 50
0.0
 51
90.0
  0
LINE
  5
6F04
330
1E
100
AcDbEntity
  8
躯体と製品
  6
Continuous
 62
     3
100
AcDbLine
 10
1512.385232753242
 20
881.4933033893437
 30
0.0
 11
1517.485232753243
 21
881.4933033893437
 31
0.0
  0
ARC
  5
6F05
330
1E
100
AcDbEntity
  8
躯体と製品
  6
Continuous
 62
     3
100
AcDbCircle
 10
1512.385232753242
 20
882.4933033893437
 30
0.0
 40
1.0
100
AcDbArc
 50
180.0
 51
270.0
  0
LINE
  5
6F06
330
1E
100
AcDbEntity
  8
躯体と製品
  6
Continuous
 62
     3
100
AcDbLine
 10
1511.385232753243
 20
882.4933033893437
 30
0.0
 11
1511.385232753243
 21
887.1933033893435
 31
0.0
  0
LINE
  5
6F07
330
1E
100
AcDbEntity
  8
躯体と製品
  6
Continuous
 62
     3
100
AcDbLine
 10
1512.885232753243
 20
882.6933033893435
 30
0.0
 11
1517.485232753243
 21
882.6933033893435
 31
0.0
  0
ARC
  5
6F08
330
1E
100
AcDbEntity
  8
躯体と製品
  6
Continuous
 62
     3
100
AcDbCircle
 10
1512.885232753243
 20
882.9933033893437
 30
0.0
 40
0.2999999999999999
100
AcDbArc
 50
180.0
 51
270.0
  0
LINE
  5
6F09
330
1E
100
AcDbEntity
  8
躯体と製品
  6
Continuous
 62
     3
100
AcDbLine
 10
1502.885232753242
 20
873.1933033893435
 30
0.0
 11
1503.385232753243
 21
873.1933033893435
 31
0.0
  0
LINE
  5
6F0A
330
1E
100
AcDbEntity
  8
躯体と製品
  6
Continuous
 62
     3
100
AcDbLine
 10
1503.385232753243
 20
874.6933033893435
 30
0.0
 11
1502.885232753242
 21
874.6933033893435
 31
0.0
  0
LINE
  5
6F0B
330
1E
100
AcDbEntity
  8
躯体と製品
  6
Continuous
 62
     3
100
AcDbLine
 10
1503.385232753243
 20
887.6933033893434
 30
0.0
 11
1503.385232753243
 21
874.6933033893435
 31
0.0
  0
LINE
  5
6F0C
330
1E
100
AcDbEntity
  8
躯体と製品
  6
Continuous
 62
     3
100
AcDbLine
 10
1502.885232753242
 20
887.6933033893434
 30
0.0
 11
1503.385232753243
 21
887.6933033893434
 31
0.0
  0
LINE
  5
6F0D
330
1E
100
AcDbEntity
  8
躯体と製品
  6
Continuous
 62
     3
100
AcDbLine
 10
1502.885232753242
 20
846.1933033893435
 30
0.0
 11
1502.885232753242
 21
836.1933033893436
 31
0.0
  0
LINE
  5
6F0E
330
1E
100
AcDbEntity
  8
躯体と製品
  6
Continuous
 62
     3
100
AcDbLine
 10
1505.385232753243
 20
840.6933033893436
 30
0.0
 11
1504.885232753243
 21
841.1933033893435
 31
0.0
  0
LINE
  5
6F0F
330
1E
100
AcDbEntity
  8
躯体と製品
  6
Continuous
 62
     3
100
AcDbLine
 10
1505.385232753243
 20
841.6933033893435
 30
0.0
 11
1504.885232753243
 21
841.1933033893435
 31
0.0
  0
LINE
  5
6F10
330
1E
100
AcDbEntity
  8
躯体と製品
  6
Continuous
 62
     3
100
AcDbLine
 10
1502.885232753242
 20
836.1933033893436
 30
0.0
 11
1503.385232753243
 21
836.1933033893436
 31
0.0
  0
LINE
  5
6F11
330
1E
100
AcDbEntity
  8
躯体と製品
  6
Continuous
 62
     3
100
AcDbLine
 10
1502.885232753242
 20
846.1933033893435
 30
0.0
 11
1503.385232753243
 21
846.1933033893435
 31
0.0
  0
LINE
  5
6F12
330
1E
100
AcDbEntity
  8
躯体と製品
  6
DASHED1
 62
     7
100
AcDbLine
 10
1487.970586753243
 20
838.9336763893435
 30
0.0
 11
1488.885232753243
 21
837.1933013893439
 31
0.0
  0
LINE
  5
6F13
330
1E
100
AcDbEntity
  8
躯体と製品
  6
DASHED1
 62
     7
100
AcDbLine
 10
1488.885232753243
 20
837.1933013893439
 30
0.0
 11
1500.885232753243
 21
837.1933013893439
 31
0.0
  0
LINE
  5
6F14
330
1E
100
AcDbEntity
  8
躯体と製品
  6
DASHED1
 62
     7
100
AcDbLine
 10
1481.084851753243
 20
844.7523593893436
 30
0.0
 11
1486.084852753243
 21
846.5722103893435
 31
0.0
  0
LINE
  5
6F15
330
1E
100
AcDbEntity
  8
躯体と製品
  6
DASHED1
 62
     7
100
AcDbLine
 10
1481.084851753243
 20
845.8165373893436
 30
0.0
 11
1485.742831753243
 21
847.5119033893438
 31
0.0
  0
LINE
  5
6F16
330
1E
100
AcDbEntity
  8
躯体と製品
  6
DASHED1
 62
     7
100
AcDbLine
 10
1481.084851753243
 20
837.6342443893438
 30
0.0
 11
1486.084852753243
 21
835.8143933893437
 31
0.0
  0
LINE
  5
6F17
330
1E
100
AcDbEntity
  8
躯体と製品
  6
DASHED1
 62
     7
100
AcDbLine
 10
1485.742831753243
 20
834.8747003893436
 30
0.0
 11
1492.546453753243
 21
833.8823453893436
 31
0.0
  0
ARC
  5
6F18
330
1E
100
AcDbEntity
  8
躯体と製品
  6
DASHED1
 62
     7
100
AcDbCircle
 10
1492.604185753243
 20
834.2781563893435
 30
0.0
 40
0.3999990000000001
100
AcDbArc
 50
261.7015340000029
 51
351.8698979999985
  0
LINE
  5
6F19
330
1E
100
AcDbEntity
  8
躯体と製品
  6
DASHED1
 62
     7
100
AcDbLine
 10
1493.000167753242
 20
834.2215883893436
 30
0.0
 11
1493.028283753243
 21
834.4184153893436
 31
0.0
  0
ARC
  5
6F1A
330
1E
100
AcDbEntity
  8
躯体と製品
  6
DASHED1
 62
     7
100
AcDbCircle
 10
1492.632304753243
 20
834.4749833893436
 30
0.0
 40
0.3999990000000001
100
AcDbArc
 50
351.8698979999985
 51
81.86989800000221
  0
LINE
  5
6F1B
330
1E
100
AcDbEntity
  8
躯体と製品
  6
DASHED1
 62
     7
100
AcDbLine
 10
1492.688872753243
 20
834.8709623893439
 30
0.0
 11
1486.084852753243
 21
835.8143933893437
 31
0.0
  0
LINE
  5
6F1C
330
1E
100
AcDbEntity
  8
躯体と製品
  6
DASHED1
 62
     7
100
AcDbLine
 10
1485.742831753243
 20
847.5119033893438
 30
0.0
 11
1492.546453753243
 21
848.5042583893436
 31
0.0
  0
ARC
  5
6F1D
330
1E
100
AcDbEntity
  8
躯体と製品
  6
DASHED1
 62
     7
100
AcDbCircle
 10
1492.604185753243
 20
848.1084473893437
 30
0.0
 40
0.3999990000000001
100
AcDbArc
 50
8.130102000001478
 51
98.29846599999713
  0
LINE
  5
6F1E
330
1E
100
AcDbEntity
  8
躯体と製品
  6
DASHED1
 62
     7
100
AcDbLine
 10
1493.000167753242
 20
848.1650153893436
 30
0.0
 11
1493.028283753243
 21
847.9681913893436
 31
0.0
  0
ARC
  5
6F1F
330
1E
100
AcDbEntity
  8
躯体と製品
  6
DASHED1
 62
     7
100
AcDbCircle
 10
1492.632304753243
 20
847.9116203893436
 30
0.0
 40
0.3999990000000001
100
AcDbArc
 50
278.1301019999978
 51
8.130102000001478
  0
LINE
  5
6F20
330
1E
100
AcDbEntity
  8
躯体と製品
  6
DASHED1
 62
     7
100
AcDbLine
 10
1488.885232753243
 20
845.1933023893436
 30
0.0
 11
1487.970586753243
 21
843.4529273893435
 31
0.0
  0
LINE
  5
6F21
330
1E
100
AcDbEntity
  8
躯体と製品
  6
DASHED1
 62
     7
100
AcDbLine
 10
1500.885232753243
 20
846.1933013893439
 30
0.0
 11
1495.885231753243
 21
845.1933023893436
 31
0.0
  0
LINE
  5
6F22
330
1E
100
AcDbEntity
  8
躯体と製品
  6
DASHED1
 62
     7
100
AcDbLine
 10
1500.885232753243
 20
842.1933023893437
 30
0.0
 11
1495.885231753243
 21
841.1933033893435
 31
0.0
  0
LINE
  5
6F23
330
1E
100
AcDbEntity
  8
躯体と製品
  6
DASHED1
 62
     7
100
AcDbLine
 10
1500.885232753243
 20
840.1933013893437
 30
0.0
 11
1495.885231753243
 21
841.1933033893435
 31
0.0
  0
LINE
  5
6F24
330
1E
100
AcDbEntity
  8
躯体と製品
  6
DASHED1
 62
     7
100
AcDbLine
 10
1495.885231753243
 20
841.1933033893435
 30
0.0
 11
1500.885232753243
 21
841.1933033893435
 31
0.0
  0
LINE
  5
6F25
330
1E
100
AcDbEntity
  8
躯体と製品
  6
DASHED1
 62
     7
100
AcDbLine
 10
1466.754676753243
 20
843.0627473893437
 30
0.0
 11
1464.885232753243
 21
841.1933033893435
 31
0.0
  0
LINE
  5
6F26
330
1E
100
AcDbEntity
  8
躯体と製品
  6
DASHED1
 62
     7
100
AcDbLine
 10
1487.970586753243
 20
843.4529273893435
 30
0.0
 11
1485.973327753242
 21
843.5575973893437
 31
0.0
  0
LINE
  5
6F27
330
1E
100
AcDbEntity
  8
躯体と製品
  6
DASHED1
 62
     7
100
AcDbLine
 10
1485.973327753242
 20
843.5575973893437
 30
0.0
 11
1486.078000753242
 21
845.5548563893437
 31
0.0
  0
LINE
  5
6F28
330
1E
100
AcDbEntity
  8
躯体と製品
  6
DASHED1
 62
     7
100
AcDbLine
 10
1486.078000753242
 20
845.5548563893437
 30
0.0
 11
1484.080741753243
 21
845.6595293893439
 31
0.0
  0
LINE
  5
6F29
330
1E
100
AcDbEntity
  8
躯体と製品
  6
DASHED1
 62
     7
100
AcDbLine
 10
1463.924974753243
 20
843.2110433893438
 30
0.0
 11
1464.108151753243
 21
846.7062473893438
 31
0.0
  0
LINE
  5
6F2A
330
1E
100
AcDbEntity
  8
躯体と製品
  6
DASHED1
 62
     7
100
AcDbLine
 10
1464.108151753243
 20
846.7062473893438
 30
0.0
 11
1462.006219753243
 21
844.8136613893437
 31
0.0
  0
LINE
  5
6F2B
330
1E
100
AcDbEntity
  8
躯体と製品
  6
DASHED1
 62
     7
100
AcDbLine
 10
1462.006219753243
 20
844.8136613893437
 30
0.0
 11
1461.927715753243
 21
843.3157163893437
 31
0.0
  0
LINE
  5
6F2C
330
1E
100
AcDbEntity
  8
躯体と製品
  6
DASHED1
 62
     7
100
AcDbLine
 10
1461.927715753243
 20
843.3157163893437
 30
0.0
 11
1492.885231753243
 21
841.6933013893439
 31
0.0
  0
LINE
  5
6F2D
330
1E
100
AcDbEntity
  8
躯体と製品
  6
DASHED1
 62
     7
100
AcDbLine
 10
1484.080741753243
 20
845.6595293893439
 30
0.0
 11
1482.977440753243
 21
843.7146053893437
 31
0.0
  0
LINE
  5
6F2E
330
1E
100
AcDbEntity
  8
躯体と製品
  6
DASHED1
 62
     7
100
AcDbLine
 10
1482.977440753243
 20
843.7146053893437
 30
0.0
 11
1480.980181753243
 21
843.8192783893438
 31
0.0
  0
LINE
  5
6F2F
330
1E
100
AcDbEntity
  8
躯体と製品
  6
DASHED1
 62
     7
100
AcDbLine
 10
1480.980181753243
 20
843.8192783893438
 30
0.0
 11
1481.084851753243
 21
845.8165373893436
 31
0.0
  0
LINE
  5
6F30
330
1E
100
AcDbEntity
  8
躯体と製品
  6
DASHED1
 62
     7
100
AcDbLine
 10
1481.084851753243
 20
845.8165373893436
 30
0.0
 11
1479.087592753243
 21
845.9212073893436
 31
0.0
  0
LINE
  5
6F31
330
1E
100
AcDbEntity
  8
躯体と製品
  6
DASHED1
 62
     7
100
AcDbLine
 10
1479.087592753243
 20
845.9212073893436
 30
0.0
 11
1477.984291753243
 21
843.9762863893438
 31
0.0
  0
LINE
  5
6F32
330
1E
100
AcDbEntity
  8
躯体と製品
  6
DASHED1
 62
     7
100
AcDbLine
 10
1477.984291753243
 20
843.9762863893438
 30
0.0
 11
1475.987032753243
 21
844.0809563893438
 31
0.0
  0
LINE
  5
6F33
330
1E
100
AcDbEntity
  8
躯体と製品
  6
DASHED1
 62
     7
100
AcDbLine
 10
1475.987032753243
 20
844.0809563893438
 30
0.0
 11
1476.091705753243
 21
846.0782153893436
 31
0.0
  0
LINE
  5
6F34
330
1E
100
AcDbEntity
  8
躯体と製品
  6
DASHED1
 62
     7
100
AcDbLine
 10
1476.091705753243
 20
846.0782153893436
 30
0.0
 11
1474.094446753243
 21
846.1828883893435
 31
0.0
  0
LINE
  5
6F35
330
1E
100
AcDbEntity
  8
躯体と製品
  6
DASHED1
 62
     7
100
AcDbLine
 10
1474.094446753243
 20
846.1828883893435
 30
0.0
 11
1472.991145753242
 21
844.2379643893435
 31
0.0
  0
LINE
  5
6F36
330
1E
100
AcDbEntity
  8
躯体と製品
  6
DASHED1
 62
     7
100
AcDbLine
 10
1472.991145753242
 20
844.2379643893435
 30
0.0
 11
1470.993886753243
 21
844.3426373893439
 31
0.0
  0
LINE
  5
6F37
330
1E
100
AcDbEntity
  8
躯体と製品
  6
DASHED1
 62
     7
100
AcDbLine
 10
1470.993886753243
 20
844.3426373893439
 30
0.0
 11
1471.098556753243
 21
846.3398963893439
 31
0.0
  0
LINE
  5
6F38
330
1E
100
AcDbEntity
  8
躯体と製品
  6
DASHED1
 62
     7
100
AcDbLine
 10
1471.098556753243
 20
846.3398963893439
 30
0.0
 11
1469.101297753243
 21
846.4445693893436
 31
0.0
  0
LINE
  5
6F39
330
1E
100
AcDbEntity
  8
躯体と製品
  6
DASHED1
 62
     7
100
AcDbLine
 10
1469.101297753243
 20
846.4445693893436
 30
0.0
 11
1467.997996753243
 21
844.4996453893436
 31
0.0
  0
LINE
  5
6F3A
330
1E
100
AcDbEntity
  8
躯体と製品
  6
DASHED1
 62
     7
100
AcDbLine
 10
1467.997996753243
 20
844.4996453893436
 30
0.0
 11
1466.000737753243
 21
844.6043183893435
 31
0.0
  0
LINE
  5
6F3B
330
1E
100
AcDbEntity
  8
躯体と製品
  6
DASHED1
 62
     7
100
AcDbLine
 10
1466.000737753243
 20
844.6043183893435
 30
0.0
 11
1466.105410753243
 21
846.6015773893436
 31
0.0
  0
LINE
  5
6F3C
330
1E
100
AcDbEntity
  8
躯体と製品
  6
DASHED1
 62
     7
100
AcDbLine
 10
1466.105410753243
 20
846.6015773893436
 30
0.0
 11
1464.108151753243
 21
846.7062473893438
 31
0.0
  0
LINE
  5
6F3D
330
1E
100
AcDbEntity
  8
躯体と製品
  6
DASHED1
 62
     7
100
AcDbLine
 10
1492.885231753243
 20
840.6933023893436
 30
0.0
 11
1492.885231753243
 21
841.6933013893439
 31
0.0
  0
LINE
  5
6F3E
330
1E
100
AcDbEntity
  8
躯体と製品
  6
DASHED1
 62
     7
100
AcDbLine
 10
1500.885232753243
 20
836.1933023893437
 30
0.0
 11
1495.885231753243
 21
837.1933013893439
 31
0.0
  0
LINE
  5
6F3F
330
1E
100
AcDbEntity
  8
躯体と製品
  6
DASHED1
 62
     7
100
AcDbLine
 10
1487.970586753243
 20
838.9336763893435
 30
0.0
 11
1485.973327753242
 21
838.8290063893437
 31
0.0
  0
LINE
  5
6F40
330
1E
100
AcDbEntity
  8
躯体と製品
  6
DASHED1
 62
     7
100
AcDbLine
 10
1485.973327753242
 20
838.8290063893437
 30
0.0
 11
1486.078000753242
 21
836.8317473893439
 31
0.0
  0
LINE
  5
6F41
330
1E
100
AcDbEntity
  8
躯体と製品
  6
DASHED1
 62
     7
100
AcDbLine
 10
1486.078000753242
 20
836.8317473893439
 30
0.0
 11
1484.080741753243
 21
836.7270743893437
 31
0.0
  0
LINE
  5
6F42
330
1E
100
AcDbEntity
  8
躯体と製品
  6
DASHED1
 62
     7
100
AcDbLine
 10
1463.924974753243
 20
839.1755603893436
 30
0.0
 11
1464.108151753243
 21
835.6803563893436
 31
0.0
  0
LINE
  5
6F43
330
1E
100
AcDbEntity
  8
躯体と製品
  6
DASHED1
 62
     7
100
AcDbLine
 10
1464.108151753243
 20
835.6803563893436
 30
0.0
 11
1462.006219753243
 21
837.5729423893435
 31
0.0
  0
LINE
  5
6F44
330
1E
100
AcDbEntity
  8
躯体と製品
  6
DASHED1
 62
     7
100
AcDbLine
 10
1462.006219753243
 20
837.5729423893435
 30
0.0
 11
1461.927715753243
 21
839.0708873893435
 31
0.0
  0
LINE
  5
6F45
330
1E
100
AcDbEntity
  8
躯体と製品
  6
DASHED1
 62
     7
100
AcDbLine
 10
1461.927715753243
 20
839.0708873893435
 30
0.0
 11
1492.885231753243
 21
840.6933023893436
 31
0.0
  0
LINE
  5
6F46
330
1E
100
AcDbEntity
  8
躯体と製品
  6
DASHED1
 62
     7
100
AcDbLine
 10
1484.080741753243
 20
836.7270743893437
 30
0.0
 11
1482.977440753243
 21
838.6719983893437
 31
0.0
  0
LINE
  5
6F47
330
1E
100
AcDbEntity
  8
躯体と製品
  6
DASHED1
 62
     7
100
AcDbLine
 10
1482.977440753243
 20
838.6719983893437
 30
0.0
 11
1480.980181753243
 21
838.5673253893438
 31
0.0
  0
LINE
  5
6F48
330
1E
100
AcDbEntity
  8
躯体と製品
  6
DASHED1
 62
     7
100
AcDbLine
 10
1480.980181753243
 20
838.5673253893438
 30
0.0
 11
1481.084851753243
 21
836.5700663893434
 31
0.0
  0
LINE
  5
6F49
330
1E
100
AcDbEntity
  8
躯体と製品
  6
DASHED1
 62
     7
100
AcDbLine
 10
1481.084851753243
 20
836.5700663893434
 30
0.0
 11
1479.087592753243
 21
836.4653963893438
 31
0.0
  0
LINE
  5
6F4A
330
1E
100
AcDbEntity
  8
躯体と製品
  6
DASHED1
 62
     7
100
AcDbLine
 10
1479.087592753243
 20
836.4653963893438
 30
0.0
 11
1477.984291753243
 21
838.4103173893436
 31
0.0
  0
LINE
  5
6F4B
330
1E
100
AcDbEntity
  8
躯体と製品
  6
DASHED1
 62
     7
100
AcDbLine
 10
1477.984291753243
 20
838.4103173893436
 30
0.0
 11
1475.987032753243
 21
838.3056473893436
 31
0.0
  0
LINE
  5
6F4C
330
1E
100
AcDbEntity
  8
躯体と製品
  6
DASHED1
 62
     7
100
AcDbLine
 10
1475.987032753243
 20
838.3056473893436
 30
0.0
 11
1476.091705753243
 21
836.3083883893436
 31
0.0
  0
LINE
  5
6F4D
330
1E
100
AcDbEntity
  8
躯体と製品
  6
DASHED1
 62
     7
100
AcDbLine
 10
1476.091705753243
 20
836.3083883893436
 30
0.0
 11
1474.094446753243
 21
836.2037153893435
 31
0.0
  0
LINE
  5
6F4E
330
1E
100
AcDbEntity
  8
躯体と製品
  6
DASHED1
 62
     7
100
AcDbLine
 10
1474.094446753243
 20
836.2037153893435
 30
0.0
 11
1472.991145753242
 21
838.1486393893437
 31
0.0
  0
LINE
  5
6F4F
330
1E
100
AcDbEntity
  8
躯体と製品
  6
DASHED1
 62
     7
100
AcDbLine
 10
1472.991145753242
 20
838.1486393893437
 30
0.0
 11
1470.993886753243
 21
838.0439663893437
 31
0.0
  0
LINE
  5
6F50
330
1E
100
AcDbEntity
  8
躯体と製品
  6
DASHED1
 62
     7
100
AcDbLine
 10
1470.993886753243
 20
838.0439663893437
 30
0.0
 11
1471.098556753243
 21
836.0467073893437
 31
0.0
  0
LINE
  5
6F51
330
1E
100
AcDbEntity
  8
躯体と製品
  6
DASHED1
 62
     7
100
AcDbLine
 10
1471.098556753243
 20
836.0467073893437
 30
0.0
 11
1469.101297753243
 21
835.9420343893436
 31
0.0
  0
LINE
  5
6F52
330
1E
100
AcDbEntity
  8
躯体と製品
  6
DASHED1
 62
     7
100
AcDbLine
 10
1469.101297753243
 20
835.9420343893436
 30
0.0
 11
1467.997996753243
 21
837.8869583893436
 31
0.0
  0
LINE
  5
6F53
330
1E
100
AcDbEntity
  8
躯体と製品
  6
DASHED1
 62
     7
100
AcDbLine
 10
1467.997996753243
 20
837.8869583893436
 30
0.0
 11
1466.000737753243
 21
837.7822853893436
 31
0.0
  0
LINE
  5
6F54
330
1E
100
AcDbEntity
  8
躯体と製品
  6
DASHED1
 62
     7
100
AcDbLine
 10
1466.000737753243
 20
837.7822853893436
 30
0.0
 11
1466.105410753243
 21
835.7850263893439
 31
0.0
  0
LINE
  5
6F55
330
1E
100
AcDbEntity
  8
躯体と製品
  6
DASHED1
 62
     7
100
AcDbLine
 10
1466.105410753243
 20
835.7850263893439
 30
0.0
 11
1464.108151753243
 21
835.6803563893436
 31
0.0
  0
LINE
  5
6F56
330
1E
100
AcDbEntity
  8
躯体と製品
  6
DASHED1
 62
     7
100
AcDbLine
 10
1466.754676753243
 20
839.3238563893437
 30
0.0
 11
1464.885232753243
 21
841.1933033893435
 31
0.0
  0
LINE
  5
6F57
330
1E
100
AcDbEntity
  8
躯体と製品
  6
DASHED1
 62
     7
100
AcDbLine
 10
1492.688872753243
 20
847.5156413893436
 30
0.0
 11
1486.084852753243
 21
846.5722103893435
 31
0.0
  0
LINE
  5
6F58
330
1E
100
AcDbEntity
  8
躯体と製品
  6
DASHED1
 62
     7
100
AcDbLine
 10
1481.084851753243
 20
836.5700663893434
 30
0.0
 11
1485.742831753243
 21
834.8747003893436
 31
0.0
  0
LINE
  5
6F59
330
1E
100
AcDbEntity
  8
躯体と製品
  6
DASHED1
 62
     7
100
AcDbLine
 10
1488.885232753243
 20
845.1933023893436
 30
0.0
 11
1500.885232753243
 21
845.1933023893436
 31
0.0
  0
LINE
  5
6F5A
330
1E
100
AcDbEntity
  8
躯体と製品
  6
Continuous
 62
     4
100
AcDbLine
 10
1548.124573334857
 20
840.7390542336841
 30
0.0
 11
1547.136462232238
 21
841.7271653363032
 31
0.0
  0
LINE
  5
6F5B
330
1E
100
AcDbEntity
  8
躯体と製品
  6
Continuous
 62
     4
100
AcDbLine
 10
1535.08422508904
 20
839.6372668557706
 30
0.0
 11
1533.147733156931
 21
841.5737587878789
 31
0.0
  0
LINE
  5
6F5C
330
1E
100
AcDbEntity
  8
躯体と製品
  6
Continuous
 62
     4
100
AcDbLine
 10
1797.781957023501
 20
827.6550651729484
 30
0.0
 11
1796.793845920882
 21
828.6431762755672
 31
0.0
  0
LINE
  5
6F5D
330
1E
100
AcDbEntity
  8
躯体と製品
  6
Continuous
 62
     4
100
AcDbLine
 10
1786.234037199377
 20
826.4750629357145
 30
0.0
 11
1783.361990125646
 21
829.3471100094455
 31
0.0
  0
LINE
  5
6F5E
330
1E
100
AcDbEntity
  8
躯体と製品
  6
Continuous
 62
     4
100
AcDbLine
 10
1784.741608777683
 20
826.5532777950348
 30
0.0
 11
1782.805116845575
 21
828.4897697271432
 31
0.0
  0
LINE
  5
6F5F
330
1E
100
AcDbEntity
  8
躯体と製品
  6
Continuous
 62
     7
100
AcDbLine
 10
1548.031271068064
 20
838.9587409277339
 30
0.0
 11
1548.1735097144
 21
841.6728159807517
 31
0.0
  0
LINE
  5
6F60
330
1E
100
AcDbEntity
  8
躯体と製品
  6
Continuous
 62
     4
100
AcDbLine
 10
1536.576653510733
 20
839.5590519964505
 30
0.0
 11
1533.704606437002
 21
842.4310990701815
 31
0.0
  0
LINE
  5
6F61
330
1E
100
AcDbEntity
  8
躯体と製品
  6
Continuous
 62
     4
100
AcDbLine
 10
1538.069081932426
 20
839.4808371371301
 30
0.0
 11
1535.197034858695
 21
842.3528842108614
 31
0.0
  0
LINE
  5
6F62
330
1E
100
AcDbEntity
  8
躯体と製品
  6
Continuous
 62
     4
100
AcDbLine
 10
1539.561510354119
 20
839.4026222778107
 30
0.0
 11
1536.689463280388
 21
842.2746693515419
 31
0.0
  0
LINE
  5
6F63
330
1E
100
AcDbEntity
  8
躯体と製品
  6
Continuous
 62
     4
100
AcDbLine
 10
1541.053938775812
 20
839.3244074184908
 30
0.0
 11
1538.181891702081
 21
842.1964544922218
 31
0.0
  0
LINE
  5
6F64
330
1E
100
AcDbEntity
  8
躯体と製品
  6
Continuous
 62
     4
100
AcDbLine
 10
1542.546367197505
 20
839.2461925591712
 30
0.0
 11
1539.674320123774
 21
842.1182396329021
 31
0.0
  0
LINE
  5
6F65
330
1E
100
AcDbEntity
  8
躯体と製品
  6
Continuous
 62
     4
100
AcDbLine
 10
1544.038795619199
 20
839.1679776998511
 30
0.0
 11
1541.166748545468
 21
842.0400247735823
 31
0.0
  0
LINE
  5
6F66
330
1E
100
AcDbEntity
  8
躯体と製品
  6
Continuous
 62
     4
100
AcDbLine
 10
1545.531224040892
 20
839.0897628405316
 30
0.0
 11
1542.659176967161
 21
841.9618099142624
 31
0.0
  0
LINE
  5
6F67
330
1E
100
AcDbEntity
  8
躯体と製品
  6
Continuous
 62
     4
100
AcDbLine
 10
1547.023652462583
 20
839.011547981212
 30
0.0
 11
1544.151605388852
 21
841.8835950549425
 31
0.0
  0
LINE
  5
6F68
330
1E
100
AcDbEntity
  8
躯体と製品
  6
Continuous
 62
     4
100
AcDbLine
 10
1548.054148359202
 20
839.3952656469666
 30
0.0
 11
1545.644033810545
 21
841.8053801956229
 31
0.0
  0
LINE
  5
6F69
330
1E
100
AcDbEntity
  8
躯体と製品
  6
Continuous
 62
     7
100
AcDbLine
 10
1782.709211735389
 20
826.6597912106419
 30
0.0
 11
1782.851450381725
 21
829.37386626366
 31
0.0
  0
LINE
  5
6F6A
330
1E
100
AcDbEntity
  8
躯体と製品
  6
Continuous
 62
     4
100
AcDbLine
 10
1787.72646562107
 20
826.3968480763944
 30
0.0
 11
1784.854418547339
 21
829.2688951501256
 31
0.0
  0
LINE
  5
6F6B
330
1E
100
AcDbEntity
  8
躯体と製品
  6
Continuous
 62
     4
100
AcDbLine
 10
1789.218894042763
 20
826.3186332170747
 30
0.0
 11
1786.346846969031
 21
829.1906802908057
 31
0.0
  0
LINE
  5
6F6C
330
1E
100
AcDbEntity
  8
躯体と製品
  6
Continuous
 62
     4
100
AcDbLine
 10
1790.711322464456
 20
826.2404183577549
 30
0.0
 11
1787.839275390725
 21
829.112465431486
 31
0.0
  0
LINE
  5
6F6D
330
1E
100
AcDbEntity
  8
躯体と製品
  6
Continuous
 62
     4
100
AcDbLine
 10
1792.203750886149
 20
826.1622034984352
 30
0.0
 11
1789.331703812418
 21
829.034250572166
 31
0.0
  0
LINE
  5
6F6E
330
1E
100
AcDbEntity
  8
躯体と製品
  6
Continuous
 62
     4
100
AcDbLine
 10
1793.696179307843
 20
826.0839886391151
 30
0.0
 11
1790.824132234112
 21
828.9560357128463
 31
0.0
  0
LINE
  5
6F6F
330
1E
100
AcDbEntity
  8
躯体と製品
  6
Continuous
 62
     4
100
AcDbLine
 10
1795.188607729536
 20
826.0057737797957
 30
0.0
 11
1792.316560655805
 21
828.8778208535264
 31
0.0
  0
LINE
  5
6F70
330
1E
100
AcDbEntity
  8
躯体と製品
  6
Continuous
 62
     4
100
AcDbLine
 10
1796.681036151227
 20
825.927558920476
 30
0.0
 11
1793.808989077496
 21
828.7996059942068
 31
0.0
  0
LINE
  5
6F71
330
1E
100
AcDbEntity
  8
躯体と製品
  6
Continuous
 62
     4
100
AcDbLine
 10
1797.711532047846
 20
826.3112765862308
 30
0.0
 11
1795.301417499189
 21
828.7213911348869
 31
0.0
  0
LINE
  5
6F72
330
1E
100
AcDbEntity
  8
躯体と製品
  6
Continuous
 62
     7
100
AcDbLine
 10
1797.688654756708
 20
825.8747518669979
 30
0.0
 11
1797.830893403044
 21
828.588826920016
 31
0.0
  0
LINE
  5
6F73
330
1E
100
AcDbEntity
  8
躯体と製品
  6
Continuous
 62
     7
100
AcDbLine
 10
1533.051828046746
 20
839.7437802713779
 30
0.0
 11
1533.194066693082
 21
842.4578553243961
 31
0.0
  0
LINE
  5
6F74
330
1E
100
AcDbEntity
  8
躯体と製品
  6
Continuous
 62
     3
100
AcDbLine
 10
1515.385232753242
 20
856.8146236128757
 30
0.0
 11
1516.885232753242
 21
856.8146236128757
 31
0.0
  0
LINE
  5
6F75
330
1E
100
AcDbEntity
  8
躯体と製品
  6
Continuous
 62
     3
100
AcDbLine
 10
1515.385232753242
 20
845.7635881795907
 30
0.0
 11
1515.385232753242
 21
856.8146236128757
 31
0.0
  0
LINE
  5
6F76
330
1E
100
AcDbEntity
  8
躯体と製品
  6
Continuous
 62
     3
100
AcDbLine
 10
1823.885232753243
 20
740.068212035133
 30
0.0
 11
1816.885232753243
 21
740.068212035133
 31
0.0
  0
LINE
  5
6F77
330
1E
100
AcDbEntity
  8
躯体と製品
  6
Continuous
 62
     3
100
AcDbLine
 10
1816.885232753243
 20
738.5682120351331
 30
0.0
 11
1816.885232753243
 21
740.068212035133
 31
0.0
  0
LINE
  5
6F78
330
1E
100
AcDbEntity
  8
躯体と製品
  6
Continuous
 62
     3
100
AcDbLine
 10
1517.754392862635
 20
843.2670143427042
 30
0.0
 11
1823.963736687607
 21
827.2192626371202
 31
0.0
  0
LINE
  5
6F79
330
1E
100
AcDbEntity
  8
躯体と製品
  6
Continuous
 62
     3
100
AcDbLine
 10
1517.832896797
 20
844.764958644836
 30
0.0
 11
1824.042240621972
 21
828.7172069392521
 31
0.0
  0
LINE
  5
6F7A
330
1E
100
AcDbEntity
  8
躯体と製品
  6
Continuous
 62
     3
100
AcDbLine
 10
1516.885232753242
 20
845.7635881795907
 30
0.0
 11
1516.885232753242
 21
856.8146236128757
 31
0.0
  0
ARC
  5
6F7B
330
1E
100
AcDbEntity
  8
躯体と製品
  6
Continuous
 62
     3
100
AcDbCircle
 10
1517.885232753243
 20
845.7635881795907
 30
0.0
 40
1.0
100
AcDbArc
 50
180.0
 51
266.9999999999944
  0
LINE
  5
6F7C
330
1E
100
AcDbEntity
  8
躯体と製品
  6
Continuous
 62
     3
100
AcDbLine
 10
1823.885232753243
 20
738.5682120351331
 30
0.0
 11
1816.885232753243
 21
738.5682120351331
 31
0.0
  0
ARC
  5
6F7D
330
1E
100
AcDbEntity
  8
躯体と製品
  6
Continuous
 62
     3
100
AcDbCircle
 10
1823.885232753243
 20
825.7213183349884
 30
0.0
 40
3.0
100
AcDbArc
 50
0.0
 51
86.99999999999441
  0
ARC
  5
6F7E
330
1E
100
AcDbEntity
  8
躯体と製品
  6
Continuous
 62
     3
100
AcDbCircle
 10
1823.885232753243
 20
741.568212035133
 30
0.0
 40
3.0
100
AcDbArc
 50
270.0
 51
0.0
  0
LINE
  5
6F7F
330
1E
100
AcDbEntity
  8
躯体と製品
  6
Continuous
 62
     3
100
AcDbLine
 10
1826.885232753243
 20
825.7213183349884
 30
0.0
 11
1826.885232753243
 21
741.568212035133
 31
0.0
  0
POINT
  5
6F80
330
1E
100
AcDbEntity
  8
躯体と製品
 62
     4
100
AcDbPoint
 10
1826.885232753243
 20
828.568212035133
 30
0.0
  0
POINT
  5
6F81
330
1E
100
AcDbEntity
  8
躯体と製品
 62
     4
100
AcDbPoint
 10
1826.885232753243
 20
738.5682120351331
 30
0.0
  0
ARC
  5
6F82
330
1E
100
AcDbEntity
  8
躯体と製品
  6
Continuous
 62
     3
100
AcDbCircle
 10
1517.885232753243
 20
845.7635881795907
 30
0.0
 40
2.5
100
AcDbArc
 50
180.0
 51
266.9999999999944
  0
LINE
  5
6F83
330
1E
100
AcDbEntity
  8
躯体と製品
  6
Continuous
 62
     3
100
AcDbLine
 10
1825.385232753243
 20
741.568212035133
 30
0.0
 11
1825.385232753243
 21
825.7213183349884
 31
0.0
  0
ARC
  5
6F84
330
1E
100
AcDbEntity
  8
躯体と製品
  6
Continuous
 62
     3
100
AcDbCircle
 10
1823.885232753243
 20
825.7213183349884
 30
0.0
 40
1.5
100
AcDbArc
 50
0.0
 51
87.00000000000741
  0
ARC
  5
6F85
330
1E
100
AcDbEntity
  8
躯体と製品
  6
Continuous
 62
     3
100
AcDbCircle
 10
1823.885232753243
 20
741.568212035133
 30
0.0
 40
1.5
100
AcDbArc
 50
270.0
 51
0.0
  0
LINE
  5
6F86
330
1E
100
AcDbEntity
  8
躯体と製品
  6
DASHED1
 62
     4
100
AcDbLine
 10
1796.631468440601
 20
805.7024352649555
 30
0.0
 11
1531.994641730638
 21
819.5714636693358
 31
0.0
  0
LINE
  5
6F87
330
1E
100
AcDbEntity
  8
躯体と製品
  6
Continuous
 62
     7
100
AcDbLine
 10
1533.025660068624
 20
839.2444655040007
 30
0.0
 11
1548.005103089942
 21
838.4594261603567
 31
0.0
  0
LINE
  5
6F88
330
1E
100
AcDbEntity
  8
躯体と製品
  6
Continuous
 62
     7
100
AcDbLine
 10
1547.795759264971
 20
834.4649080213384
 30
0.0
 11
1548.005103089942
 21
838.4594261603567
 31
0.0
  0
LINE
  5
6F89
330
1E
100
AcDbEntity
  8
躯体と製品
  6
Continuous
 62
     3
100
AcDbLine
 10
1507.885232753243
 20
825.6933033893435
 30
0.0
 11
1507.885232753243
 21
823.4433033893434
 31
0.0
  0
ARC
  5
6F8A
330
1E
100
AcDbEntity
  8
躯体と製品
  6
Continuous
 62
     3
100
AcDbCircle
 10
1508.885232753242
 20
825.6933033893435
 30
0.0
 40
1.0
100
AcDbArc
 50
90.0
 51
180.0
  0
ARC
  5
6F8B
330
1E
100
AcDbEntity
  8
躯体と製品
  6
Continuous
 62
     3
100
AcDbCircle
 10
1508.635232753243
 20
823.4433033893434
 30
0.0
 40
0.75
100
AcDbArc
 50
180.0
 51
0.0
  0
LINE
  5
6F8C
330
1E
100
AcDbEntity
  8
躯体と製品
  6
Continuous
 62
     3
100
AcDbLine
 10
1509.385232753243
 20
824.6933033893435
 30
0.0
 11
1509.385232753243
 21
823.4433033893434
 31
0.0
  0
ARC
  5
6F8D
330
1E
100
AcDbEntity
  8
躯体と製品
  6
Continuous
 62
     3
100
AcDbCircle
 10
1509.885232753243
 20
824.6933033893435
 30
0.0
 40
0.5
100
AcDbArc
 50
90.0
 51
180.0
  0
ARC
  5
6F8E
330
1E
100
AcDbEntity
  8
躯体と製品
  6
Continuous
 62
     3
100
AcDbCircle
 10
1512.385232753242
 20
857.1933033893438
 30
0.0
 40
1.5
100
AcDbArc
 50
90.0
 51
180.0
  0
LINE
  5
6F8F
330
1E
100
AcDbEntity
  8
躯体と製品
  6
Continuous
 62
     3
100
AcDbLine
 10
1510.885232753242
 20
827.1933033893436
 30
0.0
 11
1510.885232753242
 21
857.1933033893438
 31
0.0
  0
ARC
  5
6F90
330
1E
100
AcDbEntity
  8
躯体と製品
  6
Continuous
 62
     3
100
AcDbCircle
 10
1510.385232753242
 20
827.1933033893436
 30
0.0
 40
0.5
100
AcDbArc
 50
270.0
 51
0.0
  0
LINE
  5
6F91
330
1E
100
AcDbEntity
  8
躯体と製品
  6
Continuous
 62
     3
100
AcDbLine
 10
1510.385232753242
 20
826.6933033893435
 30
0.0
 11
1508.885232753242
 21
826.6933033893435
 31
0.0
  0
LINE
  5
6F92
330
1E
100
AcDbEntity
  8
躯体と製品
  6
Continuous
 62
     3
100
AcDbLine
 10
1512.885232753243
 20
828.6933033893435
 30
0.0
 11
1512.885232753243
 21
856.6933033893437
 31
0.0
  0
ARC
  5
6F93
330
1E
100
AcDbEntity
  8
躯体と製品
  6
Continuous
 62
     3
100
AcDbCircle
 10
1513.385232753243
 20
856.6933033893437
 30
0.0
 40
0.5
100
AcDbArc
 50
90.0
 51
180.0
  0
ARC
  5
6F94
330
1E
100
AcDbEntity
  8
躯体と製品
  6
Continuous
 62
     3
100
AcDbCircle
 10
1513.885232753243
 20
828.6933033893435
 30
0.0
 40
1.0
100
AcDbArc
 50
180.0
 51
270.0
  0
ARC
  5
6F95
330
1E
100
AcDbEntity
  8
躯体と製品
  6
Continuous
 62
     3
100
AcDbCircle
 10
1517.385232753243
 20
863.1933033893437
 30
0.0
 40
0.5
100
AcDbArc
 50
0.0
 51
90.0
  0
LINE
  5
6F96
330
1E
100
AcDbEntity
  8
躯体と製品
  6
Continuous
 62
     3
100
AcDbLine
 10
1517.885232753243
 20
859.6933033893437
 30
0.0
 11
1517.885232753243
 21
863.1933033893437
 31
0.0
  0
ARC
  5
6F97
330
1E
100
AcDbEntity
  8
躯体と製品
  6
Continuous
 62
     3
100
AcDbCircle
 10
1518.385232753243
 20
864.1933033893437
 30
0.0
 40
1.0
100
AcDbArc
 50
0.0
 51
90.0
  0
ARC
  5
6F98
330
1E
100
AcDbEntity
  8
躯体と製品
  6
Continuous
 62
     3
100
AcDbCircle
 10
1517.885232753243
 20
851.1933033893438
 30
0.0
 40
1.0
100
AcDbArc
 50
90.0
 51
270.0
  0
ARC
  5
6F99
330
1E
100
AcDbEntity
  8
躯体と製品
  6
Continuous
 62
     3
100
AcDbCircle
 10
1517.385232753243
 20
856.6933033893437
 30
0.0
 40
0.5
100
AcDbArc
 50
0.0
 51
90.0
  0
LINE
  5
6F9A
330
1E
100
AcDbEntity
  8
躯体と製品
  6
Continuous
 62
     3
100
AcDbLine
 10
1517.885232753243
 20
856.6933033893437
 30
0.0
 11
1517.885232753243
 21
852.1933033893438
 31
0.0
  0
ARC
  5
6F9B
330
1E
100
AcDbEntity
  8
躯体と製品
  6
Continuous
 62
     3
100
AcDbCircle
 10
1518.885232753242
 20
850.6933033893437
 30
0.0
 40
0.5
100
AcDbArc
 50
270.0
 51
0.0
  0
LINE
  5
6F9C
330
1E
100
AcDbEntity
  8
躯体と製品
  6
Continuous
 62
     3
100
AcDbLine
 10
1518.885232753242
 20
850.1933033893438
 30
0.0
 11
1517.885232753243
 21
850.1933033893438
 31
0.0
  0
ARC
  5
6F9D
330
1E
100
AcDbEntity
  8
躯体と製品
  6
Continuous
 62
     3
100
AcDbCircle
 10
1520.385232753243
 20
824.1933033893435
 30
0.0
 40
1.0
100
AcDbArc
 50
0.0
 51
90.0
  0
ARC
  5
6F9E
330
1E
100
AcDbEntity
  8
躯体と製品
  6
Continuous
 62
     3
100
AcDbCircle
 10
1521.885232753243
 20
825.6933033893435
 30
0.0
 40
2.0
100
AcDbArc
 50
0.0
 51
90.0
  0
LINE
  5
6F9F
330
1E
100
AcDbEntity
  8
躯体と製品
  6
Continuous
 62
     3
100
AcDbLine
 10
1513.385232753243
 20
857.1933033893438
 30
0.0
 11
1517.385232753243
 21
857.1933033893438
 31
0.0
  0
LINE
  5
6FA0
330
1E
100
AcDbEntity
  8
躯体と製品
  6
Continuous
 62
     3
100
AcDbLine
 10
1521.885232753243
 20
827.6933033893435
 30
0.0
 11
1513.885232753243
 21
827.6933033893435
 31
0.0
  0
LINE
  5
6FA1
330
1E
100
AcDbEntity
  8
躯体と製品
  6
Continuous
 62
     3
100
AcDbLine
 10
1516.885232753242
 20
858.6933033893437
 30
0.0
 11
1512.385232753242
 21
858.6933033893437
 31
0.0
  0
LINE
  5
6FA2
330
1E
100
AcDbEntity
  8
躯体と製品
  6
Continuous
 62
     3
100
AcDbLine
 10
1520.385232753243
 20
825.1933033893434
 30
0.0
 11
1509.885232753243
 21
825.1933033893434
 31
0.0
  0
ARC
  5
6FA3
330
1E
100
AcDbEntity
  8
躯体と製品
  6
Continuous
 62
     3
100
AcDbCircle
 10
1516.885232753242
 20
859.6933033893437
 30
0.0
 40
1.0
100
AcDbArc
 50
270.0
 51
0.0
  0
LINE
  5
6FA4
330
1E
100
AcDbEntity
  8
躯体と製品
  6
Continuous
 62
     3
100
AcDbLine
 10
1519.385232753243
 20
850.6933033893437
 30
0.0
 11
1519.385232753243
 21
864.1933033893437
 31
0.0
  0
ARC
  5
6FA5
330
1E
100
AcDbEntity
  8
躯体と製品
  6
Continuous
 62
     3
100
AcDbCircle
 10
1510.785232753243
 20
862.2933033893435
 30
0.0
 40
0.5999999999999998
100
AcDbArc
 50
180.0
 51
0.0
  0
ARC
  5
6FA6
330
1E
100
AcDbEntity
  8
躯体と製品
  6
Continuous
 62
     3
100
AcDbCircle
 10
1506.535232753243
 20
870.4433033893437
 30
0.0
 40
0.75
100
AcDbArc
 50
0.0
 51
180.0
  0
LINE
  5
6FA7
330
1E
100
AcDbEntity
  8
躯体と製品
  6
Continuous
 62
     3
100
AcDbLine
 10
1507.285232753243
 20
870.4433033893437
 30
0.0
 11
1507.285232753243
 21
867.1933033893438
 31
0.0
  0
LINE
  5
6FA8
330
1E
100
AcDbEntity
  8
躯体と製品
  6
Continuous
 62
     3
100
AcDbLine
 10
1507.285232753243
 20
867.1933033893438
 30
0.0
 11
1510.785232753243
 21
865.1933033893438
 31
0.0
  0
LINE
  5
6FA9
330
1E
100
AcDbEntity
  8
躯体と製品
  6
Continuous
 62
     3
100
AcDbLine
 10
1511.385232753243
 20
863.1933033893437
 30
0.0
 11
1511.385232753243
 21
862.2933033893435
 31
0.0
  0
ARC
  5
6FAA
330
1E
100
AcDbEntity
  8
躯体と製品
  6
Continuous
 62
     3
100
AcDbCircle
 10
1511.885232753243
 20
863.1933033893437
 30
0.0
 40
0.5
100
AcDbArc
 50
90.0
 51
180.0
  0
LINE
  5
6FAB
330
1E
100
AcDbEntity
  8
躯体と製品
  6
Continuous
 62
     3
100
AcDbLine
 10
1518.385232753243
 20
865.1933033893438
 30
0.0
 11
1510.785232753243
 21
865.1933033893438
 31
0.0
  0
LINE
  5
6FAC
330
1E
100
AcDbEntity
  8
躯体と製品
  6
Continuous
 62
     3
100
AcDbLine
 10
1511.885232753243
 20
863.6933033893438
 30
0.0
 11
1517.385232753243
 21
863.6933033893438
 31
0.0
  0
ARC
  5
6FAD
330
1E
100
AcDbEntity
  8
躯体と製品
  6
Continuous
 62
     3
100
AcDbCircle
 10
1531.50579415451
 20
819.7973575544081
 30
0.0
 40
0.5
100
AcDbArc
 50
357.0000000000011
 51
86.99999999999441
  0
LINE
  5
6FAE
330
1E
100
AcDbEntity
  8
躯体と製品
  6
Continuous
 62
     3
100
AcDbLine
 10
1531.032647365254
 20
820.3228402999068
 30
0.0
 11
1531.531962132631
 21
820.2966723217853
 31
0.0
  0
ARC
  5
6FAF
330
1E
100
AcDbEntity
  8
躯体と製品
  6
Continuous
 62
     3
100
AcDbCircle
 10
1531.006479387132
 20
819.8235255325297
 30
0.0
 40
0.5
100
AcDbArc
 50
86.99999999999441
 51
177.0000000000011
  0
LINE
  5
6FB0
330
1E
100
AcDbEntity
  8
躯体と製品
  6
Continuous
 62
     3
100
AcDbLine
 10
1530.402492707269
 20
817.8524344411419
 30
0.0
 11
1530.507164619755
 21
819.849693510651
 31
0.0
  0
ARC
  5
6FB1
330
1E
100
AcDbEntity
  8
躯体と製品
  6
Continuous
 62
     3
100
AcDbCircle
 10
1529.903177939892
 20
817.8786024192632
 30
0.0
 40
0.5
100
AcDbArc
 50
266.9999999999944
 51
357.0000000000011
  0
LINE
  5
6FB2
330
1E
100
AcDbEntity
  8
躯体と製品
  6
Continuous
 62
     3
100
AcDbLine
 10
1531.586421271943
 20
811.7821532982501
 30
0.0
 11
1533.051828046746
 21
839.7437802713781
 31
0.0
  0
ARC
  5
6FB3
330
1E
100
AcDbEntity
  8
躯体と製品
  6
Continuous
 62
     3
100
AcDbCircle
 10
1531.139442460809
 20
812.8069508111261
 30
0.0
 40
0.5
100
AcDbArc
 50
266.9999999999944
 51
357.0000000000011
  0
LINE
  5
6FB4
330
1E
100
AcDbEntity
  8
躯体と製品
  6
Continuous
 62
     3
100
AcDbLine
 10
1530.61395971531
 20
812.3338040218701
 30
0.0
 11
1531.113274482687
 21
812.307636043749
 31
0.0
  0
ARC
  5
6FB5
330
1E
100
AcDbEntity
  8
躯体と製品
  6
Continuous
 62
     3
100
AcDbCircle
 10
1530.640127693432
 20
812.8331187892474
 30
0.0
 40
0.5
100
AcDbArc
 50
177.0000000000011
 51
266.9999999999944
  0
LINE
  5
6FB6
330
1E
100
AcDbEntity
  8
躯体と製品
  6
Continuous
 62
     3
100
AcDbLine
 10
1530.193148882297
 20
813.8579163021235
 30
0.0
 11
1530.140812926054
 21
812.859286767369
 31
0.0
  0
ARC
  5
6FB7
330
1E
100
AcDbEntity
  8
躯体と製品
  6
Continuous
 62
     3
100
AcDbCircle
 10
1529.69383411492
 20
813.8840842802448
 30
0.0
 40
0.5
100
AcDbArc
 50
357.0000000000011
 51
86.99999999999441
  0
LINE
  5
6FB8
330
1E
100
AcDbEntity
  8
躯体と製品
  6
Continuous
 62
     3
100
AcDbLine
 10
1523.885232753243
 20
818.6422679560585
 30
0.0
 11
1523.885232753243
 21
825.6933033893435
 31
0.0
  0
LINE
  5
6FB9
330
1E
100
AcDbEntity
  8
躯体と製品
  6
Continuous
 62
     3
100
AcDbLine
 10
1524.832896797
 20
817.643638421304
 30
0.0
 11
1529.87700996177
 21
817.3792876518861
 31
0.0
  0
ARC
  5
6FBA
330
1E
100
AcDbEntity
  8
躯体と製品
  6
Continuous
 62
     3
100
AcDbCircle
 10
1524.885232753242
 20
818.6422679560585
 30
0.0
 40
1.0
100
AcDbArc
 50
180.0
 51
266.9999999999944
  0
LINE
  5
6FBB
330
1E
100
AcDbEntity
  8
躯体と製品
  6
Continuous
 62
     3
100
AcDbLine
 10
1521.385232753243
 20
816.7181349329874
 30
0.0
 11
1521.385232753243
 21
824.1933033893435
 31
0.0
  0
LINE
  5
6FBC
330
1E
100
AcDbEntity
  8
躯体と製品
  6
Continuous
 62
     3
100
AcDbLine
 10
1523.280560840757
 20
814.720875863478
 30
0.0
 11
1529.720002093041
 21
814.3833990476222
 31
0.0
  0
ARC
  5
6FBD
330
1E
100
AcDbEntity
  8
躯体と製品
  6
Continuous
 62
     3
100
AcDbCircle
 10
1523.385232753242
 20
816.7181349329874
 30
0.0
 40
2.0
100
AcDbArc
 50
180.0
 51
266.9999999999944
  0
LINE
  5
6FBE
330
1E
100
AcDbEntity
  8
躯体と製品
  6
Continuous
 62
     3
100
AcDbLine
 10
1505.785232753243
 20
867.1933033893438
 30
0.0
 11
1505.785232753243
 21
870.4433033893437
 31
0.0
  0
ARC
  5
6FBF
330
1E
100
AcDbEntity
  8
躯体と製品
  6
Continuous
 62
     3
100
AcDbCircle
 10
1507.285232753243
 20
867.1933033893438
 30
0.0
 40
1.5
100
AcDbArc
 50
180.0
 51
240.2551187030594
  0
LINE
  5
6FC0
330
1E
100
AcDbEntity
  8
躯体と製品
  6
Continuous
 62
     3
100
AcDbLine
 10
1506.541024345708
 20
865.8909386761569
 30
0.0
 11
1510.185232753243
 21
863.8085338718513
 31
0.0
  0
LINE
  5
6FC1
330
1E
100
AcDbEntity
  8
躯体と製品
  6
Continuous
 62
     3
100
AcDbLine
 10
1510.185232753243
 20
863.8085338718513
 30
0.0
 11
1510.185232753243
 21
862.2933033893435
 31
0.0
  0
LINE
  5
6FC2
330
1E
100
AcDbEntity
  8
躯体と製品
  6
DASHED1
 62
     7
100
AcDbLine
 10
1531.87426903128
 20
817.2746157394001
 30
0.0
 11
1560.335210771785
 21
815.7830409864761
 31
0.0
  0
ARC
  5
6FC3
330
1E
100
AcDbEntity
  8
躯体と製品
  6
DASHED1
 62
     7
100
AcDbCircle
 10
1560.25670683742
 20
814.2850966843443
 30
0.0
 40
1.500000000000001
100
AcDbArc
 50
266.9999999999944
 51
86.99999999999441
  0
LINE
  5
6FC4
330
1E
100
AcDbEntity
  8
躯体と製品
  6
DASHED1
 62
     7
100
AcDbLine
 10
1556.682999531415
 20
812.9703282290627
 30
0.0
 11
1560.178202903056
 21
812.7871523822125
 31
0.0
  0
LINE
  5
6FC5
330
1E
100
AcDbEntity
  8
躯体と製品
  6
DASHED1
 62
     7
100
AcDbLine
 10
1556.682999531415
 20
812.9703282290627
 30
0.0
 11
1556.735335487658
 21
813.9689577638174
 31
0.0
  0
LINE
  5
6FC6
330
1E
100
AcDbEntity
  8
躯体と製品
  6
DASHED1
 62
     7
100
AcDbLine
 10
1536.762744792566
 20
815.0156768886763
 30
0.0
 11
1556.735335487658
 21
813.9689577638174
 31
0.0
  0
LINE
  5
6FC7
330
1E
100
AcDbEntity
  8
躯体と製品
  6
DASHED1
 62
     7
100
AcDbLine
 10
1536.710408836324
 20
814.0170473539217
 30
0.0
 11
1536.762744792566
 21
815.0156768886763
 31
0.0
  0
LINE
  5
6FC8
330
1E
100
AcDbEntity
  8
躯体と製品
  6
DASHED1
 62
     7
100
AcDbLine
 10
1531.717261162551
 20
814.2787271351364
 30
0.0
 11
1536.710408836324
 21
814.0170473539217
 31
0.0
  0
LINE
  5
6FC9
330
1E
100
AcDbEntity
  8
躯体と製品
  6
Continuous
 62
     4
100
AcDbLine
 10
1533.591796667348
 20
839.7154817150902
 30
0.0
 11
1533.077308181275
 21
840.2299702011628
 31
0.0
  0
LINE
  5
6FCA
330
1E
100
AcDbEntity
  8
躯体と製品
  6
Continuous
 62
     4
100
AcDbLine
 10
1533.356284864255
 20
835.2216488086947
 30
0.0
 11
1532.841796378182
 21
835.7361372947675
 31
0.0
  0
LINE
  5
6FCB
330
1E
100
AcDbEntity
  8
躯体と製品
  6
Continuous
 62
     4
100
AcDbLine
 10
1534.848713285946
 20
835.1434339493751
 30
0.0
 11
1532.912221353838
 21
837.0799258814834
 31
0.0
  0
LINE
  5
6FCC
330
1E
100
AcDbEntity
  8
躯体と製品
  6
Continuous
 62
     4
100
AcDbLine
 10
1536.34114170764
 20
835.0652190900548
 30
0.0
 11
1532.982646329493
 21
838.423714468201
 31
0.0
  0
LINE
  5
6FCD
330
1E
100
AcDbEntity
  8
躯体と製品
  6
Continuous
 62
     4
100
AcDbLine
 10
1537.833570129333
 20
834.9870042307347
 30
0.0
 11
1533.606552118399
 21
839.214022241669
 31
0.0
  0
LINE
  5
6FCE
330
1E
100
AcDbEntity
  8
躯体と製品
  6
Continuous
 62
     4
100
AcDbLine
 10
1539.325998551026
 20
834.9087893714152
 30
0.0
 11
1535.098980540092
 21
839.1358073823493
 31
0.0
  0
LINE
  5
6FCF
330
1E
100
AcDbEntity
  8
躯体と製品
  6
Continuous
 62
     4
100
AcDbLine
 10
1540.818426972719
 20
834.8305745120955
 30
0.0
 11
1536.591408961785
 21
839.0575925230292
 31
0.0
  0
LINE
  5
6FD0
330
1E
100
AcDbEntity
  8
躯体と製品
  6
Continuous
 62
     4
100
AcDbLine
 10
1542.310855394412
 20
834.7523596527757
 30
0.0
 11
1538.083837383478
 21
838.9793776637095
 31
0.0
  0
LINE
  5
6FD1
330
1E
100
AcDbEntity
  8
躯体と製品
  6
Continuous
 62
     4
100
AcDbLine
 10
1543.803283816106
 20
834.6741447934558
 30
0.0
 11
1539.576265805172
 21
838.9011628043895
 31
0.0
  0
LINE
  5
6FD2
330
1E
100
AcDbEntity
  8
躯体と製品
  6
Continuous
 62
     4
100
AcDbLine
 10
1545.295712237799
 20
834.5959299341361
 30
0.0
 11
1541.068694226865
 21
838.8229479450698
 31
0.0
  0
LINE
  5
6FD3
330
1E
100
AcDbEntity
  8
躯体と製品
  6
Continuous
 62
     4
100
AcDbLine
 10
1546.78814065949
 20
834.5177150748165
 30
0.0
 11
1542.561122648556
 21
838.7447330857501
 31
0.0
  0
LINE
  5
6FD4
330
1E
100
AcDbEntity
  8
躯体と製品
  6
Continuous
 62
     4
100
AcDbLine
 10
1547.818636556109
 20
834.901432740571
 30
0.0
 11
1544.053551070249
 21
838.6665182264303
 31
0.0
  0
LINE
  5
6FD5
330
1E
100
AcDbEntity
  8
躯体と製品
  6
Continuous
 62
     4
100
AcDbLine
 10
1547.959486507419
 20
837.5890099140066
 30
0.0
 11
1547.038407913635
 21
838.5100885077907
 31
0.0
  0
LINE
  5
6FD6
330
1E
100
AcDbEntity
  8
躯体と製品
  6
Continuous
 62
     4
100
AcDbLine
 10
1547.889061531764
 20
836.2452213272893
 30
0.0
 11
1545.545979491942
 21
838.5883033671104
 31
0.0
  0
LINE
  5
6FD7
330
1E
100
AcDbEntity
  8
躯体と製品
  6
Continuous
 62
     4
100
AcDbLine
 10
1783.249180355992
 20
826.6314926543541
 30
0.0
 11
1782.734691869919
 21
827.145981140427
 31
0.0
  0
LINE
  5
6FD8
330
1E
100
AcDbEntity
  8
躯体と製品
  6
DASHED1
 62
     7
100
AcDbLine
 10
1791.36094019874
 20
800.671378511971
 30
0.0
 11
1796.354087872513
 21
800.4096987307564
 31
0.0
  0
LINE
  5
6FD9
330
1E
100
AcDbEntity
  8
躯体と製品
  6
DASHED1
 62
     7
100
AcDbLine
 10
1791.413276154983
 20
801.6700080467256
 30
0.0
 11
1791.36094019874
 21
800.671378511971
 31
0.0
  0
LINE
  5
6FDA
330
1E
100
AcDbEntity
  8
躯体と製品
  6
DASHED1
 62
     7
100
AcDbLine
 10
1771.440685459891
 20
802.7167271715848
 30
0.0
 11
1791.413276154983
 21
801.6700080467256
 31
0.0
  0
LINE
  5
6FDB
330
1E
100
AcDbEntity
  8
躯体と製品
  6
DASHED1
 62
     7
100
AcDbLine
 10
1771.440685459891
 20
802.7167271715848
 30
0.0
 11
1771.388349503648
 21
801.7180976368301
 31
0.0
  0
LINE
  5
6FDC
330
1E
100
AcDbEntity
  8
躯体と製品
  6
DASHED1
 62
     7
100
AcDbLine
 10
1767.893146132007
 20
801.9012734836801
 30
0.0
 11
1771.388349503648
 21
801.7180976368301
 31
0.0
  0
ARC
  5
6FDD
330
1E
100
AcDbEntity
  8
躯体と製品
  6
DASHED1
 62
     7
100
AcDbCircle
 10
1767.971650066372
 20
803.399217785812
 30
0.0
 40
1.5
100
AcDbArc
 50
86.99999999999441
 51
266.9999999999944
  0
LINE
  5
6FDE
330
1E
100
AcDbEntity
  8
躯体と製品
  6
DASHED1
 62
     7
100
AcDbLine
 10
1768.050154000736
 20
804.897162087944
 30
0.0
 11
1796.511095741242
 21
803.4055873350201
 31
0.0
  0
LINE
  5
6FDF
330
1E
100
AcDbEntity
  8
躯体と製品
  6
Continuous
 62
     3
100
AcDbLine
 10
1796.223247981905
 20
797.9131248938699
 30
0.0
 11
1797.688654756708
 21
825.8747518669979
 31
0.0
  0
LINE
  5
6FE0
330
1E
100
AcDbEntity
  8
躯体と製品
  6
Continuous
 62
     3
100
AcDbLine
 10
1806.487442402598
 20
799.2910027086236
 30
0.0
 11
1805.904249859679
 21
796.7649182789052
 31
0.0
  0
LINE
  5
6FE1
330
1E
100
AcDbEntity
  8
躯体と製品
  6
Continuous
 62
     3
100
AcDbLine
 10
1798.351346942022
 20
800.3050268182704
 30
0.0
 11
1806.026425348327
 21
799.9027930031727
 31
0.0
  0
LINE
  5
6FE2
330
1E
100
AcDbEntity
  8
躯体と製品
  6
Continuous
 62
     3
100
AcDbLine
 10
1809.267058856546
 20
799.7329585975368
 30
0.0
 11
1808.089712424479
 21
799.7946607094882
 31
0.0
  0
LINE
  5
6FE3
330
1E
100
AcDbEntity
  8
躯体と製品
  6
Continuous
 62
     3
100
AcDbLine
 10
1807.781700618171
 20
799.5625571653651
 30
0.0
 11
1807.073493937421
 21
796.4949770136927
 31
0.0
  0
ARC
  5
6FE4
330
1E
100
AcDbEntity
  8
躯体と製品
  6
Continuous
 62
     3
100
AcDbCircle
 10
1798.3251789639
 20
799.8057120508931
 30
0.0
 40
0.5
100
AcDbArc
 50
86.99999999999441
 51
177.0000000000011
  0
LINE
  5
6FE5
330
1E
100
AcDbEntity
  8
躯体と製品
  6
Continuous
 62
     3
100
AcDbLine
 10
1797.825864196523
 20
799.8318800290148
 30
0.0
 11
1797.77352824028
 21
798.83325049426
 31
0.0
  0
ARC
  5
6FE6
330
1E
100
AcDbEntity
  8
躯体と製品
  6
Continuous
 62
     3
100
AcDbCircle
 10
1798.534522788872
 20
803.8002301899116
 30
0.0
 40
0.5
100
AcDbArc
 50
177.0000000000011
 51
266.9999999999944
  0
LINE
  5
6FE7
330
1E
100
AcDbEntity
  8
躯体と製品
  6
Continuous
 62
     3
100
AcDbLine
 10
1798.50835481075
 20
803.3009154225345
 30
0.0
 11
1810.190342118285
 21
802.6886884101337
 31
0.0
  0
LINE
  5
6FE8
330
1E
100
AcDbEntity
  8
躯体と製品
  6
Continuous
 62
     3
100
AcDbLine
 10
1798.035208021495
 20
803.8263981680328
 30
0.0
 11
1798.139879933981
 21
805.8236572375422
 31
0.0
  0
LINE
  5
6FE9
330
1E
100
AcDbEntity
  8
躯体と製品
  6
Continuous
 62
     3
100
AcDbLine
 10
1819.538804298788
 20
752.068212035133
 30
0.0
 11
1815.156252877056
 21
752.068212035133
 31
0.0
  0
LINE
  5
6FEA
330
1E
100
AcDbEntity
  8
躯体と製品
  6
Continuous
 62
     3
100
AcDbLine
 10
1810.192870501036
 20
798.9422407536001
 30
0.0
 11
1820.027878099155
 21
752.6721678805418
 31
0.0
  0
LINE
  5
6FEB
330
1E
100
AcDbEntity
  8
躯体と製品
  6
Continuous
 62
     3
100
AcDbLine
 10
1812.967777051757
 20
800.3165348783232
 30
0.0
 11
1824.923727155011
 21
744.068212035133
 31
0.0
  0
ARC
  5
6FEC
330
1E
100
AcDbEntity
  8
躯体と製品
  6
Continuous
 62
     3
100
AcDbCircle
 10
1797.640565166604
 20
805.8498252156635
 30
0.0
 40
0.5
100
AcDbArc
 50
357.0000000000011
 51
86.99999999999441
  0
LINE
  5
6FED
330
1E
100
AcDbEntity
  8
躯体と製品
  6
Continuous
 62
     3
100
AcDbLine
 10
1797.666733144725
 20
806.3491399830409
 30
0.0
 11
1797.167418377348
 21
806.3753079611622
 31
0.0
  0
ARC
  5
6FEE
330
1E
100
AcDbEntity
  8
躯体と製品
  6
Continuous
 62
     3
100
AcDbCircle
 10
1797.141250399226
 20
805.8759931937849
 30
0.0
 40
0.5
100
AcDbArc
 50
86.99999999999441
 51
177.0000000000011
  0
ARC
  5
6FEF
330
1E
100
AcDbEntity
  8
躯体と製品
  6
Continuous
 62
     3
100
AcDbCircle
 10
1810.033334249555
 20
799.69279980587
 30
0.0
 40
3.0
100
AcDbArc
 50
11.99999999999979
 51
86.99999999999441
  0
ARC
  5
6FF0
330
1E
100
AcDbEntity
  8
躯体と製品
  6
Continuous
 62
     3
100
AcDbCircle
 10
1809.214722900303
 20
798.7343290627823
 30
0.0
 40
1.0
100
AcDbArc
 50
11.99999999999979
 51
86.99999999999441
  0
ARC
  5
6FF1
330
1E
100
AcDbEntity
  8
躯体と製品
  6
Continuous
 62
     3
100
AcDbCircle
 10
1797.274213472903
 20
798.8594184723817
 30
0.0
 40
0.5
100
AcDbArc
 50
266.9999999999944
 51
357.0000000000011
  0
LINE
  5
6FF2
330
1E
100
AcDbEntity
  8
躯体と製品
  6
Continuous
 62
     3
100
AcDbLine
 10
1797.248045494782
 20
798.3601037050044
 30
0.0
 11
1796.748730727404
 21
798.3862716831256
 31
0.0
  0
ARC
  5
6FF3
330
1E
100
AcDbEntity
  8
躯体と製品
  6
Continuous
 62
     3
100
AcDbCircle
 10
1796.774898705525
 20
798.8855864505031
 30
0.0
 40
0.5
100
AcDbArc
 50
177.0000000000011
 51
266.9999999999944
  0
ARC
  5
6FF4
330
1E
100
AcDbEntity
  8
躯体と製品
  6
Continuous
 62
     3
100
AcDbCircle
 10
1820.006428734462
 20
750.3682120351329
 30
0.0
 40
0.5
100
AcDbArc
 50
11.99999999999979
 51
90.0
  0
LINE
  5
6FF5
330
1E
100
AcDbEntity
  8
躯体と製品
  6
Continuous
 62
     3
100
AcDbLine
 10
1820.495502534829
 20
750.4721678805417
 30
0.0
 11
1821.923727155011
 21
743.7528993293359
 31
0.0
  0
LINE
  5
6FF6
330
1E
100
AcDbEntity
  8
躯体と製品
  6
Continuous
 62
     3
100
AcDbLine
 10
1820.006428734462
 20
750.868212035133
 30
0.0
 11
1810.756252877055
 21
750.868212035133
 31
0.0
  0
ARC
  5
6FF7
330
1E
100
AcDbEntity
  8
躯体と製品
  6
Continuous
 62
     3
100
AcDbCircle
 10
1819.538804298788
 20
752.568212035133
 30
0.0
 40
0.5
100
AcDbArc
 50
270.0
 51
11.99999999999979
  0
LINE
  5
6FF8
330
1E
100
AcDbEntity
  8
躯体と製品
  6
Continuous
 62
     3
100
AcDbLine
 10
1810.756252877055
 20
752.068212035133
 30
0.0
 11
1813.156252877056
 21
752.068212035133
 31
0.0
  0
LINE
  5
6FF9
330
1E
100
AcDbEntity
  8
躯体と製品
  6
Continuous
 62
     3
100
AcDbLine
 10
1815.156252877056
 20
753.068212035133
 30
0.0
 11
1813.156252877056
 21
752.068212035133
 31
0.0
  0
LINE
  5
6FFA
330
1E
100
AcDbEntity
  8
躯体と製品
  6
Continuous
 62
     3
100
AcDbLine
 10
1815.156252877056
 20
752.068212035133
 30
0.0
 11
1815.156252877056
 21
753.068212035133
 31
0.0
  0
ARC
  5
6FFB
330
1E
100
AcDbEntity
  8
躯体と製品
  6
Continuous
 62
     3
100
AcDbCircle
 10
1822.423727155011
 20
742.5682120351331
 30
0.0
 40
2.5
100
AcDbArc
 50
270.0
 51
0.0
  0
LINE
  5
6FFC
330
1E
100
AcDbEntity
  8
躯体と製品
  6
Continuous
 62
     3
100
AcDbLine
 10
1822.423727155011
 20
740.068212035133
 30
0.0
 11
1821.923727155011
 21
740.068212035133
 31
0.0
  0
LINE
  5
6FFD
330
1E
100
AcDbEntity
  8
躯体と製品
  6
Continuous
 62
     3
100
AcDbLine
 10
1824.923727155011
 20
742.5682120351331
 30
0.0
 11
1824.923727155011
 21
744.068212035133
 31
0.0
  0
LINE
  5
6FFE
330
1E
100
AcDbEntity
  8
躯体と製品
  6
Continuous
 62
     3
100
AcDbLine
 10
1821.923727155011
 20
743.7528993293359
 30
0.0
 11
1821.923727155011
 21
740.068212035133
 31
0.0
  0
ARC
  5
6FFF
330
1E
100
AcDbEntity
  8
躯体と製品
  6
Continuous
 62
     3
100
AcDbCircle
 10
1810.756252877055
 20
751.4682120351331
 30
0.0
 40
0.6000000000000015
100
AcDbArc
 50
90.0
 51
270.0
  0
ARC
  5
7000
330
1E
100
AcDbEntity
  8
躯体と製品
  6
Continuous
 62
     3
100
AcDbCircle
 10
1808.074011637606
 20
799.4950718490618
 30
0.0
 40
0.2999999999999999
100
AcDbArc
 50
86.99999999999441
 51
166.9999999999997
  0
ARC
  5
7001
330
1E
100
AcDbEntity
  8
躯体と製品
  6
Continuous
 62
     3
100
AcDbCircle
 10
1806.000257370206
 20
799.4034782357955
 30
0.0
 40
0.5
100
AcDbArc
 50
346.9999999999997
 51
86.99999999999441
  0
ARC
  5
7002
330
1E
100
AcDbEntity
  8
躯体と製品
  6
Continuous
 62
     3
100
AcDbCircle
 10
1806.48887189855
 20
796.6299476462989
 30
0.0
 40
0.5999999999999984
100
AcDbArc
 50
166.9999999999997
 51
346.9999999999997
  0
LINE
  5
7003
330
1E
100
AcDbEntity
  8
躯体と製品
  6
Continuous
 62
     4
100
AcDbLine
 10
1783.013668552899
 20
822.1376597479586
 30
0.0
 11
1782.499180066826
 21
822.6521482340315
 31
0.0
  0
LINE
  5
7004
330
1E
100
AcDbEntity
  8
躯体と製品
  6
Continuous
 62
     7
100
AcDbLine
 10
1797.662486778586
 20
825.3754370996206
 30
0.0
 11
1782.683043757268
 21
826.160476443265
 31
0.0
  0
LINE
  5
7005
330
1E
100
AcDbEntity
  8
躯体と製品
  6
Continuous
 62
     7
100
AcDbLine
 10
1782.473699932296
 20
822.1659583042466
 30
0.0
 11
1782.683043757268
 21
826.160476443265
 31
0.0
  0
LINE
  5
7006
330
1E
100
AcDbEntity
  8
躯体と製品
  6
Continuous
 62
     4
100
AcDbLine
 10
1784.50609697459
 20
822.0594448886393
 30
0.0
 11
1782.569605042481
 21
823.9959368207477
 31
0.0
  0
LINE
  5
7007
330
1E
100
AcDbEntity
  8
躯体と製品
  6
Continuous
 62
     4
100
AcDbLine
 10
1785.998525396284
 20
821.981230029319
 30
0.0
 11
1782.640030018137
 21
825.3397254074652
 31
0.0
  0
LINE
  5
7008
330
1E
100
AcDbEntity
  8
躯体と製品
  6
Continuous
 62
     4
100
AcDbLine
 10
1787.490953817977
 20
821.9030151699989
 30
0.0
 11
1783.263935807043
 21
826.130033180933
 31
0.0
  0
LINE
  5
7009
330
1E
100
AcDbEntity
  8
躯体と製品
  6
Continuous
 62
     4
100
AcDbLine
 10
1788.98338223967
 20
821.8248003106792
 30
0.0
 11
1784.756364228736
 21
826.0518183216133
 31
0.0
  0
LINE
  5
700A
330
1E
100
AcDbEntity
  8
躯体と製品
  6
Continuous
 62
     4
100
AcDbLine
 10
1790.475810661363
 20
821.7465854513596
 30
0.0
 11
1786.248792650429
 21
825.9736034622934
 31
0.0
  0
LINE
  5
700B
330
1E
100
AcDbEntity
  8
躯体と製品
  6
Continuous
 62
     4
100
AcDbLine
 10
1791.968239083056
 20
821.6683705920397
 30
0.0
 11
1787.741221072122
 21
825.8953886029734
 31
0.0
  0
LINE
  5
700C
330
1E
100
AcDbEntity
  8
躯体と製品
  6
Continuous
 62
     4
100
AcDbLine
 10
1793.460667504749
 20
821.5901557327196
 30
0.0
 11
1789.233649493815
 21
825.8171737436537
 31
0.0
  0
LINE
  5
700D
330
1E
100
AcDbEntity
  8
躯体と製品
  6
Continuous
 62
     4
100
AcDbLine
 10
1794.953095926442
 20
821.5119408734
 30
0.0
 11
1790.726077915509
 21
825.7389588843338
 31
0.0
  0
LINE
  5
700E
330
1E
100
AcDbEntity
  8
躯体と製品
  6
Continuous
 62
     4
100
AcDbLine
 10
1796.445524348133
 20
821.4337260140805
 30
0.0
 11
1792.218506337199
 21
825.6607440250141
 31
0.0
  0
LINE
  5
700F
330
1E
100
AcDbEntity
  8
躯体と製品
  6
Continuous
 62
     4
100
AcDbLine
 10
1797.476020244752
 20
821.8174436798351
 30
0.0
 11
1793.710934758893
 21
825.5825291656945
 31
0.0
  0
LINE
  5
7010
330
1E
100
AcDbEntity
  8
躯体と製品
  6
Continuous
 62
     4
100
AcDbLine
 10
1797.616870196063
 20
824.5050208532706
 30
0.0
 11
1796.695791602279
 21
825.4260994470547
 31
0.0
  0
LINE
  5
7011
330
1E
100
AcDbEntity
  8
躯体と製品
  6
Continuous
 62
     4
100
AcDbLine
 10
1797.546445220407
 20
823.1612322665533
 30
0.0
 11
1795.203363180586
 21
825.5043143063744
 31
0.0
  0
LINE
  5
7012
330
1E
100
AcDbEntity
  8
躯体と製品
  6
Continuous
 62
     3
100
AcDbLine
 10
1797.688654756708
 20
825.8747518669979
 30
0.0
 11
1533.051828046746
 21
839.7437802713781
 31
0.0
  0
LINE
  5
7013
330
1E
100
AcDbEntity
  8
躯体と製品
  6
Continuous
 62
     3
100
AcDbLine
 10
1796.223247981905
 20
797.9131248938699
 30
0.0
 11
1531.586421271943
 21
811.78215329825
 31
0.0
  0
LINE
  5
7014
330
1E
100
AcDbEntity
  8
躯体と製品
  6
DASHED1
 62
     4
100
AcDbLine
 10
1796.537263719363
 20
803.9049021023972
 30
0.0
 11
1531.900437009401
 21
817.7739305067776
 31
0.0
  0
LINE
  5
7015
330
1E
100
AcDbEntity
  8
躯体と製品
  6
DASHED1
 62
     4
100
AcDbLine
 10
1796.354087872513
 20
800.4096987307564
 30
0.0
 11
1531.717261162551
 21
814.2787271351364
 31
0.0
  0
LINE
  5
7016
330
1E
100
AcDbEntity
  8
躯体と製品
  6
DASHED1
 62
     4
100
AcDbLine
 10
1796.275583938148
 20
798.9117544286243
 30
0.0
 11
1531.638757228186
 21
812.7807828330047
 31
0.0
  0
LINE
  5
7017
330
1E
100
AcDbEntity
  8
躯体と製品
  6
Continuous
 62
     3
100
AcDbLine
 10
1797.453142953614
 20
821.3809189606024
 30
0.0
 11
1532.816316243652
 21
835.2499473649826
 31
0.0
  0
LINE
  5
7018
330
1E
100
AcDbEntity
  8
躯体と製品
  6
Continuous
 62
     3
100
AcDbLine
 10
1797.37463901925
 20
819.8829746584703
 30
0.0
 11
1532.737812309288
 21
833.7520030628507
 31
0.0
  0
LINE
  5
7019
330
1E
100
AcDbEntity
  8
躯体と製品
  6
DASHED1
 62
     4
100
AcDbLine
 10
1782.630707801025
 20
825.1618469085103
 30
0.0
 11
1547.952767133699
 21
837.4607966256021
 31
0.0
  0
LINE
  5
701A
330
1E
100
AcDbEntity
  8
躯体と製品
  6
DASHED1
 62
     4
100
AcDbLine
 10
1656.729128853722
 20
811.2319359764095
 30
0.0
 11
1656.82333357496
 21
813.0294691389677
 31
0.0
  0
LINE
  5
701B
330
1E
100
AcDbEntity
  8
躯体と製品
  6
DASHED1
 62
     4
100
AcDbLine
 10
1756.59208232918
 20
805.9983403521149
 30
0.0
 11
1756.686287050417
 21
807.7958735146733
 31
0.0
  0
TEXT
  5
701C
330
1E
100
AcDbEntity
  8
図枠
 62
     7
100
AcDbText
 10
1710.135232753243
 20
624.4910700698057
 30
0.0
 40
5.0
  1
100ＦＹＫ－Ｓ300
100
AcDbText
  0
TEXT
  5
701D
330
1E
100
AcDbEntity
  8
図枠
 62
     7
100
AcDbText
 10
1522.385232753243
 20
624.4910700698057
 30
0.0
 40
5.0
  1
100ＦＹＫ－Ｓ300～525
100
AcDbText
  0
TEXT
  5
701E
330
1E
100
AcDbEntity
  8
図枠
 62
     7
100
AcDbText
 10
1422.385232753243
 20
615.4910700698057
 30
0.0
 40
5.0
  1
ＦＹＫサイドキャップＳ
100
AcDbText
  0
TEXT
  5
701F
330
1E
100
AcDbEntity
  8
図枠
 62
     7
100
AcDbText
 10
1422.385232753243
 20
624.4910700698057
 30
0.0
 40
5.0
  1
ＦＹＫキャップＳ
100
AcDbText
  0
TEXT
  5
7020
330
1E
100
AcDbEntity
  8
図枠
 62
     7
100
AcDbText
 10
1522.385232753243
 20
525.4910700698058
 30
0.0
 40
5.0
  1
ＦＳ400～600
100
AcDbText
  0
TEXT
  5
7021
330
1E
100
AcDbEntity
  8
図枠
 62
     7
100
AcDbText
 10
1522.385232753243
 20
552.4910700698058
 30
0.0
 40
5.0
  1
100ＦＹＫＪ－300～525
100
AcDbText
  0
TEXT
  5
7022
330
1E
100
AcDbEntity
  8
図枠
 62
     7
100
AcDbText
 10
1522.385232753243
 20
579.4910700698058
 30
0.0
 40
5.0
  1
100ＦＹＫＨ－300～525
100
AcDbText
  0
TEXT
  5
7023
330
1E
100
AcDbEntity
  8
図枠
 62
     7
100
AcDbText
 10
1407.385232753243
 20
435.4910700698058
 30
0.0
 40
5.0
  1
※
100
AcDbText
  0
TEXT
  5
7024
330
1E
100
AcDbEntity
  8
図枠
 62
     7
100
AcDbText
 10
1407.135232753243
 20
444.4910700698057
 30
0.0
 40
5.0
  1
21
100
AcDbText
  0
TEXT
  5
7025
330
1E
100
AcDbEntity
  8
図枠
 62
     7
100
AcDbText
 10
1407.135232753243
 20
453.4910700698058
 30
0.0
 40
5.0
  1
20
100
AcDbText
  0
TEXT
  5
7026
330
1E
100
AcDbEntity
  8
図枠
 62
     7
100
AcDbText
 10
1407.135232753243
 20
462.4910700698058
 30
0.0
 40
5.0
  1
19
100
AcDbText
  0
TEXT
  5
7027
330
1E
100
AcDbEntity
  8
図枠
 62
     7
100
AcDbText
 10
1407.135232753243
 20
471.4910700698058
 30
0.0
 40
5.0
  1
18
100
AcDbText
  0
TEXT
  5
7028
330
1E
100
AcDbEntity
  8
図枠
 62
     7
100
AcDbText
 10
1407.135232753243
 20
480.4910700698058
 30
0.0
 40
5.0
  1
17
100
AcDbText
  0
TEXT
  5
7029
330
1E
100
AcDbEntity
  8
図枠
 62
     7
100
AcDbText
 10
1407.135232753243
 20
489.4910700698059
 30
0.0
 40
5.0
  1
16
100
AcDbText
  0
TEXT
  5
702A
330
1E
100
AcDbEntity
  8
図枠
 62
     7
100
AcDbText
 10
1407.135232753243
 20
498.4910700698058
 30
0.0
 40
5.0
  1
15
100
AcDbText
  0
TEXT
  5
702B
330
1E
100
AcDbEntity
  8
図枠
 62
     7
100
AcDbText
 10
1407.135232753243
 20
507.4910700698057
 30
0.0
 40
5.0
  1
14
100
AcDbText
  0
TEXT
  5
702C
330
1E
100
AcDbEntity
  8
図枠
 62
     7
100
AcDbText
 10
1407.135232753243
 20
516.4910700698057
 30
0.0
 40
5.0
  1
13
100
AcDbText
  0
TEXT
  5
702D
330
1E
100
AcDbEntity
  8
図枠
 62
     7
100
AcDbText
 10
1407.135232753243
 20
525.4910700698058
 30
0.0
 40
5.0
  1
12
100
AcDbText
  0
TEXT
  5
702E
330
1E
100
AcDbEntity
  8
図枠
 62
     7
100
AcDbText
 10
1407.135232753243
 20
534.4910700698058
 30
0.0
 40
5.0
  1
11
100
AcDbText
  0
TEXT
  5
702F
330
1E
100
AcDbEntity
  8
図枠
 62
     7
100
AcDbText
 10
1407.135232753243
 20
543.4910700698058
 30
0.0
 40
5.0
  1
10
100
AcDbText
  0
TEXT
  5
7030
330
1E
100
AcDbEntity
  8
図枠
 62
     7
100
AcDbText
 10
1407.135232753243
 20
552.4910700698058
 30
0.0
 40
5.0
  1
 9
100
AcDbText
  0
TEXT
  5
7031
330
1E
100
AcDbEntity
  8
図枠
 62
     7
100
AcDbText
 10
1407.135232753243
 20
561.4910700698057
 30
0.0
 40
5.0
  1
 8
100
AcDbText
  0
TEXT
  5
7032
330
1E
100
AcDbEntity
  8
図枠
 62
     7
100
AcDbText
 10
1407.135232753243
 20
570.4910700698057
 30
0.0
 40
5.0
  1
 7
100
AcDbText
  0
TEXT
  5
7033
330
1E
100
AcDbEntity
  8
図枠
 62
     7
100
AcDbText
 10
1407.135232753243
 20
579.4910700698058
 30
0.0
 40
5.0
  1
 6
100
AcDbText
  0
TEXT
  5
7034
330
1E
100
AcDbEntity
  8
図枠
 62
     7
100
AcDbText
 10
1407.135232753243
 20
588.4910700698058
 30
0.0
 40
5.0
  1
 5
100
AcDbText
  0
TEXT
  5
7035
330
1E
100
AcDbEntity
  8
図枠
 62
     7
100
AcDbText
 10
1407.135232753243
 20
597.4910700698058
 30
0.0
 40
5.0
  1
 4
100
AcDbText
  0
TEXT
  5
7036
330
1E
100
AcDbEntity
  8
図枠
 62
     7
100
AcDbText
 10
1407.135232753243
 20
606.4910700698057
 30
0.0
 40
5.0
  1
 3
100
AcDbText
  0
TEXT
  5
7037
330
1E
100
AcDbEntity
  8
図枠
 62
     7
100
AcDbText
 10
1407.135232753243
 20
615.4910700698057
 30
0.0
 40
5.0
  1
 2
100
AcDbText
  0
TEXT
  5
7038
330
1E
100
AcDbEntity
  8
図枠
 62
     7
100
AcDbText
 10
1407.135232753243
 20
624.4910700698057
 30
0.0
 40
5.0
  1
 1
100
AcDbText
  0
TEXT
  5
7039
330
1E
100
AcDbEntity
  8
図枠
 62
     7
100
AcDbText
 10
1405.385232753243
 20
633.4910700698058
 30
0.0
 40
5.0
  1
No.
100
AcDbText
  0
LINE
  5
703A
330
1E
100
AcDbEntity
  8
図枠
  6
Continuous
 62
     7
100
AcDbLine
 10
1403.385232753243
 20
433.9910700698058
 30
0.0
 11
1403.385232753243
 21
640.9910700698057
 31
0.0
  0
LINE
  5
703B
330
1E
100
AcDbEntity
  8
図枠
  6
Continuous
 62
     7
100
AcDbLine
 10
1612.385232753243
 20
433.9910700698058
 30
0.0
 11
1403.385232753243
 21
433.9910700698058
 31
0.0
  0
LINE
  5
703C
330
1E
100
AcDbEntity
  8
図枠
  6
Continuous
 62
     7
100
AcDbLine
 10
1612.385232753243
 20
442.9910700698058
 30
0.0
 11
1403.385232753243
 21
442.9910700698058
 31
0.0
  0
LINE
  5
703D
330
1E
100
AcDbEntity
  8
図枠
  6
Continuous
 62
     7
100
AcDbLine
 10
1612.385232753243
 20
451.9910700698059
 30
0.0
 11
1403.385232753243
 21
451.9910700698059
 31
0.0
  0
LINE
  5
703E
330
1E
100
AcDbEntity
  8
図枠
  6
Continuous
 62
     7
100
AcDbLine
 10
1612.385232753243
 20
460.9910700698058
 30
0.0
 11
1403.385232753243
 21
460.9910700698058
 31
0.0
  0
LINE
  5
703F
330
1E
100
AcDbEntity
  8
図枠
  6
Continuous
 62
     7
100
AcDbLine
 10
1612.385232753243
 20
469.9910700698058
 30
0.0
 11
1403.385232753243
 21
469.9910700698058
 31
0.0
  0
LINE
  5
7040
330
1E
100
AcDbEntity
  8
図枠
  6
Continuous
 62
     7
100
AcDbLine
 10
1612.385232753243
 20
478.9910700698058
 30
0.0
 11
1403.385232753243
 21
478.9910700698058
 31
0.0
  0
LINE
  5
7041
330
1E
100
AcDbEntity
  8
図枠
  6
Continuous
 62
     7
100
AcDbLine
 10
1612.385232753243
 20
487.9910700698058
 30
0.0
 11
1403.385232753243
 21
487.9910700698058
 31
0.0
  0
LINE
  5
7042
330
1E
100
AcDbEntity
  8
図枠
  6
Continuous
 62
     7
100
AcDbLine
 10
1612.385232753243
 20
496.9910700698058
 30
0.0
 11
1403.385232753243
 21
496.9910700698058
 31
0.0
  0
LINE
  5
7043
330
1E
100
AcDbEntity
  8
図枠
  6
Continuous
 62
     7
100
AcDbLine
 10
1612.385232753243
 20
505.9910700698058
 30
0.0
 11
1403.385232753243
 21
505.9910700698058
 31
0.0
  0
LINE
  5
7044
330
1E
100
AcDbEntity
  8
図枠
  6
Continuous
 62
     7
100
AcDbLine
 10
1612.385232753243
 20
514.9910700698058
 30
0.0
 11
1403.385232753243
 21
514.9910700698058
 31
0.0
  0
LINE
  5
7045
330
1E
100
AcDbEntity
  8
図枠
  6
Continuous
 62
     7
100
AcDbLine
 10
1612.385232753243
 20
523.9910700698057
 30
0.0
 11
1403.385232753243
 21
523.9910700698057
 31
0.0
  0
LINE
  5
7046
330
1E
100
AcDbEntity
  8
図枠
  6
Continuous
 62
     7
100
AcDbLine
 10
1612.385232753243
 20
532.9910700698057
 30
0.0
 11
1403.385232753243
 21
532.9910700698057
 31
0.0
  0
LINE
  5
7047
330
1E
100
AcDbEntity
  8
図枠
  6
Continuous
 62
     7
100
AcDbLine
 10
1612.385232753243
 20
541.9910700698058
 30
0.0
 11
1403.385232753243
 21
541.9910700698058
 31
0.0
  0
LINE
  5
7048
330
1E
100
AcDbEntity
  8
図枠
  6
Continuous
 62
     7
100
AcDbLine
 10
1612.385232753243
 20
550.9910700698058
 30
0.0
 11
1403.385232753243
 21
550.9910700698058
 31
0.0
  0
LINE
  5
7049
330
1E
100
AcDbEntity
  8
図枠
  6
Continuous
 62
     7
100
AcDbLine
 10
1612.385232753243
 20
559.9910700698058
 30
0.0
 11
1403.385232753243
 21
559.9910700698058
 31
0.0
  0
LINE
  5
704A
330
1E
100
AcDbEntity
  8
図枠
  6
Continuous
 62
     7
100
AcDbLine
 10
1612.385232753243
 20
568.9910700698058
 30
0.0
 11
1403.385232753243
 21
568.9910700698058
 31
0.0
  0
LINE
  5
704B
330
1E
100
AcDbEntity
  8
図枠
  6
Continuous
 62
     7
100
AcDbLine
 10
1612.385232753243
 20
577.9910700698057
 30
0.0
 11
1403.385232753243
 21
577.9910700698057
 31
0.0
  0
LINE
  5
704C
330
1E
100
AcDbEntity
  8
図枠
  6
Continuous
 62
     7
100
AcDbLine
 10
1612.385232753243
 20
586.9910700698057
 30
0.0
 11
1403.385232753243
 21
586.9910700698057
 31
0.0
  0
LINE
  5
704D
330
1E
100
AcDbEntity
  8
図枠
  6
Continuous
 62
     7
100
AcDbLine
 10
1612.385232753243
 20
595.9910700698058
 30
0.0
 11
1403.385232753243
 21
595.9910700698058
 31
0.0
  0
LINE
  5
704E
330
1E
100
AcDbEntity
  8
図枠
  6
Continuous
 62
     7
100
AcDbLine
 10
1612.385232753243
 20
604.9910700698058
 30
0.0
 11
1403.385232753243
 21
604.9910700698058
 31
0.0
  0
LINE
  5
704F
330
1E
100
AcDbEntity
  8
図枠
  6
Continuous
 62
     7
100
AcDbLine
 10
1612.385232753243
 20
613.9910700698058
 30
0.0
 11
1403.385232753243
 21
613.9910700698058
 31
0.0
  0
LINE
  5
7050
330
1E
100
AcDbEntity
  8
図枠
  6
Continuous
 62
     7
100
AcDbLine
 10
1612.385232753243
 20
622.9910700698058
 30
0.0
 11
1403.385232753243
 21
622.9910700698058
 31
0.0
  0
LINE
  5
7051
330
1E
100
AcDbEntity
  8
図枠
  6
Continuous
 62
     7
100
AcDbLine
 10
1612.385232753243
 20
631.9910700698057
 30
0.0
 11
1403.385232753243
 21
631.9910700698057
 31
0.0
  0
LINE
  5
7052
330
1E
100
AcDbEntity
  8
図枠
  6
Continuous
 62
     7
100
AcDbLine
 10
1612.385232753243
 20
640.9910700698057
 30
0.0
 11
1403.385232753243
 21
640.9910700698057
 31
0.0
  0
LINE
  5
7053
330
1E
100
AcDbEntity
  8
図枠
  6
Continuous
 62
     7
100
AcDbLine
 10
1612.385232753243
 20
433.9910700698058
 30
0.0
 11
1612.385232753243
 21
640.9910700698057
 31
0.0
  0
LINE
  5
7054
330
1E
100
AcDbEntity
  8
図枠
  6
Continuous
 62
     7
100
AcDbLine
 10
1517.385232753243
 20
433.9910700698058
 30
0.0
 11
1517.385232753243
 21
640.9910700698057
 31
0.0
  0
LINE
  5
7055
330
1E
100
AcDbEntity
  8
図枠
  6
Continuous
 62
     7
100
AcDbLine
 10
1417.385232753243
 20
433.9910700698058
 30
0.0
 11
1417.385232753243
 21
640.9910700698057
 31
0.0
  0
TEXT
  5
7056
330
1E
100
AcDbEntity
  8
図枠
 62
     7
100
AcDbText
 10
1522.385232753243
 20
435.4910700698058
 30
0.0
 40
5.0
  1
ｔ1.0×ｗ30
100
AcDbText
  0
TEXT
  5
7057
330
1E
100
AcDbEntity
  8
図枠
 62
     7
100
AcDbText
 10
1422.385232753243
 20
435.4910700698058
 30
0.0
 40
5.0
  1
ブチルテープ
100
AcDbText
  0
TEXT
  5
7058
330
1E
100
AcDbEntity
  8
図枠
 62
     7
100
AcDbText
 10
1522.385232753243
 20
444.4910700698057
 30
0.0
 40
5.0
  1
1.5×18×5.5穴
100
AcDbText
  0
TEXT
  5
7059
330
1E
100
AcDbEntity
  8
図枠
 62
     7
100
AcDbText
 10
1422.385232753243
 20
444.4910700698057
 30
0.0
 40
5.0
  1
ステンワッシャー
100
AcDbText
  0
TEXT
  5
705A
330
1E
100
AcDbEntity
  8
図枠
 62
     7
100
AcDbText
 10
1522.385232753243
 20
453.4910700698058
 30
0.0
 40
5.0
  1
1.5×18×6.5穴
100
AcDbText
  0
TEXT
  5
705B
330
1E
100
AcDbEntity
  8
図枠
 62
     7
100
AcDbText
 10
1422.385232753243
 20
453.4910700698058
 30
0.0
 40
5.0
  1
ステスワッシャー
100
AcDbText
  0
TEXT
  5
705C
330
1E
100
AcDbEntity
  8
図枠
 62
     7
100
AcDbText
 10
1522.385232753243
 20
462.4910700698058
 30
0.0
 40
5.0
  1
ナベ 5×50
100
AcDbText
  0
TEXT
  5
705D
330
1E
100
AcDbEntity
  8
図枠
 62
     7
100
AcDbText
 10
1422.385232753243
 20
462.4910700698058
 30
0.0
 40
5.0
  1
ステンタッピンねじ
100
AcDbText
  0
TEXT
  5
705E
330
1E
100
AcDbEntity
  8
図枠
 62
     7
100
AcDbText
 10
1522.385232753243
 20
471.4910700698058
 30
0.0
 40
5.0
  1
フィッシャープラグ　Ｓ8
100
AcDbText
  0
TEXT
  5
705F
330
1E
100
AcDbEntity
  8
図枠
 62
     7
100
AcDbText
 10
1422.385232753243
 20
471.4910700698058
 30
0.0
 40
5.0
  1
アンカープラグ
100
AcDbText
  0
TEXT
  5
7060
330
1E
100
AcDbEntity
  8
図枠
 62
     7
100
AcDbText
 10
1522.385232753243
 20
480.4910700698058
 30
0.0
 40
5.0
  1
ＡＧ－660
100
AcDbText
  0
TEXT
  5
7061
330
1E
100
AcDbEntity
  8
図枠
 62
     7
100
AcDbText
 10
1422.385232753243
 20
480.4910700698058
 30
0.0
 40
5.0
  1
アジャストアンカー
100
AcDbText
  0
TEXT
  5
7062
330
1E
100
AcDbEntity
  8
図枠
 62
     7
100
AcDbText
 10
1522.385232753243
 20
489.4910700698059
 30
0.0
 40
5.0
  1
Ｍ6×40
100
AcDbText
  0
TEXT
  5
7063
330
1E
100
AcDbEntity
  8
図枠
 62
     7
100
AcDbText
 10
1422.385232753243
 20
489.4910700698059
 30
0.0
 40
5.0
  1
ステン六角ボルト
100
AcDbText
  0
TEXT
  5
7064
330
1E
100
AcDbEntity
  8
図枠
 62
     7
100
AcDbText
 10
1522.385232753243
 20
498.4910700698058
 30
0.0
 40
5.0
  1
ナベＭ4×10
100
AcDbText
  0
TEXT
  5
7065
330
1E
100
AcDbEntity
  8
図枠
 62
     7
100
AcDbText
 10
1422.385232753243
 20
498.4910700698058
 30
0.0
 40
5.0
  1
ステン小ネジ
100
AcDbText
  0
TEXT
  5
7066
330
1E
100
AcDbEntity
  8
図枠
 62
     7
100
AcDbText
 10
1522.385232753243
 20
507.4910700698057
 30
0.0
 40
5.0
  1
ナベＭ6×35
100
AcDbText
  0
TEXT
  5
7067
330
1E
100
AcDbEntity
  8
図枠
 62
     7
100
AcDbText
 10
1422.385232753243
 20
507.4910700698057
 30
0.0
 40
5.0
  1
ステン小ネジ
100
AcDbText
  0
TEXT
  5
7068
330
1E
100
AcDbEntity
  8
図枠
 62
     7
100
AcDbText
 10
1422.385232753243
 20
516.4910700698057
 30
0.0
 40
5.0
  1
ガスケットＮ
100
AcDbText
  0
TEXT
  5
7069
330
1E
100
AcDbEntity
  8
図枠
 62
     7
100
AcDbText
 10
1422.385232753243
 20
525.4910700698058
 30
0.0
 40
5.0
  1
止水補助板
100
AcDbText
  0
TEXT
  5
706A
330
1E
100
AcDbEntity
  8
図枠
 62
     7
100
AcDbText
 10
1522.385232753243
 20
534.4910700698058
 30
0.0
 40
5.0
  1
ＰＳ
100
AcDbText
  0
TEXT
  5
706B
330
1E
100
AcDbEntity
  8
図枠
 62
     7
100
AcDbText
 10
1422.385232753243
 20
534.4910700698058
 30
0.0
 40
5.0
  1
止水補助板
100
AcDbText
  0
TEXT
  5
706C
330
1E
100
AcDbEntity
  8
図枠
 62
     7
100
AcDbText
 10
1422.385232753243
 20
543.4910700698058
 30
0.0
 40
5.0
  1
ＦＹＫｻｲﾄﾞｷｬｯﾌﾟ ｼﾞｮｲﾝﾄ
100
AcDbText
  0
TEXT
  5
706D
330
1E
100
AcDbEntity
  8
図枠
 62
     7
100
AcDbText
 10
1422.385232753243
 20
552.4910700698058
 30
0.0
 40
5.0
  1
ＦＹＫ水切ジョイント
100
AcDbText
  0
TEXT
  5
706E
330
1E
100
AcDbEntity
  8
図枠
 62
     7
100
AcDbText
 10
1422.385232753243
 20
561.4910700698057
 30
0.0
 40
5.0
  1
ＦＹＹフレームナット
100
AcDbText
  0
TEXT
  5
706F
330
1E
100
AcDbEntity
  8
図枠
 62
     7
100
AcDbText
 10
1422.385232753243
 20
570.4910700698057
 30
0.0
 40
5.0
  1
ＦＹＹホルダースプリング
100
AcDbText
  0
TEXT
  5
7070
330
1E
100
AcDbEntity
  8
図枠
 62
     7
100
AcDbText
 10
1422.385232753243
 20
579.4910700698058
 30
0.0
 40
5.0
  1
ＦＹＫホルダー
100
AcDbText
  0
TEXT
  5
7071
330
1E
100
AcDbEntity
  8
図枠
 62
     7
100
AcDbText
 10
1422.385232753243
 20
597.4910700698058
 30
0.0
 40
5.0
  1
ＦＹＫ壁フレーム
100
AcDbText
  0
TEXT
  5
7072
330
1E
100
AcDbEntity
  8
図枠
 62
     7
100
AcDbText
 10
1422.385232753243
 20
606.4910700698057
 30
0.0
 40
5.0
  1
ＦＹＹフレーム
100
AcDbText
  0
TEXT
  5
7073
330
1E
100
AcDbEntity
  8
図枠
 62
     7
100
AcDbText
 10
1554.885232753243
 20
633.4910700698058
 30
0.0
 40
5.0
  1
規　格
100
AcDbText
  0
TEXT
  5
7074
330
1E
100
AcDbEntity
  8
図枠
 62
     7
100
AcDbText
 10
1453.885232753243
 20
633.4910700698058
 30
0.0
 40
5.0
  1
部材名称
100
AcDbText
  0
LINE
  5
7075
330
1E
100
AcDbEntity
  8
図枠
  6
Continuous
 62
     7
100
AcDbLine
 10
1925.385232753242
 20
604.9910700698058
 30
0.0
 11
1700.385232753243
 21
604.9910700698058
 31
0.0
  0
LINE
  5
7076
330
1E
100
AcDbEntity
  8
図枠
  6
Continuous
 62
     7
100
AcDbLine
 10
1925.385232753242
 20
622.9910700698058
 30
0.0
 11
1700.385232753243
 21
622.9910700698058
 31
0.0
  0
LINE
  5
7077
330
1E
100
AcDbEntity
  8
図枠
  6
Continuous
 62
     7
100
AcDbLine
 10
1925.385232753242
 20
640.9910700698057
 30
0.0
 11
1700.385232753243
 21
640.9910700698057
 31
0.0
  0
LINE
  5
7078
330
1E
100
AcDbEntity
  8
図枠
  6
Continuous
 62
     7
100
AcDbLine
 10
1925.385232753242
 20
631.9910700698057
 30
0.0
 11
1700.385232753243
 21
631.9910700698057
 31
0.0
  0
LINE
  5
7079
330
1E
100
AcDbEntity
  8
図枠
  6
Continuous
 62
     7
100
AcDbLine
 10
1925.385232753242
 20
613.9910700698058
 30
0.0
 11
1700.385232753243
 21
613.9910700698058
 31
0.0
  0
LINE
  5
707A
330
1E
100
AcDbEntity
  8
図枠
  6
Continuous
 62
     7
100
AcDbLine
 10
1925.385232753242
 20
595.9910700698058
 30
0.0
 11
1700.385232753243
 21
595.9910700698058
 31
0.0
  0
LINE
  5
707B
330
1E
100
AcDbEntity
  8
図枠
  6
Continuous
 62
     7
100
AcDbLine
 10
1925.385232753242
 20
586.9910700698057
 30
0.0
 11
1700.385232753243
 21
586.9910700698057
 31
0.0
  0
LINE
  5
707C
330
1E
100
AcDbEntity
  8
図枠
  6
Continuous
 62
     7
100
AcDbLine
 10
1925.385232753242
 20
577.9910700698057
 30
0.0
 11
1700.385232753243
 21
577.9910700698057
 31
0.0
  0
LINE
  5
707D
330
1E
100
AcDbEntity
  8
図枠
  6
Continuous
 62
     7
100
AcDbLine
 10
1925.385232753242
 20
568.9910700698058
 30
0.0
 11
1700.385232753243
 21
568.9910700698058
 31
0.0
  0
LINE
  5
707E
330
1E
100
AcDbEntity
  8
図枠
  6
Continuous
 62
     7
100
AcDbLine
 10
1925.385232753242
 20
559.9910700698058
 30
0.0
 11
1700.385232753243
 21
559.9910700698058
 31
0.0
  0
LINE
  5
707F
330
1E
100
AcDbEntity
  8
図枠
  6
Continuous
 62
     7
100
AcDbLine
 10
1925.385232753242
 20
550.9910700698058
 30
0.0
 11
1700.385232753243
 21
550.9910700698058
 31
0.0
  0
LINE
  5
7080
330
1E
100
AcDbEntity
  8
図枠
  6
Continuous
 62
     7
100
AcDbLine
 10
1925.385232753242
 20
541.9910700698058
 30
0.0
 11
1700.385232753243
 21
541.9910700698058
 31
0.0
  0
TEXT
  5
7081
330
1E
100
AcDbEntity
  8
図枠
 62
     7
100
AcDbText
 10
1847.385232753243
 20
633.4910700698058
 30
0.0
 40
5.0
  1
Ｃ
100
AcDbText
  0
TEXT
  5
7082
330
1E
100
AcDbEntity
  8
図枠
 62
     7
100
AcDbText
 10
1877.385232753243
 20
633.4910700698058
 30
0.0
 40
5.0
  1
Ｄ
100
AcDbText
  0
TEXT
  5
7083
330
1E
100
AcDbEntity
  8
図枠
 62
     7
100
AcDbText
 10
1907.385232753243
 20
633.4910700698058
 30
0.0
 40
5.0
  1
Ｅ
100
AcDbText
  0
TEXT
  5
7084
330
1E
100
AcDbEntity
  8
図枠
 62
     7
100
AcDbText
 10
1845.385232753243
 20
624.4910700698057
 30
0.0
 40
5.0
  1
100
100
AcDbText
  0
TEXT
  5
7085
330
1E
100
AcDbEntity
  8
図枠
 62
     7
100
AcDbText
 10
1845.385232753243
 20
615.4910700698057
 30
0.0
 40
5.0
  1
125
100
AcDbText
  0
TEXT
  5
7086
330
1E
100
AcDbEntity
  8
図枠
 62
     7
100
AcDbText
 10
1845.385232753243
 20
606.4910700698057
 30
0.0
 40
5.0
  1
150
100
AcDbText
  0
TEXT
  5
7087
330
1E
100
AcDbEntity
  8
図枠
 62
     7
100
AcDbText
 10
1845.385232753243
 20
597.4910700698058
 30
0.0
 40
5.0
  1
175
100
AcDbText
  0
TEXT
  5
7088
330
1E
100
AcDbEntity
  8
図枠
 62
     7
100
AcDbText
 10
1845.385232753243
 20
588.4910700698058
 30
0.0
 40
5.0
  1
200
100
AcDbText
  0
TEXT
  5
7089
330
1E
100
AcDbEntity
  8
図枠
 62
     7
100
AcDbText
 10
1845.385232753243
 20
579.4910700698058
 30
0.0
 40
5.0
  1
225
100
AcDbText
  0
TEXT
  5
708A
330
1E
100
AcDbEntity
  8
図枠
 62
     7
100
AcDbText
 10
1845.385232753243
 20
570.4910700698057
 30
0.0
 40
5.0
  1
250
100
AcDbText
  0
TEXT
  5
708B
330
1E
100
AcDbEntity
  8
図枠
 62
     7
100
AcDbText
 10
1845.385232753243
 20
561.4910700698057
 30
0.0
 40
5.0
  1
275
100
AcDbText
  0
TEXT
  5
708C
330
1E
100
AcDbEntity
  8
図枠
 62
     7
100
AcDbText
 10
1845.385232753243
 20
552.4910700698058
 30
0.0
 40
5.0
  1
300
100
AcDbText
  0
TEXT
  5
708D
330
1E
100
AcDbEntity
  8
図枠
 62
     7
100
AcDbText
 10
1845.385232753243
 20
543.4910700698058
 30
0.0
 40
5.0
  1
325
100
AcDbText
  0
TEXT
  5
708E
330
1E
100
AcDbEntity
  8
図枠
 62
     7
100
AcDbText
 10
1877.135232753243
 20
624.4910700698057
 30
0.0
 40
5.0
  1
58
100
AcDbText
  0
TEXT
  5
708F
330
1E
100
AcDbEntity
  8
図枠
 62
     7
100
AcDbText
 10
1877.135232753243
 20
615.4910700698057
 30
0.0
 40
5.0
  1
59
100
AcDbText
  0
TEXT
  5
7090
330
1E
100
AcDbEntity
  8
図枠
 62
     7
100
AcDbText
 10
1877.135232753243
 20
606.4910700698057
 30
0.0
 40
5.0
  1
61
100
AcDbText
  0
TEXT
  5
7091
330
1E
100
AcDbEntity
  8
図枠
 62
     7
100
AcDbText
 10
1877.135232753243
 20
597.4910700698058
 30
0.0
 40
5.0
  1
62
100
AcDbText
  0
TEXT
  5
7092
330
1E
100
AcDbEntity
  8
図枠
 62
     7
100
AcDbText
 10
1877.135232753243
 20
588.4910700698058
 30
0.0
 40
5.0
  1
63
100
AcDbText
  0
TEXT
  5
7093
330
1E
100
AcDbEntity
  8
図枠
 62
     7
100
AcDbText
 10
1877.135232753243
 20
579.4910700698058
 30
0.0
 40
5.0
  1
64
100
AcDbText
  0
TEXT
  5
7094
330
1E
100
AcDbEntity
  8
図枠
 62
     7
100
AcDbText
 10
1877.135232753243
 20
570.4910700698057
 30
0.0
 40
5.0
  1
66
100
AcDbText
  0
TEXT
  5
7095
330
1E
100
AcDbEntity
  8
図枠
 62
     7
100
AcDbText
 10
1877.135232753243
 20
561.4910700698057
 30
0.0
 40
5.0
  1
67
100
AcDbText
  0
TEXT
  5
7096
330
1E
100
AcDbEntity
  8
図枠
 62
     7
100
AcDbText
 10
1877.135232753243
 20
552.4910700698058
 30
0.0
 40
5.0
  1
68
100
AcDbText
  0
TEXT
  5
7097
330
1E
100
AcDbEntity
  8
図枠
 62
     7
100
AcDbText
 10
1877.135232753243
 20
543.4910700698058
 30
0.0
 40
5.0
  1
70
100
AcDbText
  0
TEXT
  5
7098
330
1E
100
AcDbEntity
  8
図枠
 62
     7
100
AcDbText
 10
1905.385232753243
 20
624.4910700698057
 30
0.0
 40
5.0
  1
117
100
AcDbText
  0
TEXT
  5
7099
330
1E
100
AcDbEntity
  8
図枠
 62
     7
100
AcDbText
 10
1905.385232753243
 20
615.4910700698057
 30
0.0
 40
5.0
  1
118
100
AcDbText
  0
TEXT
  5
709A
330
1E
100
AcDbEntity
  8
図枠
 62
     7
100
AcDbText
 10
1905.385232753243
 20
606.4910700698057
 30
0.0
 40
5.0
  1
119
100
AcDbText
  0
TEXT
  5
709B
330
1E
100
AcDbEntity
  8
図枠
 62
     7
100
AcDbText
 10
1905.385232753243
 20
597.4910700698058
 30
0.0
 40
5.0
  1
121
100
AcDbText
  0
TEXT
  5
709C
330
1E
100
AcDbEntity
  8
図枠
 62
     7
100
AcDbText
 10
1905.385232753243
 20
588.4910700698058
 30
0.0
 40
5.0
  1
122
100
AcDbText
  0
TEXT
  5
709D
330
1E
100
AcDbEntity
  8
図枠
 62
     7
100
AcDbText
 10
1905.385232753243
 20
579.4910700698058
 30
0.0
 40
5.0
  1
123
100
AcDbText
  0
TEXT
  5
709E
330
1E
100
AcDbEntity
  8
図枠
 62
     7
100
AcDbText
 10
1905.385232753243
 20
570.4910700698057
 30
0.0
 40
5.0
  1
124
100
AcDbText
  0
TEXT
  5
709F
330
1E
100
AcDbEntity
  8
図枠
 62
     7
100
AcDbText
 10
1905.385232753243
 20
561.4910700698057
 30
0.0
 40
5.0
  1
126
100
AcDbText
  0
TEXT
  5
70A0
330
1E
100
AcDbEntity
  8
図枠
 62
     7
100
AcDbText
 10
1905.385232753243
 20
552.4910700698058
 30
0.0
 40
5.0
  1
127
100
AcDbText
  0
TEXT
  5
70A1
330
1E
100
AcDbEntity
  8
図枠
 62
     7
100
AcDbText
 10
1905.385232753243
 20
543.4910700698058
 30
0.0
 40
5.0
  1
128
100
AcDbText
  0
LINE
  5
70A2
330
1E
100
AcDbEntity
  8
図枠
  6
Continuous
 62
     7
100
AcDbLine
 10
1925.385232753242
 20
640.9910700698057
 30
0.0
 11
1925.385232753242
 21
541.9910700698058
 31
0.0
  0
LINE
  5
70A3
330
1E
100
AcDbEntity
  8
図枠
  6
Continuous
 62
     7
100
AcDbLine
 10
1835.385232753243
 20
640.9910700698057
 30
0.0
 11
1835.385232753243
 21
541.9910700698058
 31
0.0
  0
LINE
  5
70A4
330
1E
100
AcDbEntity
  8
図枠
  6
Continuous
 62
     7
100
AcDbLine
 10
1865.385232753243
 20
640.9910700698057
 30
0.0
 11
1865.385232753243
 21
541.9910700698058
 31
0.0
  0
LINE
  5
70A5
330
1E
100
AcDbEntity
  8
図枠
  6
Continuous
 62
     7
100
AcDbLine
 10
1895.385232753243
 20
640.9910700698057
 30
0.0
 11
1895.385232753243
 21
541.9910700698058
 31
0.0
  0
TEXT
  5
70A6
330
1E
100
AcDbEntity
  8
図枠
 62
     7
100
AcDbText
 10
1710.135232753243
 20
543.4910700698058
 30
0.0
 40
5.0
  1
　　  〃　 　525
100
AcDbText
  0
TEXT
  5
70A7
330
1E
100
AcDbEntity
  8
図枠
 62
     7
100
AcDbText
 10
1710.135232753243
 20
615.4910700698057
 30
0.0
 40
5.0
  1
　　  〃　 　325
100
AcDbText
  0
LINE
  5
70A8
330
1E
100
AcDbEntity
  8
図枠
  6
Continuous
 62
     7
100
AcDbLine
 10
1775.385232753243
 20
640.9910700698057
 30
0.0
 11
1775.385232753243
 21
541.9910700698058
 31
0.0
  0
LINE
  5
70A9
330
1E
100
AcDbEntity
  8
図枠
  6
Continuous
 62
     7
100
AcDbLine
 10
1805.385232753243
 20
640.9910700698057
 30
0.0
 11
1805.385232753243
 21
541.9910700698058
 31
0.0
  0
LINE
  5
70AA
330
1E
100
AcDbEntity
  8
図枠
  6
Continuous
 62
     7
100
AcDbLine
 10
1700.385232753243
 20
640.9910700698057
 30
0.0
 11
1700.385232753243
 21
541.9910700698058
 31
0.0
  0
TEXT
  5
70AB
330
1E
100
AcDbEntity
  8
図枠
 62
     7
100
AcDbText
 10
1815.385232753243
 20
543.4910700698058
 30
0.0
 40
5.0
  1
510
100
AcDbText
  0
TEXT
  5
70AC
330
1E
100
AcDbEntity
  8
図枠
 62
     7
100
AcDbText
 10
1815.385232753243
 20
552.4910700698058
 30
0.0
 40
5.0
  1
485
100
AcDbText
  0
TEXT
  5
70AD
330
1E
100
AcDbEntity
  8
図枠
 62
     7
100
AcDbText
 10
1815.385232753243
 20
561.4910700698057
 30
0.0
 40
5.0
  1
460
100
AcDbText
  0
TEXT
  5
70AE
330
1E
100
AcDbEntity
  8
図枠
 62
     7
100
AcDbText
 10
1815.385232753243
 20
570.4910700698057
 30
0.0
 40
5.0
  1
435
100
AcDbText
  0
TEXT
  5
70AF
330
1E
100
AcDbEntity
  8
図枠
 62
     7
100
AcDbText
 10
1815.385232753243
 20
579.4910700698058
 30
0.0
 40
5.0
  1
410
100
AcDbText
  0
TEXT
  5
70B0
330
1E
100
AcDbEntity
  8
図枠
 62
     7
100
AcDbText
 10
1815.385232753243
 20
588.4910700698058
 30
0.0
 40
5.0
  1
385
100
AcDbText
  0
TEXT
  5
70B1
330
1E
100
AcDbEntity
  8
図枠
 62
     7
100
AcDbText
 10
1815.385232753243
 20
597.4910700698058
 30
0.0
 40
5.0
  1
360
100
AcDbText
  0
TEXT
  5
70B2
330
1E
100
AcDbEntity
  8
図枠
 62
     7
100
AcDbText
 10
1815.385232753243
 20
606.4910700698057
 30
0.0
 40
5.0
  1
335
100
AcDbText
  0
TEXT
  5
70B3
330
1E
100
AcDbEntity
  8
図枠
 62
     7
100
AcDbText
 10
1815.385232753243
 20
615.4910700698057
 30
0.0
 40
5.0
  1
310
100
AcDbText
  0
TEXT
  5
70B4
330
1E
100
AcDbEntity
  8
図枠
 62
     7
100
AcDbText
 10
1815.385232753243
 20
624.4910700698057
 30
0.0
 40
5.0
  1
285
100
AcDbText
  0
TEXT
  5
70B5
330
1E
100
AcDbEntity
  8
図枠
 62
     7
100
AcDbText
 10
1785.385232753243
 20
543.4910700698058
 30
0.0
 40
5.0
  1
525
100
AcDbText
  0
TEXT
  5
70B6
330
1E
100
AcDbEntity
  8
図枠
 62
     7
100
AcDbText
 10
1785.385232753243
 20
552.4910700698058
 30
0.0
 40
5.0
  1
500
100
AcDbText
  0
TEXT
  5
70B7
330
1E
100
AcDbEntity
  8
図枠
 62
     7
100
AcDbText
 10
1785.385232753243
 20
561.4910700698057
 30
0.0
 40
5.0
  1
475
100
AcDbText
  0
TEXT
  5
70B8
330
1E
100
AcDbEntity
  8
図枠
 62
     7
100
AcDbText
 10
1785.385232753243
 20
570.4910700698057
 30
0.0
 40
5.0
  1
450
100
AcDbText
  0
TEXT
  5
70B9
330
1E
100
AcDbEntity
  8
図枠
 62
     7
100
AcDbText
 10
1785.385232753243
 20
579.4910700698058
 30
0.0
 40
5.0
  1
425
100
AcDbText
  0
TEXT
  5
70BA
330
1E
100
AcDbEntity
  8
図枠
 62
     7
100
AcDbText
 10
1785.385232753243
 20
588.4910700698058
 30
0.0
 40
5.0
  1
400
100
AcDbText
  0
TEXT
  5
70BB
330
1E
100
AcDbEntity
  8
図枠
 62
     7
100
AcDbText
 10
1785.385232753243
 20
597.4910700698058
 30
0.0
 40
5.0
  1
375
100
AcDbText
  0
TEXT
  5
70BC
330
1E
100
AcDbEntity
  8
図枠
 62
     7
100
AcDbText
 10
1785.385232753243
 20
606.4910700698057
 30
0.0
 40
5.0
  1
350
100
AcDbText
  0
TEXT
  5
70BD
330
1E
100
AcDbEntity
  8
図枠
 62
     7
100
AcDbText
 10
1785.385232753243
 20
615.4910700698057
 30
0.0
 40
5.0
  1
325
100
AcDbText
  0
TEXT
  5
70BE
330
1E
100
AcDbEntity
  8
図枠
 62
     7
100
AcDbText
 10
1785.385232753243
 20
624.4910700698057
 30
0.0
 40
5.0
  1
300
100
AcDbText
  0
TEXT
  5
70BF
330
1E
100
AcDbEntity
  8
図枠
 62
     7
100
AcDbText
 10
1710.135232753243
 20
552.4910700698058
 30
0.0
 40
5.0
  1
　　  〃　 　500
100
AcDbText
  0
TEXT
  5
70C0
330
1E
100
AcDbEntity
  8
図枠
 62
     7
100
AcDbText
 10
1710.135232753243
 20
561.4910700698057
 30
0.0
 40
5.0
  1
　　  〃　 　475
100
AcDbText
  0
TEXT
  5
70C1
330
1E
100
AcDbEntity
  8
図枠
 62
     7
100
AcDbText
 10
1710.135232753243
 20
570.4910700698057
 30
0.0
 40
5.0
  1
　　  〃　 　450
100
AcDbText
  0
TEXT
  5
70C2
330
1E
100
AcDbEntity
  8
図枠
 62
     7
100
AcDbText
 10
1710.135232753243
 20
579.4910700698058
 30
0.0
 40
5.0
  1
　　  〃　 　425
100
AcDbText
  0
TEXT
  5
70C3
330
1E
100
AcDbEntity
  8
図枠
 62
     7
100
AcDbText
 10
1710.135232753243
 20
588.4910700698058
 30
0.0
 40
5.0
  1
　　  〃　 　400
100
AcDbText
  0
TEXT
  5
70C4
330
1E
100
AcDbEntity
  8
図枠
 62
     7
100
AcDbText
 10
1710.135232753243
 20
597.4910700698058
 30
0.0
 40
5.0
  1
　　  〃　 　375
100
AcDbText
  0
TEXT
  5
70C5
330
1E
100
AcDbEntity
  8
図枠
 62
     7
100
AcDbText
 10
1710.135232753243
 20
606.4910700698057
 30
0.0
 40
5.0
  1
　　  〃　 　350
100
AcDbText
  0
TEXT
  5
70C6
330
1E
100
AcDbEntity
  8
図枠
 62
     7
100
AcDbText
 10
1787.385232753243
 20
633.4910700698058
 30
0.0
 40
5.0
  1
Ｗ
100
AcDbText
  0
TEXT
  5
70C7
330
1E
100
AcDbEntity
  8
図枠
 62
     7
100
AcDbText
 10
1817.385232753243
 20
633.4910700698058
 30
0.0
 40
5.0
  1
Ａ
100
AcDbText
  0
TEXT
  5
70C8
330
1E
100
AcDbEntity
  8
図枠
 62
     7
100
AcDbText
 10
1720.885232753243
 20
633.4910700698058
 30
0.0
 40
5.0
  1
タ　イ　プ
100
AcDbText
  0
TEXT
  5
70C9
330
1E
100
AcDbEntity
  8
図枠
 62
     7
100
AcDbText
 10
1666.885232753243
 20
633.4910700698058
 30
0.0
 40
5.0
  1
単位
100
AcDbText
  0
TEXT
  5
70CA
330
1E
100
AcDbEntity
  8
図枠
 62
     7
100
AcDbText
 10
1670.385232753243
 20
435.4910700698058
 30
0.0
 40
5.0
  1
巻
100
AcDbText
  0
TEXT
  5
70CB
330
1E
100
AcDbEntity
  8
図枠
 62
     7
100
AcDbText
 10
1670.385232753243
 20
444.4910700698057
 30
0.0
 40
5.0
  1
〃
100
AcDbText
  0
TEXT
  5
70CC
330
1E
100
AcDbEntity
  8
図枠
 62
     7
100
AcDbText
 10
1670.385232753243
 20
453.4910700698058
 30
0.0
 40
5.0
  1
枚
100
AcDbText
  0
TEXT
  5
70CD
330
1E
100
AcDbEntity
  8
図枠
 62
     7
100
AcDbText
 10
1670.385232753243
 20
462.4910700698058
 30
0.0
 40
5.0
  1
〃
100
AcDbText
  0
TEXT
  5
70CE
330
1E
100
AcDbEntity
  8
図枠
 62
     7
100
AcDbText
 10
1670.385232753243
 20
471.4910700698058
 30
0.0
 40
5.0
  1
〃
100
AcDbText
  0
TEXT
  5
70CF
330
1E
100
AcDbEntity
  8
図枠
 62
     7
100
AcDbText
 10
1670.385232753243
 20
480.4910700698058
 30
0.0
 40
5.0
  1
〃
100
AcDbText
  0
TEXT
  5
70D0
330
1E
100
AcDbEntity
  8
図枠
 62
     7
100
AcDbText
 10
1670.385232753243
 20
489.4910700698059
 30
0.0
 40
5.0
  1
〃
100
AcDbText
  0
TEXT
  5
70D1
330
1E
100
AcDbEntity
  8
図枠
 62
     7
100
AcDbText
 10
1670.385232753243
 20
498.4910700698058
 30
0.0
 40
5.0
  1
〃
100
AcDbText
  0
TEXT
  5
70D2
330
1E
100
AcDbEntity
  8
図枠
 62
     7
100
AcDbText
 10
1670.385232753243
 20
507.4910700698057
 30
0.0
 40
5.0
  1
〃
100
AcDbText
  0
TEXT
  5
70D3
330
1E
100
AcDbEntity
  8
図枠
 62
     7
100
AcDbText
 10
1670.385232753243
 20
516.4910700698057
 30
0.0
 40
5.0
  1
本
100
AcDbText
  0
TEXT
  5
70D4
330
1E
100
AcDbEntity
  8
図枠
 62
     7
100
AcDbText
 10
1670.385232753243
 20
525.4910700698058
 30
0.0
 40
5.0
  1
〃
100
AcDbText
  0
TEXT
  5
70D5
330
1E
100
AcDbEntity
  8
図枠
 62
     7
100
AcDbText
 10
1670.385232753243
 20
534.4910700698058
 30
0.0
 40
5.0
  1
枚
100
AcDbText
  0
TEXT
  5
70D6
330
1E
100
AcDbEntity
  8
図枠
 62
     7
100
AcDbText
 10
1670.385232753243
 20
543.4910700698058
 30
0.0
 40
5.0
  1
〃
100
AcDbText
  0
TEXT
  5
70D7
330
1E
100
AcDbEntity
  8
図枠
 62
     7
100
AcDbText
 10
1670.385232753243
 20
552.4910700698058
 30
0.0
 40
5.0
  1
〃
100
AcDbText
  0
TEXT
  5
70D8
330
1E
100
AcDbEntity
  8
図枠
 62
     7
100
AcDbText
 10
1670.385232753243
 20
561.4910700698057
 30
0.0
 40
5.0
  1
〃
100
AcDbText
  0
TEXT
  5
70D9
330
1E
100
AcDbEntity
  8
図枠
 62
     7
100
AcDbText
 10
1670.385232753243
 20
570.4910700698057
 30
0.0
 40
5.0
  1
〃
100
AcDbText
  0
TEXT
  5
70DA
330
1E
100
AcDbEntity
  8
図枠
 62
     7
100
AcDbText
 10
1670.385232753243
 20
579.4910700698058
 30
0.0
 40
5.0
  1
〃
100
AcDbText
  0
TEXT
  5
70DB
330
1E
100
AcDbEntity
  8
図枠
 62
     7
100
AcDbText
 10
1670.385232753243
 20
588.4910700698058
 30
0.0
 40
5.0
  1
〃
100
AcDbText
  0
TEXT
  5
70DC
330
1E
100
AcDbEntity
  8
図枠
 62
     7
100
AcDbText
 10
1670.385232753243
 20
597.4910700698058
 30
0.0
 40
5.0
  1
〃
100
AcDbText
  0
TEXT
  5
70DD
330
1E
100
AcDbEntity
  8
図枠
 62
     7
100
AcDbText
 10
1670.385232753243
 20
606.4910700698057
 30
0.0
 40
5.0
  1
〃
100
AcDbText
  0
TEXT
  5
70DE
330
1E
100
AcDbEntity
  8
図枠
 62
     7
100
AcDbText
 10
1670.385232753243
 20
615.4910700698057
 30
0.0
 40
5.0
  1
〃
100
AcDbText
  0
TEXT
  5
70DF
330
1E
100
AcDbEntity
  8
図枠
 62
     7
100
AcDbText
 10
1670.385232753243
 20
624.4910700698057
 30
0.0
 40
5.0
  1
本
100
AcDbText
  0
TEXT
  5
70E0
330
1E
100
AcDbEntity
  8
図枠
 62
     7
100
AcDbText
 10
1654.135232753243
 20
435.4910700698058
 30
0.0
 40
5.0
  1
 1
100
AcDbText
  0
TEXT
  5
70E1
330
1E
100
AcDbEntity
  8
図枠
 62
     7
100
AcDbText
 10
1654.135232753243
 20
444.4910700698057
 30
0.0
 40
5.0
  1
 5
100
AcDbText
  0
TEXT
  5
70E2
330
1E
100
AcDbEntity
  8
図枠
 62
     7
100
AcDbText
 10
1654.135232753243
 20
453.4910700698058
 30
0.0
 40
5.0
  1
 5
100
AcDbText
  0
TEXT
  5
70E3
330
1E
100
AcDbEntity
  8
図枠
 62
     7
100
AcDbText
 10
1654.135232753243
 20
462.4910700698058
 30
0.0
 40
5.0
  1
 5
100
AcDbText
  0
TEXT
  5
70E4
330
1E
100
AcDbEntity
  8
図枠
 62
     7
100
AcDbText
 10
1654.135232753243
 20
471.4910700698058
 30
0.0
 40
5.0
  1
 5
100
AcDbText
  0
TEXT
  5
70E5
330
1E
100
AcDbEntity
  8
図枠
 62
     7
100
AcDbText
 10
1654.135232753243
 20
480.4910700698058
 30
0.0
 40
5.0
  1
 5
100
AcDbText
  0
TEXT
  5
70E6
330
1E
100
AcDbEntity
  8
図枠
 62
     7
100
AcDbText
 10
1654.135232753243
 20
489.4910700698059
 30
0.0
 40
5.0
  1
 5
100
AcDbText
  0
TEXT
  5
70E7
330
1E
100
AcDbEntity
  8
図枠
 62
     7
100
AcDbText
 10
1654.135232753243
 20
498.4910700698058
 30
0.0
 40
5.0
  1
 5
100
AcDbText
  0
TEXT
  5
70E8
330
1E
100
AcDbEntity
  8
図枠
 62
     7
100
AcDbText
 10
1654.135232753243
 20
507.4910700698057
 30
0.0
 40
5.0
  1
 4
100
AcDbText
  0
TEXT
  5
70E9
330
1E
100
AcDbEntity
  8
図枠
 62
     7
100
AcDbText
 10
1654.135232753243
 20
516.4910700698057
 30
0.0
 40
5.0
  1
 1
100
AcDbText
  0
TEXT
  5
70EA
330
1E
100
AcDbEntity
  8
図枠
 62
     7
100
AcDbText
 10
1654.135232753243
 20
525.4910700698058
 30
0.0
 40
5.0
  1
 1
100
AcDbText
  0
TEXT
  5
70EB
330
1E
100
AcDbEntity
  8
図枠
 62
     7
100
AcDbText
 10
1654.135232753243
 20
534.4910700698058
 30
0.0
 40
5.0
  1
 1
100
AcDbText
  0
TEXT
  5
70EC
330
1E
100
AcDbEntity
  8
図枠
 62
     7
100
AcDbText
 10
1654.135232753243
 20
543.4910700698058
 30
0.0
 40
5.0
  1
 1
100
AcDbText
  0
TEXT
  5
70ED
330
1E
100
AcDbEntity
  8
図枠
 62
     7
100
AcDbText
 10
1654.135232753243
 20
552.4910700698058
 30
0.0
 40
5.0
  1
 1
100
AcDbText
  0
TEXT
  5
70EE
330
1E
100
AcDbEntity
  8
図枠
 62
     7
100
AcDbText
 10
1654.135232753243
 20
561.4910700698057
 30
0.0
 40
5.0
  1
 4
100
AcDbText
  0
TEXT
  5
70EF
330
1E
100
AcDbEntity
  8
図枠
 62
     7
100
AcDbText
 10
1654.135232753243
 20
570.4910700698057
 30
0.0
 40
5.0
  1
 4
100
AcDbText
  0
TEXT
  5
70F0
330
1E
100
AcDbEntity
  8
図枠
 62
     7
100
AcDbText
 10
1654.135232753243
 20
579.4910700698058
 30
0.0
 40
5.0
  1
 4
100
AcDbText
  0
TEXT
  5
70F1
330
1E
100
AcDbEntity
  8
図枠
 62
     7
100
AcDbText
 10
1654.135232753243
 20
588.4910700698058
 30
0.0
 40
5.0
  1
 1
100
AcDbText
  0
TEXT
  5
70F2
330
1E
100
AcDbEntity
  8
図枠
 62
     7
100
AcDbText
 10
1654.135232753243
 20
597.4910700698058
 30
0.0
 40
5.0
  1
 1
100
AcDbText
  0
TEXT
  5
70F3
330
1E
100
AcDbEntity
  8
図枠
 62
     7
100
AcDbText
 10
1654.135232753243
 20
606.4910700698057
 30
0.0
 40
5.0
  1
 1
100
AcDbText
  0
TEXT
  5
70F4
330
1E
100
AcDbEntity
  8
図枠
 62
     7
100
AcDbText
 10
1654.135232753243
 20
615.4910700698057
 30
0.0
 40
5.0
  1
 1
100
AcDbText
  0
TEXT
  5
70F5
330
1E
100
AcDbEntity
  8
図枠
 62
     7
100
AcDbText
 10
1654.135232753243
 20
624.4910700698057
 30
0.0
 40
5.0
  1
 1
100
AcDbText
  0
TEXT
  5
70F6
330
1E
100
AcDbEntity
  8
図枠
 62
     7
100
AcDbText
 10
1650.885232753243
 20
633.4910700698058
 30
0.0
 40
5.0
  1
入数
100
AcDbText
  0
TEXT
  5
70F7
330
1E
100
AcDbEntity
  8
図枠
 62
     7
100
AcDbText
 10
1624.135232753243
 20
435.4910700698058
 30
0.0
 40
5.0
  1
6000
100
AcDbText
  0
TEXT
  5
70F8
330
1E
100
AcDbEntity
  8
図枠
 62
     7
100
AcDbText
 10
1624.135232753243
 20
516.4910700698057
 30
0.0
 40
5.0
  1
2000
100
AcDbText
  0
TEXT
  5
70F9
330
1E
100
AcDbEntity
  8
図枠
 62
     7
100
AcDbText
 10
1624.135232753243
 20
525.4910700698058
 30
0.0
 40
5.0
  1
2100
100
AcDbText
  0
TEXT
  5
70FA
330
1E
100
AcDbEntity
  8
図枠
 62
     7
100
AcDbText
 10
1624.135232753243
 20
534.4910700698058
 30
0.0
 40
5.0
  1
2060
100
AcDbText
  0
TEXT
  5
70FB
330
1E
100
AcDbEntity
  8
図枠
 62
     7
100
AcDbText
 10
1624.135232753243
 20
588.4910700698058
 30
0.0
 40
5.0
  1
2010
100
AcDbText
  0
TEXT
  5
70FC
330
1E
100
AcDbEntity
  8
図枠
 62
     7
100
AcDbText
 10
1624.135232753243
 20
597.4910700698058
 30
0.0
 40
5.0
  1
2000
100
AcDbText
  0
TEXT
  5
70FD
330
1E
100
AcDbEntity
  8
図枠
 62
     7
100
AcDbText
 10
1624.135232753243
 20
606.4910700698057
 30
0.0
 40
5.0
  1
2000
100
AcDbText
  0
TEXT
  5
70FE
330
1E
100
AcDbEntity
  8
図枠
 62
     7
100
AcDbText
 10
1624.135232753243
 20
615.4910700698057
 30
0.0
 40
5.0
  1
2000
100
AcDbText
  0
TEXT
  5
70FF
330
1E
100
AcDbEntity
  8
図枠
 62
     7
100
AcDbText
 10
1624.135232753243
 20
624.4910700698057
 30
0.0
 40
5.0
  1
2000
100
AcDbText
  0
TEXT
  5
7100
330
1E
100
AcDbEntity
  8
図枠
 62
     7
100
AcDbText
 10
1617.135232753243
 20
633.4910700698058
 30
0.0
 40
5.0
  1
定尺(mm)
100
AcDbText
  0
LINE
  5
7101
330
1E
100
AcDbEntity
  8
図枠
  6
Continuous
 62
     7
100
AcDbLine
 10
1680.385232753243
 20
433.9910700698058
 30
0.0
 11
1680.385232753243
 21
640.9910700698057
 31
0.0
  0
LINE
  5
7102
330
1E
100
AcDbEntity
  8
図枠
  6
Continuous
 62
     7
100
AcDbLine
 10
1613.385232753243
 20
433.9910700698058
 30
0.0
 11
1680.385232753243
 21
433.9910700698058
 31
0.0
  0
LINE
  5
7103
330
1E
100
AcDbEntity
  8
図枠
  6
Continuous
 62
     7
100
AcDbLine
 10
1613.385232753243
 20
442.9910700698058
 30
0.0
 11
1680.385232753243
 21
442.9910700698058
 31
0.0
  0
LINE
  5
7104
330
1E
100
AcDbEntity
  8
図枠
  6
Continuous
 62
     7
100
AcDbLine
 10
1613.385232753243
 20
451.9910700698059
 30
0.0
 11
1680.385232753243
 21
451.9910700698059
 31
0.0
  0
LINE
  5
7105
330
1E
100
AcDbEntity
  8
図枠
  6
Continuous
 62
     7
100
AcDbLine
 10
1613.385232753243
 20
460.9910700698058
 30
0.0
 11
1680.385232753243
 21
460.9910700698058
 31
0.0
  0
LINE
  5
7106
330
1E
100
AcDbEntity
  8
図枠
  6
Continuous
 62
     7
100
AcDbLine
 10
1613.385232753243
 20
469.9910700698058
 30
0.0
 11
1680.385232753243
 21
469.9910700698058
 31
0.0
  0
LINE
  5
7107
330
1E
100
AcDbEntity
  8
図枠
  6
Continuous
 62
     7
100
AcDbLine
 10
1613.385232753243
 20
478.9910700698058
 30
0.0
 11
1680.385232753243
 21
478.9910700698058
 31
0.0
  0
LINE
  5
7108
330
1E
100
AcDbEntity
  8
図枠
  6
Continuous
 62
     7
100
AcDbLine
 10
1613.385232753243
 20
487.9910700698058
 30
0.0
 11
1680.385232753243
 21
487.9910700698058
 31
0.0
  0
LINE
  5
7109
330
1E
100
AcDbEntity
  8
図枠
  6
Continuous
 62
     7
100
AcDbLine
 10
1613.385232753243
 20
496.9910700698058
 30
0.0
 11
1680.385232753243
 21
496.9910700698058
 31
0.0
  0
LINE
  5
710A
330
1E
100
AcDbEntity
  8
図枠
  6
Continuous
 62
     7
100
AcDbLine
 10
1613.385232753243
 20
505.9910700698058
 30
0.0
 11
1680.385232753243
 21
505.9910700698058
 31
0.0
  0
LINE
  5
710B
330
1E
100
AcDbEntity
  8
図枠
  6
Continuous
 62
     7
100
AcDbLine
 10
1613.385232753243
 20
514.9910700698058
 30
0.0
 11
1680.385232753243
 21
514.9910700698058
 31
0.0
  0
LINE
  5
710C
330
1E
100
AcDbEntity
  8
図枠
  6
Continuous
 62
     7
100
AcDbLine
 10
1613.385232753243
 20
523.9910700698057
 30
0.0
 11
1680.385232753243
 21
523.9910700698057
 31
0.0
  0
LINE
  5
710D
330
1E
100
AcDbEntity
  8
図枠
  6
Continuous
 62
     7
100
AcDbLine
 10
1613.385232753243
 20
532.9910700698057
 30
0.0
 11
1680.385232753243
 21
532.9910700698057
 31
0.0
  0
LINE
  5
710E
330
1E
100
AcDbEntity
  8
図枠
  6
Continuous
 62
     7
100
AcDbLine
 10
1613.385232753243
 20
541.9910700698058
 30
0.0
 11
1680.385232753243
 21
541.9910700698058
 31
0.0
  0
LINE
  5
710F
330
1E
100
AcDbEntity
  8
図枠
  6
Continuous
 62
     7
100
AcDbLine
 10
1613.385232753243
 20
550.9910700698058
 30
0.0
 11
1680.385232753243
 21
550.9910700698058
 31
0.0
  0
LINE
  5
7110
330
1E
100
AcDbEntity
  8
図枠
  6
Continuous
 62
     7
100
AcDbLine
 10
1613.385232753243
 20
559.9910700698058
 30
0.0
 11
1680.385232753243
 21
559.9910700698058
 31
0.0
  0
LINE
  5
7111
330
1E
100
AcDbEntity
  8
図枠
  6
Continuous
 62
     7
100
AcDbLine
 10
1613.385232753243
 20
568.9910700698058
 30
0.0
 11
1680.385232753243
 21
568.9910700698058
 31
0.0
  0
LINE
  5
7112
330
1E
100
AcDbEntity
  8
図枠
  6
Continuous
 62
     7
100
AcDbLine
 10
1613.385232753243
 20
577.9910700698057
 30
0.0
 11
1680.385232753243
 21
577.9910700698057
 31
0.0
  0
LINE
  5
7113
330
1E
100
AcDbEntity
  8
図枠
  6
Continuous
 62
     7
100
AcDbLine
 10
1613.385232753243
 20
586.9910700698057
 30
0.0
 11
1680.385232753243
 21
586.9910700698057
 31
0.0
  0
LINE
  5
7114
330
1E
100
AcDbEntity
  8
図枠
  6
Continuous
 62
     7
100
AcDbLine
 10
1613.385232753243
 20
595.9910700698058
 30
0.0
 11
1680.385232753243
 21
595.9910700698058
 31
0.0
  0
LINE
  5
7115
330
1E
100
AcDbEntity
  8
図枠
  6
Continuous
 62
     7
100
AcDbLine
 10
1613.385232753243
 20
604.9910700698058
 30
0.0
 11
1680.385232753243
 21
604.9910700698058
 31
0.0
  0
LINE
  5
7116
330
1E
100
AcDbEntity
  8
図枠
  6
Continuous
 62
     7
100
AcDbLine
 10
1613.385232753243
 20
613.9910700698058
 30
0.0
 11
1680.385232753243
 21
613.9910700698058
 31
0.0
  0
LINE
  5
7117
330
1E
100
AcDbEntity
  8
図枠
  6
Continuous
 62
     7
100
AcDbLine
 10
1613.385232753243
 20
622.9910700698058
 30
0.0
 11
1680.385232753243
 21
622.9910700698058
 31
0.0
  0
LINE
  5
7118
330
1E
100
AcDbEntity
  8
図枠
  6
Continuous
 62
     7
100
AcDbLine
 10
1613.385232753243
 20
631.9910700698057
 30
0.0
 11
1680.385232753243
 21
631.9910700698057
 31
0.0
  0
LINE
  5
7119
330
1E
100
AcDbEntity
  8
図枠
  6
Continuous
 62
     7
100
AcDbLine
 10
1613.385232753243
 20
640.9910700698057
 30
0.0
 11
1680.385232753243
 21
640.9910700698057
 31
0.0
  0
LINE
  5
711A
330
1E
100
AcDbEntity
  8
図枠
  6
Continuous
 62
     7
100
AcDbLine
 10
1666.385232753243
 20
433.9910700698058
 30
0.0
 11
1666.385232753243
 21
640.9910700698057
 31
0.0
  0
LINE
  5
711B
330
1E
100
AcDbEntity
  8
図枠
  6
Continuous
 62
     7
100
AcDbLine
 10
1648.385232753243
 20
433.9910700698058
 30
0.0
 11
1648.385232753243
 21
640.9910700698057
 31
0.0
  0
LINE
  5
711C
330
1E
100
AcDbEntity
  8
図枠
  6
Continuous
 62
     7
100
AcDbLine
 10
1613.385232753243
 20
433.9910700698058
 30
0.0
 11
1613.385232753243
 21
640.9910700698057
 31
0.0
  0
ARC
  5
711D
330
1E
100
AcDbEntity
  8
躯体と製品
  6
DASHED1
 62
     7
100
AcDbCircle
 10
1512.885232753243
 20
846.5263132490038
 30
0.0
 40
7.5
100
AcDbArc
 50
180.0
 51
266.9999999999944
  0
ARC
  5
711E
330
1E
100
AcDbEntity
  8
躯体と製品
  6
DASHED1
 62
     7
100
AcDbCircle
 10
1512.885232753243
 20
846.5263132490042
 30
0.0
 40
3.0
100
AcDbArc
 50
180.0
 51
266.9999999999944
  0
LINE
  5
711F
330
1E
100
AcDbEntity
  8
躯体と製品
  6
DASHED1
 62
     7
100
AcDbLine
 10
1505.385232753243
 20
846.5263132490038
 30
0.0
 11
1505.385232753243
 21
858.6794195488597
 31
0.0
  0
LINE
  5
7120
330
1E
100
AcDbEntity
  8
躯体と製品
  6
DASHED1
 62
     7
100
AcDbLine
 10
1509.885232753243
 20
858.6794195488597
 30
0.0
 11
1505.385232753243
 21
858.6794195488597
 31
0.0
  0
LINE
  5
7121
330
1E
100
AcDbEntity
  8
躯体と製品
  6
DASHED1
 62
     7
100
AcDbLine
 10
1509.885232753243
 20
846.5263132490042
 30
0.0
 11
1509.885232753243
 21
858.6794195488597
 31
0.0
  0
ARC
  5
7122
330
1E
100
AcDbEntity
  8
躯体と製品
  6
DASHED1
 62
     7
100
AcDbCircle
 10
1803.548412387514
 20
820.7788918520467
 30
0.0
 40
3.0
100
AcDbArc
 50
10.12467165539644
 51
86.99999999999441
  0
LINE
  5
7123
330
1E
100
AcDbEntity
  8
躯体と製品
  6
DASHED1
 62
     7
100
AcDbLine
 10
1806.501695114039
 20
821.3062637674976
 30
0.0
 11
1820.455308663454
 21
743.1660278907712
 31
0.0
  0
LINE
  5
7124
330
1E
100
AcDbEntity
  8
躯体と製品
  6
DASHED1
 62
     7
100
AcDbLine
 10
1824.885232753243
 20
743.9570857639475
 30
0.0
 11
1820.455308663518
 21
743.1660278904155
 31
0.0
  0
LINE
  5
7125
330
1E
100
AcDbEntity
  8
躯体と製品
  6
DASHED1
 62
     7
100
AcDbLine
 10
1810.931619203827
 20
822.0973216406742
 30
0.0
 11
1824.885232753243
 21
743.9570857639475
 31
0.0
  0
ARC
  5
7126
330
1E
100
AcDbEntity
  8
躯体と製品
  6
DASHED1
 62
     7
100
AcDbCircle
 10
1803.548412387514
 20
820.7788918520467
 30
0.0
 40
7.5
100
AcDbArc
 50
10.12467165539644
 51
86.99999999999441
  0
LINE
  5
7127
330
1E
100
AcDbEntity
  8
躯体と製品
  6
Continuous
 62
     7
100
AcDbLine
 10
1500.885232753243
 20
780.9910700698058
 30
0.0
 11
1525.885232753243
 21
780.9910700698058
 31
0.0
  0
LINE
  5
7128
330
1E
100
AcDbEntity
  8
躯体と製品
  6
Continuous
 62
     7
100
AcDbLine
 10
1625.885232753243
 20
780.9910700698058
 30
0.0
 11
1750.885232753243
 21
780.9910700698058
 31
0.0
  0
LINE
  5
7129
330
1E
100
AcDbEntity
  8
躯体と製品
  6
Continuous
 62
     7
100
AcDbLine
 10
1525.885232753243
 20
780.9910700698058
 30
0.0
 11
1525.885232753243
 21
650.9910700698059
 31
0.0
  0
LINE
  5
712A
330
1E
100
AcDbEntity
  8
躯体と製品
  6
Continuous
 62
     7
100
AcDbLine
 10
1625.885232753243
 20
780.9910700698058
 30
0.0
 11
1625.885232753243
 21
650.9910700698059
 31
0.0
  0
LINE
  5
712B
330
1E
100
AcDbEntity
  8
躯体と製品
  6
Continuous
 62
     7
100
AcDbLine
 10
1750.885232753243
 20
780.9910700698058
 30
0.0
 11
1750.885232753243
 21
650.9910700698059
 31
0.0
  0
ARC
  5
712C
330
1E
100
AcDbEntity
  8
躯体と製品
  6
Continuous
 62
     7
100
AcDbCircle
 10
1750.856672979344
 20
779.9914779833452
 30
0.0
 40
1.0
100
AcDbArc
 50
4.999999999999459
 51
88.3634229583817
  0
LINE
  5
712D
330
1E
100
AcDbEntity
  8
躯体と製品
  6
Continuous
 62
     3
100
AcDbLine
 10
1685.885232753243
 20
780.9910700698058
 30
0.0
 11
1685.885232753243
 21
781.9910700698057
 31
0.0
  0
LINE
  5
712E
330
1E
100
AcDbEntity
  8
躯体と製品
  6
Continuous
 62
     3
100
AcDbLine
 10
1715.885232753243
 20
781.9910700698057
 30
0.0
 11
1715.885232753243
 21
780.9910700698058
 31
0.0
  0
LINE
  5
712F
330
1E
100
AcDbEntity
  8
躯体と製品
  6
Continuous
 62
     3
100
AcDbLine
 10
1685.885232753243
 20
781.9910700698057
 30
0.0
 11
1715.885232753243
 21
781.9910700698057
 31
0.0
  0
LINE
  5
7130
330
1E
100
AcDbEntity
  8
躯体と製品
  6
Continuous
 62
     3
100
AcDbLine
 10
1715.885232753243
 20
780.9910700698058
 30
0.0
 11
1685.885232753243
 21
780.9910700698058
 31
0.0
  0
LINE
  5
7131
330
1E
100
AcDbEntity
  8
躯体と製品
  6
Continuous
 62
     4
100
AcDbLine
 10
1715.009695091384
 20
780.991070069806
 30
0.0
 11
1715.885232753243
 21
781.8666077316652
 31
0.0
  0
LINE
  5
7132
330
1E
100
AcDbEntity
  8
躯体と製品
  6
Continuous
 62
     4
100
AcDbLine
 10
1713.59548152901
 20
780.9910700698063
 30
0.0
 11
1714.59548152901
 21
781.991070069806
 31
0.0
  0
LINE
  5
7133
330
1E
100
AcDbEntity
  8
躯体と製品
  6
Continuous
 62
     4
100
AcDbLine
 10
1712.181267966637
 20
780.991070069806
 30
0.0
 11
1713.181267966637
 21
781.9910700698057
 31
0.0
  0
LINE
  5
7134
330
1E
100
AcDbEntity
  8
躯体と製品
  6
Continuous
 62
     4
100
AcDbLine
 10
1710.767054404263
 20
780.9910700698057
 30
0.0
 11
1711.767054404264
 21
781.9910700698057
 31
0.0
  0
LINE
  5
7135
330
1E
100
AcDbEntity
  8
躯体と製品
  6
Continuous
 62
     4
100
AcDbLine
 10
1709.35284084189
 20
780.9910700698057
 30
0.0
 11
1710.35284084189
 21
781.991070069806
 31
0.0
  0
LINE
  5
7136
330
1E
100
AcDbEntity
  8
躯体と製品
  6
Continuous
 62
     4
100
AcDbLine
 10
1707.938627279517
 20
780.9910700698058
 30
0.0
 11
1708.938627279517
 21
781.991070069806
 31
0.0
  0
LINE
  5
7137
330
1E
100
AcDbEntity
  8
躯体と製品
  6
Continuous
 62
     4
100
AcDbLine
 10
1706.524413717144
 20
780.991070069806
 30
0.0
 11
1707.524413717144
 21
781.991070069806
 31
0.0
  0
LINE
  5
7138
330
1E
100
AcDbEntity
  8
躯体と製品
  6
Continuous
 62
     4
100
AcDbLine
 10
1705.110200154772
 20
780.9910700698055
 30
0.0
 11
1706.110200154771
 21
781.9910700698052
 31
0.0
  0
LINE
  5
7139
330
1E
100
AcDbEntity
  8
躯体と製品
  6
Continuous
 62
     4
100
AcDbLine
 10
1703.695986592398
 20
780.9910700698057
 30
0.0
 11
1704.695986592398
 21
781.9910700698053
 31
0.0
  0
LINE
  5
713A
330
1E
100
AcDbEntity
  8
躯体と製品
  6
Continuous
 62
     4
100
AcDbLine
 10
1702.281773030025
 20
780.9910700698057
 30
0.0
 11
1703.281773030025
 21
781.9910700698056
 31
0.0
  0
LINE
  5
713B
330
1E
100
AcDbEntity
  8
躯体と製品
  6
Continuous
 62
     4
100
AcDbLine
 10
1700.867559467652
 20
780.9910700698058
 30
0.0
 11
1701.867559467651
 21
781.9910700698057
 31
0.0
  0
LINE
  5
713C
330
1E
100
AcDbEntity
  8
躯体と製品
  6
Continuous
 62
     4
100
AcDbLine
 10
1699.453345905278
 20
780.991070069805
 30
0.0
 11
1700.453345905278
 21
781.9910700698056
 31
0.0
  0
LINE
  5
713D
330
1E
100
AcDbEntity
  8
躯体と製品
  6
Continuous
 62
     4
100
AcDbLine
 10
1698.039132342905
 20
780.9910700698053
 30
0.0
 11
1699.039132342905
 21
781.9910700698057
 31
0.0
  0
LINE
  5
713E
330
1E
100
AcDbEntity
  8
躯体と製品
  6
Continuous
 62
     4
100
AcDbLine
 10
1696.624918780532
 20
780.9910700698055
 30
0.0
 11
1697.624918780532
 21
781.9910700698057
 31
0.0
  0
LINE
  5
713F
330
1E
100
AcDbEntity
  8
躯体と製品
  6
Continuous
 62
     4
100
AcDbLine
 10
1695.210705218158
 20
780.9910700698057
 30
0.0
 11
1696.210705218159
 21
781.9910700698057
 31
0.0
  0
LINE
  5
7140
330
1E
100
AcDbEntity
  8
躯体と製品
  6
Continuous
 62
     4
100
AcDbLine
 10
1693.796491655787
 20
780.991070069806
 30
0.0
 11
1694.796491655787
 21
781.9910700698057
 31
0.0
  0
LINE
  5
7141
330
1E
100
AcDbEntity
  8
躯体と製品
  6
Continuous
 62
     4
100
AcDbLine
 10
1692.382278093414
 20
780.991070069806
 30
0.0
 11
1693.382278093414
 21
781.9910700698057
 31
0.0
  0
LINE
  5
7142
330
1E
100
AcDbEntity
  8
躯体と製品
  6
Continuous
 62
     4
100
AcDbLine
 10
1690.968064531041
 20
780.991070069806
 30
0.0
 11
1691.968064531041
 21
781.991070069806
 31
0.0
  0
LINE
  5
7143
330
1E
100
AcDbEntity
  8
躯体と製品
  6
Continuous
 62
     4
100
AcDbLine
 10
1689.553850968668
 20
780.9910700698063
 30
0.0
 11
1690.553850968667
 21
781.991070069806
 31
0.0
  0
LINE
  5
7144
330
1E
100
AcDbEntity
  8
躯体と製品
  6
Continuous
 62
     4
100
AcDbLine
 10
1688.139637406294
 20
780.9910700698058
 30
0.0
 11
1689.139637406294
 21
781.991070069806
 31
0.0
  0
LINE
  5
7145
330
1E
100
AcDbEntity
  8
躯体と製品
  6
Continuous
 62
     4
100
AcDbLine
 10
1686.72542384392
 20
780.991070069806
 30
0.0
 11
1687.725423843921
 21
781.9910700698064
 31
0.0
  0
LINE
  5
7146
330
1E
100
AcDbEntity
  8
躯体と製品
  6
Continuous
 62
     4
100
AcDbLine
 10
1685.885232753243
 20
781.5650925415013
 30
0.0
 11
1686.311210281548
 21
781.9910700698064
 31
0.0
  0
LINE
  5
7147
330
1E
100
AcDbEntity
  8
躯体と製品
  6
DASHED1
 62
     7
100
AcDbLine
 10
1696.835232753243
 20
782.9910700698058
 30
0.0
 11
1696.835232753243
 21
773.6910700698058
 31
0.0
  0
LINE
  5
7148
330
1E
100
AcDbEntity
  8
躯体と製品
  6
DASHED1
 62
     7
100
AcDbLine
 10
1704.935232753243
 20
782.9910700698058
 30
0.0
 11
1704.935232753243
 21
773.6910700698058
 31
0.0
  0
LINE
  5
7149
330
1E
100
AcDbEntity
  8
躯体と製品
  6
DASHED1
 62
     7
100
AcDbLine
 10
1696.135232753243
 20
772.9910700698058
 30
0.0
 11
1696.835232753243
 21
773.6910700698058
 31
0.0
  0
LINE
  5
714A
330
1E
100
AcDbEntity
  8
躯体と製品
  6
DASHED1
 62
     7
100
AcDbLine
 10
1696.135232753243
 20
754.3628960698058
 30
0.0
 11
1696.135232753243
 21
772.9910700698058
 31
0.0
  0
LINE
  5
714B
330
1E
100
AcDbEntity
  8
躯体と製品
  6
DASHED1
 62
     7
100
AcDbLine
 10
1696.385232753243
 20
742.4910700698059
 30
0.0
 11
1696.385232753243
 21
743.3543740698057
 31
0.0
  0
LINE
  5
714C
330
1E
100
AcDbEntity
  8
躯体と製品
  6
DASHED1
 62
     7
100
AcDbLine
 10
1694.260202753242
 20
743.7290740698058
 30
0.0
 11
1696.135232753243
 21
754.3628960698058
 31
0.0
  0
LINE
  5
714D
330
1E
100
AcDbEntity
  8
躯体と製品
  6
DASHED1
 62
     7
100
AcDbLine
 10
1700.385232753243
 20
753.9910700698058
 30
0.0
 11
1701.385232753243
 21
753.9910700698058
 31
0.0
  0
LINE
  5
714E
330
1E
100
AcDbEntity
  8
躯体と製品
  6
DASHED1
 62
     7
100
AcDbLine
 10
1705.635232753243
 20
772.9910700698058
 30
0.0
 11
1704.935232753243
 21
773.6910700698058
 31
0.0
  0
LINE
  5
714F
330
1E
100
AcDbEntity
  8
躯体と製品
  6
DASHED1
 62
     7
100
AcDbLine
 10
1705.635232753243
 20
754.3628960698058
 30
0.0
 11
1705.635232753243
 21
772.9910700698058
 31
0.0
  0
LINE
  5
7150
330
1E
100
AcDbEntity
  8
躯体と製品
  6
DASHED1
 62
     7
100
AcDbLine
 10
1704.385232753243
 20
741.4910700698058
 30
0.0
 11
1697.385232753243
 21
741.4910700698058
 31
0.0
  0
ARC
  5
7151
330
1E
100
AcDbEntity
  8
躯体と製品
  6
DASHED1
 62
     7
100
AcDbCircle
 10
1704.385232753243
 20
742.4910700698059
 30
0.0
 40
1.0
100
AcDbArc
 50
270.0
 51
0.0
  0
LINE
  5
7152
330
1E
100
AcDbEntity
  8
躯体と製品
  6
DASHED1
 62
     7
100
AcDbLine
 10
1705.385232753243
 20
742.4910700698059
 30
0.0
 11
1705.385232753243
 21
743.3543740698057
 31
0.0
  0
LINE
  5
7153
330
1E
100
AcDbEntity
  8
躯体と製品
  6
DASHED1
 62
     7
100
AcDbLine
 10
1707.510262753243
 20
743.7290740698058
 30
0.0
 11
1703.324829753243
 21
742.9910700698059
 31
0.0
  0
LINE
  5
7154
330
1E
100
AcDbEntity
  8
躯体と製品
  6
DASHED1
 62
     7
100
AcDbLine
 10
1700.385232753243
 20
753.9910700698058
 30
0.0
 11
1698.445635753243
 21
742.9910700698059
 31
0.0
  0
LINE
  5
7155
330
1E
100
AcDbEntity
  8
躯体と製品
  6
DASHED1
 62
     7
100
AcDbLine
 10
1701.385232753243
 20
753.9910700698058
 30
0.0
 11
1703.324829753243
 21
742.9910700698059
 31
0.0
  0
LINE
  5
7156
330
1E
100
AcDbEntity
  8
躯体と製品
  6
DASHED1
 62
     7
100
AcDbLine
 10
1707.510262753243
 20
743.7290740698058
 30
0.0
 11
1705.635232753243
 21
754.3628960698058
 31
0.0
  0
LINE
  5
7157
330
1E
100
AcDbEntity
  8
躯体と製品
  6
DASHED1
 62
     7
100
AcDbLine
 10
1696.135232753243
 20
772.9910700698058
 30
0.0
 11
1705.635232753243
 21
772.9910700698058
 31
0.0
  0
LINE
  5
7158
330
1E
100
AcDbEntity
  8
躯体と製品
  6
DASHED1
 62
     7
100
AcDbLine
 10
1696.835232753243
 20
773.6910700698058
 30
0.0
 11
1704.935232753243
 21
773.6910700698058
 31
0.0
  0
LINE
  5
7159
330
1E
100
AcDbEntity
  8
躯体と製品
  6
DASHED1
 62
     7
100
AcDbLine
 10
1694.260202753242
 20
743.7290740698058
 30
0.0
 11
1698.445635753243
 21
742.9910700698059
 31
0.0
  0
ARC
  5
715A
330
1E
100
AcDbEntity
  8
躯体と製品
  6
DASHED1
 62
     7
100
AcDbCircle
 10
1697.385232753243
 20
742.4910700698059
 30
0.0
 40
1.0
100
AcDbArc
 50
180.0
 51
270.0
  0
ARC
  5
715B
330
1E
100
AcDbEntity
  8
躯体と製品
  6
Continuous
 62
     3
100
AcDbCircle
 10
1729.442543019825
 20
785.9910700698057
 30
0.0
 40
0.5
100
AcDbArc
 50
270.0
 51
350.0000000000025
  0
LINE
  5
715C
330
1E
100
AcDbEntity
  8
躯体と製品
  6
Continuous
 62
     3
100
AcDbLine
 10
1729.442543019825
 20
785.4910700698058
 30
0.0
 11
1726.396263184168
 21
785.4910700698058
 31
0.0
  0
LINE
  5
715D
330
1E
100
AcDbEntity
  8
躯体と製品
  6
Continuous
 62
     3
100
AcDbLine
 10
1729.934946896332
 20
785.9042459809725
 30
0.0
 11
1730.342141567892
 21
788.2135617188367
 31
0.0
  0
ARC
  5
715E
330
1E
100
AcDbEntity
  8
躯体と製品
  6
Continuous
 62
     3
100
AcDbCircle
 10
1726.396263184168
 20
785.9910700698057
 30
0.0
 40
0.5
100
AcDbArc
 50
170.0000000000025
 51
270.0
  0
LINE
  5
715F
330
1E
100
AcDbEntity
  8
躯体と製品
  6
Continuous
 62
     3
100
AcDbLine
 10
1725.903859307662
 20
786.0778941586393
 30
0.0
 11
1726.402910555843
 21
788.9081544295044
 31
0.0
  0
ARC
  5
7160
330
1E
100
AcDbEntity
  8
躯体と製品
  6
Continuous
 62
     3
100
AcDbCircle
 10
1723.857696654454
 20
785.9910700698057
 30
0.0
 40
0.5
100
AcDbArc
 50
270.0
 51
350.0000000000025
  0
LINE
  5
7161
330
1E
100
AcDbEntity
  8
躯体と製品
  6
Continuous
 62
     3
100
AcDbLine
 10
1723.857696654454
 20
785.4910700698058
 30
0.0
 11
1719.885232753243
 21
785.4910700698058
 31
0.0
  0
LINE
  5
7162
330
1E
100
AcDbEntity
  8
躯体と製品
  6
Continuous
 62
     3
100
AcDbLine
 10
1724.35010053096
 20
785.9042459809725
 30
0.0
 11
1725.490055503742
 21
792.3692518932946
 31
0.0
  0
LINE
  5
7163
330
1E
100
AcDbEntity
  8
躯体と製品
  6
Continuous
 62
     3
100
AcDbLine
 10
1726.57655873351
 20
789.8929621825167
 30
0.0
 11
1726.084154857004
 21
789.9797862713501
 31
0.0
  0
LINE
  5
7164
330
1E
100
AcDbEntity
  8
躯体と製品
  6
Continuous
 62
     3
100
AcDbLine
 10
1731.008193622065
 20
789.1115453830154
 30
0.0
 11
1730.515789745559
 21
789.198369471849
 31
0.0
  0
LINE
  5
7165
330
1E
100
AcDbEntity
  8
躯体と製品
  6
Continuous
 62
     3
100
AcDbLine
 10
1726.750206911177
 20
790.8777699355289
 30
0.0
 11
1726.257803034671
 21
790.9645940243621
 31
0.0
  0
LINE
  5
7166
330
1E
100
AcDbEntity
  8
躯体と製品
  6
Continuous
 62
     3
100
AcDbLine
 10
1731.181841799732
 20
790.0963531360276
 30
0.0
 11
1730.689437923226
 21
790.1831772248613
 31
0.0
  0
LINE
  5
7167
330
1E
100
AcDbEntity
  8
躯体と製品
  6
Continuous
 62
     3
100
AcDbLine
 10
1731.385232753243
 20
785.4910700698058
 30
0.0
 11
1732.383709774827
 21
791.1537146496262
 31
0.0
  0
LINE
  5
7168
330
1E
100
AcDbEntity
  8
躯体と製品
  6
Continuous
 62
     3
100
AcDbLine
 10
1730.689437923226
 20
790.1831772248613
 30
0.0
 11
1730.906498145309
 21
791.4141869161264
 31
0.0
  0
LINE
  5
7169
330
1E
100
AcDbEntity
  8
躯体と製品
  6
Continuous
 62
     3
100
AcDbLine
 10
1726.750206911177
 20
790.8777699355289
 30
0.0
 11
1726.96726713326
 21
792.1087796267941
 31
0.0
  0
LINE
  5
716A
330
1E
100
AcDbEntity
  8
躯体と製品
  6
Continuous
 62
     3
100
AcDbLine
 10
1731.008193622065
 20
789.1115453830154
 30
0.0
 11
1730.342141567892
 21
788.2135617188367
 31
0.0
  0
LINE
  5
716B
330
1E
100
AcDbEntity
  8
躯体と製品
  6
Continuous
 62
     3
100
AcDbLine
 10
1731.181841799732
 20
790.0963531360276
 30
0.0
 11
1730.515789745559
 21
789.198369471849
 31
0.0
  0
ARC
  5
716C
330
1E
100
AcDbEntity
  8
躯体と製品
  6
Continuous
 62
     3
100
AcDbCircle
 10
1726.228661318501
 20
792.2390157600441
 30
0.0
 40
0.7500000000000016
100
AcDbArc
 50
350.0000000000025
 51
170.0000000000025
  0
ARC
  5
716D
330
1E
100
AcDbEntity
  8
躯体と製品
  6
Continuous
 62
     3
100
AcDbCircle
 10
1731.645103960068
 20
791.2839507828762
 30
0.0
 40
0.7499999999999977
100
AcDbArc
 50
350.0000000000025
 51
170.0000000000025
  0
LINE
  5
716E
330
1E
100
AcDbEntity
  8
躯体と製品
  6
Continuous
 62
     3
100
AcDbLine
 10
1731.385232753243
 20
782.9910700698058
 30
0.0
 11
1731.385232753243
 21
785.4910700698058
 31
0.0
  0
LINE
  5
716F
330
1E
100
AcDbEntity
  8
躯体と製品
  6
Continuous
 62
     3
100
AcDbLine
 10
1682.885232753243
 20
782.9910700698058
 30
0.0
 11
1684.385232753243
 21
782.9910700698058
 31
0.0
  0
LINE
  5
7170
330
1E
100
AcDbEntity
  8
躯体と製品
  6
Continuous
 62
     3
100
AcDbLine
 10
1684.385232753243
 20
782.9910700698058
 30
0.0
 11
1684.385232753243
 21
783.4910700698058
 31
0.0
  0
LINE
  5
7171
330
1E
100
AcDbEntity
  8
躯体と製品
  6
Continuous
 62
     3
100
AcDbLine
 10
1684.385232753243
 20
783.4910700698058
 30
0.0
 11
1695.885232753243
 21
783.4910700698058
 31
0.0
  0
LINE
  5
7172
330
1E
100
AcDbEntity
  8
躯体と製品
  6
Continuous
 62
     3
100
AcDbLine
 10
1695.885232753243
 20
783.4910700698058
 30
0.0
 11
1695.885232753243
 21
782.9910700698058
 31
0.0
  0
ARC
  5
7173
330
1E
100
AcDbEntity
  8
躯体と製品
  6
Continuous
 62
     3
100
AcDbCircle
 10
1687.635232753243
 20
792.2410700698057
 30
0.0
 40
0.75
100
AcDbArc
 50
270.0
 51
90.0
  0
ARC
  5
7174
330
1E
100
AcDbEntity
  8
躯体と製品
  6
Continuous
 62
     3
100
AcDbCircle
 10
1686.635232753243
 20
788.2410700698057
 30
0.0
 40
0.75
100
AcDbArc
 50
270.0
 51
90.0
  0
ARC
  5
7175
330
1E
100
AcDbEntity
  8
躯体と製品
  6
Continuous
 62
     3
100
AcDbCircle
 10
1684.685232753243
 20
791.1910700698058
 30
0.0
 40
0.2999999999999998
100
AcDbArc
 50
90.0
 51
180.0
  0
LINE
  5
7176
330
1E
100
AcDbEntity
  8
躯体と製品
  6
Continuous
 62
     3
100
AcDbLine
 10
1684.685232753243
 20
791.4910700698058
 30
0.0
 11
1687.635232753243
 21
791.4910700698058
 31
0.0
  0
LINE
  5
7177
330
1E
100
AcDbEntity
  8
躯体と製品
  6
Continuous
 62
     3
100
AcDbLine
 10
1684.685232753243
 20
788.9910700698058
 30
0.0
 11
1686.635232753243
 21
788.9910700698058
 31
0.0
  0
ARC
  5
7178
330
1E
100
AcDbEntity
  8
躯体と製品
  6
Continuous
 62
     3
100
AcDbCircle
 10
1684.685232753243
 20
789.291070069806
 30
0.0
 40
0.2999999999999998
100
AcDbArc
 50
180.0
 51
270.0
  0
LINE
  5
7179
330
1E
100
AcDbEntity
  8
躯体と製品
  6
Continuous
 62
     3
100
AcDbLine
 10
1684.385232753243
 20
789.291070069806
 30
0.0
 11
1684.385232753243
 21
791.1910700698058
 31
0.0
  0
ARC
  5
717A
330
1E
100
AcDbEntity
  8
躯体と製品
  6
Continuous
 62
     3
100
AcDbCircle
 10
1684.685232753243
 20
787.1910700698058
 30
0.0
 40
0.2999999999999998
100
AcDbArc
 50
90.0
 51
180.0
  0
LINE
  5
717B
330
1E
100
AcDbEntity
  8
躯体と製品
  6
Continuous
 62
     3
100
AcDbLine
 10
1684.685232753243
 20
787.4910700698058
 30
0.0
 11
1686.635232753243
 21
787.4910700698058
 31
0.0
  0
ARC
  5
717C
330
1E
100
AcDbEntity
  8
躯体と製品
  6
Continuous
 62
     3
100
AcDbCircle
 10
1684.685232753243
 20
785.791070069806
 30
0.0
 40
0.2999999999999998
100
AcDbArc
 50
180.0
 51
270.0
  0
LINE
  5
717D
330
1E
100
AcDbEntity
  8
躯体と製品
  6
Continuous
 62
     3
100
AcDbLine
 10
1684.385232753243
 20
785.791070069806
 30
0.0
 11
1684.385232753243
 21
787.1910700698058
 31
0.0
  0
LINE
  5
717E
330
1E
100
AcDbEntity
  8
躯体と製品
  6
Continuous
 62
     3
100
AcDbLine
 10
1683.385232753243
 20
792.9910700698058
 30
0.0
 11
1687.635232753243
 21
792.9910700698058
 31
0.0
  0
ARC
  5
717F
330
1E
100
AcDbEntity
  8
躯体と製品
  6
Continuous
 62
     3
100
AcDbCircle
 10
1683.385232753243
 20
792.4910700698058
 30
0.0
 40
0.5
100
AcDbArc
 50
90.0
 51
180.0
  0
LINE
  5
7180
330
1E
100
AcDbEntity
  8
躯体と製品
  6
Continuous
 62
     3
100
AcDbLine
 10
1682.885232753243
 20
792.4910700698058
 30
0.0
 11
1682.885232753243
 21
782.9910700698058
 31
0.0
  0
LINE
  5
7181
330
1E
100
AcDbEntity
  8
躯体と製品
  6
Continuous
 62
     3
100
AcDbLine
 10
1695.885232753243
 20
782.9910700698058
 30
0.0
 11
1705.885232753242
 21
782.9910700698058
 31
0.0
  0
LINE
  5
7182
330
1E
100
AcDbEntity
  8
躯体と製品
  6
Continuous
 62
     3
100
AcDbLine
 10
1701.385232753243
 20
785.4910700698058
 30
0.0
 11
1717.085232753243
 21
785.4910700698058
 31
0.0
  0
LINE
  5
7183
330
1E
100
AcDbEntity
  8
躯体と製品
  6
Continuous
 62
     3
100
AcDbLine
 10
1684.685232753243
 20
785.4910700698058
 30
0.0
 11
1700.385232753243
 21
785.4910700698058
 31
0.0
  0
LINE
  5
7184
330
1E
100
AcDbEntity
  8
躯体と製品
  6
Continuous
 62
     3
100
AcDbLine
 10
1705.885232753242
 20
782.9910700698058
 30
0.0
 11
1705.885232753242
 21
783.4910700698058
 31
0.0
  0
LINE
  5
7185
330
1E
100
AcDbEntity
  8
躯体と製品
  6
Continuous
 62
     3
100
AcDbLine
 10
1705.885232753242
 20
783.4910700698058
 30
0.0
 11
1717.385232753243
 21
783.4910700698058
 31
0.0
  0
LINE
  5
7186
330
1E
100
AcDbEntity
  8
躯体と製品
  6
Continuous
 62
     3
100
AcDbLine
 10
1717.385232753243
 20
783.4910700698058
 30
0.0
 11
1717.385232753243
 21
782.9910700698058
 31
0.0
  0
LINE
  5
7187
330
1E
100
AcDbEntity
  8
躯体と製品
  6
Continuous
 62
     3
100
AcDbLine
 10
1717.385232753243
 20
782.9910700698058
 30
0.0
 11
1719.385232753243
 21
782.9910700698058
 31
0.0
  0
ARC
  5
7188
330
1E
100
AcDbEntity
  8
躯体と製品
  6
Continuous
 62
     3
100
AcDbCircle
 10
1718.385232753243
 20
800.9910700698057
 30
0.0
 40
1.0
100
AcDbArc
 50
0.0
 51
180.0
  0
LINE
  5
7189
330
1E
100
AcDbEntity
  8
躯体と製品
  6
Continuous
 62
     3
100
AcDbLine
 10
1729.885232753243
 20
783.9910700698058
 30
0.0
 11
1729.885232753243
 21
782.9910700698058
 31
0.0
  0
LINE
  5
718A
330
1E
100
AcDbEntity
  8
躯体と製品
  6
Continuous
 62
     3
100
AcDbLine
 10
1729.885232753243
 20
782.9910700698058
 30
0.0
 11
1731.385232753243
 21
782.9910700698058
 31
0.0
  0
LINE
  5
718B
330
1E
100
AcDbEntity
  8
躯体と製品
  6
Continuous
 62
     3
100
AcDbLine
 10
1700.885232753243
 20
784.9910700698058
 30
0.0
 11
1701.385232753243
 21
785.4910700698058
 31
0.0
  0
LINE
  5
718C
330
1E
100
AcDbEntity
  8
躯体と製品
  6
Continuous
 62
     3
100
AcDbLine
 10
1719.385232753243
 20
782.9910700698058
 30
0.0
 11
1719.385232753243
 21
783.9910700698058
 31
0.0
  0
LINE
  5
718D
330
1E
100
AcDbEntity
  8
躯体と製品
  6
Continuous
 62
     3
100
AcDbLine
 10
1719.385232753243
 20
783.9910700698058
 30
0.0
 11
1729.885232753243
 21
783.9910700698058
 31
0.0
  0
LINE
  5
718E
330
1E
100
AcDbEntity
  8
躯体と製品
  6
Continuous
 62
     3
100
AcDbLine
 10
1719.385232753243
 20
785.9910700698057
 30
0.0
 11
1719.385232753243
 21
800.9910700698057
 31
0.0
  0
ARC
  5
718F
330
1E
100
AcDbEntity
  8
躯体と製品
  6
Continuous
 62
     3
100
AcDbCircle
 10
1719.885232753243
 20
785.9910700698057
 30
0.0
 40
0.5
100
AcDbArc
 50
180.0
 51
270.0
  0
ARC
  5
7190
330
1E
100
AcDbEntity
  8
躯体と製品
  6
Continuous
 62
     3
100
AcDbCircle
 10
1717.085232753243
 20
785.791070069806
 30
0.0
 40
0.2999999999999998
100
AcDbArc
 50
270.0
 51
0.0
  0
LINE
  5
7191
330
1E
100
AcDbEntity
  8
躯体と製品
  6
Continuous
 62
     3
100
AcDbLine
 10
1716.885232753243
 20
792.9910700698058
 30
0.0
 11
1714.135232753243
 21
792.9910700698058
 31
0.0
  0
ARC
  5
7192
330
1E
100
AcDbEntity
  8
躯体と製品
  6
Continuous
 62
     3
100
AcDbCircle
 10
1716.885232753243
 20
793.4910700698058
 30
0.0
 40
0.5
100
AcDbArc
 50
270.0
 51
0.0
  0
LINE
  5
7193
330
1E
100
AcDbEntity
  8
躯体と製品
  6
Continuous
 62
     3
100
AcDbLine
 10
1717.385232753243
 20
793.4910700698058
 30
0.0
 11
1717.385232753243
 21
800.9910700698057
 31
0.0
  0
ARC
  5
7194
330
1E
100
AcDbEntity
  8
躯体と製品
  6
Continuous
 62
     3
100
AcDbCircle
 10
1714.135232753243
 20
792.2410700698057
 30
0.0
 40
0.75
100
AcDbArc
 50
90.0
 51
270.0
  0
ARC
  5
7195
330
1E
100
AcDbEntity
  8
躯体と製品
  6
Continuous
 62
     3
100
AcDbCircle
 10
1715.135232753243
 20
788.2410700698057
 30
0.0
 40
0.75
100
AcDbArc
 50
90.0
 51
270.0
  0
LINE
  5
7196
330
1E
100
AcDbEntity
  8
躯体と製品
  6
Continuous
 62
     3
100
AcDbLine
 10
1717.085232753243
 20
787.4910700698058
 30
0.0
 11
1715.135232753243
 21
787.4910700698058
 31
0.0
  0
ARC
  5
7197
330
1E
100
AcDbEntity
  8
躯体と製品
  6
Continuous
 62
     3
100
AcDbCircle
 10
1717.085232753243
 20
787.1910700698058
 30
0.0
 40
0.2999999999999998
100
AcDbArc
 50
0.0
 51
90.0
  0
LINE
  5
7198
330
1E
100
AcDbEntity
  8
躯体と製品
  6
Continuous
 62
     3
100
AcDbLine
 10
1717.385232753243
 20
787.1910700698058
 30
0.0
 11
1717.385232753243
 21
785.791070069806
 31
0.0
  0
LINE
  5
7199
330
1E
100
AcDbEntity
  8
躯体と製品
  6
Continuous
 62
     3
100
AcDbLine
 10
1717.085232753243
 20
788.9910700698058
 30
0.0
 11
1715.135232753243
 21
788.9910700698058
 31
0.0
  0
ARC
  5
719A
330
1E
100
AcDbEntity
  8
躯体と製品
  6
Continuous
 62
     3
100
AcDbCircle
 10
1717.085232753243
 20
789.291070069806
 30
0.0
 40
0.2999999999999998
100
AcDbArc
 50
270.0
 51
0.0
  0
LINE
  5
719B
330
1E
100
AcDbEntity
  8
躯体と製品
  6
Continuous
 62
     3
100
AcDbLine
 10
1717.385232753243
 20
791.1910700698058
 30
0.0
 11
1717.385232753243
 21
789.291070069806
 31
0.0
  0
ARC
  5
719C
330
1E
100
AcDbEntity
  8
躯体と製品
  6
Continuous
 62
     3
100
AcDbCircle
 10
1717.085232753243
 20
791.1910700698058
 30
0.0
 40
0.2999999999999998
100
AcDbArc
 50
0.0
 51
90.0
  0
LINE
  5
719D
330
1E
100
AcDbEntity
  8
躯体と製品
  6
Continuous
 62
     3
100
AcDbLine
 10
1717.085232753243
 20
791.4910700698058
 30
0.0
 11
1714.135232753243
 21
791.4910700698058
 31
0.0
  0
LINE
  5
719E
330
1E
100
AcDbEntity
  8
躯体と製品
  6
Continuous
 62
     3
100
AcDbLine
 10
1700.885232753243
 20
784.9910700698058
 30
0.0
 11
1700.385232753243
 21
785.4910700698058
 31
0.0
  0
LINE
  5
719F
330
1E
100
AcDbEntity
  8
躯体と製品
  6
Continuous
 62
     3
100
AcDbLine
 10
1726.084154857004
 20
789.9797862713501
 30
0.0
 11
1726.402910555843
 21
788.9081544295044
 31
0.0
  0
LINE
  5
71A0
330
1E
100
AcDbEntity
  8
躯体と製品
  6
Continuous
 62
     3
100
AcDbLine
 10
1726.257803034671
 20
790.9645940243621
 30
0.0
 11
1726.57655873351
 21
789.8929621825167
 31
0.0
  0
LINE
  5
71A1
330
1E
100
AcDbEntity
  8
躯体と製品
  6
Continuous
 62
     3
100
AcDbLine
 10
1689.885232753243
 20
799.2781318067159
 30
0.0
 11
1689.885232753243
 21
791.9910700698058
 31
0.0
  0
LINE
  5
71A2
330
1E
100
AcDbEntity
  8
躯体と製品
  6
Continuous
 62
     3
100
AcDbLine
 10
1684.885232753243
 20
789.8910700698059
 30
0.0
 11
1689.385232753243
 21
789.8910700698059
 31
0.0
  0
LINE
  5
71A3
330
1E
100
AcDbEntity
  8
躯体と製品
  6
Continuous
 62
     3
100
AcDbLine
 10
1684.885232753243
 20
789.8910700698059
 30
0.0
 11
1684.885232753243
 21
791.4910700698058
 31
0.0
  0
LINE
  5
71A4
330
1E
100
AcDbEntity
  8
躯体と製品
  6
Continuous
 62
     3
100
AcDbLine
 10
1684.885232753243
 20
791.4910700698058
 30
0.0
 11
1689.385232753243
 21
791.4910700698058
 31
0.0
  0
ARC
  5
71A5
330
1E
100
AcDbEntity
  8
躯体と製品
  6
Continuous
 62
     3
100
AcDbCircle
 10
1689.385232753243
 20
791.9910700698058
 30
0.0
 40
2.1
100
AcDbArc
 50
270.0
 51
0.0
  0
ARC
  5
71A6
330
1E
100
AcDbEntity
  8
躯体と製品
  6
Continuous
 62
     3
100
AcDbCircle
 10
1689.385232753243
 20
791.9910700698058
 30
0.0
 40
0.5
100
AcDbArc
 50
270.0
 51
0.0
  0
LINE
  5
71A7
330
1E
100
AcDbEntity
  8
躯体と製品
  6
Continuous
 62
     3
100
AcDbLine
 10
1716.885232753243
 20
789.8910700698059
 30
0.0
 11
1712.385232753243
 21
789.8910700698059
 31
0.0
  0
LINE
  5
71A8
330
1E
100
AcDbEntity
  8
躯体と製品
  6
Continuous
 62
     3
100
AcDbLine
 10
1712.385232753243
 20
791.4910700698058
 30
0.0
 11
1716.885232753243
 21
791.4910700698058
 31
0.0
  0
LINE
  5
71A9
330
1E
100
AcDbEntity
  8
躯体と製品
  6
Continuous
 62
     3
100
AcDbLine
 10
1716.885232753243
 20
791.4910700698058
 30
0.0
 11
1716.885232753243
 21
789.8910700698059
 31
0.0
  0
ARC
  5
71AA
330
1E
100
AcDbEntity
  8
躯体と製品
  6
Continuous
 62
     3
100
AcDbCircle
 10
1712.385232753243
 20
791.9910700698058
 30
0.0
 40
2.1
100
AcDbArc
 50
180.0
 51
270.0
  0
ARC
  5
71AB
330
1E
100
AcDbEntity
  8
躯体と製品
  6
Continuous
 62
     3
100
AcDbCircle
 10
1712.385232753243
 20
791.9910700698058
 30
0.0
 40
0.5
100
AcDbArc
 50
180.0
 51
270.0
  0
LINE
  5
71AC
330
1E
100
AcDbEntity
  8
躯体と製品
  6
Continuous
 62
     3
100
AcDbLine
 10
1691.485232753243
 20
799.2781318067159
 30
0.0
 11
1691.485232753243
 21
791.9910700698058
 31
0.0
  0
ARC
  5
71AD
330
1E
100
AcDbEntity
  8
躯体と製品
  6
Continuous
 62
     3
100
AcDbCircle
 10
1691.985232753243
 20
799.2781318067159
 30
0.0
 40
0.5
100
AcDbArc
 50
86.99999999999441
 51
180.0
  0
LINE
  5
71AE
330
1E
100
AcDbEntity
  8
躯体と製品
  6
Continuous
 62
     3
100
AcDbLine
 10
1710.285232753243
 20
798.3452733354777
 30
0.0
 11
1710.285232753243
 21
791.9910700698058
 31
0.0
  0
ARC
  5
71AF
330
1E
100
AcDbEntity
  8
躯体と製品
  6
Continuous
 62
     3
100
AcDbCircle
 10
1709.785232753243
 20
798.3452733354777
 30
0.0
 40
0.5
100
AcDbArc
 50
0.0
 51
86.99999999999441
  0
ARC
  5
71B0
330
1E
100
AcDbEntity
  8
躯体と製品
  6
Continuous
 62
     3
100
AcDbCircle
 10
1691.985232753243
 20
799.2781318067159
 30
0.0
 40
2.1
100
AcDbArc
 50
86.99999999999441
 51
180.0
  0
LINE
  5
71B1
330
1E
100
AcDbEntity
  8
躯体と製品
  6
Continuous
 62
     3
100
AcDbLine
 10
1711.885232753243
 20
798.3452733354777
 30
0.0
 11
1711.885232753243
 21
791.9910700698058
 31
0.0
  0
ARC
  5
71B2
330
1E
100
AcDbEntity
  8
躯体と製品
  6
Continuous
 62
     3
100
AcDbCircle
 10
1709.785232753243
 20
798.3452733354777
 30
0.0
 40
2.1
100
AcDbArc
 50
0.0
 51
86.99999999999441
  0
LINE
  5
71B3
330
1E
100
AcDbEntity
  8
躯体と製品
  6
Continuous
 62
     3
100
AcDbLine
 10
1705.290519170639
 20
797.0787727738584
 30
0.0
 11
1696.103127450897
 21
797.5602635712935
 31
0.0
  0
LINE
  5
71B4
330
1E
100
AcDbEntity
  8
躯体と製品
  6
Continuous
 62
     3
100
AcDbLine
 10
1696.15546340714
 20
798.5588931060481
 30
0.0
 11
1696.103127450897
 21
797.5602635712935
 31
0.0
  0
ARC
  5
71B5
330
1E
100
AcDbEntity
  8
躯体と製品
  6
Continuous
 62
     3
100
AcDbCircle
 10
1695.156833872385
 20
798.6112290622909
 30
0.0
 40
1.0
100
AcDbArc
 50
357.0000000000011
 51
86.99999999999441
  0
LINE
  5
71B6
330
1E
100
AcDbEntity
  8
躯体と製品
  6
Continuous
 62
     3
100
AcDbLine
 10
1705.342855126882
 20
798.077402308613
 30
0.0
 11
1705.290519170639
 21
797.0787727738584
 31
0.0
  0
ARC
  5
71B7
330
1E
100
AcDbEntity
  8
躯体と製品
  6
Continuous
 62
     3
100
AcDbCircle
 10
1706.341484661637
 20
798.0250663523699
 30
0.0
 40
1.0
100
AcDbArc
 50
86.99999999999441
 51
177.0000000000011
  0
LINE
  5
71B8
330
1E
100
AcDbEntity
  8
躯体と製品
  6
Continuous
 62
     3
100
AcDbLine
 10
1709.811400731364
 20
798.8445881028549
 30
0.0
 11
1692.011400731364
 21
799.7774465740929
 31
0.0
  0
LINE
  5
71B9
330
1E
100
AcDbEntity
  8
躯体と製品
  6
Continuous
 62
     3
100
AcDbLine
 10
1709.895138261353
 20
800.4423953584623
 30
0.0
 11
1692.095138261353
 21
801.3752538297005
 31
0.0
  0
LINE
  5
71BA
330
1E
100
AcDbEntity
  8
躯体と製品
  6
DASHED1
 62
     7
100
AcDbLine
 10
1697.889344148979
 20
801.0715923664212
 30
0.0
 11
1697.700934706504
 21
797.4765260413049
 31
0.0
  0
LINE
  5
71BB
330
1E
100
AcDbEntity
  8
躯体と製品
  6
DASHED1
 62
     7
100
AcDbLine
 10
1703.881121357506
 20
800.7575766289635
 30
0.0
 11
1703.692711915032
 21
797.1625103038473
 31
0.0
  0
LINE
  5
71BC
330
1E
100
AcDbEntity
  8
躯体と製品
  6
Continuous
 62
     4
100
AcDbLine
 10
1714.885232753243
 20
791.4910700698058
 30
0.0
 11
1714.885232753243
 21
789.8910700698059
 31
0.0
  0
LINE
  5
71BD
330
1E
100
AcDbEntity
  8
躯体と製品
  6
Continuous
 62
     4
100
AcDbLine
 10
1686.885232753243
 20
791.4910700698058
 30
0.0
 11
1686.885232753243
 21
789.8910700698059
 31
0.0
  0
ARC
  5
71BE
330
1E
100
AcDbEntity
  8
躯体と製品
  6
DASHED1
 62
     7
100
AcDbCircle
 10
1712.798867569064
 20
824.3154030213249
 30
0.0
 40
1.0
100
AcDbArc
 50
37.62684736228169
 51
86.99999999999441
  0
LINE
  5
71BF
330
1E
100
AcDbEntity
  8
躯体と製品
  6
DASHED1
 62
     7
100
AcDbLine
 10
1691.577118396205
 20
827.2300579907726
 30
0.0
 11
1712.893072290301
 21
826.1129361838833
 31
0.0
  0
ARC
  5
71C0
330
1E
100
AcDbEntity
  8
躯体と製品
  6
DASHED1
 62
     7
100
AcDbCircle
 10
1691.482913674968
 20
825.4325248282144
 30
0.0
 40
1.8
100
AcDbArc
 50
86.99999999999441
 51
136.3731526377175
  0
LINE
  5
71C1
330
1E
100
AcDbEntity
  8
躯体と製品
  6
DASHED1
 62
     7
100
AcDbLine
 10
1691.535249631211
 20
826.4311543629688
 30
0.0
 11
1712.851203525306
 21
825.3140325560796
 31
0.0
  0
LINE
  5
71C2
330
1E
100
AcDbEntity
  8
躯体と製品
  6
DASHED1
 62
     7
100
AcDbLine
 10
1690.759065031405
 20
826.1224836249642
 30
0.0
 11
1677.829113937647
 21
812.5574307484212
 31
0.0
  0
ARC
  5
71C3
330
1E
100
AcDbEntity
  8
躯体と製品
  6
DASHED1
 62
     7
100
AcDbCircle
 10
1691.482913674968
 20
825.4325248282144
 30
0.0
 40
1.0
100
AcDbArc
 50
86.99999999999441
 51
136.3731526377175
  0
LINE
  5
71C4
330
1E
100
AcDbEntity
  8
躯体と製品
  6
DASHED1
 62
     7
100
AcDbLine
 10
1673.26903078008
 20
815.0764381539815
 30
0.0
 11
1673.902633706257
 21
815.564851229092
 31
0.0
  0
LINE
  5
71C5
330
1E
100
AcDbEntity
  8
躯体と製品
  6
DASHED1
 62
     7
100
AcDbLine
 10
1673.26903078008
 20
815.0764381539815
 30
0.0
 11
1675.100579826487
 21
812.7004271618854
 31
0.0
  0
ARC
  5
71C6
330
1E
100
AcDbEntity
  8
躯体と製品
  6
DASHED1
 62
     7
100
AcDbCircle
 10
1676.526186395738
 20
813.7993565998863
 30
0.0
 40
1.0
100
AcDbArc
 50
217.6268487328632
 51
316.3731526377176
  0
ARC
  5
71C7
330
1E
100
AcDbEntity
  8
躯体と製品
  6
DASHED1
 62
     7
100
AcDbCircle
 10
1676.526186395738
 20
813.7993565998863
 30
0.0
 40
1.8
100
AcDbArc
 50
217.6268481237226
 51
316.3731526377176
  0
LINE
  5
71C8
330
1E
100
AcDbEntity
  8
躯体と製品
  6
DASHED1
 62
     7
100
AcDbLine
 10
1729.251388167307
 20
812.6641459217061
 30
0.0
 11
1727.181511760526
 21
810.4925999736741
 31
0.0
  0
LINE
  5
71C9
330
1E
100
AcDbEntity
  8
躯体と製品
  6
DASHED1
 62
     7
100
AcDbLine
 10
1729.830467082179
 20
812.1121788843293
 30
0.0
 11
1729.251388167307
 21
812.6641459217061
 31
0.0
  0
LINE
  5
71CA
330
1E
100
AcDbEntity
  8
躯体と製品
  6
DASHED1
 62
     7
100
AcDbLine
 10
1729.830467082179
 20
812.1121788843293
 30
0.0
 11
1727.760590675375
 21
809.9406329362741
 31
0.0
  0
ARC
  5
71CB
330
1E
100
AcDbEntity
  8
躯体と製品
  6
DASHED1
 62
     7
100
AcDbCircle
 10
1726.457663133468
 20
811.1825587877392
 30
0.0
 40
1.0
100
AcDbArc
 50
217.6268473622817
 51
316.3731512671342
  0
ARC
  5
71CC
330
1E
100
AcDbEntity
  8
躯体と製品
  6
DASHED1
 62
     7
100
AcDbCircle
 10
1726.457663133468
 20
811.1825587877392
 30
0.0
 40
1.8
100
AcDbArc
 50
217.6268473622817
 51
316.3731518762783
  0
LINE
  5
71CD
330
1E
100
AcDbEntity
  8
躯体と製品
  6
DASHED1
 62
     7
100
AcDbLine
 10
1714.22447415292
 20
825.4143324403806
 30
0.0
 11
1725.665659490374
 21
810.5720424248739
 31
0.0
  0
LINE
  5
71CE
330
1E
100
AcDbEntity
  8
躯体と製品
  6
DASHED1
 62
     7
100
AcDbLine
 10
1713.590871226761
 20
824.9259193652447
 30
0.0
 11
1725.032056564215
 21
810.083629349738
 31
0.0
  0
ARC
  5
71CF
330
1E
100
AcDbEntity
  8
躯体と製品
  6
DASHED1
 62
     7
100
AcDbCircle
 10
1712.798867569064
 20
824.3154030213249
 30
0.0
 40
1.8
100
AcDbArc
 50
37.62684736228169
 51
86.99999999999441
  0
LINE
  5
71D0
330
1E
100
AcDbEntity
  8
躯体と製品
  6
DASHED1
 62
     7
100
AcDbLine
 10
1673.902633706257
 20
815.564851229092
 30
0.0
 11
1675.734182752645
 21
813.1888402370211
 31
0.0
  0
LINE
  5
71D1
330
1E
100
AcDbEntity
  8
躯体と製品
  6
DASHED1
 62
     7
100
AcDbLine
 10
1690.179986116555
 20
826.6744506623641
 30
0.0
 11
1677.250035039302
 21
813.1093978031367
 31
0.0
  0
ARC
  5
71D2
330
1E
100
AcDbEntity
  8
躯体と製品
  6
DASHED1
 62
     7
100
AcDbCircle
 10
1701.051166595568
 20
829.8756763467766
 30
0.0
 40
0.5999999999999998
100
AcDbArc
 50
357.0000000000011
 51
100.7002330000058
  0
ARC
  5
71D3
330
1E
100
AcDbEntity
  8
躯体と製品
  6
DASHED1
 62
     7
100
AcDbCircle
 10
1703.747466339405
 20
829.7343692649207
 30
0.0
 40
0.5999999999999998
100
AcDbArc
 50
73.29976700000166
 51
177.0000000000011
  0
LINE
  5
71D4
330
1E
100
AcDbEntity
  8
躯体と製品
  6
DASHED1
 62
     7
100
AcDbLine
 10
1703.14623469395
 20
829.7265796225749
 30
0.0
 11
1701.648290391818
 21
829.8050835569396
 31
0.0
  0
ARC
  5
71D5
330
1E
100
AcDbEntity
  8
躯体と製品
  6
DASHED1
 62
     7
100
AcDbCircle
 10
1700.421864648085
 20
826.5713990687931
 30
0.0
 40
3.45
100
AcDbArc
 50
126.3091240000008
 51
173.7621629999991
  0
ARC
  5
71D6
330
1E
100
AcDbEntity
  8
躯体と製品
  6
DASHED1
 62
     7
100
AcDbCircle
 10
1704.033200653341
 20
826.3776277888387
 30
0.0
 40
3.45
100
AcDbArc
 50
0.3127429999987237
 51
47.82048899999998
  0
ARC
  5
71D7
330
1E
100
AcDbEntity
  8
躯体と製品
  6
DASHED1
 62
     7
100
AcDbCircle
 10
1702.109489100606
 20
824.2747872025464
 30
0.0
 40
6.299999999999998
100
AcDbArc
 50
47.69686900000316
 51
126.3093710000041
  0
LINE
  5
71D8
330
1E
100
AcDbEntity
  8
躯体と製品
  6
Continuous
 62
     4
100
AcDbLine
 10
1703.428978470138
 20
792.130176392697
 30
0.0
 11
1697.43720126161
 21
792.4441921301545
 31
0.0
  0
POINT
  5
71D9
330
1E
100
AcDbEntity
  8
躯体と製品
 62
     4
100
AcDbPoint
 10
1700.885232753243
 20
800.9145844976922
 30
0.0
  0
LINE
  5
71DA
330
1E
100
AcDbEntity
  8
躯体と製品
  6
DASHED1
 62
     7
100
AcDbLine
 10
1705.230983947516
 20
826.514489218599
 30
0.0
 11
1703.985388188934
 21
802.7471062914401
 31
0.0
  0
LINE
  5
71DB
330
1E
100
AcDbEntity
  8
躯体と製品
  6
DASHED1
 62
     4
100
AcDbLine
 10
1704.663263057009
 20
826.5442422097233
 30
0.0
 11
1703.417667298426
 21
802.7768592825641
 31
0.0
  0
LINE
  5
71DC
330
1E
100
AcDbEntity
  8
躯体と製品
  6
DASHED1
 62
     7
100
AcDbLine
 10
1699.239206738989
 20
826.8285049560567
 30
0.0
 11
1697.993610980407
 21
803.0611220288978
 31
0.0
  0
LINE
  5
71DD
330
1E
100
AcDbEntity
  8
躯体と製品
  6
DASHED1
 62
     4
100
AcDbLine
 10
1699.806927629497
 20
826.7987519649327
 30
0.0
 11
1698.561331870915
 21
803.0313690377736
 31
0.0
  0
LINE
  5
71DE
330
1E
100
AcDbEntity
  8
躯体と製品
  6
Continuous
 62
     7
100
AcDbLine
 10
1697.993610980407
 20
803.0611220288978
 30
0.0
 11
1697.889344148979
 21
801.0715923664212
 31
0.0
  0
LINE
  5
71DF
330
1E
100
AcDbEntity
  8
躯体と製品
  6
Continuous
 62
     4
100
AcDbLine
 10
1698.561331870915
 20
803.0313690377736
 30
0.0
 11
1698.457065039487
 21
801.0418393752972
 31
0.0
  0
LINE
  5
71E0
330
1E
100
AcDbEntity
  8
躯体と製品
  6
Continuous
 62
     4
100
AcDbLine
 10
1703.417667298426
 20
802.7768592825641
 30
0.0
 11
1703.313400466998
 21
800.7873296200875
 31
0.0
  0
LINE
  5
71E1
330
1E
100
AcDbEntity
  8
躯体と製品
  6
Continuous
 62
     7
100
AcDbLine
 10
1703.985388188934
 20
802.7471062914401
 30
0.0
 11
1703.881121357506
 21
800.7575766289635
 31
0.0
  0
LINE
  5
71E2
330
1E
100
AcDbEntity
  8
躯体と製品
  6
Continuous
 62
     7
100
AcDbLine
 10
1697.700934706504
 20
797.4765260413047
 30
0.0
 11
1697.43720126161
 21
792.4441921301545
 31
0.0
  0
LINE
  5
71E3
330
1E
100
AcDbEntity
  8
躯体と製品
  6
Continuous
 62
     7
100
AcDbLine
 10
1703.692711915032
 20
797.1625103038469
 30
0.0
 11
1703.428978470138
 21
792.130176392697
 31
0.0
  0
POINT
  5
71E4
330
1E
100
AcDbEntity
  8
躯体と製品
 62
     4
100
AcDbPoint
 10
1718.437568709486
 20
801.9896996045604
 30
0.0
  0
ARC
  5
71F1
330
1E
100
AcDbEntity
  8
躯体と製品
  6
Continuous
 62
     7
100
AcDbCircle
 10
1625.901897105577
 20
779.9912089297663
 30
0.0
 40
1.0
100
AcDbArc
 50
90.95484125386787
 51
175.0000000000005
  0
LINE
  5
71F2
330
1E
100
AcDbEntity
  8
図枠
  6
Continuous
 62
     7
100
AcDbLine
 10
1252.385232753243
 20
988.9910700698056
 30
0.0
 11
1252.385232753243
 21
412.9910700698058
 31
0.0
  0
LINE
  5
71F3
330
1E
100
AcDbEntity
  8
図枠
  6
Continuous
 62
     7
100
AcDbLine
 10
2076.385232753243
 20
988.9910700698056
 30
0.0
 11
1252.385232753243
 21
988.9910700698056
 31
0.0
  0
LINE
  5
71F4
330
1E
100
AcDbEntity
  8
図枠
  6
Continuous
 62
     7
100
AcDbLine
 10
2076.385232753243
 20
412.9910700698058
 30
0.0
 11
2076.385232753243
 21
988.9910700698056
 31
0.0
  0
LINE
  5
71F5
330
1E
100
AcDbEntity
  8
図枠
  6
Continuous
 62
     7
100
AcDbLine
 10
1252.385232753243
 20
412.9910700698058
 30
0.0
 11
2076.385232753243
 21
412.9910700698058
 31
0.0
  0
LINE
  5
71F6
330
1E
100
AcDbEntity
  8
躯体と製品
  6
DASHED1
 62
     7
100
AcDbLine
 10
1512.728224884514
 20
843.5304246447405
 30
0.0
 11
1533.194066693082
 21
842.4578553243955
 31
0.0
  0
LINE
  5
71F7
330
1E
100
AcDbEntity
  8
躯体と製品
  6
Continuous
 62
     7
100
AcDbLine
 10
1500.885232753243
 20
899.8933033893436
 30
0.0
 11
1525.885232753243
 21
899.8933033893436
 31
0.0
  0
DIMENSION
  5
71F8
330
1E
100
AcDbEntity
  8
寸法
  6
Continuous
100
AcDbDimension
  2
*D4
 10
1525.885232753243
 20
665.9910700698059
 30
0.0
 11
1513.385232753243
 21
669.4910700698059
 31
0.0
 70
    32
 71
     5
 42
-1.0
  3
AutoCAD
100
AcDbAlignedDimension
 13
1500.885232753243
 23
778.9910700698058
 33
0.0
 14
1525.885232753243
 24
665.9910700698059
 34
0.0
100
AcDbRotatedDimension
  0
DIMENSION
  5
7204
330
1E
100
AcDbEntity
  8
寸法
  6
Continuous
100
AcDbDimension
  2
*D5
 10
1625.885232753243
 20
665.9910700698059
 30
0.0
 11
1575.885232753243
 21
669.4910700698059
 31
0.0
 70
    32
 71
     5
 42
-1.0
  3
AutoCAD
100
AcDbAlignedDimension
 13
1525.885232753243
 23
665.7410700698059
 33
0.0
 14
1625.885232753243
 24
665.9910700698059
 34
0.0
100
AcDbRotatedDimension
  0
DIMENSION
  5
7210
330
1E
100
AcDbEntity
  8
寸法
  6
Continuous
100
AcDbDimension
  2
*D6
 10
1750.885232753243
 20
665.9910700698059
 30
0.0
 11
1688.385232753243
 21
669.4910700698059
 31
0.0
 70
    32
  1
≦Ｃ
 71
     5
 42
-1.0
  3
AutoCAD
100
AcDbAlignedDimension
 13
1625.885232753243
 23
665.7410700698059
 33
0.0
 14
1750.885232753243
 24
665.9910700698059
 34
0.0
100
AcDbRotatedDimension
  0
DIMENSION
  5
7228
330
1E
100
AcDbEntity
  8
寸法
  6
Continuous
100
AcDbDimension
  2
*D7
 10
1826.885232753243
 20
665.9476580253891
 30
0.0
 11
1788.885232753243
 21
669.4476580253891
 31
0.0
 70
    32
  1
75≦
 71
     5
 42
-1.0
  3
AutoCAD
100
AcDbAlignedDimension
 13
1750.885232753243
 23
665.7410700698059
 33
0.0
 14
1826.885232753243
 24
736.5682120351331
 34
0.0
100
AcDbRotatedDimension
  0
DIMENSION
  5
7235
330
1E
100
AcDbEntity
  8
寸法
  6
Continuous
100
AcDbDimension
  2
*D8
 10
1750.885232753243
 20
720.9910700698058
 30
0.0
 11
1725.885232753243
 21
724.4910700698057
 31
0.0
 70
    32
 71
     5
 42
-1.0
  3
AutoCAD
100
AcDbAlignedDimension
 13
1700.885232753243
 23
720.9910700698058
 33
0.0
 14
1750.885232753243
 24
720.9910700698058
 34
0.0
100
AcDbRotatedDimension
  0
DIMENSION
  5
7240
330
1E
100
AcDbEntity
  8
寸法
  6
Continuous
100
AcDbDimension
  2
*D9
 10
1866.885232753243
 20
780.9910700698057
 30
0.0
 11
1863.385232753243
 21
759.7796410524697
 31
0.0
 70
    32
  1
44
 71
     5
 42
-1.0
  3
AutoCAD
100
AcDbAlignedDimension
 13
1828.885232753243
 23
738.5682120351331
 33
0.0
 14
1754.537788068573
 24
780.9910700698058
 34
0.0
 50
90.0
100
AcDbRotatedDimension
  0
DIMENSION
  5
724D
330
1E
100
AcDbEntity
  8
寸法
  6
Continuous
100
AcDbDimension
  2
*D10
 10
1886.885232753243
 20
828.568212035133
 30
0.0
 11
1883.385232753242
 21
783.5682120351333
 31
0.0
 70
    32
 71
     5
 42
-1.0
  3
AutoCAD
100
AcDbAlignedDimension
 13
1828.885232753243
 23
738.5682120351331
 33
0.0
 14
1828.885232753243
 24
828.568212035133
 34
0.0
 50
90.0
100
AcDbRotatedDimension
  0
DIMENSION
  5
725A
330
1E
100
AcDbEntity
  8
寸法
  6
Continuous
100
AcDbDimension
  2
*D11
 10
1516.885232753242
 20
877.8933033893435
 30
0.0
 11
1671.885232753243
 21
881.3933033893436
 31
0.0
 70
    32
  1
A
 71
     5
 42
-1.0
  3
AutoCAD
100
AcDbAlignedDimension
 13
1826.885232753243
 23
830.5682120351329
 33
0.0
 14
1516.885232753242
 24
858.8146236128757
 34
0.0
100
AcDbRotatedDimension
  0
DIMENSION
  5
7267
330
1E
100
AcDbEntity
  8
寸法
  6
Continuous
100
AcDbDimension
  2
*D12
 10
1501.885232753243
 20
959.8933033893436
 30
0.0
 11
1664.385232753243
 21
963.3933033893436
 31
0.0
 70
    32
  1
W
 71
     5
 42
-1.0
  3
AutoCAD
100
AcDbAlignedDimension
 13
1826.885232753243
 23
830.5682120351329
 33
0.0
 14
1501.885232753243
 24
886.8933033893435
 34
0.0
100
AcDbRotatedDimension
  0
DIMENSION
  5
7274
330
1E
100
AcDbEntity
  8
寸法
  6
Continuous
100
AcDbDimension
  2
*D13
 10
1535.085232753243
 20
944.8933033893437
 30
0.0
 11
1518.485232753243
 21
948.3933033893437
 31
0.0
 70
    32
  1
33.2
 71
     5
 42
-1.0
  3
AutoCAD
100
AcDbAlignedDimension
 13
1501.885232753243
 23
886.8933033893435
 33
0.0
 14
1535.085232753243
 24
887.7955367088814
 34
0.0
100
AcDbRotatedDimension
  0
DIMENSION
  5
7281
330
1E
100
AcDbEntity
  8
寸法
  6
Continuous
100
AcDbDimension
  2
*D14
 10
1535.085232753243
 20
929.8933033893435
 30
0.0
 11
1525.085232753243
 21
933.3933033893435
 31
0.0
 70
    32
 71
     5
 42
-1.0
  3
AutoCAD
100
AcDbAlignedDimension
 13
1515.085232753243
 23
901.8933033893436
 33
0.0
 14
1535.085232753243
 24
887.7955367088814
 34
0.0
100
AcDbRotatedDimension
  0
DIMENSION
  5
728E
330
1E
100
AcDbEntity
  8
寸法
  6
Continuous
100
AcDbDimension
  2
*D15
 10
1570.085232753243
 20
884.8933033893436
 30
0.0
 11
1566.585232753243
 21
892.3933033893439
 31
0.0
 70
    32
 71
     5
 42
-1.0
  3
AutoCAD
100
AcDbAlignedDimension
 13
1527.885232753243
 23
899.8933033893436
 33
0.0
 14
1537.085232753243
 24
884.8933033893436
 34
0.0
 50
90.0
100
AcDbRotatedDimension
  0
DIMENSION
  5
729B
330
1E
100
AcDbEntity
  8
寸法
  6
Continuous
100
AcDbDimension
  2
*D16
 10
1570.085232753243
 20
848.8933033893436
 30
0.0
 11
1566.585232753243
 21
866.8933033893438
 31
0.0
 70
    32
 71
     5
 42
-1.0
  3
AutoCAD
100
AcDbAlignedDimension
 13
1537.085232753243
 23
884.8933033893436
 33
0.0
 14
1537.085232753243
 24
848.8933033893436
 34
0.0
 50
90.0
100
AcDbRotatedDimension
  0
DIMENSION
  5
72A8
330
1E
100
AcDbEntity
  8
寸法
  6
Continuous
100
AcDbDimension
  2
*D17
 10
1445.885232753243
 20
841.1933033893435
 30
0.0
 11
1442.385232753243
 21
811.0921867295749
 31
0.0
 70
    32
  1
D
 71
     5
 42
-1.0
  3
AutoCAD
100
AcDbAlignedDimension
 13
1498.885232753243
 23
780.9910700698058
 33
0.0
 14
1445.885232753243
 24
841.1933033893435
 34
0.0
 50
90.0
100
AcDbRotatedDimension
  0
DIMENSION
  5
72B4
330
1E
100
AcDbEntity
  8
寸法
  6
Continuous
100
AcDbDimension
  2
*D18
 10
1425.885232753243
 20
899.8933033893436
 30
0.0
 11
1422.385232753242
 21
840.4421867295749
 31
0.0
 70
    32
  1
E
 71
     5
 42
-1.0
  3
AutoCAD
100
AcDbAlignedDimension
 13
1498.885232753243
 23
780.9910700698058
 33
0.0
 14
1498.885232753243
 24
899.8933033893436
 34
0.0
 50
90.0
100
AcDbRotatedDimension
  0
ENDSEC
  0
SECTION
  2
OBJECTS
  0
DICTIONARY
  5
C
330
0
100
AcDbDictionary
281
     1
  3
ACAD_COLOR
350
6779
  3
ACAD_GROUP
350
D
  3
ACAD_LAYOUT
350
19
  3
ACAD_MATERIAL
350
6778
  3
ACAD_MLINESTYLE
350
16
  3
ACAD_PLOTSETTINGS
350
18
  3
ACAD_PLOTSTYLENAME
350
E
  3
ACAD_TABLESTYLE
350
677A
  3
ACDBHEADERROUNDTRIPXREC
350
735B
  3
AcDbVariableDictionary
350
169
  0
DICTIONARY
  5
175
330
2
100
AcDbDictionary
280
     1
281
     1
  3
ACAD_LAYERFILTERS
360
185
  3
ACAD_LAYERSTATES
360
176
  0
DICTIONARY
  5
28B
330
1E
100
AcDbDictionary
280
     1
281
     1
  3
ACAD_LAYOUTSELFREF
360
734C
  0
DICTIONARY
  5
28D
330
1A
100
AcDbDictionary
280
     1
281
     1
  3
ACAD_LAYOUTSELFREF
360
734B
  0
DICTIONARY
  5
6779
102
{ACAD_REACTORS
330
C
102
}
330
C
100
AcDbDictionary
281
     1
  0
DICTIONARY
  5
D
102
{ACAD_REACTORS
330
C
102
}
330
C
100
AcDbDictionary
281
     1
  0
DICTIONARY
  5
19
102
{ACAD_REACTORS
330
C
102
}
330
C
100
AcDbDictionary
281
     1
  3
Model
350
21
  3
ﾚｲｱｳﾄ1
350
1D
  0
DICTIONARY
  5
6778
102
{ACAD_REACTORS
330
C
102
}
330
C
100
AcDbDictionary
281
     1
  0
DICTIONARY
  5
16
102
{ACAD_REACTORS
330
C
102
}
330
C
100
AcDbDictionary
281
     1
  3
Standard
350
17
  0
DICTIONARY
  5
18
102
{ACAD_REACTORS
330
C
102
}
330
C
100
AcDbDictionary
281
     1
  0
ACDBDICTIONARYWDFLT
  5
E
102
{ACAD_REACTORS
330
C
102
}
330
C
100
AcDbDictionary
281
     1
  3
Normal
350
F
100
AcDbDictionaryWithDefault
340
F
1001
ACAD
1000
TREAT_AS_HARD
1070
     0
1000
TREAT_AS_HARD
1070
     0
1000
TREAT_AS_HARD
1070
     0
1000
TREAT_AS_HARD
1070
     0
1000
TREAT_AS_HARD
1070
     0
1000
TREAT_AS_HARD
1070
     0
1000
TREAT_AS_HARD
1070
     0
1000
TREAT_AS_HARD
1070
     0
1000
TREAT_AS_HARD
1070
     0
1000
TREAT_AS_HARD
1070
     0
1000
TREAT_AS_HARD
1070
     0
1000
TREAT_AS_HARD
1070
     0
1000
TREAT_AS_HARD
1070
     0
1000
TREAT_AS_HARD
1070
     0
1000
TREAT_AS_HARD
1070
     0
1000
TREAT_AS_HARD
1070
     0
1000
TREAT_AS_HARD
1070
     0
1000
TREAT_AS_HARD
1070
     0
1000
TREAT_AS_HARD
1070
     0
1000
TREAT_AS_HARD
1070
     0
1000
TREAT_AS_HARD
1070
     0
1000
TREAT_AS_HARD
1070
     0
1000
TREAT_AS_HARD
1070
     0
1000
TREAT_AS_HARD
1070
     0
1000
TREAT_AS_HARD
1070
     0
1000
TREAT_AS_HARD
1070
     0
1000
TREAT_AS_HARD
1070
     0
  0
DICTIONARY
  5
677A
102
{ACAD_REACTORS
330
C
102
}
330
C
100
AcDbDictionary
281
     1
  3
Standard
350
677B
  0
DICTIONARY
  5
735B
102
{ACAD_REACTORS
330
C
102
}
330
C
100
AcDbDictionary
281
     1
  0
DICTIONARY
  5
169
102
{ACAD_REACTORS
330
C
102
}
330
C
100
AcDbDictionary
281
     1
  3
CTABLESTYLE
350
6782
  3
DIMASSOC
350
16A
  3
PROJECTNAME
350
6791
  0
DICTIONARY
  5
185
102
{ACAD_REACTORS
330
175
102
}
330
175
100
AcDbDictionary
280
     1
281
     1
  0
DICTIONARY
  5
176
102
{ACAD_REACTORS
330
175
102
}
330
175
100
AcDbDictionary
281
     1
  3
ACAD
350
177
  0
XRECORD
  5
734C
102
{ACAD_REACTORS
330
28B
102
}
330
28B
100
AcDbXrecord
280
     1
340
1E
  0
XRECORD
  5
734B
102
{ACAD_REACTORS
330
28D
102
}
330
28D
100
AcDbXrecord
280
     1
340
1A
  0
LAYOUT
  5
21
102
{ACAD_XDICTIONARY
360
735E
102
}
102
{ACAD_REACTORS
330
19
102
}
330
19
100
AcDbPlotSettings
  1

  2
\\MEISEI-1\EPSON Stylus Photo EX3
  4

  6

 40
0.0
 41
0.0
 42
0.0
 43
0.0
 44
0.0
 45
0.0
 46
0.0
 47
0.0
 48
0.0
 49
0.0
140
0.0
141
0.0
142
1.0
143
1.0
 70
  1712
 72
     0
 73
     0
 74
     0
  7

 75
     0
147
1.0
148
0.0
149
0.0
100
AcDbLayout
  1
Model
 70
     1
 71
     0
 10
0.0
 20
0.0
 11
12.0
 21
9.0
 12
0.0
 22
0.0
 32
0.0
 14
0.0
 24
0.0
 34
0.0
 15
0.0
 25
0.0
 35
0.0
146
0.0
 13
0.0
 23
0.0
 33
0.0
 16
1.0
 26
0.0
 36
0.0
 17
0.0
 27
1.0
 37
0.0
 76
     0
330
1E
  0
LAYOUT
  5
1D
102
{ACAD_XDICTIONARY
360
735C
102
}
102
{ACAD_REACTORS
330
19
102
}
330
19
100
AcDbPlotSettings
  1

  2
\\MEISEI-1\EPSON Stylus Photo EX3
  4

  6

 40
0.0
 41
0.0
 42
0.0
 43
0.0
 44
0.0
 45
0.0
 46
0.0
 47
0.0
 48
0.0
 49
0.0
140
0.0
141
0.0
142
1.0
143
1.0
 70
   688
 72
     0
 73
     0
 74
     5
  7

 75
    16
147
1.0
148
0.0
149
0.0
100
AcDbLayout
  1
ﾚｲｱｳﾄ1
 70
     1
 71
     1
 10
0.0
 20
0.0
 11
12.0
 21
9.0
 12
0.0
 22
0.0
 32
0.0
 14
1.000000000000000E+20
 24
1.000000000000000E+20
 34
1.000000000000000E+20
 15
-1.000000000000000E+20
 25
-1.000000000000000E+20
 35
-1.000000000000000E+20
146
0.0
 13
0.0
 23
0.0
 33
0.0
 16
1.0
 26
0.0
 36
0.0
 17
0.0
 27
1.0
 37
0.0
 76
     0
330
1A
  0
MLINESTYLE
  5
17
102
{ACAD_REACTORS
330
16
102
}
330
16
100
AcDbMlineStyle
  2
STANDARD
 70
     0
  3

 62
   256
 51
90.0
 52
90.0
 71
     2
 49
0.5
 62
   256
  6
BYLAYER
 49
-0.5
 62
   256
  6
BYLAYER
  0
ACDBPLACEHOLDER
  5
F
102
{ACAD_REACTORS
330
E
102
}
330
E
  0
TABLESTYLE
  5
677B
102
{ACAD_REACTORS
330
677A
102
}
330
677A
100
AcDbTableStyle
  3
Standard
 70
     0
 71
     0
 40
0.06
 41
0.06
280
     0
281
     0
  7
STANDARD
140
0.18
170
     2
 62
     0
 63
     7
283
     0
274
    -2
284
     1
 64
     0
275
    -2
285
     1
 65
     0
276
    -2
286
     1
 66
     0
277
    -2
287
     1
 67
     0
278
    -2
288
     1
 68
     0
279
    -2
289
     1
 69
     0
  7
STANDARD
140
0.25
170
     5
 62
     0
 63
     7
283
     0
274
    -2
284
     1
 64
     0
275
    -2
285
     1
 65
     0
276
    -2
286
     1
 66
     0
277
    -2
287
     1
 67
     0
278
    -2
288
     1
 68
     0
279
    -2
289
     1
 69
     0
  7
STANDARD
140
0.18
170
     5
 62
     0
 63
     7
283
     0
274
    -2
284
     1
 64
     0
275
    -2
285
     1
 65
     0
276
    -2
286
     1
 66
     0
277
    -2
287
     1
 67
     0
278
    -2
288
     1
 68
     0
279
    -2
289
     1
 69
     0
  0
DICTIONARYVAR
  5
6782
102
{ACAD_REACTORS
330
169
102
}
330
169
100
DictionaryVariables
280
     0
  1
STANDARD
  0
DICTIONARYVAR
  5
16A
102
{ACAD_REACTORS
330
169
102
}
330
169
100
DictionaryVariables
280
     0
  1
1
  0
DICTIONARYVAR
  5
6791
102
{ACAD_REACTORS
330
169
102
}
330
169
100
DictionaryVariables
280
     0
  1

  0
XRECORD
  5
177
102
{ACAD_REACTORS
330
176
102
}
330
176
100
AcDbXrecord
280
     1
 91
      476
330
179
 90
        8
 62
     7
370
    -3
331
15
  1
Color_7
330
178
 90
        8
 62
     7
370
    -3
331
15
  1
Color_7
330
128
 90
        0
 62
     7
370
    -3
331
15
  1
Color_7
330
10
 90
        8
 62
     7
370
    -3
331
15
  1
Color_7
  0
DICTIONARY
  5
735E
330
21
100
AcDbDictionary
280
     1
281
     1
  3
ACAD_XREC_ROUNDTRIP
360
735F
  0
DICTIONARY
  5
735C
330
1D
100
AcDbDictionary
280
     1
281
     1
  3
ACAD_XREC_ROUNDTRIP
360
735D
  0
XRECORD
  5
735F
102
{ACAD_REACTORS
330
735E
102
}
330
735E
100
AcDbXrecord
280
     1
102
SHADEPLOT
 70
     0
102
SHADEPLOTRESLEVEL
 70
     2
102
SHADEPLOTCUSTOMDPI
 70
   300
  0
XRECORD
  5
735D
102
{ACAD_REACTORS
330
735C
102
}
330
735C
100
AcDbXrecord
280
     1
102
SHADEPLOT
 70
     0
102
SHADEPLOTRESLEVEL
 70
     2
102
SHADEPLOTCUSTOMDPI
 70
   300
  0
ENDSEC
  0
EOF
