  0
SECTION
  2
HEADER
  9
$ACADVER
  1
AC1015
  9
$ACADMAINTVER
 70
    20
  9
$DWGCODEPAGE
  3
ANSI_932
  9
$INSBASE
 10
0.0
 20
0.0
 30
0.0
  9
$EXTMIN
 10
1258.812638920046
 20
446.3713548503728
 30
-0.0015258207003583
  9
$EXTMAX
 10
2082.914121080445
 20
1022.412390599777
 30
0.0000000349246037
  9
$LIMMIN
 10
0.0
 20
0.0
  9
$LIMMAX
 10
420.0
 20
297.0
  9
$ORTHOMODE
 70
     0
  9
$REGENMODE
 70
     1
  9
$FILLMODE
 70
     1
  9
$QTEXTMODE
 70
     0
  9
$MIRRTEXT
 70
     1
  9
$LTSCALE
 40
1.0
  9
$ATTMODE
 70
     1
  9
$TEXTSIZE
 40
5.0
  9
$TRACEWID
 40
0.05
  9
$TEXTSTYLE
  7
ACAD
  9
$CLAYER
  8
図枠
  9
$CELTYPE
  6
CONTINUOUS
  9
$CECOLOR
 62
   256
  9
$CELTSCALE
 40
1.0
  9
$DISPSILH
 70
     0
  9
$DIMSCALE
 40
1.0
  9
$DIMASZ
 40
1.0
  9
$DIMEXO
 40
0.0
  9
$DIMDLI
 40
0.38
  9
$DIMRND
 40
0.0
  9
$DIMDLE
 40
0.0
  9
$DIMEXE
 40
0.0
  9
$DIMTP
 40
0.0
  9
$DIMTM
 40
0.0
  9
$DIMTXT
 40
5.0
  9
$DIMCEN
 40
0.09
  9
$DIMTSZ
 40
0.0
  9
$DIMTOL
 70
     0
  9
$DIMLIM
 70
     0
  9
$DIMTIH
 70
     0
  9
$DIMTOH
 70
     1
  9
$DIMSE1
 70
     0
  9
$DIMSE2
 70
     0
  9
$DIMTAD
 70
     1
  9
$DIMZIN
 70
     0
  9
$DIMBLK
  1
Dot
  9
$DIMASO
 70
     1
  9
$DIMSHO
 70
     1
  9
$DIMPOST
  1

  9
$DIMAPOST
  1

  9
$DIMALT
 70
     0
  9
$DIMALTD
 70
     2
  9
$DIMALTF
 40
25.4
  9
$DIMLFAC
 40
1.0
  9
$DIMTOFL
 70
     0
  9
$DIMTVP
 40
0.0
  9
$DIMTIX
 70
     1
  9
$DIMSOXD
 70
     0
  9
$DIMSAH
 70
     0
  9
$DIMBLK1
  1

  9
$DIMBLK2
  1

  9
$DIMSTYLE
  2
AutoCAD
  9
$DIMCLRD
 70
     4
  9
$DIMCLRE
 70
     4
  9
$DIMCLRT
 70
     3
  9
$DIMTFAC
 40
1.0
  9
$DIMGAP
 40
1.0
  9
$DIMJUST
 70
     0
  9
$DIMSD1
 70
     0
  9
$DIMSD2
 70
     0
  9
$DIMTOLJ
 70
     1
  9
$DIMTZIN
 70
     0
  9
$DIMALTZ
 70
     0
  9
$DIMALTTZ
 70
     0
  9
$DIMUPT
 70
     0
  9
$DIMDEC
 70
     0
  9
$DIMTDEC
 70
     0
  9
$DIMALTU
 70
     2
  9
$DIMALTTD
 70
     2
  9
$DIMTXSTY
  7
ACAD
  9
$DIMAUNIT
 70
     0
  9
$DIMADEC
 70
     0
  9
$DIMALTRND
 40
0.0
  9
$DIMAZIN
 70
     0
  9
$DIMDSEP
 70
    46
  9
$DIMATFIT
 70
     0
  9
$DIMFRAC
 70
     0
  9
$DIMLDRBLK
  1
None
  9
$DIMLUNIT
 70
     2
  9
$DIMLWD
 70
    -2
  9
$DIMLWE
 70
    -2
  9
$DIMTMOVE
 70
     0
  9
$LUNITS
 70
     2
  9
$LUPREC
 70
     4
  9
$SKETCHINC
 40
0.1
  9
$FILLETRAD
 40
0.0
  9
$AUNITS
 70
     0
  9
$AUPREC
 70
     0
  9
$MENU
  1
.
  9
$ELEVATION
 40
0.0
  9
$PELEVATION
 40
0.0
  9
$THICKNESS
 40
0.0
  9
$LIMCHECK
 70
     0
  9
$CHAMFERA
 40
0.0
  9
$CHAMFERB
 40
0.0
  9
$CHAMFERC
 40
0.0
  9
$CHAMFERD
 40
0.0
  9
$SKPOLY
 70
     0
  9
$TDCREATE
 40
2454316.693457674
  9
$TDUCREATE
 40
2454316.318457674
  9
$TDUPDATE
 40
2454736.714822662
  9
$TDUUPDATE
 40
2454736.339822662
  9
$TDINDWG
 40
0.2533774190
  9
$TDUSRTIMER
 40
0.2533774190
  9
$USRTIMER
 70
     1
  9
$ANGBASE
 50
0.0
  9
$ANGDIR
 70
     0
  9
$PDMODE
 70
     0
  9
$PDSIZE
 40
0.0
  9
$PLINEWID
 40
0.0
  9
$SPLFRAME
 70
     0
  9
$SPLINETYPE
 70
     6
  9
$SPLINESEGS
 70
     8
  9
$HANDSEED
  5
7378
  9
$SURFTAB1
 70
     6
  9
$SURFTAB2
 70
     6
  9
$SURFTYPE
 70
     6
  9
$SURFU
 70
     6
  9
$SURFV
 70
     6
  9
$UCSBASE
  2

  9
$UCSNAME
  2

  9
$UCSORG
 10
0.0
 20
0.0
 30
0.0
  9
$UCSXDIR
 10
1.0
 20
0.0
 30
0.0
  9
$UCSYDIR
 10
0.0
 20
1.0
 30
0.0
  9
$UCSORTHOREF
  2

  9
$UCSORTHOVIEW
 70
     0
  9
$UCSORGTOP
 10
0.0
 20
0.0
 30
0.0
  9
$UCSORGBOTTOM
 10
0.0
 20
0.0
 30
0.0
  9
$UCSORGLEFT
 10
0.0
 20
0.0
 30
0.0
  9
$UCSORGRIGHT
 10
0.0
 20
0.0
 30
0.0
  9
$UCSORGFRONT
 10
0.0
 20
0.0
 30
0.0
  9
$UCSORGBACK
 10
0.0
 20
0.0
 30
0.0
  9
$PUCSBASE
  2

  9
$PUCSNAME
  2

  9
$PUCSORG
 10
0.0
 20
0.0
 30
0.0
  9
$PUCSXDIR
 10
1.0
 20
0.0
 30
0.0
  9
$PUCSYDIR
 10
0.0
 20
1.0
 30
0.0
  9
$PUCSORTHOREF
  2

  9
$PUCSORTHOVIEW
 70
     0
  9
$PUCSORGTOP
 10
0.0
 20
0.0
 30
0.0
  9
$PUCSORGBOTTOM
 10
0.0
 20
0.0
 30
0.0
  9
$PUCSORGLEFT
 10
0.0
 20
0.0
 30
0.0
  9
$PUCSORGRIGHT
 10
0.0
 20
0.0
 30
0.0
  9
$PUCSORGFRONT
 10
0.0
 20
0.0
 30
0.0
  9
$PUCSORGBACK
 10
0.0
 20
0.0
 30
0.0
  9
$USERI1
 70
     0
  9
$USERI2
 70
     0
  9
$USERI3
 70
     0
  9
$USERI4
 70
     0
  9
$USERI5
 70
     0
  9
$USERR1
 40
0.0
  9
$USERR2
 40
0.0
  9
$USERR3
 40
0.0
  9
$USERR4
 40
0.0
  9
$USERR5
 40
0.0
  9
$WORLDVIEW
 70
     1
  9
$SHADEDGE
 70
     3
  9
$SHADEDIF
 70
    70
  9
$TILEMODE
 70
     1
  9
$MAXACTVP
 70
    48
  9
$PINSBASE
 10
0.0
 20
0.0
 30
0.0
  9
$PLIMCHECK
 70
     0
  9
$PEXTMIN
 10
1.000000000000000E+20
 20
1.000000000000000E+20
 30
1.000000000000000E+20
  9
$PEXTMAX
 10
-1.000000000000000E+20
 20
-1.000000000000000E+20
 30
-1.000000000000000E+20
  9
$PLIMMIN
 10
0.0
 20
0.0
  9
$PLIMMAX
 10
12.0
 20
9.0
  9
$UNITMODE
 70
     0
  9
$VISRETAIN
 70
     0
  9
$PLINEGEN
 70
     0
  9
$PSLTSCALE
 70
     1
  9
$TREEDEPTH
 70
  3020
  9
$CMLSTYLE
  2
Standard
  9
$CMLJUST
 70
     0
  9
$CMLSCALE
 40
1.0
  9
$PROXYGRAPHICS
 70
     1
  9
$MEASUREMENT
 70
     0
  9
$CELWEIGHT
370
    -1
  9
$ENDCAPS
280
     0
  9
$JOINSTYLE
280
     0
  9
$LWDISPLAY
290
     0
  9
$INSUNITS
 70
     0
  9
$HYPERLINKBASE
  1

  9
$STYLESHEET
  1

  9
$XEDIT
290
     1
  9
$CEPSNTYPE
380
     0
  9
$PSTYLEMODE
290
     1
  9
$FINGERPRINTGUID
  2
{CC7D6DEE-A9F1-4F3E-AC95-C84B62CCA3FD}
  9
$VERSIONGUID
  2
{544C1986-FE1B-4C26-B2CC-E9C39F5577C2}
  9
$EXTNAMES
290
     1
  9
$PSVPSCALE
 40
0.0
  9
$OLESTARTUP
290
     0
  0
ENDSEC
  0
SECTION
  2
CLASSES
  0
CLASS
  1
ACDBDICTIONARYWDFLT
  2
AcDbDictionaryWithDefault
  3
ObjectDBX Classes
 90
        0
280
     0
281
     0
  0
CLASS
  1
ACDBPLACEHOLDER
  2
AcDbPlaceHolder
  3
ObjectDBX Classes
 90
        0
280
     0
281
     0
  0
CLASS
  1
LAYOUT
  2
AcDbLayout
  3
ObjectDBX Classes
 90
        0
280
     0
281
     0
  0
CLASS
  1
DICTIONARYVAR
  2
AcDbDictionaryVar
  3
ObjectDBX Classes
 90
        0
280
     0
281
     0
  0
CLASS
  1
LONG_TRANSACTION
  2
AcDbLongTransaction
  3
ObjectDBX Classes
 90
    32768
280
     0
281
     0
  0
CLASS
  1
LWPOLYLINE
  2
AcDbPolyline
  3
ObjectDBX Classes
 90
        0
280
     0
281
     1
  0
CLASS
  1
HATCH
  2
AcDbHatch
  3
ObjectDBX Classes
 90
    32768
280
     0
281
     1
  0
CLASS
  1
XRECORD
  2
AcDbXrecord
  3
ObjectDBX Classes
 90
        0
280
     0
281
     0
  0
CLASS
  1
LONG_TRANSACTION
  2
AcDbLongTransaction
  3
ObjectDBX Classes
 90
    32768
280
     0
281
     0
  0
CLASS
  1
LWPOLYLINE
  2
AcDbPolyline
  3
ObjectDBX Classes
 90
        0
280
     0
281
     1
  0
CLASS
  1
HATCH
  2
AcDbHatch
  3
ObjectDBX Classes
 90
    32768
280
     0
281
     1
  0
CLASS
  1
XRECORD
  2
AcDbXrecord
  3
ObjectDBX Classes
 90
        0
280
     0
281
     0
  0
CLASS
  1
LONG_TRANSACTION
  2
AcDbLongTransaction
  3
ObjectDBX Classes
 90
    32768
280
     0
281
     0
  0
CLASS
  1
LWPOLYLINE
  2
AcDbPolyline
  3
ObjectDBX Classes
 90
        0
280
     0
281
     1
  0
CLASS
  1
HATCH
  2
AcDbHatch
  3
ObjectDBX Classes
 90
    32768
280
     0
281
     1
  0
CLASS
  1
XRECORD
  2
AcDbXrecord
  3
ObjectDBX Classes
 90
        0
280
     0
281
     0
  0
CLASS
  1
LONG_TRANSACTION
  2
AcDbLongTransaction
  3
ObjectDBX Classes
 90
    32768
280
     0
281
     0
  0
CLASS
  1
LWPOLYLINE
  2
AcDbPolyline
  3
ObjectDBX Classes
 90
        0
280
     0
281
     1
  0
CLASS
  1
HATCH
  2
AcDbHatch
  3
ObjectDBX Classes
 90
    32768
280
     0
281
     1
  0
CLASS
  1
XRECORD
  2
AcDbXrecord
  3
ObjectDBX Classes
 90
        0
280
     0
281
     0
  0
CLASS
  1
LONG_TRANSACTION
  2
AcDbLongTransaction
  3
ObjectDBX Classes
 90
    32768
280
     0
281
     0
  0
CLASS
  1
LWPOLYLINE
  2
AcDbPolyline
  3
ObjectDBX Classes
 90
        0
280
     0
281
     1
  0
CLASS
  1
HATCH
  2
AcDbHatch
  3
ObjectDBX Classes
 90
    32768
280
     0
281
     1
  0
CLASS
  1
XRECORD
  2
AcDbXrecord
  3
ObjectDBX Classes
 90
        0
280
     0
281
     0
  0
CLASS
  1
LONG_TRANSACTION
  2
AcDbLongTransaction
  3
ObjectDBX Classes
 90
    32768
280
     0
281
     0
  0
CLASS
  1
LWPOLYLINE
  2
AcDbPolyline
  3
ObjectDBX Classes
 90
        0
280
     0
281
     1
  0
CLASS
  1
HATCH
  2
AcDbHatch
  3
ObjectDBX Classes
 90
    32768
280
     0
281
     1
  0
CLASS
  1
XRECORD
  2
AcDbXrecord
  3
ObjectDBX Classes
 90
        0
280
     0
281
     0
  0
CLASS
  1
LONG_TRANSACTION
  2
AcDbLongTransaction
  3
ObjectDBX Classes
 90
    32768
280
     0
281
     0
  0
CLASS
  1
LWPOLYLINE
  2
AcDbPolyline
  3
ObjectDBX Classes
 90
        0
280
     0
281
     1
  0
CLASS
  1
HATCH
  2
AcDbHatch
  3
ObjectDBX Classes
 90
    32768
280
     0
281
     1
  0
CLASS
  1
XRECORD
  2
AcDbXrecord
  3
ObjectDBX Classes
 90
        0
280
     0
281
     0
  0
CLASS
  1
LONG_TRANSACTION
  2
AcDbLongTransaction
  3
ObjectDBX Classes
 90
    32768
280
     0
281
     0
  0
CLASS
  1
LWPOLYLINE
  2
AcDbPolyline
  3
ObjectDBX Classes
 90
        0
280
     0
281
     1
  0
CLASS
  1
HATCH
  2
AcDbHatch
  3
ObjectDBX Classes
 90
    32768
280
     0
281
     1
  0
CLASS
  1
XRECORD
  2
AcDbXrecord
  3
ObjectDBX Classes
 90
        0
280
     0
281
     0
  0
CLASS
  1
LONG_TRANSACTION
  2
AcDbLongTransaction
  3
ObjectDBX Classes
 90
    32768
280
     0
281
     0
  0
CLASS
  1
LWPOLYLINE
  2
AcDbPolyline
  3
ObjectDBX Classes
 90
        0
280
     0
281
     1
  0
CLASS
  1
HATCH
  2
AcDbHatch
  3
ObjectDBX Classes
 90
    32768
280
     0
281
     1
  0
CLASS
  1
XRECORD
  2
AcDbXrecord
  3
ObjectDBX Classes
 90
        0
280
     0
281
     0
  0
CLASS
  1
LONG_TRANSACTION
  2
AcDbLongTransaction
  3
ObjectDBX Classes
 90
    32768
280
     0
281
     0
  0
CLASS
  1
LWPOLYLINE
  2
AcDbPolyline
  3
ObjectDBX Classes
 90
        0
280
     0
281
     1
  0
CLASS
  1
HATCH
  2
AcDbHatch
  3
ObjectDBX Classes
 90
    32768
280
     0
281
     1
  0
CLASS
  1
XRECORD
  2
AcDbXrecord
  3
ObjectDBX Classes
 90
        0
280
     0
281
     0
  0
CLASS
  1
LONG_TRANSACTION
  2
AcDbLongTransaction
  3
ObjectDBX Classes
 90
    32768
280
     0
281
     0
  0
CLASS
  1
LWPOLYLINE
  2
AcDbPolyline
  3
ObjectDBX Classes
 90
        0
280
     0
281
     1
  0
CLASS
  1
HATCH
  2
AcDbHatch
  3
ObjectDBX Classes
 90
    32768
280
     0
281
     1
  0
CLASS
  1
XRECORD
  2
AcDbXrecord
  3
ObjectDBX Classes
 90
        0
280
     0
281
     0
  0
CLASS
  1
LONG_TRANSACTION
  2
AcDbLongTransaction
  3
ObjectDBX Classes
 90
    32768
280
     0
281
     0
  0
CLASS
  1
LWPOLYLINE
  2
AcDbPolyline
  3
ObjectDBX Classes
 90
        0
280
     0
281
     1
  0
CLASS
  1
HATCH
  2
AcDbHatch
  3
ObjectDBX Classes
 90
    32768
280
     0
281
     1
  0
CLASS
  1
XRECORD
  2
AcDbXrecord
  3
ObjectDBX Classes
 90
        0
280
     0
281
     0
  0
CLASS
  1
LONG_TRANSACTION
  2
AcDbLongTransaction
  3
ObjectDBX Classes
 90
    32768
280
     0
281
     0
  0
CLASS
  1
LWPOLYLINE
  2
AcDbPolyline
  3
ObjectDBX Classes
 90
        0
280
     0
281
     1
  0
CLASS
  1
HATCH
  2
AcDbHatch
  3
ObjectDBX Classes
 90
    32768
280
     0
281
     1
  0
CLASS
  1
XRECORD
  2
AcDbXrecord
  3
ObjectDBX Classes
 90
        0
280
     0
281
     0
  0
CLASS
  1
LONG_TRANSACTION
  2
AcDbLongTransaction
  3
ObjectDBX Classes
 90
    32768
280
     0
281
     0
  0
CLASS
  1
LWPOLYLINE
  2
AcDbPolyline
  3
ObjectDBX Classes
 90
        0
280
     0
281
     1
  0
CLASS
  1
HATCH
  2
AcDbHatch
  3
ObjectDBX Classes
 90
    32768
280
     0
281
     1
  0
CLASS
  1
XRECORD
  2
AcDbXrecord
  3
ObjectDBX Classes
 90
        0
280
     0
281
     0
  0
CLASS
  1
LONG_TRANSACTION
  2
AcDbLongTransaction
  3
ObjectDBX Classes
 90
    32768
280
     0
281
     0
  0
CLASS
  1
LWPOLYLINE
  2
AcDbPolyline
  3
ObjectDBX Classes
 90
        0
280
     0
281
     1
  0
CLASS
  1
HATCH
  2
AcDbHatch
  3
ObjectDBX Classes
 90
    32768
280
     0
281
     1
  0
CLASS
  1
XRECORD
  2
AcDbXrecord
  3
ObjectDBX Classes
 90
        0
280
     0
281
     0
  0
CLASS
  1
LONG_TRANSACTION
  2
AcDbLongTransaction
  3
ObjectDBX Classes
 90
    32768
280
     0
281
     0
  0
CLASS
  1
LWPOLYLINE
  2
AcDbPolyline
  3
ObjectDBX Classes
 90
        0
280
     0
281
     1
  0
CLASS
  1
HATCH
  2
AcDbHatch
  3
ObjectDBX Classes
 90
    32768
280
     0
281
     1
  0
CLASS
  1
XRECORD
  2
AcDbXrecord
  3
ObjectDBX Classes
 90
        0
280
     0
281
     0
  0
CLASS
  1
LONG_TRANSACTION
  2
AcDbLongTransaction
  3
ObjectDBX Classes
 90
    32768
280
     0
281
     0
  0
CLASS
  1
LWPOLYLINE
  2
AcDbPolyline
  3
ObjectDBX Classes
 90
        0
280
     0
281
     1
  0
CLASS
  1
HATCH
  2
AcDbHatch
  3
ObjectDBX Classes
 90
    32768
280
     0
281
     1
  0
CLASS
  1
XRECORD
  2
AcDbXrecord
  3
ObjectDBX Classes
 90
        0
280
     0
281
     0
  0
CLASS
  1
LONG_TRANSACTION
  2
AcDbLongTransaction
  3
ObjectDBX Classes
 90
    32768
280
     0
281
     0
  0
CLASS
  1
LWPOLYLINE
  2
AcDbPolyline
  3
ObjectDBX Classes
 90
        0
280
     0
281
     1
  0
CLASS
  1
HATCH
  2
AcDbHatch
  3
ObjectDBX Classes
 90
    32768
280
     0
281
     1
  0
CLASS
  1
XRECORD
  2
AcDbXrecord
  3
ObjectDBX Classes
 90
        0
280
     0
281
     0
  0
CLASS
  1
LONG_TRANSACTION
  2
AcDbLongTransaction
  3
ObjectDBX Classes
 90
    32768
280
     0
281
     0
  0
CLASS
  1
LWPOLYLINE
  2
AcDbPolyline
  3
ObjectDBX Classes
 90
        0
280
     0
281
     1
  0
CLASS
  1
HATCH
  2
AcDbHatch
  3
ObjectDBX Classes
 90
    32768
280
     0
281
     1
  0
CLASS
  1
XRECORD
  2
AcDbXrecord
  3
ObjectDBX Classes
 90
        0
280
     0
281
     0
  0
CLASS
  1
LONG_TRANSACTION
  2
AcDbLongTransaction
  3
ObjectDBX Classes
 90
    32768
280
     0
281
     0
  0
CLASS
  1
LWPOLYLINE
  2
AcDbPolyline
  3
ObjectDBX Classes
 90
        0
280
     0
281
     1
  0
CLASS
  1
HATCH
  2
AcDbHatch
  3
ObjectDBX Classes
 90
    32768
280
     0
281
     1
  0
CLASS
  1
XRECORD
  2
AcDbXrecord
  3
ObjectDBX Classes
 90
        0
280
     0
281
     0
  0
CLASS
  1
LONG_TRANSACTION
  2
AcDbLongTransaction
  3
ObjectDBX Classes
 90
    32768
280
     0
281
     0
  0
CLASS
  1
LWPOLYLINE
  2
AcDbPolyline
  3
ObjectDBX Classes
 90
        0
280
     0
281
     1
  0
CLASS
  1
HATCH
  2
AcDbHatch
  3
ObjectDBX Classes
 90
    32768
280
     0
281
     1
  0
CLASS
  1
XRECORD
  2
AcDbXrecord
  3
ObjectDBX Classes
 90
        0
280
     0
281
     0
  0
CLASS
  1
LONG_TRANSACTION
  2
AcDbLongTransaction
  3
ObjectDBX Classes
 90
    32768
280
     0
281
     0
  0
CLASS
  1
LWPOLYLINE
  2
AcDbPolyline
  3
ObjectDBX Classes
 90
        0
280
     0
281
     1
  0
CLASS
  1
HATCH
  2
AcDbHatch
  3
ObjectDBX Classes
 90
    32768
280
     0
281
     1
  0
CLASS
  1
XRECORD
  2
AcDbXrecord
  3
ObjectDBX Classes
 90
        0
280
     0
281
     0
  0
CLASS
  1
LONG_TRANSACTION
  2
AcDbLongTransaction
  3
ObjectDBX Classes
 90
    32768
280
     0
281
     0
  0
CLASS
  1
LWPOLYLINE
  2
AcDbPolyline
  3
ObjectDBX Classes
 90
        0
280
     0
281
     1
  0
CLASS
  1
HATCH
  2
AcDbHatch
  3
ObjectDBX Classes
 90
    32768
280
     0
281
     1
  0
CLASS
  1
XRECORD
  2
AcDbXrecord
  3
ObjectDBX Classes
 90
        0
280
     0
281
     0
  0
CLASS
  1
LONG_TRANSACTION
  2
AcDbLongTransaction
  3
ObjectDBX Classes
 90
    32768
280
     0
281
     0
  0
CLASS
  1
LWPOLYLINE
  2
AcDbPolyline
  3
ObjectDBX Classes
 90
        0
280
     0
281
     1
  0
CLASS
  1
HATCH
  2
AcDbHatch
  3
ObjectDBX Classes
 90
    32768
280
     0
281
     1
  0
CLASS
  1
XRECORD
  2
AcDbXrecord
  3
ObjectDBX Classes
 90
        0
280
     0
281
     0
  0
CLASS
  1
LONG_TRANSACTION
  2
AcDbLongTransaction
  3
ObjectDBX Classes
 90
    32768
280
     0
281
     0
  0
CLASS
  1
LWPOLYLINE
  2
AcDbPolyline
  3
ObjectDBX Classes
 90
        0
280
     0
281
     1
  0
CLASS
  1
HATCH
  2
AcDbHatch
  3
ObjectDBX Classes
 90
    32768
280
     0
281
     1
  0
CLASS
  1
XRECORD
  2
AcDbXrecord
  3
ObjectDBX Classes
 90
        0
280
     0
281
     0
  0
CLASS
  1
LONG_TRANSACTION
  2
AcDbLongTransaction
  3
ObjectDBX Classes
 90
    32768
280
     0
281
     0
  0
CLASS
  1
LWPOLYLINE
  2
AcDbPolyline
  3
ObjectDBX Classes
 90
        0
280
     0
281
     1
  0
CLASS
  1
HATCH
  2
AcDbHatch
  3
ObjectDBX Classes
 90
    32768
280
     0
281
     1
  0
CLASS
  1
XRECORD
  2
AcDbXrecord
  3
ObjectDBX Classes
 90
        0
280
     0
281
     0
  0
CLASS
  1
TABLESTYLE
  2
AcDbTableStyle
  3
ObjectDBX Classes
 90
     2047
280
     0
281
     0
  0
CLASS
  1
ACAD_PROXY_OBJECT_WRAPPER
  2
AcDbProxyObjectWrapper
  3
ObjectDBX Classes
 90
        0
280
     0
281
     0
  0
CLASS
  1
LONG_TRANSACTION
  2
AcDbLongTransaction
  3
ObjectDBX Classes
 90
    32768
280
     0
281
     0
  0
CLASS
  1
LWPOLYLINE
  2
AcDbPolyline
  3
ObjectDBX Classes
 90
        0
280
     0
281
     1
  0
CLASS
  1
HATCH
  2
AcDbHatch
  3
ObjectDBX Classes
 90
    32768
280
     0
281
     1
  0
CLASS
  1
XRECORD
  2
AcDbXrecord
  3
ObjectDBX Classes
 90
        0
280
     0
281
     0
  0
ENDSEC
  0
SECTION
  2
TABLES
  0
TABLE
  2
VPORT
  5
8
330
0
100
AcDbSymbolTable
 70
     2
  0
VPORT
  5
7372
330
8
100
AcDbSymbolTableRecord
100
AcDbViewportTableRecord
  2
*Active
 70
     0
 10
0.0
 20
0.0
 11
1.0
 21
1.0
 12
1687.860349542585
 22
722.2344461400309
 13
0.0
 23
0.0
 14
1.0
 24
1.0
 15
0.0
 25
0.0
 16
0.0
 26
0.0
 36
1.0
 17
0.0
 27
0.0
 37
0.0
 40
651.3109065509976
 41
1.538265306122448
 42
50.0
 43
0.0
 44
0.0
 50
0.0
 51
0.0
 71
     0
 72
   100
 73
     1
 74
     1
 75
     0
 76
     0
 77
     0
 78
     0
281
     0
 65
     1
110
0.0
120
0.0
130
0.0
111
1.0
121
0.0
131
0.0
112
0.0
122
1.0
132
0.0
 79
     0
146
0.0
  0
ENDTAB
  0
TABLE
  2
LTYPE
  5
5
330
0
100
AcDbSymbolTable
 70
    50
  0
LTYPE
  5
13
330
5
100
AcDbSymbolTableRecord
100
AcDbLinetypeTableRecord
  2
ByBlock
 70
     0
  3

 72
    65
 73
     0
 40
0.0
  0
LTYPE
  5
14
330
5
100
AcDbSymbolTableRecord
100
AcDbLinetypeTableRecord
  2
ByLayer
 70
     0
  3

 72
    65
 73
     0
 40
0.0
  0
LTYPE
  5
15
330
5
100
AcDbSymbolTableRecord
100
AcDbLinetypeTableRecord
  2
CONTINUOUS
 70
     0
  3
実線
 72
    65
 73
     0
 40
0.0
  0
LTYPE
  5
22
330
5
100
AcDbSymbolTableRecord
100
AcDbLinetypeTableRecord
  2
DASHED1
 70
     0
  3
--  --  --  --  --  --  --  --  
 72
    65
 73
     2
 40
2.5
 49
1.25
 74
     0
 49
-1.25
 74
     0
  0
LTYPE
  5
23
330
5
100
AcDbSymbolTableRecord
100
AcDbLinetypeTableRecord
  2
DASHED2
 70
     0
  3
----    ----    ----    ----    
 72
    65
 73
     2
 40
5.0
 49
2.5
 74
     0
 49
-2.5
 74
     0
  0
LTYPE
  5
24
330
5
100
AcDbSymbolTableRecord
100
AcDbLinetypeTableRecord
  2
DASHED3
 70
     0
  3
------  ------  ------  ------  
 72
    65
 73
     2
 40
5.0
 49
3.75
 74
     0
 49
-1.25
 74
     0
  0
LTYPE
  5
25
330
5
100
AcDbSymbolTableRecord
100
AcDbLinetypeTableRecord
  2
CENTER1
 70
     0
  3
----- - ----- - ----- - ----- - 
 72
    65
 73
     4
 40
10.0
 49
6.25
 74
     0
 49
-1.25
 74
     0
 49
1.25
 74
     0
 49
-1.25
 74
     0
  0
LTYPE
  5
26
330
5
100
AcDbSymbolTableRecord
100
AcDbLinetypeTableRecord
  2
CENTER2
 70
     0
  3
----------  --  ----------  --  
 72
    65
 73
     4
 40
20.0
 49
12.5
 74
     0
 49
-2.5
 74
     0
 49
2.5
 74
     0
 49
-2.5
 74
     0
  0
LTYPE
  5
27
330
5
100
AcDbSymbolTableRecord
100
AcDbLinetypeTableRecord
  2
PHANTOM1
 70
     0
  3
--- - - --- - - --- - - --- - - 
 72
    65
 73
     6
 40
10.0
 49
3.25
 74
     0
 49
-1.25
 74
     0
 49
1.25
 74
     0
 49
-1.25
 74
     0
 49
1.25
 74
     0
 49
-1.25
 74
     0
  0
LTYPE
  5
28
330
5
100
AcDbSymbolTableRecord
100
AcDbLinetypeTableRecord
  2
PHANTOM2
 70
     0
  3
--------  -  -  --------  -  -  
 72
    65
 73
     6
 40
20.0
 49
10.0
 74
     0
 49
-2.5
 74
     0
 49
1.25
 74
     0
 49
-2.5
 74
     0
 49
1.25
 74
     0
 49
-2.5
 74
     0
  0
LTYPE
  5
29
330
5
100
AcDbSymbolTableRecord
100
AcDbLinetypeTableRecord
  2
DOT
 70
     0
  3
-   -   -   -   -   -   -   -   
 72
    65
 73
     2
 40
2.5
 49
0.625
 74
     0
 49
-1.875
 74
     0
  0
LTYPE
  5
2A
330
5
100
AcDbSymbolTableRecord
100
AcDbLinetypeTableRecord
  2
DUMMY
 70
     0
  3
ダミー
 72
    65
 73
     0
 40
0.0
  0
LTYPE
  5
2B
330
5
100
AcDbSymbolTableRecord
100
AcDbLinetypeTableRecord
  2
RAND1
 70
     0
  3
ランダム線1
 72
    65
 73
     4
 40
10.0
 49
1.0
 74
     0
 49
-2.0
 74
     0
 49
3.0
 74
     0
 49
-4.0
 74
     0
  0
LTYPE
  5
2C
330
5
100
AcDbSymbolTableRecord
100
AcDbLinetypeTableRecord
  2
RAND2
 70
     0
  3
ランダム線2
 72
    65
 73
     4
 40
14.0
 49
2.0
 74
     0
 49
-3.0
 74
     0
 49
4.0
 74
     0
 49
-5.0
 74
     0
  0
LTYPE
  5
2D
330
5
100
AcDbSymbolTableRecord
100
AcDbLinetypeTableRecord
  2
RAND3
 70
     0
  3
ランダム線3
 72
    65
 73
     4
 40
18.0
 49
3.0
 74
     0
 49
-4.0
 74
     0
 49
5.0
 74
     0
 49
-6.0
 74
     0
  0
LTYPE
  5
2E
330
5
100
AcDbSymbolTableRecord
100
AcDbLinetypeTableRecord
  2
RAND4
 70
     0
  3
ランダム線4
 72
    65
 73
     4
 40
22.0
 49
4.0
 74
     0
 49
-5.0
 74
     0
 49
6.0
 74
     0
 49
-7.0
 74
     0
  0
LTYPE
  5
2F
330
5
100
AcDbSymbolTableRecord
100
AcDbLinetypeTableRecord
  2
RAND5
 70
     0
  3
ランダム線5
 72
    65
 73
     4
 40
26.0
 49
5.0
 74
     0
 49
-6.0
 74
     0
 49
7.0
 74
     0
 49
-8.0
 74
     0
  0
LTYPE
  5
30
330
5
100
AcDbSymbolTableRecord
100
AcDbLinetypeTableRecord
  2
LONG1
 70
     0
  3
----------  --  ----------  --  
 72
    65
 73
     4
 40
40.0
 49
32.5
 74
     0
 49
-2.5
 74
     0
 49
2.5
 74
     0
 49
-2.5
 74
     0
  0
LTYPE
  5
31
330
5
100
AcDbSymbolTableRecord
100
AcDbLinetypeTableRecord
  2
LONG2
 70
     0
  3
--------  -  -  --------  -  -  
 72
    65
 73
     6
 40
40.0
 49
30.0
 74
     0
 49
-2.5
 74
     0
 49
1.25
 74
     0
 49
-2.5
 74
     0
 49
1.25
 74
     0
 49
-2.5
 74
     0
  0
LTYPE
  5
32
330
5
100
AcDbSymbolTableRecord
100
AcDbLinetypeTableRecord
  2
LONG3
 70
     0
  3
+++++++++++++++..+++++++++++++++
 72
    65
 73
     2
 40
40.0
 49
37.5
 74
     0
 49
-2.5
 74
     0
  0
LTYPE
  5
33
330
5
100
AcDbSymbolTableRecord
100
AcDbLinetypeTableRecord
  2
LONG4
 70
     0
  3
+++++++++++++++..+++++++++++++++
 72
    65
 73
     2
 40
80.0
 49
75.0
 74
     0
 49
-5.0
 74
     0
  0
LTYPE
  5
34
330
5
100
AcDbSymbolTableRecord
100
AcDbLinetypeTableRecord
  2
LONG5
 70
     0
  3
----------  --  ----------  --  
 72
    65
 73
     4
 40
60.0
 49
37.5
 74
     0
 49
-7.5
 74
     0
 49
7.5
 74
     0
 49
-7.5
 74
     0
  0
LTYPE
  5
35
330
5
100
AcDbSymbolTableRecord
100
AcDbLinetypeTableRecord
  2
DASHED
 70
     0
  3
-------   -------------   ------
 72
    65
 73
     2
 40
7.5
 49
6.0
 74
     0
 49
-1.5
 74
     0
  0
LTYPE
  5
36
330
5
100
AcDbSymbolTableRecord
100
AcDbLinetypeTableRecord
  2
DASHED_SPACED
 70
     0
  3
----        --------        ----
 72
    65
 73
     2
 40
12.0
 49
6.0
 74
     0
 49
-6.0
 74
     0
  0
LTYPE
  5
37
330
5
100
AcDbSymbolTableRecord
100
AcDbLinetypeTableRecord
  2
LONG_DASHED_DOTTED
 70
     0
  3
------------- --- --------------
 72
    65
 73
     4
 40
15.25
 49
12.0
 74
     0
 49
-1.5
 74
     0
 49
0.25
 74
     0
 49
-1.5
 74
     0
  0
LTYPE
  5
38
330
5
100
AcDbSymbolTableRecord
100
AcDbLinetypeTableRecord
  2
LONG_DASHED_DOUBLE-DOTTED
 70
     0
  3
----------- --- --- ------------
 72
    65
 73
     6
 40
17.0
 49
12.0
 74
     0
 49
-1.5
 74
     0
 49
0.25
 74
     0
 49
-1.5
 74
     0
 49
0.25
 74
     0
 49
-1.5
 74
     0
  0
LTYPE
  5
39
330
5
100
AcDbSymbolTableRecord
100
AcDbLinetypeTableRecord
  2
LONG_DASHED_TRIPLICATE-DOTTED
 70
     0
  3
--------- --- --- --- ----------
 72
    65
 73
     8
 40
18.75
 49
12.0
 74
     0
 49
-1.5
 74
     0
 49
0.25
 74
     0
 49
-1.5
 74
     0
 49
0.25
 74
     0
 49
-1.5
 74
     0
 49
0.25
 74
     0
 49
-1.5
 74
     0
  0
LTYPE
  5
3A
330
5
100
AcDbSymbolTableRecord
100
AcDbLinetypeTableRecord
  2
DOTTED
 70
     0
  3
   -       -       -       -    
 72
    65
 73
     2
 40
1.75
 49
0.25
 74
     0
 49
-1.5
 74
     0
  0
LTYPE
  5
3B
330
5
100
AcDbSymbolTableRecord
100
AcDbLinetypeTableRecord
  2
CHAIN
 70
     0
  3
-------------- -- --------------
 72
    65
 73
     4
 40
18.5
 49
12.0
 74
     0
 49
-1.5
 74
     0
 49
3.5
 74
     0
 49
-1.5
 74
     0
  0
LTYPE
  5
3C
330
5
100
AcDbSymbolTableRecord
100
AcDbLinetypeTableRecord
  2
CHAIN_DOUBLE_DASH
 70
     0
  3
------------ -- -- -------------
 72
    65
 73
     6
 40
23.5
 49
12.0
 74
     0
 49
-1.5
 74
     0
 49
3.5
 74
     0
 49
-1.5
 74
     0
 49
3.5
 74
     0
 49
-1.5
 74
     0
  0
LTYPE
  5
3D
330
5
100
AcDbSymbolTableRecord
100
AcDbLinetypeTableRecord
  2
DASHED_DOTTED
 70
     0
  3
-----------     -     ----------
 72
    65
 73
     4
 40
9.25
 49
6.0
 74
     0
 49
-1.5
 74
     0
 49
0.25
 74
     0
 49
-1.5
 74
     0
  0
LTYPE
  5
3E
330
5
100
AcDbSymbolTableRecord
100
AcDbLinetypeTableRecord
  2
DOUBLE-DASHED_DOTTED
 70
     0
  3
------   -----------   -   -----
 72
    65
 73
     6
 40
16.75
 49
6.0
 74
     0
 49
-1.5
 74
     0
 49
6.0
 74
     0
 49
-1.5
 74
     0
 49
0.25
 74
     0
 49
-1.5
 74
     0
  0
LTYPE
  5
3F
330
5
100
AcDbSymbolTableRecord
100
AcDbLinetypeTableRecord
  2
DASHED_DOUBLE-DOTTED
 70
     0
  3
---------    -    -    ---------
 72
    65
 73
     6
 40
11.0
 49
6.0
 74
     0
 49
-1.5
 74
     0
 49
0.25
 74
     0
 49
-1.5
 74
     0
 49
0.25
 74
     0
 49
-1.5
 74
     0
  0
LTYPE
  5
40
330
5
100
AcDbSymbolTableRecord
100
AcDbLinetypeTableRecord
  2
DOUBLE-DASHED_DOUBLE-DOTTED
 70
     0
  3
-----   ---------   -   -   ----
 72
    65
 73
     8
 40
18.5
 49
6.0
 74
     0
 49
-1.5
 74
     0
 49
6.0
 74
     0
 49
-1.5
 74
     0
 49
0.25
 74
     0
 49
-1.5
 74
     0
 49
0.25
 74
     0
 49
-1.5
 74
     0
  0
LTYPE
  5
41
330
5
100
AcDbSymbolTableRecord
100
AcDbLinetypeTableRecord
  2
DASHED_TRIPLICATE-DOTTED
 70
     0
  3
-------    -    -    -    ------
 72
    65
 73
     8
 40
12.75
 49
6.0
 74
     0
 49
-1.5
 74
     0
 49
0.25
 74
     0
 49
-1.5
 74
     0
 49
0.25
 74
     0
 49
-1.5
 74
     0
 49
0.25
 74
     0
 49
-1.5
 74
     0
  0
LTYPE
  5
42
330
5
100
AcDbSymbolTableRecord
100
AcDbLinetypeTableRecord
  2
DOUBLE-DASHED_TRIPLICATE-DOTTED
 70
     0
  3
-----  ---------  -  -  -  -----
 72
    65
 73
    10
 40
20.25
 49
6.0
 74
     0
 49
-1.5
 74
     0
 49
6.0
 74
     0
 49
-1.5
 74
     0
 49
0.25
 74
     0
 49
-1.5
 74
     0
 49
0.25
 74
     0
 49
-1.5
 74
     0
 49
0.25
 74
     0
 49
-1.5
 74
     0
  0
LTYPE
  5
43
330
5
100
AcDbSymbolTableRecord
100
AcDbLinetypeTableRecord
  2
UNDEFINED
 70
     0
  3
--------------------------------
 72
    65
 73
     0
 40
0.0
  0
LTYPE
  5
44
330
5
100
AcDbSymbolTableRecord
100
AcDbLinetypeTableRecord
  2
PLINE2
 70
     0
  3
------     -----------     -----
 72
    65
 73
     2
 40
3.0
 49
2.1
 74
     0
 49
-0.9
 74
     0
  0
LTYPE
  5
45
330
5
100
AcDbSymbolTableRecord
100
AcDbLinetypeTableRecord
  2
PLINE3
 70
     0
  3
------------   ---   -----------
 72
    65
 73
     4
 40
10.0
 49
7.0
 74
     0
 49
-1.0
 74
     0
 49
1.0
 74
     0
 49
-1.0
 74
     0
  0
LTYPE
  5
46
330
5
100
AcDbSymbolTableRecord
100
AcDbLinetypeTableRecord
  2
PLINE4
 70
     0
  3
---------   ---   ---   --------
 72
    65
 73
     6
 40
10.0
 49
5.0
 74
     0
 49
-1.0
 74
     0
 49
1.0
 74
     0
 49
-1.0
 74
     0
 49
1.0
 74
     0
 49
-1.0
 74
     0
  0
LTYPE
  5
47
330
5
100
AcDbSymbolTableRecord
100
AcDbLinetypeTableRecord
  2
PLINE5
 70
     0
  3
------     -----------     -----
 72
    65
 73
     2
 40
5.0
 49
3.5
 74
     0
 49
-1.5
 74
     0
  0
LTYPE
  5
48
330
5
100
AcDbSymbolTableRecord
100
AcDbLinetypeTableRecord
  2
PLINE6
 70
     0
  3
------------   ---   -----------
 72
    65
 73
     4
 40
15.0
 49
10.5
 74
     0
 49
-1.5
 74
     0
 49
1.5
 74
     0
 49
-1.5
 74
     0
  0
LTYPE
  5
49
330
5
100
AcDbSymbolTableRecord
100
AcDbLinetypeTableRecord
  2
PLINE7
 70
     0
  3
---------   ---   ---   --------
 72
    65
 73
     6
 40
15.0
 49
7.5
 74
     0
 49
-1.5
 74
     0
 49
1.5
 74
     0
 49
-1.5
 74
     0
 49
1.5
 74
     0
 49
-1.5
 74
     0
  0
LTYPE
  5
4A
330
5
100
AcDbSymbolTableRecord
100
AcDbLinetypeTableRecord
  2
PLINE8
 70
     0
  3
------     -----------     -----
 72
    65
 73
     2
 40
7.0
 49
4.9
 74
     0
 49
-2.1
 74
     0
  0
LTYPE
  5
4B
330
5
100
AcDbSymbolTableRecord
100
AcDbLinetypeTableRecord
  2
PLINE9
 70
     0
  3
------------   ---   -----------
 72
    65
 73
     4
 40
20.0
 49
14.0
 74
     0
 49
-2.0
 74
     0
 49
2.0
 74
     0
 49
-2.0
 74
     0
  0
LTYPE
  5
4C
330
5
100
AcDbSymbolTableRecord
100
AcDbLinetypeTableRecord
  2
PLINE10
 70
     0
  3
---------   ---   ---   --------
 72
    65
 73
     6
 40
20.0
 49
10.0
 74
     0
 49
-2.0
 74
     0
 49
2.0
 74
     0
 49
-2.0
 74
     0
 49
2.0
 74
     0
 49
-2.0
 74
     0
  0
LTYPE
  5
4D
330
5
100
AcDbSymbolTableRecord
100
AcDbLinetypeTableRecord
  2
PLINE11
 70
     0
  3
------     -----------     -----
 72
    65
 73
     2
 40
9.0
 49
6.299999999999999
 74
     0
 49
-2.7
 74
     0
  0
LTYPE
  5
4E
330
5
100
AcDbSymbolTableRecord
100
AcDbLinetypeTableRecord
  2
PLINE12
 70
     0
  3
------------   ---   -----------
 72
    65
 73
     4
 40
25.0
 49
17.5
 74
     0
 49
-2.5
 74
     0
 49
2.5
 74
     0
 49
-2.5
 74
     0
  0
LTYPE
  5
4F
330
5
100
AcDbSymbolTableRecord
100
AcDbLinetypeTableRecord
  2
PLINE13
 70
     0
  3
---------   ---   ---   --------
 72
    65
 73
     6
 40
25.0
 49
12.5
 74
     0
 49
-2.5
 74
     0
 49
2.5
 74
     0
 49
-2.5
 74
     0
 49
2.5
 74
     0
 49
-2.5
 74
     0
  0
LTYPE
  5
50
330
5
100
AcDbSymbolTableRecord
100
AcDbLinetypeTableRecord
  2
PLINE14
 70
     0
  3
------     -----------     -----
 72
    65
 73
     2
 40
11.0
 49
7.7
 74
     0
 49
-3.299999999999999
 74
     0
  0
LTYPE
  5
51
330
5
100
AcDbSymbolTableRecord
100
AcDbLinetypeTableRecord
  2
PLINE15
 70
     0
  3
------------   ---   -----------
 72
    65
 73
     4
 40
30.0
 49
21.0
 74
     0
 49
-3.0
 74
     0
 49
3.0
 74
     0
 49
-3.0
 74
     0
  0
LTYPE
  5
52
330
5
100
AcDbSymbolTableRecord
100
AcDbLinetypeTableRecord
  2
PLINE16
 70
     0
  3
---------   ---   ---   --------
 72
    65
 73
     6
 40
30.0
 49
15.0
 74
     0
 49
-3.0
 74
     0
 49
3.0
 74
     0
 49
-3.0
 74
     0
 49
3.0
 74
     0
 49
-3.0
 74
     0
  0
ENDTAB
  0
TABLE
  2
LAYER
  5
2
102
{ACAD_XDICTIONARY
360
175
102
}
330
0
100
AcDbSymbolTable
 70
    19
  0
LAYER
  5
10
330
2
100
AcDbSymbolTableRecord
100
AcDbLayerTableRecord
  2
0
 70
     0
 62
     7
  6
CONTINUOUS
370
    -3
390
F
  0
LAYER
  5
128
330
2
100
AcDbSymbolTableRecord
100
AcDbLayerTableRecord
  2
Defpoints
 70
     0
 62
     7
  6
CONTINUOUS
290
     0
370
    -3
390
F
  0
LAYER
  5
178
330
2
100
AcDbSymbolTableRecord
100
AcDbLayerTableRecord
  2
寸法
 70
     0
 62
     7
  6
CONTINUOUS
370
    -3
390
F
  0
LAYER
  5
179
330
2
100
AcDbSymbolTableRecord
100
AcDbLayerTableRecord
  2
躯体と製品
 70
     0
 62
     7
  6
CONTINUOUS
370
    -3
390
F
  0
LAYER
  5
4F62
330
2
100
AcDbSymbolTableRecord
100
AcDbLayerTableRecord
  2
図枠
 70
     0
 62
     7
  6
CONTINUOUS
370
    -3
390
F
  0
ENDTAB
  0
TABLE
  2
STYLE
  5
3
330
0
100
AcDbSymbolTable
 70
     5
  0
STYLE
  5
11
330
3
100
AcDbSymbolTableRecord
100
AcDbTextStyleTableRecord
  2
STANDARD
 70
     0
 40
0.0
 41
1.0
 50
0.0
 71
     0
 42
0.2
  3
txt
  4
bigfont.shx
  0
STYLE
  5
53
330
3
100
AcDbSymbolTableRecord
100
AcDbTextStyleTableRecord
  2
TATEGAKI
 70
     4
 40
0.0
 41
1.0
 50
0.0
 71
     0
 42
1.0
  3
txt
  4
bigfont.shx
  0
STYLE
  5
123
330
3
100
AcDbSymbolTableRecord
100
AcDbTextStyleTableRecord
  2
ACAD
 70
     0
 40
5.0
 41
0.8
 50
0.0
 71
     0
 42
5.0
  3
romans.shx
  4
extfont.shx
  0
STYLE
  5
3A5F
330
3
100
AcDbSymbolTableRecord
100
AcDbTextStyleTableRecord
  2
VERTXT
 70
     4
 40
0.0
 41
0.8582679999999999
 50
0.0
 71
     0
 42
3.5
  3
txt.shx
  4
BIGFONT
  0
STYLE
  5
50AD
330
3
100
AcDbSymbolTableRecord
100
AcDbTextStyleTableRecord
  2
STANDARD2
 70
     0
 40
0.0
 41
0.8582679999999999
 50
0.0
 71
     0
 42
3.5
  3
txt.shx
  4
EXTFONT
  0
ENDTAB
  0
TABLE
  2
VIEW
  5
6
330
0
100
AcDbSymbolTable
 70
     0
  0
ENDTAB
  0
TABLE
  2
UCS
  5
7
330
0
100
AcDbSymbolTable
 70
     0
  0
ENDTAB
  0
TABLE
  2
APPID
  5
9
330
0
100
AcDbSymbolTable
 70
     1
  0
APPID
  5
12
330
9
100
AcDbSymbolTableRecord
100
AcDbRegAppTableRecord
  2
ACAD
 70
     0
  0
ENDTAB
  0
TABLE
  2
DIMSTYLE
  5
A
330
0
100
AcDbSymbolTable
 70
     3
100
AcDbDimStyleTable
 71
     0
  0
DIMSTYLE
105
11C
330
A
100
AcDbSymbolTableRecord
100
AcDbDimStyleTableRecord
  2
Standard
 70
     0
340
11
  0
DIMSTYLE
105
126
102
{ACAD_REACTORS
330
7216
330
7222
330
722E
330
723A
330
7247
330
7252
330
725F
330
726C
330
7279
330
7286
330
7293
330
72A0
330
72AD
330
72BA
330
72C6
102
}
330
A
100
AcDbSymbolTableRecord
100
AcDbDimStyleTableRecord
  2
AutoCAD
 70
     0
 41
1.0
 42
0.0
 44
0.0
 73
     0
 77
     1
140
5.0
147
1.0
174
     1
176
     4
177
     4
178
     3
271
     0
272
     0
289
     0
340
123
341
15B0
342
11E
  0
DIMSTYLE
105
2CBB
330
A
100
AcDbSymbolTableRecord
100
AcDbDimStyleTableRecord
  2
111
 70
     0
 41
1.0
 42
0.0
 44
0.0
 73
     0
 77
     1
140
5.0
147
1.0
174
     1
176
     4
177
     4
178
     3
271
     0
272
     0
289
     0
340
123
341
15B0
342
2CB5
  0
ENDTAB
  0
TABLE
  2
BLOCK_RECORD
  5
1
330
0
100
AcDbSymbolTable
 70
    19
  0
BLOCK_RECORD
  5
1E
102
{ACAD_XDICTIONARY
360
28B
102
}
330
1
100
AcDbSymbolTableRecord
100
AcDbBlockTableRecord
  2
*Model_Space
340
21
  0
BLOCK_RECORD
  5
1A
102
{ACAD_XDICTIONARY
360
28D
102
}
330
1
100
AcDbSymbolTableRecord
100
AcDbBlockTableRecord
  2
*Paper_Space
340
1D
  0
BLOCK_RECORD
  5
11E
330
1
100
AcDbSymbolTableRecord
100
AcDbBlockTableRecord
  2
_Dot
340
0
102
{BLKREFS
331
721A
331
721B
331
7226
331
7227
331
72E6
331
72E7
331
72EF
331
72F0
331
724A
331
724B
331
72F8
331
72F9
331
7264
331
7265
331
7301
331
7302
331
730A
331
730B
331
728B
331
728C
331
7298
331
7299
331
72A5
331
72A6
331
7313
331
7314
331
72DE
331
72DF
331
72D6
331
72D7
102
}
  0
BLOCK_RECORD
  5
15B0
330
1
100
AcDbSymbolTableRecord
100
AcDbBlockTableRecord
  2
_None
340
0
  0
BLOCK_RECORD
  5
2CB5
330
1
100
AcDbSymbolTableRecord
100
AcDbBlockTableRecord
  2
_Open30
340
0
  0
BLOCK_RECORD
  5
35E3
330
1
100
AcDbSymbolTableRecord
100
AcDbBlockTableRecord
  2
_DotBlank
340
0
  0
BLOCK_RECORD
  5
7217
330
1
100
AcDbSymbolTableRecord
100
AcDbBlockTableRecord
  2
*D4
340
0
  0
BLOCK_RECORD
  5
7223
330
1
100
AcDbSymbolTableRecord
100
AcDbBlockTableRecord
  2
*D5
340
0
  0
BLOCK_RECORD
  5
722F
330
1
100
AcDbSymbolTableRecord
100
AcDbBlockTableRecord
  2
*D6
340
0
  0
BLOCK_RECORD
  5
723B
330
1
100
AcDbSymbolTableRecord
100
AcDbBlockTableRecord
  2
*D7
340
0
  0
BLOCK_RECORD
  5
7248
330
1
100
AcDbSymbolTableRecord
100
AcDbBlockTableRecord
  2
*D8
340
0
  0
BLOCK_RECORD
  5
7253
330
1
100
AcDbSymbolTableRecord
100
AcDbBlockTableRecord
  2
*D9
340
0
  0
BLOCK_RECORD
  5
7260
330
1
100
AcDbSymbolTableRecord
100
AcDbBlockTableRecord
  2
*D10
340
0
  0
BLOCK_RECORD
  5
726D
330
1
100
AcDbSymbolTableRecord
100
AcDbBlockTableRecord
  2
*D11
340
0
  0
BLOCK_RECORD
  5
727A
330
1
100
AcDbSymbolTableRecord
100
AcDbBlockTableRecord
  2
*D12
340
0
  0
BLOCK_RECORD
  5
7287
330
1
100
AcDbSymbolTableRecord
100
AcDbBlockTableRecord
  2
*D13
340
0
  0
BLOCK_RECORD
  5
7294
330
1
100
AcDbSymbolTableRecord
100
AcDbBlockTableRecord
  2
*D14
340
0
  0
BLOCK_RECORD
  5
72A1
330
1
100
AcDbSymbolTableRecord
100
AcDbBlockTableRecord
  2
*D15
340
0
  0
BLOCK_RECORD
  5
72AE
330
1
100
AcDbSymbolTableRecord
100
AcDbBlockTableRecord
  2
*D16
340
0
  0
BLOCK_RECORD
  5
72BB
330
1
100
AcDbSymbolTableRecord
100
AcDbBlockTableRecord
  2
*D17
340
0
  0
BLOCK_RECORD
  5
72C7
330
1
100
AcDbSymbolTableRecord
100
AcDbBlockTableRecord
  2
*D18
340
0
  0
ENDTAB
  0
ENDSEC
  0
SECTION
  2
BLOCKS
  0
BLOCK
  5
1F
330
1E
100
AcDbEntity
  8
0
100
AcDbBlockBegin
  2
*Model_Space
 70
     0
 10
0.0
 20
0.0
 30
0.0
  3
*Model_Space
  1

  0
ENDBLK
  5
20
330
1E
100
AcDbEntity
  8
0
100
AcDbBlockEnd
  0
BLOCK
  5
1B
330
1A
100
AcDbEntity
 67
     1
  8
0
100
AcDbBlockBegin
  2
*Paper_Space
 70
     0
 10
0.0
 20
0.0
 30
0.0
  3
*Paper_Space
  1

  0
ENDBLK
  5
1C
330
1A
100
AcDbEntity
 67
     1
  8
0
100
AcDbBlockEnd
  0
BLOCK
  5
121
330
11E
100
AcDbEntity
  8
0
100
AcDbBlockBegin
  2
_Dot
 70
     0
 10
0.0
 20
0.0
 30
0.0
  3
_Dot
  1

  0
LWPOLYLINE
  5
11F
330
11E
100
AcDbEntity
  8
0
  6
ByBlock
 62
     0
100
AcDbPolyline
 90
        2
 70
     1
 43
0.5
 10
-0.25
 20
0.0
 42
1.0
 10
0.25
 20
0.0
 42
1.0
  0
LINE
  5
120
330
11E
100
AcDbEntity
  8
0
  6
ByBlock
 62
     0
370
    -2
100
AcDbLine
 10
-0.5
 20
0.0
 30
0.0
 11
-1.0
 21
0.0
 31
0.0
  0
ENDBLK
  5
122
330
11E
100
AcDbEntity
  8
0
100
AcDbBlockEnd
  0
BLOCK
  5
15B1
330
15B0
100
AcDbEntity
  8
0
100
AcDbBlockBegin
  2
_None
 70
     0
 10
0.0
 20
0.0
 30
0.0
  3
_None
  1

  0
ENDBLK
  5
15B2
330
15B0
100
AcDbEntity
  8
0
100
AcDbBlockEnd
  0
BLOCK
  5
2CB9
330
2CB5
100
AcDbEntity
  8
0
100
AcDbBlockBegin
  2
_Open30
 70
     0
 10
0.0
 20
0.0
 30
0.0
  3
_Open30
  1

  0
LINE
  5
2CB6
330
2CB5
100
AcDbEntity
  8
0
  6
ByBlock
 62
     0
370
    -2
100
AcDbLine
 10
-1.0
 20
0.26794919
 30
0.0
 11
0.0
 21
0.0
 31
0.0
  0
LINE
  5
2CB7
330
2CB5
100
AcDbEntity
  8
0
  6
ByBlock
 62
     0
370
    -2
100
AcDbLine
 10
0.0
 20
0.0
 30
0.0
 11
-1.0
 21
-0.26794919
 31
0.0
  0
LINE
  5
2CB8
330
2CB5
100
AcDbEntity
  8
0
  6
ByBlock
 62
     0
370
    -2
100
AcDbLine
 10
0.0
 20
0.0
 30
0.0
 11
-1.0
 21
0.0
 31
0.0
  0
ENDBLK
  5
2CBA
330
2CB5
100
AcDbEntity
  8
0
100
AcDbBlockEnd
  0
BLOCK
  5
35E6
330
35E3
100
AcDbEntity
  8
0
100
AcDbBlockBegin
  2
_DotBlank
 70
     0
 10
0.0
 20
0.0
 30
0.0
  3
_DotBlank
  1

  0
CIRCLE
  5
35E4
330
35E3
100
AcDbEntity
  8
0
  6
ByBlock
 62
     0
370
    -2
100
AcDbCircle
 10
0.0
 20
0.0
 30
0.0
 40
0.5
  0
LINE
  5
35E5
330
35E3
100
AcDbEntity
  8
0
  6
ByBlock
 62
     0
370
    -2
100
AcDbLine
 10
-0.5
 20
0.0
 30
0.0
 11
-1.0
 21
0.0
 31
0.0
  0
ENDBLK
  5
35E7
330
35E3
100
AcDbEntity
  8
0
100
AcDbBlockEnd
  0
BLOCK
  5
7220
330
7217
100
AcDbEntity
  8
0
100
AcDbBlockBegin
  2
*D4
 70
     1
 10
0.0
 20
0.0
 30
0.0
  3
*D4
  1

  0
LINE
  5
7218
330
7217
100
AcDbEntity
  8
寸法
  6
Continuous
 62
     4
370
    -2
100
AcDbLine
 10
1557.350552676392
 20
807.3811876215572
 30
0.0
 11
1557.350552676392
 21
704.3811876215572
 31
0.0
  0
LINE
  5
7219
330
7217
100
AcDbEntity
  8
寸法
  6
Continuous
 62
     4
370
    -2
100
AcDbLine
 10
1558.350552676392
 20
704.3811876215572
 30
0.0
 11
1581.350552676393
 21
704.3811876215572
 31
0.0
  0
INSERT
  5
721A
330
7217
100
AcDbEntity
  8
寸法
  6
Continuous
 62
     4
370
    -2
100
AcDbBlockReference
  2
_Dot
 10
1557.350552676392
 20
704.3811876215572
 30
0.0
 50
180.0
  0
INSERT
  5
721B
330
7217
100
AcDbEntity
  8
寸法
  6
Continuous
 62
     4
370
    -2
100
AcDbBlockReference
  2
_Dot
 10
1582.350552676393
 20
704.3811876215572
 30
0.0
  0
MTEXT
  5
721C
330
7217
100
AcDbEntity
  8
寸法
  6
Continuous
 62
     3
100
AcDbMText
 10
1569.850552676392
 20
707.8811876215572
 30
0.0
 40
5.0
 41
0.0
 71
     5
 72
     5
  1
\A1;25
  7
ACAD
 73
     1
 44
1.0
1001
ACAD
1000
MTEXTBEGIN
1070
    73
1070
     1
1070
    44
1040
1.0
1070
    74
1070
     0
1000
MTEXTEND
  0
POINT
  5
721D
330
7217
100
AcDbEntity
  8
Defpoints
  6
Continuous
 62
     0
100
AcDbPoint
 10
1557.350552676392
 20
807.3811876215572
 30
0.0
  0
POINT
  5
721E
330
7217
100
AcDbEntity
  8
Defpoints
  6
Continuous
 62
     0
100
AcDbPoint
 10
1582.350552676393
 20
704.3811876215572
 30
0.0
  0
POINT
  5
721F
330
7217
100
AcDbEntity
  8
Defpoints
  6
Continuous
 62
     0
100
AcDbPoint
 10
1582.350552676393
 20
704.3811876215572
 30
0.0
  0
ENDBLK
  5
7221
330
7217
100
AcDbEntity
  8
0
100
AcDbBlockEnd
  0
BLOCK
  5
722C
330
7223
100
AcDbEntity
  8
0
100
AcDbBlockBegin
  2
*D5
 70
     1
 10
0.0
 20
0.0
 30
0.0
  3
*D5
  1

  0
LINE
  5
7224
330
7223
100
AcDbEntity
  8
寸法
  6
Continuous
 62
     4
370
    -2
100
AcDbLine
 10
1582.350552676392
 20
704.1311876215573
 30
0.0
 11
1582.350552676392
 21
704.3811876215572
 31
0.0
  0
LINE
  5
7225
330
7223
100
AcDbEntity
  8
寸法
  6
Continuous
 62
     4
370
    -2
100
AcDbLine
 10
1583.350552676392
 20
704.3811876215572
 30
0.0
 11
1631.350552676393
 21
704.3811876215572
 31
0.0
  0
INSERT
  5
7226
330
7223
100
AcDbEntity
  8
寸法
  6
Continuous
 62
     4
370
    -2
100
AcDbBlockReference
  2
_Dot
 10
1582.350552676392
 20
704.3811876215572
 30
0.0
 50
180.0
  0
INSERT
  5
7227
330
7223
100
AcDbEntity
  8
寸法
  6
Continuous
 62
     4
370
    -2
100
AcDbBlockReference
  2
_Dot
 10
1632.350552676393
 20
704.3811876215572
 30
0.0
  0
MTEXT
  5
7228
330
7223
100
AcDbEntity
  8
寸法
  6
Continuous
 62
     3
100
AcDbMText
 10
1607.350552676393
 20
707.8811876215572
 30
0.0
 40
5.0
 41
0.0
 71
     5
 72
     5
  1
\A1;50
  7
ACAD
 73
     1
 44
1.0
1001
ACAD
1000
MTEXTBEGIN
1070
    73
1070
     1
1070
    44
1040
1.0
1070
    74
1070
     0
1000
MTEXTEND
  0
POINT
  5
7229
330
7223
100
AcDbEntity
  8
Defpoints
  6
Continuous
 62
     0
100
AcDbPoint
 10
1582.350552676392
 20
704.1311876215573
 30
0.0
  0
POINT
  5
722A
330
7223
100
AcDbEntity
  8
Defpoints
  6
Continuous
 62
     0
100
AcDbPoint
 10
1632.350552676393
 20
704.3811876215572
 30
0.0
  0
POINT
  5
722B
330
7223
100
AcDbEntity
  8
Defpoints
  6
Continuous
 62
     0
100
AcDbPoint
 10
1632.350552676393
 20
704.3811876215572
 30
0.0
  0
ENDBLK
  5
722D
330
7223
100
AcDbEntity
  8
0
100
AcDbBlockEnd
  0
BLOCK
  5
7238
330
722F
100
AcDbEntity
  8
0
100
AcDbBlockBegin
  2
*D6
 70
     1
 10
0.0
 20
0.0
 30
0.0
  3
*D6
  1

  0
LINE
  5
72E4
330
722F
100
AcDbEntity
  8
寸法
  6
Continuous
 62
     4
370
    -2
100
AcDbLine
 10
1632.350552676392
 20
704.1311876215573
 30
0.0
 11
1632.350552676392
 21
704.3811876215572
 31
0.0
  0
LINE
  5
72E5
330
722F
100
AcDbEntity
  8
寸法
  6
Continuous
 62
     4
370
    -2
100
AcDbLine
 10
1633.350552676392
 20
704.3811876215572
 30
0.0
 11
1731.350552676392
 21
704.3811876215572
 31
0.0
  0
INSERT
  5
72E6
330
722F
100
AcDbEntity
  8
寸法
  6
Continuous
 62
     4
370
    -2
100
AcDbBlockReference
  2
_Dot
 10
1632.350552676392
 20
704.3811876215572
 30
0.0
 50
180.0
  0
INSERT
  5
72E7
330
722F
100
AcDbEntity
  8
寸法
  6
Continuous
 62
     4
370
    -2
100
AcDbBlockReference
  2
_Dot
 10
1732.350552676392
 20
704.3811876215572
 30
0.0
  0
MTEXT
  5
72E8
330
722F
100
AcDbEntity
  8
寸法
  6
Continuous
 62
     3
100
AcDbMText
 10
1682.350552676392
 20
707.8811876215572
 30
0.0
 40
5.0
 41
0.0
 71
     5
 72
     5
  1
\A1;≦Ｃ
  7
ACAD
 73
     1
 44
1.0
1001
ACAD
1000
MTEXTBEGIN
1070
    73
1070
     1
1070
    44
1040
1.0
1070
    74
1070
     0
1000
MTEXTEND
  0
POINT
  5
72E9
330
722F
100
AcDbEntity
  8
Defpoints
  6
Continuous
 62
     0
100
AcDbPoint
 10
1632.350552676392
 20
704.1311876215573
 30
0.0
  0
POINT
  5
72EA
330
722F
100
AcDbEntity
  8
Defpoints
  6
Continuous
 62
     0
100
AcDbPoint
 10
1732.350552676392
 20
704.3811876215572
 30
0.0
  0
POINT
  5
72EB
330
722F
100
AcDbEntity
  8
Defpoints
  6
Continuous
 62
     0
100
AcDbPoint
 10
1732.350552676392
 20
704.3811876215572
 30
0.0
  0
ENDBLK
  5
7239
330
722F
100
AcDbEntity
  8
0
100
AcDbBlockEnd
  0
BLOCK
  5
7245
330
723B
100
AcDbEntity
  8
0
100
AcDbBlockBegin
  2
*D7
 70
     1
 10
0.0
 20
0.0
 30
0.0
  3
*D7
  1

  0
LINE
  5
72EC
330
723B
100
AcDbEntity
  8
寸法
  6
Continuous
 62
     4
370
    -2
100
AcDbLine
 10
1732.350552676392
 20
704.1311876215573
 30
0.0
 11
1732.350552676392
 21
704.4245996659737
 31
0.0
  0
LINE
  5
72ED
330
723B
100
AcDbEntity
  8
寸法
  6
Continuous
 62
     4
370
    -2
100
AcDbLine
 10
1783.350552676392
 20
766.2613417649506
 30
0.0
 11
1783.350552676392
 21
704.4245996659737
 31
0.0
  0
LINE
  5
72EE
330
723B
100
AcDbEntity
  8
寸法
  6
Continuous
 62
     4
370
    -2
100
AcDbLine
 10
1733.350552676392
 20
704.4245996659737
 30
0.0
 11
1782.350552676392
 21
704.4245996659737
 31
0.0
  0
INSERT
  5
72EF
330
723B
100
AcDbEntity
  8
寸法
  6
Continuous
 62
     4
370
    -2
100
AcDbBlockReference
  2
_Dot
 10
1732.350552676392
 20
704.4245996659737
 30
0.0
 50
180.0
  0
INSERT
  5
72F0
330
723B
100
AcDbEntity
  8
寸法
  6
Continuous
 62
     4
370
    -2
100
AcDbBlockReference
  2
_Dot
 10
1783.350552676392
 20
704.4245996659737
 30
0.0
  0
MTEXT
  5
72F1
330
723B
100
AcDbEntity
  8
寸法
  6
Continuous
 62
     3
100
AcDbMText
 10
1757.850552676393
 20
707.9245996659738
 30
0.0
 40
5.0
 41
0.0
 71
     5
 72
     5
  1
\A1;50≦
  7
ACAD
 73
     1
 44
1.0
1001
ACAD
1000
MTEXTBEGIN
1070
    73
1070
     1
1070
    44
1040
1.0
1070
    74
1070
     0
1000
MTEXTEND
  0
POINT
  5
72F2
330
723B
100
AcDbEntity
  8
Defpoints
  6
Continuous
 62
     0
100
AcDbPoint
 10
1732.350552676392
 20
704.1311876215573
 30
0.0
  0
POINT
  5
72F3
330
723B
100
AcDbEntity
  8
Defpoints
  6
Continuous
 62
     0
100
AcDbPoint
 10
1783.350552676392
 20
766.2613417649506
 30
0.0
  0
POINT
  5
72F4
330
723B
100
AcDbEntity
  8
Defpoints
  6
Continuous
 62
     0
100
AcDbPoint
 10
1783.350552676392
 20
704.4245996659737
 30
0.0
  0
ENDBLK
  5
7246
330
723B
100
AcDbEntity
  8
0
100
AcDbBlockEnd
  0
BLOCK
  5
7250
330
7248
100
AcDbEntity
  8
0
100
AcDbBlockBegin
  2
*D8
 70
     1
 10
0.0
 20
0.0
 30
0.0
  3
*D8
  1

  0
LINE
  5
7249
330
7248
100
AcDbEntity
  8
寸法
  6
Continuous
 62
     4
370
    -2
100
AcDbLine
 10
1683.350552676392
 20
749.3811876215572
 30
0.0
 11
1731.350552676392
 21
749.3811876215572
 31
0.0
  0
INSERT
  5
724A
330
7248
100
AcDbEntity
  8
寸法
  6
Continuous
 62
     4
370
    -2
100
AcDbBlockReference
  2
_Dot
 10
1682.350552676392
 20
749.3811876215572
 30
0.0
 50
180.0
  0
INSERT
  5
724B
330
7248
100
AcDbEntity
  8
寸法
  6
Continuous
 62
     4
370
    -2
100
AcDbBlockReference
  2
_Dot
 10
1732.350552676392
 20
749.3811876215572
 30
0.0
  0
MTEXT
  5
724C
330
7248
100
AcDbEntity
  8
寸法
  6
Continuous
 62
     3
100
AcDbMText
 10
1707.350552676392
 20
752.8811876215573
 30
0.0
 40
5.0
 41
0.0
 71
     5
 72
     5
  1
\A1;50
  7
ACAD
 73
     1
 44
1.0
1001
ACAD
1000
MTEXTBEGIN
1070
    73
1070
     1
1070
    44
1040
1.0
1070
    74
1070
     0
1000
MTEXTEND
  0
POINT
  5
724D
330
7248
100
AcDbEntity
  8
Defpoints
  6
Continuous
 62
     0
100
AcDbPoint
 10
1682.350552676392
 20
749.3811876215572
 30
0.0
  0
POINT
  5
724E
330
7248
100
AcDbEntity
  8
Defpoints
  6
Continuous
 62
     0
100
AcDbPoint
 10
1732.350552676392
 20
749.3811876215572
 30
0.0
  0
POINT
  5
724F
330
7248
100
AcDbEntity
  8
Defpoints
  6
Continuous
 62
     0
100
AcDbPoint
 10
1732.350552676392
 20
749.3811876215572
 30
0.0
  0
ENDBLK
  5
7251
330
7248
100
AcDbEntity
  8
0
100
AcDbBlockEnd
  0
BLOCK
  5
725D
330
7253
100
AcDbEntity
  8
0
100
AcDbBlockBegin
  2
*D9
 70
     1
 10
0.0
 20
0.0
 30
0.0
  3
*D9
  1

  0
LINE
  5
72F5
330
7253
100
AcDbEntity
  8
寸法
  6
Continuous
 62
     4
370
    -2
100
AcDbLine
 10
1785.350552676392
 20
768.2613417649506
 30
0.0
 11
1823.350552676392
 21
768.2613417649506
 31
0.0
  0
LINE
  5
72F6
330
7253
100
AcDbEntity
  8
寸法
  6
Continuous
 62
     4
370
    -2
100
AcDbLine
 10
1736.350552676394
 20
809.3811876215573
 30
0.0
 11
1823.350552676392
 21
809.3811876215571
 31
0.0
  0
LINE
  5
72F7
330
7253
100
AcDbEntity
  8
寸法
  6
Continuous
 62
     4
370
    -2
100
AcDbLine
 10
1823.350552676392
 20
769.2613417649505
 30
0.0
 11
1823.350552676392
 21
808.3811876215571
 31
0.0
  0
INSERT
  5
72F8
330
7253
100
AcDbEntity
  8
寸法
  6
Continuous
 62
     4
370
    -2
100
AcDbBlockReference
  2
_Dot
 10
1823.350552676392
 20
768.2613417649506
 30
0.0
 50
270.0
  0
INSERT
  5
72F9
330
7253
100
AcDbEntity
  8
寸法
  6
Continuous
 62
     4
370
    -2
100
AcDbBlockReference
  2
_Dot
 10
1823.350552676392
 20
809.3811876215571
 30
0.0
 50
90.0
  0
MTEXT
  5
72FA
330
7253
100
AcDbEntity
  8
寸法
  6
Continuous
 62
     3
100
AcDbMText
 10
1819.850552676392
 20
788.8212646932542
 30
0.0
 40
5.0
 41
0.0
 71
     5
 72
     5
  1
\A1;44
  7
ACAD
 11
0.0000000000000001
 21
1.0
 31
0.0
 73
     1
 44
1.0
1001
ACAD
1000
MTEXTBEGIN
1070
    73
1070
     1
1070
    44
1040
1.0
1070
    74
1070
     0
1000
MTEXTEND
  0
POINT
  5
72FB
330
7253
100
AcDbEntity
  8
Defpoints
  6
Continuous
 62
     0
100
AcDbPoint
 10
1785.350552676392
 20
768.2613417649506
 30
0.0
  0
POINT
  5
72FC
330
7253
100
AcDbEntity
  8
Defpoints
  6
Continuous
 62
     0
100
AcDbPoint
 10
1736.350552676394
 20
809.3811876215573
 30
0.0
  0
POINT
  5
72FD
330
7253
100
AcDbEntity
  8
Defpoints
  6
Continuous
 62
     0
100
AcDbPoint
 10
1823.350552676392
 20
809.3811876215571
 30
0.0
  0
ENDBLK
  5
725E
330
7253
100
AcDbEntity
  8
0
100
AcDbBlockEnd
  0
BLOCK
  5
726A
330
7260
100
AcDbEntity
  8
0
100
AcDbBlockBegin
  2
*D10
 70
     1
 10
0.0
 20
0.0
 30
0.0
  3
*D10
  1

  0
LINE
  5
7261
330
7260
100
AcDbEntity
  8
寸法
  6
Continuous
 62
     4
370
    -2
100
AcDbLine
 10
1785.350552676392
 20
768.2613417649506
 30
0.0
 11
1843.350552676392
 21
768.2613417649506
 31
0.0
  0
LINE
  5
7262
330
7260
100
AcDbEntity
  8
寸法
  6
Continuous
 62
     4
370
    -2
100
AcDbLine
 10
1785.350552676392
 20
858.2613417649506
 30
0.0
 11
1843.350552676392
 21
858.2613417649506
 31
0.0
  0
LINE
  5
7263
330
7260
100
AcDbEntity
  8
寸法
  6
Continuous
 62
     4
370
    -2
100
AcDbLine
 10
1843.350552676392
 20
769.2613417649505
 30
0.0
 11
1843.350552676392
 21
857.2613417649504
 31
0.0
  0
INSERT
  5
7264
330
7260
100
AcDbEntity
  8
寸法
  6
Continuous
 62
     4
370
    -2
100
AcDbBlockReference
  2
_Dot
 10
1843.350552676392
 20
768.2613417649506
 30
0.0
 50
270.0
  0
INSERT
  5
7265
330
7260
100
AcDbEntity
  8
寸法
  6
Continuous
 62
     4
370
    -2
100
AcDbBlockReference
  2
_Dot
 10
1843.350552676392
 20
858.2613417649506
 30
0.0
 50
90.0
  0
MTEXT
  5
7266
330
7260
100
AcDbEntity
  8
寸法
  6
Continuous
 62
     3
100
AcDbMText
 10
1839.850552676392
 20
813.2613417649508
 30
0.0
 40
5.0
 41
0.0
 71
     5
 72
     5
  1
\A1;90
  7
ACAD
 11
0.0000000000000001
 21
1.0
 31
0.0
 73
     1
 44
1.0
1001
ACAD
1000
MTEXTBEGIN
1070
    73
1070
     1
1070
    44
1040
1.0
1070
    74
1070
     0
1000
MTEXTEND
  0
POINT
  5
7267
330
7260
100
AcDbEntity
  8
Defpoints
  6
Continuous
 62
     0
100
AcDbPoint
 10
1785.350552676392
 20
768.2613417649506
 30
0.0
  0
POINT
  5
7268
330
7260
100
AcDbEntity
  8
Defpoints
  6
Continuous
 62
     0
100
AcDbPoint
 10
1785.350552676392
 20
858.2613417649506
 30
0.0
  0
POINT
  5
7269
330
7260
100
AcDbEntity
  8
Defpoints
  6
Continuous
 62
     0
100
AcDbPoint
 10
1843.350552676392
 20
858.2613417649506
 30
0.0
  0
ENDBLK
  5
726B
330
7260
100
AcDbEntity
  8
0
100
AcDbBlockEnd
  0
BLOCK
  5
7277
330
726D
100
AcDbEntity
  8
0
100
AcDbBlockBegin
  2
*D11
 70
     1
 10
0.0
 20
0.0
 30
0.0
  3
*D11
  1

  0
LINE
  5
72FE
330
726D
100
AcDbEntity
  8
寸法
  6
Continuous
 62
     4
370
    -2
100
AcDbLine
 10
1783.350552676392
 20
860.2613417649505
 30
0.0
 11
1783.350552676392
 21
902.3528374948668
 31
0.0
  0
LINE
  5
72FF
330
726D
100
AcDbEntity
  8
寸法
  6
Continuous
 62
     4
370
    -2
100
AcDbLine
 10
1573.350552676392
 20
883.2669754143894
 30
0.0
 11
1573.350552676392
 21
902.3528374948668
 31
0.0
  0
LINE
  5
7300
330
726D
100
AcDbEntity
  8
寸法
  6
Continuous
 62
     4
370
    -2
100
AcDbLine
 10
1782.350552676392
 20
902.3528374948668
 30
0.0
 11
1574.350552676392
 21
902.3528374948668
 31
0.0
  0
INSERT
  5
7301
330
726D
100
AcDbEntity
  8
寸法
  6
Continuous
 62
     4
370
    -2
100
AcDbBlockReference
  2
_Dot
 10
1783.350552676392
 20
902.3528374948668
 30
0.0
  0
INSERT
  5
7302
330
726D
100
AcDbEntity
  8
寸法
  6
Continuous
 62
     4
370
    -2
100
AcDbBlockReference
  2
_Dot
 10
1573.350552676392
 20
902.3528374948668
 30
0.0
 50
180.0
  0
MTEXT
  5
7303
330
726D
100
AcDbEntity
  8
寸法
  6
Continuous
 62
     3
100
AcDbMText
 10
1678.350552676392
 20
905.8528374948668
 30
0.0
 40
5.0
 41
0.0
 71
     5
 72
     5
  1
\A1;A
  7
ACAD
 73
     1
 44
1.0
1001
ACAD
1000
MTEXTBEGIN
1070
    73
1070
     1
1070
    44
1040
1.0
1070
    74
1070
     0
1000
MTEXTEND
  0
POINT
  5
7304
330
726D
100
AcDbEntity
  8
Defpoints
  6
Continuous
 62
     0
100
AcDbPoint
 10
1783.350552676392
 20
860.2613417649505
 30
0.0
  0
POINT
  5
7305
330
726D
100
AcDbEntity
  8
Defpoints
  6
Continuous
 62
     0
100
AcDbPoint
 10
1573.350552676392
 20
883.2669754143894
 30
0.0
  0
POINT
  5
7306
330
726D
100
AcDbEntity
  8
Defpoints
  6
Continuous
 62
     0
100
AcDbPoint
 10
1573.350552676392
 20
902.3528374948668
 30
0.0
  0
ENDBLK
  5
7278
330
726D
100
AcDbEntity
  8
0
100
AcDbBlockEnd
  0
BLOCK
  5
7284
330
727A
100
AcDbEntity
  8
0
100
AcDbBlockBegin
  2
*D12
 70
     1
 10
0.0
 20
0.0
 30
0.0
  3
*D12
  1

  0
LINE
  5
7307
330
727A
100
AcDbEntity
  8
寸法
  6
Continuous
 62
     4
370
    -2
100
AcDbLine
 10
1783.350552676392
 20
860.2613417649505
 30
0.0
 11
1783.350552676392
 21
984.3528374948668
 31
0.0
  0
LINE
  5
7308
330
727A
100
AcDbEntity
  8
寸法
  6
Continuous
 62
     4
370
    -2
100
AcDbLine
 10
1558.350552676392
 20
911.3528374948666
 30
0.0
 11
1558.350552676392
 21
984.3528374948668
 31
0.0
  0
LINE
  5
7309
330
727A
100
AcDbEntity
  8
寸法
  6
Continuous
 62
     4
370
    -2
100
AcDbLine
 10
1782.350552676392
 20
984.3528374948668
 30
0.0
 11
1559.350552676392
 21
984.3528374948668
 31
0.0
  0
INSERT
  5
730A
330
727A
100
AcDbEntity
  8
寸法
  6
Continuous
 62
     4
370
    -2
100
AcDbBlockReference
  2
_Dot
 10
1783.350552676392
 20
984.3528374948668
 30
0.0
  0
INSERT
  5
730B
330
727A
100
AcDbEntity
  8
寸法
  6
Continuous
 62
     4
370
    -2
100
AcDbBlockReference
  2
_Dot
 10
1558.350552676392
 20
984.3528374948668
 30
0.0
 50
180.0
  0
MTEXT
  5
730C
330
727A
100
AcDbEntity
  8
寸法
  6
Continuous
 62
     3
100
AcDbMText
 10
1670.850552676392
 20
987.8528374948668
 30
0.0
 40
5.0
 41
0.0
 71
     5
 72
     5
  1
\A1;W
  7
ACAD
 73
     1
 44
1.0
1001
ACAD
1000
MTEXTBEGIN
1070
    73
1070
     1
1070
    44
1040
1.0
1070
    74
1070
     0
1000
MTEXTEND
  0
POINT
  5
730D
330
727A
100
AcDbEntity
  8
Defpoints
  6
Continuous
 62
     0
100
AcDbPoint
 10
1783.350552676392
 20
860.2613417649505
 30
0.0
  0
POINT
  5
730E
330
727A
100
AcDbEntity
  8
Defpoints
  6
Continuous
 62
     0
100
AcDbPoint
 10
1558.350552676392
 20
911.3528374948666
 30
0.0
  0
POINT
  5
730F
330
727A
100
AcDbEntity
  8
Defpoints
  6
Continuous
 62
     0
100
AcDbPoint
 10
1558.350552676392
 20
984.3528374948668
 30
0.0
  0
ENDBLK
  5
7285
330
727A
100
AcDbEntity
  8
0
100
AcDbBlockEnd
  0
BLOCK
  5
7291
330
7287
100
AcDbEntity
  8
0
100
AcDbBlockBegin
  2
*D13
 70
     1
 10
0.0
 20
0.0
 30
0.0
  3
*D13
  1

  0
LINE
  5
7288
330
7287
100
AcDbEntity
  8
寸法
  6
Continuous
 62
     4
370
    -2
100
AcDbLine
 10
1593.550552676392
 20
873.3528374948669
 30
0.0
 11
1626.550552676392
 21
873.3528374948669
 31
0.0
  0
LINE
  5
7289
330
7287
100
AcDbEntity
  8
寸法
  6
Continuous
 62
     4
370
    -2
100
AcDbLine
 10
1593.550552676392
 20
909.3528374948666
 30
0.0
 11
1626.550552676392
 21
909.3528374948666
 31
0.0
  0
LINE
  5
728A
330
7287
100
AcDbEntity
  8
寸法
  6
Continuous
 62
     4
370
    -2
100
AcDbLine
 10
1626.550552676392
 20
874.3528374948668
 30
0.0
 11
1626.550552676392
 21
908.3528374948667
 31
0.0
  0
INSERT
  5
728B
330
7287
100
AcDbEntity
  8
寸法
  6
Continuous
 62
     4
370
    -2
100
AcDbBlockReference
  2
_Dot
 10
1626.550552676392
 20
873.3528374948669
 30
0.0
 50
270.0
  0
INSERT
  5
728C
330
7287
100
AcDbEntity
  8
寸法
  6
Continuous
 62
     4
370
    -2
100
AcDbBlockReference
  2
_Dot
 10
1626.550552676392
 20
909.3528374948666
 30
0.0
 50
90.0
  0
MTEXT
  5
728D
330
7287
100
AcDbEntity
  8
寸法
  6
Continuous
 62
     3
100
AcDbMText
 10
1623.050552676392
 20
891.352837494867
 30
0.0
 40
5.0
 41
0.0
 71
     5
 72
     5
  1
\A1;36
  7
ACAD
 11
0.0000000000000001
 21
1.0
 31
0.0
 73
     1
 44
1.0
1001
ACAD
1000
MTEXTBEGIN
1070
    73
1070
     1
1070
    44
1040
1.0
1070
    74
1070
     0
1000
MTEXTEND
  0
POINT
  5
728E
330
7287
100
AcDbEntity
  8
Defpoints
  6
Continuous
 62
     0
100
AcDbPoint
 10
1593.550552676392
 20
873.3528374948669
 30
0.0
  0
POINT
  5
728F
330
7287
100
AcDbEntity
  8
Defpoints
  6
Continuous
 62
     0
100
AcDbPoint
 10
1593.550552676392
 20
909.3528374948666
 30
0.0
  0
POINT
  5
7290
330
7287
100
AcDbEntity
  8
Defpoints
  6
Continuous
 62
     0
100
AcDbPoint
 10
1626.550552676392
 20
909.3528374948666
 30
0.0
  0
ENDBLK
  5
7292
330
7287
100
AcDbEntity
  8
0
100
AcDbBlockEnd
  0
BLOCK
  5
729E
330
7294
100
AcDbEntity
  8
0
100
AcDbBlockBegin
  2
*D14
 70
     1
 10
0.0
 20
0.0
 30
0.0
  3
*D14
  1

  0
LINE
  5
7295
330
7294
100
AcDbEntity
  8
寸法
  6
Continuous
 62
     4
370
    -2
100
AcDbLine
 10
1593.550552676392
 20
909.3528374948666
 30
0.0
 11
1626.550552676392
 21
909.3528374948666
 31
0.0
  0
LINE
  5
7296
330
7294
100
AcDbEntity
  8
寸法
  6
Continuous
 62
     4
370
    -2
100
AcDbLine
 10
1584.350552676392
 20
924.3528374948667
 30
0.0
 11
1626.550552676392
 21
924.3528374948667
 31
0.0
  0
LINE
  5
7297
330
7294
100
AcDbEntity
  8
寸法
  6
Continuous
 62
     4
370
    -2
100
AcDbLine
 10
1626.550552676392
 20
910.3528374948666
 30
0.0
 11
1626.550552676392
 21
923.3528374948667
 31
0.0
  0
INSERT
  5
7298
330
7294
100
AcDbEntity
  8
寸法
  6
Continuous
 62
     4
370
    -2
100
AcDbBlockReference
  2
_Dot
 10
1626.550552676392
 20
909.3528374948666
 30
0.0
 50
270.0
  0
INSERT
  5
7299
330
7294
100
AcDbEntity
  8
寸法
  6
Continuous
 62
     4
370
    -2
100
AcDbBlockReference
  2
_Dot
 10
1626.550552676392
 20
924.3528374948667
 30
0.0
 50
90.0
  0
MTEXT
  5
729A
330
7294
100
AcDbEntity
  8
寸法
  6
Continuous
 62
     3
100
AcDbMText
 10
1623.050552676392
 20
916.8528374948669
 30
0.0
 40
5.0
 41
0.0
 71
     5
 72
     5
  1
\A1;15
  7
ACAD
 11
0.0000000000000001
 21
1.0
 31
0.0
 73
     1
 44
1.0
1001
ACAD
1000
MTEXTBEGIN
1070
    73
1070
     1
1070
    44
1040
1.0
1070
    74
1070
     0
1000
MTEXTEND
  0
POINT
  5
729B
330
7294
100
AcDbEntity
  8
Defpoints
  6
Continuous
 62
     0
100
AcDbPoint
 10
1593.550552676392
 20
909.3528374948666
 30
0.0
  0
POINT
  5
729C
330
7294
100
AcDbEntity
  8
Defpoints
  6
Continuous
 62
     0
100
AcDbPoint
 10
1584.350552676392
 20
924.3528374948667
 30
0.0
  0
POINT
  5
729D
330
7294
100
AcDbEntity
  8
Defpoints
  6
Continuous
 62
     0
100
AcDbPoint
 10
1626.550552676392
 20
924.3528374948667
 30
0.0
  0
ENDBLK
  5
729F
330
7294
100
AcDbEntity
  8
0
100
AcDbBlockEnd
  0
BLOCK
  5
72AB
330
72A1
100
AcDbEntity
  8
0
100
AcDbBlockBegin
  2
*D15
 70
     1
 10
0.0
 20
0.0
 30
0.0
  3
*D15
  1

  0
LINE
  5
72A2
330
72A1
100
AcDbEntity
  8
寸法
  6
Continuous
 62
     4
370
    -2
100
AcDbLine
 10
1591.550552676392
 20
912.3244873681766
 30
0.0
 11
1591.550552676392
 21
954.3528374948669
 31
0.0
  0
LINE
  5
72A3
330
72A1
100
AcDbEntity
  8
寸法
  6
Continuous
 62
     4
370
    -2
100
AcDbLine
 10
1571.550552676392
 20
926.3528374948668
 30
0.0
 11
1571.550552676392
 21
954.3528374948669
 31
0.0
  0
LINE
  5
72A4
330
72A1
100
AcDbEntity
  8
寸法
  6
Continuous
 62
     4
370
    -2
100
AcDbLine
 10
1590.550552676392
 20
954.3528374948669
 30
0.0
 11
1572.550552676392
 21
954.3528374948669
 31
0.0
  0
INSERT
  5
72A5
330
72A1
100
AcDbEntity
  8
寸法
  6
Continuous
 62
     4
370
    -2
100
AcDbBlockReference
  2
_Dot
 10
1591.550552676392
 20
954.3528374948669
 30
0.0
  0
INSERT
  5
72A6
330
72A1
100
AcDbEntity
  8
寸法
  6
Continuous
 62
     4
370
    -2
100
AcDbBlockReference
  2
_Dot
 10
1571.550552676392
 20
954.3528374948669
 30
0.0
 50
180.0
  0
MTEXT
  5
72A7
330
72A1
100
AcDbEntity
  8
寸法
  6
Continuous
 62
     3
100
AcDbMText
 10
1581.550552676392
 20
957.8528374948669
 30
0.0
 40
5.0
 41
0.0
 71
     5
 72
     5
  1
\A1;20
  7
ACAD
 73
     1
 44
1.0
1001
ACAD
1000
MTEXTBEGIN
1070
    73
1070
     1
1070
    44
1040
1.0
1070
    74
1070
     0
1000
MTEXTEND
  0
POINT
  5
72A8
330
72A1
100
AcDbEntity
  8
Defpoints
  6
Continuous
 62
     0
100
AcDbPoint
 10
1591.550552676392
 20
912.3244873681766
 30
0.0
  0
POINT
  5
72A9
330
72A1
100
AcDbEntity
  8
Defpoints
  6
Continuous
 62
     0
100
AcDbPoint
 10
1571.550552676392
 20
926.3528374948668
 30
0.0
  0
POINT
  5
72AA
330
72A1
100
AcDbEntity
  8
Defpoints
  6
Continuous
 62
     0
100
AcDbPoint
 10
1571.550552676392
 20
954.3528374948669
 30
0.0
  0
ENDBLK
  5
72AC
330
72A1
100
AcDbEntity
  8
0
100
AcDbBlockEnd
  0
BLOCK
  5
72B8
330
72AE
100
AcDbEntity
  8
0
100
AcDbBlockBegin
  2
*D16
 70
     1
 10
0.0
 20
0.0
 30
0.0
  3
*D16
  1

  0
LINE
  5
7310
330
72AE
100
AcDbEntity
  8
寸法
  6
Continuous
 62
     4
370
    -2
100
AcDbLine
 10
1591.550552676392
 20
912.3244873681766
 30
0.0
 11
1591.550552676392
 21
969.3528374948668
 31
0.0
  0
LINE
  5
7311
330
72AE
100
AcDbEntity
  8
寸法
  6
Continuous
 62
     4
370
    -2
100
AcDbLine
 10
1558.350552676392
 20
911.3528374948666
 30
0.0
 11
1558.350552676392
 21
969.3528374948668
 31
0.0
  0
LINE
  5
7312
330
72AE
100
AcDbEntity
  8
寸法
  6
Continuous
 62
     4
370
    -2
100
AcDbLine
 10
1590.550552676392
 20
969.3528374948668
 30
0.0
 11
1559.350552676392
 21
969.3528374948668
 31
0.0
  0
INSERT
  5
7313
330
72AE
100
AcDbEntity
  8
寸法
  6
Continuous
 62
     4
370
    -2
100
AcDbBlockReference
  2
_Dot
 10
1591.550552676392
 20
969.3528374948668
 30
0.0
  0
INSERT
  5
7314
330
72AE
100
AcDbEntity
  8
寸法
  6
Continuous
 62
     4
370
    -2
100
AcDbBlockReference
  2
_Dot
 10
1558.350552676392
 20
969.3528374948668
 30
0.0
 50
180.0
  0
MTEXT
  5
7315
330
72AE
100
AcDbEntity
  8
寸法
  6
Continuous
 62
     3
100
AcDbMText
 10
1574.950552676392
 20
972.8528374948668
 30
0.0
 40
5.0
 41
0.0
 71
     5
 72
     5
  1
\A1;33.2
  7
ACAD
 73
     1
 44
1.0
1001
ACAD
1000
MTEXTBEGIN
1070
    73
1070
     1
1070
    44
1040
1.0
1070
    74
1070
     0
1000
MTEXTEND
  0
POINT
  5
7316
330
72AE
100
AcDbEntity
  8
Defpoints
  6
Continuous
 62
     0
100
AcDbPoint
 10
1591.550552676392
 20
912.3244873681766
 30
0.0
  0
POINT
  5
7317
330
72AE
100
AcDbEntity
  8
Defpoints
  6
Continuous
 62
     0
100
AcDbPoint
 10
1558.350552676392
 20
911.3528374948666
 30
0.0
  0
POINT
  5
7318
330
72AE
100
AcDbEntity
  8
Defpoints
  6
Continuous
 62
     0
100
AcDbPoint
 10
1558.350552676392
 20
969.3528374948668
 30
0.0
  0
ENDBLK
  5
72B9
330
72AE
100
AcDbEntity
  8
0
100
AcDbBlockEnd
  0
BLOCK
  5
72C4
330
72BB
100
AcDbEntity
  8
0
100
AcDbBlockBegin
  2
*D17
 70
     1
 10
0.0
 20
0.0
 30
0.0
  3
*D17
  1

  0
LINE
  5
72DC
330
72BB
100
AcDbEntity
  8
寸法
  6
Continuous
 62
     4
370
    -2
100
AcDbLine
 10
1555.350552676392
 20
809.3811876215573
 30
0.0
 11
1502.350552676392
 21
809.3811876215573
 31
0.0
  0
LINE
  5
72DD
330
72BB
100
AcDbEntity
  8
寸法
  6
Continuous
 62
     4
370
    -2
100
AcDbLine
 10
1502.350552676392
 20
810.3811876215573
 30
0.0
 11
1502.350552676392
 21
864.6528374948669
 31
0.0
  0
INSERT
  5
72DE
330
72BB
100
AcDbEntity
  8
寸法
  6
Continuous
 62
     4
370
    -2
100
AcDbBlockReference
  2
_Dot
 10
1502.350552676392
 20
809.3811876215573
 30
0.0
 50
270.0
  0
INSERT
  5
72DF
330
72BB
100
AcDbEntity
  8
寸法
  6
Continuous
 62
     4
370
    -2
100
AcDbBlockReference
  2
_Dot
 10
1502.350552676392
 20
865.6528374948669
 30
0.0
 50
90.0
  0
MTEXT
  5
72E0
330
72BB
100
AcDbEntity
  8
寸法
  6
Continuous
 62
     3
100
AcDbMText
 10
1498.850552676392
 20
837.5170125582123
 30
0.0
 40
5.0
 41
0.0
 71
     5
 72
     5
  1
\A1;D
  7
ACAD
 11
0.0000000000000001
 21
1.0
 31
0.0
 73
     1
 44
1.0
1001
ACAD
1000
MTEXTBEGIN
1070
    73
1070
     1
1070
    44
1040
1.0
1070
    74
1070
     0
1000
MTEXTEND
  0
POINT
  5
72E1
330
72BB
100
AcDbEntity
  8
Defpoints
  6
Continuous
 62
     0
100
AcDbPoint
 10
1555.350552676392
 20
809.3811876215573
 30
0.0
  0
POINT
  5
72E2
330
72BB
100
AcDbEntity
  8
Defpoints
  6
Continuous
 62
     0
100
AcDbPoint
 10
1502.350552676392
 20
865.6528374948669
 30
0.0
  0
POINT
  5
72E3
330
72BB
100
AcDbEntity
  8
Defpoints
  6
Continuous
 62
     0
100
AcDbPoint
 10
1502.350552676392
 20
865.6528374948669
 30
0.0
  0
ENDBLK
  5
72C5
330
72BB
100
AcDbEntity
  8
0
100
AcDbBlockEnd
  0
BLOCK
  5
72D1
330
72C7
100
AcDbEntity
  8
0
100
AcDbBlockBegin
  2
*D18
 70
     1
 10
0.0
 20
0.0
 30
0.0
  3
*D18
  1

  0
LINE
  5
72D3
330
72C7
100
AcDbEntity
  8
寸法
  6
Continuous
 62
     4
370
    -2
100
AcDbLine
 10
1555.350552676392
 20
809.3811876215573
 30
0.0
 11
1482.350552676392
 21
809.3811876215573
 31
0.0
  0
LINE
  5
72D4
330
72C7
100
AcDbEntity
  8
寸法
  6
Continuous
 62
     4
370
    -2
100
AcDbLine
 10
1555.350552676392
 20
924.3528374948667
 30
0.0
 11
1482.350552676392
 21
924.3528374948667
 31
0.0
  0
LINE
  5
72D5
330
72C7
100
AcDbEntity
  8
寸法
  6
Continuous
 62
     4
370
    -2
100
AcDbLine
 10
1482.350552676392
 20
810.3811876215573
 30
0.0
 11
1482.350552676392
 21
923.3528374948667
 31
0.0
  0
INSERT
  5
72D6
330
72C7
100
AcDbEntity
  8
寸法
  6
Continuous
 62
     4
370
    -2
100
AcDbBlockReference
  2
_Dot
 10
1482.350552676392
 20
809.3811876215573
 30
0.0
 50
270.0
  0
INSERT
  5
72D7
330
72C7
100
AcDbEntity
  8
寸法
  6
Continuous
 62
     4
370
    -2
100
AcDbBlockReference
  2
_Dot
 10
1482.350552676392
 20
924.3528374948667
 30
0.0
 50
90.0
  0
MTEXT
  5
72D8
330
72C7
100
AcDbEntity
  8
寸法
  6
Continuous
 62
     3
100
AcDbMText
 10
1478.850552676392
 20
866.8670125582123
 30
0.0
 40
5.0
 41
0.0
 71
     5
 72
     5
  1
\A1;E
  7
ACAD
 11
0.0000000000000001
 21
1.0
 31
0.0
 73
     1
 44
1.0
1001
ACAD
1000
MTEXTBEGIN
1070
    73
1070
     1
1070
    44
1040
1.0
1070
    74
1070
     0
1000
MTEXTEND
  0
POINT
  5
72D9
330
72C7
100
AcDbEntity
  8
Defpoints
  6
Continuous
 62
     0
100
AcDbPoint
 10
1555.350552676392
 20
809.3811876215573
 30
0.0
  0
POINT
  5
72DA
330
72C7
100
AcDbEntity
  8
Defpoints
  6
Continuous
 62
     0
100
AcDbPoint
 10
1555.350552676392
 20
924.3528374948667
 30
0.0
  0
POINT
  5
72DB
330
72C7
100
AcDbEntity
  8
Defpoints
  6
Continuous
 62
     0
100
AcDbPoint
 10
1482.350552676392
 20
924.3528374948667
 30
0.0
  0
ENDBLK
  5
72D2
330
72C7
100
AcDbEntity
  8
0
100
AcDbBlockEnd
  0
ENDSEC
  0
SECTION
  2
ENTITIES
  0
TEXT
  5
6CE0
330
1E
100
AcDbEntity
  8
図枠
 62
     6
100
AcDbText
 10
1271.676852835626
 20
969.0123609043206
 30
0.0
 40
10.0
  1
　　Ｓ＝１／２
100
AcDbText
  0
TEXT
  5
6CE1
330
1E
100
AcDbEntity
  8
図枠
 62
     6
100
AcDbText
 10
1272.692553318718
 20
986.2792691168809
 30
0.0
 40
10.0
  1
　　屋根－壁（切欠き壁）
100
AcDbText
  0
TEXT
  5
6CE2
330
1E
100
AcDbEntity
  8
図枠
 62
     6
100
AcDbText
 10
1278.397061385527
 20
1003.850819778309
 30
0.0
 40
10.0
  1
◇ステンレス５０タイプ（５０ＦＹＫ－Ｓ）
100
AcDbText
  0
LINE
  5
6CE3
330
1E
100
AcDbEntity
  8
躯体と製品
  6
Continuous
 62
     7
100
AcDbLine
 10
1684.894298393287
 20
820.5202939444482
 30
0.0
 11
1684.739805170192
 21
820.3811876215572
 31
0.0
  0
LINE
  5
6CE4
330
1E
100
AcDbEntity
  8
躯体と製品
  6
Continuous
 62
     4
100
AcDbLine
 10
1684.590310947674
 20
825.5823808467225
 30
0.0
 11
1684.31772796112
 21
820.3811876215572
 31
0.0
  0
LINE
  5
6CE5
330
1E
100
AcDbEntity
  8
躯体と製品
  6
Continuous
 62
     4
100
AcDbLine
 10
1679.733975520162
 20
825.836890601932
 30
0.0
 11
1679.448054242532
 21
820.3811876215572
 31
0.0
  0
LINE
  5
6CE6
330
1E
100
AcDbEntity
  8
躯体と製品
  6
Continuous
 62
     7
100
AcDbLine
 10
1679.310514120458
 20
820.3811876215572
 30
0.0
 11
1678.90252118476
 21
820.834309681906
 31
0.0
  0
CIRCLE
  5
6CE7
330
1E
100
AcDbEntity
  8
図枠
  6
Continuous
 62
     4
100
AcDbCircle
 10
1794.696389791672
 20
907.1097966341948
 30
0.0
 40
6.0
  0
TEXT
  5
6CE8
330
1E
100
AcDbEntity
  8
図枠
 62
     7
100
AcDbText
 10
1791.696389791672
 20
904.1097966341949
 30
0.0
 40
5.0
  1
１
100
AcDbText
  0
LINE
  5
6CE9
330
1E
100
AcDbEntity
  8
図枠
  6
Continuous
 62
     4
100
AcDbLine
 10
1766.559908648271
 20
858.3759817476188
 30
0.0
 11
1791.696389791672
 21
901.9136442114881
 31
0.0
  0
CIRCLE
  5
6CEA
330
1E
100
AcDbEntity
  8
図枠
  6
Continuous
 62
     4
100
AcDbCircle
 10
1766.559908648271
 20
858.3759817476188
 30
0.0
 40
0.9
  0
LINE
  5
6CEB
330
1E
100
AcDbEntity
  8
図枠
  6
Continuous
 62
     4
100
AcDbLine
 10
1584.871695555661
 20
908.7806030096851
 30
0.0
 11
1603.108517060491
 21
940.3677044246155
 31
0.0
  0
TEXT
  5
6CEC
330
1E
100
AcDbEntity
  8
図枠
 62
     7
100
AcDbText
 10
1603.108517060491
 20
942.5638568473223
 30
0.0
 40
5.0
  1
２
100
AcDbText
  0
CIRCLE
  5
6CED
330
1E
100
AcDbEntity
  8
図枠
  6
Continuous
 62
     4
100
AcDbCircle
 10
1606.108517060491
 20
945.5638568473222
 30
0.0
 40
6.0
  0
CIRCLE
  5
6CEE
330
1E
100
AcDbEntity
  8
図枠
  6
Continuous
 62
     4
100
AcDbCircle
 10
1584.871695555661
 20
908.7806030096851
 30
0.0
 40
0.9
  0
CIRCLE
  5
6CEF
330
1E
100
AcDbEntity
  8
図枠
  6
Continuous
 62
     4
100
AcDbCircle
 10
1793.48748348898
 20
841.0747052690345
 30
0.0
 40
6.0
  0
TEXT
  5
6CF0
330
1E
100
AcDbEntity
  8
図枠
 62
     7
100
AcDbText
 10
1790.48748348898
 20
838.0747052690345
 30
0.0
 40
5.0
  1
５
100
AcDbText
  0
LINE
  5
6CF1
330
1E
100
AcDbEntity
  8
図枠
  6
Continuous
 62
     4
100
AcDbLine
 10
1765.519469672624
 20
792.632684352317
 30
0.0
 11
1790.487483488981
 21
835.8785528463281
 31
0.0
  0
CIRCLE
  5
6CF2
330
1E
100
AcDbEntity
  8
図枠
  6
Continuous
 62
     4
100
AcDbCircle
 10
1765.519469672624
 20
792.632684352317
 30
0.0
 40
0.9
  0
LINE
  5
6CF3
330
1E
100
AcDbEntity
  8
図枠
  6
Continuous
 62
     4
100
AcDbLine
 10
1747.880822991795
 20
770.461479255981
 30
0.0
 11
1758.338270528425
 21
752.3486488050509
 31
0.0
  0
CIRCLE
  5
6CF4
330
1E
100
AcDbEntity
  8
図枠
  6
Continuous
 62
     4
100
AcDbCircle
 10
1747.880822991795
 20
770.461479255981
 30
0.0
 40
0.9
  0
LINE
  5
6CF5
330
1E
100
AcDbEntity
  8
図枠
  6
Continuous
 62
     4
100
AcDbLine
 10
1767.104135386639
 20
840.2141420274045
 30
0.0
 11
1790.740616530041
 21
881.1537282799205
 31
0.0
  0
TEXT
  5
6CF6
330
1E
100
AcDbEntity
  8
図枠
 62
     7
100
AcDbText
 10
1790.740616530041
 20
883.3498807026273
 30
0.0
 40
5.0
  1
９
100
AcDbText
  0
CIRCLE
  5
6CF7
330
1E
100
AcDbEntity
  8
図枠
  6
Continuous
 62
     4
100
AcDbCircle
 10
1793.740616530041
 20
886.3498807026273
 30
0.0
 40
6.0
  0
CIRCLE
  5
6CF8
330
1E
100
AcDbEntity
  8
図枠
  6
Continuous
 62
     4
100
AcDbCircle
 10
1767.104135386639
 20
840.2141420274045
 30
0.0
 40
0.9
  0
TEXT
  5
6CF9
330
1E
100
AcDbEntity
  8
図枠
 62
     7
100
AcDbText
 10
1758.088270528425
 20
744.1524963823442
 30
0.0
 40
5.0
  1
11
100
AcDbText
  0
CIRCLE
  5
6CFA
330
1E
100
AcDbEntity
  8
図枠
  6
Continuous
 62
     4
100
AcDbCircle
 10
1761.338270528425
 20
747.1524963823442
 30
0.0
 40
6.0
  0
LINE
  5
6CFB
330
1E
100
AcDbEntity
  8
図枠
  6
Continuous
 62
     4
100
AcDbLine
 10
1675.228800923371
 20
814.6173445541347
 30
0.0
 11
1665.531547291491
 21
797.8212085698378
 31
0.0
  0
TEXT
  5
6CFC
330
1E
100
AcDbEntity
  8
図枠
 62
     7
100
AcDbText
 10
1659.281547291491
 20
789.6250561471313
 30
0.0
 40
5.0
  1
20
100
AcDbText
  0
CIRCLE
  5
6CFD
330
1E
100
AcDbEntity
  8
図枠
  6
Continuous
 62
     4
100
AcDbCircle
 10
1662.531547291491
 20
792.6250561471313
 30
0.0
 40
6.0
  0
CIRCLE
  5
6CFE
330
1E
100
AcDbEntity
  8
図枠
  6
Continuous
 62
     4
100
AcDbCircle
 10
1675.228800923371
 20
814.6173445541347
 30
0.0
 40
0.9
  0
LINE
  5
6CFF
330
1E
100
AcDbEntity
  8
図枠
  6
Continuous
 62
     4
100
AcDbLine
 10
1680.22454170039
 20
784.2985262234106
 30
0.0
 11
1670.182927505643
 21
766.9059402481045
 31
0.0
  0
TEXT
  5
6D00
330
1E
100
AcDbEntity
  8
図枠
 62
     7
100
AcDbText
 10
1663.932927505643
 20
758.709787825398
 30
0.0
 40
5.0
  1
17
100
AcDbText
  0
CIRCLE
  5
6D01
330
1E
100
AcDbEntity
  8
図枠
  6
Continuous
 62
     4
100
AcDbCircle
 10
1667.182927505643
 20
761.709787825398
 30
0.0
 40
6.0
  0
LINE
  5
6D02
330
1E
100
AcDbEntity
  8
図枠
  6
Continuous
 62
     4
100
AcDbLine
 10
1686.687963505087
 20
817.4817597688154
 30
0.0
 11
1703.110349169944
 21
789.037353415793
 31
0.0
  0
TEXT
  5
6D03
330
1E
100
AcDbEntity
  8
図枠
 62
     7
100
AcDbText
 10
1702.860349169944
 20
780.8412009930865
 30
0.0
 40
5.0
  1
16
100
AcDbText
  0
CIRCLE
  5
6D04
330
1E
100
AcDbEntity
  8
図枠
  6
Continuous
 62
     4
100
AcDbCircle
 10
1706.110349169944
 20
783.8412009930865
 30
0.0
 40
6.0
  0
LINE
  5
6D05
330
1E
100
AcDbEntity
  8
図枠
  6
Continuous
 62
     4
100
AcDbLine
 10
1692.528035404536
 20
824.8698025331776
 30
0.0
 11
1704.309721536304
 21
804.4633235541251
 31
0.0
  0
TEXT
  5
6D06
330
1E
100
AcDbEntity
  8
図枠
 62
     7
100
AcDbText
 10
1704.309721536304
 20
796.2671711314185
 30
0.0
 40
5.0
  1
８
100
AcDbText
  0
CIRCLE
  5
6D07
330
1E
100
AcDbEntity
  8
図枠
  6
Continuous
 62
     4
100
AcDbCircle
 10
1707.309721536304
 20
799.2671711314185
 30
0.0
 40
6.0
  0
LINE
  5
6D08
330
1E
100
AcDbEntity
  8
図枠
  6
Continuous
 62
     4
100
AcDbLine
 10
1684.404997713825
 20
844.8443573088249
 30
0.0
 11
1702.230530252857
 21
875.7190853384004
 31
0.0
  0
TEXT
  5
6D09
330
1E
100
AcDbEntity
  8
図枠
 62
     7
100
AcDbText
 10
1701.980530252857
 20
877.9152377611069
 30
0.0
 40
5.0
  1
14
100
AcDbText
  0
CIRCLE
  5
6D0A
330
1E
100
AcDbEntity
  8
図枠
  6
Continuous
 62
     4
100
AcDbCircle
 10
1705.230530252857
 20
880.9152377611072
 30
0.0
 40
6.0
  0
LINE
  5
6D0B
330
1E
100
AcDbEntity
  8
図枠
  6
Continuous
 62
     4
100
AcDbLine
 10
1699.954381704781
 20
847.5666099522563
 30
0.0
 11
1718.241471477157
 21
879.2407785605846
 31
0.0
  0
TEXT
  5
6D0C
330
1E
100
AcDbEntity
  8
図枠
 62
     7
100
AcDbText
 10
1718.241471477157
 20
881.4369309832912
 30
0.0
 40
5.0
  1
７
100
AcDbText
  0
CIRCLE
  5
6D0D
330
1E
100
AcDbEntity
  8
図枠
  6
Continuous
 62
     4
100
AcDbCircle
 10
1721.241471477157
 20
884.4369309832913
 30
0.0
 40
6.0
  0
LINE
  5
6D0E
330
1E
100
AcDbEntity
  8
図枠
  6
Continuous
 62
     4
100
AcDbLine
 10
1699.872244260571
 20
823.1325246075128
 30
0.0
 11
1724.685298516021
 21
866.1099952689154
 31
0.0
  0
TEXT
  5
6D0F
330
1E
100
AcDbEntity
  8
図枠
 62
     7
100
AcDbText
 10
1724.685298516021
 20
868.3061476916218
 30
0.0
 40
5.0
  1
３
100
AcDbText
  0
CIRCLE
  5
6D10
330
1E
100
AcDbEntity
  8
図枠
  6
Continuous
 62
     4
100
AcDbCircle
 10
1727.685298516021
 20
871.3061476916218
 30
0.0
 40
6.0
  0
CIRCLE
  5
6D11
330
1E
100
AcDbEntity
  8
図枠
  6
Continuous
 62
     4
100
AcDbCircle
 10
1699.872244260571
 20
823.1325246075128
 30
0.0
 40
0.9
  0
LINE
  5
6D12
330
1E
100
AcDbEntity
  8
図枠
  6
Continuous
 62
     4
100
AcDbLine
 10
1732.323893415152
 20
842.9793817216618
 30
0.0
 11
1746.249208526762
 21
867.098735006377
 31
0.0
  0
TEXT
  5
6D13
330
1E
100
AcDbEntity
  8
図枠
 62
     7
100
AcDbText
 10
1746.249208526762
 20
869.2948874290836
 30
0.0
 40
5.0
  1
６
100
AcDbText
  0
CIRCLE
  5
6D14
330
1E
100
AcDbEntity
  8
図枠
  6
Continuous
 62
     4
100
AcDbCircle
 10
1749.249208526762
 20
872.2948874290834
 30
0.0
 40
6.0
  0
CIRCLE
  5
6D15
330
1E
100
AcDbEntity
  8
図枠
  6
Continuous
 62
     4
100
AcDbCircle
 10
1692.528035404536
 20
824.8698025331776
 30
0.0
 40
0.9
  0
CIRCLE
  5
6D16
330
1E
100
AcDbEntity
  8
図枠
  6
Continuous
 62
     4
100
AcDbCircle
 10
1686.687963505087
 20
817.4817597688154
 30
0.0
 40
0.9
  0
CIRCLE
  5
6D17
330
1E
100
AcDbEntity
  8
図枠
  6
Continuous
 62
     4
100
AcDbCircle
 10
1699.954381704781
 20
847.5666099522563
 30
0.0
 40
0.9
  0
CIRCLE
  5
6D18
330
1E
100
AcDbEntity
  8
図枠
  6
Continuous
 62
     4
100
AcDbCircle
 10
1680.22454170039
 20
784.2985262234106
 30
0.0
 40
0.9
  0
CIRCLE
  5
6D19
330
1E
100
AcDbEntity
  8
図枠
  6
Continuous
 62
     4
100
AcDbCircle
 10
1684.404997713825
 20
844.8443573088249
 30
0.0
 40
0.9
  0
CIRCLE
  5
6D1A
330
1E
100
AcDbEntity
  8
図枠
  6
Continuous
 62
     4
100
AcDbCircle
 10
1732.323893415152
 20
842.9793817216618
 30
0.0
 40
0.9
  0
CIRCLE
  5
6D1B
330
1E
100
AcDbEntity
  8
図枠
  6
Continuous
 62
     4
100
AcDbCircle
 10
1604.140641113601
 20
778.3439733559291
 30
0.0
 40
6.0
  0
TEXT
  5
6D1C
330
1E
100
AcDbEntity
  8
図枠
 62
     7
100
AcDbText
 10
1600.890641113602
 20
775.343973355929
 30
0.0
 40
5.0
  1
12
100
AcDbText
  0
LINE
  5
6D1D
330
1E
100
AcDbEntity
  8
図枠
  6
Continuous
 62
     4
100
AcDbLine
 10
1593.263623602348
 20
759.5044263916211
 30
0.0
 11
1601.140641113602
 21
773.1478209332224
 31
0.0
  0
CIRCLE
  5
6D1E
330
1E
100
AcDbEntity
  8
図枠
  6
Continuous
 62
     4
100
AcDbCircle
 10
1593.263623602348
 20
759.5044263916211
 30
0.0
 40
0.9
  0
LINE
  5
6D1F
330
1E
100
AcDbEntity
  8
図枠
  6
Continuous
 62
     4
100
AcDbLine
 10
1562.634355564242
 20
859.0365092666793
 30
0.0
 11
1546.968929296059
 21
843.3710829984969
 31
0.0
  0
TEXT
  5
6D20
330
1E
100
AcDbEntity
  8
図枠
 62
     7
100
AcDbText
 10
1539.47628860894
 20
836.1284423113774
 30
0.0
 40
5.0
  1
21
100
AcDbText
  0
CIRCLE
  5
6D21
330
1E
100
AcDbEntity
  8
図枠
  6
Continuous
 62
     4
100
AcDbCircle
 10
1542.72628860894
 20
839.1284423113775
 30
0.0
 40
6.0
  0
TEXT
  5
6D22
330
1E
100
AcDbEntity
  8
図枠
 62
     7
100
AcDbText
 10
1537.735092938813
 20
888.3005354812221
 30
0.0
 40
5.0
  1
19
100
AcDbText
  0
LINE
  5
6D23
330
1E
100
AcDbEntity
  8
図枠
  6
Continuous
 62
     4
100
AcDbLine
 10
1564.713556520636
 20
867.5720718994
 30
0.0
 11
1545.227733625933
 21
887.057894794103
 31
0.0
  0
CIRCLE
  5
6D24
330
1E
100
AcDbEntity
  8
図枠
  6
Continuous
 62
     4
100
AcDbCircle
 10
1540.985092938813
 20
891.3005354812222
 30
0.0
 40
6.0
  0
CIRCLE
  5
6D25
330
1E
100
AcDbEntity
  8
図枠
  6
Continuous
 62
     4
100
AcDbCircle
 10
1512.918788926463
 20
890.2017952684431
 30
0.0
 40
6.0
  0
LINE
  5
6D26
330
1E
100
AcDbEntity
  8
図枠
  6
Continuous
 62
     4
100
AcDbLine
 10
1525.41691303355
 20
868.5544093156682
 30
0.0
 11
1515.918788926463
 21
885.0056428457365
 31
0.0
  0
TEXT
  5
6D27
330
1E
100
AcDbEntity
  8
図枠
 62
     7
100
AcDbText
 10
1509.668788926463
 20
887.2017952684432
 30
0.0
 40
5.0
  1
18
100
AcDbText
  0
CIRCLE
  5
6D28
330
1E
100
AcDbEntity
  8
図枠
  6
Continuous
 62
     4
100
AcDbCircle
 10
1525.41691303355
 20
868.5544093156682
 30
0.0
 40
0.9
  0
CIRCLE
  5
6D29
330
1E
100
AcDbEntity
  8
図枠
  6
Continuous
 62
     4
100
AcDbCircle
 10
1564.713556520636
 20
867.5720718994
 30
0.0
 40
0.9
  0
LINE
  5
6D2A
330
1E
100
AcDbEntity
  8
図枠
  6
Continuous
 62
     4
100
AcDbLine
 10
1564.320965142397
 20
898.3902244670437
 30
0.0
 11
1546.201849899724
 21
929.7734526555489
 31
0.0
  0
TEXT
  5
6D2B
330
1E
100
AcDbEntity
  8
図枠
 62
     7
100
AcDbText
 10
1540.201849899723
 20
931.9696050782559
 30
0.0
 40
5.0
  1
４
100
AcDbText
  0
CIRCLE
  5
6D2C
330
1E
100
AcDbEntity
  8
図枠
  6
Continuous
 62
     4
100
AcDbCircle
 10
1543.201849899723
 20
934.9696050782556
 30
0.0
 40
6.0
  0
LINE
  5
6D2D
330
1E
100
AcDbEntity
  8
図枠
  6
Continuous
 62
     4
100
AcDbLine
 10
1568.492462449799
 20
916.9090668849355
 30
0.0
 11
1548.682446232047
 21
951.2210214728447
 31
0.0
  0
TEXT
  5
6D2E
330
1E
100
AcDbEntity
  8
図枠
 62
     7
100
AcDbText
 10
1542.432446232047
 20
953.4171738955516
 30
0.0
 40
5.0
  1
15
100
AcDbText
  0
CIRCLE
  5
6D2F
330
1E
100
AcDbEntity
  8
図枠
  6
Continuous
 62
     4
100
AcDbCircle
 10
1545.682446232047
 20
956.4171738955515
 30
0.0
 40
6.0
  0
LINE
  5
6D30
330
1E
100
AcDbEntity
  8
図枠
  6
Continuous
 62
     4
100
AcDbLine
 10
1589.568251814532
 20
890.1125302310283
 30
0.0
 11
1611.037108200809
 21
927.2976802724596
 31
0.0
  0
CIRCLE
  5
6D31
330
1E
100
AcDbEntity
  8
図枠
  6
Continuous
 62
     4
100
AcDbCircle
 10
1614.037108200809
 20
932.4938326951659
 30
0.0
 40
6.0
  0
TEXT
  5
6D32
330
1E
100
AcDbEntity
  8
図枠
 62
     7
100
AcDbText
 10
1610.787108200809
 20
929.493832695166
 30
0.0
 40
5.0
  1
10
100
AcDbText
  0
LINE
  5
6D33
330
1E
100
AcDbEntity
  8
図枠
  6
Continuous
 62
     4
100
AcDbLine
 10
1589.071446924978
 20
871.0543040219828
 30
0.0
 11
1612.963054621808
 21
829.6728256165691
 31
0.0
  0
TEXT
  5
6D34
330
1E
100
AcDbEntity
  8
図枠
 62
     7
100
AcDbText
 10
1612.713054621808
 20
821.4766731938626
 30
0.0
 40
5.0
  1
13
100
AcDbText
  0
CIRCLE
  5
6D35
330
1E
100
AcDbEntity
  8
図枠
  6
Continuous
 62
     4
100
AcDbCircle
 10
1615.963054621808
 20
824.4766731938623
 30
0.0
 40
6.0
  0
CIRCLE
  5
6D36
330
1E
100
AcDbEntity
  8
図枠
  6
Continuous
 62
     4
100
AcDbCircle
 10
1562.634355564242
 20
859.0365092666793
 30
0.0
 40
0.9
  0
CIRCLE
  5
6D37
330
1E
100
AcDbEntity
  8
図枠
  6
Continuous
 62
     4
100
AcDbCircle
 10
1568.492462449799
 20
916.9090668849355
 30
0.0
 40
0.9
  0
CIRCLE
  5
6D38
330
1E
100
AcDbEntity
  8
図枠
  6
Continuous
 62
     4
100
AcDbCircle
 10
1589.071446924978
 20
871.0543040219828
 30
0.0
 40
0.9
  0
CIRCLE
  5
6D39
330
1E
100
AcDbEntity
  8
図枠
  6
Continuous
 62
     4
100
AcDbCircle
 10
1589.568251814532
 20
890.1125302310283
 30
0.0
 40
0.9
  0
CIRCLE
  5
6D3A
330
1E
100
AcDbEntity
  8
図枠
  6
Continuous
 62
     4
100
AcDbCircle
 10
1564.320965142397
 20
898.3902244670437
 30
0.0
 40
0.9
  0
LINE
  5
6D3B
330
1E
100
AcDbEntity
  8
躯体と製品
  6
Continuous
 62
     7
100
AcDbLine
 10
1688.124055368288
 20
819.8768706072529
 30
0.0
 11
1688.124055368288
 21
815.3811876215572
 31
0.0
  0
LINE
  5
6D3C
330
1E
100
AcDbEntity
  8
躯体と製品
  6
Continuous
 62
     7
100
AcDbLine
 10
1685.23730402234
 20
819.8768706072529
 30
0.0
 11
1685.23730402234
 21
815.3811876215572
 31
0.0
  0
LINE
  5
6D3D
330
1E
100
AcDbEntity
  8
躯体と製品
  6
Continuous
 62
     7
100
AcDbLine
 10
1679.463801330444
 20
819.8768706072529
 30
0.0
 11
1679.463801330444
 21
815.3811876215572
 31
0.0
  0
LINE
  5
6D3E
330
1E
100
AcDbEntity
  8
躯体と製品
  6
Continuous
 62
     7
100
AcDbLine
 10
1687.250552676392
 20
820.3811876215572
 30
0.0
 11
1688.124055368288
 21
819.8768706072529
 31
0.0
  0
LINE
  5
6D3F
330
1E
100
AcDbEntity
  8
躯体と製品
  6
Continuous
 62
     7
100
AcDbLine
 10
1677.450552676392
 20
820.3811876215572
 30
0.0
 11
1687.250552676392
 21
820.3811876215572
 31
0.0
  0
LINE
  5
6D40
330
1E
100
AcDbEntity
  8
躯体と製品
  6
Continuous
 62
     7
100
AcDbLine
 10
1677.450552676392
 20
820.3811876215572
 30
0.0
 11
1676.577049984496
 21
819.8768706072529
 31
0.0
  0
LINE
  5
6D41
330
1E
100
AcDbEntity
  8
躯体と製品
  6
Continuous
 62
     7
100
AcDbLine
 10
1676.577049984496
 20
819.8768706072529
 30
0.0
 11
1676.577049984496
 21
815.3811876215572
 31
0.0
  0
ARC
  5
6D42
330
1E
100
AcDbEntity
  8
躯体と製品
  6
Continuous
 62
     7
100
AcDbCircle
 10
1686.680679695314
 20
817.7676298462088
 30
0.0
 40
2.555822748428199
100
AcDbArc
 50
55.61575253203897
 51
124.384247467961
  0
ARC
  5
6D43
330
1E
100
AcDbEntity
  8
躯体と製品
  6
Continuous
 62
     7
100
AcDbCircle
 10
1678.02042565747
 20
817.7676298462088
 30
0.0
 40
2.555822748428199
100
AcDbArc
 50
55.61575253203897
 51
124.384247467961
  0
ARC
  5
6D44
330
1E
100
AcDbEntity
  8
躯体と製品
  6
Continuous
 62
     7
100
AcDbCircle
 10
1682.350552676392
 20
810.7700345820015
 30
0.0
 40
9.553418012635715
100
AcDbArc
 50
72.41204622604974
 51
107.5879537739502
  0
LINE
  5
6D45
330
1E
100
AcDbEntity
  8
躯体と製品
  6
Continuous
 62
     7
100
AcDbLine
 10
1673.350552676392
 20
815.3811876215572
 30
0.0
 11
1673.350552676392
 21
813.8811876215573
 31
0.0
  0
LINE
  5
6D46
330
1E
100
AcDbEntity
  8
躯体と製品
  6
Continuous
 62
     7
100
AcDbLine
 10
1691.350552676392
 20
815.3811876215572
 30
0.0
 11
1691.350552676392
 21
813.8811876215573
 31
0.0
  0
LINE
  5
6D47
330
1E
100
AcDbEntity
  8
躯体と製品
  6
Continuous
 62
     7
100
AcDbLine
 10
1673.350552676392
 20
815.3811876215572
 30
0.0
 11
1691.350552676392
 21
815.3811876215572
 31
0.0
  0
LINE
  5
6D48
330
1E
100
AcDbEntity
  8
躯体と製品
  6
Continuous
 62
     7
100
AcDbLine
 10
1563.350552676392
 20
874.6528374948669
 30
0.0
 11
1563.350552676392
 21
856.6528374948669
 31
0.0
  0
LINE
  5
6D49
330
1E
100
AcDbEntity
  8
躯体と製品
  6
Continuous
 62
     7
100
AcDbLine
 10
1561.850552676392
 20
856.6528374948669
 30
0.0
 11
1563.350552676392
 21
856.6528374948669
 31
0.0
  0
LINE
  5
6D4A
330
1E
100
AcDbEntity
  8
躯体と製品
  6
Continuous
 62
     7
100
AcDbLine
 10
1561.850552676392
 20
874.6528374948669
 30
0.0
 11
1563.350552676392
 21
874.6528374948669
 31
0.0
  0
ARC
  5
6D4B
330
1E
100
AcDbEntity
  8
躯体と製品
  6
Continuous
 62
     7
100
AcDbCircle
 10
1563.221843676392
 20
864.1500744948668
 30
0.0
 40
3.0
100
AcDbArc
 50
272.4589259999963
 51
321.3853620000019
  0
ARC
  5
6D4C
330
1E
100
AcDbEntity
  8
躯体と製品
  6
Continuous
 62
     7
100
AcDbCircle
 10
1561.350554676392
 20
865.6528374948669
 30
0.0
 40
5.4
100
AcDbArc
 50
321.3178130000017
 51
0.0
  0
ARC
  5
6D4D
330
1E
100
AcDbEntity
  8
躯体と製品
  6
Continuous
 62
     7
100
AcDbCircle
 10
1561.350554676392
 20
865.6528374948669
 30
0.0
 40
5.4
100
AcDbArc
 50
0.0
 51
38.85106200000375
  0
ARC
  5
6D4E
330
1E
100
AcDbEntity
  8
躯体と製品
  6
Continuous
 62
     7
100
AcDbCircle
 10
1563.221843676392
 20
867.1555974948669
 30
0.0
 40
3.0
100
AcDbArc
 50
38.61463799999811
 51
87.54107400000371
  0
LINE
  5
6D4F
330
1E
100
AcDbEntity
  8
躯体と製品
  6
Continuous
 62
     4
100
AcDbLine
 10
1574.015784345464
 20
915.0974269222576
 30
0.0
 11
1575.409112813696
 21
909.8401246213859
 31
0.0
  0
LINE
  5
6D50
330
1E
100
AcDbEntity
  8
躯体と製品
  6
Continuous
 62
     4
100
AcDbLine
 10
1571.691992539089
 20
923.865550368348
 30
0.0
 11
1572.960246167315
 21
919.0801800340828
 31
0.0
  0
TEXT
  5
6D51
330
1E
100
AcDbEntity
  8
図枠
 62
     7
100
AcDbText
 10
1428.850552676392
 20
621.8811876215572
 30
0.0
 40
5.0
  1
止水補助板ホルダーＡＬ
100
AcDbText
  0
LINE
  5
6D58
330
1E
100
AcDbEntity
  8
躯体と製品
  6
Continuous
 62
     4
100
AcDbLine
 10
1578.912161721964
 20
909.3528374948666
 30
0.0
 11
1581.735213142568
 21
912.1758889154705
 31
0.0
  0
LINE
  5
6D59
330
1E
100
AcDbEntity
  8
躯体と製品
  6
Continuous
 62
     4
100
AcDbLine
 10
1576.083734597217
 20
909.3528374948666
 30
0.0
 11
1581.431572190563
 21
914.7006750882125
 31
0.0
  0
LINE
  5
6D5A
330
1E
100
AcDbEntity
  8
躯体と製品
  6
Continuous
 62
     4
100
AcDbLine
 10
1575.550552676392
 20
911.6480826987883
 30
0.0
 11
1581.356874472383
 21
917.4544044947792
 31
0.0
  0
LINE
  5
6D5B
330
1E
100
AcDbEntity
  8
躯体と製品
  6
Continuous
 62
     4
100
AcDbLine
 10
1575.550552676392
 20
914.476509823535
 30
0.0
 11
1581.585297096486
 21
920.5112542436291
 31
0.0
  0
LINE
  5
6D5C
330
1E
100
AcDbEntity
  8
躯体と製品
  6
Continuous
 62
     4
100
AcDbLine
 10
1575.550552676392
 20
917.3049369482816
 30
0.0
 11
1582.261191744279
 21
924.0155760161682
 31
0.0
  0
LINE
  5
6D5D
330
1E
100
AcDbEntity
  8
躯体と製品
  6
Continuous
 62
     4
100
AcDbLine
 10
1575.550552676392
 20
922.9617911977751
 30
0.0
 11
1576.941598973484
 21
924.3528374948667
 31
0.0
  0
LINE
  5
6D5E
330
1E
100
AcDbEntity
  8
躯体と製品
  6
Continuous
 62
     4
100
AcDbLine
 10
1575.550552676392
 20
920.1333640730283
 30
0.0
 11
1579.770026098231
 21
924.3528374948667
 31
0.0
  0
ARC
  5
6D5F
330
1E
100
AcDbEntity
  8
躯体と製品
  6
Continuous
 62
     7
100
AcDbCircle
 10
1609.975552676392
 20
916.8528374948666
 30
0.0
 40
28.625
100
AcDbArc
 50
164.8107132628193
 51
195.1892867371807
  0
LINE
  5
6D65
330
1E
100
AcDbEntity
  8
躯体と製品
  6
Continuous
 62
     7
100
AcDbLine
 10
1582.350552676392
 20
999.3528374948668
 30
0.0
 11
1582.350552676392
 21
924.3528374948667
 31
0.0
  0
LINE
  5
6D74
330
1E
100
AcDbEntity
  8
躯体と製品
  6
Continuous
 62
     7
100
AcDbLine
 10
1559.350552676392
 20
833.1528373554331
 30
0.0
 11
1559.350552676392
 21
909.3528374948666
 31
0.0
  0
TEXT
  5
6D77
330
1E
100
AcDbEntity
  8
寸法
 62
     7
100
AcDbText
 10
1654.350552676392
 20
895.5538552011978
 30
0.0
 40
5.0
  1
（キャップ幅）
100
AcDbText
  0
LINE
  5
6D84
330
1E
100
AcDbEntity
  8
躯体と製品
  6
Continuous
 62
     7
100
AcDbLine
 10
1558.350552676392
 20
833.1004297155837
 30
0.0
 11
1558.350552676392
 21
879.3528374948666
 31
0.0
  0
LINE
  5
6D85
330
1E
100
AcDbEntity
  8
躯体と製品
  6
Continuous
 62
     7
100
AcDbLine
 10
1571.550552676392
 20
919.6528374948668
 30
0.0
 11
1571.550552676392
 21
923.3528374948669
 31
0.0
  0
LINE
  5
6D86
330
1E
100
AcDbEntity
  8
躯体と製品
  6
Continuous
 62
     7
100
AcDbLine
 10
1575.550552676392
 20
910.3528374948668
 30
0.0
 11
1575.550552676392
 21
923.3528374948669
 31
0.0
  0
ARC
  5
6D87
330
1E
100
AcDbEntity
  8
躯体と製品
  6
Continuous
 62
     7
100
AcDbCircle
 10
1574.550552676392
 20
923.3528374948669
 30
0.0
 40
1.0
100
AcDbArc
 50
0.0
 51
90.0
  0
LINE
  5
6D88
330
1E
100
AcDbEntity
  8
躯体と製品
  6
Continuous
 62
     7
100
AcDbLine
 10
1574.550552676392
 20
924.3528374948667
 30
0.0
 11
1572.550552676392
 21
924.3528374948667
 31
0.0
  0
ARC
  5
6D89
330
1E
100
AcDbEntity
  8
躯体と製品
  6
Continuous
 62
     7
100
AcDbCircle
 10
1572.550552676392
 20
923.3528374948669
 30
0.0
 40
1.0
100
AcDbArc
 50
90.0
 51
180.0
  0
LINE
  5
6D8A
330
1E
100
AcDbEntity
  8
躯体と製品
  6
Continuous
 62
     7
100
AcDbLine
 10
1558.350552676392
 20
909.3528374948666
 30
0.0
 11
1559.350552676392
 21
909.3528374948666
 31
0.0
  0
LINE
  5
6D8B
330
1E
100
AcDbEntity
  8
躯体と製品
  6
Continuous
 62
     7
100
AcDbLine
 10
1557.350552676392
 20
924.3528374948667
 30
0.0
 11
1582.350552676392
 21
924.3528374948667
 31
0.0
  0
LINE
  5
6D8C
330
1E
100
AcDbEntity
  8
躯体と製品
  6
Continuous
 62
     7
100
AcDbLine
 10
1557.350552676392
 20
924.3528374948667
 30
0.0
 11
1557.350552676392
 21
809.3811876215573
 31
0.0
  0
LINE
  5
6D8D
330
1E
100
AcDbEntity
  8
躯体と製品
  6
Continuous
 62
     4
100
AcDbLine
 10
1557.350552676392
 20
908.9765715411177
 30
0.0
 11
1558.350552676392
 21
907.9765715411179
 31
0.0
  0
LINE
  5
6D8E
330
1E
100
AcDbEntity
  8
躯体と製品
  6
Continuous
 62
     4
100
AcDbLine
 10
1557.350552676392
 20
907.5623579787443
 30
0.0
 11
1558.350552676392
 21
906.5623579787441
 31
0.0
  0
LINE
  5
6D8F
330
1E
100
AcDbEntity
  8
躯体と製品
  6
Continuous
 62
     4
100
AcDbLine
 10
1557.350552676393
 20
906.1481444163705
 30
0.0
 11
1558.350552676393
 21
905.14814441637
 31
0.0
  0
LINE
  5
6D90
330
1E
100
AcDbEntity
  8
躯体と製品
  6
Continuous
 62
     4
100
AcDbLine
 10
1557.350552676392
 20
904.7339308539998
 30
0.0
 11
1558.350552676392
 21
903.7339308539998
 31
0.0
  0
LINE
  5
6D91
330
1E
100
AcDbEntity
  8
躯体と製品
  6
Continuous
 62
     4
100
AcDbLine
 10
1557.350552676392
 20
903.3197172916262
 30
0.0
 11
1558.350552676392
 21
902.3197172916265
 31
0.0
  0
LINE
  5
6D92
330
1E
100
AcDbEntity
  8
躯体と製品
  6
Continuous
 62
     4
100
AcDbLine
 10
1557.350552676392
 20
901.9055037292529
 30
0.0
 11
1558.350552676392
 21
900.9055037292529
 31
0.0
  0
LINE
  5
6D93
330
1E
100
AcDbEntity
  8
躯体と製品
  6
Continuous
 62
     4
100
AcDbLine
 10
1557.350552676392
 20
900.4912901668799
 30
0.0
 11
1558.350552676392
 21
899.4912901668799
 31
0.0
  0
LINE
  5
6D94
330
1E
100
AcDbEntity
  8
躯体と製品
  6
Continuous
 62
     4
100
AcDbLine
 10
1557.350552676392
 20
899.0770766045065
 30
0.0
 11
1558.350552676392
 21
898.0770766045068
 31
0.0
  0
LINE
  5
6D95
330
1E
100
AcDbEntity
  8
躯体と製品
  6
Continuous
 62
     4
100
AcDbLine
 10
1557.350552676392
 20
897.6628630421329
 30
0.0
 11
1558.350552676392
 21
896.6628630421325
 31
0.0
  0
LINE
  5
6D96
330
1E
100
AcDbEntity
  8
躯体と製品
  6
Continuous
 62
     4
100
AcDbLine
 10
1557.350552676392
 20
896.2486494797596
 30
0.0
 11
1558.350552676392
 21
895.2486494797595
 31
0.0
  0
LINE
  5
6D97
330
1E
100
AcDbEntity
  8
躯体と製品
  6
Continuous
 62
     4
100
AcDbLine
 10
1557.350552676392
 20
894.8344359173866
 30
0.0
 11
1558.350552676392
 21
893.8344359173861
 31
0.0
  0
LINE
  5
6D98
330
1E
100
AcDbEntity
  8
躯体と製品
  6
Continuous
 62
     4
100
AcDbLine
 10
1557.350552676392
 20
893.4202223550146
 30
0.0
 11
1558.350552676392
 21
892.4202223550146
 31
0.0
  0
LINE
  5
6D99
330
1E
100
AcDbEntity
  8
躯体と製品
  6
Continuous
 62
     4
100
AcDbLine
 10
1557.350552676393
 20
892.0060087926406
 30
0.0
 11
1558.350552676392
 21
891.0060087926408
 31
0.0
  0
LINE
  5
6D9A
330
1E
100
AcDbEntity
  8
躯体と製品
  6
Continuous
 62
     4
100
AcDbLine
 10
1557.350552676393
 20
890.5917952302674
 30
0.0
 11
1558.350552676392
 21
889.5917952302678
 31
0.0
  0
LINE
  5
6D9B
330
1E
100
AcDbEntity
  8
躯体と製品
  6
Continuous
 62
     4
100
AcDbLine
 10
1557.350552676393
 20
889.1775816678942
 30
0.0
 11
1558.350552676392
 21
888.1775816678946
 31
0.0
  0
LINE
  5
6D9C
330
1E
100
AcDbEntity
  8
躯体と製品
  6
Continuous
 62
     4
100
AcDbLine
 10
1557.350552676393
 20
887.7633681055211
 30
0.0
 11
1558.350552676392
 21
886.7633681055213
 31
0.0
  0
LINE
  5
6D9D
330
1E
100
AcDbEntity
  8
躯体と製品
  6
Continuous
 62
     4
100
AcDbLine
 10
1557.350552676392
 20
886.3491545431477
 30
0.0
 11
1558.350552676392
 21
885.3491545431475
 31
0.0
  0
LINE
  5
6D9E
330
1E
100
AcDbEntity
  8
躯体と製品
  6
Continuous
 62
     4
100
AcDbLine
 10
1557.350552676392
 20
884.9349409807743
 30
0.0
 11
1558.350552676392
 21
883.9349409807741
 31
0.0
  0
LINE
  5
6D9F
330
1E
100
AcDbEntity
  8
躯体と製品
  6
Continuous
 62
     4
100
AcDbLine
 10
1557.350552676392
 20
883.5207274184037
 30
0.0
 11
1558.350552676392
 21
882.5207274184036
 31
0.0
  0
LINE
  5
6DA0
330
1E
100
AcDbEntity
  8
躯体と製品
  6
Continuous
 62
     4
100
AcDbLine
 10
1557.350552676393
 20
882.1065138560296
 30
0.0
 11
1558.350552676392
 21
881.1065138560298
 31
0.0
  0
LINE
  5
6DA1
330
1E
100
AcDbEntity
  8
躯体と製品
  6
Continuous
 62
     4
100
AcDbLine
 10
1557.350552676392
 20
880.6923002936564
 30
0.0
 11
1558.350552676392
 21
879.6923002936566
 31
0.0
  0
LINE
  5
6DA2
330
1E
100
AcDbEntity
  8
躯体と製品
  6
Continuous
 62
     3
100
AcDbLine
 10
1557.350552676392
 20
909.3528374948666
 30
0.0
 11
1557.350552676392
 21
879.3528374948666
 31
0.0
  0
LINE
  5
6DA3
330
1E
100
AcDbEntity
  8
躯体と製品
  6
Continuous
 62
     3
100
AcDbLine
 10
1557.350552676392
 20
879.3528374948666
 30
0.0
 11
1558.350552676392
 21
879.3528374948666
 31
0.0
  0
LINE
  5
6DA4
330
1E
100
AcDbEntity
  8
躯体と製品
  6
Continuous
 62
     3
100
AcDbLine
 10
1558.350552676392
 20
879.3528374948666
 30
0.0
 11
1558.350552676392
 21
909.3528374948666
 31
0.0
  0
LINE
  5
6DA5
330
1E
100
AcDbEntity
  8
躯体と製品
  6
Continuous
 62
     3
100
AcDbLine
 10
1558.350552676392
 20
909.3528374948666
 30
0.0
 11
1557.350552676392
 21
909.3528374948666
 31
0.0
  0
LINE
  5
6DA6
330
1E
100
AcDbEntity
  8
躯体と製品
  6
Continuous
 62
     7
100
AcDbLine
 10
1732.350552676392
 20
809.3811876215573
 30
0.0
 11
1732.350552676392
 21
689.3811876215572
 31
0.0
  0
LINE
  5
6DA7
330
1E
100
AcDbEntity
  8
躯体と製品
  6
CENTER1
 62
     4
100
AcDbLine
 10
1560.227829993827
 20
916.1528374948668
 30
0.0
 11
1577.095863676392
 21
916.1528374948668
 31
0.0
  0
LINE
  5
6DA8
330
1E
100
AcDbEntity
  8
躯体と製品
  6
CENTER1
 62
     4
100
AcDbLine
 10
1573.107480976956
 20
865.6528374948669
 30
0.0
 11
1498.350552676392
 21
865.6528374948669
 31
0.0
  0
LINE
  5
6DA9
330
1E
100
AcDbEntity
  8
躯体と製品
  6
CENTER1
 62
     4
100
AcDbLine
 10
1682.350552676392
 20
834.3047020494436
 30
0.0
 11
1682.350552676392
 21
745.381187621557
 31
0.0
  0
LINE
  5
6DAA
330
1E
100
AcDbEntity
  8
躯体と製品
  6
CENTER1
 62
     4
100
AcDbLine
 10
1684.062089551359
 20
861.9627711067629
 30
0.0
 11
1681.722521201477
 21
817.3211476323889
 31
0.0
  0
LINE
  5
6DAB
330
1E
100
AcDbEntity
  8
図枠
  6
Continuous
 62
     4
100
AcDbLine
 10
1686.550552676392
 20
868.3412765295386
 30
0.0
 11
1686.550552676392
 21
870.9616654936908
 31
0.0
  0
LINE
  5
6DAC
330
1E
100
AcDbEntity
  8
図枠
  6
Continuous
 62
     4
100
AcDbLine
 10
1636.550552676392
 20
870.9616654936908
 30
0.0
 11
1686.550552676392
 21
868.3412765295386
 31
0.0
  0
LINE
  5
6DAD
330
1E
100
AcDbEntity
  8
図枠
  6
Continuous
 62
     4
100
AcDbLine
 10
1636.550552676392
 20
870.9616654936908
 30
0.0
 11
1686.550552676392
 21
870.9616654936908
 31
0.0
  0
TEXT
  5
6DAE
330
1E
100
AcDbEntity
  8
図枠
 62
     7
100
AcDbText
 10
1890.850552676392
 20
675.1265223317077
 30
0.0
 40
5.0
  1
（単位：mm）
100
AcDbText
  0
ARC
  5
6DAF
330
1E
100
AcDbEntity
  8
躯体と製品
  6
Continuous
 62
     7
100
AcDbCircle
 10
1582.350552676392
 20
808.3811876215573
 30
0.0
 40
2.0
100
AcDbArc
 50
4.999999999999459
 51
90.0
  0
LINE
  5
6DB0
330
1E
100
AcDbEntity
  8
躯体と製品
  6
Continuous
 62
     7
100
AcDbLine
 10
1582.069794770419
 20
810.3811876215573
 30
0.0
 11
1582.350552676392
 21
810.3811876215573
 31
0.0
  0
ARC
  5
6DB1
330
1E
100
AcDbEntity
  8
躯体と製品
  6
Continuous
 62
     7
100
AcDbCircle
 10
1582.069794770419
 20
833.1004297155837
 30
0.0
 40
22.71924209402663
100
AcDbArc
 50
179.8678327724082
 51
270.0
  0
LINE
  5
6DB2
330
1E
100
AcDbEntity
  8
躯体と製品
  6
Continuous
 62
     3
100
AcDbLine
 10
1559.350552676392
 20
833.1528373554331
 30
0.0
 11
1559.350552676392
 21
834.6528374948668
 31
0.0
  0
LINE
  5
6DB3
330
1E
100
AcDbEntity
  8
躯体と製品
  6
Continuous
 62
     7
100
AcDbLine
 10
1632.338720770902
 20
810.3811876215573
 30
0.0
 11
1661.350552676392
 21
810.3811876215573
 31
0.0
  0
ARC
  5
6DB4
330
1E
100
AcDbEntity
  8
躯体と製品
  6
Continuous
 62
     7
100
AcDbCircle
 10
1632.379112450291
 20
808.3815955350965
 30
0.0
 40
2.0
100
AcDbArc
 50
91.1572150532457
 51
175.0000000000005
  0
LINE
  5
6DB5
330
1E
100
AcDbEntity
  8
躯体と製品
  6
Continuous
 62
     7
100
AcDbLine
 10
1558.350552676392
 20
863.1528374948667
 30
0.0
 11
1557.350552676392
 21
863.1528374948667
 31
0.0
  0
LINE
  5
6DB6
330
1E
100
AcDbEntity
  8
躯体と製品
  6
Continuous
 62
     7
100
AcDbLine
 10
1558.350552676392
 20
868.1528374948667
 30
0.0
 11
1557.350552676392
 21
868.1528374948667
 31
0.0
  0
ARC
  5
6DB7
330
1E
100
AcDbEntity
  8
躯体と製品
  6
Continuous
 62
     7
100
AcDbCircle
 10
1732.321992902494
 20
808.3815955350962
 30
0.0
 40
2.0
100
AcDbArc
 50
4.999999999999459
 51
88.84278494684552
  0
LINE
  5
6DB8
330
1E
100
AcDbEntity
  8
躯体と製品
  6
Continuous
 62
     7
100
AcDbLine
 10
1732.36238458188
 20
810.3811876215573
 30
0.0
 11
1703.350552676392
 21
810.3811876215573
 31
0.0
  0
ARC
  5
6DB9
330
1E
100
AcDbEntity
  8
躯体と製品
  6
Continuous
 62
     7
100
AcDbCircle
 10
1661.350552676392
 20
819.6311876215572
 30
0.0
 40
9.25
100
AcDbArc
 50
270.0
 51
288.9246444160544
  0
LINE
  5
6DBA
330
1E
100
AcDbEntity
  8
躯体と製品
  6
Continuous
 62
     7
100
AcDbLine
 10
1697.350552676392
 20
811.3811876215573
 30
0.0
 11
1667.350552676392
 21
811.3811876215573
 31
0.0
  0
ARC
  5
6DBB
330
1E
100
AcDbEntity
  8
躯体と製品
  6
Continuous
 62
     7
100
AcDbCircle
 10
1661.350552676392
 20
819.6311876215572
 30
0.0
 40
10.25
100
AcDbArc
 50
270.0
 51
288.9246444160544
  0
ARC
  5
6DBC
330
1E
100
AcDbEntity
  8
躯体と製品
  6
Continuous
 62
     7
100
AcDbCircle
 10
1667.350552676392
 20
802.1311876215573
 30
0.0
 40
8.25
100
AcDbArc
 50
90.0
 51
108.9246444160544
  0
ARC
  5
6DBD
330
1E
100
AcDbEntity
  8
躯体と製品
  6
Continuous
 62
     7
100
AcDbCircle
 10
1703.350552676392
 20
819.6311876215572
 30
0.0
 40
10.25
100
AcDbArc
 50
251.0753555839456
 51
270.0
  0
ARC
  5
6DBE
330
1E
100
AcDbEntity
  8
躯体と製品
  6
Continuous
 62
     7
100
AcDbCircle
 10
1697.350552676392
 20
802.1311876215573
 30
0.0
 40
8.25
100
AcDbArc
 50
71.07535558394559
 51
90.0
  0
LINE
  5
6DBF
330
1E
100
AcDbEntity
  8
躯体と製品
  6
Continuous
 62
     7
100
AcDbLine
 10
1682.350552676392
 20
810.3811876215573
 30
0.0
 11
1682.350552676392
 21
811.3811876215573
 31
0.0
  0
ARC
  5
6DC0
330
1E
100
AcDbEntity
  8
躯体と製品
  6
Continuous
 62
     7
100
AcDbCircle
 10
1703.350552676392
 20
819.6311876215572
 30
0.0
 40
9.25
100
AcDbArc
 50
251.0753555839456
 51
270.0
  0
ARC
  5
6DC1
330
1E
100
AcDbEntity
  8
躯体と製品
  6
Continuous
 62
     7
100
AcDbCircle
 10
1697.350552676392
 20
802.1311876215573
 30
0.0
 40
9.25
100
AcDbArc
 50
71.07535558394559
 51
90.0
  0
ARC
  5
6DC2
330
1E
100
AcDbEntity
  8
躯体と製品
  6
Continuous
 62
     7
100
AcDbCircle
 10
1667.350552676392
 20
802.1311876215573
 30
0.0
 40
9.25
100
AcDbArc
 50
90.0
 51
108.9246444160544
  0
ARC
  5
6DC3
330
1E
100
AcDbEntity
  8
躯体と製品
  6
Continuous
 62
     7
100
AcDbCircle
 10
1581.798857137031
 20
870.2197490941765
 30
0.0
 40
0.6999999999999999
100
AcDbArc
 50
30.6796811168188
 51
52.9273357674069
  0
ARC
  5
6DC4
330
1E
100
AcDbEntity
  8
躯体と製品
  6
Continuous
 62
     7
100
AcDbCircle
 10
1581.798857137031
 20
870.2197490941765
 30
0.0
 40
1.5
100
AcDbArc
 50
30.6796811168188
 51
52.9273357674069
  0
LINE
  5
6DC5
330
1E
100
AcDbEntity
  8
躯体と製品
  6
Continuous
 62
     7
100
AcDbLine
 10
1582.703098225777
 20
871.416556536259
 30
0.0
 11
1581.54093132126
 21
872.2946251629181
 31
0.0
  0
TEXT
  5
6DEB
330
1E
100
AcDbEntity
  8
図枠
 62
     7
100
AcDbText
 10
1648.050552676392
 20
870.9459425290869
 30
0.0
 40
5.0
  1
勾配３度
100
AcDbText
  0
ARC
  5
6DEC
330
1E
100
AcDbEntity
  8
躯体と製品
  6
Continuous
 62
     7
100
AcDbCircle
 10
1585.841013515806
 20
872.6178674835654
 30
0.0
 40
4.0
100
AcDbArc
 50
210.6796811168188
 51
324.7736858654986
  0
LINE
  5
6DED
330
1E
100
AcDbEntity
  8
躯体と製品
  6
Continuous
 62
     7
100
AcDbLine
 10
1582.220836311779
 20
870.7782592338148
 30
0.0
 11
1581.05866940726
 21
871.6563278604755
 31
0.0
  0
ARC
  5
6DEE
330
1E
100
AcDbEntity
  8
躯体と製品
  6
Continuous
 62
     7
100
AcDbCircle
 10
1585.841013515806
 20
872.6178674835654
 30
0.0
 40
3.2
100
AcDbArc
 50
210.6796811168188
 51
324.7736858654986
  0
ARC
  5
6DEF
330
1E
100
AcDbEntity
  8
躯体と製品
  6
Continuous
 62
     7
100
AcDbCircle
 10
1581.299800364261
 20
871.9754765116963
 30
0.0
 40
0.4
100
AcDbArc
 50
52.9273357674069
 51
232.9273357673965
  0
LINE
  5
6DF0
330
1E
100
AcDbEntity
  8
躯体と製品
  6
Continuous
 62
     7
100
AcDbLine
 10
1589.571216756222
 20
872.3528374948669
 30
0.0
 11
1588.455029756072
 21
870.7720833424406
 31
0.0
  0
LINE
  5
6DF1
330
1E
100
AcDbEntity
  8
躯体と製品
  6
Continuous
 62
     7
100
AcDbLine
 10
1590.550552676392
 20
872.3528374948669
 30
0.0
 11
1589.108533816138
 21
870.3106373071593
 31
0.0
  0
LINE
  5
6DF2
330
1E
100
AcDbEntity
  8
躯体と製品
  6
Continuous
 62
     3
100
AcDbLine
 10
1667.350552676392
 20
810.3811876215573
 30
0.0
 11
1667.350552676392
 21
809.3811876215573
 31
0.0
  0
LINE
  5
6DF3
330
1E
100
AcDbEntity
  8
躯体と製品
  6
Continuous
 62
     3
100
AcDbLine
 10
1697.350552676392
 20
810.3811876215573
 30
0.0
 11
1667.350552676392
 21
810.3811876215573
 31
0.0
  0
LINE
  5
6DF4
330
1E
100
AcDbEntity
  8
躯体と製品
  6
Continuous
 62
     3
100
AcDbLine
 10
1697.350552676392
 20
809.3811876215573
 30
0.0
 11
1697.350552676392
 21
810.3811876215573
 31
0.0
  0
LINE
  5
6DF5
330
1E
100
AcDbEntity
  8
躯体と製品
  6
Continuous
 62
     3
100
AcDbLine
 10
1667.350552676392
 20
809.3811876215573
 30
0.0
 11
1697.350552676392
 21
809.3811876215573
 31
0.0
  0
LINE
  5
6DF6
330
1E
100
AcDbEntity
  8
躯体と製品
  6
DASHED1
 62
     7
100
AcDbLine
 10
1754.197372670043
 20
853.7809611121344
 30
0.0
 11
1760.170740179392
 21
853.467910186128
 31
0.0
  0
LINE
  5
6DF7
330
1E
100
AcDbEntity
  8
躯体と製品
  6
DASHED1
 62
     7
100
AcDbLine
 10
1754.432884473136
 20
858.2747940185303
 30
0.0
 11
1760.406251982486
 21
857.9617430925239
 31
0.0
  0
LINE
  5
6DF8
330
1E
100
AcDbEntity
  8
躯体と製品
  6
DASHED1
 62
     7
100
AcDbLine
 10
1568.95803300457
 20
863.4889435398578
 30
0.0
 11
1589.423499435538
 21
862.4163938922192
 31
0.0
  0
LINE
  5
6DF9
330
1E
100
AcDbEntity
  8
躯体と製品
  6
DASHED1
 62
     7
100
AcDbLine
 10
1569.193544807663
 20
867.982776446254
 30
0.0
 11
1589.659011238631
 21
866.9102267986154
 31
0.0
  0
ARC
  5
6DFF
330
1E
100
AcDbEntity
  8
躯体と製品
  6
Continuous
 62
     7
100
AcDbCircle
 10
1745.939384895808
 20
779.8392895967392
 30
0.0
 40
10.07794783178851
100
AcDbArc
 50
184.9999999999994
 51
355.0000000000006
  0
LINE
  5
6E00
330
1E
100
AcDbEntity
  8
躯体と製品
  6
Continuous
 62
     7
100
AcDbLine
 10
1759.067006978145
 20
814.2572130819731
 30
0.0
 11
1755.978983093481
 21
778.9609385680875
 31
0.0
  0
ARC
  5
6E01
330
1E
100
AcDbEntity
  8
躯体と製品
  6
Continuous
 62
     7
100
AcDbCircle
 10
1745.939384895808
 20
779.8392895967392
 30
0.0
 40
9.077947831788515
100
AcDbArc
 50
184.9999999999994
 51
355.0000000000006
  0
LINE
  5
6E02
330
1E
100
AcDbEntity
  8
躯体と製品
  6
Continuous
 62
     7
100
AcDbLine
 10
1758.070812280053
 20
814.3443688247208
 30
0.0
 11
1754.982788395389
 21
779.0480943108352
 31
0.0
  0
LINE
  5
6E03
330
1E
100
AcDbEntity
  8
躯体と製品
  6
Continuous
 62
     7
100
AcDbLine
 10
1734.314382298677
 20
808.5559070205917
 30
0.0
 11
1736.895981396227
 21
779.0480943108352
 31
0.0
  0
LINE
  5
6E04
330
1E
100
AcDbEntity
  8
躯体と製品
  6
Continuous
 62
     7
100
AcDbLine
 10
1733.318187600585
 20
808.468751277844
 30
0.0
 11
1735.899786698135
 21
778.9609385680876
 31
0.0
  0
ARC
  5
6E05
330
1E
100
AcDbEntity
  8
躯体と製品
  6
Continuous
 62
     3
100
AcDbCircle
 10
1767.258619324748
 20
773.4613417649507
 30
0.0
 40
1.0
100
AcDbArc
 50
180.0
 51
270.0
  0
LINE
  5
6E06
330
1E
100
AcDbEntity
  8
躯体と製品
  6
Continuous
 62
     3
100
AcDbLine
 10
1771.158619324748
 20
772.4613417649507
 30
0.0
 11
1767.258619324748
 21
772.4613417649507
 31
0.0
  0
ARC
  5
6E07
330
1E
100
AcDbEntity
  8
躯体と製品
  6
Continuous
 62
     3
100
AcDbCircle
 10
1771.158619324748
 20
771.8613417649505
 30
0.0
 40
0.5999999999999998
100
AcDbArc
 50
270.0
 51
90.0
  0
LINE
  5
6E08
330
1E
100
AcDbEntity
  8
躯体と製品
  6
Continuous
 62
     3
100
AcDbLine
 10
1764.758619324748
 20
810.5613417649506
 30
0.0
 11
1764.758619324748
 21
773.7613417649505
 31
0.0
  0
ARC
  5
6E09
330
1E
100
AcDbEntity
  8
躯体と製品
  6
Continuous
 62
     3
100
AcDbCircle
 10
1765.508619324748
 20
828.5113417649506
 30
0.0
 40
0.75
100
AcDbArc
 50
0.0
 51
180.0
  0
LINE
  5
6E0A
330
1E
100
AcDbEntity
  8
躯体と製品
  6
Continuous
 62
     3
100
AcDbLine
 10
1764.758619324748
 20
821.9613417649508
 30
0.0
 11
1764.758619324748
 21
828.5113417649506
 31
0.0
  0
ARC
  5
6E0B
330
1E
100
AcDbEntity
  8
躯体と製品
  6
Continuous
 62
     3
100
AcDbCircle
 10
1764.258619324748
 20
821.9613417649508
 30
0.0
 40
0.5
100
AcDbArc
 50
270.0
 51
0.0
  0
ARC
  5
6E0C
330
1E
100
AcDbEntity
  8
躯体と製品
  6
Continuous
 62
     3
100
AcDbCircle
 10
1760.558619324748
 20
820.4613417649508
 30
0.0
 40
1.0
100
AcDbArc
 50
90.0
 51
180.0
  0
LINE
  5
6E0D
330
1E
100
AcDbEntity
  8
躯体と製品
  6
Continuous
 62
     3
100
AcDbLine
 10
1764.258619324748
 20
821.4613417649507
 30
0.0
 11
1760.558619324748
 21
821.4613417649507
 31
0.0
  0
ARC
  5
6E0E
330
1E
100
AcDbEntity
  8
躯体と製品
  6
Continuous
 62
     3
100
AcDbCircle
 10
1764.258619324748
 20
810.5613417649506
 30
0.0
 40
0.5
100
AcDbArc
 50
0.0
 51
90.0
  0
ARC
  5
6E0F
330
1E
100
AcDbEntity
  8
躯体と製品
  6
Continuous
 62
     3
100
AcDbCircle
 10
1760.558619324748
 20
812.0613417649506
 30
0.0
 40
1.0
100
AcDbArc
 50
180.0
 51
270.0
  0
LINE
  5
6E10
330
1E
100
AcDbEntity
  8
躯体と製品
  6
Continuous
 62
     3
100
AcDbLine
 10
1764.258619324748
 20
811.0613417649506
 30
0.0
 11
1760.558619324748
 21
811.0613417649506
 31
0.0
  0
ARC
  5
6E11
330
1E
100
AcDbEntity
  8
躯体と製品
  6
Continuous
 62
     3
100
AcDbCircle
 10
1764.458619324748
 20
819.9613417649509
 30
0.0
 40
0.2999999999999998
100
AcDbArc
 50
0.0
 51
90.0
  0
LINE
  5
6E12
330
1E
100
AcDbEntity
  8
躯体と製品
  6
Continuous
 62
     3
100
AcDbLine
 10
1764.758619324748
 20
819.9613417649509
 30
0.0
 11
1764.758619324748
 21
812.5613417649505
 31
0.0
  0
ARC
  5
6E13
330
1E
100
AcDbEntity
  8
躯体と製品
  6
Continuous
 62
     3
100
AcDbCircle
 10
1764.458619324748
 20
812.5613417649505
 30
0.0
 40
0.2999999999999998
100
AcDbArc
 50
270.0
 51
0.0
  0
LINE
  5
6E14
330
1E
100
AcDbEntity
  8
躯体と製品
  6
Continuous
 62
     3
100
AcDbLine
 10
1761.058619324748
 20
812.2613417649507
 30
0.0
 11
1764.458619324748
 21
812.2613417649507
 31
0.0
  0
LINE
  5
6E15
330
1E
100
AcDbEntity
  8
躯体と製品
  6
Continuous
 62
     3
100
AcDbLine
 10
1761.058619324748
 20
820.2613417649507
 30
0.0
 11
1764.458619324748
 21
820.2613417649507
 31
0.0
  0
LINE
  5
6E16
330
1E
100
AcDbEntity
  8
躯体と製品
  6
Continuous
 62
     3
100
AcDbLine
 10
1766.258619324748
 20
828.5113417649506
 30
0.0
 11
1766.258619324748
 21
784.2613417649507
 31
0.0
  0
ARC
  5
6E17
330
1E
100
AcDbEntity
  8
躯体と製品
  6
Continuous
 62
     3
100
AcDbCircle
 10
1767.258619324748
 20
773.7613417649505
 30
0.0
 40
2.5
100
AcDbArc
 50
180.0
 51
270.0
  0
LINE
  5
6E18
330
1E
100
AcDbEntity
  8
躯体と製品
  6
Continuous
 62
     3
100
AcDbLine
 10
1771.158619324748
 20
771.2613417649507
 30
0.0
 11
1767.258619324748
 21
771.2613417649507
 31
0.0
  0
ARC
  5
6E19
330
1E
100
AcDbEntity
  8
躯体と製品
  6
Continuous
 62
     3
100
AcDbCircle
 10
1766.758619324748
 20
784.2613417649507
 30
0.0
 40
0.5
100
AcDbArc
 50
180.0
 51
270.0
  0
LINE
  5
6E1A
330
1E
100
AcDbEntity
  8
躯体と製品
  6
Continuous
 62
     3
100
AcDbLine
 10
1766.758619324748
 20
783.7613417649507
 30
0.0
 11
1773.458619324747
 21
783.7613417649507
 31
0.0
  0
LINE
  5
6E1B
330
1E
100
AcDbEntity
  8
躯体と製品
  6
Continuous
 62
     3
100
AcDbLine
 10
1766.258619324748
 20
782.2613417649506
 30
0.0
 11
1766.258619324748
 21
773.4613417649507
 31
0.0
  0
ARC
  5
6E1C
330
1E
100
AcDbEntity
  8
躯体と製品
  6
Continuous
 62
     3
100
AcDbCircle
 10
1766.758619324748
 20
782.2613417649506
 30
0.0
 40
0.5
100
AcDbArc
 50
90.0
 51
180.0
  0
ARC
  5
6E1D
330
1E
100
AcDbEntity
  8
躯体と製品
  6
Continuous
 62
     3
100
AcDbCircle
 10
1773.458619324747
 20
783.4613417649507
 30
0.0
 40
0.2999999999999998
100
AcDbArc
 50
0.0
 51
90.0
  0
LINE
  5
6E1E
330
1E
100
AcDbEntity
  8
躯体と製品
  6
Continuous
 62
     3
100
AcDbLine
 10
1766.758619324748
 20
782.7613417649506
 30
0.0
 11
1771.758619324748
 21
782.7613417649506
 31
0.0
  0
LINE
  5
6E1F
330
1E
100
AcDbEntity
  8
躯体と製品
  6
Continuous
 62
     3
100
AcDbLine
 10
1773.758619324748
 20
783.4613417649507
 30
0.0
 11
1773.758619324748
 21
783.1517297649506
 31
0.0
  0
LINE
  5
6E20
330
1E
100
AcDbEntity
  8
躯体と製品
  6
Continuous
 62
     3
100
AcDbLine
 10
1771.758619324748
 20
782.7613417649506
 30
0.0
 11
1771.758619324748
 21
782.2613417649506
 31
0.0
  0
ARC
  5
6E21
330
1E
100
AcDbEntity
  8
躯体と製品
  6
Continuous
 62
     3
100
AcDbCircle
 10
1773.258619324748
 20
783.1517297649506
 30
0.0
 40
0.5
100
AcDbArc
 50
284.0362430000043
 51
0.0
  0
LINE
  5
6E22
330
1E
100
AcDbEntity
  8
躯体と製品
  6
Continuous
 62
     3
100
AcDbLine
 10
1771.758619324748
 20
782.2613417649506
 30
0.0
 11
1773.379887324748
 21
782.6666587649506
 31
0.0
  0
LINE
  5
6E23
330
1E
100
AcDbEntity
  8
躯体と製品
  6
Continuous
 62
     3
100
AcDbLine
 10
1759.558619324748
 20
818.3613417649505
 30
0.0
 11
1759.558619324748
 21
820.4613417649508
 31
0.0
  0
ARC
  5
6E24
330
1E
100
AcDbEntity
  8
躯体と製品
  6
Continuous
 62
     3
100
AcDbCircle
 10
1761.058619324748
 20
819.9613417649509
 30
0.0
 40
0.2999999999999998
100
AcDbArc
 50
90.0
 51
180.0
  0
LINE
  5
6E25
330
1E
100
AcDbEntity
  8
躯体と製品
  6
Continuous
 62
     3
100
AcDbLine
 10
1760.758619324748
 20
818.3613417649505
 30
0.0
 11
1760.758619324748
 21
819.9613417649509
 31
0.0
  0
ARC
  5
6E26
330
1E
100
AcDbEntity
  8
躯体と製品
  6
Continuous
 62
     3
100
AcDbCircle
 10
1761.058619324748
 20
812.5613417649505
 30
0.0
 40
0.2999999999999998
100
AcDbArc
 50
180.0
 51
270.0
  0
LINE
  5
6E27
330
1E
100
AcDbEntity
  8
躯体と製品
  6
Continuous
 62
     3
100
AcDbLine
 10
1760.758619324748
 20
814.1613417649505
 30
0.0
 11
1760.758619324748
 21
812.5613417649505
 31
0.0
  0
LINE
  5
6E28
330
1E
100
AcDbEntity
  8
躯体と製品
  6
Continuous
 62
     3
100
AcDbLine
 10
1759.558619324748
 20
814.1613417649505
 30
0.0
 11
1759.558619324748
 21
812.0613417649506
 31
0.0
  0
ARC
  5
6E29
330
1E
100
AcDbEntity
  8
躯体と製品
  6
Continuous
 62
     3
100
AcDbCircle
 10
1760.158619324748
 20
818.3613417649505
 30
0.0
 40
0.5999999999999998
100
AcDbArc
 50
180.0
 51
0.0
  0
ARC
  5
6E2A
330
1E
100
AcDbEntity
  8
躯体と製品
  6
Continuous
 62
     3
100
AcDbCircle
 10
1760.158619324748
 20
814.1613417649505
 30
0.0
 40
0.5999999999999998
100
AcDbArc
 50
0.0
 51
180.0
  0
LINE
  5
6E2B
330
1E
100
AcDbEntity
  8
躯体と製品
  6
Continuous
 62
     7
100
AcDbLine
 10
1762.258619324748
 20
816.7613417649507
 30
0.0
 11
1763.909704324748
 21
816.2379687649506
 31
0.0
  0
ARC
  5
6E2C
330
1E
100
AcDbEntity
  8
躯体と製品
  6
Continuous
 62
     7
100
AcDbCircle
 10
1763.758619324748
 20
815.7613417649507
 30
0.0
 40
0.5
100
AcDbArc
 50
287.587954000005
 51
72.41204599999497
  0
LINE
  5
6E2D
330
1E
100
AcDbEntity
  8
躯体と製品
  6
Continuous
 62
     7
100
AcDbLine
 10
1760.758619324748
 20
812.7613417649506
 30
0.0
 11
1760.758619324748
 21
815.2613417649506
 31
0.0
  0
ARC
  5
6E2E
330
1E
100
AcDbEntity
  8
躯体と製品
  6
Continuous
 62
     7
100
AcDbCircle
 10
1761.258619324748
 20
818.7613417649506
 30
0.0
 40
0.5
100
AcDbArc
 50
90.0
 51
180.0
  0
ARC
  5
6E2F
330
1E
100
AcDbEntity
  8
躯体と製品
  6
Continuous
 62
     7
100
AcDbCircle
 10
1761.258619324748
 20
812.7613417649506
 30
0.0
 40
0.5
100
AcDbArc
 50
180.0
 51
270.0
  0
ARC
  5
6E30
330
1E
100
AcDbEntity
  8
躯体と製品
  6
Continuous
 62
     7
100
AcDbCircle
 10
1761.758619324748
 20
812.7613417649506
 30
0.0
 40
0.5
100
AcDbArc
 50
270.0
 51
0.0
  0
LINE
  5
6E31
330
1E
100
AcDbEntity
  8
躯体と製品
  6
Continuous
 62
     7
100
AcDbLine
 10
1761.258619324748
 20
812.2613417649507
 30
0.0
 11
1761.758619324748
 21
812.2613417649507
 31
0.0
  0
LINE
  5
6E32
330
1E
100
AcDbEntity
  8
躯体と製品
  6
Continuous
 62
     7
100
AcDbLine
 10
1761.258619324748
 20
819.2613417649507
 30
0.0
 11
1761.758619324748
 21
819.2613417649507
 31
0.0
  0
ARC
  5
6E33
330
1E
100
AcDbEntity
  8
躯体と製品
  6
Continuous
 62
     7
100
AcDbCircle
 10
1761.758619324748
 20
818.7613417649506
 30
0.0
 40
0.5
100
AcDbArc
 50
0.0
 51
90.0
  0
LINE
  5
6E34
330
1E
100
AcDbEntity
  8
躯体と製品
  6
Continuous
 62
     7
100
AcDbLine
 10
1762.258619324748
 20
816.7613417649507
 30
0.0
 11
1762.258619324748
 21
818.7613417649506
 31
0.0
  0
LINE
  5
6E35
330
1E
100
AcDbEntity
  8
躯体と製品
  6
Continuous
 62
     7
100
AcDbLine
 10
1762.258619324748
 20
814.7613417649505
 30
0.0
 11
1762.258619324748
 21
812.7613417649506
 31
0.0
  0
LINE
  5
6E36
330
1E
100
AcDbEntity
  8
躯体と製品
  6
Continuous
 62
     7
100
AcDbLine
 10
1762.258619324748
 20
814.7613417649505
 30
0.0
 11
1763.909704324748
 21
815.2847147649506
 31
0.0
  0
LINE
  5
6E37
330
1E
100
AcDbEntity
  8
躯体と製品
  6
Continuous
 62
     7
100
AcDbLine
 10
1760.758619324748
 20
818.7613417649506
 30
0.0
 11
1760.758619324748
 21
816.2613417649506
 31
0.0
  0
LINE
  5
6E38
330
1E
100
AcDbEntity
  8
躯体と製品
  6
Continuous
 62
     7
100
AcDbLine
 10
1760.162821146046
 20
815.2613417649506
 30
0.0
 11
1760.758619324748
 21
815.2613417649506
 31
0.0
  0
ARC
  5
6E39
330
1E
100
AcDbEntity
  8
躯体と製品
  6
Continuous
 62
     7
100
AcDbCircle
 10
1760.162821146046
 20
814.1613417649505
 30
0.0
 40
1.1
100
AcDbArc
 50
90.0
 51
175.0000000000005
  0
LINE
  5
6E3A
330
1E
100
AcDbEntity
  8
躯体と製品
  6
Continuous
 62
     7
100
AcDbLine
 10
1760.162821146046
 20
816.2613417649506
 30
0.0
 11
1760.758619324748
 21
816.2613417649506
 31
0.0
  0
ARC
  5
6E3B
330
1E
100
AcDbEntity
  8
躯体と製品
  6
Continuous
 62
     7
100
AcDbCircle
 10
1760.162821146046
 20
814.1613417649505
 30
0.0
 40
2.1
100
AcDbArc
 50
90.0
 51
175.0000000000005
  0
LINE
  5
6E3C
330
1E
100
AcDbEntity
  8
躯体と製品
  6
Continuous
 62
     7
100
AcDbLine
 10
1572.550552676392
 20
909.3528374948666
 30
0.0
 11
1574.550552676392
 21
909.3528374948666
 31
0.0
  0
ARC
  5
6E3D
330
1E
100
AcDbEntity
  8
躯体と製品
  6
Continuous
 62
     7
100
AcDbCircle
 10
1574.550552676392
 20
910.3528374948668
 30
0.0
 40
1.0
100
AcDbArc
 50
270.0
 51
0.0
  0
ARC
  5
6E3E
330
1E
100
AcDbEntity
  8
躯体と製品
  6
Continuous
 62
     7
100
AcDbCircle
 10
1572.550552676392
 20
910.3528374948668
 30
0.0
 40
1.0
100
AcDbArc
 50
180.0
 51
270.0
  0
ARC
  5
6E3F
330
1E
100
AcDbEntity
  8
躯体と製品
  6
Continuous
 62
     7
100
AcDbCircle
 10
1569.950552676392
 20
916.1528374948668
 30
0.0
 40
4.2
100
AcDbArc
 50
14.0957892441728
 51
42.74124453868362
  0
ARC
  5
6E40
330
1E
100
AcDbEntity
  8
躯体と製品
  6
Continuous
 62
     7
100
AcDbCircle
 10
1569.950552676392
 20
916.1528374948668
 30
0.0
 40
4.2
100
AcDbArc
 50
317.2587554613163
 51
345.9042107558272
  0
LINE
  5
6E41
330
1E
100
AcDbEntity
  8
躯体と製品
  6
Continuous
 62
     7
100
AcDbLine
 10
1573.616272251046
 20
916.6528374948667
 30
0.0
 11
1573.616272251046
 21
915.6528374948669
 31
0.0
  0
ARC
  5
6E42
330
1E
100
AcDbEntity
  8
躯体と製品
  6
Continuous
 62
     7
100
AcDbCircle
 10
1573.616272251046
 20
917.073316218271
 30
0.0
 40
0.4204787234042585
100
AcDbArc
 50
270.0
 51
14.0957892441728
  0
LINE
  5
6E43
330
1E
100
AcDbEntity
  8
躯体と製品
  6
Continuous
 62
     7
100
AcDbLine
 10
1571.550552676392
 20
912.6528374948666
 30
0.0
 11
1571.550552676392
 21
919.6528374948668
 31
0.0
  0
ARC
  5
6E44
330
1E
100
AcDbEntity
  8
躯体と製品
  6
Continuous
 62
     7
100
AcDbCircle
 10
1571.550552676392
 20
914.6742660662955
 30
0.0
 40
2.021428571428568
100
AcDbArc
 50
270.0
 51
317.2587554613163
  0
ARC
  5
6E45
330
1E
100
AcDbEntity
  8
躯体と製品
  6
Continuous
 62
     7
100
AcDbCircle
 10
1571.550552676392
 20
917.6314089234381
 30
0.0
 40
2.021428571428586
100
AcDbArc
 50
42.74124453868362
 51
90.0
  0
ARC
  5
6E46
330
1E
100
AcDbEntity
  8
躯体と製品
  6
Continuous
 62
     7
100
AcDbCircle
 10
1573.616272251046
 20
915.2323587714626
 30
0.0
 40
0.4204787234042585
100
AcDbArc
 50
345.9042107558272
 51
90.0
  0
ARC
  5
6E47
330
1E
100
AcDbEntity
  8
躯体と製品
  6
Continuous
 62
     7
100
AcDbCircle
 10
1581.850552676392
 20
874.726890825952
 30
0.0
 40
0.2999999999999999
100
AcDbArc
 50
85.25268174597099
 51
180.0
  0
LINE
  5
6E48
330
1E
100
AcDbEntity
  8
躯体と製品
  6
Continuous
 62
     7
100
AcDbLine
 10
1581.875381145255
 20
875.0258616391329
 30
0.0
 11
1587.52996894007
 21
874.5562681175979
 31
0.0
  0
LINE
  5
6E49
330
1E
100
AcDbEntity
  8
躯体と製品
  6
Continuous
 62
     7
100
AcDbLine
 10
1581.550552676392
 20
874.726890825952
 30
0.0
 11
1581.550552676392
 21
873.6528374948669
 31
0.0
  0
ARC
  5
6E4A
330
1E
100
AcDbEntity
  8
躯体と製品
  6
Continuous
 62
     7
100
AcDbCircle
 10
1581.550552676392
 20
875.052837494867
 30
0.0
 40
1.0
100
AcDbArc
 50
85.25268174597099
 51
180.0
  0
LINE
  5
6E4B
330
1E
100
AcDbEntity
  8
躯体と製品
  6
Continuous
 62
     7
100
AcDbLine
 10
1581.633314239269
 20
876.0494068721358
 30
0.0
 11
1587.114445814345
 21
875.5942182763027
 31
0.0
  0
LINE
  5
6E4C
330
1E
100
AcDbEntity
  8
躯体と製品
  6
Continuous
 62
     7
100
AcDbLine
 10
1580.550552676392
 20
875.052837494867
 30
0.0
 11
1580.550552676392
 21
873.3528374948669
 31
0.0
  0
LINE
  5
6E4D
330
1E
100
AcDbEntity
  8
躯体と製品
  6
Continuous
 62
     7
100
AcDbLine
 10
1587.654111284415
 20
876.0511221834665
 30
0.0
 11
1587.695492065889
 21
876.5494068721304
 31
0.0
  0
ARC
  5
6E4E
330
1E
100
AcDbEntity
  8
躯体と製品
  6
Continuous
 62
     7
100
AcDbCircle
 10
1587.612730502947
 20
875.5528374948667
 30
0.0
 40
1.0
100
AcDbArc
 50
265.252681745971
 51
355.2526817422747
  0
LINE
  5
6E4F
330
1E
100
AcDbEntity
  8
躯体と製品
  6
Continuous
 62
     7
100
AcDbLine
 10
1588.609299880211
 20
875.4700759319252
 30
0.0
 11
1588.692061443157
 21
876.4666453092532
 31
0.0
  0
ARC
  5
6E50
330
1E
100
AcDbEntity
  8
躯体と製品
  6
Continuous
 62
     7
100
AcDbCircle
 10
1588.193776754458
 20
876.5080260906971
 30
0.0
 40
0.4999999999354556
100
AcDbArc
 50
355.2526817459748
 51
175.2526817459747
  0
ARC
  5
6E51
330
1E
100
AcDbEntity
  8
躯体と製品
  6
Continuous
 62
     7
100
AcDbCircle
 10
1587.155826595783
 20
876.0925029649373
 30
0.0
 40
0.5
100
AcDbArc
 50
265.252681745971
 51
355.2526817422747
  0
ARC
  5
6E52
330
1E
100
AcDbEntity
  8
躯体と製品
  6
Continuous
 62
     7
100
AcDbCircle
 10
1581.550552676392
 20
873.3528374948669
 30
0.0
 40
1.0
100
AcDbArc
 50
180.0
 51
270.0
  0
LINE
  5
6E53
330
1E
100
AcDbEntity
  8
躯体と製品
  6
Continuous
 62
     7
100
AcDbLine
 10
1581.850552676392
 20
873.3528374948669
 30
0.0
 11
1590.050552676392
 21
873.3528374948669
 31
0.0
  0
LINE
  5
6E54
330
1E
100
AcDbEntity
  8
躯体と製品
  6
Continuous
 62
     7
100
AcDbLine
 10
1590.550552676392
 20
872.8528374948668
 30
0.0
 11
1590.550552676392
 21
872.3528374948669
 31
0.0
  0
ARC
  5
6E55
330
1E
100
AcDbEntity
  8
躯体と製品
  6
Continuous
 62
     7
100
AcDbCircle
 10
1590.050552676392
 20
872.8528374948668
 30
0.0
 40
0.5
100
AcDbArc
 50
0.0
 51
90.0
  0
POINT
  5
6E56
330
1E
100
AcDbEntity
  8
躯体と製品
 62
     4
100
AcDbPoint
 10
1591.550552676392
 20
909.3528374948666
 30
0.0
  0
LINE
  5
6E57
330
1E
100
AcDbEntity
  8
躯体と製品
  6
DASHED1
 62
     4
100
AcDbLine
 10
1570.350552676392
 20
914.1528374948668
 30
0.0
 11
1571.550552676392
 21
914.1528374948668
 31
0.0
  0
LINE
  5
6E58
330
1E
100
AcDbEntity
  8
躯体と製品
  6
DASHED1
 62
     4
100
AcDbLine
 10
1570.350552676392
 20
918.1528374948667
 30
0.0
 11
1571.550552676392
 21
918.1528374948667
 31
0.0
  0
LINE
  5
6E59
330
1E
100
AcDbEntity
  8
躯体と製品
  6
Continuous
 62
     3
100
AcDbLine
 10
1590.350552676392
 20
875.5528374948667
 30
0.0
 11
1590.350552676392
 21
907.1528374948668
 31
0.0
  0
ARC
  5
6E5A
330
1E
100
AcDbEntity
  8
躯体と製品
  6
Continuous
 62
     3
100
AcDbCircle
 10
1589.350552676392
 20
875.5528374948667
 30
0.0
 40
1.0
100
AcDbArc
 50
270.0
 51
0.0
  0
LINE
  5
6E5B
330
1E
100
AcDbEntity
  8
躯体と製品
  6
Continuous
 62
     3
100
AcDbLine
 10
1589.350552676392
 20
874.5528374948667
 30
0.0
 11
1581.550552676392
 21
874.5528374948667
 31
0.0
  0
ARC
  5
6E5C
330
1E
100
AcDbEntity
  8
躯体と製品
  6
Continuous
 62
     3
100
AcDbCircle
 10
1589.350552676392
 20
875.5528374948667
 30
0.0
 40
2.2
100
AcDbArc
 50
270.0
 51
0.0
  0
LINE
  5
6E5D
330
1E
100
AcDbEntity
  8
躯体と製品
  6
Continuous
 62
     3
100
AcDbLine
 10
1581.550552676392
 20
874.5528374948667
 30
0.0
 11
1581.550552676392
 21
873.3528374948669
 31
0.0
  0
LINE
  5
6E5E
330
1E
100
AcDbEntity
  8
躯体と製品
  6
Continuous
 62
     3
100
AcDbLine
 10
1572.550552676392
 20
908.1528374948666
 30
0.0
 11
1589.350552676392
 21
908.1528374948666
 31
0.0
  0
LINE
  5
6E5F
330
1E
100
AcDbEntity
  8
躯体と製品
  6
Continuous
 62
     3
100
AcDbLine
 10
1561.550552676392
 20
921.3528374948666
 30
0.0
 11
1561.550552676392
 21
920.1528374948669
 31
0.0
  0
LINE
  5
6E60
330
1E
100
AcDbEntity
  8
躯体と製品
  6
Continuous
 62
     3
100
AcDbLine
 10
1561.550552676392
 20
920.1528374948669
 30
0.0
 11
1569.350552676392
 21
920.1528374948669
 31
0.0
  0
ARC
  5
6E61
330
1E
100
AcDbEntity
  8
躯体と製品
  6
Continuous
 62
     3
100
AcDbCircle
 10
1589.350552676392
 20
907.1528374948668
 30
0.0
 40
2.2
100
AcDbArc
 50
0.0
 51
90.0
  0
ARC
  5
6E62
330
1E
100
AcDbEntity
  8
躯体と製品
  6
Continuous
 62
     3
100
AcDbCircle
 10
1572.550552676392
 20
910.3528374948668
 30
0.0
 40
2.2
100
AcDbArc
 50
180.0
 51
270.0
  0
ARC
  5
6E63
330
1E
100
AcDbEntity
  8
躯体と製品
  6
Continuous
 62
     3
100
AcDbCircle
 10
1589.350552676392
 20
907.1528374948668
 30
0.0
 40
1.0
100
AcDbArc
 50
0.0
 51
90.0
  0
ARC
  5
6E64
330
1E
100
AcDbEntity
  8
躯体と製品
  6
Continuous
 62
     3
100
AcDbCircle
 10
1572.550552676392
 20
910.3528374948668
 30
0.0
 40
1.0
100
AcDbArc
 50
180.0
 51
270.0
  0
LINE
  5
6E65
330
1E
100
AcDbEntity
  8
躯体と製品
  6
Continuous
 62
     3
100
AcDbLine
 10
1571.550552676392
 20
919.1528374948669
 30
0.0
 11
1571.550552676392
 21
910.3528374948668
 31
0.0
  0
LINE
  5
6E66
330
1E
100
AcDbEntity
  8
躯体と製品
  6
Continuous
 62
     3
100
AcDbLine
 10
1570.350552676392
 20
910.3528374948668
 30
0.0
 11
1570.350552676392
 21
919.1528374948669
 31
0.0
  0
ARC
  5
6E67
330
1E
100
AcDbEntity
  8
躯体と製品
  6
Continuous
 62
     3
100
AcDbCircle
 10
1569.350552676392
 20
919.1528374948669
 30
0.0
 40
2.2
100
AcDbArc
 50
0.0
 51
90.0
  0
LINE
  5
6E68
330
1E
100
AcDbEntity
  8
躯体と製品
  6
Continuous
 62
     3
100
AcDbLine
 10
1569.350552676392
 20
921.3528374948666
 30
0.0
 11
1561.550552676392
 21
921.3528374948666
 31
0.0
  0
ARC
  5
6E69
330
1E
100
AcDbEntity
  8
躯体と製品
  6
Continuous
 62
     3
100
AcDbCircle
 10
1569.350552676392
 20
919.1528374948669
 30
0.0
 40
1.0
100
AcDbArc
 50
0.0
 51
90.0
  0
LINE
  5
6E6A
330
1E
100
AcDbEntity
  8
躯体と製品
  6
Continuous
 62
     3
100
AcDbLine
 10
1561.550552676392
 20
921.3404934948668
 30
0.0
 11
1561.562896676392
 21
921.3528374948666
 31
0.0
  0
LINE
  5
6E6B
330
1E
100
AcDbEntity
  8
躯体と製品
  6
DASHED1
 62
     7
100
AcDbLine
 10
1545.350552676392
 20
869.6528364948669
 30
0.0
 11
1557.350552676392
 21
869.6528364948669
 31
0.0
  0
LINE
  5
6E6C
330
1E
100
AcDbEntity
  8
躯体と製品
  6
DASHED1
 62
     7
100
AcDbLine
 10
1537.550171676392
 20
861.0296004948668
 30
0.0
 11
1542.208151676392
 21
859.3342344948668
 31
0.0
  0
LINE
  5
6E6D
330
1E
100
AcDbEntity
  8
躯体と製品
  6
DASHED1
 62
     7
100
AcDbLine
 10
1549.154192676392
 20
871.9751754948669
 30
0.0
 11
1542.550172676392
 21
871.0317444948669
 31
0.0
  0
LINE
  5
6E6E
330
1E
100
AcDbEntity
  8
躯体と製品
  6
DASHED1
 62
     7
100
AcDbLine
 10
1523.219996676392
 20
863.7833904948671
 30
0.0
 11
1521.350552676392
 21
865.6528374948669
 31
0.0
  0
LINE
  5
6E6F
330
1E
100
AcDbEntity
  8
躯体と製品
  6
DASHED1
 62
     7
100
AcDbLine
 10
1522.570730676392
 20
860.2445604948668
 30
0.0
 11
1520.573471676392
 21
860.1398904948668
 31
0.0
  0
LINE
  5
6E70
330
1E
100
AcDbEntity
  8
躯体と製品
  6
DASHED1
 62
     7
100
AcDbLine
 10
1522.466057676392
 20
862.2418194948668
 30
0.0
 11
1522.570730676392
 21
860.2445604948668
 31
0.0
  0
LINE
  5
6E71
330
1E
100
AcDbEntity
  8
躯体と製品
  6
DASHED1
 62
     7
100
AcDbLine
 10
1524.463316676392
 20
862.3464924948669
 30
0.0
 11
1522.466057676392
 21
862.2418194948668
 31
0.0
  0
LINE
  5
6E72
330
1E
100
AcDbEntity
  8
躯体と製品
  6
DASHED1
 62
     7
100
AcDbLine
 10
1525.566617676392
 20
860.4015684948667
 30
0.0
 11
1524.463316676392
 21
862.3464924948669
 31
0.0
  0
LINE
  5
6E73
330
1E
100
AcDbEntity
  8
躯体と製品
  6
DASHED1
 62
     7
100
AcDbLine
 10
1527.563876676392
 20
860.5062414948671
 30
0.0
 11
1525.566617676392
 21
860.4015684948667
 31
0.0
  0
LINE
  5
6E74
330
1E
100
AcDbEntity
  8
躯体と製品
  6
DASHED1
 62
     7
100
AcDbLine
 10
1527.459206676392
 20
862.5035004948669
 30
0.0
 11
1527.563876676392
 21
860.5062414948671
 31
0.0
  0
LINE
  5
6E75
330
1E
100
AcDbEntity
  8
躯体と製品
  6
DASHED1
 62
     7
100
AcDbLine
 10
1529.456465676392
 20
862.6081734948668
 30
0.0
 11
1527.459206676392
 21
862.5035004948669
 31
0.0
  0
LINE
  5
6E76
330
1E
100
AcDbEntity
  8
躯体と製品
  6
DASHED1
 62
     7
100
AcDbLine
 10
1530.559766676392
 20
860.6632494948668
 30
0.0
 11
1529.456465676392
 21
862.6081734948668
 31
0.0
  0
LINE
  5
6E77
330
1E
100
AcDbEntity
  8
躯体と製品
  6
DASHED1
 62
     7
100
AcDbLine
 10
1532.557025676392
 20
860.7679224948666
 30
0.0
 11
1530.559766676392
 21
860.6632494948668
 31
0.0
  0
LINE
  5
6E78
330
1E
100
AcDbEntity
  8
躯体と製品
  6
DASHED1
 62
     7
100
AcDbLine
 10
1532.452352676392
 20
862.765181494867
 30
0.0
 11
1532.557025676392
 21
860.7679224948666
 31
0.0
  0
LINE
  5
6E79
330
1E
100
AcDbEntity
  8
躯体と製品
  6
DASHED1
 62
     7
100
AcDbLine
 10
1534.449611676392
 20
862.8698514948668
 30
0.0
 11
1532.452352676392
 21
862.765181494867
 31
0.0
  0
LINE
  5
6E7A
330
1E
100
AcDbEntity
  8
躯体と製品
  6
DASHED1
 62
     7
100
AcDbLine
 10
1535.552912676392
 20
860.924930494867
 30
0.0
 11
1534.449611676392
 21
862.8698514948668
 31
0.0
  0
LINE
  5
6E7B
330
1E
100
AcDbEntity
  8
躯体と製品
  6
DASHED1
 62
     7
100
AcDbLine
 10
1537.550171676392
 20
861.0296004948668
 30
0.0
 11
1535.552912676392
 21
860.924930494867
 31
0.0
  0
LINE
  5
6E7C
330
1E
100
AcDbEntity
  8
躯体と製品
  6
DASHED1
 62
     7
100
AcDbLine
 10
1537.445501676392
 20
863.026859494867
 30
0.0
 11
1537.550171676392
 21
861.0296004948668
 31
0.0
  0
LINE
  5
6E7D
330
1E
100
AcDbEntity
  8
躯体と製品
  6
DASHED1
 62
     7
100
AcDbLine
 10
1539.442760676392
 20
863.1315324948669
 30
0.0
 11
1537.445501676392
 21
863.026859494867
 31
0.0
  0
LINE
  5
6E7E
330
1E
100
AcDbEntity
  8
躯体と製品
  6
DASHED1
 62
     7
100
AcDbLine
 10
1540.546061676392
 20
861.1866084948669
 30
0.0
 11
1539.442760676392
 21
863.1315324948669
 31
0.0
  0
LINE
  5
6E7F
330
1E
100
AcDbEntity
  8
躯体と製品
  6
DASHED1
 62
     7
100
AcDbLine
 10
1518.393035676392
 20
863.5304214948666
 30
0.0
 11
1549.350551676392
 21
865.1528364948669
 31
0.0
  0
LINE
  5
6E80
330
1E
100
AcDbEntity
  8
躯体と製品
  6
DASHED1
 62
     7
100
AcDbLine
 10
1518.471539676392
 20
862.0324764948666
 30
0.0
 11
1518.393035676392
 21
863.5304214948666
 31
0.0
  0
LINE
  5
6E81
330
1E
100
AcDbEntity
  8
躯体と製品
  6
DASHED1
 62
     7
100
AcDbLine
 10
1520.573471676392
 20
860.1398904948668
 30
0.0
 11
1518.471539676392
 21
862.0324764948666
 31
0.0
  0
LINE
  5
6E82
330
1E
100
AcDbEntity
  8
躯体と製品
  6
DASHED1
 62
     7
100
AcDbLine
 10
1520.390294676392
 20
863.635094494867
 30
0.0
 11
1520.573471676392
 21
860.1398904948668
 31
0.0
  0
LINE
  5
6E83
330
1E
100
AcDbEntity
  8
躯体と製品
  6
DASHED1
 62
     7
100
AcDbLine
 10
1542.543320676392
 20
861.291281494867
 30
0.0
 11
1540.546061676392
 21
861.1866084948669
 31
0.0
  0
LINE
  5
6E84
330
1E
100
AcDbEntity
  8
躯体と製品
  6
DASHED1
 62
     7
100
AcDbLine
 10
1542.438647676392
 20
863.288540494867
 30
0.0
 11
1542.543320676392
 21
861.291281494867
 31
0.0
  0
LINE
  5
6E85
330
1E
100
AcDbEntity
  8
躯体と製品
  6
DASHED1
 62
     7
100
AcDbLine
 10
1544.435906676392
 20
863.3932104948668
 30
0.0
 11
1542.438647676392
 21
863.288540494867
 31
0.0
  0
LINE
  5
6E86
330
1E
100
AcDbEntity
  8
躯体と製品
  6
DASHED1
 62
     7
100
AcDbLine
 10
1557.350552676392
 20
860.6528364948669
 30
0.0
 11
1552.350551676392
 21
861.6528354948668
 31
0.0
  0
LINE
  5
6E87
330
1E
100
AcDbEntity
  8
躯体と製品
  6
DASHED1
 62
     7
100
AcDbLine
 10
1522.570730676392
 20
871.0611114948669
 30
0.0
 11
1520.573471676392
 21
871.1657814948669
 31
0.0
  0
LINE
  5
6E88
330
1E
100
AcDbEntity
  8
躯体と製品
  6
DASHED1
 62
     7
100
AcDbLine
 10
1522.466057676392
 20
869.0638524948667
 30
0.0
 11
1522.570730676392
 21
871.0611114948669
 31
0.0
  0
LINE
  5
6E89
330
1E
100
AcDbEntity
  8
躯体と製品
  6
DASHED1
 62
     7
100
AcDbLine
 10
1524.463316676392
 20
868.9591794948668
 30
0.0
 11
1522.466057676392
 21
869.0638524948667
 31
0.0
  0
LINE
  5
6E8A
330
1E
100
AcDbEntity
  8
躯体と製品
  6
DASHED1
 62
     7
100
AcDbLine
 10
1525.566617676392
 20
870.9041034948668
 30
0.0
 11
1524.463316676392
 21
868.9591794948668
 31
0.0
  0
LINE
  5
6E8B
330
1E
100
AcDbEntity
  8
躯体と製品
  6
DASHED1
 62
     7
100
AcDbLine
 10
1527.563876676392
 20
870.799430494867
 30
0.0
 11
1525.566617676392
 21
870.9041034948668
 31
0.0
  0
LINE
  5
6E8C
330
1E
100
AcDbEntity
  8
躯体と製品
  6
DASHED1
 62
     7
100
AcDbLine
 10
1527.459206676392
 20
868.802171494867
 30
0.0
 11
1527.563876676392
 21
870.799430494867
 31
0.0
  0
LINE
  5
6E8D
330
1E
100
AcDbEntity
  8
躯体と製品
  6
DASHED1
 62
     7
100
AcDbLine
 10
1529.456465676392
 20
868.6974984948667
 30
0.0
 11
1527.459206676392
 21
868.802171494867
 31
0.0
  0
LINE
  5
6E8E
330
1E
100
AcDbEntity
  8
躯体と製品
  6
DASHED1
 62
     7
100
AcDbLine
 10
1530.559766676392
 20
870.6424224948669
 30
0.0
 11
1529.456465676392
 21
868.6974984948667
 31
0.0
  0
LINE
  5
6E8F
330
1E
100
AcDbEntity
  8
躯体と製品
  6
DASHED1
 62
     7
100
AcDbLine
 10
1532.557025676392
 20
870.5377494948669
 30
0.0
 11
1530.559766676392
 21
870.6424224948669
 31
0.0
  0
LINE
  5
6E90
330
1E
100
AcDbEntity
  8
躯体と製品
  6
DASHED1
 62
     7
100
AcDbLine
 10
1532.452352676392
 20
868.5404904948669
 30
0.0
 11
1532.557025676392
 21
870.5377494948669
 31
0.0
  0
LINE
  5
6E91
330
1E
100
AcDbEntity
  8
躯体と製品
  6
DASHED1
 62
     7
100
AcDbLine
 10
1534.449611676392
 20
868.4358204948669
 30
0.0
 11
1532.452352676392
 21
868.5404904948669
 31
0.0
  0
LINE
  5
6E92
330
1E
100
AcDbEntity
  8
躯体と製品
  6
DASHED1
 62
     7
100
AcDbLine
 10
1535.552912676392
 20
870.3807414948668
 30
0.0
 11
1534.449611676392
 21
868.4358204948669
 31
0.0
  0
LINE
  5
6E93
330
1E
100
AcDbEntity
  8
躯体と製品
  6
DASHED1
 62
     7
100
AcDbLine
 10
1537.550171676392
 20
870.2760714948666
 30
0.0
 11
1535.552912676392
 21
870.3807414948668
 31
0.0
  0
LINE
  5
6E94
330
1E
100
AcDbEntity
  8
躯体と製品
  6
DASHED1
 62
     7
100
AcDbLine
 10
1537.445501676392
 20
868.2788124948668
 30
0.0
 11
1537.550171676392
 21
870.2760714948666
 31
0.0
  0
LINE
  5
6E95
330
1E
100
AcDbEntity
  8
躯体と製品
  6
DASHED1
 62
     7
100
AcDbLine
 10
1539.442760676392
 20
868.1741394948669
 30
0.0
 11
1537.445501676392
 21
868.2788124948668
 31
0.0
  0
LINE
  5
6E96
330
1E
100
AcDbEntity
  8
躯体と製品
  6
DASHED1
 62
     7
100
AcDbLine
 10
1540.546061676392
 20
870.1190634948668
 30
0.0
 11
1539.442760676392
 21
868.1741394948669
 31
0.0
  0
LINE
  5
6E97
330
1E
100
AcDbEntity
  8
躯体と製品
  6
DASHED1
 62
     7
100
AcDbLine
 10
1518.393035676392
 20
867.7752504948669
 30
0.0
 11
1549.350551676392
 21
866.152835494867
 31
0.0
  0
LINE
  5
6E98
330
1E
100
AcDbEntity
  8
躯体と製品
  6
DASHED1
 62
     7
100
AcDbLine
 10
1518.471539676392
 20
869.2731954948669
 30
0.0
 11
1518.393035676392
 21
867.7752504948669
 31
0.0
  0
LINE
  5
6E99
330
1E
100
AcDbEntity
  8
躯体と製品
  6
DASHED1
 62
     7
100
AcDbLine
 10
1520.573471676392
 20
871.1657814948669
 30
0.0
 11
1518.471539676392
 21
869.2731954948669
 31
0.0
  0
LINE
  5
6E9A
330
1E
100
AcDbEntity
  8
躯体と製品
  6
DASHED1
 62
     7
100
AcDbLine
 10
1520.390294676392
 20
867.6705774948668
 30
0.0
 11
1520.573471676392
 21
871.1657814948669
 31
0.0
  0
LINE
  5
6E9B
330
1E
100
AcDbEntity
  8
躯体と製品
  6
DASHED1
 62
     7
100
AcDbLine
 10
1542.543320676392
 20
870.0143904948671
 30
0.0
 11
1540.546061676392
 21
870.1190634948668
 31
0.0
  0
LINE
  5
6E9C
330
1E
100
AcDbEntity
  8
躯体と製品
  6
DASHED1
 62
     7
100
AcDbLine
 10
1542.438647676392
 20
868.0171314948671
 30
0.0
 11
1542.543320676392
 21
870.0143904948671
 31
0.0
  0
LINE
  5
6E9D
330
1E
100
AcDbEntity
  8
躯体と製品
  6
DASHED1
 62
     7
100
AcDbLine
 10
1544.435906676392
 20
867.9124614948669
 30
0.0
 11
1542.438647676392
 21
868.0171314948671
 31
0.0
  0
LINE
  5
6E9E
330
1E
100
AcDbEntity
  8
躯体と製品
  6
DASHED1
 62
     7
100
AcDbLine
 10
1523.219996676392
 20
867.5222814948668
 30
0.0
 11
1521.350552676392
 21
865.6528374948669
 31
0.0
  0
LINE
  5
6E9F
330
1E
100
AcDbEntity
  8
躯体と製品
  6
DASHED1
 62
     7
100
AcDbLine
 10
1552.350551676392
 20
865.6528374948669
 30
0.0
 11
1557.350552676392
 21
865.6528374948669
 31
0.0
  0
LINE
  5
6EA0
330
1E
100
AcDbEntity
  8
躯体と製品
  6
DASHED1
 62
     7
100
AcDbLine
 10
1557.350552676392
 20
864.6528354948669
 30
0.0
 11
1552.350551676392
 21
865.6528374948669
 31
0.0
  0
LINE
  5
6EA1
330
1E
100
AcDbEntity
  8
躯体と製品
  6
DASHED1
 62
     7
100
AcDbLine
 10
1557.350552676392
 20
866.6528364948668
 30
0.0
 11
1552.350551676392
 21
865.6528374948669
 31
0.0
  0
LINE
  5
6EA2
330
1E
100
AcDbEntity
  8
躯体と製品
  6
DASHED1
 62
     7
100
AcDbLine
 10
1557.350552676392
 20
870.6528354948668
 30
0.0
 11
1552.350551676392
 21
869.6528364948669
 31
0.0
  0
LINE
  5
6EA3
330
1E
100
AcDbEntity
  8
躯体と製品
  6
DASHED1
 62
     7
100
AcDbLine
 10
1545.350552676392
 20
869.6528364948669
 30
0.0
 11
1544.435906676392
 21
867.9124614948669
 31
0.0
  0
LINE
  5
6EA4
330
1E
100
AcDbEntity
  8
躯体と製品
  6
DASHED1
 62
     7
100
AcDbLine
 10
1549.350551676392
 20
866.152835494867
 30
0.0
 11
1549.350551676392
 21
865.1528364948669
 31
0.0
  0
ARC
  5
6EA5
330
1E
100
AcDbEntity
  8
躯体と製品
  6
DASHED1
 62
     7
100
AcDbCircle
 10
1549.097624676392
 20
872.3711544948669
 30
0.0
 40
0.3999990000000001
100
AcDbArc
 50
278.1301019999978
 51
8.130102000001478
  0
LINE
  5
6EA6
330
1E
100
AcDbEntity
  8
躯体と製品
  6
DASHED1
 62
     7
100
AcDbLine
 10
1549.465487676392
 20
872.6245494948669
 30
0.0
 11
1549.493603676392
 21
872.427725494867
 31
0.0
  0
ARC
  5
6EA7
330
1E
100
AcDbEntity
  8
躯体と製品
  6
DASHED1
 62
     7
100
AcDbCircle
 10
1549.069505676392
 20
872.5679814948669
 30
0.0
 40
0.3999990000000001
100
AcDbArc
 50
8.130102000001478
 51
98.29846599999713
  0
LINE
  5
6EA8
330
1E
100
AcDbEntity
  8
躯体と製品
  6
DASHED1
 62
     7
100
AcDbLine
 10
1542.208151676392
 20
871.9714374948669
 30
0.0
 11
1549.011773676392
 21
872.963792494867
 31
0.0
  0
LINE
  5
6EA9
330
1E
100
AcDbEntity
  8
躯体と製品
  6
DASHED1
 62
     7
100
AcDbLine
 10
1549.154192676392
 20
859.330496494867
 30
0.0
 11
1542.550172676392
 21
860.2739274948667
 31
0.0
  0
ARC
  5
6EAA
330
1E
100
AcDbEntity
  8
躯体と製品
  6
DASHED1
 62
     7
100
AcDbCircle
 10
1549.097624676392
 20
858.9345174948668
 30
0.0
 40
0.3999990000000001
100
AcDbArc
 50
351.8698979999985
 51
81.86989800000221
  0
LINE
  5
6EAB
330
1E
100
AcDbEntity
  8
躯体と製品
  6
DASHED1
 62
     7
100
AcDbLine
 10
1549.465487676392
 20
858.6811224948668
 30
0.0
 11
1549.493603676392
 21
858.8779494948667
 31
0.0
  0
ARC
  5
6EAC
330
1E
100
AcDbEntity
  8
躯体と製品
  6
DASHED1
 62
     7
100
AcDbCircle
 10
1549.069505676392
 20
858.7376904948667
 30
0.0
 40
0.3999990000000001
100
AcDbArc
 50
261.7015340000029
 51
351.8698979999985
  0
LINE
  5
6EAD
330
1E
100
AcDbEntity
  8
躯体と製品
  6
DASHED1
 62
     7
100
AcDbLine
 10
1542.208151676392
 20
859.3342344948668
 30
0.0
 11
1549.011773676392
 21
858.341879494867
 31
0.0
  0
LINE
  5
6EAE
330
1E
100
AcDbEntity
  8
躯体と製品
  6
DASHED1
 62
     7
100
AcDbLine
 10
1537.550171676392
 20
862.0937784948669
 30
0.0
 11
1542.550172676392
 21
860.2739274948667
 31
0.0
  0
LINE
  5
6EAF
330
1E
100
AcDbEntity
  8
躯体と製品
  6
DASHED1
 62
     7
100
AcDbLine
 10
1537.550171676392
 20
870.2760714948666
 30
0.0
 11
1542.208151676392
 21
871.9714374948669
 31
0.0
  0
LINE
  5
6EB0
330
1E
100
AcDbEntity
  8
躯体と製品
  6
DASHED1
 62
     7
100
AcDbLine
 10
1537.550171676392
 20
869.2118934948668
 30
0.0
 11
1542.550172676392
 21
871.0317444948669
 31
0.0
  0
LINE
  5
6EB1
330
1E
100
AcDbEntity
  8
躯体と製品
  6
DASHED1
 62
     7
100
AcDbLine
 10
1545.350552676392
 20
861.6528354948668
 30
0.0
 11
1557.350552676392
 21
861.6528354948668
 31
0.0
  0
LINE
  5
6EB2
330
1E
100
AcDbEntity
  8
躯体と製品
  6
DASHED1
 62
     7
100
AcDbLine
 10
1544.435906676392
 20
863.3932104948668
 30
0.0
 11
1545.350552676392
 21
861.6528354948668
 31
0.0
  0
LINE
  5
6EB3
330
1E
100
AcDbEntity
  8
躯体と製品
  6
Continuous
 62
     7
100
AcDbLine
 10
1570.350552676392
 20
914.1528374948668
 30
0.0
 11
1567.350552676392
 21
914.1528374948668
 31
0.0
  0
LINE
  5
6EB4
330
1E
100
AcDbEntity
  8
躯体と製品
  6
Continuous
 62
     4
100
AcDbLine
 10
1570.350552676392
 20
914.6528374948669
 30
0.0
 11
1561.850552676392
 21
914.6528374948669
 31
0.0
  0
LINE
  5
6EB5
330
1E
100
AcDbEntity
  8
躯体と製品
  6
Continuous
 62
     4
100
AcDbLine
 10
1570.350552676392
 20
917.6528374948667
 30
0.0
 11
1561.850552676392
 21
917.6528374948667
 31
0.0
  0
LINE
  5
6EB6
330
1E
100
AcDbEntity
  8
躯体と製品
  6
Continuous
 62
     7
100
AcDbLine
 10
1570.350552676392
 20
918.1528374948667
 30
0.0
 11
1567.350552676392
 21
918.1528374948667
 31
0.0
  0
LINE
  5
6EB7
330
1E
100
AcDbEntity
  8
躯体と製品
  6
Continuous
 62
     4
100
AcDbLine
 10
1562.350552676392
 20
918.1528374948667
 30
0.0
 11
1562.350552676392
 21
914.1528374948668
 31
0.0
  0
LINE
  5
6EB8
330
1E
100
AcDbEntity
  8
躯体と製品
  6
Continuous
 62
     7
100
AcDbLine
 10
1561.850552676392
 20
917.6528374948667
 30
0.0
 11
1561.850552676392
 21
914.6528374948669
 31
0.0
  0
LINE
  5
6EB9
330
1E
100
AcDbEntity
  8
躯体と製品
  6
Continuous
 62
     7
100
AcDbLine
 10
1561.850552676392
 20
917.6528374948667
 30
0.0
 11
1562.350552676392
 21
918.1528374948667
 31
0.0
  0
LINE
  5
6EBA
330
1E
100
AcDbEntity
  8
躯体と製品
  6
Continuous
 62
     7
100
AcDbLine
 10
1561.850552676392
 20
914.6528374948669
 30
0.0
 11
1562.350552676392
 21
914.1528374948668
 31
0.0
  0
LINE
  5
6EBB
330
1E
100
AcDbEntity
  8
躯体と製品
  6
Continuous
 62
     4
100
AcDbLine
 10
1569.050552856686
 20
911.7424952073543
 30
0.0
 11
1569.260895144198
 21
911.9528374948663
 31
0.0
  0
LINE
  5
6EBC
330
1E
100
AcDbEntity
  8
躯体と製品
  6
Continuous
 62
     4
100
AcDbLine
 10
1569.050554068869
 20
910.3282828571636
 30
0.0
 11
1569.850553676392
 21
911.128282464687
 31
0.0
  0
LINE
  5
6EBD
330
1E
100
AcDbEntity
  8
躯体と製品
  6
Continuous
 62
     4
100
AcDbLine
 10
1569.050555281051
 20
908.9140705069725
 30
0.0
 11
1569.850553676392
 21
909.7140689023133
 31
0.0
  0
LINE
  5
6EBE
330
1E
100
AcDbEntity
  8
躯体と製品
  6
Continuous
 62
     4
100
AcDbLine
 10
1569.274331721284
 20
907.7236333848325
 30
0.0
 11
1569.868995402028
 21
908.3182970655766
 31
0.0
  0
LINE
  5
6EBF
330
1E
100
AcDbEntity
  8
躯体と製品
  6
Continuous
 62
     4
100
AcDbLine
 10
1570.135640181676
 20
907.1707282828507
 30
0.0
 11
1570.917750393692
 21
907.952838494867
 31
0.0
  0
LINE
  5
6EC0
330
1E
100
AcDbEntity
  8
躯体と製品
  6
Continuous
 62
     4
100
AcDbLine
 10
1571.531962956066
 20
907.152837494867
 30
0.0
 11
1572.331963956065
 21
907.9528384948666
 31
0.0
  0
LINE
  5
6EC1
330
1E
100
AcDbEntity
  8
躯体と製品
  6
Continuous
 62
     4
100
AcDbLine
 10
1572.946176518439
 20
907.1528374948668
 30
0.0
 11
1573.746177518438
 21
907.9528384948666
 31
0.0
  0
LINE
  5
6EC2
330
1E
100
AcDbEntity
  8
躯体と製品
  6
Continuous
 62
     4
100
AcDbLine
 10
1574.360390080808
 20
907.1528374948666
 30
0.0
 11
1575.160391080808
 21
907.9528384948662
 31
0.0
  0
LINE
  5
6EC3
330
1E
100
AcDbEntity
  8
躯体と製品
  6
Continuous
 62
     4
100
AcDbLine
 10
1575.774603643181
 20
907.1528374948663
 30
0.0
 11
1576.574604643181
 21
907.9528384948657
 31
0.0
  0
LINE
  5
6EC4
330
1E
100
AcDbEntity
  8
躯体と製品
  6
Continuous
 62
     4
100
AcDbLine
 10
1577.188817205554
 20
907.1528374948663
 30
0.0
 11
1577.988818205554
 21
907.9528384948657
 31
0.0
  0
LINE
  5
6EC5
330
1E
100
AcDbEntity
  8
躯体と製品
  6
Continuous
 62
     4
100
AcDbLine
 10
1578.603030767928
 20
907.1528374948661
 30
0.0
 11
1579.403031767928
 21
907.9528384948666
 31
0.0
  0
LINE
  5
6EC6
330
1E
100
AcDbEntity
  8
躯体と製品
  6
Continuous
 62
     4
100
AcDbLine
 10
1580.017244330301
 20
907.1528374948664
 30
0.0
 11
1580.817245330302
 21
907.952838494867
 31
0.0
  0
LINE
  5
6EC7
330
1E
100
AcDbEntity
  8
躯体と製品
  6
Continuous
 62
     4
100
AcDbLine
 10
1581.431457892674
 20
907.1528374948663
 30
0.0
 11
1582.231458892675
 21
907.952838494867
 31
0.0
  0
LINE
  5
6EC8
330
1E
100
AcDbEntity
  8
躯体と製品
  6
Continuous
 62
     4
100
AcDbLine
 10
1582.845671455048
 20
907.152837494867
 30
0.0
 11
1583.645672455048
 21
907.9528384948666
 31
0.0
  0
LINE
  5
6EC9
330
1E
100
AcDbEntity
  8
躯体と製品
  6
Continuous
 62
     4
100
AcDbLine
 10
1584.259885017422
 20
907.1528374948668
 30
0.0
 11
1585.059886017421
 21
907.9528384948666
 31
0.0
  0
LINE
  5
6ECA
330
1E
100
AcDbEntity
  8
躯体と製品
  6
Continuous
 62
     4
100
AcDbLine
 10
1585.674098579795
 20
907.1528374948666
 30
0.0
 11
1586.474099579794
 21
907.9528384948662
 31
0.0
  0
LINE
  5
6ECB
330
1E
100
AcDbEntity
  8
躯体と製品
  6
Continuous
 62
     4
100
AcDbLine
 10
1587.088312142168
 20
907.1528374948664
 30
0.0
 11
1587.888313142167
 21
907.9528384948662
 31
0.0
  0
LINE
  5
6ECC
330
1E
100
AcDbEntity
  8
躯体と製品
  6
Continuous
 62
     4
100
AcDbLine
 10
1588.502525704542
 20
907.1528374948673
 30
0.0
 11
1589.216250751355
 21
907.8665625416803
 31
0.0
  0
LINE
  5
6ECD
330
1E
100
AcDbEntity
  8
躯体と製品
  6
Continuous
 62
     4
100
AcDbLine
 10
1589.250554676393
 20
906.4866529043445
 30
0.0
 11
1589.940413030927
 21
907.1765112588787
 31
0.0
  0
LINE
  5
6ECE
330
1E
100
AcDbEntity
  8
躯体と製品
  6
Continuous
 62
     4
100
AcDbLine
 10
1589.250554676393
 20
905.0724393419717
 30
0.0
 11
1590.050552676393
 21
905.872437341971
 31
0.0
  0
LINE
  5
6ECF
330
1E
100
AcDbEntity
  8
躯体と製品
  6
Continuous
 62
     4
100
AcDbLine
 10
1589.250554676393
 20
903.6582257795981
 30
0.0
 11
1590.050552676393
 21
904.458223779598
 31
0.0
  0
LINE
  5
6ED0
330
1E
100
AcDbEntity
  8
躯体と製品
  6
Continuous
 62
     4
100
AcDbLine
 10
1589.250554676393
 20
902.244012217225
 30
0.0
 11
1590.050552676393
 21
903.0440102172244
 31
0.0
  0
LINE
  5
6ED1
330
1E
100
AcDbEntity
  8
躯体と製品
  6
Continuous
 62
     4
100
AcDbLine
 10
1589.250554676391
 20
900.8297986548498
 30
0.0
 11
1590.050552676392
 21
901.6297966548506
 31
0.0
  0
LINE
  5
6ED2
330
1E
100
AcDbEntity
  8
躯体と製品
  6
Continuous
 62
     4
100
AcDbLine
 10
1589.250554676391
 20
899.4155850924764
 30
0.0
 11
1590.050552676392
 21
900.2155830924772
 31
0.0
  0
LINE
  5
6ED3
330
1E
100
AcDbEntity
  8
躯体と製品
  6
Continuous
 62
     4
100
AcDbLine
 10
1589.250554676392
 20
898.0013715301073
 30
0.0
 11
1590.050552676393
 21
898.8013695301079
 31
0.0
  0
LINE
  5
6ED4
330
1E
100
AcDbEntity
  8
躯体と製品
  6
Continuous
 62
     4
100
AcDbLine
 10
1589.250554676392
 20
896.587157967734
 30
0.0
 11
1590.050552676393
 21
897.3871559677345
 31
0.0
  0
LINE
  5
6ED5
330
1E
100
AcDbEntity
  8
躯体と製品
  6
Continuous
 62
     4
100
AcDbLine
 10
1589.250554676392
 20
895.1729444053606
 30
0.0
 11
1590.050552676393
 21
895.9729424053612
 31
0.0
  0
LINE
  5
6ED6
330
1E
100
AcDbEntity
  8
躯体と製品
  6
Continuous
 62
     4
100
AcDbLine
 10
1589.250554676392
 20
893.7587308429874
 30
0.0
 11
1590.050552676393
 21
894.558728842988
 31
0.0
  0
LINE
  5
6ED7
330
1E
100
AcDbEntity
  8
躯体と製品
  6
Continuous
 62
     4
100
AcDbLine
 10
1589.250554676392
 20
892.3445172806141
 30
0.0
 11
1590.050552676393
 21
893.1445152806148
 31
0.0
  0
LINE
  5
6ED8
330
1E
100
AcDbEntity
  8
躯体と製品
  6
Continuous
 62
     4
100
AcDbLine
 10
1589.250554676392
 20
890.9303037182409
 30
0.0
 11
1590.050552676392
 21
891.7303017182405
 31
0.0
  0
LINE
  5
6ED9
330
1E
100
AcDbEntity
  8
躯体と製品
  6
Continuous
 62
     4
100
AcDbLine
 10
1589.250554676392
 20
889.5160901558675
 30
0.0
 11
1590.050552676392
 21
890.3160881558672
 31
0.0
  0
LINE
  5
6EDA
330
1E
100
AcDbEntity
  8
躯体と製品
  6
Continuous
 62
     4
100
AcDbLine
 10
1589.250554676392
 20
888.1018765934946
 30
0.0
 11
1590.050552676392
 21
888.901874593494
 31
0.0
  0
LINE
  5
6EDB
330
1E
100
AcDbEntity
  8
躯体と製品
  6
Continuous
 62
     4
100
AcDbLine
 10
1589.250554676392
 20
886.687663031121
 30
0.0
 11
1590.050552676392
 21
887.487661031121
 31
0.0
  0
LINE
  5
6EDC
330
1E
100
AcDbEntity
  8
躯体と製品
  6
Continuous
 62
     4
100
AcDbLine
 10
1589.250554676393
 20
885.2734494687476
 30
0.0
 11
1590.050552676392
 21
886.0734474687475
 31
0.0
  0
LINE
  5
6EDD
330
1E
100
AcDbEntity
  8
躯体と製品
  6
Continuous
 62
     4
100
AcDbLine
 10
1589.250554676393
 20
883.8592359063747
 30
0.0
 11
1590.050552676392
 21
884.6592339063743
 31
0.0
  0
LINE
  5
6EDE
330
1E
100
AcDbEntity
  8
躯体と製品
  6
Continuous
 62
     4
100
AcDbLine
 10
1589.250554676393
 20
882.4450223440015
 30
0.0
 11
1590.050552676392
 21
883.2450203440012
 31
0.0
  0
LINE
  5
6EDF
330
1E
100
AcDbEntity
  8
躯体と製品
  6
Continuous
 62
     4
100
AcDbLine
 10
1589.250554676393
 20
881.0308087816281
 30
0.0
 11
1590.050552676393
 21
881.8308067816277
 31
0.0
  0
LINE
  5
6EE0
330
1E
100
AcDbEntity
  8
躯体と製品
  6
Continuous
 62
     4
100
AcDbLine
 10
1589.250554676392
 20
879.6165952192538
 30
0.0
 11
1590.050552676393
 21
880.4165932192544
 31
0.0
  0
LINE
  5
6EE1
330
1E
100
AcDbEntity
  8
躯体と製品
  6
Continuous
 62
     4
100
AcDbLine
 10
1589.250554676392
 20
878.2023816568806
 30
0.0
 11
1590.050552676393
 21
879.0023796568814
 31
0.0
  0
LINE
  5
6EE2
330
1E
100
AcDbEntity
  8
躯体と製品
  6
Continuous
 62
     7
100
AcDbLine
 10
1569.050552676392
 20
911.9528374948666
 30
0.0
 11
1569.050555676392
 21
908.4528394948666
 31
0.0
  0
LINE
  5
6EE3
330
1E
100
AcDbEntity
  8
躯体と製品
  6
Continuous
 62
     7
100
AcDbLine
 10
1588.750553676392
 20
907.1528374948666
 30
0.0
 11
1570.350554676392
 21
907.1528374948666
 31
0.0
  0
LINE
  5
6EE4
330
1E
100
AcDbEntity
  8
躯体と製品
  6
Continuous
 62
     7
100
AcDbLine
 10
1589.250554676392
 20
877.9528384948667
 30
0.0
 11
1590.050552676392
 21
877.9528384948667
 31
0.0
  0
LINE
  5
6EE5
330
1E
100
AcDbEntity
  8
躯体と製品
  6
Continuous
 62
     7
100
AcDbLine
 10
1590.050552676392
 20
906.6528394948665
 30
0.0
 11
1590.050552676392
 21
877.9528384948667
 31
0.0
  0
LINE
  5
6EE6
330
1E
100
AcDbEntity
  8
躯体と製品
  6
Continuous
 62
     7
100
AcDbLine
 10
1589.250554676392
 20
906.6528394948665
 30
0.0
 11
1589.250554676392
 21
877.9528384948667
 31
0.0
  0
ARC
  5
6EE7
330
1E
100
AcDbEntity
  8
躯体と製品
  6
Continuous
 62
     7
100
AcDbCircle
 10
1588.750553676392
 20
906.6528394948665
 30
0.0
 40
0.5000010000000002
100
AcDbArc
 50
0.0
 51
90.0
  0
ARC
  5
6EE8
330
1E
100
AcDbEntity
  8
躯体と製品
  6
Continuous
 62
     7
100
AcDbCircle
 10
1588.750553676392
 20
906.6528394948665
 30
0.0
 40
1.299998999999999
100
AcDbArc
 50
0.0
 51
90.0
  0
LINE
  5
6EE9
330
1E
100
AcDbEntity
  8
躯体と製品
  6
Continuous
 62
     7
100
AcDbLine
 10
1588.750553676392
 20
907.9528384948666
 30
0.0
 11
1570.350554676392
 21
907.9528384948666
 31
0.0
  0
LINE
  5
6EEA
330
1E
100
AcDbEntity
  8
躯体と製品
  6
Continuous
 62
     7
100
AcDbLine
 10
1569.050552676392
 20
911.9528374948666
 30
0.0
 11
1569.850553676392
 21
911.9528374948666
 31
0.0
  0
ARC
  5
6EEB
330
1E
100
AcDbEntity
  8
躯体と製品
  6
Continuous
 62
     7
100
AcDbCircle
 10
1570.350554676392
 20
908.4528394948666
 30
0.0
 40
1.299998999999999
100
AcDbArc
 50
180.0
 51
270.0
  0
ARC
  5
6EEC
330
1E
100
AcDbEntity
  8
躯体と製品
  6
Continuous
 62
     7
100
AcDbCircle
 10
1570.350554676392
 20
908.4528394948666
 30
0.0
 40
0.5000010000000002
100
AcDbArc
 50
180.0
 51
270.0
  0
LINE
  5
6EED
330
1E
100
AcDbEntity
  8
躯体と製品
  6
Continuous
 62
     7
100
AcDbLine
 10
1569.850553676392
 20
908.4528394948666
 30
0.0
 11
1569.850553676392
 21
911.9528374948666
 31
0.0
  0
LINE
  5
6EEE
330
1E
100
AcDbEntity
  8
躯体と製品
  6
Continuous
 62
     3
100
AcDbLine
 10
1559.350552676392
 20
870.6528374948666
 30
0.0
 11
1559.850552676392
 21
870.6528374948666
 31
0.0
  0
LINE
  5
6EEF
330
1E
100
AcDbEntity
  8
躯体と製品
  6
Continuous
 62
     3
100
AcDbLine
 10
1559.350552676392
 20
860.6528374948668
 30
0.0
 11
1559.850552676392
 21
860.6528374948668
 31
0.0
  0
LINE
  5
6EF0
330
1E
100
AcDbEntity
  8
躯体と製品
  6
Continuous
 62
     3
100
AcDbLine
 10
1561.850552676392
 20
866.1528374948668
 30
0.0
 11
1561.350552676392
 21
865.6528374948669
 31
0.0
  0
LINE
  5
6EF1
330
1E
100
AcDbEntity
  8
躯体と製品
  6
Continuous
 62
     3
100
AcDbLine
 10
1561.850552676392
 20
865.1528374948668
 30
0.0
 11
1561.350552676392
 21
865.6528374948669
 31
0.0
  0
LINE
  5
6EF2
330
1E
100
AcDbEntity
  8
躯体と製品
  6
Continuous
 62
     3
100
AcDbLine
 10
1559.350552676392
 20
870.6528374948666
 30
0.0
 11
1559.350552676392
 21
860.6528374948668
 31
0.0
  0
LINE
  5
6EF3
330
1E
100
AcDbEntity
  8
躯体と製品
  6
Continuous
 62
     3
100
AcDbLine
 10
1559.350552676392
 20
912.1528374948669
 30
0.0
 11
1559.850552676392
 21
912.1528374948669
 31
0.0
  0
LINE
  5
6EF4
330
1E
100
AcDbEntity
  8
躯体と製品
  6
Continuous
 62
     3
100
AcDbLine
 10
1559.850552676392
 20
912.1528374948669
 30
0.0
 11
1559.850552676392
 21
899.1528374948668
 31
0.0
  0
LINE
  5
6EF5
330
1E
100
AcDbEntity
  8
躯体と製品
  6
Continuous
 62
     3
100
AcDbLine
 10
1559.850552676392
 20
899.1528374948668
 30
0.0
 11
1559.350552676392
 21
899.1528374948668
 31
0.0
  0
LINE
  5
6EF6
330
1E
100
AcDbEntity
  8
躯体と製品
  6
Continuous
 62
     3
100
AcDbLine
 10
1559.350552676392
 20
897.6528374948669
 30
0.0
 11
1559.850552676392
 21
897.6528374948669
 31
0.0
  0
ARC
  5
6EF7
330
1E
100
AcDbEntity
  8
躯体と製品
  6
Continuous
 62
     3
100
AcDbCircle
 10
1569.350552676392
 20
907.452837494867
 30
0.0
 40
0.2999999999999999
100
AcDbArc
 50
180.0
 51
270.0
  0
LINE
  5
6EF8
330
1E
100
AcDbEntity
  8
躯体と製品
  6
Continuous
 62
     3
100
AcDbLine
 10
1569.350552676392
 20
907.1528374948668
 30
0.0
 11
1573.950552676392
 21
907.1528374948668
 31
0.0
  0
LINE
  5
6EF9
330
1E
100
AcDbEntity
  8
躯体と製品
  6
Continuous
 62
     3
100
AcDbLine
 10
1567.850552676392
 20
906.9528374948671
 30
0.0
 11
1567.850552676392
 21
911.6528374948668
 31
0.0
  0
ARC
  5
6EFA
330
1E
100
AcDbEntity
  8
躯体と製品
  6
Continuous
 62
     3
100
AcDbCircle
 10
1568.850552676392
 20
906.9528374948671
 30
0.0
 40
1.0
100
AcDbArc
 50
180.0
 51
270.0
  0
LINE
  5
6EFB
330
1E
100
AcDbEntity
  8
躯体と製品
  6
Continuous
 62
     3
100
AcDbLine
 10
1568.850552676392
 20
905.9528374948669
 30
0.0
 11
1573.950552676392
 21
905.9528374948669
 31
0.0
  0
ARC
  5
6EFC
330
1E
100
AcDbEntity
  8
躯体と製品
  6
Continuous
 62
     3
100
AcDbCircle
 10
1567.350552676392
 20
911.6528374948668
 30
0.0
 40
0.5
100
AcDbArc
 50
0.0
 51
90.0
  0
LINE
  5
6EFD
330
1E
100
AcDbEntity
  8
躯体と製品
  6
Continuous
 62
     3
100
AcDbLine
 10
1567.350552676392
 20
912.1528374948669
 30
0.0
 11
1562.350552676392
 21
912.1528374948669
 31
0.0
  0
ARC
  5
6EFE
330
1E
100
AcDbEntity
  8
躯体と製品
  6
Continuous
 62
     3
100
AcDbCircle
 10
1562.350552676392
 20
911.6528374948668
 30
0.0
 40
0.5
100
AcDbArc
 50
90.0
 51
180.0
  0
LINE
  5
6EFF
330
1E
100
AcDbEntity
  8
躯体と製品
  6
Continuous
 62
     3
100
AcDbLine
 10
1561.850552676392
 20
911.6528374948668
 30
0.0
 11
1561.850552676392
 21
899.6528374948669
 31
0.0
  0
ARC
  5
6F00
330
1E
100
AcDbEntity
  8
躯体と製品
  6
Continuous
 62
     3
100
AcDbCircle
 10
1573.950552676392
 20
906.5528374948668
 30
0.0
 40
0.5999999999999999
100
AcDbArc
 50
270.0
 51
90.0
  0
ARC
  5
6F01
330
1E
100
AcDbEntity
  8
躯体と製品
  6
Continuous
 62
     3
100
AcDbCircle
 10
1562.350552676392
 20
897.1528374948666
 30
0.0
 40
0.5
100
AcDbArc
 50
90.0
 51
180.0
  0
ARC
  5
6F02
330
1E
100
AcDbEntity
  8
躯体と製品
  6
Continuous
 62
     3
100
AcDbCircle
 10
1562.350552676392
 20
899.6528374948669
 30
0.0
 40
0.5
100
AcDbArc
 50
180.0
 51
270.0
  0
LINE
  5
6F03
330
1E
100
AcDbEntity
  8
躯体と製品
  6
Continuous
 62
     3
100
AcDbLine
 10
1567.850552676392
 20
899.1528374948668
 30
0.0
 11
1562.350552676392
 21
899.1528374948668
 31
0.0
  0
ARC
  5
6F04
330
1E
100
AcDbEntity
  8
躯体と製品
  6
Continuous
 62
     3
100
AcDbCircle
 10
1567.850552676392
 20
898.6528374948669
 30
0.0
 40
0.5
100
AcDbArc
 50
0.0
 51
90.0
  0
LINE
  5
6F05
330
1E
100
AcDbEntity
  8
躯体と製品
  6
Continuous
 62
     3
100
AcDbLine
 10
1568.350552676392
 20
892.6528374948667
 30
0.0
 11
1568.350552676392
 21
898.6528374948669
 31
0.0
  0
ARC
  5
6F06
330
1E
100
AcDbEntity
  8
躯体と製品
  6
Continuous
 62
     3
100
AcDbCircle
 10
1567.350552676392
 20
892.6528374948667
 30
0.0
 40
1.0
100
AcDbArc
 50
270.0
 51
0.0
  0
LINE
  5
6F07
330
1E
100
AcDbEntity
  8
躯体と製品
  6
Continuous
 62
     3
100
AcDbLine
 10
1567.350552676392
 20
891.6528374948667
 30
0.0
 11
1565.450552676392
 21
891.6528374948667
 31
0.0
  0
LINE
  5
6F08
330
1E
100
AcDbEntity
  8
躯体と製品
  6
Continuous
 62
     3
100
AcDbLine
 10
1566.850552676392
 20
897.1528374948666
 30
0.0
 11
1566.850552676392
 21
893.3528374948668
 31
0.0
  0
ARC
  5
6F09
330
1E
100
AcDbEntity
  8
躯体と製品
  6
Continuous
 62
     3
100
AcDbCircle
 10
1566.350552676392
 20
897.1528374948666
 30
0.0
 40
0.5
100
AcDbArc
 50
0.0
 51
90.0
  0
LINE
  5
6F0A
330
1E
100
AcDbEntity
  8
躯体と製品
  6
Continuous
 62
     3
100
AcDbLine
 10
1566.350552676392
 20
897.6528374948669
 30
0.0
 11
1562.350552676392
 21
897.6528374948669
 31
0.0
  0
LINE
  5
6F0B
330
1E
100
AcDbEntity
  8
躯体と製品
  6
Continuous
 62
     3
100
AcDbLine
 10
1566.350552676392
 20
892.8528374948669
 30
0.0
 11
1565.450552676392
 21
892.8528374948669
 31
0.0
  0
ARC
  5
6F0C
330
1E
100
AcDbEntity
  8
躯体と製品
  6
Continuous
 62
     3
100
AcDbCircle
 10
1566.350552676392
 20
893.3528374948668
 30
0.0
 40
0.5
100
AcDbArc
 50
270.0
 51
0.0
  0
ARC
  5
6F0D
330
1E
100
AcDbEntity
  8
躯体と製品
  6
Continuous
 62
     3
100
AcDbCircle
 10
1565.450552676392
 20
892.2528374948669
 30
0.0
 40
0.5999999999999999
100
AcDbArc
 50
90.0
 51
270.0
  0
LINE
  5
6F0E
330
1E
100
AcDbEntity
  8
躯体と製品
  6
Continuous
 62
     3
100
AcDbLine
 10
1560.850552676392
 20
914.452837494867
 30
0.0
 11
1560.850552676392
 21
917.8528374948669
 31
0.0
  0
ARC
  5
6F0F
330
1E
100
AcDbEntity
  8
躯体と製品
  6
Continuous
 62
     3
100
AcDbCircle
 10
1561.150552676392
 20
914.452837494867
 30
0.0
 40
0.2999999999999999
100
AcDbArc
 50
180.0
 51
270.0
  0
LINE
  5
6F10
330
1E
100
AcDbEntity
  8
躯体と製品
  6
Continuous
 62
     3
100
AcDbLine
 10
1561.150552676392
 20
914.1528374948668
 30
0.0
 11
1562.350552676392
 21
914.1528374948668
 31
0.0
  0
LINE
  5
6F11
330
1E
100
AcDbEntity
  8
躯体と製品
  6
Continuous
 62
     3
100
AcDbLine
 10
1561.150552676392
 20
918.1528374948667
 30
0.0
 11
1562.350552676392
 21
918.1528374948667
 31
0.0
  0
ARC
  5
6F12
330
1E
100
AcDbEntity
  8
躯体と製品
  6
Continuous
 62
     3
100
AcDbCircle
 10
1561.150552676392
 20
917.8528374948669
 30
0.0
 40
0.2999999999999999
100
AcDbArc
 50
90.0
 51
180.0
  0
LINE
  5
6F13
330
1E
100
AcDbEntity
  8
躯体と製品
  6
Continuous
 62
     3
100
AcDbLine
 10
1567.350552676392
 20
918.1528374948667
 30
0.0
 11
1569.850552676392
 21
918.1528374948667
 31
0.0
  0
LINE
  5
6F14
330
1E
100
AcDbEntity
  8
躯体と製品
  6
Continuous
 62
     3
100
AcDbLine
 10
1567.350552676392
 20
914.1528374948668
 30
0.0
 11
1569.850552676392
 21
914.1528374948668
 31
0.0
  0
LINE
  5
6F15
330
1E
100
AcDbEntity
  8
躯体と製品
  6
Continuous
 62
     3
100
AcDbLine
 10
1567.350552676392
 20
918.1528374948667
 30
0.0
 11
1566.850552676392
 21
917.6528374948667
 31
0.0
  0
LINE
  5
6F16
330
1E
100
AcDbEntity
  8
躯体と製品
  6
Continuous
 62
     3
100
AcDbLine
 10
1566.850552676392
 20
917.6528374948667
 30
0.0
 11
1566.350552676392
 21
918.1528374948667
 31
0.0
  0
LINE
  5
6F17
330
1E
100
AcDbEntity
  8
躯体と製品
  6
Continuous
 62
     3
100
AcDbLine
 10
1566.350552676392
 20
918.1528374948667
 30
0.0
 11
1565.850552676392
 21
917.6528374948667
 31
0.0
  0
LINE
  5
6F18
330
1E
100
AcDbEntity
  8
躯体と製品
  6
Continuous
 62
     3
100
AcDbLine
 10
1565.850552676392
 20
917.6528374948667
 30
0.0
 11
1565.350552676392
 21
918.1528374948667
 31
0.0
  0
LINE
  5
6F19
330
1E
100
AcDbEntity
  8
躯体と製品
  6
Continuous
 62
     3
100
AcDbLine
 10
1565.350552676392
 20
918.1528374948667
 30
0.0
 11
1564.850552676392
 21
917.6528374948667
 31
0.0
  0
LINE
  5
6F1A
330
1E
100
AcDbEntity
  8
躯体と製品
  6
Continuous
 62
     3
100
AcDbLine
 10
1564.850552676392
 20
917.6528374948667
 30
0.0
 11
1564.350552676392
 21
918.1528374948667
 31
0.0
  0
LINE
  5
6F1B
330
1E
100
AcDbEntity
  8
躯体と製品
  6
Continuous
 62
     3
100
AcDbLine
 10
1564.350552676392
 20
918.1528374948667
 30
0.0
 11
1563.850552676392
 21
917.6528374948667
 31
0.0
  0
LINE
  5
6F1C
330
1E
100
AcDbEntity
  8
躯体と製品
  6
Continuous
 62
     3
100
AcDbLine
 10
1563.850552676392
 20
917.6528374948667
 30
0.0
 11
1563.350552676392
 21
918.1528374948667
 31
0.0
  0
LINE
  5
6F1D
330
1E
100
AcDbEntity
  8
躯体と製品
  6
Continuous
 62
     3
100
AcDbLine
 10
1563.350552676392
 20
918.1528374948667
 30
0.0
 11
1562.850552676392
 21
917.6528374948667
 31
0.0
  0
LINE
  5
6F1E
330
1E
100
AcDbEntity
  8
躯体と製品
  6
Continuous
 62
     3
100
AcDbLine
 10
1562.850552676392
 20
917.6528374948667
 30
0.0
 11
1562.350552676392
 21
918.1528374948667
 31
0.0
  0
LINE
  5
6F1F
330
1E
100
AcDbEntity
  8
躯体と製品
  6
Continuous
 62
     3
100
AcDbLine
 10
1567.350552676392
 20
914.1528374948668
 30
0.0
 11
1566.850552676392
 21
914.6528374948669
 31
0.0
  0
LINE
  5
6F20
330
1E
100
AcDbEntity
  8
躯体と製品
  6
Continuous
 62
     3
100
AcDbLine
 10
1566.850552676392
 20
914.6528374948669
 30
0.0
 11
1566.350552676392
 21
914.1528374948668
 31
0.0
  0
LINE
  5
6F21
330
1E
100
AcDbEntity
  8
躯体と製品
  6
Continuous
 62
     3
100
AcDbLine
 10
1566.350552676392
 20
914.1528374948668
 30
0.0
 11
1565.850552676392
 21
914.6528374948669
 31
0.0
  0
LINE
  5
6F22
330
1E
100
AcDbEntity
  8
躯体と製品
  6
Continuous
 62
     3
100
AcDbLine
 10
1565.850552676392
 20
914.6528374948669
 30
0.0
 11
1565.350552676392
 21
914.1528374948668
 31
0.0
  0
LINE
  5
6F23
330
1E
100
AcDbEntity
  8
躯体と製品
  6
Continuous
 62
     3
100
AcDbLine
 10
1565.350552676392
 20
914.1528374948668
 30
0.0
 11
1564.850552676392
 21
914.6528374948669
 31
0.0
  0
LINE
  5
6F24
330
1E
100
AcDbEntity
  8
躯体と製品
  6
Continuous
 62
     3
100
AcDbLine
 10
1564.850552676392
 20
914.6528374948669
 30
0.0
 11
1564.350552676392
 21
914.1528374948668
 31
0.0
  0
LINE
  5
6F25
330
1E
100
AcDbEntity
  8
躯体と製品
  6
Continuous
 62
     3
100
AcDbLine
 10
1564.350552676392
 20
914.1528374948668
 30
0.0
 11
1563.850552676392
 21
914.6528374948669
 31
0.0
  0
LINE
  5
6F26
330
1E
100
AcDbEntity
  8
躯体と製品
  6
Continuous
 62
     3
100
AcDbLine
 10
1563.850552676392
 20
914.6528374948669
 30
0.0
 11
1563.350552676392
 21
914.1528374948668
 31
0.0
  0
LINE
  5
6F27
330
1E
100
AcDbEntity
  8
躯体と製品
  6
Continuous
 62
     3
100
AcDbLine
 10
1563.350552676392
 20
914.1528374948668
 30
0.0
 11
1562.850552676392
 21
914.6528374948669
 31
0.0
  0
LINE
  5
6F28
330
1E
100
AcDbEntity
  8
躯体と製品
  6
Continuous
 62
     3
100
AcDbLine
 10
1562.850552676392
 20
914.6528374948669
 30
0.0
 11
1562.350552676392
 21
914.1528374948668
 31
0.0
  0
LINE
  5
6F29
330
1E
100
AcDbEntity
  8
躯体と製品
  6
Continuous
 62
     3
100
AcDbLine
 10
1559.850552676392
 20
920.1528374948669
 30
0.0
 11
1568.350552676392
 21
920.1528374948669
 31
0.0
  0
ARC
  5
6F2A
330
1E
100
AcDbEntity
  8
躯体と製品
  6
Continuous
 62
     3
100
AcDbCircle
 10
1559.850552676392
 20
919.6528374948668
 30
0.0
 40
0.5
100
AcDbArc
 50
90.0
 51
180.0
  0
LINE
  5
6F2B
330
1E
100
AcDbEntity
  8
躯体と製品
  6
Continuous
 62
     3
100
AcDbLine
 10
1559.350552676392
 20
919.6528374948668
 30
0.0
 11
1559.350552676392
 21
912.1528374948669
 31
0.0
  0
LINE
  5
6F2C
330
1E
100
AcDbEntity
  8
躯体と製品
  6
Continuous
 62
     3
100
AcDbLine
 10
1568.350552676392
 20
920.1528374948669
 30
0.0
 11
1568.350552676392
 21
919.3528374948668
 31
0.0
  0
LINE
  5
6F2D
330
1E
100
AcDbEntity
  8
躯体と製品
  6
Continuous
 62
     3
100
AcDbLine
 10
1569.050552676392
 20
912.9528374948669
 30
0.0
 11
1569.750552676392
 21
912.9528374948669
 31
0.0
  0
LINE
  5
6F2E
330
1E
100
AcDbEntity
  8
躯体と製品
  6
Continuous
 62
     3
100
AcDbLine
 10
1569.050552676392
 20
907.452837494867
 30
0.0
 11
1569.050552676392
 21
912.9528374948669
 31
0.0
  0
LINE
  5
6F2F
330
1E
100
AcDbEntity
  8
躯体と製品
  6
Continuous
 62
     3
100
AcDbLine
 10
1568.350552676392
 20
919.3528374948668
 30
0.0
 11
1569.750552676392
 21
919.3528374948668
 31
0.0
  0
LINE
  5
6F30
330
1E
100
AcDbEntity
  8
躯体と製品
  6
Continuous
 62
     3
100
AcDbLine
 10
1559.350552676392
 20
899.1528374948668
 30
0.0
 11
1559.350552676392
 21
897.6528374948669
 31
0.0
  0
ARC
  5
6F31
330
1E
100
AcDbEntity
  8
躯体と製品
  6
Continuous
 62
     3
100
AcDbCircle
 10
1569.750552676392
 20
913.552837494867
 30
0.0
 40
0.5999999999999999
100
AcDbArc
 50
270.0
 51
90.0
  0
ARC
  5
6F32
330
1E
100
AcDbEntity
  8
躯体と製品
  6
Continuous
 62
     3
100
AcDbCircle
 10
1569.750552676392
 20
918.7528374948668
 30
0.0
 40
0.5999999999999999
100
AcDbArc
 50
270.0
 51
90.0
  0
LINE
  5
6F33
330
1E
100
AcDbEntity
  8
躯体と製品
  6
Continuous
 62
     3
100
AcDbLine
 10
1559.850552676392
 20
897.6528374948669
 30
0.0
 11
1559.850552676392
 21
886.1528374948669
 31
0.0
  0
LINE
  5
6F34
330
1E
100
AcDbEntity
  8
躯体と製品
  6
Continuous
 62
     3
100
AcDbLine
 10
1561.850552676392
 20
886.6528374948668
 30
0.0
 11
1561.850552676392
 21
897.1528374948666
 31
0.0
  0
LINE
  5
6F35
330
1E
100
AcDbEntity
  8
躯体と製品
  6
Continuous
 62
     3
100
AcDbLine
 10
1559.850552676392
 20
886.1528374948669
 30
0.0
 11
1559.350552676392
 21
886.1528374948669
 31
0.0
  0
LINE
  5
6F36
330
1E
100
AcDbEntity
  8
躯体と製品
  6
Continuous
 62
     3
100
AcDbLine
 10
1559.350552676392
 20
884.6528374948666
 30
0.0
 11
1559.850552676392
 21
884.6528374948666
 31
0.0
  0
LINE
  5
6F37
330
1E
100
AcDbEntity
  8
躯体と製品
  6
Continuous
 62
     3
100
AcDbLine
 10
1559.850552676392
 20
884.6528374948666
 30
0.0
 11
1559.850552676392
 21
870.6528374948666
 31
0.0
  0
LINE
  5
6F38
330
1E
100
AcDbEntity
  8
躯体と製品
  6
Continuous
 62
     3
100
AcDbLine
 10
1559.850552676392
 20
860.6528374948668
 30
0.0
 11
1559.850552676392
 21
846.6528374948666
 31
0.0
  0
LINE
  5
6F39
330
1E
100
AcDbEntity
  8
躯体と製品
  6
Continuous
 62
     3
100
AcDbLine
 10
1559.850552676392
 20
846.6528374948666
 30
0.0
 11
1559.350552676392
 21
846.6528374948666
 31
0.0
  0
ARC
  5
6F3A
330
1E
100
AcDbEntity
  8
躯体と製品
  6
Continuous
 62
     3
100
AcDbCircle
 10
1562.350552676392
 20
886.6528374948668
 30
0.0
 40
0.5
100
AcDbArc
 50
180.0
 51
270.0
  0
LINE
  5
6F3B
330
1E
100
AcDbEntity
  8
躯体と製品
  6
Continuous
 62
     3
100
AcDbLine
 10
1562.350552676392
 20
886.1528374948669
 30
0.0
 11
1571.350552676392
 21
886.1528374948669
 31
0.0
  0
LINE
  5
6F3C
330
1E
100
AcDbEntity
  8
躯体と製品
  6
Continuous
 62
     3
100
AcDbLine
 10
1562.350552676392
 20
840.1528374948668
 30
0.0
 11
1568.100552676392
 21
840.1528374948668
 31
0.0
  0
ARC
  5
6F3D
330
1E
100
AcDbEntity
  8
躯体と製品
  6
Continuous
 62
     3
100
AcDbCircle
 10
1562.350552676392
 20
840.6528374948669
 30
0.0
 40
0.5
100
AcDbArc
 50
180.0
 51
270.0
  0
ARC
  5
6F3E
330
1E
100
AcDbEntity
  8
躯体と製品
  6
Continuous
 62
     3
100
AcDbCircle
 10
1562.350552676392
 20
838.1528374948668
 30
0.0
 40
0.5
100
AcDbArc
 50
90.0
 51
180.0
  0
LINE
  5
6F3F
330
1E
100
AcDbEntity
  8
躯体と製品
  6
Continuous
 62
     3
100
AcDbLine
 10
1562.350552676392
 20
838.6528374948667
 30
0.0
 11
1564.850552676392
 21
838.6528374948667
 31
0.0
  0
LINE
  5
6F40
330
1E
100
AcDbEntity
  8
躯体と製品
  6
Continuous
 62
     3
100
AcDbLine
 10
1564.850552676392
 20
838.6528374948667
 30
0.0
 11
1565.850552676392
 21
839.1528374948668
 31
0.0
  0
LINE
  5
6F41
330
1E
100
AcDbEntity
  8
躯体と製品
  6
Continuous
 62
     3
100
AcDbLine
 10
1565.850552676392
 20
839.1528374948668
 30
0.0
 11
1565.850552676392
 21
838.6528374948667
 31
0.0
  0
LINE
  5
6F42
330
1E
100
AcDbEntity
  8
躯体と製品
  6
Continuous
 62
     3
100
AcDbLine
 10
1565.850552676392
 20
838.6528374948667
 30
0.0
 11
1566.850552676392
 21
839.1528374948668
 31
0.0
  0
LINE
  5
6F43
330
1E
100
AcDbEntity
  8
躯体と製品
  6
Continuous
 62
     3
100
AcDbLine
 10
1566.850552676392
 20
839.1528374948668
 30
0.0
 11
1566.850552676392
 21
838.6528374948667
 31
0.0
  0
ARC
  5
6F44
330
1E
100
AcDbEntity
  8
躯体と製品
  6
Continuous
 62
     3
100
AcDbCircle
 10
1568.100552676392
 20
839.4028374948666
 30
0.0
 40
0.75
100
AcDbArc
 50
270.0
 51
90.0
  0
ARC
  5
6F45
330
1E
100
AcDbEntity
  8
躯体と製品
  6
Continuous
 62
     3
100
AcDbCircle
 10
1562.350552676392
 20
884.1528374948666
 30
0.0
 40
0.5
100
AcDbArc
 50
90.0
 51
180.0
  0
ARC
  5
6F46
330
1E
100
AcDbEntity
  8
躯体と製品
  6
Continuous
 62
     3
100
AcDbCircle
 10
1571.350552676392
 20
885.6528374948668
 30
0.0
 40
0.5
100
AcDbArc
 50
0.0
 51
90.0
  0
LINE
  5
6F47
330
1E
100
AcDbEntity
  8
躯体と製品
  6
Continuous
 62
     3
100
AcDbLine
 10
1571.350552676392
 20
884.6528374948666
 30
0.0
 11
1562.350552676392
 21
884.6528374948666
 31
0.0
  0
ARC
  5
6F48
330
1E
100
AcDbEntity
  8
躯体と製品
  6
Continuous
 62
     3
100
AcDbCircle
 10
1571.350552676392
 20
885.1528374948669
 30
0.0
 40
0.5
100
AcDbArc
 50
270.0
 51
0.0
  0
LINE
  5
6F49
330
1E
100
AcDbEntity
  8
躯体と製品
  6
Continuous
 62
     3
100
AcDbLine
 10
1571.850552676392
 20
885.1528374948669
 30
0.0
 11
1571.850552676392
 21
885.6528374948668
 31
0.0
  0
LINE
  5
6F4A
330
1E
100
AcDbEntity
  8
躯体と製品
  6
Continuous
 62
     3
100
AcDbLine
 10
1561.850552676392
 20
844.6528374948668
 30
0.0
 11
1561.850552676392
 21
840.6528374948669
 31
0.0
  0
ARC
  5
6F4B
330
1E
100
AcDbEntity
  8
躯体と製品
  6
Continuous
 62
     3
100
AcDbCircle
 10
1562.350552676392
 20
844.6528374948668
 30
0.0
 40
0.5
100
AcDbArc
 50
90.0
 51
180.0
  0
LINE
  5
6F4C
330
1E
100
AcDbEntity
  8
躯体と製品
  6
Continuous
 62
     3
100
AcDbLine
 10
1562.350552676392
 20
845.1528374948669
 30
0.0
 11
1573.100552676392
 21
845.1528374948669
 31
0.0
  0
LINE
  5
6F4D
330
1E
100
AcDbEntity
  8
躯体と製品
  6
Continuous
 62
     3
100
AcDbLine
 10
1561.850552676392
 20
847.1528374948666
 30
0.0
 11
1561.850552676392
 21
865.1528374948668
 31
0.0
  0
ARC
  5
6F4E
330
1E
100
AcDbEntity
  8
躯体と製品
  6
Continuous
 62
     3
100
AcDbCircle
 10
1562.350552676392
 20
847.1528374948666
 30
0.0
 40
0.5
100
AcDbArc
 50
180.0
 51
270.0
  0
LINE
  5
6F4F
330
1E
100
AcDbEntity
  8
躯体と製品
  6
Continuous
 62
     3
100
AcDbLine
 10
1562.350552676392
 20
846.6528374948666
 30
0.0
 11
1573.100552676392
 21
846.6528374948666
 31
0.0
  0
ARC
  5
6F50
330
1E
100
AcDbEntity
  8
躯体と製品
  6
Continuous
 62
     3
100
AcDbCircle
 10
1573.100552676392
 20
845.9028374948669
 30
0.0
 40
0.75
100
AcDbArc
 50
270.0
 51
90.0
  0
ARC
  5
6F51
330
1E
100
AcDbEntity
  8
躯体と製品
  6
Continuous
 62
     3
100
AcDbCircle
 10
1562.350552676392
 20
835.1528374948665
 30
0.0
 40
0.5
100
AcDbArc
 50
180.0
 51
270.0
  0
LINE
  5
6F52
330
1E
100
AcDbEntity
  8
躯体と製品
  6
Continuous
 62
     3
100
AcDbLine
 10
1562.350552676392
 20
834.6528374948668
 30
0.0
 11
1564.850552676392
 21
834.6528374948668
 31
0.0
  0
ARC
  5
6F53
330
1E
100
AcDbEntity
  8
躯体と製品
  6
Continuous
 62
     3
100
AcDbCircle
 10
1568.100552676392
 20
833.9028374948668
 30
0.0
 40
0.75
100
AcDbArc
 50
270.0
 51
90.0
  0
LINE
  5
6F54
330
1E
100
AcDbEntity
  8
躯体と製品
  6
Continuous
 62
     3
100
AcDbLine
 10
1564.850552676392
 20
834.6528374948668
 30
0.0
 11
1565.850552676392
 21
834.1528374948667
 31
0.0
  0
LINE
  5
6F55
330
1E
100
AcDbEntity
  8
躯体と製品
  6
Continuous
 62
     3
100
AcDbLine
 10
1565.850552676392
 20
834.6528374948668
 30
0.0
 11
1565.850552676392
 21
834.1528374948667
 31
0.0
  0
LINE
  5
6F56
330
1E
100
AcDbEntity
  8
躯体と製品
  6
Continuous
 62
     3
100
AcDbLine
 10
1565.850552676392
 20
834.6528374948668
 30
0.0
 11
1566.850552676392
 21
834.1528374948667
 31
0.0
  0
LINE
  5
6F57
330
1E
100
AcDbEntity
  8
躯体と製品
  6
Continuous
 62
     3
100
AcDbLine
 10
1566.850552676392
 20
834.6528374948668
 30
0.0
 11
1566.850552676392
 21
834.1528374948667
 31
0.0
  0
LINE
  5
6F58
330
1E
100
AcDbEntity
  8
躯体と製品
  6
Continuous
 62
     3
100
AcDbLine
 10
1561.850552676392
 20
835.1528374948665
 30
0.0
 11
1561.850552676392
 21
838.1528374948668
 31
0.0
  0
LINE
  5
6F59
330
1E
100
AcDbEntity
  8
躯体と製品
  6
Continuous
 62
     3
100
AcDbLine
 10
1560.350552676392
 20
835.1528374948665
 30
0.0
 11
1560.350552676392
 21
844.6528374948668
 31
0.0
  0
ARC
  5
6F5A
330
1E
100
AcDbEntity
  8
躯体と製品
  6
Continuous
 62
     3
100
AcDbCircle
 10
1559.850552676392
 20
835.1528374948665
 30
0.0
 40
0.5
100
AcDbArc
 50
270.0
 51
0.0
  0
LINE
  5
6F5B
330
1E
100
AcDbEntity
  8
躯体と製品
  6
Continuous
 62
     3
100
AcDbLine
 10
1559.850552676392
 20
834.6528374948668
 30
0.0
 11
1559.350552676392
 21
834.6528374948668
 31
0.0
  0
LINE
  5
6F5C
330
1E
100
AcDbEntity
  8
躯体と製品
  6
Continuous
 62
     3
100
AcDbLine
 10
1568.100552676392
 20
833.1528374948666
 30
0.0
 11
1559.350552676392
 21
833.1528374948666
 31
0.0
  0
LINE
  5
6F5D
330
1E
100
AcDbEntity
  8
躯体と製品
  6
Continuous
 62
     3
100
AcDbLine
 10
1559.850552676392
 20
845.1528374948669
 30
0.0
 11
1559.350552676392
 21
845.1528374948669
 31
0.0
  0
ARC
  5
6F5E
330
1E
100
AcDbEntity
  8
躯体と製品
  6
Continuous
 62
     3
100
AcDbCircle
 10
1559.850552676392
 20
844.6528374948668
 30
0.0
 40
0.5
100
AcDbArc
 50
0.0
 51
90.0
  0
LINE
  5
6F5F
330
1E
100
AcDbEntity
  8
躯体と製品
  6
Continuous
 62
     3
100
AcDbLine
 10
1568.100552676392
 20
834.6528374948668
 30
0.0
 11
1566.850552676392
 21
834.6528374948668
 31
0.0
  0
LINE
  5
6F60
330
1E
100
AcDbEntity
  8
躯体と製品
  6
Continuous
 62
     3
100
AcDbLine
 10
1568.100552676392
 20
838.6528374948667
 30
0.0
 11
1566.850552676392
 21
838.6528374948667
 31
0.0
  0
LINE
  5
6F61
330
1E
100
AcDbEntity
  8
躯体と製品
  6
Continuous
 62
     3
100
AcDbLine
 10
1559.350552676392
 20
846.6528374948666
 30
0.0
 11
1559.350552676392
 21
845.1528374948669
 31
0.0
  0
LINE
  5
6F62
330
1E
100
AcDbEntity
  8
躯体と製品
  6
Continuous
 62
     3
100
AcDbLine
 10
1559.350552676392
 20
886.1528374948669
 30
0.0
 11
1559.350552676392
 21
884.6528374948666
 31
0.0
  0
LINE
  5
6F63
330
1E
100
AcDbEntity
  8
躯体と製品
  6
Continuous
 62
     3
100
AcDbLine
 10
1561.850552676392
 20
866.1528374948668
 30
0.0
 11
1561.850552676392
 21
884.1528374948666
 31
0.0
  0
POINT
  5
6F64
330
1E
100
AcDbEntity
  8
躯体と製品
 62
     4
100
AcDbPoint
 10
1591.550552676392
 20
873.3528374948669
 30
0.0
  0
LINE
  5
6F65
330
1E
100
AcDbEntity
  8
躯体と製品
  6
Continuous
 62
     3
100
AcDbLine
 10
1589.350552676392
 20
909.3528374948666
 30
0.0
 11
1572.550552676392
 21
909.3528374948666
 31
0.0
  0
LINE
  5
6F66
330
1E
100
AcDbEntity
  8
躯体と製品
  6
Continuous
 62
     3
100
AcDbLine
 10
1591.550552676392
 20
875.5528374948667
 30
0.0
 11
1591.550552676392
 21
907.1528374948668
 31
0.0
  0
LINE
  5
6F67
330
1E
100
AcDbEntity
  8
躯体と製品
  6
Continuous
 62
     3
100
AcDbLine
 10
1589.350552676392
 20
873.3528374948669
 30
0.0
 11
1581.550552676392
 21
873.3528374948669
 31
0.0
  0
LINE
  5
6F68
330
1E
100
AcDbEntity
  8
躯体と製品
  6
Continuous
 62
     4
100
AcDbLine
 10
1604.589893258006
 20
865.1985883392072
 30
0.0
 11
1603.609361685751
 21
866.179119911462
 31
0.0
  0
LINE
  5
6F69
330
1E
100
AcDbEntity
  8
躯体と製品
  6
Continuous
 62
     4
100
AcDbLine
 10
1754.384323471193
 20
857.3481949027659
 30
0.0
 11
1753.403791898938
 21
858.3287264750206
 31
0.0
  0
LINE
  5
6F6A
330
1E
100
AcDbEntity
  8
躯体と製品
  6
Continuous
 62
     4
100
AcDbLine
 10
1604.519468282351
 20
863.8547997524899
 30
0.0
 11
1602.116933264058
 21
866.2573347707819
 31
0.0
  0
LINE
  5
6F6B
330
1E
100
AcDbEntity
  8
躯体と製品
  6
Continuous
 62
     4
100
AcDbLine
 10
1603.488972385732
 20
863.4710820867352
 30
0.0
 11
1600.624504842366
 21
866.3355496301019
 31
0.0
  0
LINE
  5
6F6C
330
1E
100
AcDbEntity
  8
躯体と製品
  6
Continuous
 62
     4
100
AcDbLine
 10
1601.996543964041
 20
863.549296946055
 30
0.0
 11
1599.132076420674
 21
866.4137644894214
 31
0.0
  0
LINE
  5
6F6D
330
1E
100
AcDbEntity
  8
躯体と製品
  6
Continuous
 62
     4
100
AcDbLine
 10
1600.504115542348
 20
863.6275118053744
 30
0.0
 11
1597.639647998981
 21
866.4919793487412
 31
0.0
  0
LINE
  5
6F6E
330
1E
100
AcDbEntity
  8
躯体と製品
  6
Continuous
 62
     4
100
AcDbLine
 10
1599.011687120655
 20
863.7057266646943
 30
0.0
 11
1596.147219577288
 21
866.5701942080611
 31
0.0
  0
LINE
  5
6F6F
330
1E
100
AcDbEntity
  8
躯体と製品
  6
Continuous
 62
     4
100
AcDbLine
 10
1597.519258698962
 20
863.7839415240142
 30
0.0
 11
1594.654791155595
 21
866.6484090673812
 31
0.0
  0
LINE
  5
6F70
330
1E
100
AcDbEntity
  8
躯体と製品
  6
Continuous
 62
     4
100
AcDbLine
 10
1596.026830277269
 20
863.8621563833337
 30
0.0
 11
1593.162362733902
 21
866.7266239267009
 31
0.0
  0
LINE
  5
6F71
330
1E
100
AcDbEntity
  8
躯体と製品
  6
Continuous
 62
     4
100
AcDbLine
 10
1594.534401855576
 20
863.9403712426533
 30
0.0
 11
1591.669934312209
 21
866.8048387860206
 31
0.0
  0
LINE
  5
6F72
330
1E
100
AcDbEntity
  8
躯体と製品
  6
Continuous
 62
     4
100
AcDbLine
 10
1593.041973433882
 20
864.0185861019737
 30
0.0
 11
1590.177505890516
 21
866.8830536453405
 31
0.0
  0
LINE
  5
6F73
330
1E
100
AcDbEntity
  8
躯体と製品
  6
Continuous
 62
     4
100
AcDbLine
 10
1754.313898495538
 20
856.0044063160482
 30
0.0
 11
1751.911363477245
 21
858.4069413343403
 31
0.0
  0
LINE
  5
6F74
330
1E
100
AcDbEntity
  8
躯体と製品
  6
Continuous
 62
     4
100
AcDbLine
 10
1753.283402598919
 20
855.6206886502938
 30
0.0
 11
1750.418935055552
 21
858.4851561936602
 31
0.0
  0
LINE
  5
6F75
330
1E
100
AcDbEntity
  8
躯体と製品
  6
Continuous
 62
     4
100
AcDbLine
 10
1751.790974177228
 20
855.6989035096133
 30
0.0
 11
1748.926506633861
 21
858.5633710529801
 31
0.0
  0
LINE
  5
6F76
330
1E
100
AcDbEntity
  8
躯体と製品
  6
Continuous
 62
     4
100
AcDbLine
 10
1750.298545755535
 20
855.7771183689329
 30
0.0
 11
1747.434078212168
 21
858.6415859122999
 31
0.0
  0
LINE
  5
6F77
330
1E
100
AcDbEntity
  8
躯体と製品
  6
Continuous
 62
     4
100
AcDbLine
 10
1748.806117333841
 20
855.855333228253
 30
0.0
 11
1745.941649790475
 21
858.7198007716196
 31
0.0
  0
LINE
  5
6F78
330
1E
100
AcDbEntity
  8
躯体と製品
  6
Continuous
 62
     4
100
AcDbLine
 10
1747.313688912148
 20
855.9335480875727
 30
0.0
 11
1744.449221368781
 21
858.7980156309395
 31
0.0
  0
LINE
  5
6F79
330
1E
100
AcDbEntity
  8
躯体と製品
  6
Continuous
 62
     4
100
AcDbLine
 10
1745.821260490455
 20
856.0117629468923
 30
0.0
 11
1742.956792947088
 21
858.8762304902592
 31
0.0
  0
LINE
  5
6F7A
330
1E
100
AcDbEntity
  8
躯体と製品
  6
Continuous
 62
     4
100
AcDbLine
 10
1744.328832068762
 20
856.0899778062116
 30
0.0
 11
1741.464364525396
 21
858.9544453495788
 31
0.0
  0
LINE
  5
6F7B
330
1E
100
AcDbEntity
  8
躯体と製品
  6
Continuous
 62
     4
100
AcDbLine
 10
1742.836403647069
 20
856.1681926655321
 30
0.0
 11
1739.971936103702
 21
859.0326602088989
 31
0.0
  0
LINE
  5
6F7C
330
1E
100
AcDbEntity
  8
躯体と製品
  6
Continuous
 62
     7
100
AcDbLine
 10
1739.311578183081
 20
856.3529209404597
 30
0.0
 11
1739.453441451817
 21
859.0598333621745
 31
0.0
  0
LINE
  5
6F7D
330
1E
100
AcDbEntity
  8
躯体と製品
  6
Continuous
 62
     7
100
AcDbLine
 10
1604.496590991213
 20
863.418275033257
 30
0.0
 11
1604.638454259949
 21
866.1251874549718
 31
0.0
  0
LINE
  5
6F7E
330
1E
100
AcDbEntity
  8
躯体と製品
  6
Continuous
 62
     7
100
AcDbLine
 10
1754.2910212044
 20
855.5678815968157
 30
0.0
 11
1754.432884473136
 21
858.2747940185303
 31
0.0
  0
LINE
  5
6F7F
330
1E
100
AcDbEntity
  8
躯体と製品
  6
Continuous
 62
     7
100
AcDbLine
 10
1589.517147969895
 20
864.2033143769012
 30
0.0
 11
1589.659011238631
 21
866.910226798616
 31
0.0
  0
LINE
  5
6F80
330
1E
100
AcDbEntity
  8
躯体と製品
  6
Continuous
 62
     3
100
AcDbLine
 10
1571.850552676392
 20
870.2159399811041
 30
0.0
 11
1571.850552676392
 21
881.2669754143891
 31
0.0
  0
LINE
  5
6F81
330
1E
100
AcDbEntity
  8
躯体と製品
  6
Continuous
 62
     3
100
AcDbLine
 10
1571.850552676392
 20
881.2669754143891
 30
0.0
 11
1573.350552676392
 21
881.2669754143891
 31
0.0
  0
LINE
  5
6F82
330
1E
100
AcDbEntity
  8
躯体と製品
  6
Continuous
 62
     3
100
AcDbLine
 10
1780.350552676392
 20
769.7613417649506
 30
0.0
 11
1773.350552676392
 21
769.7613417649506
 31
0.0
  0
LINE
  5
6F83
330
1E
100
AcDbEntity
  8
躯体と製品
  6
Continuous
 62
     3
100
AcDbLine
 10
1773.350552676392
 20
768.2613417649506
 30
0.0
 11
1773.350552676392
 21
769.7613417649506
 31
0.0
  0
ARC
  5
6F84
330
1E
100
AcDbEntity
  8
躯体と製品
  6
Continuous
 62
     3
100
AcDbCircle
 10
1780.350552676392
 20
771.2613417649507
 30
0.0
 40
1.5
100
AcDbArc
 50
270.0
 51
0.0
  0
LINE
  5
6F85
330
1E
100
AcDbEntity
  8
躯体と製品
  6
Continuous
 62
     3
100
AcDbLine
 10
1781.850552676392
 20
771.2613417649507
 30
0.0
 11
1781.850552676392
 21
855.414448064806
 31
0.0
  0
LINE
  5
6F86
330
1E
100
AcDbEntity
  8
躯体と製品
  6
Continuous
 62
     3
100
AcDbLine
 10
1574.219712785785
 20
867.7193661442176
 30
0.0
 11
1780.429056610756
 21
856.9123923669378
 31
0.0
  0
ARC
  5
6F88
330
1E
100
AcDbEntity
  8
躯体と製品
  6
Continuous
 62
     3
100
AcDbCircle
 10
1574.350552676392
 20
870.2159399811041
 30
0.0
 40
1.0
100
AcDbArc
 50
180.0
 51
266.9999999999944
  0
LINE
  5
6F89
330
1E
100
AcDbEntity
  8
躯体と製品
  6
Continuous
 62
     3
100
AcDbLine
 10
1573.350552676392
 20
870.2159399811041
 30
0.0
 11
1573.350552676392
 21
881.2669754143891
 31
0.0
  0
LINE
  5
6F8B
330
1E
100
AcDbEntity
  8
躯体と製品
  6
Continuous
 62
     3
100
AcDbLine
 10
1783.350552676392
 20
855.414448064806
 30
0.0
 11
1783.350552676392
 21
771.2613417649507
 31
0.0
  0
ARC
  5
6F8C
330
1E
100
AcDbEntity
  8
躯体と製品
  6
Continuous
 62
     3
100
AcDbCircle
 10
1780.350552676392
 20
771.2613417649507
 30
0.0
 40
3.0
100
AcDbArc
 50
270.0
 51
0.0
  0
ARC
  5
6F8D
330
1E
100
AcDbEntity
  8
躯体と製品
  6
Continuous
 62
     3
100
AcDbCircle
 10
1780.350552676392
 20
855.414448064806
 30
0.0
 40
3.0
100
AcDbArc
 50
0.0
 51
86.99999999999441
  0
LINE
  5
6F8E
330
1E
100
AcDbEntity
  8
躯体と製品
  6
Continuous
 62
     3
100
AcDbLine
 10
1780.350552676392
 20
768.2613417649506
 30
0.0
 11
1773.350552676392
 21
768.2613417649506
 31
0.0
  0
ARC
  5
6F8F
330
1E
100
AcDbEntity
  8
躯体と製品
  6
Continuous
 62
     3
100
AcDbCircle
 10
1574.350552676392
 20
870.2159399811041
 30
0.0
 40
2.5
100
AcDbArc
 50
180.0
 51
266.9999999999944
  0
ARC
  5
6F90
330
1E
100
AcDbEntity
  8
躯体と製品
  6
Continuous
 62
     3
100
AcDbCircle
 10
1780.350552676392
 20
855.414448064806
 30
0.0
 40
1.5
100
AcDbArc
 50
0.0
 51
86.99999999999441
  0
LINE
  5
6F91
330
1E
100
AcDbEntity
  8
躯体と製品
  6
Continuous
 62
     4
100
AcDbLine
 10
1591.549545012188
 20
864.0968009612937
 30
0.0
 11
1589.61305308008
 21
866.0332928934023
 31
0.0
  0
LINE
  5
6F92
330
1E
100
AcDbEntity
  8
躯体と製品
  6
Continuous
 62
     4
100
AcDbLine
 10
1741.343975225375
 20
856.2464075248524
 30
0.0
 11
1739.407483293267
 21
858.1828994569606
 31
0.0
  0
LINE
  5
6F93
330
1E
100
AcDbEntity
  8
躯体と製品
  6
Continuous
 62
     4
100
AcDbLine
 10
1604.354381454913
 20
860.7047554328124
 30
0.0
 11
1602.011299415091
 21
863.0478374726337
 31
0.0
  0
LINE
  5
6F94
330
1E
100
AcDbEntity
  8
躯体と製品
  6
Continuous
 62
     4
100
AcDbLine
 10
1604.424806430569
 20
862.0485440195297
 30
0.0
 11
1603.503727836785
 21
862.9696226133138
 31
0.0
  0
LINE
  5
6F95
330
1E
100
AcDbEntity
  8
躯体と製品
  6
Continuous
 62
     4
100
AcDbLine
 10
1604.283956479258
 20
859.3609668460942
 30
0.0
 11
1600.518870993398
 21
863.1260523319534
 31
0.0
  0
LINE
  5
6F96
330
1E
100
AcDbEntity
  8
躯体と製品
  6
Continuous
 62
     4
100
AcDbLine
 10
1603.253460582639
 20
858.9772491803396
 30
0.0
 11
1599.026442571705
 21
863.2042671912731
 31
0.0
  0
LINE
  5
6F97
330
1E
100
AcDbEntity
  8
躯体と製品
  6
Continuous
 62
     4
100
AcDbLine
 10
1601.761032160948
 20
859.0554640396591
 30
0.0
 11
1597.534014150014
 21
863.2824820505932
 31
0.0
  0
LINE
  5
6F98
330
1E
100
AcDbEntity
  8
躯体と製品
  6
Continuous
 62
     4
100
AcDbLine
 10
1600.268603739255
 20
859.1336788989789
 30
0.0
 11
1596.041585728321
 21
863.360696909913
 31
0.0
  0
LINE
  5
6F99
330
1E
100
AcDbEntity
  8
躯体と製品
  6
Continuous
 62
     4
100
AcDbLine
 10
1598.776175317562
 20
859.2118937582988
 30
0.0
 11
1594.549157306628
 21
863.4389117692325
 31
0.0
  0
LINE
  5
6F9A
330
1E
100
AcDbEntity
  8
躯体と製品
  6
Continuous
 62
     4
100
AcDbLine
 10
1597.283746895868
 20
859.2901086176187
 30
0.0
 11
1593.056728884935
 21
863.5171266285524
 31
0.0
  0
LINE
  5
6F9B
330
1E
100
AcDbEntity
  8
躯体と製品
  6
Continuous
 62
     4
100
AcDbLine
 10
1595.791318474176
 20
859.3683234769384
 30
0.0
 11
1591.564300463241
 21
863.5953414878724
 31
0.0
  0
LINE
  5
6F9C
330
1E
100
AcDbEntity
  8
躯体と製品
  6
Continuous
 62
     4
100
AcDbLine
 10
1594.298890052482
 20
859.446538336258
 30
0.0
 11
1590.071872041549
 21
863.6735563471923
 31
0.0
  0
LINE
  5
6F9D
330
1E
100
AcDbEntity
  8
躯体と製品
  6
Continuous
 62
     4
100
AcDbLine
 10
1592.806461630789
 20
859.5247531955783
 30
0.0
 11
1589.447966252643
 21
862.8832485737243
 31
0.0
  0
LINE
  5
6F9E
330
1E
100
AcDbEntity
  8
躯体と製品
  6
Continuous
 62
     4
100
AcDbLine
 10
1591.314033209096
 20
859.6029680548983
 30
0.0
 11
1589.377541276987
 21
861.539459987007
 31
0.0
  0
LINE
  5
6F9F
330
1E
100
AcDbEntity
  8
躯体と製品
  6
Continuous
 62
     4
100
AcDbLine
 10
1589.821604787404
 20
859.6811829142179
 30
0.0
 11
1589.307116301331
 21
860.1956714002907
 31
0.0
  0
LINE
  5
6FA0
330
1E
100
AcDbEntity
  8
躯体と製品
  6
Continuous
 62
     4
100
AcDbLine
 10
1590.057116590498
 20
864.1750158206132
 30
0.0
 11
1589.542628104425
 21
864.6895043066862
 31
0.0
  0
LINE
  5
6FA1
330
1E
100
AcDbEntity
  8
躯体と製品
  6
Continuous
 62
     3
100
AcDbLine
 10
1752.825614429597
 20
827.6062546236879
 30
0.0
 11
1588.051741195093
 21
836.2416874037732
 31
0.0
  0
LINE
  5
6FA2
330
1E
100
AcDbEntity
  8
躯体と製品
  6
DASHED1
 62
     7
100
AcDbLine
 10
1588.1825810857
 20
838.7382612406597
 30
0.0
 11
1593.175728759473
 21
838.4765814594448
 31
0.0
  0
LINE
  5
6FA3
330
1E
100
AcDbEntity
  8
躯体と製品
  6
DASHED1
 62
     7
100
AcDbLine
 10
1593.175728759473
 20
838.4765814594448
 30
0.0
 11
1593.228064715716
 21
839.4752109941993
 31
0.0
  0
LINE
  5
6FA4
330
1E
100
AcDbEntity
  8
躯体と製品
  6
DASHED1
 62
     7
100
AcDbLine
 10
1593.228064715716
 20
839.4752109941993
 30
0.0
 11
1613.200655410808
 21
838.4284918693406
 31
0.0
  0
LINE
  5
6FA5
330
1E
100
AcDbEntity
  8
躯体と製品
  6
DASHED1
 62
     7
100
AcDbLine
 10
1613.148319454565
 20
837.4298623345861
 30
0.0
 11
1613.200655410808
 21
838.4284918693406
 31
0.0
  0
LINE
  5
6FA6
330
1E
100
AcDbEntity
  8
躯体と製品
  6
DASHED1
 62
     7
100
AcDbLine
 10
1613.148319454565
 20
837.4298623345861
 30
0.0
 11
1616.643522826205
 21
837.2466864877358
 31
0.0
  0
ARC
  5
6FA7
330
1E
100
AcDbEntity
  8
躯体と製品
  6
DASHED1
 62
     7
100
AcDbCircle
 10
1616.72202676057
 20
838.7446307898676
 30
0.0
 40
1.500000000000001
100
AcDbArc
 50
266.9999999999944
 51
86.99999999999441
  0
LINE
  5
6FA8
330
1E
100
AcDbEntity
  8
躯体と製品
  6
DASHED1
 62
     7
100
AcDbLine
 10
1588.339588954429
 20
841.7341498449234
 30
0.0
 11
1616.800530694934
 21
840.2425750919995
 31
0.0
  0
LINE
  5
6FA9
330
1E
100
AcDbEntity
  8
躯体と製品
  6
Continuous
 62
     3
100
AcDbLine
 10
1566.650552676392
 20
888.2680679773745
 30
0.0
 11
1566.650552676392
 21
886.7528374948667
 31
0.0
  0
LINE
  5
6FAA
330
1E
100
AcDbEntity
  8
躯体と製品
  6
Continuous
 62
     3
100
AcDbLine
 10
1563.006344268857
 20
890.3504727816804
 30
0.0
 11
1566.650552676392
 21
888.2680679773745
 31
0.0
  0
ARC
  5
6FAB
330
1E
100
AcDbEntity
  8
躯体と製品
  6
Continuous
 62
     3
100
AcDbCircle
 10
1563.750552676392
 20
891.6528374948669
 30
0.0
 40
1.5
100
AcDbArc
 50
180.0
 51
240.2551187030594
  0
LINE
  5
6FAC
330
1E
100
AcDbEntity
  8
躯体と製品
  6
Continuous
 62
     3
100
AcDbLine
 10
1562.250552676392
 20
891.6528374948669
 30
0.0
 11
1562.250552676392
 21
894.9028374948667
 31
0.0
  0
ARC
  5
6FAD
330
1E
100
AcDbEntity
  8
躯体と製品
  6
Continuous
 62
     3
100
AcDbCircle
 10
1579.850552676392
 20
841.1776690385105
 30
0.0
 40
2.0
100
AcDbArc
 50
180.0
 51
266.9999999999944
  0
LINE
  5
6FAE
330
1E
100
AcDbEntity
  8
躯体と製品
  6
Continuous
 62
     3
100
AcDbLine
 10
1579.745880763906
 20
839.1804099690014
 30
0.0
 11
1586.185322016191
 21
838.8429331531455
 31
0.0
  0
LINE
  5
6FAF
330
1E
100
AcDbEntity
  8
躯体と製品
  6
Continuous
 62
     3
100
AcDbLine
 10
1577.850552676392
 20
841.1776690385105
 30
0.0
 11
1577.850552676392
 21
848.6528374948669
 31
0.0
  0
ARC
  5
6FB0
330
1E
100
AcDbEntity
  8
躯体と製品
  6
Continuous
 62
     3
100
AcDbCircle
 10
1581.350552676392
 20
843.1018020615818
 30
0.0
 40
1.0
100
AcDbArc
 50
180.0
 51
266.9999999999944
  0
LINE
  5
6FB1
330
1E
100
AcDbEntity
  8
躯体と製品
  6
Continuous
 62
     3
100
AcDbLine
 10
1581.298216720149
 20
842.1031725268273
 30
0.0
 11
1586.34232988492
 21
841.8388217574092
 31
0.0
  0
LINE
  5
6FB2
330
1E
100
AcDbEntity
  8
躯体と製品
  6
Continuous
 62
     3
100
AcDbLine
 10
1580.350552676392
 20
843.1018020615818
 30
0.0
 11
1580.350552676392
 21
850.1528374948666
 31
0.0
  0
ARC
  5
6FB3
330
1E
100
AcDbEntity
  8
躯体と製品
  6
Continuous
 62
     3
100
AcDbCircle
 10
1586.159154038069
 20
838.3436183857682
 30
0.0
 40
0.5
100
AcDbArc
 50
357.0000000000011
 51
86.99999999999441
  0
LINE
  5
6FB4
330
1E
100
AcDbEntity
  8
躯体と製品
  6
Continuous
 62
     3
100
AcDbLine
 10
1586.658468805446
 20
838.3174504076469
 30
0.0
 11
1586.606132849204
 21
837.3188208728922
 31
0.0
  0
ARC
  5
6FB5
330
1E
100
AcDbEntity
  8
躯体と製品
  6
Continuous
 62
     3
100
AcDbCircle
 10
1587.105447616581
 20
837.2926528947708
 30
0.0
 40
0.5
100
AcDbArc
 50
177.0000000000011
 51
266.9999999999944
  0
LINE
  5
6FB6
330
1E
100
AcDbEntity
  8
躯体と製品
  6
Continuous
 62
     3
100
AcDbLine
 10
1587.07927963846
 20
836.7933381273934
 30
0.0
 11
1587.578594405837
 21
836.7671701492721
 31
0.0
  0
ARC
  5
6FB7
330
1E
100
AcDbEntity
  8
躯体と製品
  6
Continuous
 62
     3
100
AcDbCircle
 10
1587.604762383958
 20
837.2664849166492
 30
0.0
 40
0.5
100
AcDbArc
 50
266.9999999999944
 51
357.0000000000011
  0
ARC
  5
6FB8
330
1E
100
AcDbEntity
  8
躯体と製品
  6
Continuous
 62
     3
100
AcDbCircle
 10
1586.368497863041
 20
842.3381365247864
 30
0.0
 40
0.5
100
AcDbArc
 50
266.9999999999944
 51
357.0000000000011
  0
LINE
  5
6FB9
330
1E
100
AcDbEntity
  8
躯体と製品
  6
Continuous
 62
     3
100
AcDbLine
 10
1586.867812630418
 20
842.3119685466652
 30
0.0
 11
1586.972484542904
 21
844.3092276161742
 31
0.0
  0
ARC
  5
6FBA
330
1E
100
AcDbEntity
  8
躯体と製品
  6
Continuous
 62
     3
100
AcDbCircle
 10
1587.471799310281
 20
844.2830596380526
 30
0.0
 40
0.5
100
AcDbArc
 50
86.99999999999441
 51
177.0000000000011
  0
LINE
  5
6FBB
330
1E
100
AcDbEntity
  8
躯体と製品
  6
Continuous
 62
     3
100
AcDbLine
 10
1587.497967288403
 20
844.7823744054298
 30
0.0
 11
1587.997282055781
 21
844.7562064273085
 31
0.0
  0
ARC
  5
6FBC
330
1E
100
AcDbEntity
  8
躯体と製品
  6
Continuous
 62
     3
100
AcDbCircle
 10
1587.971114077659
 20
844.2568916599313
 30
0.0
 40
0.5
100
AcDbArc
 50
357.0000000000011
 51
86.99999999999441
  0
LINE
  5
6FBD
330
1E
100
AcDbEntity
  8
躯体と製品
  6
Continuous
 62
     3
100
AcDbLine
 10
1568.350552676392
 20
888.1528374948668
 30
0.0
 11
1573.850552676392
 21
888.1528374948668
 31
0.0
  0
LINE
  5
6FBE
330
1E
100
AcDbEntity
  8
躯体と製品
  6
Continuous
 62
     3
100
AcDbLine
 10
1574.850552676392
 20
889.6528374948669
 30
0.0
 11
1567.250552676392
 21
889.6528374948669
 31
0.0
  0
ARC
  5
6FBF
330
1E
100
AcDbEntity
  8
躯体と製品
  6
Continuous
 62
     3
100
AcDbCircle
 10
1568.350552676392
 20
887.6528374948668
 30
0.0
 40
0.5
100
AcDbArc
 50
90.0
 51
180.0
  0
LINE
  5
6FC0
330
1E
100
AcDbEntity
  8
躯体と製品
  6
Continuous
 62
     3
100
AcDbLine
 10
1567.850552676392
 20
887.6528374948668
 30
0.0
 11
1567.850552676392
 21
886.7528374948667
 31
0.0
  0
LINE
  5
6FC1
330
1E
100
AcDbEntity
  8
躯体と製品
  6
Continuous
 62
     3
100
AcDbLine
 10
1563.750552676392
 20
891.6528374948669
 30
0.0
 11
1567.250552676392
 21
889.6528374948669
 31
0.0
  0
LINE
  5
6FC2
330
1E
100
AcDbEntity
  8
躯体と製品
  6
Continuous
 62
     3
100
AcDbLine
 10
1563.750552676392
 20
894.9028374948667
 30
0.0
 11
1563.750552676392
 21
891.6528374948669
 31
0.0
  0
ARC
  5
6FC3
330
1E
100
AcDbEntity
  8
躯体と製品
  6
Continuous
 62
     3
100
AcDbCircle
 10
1563.000552676392
 20
894.9028374948667
 30
0.0
 40
0.75
100
AcDbArc
 50
0.0
 51
180.0
  0
ARC
  5
6FC4
330
1E
100
AcDbEntity
  8
躯体と製品
  6
Continuous
 62
     3
100
AcDbCircle
 10
1567.250552676392
 20
886.7528374948667
 30
0.0
 40
0.5999999999999998
100
AcDbArc
 50
180.0
 51
0.0
  0
LINE
  5
6FC5
330
1E
100
AcDbEntity
  8
躯体と製品
  6
Continuous
 62
     3
100
AcDbLine
 10
1575.850552676392
 20
875.1528374948668
 30
0.0
 11
1575.850552676392
 21
888.6528374948667
 31
0.0
  0
ARC
  5
6FC6
330
1E
100
AcDbEntity
  8
躯体と製品
  6
Continuous
 62
     3
100
AcDbCircle
 10
1573.350552676392
 20
884.1528374948667
 30
0.0
 40
1.0
100
AcDbArc
 50
270.0
 51
0.0
  0
LINE
  5
6FC7
330
1E
100
AcDbEntity
  8
躯体と製品
  6
Continuous
 62
     3
100
AcDbLine
 10
1576.850552676392
 20
849.6528374948669
 30
0.0
 11
1566.350552676392
 21
849.6528374948669
 31
0.0
  0
LINE
  5
6FC8
330
1E
100
AcDbEntity
  8
躯体と製品
  6
Continuous
 62
     3
100
AcDbLine
 10
1573.350552676392
 20
883.1528374948668
 30
0.0
 11
1568.850552676392
 21
883.1528374948668
 31
0.0
  0
LINE
  5
6FC9
330
1E
100
AcDbEntity
  8
躯体と製品
  6
Continuous
 62
     3
100
AcDbLine
 10
1578.350552676392
 20
852.1528374948669
 30
0.0
 11
1570.350552676392
 21
852.1528374948669
 31
0.0
  0
LINE
  5
6FCA
330
1E
100
AcDbEntity
  8
躯体と製品
  6
Continuous
 62
     3
100
AcDbLine
 10
1569.850552676392
 20
881.6528374948669
 30
0.0
 11
1573.850552676392
 21
881.6528374948669
 31
0.0
  0
ARC
  5
6FCB
330
1E
100
AcDbEntity
  8
躯体と製品
  6
Continuous
 62
     3
100
AcDbCircle
 10
1578.350552676392
 20
850.1528374948666
 30
0.0
 40
2.0
100
AcDbArc
 50
0.0
 51
90.0
  0
ARC
  5
6FCC
330
1E
100
AcDbEntity
  8
躯体と製品
  6
Continuous
 62
     3
100
AcDbCircle
 10
1576.850552676392
 20
848.6528374948669
 30
0.0
 40
1.0
100
AcDbArc
 50
0.0
 51
90.0
  0
LINE
  5
6FCD
330
1E
100
AcDbEntity
  8
躯体と製品
  6
Continuous
 62
     3
100
AcDbLine
 10
1575.350552676392
 20
874.6528374948669
 30
0.0
 11
1574.350552676392
 21
874.6528374948669
 31
0.0
  0
ARC
  5
6FCE
330
1E
100
AcDbEntity
  8
躯体と製品
  6
Continuous
 62
     3
100
AcDbCircle
 10
1575.350552676392
 20
875.1528374948668
 30
0.0
 40
0.5
100
AcDbArc
 50
270.0
 51
0.0
  0
LINE
  5
6FCF
330
1E
100
AcDbEntity
  8
躯体と製品
  6
Continuous
 62
     3
100
AcDbLine
 10
1574.350552676392
 20
881.1528374948668
 30
0.0
 11
1574.350552676392
 21
876.6528374948668
 31
0.0
  0
ARC
  5
6FD0
330
1E
100
AcDbEntity
  8
躯体と製品
  6
Continuous
 62
     3
100
AcDbCircle
 10
1573.850552676392
 20
881.1528374948668
 30
0.0
 40
0.5
100
AcDbArc
 50
0.0
 51
90.0
  0
ARC
  5
6FD1
330
1E
100
AcDbEntity
  8
躯体と製品
  6
Continuous
 62
     3
100
AcDbCircle
 10
1574.350552676392
 20
875.6528374948668
 30
0.0
 40
1.0
100
AcDbArc
 50
90.0
 51
270.0
  0
ARC
  5
6FD2
330
1E
100
AcDbEntity
  8
躯体と製品
  6
Continuous
 62
     3
100
AcDbCircle
 10
1574.850552676392
 20
888.6528374948667
 30
0.0
 40
1.0
100
AcDbArc
 50
0.0
 51
90.0
  0
LINE
  5
6FD3
330
1E
100
AcDbEntity
  8
躯体と製品
  6
Continuous
 62
     3
100
AcDbLine
 10
1574.350552676392
 20
884.1528374948667
 30
0.0
 11
1574.350552676392
 21
887.6528374948668
 31
0.0
  0
ARC
  5
6FD4
330
1E
100
AcDbEntity
  8
躯体と製品
  6
Continuous
 62
     3
100
AcDbCircle
 10
1573.850552676392
 20
887.6528374948668
 30
0.0
 40
0.5
100
AcDbArc
 50
0.0
 51
90.0
  0
ARC
  5
6FD5
330
1E
100
AcDbEntity
  8
躯体と製品
  6
Continuous
 62
     3
100
AcDbCircle
 10
1570.350552676392
 20
853.1528374948669
 30
0.0
 40
1.0
100
AcDbArc
 50
180.0
 51
270.0
  0
ARC
  5
6FD6
330
1E
100
AcDbEntity
  8
躯体と製品
  6
Continuous
 62
     3
100
AcDbCircle
 10
1569.850552676392
 20
881.1528374948668
 30
0.0
 40
0.5
100
AcDbArc
 50
90.0
 51
180.0
  0
LINE
  5
6FD7
330
1E
100
AcDbEntity
  8
躯体と製品
  6
Continuous
 62
     3
100
AcDbLine
 10
1569.350552676392
 20
853.1528374948669
 30
0.0
 11
1569.350552676392
 21
881.1528374948668
 31
0.0
  0
LINE
  5
6FD8
330
1E
100
AcDbEntity
  8
躯体と製品
  6
Continuous
 62
     3
100
AcDbLine
 10
1566.850552676392
 20
851.1528374948666
 30
0.0
 11
1565.350552676392
 21
851.1528374948666
 31
0.0
  0
ARC
  5
6FD9
330
1E
100
AcDbEntity
  8
躯体と製品
  6
Continuous
 62
     3
100
AcDbCircle
 10
1566.850552676392
 20
851.6528374948668
 30
0.0
 40
0.5
100
AcDbArc
 50
270.0
 51
0.0
  0
LINE
  5
6FDA
330
1E
100
AcDbEntity
  8
躯体と製品
  6
Continuous
 62
     3
100
AcDbLine
 10
1567.350552676392
 20
851.6528374948668
 30
0.0
 11
1567.350552676392
 21
881.6528374948669
 31
0.0
  0
ARC
  5
6FDB
330
1E
100
AcDbEntity
  8
躯体と製品
  6
Continuous
 62
     3
100
AcDbCircle
 10
1568.850552676392
 20
881.6528374948669
 30
0.0
 40
1.5
100
AcDbArc
 50
90.0
 51
180.0
  0
ARC
  5
6FDC
330
1E
100
AcDbEntity
  8
躯体と製品
  6
Continuous
 62
     3
100
AcDbCircle
 10
1566.350552676392
 20
849.1528374948668
 30
0.0
 40
0.5
100
AcDbArc
 50
90.0
 51
180.0
  0
LINE
  5
6FDD
330
1E
100
AcDbEntity
  8
躯体と製品
  6
Continuous
 62
     3
100
AcDbLine
 10
1565.850552676392
 20
849.1528374948668
 30
0.0
 11
1565.850552676392
 21
847.9028374948665
 31
0.0
  0
ARC
  5
6FDE
330
1E
100
AcDbEntity
  8
躯体と製品
  6
Continuous
 62
     3
100
AcDbCircle
 10
1565.100552676392
 20
847.9028374948665
 30
0.0
 40
0.75
100
AcDbArc
 50
180.0
 51
0.0
  0
ARC
  5
6FDF
330
1E
100
AcDbEntity
  8
躯体と製品
  6
Continuous
 62
     3
100
AcDbCircle
 10
1565.350552676392
 20
850.1528374948666
 30
0.0
 40
1.0
100
AcDbArc
 50
90.0
 51
180.0
  0
LINE
  5
6FE0
330
1E
100
AcDbEntity
  8
躯体と製品
  6
Continuous
 62
     3
100
AcDbLine
 10
1564.350552676392
 20
850.1528374948666
 30
0.0
 11
1564.350552676392
 21
847.9028374948665
 31
0.0
  0
LINE
  5
6FE1
330
1E
100
AcDbEntity
  8
躯体と製品
  6
Continuous
 62
     7
100
AcDbLine
 10
1604.26107918812
 20
858.9244421268617
 30
0.0
 11
1604.470423013092
 21
862.9189602658801
 31
0.0
  0
LINE
  5
6FE2
330
1E
100
AcDbEntity
  8
躯体と製品
  6
Continuous
 62
     7
100
AcDbLine
 10
1589.490979991774
 20
863.7039996095241
 30
0.0
 11
1604.470423013092
 21
862.9189602658801
 31
0.0
  0
LINE
  5
6FE3
330
1E
100
AcDbEntity
  8
躯体と製品
  6
Continuous
 62
     4
100
AcDbLine
 10
1754.1488116681
 20
852.8543619963709
 30
0.0
 11
1751.805729628278
 21
855.197444036192
 31
0.0
  0
LINE
  5
6FE4
330
1E
100
AcDbEntity
  8
躯体と製品
  6
Continuous
 62
     4
100
AcDbLine
 10
1754.219236643755
 20
854.1981505830881
 30
0.0
 11
1753.298158049971
 21
855.1192291768723
 31
0.0
  0
LINE
  5
6FE5
330
1E
100
AcDbEntity
  8
躯体と製品
  6
Continuous
 62
     4
100
AcDbLine
 10
1754.078386692444
 20
851.5105734096527
 30
0.0
 11
1750.313301206585
 21
855.2756588955118
 31
0.0
  0
LINE
  5
6FE6
330
1E
100
AcDbEntity
  8
躯体と製品
  6
Continuous
 62
     4
100
AcDbLine
 10
1753.047890795826
 20
851.1268557438981
 30
0.0
 11
1748.820872784892
 21
855.3538737548317
 31
0.0
  0
LINE
  5
6FE7
330
1E
100
AcDbEntity
  8
躯体と製品
  6
Continuous
 62
     4
100
AcDbLine
 10
1751.555462374134
 20
851.2050706032178
 30
0.0
 11
1747.328444363201
 21
855.4320886141516
 31
0.0
  0
LINE
  5
6FE8
330
1E
100
AcDbEntity
  8
躯体と製品
  6
Continuous
 62
     4
100
AcDbLine
 10
1750.063033952441
 20
851.2832854625374
 30
0.0
 11
1745.836015941507
 21
855.5103034734711
 31
0.0
  0
LINE
  5
6FE9
330
1E
100
AcDbEntity
  8
躯体と製品
  6
Continuous
 62
     4
100
AcDbLine
 10
1748.570605530748
 20
851.3615003218573
 30
0.0
 11
1744.343587519814
 21
855.5885183327912
 31
0.0
  0
LINE
  5
6FEA
330
1E
100
AcDbEntity
  8
躯体と製品
  6
Continuous
 62
     4
100
AcDbLine
 10
1747.078177109055
 20
851.439715181177
 30
0.0
 11
1742.851159098121
 21
855.666733192111
 31
0.0
  0
LINE
  5
6FEB
330
1E
100
AcDbEntity
  8
躯体と製品
  6
Continuous
 62
     4
100
AcDbLine
 10
1745.585748687362
 20
851.5179300404968
 30
0.0
 11
1741.358730676428
 21
855.7449480514309
 31
0.0
  0
LINE
  5
6FEC
330
1E
100
AcDbEntity
  8
躯体と製品
  6
Continuous
 62
     4
100
AcDbLine
 10
1744.093320265669
 20
851.5961448998163
 30
0.0
 11
1739.866302254735
 21
855.8231629107506
 31
0.0
  0
LINE
  5
6FED
330
1E
100
AcDbEntity
  8
躯体と製品
  6
Continuous
 62
     4
100
AcDbLine
 10
1742.600891843976
 20
851.6743597591366
 30
0.0
 11
1739.24239646583
 21
855.0328551372826
 31
0.0
  0
LINE
  5
6FEE
330
1E
100
AcDbEntity
  8
躯体と製品
  6
Continuous
 62
     4
100
AcDbLine
 10
1741.108463422282
 20
851.7525746184569
 30
0.0
 11
1739.171971490173
 21
853.6890665505652
 31
0.0
  0
LINE
  5
6FEF
330
1E
100
AcDbEntity
  8
躯体と製品
  6
Continuous
 62
     7
100
AcDbLine
 10
1739.076066379988
 20
851.8590880340644
 30
0.0
 11
1739.28541020496
 21
855.8536061730825
 31
0.0
  0
LINE
  5
6FF0
330
1E
100
AcDbEntity
  8
躯体と製品
  6
Continuous
 62
     7
100
AcDbLine
 10
1754.264853226278
 20
855.0685668294384
 30
0.0
 11
1739.28541020496
 21
855.8536061730825
 31
0.0
  0
LINE
  5
6FF1
330
1E
100
AcDbEntity
  8
躯体と製品
  6
Continuous
 62
     4
100
AcDbLine
 10
1739.616035000591
 20
851.8307894777763
 30
0.0
 11
1739.101546514518
 21
852.3452779638493
 31
0.0
  0
LINE
  5
6FF2
330
1E
100
AcDbEntity
  8
躯体と製品
  6
Continuous
 62
     3
100
AcDbLine
 10
1753.977005466942
 20
849.5761043882881
 30
0.0
 11
1589.203132232437
 21
858.2115371683739
 31
0.0
  0
LINE
  5
6FF3
330
1E
100
AcDbEntity
  8
躯体と製品
  6
Continuous
 62
     3
100
AcDbLine
 10
1754.055509401307
 20
851.07404869042
 30
0.0
 11
1589.281636166802
 21
859.7094814705057
 31
0.0
  0
LINE
  5
6FF4
330
1E
100
AcDbEntity
  8
躯体と製品
  6
DASHED1
 62
     4
100
AcDbLine
 10
1752.87795038584
 20
828.604884158442
 30
0.0
 11
1588.104077151335
 21
837.2403169385277
 31
0.0
  0
LINE
  5
6FF5
330
1E
100
AcDbEntity
  8
躯体と製品
  6
DASHED1
 62
     4
100
AcDbLine
 10
1752.956454320205
 20
830.102828460574
 30
0.0
 11
1588.1825810857
 21
838.7382612406597
 31
0.0
  0
LINE
  5
6FF6
330
1E
100
AcDbEntity
  8
躯体と製品
  6
DASHED1
 62
     4
100
AcDbLine
 10
1753.139630167055
 20
833.598031832215
 30
0.0
 11
1588.36575693255
 21
842.2334646123008
 31
0.0
  0
LINE
  5
6FF7
330
1E
100
AcDbEntity
  8
躯体と製品
  6
DASHED1
 62
     4
100
AcDbLine
 10
1753.233834888292
 20
835.3955649947732
 30
0.0
 11
1588.459961653787
 21
844.030997774859
 31
0.0
  0
LINE
  5
6FF8
330
1E
100
AcDbEntity
  8
躯体と製品
  6
Continuous
 62
     3
100
AcDbLine
 10
1754.2910212044
 20
855.5678815968157
 30
0.0
 11
1589.517147969895
 21
864.2033143769015
 31
0.0
  0
LINE
  5
6FF9
330
1E
100
AcDbEntity
  8
躯体と製品
  6
Continuous
 62
     3
100
AcDbLine
 10
1588.051741195093
 20
836.2416874037736
 30
0.0
 11
1589.517147969895
 21
864.2033143769015
 31
0.0
  0
ARC
  5
6FFA
330
1E
100
AcDbEntity
  8
躯体と製品
  6
Continuous
 62
     3
100
AcDbCircle
 10
1763.091238346242
 20
826.3230773761165
 30
0.0
 40
0.5999999999999984
100
AcDbArc
 50
166.9999999999997
 51
346.9999999999997
  0
ARC
  5
6FFB
330
1E
100
AcDbEntity
  8
躯体と製品
  6
Continuous
 62
     3
100
AcDbCircle
 10
1762.602623817898
 20
829.0966079656131
 30
0.0
 40
0.5
100
AcDbArc
 50
346.9999999999997
 51
86.99999999999441
  0
ARC
  5
6FFC
330
1E
100
AcDbEntity
  8
躯体と製品
  6
Continuous
 62
     3
100
AcDbCircle
 10
1764.676378085298
 20
829.1882015788795
 30
0.0
 40
0.2999999999999999
100
AcDbArc
 50
86.99999999999441
 51
166.9999999999997
  0
ARC
  5
6FFD
330
1E
100
AcDbEntity
  8
躯体と製品
  6
Continuous
 62
     3
100
AcDbCircle
 10
1767.358619324748
 20
781.1613417649506
 30
0.0
 40
0.6000000000000015
100
AcDbArc
 50
90.0
 51
270.0
  0
LINE
  5
6FFE
330
1E
100
AcDbEntity
  8
躯体と製品
  6
Continuous
 62
     3
100
AcDbLine
 10
1778.526093602703
 20
773.4460290591536
 30
0.0
 11
1778.526093602703
 21
769.7613417649506
 31
0.0
  0
LINE
  5
6FFF
330
1E
100
AcDbEntity
  8
躯体と製品
  6
Continuous
 62
     3
100
AcDbLine
 10
1781.526093602703
 20
772.2613417649506
 30
0.0
 11
1781.526093602703
 21
773.7613417649505
 31
0.0
  0
LINE
  5
7000
330
1E
100
AcDbEntity
  8
躯体と製品
  6
Continuous
 62
     3
100
AcDbLine
 10
1779.026093602703
 20
769.7613417649506
 30
0.0
 11
1778.526093602703
 21
769.7613417649506
 31
0.0
  0
ARC
  5
7001
330
1E
100
AcDbEntity
  8
躯体と製品
  6
Continuous
 62
     3
100
AcDbCircle
 10
1779.026093602703
 20
772.2613417649506
 30
0.0
 40
2.5
100
AcDbArc
 50
270.0
 51
0.0
  0
LINE
  5
7002
330
1E
100
AcDbEntity
  8
躯体と製品
  6
Continuous
 62
     3
100
AcDbLine
 10
1771.758619324748
 20
781.7613417649506
 30
0.0
 11
1771.758619324748
 21
782.7613417649506
 31
0.0
  0
LINE
  5
7003
330
1E
100
AcDbEntity
  8
躯体と製品
  6
Continuous
 62
     3
100
AcDbLine
 10
1771.758619324748
 20
782.7613417649506
 30
0.0
 11
1769.758619324748
 21
781.7613417649506
 31
0.0
  0
LINE
  5
7004
330
1E
100
AcDbEntity
  8
躯体と製品
  6
Continuous
 62
     3
100
AcDbLine
 10
1767.358619324748
 20
781.7613417649506
 30
0.0
 11
1769.758619324748
 21
781.7613417649506
 31
0.0
  0
ARC
  5
7005
330
1E
100
AcDbEntity
  8
躯体と製品
  6
Continuous
 62
     3
100
AcDbCircle
 10
1776.14117074648
 20
782.2613417649506
 30
0.0
 40
0.5
100
AcDbArc
 50
270.0
 51
11.99999999999979
  0
LINE
  5
7006
330
1E
100
AcDbEntity
  8
躯体と製品
  6
Continuous
 62
     3
100
AcDbLine
 10
1776.608795182154
 20
780.5613417649506
 30
0.0
 11
1767.358619324748
 21
780.5613417649506
 31
0.0
  0
LINE
  5
7007
330
1E
100
AcDbEntity
  8
躯体と製品
  6
Continuous
 62
     3
100
AcDbLine
 10
1777.097868982522
 20
780.1652976103594
 30
0.0
 11
1778.526093602703
 21
773.4460290591536
 31
0.0
  0
ARC
  5
7008
330
1E
100
AcDbEntity
  8
躯体と製品
  6
Continuous
 62
     3
100
AcDbCircle
 10
1776.608795182154
 20
780.0613417649506
 30
0.0
 40
0.5
100
AcDbArc
 50
11.99999999999979
 51
90.0
  0
ARC
  5
7009
330
1E
100
AcDbEntity
  8
躯体と製品
  6
Continuous
 62
     3
100
AcDbCircle
 10
1753.377265153218
 20
828.5787161803208
 30
0.0
 40
0.5
100
AcDbArc
 50
177.0000000000011
 51
266.9999999999944
  0
LINE
  5
700A
330
1E
100
AcDbEntity
  8
躯体と製品
  6
Continuous
 62
     3
100
AcDbLine
 10
1753.850411942474
 20
828.0532334348217
 30
0.0
 11
1753.351097175096
 21
828.0794014129433
 31
0.0
  0
ARC
  5
700B
330
1E
100
AcDbEntity
  8
躯体と製品
  6
Continuous
 62
     3
100
AcDbCircle
 10
1753.876579920595
 20
828.5525482021991
 30
0.0
 40
0.5
100
AcDbArc
 50
266.9999999999944
 51
357.0000000000011
  0
ARC
  5
700C
330
1E
100
AcDbEntity
  8
躯体と製品
  6
Continuous
 62
     3
100
AcDbCircle
 10
1765.817089347995
 20
828.4274587926001
 30
0.0
 40
1.0
100
AcDbArc
 50
11.99999999999979
 51
86.99999999999441
  0
ARC
  5
700D
330
1E
100
AcDbEntity
  8
躯体と製品
  6
Continuous
 62
     3
100
AcDbCircle
 10
1766.635700697248
 20
829.3859295356876
 30
0.0
 40
3.0
100
AcDbArc
 50
11.99999999999979
 51
86.99999999999441
  0
ARC
  5
700E
330
1E
100
AcDbEntity
  8
躯体と製品
  6
Continuous
 62
     3
100
AcDbCircle
 10
1753.743616846918
 20
835.5691229236025
 30
0.0
 40
0.5
100
AcDbArc
 50
86.99999999999441
 51
177.0000000000011
  0
LINE
  5
700F
330
1E
100
AcDbEntity
  8
躯体と製品
  6
Continuous
 62
     3
100
AcDbLine
 10
1754.269099592417
 20
836.0422697128585
 30
0.0
 11
1753.76978482504
 21
836.06843769098
 31
0.0
  0
ARC
  5
7010
330
1E
100
AcDbEntity
  8
躯体と製品
  6
Continuous
 62
     3
100
AcDbCircle
 10
1754.242931614296
 20
835.5429549454811
 30
0.0
 40
0.5
100
AcDbArc
 50
357.0000000000011
 51
86.99999999999441
  0
LINE
  5
7011
330
1E
100
AcDbEntity
  8
躯体と製品
  6
Continuous
 62
     3
100
AcDbLine
 10
1769.570143499449
 20
830.0096646081408
 30
0.0
 11
1781.526093602703
 21
773.7613417649505
 31
0.0
  0
LINE
  5
7012
330
1E
100
AcDbEntity
  8
躯体と製品
  6
Continuous
 62
     3
100
AcDbLine
 10
1766.795236948729
 20
828.6353704834178
 30
0.0
 11
1776.630244546847
 21
782.3652976103596
 31
0.0
  0
LINE
  5
7013
330
1E
100
AcDbEntity
  8
躯体と製品
  6
Continuous
 62
     3
100
AcDbLine
 10
1776.14117074648
 20
781.7613417649506
 30
0.0
 11
1771.758619324748
 21
781.7613417649506
 31
0.0
  0
LINE
  5
7014
330
1E
100
AcDbEntity
  8
躯体と製品
  6
Continuous
 62
     3
100
AcDbLine
 10
1754.637574469187
 20
833.5195278978506
 30
0.0
 11
1754.742246381673
 21
835.5167869673596
 31
0.0
  0
LINE
  5
7015
330
1E
100
AcDbEntity
  8
躯体と製品
  6
Continuous
 62
     3
100
AcDbLine
 10
1755.110721258442
 20
832.9940451523519
 30
0.0
 11
1766.792708565977
 21
832.3818181399513
 31
0.0
  0
ARC
  5
7016
330
1E
100
AcDbEntity
  8
躯体と製品
  6
Continuous
 62
     3
100
AcDbCircle
 10
1755.136889236564
 20
833.493359919729
 30
0.0
 40
0.5
100
AcDbArc
 50
177.0000000000011
 51
266.9999999999944
  0
LINE
  5
7017
330
1E
100
AcDbEntity
  8
躯体と製品
  6
Continuous
 62
     3
100
AcDbLine
 10
1754.428230644215
 20
829.5250097588322
 30
0.0
 11
1754.375894687973
 21
828.5263802240777
 31
0.0
  0
ARC
  5
7018
330
1E
100
AcDbEntity
  8
躯体と製品
  6
Continuous
 62
     3
100
AcDbCircle
 10
1754.927545411593
 20
829.4988417807109
 30
0.0
 40
0.5
100
AcDbArc
 50
86.99999999999441
 51
177.0000000000011
  0
LINE
  5
7019
330
1E
100
AcDbEntity
  8
躯体と製品
  6
Continuous
 62
     3
100
AcDbLine
 10
1764.384067065863
 20
829.2556868951827
 30
0.0
 11
1763.675860385113
 21
826.1881067435103
 31
0.0
  0
LINE
  5
701A
330
1E
100
AcDbEntity
  8
躯体と製品
  6
Continuous
 62
     3
100
AcDbLine
 10
1765.869425304238
 20
829.4260883273546
 30
0.0
 11
1764.692078872171
 21
829.4877904393057
 31
0.0
  0
LINE
  5
701B
330
1E
100
AcDbEntity
  8
躯体と製品
  6
Continuous
 62
     3
100
AcDbLine
 10
1754.953713389714
 20
829.998156548088
 30
0.0
 11
1762.62879179602
 21
829.5959227329905
 31
0.0
  0
LINE
  5
701C
330
1E
100
AcDbEntity
  8
躯体と製品
  6
Continuous
 62
     3
100
AcDbLine
 10
1763.08980885029
 20
828.984132438441
 30
0.0
 11
1762.506616307371
 21
826.4580480087229
 31
0.0
  0
LINE
  5
701D
330
1E
100
AcDbEntity
  8
躯体と製品
  6
DASHED1
 62
     7
100
AcDbLine
 10
1724.652520448428
 20
834.5902918177616
 30
0.0
 11
1753.113462188933
 21
833.0987170648377
 31
0.0
  0
ARC
  5
701E
330
1E
100
AcDbEntity
  8
躯体と製品
  6
DASHED1
 62
     7
100
AcDbCircle
 10
1724.574016514064
 20
833.0923475156296
 30
0.0
 40
1.5
100
AcDbArc
 50
86.99999999999441
 51
266.9999999999944
  0
LINE
  5
701F
330
1E
100
AcDbEntity
  8
躯体と製品
  6
DASHED1
 62
     7
100
AcDbLine
 10
1724.495512579699
 20
831.5944032134977
 30
0.0
 11
1727.990715951341
 21
831.4112273666477
 31
0.0
  0
LINE
  5
7020
330
1E
100
AcDbEntity
  8
躯体と製品
  6
DASHED1
 62
     7
100
AcDbLine
 10
1728.043051907583
 20
832.4098569014022
 30
0.0
 11
1727.990715951341
 21
831.4112273666477
 31
0.0
  0
LINE
  5
7021
330
1E
100
AcDbEntity
  8
躯体と製品
  6
DASHED1
 62
     7
100
AcDbLine
 10
1728.043051907583
 20
832.4098569014022
 30
0.0
 11
1748.015642602675
 21
831.3631377765432
 31
0.0
  0
LINE
  5
7022
330
1E
100
AcDbEntity
  8
躯体と製品
  6
DASHED1
 62
     7
100
AcDbLine
 10
1748.015642602675
 20
831.3631377765432
 30
0.0
 11
1747.963306646432
 21
830.3645082417885
 31
0.0
  0
LINE
  5
7023
330
1E
100
AcDbEntity
  8
躯体と製品
  6
DASHED1
 62
     7
100
AcDbLine
 10
1747.963306646432
 20
830.3645082417885
 30
0.0
 11
1752.956454320205
 21
830.102828460574
 31
0.0
  0
LINE
  5
7024
330
1E
100
AcDbEntity
  8
躯体と製品
  6
Continuous
 62
     4
100
AcDbLine
 10
1739.851546803684
 20
856.3246223841717
 30
0.0
 11
1739.337058317611
 21
856.8391108702446
 31
0.0
  0
LINE
  5
7025
330
1E
100
AcDbEntity
  8
躯体と製品
  6
DASHED1
 62
     4
100
AcDbLine
 10
1648.283529017825
 20
839.093307237724
 30
0.0
 11
1648.377733739062
 21
840.8908404002822
 31
0.0
  0
LINE
  5
7026
330
1E
100
AcDbEntity
  8
躯体と製品
  6
DASHED1
 62
     4
100
AcDbLine
 10
1718.187596450645
 20
835.4297903007179
 30
0.0
 11
1718.281801171882
 21
837.2273234632762
 31
0.0
  0
LINE
  5
7027
330
1E
100
AcDbEntity
  8
躯体と製品
  6
Continuous
 62
     3
100
AcDbLine
 10
1574.298216720149
 20
869.2173104463496
 30
0.0
 11
1780.507560545121
 21
858.4103366690696
 31
0.0
  0
LINE
  5
7028
330
1E
100
AcDbEntity
  8
躯体と製品
  6
DASHED1
 62
     4
100
AcDbLine
 10
1739.233074248717
 20
854.8549766383278
 30
0.0
 11
1604.418087056849
 21
861.9203307311254
 31
0.0
  0
LINE
  5
7029
330
1E
100
AcDbEntity
  8
躯体と製品
  6
Continuous
 62
     3
100
AcDbLine
 10
1752.825614429597
 20
827.6062546236879
 30
0.0
 11
1754.2910212044
 21
855.5678815968157
 31
0.0
  0
TEXT
  5
702A
330
1E
100
AcDbEntity
  8
図枠
 62
     7
100
AcDbText
 10
1718.350552676392
 20
657.881187621557
 30
0.0
 40
5.0
  1
50ＦＹＫ－Ｓ225
100
AcDbText
  0
TEXT
  5
702B
330
1E
100
AcDbEntity
  8
図枠
 62
     7
100
AcDbText
 10
1528.850552676392
 20
657.881187621557
 30
0.0
 40
5.0
  1
50ＦＹＫ－Ｓ225～500
100
AcDbText
  0
TEXT
  5
702C
330
1E
100
AcDbEntity
  8
図枠
 62
     7
100
AcDbText
 10
1428.850552676392
 20
648.8811876215573
 30
0.0
 40
5.0
  1
ＦＹＫサイドキャップＳ
100
AcDbText
  0
TEXT
  5
702D
330
1E
100
AcDbEntity
  8
図枠
 62
     7
100
AcDbText
 10
1428.850552676392
 20
657.881187621557
 30
0.0
 40
5.0
  1
ＦＹＫキャップＳ
100
AcDbText
  0
TEXT
  5
702E
330
1E
100
AcDbEntity
  8
図枠
 62
     7
100
AcDbText
 10
1413.850552676392
 20
468.8811876215571
 30
0.0
 40
5.0
  1
※
100
AcDbText
  0
TEXT
  5
702F
330
1E
100
AcDbEntity
  8
図枠
 62
     7
100
AcDbText
 10
1413.600552676392
 20
477.8811876215571
 30
0.0
 40
5.0
  1
21
100
AcDbText
  0
TEXT
  5
7030
330
1E
100
AcDbEntity
  8
図枠
 62
     7
100
AcDbText
 10
1413.600552676392
 20
486.8811876215572
 30
0.0
 40
5.0
  1
20
100
AcDbText
  0
TEXT
  5
7031
330
1E
100
AcDbEntity
  8
図枠
 62
     7
100
AcDbText
 10
1413.600552676392
 20
495.8811876215571
 30
0.0
 40
5.0
  1
19
100
AcDbText
  0
TEXT
  5
7032
330
1E
100
AcDbEntity
  8
図枠
 62
     7
100
AcDbText
 10
1413.600552676392
 20
504.8811876215572
 30
0.0
 40
5.0
  1
18
100
AcDbText
  0
TEXT
  5
7033
330
1E
100
AcDbEntity
  8
図枠
 62
     7
100
AcDbText
 10
1413.600552676392
 20
513.8811876215572
 30
0.0
 40
5.0
  1
17
100
AcDbText
  0
TEXT
  5
7034
330
1E
100
AcDbEntity
  8
図枠
 62
     7
100
AcDbText
 10
1413.600552676392
 20
522.8811876215571
 30
0.0
 40
5.0
  1
16
100
AcDbText
  0
TEXT
  5
7035
330
1E
100
AcDbEntity
  8
図枠
 62
     7
100
AcDbText
 10
1413.600552676392
 20
531.8811876215571
 30
0.0
 40
5.0
  1
15
100
AcDbText
  0
TEXT
  5
7036
330
1E
100
AcDbEntity
  8
図枠
 62
     7
100
AcDbText
 10
1413.600552676392
 20
540.8811876215572
 30
0.0
 40
5.0
  1
14
100
AcDbText
  0
TEXT
  5
7037
330
1E
100
AcDbEntity
  8
図枠
 62
     7
100
AcDbText
 10
1413.600552676392
 20
549.8811876215571
 30
0.0
 40
5.0
  1
13
100
AcDbText
  0
TEXT
  5
7038
330
1E
100
AcDbEntity
  8
図枠
 62
     7
100
AcDbText
 10
1413.600552676392
 20
558.8811876215571
 30
0.0
 40
5.0
  1
12
100
AcDbText
  0
TEXT
  5
7039
330
1E
100
AcDbEntity
  8
図枠
 62
     7
100
AcDbText
 10
1413.600552676392
 20
567.8811876215572
 30
0.0
 40
5.0
  1
11
100
AcDbText
  0
TEXT
  5
703A
330
1E
100
AcDbEntity
  8
図枠
 62
     7
100
AcDbText
 10
1413.600552676392
 20
576.8811876215572
 30
0.0
 40
5.0
  1
10
100
AcDbText
  0
TEXT
  5
703B
330
1E
100
AcDbEntity
  8
図枠
 62
     7
100
AcDbText
 10
1413.600552676392
 20
585.8811876215573
 30
0.0
 40
5.0
  1
 9
100
AcDbText
  0
TEXT
  5
703C
330
1E
100
AcDbEntity
  8
図枠
 62
     7
100
AcDbText
 10
1413.600552676392
 20
594.8811876215573
 30
0.0
 40
5.0
  1
 8
100
AcDbText
  0
TEXT
  5
703D
330
1E
100
AcDbEntity
  8
図枠
 62
     7
100
AcDbText
 10
1413.600552676392
 20
603.8811876215572
 30
0.0
 40
5.0
  1
 7
100
AcDbText
  0
TEXT
  5
703E
330
1E
100
AcDbEntity
  8
図枠
 62
     7
100
AcDbText
 10
1413.600552676392
 20
612.8811876215572
 30
0.0
 40
5.0
  1
 6
100
AcDbText
  0
TEXT
  5
703F
330
1E
100
AcDbEntity
  8
図枠
 62
     7
100
AcDbText
 10
1413.600552676392
 20
621.8811876215572
 30
0.0
 40
5.0
  1
 5
100
AcDbText
  0
TEXT
  5
7040
330
1E
100
AcDbEntity
  8
図枠
 62
     7
100
AcDbText
 10
1413.600552676392
 20
630.8811876215572
 30
0.0
 40
5.0
  1
 4
100
AcDbText
  0
TEXT
  5
7041
330
1E
100
AcDbEntity
  8
図枠
 62
     7
100
AcDbText
 10
1413.600552676392
 20
639.8811876215573
 30
0.0
 40
5.0
  1
 3
100
AcDbText
  0
TEXT
  5
7042
330
1E
100
AcDbEntity
  8
図枠
 62
     7
100
AcDbText
 10
1413.600552676392
 20
648.8811876215573
 30
0.0
 40
5.0
  1
 2
100
AcDbText
  0
TEXT
  5
7043
330
1E
100
AcDbEntity
  8
図枠
 62
     7
100
AcDbText
 10
1413.600552676392
 20
657.881187621557
 30
0.0
 40
5.0
  1
 1
100
AcDbText
  0
TEXT
  5
7044
330
1E
100
AcDbEntity
  8
図枠
 62
     7
100
AcDbText
 10
1411.850552676392
 20
666.8811876215572
 30
0.0
 40
5.0
  1
No.
100
AcDbText
  0
TEXT
  5
7045
330
1E
100
AcDbEntity
  8
図枠
 62
     7
100
AcDbText
 10
1528.850552676392
 20
468.8811876215571
 30
0.0
 40
5.0
  1
ｔ1.0×ｗ30
100
AcDbText
  0
TEXT
  5
7046
330
1E
100
AcDbEntity
  8
図枠
 62
     7
100
AcDbText
 10
1428.850552676392
 20
468.8811876215571
 30
0.0
 40
5.0
  1
ブチルテープ
100
AcDbText
  0
TEXT
  5
7047
330
1E
100
AcDbEntity
  8
図枠
 62
     7
100
AcDbText
 10
1528.850552676392
 20
477.8811876215571
 30
0.0
 40
5.0
  1
1.5×18×5.5穴
100
AcDbText
  0
TEXT
  5
7048
330
1E
100
AcDbEntity
  8
図枠
 62
     7
100
AcDbText
 10
1428.850552676392
 20
477.8811876215571
 30
0.0
 40
5.0
  1
ステンワッシャー
100
AcDbText
  0
TEXT
  5
7049
330
1E
100
AcDbEntity
  8
図枠
 62
     7
100
AcDbText
 10
1528.850552676392
 20
486.8811876215572
 30
0.0
 40
5.0
  1
1.5×18×6.5穴
100
AcDbText
  0
TEXT
  5
704A
330
1E
100
AcDbEntity
  8
図枠
 62
     7
100
AcDbText
 10
1428.850552676392
 20
486.8811876215572
 30
0.0
 40
5.0
  1
ステスワッシャー
100
AcDbText
  0
TEXT
  5
704B
330
1E
100
AcDbEntity
  8
図枠
 62
     7
100
AcDbText
 10
1528.850552676392
 20
495.8811876215571
 30
0.0
 40
5.0
  1
ナベ 5×50
100
AcDbText
  0
TEXT
  5
704C
330
1E
100
AcDbEntity
  8
図枠
 62
     7
100
AcDbText
 10
1428.850552676392
 20
495.8811876215571
 30
0.0
 40
5.0
  1
ステンタッピンねじ
100
AcDbText
  0
TEXT
  5
704D
330
1E
100
AcDbEntity
  8
図枠
 62
     7
100
AcDbText
 10
1528.850552676392
 20
504.8811876215572
 30
0.0
 40
5.0
  1
フィッシャープラグ　Ｓ8
100
AcDbText
  0
TEXT
  5
704E
330
1E
100
AcDbEntity
  8
図枠
 62
     7
100
AcDbText
 10
1428.850552676392
 20
504.8811876215572
 30
0.0
 40
5.0
  1
アンカープラグ
100
AcDbText
  0
TEXT
  5
704F
330
1E
100
AcDbEntity
  8
図枠
 62
     7
100
AcDbText
 10
1528.850552676392
 20
513.8811876215572
 30
0.0
 40
5.0
  1
ＡＧ－660
100
AcDbText
  0
TEXT
  5
7050
330
1E
100
AcDbEntity
  8
図枠
 62
     7
100
AcDbText
 10
1428.850552676392
 20
513.8811876215572
 30
0.0
 40
5.0
  1
アジャストアンカー
100
AcDbText
  0
TEXT
  5
7051
330
1E
100
AcDbEntity
  8
図枠
 62
     7
100
AcDbText
 10
1528.850552676392
 20
522.8811876215571
 30
0.0
 40
5.0
  1
Ｍ6×40
100
AcDbText
  0
TEXT
  5
7052
330
1E
100
AcDbEntity
  8
図枠
 62
     7
100
AcDbText
 10
1428.850552676392
 20
522.8811876215571
 30
0.0
 40
5.0
  1
ステン六角ボルト
100
AcDbText
  0
TEXT
  5
7053
330
1E
100
AcDbEntity
  8
図枠
 62
     7
100
AcDbText
 10
1528.850552676392
 20
531.8811876215571
 30
0.0
 40
5.0
  1
ナベＭ4×10
100
AcDbText
  0
TEXT
  5
7054
330
1E
100
AcDbEntity
  8
図枠
 62
     7
100
AcDbText
 10
1428.850552676392
 20
531.8811876215571
 30
0.0
 40
5.0
  1
ステン小ネジ
100
AcDbText
  0
TEXT
  5
7055
330
1E
100
AcDbEntity
  8
図枠
 62
     7
100
AcDbText
 10
1528.850552676392
 20
540.8811876215572
 30
0.0
 40
5.0
  1
ナベＭ6×35
100
AcDbText
  0
TEXT
  5
7056
330
1E
100
AcDbEntity
  8
図枠
 62
     7
100
AcDbText
 10
1428.850552676392
 20
540.8811876215572
 30
0.0
 40
5.0
  1
ステン小ネジ
100
AcDbText
  0
TEXT
  5
7057
330
1E
100
AcDbEntity
  8
図枠
 62
     7
100
AcDbText
 10
1428.850552676392
 20
549.8811876215571
 30
0.0
 40
5.0
  1
ガスケットＮ
100
AcDbText
  0
TEXT
  5
7058
330
1E
100
AcDbEntity
  8
図枠
 62
     7
100
AcDbText
 10
1528.850552676392
 20
558.8811876215571
 30
0.0
 40
5.0
  1
ＦＳ300～600
100
AcDbText
  0
TEXT
  5
7059
330
1E
100
AcDbEntity
  8
図枠
 62
     7
100
AcDbText
 10
1428.850552676392
 20
558.8811876215571
 30
0.0
 40
5.0
  1
止水補助板
100
AcDbText
  0
TEXT
  5
705A
330
1E
100
AcDbEntity
  8
図枠
 62
     7
100
AcDbText
 10
1528.850552676392
 20
567.8811876215572
 30
0.0
 40
5.0
  1
ＰＳ
100
AcDbText
  0
TEXT
  5
705B
330
1E
100
AcDbEntity
  8
図枠
 62
     7
100
AcDbText
 10
1428.850552676392
 20
567.8811876215572
 30
0.0
 40
5.0
  1
止水補助板
100
AcDbText
  0
TEXT
  5
705C
330
1E
100
AcDbEntity
  8
図枠
 62
     7
100
AcDbText
 10
1428.850552676392
 20
576.8811876215572
 30
0.0
 40
5.0
  1
ＦＹＫｻｲﾄﾞｷｬｯﾌﾟ ｼﾞｮｲﾝﾄ
100
AcDbText
  0
TEXT
  5
705D
330
1E
100
AcDbEntity
  8
図枠
 62
     7
100
AcDbText
 10
1528.850552676392
 20
585.8811876215573
 30
0.0
 40
5.0
  1
50ＦＹＫＪ－225～500
100
AcDbText
  0
TEXT
  5
705E
330
1E
100
AcDbEntity
  8
図枠
 62
     7
100
AcDbText
 10
1428.850552676392
 20
585.8811876215573
 30
0.0
 40
5.0
  1
ＦＹＫ水切ジョイント
100
AcDbText
  0
TEXT
  5
705F
330
1E
100
AcDbEntity
  8
図枠
 62
     7
100
AcDbText
 10
1428.850552676392
 20
594.8811876215573
 30
0.0
 40
5.0
  1
ＦＹＹフレームナット
100
AcDbText
  0
TEXT
  5
7060
330
1E
100
AcDbEntity
  8
図枠
 62
     7
100
AcDbText
 10
1428.850552676392
 20
603.8811876215572
 30
0.0
 40
5.0
  1
ＦＹＹホルダースプリング
100
AcDbText
  0
TEXT
  5
7061
330
1E
100
AcDbEntity
  8
図枠
 62
     7
100
AcDbText
 10
1528.850552676392
 20
612.8811876215572
 30
0.0
 40
5.0
  1
50ＦＹＫＨ－225～500
100
AcDbText
  0
TEXT
  5
7062
330
1E
100
AcDbEntity
  8
図枠
 62
     7
100
AcDbText
 10
1428.850552676392
 20
612.8811876215572
 30
0.0
 40
5.0
  1
ＦＹＫホルダー
100
AcDbText
  0
TEXT
  5
7063
330
1E
100
AcDbEntity
  8
図枠
 62
     7
100
AcDbText
 10
1428.850552676392
 20
630.8811876215572
 30
0.0
 40
5.0
  1
ＦＹＫ壁フレーム
100
AcDbText
  0
TEXT
  5
7064
330
1E
100
AcDbEntity
  8
図枠
 62
     7
100
AcDbText
 10
1428.850552676392
 20
639.8811876215573
 30
0.0
 40
5.0
  1
ＦＹＹフレーム
100
AcDbText
  0
TEXT
  5
7065
330
1E
100
AcDbEntity
  8
図枠
 62
     7
100
AcDbText
 10
1561.350552676392
 20
666.8811876215572
 30
0.0
 40
5.0
  1
規　格
100
AcDbText
  0
TEXT
  5
7066
330
1E
100
AcDbEntity
  8
図枠
 62
     7
100
AcDbText
 10
1460.350552676392
 20
666.8811876215572
 30
0.0
 40
5.0
  1
部材名称
100
AcDbText
  0
TEXT
  5
7067
330
1E
100
AcDbEntity
  8
図枠
 62
     7
100
AcDbText
 10
1673.350552676392
 20
666.8811876215572
 30
0.0
 40
5.0
  1
単位
100
AcDbText
  0
TEXT
  5
7068
330
1E
100
AcDbEntity
  8
図枠
 62
     7
100
AcDbText
 10
1676.850552676393
 20
468.8811876215571
 30
0.0
 40
5.0
  1
巻
100
AcDbText
  0
TEXT
  5
7069
330
1E
100
AcDbEntity
  8
図枠
 62
     7
100
AcDbText
 10
1676.850552676393
 20
477.8811876215571
 30
0.0
 40
5.0
  1
〃
100
AcDbText
  0
TEXT
  5
706A
330
1E
100
AcDbEntity
  8
図枠
 62
     7
100
AcDbText
 10
1676.850552676393
 20
486.8811876215572
 30
0.0
 40
5.0
  1
枚
100
AcDbText
  0
TEXT
  5
706B
330
1E
100
AcDbEntity
  8
図枠
 62
     7
100
AcDbText
 10
1676.850552676393
 20
495.8811876215571
 30
0.0
 40
5.0
  1
〃
100
AcDbText
  0
TEXT
  5
706C
330
1E
100
AcDbEntity
  8
図枠
 62
     7
100
AcDbText
 10
1676.850552676393
 20
504.8811876215572
 30
0.0
 40
5.0
  1
〃
100
AcDbText
  0
TEXT
  5
706D
330
1E
100
AcDbEntity
  8
図枠
 62
     7
100
AcDbText
 10
1676.850552676393
 20
513.8811876215572
 30
0.0
 40
5.0
  1
〃
100
AcDbText
  0
TEXT
  5
706E
330
1E
100
AcDbEntity
  8
図枠
 62
     7
100
AcDbText
 10
1676.850552676393
 20
522.8811876215571
 30
0.0
 40
5.0
  1
〃
100
AcDbText
  0
TEXT
  5
706F
330
1E
100
AcDbEntity
  8
図枠
 62
     7
100
AcDbText
 10
1676.850552676393
 20
531.8811876215571
 30
0.0
 40
5.0
  1
〃
100
AcDbText
  0
TEXT
  5
7070
330
1E
100
AcDbEntity
  8
図枠
 62
     7
100
AcDbText
 10
1676.850552676393
 20
540.8811876215572
 30
0.0
 40
5.0
  1
〃
100
AcDbText
  0
TEXT
  5
7071
330
1E
100
AcDbEntity
  8
図枠
 62
     7
100
AcDbText
 10
1676.850552676393
 20
549.8811876215571
 30
0.0
 40
5.0
  1
本
100
AcDbText
  0
TEXT
  5
7072
330
1E
100
AcDbEntity
  8
図枠
 62
     7
100
AcDbText
 10
1676.850552676393
 20
558.8811876215571
 30
0.0
 40
5.0
  1
〃
100
AcDbText
  0
TEXT
  5
7073
330
1E
100
AcDbEntity
  8
図枠
 62
     7
100
AcDbText
 10
1676.850552676393
 20
567.8811876215572
 30
0.0
 40
5.0
  1
枚
100
AcDbText
  0
TEXT
  5
7074
330
1E
100
AcDbEntity
  8
図枠
 62
     7
100
AcDbText
 10
1676.850552676393
 20
576.8811876215572
 30
0.0
 40
5.0
  1
〃
100
AcDbText
  0
TEXT
  5
7075
330
1E
100
AcDbEntity
  8
図枠
 62
     7
100
AcDbText
 10
1676.850552676393
 20
585.8811876215573
 30
0.0
 40
5.0
  1
〃
100
AcDbText
  0
TEXT
  5
7076
330
1E
100
AcDbEntity
  8
図枠
 62
     7
100
AcDbText
 10
1676.850552676393
 20
594.8811876215573
 30
0.0
 40
5.0
  1
〃
100
AcDbText
  0
TEXT
  5
7077
330
1E
100
AcDbEntity
  8
図枠
 62
     7
100
AcDbText
 10
1676.850552676393
 20
603.8811876215572
 30
0.0
 40
5.0
  1
〃
100
AcDbText
  0
TEXT
  5
7078
330
1E
100
AcDbEntity
  8
図枠
 62
     7
100
AcDbText
 10
1676.850552676393
 20
612.8811876215572
 30
0.0
 40
5.0
  1
〃
100
AcDbText
  0
TEXT
  5
7079
330
1E
100
AcDbEntity
  8
図枠
 62
     7
100
AcDbText
 10
1676.850552676393
 20
621.8811876215572
 30
0.0
 40
5.0
  1
〃
100
AcDbText
  0
TEXT
  5
707A
330
1E
100
AcDbEntity
  8
図枠
 62
     7
100
AcDbText
 10
1676.850552676393
 20
630.8811876215572
 30
0.0
 40
5.0
  1
〃
100
AcDbText
  0
TEXT
  5
707B
330
1E
100
AcDbEntity
  8
図枠
 62
     7
100
AcDbText
 10
1676.850552676393
 20
639.8811876215573
 30
0.0
 40
5.0
  1
〃
100
AcDbText
  0
TEXT
  5
707C
330
1E
100
AcDbEntity
  8
図枠
 62
     7
100
AcDbText
 10
1676.850552676393
 20
648.8811876215573
 30
0.0
 40
5.0
  1
〃
100
AcDbText
  0
TEXT
  5
707D
330
1E
100
AcDbEntity
  8
図枠
 62
     7
100
AcDbText
 10
1676.850552676393
 20
657.881187621557
 30
0.0
 40
5.0
  1
本
100
AcDbText
  0
TEXT
  5
707E
330
1E
100
AcDbEntity
  8
図枠
 62
     7
100
AcDbText
 10
1660.600552676392
 20
468.8811876215571
 30
0.0
 40
5.0
  1
 1
100
AcDbText
  0
TEXT
  5
707F
330
1E
100
AcDbEntity
  8
図枠
 62
     7
100
AcDbText
 10
1660.600552676392
 20
477.8811876215571
 30
0.0
 40
5.0
  1
 5
100
AcDbText
  0
TEXT
  5
7080
330
1E
100
AcDbEntity
  8
図枠
 62
     7
100
AcDbText
 10
1660.600552676392
 20
486.8811876215572
 30
0.0
 40
5.0
  1
 5
100
AcDbText
  0
TEXT
  5
7081
330
1E
100
AcDbEntity
  8
図枠
 62
     7
100
AcDbText
 10
1660.600552676392
 20
495.8811876215571
 30
0.0
 40
5.0
  1
 5
100
AcDbText
  0
TEXT
  5
7082
330
1E
100
AcDbEntity
  8
図枠
 62
     7
100
AcDbText
 10
1660.600552676392
 20
504.8811876215572
 30
0.0
 40
5.0
  1
 5
100
AcDbText
  0
TEXT
  5
7083
330
1E
100
AcDbEntity
  8
図枠
 62
     7
100
AcDbText
 10
1660.600552676392
 20
513.8811876215572
 30
0.0
 40
5.0
  1
 5
100
AcDbText
  0
TEXT
  5
7084
330
1E
100
AcDbEntity
  8
図枠
 62
     7
100
AcDbText
 10
1660.600552676392
 20
522.8811876215571
 30
0.0
 40
5.0
  1
 5
100
AcDbText
  0
TEXT
  5
7085
330
1E
100
AcDbEntity
  8
図枠
 62
     7
100
AcDbText
 10
1660.600552676392
 20
531.8811876215571
 30
0.0
 40
5.0
  1
 5
100
AcDbText
  0
TEXT
  5
7086
330
1E
100
AcDbEntity
  8
図枠
 62
     7
100
AcDbText
 10
1660.600552676392
 20
540.8811876215572
 30
0.0
 40
5.0
  1
 4
100
AcDbText
  0
TEXT
  5
7087
330
1E
100
AcDbEntity
  8
図枠
 62
     7
100
AcDbText
 10
1660.600552676392
 20
549.8811876215571
 30
0.0
 40
5.0
  1
 1
100
AcDbText
  0
TEXT
  5
7088
330
1E
100
AcDbEntity
  8
図枠
 62
     7
100
AcDbText
 10
1660.600552676392
 20
558.8811876215571
 30
0.0
 40
5.0
  1
 1
100
AcDbText
  0
TEXT
  5
7089
330
1E
100
AcDbEntity
  8
図枠
 62
     7
100
AcDbText
 10
1660.600552676392
 20
567.8811876215572
 30
0.0
 40
5.0
  1
 1
100
AcDbText
  0
TEXT
  5
708A
330
1E
100
AcDbEntity
  8
図枠
 62
     7
100
AcDbText
 10
1660.600552676392
 20
576.8811876215572
 30
0.0
 40
5.0
  1
 1
100
AcDbText
  0
TEXT
  5
708B
330
1E
100
AcDbEntity
  8
図枠
 62
     7
100
AcDbText
 10
1660.600552676392
 20
585.8811876215573
 30
0.0
 40
5.0
  1
 1
100
AcDbText
  0
TEXT
  5
708C
330
1E
100
AcDbEntity
  8
図枠
 62
     7
100
AcDbText
 10
1660.600552676392
 20
594.8811876215573
 30
0.0
 40
5.0
  1
 4
100
AcDbText
  0
TEXT
  5
708D
330
1E
100
AcDbEntity
  8
図枠
 62
     7
100
AcDbText
 10
1660.600552676392
 20
603.8811876215572
 30
0.0
 40
5.0
  1
 4
100
AcDbText
  0
TEXT
  5
708E
330
1E
100
AcDbEntity
  8
図枠
 62
     7
100
AcDbText
 10
1660.600552676392
 20
612.8811876215572
 30
0.0
 40
5.0
  1
 4
100
AcDbText
  0
TEXT
  5
708F
330
1E
100
AcDbEntity
  8
図枠
 62
     7
100
AcDbText
 10
1660.600552676392
 20
621.8811876215572
 30
0.0
 40
5.0
  1
 1
100
AcDbText
  0
TEXT
  5
7090
330
1E
100
AcDbEntity
  8
図枠
 62
     7
100
AcDbText
 10
1660.600552676392
 20
630.8811876215572
 30
0.0
 40
5.0
  1
 1
100
AcDbText
  0
TEXT
  5
7091
330
1E
100
AcDbEntity
  8
図枠
 62
     7
100
AcDbText
 10
1660.600552676392
 20
639.8811876215573
 30
0.0
 40
5.0
  1
 1
100
AcDbText
  0
TEXT
  5
7092
330
1E
100
AcDbEntity
  8
図枠
 62
     7
100
AcDbText
 10
1660.600552676392
 20
648.8811876215573
 30
0.0
 40
5.0
  1
 1
100
AcDbText
  0
TEXT
  5
7093
330
1E
100
AcDbEntity
  8
図枠
 62
     7
100
AcDbText
 10
1660.600552676392
 20
657.881187621557
 30
0.0
 40
5.0
  1
 1
100
AcDbText
  0
TEXT
  5
7094
330
1E
100
AcDbEntity
  8
図枠
 62
     7
100
AcDbText
 10
1657.350552676392
 20
666.8811876215572
 30
0.0
 40
5.0
  1
入数
100
AcDbText
  0
TEXT
  5
7095
330
1E
100
AcDbEntity
  8
図枠
 62
     7
100
AcDbText
 10
1630.600552676392
 20
468.8811876215571
 30
0.0
 40
5.0
  1
6000
100
AcDbText
  0
TEXT
  5
7096
330
1E
100
AcDbEntity
  8
図枠
 62
     7
100
AcDbText
 10
1630.600552676392
 20
549.8811876215571
 30
0.0
 40
5.0
  1
2000
100
AcDbText
  0
TEXT
  5
7097
330
1E
100
AcDbEntity
  8
図枠
 62
     7
100
AcDbText
 10
1630.600552676392
 20
558.8811876215571
 30
0.0
 40
5.0
  1
2100
100
AcDbText
  0
TEXT
  5
7098
330
1E
100
AcDbEntity
  8
図枠
 62
     7
100
AcDbText
 10
1630.600552676392
 20
567.8811876215572
 30
0.0
 40
5.0
  1
2060
100
AcDbText
  0
TEXT
  5
7099
330
1E
100
AcDbEntity
  8
図枠
 62
     7
100
AcDbText
 10
1630.600552676392
 20
621.8811876215572
 30
0.0
 40
5.0
  1
2010
100
AcDbText
  0
TEXT
  5
709A
330
1E
100
AcDbEntity
  8
図枠
 62
     7
100
AcDbText
 10
1630.600552676392
 20
630.8811876215572
 30
0.0
 40
5.0
  1
2000
100
AcDbText
  0
TEXT
  5
709B
330
1E
100
AcDbEntity
  8
図枠
 62
     7
100
AcDbText
 10
1630.600552676392
 20
639.8811876215573
 30
0.0
 40
5.0
  1
2000
100
AcDbText
  0
TEXT
  5
709C
330
1E
100
AcDbEntity
  8
図枠
 62
     7
100
AcDbText
 10
1630.600552676392
 20
648.8811876215573
 30
0.0
 40
5.0
  1
2000
100
AcDbText
  0
TEXT
  5
709D
330
1E
100
AcDbEntity
  8
図枠
 62
     7
100
AcDbText
 10
1630.600552676392
 20
657.881187621557
 30
0.0
 40
5.0
  1
2000
100
AcDbText
  0
TEXT
  5
709E
330
1E
100
AcDbEntity
  8
図枠
 62
     7
100
AcDbText
 10
1623.600552676392
 20
666.8811876215572
 30
0.0
 40
5.0
  1
定尺(mm)
100
AcDbText
  0
TEXT
  5
709F
330
1E
100
AcDbEntity
  8
図枠
 62
     7
100
AcDbText
 10
1911.850552676392
 20
558.8811876215571
 30
0.0
 40
5.0
  1
128
100
AcDbText
  0
TEXT
  5
70A0
330
1E
100
AcDbEntity
  8
図枠
 62
     7
100
AcDbText
 10
1883.600552676392
 20
558.8811876215571
 30
0.0
 40
5.0
  1
70
100
AcDbText
  0
TEXT
  5
70A1
330
1E
100
AcDbEntity
  8
図枠
 62
     7
100
AcDbText
 10
1851.850552676392
 20
558.8811876215571
 30
0.0
 40
5.0
  1
375
100
AcDbText
  0
TEXT
  5
70A2
330
1E
100
AcDbEntity
  8
図枠
 62
     7
100
AcDbText
 10
1911.850552676392
 20
567.8811876215572
 30
0.0
 40
5.0
  1
127
100
AcDbText
  0
TEXT
  5
70A3
330
1E
100
AcDbEntity
  8
図枠
 62
     7
100
AcDbText
 10
1883.600552676392
 20
567.8811876215572
 30
0.0
 40
5.0
  1
68
100
AcDbText
  0
TEXT
  5
70A4
330
1E
100
AcDbEntity
  8
図枠
 62
     7
100
AcDbText
 10
1851.850552676392
 20
567.8811876215572
 30
0.0
 40
5.0
  1
350
100
AcDbText
  0
TEXT
  5
70A5
330
1E
100
AcDbEntity
  8
図枠
 62
     7
100
AcDbText
 10
1911.850552676392
 20
576.8811876215572
 30
0.0
 40
5.0
  1
126
100
AcDbText
  0
TEXT
  5
70A6
330
1E
100
AcDbEntity
  8
図枠
 62
     7
100
AcDbText
 10
1883.600552676392
 20
576.8811876215572
 30
0.0
 40
5.0
  1
67
100
AcDbText
  0
TEXT
  5
70A7
330
1E
100
AcDbEntity
  8
図枠
 62
     7
100
AcDbText
 10
1851.850552676392
 20
576.8811876215572
 30
0.0
 40
5.0
  1
325
100
AcDbText
  0
TEXT
  5
70A8
330
1E
100
AcDbEntity
  8
図枠
 62
     7
100
AcDbText
 10
1911.850552676392
 20
585.8811876215573
 30
0.0
 40
5.0
  1
124
100
AcDbText
  0
TEXT
  5
70A9
330
1E
100
AcDbEntity
  8
図枠
 62
     7
100
AcDbText
 10
1883.600552676392
 20
585.8811876215573
 30
0.0
 40
5.0
  1
66
100
AcDbText
  0
TEXT
  5
70AA
330
1E
100
AcDbEntity
  8
図枠
 62
     7
100
AcDbText
 10
1851.850552676392
 20
585.8811876215573
 30
0.0
 40
5.0
  1
300
100
AcDbText
  0
TEXT
  5
70AB
330
1E
100
AcDbEntity
  8
図枠
 62
     7
100
AcDbText
 10
1911.850552676392
 20
594.8811876215573
 30
0.0
 40
5.0
  1
123
100
AcDbText
  0
TEXT
  5
70AC
330
1E
100
AcDbEntity
  8
図枠
 62
     7
100
AcDbText
 10
1883.600552676392
 20
594.8811876215573
 30
0.0
 40
5.0
  1
64
100
AcDbText
  0
TEXT
  5
70AD
330
1E
100
AcDbEntity
  8
図枠
 62
     7
100
AcDbText
 10
1851.850552676392
 20
594.8811876215573
 30
0.0
 40
5.0
  1
275
100
AcDbText
  0
TEXT
  5
70AE
330
1E
100
AcDbEntity
  8
図枠
 62
     7
100
AcDbText
 10
1911.850552676392
 20
603.8811876215572
 30
0.0
 40
5.0
  1
122
100
AcDbText
  0
TEXT
  5
70AF
330
1E
100
AcDbEntity
  8
図枠
 62
     7
100
AcDbText
 10
1883.600552676392
 20
603.8811876215572
 30
0.0
 40
5.0
  1
63
100
AcDbText
  0
TEXT
  5
70B0
330
1E
100
AcDbEntity
  8
図枠
 62
     7
100
AcDbText
 10
1851.850552676392
 20
603.8811876215572
 30
0.0
 40
5.0
  1
250
100
AcDbText
  0
TEXT
  5
70B1
330
1E
100
AcDbEntity
  8
図枠
 62
     7
100
AcDbText
 10
1911.850552676392
 20
612.8811876215572
 30
0.0
 40
5.0
  1
121
100
AcDbText
  0
TEXT
  5
70B2
330
1E
100
AcDbEntity
  8
図枠
 62
     7
100
AcDbText
 10
1883.600552676392
 20
612.8811876215572
 30
0.0
 40
5.0
  1
62
100
AcDbText
  0
TEXT
  5
70B3
330
1E
100
AcDbEntity
  8
図枠
 62
     7
100
AcDbText
 10
1851.850552676392
 20
612.8811876215572
 30
0.0
 40
5.0
  1
225
100
AcDbText
  0
TEXT
  5
70B4
330
1E
100
AcDbEntity
  8
図枠
 62
     7
100
AcDbText
 10
1911.850552676392
 20
621.8811876215572
 30
0.0
 40
5.0
  1
119
100
AcDbText
  0
TEXT
  5
70B5
330
1E
100
AcDbEntity
  8
図枠
 62
     7
100
AcDbText
 10
1883.600552676392
 20
621.8811876215572
 30
0.0
 40
5.0
  1
61
100
AcDbText
  0
TEXT
  5
70B6
330
1E
100
AcDbEntity
  8
図枠
 62
     7
100
AcDbText
 10
1851.850552676392
 20
621.8811876215572
 30
0.0
 40
5.0
  1
200
100
AcDbText
  0
TEXT
  5
70B7
330
1E
100
AcDbEntity
  8
図枠
 62
     7
100
AcDbText
 10
1911.850552676392
 20
630.8811876215572
 30
0.0
 40
5.0
  1
118
100
AcDbText
  0
TEXT
  5
70B8
330
1E
100
AcDbEntity
  8
図枠
 62
     7
100
AcDbText
 10
1883.600552676392
 20
630.8811876215572
 30
0.0
 40
5.0
  1
59
100
AcDbText
  0
TEXT
  5
70B9
330
1E
100
AcDbEntity
  8
図枠
 62
     7
100
AcDbText
 10
1851.850552676392
 20
630.8811876215572
 30
0.0
 40
5.0
  1
175
100
AcDbText
  0
TEXT
  5
70BA
330
1E
100
AcDbEntity
  8
図枠
 62
     7
100
AcDbText
 10
1911.850552676392
 20
639.8811876215573
 30
0.0
 40
5.0
  1
117
100
AcDbText
  0
TEXT
  5
70BB
330
1E
100
AcDbEntity
  8
図枠
 62
     7
100
AcDbText
 10
1883.600552676392
 20
639.8811876215573
 30
0.0
 40
5.0
  1
58
100
AcDbText
  0
TEXT
  5
70BC
330
1E
100
AcDbEntity
  8
図枠
 62
     7
100
AcDbText
 10
1851.850552676392
 20
639.8811876215573
 30
0.0
 40
5.0
  1
150
100
AcDbText
  0
TEXT
  5
70BD
330
1E
100
AcDbEntity
  8
図枠
 62
     7
100
AcDbText
 10
1911.850552676392
 20
648.8811876215573
 30
0.0
 40
5.0
  1
115
100
AcDbText
  0
TEXT
  5
70BE
330
1E
100
AcDbEntity
  8
図枠
 62
     7
100
AcDbText
 10
1883.600552676392
 20
648.8811876215573
 30
0.0
 40
5.0
  1
57
100
AcDbText
  0
TEXT
  5
70BF
330
1E
100
AcDbEntity
  8
図枠
 62
     7
100
AcDbText
 10
1851.850552676392
 20
648.8811876215573
 30
0.0
 40
5.0
  1
125
100
AcDbText
  0
TEXT
  5
70C0
330
1E
100
AcDbEntity
  8
図枠
 62
     7
100
AcDbText
 10
1911.850552676392
 20
657.881187621557
 30
0.0
 40
5.0
  1
114
100
AcDbText
  0
TEXT
  5
70C1
330
1E
100
AcDbEntity
  8
図枠
 62
     7
100
AcDbText
 10
1883.600552676392
 20
657.881187621557
 30
0.0
 40
5.0
  1
55
100
AcDbText
  0
TEXT
  5
70C2
330
1E
100
AcDbEntity
  8
図枠
 62
     7
100
AcDbText
 10
1851.850552676392
 20
657.881187621557
 30
0.0
 40
5.0
  1
100
100
AcDbText
  0
TEXT
  5
70C3
330
1E
100
AcDbEntity
  8
図枠
 62
     7
100
AcDbText
 10
1913.850552676393
 20
666.8811876215572
 30
0.0
 40
5.0
  1
Ｅ
100
AcDbText
  0
TEXT
  5
70C4
330
1E
100
AcDbEntity
  8
図枠
 62
     7
100
AcDbText
 10
1883.850552676392
 20
666.8811876215572
 30
0.0
 40
5.0
  1
Ｄ
100
AcDbText
  0
TEXT
  5
70C5
330
1E
100
AcDbEntity
  8
図枠
 62
     7
100
AcDbText
 10
1853.850552676392
 20
666.8811876215572
 30
0.0
 40
5.0
  1
Ｃ
100
AcDbText
  0
TEXT
  5
70C6
330
1E
100
AcDbEntity
  8
図枠
 62
     7
100
AcDbText
 10
1821.850552676392
 20
558.8811876215571
 30
0.0
 40
5.0
  1
485
100
AcDbText
  0
TEXT
  5
70C7
330
1E
100
AcDbEntity
  8
図枠
 62
     7
100
AcDbText
 10
1791.850552676392
 20
558.8811876215571
 30
0.0
 40
5.0
  1
500
100
AcDbText
  0
TEXT
  5
70C8
330
1E
100
AcDbEntity
  8
図枠
 62
     7
100
AcDbText
 10
1718.350552676392
 20
558.8811876215571
 30
0.0
 40
5.0
  1
　　 〃　 　500
100
AcDbText
  0
TEXT
  5
70C9
330
1E
100
AcDbEntity
  8
図枠
 62
     7
100
AcDbText
 10
1821.850552676392
 20
567.8811876215572
 30
0.0
 40
5.0
  1
460
100
AcDbText
  0
TEXT
  5
70CA
330
1E
100
AcDbEntity
  8
図枠
 62
     7
100
AcDbText
 10
1791.850552676392
 20
567.8811876215572
 30
0.0
 40
5.0
  1
475
100
AcDbText
  0
TEXT
  5
70CB
330
1E
100
AcDbEntity
  8
図枠
 62
     7
100
AcDbText
 10
1718.350552676392
 20
567.8811876215572
 30
0.0
 40
5.0
  1
　　 〃　 　475
100
AcDbText
  0
TEXT
  5
70CC
330
1E
100
AcDbEntity
  8
図枠
 62
     7
100
AcDbText
 10
1821.850552676392
 20
576.8811876215572
 30
0.0
 40
5.0
  1
435
100
AcDbText
  0
TEXT
  5
70CD
330
1E
100
AcDbEntity
  8
図枠
 62
     7
100
AcDbText
 10
1791.850552676392
 20
576.8811876215572
 30
0.0
 40
5.0
  1
450
100
AcDbText
  0
TEXT
  5
70CE
330
1E
100
AcDbEntity
  8
図枠
 62
     7
100
AcDbText
 10
1718.350552676392
 20
576.8811876215572
 30
0.0
 40
5.0
  1
　　 〃　 　450
100
AcDbText
  0
TEXT
  5
70CF
330
1E
100
AcDbEntity
  8
図枠
 62
     7
100
AcDbText
 10
1821.850552676392
 20
585.8811876215573
 30
0.0
 40
5.0
  1
410
100
AcDbText
  0
TEXT
  5
70D0
330
1E
100
AcDbEntity
  8
図枠
 62
     7
100
AcDbText
 10
1791.850552676392
 20
585.8811876215573
 30
0.0
 40
5.0
  1
425
100
AcDbText
  0
TEXT
  5
70D1
330
1E
100
AcDbEntity
  8
図枠
 62
     7
100
AcDbText
 10
1718.350552676392
 20
585.8811876215573
 30
0.0
 40
5.0
  1
　　 〃　 　425
100
AcDbText
  0
TEXT
  5
70D2
330
1E
100
AcDbEntity
  8
図枠
 62
     7
100
AcDbText
 10
1821.850552676392
 20
594.8811876215573
 30
0.0
 40
5.0
  1
385
100
AcDbText
  0
TEXT
  5
70D3
330
1E
100
AcDbEntity
  8
図枠
 62
     7
100
AcDbText
 10
1791.850552676392
 20
594.8811876215573
 30
0.0
 40
5.0
  1
400
100
AcDbText
  0
TEXT
  5
70D4
330
1E
100
AcDbEntity
  8
図枠
 62
     7
100
AcDbText
 10
1718.350552676392
 20
594.8811876215573
 30
0.0
 40
5.0
  1
　　 〃　 　400
100
AcDbText
  0
TEXT
  5
70D5
330
1E
100
AcDbEntity
  8
図枠
 62
     7
100
AcDbText
 10
1821.850552676392
 20
603.8811876215572
 30
0.0
 40
5.0
  1
360
100
AcDbText
  0
TEXT
  5
70D6
330
1E
100
AcDbEntity
  8
図枠
 62
     7
100
AcDbText
 10
1791.850552676392
 20
603.8811876215572
 30
0.0
 40
5.0
  1
375
100
AcDbText
  0
TEXT
  5
70D7
330
1E
100
AcDbEntity
  8
図枠
 62
     7
100
AcDbText
 10
1718.350552676392
 20
603.8811876215572
 30
0.0
 40
5.0
  1
　　 〃　 　375
100
AcDbText
  0
TEXT
  5
70D8
330
1E
100
AcDbEntity
  8
図枠
 62
     7
100
AcDbText
 10
1821.850552676392
 20
612.8811876215572
 30
0.0
 40
5.0
  1
335
100
AcDbText
  0
TEXT
  5
70D9
330
1E
100
AcDbEntity
  8
図枠
 62
     7
100
AcDbText
 10
1791.850552676392
 20
612.8811876215572
 30
0.0
 40
5.0
  1
350
100
AcDbText
  0
TEXT
  5
70DA
330
1E
100
AcDbEntity
  8
図枠
 62
     7
100
AcDbText
 10
1718.350552676392
 20
612.8811876215572
 30
0.0
 40
5.0
  1
　　 〃　 　350
100
AcDbText
  0
TEXT
  5
70DB
330
1E
100
AcDbEntity
  8
図枠
 62
     7
100
AcDbText
 10
1821.850552676392
 20
621.8811876215572
 30
0.0
 40
5.0
  1
310
100
AcDbText
  0
TEXT
  5
70DC
330
1E
100
AcDbEntity
  8
図枠
 62
     7
100
AcDbText
 10
1791.850552676392
 20
621.8811876215572
 30
0.0
 40
5.0
  1
325
100
AcDbText
  0
TEXT
  5
70DD
330
1E
100
AcDbEntity
  8
図枠
 62
     7
100
AcDbText
 10
1718.350552676392
 20
621.8811876215572
 30
0.0
 40
5.0
  1
　　 〃　 　325
100
AcDbText
  0
TEXT
  5
70DE
330
1E
100
AcDbEntity
  8
図枠
 62
     7
100
AcDbText
 10
1821.850552676392
 20
630.8811876215572
 30
0.0
 40
5.0
  1
285
100
AcDbText
  0
TEXT
  5
70DF
330
1E
100
AcDbEntity
  8
図枠
 62
     7
100
AcDbText
 10
1791.850552676392
 20
630.8811876215572
 30
0.0
 40
5.0
  1
300
100
AcDbText
  0
TEXT
  5
70E0
330
1E
100
AcDbEntity
  8
図枠
 62
     7
100
AcDbText
 10
1718.350552676392
 20
630.8811876215572
 30
0.0
 40
5.0
  1
　　 〃　 　300
100
AcDbText
  0
TEXT
  5
70E1
330
1E
100
AcDbEntity
  8
図枠
 62
     7
100
AcDbText
 10
1821.850552676392
 20
639.8811876215573
 30
0.0
 40
5.0
  1
260
100
AcDbText
  0
TEXT
  5
70E2
330
1E
100
AcDbEntity
  8
図枠
 62
     7
100
AcDbText
 10
1791.850552676392
 20
639.8811876215573
 30
0.0
 40
5.0
  1
275
100
AcDbText
  0
TEXT
  5
70E3
330
1E
100
AcDbEntity
  8
図枠
 62
     7
100
AcDbText
 10
1718.350552676392
 20
639.8811876215573
 30
0.0
 40
5.0
  1
　　 〃　 　275
100
AcDbText
  0
TEXT
  5
70E4
330
1E
100
AcDbEntity
  8
図枠
 62
     7
100
AcDbText
 10
1821.850552676392
 20
648.8811876215573
 30
0.0
 40
5.0
  1
235
100
AcDbText
  0
TEXT
  5
70E5
330
1E
100
AcDbEntity
  8
図枠
 62
     7
100
AcDbText
 10
1791.850552676392
 20
648.8811876215573
 30
0.0
 40
5.0
  1
250
100
AcDbText
  0
TEXT
  5
70E6
330
1E
100
AcDbEntity
  8
図枠
 62
     7
100
AcDbText
 10
1718.350552676392
 20
648.8811876215573
 30
0.0
 40
5.0
  1
　　 〃　 　250
100
AcDbText
  0
TEXT
  5
70E7
330
1E
100
AcDbEntity
  8
図枠
 62
     7
100
AcDbText
 10
1821.850552676392
 20
657.881187621557
 30
0.0
 40
5.0
  1
210
100
AcDbText
  0
TEXT
  5
70E8
330
1E
100
AcDbEntity
  8
図枠
 62
     7
100
AcDbText
 10
1791.850552676392
 20
657.881187621557
 30
0.0
 40
5.0
  1
225
100
AcDbText
  0
TEXT
  5
70E9
330
1E
100
AcDbEntity
  8
図枠
 62
     7
100
AcDbText
 10
1823.850552676393
 20
666.8811876215572
 30
0.0
 40
5.0
  1
Ａ
100
AcDbText
  0
TEXT
  5
70EA
330
1E
100
AcDbEntity
  8
図枠
 62
     7
100
AcDbText
 10
1793.850552676392
 20
666.8811876215572
 30
0.0
 40
5.0
  1
Ｗ
100
AcDbText
  0
TEXT
  5
70EB
330
1E
100
AcDbEntity
  8
図枠
 62
     7
100
AcDbText
 10
1727.350552676393
 20
666.8811876215572
 30
0.0
 40
5.0
  1
タ　イ　プ
100
AcDbText
  0
LINE
  5
70EC
330
1E
100
AcDbEntity
  8
躯体と製品
  6
DASHED1
 62
     7
100
AcDbLine
 10
1566.350552676392
 20
870.9786650505177
 30
0.0
 11
1566.350552676392
 21
883.1317713503731
 31
0.0
  0
LINE
  5
70ED
330
1E
100
AcDbEntity
  8
躯体と製品
  6
DASHED1
 62
     7
100
AcDbLine
 10
1566.350552676392
 20
883.1317713503731
 30
0.0
 11
1561.850552676392
 21
883.1317713503731
 31
0.0
  0
LINE
  5
70EE
330
1E
100
AcDbEntity
  8
躯体と製品
  6
DASHED1
 62
     7
100
AcDbLine
 10
1561.850552676392
 20
870.9786650505172
 30
0.0
 11
1561.850552676392
 21
883.1317713503731
 31
0.0
  0
ARC
  5
70EF
330
1E
100
AcDbEntity
  8
躯体と製品
  6
DASHED1
 62
     7
100
AcDbCircle
 10
1569.350552676392
 20
870.9786650505177
 30
0.0
 40
3.0
100
AcDbArc
 50
180.0
 51
266.9999999999944
  0
ARC
  5
70F0
330
1E
100
AcDbEntity
  8
躯体と製品
  6
DASHED1
 62
     7
100
AcDbCircle
 10
1569.350552676392
 20
870.9786650505172
 30
0.0
 40
7.5
100
AcDbArc
 50
180.0
 51
266.9999999999944
  0
ARC
  5
70F1
330
1E
100
AcDbEntity
  8
躯体と製品
  6
DASHED1
 62
     7
100
AcDbCircle
 10
1760.013732310663
 20
850.4720215818645
 30
0.0
 40
7.5
100
AcDbArc
 50
10.12467165539644
 51
86.99999999999441
  0
LINE
  5
70F2
330
1E
100
AcDbEntity
  8
躯体と製品
  6
DASHED1
 62
     7
100
AcDbLine
 10
1781.350552676392
 20
773.6502154937653
 30
0.0
 11
1776.920628586667
 21
772.859157620233
 31
0.0
  0
LINE
  5
70F3
330
1E
100
AcDbEntity
  8
躯体と製品
  6
DASHED1
 62
     7
100
AcDbLine
 10
1762.967015037189
 20
850.9993934973152
 30
0.0
 11
1776.920628586604
 21
772.859157620589
 31
0.0
  0
ARC
  5
70F4
330
1E
100
AcDbEntity
  8
躯体と製品
  6
DASHED1
 62
     7
100
AcDbCircle
 10
1760.013732310663
 20
850.4720215818645
 30
0.0
 40
3.0
100
AcDbArc
 50
10.12467165539644
 51
86.99999999999441
  0
LINE
  5
70F5
330
1E
100
AcDbEntity
  8
躯体と製品
  6
DASHED1
 62
     7
100
AcDbLine
 10
1767.396939126976
 20
851.7904513704918
 30
0.0
 11
1781.350552676392
 21
773.6502154937653
 31
0.0
  0
LINE
  5
70F6
330
1E
100
AcDbEntity
  8
躯体と製品
  6
Continuous
 62
     7
100
AcDbLine
 10
1632.350552676392
 20
809.3811876215573
 30
0.0
 11
1632.350552676392
 21
689.3811876215572
 31
0.0
  0
LINE
  5
70F7
330
1E
100
AcDbEntity
  8
躯体と製品
  6
Continuous
 62
     7
100
AcDbLine
 10
1582.350552676392
 20
809.3811876215573
 30
0.0
 11
1582.350552676392
 21
689.3811876215572
 31
0.0
  0
ARC
  5
7104
330
1E
100
AcDbEntity
  8
躯体と製品
  6
Continuous
 62
     7
100
AcDbCircle
 10
1607.364814719437
 20
774.3327455909361
 30
0.0
 40
20.951557969379
100
AcDbArc
 50
184.9999999999994
 51
355.0000000000006
  0
LINE
  5
7105
330
1E
100
AcDbEntity
  8
躯体と製品
  6
Continuous
 62
     7
100
AcDbLine
 10
1631.382917752199
 20
808.468751277844
 30
0.0
 11
1628.236645685294
 21
772.5066969943942
 31
0.0
  0
LINE
  5
7106
330
1E
100
AcDbEntity
  8
躯体と製品
  6
Continuous
 62
     7
100
AcDbLine
 10
1630.386723054108
 20
808.5559070205917
 30
0.0
 11
1627.240450987202
 21
772.593852737142
 31
0.0
  0
ARC
  5
7107
330
1E
100
AcDbEntity
  8
躯体と製品
  6
Continuous
 62
     7
100
AcDbCircle
 10
1607.364814719437
 20
774.3327455909361
 30
0.0
 40
19.951557969379
100
AcDbArc
 50
184.9999999999994
 51
355.0000000000006
  0
LINE
  5
7108
330
1E
100
AcDbEntity
  8
躯体と製品
  6
Continuous
 62
     7
100
AcDbLine
 10
1584.342942072576
 20
808.5554991070523
 30
0.0
 11
1587.489178451671
 21
772.593852737142
 31
0.0
  0
LINE
  5
7109
330
1E
100
AcDbEntity
  8
躯体と製品
  6
Continuous
 62
     7
100
AcDbLine
 10
1583.346747374483
 20
808.4683433643048
 30
0.0
 11
1586.492983753579
 21
772.5066969943942
 31
0.0
  0
ARC
  5
710A
330
1E
100
AcDbEntity
  8
躯体と製品
  6
Continuous
 62
     7
100
AcDbCircle
 10
1582.350552676392
 20
808.3811876215573
 30
0.0
 40
1.0
100
AcDbArc
 50
4.999999999999459
 51
90.0
  0
POINT
  5
710B
330
1E
100
AcDbEntity
  8
躯体と製品
 62
     4
100
AcDbPoint
 10
1699.902888632635
 20
830.3798171563117
 30
0.0
  0
ARC
  5
710C
330
1E
100
AcDbEntity
  8
躯体と製品
  6
Continuous
 62
     7
100
AcDbCircle
 10
1732.321992902494
 20
808.3815955350962
 30
0.0
 40
1.0
100
AcDbArc
 50
4.999999999999459
 51
88.3634229583817
  0
POINT
  5
710D
330
1E
100
AcDbEntity
  8
躯体と製品
 62
     4
100
AcDbPoint
 10
1682.350552676392
 20
829.3047020494437
 30
0.0
  0
LINE
  5
710E
330
1E
100
AcDbEntity
  8
躯体と製品
  6
Continuous
 62
     7
100
AcDbLine
 10
1679.458930903556
 20
831.4512395806492
 30
0.0
 11
1679.354664072128
 21
829.4617099181726
 31
0.0
  0
LINE
  5
710F
330
1E
100
AcDbEntity
  8
躯体と製品
  6
Continuous
 62
     4
100
AcDbLine
 10
1680.026651794064
 20
831.421486589525
 30
0.0
 11
1679.922384962636
 21
829.4319569270484
 31
0.0
  0
LINE
  5
7110
330
1E
100
AcDbEntity
  8
躯体と製品
  6
Continuous
 62
     4
100
AcDbLine
 10
1684.882987221576
 20
831.1669768343156
 30
0.0
 11
1684.778720390148
 21
829.1774471718388
 31
0.0
  0
LINE
  5
7111
330
1E
100
AcDbEntity
  8
躯体と製品
  6
Continuous
 62
     7
100
AcDbLine
 10
1685.450708112084
 20
831.1372238431916
 30
0.0
 11
1685.346441280656
 21
829.1476941807149
 31
0.0
  0
LINE
  5
7112
330
1E
100
AcDbEntity
  8
躯体と製品
  6
Continuous
 62
     7
100
AcDbLine
 10
1685.158031838181
 20
825.5526278555985
 30
0.0
 11
1684.894298393287
 21
820.5202939444482
 31
0.0
  0
LINE
  5
7113
330
1E
100
AcDbEntity
  8
躯体と製品
  6
Continuous
 62
     7
100
AcDbLine
 10
1679.166254629654
 20
825.866643593056
 30
0.0
 11
1678.90252118476
 21
820.834309681906
 31
0.0
  0
LINE
  5
7114
330
1E
100
AcDbEntity
  8
躯体と製品
  6
Continuous
 62
     4
100
AcDbLine
 10
1684.894298393287
 20
820.5202939444482
 30
0.0
 11
1678.90252118476
 21
820.834309681906
 31
0.0
  0
ARC
  5
7115
330
1E
100
AcDbEntity
  8
躯体と製品
  6
DASHED1
 62
     7
100
AcDbCircle
 10
1683.574809023755
 20
852.6649047542978
 30
0.0
 40
6.299999999999998
100
AcDbArc
 50
47.69686900000316
 51
126.3093710000041
  0
ARC
  5
7116
330
1E
100
AcDbEntity
  8
躯体と製品
  6
DASHED1
 62
     7
100
AcDbCircle
 10
1685.49852057649
 20
854.7677453405899
 30
0.0
 40
3.45
100
AcDbArc
 50
0.3127429999987237
 51
47.82048899999998
  0
ARC
  5
7117
330
1E
100
AcDbEntity
  8
躯体と製品
  6
DASHED1
 62
     7
100
AcDbCircle
 10
1681.887184571235
 20
854.9615166205443
 30
0.0
 40
3.45
100
AcDbArc
 50
126.3091240000008
 51
173.7621629999991
  0
LINE
  5
7118
330
1E
100
AcDbEntity
  8
躯体と製品
  6
DASHED1
 62
     7
100
AcDbLine
 10
1684.611554617099
 20
858.1166971743265
 30
0.0
 11
1683.113610314968
 21
858.1952011086908
 31
0.0
  0
ARC
  5
7119
330
1E
100
AcDbEntity
  8
躯体と製品
  6
DASHED1
 62
     7
100
AcDbCircle
 10
1685.212786262555
 20
858.1244868166718
 30
0.0
 40
0.5999999999999998
100
AcDbArc
 50
73.29976700000166
 51
177.0000000000011
  0
ARC
  5
711A
330
1E
100
AcDbEntity
  8
躯体と製品
  6
DASHED1
 62
     7
100
AcDbCircle
 10
1682.516486518718
 20
858.2657938985278
 30
0.0
 40
0.5999999999999998
100
AcDbArc
 50
357.0000000000011
 51
100.7002330000058
  0
LINE
  5
711B
330
1E
100
AcDbEntity
  8
躯体と製品
  6
DASHED1
 62
     4
100
AcDbLine
 10
1681.272247552646
 20
855.1888695166837
 30
0.0
 11
1680.026651794064
 21
831.421486589525
 31
0.0
  0
LINE
  5
711C
330
1E
100
AcDbEntity
  8
躯体と製品
  6
DASHED1
 62
     7
100
AcDbLine
 10
1680.704526662139
 20
855.2186225078081
 30
0.0
 11
1679.458930903556
 21
831.4512395806492
 31
0.0
  0
LINE
  5
711D
330
1E
100
AcDbEntity
  8
躯体と製品
  6
DASHED1
 62
     7
100
AcDbLine
 10
1686.696303870666
 20
854.9046067703502
 30
0.0
 11
1685.450708112084
 21
831.1372238431916
 31
0.0
  0
LINE
  5
711E
330
1E
100
AcDbEntity
  8
躯体と製品
  6
DASHED1
 62
     4
100
AcDbLine
 10
1686.128582980158
 20
854.9343597614743
 30
0.0
 11
1684.882987221576
 21
831.1669768343156
 31
0.0
  0
LINE
  5
711F
330
1E
100
AcDbEntity
  8
躯体と製品
  6
DASHED1
 62
     7
100
AcDbLine
 10
1671.645306039704
 20
855.0645682141153
 30
0.0
 11
1658.715354962451
 21
841.4995153548877
 31
0.0
  0
LINE
  5
7120
330
1E
100
AcDbEntity
  8
躯体と製品
  6
DASHED1
 62
     7
100
AcDbLine
 10
1655.367953629406
 20
843.9549687808433
 30
0.0
 11
1657.199502675794
 21
841.5789577887723
 31
0.0
  0
ARC
  5
7121
330
1E
100
AcDbEntity
  8
躯体と製品
  6
DASHED1
 62
     7
100
AcDbCircle
 10
1694.264187492213
 20
852.7055205730762
 30
0.0
 40
1.8
100
AcDbArc
 50
37.62684736228169
 51
86.99999999999441
  0
LINE
  5
7122
330
1E
100
AcDbEntity
  8
躯体と製品
  6
DASHED1
 62
     7
100
AcDbLine
 10
1695.056191149911
 20
853.316036916996
 30
0.0
 11
1706.497376487365
 21
838.4737469014893
 31
0.0
  0
LINE
  5
7123
330
1E
100
AcDbEntity
  8
躯体と製品
  6
DASHED1
 62
     7
100
AcDbLine
 10
1695.68979407607
 20
853.8044499921317
 30
0.0
 11
1707.130979413523
 21
838.962159976625
 31
0.0
  0
ARC
  5
7124
330
1E
100
AcDbEntity
  8
躯体と製品
  6
DASHED1
 62
     7
100
AcDbCircle
 10
1707.922983056617
 20
839.5726763394906
 30
0.0
 40
1.8
100
AcDbArc
 50
217.6268473622817
 51
316.3731518762783
  0
ARC
  5
7125
330
1E
100
AcDbEntity
  8
躯体と製品
  6
DASHED1
 62
     7
100
AcDbCircle
 10
1707.922983056617
 20
839.5726763394906
 30
0.0
 40
1.0
100
AcDbArc
 50
217.6268473622817
 51
316.3731512671342
  0
LINE
  5
7126
330
1E
100
AcDbEntity
  8
躯体と製品
  6
DASHED1
 62
     7
100
AcDbLine
 10
1711.295787005329
 20
840.5022964360805
 30
0.0
 11
1709.225910598525
 21
838.3307504880255
 31
0.0
  0
LINE
  5
7127
330
1E
100
AcDbEntity
  8
躯体と製品
  6
DASHED1
 62
     7
100
AcDbLine
 10
1711.295787005329
 20
840.5022964360805
 30
0.0
 11
1710.716708090457
 21
841.0542634734575
 31
0.0
  0
LINE
  5
7128
330
1E
100
AcDbEntity
  8
躯体と製品
  6
DASHED1
 62
     7
100
AcDbLine
 10
1710.716708090457
 20
841.0542634734575
 30
0.0
 11
1708.646831683675
 21
838.8827175254254
 31
0.0
  0
ARC
  5
7129
330
1E
100
AcDbEntity
  8
躯体と製品
  6
DASHED1
 62
     7
100
AcDbCircle
 10
1657.991506318888
 20
842.1894741516377
 30
0.0
 40
1.8
100
AcDbArc
 50
217.6268481237226
 51
316.3731526377176
  0
ARC
  5
712A
330
1E
100
AcDbEntity
  8
躯体と製品
  6
DASHED1
 62
     7
100
AcDbCircle
 10
1657.991506318888
 20
842.1894741516377
 30
0.0
 40
1.0
100
AcDbArc
 50
217.6268487328632
 51
316.3731526377176
  0
LINE
  5
712B
330
1E
100
AcDbEntity
  8
躯体と製品
  6
DASHED1
 62
     7
100
AcDbLine
 10
1654.734350703229
 20
843.4665557057329
 30
0.0
 11
1656.565899749636
 21
841.0905447136368
 31
0.0
  0
LINE
  5
712C
330
1E
100
AcDbEntity
  8
躯体と製品
  6
DASHED1
 62
     7
100
AcDbLine
 10
1654.734350703229
 20
843.4665557057329
 30
0.0
 11
1655.367953629406
 21
843.9549687808433
 31
0.0
  0
ARC
  5
712D
330
1E
100
AcDbEntity
  8
躯体と製品
  6
DASHED1
 62
     7
100
AcDbCircle
 10
1672.948233598117
 20
853.8226423799654
 30
0.0
 40
1.0
100
AcDbArc
 50
86.99999999999441
 51
136.3731526377175
  0
LINE
  5
712E
330
1E
100
AcDbEntity
  8
躯体と製品
  6
DASHED1
 62
     7
100
AcDbLine
 10
1672.224384954554
 20
854.5126011767154
 30
0.0
 11
1659.294433860796
 21
840.9475483001726
 31
0.0
  0
LINE
  5
712F
330
1E
100
AcDbEntity
  8
躯体と製品
  6
DASHED1
 62
     7
100
AcDbLine
 10
1673.00056955436
 20
854.8212719147201
 30
0.0
 11
1694.316523448456
 21
853.7041501078306
 31
0.0
  0
ARC
  5
7130
330
1E
100
AcDbEntity
  8
躯体と製品
  6
DASHED1
 62
     7
100
AcDbCircle
 10
1672.948233598117
 20
853.8226423799654
 30
0.0
 40
1.8
100
AcDbArc
 50
86.99999999999441
 51
136.3731526377175
  0
LINE
  5
7131
330
1E
100
AcDbEntity
  8
躯体と製品
  6
DASHED1
 62
     7
100
AcDbLine
 10
1673.042438319354
 20
855.6201755425238
 30
0.0
 11
1694.358392213451
 21
854.5030537356346
 31
0.0
  0
ARC
  5
7132
330
1E
100
AcDbEntity
  8
躯体と製品
  6
DASHED1
 62
     7
100
AcDbCircle
 10
1694.264187492213
 20
852.7055205730762
 30
0.0
 40
1.0
100
AcDbArc
 50
37.62684736228169
 51
86.99999999999441
  0
ARC
  5
7133
330
1E
100
AcDbEntity
  8
躯体と製品
  6
Continuous
 62
     3
100
AcDbCircle
 10
1710.907862942975
 20
814.3811876215572
 30
0.0
 40
0.5
100
AcDbArc
 50
270.0
 51
350.0000000000025
  0
LINE
  5
7134
330
1E
100
AcDbEntity
  8
躯体と製品
  6
Continuous
 62
     3
100
AcDbLine
 10
1710.907862942975
 20
813.8811876215573
 30
0.0
 11
1707.861583107318
 21
813.8811876215573
 31
0.0
  0
LINE
  5
7135
330
1E
100
AcDbEntity
  8
躯体と製品
  6
Continuous
 62
     3
100
AcDbLine
 10
1711.400266819481
 20
814.2943635327238
 30
0.0
 11
1711.807461491041
 21
816.6036792705879
 31
0.0
  0
ARC
  5
7136
330
1E
100
AcDbEntity
  8
躯体と製品
  6
Continuous
 62
     3
100
AcDbCircle
 10
1707.861583107318
 20
814.3811876215572
 30
0.0
 40
0.5
100
AcDbArc
 50
170.0000000000025
 51
270.0
  0
LINE
  5
7137
330
1E
100
AcDbEntity
  8
躯体と製品
  6
Continuous
 62
     3
100
AcDbLine
 10
1707.369179230812
 20
814.4680117103906
 30
0.0
 11
1707.868230478993
 21
817.2982719812557
 31
0.0
  0
ARC
  5
7138
330
1E
100
AcDbEntity
  8
躯体と製品
  6
Continuous
 62
     3
100
AcDbCircle
 10
1705.323016577603
 20
814.3811876215572
 30
0.0
 40
0.5
100
AcDbArc
 50
270.0
 51
350.0000000000025
  0
LINE
  5
7139
330
1E
100
AcDbEntity
  8
躯体と製品
  6
Continuous
 62
     3
100
AcDbLine
 10
1705.323016577603
 20
813.8811876215573
 30
0.0
 11
1701.350552676392
 21
813.8811876215573
 31
0.0
  0
LINE
  5
713A
330
1E
100
AcDbEntity
  8
躯体と製品
  6
Continuous
 62
     3
100
AcDbLine
 10
1705.81542045411
 20
814.2943635327238
 30
0.0
 11
1706.955375426892
 21
820.7593694450459
 31
0.0
  0
LINE
  5
713B
330
1E
100
AcDbEntity
  8
躯体と製品
  6
Continuous
 62
     3
100
AcDbLine
 10
1708.04187865666
 20
818.2830797342681
 30
0.0
 11
1707.549474780153
 21
818.3699038231015
 31
0.0
  0
LINE
  5
713C
330
1E
100
AcDbEntity
  8
躯体と製品
  6
Continuous
 62
     3
100
AcDbLine
 10
1712.473513545214
 20
817.501662934767
 30
0.0
 11
1711.981109668708
 21
817.5884870236002
 31
0.0
  0
LINE
  5
713D
330
1E
100
AcDbEntity
  8
躯体と製品
  6
Continuous
 62
     3
100
AcDbLine
 10
1708.215526834326
 20
819.2678874872802
 30
0.0
 11
1707.72312295782
 21
819.3547115761136
 31
0.0
  0
LINE
  5
713E
330
1E
100
AcDbEntity
  8
躯体と製品
  6
Continuous
 62
     3
100
AcDbLine
 10
1712.647161722881
 20
818.4864706877791
 30
0.0
 11
1712.154757846375
 21
818.5732947766124
 31
0.0
  0
LINE
  5
713F
330
1E
100
AcDbEntity
  8
躯体と製品
  6
Continuous
 62
     3
100
AcDbLine
 10
1712.850552676392
 20
813.8811876215573
 30
0.0
 11
1713.849029697977
 21
819.5438322013774
 31
0.0
  0
LINE
  5
7140
330
1E
100
AcDbEntity
  8
躯体と製品
  6
Continuous
 62
     3
100
AcDbLine
 10
1712.154757846375
 20
818.5732947766124
 30
0.0
 11
1712.371818068459
 21
819.8043044678778
 31
0.0
  0
LINE
  5
7141
330
1E
100
AcDbEntity
  8
躯体と製品
  6
Continuous
 62
     3
100
AcDbLine
 10
1708.215526834326
 20
819.2678874872802
 30
0.0
 11
1708.43258705641
 21
820.4988971785454
 31
0.0
  0
LINE
  5
7142
330
1E
100
AcDbEntity
  8
躯体と製品
  6
Continuous
 62
     3
100
AcDbLine
 10
1712.473513545214
 20
817.501662934767
 30
0.0
 11
1711.807461491041
 21
816.6036792705879
 31
0.0
  0
LINE
  5
7143
330
1E
100
AcDbEntity
  8
躯体と製品
  6
Continuous
 62
     3
100
AcDbLine
 10
1712.647161722881
 20
818.4864706877791
 30
0.0
 11
1711.981109668708
 21
817.5884870236002
 31
0.0
  0
ARC
  5
7144
330
1E
100
AcDbEntity
  8
躯体と製品
  6
Continuous
 62
     3
100
AcDbCircle
 10
1707.693981241651
 20
820.6291333117958
 30
0.0
 40
0.7500000000000016
100
AcDbArc
 50
350.0000000000025
 51
170.0000000000025
  0
ARC
  5
7145
330
1E
100
AcDbEntity
  8
躯体と製品
  6
Continuous
 62
     3
100
AcDbCircle
 10
1713.110423883218
 20
819.6740683346273
 30
0.0
 40
0.7499999999999977
100
AcDbArc
 50
350.0000000000025
 51
170.0000000000025
  0
LINE
  5
7146
330
1E
100
AcDbEntity
  8
躯体と製品
  6
Continuous
 62
     3
100
AcDbLine
 10
1712.850552676392
 20
811.3811876215573
 30
0.0
 11
1712.850552676392
 21
813.8811876215573
 31
0.0
  0
LINE
  5
7147
330
1E
100
AcDbEntity
  8
躯体と製品
  6
Continuous
 62
     3
100
AcDbLine
 10
1664.350552676392
 20
811.3811876215573
 30
0.0
 11
1665.850552676392
 21
811.3811876215573
 31
0.0
  0
LINE
  5
7148
330
1E
100
AcDbEntity
  8
躯体と製品
  6
Continuous
 62
     3
100
AcDbLine
 10
1665.850552676392
 20
811.3811876215573
 30
0.0
 11
1665.850552676392
 21
811.8811876215572
 31
0.0
  0
LINE
  5
7149
330
1E
100
AcDbEntity
  8
躯体と製品
  6
Continuous
 62
     3
100
AcDbLine
 10
1665.850552676392
 20
811.8811876215572
 30
0.0
 11
1677.350552676392
 21
811.8811876215572
 31
0.0
  0
LINE
  5
714A
330
1E
100
AcDbEntity
  8
躯体と製品
  6
Continuous
 62
     3
100
AcDbLine
 10
1677.350552676392
 20
811.8811876215572
 30
0.0
 11
1677.350552676392
 21
811.3811876215573
 31
0.0
  0
ARC
  5
714B
330
1E
100
AcDbEntity
  8
躯体と製品
  6
Continuous
 62
     3
100
AcDbCircle
 10
1669.100552676392
 20
820.6311876215572
 30
0.0
 40
0.75
100
AcDbArc
 50
270.0
 51
90.0
  0
ARC
  5
714C
330
1E
100
AcDbEntity
  8
躯体と製品
  6
Continuous
 62
     3
100
AcDbCircle
 10
1668.100552676392
 20
816.6311876215573
 30
0.0
 40
0.75
100
AcDbArc
 50
270.0
 51
90.0
  0
ARC
  5
714D
330
1E
100
AcDbEntity
  8
躯体と製品
  6
Continuous
 62
     3
100
AcDbCircle
 10
1666.150552676392
 20
819.581187621557
 30
0.0
 40
0.2999999999999998
100
AcDbArc
 50
90.0
 51
180.0
  0
LINE
  5
714E
330
1E
100
AcDbEntity
  8
躯体と製品
  6
Continuous
 62
     3
100
AcDbLine
 10
1666.150552676392
 20
819.8811876215572
 30
0.0
 11
1669.100552676392
 21
819.8811876215572
 31
0.0
  0
LINE
  5
714F
330
1E
100
AcDbEntity
  8
躯体と製品
  6
Continuous
 62
     3
100
AcDbLine
 10
1666.150552676392
 20
817.3811876215573
 30
0.0
 11
1668.100552676392
 21
817.3811876215573
 31
0.0
  0
ARC
  5
7150
330
1E
100
AcDbEntity
  8
躯体と製品
  6
Continuous
 62
     3
100
AcDbCircle
 10
1666.150552676392
 20
817.6811876215571
 30
0.0
 40
0.2999999999999998
100
AcDbArc
 50
180.0
 51
270.0
  0
LINE
  5
7151
330
1E
100
AcDbEntity
  8
躯体と製品
  6
Continuous
 62
     3
100
AcDbLine
 10
1665.850552676392
 20
817.6811876215571
 30
0.0
 11
1665.850552676392
 21
819.581187621557
 31
0.0
  0
ARC
  5
7152
330
1E
100
AcDbEntity
  8
躯体と製品
  6
Continuous
 62
     3
100
AcDbCircle
 10
1666.150552676392
 20
815.5811876215571
 30
0.0
 40
0.2999999999999998
100
AcDbArc
 50
90.0
 51
180.0
  0
LINE
  5
7153
330
1E
100
AcDbEntity
  8
躯体と製品
  6
Continuous
 62
     3
100
AcDbLine
 10
1666.150552676392
 20
815.8811876215573
 30
0.0
 11
1668.100552676392
 21
815.8811876215573
 31
0.0
  0
ARC
  5
7154
330
1E
100
AcDbEntity
  8
躯体と製品
  6
Continuous
 62
     3
100
AcDbCircle
 10
1666.150552676392
 20
814.1811876215571
 30
0.0
 40
0.2999999999999998
100
AcDbArc
 50
180.0
 51
270.0
  0
LINE
  5
7155
330
1E
100
AcDbEntity
  8
躯体と製品
  6
Continuous
 62
     3
100
AcDbLine
 10
1665.850552676392
 20
814.1811876215571
 30
0.0
 11
1665.850552676392
 21
815.5811876215571
 31
0.0
  0
LINE
  5
7156
330
1E
100
AcDbEntity
  8
躯体と製品
  6
Continuous
 62
     3
100
AcDbLine
 10
1664.850552676392
 20
821.3811876215572
 30
0.0
 11
1669.100552676392
 21
821.3811876215572
 31
0.0
  0
ARC
  5
7157
330
1E
100
AcDbEntity
  8
躯体と製品
  6
Continuous
 62
     3
100
AcDbCircle
 10
1664.850552676392
 20
820.8811876215573
 30
0.0
 40
0.5
100
AcDbArc
 50
90.0
 51
180.0
  0
LINE
  5
7158
330
1E
100
AcDbEntity
  8
躯体と製品
  6
Continuous
 62
     3
100
AcDbLine
 10
1664.350552676392
 20
820.8811876215573
 30
0.0
 11
1664.350552676392
 21
811.3811876215573
 31
0.0
  0
LINE
  5
7159
330
1E
100
AcDbEntity
  8
躯体と製品
  6
Continuous
 62
     3
100
AcDbLine
 10
1677.350552676392
 20
811.3811876215573
 30
0.0
 11
1687.350552676392
 21
811.3811876215573
 31
0.0
  0
LINE
  5
715A
330
1E
100
AcDbEntity
  8
躯体と製品
  6
Continuous
 62
     3
100
AcDbLine
 10
1682.850552676393
 20
813.8811876215573
 30
0.0
 11
1698.550552676392
 21
813.8811876215573
 31
0.0
  0
LINE
  5
715B
330
1E
100
AcDbEntity
  8
躯体と製品
  6
Continuous
 62
     3
100
AcDbLine
 10
1666.150552676392
 20
813.8811876215573
 30
0.0
 11
1681.850552676392
 21
813.8811876215573
 31
0.0
  0
LINE
  5
715C
330
1E
100
AcDbEntity
  8
躯体と製品
  6
Continuous
 62
     3
100
AcDbLine
 10
1687.350552676392
 20
811.3811876215573
 30
0.0
 11
1687.350552676392
 21
811.8811876215572
 31
0.0
  0
LINE
  5
715D
330
1E
100
AcDbEntity
  8
躯体と製品
  6
Continuous
 62
     3
100
AcDbLine
 10
1687.350552676392
 20
811.8811876215572
 30
0.0
 11
1698.850552676392
 21
811.8811876215572
 31
0.0
  0
LINE
  5
715E
330
1E
100
AcDbEntity
  8
躯体と製品
  6
Continuous
 62
     3
100
AcDbLine
 10
1698.850552676392
 20
811.8811876215572
 30
0.0
 11
1698.850552676392
 21
811.3811876215573
 31
0.0
  0
LINE
  5
715F
330
1E
100
AcDbEntity
  8
躯体と製品
  6
Continuous
 62
     3
100
AcDbLine
 10
1698.850552676392
 20
811.3811876215573
 30
0.0
 11
1700.850552676392
 21
811.3811876215573
 31
0.0
  0
ARC
  5
7160
330
1E
100
AcDbEntity
  8
躯体と製品
  6
Continuous
 62
     3
100
AcDbCircle
 10
1699.850552676392
 20
829.3811876215572
 30
0.0
 40
1.0
100
AcDbArc
 50
0.0
 51
180.0
  0
LINE
  5
7161
330
1E
100
AcDbEntity
  8
躯体と製品
  6
Continuous
 62
     3
100
AcDbLine
 10
1711.350552676393
 20
812.3811876215572
 30
0.0
 11
1711.350552676393
 21
811.3811876215573
 31
0.0
  0
LINE
  5
7162
330
1E
100
AcDbEntity
  8
躯体と製品
  6
Continuous
 62
     3
100
AcDbLine
 10
1711.350552676393
 20
811.3811876215573
 30
0.0
 11
1712.850552676392
 21
811.3811876215573
 31
0.0
  0
LINE
  5
7163
330
1E
100
AcDbEntity
  8
躯体と製品
  6
Continuous
 62
     3
100
AcDbLine
 10
1682.350552676392
 20
813.3811876215572
 30
0.0
 11
1682.850552676393
 21
813.8811876215573
 31
0.0
  0
LINE
  5
7164
330
1E
100
AcDbEntity
  8
躯体と製品
  6
Continuous
 62
     3
100
AcDbLine
 10
1700.850552676392
 20
811.3811876215573
 30
0.0
 11
1700.850552676392
 21
812.3811876215572
 31
0.0
  0
LINE
  5
7165
330
1E
100
AcDbEntity
  8
躯体と製品
  6
Continuous
 62
     3
100
AcDbLine
 10
1700.850552676392
 20
812.3811876215572
 30
0.0
 11
1711.350552676393
 21
812.3811876215572
 31
0.0
  0
LINE
  5
7166
330
1E
100
AcDbEntity
  8
躯体と製品
  6
Continuous
 62
     3
100
AcDbLine
 10
1700.850552676392
 20
814.3811876215572
 30
0.0
 11
1700.850552676392
 21
829.3811876215572
 31
0.0
  0
ARC
  5
7167
330
1E
100
AcDbEntity
  8
躯体と製品
  6
Continuous
 62
     3
100
AcDbCircle
 10
1701.350552676392
 20
814.3811876215572
 30
0.0
 40
0.5
100
AcDbArc
 50
180.0
 51
270.0
  0
ARC
  5
7168
330
1E
100
AcDbEntity
  8
躯体と製品
  6
Continuous
 62
     3
100
AcDbCircle
 10
1698.550552676392
 20
814.1811876215571
 30
0.0
 40
0.2999999999999998
100
AcDbArc
 50
270.0
 51
0.0
  0
LINE
  5
7169
330
1E
100
AcDbEntity
  8
躯体と製品
  6
Continuous
 62
     3
100
AcDbLine
 10
1698.350552676392
 20
821.3811876215572
 30
0.0
 11
1695.600552676392
 21
821.3811876215572
 31
0.0
  0
ARC
  5
716A
330
1E
100
AcDbEntity
  8
躯体と製品
  6
Continuous
 62
     3
100
AcDbCircle
 10
1698.350552676392
 20
821.8811876215573
 30
0.0
 40
0.5
100
AcDbArc
 50
270.0
 51
0.0
  0
LINE
  5
716B
330
1E
100
AcDbEntity
  8
躯体と製品
  6
Continuous
 62
     3
100
AcDbLine
 10
1698.850552676392
 20
821.8811876215573
 30
0.0
 11
1698.850552676392
 21
829.3811876215572
 31
0.0
  0
ARC
  5
716C
330
1E
100
AcDbEntity
  8
躯体と製品
  6
Continuous
 62
     3
100
AcDbCircle
 10
1695.600552676392
 20
820.6311876215572
 30
0.0
 40
0.75
100
AcDbArc
 50
90.0
 51
270.0
  0
ARC
  5
716D
330
1E
100
AcDbEntity
  8
躯体と製品
  6
Continuous
 62
     3
100
AcDbCircle
 10
1696.600552676392
 20
816.6311876215573
 30
0.0
 40
0.75
100
AcDbArc
 50
90.0
 51
270.0
  0
LINE
  5
716E
330
1E
100
AcDbEntity
  8
躯体と製品
  6
Continuous
 62
     3
100
AcDbLine
 10
1698.550552676392
 20
815.8811876215573
 30
0.0
 11
1696.600552676392
 21
815.8811876215573
 31
0.0
  0
ARC
  5
716F
330
1E
100
AcDbEntity
  8
躯体と製品
  6
Continuous
 62
     3
100
AcDbCircle
 10
1698.550552676392
 20
815.5811876215571
 30
0.0
 40
0.2999999999999998
100
AcDbArc
 50
0.0
 51
90.0
  0
LINE
  5
7170
330
1E
100
AcDbEntity
  8
躯体と製品
  6
Continuous
 62
     3
100
AcDbLine
 10
1698.850552676392
 20
815.5811876215571
 30
0.0
 11
1698.850552676392
 21
814.1811876215571
 31
0.0
  0
LINE
  5
7171
330
1E
100
AcDbEntity
  8
躯体と製品
  6
Continuous
 62
     3
100
AcDbLine
 10
1698.550552676392
 20
817.3811876215573
 30
0.0
 11
1696.600552676392
 21
817.3811876215573
 31
0.0
  0
ARC
  5
7172
330
1E
100
AcDbEntity
  8
躯体と製品
  6
Continuous
 62
     3
100
AcDbCircle
 10
1698.550552676392
 20
817.6811876215571
 30
0.0
 40
0.2999999999999998
100
AcDbArc
 50
270.0
 51
0.0
  0
LINE
  5
7173
330
1E
100
AcDbEntity
  8
躯体と製品
  6
Continuous
 62
     3
100
AcDbLine
 10
1698.850552676392
 20
819.581187621557
 30
0.0
 11
1698.850552676392
 21
817.6811876215571
 31
0.0
  0
ARC
  5
7174
330
1E
100
AcDbEntity
  8
躯体と製品
  6
Continuous
 62
     3
100
AcDbCircle
 10
1698.550552676392
 20
819.581187621557
 30
0.0
 40
0.2999999999999998
100
AcDbArc
 50
0.0
 51
90.0
  0
LINE
  5
7175
330
1E
100
AcDbEntity
  8
躯体と製品
  6
Continuous
 62
     3
100
AcDbLine
 10
1698.550552676392
 20
819.8811876215572
 30
0.0
 11
1695.600552676392
 21
819.8811876215572
 31
0.0
  0
LINE
  5
7176
330
1E
100
AcDbEntity
  8
躯体と製品
  6
Continuous
 62
     3
100
AcDbLine
 10
1682.350552676392
 20
813.3811876215572
 30
0.0
 11
1681.850552676392
 21
813.8811876215573
 31
0.0
  0
LINE
  5
7177
330
1E
100
AcDbEntity
  8
躯体と製品
  6
Continuous
 62
     3
100
AcDbLine
 10
1707.549474780153
 20
818.3699038231015
 30
0.0
 11
1707.868230478993
 21
817.2982719812557
 31
0.0
  0
LINE
  5
7178
330
1E
100
AcDbEntity
  8
躯体と製品
  6
Continuous
 62
     3
100
AcDbLine
 10
1707.72312295782
 20
819.3547115761136
 30
0.0
 11
1708.04187865666
 21
818.2830797342681
 31
0.0
  0
ARC
  5
7179
330
1E
100
AcDbEntity
  8
躯体と製品
  6
DASHED1
 62
     7
100
AcDbCircle
 10
1678.850552676392
 20
770.8811876215572
 30
0.0
 40
1.0
100
AcDbArc
 50
180.0
 51
270.0
  0
LINE
  5
717A
330
1E
100
AcDbEntity
  8
躯体と製品
  6
DASHED1
 62
     7
100
AcDbLine
 10
1675.725522676392
 20
772.1191916215571
 30
0.0
 11
1679.910955676392
 21
771.3811876215572
 31
0.0
  0
LINE
  5
717B
330
1E
100
AcDbEntity
  8
躯体と製品
  6
DASHED1
 62
     7
100
AcDbLine
 10
1678.300552676392
 20
802.0811876215571
 30
0.0
 11
1686.400552676392
 21
802.0811876215571
 31
0.0
  0
LINE
  5
717C
330
1E
100
AcDbEntity
  8
躯体と製品
  6
DASHED1
 62
     7
100
AcDbLine
 10
1677.600552676392
 20
801.3811876215573
 30
0.0
 11
1687.100552676392
 21
801.3811876215573
 31
0.0
  0
LINE
  5
717D
330
1E
100
AcDbEntity
  8
躯体と製品
  6
DASHED1
 62
     7
100
AcDbLine
 10
1688.975582676392
 20
772.1191916215571
 30
0.0
 11
1687.100552676392
 21
782.7530136215572
 31
0.0
  0
LINE
  5
717E
330
1E
100
AcDbEntity
  8
躯体と製品
  6
DASHED1
 62
     7
100
AcDbLine
 10
1682.850552676393
 20
782.3811876215573
 30
0.0
 11
1684.790149676392
 21
771.3811876215572
 31
0.0
  0
LINE
  5
717F
330
1E
100
AcDbEntity
  8
躯体と製品
  6
DASHED1
 62
     7
100
AcDbLine
 10
1681.850552676392
 20
782.3811876215573
 30
0.0
 11
1679.910955676392
 21
771.3811876215572
 31
0.0
  0
LINE
  5
7180
330
1E
100
AcDbEntity
  8
躯体と製品
  6
DASHED1
 62
     7
100
AcDbLine
 10
1688.975582676392
 20
772.1191916215571
 30
0.0
 11
1684.790149676392
 21
771.3811876215572
 31
0.0
  0
LINE
  5
7181
330
1E
100
AcDbEntity
  8
躯体と製品
  6
DASHED1
 62
     7
100
AcDbLine
 10
1686.850552676392
 20
770.8811876215572
 30
0.0
 11
1686.850552676392
 21
771.7444916215571
 31
0.0
  0
ARC
  5
7182
330
1E
100
AcDbEntity
  8
躯体と製品
  6
DASHED1
 62
     7
100
AcDbCircle
 10
1685.850552676392
 20
770.8811876215572
 30
0.0
 40
1.0
100
AcDbArc
 50
270.0
 51
0.0
  0
LINE
  5
7183
330
1E
100
AcDbEntity
  8
躯体と製品
  6
DASHED1
 62
     7
100
AcDbLine
 10
1685.850552676392
 20
769.8811876215573
 30
0.0
 11
1678.850552676392
 21
769.8811876215573
 31
0.0
  0
LINE
  5
7184
330
1E
100
AcDbEntity
  8
躯体と製品
  6
DASHED1
 62
     7
100
AcDbLine
 10
1687.100552676392
 20
782.7530136215572
 30
0.0
 11
1687.100552676392
 21
801.3811876215573
 31
0.0
  0
LINE
  5
7185
330
1E
100
AcDbEntity
  8
躯体と製品
  6
DASHED1
 62
     7
100
AcDbLine
 10
1687.100552676392
 20
801.3811876215573
 30
0.0
 11
1686.400552676392
 21
802.0811876215571
 31
0.0
  0
LINE
  5
7186
330
1E
100
AcDbEntity
  8
躯体と製品
  6
DASHED1
 62
     7
100
AcDbLine
 10
1681.850552676392
 20
782.3811876215573
 30
0.0
 11
1682.850552676393
 21
782.3811876215573
 31
0.0
  0
LINE
  5
7187
330
1E
100
AcDbEntity
  8
躯体と製品
  6
DASHED1
 62
     7
100
AcDbLine
 10
1675.725522676392
 20
772.1191916215571
 30
0.0
 11
1677.600552676392
 21
782.7530136215572
 31
0.0
  0
LINE
  5
7188
330
1E
100
AcDbEntity
  8
躯体と製品
  6
DASHED1
 62
     7
100
AcDbLine
 10
1677.850552676392
 20
770.8811876215572
 30
0.0
 11
1677.850552676392
 21
771.7444916215571
 31
0.0
  0
LINE
  5
7189
330
1E
100
AcDbEntity
  8
躯体と製品
  6
DASHED1
 62
     7
100
AcDbLine
 10
1677.600552676392
 20
782.7530136215572
 30
0.0
 11
1677.600552676392
 21
801.3811876215573
 31
0.0
  0
LINE
  5
718A
330
1E
100
AcDbEntity
  8
躯体と製品
  6
DASHED1
 62
     7
100
AcDbLine
 10
1677.600552676392
 20
801.3811876215573
 30
0.0
 11
1678.300552676392
 21
802.0811876215571
 31
0.0
  0
LINE
  5
718B
330
1E
100
AcDbEntity
  8
躯体と製品
  6
DASHED1
 62
     7
100
AcDbLine
 10
1686.400552676392
 20
811.3811876215573
 30
0.0
 11
1686.400552676392
 21
802.0811876215571
 31
0.0
  0
LINE
  5
718C
330
1E
100
AcDbEntity
  8
躯体と製品
  6
DASHED1
 62
     7
100
AcDbLine
 10
1678.300552676392
 20
811.3811876215573
 30
0.0
 11
1678.300552676392
 21
802.0811876215571
 31
0.0
  0
LINE
  5
718D
330
1E
100
AcDbEntity
  8
躯体と製品
  6
Continuous
 62
     4
100
AcDbLine
 10
1667.495752765434
 20
809.3811876215573
 30
0.0
 11
1668.495752765434
 21
810.3811876215567
 31
0.0
  0
LINE
  5
718E
330
1E
100
AcDbEntity
  8
躯体と製品
  6
Continuous
 62
     4
100
AcDbLine
 10
1668.909966327808
 20
809.3811876215569
 30
0.0
 11
1669.909966327807
 21
810.3811876215567
 31
0.0
  0
LINE
  5
718F
330
1E
100
AcDbEntity
  8
躯体と製品
  6
Continuous
 62
     4
100
AcDbLine
 10
1670.324179890181
 20
809.3811876215568
 30
0.0
 11
1671.324179890181
 21
810.3811876215573
 31
0.0
  0
LINE
  5
7190
330
1E
100
AcDbEntity
  8
躯体と製品
  6
Continuous
 62
     4
100
AcDbLine
 10
1671.738393452554
 20
809.3811876215573
 30
0.0
 11
1672.738393452554
 21
810.3811876215575
 31
0.0
  0
LINE
  5
7191
330
1E
100
AcDbEntity
  8
躯体と製品
  6
Continuous
 62
     4
100
AcDbLine
 10
1673.152607014928
 20
809.3811876215573
 30
0.0
 11
1674.152607014928
 21
810.3811876215575
 31
0.0
  0
LINE
  5
7192
330
1E
100
AcDbEntity
  8
躯体と製品
  6
Continuous
 62
     4
100
AcDbLine
 10
1674.5668205773
 20
809.3811876215575
 30
0.0
 11
1675.5668205773
 21
810.3811876215576
 31
0.0
  0
LINE
  5
7193
330
1E
100
AcDbEntity
  8
躯体と製品
  6
Continuous
 62
     4
100
AcDbLine
 10
1675.981034139673
 20
809.381187621558
 30
0.0
 11
1676.981034139673
 21
810.3811876215576
 31
0.0
  0
LINE
  5
7194
330
1E
100
AcDbEntity
  8
躯体と製品
  6
Continuous
 62
     4
100
AcDbLine
 10
1677.395247702047
 20
809.3811876215578
 30
0.0
 11
1678.395247702046
 21
810.3811876215576
 31
0.0
  0
LINE
  5
7195
330
1E
100
AcDbEntity
  8
躯体と製品
  6
Continuous
 62
     4
100
AcDbLine
 10
1678.80946126442
 20
809.3811876215577
 30
0.0
 11
1679.809461264419
 21
810.3811876215575
 31
0.0
  0
LINE
  5
7196
330
1E
100
AcDbEntity
  8
躯体と製品
  6
Continuous
 62
     4
100
AcDbLine
 10
1680.223674826793
 20
809.3811876215577
 30
0.0
 11
1681.223674826793
 21
810.3811876215575
 31
0.0
  0
LINE
  5
7197
330
1E
100
AcDbEntity
  8
躯体と製品
  6
Continuous
 62
     4
100
AcDbLine
 10
1681.637888389166
 20
809.3811876215575
 30
0.0
 11
1682.637888389166
 21
810.3811876215573
 31
0.0
  0
LINE
  5
7198
330
1E
100
AcDbEntity
  8
躯体と製品
  6
Continuous
 62
     4
100
AcDbLine
 10
1683.05210195154
 20
809.3811876215577
 30
0.0
 11
1684.05210195154
 21
810.381187621558
 31
0.0
  0
LINE
  5
7199
330
1E
100
AcDbEntity
  8
躯体と製品
  6
Continuous
 62
     4
100
AcDbLine
 10
1684.466315513913
 20
809.3811876215575
 30
0.0
 11
1685.466315513913
 21
810.3811876215576
 31
0.0
  0
LINE
  5
719A
330
1E
100
AcDbEntity
  8
躯体と製品
  6
Continuous
 62
     4
100
AcDbLine
 10
1685.880529076284
 20
809.3811876215573
 30
0.0
 11
1686.880529076284
 21
810.3811876215567
 31
0.0
  0
LINE
  5
719B
330
1E
100
AcDbEntity
  8
躯体と製品
  6
Continuous
 62
     4
100
AcDbLine
 10
1687.294742638658
 20
809.3811876215575
 30
0.0
 11
1688.294742638657
 21
810.3811876215573
 31
0.0
  0
LINE
  5
719C
330
1E
100
AcDbEntity
  8
躯体と製品
  6
Continuous
 62
     4
100
AcDbLine
 10
1688.708956201031
 20
809.3811876215575
 30
0.0
 11
1689.708956201031
 21
810.3811876215573
 31
0.0
  0
LINE
  5
719D
330
1E
100
AcDbEntity
  8
躯体と製品
  6
Continuous
 62
     4
100
AcDbLine
 10
1690.123169763404
 20
809.3811876215573
 30
0.0
 11
1691.123169763404
 21
810.3811876215567
 31
0.0
  0
LINE
  5
719E
330
1E
100
AcDbEntity
  8
躯体と製品
  6
Continuous
 62
     4
100
AcDbLine
 10
1691.537383325778
 20
809.3811876215573
 30
0.0
 11
1692.537383325778
 21
810.3811876215575
 31
0.0
  0
LINE
  5
719F
330
1E
100
AcDbEntity
  8
躯体と製品
  6
Continuous
 62
     4
100
AcDbLine
 10
1692.951596888151
 20
809.3811876215573
 30
0.0
 11
1693.951596888151
 21
810.3811876215575
 31
0.0
  0
LINE
  5
71A0
330
1E
100
AcDbEntity
  8
躯体と製品
  6
Continuous
 62
     4
100
AcDbLine
 10
1694.365810450524
 20
809.3811876215568
 30
0.0
 11
1695.365810450524
 21
810.3811876215573
 31
0.0
  0
LINE
  5
71A1
330
1E
100
AcDbEntity
  8
躯体と製品
  6
Continuous
 62
     4
100
AcDbLine
 10
1695.780024012897
 20
809.3811876215568
 30
0.0
 11
1696.780024012898
 21
810.3811876215569
 31
0.0
  0
LINE
  5
71A2
330
1E
100
AcDbEntity
  8
躯体と製品
  6
Continuous
 62
     4
100
AcDbLine
 10
1697.19423757527
 20
809.3811876215577
 30
0.0
 11
1697.350552676392
 21
809.5375027226801
 31
0.0
  0
LINE
  5
71A3
330
1E
100
AcDbEntity
  8
躯体と製品
  6
Continuous
 62
     3
100
AcDbLine
 10
1671.350552676392
 20
827.6682493584672
 30
0.0
 11
1671.350552676392
 21
820.3811876215572
 31
0.0
  0
LINE
  5
71A4
330
1E
100
AcDbEntity
  8
躯体と製品
  6
Continuous
 62
     3
100
AcDbLine
 10
1666.350552676392
 20
818.2811876215572
 30
0.0
 11
1670.850552676392
 21
818.2811876215572
 31
0.0
  0
LINE
  5
71A5
330
1E
100
AcDbEntity
  8
躯体と製品
  6
Continuous
 62
     3
100
AcDbLine
 10
1666.350552676392
 20
818.2811876215572
 30
0.0
 11
1666.350552676392
 21
819.8811876215572
 31
0.0
  0
LINE
  5
71A6
330
1E
100
AcDbEntity
  8
躯体と製品
  6
Continuous
 62
     3
100
AcDbLine
 10
1666.350552676392
 20
819.8811876215572
 30
0.0
 11
1670.850552676392
 21
819.8811876215572
 31
0.0
  0
ARC
  5
71A7
330
1E
100
AcDbEntity
  8
躯体と製品
  6
Continuous
 62
     3
100
AcDbCircle
 10
1670.850552676392
 20
820.3811876215572
 30
0.0
 40
2.1
100
AcDbArc
 50
270.0
 51
0.0
  0
ARC
  5
71A8
330
1E
100
AcDbEntity
  8
躯体と製品
  6
Continuous
 62
     3
100
AcDbCircle
 10
1670.850552676392
 20
820.3811876215572
 30
0.0
 40
0.5
100
AcDbArc
 50
270.0
 51
0.0
  0
LINE
  5
71A9
330
1E
100
AcDbEntity
  8
躯体と製品
  6
Continuous
 62
     3
100
AcDbLine
 10
1698.350552676392
 20
818.2811876215572
 30
0.0
 11
1693.850552676392
 21
818.2811876215572
 31
0.0
  0
LINE
  5
71AA
330
1E
100
AcDbEntity
  8
躯体と製品
  6
Continuous
 62
     3
100
AcDbLine
 10
1693.850552676392
 20
819.8811876215572
 30
0.0
 11
1698.350552676392
 21
819.8811876215572
 31
0.0
  0
LINE
  5
71AB
330
1E
100
AcDbEntity
  8
躯体と製品
  6
Continuous
 62
     3
100
AcDbLine
 10
1698.350552676392
 20
819.8811876215572
 30
0.0
 11
1698.350552676392
 21
818.2811876215572
 31
0.0
  0
ARC
  5
71AC
330
1E
100
AcDbEntity
  8
躯体と製品
  6
Continuous
 62
     3
100
AcDbCircle
 10
1693.850552676392
 20
820.3811876215572
 30
0.0
 40
2.1
100
AcDbArc
 50
180.0
 51
270.0
  0
ARC
  5
71AD
330
1E
100
AcDbEntity
  8
躯体と製品
  6
Continuous
 62
     3
100
AcDbCircle
 10
1693.850552676392
 20
820.3811876215572
 30
0.0
 40
0.5
100
AcDbArc
 50
180.0
 51
270.0
  0
LINE
  5
71AE
330
1E
100
AcDbEntity
  8
躯体と製品
  6
Continuous
 62
     3
100
AcDbLine
 10
1672.950552676392
 20
827.6682493584672
 30
0.0
 11
1672.950552676392
 21
820.3811876215572
 31
0.0
  0
ARC
  5
71AF
330
1E
100
AcDbEntity
  8
躯体と製品
  6
Continuous
 62
     3
100
AcDbCircle
 10
1673.450552676392
 20
827.6682493584672
 30
0.0
 40
0.5
100
AcDbArc
 50
86.99999999999441
 51
180.0
  0
LINE
  5
71B0
330
1E
100
AcDbEntity
  8
躯体と製品
  6
Continuous
 62
     3
100
AcDbLine
 10
1691.750552676392
 20
826.7353908872291
 30
0.0
 11
1691.750552676392
 21
820.3811876215572
 31
0.0
  0
ARC
  5
71B1
330
1E
100
AcDbEntity
  8
躯体と製品
  6
Continuous
 62
     3
100
AcDbCircle
 10
1691.250552676392
 20
826.7353908872291
 30
0.0
 40
0.5
100
AcDbArc
 50
0.0
 51
86.99999999999441
  0
ARC
  5
71B2
330
1E
100
AcDbEntity
  8
躯体と製品
  6
Continuous
 62
     3
100
AcDbCircle
 10
1673.450552676392
 20
827.6682493584672
 30
0.0
 40
2.1
100
AcDbArc
 50
86.99999999999441
 51
180.0
  0
LINE
  5
71B3
330
1E
100
AcDbEntity
  8
躯体と製品
  6
Continuous
 62
     3
100
AcDbLine
 10
1693.350552676392
 20
826.7353908872291
 30
0.0
 11
1693.350552676392
 21
820.3811876215572
 31
0.0
  0
ARC
  5
71B4
330
1E
100
AcDbEntity
  8
躯体と製品
  6
Continuous
 62
     3
100
AcDbCircle
 10
1691.250552676392
 20
826.7353908872291
 30
0.0
 40
2.1
100
AcDbArc
 50
0.0
 51
86.99999999999441
  0
LINE
  5
71B5
330
1E
100
AcDbEntity
  8
躯体と製品
  6
Continuous
 62
     3
100
AcDbLine
 10
1686.755839093789
 20
825.4688903256097
 30
0.0
 11
1677.568447374047
 21
825.950381123045
 31
0.0
  0
LINE
  5
71B6
330
1E
100
AcDbEntity
  8
躯体と製品
  6
Continuous
 62
     3
100
AcDbLine
 10
1677.62078333029
 20
826.9490106577993
 30
0.0
 11
1677.568447374047
 21
825.950381123045
 31
0.0
  0
ARC
  5
71B7
330
1E
100
AcDbEntity
  8
躯体と製品
  6
Continuous
 62
     3
100
AcDbCircle
 10
1676.622153795535
 20
827.0013466140422
 30
0.0
 40
1.0
100
AcDbArc
 50
357.0000000000011
 51
86.99999999999441
  0
LINE
  5
71B8
330
1E
100
AcDbEntity
  8
躯体と製品
  6
Continuous
 62
     3
100
AcDbLine
 10
1686.808175050032
 20
826.4675198603642
 30
0.0
 11
1686.755839093789
 21
825.4688903256097
 31
0.0
  0
ARC
  5
71B9
330
1E
100
AcDbEntity
  8
躯体と製品
  6
Continuous
 62
     3
100
AcDbCircle
 10
1687.806804584786
 20
826.4151839041213
 30
0.0
 40
1.0
100
AcDbArc
 50
86.99999999999441
 51
177.0000000000011
  0
LINE
  5
71BA
330
1E
100
AcDbEntity
  8
躯体と製品
  6
Continuous
 62
     3
100
AcDbLine
 10
1691.276720654514
 20
827.2347056546063
 30
0.0
 11
1673.476720654514
 21
828.1675641258445
 31
0.0
  0
LINE
  5
71BB
330
1E
100
AcDbEntity
  8
躯体と製品
  6
Continuous
 62
     3
100
AcDbLine
 10
1691.360458184502
 20
828.8325129102137
 30
0.0
 11
1673.560458184502
 21
829.7653713814518
 31
0.0
  0
LINE
  5
71BC
330
1E
100
AcDbEntity
  8
躯体と製品
  6
Continuous
 62
     4
100
AcDbLine
 10
1668.350552676392
 20
819.8811876215572
 30
0.0
 11
1668.350552676392
 21
818.2811876215572
 31
0.0
  0
LINE
  5
71BD
330
1E
100
AcDbEntity
  8
躯体と製品
  6
Continuous
 62
     4
100
AcDbLine
 10
1696.350552676392
 20
819.8811876215572
 30
0.0
 11
1696.350552676392
 21
818.2811876215572
 31
0.0
  0
LINE
  5
71BE
330
1E
100
AcDbEntity
  8
躯体と製品
  6
DASHED1
 62
     7
100
AcDbLine
 10
1685.346441280656
 20
829.1476941807147
 30
0.0
 11
1685.158031838182
 21
825.5526278555985
 31
0.0
  0
LINE
  5
71BF
330
1E
100
AcDbEntity
  8
躯体と製品
  6
DASHED1
 62
     7
100
AcDbLine
 10
1679.354664072128
 20
829.4617099181726
 30
0.0
 11
1679.166254629654
 21
825.866643593056
 31
0.0
  0
ARC
  5
71C0
330
1E
100
AcDbEntity
  8
躯体と製品
  6
Continuous
 62
     7
100
AcDbCircle
 10
1632.379112450291
 20
808.3815955350965
 30
0.0
 40
1.0
100
AcDbArc
 50
91.63657704161829
 51
175.0000000000005
  0
LINE
  5
71C1
330
1E
100
AcDbEntity
  8
躯体と製品
  6
Continuous
 62
     7
100
AcDbLine
 10
1557.350552676392
 20
809.3811876215573
 30
0.0
 11
1582.350552676392
 21
809.3811876215573
 31
0.0
  0
LINE
  5
71C2
330
1E
100
AcDbEntity
  8
躯体と製品
  6
Continuous
 62
     7
100
AcDbLine
 10
1632.350552676392
 20
809.3811876215573
 30
0.0
 11
1732.350552676392
 21
809.3811876215573
 31
0.0
  0
ARC
  5
71C3
330
1E
100
AcDbEntity
  8
躯体と製品
  6
Continuous
 62
     7
100
AcDbCircle
 10
1582.069794770419
 20
833.1004297155837
 30
0.0
 40
23.71924209402664
100
AcDbArc
 50
180.0
 51
270.0
  0
LINE
  5
71C4
330
1E
100
AcDbEntity
  8
図枠
  6
Continuous
 62
     7
100
AcDbLine
 10
2082.850552676393
 20
446.3811876215571
 30
0.0
 11
2082.850552676393
 21
1022.381187621557
 31
0.0
  0
LINE
  5
71C5
330
1E
100
AcDbEntity
  8
図枠
  6
Continuous
 62
     7
100
AcDbLine
 10
1258.850552676392
 20
446.3811876215571
 30
0.0
 11
2082.850552676393
 21
446.3811876215571
 31
0.0
  0
LINE
  5
71C6
330
1E
100
AcDbEntity
  8
図枠
  6
Continuous
 62
     7
100
AcDbLine
 10
1258.850552676392
 20
1022.381187621557
 30
0.0
 11
1258.850552676392
 21
446.3811876215571
 31
0.0
  0
LINE
  5
71C7
330
1E
100
AcDbEntity
  8
図枠
  6
Continuous
 62
     7
100
AcDbLine
 10
2082.850552676393
 20
1022.381187621557
 30
0.0
 11
1258.850552676392
 21
1022.381187621557
 31
0.0
  0
LINE
  5
71C8
330
1E
100
AcDbEntity
  8
躯体と製品
  6
Continuous
 62
     7
100
AcDbLine
 10
1581.550552676392
 20
872.3528374948669
 30
0.0
 11
1590.550552676392
 21
872.3528374948669
 31
0.0
  0
LINE
  5
71C9
330
1E
100
AcDbEntity
  8
図枠
  6
Continuous
 62
     7
100
AcDbLine
 10
1409.850552676392
 20
467.3811876215571
 30
0.0
 11
1409.850552676392
 21
674.3811876215572
 31
0.0
  0
LINE
  5
71CA
330
1E
100
AcDbEntity
  8
図枠
  6
Continuous
 62
     7
100
AcDbLine
 10
1618.850552676392
 20
467.3811876215571
 30
0.0
 11
1409.850552676392
 21
467.3811876215571
 31
0.0
  0
LINE
  5
71CB
330
1E
100
AcDbEntity
  8
図枠
  6
Continuous
 62
     7
100
AcDbLine
 10
1618.850552676392
 20
476.3811876215571
 30
0.0
 11
1409.850552676392
 21
476.3811876215571
 31
0.0
  0
LINE
  5
71CC
330
1E
100
AcDbEntity
  8
図枠
  6
Continuous
 62
     7
100
AcDbLine
 10
1618.850552676392
 20
485.3811876215572
 30
0.0
 11
1409.850552676392
 21
485.3811876215572
 31
0.0
  0
LINE
  5
71CD
330
1E
100
AcDbEntity
  8
図枠
  6
Continuous
 62
     7
100
AcDbLine
 10
1618.850552676392
 20
494.3811876215573
 30
0.0
 11
1409.850552676392
 21
494.3811876215573
 31
0.0
  0
LINE
  5
71CE
330
1E
100
AcDbEntity
  8
図枠
  6
Continuous
 62
     7
100
AcDbLine
 10
1618.850552676392
 20
503.3811876215572
 30
0.0
 11
1409.850552676392
 21
503.3811876215572
 31
0.0
  0
LINE
  5
71CF
330
1E
100
AcDbEntity
  8
図枠
  6
Continuous
 62
     7
100
AcDbLine
 10
1618.850552676392
 20
512.3811876215572
 30
0.0
 11
1409.850552676392
 21
512.3811876215572
 31
0.0
  0
LINE
  5
71D0
330
1E
100
AcDbEntity
  8
図枠
  6
Continuous
 62
     7
100
AcDbLine
 10
1618.850552676392
 20
521.3811876215571
 30
0.0
 11
1409.850552676392
 21
521.3811876215571
 31
0.0
  0
LINE
  5
71D1
330
1E
100
AcDbEntity
  8
図枠
  6
Continuous
 62
     7
100
AcDbLine
 10
1618.850552676392
 20
530.3811876215571
 30
0.0
 11
1409.850552676392
 21
530.3811876215571
 31
0.0
  0
LINE
  5
71D2
330
1E
100
AcDbEntity
  8
図枠
  6
Continuous
 62
     7
100
AcDbLine
 10
1618.850552676392
 20
539.3811876215571
 30
0.0
 11
1409.850552676392
 21
539.3811876215571
 31
0.0
  0
LINE
  5
71D3
330
1E
100
AcDbEntity
  8
図枠
  6
Continuous
 62
     7
100
AcDbLine
 10
1618.850552676392
 20
548.3811876215571
 30
0.0
 11
1409.850552676392
 21
548.3811876215571
 31
0.0
  0
LINE
  5
71D4
330
1E
100
AcDbEntity
  8
図枠
  6
Continuous
 62
     7
100
AcDbLine
 10
1618.850552676392
 20
557.3811876215571
 30
0.0
 11
1409.850552676392
 21
557.3811876215571
 31
0.0
  0
LINE
  5
71D5
330
1E
100
AcDbEntity
  8
図枠
  6
Continuous
 62
     7
100
AcDbLine
 10
1618.850552676392
 20
566.3811876215572
 30
0.0
 11
1409.850552676392
 21
566.3811876215572
 31
0.0
  0
LINE
  5
71D6
330
1E
100
AcDbEntity
  8
図枠
  6
Continuous
 62
     7
100
AcDbLine
 10
1618.850552676392
 20
575.3811876215572
 30
0.0
 11
1409.850552676392
 21
575.3811876215572
 31
0.0
  0
LINE
  5
71D7
330
1E
100
AcDbEntity
  8
図枠
  6
Continuous
 62
     7
100
AcDbLine
 10
1618.850552676392
 20
584.3811876215572
 30
0.0
 11
1409.850552676392
 21
584.3811876215572
 31
0.0
  0
LINE
  5
71D8
330
1E
100
AcDbEntity
  8
図枠
  6
Continuous
 62
     7
100
AcDbLine
 10
1618.850552676392
 20
593.3811876215572
 30
0.0
 11
1409.850552676392
 21
593.3811876215572
 31
0.0
  0
LINE
  5
71D9
330
1E
100
AcDbEntity
  8
図枠
  6
Continuous
 62
     7
100
AcDbLine
 10
1618.850552676392
 20
602.3811876215573
 30
0.0
 11
1409.850552676392
 21
602.3811876215573
 31
0.0
  0
LINE
  5
71DA
330
1E
100
AcDbEntity
  8
図枠
  6
Continuous
 62
     7
100
AcDbLine
 10
1618.850552676392
 20
611.3811876215573
 30
0.0
 11
1409.850552676392
 21
611.3811876215573
 31
0.0
  0
LINE
  5
71DB
330
1E
100
AcDbEntity
  8
図枠
  6
Continuous
 62
     7
100
AcDbLine
 10
1618.850552676392
 20
620.3811876215572
 30
0.0
 11
1409.850552676392
 21
620.3811876215572
 31
0.0
  0
LINE
  5
71DC
330
1E
100
AcDbEntity
  8
図枠
  6
Continuous
 62
     7
100
AcDbLine
 10
1618.850552676392
 20
629.3811876215572
 30
0.0
 11
1409.850552676392
 21
629.3811876215572
 31
0.0
  0
LINE
  5
71DD
330
1E
100
AcDbEntity
  8
図枠
  6
Continuous
 62
     7
100
AcDbLine
 10
1618.850552676392
 20
638.3811876215572
 30
0.0
 11
1409.850552676392
 21
638.3811876215572
 31
0.0
  0
LINE
  5
71DE
330
1E
100
AcDbEntity
  8
図枠
  6
Continuous
 62
     7
100
AcDbLine
 10
1618.850552676392
 20
647.3811876215572
 30
0.0
 11
1409.850552676392
 21
647.3811876215572
 31
0.0
  0
LINE
  5
71DF
330
1E
100
AcDbEntity
  8
図枠
  6
Continuous
 62
     7
100
AcDbLine
 10
1618.850552676392
 20
656.3811876215573
 30
0.0
 11
1409.850552676392
 21
656.3811876215573
 31
0.0
  0
LINE
  5
71E0
330
1E
100
AcDbEntity
  8
図枠
  6
Continuous
 62
     7
100
AcDbLine
 10
1618.850552676392
 20
665.3811876215573
 30
0.0
 11
1409.850552676392
 21
665.3811876215573
 31
0.0
  0
LINE
  5
71E1
330
1E
100
AcDbEntity
  8
図枠
  6
Continuous
 62
     7
100
AcDbLine
 10
1618.850552676392
 20
674.3811876215572
 30
0.0
 11
1409.850552676392
 21
674.3811876215572
 31
0.0
  0
LINE
  5
71E2
330
1E
100
AcDbEntity
  8
図枠
  6
Continuous
 62
     7
100
AcDbLine
 10
1618.850552676392
 20
467.3811876215571
 30
0.0
 11
1618.850552676392
 21
674.3811876215572
 31
0.0
  0
LINE
  5
71E3
330
1E
100
AcDbEntity
  8
図枠
  6
Continuous
 62
     7
100
AcDbLine
 10
1523.850552676392
 20
467.3811876215571
 30
0.0
 11
1523.850552676392
 21
674.3811876215572
 31
0.0
  0
LINE
  5
71E4
330
1E
100
AcDbEntity
  8
図枠
  6
Continuous
 62
     7
100
AcDbLine
 10
1423.850552676392
 20
467.3811876215571
 30
0.0
 11
1423.850552676392
 21
674.3811876215572
 31
0.0
  0
LINE
  5
71E5
330
1E
100
AcDbEntity
  8
図枠
  6
Continuous
 62
     7
100
AcDbLine
 10
1901.850552676393
 20
674.3811876215572
 30
0.0
 11
1901.850552676393
 21
557.3811876215571
 31
0.0
  0
LINE
  5
71E6
330
1E
100
AcDbEntity
  8
図枠
  6
Continuous
 62
     7
100
AcDbLine
 10
1871.850552676392
 20
674.3811876215572
 30
0.0
 11
1871.850552676392
 21
557.3811876215571
 31
0.0
  0
LINE
  5
71E7
330
1E
100
AcDbEntity
  8
図枠
  6
Continuous
 62
     7
100
AcDbLine
 10
1841.850552676392
 20
674.3811876215572
 30
0.0
 11
1841.850552676392
 21
557.3811876215571
 31
0.0
  0
LINE
  5
71E8
330
1E
100
AcDbEntity
  8
図枠
  6
Continuous
 62
     7
100
AcDbLine
 10
1931.850552676392
 20
674.3811876215572
 30
0.0
 11
1931.850552676392
 21
557.3811876215571
 31
0.0
  0
LINE
  5
71E9
330
1E
100
AcDbEntity
  8
図枠
  6
Continuous
 62
     7
100
AcDbLine
 10
1931.850552676392
 20
557.3811876215571
 30
0.0
 11
1706.850552676392
 21
557.3811876215571
 31
0.0
  0
LINE
  5
71EA
330
1E
100
AcDbEntity
  8
図枠
  6
Continuous
 62
     7
100
AcDbLine
 10
1931.850552676392
 20
566.3811876215572
 30
0.0
 11
1706.850552676392
 21
566.3811876215572
 31
0.0
  0
LINE
  5
71EB
330
1E
100
AcDbEntity
  8
図枠
  6
Continuous
 62
     7
100
AcDbLine
 10
1931.850552676392
 20
575.3811876215572
 30
0.0
 11
1706.850552676392
 21
575.3811876215572
 31
0.0
  0
LINE
  5
71EC
330
1E
100
AcDbEntity
  8
図枠
  6
Continuous
 62
     7
100
AcDbLine
 10
1931.850552676392
 20
584.3811876215572
 30
0.0
 11
1706.850552676392
 21
584.3811876215572
 31
0.0
  0
LINE
  5
71ED
330
1E
100
AcDbEntity
  8
図枠
  6
Continuous
 62
     7
100
AcDbLine
 10
1931.850552676392
 20
593.3811876215572
 30
0.0
 11
1706.850552676392
 21
593.3811876215572
 31
0.0
  0
LINE
  5
71EE
330
1E
100
AcDbEntity
  8
図枠
  6
Continuous
 62
     7
100
AcDbLine
 10
1931.850552676392
 20
602.3811876215573
 30
0.0
 11
1706.850552676392
 21
602.3811876215573
 31
0.0
  0
LINE
  5
71EF
330
1E
100
AcDbEntity
  8
図枠
  6
Continuous
 62
     7
100
AcDbLine
 10
1931.850552676392
 20
611.3811876215573
 30
0.0
 11
1706.850552676392
 21
611.3811876215573
 31
0.0
  0
LINE
  5
71F0
330
1E
100
AcDbEntity
  8
図枠
  6
Continuous
 62
     7
100
AcDbLine
 10
1931.850552676392
 20
620.3811876215572
 30
0.0
 11
1706.850552676392
 21
620.3811876215572
 31
0.0
  0
LINE
  5
71F1
330
1E
100
AcDbEntity
  8
図枠
  6
Continuous
 62
     7
100
AcDbLine
 10
1931.850552676392
 20
629.3811876215572
 30
0.0
 11
1706.850552676392
 21
629.3811876215572
 31
0.0
  0
LINE
  5
71F2
330
1E
100
AcDbEntity
  8
図枠
  6
Continuous
 62
     7
100
AcDbLine
 10
1931.850552676392
 20
638.3811876215572
 30
0.0
 11
1706.850552676392
 21
638.3811876215572
 31
0.0
  0
LINE
  5
71F3
330
1E
100
AcDbEntity
  8
図枠
  6
Continuous
 62
     7
100
AcDbLine
 10
1931.850552676392
 20
647.3811876215572
 30
0.0
 11
1706.850552676392
 21
647.3811876215572
 31
0.0
  0
LINE
  5
71F4
330
1E
100
AcDbEntity
  8
図枠
  6
Continuous
 62
     7
100
AcDbLine
 10
1931.850552676392
 20
656.3811876215573
 30
0.0
 11
1706.850552676392
 21
656.3811876215573
 31
0.0
  0
LINE
  5
71F5
330
1E
100
AcDbEntity
  8
図枠
  6
Continuous
 62
     7
100
AcDbLine
 10
1931.850552676392
 20
665.3811876215573
 30
0.0
 11
1706.850552676392
 21
665.3811876215573
 31
0.0
  0
LINE
  5
71F6
330
1E
100
AcDbEntity
  8
図枠
  6
Continuous
 62
     7
100
AcDbLine
 10
1931.850552676392
 20
674.3811876215572
 30
0.0
 11
1706.850552676392
 21
674.3811876215572
 31
0.0
  0
LINE
  5
71F7
330
1E
100
AcDbEntity
  8
図枠
  6
Continuous
 62
     7
100
AcDbLine
 10
1686.850552676392
 20
467.3811876215571
 30
0.0
 11
1686.850552676392
 21
674.3811876215572
 31
0.0
  0
LINE
  5
71F8
330
1E
100
AcDbEntity
  8
図枠
  6
Continuous
 62
     7
100
AcDbLine
 10
1781.850552676392
 20
674.3811876215572
 30
0.0
 11
1781.850552676392
 21
557.3811876215571
 31
0.0
  0
LINE
  5
71F9
330
1E
100
AcDbEntity
  8
図枠
  6
Continuous
 62
     7
100
AcDbLine
 10
1811.850552676392
 20
674.3811876215572
 30
0.0
 11
1811.850552676392
 21
557.3811876215571
 31
0.0
  0
LINE
  5
71FA
330
1E
100
AcDbEntity
  8
図枠
  6
Continuous
 62
     7
100
AcDbLine
 10
1706.850552676392
 20
674.3811876215572
 30
0.0
 11
1706.850552676392
 21
557.3811876215571
 31
0.0
  0
LINE
  5
71FB
330
1E
100
AcDbEntity
  8
図枠
  6
Continuous
 62
     7
100
AcDbLine
 10
1619.850552676392
 20
467.3811876215571
 30
0.0
 11
1686.850552676392
 21
467.3811876215571
 31
0.0
  0
LINE
  5
71FC
330
1E
100
AcDbEntity
  8
図枠
  6
Continuous
 62
     7
100
AcDbLine
 10
1619.850552676392
 20
476.3811876215571
 30
0.0
 11
1686.850552676392
 21
476.3811876215571
 31
0.0
  0
LINE
  5
71FD
330
1E
100
AcDbEntity
  8
図枠
  6
Continuous
 62
     7
100
AcDbLine
 10
1619.850552676392
 20
485.3811876215572
 30
0.0
 11
1686.850552676392
 21
485.3811876215572
 31
0.0
  0
LINE
  5
71FE
330
1E
100
AcDbEntity
  8
図枠
  6
Continuous
 62
     7
100
AcDbLine
 10
1619.850552676392
 20
494.3811876215573
 30
0.0
 11
1686.850552676392
 21
494.3811876215573
 31
0.0
  0
LINE
  5
71FF
330
1E
100
AcDbEntity
  8
図枠
  6
Continuous
 62
     7
100
AcDbLine
 10
1619.850552676392
 20
503.3811876215572
 30
0.0
 11
1686.850552676392
 21
503.3811876215572
 31
0.0
  0
LINE
  5
7200
330
1E
100
AcDbEntity
  8
図枠
  6
Continuous
 62
     7
100
AcDbLine
 10
1619.850552676392
 20
512.3811876215572
 30
0.0
 11
1686.850552676392
 21
512.3811876215572
 31
0.0
  0
LINE
  5
7201
330
1E
100
AcDbEntity
  8
図枠
  6
Continuous
 62
     7
100
AcDbLine
 10
1619.850552676392
 20
521.3811876215571
 30
0.0
 11
1686.850552676392
 21
521.3811876215571
 31
0.0
  0
LINE
  5
7202
330
1E
100
AcDbEntity
  8
図枠
  6
Continuous
 62
     7
100
AcDbLine
 10
1619.850552676392
 20
530.3811876215571
 30
0.0
 11
1686.850552676392
 21
530.3811876215571
 31
0.0
  0
LINE
  5
7203
330
1E
100
AcDbEntity
  8
図枠
  6
Continuous
 62
     7
100
AcDbLine
 10
1619.850552676392
 20
539.3811876215571
 30
0.0
 11
1686.850552676392
 21
539.3811876215571
 31
0.0
  0
LINE
  5
7204
330
1E
100
AcDbEntity
  8
図枠
  6
Continuous
 62
     7
100
AcDbLine
 10
1619.850552676392
 20
548.3811876215571
 30
0.0
 11
1686.850552676392
 21
548.3811876215571
 31
0.0
  0
LINE
  5
7205
330
1E
100
AcDbEntity
  8
図枠
  6
Continuous
 62
     7
100
AcDbLine
 10
1619.850552676392
 20
557.3811876215571
 30
0.0
 11
1686.850552676392
 21
557.3811876215571
 31
0.0
  0
LINE
  5
7206
330
1E
100
AcDbEntity
  8
図枠
  6
Continuous
 62
     7
100
AcDbLine
 10
1619.850552676392
 20
566.3811876215572
 30
0.0
 11
1686.850552676392
 21
566.3811876215572
 31
0.0
  0
LINE
  5
7207
330
1E
100
AcDbEntity
  8
図枠
  6
Continuous
 62
     7
100
AcDbLine
 10
1619.850552676392
 20
575.3811876215572
 30
0.0
 11
1686.850552676392
 21
575.3811876215572
 31
0.0
  0
LINE
  5
7208
330
1E
100
AcDbEntity
  8
図枠
  6
Continuous
 62
     7
100
AcDbLine
 10
1619.850552676392
 20
584.3811876215572
 30
0.0
 11
1686.850552676392
 21
584.3811876215572
 31
0.0
  0
LINE
  5
7209
330
1E
100
AcDbEntity
  8
図枠
  6
Continuous
 62
     7
100
AcDbLine
 10
1619.850552676392
 20
593.3811876215572
 30
0.0
 11
1686.850552676392
 21
593.3811876215572
 31
0.0
  0
LINE
  5
720A
330
1E
100
AcDbEntity
  8
図枠
  6
Continuous
 62
     7
100
AcDbLine
 10
1619.850552676392
 20
602.3811876215573
 30
0.0
 11
1686.850552676392
 21
602.3811876215573
 31
0.0
  0
LINE
  5
720B
330
1E
100
AcDbEntity
  8
図枠
  6
Continuous
 62
     7
100
AcDbLine
 10
1619.850552676392
 20
611.3811876215573
 30
0.0
 11
1686.850552676392
 21
611.3811876215573
 31
0.0
  0
LINE
  5
720C
330
1E
100
AcDbEntity
  8
図枠
  6
Continuous
 62
     7
100
AcDbLine
 10
1619.850552676392
 20
620.3811876215572
 30
0.0
 11
1686.850552676392
 21
620.3811876215572
 31
0.0
  0
LINE
  5
720D
330
1E
100
AcDbEntity
  8
図枠
  6
Continuous
 62
     7
100
AcDbLine
 10
1619.850552676392
 20
629.3811876215572
 30
0.0
 11
1686.850552676392
 21
629.3811876215572
 31
0.0
  0
LINE
  5
720E
330
1E
100
AcDbEntity
  8
図枠
  6
Continuous
 62
     7
100
AcDbLine
 10
1619.850552676392
 20
638.3811876215572
 30
0.0
 11
1686.850552676392
 21
638.3811876215572
 31
0.0
  0
LINE
  5
720F
330
1E
100
AcDbEntity
  8
図枠
  6
Continuous
 62
     7
100
AcDbLine
 10
1619.850552676392
 20
647.3811876215572
 30
0.0
 11
1686.850552676392
 21
647.3811876215572
 31
0.0
  0
LINE
  5
7210
330
1E
100
AcDbEntity
  8
図枠
  6
Continuous
 62
     7
100
AcDbLine
 10
1619.850552676392
 20
656.3811876215573
 30
0.0
 11
1686.850552676392
 21
656.3811876215573
 31
0.0
  0
LINE
  5
7211
330
1E
100
AcDbEntity
  8
図枠
  6
Continuous
 62
     7
100
AcDbLine
 10
1619.850552676392
 20
665.3811876215573
 30
0.0
 11
1686.850552676392
 21
665.3811876215573
 31
0.0
  0
LINE
  5
7212
330
1E
100
AcDbEntity
  8
図枠
  6
Continuous
 62
     7
100
AcDbLine
 10
1619.850552676392
 20
674.3811876215572
 30
0.0
 11
1686.850552676392
 21
674.3811876215572
 31
0.0
  0
LINE
  5
7213
330
1E
100
AcDbEntity
  8
図枠
  6
Continuous
 62
     7
100
AcDbLine
 10
1672.850552676393
 20
467.3811876215571
 30
0.0
 11
1672.850552676393
 21
674.3811876215572
 31
0.0
  0
LINE
  5
7214
330
1E
100
AcDbEntity
  8
図枠
  6
Continuous
 62
     7
100
AcDbLine
 10
1654.850552676392
 20
467.3811876215571
 30
0.0
 11
1654.850552676392
 21
674.3811876215572
 31
0.0
  0
LINE
  5
7215
330
1E
100
AcDbEntity
  8
図枠
  6
Continuous
 62
     7
100
AcDbLine
 10
1619.850552676392
 20
467.3811876215571
 30
0.0
 11
1619.850552676392
 21
674.3811876215572
 31
0.0
  0
DIMENSION
  5
7216
330
1E
100
AcDbEntity
  8
寸法
  6
Continuous
100
AcDbDimension
  2
*D4
 10
1582.350552676393
 20
704.3811876215572
 30
0.0
 11
1569.850552676392
 21
707.8811876215572
 31
0.0
 70
    32
 71
     5
 42
-1.0
  3
AutoCAD
100
AcDbAlignedDimension
 13
1557.350552676392
 23
807.3811876215572
 33
0.0
 14
1582.350552676393
 24
704.3811876215572
 34
0.0
100
AcDbRotatedDimension
  0
DIMENSION
  5
7222
330
1E
100
AcDbEntity
  8
寸法
  6
Continuous
100
AcDbDimension
  2
*D5
 10
1632.350552676393
 20
704.3811876215572
 30
0.0
 11
1607.350552676393
 21
707.8811876215572
 31
0.0
 70
    32
 71
     5
 42
-1.0
  3
AutoCAD
100
AcDbAlignedDimension
 13
1582.350552676392
 23
704.1311876215573
 33
0.0
 14
1632.350552676393
 24
704.3811876215572
 34
0.0
100
AcDbRotatedDimension
  0
DIMENSION
  5
722E
330
1E
100
AcDbEntity
  8
寸法
  6
Continuous
100
AcDbDimension
  2
*D6
 10
1732.350552676392
 20
704.3811876215572
 30
0.0
 11
1682.350552676392
 21
707.8811876215572
 31
0.0
 70
    32
  1
≦Ｃ
 71
     5
 42
-1.0
  3
AutoCAD
100
AcDbAlignedDimension
 13
1632.350552676392
 23
704.1311876215573
 33
0.0
 14
1732.350552676392
 24
704.3811876215572
 34
0.0
100
AcDbRotatedDimension
  0
DIMENSION
  5
723A
330
1E
100
AcDbEntity
  8
寸法
  6
Continuous
100
AcDbDimension
  2
*D7
 10
1783.350552676392
 20
704.4245996659737
 30
0.0
 11
1757.850552676393
 21
707.9245996659738
 31
0.0
 70
    32
  1
50≦
 71
     5
 42
-1.0
  3
AutoCAD
100
AcDbAlignedDimension
 13
1732.350552676392
 23
704.1311876215573
 33
0.0
 14
1783.350552676392
 24
766.2613417649506
 34
0.0
100
AcDbRotatedDimension
  0
DIMENSION
  5
7247
330
1E
100
AcDbEntity
  8
寸法
  6
Continuous
100
AcDbDimension
  2
*D8
 10
1732.350552676392
 20
749.3811876215572
 30
0.0
 11
1707.350552676392
 21
752.8811876215573
 31
0.0
 70
    32
 71
     5
 42
-1.0
  3
AutoCAD
100
AcDbAlignedDimension
 13
1682.350552676392
 23
749.3811876215572
 33
0.0
 14
1732.350552676392
 24
749.3811876215572
 34
0.0
100
AcDbRotatedDimension
  0
DIMENSION
  5
7252
330
1E
100
AcDbEntity
  8
寸法
  6
Continuous
100
AcDbDimension
  2
*D9
 10
1823.350552676392
 20
809.3811876215571
 30
0.0
 11
1819.850552676392
 21
788.8212646932542
 31
0.0
 70
    32
  1
44
 71
     5
 42
-1.0
  3
AutoCAD
100
AcDbAlignedDimension
 13
1785.350552676392
 23
768.2613417649506
 33
0.0
 14
1736.350552676394
 24
809.3811876215573
 34
0.0
 50
90.0
100
AcDbRotatedDimension
  0
DIMENSION
  5
725F
330
1E
100
AcDbEntity
  8
寸法
  6
Continuous
100
AcDbDimension
  2
*D10
 10
1843.350552676392
 20
858.2613417649506
 30
0.0
 11
1839.850552676392
 21
813.2613417649508
 31
0.0
 70
    32
 71
     5
 42
-1.0
  3
AutoCAD
100
AcDbAlignedDimension
 13
1785.350552676392
 23
768.2613417649506
 33
0.0
 14
1785.350552676392
 24
858.2613417649506
 34
0.0
 50
90.0
100
AcDbRotatedDimension
  0
DIMENSION
  5
726C
330
1E
100
AcDbEntity
  8
寸法
  6
Continuous
100
AcDbDimension
  2
*D11
 10
1573.350552676392
 20
902.3528374948668
 30
0.0
 11
1678.350552676392
 21
905.8528374948668
 31
0.0
 70
    32
  1
A
 71
     5
 42
-1.0
  3
AutoCAD
100
AcDbAlignedDimension
 13
1783.350552676392
 23
860.2613417649505
 33
0.0
 14
1573.350552676392
 24
883.2669754143894
 34
0.0
100
AcDbRotatedDimension
  0
DIMENSION
  5
7279
330
1E
100
AcDbEntity
  8
寸法
  6
Continuous
100
AcDbDimension
  2
*D12
 10
1558.350552676392
 20
984.3528374948668
 30
0.0
 11
1670.850552676392
 21
987.8528374948668
 31
0.0
 70
    32
  1
W
 71
     5
 42
-1.0
  3
AutoCAD
100
AcDbAlignedDimension
 13
1783.350552676392
 23
860.2613417649505
 33
0.0
 14
1558.350552676392
 24
911.3528374948666
 34
0.0
100
AcDbRotatedDimension
  0
DIMENSION
  5
7286
330
1E
100
AcDbEntity
  8
寸法
  6
Continuous
100
AcDbDimension
  2
*D13
 10
1626.550552676392
 20
909.3528374948666
 30
0.0
 11
1623.050552676392
 21
891.352837494867
 31
0.0
 70
    32
 71
     5
 42
-1.0
  3
AutoCAD
100
AcDbAlignedDimension
 13
1593.550552676392
 23
873.3528374948669
 33
0.0
 14
1593.550552676392
 24
909.3528374948666
 34
0.0
 50
90.0
100
AcDbRotatedDimension
  0
DIMENSION
  5
7293
330
1E
100
AcDbEntity
  8
寸法
  6
Continuous
100
AcDbDimension
  2
*D14
 10
1626.550552676392
 20
924.3528374948667
 30
0.0
 11
1623.050552676392
 21
916.8528374948669
 31
0.0
 70
    32
 71
     5
 42
-1.0
  3
AutoCAD
100
AcDbAlignedDimension
 13
1593.550552676392
 23
909.3528374948666
 33
0.0
 14
1584.350552676392
 24
924.3528374948667
 34
0.0
 50
90.0
100
AcDbRotatedDimension
  0
DIMENSION
  5
72A0
330
1E
100
AcDbEntity
  8
寸法
  6
Continuous
100
AcDbDimension
  2
*D15
 10
1571.550552676392
 20
954.3528374948669
 30
0.0
 11
1581.550552676392
 21
957.8528374948669
 31
0.0
 70
    32
 71
     5
 42
-1.0
  3
AutoCAD
100
AcDbAlignedDimension
 13
1591.550552676392
 23
912.3244873681766
 33
0.0
 14
1571.550552676392
 24
926.3528374948668
 34
0.0
100
AcDbRotatedDimension
  0
DIMENSION
  5
72AD
330
1E
100
AcDbEntity
  8
寸法
  6
Continuous
100
AcDbDimension
  2
*D16
 10
1558.350552676392
 20
969.3528374948668
 30
0.0
 11
1574.950552676392
 21
972.8528374948668
 31
0.0
 70
    32
  1
33.2
 71
     5
 42
-1.0
  3
AutoCAD
100
AcDbAlignedDimension
 13
1591.550552676392
 23
912.3244873681766
 33
0.0
 14
1558.350552676392
 24
911.3528374948666
 34
0.0
100
AcDbRotatedDimension
  0
DIMENSION
  5
72BA
330
1E
100
AcDbEntity
  8
寸法
  6
Continuous
100
AcDbDimension
  2
*D17
 10
1502.350552676392
 20
865.6528374948669
 30
0.0
 11
1498.850552676392
 21
837.5170125582123
 31
0.0
 70
    32
  1
D
 71
     5
 42
-1.0
  3
AutoCAD
100
AcDbAlignedDimension
 13
1555.350552676392
 23
809.3811876215573
 33
0.0
 14
1502.350552676392
 24
865.6528374948669
 34
0.0
 50
90.0
100
AcDbRotatedDimension
  0
DIMENSION
  5
72C6
330
1E
100
AcDbEntity
  8
寸法
  6
Continuous
100
AcDbDimension
  2
*D18
 10
1482.350552676392
 20
924.3528374948667
 30
0.0
 11
1478.850552676392
 21
866.8670125582123
 31
0.0
 70
    32
  1
E
 71
     5
 42
-1.0
  3
AutoCAD
100
AcDbAlignedDimension
 13
1555.350552676392
 23
809.3811876215573
 33
0.0
 14
1555.350552676392
 24
924.3528374948667
 34
0.0
 50
90.0
100
AcDbRotatedDimension
  0
ENDSEC
  0
SECTION
  2
OBJECTS
  0
DICTIONARY
  5
C
330
0
100
AcDbDictionary
281
     1
  3
ACAD_COLOR
350
6779
  3
ACAD_GROUP
350
D
  3
ACAD_LAYOUT
350
19
  3
ACAD_MATERIAL
350
6778
  3
ACAD_MLINESTYLE
350
16
  3
ACAD_PLOTSETTINGS
350
18
  3
ACAD_PLOTSTYLENAME
350
E
  3
ACAD_TABLESTYLE
350
677A
  3
ACDBHEADERROUNDTRIPXREC
350
7373
  3
AcDbVariableDictionary
350
169
  0
DICTIONARY
  5
175
330
2
100
AcDbDictionary
280
     1
281
     1
  3
ACAD_LAYERFILTERS
360
7371
  3
ACAD_LAYERSTATES
360
176
  3
ACLYDICTIONARY
360
7370
  0
DICTIONARY
  5
28B
330
1E
100
AcDbDictionary
280
     1
281
     1
  3
ACAD_LAYOUTSELFREF
360
735E
  0
DICTIONARY
  5
28D
330
1A
100
AcDbDictionary
280
     1
281
     1
  3
ACAD_LAYOUTSELFREF
360
735D
  0
DICTIONARY
  5
6779
102
{ACAD_REACTORS
330
C
102
}
330
C
100
AcDbDictionary
281
     1
  0
DICTIONARY
  5
D
102
{ACAD_REACTORS
330
C
102
}
330
C
100
AcDbDictionary
281
     1
  0
DICTIONARY
  5
19
102
{ACAD_REACTORS
330
C
102
}
330
C
100
AcDbDictionary
281
     1
  3
Model
350
21
  3
ﾚｲｱｳﾄ1
350
1D
  0
DICTIONARY
  5
6778
102
{ACAD_REACTORS
330
C
102
}
330
C
100
AcDbDictionary
281
     1
  0
DICTIONARY
  5
16
102
{ACAD_REACTORS
330
C
102
}
330
C
100
AcDbDictionary
281
     1
  3
Standard
350
17
  0
DICTIONARY
  5
18
102
{ACAD_REACTORS
330
C
102
}
330
C
100
AcDbDictionary
281
     1
  0
ACDBDICTIONARYWDFLT
  5
E
102
{ACAD_REACTORS
330
C
102
}
330
C
100
AcDbDictionary
281
     1
  3
Normal
350
F
100
AcDbDictionaryWithDefault
340
F
1001
ACAD
1000
TREAT_AS_HARD
1070
     0
1000
TREAT_AS_HARD
1070
     0
1000
TREAT_AS_HARD
1070
     0
1000
TREAT_AS_HARD
1070
     0
1000
TREAT_AS_HARD
1070
     0
1000
TREAT_AS_HARD
1070
     0
1000
TREAT_AS_HARD
1070
     0
1000
TREAT_AS_HARD
1070
     0
1000
TREAT_AS_HARD
1070
     0
1000
TREAT_AS_HARD
1070
     0
1000
TREAT_AS_HARD
1070
     0
1000
TREAT_AS_HARD
1070
     0
1000
TREAT_AS_HARD
1070
     0
1000
TREAT_AS_HARD
1070
     0
1000
TREAT_AS_HARD
1070
     0
1000
TREAT_AS_HARD
1070
     0
1000
TREAT_AS_HARD
1070
     0
1000
TREAT_AS_HARD
1070
     0
1000
TREAT_AS_HARD
1070
     0
1000
TREAT_AS_HARD
1070
     0
1000
TREAT_AS_HARD
1070
     0
1000
TREAT_AS_HARD
1070
     0
1000
TREAT_AS_HARD
1070
     0
1000
TREAT_AS_HARD
1070
     0
1000
TREAT_AS_HARD
1070
     0
1000
TREAT_AS_HARD
1070
     0
1000
TREAT_AS_HARD
1070
     0
  0
DICTIONARY
  5
677A
102
{ACAD_REACTORS
330
C
102
}
330
C
100
AcDbDictionary
281
     1
  3
Standard
350
677B
  0
DICTIONARY
  5
7373
102
{ACAD_REACTORS
330
C
102
}
330
C
100
AcDbDictionary
281
     1
  0
DICTIONARY
  5
169
102
{ACAD_REACTORS
330
C
102
}
330
C
100
AcDbDictionary
281
     1
  3
CTABLESTYLE
350
6782
  3
DIMASSOC
350
16A
  3
PROJECTNAME
350
6791
  0
DICTIONARY
  5
7371
102
{ACAD_REACTORS
330
175
102
}
330
175
100
AcDbDictionary
281
     1
  0
DICTIONARY
  5
176
102
{ACAD_REACTORS
330
175
102
}
330
175
100
AcDbDictionary
281
     1
  3
ACAD
350
177
  0
DICTIONARY
  5
7370
102
{ACAD_REACTORS
330
175
102
}
330
175
100
AcDbDictionary
281
     1
1001
ACAD
1000
<All
  0
XRECORD
  5
735E
102
{ACAD_REACTORS
330
28B
102
}
330
28B
100
AcDbXrecord
280
     1
340
1E
  0
XRECORD
  5
735D
102
{ACAD_REACTORS
330
28D
102
}
330
28D
100
AcDbXrecord
280
     1
340
1A
  0
LAYOUT
  5
21
102
{ACAD_XDICTIONARY
360
7376
102
}
102
{ACAD_REACTORS
330
19
102
}
330
19
100
AcDbPlotSettings
  1

  2
\\MEISEI-1\EPSON Stylus Photo EX3
  4

  6

 40
0.0
 41
0.0
 42
0.0
 43
0.0
 44
0.0
 45
0.0
 46
0.0
 47
0.0
 48
0.0
 49
0.0
140
0.0
141
0.0
142
1.0
143
1.0
 70
  1712
 72
     0
 73
     0
 74
     0
  7

 75
     0
147
1.0
148
0.0
149
0.0
100
AcDbLayout
  1
Model
 70
     1
 71
     0
 10
0.0
 20
0.0
 11
12.0
 21
9.0
 12
0.0
 22
0.0
 32
0.0
 14
0.0
 24
0.0
 34
0.0
 15
0.0
 25
0.0
 35
0.0
146
0.0
 13
0.0
 23
0.0
 33
0.0
 16
1.0
 26
0.0
 36
0.0
 17
0.0
 27
1.0
 37
0.0
 76
     0
330
1E
  0
LAYOUT
  5
1D
102
{ACAD_XDICTIONARY
360
7374
102
}
102
{ACAD_REACTORS
330
19
102
}
330
19
100
AcDbPlotSettings
  1

  2
\\MEISEI-1\EPSON Stylus Photo EX3
  4

  6

 40
0.0
 41
0.0
 42
0.0
 43
0.0
 44
0.0
 45
0.0
 46
0.0
 47
0.0
 48
0.0
 49
0.0
140
0.0
141
0.0
142
1.0
143
1.0
 70
   688
 72
     0
 73
     0
 74
     5
  7

 75
    16
147
1.0
148
0.0
149
0.0
100
AcDbLayout
  1
ﾚｲｱｳﾄ1
 70
     1
 71
     1
 10
0.0
 20
0.0
 11
12.0
 21
9.0
 12
0.0
 22
0.0
 32
0.0
 14
1.000000000000000E+20
 24
1.000000000000000E+20
 34
1.000000000000000E+20
 15
-1.000000000000000E+20
 25
-1.000000000000000E+20
 35
-1.000000000000000E+20
146
0.0
 13
0.0
 23
0.0
 33
0.0
 16
1.0
 26
0.0
 36
0.0
 17
0.0
 27
1.0
 37
0.0
 76
     0
330
1A
  0
MLINESTYLE
  5
17
102
{ACAD_REACTORS
330
16
102
}
330
16
100
AcDbMlineStyle
  2
STANDARD
 70
     0
  3

 62
   256
 51
90.0
 52
90.0
 71
     2
 49
0.5
 62
   256
  6
BYLAYER
 49
-0.5
 62
   256
  6
BYLAYER
  0
ACDBPLACEHOLDER
  5
F
102
{ACAD_REACTORS
330
E
102
}
330
E
  0
TABLESTYLE
  5
677B
102
{ACAD_REACTORS
330
677A
102
}
330
677A
100
AcDbTableStyle
  3
Standard
 70
     0
 71
     0
 40
0.06
 41
0.06
280
     0
281
     0
  7
STANDARD
140
0.18
170
     2
 62
     0
 63
     7
283
     0
274
    -2
284
     1
 64
     0
275
    -2
285
     1
 65
     0
276
    -2
286
     1
 66
     0
277
    -2
287
     1
 67
     0
278
    -2
288
     1
 68
     0
279
    -2
289
     1
 69
     0
  7
STANDARD
140
0.25
170
     5
 62
     0
 63
     7
283
     0
274
    -2
284
     1
 64
     0
275
    -2
285
     1
 65
     0
276
    -2
286
     1
 66
     0
277
    -2
287
     1
 67
     0
278
    -2
288
     1
 68
     0
279
    -2
289
     1
 69
     0
  7
STANDARD
140
0.18
170
     5
 62
     0
 63
     7
283
     0
274
    -2
284
     1
 64
     0
275
    -2
285
     1
 65
     0
276
    -2
286
     1
 66
     0
277
    -2
287
     1
 67
     0
278
    -2
288
     1
 68
     0
279
    -2
289
     1
 69
     0
  0
DICTIONARYVAR
  5
6782
102
{ACAD_REACTORS
330
169
102
}
330
169
100
DictionaryVariables
280
     0
  1
STANDARD
  0
DICTIONARYVAR
  5
16A
102
{ACAD_REACTORS
330
169
102
}
330
169
100
DictionaryVariables
280
     0
  1
1
  0
DICTIONARYVAR
  5
6791
102
{ACAD_REACTORS
330
169
102
}
330
169
100
DictionaryVariables
280
     0
  1

  0
XRECORD
  5
177
102
{ACAD_REACTORS
330
176
102
}
330
176
100
AcDbXrecord
280
     1
 91
      476
330
179
 90
        8
 62
     7
370
    -3
331
15
  1
Color_7
330
178
 90
        8
 62
     7
370
    -3
331
15
  1
Color_7
330
128
 90
        0
 62
     7
370
    -3
331
15
  1
Color_7
330
10
 90
        8
 62
     7
370
    -3
331
15
  1
Color_7
  0
DICTIONARY
  5
7376
330
21
100
AcDbDictionary
280
     1
281
     1
  3
ACAD_XREC_ROUNDTRIP
360
7377
  0
DICTIONARY
  5
7374
330
1D
100
AcDbDictionary
280
     1
281
     1
  3
ACAD_XREC_ROUNDTRIP
360
7375
  0
XRECORD
  5
7377
102
{ACAD_REACTORS
330
7376
102
}
330
7376
100
AcDbXrecord
280
     1
102
SHADEPLOT
 70
     0
102
SHADEPLOTRESLEVEL
 70
     2
102
SHADEPLOTCUSTOMDPI
 70
   300
  0
XRECORD
  5
7375
102
{ACAD_REACTORS
330
7374
102
}
330
7374
100
AcDbXrecord
280
     1
102
SHADEPLOT
 70
     0
102
SHADEPLOTRESLEVEL
 70
     2
102
SHADEPLOTCUSTOMDPI
 70
   300
  0
ENDSEC
  0
EOF
