  0
SECTION
  2
HEADER
  9
$ACADVER
  1
AC1015
  9
$ACADMAINTVER
 70
    20
  9
$DWGCODEPAGE
  3
ANSI_932
  9
$INSBASE
 10
0.0
 20
0.0
 30
0.0
  9
$EXTMIN
 10
58.48418549385087
 20
67.38010012115251
 30
-0.0000000349181948
  9
$EXTMAX
 10
882.555012362603
 20
643.4441073435841
 30
0.0000000814935746
  9
$LIMMIN
 10
0.0
 20
0.0
  9
$LIMMAX
 10
420.0
 20
297.0
  9
$ORTHOMODE
 70
     0
  9
$REGENMODE
 70
     1
  9
$FILLMODE
 70
     1
  9
$QTEXTMODE
 70
     0
  9
$MIRRTEXT
 70
     1
  9
$LTSCALE
 40
1.0
  9
$ATTMODE
 70
     1
  9
$TEXTSIZE
 40
5.0
  9
$TRACEWID
 40
0.05
  9
$TEXTSTYLE
  7
ACAD
  9
$CLAYER
  8
0
  9
$CELTYPE
  6
CONTINUOUS
  9
$CECOLOR
 62
   256
  9
$CELTSCALE
 40
1.0
  9
$DISPSILH
 70
     0
  9
$DIMSCALE
 40
1.0
  9
$DIMASZ
 40
1.0
  9
$DIMEXO
 40
0.0
  9
$DIMDLI
 40
0.38
  9
$DIMRND
 40
0.0
  9
$DIMDLE
 40
0.0
  9
$DIMEXE
 40
0.0
  9
$DIMTP
 40
0.0
  9
$DIMTM
 40
0.0
  9
$DIMTXT
 40
5.0
  9
$DIMCEN
 40
0.09
  9
$DIMTSZ
 40
0.0
  9
$DIMTOL
 70
     0
  9
$DIMLIM
 70
     0
  9
$DIMTIH
 70
     0
  9
$DIMTOH
 70
     1
  9
$DIMSE1
 70
     0
  9
$DIMSE2
 70
     0
  9
$DIMTAD
 70
     1
  9
$DIMZIN
 70
     0
  9
$DIMBLK
  1
Dot
  9
$DIMASO
 70
     1
  9
$DIMSHO
 70
     1
  9
$DIMPOST
  1

  9
$DIMAPOST
  1

  9
$DIMALT
 70
     0
  9
$DIMALTD
 70
     2
  9
$DIMALTF
 40
25.4
  9
$DIMLFAC
 40
1.0
  9
$DIMTOFL
 70
     0
  9
$DIMTVP
 40
0.0
  9
$DIMTIX
 70
     1
  9
$DIMSOXD
 70
     0
  9
$DIMSAH
 70
     0
  9
$DIMBLK1
  1

  9
$DIMBLK2
  1

  9
$DIMSTYLE
  2
AutoCAD
  9
$DIMCLRD
 70
     4
  9
$DIMCLRE
 70
     4
  9
$DIMCLRT
 70
     3
  9
$DIMTFAC
 40
1.0
  9
$DIMGAP
 40
1.0
  9
$DIMJUST
 70
     0
  9
$DIMSD1
 70
     0
  9
$DIMSD2
 70
     0
  9
$DIMTOLJ
 70
     1
  9
$DIMTZIN
 70
     0
  9
$DIMALTZ
 70
     0
  9
$DIMALTTZ
 70
     0
  9
$DIMUPT
 70
     0
  9
$DIMDEC
 70
     0
  9
$DIMTDEC
 70
     0
  9
$DIMALTU
 70
     2
  9
$DIMALTTD
 70
     2
  9
$DIMTXSTY
  7
ACAD
  9
$DIMAUNIT
 70
     0
  9
$DIMADEC
 70
     0
  9
$DIMALTRND
 40
0.0
  9
$DIMAZIN
 70
     0
  9
$DIMDSEP
 70
    46
  9
$DIMATFIT
 70
     0
  9
$DIMFRAC
 70
     0
  9
$DIMLDRBLK
  1
None
  9
$DIMLUNIT
 70
     2
  9
$DIMLWD
 70
    -2
  9
$DIMLWE
 70
    -2
  9
$DIMTMOVE
 70
     0
  9
$LUNITS
 70
     2
  9
$LUPREC
 70
     4
  9
$SKETCHINC
 40
0.1
  9
$FILLETRAD
 40
0.0
  9
$AUNITS
 70
     0
  9
$AUPREC
 70
     0
  9
$MENU
  1
.
  9
$ELEVATION
 40
0.0
  9
$PELEVATION
 40
0.0
  9
$THICKNESS
 40
0.0
  9
$LIMCHECK
 70
     0
  9
$CHAMFERA
 40
0.0
  9
$CHAMFERB
 40
0.0
  9
$CHAMFERC
 40
0.0
  9
$CHAMFERD
 40
0.0
  9
$SKPOLY
 70
     0
  9
$TDCREATE
 40
2454316.693457674
  9
$TDUCREATE
 40
2454316.318457674
  9
$TDUPDATE
 40
2454739.425138160
  9
$TDUUPDATE
 40
2454739.050138160
  9
$TDINDWG
 40
0.2482307523
  9
$TDUSRTIMER
 40
0.2482307523
  9
$USRTIMER
 70
     1
  9
$ANGBASE
 50
0.0
  9
$ANGDIR
 70
     0
  9
$PDMODE
 70
     0
  9
$PDSIZE
 40
0.0
  9
$PLINEWID
 40
0.0
  9
$SPLFRAME
 70
     0
  9
$SPLINETYPE
 70
     6
  9
$SPLINESEGS
 70
     8
  9
$HANDSEED
  5
723C
  9
$SURFTAB1
 70
     6
  9
$SURFTAB2
 70
     6
  9
$SURFTYPE
 70
     6
  9
$SURFU
 70
     6
  9
$SURFV
 70
     6
  9
$UCSBASE
  2

  9
$UCSNAME
  2

  9
$UCSORG
 10
0.0
 20
0.0
 30
0.0
  9
$UCSXDIR
 10
1.0
 20
0.0
 30
0.0
  9
$UCSYDIR
 10
0.0
 20
1.0
 30
0.0
  9
$UCSORTHOREF
  2

  9
$UCSORTHOVIEW
 70
     0
  9
$UCSORGTOP
 10
0.0
 20
0.0
 30
0.0
  9
$UCSORGBOTTOM
 10
0.0
 20
0.0
 30
0.0
  9
$UCSORGLEFT
 10
0.0
 20
0.0
 30
0.0
  9
$UCSORGRIGHT
 10
0.0
 20
0.0
 30
0.0
  9
$UCSORGFRONT
 10
0.0
 20
0.0
 30
0.0
  9
$UCSORGBACK
 10
0.0
 20
0.0
 30
0.0
  9
$PUCSBASE
  2

  9
$PUCSNAME
  2

  9
$PUCSORG
 10
0.0
 20
0.0
 30
0.0
  9
$PUCSXDIR
 10
1.0
 20
0.0
 30
0.0
  9
$PUCSYDIR
 10
0.0
 20
1.0
 30
0.0
  9
$PUCSORTHOREF
  2

  9
$PUCSORTHOVIEW
 70
     0
  9
$PUCSORGTOP
 10
0.0
 20
0.0
 30
0.0
  9
$PUCSORGBOTTOM
 10
0.0
 20
0.0
 30
0.0
  9
$PUCSORGLEFT
 10
0.0
 20
0.0
 30
0.0
  9
$PUCSORGRIGHT
 10
0.0
 20
0.0
 30
0.0
  9
$PUCSORGFRONT
 10
0.0
 20
0.0
 30
0.0
  9
$PUCSORGBACK
 10
0.0
 20
0.0
 30
0.0
  9
$USERI1
 70
     0
  9
$USERI2
 70
     0
  9
$USERI3
 70
     0
  9
$USERI4
 70
     0
  9
$USERI5
 70
     0
  9
$USERR1
 40
0.0
  9
$USERR2
 40
0.0
  9
$USERR3
 40
0.0
  9
$USERR4
 40
0.0
  9
$USERR5
 40
0.0
  9
$WORLDVIEW
 70
     1
  9
$SHADEDGE
 70
     3
  9
$SHADEDIF
 70
    70
  9
$TILEMODE
 70
     1
  9
$MAXACTVP
 70
    48
  9
$PINSBASE
 10
0.0
 20
0.0
 30
0.0
  9
$PLIMCHECK
 70
     0
  9
$PEXTMIN
 10
1.000000000000000E+20
 20
1.000000000000000E+20
 30
1.000000000000000E+20
  9
$PEXTMAX
 10
-1.000000000000000E+20
 20
-1.000000000000000E+20
 30
-1.000000000000000E+20
  9
$PLIMMIN
 10
0.0
 20
0.0
  9
$PLIMMAX
 10
12.0
 20
9.0
  9
$UNITMODE
 70
     0
  9
$VISRETAIN
 70
     0
  9
$PLINEGEN
 70
     0
  9
$PSLTSCALE
 70
     1
  9
$TREEDEPTH
 70
  3020
  9
$CMLSTYLE
  2
Standard
  9
$CMLJUST
 70
     0
  9
$CMLSCALE
 40
1.0
  9
$PROXYGRAPHICS
 70
     1
  9
$MEASUREMENT
 70
     0
  9
$CELWEIGHT
370
    -1
  9
$ENDCAPS
280
     0
  9
$JOINSTYLE
280
     0
  9
$LWDISPLAY
290
     0
  9
$INSUNITS
 70
     0
  9
$HYPERLINKBASE
  1

  9
$STYLESHEET
  1

  9
$XEDIT
290
     1
  9
$CEPSNTYPE
380
     0
  9
$PSTYLEMODE
290
     1
  9
$FINGERPRINTGUID
  2
{CC7D6DEE-A9F1-4F3E-AC95-C84B62CCA3FD}
  9
$VERSIONGUID
  2
{DF30D718-3FAB-44DB-9F06-E2CEBD9EF1FB}
  9
$EXTNAMES
290
     1
  9
$PSVPSCALE
 40
0.0
  9
$OLESTARTUP
290
     0
  0
ENDSEC
  0
SECTION
  2
CLASSES
  0
CLASS
  1
ACDBDICTIONARYWDFLT
  2
AcDbDictionaryWithDefault
  3
ObjectDBX Classes
 90
        0
280
     0
281
     0
  0
CLASS
  1
ACDBPLACEHOLDER
  2
AcDbPlaceHolder
  3
ObjectDBX Classes
 90
        0
280
     0
281
     0
  0
CLASS
  1
LAYOUT
  2
AcDbLayout
  3
ObjectDBX Classes
 90
        0
280
     0
281
     0
  0
CLASS
  1
DICTIONARYVAR
  2
AcDbDictionaryVar
  3
ObjectDBX Classes
 90
        0
280
     0
281
     0
  0
CLASS
  1
TABLESTYLE
  2
AcDbTableStyle
  3
ObjectDBX Classes
 90
     2047
280
     0
281
     0
  0
ENDSEC
  0
SECTION
  2
TABLES
  0
TABLE
  2
VPORT
  5
8
330
0
100
AcDbSymbolTable
 70
     2
  0
VPORT
  5
7236
330
8
100
AcDbSymbolTableRecord
100
AcDbViewportTableRecord
  2
*Active
 70
     0
 10
0.0
 20
0.0
 11
1.0
 21
1.0
 12
489.8895212605928
 22
342.9576586670517
 13
0.0
 23
0.0
 14
1.0
 24
1.0
 15
0.0
 25
0.0
 16
0.0
 26
0.0
 36
1.0
 17
0.0
 27
0.0
 37
0.0
 40
651.3368792246382
 41
1.538265306122448
 42
50.0
 43
0.0
 44
0.0
 50
0.0
 51
0.0
 71
     0
 72
   100
 73
     1
 74
     1
 75
     0
 76
     0
 77
     0
 78
     0
281
     0
 65
     1
110
0.0
120
0.0
130
0.0
111
1.0
121
0.0
131
0.0
112
0.0
122
1.0
132
0.0
 79
     0
146
0.0
  0
ENDTAB
  0
TABLE
  2
LTYPE
  5
5
330
0
100
AcDbSymbolTable
 70
    50
  0
LTYPE
  5
13
330
5
100
AcDbSymbolTableRecord
100
AcDbLinetypeTableRecord
  2
ByBlock
 70
     0
  3

 72
    65
 73
     0
 40
0.0
  0
LTYPE
  5
14
330
5
100
AcDbSymbolTableRecord
100
AcDbLinetypeTableRecord
  2
ByLayer
 70
     0
  3

 72
    65
 73
     0
 40
0.0
  0
LTYPE
  5
15
330
5
100
AcDbSymbolTableRecord
100
AcDbLinetypeTableRecord
  2
CONTINUOUS
 70
     0
  3
実線
 72
    65
 73
     0
 40
0.0
  0
LTYPE
  5
22
330
5
100
AcDbSymbolTableRecord
100
AcDbLinetypeTableRecord
  2
DASHED1
 70
     0
  3
--  --  --  --  --  --  --  --  
 72
    65
 73
     2
 40
2.5
 49
1.25
 74
     0
 49
-1.25
 74
     0
  0
LTYPE
  5
23
330
5
100
AcDbSymbolTableRecord
100
AcDbLinetypeTableRecord
  2
DASHED2
 70
     0
  3
----    ----    ----    ----    
 72
    65
 73
     2
 40
5.0
 49
2.5
 74
     0
 49
-2.5
 74
     0
  0
LTYPE
  5
24
330
5
100
AcDbSymbolTableRecord
100
AcDbLinetypeTableRecord
  2
DASHED3
 70
     0
  3
------  ------  ------  ------  
 72
    65
 73
     2
 40
5.0
 49
3.75
 74
     0
 49
-1.25
 74
     0
  0
LTYPE
  5
25
330
5
100
AcDbSymbolTableRecord
100
AcDbLinetypeTableRecord
  2
CENTER1
 70
     0
  3
----- - ----- - ----- - ----- - 
 72
    65
 73
     4
 40
10.0
 49
6.25
 74
     0
 49
-1.25
 74
     0
 49
1.25
 74
     0
 49
-1.25
 74
     0
  0
LTYPE
  5
26
330
5
100
AcDbSymbolTableRecord
100
AcDbLinetypeTableRecord
  2
CENTER2
 70
     0
  3
----------  --  ----------  --  
 72
    65
 73
     4
 40
20.0
 49
12.5
 74
     0
 49
-2.5
 74
     0
 49
2.5
 74
     0
 49
-2.5
 74
     0
  0
LTYPE
  5
27
330
5
100
AcDbSymbolTableRecord
100
AcDbLinetypeTableRecord
  2
PHANTOM1
 70
     0
  3
--- - - --- - - --- - - --- - - 
 72
    65
 73
     6
 40
10.0
 49
3.25
 74
     0
 49
-1.25
 74
     0
 49
1.25
 74
     0
 49
-1.25
 74
     0
 49
1.25
 74
     0
 49
-1.25
 74
     0
  0
LTYPE
  5
28
330
5
100
AcDbSymbolTableRecord
100
AcDbLinetypeTableRecord
  2
PHANTOM2
 70
     0
  3
--------  -  -  --------  -  -  
 72
    65
 73
     6
 40
20.0
 49
10.0
 74
     0
 49
-2.5
 74
     0
 49
1.25
 74
     0
 49
-2.5
 74
     0
 49
1.25
 74
     0
 49
-2.5
 74
     0
  0
LTYPE
  5
29
330
5
100
AcDbSymbolTableRecord
100
AcDbLinetypeTableRecord
  2
DOT
 70
     0
  3
-   -   -   -   -   -   -   -   
 72
    65
 73
     2
 40
2.5
 49
0.625
 74
     0
 49
-1.875
 74
     0
  0
LTYPE
  5
2A
330
5
100
AcDbSymbolTableRecord
100
AcDbLinetypeTableRecord
  2
DUMMY
 70
     0
  3
ダミー
 72
    65
 73
     0
 40
0.0
  0
LTYPE
  5
2B
330
5
100
AcDbSymbolTableRecord
100
AcDbLinetypeTableRecord
  2
RAND1
 70
     0
  3
ランダム線1
 72
    65
 73
     4
 40
10.0
 49
1.0
 74
     0
 49
-2.0
 74
     0
 49
3.0
 74
     0
 49
-4.0
 74
     0
  0
LTYPE
  5
2C
330
5
100
AcDbSymbolTableRecord
100
AcDbLinetypeTableRecord
  2
RAND2
 70
     0
  3
ランダム線2
 72
    65
 73
     4
 40
14.0
 49
2.0
 74
     0
 49
-3.0
 74
     0
 49
4.0
 74
     0
 49
-5.0
 74
     0
  0
LTYPE
  5
2D
330
5
100
AcDbSymbolTableRecord
100
AcDbLinetypeTableRecord
  2
RAND3
 70
     0
  3
ランダム線3
 72
    65
 73
     4
 40
18.0
 49
3.0
 74
     0
 49
-4.0
 74
     0
 49
5.0
 74
     0
 49
-6.0
 74
     0
  0
LTYPE
  5
2E
330
5
100
AcDbSymbolTableRecord
100
AcDbLinetypeTableRecord
  2
RAND4
 70
     0
  3
ランダム線4
 72
    65
 73
     4
 40
22.0
 49
4.0
 74
     0
 49
-5.0
 74
     0
 49
6.0
 74
     0
 49
-7.0
 74
     0
  0
LTYPE
  5
2F
330
5
100
AcDbSymbolTableRecord
100
AcDbLinetypeTableRecord
  2
RAND5
 70
     0
  3
ランダム線5
 72
    65
 73
     4
 40
26.0
 49
5.0
 74
     0
 49
-6.0
 74
     0
 49
7.0
 74
     0
 49
-8.0
 74
     0
  0
LTYPE
  5
30
330
5
100
AcDbSymbolTableRecord
100
AcDbLinetypeTableRecord
  2
LONG1
 70
     0
  3
----------  --  ----------  --  
 72
    65
 73
     4
 40
40.0
 49
32.5
 74
     0
 49
-2.5
 74
     0
 49
2.5
 74
     0
 49
-2.5
 74
     0
  0
LTYPE
  5
31
330
5
100
AcDbSymbolTableRecord
100
AcDbLinetypeTableRecord
  2
LONG2
 70
     0
  3
--------  -  -  --------  -  -  
 72
    65
 73
     6
 40
40.0
 49
30.0
 74
     0
 49
-2.5
 74
     0
 49
1.25
 74
     0
 49
-2.5
 74
     0
 49
1.25
 74
     0
 49
-2.5
 74
     0
  0
LTYPE
  5
32
330
5
100
AcDbSymbolTableRecord
100
AcDbLinetypeTableRecord
  2
LONG3
 70
     0
  3
+++++++++++++++..+++++++++++++++
 72
    65
 73
     2
 40
40.0
 49
37.5
 74
     0
 49
-2.5
 74
     0
  0
LTYPE
  5
33
330
5
100
AcDbSymbolTableRecord
100
AcDbLinetypeTableRecord
  2
LONG4
 70
     0
  3
+++++++++++++++..+++++++++++++++
 72
    65
 73
     2
 40
80.0
 49
75.0
 74
     0
 49
-5.0
 74
     0
  0
LTYPE
  5
34
330
5
100
AcDbSymbolTableRecord
100
AcDbLinetypeTableRecord
  2
LONG5
 70
     0
  3
----------  --  ----------  --  
 72
    65
 73
     4
 40
60.0
 49
37.5
 74
     0
 49
-7.5
 74
     0
 49
7.5
 74
     0
 49
-7.5
 74
     0
  0
LTYPE
  5
35
330
5
100
AcDbSymbolTableRecord
100
AcDbLinetypeTableRecord
  2
DASHED
 70
     0
  3
-------   -------------   ------
 72
    65
 73
     2
 40
7.5
 49
6.0
 74
     0
 49
-1.5
 74
     0
  0
LTYPE
  5
36
330
5
100
AcDbSymbolTableRecord
100
AcDbLinetypeTableRecord
  2
DASHED_SPACED
 70
     0
  3
----        --------        ----
 72
    65
 73
     2
 40
12.0
 49
6.0
 74
     0
 49
-6.0
 74
     0
  0
LTYPE
  5
37
330
5
100
AcDbSymbolTableRecord
100
AcDbLinetypeTableRecord
  2
LONG_DASHED_DOTTED
 70
     0
  3
------------- --- --------------
 72
    65
 73
     4
 40
15.25
 49
12.0
 74
     0
 49
-1.5
 74
     0
 49
0.25
 74
     0
 49
-1.5
 74
     0
  0
LTYPE
  5
38
330
5
100
AcDbSymbolTableRecord
100
AcDbLinetypeTableRecord
  2
LONG_DASHED_DOUBLE-DOTTED
 70
     0
  3
----------- --- --- ------------
 72
    65
 73
     6
 40
17.0
 49
12.0
 74
     0
 49
-1.5
 74
     0
 49
0.25
 74
     0
 49
-1.5
 74
     0
 49
0.25
 74
     0
 49
-1.5
 74
     0
  0
LTYPE
  5
39
330
5
100
AcDbSymbolTableRecord
100
AcDbLinetypeTableRecord
  2
LONG_DASHED_TRIPLICATE-DOTTED
 70
     0
  3
--------- --- --- --- ----------
 72
    65
 73
     8
 40
18.75
 49
12.0
 74
     0
 49
-1.5
 74
     0
 49
0.25
 74
     0
 49
-1.5
 74
     0
 49
0.25
 74
     0
 49
-1.5
 74
     0
 49
0.25
 74
     0
 49
-1.5
 74
     0
  0
LTYPE
  5
3A
330
5
100
AcDbSymbolTableRecord
100
AcDbLinetypeTableRecord
  2
DOTTED
 70
     0
  3
   -       -       -       -    
 72
    65
 73
     2
 40
1.75
 49
0.25
 74
     0
 49
-1.5
 74
     0
  0
LTYPE
  5
3B
330
5
100
AcDbSymbolTableRecord
100
AcDbLinetypeTableRecord
  2
CHAIN
 70
     0
  3
-------------- -- --------------
 72
    65
 73
     4
 40
18.5
 49
12.0
 74
     0
 49
-1.5
 74
     0
 49
3.5
 74
     0
 49
-1.5
 74
     0
  0
LTYPE
  5
3C
330
5
100
AcDbSymbolTableRecord
100
AcDbLinetypeTableRecord
  2
CHAIN_DOUBLE_DASH
 70
     0
  3
------------ -- -- -------------
 72
    65
 73
     6
 40
23.5
 49
12.0
 74
     0
 49
-1.5
 74
     0
 49
3.5
 74
     0
 49
-1.5
 74
     0
 49
3.5
 74
     0
 49
-1.5
 74
     0
  0
LTYPE
  5
3D
330
5
100
AcDbSymbolTableRecord
100
AcDbLinetypeTableRecord
  2
DASHED_DOTTED
 70
     0
  3
-----------     -     ----------
 72
    65
 73
     4
 40
9.25
 49
6.0
 74
     0
 49
-1.5
 74
     0
 49
0.25
 74
     0
 49
-1.5
 74
     0
  0
LTYPE
  5
3E
330
5
100
AcDbSymbolTableRecord
100
AcDbLinetypeTableRecord
  2
DOUBLE-DASHED_DOTTED
 70
     0
  3
------   -----------   -   -----
 72
    65
 73
     6
 40
16.75
 49
6.0
 74
     0
 49
-1.5
 74
     0
 49
6.0
 74
     0
 49
-1.5
 74
     0
 49
0.25
 74
     0
 49
-1.5
 74
     0
  0
LTYPE
  5
3F
330
5
100
AcDbSymbolTableRecord
100
AcDbLinetypeTableRecord
  2
DASHED_DOUBLE-DOTTED
 70
     0
  3
---------    -    -    ---------
 72
    65
 73
     6
 40
11.0
 49
6.0
 74
     0
 49
-1.5
 74
     0
 49
0.25
 74
     0
 49
-1.5
 74
     0
 49
0.25
 74
     0
 49
-1.5
 74
     0
  0
LTYPE
  5
40
330
5
100
AcDbSymbolTableRecord
100
AcDbLinetypeTableRecord
  2
DOUBLE-DASHED_DOUBLE-DOTTED
 70
     0
  3
-----   ---------   -   -   ----
 72
    65
 73
     8
 40
18.5
 49
6.0
 74
     0
 49
-1.5
 74
     0
 49
6.0
 74
     0
 49
-1.5
 74
     0
 49
0.25
 74
     0
 49
-1.5
 74
     0
 49
0.25
 74
     0
 49
-1.5
 74
     0
  0
LTYPE
  5
41
330
5
100
AcDbSymbolTableRecord
100
AcDbLinetypeTableRecord
  2
DASHED_TRIPLICATE-DOTTED
 70
     0
  3
-------    -    -    -    ------
 72
    65
 73
     8
 40
12.75
 49
6.0
 74
     0
 49
-1.5
 74
     0
 49
0.25
 74
     0
 49
-1.5
 74
     0
 49
0.25
 74
     0
 49
-1.5
 74
     0
 49
0.25
 74
     0
 49
-1.5
 74
     0
  0
LTYPE
  5
42
330
5
100
AcDbSymbolTableRecord
100
AcDbLinetypeTableRecord
  2
DOUBLE-DASHED_TRIPLICATE-DOTTED
 70
     0
  3
-----  ---------  -  -  -  -----
 72
    65
 73
    10
 40
20.25
 49
6.0
 74
     0
 49
-1.5
 74
     0
 49
6.0
 74
     0
 49
-1.5
 74
     0
 49
0.25
 74
     0
 49
-1.5
 74
     0
 49
0.25
 74
     0
 49
-1.5
 74
     0
 49
0.25
 74
     0
 49
-1.5
 74
     0
  0
LTYPE
  5
43
330
5
100
AcDbSymbolTableRecord
100
AcDbLinetypeTableRecord
  2
UNDEFINED
 70
     0
  3
--------------------------------
 72
    65
 73
     0
 40
0.0
  0
LTYPE
  5
44
330
5
100
AcDbSymbolTableRecord
100
AcDbLinetypeTableRecord
  2
PLINE2
 70
     0
  3
------     -----------     -----
 72
    65
 73
     2
 40
3.0
 49
2.1
 74
     0
 49
-0.9
 74
     0
  0
LTYPE
  5
45
330
5
100
AcDbSymbolTableRecord
100
AcDbLinetypeTableRecord
  2
PLINE3
 70
     0
  3
------------   ---   -----------
 72
    65
 73
     4
 40
10.0
 49
7.0
 74
     0
 49
-1.0
 74
     0
 49
1.0
 74
     0
 49
-1.0
 74
     0
  0
LTYPE
  5
46
330
5
100
AcDbSymbolTableRecord
100
AcDbLinetypeTableRecord
  2
PLINE4
 70
     0
  3
---------   ---   ---   --------
 72
    65
 73
     6
 40
10.0
 49
5.0
 74
     0
 49
-1.0
 74
     0
 49
1.0
 74
     0
 49
-1.0
 74
     0
 49
1.0
 74
     0
 49
-1.0
 74
     0
  0
LTYPE
  5
47
330
5
100
AcDbSymbolTableRecord
100
AcDbLinetypeTableRecord
  2
PLINE5
 70
     0
  3
------     -----------     -----
 72
    65
 73
     2
 40
5.0
 49
3.5
 74
     0
 49
-1.5
 74
     0
  0
LTYPE
  5
48
330
5
100
AcDbSymbolTableRecord
100
AcDbLinetypeTableRecord
  2
PLINE6
 70
     0
  3
------------   ---   -----------
 72
    65
 73
     4
 40
15.0
 49
10.5
 74
     0
 49
-1.5
 74
     0
 49
1.5
 74
     0
 49
-1.5
 74
     0
  0
LTYPE
  5
49
330
5
100
AcDbSymbolTableRecord
100
AcDbLinetypeTableRecord
  2
PLINE7
 70
     0
  3
---------   ---   ---   --------
 72
    65
 73
     6
 40
15.0
 49
7.5
 74
     0
 49
-1.5
 74
     0
 49
1.5
 74
     0
 49
-1.5
 74
     0
 49
1.5
 74
     0
 49
-1.5
 74
     0
  0
LTYPE
  5
4A
330
5
100
AcDbSymbolTableRecord
100
AcDbLinetypeTableRecord
  2
PLINE8
 70
     0
  3
------     -----------     -----
 72
    65
 73
     2
 40
7.0
 49
4.9
 74
     0
 49
-2.1
 74
     0
  0
LTYPE
  5
4B
330
5
100
AcDbSymbolTableRecord
100
AcDbLinetypeTableRecord
  2
PLINE9
 70
     0
  3
------------   ---   -----------
 72
    65
 73
     4
 40
20.0
 49
14.0
 74
     0
 49
-2.0
 74
     0
 49
2.0
 74
     0
 49
-2.0
 74
     0
  0
LTYPE
  5
4C
330
5
100
AcDbSymbolTableRecord
100
AcDbLinetypeTableRecord
  2
PLINE10
 70
     0
  3
---------   ---   ---   --------
 72
    65
 73
     6
 40
20.0
 49
10.0
 74
     0
 49
-2.0
 74
     0
 49
2.0
 74
     0
 49
-2.0
 74
     0
 49
2.0
 74
     0
 49
-2.0
 74
     0
  0
LTYPE
  5
4D
330
5
100
AcDbSymbolTableRecord
100
AcDbLinetypeTableRecord
  2
PLINE11
 70
     0
  3
------     -----------     -----
 72
    65
 73
     2
 40
9.0
 49
6.299999999999999
 74
     0
 49
-2.7
 74
     0
  0
LTYPE
  5
4E
330
5
100
AcDbSymbolTableRecord
100
AcDbLinetypeTableRecord
  2
PLINE12
 70
     0
  3
------------   ---   -----------
 72
    65
 73
     4
 40
25.0
 49
17.5
 74
     0
 49
-2.5
 74
     0
 49
2.5
 74
     0
 49
-2.5
 74
     0
  0
LTYPE
  5
4F
330
5
100
AcDbSymbolTableRecord
100
AcDbLinetypeTableRecord
  2
PLINE13
 70
     0
  3
---------   ---   ---   --------
 72
    65
 73
     6
 40
25.0
 49
12.5
 74
     0
 49
-2.5
 74
     0
 49
2.5
 74
     0
 49
-2.5
 74
     0
 49
2.5
 74
     0
 49
-2.5
 74
     0
  0
LTYPE
  5
50
330
5
100
AcDbSymbolTableRecord
100
AcDbLinetypeTableRecord
  2
PLINE14
 70
     0
  3
------     -----------     -----
 72
    65
 73
     2
 40
11.0
 49
7.7
 74
     0
 49
-3.299999999999999
 74
     0
  0
LTYPE
  5
51
330
5
100
AcDbSymbolTableRecord
100
AcDbLinetypeTableRecord
  2
PLINE15
 70
     0
  3
------------   ---   -----------
 72
    65
 73
     4
 40
30.0
 49
21.0
 74
     0
 49
-3.0
 74
     0
 49
3.0
 74
     0
 49
-3.0
 74
     0
  0
LTYPE
  5
52
330
5
100
AcDbSymbolTableRecord
100
AcDbLinetypeTableRecord
  2
PLINE16
 70
     0
  3
---------   ---   ---   --------
 72
    65
 73
     6
 40
30.0
 49
15.0
 74
     0
 49
-3.0
 74
     0
 49
3.0
 74
     0
 49
-3.0
 74
     0
 49
3.0
 74
     0
 49
-3.0
 74
     0
  0
ENDTAB
  0
TABLE
  2
LAYER
  5
2
102
{ACAD_XDICTIONARY
360
175
102
}
330
0
100
AcDbSymbolTable
 70
     5
  0
LAYER
  5
10
330
2
100
AcDbSymbolTableRecord
100
AcDbLayerTableRecord
  2
0
 70
     0
 62
     7
  6
CONTINUOUS
370
    -3
390
F
  0
LAYER
  5
128
330
2
100
AcDbSymbolTableRecord
100
AcDbLayerTableRecord
  2
Defpoints
 70
     0
 62
     7
  6
CONTINUOUS
290
     0
370
    -3
390
F
  0
LAYER
  5
178
330
2
100
AcDbSymbolTableRecord
100
AcDbLayerTableRecord
  2
寸法
 70
     0
 62
     7
  6
CONTINUOUS
370
    -3
390
F
  0
LAYER
  5
179
330
2
100
AcDbSymbolTableRecord
100
AcDbLayerTableRecord
  2
躯体と製品
 70
     0
 62
     7
  6
CONTINUOUS
370
    -3
390
F
  0
LAYER
  5
4F62
330
2
100
AcDbSymbolTableRecord
100
AcDbLayerTableRecord
  2
図枠
 70
     0
 62
     7
  6
CONTINUOUS
370
    -3
390
F
  0
ENDTAB
  0
TABLE
  2
STYLE
  5
3
330
0
100
AcDbSymbolTable
 70
     5
  0
STYLE
  5
11
330
3
100
AcDbSymbolTableRecord
100
AcDbTextStyleTableRecord
  2
STANDARD
 70
     0
 40
0.0
 41
1.0
 50
0.0
 71
     0
 42
0.2
  3
txt
  4
bigfont.shx
  0
STYLE
  5
53
330
3
100
AcDbSymbolTableRecord
100
AcDbTextStyleTableRecord
  2
TATEGAKI
 70
     4
 40
0.0
 41
1.0
 50
0.0
 71
     0
 42
1.0
  3
txt
  4
bigfont.shx
  0
STYLE
  5
123
330
3
100
AcDbSymbolTableRecord
100
AcDbTextStyleTableRecord
  2
ACAD
 70
     0
 40
6.0
 41
0.8
 50
0.0
 71
     0
 42
5.0
  3
romans.shx
  4
extfont.shx
  0
STYLE
  5
3A5F
330
3
100
AcDbSymbolTableRecord
100
AcDbTextStyleTableRecord
  2
VERTXT
 70
     4
 40
0.0
 41
0.8582679999999999
 50
0.0
 71
     0
 42
3.5
  3
txt.shx
  4
BIGFONT
  0
STYLE
  5
50AD
330
3
100
AcDbSymbolTableRecord
100
AcDbTextStyleTableRecord
  2
STANDARD2
 70
     0
 40
0.0
 41
0.8582679999999999
 50
0.0
 71
     0
 42
3.5
  3
txt.shx
  4
EXTFONT
  0
ENDTAB
  0
TABLE
  2
VIEW
  5
6
330
0
100
AcDbSymbolTable
 70
     0
  0
ENDTAB
  0
TABLE
  2
UCS
  5
7
330
0
100
AcDbSymbolTable
 70
     0
  0
ENDTAB
  0
TABLE
  2
APPID
  5
9
330
0
100
AcDbSymbolTable
 70
     2
  0
APPID
  5
12
330
9
100
AcDbSymbolTableRecord
100
AcDbRegAppTableRecord
  2
ACAD
 70
     0
  0
APPID
  5
70FC
330
9
100
AcDbSymbolTableRecord
100
AcDbRegAppTableRecord
  2
ACAD_DSTYLE_DIMTEXT_FILL
 70
     0
  0
ENDTAB
  0
TABLE
  2
DIMSTYLE
  5
A
330
0
100
AcDbSymbolTable
 70
     3
100
AcDbDimStyleTable
 71
     1
340
126
  0
DIMSTYLE
105
11C
330
A
100
AcDbSymbolTableRecord
100
AcDbDimStyleTableRecord
  2
Standard
 70
     0
340
11
  0
DIMSTYLE
105
126
102
{ACAD_REACTORS
330
7056
330
7063
330
706F
330
707A
330
7085
330
7090
330
709C
330
70A7
330
70B2
330
70BF
102
}
330
A
100
AcDbSymbolTableRecord
100
AcDbDimStyleTableRecord
  2
AutoCAD
 70
     0
 41
1.0
 42
0.0
 44
0.0
 73
     0
 77
     1
140
5.0
147
1.0
174
     1
176
     4
177
     4
178
     3
271
     0
272
     0
289
     0
340
123
341
15B0
342
11E
  0
DIMSTYLE
105
2CBB
330
A
100
AcDbSymbolTableRecord
100
AcDbDimStyleTableRecord
  2
111
 70
     0
 41
1.0
 42
0.0
 44
0.0
 73
     0
 77
     1
140
5.0
147
1.0
174
     1
176
     4
177
     4
178
     3
271
     0
272
     0
289
     0
340
123
341
15B0
342
2CB5
  0
ENDTAB
  0
TABLE
  2
BLOCK_RECORD
  5
1
330
0
100
AcDbSymbolTable
 70
    14
  0
BLOCK_RECORD
  5
1E
102
{ACAD_XDICTIONARY
360
28B
102
}
330
1
100
AcDbSymbolTableRecord
100
AcDbBlockTableRecord
  2
*Model_Space
340
21
  0
BLOCK_RECORD
  5
1A
102
{ACAD_XDICTIONARY
360
28D
102
}
330
1
100
AcDbSymbolTableRecord
100
AcDbBlockTableRecord
  2
*Paper_Space
340
1D
  0
BLOCK_RECORD
  5
11E
330
1
100
AcDbSymbolTableRecord
100
AcDbBlockTableRecord
  2
_Dot
340
0
102
{BLKREFS
331
71BF
331
71C0
331
71C7
331
71C8
331
71CE
331
71CF
331
71D5
331
71D6
331
71DC
331
71DD
331
71E4
331
71E5
331
71EB
331
71EC
331
71F2
331
71F3
331
71FB
331
71FC
331
7204
331
7205
102
}
  0
BLOCK_RECORD
  5
15B0
330
1
100
AcDbSymbolTableRecord
100
AcDbBlockTableRecord
  2
_None
340
0
  0
BLOCK_RECORD
  5
2CB5
330
1
100
AcDbSymbolTableRecord
100
AcDbBlockTableRecord
  2
_Open30
340
0
  0
BLOCK_RECORD
  5
35E3
330
1
100
AcDbSymbolTableRecord
100
AcDbBlockTableRecord
  2
_DotBlank
340
0
  0
BLOCK_RECORD
  5
7057
330
1
100
AcDbSymbolTableRecord
100
AcDbBlockTableRecord
  2
*D4
340
0
  0
BLOCK_RECORD
  5
7064
330
1
100
AcDbSymbolTableRecord
100
AcDbBlockTableRecord
  2
*D5
340
0
  0
BLOCK_RECORD
  5
7070
330
1
100
AcDbSymbolTableRecord
100
AcDbBlockTableRecord
  2
*D6
340
0
  0
BLOCK_RECORD
  5
707B
330
1
100
AcDbSymbolTableRecord
100
AcDbBlockTableRecord
  2
*D7
340
0
  0
BLOCK_RECORD
  5
7086
330
1
100
AcDbSymbolTableRecord
100
AcDbBlockTableRecord
  2
*D8
340
0
  0
BLOCK_RECORD
  5
7091
330
1
100
AcDbSymbolTableRecord
100
AcDbBlockTableRecord
  2
*D9
340
0
  0
BLOCK_RECORD
  5
709D
330
1
100
AcDbSymbolTableRecord
100
AcDbBlockTableRecord
  2
*D10
340
0
  0
BLOCK_RECORD
  5
70A8
330
1
100
AcDbSymbolTableRecord
100
AcDbBlockTableRecord
  2
*D11
340
0
  0
BLOCK_RECORD
  5
70B3
330
1
100
AcDbSymbolTableRecord
100
AcDbBlockTableRecord
  2
*D12
340
0
  0
BLOCK_RECORD
  5
70C0
330
1
100
AcDbSymbolTableRecord
100
AcDbBlockTableRecord
  2
*D13
340
0
  0
ENDTAB
  0
ENDSEC
  0
SECTION
  2
BLOCKS
  0
BLOCK
  5
1F
330
1E
100
AcDbEntity
  8
0
100
AcDbBlockBegin
  2
*Model_Space
 70
     0
 10
0.0
 20
0.0
 30
0.0
  3
*Model_Space
  1

  0
ENDBLK
  5
20
330
1E
100
AcDbEntity
  8
0
100
AcDbBlockEnd
  0
BLOCK
  5
1B
330
1A
100
AcDbEntity
 67
     1
  8
0
100
AcDbBlockBegin
  2
*Paper_Space
 70
     0
 10
0.0
 20
0.0
 30
0.0
  3
*Paper_Space
  1

  0
ENDBLK
  5
1C
330
1A
100
AcDbEntity
 67
     1
  8
0
100
AcDbBlockEnd
  0
BLOCK
  5
121
330
11E
100
AcDbEntity
  8
0
100
AcDbBlockBegin
  2
_Dot
 70
     0
 10
0.0
 20
0.0
 30
0.0
  3
_Dot
  1

  0
LWPOLYLINE
  5
11F
330
11E
100
AcDbEntity
  8
0
  6
ByBlock
 62
     0
100
AcDbPolyline
 90
        2
 70
     1
 43
0.5
 10
-0.25
 20
0.0
 42
1.0
 10
0.25
 20
0.0
 42
1.0
  0
LINE
  5
120
330
11E
100
AcDbEntity
  8
0
  6
ByBlock
 62
     0
370
    -2
100
AcDbLine
 10
-0.5
 20
0.0
 30
0.0
 11
-1.0
 21
0.0
 31
0.0
  0
ENDBLK
  5
122
330
11E
100
AcDbEntity
  8
0
100
AcDbBlockEnd
  0
BLOCK
  5
15B1
330
15B0
100
AcDbEntity
  8
0
100
AcDbBlockBegin
  2
_None
 70
     0
 10
0.0
 20
0.0
 30
0.0
  3
_None
  1

  0
ENDBLK
  5
15B2
330
15B0
100
AcDbEntity
  8
0
100
AcDbBlockEnd
  0
BLOCK
  5
2CB9
330
2CB5
100
AcDbEntity
  8
0
100
AcDbBlockBegin
  2
_Open30
 70
     0
 10
0.0
 20
0.0
 30
0.0
  3
_Open30
  1

  0
LINE
  5
2CB6
330
2CB5
100
AcDbEntity
  8
0
  6
ByBlock
 62
     0
370
    -2
100
AcDbLine
 10
-1.0
 20
0.26794919
 30
0.0
 11
0.0
 21
0.0
 31
0.0
  0
LINE
  5
2CB7
330
2CB5
100
AcDbEntity
  8
0
  6
ByBlock
 62
     0
370
    -2
100
AcDbLine
 10
0.0
 20
0.0
 30
0.0
 11
-1.0
 21
-0.26794919
 31
0.0
  0
LINE
  5
2CB8
330
2CB5
100
AcDbEntity
  8
0
  6
ByBlock
 62
     0
370
    -2
100
AcDbLine
 10
0.0
 20
0.0
 30
0.0
 11
-1.0
 21
0.0
 31
0.0
  0
ENDBLK
  5
2CBA
330
2CB5
100
AcDbEntity
  8
0
100
AcDbBlockEnd
  0
BLOCK
  5
35E6
330
35E3
100
AcDbEntity
  8
0
100
AcDbBlockBegin
  2
_DotBlank
 70
     0
 10
0.0
 20
0.0
 30
0.0
  3
_DotBlank
  1

  0
CIRCLE
  5
35E4
330
35E3
100
AcDbEntity
  8
0
  6
ByBlock
 62
     0
370
    -2
100
AcDbCircle
 10
0.0
 20
0.0
 30
0.0
 40
0.5
  0
LINE
  5
35E5
330
35E3
100
AcDbEntity
  8
0
  6
ByBlock
 62
     0
370
    -2
100
AcDbLine
 10
-0.5
 20
0.0
 30
0.0
 11
-1.0
 21
0.0
 31
0.0
  0
ENDBLK
  5
35E7
330
35E3
100
AcDbEntity
  8
0
100
AcDbBlockEnd
  0
BLOCK
  5
7061
330
7057
100
AcDbEntity
  8
0
100
AcDbBlockBegin
  2
*D4
 70
     1
 10
0.0
 20
0.0
 30
0.0
  3
*D4
  1

  0
LINE
  5
71BC
330
7057
100
AcDbEntity
  8
寸法
  6
Continuous
 62
     4
370
    -2
100
AcDbLine
 10
100.925215707312
 20
508.52916701213
 30
0.0
 11
100.925215707312
 21
584.4113270464734
 31
0.0
  0
LINE
  5
71BD
330
7057
100
AcDbEntity
  8
寸法
  6
Continuous
 62
     4
370
    -2
100
AcDbLine
 10
800.9252157073124
 20
508.52916701213
 30
0.0
 11
800.9252157073124
 21
584.4113270464734
 31
0.0
  0
LINE
  5
71BE
330
7057
100
AcDbEntity
  8
寸法
  6
Continuous
 62
     4
370
    -2
100
AcDbLine
 10
101.9252157073121
 20
584.4113270464734
 30
0.0
 11
799.9252157073124
 21
584.4113270464734
 31
0.0
  0
INSERT
  5
71BF
330
7057
100
AcDbEntity
  8
寸法
  6
Continuous
 62
     4
370
    -2
100
AcDbBlockReference
  2
_Dot
 10
100.925215707312
 20
584.4113270464734
 30
0.0
 50
180.0
  0
INSERT
  5
71C0
330
7057
100
AcDbEntity
  8
寸法
  6
Continuous
 62
     4
370
    -2
100
AcDbBlockReference
  2
_Dot
 10
800.9252157073124
 20
584.4113270464734
 30
0.0
  0
MTEXT
  5
71C1
330
7057
100
AcDbEntity
  8
寸法
  6
Continuous
 62
     3
100
AcDbMText
 10
450.9252157073122
 20
588.4113270464734
 30
0.0
 40
6.0
 41
0.0
 71
     5
 72
     1
  1
\A1;W
  7
ACAD
 73
     1
 44
1.0
1001
ACAD
1000
MTEXTBEGIN
1070
    73
1070
     1
1070
    44
1040
1.0
1070
    74
1070
     0
1000
MTEXTEND
  0
POINT
  5
71C2
330
7057
100
AcDbEntity
  8
Defpoints
  6
Continuous
 62
     0
100
AcDbPoint
 10
100.925215707312
 20
508.52916701213
 30
0.0
  0
POINT
  5
71C3
330
7057
100
AcDbEntity
  8
Defpoints
  6
Continuous
 62
     0
100
AcDbPoint
 10
800.9252157073124
 20
508.52916701213
 30
0.0
  0
POINT
  5
71C4
330
7057
100
AcDbEntity
  8
Defpoints
  6
Continuous
 62
     0
100
AcDbPoint
 10
800.9252157073124
 20
584.4113270464734
 30
0.0
  0
ENDBLK
  5
7062
330
7057
100
AcDbEntity
  8
0
100
AcDbBlockEnd
  0
BLOCK
  5
706D
330
7064
100
AcDbEntity
  8
0
100
AcDbBlockBegin
  2
*D5
 70
     1
 10
0.0
 20
0.0
 30
0.0
  3
*D5
  1

  0
LINE
  5
71C5
330
7064
100
AcDbEntity
  8
寸法
  6
Continuous
 62
     4
370
    -2
100
AcDbLine
 10
100.925215707312
 20
414.52916701213
 30
0.0
 11
100.925215707312
 21
319.4113270464737
 31
0.0
  0
LINE
  5
71C6
330
7064
100
AcDbEntity
  8
寸法
  6
Continuous
 62
     4
370
    -2
100
AcDbLine
 10
101.9252157073121
 20
319.4113270464737
 30
0.0
 11
174.9252157073136
 21
319.4113270464737
 31
0.0
  0
INSERT
  5
71C7
330
7064
100
AcDbEntity
  8
寸法
  6
Continuous
 62
     4
370
    -2
100
AcDbBlockReference
  2
_Dot
 10
100.925215707312
 20
319.4113270464737
 30
0.0
 50
180.0
  0
INSERT
  5
71C8
330
7064
100
AcDbEntity
  8
寸法
  6
Continuous
 62
     4
370
    -2
100
AcDbBlockReference
  2
_Dot
 10
175.9252157073136
 20
319.4113270464737
 30
0.0
  0
MTEXT
  5
71C9
330
7064
100
AcDbEntity
  8
寸法
  6
Continuous
 62
     3
100
AcDbMText
 10
138.4252157073128
 20
323.4113270464737
 30
0.0
 40
6.0
 41
0.0
 71
     5
 72
     1
  1
\A1;75≦
  7
ACAD
 73
     1
 44
1.0
1001
ACAD
1000
MTEXTBEGIN
1070
    73
1070
     1
1070
    44
1040
1.0
1070
    74
1070
     0
1000
MTEXTEND
  0
POINT
  5
71CA
330
7064
100
AcDbEntity
  8
Defpoints
  6
Continuous
 62
     0
100
AcDbPoint
 10
100.925215707312
 20
414.52916701213
 30
0.0
  0
POINT
  5
71CB
330
7064
100
AcDbEntity
  8
Defpoints
  6
Continuous
 62
     0
100
AcDbPoint
 10
175.9252157073136
 20
319.4113270464737
 30
0.0
  0
POINT
  5
71CC
330
7064
100
AcDbEntity
  8
Defpoints
  6
Continuous
 62
     0
100
AcDbPoint
 10
175.9252157073136
 20
319.4113270464737
 30
0.0
  0
ENDBLK
  5
706E
330
7064
100
AcDbEntity
  8
0
100
AcDbBlockEnd
  0
BLOCK
  5
7078
330
7070
100
AcDbEntity
  8
0
100
AcDbBlockBegin
  2
*D6
 70
     1
 10
0.0
 20
0.0
 30
0.0
  3
*D6
  1

  0
LINE
  5
71CD
330
7070
100
AcDbEntity
  8
寸法
  6
Continuous
 62
     4
370
    -2
100
AcDbLine
 10
176.9252157073136
 20
319.4113270464737
 30
0.0
 11
349.9252157073134
 21
319.4113270464737
 31
0.0
  0
INSERT
  5
71CE
330
7070
100
AcDbEntity
  8
寸法
  6
Continuous
 62
     4
370
    -2
100
AcDbBlockReference
  2
_Dot
 10
175.9252157073136
 20
319.4113270464737
 30
0.0
 50
180.0
  0
INSERT
  5
71CF
330
7070
100
AcDbEntity
  8
寸法
  6
Continuous
 62
     4
370
    -2
100
AcDbBlockReference
  2
_Dot
 10
350.9252157073134
 20
319.4113270464737
 30
0.0
  0
MTEXT
  5
71D0
330
7070
100
AcDbEntity
  8
寸法
  6
Continuous
 62
     3
100
AcDbMText
 10
263.4252157073135
 20
323.4113270464737
 30
0.0
 40
6.0
 41
0.0
 71
     5
 72
     1
  1
\A1;≦Ｃ
  7
ACAD
 73
     1
 44
1.0
1001
ACAD
1000
MTEXTBEGIN
1070
    73
1070
     1
1070
    44
1040
1.0
1070
    74
1070
     0
1000
MTEXTEND
  0
POINT
  5
71D1
330
7070
100
AcDbEntity
  8
Defpoints
  6
Continuous
 62
     0
100
AcDbPoint
 10
175.9252157073136
 20
319.4113270464737
 30
0.0
  0
POINT
  5
71D2
330
7070
100
AcDbEntity
  8
Defpoints
  6
Continuous
 62
     0
100
AcDbPoint
 10
350.9252157073134
 20
319.4113270464737
 30
0.0
  0
POINT
  5
71D3
330
7070
100
AcDbEntity
  8
Defpoints
  6
Continuous
 62
     0
100
AcDbPoint
 10
350.9252157073134
 20
319.4113270464737
 30
0.0
  0
ENDBLK
  5
7079
330
7070
100
AcDbEntity
  8
0
100
AcDbBlockEnd
  0
BLOCK
  5
7083
330
707B
100
AcDbEntity
  8
0
100
AcDbBlockBegin
  2
*D7
 70
     1
 10
0.0
 20
0.0
 30
0.0
  3
*D7
  1

  0
LINE
  5
71D4
330
707B
100
AcDbEntity
  8
寸法
  6
Continuous
 62
     4
370
    -2
100
AcDbLine
 10
351.9252157073134
 20
319.4113270464737
 30
0.0
 11
549.9252157073137
 21
319.4113270464737
 31
0.0
  0
INSERT
  5
71D5
330
707B
100
AcDbEntity
  8
寸法
  6
Continuous
 62
     4
370
    -2
100
AcDbBlockReference
  2
_Dot
 10
350.9252157073134
 20
319.4113270464737
 30
0.0
 50
180.0
  0
INSERT
  5
71D6
330
707B
100
AcDbEntity
  8
寸法
  6
Continuous
 62
     4
370
    -2
100
AcDbBlockReference
  2
_Dot
 10
550.9252157073137
 20
319.4113270464737
 30
0.0
  0
MTEXT
  5
71D7
330
707B
100
AcDbEntity
  8
寸法
  6
Continuous
 62
     3
100
AcDbMText
 10
450.9252157073135
 20
323.4113270464737
 30
0.0
 40
6.0
 41
0.0
 71
     5
 72
     1
  1
\A1;200
  7
ACAD
 73
     1
 44
1.0
1001
ACAD
1000
MTEXTBEGIN
1070
    73
1070
     1
1070
    44
1040
1.0
1070
    74
1070
     0
1000
MTEXTEND
  0
POINT
  5
71D8
330
707B
100
AcDbEntity
  8
Defpoints
  6
Continuous
 62
     0
100
AcDbPoint
 10
350.9252157073134
 20
319.4113270464737
 30
0.0
  0
POINT
  5
71D9
330
707B
100
AcDbEntity
  8
Defpoints
  6
Continuous
 62
     0
100
AcDbPoint
 10
550.9252157073137
 20
319.4113270464737
 30
0.0
  0
POINT
  5
71DA
330
707B
100
AcDbEntity
  8
Defpoints
  6
Continuous
 62
     0
100
AcDbPoint
 10
550.9252157073137
 20
319.4113270464737
 30
0.0
  0
ENDBLK
  5
7084
330
707B
100
AcDbEntity
  8
0
100
AcDbBlockEnd
  0
BLOCK
  5
708E
330
7086
100
AcDbEntity
  8
0
100
AcDbBlockBegin
  2
*D8
 70
     1
 10
0.0
 20
0.0
 30
0.0
  3
*D8
  1

  0
LINE
  5
71DB
330
7086
100
AcDbEntity
  8
寸法
  6
Continuous
 62
     4
370
    -2
100
AcDbLine
 10
551.9252157073138
 20
319.4113270464737
 30
0.0
 11
724.9252157073138
 21
319.4113270464737
 31
0.0
  0
INSERT
  5
71DC
330
7086
100
AcDbEntity
  8
寸法
  6
Continuous
 62
     4
370
    -2
100
AcDbBlockReference
  2
_Dot
 10
550.9252157073137
 20
319.4113270464737
 30
0.0
 50
180.0
  0
INSERT
  5
71DD
330
7086
100
AcDbEntity
  8
寸法
  6
Continuous
 62
     4
370
    -2
100
AcDbBlockReference
  2
_Dot
 10
725.9252157073139
 20
319.4113270464737
 30
0.0
  0
MTEXT
  5
71DE
330
7086
100
AcDbEntity
  8
寸法
  6
Continuous
 62
     3
100
AcDbMText
 10
638.4252157073137
 20
323.4113270464737
 30
0.0
 40
6.0
 41
0.0
 71
     5
 72
     1
  1
\A1;≦Ｃ
  7
ACAD
 73
     1
 44
1.0
1001
ACAD
1000
MTEXTBEGIN
1070
    73
1070
     1
1070
    44
1040
1.0
1070
    74
1070
     0
1000
MTEXTEND
  0
POINT
  5
71DF
330
7086
100
AcDbEntity
  8
Defpoints
  6
Continuous
 62
     0
100
AcDbPoint
 10
550.9252157073137
 20
319.4113270464737
 30
0.0
  0
POINT
  5
71E0
330
7086
100
AcDbEntity
  8
Defpoints
  6
Continuous
 62
     0
100
AcDbPoint
 10
725.9252157073139
 20
319.4113270464737
 30
0.0
  0
POINT
  5
71E1
330
7086
100
AcDbEntity
  8
Defpoints
  6
Continuous
 62
     0
100
AcDbPoint
 10
725.9252157073139
 20
319.4113270464737
 30
0.0
  0
ENDBLK
  5
708F
330
7086
100
AcDbEntity
  8
0
100
AcDbBlockEnd
  0
BLOCK
  5
709A
330
7091
100
AcDbEntity
  8
0
100
AcDbBlockBegin
  2
*D9
 70
     1
 10
0.0
 20
0.0
 30
0.0
  3
*D9
  1

  0
LINE
  5
71E2
330
7091
100
AcDbEntity
  8
寸法
  6
Continuous
 62
     4
370
    -2
100
AcDbLine
 10
800.9252157073124
 20
414.52916701213
 30
0.0
 11
800.9252157073124
 21
319.4113270464737
 31
0.0
  0
LINE
  5
71E3
330
7091
100
AcDbEntity
  8
寸法
  6
Continuous
 62
     4
370
    -2
100
AcDbLine
 10
726.9252157073106
 20
319.4113270464737
 30
0.0
 11
799.9252157073124
 21
319.4113270464737
 31
0.0
  0
INSERT
  5
71E4
330
7091
100
AcDbEntity
  8
寸法
  6
Continuous
 62
     4
370
    -2
100
AcDbBlockReference
  2
_Dot
 10
725.9252157073106
 20
319.4113270464737
 30
0.0
 50
180.0
  0
INSERT
  5
71E5
330
7091
100
AcDbEntity
  8
寸法
  6
Continuous
 62
     4
370
    -2
100
AcDbBlockReference
  2
_Dot
 10
800.9252157073124
 20
319.4113270464737
 30
0.0
  0
MTEXT
  5
71E6
330
7091
100
AcDbEntity
  8
寸法
  6
Continuous
 62
     3
100
AcDbMText
 10
763.4252157073115
 20
323.4113270464737
 30
0.0
 40
6.0
 41
0.0
 71
     5
 72
     1
  1
\A1;75≦
  7
ACAD
 73
     1
 44
1.0
1001
ACAD
1000
MTEXTBEGIN
1070
    73
1070
     1
1070
    44
1040
1.0
1070
    74
1070
     0
1000
MTEXTEND
  0
POINT
  5
71E7
330
7091
100
AcDbEntity
  8
Defpoints
  6
Continuous
 62
     0
100
AcDbPoint
 10
725.9252157073106
 20
319.4113270464737
 30
0.0
  0
POINT
  5
71E8
330
7091
100
AcDbEntity
  8
Defpoints
  6
Continuous
 62
     0
100
AcDbPoint
 10
800.9252157073124
 20
414.52916701213
 30
0.0
  0
POINT
  5
71E9
330
7091
100
AcDbEntity
  8
Defpoints
  6
Continuous
 62
     0
100
AcDbPoint
 10
800.9252157073124
 20
319.4113270464737
 30
0.0
  0
ENDBLK
  5
709B
330
7091
100
AcDbEntity
  8
0
100
AcDbBlockEnd
  0
BLOCK
  5
70A5
330
709D
100
AcDbEntity
  8
0
100
AcDbBlockBegin
  2
*D10
 70
     1
 10
0.0
 20
0.0
 30
0.0
  3
*D10
  1

  0
LINE
  5
71EA
330
709D
100
AcDbEntity
  8
寸法
  6
Continuous
 62
     4
370
    -2
100
AcDbLine
 10
724.925215707312
 20
399.4113270464737
 30
0.0
 11
676.9252157073119
 21
399.4113270464737
 31
0.0
  0
INSERT
  5
71EB
330
709D
100
AcDbEntity
  8
寸法
  6
Continuous
 62
     4
370
    -2
100
AcDbBlockReference
  2
_Dot
 10
725.9252157073119
 20
399.4113270464737
 30
0.0
  0
INSERT
  5
71EC
330
709D
100
AcDbEntity
  8
寸法
  6
Continuous
 62
     4
370
    -2
100
AcDbBlockReference
  2
_Dot
 10
675.9252157073119
 20
399.4113270464737
 30
0.0
 50
180.0
  0
MTEXT
  5
71ED
330
709D
100
AcDbEntity
  8
寸法
  6
Continuous
 62
     3
100
AcDbMText
 10
700.9252157073119
 20
403.4113270464736
 30
0.0
 40
6.0
 41
0.0
 71
     5
 72
     1
  1
\A1;50
  7
ACAD
 73
     1
 44
1.0
1001
ACAD
1000
MTEXTBEGIN
1070
    73
1070
     1
1070
    44
1040
1.0
1070
    74
1070
     0
1000
MTEXTEND
  0
POINT
  5
71EE
330
709D
100
AcDbEntity
  8
Defpoints
  6
Continuous
 62
     0
100
AcDbPoint
 10
725.9252157073119
 20
399.4113270464737
 30
0.0
  0
POINT
  5
71EF
330
709D
100
AcDbEntity
  8
Defpoints
  6
Continuous
 62
     0
100
AcDbPoint
 10
675.9252157073119
 20
399.4113270464737
 30
0.0
  0
POINT
  5
71F0
330
709D
100
AcDbEntity
  8
Defpoints
  6
Continuous
 62
     0
100
AcDbPoint
 10
675.9252157073119
 20
399.4113270464737
 30
0.0
  0
ENDBLK
  5
70A6
330
709D
100
AcDbEntity
  8
0
100
AcDbBlockEnd
  0
BLOCK
  5
70B0
330
70A8
100
AcDbEntity
  8
0
100
AcDbBlockBegin
  2
*D11
 70
     1
 10
0.0
 20
0.0
 30
0.0
  3
*D11
  1

  0
LINE
  5
71F1
330
70A8
100
AcDbEntity
  8
寸法
  6
Continuous
 62
     4
370
    -2
100
AcDbLine
 10
176.9252157073119
 20
399.4113270464737
 30
0.0
 11
224.9252157073121
 21
399.4113270464737
 31
0.0
  0
INSERT
  5
71F2
330
70A8
100
AcDbEntity
  8
寸法
  6
Continuous
 62
     4
370
    -2
100
AcDbBlockReference
  2
_Dot
 10
175.9252157073119
 20
399.4113270464737
 30
0.0
 50
180.0
  0
INSERT
  5
71F3
330
70A8
100
AcDbEntity
  8
寸法
  6
Continuous
 62
     4
370
    -2
100
AcDbBlockReference
  2
_Dot
 10
225.9252157073121
 20
399.4113270464737
 30
0.0
  0
MTEXT
  5
71F4
330
70A8
100
AcDbEntity
  8
寸法
  6
Continuous
 62
     3
100
AcDbMText
 10
200.925215707312
 20
403.4113270464736
 30
0.0
 40
6.0
 41
0.0
 71
     5
 72
     1
  1
\A1;50
  7
ACAD
 73
     1
 44
1.0
1001
ACAD
1000
MTEXTBEGIN
1070
    73
1070
     1
1070
    44
1040
1.0
1070
    74
1070
     0
1000
MTEXTEND
  0
POINT
  5
71F5
330
70A8
100
AcDbEntity
  8
Defpoints
  6
Continuous
 62
     0
100
AcDbPoint
 10
175.9252157073119
 20
399.4113270464737
 30
0.0
  0
POINT
  5
71F6
330
70A8
100
AcDbEntity
  8
Defpoints
  6
Continuous
 62
     0
100
AcDbPoint
 10
225.9252157073121
 20
399.4113270464737
 30
0.0
  0
POINT
  5
71F7
330
70A8
100
AcDbEntity
  8
Defpoints
  6
Continuous
 62
     0
100
AcDbPoint
 10
225.9252157073121
 20
399.4113270464737
 30
0.0
  0
ENDBLK
  5
70B1
330
70A8
100
AcDbEntity
  8
0
100
AcDbBlockEnd
  0
BLOCK
  5
70BD
330
70B3
100
AcDbEntity
  8
0
100
AcDbBlockBegin
  2
*D12
 70
     1
 10
0.0
 20
0.0
 30
0.0
  3
*D12
  1

  0
LINE
  5
71F8
330
70B3
100
AcDbEntity
  8
寸法
  6
Continuous
 62
     4
370
    -2
100
AcDbLine
 10
729.8890453295968
 20
459.4113270464734
 30
0.0
 11
840.9252157073124
 21
459.4113270464734
 31
0.0
  0
LINE
  5
71F9
330
70B3
100
AcDbEntity
  8
寸法
  6
Continuous
 62
     4
370
    -2
100
AcDbLine
 10
802.9252157073123
 20
416.52916701213
 30
0.0
 11
840.9252157073124
 21
416.52916701213
 31
0.0
  0
LINE
  5
71FA
330
70B3
100
AcDbEntity
  8
寸法
  6
Continuous
 62
     4
370
    -2
100
AcDbLine
 10
840.9252157073124
 20
458.4113270464733
 30
0.0
 11
840.9252157073124
 21
417.5291670121301
 31
0.0
  0
INSERT
  5
71FB
330
70B3
100
AcDbEntity
  8
寸法
  6
Continuous
 62
     4
370
    -2
100
AcDbBlockReference
  2
_Dot
 10
840.9252157073124
 20
459.4113270464734
 30
0.0
 50
90.0
  0
INSERT
  5
71FC
330
70B3
100
AcDbEntity
  8
寸法
  6
Continuous
 62
     4
370
    -2
100
AcDbBlockReference
  2
_Dot
 10
840.9252157073124
 20
416.52916701213
 30
0.0
 50
270.0
  0
MTEXT
  5
71FD
330
70B3
100
AcDbEntity
  8
寸法
  6
Continuous
 62
     3
100
AcDbMText
 10
836.9252157073123
 20
437.9702470293018
 30
0.0
 40
6.0
 41
0.0
 71
     5
 72
     1
  1
\A1;44
  7
ACAD
 11
0.0000000000000001
 21
1.0
 31
0.0
 73
     1
 44
1.0
1001
ACAD
1000
MTEXTBEGIN
1070
    73
1070
     1
1070
    44
1040
1.0
1070
    74
1070
     0
1000
MTEXTEND
  0
POINT
  5
71FE
330
70B3
100
AcDbEntity
  8
Defpoints
  6
Continuous
 62
     0
100
AcDbPoint
 10
729.8890453295968
 20
459.4113270464734
 30
0.0
  0
POINT
  5
71FF
330
70B3
100
AcDbEntity
  8
Defpoints
  6
Continuous
 62
     0
100
AcDbPoint
 10
802.9252157073123
 20
416.52916701213
 30
0.0
  0
POINT
  5
7200
330
70B3
100
AcDbEntity
  8
Defpoints
  6
Continuous
 62
     0
100
AcDbPoint
 10
840.9252157073124
 20
416.52916701213
 30
0.0
  0
ENDBLK
  5
70BE
330
70B3
100
AcDbEntity
  8
0
100
AcDbBlockEnd
  0
BLOCK
  5
70CA
330
70C0
100
AcDbEntity
  8
0
100
AcDbBlockBegin
  2
*D13
 70
     1
 10
0.0
 20
0.0
 30
0.0
  3
*D13
  1

  0
LINE
  5
7201
330
70C0
100
AcDbEntity
  8
寸法
  6
Continuous
 62
     4
370
    -2
100
AcDbLine
 10
802.9252157073123
 20
416.52916701213
 30
0.0
 11
861.0561038926809
 21
416.52916701213
 31
0.0
  0
LINE
  5
7202
330
70C0
100
AcDbEntity
  8
寸法
  6
Continuous
 62
     4
370
    -2
100
AcDbLine
 10
802.9252157073123
 20
506.5291670121297
 30
0.0
 11
861.0561038926809
 21
506.5291670121297
 31
0.0
  0
LINE
  5
7203
330
70C0
100
AcDbEntity
  8
寸法
  6
Continuous
 62
     4
370
    -2
100
AcDbLine
 10
861.0561038926809
 20
417.5291670121301
 30
0.0
 11
861.0561038926809
 21
505.5291670121297
 31
0.0
  0
INSERT
  5
7204
330
70C0
100
AcDbEntity
  8
寸法
  6
Continuous
 62
     4
370
    -2
100
AcDbBlockReference
  2
_Dot
 10
861.0561038926809
 20
416.52916701213
 30
0.0
 50
270.0
  0
INSERT
  5
7205
330
70C0
100
AcDbEntity
  8
寸法
  6
Continuous
 62
     4
370
    -2
100
AcDbBlockReference
  2
_Dot
 10
861.0561038926809
 20
506.5291670121297
 30
0.0
 50
90.0
  0
MTEXT
  5
7206
330
70C0
100
AcDbEntity
  8
寸法
  6
Continuous
 62
     3
100
AcDbMText
 10
857.0561038926808
 20
461.52916701213
 30
0.0
 40
6.0
 41
0.0
 71
     5
 72
     1
  1
\A1;90
  7
ACAD
 11
0.0000000000000001
 21
1.0
 31
0.0
 73
     1
 44
1.0
1001
ACAD
1000
MTEXTBEGIN
1070
    73
1070
     1
1070
    44
1040
1.0
1070
    74
1070
     0
1000
MTEXTEND
  0
POINT
  5
7207
330
70C0
100
AcDbEntity
  8
Defpoints
  6
Continuous
 62
     0
100
AcDbPoint
 10
802.9252157073123
 20
416.52916701213
 30
0.0
  0
POINT
  5
7208
330
70C0
100
AcDbEntity
  8
Defpoints
  6
Continuous
 62
     0
100
AcDbPoint
 10
802.9252157073123
 20
506.5291670121297
 30
0.0
  0
POINT
  5
7209
330
70C0
100
AcDbEntity
  8
Defpoints
  6
Continuous
 62
     0
100
AcDbPoint
 10
861.0561038926809
 20
506.5291670121297
 30
0.0
  0
ENDBLK
  5
70CB
330
70C0
100
AcDbEntity
  8
0
100
AcDbBlockEnd
  0
ENDSEC
  0
SECTION
  2
ENTITIES
  0
LINE
  5
6BF8
330
1E
100
AcDbEntity
  8
躯体と製品
  6
DASHED1
 62
     7
100
AcDbLine
 10
124.6050282043123
 20
501.2612531499502
 30
0.0
 11
130.044543064341
 21
501.5463260441414
 31
0.0
  0
LINE
  5
6BF9
330
1E
100
AcDbEntity
  8
躯体と製品
  6
Continuous
 62
     3
100
AcDbLine
 10
131.3637645858484
 20
476.3740798708669
 30
0.0
 11
129.8983578110459
 21
504.3357068439949
 31
0.0
  0
LINE
  5
6BFA
330
1E
100
AcDbEntity
  8
図枠
  6
Continuous
 62
     7
100
AcDbLine
 10
882.5252157073125
 20
643.4113270464734
 30
0.0
 11
58.52521570731227
 21
643.4113270464734
 31
0.0
  0
LINE
  5
6BFB
330
1E
100
AcDbEntity
  8
図枠
  6
Continuous
 62
     7
100
AcDbLine
 10
882.5252157073125
 20
67.41132704647367
 30
0.0
 11
882.5252157073125
 21
643.4113270464734
 31
0.0
  0
LINE
  5
6BFC
330
1E
100
AcDbEntity
  8
図枠
  6
Continuous
 62
     7
100
AcDbLine
 10
58.52521570731227
 20
67.41132704647367
 30
0.0
 11
882.5252157073125
 21
67.41132704647367
 31
0.0
  0
LINE
  5
6BFD
330
1E
100
AcDbEntity
  8
図枠
  6
Continuous
 62
     7
100
AcDbLine
 10
58.52521570731227
 20
643.4113270464734
 30
0.0
 11
58.52521570731227
 21
67.41132704647367
 31
0.0
  0
LINE
  5
6BFE
330
1E
100
AcDbEntity
  8
躯体と製品
  6
Continuous
 62
     3
100
AcDbLine
 10
664.9252157073123
 20
477.6983887833834
 30
0.0
 11
664.9252157073123
 21
470.4113270464733
 31
0.0
  0
LINE
  5
6BFF
330
1E
100
AcDbEntity
  8
躯体と製品
  6
Continuous
 62
     3
100
AcDbLine
 10
659.925215707312
 20
468.3113270464733
 30
0.0
 11
664.425215707312
 21
468.3113270464733
 31
0.0
  0
LINE
  5
6C00
330
1E
100
AcDbEntity
  8
躯体と製品
  6
Continuous
 62
     3
100
AcDbLine
 10
659.925215707312
 20
468.3113270464733
 30
0.0
 11
659.925215707312
 21
469.9113270464733
 31
0.0
  0
LINE
  5
6C01
330
1E
100
AcDbEntity
  8
躯体と製品
  6
Continuous
 62
     3
100
AcDbLine
 10
659.925215707312
 20
469.9113270464733
 30
0.0
 11
664.425215707312
 21
469.9113270464733
 31
0.0
  0
ARC
  5
6C02
330
1E
100
AcDbEntity
  8
躯体と製品
  6
Continuous
 62
     3
100
AcDbCircle
 10
664.425215707312
 20
470.4113270464733
 30
0.0
 40
2.1
100
AcDbArc
 50
270.0
 51
0.0
  0
ARC
  5
6C03
330
1E
100
AcDbEntity
  8
躯体と製品
  6
Continuous
 62
     3
100
AcDbCircle
 10
664.425215707312
 20
470.4113270464733
 30
0.0
 40
0.5
100
AcDbArc
 50
270.0
 51
0.0
  0
LINE
  5
6C04
330
1E
100
AcDbEntity
  8
躯体と製品
  6
Continuous
 62
     3
100
AcDbLine
 10
691.9252157073123
 20
468.3113270464733
 30
0.0
 11
687.4252157073122
 21
468.3113270464733
 31
0.0
  0
LINE
  5
6C05
330
1E
100
AcDbEntity
  8
躯体と製品
  6
Continuous
 62
     3
100
AcDbLine
 10
687.4252157073122
 20
469.9113270464733
 30
0.0
 11
691.9252157073123
 21
469.9113270464733
 31
0.0
  0
LINE
  5
6C06
330
1E
100
AcDbEntity
  8
躯体と製品
  6
Continuous
 62
     3
100
AcDbLine
 10
691.9252157073123
 20
469.9113270464733
 30
0.0
 11
691.9252157073123
 21
468.3113270464733
 31
0.0
  0
ARC
  5
6C07
330
1E
100
AcDbEntity
  8
躯体と製品
  6
Continuous
 62
     3
100
AcDbCircle
 10
687.4252157073122
 20
470.4113270464733
 30
0.0
 40
2.1
100
AcDbArc
 50
180.0
 51
270.0
  0
ARC
  5
6C08
330
1E
100
AcDbEntity
  8
躯体と製品
  6
Continuous
 62
     3
100
AcDbCircle
 10
687.4252157073122
 20
470.4113270464733
 30
0.0
 40
0.5
100
AcDbArc
 50
180.0
 51
270.0
  0
LINE
  5
6C09
330
1E
100
AcDbEntity
  8
躯体と製品
  6
Continuous
 62
     3
100
AcDbLine
 10
666.5252157073125
 20
477.6983887833834
 30
0.0
 11
666.5252157073125
 21
470.4113270464733
 31
0.0
  0
ARC
  5
6C0A
330
1E
100
AcDbEntity
  8
躯体と製品
  6
Continuous
 62
     3
100
AcDbCircle
 10
667.0252157073125
 20
477.6983887833834
 30
0.0
 40
0.5
100
AcDbArc
 50
87.00000000000009
 51
180.0
  0
LINE
  5
6C0B
330
1E
100
AcDbEntity
  8
躯体と製品
  6
Continuous
 62
     3
100
AcDbLine
 10
685.3252157073125
 20
476.7655303121453
 30
0.0
 11
685.3252157073125
 21
470.4113270464733
 31
0.0
  0
ARC
  5
6C0C
330
1E
100
AcDbEntity
  8
躯体と製品
  6
Continuous
 62
     3
100
AcDbCircle
 10
684.8252157073122
 20
476.7655303121453
 30
0.0
 40
0.5
100
AcDbArc
 50
0.0
 51
87.00000000000009
  0
ARC
  5
6C0D
330
1E
100
AcDbEntity
  8
躯体と製品
  6
Continuous
 62
     3
100
AcDbCircle
 10
667.0252157073125
 20
477.6983887833834
 30
0.0
 40
2.1
100
AcDbArc
 50
87.00000000000009
 51
180.0
  0
LINE
  5
6C0E
330
1E
100
AcDbEntity
  8
躯体と製品
  6
Continuous
 62
     3
100
AcDbLine
 10
686.9252157073122
 20
476.7655303121453
 30
0.0
 11
686.9252157073122
 21
470.4113270464733
 31
0.0
  0
ARC
  5
6C0F
330
1E
100
AcDbEntity
  8
躯体と製品
  6
Continuous
 62
     3
100
AcDbCircle
 10
684.8252157073122
 20
476.7655303121453
 30
0.0
 40
2.1
100
AcDbArc
 50
0.0
 51
87.00000000000009
  0
LINE
  5
6C10
330
1E
100
AcDbEntity
  8
躯体と製品
  6
Continuous
 62
     3
100
AcDbLine
 10
680.3305021247084
 20
475.4990297505261
 30
0.0
 11
671.1431104049668
 21
475.9805205479612
 31
0.0
  0
LINE
  5
6C11
330
1E
100
AcDbEntity
  8
躯体と製品
  6
Continuous
 62
     3
100
AcDbLine
 10
671.1954463612094
 20
476.9791500827157
 30
0.0
 11
671.1431104049668
 21
475.9805205479612
 31
0.0
  0
ARC
  5
6C12
330
1E
100
AcDbEntity
  8
躯体と製品
  6
Continuous
 62
     3
100
AcDbCircle
 10
670.1968168264551
 20
477.0314860389586
 30
0.0
 40
1.0
100
AcDbArc
 50
357.0000000000001
 51
87.00000000000009
  0
LINE
  5
6C13
330
1E
100
AcDbEntity
  8
躯体と製品
  6
Continuous
 62
     3
100
AcDbLine
 10
680.3828380809514
 20
476.4976592852806
 30
0.0
 11
680.3305021247084
 21
475.4990297505261
 31
0.0
  0
ARC
  5
6C14
330
1E
100
AcDbEntity
  8
躯体と製品
  6
Continuous
 62
     3
100
AcDbCircle
 10
681.3814676157059
 20
476.4453233290375
 30
0.0
 40
1.0
100
AcDbArc
 50
87.00000000000009
 51
177.0000000000001
  0
LINE
  5
6C15
330
1E
100
AcDbEntity
  8
躯体と製品
  6
Continuous
 62
     3
100
AcDbLine
 10
684.8513836854333
 20
477.2648450795226
 30
0.0
 11
667.0513836854334
 21
478.1977035507606
 31
0.0
  0
LINE
  5
6C16
330
1E
100
AcDbEntity
  8
躯体と製品
  6
Continuous
 62
     3
100
AcDbLine
 10
684.9351212154222
 20
478.8626523351299
 30
0.0
 11
667.1351212154225
 21
479.7955108063681
 31
0.0
  0
LINE
  5
6C17
330
1E
100
AcDbEntity
  8
躯体と製品
  6
DASHED1
 62
     7
100
AcDbLine
 10
672.9293271030483
 20
479.4918493430887
 30
0.0
 11
672.7409176605738
 21
475.8967830179721
 31
0.0
  0
LINE
  5
6C18
330
1E
100
AcDbEntity
  8
躯体と製品
  6
DASHED1
 62
     7
100
AcDbLine
 10
678.9211043115757
 20
479.1778336056311
 30
0.0
 11
678.7326948691013
 21
475.5827672805149
 31
0.0
  0
LINE
  5
6C19
330
1E
100
AcDbEntity
  8
躯体と製品
  6
Continuous
 62
     4
100
AcDbLine
 10
661.9252157073122
 20
469.9113270464733
 30
0.0
 11
661.9252157073122
 21
468.3113270464733
 31
0.0
  0
LINE
  5
6C1A
330
1E
100
AcDbEntity
  8
躯体と製品
  6
Continuous
 62
     4
100
AcDbLine
 10
689.9252157073123
 20
469.9113270464733
 30
0.0
 11
689.9252157073123
 21
468.3113270464733
 31
0.0
  0
LINE
  5
6C1B
330
1E
100
AcDbEntity
  8
躯体と製品
  6
DASHED1
 62
     7
100
AcDbLine
 10
679.9752157073124
 20
461.4113270464733
 30
0.0
 11
679.9752157073124
 21
452.1113270464733
 31
0.0
  0
LINE
  5
6C1C
330
1E
100
AcDbEntity
  8
躯体と製品
  6
DASHED1
 62
     7
100
AcDbLine
 10
671.8752157073122
 20
461.4113270464733
 30
0.0
 11
671.8752157073122
 21
452.1113270464733
 31
0.0
  0
LINE
  5
6C1D
330
1E
100
AcDbEntity
  8
躯体と製品
  6
DASHED1
 62
     7
100
AcDbLine
 10
680.6752157073122
 20
451.4113270464734
 30
0.0
 11
679.9752157073124
 21
452.1113270464733
 31
0.0
  0
LINE
  5
6C1E
330
1E
100
AcDbEntity
  8
躯体と製品
  6
DASHED1
 62
     7
100
AcDbLine
 10
680.6752157073122
 20
432.7831530464734
 30
0.0
 11
680.6752157073122
 21
451.4113270464734
 31
0.0
  0
LINE
  5
6C1F
330
1E
100
AcDbEntity
  8
躯体と製品
  6
DASHED1
 62
     7
100
AcDbLine
 10
680.4252157073119
 20
420.9113270464734
 30
0.0
 11
680.4252157073119
 21
421.7746310464733
 31
0.0
  0
LINE
  5
6C20
330
1E
100
AcDbEntity
  8
躯体と製品
  6
DASHED1
 62
     7
100
AcDbLine
 10
682.550245707312
 20
422.1493310464733
 30
0.0
 11
680.6752157073122
 21
432.7831530464734
 31
0.0
  0
LINE
  5
6C21
330
1E
100
AcDbEntity
  8
躯体と製品
  6
DASHED1
 62
     7
100
AcDbLine
 10
676.425215707312
 20
432.4113270464734
 30
0.0
 11
675.4252157073123
 21
432.4113270464734
 31
0.0
  0
LINE
  5
6C22
330
1E
100
AcDbEntity
  8
躯体と製品
  6
DASHED1
 62
     7
100
AcDbLine
 10
671.1752157073123
 20
451.4113270464734
 30
0.0
 11
671.8752157073122
 21
452.1113270464733
 31
0.0
  0
LINE
  5
6C23
330
1E
100
AcDbEntity
  8
躯体と製品
  6
DASHED1
 62
     7
100
AcDbLine
 10
671.1752157073123
 20
432.7831530464734
 30
0.0
 11
671.1752157073123
 21
451.4113270464734
 31
0.0
  0
LINE
  5
6C24
330
1E
100
AcDbEntity
  8
躯体と製品
  6
DASHED1
 62
     7
100
AcDbLine
 10
672.425215707312
 20
419.9113270464734
 30
0.0
 11
679.4252157073123
 21
419.9113270464734
 31
0.0
  0
ARC
  5
6C25
330
1E
100
AcDbEntity
  8
躯体と製品
  6
DASHED1
 62
     7
100
AcDbCircle
 10
672.425215707312
 20
420.9113270464734
 30
0.0
 40
1.0
100
AcDbArc
 50
180.0
 51
270.0
  0
LINE
  5
6C26
330
1E
100
AcDbEntity
  8
躯体と製品
  6
DASHED1
 62
     7
100
AcDbLine
 10
671.4252157073119
 20
420.9113270464734
 30
0.0
 11
671.4252157073119
 21
421.7746310464733
 31
0.0
  0
LINE
  5
6C27
330
1E
100
AcDbEntity
  8
躯体と製品
  6
DASHED1
 62
     7
100
AcDbLine
 10
669.3001857073125
 20
422.1493310464733
 30
0.0
 11
673.4856187073121
 21
421.4113270464734
 31
0.0
  0
LINE
  5
6C28
330
1E
100
AcDbEntity
  8
躯体と製品
  6
DASHED1
 62
     7
100
AcDbLine
 10
676.425215707312
 20
432.4113270464734
 30
0.0
 11
678.3648127073123
 21
421.4113270464734
 31
0.0
  0
LINE
  5
6C29
330
1E
100
AcDbEntity
  8
躯体と製品
  6
DASHED1
 62
     7
100
AcDbLine
 10
675.4252157073123
 20
432.4113270464734
 30
0.0
 11
673.4856187073121
 21
421.4113270464734
 31
0.0
  0
LINE
  5
6C2A
330
1E
100
AcDbEntity
  8
躯体と製品
  6
DASHED1
 62
     7
100
AcDbLine
 10
669.3001857073125
 20
422.1493310464733
 30
0.0
 11
671.1752157073123
 21
432.7831530464734
 31
0.0
  0
LINE
  5
6C2B
330
1E
100
AcDbEntity
  8
躯体と製品
  6
DASHED1
 62
     7
100
AcDbLine
 10
680.6752157073122
 20
451.4113270464734
 30
0.0
 11
671.1752157073123
 21
451.4113270464734
 31
0.0
  0
LINE
  5
6C2C
330
1E
100
AcDbEntity
  8
躯体と製品
  6
DASHED1
 62
     7
100
AcDbLine
 10
679.9752157073124
 20
452.1113270464733
 30
0.0
 11
671.8752157073122
 21
452.1113270464733
 31
0.0
  0
LINE
  5
6C2D
330
1E
100
AcDbEntity
  8
躯体と製品
  6
DASHED1
 62
     7
100
AcDbLine
 10
682.550245707312
 20
422.1493310464733
 30
0.0
 11
678.3648127073123
 21
421.4113270464734
 31
0.0
  0
ARC
  5
6C2E
330
1E
100
AcDbEntity
  8
躯体と製品
  6
DASHED1
 62
     7
100
AcDbCircle
 10
679.4252157073123
 20
420.9113270464734
 30
0.0
 40
1.0
100
AcDbArc
 50
270.0
 51
0.0
  0
ARC
  5
6C2F
330
1E
100
AcDbEntity
  8
躯体と製品
  6
Continuous
 62
     3
100
AcDbCircle
 10
704.4825259738948
 20
464.4113270464734
 30
0.0
 40
0.5
100
AcDbArc
 50
270.0
 51
349.9999999999998
  0
LINE
  5
6C30
330
1E
100
AcDbEntity
  8
躯体と製品
  6
Continuous
 62
     3
100
AcDbLine
 10
704.4825259738948
 20
463.9113270464734
 30
0.0
 11
701.4362461382376
 21
463.9113270464734
 31
0.0
  0
LINE
  5
6C31
330
1E
100
AcDbEntity
  8
躯体と製品
  6
Continuous
 62
     3
100
AcDbLine
 10
704.9749298504012
 20
464.32450295764
 30
0.0
 11
705.3821245219613
 21
466.6338186955045
 31
0.0
  0
ARC
  5
6C32
330
1E
100
AcDbEntity
  8
躯体と製品
  6
Continuous
 62
     3
100
AcDbCircle
 10
701.4362461382376
 20
464.4113270464734
 30
0.0
 40
0.5
100
AcDbArc
 50
169.9999999999997
 51
270.0
  0
LINE
  5
6C33
330
1E
100
AcDbEntity
  8
躯体と製品
  6
Continuous
 62
     3
100
AcDbLine
 10
700.9438422617313
 20
464.4981511353069
 30
0.0
 11
701.4428935099124
 21
467.3284114061719
 31
0.0
  0
ARC
  5
6C34
330
1E
100
AcDbEntity
  8
躯体と製品
  6
Continuous
 62
     3
100
AcDbCircle
 10
698.8976796085234
 20
464.4113270464734
 30
0.0
 40
0.5
100
AcDbArc
 50
270.0
 51
349.9999999999998
  0
LINE
  5
6C35
330
1E
100
AcDbEntity
  8
躯体と製品
  6
Continuous
 62
     3
100
AcDbLine
 10
698.8976796085234
 20
463.9113270464734
 30
0.0
 11
694.9252157073122
 21
463.9113270464734
 31
0.0
  0
LINE
  5
6C36
330
1E
100
AcDbEntity
  8
躯体と製品
  6
Continuous
 62
     3
100
AcDbLine
 10
699.3900834850293
 20
464.32450295764
 30
0.0
 11
700.5300384578114
 21
470.7895088699621
 31
0.0
  0
LINE
  5
6C37
330
1E
100
AcDbEntity
  8
躯体と製品
  6
Continuous
 62
     3
100
AcDbLine
 10
701.6165416875792
 20
468.3132191591845
 30
0.0
 11
701.1241378110733
 21
468.4000432480178
 31
0.0
  0
LINE
  5
6C38
330
1E
100
AcDbEntity
  8
躯体と製品
  6
Continuous
 62
     3
100
AcDbLine
 10
706.048176576134
 20
467.5318023596831
 30
0.0
 11
705.5557726996276
 21
467.6186264485163
 31
0.0
  0
LINE
  5
6C39
330
1E
100
AcDbEntity
  8
躯体と製品
  6
Continuous
 62
     3
100
AcDbLine
 10
701.7901898652462
 20
469.2980269121964
 30
0.0
 11
701.29778598874
 21
469.3848510010301
 31
0.0
  0
LINE
  5
6C3A
330
1E
100
AcDbEntity
  8
躯体と製品
  6
Continuous
 62
     3
100
AcDbLine
 10
706.2218247538011
 20
468.5166101126953
 30
0.0
 11
705.7294208772949
 21
468.6034342015289
 31
0.0
  0
LINE
  5
6C3B
330
1E
100
AcDbEntity
  8
躯体と製品
  6
Continuous
 62
     3
100
AcDbLine
 10
706.425215707312
 20
463.9113270464734
 30
0.0
 11
707.423692728897
 21
469.5739716262934
 31
0.0
  0
LINE
  5
6C3C
330
1E
100
AcDbEntity
  8
躯体と製品
  6
Continuous
 62
     3
100
AcDbLine
 10
705.7294208772949
 20
468.6034342015289
 30
0.0
 11
705.9464810993787
 21
469.8344438927941
 31
0.0
  0
LINE
  5
6C3D
330
1E
100
AcDbEntity
  8
躯体と製品
  6
Continuous
 62
     3
100
AcDbLine
 10
701.7901898652462
 20
469.2980269121964
 30
0.0
 11
702.0072500873298
 21
470.5290366034617
 31
0.0
  0
LINE
  5
6C3E
330
1E
100
AcDbEntity
  8
躯体と製品
  6
Continuous
 62
     3
100
AcDbLine
 10
706.048176576134
 20
467.5318023596831
 30
0.0
 11
705.3821245219613
 21
466.6338186955045
 31
0.0
  0
LINE
  5
6C3F
330
1E
100
AcDbEntity
  8
躯体と製品
  6
Continuous
 62
     3
100
AcDbLine
 10
706.2218247538011
 20
468.5166101126953
 30
0.0
 11
705.5557726996276
 21
467.6186264485163
 31
0.0
  0
ARC
  5
6C40
330
1E
100
AcDbEntity
  8
躯体と製品
  6
Continuous
 62
     3
100
AcDbCircle
 10
701.2686442725708
 20
470.6592727367119
 30
0.0
 40
0.7500000000000014
100
AcDbArc
 50
349.9999999999998
 51
169.9999999999997
  0
ARC
  5
6C41
330
1E
100
AcDbEntity
  8
躯体と製品
  6
Continuous
 62
     3
100
AcDbCircle
 10
706.6850869141378
 20
469.7042077595437
 30
0.0
 40
0.7499999999999977
100
AcDbArc
 50
349.9999999999998
 51
169.9999999999997
  0
LINE
  5
6C42
330
1E
100
AcDbEntity
  8
躯体と製品
  6
Continuous
 62
     3
100
AcDbLine
 10
706.425215707312
 20
461.4113270464733
 30
0.0
 11
706.425215707312
 21
463.9113270464734
 31
0.0
  0
LINE
  5
6C43
330
1E
100
AcDbEntity
  8
躯体と製品
  6
Continuous
 62
     3
100
AcDbLine
 10
657.9252157073122
 20
461.4113270464733
 30
0.0
 11
659.4252157073119
 21
461.4113270464733
 31
0.0
  0
LINE
  5
6C44
330
1E
100
AcDbEntity
  8
躯体と製品
  6
Continuous
 62
     3
100
AcDbLine
 10
659.4252157073119
 20
461.4113270464733
 30
0.0
 11
659.4252157073119
 21
461.9113270464733
 31
0.0
  0
LINE
  5
6C45
330
1E
100
AcDbEntity
  8
躯体と製品
  6
Continuous
 62
     3
100
AcDbLine
 10
659.4252157073119
 20
461.9113270464733
 30
0.0
 11
670.9252157073123
 21
461.9113270464733
 31
0.0
  0
LINE
  5
6C46
330
1E
100
AcDbEntity
  8
躯体と製品
  6
Continuous
 62
     3
100
AcDbLine
 10
670.9252157073123
 20
461.9113270464733
 30
0.0
 11
670.9252157073123
 21
461.4113270464733
 31
0.0
  0
ARC
  5
6C47
330
1E
100
AcDbEntity
  8
躯体と製品
  6
Continuous
 62
     3
100
AcDbCircle
 10
662.675215707312
 20
470.6613270464734
 30
0.0
 40
0.75
100
AcDbArc
 50
270.0
 51
90.0
  0
ARC
  5
6C48
330
1E
100
AcDbEntity
  8
躯体と製品
  6
Continuous
 62
     3
100
AcDbCircle
 10
661.6752157073119
 20
466.6613270464734
 30
0.0
 40
0.75
100
AcDbArc
 50
270.0
 51
90.0
  0
ARC
  5
6C49
330
1E
100
AcDbEntity
  8
躯体と製品
  6
Continuous
 62
     3
100
AcDbCircle
 10
659.7252157073125
 20
469.6113270464733
 30
0.0
 40
0.2999999999999998
100
AcDbArc
 50
90.0
 51
180.0
  0
LINE
  5
6C4A
330
1E
100
AcDbEntity
  8
躯体と製品
  6
Continuous
 62
     3
100
AcDbLine
 10
659.7252157073125
 20
469.9113270464733
 30
0.0
 11
662.675215707312
 21
469.9113270464733
 31
0.0
  0
LINE
  5
6C4B
330
1E
100
AcDbEntity
  8
躯体と製品
  6
Continuous
 62
     3
100
AcDbLine
 10
659.7252157073125
 20
467.4113270464734
 30
0.0
 11
661.6752157073119
 21
467.4113270464734
 31
0.0
  0
ARC
  5
6C4C
330
1E
100
AcDbEntity
  8
躯体と製品
  6
Continuous
 62
     3
100
AcDbCircle
 10
659.7252157073125
 20
467.7113270464735
 30
0.0
 40
0.2999999999999998
100
AcDbArc
 50
180.0
 51
270.0
  0
LINE
  5
6C4D
330
1E
100
AcDbEntity
  8
躯体と製品
  6
Continuous
 62
     3
100
AcDbLine
 10
659.4252157073119
 20
467.7113270464735
 30
0.0
 11
659.4252157073119
 21
469.6113270464733
 31
0.0
  0
ARC
  5
6C4E
330
1E
100
AcDbEntity
  8
躯体と製品
  6
Continuous
 62
     3
100
AcDbCircle
 10
659.7252157073125
 20
465.6113270464733
 30
0.0
 40
0.2999999999999998
100
AcDbArc
 50
90.0
 51
180.0
  0
LINE
  5
6C4F
330
1E
100
AcDbEntity
  8
躯体と製品
  6
Continuous
 62
     3
100
AcDbLine
 10
659.7252157073125
 20
465.9113270464733
 30
0.0
 11
661.6752157073119
 21
465.9113270464733
 31
0.0
  0
ARC
  5
6C50
330
1E
100
AcDbEntity
  8
躯体と製品
  6
Continuous
 62
     3
100
AcDbCircle
 10
659.7252157073125
 20
464.2113270464734
 30
0.0
 40
0.2999999999999998
100
AcDbArc
 50
180.0
 51
270.0
  0
LINE
  5
6C51
330
1E
100
AcDbEntity
  8
躯体と製品
  6
Continuous
 62
     3
100
AcDbLine
 10
659.4252157073119
 20
464.2113270464734
 30
0.0
 11
659.4252157073119
 21
465.6113270464733
 31
0.0
  0
LINE
  5
6C52
330
1E
100
AcDbEntity
  8
躯体と製品
  6
Continuous
 62
     3
100
AcDbLine
 10
658.4252157073123
 20
471.4113270464734
 30
0.0
 11
662.675215707312
 21
471.4113270464734
 31
0.0
  0
ARC
  5
6C53
330
1E
100
AcDbEntity
  8
躯体と製品
  6
Continuous
 62
     3
100
AcDbCircle
 10
658.4252157073123
 20
470.9113270464733
 30
0.0
 40
0.5
100
AcDbArc
 50
90.0
 51
180.0
  0
LINE
  5
6C54
330
1E
100
AcDbEntity
  8
躯体と製品
  6
Continuous
 62
     3
100
AcDbLine
 10
657.9252157073122
 20
470.9113270464733
 30
0.0
 11
657.9252157073122
 21
461.4113270464733
 31
0.0
  0
LINE
  5
6C55
330
1E
100
AcDbEntity
  8
躯体と製品
  6
Continuous
 62
     3
100
AcDbLine
 10
670.9252157073123
 20
461.4113270464733
 30
0.0
 11
680.925215707312
 21
461.4113270464733
 31
0.0
  0
LINE
  5
6C56
330
1E
100
AcDbEntity
  8
躯体と製品
  6
Continuous
 62
     3
100
AcDbLine
 10
676.425215707312
 20
463.9113270464734
 30
0.0
 11
692.1252157073123
 21
463.9113270464734
 31
0.0
  0
LINE
  5
6C57
330
1E
100
AcDbEntity
  8
躯体と製品
  6
Continuous
 62
     3
100
AcDbLine
 10
659.7252157073125
 20
463.9113270464734
 30
0.0
 11
675.4252157073123
 21
463.9113270464734
 31
0.0
  0
LINE
  5
6C58
330
1E
100
AcDbEntity
  8
躯体と製品
  6
Continuous
 62
     3
100
AcDbLine
 10
680.925215707312
 20
461.4113270464733
 30
0.0
 11
680.925215707312
 21
461.9113270464733
 31
0.0
  0
LINE
  5
6C59
330
1E
100
AcDbEntity
  8
躯体と製品
  6
Continuous
 62
     3
100
AcDbLine
 10
680.925215707312
 20
461.9113270464733
 30
0.0
 11
692.4252157073119
 21
461.9113270464733
 31
0.0
  0
LINE
  5
6C5A
330
1E
100
AcDbEntity
  8
躯体と製品
  6
Continuous
 62
     3
100
AcDbLine
 10
692.4252157073119
 20
461.9113270464733
 30
0.0
 11
692.4252157073119
 21
461.4113270464733
 31
0.0
  0
LINE
  5
6C5B
330
1E
100
AcDbEntity
  8
躯体と製品
  6
Continuous
 62
     3
100
AcDbLine
 10
692.4252157073119
 20
461.4113270464733
 30
0.0
 11
694.4252157073123
 21
461.4113270464733
 31
0.0
  0
ARC
  5
6C5C
330
1E
100
AcDbEntity
  8
躯体と製品
  6
Continuous
 62
     3
100
AcDbCircle
 10
693.425215707312
 20
479.4113270464733
 30
0.0
 40
1.0
100
AcDbArc
 50
0.0
 51
180.0
  0
LINE
  5
6C5D
330
1E
100
AcDbEntity
  8
躯体と製品
  6
Continuous
 62
     3
100
AcDbLine
 10
704.9252157073119
 20
462.4113270464733
 30
0.0
 11
704.9252157073119
 21
461.4113270464733
 31
0.0
  0
LINE
  5
6C5E
330
1E
100
AcDbEntity
  8
躯体と製品
  6
Continuous
 62
     3
100
AcDbLine
 10
704.9252157073119
 20
461.4113270464733
 30
0.0
 11
706.425215707312
 21
461.4113270464733
 31
0.0
  0
LINE
  5
6C5F
330
1E
100
AcDbEntity
  8
躯体と製品
  6
Continuous
 62
     3
100
AcDbLine
 10
675.9252157073119
 20
463.4113270464734
 30
0.0
 11
676.425215707312
 21
463.9113270464734
 31
0.0
  0
LINE
  5
6C60
330
1E
100
AcDbEntity
  8
躯体と製品
  6
Continuous
 62
     3
100
AcDbLine
 10
694.4252157073123
 20
461.4113270464733
 30
0.0
 11
694.4252157073123
 21
462.4113270464733
 31
0.0
  0
LINE
  5
6C61
330
1E
100
AcDbEntity
  8
躯体と製品
  6
Continuous
 62
     3
100
AcDbLine
 10
694.4252157073123
 20
462.4113270464733
 30
0.0
 11
704.9252157073119
 21
462.4113270464733
 31
0.0
  0
LINE
  5
6C62
330
1E
100
AcDbEntity
  8
躯体と製品
  6
Continuous
 62
     3
100
AcDbLine
 10
694.4252157073123
 20
464.4113270464734
 30
0.0
 11
694.4252157073123
 21
479.4113270464733
 31
0.0
  0
ARC
  5
6C63
330
1E
100
AcDbEntity
  8
躯体と製品
  6
Continuous
 62
     3
100
AcDbCircle
 10
694.9252157073122
 20
464.4113270464734
 30
0.0
 40
0.5
100
AcDbArc
 50
180.0
 51
270.0
  0
ARC
  5
6C64
330
1E
100
AcDbEntity
  8
躯体と製品
  6
Continuous
 62
     3
100
AcDbCircle
 10
692.1252157073123
 20
464.2113270464734
 30
0.0
 40
0.2999999999999998
100
AcDbArc
 50
270.0
 51
0.0
  0
LINE
  5
6C65
330
1E
100
AcDbEntity
  8
躯体と製品
  6
Continuous
 62
     3
100
AcDbLine
 10
691.9252157073123
 20
471.4113270464734
 30
0.0
 11
689.1752157073122
 21
471.4113270464734
 31
0.0
  0
ARC
  5
6C66
330
1E
100
AcDbEntity
  8
躯体と製品
  6
Continuous
 62
     3
100
AcDbCircle
 10
691.9252157073123
 20
471.9113270464734
 30
0.0
 40
0.5
100
AcDbArc
 50
270.0
 51
0.0
  0
LINE
  5
6C67
330
1E
100
AcDbEntity
  8
躯体と製品
  6
Continuous
 62
     3
100
AcDbLine
 10
692.4252157073119
 20
471.9113270464734
 30
0.0
 11
692.4252157073119
 21
479.4113270464733
 31
0.0
  0
ARC
  5
6C68
330
1E
100
AcDbEntity
  8
躯体と製品
  6
Continuous
 62
     3
100
AcDbCircle
 10
689.1752157073122
 20
470.6613270464734
 30
0.0
 40
0.75
100
AcDbArc
 50
90.0
 51
270.0
  0
ARC
  5
6C69
330
1E
100
AcDbEntity
  8
躯体と製品
  6
Continuous
 62
     3
100
AcDbCircle
 10
690.1752157073119
 20
466.6613270464734
 30
0.0
 40
0.75
100
AcDbArc
 50
90.0
 51
270.0
  0
LINE
  5
6C6A
330
1E
100
AcDbEntity
  8
躯体と製品
  6
Continuous
 62
     3
100
AcDbLine
 10
692.1252157073123
 20
465.9113270464733
 30
0.0
 11
690.1752157073119
 21
465.9113270464733
 31
0.0
  0
ARC
  5
6C6B
330
1E
100
AcDbEntity
  8
躯体と製品
  6
Continuous
 62
     3
100
AcDbCircle
 10
692.1252157073123
 20
465.6113270464733
 30
0.0
 40
0.2999999999999998
100
AcDbArc
 50
0.0
 51
90.0
  0
LINE
  5
6C6C
330
1E
100
AcDbEntity
  8
躯体と製品
  6
Continuous
 62
     3
100
AcDbLine
 10
692.4252157073119
 20
465.6113270464733
 30
0.0
 11
692.4252157073119
 21
464.2113270464734
 31
0.0
  0
LINE
  5
6C6D
330
1E
100
AcDbEntity
  8
躯体と製品
  6
Continuous
 62
     3
100
AcDbLine
 10
692.1252157073123
 20
467.4113270464734
 30
0.0
 11
690.1752157073119
 21
467.4113270464734
 31
0.0
  0
ARC
  5
6C6E
330
1E
100
AcDbEntity
  8
躯体と製品
  6
Continuous
 62
     3
100
AcDbCircle
 10
692.1252157073123
 20
467.7113270464735
 30
0.0
 40
0.2999999999999998
100
AcDbArc
 50
270.0
 51
0.0
  0
LINE
  5
6C6F
330
1E
100
AcDbEntity
  8
躯体と製品
  6
Continuous
 62
     3
100
AcDbLine
 10
692.4252157073119
 20
469.6113270464733
 30
0.0
 11
692.4252157073119
 21
467.7113270464735
 31
0.0
  0
ARC
  5
6C70
330
1E
100
AcDbEntity
  8
躯体と製品
  6
Continuous
 62
     3
100
AcDbCircle
 10
692.1252157073123
 20
469.6113270464733
 30
0.0
 40
0.2999999999999998
100
AcDbArc
 50
0.0
 51
90.0
  0
LINE
  5
6C71
330
1E
100
AcDbEntity
  8
躯体と製品
  6
Continuous
 62
     3
100
AcDbLine
 10
692.1252157073123
 20
469.9113270464733
 30
0.0
 11
689.1752157073122
 21
469.9113270464733
 31
0.0
  0
LINE
  5
6C72
330
1E
100
AcDbEntity
  8
躯体と製品
  6
Continuous
 62
     3
100
AcDbLine
 10
675.9252157073119
 20
463.4113270464734
 30
0.0
 11
675.4252157073123
 21
463.9113270464734
 31
0.0
  0
LINE
  5
6C73
330
1E
100
AcDbEntity
  8
躯体と製品
  6
Continuous
 62
     3
100
AcDbLine
 10
701.1241378110733
 20
468.4000432480178
 30
0.0
 11
701.4428935099124
 21
467.3284114061719
 31
0.0
  0
LINE
  5
6C74
330
1E
100
AcDbEntity
  8
躯体と製品
  6
Continuous
 62
     3
100
AcDbLine
 10
701.29778598874
 20
469.3848510010301
 30
0.0
 11
701.6165416875792
 21
468.3132191591845
 31
0.0
  0
LINE
  5
6C75
330
1E
100
AcDbEntity
  8
躯体と製品
  6
DASHED1
 62
     4
100
AcDbLine
 10
679.7032460110777
 20
504.9644991863908
 30
0.0
 11
678.4576502524958
 21
481.197116259232
 31
0.0
  0
LINE
  5
6C76
330
1E
100
AcDbEntity
  8
躯体と製品
  6
DASHED1
 62
     7
100
AcDbLine
 10
680.2709669015858
 20
504.9347461952665
 30
0.0
 11
679.0253711430039
 21
481.1673632681078
 31
0.0
  0
LINE
  5
6C77
330
1E
100
AcDbEntity
  8
躯体と製品
  6
DASHED1
 62
     7
100
AcDbLine
 10
674.2791896930584
 20
505.2487619327243
 30
0.0
 11
673.0335939344764
 21
481.4813790055654
 31
0.0
  0
LINE
  5
6C78
330
1E
100
AcDbEntity
  8
躯体と製品
  6
DASHED1
 62
     4
100
AcDbLine
 10
674.8469105835662
 20
505.2190089416002
 30
0.0
 11
673.6013148249843
 21
481.4516260144412
 31
0.0
  0
ARC
  5
6C79
330
1E
100
AcDbEntity
  8
躯体と製品
  6
DASHED1
 62
     7
100
AcDbCircle
 10
687.8388505231328
 20
502.7356599979923
 30
0.0
 40
1.0
100
AcDbArc
 50
37.62684736228323
 51
87.00000000000009
  0
LINE
  5
6C7A
330
1E
100
AcDbEntity
  8
躯体と製品
  6
DASHED1
 62
     7
100
AcDbLine
 10
666.6171013502744
 20
505.6503149674401
 30
0.0
 11
687.9330552443704
 21
504.5331931605509
 31
0.0
  0
ARC
  5
6C7B
330
1E
100
AcDbEntity
  8
躯体と製品
  6
DASHED1
 62
     7
100
AcDbCircle
 10
666.5228966290372
 20
503.8527818048818
 30
0.0
 40
1.8
100
AcDbArc
 50
87.00000000000009
 51
136.3731526377169
  0
LINE
  5
6C7C
330
1E
100
AcDbEntity
  8
躯体と製品
  6
DASHED1
 62
     7
100
AcDbLine
 10
666.5752325852797
 20
504.8514113396366
 30
0.0
 11
687.891186479376
 21
503.7342895327472
 31
0.0
  0
LINE
  5
6C7D
330
1E
100
AcDbEntity
  8
躯体と製品
  6
DASHED1
 62
     7
100
AcDbLine
 10
665.799047985474
 20
504.5427406016318
 30
0.0
 11
652.8690968917165
 21
490.977687725089
 31
0.0
  0
ARC
  5
6C7E
330
1E
100
AcDbEntity
  8
躯体と製品
  6
DASHED1
 62
     7
100
AcDbCircle
 10
666.5228966290372
 20
503.8527818048818
 30
0.0
 40
1.0
100
AcDbArc
 50
87.00000000000009
 51
136.3731526377169
  0
ARC
  5
6C7F
330
1E
100
AcDbEntity
  8
躯体と製品
  6
DASHED1
 62
     7
100
AcDbCircle
 10
651.5661693498084
 20
492.219613576554
 30
0.0
 40
1.0
100
AcDbArc
 50
217.6268487328666
 51
316.373152637717
  0
ARC
  5
6C80
330
1E
100
AcDbEntity
  8
躯体と製品
  6
DASHED1
 62
     7
100
AcDbCircle
 10
651.5661693498084
 20
492.219613576554
 30
0.0
 40
1.8
100
AcDbArc
 50
217.6268481237182
 51
316.373152637717
  0
LINE
  5
6C81
330
1E
100
AcDbEntity
  8
躯体と製品
  6
DASHED1
 62
     7
100
AcDbLine
 10
704.2913711213767
 20
491.0844028983738
 30
0.0
 11
702.2214947145949
 21
488.9128569503415
 31
0.0
  0
LINE
  5
6C82
330
1E
100
AcDbEntity
  8
躯体と製品
  6
DASHED1
 62
     7
100
AcDbLine
 10
704.8704500362484
 20
490.532435860997
 30
0.0
 11
704.2913711213767
 21
491.0844028983738
 31
0.0
  0
LINE
  5
6C83
330
1E
100
AcDbEntity
  8
躯体と製品
  6
DASHED1
 62
     7
100
AcDbLine
 10
704.8704500362484
 20
490.532435860997
 30
0.0
 11
702.8005736294448
 21
488.360889912942
 31
0.0
  0
ARC
  5
6C84
330
1E
100
AcDbEntity
  8
躯体と製品
  6
DASHED1
 62
     7
100
AcDbCircle
 10
701.4976460875368
 20
489.6028157644071
 30
0.0
 40
1.0
100
AcDbArc
 50
217.6268473622832
 51
316.3731512671328
  0
ARC
  5
6C85
330
1E
100
AcDbEntity
  8
躯体と製品
  6
DASHED1
 62
     7
100
AcDbCircle
 10
701.4976460875368
 20
489.6028157644071
 30
0.0
 40
1.8
100
AcDbArc
 50
217.6268473622832
 51
316.3731518762815
  0
LINE
  5
6C86
330
1E
100
AcDbEntity
  8
躯体と製品
  6
DASHED1
 62
     7
100
AcDbLine
 10
689.2644571069893
 20
503.8345894170482
 30
0.0
 11
700.7056424444431
 21
488.9922994015413
 31
0.0
  0
LINE
  5
6C87
330
1E
100
AcDbEntity
  8
躯体と製品
  6
DASHED1
 62
     7
100
AcDbLine
 10
688.6308541808308
 20
503.3461763419123
 30
0.0
 11
700.0720395182846
 21
488.5038863264058
 31
0.0
  0
ARC
  5
6C88
330
1E
100
AcDbEntity
  8
躯体と製品
  6
DASHED1
 62
     7
100
AcDbCircle
 10
687.8388505231328
 20
502.7356599979923
 30
0.0
 40
1.8
100
AcDbArc
 50
37.62684736228323
 51
87.00000000000009
  0
LINE
  5
6C89
330
1E
100
AcDbEntity
  8
躯体と製品
  6
DASHED1
 62
     7
100
AcDbLine
 10
648.9426166603267
 20
493.9851082057598
 30
0.0
 11
650.7741657067144
 21
491.6090972136887
 31
0.0
  0
LINE
  5
6C8A
330
1E
100
AcDbEntity
  8
躯体と製品
  6
DASHED1
 62
     7
100
AcDbLine
 10
665.2199690706242
 20
505.0947076390317
 30
0.0
 11
652.2900179933706
 21
491.5296547798043
 31
0.0
  0
ARC
  5
6C8B
330
1E
100
AcDbEntity
  8
躯体と製品
  6
DASHED1
 62
     7
100
AcDbCircle
 10
676.0911495496372
 20
508.2959333234442
 30
0.0
 40
0.5999999999999997
100
AcDbArc
 50
357.0000000000001
 51
100.700233
  0
ARC
  5
6C8C
330
1E
100
AcDbEntity
  8
躯体と製品
  6
DASHED1
 62
     7
100
AcDbCircle
 10
678.7874492934746
 20
508.1546262415881
 30
0.0
 40
0.5999999999999997
100
AcDbArc
 50
73.29976700000003
 51
177.0000000000001
  0
LINE
  5
6C8D
330
1E
100
AcDbEntity
  8
躯体と製品
  6
DASHED1
 62
     7
100
AcDbLine
 10
678.1862176480193
 20
508.1468365992429
 30
0.0
 11
676.6882733458873
 21
508.2253405336071
 31
0.0
  0
ARC
  5
6C8E
330
1E
100
AcDbEntity
  8
躯体と製品
  6
DASHED1
 62
     7
100
AcDbCircle
 10
675.4618476021545
 20
504.9916560454603
 30
0.0
 40
3.45
100
AcDbArc
 50
126.3091239999998
 51
173.7621629999998
  0
ARC
  5
6C8F
330
1E
100
AcDbEntity
  8
躯体と製品
  6
DASHED1
 62
     7
100
AcDbCircle
 10
679.0731836074104
 20
504.7978847655061
 30
0.0
 40
3.45
100
AcDbArc
 50
0.3127430000003366
 51
47.82048900000016
  0
ARC
  5
6C90
330
1E
100
AcDbEntity
  8
躯体と製品
  6
DASHED1
 62
     7
100
AcDbCircle
 10
677.1494720546749
 20
502.6950441792141
 30
0.0
 40
6.299999999999998
100
AcDbArc
 50
47.69686899999995
 51
126.3093710000003
  0
LINE
  5
6C91
330
1E
100
AcDbEntity
  8
躯体と製品
  6
Continuous
 62
     4
100
AcDbLine
 10
678.4689614242069
 20
470.5504333693643
 30
0.0
 11
672.4771842156794
 21
470.8644491068221
 31
0.0
  0
LINE
  5
6C92
330
1E
100
AcDbEntity
  8
躯体と製品
  6
Continuous
 62
     7
100
AcDbLine
 10
673.0335939344764
 20
481.4813790055654
 30
0.0
 11
672.9293271030483
 21
479.4918493430887
 31
0.0
  0
LINE
  5
6C93
330
1E
100
AcDbEntity
  8
躯体と製品
  6
Continuous
 62
     7
100
AcDbLine
 10
672.7409176605735
 20
475.8967830179721
 30
0.0
 11
672.4771842156794
 21
470.8644491068221
 31
0.0
  0
LINE
  5
6C94
330
1E
100
AcDbEntity
  8
躯体と製品
  6
Continuous
 62
     7
100
AcDbLine
 10
679.0253711430039
 20
481.1673632681078
 30
0.0
 11
678.9211043115755
 21
479.1778336056311
 31
0.0
  0
LINE
  5
6C95
330
1E
100
AcDbEntity
  8
躯体と製品
  6
Continuous
 62
     7
100
AcDbLine
 10
678.732694869101
 20
475.5827672805149
 30
0.0
 11
678.4689614242069
 21
470.5504333693643
 31
0.0
  0
LINE
  5
6C96
330
1E
100
AcDbEntity
  8
躯体と製品
  6
Continuous
 62
     4
100
AcDbLine
 10
673.6013148249843
 20
481.4516260144412
 30
0.0
 11
673.4970479935562
 21
479.4620963519646
 31
0.0
  0
LINE
  5
6C97
330
1E
100
AcDbEntity
  8
躯体と製品
  6
Continuous
 62
     4
100
AcDbLine
 10
678.4576502524958
 20
481.197116259232
 30
0.0
 11
678.3533834210676
 21
479.2075865967554
 31
0.0
  0
POINT
  5
6C98
330
1E
100
AcDbEntity
  8
躯体と製品
 62
     4
100
AcDbPoint
 10
675.9252157073119
 20
479.3348414743601
 30
0.0
  0
ARC
  5
6C99
330
1E
100
AcDbEntity
  8
躯体と製品
  6
Continuous
 62
     7
100
AcDbCircle
 10
725.8966559334133
 20
458.4117349600127
 30
0.0
 40
1.0
100
AcDbArc
 50
4.999999999999778
 51
88.36342295838328
  0
LINE
  5
6C9A
330
1E
100
AcDbEntity
  8
躯体と製品
  6
DASHED1
 62
     7
100
AcDbLine
 10
648.3090137341491
 20
493.4966951306491
 30
0.0
 11
648.9426166603267
 21
493.9851082057598
 31
0.0
  0
LINE
  5
6C9B
330
1E
100
AcDbEntity
  8
躯体と製品
  6
DASHED1
 62
     7
100
AcDbLine
 10
648.3090137341491
 20
493.4966951306491
 30
0.0
 11
650.1405627805564
 21
491.1206841385529
 31
0.0
  0
LINE
  5
6C9C
330
1E
100
AcDbEntity
  8
躯体と製品
  6
Continuous
 62
     3
100
AcDbLine
 10
236.9252157073121
 20
477.6983887833834
 30
0.0
 11
236.9252157073121
 21
470.4113270464733
 31
0.0
  0
LINE
  5
6C9D
330
1E
100
AcDbEntity
  8
躯体と製品
  6
Continuous
 62
     3
100
AcDbLine
 10
241.9252157073121
 20
468.3113270464733
 30
0.0
 11
237.4252157073121
 21
468.3113270464733
 31
0.0
  0
LINE
  5
6C9E
330
1E
100
AcDbEntity
  8
躯体と製品
  6
Continuous
 62
     3
100
AcDbLine
 10
241.9252157073121
 20
468.3113270464733
 30
0.0
 11
241.9252157073121
 21
469.9113270464733
 31
0.0
  0
LINE
  5
6C9F
330
1E
100
AcDbEntity
  8
躯体と製品
  6
Continuous
 62
     3
100
AcDbLine
 10
241.9252157073121
 20
469.9113270464733
 30
0.0
 11
237.4252157073121
 21
469.9113270464733
 31
0.0
  0
ARC
  5
6CA0
330
1E
100
AcDbEntity
  8
躯体と製品
  6
Continuous
 62
     3
100
AcDbCircle
 10
237.4252157073121
 20
470.4113270464733
 30
0.0
 40
2.1
100
AcDbArc
 50
180.0
 51
270.0
  0
ARC
  5
6CA1
330
1E
100
AcDbEntity
  8
躯体と製品
  6
Continuous
 62
     3
100
AcDbCircle
 10
237.4252157073121
 20
470.4113270464733
 30
0.0
 40
0.5
100
AcDbArc
 50
180.0
 51
270.0
  0
LINE
  5
6CA2
330
1E
100
AcDbEntity
  8
躯体と製品
  6
Continuous
 62
     3
100
AcDbLine
 10
209.925215707312
 20
468.3113270464733
 30
0.0
 11
214.425215707312
 21
468.3113270464733
 31
0.0
  0
LINE
  5
6CA3
330
1E
100
AcDbEntity
  8
躯体と製品
  6
Continuous
 62
     3
100
AcDbLine
 10
214.425215707312
 20
469.9113270464733
 30
0.0
 11
209.925215707312
 21
469.9113270464733
 31
0.0
  0
LINE
  5
6CA4
330
1E
100
AcDbEntity
  8
躯体と製品
  6
Continuous
 62
     3
100
AcDbLine
 10
209.925215707312
 20
469.9113270464733
 30
0.0
 11
209.925215707312
 21
468.3113270464733
 31
0.0
  0
ARC
  5
6CA5
330
1E
100
AcDbEntity
  8
躯体と製品
  6
Continuous
 62
     3
100
AcDbCircle
 10
214.425215707312
 20
470.4113270464733
 30
0.0
 40
2.1
100
AcDbArc
 50
270.0
 51
0.0
  0
ARC
  5
6CA6
330
1E
100
AcDbEntity
  8
躯体と製品
  6
Continuous
 62
     3
100
AcDbCircle
 10
214.425215707312
 20
470.4113270464733
 30
0.0
 40
0.5
100
AcDbArc
 50
270.0
 51
0.0
  0
LINE
  5
6CA7
330
1E
100
AcDbEntity
  8
躯体と製品
  6
Continuous
 62
     3
100
AcDbLine
 10
235.3252157073118
 20
477.6983887833834
 30
0.0
 11
235.3252157073118
 21
470.4113270464733
 31
0.0
  0
ARC
  5
6CA8
330
1E
100
AcDbEntity
  8
躯体と製品
  6
Continuous
 62
     3
100
AcDbCircle
 10
234.8252157073118
 20
477.6983887833834
 30
0.0
 40
0.5
100
AcDbArc
 50
0.0
 51
92.99999999999991
  0
LINE
  5
6CA9
330
1E
100
AcDbEntity
  8
躯体と製品
  6
Continuous
 62
     3
100
AcDbLine
 10
216.525215707312
 20
476.7655303121453
 30
0.0
 11
216.525215707312
 21
470.4113270464733
 31
0.0
  0
ARC
  5
6CAA
330
1E
100
AcDbEntity
  8
躯体と製品
  6
Continuous
 62
     3
100
AcDbCircle
 10
217.0252157073119
 20
476.7655303121453
 30
0.0
 40
0.5
100
AcDbArc
 50
92.99999999999991
 51
180.0
  0
ARC
  5
6CAB
330
1E
100
AcDbEntity
  8
躯体と製品
  6
Continuous
 62
     3
100
AcDbCircle
 10
234.8252157073118
 20
477.6983887833834
 30
0.0
 40
2.1
100
AcDbArc
 50
0.0
 51
92.99999999999991
  0
LINE
  5
6CAC
330
1E
100
AcDbEntity
  8
躯体と製品
  6
Continuous
 62
     3
100
AcDbLine
 10
214.925215707312
 20
476.7655303121453
 30
0.0
 11
214.925215707312
 21
470.4113270464733
 31
0.0
  0
ARC
  5
6CAD
330
1E
100
AcDbEntity
  8
躯体と製品
  6
Continuous
 62
     3
100
AcDbCircle
 10
217.0252157073119
 20
476.7655303121453
 30
0.0
 40
2.1
100
AcDbArc
 50
92.99999999999991
 51
180.0
  0
LINE
  5
6CAE
330
1E
100
AcDbEntity
  8
躯体と製品
  6
Continuous
 62
     3
100
AcDbLine
 10
221.5199292899155
 20
475.4990297505261
 30
0.0
 11
230.7073210096576
 21
475.9805205479612
 31
0.0
  0
LINE
  5
6CAF
330
1E
100
AcDbEntity
  8
躯体と製品
  6
Continuous
 62
     3
100
AcDbLine
 10
230.6549850534146
 20
476.9791500827157
 30
0.0
 11
230.7073210096576
 21
475.9805205479612
 31
0.0
  0
ARC
  5
6CB0
330
1E
100
AcDbEntity
  8
躯体と製品
  6
Continuous
 62
     3
100
AcDbCircle
 10
231.6536145881692
 20
477.0314860389586
 30
0.0
 40
1.0
100
AcDbArc
 50
92.99999999999991
 51
182.9999999999999
  0
LINE
  5
6CB1
330
1E
100
AcDbEntity
  8
躯体と製品
  6
Continuous
 62
     3
100
AcDbLine
 10
221.4675933336726
 20
476.4976592852806
 30
0.0
 11
221.5199292899155
 21
475.4990297505261
 31
0.0
  0
ARC
  5
6CB2
330
1E
100
AcDbEntity
  8
躯体と製品
  6
Continuous
 62
     3
100
AcDbCircle
 10
220.4689637989181
 20
476.4453233290375
 30
0.0
 40
1.0
100
AcDbArc
 50
2.999999999999903
 51
92.99999999999991
  0
LINE
  5
6CB3
330
1E
100
AcDbEntity
  8
躯体と製品
  6
Continuous
 62
     3
100
AcDbLine
 10
216.9990477291904
 20
477.2648450795226
 30
0.0
 11
234.7990477291906
 21
478.1977035507606
 31
0.0
  0
LINE
  5
6CB4
330
1E
100
AcDbEntity
  8
躯体と製品
  6
Continuous
 62
     3
100
AcDbLine
 10
216.9153101992018
 20
478.8626523351299
 30
0.0
 11
234.7153101992017
 21
479.7955108063681
 31
0.0
  0
LINE
  5
6CB5
330
1E
100
AcDbEntity
  8
躯体と製品
  6
DASHED1
 62
     7
100
AcDbLine
 10
228.9211043115757
 20
479.4918493430887
 30
0.0
 11
229.1095137540504
 21
475.8967830179721
 31
0.0
  0
LINE
  5
6CB6
330
1E
100
AcDbEntity
  8
躯体と製品
  6
DASHED1
 62
     7
100
AcDbLine
 10
222.9293271030483
 20
479.1778336056311
 30
0.0
 11
223.1177365455229
 21
475.5827672805149
 31
0.0
  0
LINE
  5
6CB7
330
1E
100
AcDbEntity
  8
躯体と製品
  6
Continuous
 62
     4
100
AcDbLine
 10
239.9252157073121
 20
469.9113270464733
 30
0.0
 11
239.9252157073121
 21
468.3113270464733
 31
0.0
  0
LINE
  5
6CB8
330
1E
100
AcDbEntity
  8
躯体と製品
  6
Continuous
 62
     4
100
AcDbLine
 10
211.925215707312
 20
469.9113270464733
 30
0.0
 11
211.925215707312
 21
468.3113270464733
 31
0.0
  0
LINE
  5
6CB9
330
1E
100
AcDbEntity
  8
躯体と製品
  6
DASHED1
 62
     7
100
AcDbLine
 10
221.8752157073121
 20
461.4113270464733
 30
0.0
 11
221.8752157073121
 21
452.1113270464733
 31
0.0
  0
LINE
  5
6CBA
330
1E
100
AcDbEntity
  8
躯体と製品
  6
DASHED1
 62
     7
100
AcDbLine
 10
229.975215707312
 20
461.4113270464733
 30
0.0
 11
229.975215707312
 21
452.1113270464733
 31
0.0
  0
LINE
  5
6CBB
330
1E
100
AcDbEntity
  8
躯体と製品
  6
DASHED1
 62
     7
100
AcDbLine
 10
221.175215707312
 20
451.4113270464734
 30
0.0
 11
221.8752157073121
 21
452.1113270464733
 31
0.0
  0
LINE
  5
6CBC
330
1E
100
AcDbEntity
  8
躯体と製品
  6
DASHED1
 62
     7
100
AcDbLine
 10
221.175215707312
 20
432.7831530464734
 30
0.0
 11
221.175215707312
 21
451.4113270464734
 31
0.0
  0
LINE
  5
6CBD
330
1E
100
AcDbEntity
  8
躯体と製品
  6
DASHED1
 62
     7
100
AcDbLine
 10
221.4252157073119
 20
420.9113270464734
 30
0.0
 11
221.4252157073119
 21
421.7746310464733
 31
0.0
  0
LINE
  5
6CBE
330
1E
100
AcDbEntity
  8
躯体と製品
  6
DASHED1
 62
     7
100
AcDbLine
 10
219.300185707312
 20
422.1493310464733
 30
0.0
 11
221.175215707312
 21
432.7831530464734
 31
0.0
  0
LINE
  5
6CBF
330
1E
100
AcDbEntity
  8
躯体と製品
  6
DASHED1
 62
     7
100
AcDbLine
 10
225.4252157073121
 20
432.4113270464734
 30
0.0
 11
226.4252157073121
 21
432.4113270464734
 31
0.0
  0
LINE
  5
6CC0
330
1E
100
AcDbEntity
  8
躯体と製品
  6
DASHED1
 62
     7
100
AcDbLine
 10
230.6752157073121
 20
451.4113270464734
 30
0.0
 11
229.975215707312
 21
452.1113270464733
 31
0.0
  0
LINE
  5
6CC1
330
1E
100
AcDbEntity
  8
躯体と製品
  6
DASHED1
 62
     7
100
AcDbLine
 10
230.6752157073121
 20
432.7831530464734
 30
0.0
 11
230.6752157073121
 21
451.4113270464734
 31
0.0
  0
LINE
  5
6CC2
330
1E
100
AcDbEntity
  8
躯体と製品
  6
DASHED1
 62
     7
100
AcDbLine
 10
229.4252157073121
 20
419.9113270464734
 30
0.0
 11
222.425215707312
 21
419.9113270464734
 31
0.0
  0
ARC
  5
6CC3
330
1E
100
AcDbEntity
  8
躯体と製品
  6
DASHED1
 62
     7
100
AcDbCircle
 10
229.4252157073121
 20
420.9113270464734
 30
0.0
 40
1.0
100
AcDbArc
 50
270.0
 51
0.0
  0
LINE
  5
6CC4
330
1E
100
AcDbEntity
  8
躯体と製品
  6
DASHED1
 62
     7
100
AcDbLine
 10
230.4252157073122
 20
420.9113270464734
 30
0.0
 11
230.4252157073122
 21
421.7746310464733
 31
0.0
  0
LINE
  5
6CC5
330
1E
100
AcDbEntity
  8
躯体と製品
  6
DASHED1
 62
     7
100
AcDbLine
 10
232.550245707312
 20
422.1493310464733
 30
0.0
 11
228.3648127073121
 21
421.4113270464734
 31
0.0
  0
LINE
  5
6CC6
330
1E
100
AcDbEntity
  8
躯体と製品
  6
DASHED1
 62
     7
100
AcDbLine
 10
225.4252157073121
 20
432.4113270464734
 30
0.0
 11
223.485618707312
 21
421.4113270464734
 31
0.0
  0
LINE
  5
6CC7
330
1E
100
AcDbEntity
  8
躯体と製品
  6
DASHED1
 62
     7
100
AcDbLine
 10
226.4252157073121
 20
432.4113270464734
 30
0.0
 11
228.3648127073121
 21
421.4113270464734
 31
0.0
  0
LINE
  5
6CC8
330
1E
100
AcDbEntity
  8
躯体と製品
  6
DASHED1
 62
     7
100
AcDbLine
 10
232.550245707312
 20
422.1493310464733
 30
0.0
 11
230.6752157073121
 21
432.7831530464734
 31
0.0
  0
LINE
  5
6CC9
330
1E
100
AcDbEntity
  8
躯体と製品
  6
DASHED1
 62
     7
100
AcDbLine
 10
221.175215707312
 20
451.4113270464734
 30
0.0
 11
230.6752157073121
 21
451.4113270464734
 31
0.0
  0
LINE
  5
6CCA
330
1E
100
AcDbEntity
  8
躯体と製品
  6
DASHED1
 62
     7
100
AcDbLine
 10
221.8752157073121
 20
452.1113270464733
 30
0.0
 11
229.975215707312
 21
452.1113270464733
 31
0.0
  0
LINE
  5
6CCB
330
1E
100
AcDbEntity
  8
躯体と製品
  6
DASHED1
 62
     7
100
AcDbLine
 10
219.300185707312
 20
422.1493310464733
 30
0.0
 11
223.485618707312
 21
421.4113270464734
 31
0.0
  0
ARC
  5
6CCC
330
1E
100
AcDbEntity
  8
躯体と製品
  6
DASHED1
 62
     7
100
AcDbCircle
 10
222.425215707312
 20
420.9113270464734
 30
0.0
 40
1.0
100
AcDbArc
 50
180.0
 51
270.0
  0
ARC
  5
6CCD
330
1E
100
AcDbEntity
  8
躯体と製品
  6
Continuous
 62
     3
100
AcDbCircle
 10
197.3679054407292
 20
464.4113270464734
 30
0.0
 40
0.5
100
AcDbArc
 50
190.0000000000002
 51
270.0
  0
LINE
  5
6CCE
330
1E
100
AcDbEntity
  8
躯体と製品
  6
Continuous
 62
     3
100
AcDbLine
 10
197.3679054407292
 20
463.9113270464734
 30
0.0
 11
200.4141852763865
 21
463.9113270464734
 31
0.0
  0
LINE
  5
6CCF
330
1E
100
AcDbEntity
  8
躯体と製品
  6
Continuous
 62
     3
100
AcDbLine
 10
196.8755015642231
 20
464.32450295764
 30
0.0
 11
196.4683068926629
 21
466.6338186955045
 31
0.0
  0
ARC
  5
6CD0
330
1E
100
AcDbEntity
  8
躯体と製品
  6
Continuous
 62
     3
100
AcDbCircle
 10
200.4141852763865
 20
464.4113270464734
 30
0.0
 40
0.5
100
AcDbArc
 50
270.0
 51
10.00000000000021
  0
LINE
  5
6CD1
330
1E
100
AcDbEntity
  8
躯体と製品
  6
Continuous
 62
     3
100
AcDbLine
 10
200.9065891528926
 20
464.4981511353069
 30
0.0
 11
200.4075379047117
 21
467.3284114061719
 31
0.0
  0
ARC
  5
6CD2
330
1E
100
AcDbEntity
  8
躯体と製品
  6
Continuous
 62
     3
100
AcDbCircle
 10
202.9527518061008
 20
464.4113270464734
 30
0.0
 40
0.5
100
AcDbArc
 50
190.0000000000002
 51
270.0
  0
LINE
  5
6CD3
330
1E
100
AcDbEntity
  8
躯体と製品
  6
Continuous
 62
     3
100
AcDbLine
 10
202.9527518061008
 20
463.9113270464734
 30
0.0
 11
206.9252157073119
 21
463.9113270464734
 31
0.0
  0
LINE
  5
6CD4
330
1E
100
AcDbEntity
  8
躯体と製品
  6
Continuous
 62
     3
100
AcDbLine
 10
202.4603479295948
 20
464.32450295764
 30
0.0
 11
201.3203929568127
 21
470.7895088699621
 31
0.0
  0
LINE
  5
6CD5
330
1E
100
AcDbEntity
  8
躯体と製品
  6
Continuous
 62
     3
100
AcDbLine
 10
200.2338897270449
 20
468.3132191591845
 30
0.0
 11
200.726293603551
 21
468.4000432480178
 31
0.0
  0
LINE
  5
6CD6
330
1E
100
AcDbEntity
  8
躯体と製品
  6
Continuous
 62
     3
100
AcDbLine
 10
195.8022548384899
 20
467.5318023596831
 30
0.0
 11
196.294658714996
 21
467.6186264485163
 31
0.0
  0
LINE
  5
6CD7
330
1E
100
AcDbEntity
  8
躯体と製品
  6
Continuous
 62
     3
100
AcDbLine
 10
200.060241549378
 20
469.2980269121964
 30
0.0
 11
200.5526454258841
 21
469.3848510010301
 31
0.0
  0
LINE
  5
6CD8
330
1E
100
AcDbEntity
  8
躯体と製品
  6
Continuous
 62
     3
100
AcDbLine
 10
195.6286066608229
 20
468.5166101126953
 30
0.0
 11
196.1210105373291
 21
468.6034342015289
 31
0.0
  0
LINE
  5
6CD9
330
1E
100
AcDbEntity
  8
躯体と製品
  6
Continuous
 62
     3
100
AcDbLine
 10
195.4252157073119
 20
463.9113270464734
 30
0.0
 11
194.4267386857271
 21
469.5739716262934
 31
0.0
  0
LINE
  5
6CDA
330
1E
100
AcDbEntity
  8
躯体と製品
  6
Continuous
 62
     3
100
AcDbLine
 10
196.1210105373291
 20
468.6034342015289
 30
0.0
 11
195.9039503152454
 21
469.8344438927941
 31
0.0
  0
LINE
  5
6CDB
330
1E
100
AcDbEntity
  8
躯体と製品
  6
Continuous
 62
     3
100
AcDbLine
 10
200.060241549378
 20
469.2980269121964
 30
0.0
 11
199.8431813272942
 21
470.5290366034617
 31
0.0
  0
LINE
  5
6CDC
330
1E
100
AcDbEntity
  8
躯体と製品
  6
Continuous
 62
     3
100
AcDbLine
 10
195.8022548384899
 20
467.5318023596831
 30
0.0
 11
196.4683068926629
 21
466.6338186955045
 31
0.0
  0
LINE
  5
6CDD
330
1E
100
AcDbEntity
  8
躯体と製品
  6
Continuous
 62
     3
100
AcDbLine
 10
195.6286066608229
 20
468.5166101126953
 30
0.0
 11
196.294658714996
 21
467.6186264485163
 31
0.0
  0
ARC
  5
6CDE
330
1E
100
AcDbEntity
  8
躯体と製品
  6
Continuous
 62
     3
100
AcDbCircle
 10
200.5817871420533
 20
470.6592727367119
 30
0.0
 40
0.7500000000000014
100
AcDbArc
 50
9.99999999999941
 51
190.0000000000002
  0
ARC
  5
6CDF
330
1E
100
AcDbEntity
  8
躯体と製品
  6
Continuous
 62
     3
100
AcDbCircle
 10
195.1653445004863
 20
469.7042077595437
 30
0.0
 40
0.7499999999999975
100
AcDbArc
 50
10.00000000000021
 51
190.0000000000002
  0
LINE
  5
6CE0
330
1E
100
AcDbEntity
  8
躯体と製品
  6
Continuous
 62
     3
100
AcDbLine
 10
195.4252157073119
 20
461.4113270464733
 30
0.0
 11
195.4252157073119
 21
463.9113270464734
 31
0.0
  0
LINE
  5
6CE1
330
1E
100
AcDbEntity
  8
躯体と製品
  6
Continuous
 62
     3
100
AcDbLine
 10
243.925215707312
 20
461.4113270464733
 30
0.0
 11
242.4252157073121
 21
461.4113270464733
 31
0.0
  0
LINE
  5
6CE2
330
1E
100
AcDbEntity
  8
躯体と製品
  6
Continuous
 62
     3
100
AcDbLine
 10
242.4252157073121
 20
461.4113270464733
 30
0.0
 11
242.4252157073121
 21
461.9113270464733
 31
0.0
  0
LINE
  5
6CE3
330
1E
100
AcDbEntity
  8
躯体と製品
  6
Continuous
 62
     3
100
AcDbLine
 10
242.4252157073121
 20
461.9113270464733
 30
0.0
 11
230.9252157073121
 21
461.9113270464733
 31
0.0
  0
LINE
  5
6CE4
330
1E
100
AcDbEntity
  8
躯体と製品
  6
Continuous
 62
     3
100
AcDbLine
 10
230.9252157073121
 20
461.9113270464733
 30
0.0
 11
230.9252157073121
 21
461.4113270464733
 31
0.0
  0
ARC
  5
6CE5
330
1E
100
AcDbEntity
  8
躯体と製品
  6
Continuous
 62
     3
100
AcDbCircle
 10
239.1752157073121
 20
470.6613270464734
 30
0.0
 40
0.75
100
AcDbArc
 50
90.0
 51
270.0
  0
ARC
  5
6CE6
330
1E
100
AcDbEntity
  8
躯体と製品
  6
Continuous
 62
     3
100
AcDbCircle
 10
240.1752157073121
 20
466.6613270464734
 30
0.0
 40
0.75
100
AcDbArc
 50
90.0
 51
270.0
  0
ARC
  5
6CE7
330
1E
100
AcDbEntity
  8
躯体と製品
  6
Continuous
 62
     3
100
AcDbCircle
 10
242.1252157073121
 20
469.6113270464733
 30
0.0
 40
0.2999999999999998
100
AcDbArc
 50
0.0
 51
90.0
  0
LINE
  5
6CE8
330
1E
100
AcDbEntity
  8
躯体と製品
  6
Continuous
 62
     3
100
AcDbLine
 10
242.1252157073121
 20
469.9113270464733
 30
0.0
 11
239.1752157073121
 21
469.9113270464733
 31
0.0
  0
LINE
  5
6CE9
330
1E
100
AcDbEntity
  8
躯体と製品
  6
Continuous
 62
     3
100
AcDbLine
 10
242.1252157073121
 20
467.4113270464734
 30
0.0
 11
240.1752157073121
 21
467.4113270464734
 31
0.0
  0
ARC
  5
6CEA
330
1E
100
AcDbEntity
  8
躯体と製品
  6
Continuous
 62
     3
100
AcDbCircle
 10
242.1252157073121
 20
467.7113270464735
 30
0.0
 40
0.2999999999999998
100
AcDbArc
 50
270.0
 51
0.0
  0
LINE
  5
6CEB
330
1E
100
AcDbEntity
  8
躯体と製品
  6
Continuous
 62
     3
100
AcDbLine
 10
242.4252157073121
 20
467.7113270464735
 30
0.0
 11
242.4252157073121
 21
469.6113270464733
 31
0.0
  0
ARC
  5
6CEC
330
1E
100
AcDbEntity
  8
躯体と製品
  6
Continuous
 62
     3
100
AcDbCircle
 10
242.1252157073121
 20
465.6113270464733
 30
0.0
 40
0.2999999999999998
100
AcDbArc
 50
0.0
 51
90.0
  0
LINE
  5
6CED
330
1E
100
AcDbEntity
  8
躯体と製品
  6
Continuous
 62
     3
100
AcDbLine
 10
242.1252157073121
 20
465.9113270464733
 30
0.0
 11
240.1752157073121
 21
465.9113270464733
 31
0.0
  0
ARC
  5
6CEE
330
1E
100
AcDbEntity
  8
躯体と製品
  6
Continuous
 62
     3
100
AcDbCircle
 10
242.1252157073121
 20
464.2113270464734
 30
0.0
 40
0.2999999999999998
100
AcDbArc
 50
270.0
 51
0.0
  0
LINE
  5
6CEF
330
1E
100
AcDbEntity
  8
躯体と製品
  6
Continuous
 62
     3
100
AcDbLine
 10
242.4252157073121
 20
464.2113270464734
 30
0.0
 11
242.4252157073121
 21
465.6113270464733
 31
0.0
  0
LINE
  5
6CF0
330
1E
100
AcDbEntity
  8
躯体と製品
  6
Continuous
 62
     3
100
AcDbLine
 10
243.4252157073121
 20
471.4113270464734
 30
0.0
 11
239.1752157073121
 21
471.4113270464734
 31
0.0
  0
ARC
  5
6CF1
330
1E
100
AcDbEntity
  8
躯体と製品
  6
Continuous
 62
     3
100
AcDbCircle
 10
243.4252157073121
 20
470.9113270464733
 30
0.0
 40
0.5
100
AcDbArc
 50
0.0
 51
90.0
  0
LINE
  5
6CF2
330
1E
100
AcDbEntity
  8
躯体と製品
  6
Continuous
 62
     3
100
AcDbLine
 10
243.925215707312
 20
470.9113270464733
 30
0.0
 11
243.925215707312
 21
461.4113270464733
 31
0.0
  0
LINE
  5
6CF3
330
1E
100
AcDbEntity
  8
躯体と製品
  6
Continuous
 62
     3
100
AcDbLine
 10
230.9252157073121
 20
461.4113270464733
 30
0.0
 11
220.925215707312
 21
461.4113270464733
 31
0.0
  0
LINE
  5
6CF4
330
1E
100
AcDbEntity
  8
躯体と製品
  6
Continuous
 62
     3
100
AcDbLine
 10
225.4252157073121
 20
463.9113270464734
 30
0.0
 11
209.725215707312
 21
463.9113270464734
 31
0.0
  0
LINE
  5
6CF5
330
1E
100
AcDbEntity
  8
躯体と製品
  6
Continuous
 62
     3
100
AcDbLine
 10
242.1252157073121
 20
463.9113270464734
 30
0.0
 11
226.4252157073121
 21
463.9113270464734
 31
0.0
  0
LINE
  5
6CF6
330
1E
100
AcDbEntity
  8
躯体と製品
  6
Continuous
 62
     3
100
AcDbLine
 10
220.925215707312
 20
461.4113270464733
 30
0.0
 11
220.925215707312
 21
461.9113270464733
 31
0.0
  0
LINE
  5
6CF7
330
1E
100
AcDbEntity
  8
躯体と製品
  6
Continuous
 62
     3
100
AcDbLine
 10
220.925215707312
 20
461.9113270464733
 30
0.0
 11
209.425215707312
 21
461.9113270464733
 31
0.0
  0
LINE
  5
6CF8
330
1E
100
AcDbEntity
  8
躯体と製品
  6
Continuous
 62
     3
100
AcDbLine
 10
209.425215707312
 20
461.9113270464733
 30
0.0
 11
209.425215707312
 21
461.4113270464733
 31
0.0
  0
LINE
  5
6CF9
330
1E
100
AcDbEntity
  8
躯体と製品
  6
Continuous
 62
     3
100
AcDbLine
 10
209.425215707312
 20
461.4113270464733
 30
0.0
 11
207.425215707312
 21
461.4113270464733
 31
0.0
  0
ARC
  5
6CFA
330
1E
100
AcDbEntity
  8
躯体と製品
  6
Continuous
 62
     3
100
AcDbCircle
 10
208.425215707312
 20
479.4113270464733
 30
0.0
 40
1.0
100
AcDbArc
 50
0.0
 51
180.0
  0
LINE
  5
6CFB
330
1E
100
AcDbEntity
  8
躯体と製品
  6
Continuous
 62
     3
100
AcDbLine
 10
196.9252157073119
 20
462.4113270464733
 30
0.0
 11
196.9252157073119
 21
461.4113270464733
 31
0.0
  0
LINE
  5
6CFC
330
1E
100
AcDbEntity
  8
躯体と製品
  6
Continuous
 62
     3
100
AcDbLine
 10
196.9252157073119
 20
461.4113270464733
 30
0.0
 11
195.4252157073119
 21
461.4113270464733
 31
0.0
  0
LINE
  5
6CFD
330
1E
100
AcDbEntity
  8
躯体と製品
  6
Continuous
 62
     3
100
AcDbLine
 10
225.9252157073121
 20
463.4113270464734
 30
0.0
 11
225.4252157073121
 21
463.9113270464734
 31
0.0
  0
LINE
  5
6CFE
330
1E
100
AcDbEntity
  8
躯体と製品
  6
Continuous
 62
     3
100
AcDbLine
 10
207.425215707312
 20
461.4113270464733
 30
0.0
 11
207.425215707312
 21
462.4113270464733
 31
0.0
  0
LINE
  5
6CFF
330
1E
100
AcDbEntity
  8
躯体と製品
  6
Continuous
 62
     3
100
AcDbLine
 10
207.425215707312
 20
462.4113270464733
 30
0.0
 11
196.9252157073119
 21
462.4113270464733
 31
0.0
  0
LINE
  5
6D00
330
1E
100
AcDbEntity
  8
躯体と製品
  6
Continuous
 62
     3
100
AcDbLine
 10
207.425215707312
 20
464.4113270464734
 30
0.0
 11
207.425215707312
 21
479.4113270464733
 31
0.0
  0
ARC
  5
6D01
330
1E
100
AcDbEntity
  8
躯体と製品
  6
Continuous
 62
     3
100
AcDbCircle
 10
206.9252157073119
 20
464.4113270464734
 30
0.0
 40
0.5
100
AcDbArc
 50
270.0
 51
0.0
  0
ARC
  5
6D02
330
1E
100
AcDbEntity
  8
躯体と製品
  6
Continuous
 62
     3
100
AcDbCircle
 10
209.725215707312
 20
464.2113270464734
 30
0.0
 40
0.2999999999999998
100
AcDbArc
 50
180.0
 51
270.0
  0
LINE
  5
6D03
330
1E
100
AcDbEntity
  8
躯体と製品
  6
Continuous
 62
     3
100
AcDbLine
 10
209.925215707312
 20
471.4113270464734
 30
0.0
 11
212.675215707312
 21
471.4113270464734
 31
0.0
  0
ARC
  5
6D04
330
1E
100
AcDbEntity
  8
躯体と製品
  6
Continuous
 62
     3
100
AcDbCircle
 10
209.925215707312
 20
471.9113270464734
 30
0.0
 40
0.5
100
AcDbArc
 50
180.0
 51
270.0
  0
LINE
  5
6D05
330
1E
100
AcDbEntity
  8
躯体と製品
  6
Continuous
 62
     3
100
AcDbLine
 10
209.425215707312
 20
471.9113270464734
 30
0.0
 11
209.425215707312
 21
479.4113270464733
 31
0.0
  0
ARC
  5
6D06
330
1E
100
AcDbEntity
  8
躯体と製品
  6
Continuous
 62
     3
100
AcDbCircle
 10
212.675215707312
 20
470.6613270464734
 30
0.0
 40
0.75
100
AcDbArc
 50
270.0
 51
90.0
  0
ARC
  5
6D07
330
1E
100
AcDbEntity
  8
躯体と製品
  6
Continuous
 62
     3
100
AcDbCircle
 10
211.675215707312
 20
466.6613270464734
 30
0.0
 40
0.75
100
AcDbArc
 50
270.0
 51
90.0
  0
LINE
  5
6D08
330
1E
100
AcDbEntity
  8
躯体と製品
  6
Continuous
 62
     3
100
AcDbLine
 10
209.725215707312
 20
465.9113270464733
 30
0.0
 11
211.675215707312
 21
465.9113270464733
 31
0.0
  0
ARC
  5
6D09
330
1E
100
AcDbEntity
  8
躯体と製品
  6
Continuous
 62
     3
100
AcDbCircle
 10
209.725215707312
 20
465.6113270464733
 30
0.0
 40
0.2999999999999998
100
AcDbArc
 50
90.0
 51
180.0
  0
LINE
  5
6D0A
330
1E
100
AcDbEntity
  8
躯体と製品
  6
Continuous
 62
     3
100
AcDbLine
 10
209.425215707312
 20
465.6113270464733
 30
0.0
 11
209.425215707312
 21
464.2113270464734
 31
0.0
  0
LINE
  5
6D0B
330
1E
100
AcDbEntity
  8
躯体と製品
  6
Continuous
 62
     3
100
AcDbLine
 10
209.725215707312
 20
467.4113270464734
 30
0.0
 11
211.675215707312
 21
467.4113270464734
 31
0.0
  0
ARC
  5
6D0C
330
1E
100
AcDbEntity
  8
躯体と製品
  6
Continuous
 62
     3
100
AcDbCircle
 10
209.725215707312
 20
467.7113270464735
 30
0.0
 40
0.2999999999999998
100
AcDbArc
 50
180.0
 51
270.0
  0
LINE
  5
6D0D
330
1E
100
AcDbEntity
  8
躯体と製品
  6
Continuous
 62
     3
100
AcDbLine
 10
209.425215707312
 20
469.6113270464733
 30
0.0
 11
209.425215707312
 21
467.7113270464735
 31
0.0
  0
ARC
  5
6D0E
330
1E
100
AcDbEntity
  8
躯体と製品
  6
Continuous
 62
     3
100
AcDbCircle
 10
209.725215707312
 20
469.6113270464733
 30
0.0
 40
0.2999999999999998
100
AcDbArc
 50
90.0
 51
180.0
  0
LINE
  5
6D0F
330
1E
100
AcDbEntity
  8
躯体と製品
  6
Continuous
 62
     3
100
AcDbLine
 10
209.725215707312
 20
469.9113270464733
 30
0.0
 11
212.675215707312
 21
469.9113270464733
 31
0.0
  0
LINE
  5
6D10
330
1E
100
AcDbEntity
  8
躯体と製品
  6
Continuous
 62
     3
100
AcDbLine
 10
225.9252157073121
 20
463.4113270464734
 30
0.0
 11
226.4252157073121
 21
463.9113270464734
 31
0.0
  0
LINE
  5
6D11
330
1E
100
AcDbEntity
  8
躯体と製品
  6
Continuous
 62
     3
100
AcDbLine
 10
200.726293603551
 20
468.4000432480178
 30
0.0
 11
200.4075379047117
 21
467.3284114061719
 31
0.0
  0
LINE
  5
6D12
330
1E
100
AcDbEntity
  8
躯体と製品
  6
Continuous
 62
     3
100
AcDbLine
 10
200.5526454258841
 20
469.3848510010301
 30
0.0
 11
200.2338897270449
 21
468.3132191591845
 31
0.0
  0
LINE
  5
6D13
330
1E
100
AcDbEntity
  8
躯体と製品
  6
DASHED1
 62
     4
100
AcDbLine
 10
222.1471854035462
 20
504.9644991863908
 30
0.0
 11
223.3927811621283
 21
481.197116259232
 31
0.0
  0
LINE
  5
6D14
330
1E
100
AcDbEntity
  8
躯体と製品
  6
DASHED1
 62
     7
100
AcDbLine
 10
221.5794645130382
 20
504.9347461952665
 30
0.0
 11
222.8250602716203
 21
481.1673632681078
 31
0.0
  0
LINE
  5
6D15
330
1E
100
AcDbEntity
  8
躯体と製品
  6
DASHED1
 62
     7
100
AcDbLine
 10
227.5712417215657
 20
505.2487619327243
 30
0.0
 11
228.8168374801478
 21
481.4813790055654
 31
0.0
  0
LINE
  5
6D16
330
1E
100
AcDbEntity
  8
躯体と製品
  6
DASHED1
 62
     4
100
AcDbLine
 10
227.0035208310579
 20
505.2190089416002
 30
0.0
 11
228.2491165896399
 21
481.4516260144412
 31
0.0
  0
ARC
  5
6D17
330
1E
100
AcDbEntity
  8
躯体と製品
  6
DASHED1
 62
     7
100
AcDbCircle
 10
214.0115808914912
 20
502.7356599979923
 30
0.0
 40
1.0
100
AcDbArc
 50
92.99999999999991
 51
142.3731526377167
  0
LINE
  5
6D18
330
1E
100
AcDbEntity
  8
躯体と製品
  6
DASHED1
 62
     7
100
AcDbLine
 10
235.2333300643501
 20
505.6503149674401
 30
0.0
 11
213.9173761702537
 21
504.5331931605509
 31
0.0
  0
ARC
  5
6D19
330
1E
100
AcDbEntity
  8
躯体と製品
  6
DASHED1
 62
     7
100
AcDbCircle
 10
235.3275347855872
 20
503.8527818048818
 30
0.0
 40
1.8
100
AcDbArc
 50
43.62684736228303
 51
92.99999999999991
  0
LINE
  5
6D1A
330
1E
100
AcDbEntity
  8
躯体と製品
  6
DASHED1
 62
     7
100
AcDbLine
 10
235.2751988293445
 20
504.8514113396366
 30
0.0
 11
213.9592449352481
 21
503.7342895327472
 31
0.0
  0
LINE
  5
6D1B
330
1E
100
AcDbEntity
  8
躯体と製品
  6
DASHED1
 62
     7
100
AcDbLine
 10
236.0513834291499
 20
504.5427406016318
 30
0.0
 11
248.9813345229079
 21
490.977687725089
 31
0.0
  0
ARC
  5
6D1C
330
1E
100
AcDbEntity
  8
躯体と製品
  6
DASHED1
 62
     7
100
AcDbCircle
 10
235.3275347855872
 20
503.8527818048818
 30
0.0
 40
1.0
100
AcDbArc
 50
43.62684736228303
 51
92.99999999999991
  0
ARC
  5
6D1D
330
1E
100
AcDbEntity
  8
躯体と製品
  6
DASHED1
 62
     7
100
AcDbCircle
 10
250.284262064816
 20
492.219613576554
 30
0.0
 40
1.0
100
AcDbArc
 50
223.626847362283
 51
322.3731512671325
  0
ARC
  5
6D1E
330
1E
100
AcDbEntity
  8
躯体と製品
  6
DASHED1
 62
     7
100
AcDbCircle
 10
250.284262064816
 20
492.219613576554
 30
0.0
 40
1.8
100
AcDbArc
 50
223.6268473622833
 51
322.3731518762818
  0
LINE
  5
6D1F
330
1E
100
AcDbEntity
  8
躯体と製品
  6
DASHED1
 62
     7
100
AcDbLine
 10
197.5590602932475
 20
491.0844028983738
 30
0.0
 11
199.6289367000295
 21
488.9128569503415
 31
0.0
  0
LINE
  5
6D20
330
1E
100
AcDbEntity
  8
躯体と製品
  6
DASHED1
 62
     7
100
AcDbLine
 10
196.9799813783754
 20
490.532435860997
 30
0.0
 11
197.5590602932475
 21
491.0844028983738
 31
0.0
  0
LINE
  5
6D21
330
1E
100
AcDbEntity
  8
躯体と製品
  6
DASHED1
 62
     7
100
AcDbLine
 10
196.9799813783754
 20
490.532435860997
 30
0.0
 11
199.0498577851792
 21
488.360889912942
 31
0.0
  0
ARC
  5
6D22
330
1E
100
AcDbEntity
  8
躯体と製品
  6
DASHED1
 62
     7
100
AcDbCircle
 10
200.3527853270874
 20
489.6028157644071
 30
0.0
 40
1.0
100
AcDbArc
 50
223.6268487328669
 51
322.3731526377168
  0
ARC
  5
6D23
330
1E
100
AcDbEntity
  8
躯体と製品
  6
DASHED1
 62
     7
100
AcDbCircle
 10
200.3527853270874
 20
489.6028157644071
 30
0.0
 40
1.8
100
AcDbArc
 50
223.6268481237183
 51
322.3731526377168
  0
LINE
  5
6D24
330
1E
100
AcDbEntity
  8
躯体と製品
  6
DASHED1
 62
     7
100
AcDbLine
 10
212.5859743076348
 20
503.8345894170482
 30
0.0
 11
201.144788970181
 21
488.9922994015413
 31
0.0
  0
LINE
  5
6D25
330
1E
100
AcDbEntity
  8
躯体と製品
  6
DASHED1
 62
     7
100
AcDbLine
 10
213.2195772337933
 20
503.3461763419123
 30
0.0
 11
201.7783918963393
 21
488.5038863264058
 31
0.0
  0
ARC
  5
6D26
330
1E
100
AcDbEntity
  8
躯体と製品
  6
DASHED1
 62
     7
100
AcDbCircle
 10
214.0115808914912
 20
502.7356599979923
 30
0.0
 40
1.8
100
AcDbArc
 50
92.99999999999991
 51
142.3731526377167
  0
LINE
  5
6D27
330
1E
100
AcDbEntity
  8
躯体と製品
  6
DASHED1
 62
     7
100
AcDbLine
 10
252.9078147542973
 20
493.9851082057598
 30
0.0
 11
251.0762657079097
 21
491.6090972136887
 31
0.0
  0
LINE
  5
6D28
330
1E
100
AcDbEntity
  8
躯体と製品
  6
DASHED1
 62
     7
100
AcDbLine
 10
236.6304623440001
 20
505.0947076390317
 30
0.0
 11
249.5604134212534
 21
491.5296547798043
 31
0.0
  0
ARC
  5
6D29
330
1E
100
AcDbEntity
  8
躯体と製品
  6
DASHED1
 62
     7
100
AcDbCircle
 10
225.7592818649866
 20
508.2959333234442
 30
0.0
 40
0.5999999999999997
100
AcDbArc
 50
79.29976699999996
 51
182.9999999999999
  0
ARC
  5
6D2A
330
1E
100
AcDbEntity
  8
躯体と製品
  6
DASHED1
 62
     7
100
AcDbCircle
 10
223.0629821211495
 20
508.1546262415881
 30
0.0
 40
0.5999999999999997
100
AcDbArc
 50
2.999999999999903
 51
106.7002329999999
  0
LINE
  5
6D2B
330
1E
100
AcDbEntity
  8
躯体と製品
  6
DASHED1
 62
     7
100
AcDbLine
 10
223.664213766605
 20
508.1468365992429
 30
0.0
 11
225.1621580687368
 21
508.2253405336071
 31
0.0
  0
ARC
  5
6D2C
330
1E
100
AcDbEntity
  8
躯体と製品
  6
DASHED1
 62
     7
100
AcDbCircle
 10
226.3885838124697
 20
504.9916560454603
 30
0.0
 40
3.45
100
AcDbArc
 50
6.237837000000142
 51
53.69087600000016
  0
ARC
  5
6D2D
330
1E
100
AcDbEntity
  8
躯体と製品
  6
DASHED1
 62
     7
100
AcDbCircle
 10
222.7772478072139
 20
504.7978847655061
 30
0.0
 40
3.45
100
AcDbArc
 50
132.1795109999998
 51
179.6872569999996
  0
ARC
  5
6D2E
330
1E
100
AcDbEntity
  8
躯体と製品
  6
DASHED1
 62
     7
100
AcDbCircle
 10
224.7009593599492
 20
502.6950441792141
 30
0.0
 40
6.299999999999998
100
AcDbArc
 50
53.69062899999996
 51
132.303131
  0
LINE
  5
6D2F
330
1E
100
AcDbEntity
  8
躯体と製品
  6
Continuous
 62
     4
100
AcDbLine
 10
223.3814699904172
 20
470.5504333693643
 30
0.0
 11
229.3732471989446
 21
470.8644491068221
 31
0.0
  0
LINE
  5
6D30
330
1E
100
AcDbEntity
  8
躯体と製品
  6
Continuous
 62
     7
100
AcDbLine
 10
228.8168374801478
 20
481.4813790055654
 30
0.0
 11
228.9211043115758
 21
479.4918493430887
 31
0.0
  0
LINE
  5
6D31
330
1E
100
AcDbEntity
  8
躯体と製品
  6
Continuous
 62
     7
100
AcDbLine
 10
229.1095137540505
 20
475.8967830179721
 30
0.0
 11
229.3732471989446
 21
470.8644491068221
 31
0.0
  0
LINE
  5
6D32
330
1E
100
AcDbEntity
  8
躯体と製品
  6
Continuous
 62
     7
100
AcDbLine
 10
222.8250602716203
 20
481.1673632681078
 30
0.0
 11
222.9293271030484
 21
479.1778336056311
 31
0.0
  0
LINE
  5
6D33
330
1E
100
AcDbEntity
  8
躯体と製品
  6
Continuous
 62
     7
100
AcDbLine
 10
223.1177365455231
 20
475.5827672805149
 30
0.0
 11
223.3814699904172
 21
470.5504333693643
 31
0.0
  0
LINE
  5
6D34
330
1E
100
AcDbEntity
  8
躯体と製品
  6
Continuous
 62
     4
100
AcDbLine
 10
228.2491165896399
 20
481.4516260144412
 30
0.0
 11
228.353383421068
 21
479.4620963519646
 31
0.0
  0
LINE
  5
6D35
330
1E
100
AcDbEntity
  8
躯体と製品
  6
Continuous
 62
     4
100
AcDbLine
 10
223.3927811621283
 20
481.197116259232
 30
0.0
 11
223.4970479935565
 21
479.2075865967554
 31
0.0
  0
POINT
  5
6D36
330
1E
100
AcDbEntity
  8
躯体と製品
 62
     4
100
AcDbPoint
 10
225.9252157073121
 20
479.3348414743601
 30
0.0
  0
ARC
  5
6D37
330
1E
100
AcDbEntity
  8
躯体と製品
  6
Continuous
 62
     7
100
AcDbCircle
 10
175.9537754812108
 20
458.4117349600127
 30
0.0
 40
1.0
100
AcDbArc
 50
91.63657704161671
 51
175.0000000000002
  0
LINE
  5
6D38
330
1E
100
AcDbEntity
  8
躯体と製品
  6
DASHED1
 62
     7
100
AcDbLine
 10
253.5414176804752
 20
493.4966951306491
 30
0.0
 11
252.9078147542973
 21
493.9851082057598
 31
0.0
  0
LINE
  5
6D39
330
1E
100
AcDbEntity
  8
躯体と製品
  6
DASHED1
 62
     7
100
AcDbLine
 10
253.5414176804752
 20
493.4966951306491
 30
0.0
 11
251.709868634068
 21
491.1206841385529
 31
0.0
  0
LINE
  5
6D3A
330
1E
100
AcDbEntity
  8
躯体と製品
  6
Continuous
 62
     7
100
AcDbLine
 10
175.9252157073119
 20
459.4113270464734
 30
0.0
 11
350.9252157073119
 21
459.4113270464734
 31
0.0
  0
LINE
  5
6D3B
330
1E
100
AcDbEntity
  8
躯体と製品
  6
Continuous
 62
     7
100
AcDbLine
 10
725.9252157073119
 20
459.4113270464734
 30
0.0
 11
550.9252157073119
 21
459.4113270464734
 31
0.0
  0
ARC
  5
6D3C
330
1E
100
AcDbEntity
  8
躯体と製品
  6
Continuous
 62
     7
100
AcDbCircle
 10
350.9252157073119
 20
458.4113270464733
 30
0.0
 40
1.0
100
AcDbArc
 50
4.999999999999778
 51
90.0
  0
ARC
  5
6D3D
330
1E
100
AcDbEntity
  8
躯体と製品
  6
Continuous
 62
     7
100
AcDbCircle
 10
550.9252157073119
 20
458.4113270464733
 30
0.0
 40
1.0
100
AcDbArc
 50
90.0
 51
175.0000000000002
  0
LINE
  5
6D3E
330
1E
100
AcDbEntity
  8
躯体と製品
  6
Continuous
 62
     3
100
AcDbLine
 10
210.9252157073119
 20
460.4113270464734
 30
0.0
 11
210.9252157073119
 21
459.4113270464734
 31
0.0
  0
LINE
  5
6D3F
330
1E
100
AcDbEntity
  8
躯体と製品
  6
Continuous
 62
     3
100
AcDbLine
 10
240.9252157073122
 20
460.4113270464734
 30
0.0
 11
210.9252157073119
 21
460.4113270464734
 31
0.0
  0
LINE
  5
6D40
330
1E
100
AcDbEntity
  8
躯体と製品
  6
Continuous
 62
     3
100
AcDbLine
 10
240.9252157073122
 20
459.4113270464734
 30
0.0
 11
240.9252157073122
 21
460.4113270464734
 31
0.0
  0
LINE
  5
6D41
330
1E
100
AcDbEntity
  8
躯体と製品
  6
Continuous
 62
     3
100
AcDbLine
 10
210.9252157073119
 20
459.4113270464734
 30
0.0
 11
240.9252157073122
 21
459.4113270464734
 31
0.0
  0
LINE
  5
6D42
330
1E
100
AcDbEntity
  8
躯体と製品
  6
Continuous
 62
     4
100
AcDbLine
 10
211.8007533691713
 20
459.411327046474
 30
0.0
 11
210.9252157073123
 21
460.2868647083327
 31
0.0
  0
LINE
  5
6D43
330
1E
100
AcDbEntity
  8
躯体と製品
  6
Continuous
 62
     4
100
AcDbLine
 10
213.2149669315443
 20
459.411327046474
 30
0.0
 11
212.2149669315446
 21
460.4113270464737
 31
0.0
  0
LINE
  5
6D44
330
1E
100
AcDbEntity
  8
躯体と製品
  6
Continuous
 62
     4
100
AcDbLine
 10
214.6291804939181
 20
459.4113270464734
 30
0.0
 11
213.6291804939183
 21
460.4113270464734
 31
0.0
  0
LINE
  5
6D45
330
1E
100
AcDbEntity
  8
躯体と製品
  6
Continuous
 62
     4
100
AcDbLine
 10
216.0433940562917
 20
459.4113270464733
 30
0.0
 11
215.0433940562915
 21
460.4113270464734
 31
0.0
  0
LINE
  5
6D46
330
1E
100
AcDbEntity
  8
躯体と製品
  6
Continuous
 62
     4
100
AcDbLine
 10
217.4576076186649
 20
459.4113270464734
 30
0.0
 11
216.4576076186647
 21
460.4113270464734
 31
0.0
  0
LINE
  5
6D47
330
1E
100
AcDbEntity
  8
躯体と製品
  6
Continuous
 62
     4
100
AcDbLine
 10
218.871821181038
 20
459.4113270464734
 30
0.0
 11
217.8718211810378
 21
460.4113270464737
 31
0.0
  0
LINE
  5
6D48
330
1E
100
AcDbEntity
  8
躯体と製品
  6
Continuous
 62
     4
100
AcDbLine
 10
220.2860347434115
 20
459.4113270464734
 30
0.0
 11
219.2860347434112
 21
460.4113270464741
 31
0.0
  0
LINE
  5
6D49
330
1E
100
AcDbEntity
  8
躯体と製品
  6
Continuous
 62
     4
100
AcDbLine
 10
221.7002483057833
 20
459.4113270464733
 30
0.0
 11
220.7002483057837
 21
460.4113270464729
 31
0.0
  0
LINE
  5
6D4A
330
1E
100
AcDbEntity
  8
躯体と製品
  6
Continuous
 62
     4
100
AcDbLine
 10
223.1144618681565
 20
459.4113270464733
 30
0.0
 11
222.1144618681567
 21
460.4113270464733
 31
0.0
  0
LINE
  5
6D4B
330
1E
100
AcDbEntity
  8
躯体と製品
  6
Continuous
 62
     4
100
AcDbLine
 10
224.5286754305298
 20
459.4113270464734
 30
0.0
 11
223.52867543053
 21
460.4113270464733
 31
0.0
  0
LINE
  5
6D4C
330
1E
100
AcDbEntity
  8
躯体と製品
  6
Continuous
 62
     4
100
AcDbLine
 10
225.942888992903
 20
459.4113270464734
 30
0.0
 11
224.9428889929032
 21
460.4113270464733
 31
0.0
  0
LINE
  5
6D4D
330
1E
100
AcDbEntity
  8
躯体と製品
  6
Continuous
 62
     4
100
AcDbLine
 10
227.357102555277
 20
459.4113270464729
 30
0.0
 11
226.3571025552767
 21
460.4113270464733
 31
0.0
  0
LINE
  5
6D4E
330
1E
100
AcDbEntity
  8
躯体と製品
  6
Continuous
 62
     4
100
AcDbLine
 10
228.7713161176502
 20
459.4113270464733
 30
0.0
 11
227.7713161176499
 21
460.4113270464733
 31
0.0
  0
LINE
  5
6D4F
330
1E
100
AcDbEntity
  8
躯体と製品
  6
Continuous
 62
     4
100
AcDbLine
 10
230.1855296800233
 20
459.4113270464733
 30
0.0
 11
229.185529680023
 21
460.4113270464734
 31
0.0
  0
LINE
  5
6D50
330
1E
100
AcDbEntity
  8
躯体と製品
  6
Continuous
 62
     4
100
AcDbLine
 10
231.5997432423965
 20
459.4113270464733
 30
0.0
 11
230.5997432423963
 21
460.4113270464734
 31
0.0
  0
LINE
  5
6D51
330
1E
100
AcDbEntity
  8
躯体と製品
  6
Continuous
 62
     4
100
AcDbLine
 10
233.0139568047675
 20
459.4113270464737
 30
0.0
 11
232.0139568047679
 21
460.4113270464734
 31
0.0
  0
LINE
  5
6D52
330
1E
100
AcDbEntity
  8
躯体と製品
  6
Continuous
 62
     4
100
AcDbLine
 10
234.4281703671409
 20
459.4113270464737
 30
0.0
 11
233.4281703671412
 21
460.4113270464734
 31
0.0
  0
LINE
  5
6D53
330
1E
100
AcDbEntity
  8
躯体と製品
  6
Continuous
 62
     4
100
AcDbLine
 10
235.8423839295141
 20
459.411327046474
 30
0.0
 11
234.8423839295145
 21
460.4113270464734
 31
0.0
  0
LINE
  5
6D54
330
1E
100
AcDbEntity
  8
躯体と製品
  6
Continuous
 62
     4
100
AcDbLine
 10
237.2565974918874
 20
459.411327046474
 30
0.0
 11
236.2565974918875
 21
460.4113270464734
 31
0.0
  0
LINE
  5
6D55
330
1E
100
AcDbEntity
  8
躯体と製品
  6
Continuous
 62
     4
100
AcDbLine
 10
238.6708110542611
 20
459.4113270464734
 30
0.0
 11
237.6708110542609
 21
460.4113270464737
 31
0.0
  0
LINE
  5
6D56
330
1E
100
AcDbEntity
  8
躯体と製品
  6
Continuous
 62
     4
100
AcDbLine
 10
240.0850246166344
 20
459.4113270464734
 30
0.0
 11
239.085024616634
 21
460.4113270464741
 31
0.0
  0
LINE
  5
6D57
330
1E
100
AcDbEntity
  8
躯体と製品
  6
Continuous
 62
     4
100
AcDbLine
 10
240.9252157073124
 20
459.985349518169
 30
0.0
 11
240.4992381790072
 21
460.4113270464741
 31
0.0
  0
LINE
  5
6D58
330
1E
100
AcDbEntity
  8
躯体と製品
  6
Continuous
 62
     3
100
AcDbLine
 10
690.9252157073125
 20
460.4113270464734
 30
0.0
 11
690.9252157073125
 21
459.4113270464734
 31
0.0
  0
LINE
  5
6D59
330
1E
100
AcDbEntity
  8
躯体と製品
  6
Continuous
 62
     3
100
AcDbLine
 10
660.9252157073123
 20
460.4113270464734
 30
0.0
 11
690.9252157073125
 21
460.4113270464734
 31
0.0
  0
LINE
  5
6D5A
330
1E
100
AcDbEntity
  8
躯体と製品
  6
Continuous
 62
     3
100
AcDbLine
 10
660.9252157073123
 20
459.4113270464734
 30
0.0
 11
660.9252157073123
 21
460.4113270464734
 31
0.0
  0
LINE
  5
6D5B
330
1E
100
AcDbEntity
  8
躯体と製品
  6
Continuous
 62
     3
100
AcDbLine
 10
690.9252157073125
 20
459.4113270464734
 30
0.0
 11
660.9252157073123
 21
459.4113270464734
 31
0.0
  0
LINE
  5
6D5C
330
1E
100
AcDbEntity
  8
躯体と製品
  6
Continuous
 62
     4
100
AcDbLine
 10
690.0496780454531
 20
459.411327046474
 30
0.0
 11
690.9252157073122
 21
460.2868647083327
 31
0.0
  0
LINE
  5
6D5D
330
1E
100
AcDbEntity
  8
躯体と製品
  6
Continuous
 62
     4
100
AcDbLine
 10
688.6354644830802
 20
459.411327046474
 30
0.0
 11
689.6354644830799
 21
460.4113270464737
 31
0.0
  0
LINE
  5
6D5E
330
1E
100
AcDbEntity
  8
躯体と製品
  6
Continuous
 62
     4
100
AcDbLine
 10
687.221250920706
 20
459.4113270464734
 30
0.0
 11
688.2212509207057
 21
460.4113270464734
 31
0.0
  0
LINE
  5
6D5F
330
1E
100
AcDbEntity
  8
躯体と製品
  6
Continuous
 62
     4
100
AcDbLine
 10
685.8070373583326
 20
459.4113270464733
 30
0.0
 11
686.807037358333
 21
460.4113270464734
 31
0.0
  0
LINE
  5
6D60
330
1E
100
AcDbEntity
  8
躯体と製品
  6
Continuous
 62
     4
100
AcDbLine
 10
684.3928237959595
 20
459.4113270464734
 30
0.0
 11
685.3928237959597
 21
460.4113270464734
 31
0.0
  0
LINE
  5
6D61
330
1E
100
AcDbEntity
  8
躯体と製品
  6
Continuous
 62
     4
100
AcDbLine
 10
682.9786102335861
 20
459.4113270464734
 30
0.0
 11
683.9786102335868
 21
460.4113270464737
 31
0.0
  0
LINE
  5
6D62
330
1E
100
AcDbEntity
  8
躯体と製品
  6
Continuous
 62
     4
100
AcDbLine
 10
681.5643966712127
 20
459.4113270464734
 30
0.0
 11
682.5643966712131
 21
460.4113270464741
 31
0.0
  0
LINE
  5
6D63
330
1E
100
AcDbEntity
  8
躯体と製品
  6
Continuous
 62
     4
100
AcDbLine
 10
680.1501831088407
 20
459.4113270464733
 30
0.0
 11
681.1501831088407
 21
460.4113270464729
 31
0.0
  0
LINE
  5
6D64
330
1E
100
AcDbEntity
  8
躯体と製品
  6
Continuous
 62
     4
100
AcDbLine
 10
678.7359695464673
 20
459.4113270464733
 30
0.0
 11
679.7359695464674
 21
460.4113270464733
 31
0.0
  0
LINE
  5
6D65
330
1E
100
AcDbEntity
  8
躯体と製品
  6
Continuous
 62
     4
100
AcDbLine
 10
677.3217559840945
 20
459.4113270464734
 30
0.0
 11
678.3217559840942
 21
460.4113270464733
 31
0.0
  0
LINE
  5
6D66
330
1E
100
AcDbEntity
  8
躯体と製品
  6
Continuous
 62
     4
100
AcDbLine
 10
675.9075424217209
 20
459.4113270464734
 30
0.0
 11
676.9075424217207
 21
460.4113270464733
 31
0.0
  0
LINE
  5
6D67
330
1E
100
AcDbEntity
  8
躯体と製品
  6
Continuous
 62
     4
100
AcDbLine
 10
674.4933288593473
 20
459.4113270464729
 30
0.0
 11
675.4933288593473
 21
460.4113270464733
 31
0.0
  0
LINE
  5
6D68
330
1E
100
AcDbEntity
  8
躯体と製品
  6
Continuous
 62
     4
100
AcDbLine
 10
673.0791152969739
 20
459.4113270464733
 30
0.0
 11
674.0791152969745
 21
460.4113270464733
 31
0.0
  0
LINE
  5
6D69
330
1E
100
AcDbEntity
  8
躯体と製品
  6
Continuous
 62
     4
100
AcDbLine
 10
671.6649017346011
 20
459.4113270464733
 30
0.0
 11
672.664901734601
 21
460.4113270464734
 31
0.0
  0
LINE
  5
6D6A
330
1E
100
AcDbEntity
  8
躯体と製品
  6
Continuous
 62
     4
100
AcDbLine
 10
670.2506881722277
 20
459.4113270464733
 30
0.0
 11
671.2506881722279
 21
460.4113270464734
 31
0.0
  0
LINE
  5
6D6B
330
1E
100
AcDbEntity
  8
躯体と製品
  6
Continuous
 62
     4
100
AcDbLine
 10
668.8364746098566
 20
459.4113270464737
 30
0.0
 11
669.8364746098564
 21
460.4113270464734
 31
0.0
  0
LINE
  5
6D6C
330
1E
100
AcDbEntity
  8
躯体と製品
  6
Continuous
 62
     4
100
AcDbLine
 10
667.4222610474832
 20
459.4113270464737
 30
0.0
 11
668.4222610474828
 21
460.4113270464734
 31
0.0
  0
LINE
  5
6D6D
330
1E
100
AcDbEntity
  8
躯体と製品
  6
Continuous
 62
     4
100
AcDbLine
 10
666.0080474851102
 20
459.411327046474
 30
0.0
 11
667.0080474851102
 21
460.4113270464734
 31
0.0
  0
LINE
  5
6D6E
330
1E
100
AcDbEntity
  8
躯体と製品
  6
Continuous
 62
     4
100
AcDbLine
 10
664.5938339227368
 20
459.411327046474
 30
0.0
 11
665.5938339227366
 21
460.4113270464734
 31
0.0
  0
LINE
  5
6D6F
330
1E
100
AcDbEntity
  8
躯体と製品
  6
Continuous
 62
     4
100
AcDbLine
 10
663.179620360363
 20
459.4113270464734
 30
0.0
 11
664.1796203603636
 21
460.4113270464737
 31
0.0
  0
LINE
  5
6D70
330
1E
100
AcDbEntity
  8
躯体と製品
  6
Continuous
 62
     4
100
AcDbLine
 10
661.7654067979901
 20
459.4113270464734
 30
0.0
 11
662.7654067979902
 21
460.4113270464741
 31
0.0
  0
LINE
  5
6D71
330
1E
100
AcDbEntity
  8
躯体と製品
  6
Continuous
 62
     4
100
AcDbLine
 10
660.9252157073117
 20
459.985349518169
 30
0.0
 11
661.3511932356169
 21
460.4113270464741
 31
0.0
  0
LINE
  5
6D72
330
1E
100
AcDbEntity
  8
躯体と製品
  6
Continuous
 62
     7
100
AcDbLine
 10
443.4354941966525
 20
520.2668057117295
 30
0.0
 11
443.6448380216244
 21
516.2722875727114
 31
0.0
  0
LINE
  5
6D73
330
1E
100
AcDbEntity
  8
躯体と製品
  6
Continuous
 62
     7
100
AcDbLine
 10
443.4354941966525
 20
520.2668057117295
 30
0.0
 11
450.9252157073118
 21
520.6593253835517
 31
0.0
  0
LINE
  5
6D74
330
1E
100
AcDbEntity
  8
躯体と製品
  6
Continuous
 62
     7
100
AcDbLine
 10
458.4149372179713
 20
520.2668057117295
 30
0.0
 11
458.2055933929997
 21
516.2722875727114
 31
0.0
  0
LINE
  5
6D75
330
1E
100
AcDbEntity
  8
躯体と製品
  6
Continuous
 62
     7
100
AcDbLine
 10
458.4149372179713
 20
520.2668057117295
 30
0.0
 11
450.9252157073118
 21
520.6593253835517
 31
0.0
  0
LINE
  5
6D76
330
1E
100
AcDbEntity
  8
躯体と製品
  6
Continuous
 62
     4
100
AcDbLine
 10
458.3678702427138
 20
519.3687143233685
 30
0.0
 11
457.4175056825973
 21
520.3190788834854
 31
0.0
  0
LINE
  5
6D77
330
1E
100
AcDbEntity
  8
躯体と製品
  6
Continuous
 62
     4
100
AcDbLine
 10
458.297445267058
 20
518.0249257366511
 30
0.0
 11
455.9250772609042
 21
520.3972937428047
 31
0.0
  0
LINE
  5
6D78
330
1E
100
AcDbEntity
  8
躯体と製品
  6
Continuous
 62
     4
100
AcDbLine
 10
458.2270202914026
 20
516.6811371499334
 30
0.0
 11
454.432648839211
 21
520.4755086021245
 31
0.0
  0
LINE
  5
6D79
330
1E
100
AcDbEntity
  8
躯体と製品
  6
Continuous
 62
     4
100
AcDbLine
 10
457.1672384284515
 20
516.3267054505109
 30
0.0
 11
452.940220417518
 21
520.5537234614443
 31
0.0
  0
LINE
  5
6D7A
330
1E
100
AcDbEntity
  8
躯体と製品
  6
Continuous
 62
     4
100
AcDbLine
 10
455.6748100067586
 20
516.4049203098309
 30
0.0
 11
451.4477919958246
 21
520.6319383207649
 31
0.0
  0
LINE
  5
6D7B
330
1E
100
AcDbEntity
  8
躯体と製品
  6
Continuous
 62
     4
100
AcDbLine
 10
454.1823815850652
 20
516.4831351691506
 30
0.0
 11
450.0519569242253
 21
520.6135598299907
 31
0.0
  0
LINE
  5
6D7C
330
1E
100
AcDbEntity
  8
躯体と製品
  6
Continuous
 62
     4
100
AcDbLine
 10
452.6899531633721
 20
516.5613500284701
 30
0.0
 11
448.7081683375073
 21
520.5431348543349
 31
0.0
  0
LINE
  5
6D7D
330
1E
100
AcDbEntity
  8
躯体と製品
  6
Continuous
 62
     4
100
AcDbLine
 10
451.1975247416802
 20
516.6395648877905
 30
0.0
 11
447.364379750791
 21
520.4727098786795
 31
0.0
  0
LINE
  5
6D7E
330
1E
100
AcDbEntity
  8
躯体と製品
  6
Continuous
 62
     4
100
AcDbLine
 10
449.8266152764386
 20
516.5962607906587
 30
0.0
 11
446.0205911640739
 21
520.4022849030235
 31
0.0
  0
LINE
  5
6D7F
330
1E
100
AcDbEntity
  8
躯体と製品
  6
Continuous
 62
     4
100
AcDbLine
 10
444.2010495633109
 20
520.8076129414132
 30
0.0
 11
443.6124638759325
 21
521.3961986287915
 31
0.0
  0
LINE
  5
6D80
330
1E
100
AcDbEntity
  8
躯体と製品
  6
Continuous
 62
     4
100
AcDbLine
 10
448.4828266897213
 20
516.5258358150029
 30
0.0
 11
444.6768025773564
 21
520.3318599273679
 31
0.0
  0
LINE
  5
6D81
330
1E
100
AcDbEntity
  8
躯体と製品
  6
Continuous
 62
     4
100
AcDbLine
 10
447.1390381030038
 20
516.4554108393472
 30
0.0
 11
443.4414590299422
 21
520.1529899124085
 31
0.0
  0
LINE
  5
6D82
330
1E
100
AcDbEntity
  8
躯体と製品
  6
Continuous
 62
     4
100
AcDbLine
 10
445.7952495162865
 20
516.3849858636913
 30
0.0
 11
443.5196738892623
 21
518.6605614907153
 31
0.0
  0
LINE
  5
6D83
330
1E
100
AcDbEntity
  8
躯体と製品
  6
Continuous
 62
     4
100
AcDbLine
 10
444.4514609295686
 20
516.3145608880354
 30
0.0
 11
443.5978887485821
 21
517.1681330690221
 31
0.0
  0
LINE
  5
6D84
330
1E
100
AcDbEntity
  8
躯体と製品
  6
Continuous
 62
     7
100
AcDbLine
 10
458.295912214467
 20
522.501848907601
 30
0.0
 11
458.2055933929997
 21
520.778463129702
 31
0.0
  0
LINE
  5
6D85
330
1E
100
AcDbEntity
  8
躯体と製品
  6
Continuous
 62
     4
100
AcDbLine
 10
453.9042715878444
 20
521.0038858534915
 30
0.0
 11
452.0805765964984
 21
522.8275808448374
 31
0.0
  0
LINE
  5
6D86
330
1E
100
AcDbEntity
  8
躯体と製品
  6
Continuous
 62
     4
100
AcDbLine
 10
458.2843217634456
 20
522.2806899273821
 30
0.0
 11
458.0502902832688
 21
522.5147214075582
 31
0.0
  0
LINE
  5
6D87
330
1E
100
AcDbEntity
  8
躯体と製品
  6
Continuous
 62
     4
100
AcDbLine
 10
458.2138967877898
 20
520.936901340666
 30
0.0
 11
456.5578618615774
 21
522.592936266878
 31
0.0
  0
LINE
  5
6D88
330
1E
100
AcDbEntity
  8
躯体と製品
  6
Continuous
 62
     4
100
AcDbLine
 10
456.8891284312301
 20
520.8474561348523
 30
0.0
 11
455.0654334398844
 21
522.6711511261981
 31
0.0
  0
LINE
  5
6D89
330
1E
100
AcDbEntity
  8
躯体と製品
  6
Continuous
 62
     4
100
AcDbLine
 10
455.3967000095371
 20
520.9256709941716
 30
0.0
 11
453.5730050181913
 21
522.7493659855177
 31
0.0
  0
LINE
  5
6D8A
330
1E
100
AcDbEntity
  8
躯体と製品
  6
Continuous
 62
     4
100
AcDbLine
 10
452.4118431661508
 20
521.0821007128114
 30
0.0
 11
450.6148940980473
 21
522.8790497809149
 31
0.0
  0
LINE
  5
6D8B
330
1E
100
AcDbEntity
  8
躯体と製品
  6
Continuous
 62
     7
100
AcDbLine
 10
443.5541438225563
 20
522.5090115389045
 30
0.0
 11
443.6448380216244
 21
520.778463129702
 31
0.0
  0
LINE
  5
6D8C
330
1E
100
AcDbEntity
  8
躯体と製品
  6
Continuous
 62
     4
100
AcDbLine
 10
450.9199924968966
 20
521.1597378196923
 30
0.0
 11
449.2711055113298
 21
522.8086248052591
 31
0.0
  0
LINE
  5
6D8D
330
1E
100
AcDbEntity
  8
躯体と製品
  6
Continuous
 62
     4
100
AcDbLine
 10
449.5762039101793
 20
521.0893128440363
 30
0.0
 11
447.9273169246122
 21
522.7381998296031
 31
0.0
  0
LINE
  5
6D8E
330
1E
100
AcDbEntity
  8
躯体と製品
  6
Continuous
 62
     4
100
AcDbLine
 10
448.232415323462
 20
521.0188878683806
 30
0.0
 11
446.5835283378943
 21
522.6677748539475
 31
0.0
  0
LINE
  5
6D8F
330
1E
100
AcDbEntity
  8
躯体と製品
  6
Continuous
 62
     4
100
AcDbLine
 10
446.8886267367459
 20
520.9484628927253
 30
0.0
 11
445.2397397511789
 21
522.5973498782919
 31
0.0
  0
LINE
  5
6D90
330
1E
100
AcDbEntity
  8
躯体と製品
  6
Continuous
 62
     4
100
AcDbLine
 10
445.5448381500286
 20
520.8780379170689
 30
0.0
 11
443.8959511644612
 21
522.5269249026364
 31
0.0
  0
LINE
  5
6DA3
330
1E
100
AcDbEntity
  8
躯体と製品
  6
Continuous
 62
     7
100
AcDbLine
 10
725.9252157073119
 20
459.4113270464734
 30
0.0
 11
725.9252157073119
 21
299.4113270464737
 31
0.0
  0
LINE
  5
6DA4
330
1E
100
AcDbEntity
  8
躯体と製品
  6
Continuous
 62
     7
100
AcDbLine
 10
175.9252157073119
 20
459.4113270464734
 30
0.0
 11
175.9252157073119
 21
299.4113270464737
 31
0.0
  0
LINE
  5
6DA5
330
1E
100
AcDbEntity
  8
躯体と製品
  6
Continuous
 62
     7
100
AcDbLine
 10
350.9252157073119
 20
459.4113270464734
 30
0.0
 11
350.9252157073119
 21
299.4113270464737
 31
0.0
  0
LINE
  5
6DA6
330
1E
100
AcDbEntity
  8
躯体と製品
  6
Continuous
 62
     7
100
AcDbLine
 10
550.9252157073119
 20
459.4113270464734
 30
0.0
 11
550.9252157073119
 21
299.4113270464737
 31
0.0
  0
TEXT
  5
6DA7
330
1E
100
AcDbEntity
  8
図枠
 62
     7
100
AcDbText
 10
372.0252157073121
 20
275.4113270464737
 30
0.0
 40
5.0
  1
規　格
100
AcDbText
  0
TEXT
  5
6DA8
330
1E
100
AcDbEntity
  8
図枠
 62
     7
100
AcDbText
 10
271.025215707312
 20
275.4113270464737
 30
0.0
 40
5.0
  1
部材名称
100
AcDbText
  0
TEXT
  5
6DA9
330
1E
100
AcDbEntity
  8
図枠
 62
     7
100
AcDbText
 10
339.5252157073122
 20
143.4113270464736
 30
0.0
 40
5.0
  1
Ｍ6×40
100
AcDbText
  0
TEXT
  5
6DAA
330
1E
100
AcDbEntity
  8
図枠
 62
     7
100
AcDbText
 10
339.5252157073122
 20
119.4113270464737
 30
0.0
 40
5.0
  1
1.5×18×6.5穴
100
AcDbText
  0
TEXT
  5
6DAB
330
1E
100
AcDbEntity
  8
図枠
 62
     7
100
AcDbText
 10
339.5252157073122
 20
131.4113270464736
 30
0.0
 40
5.0
  1
ＡＧ－660
100
AcDbText
  0
TEXT
  5
6DAC
330
1E
100
AcDbEntity
  8
図枠
 62
     7
100
AcDbText
 10
339.5252157073122
 20
179.4113270464736
 30
0.0
 40
5.0
  1
ＰＳ
100
AcDbText
  0
TEXT
  5
6DAD
330
1E
100
AcDbEntity
  8
図枠
 62
     7
100
AcDbText
 10
239.5252157073121
 20
119.4113270464737
 30
0.0
 40
5.0
  1
ステンワッシャー
100
AcDbText
  0
TEXT
  5
6DAE
330
1E
100
AcDbEntity
  8
図枠
 62
     7
100
AcDbText
 10
239.5252157073121
 20
131.4113270464736
 30
0.0
 40
5.0
  1
アジャストアンカー
100
AcDbText
  0
TEXT
  5
6DAF
330
1E
100
AcDbEntity
  8
図枠
 62
     7
100
AcDbText
 10
239.5252157073121
 20
143.4113270464736
 30
0.0
 40
5.0
  1
ステン六角ボルト
100
AcDbText
  0
TEXT
  5
6DB0
330
1E
100
AcDbEntity
  8
図枠
 62
     7
100
AcDbText
 10
239.5252157073121
 20
155.4113270464736
 30
0.0
 40
5.0
  1
ステン小ネジ
100
AcDbText
  0
TEXT
  5
6DB1
330
1E
100
AcDbEntity
  8
図枠
 62
     7
100
AcDbText
 10
239.5252157073121
 20
167.4113270464737
 30
0.0
 40
5.0
  1
止水補助板
100
AcDbText
  0
TEXT
  5
6DB2
330
1E
100
AcDbEntity
  8
図枠
 62
     7
100
AcDbText
 10
239.5252157073121
 20
179.4113270464736
 30
0.0
 40
5.0
  1
止水補助板
100
AcDbText
  0
TEXT
  5
6DB3
330
1E
100
AcDbEntity
  8
図枠
 62
     7
100
AcDbText
 10
239.5252157073121
 20
191.4113270464737
 30
0.0
 40
5.0
  1
ＦＹＹ水切ジョイント
100
AcDbText
  0
TEXT
  5
6DB4
330
1E
100
AcDbEntity
  8
図枠
 62
     7
100
AcDbText
 10
239.5252157073121
 20
203.4113270464736
 30
0.0
 40
5.0
  1
ＦＹＹフレームナット
100
AcDbText
  0
TEXT
  5
6DB5
330
1E
100
AcDbEntity
  8
図枠
 62
     7
100
AcDbText
 10
239.5252157073121
 20
227.4113270464737
 30
0.0
 40
5.0
  1
ＦＹＹホルダー
100
AcDbText
  0
TEXT
  5
6DB6
330
1E
100
AcDbEntity
  8
図枠
 62
     7
100
AcDbText
 10
239.5252157073121
 20
251.4113270464737
 30
0.0
 40
5.0
  1
ＦＹＹフレーム
100
AcDbText
  0
TEXT
  5
6DB7
330
1E
100
AcDbEntity
  8
図枠
 62
     7
100
AcDbText
 10
239.5252157073121
 20
263.4113270464737
 30
0.0
 40
5.0
  1
ＦＹＹキヤップＡ
100
AcDbText
  0
TEXT
  5
6DB8
330
1E
100
AcDbEntity
  8
図枠
 62
     7
100
AcDbText
 10
239.5252157073121
 20
215.4113270464736
 30
0.0
 40
5.0
  1
ＦＹＹホルダースプリング
100
AcDbText
  0
TEXT
  5
6DB9
330
1E
100
AcDbEntity
  8
図枠
 62
     7
100
AcDbText
 10
339.5252157073122
 20
155.4113270464736
 30
0.0
 40
5.0
  1
ナベＭ6×35
100
AcDbText
  0
LINE
  5
6DBA
330
1E
100
AcDbEntity
  8
図枠
  6
Continuous
 62
     7
100
AcDbLine
 10
497.525215707312
 20
104.4113270464736
 30
0.0
 11
430.5252157073119
 21
104.4113270464736
 31
0.0
  0
LINE
  5
6DBB
330
1E
100
AcDbEntity
  8
図枠
  6
Continuous
 62
     7
100
AcDbLine
 10
497.525215707312
 20
236.4113270464736
 30
0.0
 11
430.5252157073119
 21
236.4113270464736
 31
0.0
  0
LINE
  5
6DBC
330
1E
100
AcDbEntity
  8
図枠
  6
Continuous
 62
     7
100
AcDbLine
 10
497.525215707312
 20
248.4113270464737
 30
0.0
 11
430.5252157073119
 21
248.4113270464737
 31
0.0
  0
LINE
  5
6DBD
330
1E
100
AcDbEntity
  8
図枠
  6
Continuous
 62
     7
100
AcDbLine
 10
497.525215707312
 20
260.4113270464737
 30
0.0
 11
430.5252157073119
 21
260.4113270464737
 31
0.0
  0
LINE
  5
6DBE
330
1E
100
AcDbEntity
  8
図枠
  6
Continuous
 62
     7
100
AcDbLine
 10
497.525215707312
 20
272.4113270464737
 30
0.0
 11
430.5252157073119
 21
272.4113270464737
 31
0.0
  0
LINE
  5
6DBF
330
1E
100
AcDbEntity
  8
図枠
  6
Continuous
 62
     7
100
AcDbLine
 10
497.525215707312
 20
152.4113270464736
 30
0.0
 11
430.5252157073119
 21
152.4113270464736
 31
0.0
  0
LINE
  5
6DC0
330
1E
100
AcDbEntity
  8
図枠
  6
Continuous
 62
     7
100
AcDbLine
 10
497.525215707312
 20
164.4113270464736
 30
0.0
 11
430.5252157073119
 21
164.4113270464736
 31
0.0
  0
LINE
  5
6DC1
330
1E
100
AcDbEntity
  8
図枠
  6
Continuous
 62
     7
100
AcDbLine
 10
497.525215707312
 20
188.4113270464736
 30
0.0
 11
430.5252157073119
 21
188.4113270464736
 31
0.0
  0
LINE
  5
6DC2
330
1E
100
AcDbEntity
  8
図枠
  6
Continuous
 62
     7
100
AcDbLine
 10
497.525215707312
 20
200.4113270464737
 30
0.0
 11
430.5252157073119
 21
200.4113270464737
 31
0.0
  0
LINE
  5
6DC3
330
1E
100
AcDbEntity
  8
図枠
  6
Continuous
 62
     7
100
AcDbLine
 10
497.525215707312
 20
212.4113270464736
 30
0.0
 11
430.5252157073119
 21
212.4113270464736
 31
0.0
  0
LINE
  5
6DC4
330
1E
100
AcDbEntity
  8
図枠
  6
Continuous
 62
     7
100
AcDbLine
 10
497.525215707312
 20
224.4113270464736
 30
0.0
 11
430.5252157073119
 21
224.4113270464736
 31
0.0
  0
LINE
  5
6DC5
330
1E
100
AcDbEntity
  8
図枠
  6
Continuous
 62
     7
100
AcDbLine
 10
497.525215707312
 20
176.4113270464737
 30
0.0
 11
430.5252157073119
 21
176.4113270464737
 31
0.0
  0
LINE
  5
6DC6
330
1E
100
AcDbEntity
  8
図枠
  6
Continuous
 62
     7
100
AcDbLine
 10
497.525215707312
 20
116.4113270464737
 30
0.0
 11
430.5252157073119
 21
116.4113270464737
 31
0.0
  0
LINE
  5
6DC7
330
1E
100
AcDbEntity
  8
図枠
  6
Continuous
 62
     7
100
AcDbLine
 10
497.525215707312
 20
128.4113270464736
 30
0.0
 11
430.5252157073119
 21
128.4113270464736
 31
0.0
  0
LINE
  5
6DC8
330
1E
100
AcDbEntity
  8
図枠
  6
Continuous
 62
     7
100
AcDbLine
 10
497.525215707312
 20
140.4113270464736
 30
0.0
 11
430.5252157073119
 21
140.4113270464736
 31
0.0
  0
LINE
  5
6DC9
330
1E
100
AcDbEntity
  8
図枠
  6
Continuous
 62
     7
100
AcDbLine
 10
497.525215707312
 20
284.4113270464737
 30
0.0
 11
430.5252157073119
 21
284.4113270464737
 31
0.0
  0
LINE
  5
6DCA
330
1E
100
AcDbEntity
  8
図枠
  6
Continuous
 62
     7
100
AcDbLine
 10
498.5252157073118
 20
104.4113270464736
 30
0.0
 11
565.5252157073124
 21
104.4113270464736
 31
0.0
  0
LINE
  5
6DCB
330
1E
100
AcDbEntity
  8
図枠
  6
Continuous
 62
     7
100
AcDbLine
 10
498.5252157073118
 20
116.4113270464737
 30
0.0
 11
565.5252157073124
 21
116.4113270464737
 31
0.0
  0
LINE
  5
6DCC
330
1E
100
AcDbEntity
  8
図枠
  6
Continuous
 62
     7
100
AcDbLine
 10
498.5252157073118
 20
128.4113270464736
 30
0.0
 11
565.5252157073124
 21
128.4113270464736
 31
0.0
  0
LINE
  5
6DCD
330
1E
100
AcDbEntity
  8
図枠
  6
Continuous
 62
     7
100
AcDbLine
 10
498.5252157073118
 20
152.4113270464736
 30
0.0
 11
565.5252157073124
 21
152.4113270464736
 31
0.0
  0
LINE
  5
6DCE
330
1E
100
AcDbEntity
  8
図枠
  6
Continuous
 62
     7
100
AcDbLine
 10
498.5252157073118
 20
164.4113270464736
 30
0.0
 11
565.5252157073124
 21
164.4113270464736
 31
0.0
  0
LINE
  5
6DCF
330
1E
100
AcDbEntity
  8
図枠
  6
Continuous
 62
     7
100
AcDbLine
 10
498.5252157073118
 20
200.4113270464737
 30
0.0
 11
565.5252157073124
 21
200.4113270464737
 31
0.0
  0
LINE
  5
6DD0
330
1E
100
AcDbEntity
  8
図枠
  6
Continuous
 62
     7
100
AcDbLine
 10
498.5252157073118
 20
212.4113270464736
 30
0.0
 11
565.5252157073124
 21
212.4113270464736
 31
0.0
  0
LINE
  5
6DD1
330
1E
100
AcDbEntity
  8
図枠
  6
Continuous
 62
     7
100
AcDbLine
 10
498.5252157073118
 20
176.4113270464737
 30
0.0
 11
565.5252157073124
 21
176.4113270464737
 31
0.0
  0
LINE
  5
6DD2
330
1E
100
AcDbEntity
  8
図枠
  6
Continuous
 62
     7
100
AcDbLine
 10
498.5252157073118
 20
140.4113270464736
 30
0.0
 11
565.5252157073124
 21
140.4113270464736
 31
0.0
  0
LINE
  5
6DD3
330
1E
100
AcDbEntity
  8
図枠
  6
Continuous
 62
     7
100
AcDbLine
 10
498.5252157073118
 20
224.4113270464736
 30
0.0
 11
565.5252157073124
 21
224.4113270464736
 31
0.0
  0
LINE
  5
6DD4
330
1E
100
AcDbEntity
  8
図枠
  6
Continuous
 62
     7
100
AcDbLine
 10
498.5252157073118
 20
236.4113270464736
 30
0.0
 11
565.5252157073124
 21
236.4113270464736
 31
0.0
  0
LINE
  5
6DD5
330
1E
100
AcDbEntity
  8
図枠
  6
Continuous
 62
     7
100
AcDbLine
 10
498.5252157073118
 20
248.4113270464737
 30
0.0
 11
565.5252157073124
 21
248.4113270464737
 31
0.0
  0
LINE
  5
6DD6
330
1E
100
AcDbEntity
  8
図枠
  6
Continuous
 62
     7
100
AcDbLine
 10
498.5252157073118
 20
260.4113270464737
 30
0.0
 11
565.5252157073124
 21
260.4113270464737
 31
0.0
  0
LINE
  5
6DD7
330
1E
100
AcDbEntity
  8
図枠
  6
Continuous
 62
     7
100
AcDbLine
 10
498.5252157073118
 20
272.4113270464737
 30
0.0
 11
565.5252157073124
 21
272.4113270464737
 31
0.0
  0
LINE
  5
6DD8
330
1E
100
AcDbEntity
  8
図枠
  6
Continuous
 62
     7
100
AcDbLine
 10
498.5252157073118
 20
188.4113270464736
 30
0.0
 11
565.5252157073124
 21
188.4113270464736
 31
0.0
  0
LINE
  5
6DD9
330
1E
100
AcDbEntity
  8
図枠
  6
Continuous
 62
     7
100
AcDbLine
 10
498.5252157073118
 20
284.4113270464737
 30
0.0
 11
565.5252157073124
 21
284.4113270464737
 31
0.0
  0
TEXT
  5
6DDA
330
1E
100
AcDbEntity
  8
図枠
 62
     7
100
AcDbText
 10
487.5252157073122
 20
119.4113270464737
 30
0.0
 40
5.0
  1
枚
100
AcDbText
  0
TEXT
  5
6DDB
330
1E
100
AcDbEntity
  8
図枠
 62
     7
100
AcDbText
 10
487.5252157073122
 20
131.4113270464736
 30
0.0
 40
5.0
  1
〃
100
AcDbText
  0
TEXT
  5
6DDC
330
1E
100
AcDbEntity
  8
図枠
 62
     7
100
AcDbText
 10
487.5252157073122
 20
143.4113270464736
 30
0.0
 40
5.0
  1
〃
100
AcDbText
  0
TEXT
  5
6DDD
330
1E
100
AcDbEntity
  8
図枠
 62
     7
100
AcDbText
 10
487.5252157073122
 20
155.4113270464736
 30
0.0
 40
5.0
  1
本
100
AcDbText
  0
TEXT
  5
6DDE
330
1E
100
AcDbEntity
  8
図枠
 62
     7
100
AcDbText
 10
487.5252157073122
 20
167.4113270464737
 30
0.0
 40
5.0
  1
〃
100
AcDbText
  0
TEXT
  5
6DDF
330
1E
100
AcDbEntity
  8
図枠
 62
     7
100
AcDbText
 10
487.5252157073122
 20
179.4113270464736
 30
0.0
 40
5.0
  1
枚
100
AcDbText
  0
TEXT
  5
6DE0
330
1E
100
AcDbEntity
  8
図枠
 62
     7
100
AcDbText
 10
487.5252157073122
 20
191.4113270464737
 30
0.0
 40
5.0
  1
〃
100
AcDbText
  0
TEXT
  5
6DE1
330
1E
100
AcDbEntity
  8
図枠
 62
     7
100
AcDbText
 10
487.5252157073122
 20
203.4113270464736
 30
0.0
 40
5.0
  1
〃
100
AcDbText
  0
TEXT
  5
6DE2
330
1E
100
AcDbEntity
  8
図枠
 62
     7
100
AcDbText
 10
487.5252157073122
 20
215.4113270464736
 30
0.0
 40
5.0
  1
〃
100
AcDbText
  0
TEXT
  5
6DE3
330
1E
100
AcDbEntity
  8
図枠
 62
     7
100
AcDbText
 10
487.5252157073122
 20
227.4113270464737
 30
0.0
 40
5.0
  1
個
100
AcDbText
  0
TEXT
  5
6DE4
330
1E
100
AcDbEntity
  8
図枠
 62
     7
100
AcDbText
 10
487.5252157073122
 20
239.4113270464737
 30
0.0
 40
5.0
  1
〃
100
AcDbText
  0
TEXT
  5
6DE5
330
1E
100
AcDbEntity
  8
図枠
 62
     7
100
AcDbText
 10
487.5252157073122
 20
251.4113270464737
 30
0.0
 40
5.0
  1
〃
100
AcDbText
  0
TEXT
  5
6DE6
330
1E
100
AcDbEntity
  8
図枠
 62
     7
100
AcDbText
 10
487.5252157073122
 20
263.4113270464737
 30
0.0
 40
5.0
  1
本
100
AcDbText
  0
TEXT
  5
6DE7
330
1E
100
AcDbEntity
  8
図枠
 62
     7
100
AcDbText
 10
555.5252157073121
 20
119.4113270464737
 30
0.0
 40
5.0
  1
枚
100
AcDbText
  0
TEXT
  5
6DE8
330
1E
100
AcDbEntity
  8
図枠
 62
     7
100
AcDbText
 10
555.5252157073121
 20
131.4113270464736
 30
0.0
 40
5.0
  1
〃
100
AcDbText
  0
TEXT
  5
6DE9
330
1E
100
AcDbEntity
  8
図枠
 62
     7
100
AcDbText
 10
555.5252157073121
 20
143.4113270464736
 30
0.0
 40
5.0
  1
〃
100
AcDbText
  0
TEXT
  5
6DEA
330
1E
100
AcDbEntity
  8
図枠
 62
     7
100
AcDbText
 10
555.5252157073121
 20
155.4113270464736
 30
0.0
 40
5.0
  1
本
100
AcDbText
  0
TEXT
  5
6DEB
330
1E
100
AcDbEntity
  8
図枠
 62
     7
100
AcDbText
 10
555.5252157073121
 20
167.4113270464737
 30
0.0
 40
5.0
  1
〃
100
AcDbText
  0
TEXT
  5
6DEC
330
1E
100
AcDbEntity
  8
図枠
 62
     7
100
AcDbText
 10
555.5252157073121
 20
179.4113270464736
 30
0.0
 40
5.0
  1
枚
100
AcDbText
  0
TEXT
  5
6DED
330
1E
100
AcDbEntity
  8
図枠
 62
     7
100
AcDbText
 10
555.5252157073121
 20
191.4113270464737
 30
0.0
 40
5.0
  1
〃
100
AcDbText
  0
TEXT
  5
6DEE
330
1E
100
AcDbEntity
  8
図枠
 62
     7
100
AcDbText
 10
555.5252157073121
 20
203.4113270464736
 30
0.0
 40
5.0
  1
〃
100
AcDbText
  0
TEXT
  5
6DEF
330
1E
100
AcDbEntity
  8
図枠
 62
     7
100
AcDbText
 10
555.5252157073121
 20
215.4113270464736
 30
0.0
 40
5.0
  1
〃
100
AcDbText
  0
TEXT
  5
6DF0
330
1E
100
AcDbEntity
  8
図枠
 62
     7
100
AcDbText
 10
555.5252157073121
 20
227.4113270464737
 30
0.0
 40
5.0
  1
個
100
AcDbText
  0
TEXT
  5
6DF1
330
1E
100
AcDbEntity
  8
図枠
 62
     7
100
AcDbText
 10
555.5252157073121
 20
239.4113270464737
 30
0.0
 40
5.0
  1
〃
100
AcDbText
  0
TEXT
  5
6DF2
330
1E
100
AcDbEntity
  8
図枠
 62
     7
100
AcDbText
 10
555.5252157073121
 20
251.4113270464737
 30
0.0
 40
5.0
  1
〃
100
AcDbText
  0
TEXT
  5
6DF3
330
1E
100
AcDbEntity
  8
図枠
 62
     7
100
AcDbText
 10
555.5252157073121
 20
263.4113270464737
 30
0.0
 40
5.0
  1
本
100
AcDbText
  0
TEXT
  5
6DF4
330
1E
100
AcDbEntity
  8
図枠
 62
     7
100
AcDbText
 10
552.025215707312
 20
275.4113270464737
 30
0.0
 40
5.0
  1
単位
100
AcDbText
  0
TEXT
  5
6DF5
330
1E
100
AcDbEntity
  8
図枠
 62
     7
100
AcDbText
 10
484.0252157073122
 20
275.4113270464737
 30
0.0
 40
5.0
  1
単位
100
AcDbText
  0
TEXT
  5
6DF6
330
1E
100
AcDbEntity
  8
図枠
 62
     7
100
AcDbText
 10
441.2752157073119
 20
167.4113270464737
 30
0.0
 40
5.0
  1
3100
100
AcDbText
  0
TEXT
  5
6DF7
330
1E
100
AcDbEntity
  8
図枠
 62
     7
100
AcDbText
 10
441.2752157073119
 20
179.4113270464736
 30
0.0
 40
5.0
  1
3060
100
AcDbText
  0
TEXT
  5
6DF8
330
1E
100
AcDbEntity
  8
図枠
 62
     7
100
AcDbText
 10
441.2752157073119
 20
239.4113270464737
 30
0.0
 40
5.0
  1
3010
100
AcDbText
  0
TEXT
  5
6DF9
330
1E
100
AcDbEntity
  8
図枠
 62
     7
100
AcDbText
 10
441.2752157073119
 20
251.4113270464737
 30
0.0
 40
5.0
  1
3000
100
AcDbText
  0
TEXT
  5
6DFA
330
1E
100
AcDbEntity
  8
図枠
 62
     7
100
AcDbText
 10
509.2752157073118
 20
167.4113270464737
 30
0.0
 40
5.0
  1
2100
100
AcDbText
  0
TEXT
  5
6DFB
330
1E
100
AcDbEntity
  8
図枠
 62
     7
100
AcDbText
 10
509.2752157073118
 20
179.4113270464736
 30
0.0
 40
5.0
  1
2060
100
AcDbText
  0
TEXT
  5
6DFC
330
1E
100
AcDbEntity
  8
図枠
 62
     7
100
AcDbText
 10
509.2752157073118
 20
239.4113270464737
 30
0.0
 40
5.0
  1
2010
100
AcDbText
  0
TEXT
  5
6DFD
330
1E
100
AcDbEntity
  8
図枠
 62
     7
100
AcDbText
 10
509.2752157073118
 20
251.4113270464737
 30
0.0
 40
5.0
  1
2000
100
AcDbText
  0
TEXT
  5
6DFE
330
1E
100
AcDbEntity
  8
図枠
 62
     7
100
AcDbText
 10
509.2752157073118
 20
263.4113270464737
 30
0.0
 40
5.0
  1
2000
100
AcDbText
  0
TEXT
  5
6DFF
330
1E
100
AcDbEntity
  8
図枠
 62
     7
100
AcDbText
 10
502.2752157073122
 20
275.4113270464737
 30
0.0
 40
5.0
  1
定尺(mm)
100
AcDbText
  0
TEXT
  5
6E00
330
1E
100
AcDbEntity
  8
図枠
 62
     7
100
AcDbText
 10
441.2752157073119
 20
263.4113270464737
 30
0.0
 40
5.0
  1
3000
100
AcDbText
  0
TEXT
  5
6E01
330
1E
100
AcDbEntity
  8
図枠
 62
     7
100
AcDbText
 10
468.0252157073119
 20
275.4113270464737
 30
0.0
 40
5.0
  1
入数
100
AcDbText
  0
TEXT
  5
6E02
330
1E
100
AcDbEntity
  8
図枠
 62
     7
100
AcDbText
 10
471.2752157073119
 20
263.4113270464737
 30
0.0
 40
5.0
  1
 1
100
AcDbText
  0
TEXT
  5
6E03
330
1E
100
AcDbEntity
  8
図枠
 62
     7
100
AcDbText
 10
471.2752157073119
 20
251.4113270464737
 30
0.0
 40
5.0
  1
 2
100
AcDbText
  0
TEXT
  5
6E04
330
1E
100
AcDbEntity
  8
図枠
 62
     7
100
AcDbText
 10
471.2752157073119
 20
239.4113270464737
 30
0.0
 40
5.0
  1
 2
100
AcDbText
  0
TEXT
  5
6E05
330
1E
100
AcDbEntity
  8
図枠
 62
     7
100
AcDbText
 10
471.2752157073119
 20
227.4113270464737
 30
0.0
 40
5.0
  1
 6
100
AcDbText
  0
TEXT
  5
6E06
330
1E
100
AcDbEntity
  8
図枠
 62
     7
100
AcDbText
 10
471.2752157073119
 20
215.4113270464736
 30
0.0
 40
5.0
  1
12
100
AcDbText
  0
TEXT
  5
6E07
330
1E
100
AcDbEntity
  8
図枠
 62
     7
100
AcDbText
 10
471.2752157073119
 20
203.4113270464736
 30
0.0
 40
5.0
  1
12
100
AcDbText
  0
TEXT
  5
6E08
330
1E
100
AcDbEntity
  8
図枠
 62
     7
100
AcDbText
 10
471.2752157073119
 20
191.4113270464737
 30
0.0
 40
5.0
  1
 1
100
AcDbText
  0
TEXT
  5
6E09
330
1E
100
AcDbEntity
  8
図枠
 62
     7
100
AcDbText
 10
471.2752157073119
 20
179.4113270464736
 30
0.0
 40
5.0
  1
 2
100
AcDbText
  0
TEXT
  5
6E0A
330
1E
100
AcDbEntity
  8
図枠
 62
     7
100
AcDbText
 10
471.2752157073119
 20
155.4113270464736
 30
0.0
 40
5.0
  1
12
100
AcDbText
  0
TEXT
  5
6E0B
330
1E
100
AcDbEntity
  8
図枠
 62
     7
100
AcDbText
 10
471.2752157073119
 20
143.4113270464736
 30
0.0
 40
5.0
  1
12
100
AcDbText
  0
TEXT
  5
6E0C
330
1E
100
AcDbEntity
  8
図枠
 62
     7
100
AcDbText
 10
471.2752157073119
 20
131.4113270464736
 30
0.0
 40
5.0
  1
12
100
AcDbText
  0
TEXT
  5
6E0D
330
1E
100
AcDbEntity
  8
図枠
 62
     7
100
AcDbText
 10
471.2752157073119
 20
119.4113270464737
 30
0.0
 40
5.0
  1
12
100
AcDbText
  0
TEXT
  5
6E0E
330
1E
100
AcDbEntity
  8
図枠
 62
     7
100
AcDbText
 10
539.2752157073122
 20
119.4113270464737
 30
0.0
 40
5.0
  1
10
100
AcDbText
  0
TEXT
  5
6E0F
330
1E
100
AcDbEntity
  8
図枠
 62
     7
100
AcDbText
 10
539.2752157073122
 20
131.4113270464736
 30
0.0
 40
5.0
  1
10
100
AcDbText
  0
TEXT
  5
6E10
330
1E
100
AcDbEntity
  8
図枠
 62
     7
100
AcDbText
 10
539.2752157073122
 20
143.4113270464736
 30
0.0
 40
5.0
  1
10
100
AcDbText
  0
TEXT
  5
6E11
330
1E
100
AcDbEntity
  8
図枠
 62
     7
100
AcDbText
 10
539.2752157073122
 20
155.4113270464736
 30
0.0
 40
5.0
  1
 8
100
AcDbText
  0
TEXT
  5
6E12
330
1E
100
AcDbEntity
  8
図枠
 62
     7
100
AcDbText
 10
539.2752157073122
 20
167.4113270464737
 30
0.0
 40
5.0
  1
 1
100
AcDbText
  0
TEXT
  5
6E13
330
1E
100
AcDbEntity
  8
図枠
 62
     7
100
AcDbText
 10
539.2752157073122
 20
179.4113270464736
 30
0.0
 40
5.0
  1
 2
100
AcDbText
  0
TEXT
  5
6E14
330
1E
100
AcDbEntity
  8
図枠
 62
     7
100
AcDbText
 10
539.2752157073122
 20
191.4113270464737
 30
0.0
 40
5.0
  1
 1
100
AcDbText
  0
TEXT
  5
6E15
330
1E
100
AcDbEntity
  8
図枠
 62
     7
100
AcDbText
 10
539.2752157073122
 20
203.4113270464736
 30
0.0
 40
5.0
  1
 8
100
AcDbText
  0
TEXT
  5
6E16
330
1E
100
AcDbEntity
  8
図枠
 62
     7
100
AcDbText
 10
539.2752157073122
 20
215.4113270464736
 30
0.0
 40
5.0
  1
 8
100
AcDbText
  0
TEXT
  5
6E17
330
1E
100
AcDbEntity
  8
図枠
 62
     7
100
AcDbText
 10
539.2752157073122
 20
227.4113270464737
 30
0.0
 40
5.0
  1
 4
100
AcDbText
  0
TEXT
  5
6E18
330
1E
100
AcDbEntity
  8
図枠
 62
     7
100
AcDbText
 10
539.2752157073122
 20
239.4113270464737
 30
0.0
 40
5.0
  1
 2
100
AcDbText
  0
TEXT
  5
6E19
330
1E
100
AcDbEntity
  8
図枠
 62
     7
100
AcDbText
 10
539.2752157073122
 20
251.4113270464737
 30
0.0
 40
5.0
  1
 2
100
AcDbText
  0
TEXT
  5
6E1A
330
1E
100
AcDbEntity
  8
図枠
 62
     7
100
AcDbText
 10
539.2752157073122
 20
263.4113270464737
 30
0.0
 40
5.0
  1
 1
100
AcDbText
  0
TEXT
  5
6E1B
330
1E
100
AcDbEntity
  8
図枠
 62
     7
100
AcDbText
 10
536.0252157073118
 20
275.4113270464737
 30
0.0
 40
5.0
  1
入数
100
AcDbText
  0
LINE
  5
6E1C
330
1E
100
AcDbEntity
  8
図枠
  6
Continuous
 62
     7
100
AcDbLine
 10
429.5252157073118
 20
104.4113270464736
 30
0.0
 11
220.5252157073121
 21
104.4113270464736
 31
0.0
  0
LINE
  5
6E1D
330
1E
100
AcDbEntity
  8
図枠
  6
Continuous
 62
     7
100
AcDbLine
 10
429.5252157073118
 20
236.4113270464736
 30
0.0
 11
220.5252157073121
 21
236.4113270464736
 31
0.0
  0
LINE
  5
6E1E
330
1E
100
AcDbEntity
  8
図枠
  6
Continuous
 62
     7
100
AcDbLine
 10
429.5252157073118
 20
248.4113270464737
 30
0.0
 11
220.5252157073121
 21
248.4113270464737
 31
0.0
  0
LINE
  5
6E1F
330
1E
100
AcDbEntity
  8
図枠
  6
Continuous
 62
     7
100
AcDbLine
 10
429.5252157073118
 20
260.4113270464737
 30
0.0
 11
220.5252157073121
 21
260.4113270464737
 31
0.0
  0
LINE
  5
6E20
330
1E
100
AcDbEntity
  8
図枠
  6
Continuous
 62
     7
100
AcDbLine
 10
429.5252157073118
 20
272.4113270464737
 30
0.0
 11
220.5252157073121
 21
272.4113270464737
 31
0.0
  0
LINE
  5
6E21
330
1E
100
AcDbEntity
  8
図枠
  6
Continuous
 62
     7
100
AcDbLine
 10
429.5252157073118
 20
152.4113270464736
 30
0.0
 11
220.5252157073121
 21
152.4113270464736
 31
0.0
  0
LINE
  5
6E22
330
1E
100
AcDbEntity
  8
図枠
  6
Continuous
 62
     7
100
AcDbLine
 10
429.5252157073118
 20
164.4113270464736
 30
0.0
 11
220.5252157073121
 21
164.4113270464736
 31
0.0
  0
LINE
  5
6E23
330
1E
100
AcDbEntity
  8
図枠
  6
Continuous
 62
     7
100
AcDbLine
 10
429.5252157073118
 20
188.4113270464736
 30
0.0
 11
220.5252157073121
 21
188.4113270464736
 31
0.0
  0
LINE
  5
6E24
330
1E
100
AcDbEntity
  8
図枠
  6
Continuous
 62
     7
100
AcDbLine
 10
429.5252157073118
 20
200.4113270464737
 30
0.0
 11
220.5252157073121
 21
200.4113270464737
 31
0.0
  0
LINE
  5
6E25
330
1E
100
AcDbEntity
  8
図枠
  6
Continuous
 62
     7
100
AcDbLine
 10
429.5252157073118
 20
212.4113270464736
 30
0.0
 11
220.5252157073121
 21
212.4113270464736
 31
0.0
  0
LINE
  5
6E26
330
1E
100
AcDbEntity
  8
図枠
  6
Continuous
 62
     7
100
AcDbLine
 10
429.5252157073118
 20
224.4113270464736
 30
0.0
 11
220.5252157073121
 21
224.4113270464736
 31
0.0
  0
LINE
  5
6E27
330
1E
100
AcDbEntity
  8
図枠
  6
Continuous
 62
     7
100
AcDbLine
 10
429.5252157073118
 20
176.4113270464737
 30
0.0
 11
220.5252157073121
 21
176.4113270464737
 31
0.0
  0
LINE
  5
6E28
330
1E
100
AcDbEntity
  8
図枠
  6
Continuous
 62
     7
100
AcDbLine
 10
429.5252157073118
 20
116.4113270464737
 30
0.0
 11
220.5252157073121
 21
116.4113270464737
 31
0.0
  0
LINE
  5
6E29
330
1E
100
AcDbEntity
  8
図枠
  6
Continuous
 62
     7
100
AcDbLine
 10
429.5252157073118
 20
128.4113270464736
 30
0.0
 11
220.5252157073121
 21
128.4113270464736
 31
0.0
  0
LINE
  5
6E2A
330
1E
100
AcDbEntity
  8
図枠
  6
Continuous
 62
     7
100
AcDbLine
 10
429.5252157073118
 20
140.4113270464736
 30
0.0
 11
220.5252157073121
 21
140.4113270464736
 31
0.0
  0
LINE
  5
6E2B
330
1E
100
AcDbEntity
  8
図枠
  6
Continuous
 62
     7
100
AcDbLine
 10
429.5252157073118
 20
284.4113270464737
 30
0.0
 11
220.5252157073121
 21
284.4113270464737
 31
0.0
  0
TEXT
  5
6E2C
330
1E
100
AcDbEntity
  8
図枠
 62
     7
100
AcDbText
 10
224.2752157073121
 20
119.4113270464737
 30
0.0
 40
5.0
  1
13
100
AcDbText
  0
TEXT
  5
6E2D
330
1E
100
AcDbEntity
  8
図枠
 62
     7
100
AcDbText
 10
224.2752157073121
 20
131.4113270464736
 30
0.0
 40
5.0
  1
12
100
AcDbText
  0
TEXT
  5
6E2E
330
1E
100
AcDbEntity
  8
図枠
 62
     7
100
AcDbText
 10
224.2752157073121
 20
143.4113270464736
 30
0.0
 40
5.0
  1
11
100
AcDbText
  0
TEXT
  5
6E2F
330
1E
100
AcDbEntity
  8
図枠
 62
     7
100
AcDbText
 10
224.2752157073121
 20
155.4113270464736
 30
0.0
 40
5.0
  1
10
100
AcDbText
  0
TEXT
  5
6E30
330
1E
100
AcDbEntity
  8
図枠
 62
     7
100
AcDbText
 10
224.2752157073121
 20
167.4113270464737
 30
0.0
 40
5.0
  1
 9
100
AcDbText
  0
TEXT
  5
6E31
330
1E
100
AcDbEntity
  8
図枠
 62
     7
100
AcDbText
 10
224.2752157073121
 20
179.4113270464736
 30
0.0
 40
5.0
  1
 8
100
AcDbText
  0
TEXT
  5
6E32
330
1E
100
AcDbEntity
  8
図枠
 62
     7
100
AcDbText
 10
224.2752157073121
 20
191.4113270464737
 30
0.0
 40
5.0
  1
 7
100
AcDbText
  0
TEXT
  5
6E33
330
1E
100
AcDbEntity
  8
図枠
 62
     7
100
AcDbText
 10
224.2752157073121
 20
203.4113270464736
 30
0.0
 40
5.0
  1
 6
100
AcDbText
  0
TEXT
  5
6E34
330
1E
100
AcDbEntity
  8
図枠
 62
     7
100
AcDbText
 10
224.2752157073121
 20
215.4113270464736
 30
0.0
 40
5.0
  1
 5
100
AcDbText
  0
TEXT
  5
6E35
330
1E
100
AcDbEntity
  8
図枠
 62
     7
100
AcDbText
 10
224.2752157073121
 20
227.4113270464737
 30
0.0
 40
5.0
  1
 4
100
AcDbText
  0
TEXT
  5
6E36
330
1E
100
AcDbEntity
  8
図枠
 62
     7
100
AcDbText
 10
224.2752157073121
 20
239.4113270464737
 30
0.0
 40
5.0
  1
 3
100
AcDbText
  0
TEXT
  5
6E37
330
1E
100
AcDbEntity
  8
図枠
 62
     7
100
AcDbText
 10
224.2752157073121
 20
251.4113270464737
 30
0.0
 40
5.0
  1
 2
100
AcDbText
  0
TEXT
  5
6E38
330
1E
100
AcDbEntity
  8
図枠
 62
     7
100
AcDbText
 10
222.5252157073121
 20
275.4113270464737
 30
0.0
 40
5.0
  1
No.
100
AcDbText
  0
TEXT
  5
6E39
330
1E
100
AcDbEntity
  8
図枠
 62
     7
100
AcDbText
 10
224.2752157073121
 20
263.4113270464737
 30
0.0
 40
5.0
  1
 1
100
AcDbText
  0
TEXT
  5
6E3A
330
1E
100
AcDbEntity
  8
図枠
 62
     7
100
AcDbText
 10
339.5252157073122
 20
107.4113270464736
 30
0.0
 40
5.0
  1
ｔ1.0×ｗ30
100
AcDbText
  0
TEXT
  5
6E3B
330
1E
100
AcDbEntity
  8
図枠
 62
     7
100
AcDbText
 10
239.5252157073121
 20
107.4113270464736
 30
0.0
 40
5.0
  1
ブチルテープ
100
AcDbText
  0
TEXT
  5
6E3C
330
1E
100
AcDbEntity
  8
図枠
 62
     7
100
AcDbText
 10
487.5252157073122
 20
107.4113270464736
 30
0.0
 40
5.0
  1
巻
100
AcDbText
  0
TEXT
  5
6E3D
330
1E
100
AcDbEntity
  8
図枠
 62
     7
100
AcDbText
 10
555.5252157073121
 20
107.4113270464736
 30
0.0
 40
5.0
  1
巻
100
AcDbText
  0
TEXT
  5
6E3E
330
1E
100
AcDbEntity
  8
図枠
 62
     7
100
AcDbText
 10
441.2752157073119
 20
107.4113270464736
 30
0.0
 40
5.0
  1
6000
100
AcDbText
  0
TEXT
  5
6E3F
330
1E
100
AcDbEntity
  8
図枠
 62
     7
100
AcDbText
 10
509.2752157073118
 20
107.4113270464736
 30
0.0
 40
5.0
  1
6000
100
AcDbText
  0
TEXT
  5
6E40
330
1E
100
AcDbEntity
  8
図枠
 62
     7
100
AcDbText
 10
471.2752157073119
 20
107.4113270464736
 30
0.0
 40
5.0
  1
 1
100
AcDbText
  0
TEXT
  5
6E41
330
1E
100
AcDbEntity
  8
図枠
 62
     7
100
AcDbText
 10
539.2752157073122
 20
107.4113270464736
 30
0.0
 40
5.0
  1
 1
100
AcDbText
  0
TEXT
  5
6E42
330
1E
100
AcDbEntity
  8
図枠
 62
     7
100
AcDbText
 10
224.5252157073121
 20
107.4113270464736
 30
0.0
 40
5.0
  1
※
100
AcDbText
  0
LINE
  5
6E43
330
1E
100
AcDbEntity
  8
図枠
  6
Continuous
 62
     7
100
AcDbLine
 10
565.5252157073124
 20
104.4113270464736
 30
0.0
 11
565.5252157073124
 21
284.4113270464737
 31
0.0
  0
LINE
  5
6E44
330
1E
100
AcDbEntity
  8
図枠
  6
Continuous
 62
     7
100
AcDbLine
 10
220.5252157073121
 20
104.4113270464736
 30
0.0
 11
220.5252157073121
 21
284.4113270464737
 31
0.0
  0
LINE
  5
6E45
330
1E
100
AcDbEntity
  8
図枠
  6
Continuous
 62
     7
100
AcDbLine
 10
483.5252157073118
 20
104.4113270464736
 30
0.0
 11
483.5252157073118
 21
284.4113270464737
 31
0.0
  0
LINE
  5
6E46
330
1E
100
AcDbEntity
  8
図枠
  6
Continuous
 62
     7
100
AcDbLine
 10
465.5252157073118
 20
104.4113270464736
 30
0.0
 11
465.5252157073118
 21
284.4113270464737
 31
0.0
  0
LINE
  5
6E47
330
1E
100
AcDbEntity
  8
図枠
  6
Continuous
 62
     7
100
AcDbLine
 10
430.5252157073119
 20
104.4113270464736
 30
0.0
 11
430.5252157073119
 21
284.4113270464737
 31
0.0
  0
LINE
  5
6E48
330
1E
100
AcDbEntity
  8
図枠
  6
Continuous
 62
     7
100
AcDbLine
 10
429.5252157073118
 20
104.4113270464736
 30
0.0
 11
429.5252157073118
 21
284.4113270464737
 31
0.0
  0
LINE
  5
6E49
330
1E
100
AcDbEntity
  8
図枠
  6
Continuous
 62
     7
100
AcDbLine
 10
334.5252157073121
 20
104.4113270464736
 30
0.0
 11
334.5252157073121
 21
284.4113270464737
 31
0.0
  0
LINE
  5
6E4A
330
1E
100
AcDbEntity
  8
図枠
  6
Continuous
 62
     7
100
AcDbLine
 10
234.5252157073121
 20
104.4113270464736
 30
0.0
 11
234.5252157073121
 21
284.4113270464737
 31
0.0
  0
LINE
  5
6E4B
330
1E
100
AcDbEntity
  8
図枠
  6
Continuous
 62
     7
100
AcDbLine
 10
551.5252157073121
 20
104.4113270464736
 30
0.0
 11
551.5252157073121
 21
284.4113270464737
 31
0.0
  0
LINE
  5
6E4C
330
1E
100
AcDbEntity
  8
図枠
  6
Continuous
 62
     7
100
AcDbLine
 10
533.5252157073122
 20
104.4113270464736
 30
0.0
 11
533.5252157073122
 21
284.4113270464737
 31
0.0
  0
LINE
  5
6E4D
330
1E
100
AcDbEntity
  8
図枠
  6
Continuous
 62
     7
100
AcDbLine
 10
498.5252157073118
 20
104.4113270464736
 30
0.0
 11
498.5252157073118
 21
284.4113270464737
 31
0.0
  0
LINE
  5
6E4E
330
1E
100
AcDbEntity
  8
図枠
  6
Continuous
 62
     7
100
AcDbLine
 10
497.525215707312
 20
104.4113270464736
 30
0.0
 11
497.525215707312
 21
284.4113270464737
 31
0.0
  0
TEXT
  5
6E4F
330
1E
100
AcDbEntity
  8
図枠
 62
     7
100
AcDbText
 10
434.2752157073118
 20
275.4113270464737
 30
0.0
 40
5.0
  1
定尺(mm)
100
AcDbText
  0
TEXT
  5
6E50
330
1E
100
AcDbEntity
  8
図枠
 62
     7
100
AcDbText
 10
339.5252157073122
 20
167.4113270464737
 30
0.0
 40
5.0
  1
ＦＳ400～700
100
AcDbText
  0
TEXT
  5
6E51
330
1E
100
AcDbEntity
  8
図枠
 62
     7
100
AcDbText
 10
471.2752157073119
 20
167.4113270464737
 30
0.0
 40
5.0
  1
 1
100
AcDbText
  0
TEXT
  5
6E52
330
1E
100
AcDbEntity
  8
図枠
 62
     7
100
AcDbText
 10
672.5252157073125
 20
275.4113270464737
 30
0.0
 40
5.0
  1
Ｗ
100
AcDbText
  0
TEXT
  5
6E53
330
1E
100
AcDbEntity
  8
図枠
 62
     7
100
AcDbText
 10
608.5252152073121
 20
275.4113270464737
 30
0.0
 40
5.0
  1
タ　イ　プ
100
AcDbText
  0
TEXT
  5
6E54
330
1E
100
AcDbEntity
  8
図枠
 62
     7
100
AcDbText
 10
595.2752157073124
 20
263.4113270464737
 30
0.0
 40
5.0
  1
200ＦＹＹ－Ａ550
100
AcDbText
  0
TEXT
  5
6E55
330
1E
100
AcDbEntity
  8
図枠
 62
     7
100
AcDbText
 10
670.5252157073125
 20
263.4113270464737
 30
0.0
 40
5.0
  1
550
100
AcDbText
  0
TEXT
  5
6E56
330
1E
100
AcDbEntity
  8
図枠
 62
     7
100
AcDbText
 10
670.5252157073125
 20
179.4113270464736
 30
0.0
 40
5.0
  1
900
100
AcDbText
  0
TEXT
  5
6E57
330
1E
100
AcDbEntity
  8
図枠
 62
     7
100
AcDbText
 10
670.5252157073125
 20
191.4113270464737
 30
0.0
 40
5.0
  1
850
100
AcDbText
  0
TEXT
  5
6E58
330
1E
100
AcDbEntity
  8
図枠
 62
     7
100
AcDbText
 10
670.5252157073125
 20
203.4113270464736
 30
0.0
 40
5.0
  1
800
100
AcDbText
  0
TEXT
  5
6E59
330
1E
100
AcDbEntity
  8
図枠
 62
     7
100
AcDbText
 10
670.5252157073125
 20
215.4113270464736
 30
0.0
 40
5.0
  1
750
100
AcDbText
  0
TEXT
  5
6E5A
330
1E
100
AcDbEntity
  8
図枠
 62
     7
100
AcDbText
 10
670.5252157073125
 20
227.4113270464737
 30
0.0
 40
5.0
  1
700
100
AcDbText
  0
TEXT
  5
6E5B
330
1E
100
AcDbEntity
  8
図枠
 62
     7
100
AcDbText
 10
670.5252157073125
 20
239.4113270464737
 30
0.0
 40
5.0
  1
650
100
AcDbText
  0
TEXT
  5
6E5C
330
1E
100
AcDbEntity
  8
図枠
 62
     7
100
AcDbText
 10
670.5252157073125
 20
251.4113270464737
 30
0.0
 40
5.0
  1
600
100
AcDbText
  0
TEXT
  5
6E5D
330
1E
100
AcDbEntity
  8
図枠
 62
     7
100
AcDbText
 10
595.2752157073124
 20
251.4113270464737
 30
0.0
 40
5.0
  1
 　　〃　　　600
100
AcDbText
  0
TEXT
  5
6E5E
330
1E
100
AcDbEntity
  8
図枠
 62
     7
100
AcDbText
 10
595.2752157073124
 20
239.4113270464737
 30
0.0
 40
5.0
  1
 　　〃　　　650
100
AcDbText
  0
TEXT
  5
6E5F
330
1E
100
AcDbEntity
  8
図枠
 62
     7
100
AcDbText
 10
595.2752157073124
 20
227.4113270464737
 30
0.0
 40
5.0
  1
 　　〃　　　700
100
AcDbText
  0
TEXT
  5
6E60
330
1E
100
AcDbEntity
  8
図枠
 62
     7
100
AcDbText
 10
595.2752157073124
 20
215.4113270464736
 30
0.0
 40
5.0
  1
 　　〃　　　750
100
AcDbText
  0
TEXT
  5
6E61
330
1E
100
AcDbEntity
  8
図枠
 62
     7
100
AcDbText
 10
595.2752157073124
 20
203.4113270464736
 30
0.0
 40
5.0
  1
 　　〃　　　800
100
AcDbText
  0
TEXT
  5
6E62
330
1E
100
AcDbEntity
  8
図枠
 62
     7
100
AcDbText
 10
595.2752157073124
 20
191.4113270464737
 30
0.0
 40
5.0
  1
 　　〃　　　850
100
AcDbText
  0
TEXT
  5
6E63
330
1E
100
AcDbEntity
  8
図枠
 62
     7
100
AcDbText
 10
595.2752157073124
 20
179.4113270464736
 30
0.0
 40
5.0
  1
 　　〃　　　900
100
AcDbText
  0
LINE
  5
6E64
330
1E
100
AcDbEntity
  8
図枠
  6
Continuous
 62
     7
100
AcDbLine
 10
585.5252157073125
 20
284.4113270464737
 30
0.0
 11
585.5252157073125
 21
176.4113270464737
 31
0.0
  0
LINE
  5
6E65
330
1E
100
AcDbEntity
  8
図枠
  6
Continuous
 62
     7
100
AcDbLine
 10
660.5252157073125
 20
284.4113270464737
 30
0.0
 11
660.5252157073125
 21
176.4113270464737
 31
0.0
  0
LINE
  5
6E66
330
1E
100
AcDbEntity
  8
図枠
  6
Continuous
 62
     7
100
AcDbLine
 10
720.5252157073125
 20
284.4113270464737
 30
0.0
 11
585.5252157073125
 21
284.4113270464737
 31
0.0
  0
LINE
  5
6E67
330
1E
100
AcDbEntity
  8
図枠
  6
Continuous
 62
     7
100
AcDbLine
 10
720.5252157073125
 20
176.4113270464737
 30
0.0
 11
585.5252157073125
 21
176.4113270464737
 31
0.0
  0
LINE
  5
6E68
330
1E
100
AcDbEntity
  8
図枠
  6
Continuous
 62
     7
100
AcDbLine
 10
720.5252157073125
 20
188.4113270464736
 30
0.0
 11
585.5252157073125
 21
188.4113270464736
 31
0.0
  0
LINE
  5
6E69
330
1E
100
AcDbEntity
  8
図枠
  6
Continuous
 62
     7
100
AcDbLine
 10
720.5252157073125
 20
200.4113270464737
 30
0.0
 11
585.5252157073125
 21
200.4113270464737
 31
0.0
  0
LINE
  5
6E6A
330
1E
100
AcDbEntity
  8
図枠
  6
Continuous
 62
     7
100
AcDbLine
 10
720.5252157073125
 20
212.4113270464736
 30
0.0
 11
585.5252157073125
 21
212.4113270464736
 31
0.0
  0
LINE
  5
6E6B
330
1E
100
AcDbEntity
  8
図枠
  6
Continuous
 62
     7
100
AcDbLine
 10
720.5252157073125
 20
224.4113270464736
 30
0.0
 11
585.5252157073125
 21
224.4113270464736
 31
0.0
  0
LINE
  5
6E6C
330
1E
100
AcDbEntity
  8
図枠
  6
Continuous
 62
     7
100
AcDbLine
 10
720.5252157073125
 20
236.4113270464736
 30
0.0
 11
585.5252157073125
 21
236.4113270464736
 31
0.0
  0
LINE
  5
6E6D
330
1E
100
AcDbEntity
  8
図枠
  6
Continuous
 62
     7
100
AcDbLine
 10
720.5252157073125
 20
248.4113270464737
 30
0.0
 11
585.5252157073125
 21
248.4113270464737
 31
0.0
  0
LINE
  5
6E6E
330
1E
100
AcDbEntity
  8
図枠
  6
Continuous
 62
     7
100
AcDbLine
 10
720.5252157073125
 20
260.4113270464737
 30
0.0
 11
585.5252157073125
 21
260.4113270464737
 31
0.0
  0
LINE
  5
6E6F
330
1E
100
AcDbEntity
  8
図枠
  6
Continuous
 62
     7
100
AcDbLine
 10
720.5252157073125
 20
272.4113270464737
 30
0.0
 11
585.5252157073125
 21
272.4113270464737
 31
0.0
  0
TEXT
  5
6E70
330
1E
100
AcDbEntity
  8
図枠
 62
     7
100
AcDbText
 10
700.5252157073125
 20
179.4113270464736
 30
0.0
 40
5.0
  1
275
100
AcDbText
  0
TEXT
  5
6E71
330
1E
100
AcDbEntity
  8
図枠
 62
     7
100
AcDbText
 10
700.5252157073125
 20
191.4113270464737
 30
0.0
 40
5.0
  1
250
100
AcDbText
  0
TEXT
  5
6E72
330
1E
100
AcDbEntity
  8
図枠
 62
     7
100
AcDbText
 10
700.5252157073125
 20
203.4113270464736
 30
0.0
 40
5.0
  1
225
100
AcDbText
  0
TEXT
  5
6E73
330
1E
100
AcDbEntity
  8
図枠
 62
     7
100
AcDbText
 10
700.5252157073125
 20
215.4113270464736
 30
0.0
 40
5.0
  1
200
100
AcDbText
  0
TEXT
  5
6E74
330
1E
100
AcDbEntity
  8
図枠
 62
     7
100
AcDbText
 10
700.5252157073125
 20
227.4113270464737
 30
0.0
 40
5.0
  1
175
100
AcDbText
  0
TEXT
  5
6E75
330
1E
100
AcDbEntity
  8
図枠
 62
     7
100
AcDbText
 10
700.5252157073125
 20
239.4113270464737
 30
0.0
 40
5.0
  1
150
100
AcDbText
  0
TEXT
  5
6E76
330
1E
100
AcDbEntity
  8
図枠
 62
     7
100
AcDbText
 10
700.5252157073125
 20
251.4113270464737
 30
0.0
 40
5.0
  1
125
100
AcDbText
  0
TEXT
  5
6E77
330
1E
100
AcDbEntity
  8
図枠
 62
     7
100
AcDbText
 10
700.5252157073125
 20
263.4113270464737
 30
0.0
 40
5.0
  1
100
100
AcDbText
  0
TEXT
  5
6E78
330
1E
100
AcDbEntity
  8
図枠
 62
     7
100
AcDbText
 10
702.5252157073126
 20
275.4113270464737
 30
0.0
 40
5.0
  1
Ｃ
100
AcDbText
  0
LINE
  5
6E79
330
1E
100
AcDbEntity
  8
図枠
  6
Continuous
 62
     7
100
AcDbLine
 10
720.5252157073125
 20
284.4113270464737
 30
0.0
 11
720.5252157073125
 21
176.4113270464737
 31
0.0
  0
LINE
  5
6E7A
330
1E
100
AcDbEntity
  8
図枠
  6
Continuous
 62
     7
100
AcDbLine
 10
690.5252157073126
 20
284.4113270464737
 30
0.0
 11
690.5252157073126
 21
176.4113270464737
 31
0.0
  0
TEXT
  5
6E7B
330
1E
100
AcDbEntity
  8
図枠
 62
     7
100
AcDbText
 10
339.5252157073122
 20
263.4113270464737
 30
0.0
 40
5.0
  1
200ＦＹＹ－Ａ550～900
100
AcDbText
  0
TEXT
  5
6E7C
330
1E
100
AcDbEntity
  8
図枠
 62
     7
100
AcDbText
 10
339.5252157073122
 20
227.4113270464737
 30
0.0
 40
5.0
  1
200ＦＹＹＨ－550～900
100
AcDbText
  0
TEXT
  5
6E7D
330
1E
100
AcDbEntity
  8
図枠
 62
     7
100
AcDbText
 10
339.5252157073122
 20
191.4113270464737
 30
0.0
 40
5.0
  1
200ＦＹＹＪ－550～900
100
AcDbText
  0
LINE
  5
6E7E
330
1E
100
AcDbEntity
  8
躯体と製品
  6
Continuous
 62
     3
100
AcDbLine
 10
131.3637645858484
 20
476.3740798708669
 30
0.0
 11
450.9252157073118
 21
493.121585868609
 31
0.0
  0
LINE
  5
6E7F
330
1E
100
AcDbEntity
  8
躯体と製品
  6
DASHED1
 62
     7
100
AcDbLine
 10
136.1737364127709
 20
480.1309630237225
 30
0.0
 11
136.2260723690139
 21
479.132333488968
 31
0.0
  0
LINE
  5
6E80
330
1E
100
AcDbEntity
  8
躯体と製品
  6
DASHED1
 62
     7
100
AcDbLine
 10
156.1463271078622
 20
481.1776821485814
 30
0.0
 11
136.1737364127709
 21
480.1309630237225
 31
0.0
  0
LINE
  5
6E81
330
1E
100
AcDbEntity
  8
躯体と製品
  6
DASHED1
 62
     7
100
AcDbLine
 10
156.1463271078622
 20
481.1776821485814
 30
0.0
 11
156.1986630641053
 21
480.1790526138268
 31
0.0
  0
LINE
  5
6E82
330
1E
100
AcDbEntity
  8
躯体と製品
  6
DASHED1
 62
     7
100
AcDbLine
 10
159.6938664357464
 20
480.362228460677
 30
0.0
 11
156.1986630641053
 21
480.1790526138268
 31
0.0
  0
ARC
  5
6E83
330
1E
100
AcDbEntity
  8
躯体と製品
  6
DASHED1
 62
     7
100
AcDbCircle
 10
159.6153625013818
 20
481.8601727628093
 30
0.0
 40
1.5
100
AcDbArc
 50
272.9999999999999
 51
92.99999999999991
  0
LINE
  5
6E84
330
1E
100
AcDbEntity
  8
躯体と製品
  6
Continuous
 62
     3
100
AcDbLine
 10
121.0995701651554
 20
477.7519576856205
 30
0.0
 11
121.6827627080747
 21
475.2258732559022
 31
0.0
  0
LINE
  5
6E85
330
1E
100
AcDbEntity
  8
躯体と製品
  6
Continuous
 62
     3
100
AcDbLine
 10
129.2356656257317
 20
478.7659817952676
 30
0.0
 11
121.5605872194264
 21
478.3637479801698
 31
0.0
  0
LINE
  5
6E86
330
1E
100
AcDbEntity
  8
躯体と製品
  6
Continuous
 62
     3
100
AcDbLine
 10
118.3199537112079
 20
478.1939135745338
 30
0.0
 11
119.4973001432747
 21
478.2556156864852
 31
0.0
  0
LINE
  5
6E87
330
1E
100
AcDbEntity
  8
躯体と製品
  6
Continuous
 62
     3
100
AcDbLine
 10
119.8053119495832
 20
478.023512142362
 30
0.0
 11
120.5135186303325
 21
474.9559319906898
 31
0.0
  0
ARC
  5
6E88
330
1E
100
AcDbEntity
  8
躯体と製品
  6
Continuous
 62
     3
100
AcDbCircle
 10
129.2618336038533
 20
478.2666670278902
 30
0.0
 40
0.5
100
AcDbArc
 50
2.999999999999903
 51
92.99999999999991
  0
LINE
  5
6E89
330
1E
100
AcDbEntity
  8
躯体と製品
  6
Continuous
 62
     3
100
AcDbLine
 10
129.7611483712305
 20
478.2928350060116
 30
0.0
 11
129.8134843274735
 21
477.2942054712569
 31
0.0
  0
ARC
  5
6E8A
330
1E
100
AcDbEntity
  8
躯体と製品
  6
Continuous
 62
     3
100
AcDbCircle
 10
129.0524897788815
 20
482.2611851669085
 30
0.0
 40
0.5
100
AcDbArc
 50
272.9999999999999
 51
2.999999999999903
  0
LINE
  5
6E8B
330
1E
100
AcDbEntity
  8
躯体と製品
  6
Continuous
 62
     3
100
AcDbLine
 10
129.0786577570031
 20
481.7618703995312
 30
0.0
 11
117.3966704494691
 21
481.1496433871308
 31
0.0
  0
LINE
  5
6E8C
330
1E
100
AcDbEntity
  8
躯体と製品
  6
Continuous
 62
     3
100
AcDbLine
 10
129.5518045462588
 20
482.2873531450298
 30
0.0
 11
129.447132633773
 21
484.2846122145389
 31
0.0
  0
LINE
  5
6E8D
330
1E
100
AcDbEntity
  8
躯体と製品
  6
Continuous
 62
     3
100
AcDbLine
 10
108.0482082689655
 20
430.5291670121301
 30
0.0
 11
112.4307596906978
 21
430.5291670121301
 31
0.0
  0
LINE
  5
6E8E
330
1E
100
AcDbEntity
  8
躯体と製品
  6
Continuous
 62
     3
100
AcDbLine
 10
117.3941420667171
 20
477.403195730597
 30
0.0
 11
107.5591344685986
 21
431.1331228575389
 31
0.0
  0
LINE
  5
6E8F
330
1E
100
AcDbEntity
  8
躯体と製品
  6
Continuous
 62
     3
100
AcDbLine
 10
114.6192355159966
 20
478.7774898553201
 30
0.0
 11
102.6632854127426
 21
422.5291670121301
 31
0.0
  0
ARC
  5
6E90
330
1E
100
AcDbEntity
  8
躯体と製品
  6
Continuous
 62
     3
100
AcDbCircle
 10
129.9464474011501
 20
484.3107801926606
 30
0.0
 40
0.5
100
AcDbArc
 50
92.99999999999991
 51
182.9999999999999
  0
LINE
  5
6E91
330
1E
100
AcDbEntity
  8
躯体と製品
  6
Continuous
 62
     3
100
AcDbLine
 10
129.9202794230289
 20
484.8100949600377
 30
0.0
 11
130.4195941904061
 21
484.8362629381593
 31
0.0
  0
ARC
  5
6E92
330
1E
100
AcDbEntity
  8
躯体と製品
  6
Continuous
 62
     3
100
AcDbCircle
 10
130.4457621685276
 20
484.3369481707821
 30
0.0
 40
0.5
100
AcDbArc
 50
2.999999999999903
 51
92.99999999999991
  0
ARC
  5
6E93
330
1E
100
AcDbEntity
  8
躯体と製品
  6
Continuous
 62
     3
100
AcDbCircle
 10
117.553678318198
 20
478.1537547828668
 30
0.0
 40
3.0
100
AcDbArc
 50
92.99999999999991
 51
167.9999999999995
  0
ARC
  5
6E94
330
1E
100
AcDbEntity
  8
躯体と製品
  6
Continuous
 62
     3
100
AcDbCircle
 10
118.3722896674509
 20
477.1952840397791
 30
0.0
 40
1.0
100
AcDbArc
 50
92.99999999999991
 51
167.9999999999995
  0
ARC
  5
6E95
330
1E
100
AcDbEntity
  8
躯体と製品
  6
Continuous
 62
     3
100
AcDbCircle
 10
130.3127990948507
 20
477.3203734493785
 30
0.0
 40
0.5
100
AcDbArc
 50
182.9999999999999
 51
272.9999999999999
  0
LINE
  5
6E96
330
1E
100
AcDbEntity
  8
躯体と製品
  6
Continuous
 62
     3
100
AcDbLine
 10
130.3389670729722
 20
476.8210586820014
 30
0.0
 11
130.8382818403497
 21
476.8472266601229
 31
0.0
  0
ARC
  5
6E97
330
1E
100
AcDbEntity
  8
躯体と製品
  6
Continuous
 62
     3
100
AcDbCircle
 10
130.8121138622281
 20
477.3465414274999
 30
0.0
 40
0.5
100
AcDbArc
 50
272.9999999999999
 51
2.999999999999903
  0
ARC
  5
6E98
330
1E
100
AcDbEntity
  8
躯体と製品
  6
Continuous
 62
     3
100
AcDbCircle
 10
107.5805838332914
 20
428.8291670121298
 30
0.0
 40
0.5
100
AcDbArc
 50
90.0
 51
167.9999999999995
  0
LINE
  5
6E99
330
1E
100
AcDbEntity
  8
躯体と製品
  6
Continuous
 62
     3
100
AcDbLine
 10
107.0915100329245
 20
428.9331228575389
 30
0.0
 11
105.6632854127426
 21
422.213854306333
 31
0.0
  0
LINE
  5
6E9A
330
1E
100
AcDbEntity
  8
躯体と製品
  6
Continuous
 62
     3
100
AcDbLine
 10
107.5805838332914
 20
429.3291670121297
 30
0.0
 11
116.8307596906979
 21
429.3291670121297
 31
0.0
  0
ARC
  5
6E9B
330
1E
100
AcDbEntity
  8
躯体と製品
  6
Continuous
 62
     3
100
AcDbCircle
 10
108.0482082689655
 20
431.02916701213
 30
0.0
 40
0.5
100
AcDbArc
 50
167.9999999999995
 51
270.0
  0
LINE
  5
6E9C
330
1E
100
AcDbEntity
  8
躯体と製品
  6
Continuous
 62
     3
100
AcDbLine
 10
116.8307596906979
 20
430.5291670121301
 30
0.0
 11
114.4307596906978
 21
430.5291670121301
 31
0.0
  0
LINE
  5
6E9D
330
1E
100
AcDbEntity
  8
躯体と製品
  6
Continuous
 62
     3
100
AcDbLine
 10
112.4307596906978
 20
431.52916701213
 30
0.0
 11
114.4307596906978
 21
430.5291670121301
 31
0.0
  0
LINE
  5
6E9E
330
1E
100
AcDbEntity
  8
躯体と製品
  6
Continuous
 62
     3
100
AcDbLine
 10
112.4307596906978
 20
430.5291670121301
 30
0.0
 11
112.4307596906978
 21
431.52916701213
 31
0.0
  0
ARC
  5
6E9F
330
1E
100
AcDbEntity
  8
躯体と製品
  6
Continuous
 62
     3
100
AcDbCircle
 10
105.1632854127426
 20
421.02916701213
 30
0.0
 40
2.5
100
AcDbArc
 50
180.0
 51
270.0
  0
LINE
  5
6EA0
330
1E
100
AcDbEntity
  8
躯体と製品
  6
Continuous
 62
     3
100
AcDbLine
 10
105.1632854127426
 20
418.52916701213
 30
0.0
 11
105.6632854127426
 21
418.52916701213
 31
0.0
  0
LINE
  5
6EA1
330
1E
100
AcDbEntity
  8
躯体と製品
  6
Continuous
 62
     3
100
AcDbLine
 10
102.6632854127426
 20
421.02916701213
 30
0.0
 11
102.6632854127426
 21
422.5291670121301
 31
0.0
  0
LINE
  5
6EA2
330
1E
100
AcDbEntity
  8
躯体と製品
  6
Continuous
 62
     3
100
AcDbLine
 10
105.6632854127426
 20
422.213854306333
 30
0.0
 11
105.6632854127426
 21
418.52916701213
 31
0.0
  0
ARC
  5
6EA3
330
1E
100
AcDbEntity
  8
躯体と製品
  6
Continuous
 62
     3
100
AcDbCircle
 10
116.8307596906979
 20
429.92916701213
 30
0.0
 40
0.6000000000000015
100
AcDbArc
 50
270.0
 51
90.0
  0
ARC
  5
6EA4
330
1E
100
AcDbEntity
  8
躯体と製品
  6
Continuous
 62
     3
100
AcDbCircle
 10
119.5130009301476
 20
477.9560268260587
 30
0.0
 40
0.2999999999999998
100
AcDbArc
 50
12.99999999999984
 51
92.99999999999991
  0
ARC
  5
6EA5
330
1E
100
AcDbEntity
  8
躯体と製品
  6
Continuous
 62
     3
100
AcDbCircle
 10
121.5867551975479
 20
477.8644332127924
 30
0.0
 40
0.5
100
AcDbArc
 50
92.99999999999991
 51
192.9999999999998
  0
ARC
  5
6EA6
330
1E
100
AcDbEntity
  8
躯体と製品
  6
Continuous
 62
     3
100
AcDbCircle
 10
121.0981406692037
 20
475.0909026232959
 30
0.0
 40
0.5999999999999984
100
AcDbArc
 50
193.0000000000014
 51
13.00000000000143
  0
LINE
  5
6EA7
330
1E
100
AcDbEntity
  8
躯体と製品
  6
DASHED1
 62
     7
100
AcDbLine
 10
136.2260723690139
 20
479.132333488968
 30
0.0
 11
131.2329246952411
 21
478.8706537077533
 31
0.0
  0
LINE
  5
6EA8
330
1E
100
AcDbEntity
  8
躯体と製品
  6
DASHED1
 62
     7
100
AcDbLine
 10
159.5368585670174
 20
483.3581170649412
 30
0.0
 11
131.0759168265123
 21
481.8665423120171
 31
0.0
  0
ARC
  5
6EA9
330
1E
100
AcDbEntity
  8
躯体と製品
  6
Continuous
 62
     7
100
AcDbCircle
 10
124.0265578694001
 20
462.9291670121298
 30
0.0
 40
2.1
100
AcDbArc
 50
4.999999999999778
 51
90.0
  0
LINE
  5
6EAA
330
1E
100
AcDbEntity
  8
躯体と製品
  6
Continuous
 62
     7
100
AcDbLine
 10
124.0265578694001
 20
465.02916701213
 30
0.0
 11
123.4307596906978
 21
465.02916701213
 31
0.0
  0
ARC
  5
6EAB
330
1E
100
AcDbEntity
  8
躯体と製品
  6
Continuous
 62
     7
100
AcDbCircle
 10
124.0265578694001
 20
462.9291670121298
 30
0.0
 40
1.1
100
AcDbArc
 50
4.999999999999778
 51
90.0
  0
LINE
  5
6EAC
330
1E
100
AcDbEntity
  8
躯体と製品
  6
Continuous
 62
     7
100
AcDbLine
 10
124.0265578694001
 20
464.0291670121301
 30
0.0
 11
123.4307596906978
 21
464.0291670121301
 31
0.0
  0
LINE
  5
6EAD
330
1E
100
AcDbEntity
  8
躯体と製品
  6
Continuous
 62
     7
100
AcDbLine
 10
123.4307596906978
 20
467.5291670121301
 30
0.0
 11
123.4307596906978
 21
465.02916701213
 31
0.0
  0
LINE
  5
6EAE
330
1E
100
AcDbEntity
  8
躯体と製品
  6
Continuous
 62
     7
100
AcDbLine
 10
121.9307596906978
 20
463.5291670121301
 30
0.0
 11
120.2796746906979
 21
464.0525400121299
 31
0.0
  0
LINE
  5
6EAF
330
1E
100
AcDbEntity
  8
躯体と製品
  6
Continuous
 62
     7
100
AcDbLine
 10
121.9307596906978
 20
463.5291670121301
 30
0.0
 11
121.9307596906978
 21
461.52916701213
 31
0.0
  0
LINE
  5
6EB0
330
1E
100
AcDbEntity
  8
躯体と製品
  6
Continuous
 62
     7
100
AcDbLine
 10
121.9307596906978
 20
465.52916701213
 30
0.0
 11
121.9307596906978
 21
467.5291670121301
 31
0.0
  0
ARC
  5
6EB1
330
1E
100
AcDbEntity
  8
躯体と製品
  6
Continuous
 62
     7
100
AcDbCircle
 10
122.4307596906978
 20
467.5291670121301
 30
0.0
 40
0.5
100
AcDbArc
 50
90.0
 51
180.0
  0
LINE
  5
6EB2
330
1E
100
AcDbEntity
  8
躯体と製品
  6
Continuous
 62
     7
100
AcDbLine
 10
122.9307596906978
 20
468.0291670121301
 30
0.0
 11
122.4307596906978
 21
468.0291670121301
 31
0.0
  0
LINE
  5
6EB3
330
1E
100
AcDbEntity
  8
躯体と製品
  6
Continuous
 62
     7
100
AcDbLine
 10
122.9307596906978
 20
461.02916701213
 30
0.0
 11
122.4307596906978
 21
461.02916701213
 31
0.0
  0
ARC
  5
6EB4
330
1E
100
AcDbEntity
  8
躯体と製品
  6
Continuous
 62
     7
100
AcDbCircle
 10
122.4307596906978
 20
461.52916701213
 30
0.0
 40
0.5
100
AcDbArc
 50
180.0
 51
270.0
  0
ARC
  5
6EB5
330
1E
100
AcDbEntity
  8
躯体と製品
  6
Continuous
 62
     7
100
AcDbCircle
 10
122.9307596906978
 20
461.52916701213
 30
0.0
 40
0.5
100
AcDbArc
 50
270.0
 51
0.0
  0
ARC
  5
6EB6
330
1E
100
AcDbEntity
  8
躯体と製品
  6
Continuous
 62
     7
100
AcDbCircle
 10
122.9307596906978
 20
467.5291670121301
 30
0.0
 40
0.5
100
AcDbArc
 50
0.0
 51
90.0
  0
LINE
  5
6EB7
330
1E
100
AcDbEntity
  8
躯体と製品
  6
Continuous
 62
     7
100
AcDbLine
 10
123.4307596906978
 20
461.52916701213
 30
0.0
 11
123.4307596906978
 21
464.0291670121301
 31
0.0
  0
ARC
  5
6EB8
330
1E
100
AcDbEntity
  8
躯体と製品
  6
Continuous
 62
     7
100
AcDbCircle
 10
120.4307596906978
 20
464.52916701213
 30
0.0
 40
0.5
100
AcDbArc
 50
107.5879539999998
 51
252.4120460000001
  0
LINE
  5
6EB9
330
1E
100
AcDbEntity
  8
躯体と製品
  6
Continuous
 62
     7
100
AcDbLine
 10
121.9307596906978
 20
465.52916701213
 30
0.0
 11
120.2796746906979
 21
465.00579401213
 31
0.0
  0
ARC
  5
6EBA
330
1E
100
AcDbEntity
  8
躯体と製品
  6
Continuous
 62
     3
100
AcDbCircle
 10
124.0307596906978
 20
462.92916701213
 30
0.0
 40
0.5999999999999997
100
AcDbArc
 50
0.0
 51
180.0
  0
ARC
  5
6EBB
330
1E
100
AcDbEntity
  8
躯体と製品
  6
Continuous
 62
     3
100
AcDbCircle
 10
124.0307596906978
 20
467.12916701213
 30
0.0
 40
0.5999999999999997
100
AcDbArc
 50
180.0
 51
0.0
  0
LINE
  5
6EBC
330
1E
100
AcDbEntity
  8
躯体と製品
  6
Continuous
 62
     3
100
AcDbLine
 10
124.6307596906979
 20
462.92916701213
 30
0.0
 11
124.6307596906979
 21
460.8291670121298
 31
0.0
  0
LINE
  5
6EBD
330
1E
100
AcDbEntity
  8
躯体と製品
  6
Continuous
 62
     3
100
AcDbLine
 10
123.4307596906978
 20
462.92916701213
 30
0.0
 11
123.4307596906978
 21
461.3291670121298
 31
0.0
  0
ARC
  5
6EBE
330
1E
100
AcDbEntity
  8
躯体と製品
  6
Continuous
 62
     3
100
AcDbCircle
 10
123.1307596906979
 20
461.3291670121298
 30
0.0
 40
0.2999999999999998
100
AcDbArc
 50
270.0
 51
0.0
  0
LINE
  5
6EBF
330
1E
100
AcDbEntity
  8
躯体と製品
  6
Continuous
 62
     3
100
AcDbLine
 10
123.4307596906978
 20
467.12916701213
 30
0.0
 11
123.4307596906978
 21
468.7291670121298
 31
0.0
  0
ARC
  5
6EC0
330
1E
100
AcDbEntity
  8
躯体と製品
  6
Continuous
 62
     3
100
AcDbCircle
 10
123.1307596906979
 20
468.7291670121298
 30
0.0
 40
0.2999999999999998
100
AcDbArc
 50
0.0
 51
90.0
  0
LINE
  5
6EC1
330
1E
100
AcDbEntity
  8
躯体と製品
  6
Continuous
 62
     3
100
AcDbLine
 10
124.6307596906979
 20
467.12916701213
 30
0.0
 11
124.6307596906979
 21
469.2291670121298
 31
0.0
  0
LINE
  5
6EC2
330
1E
100
AcDbEntity
  8
躯体と製品
  6
Continuous
 62
     3
100
AcDbLine
 10
112.4307596906978
 20
431.02916701213
 30
0.0
 11
110.8094916906978
 21
431.43448401213
 31
0.0
  0
ARC
  5
6EC3
330
1E
100
AcDbEntity
  8
躯体と製品
  6
Continuous
 62
     3
100
AcDbCircle
 10
110.9307596906978
 20
431.9195550121301
 30
0.0
 40
0.5
100
AcDbArc
 50
180.0
 51
255.9637569999998
  0
LINE
  5
6EC4
330
1E
100
AcDbEntity
  8
躯体と製品
  6
Continuous
 62
     3
100
AcDbLine
 10
112.4307596906978
 20
431.52916701213
 30
0.0
 11
112.4307596906978
 21
431.02916701213
 31
0.0
  0
LINE
  5
6EC5
330
1E
100
AcDbEntity
  8
躯体と製品
  6
Continuous
 62
     3
100
AcDbLine
 10
110.4307596906978
 20
432.2291670121298
 30
0.0
 11
110.4307596906978
 21
431.9195550121301
 31
0.0
  0
LINE
  5
6EC6
330
1E
100
AcDbEntity
  8
躯体と製品
  6
Continuous
 62
     3
100
AcDbLine
 10
117.4307596906978
 20
431.52916701213
 30
0.0
 11
112.4307596906978
 21
431.52916701213
 31
0.0
  0
ARC
  5
6EC7
330
1E
100
AcDbEntity
  8
躯体と製品
  6
Continuous
 62
     3
100
AcDbCircle
 10
110.7307596906978
 20
432.2291670121298
 30
0.0
 40
0.2999999999999998
100
AcDbArc
 50
90.0
 51
180.0
  0
ARC
  5
6EC8
330
1E
100
AcDbEntity
  8
躯体と製品
  6
Continuous
 62
     3
100
AcDbCircle
 10
117.4307596906978
 20
431.02916701213
 30
0.0
 40
0.5
100
AcDbArc
 50
0.0
 51
90.0
  0
LINE
  5
6EC9
330
1E
100
AcDbEntity
  8
躯体と製品
  6
Continuous
 62
     3
100
AcDbLine
 10
117.9307596906978
 20
431.02916701213
 30
0.0
 11
117.9307596906978
 21
422.2291670121298
 31
0.0
  0
LINE
  5
6ECA
330
1E
100
AcDbEntity
  8
躯体と製品
  6
Continuous
 62
     3
100
AcDbLine
 10
117.4307596906978
 20
432.52916701213
 30
0.0
 11
110.7307596906978
 21
432.52916701213
 31
0.0
  0
ARC
  5
6ECB
330
1E
100
AcDbEntity
  8
躯体と製品
  6
Continuous
 62
     3
100
AcDbCircle
 10
117.4307596906978
 20
433.02916701213
 30
0.0
 40
0.5
100
AcDbArc
 50
270.0
 51
0.0
  0
LINE
  5
6ECC
330
1E
100
AcDbEntity
  8
躯体と製品
  6
Continuous
 62
     3
100
AcDbLine
 10
113.0307596906978
 20
420.02916701213
 30
0.0
 11
116.9307596906978
 21
420.02916701213
 31
0.0
  0
ARC
  5
6ECD
330
1E
100
AcDbEntity
  8
躯体と製品
  6
Continuous
 62
     3
100
AcDbCircle
 10
116.9307596906978
 20
422.5291670121301
 30
0.0
 40
2.5
100
AcDbArc
 50
270.0
 51
0.0
  0
LINE
  5
6ECE
330
1E
100
AcDbEntity
  8
躯体と製品
  6
Continuous
 62
     3
100
AcDbLine
 10
117.9307596906978
 20
477.27916701213
 30
0.0
 11
117.9307596906978
 21
433.02916701213
 31
0.0
  0
LINE
  5
6ECF
330
1E
100
AcDbEntity
  8
躯体と製品
  6
Continuous
 62
     3
100
AcDbLine
 10
123.1307596906979
 20
469.02916701213
 30
0.0
 11
119.7307596906978
 21
469.02916701213
 31
0.0
  0
LINE
  5
6ED0
330
1E
100
AcDbEntity
  8
躯体と製品
  6
Continuous
 62
     3
100
AcDbLine
 10
123.1307596906979
 20
461.02916701213
 30
0.0
 11
119.7307596906978
 21
461.02916701213
 31
0.0
  0
ARC
  5
6ED1
330
1E
100
AcDbEntity
  8
躯体と製品
  6
Continuous
 62
     3
100
AcDbCircle
 10
119.7307596906978
 20
461.3291670121298
 30
0.0
 40
0.2999999999999998
100
AcDbArc
 50
180.0
 51
270.0
  0
LINE
  5
6ED2
330
1E
100
AcDbEntity
  8
躯体と製品
  6
Continuous
 62
     3
100
AcDbLine
 10
119.4307596906978
 20
468.7291670121298
 30
0.0
 11
119.4307596906978
 21
461.3291670121298
 31
0.0
  0
ARC
  5
6ED3
330
1E
100
AcDbEntity
  8
躯体と製品
  6
Continuous
 62
     3
100
AcDbCircle
 10
119.7307596906978
 20
468.7291670121298
 30
0.0
 40
0.2999999999999998
100
AcDbArc
 50
90.0
 51
180.0
  0
LINE
  5
6ED4
330
1E
100
AcDbEntity
  8
躯体と製品
  6
Continuous
 62
     3
100
AcDbLine
 10
119.9307596906978
 20
459.8291670121297
 30
0.0
 11
123.6307596906979
 21
459.8291670121297
 31
0.0
  0
ARC
  5
6ED5
330
1E
100
AcDbEntity
  8
躯体と製品
  6
Continuous
 62
     3
100
AcDbCircle
 10
123.6307596906979
 20
460.8291670121298
 30
0.0
 40
1.0
100
AcDbArc
 50
270.0
 51
0.0
  0
ARC
  5
6ED6
330
1E
100
AcDbEntity
  8
躯体と製品
  6
Continuous
 62
     3
100
AcDbCircle
 10
119.9307596906978
 20
459.32916701213
 30
0.0
 40
0.5
100
AcDbArc
 50
90.0
 51
180.0
  0
LINE
  5
6ED7
330
1E
100
AcDbEntity
  8
躯体と製品
  6
Continuous
 62
     3
100
AcDbLine
 10
119.9307596906978
 20
470.22916701213
 30
0.0
 11
123.6307596906979
 21
470.22916701213
 31
0.0
  0
ARC
  5
6ED8
330
1E
100
AcDbEntity
  8
躯体と製品
  6
Continuous
 62
     3
100
AcDbCircle
 10
123.6307596906979
 20
469.2291670121298
 30
0.0
 40
1.0
100
AcDbArc
 50
0.0
 51
90.0
  0
ARC
  5
6ED9
330
1E
100
AcDbEntity
  8
躯体と製品
  6
Continuous
 62
     3
100
AcDbCircle
 10
119.9307596906978
 20
470.7291670121298
 30
0.0
 40
0.5
100
AcDbArc
 50
180.0
 51
270.0
  0
LINE
  5
6EDA
330
1E
100
AcDbEntity
  8
躯体と製品
  6
Continuous
 62
     3
100
AcDbLine
 10
119.4307596906978
 20
470.7291670121298
 30
0.0
 11
119.4307596906978
 21
477.27916701213
 31
0.0
  0
ARC
  5
6EDB
330
1E
100
AcDbEntity
  8
躯体と製品
  6
Continuous
 62
     3
100
AcDbCircle
 10
118.6807596906978
 20
477.27916701213
 30
0.0
 40
0.7499999999999999
100
AcDbArc
 50
0.0
 51
180.0
  0
LINE
  5
6EDC
330
1E
100
AcDbEntity
  8
躯体と製品
  6
Continuous
 62
     3
100
AcDbLine
 10
119.4307596906978
 20
459.32916701213
 30
0.0
 11
119.4307596906978
 21
422.5291670121301
 31
0.0
  0
ARC
  5
6EDD
330
1E
100
AcDbEntity
  8
躯体と製品
  6
Continuous
 62
     3
100
AcDbCircle
 10
113.0307596906978
 20
420.6291670121298
 30
0.0
 40
0.5999999999999997
100
AcDbArc
 50
90.0
 51
270.0
  0
LINE
  5
6EDE
330
1E
100
AcDbEntity
  8
躯体と製品
  6
Continuous
 62
     3
100
AcDbLine
 10
113.0307596906978
 20
421.2291670121298
 30
0.0
 11
116.9307596906978
 21
421.2291670121298
 31
0.0
  0
ARC
  5
6EDF
330
1E
100
AcDbEntity
  8
躯体と製品
  6
Continuous
 62
     3
100
AcDbCircle
 10
116.9307596906978
 20
422.2291670121298
 30
0.0
 40
1.0
100
AcDbArc
 50
270.0
 51
0.0
  0
LINE
  5
6EE0
330
1E
100
AcDbEntity
  8
躯体と製品
  6
DASHED1
 62
     4
100
AcDbLine
 10
345.7550988206239
 20
493.6180876716272
 30
0.0
 11
345.6608940993868
 21
495.4156208341855
 31
0.0
  0
LINE
  5
6EE1
330
1E
100
AcDbEntity
  8
躯体と製品
  6
DASHED1
 62
     4
100
AcDbLine
 10
166.0017825648007
 20
484.1976155478973
 30
0.0
 11
165.9075778435634
 21
485.9951487104553
 31
0.0
  0
LINE
  5
6EE2
330
1E
100
AcDbEntity
  8
躯体と製品
  6
Continuous
 62
     4
100
AcDbLine
 10
144.3378322117617
 20
505.0924476313509
 30
0.0
 11
144.8523206978345
 21
505.606936117424
 31
0.0
  0
LINE
  5
6EE3
330
1E
100
AcDbEntity
  8
躯体と製品
  6
Continuous
 62
     7
100
AcDbLine
 10
144.8778008323645
 20
505.120746187639
 30
0.0
 11
144.7871066332964
 21
506.8512945968414
 31
0.0
  0
LINE
  5
6EE4
330
1E
100
AcDbEntity
  8
躯体と製品
  6
Continuous
 62
     7
100
AcDbLine
 10
129.8983578110459
 20
504.3357068439949
 30
0.0
 11
129.8076636119778
 21
506.0662552531971
 31
0.0
  0
LINE
  5
6EE5
330
1E
100
AcDbEntity
  8
躯体と製品
  6
Continuous
 62
     4
100
AcDbLine
 10
142.8454037900705
 20
505.0142327720318
 30
0.0
 11
144.6766783117796
 21
506.8455072937407
 31
0.0
  0
LINE
  5
6EE6
330
1E
100
AcDbEntity
  8
躯体と製品
  6
Continuous
 62
     4
100
AcDbLine
 10
141.3529753683772
 20
504.9360179127116
 30
0.0
 11
143.1842498900863
 21
506.7672924344209
 31
0.0
  0
LINE
  5
6EE7
330
1E
100
AcDbEntity
  8
躯体と製品
  6
Continuous
 62
     4
100
AcDbLine
 10
139.8605469466836
 20
504.8578030533912
 30
0.0
 11
141.6918214683932
 21
506.6890775751012
 31
0.0
  0
LINE
  5
6EE8
330
1E
100
AcDbEntity
  8
躯体と製品
  6
Continuous
 62
     4
100
AcDbLine
 10
138.3681185249907
 20
504.7795881940715
 30
0.0
 11
140.1993930467001
 21
506.6108627157812
 31
0.0
  0
LINE
  5
6EE9
330
1E
100
AcDbEntity
  8
躯体と製品
  6
Continuous
 62
     4
100
AcDbLine
 10
136.8756901032975
 20
504.7013733347519
 30
0.0
 11
138.706964625007
 21
506.5326478564613
 31
0.0
  0
LINE
  5
6EEA
330
1E
100
AcDbEntity
  8
躯体と製品
  6
Continuous
 62
     4
100
AcDbLine
 10
135.3832616816046
 20
504.6231584754321
 30
0.0
 11
137.2145362033138
 21
506.4544329971416
 31
0.0
  0
LINE
  5
6EEB
330
1E
100
AcDbEntity
  8
躯体と製品
  6
Continuous
 62
     4
100
AcDbLine
 10
133.8908332599112
 20
504.5449436161122
 30
0.0
 11
135.7221077816207
 21
506.3762181378218
 31
0.0
  0
LINE
  5
6EEC
330
1E
100
AcDbEntity
  8
躯体と製品
  6
Continuous
 62
     4
100
AcDbLine
 10
132.398404838218
 20
504.4667287567923
 30
0.0
 11
134.2296793599275
 21
506.2980032785021
 31
0.0
  0
LINE
  5
6EED
330
1E
100
AcDbEntity
  8
躯体と製品
  6
Continuous
 62
     4
100
AcDbLine
 10
130.905976416527
 20
504.3885138974732
 30
0.0
 11
132.7372509382362
 21
506.219788419182
 31
0.0
  0
LINE
  5
6EEE
330
1E
100
AcDbEntity
  8
躯体と製品
  6
Continuous
 62
     4
100
AcDbLine
 10
129.8754805199084
 20
504.7722315632277
 30
0.0
 11
131.244822516543
 21
506.1415735598621
 31
0.0
  0
LINE
  5
6EEF
330
1E
100
AcDbEntity
  8
躯体と製品
  6
Continuous
 62
     3
100
AcDbLine
 10
129.8983578110459
 20
504.3357068439949
 30
0.0
 11
450.9252157073118
 21
521.1600115565508
 31
0.0
  0
LINE
  5
6EF0
330
1E
100
AcDbEntity
  8
躯体と製品
  6
DASHED1
 62
     4
100
AcDbLine
 10
129.9768617454103
 20
502.8377625418632
 30
0.0
 11
450.9252157073118
 21
519.657953037554
 31
0.0
  0
LINE
  5
6EF1
330
1E
100
AcDbEntity
  8
躯体と製品
  6
Continuous
 62
     3
100
AcDbLine
 10
130.1338696141392
 20
499.8418739375994
 30
0.0
 11
450.9252157073118
 21
516.6538359995599
 31
0.0
  0
LINE
  5
6EF2
330
1E
100
AcDbEntity
  8
躯体と製品
  6
Continuous
 62
     3
100
AcDbLine
 10
130.2123735485037
 20
498.3439296354677
 30
0.0
 11
450.9252157073118
 21
515.1517774805633
 31
0.0
  0
LINE
  5
6EF3
330
1E
100
AcDbEntity
  8
躯体と製品
  6
DASHED1
 62
     4
100
AcDbLine
 10
130.9555441271534
 20
484.1633902419525
 30
0.0
 11
450.9252157073118
 21
500.932290167393
 31
0.0
  0
LINE
  5
6EF4
330
1E
100
AcDbEntity
  8
躯体と製品
  6
DASHED1
 62
     4
100
AcDbLine
 10
131.0497488483908
 20
482.3658570793941
 30
0.0
 11
450.9252157073118
 21
499.1298199445965
 31
0.0
  0
LINE
  5
6EF5
330
1E
100
AcDbEntity
  8
躯体と製品
  6
DASHED1
 62
     4
100
AcDbLine
 10
131.2329246952411
 20
478.8706537077533
 30
0.0
 11
450.9252157073118
 21
495.6250167336038
 31
0.0
  0
LINE
  5
6EF6
330
1E
100
AcDbEntity
  8
躯体と製品
  6
DASHED1
 62
     4
100
AcDbLine
 10
131.3114286296055
 20
477.3727094056214
 30
0.0
 11
450.9252157073118
 21
494.122958214607
 31
0.0
  0
LINE
  5
6EF7
330
1E
100
AcDbEntity
  8
躯体と製品
  6
Continuous
 62
     3
100
AcDbLine
 10
100.925215707312
 20
503.6822733119853
 30
0.0
 11
100.925215707312
 21
419.52916701213
 31
0.0
  0
LINE
  5
6EF8
330
1E
100
AcDbEntity
  8
躯体と製品
  6
Continuous
 62
     3
100
AcDbLine
 10
103.9252157073121
 20
416.52916701213
 30
0.0
 11
110.9252157073121
 21
416.52916701213
 31
0.0
  0
LINE
  5
6EF9
330
1E
100
AcDbEntity
  8
躯体と製品
  6
Continuous
 62
     3
100
AcDbLine
 10
797.9252157073124
 20
416.52916701213
 30
0.0
 11
790.9252157073124
 21
416.52916701213
 31
0.0
  0
LINE
  5
6EFA
330
1E
100
AcDbEntity
  8
躯体と製品
  6
Continuous
 62
     3
100
AcDbLine
 10
800.9252157073124
 20
503.6822733119853
 30
0.0
 11
800.9252157073124
 21
419.52916701213
 31
0.0
  0
LINE
  5
6EFB
330
1E
100
AcDbEntity
  8
躯体と製品
  6
Continuous
 62
     3
100
AcDbLine
 10
798.0822235760406
 20
506.6781619162492
 30
0.0
 11
450.9252157073118
 21
524.8718897611943
 31
0.0
  0
ARC
  5
6EFC
330
1E
100
AcDbEntity
  8
躯体と製品
  6
Continuous
 62
     3
100
AcDbCircle
 10
797.9252157073124
 20
503.6822733119853
 30
0.0
 40
3.0
100
AcDbArc
 50
0.0
 51
87.00000000000009
  0
ARC
  5
6EFD
330
1E
100
AcDbEntity
  8
躯体と製品
  6
Continuous
 62
     3
100
AcDbCircle
 10
797.9252157073124
 20
419.52916701213
 30
0.0
 40
3.0
100
AcDbArc
 50
270.0
 51
0.0
  0
ARC
  5
6EFE
330
1E
100
AcDbEntity
  8
躯体と製品
  6
Continuous
 62
     3
100
AcDbCircle
 10
797.9252157073124
 20
503.6822733119853
 30
0.0
 40
1.0
100
AcDbArc
 50
0.0
 51
87.00000000000009
  0
LINE
  5
6EFF
330
1E
100
AcDbEntity
  8
躯体と製品
  6
Continuous
 62
     3
100
AcDbLine
 10
798.9252157073124
 20
419.52916701213
 30
0.0
 11
798.9252157073124
 21
503.6822733119853
 31
0.0
  0
LINE
  5
6F00
330
1E
100
AcDbEntity
  8
躯体と製品
  6
Continuous
 62
     3
100
AcDbLine
 10
797.9252157073124
 20
418.52916701213
 30
0.0
 11
790.9252157073124
 21
418.52916701213
 31
0.0
  0
ARC
  5
6F01
330
1E
100
AcDbEntity
  8
躯体と製品
  6
Continuous
 62
     3
100
AcDbCircle
 10
797.9252157073124
 20
419.52916701213
 30
0.0
 40
1.0
100
AcDbArc
 50
270.0
 51
0.0
  0
LINE
  5
6F02
330
1E
100
AcDbEntity
  8
躯体と製品
  6
Continuous
 62
     3
100
AcDbLine
 10
790.9252157073124
 20
416.52916701213
 30
0.0
 11
790.9252157073124
 21
418.52916701213
 31
0.0
  0
POINT
  5
6F03
330
1E
100
AcDbEntity
  8
躯体と製品
 62
     4
100
AcDbPoint
 10
800.9252157073124
 20
506.5291670121297
 30
0.0
  0
ARC
  5
6F04
330
1E
100
AcDbEntity
  8
躯体と製品
  6
DASHED1
 62
     7
100
AcDbCircle
 10
777.0883953415829
 20
498.2653645456865
 30
0.0
 40
3.0
100
AcDbArc
 50
10.12467165539803
 51
87.00000000000009
  0
ARC
  5
6F05
330
1E
100
AcDbEntity
  8
躯体と製品
  6
DASHED1
 62
     7
100
AcDbCircle
 10
777.0883953415829
 20
498.2653645456865
 30
0.0
 40
7.5
100
AcDbArc
 50
10.12467165539803
 51
87.00000000000009
  0
LINE
  5
6F06
330
1E
100
AcDbEntity
  8
躯体と製品
  6
DASHED1
 62
     7
100
AcDbLine
 10
780.0416780681081
 20
498.7927364611373
 30
0.0
 11
793.9952916175238
 21
420.6525005844109
 31
0.0
  0
LINE
  5
6F07
330
1E
100
AcDbEntity
  8
躯体と製品
  6
DASHED1
 62
     7
100
AcDbLine
 10
798.4252157073115
 20
421.4435584575876
 30
0.0
 11
793.9952916175874
 21
420.6525005840554
 31
0.0
  0
LINE
  5
6F08
330
1E
100
AcDbEntity
  8
躯体と製品
  6
DASHED1
 62
     7
100
AcDbLine
 10
784.4716021578965
 20
499.583794334314
 30
0.0
 11
798.4252157073115
 21
421.4435584575876
 31
0.0
  0
LINE
  5
6F09
330
1E
100
AcDbEntity
  8
躯体と製品
  6
Continuous
 62
     3
100
AcDbLine
 10
797.9775516635546
 20
504.6809028467401
 30
0.0
 11
450.9252157073118
 21
522.8691450691987
 31
0.0
  0
ARC
  5
6F0A
330
1E
100
AcDbEntity
  8
躯体と製品
  6
Continuous
 62
     3
100
AcDbCircle
 10
103.9252157073121
 20
503.6822733119853
 30
0.0
 40
3.0
100
AcDbArc
 50
92.99999999999991
 51
180.0
  0
ARC
  5
6F0B
330
1E
100
AcDbEntity
  8
躯体と製品
  6
Continuous
 62
     3
100
AcDbCircle
 10
103.9252157073121
 20
419.52916701213
 30
0.0
 40
3.0
100
AcDbArc
 50
180.0
 51
270.0
  0
ARC
  5
6F0C
330
1E
100
AcDbEntity
  8
躯体と製品
  6
Continuous
 62
     3
100
AcDbCircle
 10
103.9252157073121
 20
503.6822733119853
 30
0.0
 40
1.0
100
AcDbArc
 50
92.99999999999991
 51
180.0
  0
LINE
  5
6F0D
330
1E
100
AcDbEntity
  8
躯体と製品
  6
Continuous
 62
     3
100
AcDbLine
 10
102.9252157073121
 20
419.52916701213
 30
0.0
 11
102.9252157073121
 21
503.6822733119853
 31
0.0
  0
LINE
  5
6F0E
330
1E
100
AcDbEntity
  8
躯体と製品
  6
Continuous
 62
     3
100
AcDbLine
 10
103.9252157073121
 20
418.52916701213
 30
0.0
 11
110.9252157073121
 21
418.52916701213
 31
0.0
  0
ARC
  5
6F0F
330
1E
100
AcDbEntity
  8
躯体と製品
  6
Continuous
 62
     3
100
AcDbCircle
 10
103.9252157073121
 20
419.52916701213
 30
0.0
 40
1.0
100
AcDbArc
 50
180.0
 51
270.0
  0
LINE
  5
6F10
330
1E
100
AcDbEntity
  8
躯体と製品
  6
Continuous
 62
     3
100
AcDbLine
 10
110.9252157073121
 20
416.52916701213
 30
0.0
 11
110.9252157073121
 21
418.52916701213
 31
0.0
  0
POINT
  5
6F11
330
1E
100
AcDbEntity
  8
躯体と製品
 62
     4
100
AcDbPoint
 10
100.925215707312
 20
506.5291670121297
 30
0.0
  0
ARC
  5
6F12
330
1E
100
AcDbEntity
  8
躯体と製品
  6
DASHED1
 62
     7
100
AcDbCircle
 10
124.7620360730412
 20
498.2653645456865
 30
0.0
 40
3.0
100
AcDbArc
 50
92.99999999999991
 51
169.8753283446019
  0
ARC
  5
6F13
330
1E
100
AcDbEntity
  8
躯体と製品
  6
DASHED1
 62
     7
100
AcDbCircle
 10
124.7620360730412
 20
498.2653645456865
 30
0.0
 40
7.5
100
AcDbArc
 50
92.99999999999991
 51
169.8753283446019
  0
LINE
  5
6F14
330
1E
100
AcDbEntity
  8
躯体と製品
  6
DASHED1
 62
     7
100
AcDbLine
 10
121.8087533465158
 20
498.7927364611373
 30
0.0
 11
107.8551397971003
 21
420.6525005844109
 31
0.0
  0
LINE
  5
6F15
330
1E
100
AcDbEntity
  8
躯体と製品
  6
DASHED1
 62
     7
100
AcDbLine
 10
103.4252157073122
 20
421.4435584575876
 30
0.0
 11
107.8551397970368
 21
420.6525005840554
 31
0.0
  0
LINE
  5
6F16
330
1E
100
AcDbEntity
  8
躯体と製品
  6
DASHED1
 62
     7
100
AcDbLine
 10
117.3788292567275
 20
499.583794334314
 30
0.0
 11
103.4252157073122
 21
421.4435584575876
 31
0.0
  0
LINE
  5
6F17
330
1E
100
AcDbEntity
  8
躯体と製品
  6
Continuous
 62
     3
100
AcDbLine
 10
103.7682078385833
 20
506.6781619162492
 30
0.0
 11
450.9252157073118
 21
524.8718897611943
 31
0.0
  0
LINE
  5
6F18
330
1E
100
AcDbEntity
  8
躯体と製品
  6
Continuous
 62
     3
100
AcDbLine
 10
103.8728797510691
 20
504.6809028467401
 30
0.0
 11
450.9252157073118
 21
522.8691450691987
 31
0.0
  0
POINT
  5
6F19
330
1E
100
AcDbEntity
  8
躯体と製品
 62
     4
100
AcDbPoint
 10
800.9252157073124
 20
416.52916701213
 30
0.0
  0
POINT
  5
6F1A
330
1E
100
AcDbEntity
  8
躯体と製品
 62
     4
100
AcDbPoint
 10
100.925215707312
 20
416.52916701213
 30
0.0
  0
LINE
  5
6F1B
330
1E
100
AcDbEntity
  8
躯体と製品
  6
Continuous
 62
     7
100
AcDbLine
 10
125.1223720373011
 20
463.0250383291524
 30
0.0
 11
127.1655750050337
 21
439.6711215428122
 31
0.0
  0
LINE
  5
6F1C
330
1E
100
AcDbEntity
  8
躯体と製品
  6
Continuous
 62
     7
100
AcDbLine
 10
126.1185667353929
 20
463.1121940719
 30
0.0
 11
128.1617697031253
 21
439.7582772855599
 31
0.0
  0
LINE
  5
6F1D
330
1E
100
AcDbEntity
  8
躯体と製品
  6
Continuous
 62
     7
100
AcDbLine
 10
174.9575807831192
 20
458.4988907027604
 30
0.0
 11
173.3103644221407
 21
439.6711215428122
 31
0.0
  0
ARC
  5
6F1E
330
1E
100
AcDbEntity
  8
躯体と製品
  6
Continuous
 62
     7
100
AcDbCircle
 10
150.2379697135873
 20
441.6896945202062
 30
0.0
 40
23.1605275080762
100
AcDbArc
 50
184.9999999999998
 51
355.0000000000002
  0
LINE
  5
6F1F
330
1E
100
AcDbEntity
  8
躯体と製品
  6
Continuous
 62
     7
100
AcDbLine
 10
173.9613860850274
 20
458.5860464455081
 30
0.0
 11
172.314169724049
 21
439.7582772855598
 31
0.0
  0
ARC
  5
6F20
330
1E
100
AcDbEntity
  8
躯体と製品
  6
Continuous
 62
     7
100
AcDbCircle
 10
150.2379697135873
 20
441.6896945202062
 30
0.0
 40
22.16052750807618
100
AcDbArc
 50
184.9999999999998
 51
355.0000000000002
  0
LINE
  5
6F21
330
1E
100
AcDbEntity
  8
躯体と製品
  6
Continuous
 62
     3
100
AcDbLine
 10
770.4866668287759
 20
476.3740798708669
 30
0.0
 11
771.9520736035781
 21
504.3357068439949
 31
0.0
  0
LINE
  5
6F22
330
1E
100
AcDbEntity
  8
躯体と製品
  6
DASHED1
 62
     7
100
AcDbLine
 10
765.6766950018533
 20
480.1309630237225
 30
0.0
 11
765.6243590456102
 21
479.132333488968
 31
0.0
  0
LINE
  5
6F23
330
1E
100
AcDbEntity
  8
躯体と製品
  6
DASHED1
 62
     7
100
AcDbLine
 10
745.7041043067619
 20
481.1776821485814
 30
0.0
 11
765.6766950018533
 21
480.1309630237225
 31
0.0
  0
LINE
  5
6F24
330
1E
100
AcDbEntity
  8
躯体と製品
  6
DASHED1
 62
     7
100
AcDbLine
 10
745.7041043067619
 20
481.1776821485814
 30
0.0
 11
745.651768350519
 21
480.1790526138268
 31
0.0
  0
LINE
  5
6F25
330
1E
100
AcDbEntity
  8
躯体と製品
  6
DASHED1
 62
     7
100
AcDbLine
 10
742.1565649788776
 20
480.362228460677
 30
0.0
 11
745.651768350519
 21
480.1790526138268
 31
0.0
  0
ARC
  5
6F26
330
1E
100
AcDbEntity
  8
躯体と製品
  6
DASHED1
 62
     7
100
AcDbCircle
 10
742.2350689132423
 20
481.8601727628093
 30
0.0
 40
1.499999999999998
100
AcDbArc
 50
87.00000000000009
 51
267.0000000000001
  0
LINE
  5
6F27
330
1E
100
AcDbEntity
  8
躯体と製品
  6
Continuous
 62
     3
100
AcDbLine
 10
780.7508612494689
 20
477.7519576856205
 30
0.0
 11
780.1676687065497
 21
475.2258732559022
 31
0.0
  0
LINE
  5
6F28
330
1E
100
AcDbEntity
  8
躯体と製品
  6
Continuous
 62
     3
100
AcDbLine
 10
772.6147657888923
 20
478.7659817952676
 30
0.0
 11
780.289844195198
 21
478.3637479801698
 31
0.0
  0
LINE
  5
6F29
330
1E
100
AcDbEntity
  8
躯体と製品
  6
Continuous
 62
     3
100
AcDbLine
 10
783.5304777034163
 20
478.1939135745338
 30
0.0
 11
782.3531312713496
 21
478.2556156864852
 31
0.0
  0
LINE
  5
6F2A
330
1E
100
AcDbEntity
  8
躯体と製品
  6
Continuous
 62
     3
100
AcDbLine
 10
782.0451194650413
 20
478.023512142362
 30
0.0
 11
781.3369127842918
 21
474.9559319906898
 31
0.0
  0
ARC
  5
6F2B
330
1E
100
AcDbEntity
  8
躯体と製品
  6
Continuous
 62
     3
100
AcDbCircle
 10
772.5885978107712
 20
478.2666670278902
 30
0.0
 40
0.5
100
AcDbArc
 50
87.00000000000009
 51
177.0000000000001
  0
LINE
  5
6F2C
330
1E
100
AcDbEntity
  8
躯体と製品
  6
Continuous
 62
     3
100
AcDbLine
 10
772.0892830433937
 20
478.2928350060116
 30
0.0
 11
772.0369470871506
 21
477.2942054712569
 31
0.0
  0
ARC
  5
6F2D
330
1E
100
AcDbEntity
  8
躯体と製品
  6
Continuous
 62
     3
100
AcDbCircle
 10
772.7979416357428
 20
482.2611851669085
 30
0.0
 40
0.5
100
AcDbArc
 50
177.0000000000001
 51
267.0000000000001
  0
LINE
  5
6F2E
330
1E
100
AcDbEntity
  8
躯体と製品
  6
Continuous
 62
     3
100
AcDbLine
 10
772.771773657621
 20
481.7618703995312
 30
0.0
 11
784.4537609651553
 21
481.1496433871308
 31
0.0
  0
LINE
  5
6F2F
330
1E
100
AcDbEntity
  8
躯体と製品
  6
Continuous
 62
     3
100
AcDbLine
 10
772.2986268683653
 20
482.2873531450298
 30
0.0
 11
772.4032987808515
 21
484.2846122145389
 31
0.0
  0
LINE
  5
6F30
330
1E
100
AcDbEntity
  8
躯体と製品
  6
Continuous
 62
     3
100
AcDbLine
 10
793.8022231456588
 20
430.5291670121301
 30
0.0
 11
789.4196717239268
 21
430.5291670121301
 31
0.0
  0
LINE
  5
6F31
330
1E
100
AcDbEntity
  8
躯体と製品
  6
Continuous
 62
     3
100
AcDbLine
 10
784.456289347907
 20
477.403195730597
 30
0.0
 11
794.2912969460258
 21
431.1331228575389
 31
0.0
  0
LINE
  5
6F32
330
1E
100
AcDbEntity
  8
躯体と製品
  6
Continuous
 62
     3
100
AcDbLine
 10
787.2311958986274
 20
478.7774898553201
 30
0.0
 11
799.1871460018816
 21
422.5291670121301
 31
0.0
  0
ARC
  5
6F33
330
1E
100
AcDbEntity
  8
躯体と製品
  6
Continuous
 62
     3
100
AcDbCircle
 10
771.9039840134741
 20
484.3107801926606
 30
0.0
 40
0.5
100
AcDbArc
 50
357.0000000000001
 51
87.00000000000009
  0
LINE
  5
6F34
330
1E
100
AcDbEntity
  8
躯体と製品
  6
Continuous
 62
     3
100
AcDbLine
 10
771.9301519915952
 20
484.8100949600377
 30
0.0
 11
771.4308372242184
 21
484.8362629381593
 31
0.0
  0
ARC
  5
6F35
330
1E
100
AcDbEntity
  8
躯体と製品
  6
Continuous
 62
     3
100
AcDbCircle
 10
771.4046692460966
 20
484.3369481707821
 30
0.0
 40
0.5
100
AcDbArc
 50
87.00000000000009
 51
177.0000000000001
  0
ARC
  5
6F36
330
1E
100
AcDbEntity
  8
躯体と製品
  6
Continuous
 62
     3
100
AcDbCircle
 10
784.2967530964265
 20
478.1537547828668
 30
0.0
 40
3.0
100
AcDbArc
 50
11.99999999999961
 51
87.00000000000009
  0
ARC
  5
6F37
330
1E
100
AcDbEntity
  8
躯体と製品
  6
Continuous
 62
     3
100
AcDbCircle
 10
783.4781417471734
 20
477.1952840397791
 30
0.0
 40
1.0
100
AcDbArc
 50
11.99999999999961
 51
87.00000000000009
  0
ARC
  5
6F38
330
1E
100
AcDbEntity
  8
躯体と製品
  6
Continuous
 62
     3
100
AcDbCircle
 10
771.5376323197737
 20
477.3203734493785
 30
0.0
 40
0.5
100
AcDbArc
 50
267.0000000000001
 51
357.0000000000001
  0
LINE
  5
6F39
330
1E
100
AcDbEntity
  8
躯体と製品
  6
Continuous
 62
     3
100
AcDbLine
 10
771.5114643416521
 20
476.8210586820014
 30
0.0
 11
771.0121495742748
 21
476.8472266601229
 31
0.0
  0
ARC
  5
6F3A
330
1E
100
AcDbEntity
  8
躯体と製品
  6
Continuous
 62
     3
100
AcDbCircle
 10
771.0383175523965
 20
477.3465414274999
 30
0.0
 40
0.5
100
AcDbArc
 50
177.0000000000001
 51
267.0000000000001
  0
ARC
  5
6F3B
330
1E
100
AcDbEntity
  8
躯体と製品
  6
Continuous
 62
     3
100
AcDbCircle
 10
794.269847581333
 20
428.8291670121298
 30
0.0
 40
0.5
100
AcDbArc
 50
11.99999999999961
 51
90.0
  0
LINE
  5
6F3C
330
1E
100
AcDbEntity
  8
躯体と製品
  6
Continuous
 62
     3
100
AcDbLine
 10
794.7589213816997
 20
428.9331228575389
 30
0.0
 11
796.1871460018816
 21
422.213854306333
 31
0.0
  0
LINE
  5
6F3D
330
1E
100
AcDbEntity
  8
躯体と製品
  6
Continuous
 62
     3
100
AcDbLine
 10
794.269847581333
 20
429.3291670121297
 30
0.0
 11
785.0196717239265
 21
429.3291670121297
 31
0.0
  0
ARC
  5
6F3E
330
1E
100
AcDbEntity
  8
躯体と製品
  6
Continuous
 62
     3
100
AcDbCircle
 10
793.8022231456588
 20
431.02916701213
 30
0.0
 40
0.5
100
AcDbArc
 50
270.0
 51
11.99999999999961
  0
LINE
  5
6F3F
330
1E
100
AcDbEntity
  8
躯体と製品
  6
Continuous
 62
     3
100
AcDbLine
 10
785.0196717239265
 20
430.5291670121301
 30
0.0
 11
787.4196717239268
 21
430.5291670121301
 31
0.0
  0
LINE
  5
6F40
330
1E
100
AcDbEntity
  8
躯体と製品
  6
Continuous
 62
     3
100
AcDbLine
 10
789.4196717239268
 20
431.52916701213
 30
0.0
 11
787.4196717239268
 21
430.5291670121301
 31
0.0
  0
LINE
  5
6F41
330
1E
100
AcDbEntity
  8
躯体と製品
  6
Continuous
 62
     3
100
AcDbLine
 10
789.4196717239268
 20
430.5291670121301
 30
0.0
 11
789.4196717239268
 21
431.52916701213
 31
0.0
  0
ARC
  5
6F42
330
1E
100
AcDbEntity
  8
躯体と製品
  6
Continuous
 62
     3
100
AcDbCircle
 10
796.6871460018816
 20
421.02916701213
 30
0.0
 40
2.5
100
AcDbArc
 50
270.0
 51
0.0
  0
LINE
  5
6F43
330
1E
100
AcDbEntity
  8
躯体と製品
  6
Continuous
 62
     3
100
AcDbLine
 10
796.6871460018816
 20
418.52916701213
 30
0.0
 11
796.1871460018816
 21
418.52916701213
 31
0.0
  0
LINE
  5
6F44
330
1E
100
AcDbEntity
  8
躯体と製品
  6
Continuous
 62
     3
100
AcDbLine
 10
799.1871460018816
 20
421.02916701213
 30
0.0
 11
799.1871460018816
 21
422.5291670121301
 31
0.0
  0
LINE
  5
6F45
330
1E
100
AcDbEntity
  8
躯体と製品
  6
Continuous
 62
     3
100
AcDbLine
 10
796.1871460018816
 20
422.213854306333
 30
0.0
 11
796.1871460018816
 21
418.52916701213
 31
0.0
  0
ARC
  5
6F46
330
1E
100
AcDbEntity
  8
躯体と製品
  6
Continuous
 62
     3
100
AcDbCircle
 10
785.0196717239265
 20
429.92916701213
 30
0.0
 40
0.6000000000000015
100
AcDbArc
 50
90.0
 51
270.0
  0
ARC
  5
6F47
330
1E
100
AcDbEntity
  8
躯体と製品
  6
Continuous
 62
     3
100
AcDbCircle
 10
782.3374304844763
 20
477.9560268260587
 30
0.0
 40
0.2999999999999998
100
AcDbArc
 50
87.00000000000009
 51
167.0000000000001
  0
ARC
  5
6F48
330
1E
100
AcDbEntity
  8
躯体と製品
  6
Continuous
 62
     3
100
AcDbCircle
 10
780.2636762170764
 20
477.8644332127924
 30
0.0
 40
0.5
100
AcDbArc
 50
347.0000000000002
 51
87.00000000000009
  0
ARC
  5
6F49
330
1E
100
AcDbEntity
  8
躯体と製品
  6
Continuous
 62
     3
100
AcDbCircle
 10
780.7522907454205
 20
475.0909026232959
 30
0.0
 40
0.5999999999999984
100
AcDbArc
 50
166.9999999999985
 51
346.9999999999985
  0
LINE
  5
6F4A
330
1E
100
AcDbEntity
  8
躯体と製品
  6
DASHED1
 62
     7
100
AcDbLine
 10
765.6243590456102
 20
479.132333488968
 30
0.0
 11
770.6175067193833
 21
478.8706537077533
 31
0.0
  0
LINE
  5
6F4B
330
1E
100
AcDbEntity
  8
躯体と製品
  6
DASHED1
 62
     7
100
AcDbLine
 10
742.3135728476069
 20
483.3581170649412
 30
0.0
 11
770.7745145881123
 21
481.8665423120171
 31
0.0
  0
ARC
  5
6F4C
330
1E
100
AcDbEntity
  8
躯体と製品
  6
Continuous
 62
     7
100
AcDbCircle
 10
777.8238735452243
 20
462.9291670121298
 30
0.0
 40
2.1
100
AcDbArc
 50
90.0
 51
175.0000000000002
  0
LINE
  5
6F4D
330
1E
100
AcDbEntity
  8
躯体と製品
  6
Continuous
 62
     7
100
AcDbLine
 10
777.8238735452243
 20
465.02916701213
 30
0.0
 11
778.4196717239268
 21
465.02916701213
 31
0.0
  0
ARC
  5
6F4E
330
1E
100
AcDbEntity
  8
躯体と製品
  6
Continuous
 62
     7
100
AcDbCircle
 10
777.8238735452243
 20
462.9291670121298
 30
0.0
 40
1.1
100
AcDbArc
 50
90.0
 51
175.0000000000002
  0
LINE
  5
6F4F
330
1E
100
AcDbEntity
  8
躯体と製品
  6
Continuous
 62
     7
100
AcDbLine
 10
777.8238735452243
 20
464.0291670121301
 30
0.0
 11
778.4196717239268
 21
464.0291670121301
 31
0.0
  0
LINE
  5
6F50
330
1E
100
AcDbEntity
  8
躯体と製品
  6
Continuous
 62
     7
100
AcDbLine
 10
778.4196717239268
 20
467.5291670121301
 30
0.0
 11
778.4196717239268
 21
465.02916701213
 31
0.0
  0
LINE
  5
6F51
330
1E
100
AcDbEntity
  8
躯体と製品
  6
Continuous
 62
     7
100
AcDbLine
 10
779.9196717239269
 20
463.5291670121301
 30
0.0
 11
781.5707567239268
 21
464.0525400121299
 31
0.0
  0
LINE
  5
6F52
330
1E
100
AcDbEntity
  8
躯体と製品
  6
Continuous
 62
     7
100
AcDbLine
 10
779.9196717239269
 20
463.5291670121301
 30
0.0
 11
779.9196717239269
 21
461.52916701213
 31
0.0
  0
LINE
  5
6F53
330
1E
100
AcDbEntity
  8
躯体と製品
  6
Continuous
 62
     7
100
AcDbLine
 10
779.9196717239269
 20
465.52916701213
 30
0.0
 11
779.9196717239269
 21
467.5291670121301
 31
0.0
  0
ARC
  5
6F54
330
1E
100
AcDbEntity
  8
躯体と製品
  6
Continuous
 62
     7
100
AcDbCircle
 10
779.4196717239268
 20
467.5291670121301
 30
0.0
 40
0.5
100
AcDbArc
 50
0.0
 51
90.0
  0
LINE
  5
6F55
330
1E
100
AcDbEntity
  8
躯体と製品
  6
Continuous
 62
     7
100
AcDbLine
 10
778.9196717239268
 20
468.0291670121301
 30
0.0
 11
779.4196717239268
 21
468.0291670121301
 31
0.0
  0
LINE
  5
6F56
330
1E
100
AcDbEntity
  8
躯体と製品
  6
Continuous
 62
     7
100
AcDbLine
 10
778.9196717239268
 20
461.02916701213
 30
0.0
 11
779.4196717239268
 21
461.02916701213
 31
0.0
  0
ARC
  5
6F57
330
1E
100
AcDbEntity
  8
躯体と製品
  6
Continuous
 62
     7
100
AcDbCircle
 10
779.4196717239268
 20
461.52916701213
 30
0.0
 40
0.5
100
AcDbArc
 50
270.0
 51
0.0
  0
ARC
  5
6F58
330
1E
100
AcDbEntity
  8
躯体と製品
  6
Continuous
 62
     7
100
AcDbCircle
 10
778.9196717239268
 20
461.52916701213
 30
0.0
 40
0.5
100
AcDbArc
 50
180.0
 51
270.0
  0
ARC
  5
6F59
330
1E
100
AcDbEntity
  8
躯体と製品
  6
Continuous
 62
     7
100
AcDbCircle
 10
778.9196717239268
 20
467.5291670121301
 30
0.0
 40
0.5
100
AcDbArc
 50
90.0
 51
180.0
  0
LINE
  5
6F5A
330
1E
100
AcDbEntity
  8
躯体と製品
  6
Continuous
 62
     7
100
AcDbLine
 10
778.4196717239268
 20
461.52916701213
 30
0.0
 11
778.4196717239268
 21
464.0291670121301
 31
0.0
  0
ARC
  5
6F5B
330
1E
100
AcDbEntity
  8
躯体と製品
  6
Continuous
 62
     7
100
AcDbCircle
 10
781.4196717239268
 20
464.52916701213
 30
0.0
 40
0.5
100
AcDbArc
 50
287.5879539999998
 51
72.41204600000016
  0
LINE
  5
6F5C
330
1E
100
AcDbEntity
  8
躯体と製品
  6
Continuous
 62
     7
100
AcDbLine
 10
779.9196717239269
 20
465.52916701213
 30
0.0
 11
781.5707567239268
 21
465.00579401213
 31
0.0
  0
ARC
  5
6F5D
330
1E
100
AcDbEntity
  8
躯体と製品
  6
Continuous
 62
     3
100
AcDbCircle
 10
777.8196717239262
 20
462.92916701213
 30
0.0
 40
0.5999999999999997
100
AcDbArc
 50
0.0
 51
180.0
  0
ARC
  5
6F5E
330
1E
100
AcDbEntity
  8
躯体と製品
  6
Continuous
 62
     3
100
AcDbCircle
 10
777.8196717239262
 20
467.12916701213
 30
0.0
 40
0.5999999999999997
100
AcDbArc
 50
180.0
 51
0.0
  0
LINE
  5
6F5F
330
1E
100
AcDbEntity
  8
躯体と製品
  6
Continuous
 62
     3
100
AcDbLine
 10
777.2196717239264
 20
462.92916701213
 30
0.0
 11
777.2196717239264
 21
460.8291670121298
 31
0.0
  0
LINE
  5
6F60
330
1E
100
AcDbEntity
  8
躯体と製品
  6
Continuous
 62
     3
100
AcDbLine
 10
778.4196717239268
 20
462.92916701213
 30
0.0
 11
778.4196717239268
 21
461.3291670121298
 31
0.0
  0
ARC
  5
6F61
330
1E
100
AcDbEntity
  8
躯体と製品
  6
Continuous
 62
     3
100
AcDbCircle
 10
778.7196717239268
 20
461.3291670121298
 30
0.0
 40
0.2999999999999998
100
AcDbArc
 50
180.0
 51
270.0
  0
LINE
  5
6F62
330
1E
100
AcDbEntity
  8
躯体と製品
  6
Continuous
 62
     3
100
AcDbLine
 10
778.4196717239268
 20
467.12916701213
 30
0.0
 11
778.4196717239268
 21
468.7291670121298
 31
0.0
  0
ARC
  5
6F63
330
1E
100
AcDbEntity
  8
躯体と製品
  6
Continuous
 62
     3
100
AcDbCircle
 10
778.7196717239268
 20
468.7291670121298
 30
0.0
 40
0.2999999999999998
100
AcDbArc
 50
90.0
 51
180.0
  0
LINE
  5
6F64
330
1E
100
AcDbEntity
  8
躯体と製品
  6
Continuous
 62
     3
100
AcDbLine
 10
777.2196717239264
 20
467.12916701213
 30
0.0
 11
777.2196717239264
 21
469.2291670121298
 31
0.0
  0
LINE
  5
6F65
330
1E
100
AcDbEntity
  8
躯体と製品
  6
Continuous
 62
     3
100
AcDbLine
 10
789.4196717239268
 20
431.02916701213
 30
0.0
 11
791.0409397239265
 21
431.43448401213
 31
0.0
  0
ARC
  5
6F66
330
1E
100
AcDbEntity
  8
躯体と製品
  6
Continuous
 62
     3
100
AcDbCircle
 10
790.9196717239268
 20
431.9195550121301
 30
0.0
 40
0.5
100
AcDbArc
 50
284.0362430000002
 51
0.0
  0
LINE
  5
6F67
330
1E
100
AcDbEntity
  8
躯体と製品
  6
Continuous
 62
     3
100
AcDbLine
 10
789.4196717239268
 20
431.52916701213
 30
0.0
 11
789.4196717239268
 21
431.02916701213
 31
0.0
  0
LINE
  5
6F68
330
1E
100
AcDbEntity
  8
躯体と製品
  6
Continuous
 62
     3
100
AcDbLine
 10
791.4196717239268
 20
432.2291670121298
 30
0.0
 11
791.4196717239268
 21
431.9195550121301
 31
0.0
  0
LINE
  5
6F69
330
1E
100
AcDbEntity
  8
躯体と製品
  6
Continuous
 62
     3
100
AcDbLine
 10
784.4196717239269
 20
431.52916701213
 30
0.0
 11
789.4196717239268
 21
431.52916701213
 31
0.0
  0
ARC
  5
6F6A
330
1E
100
AcDbEntity
  8
躯体と製品
  6
Continuous
 62
     3
100
AcDbCircle
 10
791.1196717239268
 20
432.2291670121298
 30
0.0
 40
0.2999999999999998
100
AcDbArc
 50
0.0
 51
90.0
  0
ARC
  5
6F6B
330
1E
100
AcDbEntity
  8
躯体と製品
  6
Continuous
 62
     3
100
AcDbCircle
 10
784.4196717239269
 20
431.02916701213
 30
0.0
 40
0.5
100
AcDbArc
 50
90.0
 51
180.0
  0
LINE
  5
6F6C
330
1E
100
AcDbEntity
  8
躯体と製品
  6
Continuous
 62
     3
100
AcDbLine
 10
783.9196717239269
 20
431.02916701213
 30
0.0
 11
783.9196717239269
 21
422.2291670121298
 31
0.0
  0
LINE
  5
6F6D
330
1E
100
AcDbEntity
  8
躯体と製品
  6
Continuous
 62
     3
100
AcDbLine
 10
784.4196717239269
 20
432.52916701213
 30
0.0
 11
791.1196717239268
 21
432.52916701213
 31
0.0
  0
ARC
  5
6F6E
330
1E
100
AcDbEntity
  8
躯体と製品
  6
Continuous
 62
     3
100
AcDbCircle
 10
784.4196717239269
 20
433.02916701213
 30
0.0
 40
0.5
100
AcDbArc
 50
180.0
 51
270.0
  0
LINE
  5
6F6F
330
1E
100
AcDbEntity
  8
躯体と製品
  6
Continuous
 62
     3
100
AcDbLine
 10
788.8196717239261
 20
420.02916701213
 30
0.0
 11
784.9196717239268
 21
420.02916701213
 31
0.0
  0
ARC
  5
6F70
330
1E
100
AcDbEntity
  8
躯体と製品
  6
Continuous
 62
     3
100
AcDbCircle
 10
784.9196717239268
 20
422.5291670121301
 30
0.0
 40
2.5
100
AcDbArc
 50
180.0
 51
270.0
  0
LINE
  5
6F71
330
1E
100
AcDbEntity
  8
躯体と製品
  6
Continuous
 62
     3
100
AcDbLine
 10
783.9196717239269
 20
477.27916701213
 30
0.0
 11
783.9196717239269
 21
433.02916701213
 31
0.0
  0
LINE
  5
6F72
330
1E
100
AcDbEntity
  8
躯体と製品
  6
Continuous
 62
     3
100
AcDbLine
 10
778.7196717239268
 20
469.02916701213
 30
0.0
 11
782.1196717239268
 21
469.02916701213
 31
0.0
  0
LINE
  5
6F73
330
1E
100
AcDbEntity
  8
躯体と製品
  6
Continuous
 62
     3
100
AcDbLine
 10
778.7196717239268
 20
461.02916701213
 30
0.0
 11
782.1196717239268
 21
461.02916701213
 31
0.0
  0
ARC
  5
6F74
330
1E
100
AcDbEntity
  8
躯体と製品
  6
Continuous
 62
     3
100
AcDbCircle
 10
782.1196717239268
 20
461.3291670121298
 30
0.0
 40
0.2999999999999998
100
AcDbArc
 50
270.0
 51
0.0
  0
LINE
  5
6F75
330
1E
100
AcDbEntity
  8
躯体と製品
  6
Continuous
 62
     3
100
AcDbLine
 10
782.4196717239268
 20
468.7291670121298
 30
0.0
 11
782.4196717239268
 21
461.3291670121298
 31
0.0
  0
ARC
  5
6F76
330
1E
100
AcDbEntity
  8
躯体と製品
  6
Continuous
 62
     3
100
AcDbCircle
 10
782.1196717239268
 20
468.7291670121298
 30
0.0
 40
0.2999999999999998
100
AcDbArc
 50
0.0
 51
90.0
  0
LINE
  5
6F77
330
1E
100
AcDbEntity
  8
躯体と製品
  6
Continuous
 62
     3
100
AcDbLine
 10
781.9196717239268
 20
459.8291670121297
 30
0.0
 11
778.2196717239267
 21
459.8291670121297
 31
0.0
  0
ARC
  5
6F78
330
1E
100
AcDbEntity
  8
躯体と製品
  6
Continuous
 62
     3
100
AcDbCircle
 10
778.2196717239267
 20
460.8291670121298
 30
0.0
 40
1.0
100
AcDbArc
 50
180.0
 51
270.0
  0
ARC
  5
6F79
330
1E
100
AcDbEntity
  8
躯体と製品
  6
Continuous
 62
     3
100
AcDbCircle
 10
781.9196717239268
 20
459.32916701213
 30
0.0
 40
0.5
100
AcDbArc
 50
0.0
 51
90.0
  0
LINE
  5
6F7A
330
1E
100
AcDbEntity
  8
躯体と製品
  6
Continuous
 62
     3
100
AcDbLine
 10
781.9196717239268
 20
470.22916701213
 30
0.0
 11
778.2196717239267
 21
470.22916701213
 31
0.0
  0
ARC
  5
6F7B
330
1E
100
AcDbEntity
  8
躯体と製品
  6
Continuous
 62
     3
100
AcDbCircle
 10
778.2196717239267
 20
469.2291670121298
 30
0.0
 40
1.0
100
AcDbArc
 50
90.0
 51
180.0
  0
ARC
  5
6F7C
330
1E
100
AcDbEntity
  8
躯体と製品
  6
Continuous
 62
     3
100
AcDbCircle
 10
781.9196717239268
 20
470.7291670121298
 30
0.0
 40
0.5
100
AcDbArc
 50
270.0
 51
0.0
  0
LINE
  5
6F7D
330
1E
100
AcDbEntity
  8
躯体と製品
  6
Continuous
 62
     3
100
AcDbLine
 10
782.4196717239268
 20
470.7291670121298
 30
0.0
 11
782.4196717239268
 21
477.27916701213
 31
0.0
  0
ARC
  5
6F7E
330
1E
100
AcDbEntity
  8
躯体と製品
  6
Continuous
 62
     3
100
AcDbCircle
 10
783.1696717239268
 20
477.27916701213
 30
0.0
 40
0.7499999999999999
100
AcDbArc
 50
0.0
 51
180.0
  0
LINE
  5
6F7F
330
1E
100
AcDbEntity
  8
躯体と製品
  6
Continuous
 62
     3
100
AcDbLine
 10
782.4196717239268
 20
459.32916701213
 30
0.0
 11
782.4196717239268
 21
422.5291670121301
 31
0.0
  0
ARC
  5
6F80
330
1E
100
AcDbEntity
  8
躯体と製品
  6
Continuous
 62
     3
100
AcDbCircle
 10
788.8196717239261
 20
420.6291670121298
 30
0.0
 40
0.5999999999999997
100
AcDbArc
 50
270.0
 51
90.0
  0
LINE
  5
6F81
330
1E
100
AcDbEntity
  8
躯体と製品
  6
Continuous
 62
     3
100
AcDbLine
 10
788.8196717239261
 20
421.2291670121298
 30
0.0
 11
784.9196717239268
 21
421.2291670121298
 31
0.0
  0
ARC
  5
6F82
330
1E
100
AcDbEntity
  8
躯体と製品
  6
Continuous
 62
     3
100
AcDbCircle
 10
784.9196717239268
 20
422.2291670121298
 30
0.0
 40
1.0
100
AcDbArc
 50
180.0
 51
270.0
  0
LINE
  5
6F83
330
1E
100
AcDbEntity
  8
躯体と製品
  6
DASHED1
 62
     4
100
AcDbLine
 10
735.8486488498233
 20
484.1976155478973
 30
0.0
 11
735.9428535710606
 21
485.9951487104553
 31
0.0
  0
LINE
  5
6F84
330
1E
100
AcDbEntity
  8
躯体と製品
  6
Continuous
 62
     4
100
AcDbLine
 10
757.5125992028628
 20
505.0924476313509
 30
0.0
 11
756.9981107167897
 21
505.606936117424
 31
0.0
  0
LINE
  5
6F85
330
1E
100
AcDbEntity
  8
躯体と製品
  6
Continuous
 62
     7
100
AcDbLine
 10
756.9726305822599
 20
505.120746187639
 30
0.0
 11
757.0633247813277
 21
506.8512945968414
 31
0.0
  0
LINE
  5
6F86
330
1E
100
AcDbEntity
  8
躯体と製品
  6
Continuous
 62
     7
100
AcDbLine
 10
771.9520736035781
 20
504.3357068439949
 30
0.0
 11
772.0427678026466
 21
506.0662552531971
 31
0.0
  0
LINE
  5
6F87
330
1E
100
AcDbEntity
  8
躯体と製品
  6
Continuous
 62
     4
100
AcDbLine
 10
759.0050276245538
 20
505.0142327720318
 30
0.0
 11
757.1737531028447
 21
506.8455072937407
 31
0.0
  0
LINE
  5
6F88
330
1E
100
AcDbEntity
  8
躯体と製品
  6
Continuous
 62
     4
100
AcDbLine
 10
760.497456046247
 20
504.9360179127116
 30
0.0
 11
758.6661815245379
 21
506.7672924344209
 31
0.0
  0
LINE
  5
6F89
330
1E
100
AcDbEntity
  8
躯体と製品
  6
Continuous
 62
     4
100
AcDbLine
 10
761.9898844679408
 20
504.8578030533912
 30
0.0
 11
760.158609946231
 21
506.6890775751012
 31
0.0
  0
LINE
  5
6F8A
330
1E
100
AcDbEntity
  8
躯体と製品
  6
Continuous
 62
     4
100
AcDbLine
 10
763.4823128896337
 20
504.7795881940715
 30
0.0
 11
761.6510383679243
 21
506.6108627157812
 31
0.0
  0
LINE
  5
6F8B
330
1E
100
AcDbEntity
  8
躯体と製品
  6
Continuous
 62
     4
100
AcDbLine
 10
764.9747413113267
 20
504.7013733347519
 30
0.0
 11
763.1434667896173
 21
506.5326478564613
 31
0.0
  0
LINE
  5
6F8C
330
1E
100
AcDbEntity
  8
躯体と製品
  6
Continuous
 62
     4
100
AcDbLine
 10
766.4671697330196
 20
504.6231584754321
 30
0.0
 11
764.6358952113105
 21
506.4544329971416
 31
0.0
  0
LINE
  5
6F8D
330
1E
100
AcDbEntity
  8
躯体と製品
  6
Continuous
 62
     4
100
AcDbLine
 10
767.9595981547129
 20
504.5449436161122
 30
0.0
 11
766.1283236330032
 21
506.3762181378218
 31
0.0
  0
LINE
  5
6F8E
330
1E
100
AcDbEntity
  8
躯体と製品
  6
Continuous
 62
     4
100
AcDbLine
 10
769.4520265764063
 20
504.4667287567923
 30
0.0
 11
767.6207520546969
 21
506.2980032785021
 31
0.0
  0
LINE
  5
6F8F
330
1E
100
AcDbEntity
  8
躯体と製品
  6
Continuous
 62
     4
100
AcDbLine
 10
770.9444549980974
 20
504.3885138974732
 30
0.0
 11
769.1131804763885
 21
506.219788419182
 31
0.0
  0
LINE
  5
6F90
330
1E
100
AcDbEntity
  8
躯体と製品
  6
Continuous
 62
     4
100
AcDbLine
 10
771.9749508947158
 20
504.7722315632277
 30
0.0
 11
770.6056088980813
 21
506.1415735598621
 31
0.0
  0
LINE
  5
6F91
330
1E
100
AcDbEntity
  8
躯体と製品
  6
Continuous
 62
     7
100
AcDbLine
 10
776.7280593773232
 20
463.0250383291524
 30
0.0
 11
774.6848564095905
 21
439.6711215428122
 31
0.0
  0
LINE
  5
6F92
330
1E
100
AcDbEntity
  8
躯体と製品
  6
Continuous
 62
     7
100
AcDbLine
 10
775.7318646792314
 20
463.1121940719
 30
0.0
 11
773.6886617114986
 21
439.7582772855599
 31
0.0
  0
LINE
  5
6F93
330
1E
100
AcDbEntity
  8
躯体と製品
  6
DASHED1
 62
     4
100
AcDbLine
 10
556.0953325939999
 20
493.6180876716272
 30
0.0
 11
556.1895373152371
 21
495.4156208341855
 31
0.0
  0
LINE
  5
6F94
330
1E
100
AcDbEntity
  8
躯体と製品
  6
Continuous
 62
     3
100
AcDbLine
 10
771.9520736035781
 20
504.3357068439949
 30
0.0
 11
450.9252157073118
 21
521.1600115565508
 31
0.0
  0
LINE
  5
6F95
330
1E
100
AcDbEntity
  8
躯体と製品
  6
DASHED1
 62
     4
100
AcDbLine
 10
771.8735696692136
 20
502.8377625418632
 30
0.0
 11
450.9252157073118
 21
519.657953037554
 31
0.0
  0
LINE
  5
6F96
330
1E
100
AcDbEntity
  8
躯体と製品
  6
Continuous
 62
     3
100
AcDbLine
 10
771.716561800485
 20
499.8418739375994
 30
0.0
 11
450.9252157073118
 21
516.6538359995599
 31
0.0
  0
LINE
  5
6F97
330
1E
100
AcDbEntity
  8
躯体と製品
  6
Continuous
 62
     3
100
AcDbLine
 10
771.6380578661204
 20
498.3439296354677
 30
0.0
 11
450.9252157073118
 21
515.1517774805633
 31
0.0
  0
LINE
  5
6F98
330
1E
100
AcDbEntity
  8
躯体と製品
  6
DASHED1
 62
     4
100
AcDbLine
 10
770.8948872874706
 20
484.1633902419525
 30
0.0
 11
450.9252157073118
 21
500.932290167393
 31
0.0
  0
LINE
  5
6F99
330
1E
100
AcDbEntity
  8
躯体と製品
  6
DASHED1
 62
     4
100
AcDbLine
 10
770.8006825662335
 20
482.3658570793941
 30
0.0
 11
450.9252157073118
 21
499.1298199445965
 31
0.0
  0
LINE
  5
6F9A
330
1E
100
AcDbEntity
  8
躯体と製品
  6
DASHED1
 62
     4
100
AcDbLine
 10
770.6175067193833
 20
478.8706537077533
 30
0.0
 11
450.9252157073118
 21
495.6250167336038
 31
0.0
  0
LINE
  5
6F9B
330
1E
100
AcDbEntity
  8
躯体と製品
  6
DASHED1
 62
     4
100
AcDbLine
 10
770.5390027850186
 20
477.3727094056214
 30
0.0
 11
450.9252157073118
 21
494.122958214607
 31
0.0
  0
LINE
  5
6F9C
330
1E
100
AcDbEntity
  8
躯体と製品
  6
Continuous
 62
     3
100
AcDbLine
 10
770.4866668287759
 20
476.3740798708669
 30
0.0
 11
450.9252157073118
 21
493.121585868609
 31
0.0
  0
LINE
  5
6F9D
330
1E
100
AcDbEntity
  8
躯体と製品
  6
Continuous
 62
     7
100
AcDbLine
 10
726.8928506315049
 20
458.4988907027604
 30
0.0
 11
728.5400669924834
 21
439.6711215428121
 31
0.0
  0
ARC
  5
6F9E
330
1E
100
AcDbEntity
  8
躯体と製品
  6
Continuous
 62
     7
100
AcDbCircle
 10
751.6124617010371
 20
441.6896945202062
 30
0.0
 40
23.1605275080762
100
AcDbArc
 50
185.0000000000006
 51
354.9999999999994
  0
LINE
  5
6F9F
330
1E
100
AcDbEntity
  8
躯体と製品
  6
Continuous
 62
     7
100
AcDbLine
 10
727.8890453295968
 20
458.5860464455081
 30
0.0
 11
729.5362616905751
 21
439.7582772855599
 31
0.0
  0
ARC
  5
6FA0
330
1E
100
AcDbEntity
  8
躯体と製品
  6
Continuous
 62
     7
100
AcDbCircle
 10
751.6124617010371
 20
441.6896945202062
 30
0.0
 40
22.16052750807618
100
AcDbArc
 50
184.9999999999998
 51
355.0000000000002
  0
LINE
  5
6FA1
330
1E
100
AcDbEntity
  8
躯体と製品
  6
DASHED1
 62
     7
100
AcDbLine
 10
777.4809150134051
 20
505.7550860563459
 30
0.0
 11
772.0414001533765
 21
506.0401589505372
 31
0.0
  0
LINE
  5
6FA2
330
1E
100
AcDbEntity
  8
躯体と製品
  6
DASHED1
 62
     7
100
AcDbLine
 10
777.2454032103117
 20
501.2612531499502
 30
0.0
 11
771.805888350283
 21
501.5463260441414
 31
0.0
  0
LINE
  5
6FA3
330
1E
100
AcDbEntity
  8
躯体と製品
  6
DASHED1
 62
     7
100
AcDbLine
 10
124.369516401219
 20
505.7550860563459
 30
0.0
 11
129.8090312612478
 21
506.0401589505372
 31
0.0
  0
LINE
  5
6FA4
330
1E
100
AcDbEntity
  8
躯体と製品
  6
Continuous
 62
     7
100
AcDbLine
 10
352.9176051034953
 20
458.5856385319689
 30
0.0
 11
355.5205733830552
 21
428.8335749541722
 31
0.0
  0
LINE
  5
6FA5
330
1E
100
AcDbEntity
  8
躯体と製品
  6
Continuous
 62
     7
100
AcDbLine
 10
351.9214104054038
 20
458.498482789221
 30
0.0
 11
354.5243786849634
 21
428.7464192114245
 31
0.0
  0
LINE
  5
6FA6
330
1E
100
AcDbEntity
  8
躯体と製品
  6
Continuous
 62
     7
100
AcDbLine
 10
549.9290210092204
 20
458.498482789221
 30
0.0
 11
547.3260527296607
 21
428.7464192114245
 31
0.0
  0
ARC
  5
6FA7
330
1E
100
AcDbEntity
  8
躯体と製品
  6
Continuous
 62
     7
100
AcDbCircle
 10
450.9252157073118
 20
437.1803996052903
 30
0.0
 40
96.76907255881673
100
AcDbArc
 50
184.9999999999998
 51
355.0000000000002
  0
LINE
  5
6FA8
330
1E
100
AcDbEntity
  8
躯体と製品
  6
Continuous
 62
     7
100
AcDbLine
 10
548.9328263111286
 20
458.5856385319689
 30
0.0
 11
546.3298580315687
 21
428.8335749541722
 31
0.0
  0
ARC
  5
6FA9
330
1E
100
AcDbEntity
  8
躯体と製品
  6
Continuous
 62
     7
100
AcDbCircle
 10
450.9252157073118
 20
437.1803996052903
 30
0.0
 40
95.76907255881668
100
AcDbArc
 50
184.9999999999998
 51
355.0000000000002
  0
TEXT
  5
6FAC
330
1E
100
AcDbEntity
  8
図枠
 62
     7
100
AcDbText
 10
362.4252157073119
 20
527.2426395624282
 30
0.0
 40
5.0
  1
勾配３度
100
AcDbText
  0
POINT
  5
6FAD
330
1E
100
AcDbEntity
  8
躯体と製品
 62
     4
100
AcDbPoint
 10
450.9252157073118
 20
524.8718897611943
 30
0.0
  0
LINE
  5
6FD1
330
1E
100
AcDbEntity
  8
躯体と製品
  6
Continuous
 62
     7
100
AcDbLine
 10
225.9252157073121
 20
460.4113270464734
 30
0.0
 11
225.9252157073121
 21
461.4113270464733
 31
0.0
  0
ARC
  5
6FD2
330
1E
100
AcDbEntity
  8
躯体と製品
  6
Continuous
 62
     7
100
AcDbCircle
 10
240.9252157073118
 20
452.1613270464733
 30
0.0
 40
8.25
100
AcDbArc
 50
71.07535558394895
 51
90.0
  0
ARC
  5
6FD3
330
1E
100
AcDbEntity
  8
躯体と製品
  6
Continuous
 62
     7
100
AcDbCircle
 10
246.9252157073118
 20
469.6613270464734
 30
0.0
 40
10.25
100
AcDbArc
 50
251.0753555839489
 51
270.0
  0
ARC
  5
6FD4
330
1E
100
AcDbEntity
  8
躯体と製品
  6
Continuous
 62
     7
100
AcDbCircle
 10
210.9252157073123
 20
452.1613270464733
 30
0.0
 40
8.25
100
AcDbArc
 50
90.0
 51
108.924644416051
  0
ARC
  5
6FD5
330
1E
100
AcDbEntity
  8
躯体と製品
  6
Continuous
 62
     7
100
AcDbCircle
 10
204.9252157073123
 20
469.6613270464734
 30
0.0
 40
10.25
100
AcDbArc
 50
270.0
 51
288.924644416051
  0
ARC
  5
6FD6
330
1E
100
AcDbEntity
  8
躯体と製品
  6
Continuous
 62
     7
100
AcDbCircle
 10
210.9252157073123
 20
452.1613270464733
 30
0.0
 40
9.25
100
AcDbArc
 50
90.0
 51
108.924644416051
  0
LINE
  5
6FD7
330
1E
100
AcDbEntity
  8
躯体と製品
  6
Continuous
 62
     7
100
AcDbLine
 10
240.9252157073118
 20
461.4113270464733
 30
0.0
 11
210.9252157073123
 21
461.4113270464733
 31
0.0
  0
ARC
  5
6FD8
330
1E
100
AcDbEntity
  8
躯体と製品
  6
Continuous
 62
     7
100
AcDbCircle
 10
240.9252157073118
 20
452.1613270464733
 30
0.0
 40
9.25
100
AcDbArc
 50
71.07535558394895
 51
90.0
  0
ARC
  5
6FD9
330
1E
100
AcDbEntity
  8
躯体と製品
  6
Continuous
 62
     7
100
AcDbCircle
 10
246.9252157073118
 20
469.6613270464734
 30
0.0
 40
9.25
100
AcDbArc
 50
251.0753555839489
 51
270.0
  0
ARC
  5
6FDA
330
1E
100
AcDbEntity
  8
躯体と製品
  6
Continuous
 62
     7
100
AcDbCircle
 10
204.9252157073123
 20
469.6613270464734
 30
0.0
 40
9.25
100
AcDbArc
 50
270.0
 51
288.924644416051
  0
LINE
  5
6FDB
330
1E
100
AcDbEntity
  8
躯体と製品
  6
Continuous
 62
     7
100
AcDbLine
 10
675.9252157073119
 20
460.4113270464734
 30
0.0
 11
675.9252157073119
 21
461.4113270464733
 31
0.0
  0
ARC
  5
6FDC
330
1E
100
AcDbEntity
  8
躯体と製品
  6
Continuous
 62
     7
100
AcDbCircle
 10
690.9252157073117
 20
452.1613270464733
 30
0.0
 40
8.25
100
AcDbArc
 50
71.07535558394895
 51
90.0
  0
ARC
  5
6FDD
330
1E
100
AcDbEntity
  8
躯体と製品
  6
Continuous
 62
     7
100
AcDbCircle
 10
696.9252157073119
 20
469.6613270464734
 30
0.0
 40
10.25
100
AcDbArc
 50
251.0753555839489
 51
270.0
  0
ARC
  5
6FDE
330
1E
100
AcDbEntity
  8
躯体と製品
  6
Continuous
 62
     7
100
AcDbCircle
 10
660.9252157073125
 20
452.1613270464733
 30
0.0
 40
8.25
100
AcDbArc
 50
90.0
 51
108.924644416051
  0
ARC
  5
6FDF
330
1E
100
AcDbEntity
  8
躯体と製品
  6
Continuous
 62
     7
100
AcDbCircle
 10
654.9252157073125
 20
469.6613270464734
 30
0.0
 40
10.25
100
AcDbArc
 50
270.0
 51
288.924644416051
  0
ARC
  5
6FE0
330
1E
100
AcDbEntity
  8
躯体と製品
  6
Continuous
 62
     7
100
AcDbCircle
 10
660.9252157073125
 20
452.1613270464733
 30
0.0
 40
9.25
100
AcDbArc
 50
90.0
 51
108.924644416051
  0
LINE
  5
6FE1
330
1E
100
AcDbEntity
  8
躯体と製品
  6
Continuous
 62
     7
100
AcDbLine
 10
690.9252157073117
 20
461.4113270464733
 30
0.0
 11
660.9252157073125
 21
461.4113270464733
 31
0.0
  0
ARC
  5
6FE2
330
1E
100
AcDbEntity
  8
躯体と製品
  6
Continuous
 62
     7
100
AcDbCircle
 10
690.9252157073117
 20
452.1613270464733
 30
0.0
 40
9.25
100
AcDbArc
 50
71.07535558394895
 51
90.0
  0
ARC
  5
6FE3
330
1E
100
AcDbEntity
  8
躯体と製品
  6
Continuous
 62
     7
100
AcDbCircle
 10
696.9252157073119
 20
469.6613270464734
 30
0.0
 40
9.25
100
AcDbArc
 50
251.0753555839489
 51
270.0
  0
ARC
  5
6FE4
330
1E
100
AcDbEntity
  8
躯体と製品
  6
Continuous
 62
     7
100
AcDbCircle
 10
654.9252157073125
 20
469.6613270464734
 30
0.0
 40
9.25
100
AcDbArc
 50
270.0
 51
288.924644416051
  0
ARC
  5
6FE5
330
1E
100
AcDbEntity
  8
躯体と製品
  6
Continuous
 62
     7
100
AcDbCircle
 10
550.9252157073119
 20
458.4113270464733
 30
0.0
 40
2.0
100
AcDbArc
 50
90.0
 51
175.0000000000002
  0
LINE
  5
6FE6
330
1E
100
AcDbEntity
  8
躯体と製品
  6
Continuous
 62
     7
100
AcDbLine
 10
654.9252157073125
 20
460.4113270464734
 30
0.0
 11
550.9252157073119
 21
460.4113270464737
 31
0.0
  0
LINE
  5
6FE7
330
1E
100
AcDbEntity
  8
躯体と製品
  6
Continuous
 62
     7
100
AcDbLine
 10
696.9252157073119
 20
460.4113270464734
 30
0.0
 11
725.9370476127994
 21
460.4113270464734
 31
0.0
  0
ARC
  5
6FE8
330
1E
100
AcDbEntity
  8
躯体と製品
  6
Continuous
 62
     7
100
AcDbCircle
 10
725.8966559334133
 20
458.4117349600127
 30
0.0
 40
2.0
100
AcDbArc
 50
4.999999999999778
 51
88.84278494683897
  0
LINE
  5
6FE9
330
1E
100
AcDbEntity
  8
躯体と製品
  6
Continuous
 62
     7
100
AcDbLine
 10
246.9252157073118
 20
460.4113270464734
 30
0.0
 11
350.9252157073119
 21
460.4113270464734
 31
0.0
  0
ARC
  5
6FEA
330
1E
100
AcDbEntity
  8
躯体と製品
  6
Continuous
 62
     7
100
AcDbCircle
 10
350.9252157073119
 20
458.4113270464733
 30
0.0
 40
2.0
100
AcDbArc
 50
4.999999999999778
 51
90.0
  0
ARC
  5
6FEB
330
1E
100
AcDbEntity
  8
躯体と製品
  6
Continuous
 62
     7
100
AcDbCircle
 10
175.9537754812108
 20
458.4117349600127
 30
0.0
 40
2.0
100
AcDbArc
 50
91.15721505311054
 51
175.0000000000002
  0
LINE
  5
6FEC
330
1E
100
AcDbEntity
  8
躯体と製品
  6
Continuous
 62
     7
100
AcDbLine
 10
204.9252157073123
 20
460.4113270464734
 30
0.0
 11
175.9133838018263
 21
460.4113270464734
 31
0.0
  0
TEXT
  5
6FED
330
1E
100
AcDbEntity
  8
図枠
 62
     7
100
AcDbText
 10
436.5252157073118
 20
285.4077364496371
 30
0.0
 40
5.0
  1
（3000mmセット）
100
AcDbText
  0
TEXT
  5
6FEE
330
1E
100
AcDbEntity
  8
図枠
 62
     7
100
AcDbText
 10
504.5252157073118
 20
285.4077364496371
 30
0.0
 40
5.0
  1
（2000mmセット）
100
AcDbText
  0
TEXT
  5
6FEF
330
1E
100
AcDbEntity
  8
図枠
 62
     7
100
AcDbText
 10
679.5252157073125
 20
285.4077364496371
 30
0.0
 40
5.0
  1
（単位：mm）
100
AcDbText
  0
LINE
  5
6FF0
330
1E
100
AcDbEntity
  8
図枠
  6
Continuous
 62
     4
100
AcDbLine
 10
400.9252157073118
 20
527.2583625270319
 30
0.0
 11
350.9252157073119
 21
527.2583625270319
 31
0.0
  0
LINE
  5
6FF1
330
1E
100
AcDbEntity
  8
図枠
  6
Continuous
 62
     4
100
AcDbLine
 10
350.9252157073119
 20
524.6379735628795
 30
0.0
 11
350.9252157073119
 21
527.2583625270319
 31
0.0
  0
LINE
  5
6FF2
330
1E
100
AcDbEntity
  8
図枠
  6
Continuous
 62
     4
100
AcDbLine
 10
400.9252157073118
 20
527.2583625270319
 30
0.0
 11
350.9252157073119
 21
524.6379735628795
 31
0.0
  0
LINE
  5
6FF3
330
1E
100
AcDbEntity
  8
躯体と製品
  6
CENTER1
 62
     4
100
AcDbLine
 10
224.2005758455749
 20
512.2429304132749
 30
0.0
 11
226.5532471822273
 21
467.3512870573053
 31
0.0
  0
LINE
  5
6FF4
330
1E
100
AcDbEntity
  8
躯体と製品
  6
CENTER1
 62
     4
100
AcDbLine
 10
225.9252157073121
 20
484.3348414743601
 30
0.0
 11
225.9252157073121
 21
399.1613270464737
 31
0.0
  0
LINE
  5
6FF5
330
1E
100
AcDbEntity
  8
躯体と製品
  6
CENTER1
 62
     4
100
AcDbLine
 10
450.9252157073118
 20
545.2794528758642
 30
0.0
 11
450.9252157073118
 21
329.1224794063392
 31
0.0
  0
LINE
  5
6FF6
330
1E
100
AcDbEntity
  8
躯体と製品
  6
CENTER1
 62
     4
100
AcDbLine
 10
675.9252157073119
 20
484.3348414743601
 30
0.0
 11
675.9252157073119
 21
399.1613270464737
 31
0.0
  0
LINE
  5
6FF7
330
1E
100
AcDbEntity
  8
躯体と製品
  6
CENTER1
 62
     4
100
AcDbLine
 10
677.6498555690492
 20
512.2429304132749
 30
0.0
 11
675.2971842323965
 21
467.3512870573053
 31
0.0
  0
LINE
  5
6FF8
330
1E
100
AcDbEntity
  8
躯体と製品
  6
Continuous
 62
     7
100
AcDbLine
 10
666.9252157073123
 20
465.4113270464733
 30
0.0
 11
684.925215707312
 21
465.4113270464733
 31
0.0
  0
LINE
  5
6FF9
330
1E
100
AcDbEntity
  8
躯体と製品
  6
Continuous
 62
     7
100
AcDbLine
 10
684.925215707312
 20
465.4113270464733
 30
0.0
 11
684.925215707312
 21
463.9113270464734
 31
0.0
  0
LINE
  5
6FFA
330
1E
100
AcDbEntity
  8
躯体と製品
  6
Continuous
 62
     7
100
AcDbLine
 10
666.9252157073123
 20
465.4113270464733
 30
0.0
 11
666.9252157073123
 21
463.9113270464734
 31
0.0
  0
ARC
  5
6FFB
330
1E
100
AcDbEntity
  8
躯体と製品
  6
Continuous
 62
     7
100
AcDbCircle
 10
675.9252157073119
 20
460.8001740069178
 30
0.0
 40
9.553418012635715
100
AcDbArc
 50
72.41204622604626
 51
107.5879537739537
  0
ARC
  5
6FFC
330
1E
100
AcDbEntity
  8
躯体と製品
  6
Continuous
 62
     7
100
AcDbCircle
 10
671.5950886883899
 20
467.7977692711253
 30
0.0
 40
2.555822748428199
100
AcDbArc
 50
55.6157525320338
 51
124.3842474679647
  0
ARC
  5
6FFD
330
1E
100
AcDbEntity
  8
躯体と製品
  6
Continuous
 62
     7
100
AcDbCircle
 10
680.2553427262345
 20
467.7977692711253
 30
0.0
 40
2.555822748428199
100
AcDbArc
 50
55.61575253203493
 51
124.3842474679662
  0
LINE
  5
6FFE
330
1E
100
AcDbEntity
  8
躯体と製品
  6
Continuous
 62
     7
100
AcDbLine
 10
670.1517130154161
 20
469.9070100321693
 30
0.0
 11
670.1517130154161
 21
465.4113270464733
 31
0.0
  0
LINE
  5
6FFF
330
1E
100
AcDbEntity
  8
躯体と製品
  6
Continuous
 62
     7
100
AcDbLine
 10
671.0252157073123
 20
470.4113270464733
 30
0.0
 11
670.1517130154161
 21
469.9070100321693
 31
0.0
  0
LINE
  5
7000
330
1E
100
AcDbEntity
  8
躯体と製品
  6
Continuous
 62
     7
100
AcDbLine
 10
671.0252157073123
 20
470.4113270464733
 30
0.0
 11
680.8252157073125
 21
470.4113270464733
 31
0.0
  0
LINE
  5
7001
330
1E
100
AcDbEntity
  8
躯体と製品
  6
Continuous
 62
     7
100
AcDbLine
 10
680.8252157073125
 20
470.4113270464733
 30
0.0
 11
681.6987183992084
 21
469.9070100321693
 31
0.0
  0
LINE
  5
7002
330
1E
100
AcDbEntity
  8
躯体と製品
  6
Continuous
 62
     7
100
AcDbLine
 10
673.0384643613636
 20
469.9070100321693
 30
0.0
 11
673.0384643613636
 21
465.4113270464733
 31
0.0
  0
LINE
  5
7003
330
1E
100
AcDbEntity
  8
躯体と製品
  6
Continuous
 62
     7
100
AcDbLine
 10
678.8119670532601
 20
469.9070100321693
 30
0.0
 11
678.8119670532601
 21
465.4113270464733
 31
0.0
  0
LINE
  5
7004
330
1E
100
AcDbEntity
  8
躯体と製品
  6
Continuous
 62
     7
100
AcDbLine
 10
681.6987183992084
 20
469.9070100321693
 30
0.0
 11
681.6987183992084
 21
465.4113270464733
 31
0.0
  0
CIRCLE
  5
7005
330
1E
100
AcDbEntity
  8
図枠
  6
Continuous
 62
     4
100
AcDbCircle
 10
725.8985564460721
 20
493.009521146578
 30
0.0
 40
0.9
  0
CIRCLE
  5
7006
330
1E
100
AcDbEntity
  8
図枠
  6
Continuous
 62
     4
100
AcDbCircle
 10
677.9796607447444
 20
494.8744967337412
 30
0.0
 40
0.9
  0
CIRCLE
  5
7007
330
1E
100
AcDbEntity
  8
図枠
  6
Continuous
 62
     4
100
AcDbCircle
 10
673.7992047313098
 20
434.3286656483268
 30
0.0
 40
0.9
  0
CIRCLE
  5
7008
330
1E
100
AcDbEntity
  8
図枠
  6
Continuous
 62
     4
100
AcDbCircle
 10
693.5290447357012
 20
497.5967493771726
 30
0.0
 40
0.9
  0
CIRCLE
  5
7009
330
1E
100
AcDbEntity
  8
図枠
  6
Continuous
 62
     4
100
AcDbCircle
 10
680.2626265360077
 20
467.5118991937315
 30
0.0
 40
0.9
  0
CIRCLE
  5
700A
330
1E
100
AcDbEntity
  8
図枠
  6
Continuous
 62
     4
100
AcDbCircle
 10
686.1026984354557
 20
474.8999419580941
 30
0.0
 40
0.9
  0
CIRCLE
  5
700B
330
1E
100
AcDbEntity
  8
図枠
  6
Continuous
 62
     4
100
AcDbCircle
 10
742.8238715576823
 20
522.3250268539998
 30
0.0
 40
6.0
  0
LINE
  5
700C
330
1E
100
AcDbEntity
  8
図枠
  6
Continuous
 62
     4
100
AcDbLine
 10
725.8985564460721
 20
493.009521146578
 30
0.0
 11
739.8238715576823
 21
517.1288744312935
 31
0.0
  0
CIRCLE
  5
700D
330
1E
100
AcDbEntity
  8
図枠
  6
Continuous
 62
     4
100
AcDbCircle
 10
693.4469072914908
 20
473.1626640324291
 30
0.0
 40
0.9
  0
CIRCLE
  5
700E
330
1E
100
AcDbEntity
  8
図枠
  6
Continuous
 62
     4
100
AcDbCircle
 10
721.2599615469407
 20
521.3362871165381
 30
0.0
 40
6.0
  0
LINE
  5
700F
330
1E
100
AcDbEntity
  8
図枠
  6
Continuous
 62
     4
100
AcDbLine
 10
693.4469072914908
 20
473.1626640324291
 30
0.0
 11
718.2599615469408
 21
516.1401346938314
 31
0.0
  0
CIRCLE
  5
7010
330
1E
100
AcDbEntity
  8
図枠
  6
Continuous
 62
     4
100
AcDbCircle
 10
714.8161345080772
 20
534.4670704082076
 30
0.0
 40
6.0
  0
LINE
  5
7011
330
1E
100
AcDbEntity
  8
図枠
  6
Continuous
 62
     4
100
AcDbLine
 10
693.5290447357012
 20
497.5967493771726
 30
0.0
 11
711.8161345080775
 21
529.270917985501
 31
0.0
  0
CIRCLE
  5
7012
330
1E
100
AcDbEntity
  8
図枠
  6
Continuous
 62
     4
100
AcDbCircle
 10
698.8051932837764
 20
530.9453771860236
 30
0.0
 40
6.0
  0
LINE
  5
7013
330
1E
100
AcDbEntity
  8
図枠
  6
Continuous
 62
     4
100
AcDbLine
 10
677.9796607447444
 20
494.8744967337412
 30
0.0
 11
695.8051932837764
 21
525.749224763317
 31
0.0
  0
CIRCLE
  5
7014
330
1E
100
AcDbEntity
  8
図枠
  6
Continuous
 62
     4
100
AcDbCircle
 10
700.8843845672245
 20
449.297310556335
 30
0.0
 40
6.0
  0
LINE
  5
7015
330
1E
100
AcDbEntity
  8
図枠
  6
Continuous
 62
     4
100
AcDbLine
 10
686.1026984354557
 20
474.8999419580941
 30
0.0
 11
697.8843845672245
 21
454.4934629790414
 31
0.0
  0
CIRCLE
  5
7016
330
1E
100
AcDbEntity
  8
図枠
  6
Continuous
 62
     4
100
AcDbCircle
 10
699.685012200864
 20
433.8713404180029
 30
0.0
 40
6.0
  0
LINE
  5
7017
330
1E
100
AcDbEntity
  8
図枠
  6
Continuous
 62
     4
100
AcDbLine
 10
680.2626265360077
 20
467.5118991937315
 30
0.0
 11
696.6850122008641
 21
439.0674928407094
 31
0.0
  0
CIRCLE
  5
7018
330
1E
100
AcDbEntity
  8
図枠
  6
Continuous
 62
     4
100
AcDbCircle
 10
660.7575905365635
 20
411.7399272503145
 30
0.0
 40
6.0
  0
LINE
  5
7019
330
1E
100
AcDbEntity
  8
図枠
  6
Continuous
 62
     4
100
AcDbLine
 10
673.7992047313098
 20
434.3286656483268
 30
0.0
 11
663.7575905365634
 21
416.936079673021
 31
0.0
  0
CIRCLE
  5
701A
330
1E
100
AcDbEntity
  8
図枠
  6
Continuous
 62
     4
100
AcDbCircle
 10
668.8034639542905
 20
464.647483979051
 30
0.0
 40
0.9
  0
CIRCLE
  5
701B
330
1E
100
AcDbEntity
  8
図枠
  6
Continuous
 62
     4
100
AcDbCircle
 10
656.1062103224113
 20
442.6551955720475
 30
0.0
 40
6.0
  0
LINE
  5
701C
330
1E
100
AcDbEntity
  8
図枠
  6
Continuous
 62
     4
100
AcDbLine
 10
668.8034639542905
 20
464.647483979051
 30
0.0
 11
659.1062103224112
 21
447.8513479947541
 31
0.0
  0
TEXT
  5
701D
330
1E
100
AcDbEntity
  8
図枠
 62
     7
100
AcDbText
 10
711.8161345080775
 20
531.4670704082074
 30
0.0
 40
5.0
  1
５
100
AcDbText
  0
TEXT
  5
701E
330
1E
100
AcDbEntity
  8
図枠
 62
     7
100
AcDbText
 10
695.5551932837765
 20
527.9453771860236
 30
0.0
 40
5.0
  1
10
100
AcDbText
  0
TEXT
  5
701F
330
1E
100
AcDbEntity
  8
図枠
 62
     7
100
AcDbText
 10
739.8238715576823
 20
519.3250268539999
 30
0.0
 40
5.0
  1
４
100
AcDbText
  0
TEXT
  5
7020
330
1E
100
AcDbEntity
  8
図枠
 62
     7
100
AcDbText
 10
718.2599615469408
 20
518.3362871165382
 30
0.0
 40
5.0
  1
２
100
AcDbText
  0
TEXT
  5
7021
330
1E
100
AcDbEntity
  8
図枠
 62
     7
100
AcDbText
 10
697.8843845672245
 20
446.297310556335
 30
0.0
 40
5.0
  1
６
100
AcDbText
  0
TEXT
  5
7022
330
1E
100
AcDbEntity
  8
図枠
 62
     7
100
AcDbText
 10
652.8562103224112
 20
439.6551955720474
 30
0.0
 40
5.0
  1
13
100
AcDbText
  0
TEXT
  5
7023
330
1E
100
AcDbEntity
  8
図枠
 62
     7
100
AcDbText
 10
696.4350122008641
 20
430.8713404180029
 30
0.0
 40
5.0
  1
11
100
AcDbText
  0
TEXT
  5
7024
330
1E
100
AcDbEntity
  8
図枠
 62
     7
100
AcDbText
 10
657.5075905365634
 20
408.7399272503144
 30
0.0
 40
5.0
  1
12
100
AcDbText
  0
CIRCLE
  5
7025
330
1E
100
AcDbEntity
  8
図枠
  6
Continuous
 62
     4
100
AcDbCircle
 10
812.2710528225924
 20
555.1697573886717
 30
0.0
 40
6.0
  0
LINE
  5
7026
330
1E
100
AcDbEntity
  8
図枠
  6
Continuous
 62
     4
100
AcDbLine
 10
784.13457167919
 20
506.4359425020957
 30
0.0
 11
809.2710528225923
 21
549.9736049659652
 31
0.0
  0
CIRCLE
  5
7027
330
1E
100
AcDbEntity
  8
図枠
  6
Continuous
 62
     4
100
AcDbCircle
 10
784.13457167919
 20
506.4359425020957
 30
0.0
 40
0.9
  0
TEXT
  5
7028
330
1E
100
AcDbEntity
  8
図枠
 62
     7
100
AcDbText
 10
809.2710528225923
 20
552.1697573886715
 30
0.0
 40
5.0
  1
１
100
AcDbText
  0
CIRCLE
  5
7029
330
1E
100
AcDbEntity
  8
図枠
  6
Continuous
 62
     4
100
AcDbCircle
 10
784.3479258892912
 20
489.0009529486957
 30
0.0
 40
0.9
  0
LINE
  5
702A
330
1E
100
AcDbEntity
  8
図枠
  6
Continuous
 62
     4
100
AcDbLine
 10
784.3479258892912
 20
489.0009529486957
 30
0.0
 11
807.9844070326933
 21
529.9405392012115
 31
0.0
  0
TEXT
  5
702B
330
1E
100
AcDbEntity
  8
図枠
 62
     7
100
AcDbText
 10
807.9844070326933
 20
532.1366916239183
 30
0.0
 40
5.0
  1
７
100
AcDbText
  0
CIRCLE
  5
702C
330
1E
100
AcDbEntity
  8
図枠
  6
Continuous
 62
     4
100
AcDbCircle
 10
810.9844070326932
 20
535.1366916239182
 30
0.0
 40
6.0
  0
LINE
  5
702D
330
1E
100
AcDbEntity
  8
躯体と製品
  6
Continuous
 62
     7
100
AcDbLine
 10
216.925215707312
 20
465.4113270464733
 30
0.0
 11
234.9252157073121
 21
465.4113270464733
 31
0.0
  0
LINE
  5
702E
330
1E
100
AcDbEntity
  8
躯体と製品
  6
Continuous
 62
     7
100
AcDbLine
 10
234.9252157073121
 20
465.4113270464733
 30
0.0
 11
234.9252157073121
 21
463.9113270464734
 31
0.0
  0
LINE
  5
702F
330
1E
100
AcDbEntity
  8
躯体と製品
  6
Continuous
 62
     7
100
AcDbLine
 10
216.925215707312
 20
465.4113270464733
 30
0.0
 11
216.925215707312
 21
463.9113270464734
 31
0.0
  0
ARC
  5
7030
330
1E
100
AcDbEntity
  8
躯体と製品
  6
Continuous
 62
     7
100
AcDbCircle
 10
225.9252157073121
 20
460.8001740069178
 30
0.0
 40
9.553418012635715
100
AcDbArc
 50
72.41204622604626
 51
107.5879537739537
  0
ARC
  5
7031
330
1E
100
AcDbEntity
  8
躯体と製品
  6
Continuous
 62
     7
100
AcDbCircle
 10
221.5950886883899
 20
467.7977692711253
 30
0.0
 40
2.555822748428199
100
AcDbArc
 50
55.6157525320338
 51
124.3842474679647
  0
ARC
  5
7032
330
1E
100
AcDbEntity
  8
躯体と製品
  6
Continuous
 62
     7
100
AcDbCircle
 10
230.2553427262342
 20
467.7977692711253
 30
0.0
 40
2.555822748428199
100
AcDbArc
 50
55.61575253203493
 51
124.3842474679662
  0
LINE
  5
7033
330
1E
100
AcDbEntity
  8
躯体と製品
  6
Continuous
 62
     7
100
AcDbLine
 10
220.1517130154157
 20
469.9070100321693
 30
0.0
 11
220.1517130154157
 21
465.4113270464733
 31
0.0
  0
LINE
  5
7034
330
1E
100
AcDbEntity
  8
躯体と製品
  6
Continuous
 62
     7
100
AcDbLine
 10
221.0252157073119
 20
470.4113270464733
 30
0.0
 11
220.1517130154157
 21
469.9070100321693
 31
0.0
  0
LINE
  5
7035
330
1E
100
AcDbEntity
  8
躯体と製品
  6
Continuous
 62
     7
100
AcDbLine
 10
221.0252157073119
 20
470.4113270464733
 30
0.0
 11
230.825215707312
 21
470.4113270464733
 31
0.0
  0
LINE
  5
7036
330
1E
100
AcDbEntity
  8
躯体と製品
  6
Continuous
 62
     7
100
AcDbLine
 10
230.825215707312
 20
470.4113270464733
 30
0.0
 11
231.6987183992083
 21
469.9070100321693
 31
0.0
  0
LINE
  5
7037
330
1E
100
AcDbEntity
  8
躯体と製品
  6
Continuous
 62
     7
100
AcDbLine
 10
223.0384643613639
 20
469.9070100321693
 30
0.0
 11
223.0384643613639
 21
465.4113270464733
 31
0.0
  0
LINE
  5
7038
330
1E
100
AcDbEntity
  8
躯体と製品
  6
Continuous
 62
     7
100
AcDbLine
 10
228.8119670532601
 20
469.9070100321693
 30
0.0
 11
228.8119670532601
 21
465.4113270464733
 31
0.0
  0
LINE
  5
7039
330
1E
100
AcDbEntity
  8
躯体と製品
  6
Continuous
 62
     7
100
AcDbLine
 10
231.6987183992083
 20
469.9070100321693
 30
0.0
 11
231.6987183992083
 21
465.4113270464733
 31
0.0
  0
LINE
  5
703A
330
1E
100
AcDbEntity
  8
躯体と製品
  6
Continuous
 62
     7
100
AcDbLine
 10
223.3814699904172
 20
470.5504333693643
 30
0.0
 11
223.5359632135118
 21
470.4113270464733
 31
0.0
  0
LINE
  5
703B
330
1E
100
AcDbEntity
  8
躯体と製品
  6
Continuous
 62
     4
100
AcDbLine
 10
223.685457436031
 20
475.6125202716388
 30
0.0
 11
223.9580404225839
 21
470.4113270464733
 31
0.0
  0
LINE
  5
703C
330
1E
100
AcDbEntity
  8
躯体と製品
  6
Continuous
 62
     4
100
AcDbLine
 10
228.5417928635425
 20
475.8670300268484
 30
0.0
 11
228.8277141411717
 21
470.4113270464733
 31
0.0
  0
LINE
  5
703D
330
1E
100
AcDbEntity
  8
躯体と製品
  6
Continuous
 62
     7
100
AcDbLine
 10
228.965254263246
 20
470.4113270464733
 30
0.0
 11
229.3732471989446
 21
470.8644491068221
 31
0.0
  0
LINE
  5
703E
330
1E
100
AcDbEntity
  8
躯体と製品
  6
Continuous
 62
     7
100
AcDbLine
 10
672.8851771513781
 20
470.4113270464733
 30
0.0
 11
672.4771842156794
 21
470.8644491068221
 31
0.0
  0
LINE
  5
703F
330
1E
100
AcDbEntity
  8
躯体と製品
  6
Continuous
 62
     4
100
AcDbLine
 10
673.3086385510818
 20
475.8670300268484
 30
0.0
 11
673.0227172734522
 21
470.4113270464733
 31
0.0
  0
LINE
  5
7040
330
1E
100
AcDbEntity
  8
躯体と製品
  6
Continuous
 62
     4
100
AcDbLine
 10
678.1649739785933
 20
475.6125202716388
 30
0.0
 11
677.8923909920405
 21
470.4113270464733
 31
0.0
  0
LINE
  5
7041
330
1E
100
AcDbEntity
  8
躯体と製品
  6
Continuous
 62
     7
100
AcDbLine
 10
678.4689614242069
 20
470.5504333693643
 30
0.0
 11
678.3144682011124
 21
470.4113270464733
 31
0.0
  0
CIRCLE
  5
7042
330
1E
100
AcDbEntity
  8
図枠
  6
Continuous
 62
     4
100
AcDbCircle
 10
397.2700489509569
 20
357.2818842992492
 30
0.0
 40
0.9
  0
LINE
  5
7043
330
1E
100
AcDbEntity
  8
図枠
  6
Continuous
 62
     4
100
AcDbLine
 10
397.2700489509569
 20
357.2818842992492
 30
0.0
 11
411.1533361373785
 21
381.3284430822016
 31
0.0
  0
TEXT
  5
7044
330
1E
100
AcDbEntity
  8
図枠
 62
     7
100
AcDbText
 10
411.1533361373785
 20
383.5245955049082
 30
0.0
 40
5.0
  1
９
100
AcDbText
  0
CIRCLE
  5
7045
330
1E
100
AcDbEntity
  8
図枠
  6
Continuous
 62
     4
100
AcDbCircle
 10
414.1533361373785
 20
386.5245955049082
 30
0.0
 40
6.0
  0
TEXT
  5
7046
330
1E
100
AcDbEntity
  8
図枠
 62
     7
100
AcDbText
 10
239.5252157073121
 20
239.4113270464737
 30
0.0
 40
5.0
  1
止水補助板ホルダーＡＬ
100
AcDbText
  0
CIRCLE
  5
7047
330
1E
100
AcDbEntity
  8
図枠
  6
Continuous
 62
     4
100
AcDbCircle
 10
765.4554860227142
 20
423.7511799851406
 30
0.0
 40
0.9
  0
LINE
  5
7048
330
1E
100
AcDbEntity
  8
図枠
  6
Continuous
 62
     4
100
AcDbLine
 10
765.4554860227142
 20
423.7511799851406
 30
0.0
 11
775.9129335593445
 21
405.6383495342106
 31
0.0
  0
CIRCLE
  5
7049
330
1E
100
AcDbEntity
  8
図枠
  6
Continuous
 62
     4
100
AcDbCircle
 10
778.9129335593451
 20
400.442197111504
 30
0.0
 40
6.0
  0
TEXT
  5
704A
330
1E
100
AcDbEntity
  8
図枠
 62
     7
100
AcDbText
 10
775.9129335593445
 20
397.4421971115041
 30
0.0
 40
5.0
  1
８
100
AcDbText
  0
CIRCLE
  5
704B
330
1E
100
AcDbEntity
  8
図枠
  6
Continuous
 62
     4
100
AcDbCircle
 10
136.3949453919099
 20
423.7511799851406
 30
0.0
 40
0.9
  0
LINE
  5
704C
330
1E
100
AcDbEntity
  8
図枠
  6
Continuous
 62
     4
100
AcDbLine
 10
136.3949453919099
 20
423.7511799851406
 30
0.0
 11
125.9374978552795
 21
405.6383495342106
 31
0.0
  0
CIRCLE
  5
704D
330
1E
100
AcDbEntity
  8
図枠
  6
Continuous
 62
     4
100
AcDbCircle
 10
122.9374978552794
 20
400.442197111504
 30
0.0
 40
6.0
  0
TEXT
  5
704E
330
1E
100
AcDbEntity
  8
図枠
 62
     7
100
AcDbText
 10
119.9374978552794
 20
397.4421971115041
 30
0.0
 40
5.0
  1
８
100
AcDbText
  0
CIRCLE
  5
704F
330
1E
100
AcDbEntity
  8
図枠
  6
Continuous
 62
     4
100
AcDbCircle
 10
783.1909714190429
 20
441.4194952736085
 30
0.0
 40
0.9
  0
LINE
  5
7050
330
1E
100
AcDbEntity
  8
図枠
  6
Continuous
 62
     4
100
AcDbLine
 10
783.1909714190429
 20
441.4194952736085
 30
0.0
 11
808.1589852353994
 21
484.6653637676191
 31
0.0
  0
TEXT
  5
7051
330
1E
100
AcDbEntity
  8
図枠
 62
     7
100
AcDbText
 10
808.1589852353994
 20
486.8615161903255
 30
0.0
 40
5.0
  1
３
100
AcDbText
  0
CIRCLE
  5
7052
330
1E
100
AcDbEntity
  8
図枠
  6
Continuous
 62
     4
100
AcDbCircle
 10
811.1589852353993
 20
489.8615161903255
 30
0.0
 40
6.0
  0
TEXT
  5
7053
330
1E
100
AcDbEntity
  8
図枠
 62
     6
100
AcDbText
 10
78.07172441644667
 20
624.880959203226
 30
0.0
 40
10.0
  1
◇アルミ２００タイプ（２００ＦＹＹ－Ａ）
100
AcDbText
  0
TEXT
  5
7054
330
1E
100
AcDbEntity
  8
図枠
 62
     6
100
AcDbText
 10
78.46345197560015
 20
593.0753277961293
 30
0.0
 40
10.0
  1
　　Ｓ＝１／２
100
AcDbText
  0
TEXT
  5
7055
330
1E
100
AcDbEntity
  8
図枠
 62
     6
100
AcDbText
 10
78.46345197560015
 20
608.310835042506
 30
0.0
 40
10.0
  1
　　屋根－屋根
100
AcDbText
  0
DIMENSION
  5
7056
330
1E
100
AcDbEntity
  8
寸法
  6
Continuous
100
AcDbDimension
  2
*D4
 10
800.9252157073124
 20
584.4113270464734
 30
0.0
 11
450.9252157073122
 21
588.4113270464734
 31
0.0
 70
    32
  1
W
 71
     5
 42
700.0000000000003
  3
AutoCAD
100
AcDbAlignedDimension
 13
100.925215707312
 23
508.52916701213
 33
0.0
 14
800.9252157073124
 24
508.52916701213
 34
0.0
100
AcDbRotatedDimension
  0
DIMENSION
  5
7063
330
1E
100
AcDbEntity
  8
寸法
  6
Continuous
100
AcDbDimension
  2
*D5
 10
175.9252157073136
 20
319.4113270464737
 30
0.0
 11
138.4252157073128
 21
323.4113270464737
 31
0.0
 70
    32
  1
75≦
 71
     5
 42
75.00000000000156
  3
AutoCAD
100
AcDbAlignedDimension
 13
100.925215707312
 23
414.52916701213
 33
0.0
 14
175.9252157073136
 24
319.4113270464737
 34
0.0
100
AcDbRotatedDimension
  0
DIMENSION
  5
706F
330
1E
100
AcDbEntity
  8
寸法
  6
Continuous
100
AcDbDimension
  2
*D6
 10
350.9252157073134
 20
319.4113270464737
 30
0.0
 11
263.4252157073135
 21
323.4113270464737
 31
0.0
 70
    32
  1
≦Ｃ
 71
     5
 42
174.9999999999997
  3
AutoCAD
100
AcDbAlignedDimension
 13
175.9252157073136
 23
319.4113270464737
 33
0.0
 14
350.9252157073134
 24
319.4113270464737
 34
0.0
100
AcDbRotatedDimension
  0
DIMENSION
  5
707A
330
1E
100
AcDbEntity
  8
寸法
  6
Continuous
100
AcDbDimension
  2
*D7
 10
550.9252157073137
 20
319.4113270464737
 30
0.0
 11
450.9252157073135
 21
323.4113270464737
 31
0.0
 70
    32
 71
     5
 42
200.0000000000004
  3
AutoCAD
100
AcDbAlignedDimension
 13
350.9252157073134
 23
319.4113270464737
 33
0.0
 14
550.9252157073137
 24
319.4113270464737
 34
0.0
100
AcDbRotatedDimension
  0
DIMENSION
  5
7085
330
1E
100
AcDbEntity
  8
寸法
  6
Continuous
100
AcDbDimension
  2
*D8
 10
725.9252157073139
 20
319.4113270464737
 30
0.0
 11
638.4252157073137
 21
323.4113270464737
 31
0.0
 70
    32
  1
≦Ｃ
 71
     5
 42
175.0000000000001
  3
AutoCAD
100
AcDbAlignedDimension
 13
550.9252157073137
 23
319.4113270464737
 33
0.0
 14
725.9252157073139
 24
319.4113270464737
 34
0.0
100
AcDbRotatedDimension
  0
DIMENSION
  5
7090
330
1E
100
AcDbEntity
  8
寸法
  6
Continuous
100
AcDbDimension
  2
*D9
 10
800.9252157073124
 20
319.4113270464737
 30
0.0
 11
763.4252157073115
 21
323.4113270464737
 31
0.0
 70
    32
  1
75≦
 71
     5
 42
75.00000000000182
  3
AutoCAD
100
AcDbAlignedDimension
 13
725.9252157073106
 23
319.4113270464737
 33
0.0
 14
800.9252157073124
 24
414.52916701213
 34
0.0
100
AcDbRotatedDimension
  0
DIMENSION
  5
709C
330
1E
100
AcDbEntity
  8
寸法
  6
Continuous
100
AcDbDimension
  2
*D10
 10
675.9252157073119
 20
399.4113270464737
 30
0.0
 11
700.9252157073119
 21
403.4113270464736
 31
0.0
 70
    32
 71
     5
 42
50.0
  3
AutoCAD
100
AcDbAlignedDimension
 13
725.9252157073119
 23
399.4113270464737
 33
0.0
 14
675.9252157073119
 24
399.4113270464737
 34
0.0
100
AcDbRotatedDimension
  0
DIMENSION
  5
70A7
330
1E
100
AcDbEntity
  8
寸法
  6
Continuous
100
AcDbDimension
  2
*D11
 10
225.9252157073121
 20
399.4113270464737
 30
0.0
 11
200.925215707312
 21
403.4113270464736
 31
0.0
 70
    32
 71
     5
 42
50.00000000000011
  3
AutoCAD
100
AcDbAlignedDimension
 13
175.9252157073119
 23
399.4113270464737
 33
0.0
 14
225.9252157073121
 24
399.4113270464737
 34
0.0
100
AcDbRotatedDimension
  0
DIMENSION
  5
70B2
330
1E
100
AcDbEntity
  8
寸法
  6
Continuous
100
AcDbDimension
  2
*D12
 10
840.9252157073124
 20
416.52916701213
 30
0.0
 11
836.9252157073123
 21
437.9702470293018
 31
0.0
 70
    32
  1
44
 71
     5
 42
42.88216003434331
  3
AutoCAD
100
AcDbAlignedDimension
 13
729.8890453295968
 23
459.4113270464734
 33
0.0
 14
802.9252157073123
 24
416.52916701213
 34
0.0
 50
90.0
100
AcDbRotatedDimension
  0
DIMENSION
  5
70BF
330
1E
100
AcDbEntity
  8
寸法
  6
Continuous
100
AcDbDimension
  2
*D13
 10
861.0561038926809
 20
506.5291670121297
 30
0.0
 11
857.0561038926808
 21
461.52916701213
 31
0.0
 70
    32
 71
     5
 42
89.99999999999966
  3
AutoCAD
100
AcDbAlignedDimension
 13
802.9252157073123
 23
416.52916701213
 33
0.0
 14
802.9252157073123
 24
506.5291670121297
 34
0.0
 50
90.0
100
AcDbRotatedDimension
  0
ENDSEC
  0
SECTION
  2
OBJECTS
  0
DICTIONARY
  5
C
330
0
100
AcDbDictionary
281
     1
  3
ACAD_COLOR
350
6779
  3
ACAD_GROUP
350
D
  3
ACAD_LAYOUT
350
19
  3
ACAD_MATERIAL
350
6778
  3
ACAD_MLINESTYLE
350
16
  3
ACAD_PLOTSETTINGS
350
18
  3
ACAD_PLOTSTYLENAME
350
E
  3
ACAD_TABLESTYLE
350
677A
  3
ACDBHEADERROUNDTRIPXREC
350
7237
  3
AcDbVariableDictionary
350
169
  0
DICTIONARY
  5
175
330
2
100
AcDbDictionary
280
     1
281
     1
  3
ACAD_LAYERFILTERS
360
7221
  3
ACAD_LAYERSTATES
360
176
  3
ACLYDICTIONARY
360
7220
  0
DICTIONARY
  5
28B
330
1E
100
AcDbDictionary
280
     1
281
     1
  3
ACAD_LAYOUTSELFREF
360
6771
  0
DICTIONARY
  5
28D
330
1A
100
AcDbDictionary
280
     1
281
     1
  3
ACAD_LAYOUTSELFREF
360
6770
  0
DICTIONARY
  5
6779
102
{ACAD_REACTORS
330
C
102
}
330
C
100
AcDbDictionary
281
     1
  0
DICTIONARY
  5
D
102
{ACAD_REACTORS
330
C
102
}
330
C
100
AcDbDictionary
281
     1
  0
DICTIONARY
  5
19
102
{ACAD_REACTORS
330
C
102
}
330
C
100
AcDbDictionary
281
     1
  3
Model
350
21
  3
ﾚｲｱｳﾄ1
350
1D
  0
DICTIONARY
  5
6778
102
{ACAD_REACTORS
330
C
102
}
330
C
100
AcDbDictionary
281
     1
  0
DICTIONARY
  5
16
102
{ACAD_REACTORS
330
C
102
}
330
C
100
AcDbDictionary
281
     1
  3
Standard
350
17
  0
DICTIONARY
  5
18
102
{ACAD_REACTORS
330
C
102
}
330
C
100
AcDbDictionary
281
     1
  0
ACDBDICTIONARYWDFLT
  5
E
102
{ACAD_REACTORS
330
C
102
}
330
C
100
AcDbDictionary
281
     1
  3
Normal
350
F
100
AcDbDictionaryWithDefault
340
F
1001
ACAD
1000
TREAT_AS_HARD
1070
     0
1000
TREAT_AS_HARD
1070
     0
1000
TREAT_AS_HARD
1070
     0
1000
TREAT_AS_HARD
1070
     0
1000
TREAT_AS_HARD
1070
     0
1000
TREAT_AS_HARD
1070
     0
1000
TREAT_AS_HARD
1070
     0
1000
TREAT_AS_HARD
1070
     0
1000
TREAT_AS_HARD
1070
     0
1000
TREAT_AS_HARD
1070
     0
1000
TREAT_AS_HARD
1070
     0
1000
TREAT_AS_HARD
1070
     0
1000
TREAT_AS_HARD
1070
     0
1000
TREAT_AS_HARD
1070
     0
1000
TREAT_AS_HARD
1070
     0
1000
TREAT_AS_HARD
1070
     0
1000
TREAT_AS_HARD
1070
     0
1000
TREAT_AS_HARD
1070
     0
1000
TREAT_AS_HARD
1070
     0
1000
TREAT_AS_HARD
1070
     0
1000
TREAT_AS_HARD
1070
     0
1000
TREAT_AS_HARD
1070
     0
1000
TREAT_AS_HARD
1070
     0
1000
TREAT_AS_HARD
1070
     0
1000
TREAT_AS_HARD
1070
     0
1000
TREAT_AS_HARD
1070
     0
  0
DICTIONARY
  5
677A
102
{ACAD_REACTORS
330
C
102
}
330
C
100
AcDbDictionary
281
     1
  3
Standard
350
677B
  0
DICTIONARY
  5
7237
102
{ACAD_REACTORS
330
C
102
}
330
C
100
AcDbDictionary
281
     1
  0
DICTIONARY
  5
169
102
{ACAD_REACTORS
330
C
102
}
330
C
100
AcDbDictionary
281
     1
  3
CTABLESTYLE
350
6782
  3
DIMASSOC
350
16A
  3
PROJECTNAME
350
722F
  0
DICTIONARY
  5
7221
102
{ACAD_REACTORS
330
175
102
}
330
175
100
AcDbDictionary
281
     1
  0
DICTIONARY
  5
176
102
{ACAD_REACTORS
330
175
102
}
330
175
100
AcDbDictionary
281
     1
  3
ACAD
350
177
  0
DICTIONARY
  5
7220
102
{ACAD_REACTORS
330
175
102
}
330
175
100
AcDbDictionary
281
     1
1001
ACAD
1000
<All
  0
XRECORD
  5
6771
102
{ACAD_REACTORS
330
28B
102
}
330
28B
100
AcDbXrecord
280
     1
340
1E
  0
XRECORD
  5
6770
102
{ACAD_REACTORS
330
28D
102
}
330
28D
100
AcDbXrecord
280
     1
340
1A
  0
LAYOUT
  5
21
102
{ACAD_XDICTIONARY
360
723A
102
}
102
{ACAD_REACTORS
330
19
102
}
330
19
100
AcDbPlotSettings
  1

  2
\\MEISEI-1\EPSON Stylus Photo EX3
  4

  6

 40
0.0
 41
0.0
 42
0.0
 43
0.0
 44
0.0
 45
0.0
 46
0.0
 47
0.0
 48
0.0
 49
0.0
140
0.0
141
0.0
142
1.0
143
1.0
 70
  1712
 72
     0
 73
     0
 74
     0
  7

 75
     0
147
1.0
148
0.0
149
0.0
100
AcDbLayout
  1
Model
 70
     1
 71
     0
 10
0.0
 20
0.0
 11
12.0
 21
9.0
 12
0.0
 22
0.0
 32
0.0
 14
0.0
 24
0.0
 34
0.0
 15
0.0
 25
0.0
 35
0.0
146
0.0
 13
0.0
 23
0.0
 33
0.0
 16
1.0
 26
0.0
 36
0.0
 17
0.0
 27
1.0
 37
0.0
 76
     0
330
1E
  0
LAYOUT
  5
1D
102
{ACAD_XDICTIONARY
360
7238
102
}
102
{ACAD_REACTORS
330
19
102
}
330
19
100
AcDbPlotSettings
  1

  2
\\MEISEI-1\EPSON Stylus Photo EX3
  4

  6

 40
0.0
 41
0.0
 42
0.0
 43
0.0
 44
0.0
 45
0.0
 46
0.0
 47
0.0
 48
0.0
 49
0.0
140
0.0
141
0.0
142
1.0
143
1.0
 70
   688
 72
     0
 73
     0
 74
     5
  7

 75
    16
147
1.0
148
0.0
149
0.0
100
AcDbLayout
  1
ﾚｲｱｳﾄ1
 70
     1
 71
     1
 10
0.0
 20
0.0
 11
12.0
 21
9.0
 12
0.0
 22
0.0
 32
0.0
 14
1.000000000000000E+20
 24
1.000000000000000E+20
 34
1.000000000000000E+20
 15
-1.000000000000000E+20
 25
-1.000000000000000E+20
 35
-1.000000000000000E+20
146
0.0
 13
0.0
 23
0.0
 33
0.0
 16
1.0
 26
0.0
 36
0.0
 17
0.0
 27
1.0
 37
0.0
 76
     0
330
1A
  0
MLINESTYLE
  5
17
102
{ACAD_REACTORS
330
16
102
}
330
16
100
AcDbMlineStyle
  2
STANDARD
 70
     0
  3

 62
   256
 51
90.0
 52
90.0
 71
     2
 49
0.5
 62
   256
  6
BYLAYER
 49
-0.5
 62
   256
  6
BYLAYER
  0
ACDBPLACEHOLDER
  5
F
102
{ACAD_REACTORS
330
E
102
}
330
E
  0
TABLESTYLE
  5
677B
102
{ACAD_REACTORS
330
677A
102
}
330
677A
100
AcDbTableStyle
  3
Standard
 70
     0
 71
     0
 40
0.06
 41
0.06
280
     0
281
     0
  7
STANDARD
140
0.18
170
     2
 62
     0
 63
     7
283
     0
274
    -2
284
     1
 64
     0
275
    -2
285
     1
 65
     0
276
    -2
286
     1
 66
     0
277
    -2
287
     1
 67
     0
278
    -2
288
     1
 68
     0
279
    -2
289
     1
 69
     0
  7
STANDARD
140
0.25
170
     5
 62
     0
 63
     7
283
     0
274
    -2
284
     1
 64
     0
275
    -2
285
     1
 65
     0
276
    -2
286
     1
 66
     0
277
    -2
287
     1
 67
     0
278
    -2
288
     1
 68
     0
279
    -2
289
     1
 69
     0
  7
STANDARD
140
0.18
170
     5
 62
     0
 63
     7
283
     0
274
    -2
284
     1
 64
     0
275
    -2
285
     1
 65
     0
276
    -2
286
     1
 66
     0
277
    -2
287
     1
 67
     0
278
    -2
288
     1
 68
     0
279
    -2
289
     1
 69
     0
  0
DICTIONARYVAR
  5
6782
102
{ACAD_REACTORS
330
169
102
}
330
169
100
DictionaryVariables
280
     0
  1
STANDARD
  0
DICTIONARYVAR
  5
16A
102
{ACAD_REACTORS
330
169
102
}
330
169
100
DictionaryVariables
280
     0
  1
1
  0
DICTIONARYVAR
  5
722F
102
{ACAD_REACTORS
330
169
102
}
330
169
100
DictionaryVariables
280
     0
  1

  0
XRECORD
  5
177
102
{ACAD_REACTORS
330
176
102
}
330
176
100
AcDbXrecord
280
     1
 91
      476
330
179
 90
        8
 62
     7
370
    -3
331
15
  1
Color_7
330
178
 90
        8
 62
     7
370
    -3
331
15
  1
Color_7
330
128
 90
        0
 62
     7
370
    -3
331
15
  1
Color_7
330
10
 90
        8
 62
     7
370
    -3
331
15
  1
Color_7
  0
DICTIONARY
  5
723A
330
21
100
AcDbDictionary
280
     1
281
     1
  3
ACAD_XREC_ROUNDTRIP
360
723B
  0
DICTIONARY
  5
7238
330
1D
100
AcDbDictionary
280
     1
281
     1
  3
ACAD_XREC_ROUNDTRIP
360
7239
  0
XRECORD
  5
723B
102
{ACAD_REACTORS
330
723A
102
}
330
723A
100
AcDbXrecord
280
     1
102
SHADEPLOT
 70
     0
102
SHADEPLOTRESLEVEL
 70
     2
102
SHADEPLOTCUSTOMDPI
 70
   300
  0
XRECORD
  5
7239
102
{ACAD_REACTORS
330
7238
102
}
330
7238
100
AcDbXrecord
280
     1
102
SHADEPLOT
 70
     0
102
SHADEPLOTRESLEVEL
 70
     2
102
SHADEPLOTCUSTOMDPI
 70
   300
  0
ENDSEC
  0
EOF
