  0
SECTION
  2
HEADER
  9
$ACADVER
  1
AC1015
  9
$ACADMAINTVER
 70
    20
  9
$DWGCODEPAGE
  3
ANSI_932
  9
$INSBASE
 10
0.0
 20
0.0
 30
0.0
  9
$EXTMIN
 10
1251.704445328811
 20
486.1033993109308
 30
-0.0000000349181948
  9
$EXTMAX
 10
2075.869368811797
 20
1062.189326144411
 30
0.0000000814935746
  9
$LIMMIN
 10
0.0
 20
0.0
  9
$LIMMAX
 10
420.0
 20
297.0
  9
$ORTHOMODE
 70
     0
  9
$REGENMODE
 70
     1
  9
$FILLMODE
 70
     1
  9
$QTEXTMODE
 70
     0
  9
$MIRRTEXT
 70
     1
  9
$LTSCALE
 40
1.0
  9
$ATTMODE
 70
     1
  9
$TEXTSIZE
 40
5.0
  9
$TRACEWID
 40
0.05
  9
$TEXTSTYLE
  7
ACAD
  9
$CLAYER
  8
0
  9
$CELTYPE
  6
CONTINUOUS
  9
$CECOLOR
 62
   256
  9
$CELTSCALE
 40
1.0
  9
$DISPSILH
 70
     0
  9
$DIMSCALE
 40
1.0
  9
$DIMASZ
 40
1.0
  9
$DIMEXO
 40
0.0
  9
$DIMDLI
 40
0.38
  9
$DIMRND
 40
0.0
  9
$DIMDLE
 40
0.0
  9
$DIMEXE
 40
0.0
  9
$DIMTP
 40
0.0
  9
$DIMTM
 40
0.0
  9
$DIMTXT
 40
5.0
  9
$DIMCEN
 40
0.09
  9
$DIMTSZ
 40
0.0
  9
$DIMTOL
 70
     0
  9
$DIMLIM
 70
     0
  9
$DIMTIH
 70
     0
  9
$DIMTOH
 70
     1
  9
$DIMSE1
 70
     0
  9
$DIMSE2
 70
     0
  9
$DIMTAD
 70
     1
  9
$DIMZIN
 70
     0
  9
$DIMBLK
  1
Dot
  9
$DIMASO
 70
     1
  9
$DIMSHO
 70
     1
  9
$DIMPOST
  1

  9
$DIMAPOST
  1

  9
$DIMALT
 70
     0
  9
$DIMALTD
 70
     2
  9
$DIMALTF
 40
25.4
  9
$DIMLFAC
 40
1.0
  9
$DIMTOFL
 70
     0
  9
$DIMTVP
 40
0.0
  9
$DIMTIX
 70
     1
  9
$DIMSOXD
 70
     0
  9
$DIMSAH
 70
     0
  9
$DIMBLK1
  1

  9
$DIMBLK2
  1

  9
$DIMSTYLE
  2
AutoCAD
  9
$DIMCLRD
 70
     4
  9
$DIMCLRE
 70
     4
  9
$DIMCLRT
 70
     3
  9
$DIMTFAC
 40
1.0
  9
$DIMGAP
 40
1.0
  9
$DIMJUST
 70
     0
  9
$DIMSD1
 70
     0
  9
$DIMSD2
 70
     0
  9
$DIMTOLJ
 70
     1
  9
$DIMTZIN
 70
     0
  9
$DIMALTZ
 70
     0
  9
$DIMALTTZ
 70
     0
  9
$DIMUPT
 70
     0
  9
$DIMDEC
 70
     0
  9
$DIMTDEC
 70
     0
  9
$DIMALTU
 70
     2
  9
$DIMALTTD
 70
     2
  9
$DIMTXSTY
  7
ACAD
  9
$DIMAUNIT
 70
     0
  9
$DIMADEC
 70
     0
  9
$DIMALTRND
 40
0.0
  9
$DIMAZIN
 70
     0
  9
$DIMDSEP
 70
    46
  9
$DIMATFIT
 70
     0
  9
$DIMFRAC
 70
     0
  9
$DIMLDRBLK
  1
None
  9
$DIMLUNIT
 70
     2
  9
$DIMLWD
 70
    -2
  9
$DIMLWE
 70
    -2
  9
$DIMTMOVE
 70
     0
  9
$LUNITS
 70
     2
  9
$LUPREC
 70
     4
  9
$SKETCHINC
 40
0.1
  9
$FILLETRAD
 40
0.0
  9
$AUNITS
 70
     0
  9
$AUPREC
 70
     0
  9
$MENU
  1
.
  9
$ELEVATION
 40
0.0
  9
$PELEVATION
 40
0.0
  9
$THICKNESS
 40
0.0
  9
$LIMCHECK
 70
     0
  9
$CHAMFERA
 40
0.0
  9
$CHAMFERB
 40
0.0
  9
$CHAMFERC
 40
0.0
  9
$CHAMFERD
 40
0.0
  9
$SKPOLY
 70
     0
  9
$TDCREATE
 40
2454316.693457674
  9
$TDUCREATE
 40
2454316.318457674
  9
$TDUPDATE
 40
2454739.423909502
  9
$TDUUPDATE
 40
2454739.048909502
  9
$TDINDWG
 40
0.2480712500
  9
$TDUSRTIMER
 40
0.2480712500
  9
$USRTIMER
 70
     1
  9
$ANGBASE
 50
0.0
  9
$ANGDIR
 70
     0
  9
$PDMODE
 70
     0
  9
$PDSIZE
 40
0.0
  9
$PLINEWID
 40
0.0
  9
$SPLFRAME
 70
     0
  9
$SPLINETYPE
 70
     6
  9
$SPLINESEGS
 70
     8
  9
$HANDSEED
  5
7126
  9
$SURFTAB1
 70
     6
  9
$SURFTAB2
 70
     6
  9
$SURFTYPE
 70
     6
  9
$SURFU
 70
     6
  9
$SURFV
 70
     6
  9
$UCSBASE
  2

  9
$UCSNAME
  2

  9
$UCSORG
 10
0.0
 20
0.0
 30
0.0
  9
$UCSXDIR
 10
1.0
 20
0.0
 30
0.0
  9
$UCSYDIR
 10
0.0
 20
1.0
 30
0.0
  9
$UCSORTHOREF
  2

  9
$UCSORTHOVIEW
 70
     0
  9
$UCSORGTOP
 10
0.0
 20
0.0
 30
0.0
  9
$UCSORGBOTTOM
 10
0.0
 20
0.0
 30
0.0
  9
$UCSORGLEFT
 10
0.0
 20
0.0
 30
0.0
  9
$UCSORGRIGHT
 10
0.0
 20
0.0
 30
0.0
  9
$UCSORGFRONT
 10
0.0
 20
0.0
 30
0.0
  9
$UCSORGBACK
 10
0.0
 20
0.0
 30
0.0
  9
$PUCSBASE
  2

  9
$PUCSNAME
  2

  9
$PUCSORG
 10
0.0
 20
0.0
 30
0.0
  9
$PUCSXDIR
 10
1.0
 20
0.0
 30
0.0
  9
$PUCSYDIR
 10
0.0
 20
1.0
 30
0.0
  9
$PUCSORTHOREF
  2

  9
$PUCSORTHOVIEW
 70
     0
  9
$PUCSORGTOP
 10
0.0
 20
0.0
 30
0.0
  9
$PUCSORGBOTTOM
 10
0.0
 20
0.0
 30
0.0
  9
$PUCSORGLEFT
 10
0.0
 20
0.0
 30
0.0
  9
$PUCSORGRIGHT
 10
0.0
 20
0.0
 30
0.0
  9
$PUCSORGFRONT
 10
0.0
 20
0.0
 30
0.0
  9
$PUCSORGBACK
 10
0.0
 20
0.0
 30
0.0
  9
$USERI1
 70
     0
  9
$USERI2
 70
     0
  9
$USERI3
 70
     0
  9
$USERI4
 70
     0
  9
$USERI5
 70
     0
  9
$USERR1
 40
0.0
  9
$USERR2
 40
0.0
  9
$USERR3
 40
0.0
  9
$USERR4
 40
0.0
  9
$USERR5
 40
0.0
  9
$WORLDVIEW
 70
     1
  9
$SHADEDGE
 70
     3
  9
$SHADEDIF
 70
    70
  9
$TILEMODE
 70
     1
  9
$MAXACTVP
 70
    48
  9
$PINSBASE
 10
0.0
 20
0.0
 30
0.0
  9
$PLIMCHECK
 70
     0
  9
$PEXTMIN
 10
1.000000000000000E+20
 20
1.000000000000000E+20
 30
1.000000000000000E+20
  9
$PEXTMAX
 10
-1.000000000000000E+20
 20
-1.000000000000000E+20
 30
-1.000000000000000E+20
  9
$PLIMMIN
 10
0.0
 20
0.0
  9
$PLIMMAX
 10
12.0
 20
9.0
  9
$UNITMODE
 70
     0
  9
$VISRETAIN
 70
     0
  9
$PLINEGEN
 70
     0
  9
$PSLTSCALE
 70
     1
  9
$TREEDEPTH
 70
  3020
  9
$CMLSTYLE
  2
Standard
  9
$CMLJUST
 70
     0
  9
$CMLSCALE
 40
1.0
  9
$PROXYGRAPHICS
 70
     1
  9
$MEASUREMENT
 70
     0
  9
$CELWEIGHT
370
    -1
  9
$ENDCAPS
280
     0
  9
$JOINSTYLE
280
     0
  9
$LWDISPLAY
290
     0
  9
$INSUNITS
 70
     0
  9
$HYPERLINKBASE
  1

  9
$STYLESHEET
  1

  9
$XEDIT
290
     1
  9
$CEPSNTYPE
380
     0
  9
$PSTYLEMODE
290
     1
  9
$FINGERPRINTGUID
  2
{CC7D6DEE-A9F1-4F3E-AC95-C84B62CCA3FD}
  9
$VERSIONGUID
  2
{1F8B4DF1-E74C-47EB-825C-6298F8B15AB6}
  9
$EXTNAMES
290
     1
  9
$PSVPSCALE
 40
0.0
  9
$OLESTARTUP
290
     0
  0
ENDSEC
  0
SECTION
  2
CLASSES
  0
CLASS
  1
ACDBDICTIONARYWDFLT
  2
AcDbDictionaryWithDefault
  3
ObjectDBX Classes
 90
        0
280
     0
281
     0
  0
CLASS
  1
ACDBPLACEHOLDER
  2
AcDbPlaceHolder
  3
ObjectDBX Classes
 90
        0
280
     0
281
     0
  0
CLASS
  1
LAYOUT
  2
AcDbLayout
  3
ObjectDBX Classes
 90
        0
280
     0
281
     0
  0
CLASS
  1
DICTIONARYVAR
  2
AcDbDictionaryVar
  3
ObjectDBX Classes
 90
        0
280
     0
281
     0
  0
CLASS
  1
TABLESTYLE
  2
AcDbTableStyle
  3
ObjectDBX Classes
 90
     2047
280
     0
281
     0
  0
ENDSEC
  0
SECTION
  2
TABLES
  0
TABLE
  2
VPORT
  5
8
330
0
100
AcDbSymbolTable
 70
     2
  0
VPORT
  5
7120
330
8
100
AcDbSymbolTableRecord
100
AcDbViewportTableRecord
  2
*Active
 70
     0
 10
0.0
 20
0.0
 11
1.0
 21
1.0
 12
1672.332703210039
 22
759.0225323043342
 13
0.0
 23
0.0
 14
1.0
 24
1.0
 15
0.0
 25
0.0
 16
0.0
 26
0.0
 36
1.0
 17
0.0
 27
0.0
 37
0.0
 40
651.3616622447523
 41
1.538265306122448
 42
50.0
 43
0.0
 44
0.0
 50
0.0
 51
0.0
 71
     0
 72
   100
 73
     1
 74
     1
 75
     0
 76
     0
 77
     0
 78
     0
281
     0
 65
     1
110
0.0
120
0.0
130
0.0
111
1.0
121
0.0
131
0.0
112
0.0
122
1.0
132
0.0
 79
     0
146
0.0
  0
ENDTAB
  0
TABLE
  2
LTYPE
  5
5
330
0
100
AcDbSymbolTable
 70
    50
  0
LTYPE
  5
13
330
5
100
AcDbSymbolTableRecord
100
AcDbLinetypeTableRecord
  2
ByBlock
 70
     0
  3

 72
    65
 73
     0
 40
0.0
  0
LTYPE
  5
14
330
5
100
AcDbSymbolTableRecord
100
AcDbLinetypeTableRecord
  2
ByLayer
 70
     0
  3

 72
    65
 73
     0
 40
0.0
  0
LTYPE
  5
15
330
5
100
AcDbSymbolTableRecord
100
AcDbLinetypeTableRecord
  2
CONTINUOUS
 70
     0
  3
実線
 72
    65
 73
     0
 40
0.0
  0
LTYPE
  5
22
330
5
100
AcDbSymbolTableRecord
100
AcDbLinetypeTableRecord
  2
DASHED1
 70
     0
  3
--  --  --  --  --  --  --  --  
 72
    65
 73
     2
 40
2.5
 49
1.25
 74
     0
 49
-1.25
 74
     0
  0
LTYPE
  5
23
330
5
100
AcDbSymbolTableRecord
100
AcDbLinetypeTableRecord
  2
DASHED2
 70
     0
  3
----    ----    ----    ----    
 72
    65
 73
     2
 40
5.0
 49
2.5
 74
     0
 49
-2.5
 74
     0
  0
LTYPE
  5
24
330
5
100
AcDbSymbolTableRecord
100
AcDbLinetypeTableRecord
  2
DASHED3
 70
     0
  3
------  ------  ------  ------  
 72
    65
 73
     2
 40
5.0
 49
3.75
 74
     0
 49
-1.25
 74
     0
  0
LTYPE
  5
25
330
5
100
AcDbSymbolTableRecord
100
AcDbLinetypeTableRecord
  2
CENTER1
 70
     0
  3
----- - ----- - ----- - ----- - 
 72
    65
 73
     4
 40
10.0
 49
6.25
 74
     0
 49
-1.25
 74
     0
 49
1.25
 74
     0
 49
-1.25
 74
     0
  0
LTYPE
  5
26
330
5
100
AcDbSymbolTableRecord
100
AcDbLinetypeTableRecord
  2
CENTER2
 70
     0
  3
----------  --  ----------  --  
 72
    65
 73
     4
 40
20.0
 49
12.5
 74
     0
 49
-2.5
 74
     0
 49
2.5
 74
     0
 49
-2.5
 74
     0
  0
LTYPE
  5
27
330
5
100
AcDbSymbolTableRecord
100
AcDbLinetypeTableRecord
  2
PHANTOM1
 70
     0
  3
--- - - --- - - --- - - --- - - 
 72
    65
 73
     6
 40
10.0
 49
3.25
 74
     0
 49
-1.25
 74
     0
 49
1.25
 74
     0
 49
-1.25
 74
     0
 49
1.25
 74
     0
 49
-1.25
 74
     0
  0
LTYPE
  5
28
330
5
100
AcDbSymbolTableRecord
100
AcDbLinetypeTableRecord
  2
PHANTOM2
 70
     0
  3
--------  -  -  --------  -  -  
 72
    65
 73
     6
 40
20.0
 49
10.0
 74
     0
 49
-2.5
 74
     0
 49
1.25
 74
     0
 49
-2.5
 74
     0
 49
1.25
 74
     0
 49
-2.5
 74
     0
  0
LTYPE
  5
29
330
5
100
AcDbSymbolTableRecord
100
AcDbLinetypeTableRecord
  2
DOT
 70
     0
  3
-   -   -   -   -   -   -   -   
 72
    65
 73
     2
 40
2.5
 49
0.625
 74
     0
 49
-1.875
 74
     0
  0
LTYPE
  5
2A
330
5
100
AcDbSymbolTableRecord
100
AcDbLinetypeTableRecord
  2
DUMMY
 70
     0
  3
ダミー
 72
    65
 73
     0
 40
0.0
  0
LTYPE
  5
2B
330
5
100
AcDbSymbolTableRecord
100
AcDbLinetypeTableRecord
  2
RAND1
 70
     0
  3
ランダム線1
 72
    65
 73
     4
 40
10.0
 49
1.0
 74
     0
 49
-2.0
 74
     0
 49
3.0
 74
     0
 49
-4.0
 74
     0
  0
LTYPE
  5
2C
330
5
100
AcDbSymbolTableRecord
100
AcDbLinetypeTableRecord
  2
RAND2
 70
     0
  3
ランダム線2
 72
    65
 73
     4
 40
14.0
 49
2.0
 74
     0
 49
-3.0
 74
     0
 49
4.0
 74
     0
 49
-5.0
 74
     0
  0
LTYPE
  5
2D
330
5
100
AcDbSymbolTableRecord
100
AcDbLinetypeTableRecord
  2
RAND3
 70
     0
  3
ランダム線3
 72
    65
 73
     4
 40
18.0
 49
3.0
 74
     0
 49
-4.0
 74
     0
 49
5.0
 74
     0
 49
-6.0
 74
     0
  0
LTYPE
  5
2E
330
5
100
AcDbSymbolTableRecord
100
AcDbLinetypeTableRecord
  2
RAND4
 70
     0
  3
ランダム線4
 72
    65
 73
     4
 40
22.0
 49
4.0
 74
     0
 49
-5.0
 74
     0
 49
6.0
 74
     0
 49
-7.0
 74
     0
  0
LTYPE
  5
2F
330
5
100
AcDbSymbolTableRecord
100
AcDbLinetypeTableRecord
  2
RAND5
 70
     0
  3
ランダム線5
 72
    65
 73
     4
 40
26.0
 49
5.0
 74
     0
 49
-6.0
 74
     0
 49
7.0
 74
     0
 49
-8.0
 74
     0
  0
LTYPE
  5
30
330
5
100
AcDbSymbolTableRecord
100
AcDbLinetypeTableRecord
  2
LONG1
 70
     0
  3
----------  --  ----------  --  
 72
    65
 73
     4
 40
40.0
 49
32.5
 74
     0
 49
-2.5
 74
     0
 49
2.5
 74
     0
 49
-2.5
 74
     0
  0
LTYPE
  5
31
330
5
100
AcDbSymbolTableRecord
100
AcDbLinetypeTableRecord
  2
LONG2
 70
     0
  3
--------  -  -  --------  -  -  
 72
    65
 73
     6
 40
40.0
 49
30.0
 74
     0
 49
-2.5
 74
     0
 49
1.25
 74
     0
 49
-2.5
 74
     0
 49
1.25
 74
     0
 49
-2.5
 74
     0
  0
LTYPE
  5
32
330
5
100
AcDbSymbolTableRecord
100
AcDbLinetypeTableRecord
  2
LONG3
 70
     0
  3
+++++++++++++++..+++++++++++++++
 72
    65
 73
     2
 40
40.0
 49
37.5
 74
     0
 49
-2.5
 74
     0
  0
LTYPE
  5
33
330
5
100
AcDbSymbolTableRecord
100
AcDbLinetypeTableRecord
  2
LONG4
 70
     0
  3
+++++++++++++++..+++++++++++++++
 72
    65
 73
     2
 40
80.0
 49
75.0
 74
     0
 49
-5.0
 74
     0
  0
LTYPE
  5
34
330
5
100
AcDbSymbolTableRecord
100
AcDbLinetypeTableRecord
  2
LONG5
 70
     0
  3
----------  --  ----------  --  
 72
    65
 73
     4
 40
60.0
 49
37.5
 74
     0
 49
-7.5
 74
     0
 49
7.5
 74
     0
 49
-7.5
 74
     0
  0
LTYPE
  5
35
330
5
100
AcDbSymbolTableRecord
100
AcDbLinetypeTableRecord
  2
DASHED
 70
     0
  3
-------   -------------   ------
 72
    65
 73
     2
 40
7.5
 49
6.0
 74
     0
 49
-1.5
 74
     0
  0
LTYPE
  5
36
330
5
100
AcDbSymbolTableRecord
100
AcDbLinetypeTableRecord
  2
DASHED_SPACED
 70
     0
  3
----        --------        ----
 72
    65
 73
     2
 40
12.0
 49
6.0
 74
     0
 49
-6.0
 74
     0
  0
LTYPE
  5
37
330
5
100
AcDbSymbolTableRecord
100
AcDbLinetypeTableRecord
  2
LONG_DASHED_DOTTED
 70
     0
  3
------------- --- --------------
 72
    65
 73
     4
 40
15.25
 49
12.0
 74
     0
 49
-1.5
 74
     0
 49
0.25
 74
     0
 49
-1.5
 74
     0
  0
LTYPE
  5
38
330
5
100
AcDbSymbolTableRecord
100
AcDbLinetypeTableRecord
  2
LONG_DASHED_DOUBLE-DOTTED
 70
     0
  3
----------- --- --- ------------
 72
    65
 73
     6
 40
17.0
 49
12.0
 74
     0
 49
-1.5
 74
     0
 49
0.25
 74
     0
 49
-1.5
 74
     0
 49
0.25
 74
     0
 49
-1.5
 74
     0
  0
LTYPE
  5
39
330
5
100
AcDbSymbolTableRecord
100
AcDbLinetypeTableRecord
  2
LONG_DASHED_TRIPLICATE-DOTTED
 70
     0
  3
--------- --- --- --- ----------
 72
    65
 73
     8
 40
18.75
 49
12.0
 74
     0
 49
-1.5
 74
     0
 49
0.25
 74
     0
 49
-1.5
 74
     0
 49
0.25
 74
     0
 49
-1.5
 74
     0
 49
0.25
 74
     0
 49
-1.5
 74
     0
  0
LTYPE
  5
3A
330
5
100
AcDbSymbolTableRecord
100
AcDbLinetypeTableRecord
  2
DOTTED
 70
     0
  3
   -       -       -       -    
 72
    65
 73
     2
 40
1.75
 49
0.25
 74
     0
 49
-1.5
 74
     0
  0
LTYPE
  5
3B
330
5
100
AcDbSymbolTableRecord
100
AcDbLinetypeTableRecord
  2
CHAIN
 70
     0
  3
-------------- -- --------------
 72
    65
 73
     4
 40
18.5
 49
12.0
 74
     0
 49
-1.5
 74
     0
 49
3.5
 74
     0
 49
-1.5
 74
     0
  0
LTYPE
  5
3C
330
5
100
AcDbSymbolTableRecord
100
AcDbLinetypeTableRecord
  2
CHAIN_DOUBLE_DASH
 70
     0
  3
------------ -- -- -------------
 72
    65
 73
     6
 40
23.5
 49
12.0
 74
     0
 49
-1.5
 74
     0
 49
3.5
 74
     0
 49
-1.5
 74
     0
 49
3.5
 74
     0
 49
-1.5
 74
     0
  0
LTYPE
  5
3D
330
5
100
AcDbSymbolTableRecord
100
AcDbLinetypeTableRecord
  2
DASHED_DOTTED
 70
     0
  3
-----------     -     ----------
 72
    65
 73
     4
 40
9.25
 49
6.0
 74
     0
 49
-1.5
 74
     0
 49
0.25
 74
     0
 49
-1.5
 74
     0
  0
LTYPE
  5
3E
330
5
100
AcDbSymbolTableRecord
100
AcDbLinetypeTableRecord
  2
DOUBLE-DASHED_DOTTED
 70
     0
  3
------   -----------   -   -----
 72
    65
 73
     6
 40
16.75
 49
6.0
 74
     0
 49
-1.5
 74
     0
 49
6.0
 74
     0
 49
-1.5
 74
     0
 49
0.25
 74
     0
 49
-1.5
 74
     0
  0
LTYPE
  5
3F
330
5
100
AcDbSymbolTableRecord
100
AcDbLinetypeTableRecord
  2
DASHED_DOUBLE-DOTTED
 70
     0
  3
---------    -    -    ---------
 72
    65
 73
     6
 40
11.0
 49
6.0
 74
     0
 49
-1.5
 74
     0
 49
0.25
 74
     0
 49
-1.5
 74
     0
 49
0.25
 74
     0
 49
-1.5
 74
     0
  0
LTYPE
  5
40
330
5
100
AcDbSymbolTableRecord
100
AcDbLinetypeTableRecord
  2
DOUBLE-DASHED_DOUBLE-DOTTED
 70
     0
  3
-----   ---------   -   -   ----
 72
    65
 73
     8
 40
18.5
 49
6.0
 74
     0
 49
-1.5
 74
     0
 49
6.0
 74
     0
 49
-1.5
 74
     0
 49
0.25
 74
     0
 49
-1.5
 74
     0
 49
0.25
 74
     0
 49
-1.5
 74
     0
  0
LTYPE
  5
41
330
5
100
AcDbSymbolTableRecord
100
AcDbLinetypeTableRecord
  2
DASHED_TRIPLICATE-DOTTED
 70
     0
  3
-------    -    -    -    ------
 72
    65
 73
     8
 40
12.75
 49
6.0
 74
     0
 49
-1.5
 74
     0
 49
0.25
 74
     0
 49
-1.5
 74
     0
 49
0.25
 74
     0
 49
-1.5
 74
     0
 49
0.25
 74
     0
 49
-1.5
 74
     0
  0
LTYPE
  5
42
330
5
100
AcDbSymbolTableRecord
100
AcDbLinetypeTableRecord
  2
DOUBLE-DASHED_TRIPLICATE-DOTTED
 70
     0
  3
-----  ---------  -  -  -  -----
 72
    65
 73
    10
 40
20.25
 49
6.0
 74
     0
 49
-1.5
 74
     0
 49
6.0
 74
     0
 49
-1.5
 74
     0
 49
0.25
 74
     0
 49
-1.5
 74
     0
 49
0.25
 74
     0
 49
-1.5
 74
     0
 49
0.25
 74
     0
 49
-1.5
 74
     0
  0
LTYPE
  5
43
330
5
100
AcDbSymbolTableRecord
100
AcDbLinetypeTableRecord
  2
UNDEFINED
 70
     0
  3
--------------------------------
 72
    65
 73
     0
 40
0.0
  0
LTYPE
  5
44
330
5
100
AcDbSymbolTableRecord
100
AcDbLinetypeTableRecord
  2
PLINE2
 70
     0
  3
------     -----------     -----
 72
    65
 73
     2
 40
3.0
 49
2.1
 74
     0
 49
-0.9
 74
     0
  0
LTYPE
  5
45
330
5
100
AcDbSymbolTableRecord
100
AcDbLinetypeTableRecord
  2
PLINE3
 70
     0
  3
------------   ---   -----------
 72
    65
 73
     4
 40
10.0
 49
7.0
 74
     0
 49
-1.0
 74
     0
 49
1.0
 74
     0
 49
-1.0
 74
     0
  0
LTYPE
  5
46
330
5
100
AcDbSymbolTableRecord
100
AcDbLinetypeTableRecord
  2
PLINE4
 70
     0
  3
---------   ---   ---   --------
 72
    65
 73
     6
 40
10.0
 49
5.0
 74
     0
 49
-1.0
 74
     0
 49
1.0
 74
     0
 49
-1.0
 74
     0
 49
1.0
 74
     0
 49
-1.0
 74
     0
  0
LTYPE
  5
47
330
5
100
AcDbSymbolTableRecord
100
AcDbLinetypeTableRecord
  2
PLINE5
 70
     0
  3
------     -----------     -----
 72
    65
 73
     2
 40
5.0
 49
3.5
 74
     0
 49
-1.5
 74
     0
  0
LTYPE
  5
48
330
5
100
AcDbSymbolTableRecord
100
AcDbLinetypeTableRecord
  2
PLINE6
 70
     0
  3
------------   ---   -----------
 72
    65
 73
     4
 40
15.0
 49
10.5
 74
     0
 49
-1.5
 74
     0
 49
1.5
 74
     0
 49
-1.5
 74
     0
  0
LTYPE
  5
49
330
5
100
AcDbSymbolTableRecord
100
AcDbLinetypeTableRecord
  2
PLINE7
 70
     0
  3
---------   ---   ---   --------
 72
    65
 73
     6
 40
15.0
 49
7.5
 74
     0
 49
-1.5
 74
     0
 49
1.5
 74
     0
 49
-1.5
 74
     0
 49
1.5
 74
     0
 49
-1.5
 74
     0
  0
LTYPE
  5
4A
330
5
100
AcDbSymbolTableRecord
100
AcDbLinetypeTableRecord
  2
PLINE8
 70
     0
  3
------     -----------     -----
 72
    65
 73
     2
 40
7.0
 49
4.9
 74
     0
 49
-2.1
 74
     0
  0
LTYPE
  5
4B
330
5
100
AcDbSymbolTableRecord
100
AcDbLinetypeTableRecord
  2
PLINE9
 70
     0
  3
------------   ---   -----------
 72
    65
 73
     4
 40
20.0
 49
14.0
 74
     0
 49
-2.0
 74
     0
 49
2.0
 74
     0
 49
-2.0
 74
     0
  0
LTYPE
  5
4C
330
5
100
AcDbSymbolTableRecord
100
AcDbLinetypeTableRecord
  2
PLINE10
 70
     0
  3
---------   ---   ---   --------
 72
    65
 73
     6
 40
20.0
 49
10.0
 74
     0
 49
-2.0
 74
     0
 49
2.0
 74
     0
 49
-2.0
 74
     0
 49
2.0
 74
     0
 49
-2.0
 74
     0
  0
LTYPE
  5
4D
330
5
100
AcDbSymbolTableRecord
100
AcDbLinetypeTableRecord
  2
PLINE11
 70
     0
  3
------     -----------     -----
 72
    65
 73
     2
 40
9.0
 49
6.299999999999999
 74
     0
 49
-2.7
 74
     0
  0
LTYPE
  5
4E
330
5
100
AcDbSymbolTableRecord
100
AcDbLinetypeTableRecord
  2
PLINE12
 70
     0
  3
------------   ---   -----------
 72
    65
 73
     4
 40
25.0
 49
17.5
 74
     0
 49
-2.5
 74
     0
 49
2.5
 74
     0
 49
-2.5
 74
     0
  0
LTYPE
  5
4F
330
5
100
AcDbSymbolTableRecord
100
AcDbLinetypeTableRecord
  2
PLINE13
 70
     0
  3
---------   ---   ---   --------
 72
    65
 73
     6
 40
25.0
 49
12.5
 74
     0
 49
-2.5
 74
     0
 49
2.5
 74
     0
 49
-2.5
 74
     0
 49
2.5
 74
     0
 49
-2.5
 74
     0
  0
LTYPE
  5
50
330
5
100
AcDbSymbolTableRecord
100
AcDbLinetypeTableRecord
  2
PLINE14
 70
     0
  3
------     -----------     -----
 72
    65
 73
     2
 40
11.0
 49
7.7
 74
     0
 49
-3.299999999999999
 74
     0
  0
LTYPE
  5
51
330
5
100
AcDbSymbolTableRecord
100
AcDbLinetypeTableRecord
  2
PLINE15
 70
     0
  3
------------   ---   -----------
 72
    65
 73
     4
 40
30.0
 49
21.0
 74
     0
 49
-3.0
 74
     0
 49
3.0
 74
     0
 49
-3.0
 74
     0
  0
LTYPE
  5
52
330
5
100
AcDbSymbolTableRecord
100
AcDbLinetypeTableRecord
  2
PLINE16
 70
     0
  3
---------   ---   ---   --------
 72
    65
 73
     6
 40
30.0
 49
15.0
 74
     0
 49
-3.0
 74
     0
 49
3.0
 74
     0
 49
-3.0
 74
     0
 49
3.0
 74
     0
 49
-3.0
 74
     0
  0
ENDTAB
  0
TABLE
  2
LAYER
  5
2
102
{ACAD_XDICTIONARY
360
175
102
}
330
0
100
AcDbSymbolTable
 70
     5
  0
LAYER
  5
10
330
2
100
AcDbSymbolTableRecord
100
AcDbLayerTableRecord
  2
0
 70
     0
 62
     7
  6
CONTINUOUS
370
    -3
390
F
  0
LAYER
  5
128
330
2
100
AcDbSymbolTableRecord
100
AcDbLayerTableRecord
  2
Defpoints
 70
     0
 62
     7
  6
CONTINUOUS
290
     0
370
    -3
390
F
  0
LAYER
  5
178
330
2
100
AcDbSymbolTableRecord
100
AcDbLayerTableRecord
  2
寸法
 70
     0
 62
     7
  6
CONTINUOUS
370
    -3
390
F
  0
LAYER
  5
179
330
2
100
AcDbSymbolTableRecord
100
AcDbLayerTableRecord
  2
躯体と製品
 70
     0
 62
     7
  6
CONTINUOUS
370
    -3
390
F
  0
LAYER
  5
4F62
330
2
100
AcDbSymbolTableRecord
100
AcDbLayerTableRecord
  2
図枠
 70
     0
 62
     7
  6
CONTINUOUS
370
    -3
390
F
  0
ENDTAB
  0
TABLE
  2
STYLE
  5
3
330
0
100
AcDbSymbolTable
 70
     5
  0
STYLE
  5
11
330
3
100
AcDbSymbolTableRecord
100
AcDbTextStyleTableRecord
  2
STANDARD
 70
     0
 40
0.0
 41
1.0
 50
0.0
 71
     0
 42
0.2
  3
txt
  4
bigfont.shx
  0
STYLE
  5
53
330
3
100
AcDbSymbolTableRecord
100
AcDbTextStyleTableRecord
  2
TATEGAKI
 70
     4
 40
0.0
 41
1.0
 50
0.0
 71
     0
 42
1.0
  3
txt
  4
bigfont.shx
  0
STYLE
  5
123
330
3
100
AcDbSymbolTableRecord
100
AcDbTextStyleTableRecord
  2
ACAD
 70
     0
 40
5.0
 41
0.8
 50
0.0
 71
     0
 42
5.0
  3
romans.shx
  4
extfont.shx
  0
STYLE
  5
3A5F
330
3
100
AcDbSymbolTableRecord
100
AcDbTextStyleTableRecord
  2
VERTXT
 70
     4
 40
0.0
 41
0.8582679999999999
 50
0.0
 71
     0
 42
3.5
  3
txt.shx
  4
BIGFONT
  0
STYLE
  5
50AD
330
3
100
AcDbSymbolTableRecord
100
AcDbTextStyleTableRecord
  2
STANDARD2
 70
     0
 40
0.0
 41
0.8582679999999999
 50
0.0
 71
     0
 42
3.5
  3
txt.shx
  4
EXTFONT
  0
ENDTAB
  0
TABLE
  2
VIEW
  5
6
330
0
100
AcDbSymbolTable
 70
     0
  0
ENDTAB
  0
TABLE
  2
UCS
  5
7
330
0
100
AcDbSymbolTable
 70
     0
  0
ENDTAB
  0
TABLE
  2
APPID
  5
9
330
0
100
AcDbSymbolTable
 70
     1
  0
APPID
  5
12
330
9
100
AcDbSymbolTableRecord
100
AcDbRegAppTableRecord
  2
ACAD
 70
     0
  0
ENDTAB
  0
TABLE
  2
DIMSTYLE
  5
A
330
0
100
AcDbSymbolTable
 70
     3
100
AcDbDimStyleTable
 71
     1
340
126
  0
DIMSTYLE
105
11C
330
A
100
AcDbSymbolTableRecord
100
AcDbDimStyleTableRecord
  2
Standard
 70
     0
340
11
  0
DIMSTYLE
105
126
102
{ACAD_REACTORS
330
705E
330
706B
330
7077
330
7082
330
7098
330
70A4
330
70B1
330
70BE
330
70C9
330
708D
102
}
330
A
100
AcDbSymbolTableRecord
100
AcDbDimStyleTableRecord
  2
AutoCAD
 70
     0
 41
1.0
 42
0.0
 44
0.0
 73
     0
 77
     1
140
5.0
147
1.0
174
     1
176
     4
177
     4
178
     3
271
     0
272
     0
289
     0
340
123
341
15B0
342
11E
  0
DIMSTYLE
105
2CBB
330
A
100
AcDbSymbolTableRecord
100
AcDbDimStyleTableRecord
  2
111
 70
     0
 41
1.0
 42
0.0
 44
0.0
 73
     0
 77
     1
140
5.0
147
1.0
174
     1
176
     4
177
     4
178
     3
271
     0
272
     0
289
     0
340
123
341
15B0
342
2CB5
  0
ENDTAB
  0
TABLE
  2
BLOCK_RECORD
  5
1
330
0
100
AcDbSymbolTable
 70
    14
  0
BLOCK_RECORD
  5
1E
102
{ACAD_XDICTIONARY
360
28B
102
}
330
1
100
AcDbSymbolTableRecord
100
AcDbBlockTableRecord
  2
*Model_Space
340
21
  0
BLOCK_RECORD
  5
1A
102
{ACAD_XDICTIONARY
360
28D
102
}
330
1
100
AcDbSymbolTableRecord
100
AcDbBlockTableRecord
  2
*Paper_Space
340
1D
  0
BLOCK_RECORD
  5
11E
330
1
100
AcDbSymbolTableRecord
100
AcDbBlockTableRecord
  2
_Dot
340
0
102
{BLKREFS
331
7085
331
7086
331
70A9
331
70AA
331
70C1
331
70C2
331
70CC
331
70CD
331
70D7
331
70D8
331
70E0
331
70E1
331
70E7
331
70E8
331
70EF
331
70F0
331
70F7
331
70F8
331
70FE
331
70FF
102
}
  0
BLOCK_RECORD
  5
15B0
330
1
100
AcDbSymbolTableRecord
100
AcDbBlockTableRecord
  2
_None
340
0
  0
BLOCK_RECORD
  5
2CB5
330
1
100
AcDbSymbolTableRecord
100
AcDbBlockTableRecord
  2
_Open30
340
0
  0
BLOCK_RECORD
  5
35E3
330
1
100
AcDbSymbolTableRecord
100
AcDbBlockTableRecord
  2
_DotBlank
340
0
  0
BLOCK_RECORD
  5
705F
330
1
100
AcDbSymbolTableRecord
100
AcDbBlockTableRecord
  2
*D4
340
0
  0
BLOCK_RECORD
  5
706C
330
1
100
AcDbSymbolTableRecord
100
AcDbBlockTableRecord
  2
*D5
340
0
  0
BLOCK_RECORD
  5
7078
330
1
100
AcDbSymbolTableRecord
100
AcDbBlockTableRecord
  2
*D6
340
0
  0
BLOCK_RECORD
  5
7083
330
1
100
AcDbSymbolTableRecord
100
AcDbBlockTableRecord
  2
*D7
340
0
  0
BLOCK_RECORD
  5
708E
330
1
100
AcDbSymbolTableRecord
100
AcDbBlockTableRecord
  2
*D8
340
0
  0
BLOCK_RECORD
  5
7099
330
1
100
AcDbSymbolTableRecord
100
AcDbBlockTableRecord
  2
*D9
340
0
  0
BLOCK_RECORD
  5
70A5
330
1
100
AcDbSymbolTableRecord
100
AcDbBlockTableRecord
  2
*D10
340
0
  0
BLOCK_RECORD
  5
70B2
330
1
100
AcDbSymbolTableRecord
100
AcDbBlockTableRecord
  2
*D11
340
0
  0
BLOCK_RECORD
  5
70BF
330
1
100
AcDbSymbolTableRecord
100
AcDbBlockTableRecord
  2
*D12
340
0
  0
BLOCK_RECORD
  5
70CA
330
1
100
AcDbSymbolTableRecord
100
AcDbBlockTableRecord
  2
*D13
340
0
  0
ENDTAB
  0
ENDSEC
  0
SECTION
  2
BLOCKS
  0
BLOCK
  5
1F
330
1E
100
AcDbEntity
  8
0
100
AcDbBlockBegin
  2
*Model_Space
 70
     0
 10
0.0
 20
0.0
 30
0.0
  3
*Model_Space
  1

  0
ENDBLK
  5
20
330
1E
100
AcDbEntity
  8
0
100
AcDbBlockEnd
  0
BLOCK
  5
1B
330
1A
100
AcDbEntity
 67
     1
  8
0
100
AcDbBlockBegin
  2
*Paper_Space
 70
     0
 10
0.0
 20
0.0
 30
0.0
  3
*Paper_Space
  1

  0
ENDBLK
  5
1C
330
1A
100
AcDbEntity
 67
     1
  8
0
100
AcDbBlockEnd
  0
BLOCK
  5
121
330
11E
100
AcDbEntity
  8
0
100
AcDbBlockBegin
  2
_Dot
 70
     0
 10
0.0
 20
0.0
 30
0.0
  3
_Dot
  1

  0
LWPOLYLINE
  5
11F
330
11E
100
AcDbEntity
  8
0
  6
ByBlock
 62
     0
100
AcDbPolyline
 90
        2
 70
     1
 43
0.5
 10
-0.25
 20
0.0
 42
1.0
 10
0.25
 20
0.0
 42
1.0
  0
LINE
  5
120
330
11E
100
AcDbEntity
  8
0
  6
ByBlock
 62
     0
370
    -2
100
AcDbLine
 10
-0.5
 20
0.0
 30
0.0
 11
-1.0
 21
0.0
 31
0.0
  0
ENDBLK
  5
122
330
11E
100
AcDbEntity
  8
0
100
AcDbBlockEnd
  0
BLOCK
  5
15B1
330
15B0
100
AcDbEntity
  8
0
100
AcDbBlockBegin
  2
_None
 70
     0
 10
0.0
 20
0.0
 30
0.0
  3
_None
  1

  0
ENDBLK
  5
15B2
330
15B0
100
AcDbEntity
  8
0
100
AcDbBlockEnd
  0
BLOCK
  5
2CB9
330
2CB5
100
AcDbEntity
  8
0
100
AcDbBlockBegin
  2
_Open30
 70
     0
 10
0.0
 20
0.0
 30
0.0
  3
_Open30
  1

  0
LINE
  5
2CB6
330
2CB5
100
AcDbEntity
  8
0
  6
ByBlock
 62
     0
370
    -2
100
AcDbLine
 10
-1.0
 20
0.26794919
 30
0.0
 11
0.0
 21
0.0
 31
0.0
  0
LINE
  5
2CB7
330
2CB5
100
AcDbEntity
  8
0
  6
ByBlock
 62
     0
370
    -2
100
AcDbLine
 10
0.0
 20
0.0
 30
0.0
 11
-1.0
 21
-0.26794919
 31
0.0
  0
LINE
  5
2CB8
330
2CB5
100
AcDbEntity
  8
0
  6
ByBlock
 62
     0
370
    -2
100
AcDbLine
 10
0.0
 20
0.0
 30
0.0
 11
-1.0
 21
0.0
 31
0.0
  0
ENDBLK
  5
2CBA
330
2CB5
100
AcDbEntity
  8
0
100
AcDbBlockEnd
  0
BLOCK
  5
35E6
330
35E3
100
AcDbEntity
  8
0
100
AcDbBlockBegin
  2
_DotBlank
 70
     0
 10
0.0
 20
0.0
 30
0.0
  3
_DotBlank
  1

  0
CIRCLE
  5
35E4
330
35E3
100
AcDbEntity
  8
0
  6
ByBlock
 62
     0
370
    -2
100
AcDbCircle
 10
0.0
 20
0.0
 30
0.0
 40
0.5
  0
LINE
  5
35E5
330
35E3
100
AcDbEntity
  8
0
  6
ByBlock
 62
     0
370
    -2
100
AcDbLine
 10
-0.5
 20
0.0
 30
0.0
 11
-1.0
 21
0.0
 31
0.0
  0
ENDBLK
  5
35E7
330
35E3
100
AcDbEntity
  8
0
100
AcDbBlockEnd
  0
BLOCK
  5
7069
330
705F
100
AcDbEntity
  8
0
100
AcDbBlockBegin
  2
*D4
 70
     1
 10
0.0
 20
0.0
 30
0.0
  3
*D4
  1

  0
LINE
  5
70DD
330
705F
100
AcDbEntity
  8
寸法
  6
Continuous
 62
     4
370
    -2
100
AcDbLine
 10
1363.733279171622
 20
927.2875096104765
 30
0.0
 11
1363.733279171622
 21
1003.147092818703
 31
0.0
  0
LINE
  5
70DE
330
705F
100
AcDbEntity
  8
寸法
  6
Continuous
 62
     4
370
    -2
100
AcDbLine
 10
1963.733279171622
 20
927.2875096104765
 30
0.0
 11
1963.733279171622
 21
1003.147092818703
 31
0.0
  0
LINE
  5
70DF
330
705F
100
AcDbEntity
  8
寸法
  6
Continuous
 62
     4
370
    -2
100
AcDbLine
 10
1364.733279171622
 20
1003.147092818703
 30
0.0
 11
1962.733279171622
 21
1003.147092818703
 31
0.0
  0
INSERT
  5
70E0
330
705F
100
AcDbEntity
  8
寸法
  6
Continuous
 62
     4
370
    -2
100
AcDbBlockReference
  2
_Dot
 10
1363.733279171622
 20
1003.147092818703
 30
0.0
 50
180.0
  0
INSERT
  5
70E1
330
705F
100
AcDbEntity
  8
寸法
  6
Continuous
 62
     4
370
    -2
100
AcDbBlockReference
  2
_Dot
 10
1963.733279171622
 20
1003.147092818703
 30
0.0
  0
MTEXT
  5
70E2
330
705F
100
AcDbEntity
  8
寸法
  6
Continuous
 62
     3
100
AcDbMText
 10
1663.733279171622
 20
1006.647092818703
 30
0.0
 40
5.0
 41
0.0
 71
     5
 72
     1
  1
\A1;W
  7
ACAD
 73
     1
 44
1.0
1001
ACAD
1000
MTEXTBEGIN
1070
    73
1070
     1
1070
    44
1040
1.0
1070
    74
1070
     0
1000
MTEXTEND
  0
POINT
  5
70E3
330
705F
100
AcDbEntity
  8
Defpoints
  6
Continuous
 62
     0
100
AcDbPoint
 10
1363.733279171622
 20
927.2875096104765
 30
0.0
  0
POINT
  5
70E4
330
705F
100
AcDbEntity
  8
Defpoints
  6
Continuous
 62
     0
100
AcDbPoint
 10
1963.733279171622
 20
927.2875096104765
 30
0.0
  0
POINT
  5
70E5
330
705F
100
AcDbEntity
  8
Defpoints
  6
Continuous
 62
     0
100
AcDbPoint
 10
1963.733279171622
 20
1003.147092818703
 30
0.0
  0
ENDBLK
  5
706A
330
705F
100
AcDbEntity
  8
0
100
AcDbBlockEnd
  0
BLOCK
  5
7075
330
706C
100
AcDbEntity
  8
0
100
AcDbBlockBegin
  2
*D5
 70
     1
 10
0.0
 20
0.0
 30
0.0
  3
*D5
  1

  0
LINE
  5
70F5
330
706C
100
AcDbEntity
  8
寸法
  6
Continuous
 62
     4
370
    -2
100
AcDbLine
 10
1363.733279171622
 20
833.2875096104766
 30
0.0
 11
1363.733279171622
 21
748.1470928187036
 31
0.0
  0
LINE
  5
70F6
330
706C
100
AcDbEntity
  8
寸法
  6
Continuous
 62
     4
370
    -2
100
AcDbLine
 10
1364.733279171622
 20
748.1470928187036
 30
0.0
 11
1437.733279171623
 21
748.1470928187036
 31
0.0
  0
INSERT
  5
70F7
330
706C
100
AcDbEntity
  8
寸法
  6
Continuous
 62
     4
370
    -2
100
AcDbBlockReference
  2
_Dot
 10
1363.733279171622
 20
748.1470928187036
 30
0.0
 50
180.0
  0
INSERT
  5
70F8
330
706C
100
AcDbEntity
  8
寸法
  6
Continuous
 62
     4
370
    -2
100
AcDbBlockReference
  2
_Dot
 10
1438.733279171623
 20
748.1470928187036
 30
0.0
  0
MTEXT
  5
70F9
330
706C
100
AcDbEntity
  8
寸法
  6
Continuous
 62
     3
100
AcDbMText
 10
1401.233279171622
 20
751.6470928187036
 30
0.0
 40
5.0
 41
0.0
 71
     5
 72
     1
  1
\A1;75≦
  7
ACAD
 73
     1
 44
1.0
1001
ACAD
1000
MTEXTBEGIN
1070
    73
1070
     1
1070
    44
1040
1.0
1070
    74
1070
     0
1000
MTEXTEND
  0
POINT
  5
70FA
330
706C
100
AcDbEntity
  8
Defpoints
  6
Continuous
 62
     0
100
AcDbPoint
 10
1363.733279171622
 20
833.2875096104766
 30
0.0
  0
POINT
  5
70FB
330
706C
100
AcDbEntity
  8
Defpoints
  6
Continuous
 62
     0
100
AcDbPoint
 10
1438.733279171623
 20
748.1470928187036
 30
0.0
  0
POINT
  5
70FC
330
706C
100
AcDbEntity
  8
Defpoints
  6
Continuous
 62
     0
100
AcDbPoint
 10
1438.733279171623
 20
748.1470928187036
 30
0.0
  0
ENDBLK
  5
7076
330
706C
100
AcDbEntity
  8
0
100
AcDbBlockEnd
  0
BLOCK
  5
7080
330
7078
100
AcDbEntity
  8
0
100
AcDbBlockBegin
  2
*D6
 70
     1
 10
0.0
 20
0.0
 30
0.0
  3
*D6
  1

  0
LINE
  5
70FD
330
7078
100
AcDbEntity
  8
寸法
  6
Continuous
 62
     4
370
    -2
100
AcDbLine
 10
1439.733279171623
 20
748.1470928187036
 30
0.0
 11
1587.73327917162
 21
748.1470928187036
 31
0.0
  0
INSERT
  5
70FE
330
7078
100
AcDbEntity
  8
寸法
  6
Continuous
 62
     4
370
    -2
100
AcDbBlockReference
  2
_Dot
 10
1438.733279171623
 20
748.1470928187036
 30
0.0
 50
180.0
  0
INSERT
  5
70FF
330
7078
100
AcDbEntity
  8
寸法
  6
Continuous
 62
     4
370
    -2
100
AcDbBlockReference
  2
_Dot
 10
1588.73327917162
 20
748.1470928187036
 30
0.0
  0
MTEXT
  5
7100
330
7078
100
AcDbEntity
  8
寸法
  6
Continuous
 62
     3
100
AcDbMText
 10
1513.733279171622
 20
751.6470928187036
 30
0.0
 40
5.0
 41
0.0
 71
     5
 72
     1
  1
\A1;≦Ｃ
  7
ACAD
 73
     1
 44
1.0
1001
ACAD
1000
MTEXTBEGIN
1070
    73
1070
     1
1070
    44
1040
1.0
1070
    74
1070
     0
1000
MTEXTEND
  0
POINT
  5
7101
330
7078
100
AcDbEntity
  8
Defpoints
  6
Continuous
 62
     0
100
AcDbPoint
 10
1438.733279171623
 20
748.1470928187036
 30
0.0
  0
POINT
  5
7102
330
7078
100
AcDbEntity
  8
Defpoints
  6
Continuous
 62
     0
100
AcDbPoint
 10
1588.73327917162
 20
748.1470928187036
 30
0.0
  0
POINT
  5
7103
330
7078
100
AcDbEntity
  8
Defpoints
  6
Continuous
 62
     0
100
AcDbPoint
 10
1588.73327917162
 20
748.1470928187036
 30
0.0
  0
ENDBLK
  5
7081
330
7078
100
AcDbEntity
  8
0
100
AcDbBlockEnd
  0
BLOCK
  5
708B
330
7083
100
AcDbEntity
  8
0
100
AcDbBlockBegin
  2
*D7
 70
     1
 10
0.0
 20
0.0
 30
0.0
  3
*D7
  1

  0
LINE
  5
7084
330
7083
100
AcDbEntity
  8
寸法
  6
Continuous
 62
     4
370
    -2
100
AcDbLine
 10
1589.733279171623
 20
748.1470928187036
 30
0.0
 11
1737.73327917162
 21
748.1470928187036
 31
0.0
  0
INSERT
  5
7085
330
7083
100
AcDbEntity
  8
寸法
  6
Continuous
 62
     4
370
    -2
100
AcDbBlockReference
  2
_Dot
 10
1588.733279171623
 20
748.1470928187036
 30
0.0
 50
180.0
  0
INSERT
  5
7086
330
7083
100
AcDbEntity
  8
寸法
  6
Continuous
 62
     4
370
    -2
100
AcDbBlockReference
  2
_Dot
 10
1738.73327917162
 20
748.1470928187036
 30
0.0
  0
MTEXT
  5
7087
330
7083
100
AcDbEntity
  8
寸法
  6
Continuous
 62
     3
100
AcDbMText
 10
1663.733279171622
 20
751.6470928187036
 30
0.0
 40
5.0
 41
0.0
 71
     5
 72
     1
  1
\A1;150
  7
ACAD
 73
     1
 44
1.0
1001
ACAD
1000
MTEXTBEGIN
1070
    73
1070
     1
1070
    44
1040
1.0
1070
    74
1070
     0
1000
MTEXTEND
  0
POINT
  5
7088
330
7083
100
AcDbEntity
  8
Defpoints
  6
Continuous
 62
     0
100
AcDbPoint
 10
1588.733279171623
 20
748.1470928187036
 30
0.0
  0
POINT
  5
7089
330
7083
100
AcDbEntity
  8
Defpoints
  6
Continuous
 62
     0
100
AcDbPoint
 10
1738.73327917162
 20
748.1470928187036
 30
0.0
  0
POINT
  5
708A
330
7083
100
AcDbEntity
  8
Defpoints
  6
Continuous
 62
     0
100
AcDbPoint
 10
1738.73327917162
 20
748.1470928187036
 30
0.0
  0
ENDBLK
  5
708C
330
7083
100
AcDbEntity
  8
0
100
AcDbBlockEnd
  0
BLOCK
  5
7096
330
708E
100
AcDbEntity
  8
0
100
AcDbBlockBegin
  2
*D8
 70
     1
 10
0.0
 20
0.0
 30
0.0
  3
*D8
  1

  0
LINE
  5
70E6
330
708E
100
AcDbEntity
  8
寸法
  6
Continuous
 62
     4
370
    -2
100
AcDbLine
 10
1739.733279171623
 20
748.1470928187036
 30
0.0
 11
1887.73327917162
 21
748.1470928187036
 31
0.0
  0
INSERT
  5
70E7
330
708E
100
AcDbEntity
  8
寸法
  6
Continuous
 62
     4
370
    -2
100
AcDbBlockReference
  2
_Dot
 10
1738.733279171623
 20
748.1470928187036
 30
0.0
 50
180.0
  0
INSERT
  5
70E8
330
708E
100
AcDbEntity
  8
寸法
  6
Continuous
 62
     4
370
    -2
100
AcDbBlockReference
  2
_Dot
 10
1888.73327917162
 20
748.1470928187036
 30
0.0
  0
MTEXT
  5
70E9
330
708E
100
AcDbEntity
  8
寸法
  6
Continuous
 62
     3
100
AcDbMText
 10
1813.733279171622
 20
751.6470928187036
 30
0.0
 40
5.0
 41
0.0
 71
     5
 72
     1
  1
\A1;≦Ｃ
  7
ACAD
 73
     1
 44
1.0
1001
ACAD
1000
MTEXTBEGIN
1070
    73
1070
     1
1070
    44
1040
1.0
1070
    74
1070
     0
1000
MTEXTEND
  0
POINT
  5
70EA
330
708E
100
AcDbEntity
  8
Defpoints
  6
Continuous
 62
     0
100
AcDbPoint
 10
1738.733279171623
 20
748.1470928187036
 30
0.0
  0
POINT
  5
70EB
330
708E
100
AcDbEntity
  8
Defpoints
  6
Continuous
 62
     0
100
AcDbPoint
 10
1888.73327917162
 20
748.1470928187036
 30
0.0
  0
POINT
  5
70EC
330
708E
100
AcDbEntity
  8
Defpoints
  6
Continuous
 62
     0
100
AcDbPoint
 10
1888.73327917162
 20
748.1470928187036
 30
0.0
  0
ENDBLK
  5
7097
330
708E
100
AcDbEntity
  8
0
100
AcDbBlockEnd
  0
BLOCK
  5
70A2
330
7099
100
AcDbEntity
  8
0
100
AcDbBlockBegin
  2
*D9
 70
     1
 10
0.0
 20
0.0
 30
0.0
  3
*D9
  1

  0
LINE
  5
70ED
330
7099
100
AcDbEntity
  8
寸法
  6
Continuous
 62
     4
370
    -2
100
AcDbLine
 10
1963.733279171622
 20
833.2875096104766
 30
0.0
 11
1963.733279171622
 21
748.1470928187036
 31
0.0
  0
LINE
  5
70EE
330
7099
100
AcDbEntity
  8
寸法
  6
Continuous
 62
     4
370
    -2
100
AcDbLine
 10
1889.73327917162
 20
748.1470928187036
 30
0.0
 11
1962.733279171622
 21
748.1470928187036
 31
0.0
  0
INSERT
  5
70EF
330
7099
100
AcDbEntity
  8
寸法
  6
Continuous
 62
     4
370
    -2
100
AcDbBlockReference
  2
_Dot
 10
1888.73327917162
 20
748.1470928187036
 30
0.0
 50
180.0
  0
INSERT
  5
70F0
330
7099
100
AcDbEntity
  8
寸法
  6
Continuous
 62
     4
370
    -2
100
AcDbBlockReference
  2
_Dot
 10
1963.733279171622
 20
748.1470928187036
 30
0.0
  0
MTEXT
  5
70F1
330
7099
100
AcDbEntity
  8
寸法
  6
Continuous
 62
     3
100
AcDbMText
 10
1926.233279171621
 20
751.6470928187036
 30
0.0
 40
5.0
 41
0.0
 71
     5
 72
     1
  1
\A1;75≦
  7
ACAD
 73
     1
 44
1.0
1001
ACAD
1000
MTEXTBEGIN
1070
    73
1070
     1
1070
    44
1040
1.0
1070
    74
1070
     0
1000
MTEXTEND
  0
POINT
  5
70F2
330
7099
100
AcDbEntity
  8
Defpoints
  6
Continuous
 62
     0
100
AcDbPoint
 10
1888.73327917162
 20
748.1470928187036
 30
0.0
  0
POINT
  5
70F3
330
7099
100
AcDbEntity
  8
Defpoints
  6
Continuous
 62
     0
100
AcDbPoint
 10
1963.733279171622
 20
833.2875096104766
 30
0.0
  0
POINT
  5
70F4
330
7099
100
AcDbEntity
  8
Defpoints
  6
Continuous
 62
     0
100
AcDbPoint
 10
1963.733279171622
 20
748.1470928187036
 30
0.0
  0
ENDBLK
  5
70A3
330
7099
100
AcDbEntity
  8
0
100
AcDbBlockEnd
  0
BLOCK
  5
70AF
330
70A5
100
AcDbEntity
  8
0
100
AcDbBlockBegin
  2
*D10
 70
     1
 10
0.0
 20
0.0
 30
0.0
  3
*D10
  1

  0
LINE
  5
70A6
330
70A5
100
AcDbEntity
  8
寸法
  6
Continuous
 62
     4
370
    -2
100
AcDbLine
 10
1965.733279171622
 20
835.2875096104765
 30
0.0
 11
2023.733279171622
 21
835.2875096104765
 31
0.0
  0
LINE
  5
70A7
330
70A5
100
AcDbEntity
  8
寸法
  6
Continuous
 62
     4
370
    -2
100
AcDbLine
 10
1965.733279171622
 20
925.2875096104766
 30
0.0
 11
2023.733279171622
 21
925.2875096104766
 31
0.0
  0
LINE
  5
70A8
330
70A5
100
AcDbEntity
  8
寸法
  6
Continuous
 62
     4
370
    -2
100
AcDbLine
 10
2023.733279171622
 20
836.2875096104765
 30
0.0
 11
2023.733279171622
 21
924.2875096104766
 31
0.0
  0
INSERT
  5
70A9
330
70A5
100
AcDbEntity
  8
寸法
  6
Continuous
 62
     4
370
    -2
100
AcDbBlockReference
  2
_Dot
 10
2023.733279171622
 20
835.2875096104765
 30
0.0
 50
270.0
  0
INSERT
  5
70AA
330
70A5
100
AcDbEntity
  8
寸法
  6
Continuous
 62
     4
370
    -2
100
AcDbBlockReference
  2
_Dot
 10
2023.733279171622
 20
925.2875096104766
 30
0.0
 50
90.0
  0
MTEXT
  5
70AB
330
70A5
100
AcDbEntity
  8
寸法
  6
Continuous
 62
     3
100
AcDbMText
 10
2020.233279171621
 20
880.2875096104768
 30
0.0
 40
5.0
 41
0.0
 71
     5
 72
     1
  1
\A1;90
  7
ACAD
 11
0.0000000000000001
 21
1.0
 31
0.0
 73
     1
 44
1.0
1001
ACAD
1000
MTEXTBEGIN
1070
    73
1070
     1
1070
    44
1040
1.0
1070
    74
1070
     0
1000
MTEXTEND
  0
POINT
  5
70AC
330
70A5
100
AcDbEntity
  8
Defpoints
  6
Continuous
 62
     0
100
AcDbPoint
 10
1965.733279171622
 20
835.2875096104765
 30
0.0
  0
POINT
  5
70AD
330
70A5
100
AcDbEntity
  8
Defpoints
  6
Continuous
 62
     0
100
AcDbPoint
 10
1965.733279171622
 20
925.2875096104766
 30
0.0
  0
POINT
  5
70AE
330
70A5
100
AcDbEntity
  8
Defpoints
  6
Continuous
 62
     0
100
AcDbPoint
 10
2023.733279171622
 20
925.2875096104766
 30
0.0
  0
ENDBLK
  5
70B0
330
70A5
100
AcDbEntity
  8
0
100
AcDbBlockEnd
  0
BLOCK
  5
70BC
330
70B2
100
AcDbEntity
  8
0
100
AcDbBlockBegin
  2
*D11
 70
     1
 10
0.0
 20
0.0
 30
0.0
  3
*D11
  1

  0
LINE
  5
70D4
330
70B2
100
AcDbEntity
  8
寸法
  6
Continuous
 62
     4
370
    -2
100
AcDbLine
 10
1892.437005650247
 20
878.1470928187033
 30
0.0
 11
2003.733279171622
 21
878.1470928187033
 31
0.0
  0
LINE
  5
70D5
330
70B2
100
AcDbEntity
  8
寸法
  6
Continuous
 62
     4
370
    -2
100
AcDbLine
 10
1965.733279171622
 20
835.2875096104765
 30
0.0
 11
2003.733279171622
 21
835.2875096104765
 31
0.0
  0
LINE
  5
70D6
330
70B2
100
AcDbEntity
  8
寸法
  6
Continuous
 62
     4
370
    -2
100
AcDbLine
 10
2003.733279171622
 20
877.1470928187033
 30
0.0
 11
2003.733279171622
 21
836.2875096104765
 31
0.0
  0
INSERT
  5
70D7
330
70B2
100
AcDbEntity
  8
寸法
  6
Continuous
 62
     4
370
    -2
100
AcDbBlockReference
  2
_Dot
 10
2003.733279171622
 20
878.1470928187033
 30
0.0
 50
90.0
  0
INSERT
  5
70D8
330
70B2
100
AcDbEntity
  8
寸法
  6
Continuous
 62
     4
370
    -2
100
AcDbBlockReference
  2
_Dot
 10
2003.733279171622
 20
835.2875096104765
 30
0.0
 50
270.0
  0
MTEXT
  5
70D9
330
70B2
100
AcDbEntity
  8
寸法
  6
Continuous
 62
     3
100
AcDbMText
 10
2000.233279171621
 20
856.7173012145902
 30
0.0
 40
5.0
 41
0.0
 71
     5
 72
     1
  1
\A1;44
  7
ACAD
 11
0.0000000000000001
 21
1.0
 31
0.0
 73
     1
 44
1.0
1001
ACAD
1000
MTEXTBEGIN
1070
    73
1070
     1
1070
    44
1040
1.0
1070
    74
1070
     0
1000
MTEXTEND
  0
POINT
  5
70DA
330
70B2
100
AcDbEntity
  8
Defpoints
  6
Continuous
 62
     0
100
AcDbPoint
 10
1892.437005650247
 20
878.1470928187033
 30
0.0
  0
POINT
  5
70DB
330
70B2
100
AcDbEntity
  8
Defpoints
  6
Continuous
 62
     0
100
AcDbPoint
 10
1965.733279171622
 20
835.2875096104765
 30
0.0
  0
POINT
  5
70DC
330
70B2
100
AcDbEntity
  8
Defpoints
  6
Continuous
 62
     0
100
AcDbPoint
 10
2003.733279171622
 20
835.2875096104765
 30
0.0
  0
ENDBLK
  5
70BD
330
70B2
100
AcDbEntity
  8
0
100
AcDbBlockEnd
  0
BLOCK
  5
70C7
330
70BF
100
AcDbEntity
  8
0
100
AcDbBlockBegin
  2
*D12
 70
     1
 10
0.0
 20
0.0
 30
0.0
  3
*D12
  1

  0
LINE
  5
70C0
330
70BF
100
AcDbEntity
  8
寸法
  6
Continuous
 62
     4
370
    -2
100
AcDbLine
 10
1839.733279171621
 20
818.1470928187035
 30
0.0
 11
1887.733279171621
 21
818.1470928187035
 31
0.0
  0
INSERT
  5
70C1
330
70BF
100
AcDbEntity
  8
寸法
  6
Continuous
 62
     4
370
    -2
100
AcDbBlockReference
  2
_Dot
 10
1838.733279171622
 20
818.1470928187035
 30
0.0
 50
180.0
  0
INSERT
  5
70C2
330
70BF
100
AcDbEntity
  8
寸法
  6
Continuous
 62
     4
370
    -2
100
AcDbBlockReference
  2
_Dot
 10
1888.733279171622
 20
818.1470928187035
 30
0.0
  0
MTEXT
  5
70C3
330
70BF
100
AcDbEntity
  8
寸法
  6
Continuous
 62
     3
100
AcDbMText
 10
1863.733279171622
 20
821.6470928187035
 30
0.0
 40
5.0
 41
0.0
 71
     5
 72
     1
  1
\A1;50
  7
ACAD
 73
     1
 44
1.0
1001
ACAD
1000
MTEXTBEGIN
1070
    73
1070
     1
1070
    44
1040
1.0
1070
    74
1070
     0
1000
MTEXTEND
  0
POINT
  5
70C4
330
70BF
100
AcDbEntity
  8
Defpoints
  6
Continuous
 62
     0
100
AcDbPoint
 10
1838.733279171622
 20
818.1470928187035
 30
0.0
  0
POINT
  5
70C5
330
70BF
100
AcDbEntity
  8
Defpoints
  6
Continuous
 62
     0
100
AcDbPoint
 10
1888.733279171622
 20
818.1470928187035
 30
0.0
  0
POINT
  5
70C6
330
70BF
100
AcDbEntity
  8
Defpoints
  6
Continuous
 62
     0
100
AcDbPoint
 10
1888.733279171622
 20
818.1470928187035
 30
0.0
  0
ENDBLK
  5
70C8
330
70BF
100
AcDbEntity
  8
0
100
AcDbBlockEnd
  0
BLOCK
  5
70D2
330
70CA
100
AcDbEntity
  8
0
100
AcDbBlockBegin
  2
*D13
 70
     1
 10
0.0
 20
0.0
 30
0.0
  3
*D13
  1

  0
LINE
  5
70CB
330
70CA
100
AcDbEntity
  8
寸法
  6
Continuous
 62
     4
370
    -2
100
AcDbLine
 10
1487.733279171622
 20
818.1470928187035
 30
0.0
 11
1439.733279171622
 21
818.1470928187035
 31
0.0
  0
INSERT
  5
70CC
330
70CA
100
AcDbEntity
  8
寸法
  6
Continuous
 62
     4
370
    -2
100
AcDbBlockReference
  2
_Dot
 10
1488.733279171621
 20
818.1470928187035
 30
0.0
  0
INSERT
  5
70CD
330
70CA
100
AcDbEntity
  8
寸法
  6
Continuous
 62
     4
370
    -2
100
AcDbBlockReference
  2
_Dot
 10
1438.733279171622
 20
818.1470928187035
 30
0.0
 50
180.0
  0
MTEXT
  5
70CE
330
70CA
100
AcDbEntity
  8
寸法
  6
Continuous
 62
     3
100
AcDbMText
 10
1463.733279171622
 20
821.6470928187035
 30
0.0
 40
5.0
 41
0.0
 71
     5
 72
     1
  1
\A1;50
  7
ACAD
 73
     1
 44
1.0
1001
ACAD
1000
MTEXTBEGIN
1070
    73
1070
     1
1070
    44
1040
1.0
1070
    74
1070
     0
1000
MTEXTEND
  0
POINT
  5
70CF
330
70CA
100
AcDbEntity
  8
Defpoints
  6
Continuous
 62
     0
100
AcDbPoint
 10
1488.733279171621
 20
818.1470928187035
 30
0.0
  0
POINT
  5
70D0
330
70CA
100
AcDbEntity
  8
Defpoints
  6
Continuous
 62
     0
100
AcDbPoint
 10
1438.733279171622
 20
818.1470928187035
 30
0.0
  0
POINT
  5
70D1
330
70CA
100
AcDbEntity
  8
Defpoints
  6
Continuous
 62
     0
100
AcDbPoint
 10
1438.733279171622
 20
818.1470928187035
 30
0.0
  0
ENDBLK
  5
70D3
330
70CA
100
AcDbEntity
  8
0
100
AcDbBlockEnd
  0
ENDSEC
  0
SECTION
  2
ENTITIES
  0
LINE
  5
6BFC
330
1E
100
AcDbEntity
  8
躯体と製品
  6
DASHED1
 62
     7
100
AcDbLine
 10
1384.616816810825
 20
917.5510790594842
 30
0.0
 11
1370.66320326141
 21
839.4108431827575
 31
0.0
  0
LINE
  5
6BFD
330
1E
100
AcDbEntity
  8
躯体と製品
  6
Continuous
 62
     3
100
AcDbLine
 10
1394.602619555264
 20
895.1324224692138
 30
0.0
 11
1663.733279171622
 21
909.2369626766869
 31
0.0
  0
LINE
  5
6BFE
330
1E
100
AcDbEntity
  8
躯体と製品
  6
Continuous
 62
     3
100
AcDbLine
 10
1393.137212780462
 20
923.0940494423416
 30
0.0
 11
1663.733279171622
 21
937.2753883646288
 31
0.0
  0
LINE
  5
6BFF
330
1E
100
AcDbEntity
  8
躯体と製品
  6
DASHED1
 62
     7
100
AcDbLine
 10
1422.775713536433
 20
902.1164596632875
 30
0.0
 11
1394.314771795928
 21
900.6248849103638
 31
0.0
  0
LINE
  5
6C00
330
1E
100
AcDbEntity
  8
躯体と製品
  6
DASHED1
 62
     7
100
AcDbLine
 10
1399.46492733843
 20
897.8906760873146
 30
0.0
 11
1394.471779664657
 21
897.6289963060999
 31
0.0
  0
ARC
  5
6C01
330
1E
100
AcDbEntity
  8
躯体と製品
  6
Continuous
 62
     3
100
AcDbCircle
 10
1384.336995638619
 20
893.8492452216426
 30
0.0
 40
0.5999999999999984
100
AcDbArc
 50
193.0000000000002
 51
13.00000000000027
  0
ARC
  5
6C02
330
1E
100
AcDbEntity
  8
躯体と製品
  6
Continuous
 62
     3
100
AcDbCircle
 10
1384.825610166964
 20
896.622775811139
 30
0.0
 40
0.5
100
AcDbArc
 50
93.00000000000558
 51
193.0000000000002
  0
ARC
  5
6C03
330
1E
100
AcDbEntity
  8
躯体と製品
  6
Continuous
 62
     3
100
AcDbCircle
 10
1382.751855899563
 20
896.7143694244052
 30
0.0
 40
0.2999999999999998
100
AcDbArc
 50
13.00000000000027
 51
93.00000000000558
  0
ARC
  5
6C04
330
1E
100
AcDbEntity
  8
躯体と製品
  6
Continuous
 62
     3
100
AcDbCircle
 10
1380.069614660114
 20
848.6875096104766
 30
0.0
 40
0.6000000000000015
100
AcDbArc
 50
270.0
 51
90.0
  0
LINE
  5
6C05
330
1E
100
AcDbEntity
  8
躯体と製品
  6
Continuous
 62
     3
100
AcDbLine
 10
1368.902140382158
 20
840.9721969046795
 30
0.0
 11
1368.902140382158
 21
837.2875096104765
 31
0.0
  0
LINE
  5
6C06
330
1E
100
AcDbEntity
  8
躯体と製品
  6
Continuous
 62
     3
100
AcDbLine
 10
1365.902140382158
 20
839.7875096104765
 30
0.0
 11
1365.902140382158
 21
841.2875096104766
 31
0.0
  0
LINE
  5
6C07
330
1E
100
AcDbEntity
  8
躯体と製品
  6
Continuous
 62
     3
100
AcDbLine
 10
1368.402140382158
 20
837.2875096104765
 30
0.0
 11
1368.902140382158
 21
837.2875096104765
 31
0.0
  0
ARC
  5
6C08
330
1E
100
AcDbEntity
  8
躯体と製品
  6
Continuous
 62
     3
100
AcDbCircle
 10
1368.402140382158
 20
839.7875096104765
 30
0.0
 40
2.5
100
AcDbArc
 50
180.0
 51
270.0
  0
LINE
  5
6C09
330
1E
100
AcDbEntity
  8
躯体と製品
  6
Continuous
 62
     3
100
AcDbLine
 10
1375.669614660113
 20
849.2875096104766
 30
0.0
 11
1375.669614660113
 21
850.2875096104766
 31
0.0
  0
LINE
  5
6C0A
330
1E
100
AcDbEntity
  8
躯体と製品
  6
Continuous
 62
     3
100
AcDbLine
 10
1375.669614660113
 20
850.2875096104766
 30
0.0
 11
1377.669614660114
 21
849.2875096104766
 31
0.0
  0
LINE
  5
6C0B
330
1E
100
AcDbEntity
  8
躯体と製品
  6
Continuous
 62
     3
100
AcDbLine
 10
1380.069614660114
 20
849.2875096104766
 30
0.0
 11
1377.669614660114
 21
849.2875096104766
 31
0.0
  0
ARC
  5
6C0C
330
1E
100
AcDbEntity
  8
躯体と製品
  6
Continuous
 62
     3
100
AcDbCircle
 10
1371.287063238381
 20
849.7875096104765
 30
0.0
 40
0.5
100
AcDbArc
 50
168.0000000000002
 51
270.0
  0
LINE
  5
6C0D
330
1E
100
AcDbEntity
  8
躯体と製品
  6
Continuous
 62
     3
100
AcDbLine
 10
1370.819438802707
 20
848.0875096104766
 30
0.0
 11
1380.069614660114
 21
848.0875096104766
 31
0.0
  0
LINE
  5
6C0E
330
1E
100
AcDbEntity
  8
躯体と製品
  6
Continuous
 62
     3
100
AcDbLine
 10
1370.33036500234
 20
847.6914654558854
 30
0.0
 11
1368.902140382158
 21
840.9721969046795
 31
0.0
  0
ARC
  5
6C0F
330
1E
100
AcDbEntity
  8
躯体と製品
  6
Continuous
 62
     3
100
AcDbCircle
 10
1370.819438802707
 20
847.5875096104767
 30
0.0
 40
0.5
100
AcDbArc
 50
90.0
 51
168.0000000000002
  0
LINE
  5
6C10
330
1E
100
AcDbEntity
  8
躯体と製品
  6
Continuous
 62
     3
100
AcDbLine
 10
1394.602619555264
 20
895.1324224692138
 30
0.0
 11
1393.137212780462
 21
923.0940494423416
 31
0.0
  0
ARC
  5
6C11
330
1E
100
AcDbEntity
  8
躯体と製品
  6
Continuous
 62
     3
100
AcDbCircle
 10
1394.050968831644
 20
896.1048840258463
 30
0.0
 40
0.5
100
AcDbArc
 50
273.0000000000056
 51
2.999999999998919
  0
LINE
  5
6C12
330
1E
100
AcDbEntity
  8
躯体と製品
  6
Continuous
 62
     3
100
AcDbLine
 10
1393.577822042388
 20
895.5794012803478
 30
0.0
 11
1394.077136809765
 21
895.6055692584691
 31
0.0
  0
ARC
  5
6C13
330
1E
100
AcDbEntity
  8
躯体と製品
  6
Continuous
 62
     3
100
AcDbCircle
 10
1393.551654064266
 20
896.078716047725
 30
0.0
 40
0.5
100
AcDbArc
 50
182.9999999999989
 51
273.0000000000056
  0
ARC
  5
6C14
330
1E
100
AcDbEntity
  8
躯体と製品
  6
Continuous
 62
     3
100
AcDbCircle
 10
1381.611144636867
 20
895.953626638126
 30
0.0
 40
1.0
100
AcDbArc
 50
93.00000000000558
 51
168.0000000000002
  0
ARC
  5
6C15
330
1E
100
AcDbEntity
  8
躯体と製品
  6
Continuous
 62
     3
100
AcDbCircle
 10
1380.792533287614
 20
896.9120973812135
 30
0.0
 40
3.0
100
AcDbArc
 50
93.00000000000558
 51
168.0000000000002
  0
ARC
  5
6C16
330
1E
100
AcDbEntity
  8
躯体と製品
  6
Continuous
 62
     3
100
AcDbCircle
 10
1393.684617137943
 20
903.0952907691284
 30
0.0
 40
0.5
100
AcDbArc
 50
2.999999999998919
 51
93.00000000000558
  0
LINE
  5
6C17
330
1E
100
AcDbEntity
  8
躯体と製品
  6
Continuous
 62
     3
100
AcDbLine
 10
1393.159134392444
 20
903.5684375583846
 30
0.0
 11
1393.658449159822
 21
903.5946055365061
 31
0.0
  0
ARC
  5
6C18
330
1E
100
AcDbEntity
  8
躯体と製品
  6
Continuous
 62
     3
100
AcDbCircle
 10
1393.185302370566
 20
903.069122791007
 30
0.0
 40
0.5
100
AcDbArc
 50
93.00000000000558
 51
182.9999999999989
  0
LINE
  5
6C19
330
1E
100
AcDbEntity
  8
躯体と製品
  6
Continuous
 62
     3
100
AcDbLine
 10
1377.858090485412
 20
897.5358324536669
 30
0.0
 11
1365.902140382158
 21
841.2875096104766
 31
0.0
  0
LINE
  5
6C1A
330
1E
100
AcDbEntity
  8
躯体と製品
  6
Continuous
 62
     3
100
AcDbLine
 10
1380.632997036133
 20
896.1615383289434
 30
0.0
 11
1370.797989438014
 21
849.8914654558854
 31
0.0
  0
LINE
  5
6C1B
330
1E
100
AcDbEntity
  8
躯体と製品
  6
Continuous
 62
     3
100
AcDbLine
 10
1371.287063238381
 20
849.2875096104766
 30
0.0
 11
1375.669614660113
 21
849.2875096104766
 31
0.0
  0
LINE
  5
6C1C
330
1E
100
AcDbEntity
  8
躯体と製品
  6
Continuous
 62
     3
100
AcDbLine
 10
1392.790659515674
 20
901.0456957433767
 30
0.0
 11
1392.685987603188
 21
903.0429548128855
 31
0.0
  0
LINE
  5
6C1D
330
1E
100
AcDbEntity
  8
躯体と製品
  6
Continuous
 62
     3
100
AcDbLine
 10
1392.317512726419
 20
900.520212997878
 30
0.0
 11
1380.635525418885
 21
899.9079859854772
 31
0.0
  0
ARC
  5
6C1E
330
1E
100
AcDbEntity
  8
躯体と製品
  6
Continuous
 62
     3
100
AcDbCircle
 10
1392.291344748297
 20
901.0195277652549
 30
0.0
 40
0.5
100
AcDbArc
 50
273.0000000000056
 51
2.999999999998919
  0
LINE
  5
6C1F
330
1E
100
AcDbEntity
  8
躯体と製品
  6
Continuous
 62
     3
100
AcDbLine
 10
1393.000003340646
 20
897.0511776043581
 30
0.0
 11
1393.052339296889
 21
896.0525480696036
 31
0.0
  0
ARC
  5
6C20
330
1E
100
AcDbEntity
  8
躯体と製品
  6
Continuous
 62
     3
100
AcDbCircle
 10
1392.500688573269
 20
897.0250096262367
 30
0.0
 40
0.5
100
AcDbArc
 50
2.999999999998919
 51
93.00000000000558
  0
LINE
  5
6C21
330
1E
100
AcDbEntity
  8
躯体と製品
  6
Continuous
 62
     3
100
AcDbLine
 10
1383.044166918999
 20
896.7818547407086
 30
0.0
 11
1383.752373599748
 21
893.7142745890364
 31
0.0
  0
LINE
  5
6C22
330
1E
100
AcDbEntity
  8
躯体と製品
  6
Continuous
 62
     3
100
AcDbLine
 10
1381.558808680624
 20
896.9522561728805
 30
0.0
 11
1382.73615511269
 21
897.0139582848316
 31
0.0
  0
LINE
  5
6C23
330
1E
100
AcDbEntity
  8
躯体と製品
  6
Continuous
 62
     3
100
AcDbLine
 10
1392.474520595147
 20
897.5243243936137
 30
0.0
 11
1384.799442188842
 21
897.1220905785163
 31
0.0
  0
LINE
  5
6C24
330
1E
100
AcDbEntity
  8
躯体と製品
  6
Continuous
 62
     3
100
AcDbLine
 10
1384.338425134571
 20
896.510300283967
 30
0.0
 11
1384.92161767749
 21
893.9842158542489
 31
0.0
  0
ARC
  5
6C25
330
1E
100
AcDbEntity
  8
躯体と製品
  6
DASHED1
 62
     7
100
AcDbCircle
 10
1422.854217470798
 20
900.6185153611557
 30
0.0
 40
1.5
100
AcDbArc
 50
273.0000000000056
 51
93.00000000000558
  0
LINE
  5
6C26
330
1E
100
AcDbEntity
  8
躯体と製品
  6
DASHED1
 62
     7
100
AcDbLine
 10
1422.932721405162
 20
899.1205710590238
 30
0.0
 11
1419.437518033521
 21
898.9373952121734
 31
0.0
  0
LINE
  5
6C27
330
1E
100
AcDbEntity
  8
躯体と製品
  6
DASHED1
 62
     7
100
AcDbLine
 10
1419.385182077278
 20
899.9360247469283
 30
0.0
 11
1419.437518033521
 21
898.9373952121734
 31
0.0
  0
LINE
  5
6C28
330
1E
100
AcDbEntity
  8
躯体と製品
  6
DASHED1
 62
     7
100
AcDbLine
 10
1419.385182077278
 20
899.9360247469283
 30
0.0
 11
1399.412591382187
 21
898.8893056220693
 31
0.0
  0
LINE
  5
6C29
330
1E
100
AcDbEntity
  8
躯体と製品
  6
DASHED1
 62
     7
100
AcDbLine
 10
1399.412591382187
 20
898.8893056220693
 30
0.0
 11
1399.46492733843
 21
897.8906760873146
 31
0.0
  0
LINE
  5
6C2A
330
1E
100
AcDbEntity
  8
躯体と製品
  6
DASHED1
 62
     4
100
AcDbLine
 10
1608.99395379004
 20
912.376430269974
 30
0.0
 11
1608.899749068802
 21
914.173963432532
 31
0.0
  0
LINE
  5
6C2B
330
1E
100
AcDbEntity
  8
躯体と製品
  6
DASHED1
 62
     4
100
AcDbLine
 10
1429.240637534216
 20
902.9559581462439
 30
0.0
 11
1429.146432812979
 21
904.753491308802
 31
0.0
  0
TEXT
  5
6C2C
330
1E
100
AcDbEntity
  8
図枠
 62
     7
100
AcDbText
 10
1565.233279171622
 20
694.1470928187036
 30
0.0
 40
5.0
  1
規　格
100
AcDbText
  0
TEXT
  5
6C2D
330
1E
100
AcDbEntity
  8
図枠
 62
     7
100
AcDbText
 10
1464.233279171622
 20
694.1470928187036
 30
0.0
 40
5.0
  1
部材名称
100
AcDbText
  0
TEXT
  5
6C2E
330
1E
100
AcDbEntity
  8
図枠
 62
     7
100
AcDbText
 10
1532.733279171621
 20
562.1470928187036
 30
0.0
 40
5.0
  1
Ｍ6×40
100
AcDbText
  0
TEXT
  5
6C2F
330
1E
100
AcDbEntity
  8
図枠
 62
     7
100
AcDbText
 10
1532.733279171621
 20
538.1470928187036
 30
0.0
 40
5.0
  1
1.5×18×6.5穴
100
AcDbText
  0
TEXT
  5
6C30
330
1E
100
AcDbEntity
  8
図枠
 62
     7
100
AcDbText
 10
1532.733279171621
 20
550.1470928187036
 30
0.0
 40
5.0
  1
ＡＧ－660
100
AcDbText
  0
TEXT
  5
6C31
330
1E
100
AcDbEntity
  8
図枠
 62
     7
100
AcDbText
 10
1532.733279171621
 20
598.1470928187036
 30
0.0
 40
5.0
  1
ＰＳ
100
AcDbText
  0
TEXT
  5
6C32
330
1E
100
AcDbEntity
  8
図枠
 62
     7
100
AcDbText
 10
1432.733279171621
 20
538.1470928187036
 30
0.0
 40
5.0
  1
ステンワッシャー
100
AcDbText
  0
TEXT
  5
6C33
330
1E
100
AcDbEntity
  8
図枠
 62
     7
100
AcDbText
 10
1432.733279171621
 20
550.1470928187036
 30
0.0
 40
5.0
  1
アジャストアンカー
100
AcDbText
  0
TEXT
  5
6C34
330
1E
100
AcDbEntity
  8
図枠
 62
     7
100
AcDbText
 10
1432.733279171621
 20
562.1470928187036
 30
0.0
 40
5.0
  1
ステン六角ボルト
100
AcDbText
  0
TEXT
  5
6C35
330
1E
100
AcDbEntity
  8
図枠
 62
     7
100
AcDbText
 10
1432.733279171621
 20
574.1470928187036
 30
0.0
 40
5.0
  1
ステン小ネジ
100
AcDbText
  0
TEXT
  5
6C36
330
1E
100
AcDbEntity
  8
図枠
 62
     7
100
AcDbText
 10
1432.733279171621
 20
586.1470928187036
 30
0.0
 40
5.0
  1
止水補助板
100
AcDbText
  0
TEXT
  5
6C37
330
1E
100
AcDbEntity
  8
図枠
 62
     7
100
AcDbText
 10
1432.733279171621
 20
598.1470928187036
 30
0.0
 40
5.0
  1
止水補助板
100
AcDbText
  0
TEXT
  5
6C38
330
1E
100
AcDbEntity
  8
図枠
 62
     7
100
AcDbText
 10
1432.733279171621
 20
610.1470928187036
 30
0.0
 40
5.0
  1
ＦＹＹ水切ジョイント
100
AcDbText
  0
TEXT
  5
6C39
330
1E
100
AcDbEntity
  8
図枠
 62
     7
100
AcDbText
 10
1432.733279171621
 20
622.1470928187036
 30
0.0
 40
5.0
  1
ＦＹＹフレームナット
100
AcDbText
  0
TEXT
  5
6C3A
330
1E
100
AcDbEntity
  8
図枠
 62
     7
100
AcDbText
 10
1432.733279171621
 20
646.1470928187036
 30
0.0
 40
5.0
  1
ＦＹＹホルダー
100
AcDbText
  0
TEXT
  5
6C3B
330
1E
100
AcDbEntity
  8
図枠
 62
     7
100
AcDbText
 10
1432.733279171621
 20
670.1470928187036
 30
0.0
 40
5.0
  1
ＦＹＹフレーム
100
AcDbText
  0
TEXT
  5
6C3C
330
1E
100
AcDbEntity
  8
図枠
 62
     7
100
AcDbText
 10
1432.733279171621
 20
682.1470928187034
 30
0.0
 40
5.0
  1
ＦＹＹキヤップＡ
100
AcDbText
  0
TEXT
  5
6C3D
330
1E
100
AcDbEntity
  8
図枠
 62
     7
100
AcDbText
 10
1432.733279171622
 20
634.1470928187036
 30
0.0
 40
5.0
  1
ＦＹＹホルダースプリング
100
AcDbText
  0
TEXT
  5
6C3E
330
1E
100
AcDbEntity
  8
図枠
 62
     7
100
AcDbText
 10
1532.733279171621
 20
574.1470928187036
 30
0.0
 40
5.0
  1
ナベＭ6×35
100
AcDbText
  0
LINE
  5
6C3F
330
1E
100
AcDbEntity
  8
図枠
  6
Continuous
 62
     7
100
AcDbLine
 10
1690.733279171622
 20
523.1470928187036
 30
0.0
 11
1623.733279171621
 21
523.1470928187036
 31
0.0
  0
LINE
  5
6C40
330
1E
100
AcDbEntity
  8
図枠
  6
Continuous
 62
     7
100
AcDbLine
 10
1690.733279171622
 20
655.1470928187036
 30
0.0
 11
1623.733279171621
 21
655.1470928187036
 31
0.0
  0
LINE
  5
6C41
330
1E
100
AcDbEntity
  8
図枠
  6
Continuous
 62
     7
100
AcDbLine
 10
1690.733279171622
 20
667.1470928187036
 30
0.0
 11
1623.733279171621
 21
667.1470928187036
 31
0.0
  0
LINE
  5
6C42
330
1E
100
AcDbEntity
  8
図枠
  6
Continuous
 62
     7
100
AcDbLine
 10
1690.733279171622
 20
679.1470928187036
 30
0.0
 11
1623.733279171621
 21
679.1470928187036
 31
0.0
  0
LINE
  5
6C43
330
1E
100
AcDbEntity
  8
図枠
  6
Continuous
 62
     7
100
AcDbLine
 10
1690.733279171622
 20
691.1470928187036
 30
0.0
 11
1623.733279171621
 21
691.1470928187036
 31
0.0
  0
LINE
  5
6C44
330
1E
100
AcDbEntity
  8
図枠
  6
Continuous
 62
     7
100
AcDbLine
 10
1690.733279171622
 20
571.1470928187036
 30
0.0
 11
1623.733279171621
 21
571.1470928187036
 31
0.0
  0
LINE
  5
6C45
330
1E
100
AcDbEntity
  8
図枠
  6
Continuous
 62
     7
100
AcDbLine
 10
1690.733279171622
 20
583.1470928187036
 30
0.0
 11
1623.733279171621
 21
583.1470928187036
 31
0.0
  0
LINE
  5
6C46
330
1E
100
AcDbEntity
  8
図枠
  6
Continuous
 62
     7
100
AcDbLine
 10
1690.733279171622
 20
607.1470928187036
 30
0.0
 11
1623.733279171621
 21
607.1470928187036
 31
0.0
  0
LINE
  5
6C47
330
1E
100
AcDbEntity
  8
図枠
  6
Continuous
 62
     7
100
AcDbLine
 10
1690.733279171622
 20
619.1470928187036
 30
0.0
 11
1623.733279171621
 21
619.1470928187036
 31
0.0
  0
LINE
  5
6C48
330
1E
100
AcDbEntity
  8
図枠
  6
Continuous
 62
     7
100
AcDbLine
 10
1690.733279171622
 20
631.1470928187036
 30
0.0
 11
1623.733279171621
 21
631.1470928187036
 31
0.0
  0
LINE
  5
6C49
330
1E
100
AcDbEntity
  8
図枠
  6
Continuous
 62
     7
100
AcDbLine
 10
1690.733279171622
 20
643.1470928187036
 30
0.0
 11
1623.733279171621
 21
643.1470928187036
 31
0.0
  0
LINE
  5
6C4A
330
1E
100
AcDbEntity
  8
図枠
  6
Continuous
 62
     7
100
AcDbLine
 10
1690.733279171622
 20
595.1470928187036
 30
0.0
 11
1623.733279171621
 21
595.1470928187036
 31
0.0
  0
LINE
  5
6C4B
330
1E
100
AcDbEntity
  8
図枠
  6
Continuous
 62
     7
100
AcDbLine
 10
1690.733279171622
 20
535.1470928187036
 30
0.0
 11
1623.733279171621
 21
535.1470928187036
 31
0.0
  0
LINE
  5
6C4C
330
1E
100
AcDbEntity
  8
図枠
  6
Continuous
 62
     7
100
AcDbLine
 10
1690.733279171622
 20
547.1470928187036
 30
0.0
 11
1623.733279171621
 21
547.1470928187036
 31
0.0
  0
LINE
  5
6C4D
330
1E
100
AcDbEntity
  8
図枠
  6
Continuous
 62
     7
100
AcDbLine
 10
1690.733279171622
 20
559.1470928187034
 30
0.0
 11
1623.733279171621
 21
559.1470928187034
 31
0.0
  0
LINE
  5
6C4E
330
1E
100
AcDbEntity
  8
図枠
  6
Continuous
 62
     7
100
AcDbLine
 10
1690.733279171622
 20
703.1470928187034
 30
0.0
 11
1623.733279171621
 21
703.1470928187034
 31
0.0
  0
LINE
  5
6C4F
330
1E
100
AcDbEntity
  8
図枠
  6
Continuous
 62
     7
100
AcDbLine
 10
1691.733279171621
 20
523.1470928187036
 30
0.0
 11
1758.733279171622
 21
523.1470928187036
 31
0.0
  0
LINE
  5
6C50
330
1E
100
AcDbEntity
  8
図枠
  6
Continuous
 62
     7
100
AcDbLine
 10
1691.733279171621
 20
535.1470928187036
 30
0.0
 11
1758.733279171622
 21
535.1470928187036
 31
0.0
  0
LINE
  5
6C51
330
1E
100
AcDbEntity
  8
図枠
  6
Continuous
 62
     7
100
AcDbLine
 10
1691.733279171621
 20
547.1470928187036
 30
0.0
 11
1758.733279171622
 21
547.1470928187036
 31
0.0
  0
LINE
  5
6C52
330
1E
100
AcDbEntity
  8
図枠
  6
Continuous
 62
     7
100
AcDbLine
 10
1691.733279171621
 20
571.1470928187036
 30
0.0
 11
1758.733279171622
 21
571.1470928187036
 31
0.0
  0
LINE
  5
6C53
330
1E
100
AcDbEntity
  8
図枠
  6
Continuous
 62
     7
100
AcDbLine
 10
1691.733279171621
 20
583.1470928187036
 30
0.0
 11
1758.733279171622
 21
583.1470928187036
 31
0.0
  0
LINE
  5
6C54
330
1E
100
AcDbEntity
  8
図枠
  6
Continuous
 62
     7
100
AcDbLine
 10
1691.733279171621
 20
619.1470928187036
 30
0.0
 11
1758.733279171622
 21
619.1470928187036
 31
0.0
  0
LINE
  5
6C55
330
1E
100
AcDbEntity
  8
図枠
  6
Continuous
 62
     7
100
AcDbLine
 10
1691.733279171621
 20
631.1470928187036
 30
0.0
 11
1758.733279171622
 21
631.1470928187036
 31
0.0
  0
LINE
  5
6C56
330
1E
100
AcDbEntity
  8
図枠
  6
Continuous
 62
     7
100
AcDbLine
 10
1691.733279171621
 20
595.1470928187036
 30
0.0
 11
1758.733279171622
 21
595.1470928187036
 31
0.0
  0
LINE
  5
6C57
330
1E
100
AcDbEntity
  8
図枠
  6
Continuous
 62
     7
100
AcDbLine
 10
1691.733279171621
 20
559.1470928187034
 30
0.0
 11
1758.733279171622
 21
559.1470928187034
 31
0.0
  0
LINE
  5
6C58
330
1E
100
AcDbEntity
  8
図枠
  6
Continuous
 62
     7
100
AcDbLine
 10
1691.733279171621
 20
643.1470928187036
 30
0.0
 11
1758.733279171622
 21
643.1470928187036
 31
0.0
  0
LINE
  5
6C59
330
1E
100
AcDbEntity
  8
図枠
  6
Continuous
 62
     7
100
AcDbLine
 10
1691.733279171621
 20
655.1470928187036
 30
0.0
 11
1758.733279171622
 21
655.1470928187036
 31
0.0
  0
LINE
  5
6C5A
330
1E
100
AcDbEntity
  8
図枠
  6
Continuous
 62
     7
100
AcDbLine
 10
1691.733279171621
 20
667.1470928187036
 30
0.0
 11
1758.733279171622
 21
667.1470928187036
 31
0.0
  0
LINE
  5
6C5B
330
1E
100
AcDbEntity
  8
図枠
  6
Continuous
 62
     7
100
AcDbLine
 10
1691.733279171621
 20
679.1470928187036
 30
0.0
 11
1758.733279171622
 21
679.1470928187036
 31
0.0
  0
LINE
  5
6C5C
330
1E
100
AcDbEntity
  8
図枠
  6
Continuous
 62
     7
100
AcDbLine
 10
1691.733279171621
 20
691.1470928187036
 30
0.0
 11
1758.733279171622
 21
691.1470928187036
 31
0.0
  0
LINE
  5
6C5D
330
1E
100
AcDbEntity
  8
図枠
  6
Continuous
 62
     7
100
AcDbLine
 10
1691.733279171621
 20
607.1470928187036
 30
0.0
 11
1758.733279171622
 21
607.1470928187036
 31
0.0
  0
LINE
  5
6C5E
330
1E
100
AcDbEntity
  8
図枠
  6
Continuous
 62
     7
100
AcDbLine
 10
1691.733279171621
 20
703.1470928187034
 30
0.0
 11
1758.733279171622
 21
703.1470928187034
 31
0.0
  0
TEXT
  5
6C5F
330
1E
100
AcDbEntity
  8
図枠
 62
     7
100
AcDbText
 10
1680.733279171622
 20
538.1470928187036
 30
0.0
 40
5.0
  1
枚
100
AcDbText
  0
TEXT
  5
6C60
330
1E
100
AcDbEntity
  8
図枠
 62
     7
100
AcDbText
 10
1680.733279171622
 20
550.1470928187036
 30
0.0
 40
5.0
  1
〃
100
AcDbText
  0
TEXT
  5
6C61
330
1E
100
AcDbEntity
  8
図枠
 62
     7
100
AcDbText
 10
1680.733279171622
 20
562.1470928187036
 30
0.0
 40
5.0
  1
〃
100
AcDbText
  0
TEXT
  5
6C62
330
1E
100
AcDbEntity
  8
図枠
 62
     7
100
AcDbText
 10
1680.733279171622
 20
574.1470928187036
 30
0.0
 40
5.0
  1
本
100
AcDbText
  0
TEXT
  5
6C63
330
1E
100
AcDbEntity
  8
図枠
 62
     7
100
AcDbText
 10
1680.733279171622
 20
586.1470928187036
 30
0.0
 40
5.0
  1
〃
100
AcDbText
  0
TEXT
  5
6C64
330
1E
100
AcDbEntity
  8
図枠
 62
     7
100
AcDbText
 10
1680.733279171622
 20
598.1470928187036
 30
0.0
 40
5.0
  1
枚
100
AcDbText
  0
TEXT
  5
6C65
330
1E
100
AcDbEntity
  8
図枠
 62
     7
100
AcDbText
 10
1680.733279171622
 20
610.1470928187036
 30
0.0
 40
5.0
  1
〃
100
AcDbText
  0
TEXT
  5
6C66
330
1E
100
AcDbEntity
  8
図枠
 62
     7
100
AcDbText
 10
1680.733279171622
 20
622.1470928187036
 30
0.0
 40
5.0
  1
〃
100
AcDbText
  0
TEXT
  5
6C67
330
1E
100
AcDbEntity
  8
図枠
 62
     7
100
AcDbText
 10
1680.733279171622
 20
634.1470928187036
 30
0.0
 40
5.0
  1
〃
100
AcDbText
  0
TEXT
  5
6C68
330
1E
100
AcDbEntity
  8
図枠
 62
     7
100
AcDbText
 10
1680.733279171622
 20
646.1470928187036
 30
0.0
 40
5.0
  1
個
100
AcDbText
  0
TEXT
  5
6C69
330
1E
100
AcDbEntity
  8
図枠
 62
     7
100
AcDbText
 10
1680.733279171622
 20
658.1470928187036
 30
0.0
 40
5.0
  1
〃
100
AcDbText
  0
TEXT
  5
6C6A
330
1E
100
AcDbEntity
  8
図枠
 62
     7
100
AcDbText
 10
1680.733279171622
 20
670.1470928187036
 30
0.0
 40
5.0
  1
〃
100
AcDbText
  0
TEXT
  5
6C6B
330
1E
100
AcDbEntity
  8
図枠
 62
     7
100
AcDbText
 10
1680.733279171622
 20
682.1470928187034
 30
0.0
 40
5.0
  1
本
100
AcDbText
  0
TEXT
  5
6C6C
330
1E
100
AcDbEntity
  8
図枠
 62
     7
100
AcDbText
 10
1748.733279171622
 20
538.1470928187036
 30
0.0
 40
5.0
  1
枚
100
AcDbText
  0
TEXT
  5
6C6D
330
1E
100
AcDbEntity
  8
図枠
 62
     7
100
AcDbText
 10
1748.733279171622
 20
550.1470928187036
 30
0.0
 40
5.0
  1
〃
100
AcDbText
  0
TEXT
  5
6C6E
330
1E
100
AcDbEntity
  8
図枠
 62
     7
100
AcDbText
 10
1748.733279171622
 20
562.1470928187036
 30
0.0
 40
5.0
  1
〃
100
AcDbText
  0
TEXT
  5
6C6F
330
1E
100
AcDbEntity
  8
図枠
 62
     7
100
AcDbText
 10
1748.733279171622
 20
574.1470928187036
 30
0.0
 40
5.0
  1
本
100
AcDbText
  0
TEXT
  5
6C70
330
1E
100
AcDbEntity
  8
図枠
 62
     7
100
AcDbText
 10
1748.733279171622
 20
586.1470928187036
 30
0.0
 40
5.0
  1
〃
100
AcDbText
  0
TEXT
  5
6C71
330
1E
100
AcDbEntity
  8
図枠
 62
     7
100
AcDbText
 10
1748.733279171622
 20
598.1470928187036
 30
0.0
 40
5.0
  1
枚
100
AcDbText
  0
TEXT
  5
6C72
330
1E
100
AcDbEntity
  8
図枠
 62
     7
100
AcDbText
 10
1748.733279171622
 20
610.1470928187036
 30
0.0
 40
5.0
  1
〃
100
AcDbText
  0
TEXT
  5
6C73
330
1E
100
AcDbEntity
  8
図枠
 62
     7
100
AcDbText
 10
1748.733279171622
 20
622.1470928187036
 30
0.0
 40
5.0
  1
〃
100
AcDbText
  0
TEXT
  5
6C74
330
1E
100
AcDbEntity
  8
図枠
 62
     7
100
AcDbText
 10
1748.733279171622
 20
634.1470928187036
 30
0.0
 40
5.0
  1
〃
100
AcDbText
  0
TEXT
  5
6C75
330
1E
100
AcDbEntity
  8
図枠
 62
     7
100
AcDbText
 10
1748.733279171622
 20
646.1470928187036
 30
0.0
 40
5.0
  1
個
100
AcDbText
  0
TEXT
  5
6C76
330
1E
100
AcDbEntity
  8
図枠
 62
     7
100
AcDbText
 10
1748.733279171622
 20
658.1470928187036
 30
0.0
 40
5.0
  1
〃
100
AcDbText
  0
TEXT
  5
6C77
330
1E
100
AcDbEntity
  8
図枠
 62
     7
100
AcDbText
 10
1748.733279171622
 20
670.1470928187036
 30
0.0
 40
5.0
  1
〃
100
AcDbText
  0
TEXT
  5
6C78
330
1E
100
AcDbEntity
  8
図枠
 62
     7
100
AcDbText
 10
1748.733279171622
 20
682.1470928187034
 30
0.0
 40
5.0
  1
本
100
AcDbText
  0
TEXT
  5
6C79
330
1E
100
AcDbEntity
  8
図枠
 62
     7
100
AcDbText
 10
1745.233279171621
 20
694.1470928187036
 30
0.0
 40
5.0
  1
単位
100
AcDbText
  0
TEXT
  5
6C7A
330
1E
100
AcDbEntity
  8
図枠
 62
     7
100
AcDbText
 10
1677.233279171622
 20
694.1470928187036
 30
0.0
 40
5.0
  1
単位
100
AcDbText
  0
TEXT
  5
6C7B
330
1E
100
AcDbEntity
  8
図枠
 62
     7
100
AcDbText
 10
1634.483279171621
 20
586.1470928187036
 30
0.0
 40
5.0
  1
3100
100
AcDbText
  0
TEXT
  5
6C7C
330
1E
100
AcDbEntity
  8
図枠
 62
     7
100
AcDbText
 10
1634.483279171621
 20
598.1470928187036
 30
0.0
 40
5.0
  1
3060
100
AcDbText
  0
TEXT
  5
6C7D
330
1E
100
AcDbEntity
  8
図枠
 62
     7
100
AcDbText
 10
1634.483279171621
 20
658.1470928187036
 30
0.0
 40
5.0
  1
3010
100
AcDbText
  0
TEXT
  5
6C7E
330
1E
100
AcDbEntity
  8
図枠
 62
     7
100
AcDbText
 10
1634.483279171621
 20
670.1470928187036
 30
0.0
 40
5.0
  1
3000
100
AcDbText
  0
TEXT
  5
6C7F
330
1E
100
AcDbEntity
  8
図枠
 62
     7
100
AcDbText
 10
1702.483279171621
 20
586.1470928187036
 30
0.0
 40
5.0
  1
2100
100
AcDbText
  0
TEXT
  5
6C80
330
1E
100
AcDbEntity
  8
図枠
 62
     7
100
AcDbText
 10
1702.483279171621
 20
598.1470928187036
 30
0.0
 40
5.0
  1
2060
100
AcDbText
  0
TEXT
  5
6C81
330
1E
100
AcDbEntity
  8
図枠
 62
     7
100
AcDbText
 10
1702.483279171621
 20
658.1470928187036
 30
0.0
 40
5.0
  1
2010
100
AcDbText
  0
TEXT
  5
6C82
330
1E
100
AcDbEntity
  8
図枠
 62
     7
100
AcDbText
 10
1702.483279171621
 20
670.1470928187036
 30
0.0
 40
5.0
  1
2000
100
AcDbText
  0
TEXT
  5
6C83
330
1E
100
AcDbEntity
  8
図枠
 62
     7
100
AcDbText
 10
1702.483279171621
 20
682.1470928187034
 30
0.0
 40
5.0
  1
2000
100
AcDbText
  0
TEXT
  5
6C84
330
1E
100
AcDbEntity
  8
図枠
 62
     7
100
AcDbText
 10
1695.483279171622
 20
694.1470928187036
 30
0.0
 40
5.0
  1
定尺(mm)
100
AcDbText
  0
TEXT
  5
6C85
330
1E
100
AcDbEntity
  8
図枠
 62
     7
100
AcDbText
 10
1634.483279171621
 20
682.1470928187034
 30
0.0
 40
5.0
  1
3000
100
AcDbText
  0
TEXT
  5
6C86
330
1E
100
AcDbEntity
  8
図枠
 62
     7
100
AcDbText
 10
1661.233279171622
 20
694.1470928187036
 30
0.0
 40
5.0
  1
入数
100
AcDbText
  0
TEXT
  5
6C87
330
1E
100
AcDbEntity
  8
図枠
 62
     7
100
AcDbText
 10
1664.483279171621
 20
682.1470928187034
 30
0.0
 40
5.0
  1
 1
100
AcDbText
  0
TEXT
  5
6C88
330
1E
100
AcDbEntity
  8
図枠
 62
     7
100
AcDbText
 10
1664.483279171621
 20
670.1470928187036
 30
0.0
 40
5.0
  1
 2
100
AcDbText
  0
TEXT
  5
6C89
330
1E
100
AcDbEntity
  8
図枠
 62
     7
100
AcDbText
 10
1664.483279171621
 20
658.1470928187036
 30
0.0
 40
5.0
  1
 2
100
AcDbText
  0
TEXT
  5
6C8A
330
1E
100
AcDbEntity
  8
図枠
 62
     7
100
AcDbText
 10
1664.483279171621
 20
646.1470928187036
 30
0.0
 40
5.0
  1
 6
100
AcDbText
  0
TEXT
  5
6C8B
330
1E
100
AcDbEntity
  8
図枠
 62
     7
100
AcDbText
 10
1664.483279171621
 20
634.1470928187036
 30
0.0
 40
5.0
  1
12
100
AcDbText
  0
TEXT
  5
6C8C
330
1E
100
AcDbEntity
  8
図枠
 62
     7
100
AcDbText
 10
1664.483279171621
 20
622.1470928187036
 30
0.0
 40
5.0
  1
12
100
AcDbText
  0
TEXT
  5
6C8D
330
1E
100
AcDbEntity
  8
図枠
 62
     7
100
AcDbText
 10
1664.483279171621
 20
610.1470928187036
 30
0.0
 40
5.0
  1
 1
100
AcDbText
  0
TEXT
  5
6C8E
330
1E
100
AcDbEntity
  8
図枠
 62
     7
100
AcDbText
 10
1664.483279171621
 20
598.1470928187036
 30
0.0
 40
5.0
  1
 2
100
AcDbText
  0
TEXT
  5
6C8F
330
1E
100
AcDbEntity
  8
図枠
 62
     7
100
AcDbText
 10
1664.483279171621
 20
574.1470928187036
 30
0.0
 40
5.0
  1
12
100
AcDbText
  0
TEXT
  5
6C90
330
1E
100
AcDbEntity
  8
図枠
 62
     7
100
AcDbText
 10
1664.483279171621
 20
562.1470928187036
 30
0.0
 40
5.0
  1
12
100
AcDbText
  0
TEXT
  5
6C91
330
1E
100
AcDbEntity
  8
図枠
 62
     7
100
AcDbText
 10
1664.483279171621
 20
550.1470928187036
 30
0.0
 40
5.0
  1
12
100
AcDbText
  0
TEXT
  5
6C92
330
1E
100
AcDbEntity
  8
図枠
 62
     7
100
AcDbText
 10
1664.483279171621
 20
538.1470928187036
 30
0.0
 40
5.0
  1
12
100
AcDbText
  0
TEXT
  5
6C93
330
1E
100
AcDbEntity
  8
図枠
 62
     7
100
AcDbText
 10
1732.483279171622
 20
538.1470928187036
 30
0.0
 40
5.0
  1
10
100
AcDbText
  0
TEXT
  5
6C94
330
1E
100
AcDbEntity
  8
図枠
 62
     7
100
AcDbText
 10
1732.483279171622
 20
550.1470928187036
 30
0.0
 40
5.0
  1
10
100
AcDbText
  0
TEXT
  5
6C95
330
1E
100
AcDbEntity
  8
図枠
 62
     7
100
AcDbText
 10
1732.483279171622
 20
562.1470928187036
 30
0.0
 40
5.0
  1
10
100
AcDbText
  0
TEXT
  5
6C96
330
1E
100
AcDbEntity
  8
図枠
 62
     7
100
AcDbText
 10
1732.483279171622
 20
574.1470928187036
 30
0.0
 40
5.0
  1
 8
100
AcDbText
  0
TEXT
  5
6C97
330
1E
100
AcDbEntity
  8
図枠
 62
     7
100
AcDbText
 10
1732.483279171622
 20
586.1470928187036
 30
0.0
 40
5.0
  1
 1
100
AcDbText
  0
TEXT
  5
6C98
330
1E
100
AcDbEntity
  8
図枠
 62
     7
100
AcDbText
 10
1732.483279171622
 20
598.1470928187036
 30
0.0
 40
5.0
  1
 2
100
AcDbText
  0
TEXT
  5
6C99
330
1E
100
AcDbEntity
  8
図枠
 62
     7
100
AcDbText
 10
1732.483279171622
 20
610.1470928187036
 30
0.0
 40
5.0
  1
 1
100
AcDbText
  0
TEXT
  5
6C9A
330
1E
100
AcDbEntity
  8
図枠
 62
     7
100
AcDbText
 10
1732.483279171622
 20
622.1470928187036
 30
0.0
 40
5.0
  1
 8
100
AcDbText
  0
TEXT
  5
6C9B
330
1E
100
AcDbEntity
  8
図枠
 62
     7
100
AcDbText
 10
1732.483279171622
 20
634.1470928187036
 30
0.0
 40
5.0
  1
 8
100
AcDbText
  0
TEXT
  5
6C9C
330
1E
100
AcDbEntity
  8
図枠
 62
     7
100
AcDbText
 10
1732.483279171622
 20
646.1470928187036
 30
0.0
 40
5.0
  1
 4
100
AcDbText
  0
TEXT
  5
6C9D
330
1E
100
AcDbEntity
  8
図枠
 62
     7
100
AcDbText
 10
1732.483279171622
 20
658.1470928187036
 30
0.0
 40
5.0
  1
 2
100
AcDbText
  0
TEXT
  5
6C9E
330
1E
100
AcDbEntity
  8
図枠
 62
     7
100
AcDbText
 10
1732.483279171622
 20
670.1470928187036
 30
0.0
 40
5.0
  1
 2
100
AcDbText
  0
TEXT
  5
6C9F
330
1E
100
AcDbEntity
  8
図枠
 62
     7
100
AcDbText
 10
1732.483279171622
 20
682.1470928187034
 30
0.0
 40
5.0
  1
 1
100
AcDbText
  0
TEXT
  5
6CA0
330
1E
100
AcDbEntity
  8
図枠
 62
     7
100
AcDbText
 10
1729.233279171621
 20
694.1470928187036
 30
0.0
 40
5.0
  1
入数
100
AcDbText
  0
LINE
  5
6CA1
330
1E
100
AcDbEntity
  8
図枠
  6
Continuous
 62
     7
100
AcDbLine
 10
1622.733279171621
 20
523.1470928187036
 30
0.0
 11
1413.733279171621
 21
523.1470928187036
 31
0.0
  0
LINE
  5
6CA2
330
1E
100
AcDbEntity
  8
図枠
  6
Continuous
 62
     7
100
AcDbLine
 10
1622.733279171621
 20
655.1470928187036
 30
0.0
 11
1413.733279171621
 21
655.1470928187036
 31
0.0
  0
LINE
  5
6CA3
330
1E
100
AcDbEntity
  8
図枠
  6
Continuous
 62
     7
100
AcDbLine
 10
1622.733279171621
 20
667.1470928187036
 30
0.0
 11
1413.733279171621
 21
667.1470928187036
 31
0.0
  0
LINE
  5
6CA4
330
1E
100
AcDbEntity
  8
図枠
  6
Continuous
 62
     7
100
AcDbLine
 10
1622.733279171621
 20
679.1470928187036
 30
0.0
 11
1413.733279171621
 21
679.1470928187036
 31
0.0
  0
LINE
  5
6CA5
330
1E
100
AcDbEntity
  8
図枠
  6
Continuous
 62
     7
100
AcDbLine
 10
1622.733279171621
 20
691.1470928187036
 30
0.0
 11
1413.733279171621
 21
691.1470928187036
 31
0.0
  0
LINE
  5
6CA6
330
1E
100
AcDbEntity
  8
図枠
  6
Continuous
 62
     7
100
AcDbLine
 10
1622.733279171621
 20
571.1470928187036
 30
0.0
 11
1413.733279171621
 21
571.1470928187036
 31
0.0
  0
LINE
  5
6CA7
330
1E
100
AcDbEntity
  8
図枠
  6
Continuous
 62
     7
100
AcDbLine
 10
1622.733279171621
 20
583.1470928187036
 30
0.0
 11
1413.733279171621
 21
583.1470928187036
 31
0.0
  0
LINE
  5
6CA8
330
1E
100
AcDbEntity
  8
図枠
  6
Continuous
 62
     7
100
AcDbLine
 10
1622.733279171621
 20
607.1470928187036
 30
0.0
 11
1413.733279171621
 21
607.1470928187036
 31
0.0
  0
LINE
  5
6CA9
330
1E
100
AcDbEntity
  8
図枠
  6
Continuous
 62
     7
100
AcDbLine
 10
1622.733279171621
 20
619.1470928187036
 30
0.0
 11
1413.733279171621
 21
619.1470928187036
 31
0.0
  0
LINE
  5
6CAA
330
1E
100
AcDbEntity
  8
図枠
  6
Continuous
 62
     7
100
AcDbLine
 10
1622.733279171621
 20
631.1470928187036
 30
0.0
 11
1413.733279171621
 21
631.1470928187036
 31
0.0
  0
LINE
  5
6CAB
330
1E
100
AcDbEntity
  8
図枠
  6
Continuous
 62
     7
100
AcDbLine
 10
1622.733279171621
 20
643.1470928187036
 30
0.0
 11
1413.733279171621
 21
643.1470928187036
 31
0.0
  0
LINE
  5
6CAC
330
1E
100
AcDbEntity
  8
図枠
  6
Continuous
 62
     7
100
AcDbLine
 10
1622.733279171621
 20
595.1470928187036
 30
0.0
 11
1413.733279171621
 21
595.1470928187036
 31
0.0
  0
LINE
  5
6CAD
330
1E
100
AcDbEntity
  8
図枠
  6
Continuous
 62
     7
100
AcDbLine
 10
1622.733279171621
 20
535.1470928187036
 30
0.0
 11
1413.733279171621
 21
535.1470928187036
 31
0.0
  0
LINE
  5
6CAE
330
1E
100
AcDbEntity
  8
図枠
  6
Continuous
 62
     7
100
AcDbLine
 10
1622.733279171621
 20
547.1470928187036
 30
0.0
 11
1413.733279171621
 21
547.1470928187036
 31
0.0
  0
LINE
  5
6CAF
330
1E
100
AcDbEntity
  8
図枠
  6
Continuous
 62
     7
100
AcDbLine
 10
1622.733279171621
 20
559.1470928187034
 30
0.0
 11
1413.733279171621
 21
559.1470928187034
 31
0.0
  0
LINE
  5
6CB0
330
1E
100
AcDbEntity
  8
図枠
  6
Continuous
 62
     7
100
AcDbLine
 10
1622.733279171621
 20
703.1470928187034
 30
0.0
 11
1413.733279171621
 21
703.1470928187034
 31
0.0
  0
TEXT
  5
6CB1
330
1E
100
AcDbEntity
  8
図枠
 62
     7
100
AcDbText
 10
1417.483279171621
 20
538.1470928187036
 30
0.0
 40
5.0
  1
13
100
AcDbText
  0
TEXT
  5
6CB2
330
1E
100
AcDbEntity
  8
図枠
 62
     7
100
AcDbText
 10
1417.483279171621
 20
550.1470928187036
 30
0.0
 40
5.0
  1
12
100
AcDbText
  0
TEXT
  5
6CB3
330
1E
100
AcDbEntity
  8
図枠
 62
     7
100
AcDbText
 10
1417.483279171621
 20
562.1470928187036
 30
0.0
 40
5.0
  1
11
100
AcDbText
  0
TEXT
  5
6CB4
330
1E
100
AcDbEntity
  8
図枠
 62
     7
100
AcDbText
 10
1417.483279171621
 20
574.1470928187036
 30
0.0
 40
5.0
  1
10
100
AcDbText
  0
TEXT
  5
6CB5
330
1E
100
AcDbEntity
  8
図枠
 62
     7
100
AcDbText
 10
1417.483279171621
 20
586.1470928187036
 30
0.0
 40
5.0
  1
 9
100
AcDbText
  0
TEXT
  5
6CB6
330
1E
100
AcDbEntity
  8
図枠
 62
     7
100
AcDbText
 10
1417.483279171621
 20
598.1470928187036
 30
0.0
 40
5.0
  1
 8
100
AcDbText
  0
TEXT
  5
6CB7
330
1E
100
AcDbEntity
  8
図枠
 62
     7
100
AcDbText
 10
1417.483279171621
 20
610.1470928187036
 30
0.0
 40
5.0
  1
 7
100
AcDbText
  0
TEXT
  5
6CB8
330
1E
100
AcDbEntity
  8
図枠
 62
     7
100
AcDbText
 10
1417.483279171621
 20
622.1470928187036
 30
0.0
 40
5.0
  1
 6
100
AcDbText
  0
TEXT
  5
6CB9
330
1E
100
AcDbEntity
  8
図枠
 62
     7
100
AcDbText
 10
1417.483279171621
 20
634.1470928187036
 30
0.0
 40
5.0
  1
 5
100
AcDbText
  0
TEXT
  5
6CBA
330
1E
100
AcDbEntity
  8
図枠
 62
     7
100
AcDbText
 10
1417.483279171621
 20
646.1470928187036
 30
0.0
 40
5.0
  1
 4
100
AcDbText
  0
TEXT
  5
6CBB
330
1E
100
AcDbEntity
  8
図枠
 62
     7
100
AcDbText
 10
1417.483279171621
 20
658.1470928187036
 30
0.0
 40
5.0
  1
 3
100
AcDbText
  0
TEXT
  5
6CBC
330
1E
100
AcDbEntity
  8
図枠
 62
     7
100
AcDbText
 10
1417.483279171621
 20
670.1470928187036
 30
0.0
 40
5.0
  1
 2
100
AcDbText
  0
TEXT
  5
6CBD
330
1E
100
AcDbEntity
  8
図枠
 62
     7
100
AcDbText
 10
1415.733279171621
 20
694.1470928187036
 30
0.0
 40
5.0
  1
No.
100
AcDbText
  0
TEXT
  5
6CBE
330
1E
100
AcDbEntity
  8
図枠
 62
     7
100
AcDbText
 10
1417.483279171621
 20
682.1470928187034
 30
0.0
 40
5.0
  1
 1
100
AcDbText
  0
TEXT
  5
6CBF
330
1E
100
AcDbEntity
  8
図枠
 62
     7
100
AcDbText
 10
1532.733279171621
 20
526.1470928187035
 30
0.0
 40
5.0
  1
ｔ1.0×ｗ30
100
AcDbText
  0
TEXT
  5
6CC0
330
1E
100
AcDbEntity
  8
図枠
 62
     7
100
AcDbText
 10
1432.733279171621
 20
526.1470928187035
 30
0.0
 40
5.0
  1
ブチルテープ
100
AcDbText
  0
TEXT
  5
6CC1
330
1E
100
AcDbEntity
  8
図枠
 62
     7
100
AcDbText
 10
1680.733279171622
 20
526.1470928187035
 30
0.0
 40
5.0
  1
巻
100
AcDbText
  0
TEXT
  5
6CC2
330
1E
100
AcDbEntity
  8
図枠
 62
     7
100
AcDbText
 10
1748.733279171622
 20
526.1470928187035
 30
0.0
 40
5.0
  1
巻
100
AcDbText
  0
TEXT
  5
6CC3
330
1E
100
AcDbEntity
  8
図枠
 62
     7
100
AcDbText
 10
1634.483279171621
 20
526.1470928187035
 30
0.0
 40
5.0
  1
6000
100
AcDbText
  0
TEXT
  5
6CC4
330
1E
100
AcDbEntity
  8
図枠
 62
     7
100
AcDbText
 10
1702.483279171621
 20
526.1470928187035
 30
0.0
 40
5.0
  1
6000
100
AcDbText
  0
TEXT
  5
6CC5
330
1E
100
AcDbEntity
  8
図枠
 62
     7
100
AcDbText
 10
1664.483279171621
 20
526.1470928187035
 30
0.0
 40
5.0
  1
 1
100
AcDbText
  0
TEXT
  5
6CC6
330
1E
100
AcDbEntity
  8
図枠
 62
     7
100
AcDbText
 10
1732.483279171622
 20
526.1470928187035
 30
0.0
 40
5.0
  1
 1
100
AcDbText
  0
TEXT
  5
6CC7
330
1E
100
AcDbEntity
  8
図枠
 62
     7
100
AcDbText
 10
1417.733279171622
 20
526.1470928187035
 30
0.0
 40
5.0
  1
※
100
AcDbText
  0
LINE
  5
6CC8
330
1E
100
AcDbEntity
  8
図枠
  6
Continuous
 62
     7
100
AcDbLine
 10
1758.733279171622
 20
523.1470928187036
 30
0.0
 11
1758.733279171622
 21
703.1470928187034
 31
0.0
  0
LINE
  5
6CC9
330
1E
100
AcDbEntity
  8
図枠
  6
Continuous
 62
     7
100
AcDbLine
 10
1413.733279171621
 20
523.1470928187036
 30
0.0
 11
1413.733279171621
 21
703.1470928187034
 31
0.0
  0
LINE
  5
6CCA
330
1E
100
AcDbEntity
  8
図枠
  6
Continuous
 62
     7
100
AcDbLine
 10
1676.733279171621
 20
523.1470928187036
 30
0.0
 11
1676.733279171621
 21
703.1470928187034
 31
0.0
  0
LINE
  5
6CCB
330
1E
100
AcDbEntity
  8
図枠
  6
Continuous
 62
     7
100
AcDbLine
 10
1658.733279171621
 20
523.1470928187036
 30
0.0
 11
1658.733279171621
 21
703.1470928187034
 31
0.0
  0
LINE
  5
6CCC
330
1E
100
AcDbEntity
  8
図枠
  6
Continuous
 62
     7
100
AcDbLine
 10
1623.733279171621
 20
523.1470928187036
 30
0.0
 11
1623.733279171621
 21
703.1470928187034
 31
0.0
  0
LINE
  5
6CCD
330
1E
100
AcDbEntity
  8
図枠
  6
Continuous
 62
     7
100
AcDbLine
 10
1622.733279171621
 20
523.1470928187036
 30
0.0
 11
1622.733279171621
 21
703.1470928187034
 31
0.0
  0
LINE
  5
6CCE
330
1E
100
AcDbEntity
  8
図枠
  6
Continuous
 62
     7
100
AcDbLine
 10
1527.733279171622
 20
523.1470928187036
 30
0.0
 11
1527.733279171622
 21
703.1470928187034
 31
0.0
  0
LINE
  5
6CCF
330
1E
100
AcDbEntity
  8
図枠
  6
Continuous
 62
     7
100
AcDbLine
 10
1427.733279171621
 20
523.1470928187036
 30
0.0
 11
1427.733279171621
 21
703.1470928187034
 31
0.0
  0
LINE
  5
6CD0
330
1E
100
AcDbEntity
  8
図枠
  6
Continuous
 62
     7
100
AcDbLine
 10
1744.733279171622
 20
523.1470928187036
 30
0.0
 11
1744.733279171622
 21
703.1470928187034
 31
0.0
  0
LINE
  5
6CD1
330
1E
100
AcDbEntity
  8
図枠
  6
Continuous
 62
     7
100
AcDbLine
 10
1726.733279171622
 20
523.1470928187036
 30
0.0
 11
1726.733279171622
 21
703.1470928187034
 31
0.0
  0
LINE
  5
6CD2
330
1E
100
AcDbEntity
  8
図枠
  6
Continuous
 62
     7
100
AcDbLine
 10
1691.733279171621
 20
523.1470928187036
 30
0.0
 11
1691.733279171621
 21
703.1470928187034
 31
0.0
  0
LINE
  5
6CD3
330
1E
100
AcDbEntity
  8
図枠
  6
Continuous
 62
     7
100
AcDbLine
 10
1690.733279171622
 20
523.1470928187036
 30
0.0
 11
1690.733279171622
 21
703.1470928187034
 31
0.0
  0
TEXT
  5
6CD4
330
1E
100
AcDbEntity
  8
図枠
 62
     7
100
AcDbText
 10
1627.483279171621
 20
694.1470928187036
 30
0.0
 40
5.0
  1
定尺(mm)
100
AcDbText
  0
TEXT
  5
6CD5
330
1E
100
AcDbEntity
  8
図枠
 62
     7
100
AcDbText
 10
1532.733279171621
 20
586.1470928187036
 30
0.0
 40
5.0
  1
ＦＳ400～700
100
AcDbText
  0
TEXT
  5
6CD6
330
1E
100
AcDbEntity
  8
図枠
 62
     7
100
AcDbText
 10
1532.733279171621
 20
682.1470928187034
 30
0.0
 40
5.0
  1
150ＦＹＹ－Ａ500～900
100
AcDbText
  0
TEXT
  5
6CD7
330
1E
100
AcDbEntity
  8
図枠
 62
     7
100
AcDbText
 10
1532.733279171621
 20
646.1470928187036
 30
0.0
 40
5.0
  1
150ＦＹＹＨ－500～900
100
AcDbText
  0
TEXT
  5
6CD8
330
1E
100
AcDbEntity
  8
図枠
 62
     7
100
AcDbText
 10
1532.733279171621
 20
610.1470928187036
 30
0.0
 40
5.0
  1
150ＦＹＹＪ－500～900
100
AcDbText
  0
TEXT
  5
6CD9
330
1E
100
AcDbEntity
  8
図枠
 62
     7
100
AcDbText
 10
1664.483279171621
 20
586.1470928187036
 30
0.0
 40
5.0
  1
 1
100
AcDbText
  0
LINE
  5
6CDA
330
1E
100
AcDbEntity
  8
図枠
  6
Continuous
 62
     7
100
AcDbLine
 10
2075.733279171622
 20
1062.147092818703
 30
0.0
 11
1251.733279171622
 21
1062.147092818703
 31
0.0
  0
LINE
  5
6CDB
330
1E
100
AcDbEntity
  8
図枠
  6
Continuous
 62
     7
100
AcDbLine
 10
1251.733279171622
 20
1062.147092818703
 30
0.0
 11
1251.733279171622
 21
486.1470928187036
 31
0.0
  0
LINE
  5
6CDC
330
1E
100
AcDbEntity
  8
図枠
  6
Continuous
 62
     7
100
AcDbLine
 10
2075.733279171622
 20
486.1470928187036
 30
0.0
 11
2075.733279171622
 21
1062.147092818703
 31
0.0
  0
LINE
  5
6CDD
330
1E
100
AcDbEntity
  8
図枠
  6
Continuous
 62
     7
100
AcDbLine
 10
1251.733279171622
 20
486.1470928187036
 30
0.0
 11
2075.733279171622
 21
486.1470928187036
 31
0.0
  0
POINT
  5
6CDE
330
1E
100
AcDbEntity
  8
躯体と製品
 62
     4
100
AcDbPoint
 10
1363.733279171622
 20
835.2875096104765
 30
0.0
  0
POINT
  5
6CDF
330
1E
100
AcDbEntity
  8
躯体と製品
 62
     4
100
AcDbPoint
 10
1963.733279171622
 20
835.2875096104765
 30
0.0
  0
LINE
  5
6CE0
330
1E
100
AcDbEntity
  8
躯体と製品
  6
Continuous
 62
     3
100
AcDbLine
 10
1366.733279171622
 20
835.2875096104765
 30
0.0
 11
1373.733279171622
 21
835.2875096104765
 31
0.0
  0
LINE
  5
6CE1
330
1E
100
AcDbEntity
  8
躯体と製品
  6
Continuous
 62
     3
100
AcDbLine
 10
1363.733279171622
 20
922.440615910332
 30
0.0
 11
1363.733279171622
 21
838.2875096104765
 31
0.0
  0
LINE
  5
6CE2
330
1E
100
AcDbEntity
  8
躯体と製品
  6
Continuous
 62
     7
100
AcDbLine
 10
1656.243557660962
 20
936.3821825198076
 30
0.0
 11
1656.452901485934
 21
932.3876643807894
 31
0.0
  0
LINE
  5
6CE3
330
1E
100
AcDbEntity
  8
躯体と製品
  6
Continuous
 62
     7
100
AcDbLine
 10
1656.243557660962
 20
936.3821825198076
 30
0.0
 11
1663.733279171622
 21
936.7747021916297
 31
0.0
  0
LINE
  5
6CE4
330
1E
100
AcDbEntity
  8
躯体と製品
  6
Continuous
 62
     7
100
AcDbLine
 10
1671.223000682281
 20
936.3821825198076
 30
0.0
 11
1671.013656857309
 21
932.3876643807894
 31
0.0
  0
LINE
  5
6CE5
330
1E
100
AcDbEntity
  8
躯体と製品
  6
Continuous
 62
     7
100
AcDbLine
 10
1671.223000682281
 20
936.3821825198076
 30
0.0
 11
1663.733279171622
 21
936.7747021916297
 31
0.0
  0
LINE
  5
6CE6
330
1E
100
AcDbEntity
  8
躯体と製品
  6
Continuous
 62
     4
100
AcDbLine
 10
1671.175933707024
 20
935.4840911314466
 30
0.0
 11
1670.225569146907
 21
936.4344556915632
 31
0.0
  0
LINE
  5
6CE7
330
1E
100
AcDbEntity
  8
躯体と製品
  6
Continuous
 62
     4
100
AcDbLine
 10
1671.105508731368
 20
934.1403025447286
 30
0.0
 11
1668.733140725214
 21
936.5126705508828
 31
0.0
  0
LINE
  5
6CE8
330
1E
100
AcDbEntity
  8
躯体と製品
  6
Continuous
 62
     4
100
AcDbLine
 10
1671.035083755712
 20
932.7965139580113
 30
0.0
 11
1667.240712303521
 21
936.5908854102027
 31
0.0
  0
LINE
  5
6CE9
330
1E
100
AcDbEntity
  8
躯体と製品
  6
Continuous
 62
     4
100
AcDbLine
 10
1669.975301892761
 20
932.4420822585887
 30
0.0
 11
1665.748283881828
 21
936.6691002695226
 31
0.0
  0
LINE
  5
6CEA
330
1E
100
AcDbEntity
  8
躯体と製品
  6
Continuous
 62
     4
100
AcDbLine
 10
1668.482873471068
 20
932.5202971179084
 30
0.0
 11
1664.255855460134
 21
936.7473151288427
 31
0.0
  0
LINE
  5
6CEB
330
1E
100
AcDbEntity
  8
躯体と製品
  6
Continuous
 62
     4
100
AcDbLine
 10
1666.990445049375
 20
932.5985119772283
 30
0.0
 11
1662.860020388535
 21
936.7289366380685
 31
0.0
  0
LINE
  5
6CEC
330
1E
100
AcDbEntity
  8
躯体と製品
  6
Continuous
 62
     4
100
AcDbLine
 10
1665.498016627681
 20
932.6767268365481
 30
0.0
 11
1661.516231801817
 21
936.6585116624131
 31
0.0
  0
LINE
  5
6CED
330
1E
100
AcDbEntity
  8
躯体と製品
  6
Continuous
 62
     4
100
AcDbLine
 10
1664.00558820599
 20
932.7549416958687
 30
0.0
 11
1660.172443215101
 21
936.5880866867575
 31
0.0
  0
LINE
  5
6CEE
330
1E
100
AcDbEntity
  8
躯体と製品
  6
Continuous
 62
     4
100
AcDbLine
 10
1662.634678740748
 20
932.7116375987369
 30
0.0
 11
1658.828654628384
 21
936.5176617111014
 31
0.0
  0
LINE
  5
6CEF
330
1E
100
AcDbEntity
  8
躯体と製品
  6
Continuous
 62
     4
100
AcDbLine
 10
1657.00911302762
 20
936.9229897494909
 30
0.0
 11
1656.420527340242
 21
937.5115754368696
 31
0.0
  0
LINE
  5
6CF0
330
1E
100
AcDbEntity
  8
躯体と製品
  6
Continuous
 62
     4
100
AcDbLine
 10
1661.290890154031
 20
932.641212623081
 30
0.0
 11
1657.484866041666
 21
936.4472367354458
 31
0.0
  0
LINE
  5
6CF1
330
1E
100
AcDbEntity
  8
躯体と製品
  6
Continuous
 62
     4
100
AcDbLine
 10
1659.947101567314
 20
932.5707876474249
 30
0.0
 11
1656.249522494252
 21
936.2683667204866
 31
0.0
  0
LINE
  5
6CF2
330
1E
100
AcDbEntity
  8
躯体と製品
  6
Continuous
 62
     4
100
AcDbLine
 10
1658.603312980596
 20
932.5003626717691
 30
0.0
 11
1656.327737353572
 21
934.7759382987932
 31
0.0
  0
LINE
  5
6CF3
330
1E
100
AcDbEntity
  8
躯体と製品
  6
Continuous
 62
     4
100
AcDbLine
 10
1657.259524393878
 20
932.4299376961137
 30
0.0
 11
1656.405952212892
 21
933.2835098770999
 31
0.0
  0
LINE
  5
6CF4
330
1E
100
AcDbEntity
  8
躯体と製品
  6
Continuous
 62
     7
100
AcDbLine
 10
1671.104163367577
 20
938.6208070313307
 30
0.0
 11
1671.013656857309
 21
936.8938399377798
 31
0.0
  0
LINE
  5
6CF5
330
1E
100
AcDbEntity
  8
躯体と製品
  6
Continuous
 62
     4
100
AcDbLine
 10
1666.712335052154
 20
937.1192626615691
 30
0.0
 11
1664.884850295626
 21
938.9467474180976
 31
0.0
  0
LINE
  5
6CF6
330
1E
100
AcDbEntity
  8
躯体と製品
  6
Continuous
 62
     4
100
AcDbLine
 10
1671.092385227755
 20
938.39606673546
 30
0.0
 11
1670.854563982397
 21
938.6338879808183
 31
0.0
  0
LINE
  5
6CF7
330
1E
100
AcDbEntity
  8
躯体と製品
  6
Continuous
 62
     4
100
AcDbLine
 10
1671.021960252099
 20
937.0522781487439
 30
0.0
 11
1669.362135560705
 21
938.7121028401381
 31
0.0
  0
LINE
  5
6CF8
330
1E
100
AcDbEntity
  8
躯体と製品
  6
Continuous
 62
     4
100
AcDbLine
 10
1669.69719189554
 20
936.9628329429302
 30
0.0
 11
1667.869707139012
 21
938.7903176994578
 31
0.0
  0
LINE
  5
6CF9
330
1E
100
AcDbEntity
  8
躯体と製品
  6
Continuous
 62
     4
100
AcDbLine
 10
1668.204763473847
 20
937.0410478022495
 30
0.0
 11
1666.377278717319
 21
938.8685325587777
 31
0.0
  0
LINE
  5
6CFA
330
1E
100
AcDbEntity
  8
躯体と製品
  6
Continuous
 62
     4
100
AcDbLine
 10
1665.219906630461
 20
937.1974775208894
 30
0.0
 11
1663.426369882254
 21
938.9910142690959
 31
0.0
  0
LINE
  5
6CFB
330
1E
100
AcDbEntity
  8
躯体と製品
  6
Continuous
 62
     7
100
AcDbLine
 10
1656.362394975666
 20
938.6208070313307
 30
0.0
 11
1656.452901485934
 21
936.8938399377798
 31
0.0
  0
LINE
  5
6CFC
330
1E
100
AcDbEntity
  8
躯体と製品
  6
Continuous
 62
     4
100
AcDbLine
 10
1663.728055961206
 20
937.2751146277703
 30
0.0
 11
1662.082581295537
 21
938.92058929344
 31
0.0
  0
LINE
  5
6CFD
330
1E
100
AcDbEntity
  8
躯体と製品
  6
Continuous
 62
     4
100
AcDbLine
 10
1662.384267374489
 20
937.2046896521144
 30
0.0
 11
1660.738792708819
 21
938.8501643177846
 31
0.0
  0
LINE
  5
6CFE
330
1E
100
AcDbEntity
  8
躯体と製品
  6
Continuous
 62
     4
100
AcDbLine
 10
1661.040478787772
 20
937.1342646764583
 30
0.0
 11
1659.395004122101
 21
938.7797393421287
 31
0.0
  0
LINE
  5
6CFF
330
1E
100
AcDbEntity
  8
躯体と製品
  6
Continuous
 62
     4
100
AcDbLine
 10
1659.696690201055
 20
937.0638397008029
 30
0.0
 11
1658.051215535385
 21
938.7093143664731
 31
0.0
  0
LINE
  5
6D00
330
1E
100
AcDbEntity
  8
躯体と製品
  6
Continuous
 62
     4
100
AcDbLine
 10
1658.352901614338
 20
936.993414725147
 30
0.0
 11
1656.707426948668
 21
938.6388893908174
 31
0.0
  0
LINE
  5
6D01
330
1E
100
AcDbEntity
  8
躯体と製品
  6
Continuous
 62
     3
100
AcDbLine
 10
1393.451228517919
 20
917.1022722338141
 30
0.0
 11
1663.733279171622
 21
931.2671542886409
 31
0.0
  0
LINE
  5
6D02
330
1E
100
AcDbEntity
  8
躯体と製品
  6
Continuous
 62
     3
100
AcDbLine
 10
1393.372724583555
 20
918.6002165359459
 30
0.0
 11
1663.733279171622
 21
932.7692128076378
 31
0.0
  0
LINE
  5
6D03
330
1E
100
AcDbEntity
  8
躯体と製品
  6
DASHED1
 62
     4
100
AcDbLine
 10
1393.215716714826
 20
921.5961051402098
 30
0.0
 11
1663.733279171622
 21
935.7733298456318
 31
0.0
  0
LINE
  5
6D04
330
1E
100
AcDbEntity
  8
躯体と製品
  6
Continuous
 62
     3
100
AcDbLine
 10
1934.015329825324
 20
917.1022722338141
 30
0.0
 11
1663.733279171622
 21
931.2671542886409
 31
0.0
  0
LINE
  5
6D05
330
1E
100
AcDbEntity
  8
躯体と製品
  6
Continuous
 62
     3
100
AcDbLine
 10
1934.093833759689
 20
918.6002165359459
 30
0.0
 11
1663.733279171622
 21
932.7692128076378
 31
0.0
  0
LINE
  5
6D06
330
1E
100
AcDbEntity
  8
躯体と製品
  6
DASHED1
 62
     4
100
AcDbLine
 10
1934.250841628418
 20
921.5961051402098
 30
0.0
 11
1663.733279171622
 21
935.7733298456318
 31
0.0
  0
LINE
  5
6D07
330
1E
100
AcDbEntity
  8
躯体と製品
  6
Continuous
 62
     3
100
AcDbLine
 10
1934.329345562782
 20
923.0940494423416
 30
0.0
 11
1663.733279171622
 21
937.2753883646288
 31
0.0
  0
LINE
  5
6D08
330
1E
100
AcDbEntity
  8
躯体と製品
  6
Continuous
 62
     3
100
AcDbLine
 10
1366.680943215379
 20
923.4392454450865
 30
0.0
 11
1663.733279171622
 21
939.0070987033931
 31
0.0
  0
LINE
  5
6D09
330
1E
100
AcDbEntity
  8
躯体と製品
  6
Continuous
 62
     3
100
AcDbLine
 10
1366.576271302893
 20
925.4365045145956
 30
0.0
 11
1663.733279171622
 21
941.0098433953887
 31
0.0
  0
LINE
  5
6D0A
330
1E
100
AcDbEntity
  8
躯体と製品
  6
Continuous
 62
     3
100
AcDbLine
 10
1960.785615127864
 20
923.4392454450865
 30
0.0
 11
1663.733279171622
 21
939.0070987033931
 31
0.0
  0
LINE
  5
6D0B
330
1E
100
AcDbEntity
  8
躯体と製品
  6
Continuous
 62
     3
100
AcDbLine
 10
1960.890287040351
 20
925.4365045145956
 30
0.0
 11
1663.733279171622
 21
941.0098433953887
 31
0.0
  0
ARC
  5
6D0C
330
1E
100
AcDbEntity
  8
躯体と製品
  6
Continuous
 62
     7
100
AcDbCircle
 10
1413.262416538622
 20
860.2101176630274
 30
0.0
 40
21.92619920455546
100
AcDbArc
 50
184.9999999999994
 51
355.0000000000006
  0
LINE
  5
6D0D
330
1E
100
AcDbEntity
  8
躯体と製品
  6
Continuous
 62
     7
100
AcDbLine
 10
1389.357421704809
 20
881.8705366702465
 30
0.0
 11
1391.41965314174
 21
858.299123485721
 31
0.0
  0
LINE
  5
6D0E
330
1E
100
AcDbEntity
  8
躯体と製品
  6
Continuous
 62
     7
100
AcDbLine
 10
1436.769449549337
 20
877.3218122177379
 30
0.0
 11
1435.105179935504
 21
858.2991234857209
 31
0.0
  0
LINE
  5
6D0F
330
1E
100
AcDbEntity
  8
躯体と製品
  6
Continuous
 62
     7
100
AcDbLine
 10
1388.361227006717
 20
881.7833809274988
 30
0.0
 11
1390.423458443648
 21
858.2119677429732
 31
0.0
  0
ARC
  5
6D10
330
1E
100
AcDbEntity
  8
躯体と製品
  6
Continuous
 62
     7
100
AcDbCircle
 10
1413.262416538622
 20
860.2101176630274
 30
0.0
 40
22.92619920455546
100
AcDbArc
 50
184.9999999999994
 51
355.0000000000006
  0
LINE
  5
6D11
330
1E
100
AcDbEntity
  8
躯体と製品
  6
Continuous
 62
     7
100
AcDbLine
 10
1437.765644247429
 20
877.2346564749906
 30
0.0
 11
1436.101374633595
 21
858.2119677429732
 31
0.0
  0
ARC
  5
6D12
330
1E
100
AcDbEntity
  8
躯体と製品
  6
Continuous
 62
     3
100
AcDbCircle
 10
1380.169614660113
 20
840.9875096104766
 30
0.0
 40
1.0
100
AcDbArc
 50
270.0
 51
0.0
  0
LINE
  5
6D13
330
1E
100
AcDbEntity
  8
躯体と製品
  6
Continuous
 62
     3
100
AcDbLine
 10
1376.269614660114
 20
839.9875096104764
 30
0.0
 11
1380.169614660113
 21
839.9875096104764
 31
0.0
  0
ARC
  5
6D14
330
1E
100
AcDbEntity
  8
躯体と製品
  6
Continuous
 62
     3
100
AcDbCircle
 10
1376.269614660114
 20
839.3875096104766
 30
0.0
 40
0.5999999999999997
100
AcDbArc
 50
90.0
 51
270.0
  0
LINE
  5
6D15
330
1E
100
AcDbEntity
  8
躯体と製品
  6
Continuous
 62
     3
100
AcDbLine
 10
1382.669614660114
 20
878.0875096104765
 30
0.0
 11
1382.669614660114
 21
841.2875096104766
 31
0.0
  0
ARC
  5
6D16
330
1E
100
AcDbEntity
  8
躯体と製品
  6
Continuous
 62
     3
100
AcDbCircle
 10
1381.919614660114
 20
896.0375096104765
 30
0.0
 40
0.7499999999999999
100
AcDbArc
 50
0.0
 51
180.0
  0
LINE
  5
6D17
330
1E
100
AcDbEntity
  8
躯体と製品
  6
Continuous
 62
     3
100
AcDbLine
 10
1382.669614660114
 20
889.4875096104765
 30
0.0
 11
1382.669614660114
 21
896.0375096104765
 31
0.0
  0
ARC
  5
6D18
330
1E
100
AcDbEntity
  8
躯体と製品
  6
Continuous
 62
     3
100
AcDbCircle
 10
1383.169614660114
 20
889.4875096104765
 30
0.0
 40
0.5
100
AcDbArc
 50
180.0
 51
270.0
  0
ARC
  5
6D19
330
1E
100
AcDbEntity
  8
躯体と製品
  6
Continuous
 62
     3
100
AcDbCircle
 10
1386.869614660114
 20
887.9875096104763
 30
0.0
 40
1.0
100
AcDbArc
 50
0.0
 51
90.0
  0
LINE
  5
6D1A
330
1E
100
AcDbEntity
  8
躯体と製品
  6
Continuous
 62
     3
100
AcDbLine
 10
1383.169614660114
 20
888.9875096104765
 30
0.0
 11
1386.869614660114
 21
888.9875096104765
 31
0.0
  0
ARC
  5
6D1B
330
1E
100
AcDbEntity
  8
躯体と製品
  6
Continuous
 62
     3
100
AcDbCircle
 10
1383.169614660114
 20
878.0875096104765
 30
0.0
 40
0.5
100
AcDbArc
 50
90.0
 51
180.0
  0
ARC
  5
6D1C
330
1E
100
AcDbEntity
  8
躯体と製品
  6
Continuous
 62
     3
100
AcDbCircle
 10
1386.869614660114
 20
879.5875096104765
 30
0.0
 40
1.0
100
AcDbArc
 50
270.0
 51
0.0
  0
LINE
  5
6D1D
330
1E
100
AcDbEntity
  8
躯体と製品
  6
Continuous
 62
     3
100
AcDbLine
 10
1383.169614660114
 20
878.5875096104765
 30
0.0
 11
1386.869614660114
 21
878.5875096104765
 31
0.0
  0
ARC
  5
6D1E
330
1E
100
AcDbEntity
  8
躯体と製品
  6
Continuous
 62
     3
100
AcDbCircle
 10
1382.969614660114
 20
887.4875096104762
 30
0.0
 40
0.2999999999999998
100
AcDbArc
 50
90.0
 51
180.0
  0
LINE
  5
6D1F
330
1E
100
AcDbEntity
  8
躯体と製品
  6
Continuous
 62
     3
100
AcDbLine
 10
1382.669614660114
 20
887.4875096104762
 30
0.0
 11
1382.669614660114
 21
880.0875096104766
 31
0.0
  0
ARC
  5
6D20
330
1E
100
AcDbEntity
  8
躯体と製品
  6
Continuous
 62
     3
100
AcDbCircle
 10
1382.969614660114
 20
880.0875096104766
 30
0.0
 40
0.2999999999999998
100
AcDbArc
 50
180.0
 51
270.0
  0
LINE
  5
6D21
330
1E
100
AcDbEntity
  8
躯体と製品
  6
Continuous
 62
     3
100
AcDbLine
 10
1386.369614660114
 20
879.7875096104766
 30
0.0
 11
1382.969614660114
 21
879.7875096104766
 31
0.0
  0
LINE
  5
6D22
330
1E
100
AcDbEntity
  8
躯体と製品
  6
Continuous
 62
     3
100
AcDbLine
 10
1386.369614660114
 20
887.7875096104766
 30
0.0
 11
1382.969614660114
 21
887.7875096104766
 31
0.0
  0
LINE
  5
6D23
330
1E
100
AcDbEntity
  8
躯体と製品
  6
Continuous
 62
     3
100
AcDbLine
 10
1381.169614660114
 20
896.0375096104765
 30
0.0
 11
1381.169614660114
 21
851.7875096104766
 31
0.0
  0
ARC
  5
6D24
330
1E
100
AcDbEntity
  8
躯体と製品
  6
Continuous
 62
     3
100
AcDbCircle
 10
1380.169614660113
 20
841.2875096104766
 30
0.0
 40
2.5
100
AcDbArc
 50
270.0
 51
0.0
  0
LINE
  5
6D25
330
1E
100
AcDbEntity
  8
躯体と製品
  6
Continuous
 62
     3
100
AcDbLine
 10
1376.269614660114
 20
838.7875096104766
 30
0.0
 11
1380.169614660113
 21
838.7875096104766
 31
0.0
  0
ARC
  5
6D26
330
1E
100
AcDbEntity
  8
躯体と製品
  6
Continuous
 62
     3
100
AcDbCircle
 10
1380.669614660114
 20
851.7875096104766
 30
0.0
 40
0.5
100
AcDbArc
 50
270.0
 51
0.0
  0
LINE
  5
6D27
330
1E
100
AcDbEntity
  8
躯体と製品
  6
Continuous
 62
     3
100
AcDbLine
 10
1380.669614660114
 20
851.2875096104766
 30
0.0
 11
1373.969614660113
 21
851.2875096104766
 31
0.0
  0
LINE
  5
6D28
330
1E
100
AcDbEntity
  8
躯体と製品
  6
Continuous
 62
     3
100
AcDbLine
 10
1381.169614660114
 20
849.7875096104765
 30
0.0
 11
1381.169614660114
 21
840.9875096104766
 31
0.0
  0
ARC
  5
6D29
330
1E
100
AcDbEntity
  8
躯体と製品
  6
Continuous
 62
     3
100
AcDbCircle
 10
1380.669614660114
 20
849.7875096104765
 30
0.0
 40
0.5
100
AcDbArc
 50
0.0
 51
90.0
  0
ARC
  5
6D2A
330
1E
100
AcDbEntity
  8
躯体と製品
  6
Continuous
 62
     3
100
AcDbCircle
 10
1373.969614660113
 20
850.9875096104766
 30
0.0
 40
0.2999999999999998
100
AcDbArc
 50
90.0
 51
180.0
  0
LINE
  5
6D2B
330
1E
100
AcDbEntity
  8
躯体と製品
  6
Continuous
 62
     3
100
AcDbLine
 10
1380.669614660114
 20
850.2875096104766
 30
0.0
 11
1375.669614660113
 21
850.2875096104766
 31
0.0
  0
LINE
  5
6D2C
330
1E
100
AcDbEntity
  8
躯体と製品
  6
Continuous
 62
     3
100
AcDbLine
 10
1373.669614660113
 20
850.9875096104766
 30
0.0
 11
1373.669614660113
 21
850.6778976104765
 31
0.0
  0
LINE
  5
6D2D
330
1E
100
AcDbEntity
  8
躯体と製品
  6
Continuous
 62
     3
100
AcDbLine
 10
1375.669614660113
 20
850.2875096104766
 30
0.0
 11
1375.669614660113
 21
849.7875096104765
 31
0.0
  0
ARC
  5
6D2E
330
1E
100
AcDbEntity
  8
躯体と製品
  6
Continuous
 62
     3
100
AcDbCircle
 10
1374.169614660114
 20
850.6778976104765
 30
0.0
 40
0.5
100
AcDbArc
 50
180.0
 51
255.9637569999957
  0
LINE
  5
6D2F
330
1E
100
AcDbEntity
  8
躯体と製品
  6
Continuous
 62
     3
100
AcDbLine
 10
1375.669614660113
 20
849.7875096104765
 30
0.0
 11
1374.048346660114
 21
850.1928266104766
 31
0.0
  0
LINE
  5
6D30
330
1E
100
AcDbEntity
  8
躯体と製品
  6
Continuous
 62
     3
100
AcDbLine
 10
1387.869614660114
 20
885.8875096104766
 30
0.0
 11
1387.869614660114
 21
887.9875096104763
 31
0.0
  0
ARC
  5
6D31
330
1E
100
AcDbEntity
  8
躯体と製品
  6
Continuous
 62
     3
100
AcDbCircle
 10
1386.369614660114
 20
887.4875096104762
 30
0.0
 40
0.2999999999999998
100
AcDbArc
 50
0.0
 51
90.0
  0
LINE
  5
6D32
330
1E
100
AcDbEntity
  8
躯体と製品
  6
Continuous
 62
     3
100
AcDbLine
 10
1386.669614660114
 20
885.8875096104766
 30
0.0
 11
1386.669614660114
 21
887.4875096104762
 31
0.0
  0
ARC
  5
6D33
330
1E
100
AcDbEntity
  8
躯体と製品
  6
Continuous
 62
     3
100
AcDbCircle
 10
1386.369614660114
 20
880.0875096104766
 30
0.0
 40
0.2999999999999998
100
AcDbArc
 50
270.0
 51
0.0
  0
LINE
  5
6D34
330
1E
100
AcDbEntity
  8
躯体と製品
  6
Continuous
 62
     3
100
AcDbLine
 10
1386.669614660114
 20
881.6875096104766
 30
0.0
 11
1386.669614660114
 21
880.0875096104766
 31
0.0
  0
LINE
  5
6D35
330
1E
100
AcDbEntity
  8
躯体と製品
  6
Continuous
 62
     3
100
AcDbLine
 10
1387.869614660114
 20
881.6875096104766
 30
0.0
 11
1387.869614660114
 21
879.5875096104765
 31
0.0
  0
ARC
  5
6D36
330
1E
100
AcDbEntity
  8
躯体と製品
  6
Continuous
 62
     3
100
AcDbCircle
 10
1387.269614660113
 20
885.8875096104766
 30
0.0
 40
0.5999999999999997
100
AcDbArc
 50
180.0
 51
0.0
  0
ARC
  5
6D37
330
1E
100
AcDbEntity
  8
躯体と製品
  6
Continuous
 62
     3
100
AcDbCircle
 10
1387.269614660113
 20
881.6875096104766
 30
0.0
 40
0.5999999999999997
100
AcDbArc
 50
0.0
 51
180.0
  0
LINE
  5
6D38
330
1E
100
AcDbEntity
  8
躯体と製品
  6
Continuous
 62
     7
100
AcDbLine
 10
1385.169614660114
 20
884.2875096104766
 30
0.0
 11
1383.518529660114
 21
883.7641366104765
 31
0.0
  0
ARC
  5
6D39
330
1E
100
AcDbEntity
  8
躯体と製品
  6
Continuous
 62
     7
100
AcDbCircle
 10
1383.669614660113
 20
883.2875096104766
 30
0.0
 40
0.5
100
AcDbArc
 50
107.587954000005
 51
252.412045999995
  0
LINE
  5
6D3A
330
1E
100
AcDbEntity
  8
躯体と製品
  6
Continuous
 62
     7
100
AcDbLine
 10
1386.669614660114
 20
880.2875096104767
 30
0.0
 11
1386.669614660114
 21
882.7875096104765
 31
0.0
  0
ARC
  5
6D3B
330
1E
100
AcDbEntity
  8
躯体と製品
  6
Continuous
 62
     7
100
AcDbCircle
 10
1386.169614660113
 20
886.2875096104765
 30
0.0
 40
0.5
100
AcDbArc
 50
0.0
 51
90.0
  0
ARC
  5
6D3C
330
1E
100
AcDbEntity
  8
躯体と製品
  6
Continuous
 62
     7
100
AcDbCircle
 10
1386.169614660113
 20
880.2875096104767
 30
0.0
 40
0.5
100
AcDbArc
 50
270.0
 51
0.0
  0
ARC
  5
6D3D
330
1E
100
AcDbEntity
  8
躯体と製品
  6
Continuous
 62
     7
100
AcDbCircle
 10
1385.669614660114
 20
880.2875096104767
 30
0.0
 40
0.5
100
AcDbArc
 50
180.0
 51
270.0
  0
LINE
  5
6D3E
330
1E
100
AcDbEntity
  8
躯体と製品
  6
Continuous
 62
     7
100
AcDbLine
 10
1386.169614660113
 20
879.7875096104766
 30
0.0
 11
1385.669614660114
 21
879.7875096104766
 31
0.0
  0
LINE
  5
6D3F
330
1E
100
AcDbEntity
  8
躯体と製品
  6
Continuous
 62
     7
100
AcDbLine
 10
1386.169614660113
 20
886.7875096104766
 30
0.0
 11
1385.669614660114
 21
886.7875096104766
 31
0.0
  0
ARC
  5
6D40
330
1E
100
AcDbEntity
  8
躯体と製品
  6
Continuous
 62
     7
100
AcDbCircle
 10
1385.669614660114
 20
886.2875096104765
 30
0.0
 40
0.5
100
AcDbArc
 50
90.0
 51
180.0
  0
LINE
  5
6D41
330
1E
100
AcDbEntity
  8
躯体と製品
  6
Continuous
 62
     7
100
AcDbLine
 10
1385.169614660114
 20
884.2875096104766
 30
0.0
 11
1385.169614660114
 21
886.2875096104765
 31
0.0
  0
LINE
  5
6D42
330
1E
100
AcDbEntity
  8
躯体と製品
  6
Continuous
 62
     7
100
AcDbLine
 10
1385.169614660114
 20
882.2875096104766
 30
0.0
 11
1385.169614660114
 21
880.2875096104767
 31
0.0
  0
LINE
  5
6D43
330
1E
100
AcDbEntity
  8
躯体と製品
  6
Continuous
 62
     7
100
AcDbLine
 10
1385.169614660114
 20
882.2875096104766
 30
0.0
 11
1383.518529660114
 21
882.8108826104765
 31
0.0
  0
LINE
  5
6D44
330
1E
100
AcDbEntity
  8
躯体と製品
  6
Continuous
 62
     7
100
AcDbLine
 10
1386.669614660114
 20
886.2875096104765
 30
0.0
 11
1386.669614660114
 21
883.7875096104765
 31
0.0
  0
LINE
  5
6D45
330
1E
100
AcDbEntity
  8
躯体と製品
  6
Continuous
 62
     7
100
AcDbLine
 10
1387.265412838816
 20
882.7875096104765
 30
0.0
 11
1386.669614660114
 21
882.7875096104765
 31
0.0
  0
ARC
  5
6D46
330
1E
100
AcDbEntity
  8
躯体と製品
  6
Continuous
 62
     7
100
AcDbCircle
 10
1387.265412838816
 20
881.6875096104766
 30
0.0
 40
1.1
100
AcDbArc
 50
4.999999999999459
 51
90.0
  0
LINE
  5
6D47
330
1E
100
AcDbEntity
  8
躯体と製品
  6
Continuous
 62
     7
100
AcDbLine
 10
1387.265412838816
 20
883.7875096104765
 30
0.0
 11
1386.669614660114
 21
883.7875096104765
 31
0.0
  0
ARC
  5
6D48
330
1E
100
AcDbEntity
  8
躯体と製品
  6
Continuous
 62
     7
100
AcDbCircle
 10
1387.265412838816
 20
881.6875096104766
 30
0.0
 40
2.1
100
AcDbArc
 50
4.999999999999459
 51
90.0
  0
LINE
  5
6D49
330
1E
100
AcDbEntity
  8
躯体と製品
  6
DASHED1
 62
     4
100
AcDbLine
 10
1394.550283599021
 20
896.1310520039679
 30
0.0
 11
1663.733279171622
 21
910.2383350226846
 31
0.0
  0
LINE
  5
6D4A
330
1E
100
AcDbEntity
  8
躯体と製品
  6
DASHED1
 62
     4
100
AcDbLine
 10
1394.471779664657
 20
897.6289963060999
 30
0.0
 11
1663.733279171622
 21
911.7403935416815
 31
0.0
  0
LINE
  5
6D4B
330
1E
100
AcDbEntity
  8
躯体と製品
  6
DASHED1
 62
     4
100
AcDbLine
 10
1394.288603817807
 20
901.1241996777407
 30
0.0
 11
1663.733279171622
 21
915.2451967526745
 31
0.0
  0
LINE
  5
6D4C
330
1E
100
AcDbEntity
  8
躯体と製品
  6
DASHED1
 62
     4
100
AcDbLine
 10
1394.194399096569
 20
902.9217328402991
 30
0.0
 11
1663.733279171622
 21
917.0476669754705
 31
0.0
  0
LINE
  5
6D4D
330
1E
100
AcDbEntity
  8
躯体と製品
  6
Continuous
 62
     7
100
AcDbLine
 10
1438.733279171622
 20
878.1470928187037
 30
0.0
 11
1588.733279171622
 21
878.1470928187037
 31
0.0
  0
LINE
  5
6D4E
330
1E
100
AcDbEntity
  8
躯体と製品
  6
DASHED1
 62
     7
100
AcDbLine
 10
1516.349481144785
 20
912.2324609028792
 30
0.0
 11
1514.517932098378
 21
909.8564499107826
 31
0.0
  0
LINE
  5
6D4F
330
1E
100
AcDbEntity
  8
躯体と製品
  6
DASHED1
 62
     7
100
AcDbLine
 10
1516.349481144785
 20
912.2324609028792
 30
0.0
 11
1515.715878218607
 21
912.7208739779899
 31
0.0
  0
ARC
  5
6D50
330
1E
100
AcDbEntity
  8
躯体と製品
  6
Continuous
 62
     7
100
AcDbCircle
 10
1438.761838945521
 20
877.1475007322425
 30
0.0
 40
1.0
100
AcDbArc
 50
91.63657704161829
 51
175.0000000000005
  0
POINT
  5
6D51
330
1E
100
AcDbEntity
  8
躯体と製品
 62
     4
100
AcDbPoint
 10
1488.733279171621
 20
898.0706072465899
 30
0.0
  0
LINE
  5
6D52
330
1E
100
AcDbEntity
  8
躯体と製品
  6
Continuous
 62
     4
100
AcDbLine
 10
1486.200844626438
 20
899.9328820314618
 30
0.0
 11
1486.305111457866
 21
897.9433523689852
 31
0.0
  0
LINE
  5
6D53
330
1E
100
AcDbEntity
  8
躯体と製品
  6
Continuous
 62
     4
100
AcDbLine
 10
1491.05718005395
 20
900.1873917866712
 30
0.0
 11
1491.161446885378
 21
898.1978621241948
 31
0.0
  0
LINE
  5
6D54
330
1E
100
AcDbEntity
  8
躯体と製品
  6
Continuous
 62
     7
100
AcDbLine
 10
1485.925800009833
 20
894.3185330527446
 30
0.0
 11
1486.189533454727
 21
889.2861991415946
 31
0.0
  0
LINE
  5
6D55
330
1E
100
AcDbEntity
  8
躯体と製品
  6
Continuous
 62
     7
100
AcDbLine
 10
1485.63312373593
 20
899.903129040338
 30
0.0
 11
1485.737390567358
 21
897.913599377861
 31
0.0
  0
LINE
  5
6D56
330
1E
100
AcDbEntity
  8
躯体と製品
  6
Continuous
 62
     7
100
AcDbLine
 10
1491.91757721836
 20
894.6325487902022
 30
0.0
 11
1492.181310663254
 21
889.600214879052
 31
0.0
  0
LINE
  5
6D57
330
1E
100
AcDbEntity
  8
躯体と製品
  6
Continuous
 62
     7
100
AcDbLine
 10
1491.624900944457
 20
900.2171447777955
 30
0.0
 11
1491.729167775886
 21
898.2276151153188
 31
0.0
  0
LINE
  5
6D58
330
1E
100
AcDbEntity
  8
躯体と製品
  6
Continuous
 62
     4
100
AcDbLine
 10
1486.189533454727
 20
889.2861991415946
 30
0.0
 11
1492.181310663254
 21
889.600214879052
 31
0.0
  0
ARC
  5
6D59
330
1E
100
AcDbEntity
  8
躯体と製品
  6
DASHED1
 62
     7
100
AcDbCircle
 10
1487.509022824259
 20
921.4308099514441
 30
0.0
 40
6.299999999999998
100
AcDbArc
 50
53.69062899999587
 51
132.3031309999968
  0
ARC
  5
6D5A
330
1E
100
AcDbEntity
  8
躯体と製品
  6
DASHED1
 62
     7
100
AcDbCircle
 10
1485.585311271524
 20
923.5336505377361
 30
0.0
 40
3.45
100
AcDbArc
 50
132.179511
 51
179.6872570000013
  0
ARC
  5
6D5B
330
1E
100
AcDbEntity
  8
躯体と製品
  6
DASHED1
 62
     7
100
AcDbCircle
 10
1489.196647276779
 20
923.7274218176905
 30
0.0
 40
3.45
100
AcDbArc
 50
6.237837000000908
 51
53.69087599999915
  0
LINE
  5
6D5C
330
1E
100
AcDbEntity
  8
躯体と製品
  6
DASHED1
 62
     7
100
AcDbLine
 10
1486.472277230914
 20
926.8826023714725
 30
0.0
 11
1487.970221533046
 21
926.9611063058368
 31
0.0
  0
ARC
  5
6D5D
330
1E
100
AcDbEntity
  8
躯体と製品
  6
DASHED1
 62
     7
100
AcDbCircle
 10
1485.871045585459
 20
926.890392013818
 30
0.0
 40
0.5999999999999997
100
AcDbArc
 50
2.999999999998919
 51
106.7002329999983
  0
ARC
  5
6D5E
330
1E
100
AcDbEntity
  8
躯体と製品
  6
DASHED1
 62
     7
100
AcDbCircle
 10
1488.567345329296
 20
927.0316990956741
 30
0.0
 40
0.5999999999999997
100
AcDbArc
 50
79.29976699999421
 51
182.9999999999989
  0
LINE
  5
6D5F
330
1E
100
AcDbEntity
  8
躯体と製品
  6
DASHED1
 62
     7
100
AcDbLine
 10
1476.725439634563
 20
923.2689589327806
 30
0.0
 11
1498.04139352866
 21
924.3860807396702
 31
0.0
  0
LINE
  5
6D60
330
1E
100
AcDbEntity
  8
躯体と製品
  6
DASHED1
 62
     7
100
AcDbLine
 10
1499.43852580831
 20
923.8304734112615
 30
0.0
 11
1512.368476885563
 21
910.2654205520341
 31
0.0
  0
LINE
  5
6D61
330
1E
100
AcDbEntity
  8
躯体と製品
  6
DASHED1
 62
     7
100
AcDbLine
 10
1515.715878218607
 20
912.7208739779899
 30
0.0
 11
1513.884329172219
 21
910.3448629859187
 31
0.0
  0
LINE
  5
6D62
330
1E
100
AcDbEntity
  8
躯体と製品
  6
DASHED1
 62
     7
100
AcDbLine
 10
1476.767308399558
 20
922.4700553049769
 30
0.0
 11
1498.083262293654
 21
923.5871771118663
 31
0.0
  0
ARC
  5
6D63
330
1E
100
AcDbEntity
  8
躯体と製品
  6
DASHED1
 62
     7
100
AcDbCircle
 10
1476.819644355801
 20
921.4714257702224
 30
0.0
 40
1.8
100
AcDbArc
 50
93.00000000000558
 51
142.3731526377183
  0
LINE
  5
6D64
330
1E
100
AcDbEntity
  8
躯体と製品
  6
DASHED1
 62
     7
100
AcDbLine
 10
1476.027640698103
 20
922.081942114142
 30
0.0
 11
1464.586455360649
 21
907.2396520986357
 31
0.0
  0
LINE
  5
6D65
330
1E
100
AcDbEntity
  8
躯体と製品
  6
DASHED1
 62
     7
100
AcDbLine
 10
1475.394037771945
 20
922.5703551892781
 30
0.0
 11
1463.952852434491
 21
907.7280651737712
 31
0.0
  0
ARC
  5
6D66
330
1E
100
AcDbEntity
  8
躯体と製品
  6
DASHED1
 62
     7
100
AcDbCircle
 10
1463.160848791397
 20
908.3385815366368
 30
0.0
 40
1.8
100
AcDbArc
 50
223.6268481237193
 51
322.3731526377183
  0
ARC
  5
6D67
330
1E
100
AcDbEntity
  8
躯体と製品
  6
DASHED1
 62
     7
100
AcDbCircle
 10
1463.160848791397
 20
908.3385815366368
 30
0.0
 40
1.0
100
AcDbArc
 50
223.6268487328658
 51
322.3731526377183
  0
LINE
  5
6D68
330
1E
100
AcDbEntity
  8
躯体と製品
  6
DASHED1
 62
     7
100
AcDbLine
 10
1459.788044842685
 20
909.2682016332268
 30
0.0
 11
1461.857921249489
 21
907.0966556851718
 31
0.0
  0
LINE
  5
6D69
330
1E
100
AcDbEntity
  8
躯体と製品
  6
DASHED1
 62
     7
100
AcDbLine
 10
1459.788044842685
 20
909.2682016332268
 30
0.0
 11
1460.367123757557
 21
909.8201686706039
 31
0.0
  0
LINE
  5
6D6A
330
1E
100
AcDbEntity
  8
躯体と製品
  6
DASHED1
 62
     7
100
AcDbLine
 10
1460.367123757557
 20
909.8201686706039
 30
0.0
 11
1462.437000164339
 21
907.6486227225718
 31
0.0
  0
ARC
  5
6D6B
330
1E
100
AcDbEntity
  8
躯体と製品
  6
DASHED1
 62
     7
100
AcDbCircle
 10
1513.092325529125
 20
910.9553793487839
 30
0.0
 40
1.8
100
AcDbArc
 50
223.6268473622824
 51
322.3731518762774
  0
ARC
  5
6D6C
330
1E
100
AcDbEntity
  8
躯体と製品
  6
DASHED1
 62
     7
100
AcDbCircle
 10
1513.092325529125
 20
910.9553793487839
 30
0.0
 40
1.0
100
AcDbArc
 50
223.6268473622824
 51
322.3731512671368
  0
ARC
  5
6D6D
330
1E
100
AcDbEntity
  8
躯体と製品
  6
DASHED1
 62
     7
100
AcDbCircle
 10
1498.135598249897
 20
922.588547577112
 30
0.0
 40
1.0
100
AcDbArc
 50
43.62684736228245
 51
93.00000000000558
  0
LINE
  5
6D6E
330
1E
100
AcDbEntity
  8
躯体と製品
  6
DASHED1
 62
     7
100
AcDbLine
 10
1498.85944689346
 20
923.2785063738617
 30
0.0
 11
1511.789397987217
 21
909.7134534973191
 31
0.0
  0
ARC
  5
6D6F
330
1E
100
AcDbEntity
  8
躯体と製品
  6
DASHED1
 62
     7
100
AcDbCircle
 10
1498.135598249897
 20
922.588547577112
 30
0.0
 40
1.8
100
AcDbArc
 50
43.62684736228245
 51
93.00000000000558
  0
ARC
  5
6D70
330
1E
100
AcDbEntity
  8
躯体と製品
  6
DASHED1
 62
     7
100
AcDbCircle
 10
1476.819644355801
 20
921.4714257702224
 30
0.0
 40
1.0
100
AcDbArc
 50
93.00000000000558
 51
142.3731526377183
  0
LINE
  5
6D71
330
1E
100
AcDbEntity
  8
躯体と製品
  6
DASHED1
 62
     4
100
AcDbLine
 10
1489.811584295368
 20
923.9547747138301
 30
0.0
 11
1491.05718005395
 21
900.1873917866712
 31
0.0
  0
LINE
  5
6D72
330
1E
100
AcDbEntity
  8
躯体と製品
  6
DASHED1
 62
     7
100
AcDbLine
 10
1490.379305185875
 20
923.9845277049544
 30
0.0
 11
1491.624900944457
 21
900.2171447777955
 31
0.0
  0
LINE
  5
6D73
330
1E
100
AcDbEntity
  8
躯体と製品
  6
DASHED1
 62
     7
100
AcDbLine
 10
1484.387527977348
 20
923.6705119674965
 30
0.0
 11
1485.63312373593
 21
899.903129040338
 31
0.0
  0
LINE
  5
6D74
330
1E
100
AcDbEntity
  8
躯体と製品
  6
DASHED1
 62
     4
100
AcDbLine
 10
1484.955248867856
 20
923.7002649586207
 30
0.0
 11
1486.200844626438
 21
899.9328820314618
 31
0.0
  0
LINE
  5
6D75
330
1E
100
AcDbEntity
  8
躯体と製品
  6
Continuous
 62
     3
100
AcDbLine
 10
1463.360708890194
 20
888.1206167732599
 30
0.0
 11
1463.041953191354
 21
887.0489849314143
 31
0.0
  0
LINE
  5
6D76
330
1E
100
AcDbEntity
  8
躯体と製品
  6
Continuous
 62
     3
100
AcDbLine
 10
1463.534357067861
 20
887.1358090202475
 30
0.0
 11
1463.215601369021
 21
886.064177178402
 31
0.0
  0
LINE
  5
6D77
330
1E
100
AcDbEntity
  8
躯体と製品
  6
Continuous
 62
     3
100
AcDbLine
 10
1488.733279171621
 20
882.1470928187036
 30
0.0
 11
1489.233279171622
 21
882.6470928187037
 31
0.0
  0
LINE
  5
6D78
330
1E
100
AcDbEntity
  8
躯体と製品
  6
Continuous
 62
     3
100
AcDbLine
 10
1472.533279171622
 20
888.6470928187035
 30
0.0
 11
1475.483279171621
 21
888.6470928187035
 31
0.0
  0
ARC
  5
6D79
330
1E
100
AcDbEntity
  8
躯体と製品
  6
Continuous
 62
     3
100
AcDbCircle
 10
1472.533279171622
 20
888.3470928187033
 30
0.0
 40
0.2999999999999998
100
AcDbArc
 50
90.0
 51
180.0
  0
LINE
  5
6D7A
330
1E
100
AcDbEntity
  8
躯体と製品
  6
Continuous
 62
     3
100
AcDbLine
 10
1472.233279171622
 20
888.3470928187033
 30
0.0
 11
1472.233279171622
 21
886.4470928187035
 31
0.0
  0
ARC
  5
6D7B
330
1E
100
AcDbEntity
  8
躯体と製品
  6
Continuous
 62
     3
100
AcDbCircle
 10
1472.533279171622
 20
886.4470928187035
 30
0.0
 40
0.2999999999999998
100
AcDbArc
 50
180.0
 51
270.0
  0
LINE
  5
6D7C
330
1E
100
AcDbEntity
  8
躯体と製品
  6
Continuous
 62
     3
100
AcDbLine
 10
1472.533279171622
 20
886.1470928187037
 30
0.0
 11
1474.483279171622
 21
886.1470928187037
 31
0.0
  0
LINE
  5
6D7D
330
1E
100
AcDbEntity
  8
躯体と製品
  6
Continuous
 62
     3
100
AcDbLine
 10
1472.233279171622
 20
884.3470928187032
 30
0.0
 11
1472.233279171622
 21
882.9470928187031
 31
0.0
  0
ARC
  5
6D7E
330
1E
100
AcDbEntity
  8
躯体と製品
  6
Continuous
 62
     3
100
AcDbCircle
 10
1472.533279171622
 20
884.3470928187032
 30
0.0
 40
0.2999999999999998
100
AcDbArc
 50
90.0
 51
180.0
  0
LINE
  5
6D7F
330
1E
100
AcDbEntity
  8
躯体と製品
  6
Continuous
 62
     3
100
AcDbLine
 10
1472.533279171622
 20
884.6470928187036
 30
0.0
 11
1474.483279171622
 21
884.6470928187036
 31
0.0
  0
ARC
  5
6D80
330
1E
100
AcDbEntity
  8
躯体と製品
  6
Continuous
 62
     3
100
AcDbCircle
 10
1474.483279171622
 20
885.3970928187036
 30
0.0
 40
0.75
100
AcDbArc
 50
270.0
 51
90.0
  0
ARC
  5
6D81
330
1E
100
AcDbEntity
  8
躯体と製品
  6
Continuous
 62
     3
100
AcDbCircle
 10
1475.483279171621
 20
889.3970928187036
 30
0.0
 40
0.75
100
AcDbArc
 50
270.0
 51
90.0
  0
LINE
  5
6D82
330
1E
100
AcDbEntity
  8
躯体と製品
  6
Continuous
 62
     3
100
AcDbLine
 10
1472.233279171622
 20
890.6470928187037
 30
0.0
 11
1472.233279171622
 21
898.1470928187034
 31
0.0
  0
ARC
  5
6D83
330
1E
100
AcDbEntity
  8
躯体と製品
  6
Continuous
 62
     3
100
AcDbCircle
 10
1472.733279171621
 20
890.6470928187037
 30
0.0
 40
0.5
100
AcDbArc
 50
180.0
 51
270.0
  0
LINE
  5
6D84
330
1E
100
AcDbEntity
  8
躯体と製品
  6
Continuous
 62
     3
100
AcDbLine
 10
1472.733279171621
 20
890.1470928187036
 30
0.0
 11
1475.483279171621
 21
890.1470928187036
 31
0.0
  0
ARC
  5
6D85
330
1E
100
AcDbEntity
  8
躯体と製品
  6
Continuous
 62
     3
100
AcDbCircle
 10
1472.533279171622
 20
882.9470928187031
 30
0.0
 40
0.2999999999999998
100
AcDbArc
 50
180.0
 51
270.0
  0
ARC
  5
6D86
330
1E
100
AcDbEntity
  8
躯体と製品
  6
Continuous
 62
     3
100
AcDbCircle
 10
1469.733279171621
 20
883.1470928187036
 30
0.0
 40
0.5
100
AcDbArc
 50
270.0
 51
0.0
  0
LINE
  5
6D87
330
1E
100
AcDbEntity
  8
躯体と製品
  6
Continuous
 62
     3
100
AcDbLine
 10
1470.233279171621
 20
883.1470928187036
 30
0.0
 11
1470.233279171621
 21
898.1470928187034
 31
0.0
  0
LINE
  5
6D88
330
1E
100
AcDbEntity
  8
躯体と製品
  6
Continuous
 62
     3
100
AcDbLine
 10
1470.233279171621
 20
881.1470928187036
 30
0.0
 11
1459.733279171621
 21
881.1470928187036
 31
0.0
  0
LINE
  5
6D89
330
1E
100
AcDbEntity
  8
躯体と製品
  6
Continuous
 62
     3
100
AcDbLine
 10
1470.233279171621
 20
880.1470928187036
 30
0.0
 11
1470.233279171621
 21
881.1470928187036
 31
0.0
  0
LINE
  5
6D8A
330
1E
100
AcDbEntity
  8
躯体と製品
  6
Continuous
 62
     3
100
AcDbLine
 10
1488.733279171621
 20
882.1470928187036
 30
0.0
 11
1488.233279171622
 21
882.6470928187037
 31
0.0
  0
LINE
  5
6D8B
330
1E
100
AcDbEntity
  8
躯体と製品
  6
Continuous
 62
     3
100
AcDbLine
 10
1459.733279171621
 20
880.1470928187036
 30
0.0
 11
1458.233279171621
 21
880.1470928187036
 31
0.0
  0
LINE
  5
6D8C
330
1E
100
AcDbEntity
  8
躯体と製品
  6
Continuous
 62
     3
100
AcDbLine
 10
1459.733279171621
 20
881.1470928187036
 30
0.0
 11
1459.733279171621
 21
880.1470928187036
 31
0.0
  0
ARC
  5
6D8D
330
1E
100
AcDbEntity
  8
躯体と製品
  6
Continuous
 62
     3
100
AcDbCircle
 10
1471.233279171622
 20
898.1470928187034
 30
0.0
 40
1.0
100
AcDbArc
 50
0.0
 51
180.0
  0
LINE
  5
6D8E
330
1E
100
AcDbEntity
  8
躯体と製品
  6
Continuous
 62
     3
100
AcDbLine
 10
1472.233279171622
 20
880.1470928187036
 30
0.0
 11
1470.233279171621
 21
880.1470928187036
 31
0.0
  0
LINE
  5
6D8F
330
1E
100
AcDbEntity
  8
躯体と製品
  6
Continuous
 62
     3
100
AcDbLine
 10
1472.233279171622
 20
880.6470928187037
 30
0.0
 11
1472.233279171622
 21
880.1470928187036
 31
0.0
  0
LINE
  5
6D90
330
1E
100
AcDbEntity
  8
躯体と製品
  6
Continuous
 62
     3
100
AcDbLine
 10
1483.733279171621
 20
880.6470928187037
 30
0.0
 11
1472.233279171622
 21
880.6470928187037
 31
0.0
  0
LINE
  5
6D91
330
1E
100
AcDbEntity
  8
躯体と製品
  6
Continuous
 62
     3
100
AcDbLine
 10
1483.733279171621
 20
880.1470928187036
 30
0.0
 11
1483.733279171621
 21
880.6470928187037
 31
0.0
  0
LINE
  5
6D92
330
1E
100
AcDbEntity
  8
躯体と製品
  6
Continuous
 62
     3
100
AcDbLine
 10
1504.933279171622
 20
882.6470928187037
 30
0.0
 11
1489.233279171622
 21
882.6470928187037
 31
0.0
  0
LINE
  5
6D93
330
1E
100
AcDbEntity
  8
躯体と製品
  6
Continuous
 62
     3
100
AcDbLine
 10
1488.233279171622
 20
882.6470928187037
 30
0.0
 11
1472.533279171622
 21
882.6470928187037
 31
0.0
  0
LINE
  5
6D94
330
1E
100
AcDbEntity
  8
躯体と製品
  6
Continuous
 62
     3
100
AcDbLine
 10
1493.733279171622
 20
880.1470928187036
 30
0.0
 11
1483.733279171621
 21
880.1470928187036
 31
0.0
  0
LINE
  5
6D95
330
1E
100
AcDbEntity
  8
躯体と製品
  6
Continuous
 62
     3
100
AcDbLine
 10
1506.733279171621
 20
889.6470928187037
 30
0.0
 11
1506.733279171621
 21
880.1470928187036
 31
0.0
  0
ARC
  5
6D96
330
1E
100
AcDbEntity
  8
躯体と製品
  6
Continuous
 62
     3
100
AcDbCircle
 10
1506.233279171621
 20
889.6470928187037
 30
0.0
 40
0.5
100
AcDbArc
 50
0.0
 51
90.0
  0
LINE
  5
6D97
330
1E
100
AcDbEntity
  8
躯体と製品
  6
Continuous
 62
     3
100
AcDbLine
 10
1506.233279171621
 20
890.1470928187036
 30
0.0
 11
1501.983279171622
 21
890.1470928187036
 31
0.0
  0
LINE
  5
6D98
330
1E
100
AcDbEntity
  8
躯体と製品
  6
Continuous
 62
     3
100
AcDbLine
 10
1505.233279171622
 20
882.9470928187031
 30
0.0
 11
1505.233279171622
 21
884.3470928187032
 31
0.0
  0
ARC
  5
6D99
330
1E
100
AcDbEntity
  8
躯体と製品
  6
Continuous
 62
     3
100
AcDbCircle
 10
1504.933279171622
 20
882.9470928187031
 30
0.0
 40
0.2999999999999998
100
AcDbArc
 50
270.0
 51
0.0
  0
LINE
  5
6D9A
330
1E
100
AcDbEntity
  8
躯体と製品
  6
Continuous
 62
     3
100
AcDbLine
 10
1504.933279171622
 20
884.6470928187036
 30
0.0
 11
1502.983279171622
 21
884.6470928187036
 31
0.0
  0
ARC
  5
6D9B
330
1E
100
AcDbEntity
  8
躯体と製品
  6
Continuous
 62
     3
100
AcDbCircle
 10
1504.933279171622
 20
884.3470928187032
 30
0.0
 40
0.2999999999999998
100
AcDbArc
 50
0.0
 51
90.0
  0
LINE
  5
6D9C
330
1E
100
AcDbEntity
  8
躯体と製品
  6
Continuous
 62
     3
100
AcDbLine
 10
1505.233279171622
 20
886.4470928187035
 30
0.0
 11
1505.233279171622
 21
888.3470928187033
 31
0.0
  0
ARC
  5
6D9D
330
1E
100
AcDbEntity
  8
躯体と製品
  6
Continuous
 62
     3
100
AcDbCircle
 10
1504.933279171622
 20
886.4470928187035
 30
0.0
 40
0.2999999999999998
100
AcDbArc
 50
270.0
 51
0.0
  0
LINE
  5
6D9E
330
1E
100
AcDbEntity
  8
躯体と製品
  6
Continuous
 62
     3
100
AcDbLine
 10
1504.933279171622
 20
886.1470928187037
 30
0.0
 11
1502.983279171622
 21
886.1470928187037
 31
0.0
  0
LINE
  5
6D9F
330
1E
100
AcDbEntity
  8
躯体と製品
  6
Continuous
 62
     3
100
AcDbLine
 10
1504.933279171622
 20
888.6470928187035
 30
0.0
 11
1501.983279171622
 21
888.6470928187035
 31
0.0
  0
ARC
  5
6DA0
330
1E
100
AcDbEntity
  8
躯体と製品
  6
Continuous
 62
     3
100
AcDbCircle
 10
1504.933279171622
 20
888.3470928187033
 30
0.0
 40
0.2999999999999998
100
AcDbArc
 50
0.0
 51
90.0
  0
ARC
  5
6DA1
330
1E
100
AcDbEntity
  8
躯体と製品
  6
Continuous
 62
     3
100
AcDbCircle
 10
1502.983279171622
 20
885.3970928187036
 30
0.0
 40
0.75
100
AcDbArc
 50
90.0
 51
270.0
  0
ARC
  5
6DA2
330
1E
100
AcDbEntity
  8
躯体と製品
  6
Continuous
 62
     3
100
AcDbCircle
 10
1501.983279171622
 20
889.3970928187036
 30
0.0
 40
0.75
100
AcDbArc
 50
90.0
 51
270.0
  0
LINE
  5
6DA3
330
1E
100
AcDbEntity
  8
躯体と製品
  6
Continuous
 62
     3
100
AcDbLine
 10
1493.733279171622
 20
880.6470928187037
 30
0.0
 11
1493.733279171622
 21
880.1470928187036
 31
0.0
  0
LINE
  5
6DA4
330
1E
100
AcDbEntity
  8
躯体と製品
  6
Continuous
 62
     3
100
AcDbLine
 10
1505.233279171622
 20
880.6470928187037
 30
0.0
 11
1493.733279171622
 21
880.6470928187037
 31
0.0
  0
LINE
  5
6DA5
330
1E
100
AcDbEntity
  8
躯体と製品
  6
Continuous
 62
     3
100
AcDbLine
 10
1505.233279171622
 20
880.1470928187036
 30
0.0
 11
1505.233279171622
 21
880.6470928187037
 31
0.0
  0
LINE
  5
6DA6
330
1E
100
AcDbEntity
  8
躯体と製品
  6
Continuous
 62
     3
100
AcDbLine
 10
1506.733279171621
 20
880.1470928187036
 30
0.0
 11
1505.233279171622
 21
880.1470928187036
 31
0.0
  0
LINE
  5
6DA7
330
1E
100
AcDbEntity
  8
躯体と製品
  6
Continuous
 62
     3
100
AcDbLine
 10
1458.233279171621
 20
880.1470928187036
 30
0.0
 11
1458.233279171621
 21
882.6470928187037
 31
0.0
  0
ARC
  5
6DA8
330
1E
100
AcDbEntity
  8
躯体と製品
  6
Continuous
 62
     3
100
AcDbCircle
 10
1457.973407964796
 20
888.4399735317739
 30
0.0
 40
0.7499999999999975
100
AcDbArc
 50
9.999999999997477
 51
189.9999999999975
  0
ARC
  5
6DA9
330
1E
100
AcDbEntity
  8
躯体と製品
  6
Continuous
 62
     3
100
AcDbCircle
 10
1463.389850606363
 20
889.395038508942
 30
0.0
 40
0.7500000000000014
100
AcDbArc
 50
9.999999999997477
 51
189.9999999999975
  0
LINE
  5
6DAA
330
1E
100
AcDbEntity
  8
躯体と製品
  6
Continuous
 62
     3
100
AcDbLine
 10
1458.436670125133
 20
887.2523758849254
 30
0.0
 11
1459.102722179306
 21
886.3543922207465
 31
0.0
  0
LINE
  5
6DAB
330
1E
100
AcDbEntity
  8
躯体と製品
  6
Continuous
 62
     3
100
AcDbLine
 10
1458.6103183028
 20
886.267568131913
 30
0.0
 11
1459.276370356973
 21
885.3695844677345
 31
0.0
  0
LINE
  5
6DAC
330
1E
100
AcDbEntity
  8
躯体と製品
  6
Continuous
 62
     3
100
AcDbLine
 10
1462.868305013688
 20
888.0337926844262
 30
0.0
 11
1462.651244791604
 21
889.2648023756917
 31
0.0
  0
LINE
  5
6DAD
330
1E
100
AcDbEntity
  8
躯体と製品
  6
Continuous
 62
     3
100
AcDbLine
 10
1458.929074001639
 20
887.3391999737586
 30
0.0
 11
1458.712013779555
 21
888.5702096650238
 31
0.0
  0
LINE
  5
6DAE
330
1E
100
AcDbEntity
  8
躯体と製品
  6
Continuous
 62
     3
100
AcDbLine
 10
1458.233279171621
 20
882.6470928187037
 30
0.0
 11
1457.234802150037
 21
888.3097373985238
 31
0.0
  0
LINE
  5
6DAF
330
1E
100
AcDbEntity
  8
躯体と製品
  6
Continuous
 62
     3
100
AcDbLine
 10
1458.436670125133
 20
887.2523758849254
 30
0.0
 11
1458.929074001639
 21
887.3391999737586
 31
0.0
  0
LINE
  5
6DB0
330
1E
100
AcDbEntity
  8
躯体と製品
  6
Continuous
 62
     3
100
AcDbLine
 10
1462.868305013688
 20
888.0337926844262
 30
0.0
 11
1463.360708890194
 21
888.1206167732599
 31
0.0
  0
LINE
  5
6DB1
330
1E
100
AcDbEntity
  8
躯体と製品
  6
Continuous
 62
     3
100
AcDbLine
 10
1458.6103183028
 20
886.267568131913
 30
0.0
 11
1459.102722179306
 21
886.3543922207465
 31
0.0
  0
LINE
  5
6DB2
330
1E
100
AcDbEntity
  8
躯体と製品
  6
Continuous
 62
     3
100
AcDbLine
 10
1463.041953191354
 20
887.0489849314143
 30
0.0
 11
1463.534357067861
 21
887.1358090202475
 31
0.0
  0
LINE
  5
6DB3
330
1E
100
AcDbEntity
  8
躯体と製品
  6
Continuous
 62
     3
100
AcDbLine
 10
1465.268411393904
 20
883.0602687298698
 30
0.0
 11
1464.128456421122
 21
889.525274642192
 31
0.0
  0
LINE
  5
6DB4
330
1E
100
AcDbEntity
  8
躯体と製品
  6
Continuous
 62
     3
100
AcDbLine
 10
1465.76081527041
 20
882.6470928187037
 30
0.0
 11
1469.733279171621
 21
882.6470928187037
 31
0.0
  0
ARC
  5
6DB5
330
1E
100
AcDbEntity
  8
躯体と製品
  6
Continuous
 62
     3
100
AcDbCircle
 10
1465.76081527041
 20
883.1470928187036
 30
0.0
 40
0.5
100
AcDbArc
 50
189.9999999999975
 51
270.0
  0
LINE
  5
6DB6
330
1E
100
AcDbEntity
  8
躯体と製品
  6
Continuous
 62
     3
100
AcDbLine
 10
1463.714652617202
 20
883.2339169075366
 30
0.0
 11
1463.215601369021
 21
886.064177178402
 31
0.0
  0
ARC
  5
6DB7
330
1E
100
AcDbEntity
  8
躯体と製品
  6
Continuous
 62
     3
100
AcDbCircle
 10
1463.222248740696
 20
883.1470928187036
 30
0.0
 40
0.5
100
AcDbArc
 50
270.0
 51
9.999999999997477
  0
LINE
  5
6DB8
330
1E
100
AcDbEntity
  8
躯体と製品
  6
Continuous
 62
     3
100
AcDbLine
 10
1459.683565028533
 20
883.0602687298698
 30
0.0
 11
1459.276370356973
 21
885.3695844677345
 31
0.0
  0
LINE
  5
6DB9
330
1E
100
AcDbEntity
  8
躯体と製品
  6
Continuous
 62
     3
100
AcDbLine
 10
1460.175968905039
 20
882.6470928187037
 30
0.0
 11
1463.222248740696
 21
882.6470928187037
 31
0.0
  0
ARC
  5
6DBA
330
1E
100
AcDbEntity
  8
躯体と製品
  6
Continuous
 62
     3
100
AcDbCircle
 10
1460.175968905039
 20
883.1470928187036
 30
0.0
 40
0.5
100
AcDbArc
 50
189.9999999999975
 51
270.0
  0
ARC
  5
6DBB
330
1E
100
AcDbEntity
  8
躯体と製品
  6
DASHED1
 62
     7
100
AcDbCircle
 10
1485.233279171622
 20
839.6470928187037
 30
0.0
 40
1.0
100
AcDbArc
 50
180.0
 51
270.0
  0
LINE
  5
6DBC
330
1E
100
AcDbEntity
  8
躯体と製品
  6
DASHED1
 62
     7
100
AcDbLine
 10
1482.108249171622
 20
840.8850968187033
 30
0.0
 11
1486.293682171622
 21
840.1470928187038
 31
0.0
  0
LINE
  5
6DBD
330
1E
100
AcDbEntity
  8
躯体と製品
  6
DASHED1
 62
     7
100
AcDbLine
 10
1484.683279171622
 20
870.8470928187033
 30
0.0
 11
1492.783279171622
 21
870.8470928187033
 31
0.0
  0
LINE
  5
6DBE
330
1E
100
AcDbEntity
  8
躯体と製品
  6
DASHED1
 62
     7
100
AcDbLine
 10
1483.983279171622
 20
870.1470928187037
 30
0.0
 11
1493.483279171622
 21
870.1470928187037
 31
0.0
  0
LINE
  5
6DBF
330
1E
100
AcDbEntity
  8
躯体と製品
  6
DASHED1
 62
     7
100
AcDbLine
 10
1495.358309171622
 20
840.8850968187033
 30
0.0
 11
1493.483279171622
 21
851.5189188187035
 31
0.0
  0
LINE
  5
6DC0
330
1E
100
AcDbEntity
  8
躯体と製品
  6
DASHED1
 62
     7
100
AcDbLine
 10
1489.233279171622
 20
851.1470928187037
 30
0.0
 11
1491.172876171622
 21
840.1470928187038
 31
0.0
  0
LINE
  5
6DC1
330
1E
100
AcDbEntity
  8
躯体と製品
  6
DASHED1
 62
     7
100
AcDbLine
 10
1488.233279171622
 20
851.1470928187037
 30
0.0
 11
1486.293682171622
 21
840.1470928187038
 31
0.0
  0
LINE
  5
6DC2
330
1E
100
AcDbEntity
  8
躯体と製品
  6
DASHED1
 62
     7
100
AcDbLine
 10
1495.358309171622
 20
840.8850968187033
 30
0.0
 11
1491.172876171622
 21
840.1470928187038
 31
0.0
  0
LINE
  5
6DC3
330
1E
100
AcDbEntity
  8
躯体と製品
  6
DASHED1
 62
     7
100
AcDbLine
 10
1493.233279171622
 20
839.6470928187037
 30
0.0
 11
1493.233279171622
 21
840.5103968187036
 31
0.0
  0
ARC
  5
6DC4
330
1E
100
AcDbEntity
  8
躯体と製品
  6
DASHED1
 62
     7
100
AcDbCircle
 10
1492.233279171621
 20
839.6470928187037
 30
0.0
 40
1.0
100
AcDbArc
 50
270.0
 51
0.0
  0
LINE
  5
6DC5
330
1E
100
AcDbEntity
  8
躯体と製品
  6
DASHED1
 62
     7
100
AcDbLine
 10
1492.233279171621
 20
838.6470928187037
 30
0.0
 11
1485.233279171622
 21
838.6470928187037
 31
0.0
  0
LINE
  5
6DC6
330
1E
100
AcDbEntity
  8
躯体と製品
  6
DASHED1
 62
     7
100
AcDbLine
 10
1493.483279171622
 20
851.5189188187035
 30
0.0
 11
1493.483279171622
 21
870.1470928187037
 31
0.0
  0
LINE
  5
6DC7
330
1E
100
AcDbEntity
  8
躯体と製品
  6
DASHED1
 62
     7
100
AcDbLine
 10
1493.483279171622
 20
870.1470928187037
 30
0.0
 11
1492.783279171622
 21
870.8470928187033
 31
0.0
  0
LINE
  5
6DC8
330
1E
100
AcDbEntity
  8
躯体と製品
  6
DASHED1
 62
     7
100
AcDbLine
 10
1488.233279171622
 20
851.1470928187037
 30
0.0
 11
1489.233279171622
 21
851.1470928187037
 31
0.0
  0
LINE
  5
6DC9
330
1E
100
AcDbEntity
  8
躯体と製品
  6
DASHED1
 62
     7
100
AcDbLine
 10
1482.108249171622
 20
840.8850968187033
 30
0.0
 11
1483.983279171622
 21
851.5189188187035
 31
0.0
  0
LINE
  5
6DCA
330
1E
100
AcDbEntity
  8
躯体と製品
  6
DASHED1
 62
     7
100
AcDbLine
 10
1484.233279171621
 20
839.6470928187037
 30
0.0
 11
1484.233279171621
 21
840.5103968187036
 31
0.0
  0
LINE
  5
6DCB
330
1E
100
AcDbEntity
  8
躯体と製品
  6
DASHED1
 62
     7
100
AcDbLine
 10
1483.983279171622
 20
851.5189188187035
 30
0.0
 11
1483.983279171622
 21
870.1470928187037
 31
0.0
  0
LINE
  5
6DCC
330
1E
100
AcDbEntity
  8
躯体と製品
  6
DASHED1
 62
     7
100
AcDbLine
 10
1483.983279171622
 20
870.1470928187037
 30
0.0
 11
1484.683279171622
 21
870.8470928187033
 31
0.0
  0
LINE
  5
6DCD
330
1E
100
AcDbEntity
  8
躯体と製品
  6
DASHED1
 62
     7
100
AcDbLine
 10
1492.783279171622
 20
880.1470928187036
 30
0.0
 11
1492.783279171622
 21
870.8470928187033
 31
0.0
  0
LINE
  5
6DCE
330
1E
100
AcDbEntity
  8
躯体と製品
  6
DASHED1
 62
     7
100
AcDbLine
 10
1484.683279171622
 20
880.1470928187036
 30
0.0
 11
1484.683279171622
 21
870.8470928187033
 31
0.0
  0
LINE
  5
6DCF
330
1E
100
AcDbEntity
  8
躯体と製品
  6
Continuous
 62
     4
100
AcDbLine
 10
1474.733279171622
 20
888.6470928187035
 30
0.0
 11
1474.733279171622
 21
887.0470928187032
 31
0.0
  0
LINE
  5
6DD0
330
1E
100
AcDbEntity
  8
躯体と製品
  6
Continuous
 62
     4
100
AcDbLine
 10
1502.733279171622
 20
888.6470928187035
 30
0.0
 11
1502.733279171622
 21
887.0470928187032
 31
0.0
  0
LINE
  5
6DD1
330
1E
100
AcDbEntity
  8
躯体と製品
  6
DASHED1
 62
     7
100
AcDbLine
 10
1485.737390567358
 20
897.913599377861
 30
0.0
 11
1485.925800009832
 21
894.3185330527446
 31
0.0
  0
LINE
  5
6DD2
330
1E
100
AcDbEntity
  8
躯体と製品
  6
DASHED1
 62
     7
100
AcDbLine
 10
1491.729167775885
 20
898.2276151153188
 30
0.0
 11
1491.91757721836
 21
894.6325487902022
 31
0.0
  0
LINE
  5
6DD3
330
1E
100
AcDbEntity
  8
躯体と製品
  6
Continuous
 62
     3
100
AcDbLine
 10
1479.723373663512
 20
897.5984181073597
 30
0.0
 11
1497.523373663512
 21
898.5312765785982
 31
0.0
  0
LINE
  5
6DD4
330
1E
100
AcDbEntity
  8
躯体と製品
  6
Continuous
 62
     3
100
AcDbLine
 10
1479.8071111935
 20
896.0006108517525
 30
0.0
 11
1497.6071111935
 21
896.9334693229903
 31
0.0
  0
ARC
  5
6DD5
330
1E
100
AcDbEntity
  8
躯体と製品
  6
Continuous
 62
     3
100
AcDbCircle
 10
1483.277027263228
 20
895.1810891012673
 30
0.0
 40
1.0
100
AcDbArc
 50
2.999999999998919
 51
93.00000000000558
  0
LINE
  5
6DD6
330
1E
100
AcDbEntity
  8
躯体と製品
  6
Continuous
 62
     3
100
AcDbLine
 10
1484.275656797982
 20
895.2334250575106
 30
0.0
 11
1484.327992754225
 21
894.2347955227559
 31
0.0
  0
ARC
  5
6DD7
330
1E
100
AcDbEntity
  8
躯体と製品
  6
Continuous
 62
     3
100
AcDbCircle
 10
1494.461678052479
 20
895.7672518111886
 30
0.0
 40
1.0
100
AcDbArc
 50
93.00000000000558
 51
182.9999999999989
  0
LINE
  5
6DD8
330
1E
100
AcDbEntity
  8
躯体と製品
  6
Continuous
 62
     3
100
AcDbLine
 10
1493.463048517724
 20
895.7149158549455
 30
0.0
 11
1493.515384473967
 21
894.7162863201908
 31
0.0
  0
LINE
  5
6DD9
330
1E
100
AcDbEntity
  8
躯体と製品
  6
Continuous
 62
     3
100
AcDbLine
 10
1484.327992754225
 20
894.2347955227559
 30
0.0
 11
1493.515384473967
 21
894.7162863201908
 31
0.0
  0
ARC
  5
6DDA
330
1E
100
AcDbEntity
  8
躯体と製品
  6
Continuous
 62
     3
100
AcDbCircle
 10
1479.833279171622
 20
895.5012960843752
 30
0.0
 40
2.1
100
AcDbArc
 50
93.00000000000558
 51
180.0
  0
LINE
  5
6DDB
330
1E
100
AcDbEntity
  8
躯体と製品
  6
Continuous
 62
     3
100
AcDbLine
 10
1477.733279171622
 20
895.5012960843752
 30
0.0
 11
1477.733279171622
 21
889.1470928187036
 31
0.0
  0
ARC
  5
6DDC
330
1E
100
AcDbEntity
  8
躯体と製品
  6
Continuous
 62
     3
100
AcDbCircle
 10
1497.633279171622
 20
896.4341545556136
 30
0.0
 40
2.1
100
AcDbArc
 50
0.0
 51
93.00000000000558
  0
ARC
  5
6DDD
330
1E
100
AcDbEntity
  8
躯体と製品
  6
Continuous
 62
     3
100
AcDbCircle
 10
1479.833279171622
 20
895.5012960843752
 30
0.0
 40
0.5
100
AcDbArc
 50
93.00000000000558
 51
180.0
  0
LINE
  5
6DDE
330
1E
100
AcDbEntity
  8
躯体と製品
  6
Continuous
 62
     3
100
AcDbLine
 10
1479.333279171622
 20
895.5012960843752
 30
0.0
 11
1479.333279171622
 21
889.1470928187036
 31
0.0
  0
ARC
  5
6DDF
330
1E
100
AcDbEntity
  8
躯体と製品
  6
Continuous
 62
     3
100
AcDbCircle
 10
1497.633279171622
 20
896.4341545556136
 30
0.0
 40
0.5
100
AcDbArc
 50
0.0
 51
93.00000000000558
  0
LINE
  5
6DE0
330
1E
100
AcDbEntity
  8
躯体と製品
  6
Continuous
 62
     3
100
AcDbLine
 10
1498.133279171622
 20
896.4341545556136
 30
0.0
 11
1498.133279171622
 21
889.1470928187036
 31
0.0
  0
ARC
  5
6DE1
330
1E
100
AcDbEntity
  8
躯体と製品
  6
Continuous
 62
     3
100
AcDbCircle
 10
1477.233279171622
 20
889.1470928187036
 30
0.0
 40
0.5
100
AcDbArc
 50
270.0
 51
0.0
  0
ARC
  5
6DE2
330
1E
100
AcDbEntity
  8
躯体と製品
  6
Continuous
 62
     3
100
AcDbCircle
 10
1477.233279171622
 20
889.1470928187036
 30
0.0
 40
2.1
100
AcDbArc
 50
270.0
 51
0.0
  0
LINE
  5
6DE3
330
1E
100
AcDbEntity
  8
躯体と製品
  6
Continuous
 62
     3
100
AcDbLine
 10
1472.733279171621
 20
888.6470928187035
 30
0.0
 11
1472.733279171621
 21
887.0470928187032
 31
0.0
  0
LINE
  5
6DE4
330
1E
100
AcDbEntity
  8
躯体と製品
  6
Continuous
 62
     3
100
AcDbLine
 10
1477.233279171622
 20
888.6470928187035
 30
0.0
 11
1472.733279171621
 21
888.6470928187035
 31
0.0
  0
LINE
  5
6DE5
330
1E
100
AcDbEntity
  8
躯体と製品
  6
Continuous
 62
     3
100
AcDbLine
 10
1472.733279171621
 20
887.0470928187032
 30
0.0
 11
1477.233279171622
 21
887.0470928187032
 31
0.0
  0
ARC
  5
6DE6
330
1E
100
AcDbEntity
  8
躯体と製品
  6
Continuous
 62
     3
100
AcDbCircle
 10
1500.233279171621
 20
889.1470928187036
 30
0.0
 40
0.5
100
AcDbArc
 50
180.0
 51
270.0
  0
ARC
  5
6DE7
330
1E
100
AcDbEntity
  8
躯体と製品
  6
Continuous
 62
     3
100
AcDbCircle
 10
1500.233279171621
 20
889.1470928187036
 30
0.0
 40
2.1
100
AcDbArc
 50
180.0
 51
270.0
  0
LINE
  5
6DE8
330
1E
100
AcDbEntity
  8
躯体と製品
  6
Continuous
 62
     3
100
AcDbLine
 10
1504.733279171621
 20
888.6470928187035
 30
0.0
 11
1500.233279171621
 21
888.6470928187035
 31
0.0
  0
LINE
  5
6DE9
330
1E
100
AcDbEntity
  8
躯体と製品
  6
Continuous
 62
     3
100
AcDbLine
 10
1504.733279171621
 20
887.0470928187032
 30
0.0
 11
1504.733279171621
 21
888.6470928187035
 31
0.0
  0
LINE
  5
6DEA
330
1E
100
AcDbEntity
  8
躯体と製品
  6
Continuous
 62
     3
100
AcDbLine
 10
1504.733279171621
 20
887.0470928187032
 30
0.0
 11
1500.233279171621
 21
887.0470928187032
 31
0.0
  0
LINE
  5
6DEB
330
1E
100
AcDbEntity
  8
躯体と製品
  6
Continuous
 62
     3
100
AcDbLine
 10
1499.733279171621
 20
896.4341545556136
 30
0.0
 11
1499.733279171621
 21
889.1470928187036
 31
0.0
  0
ARC
  5
6DEC
330
1E
100
AcDbEntity
  8
躯体と製品
  6
Continuous
 62
     7
100
AcDbCircle
 10
1914.204141804622
 20
860.2101176630274
 30
0.0
 40
21.92619920455546
100
AcDbArc
 50
184.9999999999994
 51
355.0000000000006
  0
LINE
  5
6DED
330
1E
100
AcDbEntity
  8
躯体と製品
  6
Continuous
 62
     7
100
AcDbLine
 10
1938.109136638435
 20
881.8705366702465
 30
0.0
 11
1936.046905201504
 21
858.299123485721
 31
0.0
  0
LINE
  5
6DEE
330
1E
100
AcDbEntity
  8
躯体と製品
  6
Continuous
 62
     7
100
AcDbLine
 10
1890.697108793906
 20
877.3218122177379
 30
0.0
 11
1892.36137840774
 21
858.2991234857209
 31
0.0
  0
LINE
  5
6DEF
330
1E
100
AcDbEntity
  8
躯体と製品
  6
Continuous
 62
     7
100
AcDbLine
 10
1939.105331336526
 20
881.7833809274988
 30
0.0
 11
1937.043099899595
 21
858.2119677429732
 31
0.0
  0
ARC
  5
6DF0
330
1E
100
AcDbEntity
  8
躯体と製品
  6
Continuous
 62
     7
100
AcDbCircle
 10
1914.204141804622
 20
860.2101176630274
 30
0.0
 40
22.92619920455546
100
AcDbArc
 50
184.9999999999994
 51
355.0000000000006
  0
LINE
  5
6DF1
330
1E
100
AcDbEntity
  8
躯体と製品
  6
Continuous
 62
     7
100
AcDbLine
 10
1889.700914095815
 20
877.2346564749906
 30
0.0
 11
1891.365183709648
 21
858.2119677429732
 31
0.0
  0
ARC
  5
6DF2
330
1E
100
AcDbEntity
  8
躯体と製品
  6
Continuous
 62
     3
100
AcDbCircle
 10
1947.29694368313
 20
840.9875096104766
 30
0.0
 40
1.0
100
AcDbArc
 50
180.0
 51
270.0
  0
LINE
  5
6DF3
330
1E
100
AcDbEntity
  8
躯体と製品
  6
Continuous
 62
     3
100
AcDbLine
 10
1951.19694368313
 20
839.9875096104764
 30
0.0
 11
1947.29694368313
 21
839.9875096104764
 31
0.0
  0
ARC
  5
6DF4
330
1E
100
AcDbEntity
  8
躯体と製品
  6
Continuous
 62
     3
100
AcDbCircle
 10
1951.19694368313
 20
839.3875096104766
 30
0.0
 40
0.5999999999999997
100
AcDbArc
 50
270.0
 51
90.0
  0
LINE
  5
6DF5
330
1E
100
AcDbEntity
  8
躯体と製品
  6
Continuous
 62
     3
100
AcDbLine
 10
1944.79694368313
 20
878.0875096104765
 30
0.0
 11
1944.79694368313
 21
841.2875096104766
 31
0.0
  0
ARC
  5
6DF6
330
1E
100
AcDbEntity
  8
躯体と製品
  6
Continuous
 62
     3
100
AcDbCircle
 10
1945.54694368313
 20
896.0375096104765
 30
0.0
 40
0.75
100
AcDbArc
 50
0.0
 51
180.0
  0
LINE
  5
6DF7
330
1E
100
AcDbEntity
  8
躯体と製品
  6
Continuous
 62
     3
100
AcDbLine
 10
1944.79694368313
 20
889.4875096104765
 30
0.0
 11
1944.79694368313
 21
896.0375096104765
 31
0.0
  0
ARC
  5
6DF8
330
1E
100
AcDbEntity
  8
躯体と製品
  6
Continuous
 62
     3
100
AcDbCircle
 10
1944.29694368313
 20
889.4875096104765
 30
0.0
 40
0.5
100
AcDbArc
 50
270.0
 51
0.0
  0
ARC
  5
6DF9
330
1E
100
AcDbEntity
  8
躯体と製品
  6
Continuous
 62
     3
100
AcDbCircle
 10
1940.59694368313
 20
887.9875096104763
 30
0.0
 40
1.0
100
AcDbArc
 50
90.0
 51
180.0
  0
LINE
  5
6DFA
330
1E
100
AcDbEntity
  8
躯体と製品
  6
Continuous
 62
     3
100
AcDbLine
 10
1944.29694368313
 20
888.9875096104765
 30
0.0
 11
1940.59694368313
 21
888.9875096104765
 31
0.0
  0
ARC
  5
6DFB
330
1E
100
AcDbEntity
  8
躯体と製品
  6
Continuous
 62
     3
100
AcDbCircle
 10
1944.29694368313
 20
878.0875096104765
 30
0.0
 40
0.5
100
AcDbArc
 50
0.0
 51
90.0
  0
ARC
  5
6DFC
330
1E
100
AcDbEntity
  8
躯体と製品
  6
Continuous
 62
     3
100
AcDbCircle
 10
1940.59694368313
 20
879.5875096104765
 30
0.0
 40
1.0
100
AcDbArc
 50
180.0
 51
270.0
  0
LINE
  5
6DFD
330
1E
100
AcDbEntity
  8
躯体と製品
  6
Continuous
 62
     3
100
AcDbLine
 10
1944.29694368313
 20
878.5875096104765
 30
0.0
 11
1940.59694368313
 21
878.5875096104765
 31
0.0
  0
ARC
  5
6DFE
330
1E
100
AcDbEntity
  8
躯体と製品
  6
Continuous
 62
     3
100
AcDbCircle
 10
1944.49694368313
 20
887.4875096104762
 30
0.0
 40
0.2999999999999998
100
AcDbArc
 50
0.0
 51
90.0
  0
LINE
  5
6DFF
330
1E
100
AcDbEntity
  8
躯体と製品
  6
Continuous
 62
     3
100
AcDbLine
 10
1944.79694368313
 20
887.4875096104762
 30
0.0
 11
1944.79694368313
 21
880.0875096104766
 31
0.0
  0
ARC
  5
6E00
330
1E
100
AcDbEntity
  8
躯体と製品
  6
Continuous
 62
     3
100
AcDbCircle
 10
1944.49694368313
 20
880.0875096104766
 30
0.0
 40
0.2999999999999998
100
AcDbArc
 50
270.0
 51
0.0
  0
LINE
  5
6E01
330
1E
100
AcDbEntity
  8
躯体と製品
  6
Continuous
 62
     3
100
AcDbLine
 10
1941.09694368313
 20
879.7875096104766
 30
0.0
 11
1944.49694368313
 21
879.7875096104766
 31
0.0
  0
LINE
  5
6E02
330
1E
100
AcDbEntity
  8
躯体と製品
  6
Continuous
 62
     3
100
AcDbLine
 10
1941.09694368313
 20
887.7875096104766
 30
0.0
 11
1944.49694368313
 21
887.7875096104766
 31
0.0
  0
LINE
  5
6E03
330
1E
100
AcDbEntity
  8
躯体と製品
  6
Continuous
 62
     3
100
AcDbLine
 10
1946.29694368313
 20
896.0375096104765
 30
0.0
 11
1946.29694368313
 21
851.7875096104766
 31
0.0
  0
ARC
  5
6E04
330
1E
100
AcDbEntity
  8
躯体と製品
  6
Continuous
 62
     3
100
AcDbCircle
 10
1947.29694368313
 20
841.2875096104766
 30
0.0
 40
2.5
100
AcDbArc
 50
180.0
 51
270.0
  0
LINE
  5
6E05
330
1E
100
AcDbEntity
  8
躯体と製品
  6
Continuous
 62
     3
100
AcDbLine
 10
1951.19694368313
 20
838.7875096104766
 30
0.0
 11
1947.29694368313
 21
838.7875096104766
 31
0.0
  0
ARC
  5
6E06
330
1E
100
AcDbEntity
  8
躯体と製品
  6
Continuous
 62
     3
100
AcDbCircle
 10
1946.79694368313
 20
851.7875096104766
 30
0.0
 40
0.5
100
AcDbArc
 50
180.0
 51
270.0
  0
LINE
  5
6E07
330
1E
100
AcDbEntity
  8
躯体と製品
  6
Continuous
 62
     3
100
AcDbLine
 10
1946.79694368313
 20
851.2875096104766
 30
0.0
 11
1953.49694368313
 21
851.2875096104766
 31
0.0
  0
LINE
  5
6E08
330
1E
100
AcDbEntity
  8
躯体と製品
  6
Continuous
 62
     3
100
AcDbLine
 10
1946.29694368313
 20
849.7875096104765
 30
0.0
 11
1946.29694368313
 21
840.9875096104766
 31
0.0
  0
ARC
  5
6E09
330
1E
100
AcDbEntity
  8
躯体と製品
  6
Continuous
 62
     3
100
AcDbCircle
 10
1946.79694368313
 20
849.7875096104765
 30
0.0
 40
0.5
100
AcDbArc
 50
90.0
 51
180.0
  0
ARC
  5
6E0A
330
1E
100
AcDbEntity
  8
躯体と製品
  6
Continuous
 62
     3
100
AcDbCircle
 10
1953.49694368313
 20
850.9875096104766
 30
0.0
 40
0.2999999999999998
100
AcDbArc
 50
0.0
 51
90.0
  0
LINE
  5
6E0B
330
1E
100
AcDbEntity
  8
躯体と製品
  6
Continuous
 62
     3
100
AcDbLine
 10
1946.79694368313
 20
850.2875096104766
 30
0.0
 11
1951.79694368313
 21
850.2875096104766
 31
0.0
  0
LINE
  5
6E0C
330
1E
100
AcDbEntity
  8
躯体と製品
  6
Continuous
 62
     3
100
AcDbLine
 10
1953.79694368313
 20
850.9875096104766
 30
0.0
 11
1953.79694368313
 21
850.6778976104765
 31
0.0
  0
LINE
  5
6E0D
330
1E
100
AcDbEntity
  8
躯体と製品
  6
Continuous
 62
     3
100
AcDbLine
 10
1951.79694368313
 20
850.2875096104766
 30
0.0
 11
1951.79694368313
 21
849.7875096104765
 31
0.0
  0
ARC
  5
6E0E
330
1E
100
AcDbEntity
  8
躯体と製品
  6
Continuous
 62
     3
100
AcDbCircle
 10
1953.29694368313
 20
850.6778976104765
 30
0.0
 40
0.5
100
AcDbArc
 50
284.0362430000043
 51
0.0
  0
LINE
  5
6E0F
330
1E
100
AcDbEntity
  8
躯体と製品
  6
Continuous
 62
     3
100
AcDbLine
 10
1951.79694368313
 20
849.7875096104765
 30
0.0
 11
1953.41821168313
 21
850.1928266104766
 31
0.0
  0
LINE
  5
6E10
330
1E
100
AcDbEntity
  8
躯体と製品
  6
Continuous
 62
     3
100
AcDbLine
 10
1939.59694368313
 20
885.8875096104766
 30
0.0
 11
1939.59694368313
 21
887.9875096104763
 31
0.0
  0
ARC
  5
6E11
330
1E
100
AcDbEntity
  8
躯体と製品
  6
Continuous
 62
     3
100
AcDbCircle
 10
1941.09694368313
 20
887.4875096104762
 30
0.0
 40
0.2999999999999998
100
AcDbArc
 50
90.0
 51
180.0
  0
LINE
  5
6E12
330
1E
100
AcDbEntity
  8
躯体と製品
  6
Continuous
 62
     3
100
AcDbLine
 10
1940.79694368313
 20
885.8875096104766
 30
0.0
 11
1940.79694368313
 21
887.4875096104762
 31
0.0
  0
ARC
  5
6E13
330
1E
100
AcDbEntity
  8
躯体と製品
  6
Continuous
 62
     3
100
AcDbCircle
 10
1941.09694368313
 20
880.0875096104766
 30
0.0
 40
0.2999999999999998
100
AcDbArc
 50
180.0
 51
270.0
  0
LINE
  5
6E14
330
1E
100
AcDbEntity
  8
躯体と製品
  6
Continuous
 62
     3
100
AcDbLine
 10
1940.79694368313
 20
881.6875096104766
 30
0.0
 11
1940.79694368313
 21
880.0875096104766
 31
0.0
  0
LINE
  5
6E15
330
1E
100
AcDbEntity
  8
躯体と製品
  6
Continuous
 62
     3
100
AcDbLine
 10
1939.59694368313
 20
881.6875096104766
 30
0.0
 11
1939.59694368313
 21
879.5875096104765
 31
0.0
  0
ARC
  5
6E16
330
1E
100
AcDbEntity
  8
躯体と製品
  6
Continuous
 62
     3
100
AcDbCircle
 10
1940.19694368313
 20
885.8875096104766
 30
0.0
 40
0.5999999999999997
100
AcDbArc
 50
180.0
 51
0.0
  0
ARC
  5
6E17
330
1E
100
AcDbEntity
  8
躯体と製品
  6
Continuous
 62
     3
100
AcDbCircle
 10
1940.19694368313
 20
881.6875096104766
 30
0.0
 40
0.5999999999999997
100
AcDbArc
 50
0.0
 51
180.0
  0
LINE
  5
6E18
330
1E
100
AcDbEntity
  8
躯体と製品
  6
Continuous
 62
     7
100
AcDbLine
 10
1942.29694368313
 20
884.2875096104766
 30
0.0
 11
1943.94802868313
 21
883.7641366104765
 31
0.0
  0
ARC
  5
6E19
330
1E
100
AcDbEntity
  8
躯体と製品
  6
Continuous
 62
     7
100
AcDbCircle
 10
1943.79694368313
 20
883.2875096104766
 30
0.0
 40
0.5
100
AcDbArc
 50
287.587954000005
 51
72.41204599999497
  0
LINE
  5
6E1A
330
1E
100
AcDbEntity
  8
躯体と製品
  6
Continuous
 62
     7
100
AcDbLine
 10
1940.79694368313
 20
880.2875096104767
 30
0.0
 11
1940.79694368313
 21
882.7875096104765
 31
0.0
  0
ARC
  5
6E1B
330
1E
100
AcDbEntity
  8
躯体と製品
  6
Continuous
 62
     7
100
AcDbCircle
 10
1941.29694368313
 20
886.2875096104765
 30
0.0
 40
0.5
100
AcDbArc
 50
90.0
 51
180.0
  0
ARC
  5
6E1C
330
1E
100
AcDbEntity
  8
躯体と製品
  6
Continuous
 62
     7
100
AcDbCircle
 10
1941.29694368313
 20
880.2875096104767
 30
0.0
 40
0.5
100
AcDbArc
 50
180.0
 51
270.0
  0
ARC
  5
6E1D
330
1E
100
AcDbEntity
  8
躯体と製品
  6
Continuous
 62
     7
100
AcDbCircle
 10
1941.79694368313
 20
880.2875096104767
 30
0.0
 40
0.5
100
AcDbArc
 50
270.0
 51
0.0
  0
LINE
  5
6E1E
330
1E
100
AcDbEntity
  8
躯体と製品
  6
Continuous
 62
     7
100
AcDbLine
 10
1941.29694368313
 20
879.7875096104766
 30
0.0
 11
1941.79694368313
 21
879.7875096104766
 31
0.0
  0
LINE
  5
6E1F
330
1E
100
AcDbEntity
  8
躯体と製品
  6
Continuous
 62
     7
100
AcDbLine
 10
1941.29694368313
 20
886.7875096104766
 30
0.0
 11
1941.79694368313
 21
886.7875096104766
 31
0.0
  0
ARC
  5
6E20
330
1E
100
AcDbEntity
  8
躯体と製品
  6
Continuous
 62
     7
100
AcDbCircle
 10
1941.79694368313
 20
886.2875096104765
 30
0.0
 40
0.5
100
AcDbArc
 50
0.0
 51
90.0
  0
LINE
  5
6E21
330
1E
100
AcDbEntity
  8
躯体と製品
  6
Continuous
 62
     7
100
AcDbLine
 10
1942.29694368313
 20
884.2875096104766
 30
0.0
 11
1942.29694368313
 21
886.2875096104765
 31
0.0
  0
LINE
  5
6E22
330
1E
100
AcDbEntity
  8
躯体と製品
  6
Continuous
 62
     7
100
AcDbLine
 10
1942.29694368313
 20
882.2875096104766
 30
0.0
 11
1942.29694368313
 21
880.2875096104767
 31
0.0
  0
LINE
  5
6E23
330
1E
100
AcDbEntity
  8
躯体と製品
  6
Continuous
 62
     7
100
AcDbLine
 10
1942.29694368313
 20
882.2875096104766
 30
0.0
 11
1943.94802868313
 21
882.8108826104765
 31
0.0
  0
LINE
  5
6E24
330
1E
100
AcDbEntity
  8
躯体と製品
  6
Continuous
 62
     7
100
AcDbLine
 10
1940.79694368313
 20
886.2875096104765
 30
0.0
 11
1940.79694368313
 21
883.7875096104765
 31
0.0
  0
LINE
  5
6E25
330
1E
100
AcDbEntity
  8
躯体と製品
  6
Continuous
 62
     7
100
AcDbLine
 10
1940.201145504428
 20
882.7875096104765
 30
0.0
 11
1940.79694368313
 21
882.7875096104765
 31
0.0
  0
ARC
  5
6E26
330
1E
100
AcDbEntity
  8
躯体と製品
  6
Continuous
 62
     7
100
AcDbCircle
 10
1940.201145504428
 20
881.6875096104766
 30
0.0
 40
1.1
100
AcDbArc
 50
90.0
 51
175.0000000000005
  0
LINE
  5
6E27
330
1E
100
AcDbEntity
  8
躯体と製品
  6
Continuous
 62
     7
100
AcDbLine
 10
1940.201145504428
 20
883.7875096104765
 30
0.0
 11
1940.79694368313
 21
883.7875096104765
 31
0.0
  0
ARC
  5
6E28
330
1E
100
AcDbEntity
  8
躯体と製品
  6
Continuous
 62
     7
100
AcDbCircle
 10
1940.201145504428
 20
881.6875096104766
 30
0.0
 40
2.1
100
AcDbArc
 50
90.0
 51
175.0000000000005
  0
LINE
  5
6E29
330
1E
100
AcDbEntity
  8
躯体と製品
  6
DASHED1
 62
     7
100
AcDbLine
 10
1904.69084480681
 20
902.1164596632875
 30
0.0
 11
1933.151786547316
 21
900.6248849103638
 31
0.0
  0
LINE
  5
6E2A
330
1E
100
AcDbEntity
  8
躯体と製品
  6
DASHED1
 62
     7
100
AcDbLine
 10
1928.001631004814
 20
897.8906760873146
 30
0.0
 11
1932.994778678586
 21
897.6289963060999
 31
0.0
  0
LINE
  5
6E2B
330
1E
100
AcDbEntity
  8
躯体と製品
  6
DASHED1
 62
     4
100
AcDbLine
 10
1932.916274744222
 20
896.1310520039679
 30
0.0
 11
1663.733279171622
 21
910.2383350226846
 31
0.0
  0
LINE
  5
6E2C
330
1E
100
AcDbEntity
  8
躯体と製品
  6
DASHED1
 62
     4
100
AcDbLine
 10
1932.994778678586
 20
897.6289963060999
 30
0.0
 11
1663.733279171622
 21
911.7403935416815
 31
0.0
  0
LINE
  5
6E2D
330
1E
100
AcDbEntity
  8
躯体と製品
  6
DASHED1
 62
     4
100
AcDbLine
 10
1933.177954525437
 20
901.1241996777407
 30
0.0
 11
1663.733279171622
 21
915.2451967526745
 31
0.0
  0
LINE
  5
6E2E
330
1E
100
AcDbEntity
  8
躯体と製品
  6
DASHED1
 62
     4
100
AcDbLine
 10
1933.272159246675
 20
902.9217328402991
 30
0.0
 11
1663.733279171622
 21
917.0476669754705
 31
0.0
  0
LINE
  5
6E2F
330
1E
100
AcDbEntity
  8
躯体と製品
  6
Continuous
 62
     3
100
AcDbLine
 10
1932.863938787979
 20
895.1324224692138
 30
0.0
 11
1663.733279171622
 21
909.2369626766869
 31
0.0
  0
LINE
  5
6E30
330
1E
100
AcDbEntity
  8
躯体と製品
  6
Continuous
 62
     3
100
AcDbLine
 10
1932.863938787979
 20
895.1324224692138
 30
0.0
 11
1934.329345562782
 21
923.0940494423416
 31
0.0
  0
ARC
  5
6E31
330
1E
100
AcDbEntity
  8
躯体と製品
  6
Continuous
 62
     3
100
AcDbCircle
 10
1943.129562704624
 20
893.8492452216426
 30
0.0
 40
0.5999999999999984
100
AcDbArc
 50
166.9999999999997
 51
346.9999999999997
  0
ARC
  5
6E32
330
1E
100
AcDbEntity
  8
躯体と製品
  6
Continuous
 62
     3
100
AcDbCircle
 10
1942.640948176279
 20
896.622775811139
 30
0.0
 40
0.5
100
AcDbArc
 50
346.9999999999997
 51
86.99999999999441
  0
ARC
  5
6E33
330
1E
100
AcDbEntity
  8
躯体と製品
  6
Continuous
 62
     3
100
AcDbCircle
 10
1944.71470244368
 20
896.7143694244052
 30
0.0
 40
0.2999999999999999
100
AcDbArc
 50
86.99999999999441
 51
166.9999999999997
  0
ARC
  5
6E34
330
1E
100
AcDbEntity
  8
躯体と製品
  6
Continuous
 62
     3
100
AcDbCircle
 10
1947.39694368313
 20
848.6875096104766
 30
0.0
 40
0.6000000000000015
100
AcDbArc
 50
90.0
 51
270.0
  0
LINE
  5
6E35
330
1E
100
AcDbEntity
  8
躯体と製品
  6
Continuous
 62
     3
100
AcDbLine
 10
1958.564417961085
 20
840.9721969046795
 30
0.0
 11
1958.564417961085
 21
837.2875096104765
 31
0.0
  0
LINE
  5
6E36
330
1E
100
AcDbEntity
  8
躯体と製品
  6
Continuous
 62
     3
100
AcDbLine
 10
1961.564417961085
 20
839.7875096104765
 30
0.0
 11
1961.564417961085
 21
841.2875096104766
 31
0.0
  0
LINE
  5
6E37
330
1E
100
AcDbEntity
  8
躯体と製品
  6
Continuous
 62
     3
100
AcDbLine
 10
1959.064417961085
 20
837.2875096104765
 30
0.0
 11
1958.564417961085
 21
837.2875096104765
 31
0.0
  0
ARC
  5
6E38
330
1E
100
AcDbEntity
  8
躯体と製品
  6
Continuous
 62
     3
100
AcDbCircle
 10
1959.064417961085
 20
839.7875096104765
 30
0.0
 40
2.5
100
AcDbArc
 50
270.0
 51
0.0
  0
LINE
  5
6E39
330
1E
100
AcDbEntity
  8
躯体と製品
  6
Continuous
 62
     3
100
AcDbLine
 10
1951.79694368313
 20
849.2875096104766
 30
0.0
 11
1951.79694368313
 21
850.2875096104766
 31
0.0
  0
LINE
  5
6E3A
330
1E
100
AcDbEntity
  8
躯体と製品
  6
Continuous
 62
     3
100
AcDbLine
 10
1951.79694368313
 20
850.2875096104766
 30
0.0
 11
1949.79694368313
 21
849.2875096104766
 31
0.0
  0
LINE
  5
6E3B
330
1E
100
AcDbEntity
  8
躯体と製品
  6
Continuous
 62
     3
100
AcDbLine
 10
1947.39694368313
 20
849.2875096104766
 30
0.0
 11
1949.79694368313
 21
849.2875096104766
 31
0.0
  0
ARC
  5
6E3C
330
1E
100
AcDbEntity
  8
躯体と製品
  6
Continuous
 62
     3
100
AcDbCircle
 10
1956.179495104862
 20
849.7875096104765
 30
0.0
 40
0.5
100
AcDbArc
 50
270.0
 51
11.99999999999979
  0
LINE
  5
6E3D
330
1E
100
AcDbEntity
  8
躯体と製品
  6
Continuous
 62
     3
100
AcDbLine
 10
1956.647119540537
 20
848.0875096104766
 30
0.0
 11
1947.39694368313
 21
848.0875096104766
 31
0.0
  0
LINE
  5
6E3E
330
1E
100
AcDbEntity
  8
躯体と製品
  6
Continuous
 62
     3
100
AcDbLine
 10
1957.136193340903
 20
847.6914654558854
 30
0.0
 11
1958.564417961085
 21
840.9721969046795
 31
0.0
  0
ARC
  5
6E3F
330
1E
100
AcDbEntity
  8
躯体と製品
  6
Continuous
 62
     3
100
AcDbCircle
 10
1956.647119540537
 20
847.5875096104767
 30
0.0
 40
0.5
100
AcDbArc
 50
11.99999999999979
 51
90.0
  0
ARC
  5
6E40
330
1E
100
AcDbEntity
  8
躯体と製品
  6
Continuous
 62
     3
100
AcDbCircle
 10
1933.415589511599
 20
896.1048840258463
 30
0.0
 40
0.5
100
AcDbArc
 50
177.0000000000011
 51
266.9999999999944
  0
LINE
  5
6E41
330
1E
100
AcDbEntity
  8
躯体と製品
  6
Continuous
 62
     3
100
AcDbLine
 10
1933.888736300856
 20
895.5794012803478
 30
0.0
 11
1933.389421533479
 21
895.6055692584691
 31
0.0
  0
ARC
  5
6E42
330
1E
100
AcDbEntity
  8
躯体と製品
  6
Continuous
 62
     3
100
AcDbCircle
 10
1933.914904278977
 20
896.078716047725
 30
0.0
 40
0.5
100
AcDbArc
 50
266.9999999999944
 51
357.0000000000011
  0
ARC
  5
6E43
330
1E
100
AcDbEntity
  8
躯体と製品
  6
Continuous
 62
     3
100
AcDbCircle
 10
1945.855413706377
 20
895.953626638126
 30
0.0
 40
1.0
100
AcDbArc
 50
11.99999999999979
 51
86.99999999999441
  0
ARC
  5
6E44
330
1E
100
AcDbEntity
  8
躯体と製品
  6
Continuous
 62
     3
100
AcDbCircle
 10
1946.67402505563
 20
896.9120973812135
 30
0.0
 40
3.0
100
AcDbArc
 50
11.99999999999979
 51
86.99999999999441
  0
ARC
  5
6E45
330
1E
100
AcDbEntity
  8
躯体と製品
  6
Continuous
 62
     3
100
AcDbCircle
 10
1933.781941205301
 20
903.0952907691284
 30
0.0
 40
0.5
100
AcDbArc
 50
86.99999999999441
 51
177.0000000000011
  0
LINE
  5
6E46
330
1E
100
AcDbEntity
  8
躯体と製品
  6
Continuous
 62
     3
100
AcDbLine
 10
1934.307423950799
 20
903.5684375583846
 30
0.0
 11
1933.808109183422
 21
903.5946055365061
 31
0.0
  0
ARC
  5
6E47
330
1E
100
AcDbEntity
  8
躯体と製品
  6
Continuous
 62
     3
100
AcDbCircle
 10
1934.281255972678
 20
903.069122791007
 30
0.0
 40
0.5
100
AcDbArc
 50
357.0000000000011
 51
86.99999999999441
  0
LINE
  5
6E48
330
1E
100
AcDbEntity
  8
躯体と製品
  6
Continuous
 62
     3
100
AcDbLine
 10
1949.608467857831
 20
897.5358324536669
 30
0.0
 11
1961.564417961085
 21
841.2875096104766
 31
0.0
  0
LINE
  5
6E49
330
1E
100
AcDbEntity
  8
躯体と製品
  6
Continuous
 62
     3
100
AcDbLine
 10
1946.833561307111
 20
896.1615383289434
 30
0.0
 11
1956.668568905229
 21
849.8914654558854
 31
0.0
  0
LINE
  5
6E4A
330
1E
100
AcDbEntity
  8
躯体と製品
  6
Continuous
 62
     3
100
AcDbLine
 10
1956.179495104862
 20
849.2875096104766
 30
0.0
 11
1951.79694368313
 21
849.2875096104766
 31
0.0
  0
LINE
  5
6E4B
330
1E
100
AcDbEntity
  8
躯体と製品
  6
Continuous
 62
     3
100
AcDbLine
 10
1934.675898827569
 20
901.0456957433767
 30
0.0
 11
1934.780570740055
 21
903.0429548128855
 31
0.0
  0
LINE
  5
6E4C
330
1E
100
AcDbEntity
  8
躯体と製品
  6
Continuous
 62
     3
100
AcDbLine
 10
1935.149045616825
 20
900.520212997878
 30
0.0
 11
1946.831032924359
 21
899.9079859854772
 31
0.0
  0
ARC
  5
6E4D
330
1E
100
AcDbEntity
  8
躯体と製品
  6
Continuous
 62
     3
100
AcDbCircle
 10
1935.175213594946
 20
901.0195277652549
 30
0.0
 40
0.5
100
AcDbArc
 50
177.0000000000011
 51
266.9999999999944
  0
LINE
  5
6E4E
330
1E
100
AcDbEntity
  8
躯体と製品
  6
Continuous
 62
     3
100
AcDbLine
 10
1934.466555002597
 20
897.0511776043581
 30
0.0
 11
1934.414219046354
 21
896.0525480696036
 31
0.0
  0
ARC
  5
6E4F
330
1E
100
AcDbEntity
  8
躯体と製品
  6
Continuous
 62
     3
100
AcDbCircle
 10
1934.965869769975
 20
897.0250096262367
 30
0.0
 40
0.5
100
AcDbArc
 50
86.99999999999441
 51
177.0000000000011
  0
LINE
  5
6E50
330
1E
100
AcDbEntity
  8
躯体と製品
  6
Continuous
 62
     3
100
AcDbLine
 10
1944.422391424245
 20
896.7818547407086
 30
0.0
 11
1943.714184743496
 21
893.7142745890364
 31
0.0
  0
LINE
  5
6E51
330
1E
100
AcDbEntity
  8
躯体と製品
  6
Continuous
 62
     3
100
AcDbLine
 10
1945.90774966262
 20
896.9522561728805
 30
0.0
 11
1944.730403230553
 21
897.0139582848316
 31
0.0
  0
LINE
  5
6E52
330
1E
100
AcDbEntity
  8
躯体と製品
  6
Continuous
 62
     3
100
AcDbLine
 10
1934.992037748096
 20
897.5243243936137
 30
0.0
 11
1942.667116154401
 21
897.1220905785163
 31
0.0
  0
LINE
  5
6E53
330
1E
100
AcDbEntity
  8
躯体と製品
  6
Continuous
 62
     3
100
AcDbLine
 10
1943.128133208673
 20
896.510300283967
 30
0.0
 11
1942.544940665753
 21
893.9842158542489
 31
0.0
  0
ARC
  5
6E54
330
1E
100
AcDbEntity
  8
躯体と製品
  6
DASHED1
 62
     7
100
AcDbCircle
 10
1904.612340872446
 20
900.6185153611557
 30
0.0
 40
1.5
100
AcDbArc
 50
86.99999999999441
 51
266.9999999999944
  0
LINE
  5
6E55
330
1E
100
AcDbEntity
  8
躯体と製品
  6
DASHED1
 62
     7
100
AcDbLine
 10
1904.533836938081
 20
899.1205710590238
 30
0.0
 11
1908.029040309722
 21
898.9373952121734
 31
0.0
  0
LINE
  5
6E56
330
1E
100
AcDbEntity
  8
躯体と製品
  6
DASHED1
 62
     7
100
AcDbLine
 10
1908.081376265965
 20
899.9360247469283
 30
0.0
 11
1908.029040309722
 21
898.9373952121734
 31
0.0
  0
LINE
  5
6E57
330
1E
100
AcDbEntity
  8
躯体と製品
  6
DASHED1
 62
     7
100
AcDbLine
 10
1908.081376265965
 20
899.9360247469283
 30
0.0
 11
1928.053966961057
 21
898.8893056220693
 31
0.0
  0
LINE
  5
6E58
330
1E
100
AcDbEntity
  8
躯体と製品
  6
DASHED1
 62
     7
100
AcDbLine
 10
1928.053966961057
 20
898.8893056220693
 30
0.0
 11
1928.001631004814
 21
897.8906760873146
 31
0.0
  0
LINE
  5
6E59
330
1E
100
AcDbEntity
  8
躯体と製品
  6
Continuous
 62
     7
100
AcDbLine
 10
1888.733279171622
 20
878.1470928187037
 30
0.0
 11
1738.733279171622
 21
878.1470928187037
 31
0.0
  0
LINE
  5
6E5A
330
1E
100
AcDbEntity
  8
躯体と製品
  6
DASHED1
 62
     7
100
AcDbLine
 10
1811.117077198458
 20
912.2324609028792
 30
0.0
 11
1812.948626244866
 21
909.8564499107826
 31
0.0
  0
LINE
  5
6E5B
330
1E
100
AcDbEntity
  8
躯体と製品
  6
DASHED1
 62
     7
100
AcDbLine
 10
1811.117077198458
 20
912.2324609028792
 30
0.0
 11
1811.750680124636
 21
912.7208739779899
 31
0.0
  0
ARC
  5
6E5C
330
1E
100
AcDbEntity
  8
躯体と製品
  6
Continuous
 62
     7
100
AcDbCircle
 10
1888.704719397723
 20
877.1475007322425
 30
0.0
 40
1.0
100
AcDbArc
 50
4.999999999999459
 51
88.3634229583817
  0
POINT
  5
6E5D
330
1E
100
AcDbEntity
  8
躯体と製品
 62
     4
100
AcDbPoint
 10
1838.733279171622
 20
898.0706072465899
 30
0.0
  0
LINE
  5
6E5E
330
1E
100
AcDbEntity
  8
躯体と製品
  6
Continuous
 62
     4
100
AcDbLine
 10
1841.265713716806
 20
899.9328820314618
 30
0.0
 11
1841.161446885378
 21
897.9433523689852
 31
0.0
  0
LINE
  5
6E5F
330
1E
100
AcDbEntity
  8
躯体と製品
  6
Continuous
 62
     4
100
AcDbLine
 10
1836.409378289294
 20
900.1873917866712
 30
0.0
 11
1836.305111457866
 21
898.1978621241948
 31
0.0
  0
LINE
  5
6E60
330
1E
100
AcDbEntity
  8
躯体と製品
  6
Continuous
 62
     7
100
AcDbLine
 10
1841.540758333411
 20
894.3185330527446
 30
0.0
 11
1841.277024888517
 21
889.2861991415946
 31
0.0
  0
LINE
  5
6E61
330
1E
100
AcDbEntity
  8
躯体と製品
  6
Continuous
 62
     7
100
AcDbLine
 10
1841.833434607313
 20
899.903129040338
 30
0.0
 11
1841.729167775886
 21
897.913599377861
 31
0.0
  0
LINE
  5
6E62
330
1E
100
AcDbEntity
  8
躯体と製品
  6
Continuous
 62
     7
100
AcDbLine
 10
1835.548981124883
 20
894.6325487902022
 30
0.0
 11
1835.285247679989
 21
889.600214879052
 31
0.0
  0
LINE
  5
6E63
330
1E
100
AcDbEntity
  8
躯体と製品
  6
Continuous
 62
     7
100
AcDbLine
 10
1835.841657398785
 20
900.2171447777955
 30
0.0
 11
1835.737390567358
 21
898.2276151153188
 31
0.0
  0
LINE
  5
6E64
330
1E
100
AcDbEntity
  8
躯体と製品
  6
Continuous
 62
     4
100
AcDbLine
 10
1841.277024888517
 20
889.2861991415946
 30
0.0
 11
1835.285247679989
 21
889.600214879052
 31
0.0
  0
ARC
  5
6E65
330
1E
100
AcDbEntity
  8
躯体と製品
  6
DASHED1
 62
     7
100
AcDbCircle
 10
1839.957535518984
 20
921.4308099514441
 30
0.0
 40
6.299999999999998
100
AcDbArc
 50
47.69686900000316
 51
126.3093710000041
  0
ARC
  5
6E66
330
1E
100
AcDbEntity
  8
躯体と製品
  6
DASHED1
 62
     7
100
AcDbCircle
 10
1841.88124707172
 20
923.5336505377361
 30
0.0
 40
3.45
100
AcDbArc
 50
0.3127429999987237
 51
47.82048899999998
  0
ARC
  5
6E67
330
1E
100
AcDbEntity
  8
躯体と製品
  6
DASHED1
 62
     7
100
AcDbCircle
 10
1838.269911066464
 20
923.7274218176905
 30
0.0
 40
3.45
100
AcDbArc
 50
126.3091240000008
 51
173.7621629999991
  0
LINE
  5
6E68
330
1E
100
AcDbEntity
  8
躯体と製品
  6
DASHED1
 62
     7
100
AcDbLine
 10
1840.994281112329
 20
926.8826023714725
 30
0.0
 11
1839.496336810197
 21
926.9611063058368
 31
0.0
  0
ARC
  5
6E69
330
1E
100
AcDbEntity
  8
躯体と製品
  6
DASHED1
 62
     7
100
AcDbCircle
 10
1841.595512757784
 20
926.890392013818
 30
0.0
 40
0.5999999999999997
100
AcDbArc
 50
73.29976700000166
 51
177.0000000000011
  0
ARC
  5
6E6A
330
1E
100
AcDbEntity
  8
躯体と製品
  6
DASHED1
 62
     7
100
AcDbCircle
 10
1838.899213013947
 20
927.0316990956741
 30
0.0
 40
0.5999999999999997
100
AcDbArc
 50
357.0000000000011
 51
100.7002330000058
  0
LINE
  5
6E6B
330
1E
100
AcDbEntity
  8
躯体と製品
  6
DASHED1
 62
     7
100
AcDbLine
 10
1850.74111870868
 20
923.2689589327806
 30
0.0
 11
1829.425164814584
 21
924.3860807396702
 31
0.0
  0
LINE
  5
6E6C
330
1E
100
AcDbEntity
  8
躯体と製品
  6
DASHED1
 62
     7
100
AcDbLine
 10
1828.028032534934
 20
923.8304734112615
 30
0.0
 11
1815.09808145768
 21
910.2654205520341
 31
0.0
  0
LINE
  5
6E6D
330
1E
100
AcDbEntity
  8
躯体と製品
  6
DASHED1
 62
     7
100
AcDbLine
 10
1811.750680124636
 20
912.7208739779899
 30
0.0
 11
1813.582229171024
 21
910.3448629859187
 31
0.0
  0
LINE
  5
6E6E
330
1E
100
AcDbEntity
  8
躯体と製品
  6
DASHED1
 62
     7
100
AcDbLine
 10
1850.699249943685
 20
922.4700553049769
 30
0.0
 11
1829.383296049589
 21
923.5871771118663
 31
0.0
  0
ARC
  5
6E6F
330
1E
100
AcDbEntity
  8
躯体と製品
  6
DASHED1
 62
     7
100
AcDbCircle
 10
1850.646913987443
 20
921.4714257702224
 30
0.0
 40
1.8
100
AcDbArc
 50
37.62684736228169
 51
86.99999999999441
  0
LINE
  5
6E70
330
1E
100
AcDbEntity
  8
躯体と製品
  6
DASHED1
 62
     7
100
AcDbLine
 10
1851.438917645141
 20
922.081942114142
 30
0.0
 11
1862.880102982594
 21
907.2396520986357
 31
0.0
  0
LINE
  5
6E71
330
1E
100
AcDbEntity
  8
躯体と製品
  6
DASHED1
 62
     7
100
AcDbLine
 10
1852.072520571299
 20
922.5703551892781
 30
0.0
 11
1863.513705908752
 21
907.7280651737712
 31
0.0
  0
ARC
  5
6E72
330
1E
100
AcDbEntity
  8
躯体と製品
  6
DASHED1
 62
     7
100
AcDbCircle
 10
1864.305709551846
 20
908.3385815366368
 30
0.0
 40
1.8
100
AcDbArc
 50
217.6268473622817
 51
316.3731518762783
  0
ARC
  5
6E73
330
1E
100
AcDbEntity
  8
躯体と製品
  6
DASHED1
 62
     7
100
AcDbCircle
 10
1864.305709551846
 20
908.3385815366368
 30
0.0
 40
1.0
100
AcDbArc
 50
217.6268473622817
 51
316.3731512671342
  0
LINE
  5
6E74
330
1E
100
AcDbEntity
  8
躯体と製品
  6
DASHED1
 62
     7
100
AcDbLine
 10
1867.678513500558
 20
909.2682016332268
 30
0.0
 11
1865.608637093755
 21
907.0966556851718
 31
0.0
  0
LINE
  5
6E75
330
1E
100
AcDbEntity
  8
躯体と製品
  6
DASHED1
 62
     7
100
AcDbLine
 10
1867.678513500558
 20
909.2682016332268
 30
0.0
 11
1867.099434585686
 21
909.8201686706039
 31
0.0
  0
LINE
  5
6E76
330
1E
100
AcDbEntity
  8
躯体と製品
  6
DASHED1
 62
     7
100
AcDbLine
 10
1867.099434585686
 20
909.8201686706039
 30
0.0
 11
1865.029558178904
 21
907.6486227225718
 31
0.0
  0
ARC
  5
6E77
330
1E
100
AcDbEntity
  8
躯体と製品
  6
DASHED1
 62
     7
100
AcDbCircle
 10
1814.374232814117
 20
910.9553793487839
 30
0.0
 40
1.8
100
AcDbArc
 50
217.6268481237226
 51
316.3731526377176
  0
ARC
  5
6E78
330
1E
100
AcDbEntity
  8
躯体と製品
  6
DASHED1
 62
     7
100
AcDbCircle
 10
1814.374232814117
 20
910.9553793487839
 30
0.0
 40
1.0
100
AcDbArc
 50
217.6268487328632
 51
316.3731526377176
  0
ARC
  5
6E79
330
1E
100
AcDbEntity
  8
躯体と製品
  6
DASHED1
 62
     7
100
AcDbCircle
 10
1829.330960093346
 20
922.588547577112
 30
0.0
 40
1.0
100
AcDbArc
 50
86.99999999999441
 51
136.3731526377175
  0
LINE
  5
6E7A
330
1E
100
AcDbEntity
  8
躯体と製品
  6
DASHED1
 62
     7
100
AcDbLine
 10
1828.607111449784
 20
923.2785063738617
 30
0.0
 11
1815.677160356026
 21
909.7134534973191
 31
0.0
  0
ARC
  5
6E7B
330
1E
100
AcDbEntity
  8
躯体と製品
  6
DASHED1
 62
     7
100
AcDbCircle
 10
1829.330960093346
 20
922.588547577112
 30
0.0
 40
1.8
100
AcDbArc
 50
86.99999999999441
 51
136.3731526377175
  0
ARC
  5
6E7C
330
1E
100
AcDbEntity
  8
躯体と製品
  6
DASHED1
 62
     7
100
AcDbCircle
 10
1850.646913987443
 20
921.4714257702224
 30
0.0
 40
1.0
100
AcDbArc
 50
37.62684736228169
 51
86.99999999999441
  0
LINE
  5
6E7D
330
1E
100
AcDbEntity
  8
躯体と製品
  6
DASHED1
 62
     4
100
AcDbLine
 10
1837.654974047876
 20
923.9547747138301
 30
0.0
 11
1836.409378289294
 21
900.1873917866712
 31
0.0
  0
LINE
  5
6E7E
330
1E
100
AcDbEntity
  8
躯体と製品
  6
DASHED1
 62
     7
100
AcDbLine
 10
1837.087253157368
 20
923.9845277049544
 30
0.0
 11
1835.841657398785
 21
900.2171447777955
 31
0.0
  0
LINE
  5
6E7F
330
1E
100
AcDbEntity
  8
躯体と製品
  6
DASHED1
 62
     7
100
AcDbLine
 10
1843.079030365896
 20
923.6705119674965
 30
0.0
 11
1841.833434607313
 21
899.903129040338
 31
0.0
  0
LINE
  5
6E80
330
1E
100
AcDbEntity
  8
躯体と製品
  6
DASHED1
 62
     4
100
AcDbLine
 10
1842.511309475387
 20
923.7002649586207
 30
0.0
 11
1841.265713716806
 21
899.9328820314618
 31
0.0
  0
LINE
  5
6E81
330
1E
100
AcDbEntity
  8
躯体と製品
  6
Continuous
 62
     3
100
AcDbLine
 10
1864.105849453049
 20
888.1206167732599
 30
0.0
 11
1864.424605151889
 21
887.0489849314143
 31
0.0
  0
LINE
  5
6E82
330
1E
100
AcDbEntity
  8
躯体と製品
  6
Continuous
 62
     3
100
AcDbLine
 10
1863.932201275383
 20
887.1358090202475
 30
0.0
 11
1864.250956974222
 21
886.064177178402
 31
0.0
  0
LINE
  5
6E83
330
1E
100
AcDbEntity
  8
躯体と製品
  6
Continuous
 62
     3
100
AcDbLine
 10
1838.733279171622
 20
882.1470928187036
 30
0.0
 11
1838.233279171621
 21
882.6470928187037
 31
0.0
  0
LINE
  5
6E84
330
1E
100
AcDbEntity
  8
躯体と製品
  6
Continuous
 62
     3
100
AcDbLine
 10
1854.933279171622
 20
888.6470928187035
 30
0.0
 11
1851.983279171622
 21
888.6470928187035
 31
0.0
  0
ARC
  5
6E85
330
1E
100
AcDbEntity
  8
躯体と製品
  6
Continuous
 62
     3
100
AcDbCircle
 10
1854.933279171622
 20
888.3470928187033
 30
0.0
 40
0.2999999999999998
100
AcDbArc
 50
0.0
 51
90.0
  0
LINE
  5
6E86
330
1E
100
AcDbEntity
  8
躯体と製品
  6
Continuous
 62
     3
100
AcDbLine
 10
1855.233279171622
 20
888.3470928187033
 30
0.0
 11
1855.233279171622
 21
886.4470928187035
 31
0.0
  0
ARC
  5
6E87
330
1E
100
AcDbEntity
  8
躯体と製品
  6
Continuous
 62
     3
100
AcDbCircle
 10
1854.933279171622
 20
886.4470928187035
 30
0.0
 40
0.2999999999999998
100
AcDbArc
 50
270.0
 51
0.0
  0
LINE
  5
6E88
330
1E
100
AcDbEntity
  8
躯体と製品
  6
Continuous
 62
     3
100
AcDbLine
 10
1854.933279171622
 20
886.1470928187037
 30
0.0
 11
1852.983279171622
 21
886.1470928187037
 31
0.0
  0
LINE
  5
6E89
330
1E
100
AcDbEntity
  8
躯体と製品
  6
Continuous
 62
     3
100
AcDbLine
 10
1855.233279171622
 20
884.3470928187032
 30
0.0
 11
1855.233279171622
 21
882.9470928187031
 31
0.0
  0
ARC
  5
6E8A
330
1E
100
AcDbEntity
  8
躯体と製品
  6
Continuous
 62
     3
100
AcDbCircle
 10
1854.933279171622
 20
884.3470928187032
 30
0.0
 40
0.2999999999999998
100
AcDbArc
 50
0.0
 51
90.0
  0
LINE
  5
6E8B
330
1E
100
AcDbEntity
  8
躯体と製品
  6
Continuous
 62
     3
100
AcDbLine
 10
1854.933279171622
 20
884.6470928187036
 30
0.0
 11
1852.983279171622
 21
884.6470928187036
 31
0.0
  0
ARC
  5
6E8C
330
1E
100
AcDbEntity
  8
躯体と製品
  6
Continuous
 62
     3
100
AcDbCircle
 10
1852.983279171622
 20
885.3970928187036
 30
0.0
 40
0.75
100
AcDbArc
 50
90.0
 51
270.0
  0
ARC
  5
6E8D
330
1E
100
AcDbEntity
  8
躯体と製品
  6
Continuous
 62
     3
100
AcDbCircle
 10
1851.983279171622
 20
889.3970928187036
 30
0.0
 40
0.75
100
AcDbArc
 50
90.0
 51
270.0
  0
LINE
  5
6E8E
330
1E
100
AcDbEntity
  8
躯体と製品
  6
Continuous
 62
     3
100
AcDbLine
 10
1855.233279171622
 20
890.6470928187037
 30
0.0
 11
1855.233279171622
 21
898.1470928187034
 31
0.0
  0
ARC
  5
6E8F
330
1E
100
AcDbEntity
  8
躯体と製品
  6
Continuous
 62
     3
100
AcDbCircle
 10
1854.733279171622
 20
890.6470928187037
 30
0.0
 40
0.5
100
AcDbArc
 50
270.0
 51
0.0
  0
LINE
  5
6E90
330
1E
100
AcDbEntity
  8
躯体と製品
  6
Continuous
 62
     3
100
AcDbLine
 10
1854.733279171622
 20
890.1470928187036
 30
0.0
 11
1851.983279171622
 21
890.1470928187036
 31
0.0
  0
ARC
  5
6E91
330
1E
100
AcDbEntity
  8
躯体と製品
  6
Continuous
 62
     3
100
AcDbCircle
 10
1854.933279171622
 20
882.9470928187031
 30
0.0
 40
0.2999999999999998
100
AcDbArc
 50
270.0
 51
0.0
  0
ARC
  5
6E92
330
1E
100
AcDbEntity
  8
躯体と製品
  6
Continuous
 62
     3
100
AcDbCircle
 10
1857.733279171621
 20
883.1470928187036
 30
0.0
 40
0.5
100
AcDbArc
 50
180.0
 51
270.0
  0
LINE
  5
6E93
330
1E
100
AcDbEntity
  8
躯体と製品
  6
Continuous
 62
     3
100
AcDbLine
 10
1857.233279171621
 20
883.1470928187036
 30
0.0
 11
1857.233279171621
 21
898.1470928187034
 31
0.0
  0
LINE
  5
6E94
330
1E
100
AcDbEntity
  8
躯体と製品
  6
Continuous
 62
     3
100
AcDbLine
 10
1857.233279171621
 20
881.1470928187036
 30
0.0
 11
1867.733279171622
 21
881.1470928187036
 31
0.0
  0
LINE
  5
6E95
330
1E
100
AcDbEntity
  8
躯体と製品
  6
Continuous
 62
     3
100
AcDbLine
 10
1857.233279171621
 20
880.1470928187036
 30
0.0
 11
1857.233279171621
 21
881.1470928187036
 31
0.0
  0
LINE
  5
6E96
330
1E
100
AcDbEntity
  8
躯体と製品
  6
Continuous
 62
     3
100
AcDbLine
 10
1838.733279171622
 20
882.1470928187036
 30
0.0
 11
1839.233279171622
 21
882.6470928187037
 31
0.0
  0
LINE
  5
6E97
330
1E
100
AcDbEntity
  8
躯体と製品
  6
Continuous
 62
     3
100
AcDbLine
 10
1867.733279171622
 20
880.1470928187036
 30
0.0
 11
1869.233279171622
 21
880.1470928187036
 31
0.0
  0
LINE
  5
6E98
330
1E
100
AcDbEntity
  8
躯体と製品
  6
Continuous
 62
     3
100
AcDbLine
 10
1867.733279171622
 20
881.1470928187036
 30
0.0
 11
1867.733279171622
 21
880.1470928187036
 31
0.0
  0
ARC
  5
6E99
330
1E
100
AcDbEntity
  8
躯体と製品
  6
Continuous
 62
     3
100
AcDbCircle
 10
1856.233279171621
 20
898.1470928187034
 30
0.0
 40
1.0
100
AcDbArc
 50
0.0
 51
180.0
  0
LINE
  5
6E9A
330
1E
100
AcDbEntity
  8
躯体と製品
  6
Continuous
 62
     3
100
AcDbLine
 10
1855.233279171622
 20
880.1470928187036
 30
0.0
 11
1857.233279171621
 21
880.1470928187036
 31
0.0
  0
LINE
  5
6E9B
330
1E
100
AcDbEntity
  8
躯体と製品
  6
Continuous
 62
     3
100
AcDbLine
 10
1855.233279171622
 20
880.6470928187037
 30
0.0
 11
1855.233279171622
 21
880.1470928187036
 31
0.0
  0
LINE
  5
6E9C
330
1E
100
AcDbEntity
  8
躯体と製品
  6
Continuous
 62
     3
100
AcDbLine
 10
1843.733279171621
 20
880.6470928187037
 30
0.0
 11
1855.233279171622
 21
880.6470928187037
 31
0.0
  0
LINE
  5
6E9D
330
1E
100
AcDbEntity
  8
躯体と製品
  6
Continuous
 62
     3
100
AcDbLine
 10
1843.733279171621
 20
880.1470928187036
 30
0.0
 11
1843.733279171621
 21
880.6470928187037
 31
0.0
  0
LINE
  5
6E9E
330
1E
100
AcDbEntity
  8
躯体と製品
  6
Continuous
 62
     3
100
AcDbLine
 10
1822.533279171621
 20
882.6470928187037
 30
0.0
 11
1838.233279171621
 21
882.6470928187037
 31
0.0
  0
LINE
  5
6E9F
330
1E
100
AcDbEntity
  8
躯体と製品
  6
Continuous
 62
     3
100
AcDbLine
 10
1839.233279171622
 20
882.6470928187037
 30
0.0
 11
1854.933279171622
 21
882.6470928187037
 31
0.0
  0
LINE
  5
6EA0
330
1E
100
AcDbEntity
  8
躯体と製品
  6
Continuous
 62
     3
100
AcDbLine
 10
1833.733279171622
 20
880.1470928187036
 30
0.0
 11
1843.733279171621
 21
880.1470928187036
 31
0.0
  0
LINE
  5
6EA1
330
1E
100
AcDbEntity
  8
躯体と製品
  6
Continuous
 62
     3
100
AcDbLine
 10
1820.733279171622
 20
889.6470928187037
 30
0.0
 11
1820.733279171622
 21
880.1470928187036
 31
0.0
  0
ARC
  5
6EA2
330
1E
100
AcDbEntity
  8
躯体と製品
  6
Continuous
 62
     3
100
AcDbCircle
 10
1821.233279171622
 20
889.6470928187037
 30
0.0
 40
0.5
100
AcDbArc
 50
90.0
 51
180.0
  0
LINE
  5
6EA3
330
1E
100
AcDbEntity
  8
躯体と製品
  6
Continuous
 62
     3
100
AcDbLine
 10
1821.233279171622
 20
890.1470928187036
 30
0.0
 11
1825.483279171622
 21
890.1470928187036
 31
0.0
  0
LINE
  5
6EA4
330
1E
100
AcDbEntity
  8
躯体と製品
  6
Continuous
 62
     3
100
AcDbLine
 10
1822.233279171621
 20
882.9470928187031
 30
0.0
 11
1822.233279171621
 21
884.3470928187032
 31
0.0
  0
ARC
  5
6EA5
330
1E
100
AcDbEntity
  8
躯体と製品
  6
Continuous
 62
     3
100
AcDbCircle
 10
1822.533279171621
 20
882.9470928187031
 30
0.0
 40
0.2999999999999998
100
AcDbArc
 50
180.0
 51
270.0
  0
LINE
  5
6EA6
330
1E
100
AcDbEntity
  8
躯体と製品
  6
Continuous
 62
     3
100
AcDbLine
 10
1822.533279171621
 20
884.6470928187036
 30
0.0
 11
1824.483279171621
 21
884.6470928187036
 31
0.0
  0
ARC
  5
6EA7
330
1E
100
AcDbEntity
  8
躯体と製品
  6
Continuous
 62
     3
100
AcDbCircle
 10
1822.533279171621
 20
884.3470928187032
 30
0.0
 40
0.2999999999999998
100
AcDbArc
 50
90.0
 51
180.0
  0
LINE
  5
6EA8
330
1E
100
AcDbEntity
  8
躯体と製品
  6
Continuous
 62
     3
100
AcDbLine
 10
1822.233279171621
 20
886.4470928187035
 30
0.0
 11
1822.233279171621
 21
888.3470928187033
 31
0.0
  0
ARC
  5
6EA9
330
1E
100
AcDbEntity
  8
躯体と製品
  6
Continuous
 62
     3
100
AcDbCircle
 10
1822.533279171621
 20
886.4470928187035
 30
0.0
 40
0.2999999999999998
100
AcDbArc
 50
180.0
 51
270.0
  0
LINE
  5
6EAA
330
1E
100
AcDbEntity
  8
躯体と製品
  6
Continuous
 62
     3
100
AcDbLine
 10
1822.533279171621
 20
886.1470928187037
 30
0.0
 11
1824.483279171621
 21
886.1470928187037
 31
0.0
  0
LINE
  5
6EAB
330
1E
100
AcDbEntity
  8
躯体と製品
  6
Continuous
 62
     3
100
AcDbLine
 10
1822.533279171621
 20
888.6470928187035
 30
0.0
 11
1825.483279171622
 21
888.6470928187035
 31
0.0
  0
ARC
  5
6EAC
330
1E
100
AcDbEntity
  8
躯体と製品
  6
Continuous
 62
     3
100
AcDbCircle
 10
1822.533279171621
 20
888.3470928187033
 30
0.0
 40
0.2999999999999998
100
AcDbArc
 50
90.0
 51
180.0
  0
ARC
  5
6EAD
330
1E
100
AcDbEntity
  8
躯体と製品
  6
Continuous
 62
     3
100
AcDbCircle
 10
1824.483279171621
 20
885.3970928187036
 30
0.0
 40
0.75
100
AcDbArc
 50
270.0
 51
90.0
  0
ARC
  5
6EAE
330
1E
100
AcDbEntity
  8
躯体と製品
  6
Continuous
 62
     3
100
AcDbCircle
 10
1825.483279171622
 20
889.3970928187036
 30
0.0
 40
0.75
100
AcDbArc
 50
270.0
 51
90.0
  0
LINE
  5
6EAF
330
1E
100
AcDbEntity
  8
躯体と製品
  6
Continuous
 62
     3
100
AcDbLine
 10
1833.733279171622
 20
880.6470928187037
 30
0.0
 11
1833.733279171622
 21
880.1470928187036
 31
0.0
  0
LINE
  5
6EB0
330
1E
100
AcDbEntity
  8
躯体と製品
  6
Continuous
 62
     3
100
AcDbLine
 10
1822.233279171621
 20
880.6470928187037
 30
0.0
 11
1833.733279171622
 21
880.6470928187037
 31
0.0
  0
LINE
  5
6EB1
330
1E
100
AcDbEntity
  8
躯体と製品
  6
Continuous
 62
     3
100
AcDbLine
 10
1822.233279171621
 20
880.1470928187036
 30
0.0
 11
1822.233279171621
 21
880.6470928187037
 31
0.0
  0
LINE
  5
6EB2
330
1E
100
AcDbEntity
  8
躯体と製品
  6
Continuous
 62
     3
100
AcDbLine
 10
1820.733279171622
 20
880.1470928187036
 30
0.0
 11
1822.233279171621
 21
880.1470928187036
 31
0.0
  0
LINE
  5
6EB3
330
1E
100
AcDbEntity
  8
躯体と製品
  6
Continuous
 62
     3
100
AcDbLine
 10
1869.233279171622
 20
880.1470928187036
 30
0.0
 11
1869.233279171622
 21
882.6470928187037
 31
0.0
  0
ARC
  5
6EB4
330
1E
100
AcDbEntity
  8
躯体と製品
  6
Continuous
 62
     3
100
AcDbCircle
 10
1869.493150378447
 20
888.4399735317739
 30
0.0
 40
0.7499999999999977
100
AcDbArc
 50
350.0000000000025
 51
170.0000000000025
  0
ARC
  5
6EB5
330
1E
100
AcDbEntity
  8
躯体と製品
  6
Continuous
 62
     3
100
AcDbCircle
 10
1864.07670773688
 20
889.395038508942
 30
0.0
 40
0.7500000000000014
100
AcDbArc
 50
350.0000000000025
 51
170.0000000000025
  0
LINE
  5
6EB6
330
1E
100
AcDbEntity
  8
躯体と製品
  6
Continuous
 62
     3
100
AcDbLine
 10
1869.029888218111
 20
887.2523758849254
 30
0.0
 11
1868.363836163938
 21
886.3543922207465
 31
0.0
  0
LINE
  5
6EB7
330
1E
100
AcDbEntity
  8
躯体と製品
  6
Continuous
 62
     3
100
AcDbLine
 10
1868.856240040444
 20
886.267568131913
 30
0.0
 11
1868.190187986271
 21
885.3695844677345
 31
0.0
  0
LINE
  5
6EB8
330
1E
100
AcDbEntity
  8
躯体と製品
  6
Continuous
 62
     3
100
AcDbLine
 10
1864.598253329556
 20
888.0337926844262
 30
0.0
 11
1864.815313551639
 21
889.2648023756917
 31
0.0
  0
LINE
  5
6EB9
330
1E
100
AcDbEntity
  8
躯体と製品
  6
Continuous
 62
     3
100
AcDbLine
 10
1868.537484341605
 20
887.3391999737586
 30
0.0
 11
1868.754544563689
 21
888.5702096650238
 31
0.0
  0
LINE
  5
6EBA
330
1E
100
AcDbEntity
  8
躯体と製品
  6
Continuous
 62
     3
100
AcDbLine
 10
1869.233279171622
 20
882.6470928187037
 30
0.0
 11
1870.231756193206
 21
888.3097373985238
 31
0.0
  0
LINE
  5
6EBB
330
1E
100
AcDbEntity
  8
躯体と製品
  6
Continuous
 62
     3
100
AcDbLine
 10
1869.029888218111
 20
887.2523758849254
 30
0.0
 11
1868.537484341605
 21
887.3391999737586
 31
0.0
  0
LINE
  5
6EBC
330
1E
100
AcDbEntity
  8
躯体と製品
  6
Continuous
 62
     3
100
AcDbLine
 10
1864.598253329556
 20
888.0337926844262
 30
0.0
 11
1864.105849453049
 21
888.1206167732599
 31
0.0
  0
LINE
  5
6EBD
330
1E
100
AcDbEntity
  8
躯体と製品
  6
Continuous
 62
     3
100
AcDbLine
 10
1868.856240040444
 20
886.267568131913
 30
0.0
 11
1868.363836163938
 21
886.3543922207465
 31
0.0
  0
LINE
  5
6EBE
330
1E
100
AcDbEntity
  8
躯体と製品
  6
Continuous
 62
     3
100
AcDbLine
 10
1864.424605151889
 20
887.0489849314143
 30
0.0
 11
1863.932201275383
 21
887.1358090202475
 31
0.0
  0
LINE
  5
6EBF
330
1E
100
AcDbEntity
  8
躯体と製品
  6
Continuous
 62
     3
100
AcDbLine
 10
1862.198146949339
 20
883.0602687298698
 30
0.0
 11
1863.338101922121
 21
889.525274642192
 31
0.0
  0
LINE
  5
6EC0
330
1E
100
AcDbEntity
  8
躯体と製品
  6
Continuous
 62
     3
100
AcDbLine
 10
1861.705743072833
 20
882.6470928187037
 30
0.0
 11
1857.733279171621
 21
882.6470928187037
 31
0.0
  0
ARC
  5
6EC1
330
1E
100
AcDbEntity
  8
躯体と製品
  6
Continuous
 62
     3
100
AcDbCircle
 10
1861.705743072833
 20
883.1470928187036
 30
0.0
 40
0.5
100
AcDbArc
 50
270.0
 51
350.0000000000025
  0
LINE
  5
6EC2
330
1E
100
AcDbEntity
  8
躯体と製品
  6
Continuous
 62
     3
100
AcDbLine
 10
1863.751905726041
 20
883.2339169075366
 30
0.0
 11
1864.250956974222
 21
886.064177178402
 31
0.0
  0
ARC
  5
6EC3
330
1E
100
AcDbEntity
  8
躯体と製品
  6
Continuous
 62
     3
100
AcDbCircle
 10
1864.244309602547
 20
883.1470928187036
 30
0.0
 40
0.5
100
AcDbArc
 50
170.0000000000025
 51
270.0
  0
LINE
  5
6EC4
330
1E
100
AcDbEntity
  8
躯体と製品
  6
Continuous
 62
     3
100
AcDbLine
 10
1867.782993314711
 20
883.0602687298698
 30
0.0
 11
1868.190187986271
 21
885.3695844677345
 31
0.0
  0
LINE
  5
6EC5
330
1E
100
AcDbEntity
  8
躯体と製品
  6
Continuous
 62
     3
100
AcDbLine
 10
1867.290589438205
 20
882.6470928187037
 30
0.0
 11
1864.244309602547
 21
882.6470928187037
 31
0.0
  0
ARC
  5
6EC6
330
1E
100
AcDbEntity
  8
躯体と製品
  6
Continuous
 62
     3
100
AcDbCircle
 10
1867.290589438205
 20
883.1470928187036
 30
0.0
 40
0.5
100
AcDbArc
 50
270.0
 51
350.0000000000025
  0
ARC
  5
6EC7
330
1E
100
AcDbEntity
  8
躯体と製品
  6
DASHED1
 62
     7
100
AcDbCircle
 10
1842.233279171622
 20
839.6470928187037
 30
0.0
 40
1.0
100
AcDbArc
 50
270.0
 51
0.0
  0
LINE
  5
6EC8
330
1E
100
AcDbEntity
  8
躯体と製品
  6
DASHED1
 62
     7
100
AcDbLine
 10
1845.358309171622
 20
840.8850968187033
 30
0.0
 11
1841.172876171622
 21
840.1470928187038
 31
0.0
  0
LINE
  5
6EC9
330
1E
100
AcDbEntity
  8
躯体と製品
  6
DASHED1
 62
     7
100
AcDbLine
 10
1842.783279171621
 20
870.8470928187033
 30
0.0
 11
1834.683279171622
 21
870.8470928187033
 31
0.0
  0
LINE
  5
6ECA
330
1E
100
AcDbEntity
  8
躯体と製品
  6
DASHED1
 62
     7
100
AcDbLine
 10
1843.483279171621
 20
870.1470928187037
 30
0.0
 11
1833.983279171621
 21
870.1470928187037
 31
0.0
  0
LINE
  5
6ECB
330
1E
100
AcDbEntity
  8
躯体と製品
  6
DASHED1
 62
     7
100
AcDbLine
 10
1832.108249171622
 20
840.8850968187033
 30
0.0
 11
1833.983279171621
 21
851.5189188187035
 31
0.0
  0
LINE
  5
6ECC
330
1E
100
AcDbEntity
  8
躯体と製品
  6
DASHED1
 62
     7
100
AcDbLine
 10
1838.233279171621
 20
851.1470928187037
 30
0.0
 11
1836.293682171621
 21
840.1470928187038
 31
0.0
  0
LINE
  5
6ECD
330
1E
100
AcDbEntity
  8
躯体と製品
  6
DASHED1
 62
     7
100
AcDbLine
 10
1839.233279171622
 20
851.1470928187037
 30
0.0
 11
1841.172876171622
 21
840.1470928187038
 31
0.0
  0
LINE
  5
6ECE
330
1E
100
AcDbEntity
  8
躯体と製品
  6
DASHED1
 62
     7
100
AcDbLine
 10
1832.108249171622
 20
840.8850968187033
 30
0.0
 11
1836.293682171621
 21
840.1470928187038
 31
0.0
  0
LINE
  5
6ECF
330
1E
100
AcDbEntity
  8
躯体と製品
  6
DASHED1
 62
     7
100
AcDbLine
 10
1834.233279171622
 20
839.6470928187037
 30
0.0
 11
1834.233279171622
 21
840.5103968187036
 31
0.0
  0
ARC
  5
6ED0
330
1E
100
AcDbEntity
  8
躯体と製品
  6
DASHED1
 62
     7
100
AcDbCircle
 10
1835.233279171622
 20
839.6470928187037
 30
0.0
 40
1.0
100
AcDbArc
 50
180.0
 51
270.0
  0
LINE
  5
6ED1
330
1E
100
AcDbEntity
  8
躯体と製品
  6
DASHED1
 62
     7
100
AcDbLine
 10
1835.233279171622
 20
838.6470928187037
 30
0.0
 11
1842.233279171622
 21
838.6470928187037
 31
0.0
  0
LINE
  5
6ED2
330
1E
100
AcDbEntity
  8
躯体と製品
  6
DASHED1
 62
     7
100
AcDbLine
 10
1833.983279171621
 20
851.5189188187035
 30
0.0
 11
1833.983279171621
 21
870.1470928187037
 31
0.0
  0
LINE
  5
6ED3
330
1E
100
AcDbEntity
  8
躯体と製品
  6
DASHED1
 62
     7
100
AcDbLine
 10
1833.983279171621
 20
870.1470928187037
 30
0.0
 11
1834.683279171622
 21
870.8470928187033
 31
0.0
  0
LINE
  5
6ED4
330
1E
100
AcDbEntity
  8
躯体と製品
  6
DASHED1
 62
     7
100
AcDbLine
 10
1839.233279171622
 20
851.1470928187037
 30
0.0
 11
1838.233279171621
 21
851.1470928187037
 31
0.0
  0
LINE
  5
6ED5
330
1E
100
AcDbEntity
  8
躯体と製品
  6
DASHED1
 62
     7
100
AcDbLine
 10
1845.358309171622
 20
840.8850968187033
 30
0.0
 11
1843.483279171621
 21
851.5189188187035
 31
0.0
  0
LINE
  5
6ED6
330
1E
100
AcDbEntity
  8
躯体と製品
  6
DASHED1
 62
     7
100
AcDbLine
 10
1843.233279171622
 20
839.6470928187037
 30
0.0
 11
1843.233279171622
 21
840.5103968187036
 31
0.0
  0
LINE
  5
6ED7
330
1E
100
AcDbEntity
  8
躯体と製品
  6
DASHED1
 62
     7
100
AcDbLine
 10
1843.483279171621
 20
851.5189188187035
 30
0.0
 11
1843.483279171621
 21
870.1470928187037
 31
0.0
  0
LINE
  5
6ED8
330
1E
100
AcDbEntity
  8
躯体と製品
  6
DASHED1
 62
     7
100
AcDbLine
 10
1843.483279171621
 20
870.1470928187037
 30
0.0
 11
1842.783279171621
 21
870.8470928187033
 31
0.0
  0
LINE
  5
6ED9
330
1E
100
AcDbEntity
  8
躯体と製品
  6
DASHED1
 62
     7
100
AcDbLine
 10
1834.683279171622
 20
880.1470928187036
 30
0.0
 11
1834.683279171622
 21
870.8470928187033
 31
0.0
  0
LINE
  5
6EDA
330
1E
100
AcDbEntity
  8
躯体と製品
  6
DASHED1
 62
     7
100
AcDbLine
 10
1842.783279171621
 20
880.1470928187036
 30
0.0
 11
1842.783279171621
 21
870.8470928187033
 31
0.0
  0
LINE
  5
6EDB
330
1E
100
AcDbEntity
  8
躯体と製品
  6
Continuous
 62
     4
100
AcDbLine
 10
1852.733279171621
 20
888.6470928187035
 30
0.0
 11
1852.733279171621
 21
887.0470928187032
 31
0.0
  0
LINE
  5
6EDC
330
1E
100
AcDbEntity
  8
躯体と製品
  6
Continuous
 62
     4
100
AcDbLine
 10
1824.733279171622
 20
888.6470928187035
 30
0.0
 11
1824.733279171622
 21
887.0470928187032
 31
0.0
  0
LINE
  5
6EDD
330
1E
100
AcDbEntity
  8
躯体と製品
  6
DASHED1
 62
     7
100
AcDbLine
 10
1841.729167775886
 20
897.913599377861
 30
0.0
 11
1841.540758333411
 21
894.3185330527446
 31
0.0
  0
LINE
  5
6EDE
330
1E
100
AcDbEntity
  8
躯体と製品
  6
DASHED1
 62
     7
100
AcDbLine
 10
1835.737390567358
 20
898.2276151153188
 30
0.0
 11
1835.548981124883
 21
894.6325487902022
 31
0.0
  0
LINE
  5
6EDF
330
1E
100
AcDbEntity
  8
躯体と製品
  6
Continuous
 62
     3
100
AcDbLine
 10
1847.743184679732
 20
897.5984181073597
 30
0.0
 11
1829.943184679732
 21
898.5312765785982
 31
0.0
  0
LINE
  5
6EE0
330
1E
100
AcDbEntity
  8
躯体と製品
  6
Continuous
 62
     3
100
AcDbLine
 10
1847.659447149743
 20
896.0006108517525
 30
0.0
 11
1829.859447149743
 21
896.9334693229903
 31
0.0
  0
ARC
  5
6EE1
330
1E
100
AcDbEntity
  8
躯体と製品
  6
Continuous
 62
     3
100
AcDbCircle
 10
1844.189531080016
 20
895.1810891012673
 30
0.0
 40
1.0
100
AcDbArc
 50
86.99999999999441
 51
177.0000000000011
  0
LINE
  5
6EE2
330
1E
100
AcDbEntity
  8
躯体と製品
  6
Continuous
 62
     3
100
AcDbLine
 10
1843.190901545261
 20
895.2334250575106
 30
0.0
 11
1843.138565589018
 21
894.2347955227559
 31
0.0
  0
ARC
  5
6EE3
330
1E
100
AcDbEntity
  8
躯体と製品
  6
Continuous
 62
     3
100
AcDbCircle
 10
1833.004880290764
 20
895.7672518111886
 30
0.0
 40
1.0
100
AcDbArc
 50
357.0000000000011
 51
86.99999999999441
  0
LINE
  5
6EE4
330
1E
100
AcDbEntity
  8
躯体と製品
  6
Continuous
 62
     3
100
AcDbLine
 10
1834.003509825519
 20
895.7149158549455
 30
0.0
 11
1833.951173869276
 21
894.7162863201908
 31
0.0
  0
LINE
  5
6EE5
330
1E
100
AcDbEntity
  8
躯体と製品
  6
Continuous
 62
     3
100
AcDbLine
 10
1843.138565589018
 20
894.2347955227559
 30
0.0
 11
1833.951173869276
 21
894.7162863201908
 31
0.0
  0
ARC
  5
6EE6
330
1E
100
AcDbEntity
  8
躯体と製品
  6
Continuous
 62
     3
100
AcDbCircle
 10
1847.633279171622
 20
895.5012960843752
 30
0.0
 40
2.1
100
AcDbArc
 50
0.0
 51
86.99999999999441
  0
LINE
  5
6EE7
330
1E
100
AcDbEntity
  8
躯体と製品
  6
Continuous
 62
     3
100
AcDbLine
 10
1849.733279171622
 20
895.5012960843752
 30
0.0
 11
1849.733279171622
 21
889.1470928187036
 31
0.0
  0
ARC
  5
6EE8
330
1E
100
AcDbEntity
  8
躯体と製品
  6
Continuous
 62
     3
100
AcDbCircle
 10
1829.833279171622
 20
896.4341545556136
 30
0.0
 40
2.1
100
AcDbArc
 50
86.99999999999441
 51
180.0
  0
ARC
  5
6EE9
330
1E
100
AcDbEntity
  8
躯体と製品
  6
Continuous
 62
     3
100
AcDbCircle
 10
1847.633279171622
 20
895.5012960843752
 30
0.0
 40
0.5
100
AcDbArc
 50
0.0
 51
86.99999999999441
  0
LINE
  5
6EEA
330
1E
100
AcDbEntity
  8
躯体と製品
  6
Continuous
 62
     3
100
AcDbLine
 10
1848.133279171622
 20
895.5012960843752
 30
0.0
 11
1848.133279171622
 21
889.1470928187036
 31
0.0
  0
ARC
  5
6EEB
330
1E
100
AcDbEntity
  8
躯体と製品
  6
Continuous
 62
     3
100
AcDbCircle
 10
1829.833279171622
 20
896.4341545556136
 30
0.0
 40
0.5
100
AcDbArc
 50
86.99999999999441
 51
180.0
  0
LINE
  5
6EEC
330
1E
100
AcDbEntity
  8
躯体と製品
  6
Continuous
 62
     3
100
AcDbLine
 10
1829.333279171622
 20
896.4341545556136
 30
0.0
 11
1829.333279171622
 21
889.1470928187036
 31
0.0
  0
ARC
  5
6EED
330
1E
100
AcDbEntity
  8
躯体と製品
  6
Continuous
 62
     3
100
AcDbCircle
 10
1850.233279171622
 20
889.1470928187036
 30
0.0
 40
0.5
100
AcDbArc
 50
180.0
 51
270.0
  0
ARC
  5
6EEE
330
1E
100
AcDbEntity
  8
躯体と製品
  6
Continuous
 62
     3
100
AcDbCircle
 10
1850.233279171622
 20
889.1470928187036
 30
0.0
 40
2.1
100
AcDbArc
 50
180.0
 51
270.0
  0
LINE
  5
6EEF
330
1E
100
AcDbEntity
  8
躯体と製品
  6
Continuous
 62
     3
100
AcDbLine
 10
1854.733279171622
 20
888.6470928187035
 30
0.0
 11
1854.733279171622
 21
887.0470928187032
 31
0.0
  0
LINE
  5
6EF0
330
1E
100
AcDbEntity
  8
躯体と製品
  6
Continuous
 62
     3
100
AcDbLine
 10
1850.233279171622
 20
888.6470928187035
 30
0.0
 11
1854.733279171622
 21
888.6470928187035
 31
0.0
  0
LINE
  5
6EF1
330
1E
100
AcDbEntity
  8
躯体と製品
  6
Continuous
 62
     3
100
AcDbLine
 10
1854.733279171622
 20
887.0470928187032
 30
0.0
 11
1850.233279171622
 21
887.0470928187032
 31
0.0
  0
ARC
  5
6EF2
330
1E
100
AcDbEntity
  8
躯体と製品
  6
Continuous
 62
     3
100
AcDbCircle
 10
1827.233279171622
 20
889.1470928187036
 30
0.0
 40
0.5
100
AcDbArc
 50
270.0
 51
0.0
  0
ARC
  5
6EF3
330
1E
100
AcDbEntity
  8
躯体と製品
  6
Continuous
 62
     3
100
AcDbCircle
 10
1827.233279171622
 20
889.1470928187036
 30
0.0
 40
2.1
100
AcDbArc
 50
270.0
 51
0.0
  0
LINE
  5
6EF4
330
1E
100
AcDbEntity
  8
躯体と製品
  6
Continuous
 62
     3
100
AcDbLine
 10
1822.733279171622
 20
888.6470928187035
 30
0.0
 11
1827.233279171622
 21
888.6470928187035
 31
0.0
  0
LINE
  5
6EF5
330
1E
100
AcDbEntity
  8
躯体と製品
  6
Continuous
 62
     3
100
AcDbLine
 10
1822.733279171622
 20
887.0470928187032
 30
0.0
 11
1822.733279171622
 21
888.6470928187035
 31
0.0
  0
LINE
  5
6EF6
330
1E
100
AcDbEntity
  8
躯体と製品
  6
Continuous
 62
     3
100
AcDbLine
 10
1822.733279171622
 20
887.0470928187032
 30
0.0
 11
1827.233279171622
 21
887.0470928187032
 31
0.0
  0
LINE
  5
6EF7
330
1E
100
AcDbEntity
  8
躯体と製品
  6
Continuous
 62
     3
100
AcDbLine
 10
1827.733279171621
 20
896.4341545556136
 30
0.0
 11
1827.733279171621
 21
889.1470928187036
 31
0.0
  0
ARC
  5
6EF8
330
1E
100
AcDbEntity
  8
躯体と製品
  6
Continuous
 62
     7
100
AcDbCircle
 10
1588.733279171622
 20
877.1470928187037
 30
0.0
 40
1.0
100
AcDbArc
 50
4.999999999999459
 51
90.0
  0
ARC
  5
6EF9
330
1E
100
AcDbEntity
  8
躯体と製品
  6
Continuous
 62
     7
100
AcDbCircle
 10
1738.733279171622
 20
877.1470928187037
 30
0.0
 40
1.0
100
AcDbArc
 50
90.0
 51
175.0000000000005
  0
LINE
  5
6EFA
330
1E
100
AcDbEntity
  8
躯体と製品
  6
DASHED1
 62
     4
100
AcDbLine
 10
1718.472604553204
 20
912.376430269974
 30
0.0
 11
1718.566809274441
 21
914.173963432532
 31
0.0
  0
LINE
  5
6EFB
330
1E
100
AcDbEntity
  8
躯体と製品
  6
DASHED1
 62
     4
100
AcDbLine
 10
1898.225920809027
 20
902.9559581462439
 30
0.0
 11
1898.320125530264
 21
904.753491308802
 31
0.0
  0
LINE
  5
6EFC
330
1E
100
AcDbEntity
  8
躯体と製品
  6
DASHED1
 62
     7
100
AcDbLine
 10
1387.413091668622
 20
920.0195957482966
 30
0.0
 11
1393.282405762088
 21
920.32719346585
 31
0.0
  0
LINE
  5
6EFD
330
1E
100
AcDbEntity
  8
躯体と製品
  6
DASHED1
 62
     7
100
AcDbLine
 10
1380.186892721037
 20
918.3421369326607
 30
0.0
 11
1366.233279171622
 21
840.2019010559341
 31
0.0
  0
LINE
  5
6EFE
330
1E
100
AcDbEntity
  8
躯体と製品
  6
DASHED1
 62
     7
100
AcDbLine
 10
1366.233279171622
 20
840.2019010559341
 30
0.0
 11
1370.663203261347
 21
839.4108431824019
 31
0.0
  0
ARC
  5
6EFF
330
1E
100
AcDbEntity
  8
躯体と製品
  6
DASHED1
 62
     7
100
AcDbCircle
 10
1387.570099537351
 20
917.0237071440331
 30
0.0
 40
7.5
100
AcDbArc
 50
93.00000000000558
 51
169.8753283446035
  0
ARC
  5
6F00
330
1E
100
AcDbEntity
  8
躯体と製品
  6
DASHED1
 62
     7
100
AcDbCircle
 10
1387.570099537351
 20
917.0237071440331
 30
0.0
 40
3.0
100
AcDbArc
 50
93.00000000000558
 51
169.8753283446035
  0
POINT
  5
6F01
330
1E
100
AcDbEntity
  8
躯体と製品
 62
     4
100
AcDbPoint
 10
1363.733279171622
 20
925.2875096104766
 30
0.0
  0
LINE
  5
6F02
330
1E
100
AcDbEntity
  8
躯体と製品
  6
Continuous
 62
     3
100
AcDbLine
 10
1373.733279171622
 20
835.2875096104765
 30
0.0
 11
1373.733279171622
 21
837.2875096104765
 31
0.0
  0
ARC
  5
6F03
330
1E
100
AcDbEntity
  8
躯体と製品
  6
Continuous
 62
     3
100
AcDbCircle
 10
1366.733279171622
 20
838.2875096104765
 30
0.0
 40
1.0
100
AcDbArc
 50
180.0
 51
270.0
  0
LINE
  5
6F04
330
1E
100
AcDbEntity
  8
躯体と製品
  6
Continuous
 62
     3
100
AcDbLine
 10
1366.733279171622
 20
837.2875096104765
 30
0.0
 11
1373.733279171622
 21
837.2875096104765
 31
0.0
  0
LINE
  5
6F05
330
1E
100
AcDbEntity
  8
躯体と製品
  6
Continuous
 62
     3
100
AcDbLine
 10
1365.733279171622
 20
838.2875096104765
 30
0.0
 11
1365.733279171622
 21
922.440615910332
 31
0.0
  0
ARC
  5
6F06
330
1E
100
AcDbEntity
  8
躯体と製品
  6
Continuous
 62
     3
100
AcDbCircle
 10
1366.733279171622
 20
922.440615910332
 30
0.0
 40
1.0
100
AcDbArc
 50
93.00000000000558
 51
180.0
  0
ARC
  5
6F07
330
1E
100
AcDbEntity
  8
躯体と製品
  6
Continuous
 62
     3
100
AcDbCircle
 10
1366.733279171622
 20
838.2875096104765
 30
0.0
 40
3.0
100
AcDbArc
 50
180.0
 51
270.0
  0
ARC
  5
6F08
330
1E
100
AcDbEntity
  8
躯体と製品
  6
Continuous
 62
     3
100
AcDbCircle
 10
1366.733279171622
 20
922.440615910332
 30
0.0
 40
3.0
100
AcDbArc
 50
93.00000000000558
 51
180.0
  0
LINE
  5
6F09
330
1E
100
AcDbEntity
  8
躯体と製品
  6
DASHED1
 62
     7
100
AcDbLine
 10
1387.177579865529
 20
924.5134286546926
 30
0.0
 11
1392.978370696723
 21
924.8174352202406
 31
0.0
  0
LINE
  5
6F0A
330
1E
100
AcDbEntity
  8
躯体と製品
  6
DASHED1
 62
     7
100
AcDbLine
 10
1940.053466674622
 20
920.0195957482966
 30
0.0
 11
1934.184152581157
 21
920.32719346585
 31
0.0
  0
LINE
  5
6F0B
330
1E
100
AcDbEntity
  8
躯体と製品
  6
DASHED1
 62
     7
100
AcDbLine
 10
1947.279665622206
 20
918.3421369326607
 30
0.0
 11
1961.233279171622
 21
840.2019010559341
 31
0.0
  0
LINE
  5
6F0C
330
1E
100
AcDbEntity
  8
躯体と製品
  6
DASHED1
 62
     7
100
AcDbLine
 10
1961.233279171622
 20
840.2019010559341
 30
0.0
 11
1956.803355081897
 21
839.4108431824019
 31
0.0
  0
LINE
  5
6F0D
330
1E
100
AcDbEntity
  8
躯体と製品
  6
DASHED1
 62
     7
100
AcDbLine
 10
1942.849741532418
 20
917.5510790594842
 30
0.0
 11
1956.803355081834
 21
839.4108431827575
 31
0.0
  0
ARC
  5
6F0E
330
1E
100
AcDbEntity
  8
躯体と製品
  6
DASHED1
 62
     7
100
AcDbCircle
 10
1939.896458805893
 20
917.0237071440331
 30
0.0
 40
7.5
100
AcDbArc
 50
10.12467165539644
 51
86.99999999999441
  0
ARC
  5
6F0F
330
1E
100
AcDbEntity
  8
躯体と製品
  6
DASHED1
 62
     7
100
AcDbCircle
 10
1939.896458805893
 20
917.0237071440331
 30
0.0
 40
3.0
100
AcDbArc
 50
10.12467165539644
 51
86.99999999999441
  0
LINE
  5
6F10
330
1E
100
AcDbEntity
  8
躯体と製品
  6
Continuous
 62
     3
100
AcDbLine
 10
1963.733279171622
 20
922.440615910332
 30
0.0
 11
1963.733279171622
 21
838.2875096104765
 31
0.0
  0
POINT
  5
6F11
330
1E
100
AcDbEntity
  8
躯体と製品
 62
     4
100
AcDbPoint
 10
1963.733279171622
 20
925.2875096104766
 30
0.0
  0
LINE
  5
6F12
330
1E
100
AcDbEntity
  8
躯体と製品
  6
Continuous
 62
     3
100
AcDbLine
 10
1953.733279171622
 20
835.2875096104765
 30
0.0
 11
1953.733279171622
 21
837.2875096104765
 31
0.0
  0
ARC
  5
6F13
330
1E
100
AcDbEntity
  8
躯体と製品
  6
Continuous
 62
     3
100
AcDbCircle
 10
1960.733279171622
 20
838.2875096104765
 30
0.0
 40
1.0
100
AcDbArc
 50
270.0
 51
0.0
  0
LINE
  5
6F14
330
1E
100
AcDbEntity
  8
躯体と製品
  6
Continuous
 62
     3
100
AcDbLine
 10
1960.733279171622
 20
837.2875096104765
 30
0.0
 11
1953.733279171622
 21
837.2875096104765
 31
0.0
  0
LINE
  5
6F15
330
1E
100
AcDbEntity
  8
躯体と製品
  6
Continuous
 62
     3
100
AcDbLine
 10
1961.733279171622
 20
838.2875096104765
 30
0.0
 11
1961.733279171622
 21
922.440615910332
 31
0.0
  0
ARC
  5
6F16
330
1E
100
AcDbEntity
  8
躯体と製品
  6
Continuous
 62
     3
100
AcDbCircle
 10
1960.733279171622
 20
922.440615910332
 30
0.0
 40
1.0
100
AcDbArc
 50
0.0
 51
86.99999999999441
  0
ARC
  5
6F17
330
1E
100
AcDbEntity
  8
躯体と製品
  6
Continuous
 62
     3
100
AcDbCircle
 10
1960.733279171622
 20
838.2875096104765
 30
0.0
 40
3.0
100
AcDbArc
 50
270.0
 51
0.0
  0
ARC
  5
6F18
330
1E
100
AcDbEntity
  8
躯体と製品
  6
Continuous
 62
     3
100
AcDbCircle
 10
1960.733279171622
 20
922.440615910332
 30
0.0
 40
3.0
100
AcDbArc
 50
0.0
 51
86.99999999999441
  0
LINE
  5
6F19
330
1E
100
AcDbEntity
  8
躯体と製品
  6
Continuous
 62
     3
100
AcDbLine
 10
1960.733279171622
 20
835.2875096104765
 30
0.0
 11
1953.733279171622
 21
835.2875096104765
 31
0.0
  0
LINE
  5
6F1A
330
1E
100
AcDbEntity
  8
躯体と製品
  6
DASHED1
 62
     7
100
AcDbLine
 10
1940.288978477715
 20
924.5134286546926
 30
0.0
 11
1934.48818764652
 21
924.8174352202406
 31
0.0
  0
LINE
  5
6F1B
330
1E
100
AcDbEntity
  8
躯体と製品
  6
Continuous
 62
     4
100
AcDbLine
 10
1919.889871162066
 20
923.8507902296978
 30
0.0
 11
1919.375382675994
 21
924.3652787157706
 31
0.0
  0
LINE
  5
6F1C
330
1E
100
AcDbEntity
  8
躯体と製品
  6
Continuous
 62
     7
100
AcDbLine
 10
1919.349902541463
 20
923.8790887859856
 30
0.0
 11
1919.440409051731
 21
925.6060558795363
 31
0.0
  0
LINE
  5
6F1D
330
1E
100
AcDbEntity
  8
躯体と製品
  6
Continuous
 62
     7
100
AcDbLine
 10
1934.329345562782
 20
923.0940494423416
 30
0.0
 11
1934.41985207305
 21
924.8210165358921
 31
0.0
  0
LINE
  5
6F1E
330
1E
100
AcDbEntity
  8
躯体と製品
  6
Continuous
 62
     4
100
AcDbLine
 10
1921.382299583758
 20
923.7725753703783
 30
0.0
 11
1919.55481482723
 21
925.6000601269048
 31
0.0
  0
LINE
  5
6F1F
330
1E
100
AcDbEntity
  8
躯体と製品
  6
Continuous
 62
     4
100
AcDbLine
 10
1922.874728005451
 20
923.6943605110582
 30
0.0
 11
1921.047243248924
 21
925.5218452675853
 31
0.0
  0
LINE
  5
6F20
330
1E
100
AcDbEntity
  8
躯体と製品
  6
Continuous
 62
     4
100
AcDbLine
 10
1924.367156427144
 20
923.6161456517379
 30
0.0
 11
1922.539671670617
 21
925.4436304082656
 31
0.0
  0
LINE
  5
6F21
330
1E
100
AcDbEntity
  8
躯体と製品
  6
Continuous
 62
     4
100
AcDbLine
 10
1925.859584848837
 20
923.5379307924182
 30
0.0
 11
1924.03210009231
 21
925.3654155489456
 31
0.0
  0
LINE
  5
6F22
330
1E
100
AcDbEntity
  8
躯体と製品
  6
Continuous
 62
     4
100
AcDbLine
 10
1927.35201327053
 20
923.4597159330986
 30
0.0
 11
1925.524528514003
 21
925.2872006896257
 31
0.0
  0
LINE
  5
6F23
330
1E
100
AcDbEntity
  8
躯体と製品
  6
Continuous
 62
     4
100
AcDbLine
 10
1928.844441692223
 20
923.3815010737787
 30
0.0
 11
1927.016956935696
 21
925.2089858303058
 31
0.0
  0
LINE
  5
6F24
330
1E
100
AcDbEntity
  8
躯体と製品
  6
Continuous
 62
     4
100
AcDbLine
 10
1930.336870113917
 20
923.3032862144586
 30
0.0
 11
1928.509385357389
 21
925.1307709709861
 31
0.0
  0
LINE
  5
6F25
330
1E
100
AcDbEntity
  8
躯体と製品
  6
Continuous
 62
     4
100
AcDbLine
 10
1931.82929853561
 20
923.2250713551392
 30
0.0
 11
1930.001813779083
 21
925.0525561116662
 31
0.0
  0
LINE
  5
6F26
330
1E
100
AcDbEntity
  8
躯体と製品
  6
Continuous
 62
     4
100
AcDbLine
 10
1933.321726957301
 20
923.1468564958195
 30
0.0
 11
1931.494242200774
 21
924.9743412523468
 31
0.0
  0
LINE
  5
6F27
330
1E
100
AcDbEntity
  8
躯体と製品
  6
Continuous
 62
     4
100
AcDbLine
 10
1934.35222285392
 20
923.5305741615741
 30
0.0
 11
1932.986670622467
 21
924.8961263930267
 31
0.0
  0
LINE
  5
6F28
330
1E
100
AcDbEntity
  8
躯体と製品
  6
Continuous
 62
     4
100
AcDbLine
 10
1503.733279171622
 20
878.7211152903989
 30
0.0
 11
1503.307301643317
 21
879.1470928187038
 31
0.0
  0
LINE
  5
6F29
330
1E
100
AcDbEntity
  8
躯体と製品
  6
Continuous
 62
     4
100
AcDbLine
 10
1502.893088080944
 20
878.1470928187037
 30
0.0
 11
1501.893088080944
 21
879.1470928187038
 31
0.0
  0
LINE
  5
6F2A
330
1E
100
AcDbEntity
  8
躯体と製品
  6
Continuous
 62
     4
100
AcDbLine
 10
1501.478874518571
 20
878.1470928187037
 30
0.0
 11
1500.478874518571
 21
879.1470928187036
 31
0.0
  0
LINE
  5
6F2B
330
1E
100
AcDbEntity
  8
躯体と製品
  6
Continuous
 62
     4
100
AcDbLine
 10
1500.064660956197
 20
878.1470928187038
 30
0.0
 11
1499.064660956197
 21
879.1470928187036
 31
0.0
  0
LINE
  5
6F2C
330
1E
100
AcDbEntity
  8
躯体と製品
  6
Continuous
 62
     4
100
AcDbLine
 10
1498.650447393824
 20
878.1470928187038
 30
0.0
 11
1497.650447393824
 21
879.1470928187036
 31
0.0
  0
LINE
  5
6F2D
330
1E
100
AcDbEntity
  8
躯体と製品
  6
Continuous
 62
     4
100
AcDbLine
 10
1497.236233831451
 20
878.1470928187037
 30
0.0
 11
1496.236233831451
 21
879.1470928187036
 31
0.0
  0
LINE
  5
6F2E
330
1E
100
AcDbEntity
  8
躯体と製品
  6
Continuous
 62
     4
100
AcDbLine
 10
1495.822020269077
 20
878.1470928187037
 30
0.0
 11
1494.822020269078
 21
879.1470928187035
 31
0.0
  0
LINE
  5
6F2F
330
1E
100
AcDbEntity
  8
躯体と製品
  6
Continuous
 62
     4
100
AcDbLine
 10
1494.407806706706
 20
878.1470928187033
 30
0.0
 11
1493.407806706706
 21
879.1470928187036
 31
0.0
  0
LINE
  5
6F30
330
1E
100
AcDbEntity
  8
躯体と製品
  6
Continuous
 62
     4
100
AcDbLine
 10
1492.993593144333
 20
878.1470928187031
 30
0.0
 11
1491.993593144333
 21
879.1470928187035
 31
0.0
  0
LINE
  5
6F31
330
1E
100
AcDbEntity
  8
躯体と製品
  6
Continuous
 62
     4
100
AcDbLine
 10
1491.57937958196
 20
878.1470928187031
 30
0.0
 11
1490.57937958196
 21
879.1470928187035
 31
0.0
  0
LINE
  5
6F32
330
1E
100
AcDbEntity
  8
躯体と製品
  6
Continuous
 62
     4
100
AcDbLine
 10
1490.165166019587
 20
878.1470928187028
 30
0.0
 11
1489.165166019586
 21
879.1470928187031
 31
0.0
  0
LINE
  5
6F33
330
1E
100
AcDbEntity
  8
躯体と製品
  6
Continuous
 62
     4
100
AcDbLine
 10
1488.750952457213
 20
878.1470928187037
 30
0.0
 11
1487.750952457213
 21
879.1470928187035
 31
0.0
  0
LINE
  5
6F34
330
1E
100
AcDbEntity
  8
躯体と製品
  6
Continuous
 62
     4
100
AcDbLine
 10
1487.336738894839
 20
878.1470928187033
 30
0.0
 11
1486.33673889484
 21
879.1470928187031
 31
0.0
  0
LINE
  5
6F35
330
1E
100
AcDbEntity
  8
躯体と製品
  6
Continuous
 62
     4
100
AcDbLine
 10
1485.922525332466
 20
878.1470928187033
 30
0.0
 11
1484.922525332466
 21
879.1470928187031
 31
0.0
  0
LINE
  5
6F36
330
1E
100
AcDbEntity
  8
躯体と製品
  6
Continuous
 62
     4
100
AcDbLine
 10
1484.508311770093
 20
878.1470928187031
 30
0.0
 11
1483.508311770093
 21
879.1470928187029
 31
0.0
  0
LINE
  5
6F37
330
1E
100
AcDbEntity
  8
躯体と製品
  6
Continuous
 62
     4
100
AcDbLine
 10
1483.094098207721
 20
878.1470928187037
 30
0.0
 11
1482.094098207721
 21
879.1470928187038
 31
0.0
  0
LINE
  5
6F38
330
1E
100
AcDbEntity
  8
躯体と製品
  6
Continuous
 62
     4
100
AcDbLine
 10
1481.679884645348
 20
878.1470928187037
 30
0.0
 11
1480.679884645348
 21
879.1470928187036
 31
0.0
  0
LINE
  5
6F39
330
1E
100
AcDbEntity
  8
躯体と製品
  6
Continuous
 62
     4
100
AcDbLine
 10
1480.265671082975
 20
878.1470928187033
 30
0.0
 11
1479.265671082974
 21
879.1470928187036
 31
0.0
  0
LINE
  5
6F3A
330
1E
100
AcDbEntity
  8
躯体と製品
  6
Continuous
 62
     4
100
AcDbLine
 10
1478.851457520601
 20
878.1470928187033
 30
0.0
 11
1477.851457520601
 21
879.1470928187036
 31
0.0
  0
LINE
  5
6F3B
330
1E
100
AcDbEntity
  8
躯体と製品
  6
Continuous
 62
     4
100
AcDbLine
 10
1477.437243958228
 20
878.1470928187037
 30
0.0
 11
1476.437243958228
 21
879.1470928187035
 31
0.0
  0
LINE
  5
6F3C
330
1E
100
AcDbEntity
  8
躯体と製品
  6
Continuous
 62
     4
100
AcDbLine
 10
1476.023030395854
 20
878.1470928187038
 30
0.0
 11
1475.023030395854
 21
879.1470928187036
 31
0.0
  0
LINE
  5
6F3D
330
1E
100
AcDbEntity
  8
躯体と製品
  6
Continuous
 62
     4
100
AcDbLine
 10
1474.608816833481
 20
878.1470928187038
 30
0.0
 11
1473.733279171622
 21
879.0226304805626
 31
0.0
  0
LINE
  5
6F3E
330
1E
100
AcDbEntity
  8
躯体と製品
  6
Continuous
 62
     3
100
AcDbLine
 10
1473.733279171622
 20
878.1470928187037
 30
0.0
 11
1503.733279171622
 21
878.1470928187037
 31
0.0
  0
LINE
  5
6F3F
330
1E
100
AcDbEntity
  8
躯体と製品
  6
Continuous
 62
     3
100
AcDbLine
 10
1503.733279171622
 20
878.1470928187037
 30
0.0
 11
1503.733279171622
 21
879.1470928187036
 31
0.0
  0
LINE
  5
6F40
330
1E
100
AcDbEntity
  8
躯体と製品
  6
Continuous
 62
     3
100
AcDbLine
 10
1503.733279171622
 20
879.1470928187036
 30
0.0
 11
1473.733279171622
 21
879.1470928187036
 31
0.0
  0
LINE
  5
6F41
330
1E
100
AcDbEntity
  8
躯体と製品
  6
Continuous
 62
     3
100
AcDbLine
 10
1473.733279171622
 20
879.1470928187036
 30
0.0
 11
1473.733279171622
 21
878.1470928187037
 31
0.0
  0
LINE
  5
6F42
330
1E
100
AcDbEntity
  8
躯体と製品
  6
Continuous
 62
     4
100
AcDbLine
 10
1823.733279171621
 20
878.7211152903989
 30
0.0
 11
1824.159256699926
 21
879.1470928187038
 31
0.0
  0
LINE
  5
6F43
330
1E
100
AcDbEntity
  8
躯体と製品
  6
Continuous
 62
     4
100
AcDbLine
 10
1824.5734702623
 20
878.1470928187037
 30
0.0
 11
1825.5734702623
 21
879.1470928187038
 31
0.0
  0
LINE
  5
6F44
330
1E
100
AcDbEntity
  8
躯体と製品
  6
Continuous
 62
     4
100
AcDbLine
 10
1825.987683824673
 20
878.1470928187037
 30
0.0
 11
1826.987683824673
 21
879.1470928187036
 31
0.0
  0
LINE
  5
6F45
330
1E
100
AcDbEntity
  8
躯体と製品
  6
Continuous
 62
     4
100
AcDbLine
 10
1827.401897387046
 20
878.1470928187038
 30
0.0
 11
1828.401897387046
 21
879.1470928187036
 31
0.0
  0
LINE
  5
6F46
330
1E
100
AcDbEntity
  8
躯体と製品
  6
Continuous
 62
     4
100
AcDbLine
 10
1828.81611094942
 20
878.1470928187038
 30
0.0
 11
1829.81611094942
 21
879.1470928187036
 31
0.0
  0
LINE
  5
6F47
330
1E
100
AcDbEntity
  8
躯体と製品
  6
Continuous
 62
     4
100
AcDbLine
 10
1830.230324511793
 20
878.1470928187037
 30
0.0
 11
1831.230324511793
 21
879.1470928187036
 31
0.0
  0
LINE
  5
6F48
330
1E
100
AcDbEntity
  8
躯体と製品
  6
Continuous
 62
     4
100
AcDbLine
 10
1831.644538074166
 20
878.1470928187037
 30
0.0
 11
1832.644538074166
 21
879.1470928187035
 31
0.0
  0
LINE
  5
6F49
330
1E
100
AcDbEntity
  8
躯体と製品
  6
Continuous
 62
     4
100
AcDbLine
 10
1833.058751636537
 20
878.1470928187033
 30
0.0
 11
1834.058751636538
 21
879.1470928187036
 31
0.0
  0
LINE
  5
6F4A
330
1E
100
AcDbEntity
  8
躯体と製品
  6
Continuous
 62
     4
100
AcDbLine
 10
1834.47296519891
 20
878.1470928187031
 30
0.0
 11
1835.472965198911
 21
879.1470928187035
 31
0.0
  0
LINE
  5
6F4B
330
1E
100
AcDbEntity
  8
躯体と製品
  6
Continuous
 62
     4
100
AcDbLine
 10
1835.887178761284
 20
878.1470928187031
 30
0.0
 11
1836.887178761284
 21
879.1470928187035
 31
0.0
  0
LINE
  5
6F4C
330
1E
100
AcDbEntity
  8
躯体と製品
  6
Continuous
 62
     4
100
AcDbLine
 10
1837.301392323657
 20
878.1470928187028
 30
0.0
 11
1838.301392323657
 21
879.1470928187031
 31
0.0
  0
LINE
  5
6F4D
330
1E
100
AcDbEntity
  8
躯体と製品
  6
Continuous
 62
     4
100
AcDbLine
 10
1838.715605886031
 20
878.1470928187037
 30
0.0
 11
1839.715605886031
 21
879.1470928187035
 31
0.0
  0
LINE
  5
6F4E
330
1E
100
AcDbEntity
  8
躯体と製品
  6
Continuous
 62
     4
100
AcDbLine
 10
1840.129819448404
 20
878.1470928187033
 30
0.0
 11
1841.129819448404
 21
879.1470928187031
 31
0.0
  0
LINE
  5
6F4F
330
1E
100
AcDbEntity
  8
躯体と製品
  6
Continuous
 62
     4
100
AcDbLine
 10
1841.544033010777
 20
878.1470928187033
 30
0.0
 11
1842.544033010777
 21
879.1470928187031
 31
0.0
  0
LINE
  5
6F50
330
1E
100
AcDbEntity
  8
躯体と製品
  6
Continuous
 62
     4
100
AcDbLine
 10
1842.95824657315
 20
878.1470928187031
 30
0.0
 11
1843.95824657315
 21
879.1470928187029
 31
0.0
  0
LINE
  5
6F51
330
1E
100
AcDbEntity
  8
躯体と製品
  6
Continuous
 62
     4
100
AcDbLine
 10
1844.372460135522
 20
878.1470928187037
 30
0.0
 11
1845.372460135522
 21
879.1470928187038
 31
0.0
  0
LINE
  5
6F52
330
1E
100
AcDbEntity
  8
躯体と製品
  6
Continuous
 62
     4
100
AcDbLine
 10
1845.786673697896
 20
878.1470928187037
 30
0.0
 11
1846.786673697896
 21
879.1470928187036
 31
0.0
  0
LINE
  5
6F53
330
1E
100
AcDbEntity
  8
躯体と製品
  6
Continuous
 62
     4
100
AcDbLine
 10
1847.200887260268
 20
878.1470928187033
 30
0.0
 11
1848.200887260269
 21
879.1470928187036
 31
0.0
  0
LINE
  5
6F54
330
1E
100
AcDbEntity
  8
躯体と製品
  6
Continuous
 62
     4
100
AcDbLine
 10
1848.615100822642
 20
878.1470928187033
 30
0.0
 11
1849.615100822642
 21
879.1470928187036
 31
0.0
  0
LINE
  5
6F55
330
1E
100
AcDbEntity
  8
躯体と製品
  6
Continuous
 62
     4
100
AcDbLine
 10
1850.029314385016
 20
878.1470928187037
 30
0.0
 11
1851.029314385015
 21
879.1470928187035
 31
0.0
  0
LINE
  5
6F56
330
1E
100
AcDbEntity
  8
躯体と製品
  6
Continuous
 62
     4
100
AcDbLine
 10
1851.44352794739
 20
878.1470928187038
 30
0.0
 11
1852.443527947389
 21
879.1470928187036
 31
0.0
  0
LINE
  5
6F57
330
1E
100
AcDbEntity
  8
躯体と製品
  6
Continuous
 62
     4
100
AcDbLine
 10
1852.857741509762
 20
878.1470928187038
 30
0.0
 11
1853.733279171622
 21
879.0226304805626
 31
0.0
  0
LINE
  5
6F58
330
1E
100
AcDbEntity
  8
躯体と製品
  6
Continuous
 62
     3
100
AcDbLine
 10
1853.733279171622
 20
878.1470928187037
 30
0.0
 11
1823.733279171621
 21
878.1470928187037
 31
0.0
  0
LINE
  5
6F59
330
1E
100
AcDbEntity
  8
躯体と製品
  6
Continuous
 62
     3
100
AcDbLine
 10
1823.733279171621
 20
878.1470928187037
 30
0.0
 11
1823.733279171621
 21
879.1470928187036
 31
0.0
  0
LINE
  5
6F5A
330
1E
100
AcDbEntity
  8
躯体と製品
  6
Continuous
 62
     3
100
AcDbLine
 10
1823.733279171621
 20
879.1470928187036
 30
0.0
 11
1853.733279171622
 21
879.1470928187036
 31
0.0
  0
LINE
  5
6F5B
330
1E
100
AcDbEntity
  8
躯体と製品
  6
Continuous
 62
     3
100
AcDbLine
 10
1853.733279171622
 20
879.1470928187036
 30
0.0
 11
1853.733279171622
 21
878.1470928187037
 31
0.0
  0
LINE
  5
6F5C
330
1E
100
AcDbEntity
  8
躯体と製品
  6
Continuous
 62
     4
100
AcDbLine
 10
1407.576687181177
 20
923.8507902296978
 30
0.0
 11
1408.09117566725
 21
924.3652787157706
 31
0.0
  0
LINE
  5
6F5D
330
1E
100
AcDbEntity
  8
躯体と製品
  6
Continuous
 62
     7
100
AcDbLine
 10
1408.11665580178
 20
923.8790887859856
 30
0.0
 11
1408.026149291512
 21
925.6060558795363
 31
0.0
  0
LINE
  5
6F5E
330
1E
100
AcDbEntity
  8
躯体と製品
  6
Continuous
 62
     7
100
AcDbLine
 10
1393.137212780461
 20
923.0940494423416
 30
0.0
 11
1393.046706270193
 21
924.8210165358921
 31
0.0
  0
LINE
  5
6F5F
330
1E
100
AcDbEntity
  8
躯体と製品
  6
Continuous
 62
     4
100
AcDbLine
 10
1406.084258759486
 20
923.7725753703783
 30
0.0
 11
1407.911743516013
 21
925.6000601269048
 31
0.0
  0
LINE
  5
6F60
330
1E
100
AcDbEntity
  8
躯体と製品
  6
Continuous
 62
     4
100
AcDbLine
 10
1404.591830337793
 20
923.6943605110582
 30
0.0
 11
1406.41931509432
 21
925.5218452675853
 31
0.0
  0
LINE
  5
6F61
330
1E
100
AcDbEntity
  8
躯体と製品
  6
Continuous
 62
     4
100
AcDbLine
 10
1403.099401916099
 20
923.6161456517379
 30
0.0
 11
1404.926886672627
 21
925.4436304082656
 31
0.0
  0
LINE
  5
6F62
330
1E
100
AcDbEntity
  8
躯体と製品
  6
Continuous
 62
     4
100
AcDbLine
 10
1401.606973494406
 20
923.5379307924182
 30
0.0
 11
1403.434458250934
 21
925.3654155489456
 31
0.0
  0
LINE
  5
6F63
330
1E
100
AcDbEntity
  8
躯体と製品
  6
Continuous
 62
     4
100
AcDbLine
 10
1400.114545072713
 20
923.4597159330986
 30
0.0
 11
1401.942029829241
 21
925.2872006896257
 31
0.0
  0
LINE
  5
6F64
330
1E
100
AcDbEntity
  8
躯体と製品
  6
Continuous
 62
     4
100
AcDbLine
 10
1398.62211665102
 20
923.3815010737787
 30
0.0
 11
1400.449601407547
 21
925.2089858303058
 31
0.0
  0
LINE
  5
6F65
330
1E
100
AcDbEntity
  8
躯体と製品
  6
Continuous
 62
     4
100
AcDbLine
 10
1397.129688229327
 20
923.3032862144586
 30
0.0
 11
1398.957172985854
 21
925.1307709709861
 31
0.0
  0
LINE
  5
6F66
330
1E
100
AcDbEntity
  8
躯体と製品
  6
Continuous
 62
     4
100
AcDbLine
 10
1395.637259807634
 20
923.2250713551392
 30
0.0
 11
1397.464744564161
 21
925.0525561116662
 31
0.0
  0
LINE
  5
6F67
330
1E
100
AcDbEntity
  8
躯体と製品
  6
Continuous
 62
     4
100
AcDbLine
 10
1394.144831385943
 20
923.1468564958195
 30
0.0
 11
1395.97231614247
 21
924.9743412523468
 31
0.0
  0
LINE
  5
6F68
330
1E
100
AcDbEntity
  8
躯体と製品
  6
Continuous
 62
     4
100
AcDbLine
 10
1393.114335489324
 20
923.5305741615741
 30
0.0
 11
1394.479887720777
 21
924.8961263930267
 31
0.0
  0
LINE
  5
6F7B
330
1E
100
AcDbEntity
  8
躯体と製品
  6
Continuous
 62
     7
100
AcDbLine
 10
1888.733279171622
 20
878.1470928187037
 30
0.0
 11
1888.733279171622
 21
728.1470928187034
 31
0.0
  0
LINE
  5
6F7C
330
1E
100
AcDbEntity
  8
躯体と製品
  6
Continuous
 62
     7
100
AcDbLine
 10
1588.733279171622
 20
878.1470928187037
 30
0.0
 11
1588.733279171622
 21
728.1470928187034
 31
0.0
  0
LINE
  5
6F7D
330
1E
100
AcDbEntity
  8
躯体と製品
  6
Continuous
 62
     7
100
AcDbLine
 10
1438.733279171622
 20
878.1470928187037
 30
0.0
 11
1438.733279171622
 21
728.1470928187034
 31
0.0
  0
LINE
  5
6F7E
330
1E
100
AcDbEntity
  8
躯体と製品
  6
Continuous
 62
     7
100
AcDbLine
 10
1738.733279171622
 20
878.1470928187037
 30
0.0
 11
1738.733279171622
 21
728.1470928187034
 31
0.0
  0
LINE
  5
6F7F
330
1E
100
AcDbEntity
  8
図枠
  6
Continuous
 62
     7
100
AcDbLine
 10
1913.733279171622
 20
703.1470928187034
 30
0.0
 11
1913.733279171622
 21
583.1470928187036
 31
0.0
  0
LINE
  5
6F80
330
1E
100
AcDbEntity
  8
図枠
  6
Continuous
 62
     7
100
AcDbLine
 10
1853.733279171622
 20
703.1470928187034
 30
0.0
 11
1853.733279171622
 21
583.1470928187036
 31
0.0
  0
LINE
  5
6F81
330
1E
100
AcDbEntity
  8
図枠
  6
Continuous
 62
     7
100
AcDbLine
 10
1883.733279171622
 20
703.1470928187034
 30
0.0
 11
1883.733279171622
 21
583.1470928187036
 31
0.0
  0
LINE
  5
6F82
330
1E
100
AcDbEntity
  8
図枠
  6
Continuous
 62
     7
100
AcDbLine
 10
1778.733279171621
 20
703.1470928187034
 30
0.0
 11
1778.733279171621
 21
583.1470928187036
 31
0.0
  0
LINE
  5
6F83
330
1E
100
AcDbEntity
  8
図枠
  6
Continuous
 62
     7
100
AcDbLine
 10
1913.733279171622
 20
703.1470928187034
 30
0.0
 11
1778.733279171621
 21
703.1470928187034
 31
0.0
  0
LINE
  5
6F84
330
1E
100
AcDbEntity
  8
図枠
  6
Continuous
 62
     7
100
AcDbLine
 10
1913.733279171622
 20
583.1470928187036
 30
0.0
 11
1778.733279171621
 21
583.1470928187036
 31
0.0
  0
LINE
  5
6F85
330
1E
100
AcDbEntity
  8
図枠
  6
Continuous
 62
     7
100
AcDbLine
 10
1913.733279171622
 20
691.1470928187034
 30
0.0
 11
1778.733279171621
 21
691.1470928187034
 31
0.0
  0
LINE
  5
6F86
330
1E
100
AcDbEntity
  8
図枠
  6
Continuous
 62
     7
100
AcDbLine
 10
1913.733279171622
 20
679.1470928187034
 30
0.0
 11
1778.733279171621
 21
679.1470928187034
 31
0.0
  0
LINE
  5
6F87
330
1E
100
AcDbEntity
  8
図枠
  6
Continuous
 62
     7
100
AcDbLine
 10
1913.733279171622
 20
667.1470928187036
 30
0.0
 11
1778.733279171621
 21
667.1470928187036
 31
0.0
  0
LINE
  5
6F88
330
1E
100
AcDbEntity
  8
図枠
  6
Continuous
 62
     7
100
AcDbLine
 10
1913.733279171622
 20
655.1470928187036
 30
0.0
 11
1778.733279171621
 21
655.1470928187036
 31
0.0
  0
LINE
  5
6F89
330
1E
100
AcDbEntity
  8
図枠
  6
Continuous
 62
     7
100
AcDbLine
 10
1913.733279171622
 20
643.1470928187036
 30
0.0
 11
1778.733279171621
 21
643.1470928187036
 31
0.0
  0
LINE
  5
6F8A
330
1E
100
AcDbEntity
  8
図枠
  6
Continuous
 62
     7
100
AcDbLine
 10
1913.733279171622
 20
631.1470928187036
 30
0.0
 11
1778.733279171621
 21
631.1470928187036
 31
0.0
  0
LINE
  5
6F8B
330
1E
100
AcDbEntity
  8
図枠
  6
Continuous
 62
     7
100
AcDbLine
 10
1913.733279171622
 20
619.1470928187036
 30
0.0
 11
1778.733279171621
 21
619.1470928187036
 31
0.0
  0
LINE
  5
6F8C
330
1E
100
AcDbEntity
  8
図枠
  6
Continuous
 62
     7
100
AcDbLine
 10
1913.733279171622
 20
607.1470928187036
 30
0.0
 11
1778.733279171621
 21
607.1470928187036
 31
0.0
  0
LINE
  5
6F8D
330
1E
100
AcDbEntity
  8
図枠
  6
Continuous
 62
     7
100
AcDbLine
 10
1913.733279171622
 20
595.1470928187036
 30
0.0
 11
1778.733279171621
 21
595.1470928187036
 31
0.0
  0
TEXT
  5
6F8E
330
1E
100
AcDbEntity
  8
図枠
 62
     7
100
AcDbText
 10
1788.483279171622
 20
586.1470928187036
 30
0.0
 40
5.0
  1
 　　〃　　　900
100
AcDbText
  0
TEXT
  5
6F8F
330
1E
100
AcDbEntity
  8
図枠
 62
     7
100
AcDbText
 10
1788.483279171622
 20
598.1470928187036
 30
0.0
 40
5.0
  1
 　　〃　　　850
100
AcDbText
  0
TEXT
  5
6F90
330
1E
100
AcDbEntity
  8
図枠
 62
     7
100
AcDbText
 10
1788.483279171622
 20
610.1470928187036
 30
0.0
 40
5.0
  1
 　　〃　　　800
100
AcDbText
  0
TEXT
  5
6F91
330
1E
100
AcDbEntity
  8
図枠
 62
     7
100
AcDbText
 10
1788.483279171622
 20
622.1470928187036
 30
0.0
 40
5.0
  1
 　　〃　　　750
100
AcDbText
  0
TEXT
  5
6F92
330
1E
100
AcDbEntity
  8
図枠
 62
     7
100
AcDbText
 10
1788.483279171622
 20
634.1470928187036
 30
0.0
 40
5.0
  1
 　　〃　　　700
100
AcDbText
  0
TEXT
  5
6F93
330
1E
100
AcDbEntity
  8
図枠
 62
     7
100
AcDbText
 10
1788.483279171622
 20
646.1470928187036
 30
0.0
 40
5.0
  1
 　　〃　　　650
100
AcDbText
  0
TEXT
  5
6F94
330
1E
100
AcDbEntity
  8
図枠
 62
     7
100
AcDbText
 10
1788.483279171622
 20
658.1470928187036
 30
0.0
 40
5.0
  1
 　　〃　　　600
100
AcDbText
  0
TEXT
  5
6F95
330
1E
100
AcDbEntity
  8
図枠
 62
     7
100
AcDbText
 10
1788.483279171622
 20
670.1470928187036
 30
0.0
 40
5.0
  1
 　　〃　　　550
100
AcDbText
  0
TEXT
  5
6F96
330
1E
100
AcDbEntity
  8
図枠
 62
     7
100
AcDbText
 10
1863.733279171622
 20
670.1470928187036
 30
0.0
 40
5.0
  1
550
100
AcDbText
  0
TEXT
  5
6F97
330
1E
100
AcDbEntity
  8
図枠
 62
     7
100
AcDbText
 10
1863.733279171622
 20
658.1470928187036
 30
0.0
 40
5.0
  1
600
100
AcDbText
  0
TEXT
  5
6F98
330
1E
100
AcDbEntity
  8
図枠
 62
     7
100
AcDbText
 10
1863.733279171622
 20
646.1470928187036
 30
0.0
 40
5.0
  1
650
100
AcDbText
  0
TEXT
  5
6F99
330
1E
100
AcDbEntity
  8
図枠
 62
     7
100
AcDbText
 10
1863.733279171622
 20
634.1470928187036
 30
0.0
 40
5.0
  1
700
100
AcDbText
  0
TEXT
  5
6F9A
330
1E
100
AcDbEntity
  8
図枠
 62
     7
100
AcDbText
 10
1863.733279171622
 20
622.1470928187036
 30
0.0
 40
5.0
  1
750
100
AcDbText
  0
TEXT
  5
6F9B
330
1E
100
AcDbEntity
  8
図枠
 62
     7
100
AcDbText
 10
1863.733279171622
 20
610.1470928187036
 30
0.0
 40
5.0
  1
800
100
AcDbText
  0
TEXT
  5
6F9C
330
1E
100
AcDbEntity
  8
図枠
 62
     7
100
AcDbText
 10
1863.733279171622
 20
598.1470928187036
 30
0.0
 40
5.0
  1
850
100
AcDbText
  0
TEXT
  5
6F9D
330
1E
100
AcDbEntity
  8
図枠
 62
     7
100
AcDbText
 10
1863.733279171622
 20
586.1470928187036
 30
0.0
 40
5.0
  1
900
100
AcDbText
  0
TEXT
  5
6F9E
330
1E
100
AcDbEntity
  8
図枠
 62
     7
100
AcDbText
 10
1863.733279171622
 20
682.1470928187034
 30
0.0
 40
5.0
  1
500
100
AcDbText
  0
TEXT
  5
6F9F
330
1E
100
AcDbEntity
  8
図枠
 62
     7
100
AcDbText
 10
1801.733278671622
 20
694.1470928187034
 30
0.0
 40
5.0
  1
タ　イ　プ
100
AcDbText
  0
TEXT
  5
6FA0
330
1E
100
AcDbEntity
  8
図枠
 62
     7
100
AcDbText
 10
1865.733279171622
 20
694.1470928187034
 30
0.0
 40
5.0
  1
Ｗ
100
AcDbText
  0
TEXT
  5
6FA1
330
1E
100
AcDbEntity
  8
図枠
 62
     7
100
AcDbText
 10
1895.733279171622
 20
694.1470928187034
 30
0.0
 40
5.0
  1
Ｃ
100
AcDbText
  0
TEXT
  5
6FA2
330
1E
100
AcDbEntity
  8
図枠
 62
     7
100
AcDbText
 10
1893.733279171621
 20
682.1470928187034
 30
0.0
 40
5.0
  1
100
100
AcDbText
  0
TEXT
  5
6FA3
330
1E
100
AcDbEntity
  8
図枠
 62
     7
100
AcDbText
 10
1893.733279171621
 20
670.1470928187036
 30
0.0
 40
5.0
  1
125
100
AcDbText
  0
TEXT
  5
6FA4
330
1E
100
AcDbEntity
  8
図枠
 62
     7
100
AcDbText
 10
1893.733279171621
 20
658.1470928187036
 30
0.0
 40
5.0
  1
150
100
AcDbText
  0
TEXT
  5
6FA5
330
1E
100
AcDbEntity
  8
図枠
 62
     7
100
AcDbText
 10
1893.733279171621
 20
646.1470928187036
 30
0.0
 40
5.0
  1
175
100
AcDbText
  0
TEXT
  5
6FA6
330
1E
100
AcDbEntity
  8
図枠
 62
     7
100
AcDbText
 10
1893.733279171621
 20
634.1470928187036
 30
0.0
 40
5.0
  1
200
100
AcDbText
  0
TEXT
  5
6FA7
330
1E
100
AcDbEntity
  8
図枠
 62
     7
100
AcDbText
 10
1893.733279171621
 20
622.1470928187036
 30
0.0
 40
5.0
  1
225
100
AcDbText
  0
TEXT
  5
6FA8
330
1E
100
AcDbEntity
  8
図枠
 62
     7
100
AcDbText
 10
1893.733279171621
 20
610.1470928187036
 30
0.0
 40
5.0
  1
250
100
AcDbText
  0
TEXT
  5
6FA9
330
1E
100
AcDbEntity
  8
図枠
 62
     7
100
AcDbText
 10
1893.733279171621
 20
598.1470928187036
 30
0.0
 40
5.0
  1
275
100
AcDbText
  0
TEXT
  5
6FAA
330
1E
100
AcDbEntity
  8
図枠
 62
     7
100
AcDbText
 10
1893.733279171621
 20
586.1470928187036
 30
0.0
 40
5.0
  1
300
100
AcDbText
  0
TEXT
  5
6FAB
330
1E
100
AcDbEntity
  8
図枠
 62
     7
100
AcDbText
 10
1788.483279171622
 20
682.1470928187034
 30
0.0
 40
5.0
  1
150ＦＹＹ－Ａ500
100
AcDbText
  0
LINE
  5
6FAE
330
1E
100
AcDbEntity
  8
躯体と製品
  6
Continuous
 62
     7
100
AcDbLine
 10
1589.729473869714
 20
877.234248561451
 30
0.0
 11
1593.560197688189
 21
833.4488749588375
 31
0.0
  0
LINE
  5
6FAF
330
1E
100
AcDbEntity
  8
躯体と製品
  6
Continuous
 62
     7
100
AcDbLine
 10
1590.725668567805
 20
877.3214043041988
 30
0.0
 11
1594.556392386281
 21
833.536030701585
 31
0.0
  0
LINE
  5
6FB0
330
1E
100
AcDbEntity
  8
躯体と製品
  6
Continuous
 62
     7
100
AcDbLine
 10
1737.73708447353
 20
877.234248561451
 30
0.0
 11
1733.906360655054
 21
833.448874958837
 31
0.0
  0
ARC
  5
6FB1
330
1E
100
AcDbEntity
  8
躯体と製品
  6
Continuous
 62
     7
100
AcDbCircle
 10
1663.733279171621
 20
839.5882240733184
 30
0.0
 40
70.4411312546151
100
AcDbArc
 50
184.9999999999994
 51
355.0000000000006
  0
LINE
  5
6FB2
330
1E
100
AcDbEntity
  8
躯体と製品
  6
Continuous
 62
     7
100
AcDbLine
 10
1736.740889775438
 20
877.3214043041988
 30
0.0
 11
1732.910165956962
 21
833.536030701585
 31
0.0
  0
ARC
  5
6FB3
330
1E
100
AcDbEntity
  8
躯体と製品
  6
Continuous
 62
     7
100
AcDbCircle
 10
1663.733279171621
 20
839.5882240733184
 30
0.0
 40
69.4411312546151
100
AcDbArc
 50
184.9999999999994
 51
355.0000000000006
  0
POINT
  5
6FB4
330
1E
100
AcDbEntity
  8
躯体と製品
 62
     4
100
AcDbPoint
 10
1663.733279171622
 20
941.0098433953887
 30
0.0
  0
TEXT
  5
6FB5
330
1E
100
AcDbEntity
  8
図枠
 62
     7
100
AcDbText
 10
1575.233279171621
 20
943.3805931966228
 30
0.0
 40
5.0
  1
勾配３度
100
AcDbText
  0
LINE
  5
6FD9
330
1E
100
AcDbEntity
  8
躯体と製品
  6
Continuous
 62
     7
100
AcDbLine
 10
1838.733279171622
 20
879.1470928187036
 30
0.0
 11
1838.733279171622
 21
880.1470928187036
 31
0.0
  0
ARC
  5
6FDA
330
1E
100
AcDbEntity
  8
躯体と製品
  6
Continuous
 62
     7
100
AcDbCircle
 10
1853.733279171622
 20
870.8970928187037
 30
0.0
 40
8.25
100
AcDbArc
 50
71.07535558394559
 51
90.0
  0
ARC
  5
6FDB
330
1E
100
AcDbEntity
  8
躯体と製品
  6
Continuous
 62
     7
100
AcDbCircle
 10
1859.733279171621
 20
888.3970928187036
 30
0.0
 40
10.25
100
AcDbArc
 50
251.0753555839456
 51
270.0
  0
ARC
  5
6FDC
330
1E
100
AcDbEntity
  8
躯体と製品
  6
Continuous
 62
     7
100
AcDbCircle
 10
1823.733279171622
 20
870.8970928187037
 30
0.0
 40
8.25
100
AcDbArc
 50
90.0
 51
108.9246444160544
  0
ARC
  5
6FDD
330
1E
100
AcDbEntity
  8
躯体と製品
  6
Continuous
 62
     7
100
AcDbCircle
 10
1817.733279171622
 20
888.3970928187036
 30
0.0
 40
10.25
100
AcDbArc
 50
270.0
 51
288.9246444160544
  0
ARC
  5
6FDE
330
1E
100
AcDbEntity
  8
躯体と製品
  6
Continuous
 62
     7
100
AcDbCircle
 10
1823.733279171622
 20
870.8970928187037
 30
0.0
 40
9.25
100
AcDbArc
 50
90.0
 51
108.9246444160544
  0
LINE
  5
6FDF
330
1E
100
AcDbEntity
  8
躯体と製品
  6
Continuous
 62
     7
100
AcDbLine
 10
1853.733279171622
 20
880.1470928187036
 30
0.0
 11
1823.733279171622
 21
880.1470928187036
 31
0.0
  0
ARC
  5
6FE0
330
1E
100
AcDbEntity
  8
躯体と製品
  6
Continuous
 62
     7
100
AcDbCircle
 10
1853.733279171622
 20
870.8970928187037
 30
0.0
 40
9.25
100
AcDbArc
 50
71.07535558394559
 51
90.0
  0
ARC
  5
6FE1
330
1E
100
AcDbEntity
  8
躯体と製品
  6
Continuous
 62
     7
100
AcDbCircle
 10
1859.733279171621
 20
888.3970928187036
 30
0.0
 40
9.25
100
AcDbArc
 50
251.0753555839456
 51
270.0
  0
ARC
  5
6FE2
330
1E
100
AcDbEntity
  8
躯体と製品
  6
Continuous
 62
     7
100
AcDbCircle
 10
1817.733279171622
 20
888.3970928187036
 30
0.0
 40
9.25
100
AcDbArc
 50
270.0
 51
288.9246444160544
  0
LINE
  5
6FE3
330
1E
100
AcDbEntity
  8
躯体と製品
  6
Continuous
 62
     7
100
AcDbLine
 10
1488.733279171621
 20
879.1470928187036
 30
0.0
 11
1488.733279171621
 21
880.1470928187036
 31
0.0
  0
ARC
  5
6FE4
330
1E
100
AcDbEntity
  8
躯体と製品
  6
Continuous
 62
     7
100
AcDbCircle
 10
1503.733279171622
 20
870.8970928187037
 30
0.0
 40
8.25
100
AcDbArc
 50
71.07535558394559
 51
90.0
  0
ARC
  5
6FE5
330
1E
100
AcDbEntity
  8
躯体と製品
  6
Continuous
 62
     7
100
AcDbCircle
 10
1509.733279171622
 20
888.3970928187036
 30
0.0
 40
10.25
100
AcDbArc
 50
251.0753555839456
 51
270.0
  0
ARC
  5
6FE6
330
1E
100
AcDbEntity
  8
躯体と製品
  6
Continuous
 62
     7
100
AcDbCircle
 10
1473.733279171622
 20
870.8970928187037
 30
0.0
 40
8.25
100
AcDbArc
 50
90.0
 51
108.9246444160544
  0
ARC
  5
6FE7
330
1E
100
AcDbEntity
  8
躯体と製品
  6
Continuous
 62
     7
100
AcDbCircle
 10
1467.733279171622
 20
888.3970928187036
 30
0.0
 40
10.25
100
AcDbArc
 50
270.0
 51
288.9246444160544
  0
ARC
  5
6FE8
330
1E
100
AcDbEntity
  8
躯体と製品
  6
Continuous
 62
     7
100
AcDbCircle
 10
1473.733279171622
 20
870.8970928187037
 30
0.0
 40
9.25
100
AcDbArc
 50
90.0
 51
108.9246444160544
  0
LINE
  5
6FE9
330
1E
100
AcDbEntity
  8
躯体と製品
  6
Continuous
 62
     7
100
AcDbLine
 10
1503.733279171622
 20
880.1470928187036
 30
0.0
 11
1473.733279171622
 21
880.1470928187036
 31
0.0
  0
ARC
  5
6FEA
330
1E
100
AcDbEntity
  8
躯体と製品
  6
Continuous
 62
     7
100
AcDbCircle
 10
1503.733279171622
 20
870.8970928187037
 30
0.0
 40
9.25
100
AcDbArc
 50
71.07535558394559
 51
90.0
  0
ARC
  5
6FEB
330
1E
100
AcDbEntity
  8
躯体と製品
  6
Continuous
 62
     7
100
AcDbCircle
 10
1509.733279171622
 20
888.3970928187036
 30
0.0
 40
9.25
100
AcDbArc
 50
251.0753555839456
 51
270.0
  0
ARC
  5
6FEC
330
1E
100
AcDbEntity
  8
躯体と製品
  6
Continuous
 62
     7
100
AcDbCircle
 10
1467.733279171622
 20
888.3970928187036
 30
0.0
 40
9.25
100
AcDbArc
 50
270.0
 51
288.9246444160544
  0
ARC
  5
6FED
330
1E
100
AcDbEntity
  8
躯体と製品
  6
Continuous
 62
     7
100
AcDbCircle
 10
1438.761838945521
 20
877.1475007322425
 30
0.0
 40
2.0
100
AcDbArc
 50
91.15721505311539
 51
175.0000000000005
  0
LINE
  5
6FEE
330
1E
100
AcDbEntity
  8
躯体と製品
  6
Continuous
 62
     7
100
AcDbLine
 10
1467.733279171622
 20
879.1470928187036
 30
0.0
 11
1438.721447266136
 21
879.1470928187036
 31
0.0
  0
LINE
  5
6FEF
330
1E
100
AcDbEntity
  8
躯体と製品
  6
Continuous
 62
     7
100
AcDbLine
 10
1509.733279171622
 20
879.1470928187036
 30
0.0
 11
1588.733279171622
 21
879.1470928187036
 31
0.0
  0
ARC
  5
6FF0
330
1E
100
AcDbEntity
  8
躯体と製品
  6
Continuous
 62
     7
100
AcDbCircle
 10
1588.733279171622
 20
877.1470928187037
 30
0.0
 40
2.0
100
AcDbArc
 50
4.999999999999459
 51
90.0
  0
ARC
  5
6FF1
330
1E
100
AcDbEntity
  8
躯体と製品
  6
Continuous
 62
     7
100
AcDbCircle
 10
1738.733279171622
 20
877.1470928187037
 30
0.0
 40
2.0
100
AcDbArc
 50
90.0
 51
175.0000000000005
  0
LINE
  5
6FF2
330
1E
100
AcDbEntity
  8
躯体と製品
  6
Continuous
 62
     7
100
AcDbLine
 10
1817.733279171622
 20
879.1470928187036
 30
0.0
 11
1738.733279171622
 21
879.1470928187036
 31
0.0
  0
LINE
  5
6FF3
330
1E
100
AcDbEntity
  8
躯体と製品
  6
Continuous
 62
     7
100
AcDbLine
 10
1859.733279171621
 20
879.1470928187036
 30
0.0
 11
1888.745111077109
 21
879.1470928187036
 31
0.0
  0
ARC
  5
6FF4
330
1E
100
AcDbEntity
  8
躯体と製品
  6
Continuous
 62
     7
100
AcDbCircle
 10
1888.704719397723
 20
877.1475007322425
 30
0.0
 40
2.0
100
AcDbArc
 50
4.999999999999459
 51
88.84278494683243
  0
TEXT
  5
6FF5
330
1E
100
AcDbEntity
  8
図枠
 62
     7
100
AcDbText
 10
1629.733279171621
 20
703.8048801731431
 30
0.0
 40
5.0
  1
（3000mmセット）
100
AcDbText
  0
TEXT
  5
6FF6
330
1E
100
AcDbEntity
  8
図枠
 62
     7
100
AcDbText
 10
1697.733279171622
 20
703.8048801731431
 30
0.0
 40
5.0
  1
（2000mmセット）
100
AcDbText
  0
TEXT
  5
6FF7
330
1E
100
AcDbEntity
  8
図枠
 62
     7
100
AcDbText
 10
1872.733279171622
 20
703.8048801731431
 30
0.0
 40
5.0
  1
（単位：mm）
100
AcDbText
  0
TEXT
  5
6FF8
330
1E
100
AcDbEntity
  8
図枠
 62
     7
100
AcDbText
 10
1432.733279171621
 20
658.1470928187036
 30
0.0
 40
5.0
  1
止水補助板ホルダーＡＬ
100
AcDbText
  0
LINE
  5
6FF9
330
1E
100
AcDbEntity
  8
図枠
  6
Continuous
 62
     4
100
AcDbLine
 10
1613.733279171622
 20
943.3963161612263
 30
0.0
 11
1563.733279171622
 21
943.3963161612263
 31
0.0
  0
LINE
  5
6FFA
330
1E
100
AcDbEntity
  8
図枠
  6
Continuous
 62
     4
100
AcDbLine
 10
1613.733279171622
 20
943.3963161612263
 30
0.0
 11
1563.733279171622
 21
940.7759271970743
 31
0.0
  0
LINE
  5
6FFB
330
1E
100
AcDbEntity
  8
図枠
  6
Continuous
 62
     4
100
AcDbLine
 10
1563.733279171622
 20
940.7759271970743
 30
0.0
 11
1563.733279171622
 21
943.3963161612263
 31
0.0
  0
LINE
  5
6FFC
330
1E
100
AcDbEntity
  8
躯体と製品
  6
CENTER1
 62
     4
100
AcDbLine
 10
1663.733279171622
 20
949.7178759210569
 30
0.0
 11
1663.733279171622
 21
759.1470928187034
 31
0.0
  0
LINE
  5
6FFD
330
1E
100
AcDbEntity
  8
躯体と製品
  6
CENTER1
 62
     4
100
AcDbLine
 10
1488.733279171621
 20
903.07060724659
 30
0.0
 11
1488.733279171621
 21
818.1470928187035
 31
0.0
  0
LINE
  5
6FFE
330
1E
100
AcDbEntity
  8
躯体と製品
  6
CENTER1
 62
     4
100
AcDbLine
 10
1487.008639309885
 20
930.9786961855049
 30
0.0
 11
1489.361310646537
 21
886.0870528295349
 31
0.0
  0
LINE
  5
6FFF
330
1E
100
AcDbEntity
  8
躯体と製品
  6
CENTER1
 62
     4
100
AcDbLine
 10
1838.733279171622
 20
903.07060724659
 30
0.0
 11
1838.733279171622
 21
818.1470928187035
 31
0.0
  0
LINE
  5
7000
330
1E
100
AcDbEntity
  8
躯体と製品
  6
CENTER1
 62
     4
100
AcDbLine
 10
1840.457919033359
 20
930.9786961855049
 30
0.0
 11
1838.105247696707
 21
886.0870528295349
 31
0.0
  0
LINE
  5
7001
330
1E
100
AcDbEntity
  8
躯体と製品
  6
Continuous
 62
     7
100
AcDbLine
 10
1829.733279171622
 20
884.1470928187035
 30
0.0
 11
1847.733279171622
 21
884.1470928187035
 31
0.0
  0
LINE
  5
7002
330
1E
100
AcDbEntity
  8
躯体と製品
  6
Continuous
 62
     7
100
AcDbLine
 10
1847.733279171622
 20
884.1470928187035
 30
0.0
 11
1847.733279171622
 21
882.6470928187037
 31
0.0
  0
LINE
  5
7003
330
1E
100
AcDbEntity
  8
躯体と製品
  6
Continuous
 62
     7
100
AcDbLine
 10
1829.733279171622
 20
884.1470928187035
 30
0.0
 11
1829.733279171622
 21
882.6470928187037
 31
0.0
  0
ARC
  5
7004
330
1E
100
AcDbEntity
  8
躯体と製品
  6
Continuous
 62
     7
100
AcDbCircle
 10
1838.733279171622
 20
879.5359397791479
 30
0.0
 40
9.553418012635715
100
AcDbArc
 50
72.41204622604974
 51
107.5879537739502
  0
ARC
  5
7005
330
1E
100
AcDbEntity
  8
躯体と製品
  6
Continuous
 62
     7
100
AcDbCircle
 10
1834.4031521527
 20
886.5335350433552
 30
0.0
 40
2.555822748428199
100
AcDbArc
 50
55.61575253203897
 51
124.384247467961
  0
ARC
  5
7006
330
1E
100
AcDbEntity
  8
躯体と製品
  6
Continuous
 62
     7
100
AcDbCircle
 10
1843.063406190544
 20
886.5335350433552
 30
0.0
 40
2.555822748428199
100
AcDbArc
 50
55.61575253203897
 51
124.384247467961
  0
LINE
  5
7007
330
1E
100
AcDbEntity
  8
躯体と製品
  6
Continuous
 62
     7
100
AcDbLine
 10
1832.959776479725
 20
888.6427758043993
 30
0.0
 11
1832.959776479725
 21
884.1470928187035
 31
0.0
  0
LINE
  5
7008
330
1E
100
AcDbEntity
  8
躯体と製品
  6
Continuous
 62
     7
100
AcDbLine
 10
1833.833279171621
 20
889.1470928187036
 30
0.0
 11
1832.959776479725
 21
888.6427758043993
 31
0.0
  0
LINE
  5
7009
330
1E
100
AcDbEntity
  8
躯体と製品
  6
Continuous
 62
     7
100
AcDbLine
 10
1833.833279171621
 20
889.1470928187036
 30
0.0
 11
1843.633279171622
 21
889.1470928187036
 31
0.0
  0
LINE
  5
700A
330
1E
100
AcDbEntity
  8
躯体と製品
  6
Continuous
 62
     7
100
AcDbLine
 10
1843.633279171622
 20
889.1470928187036
 30
0.0
 11
1844.506781863518
 21
888.6427758043993
 31
0.0
  0
LINE
  5
700B
330
1E
100
AcDbEntity
  8
躯体と製品
  6
Continuous
 62
     7
100
AcDbLine
 10
1835.846527825674
 20
888.6427758043993
 30
0.0
 11
1835.846527825674
 21
884.1470928187035
 31
0.0
  0
LINE
  5
700C
330
1E
100
AcDbEntity
  8
躯体と製品
  6
Continuous
 62
     7
100
AcDbLine
 10
1841.620030517569
 20
888.6427758043993
 30
0.0
 11
1841.620030517569
 21
884.1470928187035
 31
0.0
  0
LINE
  5
700D
330
1E
100
AcDbEntity
  8
躯体と製品
  6
Continuous
 62
     7
100
AcDbLine
 10
1844.506781863518
 20
888.6427758043993
 30
0.0
 11
1844.506781863518
 21
884.1470928187035
 31
0.0
  0
CIRCLE
  5
700E
330
1E
100
AcDbEntity
  8
図枠
  6
Continuous
 62
     4
100
AcDbCircle
 10
1888.706619910381
 20
911.7452869188079
 30
0.0
 40
0.9
  0
CIRCLE
  5
700F
330
1E
100
AcDbEntity
  8
図枠
  6
Continuous
 62
     4
100
AcDbCircle
 10
1840.787724209054
 20
913.6102625059709
 30
0.0
 40
0.9
  0
CIRCLE
  5
7010
330
1E
100
AcDbEntity
  8
図枠
  6
Continuous
 62
     4
100
AcDbCircle
 10
1836.607268195619
 20
853.0644314205567
 30
0.0
 40
0.9
  0
CIRCLE
  5
7011
330
1E
100
AcDbEntity
  8
図枠
  6
Continuous
 62
     4
100
AcDbCircle
 10
1856.337108200011
 20
916.3325151494024
 30
0.0
 40
0.9
  0
CIRCLE
  5
7012
330
1E
100
AcDbEntity
  8
図枠
  6
Continuous
 62
     4
100
AcDbCircle
 10
1843.070690000317
 20
886.2476649659617
 30
0.0
 40
0.9
  0
CIRCLE
  5
7013
330
1E
100
AcDbEntity
  8
図枠
  6
Continuous
 62
     4
100
AcDbCircle
 10
1848.910761899766
 20
893.635707730324
 30
0.0
 40
0.9
  0
CIRCLE
  5
7014
330
1E
100
AcDbEntity
  8
図枠
  6
Continuous
 62
     4
100
AcDbCircle
 10
1905.631935021992
 20
941.0607926262299
 30
0.0
 40
6.0
  0
LINE
  5
7015
330
1E
100
AcDbEntity
  8
図枠
  6
Continuous
 62
     4
100
AcDbLine
 10
1888.706619910381
 20
911.7452869188079
 30
0.0
 11
1902.631935021991
 21
935.8646402035233
 31
0.0
  0
CIRCLE
  5
7016
330
1E
100
AcDbEntity
  8
図枠
  6
Continuous
 62
     4
100
AcDbCircle
 10
1856.254970755801
 20
891.898429804659
 30
0.0
 40
0.9
  0
CIRCLE
  5
7017
330
1E
100
AcDbEntity
  8
図枠
  6
Continuous
 62
     4
100
AcDbCircle
 10
1884.06802501125
 20
940.072052888768
 30
0.0
 40
6.0
  0
LINE
  5
7018
330
1E
100
AcDbEntity
  8
図枠
  6
Continuous
 62
     4
100
AcDbLine
 10
1856.254970755801
 20
891.898429804659
 30
0.0
 11
1881.06802501125
 21
934.8759004660614
 31
0.0
  0
CIRCLE
  5
7019
330
1E
100
AcDbEntity
  8
図枠
  6
Continuous
 62
     4
100
AcDbCircle
 10
1877.624197972387
 20
953.2028361804375
 30
0.0
 40
6.0
  0
LINE
  5
701A
330
1E
100
AcDbEntity
  8
図枠
  6
Continuous
 62
     4
100
AcDbLine
 10
1856.337108200011
 20
916.3325151494024
 30
0.0
 11
1874.624197972387
 21
948.0066837577309
 31
0.0
  0
CIRCLE
  5
701B
330
1E
100
AcDbEntity
  8
図枠
  6
Continuous
 62
     4
100
AcDbCircle
 10
1861.613256748087
 20
949.6811429582535
 30
0.0
 40
6.0
  0
LINE
  5
701C
330
1E
100
AcDbEntity
  8
図枠
  6
Continuous
 62
     4
100
AcDbLine
 10
1840.787724209054
 20
913.6102625059709
 30
0.0
 11
1858.613256748086
 21
944.484990535547
 31
0.0
  0
CIRCLE
  5
701D
330
1E
100
AcDbEntity
  8
図枠
  6
Continuous
 62
     4
100
AcDbCircle
 10
1863.692448031534
 20
868.0330763285651
 30
0.0
 40
6.0
  0
LINE
  5
701E
330
1E
100
AcDbEntity
  8
図枠
  6
Continuous
 62
     4
100
AcDbLine
 10
1848.910761899766
 20
893.635707730324
 30
0.0
 11
1860.692448031534
 21
873.2292287512716
 31
0.0
  0
CIRCLE
  5
701F
330
1E
100
AcDbEntity
  8
図枠
  6
Continuous
 62
     4
100
AcDbCircle
 10
1862.493075665173
 20
852.6071061902328
 30
0.0
 40
6.0
  0
LINE
  5
7020
330
1E
100
AcDbEntity
  8
図枠
  6
Continuous
 62
     4
100
AcDbLine
 10
1843.070690000317
 20
886.2476649659617
 30
0.0
 11
1859.493075665174
 21
857.8032586129394
 31
0.0
  0
CIRCLE
  5
7021
330
1E
100
AcDbEntity
  8
図枠
  6
Continuous
 62
     4
100
AcDbCircle
 10
1823.565654000873
 20
830.4756930225444
 30
0.0
 40
6.0
  0
LINE
  5
7022
330
1E
100
AcDbEntity
  8
図枠
  6
Continuous
 62
     4
100
AcDbLine
 10
1836.607268195619
 20
853.0644314205567
 30
0.0
 11
1826.565654000873
 21
835.6718454452506
 31
0.0
  0
CIRCLE
  5
7023
330
1E
100
AcDbEntity
  8
図枠
  6
Continuous
 62
     4
100
AcDbCircle
 10
1831.6115274186
 20
883.383249751281
 30
0.0
 40
0.9
  0
CIRCLE
  5
7024
330
1E
100
AcDbEntity
  8
図枠
  6
Continuous
 62
     4
100
AcDbCircle
 10
1818.91427378672
 20
861.3909613442777
 30
0.0
 40
6.0
  0
LINE
  5
7025
330
1E
100
AcDbEntity
  8
図枠
  6
Continuous
 62
     4
100
AcDbLine
 10
1831.6115274186
 20
883.383249751281
 30
0.0
 11
1821.914273786721
 21
866.5871137669842
 31
0.0
  0
TEXT
  5
7026
330
1E
100
AcDbEntity
  8
図枠
 62
     7
100
AcDbText
 10
1874.624197972387
 20
950.2028361804374
 30
0.0
 40
5.0
  1
５
100
AcDbText
  0
TEXT
  5
7027
330
1E
100
AcDbEntity
  8
図枠
 62
     7
100
AcDbText
 10
1858.363256748087
 20
946.6811429582534
 30
0.0
 40
5.0
  1
10
100
AcDbText
  0
TEXT
  5
7028
330
1E
100
AcDbEntity
  8
図枠
 62
     7
100
AcDbText
 10
1902.631935021991
 20
938.0607926262298
 30
0.0
 40
5.0
  1
４
100
AcDbText
  0
TEXT
  5
7029
330
1E
100
AcDbEntity
  8
図枠
 62
     7
100
AcDbText
 10
1881.06802501125
 20
937.072052888768
 30
0.0
 40
5.0
  1
２
100
AcDbText
  0
TEXT
  5
702A
330
1E
100
AcDbEntity
  8
図枠
 62
     7
100
AcDbText
 10
1860.692448031534
 20
865.033076328565
 30
0.0
 40
5.0
  1
６
100
AcDbText
  0
TEXT
  5
702B
330
1E
100
AcDbEntity
  8
図枠
 62
     7
100
AcDbText
 10
1815.664273786721
 20
858.3909613442777
 30
0.0
 40
5.0
  1
13
100
AcDbText
  0
TEXT
  5
702C
330
1E
100
AcDbEntity
  8
図枠
 62
     7
100
AcDbText
 10
1859.243075665174
 20
849.6071061902327
 30
0.0
 40
5.0
  1
11
100
AcDbText
  0
TEXT
  5
702D
330
1E
100
AcDbEntity
  8
図枠
 62
     7
100
AcDbText
 10
1820.315654000873
 20
827.4756930225445
 30
0.0
 40
5.0
  1
12
100
AcDbText
  0
CIRCLE
  5
702E
330
1E
100
AcDbEntity
  8
図枠
  6
Continuous
 62
     4
100
AcDbCircle
 10
1975.079116286902
 20
973.9055231609018
 30
0.0
 40
6.0
  0
LINE
  5
702F
330
1E
100
AcDbEntity
  8
図枠
  6
Continuous
 62
     4
100
AcDbLine
 10
1946.9426351435
 20
925.1717082743258
 30
0.0
 11
1972.079116286902
 21
968.7093707381951
 31
0.0
  0
CIRCLE
  5
7030
330
1E
100
AcDbEntity
  8
図枠
  6
Continuous
 62
     4
100
AcDbCircle
 10
1946.9426351435
 20
925.1717082743258
 30
0.0
 40
0.9
  0
TEXT
  5
7031
330
1E
100
AcDbEntity
  8
図枠
 62
     7
100
AcDbText
 10
1972.079116286902
 20
970.9055231609017
 30
0.0
 40
5.0
  1
１
100
AcDbText
  0
CIRCLE
  5
7032
330
1E
100
AcDbEntity
  8
図枠
  6
Continuous
 62
     4
100
AcDbCircle
 10
1947.155989353601
 20
907.7367187209256
 30
0.0
 40
0.9
  0
LINE
  5
7033
330
1E
100
AcDbEntity
  8
図枠
  6
Continuous
 62
     4
100
AcDbLine
 10
1947.155989353601
 20
907.7367187209256
 30
0.0
 11
1970.792470497003
 21
948.6763049734415
 31
0.0
  0
TEXT
  5
7034
330
1E
100
AcDbEntity
  8
図枠
 62
     7
100
AcDbText
 10
1970.792470497003
 20
950.8724573961481
 30
0.0
 40
5.0
  1
７
100
AcDbText
  0
CIRCLE
  5
7035
330
1E
100
AcDbEntity
  8
図枠
  6
Continuous
 62
     4
100
AcDbCircle
 10
1973.792470497002
 20
953.8724573961481
 30
0.0
 40
6.0
  0
CIRCLE
  5
7036
330
1E
100
AcDbEntity
  8
図枠
  6
Continuous
 62
     4
100
AcDbCircle
 10
1928.263549487024
 20
842.6658621011542
 30
0.0
 40
0.9
  0
LINE
  5
7037
330
1E
100
AcDbEntity
  8
図枠
  6
Continuous
 62
     4
100
AcDbLine
 10
1928.263549487024
 20
842.6658621011542
 30
0.0
 11
1938.720997023654
 21
824.5530316502245
 31
0.0
  0
CIRCLE
  5
7038
330
1E
100
AcDbEntity
  8
図枠
  6
Continuous
 62
     4
100
AcDbCircle
 10
1941.720997023654
 20
819.3568792275176
 30
0.0
 40
6.0
  0
TEXT
  5
7039
330
1E
100
AcDbEntity
  8
図枠
 62
     7
100
AcDbText
 10
1938.720997023654
 20
816.3568792275174
 30
0.0
 40
5.0
  1
８
100
AcDbText
  0
LINE
  5
703A
330
1E
100
AcDbEntity
  8
躯体と製品
  6
Continuous
 62
     7
100
AcDbLine
 10
1479.733279171622
 20
884.1470928187035
 30
0.0
 11
1497.733279171622
 21
884.1470928187035
 31
0.0
  0
LINE
  5
703B
330
1E
100
AcDbEntity
  8
躯体と製品
  6
Continuous
 62
     7
100
AcDbLine
 10
1497.733279171622
 20
884.1470928187035
 30
0.0
 11
1497.733279171622
 21
882.6470928187037
 31
0.0
  0
LINE
  5
703C
330
1E
100
AcDbEntity
  8
躯体と製品
  6
Continuous
 62
     7
100
AcDbLine
 10
1479.733279171622
 20
884.1470928187035
 30
0.0
 11
1479.733279171622
 21
882.6470928187037
 31
0.0
  0
ARC
  5
703D
330
1E
100
AcDbEntity
  8
躯体と製品
  6
Continuous
 62
     7
100
AcDbCircle
 10
1488.733279171621
 20
879.5359397791479
 30
0.0
 40
9.553418012635715
100
AcDbArc
 50
72.41204622604974
 51
107.5879537739502
  0
ARC
  5
703E
330
1E
100
AcDbEntity
  8
躯体と製品
  6
Continuous
 62
     7
100
AcDbCircle
 10
1484.4031521527
 20
886.5335350433552
 30
0.0
 40
2.555822748428199
100
AcDbArc
 50
55.61575253203897
 51
124.384247467961
  0
ARC
  5
703F
330
1E
100
AcDbEntity
  8
躯体と製品
  6
Continuous
 62
     7
100
AcDbCircle
 10
1493.063406190544
 20
886.5335350433552
 30
0.0
 40
2.555822748428199
100
AcDbArc
 50
55.61575253203897
 51
124.384247467961
  0
LINE
  5
7040
330
1E
100
AcDbEntity
  8
躯体と製品
  6
Continuous
 62
     7
100
AcDbLine
 10
1482.959776479725
 20
888.6427758043993
 30
0.0
 11
1482.959776479725
 21
884.1470928187035
 31
0.0
  0
LINE
  5
7041
330
1E
100
AcDbEntity
  8
躯体と製品
  6
Continuous
 62
     7
100
AcDbLine
 10
1483.833279171622
 20
889.1470928187036
 30
0.0
 11
1482.959776479725
 21
888.6427758043993
 31
0.0
  0
LINE
  5
7042
330
1E
100
AcDbEntity
  8
躯体と製品
  6
Continuous
 62
     7
100
AcDbLine
 10
1483.833279171622
 20
889.1470928187036
 30
0.0
 11
1493.633279171621
 21
889.1470928187036
 31
0.0
  0
LINE
  5
7043
330
1E
100
AcDbEntity
  8
躯体と製品
  6
Continuous
 62
     7
100
AcDbLine
 10
1493.633279171621
 20
889.1470928187036
 30
0.0
 11
1494.506781863518
 21
888.6427758043993
 31
0.0
  0
LINE
  5
7044
330
1E
100
AcDbEntity
  8
躯体と製品
  6
Continuous
 62
     7
100
AcDbLine
 10
1485.846527825674
 20
888.6427758043993
 30
0.0
 11
1485.846527825674
 21
884.1470928187035
 31
0.0
  0
LINE
  5
7045
330
1E
100
AcDbEntity
  8
躯体と製品
  6
Continuous
 62
     7
100
AcDbLine
 10
1491.62003051757
 20
888.6427758043993
 30
0.0
 11
1491.62003051757
 21
884.1470928187035
 31
0.0
  0
LINE
  5
7046
330
1E
100
AcDbEntity
  8
躯体と製品
  6
Continuous
 62
     7
100
AcDbLine
 10
1494.506781863518
 20
888.6427758043993
 30
0.0
 11
1494.506781863518
 21
884.1470928187035
 31
0.0
  0
LINE
  5
7047
330
1E
100
AcDbEntity
  8
躯体と製品
  6
Continuous
 62
     7
100
AcDbLine
 10
1486.189533454727
 20
889.2861991415946
 30
0.0
 11
1486.344026677821
 21
889.1470928187036
 31
0.0
  0
LINE
  5
7048
330
1E
100
AcDbEntity
  8
躯体と製品
  6
Continuous
 62
     4
100
AcDbLine
 10
1486.493520900341
 20
894.3482860438686
 30
0.0
 11
1486.766103886894
 21
889.1470928187036
 31
0.0
  0
LINE
  5
7049
330
1E
100
AcDbEntity
  8
躯体と製品
  6
Continuous
 62
     4
100
AcDbLine
 10
1491.349856327852
 20
894.6027957990782
 30
0.0
 11
1491.635777605481
 21
889.1470928187036
 31
0.0
  0
LINE
  5
704A
330
1E
100
AcDbEntity
  8
躯体と製品
  6
Continuous
 62
     7
100
AcDbLine
 10
1491.773317727556
 20
889.1470928187036
 30
0.0
 11
1492.181310663254
 21
889.600214879052
 31
0.0
  0
LINE
  5
704B
330
1E
100
AcDbEntity
  8
躯体と製品
  6
Continuous
 62
     7
100
AcDbLine
 10
1835.693240615688
 20
889.1470928187036
 30
0.0
 11
1835.285247679989
 21
889.600214879052
 31
0.0
  0
LINE
  5
704C
330
1E
100
AcDbEntity
  8
躯体と製品
  6
Continuous
 62
     4
100
AcDbLine
 10
1836.116702015391
 20
894.6027957990782
 30
0.0
 11
1835.830780737762
 21
889.1470928187036
 31
0.0
  0
LINE
  5
704D
330
1E
100
AcDbEntity
  8
躯体と製品
  6
Continuous
 62
     4
100
AcDbLine
 10
1840.973037442903
 20
894.3482860438686
 30
0.0
 11
1840.70045445635
 21
889.1470928187036
 31
0.0
  0
LINE
  5
704E
330
1E
100
AcDbEntity
  8
躯体と製品
  6
Continuous
 62
     7
100
AcDbLine
 10
1841.277024888517
 20
889.2861991415946
 30
0.0
 11
1841.122531665422
 21
889.1470928187036
 31
0.0
  0
CIRCLE
  5
704F
330
1E
100
AcDbEntity
  8
図枠
  6
Continuous
 62
     4
100
AcDbCircle
 10
1614.881571391183
 20
789.5532146655625
 30
0.0
 40
0.9
  0
LINE
  5
7050
330
1E
100
AcDbEntity
  8
図枠
  6
Continuous
 62
     4
100
AcDbLine
 10
1614.881571391183
 20
789.5532146655625
 30
0.0
 11
1628.764858577605
 21
813.5997734485149
 31
0.0
  0
CIRCLE
  5
7051
330
1E
100
AcDbEntity
  8
図枠
  6
Continuous
 62
     4
100
AcDbCircle
 10
1631.764858577605
 20
818.7959258712218
 30
0.0
 40
6.0
  0
TEXT
  5
7052
330
1E
100
AcDbEntity
  8
図枠
 62
     7
100
AcDbText
 10
1628.764858577605
 20
815.7959258712217
 30
0.0
 40
5.0
  1
９
100
AcDbText
  0
CIRCLE
  5
7053
330
1E
100
AcDbEntity
  8
図枠
  6
Continuous
 62
     4
100
AcDbCircle
 10
1945.568360520547
 20
860.1552610458382
 30
0.0
 40
0.9
  0
LINE
  5
7054
330
1E
100
AcDbEntity
  8
図枠
  6
Continuous
 62
     4
100
AcDbLine
 10
1945.568360520547
 20
860.1552610458382
 30
0.0
 11
1970.536374336904
 21
903.4011295398492
 31
0.0
  0
TEXT
  5
7055
330
1E
100
AcDbEntity
  8
図枠
 62
     7
100
AcDbText
 10
1970.536374336904
 20
905.5972819625555
 30
0.0
 40
5.0
  1
３
100
AcDbText
  0
CIRCLE
  5
7056
330
1E
100
AcDbEntity
  8
図枠
  6
Continuous
 62
     4
100
AcDbCircle
 10
1973.536374336904
 20
908.5972819625558
 30
0.0
 40
6.0
  0
CIRCLE
  5
7057
330
1E
100
AcDbEntity
  8
図枠
  6
Continuous
 62
     4
100
AcDbCircle
 10
1399.203008856219
 20
842.6658621011542
 30
0.0
 40
0.9
  0
LINE
  5
7058
330
1E
100
AcDbEntity
  8
図枠
  6
Continuous
 62
     4
100
AcDbLine
 10
1399.203008856219
 20
842.6658621011542
 30
0.0
 11
1388.745561319589
 21
824.5530316502245
 31
0.0
  0
CIRCLE
  5
7059
330
1E
100
AcDbEntity
  8
図枠
  6
Continuous
 62
     4
100
AcDbCircle
 10
1385.745561319589
 20
819.3568792275176
 30
0.0
 40
6.0
  0
TEXT
  5
705A
330
1E
100
AcDbEntity
  8
図枠
 62
     7
100
AcDbText
 10
1382.745561319589
 20
816.3568792275174
 30
0.0
 40
5.0
  1
８
100
AcDbText
  0
TEXT
  5
705B
330
1E
100
AcDbEntity
  8
図枠
 62
     6
100
AcDbText
 10
1271.279787880756
 20
1043.616724975456
 30
0.0
 40
10.0
  1
◇アルミ１５０タイプ（１５０ＦＹＹ－Ａ）
100
AcDbText
  0
TEXT
  5
705C
330
1E
100
AcDbEntity
  8
図枠
 62
     6
100
AcDbText
 10
1270.659743173009
 20
1014.861165131756
 30
0.0
 40
10.0
  1
　　Ｓ＝１／２
100
AcDbText
  0
TEXT
  5
705D
330
1E
100
AcDbEntity
  8
図枠
 62
     6
100
AcDbText
 10
1271.675443656101
 20
1031.112372861225
 30
0.0
 40
10.0
  1
　　屋根－屋根
100
AcDbText
  0
DIMENSION
  5
705E
330
1E
100
AcDbEntity
  8
寸法
  6
Continuous
100
AcDbDimension
  2
*D4
 10
1963.733279171622
 20
1003.147092818703
 30
0.0
 11
1663.733279171622
 21
1006.647092818703
 31
0.0
 70
    32
  1
W
 71
     5
 42
599.9999999999998
  3
AutoCAD
100
AcDbAlignedDimension
 13
1363.733279171622
 23
927.2875096104765
 33
0.0
 14
1963.733279171622
 24
927.2875096104765
 34
0.0
100
AcDbRotatedDimension
  0
DIMENSION
  5
706B
330
1E
100
AcDbEntity
  8
寸法
  6
Continuous
100
AcDbDimension
  2
*D5
 10
1438.733279171623
 20
748.1470928187036
 30
0.0
 11
1401.233279171622
 21
751.6470928187036
 31
0.0
 70
    32
  1
75≦
 71
     5
 42
75.00000000000136
  3
AutoCAD
100
AcDbAlignedDimension
 13
1363.733279171622
 23
833.2875096104766
 33
0.0
 14
1438.733279171623
 24
748.1470928187036
 34
0.0
100
AcDbRotatedDimension
  0
DIMENSION
  5
7077
330
1E
100
AcDbEntity
  8
寸法
  6
Continuous
100
AcDbDimension
  2
*D6
 10
1588.73327917162
 20
748.1470928187036
 30
0.0
 11
1513.733279171622
 21
751.6470928187036
 31
0.0
 70
    32
  1
≦Ｃ
 71
     5
 42
149.9999999999972
  3
AutoCAD
100
AcDbAlignedDimension
 13
1438.733279171623
 23
748.1470928187036
 33
0.0
 14
1588.73327917162
 24
748.1470928187036
 34
0.0
100
AcDbRotatedDimension
  0
DIMENSION
  5
7082
330
1E
100
AcDbEntity
  8
寸法
  6
Continuous
100
AcDbDimension
  2
*D7
 10
1738.73327917162
 20
748.1470928187036
 30
0.0
 11
1663.733279171622
 21
751.6470928187036
 31
0.0
 70
    32
 71
     5
 42
149.9999999999975
  3
AutoCAD
100
AcDbAlignedDimension
 13
1588.733279171623
 23
748.1470928187036
 33
0.0
 14
1738.73327917162
 24
748.1470928187036
 34
0.0
100
AcDbRotatedDimension
  0
DIMENSION
  5
708D
330
1E
100
AcDbEntity
  8
寸法
  6
Continuous
100
AcDbDimension
  2
*D8
 10
1888.73327917162
 20
748.1470928187036
 30
0.0
 11
1813.733279171622
 21
751.6470928187036
 31
0.0
 70
    32
  1
≦Ｃ
 71
     5
 42
149.9999999999972
  3
AutoCAD
100
AcDbAlignedDimension
 13
1738.733279171623
 23
748.1470928187036
 33
0.0
 14
1888.73327917162
 24
748.1470928187036
 34
0.0
100
AcDbRotatedDimension
  0
DIMENSION
  5
7098
330
1E
100
AcDbEntity
  8
寸法
  6
Continuous
100
AcDbDimension
  2
*D9
 10
1963.733279171622
 20
748.1470928187036
 30
0.0
 11
1926.233279171621
 21
751.6470928187036
 31
0.0
 70
    32
  1
75≦
 71
     5
 42
75.00000000000113
  3
AutoCAD
100
AcDbAlignedDimension
 13
1888.73327917162
 23
748.1470928187036
 33
0.0
 14
1963.733279171622
 24
833.2875096104766
 34
0.0
100
AcDbRotatedDimension
  0
DIMENSION
  5
70A4
330
1E
100
AcDbEntity
  8
寸法
  6
Continuous
100
AcDbDimension
  2
*D10
 10
2023.733279171622
 20
925.2875096104766
 30
0.0
 11
2020.233279171621
 21
880.2875096104768
 31
0.0
 70
    32
 71
     5
 42
90.0
  3
AutoCAD
100
AcDbAlignedDimension
 13
1965.733279171622
 23
835.2875096104765
 33
0.0
 14
1965.733279171622
 24
925.2875096104766
 34
0.0
 50
90.0
100
AcDbRotatedDimension
  0
DIMENSION
  5
70B1
330
1E
100
AcDbEntity
  8
寸法
  6
Continuous
100
AcDbDimension
  2
*D11
 10
2003.733279171622
 20
835.2875096104765
 30
0.0
 11
2000.233279171621
 21
856.7173012145902
 31
0.0
 70
    32
  1
44
 71
     5
 42
42.85958320822681
  3
AutoCAD
100
AcDbAlignedDimension
 13
1892.437005650247
 23
878.1470928187033
 33
0.0
 14
1965.733279171622
 24
835.2875096104765
 34
0.0
 50
90.0
100
AcDbRotatedDimension
  0
DIMENSION
  5
70BE
330
1E
100
AcDbEntity
  8
寸法
  6
Continuous
100
AcDbDimension
  2
*D12
 10
1888.733279171622
 20
818.1470928187035
 30
0.0
 11
1863.733279171622
 21
821.6470928187035
 31
0.0
 70
    32
 71
     5
 42
50.0
  3
AutoCAD
100
AcDbAlignedDimension
 13
1838.733279171622
 23
818.1470928187035
 33
0.0
 14
1888.733279171622
 24
818.1470928187035
 34
0.0
100
AcDbRotatedDimension
  0
DIMENSION
  5
70C9
330
1E
100
AcDbEntity
  8
寸法
  6
Continuous
100
AcDbDimension
  2
*D13
 10
1438.733279171622
 20
818.1470928187035
 30
0.0
 11
1463.733279171622
 21
821.6470928187035
 31
0.0
 70
    32
 71
     5
 42
49.99999999999977
  3
AutoCAD
100
AcDbAlignedDimension
 13
1488.733279171621
 23
818.1470928187035
 33
0.0
 14
1438.733279171622
 24
818.1470928187035
 34
0.0
100
AcDbRotatedDimension
  0
ENDSEC
  0
SECTION
  2
OBJECTS
  0
DICTIONARY
  5
C
330
0
100
AcDbDictionary
281
     1
  3
ACAD_COLOR
350
6779
  3
ACAD_GROUP
350
D
  3
ACAD_LAYOUT
350
19
  3
ACAD_MATERIAL
350
6778
  3
ACAD_MLINESTYLE
350
16
  3
ACAD_PLOTSETTINGS
350
18
  3
ACAD_PLOTSTYLENAME
350
E
  3
ACAD_TABLESTYLE
350
677A
  3
ACDBHEADERROUNDTRIPXREC
350
7121
  3
AcDbVariableDictionary
350
169
  0
DICTIONARY
  5
175
330
2
100
AcDbDictionary
280
     1
281
     1
  3
ACAD_LAYERFILTERS
360
710B
  3
ACAD_LAYERSTATES
360
176
  3
ACLYDICTIONARY
360
710A
  0
DICTIONARY
  5
28B
330
1E
100
AcDbDictionary
280
     1
281
     1
  3
ACAD_LAYOUTSELFREF
360
6771
  0
DICTIONARY
  5
28D
330
1A
100
AcDbDictionary
280
     1
281
     1
  3
ACAD_LAYOUTSELFREF
360
6770
  0
DICTIONARY
  5
6779
102
{ACAD_REACTORS
330
C
102
}
330
C
100
AcDbDictionary
281
     1
  0
DICTIONARY
  5
D
102
{ACAD_REACTORS
330
C
102
}
330
C
100
AcDbDictionary
281
     1
  0
DICTIONARY
  5
19
102
{ACAD_REACTORS
330
C
102
}
330
C
100
AcDbDictionary
281
     1
  3
Model
350
21
  3
ﾚｲｱｳﾄ1
350
1D
  0
DICTIONARY
  5
6778
102
{ACAD_REACTORS
330
C
102
}
330
C
100
AcDbDictionary
281
     1
  0
DICTIONARY
  5
16
102
{ACAD_REACTORS
330
C
102
}
330
C
100
AcDbDictionary
281
     1
  3
Standard
350
17
  0
DICTIONARY
  5
18
102
{ACAD_REACTORS
330
C
102
}
330
C
100
AcDbDictionary
281
     1
  0
ACDBDICTIONARYWDFLT
  5
E
102
{ACAD_REACTORS
330
C
102
}
330
C
100
AcDbDictionary
281
     1
  3
Normal
350
F
100
AcDbDictionaryWithDefault
340
F
1001
ACAD
1000
TREAT_AS_HARD
1070
     0
1000
TREAT_AS_HARD
1070
     0
1000
TREAT_AS_HARD
1070
     0
1000
TREAT_AS_HARD
1070
     0
1000
TREAT_AS_HARD
1070
     0
1000
TREAT_AS_HARD
1070
     0
1000
TREAT_AS_HARD
1070
     0
1000
TREAT_AS_HARD
1070
     0
1000
TREAT_AS_HARD
1070
     0
1000
TREAT_AS_HARD
1070
     0
1000
TREAT_AS_HARD
1070
     0
1000
TREAT_AS_HARD
1070
     0
1000
TREAT_AS_HARD
1070
     0
1000
TREAT_AS_HARD
1070
     0
1000
TREAT_AS_HARD
1070
     0
1000
TREAT_AS_HARD
1070
     0
1000
TREAT_AS_HARD
1070
     0
1000
TREAT_AS_HARD
1070
     0
1000
TREAT_AS_HARD
1070
     0
1000
TREAT_AS_HARD
1070
     0
1000
TREAT_AS_HARD
1070
     0
1000
TREAT_AS_HARD
1070
     0
1000
TREAT_AS_HARD
1070
     0
1000
TREAT_AS_HARD
1070
     0
1000
TREAT_AS_HARD
1070
     0
1000
TREAT_AS_HARD
1070
     0
  0
DICTIONARY
  5
677A
102
{ACAD_REACTORS
330
C
102
}
330
C
100
AcDbDictionary
281
     1
  3
Standard
350
677B
  0
DICTIONARY
  5
7121
102
{ACAD_REACTORS
330
C
102
}
330
C
100
AcDbDictionary
281
     1
  0
DICTIONARY
  5
169
102
{ACAD_REACTORS
330
C
102
}
330
C
100
AcDbDictionary
281
     1
  3
CTABLESTYLE
350
6782
  3
DIMASSOC
350
16A
  3
PROJECTNAME
350
7119
  0
DICTIONARY
  5
710B
102
{ACAD_REACTORS
330
175
102
}
330
175
100
AcDbDictionary
281
     1
  0
DICTIONARY
  5
176
102
{ACAD_REACTORS
330
175
102
}
330
175
100
AcDbDictionary
281
     1
  3
ACAD
350
177
  0
DICTIONARY
  5
710A
102
{ACAD_REACTORS
330
175
102
}
330
175
100
AcDbDictionary
281
     1
1001
ACAD
1000
<All
  0
XRECORD
  5
6771
102
{ACAD_REACTORS
330
28B
102
}
330
28B
100
AcDbXrecord
280
     1
340
1E
  0
XRECORD
  5
6770
102
{ACAD_REACTORS
330
28D
102
}
330
28D
100
AcDbXrecord
280
     1
340
1A
  0
LAYOUT
  5
21
102
{ACAD_XDICTIONARY
360
7124
102
}
102
{ACAD_REACTORS
330
19
102
}
330
19
100
AcDbPlotSettings
  1

  2
\\MEISEI-1\EPSON Stylus Photo EX3
  4

  6

 40
0.0
 41
0.0
 42
0.0
 43
0.0
 44
0.0
 45
0.0
 46
0.0
 47
0.0
 48
0.0
 49
0.0
140
0.0
141
0.0
142
1.0
143
1.0
 70
  1712
 72
     0
 73
     0
 74
     0
  7

 75
     0
147
1.0
148
0.0
149
0.0
100
AcDbLayout
  1
Model
 70
     1
 71
     0
 10
0.0
 20
0.0
 11
12.0
 21
9.0
 12
0.0
 22
0.0
 32
0.0
 14
0.0
 24
0.0
 34
0.0
 15
0.0
 25
0.0
 35
0.0
146
0.0
 13
0.0
 23
0.0
 33
0.0
 16
1.0
 26
0.0
 36
0.0
 17
0.0
 27
1.0
 37
0.0
 76
     0
330
1E
  0
LAYOUT
  5
1D
102
{ACAD_XDICTIONARY
360
7122
102
}
102
{ACAD_REACTORS
330
19
102
}
330
19
100
AcDbPlotSettings
  1

  2
\\MEISEI-1\EPSON Stylus Photo EX3
  4

  6

 40
0.0
 41
0.0
 42
0.0
 43
0.0
 44
0.0
 45
0.0
 46
0.0
 47
0.0
 48
0.0
 49
0.0
140
0.0
141
0.0
142
1.0
143
1.0
 70
   688
 72
     0
 73
     0
 74
     5
  7

 75
    16
147
1.0
148
0.0
149
0.0
100
AcDbLayout
  1
ﾚｲｱｳﾄ1
 70
     1
 71
     1
 10
0.0
 20
0.0
 11
12.0
 21
9.0
 12
0.0
 22
0.0
 32
0.0
 14
1.000000000000000E+20
 24
1.000000000000000E+20
 34
1.000000000000000E+20
 15
-1.000000000000000E+20
 25
-1.000000000000000E+20
 35
-1.000000000000000E+20
146
0.0
 13
0.0
 23
0.0
 33
0.0
 16
1.0
 26
0.0
 36
0.0
 17
0.0
 27
1.0
 37
0.0
 76
     0
330
1A
  0
MLINESTYLE
  5
17
102
{ACAD_REACTORS
330
16
102
}
330
16
100
AcDbMlineStyle
  2
STANDARD
 70
     0
  3

 62
   256
 51
90.0
 52
90.0
 71
     2
 49
0.5
 62
   256
  6
BYLAYER
 49
-0.5
 62
   256
  6
BYLAYER
  0
ACDBPLACEHOLDER
  5
F
102
{ACAD_REACTORS
330
E
102
}
330
E
  0
TABLESTYLE
  5
677B
102
{ACAD_REACTORS
330
677A
102
}
330
677A
100
AcDbTableStyle
  3
Standard
 70
     0
 71
     0
 40
0.06
 41
0.06
280
     0
281
     0
  7
STANDARD
140
0.18
170
     2
 62
     0
 63
     7
283
     0
274
    -2
284
     1
 64
     0
275
    -2
285
     1
 65
     0
276
    -2
286
     1
 66
     0
277
    -2
287
     1
 67
     0
278
    -2
288
     1
 68
     0
279
    -2
289
     1
 69
     0
  7
STANDARD
140
0.25
170
     5
 62
     0
 63
     7
283
     0
274
    -2
284
     1
 64
     0
275
    -2
285
     1
 65
     0
276
    -2
286
     1
 66
     0
277
    -2
287
     1
 67
     0
278
    -2
288
     1
 68
     0
279
    -2
289
     1
 69
     0
  7
STANDARD
140
0.18
170
     5
 62
     0
 63
     7
283
     0
274
    -2
284
     1
 64
     0
275
    -2
285
     1
 65
     0
276
    -2
286
     1
 66
     0
277
    -2
287
     1
 67
     0
278
    -2
288
     1
 68
     0
279
    -2
289
     1
 69
     0
  0
DICTIONARYVAR
  5
6782
102
{ACAD_REACTORS
330
169
102
}
330
169
100
DictionaryVariables
280
     0
  1
STANDARD
  0
DICTIONARYVAR
  5
16A
102
{ACAD_REACTORS
330
169
102
}
330
169
100
DictionaryVariables
280
     0
  1
1
  0
DICTIONARYVAR
  5
7119
102
{ACAD_REACTORS
330
169
102
}
330
169
100
DictionaryVariables
280
     0
  1

  0
XRECORD
  5
177
102
{ACAD_REACTORS
330
176
102
}
330
176
100
AcDbXrecord
280
     1
 91
      476
330
179
 90
        8
 62
     7
370
    -3
331
15
  1
Color_7
330
178
 90
        8
 62
     7
370
    -3
331
15
  1
Color_7
330
128
 90
        0
 62
     7
370
    -3
331
15
  1
Color_7
330
10
 90
        8
 62
     7
370
    -3
331
15
  1
Color_7
  0
DICTIONARY
  5
7124
330
21
100
AcDbDictionary
280
     1
281
     1
  3
ACAD_XREC_ROUNDTRIP
360
7125
  0
DICTIONARY
  5
7122
330
1D
100
AcDbDictionary
280
     1
281
     1
  3
ACAD_XREC_ROUNDTRIP
360
7123
  0
XRECORD
  5
7125
102
{ACAD_REACTORS
330
7124
102
}
330
7124
100
AcDbXrecord
280
     1
102
SHADEPLOT
 70
     0
102
SHADEPLOTRESLEVEL
 70
     2
102
SHADEPLOTCUSTOMDPI
 70
   300
  0
XRECORD
  5
7123
102
{ACAD_REACTORS
330
7122
102
}
330
7122
100
AcDbXrecord
280
     1
102
SHADEPLOT
 70
     0
102
SHADEPLOTRESLEVEL
 70
     2
102
SHADEPLOTCUSTOMDPI
 70
   300
  0
ENDSEC
  0
EOF
