  0
SECTION
  2
HEADER
  9
$ACADVER
  1
AC1015
  9
$ACADMAINTVER
 70
    20
  9
$DWGCODEPAGE
  3
ANSI_932
  9
$INSBASE
 10
0.0
 20
0.0
 30
0.0
  9
$EXTMIN
 10
1293.256760551251
 20
445.6159817995494
 30
-0.0000000349181948
  9
$EXTMAX
 10
2117.454315693456
 20
1021.675541873574
 30
0.0000000814935746
  9
$LIMMIN
 10
0.0
 20
0.0
  9
$LIMMAX
 10
420.0
 20
297.0
  9
$ORTHOMODE
 70
     0
  9
$REGENMODE
 70
     1
  9
$FILLMODE
 70
     1
  9
$QTEXTMODE
 70
     0
  9
$MIRRTEXT
 70
     1
  9
$LTSCALE
 40
1.0
  9
$ATTMODE
 70
     1
  9
$TEXTSIZE
 40
5.0
  9
$TRACEWID
 40
0.05
  9
$TEXTSTYLE
  7
ACAD
  9
$CLAYER
  8
0
  9
$CELTYPE
  6
CONTINUOUS
  9
$CECOLOR
 62
   256
  9
$CELTSCALE
 40
1.0
  9
$DISPSILH
 70
     0
  9
$DIMSCALE
 40
1.0
  9
$DIMASZ
 40
1.0
  9
$DIMEXO
 40
0.0
  9
$DIMDLI
 40
0.38
  9
$DIMRND
 40
0.0
  9
$DIMDLE
 40
0.0
  9
$DIMEXE
 40
0.0
  9
$DIMTP
 40
0.0
  9
$DIMTM
 40
0.0
  9
$DIMTXT
 40
5.0
  9
$DIMCEN
 40
0.09
  9
$DIMTSZ
 40
0.0
  9
$DIMTOL
 70
     0
  9
$DIMLIM
 70
     0
  9
$DIMTIH
 70
     0
  9
$DIMTOH
 70
     1
  9
$DIMSE1
 70
     0
  9
$DIMSE2
 70
     0
  9
$DIMTAD
 70
     1
  9
$DIMZIN
 70
     0
  9
$DIMBLK
  1
Dot
  9
$DIMASO
 70
     1
  9
$DIMSHO
 70
     1
  9
$DIMPOST
  1

  9
$DIMAPOST
  1

  9
$DIMALT
 70
     0
  9
$DIMALTD
 70
     2
  9
$DIMALTF
 40
25.4
  9
$DIMLFAC
 40
1.0
  9
$DIMTOFL
 70
     0
  9
$DIMTVP
 40
0.0
  9
$DIMTIX
 70
     1
  9
$DIMSOXD
 70
     0
  9
$DIMSAH
 70
     0
  9
$DIMBLK1
  1

  9
$DIMBLK2
  1

  9
$DIMSTYLE
  2
AutoCAD
  9
$DIMCLRD
 70
     4
  9
$DIMCLRE
 70
     4
  9
$DIMCLRT
 70
     3
  9
$DIMTFAC
 40
1.0
  9
$DIMGAP
 40
1.0
  9
$DIMJUST
 70
     0
  9
$DIMSD1
 70
     0
  9
$DIMSD2
 70
     0
  9
$DIMTOLJ
 70
     1
  9
$DIMTZIN
 70
     0
  9
$DIMALTZ
 70
     0
  9
$DIMALTTZ
 70
     0
  9
$DIMUPT
 70
     0
  9
$DIMDEC
 70
     0
  9
$DIMTDEC
 70
     0
  9
$DIMALTU
 70
     2
  9
$DIMALTTD
 70
     2
  9
$DIMTXSTY
  7
ACAD
  9
$DIMAUNIT
 70
     0
  9
$DIMADEC
 70
     0
  9
$DIMALTRND
 40
0.0
  9
$DIMAZIN
 70
     0
  9
$DIMDSEP
 70
    46
  9
$DIMATFIT
 70
     0
  9
$DIMFRAC
 70
     0
  9
$DIMLDRBLK
  1
None
  9
$DIMLUNIT
 70
     2
  9
$DIMLWD
 70
    -2
  9
$DIMLWE
 70
    -2
  9
$DIMTMOVE
 70
     0
  9
$LUNITS
 70
     2
  9
$LUPREC
 70
     4
  9
$SKETCHINC
 40
0.1
  9
$FILLETRAD
 40
0.0
  9
$AUNITS
 70
     0
  9
$AUPREC
 70
     0
  9
$MENU
  1
.
  9
$ELEVATION
 40
0.0
  9
$PELEVATION
 40
0.0
  9
$THICKNESS
 40
0.0
  9
$LIMCHECK
 70
     0
  9
$CHAMFERA
 40
0.0
  9
$CHAMFERB
 40
0.0
  9
$CHAMFERC
 40
0.0
  9
$CHAMFERD
 40
0.0
  9
$SKPOLY
 70
     0
  9
$TDCREATE
 40
2454316.693457674
  9
$TDUCREATE
 40
2454316.318457674
  9
$TDUPDATE
 40
2454739.422590417
  9
$TDUUPDATE
 40
2454739.047590417
  9
$TDINDWG
 40
0.2528027083
  9
$TDUSRTIMER
 40
0.2528027083
  9
$USRTIMER
 70
     1
  9
$ANGBASE
 50
0.0
  9
$ANGDIR
 70
     0
  9
$PDMODE
 70
     0
  9
$PDSIZE
 40
0.0
  9
$PLINEWID
 40
0.0
  9
$SPLFRAME
 70
     0
  9
$SPLINETYPE
 70
     6
  9
$SPLINESEGS
 70
     8
  9
$HANDSEED
  5
7273
  9
$SURFTAB1
 70
     6
  9
$SURFTAB2
 70
     6
  9
$SURFTYPE
 70
     6
  9
$SURFU
 70
     6
  9
$SURFV
 70
     6
  9
$UCSBASE
  2

  9
$UCSNAME
  2

  9
$UCSORG
 10
0.0
 20
0.0
 30
0.0
  9
$UCSXDIR
 10
1.0
 20
0.0
 30
0.0
  9
$UCSYDIR
 10
0.0
 20
1.0
 30
0.0
  9
$UCSORTHOREF
  2

  9
$UCSORTHOVIEW
 70
     0
  9
$UCSORGTOP
 10
0.0
 20
0.0
 30
0.0
  9
$UCSORGBOTTOM
 10
0.0
 20
0.0
 30
0.0
  9
$UCSORGLEFT
 10
0.0
 20
0.0
 30
0.0
  9
$UCSORGRIGHT
 10
0.0
 20
0.0
 30
0.0
  9
$UCSORGFRONT
 10
0.0
 20
0.0
 30
0.0
  9
$UCSORGBACK
 10
0.0
 20
0.0
 30
0.0
  9
$PUCSBASE
  2

  9
$PUCSNAME
  2

  9
$PUCSORG
 10
0.0
 20
0.0
 30
0.0
  9
$PUCSXDIR
 10
1.0
 20
0.0
 30
0.0
  9
$PUCSYDIR
 10
0.0
 20
1.0
 30
0.0
  9
$PUCSORTHOREF
  2

  9
$PUCSORTHOVIEW
 70
     0
  9
$PUCSORGTOP
 10
0.0
 20
0.0
 30
0.0
  9
$PUCSORGBOTTOM
 10
0.0
 20
0.0
 30
0.0
  9
$PUCSORGLEFT
 10
0.0
 20
0.0
 30
0.0
  9
$PUCSORGRIGHT
 10
0.0
 20
0.0
 30
0.0
  9
$PUCSORGFRONT
 10
0.0
 20
0.0
 30
0.0
  9
$PUCSORGBACK
 10
0.0
 20
0.0
 30
0.0
  9
$USERI1
 70
     0
  9
$USERI2
 70
     0
  9
$USERI3
 70
     0
  9
$USERI4
 70
     0
  9
$USERI5
 70
     0
  9
$USERR1
 40
0.0
  9
$USERR2
 40
0.0
  9
$USERR3
 40
0.0
  9
$USERR4
 40
0.0
  9
$USERR5
 40
0.0
  9
$WORLDVIEW
 70
     1
  9
$SHADEDGE
 70
     3
  9
$SHADEDIF
 70
    70
  9
$TILEMODE
 70
     1
  9
$MAXACTVP
 70
    48
  9
$PINSBASE
 10
0.0
 20
0.0
 30
0.0
  9
$PLIMCHECK
 70
     0
  9
$PEXTMIN
 10
1.000000000000000E+20
 20
1.000000000000000E+20
 30
1.000000000000000E+20
  9
$PEXTMAX
 10
-1.000000000000000E+20
 20
-1.000000000000000E+20
 30
-1.000000000000000E+20
  9
$PLIMMIN
 10
0.0
 20
0.0
  9
$PLIMMAX
 10
12.0
 20
9.0
  9
$UNITMODE
 70
     0
  9
$VISRETAIN
 70
     0
  9
$PLINEGEN
 70
     0
  9
$PSLTSCALE
 70
     1
  9
$TREEDEPTH
 70
  3020
  9
$CMLSTYLE
  2
Standard
  9
$CMLJUST
 70
     0
  9
$CMLSCALE
 40
1.0
  9
$PROXYGRAPHICS
 70
     1
  9
$MEASUREMENT
 70
     0
  9
$CELWEIGHT
370
    -1
  9
$ENDCAPS
280
     0
  9
$JOINSTYLE
280
     0
  9
$LWDISPLAY
290
     0
  9
$INSUNITS
 70
     0
  9
$HYPERLINKBASE
  1

  9
$STYLESHEET
  1

  9
$XEDIT
290
     1
  9
$CEPSNTYPE
380
     0
  9
$PSTYLEMODE
290
     1
  9
$FINGERPRINTGUID
  2
{CC7D6DEE-A9F1-4F3E-AC95-C84B62CCA3FD}
  9
$VERSIONGUID
  2
{3B75DBB0-0F74-4DF4-98DA-339431E1C773}
  9
$EXTNAMES
290
     1
  9
$PSVPSCALE
 40
0.0
  9
$OLESTARTUP
290
     0
  0
ENDSEC
  0
SECTION
  2
CLASSES
  0
CLASS
  1
ACDBDICTIONARYWDFLT
  2
AcDbDictionaryWithDefault
  3
ObjectDBX Classes
 90
        0
280
     0
281
     0
  0
CLASS
  1
ACDBPLACEHOLDER
  2
AcDbPlaceHolder
  3
ObjectDBX Classes
 90
        0
280
     0
281
     0
  0
CLASS
  1
LAYOUT
  2
AcDbLayout
  3
ObjectDBX Classes
 90
        0
280
     0
281
     0
  0
CLASS
  1
DICTIONARYVAR
  2
AcDbDictionaryVar
  3
ObjectDBX Classes
 90
        0
280
     0
281
     0
  0
CLASS
  1
TABLESTYLE
  2
AcDbTableStyle
  3
ObjectDBX Classes
 90
     2047
280
     0
281
     0
  0
ENDSEC
  0
SECTION
  2
TABLES
  0
TABLE
  2
VPORT
  5
8
330
0
100
AcDbSymbolTable
 70
     2
  0
VPORT
  5
726D
330
8
100
AcDbSymbolTableRecord
100
AcDbViewportTableRecord
  2
*Active
 70
     0
 10
0.0
 20
0.0
 11
1.0
 21
1.0
 12
1721.759987091677
 22
719.2630106953981
 13
0.0
 23
0.0
 14
1.0
 24
1.0
 15
0.0
 25
0.0
 16
0.0
 26
0.0
 36
1.0
 17
0.0
 27
0.0
 37
0.0
 40
651.3318506974759
 41
1.538265306122448
 42
50.0
 43
0.0
 44
0.0
 50
0.0
 51
0.0
 71
     0
 72
   100
 73
     1
 74
     1
 75
     0
 76
     0
 77
     0
 78
     0
281
     0
 65
     1
110
0.0
120
0.0
130
0.0
111
1.0
121
0.0
131
0.0
112
0.0
122
1.0
132
0.0
 79
     0
146
0.0
  0
ENDTAB
  0
TABLE
  2
LTYPE
  5
5
330
0
100
AcDbSymbolTable
 70
    50
  0
LTYPE
  5
13
330
5
100
AcDbSymbolTableRecord
100
AcDbLinetypeTableRecord
  2
ByBlock
 70
     0
  3

 72
    65
 73
     0
 40
0.0
  0
LTYPE
  5
14
330
5
100
AcDbSymbolTableRecord
100
AcDbLinetypeTableRecord
  2
ByLayer
 70
     0
  3

 72
    65
 73
     0
 40
0.0
  0
LTYPE
  5
15
330
5
100
AcDbSymbolTableRecord
100
AcDbLinetypeTableRecord
  2
CONTINUOUS
 70
     0
  3
実線
 72
    65
 73
     0
 40
0.0
  0
LTYPE
  5
22
330
5
100
AcDbSymbolTableRecord
100
AcDbLinetypeTableRecord
  2
DASHED1
 70
     0
  3
--  --  --  --  --  --  --  --  
 72
    65
 73
     2
 40
2.5
 49
1.25
 74
     0
 49
-1.25
 74
     0
  0
LTYPE
  5
23
330
5
100
AcDbSymbolTableRecord
100
AcDbLinetypeTableRecord
  2
DASHED2
 70
     0
  3
----    ----    ----    ----    
 72
    65
 73
     2
 40
5.0
 49
2.5
 74
     0
 49
-2.5
 74
     0
  0
LTYPE
  5
24
330
5
100
AcDbSymbolTableRecord
100
AcDbLinetypeTableRecord
  2
DASHED3
 70
     0
  3
------  ------  ------  ------  
 72
    65
 73
     2
 40
5.0
 49
3.75
 74
     0
 49
-1.25
 74
     0
  0
LTYPE
  5
25
330
5
100
AcDbSymbolTableRecord
100
AcDbLinetypeTableRecord
  2
CENTER1
 70
     0
  3
----- - ----- - ----- - ----- - 
 72
    65
 73
     4
 40
10.0
 49
6.25
 74
     0
 49
-1.25
 74
     0
 49
1.25
 74
     0
 49
-1.25
 74
     0
  0
LTYPE
  5
26
330
5
100
AcDbSymbolTableRecord
100
AcDbLinetypeTableRecord
  2
CENTER2
 70
     0
  3
----------  --  ----------  --  
 72
    65
 73
     4
 40
20.0
 49
12.5
 74
     0
 49
-2.5
 74
     0
 49
2.5
 74
     0
 49
-2.5
 74
     0
  0
LTYPE
  5
27
330
5
100
AcDbSymbolTableRecord
100
AcDbLinetypeTableRecord
  2
PHANTOM1
 70
     0
  3
--- - - --- - - --- - - --- - - 
 72
    65
 73
     6
 40
10.0
 49
3.25
 74
     0
 49
-1.25
 74
     0
 49
1.25
 74
     0
 49
-1.25
 74
     0
 49
1.25
 74
     0
 49
-1.25
 74
     0
  0
LTYPE
  5
28
330
5
100
AcDbSymbolTableRecord
100
AcDbLinetypeTableRecord
  2
PHANTOM2
 70
     0
  3
--------  -  -  --------  -  -  
 72
    65
 73
     6
 40
20.0
 49
10.0
 74
     0
 49
-2.5
 74
     0
 49
1.25
 74
     0
 49
-2.5
 74
     0
 49
1.25
 74
     0
 49
-2.5
 74
     0
  0
LTYPE
  5
29
330
5
100
AcDbSymbolTableRecord
100
AcDbLinetypeTableRecord
  2
DOT
 70
     0
  3
-   -   -   -   -   -   -   -   
 72
    65
 73
     2
 40
2.5
 49
0.625
 74
     0
 49
-1.875
 74
     0
  0
LTYPE
  5
2A
330
5
100
AcDbSymbolTableRecord
100
AcDbLinetypeTableRecord
  2
DUMMY
 70
     0
  3
ダミー
 72
    65
 73
     0
 40
0.0
  0
LTYPE
  5
2B
330
5
100
AcDbSymbolTableRecord
100
AcDbLinetypeTableRecord
  2
RAND1
 70
     0
  3
ランダム線1
 72
    65
 73
     4
 40
10.0
 49
1.0
 74
     0
 49
-2.0
 74
     0
 49
3.0
 74
     0
 49
-4.0
 74
     0
  0
LTYPE
  5
2C
330
5
100
AcDbSymbolTableRecord
100
AcDbLinetypeTableRecord
  2
RAND2
 70
     0
  3
ランダム線2
 72
    65
 73
     4
 40
14.0
 49
2.0
 74
     0
 49
-3.0
 74
     0
 49
4.0
 74
     0
 49
-5.0
 74
     0
  0
LTYPE
  5
2D
330
5
100
AcDbSymbolTableRecord
100
AcDbLinetypeTableRecord
  2
RAND3
 70
     0
  3
ランダム線3
 72
    65
 73
     4
 40
18.0
 49
3.0
 74
     0
 49
-4.0
 74
     0
 49
5.0
 74
     0
 49
-6.0
 74
     0
  0
LTYPE
  5
2E
330
5
100
AcDbSymbolTableRecord
100
AcDbLinetypeTableRecord
  2
RAND4
 70
     0
  3
ランダム線4
 72
    65
 73
     4
 40
22.0
 49
4.0
 74
     0
 49
-5.0
 74
     0
 49
6.0
 74
     0
 49
-7.0
 74
     0
  0
LTYPE
  5
2F
330
5
100
AcDbSymbolTableRecord
100
AcDbLinetypeTableRecord
  2
RAND5
 70
     0
  3
ランダム線5
 72
    65
 73
     4
 40
26.0
 49
5.0
 74
     0
 49
-6.0
 74
     0
 49
7.0
 74
     0
 49
-8.0
 74
     0
  0
LTYPE
  5
30
330
5
100
AcDbSymbolTableRecord
100
AcDbLinetypeTableRecord
  2
LONG1
 70
     0
  3
----------  --  ----------  --  
 72
    65
 73
     4
 40
40.0
 49
32.5
 74
     0
 49
-2.5
 74
     0
 49
2.5
 74
     0
 49
-2.5
 74
     0
  0
LTYPE
  5
31
330
5
100
AcDbSymbolTableRecord
100
AcDbLinetypeTableRecord
  2
LONG2
 70
     0
  3
--------  -  -  --------  -  -  
 72
    65
 73
     6
 40
40.0
 49
30.0
 74
     0
 49
-2.5
 74
     0
 49
1.25
 74
     0
 49
-2.5
 74
     0
 49
1.25
 74
     0
 49
-2.5
 74
     0
  0
LTYPE
  5
32
330
5
100
AcDbSymbolTableRecord
100
AcDbLinetypeTableRecord
  2
LONG3
 70
     0
  3
+++++++++++++++..+++++++++++++++
 72
    65
 73
     2
 40
40.0
 49
37.5
 74
     0
 49
-2.5
 74
     0
  0
LTYPE
  5
33
330
5
100
AcDbSymbolTableRecord
100
AcDbLinetypeTableRecord
  2
LONG4
 70
     0
  3
+++++++++++++++..+++++++++++++++
 72
    65
 73
     2
 40
80.0
 49
75.0
 74
     0
 49
-5.0
 74
     0
  0
LTYPE
  5
34
330
5
100
AcDbSymbolTableRecord
100
AcDbLinetypeTableRecord
  2
LONG5
 70
     0
  3
----------  --  ----------  --  
 72
    65
 73
     4
 40
60.0
 49
37.5
 74
     0
 49
-7.5
 74
     0
 49
7.5
 74
     0
 49
-7.5
 74
     0
  0
LTYPE
  5
35
330
5
100
AcDbSymbolTableRecord
100
AcDbLinetypeTableRecord
  2
DASHED
 70
     0
  3
-------   -------------   ------
 72
    65
 73
     2
 40
7.5
 49
6.0
 74
     0
 49
-1.5
 74
     0
  0
LTYPE
  5
36
330
5
100
AcDbSymbolTableRecord
100
AcDbLinetypeTableRecord
  2
DASHED_SPACED
 70
     0
  3
----        --------        ----
 72
    65
 73
     2
 40
12.0
 49
6.0
 74
     0
 49
-6.0
 74
     0
  0
LTYPE
  5
37
330
5
100
AcDbSymbolTableRecord
100
AcDbLinetypeTableRecord
  2
LONG_DASHED_DOTTED
 70
     0
  3
------------- --- --------------
 72
    65
 73
     4
 40
15.25
 49
12.0
 74
     0
 49
-1.5
 74
     0
 49
0.25
 74
     0
 49
-1.5
 74
     0
  0
LTYPE
  5
38
330
5
100
AcDbSymbolTableRecord
100
AcDbLinetypeTableRecord
  2
LONG_DASHED_DOUBLE-DOTTED
 70
     0
  3
----------- --- --- ------------
 72
    65
 73
     6
 40
17.0
 49
12.0
 74
     0
 49
-1.5
 74
     0
 49
0.25
 74
     0
 49
-1.5
 74
     0
 49
0.25
 74
     0
 49
-1.5
 74
     0
  0
LTYPE
  5
39
330
5
100
AcDbSymbolTableRecord
100
AcDbLinetypeTableRecord
  2
LONG_DASHED_TRIPLICATE-DOTTED
 70
     0
  3
--------- --- --- --- ----------
 72
    65
 73
     8
 40
18.75
 49
12.0
 74
     0
 49
-1.5
 74
     0
 49
0.25
 74
     0
 49
-1.5
 74
     0
 49
0.25
 74
     0
 49
-1.5
 74
     0
 49
0.25
 74
     0
 49
-1.5
 74
     0
  0
LTYPE
  5
3A
330
5
100
AcDbSymbolTableRecord
100
AcDbLinetypeTableRecord
  2
DOTTED
 70
     0
  3
   -       -       -       -    
 72
    65
 73
     2
 40
1.75
 49
0.25
 74
     0
 49
-1.5
 74
     0
  0
LTYPE
  5
3B
330
5
100
AcDbSymbolTableRecord
100
AcDbLinetypeTableRecord
  2
CHAIN
 70
     0
  3
-------------- -- --------------
 72
    65
 73
     4
 40
18.5
 49
12.0
 74
     0
 49
-1.5
 74
     0
 49
3.5
 74
     0
 49
-1.5
 74
     0
  0
LTYPE
  5
3C
330
5
100
AcDbSymbolTableRecord
100
AcDbLinetypeTableRecord
  2
CHAIN_DOUBLE_DASH
 70
     0
  3
------------ -- -- -------------
 72
    65
 73
     6
 40
23.5
 49
12.0
 74
     0
 49
-1.5
 74
     0
 49
3.5
 74
     0
 49
-1.5
 74
     0
 49
3.5
 74
     0
 49
-1.5
 74
     0
  0
LTYPE
  5
3D
330
5
100
AcDbSymbolTableRecord
100
AcDbLinetypeTableRecord
  2
DASHED_DOTTED
 70
     0
  3
-----------     -     ----------
 72
    65
 73
     4
 40
9.25
 49
6.0
 74
     0
 49
-1.5
 74
     0
 49
0.25
 74
     0
 49
-1.5
 74
     0
  0
LTYPE
  5
3E
330
5
100
AcDbSymbolTableRecord
100
AcDbLinetypeTableRecord
  2
DOUBLE-DASHED_DOTTED
 70
     0
  3
------   -----------   -   -----
 72
    65
 73
     6
 40
16.75
 49
6.0
 74
     0
 49
-1.5
 74
     0
 49
6.0
 74
     0
 49
-1.5
 74
     0
 49
0.25
 74
     0
 49
-1.5
 74
     0
  0
LTYPE
  5
3F
330
5
100
AcDbSymbolTableRecord
100
AcDbLinetypeTableRecord
  2
DASHED_DOUBLE-DOTTED
 70
     0
  3
---------    -    -    ---------
 72
    65
 73
     6
 40
11.0
 49
6.0
 74
     0
 49
-1.5
 74
     0
 49
0.25
 74
     0
 49
-1.5
 74
     0
 49
0.25
 74
     0
 49
-1.5
 74
     0
  0
LTYPE
  5
40
330
5
100
AcDbSymbolTableRecord
100
AcDbLinetypeTableRecord
  2
DOUBLE-DASHED_DOUBLE-DOTTED
 70
     0
  3
-----   ---------   -   -   ----
 72
    65
 73
     8
 40
18.5
 49
6.0
 74
     0
 49
-1.5
 74
     0
 49
6.0
 74
     0
 49
-1.5
 74
     0
 49
0.25
 74
     0
 49
-1.5
 74
     0
 49
0.25
 74
     0
 49
-1.5
 74
     0
  0
LTYPE
  5
41
330
5
100
AcDbSymbolTableRecord
100
AcDbLinetypeTableRecord
  2
DASHED_TRIPLICATE-DOTTED
 70
     0
  3
-------    -    -    -    ------
 72
    65
 73
     8
 40
12.75
 49
6.0
 74
     0
 49
-1.5
 74
     0
 49
0.25
 74
     0
 49
-1.5
 74
     0
 49
0.25
 74
     0
 49
-1.5
 74
     0
 49
0.25
 74
     0
 49
-1.5
 74
     0
  0
LTYPE
  5
42
330
5
100
AcDbSymbolTableRecord
100
AcDbLinetypeTableRecord
  2
DOUBLE-DASHED_TRIPLICATE-DOTTED
 70
     0
  3
-----  ---------  -  -  -  -----
 72
    65
 73
    10
 40
20.25
 49
6.0
 74
     0
 49
-1.5
 74
     0
 49
6.0
 74
     0
 49
-1.5
 74
     0
 49
0.25
 74
     0
 49
-1.5
 74
     0
 49
0.25
 74
     0
 49
-1.5
 74
     0
 49
0.25
 74
     0
 49
-1.5
 74
     0
  0
LTYPE
  5
43
330
5
100
AcDbSymbolTableRecord
100
AcDbLinetypeTableRecord
  2
UNDEFINED
 70
     0
  3
--------------------------------
 72
    65
 73
     0
 40
0.0
  0
LTYPE
  5
44
330
5
100
AcDbSymbolTableRecord
100
AcDbLinetypeTableRecord
  2
PLINE2
 70
     0
  3
------     -----------     -----
 72
    65
 73
     2
 40
3.0
 49
2.1
 74
     0
 49
-0.9
 74
     0
  0
LTYPE
  5
45
330
5
100
AcDbSymbolTableRecord
100
AcDbLinetypeTableRecord
  2
PLINE3
 70
     0
  3
------------   ---   -----------
 72
    65
 73
     4
 40
10.0
 49
7.0
 74
     0
 49
-1.0
 74
     0
 49
1.0
 74
     0
 49
-1.0
 74
     0
  0
LTYPE
  5
46
330
5
100
AcDbSymbolTableRecord
100
AcDbLinetypeTableRecord
  2
PLINE4
 70
     0
  3
---------   ---   ---   --------
 72
    65
 73
     6
 40
10.0
 49
5.0
 74
     0
 49
-1.0
 74
     0
 49
1.0
 74
     0
 49
-1.0
 74
     0
 49
1.0
 74
     0
 49
-1.0
 74
     0
  0
LTYPE
  5
47
330
5
100
AcDbSymbolTableRecord
100
AcDbLinetypeTableRecord
  2
PLINE5
 70
     0
  3
------     -----------     -----
 72
    65
 73
     2
 40
5.0
 49
3.5
 74
     0
 49
-1.5
 74
     0
  0
LTYPE
  5
48
330
5
100
AcDbSymbolTableRecord
100
AcDbLinetypeTableRecord
  2
PLINE6
 70
     0
  3
------------   ---   -----------
 72
    65
 73
     4
 40
15.0
 49
10.5
 74
     0
 49
-1.5
 74
     0
 49
1.5
 74
     0
 49
-1.5
 74
     0
  0
LTYPE
  5
49
330
5
100
AcDbSymbolTableRecord
100
AcDbLinetypeTableRecord
  2
PLINE7
 70
     0
  3
---------   ---   ---   --------
 72
    65
 73
     6
 40
15.0
 49
7.5
 74
     0
 49
-1.5
 74
     0
 49
1.5
 74
     0
 49
-1.5
 74
     0
 49
1.5
 74
     0
 49
-1.5
 74
     0
  0
LTYPE
  5
4A
330
5
100
AcDbSymbolTableRecord
100
AcDbLinetypeTableRecord
  2
PLINE8
 70
     0
  3
------     -----------     -----
 72
    65
 73
     2
 40
7.0
 49
4.9
 74
     0
 49
-2.1
 74
     0
  0
LTYPE
  5
4B
330
5
100
AcDbSymbolTableRecord
100
AcDbLinetypeTableRecord
  2
PLINE9
 70
     0
  3
------------   ---   -----------
 72
    65
 73
     4
 40
20.0
 49
14.0
 74
     0
 49
-2.0
 74
     0
 49
2.0
 74
     0
 49
-2.0
 74
     0
  0
LTYPE
  5
4C
330
5
100
AcDbSymbolTableRecord
100
AcDbLinetypeTableRecord
  2
PLINE10
 70
     0
  3
---------   ---   ---   --------
 72
    65
 73
     6
 40
20.0
 49
10.0
 74
     0
 49
-2.0
 74
     0
 49
2.0
 74
     0
 49
-2.0
 74
     0
 49
2.0
 74
     0
 49
-2.0
 74
     0
  0
LTYPE
  5
4D
330
5
100
AcDbSymbolTableRecord
100
AcDbLinetypeTableRecord
  2
PLINE11
 70
     0
  3
------     -----------     -----
 72
    65
 73
     2
 40
9.0
 49
6.299999999999999
 74
     0
 49
-2.7
 74
     0
  0
LTYPE
  5
4E
330
5
100
AcDbSymbolTableRecord
100
AcDbLinetypeTableRecord
  2
PLINE12
 70
     0
  3
------------   ---   -----------
 72
    65
 73
     4
 40
25.0
 49
17.5
 74
     0
 49
-2.5
 74
     0
 49
2.5
 74
     0
 49
-2.5
 74
     0
  0
LTYPE
  5
4F
330
5
100
AcDbSymbolTableRecord
100
AcDbLinetypeTableRecord
  2
PLINE13
 70
     0
  3
---------   ---   ---   --------
 72
    65
 73
     6
 40
25.0
 49
12.5
 74
     0
 49
-2.5
 74
     0
 49
2.5
 74
     0
 49
-2.5
 74
     0
 49
2.5
 74
     0
 49
-2.5
 74
     0
  0
LTYPE
  5
50
330
5
100
AcDbSymbolTableRecord
100
AcDbLinetypeTableRecord
  2
PLINE14
 70
     0
  3
------     -----------     -----
 72
    65
 73
     2
 40
11.0
 49
7.7
 74
     0
 49
-3.299999999999999
 74
     0
  0
LTYPE
  5
51
330
5
100
AcDbSymbolTableRecord
100
AcDbLinetypeTableRecord
  2
PLINE15
 70
     0
  3
------------   ---   -----------
 72
    65
 73
     4
 40
30.0
 49
21.0
 74
     0
 49
-3.0
 74
     0
 49
3.0
 74
     0
 49
-3.0
 74
     0
  0
LTYPE
  5
52
330
5
100
AcDbSymbolTableRecord
100
AcDbLinetypeTableRecord
  2
PLINE16
 70
     0
  3
---------   ---   ---   --------
 72
    65
 73
     6
 40
30.0
 49
15.0
 74
     0
 49
-3.0
 74
     0
 49
3.0
 74
     0
 49
-3.0
 74
     0
 49
3.0
 74
     0
 49
-3.0
 74
     0
  0
ENDTAB
  0
TABLE
  2
LAYER
  5
2
102
{ACAD_XDICTIONARY
360
175
102
}
330
0
100
AcDbSymbolTable
 70
     5
  0
LAYER
  5
10
330
2
100
AcDbSymbolTableRecord
100
AcDbLayerTableRecord
  2
0
 70
     0
 62
     7
  6
CONTINUOUS
370
    -3
390
F
  0
LAYER
  5
128
330
2
100
AcDbSymbolTableRecord
100
AcDbLayerTableRecord
  2
Defpoints
 70
     0
 62
     7
  6
CONTINUOUS
290
     0
370
    -3
390
F
  0
LAYER
  5
178
330
2
100
AcDbSymbolTableRecord
100
AcDbLayerTableRecord
  2
寸法
 70
     0
 62
     7
  6
CONTINUOUS
370
    -3
390
F
  0
LAYER
  5
179
330
2
100
AcDbSymbolTableRecord
100
AcDbLayerTableRecord
  2
躯体と製品
 70
     0
 62
     7
  6
CONTINUOUS
370
    -3
390
F
  0
LAYER
  5
4F62
330
2
100
AcDbSymbolTableRecord
100
AcDbLayerTableRecord
  2
図枠
 70
     0
 62
     7
  6
CONTINUOUS
370
    -3
390
F
  0
ENDTAB
  0
TABLE
  2
STYLE
  5
3
330
0
100
AcDbSymbolTable
 70
     5
  0
STYLE
  5
11
330
3
100
AcDbSymbolTableRecord
100
AcDbTextStyleTableRecord
  2
STANDARD
 70
     0
 40
0.0
 41
1.0
 50
0.0
 71
     0
 42
0.2
  3
txt
  4
bigfont.shx
  0
STYLE
  5
53
330
3
100
AcDbSymbolTableRecord
100
AcDbTextStyleTableRecord
  2
TATEGAKI
 70
     4
 40
0.0
 41
1.0
 50
0.0
 71
     0
 42
1.0
  3
txt
  4
bigfont.shx
  0
STYLE
  5
123
330
3
100
AcDbSymbolTableRecord
100
AcDbTextStyleTableRecord
  2
ACAD
 70
     0
 40
6.0
 41
0.8
 50
0.0
 71
     0
 42
5.0
  3
romans.shx
  4
extfont.shx
  0
STYLE
  5
3A5F
330
3
100
AcDbSymbolTableRecord
100
AcDbTextStyleTableRecord
  2
VERTXT
 70
     4
 40
0.0
 41
0.8582679999999999
 50
0.0
 71
     0
 42
3.5
  3
txt.shx
  4
BIGFONT
  0
STYLE
  5
50AD
330
3
100
AcDbSymbolTableRecord
100
AcDbTextStyleTableRecord
  2
STANDARD2
 70
     0
 40
0.0
 41
0.8582679999999999
 50
0.0
 71
     0
 42
3.5
  3
txt.shx
  4
EXTFONT
  0
ENDTAB
  0
TABLE
  2
VIEW
  5
6
330
0
100
AcDbSymbolTable
 70
     0
  0
ENDTAB
  0
TABLE
  2
UCS
  5
7
330
0
100
AcDbSymbolTable
 70
     0
  0
ENDTAB
  0
TABLE
  2
APPID
  5
9
330
0
100
AcDbSymbolTable
 70
     3
  0
APPID
  5
12
330
9
100
AcDbSymbolTableRecord
100
AcDbRegAppTableRecord
  2
ACAD
 70
     0
  0
APPID
  5
70E9
330
9
100
AcDbSymbolTableRecord
100
AcDbRegAppTableRecord
  2
AcAecLayerStandard
 70
     0
  0
APPID
  5
715A
330
9
100
AcDbSymbolTableRecord
100
AcDbRegAppTableRecord
  2
ACAD_DSTYLE_DIMTEXT_FILL
 70
     0
  0
ENDTAB
  0
TABLE
  2
DIMSTYLE
  5
A
330
0
100
AcDbSymbolTable
 70
     3
100
AcDbDimStyleTable
 71
     1
340
126
  0
DIMSTYLE
105
11C
330
A
100
AcDbSymbolTableRecord
100
AcDbDimStyleTableRecord
  2
Standard
 70
     0
340
11
  0
DIMSTYLE
105
126
102
{ACAD_REACTORS
330
7066
330
7073
330
7080
330
7099
330
70A5
330
70B0
330
70BB
330
70C6
330
70D2
330
70DD
102
}
330
A
100
AcDbSymbolTableRecord
100
AcDbDimStyleTableRecord
  2
AutoCAD
 70
     0
 41
1.0
 42
0.0
 44
0.0
 73
     0
 77
     1
140
5.0
147
1.0
174
     1
176
     4
177
     4
178
     3
271
     0
272
     0
289
     0
340
123
341
15B0
342
11E
  0
DIMSTYLE
105
2CBB
330
A
100
AcDbSymbolTableRecord
100
AcDbDimStyleTableRecord
  2
111
 70
     0
 41
1.0
 42
0.0
 44
0.0
 73
     0
 77
     1
140
5.0
147
1.0
174
     1
176
     4
177
     4
178
     3
271
     0
272
     0
289
     0
340
123
341
15B0
342
2CB5
  0
ENDTAB
  0
TABLE
  2
BLOCK_RECORD
  5
1
330
0
100
AcDbSymbolTable
 70
    14
  0
BLOCK_RECORD
  5
1E
102
{ACAD_XDICTIONARY
360
28B
102
}
330
1
100
AcDbSymbolTableRecord
100
AcDbBlockTableRecord
  2
*Model_Space
340
21
  0
BLOCK_RECORD
  5
1A
102
{ACAD_XDICTIONARY
360
28D
102
}
330
1
100
AcDbSymbolTableRecord
100
AcDbBlockTableRecord
  2
*Paper_Space
340
1D
  0
BLOCK_RECORD
  5
11E
330
1
100
AcDbSymbolTableRecord
100
AcDbBlockTableRecord
  2
_Dot
340
0
102
{BLKREFS
331
7206
331
7207
331
720F
331
7210
331
7218
331
7219
331
7220
331
7221
331
7227
331
7228
331
722E
331
722F
331
7235
331
7236
331
723C
331
723D
331
7243
331
7244
331
724B
331
724C
102
}
  0
BLOCK_RECORD
  5
15B0
330
1
100
AcDbSymbolTableRecord
100
AcDbBlockTableRecord
  2
_None
340
0
  0
BLOCK_RECORD
  5
2CB5
330
1
100
AcDbSymbolTableRecord
100
AcDbBlockTableRecord
  2
_Open30
340
0
  0
BLOCK_RECORD
  5
35E3
330
1
100
AcDbSymbolTableRecord
100
AcDbBlockTableRecord
  2
_DotBlank
340
0
  0
BLOCK_RECORD
  5
7067
330
1
100
AcDbSymbolTableRecord
100
AcDbBlockTableRecord
  2
*D4
340
0
  0
BLOCK_RECORD
  5
7074
330
1
100
AcDbSymbolTableRecord
100
AcDbBlockTableRecord
  2
*D5
340
0
  0
BLOCK_RECORD
  5
7081
330
1
100
AcDbSymbolTableRecord
100
AcDbBlockTableRecord
  2
*D6
340
0
  0
BLOCK_RECORD
  5
709A
330
1
100
AcDbSymbolTableRecord
100
AcDbBlockTableRecord
  2
*D7
340
0
  0
BLOCK_RECORD
  5
70A6
330
1
100
AcDbSymbolTableRecord
100
AcDbBlockTableRecord
  2
*D8
340
0
  0
BLOCK_RECORD
  5
70B1
330
1
100
AcDbSymbolTableRecord
100
AcDbBlockTableRecord
  2
*D9
340
0
  0
BLOCK_RECORD
  5
70BC
330
1
100
AcDbSymbolTableRecord
100
AcDbBlockTableRecord
  2
*D10
340
0
  0
BLOCK_RECORD
  5
70C7
330
1
100
AcDbSymbolTableRecord
100
AcDbBlockTableRecord
  2
*D11
340
0
  0
BLOCK_RECORD
  5
70D3
330
1
100
AcDbSymbolTableRecord
100
AcDbBlockTableRecord
  2
*D12
340
0
  0
BLOCK_RECORD
  5
70DE
330
1
100
AcDbSymbolTableRecord
100
AcDbBlockTableRecord
  2
*D13
340
0
  0
ENDTAB
  0
ENDSEC
  0
SECTION
  2
BLOCKS
  0
BLOCK
  5
1F
330
1E
100
AcDbEntity
  8
0
100
AcDbBlockBegin
  2
*Model_Space
 70
     0
 10
0.0
 20
0.0
 30
0.0
  3
*Model_Space
  1

  0
ENDBLK
  5
20
330
1E
100
AcDbEntity
  8
0
100
AcDbBlockEnd
  0
BLOCK
  5
1B
330
1A
100
AcDbEntity
 67
     1
  8
0
100
AcDbBlockBegin
  2
*Paper_Space
 70
     0
 10
0.0
 20
0.0
 30
0.0
  3
*Paper_Space
  1

  0
ENDBLK
  5
1C
330
1A
100
AcDbEntity
 67
     1
  8
0
100
AcDbBlockEnd
  0
BLOCK
  5
121
330
11E
100
AcDbEntity
  8
0
100
AcDbBlockBegin
  2
_Dot
 70
     0
 10
0.0
 20
0.0
 30
0.0
  3
_Dot
  1

  0
LWPOLYLINE
  5
11F
330
11E
100
AcDbEntity
  8
0
  6
ByBlock
 62
     0
100
AcDbPolyline
 90
        2
 70
     1
 43
0.5
 10
-0.25
 20
0.0
 42
1.0
 10
0.25
 20
0.0
 42
1.0
  0
LINE
  5
120
330
11E
100
AcDbEntity
  8
0
  6
ByBlock
 62
     0
370
    -2
100
AcDbLine
 10
-0.5
 20
0.0
 30
0.0
 11
-1.0
 21
0.0
 31
0.0
  0
ENDBLK
  5
122
330
11E
100
AcDbEntity
  8
0
100
AcDbBlockEnd
  0
BLOCK
  5
15B1
330
15B0
100
AcDbEntity
  8
0
100
AcDbBlockBegin
  2
_None
 70
     0
 10
0.0
 20
0.0
 30
0.0
  3
_None
  1

  0
ENDBLK
  5
15B2
330
15B0
100
AcDbEntity
  8
0
100
AcDbBlockEnd
  0
BLOCK
  5
2CB9
330
2CB5
100
AcDbEntity
  8
0
100
AcDbBlockBegin
  2
_Open30
 70
     0
 10
0.0
 20
0.0
 30
0.0
  3
_Open30
  1

  0
LINE
  5
2CB6
330
2CB5
100
AcDbEntity
  8
0
  6
ByBlock
 62
     0
370
    -2
100
AcDbLine
 10
-1.0
 20
0.26794919
 30
0.0
 11
0.0
 21
0.0
 31
0.0
  0
LINE
  5
2CB7
330
2CB5
100
AcDbEntity
  8
0
  6
ByBlock
 62
     0
370
    -2
100
AcDbLine
 10
0.0
 20
0.0
 30
0.0
 11
-1.0
 21
-0.26794919
 31
0.0
  0
LINE
  5
2CB8
330
2CB5
100
AcDbEntity
  8
0
  6
ByBlock
 62
     0
370
    -2
100
AcDbLine
 10
0.0
 20
0.0
 30
0.0
 11
-1.0
 21
0.0
 31
0.0
  0
ENDBLK
  5
2CBA
330
2CB5
100
AcDbEntity
  8
0
100
AcDbBlockEnd
  0
BLOCK
  5
35E6
330
35E3
100
AcDbEntity
  8
0
100
AcDbBlockBegin
  2
_DotBlank
 70
     0
 10
0.0
 20
0.0
 30
0.0
  3
_DotBlank
  1

  0
CIRCLE
  5
35E4
330
35E3
100
AcDbEntity
  8
0
  6
ByBlock
 62
     0
370
    -2
100
AcDbCircle
 10
0.0
 20
0.0
 30
0.0
 40
0.5
  0
LINE
  5
35E5
330
35E3
100
AcDbEntity
  8
0
  6
ByBlock
 62
     0
370
    -2
100
AcDbLine
 10
-0.5
 20
0.0
 30
0.0
 11
-1.0
 21
0.0
 31
0.0
  0
ENDBLK
  5
35E7
330
35E3
100
AcDbEntity
  8
0
100
AcDbBlockEnd
  0
BLOCK
  5
7071
330
7067
100
AcDbEntity
  8
0
100
AcDbBlockBegin
  2
*D4
 70
     1
 10
0.0
 20
0.0
 30
0.0
  3
*D4
  1

  0
LINE
  5
7215
330
7067
100
AcDbEntity
  8
寸法
  6
Continuous
 62
     4
370
    -2
100
AcDbLine
 10
1455.381840457014
 20
886.8056283435677
 30
0.0
 11
1455.381840457014
 21
962.6688027037998
 31
0.0
  0
LINE
  5
7216
330
7067
100
AcDbEntity
  8
寸法
  6
Continuous
 62
     4
370
    -2
100
AcDbLine
 10
1955.381840457014
 20
886.8056283435677
 30
0.0
 11
1955.381840457014
 21
962.6688027037998
 31
0.0
  0
LINE
  5
7217
330
7067
100
AcDbEntity
  8
寸法
  6
Continuous
 62
     4
370
    -2
100
AcDbLine
 10
1456.381840457014
 20
962.6688027037998
 30
0.0
 11
1954.381840457014
 21
962.6688027037998
 31
0.0
  0
INSERT
  5
7218
330
7067
100
AcDbEntity
  8
寸法
  6
Continuous
 62
     4
370
    -2
100
AcDbBlockReference
  2
_Dot
 10
1455.381840457014
 20
962.6688027037998
 30
0.0
 50
180.0
  0
INSERT
  5
7219
330
7067
100
AcDbEntity
  8
寸法
  6
Continuous
 62
     4
370
    -2
100
AcDbBlockReference
  2
_Dot
 10
1955.381840457014
 20
962.6688027037998
 30
0.0
  0
MTEXT
  5
721A
330
7067
100
AcDbEntity
  8
寸法
  6
Continuous
 62
     3
100
AcDbMText
 10
1705.381840457014
 20
966.6688027037997
 30
0.0
 40
6.0
 41
0.0
 71
     5
 72
     1
  1
\A1;W
  7
ACAD
 73
     1
 44
1.0
1001
ACAD
1000
MTEXTBEGIN
1070
    73
1070
     1
1070
    44
1040
1.0
1070
    74
1070
     0
1000
MTEXTEND
  0
POINT
  5
721B
330
7067
100
AcDbEntity
  8
Defpoints
  6
Continuous
 62
     0
100
AcDbPoint
 10
1455.381840457014
 20
886.8056283435677
 30
0.0
  0
POINT
  5
721C
330
7067
100
AcDbEntity
  8
Defpoints
  6
Continuous
 62
     0
100
AcDbPoint
 10
1955.381840457014
 20
886.8056283435677
 30
0.0
  0
POINT
  5
721D
330
7067
100
AcDbEntity
  8
Defpoints
  6
Continuous
 62
     0
100
AcDbPoint
 10
1955.381840457014
 20
962.6688027037998
 30
0.0
  0
ENDBLK
  5
7072
330
7067
100
AcDbEntity
  8
0
100
AcDbBlockEnd
  0
BLOCK
  5
707E
330
7074
100
AcDbEntity
  8
0
100
AcDbBlockBegin
  2
*D5
 70
     1
 10
0.0
 20
0.0
 30
0.0
  3
*D5
  1

  0
LINE
  5
720C
330
7074
100
AcDbEntity
  8
寸法
  6
Continuous
 62
     4
370
    -2
100
AcDbLine
 10
1957.381840457014
 20
884.8056283435676
 30
0.0
 11
2015.381840457014
 21
884.8056283435676
 31
0.0
  0
LINE
  5
720D
330
7074
100
AcDbEntity
  8
寸法
  6
Continuous
 62
     4
370
    -2
100
AcDbLine
 10
1957.381840457014
 20
794.8056283435678
 30
0.0
 11
2015.381840457014
 21
794.8056283435678
 31
0.0
  0
LINE
  5
720E
330
7074
100
AcDbEntity
  8
寸法
  6
Continuous
 62
     4
370
    -2
100
AcDbLine
 10
2015.381840457014
 20
883.8056283435676
 30
0.0
 11
2015.381840457014
 21
795.8056283435678
 31
0.0
  0
INSERT
  5
720F
330
7074
100
AcDbEntity
  8
寸法
  6
Continuous
 62
     4
370
    -2
100
AcDbBlockReference
  2
_Dot
 10
2015.381840457014
 20
884.8056283435676
 30
0.0
 50
90.0
  0
INSERT
  5
7210
330
7074
100
AcDbEntity
  8
寸法
  6
Continuous
 62
     4
370
    -2
100
AcDbBlockReference
  2
_Dot
 10
2015.381840457014
 20
794.8056283435678
 30
0.0
 50
270.0
  0
MTEXT
  5
7211
330
7074
100
AcDbEntity
  8
寸法
  6
Continuous
 62
     3
100
AcDbMText
 10
2011.381840457014
 20
839.805628343568
 30
0.0
 40
6.0
 41
0.0
 71
     5
 72
     1
  1
\A1;90
  7
ACAD
 11
0.0000000000000001
 21
1.0
 31
0.0
 73
     1
 44
1.0
1001
ACAD
1000
MTEXTBEGIN
1070
    73
1070
     1
1070
    44
1040
1.0
1070
    74
1070
     0
1000
MTEXTEND
  0
POINT
  5
7212
330
7074
100
AcDbEntity
  8
Defpoints
  6
Continuous
 62
     0
100
AcDbPoint
 10
1957.381840457014
 20
884.8056283435676
 30
0.0
  0
POINT
  5
7213
330
7074
100
AcDbEntity
  8
Defpoints
  6
Continuous
 62
     0
100
AcDbPoint
 10
1957.381840457014
 20
794.8056283435678
 30
0.0
  0
POINT
  5
7214
330
7074
100
AcDbEntity
  8
Defpoints
  6
Continuous
 62
     0
100
AcDbPoint
 10
2015.381840457014
 20
794.8056283435678
 30
0.0
  0
ENDBLK
  5
707F
330
7074
100
AcDbEntity
  8
0
100
AcDbBlockEnd
  0
BLOCK
  5
708B
330
7081
100
AcDbEntity
  8
0
100
AcDbBlockBegin
  2
*D6
 70
     1
 10
0.0
 20
0.0
 30
0.0
  3
*D6
  1

  0
LINE
  5
7203
330
7081
100
AcDbEntity
  8
寸法
  6
Continuous
 62
     4
370
    -2
100
AcDbLine
 10
1884.08556693564
 20
837.6688027037996
 30
0.0
 11
1995.381840457014
 21
837.6688027037996
 31
0.0
  0
LINE
  5
7204
330
7081
100
AcDbEntity
  8
寸法
  6
Continuous
 62
     4
370
    -2
100
AcDbLine
 10
1957.381840457014
 20
794.8056283435678
 30
0.0
 11
1995.381840457014
 21
794.8056283435678
 31
0.0
  0
LINE
  5
7205
330
7081
100
AcDbEntity
  8
寸法
  6
Continuous
 62
     4
370
    -2
100
AcDbLine
 10
1995.381840457014
 20
836.6688027037996
 30
0.0
 11
1995.381840457014
 21
795.8056283435678
 31
0.0
  0
INSERT
  5
7206
330
7081
100
AcDbEntity
  8
寸法
  6
Continuous
 62
     4
370
    -2
100
AcDbBlockReference
  2
_Dot
 10
1995.381840457014
 20
837.6688027037996
 30
0.0
 50
90.0
  0
INSERT
  5
7207
330
7081
100
AcDbEntity
  8
寸法
  6
Continuous
 62
     4
370
    -2
100
AcDbBlockReference
  2
_Dot
 10
1995.381840457014
 20
794.8056283435678
 30
0.0
 50
270.0
  0
MTEXT
  5
7208
330
7081
100
AcDbEntity
  8
寸法
  6
Continuous
 62
     3
100
AcDbMText
 10
1991.381840457014
 20
816.2372155236841
 30
0.0
 40
6.0
 41
0.0
 71
     5
 72
     1
  1
\A1;44
  7
ACAD
 11
0.0000000000000001
 21
1.0
 31
0.0
 73
     1
 44
1.0
1001
ACAD
1000
MTEXTBEGIN
1070
    73
1070
     1
1070
    44
1040
1.0
1070
    74
1070
     0
1000
MTEXTEND
  0
POINT
  5
7209
330
7081
100
AcDbEntity
  8
Defpoints
  6
Continuous
 62
     0
100
AcDbPoint
 10
1884.08556693564
 20
837.6688027037996
 30
0.0
  0
POINT
  5
720A
330
7081
100
AcDbEntity
  8
Defpoints
  6
Continuous
 62
     0
100
AcDbPoint
 10
1957.381840457014
 20
794.8056283435678
 30
0.0
  0
POINT
  5
720B
330
7081
100
AcDbEntity
  8
Defpoints
  6
Continuous
 62
     0
100
AcDbPoint
 10
1995.381840457014
 20
794.8056283435678
 30
0.0
  0
ENDBLK
  5
708C
330
7081
100
AcDbEntity
  8
0
100
AcDbBlockEnd
  0
BLOCK
  5
70A3
330
709A
100
AcDbEntity
  8
0
100
AcDbBlockBegin
  2
*D7
 70
     1
 10
0.0
 20
0.0
 30
0.0
  3
*D7
  1

  0
LINE
  5
721E
330
709A
100
AcDbEntity
  8
寸法
  6
Continuous
 62
     4
370
    -2
100
AcDbLine
 10
1455.381840457014
 20
792.8056283435678
 30
0.0
 11
1455.381840457014
 21
707.6688027037996
 31
0.0
  0
LINE
  5
721F
330
709A
100
AcDbEntity
  8
寸法
  6
Continuous
 62
     4
370
    -2
100
AcDbLine
 10
1456.381840457014
 20
707.6688027037996
 30
0.0
 11
1529.381840457014
 21
707.6688027037996
 31
0.0
  0
INSERT
  5
7220
330
709A
100
AcDbEntity
  8
寸法
  6
Continuous
 62
     4
370
    -2
100
AcDbBlockReference
  2
_Dot
 10
1455.381840457014
 20
707.6688027037996
 30
0.0
 50
180.0
  0
INSERT
  5
7221
330
709A
100
AcDbEntity
  8
寸法
  6
Continuous
 62
     4
370
    -2
100
AcDbBlockReference
  2
_Dot
 10
1530.381840457014
 20
707.6688027037996
 30
0.0
  0
MTEXT
  5
7222
330
709A
100
AcDbEntity
  8
寸法
  6
Continuous
 62
     3
100
AcDbMText
 10
1492.881840457014
 20
711.6688027037996
 30
0.0
 40
6.0
 41
0.0
 71
     5
 72
     1
  1
\A1;75≦
  7
ACAD
 73
     1
 44
1.0
1001
ACAD
1000
MTEXTBEGIN
1070
    73
1070
     1
1070
    44
1040
1.0
1070
    74
1070
     0
1000
MTEXTEND
  0
POINT
  5
7223
330
709A
100
AcDbEntity
  8
Defpoints
  6
Continuous
 62
     0
100
AcDbPoint
 10
1455.381840457014
 20
792.8056283435678
 30
0.0
  0
POINT
  5
7224
330
709A
100
AcDbEntity
  8
Defpoints
  6
Continuous
 62
     0
100
AcDbPoint
 10
1530.381840457014
 20
707.6688027037996
 30
0.0
  0
POINT
  5
7225
330
709A
100
AcDbEntity
  8
Defpoints
  6
Continuous
 62
     0
100
AcDbPoint
 10
1530.381840457014
 20
707.6688027037996
 30
0.0
  0
ENDBLK
  5
70A4
330
709A
100
AcDbEntity
  8
0
100
AcDbBlockEnd
  0
BLOCK
  5
70AE
330
70A6
100
AcDbEntity
  8
0
100
AcDbBlockBegin
  2
*D8
 70
     1
 10
0.0
 20
0.0
 30
0.0
  3
*D8
  1

  0
LINE
  5
7226
330
70A6
100
AcDbEntity
  8
寸法
  6
Continuous
 62
     4
370
    -2
100
AcDbLine
 10
1531.381840457014
 20
707.6688027037996
 30
0.0
 11
1654.381840457014
 21
707.6688027037996
 31
0.0
  0
INSERT
  5
7227
330
70A6
100
AcDbEntity
  8
寸法
  6
Continuous
 62
     4
370
    -2
100
AcDbBlockReference
  2
_Dot
 10
1530.381840457014
 20
707.6688027037996
 30
0.0
 50
180.0
  0
INSERT
  5
7228
330
70A6
100
AcDbEntity
  8
寸法
  6
Continuous
 62
     4
370
    -2
100
AcDbBlockReference
  2
_Dot
 10
1655.381840457014
 20
707.6688027037996
 30
0.0
  0
MTEXT
  5
7229
330
70A6
100
AcDbEntity
  8
寸法
  6
Continuous
 62
     3
100
AcDbMText
 10
1592.881840457014
 20
711.6688027037996
 30
0.0
 40
6.0
 41
0.0
 71
     5
 72
     1
  1
\A1;≦Ｃ
  7
ACAD
 73
     1
 44
1.0
1001
ACAD
1000
MTEXTBEGIN
1070
    73
1070
     1
1070
    44
1040
1.0
1070
    74
1070
     0
1000
MTEXTEND
  0
POINT
  5
722A
330
70A6
100
AcDbEntity
  8
Defpoints
  6
Continuous
 62
     0
100
AcDbPoint
 10
1530.381840457014
 20
707.6688027037996
 30
0.0
  0
POINT
  5
722B
330
70A6
100
AcDbEntity
  8
Defpoints
  6
Continuous
 62
     0
100
AcDbPoint
 10
1655.381840457014
 20
707.6688027037996
 30
0.0
  0
POINT
  5
722C
330
70A6
100
AcDbEntity
  8
Defpoints
  6
Continuous
 62
     0
100
AcDbPoint
 10
1655.381840457014
 20
707.6688027037996
 30
0.0
  0
ENDBLK
  5
70AF
330
70A6
100
AcDbEntity
  8
0
100
AcDbBlockEnd
  0
BLOCK
  5
70B9
330
70B1
100
AcDbEntity
  8
0
100
AcDbBlockBegin
  2
*D9
 70
     1
 10
0.0
 20
0.0
 30
0.0
  3
*D9
  1

  0
LINE
  5
7234
330
70B1
100
AcDbEntity
  8
寸法
  6
Continuous
 62
     4
370
    -2
100
AcDbLine
 10
1656.381840457014
 20
707.6688027037996
 30
0.0
 11
1754.381840457014
 21
707.6688027037996
 31
0.0
  0
INSERT
  5
7235
330
70B1
100
AcDbEntity
  8
寸法
  6
Continuous
 62
     4
370
    -2
100
AcDbBlockReference
  2
_Dot
 10
1655.381840457014
 20
707.6688027037996
 30
0.0
 50
180.0
  0
INSERT
  5
7236
330
70B1
100
AcDbEntity
  8
寸法
  6
Continuous
 62
     4
370
    -2
100
AcDbBlockReference
  2
_Dot
 10
1755.381840457014
 20
707.6688027037996
 30
0.0
  0
MTEXT
  5
7237
330
70B1
100
AcDbEntity
  8
寸法
  6
Continuous
 62
     3
100
AcDbMText
 10
1705.381840457014
 20
711.6688027037996
 30
0.0
 40
6.0
 41
0.0
 71
     5
 72
     1
  1
\A1;100
  7
ACAD
 73
     1
 44
1.0
1001
ACAD
1000
MTEXTBEGIN
1070
    73
1070
     1
1070
    44
1040
1.0
1070
    74
1070
     0
1000
MTEXTEND
  0
POINT
  5
7238
330
70B1
100
AcDbEntity
  8
Defpoints
  6
Continuous
 62
     0
100
AcDbPoint
 10
1655.381840457014
 20
707.6688027037996
 30
0.0
  0
POINT
  5
7239
330
70B1
100
AcDbEntity
  8
Defpoints
  6
Continuous
 62
     0
100
AcDbPoint
 10
1755.381840457014
 20
707.6688027037996
 30
0.0
  0
POINT
  5
723A
330
70B1
100
AcDbEntity
  8
Defpoints
  6
Continuous
 62
     0
100
AcDbPoint
 10
1755.381840457014
 20
707.6688027037996
 30
0.0
  0
ENDBLK
  5
70BA
330
70B1
100
AcDbEntity
  8
0
100
AcDbBlockEnd
  0
BLOCK
  5
70C4
330
70BC
100
AcDbEntity
  8
0
100
AcDbBlockBegin
  2
*D10
 70
     1
 10
0.0
 20
0.0
 30
0.0
  3
*D10
  1

  0
LINE
  5
723B
330
70BC
100
AcDbEntity
  8
寸法
  6
Continuous
 62
     4
370
    -2
100
AcDbLine
 10
1756.381840457014
 20
707.6688027037997
 30
0.0
 11
1879.381840457014
 21
707.6688027037997
 31
0.0
  0
INSERT
  5
723C
330
70BC
100
AcDbEntity
  8
寸法
  6
Continuous
 62
     4
370
    -2
100
AcDbBlockReference
  2
_Dot
 10
1755.381840457014
 20
707.6688027037997
 30
0.0
 50
180.0
  0
INSERT
  5
723D
330
70BC
100
AcDbEntity
  8
寸法
  6
Continuous
 62
     4
370
    -2
100
AcDbBlockReference
  2
_Dot
 10
1880.381840457014
 20
707.6688027037997
 30
0.0
  0
MTEXT
  5
723E
330
70BC
100
AcDbEntity
  8
寸法
  6
Continuous
 62
     3
100
AcDbMText
 10
1817.881840457014
 20
711.6688027037997
 30
0.0
 40
6.0
 41
0.0
 71
     5
 72
     1
  1
\A1;≦Ｃ
  7
ACAD
 73
     1
 44
1.0
1001
ACAD
1000
MTEXTBEGIN
1070
    73
1070
     1
1070
    44
1040
1.0
1070
    74
1070
     0
1000
MTEXTEND
  0
POINT
  5
723F
330
70BC
100
AcDbEntity
  8
Defpoints
  6
Continuous
 62
     0
100
AcDbPoint
 10
1755.381840457014
 20
707.6688027037996
 30
0.0
  0
POINT
  5
7240
330
70BC
100
AcDbEntity
  8
Defpoints
  6
Continuous
 62
     0
100
AcDbPoint
 10
1880.381840457014
 20
707.6688027037997
 30
0.0
  0
POINT
  5
7241
330
70BC
100
AcDbEntity
  8
Defpoints
  6
Continuous
 62
     0
100
AcDbPoint
 10
1880.381840457014
 20
707.6688027037997
 30
0.0
  0
ENDBLK
  5
70C5
330
70BC
100
AcDbEntity
  8
0
100
AcDbBlockEnd
  0
BLOCK
  5
70D0
330
70C7
100
AcDbEntity
  8
0
100
AcDbBlockBegin
  2
*D11
 70
     1
 10
0.0
 20
0.0
 30
0.0
  3
*D11
  1

  0
LINE
  5
7249
330
70C7
100
AcDbEntity
  8
寸法
  6
Continuous
 62
     4
370
    -2
100
AcDbLine
 10
1955.381840457014
 20
792.8056283435678
 30
0.0
 11
1955.381840457014
 21
707.6688027037996
 31
0.0
  0
LINE
  5
724A
330
70C7
100
AcDbEntity
  8
寸法
  6
Continuous
 62
     4
370
    -2
100
AcDbLine
 10
1881.381840457014
 20
707.6688027037996
 30
0.0
 11
1954.381840457014
 21
707.6688027037996
 31
0.0
  0
INSERT
  5
724B
330
70C7
100
AcDbEntity
  8
寸法
  6
Continuous
 62
     4
370
    -2
100
AcDbBlockReference
  2
_Dot
 10
1880.381840457014
 20
707.6688027037996
 30
0.0
 50
180.0
  0
INSERT
  5
724C
330
70C7
100
AcDbEntity
  8
寸法
  6
Continuous
 62
     4
370
    -2
100
AcDbBlockReference
  2
_Dot
 10
1955.381840457014
 20
707.6688027037996
 30
0.0
  0
MTEXT
  5
724D
330
70C7
100
AcDbEntity
  8
寸法
  6
Continuous
 62
     3
100
AcDbMText
 10
1917.881840457014
 20
711.6688027037996
 30
0.0
 40
6.0
 41
0.0
 71
     5
 72
     1
  1
\A1;75≦
  7
ACAD
 73
     1
 44
1.0
1001
ACAD
1000
MTEXTBEGIN
1070
    73
1070
     1
1070
    44
1040
1.0
1070
    74
1070
     0
1000
MTEXTEND
  0
POINT
  5
724E
330
70C7
100
AcDbEntity
  8
Defpoints
  6
Continuous
 62
     0
100
AcDbPoint
 10
1880.381840457014
 20
707.6688027037996
 30
0.0
  0
POINT
  5
724F
330
70C7
100
AcDbEntity
  8
Defpoints
  6
Continuous
 62
     0
100
AcDbPoint
 10
1955.381840457014
 20
792.8056283435678
 30
0.0
  0
POINT
  5
7250
330
70C7
100
AcDbEntity
  8
Defpoints
  6
Continuous
 62
     0
100
AcDbPoint
 10
1955.381840457014
 20
707.6688027037996
 30
0.0
  0
ENDBLK
  5
70D1
330
70C7
100
AcDbEntity
  8
0
100
AcDbBlockEnd
  0
BLOCK
  5
70DB
330
70D3
100
AcDbEntity
  8
0
100
AcDbBlockBegin
  2
*D12
 70
     1
 10
0.0
 20
0.0
 30
0.0
  3
*D12
  1

  0
LINE
  5
7242
330
70D3
100
AcDbEntity
  8
寸法
  6
Continuous
 62
     4
370
    -2
100
AcDbLine
 10
1879.381840457014
 20
777.6688027037996
 30
0.0
 11
1831.381840457014
 21
777.6688027037996
 31
0.0
  0
INSERT
  5
7243
330
70D3
100
AcDbEntity
  8
寸法
  6
Continuous
 62
     4
370
    -2
100
AcDbBlockReference
  2
_Dot
 10
1880.381840457014
 20
777.6688027037996
 30
0.0
  0
INSERT
  5
7244
330
70D3
100
AcDbEntity
  8
寸法
  6
Continuous
 62
     4
370
    -2
100
AcDbBlockReference
  2
_Dot
 10
1830.381840457014
 20
777.6688027037996
 30
0.0
 50
180.0
  0
MTEXT
  5
7245
330
70D3
100
AcDbEntity
  8
寸法
  6
Continuous
 62
     3
100
AcDbMText
 10
1855.381840457013
 20
781.6688027037996
 30
0.0
 40
6.0
 41
0.0
 71
     5
 72
     1
  1
\A1;50
  7
ACAD
 73
     1
 44
1.0
1001
ACAD
1000
MTEXTBEGIN
1070
    73
1070
     1
1070
    44
1040
1.0
1070
    74
1070
     0
1000
MTEXTEND
  0
POINT
  5
7246
330
70D3
100
AcDbEntity
  8
Defpoints
  6
Continuous
 62
     0
100
AcDbPoint
 10
1880.381840457014
 20
777.6688027037996
 30
0.0
  0
POINT
  5
7247
330
70D3
100
AcDbEntity
  8
Defpoints
  6
Continuous
 62
     0
100
AcDbPoint
 10
1830.381840457014
 20
777.6688027037996
 30
0.0
  0
POINT
  5
7248
330
70D3
100
AcDbEntity
  8
Defpoints
  6
Continuous
 62
     0
100
AcDbPoint
 10
1830.381840457014
 20
777.6688027037996
 30
0.0
  0
ENDBLK
  5
70DC
330
70D3
100
AcDbEntity
  8
0
100
AcDbBlockEnd
  0
BLOCK
  5
70E6
330
70DE
100
AcDbEntity
  8
0
100
AcDbBlockBegin
  2
*D13
 70
     1
 10
0.0
 20
0.0
 30
0.0
  3
*D13
  1

  0
LINE
  5
722D
330
70DE
100
AcDbEntity
  8
寸法
  6
Continuous
 62
     4
370
    -2
100
AcDbLine
 10
1531.381840457014
 20
777.6688027037996
 30
0.0
 11
1579.381840457014
 21
777.6688027037996
 31
0.0
  0
INSERT
  5
722E
330
70DE
100
AcDbEntity
  8
寸法
  6
Continuous
 62
     4
370
    -2
100
AcDbBlockReference
  2
_Dot
 10
1530.381840457014
 20
777.6688027037996
 30
0.0
 50
180.0
  0
INSERT
  5
722F
330
70DE
100
AcDbEntity
  8
寸法
  6
Continuous
 62
     4
370
    -2
100
AcDbBlockReference
  2
_Dot
 10
1580.381840457014
 20
777.6688027037996
 30
0.0
  0
MTEXT
  5
7230
330
70DE
100
AcDbEntity
  8
寸法
  6
Continuous
 62
     3
100
AcDbMText
 10
1555.381840457014
 20
781.6688027037996
 30
0.0
 40
6.0
 41
0.0
 71
     5
 72
     1
  1
\A1;50
  7
ACAD
 73
     1
 44
1.0
1001
ACAD
1000
MTEXTBEGIN
1070
    73
1070
     1
1070
    44
1040
1.0
1070
    74
1070
     0
1000
MTEXTEND
  0
POINT
  5
7231
330
70DE
100
AcDbEntity
  8
Defpoints
  6
Continuous
 62
     0
100
AcDbPoint
 10
1530.381840457014
 20
777.6688027037996
 30
0.0
  0
POINT
  5
7232
330
70DE
100
AcDbEntity
  8
Defpoints
  6
Continuous
 62
     0
100
AcDbPoint
 10
1580.381840457014
 20
777.6688027037996
 30
0.0
  0
POINT
  5
7233
330
70DE
100
AcDbEntity
  8
Defpoints
  6
Continuous
 62
     0
100
AcDbPoint
 10
1580.381840457014
 20
777.6688027037996
 30
0.0
  0
ENDBLK
  5
70E7
330
70DE
100
AcDbEntity
  8
0
100
AcDbBlockEnd
  0
ENDSEC
  0
SECTION
  2
ENTITIES
  0
LINE
  5
6C00
330
1E
100
AcDbEntity
  8
躯体と製品
  6
Continuous
 62
     7
100
AcDbLine
 10
1655.381840457014
 20
837.6688027037996
 30
0.0
 11
1655.381840457014
 21
687.6688027037996
 31
0.0
  0
LINE
  5
6C01
330
1E
100
AcDbEntity
  8
躯体と製品
  6
Continuous
 62
     7
100
AcDbLine
 10
1530.381840457014
 20
837.6688027037996
 30
0.0
 11
1530.381840457014
 21
687.6688027037996
 31
0.0
  0
LINE
  5
6C02
330
1E
100
AcDbEntity
  8
躯体と製品
  6
Continuous
 62
     7
100
AcDbLine
 10
1755.381840457014
 20
837.6688027037996
 30
0.0
 11
1755.381840457014
 21
687.6688027037996
 31
0.0
  0
LINE
  5
6C03
330
1E
100
AcDbEntity
  8
躯体と製品
  6
Continuous
 62
     7
100
AcDbLine
 10
1880.381840457014
 20
837.6688027037996
 30
0.0
 11
1880.381840457014
 21
687.6688027037996
 31
0.0
  0
LINE
  5
6C16
330
1E
100
AcDbEntity
  8
躯体と製品
  6
Continuous
 62
     4
100
AcDbLine
 10
1497.664296782607
 20
883.2906941034694
 30
0.0
 11
1499.487991773952
 21
885.1143890948144
 31
0.0
  0
LINE
  5
6C17
330
1E
100
AcDbEntity
  8
躯体と製品
  6
Continuous
 62
     4
100
AcDbLine
 10
1496.171868360914
 20
883.2124792441495
 30
0.0
 11
1497.995563352259
 21
885.0361742354948
 31
0.0
  0
LINE
  5
6C18
330
1E
100
AcDbEntity
  8
躯体と製品
  6
Continuous
 62
     4
100
AcDbLine
 10
1494.67943993922
 20
883.1342643848291
 30
0.0
 11
1496.503134930566
 21
884.9579593761747
 31
0.0
  0
LINE
  5
6C19
330
1E
100
AcDbEntity
  8
躯体と製品
  6
Continuous
 62
     4
100
AcDbLine
 10
1493.187011517527
 20
883.0560495255095
 30
0.0
 11
1495.010706508873
 21
884.8797445168548
 31
0.0
  0
LINE
  5
6C1A
330
1E
100
AcDbEntity
  8
躯体と製品
  6
Continuous
 62
     4
100
AcDbLine
 10
1491.694583095834
 20
882.9778346661898
 30
0.0
 11
1493.51827808718
 21
884.8015296575352
 31
0.0
  0
LINE
  5
6C1B
330
1E
100
AcDbEntity
  8
躯体と製品
  6
Continuous
 62
     4
100
AcDbLine
 10
1490.202154674141
 20
882.8996198068699
 30
0.0
 11
1492.025849665486
 21
884.7233147982151
 31
0.0
  0
LINE
  5
6C1C
330
1E
100
AcDbEntity
  8
躯体と製品
  6
Continuous
 62
     4
100
AcDbLine
 10
1488.709726252448
 20
882.82140494755
 30
0.0
 11
1490.533421243793
 21
884.6450999388952
 31
0.0
  0
LINE
  5
6C1D
330
1E
100
AcDbEntity
  8
躯体と製品
  6
Continuous
 62
     4
100
AcDbLine
 10
1487.217297830755
 20
882.7431900882304
 30
0.0
 11
1489.0409928221
 21
884.5668850795757
 31
0.0
  0
LINE
  5
6C1E
330
1E
100
AcDbEntity
  8
躯体と製品
  6
Continuous
 62
     4
100
AcDbLine
 10
1485.724869409064
 20
882.664975228911
 30
0.0
 11
1487.548564400409
 21
884.4886702202556
 31
0.0
  0
LINE
  5
6C1F
330
1E
100
AcDbEntity
  8
躯体と製品
  6
Continuous
 62
     4
100
AcDbLine
 10
1484.694373512445
 20
883.0486928946655
 30
0.0
 11
1486.056135978716
 21
884.4104553609358
 31
0.0
  0
LINE
  5
6C20
330
1E
100
AcDbEntity
  8
躯体と製品
  6
Continuous
 62
     7
100
AcDbLine
 10
1484.717250803583
 20
882.6121681754328
 30
0.0
 11
1484.626931982115
 21
884.3355539533318
 31
0.0
  0
LINE
  5
6C21
330
1E
100
AcDbEntity
  8
躯体と製品
  6
Continuous
 62
     7
100
AcDbLine
 10
1499.696693824901
 20
883.3972075190768
 30
0.0
 11
1499.606375003434
 21
885.1205932969758
 31
0.0
  0
LINE
  5
6C22
330
1E
100
AcDbEntity
  8
躯体と製品
  6
Continuous
 62
     4
100
AcDbLine
 10
1499.156725204298
 20
883.368908962789
 30
0.0
 11
1499.671213690371
 21
883.883397448862
 31
0.0
  0
LINE
  5
6C23
330
1E
100
AcDbEntity
  8
躯体と製品
  6
Continuous
 62
     3
100
AcDbLine
 10
1845.381840457014
 20
838.6688027037996
 30
0.0
 11
1845.381840457014
 21
837.6688027037996
 31
0.0
  0
LINE
  5
6C24
330
1E
100
AcDbEntity
  8
躯体と製品
  6
Continuous
 62
     3
100
AcDbLine
 10
1815.381840457014
 20
838.6688027037996
 30
0.0
 11
1845.381840457014
 21
838.6688027037996
 31
0.0
  0
LINE
  5
6C25
330
1E
100
AcDbEntity
  8
躯体と製品
  6
Continuous
 62
     3
100
AcDbLine
 10
1815.381840457014
 20
837.6688027037996
 30
0.0
 11
1815.381840457014
 21
838.6688027037996
 31
0.0
  0
LINE
  5
6C26
330
1E
100
AcDbEntity
  8
躯体と製品
  6
Continuous
 62
     3
100
AcDbLine
 10
1845.381840457014
 20
837.6688027037996
 30
0.0
 11
1815.381840457014
 21
837.6688027037996
 31
0.0
  0
LINE
  5
6C27
330
1E
100
AcDbEntity
  8
躯体と製品
  6
Continuous
 62
     4
100
AcDbLine
 10
1844.506302795155
 20
837.6688027037998
 30
0.0
 11
1845.381840457014
 21
838.5443403656591
 31
0.0
  0
LINE
  5
6C28
330
1E
100
AcDbEntity
  8
躯体と製品
  6
Continuous
 62
     4
100
AcDbLine
 10
1843.092089232782
 20
837.6688027037999
 30
0.0
 11
1844.092089232782
 21
838.6688027037997
 31
0.0
  0
LINE
  5
6C29
330
1E
100
AcDbEntity
  8
躯体と製品
  6
Continuous
 62
     4
100
AcDbLine
 10
1841.677875670408
 20
837.6688027037996
 30
0.0
 11
1842.677875670408
 21
838.6688027037994
 31
0.0
  0
LINE
  5
6C2A
330
1E
100
AcDbEntity
  8
躯体と製品
  6
Continuous
 62
     4
100
AcDbLine
 10
1840.263662108035
 20
837.6688027037994
 30
0.0
 11
1841.263662108035
 21
838.6688027037996
 31
0.0
  0
LINE
  5
6C2B
330
1E
100
AcDbEntity
  8
躯体と製品
  6
Continuous
 62
     4
100
AcDbLine
 10
1838.849448545661
 20
837.6688027037994
 30
0.0
 11
1839.849448545662
 21
838.6688027037996
 31
0.0
  0
LINE
  5
6C2C
330
1E
100
AcDbEntity
  8
躯体と製品
  6
Continuous
 62
     4
100
AcDbLine
 10
1837.435234983288
 20
837.6688027037996
 30
0.0
 11
1838.435234983288
 21
838.6688027037997
 31
0.0
  0
LINE
  5
6C2D
330
1E
100
AcDbEntity
  8
躯体と製品
  6
Continuous
 62
     4
100
AcDbLine
 10
1836.021021420915
 20
837.6688027037996
 30
0.0
 11
1837.021021420915
 21
838.6688027037997
 31
0.0
  0
LINE
  5
6C2E
330
1E
100
AcDbEntity
  8
躯体と製品
  6
Continuous
 62
     4
100
AcDbLine
 10
1834.606807858543
 20
837.6688027037992
 30
0.0
 11
1835.606807858543
 21
838.668802703799
 31
0.0
  0
LINE
  5
6C2F
330
1E
100
AcDbEntity
  8
躯体と製品
  6
Continuous
 62
     4
100
AcDbLine
 10
1833.19259429617
 20
837.6688027037994
 30
0.0
 11
1834.192594296169
 21
838.668802703799
 31
0.0
  0
LINE
  5
6C30
330
1E
100
AcDbEntity
  8
躯体と製品
  6
Continuous
 62
     4
100
AcDbLine
 10
1831.778380733796
 20
837.6688027037994
 30
0.0
 11
1832.778380733796
 21
838.6688027037992
 31
0.0
  0
LINE
  5
6C31
330
1E
100
AcDbEntity
  8
躯体と製品
  6
Continuous
 62
     4
100
AcDbLine
 10
1830.364167171423
 20
837.6688027037996
 30
0.0
 11
1831.364167171423
 21
838.6688027037994
 31
0.0
  0
LINE
  5
6C32
330
1E
100
AcDbEntity
  8
躯体と製品
  6
Continuous
 62
     4
100
AcDbLine
 10
1828.949953609049
 20
837.6688027037989
 30
0.0
 11
1829.94995360905
 21
838.6688027037992
 31
0.0
  0
LINE
  5
6C33
330
1E
100
AcDbEntity
  8
躯体と製品
  6
Continuous
 62
     4
100
AcDbLine
 10
1827.535740046676
 20
837.6688027037991
 30
0.0
 11
1828.535740046676
 21
838.6688027037994
 31
0.0
  0
LINE
  5
6C34
330
1E
100
AcDbEntity
  8
躯体と製品
  6
Continuous
 62
     4
100
AcDbLine
 10
1826.121526484303
 20
837.6688027037992
 30
0.0
 11
1827.121526484303
 21
838.6688027037994
 31
0.0
  0
LINE
  5
6C35
330
1E
100
AcDbEntity
  8
躯体と製品
  6
Continuous
 62
     4
100
AcDbLine
 10
1824.707312921929
 20
837.6688027037994
 30
0.0
 11
1825.70731292193
 21
838.6688027037996
 31
0.0
  0
LINE
  5
6C36
330
1E
100
AcDbEntity
  8
躯体と製品
  6
Continuous
 62
     4
100
AcDbLine
 10
1823.293099359558
 20
837.6688027037998
 30
0.0
 11
1824.293099359558
 21
838.6688027037994
 31
0.0
  0
LINE
  5
6C37
330
1E
100
AcDbEntity
  8
躯体と製品
  6
Continuous
 62
     4
100
AcDbLine
 10
1821.878885797185
 20
837.6688027037998
 30
0.0
 11
1822.878885797185
 21
838.6688027037996
 31
0.0
  0
LINE
  5
6C38
330
1E
100
AcDbEntity
  8
躯体と製品
  6
Continuous
 62
     4
100
AcDbLine
 10
1820.464672234812
 20
837.6688027037998
 30
0.0
 11
1821.464672234812
 21
838.6688027037996
 31
0.0
  0
LINE
  5
6C39
330
1E
100
AcDbEntity
  8
躯体と製品
  6
Continuous
 62
     4
100
AcDbLine
 10
1819.050458672439
 20
837.6688027037999
 30
0.0
 11
1820.050458672439
 21
838.6688027037996
 31
0.0
  0
LINE
  5
6C3A
330
1E
100
AcDbEntity
  8
躯体と製品
  6
Continuous
 62
     4
100
AcDbLine
 10
1817.636245110065
 20
837.6688027037996
 30
0.0
 11
1818.636245110065
 21
838.6688027037997
 31
0.0
  0
LINE
  5
6C3B
330
1E
100
AcDbEntity
  8
躯体と製品
  6
Continuous
 62
     4
100
AcDbLine
 10
1816.222031547692
 20
837.6688027037996
 30
0.0
 11
1817.222031547692
 21
838.6688027037999
 31
0.0
  0
LINE
  5
6C3C
330
1E
100
AcDbEntity
  8
躯体と製品
  6
Continuous
 62
     4
100
AcDbLine
 10
1815.381840457014
 20
838.2428251754951
 30
0.0
 11
1815.807817985319
 21
838.6688027037999
 31
0.0
  0
LINE
  5
6C3D
330
1E
100
AcDbEntity
  8
躯体と製品
  6
Continuous
 62
     3
100
AcDbLine
 10
1595.381840457014
 20
837.6688027037996
 30
0.0
 11
1595.381840457014
 21
838.6688027037996
 31
0.0
  0
LINE
  5
6C3E
330
1E
100
AcDbEntity
  8
躯体と製品
  6
Continuous
 62
     3
100
AcDbLine
 10
1565.381840457014
 20
838.6688027037996
 30
0.0
 11
1565.381840457014
 21
837.6688027037996
 31
0.0
  0
LINE
  5
6C3F
330
1E
100
AcDbEntity
  8
躯体と製品
  6
Continuous
 62
     3
100
AcDbLine
 10
1595.381840457014
 20
838.6688027037996
 30
0.0
 11
1565.381840457014
 21
838.6688027037996
 31
0.0
  0
LINE
  5
6C40
330
1E
100
AcDbEntity
  8
躯体と製品
  6
Continuous
 62
     3
100
AcDbLine
 10
1565.381840457014
 20
837.6688027037996
 30
0.0
 11
1595.381840457014
 21
837.6688027037996
 31
0.0
  0
LINE
  5
6C41
330
1E
100
AcDbEntity
  8
躯体と製品
  6
Continuous
 62
     4
100
AcDbLine
 10
1566.257378118873
 20
837.6688027037998
 30
0.0
 11
1565.381840457014
 21
838.5443403656591
 31
0.0
  0
LINE
  5
6C42
330
1E
100
AcDbEntity
  8
躯体と製品
  6
Continuous
 62
     4
100
AcDbLine
 10
1567.671591681246
 20
837.6688027037999
 30
0.0
 11
1566.671591681246
 21
838.6688027037997
 31
0.0
  0
LINE
  5
6C43
330
1E
100
AcDbEntity
  8
躯体と製品
  6
Continuous
 62
     4
100
AcDbLine
 10
1569.08580524362
 20
837.6688027037996
 30
0.0
 11
1568.08580524362
 21
838.6688027037994
 31
0.0
  0
LINE
  5
6C44
330
1E
100
AcDbEntity
  8
躯体と製品
  6
Continuous
 62
     4
100
AcDbLine
 10
1570.500018805994
 20
837.6688027037994
 30
0.0
 11
1569.500018805993
 21
838.6688027037996
 31
0.0
  0
LINE
  5
6C45
330
1E
100
AcDbEntity
  8
躯体と製品
  6
Continuous
 62
     4
100
AcDbLine
 10
1571.914232368366
 20
837.6688027037994
 30
0.0
 11
1570.914232368367
 21
838.6688027037996
 31
0.0
  0
LINE
  5
6C46
330
1E
100
AcDbEntity
  8
躯体と製品
  6
Continuous
 62
     4
100
AcDbLine
 10
1573.32844593074
 20
837.6688027037996
 30
0.0
 11
1572.32844593074
 21
838.6688027037997
 31
0.0
  0
LINE
  5
6C47
330
1E
100
AcDbEntity
  8
躯体と製品
  6
Continuous
 62
     4
100
AcDbLine
 10
1574.742659493113
 20
837.6688027037996
 30
0.0
 11
1573.742659493113
 21
838.6688027037997
 31
0.0
  0
LINE
  5
6C48
330
1E
100
AcDbEntity
  8
躯体と製品
  6
Continuous
 62
     4
100
AcDbLine
 10
1576.156873055485
 20
837.6688027037992
 30
0.0
 11
1575.156873055486
 21
838.668802703799
 31
0.0
  0
LINE
  5
6C49
330
1E
100
AcDbEntity
  8
躯体と製品
  6
Continuous
 62
     4
100
AcDbLine
 10
1577.571086617859
 20
837.6688027037994
 30
0.0
 11
1576.571086617859
 21
838.668802703799
 31
0.0
  0
LINE
  5
6C4A
330
1E
100
AcDbEntity
  8
躯体と製品
  6
Continuous
 62
     4
100
AcDbLine
 10
1578.985300180232
 20
837.6688027037994
 30
0.0
 11
1577.985300180232
 21
838.6688027037992
 31
0.0
  0
LINE
  5
6C4B
330
1E
100
AcDbEntity
  8
躯体と製品
  6
Continuous
 62
     4
100
AcDbLine
 10
1580.399513742605
 20
837.6688027037996
 30
0.0
 11
1579.399513742605
 21
838.6688027037994
 31
0.0
  0
LINE
  5
6C4C
330
1E
100
AcDbEntity
  8
躯体と製品
  6
Continuous
 62
     4
100
AcDbLine
 10
1581.813727304979
 20
837.6688027037989
 30
0.0
 11
1580.813727304979
 21
838.6688027037992
 31
0.0
  0
LINE
  5
6C4D
330
1E
100
AcDbEntity
  8
躯体と製品
  6
Continuous
 62
     4
100
AcDbLine
 10
1583.227940867352
 20
837.6688027037991
 30
0.0
 11
1582.227940867352
 21
838.6688027037994
 31
0.0
  0
LINE
  5
6C4E
330
1E
100
AcDbEntity
  8
躯体と製品
  6
Continuous
 62
     4
100
AcDbLine
 10
1584.642154429725
 20
837.6688027037992
 30
0.0
 11
1583.642154429725
 21
838.6688027037994
 31
0.0
  0
LINE
  5
6C4F
330
1E
100
AcDbEntity
  8
躯体と製品
  6
Continuous
 62
     4
100
AcDbLine
 10
1586.056367992099
 20
837.6688027037994
 30
0.0
 11
1585.056367992098
 21
838.6688027037996
 31
0.0
  0
LINE
  5
6C50
330
1E
100
AcDbEntity
  8
躯体と製品
  6
Continuous
 62
     4
100
AcDbLine
 10
1587.47058155447
 20
837.6688027037998
 30
0.0
 11
1586.47058155447
 21
838.6688027037994
 31
0.0
  0
LINE
  5
6C51
330
1E
100
AcDbEntity
  8
躯体と製品
  6
Continuous
 62
     4
100
AcDbLine
 10
1588.884795116843
 20
837.6688027037998
 30
0.0
 11
1587.884795116843
 21
838.6688027037996
 31
0.0
  0
LINE
  5
6C52
330
1E
100
AcDbEntity
  8
躯体と製品
  6
Continuous
 62
     4
100
AcDbLine
 10
1590.299008679216
 20
837.6688027037998
 30
0.0
 11
1589.299008679216
 21
838.6688027037996
 31
0.0
  0
LINE
  5
6C53
330
1E
100
AcDbEntity
  8
躯体と製品
  6
Continuous
 62
     4
100
AcDbLine
 10
1591.713222241589
 20
837.6688027037999
 30
0.0
 11
1590.713222241589
 21
838.6688027037996
 31
0.0
  0
LINE
  5
6C54
330
1E
100
AcDbEntity
  8
躯体と製品
  6
Continuous
 62
     4
100
AcDbLine
 10
1593.127435803963
 20
837.6688027037996
 30
0.0
 11
1592.127435803963
 21
838.6688027037997
 31
0.0
  0
LINE
  5
6C55
330
1E
100
AcDbEntity
  8
躯体と製品
  6
Continuous
 62
     4
100
AcDbLine
 10
1594.541649366336
 20
837.6688027037996
 30
0.0
 11
1593.541649366336
 21
838.6688027037999
 31
0.0
  0
LINE
  5
6C56
330
1E
100
AcDbEntity
  8
躯体と製品
  6
Continuous
 62
     4
100
AcDbLine
 10
1595.381840457014
 20
838.2428251754951
 30
0.0
 11
1594.955862928709
 21
838.6688027037999
 31
0.0
  0
POINT
  5
6C57
330
1E
100
AcDbEntity
  8
躯体と製品
 62
     4
100
AcDbPoint
 10
1955.381840457014
 20
794.8056283435678
 30
0.0
  0
POINT
  5
6C58
330
1E
100
AcDbEntity
  8
躯体と製品
 62
     4
100
AcDbPoint
 10
1455.381840457014
 20
794.8056283435678
 30
0.0
  0
POINT
  5
6C59
330
1E
100
AcDbEntity
  8
躯体と製品
 62
     4
100
AcDbPoint
 10
1705.381840457014
 20
897.907573164328
 30
0.0
  0
LINE
  5
6C5A
330
1E
100
AcDbEntity
  8
躯体と製品
  6
Continuous
 62
     4
100
AcDbLine
 10
1705.376617246599
 20
894.1764355487144
 30
0.0
 11
1703.734554900826
 21
895.8184978944872
 31
0.0
  0
LINE
  5
6C5B
330
1E
100
AcDbEntity
  8
躯体と製品
  6
Continuous
 62
     4
100
AcDbLine
 10
1704.032828659881
 20
894.1060105730585
 30
0.0
 11
1702.390766314108
 21
895.7480729188318
 31
0.0
  0
LINE
  5
6C5C
330
1E
100
AcDbEntity
  8
躯体と製品
  6
Continuous
 62
     4
100
AcDbLine
 10
1702.689040073164
 20
894.0355855974024
 30
0.0
 11
1701.046977727391
 21
895.6776479431759
 31
0.0
  0
LINE
  5
6C5D
330
1E
100
AcDbEntity
  8
躯体と製品
  6
Continuous
 62
     4
100
AcDbLine
 10
1701.345251486448
 20
893.9651606217472
 30
0.0
 11
1699.703189140675
 21
895.6072229675202
 31
0.0
  0
LINE
  5
6C5E
330
1E
100
AcDbEntity
  8
躯体と製品
  6
Continuous
 62
     4
100
AcDbLine
 10
1700.001462899731
 20
893.8947356460907
 30
0.0
 11
1698.359400553957
 21
895.5367979918646
 31
0.0
  0
LINE
  5
6C5F
330
1E
100
AcDbEntity
  8
躯体と製品
  6
Continuous
 62
     7
100
AcDbLine
 10
1698.011143949859
 20
895.5185466366229
 30
0.0
 11
1698.101462771327
 21
893.7951608587239
 31
0.0
  0
LINE
  5
6C60
330
1E
100
AcDbEntity
  8
躯体と製品
  6
Continuous
 62
     4
100
AcDbLine
 10
1706.868467915853
 20
894.0987984418336
 30
0.0
 11
1705.078343487543
 21
895.888922870143
 31
0.0
  0
LINE
  5
6C61
330
1E
100
AcDbEntity
  8
躯体と製品
  6
Continuous
 62
     4
100
AcDbLine
 10
1712.740946513147
 20
895.2973876564039
 30
0.0
 11
1712.506915032971
 21
895.5314191365806
 31
0.0
  0
LINE
  5
6C62
330
1E
100
AcDbEntity
  8
躯体と製品
  6
Continuous
 62
     4
100
AcDbLine
 10
1712.670521537492
 20
893.953599069688
 30
0.0
 11
1711.014486611279
 21
895.6096339959
 31
0.0
  0
LINE
  5
6C63
330
1E
100
AcDbEntity
  8
躯体と製品
  6
Continuous
 62
     4
100
AcDbLine
 10
1711.345753180932
 20
893.8641538638739
 30
0.0
 11
1709.522058189586
 21
895.6878488552199
 31
0.0
  0
LINE
  5
6C64
330
1E
100
AcDbEntity
  8
躯体と製品
  6
Continuous
 62
     4
100
AcDbLine
 10
1709.853324759239
 20
893.9423687231938
 30
0.0
 11
1708.029629767893
 21
895.7660637145398
 31
0.0
  0
LINE
  5
6C65
330
1E
100
AcDbEntity
  8
躯体と製品
  6
Continuous
 62
     4
100
AcDbLine
 10
1708.360896337546
 20
894.0205835825135
 30
0.0
 11
1706.5372013462
 21
895.8442785738595
 31
0.0
  0
LINE
  5
6C66
330
1E
100
AcDbEntity
  8
躯体と製品
  6
Continuous
 62
     7
100
AcDbLine
 10
1712.752536964169
 20
895.5185466366229
 30
0.0
 11
1712.662218142702
 21
893.7951608587239
 31
0.0
  0
LINE
  5
6C67
330
1E
100
AcDbEntity
  8
躯体と製品
  6
Continuous
 62
     7
100
AcDbLine
 10
1697.892118946355
 20
893.2835034407517
 30
0.0
 11
1698.101462771327
 21
889.2889853017335
 31
0.0
  0
LINE
  5
6C68
330
1E
100
AcDbEntity
  8
躯体と製品
  6
Continuous
 62
     7
100
AcDbLine
 10
1697.892118946355
 20
893.2835034407517
 30
0.0
 11
1705.381840457014
 21
893.6760231125738
 31
0.0
  0
LINE
  5
6C69
330
1E
100
AcDbEntity
  8
躯体と製品
  6
Continuous
 62
     7
100
AcDbLine
 10
1712.871561967673
 20
893.2835034407517
 30
0.0
 11
1712.662218142702
 21
889.2889853017335
 31
0.0
  0
LINE
  5
6C6A
330
1E
100
AcDbEntity
  8
躯体と製品
  6
Continuous
 62
     7
100
AcDbLine
 10
1712.871561967673
 20
893.2835034407517
 30
0.0
 11
1705.381840457014
 21
893.6760231125738
 31
0.0
  0
LINE
  5
6C6B
330
1E
100
AcDbEntity
  8
躯体と製品
  6
Continuous
 62
     4
100
AcDbLine
 10
1712.824494992416
 20
892.3854120523905
 30
0.0
 11
1711.874130432299
 21
893.3357766125073
 31
0.0
  0
LINE
  5
6C6C
330
1E
100
AcDbEntity
  8
躯体と製品
  6
Continuous
 62
     4
100
AcDbLine
 10
1712.75407001676
 20
891.0416234656731
 30
0.0
 11
1710.381702010606
 21
893.4139914718269
 31
0.0
  0
LINE
  5
6C6D
330
1E
100
AcDbEntity
  8
躯体と製品
  6
Continuous
 62
     4
100
AcDbLine
 10
1712.683645041105
 20
889.6978348789552
 30
0.0
 11
1708.889273588913
 21
893.4922063311468
 31
0.0
  0
LINE
  5
6C6E
330
1E
100
AcDbEntity
  8
躯体と製品
  6
Continuous
 62
     4
100
AcDbLine
 10
1711.623863178154
 20
889.3434031795328
 30
0.0
 11
1707.39684516722
 21
893.5704211904665
 31
0.0
  0
LINE
  5
6C6F
330
1E
100
AcDbEntity
  8
躯体と製品
  6
Continuous
 62
     4
100
AcDbLine
 10
1710.13143475646
 20
889.4216180388525
 30
0.0
 11
1705.904416745526
 21
893.6486360497864
 31
0.0
  0
LINE
  5
6C70
330
1E
100
AcDbEntity
  8
躯体と製品
  6
Continuous
 62
     4
100
AcDbLine
 10
1708.639006334767
 20
889.4998328981726
 30
0.0
 11
1704.508581673927
 21
893.6302575590127
 31
0.0
  0
LINE
  5
6C71
330
1E
100
AcDbEntity
  8
躯体と製品
  6
Continuous
 62
     4
100
AcDbLine
 10
1707.146577913074
 20
889.5780477574922
 30
0.0
 11
1703.16479308721
 21
893.559832583357
 31
0.0
  0
LINE
  5
6C72
330
1E
100
AcDbEntity
  8
躯体と製品
  6
Continuous
 62
     4
100
AcDbLine
 10
1705.654149491382
 20
889.6562626168126
 30
0.0
 11
1701.821004500493
 21
893.4894076077014
 31
0.0
  0
LINE
  5
6C73
330
1E
100
AcDbEntity
  8
躯体と製品
  6
Continuous
 62
     4
100
AcDbLine
 10
1704.28324002614
 20
889.6129585196808
 30
0.0
 11
1700.477215913776
 21
893.4189826320457
 31
0.0
  0
LINE
  5
6C74
330
1E
100
AcDbEntity
  8
躯体と製品
  6
Continuous
 62
     4
100
AcDbLine
 10
1698.657674313013
 20
893.8243106704351
 30
0.0
 11
1698.069088625635
 21
894.4128963578137
 31
0.0
  0
LINE
  5
6C75
330
1E
100
AcDbEntity
  8
躯体と製品
  6
Continuous
 62
     4
100
AcDbLine
 10
1702.939451439423
 20
889.5425335440247
 30
0.0
 11
1699.133427327058
 21
893.3485576563898
 31
0.0
  0
LINE
  5
6C76
330
1E
100
AcDbEntity
  8
躯体と製品
  6
Continuous
 62
     4
100
AcDbLine
 10
1701.595662852706
 20
889.4721085683693
 30
0.0
 11
1697.898083779644
 21
893.1696876414305
 31
0.0
  0
LINE
  5
6C77
330
1E
100
AcDbEntity
  8
躯体と製品
  6
Continuous
 62
     4
100
AcDbLine
 10
1700.251874265989
 20
889.401683592713
 30
0.0
 11
1697.976298638964
 21
891.6772592197375
 31
0.0
  0
LINE
  5
6C78
330
1E
100
AcDbEntity
  8
躯体と製品
  6
Continuous
 62
     4
100
AcDbLine
 10
1698.90808567927
 20
889.3312586170576
 30
0.0
 11
1698.054513498284
 21
890.184830798044
 31
0.0
  0
ARC
  5
6C79
330
1E
100
AcDbEntity
  8
躯体と製品
  6
Continuous
 62
     7
100
AcDbCircle
 10
1755.398504809348
 20
836.6689415637599
 30
0.0
 40
1.0
100
AcDbArc
 50
90.95484125386787
 51
175.0000000000005
  0
ARC
  5
6C7A
330
1E
100
AcDbEntity
  8
躯体と製品
  6
Continuous
 62
     7
100
AcDbCircle
 10
1655.36517610468
 20
836.6689415637599
 30
0.0
 40
1.0
100
AcDbArc
 50
4.999999999999459
 51
89.0451587461321
  0
LINE
  5
6C7B
330
1E
100
AcDbEntity
  8
躯体と製品
  6
DASHED1
 62
     7
100
AcDbLine
 10
1479.061652954014
 20
879.5377144813878
 30
0.0
 11
1484.862443785208
 21
879.8417210469365
 31
0.0
  0
LINE
  5
6C7C
330
1E
100
AcDbEntity
  8
躯体と製品
  6
DASHED1
 62
     7
100
AcDbLine
 10
1478.826141150921
 20
884.0315473877838
 30
0.0
 11
1484.626931982115
 21
884.335553953332
 31
0.0
  0
LINE
  5
6C7D
330
1E
100
AcDbEntity
  8
躯体と製品
  6
DASHED1
 62
     7
100
AcDbLine
 10
1931.702027960014
 20
879.5377144813878
 30
0.0
 11
1925.90123712882
 21
879.8417210469365
 31
0.0
  0
LINE
  5
6C7E
330
1E
100
AcDbEntity
  8
躯体と製品
  6
DASHED1
 62
     7
100
AcDbLine
 10
1931.937539763107
 20
884.0315473877838
 30
0.0
 11
1926.136748931913
 21
884.335553953332
 31
0.0
  0
ARC
  5
6C7F
330
1E
100
AcDbEntity
  8
躯体と製品
  6
DASHED1
 62
     7
100
AcDbCircle
 10
1479.218660822743
 20
876.5418258771244
 30
0.0
 40
3.0
100
AcDbArc
 50
93.00000000000558
 51
169.8753283446035
  0
ARC
  5
6C80
330
1E
100
AcDbEntity
  8
躯体と製品
  6
DASHED1
 62
     7
100
AcDbCircle
 10
1479.218660822743
 20
876.5418258771244
 30
0.0
 40
7.5
100
AcDbArc
 50
93.00000000000558
 51
169.8753283446035
  0
LINE
  5
6C81
330
1E
100
AcDbEntity
  8
躯体と製品
  6
DASHED1
 62
     7
100
AcDbLine
 10
1476.265378096218
 20
877.069197792575
 30
0.0
 11
1462.311764546802
 21
798.9289619158487
 31
0.0
  0
LINE
  5
6C82
330
1E
100
AcDbEntity
  8
躯体と製品
  6
DASHED1
 62
     7
100
AcDbLine
 10
1457.881840457014
 20
799.7200197890256
 30
0.0
 11
1462.311764546739
 21
798.9289619154931
 31
0.0
  0
LINE
  5
6C83
330
1E
100
AcDbEntity
  8
躯体と製品
  6
DASHED1
 62
     7
100
AcDbLine
 10
1471.83545400643
 20
877.8602556657519
 30
0.0
 11
1457.881840457014
 21
799.7200197890256
 31
0.0
  0
ARC
  5
6C84
330
1E
100
AcDbEntity
  8
躯体と製品
  6
DASHED1
 62
     7
100
AcDbCircle
 10
1931.545020091285
 20
876.5418258771244
 30
0.0
 40
3.0
100
AcDbArc
 50
10.12467165539644
 51
86.99999999999441
  0
ARC
  5
6C85
330
1E
100
AcDbEntity
  8
躯体と製品
  6
DASHED1
 62
     7
100
AcDbCircle
 10
1931.545020091285
 20
876.5418258771244
 30
0.0
 40
7.5
100
AcDbArc
 50
10.12467165539644
 51
86.99999999999441
  0
LINE
  5
6C86
330
1E
100
AcDbEntity
  8
躯体と製品
  6
DASHED1
 62
     7
100
AcDbLine
 10
1934.49830281781
 20
877.069197792575
 30
0.0
 11
1948.451916367226
 21
798.9289619158487
 31
0.0
  0
LINE
  5
6C87
330
1E
100
AcDbEntity
  8
躯体と製品
  6
DASHED1
 62
     7
100
AcDbLine
 10
1952.881840457014
 20
799.7200197890256
 30
0.0
 11
1948.451916367289
 21
798.9289619154931
 31
0.0
  0
LINE
  5
6C88
330
1E
100
AcDbEntity
  8
躯体と製品
  6
DASHED1
 62
     7
100
AcDbLine
 10
1938.928226907599
 20
877.8602556657519
 30
0.0
 11
1952.881840457014
 21
799.7200197890256
 31
0.0
  0
LINE
  5
6C89
330
1E
100
AcDbEntity
  8
躯体と製品
  6
Continuous
 62
     4
100
AcDbLine
 10
1913.09938413142
 20
883.2906941034694
 30
0.0
 11
1911.275689140076
 21
885.1143890948144
 31
0.0
  0
LINE
  5
6C8A
330
1E
100
AcDbEntity
  8
躯体と製品
  6
Continuous
 62
     4
100
AcDbLine
 10
1914.591812553115
 20
883.2124792441495
 30
0.0
 11
1912.768117561769
 21
885.0361742354948
 31
0.0
  0
LINE
  5
6C8B
330
1E
100
AcDbEntity
  8
躯体と製品
  6
Continuous
 62
     4
100
AcDbLine
 10
1916.084240974808
 20
883.1342643848291
 30
0.0
 11
1914.260545983463
 21
884.9579593761747
 31
0.0
  0
LINE
  5
6C8C
330
1E
100
AcDbEntity
  8
躯体と製品
  6
Continuous
 62
     4
100
AcDbLine
 10
1917.576669396501
 20
883.0560495255095
 30
0.0
 11
1915.752974405155
 21
884.8797445168548
 31
0.0
  0
LINE
  5
6C8D
330
1E
100
AcDbEntity
  8
躯体と製品
  6
Continuous
 62
     4
100
AcDbLine
 10
1919.069097818194
 20
882.9778346661898
 30
0.0
 11
1917.245402826849
 21
884.8015296575352
 31
0.0
  0
LINE
  5
6C8E
330
1E
100
AcDbEntity
  8
躯体と製品
  6
Continuous
 62
     4
100
AcDbLine
 10
1920.561526239887
 20
882.8996198068699
 30
0.0
 11
1918.737831248542
 21
884.7233147982151
 31
0.0
  0
LINE
  5
6C8F
330
1E
100
AcDbEntity
  8
躯体と製品
  6
Continuous
 62
     4
100
AcDbLine
 10
1922.053954661581
 20
882.82140494755
 30
0.0
 11
1920.230259670235
 21
884.6450999388952
 31
0.0
  0
LINE
  5
6C90
330
1E
100
AcDbEntity
  8
躯体と製品
  6
Continuous
 62
     4
100
AcDbLine
 10
1923.546383083274
 20
882.7431900882304
 30
0.0
 11
1921.722688091928
 21
884.5668850795757
 31
0.0
  0
LINE
  5
6C91
330
1E
100
AcDbEntity
  8
躯体と製品
  6
Continuous
 62
     4
100
AcDbLine
 10
1925.038811504965
 20
882.664975228911
 30
0.0
 11
1923.215116513619
 21
884.4886702202556
 31
0.0
  0
LINE
  5
6C92
330
1E
100
AcDbEntity
  8
躯体と製品
  6
Continuous
 62
     4
100
AcDbLine
 10
1926.069307401583
 20
883.0486928946655
 30
0.0
 11
1924.707544935313
 21
884.4104553609358
 31
0.0
  0
LINE
  5
6C93
330
1E
100
AcDbEntity
  8
躯体と製品
  6
Continuous
 62
     7
100
AcDbLine
 10
1926.046430110446
 20
882.6121681754328
 30
0.0
 11
1926.136748931913
 21
884.3355539533318
 31
0.0
  0
LINE
  5
6C94
330
1E
100
AcDbEntity
  8
躯体と製品
  6
Continuous
 62
     7
100
AcDbLine
 10
1911.066987089127
 20
883.3972075190768
 30
0.0
 11
1911.157305910595
 21
885.1205932969758
 31
0.0
  0
ARC
  5
6C95
330
1E
100
AcDbEntity
  8
躯体と製品
  6
Continuous
 62
     3
100
AcDbCircle
 10
1458.381840457014
 20
881.9587346434232
 30
0.0
 40
3.0
100
AcDbArc
 50
93.00000000000558
 51
180.0
  0
ARC
  5
6C96
330
1E
100
AcDbEntity
  8
躯体と製品
  6
Continuous
 62
     3
100
AcDbCircle
 10
1458.381840457014
 20
797.8056283435678
 30
0.0
 40
3.0
100
AcDbArc
 50
180.0
 51
270.0
  0
ARC
  5
6C97
330
1E
100
AcDbEntity
  8
躯体と製品
  6
Continuous
 62
     3
100
AcDbCircle
 10
1458.381840457014
 20
881.9587346434232
 30
0.0
 40
1.0
100
AcDbArc
 50
93.00000000000558
 51
180.0
  0
LINE
  5
6C98
330
1E
100
AcDbEntity
  8
躯体と製品
  6
Continuous
 62
     3
100
AcDbLine
 10
1457.381840457014
 20
797.8056283435678
 30
0.0
 11
1457.381840457014
 21
881.9587346434232
 31
0.0
  0
LINE
  5
6C99
330
1E
100
AcDbEntity
  8
躯体と製品
  6
Continuous
 62
     3
100
AcDbLine
 10
1458.381840457014
 20
796.8056283435678
 30
0.0
 11
1465.381840457014
 21
796.8056283435678
 31
0.0
  0
ARC
  5
6C9A
330
1E
100
AcDbEntity
  8
躯体と製品
  6
Continuous
 62
     3
100
AcDbCircle
 10
1458.381840457014
 20
797.8056283435678
 30
0.0
 40
1.0
100
AcDbArc
 50
180.0
 51
270.0
  0
LINE
  5
6C9B
330
1E
100
AcDbEntity
  8
躯体と製品
  6
Continuous
 62
     3
100
AcDbLine
 10
1465.381840457014
 20
794.8056283435678
 30
0.0
 11
1465.381840457014
 21
796.8056283435678
 31
0.0
  0
POINT
  5
6C9C
330
1E
100
AcDbEntity
  8
躯体と製品
 62
     4
100
AcDbPoint
 10
1455.381840457014
 20
884.8056283435676
 30
0.0
  0
LINE
  5
6C9D
330
1E
100
AcDbEntity
  8
躯体と製品
  6
Continuous
 62
     3
100
AcDbLine
 10
1458.224832588285
 20
884.9546232476871
 30
0.0
 11
1705.381840457014
 21
897.907573164328
 31
0.0
  0
LINE
  5
6C9E
330
1E
100
AcDbEntity
  8
躯体と製品
  6
Continuous
 62
     3
100
AcDbLine
 10
1458.329504500771
 20
882.9573641781776
 30
0.0
 11
1705.381840457014
 21
895.9048284723323
 31
0.0
  0
LINE
  5
6C9F
330
1E
100
AcDbEntity
  8
躯体と製品
  6
Continuous
 62
     3
100
AcDbLine
 10
1952.381840457014
 20
794.8056283435678
 30
0.0
 11
1945.381840457014
 21
794.8056283435678
 31
0.0
  0
ARC
  5
6CA0
330
1E
100
AcDbEntity
  8
躯体と製品
  6
Continuous
 62
     3
100
AcDbCircle
 10
1952.381840457014
 20
881.9587346434232
 30
0.0
 40
3.0
100
AcDbArc
 50
0.0
 51
86.99999999999441
  0
ARC
  5
6CA1
330
1E
100
AcDbEntity
  8
躯体と製品
  6
Continuous
 62
     3
100
AcDbCircle
 10
1952.381840457014
 20
797.8056283435678
 30
0.0
 40
3.0
100
AcDbArc
 50
270.0
 51
0.0
  0
ARC
  5
6CA2
330
1E
100
AcDbEntity
  8
躯体と製品
  6
Continuous
 62
     3
100
AcDbCircle
 10
1952.381840457014
 20
881.9587346434232
 30
0.0
 40
1.0
100
AcDbArc
 50
0.0
 51
86.99999999999441
  0
LINE
  5
6CA3
330
1E
100
AcDbEntity
  8
躯体と製品
  6
Continuous
 62
     3
100
AcDbLine
 10
1953.381840457014
 20
797.8056283435678
 30
0.0
 11
1953.381840457014
 21
881.9587346434232
 31
0.0
  0
LINE
  5
6CA4
330
1E
100
AcDbEntity
  8
躯体と製品
  6
Continuous
 62
     3
100
AcDbLine
 10
1952.381840457014
 20
796.8056283435678
 30
0.0
 11
1945.381840457014
 21
796.8056283435678
 31
0.0
  0
ARC
  5
6CA5
330
1E
100
AcDbEntity
  8
躯体と製品
  6
Continuous
 62
     3
100
AcDbCircle
 10
1952.381840457014
 20
797.8056283435678
 30
0.0
 40
1.0
100
AcDbArc
 50
270.0
 51
0.0
  0
LINE
  5
6CA6
330
1E
100
AcDbEntity
  8
躯体と製品
  6
Continuous
 62
     3
100
AcDbLine
 10
1945.381840457014
 20
794.8056283435678
 30
0.0
 11
1945.381840457014
 21
796.8056283435678
 31
0.0
  0
POINT
  5
6CA7
330
1E
100
AcDbEntity
  8
躯体と製品
 62
     4
100
AcDbPoint
 10
1955.381840457014
 20
884.8056283435676
 30
0.0
  0
LINE
  5
6CA8
330
1E
100
AcDbEntity
  8
躯体と製品
  6
Continuous
 62
     3
100
AcDbLine
 10
1955.381840457014
 20
881.9587346434232
 30
0.0
 11
1955.381840457014
 21
797.8056283435678
 31
0.0
  0
LINE
  5
6CA9
330
1E
100
AcDbEntity
  8
躯体と製品
  6
Continuous
 62
     3
100
AcDbLine
 10
1952.538848325743
 20
884.9546232476871
 30
0.0
 11
1705.381840457014
 21
897.907573164328
 31
0.0
  0
LINE
  5
6CAA
330
1E
100
AcDbEntity
  8
躯体と製品
  6
Continuous
 62
     3
100
AcDbLine
 10
1952.434176413257
 20
882.9573641781776
 30
0.0
 11
1705.381840457014
 21
895.9048284723323
 31
0.0
  0
LINE
  5
6CAB
330
1E
100
AcDbEntity
  8
躯体と製品
  6
Continuous
 62
     7
100
AcDbLine
 10
1930.82241588419
 20
841.3014996605902
 30
0.0
 11
1928.76100948586
 21
817.7395167104238
 31
0.0
  0
LINE
  5
6CAC
330
1E
100
AcDbEntity
  8
躯体と製品
  6
Continuous
 62
     7
100
AcDbLine
 10
1929.826221186099
 20
841.3886554033378
 30
0.0
 11
1927.764814787768
 21
817.8266724531718
 31
0.0
  0
LINE
  5
6CAD
330
1E
100
AcDbEntity
  8
躯体と製品
  6
Continuous
 62
     7
100
AcDbLine
 10
1881.349475381207
 20
836.7563663600865
 30
0.0
 11
1883.013234141529
 21
817.7395167104238
 31
0.0
  0
ARC
  5
6CAE
330
1E
100
AcDbEntity
  8
躯体と製品
  6
Continuous
 62
     7
100
AcDbCircle
 10
1905.887121813695
 20
819.740722572504
 30
0.0
 40
22.96126220705753
100
AcDbArc
 50
184.9999999999994
 51
355.0000000000006
  0
LINE
  5
6CAF
330
1E
100
AcDbEntity
  8
躯体と製品
  6
Continuous
 62
     7
100
AcDbLine
 10
1882.345670079298
 20
836.843522102834
 30
0.0
 11
1884.009428839621
 21
817.8266724531718
 31
0.0
  0
ARC
  5
6CB0
330
1E
100
AcDbEntity
  8
躯体と製品
  6
Continuous
 62
     7
100
AcDbCircle
 10
1905.887121813695
 20
819.740722572504
 30
0.0
 40
21.96126220705753
100
AcDbArc
 50
184.9999999999994
 51
355.0000000000006
  0
ARC
  5
6CB1
330
1E
100
AcDbEntity
  8
躯体と製品
  6
Continuous
 62
     7
100
AcDbCircle
 10
1880.353280683115
 20
836.6692106173388
 30
0.0
 40
1.0
100
AcDbArc
 50
4.999999999999459
 51
88.3634229583817
  0
LINE
  5
6CB2
330
1E
100
AcDbEntity
  8
躯体と製品
  6
Continuous
 62
     7
100
AcDbLine
 10
1529.414205532821
 20
836.7563663600865
 30
0.0
 11
1527.750446772499
 21
817.7395167104238
 31
0.0
  0
ARC
  5
6CB3
330
1E
100
AcDbEntity
  8
躯体と製品
  6
Continuous
 62
     7
100
AcDbCircle
 10
1504.876559100333
 20
819.740722572504
 30
0.0
 40
22.96126220705753
100
AcDbArc
 50
184.9999999999994
 51
355.0000000000006
  0
LINE
  5
6CB4
330
1E
100
AcDbEntity
  8
躯体と製品
  6
Continuous
 62
     7
100
AcDbLine
 10
1528.41801083473
 20
836.843522102834
 30
0.0
 11
1526.754252074407
 21
817.8266724531718
 31
0.0
  0
ARC
  5
6CB5
330
1E
100
AcDbEntity
  8
躯体と製品
  6
Continuous
 62
     7
100
AcDbCircle
 10
1504.876559100333
 20
819.740722572504
 30
0.0
 40
21.96126220705753
100
AcDbArc
 50
184.9999999999994
 51
355.0000000000006
  0
LINE
  5
6CB6
330
1E
100
AcDbEntity
  8
躯体と製品
  6
Continuous
 62
     7
100
AcDbLine
 10
1480.93745972793
 20
841.3886554033378
 30
0.0
 11
1482.99886612626
 21
817.8266724531718
 31
0.0
  0
LINE
  5
6CB7
330
1E
100
AcDbEntity
  8
躯体と製品
  6
Continuous
 62
     7
100
AcDbLine
 10
1479.941265029838
 20
841.3014996605902
 30
0.0
 11
1482.002671428168
 21
817.7395167104238
 31
0.0
  0
ARC
  5
6CB8
330
1E
100
AcDbEntity
  8
躯体と製品
  6
Continuous
 62
     7
100
AcDbCircle
 10
1530.410400230913
 20
836.6692106173388
 30
0.0
 40
1.0
100
AcDbArc
 50
91.63657704161829
 51
175.0000000000005
  0
LINE
  5
6CB9
330
1E
100
AcDbEntity
  8
躯体と製品
  6
Continuous
 62
     3
100
AcDbLine
 10
1591.381840457014
 20
855.9558644407095
 30
0.0
 11
1591.381840457014
 21
848.6688027037995
 31
0.0
  0
LINE
  5
6CBA
330
1E
100
AcDbEntity
  8
躯体と製品
  6
Continuous
 62
     3
100
AcDbLine
 10
1596.381840457014
 20
846.5688027037996
 30
0.0
 11
1591.881840457014
 21
846.5688027037996
 31
0.0
  0
LINE
  5
6CBB
330
1E
100
AcDbEntity
  8
躯体と製品
  6
Continuous
 62
     3
100
AcDbLine
 10
1596.381840457014
 20
846.5688027037996
 30
0.0
 11
1596.381840457014
 21
848.1688027037996
 31
0.0
  0
LINE
  5
6CBC
330
1E
100
AcDbEntity
  8
躯体と製品
  6
Continuous
 62
     3
100
AcDbLine
 10
1596.381840457014
 20
848.1688027037996
 30
0.0
 11
1591.881840457014
 21
848.1688027037996
 31
0.0
  0
ARC
  5
6CBD
330
1E
100
AcDbEntity
  8
躯体と製品
  6
Continuous
 62
     3
100
AcDbCircle
 10
1591.881840457014
 20
848.6688027037995
 30
0.0
 40
2.1
100
AcDbArc
 50
180.0
 51
270.0
  0
ARC
  5
6CBE
330
1E
100
AcDbEntity
  8
躯体と製品
  6
Continuous
 62
     3
100
AcDbCircle
 10
1591.881840457014
 20
848.6688027037995
 30
0.0
 40
0.5
100
AcDbArc
 50
180.0
 51
270.0
  0
LINE
  5
6CBF
330
1E
100
AcDbEntity
  8
躯体と製品
  6
Continuous
 62
     3
100
AcDbLine
 10
1564.381840457014
 20
846.5688027037996
 30
0.0
 11
1568.881840457014
 21
846.5688027037996
 31
0.0
  0
LINE
  5
6CC0
330
1E
100
AcDbEntity
  8
躯体と製品
  6
Continuous
 62
     3
100
AcDbLine
 10
1568.881840457014
 20
848.1688027037996
 30
0.0
 11
1564.381840457014
 21
848.1688027037996
 31
0.0
  0
LINE
  5
6CC1
330
1E
100
AcDbEntity
  8
躯体と製品
  6
Continuous
 62
     3
100
AcDbLine
 10
1564.381840457014
 20
848.1688027037996
 30
0.0
 11
1564.381840457014
 21
846.5688027037996
 31
0.0
  0
ARC
  5
6CC2
330
1E
100
AcDbEntity
  8
躯体と製品
  6
Continuous
 62
     3
100
AcDbCircle
 10
1568.881840457014
 20
848.6688027037995
 30
0.0
 40
2.1
100
AcDbArc
 50
270.0
 51
0.0
  0
ARC
  5
6CC3
330
1E
100
AcDbEntity
  8
躯体と製品
  6
Continuous
 62
     3
100
AcDbCircle
 10
1568.881840457014
 20
848.6688027037995
 30
0.0
 40
0.5
100
AcDbArc
 50
270.0
 51
0.0
  0
LINE
  5
6CC4
330
1E
100
AcDbEntity
  8
躯体と製品
  6
Continuous
 62
     3
100
AcDbLine
 10
1589.781840457014
 20
855.9558644407095
 30
0.0
 11
1589.781840457014
 21
848.6688027037995
 31
0.0
  0
ARC
  5
6CC5
330
1E
100
AcDbEntity
  8
躯体と製品
  6
Continuous
 62
     3
100
AcDbCircle
 10
1589.281840457014
 20
855.9558644407095
 30
0.0
 40
0.5
100
AcDbArc
 50
0.0
 51
93.00000000000558
  0
LINE
  5
6CC6
330
1E
100
AcDbEntity
  8
躯体と製品
  6
Continuous
 62
     3
100
AcDbLine
 10
1570.981840457014
 20
855.0230059694714
 30
0.0
 11
1570.981840457014
 21
848.6688027037995
 31
0.0
  0
ARC
  5
6CC7
330
1E
100
AcDbEntity
  8
躯体と製品
  6
Continuous
 62
     3
100
AcDbCircle
 10
1571.481840457014
 20
855.0230059694714
 30
0.0
 40
0.5
100
AcDbArc
 50
93.00000000000558
 51
180.0
  0
ARC
  5
6CC8
330
1E
100
AcDbEntity
  8
躯体と製品
  6
Continuous
 62
     3
100
AcDbCircle
 10
1589.281840457014
 20
855.9558644407095
 30
0.0
 40
2.1
100
AcDbArc
 50
0.0
 51
93.00000000000558
  0
LINE
  5
6CC9
330
1E
100
AcDbEntity
  8
躯体と製品
  6
Continuous
 62
     3
100
AcDbLine
 10
1569.381840457014
 20
855.0230059694714
 30
0.0
 11
1569.381840457014
 21
848.6688027037995
 31
0.0
  0
ARC
  5
6CCA
330
1E
100
AcDbEntity
  8
躯体と製品
  6
Continuous
 62
     3
100
AcDbCircle
 10
1571.481840457014
 20
855.0230059694714
 30
0.0
 40
2.1
100
AcDbArc
 50
93.00000000000558
 51
180.0
  0
LINE
  5
6CCB
330
1E
100
AcDbEntity
  8
躯体と製品
  6
Continuous
 62
     3
100
AcDbLine
 10
1575.976554039618
 20
853.756505407852
 30
0.0
 11
1585.16394575936
 21
854.2379962052873
 31
0.0
  0
LINE
  5
6CCC
330
1E
100
AcDbEntity
  8
躯体と製品
  6
Continuous
 62
     3
100
AcDbLine
 10
1585.111609803117
 20
855.2366257400418
 30
0.0
 11
1585.16394575936
 21
854.2379962052873
 31
0.0
  0
ARC
  5
6CCD
330
1E
100
AcDbEntity
  8
躯体と製品
  6
Continuous
 62
     3
100
AcDbCircle
 10
1586.110239337871
 20
855.2889616962847
 30
0.0
 40
1.0
100
AcDbArc
 50
93.00000000000558
 51
182.9999999999989
  0
LINE
  5
6CCE
330
1E
100
AcDbEntity
  8
躯体と製品
  6
Continuous
 62
     3
100
AcDbLine
 10
1575.924218083375
 20
854.7551349426067
 30
0.0
 11
1575.976554039618
 21
853.756505407852
 31
0.0
  0
ARC
  5
6CCF
330
1E
100
AcDbEntity
  8
躯体と製品
  6
Continuous
 62
     3
100
AcDbCircle
 10
1574.92558854862
 20
854.7027989863636
 30
0.0
 40
1.0
100
AcDbArc
 50
2.999999999998919
 51
93.00000000000558
  0
LINE
  5
6CD0
330
1E
100
AcDbEntity
  8
躯体と製品
  6
Continuous
 62
     3
100
AcDbLine
 10
1571.455672478893
 20
855.5223207368488
 30
0.0
 11
1589.255672478892
 21
856.4551792080868
 31
0.0
  0
LINE
  5
6CD1
330
1E
100
AcDbEntity
  8
躯体と製品
  6
Continuous
 62
     3
100
AcDbLine
 10
1571.371934948904
 20
857.120127992456
 30
0.0
 11
1589.171934948904
 21
858.0529864636941
 31
0.0
  0
LINE
  5
6CD2
330
1E
100
AcDbEntity
  8
躯体と製品
  6
DASHED1
 62
     7
100
AcDbLine
 10
1583.377729061278
 20
857.7493250004149
 30
0.0
 11
1583.566138503752
 21
854.1542586752985
 31
0.0
  0
LINE
  5
6CD3
330
1E
100
AcDbEntity
  8
躯体と製品
  6
DASHED1
 62
     7
100
AcDbLine
 10
1577.38595185275
 20
857.4353092629573
 30
0.0
 11
1577.574361295225
 21
853.8402429378409
 31
0.0
  0
LINE
  5
6CD4
330
1E
100
AcDbEntity
  8
躯体と製品
  6
Continuous
 62
     4
100
AcDbLine
 10
1594.381840457014
 20
848.1688027037996
 30
0.0
 11
1594.381840457014
 21
846.5688027037996
 31
0.0
  0
LINE
  5
6CD5
330
1E
100
AcDbEntity
  8
躯体と製品
  6
Continuous
 62
     4
100
AcDbLine
 10
1566.381840457014
 20
848.1688027037996
 30
0.0
 11
1566.381840457014
 21
846.5688027037996
 31
0.0
  0
LINE
  5
6CD6
330
1E
100
AcDbEntity
  8
躯体と製品
  6
DASHED1
 62
     7
100
AcDbLine
 10
1576.331840457014
 20
839.6688027037995
 30
0.0
 11
1576.331840457014
 21
830.3688027037994
 31
0.0
  0
LINE
  5
6CD7
330
1E
100
AcDbEntity
  8
躯体と製品
  6
DASHED1
 62
     7
100
AcDbLine
 10
1584.431840457014
 20
839.6688027037995
 30
0.0
 11
1584.431840457014
 21
830.3688027037994
 31
0.0
  0
LINE
  5
6CD8
330
1E
100
AcDbEntity
  8
躯体と製品
  6
DASHED1
 62
     7
100
AcDbLine
 10
1575.631840457014
 20
829.6688027037996
 30
0.0
 11
1576.331840457014
 21
830.3688027037994
 31
0.0
  0
LINE
  5
6CD9
330
1E
100
AcDbEntity
  8
躯体と製品
  6
DASHED1
 62
     7
100
AcDbLine
 10
1575.631840457014
 20
811.0406287037994
 30
0.0
 11
1575.631840457014
 21
829.6688027037996
 31
0.0
  0
LINE
  5
6CDA
330
1E
100
AcDbEntity
  8
躯体と製品
  6
DASHED1
 62
     7
100
AcDbLine
 10
1575.881840457014
 20
799.1688027037996
 30
0.0
 11
1575.881840457014
 21
800.0321067037996
 31
0.0
  0
LINE
  5
6CDB
330
1E
100
AcDbEntity
  8
躯体と製品
  6
DASHED1
 62
     7
100
AcDbLine
 10
1573.756810457014
 20
800.4068067037994
 30
0.0
 11
1575.631840457014
 21
811.0406287037994
 31
0.0
  0
LINE
  5
6CDC
330
1E
100
AcDbEntity
  8
躯体と製品
  6
DASHED1
 62
     7
100
AcDbLine
 10
1579.881840457014
 20
810.6688027037996
 30
0.0
 11
1580.881840457014
 21
810.6688027037996
 31
0.0
  0
LINE
  5
6CDD
330
1E
100
AcDbEntity
  8
躯体と製品
  6
DASHED1
 62
     7
100
AcDbLine
 10
1585.131840457014
 20
829.6688027037996
 30
0.0
 11
1584.431840457014
 21
830.3688027037994
 31
0.0
  0
LINE
  5
6CDE
330
1E
100
AcDbEntity
  8
躯体と製品
  6
DASHED1
 62
     7
100
AcDbLine
 10
1585.131840457014
 20
811.0406287037994
 30
0.0
 11
1585.131840457014
 21
829.6688027037996
 31
0.0
  0
LINE
  5
6CDF
330
1E
100
AcDbEntity
  8
躯体と製品
  6
DASHED1
 62
     7
100
AcDbLine
 10
1583.881840457014
 20
798.1688027037996
 30
0.0
 11
1576.881840457014
 21
798.1688027037996
 31
0.0
  0
ARC
  5
6CE0
330
1E
100
AcDbEntity
  8
躯体と製品
  6
DASHED1
 62
     7
100
AcDbCircle
 10
1583.881840457014
 20
799.1688027037996
 30
0.0
 40
1.0
100
AcDbArc
 50
270.0
 51
0.0
  0
LINE
  5
6CE1
330
1E
100
AcDbEntity
  8
躯体と製品
  6
DASHED1
 62
     7
100
AcDbLine
 10
1584.881840457014
 20
799.1688027037996
 30
0.0
 11
1584.881840457014
 21
800.0321067037996
 31
0.0
  0
LINE
  5
6CE2
330
1E
100
AcDbEntity
  8
躯体と製品
  6
DASHED1
 62
     7
100
AcDbLine
 10
1587.006870457014
 20
800.4068067037994
 30
0.0
 11
1582.821437457014
 21
799.6688027037996
 31
0.0
  0
LINE
  5
6CE3
330
1E
100
AcDbEntity
  8
躯体と製品
  6
DASHED1
 62
     7
100
AcDbLine
 10
1579.881840457014
 20
810.6688027037996
 30
0.0
 11
1577.942243457014
 21
799.6688027037996
 31
0.0
  0
LINE
  5
6CE4
330
1E
100
AcDbEntity
  8
躯体と製品
  6
DASHED1
 62
     7
100
AcDbLine
 10
1580.881840457014
 20
810.6688027037996
 30
0.0
 11
1582.821437457014
 21
799.6688027037996
 31
0.0
  0
LINE
  5
6CE5
330
1E
100
AcDbEntity
  8
躯体と製品
  6
DASHED1
 62
     7
100
AcDbLine
 10
1587.006870457014
 20
800.4068067037994
 30
0.0
 11
1585.131840457014
 21
811.0406287037994
 31
0.0
  0
LINE
  5
6CE6
330
1E
100
AcDbEntity
  8
躯体と製品
  6
DASHED1
 62
     7
100
AcDbLine
 10
1575.631840457014
 20
829.6688027037996
 30
0.0
 11
1585.131840457014
 21
829.6688027037996
 31
0.0
  0
LINE
  5
6CE7
330
1E
100
AcDbEntity
  8
躯体と製品
  6
DASHED1
 62
     7
100
AcDbLine
 10
1576.331840457014
 20
830.3688027037994
 30
0.0
 11
1584.431840457014
 21
830.3688027037994
 31
0.0
  0
LINE
  5
6CE8
330
1E
100
AcDbEntity
  8
躯体と製品
  6
DASHED1
 62
     7
100
AcDbLine
 10
1573.756810457014
 20
800.4068067037994
 30
0.0
 11
1577.942243457014
 21
799.6688027037996
 31
0.0
  0
ARC
  5
6CE9
330
1E
100
AcDbEntity
  8
躯体と製品
  6
DASHED1
 62
     7
100
AcDbCircle
 10
1576.881840457014
 20
799.1688027037996
 30
0.0
 40
1.0
100
AcDbArc
 50
180.0
 51
270.0
  0
ARC
  5
6CEA
330
1E
100
AcDbEntity
  8
躯体と製品
  6
Continuous
 62
     3
100
AcDbCircle
 10
1551.824530190431
 20
842.6688027037997
 30
0.0
 40
0.5
100
AcDbArc
 50
189.9999999999975
 51
270.0
  0
LINE
  5
6CEB
330
1E
100
AcDbEntity
  8
躯体と製品
  6
Continuous
 62
     3
100
AcDbLine
 10
1551.824530190431
 20
842.1688027037996
 30
0.0
 11
1554.870810026088
 21
842.1688027037996
 31
0.0
  0
LINE
  5
6CEC
330
1E
100
AcDbEntity
  8
躯体と製品
  6
Continuous
 62
     3
100
AcDbLine
 10
1551.332126313925
 20
842.5819786149659
 30
0.0
 11
1550.924931642365
 21
844.8912943528306
 31
0.0
  0
ARC
  5
6CED
330
1E
100
AcDbEntity
  8
躯体と製品
  6
Continuous
 62
     3
100
AcDbCircle
 10
1554.870810026088
 20
842.6688027037997
 30
0.0
 40
0.5
100
AcDbArc
 50
270.0
 51
9.999999999997477
  0
LINE
  5
6CEE
330
1E
100
AcDbEntity
  8
躯体と製品
  6
Continuous
 62
     3
100
AcDbLine
 10
1555.363213902595
 20
842.7556267926329
 30
0.0
 11
1554.864162654414
 21
845.585887063498
 31
0.0
  0
ARC
  5
6CEF
330
1E
100
AcDbEntity
  8
躯体と製品
  6
Continuous
 62
     3
100
AcDbCircle
 10
1557.409376555803
 20
842.6688027037997
 30
0.0
 40
0.5
100
AcDbArc
 50
189.9999999999975
 51
270.0
  0
LINE
  5
6CF0
330
1E
100
AcDbEntity
  8
躯体と製品
  6
Continuous
 62
     3
100
AcDbLine
 10
1557.409376555803
 20
842.1688027037996
 30
0.0
 11
1561.381840457014
 21
842.1688027037996
 31
0.0
  0
LINE
  5
6CF1
330
1E
100
AcDbEntity
  8
躯体と製品
  6
Continuous
 62
     3
100
AcDbLine
 10
1556.916972679297
 20
842.5819786149659
 30
0.0
 11
1555.777017706515
 21
849.0469845272885
 31
0.0
  0
LINE
  5
6CF2
330
1E
100
AcDbEntity
  8
躯体と製品
  6
Continuous
 62
     3
100
AcDbLine
 10
1554.690514476747
 20
846.5706948165102
 30
0.0
 11
1555.182918353253
 21
846.6575189053438
 31
0.0
  0
LINE
  5
6CF3
330
1E
100
AcDbEntity
  8
躯体と製品
  6
Continuous
 62
     3
100
AcDbLine
 10
1550.258879588192
 20
845.7892780170089
 30
0.0
 11
1550.751283464698
 21
845.8761021058426
 31
0.0
  0
LINE
  5
6CF4
330
1E
100
AcDbEntity
  8
躯体と製品
  6
Continuous
 62
     3
100
AcDbLine
 10
1554.51686629908
 20
847.5555025695227
 30
0.0
 11
1555.009270175586
 21
847.6423266583561
 31
0.0
  0
LINE
  5
6CF5
330
1E
100
AcDbEntity
  8
躯体と製品
  6
Continuous
 62
     3
100
AcDbLine
 10
1550.085231410525
 20
846.7740857700215
 30
0.0
 11
1550.577635287031
 21
846.8609098588551
 31
0.0
  0
LINE
  5
6CF6
330
1E
100
AcDbEntity
  8
躯体と製品
  6
Continuous
 62
     3
100
AcDbLine
 10
1549.881840457014
 20
842.1688027037996
 30
0.0
 11
1548.883363435429
 21
847.8314472836197
 31
0.0
  0
LINE
  5
6CF7
330
1E
100
AcDbEntity
  8
躯体と製品
  6
Continuous
 62
     3
100
AcDbLine
 10
1550.577635287031
 20
846.8609098588551
 30
0.0
 11
1550.360575064948
 21
848.0919195501201
 31
0.0
  0
LINE
  5
6CF8
330
1E
100
AcDbEntity
  8
躯体と製品
  6
Continuous
 62
     3
100
AcDbLine
 10
1554.51686629908
 20
847.5555025695227
 30
0.0
 11
1554.299806076996
 21
848.786512260788
 31
0.0
  0
LINE
  5
6CF9
330
1E
100
AcDbEntity
  8
躯体と製品
  6
Continuous
 62
     3
100
AcDbLine
 10
1550.258879588192
 20
845.7892780170089
 30
0.0
 11
1550.924931642365
 21
844.8912943528306
 31
0.0
  0
LINE
  5
6CFA
330
1E
100
AcDbEntity
  8
躯体と製品
  6
Continuous
 62
     3
100
AcDbLine
 10
1550.085231410525
 20
846.7740857700215
 30
0.0
 11
1550.751283464698
 21
845.8761021058426
 31
0.0
  0
ARC
  5
6CFB
330
1E
100
AcDbEntity
  8
躯体と製品
  6
Continuous
 62
     3
100
AcDbCircle
 10
1555.038411891755
 20
848.9167483940379
 30
0.0
 40
0.7500000000000014
100
AcDbArc
 50
9.999999999997477
 51
189.9999999999975
  0
ARC
  5
6CFC
330
1E
100
AcDbEntity
  8
躯体と製品
  6
Continuous
 62
     3
100
AcDbCircle
 10
1549.621969250188
 20
847.96168341687
 30
0.0
 40
0.7499999999999977
100
AcDbArc
 50
9.999999999997477
 51
189.9999999999975
  0
LINE
  5
6CFD
330
1E
100
AcDbEntity
  8
躯体と製品
  6
Continuous
 62
     3
100
AcDbLine
 10
1549.881840457014
 20
839.6688027037995
 30
0.0
 11
1549.881840457014
 21
842.1688027037996
 31
0.0
  0
LINE
  5
6CFE
330
1E
100
AcDbEntity
  8
躯体と製品
  6
Continuous
 62
     3
100
AcDbLine
 10
1598.381840457014
 20
839.6688027037995
 30
0.0
 11
1596.881840457014
 21
839.6688027037995
 31
0.0
  0
LINE
  5
6CFF
330
1E
100
AcDbEntity
  8
躯体と製品
  6
Continuous
 62
     3
100
AcDbLine
 10
1596.881840457014
 20
839.6688027037995
 30
0.0
 11
1596.881840457014
 21
840.1688027037996
 31
0.0
  0
LINE
  5
6D00
330
1E
100
AcDbEntity
  8
躯体と製品
  6
Continuous
 62
     3
100
AcDbLine
 10
1596.881840457014
 20
840.1688027037996
 30
0.0
 11
1585.381840457014
 21
840.1688027037996
 31
0.0
  0
LINE
  5
6D01
330
1E
100
AcDbEntity
  8
躯体と製品
  6
Continuous
 62
     3
100
AcDbLine
 10
1585.381840457014
 20
840.1688027037996
 30
0.0
 11
1585.381840457014
 21
839.6688027037995
 31
0.0
  0
ARC
  5
6D02
330
1E
100
AcDbEntity
  8
躯体と製品
  6
Continuous
 62
     3
100
AcDbCircle
 10
1593.631840457014
 20
848.9188027037997
 30
0.0
 40
0.75
100
AcDbArc
 50
90.0
 51
270.0
  0
ARC
  5
6D03
330
1E
100
AcDbEntity
  8
躯体と製品
  6
Continuous
 62
     3
100
AcDbCircle
 10
1594.631840457014
 20
844.9188027037996
 30
0.0
 40
0.75
100
AcDbArc
 50
90.0
 51
270.0
  0
ARC
  5
6D04
330
1E
100
AcDbEntity
  8
躯体と製品
  6
Continuous
 62
     3
100
AcDbCircle
 10
1596.581840457014
 20
847.8688027037993
 30
0.0
 40
0.2999999999999998
100
AcDbArc
 50
0.0
 51
90.0
  0
LINE
  5
6D05
330
1E
100
AcDbEntity
  8
躯体と製品
  6
Continuous
 62
     3
100
AcDbLine
 10
1596.581840457014
 20
848.1688027037996
 30
0.0
 11
1593.631840457014
 21
848.1688027037996
 31
0.0
  0
LINE
  5
6D06
330
1E
100
AcDbEntity
  8
躯体と製品
  6
Continuous
 62
     3
100
AcDbLine
 10
1596.581840457014
 20
845.6688027037996
 30
0.0
 11
1594.631840457014
 21
845.6688027037996
 31
0.0
  0
ARC
  5
6D07
330
1E
100
AcDbEntity
  8
躯体と製品
  6
Continuous
 62
     3
100
AcDbCircle
 10
1596.581840457014
 20
845.9688027037998
 30
0.0
 40
0.2999999999999998
100
AcDbArc
 50
270.0
 51
0.0
  0
LINE
  5
6D08
330
1E
100
AcDbEntity
  8
躯体と製品
  6
Continuous
 62
     3
100
AcDbLine
 10
1596.881840457014
 20
845.9688027037998
 30
0.0
 11
1596.881840457014
 21
847.8688027037993
 31
0.0
  0
ARC
  5
6D09
330
1E
100
AcDbEntity
  8
躯体と製品
  6
Continuous
 62
     3
100
AcDbCircle
 10
1596.581840457014
 20
843.8688027037994
 30
0.0
 40
0.2999999999999998
100
AcDbArc
 50
0.0
 51
90.0
  0
LINE
  5
6D0A
330
1E
100
AcDbEntity
  8
躯体と製品
  6
Continuous
 62
     3
100
AcDbLine
 10
1596.581840457014
 20
844.1688027037995
 30
0.0
 11
1594.631840457014
 21
844.1688027037995
 31
0.0
  0
ARC
  5
6D0B
330
1E
100
AcDbEntity
  8
躯体と製品
  6
Continuous
 62
     3
100
AcDbCircle
 10
1596.581840457014
 20
842.4688027037996
 30
0.0
 40
0.2999999999999998
100
AcDbArc
 50
270.0
 51
0.0
  0
LINE
  5
6D0C
330
1E
100
AcDbEntity
  8
躯体と製品
  6
Continuous
 62
     3
100
AcDbLine
 10
1596.881840457014
 20
842.4688027037996
 30
0.0
 11
1596.881840457014
 21
843.8688027037994
 31
0.0
  0
LINE
  5
6D0D
330
1E
100
AcDbEntity
  8
躯体と製品
  6
Continuous
 62
     3
100
AcDbLine
 10
1597.881840457014
 20
849.6688027037997
 30
0.0
 11
1593.631840457014
 21
849.6688027037997
 31
0.0
  0
ARC
  5
6D0E
330
1E
100
AcDbEntity
  8
躯体と製品
  6
Continuous
 62
     3
100
AcDbCircle
 10
1597.881840457014
 20
849.1688027037996
 30
0.0
 40
0.5
100
AcDbArc
 50
0.0
 51
90.0
  0
LINE
  5
6D0F
330
1E
100
AcDbEntity
  8
躯体と製品
  6
Continuous
 62
     3
100
AcDbLine
 10
1598.381840457014
 20
849.1688027037996
 30
0.0
 11
1598.381840457014
 21
839.6688027037995
 31
0.0
  0
LINE
  5
6D10
330
1E
100
AcDbEntity
  8
躯体と製品
  6
Continuous
 62
     3
100
AcDbLine
 10
1585.381840457014
 20
839.6688027037995
 30
0.0
 11
1575.381840457014
 21
839.6688027037995
 31
0.0
  0
LINE
  5
6D11
330
1E
100
AcDbEntity
  8
躯体と製品
  6
Continuous
 62
     3
100
AcDbLine
 10
1579.881840457014
 20
842.1688027037996
 30
0.0
 11
1564.181840457014
 21
842.1688027037996
 31
0.0
  0
LINE
  5
6D12
330
1E
100
AcDbEntity
  8
躯体と製品
  6
Continuous
 62
     3
100
AcDbLine
 10
1596.581840457014
 20
842.1688027037996
 30
0.0
 11
1580.881840457014
 21
842.1688027037996
 31
0.0
  0
LINE
  5
6D13
330
1E
100
AcDbEntity
  8
躯体と製品
  6
Continuous
 62
     3
100
AcDbLine
 10
1575.381840457014
 20
839.6688027037995
 30
0.0
 11
1575.381840457014
 21
840.1688027037996
 31
0.0
  0
LINE
  5
6D14
330
1E
100
AcDbEntity
  8
躯体と製品
  6
Continuous
 62
     3
100
AcDbLine
 10
1575.381840457014
 20
840.1688027037996
 30
0.0
 11
1563.881840457014
 21
840.1688027037996
 31
0.0
  0
LINE
  5
6D15
330
1E
100
AcDbEntity
  8
躯体と製品
  6
Continuous
 62
     3
100
AcDbLine
 10
1563.881840457014
 20
840.1688027037996
 30
0.0
 11
1563.881840457014
 21
839.6688027037995
 31
0.0
  0
LINE
  5
6D16
330
1E
100
AcDbEntity
  8
躯体と製品
  6
Continuous
 62
     3
100
AcDbLine
 10
1563.881840457014
 20
839.6688027037995
 30
0.0
 11
1561.881840457014
 21
839.6688027037995
 31
0.0
  0
ARC
  5
6D17
330
1E
100
AcDbEntity
  8
躯体と製品
  6
Continuous
 62
     3
100
AcDbCircle
 10
1562.881840457014
 20
857.6688027037997
 30
0.0
 40
1.0
100
AcDbArc
 50
0.0
 51
180.0
  0
LINE
  5
6D18
330
1E
100
AcDbEntity
  8
躯体と製品
  6
Continuous
 62
     3
100
AcDbLine
 10
1551.381840457014
 20
840.6688027037997
 30
0.0
 11
1551.381840457014
 21
839.6688027037995
 31
0.0
  0
LINE
  5
6D19
330
1E
100
AcDbEntity
  8
躯体と製品
  6
Continuous
 62
     3
100
AcDbLine
 10
1551.381840457014
 20
839.6688027037995
 30
0.0
 11
1549.881840457014
 21
839.6688027037995
 31
0.0
  0
LINE
  5
6D1A
330
1E
100
AcDbEntity
  8
躯体と製品
  6
Continuous
 62
     3
100
AcDbLine
 10
1580.381840457014
 20
841.6688027037997
 30
0.0
 11
1579.881840457014
 21
842.1688027037996
 31
0.0
  0
LINE
  5
6D1B
330
1E
100
AcDbEntity
  8
躯体と製品
  6
Continuous
 62
     3
100
AcDbLine
 10
1561.881840457014
 20
839.6688027037995
 30
0.0
 11
1561.881840457014
 21
840.6688027037997
 31
0.0
  0
LINE
  5
6D1C
330
1E
100
AcDbEntity
  8
躯体と製品
  6
Continuous
 62
     3
100
AcDbLine
 10
1561.881840457014
 20
840.6688027037997
 30
0.0
 11
1551.381840457014
 21
840.6688027037997
 31
0.0
  0
LINE
  5
6D1D
330
1E
100
AcDbEntity
  8
躯体と製品
  6
Continuous
 62
     3
100
AcDbLine
 10
1561.881840457014
 20
842.6688027037997
 30
0.0
 11
1561.881840457014
 21
857.6688027037997
 31
0.0
  0
ARC
  5
6D1E
330
1E
100
AcDbEntity
  8
躯体と製品
  6
Continuous
 62
     3
100
AcDbCircle
 10
1561.381840457014
 20
842.6688027037997
 30
0.0
 40
0.5
100
AcDbArc
 50
270.0
 51
0.0
  0
ARC
  5
6D1F
330
1E
100
AcDbEntity
  8
躯体と製品
  6
Continuous
 62
     3
100
AcDbCircle
 10
1564.181840457014
 20
842.4688027037996
 30
0.0
 40
0.2999999999999998
100
AcDbArc
 50
180.0
 51
270.0
  0
LINE
  5
6D20
330
1E
100
AcDbEntity
  8
躯体と製品
  6
Continuous
 62
     3
100
AcDbLine
 10
1564.381840457014
 20
849.6688027037997
 30
0.0
 11
1567.131840457014
 21
849.6688027037997
 31
0.0
  0
ARC
  5
6D21
330
1E
100
AcDbEntity
  8
躯体と製品
  6
Continuous
 62
     3
100
AcDbCircle
 10
1564.381840457014
 20
850.1688027037996
 30
0.0
 40
0.5
100
AcDbArc
 50
180.0
 51
270.0
  0
LINE
  5
6D22
330
1E
100
AcDbEntity
  8
躯体と製品
  6
Continuous
 62
     3
100
AcDbLine
 10
1563.881840457014
 20
850.1688027037996
 30
0.0
 11
1563.881840457014
 21
857.6688027037997
 31
0.0
  0
ARC
  5
6D23
330
1E
100
AcDbEntity
  8
躯体と製品
  6
Continuous
 62
     3
100
AcDbCircle
 10
1567.131840457014
 20
848.9188027037997
 30
0.0
 40
0.75
100
AcDbArc
 50
270.0
 51
90.0
  0
ARC
  5
6D24
330
1E
100
AcDbEntity
  8
躯体と製品
  6
Continuous
 62
     3
100
AcDbCircle
 10
1566.131840457014
 20
844.9188027037996
 30
0.0
 40
0.75
100
AcDbArc
 50
270.0
 51
90.0
  0
LINE
  5
6D25
330
1E
100
AcDbEntity
  8
躯体と製品
  6
Continuous
 62
     3
100
AcDbLine
 10
1564.181840457014
 20
844.1688027037995
 30
0.0
 11
1566.131840457014
 21
844.1688027037995
 31
0.0
  0
ARC
  5
6D26
330
1E
100
AcDbEntity
  8
躯体と製品
  6
Continuous
 62
     3
100
AcDbCircle
 10
1564.181840457014
 20
843.8688027037994
 30
0.0
 40
0.2999999999999998
100
AcDbArc
 50
90.0
 51
180.0
  0
LINE
  5
6D27
330
1E
100
AcDbEntity
  8
躯体と製品
  6
Continuous
 62
     3
100
AcDbLine
 10
1563.881840457014
 20
843.8688027037994
 30
0.0
 11
1563.881840457014
 21
842.4688027037996
 31
0.0
  0
LINE
  5
6D28
330
1E
100
AcDbEntity
  8
躯体と製品
  6
Continuous
 62
     3
100
AcDbLine
 10
1564.181840457014
 20
845.6688027037996
 30
0.0
 11
1566.131840457014
 21
845.6688027037996
 31
0.0
  0
ARC
  5
6D29
330
1E
100
AcDbEntity
  8
躯体と製品
  6
Continuous
 62
     3
100
AcDbCircle
 10
1564.181840457014
 20
845.9688027037998
 30
0.0
 40
0.2999999999999998
100
AcDbArc
 50
180.0
 51
270.0
  0
LINE
  5
6D2A
330
1E
100
AcDbEntity
  8
躯体と製品
  6
Continuous
 62
     3
100
AcDbLine
 10
1563.881840457014
 20
847.8688027037993
 30
0.0
 11
1563.881840457014
 21
845.9688027037998
 31
0.0
  0
ARC
  5
6D2B
330
1E
100
AcDbEntity
  8
躯体と製品
  6
Continuous
 62
     3
100
AcDbCircle
 10
1564.181840457014
 20
847.8688027037993
 30
0.0
 40
0.2999999999999998
100
AcDbArc
 50
90.0
 51
180.0
  0
LINE
  5
6D2C
330
1E
100
AcDbEntity
  8
躯体と製品
  6
Continuous
 62
     3
100
AcDbLine
 10
1564.181840457014
 20
848.1688027037996
 30
0.0
 11
1567.131840457014
 21
848.1688027037996
 31
0.0
  0
LINE
  5
6D2D
330
1E
100
AcDbEntity
  8
躯体と製品
  6
Continuous
 62
     3
100
AcDbLine
 10
1580.381840457014
 20
841.6688027037997
 30
0.0
 11
1580.881840457014
 21
842.1688027037996
 31
0.0
  0
LINE
  5
6D2E
330
1E
100
AcDbEntity
  8
躯体と製品
  6
Continuous
 62
     3
100
AcDbLine
 10
1555.182918353253
 20
846.6575189053438
 30
0.0
 11
1554.864162654414
 21
845.585887063498
 31
0.0
  0
LINE
  5
6D2F
330
1E
100
AcDbEntity
  8
躯体と製品
  6
Continuous
 62
     3
100
AcDbLine
 10
1555.009270175586
 20
847.6423266583561
 30
0.0
 11
1554.690514476747
 21
846.5706948165102
 31
0.0
  0
LINE
  5
6D30
330
1E
100
AcDbEntity
  8
躯体と製品
  6
DASHED1
 62
     4
100
AcDbLine
 10
1576.603810153248
 20
883.2219748437168
 30
0.0
 11
1577.84940591183
 21
859.4545919165581
 31
0.0
  0
LINE
  5
6D31
330
1E
100
AcDbEntity
  8
躯体と製品
  6
DASHED1
 62
     7
100
AcDbLine
 10
1576.03608926274
 20
883.1922218525928
 30
0.0
 11
1577.281685021322
 21
859.4248389254339
 31
0.0
  0
LINE
  5
6D32
330
1E
100
AcDbEntity
  8
躯体と製品
  6
DASHED1
 62
     7
100
AcDbLine
 10
1582.027866471268
 20
883.5062375900506
 30
0.0
 11
1583.27346222985
 21
859.7388546628916
 31
0.0
  0
LINE
  5
6D33
330
1E
100
AcDbEntity
  8
躯体と製品
  6
DASHED1
 62
     4
100
AcDbLine
 10
1581.46014558076
 20
883.4764845989262
 30
0.0
 11
1582.705741339342
 21
859.7091016717673
 31
0.0
  0
ARC
  5
6D34
330
1E
100
AcDbEntity
  8
躯体と製品
  6
DASHED1
 62
     7
100
AcDbCircle
 10
1568.468205641193
 20
880.9931356553185
 30
0.0
 40
1.0
100
AcDbArc
 50
93.00000000000558
 51
142.3731526377183
  0
LINE
  5
6D35
330
1E
100
AcDbEntity
  8
躯体と製品
  6
DASHED1
 62
     7
100
AcDbLine
 10
1589.689954814052
 20
883.9077906247663
 30
0.0
 11
1568.374000919956
 21
882.7906688178769
 31
0.0
  0
ARC
  5
6D36
330
1E
100
AcDbEntity
  8
躯体と製品
  6
DASHED1
 62
     7
100
AcDbCircle
 10
1589.784159535289
 20
882.1102574622079
 30
0.0
 40
1.8
100
AcDbArc
 50
43.62684736228245
 51
93.00000000000558
  0
LINE
  5
6D37
330
1E
100
AcDbEntity
  8
躯体と製品
  6
DASHED1
 62
     7
100
AcDbLine
 10
1589.731823579047
 20
883.1088869969624
 30
0.0
 11
1568.41586968495
 21
881.9917651900734
 31
0.0
  0
LINE
  5
6D38
330
1E
100
AcDbEntity
  8
躯体と製品
  6
DASHED1
 62
     7
100
AcDbLine
 10
1590.508008178852
 20
882.8002162589578
 30
0.0
 11
1603.43795927261
 21
869.2351633824149
 31
0.0
  0
ARC
  5
6D39
330
1E
100
AcDbEntity
  8
躯体と製品
  6
DASHED1
 62
     7
100
AcDbCircle
 10
1589.784159535289
 20
882.1102574622079
 30
0.0
 40
1.0
100
AcDbArc
 50
43.62684736228245
 51
93.00000000000558
  0
LINE
  5
6D3A
330
1E
100
AcDbEntity
  8
躯体と製品
  6
DASHED1
 62
     7
100
AcDbLine
 10
1607.998042430178
 20
871.7541707879751
 30
0.0
 11
1607.364439504
 21
872.2425838630858
 31
0.0
  0
LINE
  5
6D3B
330
1E
100
AcDbEntity
  8
躯体と製品
  6
DASHED1
 62
     7
100
AcDbLine
 10
1607.998042430178
 20
871.7541707879751
 30
0.0
 11
1606.16649338377
 21
869.3781597958791
 31
0.0
  0
ARC
  5
6D3C
330
1E
100
AcDbEntity
  8
躯体と製品
  6
DASHED1
 62
     7
100
AcDbCircle
 10
1604.740886814518
 20
870.4770892338801
 30
0.0
 40
1.0
100
AcDbArc
 50
223.6268473622824
 51
322.3731512671368
  0
ARC
  5
6D3D
330
1E
100
AcDbEntity
  8
躯体と製品
  6
DASHED1
 62
     7
100
AcDbCircle
 10
1604.740886814518
 20
870.4770892338801
 30
0.0
 40
1.8
100
AcDbArc
 50
223.6268473622824
 51
322.3731518762774
  0
LINE
  5
6D3E
330
1E
100
AcDbEntity
  8
躯体と製品
  6
DASHED1
 62
     7
100
AcDbLine
 10
1552.01568504295
 20
869.3418785556998
 30
0.0
 11
1554.085561449731
 21
867.1703326076679
 31
0.0
  0
LINE
  5
6D3F
330
1E
100
AcDbEntity
  8
躯体と製品
  6
DASHED1
 62
     7
100
AcDbLine
 10
1551.436606128077
 20
868.7899115183231
 30
0.0
 11
1552.01568504295
 21
869.3418785556998
 31
0.0
  0
LINE
  5
6D40
330
1E
100
AcDbEntity
  8
躯体と製品
  6
DASHED1
 62
     7
100
AcDbLine
 10
1551.436606128077
 20
868.7899115183231
 30
0.0
 11
1553.506482534881
 21
866.6183655702679
 31
0.0
  0
ARC
  5
6D41
330
1E
100
AcDbEntity
  8
躯体と製品
  6
DASHED1
 62
     7
100
AcDbCircle
 10
1554.809410076789
 20
867.860291421733
 30
0.0
 40
1.0
100
AcDbArc
 50
223.6268487328658
 51
322.3731526377183
  0
ARC
  5
6D42
330
1E
100
AcDbEntity
  8
躯体と製品
  6
DASHED1
 62
     7
100
AcDbCircle
 10
1554.809410076789
 20
867.860291421733
 30
0.0
 40
1.8
100
AcDbArc
 50
223.6268481237193
 51
322.3731526377183
  0
LINE
  5
6D43
330
1E
100
AcDbEntity
  8
躯体と製品
  6
DASHED1
 62
     7
100
AcDbLine
 10
1567.042599057337
 20
882.0920650743742
 30
0.0
 11
1555.601413719883
 21
867.2497750588677
 31
0.0
  0
LINE
  5
6D44
330
1E
100
AcDbEntity
  8
躯体と製品
  6
DASHED1
 62
     7
100
AcDbLine
 10
1567.676201983495
 20
881.6036519992385
 30
0.0
 11
1556.235016646041
 21
866.761361983732
 31
0.0
  0
ARC
  5
6D45
330
1E
100
AcDbEntity
  8
躯体と製品
  6
DASHED1
 62
     7
100
AcDbCircle
 10
1568.468205641193
 20
880.9931356553185
 30
0.0
 40
1.8
100
AcDbArc
 50
93.00000000000558
 51
142.3731526377183
  0
LINE
  5
6D46
330
1E
100
AcDbEntity
  8
躯体と製品
  6
DASHED1
 62
     7
100
AcDbLine
 10
1607.364439504
 20
872.2425838630858
 30
0.0
 11
1605.532890457612
 21
869.8665728710148
 31
0.0
  0
LINE
  5
6D47
330
1E
100
AcDbEntity
  8
躯体と製品
  6
DASHED1
 62
     7
100
AcDbLine
 10
1591.087087093702
 20
883.3521832963576
 30
0.0
 11
1604.017038170956
 21
869.7871304371306
 31
0.0
  0
ARC
  5
6D48
330
1E
100
AcDbEntity
  8
躯体と製品
  6
DASHED1
 62
     7
100
AcDbCircle
 10
1580.215906614689
 20
886.5534089807704
 30
0.0
 40
0.5999999999999997
100
AcDbArc
 50
79.29976699999421
 51
182.9999999999989
  0
ARC
  5
6D49
330
1E
100
AcDbEntity
  8
躯体と製品
  6
DASHED1
 62
     7
100
AcDbCircle
 10
1577.519606870851
 20
886.4121018989145
 30
0.0
 40
0.5999999999999997
100
AcDbArc
 50
2.999999999998919
 51
106.7002329999983
  0
LINE
  5
6D4A
330
1E
100
AcDbEntity
  8
躯体と製品
  6
DASHED1
 62
     7
100
AcDbLine
 10
1578.120838516307
 20
886.4043122565687
 30
0.0
 11
1579.618782818439
 21
886.4828161909329
 31
0.0
  0
ARC
  5
6D4B
330
1E
100
AcDbEntity
  8
躯体と製品
  6
DASHED1
 62
     7
100
AcDbCircle
 10
1580.845208562172
 20
883.2491317027864
 30
0.0
 40
3.45
100
AcDbArc
 50
6.237837000000908
 51
53.69087599999915
  0
ARC
  5
6D4C
330
1E
100
AcDbEntity
  8
躯体と製品
  6
DASHED1
 62
     7
100
AcDbCircle
 10
1577.233872556916
 20
883.0553604228324
 30
0.0
 40
3.45
100
AcDbArc
 50
132.179511
 51
179.6872570000013
  0
ARC
  5
6D4D
330
1E
100
AcDbEntity
  8
躯体と製品
  6
DASHED1
 62
     7
100
AcDbCircle
 10
1579.157584109651
 20
880.9525198365399
 30
0.0
 40
6.299999999999998
100
AcDbArc
 50
53.69062899999587
 51
132.3031309999968
  0
LINE
  5
6D4E
330
1E
100
AcDbEntity
  8
躯体と製品
  6
Continuous
 62
     4
100
AcDbLine
 10
1577.838094740119
 20
848.8079090266905
 30
0.0
 11
1583.829871948647
 21
849.1219247641481
 31
0.0
  0
LINE
  5
6D4F
330
1E
100
AcDbEntity
  8
躯体と製品
  6
Continuous
 62
     7
100
AcDbLine
 10
1583.27346222985
 20
859.7388546628916
 30
0.0
 11
1583.377729061278
 21
857.7493250004149
 31
0.0
  0
LINE
  5
6D50
330
1E
100
AcDbEntity
  8
躯体と製品
  6
Continuous
 62
     7
100
AcDbLine
 10
1583.566138503752
 20
854.1542586752985
 30
0.0
 11
1583.829871948647
 21
849.1219247641481
 31
0.0
  0
LINE
  5
6D51
330
1E
100
AcDbEntity
  8
躯体と製品
  6
Continuous
 62
     7
100
AcDbLine
 10
1577.281685021322
 20
859.4248389254339
 30
0.0
 11
1577.385951852751
 21
857.4353092629575
 31
0.0
  0
LINE
  5
6D52
330
1E
100
AcDbEntity
  8
躯体と製品
  6
Continuous
 62
     7
100
AcDbLine
 10
1577.574361295225
 20
853.8402429378409
 30
0.0
 11
1577.838094740119
 21
848.8079090266905
 31
0.0
  0
LINE
  5
6D53
330
1E
100
AcDbEntity
  8
躯体と製品
  6
Continuous
 62
     4
100
AcDbLine
 10
1582.705741339342
 20
859.7091016717673
 30
0.0
 11
1582.81000817077
 21
857.7195720092907
 31
0.0
  0
LINE
  5
6D54
330
1E
100
AcDbEntity
  8
躯体と製品
  6
Continuous
 62
     4
100
AcDbLine
 10
1577.84940591183
 20
859.4545919165581
 30
0.0
 11
1577.953672743259
 21
857.4650622540817
 31
0.0
  0
POINT
  5
6D55
330
1E
100
AcDbEntity
  8
躯体と製品
 62
     4
100
AcDbPoint
 10
1580.381840457014
 20
857.5923171316862
 30
0.0
  0
LINE
  5
6D56
330
1E
100
AcDbEntity
  8
躯体と製品
  6
Continuous
 62
     7
100
AcDbLine
 10
1530.381840457014
 20
837.6688027037996
 30
0.0
 11
1655.381840457014
 21
837.6688027037996
 31
0.0
  0
LINE
  5
6D57
330
1E
100
AcDbEntity
  8
躯体と製品
  6
DASHED1
 62
     4
100
AcDbLine
 10
1484.795754737947
 20
881.114223873301
 30
0.0
 11
1705.460344391379
 21
892.6787649834407
 31
0.0
  0
LINE
  5
6D58
330
1E
100
AcDbEntity
  8
躯体と製品
  6
DASHED1
 62
     4
100
AcDbLine
 10
1485.77443711969
 20
862.4398515733901
 30
0.0
 11
1705.381840457014
 21
873.9489878964148
 31
0.0
  0
LINE
  5
6D59
330
1E
100
AcDbEntity
  8
躯体と製品
  6
DASHED1
 62
     4
100
AcDbLine
 10
1485.868641840927
 20
860.642318410832
 30
0.0
 11
1705.381840457014
 21
872.1465176736185
 31
0.0
  0
LINE
  5
6D5A
330
1E
100
AcDbEntity
  8
躯体と製品
  6
DASHED1
 62
     4
100
AcDbLine
 10
1486.051817687777
 20
857.1471150391911
 30
0.0
 11
1705.381840457014
 21
868.6417144626256
 31
0.0
  0
LINE
  5
6D5B
330
1E
100
AcDbEntity
  8
躯体と製品
  6
DASHED1
 62
     4
100
AcDbLine
 10
1486.130321622142
 20
855.6491707370595
 30
0.0
 11
1705.381840457014
 21
867.1396559436287
 31
0.0
  0
LINE
  5
6D5C
330
1E
100
AcDbEntity
  8
躯体と製品
  6
DASHED1
 62
     7
100
AcDbLine
 10
1491.044965361551
 20
857.4087948204059
 30
0.0
 11
1486.051817687777
 21
857.1471150391911
 31
0.0
  0
LINE
  5
6D5D
330
1E
100
AcDbEntity
  8
躯体と製品
  6
DASHED1
 62
     7
100
AcDbLine
 10
1490.992629405307
 20
858.4074243551604
 30
0.0
 11
1491.044965361551
 21
857.4087948204059
 31
0.0
  0
LINE
  5
6D5E
330
1E
100
AcDbEntity
  8
躯体と製品
  6
DASHED1
 62
     7
100
AcDbLine
 10
1510.965220100399
 20
859.4541434800193
 30
0.0
 11
1490.992629405307
 21
858.4074243551604
 31
0.0
  0
LINE
  5
6D5F
330
1E
100
AcDbEntity
  8
躯体と製品
  6
DASHED1
 62
     7
100
AcDbLine
 10
1510.965220100399
 20
859.4541434800193
 30
0.0
 11
1511.017556056642
 21
858.4555139452648
 31
0.0
  0
LINE
  5
6D60
330
1E
100
AcDbEntity
  8
躯体と製品
  6
DASHED1
 62
     7
100
AcDbLine
 10
1514.512759428283
 20
858.6386897921149
 30
0.0
 11
1511.017556056642
 21
858.4555139452648
 31
0.0
  0
ARC
  5
6D61
330
1E
100
AcDbEntity
  8
躯体と製品
  6
DASHED1
 62
     7
100
AcDbCircle
 10
1514.434255493919
 20
860.1366340942471
 30
0.0
 40
1.5
100
AcDbArc
 50
273.0000000000056
 51
93.00000000000558
  0
LINE
  5
6D62
330
1E
100
AcDbEntity
  8
躯体と製品
  6
DASHED1
 62
     7
100
AcDbLine
 10
1514.355751559554
 20
861.6345783963788
 30
0.0
 11
1485.894809819049
 21
860.1430036434548
 31
0.0
  0
LINE
  5
6D63
330
1E
100
AcDbEntity
  8
躯体と製品
  6
Continuous
 62
     3
100
AcDbLine
 10
1486.182657578385
 20
854.6505412023048
 30
0.0
 11
1484.717250803583
 21
882.6121681754328
 31
0.0
  0
LINE
  5
6D64
330
1E
100
AcDbEntity
  8
躯体と製品
  6
Continuous
 62
     3
100
AcDbLine
 10
1484.952762606676
 20
878.1183352690375
 30
0.0
 11
1705.381840457014
 21
889.6705337285819
 31
0.0
  0
LINE
  5
6D65
330
1E
100
AcDbEntity
  8
躯体と製品
  6
Continuous
 62
     3
100
AcDbLine
 10
1485.031266541041
 20
876.6203909669052
 30
0.0
 11
1705.381840457014
 21
888.168475209585
 31
0.0
  0
LINE
  5
6D66
330
1E
100
AcDbEntity
  8
躯体と製品
  6
Continuous
 62
     3
100
AcDbLine
 10
1484.717250803583
 20
882.6121681754328
 30
0.0
 11
1705.381840457014
 21
894.1767092855727
 31
0.0
  0
LINE
  5
6D67
330
1E
100
AcDbEntity
  8
躯体と製品
  6
Continuous
 62
     3
100
AcDbLine
 10
1475.918463157692
 20
856.0284190170582
 30
0.0
 11
1476.501655700612
 21
853.5023345873401
 31
0.0
  0
LINE
  5
6D68
330
1E
100
AcDbEntity
  8
躯体と製品
  6
Continuous
 62
     3
100
AcDbLine
 10
1484.054558618268
 20
857.0424431267054
 30
0.0
 11
1476.379480211963
 21
856.6402093116078
 31
0.0
  0
LINE
  5
6D69
330
1E
100
AcDbEntity
  8
躯体と製品
  6
Continuous
 62
     3
100
AcDbLine
 10
1473.138846703745
 20
856.4703749059717
 30
0.0
 11
1474.316193135812
 21
856.532077017923
 31
0.0
  0
LINE
  5
6D6A
330
1E
100
AcDbEntity
  8
躯体と製品
  6
Continuous
 62
     3
100
AcDbLine
 10
1474.62420494212
 20
856.2999734737998
 30
0.0
 11
1475.33241162287
 21
853.2323933221276
 31
0.0
  0
ARC
  5
6D6B
330
1E
100
AcDbEntity
  8
躯体と製品
  6
Continuous
 62
     3
100
AcDbCircle
 10
1484.08072659639
 20
856.543128359328
 30
0.0
 40
0.5
100
AcDbArc
 50
2.999999999998919
 51
93.00000000000558
  0
LINE
  5
6D6C
330
1E
100
AcDbEntity
  8
躯体と製品
  6
Continuous
 62
     3
100
AcDbLine
 10
1484.580041363767
 20
856.5692963374496
 30
0.0
 11
1484.63237732001
 21
855.5706668026948
 31
0.0
  0
ARC
  5
6D6D
330
1E
100
AcDbEntity
  8
躯体と製品
  6
Continuous
 62
     3
100
AcDbCircle
 10
1483.871382771418
 20
860.5376464983462
 30
0.0
 40
0.5
100
AcDbArc
 50
273.0000000000056
 51
2.999999999998919
  0
LINE
  5
6D6E
330
1E
100
AcDbEntity
  8
躯体と製品
  6
Continuous
 62
     3
100
AcDbLine
 10
1483.89755074954
 20
860.038331730969
 30
0.0
 11
1472.215563442006
 21
859.4261047185687
 31
0.0
  0
LINE
  5
6D6F
330
1E
100
AcDbEntity
  8
躯体と製品
  6
Continuous
 62
     3
100
AcDbLine
 10
1484.370697538796
 20
860.5638144764677
 30
0.0
 11
1484.26602562631
 21
862.5610735459767
 31
0.0
  0
LINE
  5
6D70
330
1E
100
AcDbEntity
  8
躯体と製品
  6
Continuous
 62
     3
100
AcDbLine
 10
1462.867101261502
 20
808.8056283435678
 30
0.0
 11
1467.249652683235
 21
808.8056283435678
 31
0.0
  0
LINE
  5
6D71
330
1E
100
AcDbEntity
  8
躯体と製品
  6
Continuous
 62
     3
100
AcDbLine
 10
1472.213035059254
 20
855.6796570620351
 30
0.0
 11
1462.378027461135
 21
809.4095841889766
 31
0.0
  0
LINE
  5
6D72
330
1E
100
AcDbEntity
  8
躯体と製品
  6
Continuous
 62
     3
100
AcDbLine
 10
1469.438128508533
 20
857.0539511867579
 30
0.0
 11
1457.48217840528
 21
800.8056283435678
 31
0.0
  0
ARC
  5
6D73
330
1E
100
AcDbEntity
  8
躯体と製品
  6
Continuous
 62
     3
100
AcDbCircle
 10
1484.765340393687
 20
862.5872415240985
 30
0.0
 40
0.5
100
AcDbArc
 50
93.00000000000558
 51
182.9999999999989
  0
LINE
  5
6D74
330
1E
100
AcDbEntity
  8
躯体と製品
  6
Continuous
 62
     3
100
AcDbLine
 10
1484.739172415565
 20
863.086556291476
 30
0.0
 11
1485.238487182943
 21
863.1127242695972
 31
0.0
  0
ARC
  5
6D75
330
1E
100
AcDbEntity
  8
躯体と製品
  6
Continuous
 62
     3
100
AcDbCircle
 10
1485.264655161065
 20
862.6134095022198
 30
0.0
 40
0.5
100
AcDbArc
 50
2.999999999998919
 51
93.00000000000558
  0
ARC
  5
6D76
330
1E
100
AcDbEntity
  8
躯体と製品
  6
Continuous
 62
     3
100
AcDbCircle
 10
1472.372571310735
 20
856.4302161143048
 30
0.0
 40
3.0
100
AcDbArc
 50
93.00000000000558
 51
168.0000000000002
  0
ARC
  5
6D77
330
1E
100
AcDbEntity
  8
躯体と製品
  6
Continuous
 62
     3
100
AcDbCircle
 10
1473.191182659988
 20
855.4717453712171
 30
0.0
 40
1.0
100
AcDbArc
 50
93.00000000000558
 51
168.0000000000002
  0
ARC
  5
6D78
330
1E
100
AcDbEntity
  8
躯体と製品
  6
Continuous
 62
     3
100
AcDbCircle
 10
1485.131692087388
 20
855.5968347808164
 30
0.0
 40
0.5
100
AcDbArc
 50
182.9999999999989
 51
273.0000000000056
  0
LINE
  5
6D79
330
1E
100
AcDbEntity
  8
躯体と製品
  6
Continuous
 62
     3
100
AcDbLine
 10
1485.157860065509
 20
855.0975200134393
 30
0.0
 11
1485.657174832887
 21
855.1236879915606
 31
0.0
  0
ARC
  5
6D7A
330
1E
100
AcDbEntity
  8
躯体と製品
  6
Continuous
 62
     3
100
AcDbCircle
 10
1485.631006854765
 20
855.6230027589379
 30
0.0
 40
0.5
100
AcDbArc
 50
273.0000000000056
 51
2.999999999998919
  0
ARC
  5
6D7B
330
1E
100
AcDbEntity
  8
躯体と製品
  6
Continuous
 62
     3
100
AcDbCircle
 10
1462.399476825828
 20
807.1056283435678
 30
0.0
 40
0.5
100
AcDbArc
 50
90.0
 51
168.0000000000002
  0
LINE
  5
6D7C
330
1E
100
AcDbEntity
  8
躯体と製品
  6
Continuous
 62
     3
100
AcDbLine
 10
1461.910403025461
 20
807.2095841889767
 30
0.0
 11
1460.482178405279
 21
800.4903156377709
 31
0.0
  0
LINE
  5
6D7D
330
1E
100
AcDbEntity
  8
躯体と製品
  6
Continuous
 62
     3
100
AcDbLine
 10
1462.399476825828
 20
807.6056283435679
 30
0.0
 11
1471.649652683235
 21
807.6056283435679
 31
0.0
  0
ARC
  5
6D7E
330
1E
100
AcDbEntity
  8
躯体と製品
  6
Continuous
 62
     3
100
AcDbCircle
 10
1462.867101261502
 20
809.3056283435679
 30
0.0
 40
0.5
100
AcDbArc
 50
168.0000000000002
 51
270.0
  0
LINE
  5
6D7F
330
1E
100
AcDbEntity
  8
躯体と製品
  6
Continuous
 62
     3
100
AcDbLine
 10
1471.649652683235
 20
808.8056283435678
 30
0.0
 11
1469.249652683235
 21
808.8056283435678
 31
0.0
  0
LINE
  5
6D80
330
1E
100
AcDbEntity
  8
躯体と製品
  6
Continuous
 62
     3
100
AcDbLine
 10
1467.249652683235
 20
809.8056283435679
 30
0.0
 11
1469.249652683235
 21
808.8056283435678
 31
0.0
  0
LINE
  5
6D81
330
1E
100
AcDbEntity
  8
躯体と製品
  6
Continuous
 62
     3
100
AcDbLine
 10
1467.249652683235
 20
808.8056283435678
 30
0.0
 11
1467.249652683235
 21
809.8056283435679
 31
0.0
  0
ARC
  5
6D82
330
1E
100
AcDbEntity
  8
躯体と製品
  6
Continuous
 62
     3
100
AcDbCircle
 10
1459.982178405279
 20
799.305628343568
 30
0.0
 40
2.5
100
AcDbArc
 50
180.0
 51
270.0
  0
LINE
  5
6D83
330
1E
100
AcDbEntity
  8
躯体と製品
  6
Continuous
 62
     3
100
AcDbLine
 10
1459.982178405279
 20
796.8056283435678
 30
0.0
 11
1460.482178405279
 21
796.8056283435678
 31
0.0
  0
LINE
  5
6D84
330
1E
100
AcDbEntity
  8
躯体と製品
  6
Continuous
 62
     3
100
AcDbLine
 10
1457.48217840528
 20
799.305628343568
 30
0.0
 11
1457.48217840528
 21
800.8056283435678
 31
0.0
  0
LINE
  5
6D85
330
1E
100
AcDbEntity
  8
躯体と製品
  6
Continuous
 62
     3
100
AcDbLine
 10
1460.482178405279
 20
800.4903156377709
 30
0.0
 11
1460.482178405279
 21
796.8056283435678
 31
0.0
  0
ARC
  5
6D86
330
1E
100
AcDbEntity
  8
躯体と製品
  6
Continuous
 62
     3
100
AcDbCircle
 10
1471.649652683235
 20
808.2056283435679
 30
0.0
 40
0.6000000000000015
100
AcDbArc
 50
270.0
 51
90.0
  0
ARC
  5
6D87
330
1E
100
AcDbEntity
  8
躯体と製品
  6
Continuous
 62
     3
100
AcDbCircle
 10
1474.331893922685
 20
856.2324881574967
 30
0.0
 40
0.2999999999999998
100
AcDbArc
 50
13.00000000000027
 51
93.00000000000558
  0
ARC
  5
6D88
330
1E
100
AcDbEntity
  8
躯体と製品
  6
Continuous
 62
     3
100
AcDbCircle
 10
1476.405648190085
 20
856.1408945442305
 30
0.0
 40
0.5
100
AcDbArc
 50
93.00000000000558
 51
193.0000000000002
  0
ARC
  5
6D89
330
1E
100
AcDbEntity
  8
躯体と製品
  6
Continuous
 62
     3
100
AcDbCircle
 10
1475.917033661741
 20
853.3673639547338
 30
0.0
 40
0.5999999999999984
100
AcDbArc
 50
193.0000000000002
 51
13.00000000000027
  0
LINE
  5
6D8A
330
1E
100
AcDbEntity
  8
躯体と製品
  6
DASHED1
 62
     4
100
AcDbLine
 10
1925.967926176081
 20
881.114223873301
 30
0.0
 11
1705.303336522649
 21
892.6787649834407
 31
0.0
  0
LINE
  5
6D8B
330
1E
100
AcDbEntity
  8
躯体と製品
  6
DASHED1
 62
     4
100
AcDbLine
 10
1924.989243794338
 20
862.4398515733901
 30
0.0
 11
1705.381840457014
 21
873.9489878964148
 31
0.0
  0
LINE
  5
6D8C
330
1E
100
AcDbEntity
  8
躯体と製品
  6
DASHED1
 62
     4
100
AcDbLine
 10
1924.895039073101
 20
860.642318410832
 30
0.0
 11
1705.381840457014
 21
872.1465176736185
 31
0.0
  0
LINE
  5
6D8D
330
1E
100
AcDbEntity
  8
躯体と製品
  6
DASHED1
 62
     4
100
AcDbLine
 10
1924.71186322625
 20
857.1471150391911
 30
0.0
 11
1705.381840457014
 21
868.6417144626256
 31
0.0
  0
LINE
  5
6D8E
330
1E
100
AcDbEntity
  8
躯体と製品
  6
DASHED1
 62
     4
100
AcDbLine
 10
1924.633359291886
 20
855.6491707370595
 30
0.0
 11
1705.381840457014
 21
867.1396559436287
 31
0.0
  0
LINE
  5
6D8F
330
1E
100
AcDbEntity
  8
躯体と製品
  6
Continuous
 62
     4
100
AcDbLine
 10
1911.60695570973
 20
883.368908962789
 30
0.0
 11
1911.092467223657
 21
883.883397448862
 31
0.0
  0
LINE
  5
6D90
330
1E
100
AcDbEntity
  8
躯体と製品
  6
DASHED1
 62
     7
100
AcDbLine
 10
1919.718715552478
 20
857.4087948204059
 30
0.0
 11
1924.71186322625
 21
857.1471150391911
 31
0.0
  0
LINE
  5
6D91
330
1E
100
AcDbEntity
  8
躯体と製品
  6
DASHED1
 62
     7
100
AcDbLine
 10
1919.771051508721
 20
858.4074243551604
 30
0.0
 11
1919.718715552478
 21
857.4087948204059
 31
0.0
  0
LINE
  5
6D92
330
1E
100
AcDbEntity
  8
躯体と製品
  6
DASHED1
 62
     7
100
AcDbLine
 10
1899.798460813629
 20
859.4541434800193
 30
0.0
 11
1919.771051508721
 21
858.4074243551604
 31
0.0
  0
LINE
  5
6D93
330
1E
100
AcDbEntity
  8
躯体と製品
  6
DASHED1
 62
     7
100
AcDbLine
 10
1899.798460813629
 20
859.4541434800193
 30
0.0
 11
1899.746124857386
 21
858.4555139452648
 31
0.0
  0
LINE
  5
6D94
330
1E
100
AcDbEntity
  8
躯体と製品
  6
DASHED1
 62
     7
100
AcDbLine
 10
1896.250921485745
 20
858.6386897921149
 30
0.0
 11
1899.746124857386
 21
858.4555139452648
 31
0.0
  0
ARC
  5
6D95
330
1E
100
AcDbEntity
  8
躯体と製品
  6
DASHED1
 62
     7
100
AcDbCircle
 10
1896.32942542011
 20
860.1366340942471
 30
0.0
 40
1.5
100
AcDbArc
 50
86.99999999999441
 51
266.9999999999944
  0
LINE
  5
6D96
330
1E
100
AcDbEntity
  8
躯体と製品
  6
DASHED1
 62
     7
100
AcDbLine
 10
1896.407929354474
 20
861.6345783963788
 30
0.0
 11
1924.868871094979
 21
860.1430036434548
 31
0.0
  0
LINE
  5
6D97
330
1E
100
AcDbEntity
  8
躯体と製品
  6
Continuous
 62
     3
100
AcDbLine
 10
1926.046430110446
 20
882.6121681754328
 30
0.0
 11
1705.381840457014
 21
894.1767092855727
 31
0.0
  0
LINE
  5
6D98
330
1E
100
AcDbEntity
  8
躯体と製品
  6
Continuous
 62
     3
100
AcDbLine
 10
1925.810918307352
 20
878.1183352690375
 30
0.0
 11
1705.381840457014
 21
889.6705337285819
 31
0.0
  0
LINE
  5
6D99
330
1E
100
AcDbEntity
  8
躯体と製品
  6
Continuous
 62
     3
100
AcDbLine
 10
1925.732414372988
 20
876.6203909669052
 30
0.0
 11
1705.381840457014
 21
888.168475209585
 31
0.0
  0
LINE
  5
6D9A
330
1E
100
AcDbEntity
  8
躯体と製品
  6
Continuous
 62
     3
100
AcDbLine
 10
1924.581023335643
 20
854.6505412023048
 30
0.0
 11
1926.046430110446
 21
882.6121681754328
 31
0.0
  0
LINE
  5
6D9B
330
1E
100
AcDbEntity
  8
躯体と製品
  6
Continuous
 62
     3
100
AcDbLine
 10
1934.845217756336
 20
856.0284190170582
 30
0.0
 11
1934.262025213417
 21
853.5023345873401
 31
0.0
  0
LINE
  5
6D9C
330
1E
100
AcDbEntity
  8
躯体と製品
  6
Continuous
 62
     3
100
AcDbLine
 10
1926.70912229576
 20
857.0424431267054
 30
0.0
 11
1934.384200702065
 21
856.6402093116078
 31
0.0
  0
LINE
  5
6D9D
330
1E
100
AcDbEntity
  8
躯体と製品
  6
Continuous
 62
     3
100
AcDbLine
 10
1937.624834210284
 20
856.4703749059717
 30
0.0
 11
1936.447487778217
 21
856.532077017923
 31
0.0
  0
LINE
  5
6D9E
330
1E
100
AcDbEntity
  8
躯体と製品
  6
Continuous
 62
     3
100
AcDbLine
 10
1936.139475971908
 20
856.2999734737998
 30
0.0
 11
1935.431269291158
 21
853.2323933221276
 31
0.0
  0
ARC
  5
6D9F
330
1E
100
AcDbEntity
  8
躯体と製品
  6
Continuous
 62
     3
100
AcDbCircle
 10
1926.682954317638
 20
856.543128359328
 30
0.0
 40
0.5
100
AcDbArc
 50
86.99999999999441
 51
177.0000000000011
  0
LINE
  5
6DA0
330
1E
100
AcDbEntity
  8
躯体と製品
  6
Continuous
 62
     3
100
AcDbLine
 10
1926.183639550261
 20
856.5692963374496
 30
0.0
 11
1926.131303594018
 21
855.5706668026948
 31
0.0
  0
ARC
  5
6DA1
330
1E
100
AcDbEntity
  8
躯体と製品
  6
Continuous
 62
     3
100
AcDbCircle
 10
1926.892298142609
 20
860.5376464983462
 30
0.0
 40
0.5
100
AcDbArc
 50
177.0000000000011
 51
266.9999999999944
  0
LINE
  5
6DA2
330
1E
100
AcDbEntity
  8
躯体と製品
  6
Continuous
 62
     3
100
AcDbLine
 10
1926.866130164488
 20
860.038331730969
 30
0.0
 11
1938.548117472023
 21
859.4261047185687
 31
0.0
  0
LINE
  5
6DA3
330
1E
100
AcDbEntity
  8
躯体と製品
  6
Continuous
 62
     3
100
AcDbLine
 10
1926.392983375233
 20
860.5638144764677
 30
0.0
 11
1926.497655287718
 21
862.5610735459767
 31
0.0
  0
LINE
  5
6DA4
330
1E
100
AcDbEntity
  8
躯体と製品
  6
Continuous
 62
     3
100
AcDbLine
 10
1947.896579652526
 20
808.8056283435678
 30
0.0
 11
1943.514028230794
 21
808.8056283435678
 31
0.0
  0
LINE
  5
6DA5
330
1E
100
AcDbEntity
  8
躯体と製品
  6
Continuous
 62
     3
100
AcDbLine
 10
1938.550645854775
 20
855.6796570620351
 30
0.0
 11
1948.385653452893
 21
809.4095841889766
 31
0.0
  0
LINE
  5
6DA6
330
1E
100
AcDbEntity
  8
躯体と製品
  6
Continuous
 62
     3
100
AcDbLine
 10
1941.325552405495
 20
857.0539511867579
 30
0.0
 11
1953.281502508749
 21
800.8056283435678
 31
0.0
  0
ARC
  5
6DA7
330
1E
100
AcDbEntity
  8
躯体と製品
  6
Continuous
 62
     3
100
AcDbCircle
 10
1925.998340520342
 20
862.5872415240985
 30
0.0
 40
0.5
100
AcDbArc
 50
357.0000000000011
 51
86.99999999999441
  0
LINE
  5
6DA8
330
1E
100
AcDbEntity
  8
躯体と製品
  6
Continuous
 62
     3
100
AcDbLine
 10
1926.024508498463
 20
863.086556291476
 30
0.0
 11
1925.525193731085
 21
863.1127242695972
 31
0.0
  0
ARC
  5
6DA9
330
1E
100
AcDbEntity
  8
躯体と製品
  6
Continuous
 62
     3
100
AcDbCircle
 10
1925.499025752964
 20
862.6134095022198
 30
0.0
 40
0.5
100
AcDbArc
 50
86.99999999999441
 51
177.0000000000011
  0
ARC
  5
6DAA
330
1E
100
AcDbEntity
  8
躯体と製品
  6
Continuous
 62
     3
100
AcDbCircle
 10
1938.391109603293
 20
856.4302161143048
 30
0.0
 40
3.0
100
AcDbArc
 50
11.99999999999979
 51
86.99999999999441
  0
ARC
  5
6DAB
330
1E
100
AcDbEntity
  8
躯体と製品
  6
Continuous
 62
     3
100
AcDbCircle
 10
1937.57249825404
 20
855.4717453712171
 30
0.0
 40
1.0
100
AcDbArc
 50
11.99999999999979
 51
86.99999999999441
  0
ARC
  5
6DAC
330
1E
100
AcDbEntity
  8
躯体と製品
  6
Continuous
 62
     3
100
AcDbCircle
 10
1925.631988826641
 20
855.5968347808164
 30
0.0
 40
0.5
100
AcDbArc
 50
266.9999999999944
 51
357.0000000000011
  0
LINE
  5
6DAD
330
1E
100
AcDbEntity
  8
躯体と製品
  6
Continuous
 62
     3
100
AcDbLine
 10
1925.60582084852
 20
855.0975200134393
 30
0.0
 11
1925.106506081142
 21
855.1236879915606
 31
0.0
  0
ARC
  5
6DAE
330
1E
100
AcDbEntity
  8
躯体と製品
  6
Continuous
 62
     3
100
AcDbCircle
 10
1925.132674059263
 20
855.6230027589379
 30
0.0
 40
0.5
100
AcDbArc
 50
177.0000000000011
 51
266.9999999999944
  0
ARC
  5
6DAF
330
1E
100
AcDbEntity
  8
躯体と製品
  6
Continuous
 62
     3
100
AcDbCircle
 10
1948.3642040882
 20
807.1056283435678
 30
0.0
 40
0.5
100
AcDbArc
 50
11.99999999999979
 51
90.0
  0
LINE
  5
6DB0
330
1E
100
AcDbEntity
  8
躯体と製品
  6
Continuous
 62
     3
100
AcDbLine
 10
1948.853277888567
 20
807.2095841889767
 30
0.0
 11
1950.281502508749
 21
800.4903156377709
 31
0.0
  0
LINE
  5
6DB1
330
1E
100
AcDbEntity
  8
躯体と製品
  6
Continuous
 62
     3
100
AcDbLine
 10
1948.3642040882
 20
807.6056283435679
 30
0.0
 11
1939.114028230793
 21
807.6056283435679
 31
0.0
  0
ARC
  5
6DB2
330
1E
100
AcDbEntity
  8
躯体と製品
  6
Continuous
 62
     3
100
AcDbCircle
 10
1947.896579652526
 20
809.3056283435679
 30
0.0
 40
0.5
100
AcDbArc
 50
270.0
 51
11.99999999999979
  0
LINE
  5
6DB3
330
1E
100
AcDbEntity
  8
躯体と製品
  6
Continuous
 62
     3
100
AcDbLine
 10
1939.114028230793
 20
808.8056283435678
 30
0.0
 11
1941.514028230794
 21
808.8056283435678
 31
0.0
  0
LINE
  5
6DB4
330
1E
100
AcDbEntity
  8
躯体と製品
  6
Continuous
 62
     3
100
AcDbLine
 10
1943.514028230794
 20
809.8056283435679
 30
0.0
 11
1941.514028230794
 21
808.8056283435678
 31
0.0
  0
LINE
  5
6DB5
330
1E
100
AcDbEntity
  8
躯体と製品
  6
Continuous
 62
     3
100
AcDbLine
 10
1943.514028230794
 20
808.8056283435678
 30
0.0
 11
1943.514028230794
 21
809.8056283435679
 31
0.0
  0
ARC
  5
6DB6
330
1E
100
AcDbEntity
  8
躯体と製品
  6
Continuous
 62
     3
100
AcDbCircle
 10
1950.781502508749
 20
799.305628343568
 30
0.0
 40
2.5
100
AcDbArc
 50
270.0
 51
0.0
  0
LINE
  5
6DB7
330
1E
100
AcDbEntity
  8
躯体と製品
  6
Continuous
 62
     3
100
AcDbLine
 10
1950.781502508749
 20
796.8056283435678
 30
0.0
 11
1950.281502508749
 21
796.8056283435678
 31
0.0
  0
LINE
  5
6DB8
330
1E
100
AcDbEntity
  8
躯体と製品
  6
Continuous
 62
     3
100
AcDbLine
 10
1953.281502508749
 20
799.305628343568
 30
0.0
 11
1953.281502508749
 21
800.8056283435678
 31
0.0
  0
LINE
  5
6DB9
330
1E
100
AcDbEntity
  8
躯体と製品
  6
Continuous
 62
     3
100
AcDbLine
 10
1950.281502508749
 20
800.4903156377709
 30
0.0
 11
1950.281502508749
 21
796.8056283435678
 31
0.0
  0
ARC
  5
6DBA
330
1E
100
AcDbEntity
  8
躯体と製品
  6
Continuous
 62
     3
100
AcDbCircle
 10
1939.114028230793
 20
808.2056283435679
 30
0.0
 40
0.6000000000000015
100
AcDbArc
 50
90.0
 51
270.0
  0
ARC
  5
6DBB
330
1E
100
AcDbEntity
  8
躯体と製品
  6
Continuous
 62
     3
100
AcDbCircle
 10
1936.431786991344
 20
856.2324881574967
 30
0.0
 40
0.2999999999999999
100
AcDbArc
 50
86.99999999999441
 51
166.9999999999997
  0
ARC
  5
6DBC
330
1E
100
AcDbEntity
  8
躯体と製品
  6
Continuous
 62
     3
100
AcDbCircle
 10
1934.358032723944
 20
856.1408945442305
 30
0.0
 40
0.5
100
AcDbArc
 50
346.9999999999997
 51
86.99999999999441
  0
ARC
  5
6DBD
330
1E
100
AcDbEntity
  8
躯体と製品
  6
Continuous
 62
     3
100
AcDbCircle
 10
1934.846647252287
 20
853.3673639547338
 30
0.0
 40
0.5999999999999984
100
AcDbArc
 50
166.9999999999997
 51
346.9999999999997
  0
LINE
  5
6DBE
330
1E
100
AcDbEntity
  8
躯体と製品
  6
Continuous
 62
     3
100
AcDbLine
 10
1486.182657578385
 20
854.6505412023048
 30
0.0
 11
1705.381840457014
 21
866.1382835976308
 31
0.0
  0
LINE
  5
6DBF
330
1E
100
AcDbEntity
  8
躯体と製品
  6
Continuous
 62
     3
100
AcDbLine
 10
1924.581023335643
 20
854.6505412023048
 30
0.0
 11
1705.381840457014
 21
866.1382835976308
 31
0.0
  0
ARC
  5
6DC0
330
1E
100
AcDbEntity
  8
躯体と製品
  6
Continuous
 62
     7
100
AcDbCircle
 10
1478.845450861937
 20
841.2056283435678
 30
0.0
 40
2.1
100
AcDbArc
 50
4.999999999999459
 51
90.0
  0
LINE
  5
6DC1
330
1E
100
AcDbEntity
  8
躯体と製品
  6
Continuous
 62
     7
100
AcDbLine
 10
1478.845450861937
 20
843.3056283435679
 30
0.0
 11
1478.249652683234
 21
843.3056283435679
 31
0.0
  0
ARC
  5
6DC2
330
1E
100
AcDbEntity
  8
躯体と製品
  6
Continuous
 62
     7
100
AcDbCircle
 10
1478.845450861937
 20
841.2056283435678
 30
0.0
 40
1.1
100
AcDbArc
 50
4.999999999999459
 51
90.0
  0
LINE
  5
6DC3
330
1E
100
AcDbEntity
  8
躯体と製品
  6
Continuous
 62
     7
100
AcDbLine
 10
1478.845450861937
 20
842.3056283435679
 30
0.0
 11
1478.249652683234
 21
842.3056283435679
 31
0.0
  0
LINE
  5
6DC4
330
1E
100
AcDbEntity
  8
躯体と製品
  6
Continuous
 62
     7
100
AcDbLine
 10
1478.249652683234
 20
845.8056283435677
 30
0.0
 11
1478.249652683234
 21
843.3056283435679
 31
0.0
  0
LINE
  5
6DC5
330
1E
100
AcDbEntity
  8
躯体と製品
  6
Continuous
 62
     7
100
AcDbLine
 10
1476.749652683234
 20
841.8056283435678
 30
0.0
 11
1475.098567683235
 21
842.329001343568
 31
0.0
  0
LINE
  5
6DC6
330
1E
100
AcDbEntity
  8
躯体と製品
  6
Continuous
 62
     7
100
AcDbLine
 10
1476.749652683234
 20
841.8056283435678
 30
0.0
 11
1476.749652683234
 21
839.8056283435678
 31
0.0
  0
LINE
  5
6DC7
330
1E
100
AcDbEntity
  8
躯体と製品
  6
Continuous
 62
     7
100
AcDbLine
 10
1476.749652683234
 20
843.8056283435678
 30
0.0
 11
1476.749652683234
 21
845.8056283435677
 31
0.0
  0
ARC
  5
6DC8
330
1E
100
AcDbEntity
  8
躯体と製品
  6
Continuous
 62
     7
100
AcDbCircle
 10
1477.249652683235
 20
845.8056283435677
 30
0.0
 40
0.5
100
AcDbArc
 50
90.0
 51
180.0
  0
LINE
  5
6DC9
330
1E
100
AcDbEntity
  8
躯体と製品
  6
Continuous
 62
     7
100
AcDbLine
 10
1477.749652683234
 20
846.3056283435678
 30
0.0
 11
1477.249652683235
 21
846.3056283435678
 31
0.0
  0
LINE
  5
6DCA
330
1E
100
AcDbEntity
  8
躯体と製品
  6
Continuous
 62
     7
100
AcDbLine
 10
1477.749652683234
 20
839.3056283435678
 30
0.0
 11
1477.249652683235
 21
839.3056283435678
 31
0.0
  0
ARC
  5
6DCB
330
1E
100
AcDbEntity
  8
躯体と製品
  6
Continuous
 62
     7
100
AcDbCircle
 10
1477.249652683235
 20
839.8056283435678
 30
0.0
 40
0.5
100
AcDbArc
 50
180.0
 51
270.0
  0
ARC
  5
6DCC
330
1E
100
AcDbEntity
  8
躯体と製品
  6
Continuous
 62
     7
100
AcDbCircle
 10
1477.749652683234
 20
839.8056283435678
 30
0.0
 40
0.5
100
AcDbArc
 50
270.0
 51
0.0
  0
ARC
  5
6DCD
330
1E
100
AcDbEntity
  8
躯体と製品
  6
Continuous
 62
     7
100
AcDbCircle
 10
1477.749652683234
 20
845.8056283435677
 30
0.0
 40
0.5
100
AcDbArc
 50
0.0
 51
90.0
  0
LINE
  5
6DCE
330
1E
100
AcDbEntity
  8
躯体と製品
  6
Continuous
 62
     7
100
AcDbLine
 10
1478.249652683234
 20
839.8056283435678
 30
0.0
 11
1478.249652683234
 21
842.3056283435679
 31
0.0
  0
ARC
  5
6DCF
330
1E
100
AcDbEntity
  8
躯体と製品
  6
Continuous
 62
     7
100
AcDbCircle
 10
1475.249652683235
 20
842.8056283435678
 30
0.0
 40
0.5
100
AcDbArc
 50
107.587954000005
 51
252.412045999995
  0
LINE
  5
6DD0
330
1E
100
AcDbEntity
  8
躯体と製品
  6
Continuous
 62
     7
100
AcDbLine
 10
1476.749652683234
 20
843.8056283435678
 30
0.0
 11
1475.098567683235
 21
843.2822553435679
 31
0.0
  0
ARC
  5
6DD1
330
1E
100
AcDbEntity
  8
躯体と製品
  6
Continuous
 62
     3
100
AcDbCircle
 10
1478.849652683235
 20
841.2056283435678
 30
0.0
 40
0.5999999999999997
100
AcDbArc
 50
0.0
 51
180.0
  0
ARC
  5
6DD2
330
1E
100
AcDbEntity
  8
躯体と製品
  6
Continuous
 62
     3
100
AcDbCircle
 10
1478.849652683235
 20
845.4056283435679
 30
0.0
 40
0.5999999999999997
100
AcDbArc
 50
180.0
 51
0.0
  0
LINE
  5
6DD3
330
1E
100
AcDbEntity
  8
躯体と製品
  6
Continuous
 62
     3
100
AcDbLine
 10
1479.449652683235
 20
841.2056283435678
 30
0.0
 11
1479.449652683235
 21
839.1056283435679
 31
0.0
  0
LINE
  5
6DD4
330
1E
100
AcDbEntity
  8
躯体と製品
  6
Continuous
 62
     3
100
AcDbLine
 10
1478.249652683234
 20
841.2056283435678
 30
0.0
 11
1478.249652683234
 21
839.6056283435676
 31
0.0
  0
ARC
  5
6DD5
330
1E
100
AcDbEntity
  8
躯体と製品
  6
Continuous
 62
     3
100
AcDbCircle
 10
1477.949652683235
 20
839.6056283435676
 30
0.0
 40
0.2999999999999998
100
AcDbArc
 50
270.0
 51
0.0
  0
LINE
  5
6DD6
330
1E
100
AcDbEntity
  8
躯体と製品
  6
Continuous
 62
     3
100
AcDbLine
 10
1478.249652683234
 20
845.4056283435679
 30
0.0
 11
1478.249652683234
 21
847.0056283435678
 31
0.0
  0
ARC
  5
6DD7
330
1E
100
AcDbEntity
  8
躯体と製品
  6
Continuous
 62
     3
100
AcDbCircle
 10
1477.949652683235
 20
847.0056283435678
 30
0.0
 40
0.2999999999999998
100
AcDbArc
 50
0.0
 51
90.0
  0
LINE
  5
6DD8
330
1E
100
AcDbEntity
  8
躯体と製品
  6
Continuous
 62
     3
100
AcDbLine
 10
1479.449652683235
 20
845.4056283435679
 30
0.0
 11
1479.449652683235
 21
847.5056283435678
 31
0.0
  0
LINE
  5
6DD9
330
1E
100
AcDbEntity
  8
躯体と製品
  6
Continuous
 62
     3
100
AcDbLine
 10
1467.249652683235
 20
809.3056283435679
 30
0.0
 11
1465.628384683235
 21
809.7109453435679
 31
0.0
  0
ARC
  5
6DDA
330
1E
100
AcDbEntity
  8
躯体と製品
  6
Continuous
 62
     3
100
AcDbCircle
 10
1465.749652683235
 20
810.1960163435679
 30
0.0
 40
0.5
100
AcDbArc
 50
180.0
 51
255.9637569999957
  0
LINE
  5
6DDB
330
1E
100
AcDbEntity
  8
躯体と製品
  6
Continuous
 62
     3
100
AcDbLine
 10
1467.249652683235
 20
809.8056283435679
 30
0.0
 11
1467.249652683235
 21
809.3056283435679
 31
0.0
  0
LINE
  5
6DDC
330
1E
100
AcDbEntity
  8
躯体と製品
  6
Continuous
 62
     3
100
AcDbLine
 10
1465.249652683235
 20
810.5056283435679
 30
0.0
 11
1465.249652683235
 21
810.1960163435679
 31
0.0
  0
LINE
  5
6DDD
330
1E
100
AcDbEntity
  8
躯体と製品
  6
Continuous
 62
     3
100
AcDbLine
 10
1472.249652683234
 20
809.8056283435679
 30
0.0
 11
1467.249652683235
 21
809.8056283435679
 31
0.0
  0
ARC
  5
6DDE
330
1E
100
AcDbEntity
  8
躯体と製品
  6
Continuous
 62
     3
100
AcDbCircle
 10
1465.549652683235
 20
810.5056283435679
 30
0.0
 40
0.2999999999999998
100
AcDbArc
 50
90.0
 51
180.0
  0
ARC
  5
6DDF
330
1E
100
AcDbEntity
  8
躯体と製品
  6
Continuous
 62
     3
100
AcDbCircle
 10
1472.249652683234
 20
809.3056283435679
 30
0.0
 40
0.5
100
AcDbArc
 50
0.0
 51
90.0
  0
LINE
  5
6DE0
330
1E
100
AcDbEntity
  8
躯体と製品
  6
Continuous
 62
     3
100
AcDbLine
 10
1472.749652683235
 20
809.3056283435679
 30
0.0
 11
1472.749652683235
 21
800.5056283435679
 31
0.0
  0
LINE
  5
6DE1
330
1E
100
AcDbEntity
  8
躯体と製品
  6
Continuous
 62
     3
100
AcDbLine
 10
1472.249652683234
 20
810.8056283435677
 30
0.0
 11
1465.549652683235
 21
810.8056283435677
 31
0.0
  0
ARC
  5
6DE2
330
1E
100
AcDbEntity
  8
躯体と製品
  6
Continuous
 62
     3
100
AcDbCircle
 10
1472.249652683234
 20
811.3056283435678
 30
0.0
 40
0.5
100
AcDbArc
 50
270.0
 51
0.0
  0
LINE
  5
6DE3
330
1E
100
AcDbEntity
  8
躯体と製品
  6
Continuous
 62
     3
100
AcDbLine
 10
1467.849652683234
 20
798.3056283435678
 30
0.0
 11
1471.749652683234
 21
798.3056283435678
 31
0.0
  0
ARC
  5
6DE4
330
1E
100
AcDbEntity
  8
躯体と製品
  6
Continuous
 62
     3
100
AcDbCircle
 10
1471.749652683234
 20
800.8056283435678
 30
0.0
 40
2.5
100
AcDbArc
 50
270.0
 51
0.0
  0
LINE
  5
6DE5
330
1E
100
AcDbEntity
  8
躯体と製品
  6
Continuous
 62
     3
100
AcDbLine
 10
1472.749652683235
 20
855.5556283435681
 30
0.0
 11
1472.749652683235
 21
811.3056283435678
 31
0.0
  0
LINE
  5
6DE6
330
1E
100
AcDbEntity
  8
躯体と製品
  6
Continuous
 62
     3
100
AcDbLine
 10
1477.949652683235
 20
847.3056283435678
 30
0.0
 11
1474.549652683235
 21
847.3056283435678
 31
0.0
  0
LINE
  5
6DE7
330
1E
100
AcDbEntity
  8
躯体と製品
  6
Continuous
 62
     3
100
AcDbLine
 10
1477.949652683235
 20
839.3056283435678
 30
0.0
 11
1474.549652683235
 21
839.3056283435678
 31
0.0
  0
ARC
  5
6DE8
330
1E
100
AcDbEntity
  8
躯体と製品
  6
Continuous
 62
     3
100
AcDbCircle
 10
1474.549652683235
 20
839.6056283435676
 30
0.0
 40
0.2999999999999998
100
AcDbArc
 50
180.0
 51
270.0
  0
LINE
  5
6DE9
330
1E
100
AcDbEntity
  8
躯体と製品
  6
Continuous
 62
     3
100
AcDbLine
 10
1474.249652683235
 20
847.0056283435678
 30
0.0
 11
1474.249652683235
 21
839.6056283435676
 31
0.0
  0
ARC
  5
6DEA
330
1E
100
AcDbEntity
  8
躯体と製品
  6
Continuous
 62
     3
100
AcDbCircle
 10
1474.549652683235
 20
847.0056283435678
 30
0.0
 40
0.2999999999999998
100
AcDbArc
 50
90.0
 51
180.0
  0
LINE
  5
6DEB
330
1E
100
AcDbEntity
  8
躯体と製品
  6
Continuous
 62
     3
100
AcDbLine
 10
1474.749652683234
 20
838.1056283435679
 30
0.0
 11
1478.449652683235
 21
838.1056283435679
 31
0.0
  0
ARC
  5
6DEC
330
1E
100
AcDbEntity
  8
躯体と製品
  6
Continuous
 62
     3
100
AcDbCircle
 10
1478.449652683235
 20
839.1056283435679
 30
0.0
 40
1.0
100
AcDbArc
 50
270.0
 51
0.0
  0
ARC
  5
6DED
330
1E
100
AcDbEntity
  8
躯体と製品
  6
Continuous
 62
     3
100
AcDbCircle
 10
1474.749652683234
 20
837.6056283435678
 30
0.0
 40
0.5
100
AcDbArc
 50
90.0
 51
180.0
  0
LINE
  5
6DEE
330
1E
100
AcDbEntity
  8
躯体と製品
  6
Continuous
 62
     3
100
AcDbLine
 10
1474.749652683234
 20
848.5056283435678
 30
0.0
 11
1478.449652683235
 21
848.5056283435678
 31
0.0
  0
ARC
  5
6DEF
330
1E
100
AcDbEntity
  8
躯体と製品
  6
Continuous
 62
     3
100
AcDbCircle
 10
1478.449652683235
 20
847.5056283435678
 30
0.0
 40
1.0
100
AcDbArc
 50
0.0
 51
90.0
  0
ARC
  5
6DF0
330
1E
100
AcDbEntity
  8
躯体と製品
  6
Continuous
 62
     3
100
AcDbCircle
 10
1474.749652683234
 20
849.0056283435679
 30
0.0
 40
0.5
100
AcDbArc
 50
180.0
 51
270.0
  0
LINE
  5
6DF1
330
1E
100
AcDbEntity
  8
躯体と製品
  6
Continuous
 62
     3
100
AcDbLine
 10
1474.249652683235
 20
849.0056283435679
 30
0.0
 11
1474.249652683235
 21
855.5556283435681
 31
0.0
  0
ARC
  5
6DF2
330
1E
100
AcDbEntity
  8
躯体と製品
  6
Continuous
 62
     3
100
AcDbCircle
 10
1473.499652683235
 20
855.5556283435681
 30
0.0
 40
0.75
100
AcDbArc
 50
0.0
 51
180.0
  0
LINE
  5
6DF3
330
1E
100
AcDbEntity
  8
躯体と製品
  6
Continuous
 62
     3
100
AcDbLine
 10
1474.249652683235
 20
837.6056283435678
 30
0.0
 11
1474.249652683235
 21
800.8056283435678
 31
0.0
  0
ARC
  5
6DF4
330
1E
100
AcDbEntity
  8
躯体と製品
  6
Continuous
 62
     3
100
AcDbCircle
 10
1467.849652683234
 20
798.9056283435679
 30
0.0
 40
0.5999999999999997
100
AcDbArc
 50
90.0
 51
270.0
  0
LINE
  5
6DF5
330
1E
100
AcDbEntity
  8
躯体と製品
  6
Continuous
 62
     3
100
AcDbLine
 10
1467.849652683234
 20
799.505628343568
 30
0.0
 11
1471.749652683234
 21
799.505628343568
 31
0.0
  0
ARC
  5
6DF6
330
1E
100
AcDbEntity
  8
躯体と製品
  6
Continuous
 62
     3
100
AcDbCircle
 10
1471.749652683234
 20
800.5056283435679
 30
0.0
 40
1.0
100
AcDbArc
 50
270.0
 51
0.0
  0
LINE
  5
6DF7
330
1E
100
AcDbEntity
  8
躯体と製品
  6
Continuous
 62
     3
100
AcDbLine
 10
1819.381840457014
 20
855.9558644407095
 30
0.0
 11
1819.381840457014
 21
848.6688027037995
 31
0.0
  0
LINE
  5
6DF8
330
1E
100
AcDbEntity
  8
躯体と製品
  6
Continuous
 62
     3
100
AcDbLine
 10
1814.381840457014
 20
846.5688027037996
 30
0.0
 11
1818.881840457014
 21
846.5688027037996
 31
0.0
  0
LINE
  5
6DF9
330
1E
100
AcDbEntity
  8
躯体と製品
  6
Continuous
 62
     3
100
AcDbLine
 10
1814.381840457014
 20
846.5688027037996
 30
0.0
 11
1814.381840457014
 21
848.1688027037996
 31
0.0
  0
LINE
  5
6DFA
330
1E
100
AcDbEntity
  8
躯体と製品
  6
Continuous
 62
     3
100
AcDbLine
 10
1814.381840457014
 20
848.1688027037996
 30
0.0
 11
1818.881840457014
 21
848.1688027037996
 31
0.0
  0
ARC
  5
6DFB
330
1E
100
AcDbEntity
  8
躯体と製品
  6
Continuous
 62
     3
100
AcDbCircle
 10
1818.881840457014
 20
848.6688027037995
 30
0.0
 40
2.1
100
AcDbArc
 50
270.0
 51
0.0
  0
ARC
  5
6DFC
330
1E
100
AcDbEntity
  8
躯体と製品
  6
Continuous
 62
     3
100
AcDbCircle
 10
1818.881840457014
 20
848.6688027037995
 30
0.0
 40
0.5
100
AcDbArc
 50
270.0
 51
0.0
  0
LINE
  5
6DFD
330
1E
100
AcDbEntity
  8
躯体と製品
  6
Continuous
 62
     3
100
AcDbLine
 10
1846.381840457014
 20
846.5688027037996
 30
0.0
 11
1841.881840457014
 21
846.5688027037996
 31
0.0
  0
LINE
  5
6DFE
330
1E
100
AcDbEntity
  8
躯体と製品
  6
Continuous
 62
     3
100
AcDbLine
 10
1841.881840457014
 20
848.1688027037996
 30
0.0
 11
1846.381840457014
 21
848.1688027037996
 31
0.0
  0
LINE
  5
6DFF
330
1E
100
AcDbEntity
  8
躯体と製品
  6
Continuous
 62
     3
100
AcDbLine
 10
1846.381840457014
 20
848.1688027037996
 30
0.0
 11
1846.381840457014
 21
846.5688027037996
 31
0.0
  0
ARC
  5
6E00
330
1E
100
AcDbEntity
  8
躯体と製品
  6
Continuous
 62
     3
100
AcDbCircle
 10
1841.881840457014
 20
848.6688027037995
 30
0.0
 40
2.1
100
AcDbArc
 50
180.0
 51
270.0
  0
ARC
  5
6E01
330
1E
100
AcDbEntity
  8
躯体と製品
  6
Continuous
 62
     3
100
AcDbCircle
 10
1841.881840457014
 20
848.6688027037995
 30
0.0
 40
0.5
100
AcDbArc
 50
180.0
 51
270.0
  0
LINE
  5
6E02
330
1E
100
AcDbEntity
  8
躯体と製品
  6
Continuous
 62
     3
100
AcDbLine
 10
1820.981840457014
 20
855.9558644407095
 30
0.0
 11
1820.981840457014
 21
848.6688027037995
 31
0.0
  0
ARC
  5
6E03
330
1E
100
AcDbEntity
  8
躯体と製品
  6
Continuous
 62
     3
100
AcDbCircle
 10
1821.481840457014
 20
855.9558644407095
 30
0.0
 40
0.5
100
AcDbArc
 50
86.99999999999441
 51
180.0
  0
LINE
  5
6E04
330
1E
100
AcDbEntity
  8
躯体と製品
  6
Continuous
 62
     3
100
AcDbLine
 10
1839.781840457014
 20
855.0230059694714
 30
0.0
 11
1839.781840457014
 21
848.6688027037995
 31
0.0
  0
ARC
  5
6E05
330
1E
100
AcDbEntity
  8
躯体と製品
  6
Continuous
 62
     3
100
AcDbCircle
 10
1839.281840457014
 20
855.0230059694714
 30
0.0
 40
0.5
100
AcDbArc
 50
0.0
 51
86.99999999999441
  0
ARC
  5
6E06
330
1E
100
AcDbEntity
  8
躯体と製品
  6
Continuous
 62
     3
100
AcDbCircle
 10
1821.481840457014
 20
855.9558644407095
 30
0.0
 40
2.1
100
AcDbArc
 50
86.99999999999441
 51
180.0
  0
LINE
  5
6E07
330
1E
100
AcDbEntity
  8
躯体と製品
  6
Continuous
 62
     3
100
AcDbLine
 10
1841.381840457014
 20
855.0230059694714
 30
0.0
 11
1841.381840457014
 21
848.6688027037995
 31
0.0
  0
ARC
  5
6E08
330
1E
100
AcDbEntity
  8
躯体と製品
  6
Continuous
 62
     3
100
AcDbCircle
 10
1839.281840457014
 20
855.0230059694714
 30
0.0
 40
2.1
100
AcDbArc
 50
0.0
 51
86.99999999999441
  0
LINE
  5
6E09
330
1E
100
AcDbEntity
  8
躯体と製品
  6
Continuous
 62
     3
100
AcDbLine
 10
1834.787126874411
 20
853.756505407852
 30
0.0
 11
1825.599735154668
 21
854.2379962052873
 31
0.0
  0
LINE
  5
6E0A
330
1E
100
AcDbEntity
  8
躯体と製品
  6
Continuous
 62
     3
100
AcDbLine
 10
1825.652071110912
 20
855.2366257400418
 30
0.0
 11
1825.599735154668
 21
854.2379962052873
 31
0.0
  0
ARC
  5
6E0B
330
1E
100
AcDbEntity
  8
躯体と製品
  6
Continuous
 62
     3
100
AcDbCircle
 10
1824.653441576157
 20
855.2889616962847
 30
0.0
 40
1.0
100
AcDbArc
 50
357.0000000000011
 51
86.99999999999441
  0
LINE
  5
6E0C
330
1E
100
AcDbEntity
  8
躯体と製品
  6
Continuous
 62
     3
100
AcDbLine
 10
1834.839462830654
 20
854.7551349426067
 30
0.0
 11
1834.787126874411
 21
853.756505407852
 31
0.0
  0
ARC
  5
6E0D
330
1E
100
AcDbEntity
  8
躯体と製品
  6
Continuous
 62
     3
100
AcDbCircle
 10
1835.838092365408
 20
854.7027989863636
 30
0.0
 40
1.0
100
AcDbArc
 50
86.99999999999441
 51
177.0000000000011
  0
LINE
  5
6E0E
330
1E
100
AcDbEntity
  8
躯体と製品
  6
Continuous
 62
     3
100
AcDbLine
 10
1839.308008435136
 20
855.5223207368488
 30
0.0
 11
1821.508008435136
 21
856.4551792080868
 31
0.0
  0
LINE
  5
6E0F
330
1E
100
AcDbEntity
  8
躯体と製品
  6
Continuous
 62
     3
100
AcDbLine
 10
1839.391745965124
 20
857.120127992456
 30
0.0
 11
1821.591745965124
 21
858.0529864636941
 31
0.0
  0
LINE
  5
6E10
330
1E
100
AcDbEntity
  8
躯体と製品
  6
DASHED1
 62
     7
100
AcDbLine
 10
1827.38595185275
 20
857.7493250004149
 30
0.0
 11
1827.197542410275
 21
854.1542586752985
 31
0.0
  0
LINE
  5
6E11
330
1E
100
AcDbEntity
  8
躯体と製品
  6
DASHED1
 62
     7
100
AcDbLine
 10
1833.377729061278
 20
857.4353092629573
 30
0.0
 11
1833.189319618803
 21
853.8402429378409
 31
0.0
  0
LINE
  5
6E12
330
1E
100
AcDbEntity
  8
躯体と製品
  6
Continuous
 62
     4
100
AcDbLine
 10
1816.381840457014
 20
848.1688027037996
 30
0.0
 11
1816.381840457014
 21
846.5688027037996
 31
0.0
  0
LINE
  5
6E13
330
1E
100
AcDbEntity
  8
躯体と製品
  6
Continuous
 62
     4
100
AcDbLine
 10
1844.381840457014
 20
848.1688027037996
 30
0.0
 11
1844.381840457014
 21
846.5688027037996
 31
0.0
  0
LINE
  5
6E14
330
1E
100
AcDbEntity
  8
躯体と製品
  6
DASHED1
 62
     7
100
AcDbLine
 10
1834.431840457014
 20
839.6688027037995
 30
0.0
 11
1834.431840457014
 21
830.3688027037994
 31
0.0
  0
LINE
  5
6E15
330
1E
100
AcDbEntity
  8
躯体と製品
  6
DASHED1
 62
     7
100
AcDbLine
 10
1826.331840457014
 20
839.6688027037995
 30
0.0
 11
1826.331840457014
 21
830.3688027037994
 31
0.0
  0
LINE
  5
6E16
330
1E
100
AcDbEntity
  8
躯体と製品
  6
DASHED1
 62
     7
100
AcDbLine
 10
1835.131840457014
 20
829.6688027037996
 30
0.0
 11
1834.431840457014
 21
830.3688027037994
 31
0.0
  0
LINE
  5
6E17
330
1E
100
AcDbEntity
  8
躯体と製品
  6
DASHED1
 62
     7
100
AcDbLine
 10
1835.131840457014
 20
811.0406287037994
 30
0.0
 11
1835.131840457014
 21
829.6688027037996
 31
0.0
  0
LINE
  5
6E18
330
1E
100
AcDbEntity
  8
躯体と製品
  6
DASHED1
 62
     7
100
AcDbLine
 10
1834.881840457014
 20
799.1688027037996
 30
0.0
 11
1834.881840457014
 21
800.0321067037996
 31
0.0
  0
LINE
  5
6E19
330
1E
100
AcDbEntity
  8
躯体と製品
  6
DASHED1
 62
     7
100
AcDbLine
 10
1837.006870457014
 20
800.4068067037994
 30
0.0
 11
1835.131840457014
 21
811.0406287037994
 31
0.0
  0
LINE
  5
6E1A
330
1E
100
AcDbEntity
  8
躯体と製品
  6
DASHED1
 62
     7
100
AcDbLine
 10
1830.881840457014
 20
810.6688027037996
 30
0.0
 11
1829.881840457014
 21
810.6688027037996
 31
0.0
  0
LINE
  5
6E1B
330
1E
100
AcDbEntity
  8
躯体と製品
  6
DASHED1
 62
     7
100
AcDbLine
 10
1825.631840457014
 20
829.6688027037996
 30
0.0
 11
1826.331840457014
 21
830.3688027037994
 31
0.0
  0
LINE
  5
6E1C
330
1E
100
AcDbEntity
  8
躯体と製品
  6
DASHED1
 62
     7
100
AcDbLine
 10
1825.631840457014
 20
811.0406287037994
 30
0.0
 11
1825.631840457014
 21
829.6688027037996
 31
0.0
  0
LINE
  5
6E1D
330
1E
100
AcDbEntity
  8
躯体と製品
  6
DASHED1
 62
     7
100
AcDbLine
 10
1826.881840457014
 20
798.1688027037996
 30
0.0
 11
1833.881840457014
 21
798.1688027037996
 31
0.0
  0
ARC
  5
6E1E
330
1E
100
AcDbEntity
  8
躯体と製品
  6
DASHED1
 62
     7
100
AcDbCircle
 10
1826.881840457014
 20
799.1688027037996
 30
0.0
 40
1.0
100
AcDbArc
 50
180.0
 51
270.0
  0
LINE
  5
6E1F
330
1E
100
AcDbEntity
  8
躯体と製品
  6
DASHED1
 62
     7
100
AcDbLine
 10
1825.881840457014
 20
799.1688027037996
 30
0.0
 11
1825.881840457014
 21
800.0321067037996
 31
0.0
  0
LINE
  5
6E20
330
1E
100
AcDbEntity
  8
躯体と製品
  6
DASHED1
 62
     7
100
AcDbLine
 10
1823.756810457014
 20
800.4068067037994
 30
0.0
 11
1827.942243457014
 21
799.6688027037996
 31
0.0
  0
LINE
  5
6E21
330
1E
100
AcDbEntity
  8
躯体と製品
  6
DASHED1
 62
     7
100
AcDbLine
 10
1830.881840457014
 20
810.6688027037996
 30
0.0
 11
1832.821437457014
 21
799.6688027037996
 31
0.0
  0
LINE
  5
6E22
330
1E
100
AcDbEntity
  8
躯体と製品
  6
DASHED1
 62
     7
100
AcDbLine
 10
1829.881840457014
 20
810.6688027037996
 30
0.0
 11
1827.942243457014
 21
799.6688027037996
 31
0.0
  0
LINE
  5
6E23
330
1E
100
AcDbEntity
  8
躯体と製品
  6
DASHED1
 62
     7
100
AcDbLine
 10
1823.756810457014
 20
800.4068067037994
 30
0.0
 11
1825.631840457014
 21
811.0406287037994
 31
0.0
  0
LINE
  5
6E24
330
1E
100
AcDbEntity
  8
躯体と製品
  6
DASHED1
 62
     7
100
AcDbLine
 10
1835.131840457014
 20
829.6688027037996
 30
0.0
 11
1825.631840457014
 21
829.6688027037996
 31
0.0
  0
LINE
  5
6E25
330
1E
100
AcDbEntity
  8
躯体と製品
  6
DASHED1
 62
     7
100
AcDbLine
 10
1834.431840457014
 20
830.3688027037994
 30
0.0
 11
1826.331840457014
 21
830.3688027037994
 31
0.0
  0
LINE
  5
6E26
330
1E
100
AcDbEntity
  8
躯体と製品
  6
DASHED1
 62
     7
100
AcDbLine
 10
1837.006870457014
 20
800.4068067037994
 30
0.0
 11
1832.821437457014
 21
799.6688027037996
 31
0.0
  0
ARC
  5
6E27
330
1E
100
AcDbEntity
  8
躯体と製品
  6
DASHED1
 62
     7
100
AcDbCircle
 10
1833.881840457014
 20
799.1688027037996
 30
0.0
 40
1.0
100
AcDbArc
 50
270.0
 51
0.0
  0
ARC
  5
6E28
330
1E
100
AcDbEntity
  8
躯体と製品
  6
Continuous
 62
     3
100
AcDbCircle
 10
1858.939150723597
 20
842.6688027037997
 30
0.0
 40
0.5
100
AcDbArc
 50
270.0
 51
350.0000000000025
  0
LINE
  5
6E29
330
1E
100
AcDbEntity
  8
躯体と製品
  6
Continuous
 62
     3
100
AcDbLine
 10
1858.939150723597
 20
842.1688027037996
 30
0.0
 11
1855.892870887939
 21
842.1688027037996
 31
0.0
  0
LINE
  5
6E2A
330
1E
100
AcDbEntity
  8
躯体と製品
  6
Continuous
 62
     3
100
AcDbLine
 10
1859.431554600103
 20
842.5819786149659
 30
0.0
 11
1859.838749271663
 21
844.8912943528306
 31
0.0
  0
ARC
  5
6E2B
330
1E
100
AcDbEntity
  8
躯体と製品
  6
Continuous
 62
     3
100
AcDbCircle
 10
1855.892870887939
 20
842.6688027037997
 30
0.0
 40
0.5
100
AcDbArc
 50
170.0000000000025
 51
270.0
  0
LINE
  5
6E2C
330
1E
100
AcDbEntity
  8
躯体と製品
  6
Continuous
 62
     3
100
AcDbLine
 10
1855.400467011434
 20
842.7556267926329
 30
0.0
 11
1855.899518259614
 21
845.585887063498
 31
0.0
  0
ARC
  5
6E2D
330
1E
100
AcDbEntity
  8
躯体と製品
  6
Continuous
 62
     3
100
AcDbCircle
 10
1853.354304358225
 20
842.6688027037997
 30
0.0
 40
0.5
100
AcDbArc
 50
270.0
 51
350.0000000000025
  0
LINE
  5
6E2E
330
1E
100
AcDbEntity
  8
躯体と製品
  6
Continuous
 62
     3
100
AcDbLine
 10
1853.354304358225
 20
842.1688027037996
 30
0.0
 11
1849.381840457014
 21
842.1688027037996
 31
0.0
  0
LINE
  5
6E2F
330
1E
100
AcDbEntity
  8
躯体と製品
  6
Continuous
 62
     3
100
AcDbLine
 10
1853.846708234732
 20
842.5819786149659
 30
0.0
 11
1854.986663207514
 21
849.0469845272885
 31
0.0
  0
LINE
  5
6E30
330
1E
100
AcDbEntity
  8
躯体と製品
  6
Continuous
 62
     3
100
AcDbLine
 10
1856.073166437281
 20
846.5706948165102
 30
0.0
 11
1855.580762560775
 21
846.6575189053438
 31
0.0
  0
LINE
  5
6E31
330
1E
100
AcDbEntity
  8
躯体と製品
  6
Continuous
 62
     3
100
AcDbLine
 10
1860.504801325836
 20
845.7892780170089
 30
0.0
 11
1860.01239744933
 21
845.8761021058426
 31
0.0
  0
LINE
  5
6E32
330
1E
100
AcDbEntity
  8
躯体と製品
  6
Continuous
 62
     3
100
AcDbLine
 10
1856.246814614948
 20
847.5555025695227
 30
0.0
 11
1855.754410738442
 21
847.6423266583561
 31
0.0
  0
LINE
  5
6E33
330
1E
100
AcDbEntity
  8
躯体と製品
  6
Continuous
 62
     3
100
AcDbLine
 10
1860.678449503503
 20
846.7740857700215
 30
0.0
 11
1860.186045626997
 21
846.8609098588551
 31
0.0
  0
LINE
  5
6E34
330
1E
100
AcDbEntity
  8
躯体と製品
  6
Continuous
 62
     3
100
AcDbLine
 10
1860.881840457014
 20
842.1688027037996
 30
0.0
 11
1861.880317478599
 21
847.8314472836197
 31
0.0
  0
LINE
  5
6E35
330
1E
100
AcDbEntity
  8
躯体と製品
  6
Continuous
 62
     3
100
AcDbLine
 10
1860.186045626997
 20
846.8609098588551
 30
0.0
 11
1860.403105849081
 21
848.0919195501201
 31
0.0
  0
LINE
  5
6E36
330
1E
100
AcDbEntity
  8
躯体と製品
  6
Continuous
 62
     3
100
AcDbLine
 10
1856.246814614948
 20
847.5555025695227
 30
0.0
 11
1856.463874837032
 21
848.786512260788
 31
0.0
  0
LINE
  5
6E37
330
1E
100
AcDbEntity
  8
躯体と製品
  6
Continuous
 62
     3
100
AcDbLine
 10
1860.504801325836
 20
845.7892780170089
 30
0.0
 11
1859.838749271663
 21
844.8912943528306
 31
0.0
  0
LINE
  5
6E38
330
1E
100
AcDbEntity
  8
躯体と製品
  6
Continuous
 62
     3
100
AcDbLine
 10
1860.678449503503
 20
846.7740857700215
 30
0.0
 11
1860.01239744933
 21
845.8761021058426
 31
0.0
  0
ARC
  5
6E39
330
1E
100
AcDbEntity
  8
躯体と製品
  6
Continuous
 62
     3
100
AcDbCircle
 10
1855.725269022273
 20
848.9167483940379
 30
0.0
 40
0.7500000000000014
100
AcDbArc
 50
350.0000000000025
 51
170.0000000000025
  0
ARC
  5
6E3A
330
1E
100
AcDbEntity
  8
躯体と製品
  6
Continuous
 62
     3
100
AcDbCircle
 10
1861.141711663839
 20
847.96168341687
 30
0.0
 40
0.7499999999999977
100
AcDbArc
 50
350.0000000000025
 51
170.0000000000025
  0
LINE
  5
6E3B
330
1E
100
AcDbEntity
  8
躯体と製品
  6
Continuous
 62
     3
100
AcDbLine
 10
1860.881840457014
 20
839.6688027037995
 30
0.0
 11
1860.881840457014
 21
842.1688027037996
 31
0.0
  0
LINE
  5
6E3C
330
1E
100
AcDbEntity
  8
躯体と製品
  6
Continuous
 62
     3
100
AcDbLine
 10
1812.381840457014
 20
839.6688027037995
 30
0.0
 11
1813.881840457014
 21
839.6688027037995
 31
0.0
  0
LINE
  5
6E3D
330
1E
100
AcDbEntity
  8
躯体と製品
  6
Continuous
 62
     3
100
AcDbLine
 10
1813.881840457014
 20
839.6688027037995
 30
0.0
 11
1813.881840457014
 21
840.1688027037996
 31
0.0
  0
LINE
  5
6E3E
330
1E
100
AcDbEntity
  8
躯体と製品
  6
Continuous
 62
     3
100
AcDbLine
 10
1813.881840457014
 20
840.1688027037996
 30
0.0
 11
1825.381840457014
 21
840.1688027037996
 31
0.0
  0
LINE
  5
6E3F
330
1E
100
AcDbEntity
  8
躯体と製品
  6
Continuous
 62
     3
100
AcDbLine
 10
1825.381840457014
 20
840.1688027037996
 30
0.0
 11
1825.381840457014
 21
839.6688027037995
 31
0.0
  0
ARC
  5
6E40
330
1E
100
AcDbEntity
  8
躯体と製品
  6
Continuous
 62
     3
100
AcDbCircle
 10
1817.131840457014
 20
848.9188027037997
 30
0.0
 40
0.75
100
AcDbArc
 50
270.0
 51
90.0
  0
ARC
  5
6E41
330
1E
100
AcDbEntity
  8
躯体と製品
  6
Continuous
 62
     3
100
AcDbCircle
 10
1816.131840457014
 20
844.9188027037996
 30
0.0
 40
0.75
100
AcDbArc
 50
270.0
 51
90.0
  0
ARC
  5
6E42
330
1E
100
AcDbEntity
  8
躯体と製品
  6
Continuous
 62
     3
100
AcDbCircle
 10
1814.181840457013
 20
847.8688027037993
 30
0.0
 40
0.2999999999999998
100
AcDbArc
 50
90.0
 51
180.0
  0
LINE
  5
6E43
330
1E
100
AcDbEntity
  8
躯体と製品
  6
Continuous
 62
     3
100
AcDbLine
 10
1814.181840457013
 20
848.1688027037996
 30
0.0
 11
1817.131840457014
 21
848.1688027037996
 31
0.0
  0
LINE
  5
6E44
330
1E
100
AcDbEntity
  8
躯体と製品
  6
Continuous
 62
     3
100
AcDbLine
 10
1814.181840457013
 20
845.6688027037996
 30
0.0
 11
1816.131840457014
 21
845.6688027037996
 31
0.0
  0
ARC
  5
6E45
330
1E
100
AcDbEntity
  8
躯体と製品
  6
Continuous
 62
     3
100
AcDbCircle
 10
1814.181840457013
 20
845.9688027037998
 30
0.0
 40
0.2999999999999998
100
AcDbArc
 50
180.0
 51
270.0
  0
LINE
  5
6E46
330
1E
100
AcDbEntity
  8
躯体と製品
  6
Continuous
 62
     3
100
AcDbLine
 10
1813.881840457014
 20
845.9688027037998
 30
0.0
 11
1813.881840457014
 21
847.8688027037993
 31
0.0
  0
ARC
  5
6E47
330
1E
100
AcDbEntity
  8
躯体と製品
  6
Continuous
 62
     3
100
AcDbCircle
 10
1814.181840457013
 20
843.8688027037994
 30
0.0
 40
0.2999999999999998
100
AcDbArc
 50
90.0
 51
180.0
  0
LINE
  5
6E48
330
1E
100
AcDbEntity
  8
躯体と製品
  6
Continuous
 62
     3
100
AcDbLine
 10
1814.181840457013
 20
844.1688027037995
 30
0.0
 11
1816.131840457014
 21
844.1688027037995
 31
0.0
  0
ARC
  5
6E49
330
1E
100
AcDbEntity
  8
躯体と製品
  6
Continuous
 62
     3
100
AcDbCircle
 10
1814.181840457013
 20
842.4688027037996
 30
0.0
 40
0.2999999999999998
100
AcDbArc
 50
180.0
 51
270.0
  0
LINE
  5
6E4A
330
1E
100
AcDbEntity
  8
躯体と製品
  6
Continuous
 62
     3
100
AcDbLine
 10
1813.881840457014
 20
842.4688027037996
 30
0.0
 11
1813.881840457014
 21
843.8688027037994
 31
0.0
  0
LINE
  5
6E4B
330
1E
100
AcDbEntity
  8
躯体と製品
  6
Continuous
 62
     3
100
AcDbLine
 10
1812.881840457014
 20
849.6688027037997
 30
0.0
 11
1817.131840457014
 21
849.6688027037997
 31
0.0
  0
ARC
  5
6E4C
330
1E
100
AcDbEntity
  8
躯体と製品
  6
Continuous
 62
     3
100
AcDbCircle
 10
1812.881840457014
 20
849.1688027037996
 30
0.0
 40
0.5
100
AcDbArc
 50
90.0
 51
180.0
  0
LINE
  5
6E4D
330
1E
100
AcDbEntity
  8
躯体と製品
  6
Continuous
 62
     3
100
AcDbLine
 10
1812.381840457014
 20
849.1688027037996
 30
0.0
 11
1812.381840457014
 21
839.6688027037995
 31
0.0
  0
LINE
  5
6E4E
330
1E
100
AcDbEntity
  8
躯体と製品
  6
Continuous
 62
     3
100
AcDbLine
 10
1825.381840457014
 20
839.6688027037995
 30
0.0
 11
1835.381840457014
 21
839.6688027037995
 31
0.0
  0
LINE
  5
6E4F
330
1E
100
AcDbEntity
  8
躯体と製品
  6
Continuous
 62
     3
100
AcDbLine
 10
1830.881840457014
 20
842.1688027037996
 30
0.0
 11
1846.581840457014
 21
842.1688027037996
 31
0.0
  0
LINE
  5
6E50
330
1E
100
AcDbEntity
  8
躯体と製品
  6
Continuous
 62
     3
100
AcDbLine
 10
1814.181840457013
 20
842.1688027037996
 30
0.0
 11
1829.881840457014
 21
842.1688027037996
 31
0.0
  0
LINE
  5
6E51
330
1E
100
AcDbEntity
  8
躯体と製品
  6
Continuous
 62
     3
100
AcDbLine
 10
1835.381840457014
 20
839.6688027037995
 30
0.0
 11
1835.381840457014
 21
840.1688027037996
 31
0.0
  0
LINE
  5
6E52
330
1E
100
AcDbEntity
  8
躯体と製品
  6
Continuous
 62
     3
100
AcDbLine
 10
1835.381840457014
 20
840.1688027037996
 30
0.0
 11
1846.881840457014
 21
840.1688027037996
 31
0.0
  0
LINE
  5
6E53
330
1E
100
AcDbEntity
  8
躯体と製品
  6
Continuous
 62
     3
100
AcDbLine
 10
1846.881840457014
 20
840.1688027037996
 30
0.0
 11
1846.881840457014
 21
839.6688027037995
 31
0.0
  0
LINE
  5
6E54
330
1E
100
AcDbEntity
  8
躯体と製品
  6
Continuous
 62
     3
100
AcDbLine
 10
1846.881840457014
 20
839.6688027037995
 30
0.0
 11
1848.881840457014
 21
839.6688027037995
 31
0.0
  0
ARC
  5
6E55
330
1E
100
AcDbEntity
  8
躯体と製品
  6
Continuous
 62
     3
100
AcDbCircle
 10
1847.881840457014
 20
857.6688027037997
 30
0.0
 40
1.0
100
AcDbArc
 50
0.0
 51
180.0
  0
LINE
  5
6E56
330
1E
100
AcDbEntity
  8
躯体と製品
  6
Continuous
 62
     3
100
AcDbLine
 10
1859.381840457014
 20
840.6688027037997
 30
0.0
 11
1859.381840457014
 21
839.6688027037995
 31
0.0
  0
LINE
  5
6E57
330
1E
100
AcDbEntity
  8
躯体と製品
  6
Continuous
 62
     3
100
AcDbLine
 10
1859.381840457014
 20
839.6688027037995
 30
0.0
 11
1860.881840457014
 21
839.6688027037995
 31
0.0
  0
LINE
  5
6E58
330
1E
100
AcDbEntity
  8
躯体と製品
  6
Continuous
 62
     3
100
AcDbLine
 10
1830.381840457014
 20
841.6688027037997
 30
0.0
 11
1830.881840457014
 21
842.1688027037996
 31
0.0
  0
LINE
  5
6E59
330
1E
100
AcDbEntity
  8
躯体と製品
  6
Continuous
 62
     3
100
AcDbLine
 10
1848.881840457014
 20
839.6688027037995
 30
0.0
 11
1848.881840457014
 21
840.6688027037997
 31
0.0
  0
LINE
  5
6E5A
330
1E
100
AcDbEntity
  8
躯体と製品
  6
Continuous
 62
     3
100
AcDbLine
 10
1848.881840457014
 20
840.6688027037997
 30
0.0
 11
1859.381840457014
 21
840.6688027037997
 31
0.0
  0
LINE
  5
6E5B
330
1E
100
AcDbEntity
  8
躯体と製品
  6
Continuous
 62
     3
100
AcDbLine
 10
1848.881840457014
 20
842.6688027037997
 30
0.0
 11
1848.881840457014
 21
857.6688027037997
 31
0.0
  0
ARC
  5
6E5C
330
1E
100
AcDbEntity
  8
躯体と製品
  6
Continuous
 62
     3
100
AcDbCircle
 10
1849.381840457014
 20
842.6688027037997
 30
0.0
 40
0.5
100
AcDbArc
 50
180.0
 51
270.0
  0
ARC
  5
6E5D
330
1E
100
AcDbEntity
  8
躯体と製品
  6
Continuous
 62
     3
100
AcDbCircle
 10
1846.581840457014
 20
842.4688027037996
 30
0.0
 40
0.2999999999999998
100
AcDbArc
 50
270.0
 51
0.0
  0
LINE
  5
6E5E
330
1E
100
AcDbEntity
  8
躯体と製品
  6
Continuous
 62
     3
100
AcDbLine
 10
1846.381840457014
 20
849.6688027037997
 30
0.0
 11
1843.631840457014
 21
849.6688027037997
 31
0.0
  0
ARC
  5
6E5F
330
1E
100
AcDbEntity
  8
躯体と製品
  6
Continuous
 62
     3
100
AcDbCircle
 10
1846.381840457014
 20
850.1688027037996
 30
0.0
 40
0.5
100
AcDbArc
 50
270.0
 51
0.0
  0
LINE
  5
6E60
330
1E
100
AcDbEntity
  8
躯体と製品
  6
Continuous
 62
     3
100
AcDbLine
 10
1846.881840457014
 20
850.1688027037996
 30
0.0
 11
1846.881840457014
 21
857.6688027037997
 31
0.0
  0
ARC
  5
6E61
330
1E
100
AcDbEntity
  8
躯体と製品
  6
Continuous
 62
     3
100
AcDbCircle
 10
1843.631840457014
 20
848.9188027037997
 30
0.0
 40
0.75
100
AcDbArc
 50
90.0
 51
270.0
  0
ARC
  5
6E62
330
1E
100
AcDbEntity
  8
躯体と製品
  6
Continuous
 62
     3
100
AcDbCircle
 10
1844.631840457014
 20
844.9188027037996
 30
0.0
 40
0.75
100
AcDbArc
 50
90.0
 51
270.0
  0
LINE
  5
6E63
330
1E
100
AcDbEntity
  8
躯体と製品
  6
Continuous
 62
     3
100
AcDbLine
 10
1846.581840457014
 20
844.1688027037995
 30
0.0
 11
1844.631840457014
 21
844.1688027037995
 31
0.0
  0
ARC
  5
6E64
330
1E
100
AcDbEntity
  8
躯体と製品
  6
Continuous
 62
     3
100
AcDbCircle
 10
1846.581840457014
 20
843.8688027037994
 30
0.0
 40
0.2999999999999998
100
AcDbArc
 50
0.0
 51
90.0
  0
LINE
  5
6E65
330
1E
100
AcDbEntity
  8
躯体と製品
  6
Continuous
 62
     3
100
AcDbLine
 10
1846.881840457014
 20
843.8688027037994
 30
0.0
 11
1846.881840457014
 21
842.4688027037996
 31
0.0
  0
LINE
  5
6E66
330
1E
100
AcDbEntity
  8
躯体と製品
  6
Continuous
 62
     3
100
AcDbLine
 10
1846.581840457014
 20
845.6688027037996
 30
0.0
 11
1844.631840457014
 21
845.6688027037996
 31
0.0
  0
ARC
  5
6E67
330
1E
100
AcDbEntity
  8
躯体と製品
  6
Continuous
 62
     3
100
AcDbCircle
 10
1846.581840457014
 20
845.9688027037998
 30
0.0
 40
0.2999999999999998
100
AcDbArc
 50
270.0
 51
0.0
  0
LINE
  5
6E68
330
1E
100
AcDbEntity
  8
躯体と製品
  6
Continuous
 62
     3
100
AcDbLine
 10
1846.881840457014
 20
847.8688027037993
 30
0.0
 11
1846.881840457014
 21
845.9688027037998
 31
0.0
  0
ARC
  5
6E69
330
1E
100
AcDbEntity
  8
躯体と製品
  6
Continuous
 62
     3
100
AcDbCircle
 10
1846.581840457014
 20
847.8688027037993
 30
0.0
 40
0.2999999999999998
100
AcDbArc
 50
0.0
 51
90.0
  0
LINE
  5
6E6A
330
1E
100
AcDbEntity
  8
躯体と製品
  6
Continuous
 62
     3
100
AcDbLine
 10
1846.581840457014
 20
848.1688027037996
 30
0.0
 11
1843.631840457014
 21
848.1688027037996
 31
0.0
  0
LINE
  5
6E6B
330
1E
100
AcDbEntity
  8
躯体と製品
  6
Continuous
 62
     3
100
AcDbLine
 10
1830.381840457014
 20
841.6688027037997
 30
0.0
 11
1829.881840457014
 21
842.1688027037996
 31
0.0
  0
LINE
  5
6E6C
330
1E
100
AcDbEntity
  8
躯体と製品
  6
Continuous
 62
     3
100
AcDbLine
 10
1855.580762560775
 20
846.6575189053438
 30
0.0
 11
1855.899518259614
 21
845.585887063498
 31
0.0
  0
LINE
  5
6E6D
330
1E
100
AcDbEntity
  8
躯体と製品
  6
Continuous
 62
     3
100
AcDbLine
 10
1855.754410738442
 20
847.6423266583561
 30
0.0
 11
1856.073166437281
 21
846.5706948165102
 31
0.0
  0
LINE
  5
6E6E
330
1E
100
AcDbEntity
  8
躯体と製品
  6
DASHED1
 62
     4
100
AcDbLine
 10
1834.15987076078
 20
883.2219748437168
 30
0.0
 11
1832.914275002198
 21
859.4545919165581
 31
0.0
  0
LINE
  5
6E6F
330
1E
100
AcDbEntity
  8
躯体と製品
  6
DASHED1
 62
     7
100
AcDbLine
 10
1834.727591651288
 20
883.1922218525928
 30
0.0
 11
1833.481995892706
 21
859.4248389254339
 31
0.0
  0
LINE
  5
6E70
330
1E
100
AcDbEntity
  8
躯体と製品
  6
DASHED1
 62
     7
100
AcDbLine
 10
1828.735814442761
 20
883.5062375900506
 30
0.0
 11
1827.490218684178
 21
859.7388546628916
 31
0.0
  0
LINE
  5
6E71
330
1E
100
AcDbEntity
  8
躯体と製品
  6
DASHED1
 62
     4
100
AcDbLine
 10
1829.303535333268
 20
883.4764845989262
 30
0.0
 11
1828.057939574686
 21
859.7091016717673
 31
0.0
  0
ARC
  5
6E72
330
1E
100
AcDbEntity
  8
躯体と製品
  6
DASHED1
 62
     7
100
AcDbCircle
 10
1842.295475272835
 20
880.9931356553185
 30
0.0
 40
1.0
100
AcDbArc
 50
37.62684736228169
 51
86.99999999999441
  0
LINE
  5
6E73
330
1E
100
AcDbEntity
  8
躯体と製品
  6
DASHED1
 62
     7
100
AcDbLine
 10
1821.073726099976
 20
883.9077906247663
 30
0.0
 11
1842.389679994072
 21
882.7906688178769
 31
0.0
  0
ARC
  5
6E74
330
1E
100
AcDbEntity
  8
躯体と製品
  6
DASHED1
 62
     7
100
AcDbCircle
 10
1820.979521378739
 20
882.1102574622079
 30
0.0
 40
1.8
100
AcDbArc
 50
86.99999999999441
 51
136.3731526377175
  0
LINE
  5
6E75
330
1E
100
AcDbEntity
  8
躯体と製品
  6
DASHED1
 62
     7
100
AcDbLine
 10
1821.031857334982
 20
883.1088869969624
 30
0.0
 11
1842.347811229078
 21
881.9917651900734
 31
0.0
  0
LINE
  5
6E76
330
1E
100
AcDbEntity
  8
躯体と製品
  6
DASHED1
 62
     7
100
AcDbLine
 10
1820.255672735176
 20
882.8002162589578
 30
0.0
 11
1807.325721641418
 21
869.2351633824149
 31
0.0
  0
ARC
  5
6E77
330
1E
100
AcDbEntity
  8
躯体と製品
  6
DASHED1
 62
     7
100
AcDbCircle
 10
1820.979521378739
 20
882.1102574622079
 30
0.0
 40
1.0
100
AcDbArc
 50
86.99999999999441
 51
136.3731526377175
  0
LINE
  5
6E78
330
1E
100
AcDbEntity
  8
躯体と製品
  6
DASHED1
 62
     7
100
AcDbLine
 10
1802.765638483851
 20
871.7541707879751
 30
0.0
 11
1803.399241410028
 21
872.2425838630858
 31
0.0
  0
LINE
  5
6E79
330
1E
100
AcDbEntity
  8
躯体と製品
  6
DASHED1
 62
     7
100
AcDbLine
 10
1802.765638483851
 20
871.7541707879751
 30
0.0
 11
1804.597187530258
 21
869.3781597958791
 31
0.0
  0
ARC
  5
6E7A
330
1E
100
AcDbEntity
  8
躯体と製品
  6
DASHED1
 62
     7
100
AcDbCircle
 10
1806.02279409951
 20
870.4770892338801
 30
0.0
 40
1.0
100
AcDbArc
 50
217.6268487328632
 51
316.3731526377176
  0
ARC
  5
6E7B
330
1E
100
AcDbEntity
  8
躯体と製品
  6
DASHED1
 62
     7
100
AcDbCircle
 10
1806.02279409951
 20
870.4770892338801
 30
0.0
 40
1.8
100
AcDbArc
 50
217.6268481237226
 51
316.3731526377176
  0
LINE
  5
6E7C
330
1E
100
AcDbEntity
  8
躯体と製品
  6
DASHED1
 62
     7
100
AcDbLine
 10
1858.747995871079
 20
869.3418785556998
 30
0.0
 11
1856.678119464296
 21
867.1703326076679
 31
0.0
  0
LINE
  5
6E7D
330
1E
100
AcDbEntity
  8
躯体と製品
  6
DASHED1
 62
     7
100
AcDbLine
 10
1859.327074785951
 20
868.7899115183231
 30
0.0
 11
1858.747995871079
 21
869.3418785556998
 31
0.0
  0
LINE
  5
6E7E
330
1E
100
AcDbEntity
  8
躯体と製品
  6
DASHED1
 62
     7
100
AcDbLine
 10
1859.327074785951
 20
868.7899115183231
 30
0.0
 11
1857.257198379147
 21
866.6183655702679
 31
0.0
  0
ARC
  5
6E7F
330
1E
100
AcDbEntity
  8
躯体と製品
  6
DASHED1
 62
     7
100
AcDbCircle
 10
1855.954270837239
 20
867.860291421733
 30
0.0
 40
1.0
100
AcDbArc
 50
217.6268473622817
 51
316.3731512671342
  0
ARC
  5
6E80
330
1E
100
AcDbEntity
  8
躯体と製品
  6
DASHED1
 62
     7
100
AcDbCircle
 10
1855.954270837239
 20
867.860291421733
 30
0.0
 40
1.8
100
AcDbArc
 50
217.6268473622817
 51
316.3731518762783
  0
LINE
  5
6E81
330
1E
100
AcDbEntity
  8
躯体と製品
  6
DASHED1
 62
     7
100
AcDbLine
 10
1843.721081856691
 20
882.0920650743742
 30
0.0
 11
1855.162267194145
 21
867.2497750588677
 31
0.0
  0
LINE
  5
6E82
330
1E
100
AcDbEntity
  8
躯体と製品
  6
DASHED1
 62
     7
100
AcDbLine
 10
1843.087478930533
 20
881.6036519992385
 30
0.0
 11
1854.528664267986
 21
866.761361983732
 31
0.0
  0
ARC
  5
6E83
330
1E
100
AcDbEntity
  8
躯体と製品
  6
DASHED1
 62
     7
100
AcDbCircle
 10
1842.295475272835
 20
880.9931356553185
 30
0.0
 40
1.8
100
AcDbArc
 50
37.62684736228169
 51
86.99999999999441
  0
LINE
  5
6E84
330
1E
100
AcDbEntity
  8
躯体と製品
  6
DASHED1
 62
     7
100
AcDbLine
 10
1803.399241410028
 20
872.2425838630858
 30
0.0
 11
1805.230790456416
 21
869.8665728710148
 31
0.0
  0
LINE
  5
6E85
330
1E
100
AcDbEntity
  8
躯体と製品
  6
DASHED1
 62
     7
100
AcDbLine
 10
1819.676593820326
 20
883.3521832963576
 30
0.0
 11
1806.746642743073
 21
869.7871304371306
 31
0.0
  0
ARC
  5
6E86
330
1E
100
AcDbEntity
  8
躯体と製品
  6
DASHED1
 62
     7
100
AcDbCircle
 10
1830.547774299339
 20
886.5534089807704
 30
0.0
 40
0.5999999999999997
100
AcDbArc
 50
357.0000000000011
 51
100.7002330000058
  0
ARC
  5
6E87
330
1E
100
AcDbEntity
  8
躯体と製品
  6
DASHED1
 62
     7
100
AcDbCircle
 10
1833.244074043177
 20
886.4121018989145
 30
0.0
 40
0.5999999999999997
100
AcDbArc
 50
73.29976700000166
 51
177.0000000000011
  0
LINE
  5
6E88
330
1E
100
AcDbEntity
  8
躯体と製品
  6
DASHED1
 62
     7
100
AcDbLine
 10
1832.642842397721
 20
886.4043122565687
 30
0.0
 11
1831.144898095589
 21
886.4828161909329
 31
0.0
  0
ARC
  5
6E89
330
1E
100
AcDbEntity
  8
躯体と製品
  6
DASHED1
 62
     7
100
AcDbCircle
 10
1829.918472351856
 20
883.2491317027864
 30
0.0
 40
3.45
100
AcDbArc
 50
126.3091240000008
 51
173.7621629999991
  0
ARC
  5
6E8A
330
1E
100
AcDbEntity
  8
躯体と製品
  6
DASHED1
 62
     7
100
AcDbCircle
 10
1833.529808357112
 20
883.0553604228324
 30
0.0
 40
3.45
100
AcDbArc
 50
0.3127429999987237
 51
47.82048899999998
  0
ARC
  5
6E8B
330
1E
100
AcDbEntity
  8
躯体と製品
  6
DASHED1
 62
     7
100
AcDbCircle
 10
1831.606096804376
 20
880.9525198365399
 30
0.0
 40
6.299999999999998
100
AcDbArc
 50
47.69686900000316
 51
126.3093710000041
  0
LINE
  5
6E8C
330
1E
100
AcDbEntity
  8
躯体と製品
  6
Continuous
 62
     4
100
AcDbLine
 10
1832.925586173909
 20
848.8079090266905
 30
0.0
 11
1826.933808965382
 21
849.1219247641481
 31
0.0
  0
LINE
  5
6E8D
330
1E
100
AcDbEntity
  8
躯体と製品
  6
Continuous
 62
     7
100
AcDbLine
 10
1827.490218684178
 20
859.7388546628916
 30
0.0
 11
1827.38595185275
 21
857.7493250004149
 31
0.0
  0
LINE
  5
6E8E
330
1E
100
AcDbEntity
  8
躯体と製品
  6
Continuous
 62
     7
100
AcDbLine
 10
1827.197542410275
 20
854.1542586752985
 30
0.0
 11
1826.933808965382
 21
849.1219247641481
 31
0.0
  0
LINE
  5
6E8F
330
1E
100
AcDbEntity
  8
躯体と製品
  6
Continuous
 62
     7
100
AcDbLine
 10
1833.481995892706
 20
859.4248389254339
 30
0.0
 11
1833.377729061278
 21
857.4353092629575
 31
0.0
  0
LINE
  5
6E90
330
1E
100
AcDbEntity
  8
躯体と製品
  6
Continuous
 62
     7
100
AcDbLine
 10
1833.189319618803
 20
853.8402429378409
 30
0.0
 11
1832.925586173909
 21
848.8079090266905
 31
0.0
  0
LINE
  5
6E91
330
1E
100
AcDbEntity
  8
躯体と製品
  6
Continuous
 62
     4
100
AcDbLine
 10
1828.057939574686
 20
859.7091016717673
 30
0.0
 11
1827.953672743258
 21
857.7195720092907
 31
0.0
  0
LINE
  5
6E92
330
1E
100
AcDbEntity
  8
躯体と製品
  6
Continuous
 62
     4
100
AcDbLine
 10
1832.914275002198
 20
859.4545919165581
 30
0.0
 11
1832.81000817077
 21
857.4650622540817
 31
0.0
  0
POINT
  5
6E93
330
1E
100
AcDbEntity
  8
躯体と製品
 62
     4
100
AcDbPoint
 10
1830.381840457014
 20
857.5923171316862
 30
0.0
  0
LINE
  5
6E94
330
1E
100
AcDbEntity
  8
躯体と製品
  6
Continuous
 62
     7
100
AcDbLine
 10
1880.381840457014
 20
837.6688027037996
 30
0.0
 11
1755.381840457014
 21
837.6688027037996
 31
0.0
  0
ARC
  5
6E95
330
1E
100
AcDbEntity
  8
躯体と製品
  6
Continuous
 62
     7
100
AcDbCircle
 10
1931.918230052091
 20
841.2056283435678
 30
0.0
 40
2.1
100
AcDbArc
 50
90.0
 51
175.0000000000005
  0
LINE
  5
6E96
330
1E
100
AcDbEntity
  8
躯体と製品
  6
Continuous
 62
     7
100
AcDbLine
 10
1931.918230052091
 20
843.3056283435679
 30
0.0
 11
1932.514028230794
 21
843.3056283435679
 31
0.0
  0
ARC
  5
6E97
330
1E
100
AcDbEntity
  8
躯体と製品
  6
Continuous
 62
     7
100
AcDbCircle
 10
1931.918230052091
 20
841.2056283435678
 30
0.0
 40
1.1
100
AcDbArc
 50
90.0
 51
175.0000000000005
  0
LINE
  5
6E98
330
1E
100
AcDbEntity
  8
躯体と製品
  6
Continuous
 62
     7
100
AcDbLine
 10
1931.918230052091
 20
842.3056283435679
 30
0.0
 11
1932.514028230794
 21
842.3056283435679
 31
0.0
  0
LINE
  5
6E99
330
1E
100
AcDbEntity
  8
躯体と製品
  6
Continuous
 62
     7
100
AcDbLine
 10
1932.514028230794
 20
845.8056283435677
 30
0.0
 11
1932.514028230794
 21
843.3056283435679
 31
0.0
  0
LINE
  5
6E9A
330
1E
100
AcDbEntity
  8
躯体と製品
  6
Continuous
 62
     7
100
AcDbLine
 10
1934.014028230794
 20
841.8056283435678
 30
0.0
 11
1935.665113230793
 21
842.329001343568
 31
0.0
  0
LINE
  5
6E9B
330
1E
100
AcDbEntity
  8
躯体と製品
  6
Continuous
 62
     7
100
AcDbLine
 10
1934.014028230794
 20
841.8056283435678
 30
0.0
 11
1934.014028230794
 21
839.8056283435678
 31
0.0
  0
LINE
  5
6E9C
330
1E
100
AcDbEntity
  8
躯体と製品
  6
Continuous
 62
     7
100
AcDbLine
 10
1934.014028230794
 20
843.8056283435678
 30
0.0
 11
1934.014028230794
 21
845.8056283435677
 31
0.0
  0
ARC
  5
6E9D
330
1E
100
AcDbEntity
  8
躯体と製品
  6
Continuous
 62
     7
100
AcDbCircle
 10
1933.514028230793
 20
845.8056283435677
 30
0.0
 40
0.5
100
AcDbArc
 50
0.0
 51
90.0
  0
LINE
  5
6E9E
330
1E
100
AcDbEntity
  8
躯体と製品
  6
Continuous
 62
     7
100
AcDbLine
 10
1933.014028230793
 20
846.3056283435678
 30
0.0
 11
1933.514028230793
 21
846.3056283435678
 31
0.0
  0
LINE
  5
6E9F
330
1E
100
AcDbEntity
  8
躯体と製品
  6
Continuous
 62
     7
100
AcDbLine
 10
1933.014028230793
 20
839.3056283435678
 30
0.0
 11
1933.514028230793
 21
839.3056283435678
 31
0.0
  0
ARC
  5
6EA0
330
1E
100
AcDbEntity
  8
躯体と製品
  6
Continuous
 62
     7
100
AcDbCircle
 10
1933.514028230793
 20
839.8056283435678
 30
0.0
 40
0.5
100
AcDbArc
 50
270.0
 51
0.0
  0
ARC
  5
6EA1
330
1E
100
AcDbEntity
  8
躯体と製品
  6
Continuous
 62
     7
100
AcDbCircle
 10
1933.014028230793
 20
839.8056283435678
 30
0.0
 40
0.5
100
AcDbArc
 50
180.0
 51
270.0
  0
ARC
  5
6EA2
330
1E
100
AcDbEntity
  8
躯体と製品
  6
Continuous
 62
     7
100
AcDbCircle
 10
1933.014028230793
 20
845.8056283435677
 30
0.0
 40
0.5
100
AcDbArc
 50
90.0
 51
180.0
  0
LINE
  5
6EA3
330
1E
100
AcDbEntity
  8
躯体と製品
  6
Continuous
 62
     7
100
AcDbLine
 10
1932.514028230794
 20
839.8056283435678
 30
0.0
 11
1932.514028230794
 21
842.3056283435679
 31
0.0
  0
ARC
  5
6EA4
330
1E
100
AcDbEntity
  8
躯体と製品
  6
Continuous
 62
     7
100
AcDbCircle
 10
1935.514028230793
 20
842.8056283435678
 30
0.0
 40
0.5
100
AcDbArc
 50
287.587954000005
 51
72.41204599999497
  0
LINE
  5
6EA5
330
1E
100
AcDbEntity
  8
躯体と製品
  6
Continuous
 62
     7
100
AcDbLine
 10
1934.014028230794
 20
843.8056283435678
 30
0.0
 11
1935.665113230793
 21
843.2822553435679
 31
0.0
  0
ARC
  5
6EA6
330
1E
100
AcDbEntity
  8
躯体と製品
  6
Continuous
 62
     3
100
AcDbCircle
 10
1931.914028230793
 20
841.2056283435678
 30
0.0
 40
0.5999999999999997
100
AcDbArc
 50
0.0
 51
180.0
  0
ARC
  5
6EA7
330
1E
100
AcDbEntity
  8
躯体と製品
  6
Continuous
 62
     3
100
AcDbCircle
 10
1931.914028230793
 20
845.4056283435679
 30
0.0
 40
0.5999999999999997
100
AcDbArc
 50
180.0
 51
0.0
  0
LINE
  5
6EA8
330
1E
100
AcDbEntity
  8
躯体と製品
  6
Continuous
 62
     3
100
AcDbLine
 10
1931.314028230793
 20
841.2056283435678
 30
0.0
 11
1931.314028230793
 21
839.1056283435679
 31
0.0
  0
LINE
  5
6EA9
330
1E
100
AcDbEntity
  8
躯体と製品
  6
Continuous
 62
     3
100
AcDbLine
 10
1932.514028230794
 20
841.2056283435678
 30
0.0
 11
1932.514028230794
 21
839.6056283435676
 31
0.0
  0
ARC
  5
6EAA
330
1E
100
AcDbEntity
  8
躯体と製品
  6
Continuous
 62
     3
100
AcDbCircle
 10
1932.814028230794
 20
839.6056283435676
 30
0.0
 40
0.2999999999999998
100
AcDbArc
 50
180.0
 51
270.0
  0
LINE
  5
6EAB
330
1E
100
AcDbEntity
  8
躯体と製品
  6
Continuous
 62
     3
100
AcDbLine
 10
1932.514028230794
 20
845.4056283435679
 30
0.0
 11
1932.514028230794
 21
847.0056283435678
 31
0.0
  0
ARC
  5
6EAC
330
1E
100
AcDbEntity
  8
躯体と製品
  6
Continuous
 62
     3
100
AcDbCircle
 10
1932.814028230794
 20
847.0056283435678
 30
0.0
 40
0.2999999999999998
100
AcDbArc
 50
90.0
 51
180.0
  0
LINE
  5
6EAD
330
1E
100
AcDbEntity
  8
躯体と製品
  6
Continuous
 62
     3
100
AcDbLine
 10
1931.314028230793
 20
845.4056283435679
 30
0.0
 11
1931.314028230793
 21
847.5056283435678
 31
0.0
  0
LINE
  5
6EAE
330
1E
100
AcDbEntity
  8
躯体と製品
  6
Continuous
 62
     3
100
AcDbLine
 10
1943.514028230794
 20
809.3056283435679
 30
0.0
 11
1945.135296230793
 21
809.7109453435679
 31
0.0
  0
ARC
  5
6EAF
330
1E
100
AcDbEntity
  8
躯体と製品
  6
Continuous
 62
     3
100
AcDbCircle
 10
1945.014028230794
 20
810.1960163435679
 30
0.0
 40
0.5
100
AcDbArc
 50
284.0362430000043
 51
0.0
  0
LINE
  5
6EB0
330
1E
100
AcDbEntity
  8
躯体と製品
  6
Continuous
 62
     3
100
AcDbLine
 10
1943.514028230794
 20
809.8056283435679
 30
0.0
 11
1943.514028230794
 21
809.3056283435679
 31
0.0
  0
LINE
  5
6EB1
330
1E
100
AcDbEntity
  8
躯体と製品
  6
Continuous
 62
     3
100
AcDbLine
 10
1945.514028230794
 20
810.5056283435679
 30
0.0
 11
1945.514028230794
 21
810.1960163435679
 31
0.0
  0
LINE
  5
6EB2
330
1E
100
AcDbEntity
  8
躯体と製品
  6
Continuous
 62
     3
100
AcDbLine
 10
1938.514028230794
 20
809.8056283435679
 30
0.0
 11
1943.514028230794
 21
809.8056283435679
 31
0.0
  0
ARC
  5
6EB3
330
1E
100
AcDbEntity
  8
躯体と製品
  6
Continuous
 62
     3
100
AcDbCircle
 10
1945.214028230794
 20
810.5056283435679
 30
0.0
 40
0.2999999999999998
100
AcDbArc
 50
0.0
 51
90.0
  0
ARC
  5
6EB4
330
1E
100
AcDbEntity
  8
躯体と製品
  6
Continuous
 62
     3
100
AcDbCircle
 10
1938.514028230794
 20
809.3056283435679
 30
0.0
 40
0.5
100
AcDbArc
 50
90.0
 51
180.0
  0
LINE
  5
6EB5
330
1E
100
AcDbEntity
  8
躯体と製品
  6
Continuous
 62
     3
100
AcDbLine
 10
1938.014028230794
 20
809.3056283435679
 30
0.0
 11
1938.014028230794
 21
800.5056283435679
 31
0.0
  0
LINE
  5
6EB6
330
1E
100
AcDbEntity
  8
躯体と製品
  6
Continuous
 62
     3
100
AcDbLine
 10
1938.514028230794
 20
810.8056283435677
 30
0.0
 11
1945.214028230794
 21
810.8056283435677
 31
0.0
  0
ARC
  5
6EB7
330
1E
100
AcDbEntity
  8
躯体と製品
  6
Continuous
 62
     3
100
AcDbCircle
 10
1938.514028230794
 20
811.3056283435678
 30
0.0
 40
0.5
100
AcDbArc
 50
180.0
 51
270.0
  0
LINE
  5
6EB8
330
1E
100
AcDbEntity
  8
躯体と製品
  6
Continuous
 62
     3
100
AcDbLine
 10
1942.914028230793
 20
798.3056283435678
 30
0.0
 11
1939.014028230793
 21
798.3056283435678
 31
0.0
  0
ARC
  5
6EB9
330
1E
100
AcDbEntity
  8
躯体と製品
  6
Continuous
 62
     3
100
AcDbCircle
 10
1939.014028230793
 20
800.8056283435678
 30
0.0
 40
2.5
100
AcDbArc
 50
180.0
 51
270.0
  0
LINE
  5
6EBA
330
1E
100
AcDbEntity
  8
躯体と製品
  6
Continuous
 62
     3
100
AcDbLine
 10
1938.014028230794
 20
855.5556283435681
 30
0.0
 11
1938.014028230794
 21
811.3056283435678
 31
0.0
  0
LINE
  5
6EBB
330
1E
100
AcDbEntity
  8
躯体と製品
  6
Continuous
 62
     3
100
AcDbLine
 10
1932.814028230794
 20
847.3056283435678
 30
0.0
 11
1936.214028230794
 21
847.3056283435678
 31
0.0
  0
LINE
  5
6EBC
330
1E
100
AcDbEntity
  8
躯体と製品
  6
Continuous
 62
     3
100
AcDbLine
 10
1932.814028230794
 20
839.3056283435678
 30
0.0
 11
1936.214028230794
 21
839.3056283435678
 31
0.0
  0
ARC
  5
6EBD
330
1E
100
AcDbEntity
  8
躯体と製品
  6
Continuous
 62
     3
100
AcDbCircle
 10
1936.214028230794
 20
839.6056283435676
 30
0.0
 40
0.2999999999999998
100
AcDbArc
 50
270.0
 51
0.0
  0
LINE
  5
6EBE
330
1E
100
AcDbEntity
  8
躯体と製品
  6
Continuous
 62
     3
100
AcDbLine
 10
1936.514028230794
 20
847.0056283435678
 30
0.0
 11
1936.514028230794
 21
839.6056283435676
 31
0.0
  0
ARC
  5
6EBF
330
1E
100
AcDbEntity
  8
躯体と製品
  6
Continuous
 62
     3
100
AcDbCircle
 10
1936.214028230794
 20
847.0056283435678
 30
0.0
 40
0.2999999999999998
100
AcDbArc
 50
0.0
 51
90.0
  0
LINE
  5
6EC0
330
1E
100
AcDbEntity
  8
躯体と製品
  6
Continuous
 62
     3
100
AcDbLine
 10
1936.014028230794
 20
838.1056283435679
 30
0.0
 11
1932.314028230794
 21
838.1056283435679
 31
0.0
  0
ARC
  5
6EC1
330
1E
100
AcDbEntity
  8
躯体と製品
  6
Continuous
 62
     3
100
AcDbCircle
 10
1932.314028230794
 20
839.1056283435679
 30
0.0
 40
1.0
100
AcDbArc
 50
180.0
 51
270.0
  0
ARC
  5
6EC2
330
1E
100
AcDbEntity
  8
躯体と製品
  6
Continuous
 62
     3
100
AcDbCircle
 10
1936.014028230794
 20
837.6056283435678
 30
0.0
 40
0.5
100
AcDbArc
 50
0.0
 51
90.0
  0
LINE
  5
6EC3
330
1E
100
AcDbEntity
  8
躯体と製品
  6
Continuous
 62
     3
100
AcDbLine
 10
1936.014028230794
 20
848.5056283435678
 30
0.0
 11
1932.314028230794
 21
848.5056283435678
 31
0.0
  0
ARC
  5
6EC4
330
1E
100
AcDbEntity
  8
躯体と製品
  6
Continuous
 62
     3
100
AcDbCircle
 10
1932.314028230794
 20
847.5056283435678
 30
0.0
 40
1.0
100
AcDbArc
 50
90.0
 51
180.0
  0
ARC
  5
6EC5
330
1E
100
AcDbEntity
  8
躯体と製品
  6
Continuous
 62
     3
100
AcDbCircle
 10
1936.014028230794
 20
849.0056283435679
 30
0.0
 40
0.5
100
AcDbArc
 50
270.0
 51
0.0
  0
LINE
  5
6EC6
330
1E
100
AcDbEntity
  8
躯体と製品
  6
Continuous
 62
     3
100
AcDbLine
 10
1936.514028230794
 20
849.0056283435679
 30
0.0
 11
1936.514028230794
 21
855.5556283435681
 31
0.0
  0
ARC
  5
6EC7
330
1E
100
AcDbEntity
  8
躯体と製品
  6
Continuous
 62
     3
100
AcDbCircle
 10
1937.264028230794
 20
855.5556283435681
 30
0.0
 40
0.75
100
AcDbArc
 50
0.0
 51
180.0
  0
LINE
  5
6EC8
330
1E
100
AcDbEntity
  8
躯体と製品
  6
Continuous
 62
     3
100
AcDbLine
 10
1936.514028230794
 20
837.6056283435678
 30
0.0
 11
1936.514028230794
 21
800.8056283435678
 31
0.0
  0
ARC
  5
6EC9
330
1E
100
AcDbEntity
  8
躯体と製品
  6
Continuous
 62
     3
100
AcDbCircle
 10
1942.914028230793
 20
798.9056283435679
 30
0.0
 40
0.5999999999999997
100
AcDbArc
 50
270.0
 51
90.0
  0
LINE
  5
6ECA
330
1E
100
AcDbEntity
  8
躯体と製品
  6
Continuous
 62
     3
100
AcDbLine
 10
1942.914028230793
 20
799.505628343568
 30
0.0
 11
1939.014028230793
 21
799.505628343568
 31
0.0
  0
ARC
  5
6ECB
330
1E
100
AcDbEntity
  8
躯体と製品
  6
Continuous
 62
     3
100
AcDbCircle
 10
1939.014028230793
 20
800.5056283435679
 30
0.0
 40
1.0
100
AcDbArc
 50
180.0
 51
270.0
  0
LINE
  5
6ECC
330
1E
100
AcDbEntity
  8
躯体と製品
  6
DASHED1
 62
     4
100
AcDbLine
 10
1625.676776706568
 20
867.9693522848445
 30
0.0
 11
1625.58257198533
 21
869.7668854474025
 31
0.0
  0
LINE
  5
6ECD
330
1E
100
AcDbEntity
  8
躯体と製品
  6
DASHED1
 62
     4
100
AcDbLine
 10
1525.81382323111
 20
862.7357566605498
 30
0.0
 11
1525.719618509873
 21
864.533289823108
 31
0.0
  0
LINE
  5
6ECE
330
1E
100
AcDbEntity
  8
躯体と製品
  6
DASHED1
 62
     4
100
AcDbLine
 10
1785.08690420746
 20
867.9693522848445
 30
0.0
 11
1785.181108928698
 21
869.7668854474025
 31
0.0
  0
LINE
  5
6ECF
330
1E
100
AcDbEntity
  8
躯体と製品
  6
DASHED1
 62
     4
100
AcDbLine
 10
1884.949857682918
 20
862.7357566605498
 30
0.0
 11
1885.044062404155
 21
864.533289823108
 31
0.0
  0
LINE
  5
6ED0
330
1E
100
AcDbEntity
  8
躯体と製品
  6
Continuous
 62
     3
100
AcDbLine
 10
1455.381840457014
 20
881.9587346434232
 30
0.0
 11
1455.381840457014
 21
797.8056283435678
 31
0.0
  0
LINE
  5
6ED1
330
1E
100
AcDbEntity
  8
躯体と製品
  6
Continuous
 62
     3
100
AcDbLine
 10
1458.381840457014
 20
794.8056283435678
 30
0.0
 11
1465.381840457014
 21
794.8056283435678
 31
0.0
  0
LINE
  5
6ED2
330
1E
100
AcDbEntity
  8
図枠
  6
Continuous
 62
     7
100
AcDbLine
 10
2117.381840457014
 20
1021.668802703799
 30
0.0
 11
1293.381840457014
 21
1021.668802703799
 31
0.0
  0
LINE
  5
6ED3
330
1E
100
AcDbEntity
  8
図枠
  6
Continuous
 62
     7
100
AcDbLine
 10
1293.381840457014
 20
1021.668802703799
 30
0.0
 11
1293.381840457014
 21
445.6688027037997
 31
0.0
  0
LINE
  5
6ED4
330
1E
100
AcDbEntity
  8
図枠
  6
Continuous
 62
     7
100
AcDbLine
 10
2117.381840457014
 20
445.6688027037997
 30
0.0
 11
2117.381840457014
 21
1021.668802703799
 31
0.0
  0
LINE
  5
6ED5
330
1E
100
AcDbEntity
  8
図枠
  6
Continuous
 62
     7
100
AcDbLine
 10
1293.381840457014
 20
445.6688027037997
 30
0.0
 11
2117.381840457014
 21
445.6688027037997
 31
0.0
  0
TEXT
  5
6ED6
330
1E
100
AcDbEntity
  8
図枠
 62
     7
100
AcDbText
 10
1606.881840457013
 20
653.6688027037996
 30
0.0
 40
5.0
  1
規　格
100
AcDbText
  0
TEXT
  5
6ED7
330
1E
100
AcDbEntity
  8
図枠
 62
     7
100
AcDbText
 10
1505.881840457014
 20
653.6688027037996
 30
0.0
 40
5.0
  1
部材名称
100
AcDbText
  0
TEXT
  5
6ED8
330
1E
100
AcDbEntity
  8
図枠
 62
     7
100
AcDbText
 10
1574.381840457014
 20
521.6688027037998
 30
0.0
 40
5.0
  1
Ｍ6×40
100
AcDbText
  0
TEXT
  5
6ED9
330
1E
100
AcDbEntity
  8
図枠
 62
     7
100
AcDbText
 10
1574.381840457014
 20
497.6688027037997
 30
0.0
 40
5.0
  1
1.5×18×6.5穴
100
AcDbText
  0
TEXT
  5
6EDA
330
1E
100
AcDbEntity
  8
図枠
 62
     7
100
AcDbText
 10
1574.381840457014
 20
509.6688027037997
 30
0.0
 40
5.0
  1
ＡＧ－660
100
AcDbText
  0
TEXT
  5
6EDB
330
1E
100
AcDbEntity
  8
図枠
 62
     7
100
AcDbText
 10
1574.381840457014
 20
557.6688027037997
 30
0.0
 40
5.0
  1
ＰＳ
100
AcDbText
  0
TEXT
  5
6EDC
330
1E
100
AcDbEntity
  8
図枠
 62
     7
100
AcDbText
 10
1474.381840457014
 20
497.6688027037997
 30
0.0
 40
5.0
  1
ステンワッシャー
100
AcDbText
  0
TEXT
  5
6EDD
330
1E
100
AcDbEntity
  8
図枠
 62
     7
100
AcDbText
 10
1474.381840457014
 20
509.6688027037997
 30
0.0
 40
5.0
  1
アジャストアンカー
100
AcDbText
  0
TEXT
  5
6EDE
330
1E
100
AcDbEntity
  8
図枠
 62
     7
100
AcDbText
 10
1474.381840457014
 20
521.6688027037998
 30
0.0
 40
5.0
  1
ステン六角ボルト
100
AcDbText
  0
TEXT
  5
6EDF
330
1E
100
AcDbEntity
  8
図枠
 62
     7
100
AcDbText
 10
1474.381840457014
 20
533.6688027037998
 30
0.0
 40
5.0
  1
ステン小ネジ
100
AcDbText
  0
TEXT
  5
6EE0
330
1E
100
AcDbEntity
  8
図枠
 62
     7
100
AcDbText
 10
1474.381840457014
 20
545.6688027037997
 30
0.0
 40
5.0
  1
止水補助板
100
AcDbText
  0
TEXT
  5
6EE1
330
1E
100
AcDbEntity
  8
図枠
 62
     7
100
AcDbText
 10
1474.381840457014
 20
557.6688027037997
 30
0.0
 40
5.0
  1
止水補助板
100
AcDbText
  0
TEXT
  5
6EE2
330
1E
100
AcDbEntity
  8
図枠
 62
     7
100
AcDbText
 10
1474.381840457014
 20
569.6688027037997
 30
0.0
 40
5.0
  1
ＦＹＹ水切ジョイント
100
AcDbText
  0
TEXT
  5
6EE3
330
1E
100
AcDbEntity
  8
図枠
 62
     7
100
AcDbText
 10
1474.381840457014
 20
581.6688027037997
 30
0.0
 40
5.0
  1
ＦＹＹフレームナット
100
AcDbText
  0
TEXT
  5
6EE4
330
1E
100
AcDbEntity
  8
図枠
 62
     7
100
AcDbText
 10
1474.381840457014
 20
605.6688027037997
 30
0.0
 40
5.0
  1
ＦＹＹホルダー
100
AcDbText
  0
TEXT
  5
6EE5
330
1E
100
AcDbEntity
  8
図枠
 62
     7
100
AcDbText
 10
1474.381840457014
 20
629.6688027037998
 30
0.0
 40
5.0
  1
ＦＹＹフレーム
100
AcDbText
  0
TEXT
  5
6EE6
330
1E
100
AcDbEntity
  8
図枠
 62
     7
100
AcDbText
 10
1474.381840457014
 20
641.6688027037996
 30
0.0
 40
5.0
  1
ＦＹＹキヤップＡ
100
AcDbText
  0
TEXT
  5
6EE7
330
1E
100
AcDbEntity
  8
図枠
 62
     7
100
AcDbText
 10
1474.381840457014
 20
593.6688027037997
 30
0.0
 40
5.0
  1
ＦＹＹホルダースプリング
100
AcDbText
  0
TEXT
  5
6EE8
330
1E
100
AcDbEntity
  8
図枠
 62
     7
100
AcDbText
 10
1574.381840457014
 20
533.6688027037998
 30
0.0
 40
5.0
  1
ナベＭ6×35
100
AcDbText
  0
LINE
  5
6EE9
330
1E
100
AcDbEntity
  8
図枠
  6
Continuous
 62
     7
100
AcDbLine
 10
1732.381840457014
 20
482.6688027037997
 30
0.0
 11
1665.381840457014
 21
482.6688027037997
 31
0.0
  0
LINE
  5
6EEA
330
1E
100
AcDbEntity
  8
図枠
  6
Continuous
 62
     7
100
AcDbLine
 10
1732.381840457014
 20
614.6688027037997
 30
0.0
 11
1665.381840457014
 21
614.6688027037997
 31
0.0
  0
LINE
  5
6EEB
330
1E
100
AcDbEntity
  8
図枠
  6
Continuous
 62
     7
100
AcDbLine
 10
1732.381840457014
 20
626.6688027037997
 30
0.0
 11
1665.381840457014
 21
626.6688027037997
 31
0.0
  0
LINE
  5
6EEC
330
1E
100
AcDbEntity
  8
図枠
  6
Continuous
 62
     7
100
AcDbLine
 10
1732.381840457014
 20
638.6688027037997
 30
0.0
 11
1665.381840457014
 21
638.6688027037997
 31
0.0
  0
LINE
  5
6EED
330
1E
100
AcDbEntity
  8
図枠
  6
Continuous
 62
     7
100
AcDbLine
 10
1732.381840457014
 20
650.6688027037996
 30
0.0
 11
1665.381840457014
 21
650.6688027037996
 31
0.0
  0
LINE
  5
6EEE
330
1E
100
AcDbEntity
  8
図枠
  6
Continuous
 62
     7
100
AcDbLine
 10
1732.381840457014
 20
530.6688027037997
 30
0.0
 11
1665.381840457014
 21
530.6688027037997
 31
0.0
  0
LINE
  5
6EEF
330
1E
100
AcDbEntity
  8
図枠
  6
Continuous
 62
     7
100
AcDbLine
 10
1732.381840457014
 20
542.6688027037998
 30
0.0
 11
1665.381840457014
 21
542.6688027037998
 31
0.0
  0
LINE
  5
6EF0
330
1E
100
AcDbEntity
  8
図枠
  6
Continuous
 62
     7
100
AcDbLine
 10
1732.381840457014
 20
566.6688027037998
 30
0.0
 11
1665.381840457014
 21
566.6688027037998
 31
0.0
  0
LINE
  5
6EF1
330
1E
100
AcDbEntity
  8
図枠
  6
Continuous
 62
     7
100
AcDbLine
 10
1732.381840457014
 20
578.6688027037997
 30
0.0
 11
1665.381840457014
 21
578.6688027037997
 31
0.0
  0
LINE
  5
6EF2
330
1E
100
AcDbEntity
  8
図枠
  6
Continuous
 62
     7
100
AcDbLine
 10
1732.381840457014
 20
590.6688027037997
 30
0.0
 11
1665.381840457014
 21
590.6688027037997
 31
0.0
  0
LINE
  5
6EF3
330
1E
100
AcDbEntity
  8
図枠
  6
Continuous
 62
     7
100
AcDbLine
 10
1732.381840457014
 20
602.6688027037997
 30
0.0
 11
1665.381840457014
 21
602.6688027037997
 31
0.0
  0
LINE
  5
6EF4
330
1E
100
AcDbEntity
  8
図枠
  6
Continuous
 62
     7
100
AcDbLine
 10
1732.381840457014
 20
554.6688027037998
 30
0.0
 11
1665.381840457014
 21
554.6688027037998
 31
0.0
  0
LINE
  5
6EF5
330
1E
100
AcDbEntity
  8
図枠
  6
Continuous
 62
     7
100
AcDbLine
 10
1732.381840457014
 20
494.6688027037997
 30
0.0
 11
1665.381840457014
 21
494.6688027037997
 31
0.0
  0
LINE
  5
6EF6
330
1E
100
AcDbEntity
  8
図枠
  6
Continuous
 62
     7
100
AcDbLine
 10
1732.381840457014
 20
506.6688027037997
 30
0.0
 11
1665.381840457014
 21
506.6688027037997
 31
0.0
  0
LINE
  5
6EF7
330
1E
100
AcDbEntity
  8
図枠
  6
Continuous
 62
     7
100
AcDbLine
 10
1732.381840457014
 20
518.6688027037997
 30
0.0
 11
1665.381840457014
 21
518.6688027037997
 31
0.0
  0
LINE
  5
6EF8
330
1E
100
AcDbEntity
  8
図枠
  6
Continuous
 62
     7
100
AcDbLine
 10
1732.381840457014
 20
662.6688027037996
 30
0.0
 11
1665.381840457014
 21
662.6688027037996
 31
0.0
  0
LINE
  5
6EF9
330
1E
100
AcDbEntity
  8
図枠
  6
Continuous
 62
     7
100
AcDbLine
 10
1733.381840457014
 20
482.6688027037997
 30
0.0
 11
1800.381840457014
 21
482.6688027037997
 31
0.0
  0
LINE
  5
6EFA
330
1E
100
AcDbEntity
  8
図枠
  6
Continuous
 62
     7
100
AcDbLine
 10
1733.381840457014
 20
494.6688027037997
 30
0.0
 11
1800.381840457014
 21
494.6688027037997
 31
0.0
  0
LINE
  5
6EFB
330
1E
100
AcDbEntity
  8
図枠
  6
Continuous
 62
     7
100
AcDbLine
 10
1733.381840457014
 20
506.6688027037997
 30
0.0
 11
1800.381840457014
 21
506.6688027037997
 31
0.0
  0
LINE
  5
6EFC
330
1E
100
AcDbEntity
  8
図枠
  6
Continuous
 62
     7
100
AcDbLine
 10
1733.381840457014
 20
530.6688027037997
 30
0.0
 11
1800.381840457014
 21
530.6688027037997
 31
0.0
  0
LINE
  5
6EFD
330
1E
100
AcDbEntity
  8
図枠
  6
Continuous
 62
     7
100
AcDbLine
 10
1733.381840457014
 20
542.6688027037998
 30
0.0
 11
1800.381840457014
 21
542.6688027037998
 31
0.0
  0
LINE
  5
6EFE
330
1E
100
AcDbEntity
  8
図枠
  6
Continuous
 62
     7
100
AcDbLine
 10
1733.381840457014
 20
578.6688027037997
 30
0.0
 11
1800.381840457014
 21
578.6688027037997
 31
0.0
  0
LINE
  5
6EFF
330
1E
100
AcDbEntity
  8
図枠
  6
Continuous
 62
     7
100
AcDbLine
 10
1733.381840457014
 20
590.6688027037997
 30
0.0
 11
1800.381840457014
 21
590.6688027037997
 31
0.0
  0
LINE
  5
6F00
330
1E
100
AcDbEntity
  8
図枠
  6
Continuous
 62
     7
100
AcDbLine
 10
1733.381840457014
 20
554.6688027037998
 30
0.0
 11
1800.381840457014
 21
554.6688027037998
 31
0.0
  0
LINE
  5
6F01
330
1E
100
AcDbEntity
  8
図枠
  6
Continuous
 62
     7
100
AcDbLine
 10
1733.381840457014
 20
518.6688027037997
 30
0.0
 11
1800.381840457014
 21
518.6688027037997
 31
0.0
  0
LINE
  5
6F02
330
1E
100
AcDbEntity
  8
図枠
  6
Continuous
 62
     7
100
AcDbLine
 10
1733.381840457014
 20
602.6688027037997
 30
0.0
 11
1800.381840457014
 21
602.6688027037997
 31
0.0
  0
LINE
  5
6F03
330
1E
100
AcDbEntity
  8
図枠
  6
Continuous
 62
     7
100
AcDbLine
 10
1733.381840457014
 20
614.6688027037997
 30
0.0
 11
1800.381840457014
 21
614.6688027037997
 31
0.0
  0
LINE
  5
6F04
330
1E
100
AcDbEntity
  8
図枠
  6
Continuous
 62
     7
100
AcDbLine
 10
1733.381840457014
 20
626.6688027037997
 30
0.0
 11
1800.381840457014
 21
626.6688027037997
 31
0.0
  0
LINE
  5
6F05
330
1E
100
AcDbEntity
  8
図枠
  6
Continuous
 62
     7
100
AcDbLine
 10
1733.381840457014
 20
638.6688027037997
 30
0.0
 11
1800.381840457014
 21
638.6688027037997
 31
0.0
  0
LINE
  5
6F06
330
1E
100
AcDbEntity
  8
図枠
  6
Continuous
 62
     7
100
AcDbLine
 10
1733.381840457014
 20
650.6688027037996
 30
0.0
 11
1800.381840457014
 21
650.6688027037996
 31
0.0
  0
LINE
  5
6F07
330
1E
100
AcDbEntity
  8
図枠
  6
Continuous
 62
     7
100
AcDbLine
 10
1733.381840457014
 20
566.6688027037998
 30
0.0
 11
1800.381840457014
 21
566.6688027037998
 31
0.0
  0
LINE
  5
6F08
330
1E
100
AcDbEntity
  8
図枠
  6
Continuous
 62
     7
100
AcDbLine
 10
1733.381840457014
 20
662.6688027037996
 30
0.0
 11
1800.381840457014
 21
662.6688027037996
 31
0.0
  0
TEXT
  5
6F09
330
1E
100
AcDbEntity
  8
図枠
 62
     7
100
AcDbText
 10
1722.381840457014
 20
497.6688027037997
 30
0.0
 40
5.0
  1
枚
100
AcDbText
  0
TEXT
  5
6F0A
330
1E
100
AcDbEntity
  8
図枠
 62
     7
100
AcDbText
 10
1722.381840457014
 20
509.6688027037997
 30
0.0
 40
5.0
  1
〃
100
AcDbText
  0
TEXT
  5
6F0B
330
1E
100
AcDbEntity
  8
図枠
 62
     7
100
AcDbText
 10
1722.381840457014
 20
521.6688027037998
 30
0.0
 40
5.0
  1
〃
100
AcDbText
  0
TEXT
  5
6F0C
330
1E
100
AcDbEntity
  8
図枠
 62
     7
100
AcDbText
 10
1722.381840457014
 20
533.6688027037998
 30
0.0
 40
5.0
  1
本
100
AcDbText
  0
TEXT
  5
6F0D
330
1E
100
AcDbEntity
  8
図枠
 62
     7
100
AcDbText
 10
1722.381840457014
 20
545.6688027037997
 30
0.0
 40
5.0
  1
〃
100
AcDbText
  0
TEXT
  5
6F0E
330
1E
100
AcDbEntity
  8
図枠
 62
     7
100
AcDbText
 10
1722.381840457014
 20
557.6688027037997
 30
0.0
 40
5.0
  1
枚
100
AcDbText
  0
TEXT
  5
6F0F
330
1E
100
AcDbEntity
  8
図枠
 62
     7
100
AcDbText
 10
1722.381840457014
 20
569.6688027037997
 30
0.0
 40
5.0
  1
〃
100
AcDbText
  0
TEXT
  5
6F10
330
1E
100
AcDbEntity
  8
図枠
 62
     7
100
AcDbText
 10
1722.381840457014
 20
581.6688027037997
 30
0.0
 40
5.0
  1
〃
100
AcDbText
  0
TEXT
  5
6F11
330
1E
100
AcDbEntity
  8
図枠
 62
     7
100
AcDbText
 10
1722.381840457014
 20
593.6688027037997
 30
0.0
 40
5.0
  1
〃
100
AcDbText
  0
TEXT
  5
6F12
330
1E
100
AcDbEntity
  8
図枠
 62
     7
100
AcDbText
 10
1722.381840457014
 20
605.6688027037997
 30
0.0
 40
5.0
  1
個
100
AcDbText
  0
TEXT
  5
6F13
330
1E
100
AcDbEntity
  8
図枠
 62
     7
100
AcDbText
 10
1722.381840457014
 20
617.6688027037998
 30
0.0
 40
5.0
  1
〃
100
AcDbText
  0
TEXT
  5
6F14
330
1E
100
AcDbEntity
  8
図枠
 62
     7
100
AcDbText
 10
1722.381840457014
 20
629.6688027037998
 30
0.0
 40
5.0
  1
〃
100
AcDbText
  0
TEXT
  5
6F15
330
1E
100
AcDbEntity
  8
図枠
 62
     7
100
AcDbText
 10
1722.381840457014
 20
641.6688027037996
 30
0.0
 40
5.0
  1
本
100
AcDbText
  0
TEXT
  5
6F16
330
1E
100
AcDbEntity
  8
図枠
 62
     7
100
AcDbText
 10
1790.381840457014
 20
497.6688027037997
 30
0.0
 40
5.0
  1
枚
100
AcDbText
  0
TEXT
  5
6F17
330
1E
100
AcDbEntity
  8
図枠
 62
     7
100
AcDbText
 10
1790.381840457014
 20
509.6688027037997
 30
0.0
 40
5.0
  1
〃
100
AcDbText
  0
TEXT
  5
6F18
330
1E
100
AcDbEntity
  8
図枠
 62
     7
100
AcDbText
 10
1790.381840457014
 20
521.6688027037998
 30
0.0
 40
5.0
  1
〃
100
AcDbText
  0
TEXT
  5
6F19
330
1E
100
AcDbEntity
  8
図枠
 62
     7
100
AcDbText
 10
1790.381840457014
 20
533.6688027037998
 30
0.0
 40
5.0
  1
本
100
AcDbText
  0
TEXT
  5
6F1A
330
1E
100
AcDbEntity
  8
図枠
 62
     7
100
AcDbText
 10
1790.381840457014
 20
545.6688027037997
 30
0.0
 40
5.0
  1
〃
100
AcDbText
  0
TEXT
  5
6F1B
330
1E
100
AcDbEntity
  8
図枠
 62
     7
100
AcDbText
 10
1790.381840457014
 20
557.6688027037997
 30
0.0
 40
5.0
  1
枚
100
AcDbText
  0
TEXT
  5
6F1C
330
1E
100
AcDbEntity
  8
図枠
 62
     7
100
AcDbText
 10
1790.381840457014
 20
569.6688027037997
 30
0.0
 40
5.0
  1
〃
100
AcDbText
  0
TEXT
  5
6F1D
330
1E
100
AcDbEntity
  8
図枠
 62
     7
100
AcDbText
 10
1790.381840457014
 20
581.6688027037997
 30
0.0
 40
5.0
  1
〃
100
AcDbText
  0
TEXT
  5
6F1E
330
1E
100
AcDbEntity
  8
図枠
 62
     7
100
AcDbText
 10
1790.381840457014
 20
593.6688027037997
 30
0.0
 40
5.0
  1
〃
100
AcDbText
  0
TEXT
  5
6F1F
330
1E
100
AcDbEntity
  8
図枠
 62
     7
100
AcDbText
 10
1790.381840457014
 20
605.6688027037997
 30
0.0
 40
5.0
  1
個
100
AcDbText
  0
TEXT
  5
6F20
330
1E
100
AcDbEntity
  8
図枠
 62
     7
100
AcDbText
 10
1790.381840457014
 20
617.6688027037998
 30
0.0
 40
5.0
  1
〃
100
AcDbText
  0
TEXT
  5
6F21
330
1E
100
AcDbEntity
  8
図枠
 62
     7
100
AcDbText
 10
1790.381840457014
 20
629.6688027037998
 30
0.0
 40
5.0
  1
〃
100
AcDbText
  0
TEXT
  5
6F22
330
1E
100
AcDbEntity
  8
図枠
 62
     7
100
AcDbText
 10
1790.381840457014
 20
641.6688027037996
 30
0.0
 40
5.0
  1
本
100
AcDbText
  0
TEXT
  5
6F23
330
1E
100
AcDbEntity
  8
図枠
 62
     7
100
AcDbText
 10
1786.881840457014
 20
653.6688027037996
 30
0.0
 40
5.0
  1
単位
100
AcDbText
  0
TEXT
  5
6F24
330
1E
100
AcDbEntity
  8
図枠
 62
     7
100
AcDbText
 10
1718.881840457014
 20
653.6688027037996
 30
0.0
 40
5.0
  1
単位
100
AcDbText
  0
TEXT
  5
6F25
330
1E
100
AcDbEntity
  8
図枠
 62
     7
100
AcDbText
 10
1676.131840457014
 20
545.6688027037997
 30
0.0
 40
5.0
  1
3100
100
AcDbText
  0
TEXT
  5
6F26
330
1E
100
AcDbEntity
  8
図枠
 62
     7
100
AcDbText
 10
1676.131840457014
 20
557.6688027037997
 30
0.0
 40
5.0
  1
3060
100
AcDbText
  0
TEXT
  5
6F27
330
1E
100
AcDbEntity
  8
図枠
 62
     7
100
AcDbText
 10
1676.131840457014
 20
617.6688027037998
 30
0.0
 40
5.0
  1
3010
100
AcDbText
  0
TEXT
  5
6F28
330
1E
100
AcDbEntity
  8
図枠
 62
     7
100
AcDbText
 10
1676.131840457014
 20
629.6688027037998
 30
0.0
 40
5.0
  1
3000
100
AcDbText
  0
TEXT
  5
6F29
330
1E
100
AcDbEntity
  8
図枠
 62
     7
100
AcDbText
 10
1744.131840457014
 20
545.6688027037997
 30
0.0
 40
5.0
  1
2100
100
AcDbText
  0
TEXT
  5
6F2A
330
1E
100
AcDbEntity
  8
図枠
 62
     7
100
AcDbText
 10
1744.131840457014
 20
557.6688027037997
 30
0.0
 40
5.0
  1
2060
100
AcDbText
  0
TEXT
  5
6F2B
330
1E
100
AcDbEntity
  8
図枠
 62
     7
100
AcDbText
 10
1744.131840457014
 20
617.6688027037998
 30
0.0
 40
5.0
  1
2010
100
AcDbText
  0
TEXT
  5
6F2C
330
1E
100
AcDbEntity
  8
図枠
 62
     7
100
AcDbText
 10
1744.131840457014
 20
629.6688027037998
 30
0.0
 40
5.0
  1
2000
100
AcDbText
  0
TEXT
  5
6F2D
330
1E
100
AcDbEntity
  8
図枠
 62
     7
100
AcDbText
 10
1744.131840457014
 20
641.6688027037996
 30
0.0
 40
5.0
  1
2000
100
AcDbText
  0
TEXT
  5
6F2E
330
1E
100
AcDbEntity
  8
図枠
 62
     7
100
AcDbText
 10
1737.131840457014
 20
653.6688027037996
 30
0.0
 40
5.0
  1
定尺(mm)
100
AcDbText
  0
TEXT
  5
6F2F
330
1E
100
AcDbEntity
  8
図枠
 62
     7
100
AcDbText
 10
1676.131840457014
 20
641.6688027037996
 30
0.0
 40
5.0
  1
3000
100
AcDbText
  0
TEXT
  5
6F30
330
1E
100
AcDbEntity
  8
図枠
 62
     7
100
AcDbText
 10
1702.881840457014
 20
653.6688027037996
 30
0.0
 40
5.0
  1
入数
100
AcDbText
  0
TEXT
  5
6F31
330
1E
100
AcDbEntity
  8
図枠
 62
     7
100
AcDbText
 10
1706.131840457014
 20
641.6688027037996
 30
0.0
 40
5.0
  1
 1
100
AcDbText
  0
TEXT
  5
6F32
330
1E
100
AcDbEntity
  8
図枠
 62
     7
100
AcDbText
 10
1706.131840457014
 20
629.6688027037998
 30
0.0
 40
5.0
  1
 2
100
AcDbText
  0
TEXT
  5
6F33
330
1E
100
AcDbEntity
  8
図枠
 62
     7
100
AcDbText
 10
1706.131840457014
 20
617.6688027037998
 30
0.0
 40
5.0
  1
 2
100
AcDbText
  0
TEXT
  5
6F34
330
1E
100
AcDbEntity
  8
図枠
 62
     7
100
AcDbText
 10
1706.131840457014
 20
605.6688027037997
 30
0.0
 40
5.0
  1
 6
100
AcDbText
  0
TEXT
  5
6F35
330
1E
100
AcDbEntity
  8
図枠
 62
     7
100
AcDbText
 10
1706.131840457014
 20
593.6688027037997
 30
0.0
 40
5.0
  1
12
100
AcDbText
  0
TEXT
  5
6F36
330
1E
100
AcDbEntity
  8
図枠
 62
     7
100
AcDbText
 10
1706.131840457014
 20
581.6688027037997
 30
0.0
 40
5.0
  1
12
100
AcDbText
  0
TEXT
  5
6F37
330
1E
100
AcDbEntity
  8
図枠
 62
     7
100
AcDbText
 10
1706.131840457014
 20
569.6688027037997
 30
0.0
 40
5.0
  1
 1
100
AcDbText
  0
TEXT
  5
6F38
330
1E
100
AcDbEntity
  8
図枠
 62
     7
100
AcDbText
 10
1706.131840457014
 20
557.6688027037997
 30
0.0
 40
5.0
  1
 2
100
AcDbText
  0
TEXT
  5
6F39
330
1E
100
AcDbEntity
  8
図枠
 62
     7
100
AcDbText
 10
1706.131840457014
 20
533.6688027037998
 30
0.0
 40
5.0
  1
12
100
AcDbText
  0
TEXT
  5
6F3A
330
1E
100
AcDbEntity
  8
図枠
 62
     7
100
AcDbText
 10
1706.131840457014
 20
521.6688027037998
 30
0.0
 40
5.0
  1
12
100
AcDbText
  0
TEXT
  5
6F3B
330
1E
100
AcDbEntity
  8
図枠
 62
     7
100
AcDbText
 10
1706.131840457014
 20
509.6688027037997
 30
0.0
 40
5.0
  1
12
100
AcDbText
  0
TEXT
  5
6F3C
330
1E
100
AcDbEntity
  8
図枠
 62
     7
100
AcDbText
 10
1706.131840457014
 20
497.6688027037997
 30
0.0
 40
5.0
  1
12
100
AcDbText
  0
TEXT
  5
6F3D
330
1E
100
AcDbEntity
  8
図枠
 62
     7
100
AcDbText
 10
1774.131840457014
 20
497.6688027037997
 30
0.0
 40
5.0
  1
10
100
AcDbText
  0
TEXT
  5
6F3E
330
1E
100
AcDbEntity
  8
図枠
 62
     7
100
AcDbText
 10
1774.131840457014
 20
509.6688027037997
 30
0.0
 40
5.0
  1
10
100
AcDbText
  0
TEXT
  5
6F3F
330
1E
100
AcDbEntity
  8
図枠
 62
     7
100
AcDbText
 10
1774.131840457014
 20
521.6688027037998
 30
0.0
 40
5.0
  1
10
100
AcDbText
  0
TEXT
  5
6F40
330
1E
100
AcDbEntity
  8
図枠
 62
     7
100
AcDbText
 10
1774.131840457014
 20
533.6688027037998
 30
0.0
 40
5.0
  1
 8
100
AcDbText
  0
TEXT
  5
6F41
330
1E
100
AcDbEntity
  8
図枠
 62
     7
100
AcDbText
 10
1774.131840457014
 20
545.6688027037997
 30
0.0
 40
5.0
  1
 1
100
AcDbText
  0
TEXT
  5
6F42
330
1E
100
AcDbEntity
  8
図枠
 62
     7
100
AcDbText
 10
1774.131840457014
 20
557.6688027037997
 30
0.0
 40
5.0
  1
 2
100
AcDbText
  0
TEXT
  5
6F43
330
1E
100
AcDbEntity
  8
図枠
 62
     7
100
AcDbText
 10
1774.131840457014
 20
569.6688027037997
 30
0.0
 40
5.0
  1
 1
100
AcDbText
  0
TEXT
  5
6F44
330
1E
100
AcDbEntity
  8
図枠
 62
     7
100
AcDbText
 10
1774.131840457014
 20
581.6688027037997
 30
0.0
 40
5.0
  1
 8
100
AcDbText
  0
TEXT
  5
6F45
330
1E
100
AcDbEntity
  8
図枠
 62
     7
100
AcDbText
 10
1774.131840457014
 20
593.6688027037997
 30
0.0
 40
5.0
  1
 8
100
AcDbText
  0
TEXT
  5
6F46
330
1E
100
AcDbEntity
  8
図枠
 62
     7
100
AcDbText
 10
1774.131840457014
 20
605.6688027037997
 30
0.0
 40
5.0
  1
 4
100
AcDbText
  0
TEXT
  5
6F47
330
1E
100
AcDbEntity
  8
図枠
 62
     7
100
AcDbText
 10
1774.131840457014
 20
617.6688027037998
 30
0.0
 40
5.0
  1
 2
100
AcDbText
  0
TEXT
  5
6F48
330
1E
100
AcDbEntity
  8
図枠
 62
     7
100
AcDbText
 10
1774.131840457014
 20
629.6688027037998
 30
0.0
 40
5.0
  1
 2
100
AcDbText
  0
TEXT
  5
6F49
330
1E
100
AcDbEntity
  8
図枠
 62
     7
100
AcDbText
 10
1774.131840457014
 20
641.6688027037996
 30
0.0
 40
5.0
  1
 1
100
AcDbText
  0
TEXT
  5
6F4A
330
1E
100
AcDbEntity
  8
図枠
 62
     7
100
AcDbText
 10
1770.881840457014
 20
653.6688027037996
 30
0.0
 40
5.0
  1
入数
100
AcDbText
  0
LINE
  5
6F4B
330
1E
100
AcDbEntity
  8
図枠
  6
Continuous
 62
     7
100
AcDbLine
 10
1664.381840457014
 20
482.6688027037997
 30
0.0
 11
1455.381840457014
 21
482.6688027037997
 31
0.0
  0
LINE
  5
6F4C
330
1E
100
AcDbEntity
  8
図枠
  6
Continuous
 62
     7
100
AcDbLine
 10
1664.381840457014
 20
614.6688027037997
 30
0.0
 11
1455.381840457014
 21
614.6688027037997
 31
0.0
  0
LINE
  5
6F4D
330
1E
100
AcDbEntity
  8
図枠
  6
Continuous
 62
     7
100
AcDbLine
 10
1664.381840457014
 20
626.6688027037997
 30
0.0
 11
1455.381840457014
 21
626.6688027037997
 31
0.0
  0
LINE
  5
6F4E
330
1E
100
AcDbEntity
  8
図枠
  6
Continuous
 62
     7
100
AcDbLine
 10
1664.381840457014
 20
638.6688027037997
 30
0.0
 11
1455.381840457014
 21
638.6688027037997
 31
0.0
  0
LINE
  5
6F4F
330
1E
100
AcDbEntity
  8
図枠
  6
Continuous
 62
     7
100
AcDbLine
 10
1664.381840457014
 20
650.6688027037996
 30
0.0
 11
1455.381840457014
 21
650.6688027037996
 31
0.0
  0
LINE
  5
6F50
330
1E
100
AcDbEntity
  8
図枠
  6
Continuous
 62
     7
100
AcDbLine
 10
1664.381840457014
 20
530.6688027037997
 30
0.0
 11
1455.381840457014
 21
530.6688027037997
 31
0.0
  0
LINE
  5
6F51
330
1E
100
AcDbEntity
  8
図枠
  6
Continuous
 62
     7
100
AcDbLine
 10
1664.381840457014
 20
542.6688027037998
 30
0.0
 11
1455.381840457014
 21
542.6688027037998
 31
0.0
  0
LINE
  5
6F52
330
1E
100
AcDbEntity
  8
図枠
  6
Continuous
 62
     7
100
AcDbLine
 10
1664.381840457014
 20
566.6688027037998
 30
0.0
 11
1455.381840457014
 21
566.6688027037998
 31
0.0
  0
LINE
  5
6F53
330
1E
100
AcDbEntity
  8
図枠
  6
Continuous
 62
     7
100
AcDbLine
 10
1664.381840457014
 20
578.6688027037997
 30
0.0
 11
1455.381840457014
 21
578.6688027037997
 31
0.0
  0
LINE
  5
6F54
330
1E
100
AcDbEntity
  8
図枠
  6
Continuous
 62
     7
100
AcDbLine
 10
1664.381840457014
 20
590.6688027037997
 30
0.0
 11
1455.381840457014
 21
590.6688027037997
 31
0.0
  0
LINE
  5
6F55
330
1E
100
AcDbEntity
  8
図枠
  6
Continuous
 62
     7
100
AcDbLine
 10
1664.381840457014
 20
602.6688027037997
 30
0.0
 11
1455.381840457014
 21
602.6688027037997
 31
0.0
  0
LINE
  5
6F56
330
1E
100
AcDbEntity
  8
図枠
  6
Continuous
 62
     7
100
AcDbLine
 10
1664.381840457014
 20
554.6688027037998
 30
0.0
 11
1455.381840457014
 21
554.6688027037998
 31
0.0
  0
LINE
  5
6F57
330
1E
100
AcDbEntity
  8
図枠
  6
Continuous
 62
     7
100
AcDbLine
 10
1664.381840457014
 20
494.6688027037997
 30
0.0
 11
1455.381840457014
 21
494.6688027037997
 31
0.0
  0
LINE
  5
6F58
330
1E
100
AcDbEntity
  8
図枠
  6
Continuous
 62
     7
100
AcDbLine
 10
1664.381840457014
 20
506.6688027037997
 30
0.0
 11
1455.381840457014
 21
506.6688027037997
 31
0.0
  0
LINE
  5
6F59
330
1E
100
AcDbEntity
  8
図枠
  6
Continuous
 62
     7
100
AcDbLine
 10
1664.381840457014
 20
518.6688027037997
 30
0.0
 11
1455.381840457014
 21
518.6688027037997
 31
0.0
  0
LINE
  5
6F5A
330
1E
100
AcDbEntity
  8
図枠
  6
Continuous
 62
     7
100
AcDbLine
 10
1664.381840457014
 20
662.6688027037996
 30
0.0
 11
1455.381840457014
 21
662.6688027037996
 31
0.0
  0
TEXT
  5
6F5B
330
1E
100
AcDbEntity
  8
図枠
 62
     7
100
AcDbText
 10
1459.131840457014
 20
497.6688027037997
 30
0.0
 40
5.0
  1
13
100
AcDbText
  0
TEXT
  5
6F5C
330
1E
100
AcDbEntity
  8
図枠
 62
     7
100
AcDbText
 10
1459.131840457014
 20
509.6688027037997
 30
0.0
 40
5.0
  1
12
100
AcDbText
  0
TEXT
  5
6F5D
330
1E
100
AcDbEntity
  8
図枠
 62
     7
100
AcDbText
 10
1459.131840457014
 20
521.6688027037998
 30
0.0
 40
5.0
  1
11
100
AcDbText
  0
TEXT
  5
6F5E
330
1E
100
AcDbEntity
  8
図枠
 62
     7
100
AcDbText
 10
1459.131840457014
 20
533.6688027037998
 30
0.0
 40
5.0
  1
10
100
AcDbText
  0
TEXT
  5
6F5F
330
1E
100
AcDbEntity
  8
図枠
 62
     7
100
AcDbText
 10
1459.131840457014
 20
545.6688027037997
 30
0.0
 40
5.0
  1
 9
100
AcDbText
  0
TEXT
  5
6F60
330
1E
100
AcDbEntity
  8
図枠
 62
     7
100
AcDbText
 10
1459.131840457014
 20
557.6688027037997
 30
0.0
 40
5.0
  1
 8
100
AcDbText
  0
TEXT
  5
6F61
330
1E
100
AcDbEntity
  8
図枠
 62
     7
100
AcDbText
 10
1459.131840457014
 20
569.6688027037997
 30
0.0
 40
5.0
  1
 7
100
AcDbText
  0
TEXT
  5
6F62
330
1E
100
AcDbEntity
  8
図枠
 62
     7
100
AcDbText
 10
1459.131840457014
 20
581.6688027037997
 30
0.0
 40
5.0
  1
 6
100
AcDbText
  0
TEXT
  5
6F63
330
1E
100
AcDbEntity
  8
図枠
 62
     7
100
AcDbText
 10
1459.131840457014
 20
593.6688027037997
 30
0.0
 40
5.0
  1
 5
100
AcDbText
  0
TEXT
  5
6F64
330
1E
100
AcDbEntity
  8
図枠
 62
     7
100
AcDbText
 10
1459.131840457014
 20
605.6688027037997
 30
0.0
 40
5.0
  1
 4
100
AcDbText
  0
TEXT
  5
6F65
330
1E
100
AcDbEntity
  8
図枠
 62
     7
100
AcDbText
 10
1459.131840457014
 20
617.6688027037998
 30
0.0
 40
5.0
  1
 3
100
AcDbText
  0
TEXT
  5
6F66
330
1E
100
AcDbEntity
  8
図枠
 62
     7
100
AcDbText
 10
1459.131840457014
 20
629.6688027037998
 30
0.0
 40
5.0
  1
 2
100
AcDbText
  0
TEXT
  5
6F67
330
1E
100
AcDbEntity
  8
図枠
 62
     7
100
AcDbText
 10
1457.381840457014
 20
653.6688027037996
 30
0.0
 40
5.0
  1
No.
100
AcDbText
  0
TEXT
  5
6F68
330
1E
100
AcDbEntity
  8
図枠
 62
     7
100
AcDbText
 10
1459.131840457014
 20
641.6688027037996
 30
0.0
 40
5.0
  1
 1
100
AcDbText
  0
TEXT
  5
6F69
330
1E
100
AcDbEntity
  8
図枠
 62
     7
100
AcDbText
 10
1574.381840457014
 20
485.6688027037997
 30
0.0
 40
5.0
  1
ｔ1.0×ｗ30
100
AcDbText
  0
TEXT
  5
6F6A
330
1E
100
AcDbEntity
  8
図枠
 62
     7
100
AcDbText
 10
1474.381840457014
 20
485.6688027037997
 30
0.0
 40
5.0
  1
ブチルテープ
100
AcDbText
  0
TEXT
  5
6F6B
330
1E
100
AcDbEntity
  8
図枠
 62
     7
100
AcDbText
 10
1722.381840457014
 20
485.6688027037997
 30
0.0
 40
5.0
  1
巻
100
AcDbText
  0
TEXT
  5
6F6C
330
1E
100
AcDbEntity
  8
図枠
 62
     7
100
AcDbText
 10
1790.381840457014
 20
485.6688027037997
 30
0.0
 40
5.0
  1
巻
100
AcDbText
  0
TEXT
  5
6F6D
330
1E
100
AcDbEntity
  8
図枠
 62
     7
100
AcDbText
 10
1676.131840457014
 20
485.6688027037997
 30
0.0
 40
5.0
  1
6000
100
AcDbText
  0
TEXT
  5
6F6E
330
1E
100
AcDbEntity
  8
図枠
 62
     7
100
AcDbText
 10
1744.131840457014
 20
485.6688027037997
 30
0.0
 40
5.0
  1
6000
100
AcDbText
  0
TEXT
  5
6F6F
330
1E
100
AcDbEntity
  8
図枠
 62
     7
100
AcDbText
 10
1706.131840457014
 20
485.6688027037997
 30
0.0
 40
5.0
  1
 1
100
AcDbText
  0
TEXT
  5
6F70
330
1E
100
AcDbEntity
  8
図枠
 62
     7
100
AcDbText
 10
1774.131840457014
 20
485.6688027037997
 30
0.0
 40
5.0
  1
 1
100
AcDbText
  0
TEXT
  5
6F71
330
1E
100
AcDbEntity
  8
図枠
 62
     7
100
AcDbText
 10
1459.381840457014
 20
485.6688027037997
 30
0.0
 40
5.0
  1
※
100
AcDbText
  0
LINE
  5
6F72
330
1E
100
AcDbEntity
  8
図枠
  6
Continuous
 62
     7
100
AcDbLine
 10
1800.381840457014
 20
482.6688027037997
 30
0.0
 11
1800.381840457014
 21
662.6688027037996
 31
0.0
  0
LINE
  5
6F73
330
1E
100
AcDbEntity
  8
図枠
  6
Continuous
 62
     7
100
AcDbLine
 10
1455.381840457014
 20
482.6688027037997
 30
0.0
 11
1455.381840457014
 21
662.6688027037996
 31
0.0
  0
LINE
  5
6F74
330
1E
100
AcDbEntity
  8
図枠
  6
Continuous
 62
     7
100
AcDbLine
 10
1718.381840457014
 20
482.6688027037997
 30
0.0
 11
1718.381840457014
 21
662.6688027037996
 31
0.0
  0
LINE
  5
6F75
330
1E
100
AcDbEntity
  8
図枠
  6
Continuous
 62
     7
100
AcDbLine
 10
1700.381840457014
 20
482.6688027037997
 30
0.0
 11
1700.381840457014
 21
662.6688027037996
 31
0.0
  0
LINE
  5
6F76
330
1E
100
AcDbEntity
  8
図枠
  6
Continuous
 62
     7
100
AcDbLine
 10
1665.381840457014
 20
482.6688027037997
 30
0.0
 11
1665.381840457014
 21
662.6688027037996
 31
0.0
  0
LINE
  5
6F77
330
1E
100
AcDbEntity
  8
図枠
  6
Continuous
 62
     7
100
AcDbLine
 10
1664.381840457014
 20
482.6688027037997
 30
0.0
 11
1664.381840457014
 21
662.6688027037996
 31
0.0
  0
LINE
  5
6F78
330
1E
100
AcDbEntity
  8
図枠
  6
Continuous
 62
     7
100
AcDbLine
 10
1569.381840457014
 20
482.6688027037997
 30
0.0
 11
1569.381840457014
 21
662.6688027037996
 31
0.0
  0
LINE
  5
6F79
330
1E
100
AcDbEntity
  8
図枠
  6
Continuous
 62
     7
100
AcDbLine
 10
1469.381840457014
 20
482.6688027037997
 30
0.0
 11
1469.381840457014
 21
662.6688027037996
 31
0.0
  0
LINE
  5
6F7A
330
1E
100
AcDbEntity
  8
図枠
  6
Continuous
 62
     7
100
AcDbLine
 10
1786.381840457014
 20
482.6688027037997
 30
0.0
 11
1786.381840457014
 21
662.6688027037996
 31
0.0
  0
LINE
  5
6F7B
330
1E
100
AcDbEntity
  8
図枠
  6
Continuous
 62
     7
100
AcDbLine
 10
1768.381840457014
 20
482.6688027037997
 30
0.0
 11
1768.381840457014
 21
662.6688027037996
 31
0.0
  0
LINE
  5
6F7C
330
1E
100
AcDbEntity
  8
図枠
  6
Continuous
 62
     7
100
AcDbLine
 10
1733.381840457014
 20
482.6688027037997
 30
0.0
 11
1733.381840457014
 21
662.6688027037996
 31
0.0
  0
LINE
  5
6F7D
330
1E
100
AcDbEntity
  8
図枠
  6
Continuous
 62
     7
100
AcDbLine
 10
1732.381840457014
 20
482.6688027037997
 30
0.0
 11
1732.381840457014
 21
662.6688027037996
 31
0.0
  0
TEXT
  5
6F7E
330
1E
100
AcDbEntity
  8
図枠
 62
     7
100
AcDbText
 10
1669.131840457014
 20
653.6688027037996
 30
0.0
 40
5.0
  1
定尺(mm)
100
AcDbText
  0
TEXT
  5
6F7F
330
1E
100
AcDbEntity
  8
図枠
 62
     7
100
AcDbText
 10
1907.381840457014
 20
653.6688027037996
 30
0.0
 40
5.0
  1
Ｗ
100
AcDbText
  0
TEXT
  5
6F80
330
1E
100
AcDbEntity
  8
図枠
 62
     7
100
AcDbText
 10
1843.381839957014
 20
653.6688027037996
 30
0.0
 40
5.0
  1
タ　イ　プ
100
AcDbText
  0
TEXT
  5
6F81
330
1E
100
AcDbEntity
  8
図枠
 62
     7
100
AcDbText
 10
1905.381840457014
 20
533.6688027037998
 30
0.0
 40
5.0
  1
900
100
AcDbText
  0
TEXT
  5
6F82
330
1E
100
AcDbEntity
  8
図枠
 62
     7
100
AcDbText
 10
1905.381840457014
 20
545.6688027037997
 30
0.0
 40
5.0
  1
850
100
AcDbText
  0
TEXT
  5
6F83
330
1E
100
AcDbEntity
  8
図枠
 62
     7
100
AcDbText
 10
1905.381840457014
 20
557.6688027037997
 30
0.0
 40
5.0
  1
800
100
AcDbText
  0
TEXT
  5
6F84
330
1E
100
AcDbEntity
  8
図枠
 62
     7
100
AcDbText
 10
1905.381840457014
 20
569.6688027037997
 30
0.0
 40
5.0
  1
750
100
AcDbText
  0
TEXT
  5
6F85
330
1E
100
AcDbEntity
  8
図枠
 62
     7
100
AcDbText
 10
1905.381840457014
 20
581.6688027037997
 30
0.0
 40
5.0
  1
700
100
AcDbText
  0
TEXT
  5
6F86
330
1E
100
AcDbEntity
  8
図枠
 62
     7
100
AcDbText
 10
1905.381840457014
 20
593.6688027037997
 30
0.0
 40
5.0
  1
650
100
AcDbText
  0
TEXT
  5
6F87
330
1E
100
AcDbEntity
  8
図枠
 62
     7
100
AcDbText
 10
1905.381840457014
 20
605.6688027037997
 30
0.0
 40
5.0
  1
600
100
AcDbText
  0
TEXT
  5
6F88
330
1E
100
AcDbEntity
  8
図枠
 62
     7
100
AcDbText
 10
1905.381840457014
 20
617.6688027037998
 30
0.0
 40
5.0
  1
550
100
AcDbText
  0
LINE
  5
6F89
330
1E
100
AcDbEntity
  8
図枠
  6
Continuous
 62
     7
100
AcDbLine
 10
1820.381840457014
 20
662.6688027037996
 30
0.0
 11
1820.381840457014
 21
530.6688027037997
 31
0.0
  0
LINE
  5
6F8A
330
1E
100
AcDbEntity
  8
図枠
  6
Continuous
 62
     7
100
AcDbLine
 10
1925.381840457014
 20
662.6688027037996
 30
0.0
 11
1925.381840457014
 21
530.6688027037997
 31
0.0
  0
LINE
  5
6F8B
330
1E
100
AcDbEntity
  8
図枠
  6
Continuous
 62
     7
100
AcDbLine
 10
1895.381840457014
 20
662.6688027037996
 30
0.0
 11
1895.381840457014
 21
530.6688027037997
 31
0.0
  0
LINE
  5
6F8C
330
1E
100
AcDbEntity
  8
図枠
  6
Continuous
 62
     7
100
AcDbLine
 10
1955.381840457014
 20
662.6688027037996
 30
0.0
 11
1955.381840457014
 21
530.6688027037997
 31
0.0
  0
TEXT
  5
6F8D
330
1E
100
AcDbEntity
  8
図枠
 62
     7
100
AcDbText
 10
1830.131840457014
 20
641.6688027037996
 30
0.0
 40
5.0
  1
100ＦＹＹ－Ａ450
100
AcDbText
  0
TEXT
  5
6F8E
330
1E
100
AcDbEntity
  8
図枠
 62
     7
100
AcDbText
 10
1830.131840457014
 20
629.6688027037996
 30
0.0
 40
5.0
  1
 　　〃　　　500
100
AcDbText
  0
TEXT
  5
6F8F
330
1E
100
AcDbEntity
  8
図枠
 62
     7
100
AcDbText
 10
1830.131840457014
 20
617.6688027037998
 30
0.0
 40
5.0
  1
 　　〃　　　550
100
AcDbText
  0
TEXT
  5
6F90
330
1E
100
AcDbEntity
  8
図枠
 62
     7
100
AcDbText
 10
1830.131840457014
 20
605.6688027037997
 30
0.0
 40
5.0
  1
 　　〃　　　600
100
AcDbText
  0
TEXT
  5
6F91
330
1E
100
AcDbEntity
  8
図枠
 62
     7
100
AcDbText
 10
1830.131840457014
 20
593.6688027037997
 30
0.0
 40
5.0
  1
 　　〃　　　650
100
AcDbText
  0
TEXT
  5
6F92
330
1E
100
AcDbEntity
  8
図枠
 62
     7
100
AcDbText
 10
1830.131840457014
 20
581.6688027037997
 30
0.0
 40
5.0
  1
 　　〃　　　700
100
AcDbText
  0
TEXT
  5
6F93
330
1E
100
AcDbEntity
  8
図枠
 62
     7
100
AcDbText
 10
1830.131840457014
 20
569.6688027037997
 30
0.0
 40
5.0
  1
 　　〃　　　750
100
AcDbText
  0
TEXT
  5
6F94
330
1E
100
AcDbEntity
  8
図枠
 62
     7
100
AcDbText
 10
1830.131840457014
 20
557.6688027037997
 30
0.0
 40
5.0
  1
 　　〃　　　800
100
AcDbText
  0
TEXT
  5
6F95
330
1E
100
AcDbEntity
  8
図枠
 62
     7
100
AcDbText
 10
1830.131840457014
 20
545.6688027037997
 30
0.0
 40
5.0
  1
 　　〃　　　850
100
AcDbText
  0
TEXT
  5
6F96
330
1E
100
AcDbEntity
  8
図枠
 62
     7
100
AcDbText
 10
1830.131840457014
 20
533.6688027037998
 30
0.0
 40
5.0
  1
 　　〃　　　900
100
AcDbText
  0
TEXT
  5
6F97
330
1E
100
AcDbEntity
  8
図枠
 62
     7
100
AcDbText
 10
1935.381840457014
 20
533.6688027037998
 30
0.0
 40
5.0
  1
325
100
AcDbText
  0
TEXT
  5
6F98
330
1E
100
AcDbEntity
  8
図枠
 62
     7
100
AcDbText
 10
1935.381840457014
 20
545.6688027037997
 30
0.0
 40
5.0
  1
300
100
AcDbText
  0
TEXT
  5
6F99
330
1E
100
AcDbEntity
  8
図枠
 62
     7
100
AcDbText
 10
1935.381840457014
 20
557.6688027037997
 30
0.0
 40
5.0
  1
275
100
AcDbText
  0
TEXT
  5
6F9A
330
1E
100
AcDbEntity
  8
図枠
 62
     7
100
AcDbText
 10
1935.381840457014
 20
569.6688027037997
 30
0.0
 40
5.0
  1
250
100
AcDbText
  0
TEXT
  5
6F9B
330
1E
100
AcDbEntity
  8
図枠
 62
     7
100
AcDbText
 10
1935.381840457014
 20
581.6688027037997
 30
0.0
 40
5.0
  1
225
100
AcDbText
  0
TEXT
  5
6F9C
330
1E
100
AcDbEntity
  8
図枠
 62
     7
100
AcDbText
 10
1935.381840457014
 20
593.6688027037997
 30
0.0
 40
5.0
  1
200
100
AcDbText
  0
TEXT
  5
6F9D
330
1E
100
AcDbEntity
  8
図枠
 62
     7
100
AcDbText
 10
1935.381840457014
 20
605.6688027037997
 30
0.0
 40
5.0
  1
175
100
AcDbText
  0
TEXT
  5
6F9E
330
1E
100
AcDbEntity
  8
図枠
 62
     7
100
AcDbText
 10
1935.381840457014
 20
617.6688027037998
 30
0.0
 40
5.0
  1
150
100
AcDbText
  0
TEXT
  5
6F9F
330
1E
100
AcDbEntity
  8
図枠
 62
     7
100
AcDbText
 10
1935.381840457014
 20
629.6688027037996
 30
0.0
 40
5.0
  1
125
100
AcDbText
  0
TEXT
  5
6FA0
330
1E
100
AcDbEntity
  8
図枠
 62
     7
100
AcDbText
 10
1935.381840457014
 20
641.6688027037996
 30
0.0
 40
5.0
  1
100
100
AcDbText
  0
TEXT
  5
6FA1
330
1E
100
AcDbEntity
  8
図枠
 62
     7
100
AcDbText
 10
1937.381840457014
 20
653.6688027037996
 30
0.0
 40
5.0
  1
Ｃ
100
AcDbText
  0
LINE
  5
6FA2
330
1E
100
AcDbEntity
  8
図枠
  6
Continuous
 62
     7
100
AcDbLine
 10
1955.381840457014
 20
662.6688027037996
 30
0.0
 11
1820.381840457014
 21
662.6688027037996
 31
0.0
  0
LINE
  5
6FA3
330
1E
100
AcDbEntity
  8
図枠
  6
Continuous
 62
     7
100
AcDbLine
 10
1955.381840457014
 20
530.6688027037997
 30
0.0
 11
1820.381840457014
 21
530.6688027037997
 31
0.0
  0
LINE
  5
6FA4
330
1E
100
AcDbEntity
  8
図枠
  6
Continuous
 62
     7
100
AcDbLine
 10
1955.381840457014
 20
542.6688027037998
 30
0.0
 11
1820.381840457014
 21
542.6688027037998
 31
0.0
  0
LINE
  5
6FA5
330
1E
100
AcDbEntity
  8
図枠
  6
Continuous
 62
     7
100
AcDbLine
 10
1955.381840457014
 20
554.6688027037998
 30
0.0
 11
1820.381840457014
 21
554.6688027037998
 31
0.0
  0
LINE
  5
6FA6
330
1E
100
AcDbEntity
  8
図枠
  6
Continuous
 62
     7
100
AcDbLine
 10
1955.381840457014
 20
566.6688027037998
 30
0.0
 11
1820.381840457014
 21
566.6688027037998
 31
0.0
  0
LINE
  5
6FA7
330
1E
100
AcDbEntity
  8
図枠
  6
Continuous
 62
     7
100
AcDbLine
 10
1955.381840457014
 20
578.6688027037997
 30
0.0
 11
1820.381840457014
 21
578.6688027037997
 31
0.0
  0
LINE
  5
6FA8
330
1E
100
AcDbEntity
  8
図枠
  6
Continuous
 62
     7
100
AcDbLine
 10
1955.381840457014
 20
590.6688027037997
 30
0.0
 11
1820.381840457014
 21
590.6688027037997
 31
0.0
  0
LINE
  5
6FA9
330
1E
100
AcDbEntity
  8
図枠
  6
Continuous
 62
     7
100
AcDbLine
 10
1955.381840457014
 20
602.6688027037997
 30
0.0
 11
1820.381840457014
 21
602.6688027037997
 31
0.0
  0
LINE
  5
6FAA
330
1E
100
AcDbEntity
  8
図枠
  6
Continuous
 62
     7
100
AcDbLine
 10
1955.381840457014
 20
614.6688027037997
 30
0.0
 11
1820.381840457014
 21
614.6688027037997
 31
0.0
  0
LINE
  5
6FAB
330
1E
100
AcDbEntity
  8
図枠
  6
Continuous
 62
     7
100
AcDbLine
 10
1955.381840457014
 20
626.6688027037997
 30
0.0
 11
1820.381840457014
 21
626.6688027037997
 31
0.0
  0
LINE
  5
6FAC
330
1E
100
AcDbEntity
  8
図枠
  6
Continuous
 62
     7
100
AcDbLine
 10
1955.381840457014
 20
638.6688027037994
 30
0.0
 11
1820.381840457014
 21
638.6688027037994
 31
0.0
  0
LINE
  5
6FAD
330
1E
100
AcDbEntity
  8
図枠
  6
Continuous
 62
     7
100
AcDbLine
 10
1955.381840457014
 20
650.6688027037994
 30
0.0
 11
1820.381840457014
 21
650.6688027037994
 31
0.0
  0
TEXT
  5
6FAE
330
1E
100
AcDbEntity
  8
図枠
 62
     7
100
AcDbText
 10
1905.381840457014
 20
641.6688027037996
 30
0.0
 40
5.0
  1
450
100
AcDbText
  0
TEXT
  5
6FAF
330
1E
100
AcDbEntity
  8
図枠
 62
     7
100
AcDbText
 10
1905.381840457014
 20
629.6688027037996
 30
0.0
 40
5.0
  1
500
100
AcDbText
  0
TEXT
  5
6FB0
330
1E
100
AcDbEntity
  8
図枠
 62
     7
100
AcDbText
 10
1574.381840457014
 20
641.6688027037996
 30
0.0
 40
5.0
  1
100ＦＹＹ－Ａ450～900
100
AcDbText
  0
TEXT
  5
6FB1
330
1E
100
AcDbEntity
  8
図枠
 62
     7
100
AcDbText
 10
1574.381840457014
 20
605.6688027037997
 30
0.0
 40
5.0
  1
100ＦＹＹＨ－450～900
100
AcDbText
  0
TEXT
  5
6FB2
330
1E
100
AcDbEntity
  8
図枠
 62
     7
100
AcDbText
 10
1574.381840457014
 20
569.6688027037997
 30
0.0
 40
5.0
  1
100ＦＹＹＪ－450～900
100
AcDbText
  0
TEXT
  5
6FB3
330
1E
100
AcDbEntity
  8
図枠
 62
     7
100
AcDbText
 10
1574.381840457014
 20
545.6688027037997
 30
0.0
 40
5.0
  1
ＦＳ400～700
100
AcDbText
  0
TEXT
  5
6FB4
330
1E
100
AcDbEntity
  8
図枠
 62
     7
100
AcDbText
 10
1706.131840457014
 20
545.6688027037997
 30
0.0
 40
5.0
  1
 1
100
AcDbText
  0
TEXT
  5
6FB5
330
1E
100
AcDbEntity
  8
図枠
 62
     7
100
AcDbText
 10
1616.881840457014
 20
900.2783229655619
 30
0.0
 40
5.0
  1
勾配３度
100
AcDbText
  0
LINE
  5
6FB6
330
1E
100
AcDbEntity
  8
躯体と製品
  6
Continuous
 62
     7
100
AcDbLine
 10
1656.361370802772
 20
836.7560973065078
 30
0.0
 11
1661.418410973658
 21
778.9538636561156
 31
0.0
  0
LINE
  5
6FB7
330
1E
100
AcDbEntity
  8
躯体と製品
  6
Continuous
 62
     7
100
AcDbLine
 10
1657.357565500864
 20
836.8432530492551
 30
0.0
 11
1662.41460567175
 21
779.0410193988632
 31
0.0
  0
LINE
  5
6FB8
330
1E
100
AcDbEntity
  8
躯体と製品
  6
Continuous
 62
     7
100
AcDbLine
 10
1753.406115413164
 20
836.8432530492551
 30
0.0
 11
1748.349075242279
 21
779.0410193988632
 31
0.0
  0
ARC
  5
6FB9
330
1E
100
AcDbEntity
  8
躯体と製品
  6
Continuous
 62
     7
100
AcDbCircle
 10
1705.381840457014
 20
782.8001653456306
 30
0.0
 40
43.13136264183103
100
AcDbArc
 50
184.9999999999994
 51
355.0000000000006
  0
LINE
  5
6FBA
330
1E
100
AcDbEntity
  8
躯体と製品
  6
Continuous
 62
     7
100
AcDbLine
 10
1754.402310111256
 20
836.7560973065078
 30
0.0
 11
1749.345269940371
 21
778.9538636561156
 31
0.0
  0
ARC
  5
6FBB
330
1E
100
AcDbEntity
  8
躯体と製品
  6
Continuous
 62
     7
100
AcDbCircle
 10
1705.381840457014
 20
782.8001653456306
 30
0.0
 40
44.13136264183103
100
AcDbArc
 50
184.9999999999994
 51
355.0000000000006
  0
LINE
  5
6FBD
330
1E
100
AcDbEntity
  8
寸法
  6
Continuous
 62
     4
100
AcDbLine
 10
1455.381840457014
 20
707.6688027037996
 30
0.0
 11
1455.381840457014
 21
792.8056283435678
 31
0.0
  0
LINE
  5
6FD8
330
1E
100
AcDbEntity
  8
寸法
  6
Continuous
 62
     4
100
AcDbLine
 10
1995.381840457014
 20
837.6688027037996
 30
0.0
 11
1884.08556693564
 21
837.6688027037996
 31
0.0
  0
LINE
  5
6FDF
330
1E
100
AcDbEntity
  8
寸法
  6
Continuous
 62
     4
100
AcDbLine
 10
2015.381840457014
 20
884.8056283435676
 30
0.0
 11
1957.381840457014
 21
884.8056283435676
 31
0.0
  0
LINE
  5
6FE0
330
1E
100
AcDbEntity
  8
寸法
  6
Continuous
 62
     4
100
AcDbLine
 10
2015.381840457014
 20
794.8056283435678
 30
0.0
 11
1957.381840457014
 21
794.8056283435678
 31
0.0
  0
LINE
  5
6FE1
330
1E
100
AcDbEntity
  8
躯体と製品
  6
Continuous
 62
     7
100
AcDbLine
 10
1830.381840457014
 20
838.6688027037996
 30
0.0
 11
1830.381840457014
 21
839.6688027037995
 31
0.0
  0
ARC
  5
6FE2
330
1E
100
AcDbEntity
  8
躯体と製品
  6
Continuous
 62
     7
100
AcDbCircle
 10
1845.381840457014
 20
830.4188027037996
 30
0.0
 40
8.25
100
AcDbArc
 50
71.07535558394559
 51
90.0
  0
ARC
  5
6FE3
330
1E
100
AcDbEntity
  8
躯体と製品
  6
Continuous
 62
     7
100
AcDbCircle
 10
1851.381840457014
 20
847.9188027037997
 30
0.0
 40
10.25
100
AcDbArc
 50
251.0753555839456
 51
270.0
  0
ARC
  5
6FE4
330
1E
100
AcDbEntity
  8
躯体と製品
  6
Continuous
 62
     7
100
AcDbCircle
 10
1815.381840457014
 20
830.4188027037996
 30
0.0
 40
8.25
100
AcDbArc
 50
90.0
 51
108.9246444160544
  0
ARC
  5
6FE5
330
1E
100
AcDbEntity
  8
躯体と製品
  6
Continuous
 62
     7
100
AcDbCircle
 10
1809.381840457015
 20
847.9188027037997
 30
0.0
 40
10.25
100
AcDbArc
 50
270.0
 51
288.9246444160544
  0
ARC
  5
6FE6
330
1E
100
AcDbEntity
  8
躯体と製品
  6
Continuous
 62
     7
100
AcDbCircle
 10
1815.381840457014
 20
830.4188027037996
 30
0.0
 40
9.25
100
AcDbArc
 50
90.0
 51
108.9246444160544
  0
LINE
  5
6FE7
330
1E
100
AcDbEntity
  8
躯体と製品
  6
Continuous
 62
     7
100
AcDbLine
 10
1845.381840457014
 20
839.6688027037995
 30
0.0
 11
1815.381840457014
 21
839.6688027037995
 31
0.0
  0
ARC
  5
6FE8
330
1E
100
AcDbEntity
  8
躯体と製品
  6
Continuous
 62
     7
100
AcDbCircle
 10
1845.381840457014
 20
830.4188027037996
 30
0.0
 40
9.25
100
AcDbArc
 50
71.07535558394559
 51
90.0
  0
ARC
  5
6FE9
330
1E
100
AcDbEntity
  8
躯体と製品
  6
Continuous
 62
     7
100
AcDbCircle
 10
1851.381840457014
 20
847.9188027037997
 30
0.0
 40
9.25
100
AcDbArc
 50
251.0753555839456
 51
270.0
  0
ARC
  5
6FEA
330
1E
100
AcDbEntity
  8
躯体と製品
  6
Continuous
 62
     7
100
AcDbCircle
 10
1809.381840457015
 20
847.9188027037997
 30
0.0
 40
9.25
100
AcDbArc
 50
270.0
 51
288.9246444160544
  0
LINE
  5
6FEB
330
1E
100
AcDbEntity
  8
躯体と製品
  6
Continuous
 62
     7
100
AcDbLine
 10
1580.381840457014
 20
838.6688027037996
 30
0.0
 11
1580.381840457014
 21
839.6688027037995
 31
0.0
  0
ARC
  5
6FEC
330
1E
100
AcDbEntity
  8
躯体と製品
  6
Continuous
 62
     7
100
AcDbCircle
 10
1595.381840457014
 20
830.4188027037996
 30
0.0
 40
8.25
100
AcDbArc
 50
71.07535558394559
 51
90.0
  0
ARC
  5
6FED
330
1E
100
AcDbEntity
  8
躯体と製品
  6
Continuous
 62
     7
100
AcDbCircle
 10
1601.381840457014
 20
847.9188027037997
 30
0.0
 40
10.25
100
AcDbArc
 50
251.0753555839456
 51
270.0
  0
ARC
  5
6FEE
330
1E
100
AcDbEntity
  8
躯体と製品
  6
Continuous
 62
     7
100
AcDbCircle
 10
1565.381840457014
 20
830.4188027037996
 30
0.0
 40
8.25
100
AcDbArc
 50
90.0
 51
108.9246444160544
  0
ARC
  5
6FEF
330
1E
100
AcDbEntity
  8
躯体と製品
  6
Continuous
 62
     7
100
AcDbCircle
 10
1559.381840457014
 20
847.9188027037997
 30
0.0
 40
10.25
100
AcDbArc
 50
270.0
 51
288.9246444160544
  0
ARC
  5
6FF0
330
1E
100
AcDbEntity
  8
躯体と製品
  6
Continuous
 62
     7
100
AcDbCircle
 10
1565.381840457014
 20
830.4188027037996
 30
0.0
 40
9.25
100
AcDbArc
 50
90.0
 51
108.9246444160544
  0
LINE
  5
6FF1
330
1E
100
AcDbEntity
  8
躯体と製品
  6
Continuous
 62
     7
100
AcDbLine
 10
1595.381840457014
 20
839.6688027037995
 30
0.0
 11
1565.381840457014
 21
839.6688027037995
 31
0.0
  0
ARC
  5
6FF2
330
1E
100
AcDbEntity
  8
躯体と製品
  6
Continuous
 62
     7
100
AcDbCircle
 10
1595.381840457014
 20
830.4188027037996
 30
0.0
 40
9.25
100
AcDbArc
 50
71.07535558394559
 51
90.0
  0
ARC
  5
6FF3
330
1E
100
AcDbEntity
  8
躯体と製品
  6
Continuous
 62
     7
100
AcDbCircle
 10
1601.381840457014
 20
847.9188027037997
 30
0.0
 40
9.25
100
AcDbArc
 50
251.0753555839456
 51
270.0
  0
ARC
  5
6FF4
330
1E
100
AcDbEntity
  8
躯体と製品
  6
Continuous
 62
     7
100
AcDbCircle
 10
1559.381840457014
 20
847.9188027037997
 30
0.0
 40
9.25
100
AcDbArc
 50
270.0
 51
288.9246444160544
  0
ARC
  5
6FF5
330
1E
100
AcDbEntity
  8
躯体と製品
  6
Continuous
 62
     7
100
AcDbCircle
 10
1530.410400230913
 20
836.6692106173388
 30
0.0
 40
2.0
100
AcDbArc
 50
91.15721505311539
 51
175.0000000000005
  0
LINE
  5
6FF6
330
1E
100
AcDbEntity
  8
躯体と製品
  6
Continuous
 62
     7
100
AcDbLine
 10
1559.381840457014
 20
838.6688027037996
 30
0.0
 11
1530.370008551528
 21
838.6688027037996
 31
0.0
  0
LINE
  5
6FF7
330
1E
100
AcDbEntity
  8
躯体と製品
  6
Continuous
 62
     7
100
AcDbLine
 10
1601.381840457014
 20
838.6688027037996
 30
0.0
 11
1655.388743466849
 21
838.6688027037996
 31
0.0
  0
ARC
  5
6FF8
330
1E
100
AcDbEntity
  8
躯体と製品
  6
Continuous
 62
     7
100
AcDbCircle
 10
1655.36517610468
 20
836.6689415637599
 30
0.0
 40
2.0
100
AcDbArc
 50
4.999999999999459
 51
89.3248291809412
  0
ARC
  5
6FF9
330
1E
100
AcDbEntity
  8
躯体と製品
  6
Continuous
 62
     7
100
AcDbCircle
 10
1755.398504809348
 20
836.6689415637599
 30
0.0
 40
2.0
100
AcDbArc
 50
90.67517081888942
 51
175.0000000000005
  0
LINE
  5
6FFA
330
1E
100
AcDbEntity
  8
躯体と製品
  6
Continuous
 62
     7
100
AcDbLine
 10
1809.381840457015
 20
838.6688027037996
 30
0.0
 11
1755.374937447184
 21
838.6688027037996
 31
0.0
  0
LINE
  5
6FFB
330
1E
100
AcDbEntity
  8
躯体と製品
  6
Continuous
 62
     7
100
AcDbLine
 10
1851.381840457014
 20
838.6688027037996
 30
0.0
 11
1880.393672362501
 21
838.6688027037996
 31
0.0
  0
ARC
  5
6FFC
330
1E
100
AcDbEntity
  8
躯体と製品
  6
Continuous
 62
     7
100
AcDbCircle
 10
1880.353280683115
 20
836.6692106173388
 30
0.0
 40
2.0
100
AcDbArc
 50
4.999999999999459
 51
88.84278494683243
  0
TEXT
  5
6FFD
330
1E
100
AcDbEntity
  8
図枠
 62
     7
100
AcDbText
 10
1914.381840457014
 20
663.1207888605838
 30
0.0
 40
5.0
  1
（単位：mm）
100
AcDbText
  0
TEXT
  5
6FFE
330
1E
100
AcDbEntity
  8
図枠
 62
     7
100
AcDbText
 10
1739.381840457014
 20
663.1207888605838
 30
0.0
 40
5.0
  1
（2000mmセット）
100
AcDbText
  0
TEXT
  5
6FFF
330
1E
100
AcDbEntity
  8
図枠
 62
     7
100
AcDbText
 10
1671.381840457014
 20
663.1207888605838
 30
0.0
 40
5.0
  1
（3000mmセット）
100
AcDbText
  0
LINE
  5
7000
330
1E
100
AcDbEntity
  8
図枠
  6
Continuous
 62
     4
100
AcDbLine
 10
1655.381840457014
 20
900.2940459301656
 30
0.0
 11
1605.381840457014
 21
900.2940459301656
 31
0.0
  0
LINE
  5
7001
330
1E
100
AcDbEntity
  8
図枠
  6
Continuous
 62
     4
100
AcDbLine
 10
1655.381840457014
 20
900.2940459301656
 30
0.0
 11
1605.381840457014
 21
897.6736569660136
 31
0.0
  0
LINE
  5
7002
330
1E
100
AcDbEntity
  8
図枠
  6
Continuous
 62
     4
100
AcDbLine
 10
1605.381840457014
 20
897.6736569660136
 30
0.0
 11
1605.381840457014
 21
900.2940459301656
 31
0.0
  0
LINE
  5
7003
330
1E
100
AcDbEntity
  8
躯体と製品
  6
CENTER1
 62
     4
100
AcDbLine
 10
1578.657200595277
 20
890.5004060706007
 30
0.0
 11
1581.009871931929
 21
845.6087627146311
 31
0.0
  0
LINE
  5
7004
330
1E
100
AcDbEntity
  8
躯体と製品
  6
CENTER1
 62
     4
100
AcDbLine
 10
1580.381840457014
 20
862.5923171316861
 30
0.0
 11
1580.381840457014
 21
777.4188027037996
 31
0.0
  0
LINE
  5
7005
330
1E
100
AcDbEntity
  8
躯体と製品
  6
CENTER1
 62
     4
100
AcDbLine
 10
1832.106480318751
 20
890.5004060706007
 30
0.0
 11
1829.753808982099
 21
845.6087627146311
 31
0.0
  0
LINE
  5
7006
330
1E
100
AcDbEntity
  8
躯体と製品
  6
CENTER1
 62
     4
100
AcDbLine
 10
1830.381840457014
 20
862.5923171316861
 30
0.0
 11
1830.381840457014
 21
777.4188027037996
 31
0.0
  0
LINE
  5
7007
330
1E
100
AcDbEntity
  8
躯体と製品
  6
Continuous
 62
     7
100
AcDbLine
 10
1821.381840457014
 20
843.6688027037996
 30
0.0
 11
1839.381840457014
 21
843.6688027037996
 31
0.0
  0
LINE
  5
7008
330
1E
100
AcDbEntity
  8
躯体と製品
  6
Continuous
 62
     7
100
AcDbLine
 10
1839.381840457014
 20
843.6688027037996
 30
0.0
 11
1839.381840457014
 21
842.1688027037996
 31
0.0
  0
LINE
  5
7009
330
1E
100
AcDbEntity
  8
躯体と製品
  6
Continuous
 62
     7
100
AcDbLine
 10
1821.381840457014
 20
843.6688027037996
 30
0.0
 11
1821.381840457014
 21
842.1688027037996
 31
0.0
  0
ARC
  5
700A
330
1E
100
AcDbEntity
  8
躯体と製品
  6
Continuous
 62
     7
100
AcDbCircle
 10
1830.381840457014
 20
839.0576496642438
 30
0.0
 40
9.553418012635715
100
AcDbArc
 50
72.41204622604974
 51
107.5879537739502
  0
ARC
  5
700B
330
1E
100
AcDbEntity
  8
躯体と製品
  6
Continuous
 62
     7
100
AcDbCircle
 10
1826.051713438092
 20
846.0552449284515
 30
0.0
 40
2.555822748428199
100
AcDbArc
 50
55.61575253203897
 51
124.384247467961
  0
ARC
  5
700C
330
1E
100
AcDbEntity
  8
躯体と製品
  6
Continuous
 62
     7
100
AcDbCircle
 10
1834.711967475936
 20
846.0552449284515
 30
0.0
 40
2.555822748428199
100
AcDbArc
 50
55.61575253203897
 51
124.384247467961
  0
LINE
  5
700D
330
1E
100
AcDbEntity
  8
躯体と製品
  6
Continuous
 62
     7
100
AcDbLine
 10
1824.608337765118
 20
848.1644856894952
 30
0.0
 11
1824.608337765118
 21
843.6688027037996
 31
0.0
  0
LINE
  5
700E
330
1E
100
AcDbEntity
  8
躯体と製品
  6
Continuous
 62
     7
100
AcDbLine
 10
1825.481840457014
 20
848.6688027037995
 30
0.0
 11
1824.608337765118
 21
848.1644856894952
 31
0.0
  0
LINE
  5
700F
330
1E
100
AcDbEntity
  8
躯体と製品
  6
Continuous
 62
     7
100
AcDbLine
 10
1825.481840457014
 20
848.6688027037995
 30
0.0
 11
1835.281840457014
 21
848.6688027037995
 31
0.0
  0
LINE
  5
7010
330
1E
100
AcDbEntity
  8
躯体と製品
  6
Continuous
 62
     7
100
AcDbLine
 10
1835.281840457014
 20
848.6688027037995
 30
0.0
 11
1836.155343148911
 21
848.1644856894952
 31
0.0
  0
LINE
  5
7011
330
1E
100
AcDbEntity
  8
躯体と製品
  6
Continuous
 62
     7
100
AcDbLine
 10
1827.495089111066
 20
848.1644856894952
 30
0.0
 11
1827.495089111066
 21
843.6688027037996
 31
0.0
  0
LINE
  5
7012
330
1E
100
AcDbEntity
  8
躯体と製品
  6
Continuous
 62
     7
100
AcDbLine
 10
1833.268591802962
 20
848.1644856894952
 30
0.0
 11
1833.268591802962
 21
843.6688027037996
 31
0.0
  0
LINE
  5
7013
330
1E
100
AcDbEntity
  8
躯体と製品
  6
Continuous
 62
     7
100
AcDbLine
 10
1836.155343148911
 20
848.1644856894952
 30
0.0
 11
1836.155343148911
 21
843.6688027037996
 31
0.0
  0
CIRCLE
  5
7014
330
1E
100
AcDbEntity
  8
図枠
  6
Continuous
 62
     4
100
AcDbCircle
 10
1880.355181195774
 20
871.266996803904
 30
0.0
 40
0.9
  0
CIRCLE
  5
7015
330
1E
100
AcDbEntity
  8
図枠
  6
Continuous
 62
     4
100
AcDbCircle
 10
1832.436285494447
 20
873.1319723910671
 30
0.0
 40
0.9
  0
CIRCLE
  5
7016
330
1E
100
AcDbEntity
  8
図枠
  6
Continuous
 62
     4
100
AcDbCircle
 10
1828.255829481012
 20
812.5861413056528
 30
0.0
 40
0.9
  0
CIRCLE
  5
7017
330
1E
100
AcDbEntity
  8
図枠
  6
Continuous
 62
     4
100
AcDbCircle
 10
1847.985669485403
 20
875.8542250344985
 30
0.0
 40
0.9
  0
CIRCLE
  5
7018
330
1E
100
AcDbEntity
  8
図枠
  6
Continuous
 62
     4
100
AcDbCircle
 10
1834.719251285709
 20
845.7693748510576
 30
0.0
 40
0.9
  0
CIRCLE
  5
7019
330
1E
100
AcDbEntity
  8
図枠
  6
Continuous
 62
     4
100
AcDbCircle
 10
1840.559323185158
 20
853.1574176154201
 30
0.0
 40
0.9
  0
CIRCLE
  5
701A
330
1E
100
AcDbEntity
  8
図枠
  6
Continuous
 62
     4
100
AcDbCircle
 10
1897.280496307384
 20
900.582502511326
 30
0.0
 40
6.0
  0
LINE
  5
701B
330
1E
100
AcDbEntity
  8
図枠
  6
Continuous
 62
     4
100
AcDbLine
 10
1880.355181195774
 20
871.266996803904
 30
0.0
 11
1894.280496307384
 21
895.3863500886193
 31
0.0
  0
CIRCLE
  5
701C
330
1E
100
AcDbEntity
  8
図枠
  6
Continuous
 62
     4
100
AcDbCircle
 10
1847.903532041193
 20
851.4201396897552
 30
0.0
 40
0.9
  0
CIRCLE
  5
701D
330
1E
100
AcDbEntity
  8
図枠
  6
Continuous
 62
     4
100
AcDbCircle
 10
1875.716586296643
 20
899.5937627738642
 30
0.0
 40
6.0
  0
LINE
  5
701E
330
1E
100
AcDbEntity
  8
図枠
  6
Continuous
 62
     4
100
AcDbLine
 10
1847.903532041193
 20
851.4201396897552
 30
0.0
 11
1872.716586296643
 21
894.3976103511577
 31
0.0
  0
CIRCLE
  5
701F
330
1E
100
AcDbEntity
  8
図枠
  6
Continuous
 62
     4
100
AcDbCircle
 10
1869.272759257779
 20
912.7245460655336
 30
0.0
 40
6.0
  0
LINE
  5
7020
330
1E
100
AcDbEntity
  8
図枠
  6
Continuous
 62
     4
100
AcDbLine
 10
1847.985669485403
 20
875.8542250344985
 30
0.0
 11
1866.272759257779
 21
907.528393642827
 31
0.0
  0
CIRCLE
  5
7021
330
1E
100
AcDbEntity
  8
図枠
  6
Continuous
 62
     4
100
AcDbCircle
 10
1853.261818033479
 20
909.2028528433495
 30
0.0
 40
6.0
  0
LINE
  5
7022
330
1E
100
AcDbEntity
  8
図枠
  6
Continuous
 62
     4
100
AcDbLine
 10
1832.436285494447
 20
873.1319723910671
 30
0.0
 11
1850.261818033479
 21
904.0067004206427
 31
0.0
  0
CIRCLE
  5
7023
330
1E
100
AcDbEntity
  8
図枠
  6
Continuous
 62
     4
100
AcDbCircle
 10
1855.341009316926
 20
827.5547862136612
 30
0.0
 40
6.0
  0
LINE
  5
7024
330
1E
100
AcDbEntity
  8
図枠
  6
Continuous
 62
     4
100
AcDbLine
 10
1840.559323185158
 20
853.1574176154201
 30
0.0
 11
1852.341009316926
 21
832.7509386363674
 31
0.0
  0
CIRCLE
  5
7025
330
1E
100
AcDbEntity
  8
図枠
  6
Continuous
 62
     4
100
AcDbCircle
 10
1854.141636950566
 20
812.1288160753289
 30
0.0
 40
6.0
  0
LINE
  5
7026
330
1E
100
AcDbEntity
  8
図枠
  6
Continuous
 62
     4
100
AcDbLine
 10
1834.719251285709
 20
845.7693748510576
 30
0.0
 11
1851.141636950566
 21
817.3249684980355
 31
0.0
  0
CIRCLE
  5
7027
330
1E
100
AcDbEntity
  8
図枠
  6
Continuous
 62
     4
100
AcDbCircle
 10
1815.214215286265
 20
789.9974029076404
 30
0.0
 40
6.0
  0
LINE
  5
7028
330
1E
100
AcDbEntity
  8
図枠
  6
Continuous
 62
     4
100
AcDbLine
 10
1828.255829481012
 20
812.5861413056528
 30
0.0
 11
1818.214215286265
 21
795.1935553303471
 31
0.0
  0
CIRCLE
  5
7029
330
1E
100
AcDbEntity
  8
図枠
  6
Continuous
 62
     4
100
AcDbCircle
 10
1823.260088703992
 20
842.9049596363769
 30
0.0
 40
0.9
  0
CIRCLE
  5
702A
330
1E
100
AcDbEntity
  8
図枠
  6
Continuous
 62
     4
100
AcDbCircle
 10
1810.562835072113
 20
820.9126712293734
 30
0.0
 40
6.0
  0
LINE
  5
702B
330
1E
100
AcDbEntity
  8
図枠
  6
Continuous
 62
     4
100
AcDbLine
 10
1823.260088703992
 20
842.9049596363769
 30
0.0
 11
1813.562835072113
 21
826.1088236520802
 31
0.0
  0
TEXT
  5
702C
330
1E
100
AcDbEntity
  8
図枠
 62
     7
100
AcDbText
 10
1866.272759257779
 20
909.7245460655335
 30
0.0
 40
5.0
  1
５
100
AcDbText
  0
TEXT
  5
702D
330
1E
100
AcDbEntity
  8
図枠
 62
     7
100
AcDbText
 10
1850.011818033478
 20
906.2028528433495
 30
0.0
 40
5.0
  1
10
100
AcDbText
  0
TEXT
  5
702E
330
1E
100
AcDbEntity
  8
図枠
 62
     7
100
AcDbText
 10
1894.280496307384
 20
897.5825025113259
 30
0.0
 40
5.0
  1
４
100
AcDbText
  0
TEXT
  5
702F
330
1E
100
AcDbEntity
  8
図枠
 62
     7
100
AcDbText
 10
1872.716586296643
 20
896.5937627738641
 30
0.0
 40
5.0
  1
２
100
AcDbText
  0
TEXT
  5
7030
330
1E
100
AcDbEntity
  8
図枠
 62
     7
100
AcDbText
 10
1852.341009316926
 20
824.5547862136611
 30
0.0
 40
5.0
  1
６
100
AcDbText
  0
TEXT
  5
7031
330
1E
100
AcDbEntity
  8
図枠
 62
     7
100
AcDbText
 10
1807.312835072113
 20
817.9126712293735
 30
0.0
 40
5.0
  1
13
100
AcDbText
  0
TEXT
  5
7032
330
1E
100
AcDbEntity
  8
図枠
 62
     7
100
AcDbText
 10
1850.891636950566
 20
809.128816075329
 30
0.0
 40
5.0
  1
11
100
AcDbText
  0
TEXT
  5
7033
330
1E
100
AcDbEntity
  8
図枠
 62
     7
100
AcDbText
 10
1811.964215286265
 20
786.9974029076404
 30
0.0
 40
5.0
  1
12
100
AcDbText
  0
LINE
  5
7034
330
1E
100
AcDbEntity
  8
躯体と製品
  6
Continuous
 62
     7
100
AcDbLine
 10
1589.381840457014
 20
843.6688027037996
 30
0.0
 11
1571.381840457014
 21
843.6688027037996
 31
0.0
  0
LINE
  5
7035
330
1E
100
AcDbEntity
  8
躯体と製品
  6
Continuous
 62
     7
100
AcDbLine
 10
1571.381840457014
 20
843.6688027037996
 30
0.0
 11
1571.381840457014
 21
842.1688027037996
 31
0.0
  0
LINE
  5
7036
330
1E
100
AcDbEntity
  8
躯体と製品
  6
Continuous
 62
     7
100
AcDbLine
 10
1589.381840457014
 20
843.6688027037996
 30
0.0
 11
1589.381840457014
 21
842.1688027037996
 31
0.0
  0
ARC
  5
7037
330
1E
100
AcDbEntity
  8
躯体と製品
  6
Continuous
 62
     7
100
AcDbCircle
 10
1580.381840457014
 20
839.0576496642438
 30
0.0
 40
9.553418012635715
100
AcDbArc
 50
72.41204622604974
 51
107.5879537739502
  0
ARC
  5
7038
330
1E
100
AcDbEntity
  8
躯体と製品
  6
Continuous
 62
     7
100
AcDbCircle
 10
1584.711967475936
 20
846.0552449284515
 30
0.0
 40
2.555822748428199
100
AcDbArc
 50
55.61575253203897
 51
124.384247467961
  0
ARC
  5
7039
330
1E
100
AcDbEntity
  8
躯体と製品
  6
Continuous
 62
     7
100
AcDbCircle
 10
1576.051713438092
 20
846.0552449284515
 30
0.0
 40
2.555822748428199
100
AcDbArc
 50
55.61575253203897
 51
124.384247467961
  0
LINE
  5
703A
330
1E
100
AcDbEntity
  8
躯体と製品
  6
Continuous
 62
     7
100
AcDbLine
 10
1586.15534314891
 20
848.1644856894952
 30
0.0
 11
1586.15534314891
 21
843.6688027037996
 31
0.0
  0
LINE
  5
703B
330
1E
100
AcDbEntity
  8
躯体と製品
  6
Continuous
 62
     7
100
AcDbLine
 10
1585.281840457014
 20
848.6688027037995
 30
0.0
 11
1586.15534314891
 21
848.1644856894952
 31
0.0
  0
LINE
  5
703C
330
1E
100
AcDbEntity
  8
躯体と製品
  6
Continuous
 62
     7
100
AcDbLine
 10
1585.281840457014
 20
848.6688027037995
 30
0.0
 11
1575.481840457014
 21
848.6688027037995
 31
0.0
  0
LINE
  5
703D
330
1E
100
AcDbEntity
  8
躯体と製品
  6
Continuous
 62
     7
100
AcDbLine
 10
1575.481840457014
 20
848.6688027037995
 30
0.0
 11
1574.608337765118
 21
848.1644856894952
 31
0.0
  0
LINE
  5
703E
330
1E
100
AcDbEntity
  8
躯体と製品
  6
Continuous
 62
     7
100
AcDbLine
 10
1583.268591802962
 20
848.1644856894952
 30
0.0
 11
1583.268591802962
 21
843.6688027037996
 31
0.0
  0
LINE
  5
703F
330
1E
100
AcDbEntity
  8
躯体と製品
  6
Continuous
 62
     7
100
AcDbLine
 10
1577.495089111066
 20
848.1644856894952
 30
0.0
 11
1577.495089111066
 21
843.6688027037996
 31
0.0
  0
LINE
  5
7040
330
1E
100
AcDbEntity
  8
躯体と製品
  6
Continuous
 62
     7
100
AcDbLine
 10
1574.608337765118
 20
848.1644856894952
 30
0.0
 11
1574.608337765118
 21
843.6688027037996
 31
0.0
  0
LINE
  5
7041
330
1E
100
AcDbEntity
  8
躯体と製品
  6
Continuous
 62
     7
100
AcDbLine
 10
1577.838094740119
 20
848.8079090266905
 30
0.0
 11
1577.992587963214
 21
848.6688027037995
 31
0.0
  0
LINE
  5
7042
330
1E
100
AcDbEntity
  8
躯体と製品
  6
Continuous
 62
     4
100
AcDbLine
 10
1578.142082185733
 20
853.8699959289651
 30
0.0
 11
1578.414665172286
 21
848.6688027037995
 31
0.0
  0
LINE
  5
7043
330
1E
100
AcDbEntity
  8
躯体と製品
  6
Continuous
 62
     4
100
AcDbLine
 10
1582.998417613245
 20
854.1245056841743
 30
0.0
 11
1583.284338890874
 21
848.6688027037995
 31
0.0
  0
LINE
  5
7044
330
1E
100
AcDbEntity
  8
躯体と製品
  6
Continuous
 62
     7
100
AcDbLine
 10
1583.421879012948
 20
848.6688027037995
 30
0.0
 11
1583.829871948647
 21
849.1219247641481
 31
0.0
  0
LINE
  5
7045
330
1E
100
AcDbEntity
  8
躯体と製品
  6
Continuous
 62
     7
100
AcDbLine
 10
1827.34180190108
 20
848.6688027037995
 30
0.0
 11
1826.933808965382
 21
849.1219247641481
 31
0.0
  0
LINE
  5
7046
330
1E
100
AcDbEntity
  8
躯体と製品
  6
Continuous
 62
     4
100
AcDbLine
 10
1827.765263300784
 20
854.1245056841743
 30
0.0
 11
1827.479342023154
 21
848.6688027037995
 31
0.0
  0
LINE
  5
7047
330
1E
100
AcDbEntity
  8
躯体と製品
  6
Continuous
 62
     4
100
AcDbLine
 10
1832.621598728295
 20
853.8699959289651
 30
0.0
 11
1832.349015741742
 21
848.6688027037995
 31
0.0
  0
LINE
  5
7048
330
1E
100
AcDbEntity
  8
躯体と製品
  6
Continuous
 62
     7
100
AcDbLine
 10
1832.925586173909
 20
848.8079090266905
 30
0.0
 11
1832.771092950814
 21
848.6688027037995
 31
0.0
  0
CIRCLE
  5
7049
330
1E
100
AcDbEntity
  8
図枠
  6
Continuous
 62
     4
100
AcDbCircle
 10
1966.727677572294
 20
933.4272330459977
 30
0.0
 40
6.0
  0
LINE
  5
704A
330
1E
100
AcDbEntity
  8
図枠
  6
Continuous
 62
     4
100
AcDbLine
 10
1938.591196428893
 20
884.6934181594219
 30
0.0
 11
1963.727677572294
 21
928.2310806232912
 31
0.0
  0
CIRCLE
  5
704B
330
1E
100
AcDbEntity
  8
図枠
  6
Continuous
 62
     4
100
AcDbCircle
 10
1938.591196428893
 20
884.6934181594219
 30
0.0
 40
0.9
  0
TEXT
  5
704C
330
1E
100
AcDbEntity
  8
図枠
 62
     7
100
AcDbText
 10
1963.727677572294
 20
930.4272330459976
 30
0.0
 40
5.0
  1
１
100
AcDbText
  0
CIRCLE
  5
704D
330
1E
100
AcDbEntity
  8
図枠
  6
Continuous
 62
     4
100
AcDbCircle
 10
1937.260570506394
 20
819.6769709309341
 30
0.0
 40
0.9
  0
CIRCLE
  5
704E
330
1E
100
AcDbEntity
  8
図枠
  6
Continuous
 62
     4
100
AcDbCircle
 10
1938.804550638993
 20
867.2584286060219
 30
0.0
 40
0.9
  0
LINE
  5
704F
330
1E
100
AcDbEntity
  8
図枠
  6
Continuous
 62
     4
100
AcDbLine
 10
1937.260570506394
 20
819.6769709309341
 30
0.0
 11
1962.22858432275
 21
862.922839424945
 31
0.0
  0
LINE
  5
7050
330
1E
100
AcDbEntity
  8
図枠
  6
Continuous
 62
     4
100
AcDbLine
 10
1938.804550638993
 20
867.2584286060219
 30
0.0
 11
1962.441031782395
 21
908.1980148585376
 31
0.0
  0
TEXT
  5
7051
330
1E
100
AcDbEntity
  8
図枠
 62
     7
100
AcDbText
 10
1962.22858432275
 20
865.1189918476518
 30
0.0
 40
5.0
  1
３
100
AcDbText
  0
CIRCLE
  5
7052
330
1E
100
AcDbEntity
  8
図枠
  6
Continuous
 62
     4
100
AcDbCircle
 10
1965.228584322751
 20
868.1189918476515
 30
0.0
 40
6.0
  0
TEXT
  5
7053
330
1E
100
AcDbEntity
  8
図枠
 62
     7
100
AcDbText
 10
1962.441031782395
 20
910.3941672812442
 30
0.0
 40
5.0
  1
７
100
AcDbText
  0
CIRCLE
  5
7054
330
1E
100
AcDbEntity
  8
図枠
  6
Continuous
 62
     4
100
AcDbCircle
 10
1965.441031782395
 20
913.394167281244
 30
0.0
 40
6.0
  0
CIRCLE
  5
7055
330
1E
100
AcDbEntity
  8
図枠
  6
Continuous
 62
     4
100
AcDbCircle
 10
1919.912110772416
 20
802.1875719862503
 30
0.0
 40
0.9
  0
LINE
  5
7056
330
1E
100
AcDbEntity
  8
図枠
  6
Continuous
 62
     4
100
AcDbLine
 10
1919.912110772416
 20
802.1875719862503
 30
0.0
 11
1930.369558309047
 21
784.0747415353205
 31
0.0
  0
CIRCLE
  5
7057
330
1E
100
AcDbEntity
  8
図枠
  6
Continuous
 62
     4
100
AcDbCircle
 10
1933.369558309047
 20
778.8785891126138
 30
0.0
 40
6.0
  0
TEXT
  5
7058
330
1E
100
AcDbEntity
  8
図枠
 62
     7
100
AcDbText
 10
1930.369558309047
 20
775.8785891126137
 30
0.0
 40
5.0
  1
８
100
AcDbText
  0
CIRCLE
  5
7059
330
1E
100
AcDbEntity
  8
図枠
  6
Continuous
 62
     4
100
AcDbCircle
 10
1490.851570141612
 20
802.1875719862503
 30
0.0
 40
0.9
  0
LINE
  5
705A
330
1E
100
AcDbEntity
  8
図枠
  6
Continuous
 62
     4
100
AcDbLine
 10
1490.851570141612
 20
802.1875719862503
 30
0.0
 11
1480.394122604981
 21
784.0747415353205
 31
0.0
  0
CIRCLE
  5
705B
330
1E
100
AcDbEntity
  8
図枠
  6
Continuous
 62
     4
100
AcDbCircle
 10
1477.394122604982
 20
778.8785891126138
 30
0.0
 40
6.0
  0
TEXT
  5
705C
330
1E
100
AcDbEntity
  8
図枠
 62
     7
100
AcDbText
 10
1474.394122604981
 20
775.8785891126137
 30
0.0
 40
5.0
  1
８
100
AcDbText
  0
LINE
  5
705D
330
1E
100
AcDbEntity
  8
躯体と製品
  6
CENTER1
 62
     4
100
AcDbLine
 10
1705.381840457014
 20
909.239585806153
 30
0.0
 11
1705.381840457014
 21
728.6688027037996
 31
0.0
  0
TEXT
  5
705E
330
1E
100
AcDbEntity
  8
図枠
 62
     7
100
AcDbText
 10
1474.381840457014
 20
617.6688027037998
 30
0.0
 40
5.0
  1
止水補助板ホルダーＡＬ
100
AcDbText
  0
CIRCLE
  5
705F
330
1E
100
AcDbEntity
  8
図枠
  6
Continuous
 62
     4
100
AcDbCircle
 10
1674.645067331853
 20
751.7914028678112
 30
0.0
 40
0.9
  0
LINE
  5
7060
330
1E
100
AcDbEntity
  8
図枠
  6
Continuous
 62
     4
100
AcDbLine
 10
1674.645067331853
 20
751.7914028678112
 30
0.0
 11
1688.528354518275
 21
775.8379616507636
 31
0.0
  0
TEXT
  5
7061
330
1E
100
AcDbEntity
  8
図枠
 62
     7
100
AcDbText
 10
1688.528354518275
 20
778.0341140734705
 30
0.0
 40
5.0
  1
９
100
AcDbText
  0
CIRCLE
  5
7062
330
1E
100
AcDbEntity
  8
図枠
  6
Continuous
 62
     4
100
AcDbCircle
 10
1691.528354518275
 20
781.0341140734703
 30
0.0
 40
6.0
  0
TEXT
  5
7063
330
1E
100
AcDbEntity
  8
図枠
 62
     6
100
AcDbText
 10
1312.928349166148
 20
1003.138434860552
 30
0.0
 40
10.0
  1
◇アルミ１００タイプ（１００ＦＹＹ－Ａ）
100
AcDbText
  0
TEXT
  5
7064
330
1E
100
AcDbEntity
  8
図枠
 62
     6
100
AcDbText
 10
1313.31043978818
 20
963.2104031755007
 30
0.0
 40
10.0
  1
　　Ｓ＝１／２
100
AcDbText
  0
TEXT
  5
7065
330
1E
100
AcDbEntity
  8
図枠
 62
     6
100
AcDbText
 10
1313.31043978818
 20
983.5244128373364
 30
0.0
 40
10.0
  1
　　屋根－屋根
100
AcDbText
  0
DIMENSION
  5
7066
330
1E
100
AcDbEntity
  8
寸法
  6
Continuous
100
AcDbDimension
  2
*D4
 10
1955.381840457014
 20
962.6688027037998
 30
0.0
 11
1705.381840457014
 21
966.6688027037997
 31
0.0
 70
    32
  1
W
 71
     5
 42
499.9999999999995
  3
AutoCAD
100
AcDbAlignedDimension
 13
1455.381840457014
 23
886.8056283435677
 33
0.0
 14
1955.381840457014
 24
886.8056283435677
 34
0.0
100
AcDbRotatedDimension
  0
DIMENSION
  5
7073
330
1E
100
AcDbEntity
  8
寸法
  6
Continuous
100
AcDbDimension
  2
*D5
 10
2015.381840457014
 20
794.8056283435678
 30
0.0
 11
2011.381840457014
 21
839.805628343568
 31
0.0
 70
    32
 71
     5
 42
89.99999999999976
  3
AutoCAD
100
AcDbAlignedDimension
 13
1957.381840457014
 23
884.8056283435676
 33
0.0
 14
1957.381840457014
 24
794.8056283435678
 34
0.0
 50
90.0
100
AcDbRotatedDimension
  0
DIMENSION
  5
7080
330
1E
100
AcDbEntity
  8
寸法
  6
Continuous
100
AcDbDimension
  2
*D6
 10
1995.381840457014
 20
794.8056283435678
 30
0.0
 11
1991.381840457014
 21
816.2372155236841
 31
0.0
 70
    32
  1
44
 71
     5
 42
42.86317436023182
  3
AutoCAD
100
AcDbAlignedDimension
 13
1884.08556693564
 23
837.6688027037996
 33
0.0
 14
1957.381840457014
 24
794.8056283435678
 34
0.0
 50
90.0
100
AcDbRotatedDimension
  0
DIMENSION
  5
7099
330
1E
100
AcDbEntity
  8
寸法
  6
Continuous
100
AcDbDimension
  2
*D7
 10
1530.381840457014
 20
707.6688027037996
 30
0.0
 11
1492.881840457014
 21
711.6688027037996
 31
0.0
 70
    32
  1
75≦
 71
     5
 42
75.0
  3
AutoCAD
100
AcDbAlignedDimension
 13
1455.381840457014
 23
792.8056283435678
 33
0.0
 14
1530.381840457014
 24
707.6688027037996
 34
0.0
100
AcDbRotatedDimension
  0
DIMENSION
  5
70A5
330
1E
100
AcDbEntity
  8
寸法
  6
Continuous
100
AcDbDimension
  2
*D8
 10
1655.381840457014
 20
707.6688027037996
 30
0.0
 11
1592.881840457014
 21
711.6688027037996
 31
0.0
 70
    32
  1
≦Ｃ
 71
     5
 42
125.0
  3
AutoCAD
100
AcDbAlignedDimension
 13
1530.381840457014
 23
707.6688027037996
 33
0.0
 14
1655.381840457014
 24
707.6688027037996
 34
0.0
100
AcDbRotatedDimension
  0
DIMENSION
  5
70B0
330
1E
100
AcDbEntity
  8
寸法
  6
Continuous
100
AcDbDimension
  2
*D9
 10
1755.381840457014
 20
707.6688027037996
 30
0.0
 11
1705.381840457014
 21
711.6688027037996
 31
0.0
 70
    32
 71
     5
 42
100.0
  3
AutoCAD
100
AcDbAlignedDimension
 13
1655.381840457014
 23
707.6688027037996
 33
0.0
 14
1755.381840457014
 24
707.6688027037996
 34
0.0
100
AcDbRotatedDimension
  0
DIMENSION
  5
70BB
330
1E
100
AcDbEntity
  8
寸法
  6
Continuous
100
AcDbDimension
  2
*D10
 10
1880.381840457014
 20
707.6688027037997
 30
0.0
 11
1817.881840457014
 21
711.6688027037997
 31
0.0
 70
    32
  1
≦Ｃ
 71
     5
 42
124.9999999999995
  3
AutoCAD
100
AcDbAlignedDimension
 13
1755.381840457014
 23
707.6688027037996
 33
0.0
 14
1880.381840457014
 24
707.6688027037997
 34
0.0
100
AcDbRotatedDimension
  0
DIMENSION
  5
70C6
330
1E
100
AcDbEntity
  8
寸法
  6
Continuous
100
AcDbDimension
  2
*D11
 10
1955.381840457014
 20
707.6688027037996
 30
0.0
 11
1917.881840457014
 21
711.6688027037996
 31
0.0
 70
    32
  1
75≦
 71
     5
 42
74.99999999999932
  3
AutoCAD
100
AcDbAlignedDimension
 13
1880.381840457014
 23
707.6688027037996
 33
0.0
 14
1955.381840457014
 24
792.8056283435678
 34
0.0
100
AcDbRotatedDimension
  0
DIMENSION
  5
70D2
330
1E
100
AcDbEntity
  8
寸法
  6
Continuous
100
AcDbDimension
  2
*D12
 10
1830.381840457014
 20
777.6688027037996
 30
0.0
 11
1855.381840457013
 21
781.6688027037996
 31
0.0
 70
    32
 71
     5
 42
50.0
  3
AutoCAD
100
AcDbAlignedDimension
 13
1880.381840457014
 23
777.6688027037996
 33
0.0
 14
1830.381840457014
 24
777.6688027037996
 34
0.0
100
AcDbRotatedDimension
  0
DIMENSION
  5
70DD
330
1E
100
AcDbEntity
  8
寸法
  6
Continuous
100
AcDbDimension
  2
*D13
 10
1580.381840457014
 20
777.6688027037996
 30
0.0
 11
1555.381840457014
 21
781.6688027037996
 31
0.0
 70
    32
 71
     5
 42
50.0
  3
AutoCAD
100
AcDbAlignedDimension
 13
1530.381840457014
 23
777.6688027037996
 33
0.0
 14
1580.381840457014
 24
777.6688027037996
 34
0.0
100
AcDbRotatedDimension
  0
ENDSEC
  0
SECTION
  2
OBJECTS
  0
DICTIONARY
  5
C
330
0
100
AcDbDictionary
281
     1
  3
ACAD_COLOR
350
6779
  3
ACAD_GROUP
350
D
  3
ACAD_LAYOUT
350
19
  3
ACAD_MATERIAL
350
6778
  3
ACAD_MLINESTYLE
350
16
  3
ACAD_PLOTSETTINGS
350
18
  3
ACAD_PLOTSTYLENAME
350
E
  3
ACAD_TABLESTYLE
350
677A
  3
ACDBHEADERROUNDTRIPXREC
350
726E
  3
AcDbVariableDictionary
350
169
  0
DICTIONARY
  5
175
330
2
100
AcDbDictionary
280
     1
281
     1
  3
ACAD_LAYERFILTERS
360
7258
  3
ACAD_LAYERSTATES
360
176
  3
ACLYDICTIONARY
360
7257
  0
DICTIONARY
  5
28B
330
1E
100
AcDbDictionary
280
     1
281
     1
  3
ACAD_LAYOUTSELFREF
360
6771
  0
DICTIONARY
  5
28D
330
1A
100
AcDbDictionary
280
     1
281
     1
  3
ACAD_LAYOUTSELFREF
360
6770
  0
DICTIONARY
  5
6779
102
{ACAD_REACTORS
330
C
102
}
330
C
100
AcDbDictionary
281
     1
  0
DICTIONARY
  5
D
102
{ACAD_REACTORS
330
C
102
}
330
C
100
AcDbDictionary
281
     1
  0
DICTIONARY
  5
19
102
{ACAD_REACTORS
330
C
102
}
330
C
100
AcDbDictionary
281
     1
  3
Model
350
21
  3
ﾚｲｱｳﾄ1
350
1D
  0
DICTIONARY
  5
6778
102
{ACAD_REACTORS
330
C
102
}
330
C
100
AcDbDictionary
281
     1
  0
DICTIONARY
  5
16
102
{ACAD_REACTORS
330
C
102
}
330
C
100
AcDbDictionary
281
     1
  3
Standard
350
17
  0
DICTIONARY
  5
18
102
{ACAD_REACTORS
330
C
102
}
330
C
100
AcDbDictionary
281
     1
  0
ACDBDICTIONARYWDFLT
  5
E
102
{ACAD_REACTORS
330
C
102
}
330
C
100
AcDbDictionary
281
     1
  3
Normal
350
F
100
AcDbDictionaryWithDefault
340
F
1001
ACAD
1000
TREAT_AS_HARD
1070
     0
1000
TREAT_AS_HARD
1070
     0
1000
TREAT_AS_HARD
1070
     0
1000
TREAT_AS_HARD
1070
     0
1000
TREAT_AS_HARD
1070
     0
1000
TREAT_AS_HARD
1070
     0
1000
TREAT_AS_HARD
1070
     0
1000
TREAT_AS_HARD
1070
     0
1000
TREAT_AS_HARD
1070
     0
1000
TREAT_AS_HARD
1070
     0
1000
TREAT_AS_HARD
1070
     0
1000
TREAT_AS_HARD
1070
     0
1000
TREAT_AS_HARD
1070
     0
1000
TREAT_AS_HARD
1070
     0
1000
TREAT_AS_HARD
1070
     0
1000
TREAT_AS_HARD
1070
     0
1000
TREAT_AS_HARD
1070
     0
1000
TREAT_AS_HARD
1070
     0
1000
TREAT_AS_HARD
1070
     0
1000
TREAT_AS_HARD
1070
     0
1000
TREAT_AS_HARD
1070
     0
1000
TREAT_AS_HARD
1070
     0
1000
TREAT_AS_HARD
1070
     0
1000
TREAT_AS_HARD
1070
     0
1000
TREAT_AS_HARD
1070
     0
1000
TREAT_AS_HARD
1070
     0
  0
DICTIONARY
  5
677A
102
{ACAD_REACTORS
330
C
102
}
330
C
100
AcDbDictionary
281
     1
  3
Standard
350
677B
  0
DICTIONARY
  5
726E
102
{ACAD_REACTORS
330
C
102
}
330
C
100
AcDbDictionary
281
     1
  0
DICTIONARY
  5
169
102
{ACAD_REACTORS
330
C
102
}
330
C
100
AcDbDictionary
281
     1
  3
CTABLESTYLE
350
6782
  3
DIMASSOC
350
16A
  3
PROJECTNAME
350
7266
  0
DICTIONARY
  5
7258
102
{ACAD_REACTORS
330
175
102
}
330
175
100
AcDbDictionary
281
     1
  0
DICTIONARY
  5
176
102
{ACAD_REACTORS
330
175
102
}
330
175
100
AcDbDictionary
281
     1
  3
ACAD
350
177
  0
DICTIONARY
  5
7257
102
{ACAD_REACTORS
330
175
102
}
330
175
100
AcDbDictionary
281
     1
1001
ACAD
1000
<All
  0
XRECORD
  5
6771
102
{ACAD_REACTORS
330
28B
102
}
330
28B
100
AcDbXrecord
280
     1
340
1E
  0
XRECORD
  5
6770
102
{ACAD_REACTORS
330
28D
102
}
330
28D
100
AcDbXrecord
280
     1
340
1A
  0
LAYOUT
  5
21
102
{ACAD_XDICTIONARY
360
7271
102
}
102
{ACAD_REACTORS
330
19
102
}
330
19
100
AcDbPlotSettings
  1

  2
\\MEISEI-1\EPSON Stylus Photo EX3
  4

  6

 40
0.0
 41
0.0
 42
0.0
 43
0.0
 44
0.0
 45
0.0
 46
0.0
 47
0.0
 48
0.0
 49
0.0
140
0.0
141
0.0
142
1.0
143
1.0
 70
  1712
 72
     0
 73
     0
 74
     0
  7

 75
     0
147
1.0
148
0.0
149
0.0
100
AcDbLayout
  1
Model
 70
     1
 71
     0
 10
0.0
 20
0.0
 11
12.0
 21
9.0
 12
0.0
 22
0.0
 32
0.0
 14
0.0
 24
0.0
 34
0.0
 15
0.0
 25
0.0
 35
0.0
146
0.0
 13
0.0
 23
0.0
 33
0.0
 16
1.0
 26
0.0
 36
0.0
 17
0.0
 27
1.0
 37
0.0
 76
     0
330
1E
  0
LAYOUT
  5
1D
102
{ACAD_XDICTIONARY
360
726F
102
}
102
{ACAD_REACTORS
330
19
102
}
330
19
100
AcDbPlotSettings
  1

  2
\\MEISEI-1\EPSON Stylus Photo EX3
  4

  6

 40
0.0
 41
0.0
 42
0.0
 43
0.0
 44
0.0
 45
0.0
 46
0.0
 47
0.0
 48
0.0
 49
0.0
140
0.0
141
0.0
142
1.0
143
1.0
 70
   688
 72
     0
 73
     0
 74
     5
  7

 75
    16
147
1.0
148
0.0
149
0.0
100
AcDbLayout
  1
ﾚｲｱｳﾄ1
 70
     1
 71
     1
 10
0.0
 20
0.0
 11
12.0
 21
9.0
 12
0.0
 22
0.0
 32
0.0
 14
1.000000000000000E+20
 24
1.000000000000000E+20
 34
1.000000000000000E+20
 15
-1.000000000000000E+20
 25
-1.000000000000000E+20
 35
-1.000000000000000E+20
146
0.0
 13
0.0
 23
0.0
 33
0.0
 16
1.0
 26
0.0
 36
0.0
 17
0.0
 27
1.0
 37
0.0
 76
     0
330
1A
  0
MLINESTYLE
  5
17
102
{ACAD_REACTORS
330
16
102
}
330
16
100
AcDbMlineStyle
  2
STANDARD
 70
     0
  3

 62
   256
 51
90.0
 52
90.0
 71
     2
 49
0.5
 62
   256
  6
BYLAYER
 49
-0.5
 62
   256
  6
BYLAYER
  0
ACDBPLACEHOLDER
  5
F
102
{ACAD_REACTORS
330
E
102
}
330
E
  0
TABLESTYLE
  5
677B
102
{ACAD_REACTORS
330
677A
102
}
330
677A
100
AcDbTableStyle
  3
Standard
 70
     0
 71
     0
 40
0.06
 41
0.06
280
     0
281
     0
  7
STANDARD
140
0.18
170
     2
 62
     0
 63
     7
283
     0
274
    -2
284
     1
 64
     0
275
    -2
285
     1
 65
     0
276
    -2
286
     1
 66
     0
277
    -2
287
     1
 67
     0
278
    -2
288
     1
 68
     0
279
    -2
289
     1
 69
     0
  7
STANDARD
140
0.25
170
     5
 62
     0
 63
     7
283
     0
274
    -2
284
     1
 64
     0
275
    -2
285
     1
 65
     0
276
    -2
286
     1
 66
     0
277
    -2
287
     1
 67
     0
278
    -2
288
     1
 68
     0
279
    -2
289
     1
 69
     0
  7
STANDARD
140
0.18
170
     5
 62
     0
 63
     7
283
     0
274
    -2
284
     1
 64
     0
275
    -2
285
     1
 65
     0
276
    -2
286
     1
 66
     0
277
    -2
287
     1
 67
     0
278
    -2
288
     1
 68
     0
279
    -2
289
     1
 69
     0
  0
DICTIONARYVAR
  5
6782
102
{ACAD_REACTORS
330
169
102
}
330
169
100
DictionaryVariables
280
     0
  1
STANDARD
  0
DICTIONARYVAR
  5
16A
102
{ACAD_REACTORS
330
169
102
}
330
169
100
DictionaryVariables
280
     0
  1
1
  0
DICTIONARYVAR
  5
7266
102
{ACAD_REACTORS
330
169
102
}
330
169
100
DictionaryVariables
280
     0
  1

  0
XRECORD
  5
177
102
{ACAD_REACTORS
330
176
102
}
330
176
100
AcDbXrecord
280
     1
 91
      476
330
179
 90
        8
 62
     7
370
    -3
331
15
  1
Color_7
330
178
 90
        8
 62
     7
370
    -3
331
15
  1
Color_7
330
128
 90
        0
 62
     7
370
    -3
331
15
  1
Color_7
330
10
 90
        8
 62
     7
370
    -3
331
15
  1
Color_7
  0
DICTIONARY
  5
7271
330
21
100
AcDbDictionary
280
     1
281
     1
  3
ACAD_XREC_ROUNDTRIP
360
7272
  0
DICTIONARY
  5
726F
330
1D
100
AcDbDictionary
280
     1
281
     1
  3
ACAD_XREC_ROUNDTRIP
360
7270
  0
XRECORD
  5
7272
102
{ACAD_REACTORS
330
7271
102
}
330
7271
100
AcDbXrecord
280
     1
102
SHADEPLOT
 70
     0
102
SHADEPLOTRESLEVEL
 70
     2
102
SHADEPLOTCUSTOMDPI
 70
   300
  0
XRECORD
  5
7270
102
{ACAD_REACTORS
330
726F
102
}
330
726F
100
AcDbXrecord
280
     1
102
SHADEPLOT
 70
     0
102
SHADEPLOTRESLEVEL
 70
     2
102
SHADEPLOTCUSTOMDPI
 70
   300
  0
ENDSEC
  0
EOF
