  0
SECTION
  2
HEADER
  9
$ACADVER
  1
AC1015
  9
$ACADMAINTVER
 70
    20
  9
$DWGCODEPAGE
  3
ANSI_932
  9
$INSBASE
 10
0.0
 20
0.0
 30
0.0
  9
$EXTMIN
 10
117.900184155726
 20
145.7369911572425
 30
-0.0000000349181948
  9
$EXTMAX
 10
941.9653949116828
 20
721.7797043336627
 30
0.0000000814935746
  9
$LIMMIN
 10
0.0
 20
0.0
  9
$LIMMAX
 10
420.0
 20
297.0
  9
$ORTHOMODE
 70
     0
  9
$REGENMODE
 70
     1
  9
$FILLMODE
 70
     1
  9
$QTEXTMODE
 70
     0
  9
$MIRRTEXT
 70
     1
  9
$LTSCALE
 40
1.0
  9
$ATTMODE
 70
     1
  9
$TEXTSIZE
 40
5.0
  9
$TRACEWID
 40
0.05
  9
$TEXTSTYLE
  7
ACAD
  9
$CLAYER
  8
0
  9
$CELTYPE
  6
CONTINUOUS
  9
$CECOLOR
 62
   256
  9
$CELTSCALE
 40
1.0
  9
$DISPSILH
 70
     0
  9
$DIMSCALE
 40
1.0
  9
$DIMASZ
 40
1.0
  9
$DIMEXO
 40
0.0
  9
$DIMDLI
 40
0.38
  9
$DIMRND
 40
0.0
  9
$DIMDLE
 40
0.0
  9
$DIMEXE
 40
0.0
  9
$DIMTP
 40
0.0
  9
$DIMTM
 40
0.0
  9
$DIMTXT
 40
5.0
  9
$DIMCEN
 40
0.09
  9
$DIMTSZ
 40
0.0
  9
$DIMTOL
 70
     0
  9
$DIMLIM
 70
     0
  9
$DIMTIH
 70
     0
  9
$DIMTOH
 70
     1
  9
$DIMSE1
 70
     0
  9
$DIMSE2
 70
     0
  9
$DIMTAD
 70
     1
  9
$DIMZIN
 70
     0
  9
$DIMBLK
  1
Dot
  9
$DIMASO
 70
     1
  9
$DIMSHO
 70
     1
  9
$DIMPOST
  1

  9
$DIMAPOST
  1

  9
$DIMALT
 70
     0
  9
$DIMALTD
 70
     2
  9
$DIMALTF
 40
25.4
  9
$DIMLFAC
 40
1.0
  9
$DIMTOFL
 70
     0
  9
$DIMTVP
 40
0.0
  9
$DIMTIX
 70
     1
  9
$DIMSOXD
 70
     0
  9
$DIMSAH
 70
     0
  9
$DIMBLK1
  1

  9
$DIMBLK2
  1

  9
$DIMSTYLE
  2
AutoCAD
  9
$DIMCLRD
 70
     4
  9
$DIMCLRE
 70
     4
  9
$DIMCLRT
 70
     3
  9
$DIMTFAC
 40
1.0
  9
$DIMGAP
 40
1.0
  9
$DIMJUST
 70
     0
  9
$DIMSD1
 70
     0
  9
$DIMSD2
 70
     0
  9
$DIMTOLJ
 70
     1
  9
$DIMTZIN
 70
     0
  9
$DIMALTZ
 70
     0
  9
$DIMALTTZ
 70
     0
  9
$DIMUPT
 70
     0
  9
$DIMDEC
 70
     0
  9
$DIMTDEC
 70
     0
  9
$DIMALTU
 70
     2
  9
$DIMALTTD
 70
     2
  9
$DIMTXSTY
  7
ACAD
  9
$DIMAUNIT
 70
     0
  9
$DIMADEC
 70
     0
  9
$DIMALTRND
 40
0.0
  9
$DIMAZIN
 70
     0
  9
$DIMDSEP
 70
    46
  9
$DIMATFIT
 70
     0
  9
$DIMFRAC
 70
     0
  9
$DIMLDRBLK
  1
None
  9
$DIMLUNIT
 70
     2
  9
$DIMLWD
 70
    -2
  9
$DIMLWE
 70
    -2
  9
$DIMTMOVE
 70
     0
  9
$LUNITS
 70
     2
  9
$LUPREC
 70
     4
  9
$SKETCHINC
 40
0.1
  9
$FILLETRAD
 40
0.0
  9
$AUNITS
 70
     0
  9
$AUPREC
 70
     0
  9
$MENU
  1
.
  9
$ELEVATION
 40
0.0
  9
$PELEVATION
 40
0.0
  9
$THICKNESS
 40
0.0
  9
$LIMCHECK
 70
     0
  9
$CHAMFERA
 40
0.0
  9
$CHAMFERB
 40
0.0
  9
$CHAMFERC
 40
0.0
  9
$CHAMFERD
 40
0.0
  9
$SKPOLY
 70
     0
  9
$TDCREATE
 40
2454316.693457674
  9
$TDUCREATE
 40
2454316.318457674
  9
$TDUPDATE
 40
2454736.765788380
  9
$TDUUPDATE
 40
2454736.390788380
  9
$TDINDWG
 40
0.2507982060
  9
$TDUSRTIMER
 40
0.2507982060
  9
$USRTIMER
 70
     1
  9
$ANGBASE
 50
0.0
  9
$ANGDIR
 70
     0
  9
$PDMODE
 70
     0
  9
$PDSIZE
 40
0.0
  9
$PLINEWID
 40
0.0
  9
$SPLFRAME
 70
     0
  9
$SPLINETYPE
 70
     6
  9
$SPLINESEGS
 70
     8
  9
$HANDSEED
  5
73AA
  9
$SURFTAB1
 70
     6
  9
$SURFTAB2
 70
     6
  9
$SURFTYPE
 70
     6
  9
$SURFU
 70
     6
  9
$SURFV
 70
     6
  9
$UCSBASE
  2

  9
$UCSNAME
  2

  9
$UCSORG
 10
0.0
 20
0.0
 30
0.0
  9
$UCSXDIR
 10
1.0
 20
0.0
 30
0.0
  9
$UCSYDIR
 10
0.0
 20
1.0
 30
0.0
  9
$UCSORTHOREF
  2

  9
$UCSORTHOVIEW
 70
     0
  9
$UCSORGTOP
 10
0.0
 20
0.0
 30
0.0
  9
$UCSORGBOTTOM
 10
0.0
 20
0.0
 30
0.0
  9
$UCSORGLEFT
 10
0.0
 20
0.0
 30
0.0
  9
$UCSORGRIGHT
 10
0.0
 20
0.0
 30
0.0
  9
$UCSORGFRONT
 10
0.0
 20
0.0
 30
0.0
  9
$UCSORGBACK
 10
0.0
 20
0.0
 30
0.0
  9
$PUCSBASE
  2

  9
$PUCSNAME
  2

  9
$PUCSORG
 10
0.0
 20
0.0
 30
0.0
  9
$PUCSXDIR
 10
1.0
 20
0.0
 30
0.0
  9
$PUCSYDIR
 10
0.0
 20
1.0
 30
0.0
  9
$PUCSORTHOREF
  2

  9
$PUCSORTHOVIEW
 70
     0
  9
$PUCSORGTOP
 10
0.0
 20
0.0
 30
0.0
  9
$PUCSORGBOTTOM
 10
0.0
 20
0.0
 30
0.0
  9
$PUCSORGLEFT
 10
0.0
 20
0.0
 30
0.0
  9
$PUCSORGRIGHT
 10
0.0
 20
0.0
 30
0.0
  9
$PUCSORGFRONT
 10
0.0
 20
0.0
 30
0.0
  9
$PUCSORGBACK
 10
0.0
 20
0.0
 30
0.0
  9
$USERI1
 70
     0
  9
$USERI2
 70
     0
  9
$USERI3
 70
     0
  9
$USERI4
 70
     0
  9
$USERI5
 70
     0
  9
$USERR1
 40
0.0
  9
$USERR2
 40
0.0
  9
$USERR3
 40
0.0
  9
$USERR4
 40
0.0
  9
$USERR5
 40
0.0
  9
$WORLDVIEW
 70
     1
  9
$SHADEDGE
 70
     3
  9
$SHADEDIF
 70
    70
  9
$TILEMODE
 70
     1
  9
$MAXACTVP
 70
    48
  9
$PINSBASE
 10
0.0
 20
0.0
 30
0.0
  9
$PLIMCHECK
 70
     0
  9
$PEXTMIN
 10
1.000000000000000E+20
 20
1.000000000000000E+20
 30
1.000000000000000E+20
  9
$PEXTMAX
 10
-1.000000000000000E+20
 20
-1.000000000000000E+20
 30
-1.000000000000000E+20
  9
$PLIMMIN
 10
0.0
 20
0.0
  9
$PLIMMAX
 10
12.0
 20
9.0
  9
$UNITMODE
 70
     0
  9
$VISRETAIN
 70
     0
  9
$PLINEGEN
 70
     0
  9
$PSLTSCALE
 70
     1
  9
$TREEDEPTH
 70
  3020
  9
$CMLSTYLE
  2
Standard
  9
$CMLJUST
 70
     0
  9
$CMLSCALE
 40
1.0
  9
$PROXYGRAPHICS
 70
     1
  9
$MEASUREMENT
 70
     0
  9
$CELWEIGHT
370
    -1
  9
$ENDCAPS
280
     0
  9
$JOINSTYLE
280
     0
  9
$LWDISPLAY
290
     0
  9
$INSUNITS
 70
     0
  9
$HYPERLINKBASE
  1

  9
$STYLESHEET
  1

  9
$XEDIT
290
     1
  9
$CEPSNTYPE
380
     0
  9
$PSTYLEMODE
290
     1
  9
$FINGERPRINTGUID
  2
{CC7D6DEE-A9F1-4F3E-AC95-C84B62CCA3FD}
  9
$VERSIONGUID
  2
{C21CB24B-09FB-4293-9D94-AD293CA167E7}
  9
$EXTNAMES
290
     1
  9
$PSVPSCALE
 40
0.0
  9
$OLESTARTUP
290
     0
  0
ENDSEC
  0
SECTION
  2
CLASSES
  0
CLASS
  1
ACDBDICTIONARYWDFLT
  2
AcDbDictionaryWithDefault
  3
ObjectDBX Classes
 90
        0
280
     0
281
     0
  0
CLASS
  1
ACDBPLACEHOLDER
  2
AcDbPlaceHolder
  3
ObjectDBX Classes
 90
        0
280
     0
281
     0
  0
CLASS
  1
LAYOUT
  2
AcDbLayout
  3
ObjectDBX Classes
 90
        0
280
     0
281
     0
  0
CLASS
  1
DICTIONARYVAR
  2
AcDbDictionaryVar
  3
ObjectDBX Classes
 90
        0
280
     0
281
     0
  0
CLASS
  1
TABLESTYLE
  2
AcDbTableStyle
  3
ObjectDBX Classes
 90
     2047
280
     0
281
     0
  0
ENDSEC
  0
SECTION
  2
TABLES
  0
TABLE
  2
VPORT
  5
8
330
0
100
AcDbSymbolTable
 70
     2
  0
VPORT
  5
73A4
330
8
100
AcDbSymbolTableRecord
100
AcDbViewportTableRecord
  2
*Active
 70
     0
 10
0.0
 20
0.0
 11
1.0
 21
1.0
 12
508.2778829703965
 22
443.3585305466189
 13
0.0
 23
0.0
 14
1.0
 24
1.0
 15
0.0
 25
0.0
 16
0.0
 26
0.0
 36
1.0
 17
0.0
 27
0.0
 37
0.0
 40
651.3128036904938
 41
1.538265306122448
 42
50.0
 43
0.0
 44
0.0
 50
0.0
 51
0.0
 71
     0
 72
   100
 73
     1
 74
     1
 75
     0
 76
     0
 77
     0
 78
     0
281
     0
 65
     1
110
0.0
120
0.0
130
0.0
111
1.0
121
0.0
131
0.0
112
0.0
122
1.0
132
0.0
 79
     0
146
0.0
  0
ENDTAB
  0
TABLE
  2
LTYPE
  5
5
330
0
100
AcDbSymbolTable
 70
    50
  0
LTYPE
  5
13
330
5
100
AcDbSymbolTableRecord
100
AcDbLinetypeTableRecord
  2
ByBlock
 70
     0
  3

 72
    65
 73
     0
 40
0.0
  0
LTYPE
  5
14
330
5
100
AcDbSymbolTableRecord
100
AcDbLinetypeTableRecord
  2
ByLayer
 70
     0
  3

 72
    65
 73
     0
 40
0.0
  0
LTYPE
  5
15
330
5
100
AcDbSymbolTableRecord
100
AcDbLinetypeTableRecord
  2
CONTINUOUS
 70
     0
  3
実線
 72
    65
 73
     0
 40
0.0
  0
LTYPE
  5
22
330
5
100
AcDbSymbolTableRecord
100
AcDbLinetypeTableRecord
  2
DASHED1
 70
     0
  3
--  --  --  --  --  --  --  --  
 72
    65
 73
     2
 40
2.5
 49
1.25
 74
     0
 49
-1.25
 74
     0
  0
LTYPE
  5
23
330
5
100
AcDbSymbolTableRecord
100
AcDbLinetypeTableRecord
  2
DASHED2
 70
     0
  3
----    ----    ----    ----    
 72
    65
 73
     2
 40
5.0
 49
2.5
 74
     0
 49
-2.5
 74
     0
  0
LTYPE
  5
24
330
5
100
AcDbSymbolTableRecord
100
AcDbLinetypeTableRecord
  2
DASHED3
 70
     0
  3
------  ------  ------  ------  
 72
    65
 73
     2
 40
5.0
 49
3.75
 74
     0
 49
-1.25
 74
     0
  0
LTYPE
  5
25
330
5
100
AcDbSymbolTableRecord
100
AcDbLinetypeTableRecord
  2
CENTER1
 70
     0
  3
----- - ----- - ----- - ----- - 
 72
    65
 73
     4
 40
10.0
 49
6.25
 74
     0
 49
-1.25
 74
     0
 49
1.25
 74
     0
 49
-1.25
 74
     0
  0
LTYPE
  5
26
330
5
100
AcDbSymbolTableRecord
100
AcDbLinetypeTableRecord
  2
CENTER2
 70
     0
  3
----------  --  ----------  --  
 72
    65
 73
     4
 40
20.0
 49
12.5
 74
     0
 49
-2.5
 74
     0
 49
2.5
 74
     0
 49
-2.5
 74
     0
  0
LTYPE
  5
27
330
5
100
AcDbSymbolTableRecord
100
AcDbLinetypeTableRecord
  2
PHANTOM1
 70
     0
  3
--- - - --- - - --- - - --- - - 
 72
    65
 73
     6
 40
10.0
 49
3.25
 74
     0
 49
-1.25
 74
     0
 49
1.25
 74
     0
 49
-1.25
 74
     0
 49
1.25
 74
     0
 49
-1.25
 74
     0
  0
LTYPE
  5
28
330
5
100
AcDbSymbolTableRecord
100
AcDbLinetypeTableRecord
  2
PHANTOM2
 70
     0
  3
--------  -  -  --------  -  -  
 72
    65
 73
     6
 40
20.0
 49
10.0
 74
     0
 49
-2.5
 74
     0
 49
1.25
 74
     0
 49
-2.5
 74
     0
 49
1.25
 74
     0
 49
-2.5
 74
     0
  0
LTYPE
  5
29
330
5
100
AcDbSymbolTableRecord
100
AcDbLinetypeTableRecord
  2
DOT
 70
     0
  3
-   -   -   -   -   -   -   -   
 72
    65
 73
     2
 40
2.5
 49
0.625
 74
     0
 49
-1.875
 74
     0
  0
LTYPE
  5
2A
330
5
100
AcDbSymbolTableRecord
100
AcDbLinetypeTableRecord
  2
DUMMY
 70
     0
  3
ダミー
 72
    65
 73
     0
 40
0.0
  0
LTYPE
  5
2B
330
5
100
AcDbSymbolTableRecord
100
AcDbLinetypeTableRecord
  2
RAND1
 70
     0
  3
ランダム線1
 72
    65
 73
     4
 40
10.0
 49
1.0
 74
     0
 49
-2.0
 74
     0
 49
3.0
 74
     0
 49
-4.0
 74
     0
  0
LTYPE
  5
2C
330
5
100
AcDbSymbolTableRecord
100
AcDbLinetypeTableRecord
  2
RAND2
 70
     0
  3
ランダム線2
 72
    65
 73
     4
 40
14.0
 49
2.0
 74
     0
 49
-3.0
 74
     0
 49
4.0
 74
     0
 49
-5.0
 74
     0
  0
LTYPE
  5
2D
330
5
100
AcDbSymbolTableRecord
100
AcDbLinetypeTableRecord
  2
RAND3
 70
     0
  3
ランダム線3
 72
    65
 73
     4
 40
18.0
 49
3.0
 74
     0
 49
-4.0
 74
     0
 49
5.0
 74
     0
 49
-6.0
 74
     0
  0
LTYPE
  5
2E
330
5
100
AcDbSymbolTableRecord
100
AcDbLinetypeTableRecord
  2
RAND4
 70
     0
  3
ランダム線4
 72
    65
 73
     4
 40
22.0
 49
4.0
 74
     0
 49
-5.0
 74
     0
 49
6.0
 74
     0
 49
-7.0
 74
     0
  0
LTYPE
  5
2F
330
5
100
AcDbSymbolTableRecord
100
AcDbLinetypeTableRecord
  2
RAND5
 70
     0
  3
ランダム線5
 72
    65
 73
     4
 40
26.0
 49
5.0
 74
     0
 49
-6.0
 74
     0
 49
7.0
 74
     0
 49
-8.0
 74
     0
  0
LTYPE
  5
30
330
5
100
AcDbSymbolTableRecord
100
AcDbLinetypeTableRecord
  2
LONG1
 70
     0
  3
----------  --  ----------  --  
 72
    65
 73
     4
 40
40.0
 49
32.5
 74
     0
 49
-2.5
 74
     0
 49
2.5
 74
     0
 49
-2.5
 74
     0
  0
LTYPE
  5
31
330
5
100
AcDbSymbolTableRecord
100
AcDbLinetypeTableRecord
  2
LONG2
 70
     0
  3
--------  -  -  --------  -  -  
 72
    65
 73
     6
 40
40.0
 49
30.0
 74
     0
 49
-2.5
 74
     0
 49
1.25
 74
     0
 49
-2.5
 74
     0
 49
1.25
 74
     0
 49
-2.5
 74
     0
  0
LTYPE
  5
32
330
5
100
AcDbSymbolTableRecord
100
AcDbLinetypeTableRecord
  2
LONG3
 70
     0
  3
+++++++++++++++..+++++++++++++++
 72
    65
 73
     2
 40
40.0
 49
37.5
 74
     0
 49
-2.5
 74
     0
  0
LTYPE
  5
33
330
5
100
AcDbSymbolTableRecord
100
AcDbLinetypeTableRecord
  2
LONG4
 70
     0
  3
+++++++++++++++..+++++++++++++++
 72
    65
 73
     2
 40
80.0
 49
75.0
 74
     0
 49
-5.0
 74
     0
  0
LTYPE
  5
34
330
5
100
AcDbSymbolTableRecord
100
AcDbLinetypeTableRecord
  2
LONG5
 70
     0
  3
----------  --  ----------  --  
 72
    65
 73
     4
 40
60.0
 49
37.5
 74
     0
 49
-7.5
 74
     0
 49
7.5
 74
     0
 49
-7.5
 74
     0
  0
LTYPE
  5
35
330
5
100
AcDbSymbolTableRecord
100
AcDbLinetypeTableRecord
  2
DASHED
 70
     0
  3
-------   -------------   ------
 72
    65
 73
     2
 40
7.5
 49
6.0
 74
     0
 49
-1.5
 74
     0
  0
LTYPE
  5
36
330
5
100
AcDbSymbolTableRecord
100
AcDbLinetypeTableRecord
  2
DASHED_SPACED
 70
     0
  3
----        --------        ----
 72
    65
 73
     2
 40
12.0
 49
6.0
 74
     0
 49
-6.0
 74
     0
  0
LTYPE
  5
37
330
5
100
AcDbSymbolTableRecord
100
AcDbLinetypeTableRecord
  2
LONG_DASHED_DOTTED
 70
     0
  3
------------- --- --------------
 72
    65
 73
     4
 40
15.25
 49
12.0
 74
     0
 49
-1.5
 74
     0
 49
0.25
 74
     0
 49
-1.5
 74
     0
  0
LTYPE
  5
38
330
5
100
AcDbSymbolTableRecord
100
AcDbLinetypeTableRecord
  2
LONG_DASHED_DOUBLE-DOTTED
 70
     0
  3
----------- --- --- ------------
 72
    65
 73
     6
 40
17.0
 49
12.0
 74
     0
 49
-1.5
 74
     0
 49
0.25
 74
     0
 49
-1.5
 74
     0
 49
0.25
 74
     0
 49
-1.5
 74
     0
  0
LTYPE
  5
39
330
5
100
AcDbSymbolTableRecord
100
AcDbLinetypeTableRecord
  2
LONG_DASHED_TRIPLICATE-DOTTED
 70
     0
  3
--------- --- --- --- ----------
 72
    65
 73
     8
 40
18.75
 49
12.0
 74
     0
 49
-1.5
 74
     0
 49
0.25
 74
     0
 49
-1.5
 74
     0
 49
0.25
 74
     0
 49
-1.5
 74
     0
 49
0.25
 74
     0
 49
-1.5
 74
     0
  0
LTYPE
  5
3A
330
5
100
AcDbSymbolTableRecord
100
AcDbLinetypeTableRecord
  2
DOTTED
 70
     0
  3
   -       -       -       -    
 72
    65
 73
     2
 40
1.75
 49
0.25
 74
     0
 49
-1.5
 74
     0
  0
LTYPE
  5
3B
330
5
100
AcDbSymbolTableRecord
100
AcDbLinetypeTableRecord
  2
CHAIN
 70
     0
  3
-------------- -- --------------
 72
    65
 73
     4
 40
18.5
 49
12.0
 74
     0
 49
-1.5
 74
     0
 49
3.5
 74
     0
 49
-1.5
 74
     0
  0
LTYPE
  5
3C
330
5
100
AcDbSymbolTableRecord
100
AcDbLinetypeTableRecord
  2
CHAIN_DOUBLE_DASH
 70
     0
  3
------------ -- -- -------------
 72
    65
 73
     6
 40
23.5
 49
12.0
 74
     0
 49
-1.5
 74
     0
 49
3.5
 74
     0
 49
-1.5
 74
     0
 49
3.5
 74
     0
 49
-1.5
 74
     0
  0
LTYPE
  5
3D
330
5
100
AcDbSymbolTableRecord
100
AcDbLinetypeTableRecord
  2
DASHED_DOTTED
 70
     0
  3
-----------     -     ----------
 72
    65
 73
     4
 40
9.25
 49
6.0
 74
     0
 49
-1.5
 74
     0
 49
0.25
 74
     0
 49
-1.5
 74
     0
  0
LTYPE
  5
3E
330
5
100
AcDbSymbolTableRecord
100
AcDbLinetypeTableRecord
  2
DOUBLE-DASHED_DOTTED
 70
     0
  3
------   -----------   -   -----
 72
    65
 73
     6
 40
16.75
 49
6.0
 74
     0
 49
-1.5
 74
     0
 49
6.0
 74
     0
 49
-1.5
 74
     0
 49
0.25
 74
     0
 49
-1.5
 74
     0
  0
LTYPE
  5
3F
330
5
100
AcDbSymbolTableRecord
100
AcDbLinetypeTableRecord
  2
DASHED_DOUBLE-DOTTED
 70
     0
  3
---------    -    -    ---------
 72
    65
 73
     6
 40
11.0
 49
6.0
 74
     0
 49
-1.5
 74
     0
 49
0.25
 74
     0
 49
-1.5
 74
     0
 49
0.25
 74
     0
 49
-1.5
 74
     0
  0
LTYPE
  5
40
330
5
100
AcDbSymbolTableRecord
100
AcDbLinetypeTableRecord
  2
DOUBLE-DASHED_DOUBLE-DOTTED
 70
     0
  3
-----   ---------   -   -   ----
 72
    65
 73
     8
 40
18.5
 49
6.0
 74
     0
 49
-1.5
 74
     0
 49
6.0
 74
     0
 49
-1.5
 74
     0
 49
0.25
 74
     0
 49
-1.5
 74
     0
 49
0.25
 74
     0
 49
-1.5
 74
     0
  0
LTYPE
  5
41
330
5
100
AcDbSymbolTableRecord
100
AcDbLinetypeTableRecord
  2
DASHED_TRIPLICATE-DOTTED
 70
     0
  3
-------    -    -    -    ------
 72
    65
 73
     8
 40
12.75
 49
6.0
 74
     0
 49
-1.5
 74
     0
 49
0.25
 74
     0
 49
-1.5
 74
     0
 49
0.25
 74
     0
 49
-1.5
 74
     0
 49
0.25
 74
     0
 49
-1.5
 74
     0
  0
LTYPE
  5
42
330
5
100
AcDbSymbolTableRecord
100
AcDbLinetypeTableRecord
  2
DOUBLE-DASHED_TRIPLICATE-DOTTED
 70
     0
  3
-----  ---------  -  -  -  -----
 72
    65
 73
    10
 40
20.25
 49
6.0
 74
     0
 49
-1.5
 74
     0
 49
6.0
 74
     0
 49
-1.5
 74
     0
 49
0.25
 74
     0
 49
-1.5
 74
     0
 49
0.25
 74
     0
 49
-1.5
 74
     0
 49
0.25
 74
     0
 49
-1.5
 74
     0
  0
LTYPE
  5
43
330
5
100
AcDbSymbolTableRecord
100
AcDbLinetypeTableRecord
  2
UNDEFINED
 70
     0
  3
--------------------------------
 72
    65
 73
     0
 40
0.0
  0
LTYPE
  5
44
330
5
100
AcDbSymbolTableRecord
100
AcDbLinetypeTableRecord
  2
PLINE2
 70
     0
  3
------     -----------     -----
 72
    65
 73
     2
 40
3.0
 49
2.1
 74
     0
 49
-0.9
 74
     0
  0
LTYPE
  5
45
330
5
100
AcDbSymbolTableRecord
100
AcDbLinetypeTableRecord
  2
PLINE3
 70
     0
  3
------------   ---   -----------
 72
    65
 73
     4
 40
10.0
 49
7.0
 74
     0
 49
-1.0
 74
     0
 49
1.0
 74
     0
 49
-1.0
 74
     0
  0
LTYPE
  5
46
330
5
100
AcDbSymbolTableRecord
100
AcDbLinetypeTableRecord
  2
PLINE4
 70
     0
  3
---------   ---   ---   --------
 72
    65
 73
     6
 40
10.0
 49
5.0
 74
     0
 49
-1.0
 74
     0
 49
1.0
 74
     0
 49
-1.0
 74
     0
 49
1.0
 74
     0
 49
-1.0
 74
     0
  0
LTYPE
  5
47
330
5
100
AcDbSymbolTableRecord
100
AcDbLinetypeTableRecord
  2
PLINE5
 70
     0
  3
------     -----------     -----
 72
    65
 73
     2
 40
5.0
 49
3.5
 74
     0
 49
-1.5
 74
     0
  0
LTYPE
  5
48
330
5
100
AcDbSymbolTableRecord
100
AcDbLinetypeTableRecord
  2
PLINE6
 70
     0
  3
------------   ---   -----------
 72
    65
 73
     4
 40
15.0
 49
10.5
 74
     0
 49
-1.5
 74
     0
 49
1.5
 74
     0
 49
-1.5
 74
     0
  0
LTYPE
  5
49
330
5
100
AcDbSymbolTableRecord
100
AcDbLinetypeTableRecord
  2
PLINE7
 70
     0
  3
---------   ---   ---   --------
 72
    65
 73
     6
 40
15.0
 49
7.5
 74
     0
 49
-1.5
 74
     0
 49
1.5
 74
     0
 49
-1.5
 74
     0
 49
1.5
 74
     0
 49
-1.5
 74
     0
  0
LTYPE
  5
4A
330
5
100
AcDbSymbolTableRecord
100
AcDbLinetypeTableRecord
  2
PLINE8
 70
     0
  3
------     -----------     -----
 72
    65
 73
     2
 40
7.0
 49
4.9
 74
     0
 49
-2.1
 74
     0
  0
LTYPE
  5
4B
330
5
100
AcDbSymbolTableRecord
100
AcDbLinetypeTableRecord
  2
PLINE9
 70
     0
  3
------------   ---   -----------
 72
    65
 73
     4
 40
20.0
 49
14.0
 74
     0
 49
-2.0
 74
     0
 49
2.0
 74
     0
 49
-2.0
 74
     0
  0
LTYPE
  5
4C
330
5
100
AcDbSymbolTableRecord
100
AcDbLinetypeTableRecord
  2
PLINE10
 70
     0
  3
---------   ---   ---   --------
 72
    65
 73
     6
 40
20.0
 49
10.0
 74
     0
 49
-2.0
 74
     0
 49
2.0
 74
     0
 49
-2.0
 74
     0
 49
2.0
 74
     0
 49
-2.0
 74
     0
  0
LTYPE
  5
4D
330
5
100
AcDbSymbolTableRecord
100
AcDbLinetypeTableRecord
  2
PLINE11
 70
     0
  3
------     -----------     -----
 72
    65
 73
     2
 40
9.0
 49
6.299999999999999
 74
     0
 49
-2.7
 74
     0
  0
LTYPE
  5
4E
330
5
100
AcDbSymbolTableRecord
100
AcDbLinetypeTableRecord
  2
PLINE12
 70
     0
  3
------------   ---   -----------
 72
    65
 73
     4
 40
25.0
 49
17.5
 74
     0
 49
-2.5
 74
     0
 49
2.5
 74
     0
 49
-2.5
 74
     0
  0
LTYPE
  5
4F
330
5
100
AcDbSymbolTableRecord
100
AcDbLinetypeTableRecord
  2
PLINE13
 70
     0
  3
---------   ---   ---   --------
 72
    65
 73
     6
 40
25.0
 49
12.5
 74
     0
 49
-2.5
 74
     0
 49
2.5
 74
     0
 49
-2.5
 74
     0
 49
2.5
 74
     0
 49
-2.5
 74
     0
  0
LTYPE
  5
50
330
5
100
AcDbSymbolTableRecord
100
AcDbLinetypeTableRecord
  2
PLINE14
 70
     0
  3
------     -----------     -----
 72
    65
 73
     2
 40
11.0
 49
7.7
 74
     0
 49
-3.299999999999999
 74
     0
  0
LTYPE
  5
51
330
5
100
AcDbSymbolTableRecord
100
AcDbLinetypeTableRecord
  2
PLINE15
 70
     0
  3
------------   ---   -----------
 72
    65
 73
     4
 40
30.0
 49
21.0
 74
     0
 49
-3.0
 74
     0
 49
3.0
 74
     0
 49
-3.0
 74
     0
  0
LTYPE
  5
52
330
5
100
AcDbSymbolTableRecord
100
AcDbLinetypeTableRecord
  2
PLINE16
 70
     0
  3
---------   ---   ---   --------
 72
    65
 73
     6
 40
30.0
 49
15.0
 74
     0
 49
-3.0
 74
     0
 49
3.0
 74
     0
 49
-3.0
 74
     0
 49
3.0
 74
     0
 49
-3.0
 74
     0
  0
ENDTAB
  0
TABLE
  2
LAYER
  5
2
102
{ACAD_XDICTIONARY
360
175
102
}
330
0
100
AcDbSymbolTable
 70
     5
  0
LAYER
  5
10
330
2
100
AcDbSymbolTableRecord
100
AcDbLayerTableRecord
  2
0
 70
     0
 62
     7
  6
CONTINUOUS
370
    -3
390
F
  0
LAYER
  5
128
330
2
100
AcDbSymbolTableRecord
100
AcDbLayerTableRecord
  2
Defpoints
 70
     0
 62
     7
  6
CONTINUOUS
290
     0
370
    -3
390
F
  0
LAYER
  5
178
330
2
100
AcDbSymbolTableRecord
100
AcDbLayerTableRecord
  2
寸法
 70
     0
 62
     7
  6
CONTINUOUS
370
    -3
390
F
  0
LAYER
  5
179
330
2
100
AcDbSymbolTableRecord
100
AcDbLayerTableRecord
  2
躯体と製品
 70
     0
 62
     7
  6
CONTINUOUS
370
    -3
390
F
  0
LAYER
  5
4F62
330
2
100
AcDbSymbolTableRecord
100
AcDbLayerTableRecord
  2
図枠
 70
     0
 62
     7
  6
CONTINUOUS
370
    -3
390
F
  0
ENDTAB
  0
TABLE
  2
STYLE
  5
3
330
0
100
AcDbSymbolTable
 70
     5
  0
STYLE
  5
11
330
3
100
AcDbSymbolTableRecord
100
AcDbTextStyleTableRecord
  2
STANDARD
 70
     0
 40
0.0
 41
1.0
 50
0.0
 71
     0
 42
0.2
  3
txt
  4
bigfont.shx
  0
STYLE
  5
53
330
3
100
AcDbSymbolTableRecord
100
AcDbTextStyleTableRecord
  2
TATEGAKI
 70
     4
 40
0.0
 41
1.0
 50
0.0
 71
     0
 42
1.0
  3
txt
  4
bigfont.shx
  0
STYLE
  5
123
330
3
100
AcDbSymbolTableRecord
100
AcDbTextStyleTableRecord
  2
ACAD
 70
     0
 40
5.0
 41
0.8
 50
0.0
 71
     0
 42
5.0
  3
romans.shx
  4
extfont.shx
  0
STYLE
  5
3A5F
330
3
100
AcDbSymbolTableRecord
100
AcDbTextStyleTableRecord
  2
VERTXT
 70
     4
 40
0.0
 41
0.8582679999999999
 50
0.0
 71
     0
 42
3.5
  3
txt.shx
  4
BIGFONT
  0
STYLE
  5
50AD
330
3
100
AcDbSymbolTableRecord
100
AcDbTextStyleTableRecord
  2
STANDARD2
 70
     0
 40
0.0
 41
0.8582679999999999
 50
0.0
 71
     0
 42
3.5
  3
txt.shx
  4
EXTFONT
  0
ENDTAB
  0
TABLE
  2
VIEW
  5
6
330
0
100
AcDbSymbolTable
 70
     0
  0
ENDTAB
  0
TABLE
  2
UCS
  5
7
330
0
100
AcDbSymbolTable
 70
     0
  0
ENDTAB
  0
TABLE
  2
APPID
  5
9
330
0
100
AcDbSymbolTable
 70
     1
  0
APPID
  5
12
330
9
100
AcDbSymbolTableRecord
100
AcDbRegAppTableRecord
  2
ACAD
 70
     0
  0
ENDTAB
  0
TABLE
  2
DIMSTYLE
  5
A
330
0
100
AcDbSymbolTable
 70
     3
100
AcDbDimStyleTable
 71
     1
340
126
  0
DIMSTYLE
105
11C
330
A
100
AcDbSymbolTableRecord
100
AcDbDimStyleTableRecord
  2
Standard
 70
     0
340
11
  0
DIMSTYLE
105
126
102
{ACAD_REACTORS
330
727B
330
7288
330
7295
330
72A2
330
72BC
330
72C9
330
72D6
330
72E1
330
72EC
330
72F9
330
731F
330
732B
330
7337
330
7343
102
}
330
A
100
AcDbSymbolTableRecord
100
AcDbDimStyleTableRecord
  2
AutoCAD
 70
     0
 41
1.0
 42
0.0
 44
0.0
 73
     0
 77
     1
140
5.0
147
1.0
174
     1
176
     4
177
     4
178
     3
271
     0
272
     0
289
     0
340
123
341
15B0
342
11E
  0
DIMSTYLE
105
2CBB
330
A
100
AcDbSymbolTableRecord
100
AcDbDimStyleTableRecord
  2
111
 70
     0
 41
1.0
 42
0.0
 44
0.0
 73
     0
 77
     1
140
5.0
147
1.0
174
     1
176
     4
177
     4
178
     3
271
     0
272
     0
289
     0
340
123
341
15B0
342
2CB5
  0
ENDTAB
  0
TABLE
  2
BLOCK_RECORD
  5
1
330
0
100
AcDbSymbolTable
 70
    18
  0
BLOCK_RECORD
  5
1E
102
{ACAD_XDICTIONARY
360
28B
102
}
330
1
100
AcDbSymbolTableRecord
100
AcDbBlockTableRecord
  2
*Model_Space
340
21
  0
BLOCK_RECORD
  5
1A
102
{ACAD_XDICTIONARY
360
28D
102
}
330
1
100
AcDbSymbolTableRecord
100
AcDbBlockTableRecord
  2
*Paper_Space
340
1D
  0
BLOCK_RECORD
  5
11E
330
1
100
AcDbSymbolTableRecord
100
AcDbBlockTableRecord
  2
_Dot
340
0
102
{BLKREFS
331
728D
331
728E
331
729A
331
729B
331
72E4
331
72E5
331
72FE
331
72FF
331
733B
331
733C
331
7348
331
7349
331
7356
331
7357
331
735F
331
7360
331
7368
331
7369
331
7371
331
7372
331
7379
331
737A
331
7381
331
7382
331
7388
331
7389
331
7391
331
7392
102
}
  0
BLOCK_RECORD
  5
15B0
330
1
100
AcDbSymbolTableRecord
100
AcDbBlockTableRecord
  2
_None
340
0
  0
BLOCK_RECORD
  5
2CB5
330
1
100
AcDbSymbolTableRecord
100
AcDbBlockTableRecord
  2
_Open30
340
0
  0
BLOCK_RECORD
  5
35E3
330
1
100
AcDbSymbolTableRecord
100
AcDbBlockTableRecord
  2
_DotBlank
340
0
  0
BLOCK_RECORD
  5
727C
330
1
100
AcDbSymbolTableRecord
100
AcDbBlockTableRecord
  2
*D4
340
0
  0
BLOCK_RECORD
  5
7289
330
1
100
AcDbSymbolTableRecord
100
AcDbBlockTableRecord
  2
*D5
340
0
  0
BLOCK_RECORD
  5
7296
330
1
100
AcDbSymbolTableRecord
100
AcDbBlockTableRecord
  2
*D6
340
0
  0
BLOCK_RECORD
  5
72A3
330
1
100
AcDbSymbolTableRecord
100
AcDbBlockTableRecord
  2
*D7
340
0
  0
BLOCK_RECORD
  5
72BD
330
1
100
AcDbSymbolTableRecord
100
AcDbBlockTableRecord
  2
*D8
340
0
  0
BLOCK_RECORD
  5
72CA
330
1
100
AcDbSymbolTableRecord
100
AcDbBlockTableRecord
  2
*D9
340
0
  0
BLOCK_RECORD
  5
72D7
330
1
100
AcDbSymbolTableRecord
100
AcDbBlockTableRecord
  2
*D10
340
0
  0
BLOCK_RECORD
  5
72E2
330
1
100
AcDbSymbolTableRecord
100
AcDbBlockTableRecord
  2
*D11
340
0
  0
BLOCK_RECORD
  5
72ED
330
1
100
AcDbSymbolTableRecord
100
AcDbBlockTableRecord
  2
*D12
340
0
  0
BLOCK_RECORD
  5
72FA
330
1
100
AcDbSymbolTableRecord
100
AcDbBlockTableRecord
  2
*D13
340
0
  0
BLOCK_RECORD
  5
7320
330
1
100
AcDbSymbolTableRecord
100
AcDbBlockTableRecord
  2
*D14
340
0
  0
BLOCK_RECORD
  5
732C
330
1
100
AcDbSymbolTableRecord
100
AcDbBlockTableRecord
  2
*D15
340
0
  0
BLOCK_RECORD
  5
7338
330
1
100
AcDbSymbolTableRecord
100
AcDbBlockTableRecord
  2
*D16
340
0
  0
BLOCK_RECORD
  5
7344
330
1
100
AcDbSymbolTableRecord
100
AcDbBlockTableRecord
  2
*D17
340
0
  0
ENDTAB
  0
ENDSEC
  0
SECTION
  2
BLOCKS
  0
BLOCK
  5
1F
330
1E
100
AcDbEntity
  8
0
100
AcDbBlockBegin
  2
*Model_Space
 70
     0
 10
0.0
 20
0.0
 30
0.0
  3
*Model_Space
  1

  0
ENDBLK
  5
20
330
1E
100
AcDbEntity
  8
0
100
AcDbBlockEnd
  0
BLOCK
  5
1B
330
1A
100
AcDbEntity
 67
     1
  8
0
100
AcDbBlockBegin
  2
*Paper_Space
 70
     0
 10
0.0
 20
0.0
 30
0.0
  3
*Paper_Space
  1

  0
ENDBLK
  5
1C
330
1A
100
AcDbEntity
 67
     1
  8
0
100
AcDbBlockEnd
  0
BLOCK
  5
121
330
11E
100
AcDbEntity
  8
0
100
AcDbBlockBegin
  2
_Dot
 70
     0
 10
0.0
 20
0.0
 30
0.0
  3
_Dot
  1

  0
LWPOLYLINE
  5
11F
330
11E
100
AcDbEntity
  8
0
  6
ByBlock
 62
     0
100
AcDbPolyline
 90
        2
 70
     1
 43
0.5
 10
-0.25
 20
0.0
 42
1.0
 10
0.25
 20
0.0
 42
1.0
  0
LINE
  5
120
330
11E
100
AcDbEntity
  8
0
  6
ByBlock
 62
     0
370
    -2
100
AcDbLine
 10
-0.5
 20
0.0
 30
0.0
 11
-1.0
 21
0.0
 31
0.0
  0
ENDBLK
  5
122
330
11E
100
AcDbEntity
  8
0
100
AcDbBlockEnd
  0
BLOCK
  5
15B1
330
15B0
100
AcDbEntity
  8
0
100
AcDbBlockBegin
  2
_None
 70
     0
 10
0.0
 20
0.0
 30
0.0
  3
_None
  1

  0
ENDBLK
  5
15B2
330
15B0
100
AcDbEntity
  8
0
100
AcDbBlockEnd
  0
BLOCK
  5
2CB9
330
2CB5
100
AcDbEntity
  8
0
100
AcDbBlockBegin
  2
_Open30
 70
     0
 10
0.0
 20
0.0
 30
0.0
  3
_Open30
  1

  0
LINE
  5
2CB6
330
2CB5
100
AcDbEntity
  8
0
  6
ByBlock
 62
     0
370
    -2
100
AcDbLine
 10
-1.0
 20
0.26794919
 30
0.0
 11
0.0
 21
0.0
 31
0.0
  0
LINE
  5
2CB7
330
2CB5
100
AcDbEntity
  8
0
  6
ByBlock
 62
     0
370
    -2
100
AcDbLine
 10
0.0
 20
0.0
 30
0.0
 11
-1.0
 21
-0.26794919
 31
0.0
  0
LINE
  5
2CB8
330
2CB5
100
AcDbEntity
  8
0
  6
ByBlock
 62
     0
370
    -2
100
AcDbLine
 10
0.0
 20
0.0
 30
0.0
 11
-1.0
 21
0.0
 31
0.0
  0
ENDBLK
  5
2CBA
330
2CB5
100
AcDbEntity
  8
0
100
AcDbBlockEnd
  0
BLOCK
  5
35E6
330
35E3
100
AcDbEntity
  8
0
100
AcDbBlockBegin
  2
_DotBlank
 70
     0
 10
0.0
 20
0.0
 30
0.0
  3
_DotBlank
  1

  0
CIRCLE
  5
35E4
330
35E3
100
AcDbEntity
  8
0
  6
ByBlock
 62
     0
370
    -2
100
AcDbCircle
 10
0.0
 20
0.0
 30
0.0
 40
0.5
  0
LINE
  5
35E5
330
35E3
100
AcDbEntity
  8
0
  6
ByBlock
 62
     0
370
    -2
100
AcDbLine
 10
-0.5
 20
0.0
 30
0.0
 11
-1.0
 21
0.0
 31
0.0
  0
ENDBLK
  5
35E7
330
35E3
100
AcDbEntity
  8
0
100
AcDbBlockEnd
  0
BLOCK
  5
7286
330
727C
100
AcDbEntity
  8
0
100
AcDbBlockBegin
  2
*D4
 70
     1
 10
0.0
 20
0.0
 30
0.0
  3
*D4
  1

  0
LINE
  5
735C
330
727C
100
AcDbEntity
  8
寸法
  6
Continuous
 62
     4
370
    -2
100
AcDbLine
 10
329.9106394078261
 20
633.8793452017252
 30
0.0
 11
329.9106394078261
 21
686.8793452571213
 31
0.0
  0
LINE
  5
735D
330
727C
100
AcDbEntity
  8
寸法
  6
Continuous
 62
     4
370
    -2
100
AcDbLine
 10
363.4106394078261
 20
633.8793452017251
 30
0.0
 11
363.4106394078261
 21
686.8793452571213
 31
0.0
  0
LINE
  5
735E
330
727C
100
AcDbEntity
  8
寸法
  6
Continuous
 62
     4
370
    -2
100
AcDbLine
 10
330.9106394078261
 20
686.8793452571213
 30
0.0
 11
362.4106394078261
 21
686.8793452571213
 31
0.0
  0
INSERT
  5
735F
330
727C
100
AcDbEntity
  8
寸法
  6
Continuous
 62
     4
370
    -2
100
AcDbBlockReference
  2
_Dot
 10
329.9106394078261
 20
686.8793452571213
 30
0.0
 50
180.0
  0
INSERT
  5
7360
330
727C
100
AcDbEntity
  8
寸法
  6
Continuous
 62
     4
370
    -2
100
AcDbBlockReference
  2
_Dot
 10
363.4106394078261
 20
686.8793452571213
 30
0.0
  0
MTEXT
  5
7361
330
727C
100
AcDbEntity
  8
寸法
  6
Continuous
 62
     3
100
AcDbMText
 10
346.6606394078261
 20
690.3793452571213
 30
0.0
 40
5.0
 41
0.0
 71
     5
 72
     1
  1
\A1;33.5
  7
ACAD
 73
     1
 44
1.0
1001
ACAD
1000
MTEXTBEGIN
1070
    73
1070
     1
1070
    44
1040
1.0
1070
    74
1070
     0
1000
MTEXTEND
  0
POINT
  5
7362
330
727C
100
AcDbEntity
  8
Defpoints
  6
Continuous
 62
     0
100
AcDbPoint
 10
329.9106394078261
 20
633.8793452017252
 30
0.0
  0
POINT
  5
7363
330
727C
100
AcDbEntity
  8
Defpoints
  6
Continuous
 62
     0
100
AcDbPoint
 10
363.4106394078261
 20
633.8793452017251
 30
0.0
  0
POINT
  5
7364
330
727C
100
AcDbEntity
  8
Defpoints
  6
Continuous
 62
     0
100
AcDbPoint
 10
363.4106394078261
 20
686.8793452571213
 30
0.0
  0
ENDBLK
  5
7287
330
727C
100
AcDbEntity
  8
0
100
AcDbBlockEnd
  0
BLOCK
  5
7293
330
7289
100
AcDbEntity
  8
0
100
AcDbBlockBegin
  2
*D5
 70
     1
 10
0.0
 20
0.0
 30
0.0
  3
*D5
  1

  0
LINE
  5
728A
330
7289
100
AcDbEntity
  8
寸法
  6
Continuous
 62
     4
370
    -2
100
AcDbLine
 10
343.4106394078261
 20
648.8793452017252
 30
0.0
 11
343.4106394078261
 21
671.8793452017251
 31
0.0
  0
LINE
  5
728B
330
7289
100
AcDbEntity
  8
寸法
  6
Continuous
 62
     4
370
    -2
100
AcDbLine
 10
363.4106394078261
 20
633.8793452017251
 30
0.0
 11
363.4106394078261
 21
671.8793452017251
 31
0.0
  0
LINE
  5
728C
330
7289
100
AcDbEntity
  8
寸法
  6
Continuous
 62
     4
370
    -2
100
AcDbLine
 10
344.4106394078261
 20
671.8793452017251
 30
0.0
 11
362.4106394078261
 21
671.8793452017251
 31
0.0
  0
INSERT
  5
728D
330
7289
100
AcDbEntity
  8
寸法
  6
Continuous
 62
     4
370
    -2
100
AcDbBlockReference
  2
_Dot
 10
343.4106394078261
 20
671.8793452017251
 30
0.0
 50
180.0
  0
INSERT
  5
728E
330
7289
100
AcDbEntity
  8
寸法
  6
Continuous
 62
     4
370
    -2
100
AcDbBlockReference
  2
_Dot
 10
363.4106394078261
 20
671.8793452017251
 30
0.0
  0
MTEXT
  5
728F
330
7289
100
AcDbEntity
  8
寸法
  6
Continuous
 62
     3
100
AcDbMText
 10
353.4106394078261
 20
675.3793452017252
 30
0.0
 40
5.0
 41
0.0
 71
     5
 72
     1
  1
\A1;20
  7
ACAD
 73
     1
 44
1.0
1001
ACAD
1000
MTEXTBEGIN
1070
    73
1070
     1
1070
    44
1040
1.0
1070
    74
1070
     0
1000
MTEXTEND
  0
POINT
  5
7290
330
7289
100
AcDbEntity
  8
Defpoints
  6
Continuous
 62
     0
100
AcDbPoint
 10
343.4106394078261
 20
648.8793452017252
 30
0.0
  0
POINT
  5
7291
330
7289
100
AcDbEntity
  8
Defpoints
  6
Continuous
 62
     0
100
AcDbPoint
 10
363.4106394078261
 20
633.8793452017251
 30
0.0
  0
POINT
  5
7292
330
7289
100
AcDbEntity
  8
Defpoints
  6
Continuous
 62
     0
100
AcDbPoint
 10
363.4106394078261
 20
671.8793452017251
 30
0.0
  0
ENDBLK
  5
7294
330
7289
100
AcDbEntity
  8
0
100
AcDbBlockEnd
  0
BLOCK
  5
72A0
330
7296
100
AcDbEntity
  8
0
100
AcDbBlockBegin
  2
*D6
 70
     1
 10
0.0
 20
0.0
 30
0.0
  3
*D6
  1

  0
LINE
  5
7297
330
7296
100
AcDbEntity
  8
寸法
  6
Continuous
 62
     4
370
    -2
100
AcDbLine
 10
355.9106394078262
 20
646.879345201725
 30
0.0
 11
398.4106394078262
 21
646.879345201725
 31
0.0
  0
LINE
  5
7298
330
7296
100
AcDbEntity
  8
寸法
  6
Continuous
 62
     4
370
    -2
100
AcDbLine
 10
365.4106394078261
 20
631.879345201725
 30
0.0
 11
398.4106394078261
 21
631.879345201725
 31
0.0
  0
LINE
  5
7299
330
7296
100
AcDbEntity
  8
寸法
  6
Continuous
 62
     4
370
    -2
100
AcDbLine
 10
398.4106394078262
 20
645.8793452017251
 30
0.0
 11
398.4106394078261
 21
632.8793452017251
 31
0.0
  0
INSERT
  5
729A
330
7296
100
AcDbEntity
  8
寸法
  6
Continuous
 62
     4
370
    -2
100
AcDbBlockReference
  2
_Dot
 10
398.4106394078262
 20
646.879345201725
 30
0.0
 50
90.0
  0
INSERT
  5
729B
330
7296
100
AcDbEntity
  8
寸法
  6
Continuous
 62
     4
370
    -2
100
AcDbBlockReference
  2
_Dot
 10
398.4106394078261
 20
631.879345201725
 30
0.0
 50
270.0
  0
MTEXT
  5
729C
330
7296
100
AcDbEntity
  8
寸法
  6
Continuous
 62
     3
100
AcDbMText
 10
394.9106394078261
 20
639.3793452017251
 30
0.0
 40
5.0
 41
0.0
 71
     5
 72
     1
  1
\A1;15
  7
ACAD
 11
0.0000000000000001
 21
1.0
 31
0.0
 73
     1
 44
1.0
1001
ACAD
1000
MTEXTBEGIN
1070
    73
1070
     1
1070
    44
1040
1.0
1070
    74
1070
     0
1000
MTEXTEND
  0
POINT
  5
729D
330
7296
100
AcDbEntity
  8
Defpoints
  6
Continuous
 62
     0
100
AcDbPoint
 10
355.9106394078262
 20
646.879345201725
 30
0.0
  0
POINT
  5
729E
330
7296
100
AcDbEntity
  8
Defpoints
  6
Continuous
 62
     0
100
AcDbPoint
 10
365.4106394078261
 20
631.879345201725
 30
0.0
  0
POINT
  5
729F
330
7296
100
AcDbEntity
  8
Defpoints
  6
Continuous
 62
     0
100
AcDbPoint
 10
398.4106394078261
 20
631.879345201725
 30
0.0
  0
ENDBLK
  5
72A1
330
7296
100
AcDbEntity
  8
0
100
AcDbBlockEnd
  0
BLOCK
  5
72AD
330
72A3
100
AcDbEntity
  8
0
100
AcDbBlockBegin
  2
*D7
 70
     1
 10
0.0
 20
0.0
 30
0.0
  3
*D7
  1

  0
LINE
  5
7365
330
72A3
100
AcDbEntity
  8
寸法
  6
Continuous
 62
     4
370
    -2
100
AcDbLine
 10
344.9106394078261
 20
605.0042565772621
 30
0.0
 11
344.9106394078261
 21
624.8793452017253
 31
0.0
  0
LINE
  5
7366
330
72A3
100
AcDbEntity
  8
寸法
  6
Continuous
 62
     4
370
    -2
100
AcDbLine
 10
704.9106394078261
 20
574.1374560353674
 30
0.0
 11
704.9106394078261
 21
624.8793452017253
 31
0.0
  0
LINE
  5
7367
330
72A3
100
AcDbEntity
  8
寸法
  6
Continuous
 62
     4
370
    -2
100
AcDbLine
 10
345.9106394078261
 20
624.8793452017253
 30
0.0
 11
703.910639407826
 21
624.8793452017253
 31
0.0
  0
INSERT
  5
7368
330
72A3
100
AcDbEntity
  8
寸法
  6
Continuous
 62
     4
370
    -2
100
AcDbBlockReference
  2
_Dot
 10
344.9106394078261
 20
624.8793452017253
 30
0.0
 50
180.0
  0
INSERT
  5
7369
330
72A3
100
AcDbEntity
  8
寸法
  6
Continuous
 62
     4
370
    -2
100
AcDbBlockReference
  2
_Dot
 10
704.9106394078261
 20
624.8793452017253
 30
0.0
  0
MTEXT
  5
736A
330
72A3
100
AcDbEntity
  8
寸法
  6
Continuous
 62
     3
100
AcDbMText
 10
524.910639407826
 20
628.3793452017253
 30
0.0
 40
5.0
 41
0.0
 71
     5
 72
     1
  1
\A1;A
  7
ACAD
 73
     1
 44
1.0
1001
ACAD
1000
MTEXTBEGIN
1070
    73
1070
     1
1070
    44
1040
1.0
1070
    74
1070
     0
1000
MTEXTEND
  0
POINT
  5
736B
330
72A3
100
AcDbEntity
  8
Defpoints
  6
Continuous
 62
     0
100
AcDbPoint
 10
344.9106394078261
 20
605.0042565772621
 30
0.0
  0
POINT
  5
736C
330
72A3
100
AcDbEntity
  8
Defpoints
  6
Continuous
 62
     0
100
AcDbPoint
 10
704.9106394078261
 20
574.1374560353674
 30
0.0
  0
POINT
  5
736D
330
72A3
100
AcDbEntity
  8
Defpoints
  6
Continuous
 62
     0
100
AcDbPoint
 10
704.9106394078261
 20
624.8793452017253
 30
0.0
  0
ENDBLK
  5
72AE
330
72A3
100
AcDbEntity
  8
0
100
AcDbBlockEnd
  0
BLOCK
  5
72C7
330
72BD
100
AcDbEntity
  8
0
100
AcDbBlockBegin
  2
*D8
 70
     1
 10
0.0
 20
0.0
 30
0.0
  3
*D8
  1

  0
LINE
  5
7353
330
72BD
100
AcDbEntity
  8
寸法
  6
Continuous
 62
     4
370
    -2
100
AcDbLine
 10
705.1024964047245
 20
625.0396289898672
 30
0.0
 11
705.1024964047245
 21
701.8793452017251
 31
0.0
  0
LINE
  5
7354
330
72BD
100
AcDbEntity
  8
寸法
  6
Continuous
 62
     4
370
    -2
100
AcDbLine
 10
329.9106394078261
 20
633.8793452017252
 30
0.0
 11
329.9106394078261
 21
701.8793452017251
 31
0.0
  0
LINE
  5
7355
330
72BD
100
AcDbEntity
  8
寸法
  6
Continuous
 62
     4
370
    -2
100
AcDbLine
 10
704.1024964047245
 20
701.8793452017251
 30
0.0
 11
330.9106394078261
 21
701.8793452017251
 31
0.0
  0
INSERT
  5
7356
330
72BD
100
AcDbEntity
  8
寸法
  6
Continuous
 62
     4
370
    -2
100
AcDbBlockReference
  2
_Dot
 10
705.1024964047245
 20
701.8793452017251
 30
0.0
  0
INSERT
  5
7357
330
72BD
100
AcDbEntity
  8
寸法
  6
Continuous
 62
     4
370
    -2
100
AcDbBlockReference
  2
_Dot
 10
329.9106394078261
 20
701.8793452017251
 30
0.0
 50
180.0
  0
MTEXT
  5
7358
330
72BD
100
AcDbEntity
  8
寸法
  6
Continuous
 62
     3
100
AcDbMText
 10
517.5065679062753
 20
705.3793452017251
 30
0.0
 40
5.0
 41
0.0
 71
     5
 72
     1
  1
\A1;W
  7
ACAD
 73
     1
 44
1.0
1001
ACAD
1000
MTEXTBEGIN
1070
    73
1070
     1
1070
    44
1040
1.0
1070
    74
1070
     0
1000
MTEXTEND
  0
POINT
  5
7359
330
72BD
100
AcDbEntity
  8
Defpoints
  6
Continuous
 62
     0
100
AcDbPoint
 10
705.1024964047245
 20
625.0396289898672
 30
0.0
  0
POINT
  5
735A
330
72BD
100
AcDbEntity
  8
Defpoints
  6
Continuous
 62
     0
100
AcDbPoint
 10
329.9106394078261
 20
633.8793452017252
 30
0.0
  0
POINT
  5
735B
330
72BD
100
AcDbEntity
  8
Defpoints
  6
Continuous
 62
     0
100
AcDbPoint
 10
329.9106394078261
 20
701.8793452017251
 30
0.0
  0
ENDBLK
  5
72C8
330
72BD
100
AcDbEntity
  8
0
100
AcDbBlockEnd
  0
BLOCK
  5
72D4
330
72CA
100
AcDbEntity
  8
0
100
AcDbBlockBegin
  2
*D9
 70
     1
 10
0.0
 20
0.0
 30
0.0
  3
*D9
  1

  0
LINE
  5
738E
330
72CA
100
AcDbEntity
  8
寸法
  6
Continuous
 62
     4
370
    -2
100
AcDbLine
 10
326.9106394078262
 20
646.879345201725
 30
0.0
 11
253.9106394078262
 21
646.8793452017251
 31
0.0
  0
LINE
  5
738F
330
72CA
100
AcDbEntity
  8
寸法
  6
Continuous
 62
     4
370
    -2
100
AcDbLine
 10
475.1785886002573
 20
525.0567229180355
 30
0.0
 11
253.9106394078261
 21
525.0567229180356
 31
0.0
  0
LINE
  5
7390
330
72CA
100
AcDbEntity
  8
寸法
  6
Continuous
 62
     4
370
    -2
100
AcDbLine
 10
253.9106394078262
 20
645.8793452017252
 30
0.0
 11
253.9106394078261
 21
526.0567229180357
 31
0.0
  0
INSERT
  5
7391
330
72CA
100
AcDbEntity
  8
寸法
  6
Continuous
 62
     4
370
    -2
100
AcDbBlockReference
  2
_Dot
 10
253.9106394078262
 20
646.8793452017251
 30
0.0
 50
90.0
  0
INSERT
  5
7392
330
72CA
100
AcDbEntity
  8
寸法
  6
Continuous
 62
     4
370
    -2
100
AcDbBlockReference
  2
_Dot
 10
253.9106394078261
 20
525.0567229180356
 30
0.0
 50
270.0
  0
MTEXT
  5
7393
330
72CA
100
AcDbEntity
  8
寸法
  6
Continuous
 62
     3
100
AcDbMText
 10
250.4106394078261
 20
585.9680340598804
 30
0.0
 40
5.0
 41
0.0
 71
     5
 72
     1
  1
\A1;E
  7
ACAD
 11
0.0000000000000001
 21
1.0
 31
0.0
 73
     1
 44
1.0
1001
ACAD
1000
MTEXTBEGIN
1070
    73
1070
     1
1070
    44
1040
1.0
1070
    74
1070
     0
1000
MTEXTEND
  0
POINT
  5
7394
330
72CA
100
AcDbEntity
  8
Defpoints
  6
Continuous
 62
     0
100
AcDbPoint
 10
326.9106394078262
 20
646.879345201725
 30
0.0
  0
POINT
  5
7395
330
72CA
100
AcDbEntity
  8
Defpoints
  6
Continuous
 62
     0
100
AcDbPoint
 10
475.1785886002573
 20
525.0567229180355
 30
0.0
  0
POINT
  5
7396
330
72CA
100
AcDbEntity
  8
Defpoints
  6
Continuous
 62
     0
100
AcDbPoint
 10
253.9106394078261
 20
525.0567229180356
 30
0.0
  0
ENDBLK
  5
72D5
330
72CA
100
AcDbEntity
  8
0
100
AcDbBlockEnd
  0
BLOCK
  5
72DF
330
72D7
100
AcDbEntity
  8
0
100
AcDbBlockBegin
  2
*D10
 70
     1
 10
0.0
 20
0.0
 30
0.0
  3
*D10
  1

  0
LINE
  5
7387
330
72D7
100
AcDbEntity
  8
寸法
  6
Continuous
 62
     4
370
    -2
100
AcDbLine
 10
273.9106394078261
 20
586.8793452017253
 30
0.0
 11
273.9106394078261
 21
526.0567229180357
 31
0.0
  0
INSERT
  5
7388
330
72D7
100
AcDbEntity
  8
寸法
  6
Continuous
 62
     4
370
    -2
100
AcDbBlockReference
  2
_Dot
 10
273.9106394078261
 20
587.8793452017252
 30
0.0
 50
90.0
  0
INSERT
  5
7389
330
72D7
100
AcDbEntity
  8
寸法
  6
Continuous
 62
     4
370
    -2
100
AcDbBlockReference
  2
_Dot
 10
273.9106394078261
 20
525.0567229180356
 30
0.0
 50
270.0
  0
MTEXT
  5
738A
330
72D7
100
AcDbEntity
  8
寸法
  6
Continuous
 62
     3
100
AcDbMText
 10
270.4106394078261
 20
556.4680340598807
 30
0.0
 40
5.0
 41
0.0
 71
     5
 72
     1
  1
\A1;D
  7
ACAD
 11
0.0000000000000001
 21
1.0
 31
0.0
 73
     1
 44
1.0
1001
ACAD
1000
MTEXTBEGIN
1070
    73
1070
     1
1070
    44
1040
1.0
1070
    74
1070
     0
1000
MTEXTEND
  0
POINT
  5
738B
330
72D7
100
AcDbEntity
  8
Defpoints
  6
Continuous
 62
     0
100
AcDbPoint
 10
273.9106394078261
 20
587.8793452017252
 30
0.0
  0
POINT
  5
738C
330
72D7
100
AcDbEntity
  8
Defpoints
  6
Continuous
 62
     0
100
AcDbPoint
 10
273.9106394078261
 20
525.0567229180356
 30
0.0
  0
POINT
  5
738D
330
72D7
100
AcDbEntity
  8
Defpoints
  6
Continuous
 62
     0
100
AcDbPoint
 10
273.9106394078261
 20
525.0567229180356
 30
0.0
  0
ENDBLK
  5
72E0
330
72D7
100
AcDbEntity
  8
0
100
AcDbBlockEnd
  0
BLOCK
  5
72EA
330
72E2
100
AcDbEntity
  8
0
100
AcDbBlockBegin
  2
*D11
 70
     1
 10
0.0
 20
0.0
 30
0.0
  3
*D11
  1

  0
LINE
  5
72E3
330
72E2
100
AcDbEntity
  8
寸法
  6
Continuous
 62
     4
370
    -2
100
AcDbLine
 10
579.9106394078262
 20
465.0567229180352
 30
0.0
 11
627.9106394078261
 21
465.0567229180352
 31
0.0
  0
INSERT
  5
72E4
330
72E2
100
AcDbEntity
  8
寸法
  6
Continuous
 62
     4
370
    -2
100
AcDbBlockReference
  2
_Dot
 10
578.9106394078262
 20
465.0567229180352
 30
0.0
 50
180.0
  0
INSERT
  5
72E5
330
72E2
100
AcDbEntity
  8
寸法
  6
Continuous
 62
     4
370
    -2
100
AcDbBlockReference
  2
_Dot
 10
628.910639407826
 20
465.0567229180352
 30
0.0
  0
MTEXT
  5
72E6
330
72E2
100
AcDbEntity
  8
寸法
  6
Continuous
 62
     3
100
AcDbMText
 10
603.9106394078262
 20
468.5567229180352
 30
0.0
 40
5.0
 41
0.0
 71
     5
 72
     1
  1
\A1;50
  7
ACAD
 73
     1
 44
1.0
1001
ACAD
1000
MTEXTBEGIN
1070
    73
1070
     1
1070
    44
1040
1.0
1070
    74
1070
     0
1000
MTEXTEND
  0
POINT
  5
72E7
330
72E2
100
AcDbEntity
  8
Defpoints
  6
Continuous
 62
     0
100
AcDbPoint
 10
578.9106394078262
 20
465.0567229180352
 30
0.0
  0
POINT
  5
72E8
330
72E2
100
AcDbEntity
  8
Defpoints
  6
Continuous
 62
     0
100
AcDbPoint
 10
628.910639407826
 20
465.0567229180352
 30
0.0
  0
POINT
  5
72E9
330
72E2
100
AcDbEntity
  8
Defpoints
  6
Continuous
 62
     0
100
AcDbPoint
 10
628.910639407826
 20
465.0567229180352
 30
0.0
  0
ENDBLK
  5
72EB
330
72E2
100
AcDbEntity
  8
0
100
AcDbBlockEnd
  0
BLOCK
  5
72F7
330
72ED
100
AcDbEntity
  8
0
100
AcDbBlockBegin
  2
*D12
 70
     1
 10
0.0
 20
0.0
 30
0.0
  3
*D12
  1

  0
LINE
  5
736E
330
72ED
100
AcDbEntity
  8
寸法
  6
Continuous
 62
     4
370
    -2
100
AcDbLine
 10
632.615592947022
 20
525.0567229180355
 30
0.0
 11
744.9106394078261
 21
525.0567229180355
 31
0.0
  0
LINE
  5
736F
330
72ED
100
AcDbEntity
  8
寸法
  6
Continuous
 62
     4
370
    -2
100
AcDbLine
 10
706.9106394078261
 20
482.1374560353673
 30
0.0
 11
744.9106394078261
 21
482.1374560353673
 31
0.0
  0
LINE
  5
7370
330
72ED
100
AcDbEntity
  8
寸法
  6
Continuous
 62
     4
370
    -2
100
AcDbLine
 10
744.9106394078261
 20
524.0567229180356
 30
0.0
 11
744.9106394078261
 21
483.1374560353673
 31
0.0
  0
INSERT
  5
7371
330
72ED
100
AcDbEntity
  8
寸法
  6
Continuous
 62
     4
370
    -2
100
AcDbBlockReference
  2
_Dot
 10
744.9106394078261
 20
525.0567229180355
 30
0.0
 50
90.0
  0
INSERT
  5
7372
330
72ED
100
AcDbEntity
  8
寸法
  6
Continuous
 62
     4
370
    -2
100
AcDbBlockReference
  2
_Dot
 10
744.9106394078261
 20
482.1374560353673
 30
0.0
 50
270.0
  0
MTEXT
  5
7373
330
72ED
100
AcDbEntity
  8
寸法
  6
Continuous
 62
     3
100
AcDbMText
 10
741.410639407826
 20
503.5970894767015
 30
0.0
 40
5.0
 41
0.0
 71
     5
 72
     1
  1
\A1;44
  7
ACAD
 11
0.0000000000000001
 21
1.0
 31
0.0
 73
     1
 44
1.0
1001
ACAD
1000
MTEXTBEGIN
1070
    73
1070
     1
1070
    44
1040
1.0
1070
    74
1070
     0
1000
MTEXTEND
  0
POINT
  5
7374
330
72ED
100
AcDbEntity
  8
Defpoints
  6
Continuous
 62
     0
100
AcDbPoint
 10
632.615592947022
 20
525.0567229180355
 30
0.0
  0
POINT
  5
7375
330
72ED
100
AcDbEntity
  8
Defpoints
  6
Continuous
 62
     0
100
AcDbPoint
 10
706.9106394078261
 20
482.1374560353673
 30
0.0
  0
POINT
  5
7376
330
72ED
100
AcDbEntity
  8
Defpoints
  6
Continuous
 62
     0
100
AcDbPoint
 10
744.9106394078261
 20
482.1374560353673
 30
0.0
  0
ENDBLK
  5
72F8
330
72ED
100
AcDbEntity
  8
0
100
AcDbBlockEnd
  0
BLOCK
  5
7304
330
72FA
100
AcDbEntity
  8
0
100
AcDbBlockBegin
  2
*D13
 70
     1
 10
0.0
 20
0.0
 30
0.0
  3
*D13
  1

  0
LINE
  5
72FB
330
72FA
100
AcDbEntity
  8
寸法
  6
Continuous
 62
     4
370
    -2
100
AcDbLine
 10
745.1527703923991
 20
482.0752259276244
 30
0.0
 11
764.9106394078261
 21
482.0752259276244
 31
0.0
  0
LINE
  5
72FC
330
72FA
100
AcDbEntity
  8
寸法
  6
Continuous
 62
     4
370
    -2
100
AcDbLine
 10
706.9106394078261
 20
572.1374560353674
 30
0.0
 11
764.9106394078261
 21
572.1374560353674
 31
0.0
  0
LINE
  5
72FD
330
72FA
100
AcDbEntity
  8
寸法
  6
Continuous
 62
     4
370
    -2
100
AcDbLine
 10
764.9106394078261
 20
483.0752259276244
 30
0.0
 11
764.9106394078261
 21
571.1374560353674
 31
0.0
  0
INSERT
  5
72FE
330
72FA
100
AcDbEntity
  8
寸法
  6
Continuous
 62
     4
370
    -2
100
AcDbBlockReference
  2
_Dot
 10
764.9106394078261
 20
482.0752259276244
 30
0.0
 50
270.0
  0
INSERT
  5
72FF
330
72FA
100
AcDbEntity
  8
寸法
  6
Continuous
 62
     4
370
    -2
100
AcDbBlockReference
  2
_Dot
 10
764.9106394078261
 20
572.1374560353674
 30
0.0
 50
90.0
  0
MTEXT
  5
7300
330
72FA
100
AcDbEntity
  8
寸法
  6
Continuous
 62
     3
100
AcDbMText
 10
761.410639407826
 20
527.106340981496
 30
0.0
 40
5.0
 41
0.0
 71
     5
 72
     1
  1
\A1;90
  7
ACAD
 11
0.0000000000000001
 21
1.0
 31
0.0
 73
     1
 44
1.0
1001
ACAD
1000
MTEXTBEGIN
1070
    73
1070
     1
1070
    44
1040
1.0
1070
    74
1070
     0
1000
MTEXTEND
  0
POINT
  5
7301
330
72FA
100
AcDbEntity
  8
Defpoints
  6
Continuous
 62
     0
100
AcDbPoint
 10
745.1527703923991
 20
482.0752259276244
 30
0.0
  0
POINT
  5
7302
330
72FA
100
AcDbEntity
  8
Defpoints
  6
Continuous
 62
     0
100
AcDbPoint
 10
706.9106394078261
 20
572.1374560353674
 30
0.0
  0
POINT
  5
7303
330
72FA
100
AcDbEntity
  8
Defpoints
  6
Continuous
 62
     0
100
AcDbPoint
 10
764.9106394078261
 20
572.1374560353674
 30
0.0
  0
ENDBLK
  5
7305
330
72FA
100
AcDbEntity
  8
0
100
AcDbBlockEnd
  0
BLOCK
  5
7329
330
7320
100
AcDbEntity
  8
0
100
AcDbBlockBegin
  2
*D14
 70
     1
 10
0.0
 20
0.0
 30
0.0
  3
*D14
  1

  0
LINE
  5
7377
330
7320
100
AcDbEntity
  8
寸法
  6
Continuous
 62
     4
370
    -2
100
AcDbLine
 10
704.9106394078261
 20
480.1374560353675
 30
0.0
 11
704.9106394078261
 21
400.0567229180353
 31
0.0
  0
LINE
  5
7378
330
7320
100
AcDbEntity
  8
寸法
  6
Continuous
 62
     4
370
    -2
100
AcDbLine
 10
703.910639407826
 20
400.0567229180353
 30
0.0
 11
629.9106394078265
 21
400.0567229180353
 31
0.0
  0
INSERT
  5
7379
330
7320
100
AcDbEntity
  8
寸法
  6
Continuous
 62
     4
370
    -2
100
AcDbBlockReference
  2
_Dot
 10
704.9106394078261
 20
400.0567229180353
 30
0.0
  0
INSERT
  5
737A
330
7320
100
AcDbEntity
  8
寸法
  6
Continuous
 62
     4
370
    -2
100
AcDbBlockReference
  2
_Dot
 10
628.9106394078264
 20
400.0567229180353
 30
0.0
 50
180.0
  0
MTEXT
  5
737B
330
7320
100
AcDbEntity
  8
寸法
  6
Continuous
 62
     3
100
AcDbMText
 10
666.9106394078262
 20
403.5567229180353
 30
0.0
 40
5.0
 41
0.0
 71
     5
 72
     1
  1
\A1;75≦
  7
ACAD
 73
     1
 44
1.0
1001
ACAD
1000
MTEXTBEGIN
1070
    73
1070
     1
1070
    44
1040
1.0
1070
    74
1070
     0
1000
MTEXTEND
  0
POINT
  5
737C
330
7320
100
AcDbEntity
  8
Defpoints
  6
Continuous
 62
     0
100
AcDbPoint
 10
704.9106394078261
 20
480.1374560353675
 30
0.0
  0
POINT
  5
737D
330
7320
100
AcDbEntity
  8
Defpoints
  6
Continuous
 62
     0
100
AcDbPoint
 10
628.9106394078264
 20
400.0567229180353
 30
0.0
  0
POINT
  5
737E
330
7320
100
AcDbEntity
  8
Defpoints
  6
Continuous
 62
     0
100
AcDbPoint
 10
628.9106394078264
 20
400.0567229180353
 30
0.0
  0
ENDBLK
  5
732A
330
7320
100
AcDbEntity
  8
0
100
AcDbBlockEnd
  0
BLOCK
  5
7335
330
732C
100
AcDbEntity
  8
0
100
AcDbBlockBegin
  2
*D15
 70
     1
 10
0.0
 20
0.0
 30
0.0
  3
*D15
  1

  0
LINE
  5
737F
330
732C
100
AcDbEntity
  8
寸法
  6
Continuous
 62
     4
370
    -2
100
AcDbLine
 10
629.087829062221
 20
400.2330856872795
 30
0.0
 11
629.087829062221
 21
400.0567229180353
 31
0.0
  0
LINE
  5
7380
330
732C
100
AcDbEntity
  8
寸法
  6
Continuous
 62
     4
370
    -2
100
AcDbLine
 10
628.0878290622211
 20
400.0567229180353
 30
0.0
 11
479.9106394078263
 21
400.0567229180353
 31
0.0
  0
INSERT
  5
7381
330
732C
100
AcDbEntity
  8
寸法
  6
Continuous
 62
     4
370
    -2
100
AcDbBlockReference
  2
_Dot
 10
629.087829062221
 20
400.0567229180353
 30
0.0
  0
INSERT
  5
7382
330
732C
100
AcDbEntity
  8
寸法
  6
Continuous
 62
     4
370
    -2
100
AcDbBlockReference
  2
_Dot
 10
478.9106394078263
 20
400.0567229180353
 30
0.0
 50
180.0
  0
MTEXT
  5
7383
330
732C
100
AcDbEntity
  8
寸法
  6
Continuous
 62
     3
100
AcDbMText
 10
553.9992342350237
 20
403.5567229180353
 30
0.0
 40
5.0
 41
0.0
 71
     5
 72
     1
  1
\A1;≦C
  7
ACAD
 73
     1
 44
1.0
1001
ACAD
1000
MTEXTBEGIN
1070
    73
1070
     1
1070
    44
1040
1.0
1070
    74
1070
     0
1000
MTEXTEND
  0
POINT
  5
7384
330
732C
100
AcDbEntity
  8
Defpoints
  6
Continuous
 62
     0
100
AcDbPoint
 10
629.087829062221
 20
400.2330856872795
 30
0.0
  0
POINT
  5
7385
330
732C
100
AcDbEntity
  8
Defpoints
  6
Continuous
 62
     0
100
AcDbPoint
 10
478.9106394078263
 20
400.0567229180353
 30
0.0
  0
POINT
  5
7386
330
732C
100
AcDbEntity
  8
Defpoints
  6
Continuous
 62
     0
100
AcDbPoint
 10
478.9106394078263
 20
400.0567229180353
 30
0.0
  0
ENDBLK
  5
7336
330
732C
100
AcDbEntity
  8
0
100
AcDbBlockEnd
  0
BLOCK
  5
7341
330
7338
100
AcDbEntity
  8
0
100
AcDbBlockBegin
  2
*D16
 70
     1
 10
0.0
 20
0.0
 30
0.0
  3
*D16
  1

  0
LINE
  5
7339
330
7338
100
AcDbEntity
  8
寸法
  6
Continuous
 62
     4
370
    -2
100
AcDbLine
 10
479.152103325954
 20
400.1214930982297
 30
0.0
 11
479.152103325954
 21
400.0567229180353
 31
0.0
  0
LINE
  5
733A
330
7338
100
AcDbEntity
  8
寸法
  6
Continuous
 62
     4
370
    -2
100
AcDbLine
 10
478.152103325954
 20
400.0567229180353
 30
0.0
 11
329.9106394078263
 21
400.0567229180353
 31
0.0
  0
INSERT
  5
733B
330
7338
100
AcDbEntity
  8
寸法
  6
Continuous
 62
     4
370
    -2
100
AcDbBlockReference
  2
_Dot
 10
479.152103325954
 20
400.0567229180353
 30
0.0
  0
INSERT
  5
733C
330
7338
100
AcDbEntity
  8
寸法
  6
Continuous
 62
     4
370
    -2
100
AcDbBlockReference
  2
_Dot
 10
328.9106394078262
 20
400.0567229180353
 30
0.0
 50
180.0
  0
MTEXT
  5
733D
330
7338
100
AcDbEntity
  8
寸法
  6
Continuous
 62
     3
100
AcDbMText
 10
404.0313713668901
 20
403.5567229180353
 30
0.0
 40
5.0
 41
0.0
 71
     5
 72
     1
  1
\A1;150
  7
ACAD
 73
     1
 44
1.0
1001
ACAD
1000
MTEXTBEGIN
1070
    73
1070
     1
1070
    44
1040
1.0
1070
    74
1070
     0
1000
MTEXTEND
  0
POINT
  5
733E
330
7338
100
AcDbEntity
  8
Defpoints
  6
Continuous
 62
     0
100
AcDbPoint
 10
479.152103325954
 20
400.1214930982297
 30
0.0
  0
POINT
  5
733F
330
7338
100
AcDbEntity
  8
Defpoints
  6
Continuous
 62
     0
100
AcDbPoint
 10
328.9106394078262
 20
400.0567229180353
 30
0.0
  0
POINT
  5
7340
330
7338
100
AcDbEntity
  8
Defpoints
  6
Continuous
 62
     0
100
AcDbPoint
 10
328.9106394078262
 20
400.0567229180353
 30
0.0
  0
ENDBLK
  5
7342
330
7338
100
AcDbEntity
  8
0
100
AcDbBlockEnd
  0
BLOCK
  5
734E
330
7344
100
AcDbEntity
  8
0
100
AcDbBlockBegin
  2
*D17
 70
     1
 10
0.0
 20
0.0
 30
0.0
  3
*D17
  1

  0
LINE
  5
7345
330
7344
100
AcDbEntity
  8
寸法
  6
Continuous
 62
     4
370
    -2
100
AcDbLine
 10
365.4106394078261
 20
595.8793452017252
 30
0.0
 11
398.1606394078261
 21
595.8793452017252
 31
0.0
  0
LINE
  5
7346
330
7344
100
AcDbEntity
  8
寸法
  6
Continuous
 62
     4
370
    -2
100
AcDbLine
 10
365.4106394078261
 20
631.879345201725
 30
0.0
 11
398.1606394078261
 21
631.879345201725
 31
0.0
  0
LINE
  5
7347
330
7344
100
AcDbEntity
  8
寸法
  6
Continuous
 62
     4
370
    -2
100
AcDbLine
 10
398.1606394078261
 20
596.8793452017252
 30
0.0
 11
398.1606394078261
 21
630.879345201725
 31
0.0
  0
INSERT
  5
7348
330
7344
100
AcDbEntity
  8
寸法
  6
Continuous
 62
     4
370
    -2
100
AcDbBlockReference
  2
_Dot
 10
398.1606394078261
 20
595.8793452017252
 30
0.0
 50
270.0
  0
INSERT
  5
7349
330
7344
100
AcDbEntity
  8
寸法
  6
Continuous
 62
     4
370
    -2
100
AcDbBlockReference
  2
_Dot
 10
398.1606394078261
 20
631.879345201725
 30
0.0
 50
90.0
  0
MTEXT
  5
734A
330
7344
100
AcDbEntity
  8
寸法
  6
Continuous
 62
     3
100
AcDbMText
 10
394.6606394078261
 20
613.8793452017253
 30
0.0
 40
5.0
 41
0.0
 71
     5
 72
     1
  1
\A1;36
  7
ACAD
 11
0.0000000000000001
 21
1.0
 31
0.0
 73
     1
 44
1.0
1001
ACAD
1000
MTEXTBEGIN
1070
    73
1070
     1
1070
    44
1040
1.0
1070
    74
1070
     0
1000
MTEXTEND
  0
POINT
  5
734B
330
7344
100
AcDbEntity
  8
Defpoints
  6
Continuous
 62
     0
100
AcDbPoint
 10
365.4106394078261
 20
595.8793452017252
 30
0.0
  0
POINT
  5
734C
330
7344
100
AcDbEntity
  8
Defpoints
  6
Continuous
 62
     0
100
AcDbPoint
 10
365.4106394078261
 20
631.879345201725
 30
0.0
  0
POINT
  5
734D
330
7344
100
AcDbEntity
  8
Defpoints
  6
Continuous
 62
     0
100
AcDbPoint
 10
398.1606394078261
 20
631.879345201725
 30
0.0
  0
ENDBLK
  5
734F
330
7344
100
AcDbEntity
  8
0
100
AcDbBlockEnd
  0
ENDSEC
  0
SECTION
  2
ENTITIES
  0
TEXT
  5
6D09
330
1E
100
AcDbEntity
  8
図枠
 62
     7
100
AcDbText
 10
783.9106394078261
 20
374.4534612775354
 30
0.0
 40
5.0
  1
（単位：mm）
100
AcDbText
  0
TEXT
  5
6D0A
330
1E
100
AcDbEntity
  8
図枠
 62
     7
100
AcDbText
 10
518.9106394078261
 20
374.4534612775354
 30
0.0
 40
5.0
  1
（2000mmセット）
100
AcDbText
  0
TEXT
  5
6D0B
330
1E
100
AcDbEntity
  8
図枠
 62
     7
100
AcDbText
 10
450.9106394078262
 20
374.4534612775354
 30
0.0
 40
5.0
  1
（3000mmセット）
100
AcDbText
  0
LINE
  5
6D0C
330
1E
100
AcDbEntity
  8
図枠
  6
Continuous
 62
     7
100
AcDbLine
 10
512.9106394078262
 20
373.7465284359593
 30
0.0
 11
579.9106394078262
 21
373.7465284359593
 31
0.0
  0
ARC
  5
6D0D
330
1E
100
AcDbEntity
  8
躯体と製品
  6
Continuous
 62
     7
100
AcDbCircle
 10
478.9106394078262
 20
524.0567229180353
 30
0.0
 40
2.0
100
AcDbArc
 50
90.0
 51
175.0000000000001
  0
LINE
  5
6D0E
330
1E
100
AcDbEntity
  8
躯体と製品
  6
Continuous
 62
     7
100
AcDbLine
 10
478.9106394078262
 20
526.0567229180353
 30
0.0
 11
557.9106394078263
 21
526.0567229180353
 31
0.0
  0
LINE
  5
6D0F
330
1E
100
AcDbEntity
  8
図枠
  6
Continuous
 62
     7
100
AcDbLine
 10
117.9106394078262
 20
145.7465284359592
 30
0.0
 11
941.910639407826
 21
145.7465284359592
 31
0.0
  0
LINE
  5
6D10
330
1E
100
AcDbEntity
  8
図枠
  6
Continuous
 62
     7
100
AcDbLine
 10
941.910639407826
 20
145.7465284359592
 30
0.0
 11
941.910639407826
 21
721.7465284359591
 31
0.0
  0
LINE
  5
6D11
330
1E
100
AcDbEntity
  8
図枠
  6
Continuous
 62
     7
100
AcDbLine
 10
941.910639407826
 20
721.7465284359591
 30
0.0
 11
117.9106394078262
 21
721.7465284359591
 31
0.0
  0
LINE
  5
6D12
330
1E
100
AcDbEntity
  8
図枠
  6
Continuous
 62
     7
100
AcDbLine
 10
117.9106394078262
 20
721.7465284359591
 30
0.0
 11
117.9106394078262
 21
145.7465284359592
 31
0.0
  0
TEXT
  5
6D13
330
1E
100
AcDbEntity
  8
図枠
 62
     7
100
AcDbText
 10
285.4106394078262
 20
366.2465284359592
 30
0.0
 40
5.0
  1
部材名称
100
AcDbText
  0
TEXT
  5
6D14
330
1E
100
AcDbEntity
  8
図枠
 62
     7
100
AcDbText
 10
386.410639407826
 20
366.2465284359592
 30
0.0
 40
5.0
  1
規　格
100
AcDbText
  0
TEXT
  5
6D15
330
1E
100
AcDbEntity
  8
図枠
 62
     7
100
AcDbText
 10
253.910639407826
 20
357.2465284359592
 30
0.0
 40
5.0
  1
ＦＹＫキャップＡ
100
AcDbText
  0
TEXT
  5
6D16
330
1E
100
AcDbEntity
  8
図枠
 62
     7
100
AcDbText
 10
253.910639407826
 20
348.2465284359593
 30
0.0
 40
5.0
  1
ＦＹＫサイドキャップＡ
100
AcDbText
  0
TEXT
  5
6D17
330
1E
100
AcDbEntity
  8
図枠
 62
     7
100
AcDbText
 10
253.910639407826
 20
339.2465284359591
 30
0.0
 40
5.0
  1
ＦＹＹフレーム
100
AcDbText
  0
TEXT
  5
6D18
330
1E
100
AcDbEntity
  8
図枠
 62
     7
100
AcDbText
 10
253.910639407826
 20
330.2465284359592
 30
0.0
 40
5.0
  1
ＦＹＫ壁フレーム
100
AcDbText
  0
TEXT
  5
6D19
330
1E
100
AcDbEntity
  8
図枠
 62
     7
100
AcDbText
 10
253.910639407826
 20
312.2465284359592
 30
0.0
 40
5.0
  1
ＦＹＫホルダー
100
AcDbText
  0
TEXT
  5
6D1A
330
1E
100
AcDbEntity
  8
図枠
 62
     7
100
AcDbText
 10
253.910639407826
 20
303.2465284359592
 30
0.0
 40
5.0
  1
ＦＹＹホルダースプリング
100
AcDbText
  0
TEXT
  5
6D1B
330
1E
100
AcDbEntity
  8
図枠
 62
     7
100
AcDbText
 10
253.910639407826
 20
294.2465284359593
 30
0.0
 40
5.0
  1
ＦＹＹフレームナット
100
AcDbText
  0
TEXT
  5
6D1C
330
1E
100
AcDbEntity
  8
図枠
 62
     7
100
AcDbText
 10
253.910639407826
 20
285.2465284359592
 30
0.0
 40
5.0
  1
ＦＹＫ水切ジョイント
100
AcDbText
  0
TEXT
  5
6D1D
330
1E
100
AcDbEntity
  8
図枠
 62
     7
100
AcDbText
 10
253.910639407826
 20
276.2465284359592
 30
0.0
 40
5.0
  1
ＦＹＫｻｲﾄﾞｷｬｯﾌﾟ ｼﾞｮｲﾝﾄ
100
AcDbText
  0
TEXT
  5
6D1E
330
1E
100
AcDbEntity
  8
図枠
 62
     7
100
AcDbText
 10
253.910639407826
 20
267.2465284359593
 30
0.0
 40
5.0
  1
止水補助板
100
AcDbText
  0
TEXT
  5
6D1F
330
1E
100
AcDbEntity
  8
図枠
 62
     7
100
AcDbText
 10
353.9106394078261
 20
267.2465284359593
 30
0.0
 40
5.0
  1
ＰＳ
100
AcDbText
  0
TEXT
  5
6D20
330
1E
100
AcDbEntity
  8
図枠
 62
     7
100
AcDbText
 10
253.910639407826
 20
258.2465284359592
 30
0.0
 40
5.0
  1
止水補助板
100
AcDbText
  0
TEXT
  5
6D21
330
1E
100
AcDbEntity
  8
図枠
 62
     7
100
AcDbText
 10
253.910639407826
 20
249.2465284359592
 30
0.0
 40
5.0
  1
ガスケットＮ
100
AcDbText
  0
TEXT
  5
6D22
330
1E
100
AcDbEntity
  8
図枠
 62
     7
100
AcDbText
 10
253.910639407826
 20
240.2465284359593
 30
0.0
 40
5.0
  1
ステン小ネジ
100
AcDbText
  0
TEXT
  5
6D23
330
1E
100
AcDbEntity
  8
図枠
 62
     7
100
AcDbText
 10
353.9106394078261
 20
240.2465284359593
 30
0.0
 40
5.0
  1
ナベＭ6×35
100
AcDbText
  0
TEXT
  5
6D24
330
1E
100
AcDbEntity
  8
図枠
 62
     7
100
AcDbText
 10
253.910639407826
 20
231.2465284359593
 30
0.0
 40
5.0
  1
ステン小ネジ
100
AcDbText
  0
TEXT
  5
6D25
330
1E
100
AcDbEntity
  8
図枠
 62
     7
100
AcDbText
 10
353.9106394078261
 20
231.2465284359593
 30
0.0
 40
5.0
  1
ナベＭ4×10
100
AcDbText
  0
TEXT
  5
6D26
330
1E
100
AcDbEntity
  8
図枠
 62
     7
100
AcDbText
 10
253.910639407826
 20
222.2465284359593
 30
0.0
 40
5.0
  1
ステン六角ボルト
100
AcDbText
  0
TEXT
  5
6D27
330
1E
100
AcDbEntity
  8
図枠
 62
     7
100
AcDbText
 10
353.9106394078261
 20
222.2465284359593
 30
0.0
 40
5.0
  1
Ｍ6×40
100
AcDbText
  0
TEXT
  5
6D28
330
1E
100
AcDbEntity
  8
図枠
 62
     7
100
AcDbText
 10
253.910639407826
 20
213.2465284359593
 30
0.0
 40
5.0
  1
アジャストアンカー
100
AcDbText
  0
TEXT
  5
6D29
330
1E
100
AcDbEntity
  8
図枠
 62
     7
100
AcDbText
 10
353.9106394078261
 20
213.2465284359593
 30
0.0
 40
5.0
  1
ＡＧ－660
100
AcDbText
  0
TEXT
  5
6D2A
330
1E
100
AcDbEntity
  8
図枠
 62
     7
100
AcDbText
 10
253.910639407826
 20
204.2465284359593
 30
0.0
 40
5.0
  1
アンカープラグ
100
AcDbText
  0
TEXT
  5
6D2B
330
1E
100
AcDbEntity
  8
図枠
 62
     7
100
AcDbText
 10
353.9106394078261
 20
204.2465284359593
 30
0.0
 40
5.0
  1
フィッシャープラグ　Ｓ8
100
AcDbText
  0
TEXT
  5
6D2C
330
1E
100
AcDbEntity
  8
図枠
 62
     7
100
AcDbText
 10
253.910639407826
 20
195.2465284359593
 30
0.0
 40
5.0
  1
ステンタッピンねじ
100
AcDbText
  0
TEXT
  5
6D2D
330
1E
100
AcDbEntity
  8
図枠
 62
     7
100
AcDbText
 10
353.9106394078261
 20
195.2465284359593
 30
0.0
 40
5.0
  1
ナベ 5×50
100
AcDbText
  0
TEXT
  5
6D2E
330
1E
100
AcDbEntity
  8
図枠
 62
     7
100
AcDbText
 10
253.910639407826
 20
186.2465284359593
 30
0.0
 40
5.0
  1
ステスワッシャー
100
AcDbText
  0
TEXT
  5
6D2F
330
1E
100
AcDbEntity
  8
図枠
 62
     7
100
AcDbText
 10
353.9106394078261
 20
186.2465284359593
 30
0.0
 40
5.0
  1
1.5×18×6.5穴
100
AcDbText
  0
TEXT
  5
6D30
330
1E
100
AcDbEntity
  8
図枠
 62
     7
100
AcDbText
 10
253.910639407826
 20
177.2465284359592
 30
0.0
 40
5.0
  1
ステンワッシャー
100
AcDbText
  0
TEXT
  5
6D31
330
1E
100
AcDbEntity
  8
図枠
 62
     7
100
AcDbText
 10
353.9106394078261
 20
177.2465284359592
 30
0.0
 40
5.0
  1
1.5×18×5.5穴
100
AcDbText
  0
TEXT
  5
6D32
330
1E
100
AcDbEntity
  8
図枠
 62
     7
100
AcDbText
 10
253.910639407826
 20
168.2465284359592
 30
0.0
 40
5.0
  1
ブチルテープ
100
AcDbText
  0
LINE
  5
6D33
330
1E
100
AcDbEntity
  8
図枠
  6
Continuous
 62
     7
100
AcDbLine
 10
248.910639407826
 20
166.7465284359592
 30
0.0
 11
248.910639407826
 21
373.7465284359593
 31
0.0
  0
LINE
  5
6D34
330
1E
100
AcDbEntity
  8
図枠
  6
Continuous
 62
     7
100
AcDbLine
 10
348.9106394078261
 20
166.7465284359592
 30
0.0
 11
348.9106394078261
 21
373.7465284359593
 31
0.0
  0
LINE
  5
6D35
330
1E
100
AcDbEntity
  8
図枠
  6
Continuous
 62
     7
100
AcDbLine
 10
443.9106394078261
 20
166.7465284359592
 30
0.0
 11
443.9106394078261
 21
373.7465284359593
 31
0.0
  0
LINE
  5
6D36
330
1E
100
AcDbEntity
  8
図枠
  6
Continuous
 62
     7
100
AcDbLine
 10
444.9106394078262
 20
166.7465284359592
 30
0.0
 11
444.9106394078262
 21
373.7465284359593
 31
0.0
  0
LINE
  5
6D37
330
1E
100
AcDbEntity
  8
図枠
  6
Continuous
 62
     7
100
AcDbLine
 10
479.9106394078261
 20
166.7465284359592
 30
0.0
 11
479.9106394078261
 21
373.7465284359593
 31
0.0
  0
LINE
  5
6D38
330
1E
100
AcDbEntity
  8
図枠
  6
Continuous
 62
     7
100
AcDbLine
 10
497.9106394078261
 20
166.7465284359592
 30
0.0
 11
497.9106394078261
 21
373.7465284359593
 31
0.0
  0
LINE
  5
6D39
330
1E
100
AcDbEntity
  8
図枠
  6
Continuous
 62
     7
100
AcDbLine
 10
443.9106394078261
 20
373.7465284359593
 30
0.0
 11
234.9106394078259
 21
373.7465284359593
 31
0.0
  0
LINE
  5
6D3A
330
1E
100
AcDbEntity
  8
図枠
  6
Continuous
 62
     7
100
AcDbLine
 10
443.9106394078261
 20
364.7465284359593
 30
0.0
 11
234.9106394078259
 21
364.7465284359593
 31
0.0
  0
LINE
  5
6D3B
330
1E
100
AcDbEntity
  8
図枠
  6
Continuous
 62
     7
100
AcDbLine
 10
443.9106394078261
 20
355.7465284359592
 30
0.0
 11
234.9106394078259
 21
355.7465284359592
 31
0.0
  0
LINE
  5
6D3C
330
1E
100
AcDbEntity
  8
図枠
  6
Continuous
 62
     7
100
AcDbLine
 10
443.9106394078261
 20
346.7465284359593
 30
0.0
 11
234.9106394078259
 21
346.7465284359593
 31
0.0
  0
LINE
  5
6D3D
330
1E
100
AcDbEntity
  8
図枠
  6
Continuous
 62
     7
100
AcDbLine
 10
443.9106394078261
 20
337.7465284359593
 30
0.0
 11
234.9106394078259
 21
337.7465284359593
 31
0.0
  0
LINE
  5
6D3E
330
1E
100
AcDbEntity
  8
図枠
  6
Continuous
 62
     7
100
AcDbLine
 10
443.9106394078261
 20
328.7465284359592
 30
0.0
 11
234.9106394078259
 21
328.7465284359592
 31
0.0
  0
LINE
  5
6D3F
330
1E
100
AcDbEntity
  8
図枠
  6
Continuous
 62
     7
100
AcDbLine
 10
443.9106394078261
 20
319.7465284359592
 30
0.0
 11
234.9106394078259
 21
319.7465284359592
 31
0.0
  0
LINE
  5
6D40
330
1E
100
AcDbEntity
  8
図枠
  6
Continuous
 62
     7
100
AcDbLine
 10
443.9106394078261
 20
310.7465284359593
 30
0.0
 11
234.9106394078259
 21
310.7465284359593
 31
0.0
  0
LINE
  5
6D41
330
1E
100
AcDbEntity
  8
図枠
  6
Continuous
 62
     7
100
AcDbLine
 10
443.9106394078261
 20
301.7465284359592
 30
0.0
 11
234.9106394078259
 21
301.7465284359592
 31
0.0
  0
LINE
  5
6D42
330
1E
100
AcDbEntity
  8
図枠
  6
Continuous
 62
     7
100
AcDbLine
 10
443.9106394078261
 20
292.7465284359593
 30
0.0
 11
234.9106394078259
 21
292.7465284359593
 31
0.0
  0
LINE
  5
6D43
330
1E
100
AcDbEntity
  8
図枠
  6
Continuous
 62
     7
100
AcDbLine
 10
443.9106394078261
 20
283.7465284359593
 30
0.0
 11
234.9106394078259
 21
283.7465284359593
 31
0.0
  0
LINE
  5
6D44
330
1E
100
AcDbEntity
  8
図枠
  6
Continuous
 62
     7
100
AcDbLine
 10
443.9106394078261
 20
274.7465284359592
 30
0.0
 11
234.9106394078259
 21
274.7465284359592
 31
0.0
  0
LINE
  5
6D45
330
1E
100
AcDbEntity
  8
図枠
  6
Continuous
 62
     7
100
AcDbLine
 10
443.9106394078261
 20
265.7465284359592
 30
0.0
 11
234.9106394078259
 21
265.7465284359592
 31
0.0
  0
LINE
  5
6D46
330
1E
100
AcDbEntity
  8
図枠
  6
Continuous
 62
     7
100
AcDbLine
 10
443.9106394078261
 20
256.7465284359593
 30
0.0
 11
234.9106394078259
 21
256.7465284359593
 31
0.0
  0
LINE
  5
6D47
330
1E
100
AcDbEntity
  8
図枠
  6
Continuous
 62
     7
100
AcDbLine
 10
443.9106394078261
 20
247.7465284359592
 30
0.0
 11
234.9106394078259
 21
247.7465284359592
 31
0.0
  0
LINE
  5
6D48
330
1E
100
AcDbEntity
  8
図枠
  6
Continuous
 62
     7
100
AcDbLine
 10
443.9106394078261
 20
238.7465284359592
 30
0.0
 11
234.9106394078259
 21
238.7465284359592
 31
0.0
  0
LINE
  5
6D49
330
1E
100
AcDbEntity
  8
図枠
  6
Continuous
 62
     7
100
AcDbLine
 10
443.9106394078261
 20
229.7465284359593
 30
0.0
 11
234.9106394078259
 21
229.7465284359593
 31
0.0
  0
LINE
  5
6D4A
330
1E
100
AcDbEntity
  8
図枠
  6
Continuous
 62
     7
100
AcDbLine
 10
443.9106394078261
 20
220.7465284359593
 30
0.0
 11
234.9106394078259
 21
220.7465284359593
 31
0.0
  0
LINE
  5
6D4B
330
1E
100
AcDbEntity
  8
図枠
  6
Continuous
 62
     7
100
AcDbLine
 10
443.9106394078261
 20
211.7465284359593
 30
0.0
 11
234.9106394078259
 21
211.7465284359593
 31
0.0
  0
LINE
  5
6D4C
330
1E
100
AcDbEntity
  8
図枠
  6
Continuous
 62
     7
100
AcDbLine
 10
443.9106394078261
 20
202.7465284359593
 30
0.0
 11
234.9106394078259
 21
202.7465284359593
 31
0.0
  0
LINE
  5
6D4D
330
1E
100
AcDbEntity
  8
図枠
  6
Continuous
 62
     7
100
AcDbLine
 10
443.9106394078261
 20
193.7465284359593
 30
0.0
 11
234.9106394078259
 21
193.7465284359593
 31
0.0
  0
LINE
  5
6D4E
330
1E
100
AcDbEntity
  8
図枠
  6
Continuous
 62
     7
100
AcDbLine
 10
443.9106394078261
 20
184.7465284359593
 30
0.0
 11
234.9106394078259
 21
184.7465284359593
 31
0.0
  0
LINE
  5
6D4F
330
1E
100
AcDbEntity
  8
図枠
  6
Continuous
 62
     7
100
AcDbLine
 10
443.9106394078261
 20
175.7465284359592
 30
0.0
 11
234.9106394078259
 21
175.7465284359592
 31
0.0
  0
LINE
  5
6D50
330
1E
100
AcDbEntity
  8
図枠
  6
Continuous
 62
     7
100
AcDbLine
 10
443.9106394078261
 20
166.7465284359592
 30
0.0
 11
234.9106394078259
 21
166.7465284359592
 31
0.0
  0
LINE
  5
6D51
330
1E
100
AcDbEntity
  8
図枠
  6
Continuous
 62
     7
100
AcDbLine
 10
234.9106394078259
 20
166.7465284359592
 30
0.0
 11
234.9106394078259
 21
373.7465284359593
 31
0.0
  0
TEXT
  5
6D52
330
1E
100
AcDbEntity
  8
図枠
 62
     7
100
AcDbText
 10
236.910639407826
 20
366.2465284359592
 30
0.0
 40
5.0
  1
No.
100
AcDbText
  0
TEXT
  5
6D53
330
1E
100
AcDbEntity
  8
図枠
 62
     7
100
AcDbText
 10
238.660639407826
 20
357.2465284359592
 30
0.0
 40
5.0
  1
 1
100
AcDbText
  0
TEXT
  5
6D54
330
1E
100
AcDbEntity
  8
図枠
 62
     7
100
AcDbText
 10
238.660639407826
 20
348.2465284359593
 30
0.0
 40
5.0
  1
 2
100
AcDbText
  0
TEXT
  5
6D55
330
1E
100
AcDbEntity
  8
図枠
 62
     7
100
AcDbText
 10
238.660639407826
 20
339.2465284359591
 30
0.0
 40
5.0
  1
 3
100
AcDbText
  0
TEXT
  5
6D56
330
1E
100
AcDbEntity
  8
図枠
 62
     7
100
AcDbText
 10
238.660639407826
 20
330.2465284359592
 30
0.0
 40
5.0
  1
 4
100
AcDbText
  0
TEXT
  5
6D57
330
1E
100
AcDbEntity
  8
図枠
 62
     7
100
AcDbText
 10
238.660639407826
 20
321.2465284359593
 30
0.0
 40
5.0
  1
 5
100
AcDbText
  0
TEXT
  5
6D58
330
1E
100
AcDbEntity
  8
図枠
 62
     7
100
AcDbText
 10
238.660639407826
 20
312.2465284359592
 30
0.0
 40
5.0
  1
 6
100
AcDbText
  0
TEXT
  5
6D59
330
1E
100
AcDbEntity
  8
図枠
 62
     7
100
AcDbText
 10
238.660639407826
 20
303.2465284359592
 30
0.0
 40
5.0
  1
 7
100
AcDbText
  0
TEXT
  5
6D5A
330
1E
100
AcDbEntity
  8
図枠
 62
     7
100
AcDbText
 10
238.660639407826
 20
294.2465284359593
 30
0.0
 40
5.0
  1
 8
100
AcDbText
  0
TEXT
  5
6D5B
330
1E
100
AcDbEntity
  8
図枠
 62
     7
100
AcDbText
 10
238.660639407826
 20
285.2465284359592
 30
0.0
 40
5.0
  1
 9
100
AcDbText
  0
TEXT
  5
6D5C
330
1E
100
AcDbEntity
  8
図枠
 62
     7
100
AcDbText
 10
238.660639407826
 20
276.2465284359592
 30
0.0
 40
5.0
  1
10
100
AcDbText
  0
TEXT
  5
6D5D
330
1E
100
AcDbEntity
  8
図枠
 62
     7
100
AcDbText
 10
238.660639407826
 20
267.2465284359593
 30
0.0
 40
5.0
  1
11
100
AcDbText
  0
TEXT
  5
6D5E
330
1E
100
AcDbEntity
  8
図枠
 62
     7
100
AcDbText
 10
238.660639407826
 20
258.2465284359592
 30
0.0
 40
5.0
  1
12
100
AcDbText
  0
TEXT
  5
6D5F
330
1E
100
AcDbEntity
  8
図枠
 62
     7
100
AcDbText
 10
238.660639407826
 20
249.2465284359592
 30
0.0
 40
5.0
  1
13
100
AcDbText
  0
TEXT
  5
6D60
330
1E
100
AcDbEntity
  8
図枠
 62
     7
100
AcDbText
 10
238.660639407826
 20
240.2465284359593
 30
0.0
 40
5.0
  1
14
100
AcDbText
  0
TEXT
  5
6D61
330
1E
100
AcDbEntity
  8
図枠
 62
     7
100
AcDbText
 10
238.660639407826
 20
231.2465284359593
 30
0.0
 40
5.0
  1
15
100
AcDbText
  0
TEXT
  5
6D62
330
1E
100
AcDbEntity
  8
図枠
 62
     7
100
AcDbText
 10
238.660639407826
 20
222.2465284359593
 30
0.0
 40
5.0
  1
16
100
AcDbText
  0
TEXT
  5
6D63
330
1E
100
AcDbEntity
  8
図枠
 62
     7
100
AcDbText
 10
238.660639407826
 20
213.2465284359593
 30
0.0
 40
5.0
  1
17
100
AcDbText
  0
TEXT
  5
6D64
330
1E
100
AcDbEntity
  8
図枠
 62
     7
100
AcDbText
 10
238.660639407826
 20
204.2465284359593
 30
0.0
 40
5.0
  1
18
100
AcDbText
  0
TEXT
  5
6D65
330
1E
100
AcDbEntity
  8
図枠
 62
     7
100
AcDbText
 10
238.660639407826
 20
195.2465284359593
 30
0.0
 40
5.0
  1
19
100
AcDbText
  0
TEXT
  5
6D66
330
1E
100
AcDbEntity
  8
図枠
 62
     7
100
AcDbText
 10
238.660639407826
 20
186.2465284359593
 30
0.0
 40
5.0
  1
20
100
AcDbText
  0
TEXT
  5
6D67
330
1E
100
AcDbEntity
  8
図枠
 62
     7
100
AcDbText
 10
238.660639407826
 20
177.2465284359592
 30
0.0
 40
5.0
  1
21
100
AcDbText
  0
TEXT
  5
6D68
330
1E
100
AcDbEntity
  8
図枠
 62
     7
100
AcDbText
 10
238.910639407826
 20
168.2465284359592
 30
0.0
 40
5.0
  1
※
100
AcDbText
  0
LINE
  5
6D69
330
1E
100
AcDbEntity
  8
図枠
  6
Continuous
 62
     7
100
AcDbLine
 10
511.9106394078261
 20
373.7465284359593
 30
0.0
 11
444.9106394078262
 21
373.7465284359593
 31
0.0
  0
LINE
  5
6D6A
330
1E
100
AcDbEntity
  8
図枠
  6
Continuous
 62
     7
100
AcDbLine
 10
511.9106394078261
 20
364.7465284359593
 30
0.0
 11
444.9106394078262
 21
364.7465284359593
 31
0.0
  0
LINE
  5
6D6B
330
1E
100
AcDbEntity
  8
図枠
  6
Continuous
 62
     7
100
AcDbLine
 10
511.9106394078261
 20
355.7465284359592
 30
0.0
 11
444.9106394078262
 21
355.7465284359592
 31
0.0
  0
LINE
  5
6D6C
330
1E
100
AcDbEntity
  8
図枠
  6
Continuous
 62
     7
100
AcDbLine
 10
511.9106394078261
 20
346.7465284359593
 30
0.0
 11
444.9106394078262
 21
346.7465284359593
 31
0.0
  0
LINE
  5
6D6D
330
1E
100
AcDbEntity
  8
図枠
  6
Continuous
 62
     7
100
AcDbLine
 10
511.9106394078261
 20
337.7465284359593
 30
0.0
 11
444.9106394078262
 21
337.7465284359593
 31
0.0
  0
LINE
  5
6D6E
330
1E
100
AcDbEntity
  8
図枠
  6
Continuous
 62
     7
100
AcDbLine
 10
511.9106394078261
 20
328.7465284359592
 30
0.0
 11
444.9106394078262
 21
328.7465284359592
 31
0.0
  0
LINE
  5
6D6F
330
1E
100
AcDbEntity
  8
図枠
  6
Continuous
 62
     7
100
AcDbLine
 10
511.9106394078261
 20
319.7465284359592
 30
0.0
 11
444.9106394078262
 21
319.7465284359592
 31
0.0
  0
LINE
  5
6D70
330
1E
100
AcDbEntity
  8
図枠
  6
Continuous
 62
     7
100
AcDbLine
 10
511.9106394078261
 20
310.7465284359593
 30
0.0
 11
444.9106394078262
 21
310.7465284359593
 31
0.0
  0
LINE
  5
6D71
330
1E
100
AcDbEntity
  8
図枠
  6
Continuous
 62
     7
100
AcDbLine
 10
511.9106394078261
 20
301.7465284359592
 30
0.0
 11
444.9106394078262
 21
301.7465284359592
 31
0.0
  0
LINE
  5
6D72
330
1E
100
AcDbEntity
  8
図枠
  6
Continuous
 62
     7
100
AcDbLine
 10
511.9106394078261
 20
292.7465284359593
 30
0.0
 11
444.9106394078262
 21
292.7465284359593
 31
0.0
  0
LINE
  5
6D73
330
1E
100
AcDbEntity
  8
図枠
  6
Continuous
 62
     7
100
AcDbLine
 10
511.9106394078261
 20
283.7465284359593
 30
0.0
 11
444.9106394078262
 21
283.7465284359593
 31
0.0
  0
LINE
  5
6D74
330
1E
100
AcDbEntity
  8
図枠
  6
Continuous
 62
     7
100
AcDbLine
 10
511.9106394078261
 20
274.7465284359592
 30
0.0
 11
444.9106394078262
 21
274.7465284359592
 31
0.0
  0
LINE
  5
6D75
330
1E
100
AcDbEntity
  8
図枠
  6
Continuous
 62
     7
100
AcDbLine
 10
511.9106394078261
 20
265.7465284359592
 30
0.0
 11
444.9106394078262
 21
265.7465284359592
 31
0.0
  0
LINE
  5
6D76
330
1E
100
AcDbEntity
  8
図枠
  6
Continuous
 62
     7
100
AcDbLine
 10
511.9106394078261
 20
256.7465284359593
 30
0.0
 11
444.9106394078262
 21
256.7465284359593
 31
0.0
  0
LINE
  5
6D77
330
1E
100
AcDbEntity
  8
図枠
  6
Continuous
 62
     7
100
AcDbLine
 10
511.9106394078261
 20
247.7465284359592
 30
0.0
 11
444.9106394078262
 21
247.7465284359592
 31
0.0
  0
LINE
  5
6D78
330
1E
100
AcDbEntity
  8
図枠
  6
Continuous
 62
     7
100
AcDbLine
 10
511.9106394078261
 20
238.7465284359592
 30
0.0
 11
444.9106394078262
 21
238.7465284359592
 31
0.0
  0
LINE
  5
6D79
330
1E
100
AcDbEntity
  8
図枠
  6
Continuous
 62
     7
100
AcDbLine
 10
511.9106394078261
 20
229.7465284359593
 30
0.0
 11
444.9106394078262
 21
229.7465284359593
 31
0.0
  0
LINE
  5
6D7A
330
1E
100
AcDbEntity
  8
図枠
  6
Continuous
 62
     7
100
AcDbLine
 10
511.9106394078261
 20
220.7465284359593
 30
0.0
 11
444.9106394078262
 21
220.7465284359593
 31
0.0
  0
LINE
  5
6D7B
330
1E
100
AcDbEntity
  8
図枠
  6
Continuous
 62
     7
100
AcDbLine
 10
511.9106394078261
 20
211.7465284359593
 30
0.0
 11
444.9106394078262
 21
211.7465284359593
 31
0.0
  0
LINE
  5
6D7C
330
1E
100
AcDbEntity
  8
図枠
  6
Continuous
 62
     7
100
AcDbLine
 10
511.9106394078261
 20
202.7465284359593
 30
0.0
 11
444.9106394078262
 21
202.7465284359593
 31
0.0
  0
LINE
  5
6D7D
330
1E
100
AcDbEntity
  8
図枠
  6
Continuous
 62
     7
100
AcDbLine
 10
511.9106394078261
 20
193.7465284359593
 30
0.0
 11
444.9106394078262
 21
193.7465284359593
 31
0.0
  0
LINE
  5
6D7E
330
1E
100
AcDbEntity
  8
図枠
  6
Continuous
 62
     7
100
AcDbLine
 10
511.9106394078261
 20
184.7465284359593
 30
0.0
 11
444.9106394078262
 21
184.7465284359593
 31
0.0
  0
LINE
  5
6D7F
330
1E
100
AcDbEntity
  8
図枠
  6
Continuous
 62
     7
100
AcDbLine
 10
511.9106394078261
 20
175.7465284359592
 30
0.0
 11
444.9106394078262
 21
175.7465284359592
 31
0.0
  0
LINE
  5
6D80
330
1E
100
AcDbEntity
  8
図枠
  6
Continuous
 62
     7
100
AcDbLine
 10
511.9106394078261
 20
166.7465284359592
 30
0.0
 11
444.9106394078262
 21
166.7465284359592
 31
0.0
  0
LINE
  5
6D81
330
1E
100
AcDbEntity
  8
図枠
  6
Continuous
 62
     7
100
AcDbLine
 10
511.9106394078261
 20
166.7465284359592
 30
0.0
 11
511.9106394078261
 21
373.7465284359593
 31
0.0
  0
LINE
  5
6D82
330
1E
100
AcDbEntity
  8
図枠
  6
Continuous
 62
     7
100
AcDbLine
 10
512.9106394078262
 20
166.7465284359592
 30
0.0
 11
512.9106394078262
 21
373.7465284359593
 31
0.0
  0
LINE
  5
6D83
330
1E
100
AcDbEntity
  8
図枠
  6
Continuous
 62
     7
100
AcDbLine
 10
547.9106394078262
 20
166.7465284359592
 30
0.0
 11
547.9106394078262
 21
373.7465284359593
 31
0.0
  0
LINE
  5
6D84
330
1E
100
AcDbEntity
  8
図枠
  6
Continuous
 62
     7
100
AcDbLine
 10
565.9106394078263
 20
166.7465284359592
 30
0.0
 11
565.9106394078263
 21
373.7465284359593
 31
0.0
  0
LINE
  5
6D85
330
1E
100
AcDbEntity
  8
図枠
  6
Continuous
 62
     7
100
AcDbLine
 10
512.9106394078262
 20
364.7465284359593
 30
0.0
 11
579.9106394078262
 21
364.7465284359593
 31
0.0
  0
LINE
  5
6D86
330
1E
100
AcDbEntity
  8
図枠
  6
Continuous
 62
     7
100
AcDbLine
 10
512.9106394078262
 20
355.7465284359592
 30
0.0
 11
579.9106394078262
 21
355.7465284359592
 31
0.0
  0
LINE
  5
6D87
330
1E
100
AcDbEntity
  8
図枠
  6
Continuous
 62
     7
100
AcDbLine
 10
512.9106394078262
 20
346.7465284359593
 30
0.0
 11
579.9106394078262
 21
346.7465284359593
 31
0.0
  0
LINE
  5
6D88
330
1E
100
AcDbEntity
  8
図枠
  6
Continuous
 62
     7
100
AcDbLine
 10
512.9106394078262
 20
337.7465284359593
 30
0.0
 11
579.9106394078262
 21
337.7465284359593
 31
0.0
  0
LINE
  5
6D89
330
1E
100
AcDbEntity
  8
図枠
  6
Continuous
 62
     7
100
AcDbLine
 10
512.9106394078262
 20
328.7465284359592
 30
0.0
 11
579.9106394078262
 21
328.7465284359592
 31
0.0
  0
LINE
  5
6D8A
330
1E
100
AcDbEntity
  8
図枠
  6
Continuous
 62
     7
100
AcDbLine
 10
512.9106394078262
 20
319.7465284359592
 30
0.0
 11
579.9106394078262
 21
319.7465284359592
 31
0.0
  0
LINE
  5
6D8B
330
1E
100
AcDbEntity
  8
図枠
  6
Continuous
 62
     7
100
AcDbLine
 10
512.9106394078262
 20
310.7465284359593
 30
0.0
 11
579.9106394078262
 21
310.7465284359593
 31
0.0
  0
LINE
  5
6D8C
330
1E
100
AcDbEntity
  8
図枠
  6
Continuous
 62
     7
100
AcDbLine
 10
512.9106394078262
 20
301.7465284359592
 30
0.0
 11
579.9106394078262
 21
301.7465284359592
 31
0.0
  0
LINE
  5
6D8D
330
1E
100
AcDbEntity
  8
図枠
  6
Continuous
 62
     7
100
AcDbLine
 10
512.9106394078262
 20
292.7465284359593
 30
0.0
 11
579.9106394078262
 21
292.7465284359593
 31
0.0
  0
LINE
  5
6D8E
330
1E
100
AcDbEntity
  8
図枠
  6
Continuous
 62
     7
100
AcDbLine
 10
512.9106394078262
 20
283.7465284359593
 30
0.0
 11
579.9106394078262
 21
283.7465284359593
 31
0.0
  0
LINE
  5
6D8F
330
1E
100
AcDbEntity
  8
図枠
  6
Continuous
 62
     7
100
AcDbLine
 10
512.9106394078262
 20
274.7465284359592
 30
0.0
 11
579.9106394078262
 21
274.7465284359592
 31
0.0
  0
LINE
  5
6D90
330
1E
100
AcDbEntity
  8
図枠
  6
Continuous
 62
     7
100
AcDbLine
 10
512.9106394078262
 20
265.7465284359592
 30
0.0
 11
579.9106394078262
 21
265.7465284359592
 31
0.0
  0
LINE
  5
6D91
330
1E
100
AcDbEntity
  8
図枠
  6
Continuous
 62
     7
100
AcDbLine
 10
512.9106394078262
 20
256.7465284359593
 30
0.0
 11
579.9106394078262
 21
256.7465284359593
 31
0.0
  0
LINE
  5
6D92
330
1E
100
AcDbEntity
  8
図枠
  6
Continuous
 62
     7
100
AcDbLine
 10
512.9106394078262
 20
247.7465284359592
 30
0.0
 11
579.9106394078262
 21
247.7465284359592
 31
0.0
  0
LINE
  5
6D93
330
1E
100
AcDbEntity
  8
図枠
  6
Continuous
 62
     7
100
AcDbLine
 10
512.9106394078262
 20
238.7465284359592
 30
0.0
 11
579.9106394078262
 21
238.7465284359592
 31
0.0
  0
LINE
  5
6D94
330
1E
100
AcDbEntity
  8
図枠
  6
Continuous
 62
     7
100
AcDbLine
 10
512.9106394078262
 20
229.7465284359593
 30
0.0
 11
579.9106394078262
 21
229.7465284359593
 31
0.0
  0
LINE
  5
6D95
330
1E
100
AcDbEntity
  8
図枠
  6
Continuous
 62
     7
100
AcDbLine
 10
512.9106394078262
 20
220.7465284359593
 30
0.0
 11
579.9106394078262
 21
220.7465284359593
 31
0.0
  0
LINE
  5
6D96
330
1E
100
AcDbEntity
  8
図枠
  6
Continuous
 62
     7
100
AcDbLine
 10
512.9106394078262
 20
211.7465284359593
 30
0.0
 11
579.9106394078262
 21
211.7465284359593
 31
0.0
  0
LINE
  5
6D97
330
1E
100
AcDbEntity
  8
図枠
  6
Continuous
 62
     7
100
AcDbLine
 10
512.9106394078262
 20
202.7465284359593
 30
0.0
 11
579.9106394078262
 21
202.7465284359593
 31
0.0
  0
LINE
  5
6D98
330
1E
100
AcDbEntity
  8
図枠
  6
Continuous
 62
     7
100
AcDbLine
 10
512.9106394078262
 20
193.7465284359593
 30
0.0
 11
579.9106394078262
 21
193.7465284359593
 31
0.0
  0
LINE
  5
6D99
330
1E
100
AcDbEntity
  8
図枠
  6
Continuous
 62
     7
100
AcDbLine
 10
512.9106394078262
 20
184.7465284359593
 30
0.0
 11
579.9106394078262
 21
184.7465284359593
 31
0.0
  0
LINE
  5
6D9A
330
1E
100
AcDbEntity
  8
図枠
  6
Continuous
 62
     7
100
AcDbLine
 10
512.9106394078262
 20
175.7465284359592
 30
0.0
 11
579.9106394078262
 21
175.7465284359592
 31
0.0
  0
LINE
  5
6D9B
330
1E
100
AcDbEntity
  8
図枠
  6
Continuous
 62
     7
100
AcDbLine
 10
512.9106394078262
 20
166.7465284359592
 30
0.0
 11
579.9106394078262
 21
166.7465284359592
 31
0.0
  0
LINE
  5
6D9C
330
1E
100
AcDbEntity
  8
図枠
  6
Continuous
 62
     7
100
AcDbLine
 10
579.9106394078262
 20
166.7465284359592
 30
0.0
 11
579.9106394078262
 21
373.7465284359593
 31
0.0
  0
TEXT
  5
6D9D
330
1E
100
AcDbEntity
  8
図枠
 62
     7
100
AcDbText
 10
448.6606394078262
 20
366.2465284359592
 30
0.0
 40
5.0
  1
定尺(mm)
100
AcDbText
  0
TEXT
  5
6D9E
330
1E
100
AcDbEntity
  8
図枠
 62
     7
100
AcDbText
 10
455.6606394078261
 20
357.2465284359592
 30
0.0
 40
5.0
  1
3000
100
AcDbText
  0
TEXT
  5
6D9F
330
1E
100
AcDbEntity
  8
図枠
 62
     7
100
AcDbText
 10
455.6606394078261
 20
348.2465284359593
 30
0.0
 40
5.0
  1
3000
100
AcDbText
  0
TEXT
  5
6DA0
330
1E
100
AcDbEntity
  8
図枠
 62
     7
100
AcDbText
 10
455.6606394078261
 20
339.2465284359591
 30
0.0
 40
5.0
  1
3000
100
AcDbText
  0
TEXT
  5
6DA1
330
1E
100
AcDbEntity
  8
図枠
 62
     7
100
AcDbText
 10
455.6606394078261
 20
330.2465284359592
 30
0.0
 40
5.0
  1
3000
100
AcDbText
  0
TEXT
  5
6DA2
330
1E
100
AcDbEntity
  8
図枠
 62
     7
100
AcDbText
 10
455.6606394078261
 20
321.2465284359593
 30
0.0
 40
5.0
  1
3010
100
AcDbText
  0
TEXT
  5
6DA3
330
1E
100
AcDbEntity
  8
図枠
 62
     7
100
AcDbText
 10
455.6606394078261
 20
267.2465284359593
 30
0.0
 40
5.0
  1
3060
100
AcDbText
  0
TEXT
  5
6DA4
330
1E
100
AcDbEntity
  8
図枠
 62
     7
100
AcDbText
 10
455.6606394078261
 20
258.2465284359592
 30
0.0
 40
5.0
  1
3100
100
AcDbText
  0
TEXT
  5
6DA5
330
1E
100
AcDbEntity
  8
図枠
 62
     7
100
AcDbText
 10
455.6606394078261
 20
249.2465284359592
 30
0.0
 40
5.0
  1
3000
100
AcDbText
  0
TEXT
  5
6DA6
330
1E
100
AcDbEntity
  8
図枠
 62
     7
100
AcDbText
 10
455.6606394078261
 20
168.2465284359592
 30
0.0
 40
5.0
  1
6000
100
AcDbText
  0
TEXT
  5
6DA7
330
1E
100
AcDbEntity
  8
図枠
 62
     7
100
AcDbText
 10
516.6606394078264
 20
366.2465284359592
 30
0.0
 40
5.0
  1
定尺(mm)
100
AcDbText
  0
TEXT
  5
6DA8
330
1E
100
AcDbEntity
  8
図枠
 62
     7
100
AcDbText
 10
523.6606394078262
 20
357.2465284359592
 30
0.0
 40
5.0
  1
2000
100
AcDbText
  0
TEXT
  5
6DA9
330
1E
100
AcDbEntity
  8
図枠
 62
     7
100
AcDbText
 10
523.6606394078262
 20
348.2465284359593
 30
0.0
 40
5.0
  1
2000
100
AcDbText
  0
TEXT
  5
6DAA
330
1E
100
AcDbEntity
  8
図枠
 62
     7
100
AcDbText
 10
523.6606394078262
 20
339.2465284359591
 30
0.0
 40
5.0
  1
2000
100
AcDbText
  0
TEXT
  5
6DAB
330
1E
100
AcDbEntity
  8
図枠
 62
     7
100
AcDbText
 10
523.6606394078262
 20
330.2465284359592
 30
0.0
 40
5.0
  1
2000
100
AcDbText
  0
TEXT
  5
6DAC
330
1E
100
AcDbEntity
  8
図枠
 62
     7
100
AcDbText
 10
523.6606394078262
 20
321.2465284359593
 30
0.0
 40
5.0
  1
2010
100
AcDbText
  0
TEXT
  5
6DAD
330
1E
100
AcDbEntity
  8
図枠
 62
     7
100
AcDbText
 10
523.6606394078262
 20
267.2465284359593
 30
0.0
 40
5.0
  1
2060
100
AcDbText
  0
TEXT
  5
6DAE
330
1E
100
AcDbEntity
  8
図枠
 62
     7
100
AcDbText
 10
523.6606394078262
 20
258.2465284359592
 30
0.0
 40
5.0
  1
2100
100
AcDbText
  0
TEXT
  5
6DAF
330
1E
100
AcDbEntity
  8
図枠
 62
     7
100
AcDbText
 10
523.6606394078262
 20
249.2465284359592
 30
0.0
 40
5.0
  1
2000
100
AcDbText
  0
TEXT
  5
6DB0
330
1E
100
AcDbEntity
  8
図枠
 62
     7
100
AcDbText
 10
523.6606394078262
 20
168.2465284359592
 30
0.0
 40
5.0
  1
6000
100
AcDbText
  0
TEXT
  5
6DB1
330
1E
100
AcDbEntity
  8
図枠
 62
     7
100
AcDbText
 10
482.4106394078261
 20
366.2465284359592
 30
0.0
 40
5.0
  1
入数
100
AcDbText
  0
TEXT
  5
6DB2
330
1E
100
AcDbEntity
  8
図枠
 62
     7
100
AcDbText
 10
485.6606394078261
 20
357.2465284359592
 30
0.0
 40
5.0
  1
 1
100
AcDbText
  0
TEXT
  5
6DB3
330
1E
100
AcDbEntity
  8
図枠
 62
     7
100
AcDbText
 10
485.6606394078261
 20
348.2465284359593
 30
0.0
 40
5.0
  1
 1
100
AcDbText
  0
TEXT
  5
6DB4
330
1E
100
AcDbEntity
  8
図枠
 62
     7
100
AcDbText
 10
485.6606394078261
 20
339.2465284359591
 30
0.0
 40
5.0
  1
 1
100
AcDbText
  0
TEXT
  5
6DB5
330
1E
100
AcDbEntity
  8
図枠
 62
     7
100
AcDbText
 10
485.6606394078261
 20
330.2465284359592
 30
0.0
 40
5.0
  1
 1
100
AcDbText
  0
TEXT
  5
6DB6
330
1E
100
AcDbEntity
  8
図枠
 62
     7
100
AcDbText
 10
485.6606394078261
 20
321.2465284359593
 30
0.0
 40
5.0
  1
 1
100
AcDbText
  0
TEXT
  5
6DB7
330
1E
100
AcDbEntity
  8
図枠
 62
     7
100
AcDbText
 10
485.6606394078261
 20
312.2465284359592
 30
0.0
 40
5.0
  1
 6
100
AcDbText
  0
TEXT
  5
6DB8
330
1E
100
AcDbEntity
  8
図枠
 62
     7
100
AcDbText
 10
485.6606394078261
 20
303.2465284359592
 30
0.0
 40
5.0
  1
 6
100
AcDbText
  0
TEXT
  5
6DB9
330
1E
100
AcDbEntity
  8
図枠
 62
     7
100
AcDbText
 10
485.6606394078261
 20
294.2465284359593
 30
0.0
 40
5.0
  1
 6
100
AcDbText
  0
TEXT
  5
6DBA
330
1E
100
AcDbEntity
  8
図枠
 62
     7
100
AcDbText
 10
485.6606394078261
 20
285.2465284359592
 30
0.0
 40
5.0
  1
 1
100
AcDbText
  0
TEXT
  5
6DBB
330
1E
100
AcDbEntity
  8
図枠
 62
     7
100
AcDbText
 10
485.6606394078261
 20
276.2465284359592
 30
0.0
 40
5.0
  1
 1
100
AcDbText
  0
TEXT
  5
6DBC
330
1E
100
AcDbEntity
  8
図枠
 62
     7
100
AcDbText
 10
485.6606394078261
 20
267.2465284359593
 30
0.0
 40
5.0
  1
 1
100
AcDbText
  0
TEXT
  5
6DBD
330
1E
100
AcDbEntity
  8
図枠
 62
     7
100
AcDbText
 10
485.6606394078261
 20
258.2465284359592
 30
0.0
 40
5.0
  1
 1
100
AcDbText
  0
TEXT
  5
6DBE
330
1E
100
AcDbEntity
  8
図枠
 62
     7
100
AcDbText
 10
485.6606394078261
 20
249.2465284359592
 30
0.0
 40
5.0
  1
 1
100
AcDbText
  0
TEXT
  5
6DBF
330
1E
100
AcDbEntity
  8
図枠
 62
     7
100
AcDbText
 10
485.6606394078261
 20
240.2465284359593
 30
0.0
 40
5.0
  1
 6
100
AcDbText
  0
TEXT
  5
6DC0
330
1E
100
AcDbEntity
  8
図枠
 62
     7
100
AcDbText
 10
485.6606394078261
 20
231.2465284359593
 30
0.0
 40
5.0
  1
 6
100
AcDbText
  0
TEXT
  5
6DC1
330
1E
100
AcDbEntity
  8
図枠
 62
     7
100
AcDbText
 10
485.6606394078261
 20
222.2465284359593
 30
0.0
 40
5.0
  1
 6
100
AcDbText
  0
TEXT
  5
6DC2
330
1E
100
AcDbEntity
  8
図枠
 62
     7
100
AcDbText
 10
485.6606394078261
 20
213.2465284359593
 30
0.0
 40
5.0
  1
 6
100
AcDbText
  0
TEXT
  5
6DC3
330
1E
100
AcDbEntity
  8
図枠
 62
     7
100
AcDbText
 10
485.6606394078261
 20
204.2465284359593
 30
0.0
 40
5.0
  1
 6
100
AcDbText
  0
TEXT
  5
6DC4
330
1E
100
AcDbEntity
  8
図枠
 62
     7
100
AcDbText
 10
485.6606394078261
 20
195.2465284359593
 30
0.0
 40
5.0
  1
 6
100
AcDbText
  0
TEXT
  5
6DC5
330
1E
100
AcDbEntity
  8
図枠
 62
     7
100
AcDbText
 10
485.6606394078261
 20
186.2465284359593
 30
0.0
 40
5.0
  1
 6
100
AcDbText
  0
TEXT
  5
6DC6
330
1E
100
AcDbEntity
  8
図枠
 62
     7
100
AcDbText
 10
485.6606394078261
 20
177.2465284359592
 30
0.0
 40
5.0
  1
 6
100
AcDbText
  0
TEXT
  5
6DC7
330
1E
100
AcDbEntity
  8
図枠
 62
     7
100
AcDbText
 10
485.6606394078261
 20
168.2465284359592
 30
0.0
 40
5.0
  1
 1
100
AcDbText
  0
TEXT
  5
6DC8
330
1E
100
AcDbEntity
  8
図枠
 62
     7
100
AcDbText
 10
550.4106394078262
 20
366.2465284359592
 30
0.0
 40
5.0
  1
入数
100
AcDbText
  0
TEXT
  5
6DC9
330
1E
100
AcDbEntity
  8
図枠
 62
     7
100
AcDbText
 10
553.6606394078262
 20
357.2465284359592
 30
0.0
 40
5.0
  1
 1
100
AcDbText
  0
TEXT
  5
6DCA
330
1E
100
AcDbEntity
  8
図枠
 62
     7
100
AcDbText
 10
553.6606394078262
 20
348.2465284359593
 30
0.0
 40
5.0
  1
 1
100
AcDbText
  0
TEXT
  5
6DCB
330
1E
100
AcDbEntity
  8
図枠
 62
     7
100
AcDbText
 10
553.6606394078262
 20
339.2465284359591
 30
0.0
 40
5.0
  1
 1
100
AcDbText
  0
TEXT
  5
6DCC
330
1E
100
AcDbEntity
  8
図枠
 62
     7
100
AcDbText
 10
553.6606394078262
 20
330.2465284359592
 30
0.0
 40
5.0
  1
 1
100
AcDbText
  0
TEXT
  5
6DCD
330
1E
100
AcDbEntity
  8
図枠
 62
     7
100
AcDbText
 10
553.6606394078262
 20
321.2465284359593
 30
0.0
 40
5.0
  1
 1
100
AcDbText
  0
TEXT
  5
6DCE
330
1E
100
AcDbEntity
  8
図枠
 62
     7
100
AcDbText
 10
553.6606394078262
 20
312.2465284359592
 30
0.0
 40
5.0
  1
 4
100
AcDbText
  0
TEXT
  5
6DCF
330
1E
100
AcDbEntity
  8
図枠
 62
     7
100
AcDbText
 10
553.6606394078262
 20
303.2465284359592
 30
0.0
 40
5.0
  1
 4
100
AcDbText
  0
TEXT
  5
6DD0
330
1E
100
AcDbEntity
  8
図枠
 62
     7
100
AcDbText
 10
553.6606394078262
 20
294.2465284359593
 30
0.0
 40
5.0
  1
 4
100
AcDbText
  0
TEXT
  5
6DD1
330
1E
100
AcDbEntity
  8
図枠
 62
     7
100
AcDbText
 10
553.6606394078262
 20
285.2465284359592
 30
0.0
 40
5.0
  1
 1
100
AcDbText
  0
TEXT
  5
6DD2
330
1E
100
AcDbEntity
  8
図枠
 62
     7
100
AcDbText
 10
553.6606394078262
 20
276.2465284359592
 30
0.0
 40
5.0
  1
 1
100
AcDbText
  0
TEXT
  5
6DD3
330
1E
100
AcDbEntity
  8
図枠
 62
     7
100
AcDbText
 10
553.6606394078262
 20
267.2465284359593
 30
0.0
 40
5.0
  1
 1
100
AcDbText
  0
TEXT
  5
6DD4
330
1E
100
AcDbEntity
  8
図枠
 62
     7
100
AcDbText
 10
553.6606394078262
 20
258.2465284359592
 30
0.0
 40
5.0
  1
 1
100
AcDbText
  0
TEXT
  5
6DD5
330
1E
100
AcDbEntity
  8
図枠
 62
     7
100
AcDbText
 10
553.6606394078262
 20
249.2465284359592
 30
0.0
 40
5.0
  1
 1
100
AcDbText
  0
TEXT
  5
6DD6
330
1E
100
AcDbEntity
  8
図枠
 62
     7
100
AcDbText
 10
553.6606394078262
 20
240.2465284359593
 30
0.0
 40
5.0
  1
 4
100
AcDbText
  0
TEXT
  5
6DD7
330
1E
100
AcDbEntity
  8
図枠
 62
     7
100
AcDbText
 10
553.6606394078262
 20
231.2465284359593
 30
0.0
 40
5.0
  1
 5
100
AcDbText
  0
TEXT
  5
6DD8
330
1E
100
AcDbEntity
  8
図枠
 62
     7
100
AcDbText
 10
553.6606394078262
 20
222.2465284359593
 30
0.0
 40
5.0
  1
 5
100
AcDbText
  0
TEXT
  5
6DD9
330
1E
100
AcDbEntity
  8
図枠
 62
     7
100
AcDbText
 10
553.6606394078262
 20
213.2465284359593
 30
0.0
 40
5.0
  1
 5
100
AcDbText
  0
TEXT
  5
6DDA
330
1E
100
AcDbEntity
  8
図枠
 62
     7
100
AcDbText
 10
553.6606394078262
 20
204.2465284359593
 30
0.0
 40
5.0
  1
 5
100
AcDbText
  0
TEXT
  5
6DDB
330
1E
100
AcDbEntity
  8
図枠
 62
     7
100
AcDbText
 10
553.6606394078262
 20
195.2465284359593
 30
0.0
 40
5.0
  1
 5
100
AcDbText
  0
TEXT
  5
6DDC
330
1E
100
AcDbEntity
  8
図枠
 62
     7
100
AcDbText
 10
553.6606394078262
 20
186.2465284359593
 30
0.0
 40
5.0
  1
 5
100
AcDbText
  0
TEXT
  5
6DDD
330
1E
100
AcDbEntity
  8
図枠
 62
     7
100
AcDbText
 10
553.6606394078262
 20
177.2465284359592
 30
0.0
 40
5.0
  1
 5
100
AcDbText
  0
TEXT
  5
6DDE
330
1E
100
AcDbEntity
  8
図枠
 62
     7
100
AcDbText
 10
553.6606394078262
 20
168.2465284359592
 30
0.0
 40
5.0
  1
 1
100
AcDbText
  0
TEXT
  5
6DDF
330
1E
100
AcDbEntity
  8
図枠
 62
     7
100
AcDbText
 10
501.9106394078262
 20
357.2465284359592
 30
0.0
 40
5.0
  1
本
100
AcDbText
  0
TEXT
  5
6DE0
330
1E
100
AcDbEntity
  8
図枠
 62
     7
100
AcDbText
 10
501.9106394078262
 20
348.2465284359593
 30
0.0
 40
5.0
  1
〃
100
AcDbText
  0
TEXT
  5
6DE1
330
1E
100
AcDbEntity
  8
図枠
 62
     7
100
AcDbText
 10
501.9106394078262
 20
339.2465284359591
 30
0.0
 40
5.0
  1
〃
100
AcDbText
  0
TEXT
  5
6DE2
330
1E
100
AcDbEntity
  8
図枠
 62
     7
100
AcDbText
 10
501.9106394078262
 20
330.2465284359592
 30
0.0
 40
5.0
  1
〃
100
AcDbText
  0
TEXT
  5
6DE3
330
1E
100
AcDbEntity
  8
図枠
 62
     7
100
AcDbText
 10
501.9106394078262
 20
321.2465284359593
 30
0.0
 40
5.0
  1
〃
100
AcDbText
  0
TEXT
  5
6DE4
330
1E
100
AcDbEntity
  8
図枠
 62
     7
100
AcDbText
 10
501.9106394078262
 20
312.2465284359592
 30
0.0
 40
5.0
  1
〃
100
AcDbText
  0
TEXT
  5
6DE5
330
1E
100
AcDbEntity
  8
図枠
 62
     7
100
AcDbText
 10
501.9106394078262
 20
303.2465284359592
 30
0.0
 40
5.0
  1
〃
100
AcDbText
  0
TEXT
  5
6DE6
330
1E
100
AcDbEntity
  8
図枠
 62
     7
100
AcDbText
 10
501.9106394078262
 20
294.2465284359593
 30
0.0
 40
5.0
  1
〃
100
AcDbText
  0
TEXT
  5
6DE7
330
1E
100
AcDbEntity
  8
図枠
 62
     7
100
AcDbText
 10
501.9106394078262
 20
285.2465284359592
 30
0.0
 40
5.0
  1
〃
100
AcDbText
  0
TEXT
  5
6DE8
330
1E
100
AcDbEntity
  8
図枠
 62
     7
100
AcDbText
 10
501.9106394078262
 20
276.2465284359592
 30
0.0
 40
5.0
  1
〃
100
AcDbText
  0
TEXT
  5
6DE9
330
1E
100
AcDbEntity
  8
図枠
 62
     7
100
AcDbText
 10
501.9106394078262
 20
267.2465284359593
 30
0.0
 40
5.0
  1
枚
100
AcDbText
  0
TEXT
  5
6DEA
330
1E
100
AcDbEntity
  8
図枠
 62
     7
100
AcDbText
 10
501.9106394078262
 20
258.2465284359592
 30
0.0
 40
5.0
  1
〃
100
AcDbText
  0
TEXT
  5
6DEB
330
1E
100
AcDbEntity
  8
図枠
 62
     7
100
AcDbText
 10
501.9106394078262
 20
249.2465284359592
 30
0.0
 40
5.0
  1
本
100
AcDbText
  0
TEXT
  5
6DEC
330
1E
100
AcDbEntity
  8
図枠
 62
     7
100
AcDbText
 10
501.9106394078262
 20
240.2465284359593
 30
0.0
 40
5.0
  1
〃
100
AcDbText
  0
TEXT
  5
6DED
330
1E
100
AcDbEntity
  8
図枠
 62
     7
100
AcDbText
 10
501.9106394078262
 20
231.2465284359593
 30
0.0
 40
5.0
  1
〃
100
AcDbText
  0
TEXT
  5
6DEE
330
1E
100
AcDbEntity
  8
図枠
 62
     7
100
AcDbText
 10
501.9106394078262
 20
222.2465284359593
 30
0.0
 40
5.0
  1
〃
100
AcDbText
  0
TEXT
  5
6DEF
330
1E
100
AcDbEntity
  8
図枠
 62
     7
100
AcDbText
 10
501.9106394078262
 20
213.2465284359593
 30
0.0
 40
5.0
  1
〃
100
AcDbText
  0
TEXT
  5
6DF0
330
1E
100
AcDbEntity
  8
図枠
 62
     7
100
AcDbText
 10
501.9106394078262
 20
204.2465284359593
 30
0.0
 40
5.0
  1
〃
100
AcDbText
  0
TEXT
  5
6DF1
330
1E
100
AcDbEntity
  8
図枠
 62
     7
100
AcDbText
 10
501.9106394078262
 20
195.2465284359593
 30
0.0
 40
5.0
  1
〃
100
AcDbText
  0
TEXT
  5
6DF2
330
1E
100
AcDbEntity
  8
図枠
 62
     7
100
AcDbText
 10
501.9106394078262
 20
186.2465284359593
 30
0.0
 40
5.0
  1
枚
100
AcDbText
  0
TEXT
  5
6DF3
330
1E
100
AcDbEntity
  8
図枠
 62
     7
100
AcDbText
 10
501.9106394078262
 20
177.2465284359592
 30
0.0
 40
5.0
  1
〃
100
AcDbText
  0
TEXT
  5
6DF4
330
1E
100
AcDbEntity
  8
図枠
 62
     7
100
AcDbText
 10
501.9106394078262
 20
168.2465284359592
 30
0.0
 40
5.0
  1
巻
100
AcDbText
  0
TEXT
  5
6DF5
330
1E
100
AcDbEntity
  8
図枠
 62
     7
100
AcDbText
 10
569.9106394078264
 20
357.2465284359592
 30
0.0
 40
5.0
  1
本
100
AcDbText
  0
TEXT
  5
6DF6
330
1E
100
AcDbEntity
  8
図枠
 62
     7
100
AcDbText
 10
569.9106394078264
 20
348.2465284359593
 30
0.0
 40
5.0
  1
〃
100
AcDbText
  0
TEXT
  5
6DF7
330
1E
100
AcDbEntity
  8
図枠
 62
     7
100
AcDbText
 10
569.9106394078264
 20
339.2465284359591
 30
0.0
 40
5.0
  1
〃
100
AcDbText
  0
TEXT
  5
6DF8
330
1E
100
AcDbEntity
  8
図枠
 62
     7
100
AcDbText
 10
569.9106394078264
 20
330.2465284359592
 30
0.0
 40
5.0
  1
〃
100
AcDbText
  0
TEXT
  5
6DF9
330
1E
100
AcDbEntity
  8
図枠
 62
     7
100
AcDbText
 10
569.9106394078264
 20
321.2465284359593
 30
0.0
 40
5.0
  1
〃
100
AcDbText
  0
TEXT
  5
6DFA
330
1E
100
AcDbEntity
  8
図枠
 62
     7
100
AcDbText
 10
569.9106394078264
 20
312.2465284359592
 30
0.0
 40
5.0
  1
〃
100
AcDbText
  0
TEXT
  5
6DFB
330
1E
100
AcDbEntity
  8
図枠
 62
     7
100
AcDbText
 10
569.9106394078264
 20
303.2465284359592
 30
0.0
 40
5.0
  1
〃
100
AcDbText
  0
TEXT
  5
6DFC
330
1E
100
AcDbEntity
  8
図枠
 62
     7
100
AcDbText
 10
569.9106394078264
 20
294.2465284359593
 30
0.0
 40
5.0
  1
〃
100
AcDbText
  0
TEXT
  5
6DFD
330
1E
100
AcDbEntity
  8
図枠
 62
     7
100
AcDbText
 10
569.9106394078264
 20
285.2465284359592
 30
0.0
 40
5.0
  1
〃
100
AcDbText
  0
TEXT
  5
6DFE
330
1E
100
AcDbEntity
  8
図枠
 62
     7
100
AcDbText
 10
569.9106394078264
 20
276.2465284359592
 30
0.0
 40
5.0
  1
〃
100
AcDbText
  0
TEXT
  5
6DFF
330
1E
100
AcDbEntity
  8
図枠
 62
     7
100
AcDbText
 10
569.9106394078264
 20
267.2465284359593
 30
0.0
 40
5.0
  1
枚
100
AcDbText
  0
TEXT
  5
6E00
330
1E
100
AcDbEntity
  8
図枠
 62
     7
100
AcDbText
 10
569.9106394078264
 20
258.2465284359592
 30
0.0
 40
5.0
  1
〃
100
AcDbText
  0
TEXT
  5
6E01
330
1E
100
AcDbEntity
  8
図枠
 62
     7
100
AcDbText
 10
569.9106394078264
 20
249.2465284359592
 30
0.0
 40
5.0
  1
本
100
AcDbText
  0
TEXT
  5
6E02
330
1E
100
AcDbEntity
  8
図枠
 62
     7
100
AcDbText
 10
569.9106394078264
 20
240.2465284359593
 30
0.0
 40
5.0
  1
〃
100
AcDbText
  0
TEXT
  5
6E03
330
1E
100
AcDbEntity
  8
図枠
 62
     7
100
AcDbText
 10
569.9106394078264
 20
231.2465284359593
 30
0.0
 40
5.0
  1
〃
100
AcDbText
  0
TEXT
  5
6E04
330
1E
100
AcDbEntity
  8
図枠
 62
     7
100
AcDbText
 10
569.9106394078264
 20
222.2465284359593
 30
0.0
 40
5.0
  1
〃
100
AcDbText
  0
TEXT
  5
6E05
330
1E
100
AcDbEntity
  8
図枠
 62
     7
100
AcDbText
 10
569.9106394078264
 20
213.2465284359593
 30
0.0
 40
5.0
  1
〃
100
AcDbText
  0
TEXT
  5
6E06
330
1E
100
AcDbEntity
  8
図枠
 62
     7
100
AcDbText
 10
569.9106394078264
 20
204.2465284359593
 30
0.0
 40
5.0
  1
〃
100
AcDbText
  0
TEXT
  5
6E07
330
1E
100
AcDbEntity
  8
図枠
 62
     7
100
AcDbText
 10
569.9106394078264
 20
195.2465284359593
 30
0.0
 40
5.0
  1
〃
100
AcDbText
  0
TEXT
  5
6E08
330
1E
100
AcDbEntity
  8
図枠
 62
     7
100
AcDbText
 10
569.9106394078264
 20
186.2465284359593
 30
0.0
 40
5.0
  1
枚
100
AcDbText
  0
TEXT
  5
6E09
330
1E
100
AcDbEntity
  8
図枠
 62
     7
100
AcDbText
 10
569.9106394078264
 20
177.2465284359592
 30
0.0
 40
5.0
  1
〃
100
AcDbText
  0
TEXT
  5
6E0A
330
1E
100
AcDbEntity
  8
図枠
 62
     7
100
AcDbText
 10
569.9106394078264
 20
168.2465284359592
 30
0.0
 40
5.0
  1
巻
100
AcDbText
  0
TEXT
  5
6E0B
330
1E
100
AcDbEntity
  8
図枠
 62
     7
100
AcDbText
 10
566.4106394078264
 20
366.2465284359592
 30
0.0
 40
5.0
  1
単位
100
AcDbText
  0
TEXT
  5
6E0C
330
1E
100
AcDbEntity
  8
図枠
 62
     7
100
AcDbText
 10
498.4106394078262
 20
366.2465284359592
 30
0.0
 40
5.0
  1
単位
100
AcDbText
  0
TEXT
  5
6E0D
330
1E
100
AcDbEntity
  8
図枠
 62
     7
100
AcDbText
 10
620.4106394078262
 20
366.2465284359592
 30
0.0
 40
5.0
  1
タ　イ　プ
100
AcDbText
  0
TEXT
  5
6E0E
330
1E
100
AcDbEntity
  8
図枠
 62
     7
100
AcDbText
 10
716.9106394078261
 20
366.2465284359592
 30
0.0
 40
5.0
  1
Ａ
100
AcDbText
  0
TEXT
  5
6E0F
330
1E
100
AcDbEntity
  8
図枠
 62
     7
100
AcDbText
 10
686.9106394078261
 20
366.2465284359592
 30
0.0
 40
5.0
  1
Ｗ
100
AcDbText
  0
LINE
  5
6E10
330
1E
100
AcDbEntity
  8
図枠
  6
Continuous
 62
     7
100
AcDbLine
 10
599.9106394078262
 20
373.7465284359593
 30
0.0
 11
599.9106394078262
 21
283.7465284359593
 31
0.0
  0
LINE
  5
6E11
330
1E
100
AcDbEntity
  8
図枠
  6
Continuous
 62
     7
100
AcDbLine
 10
704.9106394078261
 20
373.7465284359593
 30
0.0
 11
704.9106394078261
 21
283.7465284359593
 31
0.0
  0
LINE
  5
6E12
330
1E
100
AcDbEntity
  8
図枠
  6
Continuous
 62
     7
100
AcDbLine
 10
674.910639407826
 20
373.7465284359593
 30
0.0
 11
674.910639407826
 21
283.7465284359593
 31
0.0
  0
LINE
  5
6E13
330
1E
100
AcDbEntity
  8
図枠
  6
Continuous
 62
     7
100
AcDbLine
 10
824.910639407826
 20
337.7465284359593
 30
0.0
 11
599.9106394078262
 21
337.7465284359593
 31
0.0
  0
LINE
  5
6E14
330
1E
100
AcDbEntity
  8
図枠
  6
Continuous
 62
     7
100
AcDbLine
 10
824.910639407826
 20
355.7465284359592
 30
0.0
 11
599.9106394078262
 21
355.7465284359592
 31
0.0
  0
LINE
  5
6E15
330
1E
100
AcDbEntity
  8
図枠
  6
Continuous
 62
     7
100
AcDbLine
 10
824.910639407826
 20
373.7465284359593
 30
0.0
 11
599.9106394078262
 21
373.7465284359593
 31
0.0
  0
LINE
  5
6E16
330
1E
100
AcDbEntity
  8
図枠
  6
Continuous
 62
     7
100
AcDbLine
 10
824.910639407826
 20
364.7465284359593
 30
0.0
 11
599.9106394078262
 21
364.7465284359593
 31
0.0
  0
LINE
  5
6E17
330
1E
100
AcDbEntity
  8
図枠
  6
Continuous
 62
     7
100
AcDbLine
 10
824.910639407826
 20
346.7465284359593
 30
0.0
 11
599.9106394078262
 21
346.7465284359593
 31
0.0
  0
LINE
  5
6E18
330
1E
100
AcDbEntity
  8
図枠
  6
Continuous
 62
     7
100
AcDbLine
 10
824.910639407826
 20
328.7465284359592
 30
0.0
 11
599.9106394078262
 21
328.7465284359592
 31
0.0
  0
LINE
  5
6E19
330
1E
100
AcDbEntity
  8
図枠
  6
Continuous
 62
     7
100
AcDbLine
 10
824.910639407826
 20
319.7465284359592
 30
0.0
 11
599.9106394078262
 21
319.7465284359592
 31
0.0
  0
LINE
  5
6E1A
330
1E
100
AcDbEntity
  8
図枠
  6
Continuous
 62
     7
100
AcDbLine
 10
824.910639407826
 20
310.7465284359593
 30
0.0
 11
599.9106394078262
 21
310.7465284359593
 31
0.0
  0
LINE
  5
6E1B
330
1E
100
AcDbEntity
  8
図枠
  6
Continuous
 62
     7
100
AcDbLine
 10
824.910639407826
 20
301.7465284359592
 30
0.0
 11
599.9106394078262
 21
301.7465284359592
 31
0.0
  0
LINE
  5
6E1C
330
1E
100
AcDbEntity
  8
図枠
  6
Continuous
 62
     7
100
AcDbLine
 10
824.910639407826
 20
292.7465284359593
 30
0.0
 11
599.9106394078262
 21
292.7465284359593
 31
0.0
  0
LINE
  5
6E1D
330
1E
100
AcDbEntity
  8
図枠
  6
Continuous
 62
     7
100
AcDbLine
 10
824.910639407826
 20
283.7465284359593
 30
0.0
 11
599.9106394078262
 21
283.7465284359593
 31
0.0
  0
TEXT
  5
6E1E
330
1E
100
AcDbEntity
  8
図枠
 62
     7
100
AcDbText
 10
746.9106394078265
 20
366.2465284359592
 30
0.0
 40
5.0
  1
Ｃ
100
AcDbText
  0
TEXT
  5
6E1F
330
1E
100
AcDbEntity
  8
図枠
 62
     7
100
AcDbText
 10
776.9106394078264
 20
366.2465284359592
 30
0.0
 40
5.0
  1
Ｄ
100
AcDbText
  0
TEXT
  5
6E20
330
1E
100
AcDbEntity
  8
図枠
 62
     7
100
AcDbText
 10
806.9106394078261
 20
366.2465284359592
 30
0.0
 40
5.0
  1
Ｅ
100
AcDbText
  0
TEXT
  5
6E21
330
1E
100
AcDbEntity
  8
図枠
 62
     7
100
AcDbText
 10
744.9106394078261
 20
357.2465284359592
 30
0.0
 40
5.0
  1
100
100
AcDbText
  0
TEXT
  5
6E22
330
1E
100
AcDbEntity
  8
図枠
 62
     7
100
AcDbText
 10
744.9106394078261
 20
348.2465284359593
 30
0.0
 40
5.0
  1
125
100
AcDbText
  0
TEXT
  5
6E23
330
1E
100
AcDbEntity
  8
図枠
 62
     7
100
AcDbText
 10
744.9106394078261
 20
339.2465284359591
 30
0.0
 40
5.0
  1
150
100
AcDbText
  0
TEXT
  5
6E24
330
1E
100
AcDbEntity
  8
図枠
 62
     7
100
AcDbText
 10
744.9106394078261
 20
330.2465284359592
 30
0.0
 40
5.0
  1
175
100
AcDbText
  0
TEXT
  5
6E25
330
1E
100
AcDbEntity
  8
図枠
 62
     7
100
AcDbText
 10
744.9106394078261
 20
321.2465284359593
 30
0.0
 40
5.0
  1
200
100
AcDbText
  0
TEXT
  5
6E26
330
1E
100
AcDbEntity
  8
図枠
 62
     7
100
AcDbText
 10
744.9106394078261
 20
312.2465284359592
 30
0.0
 40
5.0
  1
225
100
AcDbText
  0
TEXT
  5
6E27
330
1E
100
AcDbEntity
  8
図枠
 62
     7
100
AcDbText
 10
744.9106394078261
 20
303.2465284359592
 30
0.0
 40
5.0
  1
250
100
AcDbText
  0
TEXT
  5
6E28
330
1E
100
AcDbEntity
  8
図枠
 62
     7
100
AcDbText
 10
744.9106394078261
 20
294.2465284359593
 30
0.0
 40
5.0
  1
275
100
AcDbText
  0
TEXT
  5
6E29
330
1E
100
AcDbEntity
  8
図枠
 62
     7
100
AcDbText
 10
744.9106394078261
 20
285.2465284359592
 30
0.0
 40
5.0
  1
300
100
AcDbText
  0
LINE
  5
6E2A
330
1E
100
AcDbEntity
  8
図枠
  6
Continuous
 62
     7
100
AcDbLine
 10
824.910639407826
 20
373.7465284359593
 30
0.0
 11
824.910639407826
 21
283.7465284359593
 31
0.0
  0
LINE
  5
6E2B
330
1E
100
AcDbEntity
  8
図枠
  6
Continuous
 62
     7
100
AcDbLine
 10
734.9106394078265
 20
373.7465284359593
 30
0.0
 11
734.9106394078265
 21
283.7465284359593
 31
0.0
  0
LINE
  5
6E2C
330
1E
100
AcDbEntity
  8
図枠
  6
Continuous
 62
     7
100
AcDbLine
 10
764.9106394078264
 20
373.7465284359593
 30
0.0
 11
764.9106394078264
 21
283.7465284359593
 31
0.0
  0
LINE
  5
6E2D
330
1E
100
AcDbEntity
  8
図枠
  6
Continuous
 62
     7
100
AcDbLine
 10
794.9106394078264
 20
373.7465284359593
 30
0.0
 11
794.9106394078264
 21
283.7465284359593
 31
0.0
  0
TEXT
  5
6E2E
330
1E
100
AcDbEntity
  8
図枠
 62
     7
100
AcDbText
 10
353.9106394078261
 20
168.2465284359592
 30
0.0
 40
5.0
  1
ｔ1.0×ｗ30
100
AcDbText
  0
LINE
  5
6E2F
330
1E
100
AcDbEntity
  8
躯体と製品
  6
Continuous
 62
     3
100
AcDbLine
 10
359.6118279265267
 20
558.4681951106317
 30
0.0
 11
361.0772347013289
 21
586.4298220837597
 31
0.0
  0
LINE
  5
6E30
330
1E
100
AcDbEntity
  8
躯体と製品
  6
Continuous
 62
     7
100
AcDbLine
 10
361.0510667232075
 20
585.9305073163823
 30
0.0
 11
376.0305097445258
 21
585.1454679727384
 31
0.0
  0
LINE
  5
6E31
330
1E
100
AcDbEntity
  8
躯体と製品
  6
Continuous
 62
     7
100
AcDbLine
 10
375.8211659195542
 20
581.1509498337199
 30
0.0
 11
376.0305097445258
 21
585.1454679727384
 31
0.0
  0
LINE
  5
6E32
330
1E
100
AcDbEntity
  8
躯体と製品
  6
Continuous
 62
     3
100
AcDbLine
 10
335.9106394078261
 20
572.379345201725
 30
0.0
 11
335.9106394078261
 21
570.129345201725
 31
0.0
  0
ARC
  5
6E33
330
1E
100
AcDbEntity
  8
躯体と製品
  6
Continuous
 62
     3
100
AcDbCircle
 10
336.9106394078261
 20
572.379345201725
 30
0.0
 40
1.0
100
AcDbArc
 50
90.0
 51
180.0
  0
ARC
  5
6E34
330
1E
100
AcDbEntity
  8
躯体と製品
  6
Continuous
 62
     3
100
AcDbCircle
 10
336.6606394078261
 20
570.129345201725
 30
0.0
 40
0.75
100
AcDbArc
 50
180.0
 51
0.0
  0
LINE
  5
6E35
330
1E
100
AcDbEntity
  8
躯体と製品
  6
Continuous
 62
     3
100
AcDbLine
 10
337.4106394078261
 20
571.3793452017252
 30
0.0
 11
337.4106394078261
 21
570.129345201725
 31
0.0
  0
ARC
  5
6E36
330
1E
100
AcDbEntity
  8
躯体と製品
  6
Continuous
 62
     3
100
AcDbCircle
 10
337.9106394078261
 20
571.3793452017252
 30
0.0
 40
0.5
100
AcDbArc
 50
90.0
 51
180.0
  0
ARC
  5
6E37
330
1E
100
AcDbEntity
  8
躯体と製品
  6
Continuous
 62
     3
100
AcDbCircle
 10
340.4106394078261
 20
603.8793452017253
 30
0.0
 40
1.5
100
AcDbArc
 50
90.0
 51
180.0
  0
LINE
  5
6E38
330
1E
100
AcDbEntity
  8
躯体と製品
  6
Continuous
 62
     3
100
AcDbLine
 10
338.9106394078261
 20
573.879345201725
 30
0.0
 11
338.9106394078261
 21
603.8793452017253
 31
0.0
  0
ARC
  5
6E39
330
1E
100
AcDbEntity
  8
躯体と製品
  6
Continuous
 62
     3
100
AcDbCircle
 10
338.4106394078261
 20
573.879345201725
 30
0.0
 40
0.5
100
AcDbArc
 50
270.0
 51
0.0
  0
LINE
  5
6E3A
330
1E
100
AcDbEntity
  8
躯体と製品
  6
Continuous
 62
     3
100
AcDbLine
 10
338.4106394078261
 20
573.379345201725
 30
0.0
 11
336.9106394078261
 21
573.379345201725
 31
0.0
  0
LINE
  5
6E3B
330
1E
100
AcDbEntity
  8
躯体と製品
  6
Continuous
 62
     3
100
AcDbLine
 10
340.9106394078261
 20
575.3793452017252
 30
0.0
 11
340.9106394078261
 21
603.3793452017253
 31
0.0
  0
ARC
  5
6E3C
330
1E
100
AcDbEntity
  8
躯体と製品
  6
Continuous
 62
     3
100
AcDbCircle
 10
341.4106394078261
 20
603.3793452017253
 30
0.0
 40
0.5
100
AcDbArc
 50
90.0
 51
180.0
  0
ARC
  5
6E3D
330
1E
100
AcDbEntity
  8
躯体と製品
  6
Continuous
 62
     3
100
AcDbCircle
 10
341.9106394078261
 20
575.3793452017252
 30
0.0
 40
1.0
100
AcDbArc
 50
180.0
 51
270.0
  0
ARC
  5
6E3E
330
1E
100
AcDbEntity
  8
躯体と製品
  6
Continuous
 62
     3
100
AcDbCircle
 10
345.4106394078261
 20
609.8793452017253
 30
0.0
 40
0.5
100
AcDbArc
 50
0.0
 51
90.0
  0
LINE
  5
6E3F
330
1E
100
AcDbEntity
  8
躯体と製品
  6
Continuous
 62
     3
100
AcDbLine
 10
345.9106394078261
 20
606.3793452017253
 30
0.0
 11
345.9106394078261
 21
609.8793452017253
 31
0.0
  0
ARC
  5
6E40
330
1E
100
AcDbEntity
  8
躯体と製品
  6
Continuous
 62
     3
100
AcDbCircle
 10
346.4106394078261
 20
610.8793452017253
 30
0.0
 40
1.0
100
AcDbArc
 50
0.0
 51
90.0
  0
ARC
  5
6E41
330
1E
100
AcDbEntity
  8
躯体と製品
  6
Continuous
 62
     3
100
AcDbCircle
 10
345.9106394078261
 20
597.8793452017253
 30
0.0
 40
1.0
100
AcDbArc
 50
90.0
 51
270.0
  0
ARC
  5
6E42
330
1E
100
AcDbEntity
  8
躯体と製品
  6
Continuous
 62
     3
100
AcDbCircle
 10
345.4106394078261
 20
603.3793452017253
 30
0.0
 40
0.5
100
AcDbArc
 50
0.0
 51
90.0
  0
LINE
  5
6E43
330
1E
100
AcDbEntity
  8
躯体と製品
  6
Continuous
 62
     3
100
AcDbLine
 10
345.9106394078261
 20
603.3793452017253
 30
0.0
 11
345.9106394078261
 21
598.8793452017253
 31
0.0
  0
ARC
  5
6E44
330
1E
100
AcDbEntity
  8
躯体と製品
  6
Continuous
 62
     3
100
AcDbCircle
 10
346.9106394078261
 20
597.3793452017253
 30
0.0
 40
0.5
100
AcDbArc
 50
270.0
 51
0.0
  0
LINE
  5
6E45
330
1E
100
AcDbEntity
  8
躯体と製品
  6
Continuous
 62
     3
100
AcDbLine
 10
346.9106394078261
 20
596.8793452017252
 30
0.0
 11
345.9106394078261
 21
596.8793452017252
 31
0.0
  0
ARC
  5
6E46
330
1E
100
AcDbEntity
  8
躯体と製品
  6
Continuous
 62
     3
100
AcDbCircle
 10
348.4106394078261
 20
570.8793452017252
 30
0.0
 40
1.0
100
AcDbArc
 50
0.0
 51
90.0
  0
ARC
  5
6E47
330
1E
100
AcDbEntity
  8
躯体と製品
  6
Continuous
 62
     3
100
AcDbCircle
 10
349.9106394078261
 20
572.379345201725
 30
0.0
 40
2.0
100
AcDbArc
 50
0.0
 51
90.0
  0
LINE
  5
6E48
330
1E
100
AcDbEntity
  8
躯体と製品
  6
Continuous
 62
     3
100
AcDbLine
 10
341.4106394078261
 20
603.8793452017253
 30
0.0
 11
345.4106394078261
 21
603.8793452017253
 31
0.0
  0
LINE
  5
6E49
330
1E
100
AcDbEntity
  8
躯体と製品
  6
Continuous
 62
     3
100
AcDbLine
 10
349.9106394078261
 20
574.3793452017253
 30
0.0
 11
341.9106394078261
 21
574.3793452017253
 31
0.0
  0
LINE
  5
6E4A
330
1E
100
AcDbEntity
  8
躯体と製品
  6
Continuous
 62
     3
100
AcDbLine
 10
344.9106394078261
 20
605.3793452017252
 30
0.0
 11
340.4106394078261
 21
605.3793452017252
 31
0.0
  0
LINE
  5
6E4B
330
1E
100
AcDbEntity
  8
躯体と製品
  6
Continuous
 62
     3
100
AcDbLine
 10
348.4106394078261
 20
571.879345201725
 30
0.0
 11
337.9106394078261
 21
571.879345201725
 31
0.0
  0
ARC
  5
6E4C
330
1E
100
AcDbEntity
  8
躯体と製品
  6
Continuous
 62
     3
100
AcDbCircle
 10
344.9106394078261
 20
606.3793452017253
 30
0.0
 40
1.0
100
AcDbArc
 50
270.0
 51
0.0
  0
LINE
  5
6E4D
330
1E
100
AcDbEntity
  8
躯体と製品
  6
Continuous
 62
     3
100
AcDbLine
 10
347.4106394078261
 20
597.3793452017253
 30
0.0
 11
347.4106394078261
 21
610.8793452017253
 31
0.0
  0
ARC
  5
6E4E
330
1E
100
AcDbEntity
  8
躯体と製品
  6
Continuous
 62
     3
100
AcDbCircle
 10
338.8106394078262
 20
608.9793452017252
 30
0.0
 40
0.5999999999999998
100
AcDbArc
 50
180.0
 51
0.0
  0
ARC
  5
6E4F
330
1E
100
AcDbEntity
  8
躯体と製品
  6
Continuous
 62
     3
100
AcDbCircle
 10
334.5606394078262
 20
617.1293452017253
 30
0.0
 40
0.75
100
AcDbArc
 50
0.0
 51
180.0
  0
LINE
  5
6E50
330
1E
100
AcDbEntity
  8
躯体と製品
  6
Continuous
 62
     3
100
AcDbLine
 10
335.3106394078261
 20
617.1293452017253
 30
0.0
 11
335.3106394078261
 21
613.8793452017253
 31
0.0
  0
LINE
  5
6E51
330
1E
100
AcDbEntity
  8
躯体と製品
  6
Continuous
 62
     3
100
AcDbLine
 10
335.3106394078261
 20
613.8793452017253
 30
0.0
 11
338.8106394078262
 21
611.8793452017253
 31
0.0
  0
LINE
  5
6E52
330
1E
100
AcDbEntity
  8
躯体と製品
  6
Continuous
 62
     3
100
AcDbLine
 10
339.4106394078261
 20
609.8793452017253
 30
0.0
 11
339.4106394078261
 21
608.9793452017252
 31
0.0
  0
ARC
  5
6E53
330
1E
100
AcDbEntity
  8
躯体と製品
  6
Continuous
 62
     3
100
AcDbCircle
 10
339.9106394078261
 20
609.8793452017253
 30
0.0
 40
0.5
100
AcDbArc
 50
90.0
 51
180.0
  0
LINE
  5
6E54
330
1E
100
AcDbEntity
  8
躯体と製品
  6
Continuous
 62
     3
100
AcDbLine
 10
346.4106394078261
 20
611.8793452017253
 30
0.0
 11
338.8106394078262
 21
611.8793452017253
 31
0.0
  0
LINE
  5
6E55
330
1E
100
AcDbEntity
  8
躯体と製品
  6
Continuous
 62
     3
100
AcDbLine
 10
339.9106394078261
 20
610.3793452017253
 30
0.0
 11
345.4106394078261
 21
610.3793452017253
 31
0.0
  0
ARC
  5
6E56
330
1E
100
AcDbEntity
  8
躯体と製品
  6
Continuous
 62
     3
100
AcDbCircle
 10
359.5312008090929
 20
566.4833993667895
 30
0.0
 40
0.5
100
AcDbArc
 50
356.9999999999993
 51
87.00000000000009
  0
LINE
  5
6E57
330
1E
100
AcDbEntity
  8
躯体と製品
  6
Continuous
 62
     3
100
AcDbLine
 10
359.0580540198371
 20
567.0088821122883
 30
0.0
 11
359.5573687872144
 21
566.9827141341669
 31
0.0
  0
ARC
  5
6E58
330
1E
100
AcDbEntity
  8
躯体と製品
  6
Continuous
 62
     3
100
AcDbCircle
 10
359.0318860417155
 20
566.509567344911
 30
0.0
 40
0.5
100
AcDbArc
 50
87.00000000000009
 51
176.9999999999993
  0
LINE
  5
6E59
330
1E
100
AcDbEntity
  8
躯体と製品
  6
Continuous
 62
     3
100
AcDbLine
 10
358.4278993618523
 20
564.5384762535234
 30
0.0
 11
358.5325712743381
 21
566.5357353230324
 31
0.0
  0
ARC
  5
6E5A
330
1E
100
AcDbEntity
  8
躯体と製品
  6
Continuous
 62
     3
100
AcDbCircle
 10
357.9285845944752
 20
564.5646442316446
 30
0.0
 40
0.5
100
AcDbArc
 50
267.0000000000001
 51
356.9999999999993
  0
ARC
  5
6E5B
330
1E
100
AcDbEntity
  8
躯体と製品
  6
Continuous
 62
     3
100
AcDbCircle
 10
359.1648491153922
 20
559.4929926235074
 30
0.0
 40
0.5
100
AcDbArc
 50
267.0000000000001
 51
356.9999999999993
  0
LINE
  5
6E5C
330
1E
100
AcDbEntity
  8
躯体と製品
  6
Continuous
 62
     3
100
AcDbLine
 10
358.6393663698934
 20
559.0198458342516
 30
0.0
 11
359.1386811372706
 21
558.9936778561304
 31
0.0
  0
ARC
  5
6E5D
330
1E
100
AcDbEntity
  8
躯体と製品
  6
Continuous
 62
     3
100
AcDbCircle
 10
358.665534348015
 20
559.519160601629
 30
0.0
 40
0.5
100
AcDbArc
 50
176.9999999999993
 51
267.0000000000001
  0
LINE
  5
6E5E
330
1E
100
AcDbEntity
  8
躯体と製品
  6
Continuous
 62
     3
100
AcDbLine
 10
358.2185555368807
 20
560.5439581145051
 30
0.0
 11
358.1662195806375
 21
559.5453285797504
 31
0.0
  0
ARC
  5
6E5F
330
1E
100
AcDbEntity
  8
躯体と製品
  6
Continuous
 62
     3
100
AcDbCircle
 10
357.7192407695033
 20
560.5701260926266
 30
0.0
 40
0.5
100
AcDbArc
 50
356.9999999999993
 51
87.00000000000009
  0
LINE
  5
6E60
330
1E
100
AcDbEntity
  8
躯体と製品
  6
Continuous
 62
     3
100
AcDbLine
 10
351.9106394078261
 20
565.3283097684401
 30
0.0
 11
351.9106394078261
 21
572.379345201725
 31
0.0
  0
LINE
  5
6E61
330
1E
100
AcDbEntity
  8
躯体と製品
  6
Continuous
 62
     3
100
AcDbLine
 10
352.8583034515833
 20
564.3296802336855
 30
0.0
 11
357.9024166163535
 21
564.0653294642675
 31
0.0
  0
ARC
  5
6E62
330
1E
100
AcDbEntity
  8
躯体と製品
  6
Continuous
 62
     3
100
AcDbCircle
 10
352.9106394078261
 20
565.3283097684401
 30
0.0
 40
1.0
100
AcDbArc
 50
180.0
 51
267.0000000000001
  0
LINE
  5
6E63
330
1E
100
AcDbEntity
  8
躯体と製品
  6
Continuous
 62
     3
100
AcDbLine
 10
349.4106394078261
 20
563.4041767453688
 30
0.0
 11
349.4106394078261
 21
570.8793452017252
 31
0.0
  0
LINE
  5
6E64
330
1E
100
AcDbEntity
  8
躯体と製品
  6
Continuous
 62
     3
100
AcDbLine
 10
351.3059674953402
 20
561.4069176758596
 30
0.0
 11
357.7454087476248
 21
561.0694408600038
 31
0.0
  0
ARC
  5
6E65
330
1E
100
AcDbEntity
  8
躯体と製品
  6
Continuous
 62
     3
100
AcDbCircle
 10
351.4106394078261
 20
563.4041767453688
 30
0.0
 40
2.0
100
AcDbArc
 50
180.0
 51
267.0000000000001
  0
LINE
  5
6E66
330
1E
100
AcDbEntity
  8
躯体と製品
  6
Continuous
 62
     3
100
AcDbLine
 10
333.8106394078262
 20
613.8793452017253
 30
0.0
 11
333.8106394078262
 21
617.1293452017253
 31
0.0
  0
ARC
  5
6E67
330
1E
100
AcDbEntity
  8
躯体と製品
  6
Continuous
 62
     3
100
AcDbCircle
 10
335.3106394078261
 20
613.8793452017253
 30
0.0
 40
1.5
100
AcDbArc
 50
180.0
 51
240.255118703058
  0
LINE
  5
6E68
330
1E
100
AcDbEntity
  8
躯体と製品
  6
Continuous
 62
     3
100
AcDbLine
 10
334.5664310002909
 20
612.5769804885386
 30
0.0
 11
338.2106394078262
 21
610.4945756842327
 31
0.0
  0
LINE
  5
6E69
330
1E
100
AcDbEntity
  8
躯体と製品
  6
Continuous
 62
     3
100
AcDbLine
 10
338.2106394078262
 20
610.4945756842327
 30
0.0
 11
338.2106394078262
 21
608.9793452017252
 31
0.0
  0
LINE
  5
6E6A
330
1E
100
AcDbEntity
  8
躯体と製品
  6
DASHED1
 62
     7
100
AcDbLine
 10
359.8996756858629
 20
563.9606575517816
 30
0.0
 11
388.3606174263682
 21
562.4690827988579
 31
0.0
  0
ARC
  5
6E6B
330
1E
100
AcDbEntity
  8
躯体と製品
  6
DASHED1
 62
     7
100
AcDbCircle
 10
388.2821134920038
 20
560.9711384967258
 30
0.0
 40
1.500000000000001
100
AcDbArc
 50
267.0000000000001
 51
87.00000000000009
  0
LINE
  5
6E6C
330
1E
100
AcDbEntity
  8
躯体と製品
  6
DASHED1
 62
     7
100
AcDbLine
 10
384.7084061859984
 20
559.6563700414442
 30
0.0
 11
388.2036095576393
 21
559.473194194594
 31
0.0
  0
LINE
  5
6E6D
330
1E
100
AcDbEntity
  8
躯体と製品
  6
DASHED1
 62
     7
100
AcDbLine
 10
384.7084061859984
 20
559.6563700414442
 30
0.0
 11
384.7607421422413
 21
560.6549995761988
 31
0.0
  0
LINE
  5
6E6E
330
1E
100
AcDbEntity
  8
躯体と製品
  6
DASHED1
 62
     7
100
AcDbLine
 10
364.7881514471497
 20
561.7017187010576
 30
0.0
 11
384.7607421422413
 21
560.6549995761988
 31
0.0
  0
LINE
  5
6E6F
330
1E
100
AcDbEntity
  8
躯体と製品
  6
DASHED1
 62
     7
100
AcDbLine
 10
364.7358154909069
 20
560.703089166303
 30
0.0
 11
364.7881514471497
 21
561.7017187010576
 31
0.0
  0
LINE
  5
6E70
330
1E
100
AcDbEntity
  8
躯体と製品
  6
DASHED1
 62
     7
100
AcDbLine
 10
359.7426678171339
 20
560.9647689475179
 30
0.0
 11
364.7358154909069
 21
560.703089166303
 31
0.0
  0
LINE
  5
6E71
330
1E
100
AcDbEntity
  8
躯体と製品
  6
Continuous
 62
     4
100
AcDbLine
 10
361.6172033219318
 20
586.4015235274717
 30
0.0
 11
361.1027148358586
 21
586.9160120135446
 31
0.0
  0
LINE
  5
6E72
330
1E
100
AcDbEntity
  8
躯体と製品
  6
Continuous
 62
     4
100
AcDbLine
 10
361.3816915188384
 20
581.9076906210762
 30
0.0
 11
360.8672030327654
 21
582.422179107149
 31
0.0
  0
LINE
  5
6E73
330
1E
100
AcDbEntity
  8
躯体と製品
  6
Continuous
 62
     4
100
AcDbLine
 10
362.8741199405293
 20
581.8294757617565
 30
0.0
 11
360.937628008421
 21
583.7659676938651
 31
0.0
  0
LINE
  5
6E74
330
1E
100
AcDbEntity
  8
躯体と製品
  6
Continuous
 62
     4
100
AcDbLine
 10
364.3665483622231
 20
581.7512609024365
 30
0.0
 11
361.0080529840769
 21
585.1097562805827
 31
0.0
  0
LINE
  5
6E75
330
1E
100
AcDbEntity
  8
躯体と製品
  6
Continuous
 62
     4
100
AcDbLine
 10
365.8589767839163
 20
581.6730460431163
 30
0.0
 11
361.6319587729826
 21
585.9000640540507
 31
0.0
  0
LINE
  5
6E76
330
1E
100
AcDbEntity
  8
躯体と製品
  6
Continuous
 62
     4
100
AcDbLine
 10
367.3514052056095
 20
581.5948311837967
 30
0.0
 11
363.1243871946754
 21
585.8218491947306
 31
0.0
  0
LINE
  5
6E77
330
1E
100
AcDbEntity
  8
躯体と製品
  6
Continuous
 62
     4
100
AcDbLine
 10
368.8438336273025
 20
581.5166163244769
 30
0.0
 11
364.6168156163686
 21
585.7436343354108
 31
0.0
  0
LINE
  5
6E78
330
1E
100
AcDbEntity
  8
躯体と製品
  6
Continuous
 62
     4
100
AcDbLine
 10
370.3362620489953
 20
581.4384014651572
 30
0.0
 11
366.1092440380617
 21
585.6654194760911
 31
0.0
  0
LINE
  5
6E79
330
1E
100
AcDbEntity
  8
躯体と製品
  6
Continuous
 62
     4
100
AcDbLine
 10
371.8286904706888
 20
581.3601866058371
 30
0.0
 11
367.6016724597547
 21
585.5872046167713
 31
0.0
  0
LINE
  5
6E7A
330
1E
100
AcDbEntity
  8
躯体と製品
  6
Continuous
 62
     4
100
AcDbLine
 10
373.3211188923818
 20
581.2819717465178
 30
0.0
 11
369.094100881448
 21
585.5089897574514
 31
0.0
  0
LINE
  5
6E7B
330
1E
100
AcDbEntity
  8
躯体と製品
  6
Continuous
 62
     4
100
AcDbLine
 10
374.8135473140729
 20
581.203756887198
 30
0.0
 11
370.5865293031391
 21
585.4307748981313
 31
0.0
  0
LINE
  5
6E7C
330
1E
100
AcDbEntity
  8
躯体と製品
  6
Continuous
 62
     4
100
AcDbLine
 10
375.8440432106916
 20
581.5874745529526
 30
0.0
 11
372.0789577248322
 21
585.3525600388118
 31
0.0
  0
LINE
  5
6E7D
330
1E
100
AcDbEntity
  8
躯体と製品
  6
Continuous
 62
     4
100
AcDbLine
 10
375.9848931620025
 20
584.2750517263881
 30
0.0
 11
375.0638145682184
 21
585.1961303201721
 31
0.0
  0
LINE
  5
6E7E
330
1E
100
AcDbEntity
  8
躯体と製品
  6
Continuous
 62
     4
100
AcDbLine
 10
375.9144681863469
 20
582.9312631396707
 30
0.0
 11
373.5713861465253
 21
585.274345179492
 31
0.0
  0
LINE
  5
6E7F
330
1E
100
AcDbEntity
  8
躯体と製品
  6
Continuous
 62
     7
100
AcDbLine
 10
352.9106394078261
 20
597.2692014352839
 30
0.0
 11
352.9106394078261
 21
596.1793452017253
 31
0.0
  0
LINE
  5
6E80
330
1E
100
AcDbEntity
  8
躯体と製品
  6
Continuous
 62
     7
100
AcDbLine
 10
351.9106394078261
 20
597.5793452017253
 30
0.0
 11
351.9106394078261
 21
595.8793452017252
 31
0.0
  0
ARC
  5
6E81
330
1E
100
AcDbEntity
  8
躯体と製品
  6
Continuous
 62
     7
100
AcDbCircle
 10
353.2106394078261
 20
597.2692014352839
 30
0.0
 40
0.2999999999999999
100
AcDbArc
 50
88.09506709944193
 51
180.0
  0
LINE
  5
6E82
330
1E
100
AcDbEntity
  8
躯体と製品
  6
Continuous
 62
     7
100
AcDbLine
 10
353.2206117757125
 20
597.5690356426032
 30
0.0
 11
358.9073235542745
 21
597.3798978439945
 31
0.0
  0
ARC
  5
6E83
330
1E
100
AcDbEntity
  8
躯体と製品
  6
Continuous
 62
     7
100
AcDbCircle
 10
352.9106394078261
 20
597.5793452017253
 30
0.0
 40
1.0
100
AcDbArc
 50
88.09506709944274
 51
180.0
  0
LINE
  5
6E84
330
1E
100
AcDbEntity
  8
躯体と製品
  6
Continuous
 62
     7
100
AcDbLine
 10
352.9438806341142
 20
598.5787925594559
 30
0.0
 11
358.4408411017296
 21
598.3959658148683
 31
0.0
  0
LINE
  5
6E85
330
1E
100
AcDbEntity
  8
躯体と製品
  6
Continuous
 62
     7
100
AcDbLine
 10
358.9571853937379
 20
598.8790688805572
 30
0.0
 11
358.9738060069153
 21
599.3787925594537
 31
0.0
  0
ARC
  5
6E86
330
1E
100
AcDbEntity
  8
躯体と製品
  6
Continuous
 62
     7
100
AcDbCircle
 10
358.9405647805626
 20
598.379345201725
 30
0.0
 40
1.0
100
AcDbArc
 50
268.0950670994428
 51
358.0950670957441
  0
LINE
  5
6E87
330
1E
100
AcDbEntity
  8
躯体と製品
  6
Continuous
 62
     7
100
AcDbLine
 10
359.9400121382912
 20
598.3461039753726
 30
0.0
 11
359.973253364646
 21
599.3455513331656
 31
0.0
  0
ARC
  5
6E88
330
1E
100
AcDbEntity
  8
躯体と製品
  6
Continuous
 62
     7
100
AcDbCircle
 10
359.4735296857161
 20
599.3621719463119
 30
0.0
 40
0.4999999999354556
100
AcDbArc
 50
358.0950670994427
 51
178.0950670994427
  0
ARC
  5
6E89
330
1E
100
AcDbEntity
  8
躯体と製品
  6
Continuous
 62
     7
100
AcDbCircle
 10
358.4574617148736
 20
598.8956894937334
 30
0.0
 40
0.5
100
AcDbArc
 50
268.0950670994428
 51
358.0950670957441
  0
LINE
  5
6E8A
330
1E
100
AcDbEntity
  8
躯体と製品
  6
DASHED1
 62
     7
100
AcDbLine
 10
299.0192934078261
 20
591.0286792017252
 30
0.0
 11
299.1239634078262
 21
593.0259382017252
 31
0.0
  0
LINE
  5
6E8B
330
1E
100
AcDbEntity
  8
躯体と製品
  6
DASHED1
 62
     7
100
AcDbLine
 10
316.9106394078263
 20
591.8793442017252
 30
0.0
 11
328.9106394078262
 21
591.8793442017252
 31
0.0
  0
LINE
  5
6E8C
330
1E
100
AcDbEntity
  8
躯体と製品
  6
DASHED1
 62
     7
100
AcDbLine
 10
309.1102584078262
 20
583.2561082017252
 30
0.0
 11
313.7682384078261
 21
581.5607422017252
 31
0.0
  0
LINE
  5
6E8D
330
1E
100
AcDbEntity
  8
躯体と製品
  6
DASHED1
 62
     7
100
AcDbLine
 10
320.7142794078261
 20
594.2016832017252
 30
0.0
 11
314.1102594078262
 21
593.2582522017252
 31
0.0
  0
LINE
  5
6E8E
330
1E
100
AcDbEntity
  8
躯体と製品
  6
DASHED1
 62
     7
100
AcDbLine
 10
294.7800834078261
 20
586.0098982017253
 30
0.0
 11
292.9106394078262
 21
587.8793452017252
 31
0.0
  0
LINE
  5
6E8F
330
1E
100
AcDbEntity
  8
躯体と製品
  6
DASHED1
 62
     7
100
AcDbLine
 10
294.130817407826
 20
582.4710682017252
 30
0.0
 11
292.1335584078262
 21
582.3663982017252
 31
0.0
  0
LINE
  5
6E90
330
1E
100
AcDbEntity
  8
躯体と製品
  6
DASHED1
 62
     7
100
AcDbLine
 10
294.0261444078262
 20
584.4683272017253
 30
0.0
 11
294.130817407826
 21
582.4710682017252
 31
0.0
  0
LINE
  5
6E91
330
1E
100
AcDbEntity
  8
躯体と製品
  6
DASHED1
 62
     7
100
AcDbLine
 10
296.0234034078261
 20
584.5730002017253
 30
0.0
 11
294.0261444078262
 21
584.4683272017253
 31
0.0
  0
LINE
  5
6E92
330
1E
100
AcDbEntity
  8
躯体と製品
  6
DASHED1
 62
     7
100
AcDbLine
 10
297.1267044078262
 20
582.6280762017252
 30
0.0
 11
296.0234034078261
 21
584.5730002017253
 31
0.0
  0
LINE
  5
6E93
330
1E
100
AcDbEntity
  8
躯体と製品
  6
DASHED1
 62
     7
100
AcDbLine
 10
299.1239634078262
 20
582.7327492017253
 30
0.0
 11
297.1267044078262
 21
582.6280762017252
 31
0.0
  0
LINE
  5
6E94
330
1E
100
AcDbEntity
  8
躯体と製品
  6
DASHED1
 62
     7
100
AcDbLine
 10
299.0192934078261
 20
584.7300082017252
 30
0.0
 11
299.1239634078262
 21
582.7327492017253
 31
0.0
  0
LINE
  5
6E95
330
1E
100
AcDbEntity
  8
躯体と製品
  6
DASHED1
 62
     7
100
AcDbLine
 10
301.0165524078262
 20
584.8346812017253
 30
0.0
 11
299.0192934078261
 21
584.7300082017252
 31
0.0
  0
LINE
  5
6E96
330
1E
100
AcDbEntity
  8
躯体と製品
  6
DASHED1
 62
     7
100
AcDbLine
 10
302.1198534078262
 20
582.8897572017251
 30
0.0
 11
301.0165524078262
 21
584.8346812017253
 31
0.0
  0
LINE
  5
6E97
330
1E
100
AcDbEntity
  8
躯体と製品
  6
DASHED1
 62
     7
100
AcDbLine
 10
304.1171124078261
 20
582.9944302017252
 30
0.0
 11
302.1198534078262
 21
582.8897572017251
 31
0.0
  0
LINE
  5
6E98
330
1E
100
AcDbEntity
  8
躯体と製品
  6
DASHED1
 62
     7
100
AcDbLine
 10
304.0124394078262
 20
584.9916892017252
 30
0.0
 11
304.1171124078261
 21
582.9944302017252
 31
0.0
  0
LINE
  5
6E99
330
1E
100
AcDbEntity
  8
躯体と製品
  6
DASHED1
 62
     7
100
AcDbLine
 10
306.0096984078261
 20
585.0963592017252
 30
0.0
 11
304.0124394078262
 21
584.9916892017252
 31
0.0
  0
LINE
  5
6E9A
330
1E
100
AcDbEntity
  8
躯体と製品
  6
DASHED1
 62
     7
100
AcDbLine
 10
307.1129994078262
 20
583.1514382017253
 30
0.0
 11
306.0096984078261
 21
585.0963592017252
 31
0.0
  0
LINE
  5
6E9B
330
1E
100
AcDbEntity
  8
躯体と製品
  6
DASHED1
 62
     7
100
AcDbLine
 10
309.1102584078262
 20
583.2561082017252
 30
0.0
 11
307.1129994078262
 21
583.1514382017253
 31
0.0
  0
LINE
  5
6E9C
330
1E
100
AcDbEntity
  8
躯体と製品
  6
DASHED1
 62
     7
100
AcDbLine
 10
309.0055884078262
 20
585.2533672017253
 30
0.0
 11
309.1102584078262
 21
583.2561082017252
 31
0.0
  0
LINE
  5
6E9D
330
1E
100
AcDbEntity
  8
躯体と製品
  6
DASHED1
 62
     7
100
AcDbLine
 10
311.0028474078262
 20
585.3580402017255
 30
0.0
 11
309.0055884078262
 21
585.2533672017253
 31
0.0
  0
LINE
  5
6E9E
330
1E
100
AcDbEntity
  8
躯体と製品
  6
DASHED1
 62
     7
100
AcDbLine
 10
312.1061484078262
 20
583.4131162017252
 30
0.0
 11
311.0028474078262
 21
585.3580402017255
 31
0.0
  0
LINE
  5
6E9F
330
1E
100
AcDbEntity
  8
躯体と製品
  6
DASHED1
 62
     7
100
AcDbLine
 10
289.9531224078262
 20
585.7569292017251
 30
0.0
 11
320.9106384078262
 21
587.3793442017252
 31
0.0
  0
LINE
  5
6EA0
330
1E
100
AcDbEntity
  8
躯体と製品
  6
DASHED1
 62
     7
100
AcDbLine
 10
290.0316264078263
 20
584.258984201725
 30
0.0
 11
289.9531224078262
 21
585.7569292017251
 31
0.0
  0
LINE
  5
6EA1
330
1E
100
AcDbEntity
  8
躯体と製品
  6
DASHED1
 62
     7
100
AcDbLine
 10
292.1335584078262
 20
582.3663982017252
 30
0.0
 11
290.0316264078263
 21
584.258984201725
 31
0.0
  0
LINE
  5
6EA2
330
1E
100
AcDbEntity
  8
躯体と製品
  6
DASHED1
 62
     7
100
AcDbLine
 10
291.9503814078262
 20
585.8616022017255
 30
0.0
 11
292.1335584078262
 21
582.3663982017252
 31
0.0
  0
LINE
  5
6EA3
330
1E
100
AcDbEntity
  8
躯体と製品
  6
DASHED1
 62
     7
100
AcDbLine
 10
314.1034074078262
 20
583.5177892017251
 30
0.0
 11
312.1061484078262
 21
583.4131162017252
 31
0.0
  0
LINE
  5
6EA4
330
1E
100
AcDbEntity
  8
躯体と製品
  6
DASHED1
 62
     7
100
AcDbLine
 10
313.9987344078261
 20
585.5150482017251
 30
0.0
 11
314.1034074078262
 21
583.5177892017251
 31
0.0
  0
LINE
  5
6EA5
330
1E
100
AcDbEntity
  8
躯体と製品
  6
DASHED1
 62
     7
100
AcDbLine
 10
315.9959934078262
 20
585.6197182017251
 30
0.0
 11
313.9987344078261
 21
585.5150482017251
 31
0.0
  0
LINE
  5
6EA6
330
1E
100
AcDbEntity
  8
躯体と製品
  6
DASHED1
 62
     7
100
AcDbLine
 10
328.9106394078262
 20
582.8793442017252
 30
0.0
 11
323.9106384078263
 21
583.8793432017252
 31
0.0
  0
LINE
  5
6EA7
330
1E
100
AcDbEntity
  8
躯体と製品
  6
DASHED1
 62
     7
100
AcDbLine
 10
320.9106384078262
 20
587.3793442017252
 30
0.0
 11
320.9106384078262
 21
588.3793432017252
 31
0.0
  0
LINE
  5
6EA8
330
1E
100
AcDbEntity
  8
躯体と製品
  6
DASHED1
 62
     7
100
AcDbLine
 10
294.130817407826
 20
593.2876192017252
 30
0.0
 11
292.1335584078262
 21
593.3922892017252
 31
0.0
  0
LINE
  5
6EA9
330
1E
100
AcDbEntity
  8
躯体と製品
  6
DASHED1
 62
     7
100
AcDbLine
 10
294.0261444078262
 20
591.2903602017254
 30
0.0
 11
294.130817407826
 21
593.2876192017252
 31
0.0
  0
LINE
  5
6EAA
330
1E
100
AcDbEntity
  8
躯体と製品
  6
DASHED1
 62
     7
100
AcDbLine
 10
296.0234034078261
 20
591.1856872017251
 30
0.0
 11
294.0261444078262
 21
591.2903602017254
 31
0.0
  0
LINE
  5
6EAB
330
1E
100
AcDbEntity
  8
躯体と製品
  6
DASHED1
 62
     7
100
AcDbLine
 10
297.1267044078262
 20
593.1306112017254
 30
0.0
 11
296.0234034078261
 21
591.1856872017251
 31
0.0
  0
LINE
  5
6EAC
330
1E
100
AcDbEntity
  8
躯体と製品
  6
DASHED1
 62
     7
100
AcDbLine
 10
299.1239634078262
 20
593.0259382017252
 30
0.0
 11
297.1267044078262
 21
593.1306112017254
 31
0.0
  0
LINE
  5
6EAD
330
1E
100
AcDbEntity
  8
躯体と製品
  6
DASHED1
 62
     7
100
AcDbLine
 10
301.0165524078262
 20
590.9240062017252
 30
0.0
 11
299.0192934078261
 21
591.0286792017252
 31
0.0
  0
LINE
  5
6EAE
330
1E
100
AcDbEntity
  8
躯体と製品
  6
DASHED1
 62
     7
100
AcDbLine
 10
302.1198534078262
 20
592.8689302017252
 30
0.0
 11
301.0165524078262
 21
590.9240062017252
 31
0.0
  0
LINE
  5
6EAF
330
1E
100
AcDbEntity
  8
躯体と製品
  6
DASHED1
 62
     7
100
AcDbLine
 10
304.1171124078261
 20
592.7642572017254
 30
0.0
 11
302.1198534078262
 21
592.8689302017252
 31
0.0
  0
LINE
  5
6EB0
330
1E
100
AcDbEntity
  8
躯体と製品
  6
DASHED1
 62
     7
100
AcDbLine
 10
304.0124394078262
 20
590.7669982017255
 30
0.0
 11
304.1171124078261
 21
592.7642572017254
 31
0.0
  0
LINE
  5
6EB1
330
1E
100
AcDbEntity
  8
躯体と製品
  6
DASHED1
 62
     7
100
AcDbLine
 10
306.0096984078261
 20
590.6623282017252
 30
0.0
 11
304.0124394078262
 21
590.7669982017255
 31
0.0
  0
LINE
  5
6EB2
330
1E
100
AcDbEntity
  8
躯体と製品
  6
DASHED1
 62
     7
100
AcDbLine
 10
307.1129994078262
 20
592.6072492017254
 30
0.0
 11
306.0096984078261
 21
590.6623282017252
 31
0.0
  0
LINE
  5
6EB3
330
1E
100
AcDbEntity
  8
躯体と製品
  6
DASHED1
 62
     7
100
AcDbLine
 10
309.1102584078262
 20
592.5025792017252
 30
0.0
 11
307.1129994078262
 21
592.6072492017254
 31
0.0
  0
LINE
  5
6EB4
330
1E
100
AcDbEntity
  8
躯体と製品
  6
DASHED1
 62
     7
100
AcDbLine
 10
309.0055884078262
 20
590.5053202017252
 30
0.0
 11
309.1102584078262
 21
592.5025792017252
 31
0.0
  0
LINE
  5
6EB5
330
1E
100
AcDbEntity
  8
躯体と製品
  6
DASHED1
 62
     7
100
AcDbLine
 10
311.0028474078262
 20
590.4006472017254
 30
0.0
 11
309.0055884078262
 21
590.5053202017252
 31
0.0
  0
LINE
  5
6EB6
330
1E
100
AcDbEntity
  8
躯体と製品
  6
DASHED1
 62
     7
100
AcDbLine
 10
312.1061484078262
 20
592.3455712017252
 30
0.0
 11
311.0028474078262
 21
590.4006472017254
 31
0.0
  0
LINE
  5
6EB7
330
1E
100
AcDbEntity
  8
躯体と製品
  6
DASHED1
 62
     7
100
AcDbLine
 10
289.9531224078262
 20
590.0017582017254
 30
0.0
 11
320.9106384078262
 21
588.3793432017252
 31
0.0
  0
LINE
  5
6EB8
330
1E
100
AcDbEntity
  8
躯体と製品
  6
DASHED1
 62
     7
100
AcDbLine
 10
290.0316264078263
 20
591.4997032017255
 30
0.0
 11
289.9531224078262
 21
590.0017582017254
 31
0.0
  0
LINE
  5
6EB9
330
1E
100
AcDbEntity
  8
躯体と製品
  6
DASHED1
 62
     7
100
AcDbLine
 10
292.1335584078262
 20
593.3922892017252
 30
0.0
 11
290.0316264078263
 21
591.4997032017255
 31
0.0
  0
LINE
  5
6EBA
330
1E
100
AcDbEntity
  8
躯体と製品
  6
DASHED1
 62
     7
100
AcDbLine
 10
291.9503814078262
 20
589.8970852017255
 30
0.0
 11
292.1335584078262
 21
593.3922892017252
 31
0.0
  0
LINE
  5
6EBB
330
1E
100
AcDbEntity
  8
躯体と製品
  6
DASHED1
 62
     7
100
AcDbLine
 10
314.1034074078262
 20
592.2408982017252
 30
0.0
 11
312.1061484078262
 21
592.3455712017252
 31
0.0
  0
LINE
  5
6EBC
330
1E
100
AcDbEntity
  8
躯体と製品
  6
DASHED1
 62
     7
100
AcDbLine
 10
313.9987344078261
 20
590.2436392017254
 30
0.0
 11
314.1034074078262
 21
592.2408982017252
 31
0.0
  0
LINE
  5
6EBD
330
1E
100
AcDbEntity
  8
躯体と製品
  6
DASHED1
 62
     7
100
AcDbLine
 10
315.9959934078262
 20
590.1389692017252
 30
0.0
 11
313.9987344078261
 21
590.2436392017254
 31
0.0
  0
LINE
  5
6EBE
330
1E
100
AcDbEntity
  8
躯体と製品
  6
DASHED1
 62
     7
100
AcDbLine
 10
294.7800834078261
 20
589.7487892017251
 30
0.0
 11
292.9106394078262
 21
587.8793452017252
 31
0.0
  0
LINE
  5
6EBF
330
1E
100
AcDbEntity
  8
躯体と製品
  6
DASHED1
 62
     7
100
AcDbLine
 10
323.9106384078263
 20
587.8793452017252
 30
0.0
 11
328.9106394078262
 21
587.8793452017252
 31
0.0
  0
LINE
  5
6EC0
330
1E
100
AcDbEntity
  8
躯体と製品
  6
DASHED1
 62
     7
100
AcDbLine
 10
328.9106394078262
 20
586.8793432017255
 30
0.0
 11
323.9106384078263
 21
587.8793452017252
 31
0.0
  0
LINE
  5
6EC1
330
1E
100
AcDbEntity
  8
躯体と製品
  6
DASHED1
 62
     7
100
AcDbLine
 10
328.9106394078262
 20
588.8793442017251
 30
0.0
 11
323.9106384078263
 21
587.8793452017252
 31
0.0
  0
LINE
  5
6EC2
330
1E
100
AcDbEntity
  8
躯体と製品
  6
DASHED1
 62
     7
100
AcDbLine
 10
328.9106394078262
 20
592.8793432017252
 30
0.0
 11
323.9106384078263
 21
591.8793442017252
 31
0.0
  0
LINE
  5
6EC3
330
1E
100
AcDbEntity
  8
躯体と製品
  6
DASHED1
 62
     7
100
AcDbLine
 10
316.9106394078263
 20
591.8793442017252
 30
0.0
 11
315.9959934078262
 21
590.1389692017252
 31
0.0
  0
ARC
  5
6EC4
330
1E
100
AcDbEntity
  8
躯体と製品
  6
DASHED1
 62
     7
100
AcDbCircle
 10
320.6577114078261
 20
594.5976622017251
 30
0.0
 40
0.3999990000000001
100
AcDbArc
 50
278.1301020000002
 51
8.130101999999403
  0
LINE
  5
6EC5
330
1E
100
AcDbEntity
  8
躯体と製品
  6
DASHED1
 62
     7
100
AcDbLine
 10
321.0255744078261
 20
594.8510572017251
 30
0.0
 11
321.0536904078263
 21
594.6542332017251
 31
0.0
  0
ARC
  5
6EC6
330
1E
100
AcDbEntity
  8
躯体と製品
  6
DASHED1
 62
     7
100
AcDbCircle
 10
320.6295924078262
 20
594.7944892017252
 30
0.0
 40
0.3999990000000001
100
AcDbArc
 50
8.130101999999403
 51
98.2984660000001
  0
LINE
  5
6EC7
330
1E
100
AcDbEntity
  8
躯体と製品
  6
DASHED1
 62
     7
100
AcDbLine
 10
313.7682384078261
 20
594.1979452017252
 30
0.0
 11
320.5718604078262
 21
595.1903002017252
 31
0.0
  0
LINE
  5
6EC8
330
1E
100
AcDbEntity
  8
躯体と製品
  6
DASHED1
 62
     7
100
AcDbLine
 10
320.7142794078261
 20
581.5570042017252
 30
0.0
 11
314.1102594078262
 21
582.5004352017251
 31
0.0
  0
ARC
  5
6EC9
330
1E
100
AcDbEntity
  8
躯体と製品
  6
DASHED1
 62
     7
100
AcDbCircle
 10
320.6577114078261
 20
581.1610252017253
 30
0.0
 40
0.3999990000000001
100
AcDbArc
 50
351.8698980000006
 51
81.86989799999979
  0
LINE
  5
6ECA
330
1E
100
AcDbEntity
  8
躯体と製品
  6
DASHED1
 62
     7
100
AcDbLine
 10
321.0255744078261
 20
580.9076302017252
 30
0.0
 11
321.0536904078263
 21
581.1044572017251
 31
0.0
  0
ARC
  5
6ECB
330
1E
100
AcDbEntity
  8
躯体と製品
  6
DASHED1
 62
     7
100
AcDbCircle
 10
320.6295924078262
 20
580.9641982017251
 30
0.0
 40
0.3999990000000001
100
AcDbArc
 50
261.7015339999999
 51
351.8698980000006
  0
LINE
  5
6ECC
330
1E
100
AcDbEntity
  8
躯体と製品
  6
DASHED1
 62
     7
100
AcDbLine
 10
313.7682384078261
 20
581.5607422017252
 30
0.0
 11
320.5718604078262
 21
580.5683872017253
 31
0.0
  0
LINE
  5
6ECD
330
1E
100
AcDbEntity
  8
躯体と製品
  6
DASHED1
 62
     7
100
AcDbLine
 10
309.1102584078262
 20
584.3202862017251
 30
0.0
 11
314.1102594078262
 21
582.5004352017251
 31
0.0
  0
LINE
  5
6ECE
330
1E
100
AcDbEntity
  8
躯体と製品
  6
DASHED1
 62
     7
100
AcDbLine
 10
309.1102584078262
 20
592.5025792017252
 30
0.0
 11
313.7682384078261
 21
594.1979452017252
 31
0.0
  0
LINE
  5
6ECF
330
1E
100
AcDbEntity
  8
躯体と製品
  6
DASHED1
 62
     7
100
AcDbLine
 10
309.1102584078262
 20
591.4384012017252
 30
0.0
 11
314.1102594078262
 21
593.2582522017252
 31
0.0
  0
LINE
  5
6ED0
330
1E
100
AcDbEntity
  8
躯体と製品
  6
DASHED1
 62
     7
100
AcDbLine
 10
316.9106394078263
 20
583.8793432017252
 30
0.0
 11
328.9106394078262
 21
583.8793432017252
 31
0.0
  0
LINE
  5
6ED1
330
1E
100
AcDbEntity
  8
躯体と製品
  6
DASHED1
 62
     7
100
AcDbLine
 10
315.9959934078262
 20
585.6197182017251
 30
0.0
 11
316.9106394078263
 21
583.8793432017252
 31
0.0
  0
POINT
  5
6ED2
330
1E
100
AcDbEntity
  8
躯体と製品
 62
     4
100
AcDbPoint
 10
363.4106394078261
 20
595.8793452017252
 30
0.0
  0
POINT
  5
6ED3
330
1E
100
AcDbEntity
  8
躯体と製品
 62
     4
100
AcDbPoint
 10
363.4106394078261
 20
631.879345201725
 30
0.0
  0
ARC
  5
6ED4
330
1E
100
AcDbEntity
  8
躯体と製品
  6
Continuous
 62
     7
100
AcDbCircle
 10
341.8106394078261
 20
638.3793452017251
 30
0.0
 40
4.2
100
AcDbArc
 50
14.09578924417161
 51
42.74124453868648
  0
ARC
  5
6ED5
330
1E
100
AcDbEntity
  8
躯体と製品
  6
Continuous
 62
     7
100
AcDbCircle
 10
341.8106394078261
 20
638.3793452017251
 30
0.0
 40
4.2
100
AcDbArc
 50
317.2587554613135
 51
345.9042107558284
  0
LINE
  5
6ED6
330
1E
100
AcDbEntity
  8
躯体と製品
  6
Continuous
 62
     7
100
AcDbLine
 10
345.4763589824799
 20
638.879345201725
 30
0.0
 11
345.4763589824799
 21
637.8793452017252
 31
0.0
  0
ARC
  5
6ED7
330
1E
100
AcDbEntity
  8
躯体と製品
  6
Continuous
 62
     7
100
AcDbCircle
 10
345.4763589824799
 20
639.2998239251295
 30
0.0
 40
0.4204787234042585
100
AcDbArc
 50
270.0
 51
14.09578924417161
  0
ARC
  5
6ED8
330
1E
100
AcDbEntity
  8
躯体と製品
  6
Continuous
 62
     7
100
AcDbCircle
 10
343.4106394078261
 20
636.9007737731537
 30
0.0
 40
2.021428571428568
100
AcDbArc
 50
270.0
 51
317.2587554613135
  0
ARC
  5
6ED9
330
1E
100
AcDbEntity
  8
躯体と製品
  6
Continuous
 62
     7
100
AcDbCircle
 10
343.4106394078261
 20
639.8579166302965
 30
0.0
 40
2.021428571428586
100
AcDbArc
 50
42.74124453868703
 51
90.0
  0
ARC
  5
6EDA
330
1E
100
AcDbEntity
  8
躯体と製品
  6
Continuous
 62
     7
100
AcDbCircle
 10
345.4763589824799
 20
637.4588664783209
 30
0.0
 40
0.4204787234042585
100
AcDbArc
 50
345.9042107558284
 51
90.0
  0
LINE
  5
6EDB
330
1E
100
AcDbEntity
  8
躯体と製品
  6
Continuous
 62
     7
100
AcDbLine
 10
344.4106394078261
 20
631.879345201725
 30
0.0
 11
346.4106394078261
 21
631.879345201725
 31
0.0
  0
ARC
  5
6EDC
330
1E
100
AcDbEntity
  8
躯体と製品
  6
Continuous
 62
     7
100
AcDbCircle
 10
346.4106394078261
 20
632.8793452017253
 30
0.0
 40
1.0
100
AcDbArc
 50
270.0
 51
0.0
  0
ARC
  5
6EDD
330
1E
100
AcDbEntity
  8
躯体と製品
  6
Continuous
 62
     7
100
AcDbCircle
 10
344.4106394078261
 20
632.8793452017253
 30
0.0
 40
1.0
100
AcDbArc
 50
180.0
 51
270.0
  0
LINE
  5
6EDE
330
1E
100
AcDbEntity
  8
躯体と製品
  6
Continuous
 62
     7
100
AcDbLine
 10
341.9106394078261
 20
636.379345201725
 30
0.0
 11
338.9106394078261
 21
636.379345201725
 31
0.0
  0
LINE
  5
6EDF
330
1E
100
AcDbEntity
  8
躯体と製品
  6
Continuous
 62
     4
100
AcDbLine
 10
341.9106394078261
 20
636.8793452017253
 30
0.0
 11
333.4106394078261
 21
636.8793452017253
 31
0.0
  0
LINE
  5
6EE0
330
1E
100
AcDbEntity
  8
躯体と製品
  6
Continuous
 62
     4
100
AcDbLine
 10
341.9106394078261
 20
639.879345201725
 30
0.0
 11
333.4106394078261
 21
639.879345201725
 31
0.0
  0
LINE
  5
6EE1
330
1E
100
AcDbEntity
  8
躯体と製品
  6
Continuous
 62
     7
100
AcDbLine
 10
341.9106394078261
 20
640.379345201725
 30
0.0
 11
338.9106394078261
 21
640.379345201725
 31
0.0
  0
LINE
  5
6EE2
330
1E
100
AcDbEntity
  8
躯体と製品
  6
Continuous
 62
     4
100
AcDbLine
 10
333.9106394078261
 20
640.379345201725
 30
0.0
 11
333.9106394078261
 21
636.379345201725
 31
0.0
  0
LINE
  5
6EE3
330
1E
100
AcDbEntity
  8
躯体と製品
  6
Continuous
 62
     7
100
AcDbLine
 10
333.4106394078261
 20
639.879345201725
 30
0.0
 11
333.4106394078261
 21
636.8793452017253
 31
0.0
  0
LINE
  5
6EE4
330
1E
100
AcDbEntity
  8
躯体と製品
  6
Continuous
 62
     7
100
AcDbLine
 10
333.4106394078261
 20
639.879345201725
 30
0.0
 11
333.9106394078261
 21
640.379345201725
 31
0.0
  0
LINE
  5
6EE5
330
1E
100
AcDbEntity
  8
躯体と製品
  6
Continuous
 62
     7
100
AcDbLine
 10
333.4106394078261
 20
636.8793452017253
 30
0.0
 11
333.9106394078259
 21
636.379345201725
 31
0.0
  0
LINE
  5
6EE6
330
1E
100
AcDbEntity
  8
躯体と製品
  6
Continuous
 62
     4
100
AcDbLine
 10
340.6106395881201
 20
633.9690029142127
 30
0.0
 11
340.8209818756319
 21
634.1793452017245
 31
0.0
  0
LINE
  5
6EE7
330
1E
100
AcDbEntity
  8
躯体と製品
  6
Continuous
 62
     4
100
AcDbLine
 10
340.6106408003026
 20
632.5547905640215
 30
0.0
 11
341.4106404078261
 21
633.3547901715451
 31
0.0
  0
LINE
  5
6EE8
330
1E
100
AcDbEntity
  8
躯体と製品
  6
Continuous
 62
     4
100
AcDbLine
 10
340.6106420124851
 20
631.1405782138311
 30
0.0
 11
341.4106404078258
 21
631.9405766091716
 31
0.0
  0
LINE
  5
6EE9
330
1E
100
AcDbEntity
  8
躯体と製品
  6
Continuous
 62
     4
100
AcDbLine
 10
340.8344184527184
 20
629.9501410916909
 30
0.0
 11
341.4290821334622
 21
630.5448047724349
 31
0.0
  0
LINE
  5
6EEA
330
1E
100
AcDbEntity
  8
躯体と製品
  6
Continuous
 62
     4
100
AcDbLine
 10
341.6957269131095
 20
629.397235989709
 30
0.0
 11
342.4778371251258
 21
630.1793462017251
 31
0.0
  0
LINE
  5
6EEB
330
1E
100
AcDbEntity
  8
躯体と製品
  6
Continuous
 62
     4
100
AcDbLine
 10
343.0920496874994
 20
629.3793452017252
 30
0.0
 11
343.8920506874989
 21
630.1793462017249
 31
0.0
  0
LINE
  5
6EEC
330
1E
100
AcDbEntity
  8
躯体と製品
  6
Continuous
 62
     4
100
AcDbLine
 10
344.5062632498726
 20
629.3793452017252
 30
0.0
 11
345.3062642498724
 21
630.1793462017249
 31
0.0
  0
LINE
  5
6EED
330
1E
100
AcDbEntity
  8
躯体と製品
  6
Continuous
 62
     4
100
AcDbLine
 10
345.9204768122419
 20
629.3793452017248
 30
0.0
 11
346.7204778122416
 21
630.1793462017244
 31
0.0
  0
LINE
  5
6EEE
330
1E
100
AcDbEntity
  8
躯体と製品
  6
Continuous
 62
     4
100
AcDbLine
 10
347.334690374615
 20
629.3793452017246
 30
0.0
 11
348.1346913746146
 21
630.1793462017244
 31
0.0
  0
LINE
  5
6EEF
330
1E
100
AcDbEntity
  8
躯体と製品
  6
Continuous
 62
     4
100
AcDbLine
 10
348.7489039369882
 20
629.3793452017244
 30
0.0
 11
349.5489049369879
 21
630.1793462017244
 31
0.0
  0
LINE
  5
6EF0
330
1E
100
AcDbEntity
  8
躯体と製品
  6
Continuous
 62
     4
100
AcDbLine
 10
350.1631174993614
 20
629.3793452017241
 30
0.0
 11
350.9631184993622
 21
630.1793462017249
 31
0.0
  0
LINE
  5
6EF1
330
1E
100
AcDbEntity
  8
躯体と製品
  6
Continuous
 62
     4
100
AcDbLine
 10
351.5773310617353
 20
629.3793452017248
 30
0.0
 11
352.3773320617357
 21
630.1793462017251
 31
0.0
  0
LINE
  5
6EF2
330
1E
100
AcDbEntity
  8
躯体と製品
  6
Continuous
 62
     4
100
AcDbLine
 10
352.9915446241081
 20
629.3793452017244
 30
0.0
 11
353.791545624109
 21
630.1793462017251
 31
0.0
  0
LINE
  5
6EF3
330
1E
100
AcDbEntity
  8
躯体と製品
  6
Continuous
 62
     4
100
AcDbLine
 10
354.4057581864824
 20
629.3793452017252
 30
0.0
 11
355.2057591864821
 21
630.1793462017249
 31
0.0
  0
LINE
  5
6EF4
330
1E
100
AcDbEntity
  8
躯体と製品
  6
Continuous
 62
     4
100
AcDbLine
 10
355.8199717488555
 20
629.3793452017251
 30
0.0
 11
356.6199727488553
 21
630.1793462017244
 31
0.0
  0
LINE
  5
6EF5
330
1E
100
AcDbEntity
  8
躯体と製品
  6
Continuous
 62
     4
100
AcDbLine
 10
357.2341853112287
 20
629.3793452017248
 30
0.0
 11
358.0341863112283
 21
630.1793462017244
 31
0.0
  0
LINE
  5
6EF6
330
1E
100
AcDbEntity
  8
躯体と製品
  6
Continuous
 62
     4
100
AcDbLine
 10
358.6483988736018
 20
629.3793452017246
 30
0.0
 11
359.4483998736015
 21
630.1793462017244
 31
0.0
  0
LINE
  5
6EF7
330
1E
100
AcDbEntity
  8
躯体と製品
  6
Continuous
 62
     4
100
AcDbLine
 10
360.0626124359759
 20
629.3793452017255
 30
0.0
 11
360.7763374827889
 21
630.0930702485386
 31
0.0
  0
LINE
  5
6EF8
330
1E
100
AcDbEntity
  8
躯体と製品
  6
Continuous
 62
     4
100
AcDbLine
 10
360.810641407827
 20
628.7131606112029
 30
0.0
 11
361.5004997623608
 21
629.4030189657371
 31
0.0
  0
LINE
  5
6EF9
330
1E
100
AcDbEntity
  8
躯体と製品
  6
Continuous
 62
     4
100
AcDbLine
 10
360.810641407827
 20
627.2989470488298
 30
0.0
 11
361.6106394078265
 21
628.0989450488294
 31
0.0
  0
LINE
  5
6EFA
330
1E
100
AcDbEntity
  8
躯体と製品
  6
Continuous
 62
     4
100
AcDbLine
 10
360.810641407827
 20
625.8847334864563
 30
0.0
 11
361.6106394078266
 21
626.6847314864563
 31
0.0
  0
LINE
  5
6EFB
330
1E
100
AcDbEntity
  8
躯体と製品
  6
Continuous
 62
     4
100
AcDbLine
 10
360.810641407827
 20
624.470519924083
 30
0.0
 11
361.6106394078266
 21
625.270517924083
 31
0.0
  0
LINE
  5
6EFC
330
1E
100
AcDbEntity
  8
躯体と製品
  6
Continuous
 62
     4
100
AcDbLine
 10
360.8106414078252
 20
623.056306361708
 30
0.0
 11
361.610639407826
 21
623.8563043617087
 31
0.0
  0
LINE
  5
6EFD
330
1E
100
AcDbEntity
  8
躯体と製品
  6
Continuous
 62
     4
100
AcDbLine
 10
360.8106414078252
 20
621.6420927993347
 30
0.0
 11
361.6106394078258
 21
622.4420907993353
 31
0.0
  0
LINE
  5
6EFE
330
1E
100
AcDbEntity
  8
躯体と製品
  6
Continuous
 62
     4
100
AcDbLine
 10
360.8106414078255
 20
620.2278792369654
 30
0.0
 11
361.6106394078264
 21
621.0278772369662
 31
0.0
  0
LINE
  5
6EFF
330
1E
100
AcDbEntity
  8
躯体と製品
  6
Continuous
 62
     4
100
AcDbLine
 10
360.8106414078258
 20
618.8136656745923
 30
0.0
 11
361.6106394078264
 21
619.6136636745928
 31
0.0
  0
LINE
  5
6F00
330
1E
100
AcDbEntity
  8
躯体と製品
  6
Continuous
 62
     4
100
AcDbLine
 10
360.8106414078258
 20
617.3994521122188
 30
0.0
 11
361.6106394078264
 21
618.1994501122196
 31
0.0
  0
LINE
  5
6F01
330
1E
100
AcDbEntity
  8
躯体と製品
  6
Continuous
 62
     4
100
AcDbLine
 10
360.8106414078258
 20
615.9852385498457
 30
0.0
 11
361.6106394078265
 21
616.7852365498463
 31
0.0
  0
LINE
  5
6F02
330
1E
100
AcDbEntity
  8
躯体と製品
  6
Continuous
 62
     4
100
AcDbLine
 10
360.8106414078259
 20
614.5710249874723
 30
0.0
 11
361.6106394078266
 21
615.3710229874731
 31
0.0
  0
LINE
  5
6F03
330
1E
100
AcDbEntity
  8
躯体と製品
  6
Continuous
 62
     4
100
AcDbLine
 10
360.8106414078262
 20
613.156811425099
 30
0.0
 11
361.6106394078257
 21
613.9568094250988
 31
0.0
  0
LINE
  5
6F04
330
1E
100
AcDbEntity
  8
躯体と製品
  6
Continuous
 62
     4
100
AcDbLine
 10
360.8106414078262
 20
611.7425978627261
 30
0.0
 11
361.6106394078257
 21
612.5425958627256
 31
0.0
  0
LINE
  5
6F05
330
1E
100
AcDbEntity
  8
躯体と製品
  6
Continuous
 62
     4
100
AcDbLine
 10
360.8106414078262
 20
610.3283843003525
 30
0.0
 11
361.6106394078258
 21
611.1283823003523
 31
0.0
  0
LINE
  5
6F06
330
1E
100
AcDbEntity
  8
躯体と製品
  6
Continuous
 62
     4
100
AcDbLine
 10
360.8106414078262
 20
608.9141707379795
 30
0.0
 11
361.610639407826
 21
609.7141687379791
 31
0.0
  0
LINE
  5
6F07
330
1E
100
AcDbEntity
  8
躯体と製品
  6
Continuous
 62
     4
100
AcDbLine
 10
360.8106414078263
 20
607.4999571756061
 30
0.0
 11
361.610639407826
 21
608.2999551756058
 31
0.0
  0
LINE
  5
6F08
330
1E
100
AcDbEntity
  8
躯体と製品
  6
Continuous
 62
     4
100
AcDbLine
 10
360.8106414078266
 20
606.085743613233
 30
0.0
 11
361.610639407826
 21
606.8857416132328
 31
0.0
  0
LINE
  5
6F09
330
1E
100
AcDbEntity
  8
躯体と製品
  6
Continuous
 62
     4
100
AcDbLine
 10
360.8106414078266
 20
604.6715300508598
 30
0.0
 11
361.6106394078262
 21
605.4715280508594
 31
0.0
  0
LINE
  5
6F0A
330
1E
100
AcDbEntity
  8
躯体と製品
  6
Continuous
 62
     4
100
AcDbLine
 10
360.8106414078267
 20
603.2573164884866
 30
0.0
 11
361.6106394078264
 21
604.0573144884862
 31
0.0
  0
LINE
  5
6F0B
330
1E
100
AcDbEntity
  8
躯体と製品
  6
Continuous
 62
     4
100
AcDbLine
 10
360.8106414078258
 20
601.8431029261123
 30
0.0
 11
361.6106394078264
 21
602.6431009261127
 31
0.0
  0
LINE
  5
6F0C
330
1E
100
AcDbEntity
  8
躯体と製品
  6
Continuous
 62
     4
100
AcDbLine
 10
360.8106414078258
 20
600.428889363739
 30
0.0
 11
361.6106394078264
 21
601.2288873637397
 31
0.0
  0
LINE
  5
6F0D
330
1E
100
AcDbEntity
  8
躯体と製品
  6
Continuous
 62
     7
100
AcDbLine
 10
340.610639407826
 20
634.179345201725
 30
0.0
 11
340.610642407826
 21
630.6793472017249
 31
0.0
  0
LINE
  5
6F0E
330
1E
100
AcDbEntity
  8
躯体と製品
  6
Continuous
 62
     7
100
AcDbLine
 10
360.3106404078261
 20
629.3793452017248
 30
0.0
 11
341.9106414078261
 21
629.3793452017248
 31
0.0
  0
LINE
  5
6F0F
330
1E
100
AcDbEntity
  8
躯体と製品
  6
Continuous
 62
     7
100
AcDbLine
 10
360.8106414078262
 20
600.1793462017249
 30
0.0
 11
361.610639407826
 21
600.1793462017249
 31
0.0
  0
LINE
  5
6F10
330
1E
100
AcDbEntity
  8
躯体と製品
  6
Continuous
 62
     7
100
AcDbLine
 10
361.610639407826
 20
628.8793472017248
 30
0.0
 11
361.610639407826
 21
600.1793462017249
 31
0.0
  0
LINE
  5
6F11
330
1E
100
AcDbEntity
  8
躯体と製品
  6
Continuous
 62
     7
100
AcDbLine
 10
360.8106414078262
 20
628.8793472017248
 30
0.0
 11
360.8106414078262
 21
600.1793462017249
 31
0.0
  0
ARC
  5
6F12
330
1E
100
AcDbEntity
  8
躯体と製品
  6
Continuous
 62
     7
100
AcDbCircle
 10
360.3106404078261
 20
628.8793472017248
 30
0.0
 40
0.5000010000000002
100
AcDbArc
 50
0.0
 51
90.0
  0
ARC
  5
6F13
330
1E
100
AcDbEntity
  8
躯体と製品
  6
Continuous
 62
     7
100
AcDbCircle
 10
360.3106404078261
 20
628.8793472017248
 30
0.0
 40
1.299998999999999
100
AcDbArc
 50
0.0
 51
90.0
  0
LINE
  5
6F14
330
1E
100
AcDbEntity
  8
躯体と製品
  6
Continuous
 62
     7
100
AcDbLine
 10
360.3106404078261
 20
630.1793462017249
 30
0.0
 11
341.9106414078261
 21
630.1793462017249
 31
0.0
  0
LINE
  5
6F15
330
1E
100
AcDbEntity
  8
躯体と製品
  6
Continuous
 62
     7
100
AcDbLine
 10
340.610639407826
 20
634.179345201725
 30
0.0
 11
341.4106404078259
 21
634.179345201725
 31
0.0
  0
ARC
  5
6F16
330
1E
100
AcDbEntity
  8
躯体と製品
  6
Continuous
 62
     7
100
AcDbCircle
 10
341.9106414078261
 20
630.6793472017249
 30
0.0
 40
1.299998999999999
100
AcDbArc
 50
180.0
 51
270.0
  0
ARC
  5
6F17
330
1E
100
AcDbEntity
  8
躯体と製品
  6
Continuous
 62
     7
100
AcDbCircle
 10
341.9106414078261
 20
630.6793472017249
 30
0.0
 40
0.5000010000000002
100
AcDbArc
 50
180.0
 51
270.0
  0
LINE
  5
6F18
330
1E
100
AcDbEntity
  8
躯体と製品
  6
Continuous
 62
     7
100
AcDbLine
 10
341.4106404078259
 20
630.6793472017249
 30
0.0
 11
341.4106404078259
 21
634.179345201725
 31
0.0
  0
ARC
  5
6F19
330
1E
100
AcDbEntity
  8
躯体と製品
  6
Continuous
 62
     3
100
AcDbCircle
 10
342.9106394078261
 20
631.379345201725
 30
0.0
 40
1.0
100
AcDbArc
 50
180.0
 51
270.0
  0
ARC
  5
6F1A
330
1E
100
AcDbEntity
  8
躯体と製品
  6
Continuous
 62
     3
100
AcDbCircle
 10
353.4106394078261
 20
596.879345201725
 30
0.0
 40
0.5
100
AcDbArc
 50
90.0
 51
180.0
  0
LINE
  5
6F1B
330
1E
100
AcDbEntity
  8
躯体と製品
  6
Continuous
 62
     3
100
AcDbLine
 10
352.9106394078261
 20
596.3793452017252
 30
0.0
 11
352.9106394078261
 21
596.879345201725
 31
0.0
  0
ARC
  5
6F1C
330
1E
100
AcDbEntity
  8
躯体と製品
  6
Continuous
 62
     3
100
AcDbCircle
 10
353.4106394078261
 20
596.3793452017252
 30
0.0
 40
0.5
100
AcDbArc
 50
180.0
 51
270.0
  0
ARC
  5
6F1D
330
1E
100
AcDbEntity
  8
躯体と製品
  6
Continuous
 62
     3
100
AcDbCircle
 10
343.9106394078261
 20
632.379345201725
 30
0.0
 40
0.5
100
AcDbArc
 50
180.0
 51
270.0
  0
LINE
  5
6F1E
330
1E
100
AcDbEntity
  8
躯体と製品
  6
Continuous
 62
     3
100
AcDbLine
 10
342.9106394078261
 20
630.379345201725
 30
0.0
 11
361.4106394078261
 21
630.379345201725
 31
0.0
  0
LINE
  5
6F1F
330
1E
100
AcDbEntity
  8
躯体と製品
  6
Continuous
 62
     3
100
AcDbLine
 10
362.4106394078261
 20
595.8793452017252
 30
0.0
 11
353.4106394078261
 21
595.8793452017252
 31
0.0
  0
LINE
  5
6F20
330
1E
100
AcDbEntity
  8
躯体と製品
  6
Continuous
 62
     3
100
AcDbLine
 10
361.4106394078261
 20
597.379345201725
 30
0.0
 11
353.4106394078261
 21
597.379345201725
 31
0.0
  0
LINE
  5
6F21
330
1E
100
AcDbEntity
  8
躯体と製品
  6
Continuous
 62
     3
100
AcDbLine
 10
343.9106394078261
 20
631.879345201725
 30
0.0
 11
362.4106394078261
 21
631.879345201725
 31
0.0
  0
ARC
  5
6F22
330
1E
100
AcDbEntity
  8
躯体と製品
  6
Continuous
 62
     3
100
AcDbCircle
 10
362.4106394078261
 20
596.879345201725
 30
0.0
 40
1.0
100
AcDbArc
 50
270.0
 51
0.0
  0
ARC
  5
6F23
330
1E
100
AcDbEntity
  8
躯体と製品
  6
Continuous
 62
     3
100
AcDbCircle
 10
361.4106394078261
 20
597.879345201725
 30
0.0
 40
0.5
100
AcDbArc
 50
270.0
 51
0.0
  0
LINE
  5
6F24
330
1E
100
AcDbEntity
  8
躯体と製品
  6
Continuous
 62
     3
100
AcDbLine
 10
363.4106394078261
 20
630.879345201725
 30
0.0
 11
363.4106394078261
 21
596.879345201725
 31
0.0
  0
ARC
  5
6F25
330
1E
100
AcDbEntity
  8
躯体と製品
  6
Continuous
 62
     3
100
AcDbCircle
 10
362.4106394078261
 20
630.879345201725
 30
0.0
 40
1.0
100
AcDbArc
 50
0.0
 51
90.0
  0
LINE
  5
6F26
330
1E
100
AcDbEntity
  8
躯体と製品
  6
Continuous
 62
     3
100
AcDbLine
 10
361.9106394078261
 20
629.8793452017251
 30
0.0
 11
361.9106394078261
 21
597.879345201725
 31
0.0
  0
ARC
  5
6F27
330
1E
100
AcDbEntity
  8
躯体と製品
  6
Continuous
 62
     3
100
AcDbCircle
 10
361.4106394078261
 20
629.8793452017251
 30
0.0
 40
0.5
100
AcDbArc
 50
0.0
 51
90.0
  0
LINE
  5
6F28
330
1E
100
AcDbEntity
  8
躯体と製品
  6
Continuous
 62
     3
100
AcDbLine
 10
341.9106394078261
 20
631.379345201725
 30
0.0
 11
341.9106394078261
 21
641.8793452017252
 31
0.0
  0
LINE
  5
6F29
330
1E
100
AcDbEntity
  8
躯体と製品
  6
Continuous
 62
     3
100
AcDbLine
 10
343.4106394078261
 20
638.0793452017252
 30
0.0
 11
343.4106394078261
 21
632.379345201725
 31
0.0
  0
LINE
  5
6F2A
330
1E
100
AcDbEntity
  8
躯体と製品
  6
Continuous
 62
     3
100
AcDbLine
 10
343.4106394078261
 20
642.879345201725
 30
0.0
 11
343.4106394078261
 21
638.6793452017252
 31
0.0
  0
ARC
  5
6F2B
330
1E
100
AcDbEntity
  8
躯体と製品
  6
Continuous
 62
     3
100
AcDbCircle
 10
334.4106394078261
 20
642.879345201725
 30
0.0
 40
0.5
100
AcDbArc
 50
180.0
 51
270.0
  0
LINE
  5
6F2C
330
1E
100
AcDbEntity
  8
躯体と製品
  6
Continuous
 62
     3
100
AcDbLine
 10
343.110639407826
 20
638.3793452017251
 30
0.0
 11
343.4106394078261
 21
638.0793452017252
 31
0.0
  0
LINE
  5
6F2D
330
1E
100
AcDbEntity
  8
躯体と製品
  6
Continuous
 62
     3
100
AcDbLine
 10
334.4106394078261
 20
642.3793452017251
 30
0.0
 11
341.4106394078261
 21
642.3793452017251
 31
0.0
  0
ARC
  5
6F2E
330
1E
100
AcDbEntity
  8
躯体と製品
  6
Continuous
 62
     3
100
AcDbCircle
 10
341.4106394078261
 20
641.8793452017252
 30
0.0
 40
0.5
100
AcDbArc
 50
0.0
 51
90.0
  0
LINE
  5
6F2F
330
1E
100
AcDbEntity
  8
躯体と製品
  6
Continuous
 62
     3
100
AcDbLine
 10
333.9106394078261
 20
643.379345201725
 30
0.0
 11
333.9106394078261
 21
642.879345201725
 31
0.0
  0
ARC
  5
6F30
330
1E
100
AcDbEntity
  8
躯体と製品
  6
Continuous
 62
     3
100
AcDbCircle
 10
334.4106394078261
 20
643.379345201725
 30
0.0
 40
0.5
100
AcDbArc
 50
90.0
 51
180.0
  0
ARC
  5
6F31
330
1E
100
AcDbEntity
  8
躯体と製品
  6
Continuous
 62
     3
100
AcDbCircle
 10
342.4106394078261
 20
642.879345201725
 30
0.0
 40
1.0
100
AcDbArc
 50
0.0
 51
90.0
  0
LINE
  5
6F32
330
1E
100
AcDbEntity
  8
躯体と製品
  6
Continuous
 62
     3
100
AcDbLine
 10
342.4106394078261
 20
643.879345201725
 30
0.0
 11
334.4106394078261
 21
643.879345201725
 31
0.0
  0
LINE
  5
6F33
330
1E
100
AcDbEntity
  8
躯体と製品
  6
Continuous
 62
     3
100
AcDbLine
 10
343.110639407826
 20
638.3793452017251
 30
0.0
 11
343.4106394078261
 21
638.6793452017252
 31
0.0
  0
LINE
  5
6F34
330
1E
100
AcDbEntity
  8
躯体と製品
  6
Continuous
 62
     3
100
AcDbLine
 10
330.9106394078261
 20
592.879345201725
 30
0.0
 11
331.4106394078261
 21
592.879345201725
 31
0.0
  0
LINE
  5
6F35
330
1E
100
AcDbEntity
  8
躯体と製品
  6
Continuous
 62
     3
100
AcDbLine
 10
330.9106394078261
 20
582.8793452017253
 30
0.0
 11
331.4106394078261
 21
582.8793452017253
 31
0.0
  0
LINE
  5
6F36
330
1E
100
AcDbEntity
  8
躯体と製品
  6
Continuous
 62
     3
100
AcDbLine
 10
333.4106394078261
 20
588.3793452017251
 30
0.0
 11
332.9106394078261
 21
587.8793452017252
 31
0.0
  0
LINE
  5
6F37
330
1E
100
AcDbEntity
  8
躯体と製品
  6
Continuous
 62
     3
100
AcDbLine
 10
333.4106394078261
 20
587.3793452017253
 30
0.0
 11
332.9106394078261
 21
587.8793452017252
 31
0.0
  0
LINE
  5
6F38
330
1E
100
AcDbEntity
  8
躯体と製品
  6
Continuous
 62
     3
100
AcDbLine
 10
330.9106394078261
 20
592.879345201725
 30
0.0
 11
330.9106394078261
 21
582.8793452017253
 31
0.0
  0
LINE
  5
6F39
330
1E
100
AcDbEntity
  8
躯体と製品
  6
Continuous
 62
     3
100
AcDbLine
 10
330.9106394078261
 20
634.379345201725
 30
0.0
 11
331.4106394078261
 21
634.379345201725
 31
0.0
  0
LINE
  5
6F3A
330
1E
100
AcDbEntity
  8
躯体と製品
  6
Continuous
 62
     3
100
AcDbLine
 10
331.4106394078261
 20
634.379345201725
 30
0.0
 11
331.4106394078261
 21
621.3793452017252
 31
0.0
  0
LINE
  5
6F3B
330
1E
100
AcDbEntity
  8
躯体と製品
  6
Continuous
 62
     3
100
AcDbLine
 10
331.4106394078261
 20
621.3793452017252
 30
0.0
 11
330.9106394078261
 21
621.3793452017252
 31
0.0
  0
LINE
  5
6F3C
330
1E
100
AcDbEntity
  8
躯体と製品
  6
Continuous
 62
     3
100
AcDbLine
 10
330.9106394078261
 20
619.879345201725
 30
0.0
 11
331.4106394078261
 21
619.879345201725
 31
0.0
  0
ARC
  5
6F3D
330
1E
100
AcDbEntity
  8
躯体と製品
  6
Continuous
 62
     3
100
AcDbCircle
 10
340.9106394078261
 20
629.6793452017253
 30
0.0
 40
0.2999999999999999
100
AcDbArc
 50
180.0
 51
270.0
  0
LINE
  5
6F3E
330
1E
100
AcDbEntity
  8
躯体と製品
  6
Continuous
 62
     3
100
AcDbLine
 10
340.9106394078261
 20
629.3793452017252
 30
0.0
 11
345.5106394078261
 21
629.3793452017252
 31
0.0
  0
LINE
  5
6F3F
330
1E
100
AcDbEntity
  8
躯体と製品
  6
Continuous
 62
     3
100
AcDbLine
 10
339.4106394078261
 20
629.1793452017252
 30
0.0
 11
339.4106394078261
 21
633.8793452017252
 31
0.0
  0
ARC
  5
6F40
330
1E
100
AcDbEntity
  8
躯体と製品
  6
Continuous
 62
     3
100
AcDbCircle
 10
340.4106394078261
 20
629.1793452017252
 30
0.0
 40
1.0
100
AcDbArc
 50
180.0
 51
270.0
  0
LINE
  5
6F41
330
1E
100
AcDbEntity
  8
躯体と製品
  6
Continuous
 62
     3
100
AcDbLine
 10
340.4106394078261
 20
628.1793452017252
 30
0.0
 11
345.5106394078261
 21
628.1793452017252
 31
0.0
  0
ARC
  5
6F42
330
1E
100
AcDbEntity
  8
躯体と製品
  6
Continuous
 62
     3
100
AcDbCircle
 10
338.9106394078261
 20
633.8793452017252
 30
0.0
 40
0.5
100
AcDbArc
 50
0.0
 51
90.0
  0
LINE
  5
6F43
330
1E
100
AcDbEntity
  8
躯体と製品
  6
Continuous
 62
     3
100
AcDbLine
 10
338.9106394078261
 20
634.379345201725
 30
0.0
 11
333.9106394078261
 21
634.379345201725
 31
0.0
  0
ARC
  5
6F44
330
1E
100
AcDbEntity
  8
躯体と製品
  6
Continuous
 62
     3
100
AcDbCircle
 10
333.9106394078261
 20
633.8793452017252
 30
0.0
 40
0.5
100
AcDbArc
 50
90.0
 51
180.0
  0
LINE
  5
6F45
330
1E
100
AcDbEntity
  8
躯体と製品
  6
Continuous
 62
     3
100
AcDbLine
 10
333.4106394078261
 20
633.8793452017252
 30
0.0
 11
333.4106394078261
 21
621.879345201725
 31
0.0
  0
ARC
  5
6F46
330
1E
100
AcDbEntity
  8
躯体と製品
  6
Continuous
 62
     3
100
AcDbCircle
 10
345.5106394078261
 20
628.7793452017251
 30
0.0
 40
0.5999999999999999
100
AcDbArc
 50
270.0
 51
90.0
  0
ARC
  5
6F47
330
1E
100
AcDbEntity
  8
躯体と製品
  6
Continuous
 62
     3
100
AcDbCircle
 10
333.9106394078261
 20
619.379345201725
 30
0.0
 40
0.5
100
AcDbArc
 50
90.0
 51
180.0
  0
ARC
  5
6F48
330
1E
100
AcDbEntity
  8
躯体と製品
  6
Continuous
 62
     3
100
AcDbCircle
 10
333.9106394078261
 20
621.879345201725
 30
0.0
 40
0.5
100
AcDbArc
 50
180.0
 51
270.0
  0
LINE
  5
6F49
330
1E
100
AcDbEntity
  8
躯体と製品
  6
Continuous
 62
     3
100
AcDbLine
 10
339.4106394078261
 20
621.3793452017252
 30
0.0
 11
333.9106394078261
 21
621.3793452017252
 31
0.0
  0
ARC
  5
6F4A
330
1E
100
AcDbEntity
  8
躯体と製品
  6
Continuous
 62
     3
100
AcDbCircle
 10
339.4106394078261
 20
620.8793452017252
 30
0.0
 40
0.5
100
AcDbArc
 50
0.0
 51
90.0
  0
LINE
  5
6F4B
330
1E
100
AcDbEntity
  8
躯体と製品
  6
Continuous
 62
     3
100
AcDbLine
 10
339.9106394078261
 20
614.879345201725
 30
0.0
 11
339.9106394078261
 21
620.8793452017252
 31
0.0
  0
ARC
  5
6F4C
330
1E
100
AcDbEntity
  8
躯体と製品
  6
Continuous
 62
     3
100
AcDbCircle
 10
338.9106394078261
 20
614.879345201725
 30
0.0
 40
1.0
100
AcDbArc
 50
270.0
 51
0.0
  0
LINE
  5
6F4D
330
1E
100
AcDbEntity
  8
躯体と製品
  6
Continuous
 62
     3
100
AcDbLine
 10
338.9106394078261
 20
613.879345201725
 30
0.0
 11
337.010639407826
 21
613.879345201725
 31
0.0
  0
LINE
  5
6F4E
330
1E
100
AcDbEntity
  8
躯体と製品
  6
Continuous
 62
     3
100
AcDbLine
 10
338.4106394078261
 20
619.379345201725
 30
0.0
 11
338.4106394078261
 21
615.5793452017252
 31
0.0
  0
ARC
  5
6F4F
330
1E
100
AcDbEntity
  8
躯体と製品
  6
Continuous
 62
     3
100
AcDbCircle
 10
337.9106394078261
 20
619.379345201725
 30
0.0
 40
0.5
100
AcDbArc
 50
0.0
 51
90.0
  0
LINE
  5
6F50
330
1E
100
AcDbEntity
  8
躯体と製品
  6
Continuous
 62
     3
100
AcDbLine
 10
337.9106394078261
 20
619.879345201725
 30
0.0
 11
333.9106394078261
 21
619.879345201725
 31
0.0
  0
LINE
  5
6F51
330
1E
100
AcDbEntity
  8
躯体と製品
  6
Continuous
 62
     3
100
AcDbLine
 10
337.9106394078261
 20
615.0793452017254
 30
0.0
 11
337.010639407826
 21
615.0793452017254
 31
0.0
  0
ARC
  5
6F52
330
1E
100
AcDbEntity
  8
躯体と製品
  6
Continuous
 62
     3
100
AcDbCircle
 10
337.9106394078261
 20
615.5793452017252
 30
0.0
 40
0.5
100
AcDbArc
 50
270.0
 51
0.0
  0
ARC
  5
6F53
330
1E
100
AcDbEntity
  8
躯体と製品
  6
Continuous
 62
     3
100
AcDbCircle
 10
337.010639407826
 20
614.4793452017252
 30
0.0
 40
0.5999999999999999
100
AcDbArc
 50
90.0
 51
270.0
  0
LINE
  5
6F54
330
1E
100
AcDbEntity
  8
躯体と製品
  6
Continuous
 62
     3
100
AcDbLine
 10
332.4106394078261
 20
636.6793452017251
 30
0.0
 11
332.4106394078261
 21
640.0793452017254
 31
0.0
  0
ARC
  5
6F55
330
1E
100
AcDbEntity
  8
躯体と製品
  6
Continuous
 62
     3
100
AcDbCircle
 10
332.7106394078261
 20
636.6793452017251
 30
0.0
 40
0.2999999999999999
100
AcDbArc
 50
180.0
 51
270.0
  0
LINE
  5
6F56
330
1E
100
AcDbEntity
  8
躯体と製品
  6
Continuous
 62
     3
100
AcDbLine
 10
332.7106394078261
 20
636.379345201725
 30
0.0
 11
333.9106394078261
 21
636.379345201725
 31
0.0
  0
LINE
  5
6F57
330
1E
100
AcDbEntity
  8
躯体と製品
  6
Continuous
 62
     3
100
AcDbLine
 10
332.7106394078261
 20
640.379345201725
 30
0.0
 11
333.9106394078261
 21
640.379345201725
 31
0.0
  0
ARC
  5
6F58
330
1E
100
AcDbEntity
  8
躯体と製品
  6
Continuous
 62
     3
100
AcDbCircle
 10
332.7106394078261
 20
640.0793452017254
 30
0.0
 40
0.2999999999999999
100
AcDbArc
 50
90.0
 51
180.0
  0
LINE
  5
6F59
330
1E
100
AcDbEntity
  8
躯体と製品
  6
Continuous
 62
     3
100
AcDbLine
 10
338.9106394078261
 20
640.379345201725
 30
0.0
 11
341.4106394078261
 21
640.379345201725
 31
0.0
  0
LINE
  5
6F5A
330
1E
100
AcDbEntity
  8
躯体と製品
  6
Continuous
 62
     3
100
AcDbLine
 10
338.9106394078261
 20
636.379345201725
 30
0.0
 11
341.4106394078261
 21
636.379345201725
 31
0.0
  0
LINE
  5
6F5B
330
1E
100
AcDbEntity
  8
躯体と製品
  6
Continuous
 62
     3
100
AcDbLine
 10
338.9106394078261
 20
640.379345201725
 30
0.0
 11
338.4106394078261
 21
639.879345201725
 31
0.0
  0
LINE
  5
6F5C
330
1E
100
AcDbEntity
  8
躯体と製品
  6
Continuous
 62
     3
100
AcDbLine
 10
338.4106394078261
 20
639.879345201725
 30
0.0
 11
337.9106394078261
 21
640.379345201725
 31
0.0
  0
LINE
  5
6F5D
330
1E
100
AcDbEntity
  8
躯体と製品
  6
Continuous
 62
     3
100
AcDbLine
 10
337.9106394078261
 20
640.379345201725
 30
0.0
 11
337.4106394078261
 21
639.879345201725
 31
0.0
  0
LINE
  5
6F5E
330
1E
100
AcDbEntity
  8
躯体と製品
  6
Continuous
 62
     3
100
AcDbLine
 10
337.4106394078261
 20
639.879345201725
 30
0.0
 11
336.9106394078261
 21
640.379345201725
 31
0.0
  0
LINE
  5
6F5F
330
1E
100
AcDbEntity
  8
躯体と製品
  6
Continuous
 62
     3
100
AcDbLine
 10
336.9106394078261
 20
640.379345201725
 30
0.0
 11
336.4106394078261
 21
639.879345201725
 31
0.0
  0
LINE
  5
6F60
330
1E
100
AcDbEntity
  8
躯体と製品
  6
Continuous
 62
     3
100
AcDbLine
 10
336.4106394078261
 20
639.879345201725
 30
0.0
 11
335.9106394078261
 21
640.379345201725
 31
0.0
  0
LINE
  5
6F61
330
1E
100
AcDbEntity
  8
躯体と製品
  6
Continuous
 62
     3
100
AcDbLine
 10
335.9106394078261
 20
640.379345201725
 30
0.0
 11
335.4106394078261
 21
639.879345201725
 31
0.0
  0
LINE
  5
6F62
330
1E
100
AcDbEntity
  8
躯体と製品
  6
Continuous
 62
     3
100
AcDbLine
 10
335.4106394078261
 20
639.879345201725
 30
0.0
 11
334.9106394078261
 21
640.379345201725
 31
0.0
  0
LINE
  5
6F63
330
1E
100
AcDbEntity
  8
躯体と製品
  6
Continuous
 62
     3
100
AcDbLine
 10
334.9106394078261
 20
640.379345201725
 30
0.0
 11
334.4106394078261
 21
639.879345201725
 31
0.0
  0
LINE
  5
6F64
330
1E
100
AcDbEntity
  8
躯体と製品
  6
Continuous
 62
     3
100
AcDbLine
 10
334.4106394078261
 20
639.879345201725
 30
0.0
 11
333.9106394078261
 21
640.379345201725
 31
0.0
  0
LINE
  5
6F65
330
1E
100
AcDbEntity
  8
躯体と製品
  6
Continuous
 62
     3
100
AcDbLine
 10
338.9106394078261
 20
636.379345201725
 30
0.0
 11
338.4106394078261
 21
636.8793452017253
 31
0.0
  0
LINE
  5
6F66
330
1E
100
AcDbEntity
  8
躯体と製品
  6
Continuous
 62
     3
100
AcDbLine
 10
338.4106394078261
 20
636.8793452017253
 30
0.0
 11
337.9106394078261
 21
636.379345201725
 31
0.0
  0
LINE
  5
6F67
330
1E
100
AcDbEntity
  8
躯体と製品
  6
Continuous
 62
     3
100
AcDbLine
 10
337.9106394078261
 20
636.379345201725
 30
0.0
 11
337.4106394078261
 21
636.8793452017253
 31
0.0
  0
LINE
  5
6F68
330
1E
100
AcDbEntity
  8
躯体と製品
  6
Continuous
 62
     3
100
AcDbLine
 10
337.4106394078261
 20
636.8793452017253
 30
0.0
 11
336.9106394078261
 21
636.379345201725
 31
0.0
  0
LINE
  5
6F69
330
1E
100
AcDbEntity
  8
躯体と製品
  6
Continuous
 62
     3
100
AcDbLine
 10
336.9106394078261
 20
636.379345201725
 30
0.0
 11
336.4106394078261
 21
636.8793452017253
 31
0.0
  0
LINE
  5
6F6A
330
1E
100
AcDbEntity
  8
躯体と製品
  6
Continuous
 62
     3
100
AcDbLine
 10
336.4106394078261
 20
636.8793452017253
 30
0.0
 11
335.9106394078261
 21
636.379345201725
 31
0.0
  0
LINE
  5
6F6B
330
1E
100
AcDbEntity
  8
躯体と製品
  6
Continuous
 62
     3
100
AcDbLine
 10
335.9106394078261
 20
636.379345201725
 30
0.0
 11
335.4106394078261
 21
636.8793452017253
 31
0.0
  0
LINE
  5
6F6C
330
1E
100
AcDbEntity
  8
躯体と製品
  6
Continuous
 62
     3
100
AcDbLine
 10
335.4106394078261
 20
636.8793452017253
 30
0.0
 11
334.9106394078261
 21
636.379345201725
 31
0.0
  0
LINE
  5
6F6D
330
1E
100
AcDbEntity
  8
躯体と製品
  6
Continuous
 62
     3
100
AcDbLine
 10
334.9106394078261
 20
636.379345201725
 30
0.0
 11
334.4106394078261
 21
636.8793452017253
 31
0.0
  0
LINE
  5
6F6E
330
1E
100
AcDbEntity
  8
躯体と製品
  6
Continuous
 62
     3
100
AcDbLine
 10
334.4106394078261
 20
636.8793452017253
 30
0.0
 11
333.9106394078261
 21
636.379345201725
 31
0.0
  0
LINE
  5
6F6F
330
1E
100
AcDbEntity
  8
躯体と製品
  6
Continuous
 62
     3
100
AcDbLine
 10
331.4106394078261
 20
642.3793452017251
 30
0.0
 11
339.9106394078261
 21
642.3793452017251
 31
0.0
  0
ARC
  5
6F70
330
1E
100
AcDbEntity
  8
躯体と製品
  6
Continuous
 62
     3
100
AcDbCircle
 10
331.4106394078261
 20
641.8793452017252
 30
0.0
 40
0.5
100
AcDbArc
 50
90.0
 51
180.0
  0
LINE
  5
6F71
330
1E
100
AcDbEntity
  8
躯体と製品
  6
Continuous
 62
     3
100
AcDbLine
 10
330.9106394078261
 20
641.8793452017252
 30
0.0
 11
330.9106394078261
 21
634.379345201725
 31
0.0
  0
LINE
  5
6F72
330
1E
100
AcDbEntity
  8
躯体と製品
  6
Continuous
 62
     3
100
AcDbLine
 10
339.9106394078261
 20
642.3793452017251
 30
0.0
 11
339.9106394078261
 21
641.5793452017253
 31
0.0
  0
LINE
  5
6F73
330
1E
100
AcDbEntity
  8
躯体と製品
  6
Continuous
 62
     3
100
AcDbLine
 10
340.610639407826
 20
635.1793452017252
 30
0.0
 11
341.3106394078261
 21
635.1793452017252
 31
0.0
  0
LINE
  5
6F74
330
1E
100
AcDbEntity
  8
躯体と製品
  6
Continuous
 62
     3
100
AcDbLine
 10
340.610639407826
 20
629.6793452017253
 30
0.0
 11
340.610639407826
 21
635.1793452017252
 31
0.0
  0
LINE
  5
6F75
330
1E
100
AcDbEntity
  8
躯体と製品
  6
Continuous
 62
     3
100
AcDbLine
 10
339.9106394078261
 20
641.5793452017253
 30
0.0
 11
341.3106394078261
 21
641.5793452017253
 31
0.0
  0
LINE
  5
6F76
330
1E
100
AcDbEntity
  8
躯体と製品
  6
Continuous
 62
     3
100
AcDbLine
 10
330.9106394078261
 20
621.3793452017252
 30
0.0
 11
330.9106394078261
 21
619.879345201725
 31
0.0
  0
ARC
  5
6F77
330
1E
100
AcDbEntity
  8
躯体と製品
  6
Continuous
 62
     3
100
AcDbCircle
 10
341.3106394078261
 20
635.7793452017252
 30
0.0
 40
0.5999999999999999
100
AcDbArc
 50
270.0
 51
90.0
  0
ARC
  5
6F78
330
1E
100
AcDbEntity
  8
躯体と製品
  6
Continuous
 62
     3
100
AcDbCircle
 10
341.3106394078261
 20
640.9793452017252
 30
0.0
 40
0.5999999999999999
100
AcDbArc
 50
270.0
 51
90.0
  0
LINE
  5
6F79
330
1E
100
AcDbEntity
  8
躯体と製品
  6
Continuous
 62
     3
100
AcDbLine
 10
331.4106394078261
 20
619.879345201725
 30
0.0
 11
331.4106394078261
 21
608.3793452017252
 31
0.0
  0
LINE
  5
6F7A
330
1E
100
AcDbEntity
  8
躯体と製品
  6
Continuous
 62
     3
100
AcDbLine
 10
333.4106394078261
 20
608.8793452017252
 30
0.0
 11
333.4106394078261
 21
619.379345201725
 31
0.0
  0
LINE
  5
6F7B
330
1E
100
AcDbEntity
  8
躯体と製品
  6
Continuous
 62
     3
100
AcDbLine
 10
331.4106394078261
 20
608.3793452017252
 30
0.0
 11
330.9106394078261
 21
608.3793452017252
 31
0.0
  0
LINE
  5
6F7C
330
1E
100
AcDbEntity
  8
躯体と製品
  6
Continuous
 62
     3
100
AcDbLine
 10
330.9106394078261
 20
606.879345201725
 30
0.0
 11
331.4106394078261
 21
606.879345201725
 31
0.0
  0
LINE
  5
6F7D
330
1E
100
AcDbEntity
  8
躯体と製品
  6
Continuous
 62
     3
100
AcDbLine
 10
331.4106394078261
 20
606.879345201725
 30
0.0
 11
331.4106394078261
 21
592.879345201725
 31
0.0
  0
LINE
  5
6F7E
330
1E
100
AcDbEntity
  8
躯体と製品
  6
Continuous
 62
     3
100
AcDbLine
 10
331.4106394078261
 20
582.8793452017253
 30
0.0
 11
331.4106394078261
 21
568.879345201725
 31
0.0
  0
LINE
  5
6F7F
330
1E
100
AcDbEntity
  8
躯体と製品
  6
Continuous
 62
     3
100
AcDbLine
 10
331.4106394078261
 20
568.879345201725
 30
0.0
 11
330.9106394078261
 21
568.879345201725
 31
0.0
  0
ARC
  5
6F80
330
1E
100
AcDbEntity
  8
躯体と製品
  6
Continuous
 62
     3
100
AcDbCircle
 10
333.9106394078261
 20
608.8793452017252
 30
0.0
 40
0.5
100
AcDbArc
 50
180.0
 51
270.0
  0
LINE
  5
6F81
330
1E
100
AcDbEntity
  8
躯体と製品
  6
Continuous
 62
     3
100
AcDbLine
 10
333.9106394078261
 20
608.3793452017252
 30
0.0
 11
342.9106394078261
 21
608.3793452017252
 31
0.0
  0
LINE
  5
6F82
330
1E
100
AcDbEntity
  8
躯体と製品
  6
Continuous
 62
     3
100
AcDbLine
 10
333.9106394078261
 20
562.3793452017251
 30
0.0
 11
339.6606394078261
 21
562.3793452017251
 31
0.0
  0
ARC
  5
6F83
330
1E
100
AcDbEntity
  8
躯体と製品
  6
Continuous
 62
     3
100
AcDbCircle
 10
333.9106394078261
 20
562.8793452017251
 30
0.0
 40
0.5
100
AcDbArc
 50
180.0
 51
270.0
  0
ARC
  5
6F84
330
1E
100
AcDbEntity
  8
躯体と製品
  6
Continuous
 62
     3
100
AcDbCircle
 10
333.9106394078261
 20
560.379345201725
 30
0.0
 40
0.5
100
AcDbArc
 50
90.0
 51
180.0
  0
LINE
  5
6F85
330
1E
100
AcDbEntity
  8
躯体と製品
  6
Continuous
 62
     3
100
AcDbLine
 10
333.9106394078261
 20
560.879345201725
 30
0.0
 11
336.4106394078261
 21
560.879345201725
 31
0.0
  0
LINE
  5
6F86
330
1E
100
AcDbEntity
  8
躯体と製品
  6
Continuous
 62
     3
100
AcDbLine
 10
336.4106394078261
 20
560.879345201725
 30
0.0
 11
337.4106394078261
 21
561.379345201725
 31
0.0
  0
LINE
  5
6F87
330
1E
100
AcDbEntity
  8
躯体と製品
  6
Continuous
 62
     3
100
AcDbLine
 10
337.4106394078261
 20
561.379345201725
 30
0.0
 11
337.4106394078261
 21
560.879345201725
 31
0.0
  0
LINE
  5
6F88
330
1E
100
AcDbEntity
  8
躯体と製品
  6
Continuous
 62
     3
100
AcDbLine
 10
337.4106394078261
 20
560.879345201725
 30
0.0
 11
338.4106394078261
 21
561.379345201725
 31
0.0
  0
LINE
  5
6F89
330
1E
100
AcDbEntity
  8
躯体と製品
  6
Continuous
 62
     3
100
AcDbLine
 10
338.4106394078261
 20
561.379345201725
 30
0.0
 11
338.4106394078261
 21
560.879345201725
 31
0.0
  0
ARC
  5
6F8A
330
1E
100
AcDbEntity
  8
躯体と製品
  6
Continuous
 62
     3
100
AcDbCircle
 10
339.6606394078261
 20
561.629345201725
 30
0.0
 40
0.75
100
AcDbArc
 50
270.0
 51
90.0
  0
ARC
  5
6F8B
330
1E
100
AcDbEntity
  8
躯体と製品
  6
Continuous
 62
     3
100
AcDbCircle
 10
333.9106394078261
 20
606.379345201725
 30
0.0
 40
0.5
100
AcDbArc
 50
90.0
 51
180.0
  0
ARC
  5
6F8C
330
1E
100
AcDbEntity
  8
躯体と製品
  6
Continuous
 62
     3
100
AcDbCircle
 10
342.9106394078261
 20
607.8793452017253
 30
0.0
 40
0.5
100
AcDbArc
 50
0.0
 51
90.0
  0
LINE
  5
6F8D
330
1E
100
AcDbEntity
  8
躯体と製品
  6
Continuous
 62
     3
100
AcDbLine
 10
342.9106394078261
 20
606.879345201725
 30
0.0
 11
333.9106394078261
 21
606.879345201725
 31
0.0
  0
ARC
  5
6F8E
330
1E
100
AcDbEntity
  8
躯体と製品
  6
Continuous
 62
     3
100
AcDbCircle
 10
342.9106394078261
 20
607.379345201725
 30
0.0
 40
0.5
100
AcDbArc
 50
270.0
 51
0.0
  0
LINE
  5
6F8F
330
1E
100
AcDbEntity
  8
躯体と製品
  6
Continuous
 62
     3
100
AcDbLine
 10
343.4106394078261
 20
607.379345201725
 30
0.0
 11
343.4106394078261
 21
607.8793452017253
 31
0.0
  0
LINE
  5
6F90
330
1E
100
AcDbEntity
  8
躯体と製品
  6
Continuous
 62
     3
100
AcDbLine
 10
333.4106394078261
 20
566.8793452017251
 30
0.0
 11
333.4106394078261
 21
562.8793452017251
 31
0.0
  0
ARC
  5
6F91
330
1E
100
AcDbEntity
  8
躯体と製品
  6
Continuous
 62
     3
100
AcDbCircle
 10
333.9106394078261
 20
566.8793452017251
 30
0.0
 40
0.5
100
AcDbArc
 50
90.0
 51
180.0
  0
LINE
  5
6F92
330
1E
100
AcDbEntity
  8
躯体と製品
  6
Continuous
 62
     3
100
AcDbLine
 10
333.9106394078261
 20
567.3793452017251
 30
0.0
 11
344.6606394078261
 21
567.3793452017251
 31
0.0
  0
LINE
  5
6F93
330
1E
100
AcDbEntity
  8
躯体と製品
  6
Continuous
 62
     3
100
AcDbLine
 10
333.4106394078261
 20
569.379345201725
 30
0.0
 11
333.4106394078261
 21
587.3793452017253
 31
0.0
  0
ARC
  5
6F94
330
1E
100
AcDbEntity
  8
躯体と製品
  6
Continuous
 62
     3
100
AcDbCircle
 10
333.9106394078261
 20
569.379345201725
 30
0.0
 40
0.5
100
AcDbArc
 50
180.0
 51
270.0
  0
LINE
  5
6F95
330
1E
100
AcDbEntity
  8
躯体と製品
  6
Continuous
 62
     3
100
AcDbLine
 10
333.9106394078261
 20
568.879345201725
 30
0.0
 11
344.6606394078261
 21
568.879345201725
 31
0.0
  0
ARC
  5
6F96
330
1E
100
AcDbEntity
  8
躯体と製品
  6
Continuous
 62
     3
100
AcDbCircle
 10
344.6606394078261
 20
568.1293452017253
 30
0.0
 40
0.75
100
AcDbArc
 50
270.0
 51
90.0
  0
ARC
  5
6F97
330
1E
100
AcDbEntity
  8
躯体と製品
  6
Continuous
 62
     3
100
AcDbCircle
 10
333.9106394078261
 20
557.379345201725
 30
0.0
 40
0.5
100
AcDbArc
 50
180.0
 51
270.0
  0
LINE
  5
6F98
330
1E
100
AcDbEntity
  8
躯体と製品
  6
Continuous
 62
     3
100
AcDbLine
 10
333.9106394078261
 20
556.879345201725
 30
0.0
 11
336.4106394078261
 21
556.879345201725
 31
0.0
  0
ARC
  5
6F99
330
1E
100
AcDbEntity
  8
躯体と製品
  6
Continuous
 62
     3
100
AcDbCircle
 10
339.6606394078261
 20
556.1293452017253
 30
0.0
 40
0.75
100
AcDbArc
 50
270.0
 51
90.0
  0
LINE
  5
6F9A
330
1E
100
AcDbEntity
  8
躯体と製品
  6
Continuous
 62
     3
100
AcDbLine
 10
336.4106394078261
 20
556.879345201725
 30
0.0
 11
337.4106394078261
 21
556.379345201725
 31
0.0
  0
LINE
  5
6F9B
330
1E
100
AcDbEntity
  8
躯体と製品
  6
Continuous
 62
     3
100
AcDbLine
 10
337.4106394078261
 20
556.879345201725
 30
0.0
 11
337.4106394078261
 21
556.379345201725
 31
0.0
  0
LINE
  5
6F9C
330
1E
100
AcDbEntity
  8
躯体と製品
  6
Continuous
 62
     3
100
AcDbLine
 10
337.4106394078261
 20
556.879345201725
 30
0.0
 11
338.4106394078261
 21
556.379345201725
 31
0.0
  0
LINE
  5
6F9D
330
1E
100
AcDbEntity
  8
躯体と製品
  6
Continuous
 62
     3
100
AcDbLine
 10
338.4106394078261
 20
556.879345201725
 30
0.0
 11
338.4106394078261
 21
556.379345201725
 31
0.0
  0
LINE
  5
6F9E
330
1E
100
AcDbEntity
  8
躯体と製品
  6
Continuous
 62
     3
100
AcDbLine
 10
333.4106394078261
 20
557.379345201725
 30
0.0
 11
333.4106394078261
 21
560.379345201725
 31
0.0
  0
LINE
  5
6F9F
330
1E
100
AcDbEntity
  8
躯体と製品
  6
Continuous
 62
     3
100
AcDbLine
 10
331.9106394078261
 20
557.379345201725
 30
0.0
 11
331.9106394078261
 21
566.8793452017251
 31
0.0
  0
ARC
  5
6FA0
330
1E
100
AcDbEntity
  8
躯体と製品
  6
Continuous
 62
     3
100
AcDbCircle
 10
331.4106394078261
 20
557.379345201725
 30
0.0
 40
0.5
100
AcDbArc
 50
270.0
 51
0.0
  0
LINE
  5
6FA1
330
1E
100
AcDbEntity
  8
躯体と製品
  6
Continuous
 62
     3
100
AcDbLine
 10
331.4106394078261
 20
556.879345201725
 30
0.0
 11
330.9106394078261
 21
556.879345201725
 31
0.0
  0
LINE
  5
6FA2
330
1E
100
AcDbEntity
  8
躯体と製品
  6
Continuous
 62
     3
100
AcDbLine
 10
330.9106394078261
 20
555.379345201725
 30
0.0
 11
330.9106394078261
 21
556.879345201725
 31
0.0
  0
LINE
  5
6FA3
330
1E
100
AcDbEntity
  8
躯体と製品
  6
Continuous
 62
     3
100
AcDbLine
 10
339.6606394078261
 20
555.379345201725
 30
0.0
 11
330.9106394078261
 21
555.379345201725
 31
0.0
  0
LINE
  5
6FA4
330
1E
100
AcDbEntity
  8
躯体と製品
  6
Continuous
 62
     3
100
AcDbLine
 10
331.4106394078261
 20
567.3793452017251
 30
0.0
 11
330.9106394078261
 21
567.3793452017251
 31
0.0
  0
ARC
  5
6FA5
330
1E
100
AcDbEntity
  8
躯体と製品
  6
Continuous
 62
     3
100
AcDbCircle
 10
331.4106394078261
 20
566.8793452017251
 30
0.0
 40
0.5
100
AcDbArc
 50
0.0
 51
90.0
  0
LINE
  5
6FA6
330
1E
100
AcDbEntity
  8
躯体と製品
  6
Continuous
 62
     3
100
AcDbLine
 10
339.6606394078261
 20
556.879345201725
 30
0.0
 11
338.4106394078261
 21
556.879345201725
 31
0.0
  0
LINE
  5
6FA7
330
1E
100
AcDbEntity
  8
躯体と製品
  6
Continuous
 62
     3
100
AcDbLine
 10
339.6606394078261
 20
560.879345201725
 30
0.0
 11
338.4106394078261
 21
560.879345201725
 31
0.0
  0
LINE
  5
6FA8
330
1E
100
AcDbEntity
  8
躯体と製品
  6
Continuous
 62
     3
100
AcDbLine
 10
330.9106394078261
 20
568.879345201725
 30
0.0
 11
330.9106394078261
 21
567.3793452017251
 31
0.0
  0
LINE
  5
6FA9
330
1E
100
AcDbEntity
  8
躯体と製品
  6
Continuous
 62
     3
100
AcDbLine
 10
330.9106394078261
 20
608.3793452017252
 30
0.0
 11
330.9106394078261
 21
606.879345201725
 31
0.0
  0
LINE
  5
6FAA
330
1E
100
AcDbEntity
  8
躯体と製品
  6
Continuous
 62
     3
100
AcDbLine
 10
333.4106394078261
 20
588.3793452017251
 30
0.0
 11
333.4106394078261
 21
606.379345201725
 31
0.0
  0
ARC
  5
6FAB
330
1E
100
AcDbEntity
  8
躯体と製品
  6
Continuous
 62
     7
100
AcDbCircle
 10
353.2106394078261
 20
596.1793452017253
 30
0.0
 40
0.2999999999999999
100
AcDbArc
 50
180.0
 51
270.0
  0
ARC
  5
6FAC
330
1E
100
AcDbEntity
  8
躯体と製品
  6
Continuous
 62
     7
100
AcDbCircle
 10
352.9106394078261
 20
595.8793452017252
 30
0.0
 40
1.0
100
AcDbArc
 50
180.0
 51
270.0
  0
LINE
  5
6FAD
330
1E
100
AcDbEntity
  8
躯体と製品
  6
Continuous
 62
     7
100
AcDbLine
 10
353.2106394078261
 20
595.8793452017252
 30
0.0
 11
361.4106394078261
 21
595.8793452017252
 31
0.0
  0
LINE
  5
6FAE
330
1E
100
AcDbEntity
  8
躯体と製品
  6
Continuous
 62
     7
100
AcDbLine
 10
361.9106394078261
 20
595.3793452017253
 30
0.0
 11
361.9106394078261
 21
594.879345201725
 31
0.0
  0
ARC
  5
6FAF
330
1E
100
AcDbEntity
  8
躯体と製品
  6
Continuous
 62
     7
100
AcDbCircle
 10
361.4106394078261
 20
595.3793452017253
 30
0.0
 40
0.5
100
AcDbArc
 50
0.0
 51
90.0
  0
LINE
  5
6FB0
330
1E
100
AcDbEntity
  8
躯体と製品
  6
Continuous
 62
     7
100
AcDbLine
 10
352.9106394078261
 20
594.879345201725
 30
0.0
 11
361.9106394078261
 21
594.879345201725
 31
0.0
  0
LINE
  5
6FBA
330
1E
100
AcDbEntity
  8
躯体と製品
  6
Continuous
 62
     7
100
AcDbLine
 10
628.910639407826
 20
525.0567229180355
 30
0.0
 11
628.910639407826
 21
385.0567229180354
 31
0.0
  0
LINE
  5
6FBB
330
1E
100
AcDbEntity
  8
躯体と製品
  6
Continuous
 62
     7
100
AcDbLine
 10
478.9106394078262
 20
525.0567229180355
 30
0.0
 11
478.9106394078262
 21
385.0567229180354
 31
0.0
  0
LINE
  5
6FBC
330
1E
100
AcDbEntity
  8
躯体と製品
  6
Continuous
 62
     7
100
AcDbLine
 10
478.9106394078262
 20
525.0567229180355
 30
0.0
 11
628.910639407826
 21
525.0567229180355
 31
0.0
  0
ARC
  5
6FBD
330
1E
100
AcDbEntity
  8
躯体と製品
  6
Continuous
 62
     7
100
AcDbCircle
 10
478.9106394078262
 20
524.0567229180353
 30
0.0
 40
1.0
100
AcDbArc
 50
90.0
 51
175.0000000000001
  0
LINE
  5
6FBE
330
1E
100
AcDbEntity
  8
躯体と製品
  6
Continuous
 62
     7
100
AcDbLine
 10
578.9106394078263
 20
526.0567229180353
 30
0.0
 11
578.9106394078263
 21
527.0567229180353
 31
0.0
  0
LINE
  5
6FBF
330
1E
100
AcDbEntity
  8
躯体と製品
  6
Continuous
 62
     3
100
AcDbLine
 10
563.9106394078263
 20
525.0567229180355
 30
0.0
 11
563.9106394078263
 21
526.0567229180353
 31
0.0
  0
LINE
  5
6FC0
330
1E
100
AcDbEntity
  8
躯体と製品
  6
Continuous
 62
     3
100
AcDbLine
 10
593.9106394078262
 20
526.0567229180353
 30
0.0
 11
593.9106394078262
 21
525.0567229180355
 31
0.0
  0
LINE
  5
6FC1
330
1E
100
AcDbEntity
  8
躯体と製品
  6
Continuous
 62
     3
100
AcDbLine
 10
563.9106394078263
 20
526.0567229180353
 30
0.0
 11
593.9106394078262
 21
526.0567229180353
 31
0.0
  0
LINE
  5
6FC2
330
1E
100
AcDbEntity
  8
躯体と製品
  6
Continuous
 62
     3
100
AcDbLine
 10
593.9106394078262
 20
525.0567229180355
 30
0.0
 11
563.9106394078263
 21
525.0567229180355
 31
0.0
  0
LINE
  5
6FC3
330
1E
100
AcDbEntity
  8
躯体と製品
  6
Continuous
 62
     4
100
AcDbLine
 10
593.0351017459672
 20
525.0567229180355
 30
0.0
 11
593.9106394078261
 21
525.9322605798945
 31
0.0
  0
LINE
  5
6FC4
330
1E
100
AcDbEntity
  8
躯体と製品
  6
Continuous
 62
     4
100
AcDbLine
 10
591.6208881835941
 20
525.0567229180358
 30
0.0
 11
592.6208881835937
 21
526.0567229180355
 31
0.0
  0
LINE
  5
6FC5
330
1E
100
AcDbEntity
  8
躯体と製品
  6
Continuous
 62
     4
100
AcDbLine
 10
590.2066746212205
 20
525.0567229180355
 30
0.0
 11
591.2066746212201
 21
526.0567229180351
 31
0.0
  0
LINE
  5
6FC6
330
1E
100
AcDbEntity
  8
躯体と製品
  6
Continuous
 62
     4
100
AcDbLine
 10
588.7924610588468
 20
525.0567229180351
 30
0.0
 11
589.792461058847
 21
526.0567229180353
 31
0.0
  0
LINE
  5
6FC7
330
1E
100
AcDbEntity
  8
躯体と製品
  6
Continuous
 62
     4
100
AcDbLine
 10
587.3782474964734
 20
525.0567229180351
 30
0.0
 11
588.3782474964736
 21
526.0567229180355
 31
0.0
  0
LINE
  5
6FC8
330
1E
100
AcDbEntity
  8
躯体と製品
  6
Continuous
 62
     4
100
AcDbLine
 10
585.9640339341003
 20
525.0567229180355
 30
0.0
 11
586.9640339341006
 21
526.0567229180355
 31
0.0
  0
LINE
  5
6FC9
330
1E
100
AcDbEntity
  8
躯体と製品
  6
Continuous
 62
     4
100
AcDbLine
 10
584.549820371727
 20
525.0567229180355
 30
0.0
 11
585.5498203717273
 21
526.0567229180355
 31
0.0
  0
LINE
  5
6FCA
330
1E
100
AcDbEntity
  8
躯体と製品
  6
Continuous
 62
     4
100
AcDbLine
 10
583.1356068093551
 20
525.0567229180348
 30
0.0
 11
584.1356068093548
 21
526.0567229180346
 31
0.0
  0
LINE
  5
6FCB
330
1E
100
AcDbEntity
  8
躯体と製品
  6
Continuous
 62
     4
100
AcDbLine
 10
581.7213932469819
 20
525.0567229180351
 30
0.0
 11
582.7213932469817
 21
526.0567229180346
 31
0.0
  0
LINE
  5
6FCC
330
1E
100
AcDbEntity
  8
躯体と製品
  6
Continuous
 62
     4
100
AcDbLine
 10
580.3071796846088
 20
525.0567229180351
 30
0.0
 11
581.3071796846084
 21
526.0567229180349
 31
0.0
  0
LINE
  5
6FCD
330
1E
100
AcDbEntity
  8
躯体と製品
  6
Continuous
 62
     4
100
AcDbLine
 10
578.8929661222353
 20
525.0567229180355
 30
0.0
 11
579.8929661222352
 21
526.0567229180351
 31
0.0
  0
LINE
  5
6FCE
330
1E
100
AcDbEntity
  8
躯体と製品
  6
Continuous
 62
     4
100
AcDbLine
 10
577.4787525598615
 20
525.0567229180346
 30
0.0
 11
578.4787525598617
 21
526.0567229180349
 31
0.0
  0
LINE
  5
6FCF
330
1E
100
AcDbEntity
  8
躯体と製品
  6
Continuous
 62
     4
100
AcDbLine
 10
576.0645389974883
 20
525.0567229180346
 30
0.0
 11
577.0645389974886
 21
526.0567229180351
 31
0.0
  0
LINE
  5
6FD0
330
1E
100
AcDbEntity
  8
躯体と製品
  6
Continuous
 62
     4
100
AcDbLine
 10
574.6503254351149
 20
525.0567229180348
 30
0.0
 11
575.6503254351152
 21
526.0567229180351
 31
0.0
  0
LINE
  5
6FD1
330
1E
100
AcDbEntity
  8
躯体と製品
  6
Continuous
 62
     4
100
AcDbLine
 10
573.2361118727418
 20
525.0567229180351
 30
0.0
 11
574.2361118727422
 21
526.0567229180353
 31
0.0
  0
LINE
  5
6FD2
330
1E
100
AcDbEntity
  8
躯体と製品
  6
Continuous
 62
     4
100
AcDbLine
 10
571.8218983103707
 20
525.0567229180355
 30
0.0
 11
572.8218983103704
 21
526.0567229180351
 31
0.0
  0
LINE
  5
6FD3
330
1E
100
AcDbEntity
  8
躯体と製品
  6
Continuous
 62
     4
100
AcDbLine
 10
570.4076847479974
 20
525.0567229180355
 30
0.0
 11
571.4076847479973
 21
526.0567229180353
 31
0.0
  0
LINE
  5
6FD4
330
1E
100
AcDbEntity
  8
躯体と製品
  6
Continuous
 62
     4
100
AcDbLine
 10
568.9934711856242
 20
525.0567229180355
 30
0.0
 11
569.993471185624
 21
526.0567229180355
 31
0.0
  0
LINE
  5
6FD5
330
1E
100
AcDbEntity
  8
躯体と製品
  6
Continuous
 62
     4
100
AcDbLine
 10
567.579257623251
 20
525.0567229180358
 30
0.0
 11
568.5792576232507
 21
526.0567229180355
 31
0.0
  0
LINE
  5
6FD6
330
1E
100
AcDbEntity
  8
躯体と製品
  6
Continuous
 62
     4
100
AcDbLine
 10
566.1650440608773
 20
525.0567229180355
 30
0.0
 11
567.1650440608774
 21
526.0567229180355
 31
0.0
  0
LINE
  5
6FD7
330
1E
100
AcDbEntity
  8
躯体と製品
  6
Continuous
 62
     4
100
AcDbLine
 10
564.750830498504
 20
525.0567229180355
 30
0.0
 11
565.7508304985044
 21
526.0567229180358
 31
0.0
  0
LINE
  5
6FD8
330
1E
100
AcDbEntity
  8
躯体と製品
  6
Continuous
 62
     4
100
AcDbLine
 10
563.9106394078261
 20
525.6307453897306
 30
0.0
 11
564.3366169361311
 21
526.0567229180358
 31
0.0
  0
LINE
  5
6FD9
330
1E
100
AcDbEntity
  8
躯体と製品
  6
DASHED1
 62
     7
100
AcDbLine
 10
574.8606394078263
 20
527.0567229180353
 30
0.0
 11
574.8606394078263
 21
517.7567229180352
 31
0.0
  0
LINE
  5
6FDA
330
1E
100
AcDbEntity
  8
躯体と製品
  6
DASHED1
 62
     7
100
AcDbLine
 10
582.9606394078261
 20
527.0567229180353
 30
0.0
 11
582.9606394078261
 21
517.7567229180352
 31
0.0
  0
LINE
  5
6FDB
330
1E
100
AcDbEntity
  8
躯体と製品
  6
DASHED1
 62
     7
100
AcDbLine
 10
574.1606394078262
 20
517.0567229180353
 30
0.0
 11
574.8606394078263
 21
517.7567229180352
 31
0.0
  0
LINE
  5
6FDC
330
1E
100
AcDbEntity
  8
躯体と製品
  6
DASHED1
 62
     7
100
AcDbLine
 10
574.1606394078262
 20
498.4285489180352
 30
0.0
 11
574.1606394078262
 21
517.0567229180353
 31
0.0
  0
LINE
  5
6FDD
330
1E
100
AcDbEntity
  8
躯体と製品
  6
DASHED1
 62
     7
100
AcDbLine
 10
574.4106394078262
 20
486.5567229180353
 30
0.0
 11
574.4106394078262
 21
487.420026918035
 31
0.0
  0
LINE
  5
6FDE
330
1E
100
AcDbEntity
  8
躯体と製品
  6
DASHED1
 62
     7
100
AcDbLine
 10
572.285609407826
 20
487.7947269180352
 30
0.0
 11
574.1606394078262
 21
498.4285489180352
 31
0.0
  0
LINE
  5
6FDF
330
1E
100
AcDbEntity
  8
躯体と製品
  6
DASHED1
 62
     7
100
AcDbLine
 10
578.4106394078261
 20
498.0567229180355
 30
0.0
 11
579.4106394078262
 21
498.0567229180355
 31
0.0
  0
LINE
  5
6FE0
330
1E
100
AcDbEntity
  8
躯体と製品
  6
DASHED1
 62
     7
100
AcDbLine
 10
583.6606394078261
 20
517.0567229180353
 30
0.0
 11
582.9606394078261
 21
517.7567229180352
 31
0.0
  0
LINE
  5
6FE1
330
1E
100
AcDbEntity
  8
躯体と製品
  6
DASHED1
 62
     7
100
AcDbLine
 10
583.6606394078261
 20
498.4285489180352
 30
0.0
 11
583.6606394078261
 21
517.0567229180353
 31
0.0
  0
LINE
  5
6FE2
330
1E
100
AcDbEntity
  8
躯体と製品
  6
DASHED1
 62
     7
100
AcDbLine
 10
582.4106394078261
 20
485.5567229180353
 30
0.0
 11
575.4106394078262
 21
485.5567229180353
 31
0.0
  0
ARC
  5
6FE3
330
1E
100
AcDbEntity
  8
躯体と製品
  6
DASHED1
 62
     7
100
AcDbCircle
 10
582.4106394078261
 20
486.5567229180353
 30
0.0
 40
1.0
100
AcDbArc
 50
270.0
 51
0.0
  0
LINE
  5
6FE4
330
1E
100
AcDbEntity
  8
躯体と製品
  6
DASHED1
 62
     7
100
AcDbLine
 10
583.4106394078262
 20
486.5567229180353
 30
0.0
 11
583.4106394078262
 21
487.420026918035
 31
0.0
  0
LINE
  5
6FE5
330
1E
100
AcDbEntity
  8
躯体と製品
  6
DASHED1
 62
     7
100
AcDbLine
 10
585.5356694078261
 20
487.7947269180352
 30
0.0
 11
581.3502364078264
 21
487.0567229180353
 31
0.0
  0
LINE
  5
6FE6
330
1E
100
AcDbEntity
  8
躯体と製品
  6
DASHED1
 62
     7
100
AcDbLine
 10
578.4106394078261
 20
498.0567229180355
 30
0.0
 11
576.4710424078262
 21
487.0567229180353
 31
0.0
  0
LINE
  5
6FE7
330
1E
100
AcDbEntity
  8
躯体と製品
  6
DASHED1
 62
     7
100
AcDbLine
 10
579.4106394078262
 20
498.0567229180355
 30
0.0
 11
581.3502364078264
 21
487.0567229180353
 31
0.0
  0
LINE
  5
6FE8
330
1E
100
AcDbEntity
  8
躯体と製品
  6
DASHED1
 62
     7
100
AcDbLine
 10
585.5356694078261
 20
487.7947269180352
 30
0.0
 11
583.6606394078261
 21
498.4285489180352
 31
0.0
  0
LINE
  5
6FE9
330
1E
100
AcDbEntity
  8
躯体と製品
  6
DASHED1
 62
     7
100
AcDbLine
 10
574.1606394078262
 20
517.0567229180353
 30
0.0
 11
583.6606394078261
 21
517.0567229180353
 31
0.0
  0
LINE
  5
6FEA
330
1E
100
AcDbEntity
  8
躯体と製品
  6
DASHED1
 62
     7
100
AcDbLine
 10
574.8606394078263
 20
517.7567229180352
 30
0.0
 11
582.9606394078261
 21
517.7567229180352
 31
0.0
  0
LINE
  5
6FEB
330
1E
100
AcDbEntity
  8
躯体と製品
  6
DASHED1
 62
     7
100
AcDbLine
 10
572.285609407826
 20
487.7947269180352
 30
0.0
 11
576.4710424078262
 21
487.0567229180353
 31
0.0
  0
ARC
  5
6FEC
330
1E
100
AcDbEntity
  8
躯体と製品
  6
DASHED1
 62
     7
100
AcDbCircle
 10
575.4106394078262
 20
486.5567229180353
 30
0.0
 40
1.0
100
AcDbArc
 50
180.0
 51
270.0
  0
ARC
  5
6FED
330
1E
100
AcDbEntity
  8
躯体と製品
  6
Continuous
 62
     3
100
AcDbCircle
 10
607.4679496744088
 20
530.0567229180353
 30
0.0
 40
0.5
100
AcDbArc
 50
270.0
 51
349.9999999999998
  0
LINE
  5
6FEE
330
1E
100
AcDbEntity
  8
躯体と製品
  6
Continuous
 62
     3
100
AcDbLine
 10
607.4679496744088
 20
529.5567229180353
 30
0.0
 11
604.4216698387518
 21
529.5567229180353
 31
0.0
  0
LINE
  5
6FEF
330
1E
100
AcDbEntity
  8
躯体と製品
  6
Continuous
 62
     3
100
AcDbLine
 10
607.960353550915
 20
529.9698988292018
 30
0.0
 11
608.3675482224752
 21
532.2792145670661
 31
0.0
  0
ARC
  5
6FF0
330
1E
100
AcDbEntity
  8
躯体と製品
  6
Continuous
 62
     3
100
AcDbCircle
 10
604.4216698387518
 20
530.0567229180353
 30
0.0
 40
0.5
100
AcDbArc
 50
169.9999999999997
 51
270.0
  0
LINE
  5
6FF1
330
1E
100
AcDbEntity
  8
躯体と製品
  6
Continuous
 62
     3
100
AcDbLine
 10
603.9292659622457
 20
530.1435470068686
 30
0.0
 11
604.4283172104264
 21
532.9738072777338
 31
0.0
  0
ARC
  5
6FF2
330
1E
100
AcDbEntity
  8
躯体と製品
  6
Continuous
 62
     3
100
AcDbCircle
 10
601.8831033090375
 20
530.0567229180353
 30
0.0
 40
0.5
100
AcDbArc
 50
270.0
 51
349.9999999999998
  0
LINE
  5
6FF3
330
1E
100
AcDbEntity
  8
躯体と製品
  6
Continuous
 62
     3
100
AcDbLine
 10
601.8831033090375
 20
529.5567229180353
 30
0.0
 11
597.9106394078262
 21
529.5567229180353
 31
0.0
  0
LINE
  5
6FF4
330
1E
100
AcDbEntity
  8
躯体と製品
  6
Continuous
 62
     3
100
AcDbLine
 10
602.3755071855437
 20
529.9698988292018
 30
0.0
 11
603.5154621583257
 21
536.4349047415239
 31
0.0
  0
LINE
  5
6FF5
330
1E
100
AcDbEntity
  8
躯体と製品
  6
Continuous
 62
     3
100
AcDbLine
 10
604.6019653880932
 20
533.9586150307461
 30
0.0
 11
604.1095615115872
 21
534.0454391195796
 31
0.0
  0
LINE
  5
6FF6
330
1E
100
AcDbEntity
  8
躯体と製品
  6
Continuous
 62
     3
100
AcDbLine
 10
609.0336002766482
 20
533.177198231245
 30
0.0
 11
608.5411964001422
 21
533.2640223200782
 31
0.0
  0
LINE
  5
6FF7
330
1E
100
AcDbEntity
  8
躯体と製品
  6
Continuous
 62
     3
100
AcDbLine
 10
604.7756135657603
 20
534.9434227837583
 30
0.0
 11
604.2832096892541
 21
535.0302468725917
 31
0.0
  0
LINE
  5
6FF8
330
1E
100
AcDbEntity
  8
躯体と製品
  6
Continuous
 62
     3
100
AcDbLine
 10
609.2072484543153
 20
534.1620059842571
 30
0.0
 11
608.714844577809
 21
534.2488300730906
 31
0.0
  0
LINE
  5
6FF9
330
1E
100
AcDbEntity
  8
躯体と製品
  6
Continuous
 62
     3
100
AcDbLine
 10
609.4106394078262
 20
529.5567229180353
 30
0.0
 11
610.4091164294111
 21
535.2193674978556
 31
0.0
  0
LINE
  5
6FFA
330
1E
100
AcDbEntity
  8
躯体と製品
  6
Continuous
 62
     3
100
AcDbLine
 10
608.714844577809
 20
534.2488300730906
 30
0.0
 11
608.9319047998927
 21
535.4798397643557
 31
0.0
  0
LINE
  5
6FFB
330
1E
100
AcDbEntity
  8
躯体と製品
  6
Continuous
 62
     3
100
AcDbLine
 10
604.7756135657603
 20
534.9434227837583
 30
0.0
 11
604.9926737878438
 21
536.1744324750235
 31
0.0
  0
LINE
  5
6FFC
330
1E
100
AcDbEntity
  8
躯体と製品
  6
Continuous
 62
     3
100
AcDbLine
 10
609.0336002766482
 20
533.177198231245
 30
0.0
 11
608.3675482224752
 21
532.2792145670661
 31
0.0
  0
LINE
  5
6FFD
330
1E
100
AcDbEntity
  8
躯体と製品
  6
Continuous
 62
     3
100
AcDbLine
 10
609.2072484543153
 20
534.1620059842571
 30
0.0
 11
608.5411964001422
 21
533.2640223200782
 31
0.0
  0
ARC
  5
6FFE
330
1E
100
AcDbEntity
  8
躯体と製品
  6
Continuous
 62
     3
100
AcDbCircle
 10
604.2540679730848
 20
536.3046686082737
 30
0.0
 40
0.7500000000000016
100
AcDbArc
 50
349.9999999999998
 51
169.9999999999997
  0
ARC
  5
6FFF
330
1E
100
AcDbEntity
  8
躯体と製品
  6
Continuous
 62
     3
100
AcDbCircle
 10
609.6705106146518
 20
535.3496036311055
 30
0.0
 40
0.7499999999999977
100
AcDbArc
 50
349.9999999999998
 51
169.9999999999997
  0
LINE
  5
7000
330
1E
100
AcDbEntity
  8
躯体と製品
  6
Continuous
 62
     3
100
AcDbLine
 10
609.4106394078262
 20
527.0567229180353
 30
0.0
 11
609.4106394078262
 21
529.5567229180353
 31
0.0
  0
LINE
  5
7001
330
1E
100
AcDbEntity
  8
躯体と製品
  6
Continuous
 62
     3
100
AcDbLine
 10
560.9106394078261
 20
527.0567229180353
 30
0.0
 11
562.4106394078262
 21
527.0567229180353
 31
0.0
  0
LINE
  5
7002
330
1E
100
AcDbEntity
  8
躯体と製品
  6
Continuous
 62
     3
100
AcDbLine
 10
562.4106394078262
 20
527.0567229180353
 30
0.0
 11
562.4106394078262
 21
527.5567229180356
 31
0.0
  0
LINE
  5
7003
330
1E
100
AcDbEntity
  8
躯体と製品
  6
Continuous
 62
     3
100
AcDbLine
 10
562.4106394078262
 20
527.5567229180356
 30
0.0
 11
573.9106394078261
 21
527.5567229180356
 31
0.0
  0
LINE
  5
7004
330
1E
100
AcDbEntity
  8
躯体と製品
  6
Continuous
 62
     3
100
AcDbLine
 10
573.9106394078261
 20
527.5567229180356
 30
0.0
 11
573.9106394078261
 21
527.0567229180353
 31
0.0
  0
ARC
  5
7005
330
1E
100
AcDbEntity
  8
躯体と製品
  6
Continuous
 62
     3
100
AcDbCircle
 10
565.6606394078262
 20
536.3067229180353
 30
0.0
 40
0.75
100
AcDbArc
 50
270.0
 51
90.0
  0
ARC
  5
7006
330
1E
100
AcDbEntity
  8
躯体と製品
  6
Continuous
 62
     3
100
AcDbCircle
 10
564.6606394078262
 20
532.3067229180353
 30
0.0
 40
0.75
100
AcDbArc
 50
270.0
 51
90.0
  0
ARC
  5
7007
330
1E
100
AcDbEntity
  8
躯体と製品
  6
Continuous
 62
     3
100
AcDbCircle
 10
562.7106394078261
 20
535.2567229180352
 30
0.0
 40
0.2999999999999998
100
AcDbArc
 50
90.0
 51
180.0
  0
LINE
  5
7008
330
1E
100
AcDbEntity
  8
躯体と製品
  6
Continuous
 62
     3
100
AcDbLine
 10
562.7106394078261
 20
535.5567229180353
 30
0.0
 11
565.6606394078262
 21
535.5567229180353
 31
0.0
  0
LINE
  5
7009
330
1E
100
AcDbEntity
  8
躯体と製品
  6
Continuous
 62
     3
100
AcDbLine
 10
562.7106394078261
 20
533.0567229180355
 30
0.0
 11
564.6606394078262
 21
533.0567229180355
 31
0.0
  0
ARC
  5
700A
330
1E
100
AcDbEntity
  8
躯体と製品
  6
Continuous
 62
     3
100
AcDbCircle
 10
562.7106394078261
 20
533.3567229180355
 30
0.0
 40
0.2999999999999998
100
AcDbArc
 50
180.0
 51
270.0
  0
LINE
  5
700B
330
1E
100
AcDbEntity
  8
躯体と製品
  6
Continuous
 62
     3
100
AcDbLine
 10
562.4106394078262
 20
533.3567229180355
 30
0.0
 11
562.4106394078262
 21
535.2567229180352
 31
0.0
  0
ARC
  5
700C
330
1E
100
AcDbEntity
  8
躯体と製品
  6
Continuous
 62
     3
100
AcDbCircle
 10
562.7106394078261
 20
531.2567229180352
 30
0.0
 40
0.2999999999999998
100
AcDbArc
 50
90.0
 51
180.0
  0
LINE
  5
700D
330
1E
100
AcDbEntity
  8
躯体と製品
  6
Continuous
 62
     3
100
AcDbLine
 10
562.7106394078261
 20
531.5567229180353
 30
0.0
 11
564.6606394078262
 21
531.5567229180353
 31
0.0
  0
ARC
  5
700E
330
1E
100
AcDbEntity
  8
躯体と製品
  6
Continuous
 62
     3
100
AcDbCircle
 10
562.7106394078261
 20
529.8567229180355
 30
0.0
 40
0.2999999999999998
100
AcDbArc
 50
180.0
 51
270.0
  0
LINE
  5
700F
330
1E
100
AcDbEntity
  8
躯体と製品
  6
Continuous
 62
     3
100
AcDbLine
 10
562.4106394078262
 20
529.8567229180355
 30
0.0
 11
562.4106394078262
 21
531.2567229180352
 31
0.0
  0
LINE
  5
7010
330
1E
100
AcDbEntity
  8
躯体と製品
  6
Continuous
 62
     3
100
AcDbLine
 10
561.4106394078261
 20
537.0567229180355
 30
0.0
 11
565.6606394078262
 21
537.0567229180355
 31
0.0
  0
ARC
  5
7011
330
1E
100
AcDbEntity
  8
躯体と製品
  6
Continuous
 62
     3
100
AcDbCircle
 10
561.4106394078261
 20
536.5567229180356
 30
0.0
 40
0.5
100
AcDbArc
 50
90.0
 51
180.0
  0
LINE
  5
7012
330
1E
100
AcDbEntity
  8
躯体と製品
  6
Continuous
 62
     3
100
AcDbLine
 10
560.9106394078261
 20
536.5567229180356
 30
0.0
 11
560.9106394078261
 21
527.0567229180353
 31
0.0
  0
LINE
  5
7013
330
1E
100
AcDbEntity
  8
躯体と製品
  6
Continuous
 62
     3
100
AcDbLine
 10
573.9106394078261
 20
527.0567229180353
 30
0.0
 11
583.9106394078262
 21
527.0567229180353
 31
0.0
  0
LINE
  5
7014
330
1E
100
AcDbEntity
  8
躯体と製品
  6
Continuous
 62
     3
100
AcDbLine
 10
579.4106394078262
 20
529.5567229180353
 30
0.0
 11
595.1106394078262
 21
529.5567229180353
 31
0.0
  0
LINE
  5
7015
330
1E
100
AcDbEntity
  8
躯体と製品
  6
Continuous
 62
     3
100
AcDbLine
 10
562.7106394078261
 20
529.5567229180353
 30
0.0
 11
578.4106394078261
 21
529.5567229180353
 31
0.0
  0
LINE
  5
7016
330
1E
100
AcDbEntity
  8
躯体と製品
  6
Continuous
 62
     3
100
AcDbLine
 10
583.9106394078262
 20
527.0567229180353
 30
0.0
 11
583.9106394078262
 21
527.5567229180356
 31
0.0
  0
LINE
  5
7017
330
1E
100
AcDbEntity
  8
躯体と製品
  6
Continuous
 62
     3
100
AcDbLine
 10
583.9106394078262
 20
527.5567229180356
 30
0.0
 11
595.4106394078262
 21
527.5567229180356
 31
0.0
  0
LINE
  5
7018
330
1E
100
AcDbEntity
  8
躯体と製品
  6
Continuous
 62
     3
100
AcDbLine
 10
595.4106394078262
 20
527.5567229180356
 30
0.0
 11
595.4106394078262
 21
527.0567229180353
 31
0.0
  0
LINE
  5
7019
330
1E
100
AcDbEntity
  8
躯体と製品
  6
Continuous
 62
     3
100
AcDbLine
 10
595.4106394078262
 20
527.0567229180353
 30
0.0
 11
597.4106394078262
 21
527.0567229180353
 31
0.0
  0
ARC
  5
701A
330
1E
100
AcDbEntity
  8
躯体と製品
  6
Continuous
 62
     3
100
AcDbCircle
 10
596.4106394078262
 20
545.0567229180355
 30
0.0
 40
1.0
100
AcDbArc
 50
0.0
 51
180.0
  0
LINE
  5
701B
330
1E
100
AcDbEntity
  8
躯体と製品
  6
Continuous
 62
     3
100
AcDbLine
 10
607.9106394078262
 20
528.0567229180353
 30
0.0
 11
607.9106394078262
 21
527.0567229180353
 31
0.0
  0
LINE
  5
701C
330
1E
100
AcDbEntity
  8
躯体と製品
  6
Continuous
 62
     3
100
AcDbLine
 10
607.9106394078262
 20
527.0567229180353
 30
0.0
 11
609.4106394078262
 21
527.0567229180353
 31
0.0
  0
LINE
  5
701D
330
1E
100
AcDbEntity
  8
躯体と製品
  6
Continuous
 62
     3
100
AcDbLine
 10
578.9106394078262
 20
529.0567229180355
 30
0.0
 11
579.4106394078262
 21
529.5567229180353
 31
0.0
  0
LINE
  5
701E
330
1E
100
AcDbEntity
  8
躯体と製品
  6
Continuous
 62
     3
100
AcDbLine
 10
597.4106394078262
 20
527.0567229180353
 30
0.0
 11
597.4106394078262
 21
528.0567229180353
 31
0.0
  0
LINE
  5
701F
330
1E
100
AcDbEntity
  8
躯体と製品
  6
Continuous
 62
     3
100
AcDbLine
 10
597.4106394078262
 20
528.0567229180353
 30
0.0
 11
607.9106394078262
 21
528.0567229180353
 31
0.0
  0
LINE
  5
7020
330
1E
100
AcDbEntity
  8
躯体と製品
  6
Continuous
 62
     3
100
AcDbLine
 10
597.4106394078262
 20
530.0567229180353
 30
0.0
 11
597.4106394078262
 21
545.0567229180355
 31
0.0
  0
ARC
  5
7021
330
1E
100
AcDbEntity
  8
躯体と製品
  6
Continuous
 62
     3
100
AcDbCircle
 10
597.9106394078262
 20
530.0567229180353
 30
0.0
 40
0.5
100
AcDbArc
 50
180.0
 51
270.0
  0
ARC
  5
7022
330
1E
100
AcDbEntity
  8
躯体と製品
  6
Continuous
 62
     3
100
AcDbCircle
 10
595.1106394078262
 20
529.8567229180355
 30
0.0
 40
0.2999999999999998
100
AcDbArc
 50
270.0
 51
0.0
  0
LINE
  5
7023
330
1E
100
AcDbEntity
  8
躯体と製品
  6
Continuous
 62
     3
100
AcDbLine
 10
594.9106394078261
 20
537.0567229180355
 30
0.0
 11
592.1606394078261
 21
537.0567229180355
 31
0.0
  0
ARC
  5
7024
330
1E
100
AcDbEntity
  8
躯体と製品
  6
Continuous
 62
     3
100
AcDbCircle
 10
594.9106394078261
 20
537.5567229180355
 30
0.0
 40
0.5
100
AcDbArc
 50
270.0
 51
0.0
  0
LINE
  5
7025
330
1E
100
AcDbEntity
  8
躯体と製品
  6
Continuous
 62
     3
100
AcDbLine
 10
595.4106394078262
 20
537.5567229180355
 30
0.0
 11
595.4106394078262
 21
545.0567229180355
 31
0.0
  0
ARC
  5
7026
330
1E
100
AcDbEntity
  8
躯体と製品
  6
Continuous
 62
     3
100
AcDbCircle
 10
592.1606394078261
 20
536.3067229180353
 30
0.0
 40
0.75
100
AcDbArc
 50
90.0
 51
270.0
  0
ARC
  5
7027
330
1E
100
AcDbEntity
  8
躯体と製品
  6
Continuous
 62
     3
100
AcDbCircle
 10
593.1606394078262
 20
532.3067229180353
 30
0.0
 40
0.75
100
AcDbArc
 50
90.0
 51
270.0
  0
LINE
  5
7028
330
1E
100
AcDbEntity
  8
躯体と製品
  6
Continuous
 62
     3
100
AcDbLine
 10
595.1106394078262
 20
531.5567229180353
 30
0.0
 11
593.1606394078262
 21
531.5567229180353
 31
0.0
  0
ARC
  5
7029
330
1E
100
AcDbEntity
  8
躯体と製品
  6
Continuous
 62
     3
100
AcDbCircle
 10
595.1106394078262
 20
531.2567229180352
 30
0.0
 40
0.2999999999999998
100
AcDbArc
 50
0.0
 51
90.0
  0
LINE
  5
702A
330
1E
100
AcDbEntity
  8
躯体と製品
  6
Continuous
 62
     3
100
AcDbLine
 10
595.4106394078262
 20
531.2567229180352
 30
0.0
 11
595.4106394078262
 21
529.8567229180355
 31
0.0
  0
LINE
  5
702B
330
1E
100
AcDbEntity
  8
躯体と製品
  6
Continuous
 62
     3
100
AcDbLine
 10
595.1106394078262
 20
533.0567229180355
 30
0.0
 11
593.1606394078262
 21
533.0567229180355
 31
0.0
  0
ARC
  5
702C
330
1E
100
AcDbEntity
  8
躯体と製品
  6
Continuous
 62
     3
100
AcDbCircle
 10
595.1106394078262
 20
533.3567229180355
 30
0.0
 40
0.2999999999999998
100
AcDbArc
 50
270.0
 51
0.0
  0
LINE
  5
702D
330
1E
100
AcDbEntity
  8
躯体と製品
  6
Continuous
 62
     3
100
AcDbLine
 10
595.4106394078262
 20
535.2567229180352
 30
0.0
 11
595.4106394078262
 21
533.3567229180355
 31
0.0
  0
ARC
  5
702E
330
1E
100
AcDbEntity
  8
躯体と製品
  6
Continuous
 62
     3
100
AcDbCircle
 10
595.1106394078262
 20
535.2567229180352
 30
0.0
 40
0.2999999999999998
100
AcDbArc
 50
0.0
 51
90.0
  0
LINE
  5
702F
330
1E
100
AcDbEntity
  8
躯体と製品
  6
Continuous
 62
     3
100
AcDbLine
 10
595.1106394078262
 20
535.5567229180353
 30
0.0
 11
592.1606394078261
 21
535.5567229180353
 31
0.0
  0
LINE
  5
7030
330
1E
100
AcDbEntity
  8
躯体と製品
  6
Continuous
 62
     3
100
AcDbLine
 10
578.9106394078262
 20
529.0567229180355
 30
0.0
 11
578.4106394078261
 21
529.5567229180353
 31
0.0
  0
LINE
  5
7031
330
1E
100
AcDbEntity
  8
躯体と製品
  6
Continuous
 62
     3
100
AcDbLine
 10
604.1095615115872
 20
534.0454391195796
 30
0.0
 11
604.4283172104264
 21
532.9738072777338
 31
0.0
  0
LINE
  5
7032
330
1E
100
AcDbEntity
  8
躯体と製品
  6
Continuous
 62
     3
100
AcDbLine
 10
604.2832096892541
 20
535.0302468725917
 30
0.0
 11
604.6019653880932
 21
533.9586150307461
 31
0.0
  0
LINE
  5
7033
330
1E
100
AcDbEntity
  8
躯体と製品
  6
Continuous
 62
     3
100
AcDbLine
 10
567.9106394078262
 20
543.3437846549452
 30
0.0
 11
567.9106394078262
 21
536.0567229180356
 31
0.0
  0
LINE
  5
7034
330
1E
100
AcDbEntity
  8
躯体と製品
  6
Continuous
 62
     3
100
AcDbLine
 10
562.9106394078262
 20
533.9567229180353
 30
0.0
 11
567.4106394078262
 21
533.9567229180353
 31
0.0
  0
LINE
  5
7035
330
1E
100
AcDbEntity
  8
躯体と製品
  6
Continuous
 62
     3
100
AcDbLine
 10
562.9106394078262
 20
533.9567229180353
 30
0.0
 11
562.9106394078262
 21
535.5567229180353
 31
0.0
  0
LINE
  5
7036
330
1E
100
AcDbEntity
  8
躯体と製品
  6
Continuous
 62
     3
100
AcDbLine
 10
562.9106394078262
 20
535.5567229180353
 30
0.0
 11
567.4106394078262
 21
535.5567229180353
 31
0.0
  0
ARC
  5
7037
330
1E
100
AcDbEntity
  8
躯体と製品
  6
Continuous
 62
     3
100
AcDbCircle
 10
567.4106394078262
 20
536.0567229180356
 30
0.0
 40
2.1
100
AcDbArc
 50
270.0
 51
0.0
  0
ARC
  5
7038
330
1E
100
AcDbEntity
  8
躯体と製品
  6
Continuous
 62
     3
100
AcDbCircle
 10
567.4106394078262
 20
536.0567229180356
 30
0.0
 40
0.5
100
AcDbArc
 50
270.0
 51
0.0
  0
LINE
  5
7039
330
1E
100
AcDbEntity
  8
躯体と製品
  6
Continuous
 62
     3
100
AcDbLine
 10
594.9106394078261
 20
533.9567229180353
 30
0.0
 11
590.4106394078261
 21
533.9567229180353
 31
0.0
  0
LINE
  5
703A
330
1E
100
AcDbEntity
  8
躯体と製品
  6
Continuous
 62
     3
100
AcDbLine
 10
590.4106394078261
 20
535.5567229180353
 30
0.0
 11
594.9106394078261
 21
535.5567229180353
 31
0.0
  0
LINE
  5
703B
330
1E
100
AcDbEntity
  8
躯体と製品
  6
Continuous
 62
     3
100
AcDbLine
 10
594.9106394078261
 20
535.5567229180353
 30
0.0
 11
594.9106394078261
 21
533.9567229180353
 31
0.0
  0
ARC
  5
703C
330
1E
100
AcDbEntity
  8
躯体と製品
  6
Continuous
 62
     3
100
AcDbCircle
 10
590.4106394078261
 20
536.0567229180356
 30
0.0
 40
2.1
100
AcDbArc
 50
180.0
 51
270.0
  0
ARC
  5
703D
330
1E
100
AcDbEntity
  8
躯体と製品
  6
Continuous
 62
     3
100
AcDbCircle
 10
590.4106394078261
 20
536.0567229180356
 30
0.0
 40
0.5
100
AcDbArc
 50
180.0
 51
270.0
  0
LINE
  5
703E
330
1E
100
AcDbEntity
  8
躯体と製品
  6
Continuous
 62
     3
100
AcDbLine
 10
569.5106394078261
 20
543.3437846549452
 30
0.0
 11
569.5106394078261
 21
536.0567229180356
 31
0.0
  0
ARC
  5
703F
330
1E
100
AcDbEntity
  8
躯体と製品
  6
Continuous
 62
     3
100
AcDbCircle
 10
570.0106394078261
 20
543.3437846549452
 30
0.0
 40
0.5
100
AcDbArc
 50
87.00000000000009
 51
180.0
  0
LINE
  5
7040
330
1E
100
AcDbEntity
  8
躯体と製品
  6
Continuous
 62
     3
100
AcDbLine
 10
588.3106394078261
 20
542.410926183707
 30
0.0
 11
588.3106394078261
 21
536.0567229180356
 31
0.0
  0
ARC
  5
7041
330
1E
100
AcDbEntity
  8
躯体と製品
  6
Continuous
 62
     3
100
AcDbCircle
 10
587.8106394078262
 20
542.410926183707
 30
0.0
 40
0.5
100
AcDbArc
 50
0.0
 51
87.00000000000009
  0
ARC
  5
7042
330
1E
100
AcDbEntity
  8
躯体と製品
  6
Continuous
 62
     3
100
AcDbCircle
 10
570.0106394078261
 20
543.3437846549452
 30
0.0
 40
2.1
100
AcDbArc
 50
87.00000000000009
 51
180.0
  0
LINE
  5
7043
330
1E
100
AcDbEntity
  8
躯体と製品
  6
Continuous
 62
     3
100
AcDbLine
 10
589.9106394078261
 20
542.410926183707
 30
0.0
 11
589.9106394078261
 21
536.0567229180356
 31
0.0
  0
ARC
  5
7044
330
1E
100
AcDbEntity
  8
躯体と製品
  6
Continuous
 62
     3
100
AcDbCircle
 10
587.8106394078262
 20
542.410926183707
 30
0.0
 40
2.1
100
AcDbArc
 50
0.0
 51
87.00000000000009
  0
LINE
  5
7045
330
1E
100
AcDbEntity
  8
躯体と製品
  6
Continuous
 62
     3
100
AcDbLine
 10
583.3159258252226
 20
541.1444256220878
 30
0.0
 11
574.1285341054806
 21
541.6259164195228
 31
0.0
  0
LINE
  5
7046
330
1E
100
AcDbEntity
  8
躯体と製品
  6
Continuous
 62
     3
100
AcDbLine
 10
574.1808700617233
 20
542.6245459542776
 30
0.0
 11
574.1285341054806
 21
541.6259164195228
 31
0.0
  0
ARC
  5
7047
330
1E
100
AcDbEntity
  8
躯体と製品
  6
Continuous
 62
     3
100
AcDbCircle
 10
573.1822405269688
 20
542.6768819105204
 30
0.0
 40
1.0
100
AcDbArc
 50
356.9999999999993
 51
87.00000000000009
  0
LINE
  5
7048
330
1E
100
AcDbEntity
  8
躯体と製品
  6
Continuous
 62
     3
100
AcDbLine
 10
583.3682617814656
 20
542.1430551568423
 30
0.0
 11
583.3159258252226
 21
541.1444256220878
 31
0.0
  0
ARC
  5
7049
330
1E
100
AcDbEntity
  8
躯体と製品
  6
Continuous
 62
     3
100
AcDbCircle
 10
584.3668913162201
 20
542.0907192005993
 30
0.0
 40
1.0
100
AcDbArc
 50
87.00000000000009
 51
176.9999999999993
  0
LINE
  5
704A
330
1E
100
AcDbEntity
  8
躯体と製品
  6
Continuous
 62
     3
100
AcDbLine
 10
587.8368073859477
 20
542.9102409510845
 30
0.0
 11
570.0368073859476
 21
543.8430994223225
 31
0.0
  0
LINE
  5
704B
330
1E
100
AcDbEntity
  8
躯体と製品
  6
Continuous
 62
     3
100
AcDbLine
 10
587.9205449159362
 20
544.5080482066917
 30
0.0
 11
570.1205449159362
 21
545.4409066779298
 31
0.0
  0
LINE
  5
704C
330
1E
100
AcDbEntity
  8
躯体と製品
  6
DASHED1
 62
     7
100
AcDbLine
 10
575.9147508035623
 20
545.1372452146507
 30
0.0
 11
575.7263413610878
 21
541.5421788895342
 31
0.0
  0
LINE
  5
704D
330
1E
100
AcDbEntity
  8
躯体と製品
  6
DASHED1
 62
     7
100
AcDbLine
 10
581.9065280120899
 20
544.8232294771928
 30
0.0
 11
581.7181185696154
 21
541.2281631520766
 31
0.0
  0
LINE
  5
704E
330
1E
100
AcDbEntity
  8
躯体と製品
  6
Continuous
 62
     4
100
AcDbLine
 10
592.9106394078262
 20
535.5567229180353
 30
0.0
 11
592.9106394078262
 21
533.9567229180353
 31
0.0
  0
LINE
  5
704F
330
1E
100
AcDbEntity
  8
躯体と製品
  6
Continuous
 62
     4
100
AcDbLine
 10
564.9106394078261
 20
535.5567229180353
 30
0.0
 11
564.9106394078261
 21
533.9567229180353
 31
0.0
  0
ARC
  5
7050
330
1E
100
AcDbEntity
  8
躯体と製品
  6
DASHED1
 62
     7
100
AcDbCircle
 10
590.824274223647
 20
568.3810558695546
 30
0.0
 40
1.0
100
AcDbArc
 50
37.62684736228347
 51
87.00000000000009
  0
LINE
  5
7051
330
1E
100
AcDbEntity
  8
躯体と製品
  6
DASHED1
 62
     7
100
AcDbLine
 10
569.6025250507883
 20
571.2957108390019
 30
0.0
 11
590.9184789448845
 21
570.1785890321128
 31
0.0
  0
ARC
  5
7052
330
1E
100
AcDbEntity
  8
躯体と製品
  6
DASHED1
 62
     7
100
AcDbCircle
 10
569.5083203295509
 20
569.4981776764438
 30
0.0
 40
1.8
100
AcDbArc
 50
87.00000000000009
 51
136.3731526377163
  0
LINE
  5
7053
330
1E
100
AcDbEntity
  8
躯体と製品
  6
DASHED1
 62
     7
100
AcDbLine
 10
569.5606562857938
 20
570.4968072111983
 30
0.0
 11
590.8766101798903
 21
569.3796854043092
 31
0.0
  0
LINE
  5
7054
330
1E
100
AcDbEntity
  8
躯体と製品
  6
DASHED1
 62
     7
100
AcDbLine
 10
568.7844716859884
 20
570.1881364731937
 30
0.0
 11
555.8545205922301
 21
556.6230835966507
 31
0.0
  0
ARC
  5
7055
330
1E
100
AcDbEntity
  8
躯体と製品
  6
DASHED1
 62
     7
100
AcDbCircle
 10
569.5083203295509
 20
569.4981776764438
 30
0.0
 40
1.0
100
AcDbArc
 50
87.00000000000009
 51
136.3731526377163
  0
ARC
  5
7056
330
1E
100
AcDbEntity
  8
躯体と製品
  6
DASHED1
 62
     7
100
AcDbCircle
 10
554.5515930503222
 20
557.8650094481161
 30
0.0
 40
1.0
100
AcDbArc
 50
217.6268487328675
 51
316.3731526377176
  0
ARC
  5
7057
330
1E
100
AcDbEntity
  8
躯体と製品
  6
DASHED1
 62
     7
100
AcDbCircle
 10
554.5515930503222
 20
557.8650094481161
 30
0.0
 40
1.8
100
AcDbArc
 50
217.6268481237191
 51
316.3731526377164
  0
LINE
  5
7058
330
1E
100
AcDbEntity
  8
躯体と製品
  6
DASHED1
 62
     7
100
AcDbLine
 10
607.2767948218906
 20
556.7297987699355
 30
0.0
 11
605.2069184151089
 21
554.5582528219036
 31
0.0
  0
LINE
  5
7059
330
1E
100
AcDbEntity
  8
躯体と製品
  6
DASHED1
 62
     7
100
AcDbLine
 10
607.8558737367627
 20
556.1778317325587
 30
0.0
 11
607.2767948218906
 21
556.7297987699355
 31
0.0
  0
LINE
  5
705A
330
1E
100
AcDbEntity
  8
躯体と製品
  6
DASHED1
 62
     7
100
AcDbLine
 10
607.8558737367627
 20
556.1778317325587
 30
0.0
 11
605.7859973299591
 21
554.0062857845036
 31
0.0
  0
ARC
  5
705B
330
1E
100
AcDbEntity
  8
躯体と製品
  6
DASHED1
 62
     7
100
AcDbCircle
 10
604.4830697880509
 20
555.2482116359688
 30
0.0
 40
1.0
100
AcDbArc
 50
217.626847362283
 51
316.3731512671325
  0
ARC
  5
705C
330
1E
100
AcDbEntity
  8
躯体と製品
  6
DASHED1
 62
     7
100
AcDbCircle
 10
604.4830697880509
 20
555.2482116359688
 30
0.0
 40
1.8
100
AcDbArc
 50
217.6268473622835
 51
316.3731518762817
  0
LINE
  5
705D
330
1E
100
AcDbEntity
  8
躯体と製品
  6
DASHED1
 62
     7
100
AcDbLine
 10
592.2498808075033
 20
569.4799852886101
 30
0.0
 11
603.6910661449572
 21
554.6376952731033
 31
0.0
  0
LINE
  5
705E
330
1E
100
AcDbEntity
  8
躯体と製品
  6
DASHED1
 62
     7
100
AcDbLine
 10
591.6162778813449
 20
568.9915722134742
 30
0.0
 11
603.0574632187989
 21
554.1492821979675
 31
0.0
  0
ARC
  5
705F
330
1E
100
AcDbEntity
  8
躯体と製品
  6
DASHED1
 62
     7
100
AcDbCircle
 10
590.824274223647
 20
568.3810558695546
 30
0.0
 40
1.8
100
AcDbArc
 50
37.62684736228347
 51
87.00000000000009
  0
LINE
  5
7060
330
1E
100
AcDbEntity
  8
躯体と製品
  6
DASHED1
 62
     7
100
AcDbLine
 10
568.2053927711381
 20
570.7401035105935
 30
0.0
 11
555.2754416938848
 21
557.1750506513661
 31
0.0
  0
ARC
  5
7061
330
1E
100
AcDbEntity
  8
躯体と製品
  6
DASHED1
 62
     7
100
AcDbCircle
 10
579.0765732501516
 20
573.9413291950062
 30
0.0
 40
0.5999999999999998
100
AcDbArc
 50
356.9999999999993
 51
100.7002329999999
  0
ARC
  5
7062
330
1E
100
AcDbEntity
  8
躯体と製品
  6
DASHED1
 62
     7
100
AcDbCircle
 10
581.7728729939886
 20
573.8000221131502
 30
0.0
 40
0.5999999999999998
100
AcDbArc
 50
73.29976699999964
 51
176.9999999999993
  0
LINE
  5
7063
330
1E
100
AcDbEntity
  8
躯体と製品
  6
DASHED1
 62
     7
100
AcDbLine
 10
581.1716413485332
 20
573.7922324708047
 30
0.0
 11
579.6736970464015
 21
573.8707364051688
 31
0.0
  0
ARC
  5
7064
330
1E
100
AcDbEntity
  8
躯体と製品
  6
DASHED1
 62
     7
100
AcDbCircle
 10
578.4472713026684
 20
570.6370519170225
 30
0.0
 40
3.45
100
AcDbArc
 50
126.3091239999998
 51
173.7621630000006
  0
ARC
  5
7065
330
1E
100
AcDbEntity
  8
躯体と製品
  6
DASHED1
 62
     7
100
AcDbCircle
 10
582.0586073079243
 20
570.4432806370682
 30
0.0
 40
3.45
100
AcDbArc
 50
0.3127430000003343
 51
47.82048900000047
  0
ARC
  5
7066
330
1E
100
AcDbEntity
  8
躯体と製品
  6
DASHED1
 62
     7
100
AcDbCircle
 10
580.1348957551889
 20
568.3404400507758
 30
0.0
 40
6.299999999999998
100
AcDbArc
 50
47.69686899999965
 51
126.3093709999999
  0
LINE
  5
7067
330
1E
100
AcDbEntity
  8
躯体と製品
  6
Continuous
 62
     4
100
AcDbLine
 10
581.454385124721
 20
536.1958292409262
 30
0.0
 11
575.4626079161938
 21
536.509844978384
 31
0.0
  0
POINT
  5
7068
330
1E
100
AcDbEntity
  8
躯体と製品
 62
     4
100
AcDbPoint
 10
578.9106394078262
 20
544.9802373459219
 30
0.0
  0
LINE
  5
7069
330
1E
100
AcDbEntity
  8
躯体と製品
  6
DASHED1
 62
     7
100
AcDbLine
 10
583.2563906021
 20
570.5801420668283
 30
0.0
 11
582.010794843518
 21
546.8127591396695
 31
0.0
  0
LINE
  5
706A
330
1E
100
AcDbEntity
  8
躯体と製品
  6
DASHED1
 62
     4
100
AcDbLine
 10
582.6886697115919
 20
570.6098950579526
 30
0.0
 11
581.44307395301
 21
546.8425121307936
 31
0.0
  0
LINE
  5
706B
330
1E
100
AcDbEntity
  8
躯体と製品
  6
DASHED1
 62
     7
100
AcDbLine
 10
577.2646133935725
 20
570.8941578042862
 30
0.0
 11
576.0190176349904
 21
547.1267748771274
 31
0.0
  0
LINE
  5
706C
330
1E
100
AcDbEntity
  8
躯体と製品
  6
DASHED1
 62
     4
100
AcDbLine
 10
577.8323342840804
 20
570.8644048131621
 30
0.0
 11
576.5867385254985
 21
547.0970218860029
 31
0.0
  0
LINE
  5
706D
330
1E
100
AcDbEntity
  8
躯体と製品
  6
Continuous
 62
     7
100
AcDbLine
 10
576.0190176349904
 20
547.1267748771274
 30
0.0
 11
575.9147508035623
 21
545.1372452146507
 31
0.0
  0
LINE
  5
706E
330
1E
100
AcDbEntity
  8
躯体と製品
  6
Continuous
 62
     4
100
AcDbLine
 10
576.5867385254985
 20
547.0970218860029
 30
0.0
 11
576.4824716940702
 21
545.1074922235266
 31
0.0
  0
LINE
  5
706F
330
1E
100
AcDbEntity
  8
躯体と製品
  6
Continuous
 62
     4
100
AcDbLine
 10
581.44307395301
 20
546.8425121307936
 30
0.0
 11
581.3388071215817
 21
544.8529824683171
 31
0.0
  0
LINE
  5
7070
330
1E
100
AcDbEntity
  8
躯体と製品
  6
Continuous
 62
     7
100
AcDbLine
 10
582.010794843518
 20
546.8127591396695
 30
0.0
 11
581.9065280120899
 21
544.8232294771931
 31
0.0
  0
LINE
  5
7071
330
1E
100
AcDbEntity
  8
躯体と製品
  6
Continuous
 62
     7
100
AcDbLine
 10
575.7263413610878
 20
541.5421788895342
 30
0.0
 11
575.4626079161938
 21
536.509844978384
 31
0.0
  0
LINE
  5
7072
330
1E
100
AcDbEntity
  8
躯体と製品
  6
Continuous
 62
     7
100
AcDbLine
 10
581.7181185696151
 20
541.2281631520763
 30
0.0
 11
581.454385124721
 21
536.1958292409262
 31
0.0
  0
POINT
  5
7073
330
1E
100
AcDbEntity
  8
躯体と製品
 62
     4
100
AcDbPoint
 10
596.4629753640692
 20
546.05535245279
 30
0.0
  0
LINE
  5
7074
330
1E
100
AcDbEntity
  8
躯体と製品
  6
DASHED1
 62
     7
100
AcDbLine
 10
551.294437434663
 20
559.1420910022109
 30
0.0
 11
553.12598648107
 21
556.7660800101147
 31
0.0
  0
LINE
  5
7075
330
1E
100
AcDbEntity
  8
躯体と製品
  6
DASHED1
 62
     7
100
AcDbLine
 10
551.9280403608409
 20
559.6305040773215
 30
0.0
 11
553.7595894072285
 21
557.2544930852505
 31
0.0
  0
LINE
  5
7076
330
1E
100
AcDbEntity
  8
躯体と製品
  6
DASHED1
 62
     7
100
AcDbLine
 10
551.294437434663
 20
559.1420910022109
 30
0.0
 11
551.9280403608409
 21
559.6305040773215
 31
0.0
  0
ARC
  5
7077
330
1E
100
AcDbEntity
  8
躯体と製品
  6
Continuous
 62
     7
100
AcDbCircle
 10
628.88332726436
 20
524.0570951849908
 30
0.0
 40
1.0
100
AcDbArc
 50
4.999999999999813
 51
88.36342295838328
  0
LINE
  5
7078
330
1E
100
AcDbEntity
  8
躯体と製品
  6
Continuous
 62
     7
100
AcDbLine
 10
629.8795219624517
 20
524.1442509277386
 30
0.0
 11
631.5006515367291
 21
505.6146551041918
 31
0.0
  0
LINE
  5
7079
330
1E
100
AcDbEntity
  8
躯体と製品
  6
Continuous
 62
     7
100
AcDbLine
 10
630.8757166605436
 20
524.2314066704862
 30
0.0
 11
632.4968462348212
 21
505.7018108469395
 31
0.0
  0
TEXT
  5
707C
330
1E
100
AcDbEntity
  8
図枠
 62
     7
100
AcDbText
 10
609.6606394078261
 20
339.2465284359591
 30
0.0
 40
5.0
  1
　　  〃　 　375
100
AcDbText
  0
TEXT
  5
707D
330
1E
100
AcDbEntity
  8
図枠
 62
     7
100
AcDbText
 10
609.6606394078261
 20
330.2465284359592
 30
0.0
 40
5.0
  1
　　  〃　 　400
100
AcDbText
  0
TEXT
  5
707E
330
1E
100
AcDbEntity
  8
図枠
 62
     7
100
AcDbText
 10
609.6606394078261
 20
321.2465284359593
 30
0.0
 40
5.0
  1
　　  〃　 　425
100
AcDbText
  0
TEXT
  5
707F
330
1E
100
AcDbEntity
  8
図枠
 62
     7
100
AcDbText
 10
609.6606394078261
 20
312.2465284359592
 30
0.0
 40
5.0
  1
　　  〃　 　450
100
AcDbText
  0
TEXT
  5
7080
330
1E
100
AcDbEntity
  8
図枠
 62
     7
100
AcDbText
 10
609.6606394078261
 20
303.2465284359592
 30
0.0
 40
5.0
  1
　　  〃　 　475
100
AcDbText
  0
TEXT
  5
7081
330
1E
100
AcDbEntity
  8
図枠
 62
     7
100
AcDbText
 10
609.6606394078261
 20
294.2465284359593
 30
0.0
 40
5.0
  1
　　  〃　 　500
100
AcDbText
  0
TEXT
  5
7082
330
1E
100
AcDbEntity
  8
図枠
 62
     7
100
AcDbText
 10
609.6606394078261
 20
285.2465284359592
 30
0.0
 40
5.0
  1
　　  〃　 　525
100
AcDbText
  0
TEXT
  5
7083
330
1E
100
AcDbEntity
  8
図枠
 62
     7
100
AcDbText
 10
684.9106394078265
 20
348.2465284359593
 30
0.0
 40
5.0
  1
350
100
AcDbText
  0
TEXT
  5
7084
330
1E
100
AcDbEntity
  8
図枠
 62
     7
100
AcDbText
 10
684.9106394078265
 20
339.2465284359591
 30
0.0
 40
5.0
  1
375
100
AcDbText
  0
TEXT
  5
7085
330
1E
100
AcDbEntity
  8
図枠
 62
     7
100
AcDbText
 10
684.9106394078265
 20
330.2465284359592
 30
0.0
 40
5.0
  1
400
100
AcDbText
  0
TEXT
  5
7086
330
1E
100
AcDbEntity
  8
図枠
 62
     7
100
AcDbText
 10
684.9106394078265
 20
321.2465284359593
 30
0.0
 40
5.0
  1
425
100
AcDbText
  0
TEXT
  5
7087
330
1E
100
AcDbEntity
  8
図枠
 62
     7
100
AcDbText
 10
684.9106394078265
 20
312.2465284359592
 30
0.0
 40
5.0
  1
450
100
AcDbText
  0
TEXT
  5
7088
330
1E
100
AcDbEntity
  8
図枠
 62
     7
100
AcDbText
 10
684.9106394078265
 20
303.2465284359592
 30
0.0
 40
5.0
  1
475
100
AcDbText
  0
TEXT
  5
7089
330
1E
100
AcDbEntity
  8
図枠
 62
     7
100
AcDbText
 10
684.9106394078265
 20
294.2465284359593
 30
0.0
 40
5.0
  1
500
100
AcDbText
  0
TEXT
  5
708A
330
1E
100
AcDbEntity
  8
図枠
 62
     7
100
AcDbText
 10
684.9106394078265
 20
285.2465284359592
 30
0.0
 40
5.0
  1
525
100
AcDbText
  0
TEXT
  5
708B
330
1E
100
AcDbEntity
  8
図枠
 62
     7
100
AcDbText
 10
714.9106394078261
 20
348.2465284359593
 30
0.0
 40
5.0
  1
335
100
AcDbText
  0
TEXT
  5
708C
330
1E
100
AcDbEntity
  8
図枠
 62
     7
100
AcDbText
 10
714.9106394078261
 20
339.2465284359591
 30
0.0
 40
5.0
  1
360
100
AcDbText
  0
TEXT
  5
708D
330
1E
100
AcDbEntity
  8
図枠
 62
     7
100
AcDbText
 10
714.9106394078261
 20
330.2465284359592
 30
0.0
 40
5.0
  1
385
100
AcDbText
  0
TEXT
  5
708E
330
1E
100
AcDbEntity
  8
図枠
 62
     7
100
AcDbText
 10
714.9106394078261
 20
321.2465284359593
 30
0.0
 40
5.0
  1
410
100
AcDbText
  0
TEXT
  5
708F
330
1E
100
AcDbEntity
  8
図枠
 62
     7
100
AcDbText
 10
714.9106394078261
 20
312.2465284359592
 30
0.0
 40
5.0
  1
435
100
AcDbText
  0
TEXT
  5
7090
330
1E
100
AcDbEntity
  8
図枠
 62
     7
100
AcDbText
 10
714.9106394078261
 20
303.2465284359592
 30
0.0
 40
5.0
  1
460
100
AcDbText
  0
TEXT
  5
7091
330
1E
100
AcDbEntity
  8
図枠
 62
     7
100
AcDbText
 10
714.9106394078261
 20
294.2465284359593
 30
0.0
 40
5.0
  1
485
100
AcDbText
  0
TEXT
  5
7092
330
1E
100
AcDbEntity
  8
図枠
 62
     7
100
AcDbText
 10
714.9106394078261
 20
285.2465284359592
 30
0.0
 40
5.0
  1
510
100
AcDbText
  0
TEXT
  5
7093
330
1E
100
AcDbEntity
  8
図枠
 62
     7
100
AcDbText
 10
776.6606394078264
 20
348.2465284359593
 30
0.0
 40
5.0
  1
61
100
AcDbText
  0
TEXT
  5
7094
330
1E
100
AcDbEntity
  8
図枠
 62
     7
100
AcDbText
 10
776.6606394078264
 20
339.2465284359591
 30
0.0
 40
5.0
  1
62
100
AcDbText
  0
TEXT
  5
7095
330
1E
100
AcDbEntity
  8
図枠
 62
     7
100
AcDbText
 10
776.6606394078264
 20
330.2465284359592
 30
0.0
 40
5.0
  1
63
100
AcDbText
  0
TEXT
  5
7096
330
1E
100
AcDbEntity
  8
図枠
 62
     7
100
AcDbText
 10
776.6606394078264
 20
321.2465284359593
 30
0.0
 40
5.0
  1
64
100
AcDbText
  0
TEXT
  5
7097
330
1E
100
AcDbEntity
  8
図枠
 62
     7
100
AcDbText
 10
776.6606394078264
 20
312.2465284359592
 30
0.0
 40
5.0
  1
66
100
AcDbText
  0
TEXT
  5
7098
330
1E
100
AcDbEntity
  8
図枠
 62
     7
100
AcDbText
 10
776.6606394078264
 20
303.2465284359592
 30
0.0
 40
5.0
  1
67
100
AcDbText
  0
TEXT
  5
7099
330
1E
100
AcDbEntity
  8
図枠
 62
     7
100
AcDbText
 10
776.6606394078264
 20
294.2465284359593
 30
0.0
 40
5.0
  1
68
100
AcDbText
  0
TEXT
  5
709A
330
1E
100
AcDbEntity
  8
図枠
 62
     7
100
AcDbText
 10
776.6606394078264
 20
285.2465284359592
 30
0.0
 40
5.0
  1
70
100
AcDbText
  0
TEXT
  5
709B
330
1E
100
AcDbEntity
  8
図枠
 62
     7
100
AcDbText
 10
804.9106394078265
 20
348.2465284359593
 30
0.0
 40
5.0
  1
119
100
AcDbText
  0
TEXT
  5
709C
330
1E
100
AcDbEntity
  8
図枠
 62
     7
100
AcDbText
 10
804.9106394078265
 20
339.2465284359591
 30
0.0
 40
5.0
  1
121
100
AcDbText
  0
TEXT
  5
709D
330
1E
100
AcDbEntity
  8
図枠
 62
     7
100
AcDbText
 10
804.9106394078265
 20
330.2465284359592
 30
0.0
 40
5.0
  1
122
100
AcDbText
  0
TEXT
  5
709E
330
1E
100
AcDbEntity
  8
図枠
 62
     7
100
AcDbText
 10
804.9106394078265
 20
321.2465284359593
 30
0.0
 40
5.0
  1
123
100
AcDbText
  0
TEXT
  5
709F
330
1E
100
AcDbEntity
  8
図枠
 62
     7
100
AcDbText
 10
804.9106394078265
 20
303.2465284359592
 30
0.0
 40
5.0
  1
126
100
AcDbText
  0
TEXT
  5
70A0
330
1E
100
AcDbEntity
  8
図枠
 62
     7
100
AcDbText
 10
804.9106394078265
 20
294.2465284359593
 30
0.0
 40
5.0
  1
127
100
AcDbText
  0
TEXT
  5
70A1
330
1E
100
AcDbEntity
  8
図枠
 62
     7
100
AcDbText
 10
804.9106394078265
 20
285.2465284359592
 30
0.0
 40
5.0
  1
128
100
AcDbText
  0
TEXT
  5
70A2
330
1E
100
AcDbEntity
  8
図枠
 62
     7
100
AcDbText
 10
609.6606394078261
 20
348.2465284359593
 30
0.0
 40
5.0
  1
　　  〃　 　350
100
AcDbText
  0
TEXT
  5
70A3
330
1E
100
AcDbEntity
  8
図枠
 62
     7
100
AcDbText
 10
609.6606394078261
 20
357.2465284359592
 30
0.0
 40
5.0
  1
150ＦＹＫ－Ａ325
100
AcDbText
  0
TEXT
  5
70A4
330
1E
100
AcDbEntity
  8
図枠
 62
     7
100
AcDbText
 10
776.6606394078264
 20
357.2465284359592
 30
0.0
 40
5.0
  1
59
100
AcDbText
  0
TEXT
  5
70A5
330
1E
100
AcDbEntity
  8
図枠
 62
     7
100
AcDbText
 10
804.9106394078265
 20
357.2465284359592
 30
0.0
 40
5.0
  1
118
100
AcDbText
  0
TEXT
  5
70A6
330
1E
100
AcDbEntity
  8
図枠
 62
     7
100
AcDbText
 10
684.9106394078265
 20
357.2465284359592
 30
0.0
 40
5.0
  1
325
100
AcDbText
  0
TEXT
  5
70A7
330
1E
100
AcDbEntity
  8
図枠
 62
     7
100
AcDbText
 10
714.9106394078261
 20
357.2465284359592
 30
0.0
 40
5.0
  1
310
100
AcDbText
  0
TEXT
  5
70A8
330
1E
100
AcDbEntity
  8
図枠
 62
     7
100
AcDbText
 10
353.9106394078261
 20
357.2465284359592
 30
0.0
 40
5.0
  1
150ＦＹＫ－Ａ325～525
100
AcDbText
  0
TEXT
  5
70A9
330
1E
100
AcDbEntity
  8
図枠
 62
     7
100
AcDbText
 10
353.9106394078261
 20
312.2465284359592
 30
0.0
 40
5.0
  1
150ＦＹＫＨ－325～525
100
AcDbText
  0
TEXT
  5
70AA
330
1E
100
AcDbEntity
  8
図枠
 62
     7
100
AcDbText
 10
353.9106394078261
 20
285.2465284359592
 30
0.0
 40
5.0
  1
150ＦＹＫＪ－325～525
100
AcDbText
  0
LINE
  5
70AB
330
1E
100
AcDbEntity
  8
躯体と製品
  6
Continuous
 62
     3
100
AcDbLine
 10
674.1801313742172
 20
541.9823688941043
 30
0.0
 11
675.6455381490199
 21
569.9439958672323
 31
0.0
  0
LINE
  5
70AC
330
1E
100
AcDbEntity
  8
躯体と製品
  6
Continuous
 62
     4
100
AcDbLine
 10
661.2060637483044
 20
570.7007366545886
 30
0.0
 11
660.6915752622312
 21
571.2152251406614
 31
0.0
  0
LINE
  5
70AD
330
1E
100
AcDbEntity
  8
躯体と製品
  6
DASHED1
 62
     7
100
AcDbLine
 10
669.317823591052
 20
544.7406225122055
 30
0.0
 11
674.3109712648248
 21
544.4789427309906
 31
0.0
  0
LINE
  5
70AE
330
1E
100
AcDbEntity
  8
躯体と製品
  6
DASHED1
 62
     7
100
AcDbLine
 10
669.3701595472946
 20
545.73925204696
 30
0.0
 11
669.317823591052
 21
544.7406225122055
 31
0.0
  0
LINE
  5
70AF
330
1E
100
AcDbEntity
  8
躯体と製品
  6
DASHED1
 62
     7
100
AcDbLine
 10
649.3975688522033
 20
546.7859711718189
 30
0.0
 11
669.3701595472946
 21
545.73925204696
 31
0.0
  0
LINE
  5
70B0
330
1E
100
AcDbEntity
  8
躯体と製品
  6
DASHED1
 62
     7
100
AcDbLine
 10
649.3975688522033
 20
546.7859711718189
 30
0.0
 11
649.3452328959605
 21
545.7873416370643
 31
0.0
  0
LINE
  5
70B1
330
1E
100
AcDbEntity
  8
躯体と製品
  6
DASHED1
 62
     7
100
AcDbLine
 10
645.8500295243194
 20
545.9705174839146
 30
0.0
 11
649.3452328959605
 21
545.7873416370643
 31
0.0
  0
ARC
  5
70B2
330
1E
100
AcDbEntity
  8
躯体と製品
  6
DASHED1
 62
     7
100
AcDbCircle
 10
645.9285334586837
 20
547.4684617860465
 30
0.0
 40
1.5
100
AcDbArc
 50
87.00000000000009
 51
267.0000000000001
  0
LINE
  5
70B3
330
1E
100
AcDbEntity
  8
躯体と製品
  6
DASHED1
 62
     7
100
AcDbLine
 10
646.0070373930483
 20
548.9664060881785
 30
0.0
 11
674.4679791335537
 21
547.4748313352543
 31
0.0
  0
LINE
  5
70B4
330
1E
100
AcDbEntity
  8
躯体と製品
  6
Continuous
 62
     3
100
AcDbLine
 10
684.4443257949102
 20
543.360246708858
 30
0.0
 11
683.8611332519912
 21
540.8341622791396
 31
0.0
  0
LINE
  5
70B5
330
1E
100
AcDbEntity
  8
躯体と製品
  6
Continuous
 62
     3
100
AcDbLine
 10
676.3082303343342
 20
544.3742708185047
 30
0.0
 11
683.9833087406393
 21
543.9720370034069
 31
0.0
  0
LINE
  5
70B6
330
1E
100
AcDbEntity
  8
躯体と製品
  6
Continuous
 62
     3
100
AcDbLine
 10
687.2239422488576
 20
543.8022025977711
 30
0.0
 11
686.0465958167909
 21
543.8639047097226
 31
0.0
  0
LINE
  5
70B7
330
1E
100
AcDbEntity
  8
躯体と製品
  6
Continuous
 62
     3
100
AcDbLine
 10
685.7385840104825
 20
543.6318011655994
 30
0.0
 11
685.030377329733
 21
540.564221013927
 31
0.0
  0
ARC
  5
70B8
330
1E
100
AcDbEntity
  8
躯体と製品
  6
Continuous
 62
     3
100
AcDbCircle
 10
676.2820623562123
 20
543.8749560511276
 30
0.0
 40
0.5
100
AcDbArc
 50
87.00000000000009
 51
176.9999999999993
  0
LINE
  5
70B9
330
1E
100
AcDbEntity
  8
躯体と製品
  6
Continuous
 62
     3
100
AcDbLine
 10
675.7827475888352
 20
543.9011240292491
 30
0.0
 11
675.7304116325923
 21
542.9024944944943
 31
0.0
  0
ARC
  5
70BA
330
1E
100
AcDbEntity
  8
躯体と製品
  6
Continuous
 62
     3
100
AcDbCircle
 10
676.4914061811841
 20
547.8694741901456
 30
0.0
 40
0.5
100
AcDbArc
 50
176.9999999999993
 51
267.0000000000001
  0
LINE
  5
70BB
330
1E
100
AcDbEntity
  8
躯体と製品
  6
Continuous
 62
     3
100
AcDbLine
 10
676.4652382030625
 20
547.3701594227686
 30
0.0
 11
688.1472255105968
 21
546.757932410368
 31
0.0
  0
LINE
  5
70BC
330
1E
100
AcDbEntity
  8
躯体と製品
  6
Continuous
 62
     3
100
AcDbLine
 10
675.9920914138071
 20
547.8956421682673
 30
0.0
 11
676.0967633262929
 21
549.8929012377764
 31
0.0
  0
LINE
  5
70BD
330
1E
100
AcDbEntity
  8
躯体と製品
  6
Continuous
 62
     3
100
AcDbLine
 10
697.4956876911004
 20
496.1374560353674
 30
0.0
 11
693.1131362693678
 21
496.1374560353674
 31
0.0
  0
LINE
  5
70BE
330
1E
100
AcDbEntity
  8
躯体と製品
  6
Continuous
 62
     3
100
AcDbLine
 10
688.1497538933487
 20
543.0114847538343
 30
0.0
 11
697.9847614914672
 21
496.7414118807763
 31
0.0
  0
LINE
  5
70BF
330
1E
100
AcDbEntity
  8
躯体と製品
  6
Continuous
 62
     3
100
AcDbLine
 10
690.9246604440693
 20
544.3857788785576
 30
0.0
 11
702.8806105473233
 21
488.1374560353675
 31
0.0
  0
ARC
  5
70C0
330
1E
100
AcDbEntity
  8
躯体と製品
  6
Continuous
 62
     3
100
AcDbCircle
 10
675.5974485589157
 20
549.9190692158979
 30
0.0
 40
0.5
100
AcDbArc
 50
356.9999999999993
 51
87.00000000000009
  0
LINE
  5
70C1
330
1E
100
AcDbEntity
  8
躯体と製品
  6
Continuous
 62
     3
100
AcDbLine
 10
675.623616537037
 20
550.4183839832753
 30
0.0
 11
675.1243017696598
 21
550.4445519613967
 31
0.0
  0
ARC
  5
70C2
330
1E
100
AcDbEntity
  8
躯体と製品
  6
Continuous
 62
     3
100
AcDbCircle
 10
675.0981337915381
 20
549.9452371940194
 30
0.0
 40
0.5
100
AcDbArc
 50
87.00000000000009
 51
176.9999999999993
  0
ARC
  5
70C3
330
1E
100
AcDbEntity
  8
躯体と製品
  6
Continuous
 62
     3
100
AcDbCircle
 10
687.9902176418678
 20
543.7620438061043
 30
0.0
 40
3.0
100
AcDbArc
 50
11.99999999999961
 51
87.00000000000009
  0
ARC
  5
70C4
330
1E
100
AcDbEntity
  8
躯体と製品
  6
Continuous
 62
     3
100
AcDbCircle
 10
687.1716062926148
 20
542.8035730630166
 30
0.0
 40
1.0
100
AcDbArc
 50
11.99999999999961
 51
87.00000000000009
  0
ARC
  5
70C5
330
1E
100
AcDbEntity
  8
躯体と製品
  6
Continuous
 62
     3
100
AcDbCircle
 10
675.2310968652152
 20
542.9286624726159
 30
0.0
 40
0.5
100
AcDbArc
 50
267.0000000000001
 51
356.9999999999993
  0
LINE
  5
70C6
330
1E
100
AcDbEntity
  8
躯体と製品
  6
Continuous
 62
     3
100
AcDbLine
 10
675.2049288870936
 20
542.4293477052386
 30
0.0
 11
674.7056141197159
 21
542.4555156833601
 31
0.0
  0
ARC
  5
70C7
330
1E
100
AcDbEntity
  8
躯体と製品
  6
Continuous
 62
     3
100
AcDbCircle
 10
674.7317820978377
 20
542.9548304507375
 30
0.0
 40
0.5
100
AcDbArc
 50
176.9999999999993
 51
267.0000000000001
  0
ARC
  5
70C8
330
1E
100
AcDbEntity
  8
躯体と製品
  6
Continuous
 62
     3
100
AcDbCircle
 10
697.9633121267744
 20
494.4374560353675
 30
0.0
 40
0.5
100
AcDbArc
 50
11.99999999999961
 51
90.0
  0
LINE
  5
70C9
330
1E
100
AcDbEntity
  8
躯体と製品
  6
Continuous
 62
     3
100
AcDbLine
 10
698.4523859271413
 20
494.5414118807762
 30
0.0
 11
699.880610547323
 21
487.8221433295704
 31
0.0
  0
LINE
  5
70CA
330
1E
100
AcDbEntity
  8
躯体と製品
  6
Continuous
 62
     3
100
AcDbLine
 10
697.9633121267744
 20
494.9374560353673
 30
0.0
 11
688.7131362693676
 21
494.9374560353673
 31
0.0
  0
ARC
  5
70CB
330
1E
100
AcDbEntity
  8
躯体と製品
  6
Continuous
 62
     3
100
AcDbCircle
 10
697.4956876911004
 20
496.6374560353675
 30
0.0
 40
0.5
100
AcDbArc
 50
270.0
 51
11.99999999999961
  0
LINE
  5
70CC
330
1E
100
AcDbEntity
  8
躯体と製品
  6
Continuous
 62
     3
100
AcDbLine
 10
688.7131362693676
 20
496.1374560353674
 30
0.0
 11
691.1131362693678
 21
496.1374560353674
 31
0.0
  0
LINE
  5
70CD
330
1E
100
AcDbEntity
  8
躯体と製品
  6
Continuous
 62
     3
100
AcDbLine
 10
693.1131362693678
 20
497.1374560353675
 30
0.0
 11
691.1131362693678
 21
496.1374560353674
 31
0.0
  0
LINE
  5
70CE
330
1E
100
AcDbEntity
  8
躯体と製品
  6
Continuous
 62
     3
100
AcDbLine
 10
693.1131362693678
 20
496.1374560353674
 30
0.0
 11
693.1131362693678
 21
497.1374560353675
 31
0.0
  0
ARC
  5
70CF
330
1E
100
AcDbEntity
  8
躯体と製品
  6
Continuous
 62
     3
100
AcDbCircle
 10
700.3806105473231
 20
486.6374560353674
 30
0.0
 40
2.5
100
AcDbArc
 50
270.0
 51
0.0
  0
LINE
  5
70D0
330
1E
100
AcDbEntity
  8
躯体と製品
  6
Continuous
 62
     3
100
AcDbLine
 10
700.3806105473231
 20
484.1374560353675
 30
0.0
 11
699.880610547323
 21
484.1374560353675
 31
0.0
  0
LINE
  5
70D1
330
1E
100
AcDbEntity
  8
躯体と製品
  6
Continuous
 62
     3
100
AcDbLine
 10
702.8806105473233
 20
486.6374560353674
 30
0.0
 11
702.8806105473233
 21
488.1374560353675
 31
0.0
  0
LINE
  5
70D2
330
1E
100
AcDbEntity
  8
躯体と製品
  6
Continuous
 62
     3
100
AcDbLine
 10
699.880610547323
 20
487.8221433295704
 30
0.0
 11
699.880610547323
 21
484.1374560353675
 31
0.0
  0
ARC
  5
70D3
330
1E
100
AcDbEntity
  8
躯体と製品
  6
Continuous
 62
     3
100
AcDbCircle
 10
688.7131362693676
 20
495.5374560353674
 30
0.0
 40
0.6000000000000015
100
AcDbArc
 50
90.0
 51
270.0
  0
ARC
  5
70D4
330
1E
100
AcDbEntity
  8
躯体と製品
  6
Continuous
 62
     3
100
AcDbCircle
 10
686.0308950299183
 20
543.5643158492962
 30
0.0
 40
0.2999999999999999
100
AcDbArc
 50
87.00000000000009
 51
166.9999999999993
  0
ARC
  5
70D5
330
1E
100
AcDbEntity
  8
躯体と製品
  6
Continuous
 62
     3
100
AcDbCircle
 10
683.9571407625177
 20
543.4727222360296
 30
0.0
 40
0.5
100
AcDbArc
 50
346.9999999999994
 51
87.00000000000009
  0
ARC
  5
70D6
330
1E
100
AcDbEntity
  8
躯体と製品
  6
Continuous
 62
     3
100
AcDbCircle
 10
684.4457552908622
 20
540.6991916465336
 30
0.0
 40
0.5999999999999984
100
AcDbArc
 50
166.9999999999993
 51
346.9999999999994
  0
LINE
  5
70D7
330
1E
100
AcDbEntity
  8
躯体と製品
  6
Continuous
 62
     4
100
AcDbLine
 10
660.9705519452112
 20
566.206903748193
 30
0.0
 11
660.4560634591381
 21
566.7213922342658
 31
0.0
  0
LINE
  5
70D8
330
1E
100
AcDbEntity
  8
躯体と製品
  6
Continuous
 62
     7
100
AcDbLine
 10
675.6193701708981
 20
569.4446810998551
 30
0.0
 11
660.6399271495801
 21
570.2297204434994
 31
0.0
  0
LINE
  5
70D9
330
1E
100
AcDbEntity
  8
躯体と製品
  6
Continuous
 62
     7
100
AcDbLine
 10
660.4305833246082
 20
566.235202304481
 30
0.0
 11
660.6399271495801
 21
570.2297204434994
 31
0.0
  0
LINE
  5
70DA
330
1E
100
AcDbEntity
  8
躯体と製品
  6
Continuous
 62
     4
100
AcDbLine
 10
662.4629803669021
 20
566.1286888888735
 30
0.0
 11
660.5264884347936
 21
568.065180820982
 31
0.0
  0
LINE
  5
70DB
330
1E
100
AcDbEntity
  8
躯体と製品
  6
Continuous
 62
     4
100
AcDbLine
 10
663.9554087885957
 20
566.0504740295533
 30
0.0
 11
660.5969134104497
 21
569.4089694076994
 31
0.0
  0
LINE
  5
70DC
330
1E
100
AcDbEntity
  8
躯体と製品
  6
Continuous
 62
     4
100
AcDbLine
 10
665.4478372102889
 20
565.9722591702331
 30
0.0
 11
661.2208191993553
 21
570.1992771811672
 31
0.0
  0
LINE
  5
70DD
330
1E
100
AcDbEntity
  8
躯体と製品
  6
Continuous
 62
     4
100
AcDbLine
 10
666.9402656319822
 20
565.8940443109136
 30
0.0
 11
662.713247621048
 21
570.1210623218476
 31
0.0
  0
LINE
  5
70DE
330
1E
100
AcDbEntity
  8
躯体と製品
  6
Continuous
 62
     4
100
AcDbLine
 10
668.4326940536749
 20
565.8158294515938
 30
0.0
 11
664.2056760427411
 21
570.0428474625278
 31
0.0
  0
LINE
  5
70DF
330
1E
100
AcDbEntity
  8
躯体と製品
  6
Continuous
 62
     4
100
AcDbLine
 10
669.9251224753679
 20
565.737614592274
 30
0.0
 11
665.6981044644343
 21
569.9646326032079
 31
0.0
  0
LINE
  5
70E0
330
1E
100
AcDbEntity
  8
躯体と製品
  6
Continuous
 62
     4
100
AcDbLine
 10
671.4175508970612
 20
565.6593997329541
 30
0.0
 11
667.1905328861272
 21
569.8864177438881
 31
0.0
  0
LINE
  5
70E1
330
1E
100
AcDbEntity
  8
躯体と製品
  6
Continuous
 62
     4
100
AcDbLine
 10
672.9099793187546
 20
565.5811848736346
 30
0.0
 11
668.6829613078206
 21
569.8082028845682
 31
0.0
  0
LINE
  5
70E2
330
1E
100
AcDbEntity
  8
躯体と製品
  6
Continuous
 62
     4
100
AcDbLine
 10
674.4024077404457
 20
565.502970014315
 30
0.0
 11
670.1753897295117
 21
569.7299880252485
 31
0.0
  0
LINE
  5
70E3
330
1E
100
AcDbEntity
  8
躯体と製品
  6
Continuous
 62
     4
100
AcDbLine
 10
675.4329036370644
 20
565.8866876800694
 30
0.0
 11
671.6678181512048
 21
569.6517731659286
 31
0.0
  0
LINE
  5
70E4
330
1E
100
AcDbEntity
  8
躯体と製品
  6
Continuous
 62
     4
100
AcDbLine
 10
675.5737535883753
 20
568.5742648535051
 30
0.0
 11
674.6526749945909
 21
569.4953434472891
 31
0.0
  0
LINE
  5
70E5
330
1E
100
AcDbEntity
  8
躯体と製品
  6
Continuous
 62
     4
100
AcDbLine
 10
675.5033286127197
 20
567.2304762667875
 30
0.0
 11
673.1602465728981
 21
569.5735583066087
 31
0.0
  0
ARC
  5
70E6
330
1E
100
AcDbEntity
  8
躯体と製品
  6
Continuous
 62
     3
100
AcDbCircle
 10
688.6131362693678
 20
487.8374560353673
 30
0.0
 40
1.0
100
AcDbArc
 50
180.0
 51
270.0
  0
LINE
  5
70E7
330
1E
100
AcDbEntity
  8
躯体と製品
  6
Continuous
 62
     3
100
AcDbLine
 10
692.5131362693679
 20
486.8374560353672
 30
0.0
 11
688.6131362693678
 21
486.8374560353672
 31
0.0
  0
ARC
  5
70E8
330
1E
100
AcDbEntity
  8
躯体と製品
  6
Continuous
 62
     3
100
AcDbCircle
 10
692.5131362693679
 20
486.2374560353672
 30
0.0
 40
0.5999999999999998
100
AcDbArc
 50
270.0
 51
90.0
  0
LINE
  5
70E9
330
1E
100
AcDbEntity
  8
躯体と製品
  6
Continuous
 62
     3
100
AcDbLine
 10
686.1131362693678
 20
524.9374560353675
 30
0.0
 11
686.1131362693678
 21
488.1374560353675
 31
0.0
  0
ARC
  5
70EA
330
1E
100
AcDbEntity
  8
躯体と製品
  6
Continuous
 62
     3
100
AcDbCircle
 10
686.8631362693678
 20
542.8874560353674
 30
0.0
 40
0.75
100
AcDbArc
 50
0.0
 51
180.0
  0
LINE
  5
70EB
330
1E
100
AcDbEntity
  8
躯体と製品
  6
Continuous
 62
     3
100
AcDbLine
 10
686.1131362693678
 20
536.3374560353674
 30
0.0
 11
686.1131362693678
 21
542.8874560353674
 31
0.0
  0
ARC
  5
70EC
330
1E
100
AcDbEntity
  8
躯体と製品
  6
Continuous
 62
     3
100
AcDbCircle
 10
685.6131362693678
 20
536.3374560353674
 30
0.0
 40
0.5
100
AcDbArc
 50
270.0
 51
0.0
  0
ARC
  5
70ED
330
1E
100
AcDbEntity
  8
躯体と製品
  6
Continuous
 62
     3
100
AcDbCircle
 10
681.9131362693676
 20
534.8374560353672
 30
0.0
 40
1.0
100
AcDbArc
 50
90.0
 51
180.0
  0
LINE
  5
70EE
330
1E
100
AcDbEntity
  8
躯体と製品
  6
Continuous
 62
     3
100
AcDbLine
 10
685.6131362693678
 20
535.8374560353674
 30
0.0
 11
681.9131362693676
 21
535.8374560353674
 31
0.0
  0
ARC
  5
70EF
330
1E
100
AcDbEntity
  8
躯体と製品
  6
Continuous
 62
     3
100
AcDbCircle
 10
685.6131362693678
 20
524.9374560353675
 30
0.0
 40
0.5
100
AcDbArc
 50
0.0
 51
90.0
  0
ARC
  5
70F0
330
1E
100
AcDbEntity
  8
躯体と製品
  6
Continuous
 62
     3
100
AcDbCircle
 10
681.9131362693676
 20
526.4374560353675
 30
0.0
 40
1.0
100
AcDbArc
 50
180.0
 51
270.0
  0
LINE
  5
70F1
330
1E
100
AcDbEntity
  8
躯体と製品
  6
Continuous
 62
     3
100
AcDbLine
 10
685.6131362693678
 20
525.4374560353674
 30
0.0
 11
681.9131362693676
 21
525.4374560353674
 31
0.0
  0
ARC
  5
70F2
330
1E
100
AcDbEntity
  8
躯体と製品
  6
Continuous
 62
     3
100
AcDbCircle
 10
685.8131362693681
 20
534.3374560353672
 30
0.0
 40
0.2999999999999998
100
AcDbArc
 50
0.0
 51
90.0
  0
LINE
  5
70F3
330
1E
100
AcDbEntity
  8
躯体と製品
  6
Continuous
 62
     3
100
AcDbLine
 10
686.1131362693678
 20
534.3374560353672
 30
0.0
 11
686.1131362693678
 21
526.9374560353675
 31
0.0
  0
ARC
  5
70F4
330
1E
100
AcDbEntity
  8
躯体と製品
  6
Continuous
 62
     3
100
AcDbCircle
 10
685.8131362693681
 20
526.9374560353675
 30
0.0
 40
0.2999999999999998
100
AcDbArc
 50
270.0
 51
0.0
  0
LINE
  5
70F5
330
1E
100
AcDbEntity
  8
躯体と製品
  6
Continuous
 62
     3
100
AcDbLine
 10
682.4131362693679
 20
526.6374560353674
 30
0.0
 11
685.8131362693681
 21
526.6374560353674
 31
0.0
  0
LINE
  5
70F6
330
1E
100
AcDbEntity
  8
躯体と製品
  6
Continuous
 62
     3
100
AcDbLine
 10
682.4131362693679
 20
534.6374560353674
 30
0.0
 11
685.8131362693681
 21
534.6374560353674
 31
0.0
  0
LINE
  5
70F7
330
1E
100
AcDbEntity
  8
躯体と製品
  6
Continuous
 62
     3
100
AcDbLine
 10
687.613136269368
 20
542.8874560353674
 30
0.0
 11
687.613136269368
 21
498.6374560353675
 31
0.0
  0
ARC
  5
70F8
330
1E
100
AcDbEntity
  8
躯体と製品
  6
Continuous
 62
     3
100
AcDbCircle
 10
688.6131362693678
 20
488.1374560353675
 30
0.0
 40
2.5
100
AcDbArc
 50
180.0
 51
270.0
  0
LINE
  5
70F9
330
1E
100
AcDbEntity
  8
躯体と製品
  6
Continuous
 62
     3
100
AcDbLine
 10
692.5131362693679
 20
485.6374560353675
 30
0.0
 11
688.6131362693678
 21
485.6374560353675
 31
0.0
  0
ARC
  5
70FA
330
1E
100
AcDbEntity
  8
躯体と製品
  6
Continuous
 62
     3
100
AcDbCircle
 10
688.113136269368
 20
498.6374560353675
 30
0.0
 40
0.5
100
AcDbArc
 50
180.0
 51
270.0
  0
LINE
  5
70FB
330
1E
100
AcDbEntity
  8
躯体と製品
  6
Continuous
 62
     3
100
AcDbLine
 10
688.113136269368
 20
498.1374560353675
 30
0.0
 11
694.8131362693681
 21
498.1374560353675
 31
0.0
  0
LINE
  5
70FC
330
1E
100
AcDbEntity
  8
躯体と製品
  6
Continuous
 62
     3
100
AcDbLine
 10
687.613136269368
 20
496.6374560353675
 30
0.0
 11
687.613136269368
 21
487.8374560353673
 31
0.0
  0
ARC
  5
70FD
330
1E
100
AcDbEntity
  8
躯体と製品
  6
Continuous
 62
     3
100
AcDbCircle
 10
688.113136269368
 20
496.6374560353675
 30
0.0
 40
0.5
100
AcDbArc
 50
90.0
 51
180.0
  0
ARC
  5
70FE
330
1E
100
AcDbEntity
  8
躯体と製品
  6
Continuous
 62
     3
100
AcDbCircle
 10
694.8131362693681
 20
497.8374560353673
 30
0.0
 40
0.2999999999999998
100
AcDbArc
 50
0.0
 51
90.0
  0
LINE
  5
70FF
330
1E
100
AcDbEntity
  8
躯体と製品
  6
Continuous
 62
     3
100
AcDbLine
 10
688.113136269368
 20
497.1374560353675
 30
0.0
 11
693.1131362693678
 21
497.1374560353675
 31
0.0
  0
LINE
  5
7100
330
1E
100
AcDbEntity
  8
躯体と製品
  6
Continuous
 62
     3
100
AcDbLine
 10
695.1131362693678
 20
497.8374560353673
 30
0.0
 11
695.1131362693678
 21
497.5278440353674
 31
0.0
  0
LINE
  5
7101
330
1E
100
AcDbEntity
  8
躯体と製品
  6
Continuous
 62
     3
100
AcDbLine
 10
693.1131362693678
 20
497.1374560353675
 30
0.0
 11
693.1131362693678
 21
496.6374560353675
 31
0.0
  0
ARC
  5
7102
330
1E
100
AcDbEntity
  8
躯体と製品
  6
Continuous
 62
     3
100
AcDbCircle
 10
694.6131362693678
 20
497.5278440353674
 30
0.0
 40
0.5
100
AcDbArc
 50
284.0362429999999
 51
0.0
  0
LINE
  5
7103
330
1E
100
AcDbEntity
  8
躯体と製品
  6
Continuous
 62
     3
100
AcDbLine
 10
693.1131362693678
 20
496.6374560353675
 30
0.0
 11
694.7344042693679
 21
497.0427730353675
 31
0.0
  0
LINE
  5
7104
330
1E
100
AcDbEntity
  8
躯体と製品
  6
Continuous
 62
     3
100
AcDbLine
 10
680.913136269368
 20
532.7374560353673
 30
0.0
 11
680.913136269368
 21
534.8374560353672
 31
0.0
  0
ARC
  5
7105
330
1E
100
AcDbEntity
  8
躯体と製品
  6
Continuous
 62
     3
100
AcDbCircle
 10
682.4131362693679
 20
534.3374560353672
 30
0.0
 40
0.2999999999999998
100
AcDbArc
 50
90.0
 51
180.0
  0
LINE
  5
7106
330
1E
100
AcDbEntity
  8
躯体と製品
  6
Continuous
 62
     3
100
AcDbLine
 10
682.1131362693678
 20
532.7374560353673
 30
0.0
 11
682.1131362693678
 21
534.3374560353672
 31
0.0
  0
ARC
  5
7107
330
1E
100
AcDbEntity
  8
躯体と製品
  6
Continuous
 62
     3
100
AcDbCircle
 10
682.4131362693679
 20
526.9374560353675
 30
0.0
 40
0.2999999999999998
100
AcDbArc
 50
180.0
 51
270.0
  0
LINE
  5
7108
330
1E
100
AcDbEntity
  8
躯体と製品
  6
Continuous
 62
     3
100
AcDbLine
 10
682.1131362693678
 20
528.5374560353675
 30
0.0
 11
682.1131362693678
 21
526.9374560353675
 31
0.0
  0
LINE
  5
7109
330
1E
100
AcDbEntity
  8
躯体と製品
  6
Continuous
 62
     3
100
AcDbLine
 10
680.913136269368
 20
528.5374560353675
 30
0.0
 11
680.913136269368
 21
526.4374560353675
 31
0.0
  0
ARC
  5
710A
330
1E
100
AcDbEntity
  8
躯体と製品
  6
Continuous
 62
     3
100
AcDbCircle
 10
681.5131362693679
 20
532.7374560353673
 30
0.0
 40
0.5999999999999998
100
AcDbArc
 50
180.0
 51
0.0
  0
ARC
  5
710B
330
1E
100
AcDbEntity
  8
躯体と製品
  6
Continuous
 62
     3
100
AcDbCircle
 10
681.5131362693679
 20
528.5374560353675
 30
0.0
 40
0.5999999999999998
100
AcDbArc
 50
0.0
 51
180.0
  0
LINE
  5
710C
330
1E
100
AcDbEntity
  8
躯体と製品
  6
Continuous
 62
     7
100
AcDbLine
 10
683.613136269368
 20
531.1374560353674
 30
0.0
 11
685.264221269368
 21
530.6140830353674
 31
0.0
  0
ARC
  5
710D
330
1E
100
AcDbEntity
  8
躯体と製品
  6
Continuous
 62
     7
100
AcDbCircle
 10
685.1131362693678
 20
530.1374560353674
 30
0.0
 40
0.5
100
AcDbArc
 50
287.5879540000001
 51
72.41204599999992
  0
LINE
  5
710E
330
1E
100
AcDbEntity
  8
躯体と製品
  6
Continuous
 62
     7
100
AcDbLine
 10
682.1131362693678
 20
527.1374560353674
 30
0.0
 11
682.1131362693678
 21
529.6374560353674
 31
0.0
  0
ARC
  5
710F
330
1E
100
AcDbEntity
  8
躯体と製品
  6
Continuous
 62
     7
100
AcDbCircle
 10
682.6131362693678
 20
533.1374560353674
 30
0.0
 40
0.5
100
AcDbArc
 50
90.0
 51
180.0
  0
ARC
  5
7110
330
1E
100
AcDbEntity
  8
躯体と製品
  6
Continuous
 62
     7
100
AcDbCircle
 10
682.6131362693678
 20
527.1374560353674
 30
0.0
 40
0.5
100
AcDbArc
 50
180.0
 51
270.0
  0
ARC
  5
7111
330
1E
100
AcDbEntity
  8
躯体と製品
  6
Continuous
 62
     7
100
AcDbCircle
 10
683.1131362693678
 20
527.1374560353674
 30
0.0
 40
0.5
100
AcDbArc
 50
270.0
 51
0.0
  0
LINE
  5
7112
330
1E
100
AcDbEntity
  8
躯体と製品
  6
Continuous
 62
     7
100
AcDbLine
 10
682.6131362693678
 20
526.6374560353674
 30
0.0
 11
683.1131362693678
 21
526.6374560353674
 31
0.0
  0
LINE
  5
7113
330
1E
100
AcDbEntity
  8
躯体と製品
  6
Continuous
 62
     7
100
AcDbLine
 10
682.6131362693678
 20
533.6374560353674
 30
0.0
 11
683.1131362693678
 21
533.6374560353674
 31
0.0
  0
ARC
  5
7114
330
1E
100
AcDbEntity
  8
躯体と製品
  6
Continuous
 62
     7
100
AcDbCircle
 10
683.1131362693678
 20
533.1374560353674
 30
0.0
 40
0.5
100
AcDbArc
 50
0.0
 51
90.0
  0
LINE
  5
7115
330
1E
100
AcDbEntity
  8
躯体と製品
  6
Continuous
 62
     7
100
AcDbLine
 10
683.613136269368
 20
531.1374560353674
 30
0.0
 11
683.613136269368
 21
533.1374560353674
 31
0.0
  0
LINE
  5
7116
330
1E
100
AcDbEntity
  8
躯体と製品
  6
Continuous
 62
     7
100
AcDbLine
 10
683.613136269368
 20
529.1374560353674
 30
0.0
 11
683.613136269368
 21
527.1374560353674
 31
0.0
  0
LINE
  5
7117
330
1E
100
AcDbEntity
  8
躯体と製品
  6
Continuous
 62
     7
100
AcDbLine
 10
683.613136269368
 20
529.1374560353674
 30
0.0
 11
685.264221269368
 21
529.6608290353674
 31
0.0
  0
LINE
  5
7118
330
1E
100
AcDbEntity
  8
躯体と製品
  6
Continuous
 62
     7
100
AcDbLine
 10
682.1131362693678
 20
533.1374560353674
 30
0.0
 11
682.1131362693678
 21
530.6374560353674
 31
0.0
  0
LINE
  5
7119
330
1E
100
AcDbEntity
  8
躯体と製品
  6
Continuous
 62
     7
100
AcDbLine
 10
681.5173380906656
 20
529.6374560353674
 30
0.0
 11
682.1131362693678
 21
529.6374560353674
 31
0.0
  0
ARC
  5
711A
330
1E
100
AcDbEntity
  8
躯体と製品
  6
Continuous
 62
     7
100
AcDbCircle
 10
681.5173380906656
 20
528.5374560353672
 30
0.0
 40
1.1
100
AcDbArc
 50
90.0
 51
175.0000000000001
  0
LINE
  5
711B
330
1E
100
AcDbEntity
  8
躯体と製品
  6
Continuous
 62
     7
100
AcDbLine
 10
681.5173380906656
 20
530.6374560353674
 30
0.0
 11
682.1131362693678
 21
530.6374560353674
 31
0.0
  0
ARC
  5
711C
330
1E
100
AcDbEntity
  8
躯体と製品
  6
Continuous
 62
     7
100
AcDbCircle
 10
681.5173380906656
 20
528.5374560353672
 30
0.0
 40
2.1
100
AcDbArc
 50
90.0
 51
175.0000000000001
  0
LINE
  5
711D
330
1E
100
AcDbEntity
  8
躯体と製品
  6
Continuous
 62
     7
100
AcDbLine
 10
679.4253292246729
 20
528.7204830951375
 30
0.0
 11
677.4112992609921
 21
505.7000152709371
 31
0.0
  0
ARC
  5
711E
330
1E
100
AcDbEntity
  8
躯体と製品
  6
Continuous
 62
     7
100
AcDbCircle
 10
654.9712035634743
 20
507.6632692529067
 30
0.0
 40
22.52581321753931
100
AcDbArc
 50
184.9999999999998
 51
355.0000000000002
  0
LINE
  5
711F
330
1E
100
AcDbEntity
  8
躯体と製品
  6
Continuous
 62
     7
100
AcDbLine
 10
680.4215239227645
 20
528.6333273523896
 30
0.0
 11
678.4074939590838
 21
505.6128595281891
 31
0.0
  0
ARC
  5
7120
330
1E
100
AcDbEntity
  8
躯体と製品
  6
Continuous
 62
     7
100
AcDbCircle
 10
654.9712035634743
 20
507.6632692529067
 30
0.0
 40
23.52581321753931
100
AcDbArc
 50
184.9999999999998
 51
355.0000000000002
  0
LINE
  5
7121
330
1E
100
AcDbEntity
  8
躯体と製品
  6
Continuous
 62
     3
100
AcDbLine
 10
675.6455381490199
 20
569.9439958672323
 30
0.0
 11
361.0772347013289
 21
586.4298220837597
 31
0.0
  0
LINE
  5
7122
330
1E
100
AcDbEntity
  8
躯体と製品
  6
Continuous
 62
     3
100
AcDbLine
 10
674.1801313742172
 20
541.9823688941043
 30
0.0
 11
359.6118279265267
 21
558.4681951106315
 31
0.0
  0
LINE
  5
7123
330
1E
100
AcDbEntity
  8
躯体と製品
  6
DASHED1
 62
     4
100
AcDbLine
 10
674.5883518329121
 20
549.7716792651897
 30
0.0
 11
360.0200483852215
 21
566.2575054817175
 31
0.0
  0
LINE
  5
7124
330
1E
100
AcDbEntity
  8
躯体と製品
  6
DASHED1
 62
     4
100
AcDbLine
 10
674.4941471116748
 20
547.9741461026314
 30
0.0
 11
359.9258436639841
 21
564.459972319159
 31
0.0
  0
LINE
  5
7125
330
1E
100
AcDbEntity
  8
躯体と製品
  6
DASHED1
 62
     4
100
AcDbLine
 10
674.3109712648248
 20
544.4789427309906
 30
0.0
 11
359.7426678171339
 21
560.9647689475179
 31
0.0
  0
LINE
  5
7126
330
1E
100
AcDbEntity
  8
躯体と製品
  6
DASHED1
 62
     4
100
AcDbLine
 10
674.2324673304601
 20
542.9809984288588
 30
0.0
 11
359.6641638827695
 21
559.4668246453863
 31
0.0
  0
LINE
  5
7127
330
1E
100
AcDbEntity
  8
躯体と製品
  6
Continuous
 62
     3
100
AcDbLine
 10
675.4100263459264
 20
565.4501629608367
 30
0.0
 11
360.8417228982357
 21
581.9359891773642
 31
0.0
  0
LINE
  5
7128
330
1E
100
AcDbEntity
  8
躯体と製品
  6
Continuous
 62
     3
100
AcDbLine
 10
675.3315224115622
 20
563.9522186587048
 30
0.0
 11
360.7632189638713
 21
580.4380448752322
 31
0.0
  0
LINE
  5
7129
330
1E
100
AcDbEntity
  8
躯体と製品
  6
DASHED1
 62
     4
100
AcDbLine
 10
675.5670342146553
 20
568.4460515651004
 30
0.0
 11
375.978173788283
 21
584.1468384379838
 31
0.0
  0
LINE
  5
712A
330
1E
100
AcDbEntity
  8
躯体と製品
  6
DASHED1
 62
     4
100
AcDbLine
 10
639.5421133952648
 20
549.8059045711346
 30
0.0
 11
639.6363181165023
 21
551.603437733693
 31
0.0
  0
LINE
  5
712B
330
1E
100
AcDbEntity
  8
躯体と製品
  6
DASHED1
 62
     4
100
AcDbLine
 10
459.7887971394417
 20
559.2263766948646
 30
0.0
 11
459.8830018606788
 21
561.0239098574229
 31
0.0
  0
ARC
  5
712C
330
1E
100
AcDbEntity
  8
躯体と製品
  6
DASHED1
 62
     7
100
AcDbCircle
 10
340.9106394078261
 20
592.2152600403912
 30
0.0
 40
7.5
100
AcDbArc
 50
180.0
 51
267.0000000000001
  0
ARC
  5
712D
330
1E
100
AcDbEntity
  8
躯体と製品
  6
DASHED1
 62
     7
100
AcDbCircle
 10
340.9106394078261
 20
592.2152600403919
 30
0.0
 40
3.0
100
AcDbArc
 50
180.0
 51
267.0000000000001
  0
LINE
  5
712E
330
1E
100
AcDbEntity
  8
躯体と製品
  6
DASHED1
 62
     7
100
AcDbLine
 10
333.4106394078261
 20
592.2152600403912
 30
0.0
 11
333.4106394078261
 21
604.3683663402471
 31
0.0
  0
LINE
  5
712F
330
1E
100
AcDbEntity
  8
躯体と製品
  6
DASHED1
 62
     7
100
AcDbLine
 10
337.9106394078261
 20
604.3683663402471
 30
0.0
 11
333.4106394078261
 21
604.3683663402471
 31
0.0
  0
LINE
  5
7130
330
1E
100
AcDbEntity
  8
躯体と製品
  6
DASHED1
 62
     7
100
AcDbLine
 10
337.9106394078261
 20
592.2152600403919
 30
0.0
 11
337.9106394078261
 21
604.3683663402471
 31
0.0
  0
LINE
  5
7131
330
1E
100
AcDbEntity
  8
躯体と製品
  6
Continuous
 62
     3
100
AcDbLine
 10
342.9106394078261
 20
603.0042565772621
 30
0.0
 11
344.9106394078261
 21
603.0042565772621
 31
0.0
  0
LINE
  5
7132
330
1E
100
AcDbEntity
  8
躯体と製品
  6
Continuous
 62
     3
100
AcDbLine
 10
342.9106394078261
 20
591.9532211439769
 30
0.0
 11
342.9106394078261
 21
603.0042565772621
 31
0.0
  0
ARC
  5
7133
330
1E
100
AcDbEntity
  8
躯体と製品
  6
Continuous
 62
     3
100
AcDbCircle
 10
345.9106394078261
 20
591.9532211439769
 30
0.0
 40
3.0
100
AcDbArc
 50
180.0
 51
267.0000000000001
  0
LINE
  5
7134
330
1E
100
AcDbEntity
  8
躯体と製品
  6
Continuous
 62
     3
100
AcDbLine
 10
344.9106394078261
 20
591.9532211439769
 30
0.0
 11
344.9106394078261
 21
603.0042565772621
 31
0.0
  0
ARC
  5
7135
330
1E
100
AcDbEntity
  8
躯体と製品
  6
Continuous
 62
     3
100
AcDbCircle
 10
345.9106394078261
 20
591.9532211439769
 30
0.0
 40
1.0
100
AcDbArc
 50
180.0
 51
267.0000000000001
  0
ARC
  5
7136
330
1E
100
AcDbEntity
  8
躯体と製品
  6
DASHED1
 62
     7
100
AcDbCircle
 10
681.5738190420971
 20
563.8474496792823
 30
0.0
 40
3.0
100
AcDbArc
 50
10.1246716553973
 51
87.00000000000009
  0
LINE
  5
7137
330
1E
100
AcDbEntity
  8
躯体と製品
  6
DASHED1
 62
     7
100
AcDbLine
 10
684.5271017686226
 20
564.3748215947331
 30
0.0
 11
698.480715318038
 21
486.2345857180066
 31
0.0
  0
LINE
  5
7138
330
1E
100
AcDbEntity
  8
躯体と製品
  6
DASHED1
 62
     7
100
AcDbLine
 10
702.9106394078261
 20
487.0256435911832
 30
0.0
 11
698.4807153181016
 21
486.2345857176509
 31
0.0
  0
LINE
  5
7139
330
1E
100
AcDbEntity
  8
躯体と製品
  6
DASHED1
 62
     7
100
AcDbLine
 10
688.9570258584106
 20
565.1658794679097
 30
0.0
 11
702.9106394078261
 21
487.0256435911832
 31
0.0
  0
ARC
  5
713A
330
1E
100
AcDbEntity
  8
躯体と製品
  6
DASHED1
 62
     7
100
AcDbCircle
 10
681.5738190420971
 20
563.8474496792823
 30
0.0
 40
7.5
100
AcDbArc
 50
10.1246716553973
 51
87.00000000000009
  0
LINE
  5
713B
330
1E
100
AcDbEntity
  8
躯体と製品
  6
Continuous
 62
     3
100
AcDbLine
 10
701.9106394078261
 20
482.1374560353675
 30
0.0
 11
694.9106394078261
 21
482.1374560353675
 31
0.0
  0
ARC
  5
713C
330
1E
100
AcDbEntity
  8
躯体と製品
  6
Continuous
 62
     3
100
AcDbCircle
 10
701.9106394078261
 20
569.2905623352229
 30
0.0
 40
3.0
100
AcDbArc
 50
0.0
 51
87.00000000000009
  0
ARC
  5
713D
330
1E
100
AcDbEntity
  8
躯体と製品
  6
Continuous
 62
     3
100
AcDbCircle
 10
701.9106394078261
 20
485.1374560353675
 30
0.0
 40
3.0
100
AcDbArc
 50
270.0
 51
0.0
  0
LINE
  5
713E
330
1E
100
AcDbEntity
  8
躯体と製品
  6
Continuous
 62
     3
100
AcDbLine
 10
702.9106394078261
 20
485.1374560353675
 30
0.0
 11
702.9106394078261
 21
569.2905623352229
 31
0.0
  0
LINE
  5
713F
330
1E
100
AcDbEntity
  8
躯体と製品
  6
Continuous
 62
     3
100
AcDbLine
 10
701.9106394078261
 20
484.1374560353675
 30
0.0
 11
694.9106394078261
 21
484.1374560353675
 31
0.0
  0
ARC
  5
7140
330
1E
100
AcDbEntity
  8
躯体と製品
  6
Continuous
 62
     3
100
AcDbCircle
 10
701.9106394078261
 20
485.1374560353675
 30
0.0
 40
1.0
100
AcDbArc
 50
270.0
 51
0.0
  0
LINE
  5
7141
330
1E
100
AcDbEntity
  8
躯体と製品
  6
Continuous
 62
     3
100
AcDbLine
 10
694.9106394078261
 20
482.1374560353675
 30
0.0
 11
694.9106394078261
 21
484.1374560353675
 31
0.0
  0
LINE
  5
7142
330
1E
100
AcDbEntity
  8
躯体と製品
  6
Continuous
 62
     3
100
AcDbLine
 10
704.9106394078261
 20
569.2905623352229
 30
0.0
 11
704.9106394078261
 21
485.1374560353675
 31
0.0
  0
POINT
  5
7143
330
1E
100
AcDbEntity
  8
躯体と製品
 62
     4
100
AcDbPoint
 10
704.9106394078261
 20
572.1374560353674
 30
0.0
  0
POINT
  5
7144
330
1E
100
AcDbEntity
  8
躯体と製品
 62
     4
100
AcDbPoint
 10
704.9106394078261
 20
482.1374560353675
 30
0.0
  0
ARC
  5
7145
330
1E
100
AcDbEntity
  8
躯体と製品
  6
Continuous
 62
     3
100
AcDbCircle
 10
701.9106394078261
 20
569.2905623352229
 30
0.0
 40
1.0
100
AcDbArc
 50
0.0
 51
87.00000000000091
  0
LINE
  5
7146
330
1E
100
AcDbEntity
  8
躯体と製品
  6
Continuous
 62
     3
100
AcDbLine
 10
345.8583034515832
 20
590.9545916092224
 30
0.0
 11
702.0676472765548
 21
572.2864509394865
 31
0.0
  0
LINE
  5
7147
330
1E
100
AcDbEntity
  8
躯体と製品
  6
Continuous
 62
     3
100
AcDbLine
 10
345.7536315390973
 20
588.9573325397131
 30
0.0
 11
701.9629753640689
 21
570.2891918699773
 31
0.0
  0
LINE
  5
714A
330
1E
100
AcDbEntity
  8
躯体と製品
  6
Continuous
 62
     7
100
AcDbLine
 10
329.9106394078261
 20
555.3356842588166
 30
0.0
 11
336.3991517657527
 21
481.1716486406031
 31
0.0
  0
LINE
  5
714B
330
1E
100
AcDbEntity
  8
躯体と製品
  6
Continuous
 62
     7
100
AcDbLine
 10
330.9106394078261
 20
555.379345201725
 30
0.0
 11
337.3953464638443
 21
481.2588043833506
 31
0.0
  0
LINE
  5
714C
330
1E
100
AcDbEntity
  8
躯体と製品
  6
Continuous
 62
     7
100
AcDbLine
 10
476.9182500116428
 20
524.2310344035304
 30
0.0
 11
473.1586670384487
 21
481.258804383351
 31
0.0
  0
ARC
  5
714D
330
1E
100
AcDbEntity
  8
躯体と製品
  6
Continuous
 62
     7
100
AcDbCircle
 10
405.2770067511464
 20
487.1976801198075
 30
0.0
 40
68.14095720177224
100
AcDbArc
 50
184.9999999999998
 51
355.0000000000002
  0
LINE
  5
714E
330
1E
100
AcDbEntity
  8
躯体と製品
  6
Continuous
 62
     7
100
AcDbLine
 10
477.9144447097345
 20
524.143878660783
 30
0.0
 11
474.1548617365401
 21
481.1716486406028
 31
0.0
  0
ARC
  5
714F
330
1E
100
AcDbEntity
  8
躯体と製品
  6
Continuous
 62
     7
100
AcDbCircle
 10
405.2770067511464
 20
487.1976801198075
 30
0.0
 40
69.14095720177224
100
AcDbArc
 50
184.9999999999998
 51
355.0000000000002
  0
ARC
  5
7150
330
1E
100
AcDbEntity
  8
躯体と製品
  6
Continuous
 62
     7
100
AcDbCircle
 10
357.2218250817718
 20
594.3645440597411
 30
0.0
 40
4.0
100
AcDbArc
 50
218.2709889685076
 51
334.2602225523395
  0
LINE
  5
7151
330
1E
100
AcDbEntity
  8
躯体と製品
  6
Continuous
 62
     7
100
AcDbLine
 10
353.0904541869429
 20
593.1431618389106
 30
0.0
 11
354.0814647313437
 21
591.8870176987395
 31
0.0
  0
LINE
  5
7152
330
1E
100
AcDbEntity
  8
躯体と製品
  6
Continuous
 62
     7
100
AcDbLine
 10
353.7185262570285
 20
593.6386671111111
 30
0.0
 11
354.7095368014293
 21
592.3825229709396
 31
0.0
  0
ARC
  5
7153
330
1E
100
AcDbEntity
  8
躯体と製品
  6
Continuous
 62
     7
100
AcDbCircle
 10
353.4044902219857
 20
593.3909144750107
 30
0.0
 40
0.4
100
AcDbArc
 50
38.27098896850762
 51
218.2709889685076
  0
ARC
  5
7154
330
1E
100
AcDbEntity
  8
躯体と製品
  6
Continuous
 62
     7
100
AcDbCircle
 10
357.2218250817718
 20
594.3645440597411
 30
0.0
 40
3.2
100
AcDbArc
 50
218.2709889685076
 51
334.2602225523395
  0
LINE
  5
7155
330
1E
100
AcDbEntity
  8
躯体と製品
  6
Continuous
 62
     7
100
AcDbLine
 10
361.9106394078261
 20
594.879345201725
 30
0.0
 11
360.8249280317364
 21
592.6274058579974
 31
0.0
  0
LINE
  5
7156
330
1E
100
AcDbEntity
  8
躯体と製品
  6
Continuous
 62
     7
100
AcDbLine
 10
361.0225160196139
 20
594.879345201725
 30
0.0
 11
360.1043074417436
 21
592.9748334983462
 31
0.0
  0
LINE
  5
7157
330
1E
100
AcDbEntity
  8
躯体と製品
  6
DASHED1
 62
     7
100
AcDbLine
 10
340.518119736004
 20
584.7255385297319
 30
0.0
 11
360.9318491394337
 21
583.6557003048135
 31
0.0
  0
LINE
  5
7158
330
1E
100
AcDbEntity
  8
躯体と製品
  6
DASHED1
 62
     7
100
AcDbLine
 10
340.7536315390974
 20
589.2193714361281
 30
0.0
 11
361.1673609425269
 21
588.1495332112094
 31
0.0
  0
LINE
  5
7159
330
1E
100
AcDbEntity
  8
躯体と製品
  6
Continuous
 62
     7
100
AcDbLine
 10
361.0772347013287
 20
586.4298220837597
 30
0.0
 11
361.1673609425269
 21
588.1495332112099
 31
0.0
  0
LINE
  5
715A
330
1E
100
AcDbEntity
  8
躯体と製品
  6
Continuous
 62
     7
100
AcDbLine
 10
675.6455381490201
 20
569.9439958672323
 30
0.0
 11
675.7356643902179
 21
571.6637069946826
 31
0.0
  0
LINE
  5
715B
330
1E
100
AcDbEntity
  8
躯体と製品
  6
Continuous
 62
     7
100
AcDbLine
 10
376.0566777226474
 20
585.6447827401154
 30
0.0
 11
376.1468039638454
 21
587.3644938675656
 31
0.0
  0
LINE
  5
715C
330
1E
100
AcDbEntity
  8
躯体と製品
  6
Continuous
 62
     4
100
AcDbLine
 10
363.1096317436226
 20
586.3233086681522
 30
0.0
 11
361.2898252847841
 21
588.1431151269907
 31
0.0
  0
LINE
  5
715D
330
1E
100
AcDbEntity
  8
躯体と製品
  6
Continuous
 62
     4
100
AcDbLine
 10
364.6020601653162
 20
586.245093808832
 30
0.0
 11
362.7822537064774
 21
588.0649002676707
 31
0.0
  0
LINE
  5
715E
330
1E
100
AcDbEntity
  8
躯体と製品
  6
Continuous
 62
     4
100
AcDbLine
 10
366.0944885870096
 20
586.1668789495118
 30
0.0
 11
364.2746821281706
 21
587.9866854083511
 31
0.0
  0
LINE
  5
715F
330
1E
100
AcDbEntity
  8
躯体と製品
  6
Continuous
 62
     4
100
AcDbLine
 10
367.5869170087028
 20
586.0886640901922
 30
0.0
 11
365.7671105498633
 21
587.9084705490313
 31
0.0
  0
LINE
  5
7160
330
1E
100
AcDbEntity
  8
躯体と製品
  6
Continuous
 62
     4
100
AcDbLine
 10
369.0793454303957
 20
586.0104492308725
 30
0.0
 11
367.2595389715565
 21
587.8302556897115
 31
0.0
  0
LINE
  5
7161
330
1E
100
AcDbEntity
  8
躯体と製品
  6
Continuous
 62
     4
100
AcDbLine
 10
370.5717738520885
 20
585.9322343715527
 30
0.0
 11
368.7519673932497
 21
587.7520408303914
 31
0.0
  0
LINE
  5
7162
330
1E
100
AcDbEntity
  8
躯体と製品
  6
Continuous
 62
     4
100
AcDbLine
 10
372.0642022737819
 20
585.8540195122326
 30
0.0
 11
370.244395814943
 21
587.6738259710719
 31
0.0
  0
LINE
  5
7163
330
1E
100
AcDbEntity
  8
躯体と製品
  6
Continuous
 62
     4
100
AcDbLine
 10
373.556630695475
 20
585.7758046529132
 30
0.0
 11
371.7368242366363
 21
587.5956111117518
 31
0.0
  0
LINE
  5
7164
330
1E
100
AcDbEntity
  8
躯体と製品
  6
Continuous
 62
     4
100
AcDbLine
 10
375.0490591171662
 20
585.6975897935935
 30
0.0
 11
373.2292526583275
 21
587.517396252432
 31
0.0
  0
LINE
  5
7165
330
1E
100
AcDbEntity
  8
躯体と製品
  6
Continuous
 62
     4
100
AcDbLine
 10
376.079555013785
 20
586.0813074593481
 30
0.0
 11
374.7216810800205
 21
587.4391813931124
 31
0.0
  0
LINE
  5
7166
330
1E
100
AcDbEntity
  8
躯体と製品
  6
Continuous
 62
     7
100
AcDbLine
 10
660.6660951277013
 20
570.7290352108763
 30
0.0
 11
660.7562213688994
 21
572.4487463383269
 31
0.0
  0
LINE
  5
7167
330
1E
100
AcDbEntity
  8
躯体と製品
  6
Continuous
 62
     4
100
AcDbLine
 10
662.6984921699953
 20
570.622521795269
 30
0.0
 11
660.8786857111568
 21
572.4423282541076
 31
0.0
  0
LINE
  5
7168
330
1E
100
AcDbEntity
  8
躯体と製品
  6
Continuous
 62
     4
100
AcDbLine
 10
664.1909205916888
 20
570.5443069359487
 30
0.0
 11
662.37111413285
 21
572.3641133947878
 31
0.0
  0
LINE
  5
7169
330
1E
100
AcDbEntity
  8
躯体と製品
  6
Continuous
 62
     4
100
AcDbLine
 10
665.6833490133824
 20
570.4660920766286
 30
0.0
 11
663.8635425545431
 21
572.285898535468
 31
0.0
  0
LINE
  5
716A
330
1E
100
AcDbEntity
  8
躯体と製品
  6
Continuous
 62
     4
100
AcDbLine
 10
667.1757774350754
 20
570.3878772173091
 30
0.0
 11
665.3559709762361
 21
572.2076836761482
 31
0.0
  0
LINE
  5
716B
330
1E
100
AcDbEntity
  8
躯体と製品
  6
Continuous
 62
     4
100
AcDbLine
 10
668.6682058567684
 20
570.3096623579892
 30
0.0
 11
666.8483993979292
 21
572.1294688168284
 31
0.0
  0
LINE
  5
716C
330
1E
100
AcDbEntity
  8
躯体と製品
  6
Continuous
 62
     4
100
AcDbLine
 10
670.1606342784609
 20
570.2314474986697
 30
0.0
 11
668.3408278196224
 21
572.0512539575086
 31
0.0
  0
LINE
  5
716D
330
1E
100
AcDbEntity
  8
躯体と製品
  6
Continuous
 62
     4
100
AcDbLine
 10
671.6530627001547
 20
570.1532326393496
 30
0.0
 11
669.8332562413153
 21
571.9730390981887
 31
0.0
  0
LINE
  5
716E
330
1E
100
AcDbEntity
  8
躯体と製品
  6
Continuous
 62
     4
100
AcDbLine
 10
673.1454911218478
 20
570.07501778003
 30
0.0
 11
671.3256846630089
 21
571.8948242388687
 31
0.0
  0
LINE
  5
716F
330
1E
100
AcDbEntity
  8
躯体と製品
  6
Continuous
 62
     4
100
AcDbLine
 10
674.6379195435389
 20
569.9968029207105
 30
0.0
 11
672.8181130847
 21
571.8166093795491
 31
0.0
  0
LINE
  5
7170
330
1E
100
AcDbEntity
  8
躯体と製品
  6
Continuous
 62
     4
100
AcDbLine
 10
675.6684154401574
 20
570.3805205864648
 30
0.0
 11
674.3105415063929
 21
571.7383945202293
 31
0.0
  0
LINE
  5
7171
330
1E
100
AcDbEntity
  8
躯体と製品
  6
DASHED1
 62
     7
100
AcDbLine
 10
675.5001525871245
 20
567.169874088287
 30
0.0
 11
681.730826910826
 21
566.843338283546
 31
0.0
  0
LINE
  5
7172
330
1E
100
AcDbEntity
  8
躯体と製品
  6
DASHED1
 62
     7
100
AcDbLine
 10
675.7356643902179
 20
571.6637069946826
 30
0.0
 11
681.9663387139191
 21
571.3371711899417
 31
0.0
  0
LINE
  5
7197
330
1E
100
AcDbEntity
  8
躯体と製品
  6
Continuous
 62
     7
100
AcDbLine
 10
329.9106394078261
 20
590.379345201725
 30
0.0
 11
328.9106394078262
 21
590.379345201725
 31
0.0
  0
LINE
  5
7198
330
1E
100
AcDbEntity
  8
躯体と製品
  6
Continuous
 62
     7
100
AcDbLine
 10
329.9106394078261
 20
585.379345201725
 30
0.0
 11
328.9106394078262
 21
585.379345201725
 31
0.0
  0
ARC
  5
7199
330
1E
100
AcDbEntity
  8
躯体と製品
  6
Continuous
 62
     7
100
AcDbCircle
 10
557.9106394078263
 20
535.3067229180355
 30
0.0
 40
9.25
100
AcDbArc
 50
270.0
 51
288.9246444160514
  0
ARC
  5
719A
330
1E
100
AcDbEntity
  8
躯体と製品
  6
Continuous
 62
     7
100
AcDbCircle
 10
557.9106394078263
 20
535.3067229180355
 30
0.0
 40
10.25
100
AcDbArc
 50
270.0
 51
288.9246444160514
  0
ARC
  5
719B
330
1E
100
AcDbEntity
  8
躯体と製品
  6
Continuous
 62
     7
100
AcDbCircle
 10
563.9106394078263
 20
517.8067229180353
 30
0.0
 40
8.25
100
AcDbArc
 50
90.0
 51
108.9246444160513
  0
ARC
  5
719C
330
1E
100
AcDbEntity
  8
躯体と製品
  6
Continuous
 62
     7
100
AcDbCircle
 10
599.910639407826
 20
535.3067229180355
 30
0.0
 40
9.25
100
AcDbArc
 50
251.0753555839487
 51
270.0
  0
ARC
  5
719D
330
1E
100
AcDbEntity
  8
躯体と製品
  6
Continuous
 62
     7
100
AcDbCircle
 10
599.910639407826
 20
535.3067229180355
 30
0.0
 40
10.25
100
AcDbArc
 50
251.0753555839487
 51
270.0
  0
ARC
  5
719E
330
1E
100
AcDbEntity
  8
躯体と製品
  6
Continuous
 62
     7
100
AcDbCircle
 10
593.9106394078261
 20
517.8067229180353
 30
0.0
 40
8.25
100
AcDbArc
 50
71.07535558394868
 51
90.0
  0
ARC
  5
719F
330
1E
100
AcDbEntity
  8
躯体と製品
  6
Continuous
 62
     7
100
AcDbCircle
 10
563.9106394078263
 20
517.8067229180353
 30
0.0
 40
9.25
100
AcDbArc
 50
90.0
 51
108.9246444160513
  0
LINE
  5
71A0
330
1E
100
AcDbEntity
  8
躯体と製品
  6
Continuous
 62
     7
100
AcDbLine
 10
593.9106394078261
 20
527.0567229180353
 30
0.0
 11
563.9106394078263
 21
527.0567229180353
 31
0.0
  0
ARC
  5
71A1
330
1E
100
AcDbEntity
  8
躯体と製品
  6
Continuous
 62
     7
100
AcDbCircle
 10
593.9106394078261
 20
517.8067229180353
 30
0.0
 40
9.25
100
AcDbArc
 50
71.07535558394868
 51
90.0
  0
LINE
  5
71A2
330
1E
100
AcDbEntity
  8
躯体と製品
  6
Continuous
 62
     7
100
AcDbLine
 10
628.9219139102282
 20
526.0567229180353
 30
0.0
 11
599.910639407826
 21
526.0567229180353
 31
0.0
  0
ARC
  5
71A3
330
1E
100
AcDbEntity
  8
躯体と製品
  6
Continuous
 62
     7
100
AcDbCircle
 10
628.88332726436
 20
524.0570951849908
 30
0.0
 40
2.0
100
AcDbArc
 50
4.999999999999813
 51
88.89450543239549
  0
LINE
  5
71A4
330
1E
100
AcDbEntity
  8
図枠
  6
Continuous
 62
     4
100
AcDbLine
 10
413.4106394078259
 20
592.4211854263635
 30
0.0
 11
463.4106394078259
 21
592.4211854263635
 31
0.0
  0
LINE
  5
71A5
330
1E
100
AcDbEntity
  8
図枠
  6
Continuous
 62
     4
100
AcDbLine
 10
463.4106394078259
 20
589.8007964622113
 30
0.0
 11
463.4106394078259
 21
592.4211854263635
 31
0.0
  0
LINE
  5
71A6
330
1E
100
AcDbEntity
  8
図枠
  6
Continuous
 62
     4
100
AcDbLine
 10
413.4106394078259
 20
592.4211854263635
 30
0.0
 11
463.4106394078259
 21
589.8007964622113
 31
0.0
  0
TEXT
  5
71A7
330
1E
100
AcDbEntity
  8
図枠
 62
     7
100
AcDbText
 10
424.910639407826
 20
592.4054624617598
 30
0.0
 40
5.0
  1
勾配３度
100
AcDbText
  0
LINE
  5
71A8
330
1E
100
AcDbEntity
  8
躯体と製品
  6
CENTER1
 62
     4
100
AcDbLine
 10
331.7879167252609
 20
638.3793452017251
 30
0.0
 11
348.6559504078261
 21
638.3793452017251
 31
0.0
  0
LINE
  5
71A9
330
1E
100
AcDbEntity
  8
躯体と製品
  6
CENTER1
 62
     4
100
AcDbLine
 10
343.6106414078262
 20
587.8793452017252
 30
0.0
 11
269.9106394078261
 21
587.8793452017252
 31
0.0
  0
LINE
  5
71AA
330
1E
100
AcDbEntity
  8
躯体と製品
  6
CENTER1
 62
     4
100
AcDbLine
 10
578.9106394078262
 20
549.9802373459219
 30
0.0
 11
578.9106394078262
 21
461.0567229180354
 31
0.0
  0
LINE
  5
71AB
330
1E
100
AcDbEntity
  8
躯体と製品
  6
CENTER1
 62
     4
100
AcDbLine
 10
580.6352792695633
 20
577.8883262848366
 30
0.0
 11
578.2826079329108
 21
532.996682928867
 31
0.0
  0
LINE
  5
71AC
330
1E
100
AcDbEntity
  8
躯体と製品
  6
Continuous
 62
     7
100
AcDbLine
 10
587.9106394078262
 20
531.0567229180356
 30
0.0
 11
587.9106394078262
 21
529.5567229180353
 31
0.0
  0
LINE
  5
71AD
330
1E
100
AcDbEntity
  8
躯体と製品
  6
Continuous
 62
     7
100
AcDbLine
 10
569.9106394078261
 20
531.0567229180356
 30
0.0
 11
587.9106394078262
 21
531.0567229180356
 31
0.0
  0
LINE
  5
71AE
330
1E
100
AcDbEntity
  8
躯体と製品
  6
Continuous
 62
     7
100
AcDbLine
 10
569.9106394078261
 20
531.0567229180356
 30
0.0
 11
569.9106394078261
 21
529.5567229180353
 31
0.0
  0
ARC
  5
71AF
330
1E
100
AcDbEntity
  8
躯体と製品
  6
Continuous
 62
     7
100
AcDbCircle
 10
578.9106394078262
 20
526.4455698784795
 30
0.0
 40
9.553418012635715
100
AcDbArc
 50
72.41204622604586
 51
107.5879537739541
  0
ARC
  5
71B0
330
1E
100
AcDbEntity
  8
躯体と製品
  6
Continuous
 62
     7
100
AcDbCircle
 10
574.580512388904
 20
533.4431651426872
 30
0.0
 40
2.555822748428199
100
AcDbArc
 50
55.61575253203334
 51
124.384247467965
  0
ARC
  5
71B1
330
1E
100
AcDbEntity
  8
躯体と製品
  6
Continuous
 62
     7
100
AcDbCircle
 10
583.2407664267484
 20
533.4431651426872
 30
0.0
 40
2.555822748428199
100
AcDbArc
 50
55.61575253203493
 51
124.3842474679666
  0
LINE
  5
71B2
330
1E
100
AcDbEntity
  8
躯体と製品
  6
Continuous
 62
     7
100
AcDbLine
 10
573.13713671593
 20
535.5524059037311
 30
0.0
 11
573.13713671593
 21
531.0567229180356
 31
0.0
  0
LINE
  5
71B3
330
1E
100
AcDbEntity
  8
躯体と製品
  6
Continuous
 62
     7
100
AcDbLine
 10
574.0106394078261
 20
536.0567229180356
 30
0.0
 11
573.13713671593
 21
535.5524059037311
 31
0.0
  0
LINE
  5
71B4
330
1E
100
AcDbEntity
  8
躯体と製品
  6
Continuous
 62
     7
100
AcDbLine
 10
574.0106394078261
 20
536.0567229180356
 30
0.0
 11
583.8106394078262
 21
536.0567229180356
 31
0.0
  0
LINE
  5
71B5
330
1E
100
AcDbEntity
  8
躯体と製品
  6
Continuous
 62
     7
100
AcDbLine
 10
583.8106394078262
 20
536.0567229180356
 30
0.0
 11
584.6841420997225
 21
535.5524059037311
 31
0.0
  0
LINE
  5
71B6
330
1E
100
AcDbEntity
  8
躯体と製品
  6
Continuous
 62
     7
100
AcDbLine
 10
576.023888061878
 20
535.5524059037311
 30
0.0
 11
576.023888061878
 21
531.0567229180356
 31
0.0
  0
LINE
  5
71B7
330
1E
100
AcDbEntity
  8
躯体と製品
  6
Continuous
 62
     7
100
AcDbLine
 10
581.7973907537743
 20
535.5524059037311
 30
0.0
 11
581.7973907537743
 21
531.0567229180356
 31
0.0
  0
LINE
  5
71B8
330
1E
100
AcDbEntity
  8
躯体と製品
  6
Continuous
 62
     7
100
AcDbLine
 10
584.6841420997225
 20
535.5524059037311
 30
0.0
 11
584.6841420997225
 21
531.0567229180356
 31
0.0
  0
LINE
  5
71B9
330
1E
100
AcDbEntity
  8
躯体と製品
  6
Continuous
 62
     7
100
AcDbLine
 10
575.8706008518925
 20
536.0567229180356
 30
0.0
 11
575.4626079161938
 21
536.509844978384
 31
0.0
  0
LINE
  5
71BA
330
1E
100
AcDbEntity
  8
躯体と製品
  6
Continuous
 62
     4
100
AcDbLine
 10
576.2940622515958
 20
541.5124258984101
 30
0.0
 11
576.0081409739663
 21
536.0567229180356
 31
0.0
  0
LINE
  5
71BB
330
1E
100
AcDbEntity
  8
躯体と製品
  6
Continuous
 62
     4
100
AcDbLine
 10
581.1503976791073
 20
541.2579161432006
 30
0.0
 11
580.8778146925544
 21
536.0567229180356
 31
0.0
  0
LINE
  5
71BC
330
1E
100
AcDbEntity
  8
躯体と製品
  6
Continuous
 62
     7
100
AcDbLine
 10
581.454385124721
 20
536.1958292409262
 30
0.0
 11
581.2998919016263
 21
536.0567229180356
 31
0.0
  0
ARC
  5
71BD
330
1E
100
AcDbEntity
  8
躯体と製品
  6
Continuous
 62
     7
100
AcDbCircle
 10
334.7819304078261
 20
586.3765822017252
 30
0.0
 40
3.0
100
AcDbArc
 50
272.4589260000003
 51
321.3853619999998
  0
ARC
  5
71BE
330
1E
100
AcDbEntity
  8
躯体と製品
  6
Continuous
 62
     7
100
AcDbCircle
 10
332.9106414078261
 20
587.8793452017252
 30
0.0
 40
5.4
100
AcDbArc
 50
321.3178130000004
 51
0.0
  0
ARC
  5
71BF
330
1E
100
AcDbEntity
  8
躯体と製品
  6
Continuous
 62
     7
100
AcDbCircle
 10
332.9106414078261
 20
587.8793452017252
 30
0.0
 40
5.4
100
AcDbArc
 50
0.0
 51
38.85106200000018
  0
ARC
  5
71C0
330
1E
100
AcDbEntity
  8
躯体と製品
  6
Continuous
 62
     7
100
AcDbCircle
 10
334.7819304078261
 20
589.3821052017253
 30
0.0
 40
3.0
100
AcDbArc
 50
38.61463800000014
 51
87.54107399999965
  0
LINE
  5
71C1
330
1E
100
AcDbEntity
  8
躯体と製品
  6
Continuous
 62
     7
100
AcDbLine
 10
334.9106394078261
 20
596.879345201725
 30
0.0
 11
333.4106394078261
 21
596.879345201725
 31
0.0
  0
LINE
  5
71C2
330
1E
100
AcDbEntity
  8
躯体と製品
  6
Continuous
 62
     7
100
AcDbLine
 10
334.9106394078261
 20
596.879345201725
 30
0.0
 11
334.9106394078261
 21
578.8793452017253
 31
0.0
  0
LINE
  5
71C3
330
1E
100
AcDbEntity
  8
躯体と製品
  6
Continuous
 62
     7
100
AcDbLine
 10
334.9106394078261
 20
578.8793452017253
 30
0.0
 11
333.4106394078261
 21
578.8793452017253
 31
0.0
  0
TEXT
  5
71C4
330
1E
100
AcDbEntity
  8
図枠
 62
     7
100
AcDbText
 10
253.910639407826
 20
321.2465284359593
 30
0.0
 40
5.0
  1
止水補助板ホルダーＡＬ
100
AcDbText
  0
TEXT
  5
71C5
330
1E
100
AcDbEntity
  8
図枠
 62
     7
100
AcDbText
 10
353.9106394078261
 20
258.2465284359592
 30
0.0
 40
5.0
  1
ＦＳ500～600
100
AcDbText
  0
TEXT
  5
71C6
330
1E
100
AcDbEntity
  8
図枠
 62
     7
100
AcDbText
 10
804.9106394078265
 20
312.2465284359592
 30
0.0
 40
5.0
  1
124
100
AcDbText
  0
TEXT
  5
71C7
330
1E
100
AcDbEntity
  8
図枠
 62
     7
100
AcDbText
 10
614.8015582085913
 20
597.1124662797693
 30
0.0
 40
5.0
  1
７
100
AcDbText
  0
TEXT
  5
71C8
330
1E
100
AcDbEntity
  8
図枠
 62
     7
100
AcDbText
 10
598.5406169842906
 20
593.5907730575853
 30
0.0
 40
5.0
  1
14
100
AcDbText
  0
CIRCLE
  5
71C9
330
1E
100
AcDbEntity
  8
図枠
  6
Continuous
 62
     4
100
AcDbCircle
 10
628.8839801465858
 20
558.6549170181399
 30
0.0
 40
0.9
  0
CIRCLE
  5
71CA
330
1E
100
AcDbEntity
  8
図枠
  6
Continuous
 62
     4
100
AcDbCircle
 10
580.9650844452587
 20
560.5198926053031
 30
0.0
 40
0.9
  0
CIRCLE
  5
71CB
330
1E
100
AcDbEntity
  8
図枠
  6
Continuous
 62
     4
100
AcDbCircle
 10
576.7846284318241
 20
499.9740615198886
 30
0.0
 40
0.9
  0
CIRCLE
  5
71CC
330
1E
100
AcDbEntity
  8
図枠
  6
Continuous
 62
     4
100
AcDbCircle
 10
596.5144684362153
 20
563.2421452487342
 30
0.0
 40
0.9
  0
CIRCLE
  5
71CD
330
1E
100
AcDbEntity
  8
図枠
  6
Continuous
 62
     4
100
AcDbCircle
 10
583.2480502365215
 20
533.1572950652935
 30
0.0
 40
0.9
  0
CIRCLE
  5
71CE
330
1E
100
AcDbEntity
  8
図枠
  6
Continuous
 62
     4
100
AcDbCircle
 10
589.0881221359697
 20
540.5453378296559
 30
0.0
 40
0.9
  0
CIRCLE
  5
71CF
330
1E
100
AcDbEntity
  8
図枠
  6
Continuous
 62
     4
100
AcDbCircle
 10
645.8092952581958
 20
587.9704227255618
 30
0.0
 40
6.0
  0
TEXT
  5
71D0
330
1E
100
AcDbEntity
  8
図枠
 62
     7
100
AcDbText
 10
642.8092952581959
 20
584.9704227255617
 30
0.0
 40
5.0
  1
６
100
AcDbText
  0
LINE
  5
71D1
330
1E
100
AcDbEntity
  8
図枠
  6
Continuous
 62
     4
100
AcDbLine
 10
628.8839801465858
 20
558.6549170181399
 30
0.0
 11
642.8092952581959
 21
582.774270302855
 31
0.0
  0
CIRCLE
  5
71D2
330
1E
100
AcDbEntity
  8
図枠
  6
Continuous
 62
     4
100
AcDbCircle
 10
596.432330992005
 20
538.808059903991
 30
0.0
 40
0.9
  0
CIRCLE
  5
71D3
330
1E
100
AcDbEntity
  8
図枠
  6
Continuous
 62
     4
100
AcDbCircle
 10
624.2453852474548
 20
586.9816829881
 30
0.0
 40
6.0
  0
TEXT
  5
71D4
330
1E
100
AcDbEntity
  8
図枠
 62
     7
100
AcDbText
 10
621.2453852474549
 20
583.9816829881001
 30
0.0
 40
5.0
  1
３
100
AcDbText
  0
LINE
  5
71D5
330
1E
100
AcDbEntity
  8
図枠
  6
Continuous
 62
     4
100
AcDbLine
 10
596.432330992005
 20
538.808059903991
 30
0.0
 11
621.2453852474549
 21
581.7855305653933
 31
0.0
  0
CIRCLE
  5
71D6
330
1E
100
AcDbEntity
  8
図枠
  6
Continuous
 62
     4
100
AcDbCircle
 10
617.8015582085913
 20
600.1124662797694
 30
0.0
 40
6.0
  0
LINE
  5
71D7
330
1E
100
AcDbEntity
  8
図枠
  6
Continuous
 62
     4
100
AcDbLine
 10
596.5144684362153
 20
563.2421452487342
 30
0.0
 11
614.8015582085913
 21
594.9163138570627
 31
0.0
  0
CIRCLE
  5
71D8
330
1E
100
AcDbEntity
  8
図枠
  6
Continuous
 62
     4
100
AcDbCircle
 10
601.7906169842906
 20
596.5907730575853
 30
0.0
 40
6.0
  0
TEXT
  5
71D9
330
1E
100
AcDbEntity
  8
図枠
 62
     7
100
AcDbText
 10
600.8698082677383
 20
511.9427064278966
 30
0.0
 40
5.0
  1
８
100
AcDbText
  0
LINE
  5
71DA
330
1E
100
AcDbEntity
  8
図枠
  6
Continuous
 62
     4
100
AcDbLine
 10
580.9650844452587
 20
560.5198926053031
 30
0.0
 11
598.7906169842906
 21
591.3946206348787
 31
0.0
  0
CIRCLE
  5
71DB
330
1E
100
AcDbEntity
  8
図枠
  6
Continuous
 62
     4
100
AcDbCircle
 10
603.8698082677383
 20
514.9427064278967
 30
0.0
 40
6.0
  0
TEXT
  5
71DC
330
1E
100
AcDbEntity
  8
図枠
 62
     7
100
AcDbText
 10
555.841634022925
 20
505.3005914436093
 30
0.0
 40
5.0
  1
20
100
AcDbText
  0
LINE
  5
71DD
330
1E
100
AcDbEntity
  8
図枠
  6
Continuous
 62
     4
100
AcDbLine
 10
589.0881221359697
 20
540.5453378296559
 30
0.0
 11
600.8698082677383
 21
520.1388588506034
 31
0.0
  0
CIRCLE
  5
71DE
330
1E
100
AcDbEntity
  8
図枠
  6
Continuous
 62
     4
100
AcDbCircle
 10
602.6704359013781
 20
499.5167362895647
 30
0.0
 40
6.0
  0
TEXT
  5
71DF
330
1E
100
AcDbEntity
  8
図枠
 62
     7
100
AcDbText
 10
599.4204359013781
 20
496.5167362895646
 30
0.0
 40
5.0
  1
16
100
AcDbText
  0
LINE
  5
71E0
330
1E
100
AcDbEntity
  8
図枠
  6
Continuous
 62
     4
100
AcDbLine
 10
583.2480502365215
 20
533.1572950652935
 30
0.0
 11
599.6704359013781
 21
504.7128887122712
 31
0.0
  0
CIRCLE
  5
71E1
330
1E
100
AcDbEntity
  8
図枠
  6
Continuous
 62
     4
100
AcDbCircle
 10
563.7430142370773
 20
477.385323121876
 30
0.0
 40
6.0
  0
TEXT
  5
71E2
330
1E
100
AcDbEntity
  8
図枠
 62
     7
100
AcDbText
 10
560.4930142370773
 20
474.3853231218761
 30
0.0
 40
5.0
  1
17
100
AcDbText
  0
LINE
  5
71E3
330
1E
100
AcDbEntity
  8
図枠
  6
Continuous
 62
     4
100
AcDbLine
 10
576.7846284318241
 20
499.9740615198886
 30
0.0
 11
566.7430142370773
 21
482.5814755445827
 31
0.0
  0
CIRCLE
  5
71E4
330
1E
100
AcDbEntity
  8
図枠
  6
Continuous
 62
     4
100
AcDbCircle
 10
571.7888876548045
 20
530.2928798506127
 30
0.0
 40
0.9
  0
CIRCLE
  5
71E5
330
1E
100
AcDbEntity
  8
図枠
  6
Continuous
 62
     4
100
AcDbCircle
 10
559.0916340229252
 20
508.3005914436093
 30
0.0
 40
6.0
  0
LINE
  5
71E6
330
1E
100
AcDbEntity
  8
図枠
  6
Continuous
 62
     4
100
AcDbLine
 10
571.7888876548045
 20
530.2928798506127
 30
0.0
 11
562.091634022925
 21
513.4967438663161
 31
0.0
  0
CIRCLE
  5
71E7
330
1E
100
AcDbEntity
  8
図枠
  6
Continuous
 62
     4
100
AcDbCircle
 10
688.6642221180725
 20
554.5848695698141
 30
0.0
 40
0.9
  0
CIRCLE
  5
71E8
330
1E
100
AcDbEntity
  8
図枠
  6
Continuous
 62
     4
100
AcDbCircle
 10
716.2564765231064
 20
620.7536740097902
 30
0.0
 40
6.0
  0
LINE
  5
71E9
330
1E
100
AcDbEntity
  8
図枠
  6
Continuous
 62
     4
100
AcDbLine
 10
688.1199953797046
 20
572.0198591232144
 30
0.0
 11
713.2564765231064
 21
615.5575215870835
 31
0.0
  0
CIRCLE
  5
71EA
330
1E
100
AcDbEntity
  8
図枠
  6
Continuous
 62
     4
100
AcDbCircle
 10
688.1199953797046
 20
572.0198591232144
 30
0.0
 40
0.9
  0
TEXT
  5
71EB
330
1E
100
AcDbEntity
  8
図枠
 62
     7
100
AcDbText
 10
713.2564765231064
 20
617.7536740097901
 30
0.0
 40
5.0
  1
１
100
AcDbText
  0
CIRCLE
  5
71EC
330
1E
100
AcDbEntity
  8
図枠
  6
Continuous
 62
     4
100
AcDbCircle
 10
715.3007032614747
 20
600.7206082450366
 30
0.0
 40
6.0
  0
TEXT
  5
71ED
330
1E
100
AcDbEntity
  8
図枠
 62
     7
100
AcDbText
 10
712.3007032614749
 20
597.7206082450366
 30
0.0
 40
5.0
  1
９
100
AcDbText
  0
LINE
  5
71EE
330
1E
100
AcDbEntity
  8
図枠
  6
Continuous
 62
     4
100
AcDbLine
 10
688.6642221180725
 20
554.5848695698141
 30
0.0
 11
712.3007032614749
 21
595.52445582233
 31
0.0
  0
CIRCLE
  5
71EF
330
1E
100
AcDbEntity
  8
図枠
  6
Continuous
 62
     4
100
AcDbCircle
 10
663.9095719179509
 20
486.4351355184266
 30
0.0
 40
0.9
  0
CIRCLE
  5
71F0
330
1E
100
AcDbEntity
  8
図枠
  6
Continuous
 62
     4
100
AcDbCircle
 10
677.3670194545815
 20
463.1261526447902
 30
0.0
 40
6.0
  0
TEXT
  5
71F1
330
1E
100
AcDbEntity
  8
図枠
 62
     7
100
AcDbText
 10
674.1170194545816
 20
460.1261526447902
 30
0.0
 40
5.0
  1
11
100
AcDbText
  0
LINE
  5
71F2
330
1E
100
AcDbEntity
  8
図枠
  6
Continuous
 62
     4
100
AcDbLine
 10
663.9095719179509
 20
486.4351355184266
 30
0.0
 11
674.3670194545816
 21
468.3223050674969
 31
0.0
  0
CIRCLE
  5
71F3
330
1E
100
AcDbEntity
  8
図枠
  6
Continuous
 62
     4
100
AcDbCircle
 10
686.8717858194291
 20
507.0034118947266
 30
0.0
 40
0.9
  0
LINE
  5
71F4
330
1E
100
AcDbEntity
  8
図枠
  6
Continuous
 62
     4
100
AcDbLine
 10
686.8717858194291
 20
507.0034118947266
 30
0.0
 11
711.8397996357854
 21
550.2492803887373
 31
0.0
  0
TEXT
  5
71F5
330
1E
100
AcDbEntity
  8
図枠
 62
     7
100
AcDbText
 10
711.8397996357854
 20
552.445432811444
 30
0.0
 40
5.0
  1
５
100
AcDbText
  0
CIRCLE
  5
71F6
330
1E
100
AcDbEntity
  8
図枠
  6
Continuous
 62
     4
100
AcDbCircle
 10
714.8397996357854
 20
555.4454328114441
 30
0.0
 40
6.0
  0
CIRCLE
  5
71F7
330
1E
100
AcDbEntity
  8
図枠
  6
Continuous
 62
     4
100
AcDbCircle
 10
356.4317822870946
 20
631.1361497937353
 30
0.0
 40
0.9
  0
CIRCLE
  5
71F8
330
1E
100
AcDbEntity
  8
図枠
  6
Continuous
 62
     4
100
AcDbCircle
 10
335.8810518738305
 20
620.6167321739019
 30
0.0
 40
0.9
  0
CIRCLE
  5
71F9
330
1E
100
AcDbEntity
  8
図枠
  6
Continuous
 62
     4
100
AcDbCircle
 10
361.1283385459659
 20
612.3390379378868
 30
0.0
 40
0.9
  0
CIRCLE
  5
71FA
330
1E
100
AcDbEntity
  8
図枠
  6
Continuous
 62
     4
100
AcDbCircle
 10
360.6315336564121
 20
593.2808117288409
 30
0.0
 40
0.9
  0
CIRCLE
  5
71FB
330
1E
100
AcDbEntity
  8
図枠
  6
Continuous
 62
     4
100
AcDbCircle
 10
340.0525491812326
 20
639.1355745917938
 30
0.0
 40
0.9
  0
CIRCLE
  5
71FC
330
1E
100
AcDbEntity
  8
図枠
  6
Continuous
 62
     4
100
AcDbCircle
 10
387.5231413532422
 20
546.7031809007208
 30
0.0
 40
6.0
  0
TEXT
  5
71FD
330
1E
100
AcDbEntity
  8
図枠
 62
     7
100
AcDbText
 10
384.2731413532423
 20
543.7031809007208
 30
0.0
 40
5.0
  1
13
100
AcDbText
  0
LINE
  5
71FE
330
1E
100
AcDbEntity
  8
図枠
  6
Continuous
 62
     4
100
AcDbLine
 10
360.6315336564121
 20
593.2808117288409
 30
0.0
 11
384.5231413532422
 21
551.8993333234275
 31
0.0
  0
TEXT
  5
71FF
330
1E
100
AcDbEntity
  8
図枠
 62
     7
100
AcDbText
 10
382.3471949322428
 20
651.7203404020243
 30
0.0
 40
5.0
  1
10
100
AcDbText
  0
CIRCLE
  5
7200
330
1E
100
AcDbEntity
  8
図枠
  6
Continuous
 62
     4
100
AcDbCircle
 10
385.5971949322428
 20
654.7203404020242
 30
0.0
 40
6.0
  0
LINE
  5
7201
330
1E
100
AcDbEntity
  8
図枠
  6
Continuous
 62
     4
100
AcDbLine
 10
361.1283385459659
 20
612.3390379378868
 30
0.0
 11
382.5971949322428
 21
649.5241879793177
 31
0.0
  0
CIRCLE
  5
7202
330
1E
100
AcDbEntity
  8
図枠
  6
Continuous
 62
     4
100
AcDbCircle
 10
377.6686037919247
 20
667.9194036313722
 30
0.0
 40
6.0
  0
TEXT
  5
7203
330
1E
100
AcDbEntity
  8
図枠
 62
     7
100
AcDbText
 10
374.6686037919247
 20
664.9194036313723
 30
0.0
 40
5.0
  1
２
100
AcDbText
  0
LINE
  5
7204
330
1E
100
AcDbEntity
  8
図枠
  6
Continuous
 62
     4
100
AcDbLine
 10
356.4317822870946
 20
631.1361497937353
 30
0.0
 11
374.6686037919247
 21
662.7232512086655
 31
0.0
  0
CIRCLE
  5
7205
330
1E
100
AcDbEntity
  8
図枠
  6
Continuous
 62
     4
100
AcDbCircle
 10
317.2425329634809
 20
678.6436816024099
 30
0.0
 40
6.0
  0
TEXT
  5
7206
330
1E
100
AcDbEntity
  8
図枠
 62
     7
100
AcDbText
 10
313.9925329634809
 20
675.6436816024098
 30
0.0
 40
5.0
  1
15
100
AcDbText
  0
LINE
  5
7207
330
1E
100
AcDbEntity
  8
図枠
  6
Continuous
 62
     4
100
AcDbLine
 10
340.0525491812326
 20
639.1355745917938
 30
0.0
 11
320.2425329634809
 21
673.4475291797029
 31
0.0
  0
CIRCLE
  5
7208
330
1E
100
AcDbEntity
  8
図枠
  6
Continuous
 62
     4
100
AcDbCircle
 10
314.7619366311574
 20
657.1961127851141
 30
0.0
 40
6.0
  0
TEXT
  5
7209
330
1E
100
AcDbEntity
  8
図枠
 62
     7
100
AcDbText
 10
311.7619366311575
 20
654.196112785114
 30
0.0
 40
5.0
  1
４
100
AcDbText
  0
LINE
  5
720A
330
1E
100
AcDbEntity
  8
図枠
  6
Continuous
 62
     4
100
AcDbLine
 10
335.8810518738305
 20
620.6167321739019
 30
0.0
 11
317.7619366311575
 21
651.9999603624072
 31
0.0
  0
CIRCLE
  5
720B
330
1E
100
AcDbEntity
  8
図枠
  6
Continuous
 62
     4
100
AcDbCircle
 10
336.2736432520694
 20
589.7985796062584
 30
0.0
 40
0.9
  0
CIRCLE
  5
720C
330
1E
100
AcDbEntity
  8
図枠
  6
Continuous
 62
     4
100
AcDbCircle
 10
296.9769997649835
 20
590.7809170225266
 30
0.0
 40
0.9
  0
TEXT
  5
720D
330
1E
100
AcDbEntity
  8
図枠
 62
     7
100
AcDbText
 10
281.2288756578972
 20
609.4283029753015
 30
0.0
 40
5.0
  1
18
100
AcDbText
  0
LINE
  5
720E
330
1E
100
AcDbEntity
  8
図枠
  6
Continuous
 62
     4
100
AcDbLine
 10
296.9769997649835
 20
590.7809170225266
 30
0.0
 11
287.4788756578972
 21
607.2321505525949
 31
0.0
  0
CIRCLE
  5
720F
330
1E
100
AcDbEntity
  8
図枠
  6
Continuous
 62
     4
100
AcDbCircle
 10
284.4788756578972
 20
612.4283029753014
 30
0.0
 40
6.0
  0
CIRCLE
  5
7210
330
1E
100
AcDbEntity
  8
図枠
  6
Continuous
 62
     4
100
AcDbCircle
 10
312.545179670247
 20
613.5270431880806
 30
0.0
 40
6.0
  0
LINE
  5
7211
330
1E
100
AcDbEntity
  8
図枠
  6
Continuous
 62
     4
100
AcDbLine
 10
336.2736432520694
 20
589.7985796062584
 30
0.0
 11
316.7878203573663
 21
609.2844025009614
 31
0.0
  0
TEXT
  5
7212
330
1E
100
AcDbEntity
  8
図枠
 62
     7
100
AcDbText
 10
309.295179670247
 20
610.5270431880805
 30
0.0
 40
5.0
  1
19
100
AcDbText
  0
CIRCLE
  5
7213
330
1E
100
AcDbEntity
  8
図枠
  6
Continuous
 62
     4
100
AcDbCircle
 10
334.1944422956758
 20
581.2630169735375
 30
0.0
 40
0.9
  0
LINE
  5
7214
330
1E
100
AcDbEntity
  8
図枠
  6
Continuous
 62
     4
100
AcDbLine
 10
334.1944422956758
 20
581.2630169735375
 30
0.0
 11
318.9647922206885
 21
572.4701744030799
 31
0.0
  0
TEXT
  5
7215
330
1E
100
AcDbEntity
  8
図枠
 62
     7
100
AcDbText
 10
310.5186397979818
 20
566.4701744030799
 30
0.0
 40
5.0
  1
21
100
AcDbText
  0
CIRCLE
  5
7216
330
1E
100
AcDbEntity
  8
図枠
  6
Continuous
 62
     4
100
AcDbCircle
 10
313.7686397979818
 20
569.4701744030798
 30
0.0
 40
6.0
  0
CIRCLE
  5
7217
330
1E
100
AcDbEntity
  8
図枠
  6
Continuous
 62
     4
100
AcDbCircle
 10
345.7188463257185
 20
453.1286706435866
 30
0.0
 40
0.9
  0
LINE
  5
7218
330
1E
100
AcDbEntity
  8
図枠
  6
Continuous
 62
     4
100
AcDbLine
 10
345.7188463257185
 20
453.1286706435866
 30
0.0
 11
359.6021335121402
 21
477.175229426539
 31
0.0
  0
TEXT
  5
7219
330
1E
100
AcDbEntity
  8
図枠
 62
     7
100
AcDbText
 10
359.3521335121402
 20
479.3713818492455
 30
0.0
 40
5.0
  1
12
100
AcDbText
  0
CIRCLE
  5
721A
330
1E
100
AcDbEntity
  8
図枠
  6
Continuous
 62
     4
100
AcDbCircle
 10
362.6021335121402
 20
482.3713818492456
 30
0.0
 40
6.0
  0
LINE
  5
721B
330
1E
100
AcDbEntity
  8
躯体と製品
  6
Continuous
 62
     7
100
AcDbLine
 10
328.9106394078262
 20
646.879345201725
 30
0.0
 11
353.9106394078262
 21
646.879345201725
 31
0.0
  0
ARC
  5
721C
330
1E
100
AcDbEntity
  8
躯体と製品
  6
Continuous
 62
     7
100
AcDbCircle
 10
344.4106394078261
 20
645.8793452017252
 30
0.0
 40
1.0
100
AcDbArc
 50
90.0
 51
180.0
  0
LINE
  5
721D
330
1E
100
AcDbEntity
  8
躯体と製品
  6
Continuous
 62
     7
100
AcDbLine
 10
346.4106394078261
 20
646.879345201725
 30
0.0
 11
344.4106394078261
 21
646.879345201725
 31
0.0
  0
ARC
  5
721E
330
1E
100
AcDbEntity
  8
躯体と製品
  6
Continuous
 62
     7
100
AcDbCircle
 10
346.4106394078261
 20
645.8793452017252
 30
0.0
 40
1.0
100
AcDbArc
 50
0.0
 51
90.0
  0
LINE
  5
721F
330
1E
100
AcDbEntity
  8
躯体と製品
  6
Continuous
 62
     7
100
AcDbLine
 10
347.4106394078261
 20
632.8793452017253
 30
0.0
 11
347.4106394078261
 21
645.8793452017252
 31
0.0
  0
LINE
  5
7220
330
1E
100
AcDbEntity
  8
躯体と製品
  6
Continuous
 62
     7
100
AcDbLine
 10
343.4106394078261
 20
643.1895396838012
 30
0.0
 11
343.4106394078261
 21
645.8793452017252
 31
0.0
  0
LINE
  5
7221
330
1E
100
AcDbEntity
  8
躯体と製品
  6
Continuous
 62
     7
100
AcDbLine
 10
328.9106394078262
 20
646.879345201725
 30
0.0
 11
328.9106394078262
 21
385.0567229180354
 31
0.0
  0
TEXT
  5
7229
330
1E
100
AcDbEntity
  8
寸法
 62
     7
100
AcDbText
 10
500.9106394078261
 20
618.3326572125406
 30
0.0
 40
5.0
  1
（キャップ幅）
100
AcDbText
  0
LINE
  5
7231
330
1E
100
AcDbEntity
  8
躯体と製品
  6
Continuous
 62
     3
100
AcDbLine
 10
329.9106394078261
 20
631.879345201725
 30
0.0
 11
328.9106394078261
 21
631.879345201725
 31
0.0
  0
LINE
  5
7232
330
1E
100
AcDbEntity
  8
躯体と製品
  6
Continuous
 62
     3
100
AcDbLine
 10
329.9106394078261
 20
601.879345201725
 30
0.0
 11
329.9106394078261
 21
631.879345201725
 31
0.0
  0
LINE
  5
7233
330
1E
100
AcDbEntity
  8
躯体と製品
  6
Continuous
 62
     3
100
AcDbLine
 10
328.9106394078261
 20
601.879345201725
 30
0.0
 11
329.9106394078261
 21
601.879345201725
 31
0.0
  0
LINE
  5
7234
330
1E
100
AcDbEntity
  8
躯体と製品
  6
Continuous
 62
     3
100
AcDbLine
 10
328.9106394078261
 20
631.879345201725
 30
0.0
 11
328.9106394078261
 21
601.879345201725
 31
0.0
  0
LINE
  5
7235
330
1E
100
AcDbEntity
  8
躯体と製品
  6
Continuous
 62
     4
100
AcDbLine
 10
328.9106394078262
 20
603.2188080005148
 30
0.0
 11
329.9106394078261
 21
602.2188080005149
 31
0.0
  0
LINE
  5
7236
330
1E
100
AcDbEntity
  8
躯体と製品
  6
Continuous
 62
     4
100
AcDbLine
 10
328.9106394078264
 20
604.6330215628878
 30
0.0
 11
329.9106394078261
 21
603.6330215628882
 31
0.0
  0
LINE
  5
7237
330
1E
100
AcDbEntity
  8
躯体と製品
  6
Continuous
 62
     4
100
AcDbLine
 10
328.9106394078254
 20
606.0472351252622
 30
0.0
 11
329.9106394078257
 21
605.0472351252619
 31
0.0
  0
LINE
  5
7238
330
1E
100
AcDbEntity
  8
躯体と製品
  6
Continuous
 62
     4
100
AcDbLine
 10
328.9106394078262
 20
607.4614486876328
 30
0.0
 11
329.9106394078265
 21
606.4614486876325
 31
0.0
  0
LINE
  5
7239
330
1E
100
AcDbEntity
  8
躯体と製品
  6
Continuous
 62
     4
100
AcDbLine
 10
328.9106394078262
 20
608.8756622500061
 30
0.0
 11
329.9106394078265
 21
607.8756622500058
 31
0.0
  0
LINE
  5
723A
330
1E
100
AcDbEntity
  8
躯体と製品
  6
Continuous
 62
     4
100
AcDbLine
 10
328.9106394078264
 20
610.2898758123794
 30
0.0
 11
329.9106394078263
 21
609.2898758123795
 31
0.0
  0
LINE
  5
723B
330
1E
100
AcDbEntity
  8
躯体と製品
  6
Continuous
 62
     4
100
AcDbLine
 10
328.9106394078264
 20
611.7040893747526
 30
0.0
 11
329.9106394078263
 21
610.7040893747527
 31
0.0
  0
LINE
  5
723C
330
1E
100
AcDbEntity
  8
躯体と製品
  6
Continuous
 62
     4
100
AcDbLine
 10
328.9106394078266
 20
613.1183029371259
 30
0.0
 11
329.9106394078265
 21
612.1183029371261
 31
0.0
  0
LINE
  5
723D
330
1E
100
AcDbEntity
  8
躯体と製品
  6
Continuous
 62
     4
100
AcDbLine
 10
328.9106394078267
 20
614.532516499499
 30
0.0
 11
329.9106394078265
 21
613.532516499499
 31
0.0
  0
LINE
  5
723E
330
1E
100
AcDbEntity
  8
躯体と製品
  6
Continuous
 62
     4
100
AcDbLine
 10
328.9106394078261
 20
615.946730061873
 30
0.0
 11
329.9106394078263
 21
614.9467300618725
 31
0.0
  0
LINE
  5
723F
330
1E
100
AcDbEntity
  8
躯体と製品
  6
Continuous
 62
     4
100
AcDbLine
 10
328.9106394078258
 20
617.3609436242446
 30
0.0
 11
329.9106394078261
 21
616.3609436242444
 31
0.0
  0
LINE
  5
7240
330
1E
100
AcDbEntity
  8
躯体と製品
  6
Continuous
 62
     4
100
AcDbLine
 10
328.9106394078258
 20
618.7751571866179
 30
0.0
 11
329.9106394078263
 21
617.7751571866176
 31
0.0
  0
LINE
  5
7241
330
1E
100
AcDbEntity
  8
躯体と製品
  6
Continuous
 62
     4
100
AcDbLine
 10
328.9106394078261
 20
620.1893707489912
 30
0.0
 11
329.9106394078263
 21
619.189370748991
 31
0.0
  0
LINE
  5
7242
330
1E
100
AcDbEntity
  8
躯体と製品
  6
Continuous
 62
     4
100
AcDbLine
 10
328.9106394078258
 20
621.6035843113647
 30
0.0
 11
329.9106394078257
 21
620.6035843113651
 31
0.0
  0
LINE
  5
7243
330
1E
100
AcDbEntity
  8
躯体と製品
  6
Continuous
 62
     4
100
AcDbLine
 10
328.9106394078259
 20
623.0177978737381
 30
0.0
 11
329.9106394078257
 21
622.0177978737383
 31
0.0
  0
LINE
  5
7244
330
1E
100
AcDbEntity
  8
躯体と製品
  6
Continuous
 62
     4
100
AcDbLine
 10
328.9106394078261
 20
624.432011436111
 30
0.0
 11
329.9106394078258
 21
623.4320114361113
 31
0.0
  0
LINE
  5
7245
330
1E
100
AcDbEntity
  8
躯体と製品
  6
Continuous
 62
     4
100
AcDbLine
 10
328.9106394078262
 20
625.8462249984843
 30
0.0
 11
329.9106394078258
 21
624.8462249984847
 31
0.0
  0
LINE
  5
7246
330
1E
100
AcDbEntity
  8
躯体と製品
  6
Continuous
 62
     4
100
AcDbLine
 10
328.9106394078257
 20
627.2604385608583
 30
0.0
 11
329.9106394078258
 21
626.2604385608581
 31
0.0
  0
LINE
  5
7247
330
1E
100
AcDbEntity
  8
躯体と製品
  6
Continuous
 62
     4
100
AcDbLine
 10
328.9106394078264
 20
628.6746521232289
 30
0.0
 11
329.9106394078267
 21
627.6746521232287
 31
0.0
  0
LINE
  5
7248
330
1E
100
AcDbEntity
  8
躯体と製品
  6
Continuous
 62
     4
100
AcDbLine
 10
328.9106394078261
 20
630.0888656856027
 30
0.0
 11
329.9106394078263
 21
629.0888656856024
 31
0.0
  0
LINE
  5
7249
330
1E
100
AcDbEntity
  8
躯体と製品
  6
Continuous
 62
     4
100
AcDbLine
 10
328.9106394078262
 20
631.5030792479761
 30
0.0
 11
329.9106394078259
 21
630.5030792479762
 31
0.0
  0
LINE
  5
724A
330
1E
100
AcDbEntity
  8
躯体と製品
  6
Continuous
 62
     7
100
AcDbLine
 10
329.9106394078261
 20
631.879345201725
 30
0.0
 11
330.9106394078261
 21
631.879345201725
 31
0.0
  0
LINE
  5
724B
330
1E
100
AcDbEntity
  8
躯体と製品
  6
Continuous
 62
     7
100
AcDbLine
 10
330.9106394078261
 20
555.379345201725
 30
0.0
 11
330.9106394078261
 21
631.879345201725
 31
0.0
  0
LINE
  5
724C
330
1E
100
AcDbEntity
  8
躯体と製品
  6
Continuous
 62
     7
100
AcDbLine
 10
329.9106394078261
 20
555.3356842588166
 30
0.0
 11
329.9106394078261
 21
601.879345201725
 31
0.0
  0
LINE
  5
725A
330
1E
100
AcDbEntity
  8
躯体と製品
  6
Continuous
 62
     7
100
AcDbLine
 10
353.9106394078262
 20
716.8793452017252
 30
0.0
 11
353.9106394078262
 21
646.879345201725
 31
0.0
  0
LINE
  5
7263
330
1E
100
AcDbEntity
  8
躯体と製品
  6
Continuous
 62
     4
100
AcDbLine
 10
343.5510293616037
 20
646.390295853387
 30
0.0
 11
344.9298753818273
 21
641.1918826572087
 31
0.0
  0
LINE
  5
7264
330
1E
100
AcDbEntity
  8
躯体と製品
  6
Continuous
 62
     4
100
AcDbLine
 10
345.5418981053057
 20
638.8844843288771
 30
0.0
 11
347.2702494540485
 21
632.3683945500635
 31
0.0
  0
ARC
  5
7265
330
1E
100
AcDbEntity
  8
躯体と製品
  6
Continuous
 62
     7
100
AcDbCircle
 10
381.5356394078245
 20
639.3793452017255
 30
0.0
 40
28.62499999999828
100
AcDbArc
 50
164.8107132628163
 51
195.1892867371837
  0
LINE
  5
7266
330
1E
100
AcDbEntity
  8
躯体と製品
  6
Continuous
 62
     4
100
AcDbLine
 10
347.4106394078261
 20
645.4882989046334
 30
0.0
 11
348.8016857049178
 21
646.879345201725
 31
0.0
  0
LINE
  5
7267
330
1E
100
AcDbEntity
  8
躯体と製品
  6
Continuous
 62
     4
100
AcDbLine
 10
347.4106394078261
 20
642.6598717798867
 30
0.0
 11
351.6301128296646
 21
646.879345201725
 31
0.0
  0
LINE
  5
7268
330
1E
100
AcDbEntity
  8
躯体と製品
  6
Continuous
 62
     4
100
AcDbLine
 10
347.4106394078261
 20
639.8314446551401
 30
0.0
 11
353.7208671465547
 21
646.1416723938689
 31
0.0
  0
LINE
  5
7269
330
1E
100
AcDbEntity
  8
躯体と製品
  6
Continuous
 62
     4
100
AcDbLine
 10
347.4106394078261
 20
637.0030175303934
 30
0.0
 11
353.1034067698897
 21
642.695784892457
 31
0.0
  0
LINE
  5
726A
330
1E
100
AcDbEntity
  8
躯体と製品
  6
Continuous
 62
     4
100
AcDbLine
 10
347.4106394078261
 20
634.1745904056467
 30
0.0
 11
352.9121779750578
 21
639.6761289728783
 31
0.0
  0
LINE
  5
726B
330
1E
100
AcDbEntity
  8
躯体と製品
  6
Continuous
 62
     4
100
AcDbLine
 10
347.9438213286513
 20
631.879345201725
 30
0.0
 11
353.0139567258385
 21
636.9494805989122
 31
0.0
  0
LINE
  5
726C
330
1E
100
AcDbEntity
  8
躯体と製品
  6
Continuous
 62
     4
100
AcDbLine
 10
350.7722484533983
 20
631.8793452017255
 30
0.0
 11
353.3389515422844
 21
634.4460482906115
 31
0.0
  0
TEXT
  5
7271
330
1E
100
AcDbEntity
  8
図枠
 62
     6
100
AcDbText
 10
137.8623588783621
 20
701.9249362099639
 30
0.0
 40
9.0
  1
◇アルミ１５０タイプ（１５０ＦＹＫ－Ａ）
100
AcDbText
  0
TEXT
  5
7272
330
1E
100
AcDbEntity
  8
図枠
 62
     6
100
AcDbText
 10
135.8309579121785
 20
665.3597188186596
 30
0.0
 40
9.0
  1
　　Ｓ＝１／２
100
AcDbText
  0
TEXT
  5
7273
330
1E
100
AcDbEntity
  8
図枠
 62
     6
100
AcDbText
 10
132.7838564629031
 20
683.6423275143118
 30
0.0
 40
9.0
  1
　　屋根－壁（ストレート壁）
100
AcDbText
  0
DIMENSION
  5
727B
330
1E
100
AcDbEntity
  8
寸法
  6
Continuous
100
AcDbDimension
  2
*D4
 10
363.4106394078261
 20
686.8793452571213
 30
0.0
 11
346.6606394078261
 21
690.3793452571213
 31
0.0
 70
    32
  1
33.5
 71
     5
 42
33.5
  3
AutoCAD
100
AcDbAlignedDimension
 13
329.9106394078261
 23
633.8793452017252
 33
0.0
 14
363.4106394078261
 24
633.8793452017251
 34
0.0
100
AcDbRotatedDimension
  0
DIMENSION
  5
7288
330
1E
100
AcDbEntity
  8
寸法
  6
Continuous
100
AcDbDimension
  2
*D5
 10
363.4106394078261
 20
671.8793452017251
 30
0.0
 11
353.4106394078261
 21
675.3793452017252
 31
0.0
 70
    32
 71
     5
 42
20.0
  3
AutoCAD
100
AcDbAlignedDimension
 13
343.4106394078261
 23
648.8793452017252
 33
0.0
 14
363.4106394078261
 24
633.8793452017251
 34
0.0
100
AcDbRotatedDimension
  0
DIMENSION
  5
7295
330
1E
100
AcDbEntity
  8
寸法
  6
Continuous
100
AcDbDimension
  2
*D6
 10
398.4106394078261
 20
631.879345201725
 30
0.0
 11
394.9106394078261
 21
639.3793452017251
 31
0.0
 70
    32
 71
     5
 42
15.0
  3
AutoCAD
100
AcDbAlignedDimension
 13
355.9106394078262
 23
646.879345201725
 33
0.0
 14
365.4106394078261
 24
631.879345201725
 34
0.0
 50
90.0
100
AcDbRotatedDimension
  0
DIMENSION
  5
72A2
330
1E
100
AcDbEntity
  8
寸法
  6
Continuous
100
AcDbDimension
  2
*D7
 10
704.9106394078261
 20
624.8793452017253
 30
0.0
 11
524.910639407826
 21
628.3793452017253
 31
0.0
 70
    32
  1
A
 71
     5
 42
360.0
  3
AutoCAD
100
AcDbAlignedDimension
 13
344.9106394078261
 23
605.0042565772621
 33
0.0
 14
704.9106394078261
 24
574.1374560353674
 34
0.0
100
AcDbRotatedDimension
  0
DIMENSION
  5
72BC
330
1E
100
AcDbEntity
  8
寸法
  6
Continuous
100
AcDbDimension
  2
*D8
 10
329.9106394078261
 20
701.8793452017251
 30
0.0
 11
517.5065679062753
 21
705.3793452017251
 31
0.0
 70
    32
  1
W
 71
     5
 42
375.1918569968985
  3
AutoCAD
100
AcDbAlignedDimension
 13
705.1024964047245
 23
625.0396289898672
 33
0.0
 14
329.9106394078261
 24
633.8793452017252
 34
0.0
100
AcDbRotatedDimension
  0
DIMENSION
  5
72C9
330
1E
100
AcDbEntity
  8
寸法
  6
Continuous
100
AcDbDimension
  2
*D9
 10
253.9106394078261
 20
525.0567229180356
 30
0.0
 11
250.4106394078261
 21
585.9680340598804
 31
0.0
 70
    32
  1
E
 71
     5
 42
121.8226222836895
  3
AutoCAD
100
AcDbAlignedDimension
 13
326.9106394078262
 23
646.879345201725
 33
0.0
 14
475.1785886002573
 24
525.0567229180355
 34
0.0
 50
90.0
100
AcDbRotatedDimension
  0
DIMENSION
  5
72D6
330
1E
100
AcDbEntity
  8
寸法
  6
Continuous
100
AcDbDimension
  2
*D10
 10
273.9106394078261
 20
525.0567229180356
 30
0.0
 11
270.4106394078261
 21
556.4680340598807
 31
0.0
 70
    32
  1
D
 71
     5
 42
62.82262228368961
  3
AutoCAD
100
AcDbAlignedDimension
 13
273.9106394078261
 23
587.8793452017252
 33
0.0
 14
273.9106394078261
 24
525.0567229180356
 34
0.0
 50
90.0
100
AcDbRotatedDimension
  0
DIMENSION
  5
72E1
330
1E
100
AcDbEntity
  8
寸法
  6
Continuous
100
AcDbDimension
  2
*D11
 10
628.910639407826
 20
465.0567229180352
 30
0.0
 11
603.9106394078262
 21
468.5567229180352
 31
0.0
 70
    32
 71
     5
 42
49.99999999999989
  3
AutoCAD
100
AcDbAlignedDimension
 13
578.9106394078262
 23
465.0567229180352
 33
0.0
 14
628.910639407826
 24
465.0567229180352
 34
0.0
100
AcDbRotatedDimension
  0
DIMENSION
  5
72EC
330
1E
100
AcDbEntity
  8
寸法
  6
Continuous
100
AcDbDimension
  2
*D12
 10
744.9106394078261
 20
482.1374560353673
 30
0.0
 11
741.410639407826
 21
503.5970894767015
 31
0.0
 70
    32
  1
44
 71
     5
 42
42.91926688266818
  3
AutoCAD
100
AcDbAlignedDimension
 13
632.615592947022
 23
525.0567229180355
 33
0.0
 14
706.9106394078261
 24
482.1374560353673
 34
0.0
 50
90.0
100
AcDbRotatedDimension
  0
DIMENSION
  5
72F9
330
1E
100
AcDbEntity
  8
寸法
  6
Continuous
100
AcDbDimension
  2
*D13
 10
764.9106394078261
 20
572.1374560353674
 30
0.0
 11
761.410639407826
 21
527.106340981496
 31
0.0
 70
    32
 71
     5
 42
90.06223010774295
  3
AutoCAD
100
AcDbAlignedDimension
 13
745.1527703923991
 23
482.0752259276244
 33
0.0
 14
706.9106394078261
 24
572.1374560353674
 34
0.0
 50
90.0
100
AcDbRotatedDimension
  0
DIMENSION
  5
731F
330
1E
100
AcDbEntity
  8
寸法
  6
Continuous
100
AcDbDimension
  2
*D14
 10
628.9106394078264
 20
400.0567229180353
 30
0.0
 11
666.9106394078262
 21
403.5567229180353
 31
0.0
 70
    32
  1
75≦
 71
     5
 42
75.99999999999965
  3
AutoCAD
100
AcDbAlignedDimension
 13
704.9106394078261
 23
480.1374560353675
 33
0.0
 14
628.9106394078264
 24
400.0567229180353
 34
0.0
100
AcDbRotatedDimension
  0
DIMENSION
  5
732B
330
1E
100
AcDbEntity
  8
寸法
  6
Continuous
100
AcDbDimension
  2
*D15
 10
478.9106394078263
 20
400.0567229180353
 30
0.0
 11
553.9992342350237
 21
403.5567229180353
 31
0.0
 70
    32
  1
≦C
 71
     5
 42
150.1771896543947
  3
AutoCAD
100
AcDbAlignedDimension
 13
629.087829062221
 23
400.2330856872795
 33
0.0
 14
478.9106394078263
 24
400.0567229180353
 34
0.0
100
AcDbRotatedDimension
  0
DIMENSION
  5
7337
330
1E
100
AcDbEntity
  8
寸法
  6
Continuous
100
AcDbDimension
  2
*D16
 10
328.9106394078262
 20
400.0567229180353
 30
0.0
 11
404.0313713668901
 21
403.5567229180353
 31
0.0
 70
    32
 71
     5
 42
150.2414639181278
  3
AutoCAD
100
AcDbAlignedDimension
 13
479.152103325954
 23
400.1214930982297
 33
0.0
 14
328.9106394078262
 24
400.0567229180353
 34
0.0
100
AcDbRotatedDimension
  0
DIMENSION
  5
7343
330
1E
100
AcDbEntity
  8
寸法
  6
Continuous
100
AcDbDimension
  2
*D17
 10
398.1606394078261
 20
631.879345201725
 30
0.0
 11
394.6606394078261
 21
613.8793452017253
 31
0.0
 70
    32
 71
     5
 42
35.99999999999977
  3
AutoCAD
100
AcDbAlignedDimension
 13
365.4106394078261
 23
595.8793452017252
 33
0.0
 14
365.4106394078261
 24
631.879345201725
 34
0.0
 50
90.0
100
AcDbRotatedDimension
  0
ENDSEC
  0
SECTION
  2
OBJECTS
  0
DICTIONARY
  5
C
330
0
100
AcDbDictionary
281
     1
  3
ACAD_COLOR
350
6779
  3
ACAD_GROUP
350
D
  3
ACAD_LAYOUT
350
19
  3
ACAD_MATERIAL
350
6778
  3
ACAD_MLINESTYLE
350
16
  3
ACAD_PLOTSETTINGS
350
18
  3
ACAD_PLOTSTYLENAME
350
E
  3
ACAD_TABLESTYLE
350
677A
  3
ACDBHEADERROUNDTRIPXREC
350
73A5
  3
AcDbVariableDictionary
350
169
  0
DICTIONARY
  5
175
330
2
100
AcDbDictionary
280
     1
281
     1
  3
ACAD_LAYERFILTERS
360
727A
  3
ACAD_LAYERSTATES
360
176
  3
ACLYDICTIONARY
360
7279
  0
DICTIONARY
  5
28B
330
1E
100
AcDbDictionary
280
     1
281
     1
  3
ACAD_LAYOUTSELFREF
360
6771
  0
DICTIONARY
  5
28D
330
1A
100
AcDbDictionary
280
     1
281
     1
  3
ACAD_LAYOUTSELFREF
360
6770
  0
DICTIONARY
  5
6779
102
{ACAD_REACTORS
330
C
102
}
330
C
100
AcDbDictionary
281
     1
  0
DICTIONARY
  5
D
102
{ACAD_REACTORS
330
C
102
}
330
C
100
AcDbDictionary
281
     1
  0
DICTIONARY
  5
19
102
{ACAD_REACTORS
330
C
102
}
330
C
100
AcDbDictionary
281
     1
  3
Model
350
21
  3
ﾚｲｱｳﾄ1
350
1D
  0
DICTIONARY
  5
6778
102
{ACAD_REACTORS
330
C
102
}
330
C
100
AcDbDictionary
281
     1
  0
DICTIONARY
  5
16
102
{ACAD_REACTORS
330
C
102
}
330
C
100
AcDbDictionary
281
     1
  3
Standard
350
17
  0
DICTIONARY
  5
18
102
{ACAD_REACTORS
330
C
102
}
330
C
100
AcDbDictionary
281
     1
  0
ACDBDICTIONARYWDFLT
  5
E
102
{ACAD_REACTORS
330
C
102
}
330
C
100
AcDbDictionary
281
     1
  3
Normal
350
F
100
AcDbDictionaryWithDefault
340
F
1001
ACAD
1000
TREAT_AS_HARD
1070
     0
1000
TREAT_AS_HARD
1070
     0
1000
TREAT_AS_HARD
1070
     0
1000
TREAT_AS_HARD
1070
     0
1000
TREAT_AS_HARD
1070
     0
1000
TREAT_AS_HARD
1070
     0
1000
TREAT_AS_HARD
1070
     0
1000
TREAT_AS_HARD
1070
     0
1000
TREAT_AS_HARD
1070
     0
1000
TREAT_AS_HARD
1070
     0
1000
TREAT_AS_HARD
1070
     0
1000
TREAT_AS_HARD
1070
     0
1000
TREAT_AS_HARD
1070
     0
1000
TREAT_AS_HARD
1070
     0
1000
TREAT_AS_HARD
1070
     0
1000
TREAT_AS_HARD
1070
     0
1000
TREAT_AS_HARD
1070
     0
1000
TREAT_AS_HARD
1070
     0
1000
TREAT_AS_HARD
1070
     0
1000
TREAT_AS_HARD
1070
     0
1000
TREAT_AS_HARD
1070
     0
1000
TREAT_AS_HARD
1070
     0
1000
TREAT_AS_HARD
1070
     0
1000
TREAT_AS_HARD
1070
     0
1000
TREAT_AS_HARD
1070
     0
1000
TREAT_AS_HARD
1070
     0
  0
DICTIONARY
  5
677A
102
{ACAD_REACTORS
330
C
102
}
330
C
100
AcDbDictionary
281
     1
  3
Standard
350
677B
  0
DICTIONARY
  5
73A5
102
{ACAD_REACTORS
330
C
102
}
330
C
100
AcDbDictionary
281
     1
  0
DICTIONARY
  5
169
102
{ACAD_REACTORS
330
C
102
}
330
C
100
AcDbDictionary
281
     1
  3
CTABLESTYLE
350
6782
  3
DIMASSOC
350
16A
  3
PROJECTNAME
350
73A3
  0
DICTIONARY
  5
727A
102
{ACAD_REACTORS
330
175
102
}
330
175
100
AcDbDictionary
281
     1
  0
DICTIONARY
  5
176
102
{ACAD_REACTORS
330
175
102
}
330
175
100
AcDbDictionary
281
     1
  3
ACAD
350
177
  0
DICTIONARY
  5
7279
102
{ACAD_REACTORS
330
175
102
}
330
175
100
AcDbDictionary
281
     1
1001
ACAD
1000
<All
  0
XRECORD
  5
6771
102
{ACAD_REACTORS
330
28B
102
}
330
28B
100
AcDbXrecord
280
     1
340
1E
  0
XRECORD
  5
6770
102
{ACAD_REACTORS
330
28D
102
}
330
28D
100
AcDbXrecord
280
     1
340
1A
  0
LAYOUT
  5
21
102
{ACAD_XDICTIONARY
360
73A8
102
}
102
{ACAD_REACTORS
330
19
102
}
330
19
100
AcDbPlotSettings
  1

  2
\\MEISEI-1\EPSON Stylus Photo EX3
  4

  6

 40
0.0
 41
0.0
 42
0.0
 43
0.0
 44
0.0
 45
0.0
 46
0.0
 47
0.0
 48
0.0
 49
0.0
140
0.0
141
0.0
142
1.0
143
1.0
 70
  1712
 72
     0
 73
     0
 74
     0
  7

 75
     0
147
1.0
148
0.0
149
0.0
100
AcDbLayout
  1
Model
 70
     1
 71
     0
 10
0.0
 20
0.0
 11
12.0
 21
9.0
 12
0.0
 22
0.0
 32
0.0
 14
0.0
 24
0.0
 34
0.0
 15
0.0
 25
0.0
 35
0.0
146
0.0
 13
0.0
 23
0.0
 33
0.0
 16
1.0
 26
0.0
 36
0.0
 17
0.0
 27
1.0
 37
0.0
 76
     0
330
1E
  0
LAYOUT
  5
1D
102
{ACAD_XDICTIONARY
360
73A6
102
}
102
{ACAD_REACTORS
330
19
102
}
330
19
100
AcDbPlotSettings
  1

  2
\\MEISEI-1\EPSON Stylus Photo EX3
  4

  6

 40
0.0
 41
0.0
 42
0.0
 43
0.0
 44
0.0
 45
0.0
 46
0.0
 47
0.0
 48
0.0
 49
0.0
140
0.0
141
0.0
142
1.0
143
1.0
 70
   688
 72
     0
 73
     0
 74
     5
  7

 75
    16
147
1.0
148
0.0
149
0.0
100
AcDbLayout
  1
ﾚｲｱｳﾄ1
 70
     1
 71
     1
 10
0.0
 20
0.0
 11
12.0
 21
9.0
 12
0.0
 22
0.0
 32
0.0
 14
1.000000000000000E+20
 24
1.000000000000000E+20
 34
1.000000000000000E+20
 15
-1.000000000000000E+20
 25
-1.000000000000000E+20
 35
-1.000000000000000E+20
146
0.0
 13
0.0
 23
0.0
 33
0.0
 16
1.0
 26
0.0
 36
0.0
 17
0.0
 27
1.0
 37
0.0
 76
     0
330
1A
  0
MLINESTYLE
  5
17
102
{ACAD_REACTORS
330
16
102
}
330
16
100
AcDbMlineStyle
  2
STANDARD
 70
     0
  3

 62
   256
 51
90.0
 52
90.0
 71
     2
 49
0.5
 62
   256
  6
BYLAYER
 49
-0.5
 62
   256
  6
BYLAYER
  0
ACDBPLACEHOLDER
  5
F
102
{ACAD_REACTORS
330
E
102
}
330
E
  0
TABLESTYLE
  5
677B
102
{ACAD_REACTORS
330
677A
102
}
330
677A
100
AcDbTableStyle
  3
Standard
 70
     0
 71
     0
 40
0.06
 41
0.06
280
     0
281
     0
  7
STANDARD
140
0.18
170
     2
 62
     0
 63
     7
283
     0
274
    -2
284
     1
 64
     0
275
    -2
285
     1
 65
     0
276
    -2
286
     1
 66
     0
277
    -2
287
     1
 67
     0
278
    -2
288
     1
 68
     0
279
    -2
289
     1
 69
     0
  7
STANDARD
140
0.25
170
     5
 62
     0
 63
     7
283
     0
274
    -2
284
     1
 64
     0
275
    -2
285
     1
 65
     0
276
    -2
286
     1
 66
     0
277
    -2
287
     1
 67
     0
278
    -2
288
     1
 68
     0
279
    -2
289
     1
 69
     0
  7
STANDARD
140
0.18
170
     5
 62
     0
 63
     7
283
     0
274
    -2
284
     1
 64
     0
275
    -2
285
     1
 65
     0
276
    -2
286
     1
 66
     0
277
    -2
287
     1
 67
     0
278
    -2
288
     1
 68
     0
279
    -2
289
     1
 69
     0
  0
DICTIONARYVAR
  5
6782
102
{ACAD_REACTORS
330
169
102
}
330
169
100
DictionaryVariables
280
     0
  1
STANDARD
  0
DICTIONARYVAR
  5
16A
102
{ACAD_REACTORS
330
169
102
}
330
169
100
DictionaryVariables
280
     0
  1
1
  0
DICTIONARYVAR
  5
73A3
102
{ACAD_REACTORS
330
169
102
}
330
169
100
DictionaryVariables
280
     0
  1

  0
XRECORD
  5
177
102
{ACAD_REACTORS
330
176
102
}
330
176
100
AcDbXrecord
280
     1
 91
      476
330
179
 90
        8
 62
     7
370
    -3
331
15
  1
Color_7
330
178
 90
        8
 62
     7
370
    -3
331
15
  1
Color_7
330
128
 90
        0
 62
     7
370
    -3
331
15
  1
Color_7
330
10
 90
        8
 62
     7
370
    -3
331
15
  1
Color_7
  0
DICTIONARY
  5
73A8
330
21
100
AcDbDictionary
280
     1
281
     1
  3
ACAD_XREC_ROUNDTRIP
360
73A9
  0
DICTIONARY
  5
73A6
330
1D
100
AcDbDictionary
280
     1
281
     1
  3
ACAD_XREC_ROUNDTRIP
360
73A7
  0
XRECORD
  5
73A9
102
{ACAD_REACTORS
330
73A8
102
}
330
73A8
100
AcDbXrecord
280
     1
102
SHADEPLOT
 70
     0
102
SHADEPLOTRESLEVEL
 70
     2
102
SHADEPLOTCUSTOMDPI
 70
   300
  0
XRECORD
  5
73A7
102
{ACAD_REACTORS
330
73A6
102
}
330
73A6
100
AcDbXrecord
280
     1
102
SHADEPLOT
 70
     0
102
SHADEPLOTRESLEVEL
 70
     2
102
SHADEPLOTCUSTOMDPI
 70
   300
  0
ENDSEC
  0
EOF
