  0
SECTION
  2
HEADER
  9
$ACADVER
  1
AC1015
  9
$ACADMAINTVER
 70
    20
  9
$DWGCODEPAGE
  3
ANSI_932
  9
$INSBASE
 10
0.0
 20
0.0
 30
0.0
  9
$EXTMIN
 10
1278.494453369939
 20
616.3224379169223
 30
-0.0000000349181948
  9
$EXTMAX
 10
2102.739642181485
 20
1192.470103069242
 30
0.0000000814935746
  9
$LIMMIN
 10
0.0
 20
0.0
  9
$LIMMAX
 10
420.0
 20
297.0
  9
$ORTHOMODE
 70
     0
  9
$REGENMODE
 70
     1
  9
$FILLMODE
 70
     1
  9
$QTEXTMODE
 70
     0
  9
$MIRRTEXT
 70
     1
  9
$LTSCALE
 40
1.0
  9
$ATTMODE
 70
     1
  9
$TEXTSIZE
 40
5.0
  9
$TRACEWID
 40
0.05
  9
$TEXTSTYLE
  7
ACAD
  9
$CLAYER
  8
0
  9
$CELTYPE
  6
CONTINUOUS
  9
$CECOLOR
 62
   256
  9
$CELTSCALE
 40
1.0
  9
$DISPSILH
 70
     0
  9
$DIMSCALE
 40
1.0
  9
$DIMASZ
 40
1.0
  9
$DIMEXO
 40
0.0
  9
$DIMDLI
 40
0.38
  9
$DIMRND
 40
0.0
  9
$DIMDLE
 40
0.0
  9
$DIMEXE
 40
0.0
  9
$DIMTP
 40
0.0
  9
$DIMTM
 40
0.0
  9
$DIMTXT
 40
5.0
  9
$DIMCEN
 40
0.09
  9
$DIMTSZ
 40
0.0
  9
$DIMTOL
 70
     0
  9
$DIMLIM
 70
     0
  9
$DIMTIH
 70
     0
  9
$DIMTOH
 70
     1
  9
$DIMSE1
 70
     0
  9
$DIMSE2
 70
     0
  9
$DIMTAD
 70
     1
  9
$DIMZIN
 70
     0
  9
$DIMBLK
  1
Dot
  9
$DIMASO
 70
     1
  9
$DIMSHO
 70
     1
  9
$DIMPOST
  1

  9
$DIMAPOST
  1

  9
$DIMALT
 70
     0
  9
$DIMALTD
 70
     2
  9
$DIMALTF
 40
25.4
  9
$DIMLFAC
 40
1.0
  9
$DIMTOFL
 70
     0
  9
$DIMTVP
 40
0.0
  9
$DIMTIX
 70
     1
  9
$DIMSOXD
 70
     0
  9
$DIMSAH
 70
     0
  9
$DIMBLK1
  1

  9
$DIMBLK2
  1

  9
$DIMSTYLE
  2
AutoCAD
  9
$DIMCLRD
 70
     4
  9
$DIMCLRE
 70
     4
  9
$DIMCLRT
 70
     3
  9
$DIMTFAC
 40
1.0
  9
$DIMGAP
 40
1.0
  9
$DIMJUST
 70
     0
  9
$DIMSD1
 70
     0
  9
$DIMSD2
 70
     0
  9
$DIMTOLJ
 70
     1
  9
$DIMTZIN
 70
     0
  9
$DIMALTZ
 70
     0
  9
$DIMALTTZ
 70
     0
  9
$DIMUPT
 70
     0
  9
$DIMDEC
 70
     0
  9
$DIMTDEC
 70
     0
  9
$DIMALTU
 70
     2
  9
$DIMALTTD
 70
     2
  9
$DIMTXSTY
  7
ACAD
  9
$DIMAUNIT
 70
     0
  9
$DIMADEC
 70
     0
  9
$DIMALTRND
 40
0.0
  9
$DIMAZIN
 70
     0
  9
$DIMDSEP
 70
    46
  9
$DIMATFIT
 70
     0
  9
$DIMFRAC
 70
     0
  9
$DIMLDRBLK
  1
None
  9
$DIMLUNIT
 70
     2
  9
$DIMLWD
 70
    -2
  9
$DIMLWE
 70
    -2
  9
$DIMTMOVE
 70
     0
  9
$LUNITS
 70
     2
  9
$LUPREC
 70
     4
  9
$SKETCHINC
 40
0.1
  9
$FILLETRAD
 40
0.0
  9
$AUNITS
 70
     0
  9
$AUPREC
 70
     0
  9
$MENU
  1
.
  9
$ELEVATION
 40
0.0
  9
$PELEVATION
 40
0.0
  9
$THICKNESS
 40
0.0
  9
$LIMCHECK
 70
     0
  9
$CHAMFERA
 40
0.0
  9
$CHAMFERB
 40
0.0
  9
$CHAMFERC
 40
0.0
  9
$CHAMFERD
 40
0.0
  9
$SKPOLY
 70
     0
  9
$TDCREATE
 40
2454316.693457674
  9
$TDUCREATE
 40
2454316.318457674
  9
$TDUPDATE
 40
2454736.762592847
  9
$TDUUPDATE
 40
2454736.387592847
  9
$TDINDWG
 40
0.2493943171
  9
$TDUSRTIMER
 40
0.2493943171
  9
$USRTIMER
 70
     1
  9
$ANGBASE
 50
0.0
  9
$ANGDIR
 70
     0
  9
$PDMODE
 70
     0
  9
$PDSIZE
 40
0.0
  9
$PLINEWID
 40
0.0
  9
$SPLFRAME
 70
     0
  9
$SPLINETYPE
 70
     6
  9
$SPLINESEGS
 70
     8
  9
$HANDSEED
  5
739B
  9
$SURFTAB1
 70
     6
  9
$SURFTAB2
 70
     6
  9
$SURFTYPE
 70
     6
  9
$SURFU
 70
     6
  9
$SURFV
 70
     6
  9
$UCSBASE
  2

  9
$UCSNAME
  2

  9
$UCSORG
 10
0.0
 20
0.0
 30
0.0
  9
$UCSXDIR
 10
1.0
 20
0.0
 30
0.0
  9
$UCSYDIR
 10
0.0
 20
1.0
 30
0.0
  9
$UCSORTHOREF
  2

  9
$UCSORTHOVIEW
 70
     0
  9
$UCSORGTOP
 10
0.0
 20
0.0
 30
0.0
  9
$UCSORGBOTTOM
 10
0.0
 20
0.0
 30
0.0
  9
$UCSORGLEFT
 10
0.0
 20
0.0
 30
0.0
  9
$UCSORGRIGHT
 10
0.0
 20
0.0
 30
0.0
  9
$UCSORGFRONT
 10
0.0
 20
0.0
 30
0.0
  9
$UCSORGBACK
 10
0.0
 20
0.0
 30
0.0
  9
$PUCSBASE
  2

  9
$PUCSNAME
  2

  9
$PUCSORG
 10
0.0
 20
0.0
 30
0.0
  9
$PUCSXDIR
 10
1.0
 20
0.0
 30
0.0
  9
$PUCSYDIR
 10
0.0
 20
1.0
 30
0.0
  9
$PUCSORTHOREF
  2

  9
$PUCSORTHOVIEW
 70
     0
  9
$PUCSORGTOP
 10
0.0
 20
0.0
 30
0.0
  9
$PUCSORGBOTTOM
 10
0.0
 20
0.0
 30
0.0
  9
$PUCSORGLEFT
 10
0.0
 20
0.0
 30
0.0
  9
$PUCSORGRIGHT
 10
0.0
 20
0.0
 30
0.0
  9
$PUCSORGFRONT
 10
0.0
 20
0.0
 30
0.0
  9
$PUCSORGBACK
 10
0.0
 20
0.0
 30
0.0
  9
$USERI1
 70
     0
  9
$USERI2
 70
     0
  9
$USERI3
 70
     0
  9
$USERI4
 70
     0
  9
$USERI5
 70
     0
  9
$USERR1
 40
0.0
  9
$USERR2
 40
0.0
  9
$USERR3
 40
0.0
  9
$USERR4
 40
0.0
  9
$USERR5
 40
0.0
  9
$WORLDVIEW
 70
     1
  9
$SHADEDGE
 70
     3
  9
$SHADEDIF
 70
    70
  9
$TILEMODE
 70
     1
  9
$MAXACTVP
 70
    48
  9
$PINSBASE
 10
0.0
 20
0.0
 30
0.0
  9
$PLIMCHECK
 70
     0
  9
$PEXTMIN
 10
1.000000000000000E+20
 20
1.000000000000000E+20
 30
1.000000000000000E+20
  9
$PEXTMAX
 10
-1.000000000000000E+20
 20
-1.000000000000000E+20
 30
-1.000000000000000E+20
  9
$PLIMMIN
 10
0.0
 20
0.0
  9
$PLIMMAX
 10
12.0
 20
9.0
  9
$UNITMODE
 70
     0
  9
$VISRETAIN
 70
     0
  9
$PLINEGEN
 70
     0
  9
$PSLTSCALE
 70
     1
  9
$TREEDEPTH
 70
  3020
  9
$CMLSTYLE
  2
Standard
  9
$CMLJUST
 70
     0
  9
$CMLSCALE
 40
1.0
  9
$PROXYGRAPHICS
 70
     1
  9
$MEASUREMENT
 70
     0
  9
$CELWEIGHT
370
    -1
  9
$ENDCAPS
280
     0
  9
$JOINSTYLE
280
     0
  9
$LWDISPLAY
290
     0
  9
$INSUNITS
 70
     0
  9
$HYPERLINKBASE
  1

  9
$STYLESHEET
  1

  9
$XEDIT
290
     1
  9
$CEPSNTYPE
380
     0
  9
$PSTYLEMODE
290
     1
  9
$FINGERPRINTGUID
  2
{CC7D6DEE-A9F1-4F3E-AC95-C84B62CCA3FD}
  9
$VERSIONGUID
  2
{37D6B17F-29BC-4081-8B98-AE73706818FB}
  9
$EXTNAMES
290
     1
  9
$PSVPSCALE
 40
0.0
  9
$OLESTARTUP
290
     0
  0
ENDSEC
  0
SECTION
  2
CLASSES
  0
CLASS
  1
ACDBDICTIONARYWDFLT
  2
AcDbDictionaryWithDefault
  3
ObjectDBX Classes
 90
        0
280
     0
281
     0
  0
CLASS
  1
ACDBPLACEHOLDER
  2
AcDbPlaceHolder
  3
ObjectDBX Classes
 90
        0
280
     0
281
     0
  0
CLASS
  1
LAYOUT
  2
AcDbLayout
  3
ObjectDBX Classes
 90
        0
280
     0
281
     0
  0
CLASS
  1
DICTIONARYVAR
  2
AcDbDictionaryVar
  3
ObjectDBX Classes
 90
        0
280
     0
281
     0
  0
CLASS
  1
TABLESTYLE
  2
AcDbTableStyle
  3
ObjectDBX Classes
 90
     2047
280
     0
281
     0
  0
ENDSEC
  0
SECTION
  2
TABLES
  0
TABLE
  2
VPORT
  5
8
330
0
100
AcDbSymbolTable
 70
     2
  0
VPORT
  5
7395
330
8
100
AcDbSymbolTableRecord
100
AcDbViewportTableRecord
  2
*Active
 70
     0
 10
0.0
 20
0.0
 11
1.0
 21
1.0
 12
1705.386221650612
 22
914.4402357415946
 13
0.0
 23
0.0
 14
1.0
 24
1.0
 15
0.0
 25
0.0
 16
0.0
 26
0.0
 36
1.0
 17
0.0
 27
0.0
 37
0.0
 40
651.4314669788736
 41
1.538265306122448
 42
50.0
 43
0.0
 44
0.0
 50
0.0
 51
0.0
 71
     0
 72
   100
 73
     1
 74
     1
 75
     0
 76
     0
 77
     0
 78
     0
281
     0
 65
     1
110
0.0
120
0.0
130
0.0
111
1.0
121
0.0
131
0.0
112
0.0
122
1.0
132
0.0
 79
     0
146
0.0
  0
ENDTAB
  0
TABLE
  2
LTYPE
  5
5
330
0
100
AcDbSymbolTable
 70
    50
  0
LTYPE
  5
13
330
5
100
AcDbSymbolTableRecord
100
AcDbLinetypeTableRecord
  2
ByBlock
 70
     0
  3

 72
    65
 73
     0
 40
0.0
  0
LTYPE
  5
14
330
5
100
AcDbSymbolTableRecord
100
AcDbLinetypeTableRecord
  2
ByLayer
 70
     0
  3

 72
    65
 73
     0
 40
0.0
  0
LTYPE
  5
15
330
5
100
AcDbSymbolTableRecord
100
AcDbLinetypeTableRecord
  2
CONTINUOUS
 70
     0
  3
実線
 72
    65
 73
     0
 40
0.0
  0
LTYPE
  5
22
330
5
100
AcDbSymbolTableRecord
100
AcDbLinetypeTableRecord
  2
DASHED1
 70
     0
  3
--  --  --  --  --  --  --  --  
 72
    65
 73
     2
 40
2.5
 49
1.25
 74
     0
 49
-1.25
 74
     0
  0
LTYPE
  5
23
330
5
100
AcDbSymbolTableRecord
100
AcDbLinetypeTableRecord
  2
DASHED2
 70
     0
  3
----    ----    ----    ----    
 72
    65
 73
     2
 40
5.0
 49
2.5
 74
     0
 49
-2.5
 74
     0
  0
LTYPE
  5
24
330
5
100
AcDbSymbolTableRecord
100
AcDbLinetypeTableRecord
  2
DASHED3
 70
     0
  3
------  ------  ------  ------  
 72
    65
 73
     2
 40
5.0
 49
3.75
 74
     0
 49
-1.25
 74
     0
  0
LTYPE
  5
25
330
5
100
AcDbSymbolTableRecord
100
AcDbLinetypeTableRecord
  2
CENTER1
 70
     0
  3
----- - ----- - ----- - ----- - 
 72
    65
 73
     4
 40
10.0
 49
6.25
 74
     0
 49
-1.25
 74
     0
 49
1.25
 74
     0
 49
-1.25
 74
     0
  0
LTYPE
  5
26
330
5
100
AcDbSymbolTableRecord
100
AcDbLinetypeTableRecord
  2
CENTER2
 70
     0
  3
----------  --  ----------  --  
 72
    65
 73
     4
 40
20.0
 49
12.5
 74
     0
 49
-2.5
 74
     0
 49
2.5
 74
     0
 49
-2.5
 74
     0
  0
LTYPE
  5
27
330
5
100
AcDbSymbolTableRecord
100
AcDbLinetypeTableRecord
  2
PHANTOM1
 70
     0
  3
--- - - --- - - --- - - --- - - 
 72
    65
 73
     6
 40
10.0
 49
3.25
 74
     0
 49
-1.25
 74
     0
 49
1.25
 74
     0
 49
-1.25
 74
     0
 49
1.25
 74
     0
 49
-1.25
 74
     0
  0
LTYPE
  5
28
330
5
100
AcDbSymbolTableRecord
100
AcDbLinetypeTableRecord
  2
PHANTOM2
 70
     0
  3
--------  -  -  --------  -  -  
 72
    65
 73
     6
 40
20.0
 49
10.0
 74
     0
 49
-2.5
 74
     0
 49
1.25
 74
     0
 49
-2.5
 74
     0
 49
1.25
 74
     0
 49
-2.5
 74
     0
  0
LTYPE
  5
29
330
5
100
AcDbSymbolTableRecord
100
AcDbLinetypeTableRecord
  2
DOT
 70
     0
  3
-   -   -   -   -   -   -   -   
 72
    65
 73
     2
 40
2.5
 49
0.625
 74
     0
 49
-1.875
 74
     0
  0
LTYPE
  5
2A
330
5
100
AcDbSymbolTableRecord
100
AcDbLinetypeTableRecord
  2
DUMMY
 70
     0
  3
ダミー
 72
    65
 73
     0
 40
0.0
  0
LTYPE
  5
2B
330
5
100
AcDbSymbolTableRecord
100
AcDbLinetypeTableRecord
  2
RAND1
 70
     0
  3
ランダム線1
 72
    65
 73
     4
 40
10.0
 49
1.0
 74
     0
 49
-2.0
 74
     0
 49
3.0
 74
     0
 49
-4.0
 74
     0
  0
LTYPE
  5
2C
330
5
100
AcDbSymbolTableRecord
100
AcDbLinetypeTableRecord
  2
RAND2
 70
     0
  3
ランダム線2
 72
    65
 73
     4
 40
14.0
 49
2.0
 74
     0
 49
-3.0
 74
     0
 49
4.0
 74
     0
 49
-5.0
 74
     0
  0
LTYPE
  5
2D
330
5
100
AcDbSymbolTableRecord
100
AcDbLinetypeTableRecord
  2
RAND3
 70
     0
  3
ランダム線3
 72
    65
 73
     4
 40
18.0
 49
3.0
 74
     0
 49
-4.0
 74
     0
 49
5.0
 74
     0
 49
-6.0
 74
     0
  0
LTYPE
  5
2E
330
5
100
AcDbSymbolTableRecord
100
AcDbLinetypeTableRecord
  2
RAND4
 70
     0
  3
ランダム線4
 72
    65
 73
     4
 40
22.0
 49
4.0
 74
     0
 49
-5.0
 74
     0
 49
6.0
 74
     0
 49
-7.0
 74
     0
  0
LTYPE
  5
2F
330
5
100
AcDbSymbolTableRecord
100
AcDbLinetypeTableRecord
  2
RAND5
 70
     0
  3
ランダム線5
 72
    65
 73
     4
 40
26.0
 49
5.0
 74
     0
 49
-6.0
 74
     0
 49
7.0
 74
     0
 49
-8.0
 74
     0
  0
LTYPE
  5
30
330
5
100
AcDbSymbolTableRecord
100
AcDbLinetypeTableRecord
  2
LONG1
 70
     0
  3
----------  --  ----------  --  
 72
    65
 73
     4
 40
40.0
 49
32.5
 74
     0
 49
-2.5
 74
     0
 49
2.5
 74
     0
 49
-2.5
 74
     0
  0
LTYPE
  5
31
330
5
100
AcDbSymbolTableRecord
100
AcDbLinetypeTableRecord
  2
LONG2
 70
     0
  3
--------  -  -  --------  -  -  
 72
    65
 73
     6
 40
40.0
 49
30.0
 74
     0
 49
-2.5
 74
     0
 49
1.25
 74
     0
 49
-2.5
 74
     0
 49
1.25
 74
     0
 49
-2.5
 74
     0
  0
LTYPE
  5
32
330
5
100
AcDbSymbolTableRecord
100
AcDbLinetypeTableRecord
  2
LONG3
 70
     0
  3
+++++++++++++++..+++++++++++++++
 72
    65
 73
     2
 40
40.0
 49
37.5
 74
     0
 49
-2.5
 74
     0
  0
LTYPE
  5
33
330
5
100
AcDbSymbolTableRecord
100
AcDbLinetypeTableRecord
  2
LONG4
 70
     0
  3
+++++++++++++++..+++++++++++++++
 72
    65
 73
     2
 40
80.0
 49
75.0
 74
     0
 49
-5.0
 74
     0
  0
LTYPE
  5
34
330
5
100
AcDbSymbolTableRecord
100
AcDbLinetypeTableRecord
  2
LONG5
 70
     0
  3
----------  --  ----------  --  
 72
    65
 73
     4
 40
60.0
 49
37.5
 74
     0
 49
-7.5
 74
     0
 49
7.5
 74
     0
 49
-7.5
 74
     0
  0
LTYPE
  5
35
330
5
100
AcDbSymbolTableRecord
100
AcDbLinetypeTableRecord
  2
DASHED
 70
     0
  3
-------   -------------   ------
 72
    65
 73
     2
 40
7.5
 49
6.0
 74
     0
 49
-1.5
 74
     0
  0
LTYPE
  5
36
330
5
100
AcDbSymbolTableRecord
100
AcDbLinetypeTableRecord
  2
DASHED_SPACED
 70
     0
  3
----        --------        ----
 72
    65
 73
     2
 40
12.0
 49
6.0
 74
     0
 49
-6.0
 74
     0
  0
LTYPE
  5
37
330
5
100
AcDbSymbolTableRecord
100
AcDbLinetypeTableRecord
  2
LONG_DASHED_DOTTED
 70
     0
  3
------------- --- --------------
 72
    65
 73
     4
 40
15.25
 49
12.0
 74
     0
 49
-1.5
 74
     0
 49
0.25
 74
     0
 49
-1.5
 74
     0
  0
LTYPE
  5
38
330
5
100
AcDbSymbolTableRecord
100
AcDbLinetypeTableRecord
  2
LONG_DASHED_DOUBLE-DOTTED
 70
     0
  3
----------- --- --- ------------
 72
    65
 73
     6
 40
17.0
 49
12.0
 74
     0
 49
-1.5
 74
     0
 49
0.25
 74
     0
 49
-1.5
 74
     0
 49
0.25
 74
     0
 49
-1.5
 74
     0
  0
LTYPE
  5
39
330
5
100
AcDbSymbolTableRecord
100
AcDbLinetypeTableRecord
  2
LONG_DASHED_TRIPLICATE-DOTTED
 70
     0
  3
--------- --- --- --- ----------
 72
    65
 73
     8
 40
18.75
 49
12.0
 74
     0
 49
-1.5
 74
     0
 49
0.25
 74
     0
 49
-1.5
 74
     0
 49
0.25
 74
     0
 49
-1.5
 74
     0
 49
0.25
 74
     0
 49
-1.5
 74
     0
  0
LTYPE
  5
3A
330
5
100
AcDbSymbolTableRecord
100
AcDbLinetypeTableRecord
  2
DOTTED
 70
     0
  3
   -       -       -       -    
 72
    65
 73
     2
 40
1.75
 49
0.25
 74
     0
 49
-1.5
 74
     0
  0
LTYPE
  5
3B
330
5
100
AcDbSymbolTableRecord
100
AcDbLinetypeTableRecord
  2
CHAIN
 70
     0
  3
-------------- -- --------------
 72
    65
 73
     4
 40
18.5
 49
12.0
 74
     0
 49
-1.5
 74
     0
 49
3.5
 74
     0
 49
-1.5
 74
     0
  0
LTYPE
  5
3C
330
5
100
AcDbSymbolTableRecord
100
AcDbLinetypeTableRecord
  2
CHAIN_DOUBLE_DASH
 70
     0
  3
------------ -- -- -------------
 72
    65
 73
     6
 40
23.5
 49
12.0
 74
     0
 49
-1.5
 74
     0
 49
3.5
 74
     0
 49
-1.5
 74
     0
 49
3.5
 74
     0
 49
-1.5
 74
     0
  0
LTYPE
  5
3D
330
5
100
AcDbSymbolTableRecord
100
AcDbLinetypeTableRecord
  2
DASHED_DOTTED
 70
     0
  3
-----------     -     ----------
 72
    65
 73
     4
 40
9.25
 49
6.0
 74
     0
 49
-1.5
 74
     0
 49
0.25
 74
     0
 49
-1.5
 74
     0
  0
LTYPE
  5
3E
330
5
100
AcDbSymbolTableRecord
100
AcDbLinetypeTableRecord
  2
DOUBLE-DASHED_DOTTED
 70
     0
  3
------   -----------   -   -----
 72
    65
 73
     6
 40
16.75
 49
6.0
 74
     0
 49
-1.5
 74
     0
 49
6.0
 74
     0
 49
-1.5
 74
     0
 49
0.25
 74
     0
 49
-1.5
 74
     0
  0
LTYPE
  5
3F
330
5
100
AcDbSymbolTableRecord
100
AcDbLinetypeTableRecord
  2
DASHED_DOUBLE-DOTTED
 70
     0
  3
---------    -    -    ---------
 72
    65
 73
     6
 40
11.0
 49
6.0
 74
     0
 49
-1.5
 74
     0
 49
0.25
 74
     0
 49
-1.5
 74
     0
 49
0.25
 74
     0
 49
-1.5
 74
     0
  0
LTYPE
  5
40
330
5
100
AcDbSymbolTableRecord
100
AcDbLinetypeTableRecord
  2
DOUBLE-DASHED_DOUBLE-DOTTED
 70
     0
  3
-----   ---------   -   -   ----
 72
    65
 73
     8
 40
18.5
 49
6.0
 74
     0
 49
-1.5
 74
     0
 49
6.0
 74
     0
 49
-1.5
 74
     0
 49
0.25
 74
     0
 49
-1.5
 74
     0
 49
0.25
 74
     0
 49
-1.5
 74
     0
  0
LTYPE
  5
41
330
5
100
AcDbSymbolTableRecord
100
AcDbLinetypeTableRecord
  2
DASHED_TRIPLICATE-DOTTED
 70
     0
  3
-------    -    -    -    ------
 72
    65
 73
     8
 40
12.75
 49
6.0
 74
     0
 49
-1.5
 74
     0
 49
0.25
 74
     0
 49
-1.5
 74
     0
 49
0.25
 74
     0
 49
-1.5
 74
     0
 49
0.25
 74
     0
 49
-1.5
 74
     0
  0
LTYPE
  5
42
330
5
100
AcDbSymbolTableRecord
100
AcDbLinetypeTableRecord
  2
DOUBLE-DASHED_TRIPLICATE-DOTTED
 70
     0
  3
-----  ---------  -  -  -  -----
 72
    65
 73
    10
 40
20.25
 49
6.0
 74
     0
 49
-1.5
 74
     0
 49
6.0
 74
     0
 49
-1.5
 74
     0
 49
0.25
 74
     0
 49
-1.5
 74
     0
 49
0.25
 74
     0
 49
-1.5
 74
     0
 49
0.25
 74
     0
 49
-1.5
 74
     0
  0
LTYPE
  5
43
330
5
100
AcDbSymbolTableRecord
100
AcDbLinetypeTableRecord
  2
UNDEFINED
 70
     0
  3
--------------------------------
 72
    65
 73
     0
 40
0.0
  0
LTYPE
  5
44
330
5
100
AcDbSymbolTableRecord
100
AcDbLinetypeTableRecord
  2
PLINE2
 70
     0
  3
------     -----------     -----
 72
    65
 73
     2
 40
3.0
 49
2.1
 74
     0
 49
-0.9
 74
     0
  0
LTYPE
  5
45
330
5
100
AcDbSymbolTableRecord
100
AcDbLinetypeTableRecord
  2
PLINE3
 70
     0
  3
------------   ---   -----------
 72
    65
 73
     4
 40
10.0
 49
7.0
 74
     0
 49
-1.0
 74
     0
 49
1.0
 74
     0
 49
-1.0
 74
     0
  0
LTYPE
  5
46
330
5
100
AcDbSymbolTableRecord
100
AcDbLinetypeTableRecord
  2
PLINE4
 70
     0
  3
---------   ---   ---   --------
 72
    65
 73
     6
 40
10.0
 49
5.0
 74
     0
 49
-1.0
 74
     0
 49
1.0
 74
     0
 49
-1.0
 74
     0
 49
1.0
 74
     0
 49
-1.0
 74
     0
  0
LTYPE
  5
47
330
5
100
AcDbSymbolTableRecord
100
AcDbLinetypeTableRecord
  2
PLINE5
 70
     0
  3
------     -----------     -----
 72
    65
 73
     2
 40
5.0
 49
3.5
 74
     0
 49
-1.5
 74
     0
  0
LTYPE
  5
48
330
5
100
AcDbSymbolTableRecord
100
AcDbLinetypeTableRecord
  2
PLINE6
 70
     0
  3
------------   ---   -----------
 72
    65
 73
     4
 40
15.0
 49
10.5
 74
     0
 49
-1.5
 74
     0
 49
1.5
 74
     0
 49
-1.5
 74
     0
  0
LTYPE
  5
49
330
5
100
AcDbSymbolTableRecord
100
AcDbLinetypeTableRecord
  2
PLINE7
 70
     0
  3
---------   ---   ---   --------
 72
    65
 73
     6
 40
15.0
 49
7.5
 74
     0
 49
-1.5
 74
     0
 49
1.5
 74
     0
 49
-1.5
 74
     0
 49
1.5
 74
     0
 49
-1.5
 74
     0
  0
LTYPE
  5
4A
330
5
100
AcDbSymbolTableRecord
100
AcDbLinetypeTableRecord
  2
PLINE8
 70
     0
  3
------     -----------     -----
 72
    65
 73
     2
 40
7.0
 49
4.9
 74
     0
 49
-2.1
 74
     0
  0
LTYPE
  5
4B
330
5
100
AcDbSymbolTableRecord
100
AcDbLinetypeTableRecord
  2
PLINE9
 70
     0
  3
------------   ---   -----------
 72
    65
 73
     4
 40
20.0
 49
14.0
 74
     0
 49
-2.0
 74
     0
 49
2.0
 74
     0
 49
-2.0
 74
     0
  0
LTYPE
  5
4C
330
5
100
AcDbSymbolTableRecord
100
AcDbLinetypeTableRecord
  2
PLINE10
 70
     0
  3
---------   ---   ---   --------
 72
    65
 73
     6
 40
20.0
 49
10.0
 74
     0
 49
-2.0
 74
     0
 49
2.0
 74
     0
 49
-2.0
 74
     0
 49
2.0
 74
     0
 49
-2.0
 74
     0
  0
LTYPE
  5
4D
330
5
100
AcDbSymbolTableRecord
100
AcDbLinetypeTableRecord
  2
PLINE11
 70
     0
  3
------     -----------     -----
 72
    65
 73
     2
 40
9.0
 49
6.299999999999999
 74
     0
 49
-2.7
 74
     0
  0
LTYPE
  5
4E
330
5
100
AcDbSymbolTableRecord
100
AcDbLinetypeTableRecord
  2
PLINE12
 70
     0
  3
------------   ---   -----------
 72
    65
 73
     4
 40
25.0
 49
17.5
 74
     0
 49
-2.5
 74
     0
 49
2.5
 74
     0
 49
-2.5
 74
     0
  0
LTYPE
  5
4F
330
5
100
AcDbSymbolTableRecord
100
AcDbLinetypeTableRecord
  2
PLINE13
 70
     0
  3
---------   ---   ---   --------
 72
    65
 73
     6
 40
25.0
 49
12.5
 74
     0
 49
-2.5
 74
     0
 49
2.5
 74
     0
 49
-2.5
 74
     0
 49
2.5
 74
     0
 49
-2.5
 74
     0
  0
LTYPE
  5
50
330
5
100
AcDbSymbolTableRecord
100
AcDbLinetypeTableRecord
  2
PLINE14
 70
     0
  3
------     -----------     -----
 72
    65
 73
     2
 40
11.0
 49
7.7
 74
     0
 49
-3.299999999999999
 74
     0
  0
LTYPE
  5
51
330
5
100
AcDbSymbolTableRecord
100
AcDbLinetypeTableRecord
  2
PLINE15
 70
     0
  3
------------   ---   -----------
 72
    65
 73
     4
 40
30.0
 49
21.0
 74
     0
 49
-3.0
 74
     0
 49
3.0
 74
     0
 49
-3.0
 74
     0
  0
LTYPE
  5
52
330
5
100
AcDbSymbolTableRecord
100
AcDbLinetypeTableRecord
  2
PLINE16
 70
     0
  3
---------   ---   ---   --------
 72
    65
 73
     6
 40
30.0
 49
15.0
 74
     0
 49
-3.0
 74
     0
 49
3.0
 74
     0
 49
-3.0
 74
     0
 49
3.0
 74
     0
 49
-3.0
 74
     0
  0
ENDTAB
  0
TABLE
  2
LAYER
  5
2
102
{ACAD_XDICTIONARY
360
175
102
}
330
0
100
AcDbSymbolTable
 70
     5
  0
LAYER
  5
10
330
2
100
AcDbSymbolTableRecord
100
AcDbLayerTableRecord
  2
0
 70
     0
 62
     7
  6
CONTINUOUS
370
    -3
390
F
  0
LAYER
  5
128
330
2
100
AcDbSymbolTableRecord
100
AcDbLayerTableRecord
  2
Defpoints
 70
     0
 62
     7
  6
CONTINUOUS
290
     0
370
    -3
390
F
  0
LAYER
  5
178
330
2
100
AcDbSymbolTableRecord
100
AcDbLayerTableRecord
  2
寸法
 70
     0
 62
     7
  6
CONTINUOUS
370
    -3
390
F
  0
LAYER
  5
179
330
2
100
AcDbSymbolTableRecord
100
AcDbLayerTableRecord
  2
躯体と製品
 70
     0
 62
     7
  6
CONTINUOUS
370
    -3
390
F
  0
LAYER
  5
4F62
330
2
100
AcDbSymbolTableRecord
100
AcDbLayerTableRecord
  2
図枠
 70
     0
 62
     7
  6
CONTINUOUS
370
    -3
390
F
  0
ENDTAB
  0
TABLE
  2
STYLE
  5
3
330
0
100
AcDbSymbolTable
 70
     5
  0
STYLE
  5
11
330
3
100
AcDbSymbolTableRecord
100
AcDbTextStyleTableRecord
  2
STANDARD
 70
     0
 40
0.0
 41
1.0
 50
0.0
 71
     0
 42
0.2
  3
txt
  4
bigfont.shx
  0
STYLE
  5
53
330
3
100
AcDbSymbolTableRecord
100
AcDbTextStyleTableRecord
  2
TATEGAKI
 70
     4
 40
0.0
 41
1.0
 50
0.0
 71
     0
 42
1.0
  3
txt
  4
bigfont.shx
  0
STYLE
  5
123
330
3
100
AcDbSymbolTableRecord
100
AcDbTextStyleTableRecord
  2
ACAD
 70
     0
 40
5.0
 41
0.8
 50
0.0
 71
     0
 42
5.0
  3
romans.shx
  4
extfont.shx
  0
STYLE
  5
3A5F
330
3
100
AcDbSymbolTableRecord
100
AcDbTextStyleTableRecord
  2
VERTXT
 70
     4
 40
0.0
 41
0.8582679999999999
 50
0.0
 71
     0
 42
3.5
  3
txt.shx
  4
BIGFONT
  0
STYLE
  5
50AD
330
3
100
AcDbSymbolTableRecord
100
AcDbTextStyleTableRecord
  2
STANDARD2
 70
     0
 40
0.0
 41
0.8582679999999999
 50
0.0
 71
     0
 42
3.5
  3
txt.shx
  4
EXTFONT
  0
ENDTAB
  0
TABLE
  2
VIEW
  5
6
330
0
100
AcDbSymbolTable
 70
     0
  0
ENDTAB
  0
TABLE
  2
UCS
  5
7
330
0
100
AcDbSymbolTable
 70
     0
  0
ENDTAB
  0
TABLE
  2
APPID
  5
9
330
0
100
AcDbSymbolTable
 70
     1
  0
APPID
  5
12
330
9
100
AcDbSymbolTableRecord
100
AcDbRegAppTableRecord
  2
ACAD
 70
     0
  0
ENDTAB
  0
TABLE
  2
DIMSTYLE
  5
A
330
0
100
AcDbSymbolTable
 70
     3
100
AcDbDimStyleTable
 71
     1
340
126
  0
DIMSTYLE
105
11C
330
A
100
AcDbSymbolTableRecord
100
AcDbDimStyleTableRecord
  2
Standard
 70
     0
340
11
  0
DIMSTYLE
105
126
102
{ACAD_REACTORS
330
7287
330
7294
330
72A0
330
72AD
330
72BA
330
72D3
330
72E0
330
72ED
330
72FA
330
7307
330
7314
330
7320
330
732B
330
7336
102
}
330
A
100
AcDbSymbolTableRecord
100
AcDbDimStyleTableRecord
  2
AutoCAD
 70
     0
 41
1.0
 42
0.0
 44
0.0
 73
     0
 77
     1
140
5.0
147
1.0
174
     1
176
     4
177
     4
178
     3
271
     0
272
     0
289
     0
340
123
341
15B0
342
11E
  0
DIMSTYLE
105
2CBB
330
A
100
AcDbSymbolTableRecord
100
AcDbDimStyleTableRecord
  2
111
 70
     0
 41
1.0
 42
0.0
 44
0.0
 73
     0
 77
     1
140
5.0
147
1.0
174
     1
176
     4
177
     4
178
     3
271
     0
272
     0
289
     0
340
123
341
15B0
342
2CB5
  0
ENDTAB
  0
TABLE
  2
BLOCK_RECORD
  5
1
330
0
100
AcDbSymbolTable
 70
    18
  0
BLOCK_RECORD
  5
1E
102
{ACAD_XDICTIONARY
360
28B
102
}
330
1
100
AcDbSymbolTableRecord
100
AcDbBlockTableRecord
  2
*Model_Space
340
21
  0
BLOCK_RECORD
  5
1A
102
{ACAD_XDICTIONARY
360
28D
102
}
330
1
100
AcDbSymbolTableRecord
100
AcDbBlockTableRecord
  2
*Paper_Space
340
1D
  0
BLOCK_RECORD
  5
11E
330
1
100
AcDbSymbolTableRecord
100
AcDbBlockTableRecord
  2
_Dot
340
0
102
{BLKREFS
331
72B2
331
72B3
331
72E5
331
72E6
331
72F2
331
72F3
331
72FF
331
7300
331
7323
331
7324
331
732E
331
732F
331
7347
331
7348
331
7350
331
7351
331
7359
331
735A
331
7361
331
7362
331
736A
331
736B
331
7373
331
7374
331
737C
331
737D
331
7384
331
7385
102
}
  0
BLOCK_RECORD
  5
15B0
330
1
100
AcDbSymbolTableRecord
100
AcDbBlockTableRecord
  2
_None
340
0
  0
BLOCK_RECORD
  5
2CB5
330
1
100
AcDbSymbolTableRecord
100
AcDbBlockTableRecord
  2
_Open30
340
0
  0
BLOCK_RECORD
  5
35E3
330
1
100
AcDbSymbolTableRecord
100
AcDbBlockTableRecord
  2
_DotBlank
340
0
  0
BLOCK_RECORD
  5
7288
330
1
100
AcDbSymbolTableRecord
100
AcDbBlockTableRecord
  2
*D4
340
0
  0
BLOCK_RECORD
  5
7295
330
1
100
AcDbSymbolTableRecord
100
AcDbBlockTableRecord
  2
*D5
340
0
  0
BLOCK_RECORD
  5
72A1
330
1
100
AcDbSymbolTableRecord
100
AcDbBlockTableRecord
  2
*D6
340
0
  0
BLOCK_RECORD
  5
72AE
330
1
100
AcDbSymbolTableRecord
100
AcDbBlockTableRecord
  2
*D7
340
0
  0
BLOCK_RECORD
  5
72BB
330
1
100
AcDbSymbolTableRecord
100
AcDbBlockTableRecord
  2
*D8
340
0
  0
BLOCK_RECORD
  5
72D4
330
1
100
AcDbSymbolTableRecord
100
AcDbBlockTableRecord
  2
*D9
340
0
  0
BLOCK_RECORD
  5
72E1
330
1
100
AcDbSymbolTableRecord
100
AcDbBlockTableRecord
  2
*D10
340
0
  0
BLOCK_RECORD
  5
72EE
330
1
100
AcDbSymbolTableRecord
100
AcDbBlockTableRecord
  2
*D11
340
0
  0
BLOCK_RECORD
  5
72FB
330
1
100
AcDbSymbolTableRecord
100
AcDbBlockTableRecord
  2
*D12
340
0
  0
BLOCK_RECORD
  5
7308
330
1
100
AcDbSymbolTableRecord
100
AcDbBlockTableRecord
  2
*D13
340
0
  0
BLOCK_RECORD
  5
7315
330
1
100
AcDbSymbolTableRecord
100
AcDbBlockTableRecord
  2
*D14
340
0
  0
BLOCK_RECORD
  5
7321
330
1
100
AcDbSymbolTableRecord
100
AcDbBlockTableRecord
  2
*D15
340
0
  0
BLOCK_RECORD
  5
732C
330
1
100
AcDbSymbolTableRecord
100
AcDbBlockTableRecord
  2
*D16
340
0
  0
BLOCK_RECORD
  5
7337
330
1
100
AcDbSymbolTableRecord
100
AcDbBlockTableRecord
  2
*D17
340
0
  0
ENDTAB
  0
ENDSEC
  0
SECTION
  2
BLOCKS
  0
BLOCK
  5
1F
330
1E
100
AcDbEntity
  8
0
100
AcDbBlockBegin
  2
*Model_Space
 70
     0
 10
0.0
 20
0.0
 30
0.0
  3
*Model_Space
  1

  0
ENDBLK
  5
20
330
1E
100
AcDbEntity
  8
0
100
AcDbBlockEnd
  0
BLOCK
  5
1B
330
1A
100
AcDbEntity
 67
     1
  8
0
100
AcDbBlockBegin
  2
*Paper_Space
 70
     0
 10
0.0
 20
0.0
 30
0.0
  3
*Paper_Space
  1

  0
ENDBLK
  5
1C
330
1A
100
AcDbEntity
 67
     1
  8
0
100
AcDbBlockEnd
  0
BLOCK
  5
121
330
11E
100
AcDbEntity
  8
0
100
AcDbBlockBegin
  2
_Dot
 70
     0
 10
0.0
 20
0.0
 30
0.0
  3
_Dot
  1

  0
LWPOLYLINE
  5
11F
330
11E
100
AcDbEntity
  8
0
  6
ByBlock
 62
     0
100
AcDbPolyline
 90
        2
 70
     1
 43
0.5
 10
-0.25
 20
0.0
 42
1.0
 10
0.25
 20
0.0
 42
1.0
  0
LINE
  5
120
330
11E
100
AcDbEntity
  8
0
  6
ByBlock
 62
     0
370
    -2
100
AcDbLine
 10
-0.5
 20
0.0
 30
0.0
 11
-1.0
 21
0.0
 31
0.0
  0
ENDBLK
  5
122
330
11E
100
AcDbEntity
  8
0
100
AcDbBlockEnd
  0
BLOCK
  5
15B1
330
15B0
100
AcDbEntity
  8
0
100
AcDbBlockBegin
  2
_None
 70
     0
 10
0.0
 20
0.0
 30
0.0
  3
_None
  1

  0
ENDBLK
  5
15B2
330
15B0
100
AcDbEntity
  8
0
100
AcDbBlockEnd
  0
BLOCK
  5
2CB9
330
2CB5
100
AcDbEntity
  8
0
100
AcDbBlockBegin
  2
_Open30
 70
     0
 10
0.0
 20
0.0
 30
0.0
  3
_Open30
  1

  0
LINE
  5
2CB6
330
2CB5
100
AcDbEntity
  8
0
  6
ByBlock
 62
     0
370
    -2
100
AcDbLine
 10
-1.0
 20
0.26794919
 30
0.0
 11
0.0
 21
0.0
 31
0.0
  0
LINE
  5
2CB7
330
2CB5
100
AcDbEntity
  8
0
  6
ByBlock
 62
     0
370
    -2
100
AcDbLine
 10
0.0
 20
0.0
 30
0.0
 11
-1.0
 21
-0.26794919
 31
0.0
  0
LINE
  5
2CB8
330
2CB5
100
AcDbEntity
  8
0
  6
ByBlock
 62
     0
370
    -2
100
AcDbLine
 10
0.0
 20
0.0
 30
0.0
 11
-1.0
 21
0.0
 31
0.0
  0
ENDBLK
  5
2CBA
330
2CB5
100
AcDbEntity
  8
0
100
AcDbBlockEnd
  0
BLOCK
  5
35E6
330
35E3
100
AcDbEntity
  8
0
100
AcDbBlockBegin
  2
_DotBlank
 70
     0
 10
0.0
 20
0.0
 30
0.0
  3
_DotBlank
  1

  0
CIRCLE
  5
35E4
330
35E3
100
AcDbEntity
  8
0
  6
ByBlock
 62
     0
370
    -2
100
AcDbCircle
 10
0.0
 20
0.0
 30
0.0
 40
0.5
  0
LINE
  5
35E5
330
35E3
100
AcDbEntity
  8
0
  6
ByBlock
 62
     0
370
    -2
100
AcDbLine
 10
-0.5
 20
0.0
 30
0.0
 11
-1.0
 21
0.0
 31
0.0
  0
ENDBLK
  5
35E7
330
35E3
100
AcDbEntity
  8
0
100
AcDbBlockEnd
  0
BLOCK
  5
7292
330
7288
100
AcDbEntity
  8
0
100
AcDbBlockBegin
  2
*D4
 70
     1
 10
0.0
 20
0.0
 30
0.0
  3
*D4
  1

  0
LINE
  5
7367
330
7288
100
AcDbEntity
  8
寸法
  6
Continuous
 62
     4
370
    -2
100
AcDbLine
 10
1537.626748663615
 20
1103.584404318473
 30
0.0
 11
1464.626748663615
 21
1103.584404318473
 31
0.0
  0
LINE
  5
7368
330
7288
100
AcDbEntity
  8
寸法
  6
Continuous
 62
     4
370
    -2
100
AcDbLine
 10
1635.911282044966
 20
985.6923654810112
 30
0.0
 11
1464.626748663615
 21
985.6923654810112
 31
0.0
  0
LINE
  5
7369
330
7288
100
AcDbEntity
  8
寸法
  6
Continuous
 62
     4
370
    -2
100
AcDbLine
 10
1464.626748663615
 20
1102.584404318473
 30
0.0
 11
1464.626748663615
 21
986.6923654810111
 31
0.0
  0
INSERT
  5
736A
330
7288
100
AcDbEntity
  8
寸法
  6
Continuous
 62
     4
370
    -2
100
AcDbBlockReference
  2
_Dot
 10
1464.626748663615
 20
1103.584404318473
 30
0.0
 50
90.0
  0
INSERT
  5
736B
330
7288
100
AcDbEntity
  8
寸法
  6
Continuous
 62
     4
370
    -2
100
AcDbBlockReference
  2
_Dot
 10
1464.626748663615
 20
985.6923654810112
 30
0.0
 50
270.0
  0
MTEXT
  5
736C
330
7288
100
AcDbEntity
  8
寸法
  6
Continuous
 62
     3
100
AcDbMText
 10
1461.126748663614
 20
1044.638384899742
 30
0.0
 40
5.0
 41
0.0
 71
     5
 72
     1
  1
\A1;E
  7
ACAD
 11
0.0000000000000001
 21
1.0
 31
0.0
 73
     1
 44
1.0
1001
ACAD
1000
MTEXTBEGIN
1070
    73
1070
     1
1070
    44
1040
1.0
1070
    74
1070
     0
1000
MTEXTEND
  0
POINT
  5
736D
330
7288
100
AcDbEntity
  8
Defpoints
  6
Continuous
 62
     0
100
AcDbPoint
 10
1537.626748663615
 20
1103.584404318473
 30
0.0
  0
POINT
  5
736E
330
7288
100
AcDbEntity
  8
Defpoints
  6
Continuous
 62
     0
100
AcDbPoint
 10
1635.911282044966
 20
985.6923654810112
 30
0.0
  0
POINT
  5
736F
330
7288
100
AcDbEntity
  8
Defpoints
  6
Continuous
 62
     0
100
AcDbPoint
 10
1464.626748663615
 20
985.6923654810112
 30
0.0
  0
ENDBLK
  5
7293
330
7288
100
AcDbEntity
  8
0
100
AcDbBlockEnd
  0
BLOCK
  5
729E
330
7295
100
AcDbEntity
  8
0
100
AcDbBlockBegin
  2
*D5
 70
     1
 10
0.0
 20
0.0
 30
0.0
  3
*D5
  1

  0
LINE
  5
735F
330
7295
100
AcDbEntity
  8
寸法
  6
Continuous
 62
     4
370
    -2
100
AcDbLine
 10
1635.911282044966
 20
985.6923654810112
 30
0.0
 11
1484.626748663615
 21
985.6923654810112
 31
0.0
  0
LINE
  5
7360
330
7295
100
AcDbEntity
  8
寸法
  6
Continuous
 62
     4
370
    -2
100
AcDbLine
 10
1484.626748663615
 20
986.6923654810111
 30
0.0
 11
1484.626748663615
 21
1043.584404318472
 31
0.0
  0
INSERT
  5
7361
330
7295
100
AcDbEntity
  8
寸法
  6
Continuous
 62
     4
370
    -2
100
AcDbBlockReference
  2
_Dot
 10
1484.626748663615
 20
985.6923654810112
 30
0.0
 50
270.0
  0
INSERT
  5
7362
330
7295
100
AcDbEntity
  8
寸法
  6
Continuous
 62
     4
370
    -2
100
AcDbBlockReference
  2
_Dot
 10
1484.626748663615
 20
1044.584404318473
 30
0.0
 50
90.0
  0
MTEXT
  5
7363
330
7295
100
AcDbEntity
  8
寸法
  6
Continuous
 62
     3
100
AcDbMText
 10
1481.126748663615
 20
1015.138384899742
 30
0.0
 40
5.0
 41
0.0
 71
     5
 72
     1
  1
\A1;D
  7
ACAD
 11
0.0000000000000001
 21
1.0
 31
0.0
 73
     1
 44
1.0
1001
ACAD
1000
MTEXTBEGIN
1070
    73
1070
     1
1070
    44
1040
1.0
1070
    74
1070
     0
1000
MTEXTEND
  0
POINT
  5
7364
330
7295
100
AcDbEntity
  8
Defpoints
  6
Continuous
 62
     0
100
AcDbPoint
 10
1635.911282044966
 20
985.6923654810112
 30
0.0
  0
POINT
  5
7365
330
7295
100
AcDbEntity
  8
Defpoints
  6
Continuous
 62
     0
100
AcDbPoint
 10
1484.626748663615
 20
1044.584404318473
 30
0.0
  0
POINT
  5
7366
330
7295
100
AcDbEntity
  8
Defpoints
  6
Continuous
 62
     0
100
AcDbPoint
 10
1484.626748663615
 20
1044.584404318473
 30
0.0
  0
ENDBLK
  5
729F
330
7295
100
AcDbEntity
  8
0
100
AcDbBlockEnd
  0
BLOCK
  5
72AB
330
72A1
100
AcDbEntity
  8
0
100
AcDbBlockBegin
  2
*D6
 70
     1
 10
0.0
 20
0.0
 30
0.0
  3
*D6
  1

  0
LINE
  5
734D
330
72A1
100
AcDbEntity
  8
寸法
  6
Continuous
 62
     4
370
    -2
100
AcDbLine
 10
1540.626748663615
 20
1090.584404318472
 30
0.0
 11
1540.626748663615
 21
1148.584404318473
 31
0.0
  0
LINE
  5
734E
330
72A1
100
AcDbEntity
  8
寸法
  6
Continuous
 62
     4
370
    -2
100
AcDbLine
 10
1574.126748663615
 20
1090.584404318472
 30
0.0
 11
1574.126748663615
 21
1148.584404318473
 31
0.0
  0
LINE
  5
734F
330
72A1
100
AcDbEntity
  8
寸法
  6
Continuous
 62
     4
370
    -2
100
AcDbLine
 10
1541.626748663615
 20
1148.584404318473
 30
0.0
 11
1573.126748663615
 21
1148.584404318473
 31
0.0
  0
INSERT
  5
7350
330
72A1
100
AcDbEntity
  8
寸法
  6
Continuous
 62
     4
370
    -2
100
AcDbBlockReference
  2
_Dot
 10
1540.626748663615
 20
1148.584404318473
 30
0.0
 50
180.0
  0
INSERT
  5
7351
330
72A1
100
AcDbEntity
  8
寸法
  6
Continuous
 62
     4
370
    -2
100
AcDbBlockReference
  2
_Dot
 10
1574.126748663615
 20
1148.584404318473
 30
0.0
  0
MTEXT
  5
7352
330
72A1
100
AcDbEntity
  8
寸法
  6
Continuous
 62
     3
100
AcDbMText
 10
1557.376748663615
 20
1152.084404318473
 30
0.0
 40
5.0
 41
0.0
 71
     5
 72
     1
  1
\A1;33.5
  7
ACAD
 73
     1
 44
1.0
1001
ACAD
1000
MTEXTBEGIN
1070
    73
1070
     1
1070
    44
1040
1.0
1070
    74
1070
     0
1000
MTEXTEND
  0
POINT
  5
7353
330
72A1
100
AcDbEntity
  8
Defpoints
  6
Continuous
 62
     0
100
AcDbPoint
 10
1540.626748663615
 20
1090.584404318472
 30
0.0
  0
POINT
  5
7354
330
72A1
100
AcDbEntity
  8
Defpoints
  6
Continuous
 62
     0
100
AcDbPoint
 10
1574.126748663615
 20
1090.584404318472
 30
0.0
  0
POINT
  5
7355
330
72A1
100
AcDbEntity
  8
Defpoints
  6
Continuous
 62
     0
100
AcDbPoint
 10
1574.126748663615
 20
1148.584404318473
 30
0.0
  0
ENDBLK
  5
72AC
330
72A1
100
AcDbEntity
  8
0
100
AcDbBlockEnd
  0
BLOCK
  5
72B8
330
72AE
100
AcDbEntity
  8
0
100
AcDbBlockBegin
  2
*D7
 70
     1
 10
0.0
 20
0.0
 30
0.0
  3
*D7
  1

  0
LINE
  5
72AF
330
72AE
100
AcDbEntity
  8
寸法
  6
Continuous
 62
     4
370
    -2
100
AcDbLine
 10
1554.126748663614
 20
1105.584404318473
 30
0.0
 11
1554.126748663614
 21
1133.584404318473
 31
0.0
  0
LINE
  5
72B0
330
72AE
100
AcDbEntity
  8
寸法
  6
Continuous
 62
     4
370
    -2
100
AcDbLine
 10
1574.126748663615
 20
1103.584404318473
 30
0.0
 11
1574.126748663615
 21
1133.584404318473
 31
0.0
  0
LINE
  5
72B1
330
72AE
100
AcDbEntity
  8
寸法
  6
Continuous
 62
     4
370
    -2
100
AcDbLine
 10
1555.126748663615
 20
1133.584404318473
 30
0.0
 11
1573.126748663615
 21
1133.584404318473
 31
0.0
  0
INSERT
  5
72B2
330
72AE
100
AcDbEntity
  8
寸法
  6
Continuous
 62
     4
370
    -2
100
AcDbBlockReference
  2
_Dot
 10
1554.126748663614
 20
1133.584404318473
 30
0.0
 50
180.0
  0
INSERT
  5
72B3
330
72AE
100
AcDbEntity
  8
寸法
  6
Continuous
 62
     4
370
    -2
100
AcDbBlockReference
  2
_Dot
 10
1574.126748663615
 20
1133.584404318473
 30
0.0
  0
MTEXT
  5
72B4
330
72AE
100
AcDbEntity
  8
寸法
  6
Continuous
 62
     3
100
AcDbMText
 10
1564.126748663615
 20
1137.084404318473
 30
0.0
 40
5.0
 41
0.0
 71
     5
 72
     1
  1
\A1;20
  7
ACAD
 73
     1
 44
1.0
1001
ACAD
1000
MTEXTBEGIN
1070
    73
1070
     1
1070
    44
1040
1.0
1070
    74
1070
     0
1000
MTEXTEND
  0
POINT
  5
72B5
330
72AE
100
AcDbEntity
  8
Defpoints
  6
Continuous
 62
     0
100
AcDbPoint
 10
1554.126748663614
 20
1105.584404318473
 30
0.0
  0
POINT
  5
72B6
330
72AE
100
AcDbEntity
  8
Defpoints
  6
Continuous
 62
     0
100
AcDbPoint
 10
1574.126748663615
 20
1103.584404318473
 30
0.0
  0
POINT
  5
72B7
330
72AE
100
AcDbEntity
  8
Defpoints
  6
Continuous
 62
     0
100
AcDbPoint
 10
1574.126748663615
 20
1133.584404318473
 30
0.0
  0
ENDBLK
  5
72B9
330
72AE
100
AcDbEntity
  8
0
100
AcDbBlockEnd
  0
BLOCK
  5
72C5
330
72BB
100
AcDbEntity
  8
0
100
AcDbBlockBegin
  2
*D8
 70
     1
 10
0.0
 20
0.0
 30
0.0
  3
*D8
  1

  0
LINE
  5
7344
330
72BB
100
AcDbEntity
  8
寸法
  6
Continuous
 62
     4
370
    -2
100
AcDbLine
 10
1540.626748663615
 20
1090.584404318472
 30
0.0
 11
1540.626748663615
 21
1163.584404318473
 31
0.0
  0
LINE
  5
7345
330
72BB
100
AcDbEntity
  8
寸法
  6
Continuous
 62
     4
370
    -2
100
AcDbLine
 10
1840.626748663615
 20
1081.584404318473
 30
0.0
 11
1840.626748663615
 21
1163.584404318473
 31
0.0
  0
LINE
  5
7346
330
72BB
100
AcDbEntity
  8
寸法
  6
Continuous
 62
     4
370
    -2
100
AcDbLine
 10
1541.626748663615
 20
1163.584404318473
 30
0.0
 11
1839.626748663615
 21
1163.584404318473
 31
0.0
  0
INSERT
  5
7347
330
72BB
100
AcDbEntity
  8
寸法
  6
Continuous
 62
     4
370
    -2
100
AcDbBlockReference
  2
_Dot
 10
1540.626748663615
 20
1163.584404318473
 30
0.0
 50
180.0
  0
INSERT
  5
7348
330
72BB
100
AcDbEntity
  8
寸法
  6
Continuous
 62
     4
370
    -2
100
AcDbBlockReference
  2
_Dot
 10
1840.626748663615
 20
1163.584404318473
 30
0.0
  0
MTEXT
  5
7349
330
72BB
100
AcDbEntity
  8
寸法
  6
Continuous
 62
     3
100
AcDbMText
 10
1690.626748663614
 20
1167.084404318473
 30
0.0
 40
5.0
 41
0.0
 71
     5
 72
     1
  1
\A1;W
  7
ACAD
 73
     1
 44
1.0
1001
ACAD
1000
MTEXTBEGIN
1070
    73
1070
     1
1070
    44
1040
1.0
1070
    74
1070
     0
1000
MTEXTEND
  0
POINT
  5
734A
330
72BB
100
AcDbEntity
  8
Defpoints
  6
Continuous
 62
     0
100
AcDbPoint
 10
1540.626748663615
 20
1090.584404318472
 30
0.0
  0
POINT
  5
734B
330
72BB
100
AcDbEntity
  8
Defpoints
  6
Continuous
 62
     0
100
AcDbPoint
 10
1840.626748663615
 20
1081.584404318473
 30
0.0
  0
POINT
  5
734C
330
72BB
100
AcDbEntity
  8
Defpoints
  6
Continuous
 62
     0
100
AcDbPoint
 10
1840.626748663615
 20
1163.584404318473
 30
0.0
  0
ENDBLK
  5
72C6
330
72BB
100
AcDbEntity
  8
0
100
AcDbBlockEnd
  0
BLOCK
  5
72DE
330
72D4
100
AcDbEntity
  8
0
100
AcDbBlockBegin
  2
*D9
 70
     1
 10
0.0
 20
0.0
 30
0.0
  3
*D9
  1

  0
LINE
  5
7356
330
72D4
100
AcDbEntity
  8
寸法
  6
Continuous
 62
     4
370
    -2
100
AcDbLine
 10
1555.626748663615
 20
1061.703928966002
 30
0.0
 11
1555.626748663615
 21
1081.584404318473
 31
0.0
  0
LINE
  5
7357
330
72D4
100
AcDbEntity
  8
寸法
  6
Continuous
 62
     4
370
    -2
100
AcDbLine
 10
1840.626748663615
 20
1034.767711870336
 30
0.0
 11
1840.626748663615
 21
1081.584404318473
 31
0.0
  0
LINE
  5
7358
330
72D4
100
AcDbEntity
  8
寸法
  6
Continuous
 62
     4
370
    -2
100
AcDbLine
 10
1556.626748663615
 20
1081.584404318473
 30
0.0
 11
1839.626748663615
 21
1081.584404318473
 31
0.0
  0
INSERT
  5
7359
330
72D4
100
AcDbEntity
  8
寸法
  6
Continuous
 62
     4
370
    -2
100
AcDbBlockReference
  2
_Dot
 10
1555.626748663615
 20
1081.584404318473
 30
0.0
 50
180.0
  0
INSERT
  5
735A
330
72D4
100
AcDbEntity
  8
寸法
  6
Continuous
 62
     4
370
    -2
100
AcDbBlockReference
  2
_Dot
 10
1840.626748663615
 20
1081.584404318473
 30
0.0
  0
MTEXT
  5
735B
330
72D4
100
AcDbEntity
  8
寸法
  6
Continuous
 62
     3
100
AcDbMText
 10
1698.126748663615
 20
1085.084404318473
 30
0.0
 40
5.0
 41
0.0
 71
     5
 72
     1
  1
\A1;A
  7
ACAD
 73
     1
 44
1.0
1001
ACAD
1000
MTEXTBEGIN
1070
    73
1070
     1
1070
    44
1040
1.0
1070
    74
1070
     0
1000
MTEXTEND
  0
POINT
  5
735C
330
72D4
100
AcDbEntity
  8
Defpoints
  6
Continuous
 62
     0
100
AcDbPoint
 10
1555.626748663615
 20
1061.703928966002
 30
0.0
  0
POINT
  5
735D
330
72D4
100
AcDbEntity
  8
Defpoints
  6
Continuous
 62
     0
100
AcDbPoint
 10
1840.626748663615
 20
1034.767711870336
 30
0.0
  0
POINT
  5
735E
330
72D4
100
AcDbEntity
  8
Defpoints
  6
Continuous
 62
     0
100
AcDbPoint
 10
1840.626748663615
 20
1081.584404318473
 30
0.0
  0
ENDBLK
  5
72DF
330
72D4
100
AcDbEntity
  8
0
100
AcDbBlockEnd
  0
BLOCK
  5
72EB
330
72E1
100
AcDbEntity
  8
0
100
AcDbBlockBegin
  2
*D10
 70
     1
 10
0.0
 20
0.0
 30
0.0
  3
*D10
  1

  0
LINE
  5
72E2
330
72E1
100
AcDbEntity
  8
寸法
  6
Continuous
 62
     4
370
    -2
100
AcDbLine
 10
1566.626748663615
 20
1103.584404318473
 30
0.0
 11
1609.126748663615
 21
1103.584404318473
 31
0.0
  0
LINE
  5
72E3
330
72E1
100
AcDbEntity
  8
寸法
  6
Continuous
 62
     4
370
    -2
100
AcDbLine
 10
1576.126748663615
 20
1088.584404318472
 30
0.0
 11
1609.126748663615
 21
1088.584404318472
 31
0.0
  0
LINE
  5
72E4
330
72E1
100
AcDbEntity
  8
寸法
  6
Continuous
 62
     4
370
    -2
100
AcDbLine
 10
1609.126748663615
 20
1102.584404318473
 30
0.0
 11
1609.126748663615
 21
1089.584404318473
 31
0.0
  0
INSERT
  5
72E5
330
72E1
100
AcDbEntity
  8
寸法
  6
Continuous
 62
     4
370
    -2
100
AcDbBlockReference
  2
_Dot
 10
1609.126748663615
 20
1103.584404318473
 30
0.0
 50
90.0
  0
INSERT
  5
72E6
330
72E1
100
AcDbEntity
  8
寸法
  6
Continuous
 62
     4
370
    -2
100
AcDbBlockReference
  2
_Dot
 10
1609.126748663615
 20
1088.584404318472
 30
0.0
 50
270.0
  0
MTEXT
  5
72E7
330
72E1
100
AcDbEntity
  8
寸法
  6
Continuous
 62
     3
100
AcDbMText
 10
1605.626748663615
 20
1096.084404318473
 30
0.0
 40
5.0
 41
0.0
 71
     5
 72
     1
  1
\A1;15
  7
ACAD
 11
0.0000000000000001
 21
1.0
 31
0.0
 73
     1
 44
1.0
1001
ACAD
1000
MTEXTBEGIN
1070
    73
1070
     1
1070
    44
1040
1.0
1070
    74
1070
     0
1000
MTEXTEND
  0
POINT
  5
72E8
330
72E1
100
AcDbEntity
  8
Defpoints
  6
Continuous
 62
     0
100
AcDbPoint
 10
1566.626748663615
 20
1103.584404318473
 30
0.0
  0
POINT
  5
72E9
330
72E1
100
AcDbEntity
  8
Defpoints
  6
Continuous
 62
     0
100
AcDbPoint
 10
1576.126748663615
 20
1088.584404318472
 30
0.0
  0
POINT
  5
72EA
330
72E1
100
AcDbEntity
  8
Defpoints
  6
Continuous
 62
     0
100
AcDbPoint
 10
1609.126748663615
 20
1088.584404318472
 30
0.0
  0
ENDBLK
  5
72EC
330
72E1
100
AcDbEntity
  8
0
100
AcDbBlockEnd
  0
BLOCK
  5
72F8
330
72EE
100
AcDbEntity
  8
0
100
AcDbBlockBegin
  2
*D11
 70
     1
 10
0.0
 20
0.0
 30
0.0
  3
*D11
  1

  0
LINE
  5
72EF
330
72EE
100
AcDbEntity
  8
寸法
  6
Continuous
 62
     4
370
    -2
100
AcDbLine
 10
1576.126748663615
 20
1052.584404318473
 30
0.0
 11
1609.376748663615
 21
1052.584404318473
 31
0.0
  0
LINE
  5
72F0
330
72EE
100
AcDbEntity
  8
寸法
  6
Continuous
 62
     4
370
    -2
100
AcDbLine
 10
1576.126748663615
 20
1088.584404318472
 30
0.0
 11
1609.376748663615
 21
1088.584404318472
 31
0.0
  0
LINE
  5
72F1
330
72EE
100
AcDbEntity
  8
寸法
  6
Continuous
 62
     4
370
    -2
100
AcDbLine
 10
1609.376748663615
 20
1053.584404318473
 30
0.0
 11
1609.376748663615
 21
1087.584404318473
 31
0.0
  0
INSERT
  5
72F2
330
72EE
100
AcDbEntity
  8
寸法
  6
Continuous
 62
     4
370
    -2
100
AcDbBlockReference
  2
_Dot
 10
1609.376748663615
 20
1052.584404318473
 30
0.0
 50
270.0
  0
INSERT
  5
72F3
330
72EE
100
AcDbEntity
  8
寸法
  6
Continuous
 62
     4
370
    -2
100
AcDbBlockReference
  2
_Dot
 10
1609.376748663615
 20
1088.584404318472
 30
0.0
 50
90.0
  0
MTEXT
  5
72F4
330
72EE
100
AcDbEntity
  8
寸法
  6
Continuous
 62
     3
100
AcDbMText
 10
1605.876748663615
 20
1070.584404318473
 30
0.0
 40
5.0
 41
0.0
 71
     5
 72
     1
  1
\A1;36
  7
ACAD
 11
0.0000000000000001
 21
1.0
 31
0.0
 73
     1
 44
1.0
1001
ACAD
1000
MTEXTBEGIN
1070
    73
1070
     1
1070
    44
1040
1.0
1070
    74
1070
     0
1000
MTEXTEND
  0
POINT
  5
72F5
330
72EE
100
AcDbEntity
  8
Defpoints
  6
Continuous
 62
     0
100
AcDbPoint
 10
1576.126748663615
 20
1052.584404318473
 30
0.0
  0
POINT
  5
72F6
330
72EE
100
AcDbEntity
  8
Defpoints
  6
Continuous
 62
     0
100
AcDbPoint
 10
1576.126748663615
 20
1088.584404318472
 30
0.0
  0
POINT
  5
72F7
330
72EE
100
AcDbEntity
  8
Defpoints
  6
Continuous
 62
     0
100
AcDbPoint
 10
1609.376748663615
 20
1088.584404318472
 30
0.0
  0
ENDBLK
  5
72F9
330
72EE
100
AcDbEntity
  8
0
100
AcDbBlockEnd
  0
BLOCK
  5
7305
330
72FB
100
AcDbEntity
  8
0
100
AcDbBlockBegin
  2
*D12
 70
     1
 10
0.0
 20
0.0
 30
0.0
  3
*D12
  1

  0
LINE
  5
72FC
330
72FB
100
AcDbEntity
  8
寸法
  6
Continuous
 62
     4
370
    -2
100
AcDbLine
 10
1842.626748663615
 20
1032.767711870336
 30
0.0
 11
1900.626748663615
 21
1032.767711870336
 31
0.0
  0
LINE
  5
72FD
330
72FB
100
AcDbEntity
  8
寸法
  6
Continuous
 62
     4
370
    -2
100
AcDbLine
 10
1842.626748663615
 20
942.7677118703357
 30
0.0
 11
1900.626748663615
 21
942.7677118703357
 31
0.0
  0
LINE
  5
72FE
330
72FB
100
AcDbEntity
  8
寸法
  6
Continuous
 62
     4
370
    -2
100
AcDbLine
 10
1900.626748663615
 20
1031.767711870336
 30
0.0
 11
1900.626748663615
 21
943.7677118703359
 31
0.0
  0
INSERT
  5
72FF
330
72FB
100
AcDbEntity
  8
寸法
  6
Continuous
 62
     4
370
    -2
100
AcDbBlockReference
  2
_Dot
 10
1900.626748663615
 20
1032.767711870336
 30
0.0
 50
90.0
  0
INSERT
  5
7300
330
72FB
100
AcDbEntity
  8
寸法
  6
Continuous
 62
     4
370
    -2
100
AcDbBlockReference
  2
_Dot
 10
1900.626748663615
 20
942.7677118703357
 30
0.0
 50
270.0
  0
MTEXT
  5
7301
330
72FB
100
AcDbEntity
  8
寸法
  6
Continuous
 62
     3
100
AcDbMText
 10
1897.126748663614
 20
987.7677118703362
 30
0.0
 40
5.0
 41
0.0
 71
     5
 72
     1
  1
\A1;90
  7
ACAD
 11
0.0000000000000001
 21
1.0
 31
0.0
 73
     1
 44
1.0
1001
ACAD
1000
MTEXTBEGIN
1070
    73
1070
     1
1070
    44
1040
1.0
1070
    74
1070
     0
1000
MTEXTEND
  0
POINT
  5
7302
330
72FB
100
AcDbEntity
  8
Defpoints
  6
Continuous
 62
     0
100
AcDbPoint
 10
1842.626748663615
 20
1032.767711870336
 30
0.0
  0
POINT
  5
7303
330
72FB
100
AcDbEntity
  8
Defpoints
  6
Continuous
 62
     0
100
AcDbPoint
 10
1842.626748663615
 20
942.7677118703357
 30
0.0
  0
POINT
  5
7304
330
72FB
100
AcDbEntity
  8
Defpoints
  6
Continuous
 62
     0
100
AcDbPoint
 10
1900.626748663615
 20
942.7677118703357
 30
0.0
  0
ENDBLK
  5
7306
330
72FB
100
AcDbEntity
  8
0
100
AcDbBlockEnd
  0
BLOCK
  5
7312
330
7308
100
AcDbEntity
  8
0
100
AcDbBlockBegin
  2
*D13
 70
     1
 10
0.0
 20
0.0
 30
0.0
  3
*D13
  1

  0
LINE
  5
7370
330
7308
100
AcDbEntity
  8
寸法
  6
Continuous
 62
     4
370
    -2
100
AcDbLine
 10
1768.330475142241
 20
985.6923654810112
 30
0.0
 11
1880.626748663615
 21
985.692365481011
 31
0.0
  0
LINE
  5
7371
330
7308
100
AcDbEntity
  8
寸法
  6
Continuous
 62
     4
370
    -2
100
AcDbLine
 10
1842.626748663615
 20
942.7677118703357
 30
0.0
 11
1880.626748663615
 21
942.7677118703357
 31
0.0
  0
LINE
  5
7372
330
7308
100
AcDbEntity
  8
寸法
  6
Continuous
 62
     4
370
    -2
100
AcDbLine
 10
1880.626748663615
 20
984.692365481011
 30
0.0
 11
1880.626748663615
 21
943.7677118703359
 31
0.0
  0
INSERT
  5
7373
330
7308
100
AcDbEntity
  8
寸法
  6
Continuous
 62
     4
370
    -2
100
AcDbBlockReference
  2
_Dot
 10
1880.626748663615
 20
985.692365481011
 30
0.0
 50
90.0
  0
INSERT
  5
7374
330
7308
100
AcDbEntity
  8
寸法
  6
Continuous
 62
     4
370
    -2
100
AcDbBlockReference
  2
_Dot
 10
1880.626748663615
 20
942.7677118703357
 30
0.0
 50
270.0
  0
MTEXT
  5
7375
330
7308
100
AcDbEntity
  8
寸法
  6
Continuous
 62
     3
100
AcDbMText
 10
1877.126748663615
 20
964.2300386756737
 30
0.0
 40
5.0
 41
0.0
 71
     5
 72
     1
  1
\A1;44
  7
ACAD
 11
0.0000000000000001
 21
1.0
 31
0.0
 73
     1
 44
1.0
1001
ACAD
1000
MTEXTBEGIN
1070
    73
1070
     1
1070
    44
1040
1.0
1070
    74
1070
     0
1000
MTEXTEND
  0
POINT
  5
7376
330
7308
100
AcDbEntity
  8
Defpoints
  6
Continuous
 62
     0
100
AcDbPoint
 10
1768.330475142241
 20
985.6923654810112
 30
0.0
  0
POINT
  5
7377
330
7308
100
AcDbEntity
  8
Defpoints
  6
Continuous
 62
     0
100
AcDbPoint
 10
1842.626748663615
 20
942.7677118703357
 30
0.0
  0
POINT
  5
7378
330
7308
100
AcDbEntity
  8
Defpoints
  6
Continuous
 62
     0
100
AcDbPoint
 10
1880.626748663615
 20
942.7677118703357
 30
0.0
  0
ENDBLK
  5
7313
330
7308
100
AcDbEntity
  8
0
100
AcDbBlockEnd
  0
BLOCK
  5
731E
330
7315
100
AcDbEntity
  8
0
100
AcDbBlockBegin
  2
*D14
 70
     1
 10
0.0
 20
0.0
 30
0.0
  3
*D14
  1

  0
LINE
  5
737A
330
7315
100
AcDbEntity
  8
寸法
  6
Continuous
 62
     4
370
    -2
100
AcDbLine
 10
1840.626748663615
 20
940.7677118703357
 30
0.0
 11
1840.626748663615
 21
870.6923654810109
 31
0.0
  0
LINE
  5
737B
330
7315
100
AcDbEntity
  8
寸法
  6
Continuous
 62
     4
370
    -2
100
AcDbLine
 10
1839.626748663615
 20
870.6923654810109
 30
0.0
 11
1765.626748663615
 21
870.6923654810109
 31
0.0
  0
INSERT
  5
737C
330
7315
100
AcDbEntity
  8
寸法
  6
Continuous
 62
     4
370
    -2
100
AcDbBlockReference
  2
_Dot
 10
1840.626748663615
 20
870.6923654810109
 30
0.0
  0
INSERT
  5
737D
330
7315
100
AcDbEntity
  8
寸法
  6
Continuous
 62
     4
370
    -2
100
AcDbBlockReference
  2
_Dot
 10
1764.626748663616
 20
870.6923654810109
 30
0.0
 50
180.0
  0
MTEXT
  5
737E
330
7315
100
AcDbEntity
  8
寸法
  6
Continuous
 62
     3
100
AcDbMText
 10
1802.626748663615
 20
874.192365481011
 30
0.0
 40
5.0
 41
0.0
 71
     5
 72
     1
  1
\A1;75≦
  7
ACAD
 73
     1
 44
1.0
1001
ACAD
1000
MTEXTBEGIN
1070
    73
1070
     1
1070
    44
1040
1.0
1070
    74
1070
     0
1000
MTEXTEND
  0
POINT
  5
737F
330
7315
100
AcDbEntity
  8
Defpoints
  6
Continuous
 62
     0
100
AcDbPoint
 10
1840.626748663615
 20
940.7677118703357
 30
0.0
  0
POINT
  5
7380
330
7315
100
AcDbEntity
  8
Defpoints
  6
Continuous
 62
     0
100
AcDbPoint
 10
1764.626748663616
 20
870.6923654810109
 30
0.0
  0
POINT
  5
7381
330
7315
100
AcDbEntity
  8
Defpoints
  6
Continuous
 62
     0
100
AcDbPoint
 10
1764.626748663616
 20
870.6923654810109
 30
0.0
  0
ENDBLK
  5
731F
330
7315
100
AcDbEntity
  8
0
100
AcDbBlockEnd
  0
BLOCK
  5
7329
330
7321
100
AcDbEntity
  8
0
100
AcDbBlockBegin
  2
*D15
 70
     1
 10
0.0
 20
0.0
 30
0.0
  3
*D15
  1

  0
LINE
  5
7322
330
7321
100
AcDbEntity
  8
寸法
  6
Continuous
 62
     4
370
    -2
100
AcDbLine
 10
1763.626748663615
 20
925.6923654810112
 30
0.0
 11
1715.626748663615
 21
925.6923654810112
 31
0.0
  0
INSERT
  5
7323
330
7321
100
AcDbEntity
  8
寸法
  6
Continuous
 62
     4
370
    -2
100
AcDbBlockReference
  2
_Dot
 10
1764.626748663615
 20
925.6923654810112
 30
0.0
  0
INSERT
  5
7324
330
7321
100
AcDbEntity
  8
寸法
  6
Continuous
 62
     4
370
    -2
100
AcDbBlockReference
  2
_Dot
 10
1714.626748663615
 20
925.6923654810112
 30
0.0
 50
180.0
  0
MTEXT
  5
7325
330
7321
100
AcDbEntity
  8
寸法
  6
Continuous
 62
     3
100
AcDbMText
 10
1739.626748663615
 20
929.1923654810112
 30
0.0
 40
5.0
 41
0.0
 71
     5
 72
     1
  1
\A1;50
  7
ACAD
 73
     1
 44
1.0
1001
ACAD
1000
MTEXTBEGIN
1070
    73
1070
     1
1070
    44
1040
1.0
1070
    74
1070
     0
1000
MTEXTEND
  0
POINT
  5
7326
330
7321
100
AcDbEntity
  8
Defpoints
  6
Continuous
 62
     0
100
AcDbPoint
 10
1764.626748663615
 20
925.6923654810112
 30
0.0
  0
POINT
  5
7327
330
7321
100
AcDbEntity
  8
Defpoints
  6
Continuous
 62
     0
100
AcDbPoint
 10
1714.626748663615
 20
925.6923654810112
 30
0.0
  0
POINT
  5
7328
330
7321
100
AcDbEntity
  8
Defpoints
  6
Continuous
 62
     0
100
AcDbPoint
 10
1714.626748663615
 20
925.6923654810112
 30
0.0
  0
ENDBLK
  5
732A
330
7321
100
AcDbEntity
  8
0
100
AcDbBlockEnd
  0
BLOCK
  5
7334
330
732C
100
AcDbEntity
  8
0
100
AcDbBlockBegin
  2
*D16
 70
     1
 10
0.0
 20
0.0
 30
0.0
  3
*D16
  1

  0
LINE
  5
732D
330
732C
100
AcDbEntity
  8
寸法
  6
Continuous
 62
     4
370
    -2
100
AcDbLine
 10
1540.626748663615
 20
870.6923654810109
 30
0.0
 11
1638.626748663616
 21
870.6923654810109
 31
0.0
  0
INSERT
  5
732E
330
732C
100
AcDbEntity
  8
寸法
  6
Continuous
 62
     4
370
    -2
100
AcDbBlockReference
  2
_Dot
 10
1539.626748663615
 20
870.6923654810109
 30
0.0
 50
180.0
  0
INSERT
  5
732F
330
732C
100
AcDbEntity
  8
寸法
  6
Continuous
 62
     4
370
    -2
100
AcDbBlockReference
  2
_Dot
 10
1639.626748663615
 20
870.6923654810109
 30
0.0
  0
MTEXT
  5
7330
330
732C
100
AcDbEntity
  8
寸法
  6
Continuous
 62
     3
100
AcDbMText
 10
1589.626748663615
 20
874.192365481011
 30
0.0
 40
5.0
 41
0.0
 71
     5
 72
     1
  1
\A1;100
  7
ACAD
 73
     1
 44
1.0
1001
ACAD
1000
MTEXTBEGIN
1070
    73
1070
     1
1070
    44
1040
1.0
1070
    74
1070
     0
1000
MTEXTEND
  0
POINT
  5
7331
330
732C
100
AcDbEntity
  8
Defpoints
  6
Continuous
 62
     0
100
AcDbPoint
 10
1539.626748663615
 20
870.6923654810109
 30
0.0
  0
POINT
  5
7332
330
732C
100
AcDbEntity
  8
Defpoints
  6
Continuous
 62
     0
100
AcDbPoint
 10
1639.626748663615
 20
870.6923654810109
 30
0.0
  0
POINT
  5
7333
330
732C
100
AcDbEntity
  8
Defpoints
  6
Continuous
 62
     0
100
AcDbPoint
 10
1639.626748663615
 20
870.6923654810109
 30
0.0
  0
ENDBLK
  5
7335
330
732C
100
AcDbEntity
  8
0
100
AcDbBlockEnd
  0
BLOCK
  5
7340
330
7337
100
AcDbEntity
  8
0
100
AcDbBlockBegin
  2
*D17
 70
     1
 10
0.0
 20
0.0
 30
0.0
  3
*D17
  1

  0
LINE
  5
7382
330
7337
100
AcDbEntity
  8
寸法
  6
Continuous
 62
     4
370
    -2
100
AcDbLine
 10
1639.831671367693
 20
870.5491639260129
 30
0.0
 11
1639.831671367693
 21
870.442365481011
 31
0.0
  0
LINE
  5
7383
330
7337
100
AcDbEntity
  8
寸法
  6
Continuous
 62
     4
370
    -2
100
AcDbLine
 10
1640.831671367692
 20
870.442365481011
 30
0.0
 11
1763.626748663616
 21
870.442365481011
 31
0.0
  0
INSERT
  5
7384
330
7337
100
AcDbEntity
  8
寸法
  6
Continuous
 62
     4
370
    -2
100
AcDbBlockReference
  2
_Dot
 10
1639.831671367693
 20
870.442365481011
 30
0.0
 50
180.0
  0
INSERT
  5
7385
330
7337
100
AcDbEntity
  8
寸法
  6
Continuous
 62
     4
370
    -2
100
AcDbBlockReference
  2
_Dot
 10
1764.626748663616
 20
870.442365481011
 30
0.0
  0
MTEXT
  5
7386
330
7337
100
AcDbEntity
  8
寸法
  6
Continuous
 62
     3
100
AcDbMText
 10
1702.229210015654
 20
873.9423654810108
 30
0.0
 40
5.0
 41
0.0
 71
     5
 72
     1
  1
\A1;≦C
  7
ACAD
 73
     1
 44
1.0
1001
ACAD
1000
MTEXTBEGIN
1070
    73
1070
     1
1070
    44
1040
1.0
1070
    74
1070
     0
1000
MTEXTEND
  0
POINT
  5
7387
330
7337
100
AcDbEntity
  8
Defpoints
  6
Continuous
 62
     0
100
AcDbPoint
 10
1639.831671367693
 20
870.5491639260129
 30
0.0
  0
POINT
  5
7388
330
7337
100
AcDbEntity
  8
Defpoints
  6
Continuous
 62
     0
100
AcDbPoint
 10
1764.626748663616
 20
870.442365481011
 30
0.0
  0
POINT
  5
7389
330
7337
100
AcDbEntity
  8
Defpoints
  6
Continuous
 62
     0
100
AcDbPoint
 10
1764.626748663616
 20
870.442365481011
 30
0.0
  0
ENDBLK
  5
7341
330
7337
100
AcDbEntity
  8
0
100
AcDbBlockEnd
  0
ENDSEC
  0
SECTION
  2
ENTITIES
  0
CIRCLE
  5
6D0F
330
1E
100
AcDbEntity
  8
図枠
  6
Continuous
 62
     4
100
AcDbCircle
 10
1567.147891542884
 20
1087.841208910482
 30
0.0
 40
0.9
  0
CIRCLE
  5
6D10
330
1E
100
AcDbEntity
  8
図枠
  6
Continuous
 62
     4
100
AcDbCircle
 10
1546.597161129619
 20
1077.321791290649
 30
0.0
 40
0.9
  0
CIRCLE
  5
6D11
330
1E
100
AcDbEntity
  8
図枠
  6
Continuous
 62
     4
100
AcDbCircle
 10
1571.844447801755
 20
1069.044097054634
 30
0.0
 40
0.9
  0
CIRCLE
  5
6D12
330
1E
100
AcDbEntity
  8
図枠
  6
Continuous
 62
     4
100
AcDbCircle
 10
1571.347642912201
 20
1049.985870845588
 30
0.0
 40
0.9
  0
CIRCLE
  5
6D13
330
1E
100
AcDbEntity
  8
図枠
  6
Continuous
 62
     4
100
AcDbCircle
 10
1550.768658437021
 20
1095.840633708542
 30
0.0
 40
0.9
  0
CIRCLE
  5
6D14
330
1E
100
AcDbEntity
  8
図枠
  6
Continuous
 62
     4
100
AcDbCircle
 10
1598.239250609031
 20
1003.408240017468
 30
0.0
 40
6.0
  0
TEXT
  5
6D15
330
1E
100
AcDbEntity
  8
図枠
 62
     7
100
AcDbText
 10
1594.989250609031
 20
1000.408240017468
 30
0.0
 40
5.0
  1
13
100
AcDbText
  0
LINE
  5
6D16
330
1E
100
AcDbEntity
  8
図枠
  6
Continuous
 62
     4
100
AcDbLine
 10
1571.347642912201
 20
1049.985870845588
 30
0.0
 11
1595.239250609031
 21
1008.604392440175
 31
0.0
  0
TEXT
  5
6D17
330
1E
100
AcDbEntity
  8
図枠
 62
     7
100
AcDbText
 10
1593.063304188031
 20
1108.425399518772
 30
0.0
 40
5.0
  1
10
100
AcDbText
  0
CIRCLE
  5
6D18
330
1E
100
AcDbEntity
  8
図枠
  6
Continuous
 62
     4
100
AcDbCircle
 10
1596.313304188031
 20
1111.425399518772
 30
0.0
 40
6.0
  0
LINE
  5
6D19
330
1E
100
AcDbEntity
  8
図枠
  6
Continuous
 62
     4
100
AcDbLine
 10
1571.844447801755
 20
1069.044097054634
 30
0.0
 11
1593.313304188032
 21
1106.229247096065
 31
0.0
  0
CIRCLE
  5
6D1A
330
1E
100
AcDbEntity
  8
図枠
  6
Continuous
 62
     4
100
AcDbCircle
 10
1588.384713047713
 20
1124.624462748119
 30
0.0
 40
6.0
  0
TEXT
  5
6D1B
330
1E
100
AcDbEntity
  8
図枠
 62
     7
100
AcDbText
 10
1585.384713047714
 20
1121.62446274812
 30
0.0
 40
5.0
  1
２
100
AcDbText
  0
LINE
  5
6D1C
330
1E
100
AcDbEntity
  8
図枠
  6
Continuous
 62
     4
100
AcDbLine
 10
1567.147891542884
 20
1087.841208910482
 30
0.0
 11
1585.384713047714
 21
1119.428310325413
 31
0.0
  0
CIRCLE
  5
6D1D
330
1E
100
AcDbEntity
  8
図枠
  6
Continuous
 62
     4
100
AcDbCircle
 10
1527.958642219269
 20
1135.348740719157
 30
0.0
 40
6.0
  0
TEXT
  5
6D1E
330
1E
100
AcDbEntity
  8
図枠
 62
     7
100
AcDbText
 10
1524.70864221927
 20
1132.348740719157
 30
0.0
 40
5.0
  1
15
100
AcDbText
  0
LINE
  5
6D1F
330
1E
100
AcDbEntity
  8
図枠
  6
Continuous
 62
     4
100
AcDbLine
 10
1550.768658437021
 20
1095.840633708542
 30
0.0
 11
1530.95864221927
 21
1130.15258829645
 31
0.0
  0
CIRCLE
  5
6D20
330
1E
100
AcDbEntity
  8
図枠
  6
Continuous
 62
     4
100
AcDbCircle
 10
1525.478045886946
 20
1113.901171901861
 30
0.0
 40
6.0
  0
TEXT
  5
6D21
330
1E
100
AcDbEntity
  8
図枠
 62
     7
100
AcDbText
 10
1522.478045886946
 20
1110.901171901861
 30
0.0
 40
5.0
  1
４
100
AcDbText
  0
LINE
  5
6D22
330
1E
100
AcDbEntity
  8
図枠
  6
Continuous
 62
     4
100
AcDbLine
 10
1546.597161129619
 20
1077.321791290649
 30
0.0
 11
1528.478045886946
 21
1108.705019479155
 31
0.0
  0
CIRCLE
  5
6D23
330
1E
100
AcDbEntity
  8
図枠
  6
Continuous
 62
     4
100
AcDbCircle
 10
1546.989752507858
 20
1046.503638723006
 30
0.0
 40
0.9
  0
CIRCLE
  5
6D24
330
1E
100
AcDbEntity
  8
図枠
  6
Continuous
 62
     4
100
AcDbCircle
 10
1507.693109020772
 20
1047.485976139274
 30
0.0
 40
0.9
  0
TEXT
  5
6D25
330
1E
100
AcDbEntity
  8
図枠
 62
     7
100
AcDbText
 10
1491.944984913686
 20
1066.133362092049
 30
0.0
 40
5.0
  1
18
100
AcDbText
  0
LINE
  5
6D26
330
1E
100
AcDbEntity
  8
図枠
  6
Continuous
 62
     4
100
AcDbLine
 10
1507.693109020772
 20
1047.485976139274
 30
0.0
 11
1498.194984913686
 21
1063.937209669342
 31
0.0
  0
CIRCLE
  5
6D27
330
1E
100
AcDbEntity
  8
図枠
  6
Continuous
 62
     4
100
AcDbCircle
 10
1495.194984913686
 20
1069.133362092049
 30
0.0
 40
6.0
  0
CIRCLE
  5
6D28
330
1E
100
AcDbEntity
  8
図枠
  6
Continuous
 62
     4
100
AcDbCircle
 10
1523.261288926036
 20
1070.232102304828
 30
0.0
 40
6.0
  0
LINE
  5
6D29
330
1E
100
AcDbEntity
  8
図枠
  6
Continuous
 62
     4
100
AcDbLine
 10
1546.989752507858
 20
1046.503638723006
 30
0.0
 11
1527.503929613155
 21
1065.989461617709
 31
0.0
  0
TEXT
  5
6D2A
330
1E
100
AcDbEntity
  8
図枠
 62
     7
100
AcDbText
 10
1520.011288926036
 20
1067.232102304828
 30
0.0
 40
5.0
  1
19
100
AcDbText
  0
CIRCLE
  5
6D2B
330
1E
100
AcDbEntity
  8
図枠
  6
Continuous
 62
     4
100
AcDbCircle
 10
1544.910551551464
 20
1037.968076090285
 30
0.0
 40
0.9
  0
LINE
  5
6D2C
330
1E
100
AcDbEntity
  8
図枠
  6
Continuous
 62
     4
100
AcDbLine
 10
1544.910551551464
 20
1037.968076090285
 30
0.0
 11
1529.680901476477
 21
1029.175233519827
 31
0.0
  0
TEXT
  5
6D2D
330
1E
100
AcDbEntity
  8
図枠
 62
     7
100
AcDbText
 10
1521.234749053771
 20
1023.175233519827
 30
0.0
 40
5.0
  1
21
100
AcDbText
  0
CIRCLE
  5
6D2E
330
1E
100
AcDbEntity
  8
図枠
  6
Continuous
 62
     4
100
AcDbCircle
 10
1524.484749053771
 20
1026.175233519827
 30
0.0
 40
6.0
  0
CIRCLE
  5
6D2F
330
1E
100
AcDbEntity
  8
図枠
  6
Continuous
 62
     4
100
AcDbCircle
 10
1563.473050163243
 20
909.8337297603341
 30
0.0
 40
0.9
  0
LINE
  5
6D30
330
1E
100
AcDbEntity
  8
図枠
  6
Continuous
 62
     4
100
AcDbLine
 10
1563.473050163243
 20
909.8337297603341
 30
0.0
 11
1577.356337349665
 21
933.8802885432865
 31
0.0
  0
TEXT
  5
6D31
330
1E
100
AcDbEntity
  8
図枠
 62
     7
100
AcDbText
 10
1577.106337349665
 20
936.0764409659932
 30
0.0
 40
5.0
  1
12
100
AcDbText
  0
CIRCLE
  5
6D32
330
1E
100
AcDbEntity
  8
図枠
  6
Continuous
 62
     4
100
AcDbCircle
 10
1580.356337349665
 20
939.0764409659933
 30
0.0
 40
6.0
  0
LINE
  5
6D33
330
1E
100
AcDbEntity
  8
躯体と製品
  6
Continuous
 62
     7
100
AcDbLine
 10
1639.626748663615
 20
985.6923654810112
 30
0.0
 11
1639.626748663615
 21
855.6923654810111
 31
0.0
  0
ARC
  5
6D34
330
1E
100
AcDbEntity
  8
躯体と製品
  6
Continuous
 62
     7
100
AcDbCircle
 10
1639.643413015949
 20
984.6925043409715
 30
0.0
 40
2.0
100
AcDbArc
 50
90.67517081899364
 51
175.0000000000005
  0
LINE
  5
6D35
330
1E
100
AcDbEntity
  8
図枠
  6
Continuous
 62
     7
100
AcDbLine
 10
1278.626748663615
 20
616.3821709989349
 30
0.0
 11
2102.626748663615
 21
616.3821709989349
 31
0.0
  0
LINE
  5
6D36
330
1E
100
AcDbEntity
  8
図枠
  6
Continuous
 62
     7
100
AcDbLine
 10
2102.626748663615
 20
616.3821709989349
 30
0.0
 11
2102.626748663615
 21
1192.382170998935
 31
0.0
  0
LINE
  5
6D37
330
1E
100
AcDbEntity
  8
図枠
  6
Continuous
 62
     7
100
AcDbLine
 10
2102.626748663615
 20
1192.382170998935
 30
0.0
 11
1278.626748663615
 21
1192.382170998935
 31
0.0
  0
LINE
  5
6D38
330
1E
100
AcDbEntity
  8
図枠
  6
Continuous
 62
     7
100
AcDbLine
 10
1278.626748663615
 20
1192.382170998935
 30
0.0
 11
1278.626748663615
 21
616.3821709989349
 31
0.0
  0
TEXT
  5
6D39
330
1E
100
AcDbEntity
  8
図枠
 62
     7
100
AcDbText
 10
1446.126748663615
 20
836.8821709989349
 30
0.0
 40
5.0
  1
部材名称
100
AcDbText
  0
TEXT
  5
6D3A
330
1E
100
AcDbEntity
  8
図枠
 62
     7
100
AcDbText
 10
1547.126748663615
 20
836.8821709989349
 30
0.0
 40
5.0
  1
規　格
100
AcDbText
  0
TEXT
  5
6D3B
330
1E
100
AcDbEntity
  8
図枠
 62
     7
100
AcDbText
 10
1414.626748663615
 20
827.8821709989349
 30
0.0
 40
5.0
  1
ＦＹＫキャップＡ
100
AcDbText
  0
TEXT
  5
6D3C
330
1E
100
AcDbEntity
  8
図枠
 62
     7
100
AcDbText
 10
1414.626748663615
 20
818.8821709989349
 30
0.0
 40
5.0
  1
ＦＹＫサイドキャップＡ
100
AcDbText
  0
TEXT
  5
6D3D
330
1E
100
AcDbEntity
  8
図枠
 62
     7
100
AcDbText
 10
1414.626748663615
 20
809.8821709989348
 30
0.0
 40
5.0
  1
ＦＹＹフレーム
100
AcDbText
  0
TEXT
  5
6D3E
330
1E
100
AcDbEntity
  8
図枠
 62
     7
100
AcDbText
 10
1414.626748663615
 20
800.882170998935
 30
0.0
 40
5.0
  1
ＦＹＫ壁フレーム
100
AcDbText
  0
TEXT
  5
6D3F
330
1E
100
AcDbEntity
  8
図枠
 62
     7
100
AcDbText
 10
1414.626748663615
 20
782.8821709989349
 30
0.0
 40
5.0
  1
ＦＹＫホルダー
100
AcDbText
  0
TEXT
  5
6D40
330
1E
100
AcDbEntity
  8
図枠
 62
     7
100
AcDbText
 10
1414.626748663615
 20
773.8821709989349
 30
0.0
 40
5.0
  1
ＦＹＹホルダースプリング
100
AcDbText
  0
TEXT
  5
6D41
330
1E
100
AcDbEntity
  8
図枠
 62
     7
100
AcDbText
 10
1414.626748663615
 20
764.8821709989349
 30
0.0
 40
5.0
  1
ＦＹＹフレームナット
100
AcDbText
  0
TEXT
  5
6D42
330
1E
100
AcDbEntity
  8
図枠
 62
     7
100
AcDbText
 10
1414.626748663615
 20
755.8821709989349
 30
0.0
 40
5.0
  1
ＦＹＫ水切ジョイント
100
AcDbText
  0
TEXT
  5
6D43
330
1E
100
AcDbEntity
  8
図枠
 62
     7
100
AcDbText
 10
1414.626748663615
 20
746.8821709989349
 30
0.0
 40
5.0
  1
ＦＹＫｻｲﾄﾞｷｬｯﾌﾟ ｼﾞｮｲﾝﾄ
100
AcDbText
  0
TEXT
  5
6D44
330
1E
100
AcDbEntity
  8
図枠
 62
     7
100
AcDbText
 10
1414.626748663615
 20
737.8821709989349
 30
0.0
 40
5.0
  1
止水補助板
100
AcDbText
  0
TEXT
  5
6D45
330
1E
100
AcDbEntity
  8
図枠
 62
     7
100
AcDbText
 10
1514.626748663615
 20
737.8821709989349
 30
0.0
 40
5.0
  1
ＰＳ
100
AcDbText
  0
TEXT
  5
6D46
330
1E
100
AcDbEntity
  8
図枠
 62
     7
100
AcDbText
 10
1414.626748663615
 20
728.8821709989349
 30
0.0
 40
5.0
  1
止水補助板
100
AcDbText
  0
TEXT
  5
6D47
330
1E
100
AcDbEntity
  8
図枠
 62
     7
100
AcDbText
 10
1414.626748663615
 20
719.8821709989349
 30
0.0
 40
5.0
  1
ガスケットＮ
100
AcDbText
  0
TEXT
  5
6D48
330
1E
100
AcDbEntity
  8
図枠
 62
     7
100
AcDbText
 10
1414.626748663615
 20
710.8821709989349
 30
0.0
 40
5.0
  1
ステン小ネジ
100
AcDbText
  0
TEXT
  5
6D49
330
1E
100
AcDbEntity
  8
図枠
 62
     7
100
AcDbText
 10
1514.626748663615
 20
710.8821709989349
 30
0.0
 40
5.0
  1
ナベＭ6×35
100
AcDbText
  0
TEXT
  5
6D4A
330
1E
100
AcDbEntity
  8
図枠
 62
     7
100
AcDbText
 10
1414.626748663615
 20
701.8821709989349
 30
0.0
 40
5.0
  1
ステン小ネジ
100
AcDbText
  0
TEXT
  5
6D4B
330
1E
100
AcDbEntity
  8
図枠
 62
     7
100
AcDbText
 10
1514.626748663615
 20
701.8821709989349
 30
0.0
 40
5.0
  1
ナベＭ4×10
100
AcDbText
  0
TEXT
  5
6D4C
330
1E
100
AcDbEntity
  8
図枠
 62
     7
100
AcDbText
 10
1414.626748663615
 20
692.882170998935
 30
0.0
 40
5.0
  1
ステン六角ボルト
100
AcDbText
  0
TEXT
  5
6D4D
330
1E
100
AcDbEntity
  8
図枠
 62
     7
100
AcDbText
 10
1514.626748663615
 20
692.882170998935
 30
0.0
 40
5.0
  1
Ｍ6×40
100
AcDbText
  0
TEXT
  5
6D4E
330
1E
100
AcDbEntity
  8
図枠
 62
     7
100
AcDbText
 10
1414.626748663615
 20
683.8821709989349
 30
0.0
 40
5.0
  1
アジャストアンカー
100
AcDbText
  0
TEXT
  5
6D4F
330
1E
100
AcDbEntity
  8
図枠
 62
     7
100
AcDbText
 10
1514.626748663615
 20
683.8821709989349
 30
0.0
 40
5.0
  1
ＡＧ－660
100
AcDbText
  0
TEXT
  5
6D50
330
1E
100
AcDbEntity
  8
図枠
 62
     7
100
AcDbText
 10
1414.626748663615
 20
674.8821709989349
 30
0.0
 40
5.0
  1
アンカープラグ
100
AcDbText
  0
TEXT
  5
6D51
330
1E
100
AcDbEntity
  8
図枠
 62
     7
100
AcDbText
 10
1514.626748663615
 20
674.8821709989349
 30
0.0
 40
5.0
  1
フィッシャープラグ　Ｓ8
100
AcDbText
  0
TEXT
  5
6D52
330
1E
100
AcDbEntity
  8
図枠
 62
     7
100
AcDbText
 10
1414.626748663615
 20
665.8821709989349
 30
0.0
 40
5.0
  1
ステンタッピンねじ
100
AcDbText
  0
TEXT
  5
6D53
330
1E
100
AcDbEntity
  8
図枠
 62
     7
100
AcDbText
 10
1514.626748663615
 20
665.8821709989349
 30
0.0
 40
5.0
  1
ナベ 5×50
100
AcDbText
  0
TEXT
  5
6D54
330
1E
100
AcDbEntity
  8
図枠
 62
     7
100
AcDbText
 10
1414.626748663615
 20
656.8821709989349
 30
0.0
 40
5.0
  1
ステスワッシャー
100
AcDbText
  0
TEXT
  5
6D55
330
1E
100
AcDbEntity
  8
図枠
 62
     7
100
AcDbText
 10
1514.626748663615
 20
656.8821709989349
 30
0.0
 40
5.0
  1
1.5×18×6.5穴
100
AcDbText
  0
TEXT
  5
6D56
330
1E
100
AcDbEntity
  8
図枠
 62
     7
100
AcDbText
 10
1414.626748663615
 20
647.8821709989349
 30
0.0
 40
5.0
  1
ステンワッシャー
100
AcDbText
  0
TEXT
  5
6D57
330
1E
100
AcDbEntity
  8
図枠
 62
     7
100
AcDbText
 10
1514.626748663615
 20
647.8821709989349
 30
0.0
 40
5.0
  1
1.5×18×5.5穴
100
AcDbText
  0
TEXT
  5
6D58
330
1E
100
AcDbEntity
  8
図枠
 62
     7
100
AcDbText
 10
1414.626748663615
 20
638.882170998935
 30
0.0
 40
5.0
  1
ブチルテープ
100
AcDbText
  0
TEXT
  5
6D59
330
1E
100
AcDbEntity
  8
図枠
 62
     7
100
AcDbText
 10
1514.626748663615
 20
638.882170998935
 30
0.0
 40
5.0
  1
ｔ1.0×ｗ30
100
AcDbText
  0
LINE
  5
6D5A
330
1E
100
AcDbEntity
  8
図枠
  6
Continuous
 62
     7
100
AcDbLine
 10
1409.626748663615
 20
637.3821709989349
 30
0.0
 11
1409.626748663615
 21
844.3821709989348
 31
0.0
  0
LINE
  5
6D5B
330
1E
100
AcDbEntity
  8
図枠
  6
Continuous
 62
     7
100
AcDbLine
 10
1509.626748663615
 20
637.3821709989349
 30
0.0
 11
1509.626748663615
 21
844.3821709989348
 31
0.0
  0
LINE
  5
6D5C
330
1E
100
AcDbEntity
  8
図枠
  6
Continuous
 62
     7
100
AcDbLine
 10
1604.626748663615
 20
637.3821709989349
 30
0.0
 11
1604.626748663615
 21
844.3821709989348
 31
0.0
  0
LINE
  5
6D5D
330
1E
100
AcDbEntity
  8
図枠
  6
Continuous
 62
     7
100
AcDbLine
 10
1605.626748663615
 20
637.3821709989349
 30
0.0
 11
1605.626748663615
 21
844.3821709989348
 31
0.0
  0
LINE
  5
6D5E
330
1E
100
AcDbEntity
  8
図枠
  6
Continuous
 62
     7
100
AcDbLine
 10
1640.626748663615
 20
637.3821709989349
 30
0.0
 11
1640.626748663615
 21
844.3821709989348
 31
0.0
  0
LINE
  5
6D5F
330
1E
100
AcDbEntity
  8
図枠
  6
Continuous
 62
     7
100
AcDbLine
 10
1658.626748663615
 20
637.3821709989349
 30
0.0
 11
1658.626748663615
 21
844.3821709989348
 31
0.0
  0
LINE
  5
6D60
330
1E
100
AcDbEntity
  8
図枠
  6
Continuous
 62
     7
100
AcDbLine
 10
1604.626748663615
 20
844.3821709989348
 30
0.0
 11
1395.626748663615
 21
844.3821709989348
 31
0.0
  0
LINE
  5
6D61
330
1E
100
AcDbEntity
  8
図枠
  6
Continuous
 62
     7
100
AcDbLine
 10
1604.626748663615
 20
835.3821709989349
 30
0.0
 11
1395.626748663615
 21
835.3821709989349
 31
0.0
  0
LINE
  5
6D62
330
1E
100
AcDbEntity
  8
図枠
  6
Continuous
 62
     7
100
AcDbLine
 10
1604.626748663615
 20
826.3821709989349
 30
0.0
 11
1395.626748663615
 21
826.3821709989349
 31
0.0
  0
LINE
  5
6D63
330
1E
100
AcDbEntity
  8
図枠
  6
Continuous
 62
     7
100
AcDbLine
 10
1604.626748663615
 20
817.3821709989349
 30
0.0
 11
1395.626748663615
 21
817.3821709989349
 31
0.0
  0
LINE
  5
6D64
330
1E
100
AcDbEntity
  8
図枠
  6
Continuous
 62
     7
100
AcDbLine
 10
1604.626748663615
 20
808.3821709989349
 30
0.0
 11
1395.626748663615
 21
808.3821709989349
 31
0.0
  0
LINE
  5
6D65
330
1E
100
AcDbEntity
  8
図枠
  6
Continuous
 62
     7
100
AcDbLine
 10
1604.626748663615
 20
799.3821709989349
 30
0.0
 11
1395.626748663615
 21
799.3821709989349
 31
0.0
  0
LINE
  5
6D66
330
1E
100
AcDbEntity
  8
図枠
  6
Continuous
 62
     7
100
AcDbLine
 10
1604.626748663615
 20
790.3821709989349
 30
0.0
 11
1395.626748663615
 21
790.3821709989349
 31
0.0
  0
LINE
  5
6D67
330
1E
100
AcDbEntity
  8
図枠
  6
Continuous
 62
     7
100
AcDbLine
 10
1604.626748663615
 20
781.3821709989349
 30
0.0
 11
1395.626748663615
 21
781.3821709989349
 31
0.0
  0
LINE
  5
6D68
330
1E
100
AcDbEntity
  8
図枠
  6
Continuous
 62
     7
100
AcDbLine
 10
1604.626748663615
 20
772.382170998935
 30
0.0
 11
1395.626748663615
 21
772.382170998935
 31
0.0
  0
LINE
  5
6D69
330
1E
100
AcDbEntity
  8
図枠
  6
Continuous
 62
     7
100
AcDbLine
 10
1604.626748663615
 20
763.3821709989349
 30
0.0
 11
1395.626748663615
 21
763.3821709989349
 31
0.0
  0
LINE
  5
6D6A
330
1E
100
AcDbEntity
  8
図枠
  6
Continuous
 62
     7
100
AcDbLine
 10
1604.626748663615
 20
754.3821709989349
 30
0.0
 11
1395.626748663615
 21
754.3821709989349
 31
0.0
  0
LINE
  5
6D6B
330
1E
100
AcDbEntity
  8
図枠
  6
Continuous
 62
     7
100
AcDbLine
 10
1604.626748663615
 20
745.3821709989349
 30
0.0
 11
1395.626748663615
 21
745.3821709989349
 31
0.0
  0
LINE
  5
6D6C
330
1E
100
AcDbEntity
  8
図枠
  6
Continuous
 62
     7
100
AcDbLine
 10
1604.626748663615
 20
736.3821709989349
 30
0.0
 11
1395.626748663615
 21
736.3821709989349
 31
0.0
  0
LINE
  5
6D6D
330
1E
100
AcDbEntity
  8
図枠
  6
Continuous
 62
     7
100
AcDbLine
 10
1604.626748663615
 20
727.3821709989349
 30
0.0
 11
1395.626748663615
 21
727.3821709989349
 31
0.0
  0
LINE
  5
6D6E
330
1E
100
AcDbEntity
  8
図枠
  6
Continuous
 62
     7
100
AcDbLine
 10
1604.626748663615
 20
718.3821709989349
 30
0.0
 11
1395.626748663615
 21
718.3821709989349
 31
0.0
  0
LINE
  5
6D6F
330
1E
100
AcDbEntity
  8
図枠
  6
Continuous
 62
     7
100
AcDbLine
 10
1604.626748663615
 20
709.3821709989349
 30
0.0
 11
1395.626748663615
 21
709.3821709989349
 31
0.0
  0
LINE
  5
6D70
330
1E
100
AcDbEntity
  8
図枠
  6
Continuous
 62
     7
100
AcDbLine
 10
1604.626748663615
 20
700.3821709989349
 30
0.0
 11
1395.626748663615
 21
700.3821709989349
 31
0.0
  0
LINE
  5
6D71
330
1E
100
AcDbEntity
  8
図枠
  6
Continuous
 62
     7
100
AcDbLine
 10
1604.626748663615
 20
691.3821709989349
 30
0.0
 11
1395.626748663615
 21
691.3821709989349
 31
0.0
  0
LINE
  5
6D72
330
1E
100
AcDbEntity
  8
図枠
  6
Continuous
 62
     7
100
AcDbLine
 10
1604.626748663615
 20
682.3821709989349
 30
0.0
 11
1395.626748663615
 21
682.3821709989349
 31
0.0
  0
LINE
  5
6D73
330
1E
100
AcDbEntity
  8
図枠
  6
Continuous
 62
     7
100
AcDbLine
 10
1604.626748663615
 20
673.3821709989349
 30
0.0
 11
1395.626748663615
 21
673.3821709989349
 31
0.0
  0
LINE
  5
6D74
330
1E
100
AcDbEntity
  8
図枠
  6
Continuous
 62
     7
100
AcDbLine
 10
1604.626748663615
 20
664.382170998935
 30
0.0
 11
1395.626748663615
 21
664.382170998935
 31
0.0
  0
LINE
  5
6D75
330
1E
100
AcDbEntity
  8
図枠
  6
Continuous
 62
     7
100
AcDbLine
 10
1604.626748663615
 20
655.382170998935
 30
0.0
 11
1395.626748663615
 21
655.382170998935
 31
0.0
  0
LINE
  5
6D76
330
1E
100
AcDbEntity
  8
図枠
  6
Continuous
 62
     7
100
AcDbLine
 10
1604.626748663615
 20
646.3821709989349
 30
0.0
 11
1395.626748663615
 21
646.3821709989349
 31
0.0
  0
LINE
  5
6D77
330
1E
100
AcDbEntity
  8
図枠
  6
Continuous
 62
     7
100
AcDbLine
 10
1604.626748663615
 20
637.3821709989349
 30
0.0
 11
1395.626748663615
 21
637.3821709989349
 31
0.0
  0
LINE
  5
6D78
330
1E
100
AcDbEntity
  8
図枠
  6
Continuous
 62
     7
100
AcDbLine
 10
1395.626748663615
 20
637.3821709989349
 30
0.0
 11
1395.626748663615
 21
844.3821709989348
 31
0.0
  0
TEXT
  5
6D79
330
1E
100
AcDbEntity
  8
図枠
 62
     7
100
AcDbText
 10
1397.626748663615
 20
836.8821709989349
 30
0.0
 40
5.0
  1
No.
100
AcDbText
  0
TEXT
  5
6D7A
330
1E
100
AcDbEntity
  8
図枠
 62
     7
100
AcDbText
 10
1399.376748663615
 20
827.8821709989349
 30
0.0
 40
5.0
  1
 1
100
AcDbText
  0
TEXT
  5
6D7B
330
1E
100
AcDbEntity
  8
図枠
 62
     7
100
AcDbText
 10
1399.376748663615
 20
818.8821709989349
 30
0.0
 40
5.0
  1
 2
100
AcDbText
  0
TEXT
  5
6D7C
330
1E
100
AcDbEntity
  8
図枠
 62
     7
100
AcDbText
 10
1399.376748663615
 20
809.8821709989348
 30
0.0
 40
5.0
  1
 3
100
AcDbText
  0
TEXT
  5
6D7D
330
1E
100
AcDbEntity
  8
図枠
 62
     7
100
AcDbText
 10
1399.376748663615
 20
800.882170998935
 30
0.0
 40
5.0
  1
 4
100
AcDbText
  0
TEXT
  5
6D7E
330
1E
100
AcDbEntity
  8
図枠
 62
     7
100
AcDbText
 10
1399.376748663615
 20
791.8821709989349
 30
0.0
 40
5.0
  1
 5
100
AcDbText
  0
TEXT
  5
6D7F
330
1E
100
AcDbEntity
  8
図枠
 62
     7
100
AcDbText
 10
1399.376748663615
 20
782.8821709989349
 30
0.0
 40
5.0
  1
 6
100
AcDbText
  0
TEXT
  5
6D80
330
1E
100
AcDbEntity
  8
図枠
 62
     7
100
AcDbText
 10
1399.376748663615
 20
773.8821709989349
 30
0.0
 40
5.0
  1
 7
100
AcDbText
  0
TEXT
  5
6D81
330
1E
100
AcDbEntity
  8
図枠
 62
     7
100
AcDbText
 10
1399.376748663615
 20
764.8821709989349
 30
0.0
 40
5.0
  1
 8
100
AcDbText
  0
TEXT
  5
6D82
330
1E
100
AcDbEntity
  8
図枠
 62
     7
100
AcDbText
 10
1399.376748663615
 20
755.8821709989349
 30
0.0
 40
5.0
  1
 9
100
AcDbText
  0
TEXT
  5
6D83
330
1E
100
AcDbEntity
  8
図枠
 62
     7
100
AcDbText
 10
1399.376748663615
 20
746.8821709989349
 30
0.0
 40
5.0
  1
10
100
AcDbText
  0
TEXT
  5
6D84
330
1E
100
AcDbEntity
  8
図枠
 62
     7
100
AcDbText
 10
1399.376748663615
 20
737.8821709989349
 30
0.0
 40
5.0
  1
11
100
AcDbText
  0
TEXT
  5
6D85
330
1E
100
AcDbEntity
  8
図枠
 62
     7
100
AcDbText
 10
1399.376748663615
 20
728.8821709989349
 30
0.0
 40
5.0
  1
12
100
AcDbText
  0
TEXT
  5
6D86
330
1E
100
AcDbEntity
  8
図枠
 62
     7
100
AcDbText
 10
1399.376748663615
 20
719.8821709989349
 30
0.0
 40
5.0
  1
13
100
AcDbText
  0
TEXT
  5
6D87
330
1E
100
AcDbEntity
  8
図枠
 62
     7
100
AcDbText
 10
1399.376748663615
 20
710.8821709989349
 30
0.0
 40
5.0
  1
14
100
AcDbText
  0
TEXT
  5
6D88
330
1E
100
AcDbEntity
  8
図枠
 62
     7
100
AcDbText
 10
1399.376748663615
 20
701.8821709989349
 30
0.0
 40
5.0
  1
15
100
AcDbText
  0
TEXT
  5
6D89
330
1E
100
AcDbEntity
  8
図枠
 62
     7
100
AcDbText
 10
1399.376748663615
 20
692.882170998935
 30
0.0
 40
5.0
  1
16
100
AcDbText
  0
TEXT
  5
6D8A
330
1E
100
AcDbEntity
  8
図枠
 62
     7
100
AcDbText
 10
1399.376748663615
 20
683.8821709989349
 30
0.0
 40
5.0
  1
17
100
AcDbText
  0
TEXT
  5
6D8B
330
1E
100
AcDbEntity
  8
図枠
 62
     7
100
AcDbText
 10
1399.376748663615
 20
674.8821709989349
 30
0.0
 40
5.0
  1
18
100
AcDbText
  0
TEXT
  5
6D8C
330
1E
100
AcDbEntity
  8
図枠
 62
     7
100
AcDbText
 10
1399.376748663615
 20
665.8821709989349
 30
0.0
 40
5.0
  1
19
100
AcDbText
  0
TEXT
  5
6D8D
330
1E
100
AcDbEntity
  8
図枠
 62
     7
100
AcDbText
 10
1399.376748663615
 20
656.8821709989349
 30
0.0
 40
5.0
  1
20
100
AcDbText
  0
TEXT
  5
6D8E
330
1E
100
AcDbEntity
  8
図枠
 62
     7
100
AcDbText
 10
1399.376748663615
 20
647.8821709989349
 30
0.0
 40
5.0
  1
21
100
AcDbText
  0
TEXT
  5
6D8F
330
1E
100
AcDbEntity
  8
図枠
 62
     7
100
AcDbText
 10
1399.626748663615
 20
638.882170998935
 30
0.0
 40
5.0
  1
※
100
AcDbText
  0
LINE
  5
6D90
330
1E
100
AcDbEntity
  8
図枠
  6
Continuous
 62
     7
100
AcDbLine
 10
1672.626748663615
 20
844.3821709989348
 30
0.0
 11
1605.626748663615
 21
844.3821709989348
 31
0.0
  0
LINE
  5
6D91
330
1E
100
AcDbEntity
  8
図枠
  6
Continuous
 62
     7
100
AcDbLine
 10
1672.626748663615
 20
835.3821709989349
 30
0.0
 11
1605.626748663615
 21
835.3821709989349
 31
0.0
  0
LINE
  5
6D92
330
1E
100
AcDbEntity
  8
図枠
  6
Continuous
 62
     7
100
AcDbLine
 10
1672.626748663615
 20
826.3821709989349
 30
0.0
 11
1605.626748663615
 21
826.3821709989349
 31
0.0
  0
LINE
  5
6D93
330
1E
100
AcDbEntity
  8
図枠
  6
Continuous
 62
     7
100
AcDbLine
 10
1672.626748663615
 20
817.3821709989349
 30
0.0
 11
1605.626748663615
 21
817.3821709989349
 31
0.0
  0
LINE
  5
6D94
330
1E
100
AcDbEntity
  8
図枠
  6
Continuous
 62
     7
100
AcDbLine
 10
1672.626748663615
 20
808.3821709989349
 30
0.0
 11
1605.626748663615
 21
808.3821709989349
 31
0.0
  0
LINE
  5
6D95
330
1E
100
AcDbEntity
  8
図枠
  6
Continuous
 62
     7
100
AcDbLine
 10
1672.626748663615
 20
799.3821709989349
 30
0.0
 11
1605.626748663615
 21
799.3821709989349
 31
0.0
  0
LINE
  5
6D96
330
1E
100
AcDbEntity
  8
図枠
  6
Continuous
 62
     7
100
AcDbLine
 10
1672.626748663615
 20
790.3821709989349
 30
0.0
 11
1605.626748663615
 21
790.3821709989349
 31
0.0
  0
LINE
  5
6D97
330
1E
100
AcDbEntity
  8
図枠
  6
Continuous
 62
     7
100
AcDbLine
 10
1672.626748663615
 20
781.3821709989349
 30
0.0
 11
1605.626748663615
 21
781.3821709989349
 31
0.0
  0
LINE
  5
6D98
330
1E
100
AcDbEntity
  8
図枠
  6
Continuous
 62
     7
100
AcDbLine
 10
1672.626748663615
 20
772.382170998935
 30
0.0
 11
1605.626748663615
 21
772.382170998935
 31
0.0
  0
LINE
  5
6D99
330
1E
100
AcDbEntity
  8
図枠
  6
Continuous
 62
     7
100
AcDbLine
 10
1672.626748663615
 20
763.3821709989349
 30
0.0
 11
1605.626748663615
 21
763.3821709989349
 31
0.0
  0
LINE
  5
6D9A
330
1E
100
AcDbEntity
  8
図枠
  6
Continuous
 62
     7
100
AcDbLine
 10
1672.626748663615
 20
754.3821709989349
 30
0.0
 11
1605.626748663615
 21
754.3821709989349
 31
0.0
  0
LINE
  5
6D9B
330
1E
100
AcDbEntity
  8
図枠
  6
Continuous
 62
     7
100
AcDbLine
 10
1672.626748663615
 20
745.3821709989349
 30
0.0
 11
1605.626748663615
 21
745.3821709989349
 31
0.0
  0
LINE
  5
6D9C
330
1E
100
AcDbEntity
  8
図枠
  6
Continuous
 62
     7
100
AcDbLine
 10
1672.626748663615
 20
736.3821709989349
 30
0.0
 11
1605.626748663615
 21
736.3821709989349
 31
0.0
  0
LINE
  5
6D9D
330
1E
100
AcDbEntity
  8
図枠
  6
Continuous
 62
     7
100
AcDbLine
 10
1672.626748663615
 20
727.3821709989349
 30
0.0
 11
1605.626748663615
 21
727.3821709989349
 31
0.0
  0
LINE
  5
6D9E
330
1E
100
AcDbEntity
  8
図枠
  6
Continuous
 62
     7
100
AcDbLine
 10
1672.626748663615
 20
718.3821709989349
 30
0.0
 11
1605.626748663615
 21
718.3821709989349
 31
0.0
  0
LINE
  5
6D9F
330
1E
100
AcDbEntity
  8
図枠
  6
Continuous
 62
     7
100
AcDbLine
 10
1672.626748663615
 20
709.3821709989349
 30
0.0
 11
1605.626748663615
 21
709.3821709989349
 31
0.0
  0
LINE
  5
6DA0
330
1E
100
AcDbEntity
  8
図枠
  6
Continuous
 62
     7
100
AcDbLine
 10
1672.626748663615
 20
700.3821709989349
 30
0.0
 11
1605.626748663615
 21
700.3821709989349
 31
0.0
  0
LINE
  5
6DA1
330
1E
100
AcDbEntity
  8
図枠
  6
Continuous
 62
     7
100
AcDbLine
 10
1672.626748663615
 20
691.3821709989349
 30
0.0
 11
1605.626748663615
 21
691.3821709989349
 31
0.0
  0
LINE
  5
6DA2
330
1E
100
AcDbEntity
  8
図枠
  6
Continuous
 62
     7
100
AcDbLine
 10
1672.626748663615
 20
682.3821709989349
 30
0.0
 11
1605.626748663615
 21
682.3821709989349
 31
0.0
  0
LINE
  5
6DA3
330
1E
100
AcDbEntity
  8
図枠
  6
Continuous
 62
     7
100
AcDbLine
 10
1672.626748663615
 20
673.3821709989349
 30
0.0
 11
1605.626748663615
 21
673.3821709989349
 31
0.0
  0
LINE
  5
6DA4
330
1E
100
AcDbEntity
  8
図枠
  6
Continuous
 62
     7
100
AcDbLine
 10
1672.626748663615
 20
664.382170998935
 30
0.0
 11
1605.626748663615
 21
664.382170998935
 31
0.0
  0
LINE
  5
6DA5
330
1E
100
AcDbEntity
  8
図枠
  6
Continuous
 62
     7
100
AcDbLine
 10
1672.626748663615
 20
655.382170998935
 30
0.0
 11
1605.626748663615
 21
655.382170998935
 31
0.0
  0
LINE
  5
6DA6
330
1E
100
AcDbEntity
  8
図枠
  6
Continuous
 62
     7
100
AcDbLine
 10
1672.626748663615
 20
646.3821709989349
 30
0.0
 11
1605.626748663615
 21
646.3821709989349
 31
0.0
  0
LINE
  5
6DA7
330
1E
100
AcDbEntity
  8
図枠
  6
Continuous
 62
     7
100
AcDbLine
 10
1672.626748663615
 20
637.3821709989349
 30
0.0
 11
1605.626748663615
 21
637.3821709989349
 31
0.0
  0
LINE
  5
6DA8
330
1E
100
AcDbEntity
  8
図枠
  6
Continuous
 62
     7
100
AcDbLine
 10
1672.626748663615
 20
637.3821709989349
 30
0.0
 11
1672.626748663615
 21
844.3821709989348
 31
0.0
  0
LINE
  5
6DA9
330
1E
100
AcDbEntity
  8
図枠
  6
Continuous
 62
     7
100
AcDbLine
 10
1673.626748663615
 20
637.3821709989349
 30
0.0
 11
1673.626748663615
 21
844.3821709989348
 31
0.0
  0
LINE
  5
6DAA
330
1E
100
AcDbEntity
  8
図枠
  6
Continuous
 62
     7
100
AcDbLine
 10
1708.626748663615
 20
637.3821709989349
 30
0.0
 11
1708.626748663615
 21
844.3821709989348
 31
0.0
  0
LINE
  5
6DAB
330
1E
100
AcDbEntity
  8
図枠
  6
Continuous
 62
     7
100
AcDbLine
 10
1726.626748663615
 20
637.3821709989349
 30
0.0
 11
1726.626748663615
 21
844.3821709989348
 31
0.0
  0
LINE
  5
6DAC
330
1E
100
AcDbEntity
  8
図枠
  6
Continuous
 62
     7
100
AcDbLine
 10
1673.626748663615
 20
844.3821709989348
 30
0.0
 11
1740.626748663615
 21
844.3821709989348
 31
0.0
  0
LINE
  5
6DAD
330
1E
100
AcDbEntity
  8
図枠
  6
Continuous
 62
     7
100
AcDbLine
 10
1673.626748663615
 20
835.3821709989349
 30
0.0
 11
1740.626748663615
 21
835.3821709989349
 31
0.0
  0
LINE
  5
6DAE
330
1E
100
AcDbEntity
  8
図枠
  6
Continuous
 62
     7
100
AcDbLine
 10
1673.626748663615
 20
826.3821709989349
 30
0.0
 11
1740.626748663615
 21
826.3821709989349
 31
0.0
  0
LINE
  5
6DAF
330
1E
100
AcDbEntity
  8
図枠
  6
Continuous
 62
     7
100
AcDbLine
 10
1673.626748663615
 20
817.3821709989349
 30
0.0
 11
1740.626748663615
 21
817.3821709989349
 31
0.0
  0
LINE
  5
6DB0
330
1E
100
AcDbEntity
  8
図枠
  6
Continuous
 62
     7
100
AcDbLine
 10
1673.626748663615
 20
808.3821709989349
 30
0.0
 11
1740.626748663615
 21
808.3821709989349
 31
0.0
  0
LINE
  5
6DB1
330
1E
100
AcDbEntity
  8
図枠
  6
Continuous
 62
     7
100
AcDbLine
 10
1673.626748663615
 20
799.3821709989349
 30
0.0
 11
1740.626748663615
 21
799.3821709989349
 31
0.0
  0
LINE
  5
6DB2
330
1E
100
AcDbEntity
  8
図枠
  6
Continuous
 62
     7
100
AcDbLine
 10
1673.626748663615
 20
790.3821709989349
 30
0.0
 11
1740.626748663615
 21
790.3821709989349
 31
0.0
  0
LINE
  5
6DB3
330
1E
100
AcDbEntity
  8
図枠
  6
Continuous
 62
     7
100
AcDbLine
 10
1673.626748663615
 20
781.3821709989349
 30
0.0
 11
1740.626748663615
 21
781.3821709989349
 31
0.0
  0
LINE
  5
6DB4
330
1E
100
AcDbEntity
  8
図枠
  6
Continuous
 62
     7
100
AcDbLine
 10
1673.626748663615
 20
772.382170998935
 30
0.0
 11
1740.626748663615
 21
772.382170998935
 31
0.0
  0
LINE
  5
6DB5
330
1E
100
AcDbEntity
  8
図枠
  6
Continuous
 62
     7
100
AcDbLine
 10
1673.626748663615
 20
763.3821709989349
 30
0.0
 11
1740.626748663615
 21
763.3821709989349
 31
0.0
  0
LINE
  5
6DB6
330
1E
100
AcDbEntity
  8
図枠
  6
Continuous
 62
     7
100
AcDbLine
 10
1673.626748663615
 20
754.3821709989349
 30
0.0
 11
1740.626748663615
 21
754.3821709989349
 31
0.0
  0
LINE
  5
6DB7
330
1E
100
AcDbEntity
  8
図枠
  6
Continuous
 62
     7
100
AcDbLine
 10
1673.626748663615
 20
745.3821709989349
 30
0.0
 11
1740.626748663615
 21
745.3821709989349
 31
0.0
  0
LINE
  5
6DB8
330
1E
100
AcDbEntity
  8
図枠
  6
Continuous
 62
     7
100
AcDbLine
 10
1673.626748663615
 20
736.3821709989349
 30
0.0
 11
1740.626748663615
 21
736.3821709989349
 31
0.0
  0
LINE
  5
6DB9
330
1E
100
AcDbEntity
  8
図枠
  6
Continuous
 62
     7
100
AcDbLine
 10
1673.626748663615
 20
727.3821709989349
 30
0.0
 11
1740.626748663615
 21
727.3821709989349
 31
0.0
  0
LINE
  5
6DBA
330
1E
100
AcDbEntity
  8
図枠
  6
Continuous
 62
     7
100
AcDbLine
 10
1673.626748663615
 20
718.3821709989349
 30
0.0
 11
1740.626748663615
 21
718.3821709989349
 31
0.0
  0
LINE
  5
6DBB
330
1E
100
AcDbEntity
  8
図枠
  6
Continuous
 62
     7
100
AcDbLine
 10
1673.626748663615
 20
709.3821709989349
 30
0.0
 11
1740.626748663615
 21
709.3821709989349
 31
0.0
  0
LINE
  5
6DBC
330
1E
100
AcDbEntity
  8
図枠
  6
Continuous
 62
     7
100
AcDbLine
 10
1673.626748663615
 20
700.3821709989349
 30
0.0
 11
1740.626748663615
 21
700.3821709989349
 31
0.0
  0
LINE
  5
6DBD
330
1E
100
AcDbEntity
  8
図枠
  6
Continuous
 62
     7
100
AcDbLine
 10
1673.626748663615
 20
691.3821709989349
 30
0.0
 11
1740.626748663615
 21
691.3821709989349
 31
0.0
  0
LINE
  5
6DBE
330
1E
100
AcDbEntity
  8
図枠
  6
Continuous
 62
     7
100
AcDbLine
 10
1673.626748663615
 20
682.3821709989349
 30
0.0
 11
1740.626748663615
 21
682.3821709989349
 31
0.0
  0
LINE
  5
6DBF
330
1E
100
AcDbEntity
  8
図枠
  6
Continuous
 62
     7
100
AcDbLine
 10
1673.626748663615
 20
673.3821709989349
 30
0.0
 11
1740.626748663615
 21
673.3821709989349
 31
0.0
  0
LINE
  5
6DC0
330
1E
100
AcDbEntity
  8
図枠
  6
Continuous
 62
     7
100
AcDbLine
 10
1673.626748663615
 20
664.382170998935
 30
0.0
 11
1740.626748663615
 21
664.382170998935
 31
0.0
  0
LINE
  5
6DC1
330
1E
100
AcDbEntity
  8
図枠
  6
Continuous
 62
     7
100
AcDbLine
 10
1673.626748663615
 20
655.382170998935
 30
0.0
 11
1740.626748663615
 21
655.382170998935
 31
0.0
  0
LINE
  5
6DC2
330
1E
100
AcDbEntity
  8
図枠
  6
Continuous
 62
     7
100
AcDbLine
 10
1673.626748663615
 20
646.3821709989349
 30
0.0
 11
1740.626748663615
 21
646.3821709989349
 31
0.0
  0
LINE
  5
6DC3
330
1E
100
AcDbEntity
  8
図枠
  6
Continuous
 62
     7
100
AcDbLine
 10
1673.626748663615
 20
637.3821709989349
 30
0.0
 11
1740.626748663615
 21
637.3821709989349
 31
0.0
  0
LINE
  5
6DC4
330
1E
100
AcDbEntity
  8
図枠
  6
Continuous
 62
     7
100
AcDbLine
 10
1740.626748663615
 20
637.3821709989349
 30
0.0
 11
1740.626748663615
 21
844.3821709989348
 31
0.0
  0
TEXT
  5
6DC5
330
1E
100
AcDbEntity
  8
図枠
 62
     7
100
AcDbText
 10
1609.376748663615
 20
836.8821709989349
 30
0.0
 40
5.0
  1
定尺(mm)
100
AcDbText
  0
TEXT
  5
6DC6
330
1E
100
AcDbEntity
  8
図枠
 62
     7
100
AcDbText
 10
1616.376748663615
 20
827.8821709989349
 30
0.0
 40
5.0
  1
3000
100
AcDbText
  0
TEXT
  5
6DC7
330
1E
100
AcDbEntity
  8
図枠
 62
     7
100
AcDbText
 10
1616.376748663615
 20
818.8821709989349
 30
0.0
 40
5.0
  1
3000
100
AcDbText
  0
TEXT
  5
6DC8
330
1E
100
AcDbEntity
  8
図枠
 62
     7
100
AcDbText
 10
1616.376748663615
 20
809.8821709989348
 30
0.0
 40
5.0
  1
3000
100
AcDbText
  0
TEXT
  5
6DC9
330
1E
100
AcDbEntity
  8
図枠
 62
     7
100
AcDbText
 10
1616.376748663615
 20
800.882170998935
 30
0.0
 40
5.0
  1
3000
100
AcDbText
  0
TEXT
  5
6DCA
330
1E
100
AcDbEntity
  8
図枠
 62
     7
100
AcDbText
 10
1616.376748663615
 20
791.8821709989349
 30
0.0
 40
5.0
  1
3010
100
AcDbText
  0
TEXT
  5
6DCB
330
1E
100
AcDbEntity
  8
図枠
 62
     7
100
AcDbText
 10
1616.376748663615
 20
737.8821709989349
 30
0.0
 40
5.0
  1
3060
100
AcDbText
  0
TEXT
  5
6DCC
330
1E
100
AcDbEntity
  8
図枠
 62
     7
100
AcDbText
 10
1616.376748663615
 20
728.8821709989349
 30
0.0
 40
5.0
  1
3100
100
AcDbText
  0
TEXT
  5
6DCD
330
1E
100
AcDbEntity
  8
図枠
 62
     7
100
AcDbText
 10
1616.376748663615
 20
719.8821709989349
 30
0.0
 40
5.0
  1
3000
100
AcDbText
  0
TEXT
  5
6DCE
330
1E
100
AcDbEntity
  8
図枠
 62
     7
100
AcDbText
 10
1616.376748663615
 20
638.882170998935
 30
0.0
 40
5.0
  1
6000
100
AcDbText
  0
TEXT
  5
6DCF
330
1E
100
AcDbEntity
  8
図枠
 62
     7
100
AcDbText
 10
1677.376748663615
 20
836.8821709989349
 30
0.0
 40
5.0
  1
定尺(mm)
100
AcDbText
  0
TEXT
  5
6DD0
330
1E
100
AcDbEntity
  8
図枠
 62
     7
100
AcDbText
 10
1684.376748663615
 20
827.8821709989349
 30
0.0
 40
5.0
  1
2000
100
AcDbText
  0
TEXT
  5
6DD1
330
1E
100
AcDbEntity
  8
図枠
 62
     7
100
AcDbText
 10
1684.376748663615
 20
818.8821709989349
 30
0.0
 40
5.0
  1
2000
100
AcDbText
  0
TEXT
  5
6DD2
330
1E
100
AcDbEntity
  8
図枠
 62
     7
100
AcDbText
 10
1684.376748663615
 20
809.8821709989348
 30
0.0
 40
5.0
  1
2000
100
AcDbText
  0
TEXT
  5
6DD3
330
1E
100
AcDbEntity
  8
図枠
 62
     7
100
AcDbText
 10
1684.376748663615
 20
800.882170998935
 30
0.0
 40
5.0
  1
2000
100
AcDbText
  0
TEXT
  5
6DD4
330
1E
100
AcDbEntity
  8
図枠
 62
     7
100
AcDbText
 10
1684.376748663615
 20
791.8821709989349
 30
0.0
 40
5.0
  1
2010
100
AcDbText
  0
TEXT
  5
6DD5
330
1E
100
AcDbEntity
  8
図枠
 62
     7
100
AcDbText
 10
1684.376748663615
 20
737.8821709989349
 30
0.0
 40
5.0
  1
2060
100
AcDbText
  0
TEXT
  5
6DD6
330
1E
100
AcDbEntity
  8
図枠
 62
     7
100
AcDbText
 10
1684.376748663615
 20
728.8821709989349
 30
0.0
 40
5.0
  1
2100
100
AcDbText
  0
TEXT
  5
6DD7
330
1E
100
AcDbEntity
  8
図枠
 62
     7
100
AcDbText
 10
1684.376748663615
 20
719.8821709989349
 30
0.0
 40
5.0
  1
2000
100
AcDbText
  0
TEXT
  5
6DD8
330
1E
100
AcDbEntity
  8
図枠
 62
     7
100
AcDbText
 10
1684.376748663615
 20
638.882170998935
 30
0.0
 40
5.0
  1
6000
100
AcDbText
  0
TEXT
  5
6DD9
330
1E
100
AcDbEntity
  8
図枠
 62
     7
100
AcDbText
 10
1643.126748663615
 20
836.8821709989349
 30
0.0
 40
5.0
  1
入数
100
AcDbText
  0
TEXT
  5
6DDA
330
1E
100
AcDbEntity
  8
図枠
 62
     7
100
AcDbText
 10
1646.376748663615
 20
827.8821709989349
 30
0.0
 40
5.0
  1
 1
100
AcDbText
  0
TEXT
  5
6DDB
330
1E
100
AcDbEntity
  8
図枠
 62
     7
100
AcDbText
 10
1646.376748663615
 20
818.8821709989349
 30
0.0
 40
5.0
  1
 1
100
AcDbText
  0
TEXT
  5
6DDC
330
1E
100
AcDbEntity
  8
図枠
 62
     7
100
AcDbText
 10
1646.376748663615
 20
809.8821709989348
 30
0.0
 40
5.0
  1
 1
100
AcDbText
  0
TEXT
  5
6DDD
330
1E
100
AcDbEntity
  8
図枠
 62
     7
100
AcDbText
 10
1646.376748663615
 20
800.882170998935
 30
0.0
 40
5.0
  1
 1
100
AcDbText
  0
TEXT
  5
6DDE
330
1E
100
AcDbEntity
  8
図枠
 62
     7
100
AcDbText
 10
1646.376748663615
 20
791.8821709989349
 30
0.0
 40
5.0
  1
 1
100
AcDbText
  0
TEXT
  5
6DDF
330
1E
100
AcDbEntity
  8
図枠
 62
     7
100
AcDbText
 10
1646.376748663615
 20
782.8821709989349
 30
0.0
 40
5.0
  1
 6
100
AcDbText
  0
TEXT
  5
6DE0
330
1E
100
AcDbEntity
  8
図枠
 62
     7
100
AcDbText
 10
1646.376748663615
 20
773.8821709989349
 30
0.0
 40
5.0
  1
 6
100
AcDbText
  0
TEXT
  5
6DE1
330
1E
100
AcDbEntity
  8
図枠
 62
     7
100
AcDbText
 10
1646.376748663615
 20
764.8821709989349
 30
0.0
 40
5.0
  1
 6
100
AcDbText
  0
TEXT
  5
6DE2
330
1E
100
AcDbEntity
  8
図枠
 62
     7
100
AcDbText
 10
1646.376748663615
 20
755.8821709989349
 30
0.0
 40
5.0
  1
 1
100
AcDbText
  0
TEXT
  5
6DE3
330
1E
100
AcDbEntity
  8
図枠
 62
     7
100
AcDbText
 10
1646.376748663615
 20
746.8821709989349
 30
0.0
 40
5.0
  1
 1
100
AcDbText
  0
TEXT
  5
6DE4
330
1E
100
AcDbEntity
  8
図枠
 62
     7
100
AcDbText
 10
1646.376748663615
 20
737.8821709989349
 30
0.0
 40
5.0
  1
 1
100
AcDbText
  0
TEXT
  5
6DE5
330
1E
100
AcDbEntity
  8
図枠
 62
     7
100
AcDbText
 10
1646.376748663615
 20
728.8821709989349
 30
0.0
 40
5.0
  1
 1
100
AcDbText
  0
TEXT
  5
6DE6
330
1E
100
AcDbEntity
  8
図枠
 62
     7
100
AcDbText
 10
1646.376748663615
 20
719.8821709989349
 30
0.0
 40
5.0
  1
 1
100
AcDbText
  0
TEXT
  5
6DE7
330
1E
100
AcDbEntity
  8
図枠
 62
     7
100
AcDbText
 10
1646.376748663615
 20
710.8821709989349
 30
0.0
 40
5.0
  1
 6
100
AcDbText
  0
TEXT
  5
6DE8
330
1E
100
AcDbEntity
  8
図枠
 62
     7
100
AcDbText
 10
1646.376748663615
 20
701.8821709989349
 30
0.0
 40
5.0
  1
 6
100
AcDbText
  0
TEXT
  5
6DE9
330
1E
100
AcDbEntity
  8
図枠
 62
     7
100
AcDbText
 10
1646.376748663615
 20
692.882170998935
 30
0.0
 40
5.0
  1
 6
100
AcDbText
  0
TEXT
  5
6DEA
330
1E
100
AcDbEntity
  8
図枠
 62
     7
100
AcDbText
 10
1646.376748663615
 20
683.8821709989349
 30
0.0
 40
5.0
  1
 6
100
AcDbText
  0
TEXT
  5
6DEB
330
1E
100
AcDbEntity
  8
図枠
 62
     7
100
AcDbText
 10
1646.376748663615
 20
674.8821709989349
 30
0.0
 40
5.0
  1
 6
100
AcDbText
  0
TEXT
  5
6DEC
330
1E
100
AcDbEntity
  8
図枠
 62
     7
100
AcDbText
 10
1646.376748663615
 20
665.8821709989349
 30
0.0
 40
5.0
  1
 6
100
AcDbText
  0
TEXT
  5
6DED
330
1E
100
AcDbEntity
  8
図枠
 62
     7
100
AcDbText
 10
1646.376748663615
 20
656.8821709989349
 30
0.0
 40
5.0
  1
 6
100
AcDbText
  0
TEXT
  5
6DEE
330
1E
100
AcDbEntity
  8
図枠
 62
     7
100
AcDbText
 10
1646.376748663615
 20
647.8821709989349
 30
0.0
 40
5.0
  1
 6
100
AcDbText
  0
TEXT
  5
6DEF
330
1E
100
AcDbEntity
  8
図枠
 62
     7
100
AcDbText
 10
1646.376748663615
 20
638.882170998935
 30
0.0
 40
5.0
  1
 1
100
AcDbText
  0
TEXT
  5
6DF0
330
1E
100
AcDbEntity
  8
図枠
 62
     7
100
AcDbText
 10
1711.126748663615
 20
836.8821709989349
 30
0.0
 40
5.0
  1
入数
100
AcDbText
  0
TEXT
  5
6DF1
330
1E
100
AcDbEntity
  8
図枠
 62
     7
100
AcDbText
 10
1714.376748663615
 20
827.8821709989349
 30
0.0
 40
5.0
  1
 1
100
AcDbText
  0
TEXT
  5
6DF2
330
1E
100
AcDbEntity
  8
図枠
 62
     7
100
AcDbText
 10
1714.376748663615
 20
818.8821709989349
 30
0.0
 40
5.0
  1
 1
100
AcDbText
  0
TEXT
  5
6DF3
330
1E
100
AcDbEntity
  8
図枠
 62
     7
100
AcDbText
 10
1714.376748663615
 20
809.8821709989348
 30
0.0
 40
5.0
  1
 1
100
AcDbText
  0
TEXT
  5
6DF4
330
1E
100
AcDbEntity
  8
図枠
 62
     7
100
AcDbText
 10
1714.376748663615
 20
800.882170998935
 30
0.0
 40
5.0
  1
 1
100
AcDbText
  0
TEXT
  5
6DF5
330
1E
100
AcDbEntity
  8
図枠
 62
     7
100
AcDbText
 10
1714.376748663615
 20
791.8821709989349
 30
0.0
 40
5.0
  1
 1
100
AcDbText
  0
TEXT
  5
6DF6
330
1E
100
AcDbEntity
  8
図枠
 62
     7
100
AcDbText
 10
1714.376748663615
 20
782.8821709989349
 30
0.0
 40
5.0
  1
 4
100
AcDbText
  0
TEXT
  5
6DF7
330
1E
100
AcDbEntity
  8
図枠
 62
     7
100
AcDbText
 10
1714.376748663615
 20
773.8821709989349
 30
0.0
 40
5.0
  1
 4
100
AcDbText
  0
TEXT
  5
6DF8
330
1E
100
AcDbEntity
  8
図枠
 62
     7
100
AcDbText
 10
1714.376748663615
 20
764.8821709989349
 30
0.0
 40
5.0
  1
 4
100
AcDbText
  0
TEXT
  5
6DF9
330
1E
100
AcDbEntity
  8
図枠
 62
     7
100
AcDbText
 10
1714.376748663615
 20
755.8821709989349
 30
0.0
 40
5.0
  1
 1
100
AcDbText
  0
TEXT
  5
6DFA
330
1E
100
AcDbEntity
  8
図枠
 62
     7
100
AcDbText
 10
1714.376748663615
 20
746.8821709989349
 30
0.0
 40
5.0
  1
 1
100
AcDbText
  0
TEXT
  5
6DFB
330
1E
100
AcDbEntity
  8
図枠
 62
     7
100
AcDbText
 10
1714.376748663615
 20
737.8821709989349
 30
0.0
 40
5.0
  1
 1
100
AcDbText
  0
TEXT
  5
6DFC
330
1E
100
AcDbEntity
  8
図枠
 62
     7
100
AcDbText
 10
1714.376748663615
 20
728.8821709989349
 30
0.0
 40
5.0
  1
 1
100
AcDbText
  0
TEXT
  5
6DFD
330
1E
100
AcDbEntity
  8
図枠
 62
     7
100
AcDbText
 10
1714.376748663615
 20
719.8821709989349
 30
0.0
 40
5.0
  1
 1
100
AcDbText
  0
TEXT
  5
6DFE
330
1E
100
AcDbEntity
  8
図枠
 62
     7
100
AcDbText
 10
1714.376748663615
 20
710.8821709989349
 30
0.0
 40
5.0
  1
 4
100
AcDbText
  0
TEXT
  5
6DFF
330
1E
100
AcDbEntity
  8
図枠
 62
     7
100
AcDbText
 10
1714.376748663615
 20
701.8821709989349
 30
0.0
 40
5.0
  1
 5
100
AcDbText
  0
TEXT
  5
6E00
330
1E
100
AcDbEntity
  8
図枠
 62
     7
100
AcDbText
 10
1714.376748663615
 20
692.882170998935
 30
0.0
 40
5.0
  1
 5
100
AcDbText
  0
TEXT
  5
6E01
330
1E
100
AcDbEntity
  8
図枠
 62
     7
100
AcDbText
 10
1714.376748663615
 20
683.8821709989349
 30
0.0
 40
5.0
  1
 5
100
AcDbText
  0
TEXT
  5
6E02
330
1E
100
AcDbEntity
  8
図枠
 62
     7
100
AcDbText
 10
1714.376748663615
 20
674.8821709989349
 30
0.0
 40
5.0
  1
 5
100
AcDbText
  0
TEXT
  5
6E03
330
1E
100
AcDbEntity
  8
図枠
 62
     7
100
AcDbText
 10
1714.376748663615
 20
665.8821709989349
 30
0.0
 40
5.0
  1
 5
100
AcDbText
  0
TEXT
  5
6E04
330
1E
100
AcDbEntity
  8
図枠
 62
     7
100
AcDbText
 10
1714.376748663615
 20
656.8821709989349
 30
0.0
 40
5.0
  1
 5
100
AcDbText
  0
TEXT
  5
6E05
330
1E
100
AcDbEntity
  8
図枠
 62
     7
100
AcDbText
 10
1714.376748663615
 20
647.8821709989349
 30
0.0
 40
5.0
  1
 5
100
AcDbText
  0
TEXT
  5
6E06
330
1E
100
AcDbEntity
  8
図枠
 62
     7
100
AcDbText
 10
1714.376748663615
 20
638.882170998935
 30
0.0
 40
5.0
  1
 1
100
AcDbText
  0
TEXT
  5
6E07
330
1E
100
AcDbEntity
  8
図枠
 62
     7
100
AcDbText
 10
1662.626748663615
 20
827.8821709989349
 30
0.0
 40
5.0
  1
本
100
AcDbText
  0
TEXT
  5
6E08
330
1E
100
AcDbEntity
  8
図枠
 62
     7
100
AcDbText
 10
1662.626748663615
 20
818.8821709989349
 30
0.0
 40
5.0
  1
〃
100
AcDbText
  0
TEXT
  5
6E09
330
1E
100
AcDbEntity
  8
図枠
 62
     7
100
AcDbText
 10
1662.626748663615
 20
809.8821709989348
 30
0.0
 40
5.0
  1
〃
100
AcDbText
  0
TEXT
  5
6E0A
330
1E
100
AcDbEntity
  8
図枠
 62
     7
100
AcDbText
 10
1662.626748663615
 20
800.882170998935
 30
0.0
 40
5.0
  1
〃
100
AcDbText
  0
TEXT
  5
6E0B
330
1E
100
AcDbEntity
  8
図枠
 62
     7
100
AcDbText
 10
1662.626748663615
 20
791.8821709989349
 30
0.0
 40
5.0
  1
〃
100
AcDbText
  0
TEXT
  5
6E0C
330
1E
100
AcDbEntity
  8
図枠
 62
     7
100
AcDbText
 10
1662.626748663615
 20
782.8821709989349
 30
0.0
 40
5.0
  1
〃
100
AcDbText
  0
TEXT
  5
6E0D
330
1E
100
AcDbEntity
  8
図枠
 62
     7
100
AcDbText
 10
1662.626748663615
 20
773.8821709989349
 30
0.0
 40
5.0
  1
〃
100
AcDbText
  0
TEXT
  5
6E0E
330
1E
100
AcDbEntity
  8
図枠
 62
     7
100
AcDbText
 10
1662.626748663615
 20
764.8821709989349
 30
0.0
 40
5.0
  1
〃
100
AcDbText
  0
TEXT
  5
6E0F
330
1E
100
AcDbEntity
  8
図枠
 62
     7
100
AcDbText
 10
1662.626748663615
 20
755.8821709989349
 30
0.0
 40
5.0
  1
〃
100
AcDbText
  0
TEXT
  5
6E10
330
1E
100
AcDbEntity
  8
図枠
 62
     7
100
AcDbText
 10
1662.626748663615
 20
746.8821709989349
 30
0.0
 40
5.0
  1
〃
100
AcDbText
  0
TEXT
  5
6E11
330
1E
100
AcDbEntity
  8
図枠
 62
     7
100
AcDbText
 10
1662.626748663615
 20
737.8821709989349
 30
0.0
 40
5.0
  1
枚
100
AcDbText
  0
TEXT
  5
6E12
330
1E
100
AcDbEntity
  8
図枠
 62
     7
100
AcDbText
 10
1662.626748663615
 20
728.8821709989349
 30
0.0
 40
5.0
  1
〃
100
AcDbText
  0
TEXT
  5
6E13
330
1E
100
AcDbEntity
  8
図枠
 62
     7
100
AcDbText
 10
1662.626748663615
 20
719.8821709989349
 30
0.0
 40
5.0
  1
本
100
AcDbText
  0
TEXT
  5
6E14
330
1E
100
AcDbEntity
  8
図枠
 62
     7
100
AcDbText
 10
1662.626748663615
 20
710.8821709989349
 30
0.0
 40
5.0
  1
〃
100
AcDbText
  0
TEXT
  5
6E15
330
1E
100
AcDbEntity
  8
図枠
 62
     7
100
AcDbText
 10
1662.626748663615
 20
701.8821709989349
 30
0.0
 40
5.0
  1
〃
100
AcDbText
  0
TEXT
  5
6E16
330
1E
100
AcDbEntity
  8
図枠
 62
     7
100
AcDbText
 10
1662.626748663615
 20
692.882170998935
 30
0.0
 40
5.0
  1
〃
100
AcDbText
  0
TEXT
  5
6E17
330
1E
100
AcDbEntity
  8
図枠
 62
     7
100
AcDbText
 10
1662.626748663615
 20
683.8821709989349
 30
0.0
 40
5.0
  1
〃
100
AcDbText
  0
TEXT
  5
6E18
330
1E
100
AcDbEntity
  8
図枠
 62
     7
100
AcDbText
 10
1662.626748663615
 20
674.8821709989349
 30
0.0
 40
5.0
  1
〃
100
AcDbText
  0
TEXT
  5
6E19
330
1E
100
AcDbEntity
  8
図枠
 62
     7
100
AcDbText
 10
1662.626748663615
 20
665.8821709989349
 30
0.0
 40
5.0
  1
〃
100
AcDbText
  0
TEXT
  5
6E1A
330
1E
100
AcDbEntity
  8
図枠
 62
     7
100
AcDbText
 10
1662.626748663615
 20
656.8821709989349
 30
0.0
 40
5.0
  1
枚
100
AcDbText
  0
TEXT
  5
6E1B
330
1E
100
AcDbEntity
  8
図枠
 62
     7
100
AcDbText
 10
1662.626748663615
 20
647.8821709989349
 30
0.0
 40
5.0
  1
〃
100
AcDbText
  0
TEXT
  5
6E1C
330
1E
100
AcDbEntity
  8
図枠
 62
     7
100
AcDbText
 10
1662.626748663615
 20
638.882170998935
 30
0.0
 40
5.0
  1
巻
100
AcDbText
  0
TEXT
  5
6E1D
330
1E
100
AcDbEntity
  8
図枠
 62
     7
100
AcDbText
 10
1730.626748663615
 20
827.8821709989349
 30
0.0
 40
5.0
  1
本
100
AcDbText
  0
TEXT
  5
6E1E
330
1E
100
AcDbEntity
  8
図枠
 62
     7
100
AcDbText
 10
1730.626748663615
 20
818.8821709989349
 30
0.0
 40
5.0
  1
〃
100
AcDbText
  0
TEXT
  5
6E1F
330
1E
100
AcDbEntity
  8
図枠
 62
     7
100
AcDbText
 10
1730.626748663615
 20
809.8821709989348
 30
0.0
 40
5.0
  1
〃
100
AcDbText
  0
TEXT
  5
6E20
330
1E
100
AcDbEntity
  8
図枠
 62
     7
100
AcDbText
 10
1730.626748663615
 20
800.882170998935
 30
0.0
 40
5.0
  1
〃
100
AcDbText
  0
TEXT
  5
6E21
330
1E
100
AcDbEntity
  8
図枠
 62
     7
100
AcDbText
 10
1730.626748663615
 20
791.8821709989349
 30
0.0
 40
5.0
  1
〃
100
AcDbText
  0
TEXT
  5
6E22
330
1E
100
AcDbEntity
  8
図枠
 62
     7
100
AcDbText
 10
1730.626748663615
 20
782.8821709989349
 30
0.0
 40
5.0
  1
〃
100
AcDbText
  0
TEXT
  5
6E23
330
1E
100
AcDbEntity
  8
図枠
 62
     7
100
AcDbText
 10
1730.626748663615
 20
773.8821709989349
 30
0.0
 40
5.0
  1
〃
100
AcDbText
  0
TEXT
  5
6E24
330
1E
100
AcDbEntity
  8
図枠
 62
     7
100
AcDbText
 10
1730.626748663615
 20
764.8821709989349
 30
0.0
 40
5.0
  1
〃
100
AcDbText
  0
TEXT
  5
6E25
330
1E
100
AcDbEntity
  8
図枠
 62
     7
100
AcDbText
 10
1730.626748663615
 20
755.8821709989349
 30
0.0
 40
5.0
  1
〃
100
AcDbText
  0
TEXT
  5
6E26
330
1E
100
AcDbEntity
  8
図枠
 62
     7
100
AcDbText
 10
1730.626748663615
 20
746.8821709989349
 30
0.0
 40
5.0
  1
〃
100
AcDbText
  0
TEXT
  5
6E27
330
1E
100
AcDbEntity
  8
図枠
 62
     7
100
AcDbText
 10
1730.626748663615
 20
737.8821709989349
 30
0.0
 40
5.0
  1
枚
100
AcDbText
  0
TEXT
  5
6E28
330
1E
100
AcDbEntity
  8
図枠
 62
     7
100
AcDbText
 10
1730.626748663615
 20
728.8821709989349
 30
0.0
 40
5.0
  1
〃
100
AcDbText
  0
TEXT
  5
6E29
330
1E
100
AcDbEntity
  8
図枠
 62
     7
100
AcDbText
 10
1730.626748663615
 20
719.8821709989349
 30
0.0
 40
5.0
  1
本
100
AcDbText
  0
TEXT
  5
6E2A
330
1E
100
AcDbEntity
  8
図枠
 62
     7
100
AcDbText
 10
1730.626748663615
 20
710.8821709989349
 30
0.0
 40
5.0
  1
〃
100
AcDbText
  0
TEXT
  5
6E2B
330
1E
100
AcDbEntity
  8
図枠
 62
     7
100
AcDbText
 10
1730.626748663615
 20
701.8821709989349
 30
0.0
 40
5.0
  1
〃
100
AcDbText
  0
TEXT
  5
6E2C
330
1E
100
AcDbEntity
  8
図枠
 62
     7
100
AcDbText
 10
1730.626748663615
 20
692.882170998935
 30
0.0
 40
5.0
  1
〃
100
AcDbText
  0
TEXT
  5
6E2D
330
1E
100
AcDbEntity
  8
図枠
 62
     7
100
AcDbText
 10
1730.626748663615
 20
683.8821709989349
 30
0.0
 40
5.0
  1
〃
100
AcDbText
  0
TEXT
  5
6E2E
330
1E
100
AcDbEntity
  8
図枠
 62
     7
100
AcDbText
 10
1730.626748663615
 20
674.8821709989349
 30
0.0
 40
5.0
  1
〃
100
AcDbText
  0
TEXT
  5
6E2F
330
1E
100
AcDbEntity
  8
図枠
 62
     7
100
AcDbText
 10
1730.626748663615
 20
665.8821709989349
 30
0.0
 40
5.0
  1
〃
100
AcDbText
  0
TEXT
  5
6E30
330
1E
100
AcDbEntity
  8
図枠
 62
     7
100
AcDbText
 10
1730.626748663615
 20
656.8821709989349
 30
0.0
 40
5.0
  1
枚
100
AcDbText
  0
TEXT
  5
6E31
330
1E
100
AcDbEntity
  8
図枠
 62
     7
100
AcDbText
 10
1730.626748663615
 20
647.8821709989349
 30
0.0
 40
5.0
  1
〃
100
AcDbText
  0
TEXT
  5
6E32
330
1E
100
AcDbEntity
  8
図枠
 62
     7
100
AcDbText
 10
1730.626748663615
 20
638.882170998935
 30
0.0
 40
5.0
  1
巻
100
AcDbText
  0
TEXT
  5
6E33
330
1E
100
AcDbEntity
  8
図枠
 62
     7
100
AcDbText
 10
1727.126748663615
 20
836.8821709989349
 30
0.0
 40
5.0
  1
単位
100
AcDbText
  0
TEXT
  5
6E34
330
1E
100
AcDbEntity
  8
図枠
 62
     7
100
AcDbText
 10
1659.126748663615
 20
836.8821709989349
 30
0.0
 40
5.0
  1
単位
100
AcDbText
  0
TEXT
  5
6E35
330
1E
100
AcDbEntity
  8
図枠
 62
     7
100
AcDbText
 10
1781.126748663615
 20
836.8821709989349
 30
0.0
 40
5.0
  1
タ　イ　プ
100
AcDbText
  0
TEXT
  5
6E36
330
1E
100
AcDbEntity
  8
図枠
 62
     7
100
AcDbText
 10
1877.626748663615
 20
836.8821709989349
 30
0.0
 40
5.0
  1
Ａ
100
AcDbText
  0
TEXT
  5
6E37
330
1E
100
AcDbEntity
  8
図枠
 62
     7
100
AcDbText
 10
1847.626748663615
 20
836.8821709989349
 30
0.0
 40
5.0
  1
Ｗ
100
AcDbText
  0
LINE
  5
6E38
330
1E
100
AcDbEntity
  8
図枠
  6
Continuous
 62
     7
100
AcDbLine
 10
1760.626748663615
 20
844.3821709989348
 30
0.0
 11
1760.626748663615
 21
745.3821709989349
 31
0.0
  0
LINE
  5
6E39
330
1E
100
AcDbEntity
  8
図枠
  6
Continuous
 62
     7
100
AcDbLine
 10
1865.626748663615
 20
844.3821709989348
 30
0.0
 11
1865.626748663615
 21
745.3821709989349
 31
0.0
  0
LINE
  5
6E3A
330
1E
100
AcDbEntity
  8
図枠
  6
Continuous
 62
     7
100
AcDbLine
 10
1835.626748663615
 20
844.3821709989348
 30
0.0
 11
1835.626748663615
 21
745.3821709989349
 31
0.0
  0
LINE
  5
6E3B
330
1E
100
AcDbEntity
  8
図枠
  6
Continuous
 62
     7
100
AcDbLine
 10
1955.626748663615
 20
844.3821709989348
 30
0.0
 11
1955.626748663615
 21
745.3821709989349
 31
0.0
  0
LINE
  5
6E3C
330
1E
100
AcDbEntity
  8
図枠
  6
Continuous
 62
     7
100
AcDbLine
 10
1925.626748663615
 20
844.3821709989348
 30
0.0
 11
1925.626748663615
 21
745.3821709989349
 31
0.0
  0
LINE
  5
6E3D
330
1E
100
AcDbEntity
  8
図枠
  6
Continuous
 62
     7
100
AcDbLine
 10
1895.626748663615
 20
844.3821709989348
 30
0.0
 11
1895.626748663615
 21
745.3821709989349
 31
0.0
  0
LINE
  5
6E3E
330
1E
100
AcDbEntity
  8
図枠
  6
Continuous
 62
     7
100
AcDbLine
 10
1985.626748663615
 20
844.3821709989348
 30
0.0
 11
1985.626748663615
 21
745.3821709989349
 31
0.0
  0
TEXT
  5
6E3F
330
1E
100
AcDbEntity
  8
図枠
 62
     7
100
AcDbText
 10
1905.626748663615
 20
746.8821709989349
 30
0.0
 40
5.0
  1
325
100
AcDbText
  0
TEXT
  5
6E40
330
1E
100
AcDbEntity
  8
図枠
 62
     7
100
AcDbText
 10
1905.626748663615
 20
755.8821709989349
 30
0.0
 40
5.0
  1
300
100
AcDbText
  0
TEXT
  5
6E41
330
1E
100
AcDbEntity
  8
図枠
 62
     7
100
AcDbText
 10
1905.626748663615
 20
764.8821709989349
 30
0.0
 40
5.0
  1
275
100
AcDbText
  0
TEXT
  5
6E42
330
1E
100
AcDbEntity
  8
図枠
 62
     7
100
AcDbText
 10
1905.626748663615
 20
773.8821709989349
 30
0.0
 40
5.0
  1
250
100
AcDbText
  0
TEXT
  5
6E43
330
1E
100
AcDbEntity
  8
図枠
 62
     7
100
AcDbText
 10
1905.626748663615
 20
782.8821709989349
 30
0.0
 40
5.0
  1
225
100
AcDbText
  0
TEXT
  5
6E44
330
1E
100
AcDbEntity
  8
図枠
 62
     7
100
AcDbText
 10
1905.626748663615
 20
791.8821709989349
 30
0.0
 40
5.0
  1
200
100
AcDbText
  0
TEXT
  5
6E45
330
1E
100
AcDbEntity
  8
図枠
 62
     7
100
AcDbText
 10
1905.626748663615
 20
800.882170998935
 30
0.0
 40
5.0
  1
175
100
AcDbText
  0
TEXT
  5
6E46
330
1E
100
AcDbEntity
  8
図枠
 62
     7
100
AcDbText
 10
1905.626748663615
 20
809.8821709989348
 30
0.0
 40
5.0
  1
150
100
AcDbText
  0
TEXT
  5
6E47
330
1E
100
AcDbEntity
  8
図枠
 62
     7
100
AcDbText
 10
1905.626748663615
 20
818.8821709989349
 30
0.0
 40
5.0
  1
125
100
AcDbText
  0
TEXT
  5
6E48
330
1E
100
AcDbEntity
  8
図枠
 62
     7
100
AcDbText
 10
1905.626748663615
 20
827.8821709989349
 30
0.0
 40
5.0
  1
100
100
AcDbText
  0
TEXT
  5
6E49
330
1E
100
AcDbEntity
  8
図枠
 62
     7
100
AcDbText
 10
1967.626748663615
 20
836.8821709989349
 30
0.0
 40
5.0
  1
Ｅ
100
AcDbText
  0
TEXT
  5
6E4A
330
1E
100
AcDbEntity
  8
図枠
 62
     7
100
AcDbText
 10
1937.626748663615
 20
836.8821709989349
 30
0.0
 40
5.0
  1
Ｄ
100
AcDbText
  0
TEXT
  5
6E4B
330
1E
100
AcDbEntity
  8
図枠
 62
     7
100
AcDbText
 10
1907.626748663615
 20
836.8821709989349
 30
0.0
 40
5.0
  1
Ｃ
100
AcDbText
  0
LINE
  5
6E4C
330
1E
100
AcDbEntity
  8
図枠
  6
Continuous
 62
     7
100
AcDbLine
 10
1985.626748663615
 20
745.3821709989349
 30
0.0
 11
1760.626748663615
 21
745.3821709989349
 31
0.0
  0
LINE
  5
6E4D
330
1E
100
AcDbEntity
  8
図枠
  6
Continuous
 62
     7
100
AcDbLine
 10
1985.626748663615
 20
754.3821709989349
 30
0.0
 11
1760.626748663615
 21
754.3821709989349
 31
0.0
  0
LINE
  5
6E4E
330
1E
100
AcDbEntity
  8
図枠
  6
Continuous
 62
     7
100
AcDbLine
 10
1985.626748663615
 20
763.3821709989349
 30
0.0
 11
1760.626748663615
 21
763.3821709989349
 31
0.0
  0
LINE
  5
6E4F
330
1E
100
AcDbEntity
  8
図枠
  6
Continuous
 62
     7
100
AcDbLine
 10
1985.626748663615
 20
772.382170998935
 30
0.0
 11
1760.626748663615
 21
772.382170998935
 31
0.0
  0
LINE
  5
6E50
330
1E
100
AcDbEntity
  8
図枠
  6
Continuous
 62
     7
100
AcDbLine
 10
1985.626748663615
 20
781.3821709989349
 30
0.0
 11
1760.626748663615
 21
781.3821709989349
 31
0.0
  0
LINE
  5
6E51
330
1E
100
AcDbEntity
  8
図枠
  6
Continuous
 62
     7
100
AcDbLine
 10
1985.626748663615
 20
790.3821709989349
 30
0.0
 11
1760.626748663615
 21
790.3821709989349
 31
0.0
  0
LINE
  5
6E52
330
1E
100
AcDbEntity
  8
図枠
  6
Continuous
 62
     7
100
AcDbLine
 10
1985.626748663615
 20
799.3821709989349
 30
0.0
 11
1760.626748663615
 21
799.3821709989349
 31
0.0
  0
LINE
  5
6E53
330
1E
100
AcDbEntity
  8
図枠
  6
Continuous
 62
     7
100
AcDbLine
 10
1985.626748663615
 20
817.3821709989349
 30
0.0
 11
1760.626748663615
 21
817.3821709989349
 31
0.0
  0
LINE
  5
6E54
330
1E
100
AcDbEntity
  8
図枠
  6
Continuous
 62
     7
100
AcDbLine
 10
1985.626748663615
 20
835.3821709989349
 30
0.0
 11
1760.626748663615
 21
835.3821709989349
 31
0.0
  0
LINE
  5
6E55
330
1E
100
AcDbEntity
  8
図枠
  6
Continuous
 62
     7
100
AcDbLine
 10
1985.626748663615
 20
844.3821709989348
 30
0.0
 11
1760.626748663615
 21
844.3821709989348
 31
0.0
  0
LINE
  5
6E56
330
1E
100
AcDbEntity
  8
図枠
  6
Continuous
 62
     7
100
AcDbLine
 10
1985.626748663615
 20
826.3821709989349
 30
0.0
 11
1760.626748663615
 21
826.3821709989349
 31
0.0
  0
LINE
  5
6E57
330
1E
100
AcDbEntity
  8
図枠
  6
Continuous
 62
     7
100
AcDbLine
 10
1985.626748663615
 20
808.3821709989349
 30
0.0
 11
1760.626748663615
 21
808.3821709989349
 31
0.0
  0
TEXT
  5
6E58
330
1E
100
AcDbEntity
  8
図枠
 62
     7
100
AcDbText
 10
1514.626748663615
 20
728.8821709989349
 30
0.0
 40
5.0
  1
ＦＳ400～600
100
AcDbText
  0
TEXT
  5
6E59
330
1E
100
AcDbEntity
  8
図枠
 62
     7
100
AcDbText
 10
1514.626748663615
 20
827.8821709989349
 30
0.0
 40
5.0
  1
100ＦＹＫ－Ａ275～500
100
AcDbText
  0
TEXT
  5
6E5A
330
1E
100
AcDbEntity
  8
図枠
 62
     7
100
AcDbText
 10
1514.626748663615
 20
782.8821709989349
 30
0.0
 40
5.0
  1
100ＦＹＫＨ－275～500
100
AcDbText
  0
TEXT
  5
6E5B
330
1E
100
AcDbEntity
  8
図枠
 62
     7
100
AcDbText
 10
1514.626748663615
 20
755.8821709989349
 30
0.0
 40
5.0
  1
100ＦＹＫＪ－275～500
100
AcDbText
  0
TEXT
  5
6E5C
330
1E
100
AcDbEntity
  8
図枠
 62
     7
100
AcDbText
 10
1770.376748663615
 20
827.8821709989349
 30
0.0
 40
5.0
  1
100ＦＹＫ－Ａ275
100
AcDbText
  0
TEXT
  5
6E5D
330
1E
100
AcDbEntity
  8
図枠
 62
     7
100
AcDbText
 10
1770.376748663615
 20
800.882170998935
 30
0.0
 40
5.0
  1
　　  〃　 　350
100
AcDbText
  0
TEXT
  5
6E5E
330
1E
100
AcDbEntity
  8
図枠
 62
     7
100
AcDbText
 10
1770.376748663615
 20
791.8821709989349
 30
0.0
 40
5.0
  1
　　  〃　 　375
100
AcDbText
  0
TEXT
  5
6E5F
330
1E
100
AcDbEntity
  8
図枠
 62
     7
100
AcDbText
 10
1770.376748663615
 20
782.8821709989349
 30
0.0
 40
5.0
  1
　　  〃　 　400
100
AcDbText
  0
TEXT
  5
6E60
330
1E
100
AcDbEntity
  8
図枠
 62
     7
100
AcDbText
 10
1770.376748663615
 20
773.8821709989349
 30
0.0
 40
5.0
  1
　　  〃　 　425
100
AcDbText
  0
TEXT
  5
6E61
330
1E
100
AcDbEntity
  8
図枠
 62
     7
100
AcDbText
 10
1770.376748663615
 20
764.8821709989349
 30
0.0
 40
5.0
  1
　　  〃　 　450
100
AcDbText
  0
TEXT
  5
6E62
330
1E
100
AcDbEntity
  8
図枠
 62
     7
100
AcDbText
 10
1770.376748663615
 20
755.8821709989349
 30
0.0
 40
5.0
  1
　　  〃　 　475
100
AcDbText
  0
TEXT
  5
6E63
330
1E
100
AcDbEntity
  8
図枠
 62
     7
100
AcDbText
 10
1770.376748663615
 20
746.8821709989349
 30
0.0
 40
5.0
  1
　　  〃　 　500
100
AcDbText
  0
TEXT
  5
6E64
330
1E
100
AcDbEntity
  8
図枠
 62
     7
100
AcDbText
 10
1770.376748663615
 20
818.8821709989349
 30
0.0
 40
5.0
  1
　　  〃　 　300
100
AcDbText
  0
TEXT
  5
6E65
330
1E
100
AcDbEntity
  8
図枠
 62
     7
100
AcDbText
 10
1770.376748663615
 20
809.8821709989348
 30
0.0
 40
5.0
  1
　　  〃　 　325
100
AcDbText
  0
TEXT
  5
6E66
330
1E
100
AcDbEntity
  8
図枠
 62
     7
100
AcDbText
 10
1845.626748663615
 20
818.8821709989349
 30
0.0
 40
5.0
  1
300
100
AcDbText
  0
TEXT
  5
6E67
330
1E
100
AcDbEntity
  8
図枠
 62
     7
100
AcDbText
 10
1875.626748663615
 20
818.8821709989349
 30
0.0
 40
5.0
  1
285
100
AcDbText
  0
TEXT
  5
6E68
330
1E
100
AcDbEntity
  8
図枠
 62
     7
100
AcDbText
 10
1845.626748663615
 20
809.8821709989348
 30
0.0
 40
5.0
  1
325
100
AcDbText
  0
TEXT
  5
6E69
330
1E
100
AcDbEntity
  8
図枠
 62
     7
100
AcDbText
 10
1845.626748663615
 20
800.882170998935
 30
0.0
 40
5.0
  1
350
100
AcDbText
  0
TEXT
  5
6E6A
330
1E
100
AcDbEntity
  8
図枠
 62
     7
100
AcDbText
 10
1845.626748663615
 20
791.8821709989349
 30
0.0
 40
5.0
  1
375
100
AcDbText
  0
TEXT
  5
6E6B
330
1E
100
AcDbEntity
  8
図枠
 62
     7
100
AcDbText
 10
1845.626748663615
 20
782.8821709989349
 30
0.0
 40
5.0
  1
400
100
AcDbText
  0
TEXT
  5
6E6C
330
1E
100
AcDbEntity
  8
図枠
 62
     7
100
AcDbText
 10
1845.626748663615
 20
773.8821709989349
 30
0.0
 40
5.0
  1
425
100
AcDbText
  0
TEXT
  5
6E6D
330
1E
100
AcDbEntity
  8
図枠
 62
     7
100
AcDbText
 10
1845.626748663615
 20
764.8821709989349
 30
0.0
 40
5.0
  1
450
100
AcDbText
  0
TEXT
  5
6E6E
330
1E
100
AcDbEntity
  8
図枠
 62
     7
100
AcDbText
 10
1845.626748663615
 20
755.8821709989349
 30
0.0
 40
5.0
  1
475
100
AcDbText
  0
TEXT
  5
6E6F
330
1E
100
AcDbEntity
  8
図枠
 62
     7
100
AcDbText
 10
1845.626748663615
 20
746.8821709989349
 30
0.0
 40
5.0
  1
500
100
AcDbText
  0
TEXT
  5
6E70
330
1E
100
AcDbEntity
  8
図枠
 62
     7
100
AcDbText
 10
1875.626748663615
 20
809.8821709989348
 30
0.0
 40
5.0
  1
310
100
AcDbText
  0
TEXT
  5
6E71
330
1E
100
AcDbEntity
  8
図枠
 62
     7
100
AcDbText
 10
1875.626748663615
 20
800.882170998935
 30
0.0
 40
5.0
  1
335
100
AcDbText
  0
TEXT
  5
6E72
330
1E
100
AcDbEntity
  8
図枠
 62
     7
100
AcDbText
 10
1875.626748663615
 20
791.8821709989349
 30
0.0
 40
5.0
  1
360
100
AcDbText
  0
TEXT
  5
6E73
330
1E
100
AcDbEntity
  8
図枠
 62
     7
100
AcDbText
 10
1875.626748663615
 20
782.8821709989349
 30
0.0
 40
5.0
  1
385
100
AcDbText
  0
TEXT
  5
6E74
330
1E
100
AcDbEntity
  8
図枠
 62
     7
100
AcDbText
 10
1875.626748663615
 20
773.8821709989349
 30
0.0
 40
5.0
  1
410
100
AcDbText
  0
TEXT
  5
6E75
330
1E
100
AcDbEntity
  8
図枠
 62
     7
100
AcDbText
 10
1875.626748663615
 20
764.8821709989349
 30
0.0
 40
5.0
  1
435
100
AcDbText
  0
TEXT
  5
6E76
330
1E
100
AcDbEntity
  8
図枠
 62
     7
100
AcDbText
 10
1875.626748663615
 20
755.8821709989349
 30
0.0
 40
5.0
  1
460
100
AcDbText
  0
TEXT
  5
6E77
330
1E
100
AcDbEntity
  8
図枠
 62
     7
100
AcDbText
 10
1875.626748663615
 20
746.8821709989349
 30
0.0
 40
5.0
  1
485
100
AcDbText
  0
TEXT
  5
6E78
330
1E
100
AcDbEntity
  8
図枠
 62
     7
100
AcDbText
 10
1965.626748663615
 20
746.8821709989349
 30
0.0
 40
5.0
  1
127
100
AcDbText
  0
TEXT
  5
6E79
330
1E
100
AcDbEntity
  8
図枠
 62
     7
100
AcDbText
 10
1965.626748663615
 20
755.8821709989349
 30
0.0
 40
5.0
  1
126
100
AcDbText
  0
TEXT
  5
6E7A
330
1E
100
AcDbEntity
  8
図枠
 62
     7
100
AcDbText
 10
1965.626748663615
 20
773.8821709989349
 30
0.0
 40
5.0
  1
123
100
AcDbText
  0
TEXT
  5
6E7B
330
1E
100
AcDbEntity
  8
図枠
 62
     7
100
AcDbText
 10
1965.626748663615
 20
782.8821709989349
 30
0.0
 40
5.0
  1
122
100
AcDbText
  0
TEXT
  5
6E7C
330
1E
100
AcDbEntity
  8
図枠
 62
     7
100
AcDbText
 10
1965.626748663615
 20
791.8821709989349
 30
0.0
 40
5.0
  1
121
100
AcDbText
  0
TEXT
  5
6E7D
330
1E
100
AcDbEntity
  8
図枠
 62
     7
100
AcDbText
 10
1965.626748663615
 20
800.882170998935
 30
0.0
 40
5.0
  1
119
100
AcDbText
  0
TEXT
  5
6E7E
330
1E
100
AcDbEntity
  8
図枠
 62
     7
100
AcDbText
 10
1965.626748663615
 20
809.8821709989348
 30
0.0
 40
5.0
  1
118
100
AcDbText
  0
TEXT
  5
6E7F
330
1E
100
AcDbEntity
  8
図枠
 62
     7
100
AcDbText
 10
1965.626748663615
 20
818.8821709989349
 30
0.0
 40
5.0
  1
117
100
AcDbText
  0
TEXT
  5
6E80
330
1E
100
AcDbEntity
  8
図枠
 62
     7
100
AcDbText
 10
1937.376748663615
 20
746.8821709989349
 30
0.0
 40
5.0
  1
68
100
AcDbText
  0
TEXT
  5
6E81
330
1E
100
AcDbEntity
  8
図枠
 62
     7
100
AcDbText
 10
1937.376748663615
 20
755.8821709989349
 30
0.0
 40
5.0
  1
67
100
AcDbText
  0
TEXT
  5
6E82
330
1E
100
AcDbEntity
  8
図枠
 62
     7
100
AcDbText
 10
1937.376748663615
 20
764.8821709989349
 30
0.0
 40
5.0
  1
66
100
AcDbText
  0
TEXT
  5
6E83
330
1E
100
AcDbEntity
  8
図枠
 62
     7
100
AcDbText
 10
1937.376748663615
 20
773.8821709989349
 30
0.0
 40
5.0
  1
64
100
AcDbText
  0
TEXT
  5
6E84
330
1E
100
AcDbEntity
  8
図枠
 62
     7
100
AcDbText
 10
1937.376748663615
 20
782.8821709989349
 30
0.0
 40
5.0
  1
63
100
AcDbText
  0
TEXT
  5
6E85
330
1E
100
AcDbEntity
  8
図枠
 62
     7
100
AcDbText
 10
1937.376748663615
 20
791.8821709989349
 30
0.0
 40
5.0
  1
62
100
AcDbText
  0
TEXT
  5
6E86
330
1E
100
AcDbEntity
  8
図枠
 62
     7
100
AcDbText
 10
1937.376748663615
 20
800.882170998935
 30
0.0
 40
5.0
  1
61
100
AcDbText
  0
TEXT
  5
6E87
330
1E
100
AcDbEntity
  8
図枠
 62
     7
100
AcDbText
 10
1937.376748663615
 20
809.8821709989348
 30
0.0
 40
5.0
  1
59
100
AcDbText
  0
TEXT
  5
6E88
330
1E
100
AcDbEntity
  8
図枠
 62
     7
100
AcDbText
 10
1937.376748663615
 20
818.8821709989349
 30
0.0
 40
5.0
  1
58
100
AcDbText
  0
TEXT
  5
6E89
330
1E
100
AcDbEntity
  8
図枠
 62
     7
100
AcDbText
 10
1845.626748663615
 20
827.8821709989349
 30
0.0
 40
5.0
  1
275
100
AcDbText
  0
TEXT
  5
6E8A
330
1E
100
AcDbEntity
  8
図枠
 62
     7
100
AcDbText
 10
1875.626748663615
 20
827.8821709989349
 30
0.0
 40
5.0
  1
260
100
AcDbText
  0
TEXT
  5
6E8B
330
1E
100
AcDbEntity
  8
図枠
 62
     7
100
AcDbText
 10
1965.626748663615
 20
827.8821709989349
 30
0.0
 40
5.0
  1
115
100
AcDbText
  0
TEXT
  5
6E8C
330
1E
100
AcDbEntity
  8
図枠
 62
     7
100
AcDbText
 10
1937.376748663615
 20
827.8821709989349
 30
0.0
 40
5.0
  1
57
100
AcDbText
  0
LINE
  5
6E8D
330
1E
100
AcDbEntity
  8
躯体と製品
  6
Continuous
 62
     4
100
AcDbLine
 10
1586.630577442136
 20
1039.636322256418
 30
0.0
 11
1584.287495402314
 21
1041.979404296239
 31
0.0
  0
LINE
  5
6E8E
330
1E
100
AcDbEntity
  8
躯体と製品
  6
Continuous
 62
     4
100
AcDbLine
 10
1586.701002417791
 20
1040.980110843135
 30
0.0
 11
1585.779923824007
 21
1041.90118943692
 31
0.0
  0
LINE
  5
6E8F
330
1E
100
AcDbEntity
  8
躯体と製品
  6
Continuous
 62
     4
100
AcDbLine
 10
1586.56015246648
 20
1038.2925336697
 30
0.0
 11
1582.795066980621
 21
1042.057619155559
 31
0.0
  0
LINE
  5
6E90
330
1E
100
AcDbEntity
  8
躯体と製品
  6
Continuous
 62
     4
100
AcDbLine
 10
1585.529656569861
 20
1037.908816003946
 30
0.0
 11
1581.302638558928
 21
1042.135834014879
 31
0.0
  0
LINE
  5
6E91
330
1E
100
AcDbEntity
  8
躯体と製品
  6
Continuous
 62
     4
100
AcDbLine
 10
1584.037228148171
 20
1037.987030863265
 30
0.0
 11
1579.810210137237
 21
1042.214048874199
 31
0.0
  0
LINE
  5
6E92
330
1E
100
AcDbEntity
  8
躯体と製品
  6
Continuous
 62
     4
100
AcDbLine
 10
1582.544799726478
 20
1038.065245722585
 30
0.0
 11
1578.317781715544
 21
1042.292263733519
 31
0.0
  0
LINE
  5
6E93
330
1E
100
AcDbEntity
  8
躯体と製品
  6
Continuous
 62
     4
100
AcDbLine
 10
1581.052371304784
 20
1038.143460581905
 30
0.0
 11
1576.82535329385
 21
1042.370478592839
 31
0.0
  0
LINE
  5
6E94
330
1E
100
AcDbEntity
  8
躯体と製品
  6
Continuous
 62
     4
100
AcDbLine
 10
1579.559942883091
 20
1038.221675441225
 30
0.0
 11
1575.332924872157
 21
1042.448693452158
 31
0.0
  0
LINE
  5
6E95
330
1E
100
AcDbEntity
  8
躯体と製品
  6
Continuous
 62
     4
100
AcDbLine
 10
1578.067514461398
 20
1038.299890300544
 30
0.0
 11
1573.840496450464
 21
1042.526908311478
 31
0.0
  0
LINE
  5
6E96
330
1E
100
AcDbEntity
  8
躯体と製品
  6
Continuous
 62
     4
100
AcDbLine
 10
1576.575086039705
 20
1038.378105159864
 30
0.0
 11
1572.348068028771
 21
1042.605123170798
 31
0.0
  0
LINE
  5
6E97
330
1E
100
AcDbEntity
  8
躯体と製品
  6
Continuous
 62
     4
100
AcDbLine
 10
1575.082657618012
 20
1038.456320019184
 30
0.0
 11
1571.724162239866
 21
1041.81481539733
 31
0.0
  0
LINE
  5
6E98
330
1E
100
AcDbEntity
  8
躯体と製品
  6
Continuous
 62
     4
100
AcDbLine
 10
1573.590229196318
 20
1038.534534878504
 30
0.0
 11
1571.65373726421
 21
1040.471026810612
 31
0.0
  0
LINE
  5
6E99
330
1E
100
AcDbEntity
  8
躯体と製品
  6
Continuous
 62
     4
100
AcDbLine
 10
1572.097800774627
 20
1038.612749737824
 30
0.0
 11
1571.583312288554
 21
1039.127238223896
 31
0.0
  0
LINE
  5
6E9A
330
1E
100
AcDbEntity
  8
躯体と製品
  6
Continuous
 62
     4
100
AcDbLine
 10
1572.33331257772
 20
1043.106582644219
 30
0.0
 11
1571.818824091647
 21
1043.621071130292
 31
0.0
  0
LINE
  5
6E9B
330
1E
100
AcDbEntity
  8
躯体と製品
  6
DASHED1
 62
     7
100
AcDbLine
 10
1570.458777072923
 20
1017.669828064265
 30
0.0
 11
1575.451924746696
 21
1017.408148283051
 31
0.0
  0
LINE
  5
6E9C
330
1E
100
AcDbEntity
  8
躯体と製品
  6
DASHED1
 62
     7
100
AcDbLine
 10
1575.451924746696
 20
1017.408148283051
 30
0.0
 11
1575.504260702938
 21
1018.406777817805
 31
0.0
  0
LINE
  5
6E9D
330
1E
100
AcDbEntity
  8
躯体と製品
  6
DASHED1
 62
     7
100
AcDbLine
 10
1575.504260702938
 20
1018.406777817805
 30
0.0
 11
1595.47685139803
 21
1017.360058692946
 31
0.0
  0
LINE
  5
6E9E
330
1E
100
AcDbEntity
  8
躯体と製品
  6
DASHED1
 62
     7
100
AcDbLine
 10
1595.424515441787
 20
1016.361429158192
 30
0.0
 11
1595.47685139803
 21
1017.360058692946
 31
0.0
  0
LINE
  5
6E9F
330
1E
100
AcDbEntity
  8
躯体と製品
  6
DASHED1
 62
     7
100
AcDbLine
 10
1595.424515441787
 20
1016.361429158192
 30
0.0
 11
1598.919718813428
 21
1016.178253311341
 31
0.0
  0
ARC
  5
6EA0
330
1E
100
AcDbEntity
  8
躯体と製品
  6
DASHED1
 62
     7
100
AcDbCircle
 10
1598.998222747792
 20
1017.676197613473
 30
0.0
 40
1.500000000000001
100
AcDbArc
 50
266.9999999999946
 51
86.99999999999457
  0
LINE
  5
6EA1
330
1E
100
AcDbEntity
  8
躯体と製品
  6
DASHED1
 62
     7
100
AcDbLine
 10
1570.615784941652
 20
1020.665716668529
 30
0.0
 11
1599.076726682157
 21
1019.174141915605
 31
0.0
  0
LINE
  5
6EA2
330
1E
100
AcDbEntity
  8
躯体と製品
  6
Continuous
 62
     3
100
AcDbLine
 10
1548.926748663615
 20
1067.19963480098
 30
0.0
 11
1548.926748663615
 21
1065.684404318472
 31
0.0
  0
LINE
  5
6EA3
330
1E
100
AcDbEntity
  8
躯体と製品
  6
Continuous
 62
     3
100
AcDbLine
 10
1545.28254025608
 20
1069.282039605286
 30
0.0
 11
1548.926748663615
 21
1067.19963480098
 31
0.0
  0
ARC
  5
6EA4
330
1E
100
AcDbEntity
  8
躯体と製品
  6
Continuous
 62
     3
100
AcDbCircle
 10
1546.026748663615
 20
1070.584404318473
 30
0.0
 40
1.5
100
AcDbArc
 50
180.0
 51
240.2551187030594
  0
LINE
  5
6EA5
330
1E
100
AcDbEntity
  8
躯体と製品
  6
Continuous
 62
     3
100
AcDbLine
 10
1544.526748663615
 20
1070.584404318473
 30
0.0
 11
1544.526748663615
 21
1073.834404318473
 31
0.0
  0
ARC
  5
6EA6
330
1E
100
AcDbEntity
  8
躯体と製品
  6
Continuous
 62
     3
100
AcDbCircle
 10
1562.126748663614
 20
1020.109235862116
 30
0.0
 40
2.0
100
AcDbArc
 50
180.0
 51
266.9999999999946
  0
LINE
  5
6EA7
330
1E
100
AcDbEntity
  8
躯体と製品
  6
Continuous
 62
     3
100
AcDbLine
 10
1562.022076751129
 20
1018.111976792607
 30
0.0
 11
1568.461518003413
 21
1017.774499976751
 31
0.0
  0
LINE
  5
6EA8
330
1E
100
AcDbEntity
  8
躯体と製品
  6
Continuous
 62
     3
100
AcDbLine
 10
1560.126748663615
 20
1020.109235862116
 30
0.0
 11
1560.126748663615
 21
1027.584404318472
 31
0.0
  0
ARC
  5
6EA9
330
1E
100
AcDbEntity
  8
躯体と製品
  6
Continuous
 62
     3
100
AcDbCircle
 10
1563.626748663615
 20
1022.033368885188
 30
0.0
 40
1.0
100
AcDbArc
 50
180.0
 51
266.9999999999946
  0
LINE
  5
6EAA
330
1E
100
AcDbEntity
  8
躯体と製品
  6
Continuous
 62
     3
100
AcDbLine
 10
1563.574412707372
 20
1021.034739350433
 30
0.0
 11
1568.618525872142
 21
1020.770388581015
 31
0.0
  0
LINE
  5
6EAB
330
1E
100
AcDbEntity
  8
躯体と製品
  6
Continuous
 62
     3
100
AcDbLine
 10
1562.626748663615
 20
1022.033368885188
 30
0.0
 11
1562.626748663615
 21
1029.084404318473
 31
0.0
  0
ARC
  5
6EAC
330
1E
100
AcDbEntity
  8
躯体と製品
  6
Continuous
 62
     3
100
AcDbCircle
 10
1568.435350025292
 20
1017.275185209374
 30
0.0
 40
0.5
100
AcDbArc
 50
357.0000000000011
 51
86.99999999999457
  0
LINE
  5
6EAD
330
1E
100
AcDbEntity
  8
躯体と製品
  6
Continuous
 62
     3
100
AcDbLine
 10
1568.934664792669
 20
1017.249017231253
 30
0.0
 11
1568.882328836426
 21
1016.250387696498
 31
0.0
  0
ARC
  5
6EAE
330
1E
100
AcDbEntity
  8
躯体と製品
  6
Continuous
 62
     3
100
AcDbCircle
 10
1569.381643603804
 20
1016.224219718377
 30
0.0
 40
0.5
100
AcDbArc
 50
177.0000000000011
 51
266.9999999999946
  0
LINE
  5
6EAF
330
1E
100
AcDbEntity
  8
躯体と製品
  6
Continuous
 62
     3
100
AcDbLine
 10
1569.355475625682
 20
1015.724904950999
 30
0.0
 11
1569.854790393059
 21
1015.698736972878
 31
0.0
  0
ARC
  5
6EB0
330
1E
100
AcDbEntity
  8
躯体と製品
  6
Continuous
 62
     3
100
AcDbCircle
 10
1569.880958371181
 20
1016.198051740255
 30
0.0
 40
0.5
100
AcDbArc
 50
266.9999999999946
 51
357.0000000000011
  0
LINE
  5
6EB1
330
1E
100
AcDbEntity
  8
躯体と製品
  6
Continuous
 62
     3
100
AcDbLine
 10
1570.327937182315
 20
1015.173254227379
 30
0.0
 11
1571.793343957118
 21
1043.134881200507
 31
0.0
  0
ARC
  5
6EB2
330
1E
100
AcDbEntity
  8
躯体と製品
  6
Continuous
 62
     3
100
AcDbCircle
 10
1568.644693850264
 20
1021.269703348392
 30
0.0
 40
0.5
100
AcDbArc
 50
266.9999999999946
 51
357.0000000000011
  0
LINE
  5
6EB3
330
1E
100
AcDbEntity
  8
躯体と製品
  6
Continuous
 62
     3
100
AcDbLine
 10
1569.144008617641
 20
1021.243535370271
 30
0.0
 11
1569.248680530127
 21
1023.24079443978
 31
0.0
  0
ARC
  5
6EB4
330
1E
100
AcDbEntity
  8
躯体と製品
  6
Continuous
 62
     3
100
AcDbCircle
 10
1569.747995297504
 20
1023.214626461659
 30
0.0
 40
0.5
100
AcDbArc
 50
86.99999999999457
 51
177.0000000000011
  0
LINE
  5
6EB5
330
1E
100
AcDbEntity
  8
躯体と製品
  6
Continuous
 62
     3
100
AcDbLine
 10
1569.774163275626
 20
1023.713941229036
 30
0.0
 11
1570.273478043003
 21
1023.687773250914
 31
0.0
  0
ARC
  5
6EB6
330
1E
100
AcDbEntity
  8
躯体と製品
  6
Continuous
 62
     3
100
AcDbCircle
 10
1570.247310064882
 20
1023.188458483537
 30
0.0
 40
0.5
100
AcDbArc
 50
357.0000000000011
 51
86.99999999999457
  0
LINE
  5
6EB7
330
1E
100
AcDbEntity
  8
躯体と製品
  6
Continuous
 62
     3
100
AcDbLine
 10
1550.626748663615
 20
1067.084404318473
 30
0.0
 11
1556.126748663615
 21
1067.084404318473
 31
0.0
  0
LINE
  5
6EB8
330
1E
100
AcDbEntity
  8
躯体と製品
  6
Continuous
 62
     3
100
AcDbLine
 10
1557.126748663615
 20
1068.584404318473
 30
0.0
 11
1549.526748663615
 21
1068.584404318473
 31
0.0
  0
ARC
  5
6EB9
330
1E
100
AcDbEntity
  8
躯体と製品
  6
Continuous
 62
     3
100
AcDbCircle
 10
1550.626748663615
 20
1066.584404318473
 30
0.0
 40
0.5
100
AcDbArc
 50
90.0
 51
180.0
  0
LINE
  5
6EBA
330
1E
100
AcDbEntity
  8
躯体と製品
  6
Continuous
 62
     3
100
AcDbLine
 10
1550.126748663615
 20
1066.584404318473
 30
0.0
 11
1550.126748663615
 21
1065.684404318472
 31
0.0
  0
LINE
  5
6EBB
330
1E
100
AcDbEntity
  8
躯体と製品
  6
Continuous
 62
     3
100
AcDbLine
 10
1546.026748663615
 20
1070.584404318473
 30
0.0
 11
1549.526748663615
 21
1068.584404318473
 31
0.0
  0
LINE
  5
6EBC
330
1E
100
AcDbEntity
  8
躯体と製品
  6
Continuous
 62
     3
100
AcDbLine
 10
1546.026748663615
 20
1073.834404318473
 30
0.0
 11
1546.026748663615
 21
1070.584404318473
 31
0.0
  0
ARC
  5
6EBD
330
1E
100
AcDbEntity
  8
躯体と製品
  6
Continuous
 62
     3
100
AcDbCircle
 10
1545.276748663615
 20
1073.834404318473
 30
0.0
 40
0.75
100
AcDbArc
 50
0.0
 51
180.0
  0
ARC
  5
6EBE
330
1E
100
AcDbEntity
  8
躯体と製品
  6
Continuous
 62
     3
100
AcDbCircle
 10
1549.526748663615
 20
1065.684404318472
 30
0.0
 40
0.5999999999999998
100
AcDbArc
 50
180.0
 51
0.0
  0
LINE
  5
6EBF
330
1E
100
AcDbEntity
  8
躯体と製品
  6
Continuous
 62
     3
100
AcDbLine
 10
1558.126748663615
 20
1054.084404318473
 30
0.0
 11
1558.126748663615
 21
1067.584404318473
 31
0.0
  0
ARC
  5
6EC0
330
1E
100
AcDbEntity
  8
躯体と製品
  6
Continuous
 62
     3
100
AcDbCircle
 10
1555.626748663615
 20
1063.084404318473
 30
0.0
 40
1.0
100
AcDbArc
 50
270.0
 51
0.0
  0
LINE
  5
6EC1
330
1E
100
AcDbEntity
  8
躯体と製品
  6
Continuous
 62
     3
100
AcDbLine
 10
1559.126748663615
 20
1028.584404318473
 30
0.0
 11
1548.626748663615
 21
1028.584404318473
 31
0.0
  0
LINE
  5
6EC2
330
1E
100
AcDbEntity
  8
躯体と製品
  6
Continuous
 62
     3
100
AcDbLine
 10
1555.626748663615
 20
1062.084404318473
 30
0.0
 11
1551.126748663615
 21
1062.084404318473
 31
0.0
  0
LINE
  5
6EC3
330
1E
100
AcDbEntity
  8
躯体と製品
  6
Continuous
 62
     3
100
AcDbLine
 10
1560.626748663615
 20
1031.084404318473
 30
0.0
 11
1552.626748663614
 21
1031.084404318473
 31
0.0
  0
LINE
  5
6EC4
330
1E
100
AcDbEntity
  8
躯体と製品
  6
Continuous
 62
     3
100
AcDbLine
 10
1552.126748663615
 20
1060.584404318473
 30
0.0
 11
1556.126748663615
 21
1060.584404318473
 31
0.0
  0
ARC
  5
6EC5
330
1E
100
AcDbEntity
  8
躯体と製品
  6
Continuous
 62
     3
100
AcDbCircle
 10
1560.626748663615
 20
1029.084404318473
 30
0.0
 40
2.0
100
AcDbArc
 50
0.0
 51
90.0
  0
ARC
  5
6EC6
330
1E
100
AcDbEntity
  8
躯体と製品
  6
Continuous
 62
     3
100
AcDbCircle
 10
1559.126748663615
 20
1027.584404318472
 30
0.0
 40
1.0
100
AcDbArc
 50
0.0
 51
90.0
  0
LINE
  5
6EC7
330
1E
100
AcDbEntity
  8
躯体と製品
  6
Continuous
 62
     3
100
AcDbLine
 10
1557.626748663615
 20
1053.584404318473
 30
0.0
 11
1556.626748663615
 21
1053.584404318473
 31
0.0
  0
ARC
  5
6EC8
330
1E
100
AcDbEntity
  8
躯体と製品
  6
Continuous
 62
     3
100
AcDbCircle
 10
1557.626748663615
 20
1054.084404318473
 30
0.0
 40
0.5
100
AcDbArc
 50
270.0
 51
0.0
  0
LINE
  5
6EC9
330
1E
100
AcDbEntity
  8
躯体と製品
  6
Continuous
 62
     3
100
AcDbLine
 10
1556.626748663615
 20
1060.084404318473
 30
0.0
 11
1556.626748663615
 21
1055.584404318473
 31
0.0
  0
ARC
  5
6ECA
330
1E
100
AcDbEntity
  8
躯体と製品
  6
Continuous
 62
     3
100
AcDbCircle
 10
1556.126748663615
 20
1060.084404318473
 30
0.0
 40
0.5
100
AcDbArc
 50
0.0
 51
90.0
  0
ARC
  5
6ECB
330
1E
100
AcDbEntity
  8
躯体と製品
  6
Continuous
 62
     3
100
AcDbCircle
 10
1556.626748663615
 20
1054.584404318473
 30
0.0
 40
1.0
100
AcDbArc
 50
90.0
 51
270.0
  0
ARC
  5
6ECC
330
1E
100
AcDbEntity
  8
躯体と製品
  6
Continuous
 62
     3
100
AcDbCircle
 10
1557.126748663615
 20
1067.584404318473
 30
0.0
 40
1.0
100
AcDbArc
 50
0.0
 51
90.0
  0
LINE
  5
6ECD
330
1E
100
AcDbEntity
  8
躯体と製品
  6
Continuous
 62
     3
100
AcDbLine
 10
1556.626748663615
 20
1063.084404318473
 30
0.0
 11
1556.626748663615
 21
1066.584404318473
 31
0.0
  0
ARC
  5
6ECE
330
1E
100
AcDbEntity
  8
躯体と製品
  6
Continuous
 62
     3
100
AcDbCircle
 10
1556.126748663615
 20
1066.584404318473
 30
0.0
 40
0.5
100
AcDbArc
 50
0.0
 51
90.0
  0
ARC
  5
6ECF
330
1E
100
AcDbEntity
  8
躯体と製品
  6
Continuous
 62
     3
100
AcDbCircle
 10
1552.626748663614
 20
1032.084404318473
 30
0.0
 40
1.0
100
AcDbArc
 50
180.0
 51
270.0
  0
ARC
  5
6ED0
330
1E
100
AcDbEntity
  8
躯体と製品
  6
Continuous
 62
     3
100
AcDbCircle
 10
1552.126748663615
 20
1060.084404318473
 30
0.0
 40
0.5
100
AcDbArc
 50
90.0
 51
180.0
  0
LINE
  5
6ED1
330
1E
100
AcDbEntity
  8
躯体と製品
  6
Continuous
 62
     3
100
AcDbLine
 10
1551.626748663615
 20
1032.084404318473
 30
0.0
 11
1551.626748663615
 21
1060.084404318473
 31
0.0
  0
LINE
  5
6ED2
330
1E
100
AcDbEntity
  8
躯体と製品
  6
Continuous
 62
     3
100
AcDbLine
 10
1549.126748663615
 20
1030.084404318472
 30
0.0
 11
1547.626748663615
 21
1030.084404318472
 31
0.0
  0
ARC
  5
6ED3
330
1E
100
AcDbEntity
  8
躯体と製品
  6
Continuous
 62
     3
100
AcDbCircle
 10
1549.126748663615
 20
1030.584404318473
 30
0.0
 40
0.5
100
AcDbArc
 50
270.0
 51
0.0
  0
LINE
  5
6ED4
330
1E
100
AcDbEntity
  8
躯体と製品
  6
Continuous
 62
     3
100
AcDbLine
 10
1549.626748663615
 20
1030.584404318473
 30
0.0
 11
1549.626748663615
 21
1060.584404318473
 31
0.0
  0
ARC
  5
6ED5
330
1E
100
AcDbEntity
  8
躯体と製品
  6
Continuous
 62
     3
100
AcDbCircle
 10
1551.126748663615
 20
1060.584404318473
 30
0.0
 40
1.5
100
AcDbArc
 50
90.0
 51
180.0
  0
ARC
  5
6ED6
330
1E
100
AcDbEntity
  8
躯体と製品
  6
Continuous
 62
     3
100
AcDbCircle
 10
1548.626748663615
 20
1028.084404318472
 30
0.0
 40
0.5
100
AcDbArc
 50
90.0
 51
180.0
  0
LINE
  5
6ED7
330
1E
100
AcDbEntity
  8
躯体と製品
  6
Continuous
 62
     3
100
AcDbLine
 10
1548.126748663615
 20
1028.084404318472
 30
0.0
 11
1548.126748663615
 21
1026.834404318472
 31
0.0
  0
ARC
  5
6ED8
330
1E
100
AcDbEntity
  8
躯体と製品
  6
Continuous
 62
     3
100
AcDbCircle
 10
1547.376748663615
 20
1026.834404318472
 30
0.0
 40
0.75
100
AcDbArc
 50
180.0
 51
0.0
  0
ARC
  5
6ED9
330
1E
100
AcDbEntity
  8
躯体と製品
  6
Continuous
 62
     3
100
AcDbCircle
 10
1547.626748663615
 20
1029.084404318473
 30
0.0
 40
1.0
100
AcDbArc
 50
90.0
 51
180.0
  0
LINE
  5
6EDA
330
1E
100
AcDbEntity
  8
躯体と製品
  6
Continuous
 62
     3
100
AcDbLine
 10
1546.626748663615
 20
1029.084404318473
 30
0.0
 11
1546.626748663615
 21
1026.834404318472
 31
0.0
  0
LINE
  5
6EDB
330
1E
100
AcDbEntity
  8
躯体と製品
  6
Continuous
 62
     7
100
AcDbLine
 10
1586.537275175343
 20
1037.856008950467
 30
0.0
 11
1586.746619000314
 21
1041.850527089486
 31
0.0
  0
LINE
  5
6EDC
330
1E
100
AcDbEntity
  8
躯体と製品
  6
Continuous
 62
     7
100
AcDbLine
 10
1571.767175978996
 20
1042.63556643313
 30
0.0
 11
1586.746619000314
 21
1041.850527089486
 31
0.0
  0
LINE
  5
6EDD
330
1E
100
AcDbEntity
  8
躯体と製品
  6
DASHED1
 62
     7
100
AcDbLine
 10
1527.626748663615
 20
1048.584403318473
 30
0.0
 11
1539.626748663615
 21
1048.584403318473
 31
0.0
  0
LINE
  5
6EDE
330
1E
100
AcDbEntity
  8
躯体と製品
  6
DASHED1
 62
     7
100
AcDbLine
 10
1519.826367663615
 20
1039.961167318472
 30
0.0
 11
1524.484347663615
 21
1038.265801318472
 31
0.0
  0
LINE
  5
6EDF
330
1E
100
AcDbEntity
  8
躯体と製品
  6
DASHED1
 62
     7
100
AcDbLine
 10
1531.430388663615
 20
1050.906742318473
 30
0.0
 11
1524.826368663615
 21
1049.963311318472
 31
0.0
  0
LINE
  5
6EE0
330
1E
100
AcDbEntity
  8
躯体と製品
  6
DASHED1
 62
     7
100
AcDbLine
 10
1505.496192663615
 20
1042.714957318473
 30
0.0
 11
1503.626748663615
 21
1044.584404318473
 31
0.0
  0
LINE
  5
6EE1
330
1E
100
AcDbEntity
  8
躯体と製品
  6
DASHED1
 62
     7
100
AcDbLine
 10
1504.846926663615
 20
1039.176127318473
 30
0.0
 11
1502.849667663615
 21
1039.071457318472
 31
0.0
  0
LINE
  5
6EE2
330
1E
100
AcDbEntity
  8
躯体と製品
  6
DASHED1
 62
     7
100
AcDbLine
 10
1504.742253663615
 20
1041.173386318472
 30
0.0
 11
1504.846926663615
 21
1039.176127318473
 31
0.0
  0
LINE
  5
6EE3
330
1E
100
AcDbEntity
  8
躯体と製品
  6
DASHED1
 62
     7
100
AcDbLine
 10
1506.739512663615
 20
1041.278059318472
 30
0.0
 11
1504.742253663615
 21
1041.173386318472
 31
0.0
  0
LINE
  5
6EE4
330
1E
100
AcDbEntity
  8
躯体と製品
  6
DASHED1
 62
     7
100
AcDbLine
 10
1507.842813663615
 20
1039.333135318472
 30
0.0
 11
1506.739512663615
 21
1041.278059318472
 31
0.0
  0
LINE
  5
6EE5
330
1E
100
AcDbEntity
  8
躯体と製品
  6
DASHED1
 62
     7
100
AcDbLine
 10
1509.840072663615
 20
1039.437808318473
 30
0.0
 11
1507.842813663615
 21
1039.333135318472
 31
0.0
  0
LINE
  5
6EE6
330
1E
100
AcDbEntity
  8
躯体と製品
  6
DASHED1
 62
     7
100
AcDbLine
 10
1509.735402663615
 20
1041.435067318473
 30
0.0
 11
1509.840072663615
 21
1039.437808318473
 31
0.0
  0
LINE
  5
6EE7
330
1E
100
AcDbEntity
  8
躯体と製品
  6
DASHED1
 62
     7
100
AcDbLine
 10
1511.732661663615
 20
1041.539740318473
 30
0.0
 11
1509.735402663615
 21
1041.435067318473
 31
0.0
  0
LINE
  5
6EE8
330
1E
100
AcDbEntity
  8
躯体と製品
  6
DASHED1
 62
     7
100
AcDbLine
 10
1512.835962663615
 20
1039.594816318473
 30
0.0
 11
1511.732661663615
 21
1041.539740318473
 31
0.0
  0
LINE
  5
6EE9
330
1E
100
AcDbEntity
  8
躯体と製品
  6
DASHED1
 62
     7
100
AcDbLine
 10
1514.833221663615
 20
1039.699489318473
 30
0.0
 11
1512.835962663615
 21
1039.594816318473
 31
0.0
  0
LINE
  5
6EEA
330
1E
100
AcDbEntity
  8
躯体と製品
  6
DASHED1
 62
     7
100
AcDbLine
 10
1514.728548663615
 20
1041.696748318473
 30
0.0
 11
1514.833221663615
 21
1039.699489318473
 31
0.0
  0
LINE
  5
6EEB
330
1E
100
AcDbEntity
  8
躯体と製品
  6
DASHED1
 62
     7
100
AcDbLine
 10
1516.725807663615
 20
1041.801418318472
 30
0.0
 11
1514.728548663615
 21
1041.696748318473
 31
0.0
  0
LINE
  5
6EEC
330
1E
100
AcDbEntity
  8
躯体と製品
  6
DASHED1
 62
     7
100
AcDbLine
 10
1517.829108663615
 20
1039.856497318473
 30
0.0
 11
1516.725807663615
 21
1041.801418318472
 31
0.0
  0
LINE
  5
6EED
330
1E
100
AcDbEntity
  8
躯体と製品
  6
DASHED1
 62
     7
100
AcDbLine
 10
1519.826367663615
 20
1039.961167318472
 30
0.0
 11
1517.829108663615
 21
1039.856497318473
 31
0.0
  0
LINE
  5
6EEE
330
1E
100
AcDbEntity
  8
躯体と製品
  6
DASHED1
 62
     7
100
AcDbLine
 10
1519.721697663615
 20
1041.958426318473
 30
0.0
 11
1519.826367663615
 21
1039.961167318472
 31
0.0
  0
LINE
  5
6EEF
330
1E
100
AcDbEntity
  8
躯体と製品
  6
DASHED1
 62
     7
100
AcDbLine
 10
1521.718956663615
 20
1042.063099318473
 30
0.0
 11
1519.721697663615
 21
1041.958426318473
 31
0.0
  0
LINE
  5
6EF0
330
1E
100
AcDbEntity
  8
躯体と製品
  6
DASHED1
 62
     7
100
AcDbLine
 10
1522.822257663615
 20
1040.118175318473
 30
0.0
 11
1521.718956663615
 21
1042.063099318473
 31
0.0
  0
LINE
  5
6EF1
330
1E
100
AcDbEntity
  8
躯体と製品
  6
DASHED1
 62
     7
100
AcDbLine
 10
1500.669231663615
 20
1042.461988318473
 30
0.0
 11
1531.626747663615
 21
1044.084403318473
 31
0.0
  0
LINE
  5
6EF2
330
1E
100
AcDbEntity
  8
躯体と製品
  6
DASHED1
 62
     7
100
AcDbLine
 10
1500.747735663615
 20
1040.964043318473
 30
0.0
 11
1500.669231663615
 21
1042.461988318473
 31
0.0
  0
LINE
  5
6EF3
330
1E
100
AcDbEntity
  8
躯体と製品
  6
DASHED1
 62
     7
100
AcDbLine
 10
1502.849667663615
 20
1039.071457318472
 30
0.0
 11
1500.747735663615
 21
1040.964043318473
 31
0.0
  0
LINE
  5
6EF4
330
1E
100
AcDbEntity
  8
躯体と製品
  6
DASHED1
 62
     7
100
AcDbLine
 10
1502.666490663615
 20
1042.566661318473
 30
0.0
 11
1502.849667663615
 21
1039.071457318472
 31
0.0
  0
LINE
  5
6EF5
330
1E
100
AcDbEntity
  8
躯体と製品
  6
DASHED1
 62
     7
100
AcDbLine
 10
1524.819516663615
 20
1040.222848318473
 30
0.0
 11
1522.822257663615
 21
1040.118175318473
 31
0.0
  0
LINE
  5
6EF6
330
1E
100
AcDbEntity
  8
躯体と製品
  6
DASHED1
 62
     7
100
AcDbLine
 10
1524.714843663615
 20
1042.220107318473
 30
0.0
 11
1524.819516663615
 21
1040.222848318473
 31
0.0
  0
LINE
  5
6EF7
330
1E
100
AcDbEntity
  8
躯体と製品
  6
DASHED1
 62
     7
100
AcDbLine
 10
1526.712102663615
 20
1042.324777318473
 30
0.0
 11
1524.714843663615
 21
1042.220107318473
 31
0.0
  0
LINE
  5
6EF8
330
1E
100
AcDbEntity
  8
躯体と製品
  6
DASHED1
 62
     7
100
AcDbLine
 10
1539.626748663615
 20
1039.584403318473
 30
0.0
 11
1534.626747663615
 21
1040.584402318473
 31
0.0
  0
LINE
  5
6EF9
330
1E
100
AcDbEntity
  8
躯体と製品
  6
DASHED1
 62
     7
100
AcDbLine
 10
1531.626747663615
 20
1044.084403318473
 30
0.0
 11
1531.626747663615
 21
1045.084402318473
 31
0.0
  0
LINE
  5
6EFA
330
1E
100
AcDbEntity
  8
躯体と製品
  6
DASHED1
 62
     7
100
AcDbLine
 10
1504.846926663615
 20
1049.992678318472
 30
0.0
 11
1502.849667663615
 21
1050.097348318473
 31
0.0
  0
LINE
  5
6EFB
330
1E
100
AcDbEntity
  8
躯体と製品
  6
DASHED1
 62
     7
100
AcDbLine
 10
1504.742253663615
 20
1047.995419318472
 30
0.0
 11
1504.846926663615
 21
1049.992678318472
 31
0.0
  0
LINE
  5
6EFC
330
1E
100
AcDbEntity
  8
躯体と製品
  6
DASHED1
 62
     7
100
AcDbLine
 10
1506.739512663615
 20
1047.890746318473
 30
0.0
 11
1504.742253663615
 21
1047.995419318472
 31
0.0
  0
LINE
  5
6EFD
330
1E
100
AcDbEntity
  8
躯体と製品
  6
DASHED1
 62
     7
100
AcDbLine
 10
1507.842813663615
 20
1049.835670318473
 30
0.0
 11
1506.739512663615
 21
1047.890746318473
 31
0.0
  0
LINE
  5
6EFE
330
1E
100
AcDbEntity
  8
躯体と製品
  6
DASHED1
 62
     7
100
AcDbLine
 10
1509.840072663615
 20
1049.730997318473
 30
0.0
 11
1507.842813663615
 21
1049.835670318473
 31
0.0
  0
LINE
  5
6EFF
330
1E
100
AcDbEntity
  8
躯体と製品
  6
DASHED1
 62
     7
100
AcDbLine
 10
1509.735402663615
 20
1047.733738318473
 30
0.0
 11
1509.840072663615
 21
1049.730997318473
 31
0.0
  0
LINE
  5
6F00
330
1E
100
AcDbEntity
  8
躯体と製品
  6
DASHED1
 62
     7
100
AcDbLine
 10
1511.732661663615
 20
1047.629065318472
 30
0.0
 11
1509.735402663615
 21
1047.733738318473
 31
0.0
  0
LINE
  5
6F01
330
1E
100
AcDbEntity
  8
躯体と製品
  6
DASHED1
 62
     7
100
AcDbLine
 10
1512.835962663615
 20
1049.573989318473
 30
0.0
 11
1511.732661663615
 21
1047.629065318472
 31
0.0
  0
LINE
  5
6F02
330
1E
100
AcDbEntity
  8
躯体と製品
  6
DASHED1
 62
     7
100
AcDbLine
 10
1514.833221663615
 20
1049.469316318473
 30
0.0
 11
1512.835962663615
 21
1049.573989318473
 31
0.0
  0
LINE
  5
6F03
330
1E
100
AcDbEntity
  8
躯体と製品
  6
DASHED1
 62
     7
100
AcDbLine
 10
1514.728548663615
 20
1047.472057318473
 30
0.0
 11
1514.833221663615
 21
1049.469316318473
 31
0.0
  0
LINE
  5
6F04
330
1E
100
AcDbEntity
  8
躯体と製品
  6
DASHED1
 62
     7
100
AcDbLine
 10
1516.725807663615
 20
1047.367387318473
 30
0.0
 11
1514.728548663615
 21
1047.472057318473
 31
0.0
  0
LINE
  5
6F05
330
1E
100
AcDbEntity
  8
躯体と製品
  6
DASHED1
 62
     7
100
AcDbLine
 10
1517.829108663615
 20
1049.312308318472
 30
0.0
 11
1516.725807663615
 21
1047.367387318473
 31
0.0
  0
LINE
  5
6F06
330
1E
100
AcDbEntity
  8
躯体と製品
  6
DASHED1
 62
     7
100
AcDbLine
 10
1519.826367663615
 20
1049.207638318472
 30
0.0
 11
1517.829108663615
 21
1049.312308318472
 31
0.0
  0
LINE
  5
6F07
330
1E
100
AcDbEntity
  8
躯体と製品
  6
DASHED1
 62
     7
100
AcDbLine
 10
1519.721697663615
 20
1047.210379318473
 30
0.0
 11
1519.826367663615
 21
1049.207638318472
 31
0.0
  0
LINE
  5
6F08
330
1E
100
AcDbEntity
  8
躯体と製品
  6
DASHED1
 62
     7
100
AcDbLine
 10
1521.718956663615
 20
1047.105706318473
 30
0.0
 11
1519.721697663615
 21
1047.210379318473
 31
0.0
  0
LINE
  5
6F09
330
1E
100
AcDbEntity
  8
躯体と製品
  6
DASHED1
 62
     7
100
AcDbLine
 10
1522.822257663615
 20
1049.050630318473
 30
0.0
 11
1521.718956663615
 21
1047.105706318473
 31
0.0
  0
LINE
  5
6F0A
330
1E
100
AcDbEntity
  8
躯体と製品
  6
DASHED1
 62
     7
100
AcDbLine
 10
1500.669231663615
 20
1046.706817318473
 30
0.0
 11
1531.626747663615
 21
1045.084402318473
 31
0.0
  0
LINE
  5
6F0B
330
1E
100
AcDbEntity
  8
躯体と製品
  6
DASHED1
 62
     7
100
AcDbLine
 10
1500.747735663615
 20
1048.204762318473
 30
0.0
 11
1500.669231663615
 21
1046.706817318473
 31
0.0
  0
LINE
  5
6F0C
330
1E
100
AcDbEntity
  8
躯体と製品
  6
DASHED1
 62
     7
100
AcDbLine
 10
1502.849667663615
 20
1050.097348318473
 30
0.0
 11
1500.747735663615
 21
1048.204762318473
 31
0.0
  0
LINE
  5
6F0D
330
1E
100
AcDbEntity
  8
躯体と製品
  6
DASHED1
 62
     7
100
AcDbLine
 10
1502.666490663615
 20
1046.602144318473
 30
0.0
 11
1502.849667663615
 21
1050.097348318473
 31
0.0
  0
LINE
  5
6F0E
330
1E
100
AcDbEntity
  8
躯体と製品
  6
DASHED1
 62
     7
100
AcDbLine
 10
1524.819516663615
 20
1048.945957318473
 30
0.0
 11
1522.822257663615
 21
1049.050630318473
 31
0.0
  0
LINE
  5
6F0F
330
1E
100
AcDbEntity
  8
躯体と製品
  6
DASHED1
 62
     7
100
AcDbLine
 10
1524.714843663615
 20
1046.948698318473
 30
0.0
 11
1524.819516663615
 21
1048.945957318473
 31
0.0
  0
LINE
  5
6F10
330
1E
100
AcDbEntity
  8
躯体と製品
  6
DASHED1
 62
     7
100
AcDbLine
 10
1526.712102663615
 20
1046.844028318473
 30
0.0
 11
1524.714843663615
 21
1046.948698318473
 31
0.0
  0
LINE
  5
6F11
330
1E
100
AcDbEntity
  8
躯体と製品
  6
DASHED1
 62
     7
100
AcDbLine
 10
1505.496192663615
 20
1046.453848318473
 30
0.0
 11
1503.626748663615
 21
1044.584404318473
 31
0.0
  0
LINE
  5
6F12
330
1E
100
AcDbEntity
  8
躯体と製品
  6
DASHED1
 62
     7
100
AcDbLine
 10
1534.626747663615
 20
1044.584404318473
 30
0.0
 11
1539.626748663615
 21
1044.584404318473
 31
0.0
  0
LINE
  5
6F13
330
1E
100
AcDbEntity
  8
躯体と製品
  6
DASHED1
 62
     7
100
AcDbLine
 10
1539.626748663615
 20
1043.584402318472
 30
0.0
 11
1534.626747663615
 21
1044.584404318473
 31
0.0
  0
LINE
  5
6F14
330
1E
100
AcDbEntity
  8
躯体と製品
  6
DASHED1
 62
     7
100
AcDbLine
 10
1539.626748663615
 20
1045.584403318473
 30
0.0
 11
1534.626747663615
 21
1044.584404318473
 31
0.0
  0
LINE
  5
6F15
330
1E
100
AcDbEntity
  8
躯体と製品
  6
DASHED1
 62
     7
100
AcDbLine
 10
1539.626748663615
 20
1049.584402318473
 30
0.0
 11
1534.626747663615
 21
1048.584403318473
 31
0.0
  0
LINE
  5
6F16
330
1E
100
AcDbEntity
  8
躯体と製品
  6
DASHED1
 62
     7
100
AcDbLine
 10
1527.626748663615
 20
1048.584403318473
 30
0.0
 11
1526.712102663615
 21
1046.844028318473
 31
0.0
  0
ARC
  5
6F17
330
1E
100
AcDbEntity
  8
躯体と製品
  6
DASHED1
 62
     7
100
AcDbCircle
 10
1531.373820663615
 20
1051.302721318473
 30
0.0
 40
0.3999990000000001
100
AcDbArc
 50
278.1301019999983
 51
8.130101999998254
  0
LINE
  5
6F18
330
1E
100
AcDbEntity
  8
躯体と製品
  6
DASHED1
 62
     7
100
AcDbLine
 10
1531.741683663615
 20
1051.556116318473
 30
0.0
 11
1531.769799663615
 21
1051.359292318473
 31
0.0
  0
ARC
  5
6F19
330
1E
100
AcDbEntity
  8
躯体と製品
  6
DASHED1
 62
     7
100
AcDbCircle
 10
1531.345701663615
 20
1051.499548318473
 30
0.0
 40
0.3999990000000001
100
AcDbArc
 50
8.130101999998254
 51
98.29846599999665
  0
LINE
  5
6F1A
330
1E
100
AcDbEntity
  8
躯体と製品
  6
DASHED1
 62
     7
100
AcDbLine
 10
1524.484347663615
 20
1050.903004318473
 30
0.0
 11
1531.287969663615
 21
1051.895359318473
 31
0.0
  0
LINE
  5
6F1B
330
1E
100
AcDbEntity
  8
躯体と製品
  6
DASHED1
 62
     7
100
AcDbLine
 10
1531.430388663615
 20
1038.262063318473
 30
0.0
 11
1524.826368663615
 21
1039.205494318473
 31
0.0
  0
ARC
  5
6F1C
330
1E
100
AcDbEntity
  8
躯体と製品
  6
DASHED1
 62
     7
100
AcDbCircle
 10
1531.373820663615
 20
1037.866084318473
 30
0.0
 40
0.3999990000000001
100
AcDbArc
 50
351.8698980000018
 51
81.86989800000175
  0
LINE
  5
6F1D
330
1E
100
AcDbEntity
  8
躯体と製品
  6
DASHED1
 62
     7
100
AcDbLine
 10
1531.741683663615
 20
1037.612689318473
 30
0.0
 11
1531.769799663615
 21
1037.809516318473
 31
0.0
  0
ARC
  5
6F1E
330
1E
100
AcDbEntity
  8
躯体と製品
  6
DASHED1
 62
     7
100
AcDbCircle
 10
1531.345701663615
 20
1037.669257318473
 30
0.0
 40
0.3999990000000001
100
AcDbArc
 50
261.7015340000034
 51
351.8698980000018
  0
LINE
  5
6F1F
330
1E
100
AcDbEntity
  8
躯体と製品
  6
DASHED1
 62
     7
100
AcDbLine
 10
1524.484347663615
 20
1038.265801318472
 30
0.0
 11
1531.287969663615
 21
1037.273446318472
 31
0.0
  0
LINE
  5
6F20
330
1E
100
AcDbEntity
  8
躯体と製品
  6
DASHED1
 62
     7
100
AcDbLine
 10
1519.826367663615
 20
1041.025345318473
 30
0.0
 11
1524.826368663615
 21
1039.205494318473
 31
0.0
  0
LINE
  5
6F21
330
1E
100
AcDbEntity
  8
躯体と製品
  6
DASHED1
 62
     7
100
AcDbLine
 10
1519.826367663615
 20
1049.207638318472
 30
0.0
 11
1524.484347663615
 21
1050.903004318473
 31
0.0
  0
LINE
  5
6F22
330
1E
100
AcDbEntity
  8
躯体と製品
  6
DASHED1
 62
     7
100
AcDbLine
 10
1519.826367663615
 20
1048.143460318472
 30
0.0
 11
1524.826368663615
 21
1049.963311318472
 31
0.0
  0
LINE
  5
6F23
330
1E
100
AcDbEntity
  8
躯体と製品
  6
DASHED1
 62
     7
100
AcDbLine
 10
1527.626748663615
 20
1040.584402318473
 30
0.0
 11
1539.626748663615
 21
1040.584402318473
 31
0.0
  0
LINE
  5
6F24
330
1E
100
AcDbEntity
  8
躯体と製品
  6
DASHED1
 62
     7
100
AcDbLine
 10
1526.712102663615
 20
1042.324777318473
 30
0.0
 11
1527.626748663615
 21
1040.584402318473
 31
0.0
  0
LINE
  5
6F25
330
1E
100
AcDbEntity
  8
躯体と製品
  6
Continuous
 62
     7
100
AcDbLine
 10
1555.126748663615
 20
1088.584404318472
 30
0.0
 11
1557.126748663615
 21
1088.584404318472
 31
0.0
  0
ARC
  5
6F26
330
1E
100
AcDbEntity
  8
躯体と製品
  6
Continuous
 62
     7
100
AcDbCircle
 10
1557.126748663615
 20
1089.584404318473
 30
0.0
 40
1.0
100
AcDbArc
 50
270.0
 51
0.0
  0
ARC
  5
6F27
330
1E
100
AcDbEntity
  8
躯体と製品
  6
Continuous
 62
     7
100
AcDbCircle
 10
1555.126748663615
 20
1089.584404318473
 30
0.0
 40
1.0
100
AcDbArc
 50
180.0
 51
270.0
  0
POINT
  5
6F28
330
1E
100
AcDbEntity
  8
躯体と製品
 62
     4
100
AcDbPoint
 10
1574.126748663615
 20
1052.584404318473
 30
0.0
  0
POINT
  5
6F29
330
1E
100
AcDbEntity
  8
躯体と製品
 62
     4
100
AcDbPoint
 10
1574.126748663615
 20
1088.584404318472
 30
0.0
  0
ARC
  5
6F2A
330
1E
100
AcDbEntity
  8
躯体と製品
  6
Continuous
 62
     7
100
AcDbCircle
 10
1552.526748663615
 20
1095.084404318472
 30
0.0
 40
4.2
100
AcDbArc
 50
14.0957892441728
 51
42.74124453868362
  0
ARC
  5
6F2B
330
1E
100
AcDbEntity
  8
躯体と製品
  6
Continuous
 62
     7
100
AcDbCircle
 10
1552.526748663615
 20
1095.084404318472
 30
0.0
 40
4.2
100
AcDbArc
 50
317.2587554613163
 51
345.9042107558272
  0
LINE
  5
6F2C
330
1E
100
AcDbEntity
  8
躯体と製品
  6
Continuous
 62
     7
100
AcDbLine
 10
1556.192468238269
 20
1095.584404318473
 30
0.0
 11
1556.192468238269
 21
1094.584404318473
 31
0.0
  0
ARC
  5
6F2D
330
1E
100
AcDbEntity
  8
躯体と製品
  6
Continuous
 62
     7
100
AcDbCircle
 10
1556.192468238269
 20
1096.004883041877
 30
0.0
 40
0.4204787234042585
100
AcDbArc
 50
270.0
 51
14.0957892441728
  0
ARC
  5
6F2E
330
1E
100
AcDbEntity
  8
躯体と製品
  6
Continuous
 62
     7
100
AcDbCircle
 10
1554.126748663614
 20
1093.605832889902
 30
0.0
 40
2.021428571428568
100
AcDbArc
 50
270.0
 51
317.2587554613163
  0
ARC
  5
6F2F
330
1E
100
AcDbEntity
  8
躯体と製品
  6
Continuous
 62
     7
100
AcDbCircle
 10
1554.126748663614
 20
1096.562975747044
 30
0.0
 40
2.021428571428586
100
AcDbArc
 50
42.74124453868362
 51
90.0
  0
ARC
  5
6F30
330
1E
100
AcDbEntity
  8
躯体と製品
  6
Continuous
 62
     7
100
AcDbCircle
 10
1556.192468238269
 20
1094.163925595069
 30
0.0
 40
0.4204787234042585
100
AcDbArc
 50
345.9042107558272
 51
90.0
  0
LINE
  5
6F31
330
1E
100
AcDbEntity
  8
躯体と製品
  6
Continuous
 62
     7
100
AcDbLine
 10
1552.626748663614
 20
1093.084404318473
 30
0.0
 11
1549.626748663615
 21
1093.084404318473
 31
0.0
  0
LINE
  5
6F32
330
1E
100
AcDbEntity
  8
躯体と製品
  6
Continuous
 62
     4
100
AcDbLine
 10
1552.626748663614
 20
1093.584404318473
 30
0.0
 11
1544.126748663615
 21
1093.584404318473
 31
0.0
  0
LINE
  5
6F33
330
1E
100
AcDbEntity
  8
躯体と製品
  6
Continuous
 62
     4
100
AcDbLine
 10
1552.626748663614
 20
1096.584404318472
 30
0.0
 11
1544.126748663615
 21
1096.584404318472
 31
0.0
  0
LINE
  5
6F34
330
1E
100
AcDbEntity
  8
躯体と製品
  6
Continuous
 62
     7
100
AcDbLine
 10
1552.626748663614
 20
1097.084404318472
 30
0.0
 11
1549.626748663615
 21
1097.084404318472
 31
0.0
  0
LINE
  5
6F35
330
1E
100
AcDbEntity
  8
躯体と製品
  6
Continuous
 62
     4
100
AcDbLine
 10
1544.626748663615
 20
1097.084404318472
 30
0.0
 11
1544.626748663615
 21
1093.084404318473
 31
0.0
  0
LINE
  5
6F36
330
1E
100
AcDbEntity
  8
躯体と製品
  6
Continuous
 62
     7
100
AcDbLine
 10
1544.126748663615
 20
1096.584404318472
 30
0.0
 11
1544.126748663615
 21
1093.584404318473
 31
0.0
  0
LINE
  5
6F37
330
1E
100
AcDbEntity
  8
躯体と製品
  6
Continuous
 62
     7
100
AcDbLine
 10
1544.126748663615
 20
1096.584404318472
 30
0.0
 11
1544.626748663615
 21
1097.084404318472
 31
0.0
  0
LINE
  5
6F38
330
1E
100
AcDbEntity
  8
躯体と製品
  6
Continuous
 62
     7
100
AcDbLine
 10
1544.126748663615
 20
1093.584404318473
 30
0.0
 11
1544.626748663615
 21
1093.084404318473
 31
0.0
  0
LINE
  5
6F39
330
1E
100
AcDbEntity
  8
躯体と製品
  6
Continuous
 62
     4
100
AcDbLine
 10
1551.326748843909
 20
1090.67406203096
 30
0.0
 11
1551.537091131421
 21
1090.884404318472
 31
0.0
  0
LINE
  5
6F3A
330
1E
100
AcDbEntity
  8
躯体と製品
  6
Continuous
 62
     4
100
AcDbLine
 10
1551.326750056091
 20
1089.259849680769
 30
0.0
 11
1552.126749663615
 21
1090.059849288293
 31
0.0
  0
LINE
  5
6F3B
330
1E
100
AcDbEntity
  8
躯体と製品
  6
Continuous
 62
     4
100
AcDbLine
 10
1551.326751268274
 20
1087.845637330578
 30
0.0
 11
1552.126749663615
 21
1088.645635725919
 31
0.0
  0
LINE
  5
6F3C
330
1E
100
AcDbEntity
  8
躯体と製品
  6
Continuous
 62
     4
100
AcDbLine
 10
1551.550527708507
 20
1086.655200208438
 30
0.0
 11
1552.145191389251
 21
1087.249863889182
 31
0.0
  0
LINE
  5
6F3D
330
1E
100
AcDbEntity
  8
躯体と製品
  6
Continuous
 62
     4
100
AcDbLine
 10
1552.411836168898
 20
1086.102295106456
 30
0.0
 11
1553.193946380915
 21
1086.884405318473
 31
0.0
  0
LINE
  5
6F3E
330
1E
100
AcDbEntity
  8
躯体と製品
  6
Continuous
 62
     4
100
AcDbLine
 10
1553.808158943288
 20
1086.084404318473
 30
0.0
 11
1554.608159943288
 21
1086.884405318472
 31
0.0
  0
LINE
  5
6F3F
330
1E
100
AcDbEntity
  8
躯体と製品
  6
Continuous
 62
     4
100
AcDbLine
 10
1555.222372505661
 20
1086.084404318472
 30
0.0
 11
1556.022373505661
 21
1086.884405318472
 31
0.0
  0
LINE
  5
6F40
330
1E
100
AcDbEntity
  8
躯体と製品
  6
Continuous
 62
     4
100
AcDbLine
 10
1556.636586068031
 20
1086.084404318472
 30
0.0
 11
1557.43658706803
 21
1086.884405318472
 31
0.0
  0
LINE
  5
6F41
330
1E
100
AcDbEntity
  8
躯体と製品
  6
Continuous
 62
     4
100
AcDbLine
 10
1558.050799630404
 20
1086.084404318472
 30
0.0
 11
1558.850800630404
 21
1086.884405318472
 31
0.0
  0
LINE
  5
6F42
330
1E
100
AcDbEntity
  8
躯体と製品
  6
Continuous
 62
     4
100
AcDbLine
 10
1559.465013192777
 20
1086.084404318472
 30
0.0
 11
1560.265014192777
 21
1086.884405318471
 31
0.0
  0
LINE
  5
6F43
330
1E
100
AcDbEntity
  8
躯体と製品
  6
Continuous
 62
     4
100
AcDbLine
 10
1560.87922675515
 20
1086.084404318472
 30
0.0
 11
1561.679227755151
 21
1086.884405318472
 31
0.0
  0
LINE
  5
6F44
330
1E
100
AcDbEntity
  8
躯体と製品
  6
Continuous
 62
     4
100
AcDbLine
 10
1562.293440317524
 20
1086.084404318472
 30
0.0
 11
1563.093441317525
 21
1086.884405318473
 31
0.0
  0
LINE
  5
6F45
330
1E
100
AcDbEntity
  8
躯体と製品
  6
Continuous
 62
     4
100
AcDbLine
 10
1563.707653879897
 20
1086.084404318472
 30
0.0
 11
1564.507654879897
 21
1086.884405318473
 31
0.0
  0
LINE
  5
6F46
330
1E
100
AcDbEntity
  8
躯体と製品
  6
Continuous
 62
     4
100
AcDbLine
 10
1565.121867442271
 20
1086.084404318473
 30
0.0
 11
1565.921868442271
 21
1086.884405318472
 31
0.0
  0
LINE
  5
6F47
330
1E
100
AcDbEntity
  8
躯体と製品
  6
Continuous
 62
     4
100
AcDbLine
 10
1566.536081004644
 20
1086.084404318472
 30
0.0
 11
1567.336082004644
 21
1086.884405318472
 31
0.0
  0
LINE
  5
6F48
330
1E
100
AcDbEntity
  8
躯体と製品
  6
Continuous
 62
     4
100
AcDbLine
 10
1567.950294567017
 20
1086.084404318472
 30
0.0
 11
1568.750295567017
 21
1086.884405318472
 31
0.0
  0
LINE
  5
6F49
330
1E
100
AcDbEntity
  8
躯体と製品
  6
Continuous
 62
     4
100
AcDbLine
 10
1569.364508129391
 20
1086.084404318472
 30
0.0
 11
1570.16450912939
 21
1086.884405318472
 31
0.0
  0
LINE
  5
6F4A
330
1E
100
AcDbEntity
  8
躯体と製品
  6
Continuous
 62
     4
100
AcDbLine
 10
1570.778721691765
 20
1086.084404318473
 30
0.0
 11
1571.492446738578
 21
1086.798129365286
 31
0.0
  0
LINE
  5
6F4B
330
1E
100
AcDbEntity
  8
躯体と製品
  6
Continuous
 62
     4
100
AcDbLine
 10
1571.526750663616
 20
1085.41821972795
 30
0.0
 11
1572.216609018149
 21
1086.108078082484
 31
0.0
  0
LINE
  5
6F4C
330
1E
100
AcDbEntity
  8
躯体と製品
  6
Continuous
 62
     4
100
AcDbLine
 10
1571.526750663616
 20
1084.004006165577
 30
0.0
 11
1572.326748663615
 21
1084.804004165577
 31
0.0
  0
LINE
  5
6F4D
330
1E
100
AcDbEntity
  8
躯体と製品
  6
Continuous
 62
     4
100
AcDbLine
 10
1571.526750663616
 20
1082.589792603204
 30
0.0
 11
1572.326748663615
 21
1083.389790603204
 31
0.0
  0
LINE
  5
6F4E
330
1E
100
AcDbEntity
  8
躯体と製品
  6
Continuous
 62
     4
100
AcDbLine
 10
1571.526750663616
 20
1081.175579040831
 30
0.0
 11
1572.326748663615
 21
1081.97557704083
 31
0.0
  0
LINE
  5
6F4F
330
1E
100
AcDbEntity
  8
躯体と製品
  6
Continuous
 62
     4
100
AcDbLine
 10
1571.526750663614
 20
1079.761365478455
 30
0.0
 11
1572.326748663615
 21
1080.561363478456
 31
0.0
  0
LINE
  5
6F50
330
1E
100
AcDbEntity
  8
躯体と製品
  6
Continuous
 62
     4
100
AcDbLine
 10
1571.526750663614
 20
1078.347151916082
 30
0.0
 11
1572.326748663615
 21
1079.147149916083
 31
0.0
  0
LINE
  5
6F51
330
1E
100
AcDbEntity
  8
躯体と製品
  6
Continuous
 62
     4
100
AcDbLine
 10
1571.526750663615
 20
1076.932938353713
 30
0.0
 11
1572.326748663615
 21
1077.732936353714
 31
0.0
  0
LINE
  5
6F52
330
1E
100
AcDbEntity
  8
躯体と製品
  6
Continuous
 62
     4
100
AcDbLine
 10
1571.526750663615
 20
1075.51872479134
 30
0.0
 11
1572.326748663615
 21
1076.31872279134
 31
0.0
  0
LINE
  5
6F53
330
1E
100
AcDbEntity
  8
躯体と製品
  6
Continuous
 62
     4
100
AcDbLine
 10
1571.526750663615
 20
1074.104511228966
 30
0.0
 11
1572.326748663615
 21
1074.904509228967
 31
0.0
  0
LINE
  5
6F54
330
1E
100
AcDbEntity
  8
躯体と製品
  6
Continuous
 62
     4
100
AcDbLine
 10
1571.526750663615
 20
1072.690297666593
 30
0.0
 11
1572.326748663615
 21
1073.490295666594
 31
0.0
  0
LINE
  5
6F55
330
1E
100
AcDbEntity
  8
躯体と製品
  6
Continuous
 62
     4
100
AcDbLine
 10
1571.526750663615
 20
1071.27608410422
 30
0.0
 11
1572.326748663615
 21
1072.076082104221
 31
0.0
  0
LINE
  5
6F56
330
1E
100
AcDbEntity
  8
躯体と製品
  6
Continuous
 62
     4
100
AcDbLine
 10
1571.526750663615
 20
1069.861870541847
 30
0.0
 11
1572.326748663614
 21
1070.661868541846
 31
0.0
  0
LINE
  5
6F57
330
1E
100
AcDbEntity
  8
躯体と製品
  6
Continuous
 62
     4
100
AcDbLine
 10
1571.526750663615
 20
1068.447656979473
 30
0.0
 11
1572.326748663614
 21
1069.247654979473
 31
0.0
  0
LINE
  5
6F58
330
1E
100
AcDbEntity
  8
躯体と製品
  6
Continuous
 62
     4
100
AcDbLine
 10
1571.526750663615
 20
1067.0334434171
 30
0.0
 11
1572.326748663615
 21
1067.8334414171
 31
0.0
  0
LINE
  5
6F59
330
1E
100
AcDbEntity
  8
躯体と製品
  6
Continuous
 62
     4
100
AcDbLine
 10
1571.526750663615
 20
1065.619229854727
 30
0.0
 11
1572.326748663615
 21
1066.419227854727
 31
0.0
  0
LINE
  5
6F5A
330
1E
100
AcDbEntity
  8
躯体と製品
  6
Continuous
 62
     4
100
AcDbLine
 10
1571.526750663615
 20
1064.205016292353
 30
0.0
 11
1572.326748663615
 21
1065.005014292353
 31
0.0
  0
LINE
  5
6F5B
330
1E
100
AcDbEntity
  8
躯体と製品
  6
Continuous
 62
     4
100
AcDbLine
 10
1571.526750663615
 20
1062.79080272998
 30
0.0
 11
1572.326748663615
 21
1063.59080072998
 31
0.0
  0
LINE
  5
6F5C
330
1E
100
AcDbEntity
  8
躯体と製品
  6
Continuous
 62
     4
100
AcDbLine
 10
1571.526750663615
 20
1061.376589167607
 30
0.0
 11
1572.326748663615
 21
1062.176587167607
 31
0.0
  0
LINE
  5
6F5D
330
1E
100
AcDbEntity
  8
躯体と製品
  6
Continuous
 62
     4
100
AcDbLine
 10
1571.526750663616
 20
1059.962375605234
 30
0.0
 11
1572.326748663615
 21
1060.762373605234
 31
0.0
  0
LINE
  5
6F5E
330
1E
100
AcDbEntity
  8
躯体と製品
  6
Continuous
 62
     4
100
AcDbLine
 10
1571.526750663615
 20
1058.54816204286
 30
0.0
 11
1572.326748663615
 21
1059.34816004286
 31
0.0
  0
LINE
  5
6F5F
330
1E
100
AcDbEntity
  8
躯体と製品
  6
Continuous
 62
     4
100
AcDbLine
 10
1571.526750663615
 20
1057.133948480486
 30
0.0
 11
1572.326748663615
 21
1057.933946480487
 31
0.0
  0
LINE
  5
6F60
330
1E
100
AcDbEntity
  8
躯体と製品
  6
Continuous
 62
     7
100
AcDbLine
 10
1551.326748663615
 20
1090.884404318472
 30
0.0
 11
1551.326751663615
 21
1087.384406318472
 31
0.0
  0
LINE
  5
6F61
330
1E
100
AcDbEntity
  8
躯体と製品
  6
Continuous
 62
     7
100
AcDbLine
 10
1571.026749663615
 20
1086.084404318472
 30
0.0
 11
1552.626750663615
 21
1086.084404318472
 31
0.0
  0
LINE
  5
6F62
330
1E
100
AcDbEntity
  8
躯体と製品
  6
Continuous
 62
     7
100
AcDbLine
 10
1571.526750663615
 20
1056.884405318472
 30
0.0
 11
1572.326748663615
 21
1056.884405318472
 31
0.0
  0
LINE
  5
6F63
330
1E
100
AcDbEntity
  8
躯体と製品
  6
Continuous
 62
     7
100
AcDbLine
 10
1572.326748663615
 20
1085.584406318472
 30
0.0
 11
1572.326748663615
 21
1056.884405318472
 31
0.0
  0
LINE
  5
6F64
330
1E
100
AcDbEntity
  8
躯体と製品
  6
Continuous
 62
     7
100
AcDbLine
 10
1571.526750663615
 20
1085.584406318472
 30
0.0
 11
1571.526750663615
 21
1056.884405318472
 31
0.0
  0
ARC
  5
6F65
330
1E
100
AcDbEntity
  8
躯体と製品
  6
Continuous
 62
     7
100
AcDbCircle
 10
1571.026749663615
 20
1085.584406318472
 30
0.0
 40
0.5000010000000002
100
AcDbArc
 50
0.0
 51
90.0
  0
ARC
  5
6F66
330
1E
100
AcDbEntity
  8
躯体と製品
  6
Continuous
 62
     7
100
AcDbCircle
 10
1571.026749663615
 20
1085.584406318472
 30
0.0
 40
1.299998999999999
100
AcDbArc
 50
0.0
 51
90.0
  0
LINE
  5
6F67
330
1E
100
AcDbEntity
  8
躯体と製品
  6
Continuous
 62
     7
100
AcDbLine
 10
1571.026749663615
 20
1086.884405318472
 30
0.0
 11
1552.626750663615
 21
1086.884405318472
 31
0.0
  0
LINE
  5
6F68
330
1E
100
AcDbEntity
  8
躯体と製品
  6
Continuous
 62
     7
100
AcDbLine
 10
1551.326748663615
 20
1090.884404318472
 30
0.0
 11
1552.126749663615
 21
1090.884404318472
 31
0.0
  0
ARC
  5
6F69
330
1E
100
AcDbEntity
  8
躯体と製品
  6
Continuous
 62
     7
100
AcDbCircle
 10
1552.626750663615
 20
1087.384406318472
 30
0.0
 40
1.299998999999999
100
AcDbArc
 50
180.0
 51
270.0
  0
ARC
  5
6F6A
330
1E
100
AcDbEntity
  8
躯体と製品
  6
Continuous
 62
     7
100
AcDbCircle
 10
1552.626750663615
 20
1087.384406318472
 30
0.0
 40
0.5000010000000002
100
AcDbArc
 50
180.0
 51
270.0
  0
LINE
  5
6F6B
330
1E
100
AcDbEntity
  8
躯体と製品
  6
Continuous
 62
     7
100
AcDbLine
 10
1552.126749663615
 20
1087.384406318472
 30
0.0
 11
1552.126749663615
 21
1090.884404318472
 31
0.0
  0
ARC
  5
6F6C
330
1E
100
AcDbEntity
  8
躯体と製品
  6
Continuous
 62
     3
100
AcDbCircle
 10
1553.626748663615
 20
1088.084404318472
 30
0.0
 40
1.0
100
AcDbArc
 50
180.0
 51
270.0
  0
ARC
  5
6F6D
330
1E
100
AcDbEntity
  8
躯体と製品
  6
Continuous
 62
     3
100
AcDbCircle
 10
1564.126748663615
 20
1053.584404318473
 30
0.0
 40
0.5
100
AcDbArc
 50
90.0
 51
180.0
  0
LINE
  5
6F6E
330
1E
100
AcDbEntity
  8
躯体と製品
  6
Continuous
 62
     3
100
AcDbLine
 10
1563.626748663615
 20
1053.084404318473
 30
0.0
 11
1563.626748663615
 21
1053.584404318473
 31
0.0
  0
ARC
  5
6F6F
330
1E
100
AcDbEntity
  8
躯体と製品
  6
Continuous
 62
     3
100
AcDbCircle
 10
1564.126748663615
 20
1053.084404318473
 30
0.0
 40
0.5
100
AcDbArc
 50
180.0
 51
270.0
  0
ARC
  5
6F70
330
1E
100
AcDbEntity
  8
躯体と製品
  6
Continuous
 62
     3
100
AcDbCircle
 10
1554.626748663615
 20
1089.084404318472
 30
0.0
 40
0.5
100
AcDbArc
 50
180.0
 51
270.0
  0
LINE
  5
6F71
330
1E
100
AcDbEntity
  8
躯体と製品
  6
Continuous
 62
     3
100
AcDbLine
 10
1553.626748663615
 20
1087.084404318472
 30
0.0
 11
1572.126748663615
 21
1087.084404318472
 31
0.0
  0
LINE
  5
6F72
330
1E
100
AcDbEntity
  8
躯体と製品
  6
Continuous
 62
     3
100
AcDbLine
 10
1573.126748663615
 20
1052.584404318473
 30
0.0
 11
1564.126748663615
 21
1052.584404318473
 31
0.0
  0
LINE
  5
6F73
330
1E
100
AcDbEntity
  8
躯体と製品
  6
Continuous
 62
     3
100
AcDbLine
 10
1572.126748663615
 20
1054.084404318472
 30
0.0
 11
1564.126748663615
 21
1054.084404318472
 31
0.0
  0
LINE
  5
6F74
330
1E
100
AcDbEntity
  8
躯体と製品
  6
Continuous
 62
     3
100
AcDbLine
 10
1554.626748663615
 20
1088.584404318472
 30
0.0
 11
1573.126748663615
 21
1088.584404318472
 31
0.0
  0
ARC
  5
6F75
330
1E
100
AcDbEntity
  8
躯体と製品
  6
Continuous
 62
     3
100
AcDbCircle
 10
1573.126748663615
 20
1053.584404318473
 30
0.0
 40
1.0
100
AcDbArc
 50
270.0
 51
0.0
  0
ARC
  5
6F76
330
1E
100
AcDbEntity
  8
躯体と製品
  6
Continuous
 62
     3
100
AcDbCircle
 10
1572.126748663615
 20
1054.584404318473
 30
0.0
 40
0.5
100
AcDbArc
 50
270.0
 51
0.0
  0
LINE
  5
6F77
330
1E
100
AcDbEntity
  8
躯体と製品
  6
Continuous
 62
     3
100
AcDbLine
 10
1574.126748663615
 20
1087.584404318473
 30
0.0
 11
1574.126748663615
 21
1053.584404318473
 31
0.0
  0
ARC
  5
6F78
330
1E
100
AcDbEntity
  8
躯体と製品
  6
Continuous
 62
     3
100
AcDbCircle
 10
1573.126748663615
 20
1087.584404318473
 30
0.0
 40
1.0
100
AcDbArc
 50
0.0
 51
90.0
  0
LINE
  5
6F79
330
1E
100
AcDbEntity
  8
躯体と製品
  6
Continuous
 62
     3
100
AcDbLine
 10
1572.626748663615
 20
1086.584404318473
 30
0.0
 11
1572.626748663615
 21
1054.584404318473
 31
0.0
  0
ARC
  5
6F7A
330
1E
100
AcDbEntity
  8
躯体と製品
  6
Continuous
 62
     3
100
AcDbCircle
 10
1572.126748663615
 20
1086.584404318473
 30
0.0
 40
0.5
100
AcDbArc
 50
0.0
 51
90.0
  0
LINE
  5
6F7B
330
1E
100
AcDbEntity
  8
躯体と製品
  6
Continuous
 62
     3
100
AcDbLine
 10
1552.626748663614
 20
1088.084404318472
 30
0.0
 11
1552.626748663614
 21
1098.584404318472
 31
0.0
  0
LINE
  5
6F7C
330
1E
100
AcDbEntity
  8
躯体と製品
  6
Continuous
 62
     3
100
AcDbLine
 10
1554.126748663614
 20
1094.784404318473
 30
0.0
 11
1554.126748663614
 21
1089.084404318472
 31
0.0
  0
LINE
  5
6F7D
330
1E
100
AcDbEntity
  8
躯体と製品
  6
Continuous
 62
     3
100
AcDbLine
 10
1554.126748663614
 20
1099.584404318473
 30
0.0
 11
1554.126748663614
 21
1095.384404318473
 31
0.0
  0
ARC
  5
6F7E
330
1E
100
AcDbEntity
  8
躯体と製品
  6
Continuous
 62
     3
100
AcDbCircle
 10
1545.126748663615
 20
1099.584404318473
 30
0.0
 40
0.5
100
AcDbArc
 50
180.0
 51
270.0
  0
LINE
  5
6F7F
330
1E
100
AcDbEntity
  8
躯体と製品
  6
Continuous
 62
     3
100
AcDbLine
 10
1553.826748663615
 20
1095.084404318472
 30
0.0
 11
1554.126748663614
 21
1094.784404318473
 31
0.0
  0
LINE
  5
6F80
330
1E
100
AcDbEntity
  8
躯体と製品
  6
Continuous
 62
     3
100
AcDbLine
 10
1545.126748663615
 20
1099.084404318473
 30
0.0
 11
1552.126748663615
 21
1099.084404318473
 31
0.0
  0
ARC
  5
6F81
330
1E
100
AcDbEntity
  8
躯体と製品
  6
Continuous
 62
     3
100
AcDbCircle
 10
1552.126748663615
 20
1098.584404318472
 30
0.0
 40
0.5
100
AcDbArc
 50
0.0
 51
90.0
  0
LINE
  5
6F82
330
1E
100
AcDbEntity
  8
躯体と製品
  6
Continuous
 62
     3
100
AcDbLine
 10
1544.626748663615
 20
1100.084404318472
 30
0.0
 11
1544.626748663615
 21
1099.584404318473
 31
0.0
  0
ARC
  5
6F83
330
1E
100
AcDbEntity
  8
躯体と製品
  6
Continuous
 62
     3
100
AcDbCircle
 10
1545.126748663615
 20
1100.084404318472
 30
0.0
 40
0.5
100
AcDbArc
 50
90.0
 51
180.0
  0
ARC
  5
6F84
330
1E
100
AcDbEntity
  8
躯体と製品
  6
Continuous
 62
     3
100
AcDbCircle
 10
1553.126748663615
 20
1099.584404318473
 30
0.0
 40
1.0
100
AcDbArc
 50
0.0
 51
90.0
  0
LINE
  5
6F85
330
1E
100
AcDbEntity
  8
躯体と製品
  6
Continuous
 62
     3
100
AcDbLine
 10
1553.126748663615
 20
1100.584404318472
 30
0.0
 11
1545.126748663615
 21
1100.584404318472
 31
0.0
  0
LINE
  5
6F86
330
1E
100
AcDbEntity
  8
躯体と製品
  6
Continuous
 62
     3
100
AcDbLine
 10
1553.826748663615
 20
1095.084404318472
 30
0.0
 11
1554.126748663614
 21
1095.384404318473
 31
0.0
  0
LINE
  5
6F87
330
1E
100
AcDbEntity
  8
躯体と製品
  6
Continuous
 62
     3
100
AcDbLine
 10
1541.626748663615
 20
1049.584404318472
 30
0.0
 11
1542.126748663615
 21
1049.584404318472
 31
0.0
  0
LINE
  5
6F88
330
1E
100
AcDbEntity
  8
躯体と製品
  6
Continuous
 62
     3
100
AcDbLine
 10
1541.626748663615
 20
1039.584404318472
 30
0.0
 11
1542.126748663615
 21
1039.584404318472
 31
0.0
  0
LINE
  5
6F89
330
1E
100
AcDbEntity
  8
躯体と製品
  6
Continuous
 62
     3
100
AcDbLine
 10
1544.126748663615
 20
1045.084404318473
 30
0.0
 11
1543.626748663615
 21
1044.584404318473
 31
0.0
  0
LINE
  5
6F8A
330
1E
100
AcDbEntity
  8
躯体と製品
  6
Continuous
 62
     3
100
AcDbLine
 10
1544.126748663615
 20
1044.084404318472
 30
0.0
 11
1543.626748663615
 21
1044.584404318473
 31
0.0
  0
LINE
  5
6F8B
330
1E
100
AcDbEntity
  8
躯体と製品
  6
Continuous
 62
     3
100
AcDbLine
 10
1541.626748663615
 20
1049.584404318472
 30
0.0
 11
1541.626748663615
 21
1039.584404318472
 31
0.0
  0
LINE
  5
6F8C
330
1E
100
AcDbEntity
  8
躯体と製品
  6
Continuous
 62
     3
100
AcDbLine
 10
1541.626748663615
 20
1091.084404318473
 30
0.0
 11
1542.126748663615
 21
1091.084404318473
 31
0.0
  0
LINE
  5
6F8D
330
1E
100
AcDbEntity
  8
躯体と製品
  6
Continuous
 62
     3
100
AcDbLine
 10
1542.126748663615
 20
1091.084404318473
 30
0.0
 11
1542.126748663615
 21
1078.084404318472
 31
0.0
  0
LINE
  5
6F8E
330
1E
100
AcDbEntity
  8
躯体と製品
  6
Continuous
 62
     3
100
AcDbLine
 10
1542.126748663615
 20
1078.084404318472
 30
0.0
 11
1541.626748663615
 21
1078.084404318472
 31
0.0
  0
LINE
  5
6F8F
330
1E
100
AcDbEntity
  8
躯体と製品
  6
Continuous
 62
     3
100
AcDbLine
 10
1541.626748663615
 20
1076.584404318472
 30
0.0
 11
1542.126748663615
 21
1076.584404318472
 31
0.0
  0
ARC
  5
6F90
330
1E
100
AcDbEntity
  8
躯体と製品
  6
Continuous
 62
     3
100
AcDbCircle
 10
1551.626748663615
 20
1086.384404318473
 30
0.0
 40
0.2999999999999999
100
AcDbArc
 50
180.0
 51
270.0
  0
LINE
  5
6F91
330
1E
100
AcDbEntity
  8
躯体と製品
  6
Continuous
 62
     3
100
AcDbLine
 10
1551.626748663615
 20
1086.084404318472
 30
0.0
 11
1556.226748663615
 21
1086.084404318472
 31
0.0
  0
LINE
  5
6F92
330
1E
100
AcDbEntity
  8
躯体と製品
  6
Continuous
 62
     3
100
AcDbLine
 10
1550.126748663615
 20
1085.884404318473
 30
0.0
 11
1550.126748663615
 21
1090.584404318472
 31
0.0
  0
ARC
  5
6F93
330
1E
100
AcDbEntity
  8
躯体と製品
  6
Continuous
 62
     3
100
AcDbCircle
 10
1551.126748663615
 20
1085.884404318473
 30
0.0
 40
1.0
100
AcDbArc
 50
180.0
 51
270.0
  0
LINE
  5
6F94
330
1E
100
AcDbEntity
  8
躯体と製品
  6
Continuous
 62
     3
100
AcDbLine
 10
1551.126748663615
 20
1084.884404318473
 30
0.0
 11
1556.226748663615
 21
1084.884404318473
 31
0.0
  0
ARC
  5
6F95
330
1E
100
AcDbEntity
  8
躯体と製品
  6
Continuous
 62
     3
100
AcDbCircle
 10
1549.626748663615
 20
1090.584404318472
 30
0.0
 40
0.5
100
AcDbArc
 50
0.0
 51
90.0
  0
LINE
  5
6F96
330
1E
100
AcDbEntity
  8
躯体と製品
  6
Continuous
 62
     3
100
AcDbLine
 10
1549.626748663615
 20
1091.084404318473
 30
0.0
 11
1544.626748663615
 21
1091.084404318473
 31
0.0
  0
ARC
  5
6F97
330
1E
100
AcDbEntity
  8
躯体と製品
  6
Continuous
 62
     3
100
AcDbCircle
 10
1544.626748663615
 20
1090.584404318472
 30
0.0
 40
0.5
100
AcDbArc
 50
90.0
 51
180.0
  0
LINE
  5
6F98
330
1E
100
AcDbEntity
  8
躯体と製品
  6
Continuous
 62
     3
100
AcDbLine
 10
1544.126748663615
 20
1090.584404318472
 30
0.0
 11
1544.126748663615
 21
1078.584404318473
 31
0.0
  0
ARC
  5
6F99
330
1E
100
AcDbEntity
  8
躯体と製品
  6
Continuous
 62
     3
100
AcDbCircle
 10
1556.226748663615
 20
1085.484404318473
 30
0.0
 40
0.5999999999999999
100
AcDbArc
 50
270.0
 51
90.0
  0
ARC
  5
6F9A
330
1E
100
AcDbEntity
  8
躯体と製品
  6
Continuous
 62
     3
100
AcDbCircle
 10
1544.626748663615
 20
1076.084404318472
 30
0.0
 40
0.5
100
AcDbArc
 50
90.0
 51
180.0
  0
ARC
  5
6F9B
330
1E
100
AcDbEntity
  8
躯体と製品
  6
Continuous
 62
     3
100
AcDbCircle
 10
1544.626748663615
 20
1078.584404318473
 30
0.0
 40
0.5
100
AcDbArc
 50
180.0
 51
270.0
  0
LINE
  5
6F9C
330
1E
100
AcDbEntity
  8
躯体と製品
  6
Continuous
 62
     3
100
AcDbLine
 10
1550.126748663615
 20
1078.084404318472
 30
0.0
 11
1544.626748663615
 21
1078.084404318472
 31
0.0
  0
ARC
  5
6F9D
330
1E
100
AcDbEntity
  8
躯体と製品
  6
Continuous
 62
     3
100
AcDbCircle
 10
1550.126748663615
 20
1077.584404318473
 30
0.0
 40
0.5
100
AcDbArc
 50
0.0
 51
90.0
  0
LINE
  5
6F9E
330
1E
100
AcDbEntity
  8
躯体と製品
  6
Continuous
 62
     3
100
AcDbLine
 10
1550.626748663615
 20
1071.584404318473
 30
0.0
 11
1550.626748663615
 21
1077.584404318473
 31
0.0
  0
ARC
  5
6F9F
330
1E
100
AcDbEntity
  8
躯体と製品
  6
Continuous
 62
     3
100
AcDbCircle
 10
1549.626748663615
 20
1071.584404318473
 30
0.0
 40
1.0
100
AcDbArc
 50
270.0
 51
0.0
  0
LINE
  5
6FA0
330
1E
100
AcDbEntity
  8
躯体と製品
  6
Continuous
 62
     3
100
AcDbLine
 10
1549.626748663615
 20
1070.584404318473
 30
0.0
 11
1547.726748663615
 21
1070.584404318473
 31
0.0
  0
LINE
  5
6FA1
330
1E
100
AcDbEntity
  8
躯体と製品
  6
Continuous
 62
     3
100
AcDbLine
 10
1549.126748663615
 20
1076.084404318472
 30
0.0
 11
1549.126748663615
 21
1072.284404318472
 31
0.0
  0
ARC
  5
6FA2
330
1E
100
AcDbEntity
  8
躯体と製品
  6
Continuous
 62
     3
100
AcDbCircle
 10
1548.626748663615
 20
1076.084404318472
 30
0.0
 40
0.5
100
AcDbArc
 50
0.0
 51
90.0
  0
LINE
  5
6FA3
330
1E
100
AcDbEntity
  8
躯体と製品
  6
Continuous
 62
     3
100
AcDbLine
 10
1548.626748663615
 20
1076.584404318472
 30
0.0
 11
1544.626748663615
 21
1076.584404318472
 31
0.0
  0
LINE
  5
6FA4
330
1E
100
AcDbEntity
  8
躯体と製品
  6
Continuous
 62
     3
100
AcDbLine
 10
1548.626748663615
 20
1071.784404318472
 30
0.0
 11
1547.726748663615
 21
1071.784404318472
 31
0.0
  0
ARC
  5
6FA5
330
1E
100
AcDbEntity
  8
躯体と製品
  6
Continuous
 62
     3
100
AcDbCircle
 10
1548.626748663615
 20
1072.284404318472
 30
0.0
 40
0.5
100
AcDbArc
 50
270.0
 51
0.0
  0
ARC
  5
6FA6
330
1E
100
AcDbEntity
  8
躯体と製品
  6
Continuous
 62
     3
100
AcDbCircle
 10
1547.726748663615
 20
1071.184404318473
 30
0.0
 40
0.5999999999999999
100
AcDbArc
 50
90.0
 51
270.0
  0
LINE
  5
6FA7
330
1E
100
AcDbEntity
  8
躯体と製品
  6
Continuous
 62
     3
100
AcDbLine
 10
1543.126748663615
 20
1093.384404318473
 30
0.0
 11
1543.126748663615
 21
1096.784404318473
 31
0.0
  0
ARC
  5
6FA8
330
1E
100
AcDbEntity
  8
躯体と製品
  6
Continuous
 62
     3
100
AcDbCircle
 10
1543.426748663615
 20
1093.384404318473
 30
0.0
 40
0.2999999999999999
100
AcDbArc
 50
180.0
 51
270.0
  0
LINE
  5
6FA9
330
1E
100
AcDbEntity
  8
躯体と製品
  6
Continuous
 62
     3
100
AcDbLine
 10
1543.426748663615
 20
1093.084404318473
 30
0.0
 11
1544.626748663615
 21
1093.084404318473
 31
0.0
  0
LINE
  5
6FAA
330
1E
100
AcDbEntity
  8
躯体と製品
  6
Continuous
 62
     3
100
AcDbLine
 10
1543.426748663615
 20
1097.084404318472
 30
0.0
 11
1544.626748663615
 21
1097.084404318472
 31
0.0
  0
ARC
  5
6FAB
330
1E
100
AcDbEntity
  8
躯体と製品
  6
Continuous
 62
     3
100
AcDbCircle
 10
1543.426748663615
 20
1096.784404318473
 30
0.0
 40
0.2999999999999999
100
AcDbArc
 50
90.0
 51
180.0
  0
LINE
  5
6FAC
330
1E
100
AcDbEntity
  8
躯体と製品
  6
Continuous
 62
     3
100
AcDbLine
 10
1549.626748663615
 20
1097.084404318472
 30
0.0
 11
1552.126748663615
 21
1097.084404318472
 31
0.0
  0
LINE
  5
6FAD
330
1E
100
AcDbEntity
  8
躯体と製品
  6
Continuous
 62
     3
100
AcDbLine
 10
1549.626748663615
 20
1093.084404318473
 30
0.0
 11
1552.126748663615
 21
1093.084404318473
 31
0.0
  0
LINE
  5
6FAE
330
1E
100
AcDbEntity
  8
躯体と製品
  6
Continuous
 62
     3
100
AcDbLine
 10
1549.626748663615
 20
1097.084404318472
 30
0.0
 11
1549.126748663615
 21
1096.584404318472
 31
0.0
  0
LINE
  5
6FAF
330
1E
100
AcDbEntity
  8
躯体と製品
  6
Continuous
 62
     3
100
AcDbLine
 10
1549.126748663615
 20
1096.584404318472
 30
0.0
 11
1548.626748663615
 21
1097.084404318472
 31
0.0
  0
LINE
  5
6FB0
330
1E
100
AcDbEntity
  8
躯体と製品
  6
Continuous
 62
     3
100
AcDbLine
 10
1548.626748663615
 20
1097.084404318472
 30
0.0
 11
1548.126748663615
 21
1096.584404318472
 31
0.0
  0
LINE
  5
6FB1
330
1E
100
AcDbEntity
  8
躯体と製品
  6
Continuous
 62
     3
100
AcDbLine
 10
1548.126748663615
 20
1096.584404318472
 30
0.0
 11
1547.626748663615
 21
1097.084404318472
 31
0.0
  0
LINE
  5
6FB2
330
1E
100
AcDbEntity
  8
躯体と製品
  6
Continuous
 62
     3
100
AcDbLine
 10
1547.626748663615
 20
1097.084404318472
 30
0.0
 11
1547.126748663615
 21
1096.584404318472
 31
0.0
  0
LINE
  5
6FB3
330
1E
100
AcDbEntity
  8
躯体と製品
  6
Continuous
 62
     3
100
AcDbLine
 10
1547.126748663615
 20
1096.584404318472
 30
0.0
 11
1546.626748663615
 21
1097.084404318472
 31
0.0
  0
LINE
  5
6FB4
330
1E
100
AcDbEntity
  8
躯体と製品
  6
Continuous
 62
     3
100
AcDbLine
 10
1546.626748663615
 20
1097.084404318472
 30
0.0
 11
1546.126748663615
 21
1096.584404318472
 31
0.0
  0
LINE
  5
6FB5
330
1E
100
AcDbEntity
  8
躯体と製品
  6
Continuous
 62
     3
100
AcDbLine
 10
1546.126748663615
 20
1096.584404318472
 30
0.0
 11
1545.626748663615
 21
1097.084404318472
 31
0.0
  0
LINE
  5
6FB6
330
1E
100
AcDbEntity
  8
躯体と製品
  6
Continuous
 62
     3
100
AcDbLine
 10
1545.626748663615
 20
1097.084404318472
 30
0.0
 11
1545.126748663615
 21
1096.584404318472
 31
0.0
  0
LINE
  5
6FB7
330
1E
100
AcDbEntity
  8
躯体と製品
  6
Continuous
 62
     3
100
AcDbLine
 10
1545.126748663615
 20
1096.584404318472
 30
0.0
 11
1544.626748663615
 21
1097.084404318472
 31
0.0
  0
LINE
  5
6FB8
330
1E
100
AcDbEntity
  8
躯体と製品
  6
Continuous
 62
     3
100
AcDbLine
 10
1549.626748663615
 20
1093.084404318473
 30
0.0
 11
1549.126748663615
 21
1093.584404318473
 31
0.0
  0
LINE
  5
6FB9
330
1E
100
AcDbEntity
  8
躯体と製品
  6
Continuous
 62
     3
100
AcDbLine
 10
1549.126748663615
 20
1093.584404318473
 30
0.0
 11
1548.626748663615
 21
1093.084404318473
 31
0.0
  0
LINE
  5
6FBA
330
1E
100
AcDbEntity
  8
躯体と製品
  6
Continuous
 62
     3
100
AcDbLine
 10
1548.626748663615
 20
1093.084404318473
 30
0.0
 11
1548.126748663615
 21
1093.584404318473
 31
0.0
  0
LINE
  5
6FBB
330
1E
100
AcDbEntity
  8
躯体と製品
  6
Continuous
 62
     3
100
AcDbLine
 10
1548.126748663615
 20
1093.584404318473
 30
0.0
 11
1547.626748663615
 21
1093.084404318473
 31
0.0
  0
LINE
  5
6FBC
330
1E
100
AcDbEntity
  8
躯体と製品
  6
Continuous
 62
     3
100
AcDbLine
 10
1547.626748663615
 20
1093.084404318473
 30
0.0
 11
1547.126748663615
 21
1093.584404318473
 31
0.0
  0
LINE
  5
6FBD
330
1E
100
AcDbEntity
  8
躯体と製品
  6
Continuous
 62
     3
100
AcDbLine
 10
1547.126748663615
 20
1093.584404318473
 30
0.0
 11
1546.626748663615
 21
1093.084404318473
 31
0.0
  0
LINE
  5
6FBE
330
1E
100
AcDbEntity
  8
躯体と製品
  6
Continuous
 62
     3
100
AcDbLine
 10
1546.626748663615
 20
1093.084404318473
 30
0.0
 11
1546.126748663615
 21
1093.584404318473
 31
0.0
  0
LINE
  5
6FBF
330
1E
100
AcDbEntity
  8
躯体と製品
  6
Continuous
 62
     3
100
AcDbLine
 10
1546.126748663615
 20
1093.584404318473
 30
0.0
 11
1545.626748663615
 21
1093.084404318473
 31
0.0
  0
LINE
  5
6FC0
330
1E
100
AcDbEntity
  8
躯体と製品
  6
Continuous
 62
     3
100
AcDbLine
 10
1545.626748663615
 20
1093.084404318473
 30
0.0
 11
1545.126748663615
 21
1093.584404318473
 31
0.0
  0
LINE
  5
6FC1
330
1E
100
AcDbEntity
  8
躯体と製品
  6
Continuous
 62
     3
100
AcDbLine
 10
1545.126748663615
 20
1093.584404318473
 30
0.0
 11
1544.626748663615
 21
1093.084404318473
 31
0.0
  0
LINE
  5
6FC2
330
1E
100
AcDbEntity
  8
躯体と製品
  6
Continuous
 62
     3
100
AcDbLine
 10
1542.126748663615
 20
1099.084404318473
 30
0.0
 11
1550.626748663615
 21
1099.084404318473
 31
0.0
  0
ARC
  5
6FC3
330
1E
100
AcDbEntity
  8
躯体と製品
  6
Continuous
 62
     3
100
AcDbCircle
 10
1542.126748663615
 20
1098.584404318472
 30
0.0
 40
0.5
100
AcDbArc
 50
90.0
 51
180.0
  0
LINE
  5
6FC4
330
1E
100
AcDbEntity
  8
躯体と製品
  6
Continuous
 62
     3
100
AcDbLine
 10
1541.626748663615
 20
1098.584404318472
 30
0.0
 11
1541.626748663615
 21
1091.084404318473
 31
0.0
  0
LINE
  5
6FC5
330
1E
100
AcDbEntity
  8
躯体と製品
  6
Continuous
 62
     3
100
AcDbLine
 10
1550.626748663615
 20
1099.084404318473
 30
0.0
 11
1550.626748663615
 21
1098.284404318473
 31
0.0
  0
LINE
  5
6FC6
330
1E
100
AcDbEntity
  8
躯体と製品
  6
Continuous
 62
     3
100
AcDbLine
 10
1551.326748663615
 20
1091.884404318473
 30
0.0
 11
1552.026748663615
 21
1091.884404318473
 31
0.0
  0
LINE
  5
6FC7
330
1E
100
AcDbEntity
  8
躯体と製品
  6
Continuous
 62
     3
100
AcDbLine
 10
1551.326748663615
 20
1086.384404318473
 30
0.0
 11
1551.326748663615
 21
1091.884404318473
 31
0.0
  0
LINE
  5
6FC8
330
1E
100
AcDbEntity
  8
躯体と製品
  6
Continuous
 62
     3
100
AcDbLine
 10
1550.626748663615
 20
1098.284404318473
 30
0.0
 11
1552.026748663615
 21
1098.284404318473
 31
0.0
  0
LINE
  5
6FC9
330
1E
100
AcDbEntity
  8
躯体と製品
  6
Continuous
 62
     3
100
AcDbLine
 10
1541.626748663615
 20
1078.084404318472
 30
0.0
 11
1541.626748663615
 21
1076.584404318472
 31
0.0
  0
ARC
  5
6FCA
330
1E
100
AcDbEntity
  8
躯体と製品
  6
Continuous
 62
     3
100
AcDbCircle
 10
1552.026748663615
 20
1092.484404318473
 30
0.0
 40
0.5999999999999999
100
AcDbArc
 50
270.0
 51
90.0
  0
ARC
  5
6FCB
330
1E
100
AcDbEntity
  8
躯体と製品
  6
Continuous
 62
     3
100
AcDbCircle
 10
1552.026748663615
 20
1097.684404318473
 30
0.0
 40
0.5999999999999999
100
AcDbArc
 50
270.0
 51
90.0
  0
LINE
  5
6FCC
330
1E
100
AcDbEntity
  8
躯体と製品
  6
Continuous
 62
     3
100
AcDbLine
 10
1542.126748663615
 20
1076.584404318472
 30
0.0
 11
1542.126748663615
 21
1065.084404318473
 31
0.0
  0
LINE
  5
6FCD
330
1E
100
AcDbEntity
  8
躯体と製品
  6
Continuous
 62
     3
100
AcDbLine
 10
1544.126748663615
 20
1065.584404318473
 30
0.0
 11
1544.126748663615
 21
1076.084404318472
 31
0.0
  0
LINE
  5
6FCE
330
1E
100
AcDbEntity
  8
躯体と製品
  6
Continuous
 62
     3
100
AcDbLine
 10
1542.126748663615
 20
1065.084404318473
 30
0.0
 11
1541.626748663615
 21
1065.084404318473
 31
0.0
  0
LINE
  5
6FCF
330
1E
100
AcDbEntity
  8
躯体と製品
  6
Continuous
 62
     3
100
AcDbLine
 10
1541.626748663615
 20
1063.584404318473
 30
0.0
 11
1542.126748663615
 21
1063.584404318473
 31
0.0
  0
LINE
  5
6FD0
330
1E
100
AcDbEntity
  8
躯体と製品
  6
Continuous
 62
     3
100
AcDbLine
 10
1542.126748663615
 20
1063.584404318473
 30
0.0
 11
1542.126748663615
 21
1049.584404318472
 31
0.0
  0
LINE
  5
6FD1
330
1E
100
AcDbEntity
  8
躯体と製品
  6
Continuous
 62
     3
100
AcDbLine
 10
1542.126748663615
 20
1039.584404318472
 30
0.0
 11
1542.126748663615
 21
1025.584404318472
 31
0.0
  0
LINE
  5
6FD2
330
1E
100
AcDbEntity
  8
躯体と製品
  6
Continuous
 62
     3
100
AcDbLine
 10
1542.126748663615
 20
1025.584404318472
 30
0.0
 11
1541.626748663615
 21
1025.584404318472
 31
0.0
  0
ARC
  5
6FD3
330
1E
100
AcDbEntity
  8
躯体と製品
  6
Continuous
 62
     3
100
AcDbCircle
 10
1544.626748663615
 20
1065.584404318473
 30
0.0
 40
0.5
100
AcDbArc
 50
180.0
 51
270.0
  0
LINE
  5
6FD4
330
1E
100
AcDbEntity
  8
躯体と製品
  6
Continuous
 62
     3
100
AcDbLine
 10
1544.626748663615
 20
1065.084404318473
 30
0.0
 11
1553.626748663615
 21
1065.084404318473
 31
0.0
  0
LINE
  5
6FD5
330
1E
100
AcDbEntity
  8
躯体と製品
  6
Continuous
 62
     3
100
AcDbLine
 10
1544.626748663615
 20
1019.084404318473
 30
0.0
 11
1550.376748663615
 21
1019.084404318473
 31
0.0
  0
ARC
  5
6FD6
330
1E
100
AcDbEntity
  8
躯体と製品
  6
Continuous
 62
     3
100
AcDbCircle
 10
1544.626748663615
 20
1019.584404318472
 30
0.0
 40
0.5
100
AcDbArc
 50
180.0
 51
270.0
  0
ARC
  5
6FD7
330
1E
100
AcDbEntity
  8
躯体と製品
  6
Continuous
 62
     3
100
AcDbCircle
 10
1544.626748663615
 20
1017.084404318473
 30
0.0
 40
0.5
100
AcDbArc
 50
90.0
 51
180.0
  0
LINE
  5
6FD8
330
1E
100
AcDbEntity
  8
躯体と製品
  6
Continuous
 62
     3
100
AcDbLine
 10
1544.626748663615
 20
1017.584404318472
 30
0.0
 11
1547.126748663615
 21
1017.584404318472
 31
0.0
  0
LINE
  5
6FD9
330
1E
100
AcDbEntity
  8
躯体と製品
  6
Continuous
 62
     3
100
AcDbLine
 10
1547.126748663615
 20
1017.584404318472
 30
0.0
 11
1548.126748663615
 21
1018.084404318472
 31
0.0
  0
LINE
  5
6FDA
330
1E
100
AcDbEntity
  8
躯体と製品
  6
Continuous
 62
     3
100
AcDbLine
 10
1548.126748663615
 20
1018.084404318472
 30
0.0
 11
1548.126748663615
 21
1017.584404318472
 31
0.0
  0
LINE
  5
6FDB
330
1E
100
AcDbEntity
  8
躯体と製品
  6
Continuous
 62
     3
100
AcDbLine
 10
1548.126748663615
 20
1017.584404318472
 30
0.0
 11
1549.126748663615
 21
1018.084404318472
 31
0.0
  0
LINE
  5
6FDC
330
1E
100
AcDbEntity
  8
躯体と製品
  6
Continuous
 62
     3
100
AcDbLine
 10
1549.126748663615
 20
1018.084404318472
 30
0.0
 11
1549.126748663615
 21
1017.584404318472
 31
0.0
  0
ARC
  5
6FDD
330
1E
100
AcDbEntity
  8
躯体と製品
  6
Continuous
 62
     3
100
AcDbCircle
 10
1550.376748663615
 20
1018.334404318472
 30
0.0
 40
0.75
100
AcDbArc
 50
270.0
 51
90.0
  0
ARC
  5
6FDE
330
1E
100
AcDbEntity
  8
躯体と製品
  6
Continuous
 62
     3
100
AcDbCircle
 10
1544.626748663615
 20
1063.084404318472
 30
0.0
 40
0.5
100
AcDbArc
 50
90.0
 51
180.0
  0
ARC
  5
6FDF
330
1E
100
AcDbEntity
  8
躯体と製品
  6
Continuous
 62
     3
100
AcDbCircle
 10
1553.626748663615
 20
1064.584404318472
 30
0.0
 40
0.5
100
AcDbArc
 50
0.0
 51
90.0
  0
LINE
  5
6FE0
330
1E
100
AcDbEntity
  8
躯体と製品
  6
Continuous
 62
     3
100
AcDbLine
 10
1553.626748663615
 20
1063.584404318473
 30
0.0
 11
1544.626748663615
 21
1063.584404318473
 31
0.0
  0
ARC
  5
6FE1
330
1E
100
AcDbEntity
  8
躯体と製品
  6
Continuous
 62
     3
100
AcDbCircle
 10
1553.626748663615
 20
1064.084404318472
 30
0.0
 40
0.5
100
AcDbArc
 50
270.0
 51
0.0
  0
LINE
  5
6FE2
330
1E
100
AcDbEntity
  8
躯体と製品
  6
Continuous
 62
     3
100
AcDbLine
 10
1554.126748663614
 20
1064.084404318472
 30
0.0
 11
1554.126748663614
 21
1064.584404318472
 31
0.0
  0
LINE
  5
6FE3
330
1E
100
AcDbEntity
  8
躯体と製品
  6
Continuous
 62
     3
100
AcDbLine
 10
1544.126748663615
 20
1023.584404318472
 30
0.0
 11
1544.126748663615
 21
1019.584404318472
 31
0.0
  0
ARC
  5
6FE4
330
1E
100
AcDbEntity
  8
躯体と製品
  6
Continuous
 62
     3
100
AcDbCircle
 10
1544.626748663615
 20
1023.584404318472
 30
0.0
 40
0.5
100
AcDbArc
 50
90.0
 51
180.0
  0
LINE
  5
6FE5
330
1E
100
AcDbEntity
  8
躯体と製品
  6
Continuous
 62
     3
100
AcDbLine
 10
1544.626748663615
 20
1024.084404318473
 30
0.0
 11
1555.376748663615
 21
1024.084404318473
 31
0.0
  0
LINE
  5
6FE6
330
1E
100
AcDbEntity
  8
躯体と製品
  6
Continuous
 62
     3
100
AcDbLine
 10
1544.126748663615
 20
1026.084404318472
 30
0.0
 11
1544.126748663615
 21
1044.084404318472
 31
0.0
  0
ARC
  5
6FE7
330
1E
100
AcDbEntity
  8
躯体と製品
  6
Continuous
 62
     3
100
AcDbCircle
 10
1544.626748663615
 20
1026.084404318472
 30
0.0
 40
0.5
100
AcDbArc
 50
180.0
 51
270.0
  0
LINE
  5
6FE8
330
1E
100
AcDbEntity
  8
躯体と製品
  6
Continuous
 62
     3
100
AcDbLine
 10
1544.626748663615
 20
1025.584404318472
 30
0.0
 11
1555.376748663615
 21
1025.584404318472
 31
0.0
  0
ARC
  5
6FE9
330
1E
100
AcDbEntity
  8
躯体と製品
  6
Continuous
 62
     3
100
AcDbCircle
 10
1555.376748663615
 20
1024.834404318473
 30
0.0
 40
0.75
100
AcDbArc
 50
270.0
 51
90.0
  0
ARC
  5
6FEA
330
1E
100
AcDbEntity
  8
躯体と製品
  6
Continuous
 62
     3
100
AcDbCircle
 10
1544.626748663615
 20
1014.084404318472
 30
0.0
 40
0.5
100
AcDbArc
 50
180.0
 51
270.0
  0
LINE
  5
6FEB
330
1E
100
AcDbEntity
  8
躯体と製品
  6
Continuous
 62
     3
100
AcDbLine
 10
1544.626748663615
 20
1013.584404318472
 30
0.0
 11
1547.126748663615
 21
1013.584404318472
 31
0.0
  0
ARC
  5
6FEC
330
1E
100
AcDbEntity
  8
躯体と製品
  6
Continuous
 62
     3
100
AcDbCircle
 10
1550.376748663615
 20
1012.834404318472
 30
0.0
 40
0.75
100
AcDbArc
 50
270.0
 51
90.0
  0
LINE
  5
6FED
330
1E
100
AcDbEntity
  8
躯体と製品
  6
Continuous
 62
     3
100
AcDbLine
 10
1547.126748663615
 20
1013.584404318472
 30
0.0
 11
1548.126748663615
 21
1013.084404318473
 31
0.0
  0
LINE
  5
6FEE
330
1E
100
AcDbEntity
  8
躯体と製品
  6
Continuous
 62
     3
100
AcDbLine
 10
1548.126748663615
 20
1013.584404318472
 30
0.0
 11
1548.126748663615
 21
1013.084404318473
 31
0.0
  0
LINE
  5
6FEF
330
1E
100
AcDbEntity
  8
躯体と製品
  6
Continuous
 62
     3
100
AcDbLine
 10
1548.126748663615
 20
1013.584404318472
 30
0.0
 11
1549.126748663615
 21
1013.084404318473
 31
0.0
  0
LINE
  5
6FF0
330
1E
100
AcDbEntity
  8
躯体と製品
  6
Continuous
 62
     3
100
AcDbLine
 10
1549.126748663615
 20
1013.584404318472
 30
0.0
 11
1549.126748663615
 21
1013.084404318473
 31
0.0
  0
LINE
  5
6FF1
330
1E
100
AcDbEntity
  8
躯体と製品
  6
Continuous
 62
     3
100
AcDbLine
 10
1544.126748663615
 20
1014.084404318472
 30
0.0
 11
1544.126748663615
 21
1017.084404318473
 31
0.0
  0
LINE
  5
6FF2
330
1E
100
AcDbEntity
  8
躯体と製品
  6
Continuous
 62
     3
100
AcDbLine
 10
1542.626748663615
 20
1014.084404318472
 30
0.0
 11
1542.626748663615
 21
1023.584404318472
 31
0.0
  0
ARC
  5
6FF3
330
1E
100
AcDbEntity
  8
躯体と製品
  6
Continuous
 62
     3
100
AcDbCircle
 10
1542.126748663615
 20
1014.084404318472
 30
0.0
 40
0.5
100
AcDbArc
 50
270.0
 51
0.0
  0
LINE
  5
6FF4
330
1E
100
AcDbEntity
  8
躯体と製品
  6
Continuous
 62
     3
100
AcDbLine
 10
1542.126748663615
 20
1013.584404318472
 30
0.0
 11
1541.626748663615
 21
1013.584404318472
 31
0.0
  0
LINE
  5
6FF5
330
1E
100
AcDbEntity
  8
躯体と製品
  6
Continuous
 62
     3
100
AcDbLine
 10
1541.626748663615
 20
1012.084404318472
 30
0.0
 11
1541.626748663615
 21
1013.584404318472
 31
0.0
  0
LINE
  5
6FF6
330
1E
100
AcDbEntity
  8
躯体と製品
  6
Continuous
 62
     3
100
AcDbLine
 10
1550.376748663615
 20
1012.084404318472
 30
0.0
 11
1541.626748663615
 21
1012.084404318472
 31
0.0
  0
LINE
  5
6FF7
330
1E
100
AcDbEntity
  8
躯体と製品
  6
Continuous
 62
     3
100
AcDbLine
 10
1542.126748663615
 20
1024.084404318473
 30
0.0
 11
1541.626748663615
 21
1024.084404318473
 31
0.0
  0
ARC
  5
6FF8
330
1E
100
AcDbEntity
  8
躯体と製品
  6
Continuous
 62
     3
100
AcDbCircle
 10
1542.126748663615
 20
1023.584404318472
 30
0.0
 40
0.5
100
AcDbArc
 50
0.0
 51
90.0
  0
LINE
  5
6FF9
330
1E
100
AcDbEntity
  8
躯体と製品
  6
Continuous
 62
     3
100
AcDbLine
 10
1550.376748663615
 20
1013.584404318472
 30
0.0
 11
1549.126748663615
 21
1013.584404318472
 31
0.0
  0
LINE
  5
6FFA
330
1E
100
AcDbEntity
  8
躯体と製品
  6
Continuous
 62
     3
100
AcDbLine
 10
1550.376748663615
 20
1017.584404318472
 30
0.0
 11
1549.126748663615
 21
1017.584404318472
 31
0.0
  0
LINE
  5
6FFB
330
1E
100
AcDbEntity
  8
躯体と製品
  6
Continuous
 62
     3
100
AcDbLine
 10
1541.626748663615
 20
1025.584404318472
 30
0.0
 11
1541.626748663615
 21
1024.084404318473
 31
0.0
  0
LINE
  5
6FFC
330
1E
100
AcDbEntity
  8
躯体と製品
  6
Continuous
 62
     3
100
AcDbLine
 10
1541.626748663615
 20
1065.084404318473
 30
0.0
 11
1541.626748663615
 21
1063.584404318473
 31
0.0
  0
LINE
  5
6FFD
330
1E
100
AcDbEntity
  8
躯体と製品
  6
Continuous
 62
     3
100
AcDbLine
 10
1544.126748663615
 20
1045.084404318473
 30
0.0
 11
1544.126748663615
 21
1063.084404318472
 31
0.0
  0
ARC
  5
6FFE
330
1E
100
AcDbEntity
  8
躯体と製品
  6
Continuous
 62
     7
100
AcDbCircle
 10
1563.926748663615
 20
1052.884404318472
 30
0.0
 40
0.2999999999999999
100
AcDbArc
 50
180.0
 51
270.0
  0
ARC
  5
6FFF
330
1E
100
AcDbEntity
  8
躯体と製品
  6
Continuous
 62
     7
100
AcDbCircle
 10
1563.626748663615
 20
1052.584404318473
 30
0.0
 40
1.0
100
AcDbArc
 50
180.0
 51
270.0
  0
LINE
  5
7000
330
1E
100
AcDbEntity
  8
躯体と製品
  6
Continuous
 62
     7
100
AcDbLine
 10
1563.926748663615
 20
1052.584404318473
 30
0.0
 11
1572.126748663615
 21
1052.584404318473
 31
0.0
  0
LINE
  5
7001
330
1E
100
AcDbEntity
  8
躯体と製品
  6
Continuous
 62
     7
100
AcDbLine
 10
1572.626748663615
 20
1052.084404318472
 30
0.0
 11
1572.626748663615
 21
1051.584404318472
 31
0.0
  0
ARC
  5
7002
330
1E
100
AcDbEntity
  8
躯体と製品
  6
Continuous
 62
     7
100
AcDbCircle
 10
1572.126748663615
 20
1052.084404318472
 30
0.0
 40
0.5
100
AcDbArc
 50
0.0
 51
90.0
  0
LINE
  5
7003
330
1E
100
AcDbEntity
  8
躯体と製品
  6
Continuous
 62
     7
100
AcDbLine
 10
1563.626748663615
 20
1051.584404318472
 30
0.0
 11
1572.626748663615
 21
1051.584404318472
 31
0.0
  0
ARC
  5
7004
330
1E
100
AcDbEntity
  8
躯体と製品
  6
Continuous
 62
     7
100
AcDbCircle
 10
1569.173570970662
 20
1055.600748610481
 30
0.0
 40
0.5
100
AcDbArc
 50
268.0950670994443
 51
358.0950670957424
  0
ARC
  5
7005
330
1E
100
AcDbEntity
  8
躯体と製品
  6
Continuous
 62
     7
100
AcDbCircle
 10
1570.189638941505
 20
1056.067231063059
 30
0.0
 40
0.4999999999354556
100
AcDbArc
 50
358.0950670994445
 51
178.0950670994445
  0
LINE
  5
7006
330
1E
100
AcDbEntity
  8
躯体と製品
  6
Continuous
 62
     7
100
AcDbLine
 10
1570.65612139408
 20
1055.05116309212
 30
0.0
 11
1570.689362620435
 21
1056.050610449913
 31
0.0
  0
ARC
  5
7007
330
1E
100
AcDbEntity
  8
躯体と製品
  6
Continuous
 62
     7
100
AcDbCircle
 10
1569.656674036352
 20
1055.084404318472
 30
0.0
 40
1.0
100
AcDbArc
 50
268.0950670994443
 51
358.0950670957424
  0
LINE
  5
7008
330
1E
100
AcDbEntity
  8
躯体と製品
  6
Continuous
 62
     7
100
AcDbLine
 10
1569.673294649527
 20
1055.584127997304
 30
0.0
 11
1569.689915262704
 21
1056.083851676201
 31
0.0
  0
LINE
  5
7009
330
1E
100
AcDbEntity
  8
躯体と製品
  6
Continuous
 62
     7
100
AcDbLine
 10
1563.659989889903
 20
1055.283851676203
 30
0.0
 11
1569.156950357518
 21
1055.101024931616
 31
0.0
  0
ARC
  5
700A
330
1E
100
AcDbEntity
  8
躯体と製品
  6
Continuous
 62
     7
100
AcDbCircle
 10
1563.626748663615
 20
1054.284404318472
 30
0.0
 40
1.0
100
AcDbArc
 50
88.09506709944431
 51
180.0
  0
LINE
  5
700B
330
1E
100
AcDbEntity
  8
躯体と製品
  6
Continuous
 62
     7
100
AcDbLine
 10
1563.936721031501
 20
1054.274094759351
 30
0.0
 11
1569.623432810063
 21
1054.084956960742
 31
0.0
  0
ARC
  5
700C
330
1E
100
AcDbEntity
  8
躯体と製品
  6
Continuous
 62
     7
100
AcDbCircle
 10
1563.926748663615
 20
1053.974260552031
 30
0.0
 40
0.2999999999999999
100
AcDbArc
 50
88.09506709944431
 51
180.0
  0
LINE
  5
700D
330
1E
100
AcDbEntity
  8
躯体と製品
  6
Continuous
 62
     7
100
AcDbLine
 10
1562.626748663615
 20
1054.284404318472
 30
0.0
 11
1562.626748663615
 21
1052.584404318473
 31
0.0
  0
LINE
  5
700E
330
1E
100
AcDbEntity
  8
躯体と製品
  6
Continuous
 62
     7
100
AcDbLine
 10
1563.626748663615
 20
1053.974260552031
 30
0.0
 11
1563.626748663615
 21
1052.884404318472
 31
0.0
  0
LINE
  5
700F
330
1E
100
AcDbEntity
  8
躯体と製品
  6
Continuous
 62
     3
100
AcDbLine
 10
1809.999025523413
 20
1002.612624729073
 30
0.0
 11
1811.464432298216
 21
1030.574251702201
 31
0.0
  0
LINE
  5
7010
330
1E
100
AcDbEntity
  8
躯体と製品
  6
Continuous
 62
     4
100
AcDbLine
 10
1811.322222761915
 20
1027.860732101756
 30
0.0
 11
1808.979140722093
 21
1030.203814141577
 31
0.0
  0
LINE
  5
7011
330
1E
100
AcDbEntity
  8
躯体と製品
  6
Continuous
 62
     4
100
AcDbLine
 10
1811.392647737571
 20
1029.204520688473
 30
0.0
 11
1810.471569143787
 21
1030.125599282257
 31
0.0
  0
LINE
  5
7012
330
1E
100
AcDbEntity
  8
躯体と製品
  6
Continuous
 62
     4
100
AcDbLine
 10
1811.25179778626
 20
1026.516943515038
 30
0.0
 11
1807.4867123004
 21
1030.282029000897
 31
0.0
  0
LINE
  5
7013
330
1E
100
AcDbEntity
  8
躯体と製品
  6
Continuous
 62
     4
100
AcDbLine
 10
1810.221301889642
 20
1026.133225849283
 30
0.0
 11
1805.994283878708
 21
1030.360243860217
 31
0.0
  0
LINE
  5
7014
330
1E
100
AcDbEntity
  8
躯体と製品
  6
Continuous
 62
     4
100
AcDbLine
 10
1808.72887346795
 20
1026.211440708603
 30
0.0
 11
1804.501855457017
 21
1030.438458719537
 31
0.0
  0
LINE
  5
7015
330
1E
100
AcDbEntity
  8
躯体と製品
  6
Continuous
 62
     4
100
AcDbLine
 10
1807.236445046257
 20
1026.289655567922
 30
0.0
 11
1803.009427035323
 21
1030.516673578856
 31
0.0
  0
LINE
  5
7016
330
1E
100
AcDbEntity
  8
躯体と製品
  6
Continuous
 62
     4
100
AcDbLine
 10
1805.744016624563
 20
1026.367870427242
 30
0.0
 11
1801.51699861363
 21
1030.594888438176
 31
0.0
  0
LINE
  5
7017
330
1E
100
AcDbEntity
  8
躯体と製品
  6
Continuous
 62
     4
100
AcDbLine
 10
1804.251588202871
 20
1026.446085286562
 30
0.0
 11
1800.024570191937
 21
1030.673103297496
 31
0.0
  0
LINE
  5
7018
330
1E
100
AcDbEntity
  8
躯体と製品
  6
Continuous
 62
     4
100
AcDbLine
 10
1802.759159781178
 20
1026.524300145882
 30
0.0
 11
1798.532141770244
 21
1030.751318156816
 31
0.0
  0
LINE
  5
7019
330
1E
100
AcDbEntity
  8
躯体と製品
  6
Continuous
 62
     4
100
AcDbLine
 10
1801.266731359485
 20
1026.602515005201
 30
0.0
 11
1797.039713348551
 21
1030.829533016136
 31
0.0
  0
LINE
  5
701A
330
1E
100
AcDbEntity
  8
躯体と製品
  6
Continuous
 62
     4
100
AcDbLine
 10
1799.774302937791
 20
1026.680729864522
 30
0.0
 11
1796.415807559645
 21
1030.039225242668
 31
0.0
  0
LINE
  5
701B
330
1E
100
AcDbEntity
  8
躯体と製品
  6
Continuous
 62
     4
100
AcDbLine
 10
1798.281874516098
 20
1026.758944723842
 30
0.0
 11
1796.34538258399
 21
1028.69543665595
 31
0.0
  0
LINE
  5
701C
330
1E
100
AcDbEntity
  8
躯体と製品
  6
Continuous
 62
     7
100
AcDbLine
 10
1796.249477473804
 20
1026.865458139449
 30
0.0
 11
1796.458821298776
 21
1030.859976278468
 31
0.0
  0
LINE
  5
701D
330
1E
100
AcDbEntity
  8
躯体と製品
  6
Continuous
 62
     7
100
AcDbLine
 10
1811.438264320094
 20
1030.074936934823
 30
0.0
 11
1796.458821298776
 21
1030.859976278468
 31
0.0
  0
LINE
  5
701E
330
1E
100
AcDbEntity
  8
躯体と製品
  6
Continuous
 62
     4
100
AcDbLine
 10
1796.789446094407
 20
1026.837159583161
 30
0.0
 11
1796.274957608334
 21
1027.351648069234
 31
0.0
  0
ARC
  5
701F
330
1E
100
AcDbEntity
  8
躯体と製品
  6
Continuous
 62
     3
100
AcDbCircle
 10
1820.264649440058
 20
1001.329447481501
 30
0.0
 40
0.5999999999999984
100
AcDbArc
 50
166.9999999999966
 51
346.9999999999966
  0
ARC
  5
7020
330
1E
100
AcDbEntity
  8
躯体と製品
  6
Continuous
 62
     3
100
AcDbCircle
 10
1819.776034911714
 20
1004.102978070998
 30
0.0
 40
0.5
100
AcDbArc
 50
347.0000000000029
 51
86.99999999999457
  0
ARC
  5
7021
330
1E
100
AcDbEntity
  8
躯体と製品
  6
Continuous
 62
     3
100
AcDbCircle
 10
1821.849789179114
 20
1004.194571684265
 30
0.0
 40
0.2999999999999999
100
AcDbArc
 50
86.99999999999457
 51
167.0000000000029
  0
ARC
  5
7022
330
1E
100
AcDbEntity
  8
躯体と製品
  6
Continuous
 62
     3
100
AcDbCircle
 10
1824.532030418563
 20
956.1677118703357
 30
0.0
 40
0.6000000000000015
100
AcDbArc
 50
90.0
 51
270.0
  0
LINE
  5
7023
330
1E
100
AcDbEntity
  8
躯体と製品
  6
Continuous
 62
     3
100
AcDbLine
 10
1835.699504696519
 20
948.4523991645387
 30
0.0
 11
1835.699504696519
 21
944.7677118703357
 31
0.0
  0
LINE
  5
7024
330
1E
100
AcDbEntity
  8
躯体と製品
  6
Continuous
 62
     3
100
AcDbLine
 10
1838.699504696519
 20
947.2677118703359
 30
0.0
 11
1838.699504696519
 21
948.7677118703357
 31
0.0
  0
LINE
  5
7025
330
1E
100
AcDbEntity
  8
躯体と製品
  6
Continuous
 62
     3
100
AcDbLine
 10
1836.199504696519
 20
944.7677118703357
 30
0.0
 11
1835.699504696519
 21
944.7677118703357
 31
0.0
  0
ARC
  5
7026
330
1E
100
AcDbEntity
  8
躯体と製品
  6
Continuous
 62
     3
100
AcDbCircle
 10
1836.199504696519
 20
947.2677118703359
 30
0.0
 40
2.5
100
AcDbArc
 50
270.0
 51
0.0
  0
LINE
  5
7027
330
1E
100
AcDbEntity
  8
躯体と製品
  6
Continuous
 62
     3
100
AcDbLine
 10
1828.932030418564
 20
956.7677118703356
 30
0.0
 11
1828.932030418564
 21
957.7677118703359
 31
0.0
  0
LINE
  5
7028
330
1E
100
AcDbEntity
  8
躯体と製品
  6
Continuous
 62
     3
100
AcDbLine
 10
1828.932030418564
 20
957.7677118703359
 30
0.0
 11
1826.932030418564
 21
956.7677118703356
 31
0.0
  0
LINE
  5
7029
330
1E
100
AcDbEntity
  8
躯体と製品
  6
Continuous
 62
     3
100
AcDbLine
 10
1824.532030418563
 20
956.7677118703356
 30
0.0
 11
1826.932030418564
 21
956.7677118703356
 31
0.0
  0
ARC
  5
702A
330
1E
100
AcDbEntity
  8
躯体と製品
  6
Continuous
 62
     3
100
AcDbCircle
 10
1833.314581840296
 20
957.2677118703357
 30
0.0
 40
0.5
100
AcDbArc
 50
270.0
 51
12.00000000000297
  0
LINE
  5
702B
330
1E
100
AcDbEntity
  8
躯体と製品
  6
Continuous
 62
     3
100
AcDbLine
 10
1833.78220627597
 20
955.5677118703357
 30
0.0
 11
1824.532030418563
 21
955.5677118703357
 31
0.0
  0
LINE
  5
702C
330
1E
100
AcDbEntity
  8
躯体と製品
  6
Continuous
 62
     3
100
AcDbLine
 10
1834.271280076337
 20
955.1716677157445
 30
0.0
 11
1835.699504696519
 21
948.4523991645387
 31
0.0
  0
ARC
  5
702D
330
1E
100
AcDbEntity
  8
躯体と製品
  6
Continuous
 62
     3
100
AcDbCircle
 10
1833.78220627597
 20
955.0677118703358
 30
0.0
 40
0.5
100
AcDbArc
 50
12.00000000000297
 51
90.0
  0
ARC
  5
702E
330
1E
100
AcDbEntity
  8
躯体と製品
  6
Continuous
 62
     3
100
AcDbCircle
 10
1810.550676247034
 20
1003.585086285706
 30
0.0
 40
0.5
100
AcDbArc
 50
177.0000000000011
 51
266.9999999999946
  0
LINE
  5
702F
330
1E
100
AcDbEntity
  8
躯体と製品
  6
Continuous
 62
     3
100
AcDbLine
 10
1811.023823036289
 20
1003.059603540207
 30
0.0
 11
1810.524508268912
 21
1003.085771518328
 31
0.0
  0
ARC
  5
7030
330
1E
100
AcDbEntity
  8
躯体と製品
  6
Continuous
 62
     3
100
AcDbCircle
 10
1811.049991014411
 20
1003.558918307584
 30
0.0
 40
0.5
100
AcDbArc
 50
266.9999999999946
 51
357.0000000000011
  0
ARC
  5
7031
330
1E
100
AcDbEntity
  8
躯体と製品
  6
Continuous
 62
     3
100
AcDbCircle
 10
1822.990500441811
 20
1003.433828897985
 30
0.0
 40
1.0
100
AcDbArc
 50
12.00000000000297
 51
86.99999999999457
  0
ARC
  5
7032
330
1E
100
AcDbEntity
  8
躯体と製品
  6
Continuous
 62
     3
100
AcDbCircle
 10
1823.809111791064
 20
1004.392299641073
 30
0.0
 40
3.0
100
AcDbArc
 50
12.00000000000297
 51
86.99999999999457
  0
ARC
  5
7033
330
1E
100
AcDbEntity
  8
躯体と製品
  6
Continuous
 62
     3
100
AcDbCircle
 10
1810.917027940734
 20
1010.575493028988
 30
0.0
 40
0.5
100
AcDbArc
 50
86.99999999999457
 51
177.0000000000011
  0
LINE
  5
7034
330
1E
100
AcDbEntity
  8
躯体と製品
  6
Continuous
 62
     3
100
AcDbLine
 10
1811.442510686233
 20
1011.048639818243
 30
0.0
 11
1810.943195918855
 21
1011.074807796365
 31
0.0
  0
ARC
  5
7035
330
1E
100
AcDbEntity
  8
躯体と製品
  6
Continuous
 62
     3
100
AcDbCircle
 10
1811.416342708111
 20
1010.549325050866
 30
0.0
 40
0.5
100
AcDbArc
 50
357.0000000000011
 51
86.99999999999457
  0
LINE
  5
7036
330
1E
100
AcDbEntity
  8
躯体と製品
  6
Continuous
 62
     3
100
AcDbLine
 10
1826.743554593265
 20
1005.016034713526
 30
0.0
 11
1838.699504696519
 21
948.7677118703357
 31
0.0
  0
LINE
  5
7037
330
1E
100
AcDbEntity
  8
躯体と製品
  6
Continuous
 62
     3
100
AcDbLine
 10
1823.968648042544
 20
1003.641740588803
 30
0.0
 11
1833.803655640663
 21
957.3716677157447
 31
0.0
  0
LINE
  5
7038
330
1E
100
AcDbEntity
  8
躯体と製品
  6
Continuous
 62
     3
100
AcDbLine
 10
1833.314581840296
 20
956.7677118703356
 30
0.0
 11
1828.932030418564
 21
956.7677118703356
 31
0.0
  0
LINE
  5
7039
330
1E
100
AcDbEntity
  8
躯体と製品
  6
Continuous
 62
     3
100
AcDbLine
 10
1811.810985563003
 20
1008.525898003236
 30
0.0
 11
1811.915657475489
 21
1010.523157072745
 31
0.0
  0
LINE
  5
703A
330
1E
100
AcDbEntity
  8
躯体と製品
  6
Continuous
 62
     3
100
AcDbLine
 10
1812.284132352258
 20
1008.000415257737
 30
0.0
 11
1823.966119659792
 21
1007.388188245336
 31
0.0
  0
ARC
  5
703B
330
1E
100
AcDbEntity
  8
躯体と製品
  6
Continuous
 62
     3
100
AcDbCircle
 10
1812.31030033038
 20
1008.499730025114
 30
0.0
 40
0.5
100
AcDbArc
 50
177.0000000000011
 51
266.9999999999946
  0
LINE
  5
703C
330
1E
100
AcDbEntity
  8
躯体と製品
  6
Continuous
 62
     3
100
AcDbLine
 10
1811.601641738031
 20
1004.531379864217
 30
0.0
 11
1811.549305781788
 21
1003.532750329463
 31
0.0
  0
ARC
  5
703D
330
1E
100
AcDbEntity
  8
躯体と製品
  6
Continuous
 62
     3
100
AcDbCircle
 10
1812.100956505408
 20
1004.505211886096
 30
0.0
 40
0.5
100
AcDbArc
 50
86.99999999999457
 51
177.0000000000011
  0
LINE
  5
703E
330
1E
100
AcDbEntity
  8
躯体と製品
  6
Continuous
 62
     3
100
AcDbLine
 10
1821.557478159678
 20
1004.262057000568
 30
0.0
 11
1820.849271478929
 21
1001.194476848896
 31
0.0
  0
LINE
  5
703F
330
1E
100
AcDbEntity
  8
躯体と製品
  6
Continuous
 62
     3
100
AcDbLine
 10
1823.042836398053
 20
1004.432458432739
 30
0.0
 11
1821.865489965987
 21
1004.494160544691
 31
0.0
  0
LINE
  5
7040
330
1E
100
AcDbEntity
  8
躯体と製品
  6
Continuous
 62
     3
100
AcDbLine
 10
1812.12712448353
 20
1005.004526653473
 30
0.0
 11
1819.802202889835
 21
1004.602292838375
 31
0.0
  0
LINE
  5
7041
330
1E
100
AcDbEntity
  8
躯体と製品
  6
Continuous
 62
     3
100
AcDbLine
 10
1820.263219944106
 20
1003.990502543826
 30
0.0
 11
1819.680027401187
 21
1001.464418114108
 31
0.0
  0
LINE
  5
7042
330
1E
100
AcDbEntity
  8
躯体と製品
  6
DASHED1
 62
     7
100
AcDbLine
 10
1781.825931542244
 20
1009.596661923146
 30
0.0
 11
1810.286873282749
 21
1008.105087170223
 31
0.0
  0
ARC
  5
7043
330
1E
100
AcDbEntity
  8
躯体と製品
  6
DASHED1
 62
     7
100
AcDbCircle
 10
1781.74742760788
 20
1008.098717621015
 30
0.0
 40
1.5
100
AcDbArc
 50
86.99999999999457
 51
266.9999999999946
  0
LINE
  5
7044
330
1E
100
AcDbEntity
  8
躯体と製品
  6
DASHED1
 62
     7
100
AcDbLine
 10
1781.668923673515
 20
1006.600773318883
 30
0.0
 11
1785.164127045156
 21
1006.417597472032
 31
0.0
  0
LINE
  5
7045
330
1E
100
AcDbEntity
  8
躯体と製品
  6
DASHED1
 62
     7
100
AcDbLine
 10
1785.216463001399
 20
1007.416227006787
 30
0.0
 11
1785.164127045156
 21
1006.417597472032
 31
0.0
  0
LINE
  5
7046
330
1E
100
AcDbEntity
  8
躯体と製品
  6
DASHED1
 62
     7
100
AcDbLine
 10
1785.216463001399
 20
1007.416227006787
 30
0.0
 11
1805.189053696491
 21
1006.369507881928
 31
0.0
  0
LINE
  5
7047
330
1E
100
AcDbEntity
  8
躯体と製品
  6
DASHED1
 62
     7
100
AcDbLine
 10
1805.189053696491
 20
1006.369507881928
 30
0.0
 11
1805.136717740248
 21
1005.370878347174
 31
0.0
  0
LINE
  5
7048
330
1E
100
AcDbEntity
  8
躯体と製品
  6
DASHED1
 62
     7
100
AcDbLine
 10
1805.136717740248
 20
1005.370878347174
 30
0.0
 11
1810.12986541402
 21
1005.109198565959
 31
0.0
  0
LINE
  5
7049
330
1E
100
AcDbEntity
  8
躯体と製品
  6
Continuous
 62
     4
100
AcDbLine
 10
1797.0249578975
 20
1031.330992489557
 30
0.0
 11
1796.510469411427
 21
1031.84548097563
 31
0.0
  0
ARC
  5
704A
330
1E
100
AcDbEntity
  8
躯体と製品
  6
Continuous
 62
     3
100
AcDbCircle
 10
1824.432030418564
 20
948.4677118703357
 30
0.0
 40
1.0
100
AcDbArc
 50
180.0
 51
270.0
  0
LINE
  5
704B
330
1E
100
AcDbEntity
  8
躯体と製品
  6
Continuous
 62
     3
100
AcDbLine
 10
1828.332030418564
 20
947.4677118703358
 30
0.0
 11
1824.432030418564
 21
947.4677118703358
 31
0.0
  0
ARC
  5
704C
330
1E
100
AcDbEntity
  8
躯体と製品
  6
Continuous
 62
     3
100
AcDbCircle
 10
1828.332030418564
 20
946.8677118703357
 30
0.0
 40
0.5999999999999998
100
AcDbArc
 50
270.0
 51
90.0
  0
LINE
  5
704D
330
1E
100
AcDbEntity
  8
躯体と製品
  6
Continuous
 62
     3
100
AcDbLine
 10
1821.932030418563
 20
985.5677118703358
 30
0.0
 11
1821.932030418563
 21
948.7677118703357
 31
0.0
  0
ARC
  5
704E
330
1E
100
AcDbEntity
  8
躯体と製品
  6
Continuous
 62
     3
100
AcDbCircle
 10
1822.682030418564
 20
1003.517711870336
 30
0.0
 40
0.75
100
AcDbArc
 50
0.0
 51
180.0
  0
LINE
  5
704F
330
1E
100
AcDbEntity
  8
躯体と製品
  6
Continuous
 62
     3
100
AcDbLine
 10
1821.932030418563
 20
996.9677118703357
 30
0.0
 11
1821.932030418563
 21
1003.517711870336
 31
0.0
  0
ARC
  5
7050
330
1E
100
AcDbEntity
  8
躯体と製品
  6
Continuous
 62
     3
100
AcDbCircle
 10
1821.432030418564
 20
996.9677118703357
 30
0.0
 40
0.5
100
AcDbArc
 50
270.0
 51
0.0
  0
ARC
  5
7051
330
1E
100
AcDbEntity
  8
躯体と製品
  6
Continuous
 62
     3
100
AcDbCircle
 10
1817.732030418564
 20
995.4677118703356
 30
0.0
 40
1.0
100
AcDbArc
 50
90.0
 51
180.0
  0
LINE
  5
7052
330
1E
100
AcDbEntity
  8
躯体と製品
  6
Continuous
 62
     3
100
AcDbLine
 10
1821.432030418564
 20
996.4677118703358
 30
0.0
 11
1817.732030418564
 21
996.4677118703358
 31
0.0
  0
ARC
  5
7053
330
1E
100
AcDbEntity
  8
躯体と製品
  6
Continuous
 62
     3
100
AcDbCircle
 10
1821.432030418564
 20
985.5677118703358
 30
0.0
 40
0.5
100
AcDbArc
 50
0.0
 51
90.0
  0
ARC
  5
7054
330
1E
100
AcDbEntity
  8
躯体と製品
  6
Continuous
 62
     3
100
AcDbCircle
 10
1817.732030418564
 20
987.0677118703357
 30
0.0
 40
1.0
100
AcDbArc
 50
180.0
 51
270.0
  0
LINE
  5
7055
330
1E
100
AcDbEntity
  8
躯体と製品
  6
Continuous
 62
     3
100
AcDbLine
 10
1821.432030418564
 20
986.0677118703357
 30
0.0
 11
1817.732030418564
 21
986.0677118703357
 31
0.0
  0
ARC
  5
7056
330
1E
100
AcDbEntity
  8
躯体と製品
  6
Continuous
 62
     3
100
AcDbCircle
 10
1821.632030418564
 20
994.9677118703357
 30
0.0
 40
0.2999999999999998
100
AcDbArc
 50
0.0
 51
90.0
  0
LINE
  5
7057
330
1E
100
AcDbEntity
  8
躯体と製品
  6
Continuous
 62
     3
100
AcDbLine
 10
1821.932030418563
 20
994.9677118703357
 30
0.0
 11
1821.932030418563
 21
987.5677118703357
 31
0.0
  0
ARC
  5
7058
330
1E
100
AcDbEntity
  8
躯体と製品
  6
Continuous
 62
     3
100
AcDbCircle
 10
1821.632030418564
 20
987.5677118703357
 30
0.0
 40
0.2999999999999998
100
AcDbArc
 50
270.0
 51
0.0
  0
LINE
  5
7059
330
1E
100
AcDbEntity
  8
躯体と製品
  6
Continuous
 62
     3
100
AcDbLine
 10
1818.232030418564
 20
987.2677118703359
 30
0.0
 11
1821.632030418564
 21
987.2677118703359
 31
0.0
  0
LINE
  5
705A
330
1E
100
AcDbEntity
  8
躯体と製品
  6
Continuous
 62
     3
100
AcDbLine
 10
1818.232030418564
 20
995.2677118703359
 30
0.0
 11
1821.632030418564
 21
995.2677118703359
 31
0.0
  0
LINE
  5
705B
330
1E
100
AcDbEntity
  8
躯体と製品
  6
Continuous
 62
     3
100
AcDbLine
 10
1823.432030418564
 20
1003.517711870336
 30
0.0
 11
1823.432030418564
 21
959.2677118703356
 31
0.0
  0
ARC
  5
705C
330
1E
100
AcDbEntity
  8
躯体と製品
  6
Continuous
 62
     3
100
AcDbCircle
 10
1824.432030418564
 20
948.7677118703357
 30
0.0
 40
2.5
100
AcDbArc
 50
180.0
 51
270.0
  0
LINE
  5
705D
330
1E
100
AcDbEntity
  8
躯体と製品
  6
Continuous
 62
     3
100
AcDbLine
 10
1828.332030418564
 20
946.2677118703357
 30
0.0
 11
1824.432030418564
 21
946.2677118703357
 31
0.0
  0
ARC
  5
705E
330
1E
100
AcDbEntity
  8
躯体と製品
  6
Continuous
 62
     3
100
AcDbCircle
 10
1823.932030418564
 20
959.2677118703356
 30
0.0
 40
0.5
100
AcDbArc
 50
180.0
 51
270.0
  0
LINE
  5
705F
330
1E
100
AcDbEntity
  8
躯体と製品
  6
Continuous
 62
     3
100
AcDbLine
 10
1823.932030418564
 20
958.7677118703357
 30
0.0
 11
1830.632030418564
 21
958.7677118703357
 31
0.0
  0
LINE
  5
7060
330
1E
100
AcDbEntity
  8
躯体と製品
  6
Continuous
 62
     3
100
AcDbLine
 10
1823.432030418564
 20
957.2677118703357
 30
0.0
 11
1823.432030418564
 21
948.4677118703357
 31
0.0
  0
ARC
  5
7061
330
1E
100
AcDbEntity
  8
躯体と製品
  6
Continuous
 62
     3
100
AcDbCircle
 10
1823.932030418564
 20
957.2677118703357
 30
0.0
 40
0.5
100
AcDbArc
 50
90.0
 51
180.0
  0
ARC
  5
7062
330
1E
100
AcDbEntity
  8
躯体と製品
  6
Continuous
 62
     3
100
AcDbCircle
 10
1830.632030418564
 20
958.4677118703357
 30
0.0
 40
0.2999999999999998
100
AcDbArc
 50
0.0
 51
90.0
  0
LINE
  5
7063
330
1E
100
AcDbEntity
  8
躯体と製品
  6
Continuous
 62
     3
100
AcDbLine
 10
1823.932030418564
 20
957.7677118703359
 30
0.0
 11
1828.932030418564
 21
957.7677118703359
 31
0.0
  0
LINE
  5
7064
330
1E
100
AcDbEntity
  8
躯体と製品
  6
Continuous
 62
     3
100
AcDbLine
 10
1830.932030418563
 20
958.4677118703357
 30
0.0
 11
1830.932030418563
 21
958.1580998703358
 31
0.0
  0
LINE
  5
7065
330
1E
100
AcDbEntity
  8
躯体と製品
  6
Continuous
 62
     3
100
AcDbLine
 10
1828.932030418564
 20
957.7677118703359
 30
0.0
 11
1828.932030418564
 21
957.2677118703357
 31
0.0
  0
ARC
  5
7066
330
1E
100
AcDbEntity
  8
躯体と製品
  6
Continuous
 62
     3
100
AcDbCircle
 10
1830.432030418563
 20
958.1580998703358
 30
0.0
 40
0.5
100
AcDbArc
 50
284.0362430000035
 51
0.0
  0
LINE
  5
7067
330
1E
100
AcDbEntity
  8
躯体と製品
  6
Continuous
 62
     3
100
AcDbLine
 10
1828.932030418564
 20
957.2677118703357
 30
0.0
 11
1830.553298418564
 21
957.6730288703357
 31
0.0
  0
LINE
  5
7068
330
1E
100
AcDbEntity
  8
躯体と製品
  6
Continuous
 62
     3
100
AcDbLine
 10
1816.732030418564
 20
993.3677118703355
 30
0.0
 11
1816.732030418564
 21
995.4677118703356
 31
0.0
  0
ARC
  5
7069
330
1E
100
AcDbEntity
  8
躯体と製品
  6
Continuous
 62
     3
100
AcDbCircle
 10
1818.232030418564
 20
994.9677118703357
 30
0.0
 40
0.2999999999999998
100
AcDbArc
 50
90.0
 51
180.0
  0
LINE
  5
706A
330
1E
100
AcDbEntity
  8
躯体と製品
  6
Continuous
 62
     3
100
AcDbLine
 10
1817.932030418564
 20
993.3677118703355
 30
0.0
 11
1817.932030418564
 21
994.9677118703357
 31
0.0
  0
ARC
  5
706B
330
1E
100
AcDbEntity
  8
躯体と製品
  6
Continuous
 62
     3
100
AcDbCircle
 10
1818.232030418564
 20
987.5677118703357
 30
0.0
 40
0.2999999999999998
100
AcDbArc
 50
180.0
 51
270.0
  0
LINE
  5
706C
330
1E
100
AcDbEntity
  8
躯体と製品
  6
Continuous
 62
     3
100
AcDbLine
 10
1817.932030418564
 20
989.1677118703359
 30
0.0
 11
1817.932030418564
 21
987.5677118703357
 31
0.0
  0
LINE
  5
706D
330
1E
100
AcDbEntity
  8
躯体と製品
  6
Continuous
 62
     3
100
AcDbLine
 10
1816.732030418564
 20
989.1677118703359
 30
0.0
 11
1816.732030418564
 21
987.0677118703357
 31
0.0
  0
ARC
  5
706E
330
1E
100
AcDbEntity
  8
躯体と製品
  6
Continuous
 62
     3
100
AcDbCircle
 10
1817.332030418564
 20
993.3677118703355
 30
0.0
 40
0.5999999999999998
100
AcDbArc
 50
180.0
 51
0.0
  0
ARC
  5
706F
330
1E
100
AcDbEntity
  8
躯体と製品
  6
Continuous
 62
     3
100
AcDbCircle
 10
1817.332030418564
 20
989.1677118703359
 30
0.0
 40
0.5999999999999998
100
AcDbArc
 50
0.0
 51
180.0
  0
LINE
  5
7070
330
1E
100
AcDbEntity
  8
躯体と製品
  6
Continuous
 62
     7
100
AcDbLine
 10
1819.432030418564
 20
991.7677118703357
 30
0.0
 11
1821.083115418564
 21
991.2443388703358
 31
0.0
  0
ARC
  5
7071
330
1E
100
AcDbEntity
  8
躯体と製品
  6
Continuous
 62
     7
100
AcDbCircle
 10
1820.932030418564
 20
990.7677118703357
 30
0.0
 40
0.5
100
AcDbArc
 50
287.587954000006
 51
72.41204599999399
  0
LINE
  5
7072
330
1E
100
AcDbEntity
  8
躯体と製品
  6
Continuous
 62
     7
100
AcDbLine
 10
1817.932030418564
 20
987.7677118703356
 30
0.0
 11
1817.932030418564
 21
990.2677118703357
 31
0.0
  0
ARC
  5
7073
330
1E
100
AcDbEntity
  8
躯体と製品
  6
Continuous
 62
     7
100
AcDbCircle
 10
1818.432030418563
 20
993.7677118703359
 30
0.0
 40
0.5
100
AcDbArc
 50
90.0
 51
180.0
  0
ARC
  5
7074
330
1E
100
AcDbEntity
  8
躯体と製品
  6
Continuous
 62
     7
100
AcDbCircle
 10
1818.432030418563
 20
987.7677118703356
 30
0.0
 40
0.5
100
AcDbArc
 50
180.0
 51
270.0
  0
ARC
  5
7075
330
1E
100
AcDbEntity
  8
躯体と製品
  6
Continuous
 62
     7
100
AcDbCircle
 10
1818.932030418564
 20
987.7677118703356
 30
0.0
 40
0.5
100
AcDbArc
 50
270.0
 51
0.0
  0
LINE
  5
7076
330
1E
100
AcDbEntity
  8
躯体と製品
  6
Continuous
 62
     7
100
AcDbLine
 10
1818.432030418563
 20
987.2677118703359
 30
0.0
 11
1818.932030418564
 21
987.2677118703359
 31
0.0
  0
LINE
  5
7077
330
1E
100
AcDbEntity
  8
躯体と製品
  6
Continuous
 62
     7
100
AcDbLine
 10
1818.432030418563
 20
994.2677118703356
 30
0.0
 11
1818.932030418564
 21
994.2677118703356
 31
0.0
  0
ARC
  5
7078
330
1E
100
AcDbEntity
  8
躯体と製品
  6
Continuous
 62
     7
100
AcDbCircle
 10
1818.932030418564
 20
993.7677118703359
 30
0.0
 40
0.5
100
AcDbArc
 50
0.0
 51
90.0
  0
LINE
  5
7079
330
1E
100
AcDbEntity
  8
躯体と製品
  6
Continuous
 62
     7
100
AcDbLine
 10
1819.432030418564
 20
991.7677118703357
 30
0.0
 11
1819.432030418564
 21
993.7677118703359
 31
0.0
  0
LINE
  5
707A
330
1E
100
AcDbEntity
  8
躯体と製品
  6
Continuous
 62
     7
100
AcDbLine
 10
1819.432030418564
 20
989.7677118703356
 30
0.0
 11
1819.432030418564
 21
987.7677118703356
 31
0.0
  0
LINE
  5
707B
330
1E
100
AcDbEntity
  8
躯体と製品
  6
Continuous
 62
     7
100
AcDbLine
 10
1819.432030418564
 20
989.7677118703356
 30
0.0
 11
1821.083115418564
 21
990.2910848703358
 31
0.0
  0
LINE
  5
707C
330
1E
100
AcDbEntity
  8
躯体と製品
  6
Continuous
 62
     7
100
AcDbLine
 10
1817.932030418564
 20
993.7677118703359
 30
0.0
 11
1817.932030418564
 21
991.2677118703358
 31
0.0
  0
LINE
  5
707D
330
1E
100
AcDbEntity
  8
躯体と製品
  6
Continuous
 62
     7
100
AcDbLine
 10
1817.336232239862
 20
990.2677118703357
 30
0.0
 11
1817.932030418564
 21
990.2677118703357
 31
0.0
  0
ARC
  5
707E
330
1E
100
AcDbEntity
  8
躯体と製品
  6
Continuous
 62
     7
100
AcDbCircle
 10
1817.336232239862
 20
989.1677118703356
 30
0.0
 40
1.1
100
AcDbArc
 50
90.0
 51
175.0000000000005
  0
LINE
  5
707F
330
1E
100
AcDbEntity
  8
躯体と製品
  6
Continuous
 62
     7
100
AcDbLine
 10
1817.336232239862
 20
991.2677118703358
 30
0.0
 11
1817.932030418564
 21
991.2677118703358
 31
0.0
  0
ARC
  5
7080
330
1E
100
AcDbEntity
  8
躯体と製品
  6
Continuous
 62
     7
100
AcDbCircle
 10
1817.336232239862
 20
989.1677118703356
 30
0.0
 40
2.1
100
AcDbArc
 50
90.0
 51
175.0000000000005
  0
LINE
  5
7081
330
1E
100
AcDbEntity
  8
躯体と製品
  6
Continuous
 62
     3
100
AcDbLine
 10
1811.464432298216
 20
1030.5742517022
 30
0.0
 11
1571.793343957118
 21
1043.134881200507
 31
0.0
  0
LINE
  5
7082
330
1E
100
AcDbEntity
  8
躯体と製品
  6
Continuous
 62
     3
100
AcDbLine
 10
1809.999025523413
 20
1002.612624729073
 30
0.0
 11
1570.327937182315
 21
1015.173254227379
 31
0.0
  0
LINE
  5
7083
330
1E
100
AcDbEntity
  8
躯体と製品
  6
Continuous
 62
     3
100
AcDbLine
 10
1811.228920495122
 20
1026.080418795805
 30
0.0
 11
1571.557832154025
 21
1038.641048294112
 31
0.0
  0
LINE
  5
7084
330
1E
100
AcDbEntity
  8
躯体と製品
  6
Continuous
 62
     3
100
AcDbLine
 10
1811.150416560758
 20
1024.582474493673
 30
0.0
 11
1571.47932821966
 21
1037.14310399198
 31
0.0
  0
LINE
  5
7085
330
1E
100
AcDbEntity
  8
躯体と製品
  6
DASHED1
 62
     4
100
AcDbLine
 10
1810.407245982108
 20
1010.401935100158
 30
0.0
 11
1570.73615764101
 21
1022.962564598465
 31
0.0
  0
LINE
  5
7086
330
1E
100
AcDbEntity
  8
躯体と製品
  6
DASHED1
 62
     4
100
AcDbLine
 10
1810.313041260871
 20
1008.6044019376
 30
0.0
 11
1570.641952919773
 21
1021.165031435907
 31
0.0
  0
LINE
  5
7087
330
1E
100
AcDbEntity
  8
躯体と製品
  6
DASHED1
 62
     4
100
AcDbLine
 10
1810.12986541402
 20
1005.109198565959
 30
0.0
 11
1570.458777072923
 21
1017.669828064265
 31
0.0
  0
LINE
  5
7088
330
1E
100
AcDbEntity
  8
躯体と製品
  6
DASHED1
 62
     4
100
AcDbLine
 10
1810.051361479656
 20
1003.611254263827
 30
0.0
 11
1570.380273138558
 21
1016.171883762134
 31
0.0
  0
LINE
  5
7089
330
1E
100
AcDbEntity
  8
躯体と製品
  6
DASHED1
 62
     4
100
AcDbLine
 10
1796.406485342533
 20
1029.861346743713
 30
0.0
 11
1586.694283044072
 21
1040.851897554731
 31
0.0
  0
ARC
  5
708A
330
1E
100
AcDbEntity
  8
躯体と製品
  6
Continuous
 62
     7
100
AcDbCircle
 10
1639.643413015949
 20
984.6925043409715
 30
0.0
 40
1.0
100
AcDbArc
 50
90.95484125386796
 51
175.0000000000005
  0
POINT
  5
708B
330
1E
100
AcDbEntity
  8
躯体と製品
 62
     4
100
AcDbPoint
 10
1732.179084619858
 20
1006.690995015765
 30
0.0
  0
LINE
  5
708C
330
1E
100
AcDbEntity
  8
躯体と製品
  6
Continuous
 62
     7
100
AcDbLine
 10
1717.434227825404
 20
1001.863805715052
 30
0.0
 11
1717.17049438051
 21
996.8314718039021
 31
0.0
  0
LINE
  5
708D
330
1E
100
AcDbEntity
  8
躯体と製品
  6
Continuous
 62
     7
100
AcDbLine
 10
1711.442450616877
 20
1002.17782145251
 30
0.0
 11
1711.178717171982
 21
997.1454875413598
 31
0.0
  0
LINE
  5
708E
330
1E
100
AcDbEntity
  8
躯体と製品
  6
Continuous
 62
     7
100
AcDbLine
 10
1717.726904099307
 20
1007.448401702645
 30
0.0
 11
1717.622637267879
 21
1005.458872040168
 31
0.0
  0
LINE
  5
708F
330
1E
100
AcDbEntity
  8
躯体と製品
  6
Continuous
 62
     4
100
AcDbLine
 10
1717.159183208799
 20
1007.478154693769
 30
0.0
 11
1717.05491637737
 21
1005.488625031293
 31
0.0
  0
LINE
  5
7090
330
1E
100
AcDbEntity
  8
躯体と製品
  6
Continuous
 62
     4
100
AcDbLine
 10
1712.302847781287
 20
1007.732664448979
 30
0.0
 11
1712.198580949859
 21
1005.743134786502
 31
0.0
  0
LINE
  5
7091
330
1E
100
AcDbEntity
  8
躯体と製品
  6
Continuous
 62
     7
100
AcDbLine
 10
1711.735126890779
 20
1007.762417440103
 30
0.0
 11
1711.630860059351
 21
1005.772887777626
 31
0.0
  0
LINE
  5
7092
330
1E
100
AcDbEntity
  8
躯体と製品
  6
DASHED1
 62
     4
100
AcDbLine
 10
1713.548443539869
 20
1031.500047376138
 30
0.0
 11
1712.302847781287
 21
1007.732664448979
 31
0.0
  0
LINE
  5
7093
330
1E
100
AcDbEntity
  8
躯体と製品
  6
DASHED1
 62
     7
100
AcDbLine
 10
1712.980722649361
 20
1031.529800367262
 30
0.0
 11
1711.735126890779
 21
1007.762417440103
 31
0.0
  0
LINE
  5
7094
330
1E
100
AcDbEntity
  8
躯体と製品
  6
DASHED1
 62
     4
100
AcDbLine
 10
1718.404778967381
 20
1031.245537620928
 30
0.0
 11
1717.159183208799
 21
1007.478154693769
 31
0.0
  0
LINE
  5
7095
330
1E
100
AcDbEntity
  8
躯体と製品
  6
DASHED1
 62
     7
100
AcDbLine
 10
1718.972499857888
 20
1031.215784629804
 30
0.0
 11
1717.726904099307
 21
1007.448401702645
 31
0.0
  0
POINT
  5
7096
330
1E
100
AcDbEntity
  8
躯体と製品
 62
     4
100
AcDbPoint
 10
1714.626748663615
 20
1005.615879908897
 30
0.0
  0
LINE
  5
7097
330
1E
100
AcDbEntity
  8
躯体と製品
  6
Continuous
 62
     4
100
AcDbLine
 10
1717.17049438051
 20
996.8314718039021
 30
0.0
 11
1711.178717171982
 21
997.1454875413598
 31
0.0
  0
ARC
  5
7098
330
1E
100
AcDbEntity
  8
躯体と製品
  6
DASHED1
 62
     7
100
AcDbCircle
 10
1715.851005010978
 20
1028.976082613751
 30
0.0
 40
6.299999999999998
100
AcDbArc
 50
47.69686900000316
 51
126.3093710000041
  0
ARC
  5
7099
330
1E
100
AcDbEntity
  8
躯体と製品
  6
DASHED1
 62
     7
100
AcDbCircle
 10
1717.774716563713
 20
1031.078923200044
 30
0.0
 40
3.45
100
AcDbArc
 50
0.3127430000019805
 51
47.82048899999998
  0
ARC
  5
709A
330
1E
100
AcDbEntity
  8
躯体と製品
  6
DASHED1
 62
     7
100
AcDbCircle
 10
1714.163380558457
 20
1031.272694479998
 30
0.0
 40
3.45
100
AcDbArc
 50
126.3091240000028
 51
173.7621630000023
  0
LINE
  5
709B
330
1E
100
AcDbEntity
  8
躯体と製品
  6
DASHED1
 62
     7
100
AcDbLine
 10
1716.887750604322
 20
1034.42787503378
 30
0.0
 11
1715.38980630219
 21
1034.506378968145
 31
0.0
  0
ARC
  5
709C
330
1E
100
AcDbEntity
  8
躯体と製品
  6
DASHED1
 62
     7
100
AcDbCircle
 10
1717.488982249777
 20
1034.435664676126
 30
0.0
 40
0.5999999999999998
100
AcDbArc
 50
73.29976700000166
 51
177.0000000000011
  0
ARC
  5
709D
330
1E
100
AcDbEntity
  8
躯体と製品
  6
DASHED1
 62
     7
100
AcDbCircle
 10
1714.79268250594
 20
1034.576971757982
 30
0.0
 40
0.5999999999999998
100
AcDbArc
 50
357.0000000000011
 51
100.7002330000052
  0
LINE
  5
709E
330
1E
100
AcDbEntity
  8
躯体と製品
  6
DASHED1
 62
     7
100
AcDbLine
 10
1703.921502026927
 20
1031.375746073569
 30
0.0
 11
1690.991550949673
 21
1017.810693214342
 31
0.0
  0
LINE
  5
709F
330
1E
100
AcDbEntity
  8
躯体と製品
  6
DASHED1
 62
     7
100
AcDbLine
 10
1687.644149616629
 20
1020.266146640297
 30
0.0
 11
1689.475698663017
 21
1017.890135648226
 31
0.0
  0
ARC
  5
70A0
330
1E
100
AcDbEntity
  8
躯体と製品
  6
DASHED1
 62
     7
100
AcDbCircle
 10
1726.540383479436
 20
1029.01669843253
 30
0.0
 40
1.8
100
AcDbArc
 50
37.62684736228169
 51
86.99999999999457
  0
LINE
  5
70A1
330
1E
100
AcDbEntity
  8
躯体と製品
  6
DASHED1
 62
     7
100
AcDbLine
 10
1727.332387137134
 20
1029.62721477645
 30
0.0
 11
1738.773572474588
 21
1014.784924760943
 31
0.0
  0
LINE
  5
70A2
330
1E
100
AcDbEntity
  8
躯体と製品
  6
DASHED1
 62
     7
100
AcDbLine
 10
1727.965990063292
 20
1030.115627851585
 30
0.0
 11
1739.407175400746
 21
1015.273337836079
 31
0.0
  0
ARC
  5
70A3
330
1E
100
AcDbEntity
  8
躯体と製品
  6
DASHED1
 62
     7
100
AcDbCircle
 10
1740.199179043839
 20
1015.883854198944
 30
0.0
 40
1.8
100
AcDbArc
 50
217.6268473622817
 51
316.3731518762783
  0
ARC
  5
70A4
330
1E
100
AcDbEntity
  8
躯体と製品
  6
DASHED1
 62
     7
100
AcDbCircle
 10
1740.199179043839
 20
1015.883854198944
 30
0.0
 40
1.0
100
AcDbArc
 50
217.6268473622817
 51
316.3731512671342
  0
LINE
  5
70A5
330
1E
100
AcDbEntity
  8
躯体と製品
  6
DASHED1
 62
     7
100
AcDbLine
 10
1743.571982992551
 20
1016.813474295534
 30
0.0
 11
1741.502106585748
 21
1014.641928347479
 31
0.0
  0
LINE
  5
70A6
330
1E
100
AcDbEntity
  8
躯体と製品
  6
DASHED1
 62
     7
100
AcDbLine
 10
1743.571982992551
 20
1016.813474295534
 30
0.0
 11
1742.992904077679
 21
1017.365441332911
 31
0.0
  0
LINE
  5
70A7
330
1E
100
AcDbEntity
  8
躯体と製品
  6
DASHED1
 62
     7
100
AcDbLine
 10
1742.992904077679
 20
1017.365441332911
 30
0.0
 11
1740.923027670898
 21
1015.193895384879
 31
0.0
  0
ARC
  5
70A8
330
1E
100
AcDbEntity
  8
躯体と製品
  6
DASHED1
 62
     7
100
AcDbCircle
 10
1690.267702306111
 20
1018.500652011091
 30
0.0
 40
1.8
100
AcDbArc
 50
217.6268481237201
 51
316.3731526377152
  0
ARC
  5
70A9
330
1E
100
AcDbEntity
  8
躯体と製品
  6
DASHED1
 62
     7
100
AcDbCircle
 10
1690.267702306111
 20
1018.500652011091
 30
0.0
 40
1.0
100
AcDbArc
 50
217.6268487328632
 51
316.3731526377152
  0
LINE
  5
70AA
330
1E
100
AcDbEntity
  8
躯体と製品
  6
DASHED1
 62
     7
100
AcDbLine
 10
1687.010546690452
 20
1019.777733565186
 30
0.0
 11
1688.842095736859
 21
1017.40172257309
 31
0.0
  0
LINE
  5
70AB
330
1E
100
AcDbEntity
  8
躯体と製品
  6
DASHED1
 62
     7
100
AcDbLine
 10
1687.010546690452
 20
1019.777733565186
 30
0.0
 11
1687.644149616629
 21
1020.266146640297
 31
0.0
  0
ARC
  5
70AC
330
1E
100
AcDbEntity
  8
躯体と製品
  6
DASHED1
 62
     7
100
AcDbCircle
 10
1705.22442958534
 20
1030.133820239419
 30
0.0
 40
1.0
100
AcDbArc
 50
86.99999999999457
 51
136.3731526377152
  0
LINE
  5
70AD
330
1E
100
AcDbEntity
  8
躯体と製品
  6
DASHED1
 62
     7
100
AcDbLine
 10
1704.500580941777
 20
1030.823779036169
 30
0.0
 11
1691.570629848019
 21
1017.258726159626
 31
0.0
  0
LINE
  5
70AE
330
1E
100
AcDbEntity
  8
躯体と製品
  6
DASHED1
 62
     7
100
AcDbLine
 10
1705.276765541583
 20
1031.132449774174
 30
0.0
 11
1726.592719435679
 21
1030.015327967285
 31
0.0
  0
ARC
  5
70AF
330
1E
100
AcDbEntity
  8
躯体と製品
  6
DASHED1
 62
     7
100
AcDbCircle
 10
1705.22442958534
 20
1030.133820239419
 30
0.0
 40
1.8
100
AcDbArc
 50
86.99999999999457
 51
136.3731526377152
  0
LINE
  5
70B0
330
1E
100
AcDbEntity
  8
躯体と製品
  6
DASHED1
 62
     7
100
AcDbLine
 10
1705.318634306577
 20
1031.931353401978
 30
0.0
 11
1726.634588200673
 21
1030.814231595088
 31
0.0
  0
ARC
  5
70B1
330
1E
100
AcDbEntity
  8
躯体と製品
  6
DASHED1
 62
     7
100
AcDbCircle
 10
1726.540383479436
 20
1029.01669843253
 30
0.0
 40
1.0
100
AcDbArc
 50
37.62684736228169
 51
86.99999999999457
  0
LINE
  5
70B2
330
1E
100
AcDbEntity
  8
躯体と製品
  6
Continuous
 62
     4
100
AcDbLine
 10
1700.626748663615
 20
996.192365481011
 30
0.0
 11
1700.626748663615
 21
994.592365481011
 31
0.0
  0
LINE
  5
70B3
330
1E
100
AcDbEntity
  8
躯体と製品
  6
Continuous
 62
     4
100
AcDbLine
 10
1728.626748663615
 20
996.192365481011
 30
0.0
 11
1728.626748663615
 21
994.592365481011
 31
0.0
  0
LINE
  5
70B4
330
1E
100
AcDbEntity
  8
躯体と製品
  6
DASHED1
 62
     7
100
AcDbLine
 10
1717.622637267879
 20
1005.458872040168
 30
0.0
 11
1717.434227825404
 21
1001.863805715052
 31
0.0
  0
LINE
  5
70B5
330
1E
100
AcDbEntity
  8
躯体と製品
  6
DASHED1
 62
     7
100
AcDbLine
 10
1711.630860059351
 20
1005.772887777626
 30
0.0
 11
1711.442450616877
 21
1002.17782145251
 31
0.0
  0
LINE
  5
70B6
330
1E
100
AcDbEntity
  8
躯体と製品
  6
Continuous
 62
     3
100
AcDbLine
 10
1723.636654171725
 20
1005.143690769667
 30
0.0
 11
1705.836654171725
 21
1006.076549240905
 31
0.0
  0
LINE
  5
70B7
330
1E
100
AcDbEntity
  8
躯体と製品
  6
Continuous
 62
     3
100
AcDbLine
 10
1723.552916641736
 20
1003.54588351406
 30
0.0
 11
1705.752916641737
 21
1004.478741985298
 31
0.0
  0
ARC
  5
70B8
330
1E
100
AcDbEntity
  8
躯体と製品
  6
Continuous
 62
     3
100
AcDbCircle
 10
1720.083000572009
 20
1002.726361763575
 30
0.0
 40
1.0
100
AcDbArc
 50
86.99999999999457
 51
177.0000000000011
  0
LINE
  5
70B9
330
1E
100
AcDbEntity
  8
躯体と製品
  6
Continuous
 62
     3
100
AcDbLine
 10
1719.084371037254
 20
1002.778697719818
 30
0.0
 11
1719.032035081011
 21
1001.780068185063
 31
0.0
  0
ARC
  5
70BA
330
1E
100
AcDbEntity
  8
躯体と製品
  6
Continuous
 62
     3
100
AcDbCircle
 10
1708.898349782758
 20
1003.312524473496
 30
0.0
 40
1.0
100
AcDbArc
 50
357.0000000000011
 51
86.99999999999457
  0
LINE
  5
70BB
330
1E
100
AcDbEntity
  8
躯体と製品
  6
Continuous
 62
     3
100
AcDbLine
 10
1709.896979317512
 20
1003.260188517253
 30
0.0
 11
1709.844643361269
 21
1002.261558982499
 31
0.0
  0
LINE
  5
70BC
330
1E
100
AcDbEntity
  8
躯体と製品
  6
Continuous
 62
     3
100
AcDbLine
 10
1719.032035081011
 20
1001.780068185063
 30
0.0
 11
1709.844643361269
 21
1002.261558982499
 31
0.0
  0
ARC
  5
70BD
330
1E
100
AcDbEntity
  8
躯体と製品
  6
Continuous
 62
     3
100
AcDbCircle
 10
1723.526748663615
 20
1003.046568746682
 30
0.0
 40
2.1
100
AcDbArc
 50
0.0
 51
86.99999999999457
  0
LINE
  5
70BE
330
1E
100
AcDbEntity
  8
躯体と製品
  6
Continuous
 62
     3
100
AcDbLine
 10
1725.626748663615
 20
1003.046568746682
 30
0.0
 11
1725.626748663615
 21
996.6923654810111
 31
0.0
  0
ARC
  5
70BF
330
1E
100
AcDbEntity
  8
躯体と製品
  6
Continuous
 62
     3
100
AcDbCircle
 10
1705.726748663615
 20
1003.979427217921
 30
0.0
 40
2.1
100
AcDbArc
 50
86.99999999999457
 51
180.0
  0
ARC
  5
70C0
330
1E
100
AcDbEntity
  8
躯体と製品
  6
Continuous
 62
     3
100
AcDbCircle
 10
1723.526748663615
 20
1003.046568746682
 30
0.0
 40
0.5
100
AcDbArc
 50
0.0
 51
86.99999999999457
  0
LINE
  5
70C1
330
1E
100
AcDbEntity
  8
躯体と製品
  6
Continuous
 62
     3
100
AcDbLine
 10
1724.026748663615
 20
1003.046568746682
 30
0.0
 11
1724.026748663615
 21
996.6923654810111
 31
0.0
  0
ARC
  5
70C2
330
1E
100
AcDbEntity
  8
躯体と製品
  6
Continuous
 62
     3
100
AcDbCircle
 10
1705.726748663615
 20
1003.979427217921
 30
0.0
 40
0.5
100
AcDbArc
 50
86.99999999999457
 51
180.0
  0
LINE
  5
70C3
330
1E
100
AcDbEntity
  8
躯体と製品
  6
Continuous
 62
     3
100
AcDbLine
 10
1705.226748663615
 20
1003.979427217921
 30
0.0
 11
1705.226748663615
 21
996.6923654810111
 31
0.0
  0
ARC
  5
70C4
330
1E
100
AcDbEntity
  8
躯体と製品
  6
Continuous
 62
     3
100
AcDbCircle
 10
1726.126748663615
 20
996.6923654810111
 30
0.0
 40
0.5
100
AcDbArc
 50
180.0
 51
270.0
  0
ARC
  5
70C5
330
1E
100
AcDbEntity
  8
躯体と製品
  6
Continuous
 62
     3
100
AcDbCircle
 10
1726.126748663615
 20
996.6923654810111
 30
0.0
 40
2.1
100
AcDbArc
 50
180.0
 51
270.0
  0
LINE
  5
70C6
330
1E
100
AcDbEntity
  8
躯体と製品
  6
Continuous
 62
     3
100
AcDbLine
 10
1730.626748663615
 20
996.192365481011
 30
0.0
 11
1730.626748663615
 21
994.592365481011
 31
0.0
  0
LINE
  5
70C7
330
1E
100
AcDbEntity
  8
躯体と製品
  6
Continuous
 62
     3
100
AcDbLine
 10
1726.126748663615
 20
996.192365481011
 30
0.0
 11
1730.626748663615
 21
996.192365481011
 31
0.0
  0
LINE
  5
70C8
330
1E
100
AcDbEntity
  8
躯体と製品
  6
Continuous
 62
     3
100
AcDbLine
 10
1730.626748663615
 20
994.592365481011
 30
0.0
 11
1726.126748663615
 21
994.592365481011
 31
0.0
  0
ARC
  5
70C9
330
1E
100
AcDbEntity
  8
躯体と製品
  6
Continuous
 62
     3
100
AcDbCircle
 10
1703.126748663615
 20
996.6923654810111
 30
0.0
 40
0.5
100
AcDbArc
 50
270.0
 51
0.0
  0
ARC
  5
70CA
330
1E
100
AcDbEntity
  8
躯体と製品
  6
Continuous
 62
     3
100
AcDbCircle
 10
1703.126748663615
 20
996.6923654810111
 30
0.0
 40
2.1
100
AcDbArc
 50
270.0
 51
0.0
  0
LINE
  5
70CB
330
1E
100
AcDbEntity
  8
躯体と製品
  6
Continuous
 62
     3
100
AcDbLine
 10
1698.626748663615
 20
996.192365481011
 30
0.0
 11
1703.126748663615
 21
996.192365481011
 31
0.0
  0
LINE
  5
70CC
330
1E
100
AcDbEntity
  8
躯体と製品
  6
Continuous
 62
     3
100
AcDbLine
 10
1698.626748663615
 20
994.592365481011
 30
0.0
 11
1698.626748663615
 21
996.192365481011
 31
0.0
  0
LINE
  5
70CD
330
1E
100
AcDbEntity
  8
躯体と製品
  6
Continuous
 62
     3
100
AcDbLine
 10
1698.626748663615
 20
994.592365481011
 30
0.0
 11
1703.126748663615
 21
994.592365481011
 31
0.0
  0
LINE
  5
70CE
330
1E
100
AcDbEntity
  8
躯体と製品
  6
Continuous
 62
     3
100
AcDbLine
 10
1703.626748663615
 20
1003.979427217921
 30
0.0
 11
1703.626748663615
 21
996.6923654810111
 31
0.0
  0
LINE
  5
70CF
330
1E
100
AcDbEntity
  8
躯体と製品
  6
Continuous
 62
     3
100
AcDbLine
 10
1739.999318945043
 20
995.6658894355676
 30
0.0
 11
1740.318074643882
 21
994.594257593722
 31
0.0
  0
LINE
  5
70D0
330
1E
100
AcDbEntity
  8
躯体と製品
  6
Continuous
 62
     3
100
AcDbLine
 10
1739.825670767376
 20
994.6810816825554
 30
0.0
 11
1740.144426466215
 21
993.6094498407097
 31
0.0
  0
LINE
  5
70D1
330
1E
100
AcDbEntity
  8
躯体と製品
  6
Continuous
 62
     3
100
AcDbLine
 10
1714.626748663615
 20
989.6923654810111
 30
0.0
 11
1714.126748663615
 21
990.192365481011
 31
0.0
  0
LINE
  5
70D2
330
1E
100
AcDbEntity
  8
躯体と製品
  6
Continuous
 62
     3
100
AcDbLine
 10
1730.826748663615
 20
996.192365481011
 30
0.0
 11
1727.876748663615
 21
996.192365481011
 31
0.0
  0
ARC
  5
70D3
330
1E
100
AcDbEntity
  8
躯体と製品
  6
Continuous
 62
     3
100
AcDbCircle
 10
1730.826748663615
 20
995.892365481011
 30
0.0
 40
0.2999999999999998
100
AcDbArc
 50
0.0
 51
90.0
  0
LINE
  5
70D4
330
1E
100
AcDbEntity
  8
躯体と製品
  6
Continuous
 62
     3
100
AcDbLine
 10
1731.126748663615
 20
995.892365481011
 30
0.0
 11
1731.126748663615
 21
993.9923654810112
 31
0.0
  0
ARC
  5
70D5
330
1E
100
AcDbEntity
  8
躯体と製品
  6
Continuous
 62
     3
100
AcDbCircle
 10
1730.826748663615
 20
993.9923654810112
 30
0.0
 40
0.2999999999999998
100
AcDbArc
 50
270.0
 51
0.0
  0
LINE
  5
70D6
330
1E
100
AcDbEntity
  8
躯体と製品
  6
Continuous
 62
     3
100
AcDbLine
 10
1730.826748663615
 20
993.6923654810112
 30
0.0
 11
1728.876748663615
 21
993.6923654810112
 31
0.0
  0
LINE
  5
70D7
330
1E
100
AcDbEntity
  8
躯体と製品
  6
Continuous
 62
     3
100
AcDbLine
 10
1731.126748663615
 20
991.8923654810109
 30
0.0
 11
1731.126748663615
 21
990.4923654810112
 31
0.0
  0
ARC
  5
70D8
330
1E
100
AcDbEntity
  8
躯体と製品
  6
Continuous
 62
     3
100
AcDbCircle
 10
1730.826748663615
 20
991.8923654810109
 30
0.0
 40
0.2999999999999998
100
AcDbArc
 50
0.0
 51
90.0
  0
LINE
  5
70D9
330
1E
100
AcDbEntity
  8
躯体と製品
  6
Continuous
 62
     3
100
AcDbLine
 10
1730.826748663615
 20
992.1923654810111
 30
0.0
 11
1728.876748663615
 21
992.1923654810111
 31
0.0
  0
ARC
  5
70DA
330
1E
100
AcDbEntity
  8
躯体と製品
  6
Continuous
 62
     3
100
AcDbCircle
 10
1728.876748663615
 20
992.9423654810111
 30
0.0
 40
0.75
100
AcDbArc
 50
90.0
 51
270.0
  0
ARC
  5
70DB
330
1E
100
AcDbEntity
  8
躯体と製品
  6
Continuous
 62
     3
100
AcDbCircle
 10
1727.876748663615
 20
996.942365481011
 30
0.0
 40
0.75
100
AcDbArc
 50
90.0
 51
270.0
  0
LINE
  5
70DC
330
1E
100
AcDbEntity
  8
躯体と製品
  6
Continuous
 62
     3
100
AcDbLine
 10
1731.126748663615
 20
998.1923654810112
 30
0.0
 11
1731.126748663615
 21
1005.692365481011
 31
0.0
  0
ARC
  5
70DD
330
1E
100
AcDbEntity
  8
躯体と製品
  6
Continuous
 62
     3
100
AcDbCircle
 10
1730.626748663615
 20
998.1923654810112
 30
0.0
 40
0.5
100
AcDbArc
 50
270.0
 51
0.0
  0
LINE
  5
70DE
330
1E
100
AcDbEntity
  8
躯体と製品
  6
Continuous
 62
     3
100
AcDbLine
 10
1730.626748663615
 20
997.6923654810111
 30
0.0
 11
1727.876748663615
 21
997.6923654810111
 31
0.0
  0
ARC
  5
70DF
330
1E
100
AcDbEntity
  8
躯体と製品
  6
Continuous
 62
     3
100
AcDbCircle
 10
1730.826748663615
 20
990.4923654810112
 30
0.0
 40
0.2999999999999998
100
AcDbArc
 50
270.0
 51
0.0
  0
ARC
  5
70E0
330
1E
100
AcDbEntity
  8
躯体と製品
  6
Continuous
 62
     3
100
AcDbCircle
 10
1733.626748663615
 20
990.692365481011
 30
0.0
 40
0.5
100
AcDbArc
 50
180.0
 51
270.0
  0
LINE
  5
70E1
330
1E
100
AcDbEntity
  8
躯体と製品
  6
Continuous
 62
     3
100
AcDbLine
 10
1733.126748663615
 20
990.692365481011
 30
0.0
 11
1733.126748663615
 21
1005.692365481011
 31
0.0
  0
LINE
  5
70E2
330
1E
100
AcDbEntity
  8
躯体と製品
  6
Continuous
 62
     3
100
AcDbLine
 10
1733.126748663615
 20
988.6923654810111
 30
0.0
 11
1743.626748663615
 21
988.6923654810111
 31
0.0
  0
LINE
  5
70E3
330
1E
100
AcDbEntity
  8
躯体と製品
  6
Continuous
 62
     3
100
AcDbLine
 10
1733.126748663615
 20
987.6923654810111
 30
0.0
 11
1733.126748663615
 21
988.6923654810111
 31
0.0
  0
LINE
  5
70E4
330
1E
100
AcDbEntity
  8
躯体と製品
  6
Continuous
 62
     3
100
AcDbLine
 10
1714.626748663615
 20
989.6923654810111
 30
0.0
 11
1715.126748663615
 21
990.192365481011
 31
0.0
  0
LINE
  5
70E5
330
1E
100
AcDbEntity
  8
躯体と製品
  6
Continuous
 62
     3
100
AcDbLine
 10
1743.626748663615
 20
987.6923654810111
 30
0.0
 11
1745.126748663615
 21
987.6923654810111
 31
0.0
  0
LINE
  5
70E6
330
1E
100
AcDbEntity
  8
躯体と製品
  6
Continuous
 62
     3
100
AcDbLine
 10
1743.626748663615
 20
988.6923654810111
 30
0.0
 11
1743.626748663615
 21
987.6923654810111
 31
0.0
  0
ARC
  5
70E7
330
1E
100
AcDbEntity
  8
躯体と製品
  6
Continuous
 62
     3
100
AcDbCircle
 10
1732.126748663615
 20
1005.692365481011
 30
0.0
 40
1.0
100
AcDbArc
 50
0.0
 51
180.0
  0
LINE
  5
70E8
330
1E
100
AcDbEntity
  8
躯体と製品
  6
Continuous
 62
     3
100
AcDbLine
 10
1731.126748663615
 20
987.6923654810111
 30
0.0
 11
1733.126748663615
 21
987.6923654810111
 31
0.0
  0
LINE
  5
70E9
330
1E
100
AcDbEntity
  8
躯体と製品
  6
Continuous
 62
     3
100
AcDbLine
 10
1731.126748663615
 20
988.192365481011
 30
0.0
 11
1731.126748663615
 21
987.6923654810111
 31
0.0
  0
LINE
  5
70EA
330
1E
100
AcDbEntity
  8
躯体と製品
  6
Continuous
 62
     3
100
AcDbLine
 10
1719.626748663615
 20
988.192365481011
 30
0.0
 11
1731.126748663615
 21
988.192365481011
 31
0.0
  0
LINE
  5
70EB
330
1E
100
AcDbEntity
  8
躯体と製品
  6
Continuous
 62
     3
100
AcDbLine
 10
1719.626748663615
 20
987.6923654810111
 30
0.0
 11
1719.626748663615
 21
988.192365481011
 31
0.0
  0
LINE
  5
70EC
330
1E
100
AcDbEntity
  8
躯体と製品
  6
Continuous
 62
     3
100
AcDbLine
 10
1698.426748663615
 20
990.192365481011
 30
0.0
 11
1714.126748663615
 21
990.192365481011
 31
0.0
  0
LINE
  5
70ED
330
1E
100
AcDbEntity
  8
躯体と製品
  6
Continuous
 62
     3
100
AcDbLine
 10
1715.126748663615
 20
990.192365481011
 30
0.0
 11
1730.826748663615
 21
990.192365481011
 31
0.0
  0
LINE
  5
70EE
330
1E
100
AcDbEntity
  8
躯体と製品
  6
Continuous
 62
     3
100
AcDbLine
 10
1709.626748663615
 20
987.6923654810111
 30
0.0
 11
1719.626748663615
 21
987.6923654810111
 31
0.0
  0
LINE
  5
70EF
330
1E
100
AcDbEntity
  8
躯体と製品
  6
Continuous
 62
     3
100
AcDbLine
 10
1696.626748663615
 20
997.1923654810112
 30
0.0
 11
1696.626748663615
 21
987.6923654810111
 31
0.0
  0
ARC
  5
70F0
330
1E
100
AcDbEntity
  8
躯体と製品
  6
Continuous
 62
     3
100
AcDbCircle
 10
1697.126748663615
 20
997.1923654810112
 30
0.0
 40
0.5
100
AcDbArc
 50
90.0
 51
180.0
  0
LINE
  5
70F1
330
1E
100
AcDbEntity
  8
躯体と製品
  6
Continuous
 62
     3
100
AcDbLine
 10
1697.126748663615
 20
997.6923654810111
 30
0.0
 11
1701.376748663615
 21
997.6923654810111
 31
0.0
  0
LINE
  5
70F2
330
1E
100
AcDbEntity
  8
躯体と製品
  6
Continuous
 62
     3
100
AcDbLine
 10
1698.126748663615
 20
990.4923654810112
 30
0.0
 11
1698.126748663615
 21
991.8923654810109
 31
0.0
  0
ARC
  5
70F3
330
1E
100
AcDbEntity
  8
躯体と製品
  6
Continuous
 62
     3
100
AcDbCircle
 10
1698.426748663615
 20
990.4923654810112
 30
0.0
 40
0.2999999999999998
100
AcDbArc
 50
180.0
 51
270.0
  0
LINE
  5
70F4
330
1E
100
AcDbEntity
  8
躯体と製品
  6
Continuous
 62
     3
100
AcDbLine
 10
1698.426748663615
 20
992.1923654810111
 30
0.0
 11
1700.376748663615
 21
992.1923654810111
 31
0.0
  0
ARC
  5
70F5
330
1E
100
AcDbEntity
  8
躯体と製品
  6
Continuous
 62
     3
100
AcDbCircle
 10
1698.426748663615
 20
991.8923654810109
 30
0.0
 40
0.2999999999999998
100
AcDbArc
 50
90.0
 51
180.0
  0
LINE
  5
70F6
330
1E
100
AcDbEntity
  8
躯体と製品
  6
Continuous
 62
     3
100
AcDbLine
 10
1698.126748663615
 20
993.9923654810112
 30
0.0
 11
1698.126748663615
 21
995.892365481011
 31
0.0
  0
ARC
  5
70F7
330
1E
100
AcDbEntity
  8
躯体と製品
  6
Continuous
 62
     3
100
AcDbCircle
 10
1698.426748663615
 20
993.9923654810112
 30
0.0
 40
0.2999999999999998
100
AcDbArc
 50
180.0
 51
270.0
  0
LINE
  5
70F8
330
1E
100
AcDbEntity
  8
躯体と製品
  6
Continuous
 62
     3
100
AcDbLine
 10
1698.426748663615
 20
993.6923654810112
 30
0.0
 11
1700.376748663615
 21
993.6923654810112
 31
0.0
  0
LINE
  5
70F9
330
1E
100
AcDbEntity
  8
躯体と製品
  6
Continuous
 62
     3
100
AcDbLine
 10
1698.426748663615
 20
996.192365481011
 30
0.0
 11
1701.376748663615
 21
996.192365481011
 31
0.0
  0
ARC
  5
70FA
330
1E
100
AcDbEntity
  8
躯体と製品
  6
Continuous
 62
     3
100
AcDbCircle
 10
1698.426748663615
 20
995.892365481011
 30
0.0
 40
0.2999999999999998
100
AcDbArc
 50
90.0
 51
180.0
  0
ARC
  5
70FB
330
1E
100
AcDbEntity
  8
躯体と製品
  6
Continuous
 62
     3
100
AcDbCircle
 10
1700.376748663615
 20
992.9423654810111
 30
0.0
 40
0.75
100
AcDbArc
 50
270.0
 51
90.0
  0
ARC
  5
70FC
330
1E
100
AcDbEntity
  8
躯体と製品
  6
Continuous
 62
     3
100
AcDbCircle
 10
1701.376748663615
 20
996.942365481011
 30
0.0
 40
0.75
100
AcDbArc
 50
270.0
 51
90.0
  0
LINE
  5
70FD
330
1E
100
AcDbEntity
  8
躯体と製品
  6
Continuous
 62
     3
100
AcDbLine
 10
1709.626748663615
 20
988.192365481011
 30
0.0
 11
1709.626748663615
 21
987.6923654810111
 31
0.0
  0
LINE
  5
70FE
330
1E
100
AcDbEntity
  8
躯体と製品
  6
Continuous
 62
     3
100
AcDbLine
 10
1698.126748663615
 20
988.192365481011
 30
0.0
 11
1709.626748663615
 21
988.192365481011
 31
0.0
  0
LINE
  5
70FF
330
1E
100
AcDbEntity
  8
躯体と製品
  6
Continuous
 62
     3
100
AcDbLine
 10
1698.126748663615
 20
987.6923654810111
 30
0.0
 11
1698.126748663615
 21
988.192365481011
 31
0.0
  0
LINE
  5
7100
330
1E
100
AcDbEntity
  8
躯体と製品
  6
Continuous
 62
     3
100
AcDbLine
 10
1696.626748663615
 20
987.6923654810111
 30
0.0
 11
1698.126748663615
 21
987.6923654810111
 31
0.0
  0
LINE
  5
7101
330
1E
100
AcDbEntity
  8
躯体と製品
  6
Continuous
 62
     3
100
AcDbLine
 10
1745.126748663615
 20
987.6923654810111
 30
0.0
 11
1745.126748663615
 21
990.192365481011
 31
0.0
  0
ARC
  5
7102
330
1E
100
AcDbEntity
  8
躯体と製品
  6
Continuous
 62
     3
100
AcDbCircle
 10
1745.386619870441
 20
995.9852461940812
 30
0.0
 40
0.7499999999999977
100
AcDbArc
 50
350.0000000000025
 51
170.0000000000025
  0
ARC
  5
7103
330
1E
100
AcDbEntity
  8
躯体と製品
  6
Continuous
 62
     3
100
AcDbCircle
 10
1739.970177228873
 20
996.9403111712493
 30
0.0
 40
0.7500000000000016
100
AcDbArc
 50
350.0000000000025
 51
170.0000000000025
  0
LINE
  5
7104
330
1E
100
AcDbEntity
  8
躯体と製品
  6
Continuous
 62
     3
100
AcDbLine
 10
1744.923357710104
 20
994.7976485472329
 30
0.0
 11
1744.257305655931
 21
993.899664883054
 31
0.0
  0
LINE
  5
7105
330
1E
100
AcDbEntity
  8
躯体と製品
  6
Continuous
 62
     3
100
AcDbLine
 10
1744.749709532437
 20
993.8128407942206
 30
0.0
 11
1744.083657478264
 21
992.9148571300419
 31
0.0
  0
LINE
  5
7106
330
1E
100
AcDbEntity
  8
躯体と製品
  6
Continuous
 62
     3
100
AcDbLine
 10
1740.491722821549
 20
995.5790653467339
 30
0.0
 11
1740.708783043632
 21
996.8100750379992
 31
0.0
  0
LINE
  5
7107
330
1E
100
AcDbEntity
  8
躯体と製品
  6
Continuous
 62
     3
100
AcDbLine
 10
1744.430953833598
 20
994.8844726360663
 30
0.0
 11
1744.648014055681
 21
996.1154823273316
 31
0.0
  0
LINE
  5
7108
330
1E
100
AcDbEntity
  8
躯体と製品
  6
Continuous
 62
     3
100
AcDbLine
 10
1745.126748663615
 20
990.192365481011
 30
0.0
 11
1746.1252256852
 21
995.8550100608313
 31
0.0
  0
LINE
  5
7109
330
1E
100
AcDbEntity
  8
躯体と製品
  6
Continuous
 62
     3
100
AcDbLine
 10
1744.923357710104
 20
994.7976485472329
 30
0.0
 11
1744.430953833598
 21
994.8844726360663
 31
0.0
  0
LINE
  5
710A
330
1E
100
AcDbEntity
  8
躯体と製品
  6
Continuous
 62
     3
100
AcDbLine
 10
1740.491722821549
 20
995.5790653467339
 30
0.0
 11
1739.999318945043
 21
995.6658894355676
 31
0.0
  0
LINE
  5
710B
330
1E
100
AcDbEntity
  8
躯体と製品
  6
Continuous
 62
     3
100
AcDbLine
 10
1744.749709532437
 20
993.8128407942206
 30
0.0
 11
1744.257305655931
 21
993.899664883054
 31
0.0
  0
LINE
  5
710C
330
1E
100
AcDbEntity
  8
躯体と製品
  6
Continuous
 62
     3
100
AcDbLine
 10
1740.318074643882
 20
994.594257593722
 30
0.0
 11
1739.825670767376
 21
994.6810816825554
 31
0.0
  0
LINE
  5
710D
330
1E
100
AcDbEntity
  8
躯体と製品
  6
Continuous
 62
     3
100
AcDbLine
 10
1738.091616441332
 20
990.6055413921777
 30
0.0
 11
1739.231571414114
 21
997.0705473044997
 31
0.0
  0
LINE
  5
710E
330
1E
100
AcDbEntity
  8
躯体と製品
  6
Continuous
 62
     3
100
AcDbLine
 10
1737.599212564826
 20
990.192365481011
 30
0.0
 11
1733.626748663615
 21
990.192365481011
 31
0.0
  0
ARC
  5
710F
330
1E
100
AcDbEntity
  8
躯体と製品
  6
Continuous
 62
     3
100
AcDbCircle
 10
1737.599212564826
 20
990.692365481011
 30
0.0
 40
0.5
100
AcDbArc
 50
270.0
 51
350.0000000000025
  0
LINE
  5
7110
330
1E
100
AcDbEntity
  8
躯体と製品
  6
Continuous
 62
     3
100
AcDbLine
 10
1739.645375218034
 20
990.7791895698442
 30
0.0
 11
1740.144426466215
 21
993.6094498407097
 31
0.0
  0
ARC
  5
7111
330
1E
100
AcDbEntity
  8
躯体と製品
  6
Continuous
 62
     3
100
AcDbCircle
 10
1740.13777909454
 20
990.692365481011
 30
0.0
 40
0.5
100
AcDbArc
 50
170.0000000000025
 51
270.0
  0
LINE
  5
7112
330
1E
100
AcDbEntity
  8
躯体と製品
  6
Continuous
 62
     3
100
AcDbLine
 10
1743.676462806704
 20
990.6055413921777
 30
0.0
 11
1744.083657478264
 21
992.9148571300419
 31
0.0
  0
LINE
  5
7113
330
1E
100
AcDbEntity
  8
躯体と製品
  6
Continuous
 62
     3
100
AcDbLine
 10
1743.184058930198
 20
990.192365481011
 30
0.0
 11
1740.13777909454
 21
990.192365481011
 31
0.0
  0
ARC
  5
7114
330
1E
100
AcDbEntity
  8
躯体と製品
  6
Continuous
 62
     3
100
AcDbCircle
 10
1743.184058930198
 20
990.692365481011
 30
0.0
 40
0.5
100
AcDbArc
 50
270.0
 51
350.0000000000025
  0
ARC
  5
7115
330
1E
100
AcDbEntity
  8
躯体と製品
  6
DASHED1
 62
     7
100
AcDbCircle
 10
1711.126748663615
 20
947.192365481011
 30
0.0
 40
1.0
100
AcDbArc
 50
180.0
 51
270.0
  0
LINE
  5
7116
330
1E
100
AcDbEntity
  8
躯体と製品
  6
DASHED1
 62
     7
100
AcDbLine
 10
1708.001718663615
 20
948.430369481011
 30
0.0
 11
1712.187151663615
 21
947.6923654810109
 31
0.0
  0
LINE
  5
7117
330
1E
100
AcDbEntity
  8
躯体と製品
  6
DASHED1
 62
     7
100
AcDbLine
 10
1710.576748663615
 20
978.3923654810109
 30
0.0
 11
1718.676748663615
 21
978.3923654810109
 31
0.0
  0
LINE
  5
7118
330
1E
100
AcDbEntity
  8
躯体と製品
  6
DASHED1
 62
     7
100
AcDbLine
 10
1709.876748663615
 20
977.692365481011
 30
0.0
 11
1719.376748663615
 21
977.692365481011
 31
0.0
  0
LINE
  5
7119
330
1E
100
AcDbEntity
  8
躯体と製品
  6
DASHED1
 62
     7
100
AcDbLine
 10
1721.251778663615
 20
948.430369481011
 30
0.0
 11
1719.376748663615
 21
959.064191481011
 31
0.0
  0
LINE
  5
711A
330
1E
100
AcDbEntity
  8
躯体と製品
  6
DASHED1
 62
     7
100
AcDbLine
 10
1715.126748663615
 20
958.692365481011
 30
0.0
 11
1717.066345663615
 21
947.6923654810109
 31
0.0
  0
LINE
  5
711B
330
1E
100
AcDbEntity
  8
躯体と製品
  6
DASHED1
 62
     7
100
AcDbLine
 10
1714.126748663615
 20
958.692365481011
 30
0.0
 11
1712.187151663615
 21
947.6923654810109
 31
0.0
  0
LINE
  5
711C
330
1E
100
AcDbEntity
  8
躯体と製品
  6
DASHED1
 62
     7
100
AcDbLine
 10
1721.251778663615
 20
948.430369481011
 30
0.0
 11
1717.066345663615
 21
947.6923654810109
 31
0.0
  0
LINE
  5
711D
330
1E
100
AcDbEntity
  8
躯体と製品
  6
DASHED1
 62
     7
100
AcDbLine
 10
1719.126748663615
 20
947.192365481011
 30
0.0
 11
1719.126748663615
 21
948.0556694810108
 31
0.0
  0
ARC
  5
711E
330
1E
100
AcDbEntity
  8
躯体と製品
  6
DASHED1
 62
     7
100
AcDbCircle
 10
1718.126748663615
 20
947.192365481011
 30
0.0
 40
1.0
100
AcDbArc
 50
270.0
 51
0.0
  0
LINE
  5
711F
330
1E
100
AcDbEntity
  8
躯体と製品
  6
DASHED1
 62
     7
100
AcDbLine
 10
1718.126748663615
 20
946.1923654810112
 30
0.0
 11
1711.126748663615
 21
946.1923654810112
 31
0.0
  0
LINE
  5
7120
330
1E
100
AcDbEntity
  8
躯体と製品
  6
DASHED1
 62
     7
100
AcDbLine
 10
1719.376748663615
 20
959.064191481011
 30
0.0
 11
1719.376748663615
 21
977.692365481011
 31
0.0
  0
LINE
  5
7121
330
1E
100
AcDbEntity
  8
躯体と製品
  6
DASHED1
 62
     7
100
AcDbLine
 10
1719.376748663615
 20
977.692365481011
 30
0.0
 11
1718.676748663615
 21
978.3923654810109
 31
0.0
  0
LINE
  5
7122
330
1E
100
AcDbEntity
  8
躯体と製品
  6
DASHED1
 62
     7
100
AcDbLine
 10
1714.126748663615
 20
958.692365481011
 30
0.0
 11
1715.126748663615
 21
958.692365481011
 31
0.0
  0
LINE
  5
7123
330
1E
100
AcDbEntity
  8
躯体と製品
  6
DASHED1
 62
     7
100
AcDbLine
 10
1708.001718663615
 20
948.430369481011
 30
0.0
 11
1709.876748663615
 21
959.064191481011
 31
0.0
  0
LINE
  5
7124
330
1E
100
AcDbEntity
  8
躯体と製品
  6
DASHED1
 62
     7
100
AcDbLine
 10
1710.126748663615
 20
947.192365481011
 30
0.0
 11
1710.126748663615
 21
948.0556694810108
 31
0.0
  0
LINE
  5
7125
330
1E
100
AcDbEntity
  8
躯体と製品
  6
DASHED1
 62
     7
100
AcDbLine
 10
1709.876748663615
 20
959.064191481011
 30
0.0
 11
1709.876748663615
 21
977.692365481011
 31
0.0
  0
LINE
  5
7126
330
1E
100
AcDbEntity
  8
躯体と製品
  6
DASHED1
 62
     7
100
AcDbLine
 10
1709.876748663615
 20
977.692365481011
 30
0.0
 11
1710.576748663615
 21
978.3923654810109
 31
0.0
  0
LINE
  5
7127
330
1E
100
AcDbEntity
  8
躯体と製品
  6
DASHED1
 62
     7
100
AcDbLine
 10
1718.676748663615
 20
987.6923654810111
 30
0.0
 11
1718.676748663615
 21
978.3923654810109
 31
0.0
  0
LINE
  5
7128
330
1E
100
AcDbEntity
  8
躯体と製品
  6
DASHED1
 62
     7
100
AcDbLine
 10
1710.576748663615
 20
987.6923654810111
 30
0.0
 11
1710.576748663615
 21
978.3923654810109
 31
0.0
  0
LINE
  5
7129
330
1E
100
AcDbEntity
  8
躯体と製品
  6
Continuous
 62
     4
100
AcDbLine
 10
1699.626748663615
 20
986.2663879527065
 30
0.0
 11
1700.05272619192
 21
986.6923654810117
 31
0.0
  0
LINE
  5
712A
330
1E
100
AcDbEntity
  8
躯体と製品
  6
Continuous
 62
     4
100
AcDbLine
 10
1700.466939754292
 20
985.6923654810112
 30
0.0
 11
1701.466939754293
 21
986.6923654810115
 31
0.0
  0
LINE
  5
712B
330
1E
100
AcDbEntity
  8
躯体と製品
  6
Continuous
 62
     4
100
AcDbLine
 10
1701.881153316666
 20
985.6923654810112
 30
0.0
 11
1702.881153316666
 21
986.6923654810111
 31
0.0
  0
LINE
  5
712C
330
1E
100
AcDbEntity
  8
躯体と製品
  6
Continuous
 62
     4
100
AcDbLine
 10
1703.295366879039
 20
985.6923654810115
 30
0.0
 11
1704.295366879039
 21
986.6923654810111
 31
0.0
  0
LINE
  5
712D
330
1E
100
AcDbEntity
  8
躯体と製品
  6
Continuous
 62
     4
100
AcDbLine
 10
1704.709580441413
 20
985.6923654810113
 30
0.0
 11
1705.709580441413
 21
986.6923654810111
 31
0.0
  0
LINE
  5
712E
330
1E
100
AcDbEntity
  8
躯体と製品
  6
Continuous
 62
     4
100
AcDbLine
 10
1706.123794003786
 20
985.6923654810112
 30
0.0
 11
1707.123794003785
 21
986.6923654810111
 31
0.0
  0
LINE
  5
712F
330
1E
100
AcDbEntity
  8
躯体と製品
  6
Continuous
 62
     4
100
AcDbLine
 10
1707.538007566159
 20
985.6923654810112
 30
0.0
 11
1708.538007566159
 21
986.692365481011
 31
0.0
  0
LINE
  5
7130
330
1E
100
AcDbEntity
  8
躯体と製品
  6
Continuous
 62
     4
100
AcDbLine
 10
1708.95222112853
 20
985.6923654810106
 30
0.0
 11
1709.952221128531
 21
986.6923654810111
 31
0.0
  0
LINE
  5
7131
330
1E
100
AcDbEntity
  8
躯体と製品
  6
Continuous
 62
     4
100
AcDbLine
 10
1710.366434690904
 20
985.6923654810106
 30
0.0
 11
1711.366434690904
 21
986.692365481011
 31
0.0
  0
LINE
  5
7132
330
1E
100
AcDbEntity
  8
躯体と製品
  6
Continuous
 62
     4
100
AcDbLine
 10
1711.780648253277
 20
985.6923654810104
 30
0.0
 11
1712.780648253277
 21
986.6923654810106
 31
0.0
  0
LINE
  5
7133
330
1E
100
AcDbEntity
  8
躯体と製品
  6
Continuous
 62
     4
100
AcDbLine
 10
1713.19486181565
 20
985.6923654810103
 30
0.0
 11
1714.19486181565
 21
986.6923654810106
 31
0.0
  0
LINE
  5
7134
330
1E
100
AcDbEntity
  8
躯体と製品
  6
Continuous
 62
     4
100
AcDbLine
 10
1714.609075378024
 20
985.6923654810112
 30
0.0
 11
1715.609075378023
 21
986.6923654810106
 31
0.0
  0
LINE
  5
7135
330
1E
100
AcDbEntity
  8
躯体と製品
  6
Continuous
 62
     4
100
AcDbLine
 10
1716.023288940397
 20
985.692365481011
 30
0.0
 11
1717.023288940397
 21
986.6923654810106
 31
0.0
  0
LINE
  5
7136
330
1E
100
AcDbEntity
  8
躯体と製品
  6
Continuous
 62
     4
100
AcDbLine
 10
1717.437502502771
 20
985.6923654810106
 30
0.0
 11
1718.43750250277
 21
986.6923654810104
 31
0.0
  0
LINE
  5
7137
330
1E
100
AcDbEntity
  8
躯体と製品
  6
Continuous
 62
     4
100
AcDbLine
 10
1718.851716065144
 20
985.6923654810106
 30
0.0
 11
1719.851716065144
 21
986.6923654810104
 31
0.0
  0
LINE
  5
7138
330
1E
100
AcDbEntity
  8
躯体と製品
  6
Continuous
 62
     4
100
AcDbLine
 10
1720.265929627515
 20
985.6923654810112
 30
0.0
 11
1721.265929627516
 21
986.6923654810113
 31
0.0
  0
LINE
  5
7139
330
1E
100
AcDbEntity
  8
躯体と製品
  6
Continuous
 62
     4
100
AcDbLine
 10
1721.680143189889
 20
985.6923654810112
 30
0.0
 11
1722.680143189889
 21
986.6923654810111
 31
0.0
  0
LINE
  5
713A
330
1E
100
AcDbEntity
  8
躯体と製品
  6
Continuous
 62
     4
100
AcDbLine
 10
1723.094356752262
 20
985.692365481011
 30
0.0
 11
1724.094356752263
 21
986.6923654810111
 31
0.0
  0
LINE
  5
713B
330
1E
100
AcDbEntity
  8
躯体と製品
  6
Continuous
 62
     4
100
AcDbLine
 10
1724.508570314635
 20
985.6923654810106
 30
0.0
 11
1725.508570314636
 21
986.6923654810111
 31
0.0
  0
LINE
  5
713C
330
1E
100
AcDbEntity
  8
躯体と製品
  6
Continuous
 62
     4
100
AcDbLine
 10
1725.922783877009
 20
985.6923654810112
 30
0.0
 11
1726.922783877009
 21
986.692365481011
 31
0.0
  0
LINE
  5
713D
330
1E
100
AcDbEntity
  8
躯体と製品
  6
Continuous
 62
     4
100
AcDbLine
 10
1727.336997439383
 20
985.6923654810115
 30
0.0
 11
1728.336997439383
 21
986.6923654810111
 31
0.0
  0
LINE
  5
713E
330
1E
100
AcDbEntity
  8
躯体と製品
  6
Continuous
 62
     4
100
AcDbLine
 10
1728.751211001756
 20
985.6923654810113
 30
0.0
 11
1729.626748663615
 21
986.5679031428703
 31
0.0
  0
LINE
  5
713F
330
1E
100
AcDbEntity
  8
躯体と製品
  6
Continuous
 62
     3
100
AcDbLine
 10
1729.626748663615
 20
985.6923654810112
 30
0.0
 11
1699.626748663615
 21
985.6923654810112
 31
0.0
  0
LINE
  5
7140
330
1E
100
AcDbEntity
  8
躯体と製品
  6
Continuous
 62
     3
100
AcDbLine
 10
1699.626748663615
 20
986.6923654810111
 30
0.0
 11
1729.626748663615
 21
986.6923654810111
 31
0.0
  0
LINE
  5
7141
330
1E
100
AcDbEntity
  8
躯体と製品
  6
Continuous
 62
     3
100
AcDbLine
 10
1729.626748663615
 20
986.6923654810111
 30
0.0
 11
1729.626748663615
 21
985.6923654810112
 31
0.0
  0
LINE
  5
7142
330
1E
100
AcDbEntity
  8
躯体と製品
  6
Continuous
 62
     3
100
AcDbLine
 10
1699.626748663615
 20
985.6923654810112
 30
0.0
 11
1699.626748663615
 21
986.6923654810111
 31
0.0
  0
ARC
  5
7143
330
1E
100
AcDbEntity
  8
躯体と製品
  6
Continuous
 62
     7
100
AcDbCircle
 10
1764.598188889716
 20
984.6927733945502
 30
0.0
 40
1.0
100
AcDbArc
 50
4.999999999999459
 51
88.36342295838162
  0
LINE
  5
7144
330
1E
100
AcDbEntity
  8
躯体と製品
  6
Continuous
 62
     7
100
AcDbLine
 10
1714.626748663615
 20
986.6923654810111
 30
0.0
 11
1714.626748663615
 21
987.6923654810111
 31
0.0
  0
LINE
  5
7145
330
1E
100
AcDbEntity
  8
躯体と製品
  6
Continuous
 62
     7
100
AcDbLine
 10
1639.626748663615
 20
985.6923654810112
 30
0.0
 11
1764.626748663615
 21
985.6923654810112
 31
0.0
  0
LINE
  5
7146
330
1E
100
AcDbEntity
  8
躯体と製品
  6
Continuous
 62
     3
100
AcDbLine
 10
1840.626748663615
 20
1029.920818170191
 30
0.0
 11
1840.626748663615
 21
945.7677118703356
 31
0.0
  0
LINE
  5
7147
330
1E
100
AcDbEntity
  8
躯体と製品
  6
DASHED1
 62
     7
100
AcDbLine
 10
1548.626748663615
 20
1048.914932429132
 30
0.0
 11
1548.626748663615
 21
1061.068038728987
 31
0.0
  0
LINE
  5
7148
330
1E
100
AcDbEntity
  8
躯体と製品
  6
DASHED1
 62
     7
100
AcDbLine
 10
1548.626748663615
 20
1061.068038728987
 30
0.0
 11
1544.126748663615
 21
1061.068038728987
 31
0.0
  0
LINE
  5
7149
330
1E
100
AcDbEntity
  8
躯体と製品
  6
DASHED1
 62
     7
100
AcDbLine
 10
1544.126748663615
 20
1048.914932429132
 30
0.0
 11
1544.126748663615
 21
1061.068038728987
 31
0.0
  0
ARC
  5
714A
330
1E
100
AcDbEntity
  8
躯体と製品
  6
DASHED1
 62
     7
100
AcDbCircle
 10
1551.626748663615
 20
1048.914932429132
 30
0.0
 40
3.0
100
AcDbArc
 50
180.0
 51
266.9999999999946
  0
ARC
  5
714B
330
1E
100
AcDbEntity
  8
躯体と製品
  6
DASHED1
 62
     7
100
AcDbCircle
 10
1551.626748663615
 20
1048.914932429132
 30
0.0
 40
7.5
100
AcDbArc
 50
180.0
 51
266.9999999999946
  0
ARC
  5
714C
330
1E
100
AcDbEntity
  8
躯体と製品
  6
Continuous
 62
     3
100
AcDbCircle
 10
1556.626748663615
 20
1048.652893532717
 30
0.0
 40
1.0
100
AcDbArc
 50
180.0
 51
266.9999999999946
  0
LINE
  5
714D
330
1E
100
AcDbEntity
  8
躯体と製品
  6
Continuous
 62
     3
100
AcDbLine
 10
1555.626748663615
 20
1048.652893532717
 30
0.0
 11
1555.626748663615
 21
1059.703928966002
 31
0.0
  0
ARC
  5
714E
330
1E
100
AcDbEntity
  8
躯体と製品
  6
Continuous
 62
     3
100
AcDbCircle
 10
1556.626748663615
 20
1048.652893532717
 30
0.0
 40
3.0
100
AcDbArc
 50
180.0
 51
266.9999999999946
  0
LINE
  5
714F
330
1E
100
AcDbEntity
  8
躯体と製品
  6
Continuous
 62
     3
100
AcDbLine
 10
1553.626748663615
 20
1048.652893532717
 30
0.0
 11
1553.626748663615
 21
1059.703928966002
 31
0.0
  0
LINE
  5
7150
330
1E
100
AcDbEntity
  8
躯体と製品
  6
Continuous
 62
     3
100
AcDbLine
 10
1553.626748663615
 20
1059.703928966002
 30
0.0
 11
1555.626748663615
 21
1059.703928966002
 31
0.0
  0
ARC
  5
7151
330
1E
100
AcDbEntity
  8
躯体と製品
  6
DASHED1
 62
     7
100
AcDbCircle
 10
1817.289928297886
 20
1024.477705514251
 30
0.0
 40
7.5
100
AcDbArc
 50
10.12467165539965
 51
86.99999999999457
  0
LINE
  5
7152
330
1E
100
AcDbEntity
  8
躯体と製品
  6
DASHED1
 62
     7
100
AcDbLine
 10
1824.673135114199
 20
1025.796135302878
 30
0.0
 11
1838.626748663615
 21
947.6558994261516
 31
0.0
  0
LINE
  5
7153
330
1E
100
AcDbEntity
  8
躯体と製品
  6
DASHED1
 62
     7
100
AcDbLine
 10
1838.626748663615
 20
947.6558994261516
 30
0.0
 11
1834.19682457389
 21
946.8648415526194
 31
0.0
  0
LINE
  5
7154
330
1E
100
AcDbEntity
  8
躯体と製品
  6
DASHED1
 62
     7
100
AcDbLine
 10
1820.243211024411
 20
1025.005077429701
 30
0.0
 11
1834.196824573827
 21
946.8648415529751
 31
0.0
  0
ARC
  5
7155
330
1E
100
AcDbEntity
  8
躯体と製品
  6
DASHED1
 62
     7
100
AcDbCircle
 10
1817.289928297886
 20
1024.477705514251
 30
0.0
 40
3.0
100
AcDbArc
 50
10.12467165539965
 51
86.99999999999457
  0
POINT
  5
7156
330
1E
100
AcDbEntity
  8
躯体と製品
 62
     4
100
AcDbPoint
 10
1840.626748663615
 20
942.7677118703357
 30
0.0
  0
POINT
  5
7157
330
1E
100
AcDbEntity
  8
躯体と製品
 62
     4
100
AcDbPoint
 10
1840.626748663615
 20
1032.767711870336
 30
0.0
  0
LINE
  5
7158
330
1E
100
AcDbEntity
  8
躯体と製品
  6
Continuous
 62
     3
100
AcDbLine
 10
1830.626748663615
 20
942.7677118703357
 30
0.0
 11
1830.626748663615
 21
944.7677118703357
 31
0.0
  0
ARC
  5
7159
330
1E
100
AcDbEntity
  8
躯体と製品
  6
Continuous
 62
     3
100
AcDbCircle
 10
1837.626748663615
 20
945.7677118703356
 30
0.0
 40
1.0
100
AcDbArc
 50
270.0
 51
0.0
  0
LINE
  5
715A
330
1E
100
AcDbEntity
  8
躯体と製品
  6
Continuous
 62
     3
100
AcDbLine
 10
1837.626748663615
 20
944.7677118703357
 30
0.0
 11
1830.626748663615
 21
944.7677118703357
 31
0.0
  0
LINE
  5
715B
330
1E
100
AcDbEntity
  8
躯体と製品
  6
Continuous
 62
     3
100
AcDbLine
 10
1838.626748663615
 20
945.7677118703356
 30
0.0
 11
1838.626748663615
 21
1029.920818170191
 31
0.0
  0
ARC
  5
715C
330
1E
100
AcDbEntity
  8
躯体と製品
  6
Continuous
 62
     3
100
AcDbCircle
 10
1837.626748663615
 20
1029.920818170191
 30
0.0
 40
1.0
100
AcDbArc
 50
0.0
 51
86.99999999999457
  0
ARC
  5
715D
330
1E
100
AcDbEntity
  8
躯体と製品
  6
Continuous
 62
     3
100
AcDbCircle
 10
1837.626748663615
 20
945.7677118703356
 30
0.0
 40
3.0
100
AcDbArc
 50
270.0
 51
0.0
  0
ARC
  5
715E
330
1E
100
AcDbEntity
  8
躯体と製品
  6
Continuous
 62
     3
100
AcDbCircle
 10
1837.626748663615
 20
1029.920818170191
 30
0.0
 40
3.0
100
AcDbArc
 50
0.0
 51
86.99999999999457
  0
LINE
  5
715F
330
1E
100
AcDbEntity
  8
躯体と製品
  6
Continuous
 62
     3
100
AcDbLine
 10
1837.626748663615
 20
942.7677118703357
 30
0.0
 11
1830.626748663615
 21
942.7677118703357
 31
0.0
  0
LINE
  5
7160
330
1E
100
AcDbEntity
  8
躯体と製品
  6
Continuous
 62
     3
100
AcDbLine
 10
1556.574412707372
 20
1047.654263997962
 30
0.0
 11
1837.783756532343
 21
1032.916706774455
 31
0.0
  0
LINE
  5
7161
330
1E
100
AcDbEntity
  8
躯体と製品
  6
Continuous
 62
     3
100
AcDbLine
 10
1556.469740794886
 20
1045.657004928453
 30
0.0
 11
1837.679084619858
 21
1030.919447704945
 31
0.0
  0
LINE
  5
7162
330
1E
100
AcDbEntity
  8
躯体と製品
  6
DASHED1
 62
     7
100
AcDbLine
 10
1811.554277006213
 20
1032.288590856173
 30
0.0
 11
1817.682447969708
 21
1031.96742702491
 31
0.0
  0
LINE
  5
7163
330
1E
100
AcDbEntity
  8
躯体と製品
  6
DASHED1
 62
     7
100
AcDbLine
 10
1811.31876520312
 20
1027.794757949778
 30
0.0
 11
1817.446936166615
 21
1027.473594118514
 31
0.0
  0
LINE
  5
7164
330
1E
100
AcDbEntity
  8
躯体と製品
  6
DASHED1
 62
     7
100
AcDbLine
 10
1551.469740794886
 20
1045.919043824868
 30
0.0
 11
1571.883188665115
 21
1044.849220354479
 31
0.0
  0
LINE
  5
7165
330
1E
100
AcDbEntity
  8
躯体と製品
  6
DASHED1
 62
     7
100
AcDbLine
 10
1551.234228991793
 20
1041.425210918472
 30
0.0
 11
1571.647676862022
 21
1040.355387448083
 31
0.0
  0
LINE
  5
7166
330
1E
100
AcDbEntity
  8
躯体と製品
  6
Continuous
 62
     7
100
AcDbLine
 10
1571.793343957118
 20
1043.134881200507
 30
0.0
 11
1571.883188665115
 21
1044.84922035448
 31
0.0
  0
LINE
  5
7167
330
1E
100
AcDbEntity
  8
躯体と製品
  6
Continuous
 62
     7
100
AcDbLine
 10
1811.464432298216
 20
1030.574251702201
 30
0.0
 11
1811.554277006214
 21
1032.288590856173
 31
0.0
  0
LINE
  5
7168
330
1E
100
AcDbEntity
  8
躯体と製品
  6
Continuous
 62
     4
100
AcDbLine
 10
1586.795664269574
 20
1042.786366576096
 30
0.0
 11
1585.443474983582
 21
1044.138555862087
 31
0.0
  0
LINE
  5
7169
330
1E
100
AcDbEntity
  8
躯体と製品
  6
Continuous
 62
     4
100
AcDbLine
 10
1585.765168372955
 20
1042.402648910341
 30
0.0
 11
1583.951046561889
 21
1044.216770721407
 31
0.0
  0
LINE
  5
716A
330
1E
100
AcDbEntity
  8
躯体と製品
  6
Continuous
 62
     4
100
AcDbLine
 10
1584.272739951264
 20
1042.480863769661
 30
0.0
 11
1582.458618140198
 21
1044.294985580726
 31
0.0
  0
LINE
  5
716B
330
1E
100
AcDbEntity
  8
躯体と製品
  6
Continuous
 62
     4
100
AcDbLine
 10
1582.780311529571
 20
1042.55907862898
 30
0.0
 11
1580.966189718505
 21
1044.373200440046
 31
0.0
  0
LINE
  5
716C
330
1E
100
AcDbEntity
  8
躯体と製品
  6
Continuous
 62
     4
100
AcDbLine
 10
1581.287883107877
 20
1042.6372934883
 30
0.0
 11
1579.473761296812
 21
1044.451415299366
 31
0.0
  0
LINE
  5
716D
330
1E
100
AcDbEntity
  8
躯体と製品
  6
Continuous
 62
     4
100
AcDbLine
 10
1579.795454686184
 20
1042.71550834762
 30
0.0
 11
1577.981332875119
 21
1044.529630158686
 31
0.0
  0
LINE
  5
716E
330
1E
100
AcDbEntity
  8
躯体と製品
  6
Continuous
 62
     4
100
AcDbLine
 10
1578.303026264492
 20
1042.79372320694
 30
0.0
 11
1576.488904453425
 21
1044.607845018005
 31
0.0
  0
LINE
  5
716F
330
1E
100
AcDbEntity
  8
躯体と製品
  6
Continuous
 62
     4
100
AcDbLine
 10
1576.810597842798
 20
1042.871938066259
 30
0.0
 11
1574.996476031732
 21
1044.686059877325
 31
0.0
  0
LINE
  5
7170
330
1E
100
AcDbEntity
  8
躯体と製品
  6
Continuous
 62
     4
100
AcDbLine
 10
1575.318169421105
 20
1042.95015292558
 30
0.0
 11
1573.504047610039
 21
1044.764274736645
 31
0.0
  0
LINE
  5
7171
330
1E
100
AcDbEntity
  8
躯体と製品
  6
Continuous
 62
     4
100
AcDbLine
 10
1573.825740999412
 20
1043.028367784899
 30
0.0
 11
1572.011619188346
 21
1044.842489595965
 31
0.0
  0
LINE
  5
7172
330
1E
100
AcDbEntity
  8
躯体と製品
  6
Continuous
 62
     7
100
AcDbLine
 10
1586.772786978437
 20
1042.349841856863
 30
0.0
 11
1586.862631686434
 21
1044.064181010836
 31
0.0
  0
LINE
  5
7173
330
1E
100
AcDbEntity
  8
躯体と製品
  6
Continuous
 62
     4
100
AcDbLine
 10
1811.487309589353
 20
1031.010776421433
 30
0.0
 11
1810.135120303362
 21
1032.362965707425
 31
0.0
  0
LINE
  5
7174
330
1E
100
AcDbEntity
  8
躯体と製品
  6
Continuous
 62
     4
100
AcDbLine
 10
1810.456813692734
 20
1030.627058755679
 30
0.0
 11
1808.642691881669
 21
1032.441180566744
 31
0.0
  0
LINE
  5
7175
330
1E
100
AcDbEntity
  8
躯体と製品
  6
Continuous
 62
     4
100
AcDbLine
 10
1808.964385271043
 20
1030.705273614998
 30
0.0
 11
1807.150263459978
 21
1032.519395426064
 31
0.0
  0
LINE
  5
7176
330
1E
100
AcDbEntity
  8
躯体と製品
  6
Continuous
 62
     4
100
AcDbLine
 10
1807.471956849351
 20
1030.783488474318
 30
0.0
 11
1805.657835038284
 21
1032.597610285384
 31
0.0
  0
LINE
  5
7177
330
1E
100
AcDbEntity
  8
躯体と製品
  6
Continuous
 62
     4
100
AcDbLine
 10
1805.979528427657
 20
1030.861703333638
 30
0.0
 11
1804.165406616591
 21
1032.675825144704
 31
0.0
  0
LINE
  5
7178
330
1E
100
AcDbEntity
  8
躯体と製品
  6
Continuous
 62
     4
100
AcDbLine
 10
1804.487100005964
 20
1030.939918192958
 30
0.0
 11
1802.672978194898
 21
1032.754040004023
 31
0.0
  0
LINE
  5
7179
330
1E
100
AcDbEntity
  8
躯体と製品
  6
Continuous
 62
     4
100
AcDbLine
 10
1802.994671584271
 20
1031.018133052277
 30
0.0
 11
1801.180549773205
 21
1032.832254863343
 31
0.0
  0
LINE
  5
717A
330
1E
100
AcDbEntity
  8
躯体と製品
  6
Continuous
 62
     4
100
AcDbLine
 10
1801.502243162578
 20
1031.096347911597
 30
0.0
 11
1799.688121351512
 21
1032.910469722663
 31
0.0
  0
LINE
  5
717B
330
1E
100
AcDbEntity
  8
躯体と製品
  6
Continuous
 62
     4
100
AcDbLine
 10
1800.009814740884
 20
1031.174562770917
 30
0.0
 11
1798.195692929819
 21
1032.988684581983
 31
0.0
  0
LINE
  5
717C
330
1E
100
AcDbEntity
  8
躯体と製品
  6
Continuous
 62
     4
100
AcDbLine
 10
1798.517386319191
 20
1031.252777630237
 30
0.0
 11
1796.703264508126
 21
1033.066899441303
 31
0.0
  0
LINE
  5
717D
330
1E
100
AcDbEntity
  8
躯体と製品
  6
Continuous
 62
     7
100
AcDbLine
 10
1796.484989276897
 20
1031.359291045845
 30
0.0
 11
1796.574833984895
 21
1033.073630199818
 31
0.0
  0
LINE
  5
717E
330
1E
100
AcDbEntity
  8
躯体と製品
  6
Continuous
 62
     7
100
AcDbLine
 10
1563.808575672856
 20
1049.838029471811
 30
0.0
 11
1564.801037160997
 21
1048.583031386331
 31
0.0
  0
LINE
  5
717F
330
1E
100
AcDbEntity
  8
躯体と製品
  6
Continuous
 62
     7
100
AcDbLine
 10
1564.436074715596
 20
1050.334260215882
 30
0.0
 11
1565.428536203737
 21
1049.079262130402
 31
0.0
  0
ARC
  5
7180
330
1E
100
AcDbEntity
  8
躯体と製品
  6
Continuous
 62
     7
100
AcDbCircle
 10
1564.122325194226
 20
1050.086144843846
 30
0.0
 40
0.4
100
AcDbArc
 50
38.33720022687712
 51
218.3372002268771
  0
ARC
  5
7181
330
1E
100
AcDbEntity
  8
躯体と製品
  6
Continuous
 62
     7
100
AcDbCircle
 10
1567.938532374696
 20
1051.064185106683
 30
0.0
 40
3.2
100
AcDbArc
 50
218.3372002268771
 51
334.3264338107152
  0
ARC
  5
7182
330
1E
100
AcDbEntity
  8
躯体と製品
  6
Continuous
 62
     7
100
AcDbCircle
 10
1567.938532374696
 20
1051.064185106683
 30
0.0
 40
4.0
100
AcDbArc
 50
218.3372002268771
 51
334.3264338107152
  0
LINE
  5
7183
330
1E
100
AcDbEntity
  8
躯体と製品
  6
Continuous
 62
     7
100
AcDbLine
 10
1572.626748663615
 20
1051.584404318472
 30
0.0
 11
1571.543640363037
 21
1049.331211825759
 31
0.0
  0
LINE
  5
7184
330
1E
100
AcDbEntity
  8
躯体と製品
  6
Continuous
 62
     7
100
AcDbLine
 10
1765.594383587808
 20
984.7799291372981
 30
0.0
 11
1767.210145604979
 21
966.3116847722166
 31
0.0
  0
LINE
  5
7185
330
1E
100
AcDbEntity
  8
躯体と製品
  6
Continuous
 62
     7
100
AcDbLine
 10
1766.590578285899
 20
984.8670848800454
 30
0.0
 11
1768.206340303071
 21
966.3988405149648
 31
0.0
  0
LINE
  5
7186
330
1E
100
AcDbEntity
  8
躯体と製品
  6
Continuous
 62
     7
100
AcDbLine
 10
1816.240418071961
 20
989.2635831873581
 30
0.0
 11
1814.232387154237
 21
966.3116847722166
 31
0.0
  0
ARC
  5
7187
330
1E
100
AcDbEntity
  8
躯体と製品
  6
Continuous
 62
     7
100
AcDbCircle
 10
1790.721266379608
 20
968.3686413067858
 30
0.0
 40
23.60092943645005
100
AcDbArc
 50
184.9999999999994
 51
355.0000000000006
  0
LINE
  5
7188
330
1E
100
AcDbEntity
  8
躯体と製品
  6
Continuous
 62
     7
100
AcDbLine
 10
1815.244223373869
 20
989.350738930106
 30
0.0
 11
1813.236192456145
 21
966.3988405149648
 31
0.0
  0
ARC
  5
7189
330
1E
100
AcDbEntity
  8
躯体と製品
  6
Continuous
 62
     7
100
AcDbCircle
 10
1790.721266379608
 20
968.3686413067858
 30
0.0
 40
22.60092943645005
100
AcDbArc
 50
184.9999999999994
 51
355.0000000000006
  0
LINE
  5
718A
330
1E
100
AcDbEntity
  8
躯体と製品
  6
Continuous
 62
     7
100
AcDbLine
 10
1571.739119219407
 20
1051.584404318472
 30
0.0
 11
1570.822618765369
 21
1049.677806481944
 31
0.0
  0
LINE
  5
718B
330
1E
100
AcDbEntity
  8
躯体と製品
  6
DASHED1
 62
     4
100
AcDbLine
 10
1770.367859870688
 20
1010.697840187317
 30
0.0
 11
1770.462064591925
 21
1012.495373349876
 31
0.0
  0
LINE
  5
718C
330
1E
100
AcDbEntity
  8
躯体と製品
  6
DASHED1
 62
     4
100
AcDbLine
 10
1670.50490639523
 20
1015.931435811612
 30
0.0
 11
1670.599111116468
 21
1017.72896897417
 31
0.0
  0
LINE
  5
718D
330
1E
100
AcDbEntity
  8
躯体と製品
  6
Continuous
 62
     7
100
AcDbLine
 10
1540.626748663615
 20
1012.040743375564
 30
0.0
 11
1546.937171944076
 21
939.9122752273294
 31
0.0
  0
LINE
  5
718E
330
1E
100
AcDbEntity
  8
躯体と製品
  6
Continuous
 62
     7
100
AcDbLine
 10
1541.626748663615
 20
1012.084404318472
 30
0.0
 11
1547.933366642168
 21
939.9994309700771
 31
0.0
  0
LINE
  5
718F
330
1E
100
AcDbEntity
  8
躯体と製品
  6
Continuous
 62
     7
100
AcDbLine
 10
1637.651023619765
 20
984.8668158264668
 30
0.0
 11
1633.725636082776
 21
939.9994309700771
 31
0.0
  0
ARC
  5
7190
330
1E
100
AcDbEntity
  8
躯体と製品
  6
Continuous
 62
     7
100
AcDbCircle
 10
1590.829501362472
 20
943.7523564671844
 30
0.0
 40
43.05999098617346
100
AcDbArc
 50
184.9999999999994
 51
355.0000000000006
  0
LINE
  5
7191
330
1E
100
AcDbEntity
  8
躯体と製品
  6
Continuous
 62
     7
100
AcDbLine
 10
1638.647218317857
 20
984.7796600837192
 30
0.0
 11
1634.721830780868
 21
939.9122752273292
 31
0.0
  0
ARC
  5
7192
330
1E
100
AcDbEntity
  8
躯体と製品
  6
Continuous
 62
     7
100
AcDbCircle
 10
1590.829501362472
 20
943.7523564671844
 30
0.0
 40
44.05999098617344
100
AcDbArc
 50
184.9999999999994
 51
355.0000000000006
  0
LINE
  5
71A8
330
1E
100
AcDbEntity
  8
躯体と製品
  6
Continuous
 62
     7
100
AcDbLine
 10
1764.626748663615
 20
985.6923654810112
 30
0.0
 11
1764.626748663615
 21
855.6923654810111
 31
0.0
  0
LINE
  5
71C6
330
1E
100
AcDbEntity
  8
躯体と製品
  6
Continuous
 62
     7
100
AcDbLine
 10
1540.626748663615
 20
1047.084404318472
 30
0.0
 11
1539.626748663615
 21
1047.084404318472
 31
0.0
  0
LINE
  5
71C7
330
1E
100
AcDbEntity
  8
躯体と製品
  6
Continuous
 62
     7
100
AcDbLine
 10
1540.626748663615
 20
1042.084404318472
 30
0.0
 11
1539.626748663615
 21
1042.084404318472
 31
0.0
  0
ARC
  5
71C8
330
1E
100
AcDbEntity
  8
躯体と製品
  6
Continuous
 62
     7
100
AcDbCircle
 10
1693.626748663615
 20
995.9423654810111
 30
0.0
 40
10.25
100
AcDbArc
 50
270.0
 51
288.9246444160544
  0
ARC
  5
71C9
330
1E
100
AcDbEntity
  8
躯体と製品
  6
Continuous
 62
     7
100
AcDbCircle
 10
1699.626748663615
 20
978.4423654810112
 30
0.0
 40
8.25
100
AcDbArc
 50
90.0
 51
108.9246444160544
  0
ARC
  5
71CA
330
1E
100
AcDbEntity
  8
躯体と製品
  6
Continuous
 62
     7
100
AcDbCircle
 10
1735.626748663615
 20
995.9423654810111
 30
0.0
 40
9.25
100
AcDbArc
 50
251.0753555839456
 51
270.0
  0
ARC
  5
71CB
330
1E
100
AcDbEntity
  8
躯体と製品
  6
Continuous
 62
     7
100
AcDbCircle
 10
1735.626748663615
 20
995.9423654810111
 30
0.0
 40
10.25
100
AcDbArc
 50
251.0753555839456
 51
270.0
  0
ARC
  5
71CC
330
1E
100
AcDbEntity
  8
躯体と製品
  6
Continuous
 62
     7
100
AcDbCircle
 10
1729.626748663615
 20
978.4423654810112
 30
0.0
 40
8.25
100
AcDbArc
 50
71.07535558394559
 51
90.0
  0
LINE
  5
71CD
330
1E
100
AcDbEntity
  8
躯体と製品
  6
Continuous
 62
     7
100
AcDbLine
 10
1764.638580569102
 20
986.6923654810111
 30
0.0
 11
1735.626748663615
 21
986.6923654810111
 31
0.0
  0
ARC
  5
71CE
330
1E
100
AcDbEntity
  8
躯体と製品
  6
Continuous
 62
     7
100
AcDbCircle
 10
1764.598188889716
 20
984.6927733945502
 30
0.0
 40
2.0
100
AcDbArc
 50
4.999999999999459
 51
88.84278494684552
  0
ARC
  5
71CF
330
1E
100
AcDbEntity
  8
躯体と製品
  6
Continuous
 62
     7
100
AcDbCircle
 10
1729.626748663615
 20
978.4423654810112
 30
0.0
 40
9.25
100
AcDbArc
 50
71.07535558394559
 51
90.0
  0
ARC
  5
71D0
330
1E
100
AcDbEntity
  8
躯体と製品
  6
Continuous
 62
     7
100
AcDbCircle
 10
1699.626748663615
 20
978.4423654810112
 30
0.0
 40
9.25
100
AcDbArc
 50
90.0
 51
108.9246444160544
  0
LINE
  5
71D1
330
1E
100
AcDbEntity
  8
躯体と製品
  6
Continuous
 62
     7
100
AcDbLine
 10
1729.626748663615
 20
987.6923654810111
 30
0.0
 11
1699.626748663615
 21
987.6923654810111
 31
0.0
  0
ARC
  5
71D2
330
1E
100
AcDbEntity
  8
躯体と製品
  6
Continuous
 62
     7
100
AcDbCircle
 10
1693.626748663615
 20
995.9423654810111
 30
0.0
 40
9.25
100
AcDbArc
 50
270.0
 51
288.9246444160544
  0
LINE
  5
71D3
330
1E
100
AcDbEntity
  8
躯体と製品
  6
Continuous
 62
     7
100
AcDbLine
 10
1639.619845653782
 20
986.6923654810111
 30
0.0
 11
1693.626748663615
 21
986.6923654810111
 31
0.0
  0
TEXT
  5
71D4
330
1E
100
AcDbEntity
  8
図枠
 62
     7
100
AcDbText
 10
1611.626748663615
 20
845.6180640932203
 30
0.0
 40
5.0
  1
（3000mmセット）
100
AcDbText
  0
TEXT
  5
71D5
330
1E
100
AcDbEntity
  8
図枠
 62
     7
100
AcDbText
 10
1679.626748663615
 20
845.6180640932203
 30
0.0
 40
5.0
  1
（2000mmセット）
100
AcDbText
  0
TEXT
  5
71D6
330
1E
100
AcDbEntity
  8
図枠
 62
     7
100
AcDbText
 10
1944.626748663615
 20
845.6180640932203
 30
0.0
 40
5.0
  1
（単位：mm）
100
AcDbText
  0
LINE
  5
71D7
330
1E
100
AcDbEntity
  8
図枠
  6
Continuous
 62
     4
100
AcDbLine
 10
1624.126748663615
 20
1049.120857815104
 30
0.0
 11
1674.126748663615
 21
1049.120857815104
 31
0.0
  0
LINE
  5
71D8
330
1E
100
AcDbEntity
  8
図枠
  6
Continuous
 62
     4
100
AcDbLine
 10
1674.126748663615
 20
1046.500468850952
 30
0.0
 11
1674.126748663615
 21
1049.120857815104
 31
0.0
  0
LINE
  5
71D9
330
1E
100
AcDbEntity
  8
図枠
  6
Continuous
 62
     4
100
AcDbLine
 10
1624.126748663615
 20
1049.120857815104
 30
0.0
 11
1674.126748663615
 21
1046.500468850952
 31
0.0
  0
TEXT
  5
71DA
330
1E
100
AcDbEntity
  8
図枠
 62
     7
100
AcDbText
 10
1635.626748663615
 20
1049.1051348505
 30
0.0
 40
5.0
  1
勾配３度
100
AcDbText
  0
LINE
  5
71DB
330
1E
100
AcDbEntity
  8
躯体と製品
  6
CENTER1
 62
     4
100
AcDbLine
 10
1542.50402598105
 20
1095.084404318472
 30
0.0
 11
1559.372059663615
 21
1095.084404318472
 31
0.0
  0
LINE
  5
71DC
330
1E
100
AcDbEntity
  8
躯体と製品
  6
CENTER1
 62
     4
100
AcDbLine
 10
1554.326750663615
 20
1044.584404318473
 30
0.0
 11
1480.626748663615
 21
1044.584404318473
 31
0.0
  0
LINE
  5
71DD
330
1E
100
AcDbEntity
  8
躯体と製品
  6
CENTER1
 62
     4
100
AcDbLine
 10
1716.351388525352
 20
1038.523968847812
 30
0.0
 11
1713.998717188699
 21
993.6323254918427
 31
0.0
  0
LINE
  5
71DE
330
1E
100
AcDbEntity
  8
躯体と製品
  6
CENTER1
 62
     4
100
AcDbLine
 10
1714.626748663615
 20
1010.615879908897
 30
0.0
 11
1714.626748663615
 21
921.6923654810109
 31
0.0
  0
ARC
  5
71DF
330
1E
100
AcDbEntity
  8
躯体と製品
  6
Continuous
 62
     7
100
AcDbCircle
 10
1545.498039117648
 20
1043.081641318472
 30
0.0
 40
3.0
100
AcDbArc
 50
272.4589259999961
 51
321.3853620000019
  0
ARC
  5
71E0
330
1E
100
AcDbEntity
  8
躯体と製品
  6
Continuous
 62
     7
100
AcDbCircle
 10
1543.626750117648
 20
1044.584404318473
 30
0.0
 40
5.4
100
AcDbArc
 50
321.3178130000017
 51
0.0
  0
ARC
  5
71E1
330
1E
100
AcDbEntity
  8
躯体と製品
  6
Continuous
 62
     7
100
AcDbCircle
 10
1543.626750117648
 20
1044.584404318473
 30
0.0
 40
5.4
100
AcDbArc
 50
0.0
 51
38.85106200000121
  0
ARC
  5
71E2
330
1E
100
AcDbEntity
  8
躯体と製品
  6
Continuous
 62
     7
100
AcDbCircle
 10
1545.498039117648
 20
1046.087164318473
 30
0.0
 40
3.0
100
AcDbArc
 50
38.61463799999811
 51
87.54107400000384
  0
LINE
  5
71E3
330
1E
100
AcDbEntity
  8
躯体と製品
  6
Continuous
 62
     7
100
AcDbLine
 10
1545.626748663615
 20
1053.584404318473
 30
0.0
 11
1544.126748663615
 21
1053.584404318473
 31
0.0
  0
LINE
  5
71E4
330
1E
100
AcDbEntity
  8
躯体と製品
  6
Continuous
 62
     7
100
AcDbLine
 10
1545.626748663615
 20
1035.584404318472
 30
0.0
 11
1544.126748663615
 21
1035.584404318472
 31
0.0
  0
LINE
  5
71E5
330
1E
100
AcDbEntity
  8
躯体と製品
  6
Continuous
 62
     7
100
AcDbLine
 10
1545.626748663615
 20
1035.584404318472
 30
0.0
 11
1545.626748663615
 21
1053.584404318473
 31
0.0
  0
LINE
  5
71E6
330
1E
100
AcDbEntity
  8
躯体と製品
  6
Continuous
 62
     7
100
AcDbLine
 10
1723.626748663615
 20
991.6923654810112
 30
0.0
 11
1723.626748663615
 21
990.192365481011
 31
0.0
  0
LINE
  5
71E7
330
1E
100
AcDbEntity
  8
躯体と製品
  6
Continuous
 62
     7
100
AcDbLine
 10
1705.626748663615
 20
991.6923654810112
 30
0.0
 11
1723.626748663615
 21
991.6923654810112
 31
0.0
  0
LINE
  5
71E8
330
1E
100
AcDbEntity
  8
躯体と製品
  6
Continuous
 62
     7
100
AcDbLine
 10
1705.626748663615
 20
991.6923654810112
 30
0.0
 11
1705.626748663615
 21
990.192365481011
 31
0.0
  0
ARC
  5
71E9
330
1E
100
AcDbEntity
  8
躯体と製品
  6
Continuous
 62
     7
100
AcDbCircle
 10
1714.626748663615
 20
987.0812124414552
 30
0.0
 40
9.553418012635715
100
AcDbArc
 50
72.41204622604875
 51
107.5879537739512
  0
ARC
  5
71EA
330
1E
100
AcDbEntity
  8
躯体と製品
  6
Continuous
 62
     7
100
AcDbCircle
 10
1710.296621644693
 20
994.0788077056629
 30
0.0
 40
2.555822748428199
100
AcDbArc
 50
55.61575253203712
 51
124.3842474679628
  0
ARC
  5
71EB
330
1E
100
AcDbEntity
  8
躯体と製品
  6
Continuous
 62
     7
100
AcDbCircle
 10
1718.956875682537
 20
994.0788077056629
 30
0.0
 40
2.555822748428199
100
AcDbArc
 50
55.61575253203712
 51
124.3842474679628
  0
LINE
  5
71EC
330
1E
100
AcDbEntity
  8
躯体と製品
  6
Continuous
 62
     7
100
AcDbLine
 10
1708.853245971719
 20
996.1880484667068
 30
0.0
 11
1708.853245971719
 21
991.6923654810112
 31
0.0
  0
LINE
  5
71ED
330
1E
100
AcDbEntity
  8
躯体と製品
  6
Continuous
 62
     7
100
AcDbLine
 10
1709.726748663615
 20
996.6923654810111
 30
0.0
 11
1708.853245971719
 21
996.1880484667068
 31
0.0
  0
LINE
  5
71EE
330
1E
100
AcDbEntity
  8
躯体と製品
  6
Continuous
 62
     7
100
AcDbLine
 10
1709.726748663615
 20
996.6923654810111
 30
0.0
 11
1719.526748663615
 21
996.6923654810111
 31
0.0
  0
LINE
  5
71EF
330
1E
100
AcDbEntity
  8
躯体と製品
  6
Continuous
 62
     7
100
AcDbLine
 10
1719.526748663615
 20
996.6923654810111
 30
0.0
 11
1720.400251355511
 21
996.1880484667068
 31
0.0
  0
LINE
  5
71F0
330
1E
100
AcDbEntity
  8
躯体と製品
  6
Continuous
 62
     7
100
AcDbLine
 10
1711.739997317667
 20
996.1880484667068
 30
0.0
 11
1711.739997317667
 21
991.6923654810112
 31
0.0
  0
LINE
  5
71F1
330
1E
100
AcDbEntity
  8
躯体と製品
  6
Continuous
 62
     7
100
AcDbLine
 10
1717.513500009563
 20
996.1880484667068
 30
0.0
 11
1717.513500009563
 21
991.6923654810112
 31
0.0
  0
LINE
  5
71F2
330
1E
100
AcDbEntity
  8
躯体と製品
  6
Continuous
 62
     7
100
AcDbLine
 10
1720.400251355511
 20
996.1880484667068
 30
0.0
 11
1720.400251355511
 21
991.6923654810112
 31
0.0
  0
LINE
  5
71F3
330
1E
100
AcDbEntity
  8
躯体と製品
  6
Continuous
 62
     7
100
AcDbLine
 10
1711.586710107681
 20
996.6923654810111
 30
0.0
 11
1711.178717171982
 21
997.1454875413598
 31
0.0
  0
LINE
  5
71F4
330
1E
100
AcDbEntity
  8
躯体と製品
  6
Continuous
 62
     4
100
AcDbLine
 10
1712.010171507384
 20
1002.148068461385
 30
0.0
 11
1711.724250229755
 21
996.6923654810111
 31
0.0
  0
LINE
  5
71F5
330
1E
100
AcDbEntity
  8
躯体と製品
  6
Continuous
 62
     4
100
AcDbLine
 10
1716.866506934896
 20
1001.893558706176
 30
0.0
 11
1716.593923948343
 21
996.6923654810111
 31
0.0
  0
LINE
  5
71F6
330
1E
100
AcDbEntity
  8
躯体と製品
  6
Continuous
 62
     7
100
AcDbLine
 10
1717.17049438051
 20
996.8314718039021
 30
0.0
 11
1717.016001157415
 21
996.6923654810111
 31
0.0
  0
TEXT
  5
71F7
330
1E
100
AcDbEntity
  8
図枠
 62
     7
100
AcDbText
 10
1414.626748663615
 20
791.8821709989349
 30
0.0
 40
5.0
  1
止水補助板ホルダーＡＬ
100
AcDbText
  0
TEXT
  5
71F8
330
1E
100
AcDbEntity
  8
図枠
 62
     7
100
AcDbText
 10
1965.626748663615
 20
764.8821709989349
 30
0.0
 40
5.0
  1
124
100
AcDbText
  0
TEXT
  5
71F9
330
1E
100
AcDbEntity
  8
図枠
 62
     7
100
AcDbText
 10
1750.51766746438
 20
1057.748108842745
 30
0.0
 40
5.0
  1
７
100
AcDbText
  0
TEXT
  5
71FA
330
1E
100
AcDbEntity
  8
図枠
 62
     7
100
AcDbText
 10
1734.256726240079
 20
1054.226415620561
 30
0.0
 40
5.0
  1
14
100
AcDbText
  0
CIRCLE
  5
71FB
330
1E
100
AcDbEntity
  8
図枠
  6
Continuous
 62
     4
100
AcDbCircle
 10
1764.600089402375
 20
1019.290559581115
 30
0.0
 40
0.9
  0
CIRCLE
  5
71FC
330
1E
100
AcDbEntity
  8
図枠
  6
Continuous
 62
     4
100
AcDbCircle
 10
1716.681193701047
 20
1021.155535168278
 30
0.0
 40
0.9
  0
CIRCLE
  5
71FD
330
1E
100
AcDbEntity
  8
図枠
  6
Continuous
 62
     4
100
AcDbCircle
 10
1712.500737687613
 20
960.6097040828641
 30
0.0
 40
0.9
  0
CIRCLE
  5
71FE
330
1E
100
AcDbEntity
  8
図枠
  6
Continuous
 62
     4
100
AcDbCircle
 10
1732.230577692004
 20
1023.87778781171
 30
0.0
 40
0.9
  0
CIRCLE
  5
71FF
330
1E
100
AcDbEntity
  8
図枠
  6
Continuous
 62
     4
100
AcDbCircle
 10
1718.96415949231
 20
993.7929376282692
 30
0.0
 40
0.9
  0
CIRCLE
  5
7200
330
1E
100
AcDbEntity
  8
図枠
  6
Continuous
 62
     4
100
AcDbCircle
 10
1724.804231391759
 20
1001.180980392631
 30
0.0
 40
0.9
  0
CIRCLE
  5
7201
330
1E
100
AcDbEntity
  8
図枠
  6
Continuous
 62
     4
100
AcDbCircle
 10
1781.525404513984
 20
1048.606065288537
 30
0.0
 40
6.0
  0
TEXT
  5
7202
330
1E
100
AcDbEntity
  8
図枠
 62
     7
100
AcDbText
 10
1778.525404513985
 20
1045.606065288537
 30
0.0
 40
5.0
  1
６
100
AcDbText
  0
LINE
  5
7203
330
1E
100
AcDbEntity
  8
図枠
  6
Continuous
 62
     4
100
AcDbLine
 10
1764.600089402375
 20
1019.290559581115
 30
0.0
 11
1778.525404513985
 21
1043.409912865831
 31
0.0
  0
CIRCLE
  5
7204
330
1E
100
AcDbEntity
  8
図枠
  6
Continuous
 62
     4
100
AcDbCircle
 10
1732.148440247793
 20
999.4437024669666
 30
0.0
 40
0.9
  0
CIRCLE
  5
7205
330
1E
100
AcDbEntity
  8
図枠
  6
Continuous
 62
     4
100
AcDbCircle
 10
1759.961494503244
 20
1047.617325551075
 30
0.0
 40
6.0
  0
TEXT
  5
7206
330
1E
100
AcDbEntity
  8
図枠
 62
     7
100
AcDbText
 10
1756.961494503244
 20
1044.617325551076
 30
0.0
 40
5.0
  1
３
100
AcDbText
  0
LINE
  5
7207
330
1E
100
AcDbEntity
  8
図枠
  6
Continuous
 62
     4
100
AcDbLine
 10
1732.148440247793
 20
999.4437024669666
 30
0.0
 11
1756.961494503244
 21
1042.421173128369
 31
0.0
  0
CIRCLE
  5
7208
330
1E
100
AcDbEntity
  8
図枠
  6
Continuous
 62
     4
100
AcDbCircle
 10
1753.51766746438
 20
1060.748108842745
 30
0.0
 40
6.0
  0
LINE
  5
7209
330
1E
100
AcDbEntity
  8
図枠
  6
Continuous
 62
     4
100
AcDbLine
 10
1732.230577692004
 20
1023.87778781171
 30
0.0
 11
1750.51766746438
 21
1055.551956420038
 31
0.0
  0
CIRCLE
  5
720A
330
1E
100
AcDbEntity
  8
図枠
  6
Continuous
 62
     4
100
AcDbCircle
 10
1737.506726240079
 20
1057.226415620561
 30
0.0
 40
6.0
  0
TEXT
  5
720B
330
1E
100
AcDbEntity
  8
図枠
 62
     7
100
AcDbText
 10
1736.585917523527
 20
972.5783489908724
 30
0.0
 40
5.0
  1
８
100
AcDbText
  0
LINE
  5
720C
330
1E
100
AcDbEntity
  8
図枠
  6
Continuous
 62
     4
100
AcDbLine
 10
1716.681193701047
 20
1021.155535168278
 30
0.0
 11
1734.506726240079
 21
1052.030263197854
 31
0.0
  0
CIRCLE
  5
720D
330
1E
100
AcDbEntity
  8
図枠
  6
Continuous
 62
     4
100
AcDbCircle
 10
1739.585917523527
 20
975.5783489908724
 30
0.0
 40
6.0
  0
TEXT
  5
720E
330
1E
100
AcDbEntity
  8
図枠
 62
     7
100
AcDbText
 10
1691.557743278714
 20
965.936234006585
 30
0.0
 40
5.0
  1
20
100
AcDbText
  0
LINE
  5
720F
330
1E
100
AcDbEntity
  8
図枠
  6
Continuous
 62
     4
100
AcDbLine
 10
1724.804231391759
 20
1001.180980392631
 30
0.0
 11
1736.585917523527
 21
980.7745014135791
 31
0.0
  0
CIRCLE
  5
7210
330
1E
100
AcDbEntity
  8
図枠
  6
Continuous
 62
     4
100
AcDbCircle
 10
1738.386545157167
 20
960.1523788525403
 30
0.0
 40
6.0
  0
TEXT
  5
7211
330
1E
100
AcDbEntity
  8
図枠
 62
     7
100
AcDbText
 10
1735.136545157167
 20
957.1523788525404
 30
0.0
 40
5.0
  1
16
100
AcDbText
  0
LINE
  5
7212
330
1E
100
AcDbEntity
  8
図枠
  6
Continuous
 62
     4
100
AcDbLine
 10
1718.96415949231
 20
993.7929376282692
 30
0.0
 11
1735.386545157167
 21
965.3485312752469
 31
0.0
  0
CIRCLE
  5
7213
330
1E
100
AcDbEntity
  8
図枠
  6
Continuous
 62
     4
100
AcDbCircle
 10
1699.459123492866
 20
938.0209656848517
 30
0.0
 40
6.0
  0
TEXT
  5
7214
330
1E
100
AcDbEntity
  8
図枠
 62
     7
100
AcDbText
 10
1696.209123492866
 20
935.0209656848518
 30
0.0
 40
5.0
  1
17
100
AcDbText
  0
LINE
  5
7215
330
1E
100
AcDbEntity
  8
図枠
  6
Continuous
 62
     4
100
AcDbLine
 10
1712.500737687613
 20
960.6097040828641
 30
0.0
 11
1702.459123492866
 21
943.2171181075585
 31
0.0
  0
CIRCLE
  5
7216
330
1E
100
AcDbEntity
  8
図枠
  6
Continuous
 62
     4
100
AcDbCircle
 10
1707.504996910594
 20
990.9285224135885
 30
0.0
 40
0.9
  0
CIRCLE
  5
7217
330
1E
100
AcDbEntity
  8
図枠
  6
Continuous
 62
     4
100
AcDbCircle
 10
1694.807743278714
 20
968.9362340065851
 30
0.0
 40
6.0
  0
LINE
  5
7218
330
1E
100
AcDbEntity
  8
図枠
  6
Continuous
 62
     4
100
AcDbLine
 10
1707.504996910594
 20
990.9285224135885
 30
0.0
 11
1697.807743278714
 21
974.1323864292917
 31
0.0
  0
CIRCLE
  5
7219
330
1E
100
AcDbEntity
  8
図枠
  6
Continuous
 62
     4
100
AcDbCircle
 10
1824.380331373862
 20
1015.220512132789
 30
0.0
 40
0.9
  0
CIRCLE
  5
721A
330
1E
100
AcDbEntity
  8
図枠
  6
Continuous
 62
     4
100
AcDbCircle
 10
1851.972585778895
 20
1081.389316572765
 30
0.0
 40
6.0
  0
LINE
  5
721B
330
1E
100
AcDbEntity
  8
図枠
  6
Continuous
 62
     4
100
AcDbLine
 10
1823.836104635493
 20
1032.65550168619
 30
0.0
 11
1848.972585778895
 21
1076.193164150059
 31
0.0
  0
CIRCLE
  5
721C
330
1E
100
AcDbEntity
  8
図枠
  6
Continuous
 62
     4
100
AcDbCircle
 10
1823.836104635493
 20
1032.65550168619
 30
0.0
 40
0.9
  0
TEXT
  5
721D
330
1E
100
AcDbEntity
  8
図枠
 62
     7
100
AcDbText
 10
1848.972585778895
 20
1078.389316572766
 30
0.0
 40
5.0
  1
１
100
AcDbText
  0
CIRCLE
  5
721E
330
1E
100
AcDbEntity
  8
図枠
  6
Continuous
 62
     4
100
AcDbCircle
 10
1851.016812517263
 20
1061.356250808012
 30
0.0
 40
6.0
  0
TEXT
  5
721F
330
1E
100
AcDbEntity
  8
図枠
 62
     7
100
AcDbText
 10
1848.016812517263
 20
1058.356250808012
 30
0.0
 40
5.0
  1
９
100
AcDbText
  0
LINE
  5
7220
330
1E
100
AcDbEntity
  8
図枠
  6
Continuous
 62
     4
100
AcDbLine
 10
1824.380331373862
 20
1015.220512132789
 30
0.0
 11
1848.016812517263
 21
1056.160098385305
 31
0.0
  0
CIRCLE
  5
7221
330
1E
100
AcDbEntity
  8
図枠
  6
Continuous
 62
     4
100
AcDbCircle
 10
1799.604423056171
 20
947.1337413091152
 30
0.0
 40
0.9
  0
LINE
  5
7222
330
1E
100
AcDbEntity
  8
図枠
  6
Continuous
 62
     4
100
AcDbLine
 10
1799.604423056171
 20
947.1337413091152
 30
0.0
 11
1810.061870592802
 21
929.0209108581853
 31
0.0
  0
CIRCLE
  5
7223
330
1E
100
AcDbEntity
  8
図枠
  6
Continuous
 62
     4
100
AcDbCircle
 10
1813.061870592801
 20
923.8247584354786
 30
0.0
 40
6.0
  0
TEXT
  5
7224
330
1E
100
AcDbEntity
  8
図枠
 62
     7
100
AcDbText
 10
1809.811870592801
 20
920.8247584354788
 30
0.0
 40
5.0
  1
11
100
AcDbText
  0
CIRCLE
  5
7225
330
1E
100
AcDbEntity
  8
図枠
  6
Continuous
 62
     4
100
AcDbCircle
 10
1822.696169572922
 20
967.6390544577023
 30
0.0
 40
0.9
  0
LINE
  5
7226
330
1E
100
AcDbEntity
  8
図枠
  6
Continuous
 62
     4
100
AcDbLine
 10
1822.696169572922
 20
967.6390544577023
 30
0.0
 11
1847.664183389278
 21
1010.884922951713
 31
0.0
  0
CIRCLE
  5
7227
330
1E
100
AcDbEntity
  8
図枠
  6
Continuous
 62
     4
100
AcDbCircle
 10
1850.664183389278
 20
1016.08107537442
 30
0.0
 40
6.0
  0
TEXT
  5
7228
330
1E
100
AcDbEntity
  8
図枠
 62
     7
100
AcDbText
 10
1847.664183389278
 20
1013.08107537442
 30
0.0
 40
5.0
  1
５
100
AcDbText
  0
LINE
  5
7229
330
1E
100
AcDbEntity
  8
躯体と製品
  6
Continuous
 62
     7
100
AcDbLine
 10
1539.626748663615
 20
1103.584404318473
 30
0.0
 11
1564.626748663615
 21
1103.584404318473
 31
0.0
  0
LINE
  5
722A
330
1E
100
AcDbEntity
  8
躯体と製品
  6
Continuous
 62
     7
100
AcDbLine
 10
1558.126748663615
 20
1089.584404318473
 30
0.0
 11
1558.126748663615
 21
1102.584404318473
 31
0.0
  0
LINE
  5
722B
330
1E
100
AcDbEntity
  8
躯体と製品
  6
Continuous
 62
     7
100
AcDbLine
 10
1557.126748663615
 20
1103.584404318473
 30
0.0
 11
1555.126748663615
 21
1103.584404318473
 31
0.0
  0
ARC
  5
722C
330
1E
100
AcDbEntity
  8
躯体と製品
  6
Continuous
 62
     7
100
AcDbCircle
 10
1557.126748663615
 20
1102.584404318473
 30
0.0
 40
1.0
100
AcDbArc
 50
0.0
 51
90.0
  0
ARC
  5
722D
330
1E
100
AcDbEntity
  8
躯体と製品
  6
Continuous
 62
     7
100
AcDbCircle
 10
1555.126748663615
 20
1102.584404318473
 30
0.0
 40
1.0
100
AcDbArc
 50
90.0
 51
180.0
  0
LINE
  5
7232
330
1E
100
AcDbEntity
  8
躯体と製品
  6
Continuous
 62
     7
100
AcDbLine
 10
1539.626748663615
 20
1103.584404318473
 30
0.0
 11
1539.626748663615
 21
855.6923654810111
 31
0.0
  0
TEXT
  5
7237
330
1E
100
AcDbEntity
  8
寸法
 62
     7
100
AcDbText
 10
1674.126748663615
 20
1075.037716329288
 30
0.0
 40
5.0
  1
（キャップ幅）
100
AcDbText
  0
LINE
  5
723E
330
1E
100
AcDbEntity
  8
躯体と製品
  6
Continuous
 62
     7
100
AcDbLine
 10
1540.626748663615
 20
1088.584404318472
 30
0.0
 11
1541.626748663615
 21
1088.584404318472
 31
0.0
  0
LINE
  5
723F
330
1E
100
AcDbEntity
  8
躯体と製品
  6
Continuous
 62
     4
100
AcDbLine
 10
1539.626748663615
 20
1088.208138364723
 30
0.0
 11
1540.626748663615
 21
1087.208138364724
 31
0.0
  0
LINE
  5
7240
330
1E
100
AcDbEntity
  8
躯体と製品
  6
Continuous
 62
     4
100
AcDbLine
 10
1539.626748663615
 20
1086.79392480235
 30
0.0
 11
1540.626748663615
 21
1085.79392480235
 31
0.0
  0
LINE
  5
7241
330
1E
100
AcDbEntity
  8
躯体と製品
  6
Continuous
 62
     4
100
AcDbLine
 10
1539.626748663615
 20
1085.379711239976
 30
0.0
 11
1540.626748663616
 21
1084.379711239976
 31
0.0
  0
LINE
  5
7242
330
1E
100
AcDbEntity
  8
躯体と製品
  6
Continuous
 62
     4
100
AcDbLine
 10
1539.626748663614
 20
1083.965497677606
 30
0.0
 11
1540.626748663615
 21
1082.965497677605
 31
0.0
  0
LINE
  5
7243
330
1E
100
AcDbEntity
  8
躯体と製品
  6
Continuous
 62
     4
100
AcDbLine
 10
1539.626748663615
 20
1082.551284115232
 30
0.0
 11
1540.626748663615
 21
1081.551284115232
 31
0.0
  0
LINE
  5
7244
330
1E
100
AcDbEntity
  8
躯体と製品
  6
Continuous
 62
     4
100
AcDbLine
 10
1539.626748663615
 20
1081.137070552859
 30
0.0
 11
1540.626748663615
 21
1080.137070552859
 31
0.0
  0
LINE
  5
7245
330
1E
100
AcDbEntity
  8
躯体と製品
  6
Continuous
 62
     4
100
AcDbLine
 10
1539.626748663615
 20
1079.722856990485
 30
0.0
 11
1540.626748663614
 21
1078.722856990486
 31
0.0
  0
LINE
  5
7246
330
1E
100
AcDbEntity
  8
躯体と製品
  6
Continuous
 62
     4
100
AcDbLine
 10
1539.626748663614
 20
1078.308643428112
 30
0.0
 11
1540.626748663614
 21
1077.308643428113
 31
0.0
  0
LINE
  5
7247
330
1E
100
AcDbEntity
  8
躯体と製品
  6
Continuous
 62
     4
100
AcDbLine
 10
1539.626748663615
 20
1076.894429865739
 30
0.0
 11
1540.626748663615
 21
1075.894429865738
 31
0.0
  0
LINE
  5
7248
330
1E
100
AcDbEntity
  8
躯体と製品
  6
Continuous
 62
     4
100
AcDbLine
 10
1539.626748663614
 20
1075.480216303365
 30
0.0
 11
1540.626748663615
 21
1074.480216303365
 31
0.0
  0
LINE
  5
7249
330
1E
100
AcDbEntity
  8
躯体と製品
  6
Continuous
 62
     4
100
AcDbLine
 10
1539.626748663614
 20
1074.066002740992
 30
0.0
 11
1540.626748663615
 21
1073.066002740992
 31
0.0
  0
LINE
  5
724A
330
1E
100
AcDbEntity
  8
躯体と製品
  6
Continuous
 62
     4
100
AcDbLine
 10
1539.626748663615
 20
1072.65178917862
 30
0.0
 11
1540.626748663615
 21
1071.65178917862
 31
0.0
  0
LINE
  5
724B
330
1E
100
AcDbEntity
  8
躯体と製品
  6
Continuous
 62
     4
100
AcDbLine
 10
1539.626748663615
 20
1071.237575616246
 30
0.0
 11
1540.626748663615
 21
1070.237575616247
 31
0.0
  0
LINE
  5
724C
330
1E
100
AcDbEntity
  8
躯体と製品
  6
Continuous
 62
     4
100
AcDbLine
 10
1539.626748663615
 20
1069.823362053873
 30
0.0
 11
1540.626748663615
 21
1068.823362053874
 31
0.0
  0
LINE
  5
724D
330
1E
100
AcDbEntity
  8
躯体と製品
  6
Continuous
 62
     4
100
AcDbLine
 10
1539.626748663615
 20
1068.4091484915
 30
0.0
 11
1540.626748663615
 21
1067.4091484915
 31
0.0
  0
LINE
  5
724E
330
1E
100
AcDbEntity
  8
躯体と製品
  6
Continuous
 62
     4
100
AcDbLine
 10
1539.626748663615
 20
1066.994934929127
 30
0.0
 11
1540.626748663615
 21
1065.994934929127
 31
0.0
  0
LINE
  5
724F
330
1E
100
AcDbEntity
  8
躯体と製品
  6
Continuous
 62
     4
100
AcDbLine
 10
1539.626748663615
 20
1065.580721366753
 30
0.0
 11
1540.626748663615
 21
1064.580721366753
 31
0.0
  0
LINE
  5
7250
330
1E
100
AcDbEntity
  8
躯体と製品
  6
Continuous
 62
     4
100
AcDbLine
 10
1539.626748663615
 20
1064.16650780438
 30
0.0
 11
1540.626748663615
 21
1063.16650780438
 31
0.0
  0
LINE
  5
7251
330
1E
100
AcDbEntity
  8
躯体と製品
  6
Continuous
 62
     4
100
AcDbLine
 10
1539.626748663614
 20
1062.75229424201
 30
0.0
 11
1540.626748663614
 21
1061.752294242009
 31
0.0
  0
LINE
  5
7252
330
1E
100
AcDbEntity
  8
躯体と製品
  6
Continuous
 62
     4
100
AcDbLine
 10
1539.626748663615
 20
1061.338080679635
 30
0.0
 11
1540.626748663615
 21
1060.338080679635
 31
0.0
  0
LINE
  5
7253
330
1E
100
AcDbEntity
  8
躯体と製品
  6
Continuous
 62
     4
100
AcDbLine
 10
1539.626748663615
 20
1059.923867117262
 30
0.0
 11
1540.626748663615
 21
1058.923867117262
 31
0.0
  0
LINE
  5
7254
330
1E
100
AcDbEntity
  8
躯体と製品
  6
Continuous
 62
     3
100
AcDbLine
 10
1539.626748663615
 20
1088.584404318472
 30
0.0
 11
1539.626748663615
 21
1058.584404318472
 31
0.0
  0
LINE
  5
7255
330
1E
100
AcDbEntity
  8
躯体と製品
  6
Continuous
 62
     3
100
AcDbLine
 10
1539.626748663615
 20
1058.584404318472
 30
0.0
 11
1540.626748663615
 21
1058.584404318472
 31
0.0
  0
LINE
  5
7256
330
1E
100
AcDbEntity
  8
躯体と製品
  6
Continuous
 62
     3
100
AcDbLine
 10
1540.626748663615
 20
1058.584404318472
 30
0.0
 11
1540.626748663615
 21
1088.584404318472
 31
0.0
  0
LINE
  5
7257
330
1E
100
AcDbEntity
  8
躯体と製品
  6
Continuous
 62
     3
100
AcDbLine
 10
1540.626748663615
 20
1088.584404318472
 30
0.0
 11
1539.626748663615
 21
1088.584404318472
 31
0.0
  0
LINE
  5
7258
330
1E
100
AcDbEntity
  8
躯体と製品
  6
Continuous
 62
     7
100
AcDbLine
 10
1541.626748663615
 20
1012.084404318472
 30
0.0
 11
1541.626748663615
 21
1088.584404318472
 31
0.0
  0
LINE
  5
7259
330
1E
100
AcDbEntity
  8
躯体と製品
  6
Continuous
 62
     7
100
AcDbLine
 10
1540.626748663615
 20
1012.040743375564
 30
0.0
 11
1540.626748663615
 21
1058.584404318472
 31
0.0
  0
LINE
  5
7268
330
1E
100
AcDbEntity
  8
躯体と製品
  6
Continuous
 62
     7
100
AcDbLine
 10
1564.626748663615
 20
1178.584404318473
 30
0.0
 11
1564.626748663615
 21
1103.584404318473
 31
0.0
  0
LINE
  5
7272
330
1E
100
AcDbEntity
  8
躯体と製品
  6
Continuous
 62
     7
100
AcDbLine
 10
1554.126748663614
 20
1099.584404318473
 30
0.0
 11
1554.126748663614
 21
1102.584404318473
 31
0.0
  0
ARC
  5
7273
330
1E
100
AcDbEntity
  8
躯体と製品
  6
Continuous
 62
     7
100
AcDbCircle
 10
1592.251748663613
 20
1096.084404318473
 30
0.0
 40
28.62499999999828
100
AcDbArc
 50
164.8107132628162
 51
195.1892867371838
  0
LINE
  5
7274
330
1E
100
AcDbEntity
  8
躯体と製品
  6
Continuous
 62
     4
100
AcDbLine
 10
1556.258007361094
 20
1095.589543445624
 30
0.0
 11
1557.986358709837
 21
1089.073453666811
 31
0.0
  0
LINE
  5
7275
330
1E
100
AcDbEntity
  8
躯体と製品
  6
Continuous
 62
     4
100
AcDbLine
 10
1558.126748663615
 20
1102.193358021381
 30
0.0
 11
1559.517794960706
 21
1103.584404318473
 31
0.0
  0
LINE
  5
7276
330
1E
100
AcDbEntity
  8
躯体と製品
  6
Continuous
 62
     4
100
AcDbLine
 10
1558.126748663615
 20
1099.364930896634
 30
0.0
 11
1562.346222085453
 21
1103.584404318473
 31
0.0
  0
LINE
  5
7277
330
1E
100
AcDbEntity
  8
躯体と製品
  6
Continuous
 62
     4
100
AcDbLine
 10
1561.488357709187
 20
1088.584404318473
 30
0.0
 11
1564.055060798073
 21
1091.151107407359
 31
0.0
  0
LINE
  5
7278
330
1E
100
AcDbEntity
  8
躯体と製品
  6
Continuous
 62
     4
100
AcDbLine
 10
1558.65993058444
 20
1088.584404318472
 30
0.0
 11
1563.730065981627
 21
1093.65453971566
 31
0.0
  0
LINE
  5
7279
330
1E
100
AcDbEntity
  8
躯体と製品
  6
Continuous
 62
     4
100
AcDbLine
 10
1558.126748663615
 20
1090.879649522394
 30
0.0
 11
1563.628287230846
 21
1096.381188089626
 31
0.0
  0
LINE
  5
727A
330
1E
100
AcDbEntity
  8
躯体と製品
  6
Continuous
 62
     4
100
AcDbLine
 10
1558.126748663615
 20
1093.708076647141
 30
0.0
 11
1563.819516025678
 21
1099.400844009204
 31
0.0
  0
LINE
  5
727B
330
1E
100
AcDbEntity
  8
躯体と製品
  6
Continuous
 62
     4
100
AcDbLine
 10
1558.126748663615
 20
1096.536503771887
 30
0.0
 11
1564.436976402343
 21
1102.846731510616
 31
0.0
  0
LINE
  5
727E
330
1E
100
AcDbEntity
  8
躯体と製品
  6
Continuous
 62
     4
100
AcDbLine
 10
1554.267138617392
 20
1103.095354970134
 30
0.0
 11
1555.645984637616
 21
1097.896941773956
 31
0.0
  0
TEXT
  5
727F
330
1E
100
AcDbEntity
  8
図枠
 62
     6
100
AcDbText
 10
1291.468564752508
 20
1135.956936081583
 30
0.0
 40
10.0
  1
　　Ｓ＝１／２
100
AcDbText
  0
TEXT
  5
7280
330
1E
100
AcDbEntity
  8
図枠
 62
     6
100
AcDbText
 10
1288.421463303233
 20
1154.239544777235
 30
0.0
 40
10.0
  1
　　屋根－壁（ストレート壁）
100
AcDbText
  0
TEXT
  5
7281
330
1E
100
AcDbEntity
  8
図枠
 62
     6
100
AcDbText
 10
1292.4842652356
 20
1173.537853955979
 30
0.0
 40
10.0
  1
◇アルミ１００タイプ（１００ＦＹＫ－Ａ）
100
AcDbText
  0
DIMENSION
  5
7287
330
1E
100
AcDbEntity
  8
寸法
  6
Continuous
100
AcDbDimension
  2
*D4
 10
1464.626748663615
 20
985.6923654810112
 30
0.0
 11
1461.126748663614
 21
1044.638384899742
 31
0.0
 70
    32
  1
E
 71
     5
 42
117.8920388374616
  3
AutoCAD
100
AcDbAlignedDimension
 13
1537.626748663615
 23
1103.584404318473
 33
0.0
 14
1635.911282044966
 24
985.6923654810112
 34
0.0
 50
90.0
100
AcDbRotatedDimension
  0
DIMENSION
  5
7294
330
1E
100
AcDbEntity
  8
寸法
  6
Continuous
100
AcDbDimension
  2
*D5
 10
1484.626748663615
 20
1044.584404318473
 30
0.0
 11
1481.126748663615
 21
1015.138384899742
 31
0.0
 70
    32
  1
D
 71
     5
 42
58.89203883746143
  3
AutoCAD
100
AcDbAlignedDimension
 13
1635.911282044966
 23
985.6923654810112
 33
0.0
 14
1484.626748663615
 24
1044.584404318473
 34
0.0
 50
90.0
100
AcDbRotatedDimension
  0
DIMENSION
  5
72A0
330
1E
100
AcDbEntity
  8
寸法
  6
Continuous
100
AcDbDimension
  2
*D6
 10
1574.126748663615
 20
1148.584404318473
 30
0.0
 11
1557.376748663615
 21
1152.084404318473
 31
0.0
 70
    32
  1
33.5
 71
     5
 42
33.5
  3
AutoCAD
100
AcDbAlignedDimension
 13
1540.626748663615
 23
1090.584404318472
 33
0.0
 14
1574.126748663615
 24
1090.584404318472
 34
0.0
100
AcDbRotatedDimension
  0
DIMENSION
  5
72AD
330
1E
100
AcDbEntity
  8
寸法
  6
Continuous
100
AcDbDimension
  2
*D7
 10
1574.126748663615
 20
1133.584404318473
 30
0.0
 11
1564.126748663615
 21
1137.084404318473
 31
0.0
 70
    32
 71
     5
 42
20.0
  3
AutoCAD
100
AcDbAlignedDimension
 13
1554.126748663614
 23
1105.584404318473
 33
0.0
 14
1574.126748663615
 24
1103.584404318473
 34
0.0
100
AcDbRotatedDimension
  0
DIMENSION
  5
72BA
330
1E
100
AcDbEntity
  8
寸法
  6
Continuous
100
AcDbDimension
  2
*D8
 10
1840.626748663615
 20
1163.584404318473
 30
0.0
 11
1690.626748663614
 21
1167.084404318473
 31
0.0
 70
    32
  1
W
 71
     5
 42
300.0000000000002
  3
AutoCAD
100
AcDbAlignedDimension
 13
1540.626748663615
 23
1090.584404318472
 33
0.0
 14
1840.626748663615
 24
1081.584404318473
 34
0.0
100
AcDbRotatedDimension
  0
DIMENSION
  5
72D3
330
1E
100
AcDbEntity
  8
寸法
  6
Continuous
100
AcDbDimension
  2
*D9
 10
1840.626748663615
 20
1081.584404318473
 30
0.0
 11
1698.126748663615
 21
1085.084404318473
 31
0.0
 70
    32
  1
A
 71
     5
 42
285.0000000000002
  3
AutoCAD
100
AcDbAlignedDimension
 13
1555.626748663615
 23
1061.703928966002
 33
0.0
 14
1840.626748663615
 24
1034.767711870336
 34
0.0
100
AcDbRotatedDimension
  0
DIMENSION
  5
72E0
330
1E
100
AcDbEntity
  8
寸法
  6
Continuous
100
AcDbDimension
  2
*D10
 10
1609.126748663615
 20
1088.584404318472
 30
0.0
 11
1605.626748663615
 21
1096.084404318473
 31
0.0
 70
    32
 71
     5
 42
15.0
  3
AutoCAD
100
AcDbAlignedDimension
 13
1566.626748663615
 23
1103.584404318473
 33
0.0
 14
1576.126748663615
 24
1088.584404318472
 34
0.0
 50
90.0
100
AcDbRotatedDimension
  0
DIMENSION
  5
72ED
330
1E
100
AcDbEntity
  8
寸法
  6
Continuous
100
AcDbDimension
  2
*D11
 10
1609.376748663615
 20
1088.584404318472
 30
0.0
 11
1605.876748663615
 21
1070.584404318473
 31
0.0
 70
    32
 71
     5
 42
36.0
  3
AutoCAD
100
AcDbAlignedDimension
 13
1576.126748663615
 23
1052.584404318473
 33
0.0
 14
1576.126748663615
 24
1088.584404318472
 34
0.0
 50
90.0
100
AcDbRotatedDimension
  0
DIMENSION
  5
72FA
330
1E
100
AcDbEntity
  8
寸法
  6
Continuous
100
AcDbDimension
  2
*D12
 10
1900.626748663615
 20
942.7677118703357
 30
0.0
 11
1897.126748663614
 21
987.7677118703362
 31
0.0
 70
    32
 71
     5
 42
90.00000000000012
  3
AutoCAD
100
AcDbAlignedDimension
 13
1842.626748663615
 23
1032.767711870336
 33
0.0
 14
1842.626748663615
 24
942.7677118703357
 34
0.0
 50
90.0
100
AcDbRotatedDimension
  0
DIMENSION
  5
7307
330
1E
100
AcDbEntity
  8
寸法
  6
Continuous
100
AcDbDimension
  2
*D13
 10
1880.626748663615
 20
942.7677118703357
 30
0.0
 11
1877.126748663615
 21
964.2300386756737
 31
0.0
 70
    32
  1
44
 71
     5
 42
42.92465361067525
  3
AutoCAD
100
AcDbAlignedDimension
 13
1768.330475142241
 23
985.6923654810112
 33
0.0
 14
1842.626748663615
 24
942.7677118703357
 34
0.0
 50
90.0
100
AcDbRotatedDimension
  0
DIMENSION
  5
7314
330
1E
100
AcDbEntity
  8
寸法
  6
Continuous
100
AcDbDimension
  2
*D14
 10
1764.626748663616
 20
870.6923654810109
 30
0.0
 11
1802.626748663615
 21
874.192365481011
 31
0.0
 70
    32
  1
75≦
 71
     5
 42
75.99999999999932
  3
AutoCAD
100
AcDbAlignedDimension
 13
1840.626748663615
 23
940.7677118703357
 33
0.0
 14
1764.626748663616
 24
870.6923654810109
 34
0.0
100
AcDbRotatedDimension
  0
DIMENSION
  5
7320
330
1E
100
AcDbEntity
  8
寸法
  6
Continuous
100
AcDbDimension
  2
*D15
 10
1714.626748663615
 20
925.6923654810112
 30
0.0
 11
1739.626748663615
 21
929.1923654810112
 31
0.0
 70
    32
 71
     5
 42
50.0
  3
AutoCAD
100
AcDbAlignedDimension
 13
1764.626748663615
 23
925.6923654810112
 33
0.0
 14
1714.626748663615
 24
925.6923654810112
 34
0.0
100
AcDbRotatedDimension
  0
DIMENSION
  5
732B
330
1E
100
AcDbEntity
  8
寸法
  6
Continuous
100
AcDbDimension
  2
*D16
 10
1639.626748663615
 20
870.6923654810109
 30
0.0
 11
1589.626748663615
 21
874.192365481011
 31
0.0
 70
    32
 71
     5
 42
100.0000000000007
  3
AutoCAD
100
AcDbAlignedDimension
 13
1539.626748663615
 23
870.6923654810109
 33
0.0
 14
1639.626748663615
 24
870.6923654810109
 34
0.0
100
AcDbRotatedDimension
  0
DIMENSION
  5
7336
330
1E
100
AcDbEntity
  8
寸法
  6
Continuous
100
AcDbDimension
  2
*D17
 10
1764.626748663616
 20
870.442365481011
 30
0.0
 11
1702.229210015654
 21
873.9423654810108
 31
0.0
 70
    32
  1
≦C
 71
     5
 42
124.7950772959232
  3
AutoCAD
100
AcDbAlignedDimension
 13
1639.831671367693
 23
870.5491639260129
 33
0.0
 14
1764.626748663616
 24
870.442365481011
 34
0.0
100
AcDbRotatedDimension
  0
ENDSEC
  0
SECTION
  2
OBJECTS
  0
DICTIONARY
  5
C
330
0
100
AcDbDictionary
281
     1
  3
ACAD_COLOR
350
6779
  3
ACAD_GROUP
350
D
  3
ACAD_LAYOUT
350
19
  3
ACAD_MATERIAL
350
6778
  3
ACAD_MLINESTYLE
350
16
  3
ACAD_PLOTSETTINGS
350
18
  3
ACAD_PLOTSTYLENAME
350
E
  3
ACAD_TABLESTYLE
350
677A
  3
ACDBHEADERROUNDTRIPXREC
350
7396
  3
AcDbVariableDictionary
350
169
  0
DICTIONARY
  5
175
330
2
100
AcDbDictionary
280
     1
281
     1
  3
ACAD_LAYERFILTERS
360
7286
  3
ACAD_LAYERSTATES
360
176
  3
ACLYDICTIONARY
360
7285
  0
DICTIONARY
  5
28B
330
1E
100
AcDbDictionary
280
     1
281
     1
  3
ACAD_LAYOUTSELFREF
360
6771
  0
DICTIONARY
  5
28D
330
1A
100
AcDbDictionary
280
     1
281
     1
  3
ACAD_LAYOUTSELFREF
360
6770
  0
DICTIONARY
  5
6779
102
{ACAD_REACTORS
330
C
102
}
330
C
100
AcDbDictionary
281
     1
  0
DICTIONARY
  5
D
102
{ACAD_REACTORS
330
C
102
}
330
C
100
AcDbDictionary
281
     1
  0
DICTIONARY
  5
19
102
{ACAD_REACTORS
330
C
102
}
330
C
100
AcDbDictionary
281
     1
  3
Model
350
21
  3
ﾚｲｱｳﾄ1
350
1D
  0
DICTIONARY
  5
6778
102
{ACAD_REACTORS
330
C
102
}
330
C
100
AcDbDictionary
281
     1
  0
DICTIONARY
  5
16
102
{ACAD_REACTORS
330
C
102
}
330
C
100
AcDbDictionary
281
     1
  3
Standard
350
17
  0
DICTIONARY
  5
18
102
{ACAD_REACTORS
330
C
102
}
330
C
100
AcDbDictionary
281
     1
  0
ACDBDICTIONARYWDFLT
  5
E
102
{ACAD_REACTORS
330
C
102
}
330
C
100
AcDbDictionary
281
     1
  3
Normal
350
F
100
AcDbDictionaryWithDefault
340
F
1001
ACAD
1000
TREAT_AS_HARD
1070
     0
1000
TREAT_AS_HARD
1070
     0
1000
TREAT_AS_HARD
1070
     0
1000
TREAT_AS_HARD
1070
     0
1000
TREAT_AS_HARD
1070
     0
1000
TREAT_AS_HARD
1070
     0
1000
TREAT_AS_HARD
1070
     0
1000
TREAT_AS_HARD
1070
     0
1000
TREAT_AS_HARD
1070
     0
1000
TREAT_AS_HARD
1070
     0
1000
TREAT_AS_HARD
1070
     0
1000
TREAT_AS_HARD
1070
     0
1000
TREAT_AS_HARD
1070
     0
1000
TREAT_AS_HARD
1070
     0
1000
TREAT_AS_HARD
1070
     0
1000
TREAT_AS_HARD
1070
     0
1000
TREAT_AS_HARD
1070
     0
1000
TREAT_AS_HARD
1070
     0
1000
TREAT_AS_HARD
1070
     0
1000
TREAT_AS_HARD
1070
     0
1000
TREAT_AS_HARD
1070
     0
1000
TREAT_AS_HARD
1070
     0
1000
TREAT_AS_HARD
1070
     0
1000
TREAT_AS_HARD
1070
     0
1000
TREAT_AS_HARD
1070
     0
1000
TREAT_AS_HARD
1070
     0
  0
DICTIONARY
  5
677A
102
{ACAD_REACTORS
330
C
102
}
330
C
100
AcDbDictionary
281
     1
  3
Standard
350
677B
  0
DICTIONARY
  5
7396
102
{ACAD_REACTORS
330
C
102
}
330
C
100
AcDbDictionary
281
     1
  0
DICTIONARY
  5
169
102
{ACAD_REACTORS
330
C
102
}
330
C
100
AcDbDictionary
281
     1
  3
CTABLESTYLE
350
6782
  3
DIMASSOC
350
16A
  3
PROJECTNAME
350
7394
  0
DICTIONARY
  5
7286
102
{ACAD_REACTORS
330
175
102
}
330
175
100
AcDbDictionary
281
     1
  0
DICTIONARY
  5
176
102
{ACAD_REACTORS
330
175
102
}
330
175
100
AcDbDictionary
281
     1
  3
ACAD
350
177
  0
DICTIONARY
  5
7285
102
{ACAD_REACTORS
330
175
102
}
330
175
100
AcDbDictionary
281
     1
1001
ACAD
1000
<All
  0
XRECORD
  5
6771
102
{ACAD_REACTORS
330
28B
102
}
330
28B
100
AcDbXrecord
280
     1
340
1E
  0
XRECORD
  5
6770
102
{ACAD_REACTORS
330
28D
102
}
330
28D
100
AcDbXrecord
280
     1
340
1A
  0
LAYOUT
  5
21
102
{ACAD_XDICTIONARY
360
7399
102
}
102
{ACAD_REACTORS
330
19
102
}
330
19
100
AcDbPlotSettings
  1

  2
\\MEISEI-1\EPSON Stylus Photo EX3
  4

  6

 40
0.0
 41
0.0
 42
0.0
 43
0.0
 44
0.0
 45
0.0
 46
0.0
 47
0.0
 48
0.0
 49
0.0
140
0.0
141
0.0
142
1.0
143
1.0
 70
  1712
 72
     0
 73
     0
 74
     0
  7

 75
     0
147
1.0
148
0.0
149
0.0
100
AcDbLayout
  1
Model
 70
     1
 71
     0
 10
0.0
 20
0.0
 11
12.0
 21
9.0
 12
0.0
 22
0.0
 32
0.0
 14
0.0
 24
0.0
 34
0.0
 15
0.0
 25
0.0
 35
0.0
146
0.0
 13
0.0
 23
0.0
 33
0.0
 16
1.0
 26
0.0
 36
0.0
 17
0.0
 27
1.0
 37
0.0
 76
     0
330
1E
  0
LAYOUT
  5
1D
102
{ACAD_XDICTIONARY
360
7397
102
}
102
{ACAD_REACTORS
330
19
102
}
330
19
100
AcDbPlotSettings
  1

  2
\\MEISEI-1\EPSON Stylus Photo EX3
  4

  6

 40
0.0
 41
0.0
 42
0.0
 43
0.0
 44
0.0
 45
0.0
 46
0.0
 47
0.0
 48
0.0
 49
0.0
140
0.0
141
0.0
142
1.0
143
1.0
 70
   688
 72
     0
 73
     0
 74
     5
  7

 75
    16
147
1.0
148
0.0
149
0.0
100
AcDbLayout
  1
ﾚｲｱｳﾄ1
 70
     1
 71
     1
 10
0.0
 20
0.0
 11
12.0
 21
9.0
 12
0.0
 22
0.0
 32
0.0
 14
1.000000000000000E+20
 24
1.000000000000000E+20
 34
1.000000000000000E+20
 15
-1.000000000000000E+20
 25
-1.000000000000000E+20
 35
-1.000000000000000E+20
146
0.0
 13
0.0
 23
0.0
 33
0.0
 16
1.0
 26
0.0
 36
0.0
 17
0.0
 27
1.0
 37
0.0
 76
     0
330
1A
  0
MLINESTYLE
  5
17
102
{ACAD_REACTORS
330
16
102
}
330
16
100
AcDbMlineStyle
  2
STANDARD
 70
     0
  3

 62
   256
 51
90.0
 52
90.0
 71
     2
 49
0.5
 62
   256
  6
BYLAYER
 49
-0.5
 62
   256
  6
BYLAYER
  0
ACDBPLACEHOLDER
  5
F
102
{ACAD_REACTORS
330
E
102
}
330
E
  0
TABLESTYLE
  5
677B
102
{ACAD_REACTORS
330
677A
102
}
330
677A
100
AcDbTableStyle
  3
Standard
 70
     0
 71
     0
 40
0.06
 41
0.06
280
     0
281
     0
  7
STANDARD
140
0.18
170
     2
 62
     0
 63
     7
283
     0
274
    -2
284
     1
 64
     0
275
    -2
285
     1
 65
     0
276
    -2
286
     1
 66
     0
277
    -2
287
     1
 67
     0
278
    -2
288
     1
 68
     0
279
    -2
289
     1
 69
     0
  7
STANDARD
140
0.25
170
     5
 62
     0
 63
     7
283
     0
274
    -2
284
     1
 64
     0
275
    -2
285
     1
 65
     0
276
    -2
286
     1
 66
     0
277
    -2
287
     1
 67
     0
278
    -2
288
     1
 68
     0
279
    -2
289
     1
 69
     0
  7
STANDARD
140
0.18
170
     5
 62
     0
 63
     7
283
     0
274
    -2
284
     1
 64
     0
275
    -2
285
     1
 65
     0
276
    -2
286
     1
 66
     0
277
    -2
287
     1
 67
     0
278
    -2
288
     1
 68
     0
279
    -2
289
     1
 69
     0
  0
DICTIONARYVAR
  5
6782
102
{ACAD_REACTORS
330
169
102
}
330
169
100
DictionaryVariables
280
     0
  1
STANDARD
  0
DICTIONARYVAR
  5
16A
102
{ACAD_REACTORS
330
169
102
}
330
169
100
DictionaryVariables
280
     0
  1
1
  0
DICTIONARYVAR
  5
7394
102
{ACAD_REACTORS
330
169
102
}
330
169
100
DictionaryVariables
280
     0
  1

  0
XRECORD
  5
177
102
{ACAD_REACTORS
330
176
102
}
330
176
100
AcDbXrecord
280
     1
 91
      476
330
179
 90
        8
 62
     7
370
    -3
331
15
  1
Color_7
330
178
 90
        8
 62
     7
370
    -3
331
15
  1
Color_7
330
128
 90
        0
 62
     7
370
    -3
331
15
  1
Color_7
330
10
 90
        8
 62
     7
370
    -3
331
15
  1
Color_7
  0
DICTIONARY
  5
7399
330
21
100
AcDbDictionary
280
     1
281
     1
  3
ACAD_XREC_ROUNDTRIP
360
739A
  0
DICTIONARY
  5
7397
330
1D
100
AcDbDictionary
280
     1
281
     1
  3
ACAD_XREC_ROUNDTRIP
360
7398
  0
XRECORD
  5
739A
102
{ACAD_REACTORS
330
7399
102
}
330
7399
100
AcDbXrecord
280
     1
102
SHADEPLOT
 70
     0
102
SHADEPLOTRESLEVEL
 70
     2
102
SHADEPLOTCUSTOMDPI
 70
   300
  0
XRECORD
  5
7398
102
{ACAD_REACTORS
330
7397
102
}
330
7397
100
AcDbXrecord
280
     1
102
SHADEPLOT
 70
     0
102
SHADEPLOTRESLEVEL
 70
     2
102
SHADEPLOTCUSTOMDPI
 70
   300
  0
ENDSEC
  0
EOF
